  0
SECTION
  2
HEADER
  9
$ACADVER
  1
AC1015
  9
$ACADMAINTVER
 70
    20
  9
$DWGCODEPAGE
  3
ANSI_950
  9
$INSBASE
 10
0.0
 20
0.0
 30
0.0
  9
$EXTMIN
 10
1.000000000000000E+20
 20
1.000000000000000E+20
 30
1.000000000000000E+20
  9
$EXTMAX
 10
-1.000000000000000E+20
 20
-1.000000000000000E+20
 30
-1.000000000000000E+20
  9
$LIMMIN
 10
0.0
 20
0.0
  9
$LIMMAX
 10
420.0
 20
297.0
  9
$ORTHOMODE
 70
     0
  9
$REGENMODE
 70
     1
  9
$FILLMODE
 70
     1
  9
$QTEXTMODE
 70
     0
  9
$MIRRTEXT
 70
     1
  9
$LTSCALE
 40
1.0
  9
$ATTMODE
 70
     1
  9
$TEXTSIZE
 40
7.0
  9
$TRACEWID
 40
1.0
  9
$TEXTSTYLE
  7
STANDARD
  9
$CLAYER
  8
0
  9
$CELTYPE
  6
BYLAYER
  9
$CECOLOR
 62
   256
  9
$CELTSCALE
 40
1.0
  9
$DISPSILH
 70
     0
  9
$DIMSCALE
 40
2.898441249355007
  9
$DIMASZ
 40
2.5
  9
$DIMEXO
 40
1.0
  9
$DIMDLI
 40
8.0
  9
$DIMRND
 40
0.0
  9
$DIMDLE
 40
0.0
  9
$DIMEXE
 40
1.0
  9
$DIMTP
 40
0.1
  9
$DIMTM
 40
0.1
  9
$DIMTXT
 40
3.5
  9
$DIMCEN
 40
0.0
  9
$DIMTSZ
 40
0.0
  9
$DIMTOL
 70
     0
  9
$DIMLIM
 70
     0
  9
$DIMTIH
 70
     0
  9
$DIMTOH
 70
     0
  9
$DIMSE1
 70
     0
  9
$DIMSE2
 70
     0
  9
$DIMTAD
 70
     1
  9
$DIMZIN
 70
     8
  9
$DIMBLK
  1

  9
$DIMASO
 70
     1
  9
$DIMSHO
 70
     1
  9
$DIMPOST
  1

  9
$DIMAPOST
  1
"
  9
$DIMALT
 70
     0
  9
$DIMALTD
 70
     2
  9
$DIMALTF
 40
0.0393701
  9
$DIMLFAC
 40
1.0
  9
$DIMTOFL
 70
     1
  9
$DIMTVP
 40
0.0
  9
$DIMTIX
 70
     0
  9
$DIMSOXD
 70
     0
  9
$DIMSAH
 70
     0
  9
$DIMBLK1
  1

  9
$DIMBLK2
  1

  9
$DIMSTYLE
  2
AM_ISO
  9
$DIMCLRD
 70
   256
  9
$DIMCLRE
 70
   256
  9
$DIMCLRT
 70
   256
  9
$DIMTFAC
 40
0.71
  9
$DIMGAP
 40
1.0
  9
$DIMJUST
 70
     0
  9
$DIMSD1
 70
     0
  9
$DIMSD2
 70
     0
  9
$DIMTOLJ
 70
     0
  9
$DIMTZIN
 70
     8
  9
$DIMALTZ
 70
     8
  9
$DIMALTTZ
 70
     0
  9
$DIMUPT
 70
     0
  9
$DIMDEC
 70
     2
  9
$DIMTDEC
 70
     8
  9
$DIMALTU
 70
     2
  9
$DIMALTTD
 70
     2
  9
$DIMTXSTY
  7
STANDARD
  9
$DIMAUNIT
 70
     0
  9
$DIMADEC
 70
     0
  9
$DIMALTRND
 40
0.0
  9
$DIMAZIN
 70
     2
  9
$DIMDSEP
 70
    46
  9
$DIMATFIT
 70
     3
  9
$DIMFRAC
 70
     0
  9
$DIMLDRBLK
  1

  9
$DIMLUNIT
 70
     2
  9
$DIMLWD
 70
    -1
  9
$DIMLWE
 70
    -1
  9
$DIMTMOVE
 70
     0
  9
$LUNITS
 70
     2
  9
$LUPREC
 70
     2
  9
$SKETCHINC
 40
1.0
  9
$FILLETRAD
 40
2.5
  9
$AUNITS
 70
     0
  9
$AUPREC
 70
     0
  9
$MENU
  1
.
  9
$ELEVATION
 40
0.0
  9
$PELEVATION
 40
0.0
  9
$THICKNESS
 40
0.0
  9
$LIMCHECK
 70
     0
  9
$CHAMFERA
 40
2.5
  9
$CHAMFERB
 40
2.5
  9
$CHAMFERC
 40
20.0
  9
$CHAMFERD
 40
0.0
  9
$SKPOLY
 70
     0
  9
$TDCREATE
 40
2454887.664320868
  9
$TDUCREATE
 40
2454887.330987535
  9
$TDUPDATE
 40
2456014.439653495
  9
$TDUUPDATE
 40
2456014.106320162
  9
$TDINDWG
 40
0.3407305208
  9
$TDUSRTIMER
 40
0.3407305208
  9
$USRTIMER
 70
     1
  9
$ANGBASE
 50
0.0
  9
$ANGDIR
 70
     0
  9
$PDMODE
 70
     0
  9
$PDSIZE
 40
0.0
  9
$PLINEWID
 40
0.0
  9
$SPLFRAME
 70
     0
  9
$SPLINETYPE
 70
     6
  9
$SPLINESEGS
 70
     8
  9
$HANDSEED
  5
22BC
  9
$SURFTAB1
 70
     6
  9
$SURFTAB2
 70
     6
  9
$SURFTYPE
 70
     6
  9
$SURFU
 70
     6
  9
$SURFV
 70
     6
  9
$UCSBASE
  2

  9
$UCSNAME
  2

  9
$UCSORG
 10
0.0
 20
0.0
 30
0.0
  9
$UCSXDIR
 10
1.0
 20
0.0
 30
0.0
  9
$UCSYDIR
 10
0.0
 20
1.0
 30
0.0
  9
$UCSORTHOREF
  2

  9
$UCSORTHOVIEW
 70
     0
  9
$UCSORGTOP
 10
0.0
 20
0.0
 30
0.0
  9
$UCSORGBOTTOM
 10
0.0
 20
0.0
 30
0.0
  9
$UCSORGLEFT
 10
0.0
 20
0.0
 30
0.0
  9
$UCSORGRIGHT
 10
0.0
 20
0.0
 30
0.0
  9
$UCSORGFRONT
 10
0.0
 20
0.0
 30
0.0
  9
$UCSORGBACK
 10
0.0
 20
0.0
 30
0.0
  9
$PUCSBASE
  2

  9
$PUCSNAME
  2

  9
$PUCSORG
 10
0.0
 20
0.0
 30
0.0
  9
$PUCSXDIR
 10
1.0
 20
0.0
 30
0.0
  9
$PUCSYDIR
 10
0.0
 20
1.0
 30
0.0
  9
$PUCSORTHOREF
  2

  9
$PUCSORTHOVIEW
 70
     0
  9
$PUCSORGTOP
 10
0.0
 20
0.0
 30
0.0
  9
$PUCSORGBOTTOM
 10
0.0
 20
0.0
 30
0.0
  9
$PUCSORGLEFT
 10
0.0
 20
0.0
 30
0.0
  9
$PUCSORGRIGHT
 10
0.0
 20
0.0
 30
0.0
  9
$PUCSORGFRONT
 10
0.0
 20
0.0
 30
0.0
  9
$PUCSORGBACK
 10
0.0
 20
0.0
 30
0.0
  9
$USERI1
 70
     0
  9
$USERI2
 70
     0
  9
$USERI3
 70
     0
  9
$USERI4
 70
     0
  9
$USERI5
 70
     0
  9
$USERR1
 40
0.0
  9
$USERR2
 40
0.0
  9
$USERR3
 40
0.0
  9
$USERR4
 40
0.0
  9
$USERR5
 40
0.0
  9
$WORLDVIEW
 70
     1
  9
$SHADEDGE
 70
     3
  9
$SHADEDIF
 70
    70
  9
$TILEMODE
 70
     0
  9
$MAXACTVP
 70
    48
  9
$PINSBASE
 10
0.0
 20
0.0
 30
0.0
  9
$PLIMCHECK
 70
     0
  9
$PEXTMIN
 10
114.7352868659366
 20
-250.6174446994476
 30
0.0
  9
$PEXTMAX
 10
1010.088692216182
 20
374.8094151255151
 30
490.3341679020062
  9
$PLIMMIN
 10
173.6315610487613
 20
-213.5220714108668
  9
$PLIMMAX
 10
1034.254112594574
 20
395.0732826757327
  9
$UNITMODE
 70
     0
  9
$VISRETAIN
 70
     1
  9
$PLINEGEN
 70
     0
  9
$PSLTSCALE
 70
     1
  9
$TREEDEPTH
 70
  3020
  9
$CMLSTYLE
  2
STANDARD
  9
$CMLJUST
 70
     0
  9
$CMLSCALE
 40
1.0
  9
$PROXYGRAPHICS
 70
     1
  9
$MEASUREMENT
 70
     1
  9
$CELWEIGHT
370
    -1
  9
$ENDCAPS
280
     0
  9
$JOINSTYLE
280
     0
  9
$LWDISPLAY
290
     0
  9
$INSUNITS
 70
     4
  9
$HYPERLINKBASE
  1

  9
$STYLESHEET
  1

  9
$XEDIT
290
     1
  9
$CEPSNTYPE
380
     0
  9
$PSTYLEMODE
290
     1
  9
$FINGERPRINTGUID
  2
{B2A0775F-5BC5-46DD-99B3-392FFA2DE70E}
  9
$VERSIONGUID
  2
{2D5C0207-6B26-40A0-B452-00B29A83FDDC}
  9
$EXTNAMES
290
     1
  9
$PSVPSCALE
 40
0.0
  9
$OLESTARTUP
290
     0
  0
ENDSEC
  0
SECTION
  2
CLASSES
  0
CLASS
  1
DICTIONARYVAR
  2
AcDbDictionaryVar
  3
ObjectDBX Classes
 90
        0
280
     0
281
     0
  0
CLASS
  1
ACMESTATEMGR
  2
AcMeStateMgr
  3
AcMeServices
 90
        0
280
     0
281
     0
  0
CLASS
  1
ACMESCOPE
  2
AcMeScope
  3
AcMeServices
 90
        0
280
     0
281
     0
  0
CLASS
  1
ACMECOMMANDHISTORY
  2
AcMeCommandHistory
  3
AcMeServices
 90
        0
280
     0
281
     0
  0
CLASS
  1
ACRFINSADJUSTERMGR
  2
AcRfInsAdjusterMgr
  3
AcMeServices
 90
        0
280
     0
281
     0
  0
CLASS
  1
ACMEDRAWINGMAN
  2
AcMeDrawingMan
  3
AcMeServices
 90
        0
280
     0
281
     0
  0
CLASS
  1
AMATTR
  2
AcMeAttribute
  3
AcMeServices
 90
    32768
280
     0
281
     0
  0
CLASS
  1
ACMEBOMCOLUMN
  2
AcMeBOMColumn
  3
AcMeServices
 90
    32768
280
     0
281
     0
  0
CLASS
  1
ACMEBOMCONF
  2
AcMeBOMConf
  3
AcMeServices
 90
    32768
280
     0
281
     0
  0
CLASS
  1
ACMEBOMTABLE
  2
AcMeBOMTable
  3
AcMeServices
 90
    32768
280
     0
281
     0
  0
CLASS
  1
ACMEBOMENTRY
  2
AcMeBOMEntry
  3
AcMeServices
 90
    32768
280
     0
281
     0
  0
CLASS
  1
ACMEVIEW
  2
AcMeView
  3
AcMeServices
 90
        0
280
     0
281
     0
  0
CLASS
  1
ACGREFMASTER
  2
AcGrefMaster
  3
AcAttribServices
 90
        0
280
     0
281
     0
  0
CLASS
  1
AMIMASTER
  2
AmiMaster
  3
AmiServices
 90
        0
280
     0
281
     0
  0
CLASS
  1
ACASGREFMASTER
  2
AcAsGrefMaster
  3
AutoSurfResolverServices
 90
        0
280
     0
281
     0
  0
CLASS
  1
ADAPPL
  2
AcAdAppl
  3
DesignerServices
 90
        0
280
     0
281
     0
  0
CLASS
  1
DEPMGR
  2
AcAdDepMgr
  3
DesignerServices
 90
        0
280
     0
281
     0
  0
CLASS
  1
PARAMMGR
  2
AcAdParamMgr
  3
DesignerServices
 90
        0
280
     0
281
     0
  0
CLASS
  1
PARAMSCOPE
  2
AcAdParamScope
  3
DesignerServices
 90
        0
280
     0
281
     0
  0
CLASS
  1
ACIMSYSVARMAN
  2
AcImSysVarManager
  3
AcMeServices
 90
        0
280
     0
281
     0
  0
CLASS
  1
ACIMINTSYSVAR
  2
AcImIntSysVar
  3
AcMeServices
 90
        0
280
     0
281
     0
  0
CLASS
  1
ACIMREALSYSVAR
  2
AcImRealSysVar
  3
AcMeServices
 90
        0
280
     0
281
     0
  0
CLASS
  1
ACIMSTRSYSVAR
  2
AcImStrSysVar
  3
AcMeServices
 90
        0
280
     0
281
     0
  0
CLASS
  1
NAMEDAPPL
  2
AcAdNamedAppl
  3
DesignerServices
 90
        0
280
     0
281
     0
  0
CLASS
  1
ADHNTMPLT
  2
AdHoleNoteTemplateMgr
  3
DesignerServices
 90
    32768
280
     0
281
     0
  0
CLASS
  1
AM_HNTEMPLATE_MGR_NAME
  2
AdHoleNoteTemplateMgrName
  3
DesignerServices
 90
    32768
280
     0
281
     0
  0
CLASS
  1
ACADGREFMODULE
  2
AcAdGrefModule
  3
AdGrefServices
 90
        0
280
     0
281
     0
  0
CLASS
  1
AM_DRAWING_MGR
  2
AcDmDwgMgr
  3
AcMechDwgViewMgmt
 90
        0
280
     0
281
     0
  0
CLASS
  1
AM_DWG_DOCUMENT
  2
AcDmDwgDocument
  3
AcMechDwgViewMgmt
 90
        0
280
     0
281
     0
  0
CLASS
  1
AM_DWG_SHEET
  2
AcDmSheet
  3
AcMechDwgViewMgmt
 90
        0
280
     0
281
     0
  0
CLASS
  1
AM_VIEWDIMPARMAP
  2
AcDmViewDimParMap
  3
AcMechDwgViewMgmt
 90
        0
280
     0
281
     0
  0
CLASS
  1
AM_DWGMGR_NAME
  2
AcDmDwgMgrName
  3
AcMechDwgViewMgmt
 90
        0
280
     0
281
     0
  0
CLASS
  1
ACAMPROJECT
  2
AcAmProject
  3
DesignerAssemblies
 90
        0
280
     0
281
     0
  0
CLASS
  1
ACAMGRCOMPSET
  2
AcAmGrCompSet
  3
DesignerAssemblies
 90
    32768
280
     1
281
     0
  0
CLASS
  1
ACAMGRCOMPDEFSET
  2
AcAmGrCompDefSet
  3
DesignerAssemblies
 90
        0
280
     0
281
     0
  0
CLASS
  1
ACAMGRCOMPDEF
  2
AcAmGrCompDef
  3
DesignerAssemblies
 90
        0
280
     0
281
     0
  0
CLASS
  1
ACCMCONTEXT
  2
AcCmContext
  3
DesignerAssemblies
 90
        0
280
     0
281
     0
  0
CLASS
  1
ACAMCOMPDEF
  2
AcAmCompDef
  3
DesignerAssemblies
 90
        0
280
     0
281
     0
  0
CLASS
  1
ACAMCOMPDEFMGR
  2
AcAmCompDefMgr
  3
DesignerAssemblies
 90
        0
280
     0
281
     0
  0
CLASS
  1
AMCONTEXTMGR
  2
AcAmContextMgr
  3
DesignerAssemblies
 90
        0
280
     0
281
     0
  0
CLASS
  1
ACAMCONTEXTMODELER
  2
AcAmContextModeler
  3
DesignerAssemblies
 90
        0
280
     0
281
     0
  0
CLASS
  1
ACDMVIEWGEOM
  2
AcDmViewGeometry
  3
AcMechDwgViewMgmt
 90
    32768
280
     0
281
     1
  0
CLASS
  1
CBROWSERAPPOBJECT
  2
CBrowserAppObject
  3
McadcomServices
 90
        0
280
     0
281
     0
  0
CLASS
  1
IM_STATIC_MAN
  2
AcImStaticVarManager
  3
AcMeServices
 90
        0
280
     0
281
     0
  0
CLASS
  1
ASAPP
  2
AcAsAppObject
  3
AutoSurfServices
 90
        0
280
     0
281
     0
  0
CLASS
  1
ACIMDBLSTATICVAR
  2
AcImDblStaticVar
  3
AcMeServices
 90
        0
280
     0
281
     0
  0
CLASS
  1
ACIMSTRSTATICVAR
  2
AcImStrStaticVar
  3
AcMeServices
 90
        0
280
     0
281
     0
  0
CLASS
  1
ACIMINTSTATICVAR
  2
AcImIntStaticVar
  3
AcMeServices
 90
        0
280
     0
281
     0
  0
CLASS
  1
CATALOGSTATE
  2
AcAmCatalogState
  3
DesignerAssemblies
 90
        0
280
     0
281
     0
  0
CLASS
  1
DM_PLACEHOLDER
  2
AcDmSelsetPlaceholder
  3
AcMechDwgViewMgmt
 90
        0
280
     0
281
     0
  0
CLASS
  1
LAYER_INDEX
  2
AcDbLayerIndex
  3
ObjectDBX Classes
 90
        0
280
     0
281
     0
  0
CLASS
  1
IDBUFFER
  2
AcDbIdBuffer
  3
ObjectDBX Classes
 90
        0
280
     0
281
     0
  0
CLASS
  1
ACMSTANDARDJIS
  2
AcmStandardJIS
  3
"Amdt_StdImp|Product Description: AutoCAD Mechanical 2004 DX|Company: Autodesk"
 90
    32768
280
     0
281
     0
  0
CLASS
  1
ACMSTANDARDANSI
  2
AcmStandardANSI
  3
"Amdt_StdImp|Product Description: AutoCAD Mechanical 2004 DX|Company: Autodesk"
 90
    32768
280
     0
281
     0
  0
CLASS
  1
ACMSTANDARDBSI
  2
AcmStandardBSI
  3
"Amdt_StdImp|Product Description: AutoCAD Mechanical 2004 DX|Company: Autodesk"
 90
    32768
280
     0
281
     0
  0
CLASS
  1
ACMSTANDARDDIN
  2
AcmStandardDIN
  3
"Amdt_StdImp|Product Description: AutoCAD Mechanical 2004 DX|Company: Autodesk"
 90
    32768
280
     0
281
     0
  0
CLASS
  1
ACMSTANDARDISO
  2
AcmStandardISO
  3
"Amdt_StdImp|Product Description: AutoCAD Mechanical 2004 DX|Company: Autodesk"
 90
        0
280
     0
281
     0
  0
CLASS
  1
ACDBDICTIONARYWDFLT
  2
AcDbDictionaryWithDefault
  3
ObjectDBX Classes
 90
        0
280
     0
281
     0
  0
CLASS
  1
ACDBPLACEHOLDER
  2
AcDbPlaceHolder
  3
ObjectDBX Classes
 90
        0
280
     0
281
     0
  0
CLASS
  1
LAYOUT
  2
AcDbLayout
  3
ObjectDBX Classes
 90
        0
280
     0
281
     0
  0
CLASS
  1
ACME_DOCUMENT
  2
AcMeDbDoc
  3
AcMeServices
 90
        0
280
     0
281
     0
  0
CLASS
  1
AMGSETTINGSOBJ
  2
AmgSettingsObj
  3
"AcadM|Product Description: AutoCAD Mechanical 2000|Company: Autodesk"
 90
        0
280
     0
281
     0
  0
CLASS
  1
AMGOBJPROPCFG
  2
AmgObjPropCfg
  3
"AmgLay|Product Description: AutoCAD Mechanical 2000|Company: Autodesk"
 90
        1
280
     0
281
     0
  0
CLASS
  1
ACDBENTITYCACHE
  2
AcMeEntityCache
  3
AcMeServices
 90
        0
280
     0
281
     0
  0
CLASS
  1
GSMANAGER
  2
AcMeGSManager
  3
AcMeServices
 90
        0
280
     0
281
     0
  0
CLASS
  1
AMDTINTERNALREACTOR
  2
AmdtInternalReactor
  3
AcMeServices
 90
        0
280
     0
281
     0
  0
CLASS
  1
ACME_DATABASE
  2
AcMeDbDatabase
  3
AcMeServices
 90
        0
280
     0
281
     0
  0
CLASS
  1
ACGREFACADMASTER
  2
AcGrefacadMaster
  3
AcGrefServices
 90
        0
280
     0
281
     0
  0
CLASS
  1
AMDTMENUSTATEMGR
  2
AmdtMenuStateMgr
  3
McadcomServices
 90
        0
280
     0
281
     0
  0
CLASS
  1
AMDTMCOMMENUSTATE
  2
AmdtMcomMenuState
  3
McadcomServices
 90
        0
280
     0
281
     0
  0
CLASS
  1
MAPIADMODULE
  2
MApiAdModule
  3
MApiAdServices
 90
        0
280
     0
281
     0
  0
CLASS
  1
AMDTDMMENUSTATE
  2
AmdtDmMenuState
  3
AcMechDwgViewMgmt
 90
        0
280
     0
281
     0
  0
CLASS
  1
AMDTADMENUSTATE
  2
AmdtAdMenuState
  3
DesignerServices
 90
        0
280
     0
281
     0
  0
CLASS
  1
AMDTAMMENUSTATE
  2
AmdtAmMenuState
  3
DesignerAssemblies
 90
        0
280
     0
281
     0
  0
CLASS
  1
ACMDATADICTIONARY
  2
AcmDataDictionary
  3
"AcmSymBB|Product Description: AutoCAD Mechanical 2004 DX|Company: Autodesk"
 90
        0
280
     0
281
     0
  0
CLASS
  1
ACMDATAENTRYBLOCK
  2
AcmDataEntryBlock
  3
"AcmSymBB|Product Description: AutoCAD Mechanical 2004 DX|Company: Autodesk"
 90
        0
280
     0
281
     0
  0
CLASS
  1
ACMSURFSTANDARDJIS
  2
AcmSurfTextStdJIS
  3
"Amdt_StdImp|Product Description: AutoCAD Mechanical 2004 DX|Company: Autodesk"
 90
    32768
280
     0
281
     0
  0
CLASS
  1
ACMFCFSTANDARDJIS
  2
AcmFCFStdJIS
  3
"Amdt_StdImp|Product Description: AutoCAD Mechanical 2004 DX|Company: Autodesk"
 90
    32768
280
     0
281
     0
  0
CLASS
  1
ACMWELDSTANDARDJIS
  2
AcmWeldingStdJIS
  3
"Amdt_StdImp|Product Description: AutoCAD Mechanical 2004 DX|Company: Autodesk"
 90
    32768
280
     0
281
     0
  0
CLASS
  1
ACMIDSTANDARDJIS
  2
AcmIdStdJIS
  3
"Amdt_StdImp|Product Description: AutoCAD Mechanical 2004 DX|Company: Autodesk"
 90
    32768
280
     0
281
     0
  0
CLASS
  1
ACMDATUMSTANDARDJIS
  2
AcmDatumStdJIS
  3
"Amdt_StdImp|Product Description: AutoCAD Mechanical 2004 DX|Company: Autodesk"
 90
    32768
280
     0
281
     0
  0
CLASS
  1
ACMBOMSTANDARDJIS
  2
AcmBOMStdJIS
  3
"Amdt_StdImp|Product Description: AutoCAD Mechanical 2004 DX|Company: Autodesk"
 90
    32768
280
     0
281
     0
  0
CLASS
  1
ACMSURFSTANDARDANSI
  2
AcmSurfTextStdANSI
  3
"Amdt_StdImp|Product Description: AutoCAD Mechanical 2004 DX|Company: Autodesk"
 90
    32768
280
     0
281
     0
  0
CLASS
  1
ACMFCFSTANDARDANSI
  2
AcmFCFStdANSI
  3
"Amdt_StdImp|Product Description: AutoCAD Mechanical 2004 DX|Company: Autodesk"
 90
    32768
280
     0
281
     0
  0
CLASS
  1
ACMWELDSTANDARDANSI
  2
AcmWeldingStdANSI
  3
"Amdt_StdImp|Product Description: AutoCAD Mechanical 2004 DX|Company: Autodesk"
 90
    32768
280
     0
281
     0
  0
CLASS
  1
ACMIDSTANDARDANSI
  2
AcmIdStdANSI
  3
"Amdt_StdImp|Product Description: AutoCAD Mechanical 2004 DX|Company: Autodesk"
 90
    32768
280
     0
281
     0
  0
CLASS
  1
ACMDATUMSTANDARDANSI
  2
AcmDatumStdANSI
  3
"Amdt_StdImp|Product Description: AutoCAD Mechanical 2004 DX|Company: Autodesk"
 90
    32768
280
     0
281
     0
  0
CLASS
  1
ACMBOMSTANDARDANSI
  2
AcmBOMStdANSI
  3
"Amdt_StdImp|Product Description: AutoCAD Mechanical 2004 DX|Company: Autodesk"
 90
    32768
280
     0
281
     0
  0
CLASS
  1
ACMSURFSTANDARDBSI
  2
AcmSurfTextStdBSI
  3
"Amdt_StdImp|Product Description: AutoCAD Mechanical 2004 DX|Company: Autodesk"
 90
    32768
280
     0
281
     0
  0
CLASS
  1
ACMFCFSTANDARDBSI
  2
AcmFCFStdBSI
  3
"Amdt_StdImp|Product Description: AutoCAD Mechanical 2004 DX|Company: Autodesk"
 90
    32768
280
     0
281
     0
  0
CLASS
  1
ACMWELDSTANDARDBSI
  2
AcmWeldingStdBSI
  3
"Amdt_StdImp|Product Description: AutoCAD Mechanical 2004 DX|Company: Autodesk"
 90
    32768
280
     0
281
     0
  0
CLASS
  1
ACMIDSTANDARDBSI
  2
AcmIdStdBSI
  3
"Amdt_StdImp|Product Description: AutoCAD Mechanical 2004 DX|Company: Autodesk"
 90
    32768
280
     0
281
     0
  0
CLASS
  1
ACMDATUMSTANDARDBSI
  2
AcmDatumStdBSI
  3
"Amdt_StdImp|Product Description: AutoCAD Mechanical 2004 DX|Company: Autodesk"
 90
    32768
280
     0
281
     0
  0
CLASS
  1
ACMBOMSTANDARDBSI
  2
AcmBOMStdBSI
  3
"Amdt_StdImp|Product Description: AutoCAD Mechanical 2004 DX|Company: Autodesk"
 90
    32768
280
     0
281
     0
  0
CLASS
  1
AMDTEDGESTANDARDDIN
  2
AmdtEdgeStdDIN
  3
"Amdt_StdImp|Product Description: AutoCAD Mechanical 2004 DX|Company: Autodesk"
 90
    32768
280
     0
281
     0
  0
CLASS
  1
ACMSURFSTANDARDDIN
  2
AcmSurfTextStdDIN
  3
"Amdt_StdImp|Product Description: AutoCAD Mechanical 2004 DX|Company: Autodesk"
 90
    32768
280
     0
281
     0
  0
CLASS
  1
ACMFCFSTANDARDDIN
  2
AcmFCFStdDIN
  3
"Amdt_StdImp|Product Description: AutoCAD Mechanical 2004 DX|Company: Autodesk"
 90
    32768
280
     0
281
     0
  0
CLASS
  1
ACMWELDSTANDARDDIN
  2
AcmWeldingStdDIN
  3
"Amdt_StdImp|Product Description: AutoCAD Mechanical 2004 DX|Company: Autodesk"
 90
    32768
280
     0
281
     0
  0
CLASS
  1
ACMIDSTANDARDDIN
  2
AcmIdStdDIN
  3
"Amdt_StdImp|Product Description: AutoCAD Mechanical 2004 DX|Company: Autodesk"
 90
    32768
280
     0
281
     0
  0
CLASS
  1
ACMDATUMSTANDARDDIN
  2
AcmDatumStdDIN
  3
"Amdt_StdImp|Product Description: AutoCAD Mechanical 2004 DX|Company: Autodesk"
 90
    32768
280
     0
281
     0
  0
CLASS
  1
ACMBOMSTANDARDDIN
  2
AcmBOMStdDIN
  3
"Amdt_StdImp|Product Description: AutoCAD Mechanical 2004 DX|Company: Autodesk"
 90
    32768
280
     0
281
     0
  0
CLASS
  1
ACMSURFSTANDARDISO
  2
AcmSurfTextStdISO
  3
"Amdt_StdImp|Product Description: AutoCAD Mechanical 2004 DX|Company: Autodesk"
 90
        0
280
     0
281
     0
  0
CLASS
  1
ACMFCFSTANDARDISO
  2
AcmFCFStdISO
  3
"Amdt_StdImp|Product Description: AutoCAD Mechanical 2004 DX|Company: Autodesk"
 90
        0
280
     0
281
     0
  0
CLASS
  1
ACMWELDSTANDARDISO
  2
AcmWeldingStdISO
  3
"Amdt_StdImp|Product Description: AutoCAD Mechanical 2004 DX|Company: Autodesk"
 90
        0
280
     0
281
     0
  0
CLASS
  1
ACMIDSTANDARDISO
  2
AcmIdStdISO
  3
"Amdt_StdImp|Product Description: AutoCAD Mechanical 2004 DX|Company: Autodesk"
 90
        0
280
     0
281
     0
  0
CLASS
  1
ACMDATUMSTANDARDISO
  2
AcmDatumStdISO
  3
"Amdt_StdImp|Product Description: AutoCAD Mechanical 2004 DX|Company: Autodesk"
 90
        0
280
     0
281
     0
  0
CLASS
  1
ACMBOMSTANDARDISO
  2
AcmBOMStdISO
  3
"Amdt_StdImp|Product Description: AutoCAD Mechanical 2004 DX|Company: Autodesk"
 90
        0
280
     0
281
     0
  0
CLASS
  1
AMDTBROWSERDBTAB
  2
AmdtBrowserDbTab
  3
McadcomServices
 90
        0
280
     0
281
     0
  0
CLASS
  1
ACAMGFILTERDAT
  2
AcAmgFilterDat
  3
"AcadM|Product Description: AutoCAD Mechanical 2000|Company: Autodesk"
 90
    32768
280
     0
281
     0
  0
CLASS
  1
MAPIAMMOUDLE
  2
MApiAmModule
  3
MApiAmServices
 90
        0
280
     0
281
     0
  0
CLASS
  1
AMDTMAPISURFMOUDULE
  2
AmdtMApiSurfModule
  3
MApiSurfServices
 90
        0
280
     0
281
     0
  0
CLASS
  1
ACAMGLAYSTD
  2
AcAmgLayStd
  3
"AcAmgLayStd|Product Description: AutoCAD Mechanical 2000|Company: Autodesk"
 90
        0
280
     0
281
     0
  0
CLASS
  1
ACAMGDIMSTD
  2
AcAmgDimStd
  3
"AcAmgDimStd|Product Description: AutoCAD Mechanical 2000|Company: Autodesk"
 90
        0
280
     0
281
     0
  0
CLASS
  1
ACAMGTITLESTD
  2
AcAmgTitleStd
  3
"TITLEAPP"
 90
        0
280
     0
281
     0
  0
CLASS
  1
ACMDETAILSTANDARDJIS
  2
AmdtDetailSymStdJIS
  3
"Amdt_StdImp|Product Description: AutoCAD Mechanical 2004 DX|Company: Autodesk"
 90
    32768
280
     0
281
     0
  0
CLASS
  1
ACMSECTIONSTANDARDJIS
  2
AmdtSectionSymStdJIS
  3
"Amdt_StdImp|Product Description: AutoCAD Mechanical 2004 DX|Company: Autodesk"
 90
    32768
280
     0
281
     0
  0
CLASS
  1
ACMCENTERLINESTANDARDJIS
  2
AmdtCenterLineStdJIS
  3
"Amdt_StdImp|Product Description: AutoCAD Mechanical 2004 DX|Company: Autodesk"
 90
    32768
280
     0
281
     0
  0
CLASS
  1
ACMTHREADLINESTANDARDJIS
  2
AmdtThreadLineStdJIS
  3
"Amdt_StdImp|Product Description: AutoCAD Mechanical 2004 DX|Company: Autodesk"
 90
    32768
280
     0
281
     0
  0
CLASS
  1
ACMDETAILSTANDARDANSI
  2
AmdtDetailSymStdANSI
  3
"Amdt_StdImp|Product Description: AutoCAD Mechanical 2004 DX|Company: Autodesk"
 90
    32768
280
     0
281
     0
  0
CLASS
  1
ACMSECTIONSTANDARDANSI
  2
AmdtSectionSymStdANSI
  3
"Amdt_StdImp|Product Description: AutoCAD Mechanical 2004 DX|Company: Autodesk"
 90
    32768
280
     0
281
     0
  0
CLASS
  1
ACMCENTERLINESTANDARDANSI
  2
AmdtCenterLineStdANSI
  3
"Amdt_StdImp|Product Description: AutoCAD Mechanical 2004 DX|Company: Autodesk"
 90
    32768
280
     0
281
     0
  0
CLASS
  1
ACMTHREADLINESTANDARDANSI
  2
AmdtThreadLineStdANSI
  3
"Amdt_StdImp|Product Description: AutoCAD Mechanical 2004 DX|Company: Autodesk"
 90
    32768
280
     0
281
     0
  0
CLASS
  1
ACMDETAILSTANDARDBSI
  2
AmdtDetailSymStdBSI
  3
"Amdt_StdImp|Product Description: AutoCAD Mechanical 2004 DX|Company: Autodesk"
 90
    32768
280
     0
281
     0
  0
CLASS
  1
ACMSECTIONSTANDARDBSI
  2
AmdtSectionSymStdBSI
  3
"Amdt_StdImp|Product Description: AutoCAD Mechanical 2004 DX|Company: Autodesk"
 90
    32768
280
     0
281
     0
  0
CLASS
  1
ACMCENTERLINESTANDARDBSI
  2
AmdtCenterLineStdBSI
  3
"Amdt_StdImp|Product Description: AutoCAD Mechanical 2004 DX|Company: Autodesk"
 90
    32768
280
     0
281
     0
  0
CLASS
  1
ACMTHREADLINESTANDARDBSI
  2
AmdtThreadLineStdBSI
  3
"Amdt_StdImp|Product Description: AutoCAD Mechanical 2004 DX|Company: Autodesk"
 90
    32768
280
     0
281
     0
  0
CLASS
  1
ACMDETAILSTANDARDDIN
  2
AmdtDetailSymStdDIN
  3
"Amdt_StdImp|Product Description: AutoCAD Mechanical 2004 DX|Company: Autodesk"
 90
    32768
280
     0
281
     0
  0
CLASS
  1
ACMSECTIONSTANDARDDIN
  2
AmdtSectionSymStdDIN
  3
"Amdt_StdImp|Product Description: AutoCAD Mechanical 2004 DX|Company: Autodesk"
 90
    32768
280
     0
281
     0
  0
CLASS
  1
ACMCENTERLINESTANDARDDIN
  2
AmdtCenterLineStdDIN
  3
"Amdt_StdImp|Product Description: AutoCAD Mechanical 2004 DX|Company: Autodesk"
 90
    32768
280
     0
281
     0
  0
CLASS
  1
ACMTHREADLINESTANDARDDIN
  2
AmdtThreadLineStdDIN
  3
"Amdt_StdImp|Product Description: AutoCAD Mechanical 2004 DX|Company: Autodesk"
 90
    32768
280
     0
281
     0
  0
CLASS
  1
AMDTEDGESTANDARDISO
  2
AmdtEdgeStdISO
  3
"Amdt_StdImp|Product Description: AutoCAD Mechanical 2004 DX|Company: Autodesk"
 90
    32768
280
     0
281
     0
  0
CLASS
  1
ACMDETAILSTANDARDISO
  2
AmdtDetailSymStdISO
  3
"Amdt_StdImp|Product Description: AutoCAD Mechanical 2004 DX|Company: Autodesk"
 90
        0
280
     0
281
     0
  0
CLASS
  1
ACMSECTIONSTANDARDISO
  2
AmdtSectionSymStdISO
  3
"Amdt_StdImp|Product Description: AutoCAD Mechanical 2004 DX|Company: Autodesk"
 90
        0
280
     0
281
     0
  0
CLASS
  1
ACMCENTERLINESTANDARDISO
  2
AmdtCenterLineStdISO
  3
"Amdt_StdImp|Product Description: AutoCAD Mechanical 2004 DX|Company: Autodesk"
 90
        0
280
     0
281
     0
  0
CLASS
  1
ACMTHREADLINESTANDARDISO
  2
AmdtThreadLineStdISO
  3
"Amdt_StdImp|Product Description: AutoCAD Mechanical 2004 DX|Company: Autodesk"
 90
        0
280
     0
281
     0
  0
CLASS
  1
ACMNOTESTANDARDISO
  2
AmdtNoteStdISO
  3
"Amdt_StdImp|Product Description: AutoCAD Mechanical 2004 DX|Company: Autodesk"
 90
        0
280
     0
281
     0
  0
CLASS
  1
ACAMGHOLECHARTSTDISO
  2
AcAmgHoleChartStdISO
  3
ACMSYMBB_MODULE_NAME
 90
        0
280
     0
281
     0
  0
CLASS
  1
ACMNOTESTANDARDANSI
  2
AmdtNoteStdANSI
  3
"Amdt_StdImp|Product Description: AutoCAD Mechanical 2004 DX|Company: Autodesk"
 90
    32768
280
     0
281
     0
  0
CLASS
  1
AMDTNOTETEMPLATEDB
  2
AmdtNoteTemplateDB
  3
AMDT_STDIMP_MODULE_NAME
 90
        0
280
     0
281
     0
  0
CLASS
  1
ACAMGHOLECHARTSTDANSI
  2
AcAmgHoleChartStdANSI
  3
ACMSYMBB_MODULE_NAME
 90
    32768
280
     0
281
     0
  0
CLASS
  1
TABLESTYLE
  2
AcDbTableStyle
  3
ObjectDBX Classes
 90
     2047
280
     0
281
     0
  0
CLASS
  1
ACMBOM
  2
AcmBom
  3
"AcmSymBB|Product Description: AutoCAD Mechanical 2004 DX|Company: Autodesk"
 90
    32768
280
     0
281
     0
  0
CLASS
  1
AMDTFORMULAUPDATEDISPATCHER
  2
AmdtFormulaUpdateDispatcher
  3
AcMeServices
 90
    32768
280
     0
281
     0
  0
CLASS
  1
ACMPARTLIST
  2
AcmPartList
  3
"AcmSymBB|Product Description: AutoCAD Mechanical 2004 DX|Company: Autodesk"
 90
    33791
280
     0
281
     1
  0
CLASS
  1
VAACXREFPANELOBJECT
  2
VaAcXREFPanelObject
  3
VAAC_ADDIN
 90
    32768
280
     1
281
     0
  0
CLASS
  1
VAACIMAGEINVENTORY
  2
VaAcImageInventory
  3
VAAC_ADDIN
 90
    32768
280
     1
281
     0
  0
CLASS
  1
ACAMEXTERNALCOMPDEF
  2
AcAmExternalCompDef
  3
DesignerAssemblies
 90
    32768
280
     0
281
     0
  0
CLASS
  1
ACCMBODY
  2
AcCmBody
  3
DesignerAssemblies
 90
    32768
280
     0
281
     0
  0
CLASS
  1
ACAMCOMPENT
  2
AcAmCompEnt
  3
DesignerAssemblies
 90
    32768
280
     0
281
     1
  0
CLASS
  1
ACAMCOMPFEEDBACK
  2
AcAmCompFeedback
  3
DesignerAssemblies
 90
    32768
280
     0
281
     0
  0
CLASS
  1
ACAMCOMP
  2
AcAmComp
  3
DesignerAssemblies
 90
    32768
280
     0
281
     0
  0
CLASS
  1
ACAMCOMPENTCLONE
  2
AcAmCompEntClone
  3
DesignerAssemblies
 90
    32768
280
     0
281
     1
  0
CLASS
  1
ACAMCLONEREACTOR
  2
AcAmGrCompCloneReactor
  3
DesignerAssemblies
 90
    32768
280
     0
281
     0
  0
CLASS
  1
ADPART
  2
AcAdPart
  3
DesignerServices
 90
    32768
280
     0
281
     1
  0
CLASS
  1
WORKPLANEDISPLAYMGR
  2
AcAdDisplayMgr
  3
DesignerServices
 90
    32768
280
     0
281
     0
  0
CLASS
  1
PARAM
  2
AcAdParam
  3
DesignerServices
 90
    32768
280
     0
281
     0
  0
CLASS
  1
ADDATUMAXISABS
  2
AcAdDatumAxisAbs
  3
DesignerServices
 90
    32768
280
     0
281
     0
  0
CLASS
  1
ADDATUMPLANEABS
  2
AcAdDatumPlaneAbs
  3
DesignerServices
 90
    32768
280
     0
281
     0
  0
CLASS
  1
ADBASE
  2
AcAdBase
  3
DesignerServices
 90
    32768
280
     0
281
     0
  0
CLASS
  1
ADDATUMORIENTEDPLANE
  2
AcAdDatumOrientedPlane
  3
DesignerServices
 90
    32768
280
     0
281
     0
  0
CLASS
  1
BODYID
  2
AcAdBodyId
  3
DesignerServices
 90
    32768
280
     0
281
     0
  0
CLASS
  1
ACADCONSGROUP
  2
AcAdConstraintGroup
  3
DesignerServices
 90
    32768
280
     0
281
     0
  0
CLASS
  1
ACADREFLINEACAD
  2
AcAdVirtualReferenceLine
  3
DesignerServices
 90
    32768
280
     0
281
     0
  0
CLASS
  1
ACADCONSLINE
  2
AcAdConstrainedLine
  3
DesignerServices
 90
    32768
280
     0
281
     0
  0
CLASS
  1
ACADLINEACAD
  2
AcAdVirtualBoundedLineAcad
  3
DesignerServices
 90
    32768
280
     0
281
     0
  0
CLASS
  1
ACADCONSPOINT
  2
AcAdConstrainedPoint
  3
DesignerServices
 90
    32768
280
     0
281
     0
  0
CLASS
  1
ADPCURCNS
  2
AcAdPointCurveConstr
  3
DesignerServices
 90
    32768
280
     0
281
     0
  0
CLASS
  1
ADHORCNS
  2
AcAdHorizontalConstr
  3
DesignerServices
 90
    32768
280
     0
281
     0
  0
CLASS
  1
ADVERCNS
  2
AcAdVerticalConstr
  3
DesignerServices
 90
    32768
280
     0
281
     0
  0
CLASS
  1
ACAD_FIXCONSTRAINT
  2
AcAdFixedConstraint
  3
DesignerServices
 90
    32768
280
     0
281
     0
  0
CLASS
  1
ADHDISTCNS
  2
AcAdHorizontalDistanceConstr
  3
DesignerServices
 90
    32768
280
     0
281
     0
  0
CLASS
  1
ADVDISTCNS
  2
AcAdVerticalDistanceConstr
  3
DesignerServices
 90
    32768
280
     0
281
     0
  0
CLASS
  1
ACADIMPPTACAD
  2
AcAdVirtualImplicitPoint
  3
DesignerServices
 90
    32768
280
     0
281
     0
  0
CLASS
  1
ADCLPROF2D
  2
AcAdClosedProfile2d
  3
DesignerServices
 90
    32768
280
     0
281
     0
  0
CLASS
  1
DEPEDGEFEATUREORDERING
  2
AcAdDepEdgeFeatureOrdering
  3
DesignerServices
 90
    32768
280
     0
281
     0
  0
CLASS
  1
ACADVOLFEATWITHTRIM
  2
AcAdVolFeatWithTrim
  3
DesignerServices
 90
    32768
280
     0
281
     0
  0
CLASS
  1
ADPLANEID
  2
AcAdPlaneId
  3
DesignerServices
 90
    32768
280
     0
281
     0
  0
CLASS
  1
EDGEID
  2
AcAdEdgeId
  3
DesignerServices
 90
    32768
280
     0
281
     0
  0
CLASS
  1
CNRREFID
  2
AcAdCornerId
  3
DesignerServices
 90
    32768
280
     0
281
     0
  0
CLASS
  1
STREFID
  2
AcAdStraightRefId
  3
DesignerServices
 90
    32768
280
     0
281
     0
  0
CLASS
  1
ADDATUMPLANEFACE
  2
AcAdDatumPlaneFace
  3
DesignerServices
 90
    32768
280
     0
281
     0
  0
CLASS
  1
DATUMPLANEDISPLAY
  2
AcAdDatumPlaneDisplay
  3
DesignerServices
 90
    32768
280
     0
281
     1
  0
CLASS
  1
ADDATUMPLANEOFFSET
  2
AcAdDatumPlaneOffset
  3
DesignerServices
 90
    32768
280
     0
281
     0
  0
CLASS
  1
ADACADANGCNS
  2
AcAdAcadAngleConstr
  3
DesignerServices
 90
    32768
280
     0
281
     0
  0
CLASS
  1
ACADLINEDEPID
  2
AcAdVirtualLineDepId
  3
DesignerServices
 90
    32768
280
     0
281
     0
  0
CLASS
  1
ADCOLNCNS
  2
AcAdColinearConstr
  3
DesignerServices
 90
    32768
280
     0
281
     0
  0
CLASS
  1
ACADPOINTDEPID
  2
AcAdVirtualPointDepId
  3
DesignerServices
 90
    32768
280
     0
281
     0
  0
CLASS
  1
ACADCIRCLEACAD
  2
AcAdVirtualCircleAcad
  3
DesignerServices
 90
    32768
280
     0
281
     0
  0
CLASS
  1
ACADCONSCIRCLE
  2
AcAdConstrainedCircle
  3
DesignerServices
 90
    32768
280
     0
281
     0
  0
CLASS
  1
ADCTRPTCNS
  2
AcAdCenterPointConstr
  3
DesignerServices
 90
    32768
280
     0
281
     0
  0
CLASS
  1
ADACADDIACNS
  2
AcAdAcadDiameterConstr
  3
DesignerServices
 90
    32768
280
     0
281
     0
  0
CLASS
  1
CIRREFID
  2
AcAdCircleRefId
  3
DesignerServices
 90
    32768
280
     0
281
     0
  0
CLASS
  1
ACADCIRCDEPID
  2
AcAdVirtualCircleDepId
  3
DesignerServices
 90
    32768
280
     0
281
     0
  0
CLASS
  1
ADCONCCNS
  2
AcAdConcentricConstr
  3
DesignerServices
 90
    32768
280
     0
281
     0
  0
CLASS
  1
ADFILLET
  2
AcAdFillet
  3
DesignerServices
 90
    32768
280
     0
281
     0
  0
CLASS
  1
ADSURFGEOMID
  2
AcAdSurfGeomId
  3
DesignerServices
 90
    32768
280
     0
281
     0
  0
CLASS
  1
DATUMAXISDISPLAY
  2
AcAdDatumAxisDisplay
  3
DesignerServices
 90
    32768
280
     0
281
     1
  0
CLASS
  1
ADDATUMAXISCENTER
  2
AcAdDatumAxisCenter
  3
DesignerServices
 90
    32768
280
     0
281
     0
  0
CLASS
  1
DEPEDGESECONDARYDEPID
  2
AcAdDepEdgeSecondaryDepId
  3
DesignerServices
 90
    32768
280
     0
281
     0
  0
CLASS
  1
ADDATUMPLANEAXISPLANE
  2
AcAdDatumPlaneAxisPlane
  3
DesignerServices
 90
    32768
280
     0
281
     0
  0
CLASS
  1
ACADBOUNDEDLINEDATUMID
  2
AcAdVirtualBoundedLineDatumId
  3
DesignerServices
 90
    32768
280
     0
281
     0
  0
CLASS
  1
OSTREFID
  2
AcAdOrientedStraightRefId
  3
DesignerServices
 90
    32768
280
     0
281
     0
  0
CLASS
  1
ADDATUMPOINT2EDGES
  2
AcAdDatumPoint2Edges
  3
DesignerServices
 90
    32768
280
     0
281
     0
  0
CLASS
  1
ADHOLEFEAT
  2
AcAdHoleFeat
  3
DesignerServices
 90
    32768
280
     0
281
     0
  0
CLASS
  1
DEPEDGEPATTERNFEATURE
  2
AcAdDepEdgePatternFeature
  3
DesignerServices
 90
    32768
280
     0
281
     0
  0
CLASS
  1
ACADPATTNFEAT
  2
AcAdPatternFeat
  3
DesignerServices
 90
    32768
280
     0
281
     0
  0
CLASS
  1
ADPARCNS
  2
AcAdParallelConstr
  3
DesignerServices
 90
    32768
280
     0
281
     0
  0
CLASS
  1
ADEQUALLENGTHCNS
  2
AcAdEqualLengthConstr
  3
DesignerServices
 90
    32768
280
     0
281
     0
  0
CLASS
  1
SORTENTSTABLE
  2
AcDbSortentsTable
  3
ObjectDBX Classes
 90
    32768
280
     0
281
     0
  0
CLASS
  1
ACAMGROUNDEDBASECOMP
  2
AcAmGroundedBaseComp
  3
DesignerAssemblies
 90
    32768
280
     0
281
     0
  0
CLASS
  1
AMDTPERSON
  2
AmdtPerson
  3
AcAttribServices
 90
    32768
280
     0
281
     0
  0
CLASS
  1
ACRFMCADAPIATTHOLDER
  2
AcRfMCADAPIAttHolder
  3
AcAttribServices
 90
    32768
280
     0
281
     0
  0
CLASS
  1
AMDTORGANIZATION
  2
AmdtOrganization
  3
AcAttribServices
 90
    32768
280
     0
281
     0
  0
CLASS
  1
AMDTPERSONANDORGANIZATION
  2
AmdtPersonAndOrganization
  3
AcAttribServices
 90
    32768
280
     0
281
     0
  0
CLASS
  1
AMDTPROPERTYDEFINITION
  2
AmdtPropertyDefinition
  3
AcAttribServices
 90
    32768
280
     0
281
     0
  0
CLASS
  1
AMDTAPPROVALPERSONORGANIZATION
  2
AmdtApprovalPersonOrganization
  3
AcAttribServices
 90
    32768
280
     0
281
     0
  0
CLASS
  1
AMDTDATEANDTIME
  2
AmdtDateAndTime
  3
AcAttribServices
 90
    32768
280
     0
281
     0
  0
CLASS
  1
AMDTPRODUCTCATEGORY
  2
AmdtProductCategory
  3
AcAttribServices
 90
    32768
280
     0
281
     0
  0
CLASS
  1
AMDTPRODUCTCATEGORYRELATIONSHIP
  2
AmdtProductCategoryRelationship
  3
AcAttribServices
 90
    32768
280
     0
281
     0
  0
CLASS
  1
AMDTAPPROVAL
  2
AmdtApproval
  3
AcAttribServices
 90
    32768
280
     0
281
     0
  0
CLASS
  1
AMDTDATEANDTIMEASSIGNMENT
  2
AmdtDateAndTimeAssignment
  3
AcAttribServices
 90
    32768
280
     0
281
     0
  0
CLASS
  1
AMDTPERSONANDORGANIZATIONASSIGNMENT
  2
AmdtPersonAndOrganizationAssignment
  3
AcAttribServices
 90
    32768
280
     0
281
     0
  0
CLASS
  1
AMDTSECURITYCLASSIFICATION
  2
AmdtSecurityClassification
  3
AcAttribServices
 90
    32768
280
     0
281
     0
  0
CLASS
  1
AMDTPRODUCTDEFINITION
  2
AmdtProductDefinition
  3
AcAttribServices
 90
    32768
280
     0
281
     0
  0
CLASS
  1
AMDTPRODUCTDEFINITIONFORMATION
  2
AmdtProductDefinitionFormation
  3
AcAttribServices
 90
    32768
280
     0
281
     0
  0
CLASS
  1
AMDTPRODUCT
  2
AmdtProduct
  3
AcAttribServices
 90
    32768
280
     0
281
     0
  0
CLASS
  1
ACRFATTGENMGR
  2
AcRfAttGeneralMgr
  3
AcAttribServices
 90
    32768
280
     0
281
     0
  0
CLASS
  1
ACRFOBJATTMGR
  2
AcRfObjAttGroupMgr
  3
AcAttribServices
 90
    32768
280
     0
281
     0
  0
CLASS
  1
ACADPARTCIRCEDGRES
  2
AcAdPartCircEdgRes
  3
AdGrefServices
 90
    32768
280
     0
281
     0
  0
CLASS
  1
ACRFINSADJ
  2
AcRfInsAdjuster
  3
AcMeServices
 90
    32768
280
     0
281
     0
  0
CLASS
  1
FACEID
  2
AcAdFaceId
  3
DesignerServices
 90
    32768
280
     0
281
     0
  0
CLASS
  1
ACADPARTPLANARFACERES
  2
AcAdPartPlanarFaceRes
  3
AdGrefServices
 90
    32768
280
     0
281
     0
  0
CLASS
  1
ACMELINEARARROW
  2
AcImLinearArrowDisplay
  3
AcMeServices
 90
    32768
280
     0
281
     1
  0
CLASS
  1
DEPEDGEPATTERNINSTANCE
  2
AcAdDepEdgePatternInstance
  3
DesignerServices
 90
    32768
280
     0
281
     0
  0
CLASS
  1
ACAMEXPR
  2
AcAmExpr
  3
DesignerAssemblies
 90
    32768
280
     0
281
     0
  0
CLASS
  1
ACCMINSERTPLPL
  2
AcCmInsertPlPl
  3
AcCmServices
 90
    32768
280
     0
281
     0
  0
CLASS
  1
ACCMCONSTREACTOR
  2
AcCmConstraintReactor
  3
DesignerAssemblies
 90
    32768
280
     0
281
     0
  0
CLASS
  1
ACADPARTCYLINDERFACERES
  2
AcAdPartCylinderFaceRes
  3
AdGrefServices
 90
    32768
280
     0
281
     0
  0
CLASS
  1
ACMEAXIS
  2
AcImAxisDisplay
  3
AcMeServices
 90
    32768
280
     0
281
     1
  0
CLASS
  1
ACCMANGVECVEC
  2
AcCmAngVecVec
  3
DesignerAssemblies
 90
    32768
280
     0
281
     0
  0
CLASS
  1
ACAMBLANKBODYCOMP
  2
AcAmBlankBodyComp
  3
DesignerAssemblies
 90
    32768
280
     0
281
     0
  0
CLASS
  1
ACAMTOOLBODYCOMP
  2
AcAmToolBodyComp
  3
DesignerAssemblies
 90
    32768
280
     0
281
     0
  0
CLASS
  1
ADPARAMETRICBOOLEAN
  2
AcAdParametricBoolean
  3
DesignerServices
 90
    32768
280
     0
281
     0
  0
CLASS
  1
DEPEDGEPARAMETRCBOOLORDERING
  2
AcAdDepEdgeParametricBooleanOrdering
  3
DesignerServices
 90
    32768
280
     0
281
     0
  0
CLASS
  1
AM_VIEW_SELECT_FILTER
  2
AcDmSelectViewEntFilter
  3
AcMechDwgViewMgmt
 90
    32768
280
     0
281
     0
  0
CLASS
  1
AM_GREF_PLANE
  2
AcDmGrefPlnDef
  3
AcMechDwgViewMgmt
 90
    32768
280
     0
281
     0
  0
CLASS
  1
ACADPARTLINEDGRES
  2
AcAdPartLinEdgRes
  3
AdGrefServices
 90
    32768
280
     0
281
     0
  0
CLASS
  1
AM_GREF_AXIS
  2
AcDmGrefAxisDef
  3
AcMechDwgViewMgmt
 90
    32768
280
     0
281
     0
  0
CLASS
  1
AM_BASE_VIEW_ORIENT
  2
AcDmBaseViewOr
  3
AcMechDwgViewMgmt
 90
    32768
280
     0
281
     0
  0
CLASS
  1
AM_DWG_VIEWPORT
  2
AcDmViewport
  3
AcMechDwgViewMgmt
 90
    32768
280
     0
281
     0
  0
CLASS
  1
AM_VIEW_DISPLAY
  2
AcDmDwgViewDisplay
  3
AcMechDwgViewMgmt
 90
    32768
280
     0
281
     0
  0
CLASS
  1
AM_CLDFLTS
  2
AcDmClDflts
  3
AcMechDwgViewMgmt
 90
    32768
280
     0
281
     0
  0
CLASS
  1
AM_BASE_VIEW
  2
AcDmBaseView
  3
AcMechDwgViewMgmt
 90
    32768
280
     0
281
     0
  0
CLASS
  1
ACMEPLINE
  2
AcImPlineDisplay
  3
AcMeServices
 90
    32768
280
     0
281
     1
  0
CLASS
  1
ACDMPARTVIEWDATA
  2
AcDmPartViewData
  3
AcMechDwgViewMgmt
 90
    32768
280
     0
281
     0
  0
CLASS
  1
ACDMDISPLAYATTRIBS
  2
AcDmDisplayAttribs
  3
AcMechDwgViewMgmt
 90
    32768
280
     0
281
     0
  0
CLASS
  1
ACDMBODYINSTANCEDATA
  2
AcDmBodyInstanceData
  3
AcMechDwgViewMgmt
 90
    32768
280
     0
281
     0
  0
CLASS
  1
ACDMVWEDLINE
  2
AcDmViewEdgeLine
  3
AcMechDwgViewMgmt
 90
    32768
280
     0
281
     1
  0
CLASS
  1
ACDMVWEDELLIPSE
  2
AcDmViewEdgeEllipse
  3
AcMechDwgViewMgmt
 90
    32768
280
     0
281
     1
  0
CLASS
  1
ACDMVWEDSPLINE
  2
AcDmViewEdgeSpline
  3
AcMechDwgViewMgmt
 90
    32768
280
     0
281
     1
  0
CLASS
  1
ACDMVWEDCIRC
  2
AcDmViewEdgeCircle
  3
AcMechDwgViewMgmt
 90
    32768
280
     0
281
     1
  0
CLASS
  1
ACDMVWEDARC
  2
AcDmViewEdgeArc
  3
AcMechDwgViewMgmt
 90
    32768
280
     0
281
     1
  0
CLASS
  1
AM_ADLINCTRLINE
  2
AcAdLineCl
  3
DesignerServices
 90
    32768
280
     0
281
     0
  0
CLASS
  1
AM_ADCIRCTRLINE
  2
AcAdBullsEyeCl
  3
DesignerServices
 90
    32768
280
     0
281
     0
  0
CLASS
  1
AM_ORTHO_VIEW_ORIENT
  2
AcDmOrthoViewOr
  3
AcMechDwgViewMgmt
 90
    32768
280
     0
281
     0
  0
CLASS
  1
AM_ORTHO_VIEW
  2
AcDmOrthoView
  3
AcMechDwgViewMgmt
 90
    32768
280
     0
281
     0
  0
CLASS
  1
ACADPARTAXISRES
  2
AcAdPartAxisRes
  3
AdGrefServices
 90
    32768
280
     0
281
     0
  0
CLASS
  1
AMDTEDGESTANDARDISO13715
  2
AmdtEdgeStdISO13715
  3
"Amdt_StdImp|Product Description: AutoCAD Mechanical 2004 DX|Company: Autodesk"
 90
        0
280
     0
281
     0
  0
ENDSEC
  0
SECTION
  2
TABLES
  0
TABLE
  2
VPORT
  5
1F
330
0
100
AcDbSymbolTable
 70
     1
  0
VPORT
  5
20
330
1F
100
AcDbSymbolTableRecord
100
AcDbViewportTableRecord
  2
*Active
 70
     0
 10
0.0
 20
0.0
 11
1.0
 21
1.0
 12
0.0
 22
0.0
 13
0.0
 23
0.0
 14
2.5
 24
2.5
 15
10.0
 25
10.0
 16
0.0
 26
0.0
 36
1.0
 17
0.0
 27
0.0
 37
0.0
 40
2.000000000000000E+20
 41
1.0
 42
50.0
 43
0.0
 44
0.0
 50
0.0
 51
0.0
 71
     0
 72
   100
 73
     1
 74
     1
 75
     0
 76
     0
 77
     0
 78
     0
281
     0
 65
     0
110
0.0
120
0.0
130
0.0
111
1.0
121
0.0
131
0.0
112
0.0
122
1.0
132
0.0
 79
     0
146
0.0
  0
ENDTAB
  0
TABLE
  2
LTYPE
  5
1A
330
0
100
AcDbSymbolTable
 70
    16
  0
LTYPE
  5
1B
330
1A
100
AcDbSymbolTableRecord
100
AcDbLinetypeTableRecord
  2
BYBLOCK
 70
     0
  3

 72
    65
 73
     0
 40
0.0
  0
LTYPE
  5
1C
330
1A
100
AcDbSymbolTableRecord
100
AcDbLinetypeTableRecord
  2
BYLAYER
 70
     0
  3

 72
    65
 73
     0
 40
0.0
  0
LTYPE
  5
9
330
1A
100
AcDbSymbolTableRecord
100
AcDbLinetypeTableRecord
  2
CONTINUOUS
 70
     0
  3
Solid line
 72
    65
 73
     0
 40
0.0
  0
LTYPE
  5
38
330
1A
100
AcDbSymbolTableRecord
100
AcDbLinetypeTableRecord
  2
AM_ISO08W050x2
 70
     0
  3
__ . __ . __ . __ . __ . __
 72
    65
 73
     4
 40
9.0
 49
6.0
 74
     0
 49
-0.75
 74
     0
 49
1.5
 74
     0
 49
-0.75
 74
     0
  0
LTYPE
  5
2BC
330
1A
100
AcDbSymbolTableRecord
100
AcDbLinetypeTableRecord
  2
HIDDEN
 70
     0
  3
Hidden __ __ __ __ __ __ __ __ __ __ __ __ __ _
 72
    65
 73
     2
 40
9.524999999999998
 49
6.349999999999999
 74
     0
 49
-3.174999999999999
 74
     0
  0
LTYPE
  5
2BD
330
1A
100
AcDbSymbolTableRecord
100
AcDbLinetypeTableRecord
  2
PHANTOM2
 70
     0
  3
Phantom (.5x) ___ _ _ ___ _ _ ___ _ _ ___ _ _
 72
    65
 73
     6
 40
31.75
 49
15.875
 74
     0
 49
-3.174999999999999
 74
     0
 49
3.174999999999999
 74
     0
 49
-3.174999999999999
 74
     0
 49
3.174999999999999
 74
     0
 49
-3.174999999999999
 74
     0
  0
LTYPE
  5
2BE
330
1A
100
AcDbSymbolTableRecord
100
AcDbLinetypeTableRecord
  2
CENTER
 70
     0
  3
Center ____ _ ____ _ ____ _ ____ _ ____ _ ____
 72
    65
 73
     4
 40
50.8
 49
31.75
 74
     0
 49
-6.349999999999999
 74
     0
 49
6.349999999999999
 74
     0
 49
-6.349999999999999
 74
     0
  0
LTYPE
  5
2F2
330
1A
100
AcDbSymbolTableRecord
100
AcDbLinetypeTableRecord
  2
AM_ISO02W050
 70
     0
  3
__ __ __ __ __ __ __ __ __ __ __ __ __ __ __
 72
    65
 73
     2
 40
7.5
 49
6.0
 74
     0
 49
-1.5
 74
     0
  0
LTYPE
  5
2F3
330
1A
100
AcDbSymbolTableRecord
100
AcDbLinetypeTableRecord
  2
AM_ISO08W050
 70
     0
  3
____ . ____ . ____ . ____ . ____ . ____ . ____
 72
    65
 73
     4
 40
18.0
 49
12.0
 74
     0
 49
-1.5
 74
     0
 49
3.0
 74
     0
 49
-1.5
 74
     0
  0
LTYPE
  5
2F4
330
1A
100
AcDbSymbolTableRecord
100
AcDbLinetypeTableRecord
  2
AM_ISO09W050
 70
     0
  3
_____ . . _____ . . _____ . . ____ .. ____
 72
    65
 73
     6
 40
22.5
 49
12.0
 74
     0
 49
-1.5
 74
     0
 49
3.0
 74
     0
 49
-1.5
 74
     0
 49
3.0
 74
     0
 49
-1.5
 74
     0
  0
LTYPE
  5
2F5
330
1A
100
AcDbSymbolTableRecord
100
AcDbLinetypeTableRecord
  2
Amconstr
 70
     0
  3
_______________________
 72
    65
 73
     2
 40
9999.0
 49
9999.0
 74
     0
 49
0.0
 74
     0
  0
LTYPE
  5
2F6
330
1A
100
AcDbSymbolTableRecord
100
AcDbLinetypeTableRecord
  2
AM_ISO02W050x2
 70
     0
  3
 _ _ _ _ _ _ _ _ _ _ _ _
 72
    65
 73
     2
 40
3.75
 49
3.0
 74
     0
 49
-0.75
 74
     0
  0
LTYPE
  5
2F9
330
1A
100
AcDbSymbolTableRecord
100
AcDbLinetypeTableRecord
  2
Amzigzag
 70
     0
  3
/\/-/\/-/\/-/\/-/\/-/\/
 72
    65
 73
     2
 40
11.0001
 49
0.0001
 74
     4
 75
   135
340
2F8
 46
0.04
 50
0.0
 44
0.0
 45
0.0
 49
-11.0
 74
     0
  0
LTYPE
  5
308
330
1A
100
AcDbSymbolTableRecord
100
AcDbLinetypeTableRecord
  2
ACISOWELD
 70
     0
  3
_ _ _ _ _
 72
    65
 73
     2
 40
2.0
 49
2.0
 74
     0
 49
-1.0
 74
     0
  0
LTYPE
  5
309
330
1A
100
AcDbSymbolTableRecord
100
AcDbLinetypeTableRecord
  2
ACISOTGB
 70
     0
  3
__ . . __ . .
 72
    65
 73
     6
 40
9.0
 49
4.0
 74
     0
 49
-1.0
 74
     0
 49
1.0
 74
     0
 49
-1.0
 74
     0
 49
1.0
 74
     0
 49
-1.0
 74
     0
  0
LTYPE
  5
30A
330
1A
100
AcDbSymbolTableRecord
100
AcDbLinetypeTableRecord
  2
ACISOTGL
 70
     0
  3
_ _ _ _ _
 72
    65
 73
     2
 40
3.0
 49
2.0
 74
     0
 49
-1.0
 74
     0
  0
LTYPE
  5
2286
330
1A
100
AcDbSymbolTableRecord
100
AcDbLinetypeTableRecord
  2
ASULTYPE
 70
     0
  3
實線
 72
    65
 73
     2
 40
3.0
 49
2.5
 74
     0
 49
0.5
 74
     0
  0
LTYPE
  5
2287
330
1A
100
AcDbSymbolTableRecord
100
AcDbLinetypeTableRecord
  2
ASVLTYPE
 70
     0
  3
__ __ __ __ __ __ __ __ __ __ __ __ __ __ __ __ __ __ __ __ __
 72
    65
 73
     2
 40
0.75
 49
0.5
 74
     0
 49
-0.25
 74
     0
  0
ENDTAB
  0
TABLE
  2
LAYER
  5
14
102
{ACAD_XDICTIONARY
360
15
102
}
330
0
100
AcDbSymbolTable
 70
     8
  0
LAYER
  5
5
330
14
100
AcDbSymbolTableRecord
100
AcDbLayerTableRecord
  2
0
 70
     0
 62
     7
  6
CONTINUOUS
370
    -3
390
6
  0
LAYER
  5
7F
330
14
100
AcDbSymbolTableRecord
100
AcDbLayerTableRecord
  2
AM_VIS
 70
     0
 62
     7
  6
CONTINUOUS
370
    50
390
6
  0
LAYER
  5
37
330
14
100
AcDbSymbolTableRecord
100
AcDbLayerTableRecord
  2
AM_7
 70
     0
 62
     1
  6
AM_ISO08W050
370
    25
390
6
  0
LAYER
  5
321
330
14
100
AcDbSymbolTableRecord
100
AcDbLayerTableRecord
  2
LOGO
 70
     0
 62
     7
  6
CONTINUOUS
370
    -3
390
6
  0
LAYER
  5
4C5
330
14
100
AcDbSymbolTableRecord
100
AcDbLayerTableRecord
  2
AM_5
 70
     0
 62
     5
  6
CONTINUOUS
370
    50
390
6
  0
LAYER
  5
4DE
330
14
100
AcDbSymbolTableRecord
100
AcDbLayerTableRecord
  2
Defpoints
 70
     0
 62
     7
  6
CONTINUOUS
290
     0
370
    -3
390
6
  0
LAYER
  5
7F2
330
14
100
AcDbSymbolTableRecord
100
AcDbLayerTableRecord
  2
SL
 70
     0
 62
     2
  6
CONTINUOUS
370
    -3
390
6
1001
AcAecLayerStandard
1000

1000

  0
LAYER
  5
17F2
330
14
100
AcDbSymbolTableRecord
100
AcDbLayerTableRecord
  2
AM_4
 70
     0
 62
     3
  6
CONTINUOUS
370
    25
390
6
  0
ENDTAB
  0
TABLE
  2
STYLE
  5
17
330
0
100
AcDbSymbolTable
 70
     5
  0
STYLE
  5
18
330
17
100
AcDbSymbolTableRecord
100
AcDbTextStyleTableRecord
  2
STANDARD
 70
     0
 40
0.0
 41
1.0
 50
0.0
 71
     0
 42
7.0
  3
ISOCP.SHX
  4
CHINESET.SHX
  0
STYLE
  5
2F8
330
17
100
AcDbSymbolTableRecord
100
AcDbTextStyleTableRecord
  2

 70
     1
 40
0.0
 41
1.0
 50
0.0
 71
     0
 42
1.0
  3
ltypeshp.shx
  4

  0
STYLE
  5
2FA
330
17
100
AcDbSymbolTableRecord
100
AcDbTextStyleTableRecord
  2
ACISOTS
 70
     0
 40
1.0
 41
1.0
 50
0.0
 71
     0
 42
1.0
  3
isocp.shx
  4
chineset.shx
  0
STYLE
  5
307
330
17
100
AcDbSymbolTableRecord
100
AcDbTextStyleTableRecord
  2
ACISOGDT
 70
     0
 40
0.0
 41
1.0
 50
0.0
 71
     0
 42
1.0
  3
amgdt.shx
  4

  0
STYLE
  5
322
330
17
100
AcDbSymbolTableRecord
100
AcDbTextStyleTableRecord
  2
CHINESET
 70
     0
 40
0.0
 41
1.0
 50
0.0
 71
     0
 42
1.0
  3
simplex
  4
CHINESET.SHX
  0
ENDTAB
  0
TABLE
  2
VIEW
  5
1D
330
0
100
AcDbSymbolTable
 70
     0
  0
ENDTAB
  0
TABLE
  2
UCS
  5
1E
330
0
100
AcDbSymbolTable
 70
     0
  0
ENDTAB
  0
TABLE
  2
APPID
  5
21
330
0
100
AcDbSymbolTable
 70
    24
  0
APPID
  5
22
330
21
100
AcDbSymbolTableRecord
100
AcDbRegAppTableRecord
  2
ACAD
 70
     0
  0
APPID
  5
13
330
21
100
AcDbSymbolTableRecord
100
AcDbRegAppTableRecord
  2
ACAD_PSEXT
 70
     0
  0
APPID
  5
28F
330
21
100
AcDbSymbolTableRecord
100
AcDbRegAppTableRecord
  2
MCAD_NO_VIS
 70
     0
  0
APPID
  5
290
330
21
100
AcDbSymbolTableRecord
100
AcDbRegAppTableRecord
  2
ACAD_TEMP_GRAPHIC
 70
     0
  0
APPID
  5
2C0
330
21
100
AcDbSymbolTableRecord
100
AcDbRegAppTableRecord
  2
AD_DRAW
 70
     0
  0
APPID
  5
2C3
330
21
100
AcDbSymbolTableRecord
100
AcDbRegAppTableRecord
  2
ACATTRIBSERVICES
 70
     0
  0
APPID
  5
2E1
330
21
100
AcDbSymbolTableRecord
100
AcDbRegAppTableRecord
  2
DESIGNERASSEMBLIES
 70
     0
  0
APPID
  5
2E7
330
21
100
AcDbSymbolTableRecord
100
AcDbRegAppTableRecord
  2
ACADM_DIM_EDIT
 70
     0
  0
APPID
  5
2E8
330
21
100
AcDbSymbolTableRecord
100
AcDbRegAppTableRecord
  2
AMDT_DM_ADJ
 70
     0
  0
APPID
  5
324
330
21
100
AcDbSymbolTableRecord
100
AcDbRegAppTableRecord
  2
GENIUS_GENOBJ-N-CRS_13
 70
     0
  0
APPID
  5
325
330
21
100
AcDbSymbolTableRecord
100
AcDbRegAppTableRecord
  2
GENIUS_GENOLIS_13
 70
     0
  0
APPID
  5
326
330
21
100
AcDbSymbolTableRecord
100
AcDbRegAppTableRecord
  2
GENIUS_GENOENT_13
 70
     0
  0
APPID
  5
327
330
21
100
AcDbSymbolTableRecord
100
AcDbRegAppTableRecord
  2
GENIUS_GENODEF_13
 70
     0
  0
APPID
  5
328
330
21
100
AcDbSymbolTableRecord
100
AcDbRegAppTableRecord
  2
GENIUS_GENOREF_13
 70
     0
  0
APPID
  5
329
330
21
100
AcDbSymbolTableRecord
100
AcDbRegAppTableRecord
  2
GENIUS_GENREC_14
 70
     0
  0
APPID
  5
32A
330
21
100
AcDbSymbolTableRecord
100
AcDbRegAppTableRecord
  2
GENIUS_GENOBJ-N-REC_13
 70
     0
  0
APPID
  5
4F4
330
21
100
AcDbSymbolTableRecord
100
AcDbRegAppTableRecord
  2
ACAD_DSTYLE_DIMTEXT_FILL
 70
     0
  0
APPID
  5
7F3
330
21
100
AcDbSymbolTableRecord
100
AcDbRegAppTableRecord
  2
AcAecLayerStandard
 70
     0
  0
APPID
  5
B14
330
21
100
AcDbSymbolTableRecord
100
AcDbRegAppTableRecord
  2
GENIUS_GENDIM_13
 70
     0
  0
APPID
  5
B15
330
21
100
AcDbSymbolTableRecord
100
AcDbRegAppTableRecord
  2
GENIUS_GENDTOL_13
 70
     0
  0
APPID
  5
B16
330
21
100
AcDbSymbolTableRecord
100
AcDbRegAppTableRecord
  2
GENIUS_GE3DTOL_13
 70
     0
  0
APPID
  5
B94
330
21
100
AcDbSymbolTableRecord
100
AcDbRegAppTableRecord
  2
ASURF_PCURVE_APPNAME
 70
     0
  0
APPID
  5
B99
330
21
100
AcDbSymbolTableRecord
100
AcDbRegAppTableRecord
  2
AMG_3D2D_5.0
 70
     0
  0
APPID
  5
1A88
330
21
100
AcDbSymbolTableRecord
100
AcDbRegAppTableRecord
  2
GENIUS_GENDIMSH_14
 70
     0
  0
ENDTAB
  0
TABLE
  2
DIMSTYLE
  5
23
330
0
100
AcDbSymbolTable
 70
     8
100
AcDbDimStyleTable
 71
     3
340
24
340
25
340
26
  0
DIMSTYLE
105
24
330
23
100
AcDbSymbolTableRecord
100
AcDbDimStyleTableRecord
  2
AM_ISO
 70
     0
  4
"
 41
2.5
 42
1.0
 43
8.0
 44
1.0
 47
0.1
 48
0.1
 73
     0
 74
     0
 77
     1
 78
     8
 79
     2
140
3.5
141
0.0
143
0.0393701
146
0.71
147
1.0
172
     1
176
   256
177
   256
178
   256
271
     2
272
     2
283
     0
284
     8
285
     8
340
18
371
    -1
372
    -1
  0
DIMSTYLE
105
25
330
23
100
AcDbSymbolTableRecord
100
AcDbDimStyleTableRecord
  2
AM_ISO$SF
 70
     0
  4
"
 41
2.5
 42
1.0
 43
10.0
 44
1.0
 47
0.1
 48
0.1
 73
     0
 74
     0
 75
     1
 76
     1
 77
     1
 78
     8
 79
     2
140
3.5
141
0.0
143
0.0393701
146
0.71
147
1.0
172
     1
176
   256
177
   256
178
   256
271
     2
272
     2
283
     0
284
     8
340
18
371
    -1
372
    -1
  0
DIMSTYLE
105
26
330
23
100
AcDbSymbolTableRecord
100
AcDbDimStyleTableRecord
  2
AM_ISO$SH
 70
     0
  4
"
 41
2.5
 42
1.0
 43
10.0
 44
1.0
 47
0.1
 48
0.1
 73
     0
 74
     0
 75
     1
 76
     1
 77
     1
 78
     8
 79
     2
140
3.5
141
0.0
143
0.0393701
144
2.0
146
0.71
147
1.0
172
     1
173
     1
176
   256
177
   256
178
   256
271
     2
272
     2
283
     0
284
     8
340
18
343
27
371
    -1
372
    -1
  0
DIMSTYLE
105
313
102
{ACAD_REACTORS
330
1A1E
102
}
330
23
100
AcDbSymbolTableRecord
100
AcDbDimStyleTableRecord
  2
AM_ISO$3
 70
     0
  4
"
 41
2.5
 42
1.0
 43
8.0
 44
1.0
 47
0.1
 48
0.1
 73
     0
 77
     1
 78
     8
 79
     2
140
3.5
141
0.0
143
0.0393701
146
0.71
147
1.0
176
   256
177
   256
178
   256
271
     2
272
     2
283
     0
284
     8
285
     8
288
     1
289
     0
340
18
371
    -1
372
    -1
  0
DIMSTYLE
105
314
102
{ACAD_REACTORS
330
18FE
330
1F8C
330
2022
102
}
330
23
100
AcDbSymbolTableRecord
100
AcDbDimStyleTableRecord
  2
AM_ISO$4
 70
     0
  4
"
 41
2.5
 42
1.0
 43
8.0
 44
1.0
 47
0.1
 48
0.1
 73
     0
 77
     1
 78
     8
 79
     2
140
3.5
141
0.0
143
0.0393701
146
0.71
147
1.0
176
   256
177
   256
178
   256
271
     2
272
     2
283
     0
284
     8
285
     8
288
     1
289
     0
340
18
371
    -1
372
    -1
  0
DIMSTYLE
105
315
330
23
100
AcDbSymbolTableRecord
100
AcDbDimStyleTableRecord
  2
AM_ISO$6
 70
     0
  4
"
 41
2.5
 42
1.0
 43
8.0
 44
1.0
 47
0.1
 48
0.1
 73
     0
 74
     0
 78
     8
 79
     2
140
3.5
141
0.0
143
0.0393701
146
0.71
147
1.0
172
     1
176
   256
177
   256
178
   256
271
     2
272
     2
283
     0
284
     8
285
     8
340
18
371
    -1
372
    -1
  0
DIMSTYLE
105
316
102
{ACAD_REACTORS
330
203E
102
}
330
23
100
AcDbSymbolTableRecord
100
AcDbDimStyleTableRecord
  2
AM_ISO$7
 70
     0
  4
"
 41
2.5
 42
1.0
 43
8.0
 44
1.0
 47
0.1
 48
0.1
 73
     0
 74
     0
 77
     1
 78
     8
 79
     2
140
5.0
141
0.0
143
0.0393701
146
0.71
147
1.5
172
     1
176
   256
177
   256
178
   256
271
     2
272
     2
283
     0
284
     8
285
     8
340
18
371
    -1
372
    -1
  0
DIMSTYLE
105
323
102
{ACAD_REACTORS
330
17B7
330
1920
330
1936
330
1A42
330
1A72
330
1A89
330
1BB6
330
1C28
330
1C3E
330
1C66
330
1C85
330
1C9B
330
1EF8
330
1F0E
330
1F5A
330
1FE4
330
1FFA
330
2040
330
205F
330
207E
102
}
330
23
100
AcDbSymbolTableRecord
100
AcDbDimStyleTableRecord
  2
AM_ISO$0
 70
     0
  4
"
 41
2.5
 42
1.0
 43
8.0
 44
1.0
 47
0.1
 48
0.1
 73
     0
 74
     0
 77
     1
 78
     8
 79
     2
140
3.5
141
0.0
143
0.0393701
146
0.71
147
1.0
172
     1
176
   256
177
   256
178
   256
271
     2
272
     2
283
     0
284
     8
285
     8
340
18
371
    -1
372
    -1
  0
ENDTAB
  0
TABLE
  2
BLOCK_RECORD
  5
1
330
0
100
AcDbSymbolTable
 70
    29
  0
BLOCK_RECORD
  5
2
102
{ACAD_XDICTIONARY
360
3
102
}
330
1
100
AcDbSymbolTableRecord
100
AcDbBlockTableRecord
  2
*MODEL_SPACE
340
B
  0
BLOCK_RECORD
  5
D
330
1
100
AcDbSymbolTableRecord
100
AcDbBlockTableRecord
  2
*PAPER_SPACE
340
10
  0
BLOCK_RECORD
  5
27
330
1
100
AcDbSymbolTableRecord
100
AcDbBlockTableRecord
  2
GENAXEH
340
0
  0
BLOCK_RECORD
  5
7E4
102
{ACAD_XDICTIONARY
360
7E5
102
}
330
1
100
AcDbSymbolTableRecord
100
AcDbBlockTableRecord
  2
A$C453B67D5
340
0
102
{BLKREFS
331
7FF
102
}
  0
BLOCK_RECORD
  5
7EB
102
{ACAD_XDICTIONARY
360
7EC
102
}
330
1
100
AcDbSymbolTableRecord
100
AcDbBlockTableRecord
  2
A$C17481420
340
0
102
{BLKREFS
331
802
331
800
102
}
  0
BLOCK_RECORD
  5
17B8
330
1
100
AcDbSymbolTableRecord
100
AcDbBlockTableRecord
  2
*D4
340
0
  0
BLOCK_RECORD
  5
18FF
330
1
100
AcDbSymbolTableRecord
100
AcDbBlockTableRecord
  2
*D5
340
0
  0
BLOCK_RECORD
  5
1921
330
1
100
AcDbSymbolTableRecord
100
AcDbBlockTableRecord
  2
*D6
340
0
  0
BLOCK_RECORD
  5
1937
330
1
100
AcDbSymbolTableRecord
100
AcDbBlockTableRecord
  2
*D7
340
0
  0
BLOCK_RECORD
  5
1A1F
330
1
100
AcDbSymbolTableRecord
100
AcDbBlockTableRecord
  2
*D8
340
0
  0
BLOCK_RECORD
  5
1A43
330
1
100
AcDbSymbolTableRecord
100
AcDbBlockTableRecord
  2
*D9
340
0
  0
BLOCK_RECORD
  5
1A73
330
1
100
AcDbSymbolTableRecord
100
AcDbBlockTableRecord
  2
*D10
340
0
  0
BLOCK_RECORD
  5
1A8A
330
1
100
AcDbSymbolTableRecord
100
AcDbBlockTableRecord
  2
*D11
340
0
  0
BLOCK_RECORD
  5
1BB7
330
1
100
AcDbSymbolTableRecord
100
AcDbBlockTableRecord
  2
*D12
340
0
  0
BLOCK_RECORD
  5
1C29
330
1
100
AcDbSymbolTableRecord
100
AcDbBlockTableRecord
  2
*D14
340
0
  0
BLOCK_RECORD
  5
1C3F
330
1
100
AcDbSymbolTableRecord
100
AcDbBlockTableRecord
  2
*D15
340
0
  0
BLOCK_RECORD
  5
1C67
330
1
100
AcDbSymbolTableRecord
100
AcDbBlockTableRecord
  2
*D16
340
0
  0
BLOCK_RECORD
  5
1C86
330
1
100
AcDbSymbolTableRecord
100
AcDbBlockTableRecord
  2
*D17
340
0
  0
BLOCK_RECORD
  5
1C9C
330
1
100
AcDbSymbolTableRecord
100
AcDbBlockTableRecord
  2
*D18
340
0
  0
BLOCK_RECORD
  5
1EF9
330
1
100
AcDbSymbolTableRecord
100
AcDbBlockTableRecord
  2
*D19
340
0
  0
BLOCK_RECORD
  5
1F0F
330
1
100
AcDbSymbolTableRecord
100
AcDbBlockTableRecord
  2
*D20
340
0
  0
BLOCK_RECORD
  5
1F5B
330
1
100
AcDbSymbolTableRecord
100
AcDbBlockTableRecord
  2
*D21
340
0
  0
BLOCK_RECORD
  5
1F8D
330
1
100
AcDbSymbolTableRecord
100
AcDbBlockTableRecord
  2
*D22
340
0
  0
BLOCK_RECORD
  5
1FE5
330
1
100
AcDbSymbolTableRecord
100
AcDbBlockTableRecord
  2
*D23
340
0
  0
BLOCK_RECORD
  5
1FFB
330
1
100
AcDbSymbolTableRecord
100
AcDbBlockTableRecord
  2
*D24
340
0
  0
BLOCK_RECORD
  5
2023
330
1
100
AcDbSymbolTableRecord
100
AcDbBlockTableRecord
  2
*D25
340
0
  0
BLOCK_RECORD
  5
2041
330
1
100
AcDbSymbolTableRecord
100
AcDbBlockTableRecord
  2
*D26
340
0
  0
BLOCK_RECORD
  5
2060
330
1
100
AcDbSymbolTableRecord
100
AcDbBlockTableRecord
  2
*D27
340
0
  0
BLOCK_RECORD
  5
207F
330
1
100
AcDbSymbolTableRecord
100
AcDbBlockTableRecord
  2
*D28
340
0
  0
ENDTAB
  0
ENDSEC
  0
SECTION
  2
BLOCKS
  0
BLOCK
  5
4
330
2
100
AcDbEntity
  8
0
100
AcDbBlockBegin
  2
*MODEL_SPACE
 70
     0
 10
0.0
 20
0.0
 30
0.0
  3
*MODEL_SPACE
  1

  0
ENDBLK
  5
A
330
2
100
AcDbEntity
  8
0
100
AcDbBlockEnd
  0
BLOCK
  5
E
330
D
100
AcDbEntity
 67
     1
  8
0
100
AcDbBlockBegin
  2
*PAPER_SPACE
 70
     0
 10
0.0
 20
0.0
 30
0.0
  3
*PAPER_SPACE
  1

  0
ENDBLK
  5
F
330
D
100
AcDbEntity
 67
     1
  8
0
100
AcDbBlockEnd
  0
BLOCK
  5
28
330
27
100
AcDbEntity
  8
0
100
AcDbBlockBegin
  2
GENAXEH
 70
     0
 10
0.0
 20
0.0
 30
0.0
  3
GENAXEH
  1

  0
LINE
  5
29
330
27
100
AcDbEntity
  8
0
100
AcDbLine
 10
-1.0
 20
0.0
 30
0.0
 11
1.0
 21
0.0
 31
0.0
  0
ENDBLK
  5
2A
330
27
100
AcDbEntity
  8
0
100
AcDbBlockEnd
  0
BLOCK
  5
7E6
330
7E4
100
AcDbEntity
  8
0
100
AcDbBlockBegin
  2
A$C453B67D5
 70
     0
 10
0.0
 20
0.0
 30
0.0
  3
A$C453B67D5
  1

  0
TEXT
  5
7E7
330
7E4
100
AcDbEntity
  8
0
 62
     4
100
AcDbText
 10
0.0000000042221018
 20
15.6750728935973
 30
0.0
 40
3.0
  1
0
 41
0.75
  7
CHINESET
100
AcDbText
  0
LINE
  5
7E8
330
7E4
100
AcDbEntity
  8
0
 62
     4
100
AcDbLine
 10
0.7831209408720952
 20
-0.0000001285146709
 30
0.0
 11
0.7831209408720952
 21
12.50658996549839
 31
0.0
  0
TEXT
  5
7E9
330
7E4
100
AcDbEntity
  8
0
 62
     4
100
AcDbText
 10
5.354910616106053
 20
16.42400857412451
 30
0.0
 40
3.0
  1
Stroke
 41
0.75
  7
CHINESET
100
AcDbText
  0
ENDBLK
  5
7EA
330
7E4
100
AcDbEntity
  8
0
100
AcDbBlockEnd
  0
BLOCK
  5
7ED
330
7EB
100
AcDbEntity
  8
0
100
AcDbBlockBegin
  2
A$C17481420
 70
     0
 10
0.0
 20
0.0
 30
0.0
  3
A$C17481420
  1

  0
LINE
  5
7EE
330
7EB
100
AcDbEntity
  8
SL
100
AcDbLine
 10
14.92688374510175
 20
0.6911761177026392
 30
0.0
 11
5.249999590827769
 21
0.6911761177026392
 31
0.0
  0
TRACE
  5
7EF
330
7EB
100
AcDbEntity
  8
SL
370
    35
100
AcDbTrace
 10
5.249999590827769
 20
1.382351726952606
 30
0.0
 11
5.249999590827769
 21
0.000000508452672
 31
0.0
 12
-0.0000004091722303
 22
0.6911761177026392
 32
0.0
 13
-0.0000004091722303
 23
0.6911761177026392
 33
0.0
  0
MTEXT
  5
7F0
330
7EB
100
AcDbEntity
  8
SL
100
AcDbMText
 10
7.091092156233571
 20
2.131627989433411
 30
0.0
 40
3.674999999999999
 41
0.0
 71
     7
 72
     5
  1
SL
  7
ACISOTS
 73
     1
 44
1.0
1001
ACAD
1000
MTEXTBEGIN
1070
    73
1070
     1
1070
    44
1040
1.0
1070
    74
1070
     0
1000
MTEXTEND
  0
ENDBLK
  5
7F1
330
7EB
100
AcDbEntity
  8
0
100
AcDbBlockEnd
  0
BLOCK
  5
17C2
330
17B8
100
AcDbEntity
  8
0
100
AcDbBlockBegin
  2
*D4
 70
     1
 10
0.0
 20
0.0
 30
0.0
  3
*D4
  1

  0
LINE
  5
218B
330
17B8
100
AcDbEntity
  8
AM_5
100
AcDbLine
 10
373.7392385088053
 20
49.24270310045165
 30
0.0
 11
351.6885807911168
 21
49.24270310045166
 31
0.0
  0
LINE
  5
218C
330
17B8
100
AcDbEntity
  8
AM_5
100
AcDbLine
 10
373.7392385088053
 20
-10.75729689954835
 30
0.0
 11
351.6885807911168
 21
-10.75729689954834
 31
0.0
  0
LINE
  5
218D
330
17B8
100
AcDbEntity
  8
AM_5
100
AcDbLine
 10
354.5870220404718
 20
41.99659997706413
 30
0.0
 11
354.5870220404718
 21
-3.511193776160824
 31
0.0
  0
SOLID
  5
218E
330
17B8
100
AcDbEntity
  8
AM_5
100
AcDbTrace
 10
353.3793381865738
 20
41.99659997706413
 30
0.0
 11
355.7947058943697
 21
41.99659997706413
 31
0.0
 12
354.5870220404718
 22
49.24270310045166
 32
0.0
 13
354.5870220404718
 23
49.24270310045166
 33
0.0
  0
SOLID
  5
218F
330
17B8
100
AcDbEntity
  8
AM_5
100
AcDbTrace
 10
353.3793381865738
 20
-3.511193776160824
 30
0.0
 11
355.7947058943697
 21
-3.511193776160824
 31
0.0
 12
354.5870220404718
 22
-10.75729689954834
 32
0.0
 13
354.5870220404718
 23
-10.75729689954834
 33
0.0
  0
MTEXT
  5
2190
330
17B8
100
AcDbEntity
  8
AM_5
100
AcDbMText
 10
346.6163086047455
 20
19.24270310045176
 30
0.0
 40
10.14454437274252
 41
0.0
 71
     5
 72
     1
  1
%%c60
 11
0.0000000000000001
 21
1.0
 31
0.0
 73
     1
 44
1.0
1001
ACAD
1000
MTEXTBEGIN
1070
    73
1070
     1
1070
    44
1040
1.0
1070
    74
1070
     0
1000
MTEXTEND
  0
POINT
  5
2191
330
17B8
100
AcDbEntity
  8
Defpoints
 62
     0
100
AcDbPoint
 10
376.6376797581603
 20
49.24270310045165
 30
0.0
  0
POINT
  5
2192
330
17B8
100
AcDbEntity
  8
Defpoints
 62
     0
100
AcDbPoint
 10
376.6376797581603
 20
-10.75729689954835
 30
0.0
  0
POINT
  5
2193
330
17B8
100
AcDbEntity
  8
Defpoints
 62
     0
100
AcDbPoint
 10
354.5870220404718
 20
-10.75729689954834
 30
0.0
  0
ENDBLK
  5
17C3
330
17B8
100
AcDbEntity
  8
0
100
AcDbBlockEnd
  0
BLOCK
  5
1906
330
18FF
100
AcDbEntity
  8
0
100
AcDbBlockBegin
  2
*D5
 70
     1
 10
0.0
 20
0.0
 30
0.0
  3
*D5
  1

  0
LINE
  5
2194
330
18FF
100
AcDbEntity
  8
AM_5
100
AcDbLine
 10
187.6424075339046
 20
85.8544640655654
 30
0.0
 11
201.1006681133892
 21
108.7278629561709
 31
0.0
  0
LINE
  5
2195
330
18FF
100
AcDbEntity
  8
AM_5
100
AcDbLine
 10
201.1006681133892
 20
108.7278629561709
 30
0.0
 11
267.3154852600764
 21
108.7278629561709
 31
0.0
  0
SOLID
  5
2196
330
18FF
100
AcDbEntity
  8
AM_5
100
AcDbTrace
 10
186.601529531008
 20
86.46689632635149
 30
0.0
 11
188.6832855368013
 21
85.24203180477924
 31
0.0
 12
183.9678139691878
 22
79.60919604818549
 32
0.0
 13
183.9678139691878
 23
79.60919604818549
 33
0.0
  0
MTEXT
  5
2197
330
18FF
100
AcDbEntity
  8
AM_5
100
AcDbMText
 10
235.6572973114103
 20
116.699574870674
 30
0.0
 40
10.14454437274252
 41
0.0
 71
     5
 72
     1
  1
4-M12*1.25
 73
     1
 44
1.0
1001
ACAD
1000
MTEXTBEGIN
1070
    73
1070
     1
1070
    44
1040
1.0
1070
    74
1070
     0
1000
MTEXTEND
  0
POINT
  5
2198
330
18FF
100
AcDbEntity
  8
Defpoints
 62
     0
100
AcDbPoint
 10
183.9678139691878
 20
79.60919604818549
 30
0.0
  0
POINT
  5
2199
330
18FF
100
AcDbEntity
  8
Defpoints
 62
     0
100
AcDbPoint
 10
180.8102744695274
 20
74.24270310045108
 30
0.0
  0
ENDBLK
  5
1907
330
18FF
100
AcDbEntity
  8
0
100
AcDbBlockEnd
  0
BLOCK
  5
192B
330
1921
100
AcDbEntity
  8
0
100
AcDbBlockBegin
  2
*D6
 70
     1
 10
0.0
 20
0.0
 30
0.0
  3
*D6
  1

  0
LINE
  5
219A
330
1921
100
AcDbEntity
  8
AM_5
100
AcDbLine
 10
180.8102744695275
 20
-46.87623814890337
 30
0.0
 11
180.8102744695275
 21
-87.43703314116288
 31
0.0
  0
LINE
  5
219B
330
1921
100
AcDbEntity
  8
AM_5
100
AcDbLine
 10
290.8102744695275
 20
-46.87623814890337
 30
0.0
 11
290.8102744695275
 21
-87.43703314116288
 31
0.0
  0
LINE
  5
219C
330
1921
100
AcDbEntity
  8
AM_5
100
AcDbLine
 10
188.056377592915
 20
-84.53859189180787
 30
0.0
 11
283.56417134614
 21
-84.53859189180787
 31
0.0
  0
SOLID
  5
219D
330
1921
100
AcDbEntity
  8
AM_5
100
AcDbTrace
 10
188.056377592915
 20
-83.33090803790994
 30
0.0
 11
188.056377592915
 21
-85.74627574570579
 31
0.0
 12
180.8102744695275
 22
-84.53859189180787
 32
0.0
 13
180.8102744695275
 23
-84.53859189180787
 33
0.0
  0
SOLID
  5
219E
330
1921
100
AcDbEntity
  8
AM_5
100
AcDbTrace
 10
283.56417134614
 20
-83.33090803790994
 30
0.0
 11
283.56417134614
 21
-85.74627574570579
 31
0.0
 12
290.8102744695275
 22
-84.53859189180787
 32
0.0
 13
290.8102744695275
 23
-84.53859189180787
 33
0.0
  0
MTEXT
  5
219F
330
1921
100
AcDbEntity
  8
AM_5
100
AcDbMText
 10
235.8102744695275
 20
-76.5678784560816
 30
0.0
 40
10.14454437274252
 41
0.0
 71
     5
 72
     1
  1
{\Famgdt|c136;o}110
 73
     1
 44
1.0
1001
ACAD
1000
MTEXTBEGIN
1070
    73
1070
     1
1070
    44
1040
1.0
1070
    74
1070
     0
1000
MTEXTEND
  0
POINT
  5
21A0
330
1921
100
AcDbEntity
  8
Defpoints
 62
     0
100
AcDbPoint
 10
180.8102744695275
 20
-43.97779689954837
 30
0.0
  0
POINT
  5
21A1
330
1921
100
AcDbEntity
  8
Defpoints
 62
     0
100
AcDbPoint
 10
290.8102744695275
 20
-43.97779689954837
 30
0.0
  0
POINT
  5
21A2
330
1921
100
AcDbEntity
  8
Defpoints
 62
     0
100
AcDbPoint
 10
290.8102744695275
 20
-84.53859189180787
 30
0.0
  0
ENDBLK
  5
192C
330
1921
100
AcDbEntity
  8
0
100
AcDbBlockEnd
  0
BLOCK
  5
1941
330
1937
100
AcDbEntity
  8
0
100
AcDbBlockBegin
  2
*D7
 70
     1
 10
0.0
 20
0.0
 30
0.0
  3
*D7
  1

  0
LINE
  5
21A3
330
1937
100
AcDbEntity
  8
AM_5
100
AcDbLine
 10
165.8102744695275
 20
-41.66304822467423
 30
0.0
 11
165.8102744695275
 21
-110.6245631360031
 31
0.0
  0
LINE
  5
21A4
330
1937
100
AcDbEntity
  8
AM_5
100
AcDbLine
 10
305.8102744695274
 20
-41.66304822467423
 30
0.0
 11
305.8102744695274
 21
-110.6245631360031
 31
0.0
  0
LINE
  5
21A5
330
1937
100
AcDbEntity
  8
AM_5
100
AcDbLine
 10
173.056377592915
 20
-107.7261218866481
 30
0.0
 11
298.5641713461399
 21
-107.7261218866481
 31
0.0
  0
SOLID
  5
21A6
330
1937
100
AcDbEntity
  8
AM_5
100
AcDbTrace
 10
173.056377592915
 20
-106.5184380327502
 30
0.0
 11
173.056377592915
 21
-108.933805740546
 31
0.0
 12
165.8102744695275
 22
-107.7261218866481
 32
0.0
 13
165.8102744695275
 23
-107.7261218866481
 33
0.0
  0
SOLID
  5
21A7
330
1937
100
AcDbEntity
  8
AM_5
100
AcDbTrace
 10
298.5641713461399
 20
-106.5184380327502
 30
0.0
 11
298.5641713461399
 21
-108.933805740546
 31
0.0
 12
305.8102744695274
 22
-107.7261218866481
 32
0.0
 13
305.8102744695274
 23
-107.7261218866481
 33
0.0
  0
MTEXT
  5
21A8
330
1937
100
AcDbEntity
  8
AM_5
100
AcDbMText
 10
235.8102744695274
 20
-99.75540845092185
 30
0.0
 40
10.14454437274252
 41
0.0
 71
     5
 72
     1
  1
{\Famgdt|c136;o}140
 73
     1
 44
1.0
1001
ACAD
1000
MTEXTBEGIN
1070
    73
1070
     1
1070
    44
1040
1.0
1070
    74
1070
     0
1000
MTEXTEND
  0
POINT
  5
21A9
330
1937
100
AcDbEntity
  8
Defpoints
 62
     0
100
AcDbPoint
 10
165.8102744695275
 20
-38.76460697531923
 30
0.0
  0
POINT
  5
21AA
330
1937
100
AcDbEntity
  8
Defpoints
 62
     0
100
AcDbPoint
 10
305.8102744695274
 20
-38.76460697531923
 30
0.0
  0
POINT
  5
21AB
330
1937
100
AcDbEntity
  8
Defpoints
 62
     0
100
AcDbPoint
 10
305.8102744695274
 20
-107.7261218866481
 30
0.0
  0
ENDBLK
  5
1942
330
1937
100
AcDbEntity
  8
0
100
AcDbBlockEnd
  0
BLOCK
  5
1A28
330
1A1F
100
AcDbEntity
  8
0
100
AcDbBlockBegin
  2
*D8
 70
     1
 10
0.0
 20
0.0
 30
0.0
  3
*D8
  1

  0
LINE
  5
21AC
330
1A1F
100
AcDbEntity
  8
AM_5
100
AcDbLine
 10
521.3393424145214
 20
47.46977776557318
 30
0.0
 11
542.5921012446154
 21
111.6831283743433
 31
0.0
  0
LINE
  5
21AD
330
1A1F
100
AcDbEntity
  8
AM_5
100
AcDbLine
 10
542.5921012446154
 20
111.6831283743433
 30
0.0
 11
584.9066903844487
 21
111.6831283743434
 31
0.0
  0
SOLID
  5
21AE
330
1A1F
100
AcDbEntity
  8
AM_5
100
AcDbTrace
 10
520.1928229782823
 20
47.84924248500297
 30
0.0
 11
522.4858618507604
 21
47.09031304614339
 31
0.0
 12
519.0625540979426
 22
40.59066114813916
 32
0.0
 13
519.0625540979426
 23
40.59066114813916
 33
0.0
  0
MTEXT
  5
21AF
330
1A1F
100
AcDbEntity
  8
AM_5
100
AcDbMText
 10
565.1986164392098
 20
119.6718655743431
 30
0.0
 40
10.14454437274252
 41
0.0
 71
     5
 72
     1
  1
2-G1/2
 73
     1
 44
1.0
1001
ACAD
1000
MTEXTBEGIN
1070
    73
1070
     1
1070
    44
1040
1.0
1070
    74
1070
     0
1000
MTEXTEND
  0
POINT
  5
21B0
330
1A1F
100
AcDbEntity
  8
Defpoints
 62
     0
100
AcDbPoint
 10
519.0625540979426
 20
40.59066114813916
 30
0.0
  0
POINT
  5
21B1
330
1A1F
100
AcDbEntity
  8
Defpoints
 62
     0
100
AcDbPoint
 10
512.2128054183776
 20
19.89474505276419
 30
0.0
  0
ENDBLK
  5
1A29
330
1A1F
100
AcDbEntity
  8
0
100
AcDbBlockEnd
  0
BLOCK
  5
1A4F
330
1A43
100
AcDbEntity
  8
0
100
AcDbBlockBegin
  2
*D9
 70
     1
 10
0.0
 20
0.0
 30
0.0
  3
*D9
  1

  0
LINE
  5
21B2
330
1A43
100
AcDbEntity
  8
AM_5
100
AcDbLine
 10
374.6376797581603
 20
-11.65573814890336
 30
0.0
 11
374.6376797581603
 21
-156.9996231256831
 31
0.0
  0
LINE
  5
21B3
330
1A43
100
AcDbEntity
  8
AM_5
100
AcDbLine
 10
380.6376797581603
 20
-52.25890736923343
 30
0.0
 11
380.6376797581603
 21
-156.9996231256831
 31
0.0
  0
LINE
  5
21B4
330
1A43
100
AcDbEntity
  8
AM_5
100
AcDbLine
 10
387.8837828815478
 20
-154.1011818763281
 30
0.0
 11
395.1298860049353
 21
-154.1011818763281
 31
0.0
  0
LINE
  5
21B5
330
1A43
100
AcDbEntity
  8
AM_5
100
AcDbLine
 10
367.3915766347728
 20
-154.1011818763281
 30
0.0
 11
349.1804648637269
 21
-154.1011818763281
 31
0.0
  0
LINE
  5
21B6
330
1A43
100
AcDbEntity
  8
AM_5
100
AcDbLine
 10
380.6376797581603
 20
-154.1011818763281
 30
0.0
 11
374.6376797581603
 21
-154.1011818763281
 31
0.0
  0
SOLID
  5
21B7
330
1A43
100
AcDbEntity
  8
AM_5
100
AcDbTrace
 10
387.8837828815478
 20
-152.8934980224302
 30
0.0
 11
387.8837828815478
 21
-155.308865730226
 31
0.0
 12
380.6376797581603
 22
-154.1011818763281
 32
0.0
 13
380.6376797581603
 23
-154.1011818763281
 33
0.0
  0
SOLID
  5
21B8
330
1A43
100
AcDbEntity
  8
AM_5
100
AcDbTrace
 10
367.3915766347728
 20
-152.8934980224302
 30
0.0
 11
367.3915766347728
 21
-155.308865730226
 31
0.0
 12
374.6376797581603
 22
-154.1011818763281
 32
0.0
 13
374.6376797581603
 23
-154.1011818763281
 33
0.0
  0
MTEXT
  5
21B9
330
1A43
100
AcDbEntity
  8
AM_5
100
AcDbMText
 10
354.6629691875561
 20
-146.1304684406018
 30
0.0
 40
10.14454437274252
 41
0.0
 71
     5
 72
     1
  1
6
 73
     1
 44
1.0
1001
ACAD
1000
MTEXTBEGIN
1070
    73
1070
     1
1070
    44
1040
1.0
1070
    74
1070
     0
1000
MTEXTEND
  0
POINT
  5
21BA
330
1A43
100
AcDbEntity
  8
Defpoints
 62
     0
100
AcDbPoint
 10
374.6376797581603
 20
-8.75729689954835
 30
0.0
  0
POINT
  5
21BB
330
1A43
100
AcDbEntity
  8
Defpoints
 62
     0
100
AcDbPoint
 10
380.6376797581603
 20
-49.36046611987842
 30
0.0
  0
POINT
  5
21BC
330
1A43
100
AcDbEntity
  8
Defpoints
 62
     0
100
AcDbPoint
 10
380.6376797581603
 20
-154.1011818763281
 30
0.0
  0
ENDBLK
  5
1A50
330
1A43
100
AcDbEntity
  8
0
100
AcDbBlockEnd
  0
BLOCK
  5
1A7D
330
1A73
100
AcDbEntity
  8
0
100
AcDbBlockBegin
  2
*D10
 70
     1
 10
0.0
 20
0.0
 30
0.0
  3
*D10
  1

  0
LINE
  5
21BD
330
1A73
100
AcDbEntity
  8
AM_5
100
AcDbLine
 10
380.6376797581604
 20
-52.25890736923343
 30
0.0
 11
380.6376797581604
 21
-156.9996231256831
 31
0.0
  0
LINE
  5
21BE
330
1A73
100
AcDbEntity
  8
AM_5
100
AcDbLine
 10
721.6376797581602
 20
2.844261851095732
 30
0.0
 11
721.6376797581602
 21
-156.9996231256831
 31
0.0
  0
LINE
  5
21BF
330
1A73
100
AcDbEntity
  8
AM_5
100
AcDbLine
 10
387.8837828815479
 20
-154.1011818763281
 30
0.0
 11
714.3915766347727
 21
-154.1011818763281
 31
0.0
  0
SOLID
  5
21C0
330
1A73
100
AcDbEntity
  8
AM_5
100
AcDbTrace
 10
387.8837828815479
 20
-152.8934980224302
 30
0.0
 11
387.8837828815479
 21
-155.308865730226
 31
0.0
 12
380.6376797581604
 22
-154.1011818763281
 32
0.0
 13
380.6376797581604
 23
-154.1011818763281
 33
0.0
  0
SOLID
  5
21C1
330
1A73
100
AcDbEntity
  8
AM_5
100
AcDbTrace
 10
714.3915766347727
 20
-152.8934980224302
 30
0.0
 11
714.3915766347727
 21
-155.308865730226
 31
0.0
 12
721.6376797581602
 22
-154.1011818763281
 32
0.0
 13
721.6376797581602
 23
-154.1011818763281
 33
0.0
  0
MTEXT
  5
21C2
330
1A73
100
AcDbEntity
  8
AM_5
100
AcDbMText
 10
551.1376797581602
 20
-146.1304684406018
 30
0.0
 40
10.14454437274252
 41
0.0
 71
     5
 72
     1
  1
341+ST
 73
     1
 44
1.0
1001
ACAD
1000
MTEXTBEGIN
1070
    73
1070
     1
1070
    44
1040
1.0
1070
    74
1070
     0
1000
MTEXTEND
  0
POINT
  5
21C3
330
1A73
100
AcDbEntity
  8
Defpoints
 62
     0
100
AcDbPoint
 10
380.6376797581604
 20
-49.36046611987842
 30
0.0
  0
POINT
  5
21C4
330
1A73
100
AcDbEntity
  8
Defpoints
 62
     0
100
AcDbPoint
 10
721.6376797581602
 20
5.742703100450739
 30
0.0
  0
POINT
  5
21C5
330
1A73
100
AcDbEntity
  8
Defpoints
 62
     0
100
AcDbPoint
 10
721.6376797581602
 20
-154.1011818763281
 30
0.0
  0
ENDBLK
  5
1A7E
330
1A73
100
AcDbEntity
  8
0
100
AcDbBlockEnd
  0
BLOCK
  5
1A94
330
1A8A
100
AcDbEntity
  8
0
100
AcDbBlockBegin
  2
*D11
 70
     1
 10
0.0
 20
0.0
 30
0.0
  3
*D11
  1

  0
LINE
  5
21C6
330
1A8A
100
AcDbEntity
  8
AM_5
100
AcDbLine
 10
680.6376797581602
 20
-52.65573814890279
 30
0.0
 11
680.6376797581602
 21
-133.812093130843
 31
0.0
  0
LINE
  5
21C7
330
1A8A
100
AcDbEntity
  8
AM_5
100
AcDbLine
 10
721.6376797581603
 20
2.844261851095732
 30
0.0
 11
721.6376797581603
 21
-133.812093130843
 31
0.0
  0
LINE
  5
21C8
330
1A8A
100
AcDbEntity
  8
AM_5
100
AcDbLine
 10
687.8837828815478
 20
-130.913651881488
 30
0.0
 11
714.3915766347728
 21
-130.913651881488
 31
0.0
  0
SOLID
  5
21C9
330
1A8A
100
AcDbEntity
  8
AM_5
100
AcDbTrace
 10
687.8837828815478
 20
-129.7059680275901
 30
0.0
 11
687.8837828815478
 21
-132.1213357353859
 31
0.0
 12
680.6376797581602
 22
-130.913651881488
 32
0.0
 13
680.6376797581602
 23
-130.913651881488
 33
0.0
  0
SOLID
  5
21CA
330
1A8A
100
AcDbEntity
  8
AM_5
100
AcDbTrace
 10
714.3915766347728
 20
-129.7059680275901
 30
0.0
 11
714.3915766347728
 21
-132.1213357353859
 31
0.0
 12
721.6376797581603
 22
-130.913651881488
 32
0.0
 13
721.6376797581603
 23
-130.913651881488
 33
0.0
  0
MTEXT
  5
21CB
330
1A8A
100
AcDbEntity
  8
AM_5
100
AcDbMText
 10
701.1376797581604
 20
-122.9429384457617
 30
0.0
 40
10.14454437274252
 41
0.0
 71
     5
 72
     1
  1
41
 73
     1
 44
1.0
1001
ACAD
1000
MTEXTBEGIN
1070
    73
1070
     1
1070
    44
1040
1.0
1070
    74
1070
     0
1000
MTEXTEND
  0
POINT
  5
21CC
330
1A8A
100
AcDbEntity
  8
Defpoints
 62
     0
100
AcDbPoint
 10
680.6376797581602
 20
-49.75729689954778
 30
0.0
  0
POINT
  5
21CD
330
1A8A
100
AcDbEntity
  8
Defpoints
 62
     0
100
AcDbPoint
 10
721.6376797581603
 20
5.742703100450739
 30
0.0
  0
POINT
  5
21CE
330
1A8A
100
AcDbEntity
  8
Defpoints
 62
     0
100
AcDbPoint
 10
721.6376797581603
 20
-130.913651881488
 30
0.0
  0
ENDBLK
  5
1A95
330
1A8A
100
AcDbEntity
  8
0
100
AcDbBlockEnd
  0
BLOCK
  5
1BC1
330
1BB7
100
AcDbEntity
  8
0
100
AcDbBlockBegin
  2
*D12
 70
     1
 10
0.0
 20
0.0
 30
0.0
  3
*D12
  1

  0
LINE
  5
21CF
330
1BB7
100
AcDbEntity
  8
AM_5
100
AcDbLine
 10
540.6376797581603
 20
-46.00956722138181
 30
0.0
 11
540.6376797581603
 21
-133.812093130843
 31
0.0
  0
LINE
  5
21D0
330
1BB7
100
AcDbEntity
  8
AM_5
100
AcDbLine
 10
680.6376797581601
 20
-52.65573814890279
 30
0.0
 11
680.6376797581601
 21
-133.812093130843
 31
0.0
  0
LINE
  5
21D1
330
1BB7
100
AcDbEntity
  8
AM_5
100
AcDbLine
 10
547.8837828815478
 20
-130.913651881488
 30
0.0
 11
673.3915766347726
 21
-130.913651881488
 31
0.0
  0
SOLID
  5
21D2
330
1BB7
100
AcDbEntity
  8
AM_5
100
AcDbTrace
 10
547.8837828815478
 20
-129.7059680275901
 30
0.0
 11
547.8837828815478
 21
-132.1213357353859
 31
0.0
 12
540.6376797581603
 22
-130.913651881488
 32
0.0
 13
540.6376797581603
 23
-130.913651881488
 33
0.0
  0
SOLID
  5
21D3
330
1BB7
100
AcDbEntity
  8
AM_5
100
AcDbTrace
 10
673.3915766347726
 20
-129.7059680275901
 30
0.0
 11
673.3915766347726
 21
-132.1213357353859
 31
0.0
 12
680.6376797581601
 22
-130.913651881488
 32
0.0
 13
680.6376797581601
 23
-130.913651881488
 33
0.0
  0
MTEXT
  5
21D4
330
1BB7
100
AcDbEntity
  8
AM_5
100
AcDbMText
 10
610.6376797581601
 20
-122.9429384457617
 30
0.0
 40
10.14454437274252
 41
0.0
 71
     5
 72
     1
  1
140
 73
     1
 44
1.0
1001
ACAD
1000
MTEXTBEGIN
1070
    73
1070
     1
1070
    44
1040
1.0
1070
    74
1070
     0
1000
MTEXTEND
  0
POINT
  5
21D5
330
1BB7
100
AcDbEntity
  8
Defpoints
 62
     0
100
AcDbPoint
 10
540.6376797581603
 20
-43.11112597202679
 30
0.0
  0
POINT
  5
21D6
330
1BB7
100
AcDbEntity
  8
Defpoints
 62
     0
100
AcDbPoint
 10
680.6376797581601
 20
-49.75729689954778
 30
0.0
  0
POINT
  5
21D7
330
1BB7
100
AcDbEntity
  8
Defpoints
 62
     0
100
AcDbPoint
 10
680.6376797581601
 20
-130.913651881488
 30
0.0
  0
ENDBLK
  5
1BC2
330
1BB7
100
AcDbEntity
  8
0
100
AcDbBlockEnd
  0
BLOCK
  5
1C33
330
1C29
100
AcDbEntity
  8
0
100
AcDbBlockBegin
  2
*D14
 70
     1
 10
0.0
 20
0.0
 30
0.0
  3
*D14
  1

  0
LINE
  5
21E3
330
1C29
100
AcDbEntity
  8
AM_5
100
AcDbLine
 10
380.6376797581603
 20
-52.25890736923343
 30
0.0
 11
380.6376797581603
 21
-133.812093130843
 31
0.0
  0
LINE
  5
21E4
330
1C29
100
AcDbEntity
  8
AM_5
100
AcDbLine
 10
540.6376797581603
 20
-46.00956722138181
 30
0.0
 11
540.6376797581603
 21
-133.812093130843
 31
0.0
  0
LINE
  5
21E5
330
1C29
100
AcDbEntity
  8
AM_5
100
AcDbLine
 10
387.8837828815478
 20
-130.913651881488
 30
0.0
 11
533.3915766347727
 21
-130.913651881488
 31
0.0
  0
SOLID
  5
21E6
330
1C29
100
AcDbEntity
  8
AM_5
100
AcDbTrace
 10
387.8837828815478
 20
-129.7059680275901
 30
0.0
 11
387.8837828815478
 21
-132.1213357353859
 31
0.0
 12
380.6376797581603
 22
-130.913651881488
 32
0.0
 13
380.6376797581603
 23
-130.913651881488
 33
0.0
  0
SOLID
  5
21E7
330
1C29
100
AcDbEntity
  8
AM_5
100
AcDbTrace
 10
533.3915766347727
 20
-129.7059680275901
 30
0.0
 11
533.3915766347727
 21
-132.1213357353859
 31
0.0
 12
540.6376797581603
 22
-130.913651881488
 32
0.0
 13
540.6376797581603
 23
-130.913651881488
 33
0.0
  0
MTEXT
  5
21E8
330
1C29
100
AcDbEntity
  8
AM_5
100
AcDbMText
 10
460.6376797581602
 20
-122.9429384457617
 30
0.0
 40
10.14454437274252
 41
0.0
 71
     5
 72
     1
  1
160+ST
 73
     1
 44
1.0
1001
ACAD
1000
MTEXTBEGIN
1070
    73
1070
     1
1070
    44
1040
1.0
1070
    74
1070
     0
1000
MTEXTEND
  0
POINT
  5
21E9
330
1C29
100
AcDbEntity
  8
Defpoints
 62
     0
100
AcDbPoint
 10
380.6376797581603
 20
-49.36046611987842
 30
0.0
  0
POINT
  5
21EA
330
1C29
100
AcDbEntity
  8
Defpoints
 62
     0
100
AcDbPoint
 10
540.6376797581603
 20
-43.11112597202679
 30
0.0
  0
POINT
  5
21EB
330
1C29
100
AcDbEntity
  8
Defpoints
 62
     0
100
AcDbPoint
 10
540.6376797581603
 20
-130.913651881488
 30
0.0
  0
ENDBLK
  5
1C34
330
1C29
100
AcDbEntity
  8
0
100
AcDbBlockEnd
  0
BLOCK
  5
1C49
330
1C3F
100
AcDbEntity
  8
0
100
AcDbBlockBegin
  2
*D15
 70
     1
 10
0.0
 20
0.0
 30
0.0
  3
*D15
  1

  0
LINE
  5
21EC
330
1C3F
100
AcDbEntity
  8
AM_5
100
AcDbLine
 10
380.6376797581603
 20
-52.25890736923343
 30
0.0
 11
380.6376797581603
 21
-87.43703314116288
 31
0.0
  0
LINE
  5
21ED
330
1C3F
100
AcDbEntity
  8
AM_5
100
AcDbLine
 10
405.6376797581601
 20
10.64426185109648
 30
0.0
 11
405.6376797581601
 21
-87.43703314116286
 31
0.0
  0
LINE
  5
21EE
330
1C3F
100
AcDbEntity
  8
AM_5
100
AcDbLine
 10
387.8837828815478
 20
-84.53859189180787
 30
0.0
 11
398.3915766347727
 21
-84.53859189180787
 31
0.0
  0
SOLID
  5
21EF
330
1C3F
100
AcDbEntity
  8
AM_5
100
AcDbTrace
 10
387.8837828815478
 20
-83.33090803790994
 30
0.0
 11
387.8837828815478
 21
-85.74627574570579
 31
0.0
 12
380.6376797581603
 22
-84.53859189180787
 32
0.0
 13
380.6376797581603
 23
-84.53859189180787
 33
0.0
  0
SOLID
  5
21F0
330
1C3F
100
AcDbEntity
  8
AM_5
100
AcDbTrace
 10
398.3915766347727
 20
-83.33090803790994
 30
0.0
 11
398.3915766347727
 21
-85.74627574570579
 31
0.0
 12
405.6376797581601
 22
-84.53859189180787
 32
0.0
 13
405.6376797581601
 23
-84.53859189180787
 33
0.0
  0
MTEXT
  5
21F1
330
1C3F
100
AcDbEntity
  8
AM_5
100
AcDbMText
 10
393.1376797581602
 20
-76.56687997730475
 30
0.0
 40
10.14454437274252
 41
0.0
 71
     5
 72
     1
  1
25
 73
     1
 44
1.0
1001
ACAD
1000
MTEXTBEGIN
1070
    73
1070
     1
1070
    44
1040
1.0
1070
    74
1070
     0
1000
MTEXTEND
  0
POINT
  5
21F2
330
1C3F
100
AcDbEntity
  8
Defpoints
 62
     0
100
AcDbPoint
 10
380.6376797581603
 20
-49.36046611987842
 30
0.0
  0
POINT
  5
21F3
330
1C3F
100
AcDbEntity
  8
Defpoints
 62
     0
100
AcDbPoint
 10
405.6376797581601
 20
13.54270310045149
 30
0.0
  0
POINT
  5
21F4
330
1C3F
100
AcDbEntity
  8
Defpoints
 62
     0
100
AcDbPoint
 10
405.6376797581601
 20
-84.53859189180787
 30
0.0
  0
ENDBLK
  5
1C4A
330
1C3F
100
AcDbEntity
  8
0
100
AcDbBlockEnd
  0
BLOCK
  5
1C71
330
1C67
100
AcDbEntity
  8
0
100
AcDbBlockBegin
  2
*D16
 70
     1
 10
0.0
 20
0.0
 30
0.0
  3
*D16
  1

  0
LINE
  5
21F5
330
1C67
100
AcDbEntity
  8
AM_5
100
AcDbLine
 10
380.6376797581603
 20
-52.25890736923343
 30
0.0
 11
380.6376797581603
 21
-110.6245631360029
 31
0.0
  0
LINE
  5
21F6
330
1C67
100
AcDbEntity
  8
AM_5
100
AcDbLine
 10
420.6376797581603
 20
-53.65573814890336
 30
0.0
 11
420.6376797581603
 21
-110.6245631360029
 31
0.0
  0
LINE
  5
21F7
330
1C67
100
AcDbEntity
  8
AM_5
100
AcDbLine
 10
387.8837828815478
 20
-107.7261218866479
 30
0.0
 11
413.3915766347727
 21
-107.7261218866479
 31
0.0
  0
SOLID
  5
21F8
330
1C67
100
AcDbEntity
  8
AM_5
100
AcDbTrace
 10
387.8837828815478
 20
-106.5184380327499
 30
0.0
 11
387.8837828815478
 21
-108.9338057405458
 31
0.0
 12
380.6376797581603
 22
-107.7261218866479
 32
0.0
 13
380.6376797581603
 23
-107.7261218866479
 33
0.0
  0
SOLID
  5
21F9
330
1C67
100
AcDbEntity
  8
AM_5
100
AcDbTrace
 10
413.3915766347727
 20
-106.5184380327499
 30
0.0
 11
413.3915766347727
 21
-108.9338057405458
 31
0.0
 12
420.6376797581603
 22
-107.7261218866479
 32
0.0
 13
420.6376797581603
 23
-107.7261218866479
 33
0.0
  0
MTEXT
  5
21FA
330
1C67
100
AcDbEntity
  8
AM_5
100
AcDbMText
 10
400.6376797581602
 20
-99.75540845092162
 30
0.0
 40
10.14454437274252
 41
0.0
 71
     5
 72
     1
  1
40
 73
     1
 44
1.0
1001
ACAD
1000
MTEXTBEGIN
1070
    73
1070
     1
1070
    44
1040
1.0
1070
    74
1070
     0
1000
MTEXTEND
  0
POINT
  5
21FB
330
1C67
100
AcDbEntity
  8
Defpoints
 62
     0
100
AcDbPoint
 10
380.6376797581603
 20
-49.36046611987842
 30
0.0
  0
POINT
  5
21FC
330
1C67
100
AcDbEntity
  8
Defpoints
 62
     0
100
AcDbPoint
 10
420.6376797581603
 20
-50.75729689954835
 30
0.0
  0
POINT
  5
21FD
330
1C67
100
AcDbEntity
  8
Defpoints
 62
     0
100
AcDbPoint
 10
420.6376797581603
 20
-107.7261218866479
 30
0.0
  0
ENDBLK
  5
1C72
330
1C67
100
AcDbEntity
  8
0
100
AcDbBlockEnd
  0
BLOCK
  5
1C90
330
1C86
100
AcDbEntity
  8
0
100
AcDbBlockBegin
  2
*D17
 70
     1
 10
0.0
 20
0.0
 30
0.0
  3
*D17
  1

  0
LINE
  5
21FE
330
1C86
100
AcDbEntity
  8
AM_5
100
AcDbLine
 10
420.6376797581603
 20
-53.65573814890336
 30
0.0
 11
420.6376797581603
 21
-110.6245631360028
 31
0.0
  0
LINE
  5
21FF
330
1C86
100
AcDbEntity
  8
AM_5
100
AcDbLine
 10
500.6376797581602
 20
-53.65573814890347
 30
0.0
 11
500.6376797581602
 21
-110.6245631360028
 31
0.0
  0
LINE
  5
2200
330
1C86
100
AcDbEntity
  8
AM_5
100
AcDbLine
 10
427.8837828815477
 20
-107.7261218866478
 30
0.0
 11
493.3915766347728
 21
-107.7261218866478
 31
0.0
  0
SOLID
  5
2201
330
1C86
100
AcDbEntity
  8
AM_5
100
AcDbTrace
 10
427.8837828815477
 20
-106.5184380327498
 30
0.0
 11
427.8837828815477
 21
-108.9338057405457
 31
0.0
 12
420.6376797581603
 22
-107.7261218866478
 32
0.0
 13
420.6376797581603
 23
-107.7261218866478
 33
0.0
  0
SOLID
  5
2202
330
1C86
100
AcDbEntity
  8
AM_5
100
AcDbTrace
 10
493.3915766347728
 20
-106.5184380327498
 30
0.0
 11
493.3915766347728
 21
-108.9338057405457
 31
0.0
 12
500.6376797581602
 22
-107.7261218866478
 32
0.0
 13
500.6376797581602
 23
-107.7261218866478
 33
0.0
  0
MTEXT
  5
2203
330
1C86
100
AcDbEntity
  8
AM_5
100
AcDbMText
 10
460.6376797581602
 20
-99.75540845092151
 30
0.0
 40
10.14454437274252
 41
0.0
 71
     5
 72
     1
  1
80+ST
 73
     1
 44
1.0
1001
ACAD
1000
MTEXTBEGIN
1070
    73
1070
     1
1070
    44
1040
1.0
1070
    74
1070
     0
1000
MTEXTEND
  0
POINT
  5
2204
330
1C86
100
AcDbEntity
  8
Defpoints
 62
     0
100
AcDbPoint
 10
420.6376797581603
 20
-50.75729689954835
 30
0.0
  0
POINT
  5
2205
330
1C86
100
AcDbEntity
  8
Defpoints
 62
     0
100
AcDbPoint
 10
500.6376797581602
 20
-50.75729689954846
 30
0.0
  0
POINT
  5
2206
330
1C86
100
AcDbEntity
  8
Defpoints
 62
     0
100
AcDbPoint
 10
500.6376797581602
 20
-107.7261218866478
 30
0.0
  0
ENDBLK
  5
1C91
330
1C86
100
AcDbEntity
  8
0
100
AcDbBlockEnd
  0
BLOCK
  5
1CA6
330
1C9C
100
AcDbEntity
  8
0
100
AcDbBlockBegin
  2
*D18
 70
     1
 10
0.0
 20
0.0
 30
0.0
  3
*D18
  1

  0
LINE
  5
2207
330
1C9C
100
AcDbEntity
  8
AM_5
100
AcDbLine
 10
721.6376797581603
 20
2.844261851095732
 30
0.0
 11
721.6376797581603
 21
-156.9996231256831
 31
0.0
  0
LINE
  5
2208
330
1C9C
100
AcDbEntity
  8
AM_5
100
AcDbLine
 10
775.6376797581602
 20
4.344261851095732
 30
0.0
 11
775.6376797581602
 21
-156.9996231256831
 31
0.0
  0
LINE
  5
2209
330
1C9C
100
AcDbEntity
  8
AM_5
100
AcDbLine
 10
728.883782881548
 20
-154.1011818763281
 30
0.0
 11
768.3915766347727
 21
-154.1011818763281
 31
0.0
  0
SOLID
  5
220A
330
1C9C
100
AcDbEntity
  8
AM_5
100
AcDbTrace
 10
728.883782881548
 20
-152.8934980224302
 30
0.0
 11
728.883782881548
 21
-155.308865730226
 31
0.0
 12
721.6376797581603
 22
-154.1011818763281
 32
0.0
 13
721.6376797581603
 23
-154.1011818763281
 33
0.0
  0
SOLID
  5
220B
330
1C9C
100
AcDbEntity
  8
AM_5
100
AcDbTrace
 10
768.3915766347727
 20
-152.8934980224302
 30
0.0
 11
768.3915766347727
 21
-155.308865730226
 31
0.0
 12
775.6376797581602
 22
-154.1011818763281
 32
0.0
 13
775.6376797581602
 23
-154.1011818763281
 33
0.0
  0
MTEXT
  5
220C
330
1C9C
100
AcDbEntity
  8
AM_5
100
AcDbMText
 10
748.6376797581604
 20
-146.1304684406018
 30
0.0
 40
10.14454437274252
 41
0.0
 71
     5
 72
     1
  1
54
 73
     1
 44
1.0
1001
ACAD
1000
MTEXTBEGIN
1070
    73
1070
     1
1070
    44
1040
1.0
1070
    74
1070
     0
1000
MTEXTEND
  0
POINT
  5
220D
330
1C9C
100
AcDbEntity
  8
Defpoints
 62
     0
100
AcDbPoint
 10
721.6376797581603
 20
5.742703100450739
 30
0.0
  0
POINT
  5
220E
330
1C9C
100
AcDbEntity
  8
Defpoints
 62
     0
100
AcDbPoint
 10
775.6376797581602
 20
7.242703100450739
 30
0.0
  0
POINT
  5
220F
330
1C9C
100
AcDbEntity
  8
Defpoints
 62
     0
100
AcDbPoint
 10
775.6376797581602
 20
-154.1011818763281
 30
0.0
  0
ENDBLK
  5
1CA7
330
1C9C
100
AcDbEntity
  8
0
100
AcDbBlockEnd
  0
BLOCK
  5
1F03
330
1EF9
100
AcDbEntity
  8
0
100
AcDbBlockBegin
  2
*D19
 70
     1
 10
0.0
 20
0.0
 30
0.0
  3
*D19
  1

  0
LINE
  5
2210
330
1EF9
100
AcDbEntity
  8
AM_5
100
AcDbLine
 10
500.6376797581602
 20
-53.65573814890347
 30
0.0
 11
500.6376797581602
 21
-110.6245631360028
 31
0.0
  0
LINE
  5
2211
330
1EF9
100
AcDbEntity
  8
AM_5
100
AcDbLine
 10
540.6376797581604
 20
-52.65573814890279
 30
0.0
 11
540.6376797581604
 21
-110.6245631360028
 31
0.0
  0
LINE
  5
2212
330
1EF9
100
AcDbEntity
  8
AM_5
100
AcDbLine
 10
507.8837828815478
 20
-107.7261218866478
 30
0.0
 11
533.3915766347728
 21
-107.7261218866478
 31
0.0
  0
SOLID
  5
2213
330
1EF9
100
AcDbEntity
  8
AM_5
100
AcDbTrace
 10
507.8837828815478
 20
-106.5184380327498
 30
0.0
 11
507.8837828815478
 21
-108.9338057405457
 31
0.0
 12
500.6376797581602
 22
-107.7261218866478
 32
0.0
 13
500.6376797581602
 23
-107.7261218866478
 33
0.0
  0
SOLID
  5
2214
330
1EF9
100
AcDbEntity
  8
AM_5
100
AcDbTrace
 10
533.3915766347728
 20
-106.5184380327498
 30
0.0
 11
533.3915766347728
 21
-108.9338057405457
 31
0.0
 12
540.6376797581604
 22
-107.7261218866478
 32
0.0
 13
540.6376797581604
 23
-107.7261218866478
 33
0.0
  0
MTEXT
  5
2215
330
1EF9
100
AcDbEntity
  8
AM_5
100
AcDbMText
 10
520.6376797581603
 20
-99.75540845092151
 30
0.0
 40
10.14454437274252
 41
0.0
 71
     5
 72
     1
  1
40
 73
     1
 44
1.0
1001
ACAD
1000
MTEXTBEGIN
1070
    73
1070
     1
1070
    44
1040
1.0
1070
    74
1070
     0
1000
MTEXTEND
  0
POINT
  5
2216
330
1EF9
100
AcDbEntity
  8
Defpoints
 62
     0
100
AcDbPoint
 10
500.6376797581602
 20
-50.75729689954846
 30
0.0
  0
POINT
  5
2217
330
1EF9
100
AcDbEntity
  8
Defpoints
 62
     0
100
AcDbPoint
 10
540.6376797581604
 20
-49.75729689954778
 30
0.0
  0
POINT
  5
2218
330
1EF9
100
AcDbEntity
  8
Defpoints
 62
     0
100
AcDbPoint
 10
540.6376797581604
 20
-107.7261218866478
 30
0.0
  0
ENDBLK
  5
1F04
330
1EF9
100
AcDbEntity
  8
0
100
AcDbBlockEnd
  0
BLOCK
  5
1F19
330
1F0F
100
AcDbEntity
  8
0
100
AcDbBlockBegin
  2
*D20
 70
     1
 10
0.0
 20
0.0
 30
0.0
  3
*D20
  1

  0
LINE
  5
2219
330
1F0F
100
AcDbEntity
  8
AM_5
100
AcDbLine
 10
540.6376797581603
 20
-52.65573814890279
 30
0.0
 11
540.6376797581603
 21
-87.43703314116288
 31
0.0
  0
LINE
  5
221A
330
1F0F
100
AcDbEntity
  8
AM_5
100
AcDbLine
 10
515.6376797581603
 20
10.64426185109659
 30
0.0
 11
515.6376797581603
 21
-87.43703314116286
 31
0.0
  0
LINE
  5
221B
330
1F0F
100
AcDbEntity
  8
AM_5
100
AcDbLine
 10
533.3915766347727
 20
-84.53859189180787
 30
0.0
 11
522.8837828815478
 21
-84.53859189180787
 31
0.0
  0
SOLID
  5
221C
330
1F0F
100
AcDbEntity
  8
AM_5
100
AcDbTrace
 10
533.3915766347727
 20
-83.33090803790994
 30
0.0
 11
533.3915766347727
 21
-85.74627574570579
 31
0.0
 12
540.6376797581603
 22
-84.53859189180787
 32
0.0
 13
540.6376797581603
 23
-84.53859189180787
 33
0.0
  0
SOLID
  5
221D
330
1F0F
100
AcDbEntity
  8
AM_5
100
AcDbTrace
 10
522.8837828815478
 20
-83.33090803790994
 30
0.0
 11
522.8837828815478
 21
-85.74627574570579
 31
0.0
 12
515.6376797581603
 22
-84.53859189180787
 32
0.0
 13
515.6376797581603
 23
-84.53859189180787
 33
0.0
  0
MTEXT
  5
221E
330
1F0F
100
AcDbEntity
  8
AM_5
100
AcDbMText
 10
528.1376797581603
 20
-76.56687997730475
 30
0.0
 40
10.14454437274252
 41
0.0
 71
     5
 72
     1
  1
25
 73
     1
 44
1.0
1001
ACAD
1000
MTEXTBEGIN
1070
    73
1070
     1
1070
    44
1040
1.0
1070
    74
1070
     0
1000
MTEXTEND
  0
POINT
  5
221F
330
1F0F
100
AcDbEntity
  8
Defpoints
 62
     0
100
AcDbPoint
 10
540.6376797581603
 20
-49.75729689954778
 30
0.0
  0
POINT
  5
2220
330
1F0F
100
AcDbEntity
  8
Defpoints
 62
     0
100
AcDbPoint
 10
515.6376797581603
 20
13.5427031004516
 30
0.0
  0
POINT
  5
2221
330
1F0F
100
AcDbEntity
  8
Defpoints
 62
     0
100
AcDbPoint
 10
515.6376797581603
 20
-84.53859189180787
 30
0.0
  0
ENDBLK
  5
1F1A
330
1F0F
100
AcDbEntity
  8
0
100
AcDbBlockEnd
  0
BLOCK
  5
1F67
330
1F5B
100
AcDbEntity
  8
0
100
AcDbBlockBegin
  2
*D21
 70
     1
 10
0.0
 20
0.0
 30
0.0
  3
*D21
  1

  0
LINE
  5
2222
330
1F5B
100
AcDbEntity
  8
AM_5
100
AcDbLine
 10
680.6376797581602
 20
-52.65573814890279
 30
0.0
 11
680.6376797581602
 21
-87.43703314116288
 31
0.0
  0
LINE
  5
2223
330
1F5B
100
AcDbEntity
  8
AM_5
100
AcDbLine
 10
696.6376797581602
 20
-13.65573814890336
 30
0.0
 11
696.6376797581602
 21
-87.43703314116286
 31
0.0
  0
LINE
  5
2224
330
1F5B
100
AcDbEntity
  8
AM_5
100
AcDbLine
 10
673.3915766347727
 20
-84.53859189180787
 30
0.0
 11
666.1454735113852
 21
-84.53859189180787
 31
0.0
  0
LINE
  5
2225
330
1F5B
100
AcDbEntity
  8
AM_5
100
AcDbLine
 10
703.8837828815478
 20
-84.53859189180787
 30
0.0
 11
711.1298860049353
 21
-84.53859189180787
 31
0.0
  0
LINE
  5
2226
330
1F5B
100
AcDbEntity
  8
AM_5
100
AcDbLine
 10
680.6376797581602
 20
-84.53859189180787
 30
0.0
 11
696.6376797581602
 21
-84.53859189180787
 31
0.0
  0
SOLID
  5
2227
330
1F5B
100
AcDbEntity
  8
AM_5
100
AcDbTrace
 10
673.3915766347727
 20
-83.33090803790994
 30
0.0
 11
673.3915766347727
 21
-85.74627574570579
 31
0.0
 12
680.6376797581602
 22
-84.53859189180787
 32
0.0
 13
680.6376797581602
 23
-84.53859189180787
 33
0.0
  0
SOLID
  5
2228
330
1F5B
100
AcDbEntity
  8
AM_5
100
AcDbTrace
 10
703.8837828815478
 20
-83.33090803790994
 30
0.0
 11
703.8837828815478
 21
-85.74627574570579
 31
0.0
 12
696.6376797581602
 22
-84.53859189180787
 32
0.0
 13
696.6376797581602
 23
-84.53859189180787
 33
0.0
  0
MTEXT
  5
2229
330
1F5B
100
AcDbEntity
  8
AM_5
100
AcDbMText
 10
688.6376797581602
 20
-76.5678784560816
 30
0.0
 40
10.14454437274252
 41
0.0
 71
     5
 72
     1
  1
16
 73
     1
 44
1.0
1001
ACAD
1000
MTEXTBEGIN
1070
    73
1070
     1
1070
    44
1040
1.0
1070
    74
1070
     0
1000
MTEXTEND
  0
POINT
  5
222A
330
1F5B
100
AcDbEntity
  8
Defpoints
 62
     0
100
AcDbPoint
 10
680.6376797581602
 20
-49.75729689954778
 30
0.0
  0
POINT
  5
222B
330
1F5B
100
AcDbEntity
  8
Defpoints
 62
     0
100
AcDbPoint
 10
696.6376797581602
 20
-10.75729689954835
 30
0.0
  0
POINT
  5
222C
330
1F5B
100
AcDbEntity
  8
Defpoints
 62
     0
100
AcDbPoint
 10
696.6376797581602
 20
-84.53859189180787
 30
0.0
  0
ENDBLK
  5
1F68
330
1F5B
100
AcDbEntity
  8
0
100
AcDbBlockEnd
  0
BLOCK
  5
1F94
330
1F8D
100
AcDbEntity
  8
0
100
AcDbBlockBegin
  2
*D22
 70
     1
 10
0.0
 20
0.0
 30
0.0
  3
*D22
  1

  0
LINE
  5
222D
330
1F8D
100
AcDbEntity
  8
AM_5
100
AcDbLine
 10
943.8427803529016
 20
84.2038854290144
 30
0.0
 11
925.3862716822597
 21
109.2645434849594
 31
0.0
  0
LINE
  5
222E
330
1F8D
100
AcDbEntity
  8
AM_5
100
AcDbLine
 10
925.3862716822597
 20
109.2645434849594
 30
0.0
 11
860.6061097591755
 21
109.2645434849594
 31
0.0
  0
SOLID
  5
222F
330
1F8D
100
AcDbEntity
  8
AM_5
100
AcDbTrace
 10
944.815204472558
 20
84.92004995094806
 30
0.0
 11
942.8703562332453
 21
83.48772090708081
 31
0.0
 12
948.1397674845032
 22
78.36934071107663
 32
0.0
 13
948.1397674845032
 23
78.36934071107663
 33
0.0
  0
MTEXT
  5
2230
330
1F8D
100
AcDbEntity
  8
AM_5
100
AcDbMText
 10
891.5469700960402
 20
117.2362553994627
 30
0.0
 40
10.14454437274252
 41
0.0
 71
     5
 72
     1
  1
4-M12*20L
 73
     1
 44
1.0
1001
ACAD
1000
MTEXTBEGIN
1070
    73
1070
     1
1070
    44
1040
1.0
1070
    74
1070
     0
1000
MTEXTEND
  0
POINT
  5
2231
330
1F8D
100
AcDbEntity
  8
Defpoints
 62
     0
100
AcDbPoint
 10
948.1397674845032
 20
78.36934071107663
 30
0.0
  0
POINT
  5
2232
330
1F8D
100
AcDbEntity
  8
Defpoints
 62
     0
100
AcDbPoint
 10
951.178926419239
 20
74.24270310045233
 30
0.0
  0
ENDBLK
  5
1F95
330
1F8D
100
AcDbEntity
  8
0
100
AcDbBlockEnd
  0
BLOCK
  5
1FEF
330
1FE5
100
AcDbEntity
  8
0
100
AcDbBlockBegin
  2
*D23
 70
     1
 10
0.0
 20
0.0
 30
0.0
  3
*D23
  1

  0
LINE
  5
2233
330
1FE5
100
AcDbEntity
  8
AM_5
100
AcDbLine
 10
841.1789264192391
 20
-46.87623814890257
 30
0.0
 11
841.1789264192391
 21
-81.65753314116267
 31
0.0
  0
LINE
  5
2234
330
1FE5
100
AcDbEntity
  8
AM_5
100
AcDbLine
 10
951.1789264192389
 20
-46.87623814890257
 30
0.0
 11
951.1789264192389
 21
-81.65753314116267
 31
0.0
  0
LINE
  5
2235
330
1FE5
100
AcDbEntity
  8
AM_5
100
AcDbLine
 10
848.4250295426267
 20
-78.75909189180766
 30
0.0
 11
943.9328232958514
 21
-78.75909189180766
 31
0.0
  0
SOLID
  5
2236
330
1FE5
100
AcDbEntity
  8
AM_5
100
AcDbTrace
 10
848.4250295426267
 20
-77.55140803790974
 30
0.0
 11
848.4250295426267
 21
-79.96677574570558
 31
0.0
 12
841.1789264192391
 22
-78.75909189180766
 32
0.0
 13
841.1789264192391
 23
-78.75909189180766
 33
0.0
  0
SOLID
  5
2237
330
1FE5
100
AcDbEntity
  8
AM_5
100
AcDbTrace
 10
943.9328232958514
 20
-77.55140803790974
 30
0.0
 11
943.9328232958514
 21
-79.96677574570558
 31
0.0
 12
951.1789264192389
 22
-78.75909189180766
 32
0.0
 13
951.1789264192389
 23
-78.75909189180766
 33
0.0
  0
MTEXT
  5
2238
330
1FE5
100
AcDbEntity
  8
AM_5
100
AcDbMText
 10
896.178926419239
 20
-70.78837845608139
 30
0.0
 40
10.14454437274252
 41
0.0
 71
     5
 72
     1
  1
{\Famgdt|c136;o}110
 73
     1
 44
1.0
1001
ACAD
1000
MTEXTBEGIN
1070
    73
1070
     1
1070
    44
1040
1.0
1070
    74
1070
     0
1000
MTEXTEND
  0
POINT
  5
2239
330
1FE5
100
AcDbEntity
  8
Defpoints
 62
     0
100
AcDbPoint
 10
841.1789264192391
 20
-43.97779689954757
 30
0.0
  0
POINT
  5
223A
330
1FE5
100
AcDbEntity
  8
Defpoints
 62
     0
100
AcDbPoint
 10
951.1789264192389
 20
-43.97779689954757
 30
0.0
  0
POINT
  5
223B
330
1FE5
100
AcDbEntity
  8
Defpoints
 62
     0
100
AcDbPoint
 10
951.1789264192389
 20
-78.75909189180766
 30
0.0
  0
ENDBLK
  5
1FF0
330
1FE5
100
AcDbEntity
  8
0
100
AcDbBlockEnd
  0
BLOCK
  5
2005
330
1FFB
100
AcDbEntity
  8
0
100
AcDbBlockBegin
  2
*D24
 70
     1
 10
0.0
 20
0.0
 30
0.0
  3
*D24
  1

  0
LINE
  5
223C
330
1FFB
100
AcDbEntity
  8
AM_5
100
AcDbLine
 10
826.1789264192387
 20
-41.66304822467423
 30
0.0
 11
826.1789264192387
 21
-104.8450631360035
 31
0.0
  0
LINE
  5
223D
330
1FFB
100
AcDbEntity
  8
AM_5
100
AcDbLine
 10
966.1789264192387
 20
-41.66304822467423
 30
0.0
 11
966.1789264192387
 21
-104.8450631360035
 31
0.0
  0
LINE
  5
223E
330
1FFB
100
AcDbEntity
  8
AM_5
100
AcDbLine
 10
833.4250295426262
 20
-101.9466218866484
 30
0.0
 11
958.9328232958511
 21
-101.9466218866484
 31
0.0
  0
SOLID
  5
223F
330
1FFB
100
AcDbEntity
  8
AM_5
100
AcDbTrace
 10
833.4250295426262
 20
-100.7389380327505
 30
0.0
 11
833.4250295426262
 21
-103.1543057405464
 31
0.0
 12
826.1789264192387
 22
-101.9466218866484
 32
0.0
 13
826.1789264192387
 23
-101.9466218866484
 33
0.0
  0
SOLID
  5
2240
330
1FFB
100
AcDbEntity
  8
AM_5
100
AcDbTrace
 10
958.9328232958511
 20
-100.7389380327505
 30
0.0
 11
958.9328232958511
 21
-103.1543057405464
 31
0.0
 12
966.1789264192387
 22
-101.9466218866484
 32
0.0
 13
966.1789264192387
 23
-101.9466218866484
 33
0.0
  0
MTEXT
  5
2241
330
1FFB
100
AcDbEntity
  8
AM_5
100
AcDbMText
 10
896.1789264192386
 20
-93.97590845092221
 30
0.0
 40
10.14454437274252
 41
0.0
 71
     5
 72
     1
  1
{\Famgdt|c136;o}140
 73
     1
 44
1.0
1001
ACAD
1000
MTEXTBEGIN
1070
    73
1070
     1
1070
    44
1040
1.0
1070
    74
1070
     0
1000
MTEXTEND
  0
POINT
  5
2242
330
1FFB
100
AcDbEntity
  8
Defpoints
 62
     0
100
AcDbPoint
 10
826.1789264192387
 20
-38.76460697531923
 30
0.0
  0
POINT
  5
2243
330
1FFB
100
AcDbEntity
  8
Defpoints
 62
     0
100
AcDbPoint
 10
966.1789264192387
 20
-38.76460697531923
 30
0.0
  0
POINT
  5
2244
330
1FFB
100
AcDbEntity
  8
Defpoints
 62
     0
100
AcDbPoint
 10
966.1789264192387
 20
-101.9466218866484
 30
0.0
  0
ENDBLK
  5
2006
330
1FFB
100
AcDbEntity
  8
0
100
AcDbBlockEnd
  0
BLOCK
  5
2029
330
2023
100
AcDbEntity
  8
0
100
AcDbBlockBegin
  2
*D25
 70
     1
 10
0.0
 20
0.0
 30
0.0
  3
*D25
  1

  0
LINE
  5
2245
330
2023
100
AcDbEntity
  8
AM_5
100
AcDbLine
 10
600.6340153314466
 20
-39.72976099107251
 30
0.0
 11
611.6795754420883
 21
-70.72172525029706
 31
0.0
  0
LINE
  5
2246
330
2023
100
AcDbEntity
  8
AM_5
100
AcDbLine
 10
611.6795754420883
 20
-70.72172525029706
 30
0.0
 11
640.4646286062103
 21
-70.72172525029711
 31
0.0
  0
SOLID
  5
2247
330
2023
100
AcDbEntity
  8
AM_5
100
AcDbTrace
 10
601.7716089756853
 20
-39.32432173353391
 30
0.0
 11
599.4964216872079
 21
-40.13520024861111
 31
0.0
 12
598.2013797862151
 22
-32.9041991256403
 32
0.0
 13
598.2013797862151
 23
-32.9041991256403
 33
0.0
  0
MTEXT
  5
2248
330
2023
100
AcDbEntity
  8
AM_5
100
AcDbMText
 10
627.5213226488274
 20
-62.7329880502971
 30
0.0
 40
10.14454437274252
 41
0.0
 71
     5
 72
     1
  1
G1/4
 73
     1
 44
1.0
1001
ACAD
1000
MTEXTBEGIN
1070
    73
1070
     1
1070
    44
1040
1.0
1070
    74
1070
     0
1000
MTEXTEND
  0
POINT
  5
2249
330
2023
100
AcDbEntity
  8
Defpoints
 62
     0
100
AcDbPoint
 10
598.2013797862151
 20
-32.9041991256403
 30
0.0
  0
POINT
  5
224A
330
2023
100
AcDbEntity
  8
Defpoints
 62
     0
100
AcDbPoint
 10
596.1367240190502
 20
-27.1111259720272
 30
0.0
  0
ENDBLK
  5
202A
330
2023
100
AcDbEntity
  8
0
100
AcDbBlockEnd
  0
BLOCK
  5
204B
330
2041
100
AcDbEntity
  8
0
100
AcDbBlockBegin
  2
*D26
 70
     1
 10
0.0
 20
0.0
 30
0.0
  3
*D26
  1

  0
LINE
  5
224B
330
2041
100
AcDbEntity
  8
AM_5
100
AcDbLine
 10
709.5361210075152
 20
35.24270310045074
 30
0.0
 11
798.1618231665374
 21
35.24270310045071
 31
0.0
  0
LINE
  5
224C
330
2041
100
AcDbEntity
  8
AM_5
100
AcDbLine
 10
709.5361210075152
 20
3.242703100450738
 30
0.0
 11
798.1618231665374
 21
3.242703100450713
 31
0.0
  0
LINE
  5
224D
330
2041
100
AcDbEntity
  8
AM_5
100
AcDbLine
 10
795.2633819171824
 20
27.99659997706319
 30
0.0
 11
795.2633819171824
 21
10.48880622383823
 31
0.0
  0
SOLID
  5
224E
330
2041
100
AcDbEntity
  8
AM_5
100
AcDbTrace
 10
794.0556980632845
 20
27.99659997706319
 30
0.0
 11
796.4710657710804
 21
27.99659997706319
 31
0.0
 12
795.2633819171824
 22
35.24270310045071
 32
0.0
 13
795.2633819171824
 23
35.24270310045071
 33
0.0
  0
SOLID
  5
224F
330
2041
100
AcDbEntity
  8
AM_5
100
AcDbTrace
 10
794.0556980632845
 20
10.48880622383823
 30
0.0
 11
796.4710657710804
 21
10.48880622383823
 31
0.0
 12
795.2633819171824
 22
3.242703100450714
 32
0.0
 13
795.2633819171824
 23
3.242703100450714
 33
0.0
  0
MTEXT
  5
2250
330
2041
100
AcDbEntity
  8
AM_5
100
AcDbMText
 10
787.2916700026793
 20
19.24270310045084
 30
0.0
 40
10.14454437274252
 41
0.0
 71
     5
 72
     1
  1
%%c32
 11
0.0000000000000001
 21
1.0
 31
0.0
 73
     1
 44
1.0
1001
ACAD
1000
MTEXTBEGIN
1070
    73
1070
     1
1070
    44
1040
1.0
1070
    74
1070
     0
1000
MTEXTEND
  0
POINT
  5
2251
330
2041
100
AcDbEntity
  8
Defpoints
 62
     0
100
AcDbPoint
 10
706.6376797581603
 20
35.24270310045074
 30
0.0
  0
POINT
  5
2252
330
2041
100
AcDbEntity
  8
Defpoints
 62
     0
100
AcDbPoint
 10
706.6376797581603
 20
3.242703100450739
 30
0.0
  0
POINT
  5
2253
330
2041
100
AcDbEntity
  8
Defpoints
 62
     0
100
AcDbPoint
 10
795.2633819171824
 20
3.242703100450714
 30
0.0
  0
ENDBLK
  5
204C
330
2041
100
AcDbEntity
  8
0
100
AcDbBlockEnd
  0
BLOCK
  5
206A
330
2060
100
AcDbEntity
  8
0
100
AcDbBlockBegin
  2
*D27
 70
     1
 10
0.0
 20
0.0
 30
0.0
  3
*D27
  1

  0
LINE
  5
2254
330
2060
100
AcDbEntity
  8
AM_5
100
AcDbLine
 10
699.5361210075152
 20
-10.75729689954835
 30
0.0
 11
821.349353161378
 21
-10.75729689954838
 31
0.0
  0
LINE
  5
2255
330
2060
100
AcDbEntity
  8
AM_5
100
AcDbLine
 10
699.5361210075152
 20
49.24270310045165
 30
0.0
 11
821.349353161378
 21
49.24270310045161
 31
0.0
  0
LINE
  5
2256
330
2060
100
AcDbEntity
  8
AM_5
100
AcDbLine
 10
818.450911912023
 20
-3.511193776160865
 30
0.0
 11
818.450911912023
 21
41.99659997706409
 31
0.0
  0
SOLID
  5
2257
330
2060
100
AcDbEntity
  8
AM_5
100
AcDbTrace
 10
817.2432280581251
 20
-3.511193776160865
 30
0.0
 11
819.6585957659209
 21
-3.511193776160865
 31
0.0
 12
818.450911912023
 22
-10.75729689954838
 32
0.0
 13
818.450911912023
 23
-10.75729689954838
 33
0.0
  0
SOLID
  5
2258
330
2060
100
AcDbEntity
  8
AM_5
100
AcDbTrace
 10
817.2432280581251
 20
41.99659997706409
 30
0.0
 11
819.6585957659209
 21
41.99659997706409
 31
0.0
 12
818.450911912023
 22
49.24270310045161
 32
0.0
 13
818.450911912023
 23
49.24270310045161
 33
0.0
  0
MTEXT
  5
2259
330
2060
100
AcDbEntity
  8
AM_5
100
AcDbMText
 10
810.4801984762968
 20
19.24270310045175
 30
0.0
 40
10.14454437274252
 41
0.0
 71
     5
 72
     1
  1
%%c60
 11
0.0000000000000001
 21
1.0
 31
0.0
 73
     1
 44
1.0
1001
ACAD
1000
MTEXTBEGIN
1070
    73
1070
     1
1070
    44
1040
1.0
1070
    74
1070
     0
1000
MTEXTEND
  0
POINT
  5
225A
330
2060
100
AcDbEntity
  8
Defpoints
 62
     0
100
AcDbPoint
 10
696.6376797581602
 20
-10.75729689954835
 30
0.0
  0
POINT
  5
225B
330
2060
100
AcDbEntity
  8
Defpoints
 62
     0
100
AcDbPoint
 10
696.6376797581602
 20
49.24270310045165
 30
0.0
  0
POINT
  5
225C
330
2060
100
AcDbEntity
  8
Defpoints
 62
     0
100
AcDbPoint
 10
818.450911912023
 20
49.24270310045161
 30
0.0
  0
ENDBLK
  5
206B
330
2060
100
AcDbEntity
  8
0
100
AcDbBlockEnd
  0
BLOCK
  5
208B
330
207F
100
AcDbEntity
  8
0
100
AcDbBlockBegin
  2
*D28
 70
     1
 10
0.0
 20
0.0
 30
0.0
  3
*D28
  1

  0
LINE
  5
225D
330
207F
100
AcDbEntity
  8
AM_5
100
AcDbLine
 10
370.7392385088052
 20
19.24270310045165
 30
0.0
 11
365.8674779867366
 21
19.24270310045165
 31
0.0
  0
LINE
  5
225E
330
207F
100
AcDbEntity
  8
AM_5
100
AcDbLine
 10
386.0392385088052
 20
30.24270310045165
 30
0.0
 11
365.8674779867366
 21
30.24270310045165
 31
0.0
  0
LINE
  5
225F
330
207F
100
AcDbEntity
  8
AM_5
100
AcDbLine
 10
368.7659192360916
 20
11.99659997706413
 30
0.0
 11
368.7659192360916
 21
4.75049685367661
 31
0.0
  0
LINE
  5
2260
330
207F
100
AcDbEntity
  8
AM_5
100
AcDbLine
 10
368.7659192360916
 20
37.48880622383917
 30
0.0
 11
368.7659192360916
 21
44.73490934722669
 31
0.0
  0
LINE
  5
2261
330
207F
100
AcDbEntity
  8
AM_5
100
AcDbLine
 10
368.7659192360916
 20
19.24270310045165
 30
0.0
 11
368.7659192360916
 21
30.24270310045165
 31
0.0
  0
SOLID
  5
2262
330
207F
100
AcDbEntity
  8
AM_5
100
AcDbTrace
 10
367.5582353821936
 20
11.99659997706413
 30
0.0
 11
369.9736030899895
 21
11.99659997706413
 31
0.0
 12
368.7659192360916
 22
19.24270310045165
 32
0.0
 13
368.7659192360916
 23
19.24270310045165
 33
0.0
  0
SOLID
  5
2263
330
207F
100
AcDbEntity
  8
AM_5
100
AcDbTrace
 10
367.5582353821936
 20
37.48880622383918
 30
0.0
 11
369.9736030899895
 21
37.48880622383917
 31
0.0
 12
368.7659192360916
 22
30.24270310045165
 32
0.0
 13
368.7659192360916
 23
30.24270310045165
 33
0.0
  0
MTEXT
  5
2264
330
207F
100
AcDbEntity
  8
AM_5
100
AcDbMText
 10
360.7952058003653
 20
24.74270310045171
 30
0.0
 40
10.14454437274252
 41
0.0
 71
     5
 72
     1
  1
11
 11
0.0000000000000001
 21
1.0
 31
0.0
 73
     1
 44
1.0
1001
ACAD
1000
MTEXTBEGIN
1070
    73
1070
     1
1070
    44
1040
1.0
1070
    74
1070
     0
1000
MTEXTEND
  0
POINT
  5
2265
330
207F
100
AcDbEntity
  8
Defpoints
 62
     0
100
AcDbPoint
 10
373.6376797581602
 20
19.24270310045165
 30
0.0
  0
POINT
  5
2266
330
207F
100
AcDbEntity
  8
Defpoints
 62
     0
100
AcDbPoint
 10
388.9376797581602
 20
30.24270310045165
 30
0.0
  0
POINT
  5
2267
330
207F
100
AcDbEntity
  8
Defpoints
 62
     0
100
AcDbPoint
 10
368.7659192360916
 20
30.24270310045165
 30
0.0
  0
ENDBLK
  5
208C
330
207F
100
AcDbEntity
  8
0
100
AcDbBlockEnd
  0
ENDSEC
  0
SECTION
  2
ENTITIES
  0
VIEWPORT
  5
288
102
{ACAD_XDICTIONARY
360
22BA
102
}
330
D
100
AcDbEntity
 67
     1
  8
0
100
AcDbViewport
 10
721.09177780283
 20
62.09292753959539
 30
0.0
 40
1220.576835226176
 41
921.4950941442653
 68
     1
 69
     1
 12
721.09177780283
 22
62.09292753959539
 13
0.0
 23
0.0
 14
1.0
 24
1.0
 15
0.0
 25
0.0
 16
0.0
 26
0.0
 36
1.0
 17
0.0
 27
0.0
 37
0.0
 42
50.0
 43
0.0
 44
0.0
 45
921.4950941442653
 50
0.0
 51
0.0
 72
  1000
 90
    32800
  1

281
     0
 71
     1
 74
     0
110
0.0
120
0.0
130
0.0
111
1.0
121
0.0
131
0.0
112
0.0
122
1.0
132
0.0
 79
     0
146
0.0
  0
TEXT
  5
3D6
330
D
100
AcDbEntity
 67
     1
  8
LOGO
100
AcDbText
 10
686.8653629828075
 20
-239.8977910428149
 30
0.0
 40
4.963805532337713
  1
Accessory
 72
     4
 11
702.2655696468852
 21
-238.1480495926659
 31
0.0
100
AcDbText
  0
LINE
  5
3D7
330
D
100
AcDbEntity
 67
     1
  8
LOGO
 62
     4
100
AcDbLine
 10
709.7924882932327
 20
-183.2827111228304
 30
0.0
 11
687.0830231611003
 21
-183.2827111228304
 31
0.0
  0
LINE
  5
3D8
330
D
100
AcDbEntity
 67
     1
  8
LOGO
 62
     4
100
AcDbLine
 10
725.905077056208
 20
-216.9500779111384
 30
0.0
 11
677.001931427564
 21
-216.9500779111384
 31
0.0
  0
LINE
  5
3D9
330
D
100
AcDbEntity
 67
     1
  8
LOGO
 62
     4
100
AcDbLine
 10
709.7924882932327
 20
-205.7276223150361
 30
0.0
 11
687.0830231611003
 21
-205.7276223150361
 31
0.0
  0
LINE
  5
3DA
330
D
100
AcDbEntity
 67
     1
  8
LOGO
 62
     4
100
AcDbLine
 10
725.905077056208
 20
-244.3827471460563
 30
0.0
 11
677.001931427564
 21
-244.3827471460563
 31
0.0
  0
TEXT
  5
3DB
330
D
100
AcDbEntity
 67
     1
  8
LOGO
 62
     7
100
AcDbText
 10
285.4553879294552
 20
-194.5333917357949
 30
0.0
 40
14.96327412813696
  1
訂購代號:
  7
CHINESET
100
AcDbText
  0
TEXT
  5
3DC
330
D
100
AcDbEntity
 67
     1
  8
LOGO
 62
     7
100
AcDbText
 10
283.6656978495684
 20
-208.5768529271124
 30
0.0
 40
9.975516085424638
  1
Order example:
 41
0.8
  7
CHINESET
100
AcDbText
  0
LINE
  5
3DD
330
D
100
AcDbEntity
 67
     1
  8
LOGO
 62
     4
100
AcDbLine
 10
437.1032380424481
 20
-244.3827471460563
 30
0.0
 11
387.2256576153251
 21
-244.3827471460563
 31
0.0
  0
LINE
  5
3DE
330
D
100
AcDbEntity
 67
     1
  8
LOGO
 62
     4
100
AcDbLine
 10
437.1032380424481
 20
-216.9500779111386
 30
0.0
 11
387.2256576153251
 21
-216.9500779111386
 31
0.0
  0
LINE
  5
3DF
330
D
100
AcDbEntity
 67
     1
  8
LOGO
 62
     4
100
AcDbLine
 10
448.873530008305
 20
-205.7276223150361
 30
0.0
 11
376.1061970756812
 21
-205.7276223150361
 31
0.0
  0
LINE
  5
3E0
330
D
100
AcDbEntity
 67
     1
  8
LOGO
 62
     4
100
AcDbLine
 10
448.873530008305
 20
-183.2827111228304
 30
0.0
 11
376.1061970756812
 21
-183.2827111228304
 31
0.0
  0
TEXT
  5
3E1
330
D
100
AcDbEntity
 67
     1
  8
LOGO
  6
Continuous
 62
     7
100
AcDbText
 10
381.2878504216202
 20
-200.7398642723233
 30
0.0
 40
12.4693951067808
  1
MCBQV
  7
CHINESET
 72
     1
 11
412.1644478288869
 21
-194.5051667189329
 31
0.0
100
AcDbText
 73
     2
  0
LINE
  5
3E2
330
D
100
AcDbEntity
 67
     1
  8
LOGO
 62
     4
100
AcDbLine
 10
376.1061970756812
 20
-183.2827111228304
 30
0.0
 11
376.1061970756812
 21
-205.7276223150361
 31
0.0
  0
LINE
  5
3E3
330
D
100
AcDbEntity
 67
     1
  8
LOGO
 62
     4
100
AcDbLine
 10
387.2256576153251
 20
-216.9500779111386
 30
0.0
 11
387.2256576153251
 21
-244.3827471460563
 31
0.0
  0
TEXT
  5
3E4
330
D
100
AcDbEntity
 67
     1
  8
LOGO
100
AcDbText
 10
403.7259784239128
 20
-240.539999052539
 30
0.0
 40
4.963805532337713
  1
Model
 72
     4
 11
412.1644478288869
 21
-238.148049592666
 31
0.0
100
AcDbText
  0
TEXT
  5
3E5
330
D
100
AcDbEntity
 67
     1
  8
LOGO
100
AcDbText
 10
402.1889317434623
 20
-230.4111335736553
 30
0.0
 40
9.975516085424638
  1
型式
 72
     4
 11
412.1644478288869
 21
-225.678654485885
 31
0.0
100
AcDbText
  0
LINE
  5
3E6
330
D
100
AcDbEntity
 67
     1
  8
LOGO
 62
     4
100
AcDbLine
 10
412.1644478288869
 20
-205.7276223150361
 30
0.0
 11
412.1644478288869
 21
-216.9500779111386
 31
0.0
  0
LINE
  5
3E7
330
D
100
AcDbEntity
 67
     1
  8
LOGO
 62
     4
100
AcDbLine
 10
448.873530008305
 20
-183.2827111228304
 30
0.0
 11
448.873530008305
 21
-205.7276223150361
 31
0.0
  0
LINE
  5
3E8
330
D
100
AcDbEntity
 67
     1
  8
LOGO
 62
     4
100
AcDbLine
 10
514.7537809007997
 20
-183.2827111228304
 30
0.0
 11
514.7537809007997
 21
-205.7276223150361
 31
0.0
  0
LINE
  5
3E9
330
D
100
AcDbEntity
 67
     1
  8
LOGO
 62
     4
100
AcDbLine
 10
465.3709998621366
 20
-183.2827111228304
 30
0.0
 11
465.3709998621366
 21
-205.7276223150361
 31
0.0
  0
TEXT
  5
3EA
330
D
100
AcDbEntity
 67
     1
  8
LOGO
100
AcDbText
 10
470.1268971213073
 20
-239.7954282226883
 30
0.0
 40
4.963805532337713
  1
Acting type
 72
     4
 11
487.2520262078723
 21
-238.148049592666
 31
0.0
100
AcDbText
  0
TEXT
  5
3EB
330
D
100
AcDbEntity
 67
     1
  8
LOGO
100
AcDbText
 10
467.4049056629129
 20
-230.4111335736553
 30
0.0
 40
9.975516085424638
  1
作動型式
 72
     4
 11
487.2520262078723
 21
-225.678654485885
 31
0.0
100
AcDbText
  0
LINE
  5
3EC
330
D
100
AcDbEntity
 67
     1
  8
LOGO
 62
     4
100
AcDbLine
 10
514.7537809007997
 20
-205.7276223150361
 30
0.0
 11
465.3709998621366
 21
-205.7276223150361
 31
0.0
  0
LINE
  5
3ED
330
D
100
AcDbEntity
 67
     1
  8
LOGO
 62
     4
100
AcDbLine
 10
514.7537809007997
 20
-216.9500779111386
 30
0.0
 11
459.7502715149443
 21
-216.9500779111386
 31
0.0
  0
LINE
  5
3EE
330
D
100
AcDbEntity
 67
     1
  8
LOGO
 62
     4
100
AcDbLine
 10
514.7537809007997
 20
-244.3827471460563
 30
0.0
 11
459.7502715149443
 21
-244.3827471460563
 31
0.0
  0
LINE
  5
3EF
330
D
100
AcDbEntity
 67
     1
  8
LOGO
 62
     4
100
AcDbLine
 10
437.1032380424484
 20
-216.9500779111386
 30
0.0
 11
437.1032380424484
 21
-244.3827471460563
 31
0.0
  0
LINE
  5
3F0
330
D
100
AcDbEntity
 67
     1
  8
LOGO
 62
     4
100
AcDbLine
 10
459.7502715149443
 20
-216.9500779111386
 30
0.0
 11
459.7502715149443
 21
-244.3827471460563
 31
0.0
  0
LINE
  5
3F1
330
D
100
AcDbEntity
 67
     1
  8
LOGO
 62
     4
100
AcDbLine
 10
514.7537809007997
 20
-216.9500779111386
 30
0.0
 11
514.7537809007997
 21
-244.3827471460563
 31
0.0
  0
LINE
  5
3F2
330
D
100
AcDbEntity
 67
     1
  8
LOGO
 62
     4
100
AcDbLine
 10
487.2520262078723
 20
-205.7276223150361
 30
0.0
 11
487.2520262078723
 21
-216.9500779111386
 31
0.0
  0
LINE
  5
3F3
330
D
100
AcDbEntity
 67
     1
  8
LOGO
 62
     4
100
AcDbLine
 10
514.7537809007997
 20
-183.2827111228304
 30
0.0
 11
465.3709998621366
 21
-183.2827111228304
 31
0.0
  0
LINE
  5
3F4
330
D
100
AcDbEntity
 67
     1
  8
LOGO
  6
Continuous
 62
     7
100
AcDbLine
 10
452.7404508935006
 20
-194.5846701415104
 30
0.0
 11
461.4894991216085
 21
-194.5846701415104
 31
0.0
  0
TEXT
  5
3F5
330
D
100
AcDbEntity
 67
     1
  8
LOGO
  6
Continuous
 62
     7
100
AcDbText
 10
481.017328654482
 20
-200.8812679985656
 30
0.0
 40
12.4693951067808
  1
11
  7
CHINESET
 72
     1
 11
487.2520262078723
 21
-194.6465704451752
 31
0.0
100
AcDbText
 73
     2
  0
TEXT
  5
3F6
330
D
100
AcDbEntity
 67
     1
  8
LOGO
  6
Continuous
 62
     7
100
AcDbText
 10
602.1239067314034
 20
-203.315919726687
 30
0.0
 40
12.4693951067808
  1
*
  7
CHINESET
 72
     1
 11
605.0928103282561
 21
-197.0812221732966
 31
0.0
100
AcDbText
 73
     2
  0
TEXT
  5
3F7
330
D
100
AcDbEntity
 67
     1
  8
LOGO
100
AcDbText
 10
593.9694262743407
 20
-240.6299523588348
 30
0.0
 40
4.963805532337713
  1
Stroke
 72
     4
 11
604.0469286320597
 21
-238.148049592666
 31
0.0
100
AcDbText
  0
LINE
  5
3F8
330
D
100
AcDbEntity
 67
     1
  8
LOGO
 62
     4
100
AcDbLine
 10
622.8093269133538
 20
-183.2827111228304
 30
0.0
 11
590.1125670180847
 21
-183.2827111228304
 31
0.0
  0
TEXT
  5
3F9
330
D
100
AcDbEntity
 67
     1
  8
LOGO
100
AcDbText
 10
594.071412546635
 20
-230.6664125285973
 30
0.0
 40
9.975516085424638
  1
行程
 72
     4
 11
604.0469286320597
 21
-225.678654485885
 31
0.0
100
AcDbText
  0
LINE
  5
3FA
330
D
100
AcDbEntity
 67
     1
  8
LOGO
 62
     4
100
AcDbLine
 10
622.3250893994416
 20
-244.3827471460563
 30
0.0
 11
585.7687678646766
 21
-244.3827471460563
 31
0.0
  0
LINE
  5
3FB
330
D
100
AcDbEntity
 67
     1
  8
LOGO
 62
     4
100
AcDbLine
 10
622.8093269133538
 20
-205.7276223150361
 30
0.0
 11
590.1125670180847
 21
-205.7276223150361
 31
0.0
  0
LINE
  5
3FC
330
D
100
AcDbEntity
 67
     1
  8
LOGO
 62
     4
100
AcDbLine
 10
622.3250893994416
 20
-216.9500779111386
 30
0.0
 11
585.7687678646766
 21
-216.9500779111386
 31
0.0
  0
LINE
  5
3FD
330
D
100
AcDbEntity
 67
     1
  8
LOGO
 62
     4
100
AcDbLine
 10
572.4532915883014
 20
-183.2827111228301
 30
0.0
 11
572.4532915883014
 21
-205.7276223150355
 31
0.0
  0
LINE
  5
3FE
330
D
100
AcDbEntity
 67
     1
  8
LOGO
 62
     4
100
AcDbLine
 10
532.4130563305832
 20
-183.2827111228304
 30
0.0
 11
532.4130563305832
 21
-205.7276223150355
 31
0.0
  0
LINE
  5
3FF
330
D
100
AcDbEntity
 67
     1
  8
LOGO
 62
     4
100
AcDbLine
 10
590.1125670180849
 20
-183.2827111228304
 30
0.0
 11
590.1125670180847
 21
-205.7276223150361
 31
0.0
  0
LINE
  5
400
330
D
100
AcDbEntity
 67
     1
  8
LOGO
 62
     4
100
AcDbLine
 10
572.4532915883014
 20
-244.3827471460563
 30
0.0
 11
532.4130563305832
 21
-244.3827471460563
 31
0.0
  0
LINE
  5
401
330
D
100
AcDbEntity
 67
     1
  8
LOGO
 62
     4
100
AcDbLine
 10
572.4532915883014
 20
-205.7276223150355
 30
0.0
 11
532.4130563305832
 21
-205.7276223150355
 31
0.0
  0
LINE
  5
402
330
D
100
AcDbEntity
 67
     1
  8
LOGO
 62
     4
100
AcDbLine
 10
572.4532915883014
 20
-216.9500779111384
 30
0.0
 11
532.4130563305832
 21
-216.9500779111384
 31
0.0
  0
LINE
  5
403
330
D
100
AcDbEntity
 67
     1
  8
LOGO
 62
     4
100
AcDbLine
 10
532.4130563305832
 20
-216.9500779111384
 30
0.0
 11
532.4130563305832
 21
-244.3827471460563
 31
0.0
  0
TEXT
  5
404
330
D
100
AcDbEntity
 67
     1
  8
LOGO
100
AcDbText
 10
545.4838462141691
 20
-240.5528495248669
 30
0.0
 40
4.963805532337713
  1
Bore
 72
     4
 11
552.433173959442
 21
-238.148049592666
 31
0.0
100
AcDbText
  0
TEXT
  5
405
330
D
100
AcDbEntity
 67
     1
  8
LOGO
100
AcDbText
 10
541.8341881186782
 20
-230.6664125285973
 30
0.0
 40
9.975516085424638
  1
內徑
 72
     4
 11
552.433173959442
 21
-225.678654485885
 31
0.0
100
AcDbText
  0
LINE
  5
406
330
D
100
AcDbEntity
 67
     1
  8
LOGO
 62
     4
100
AcDbLine
 10
552.4331733843926
 20
-205.7276223150355
 30
0.0
 11
552.4331733843926
 21
-216.9500779111384
 31
0.0
  0
LINE
  5
407
330
D
100
AcDbEntity
 67
     1
  8
LOGO
 62
     4
100
AcDbLine
 10
572.4532915883014
 20
-216.9500779111384
 30
0.0
 11
572.4532915883014
 21
-244.3827471460563
 31
0.0
  0
LINE
  5
408
330
D
100
AcDbEntity
 67
     1
  8
LOGO
 62
     4
100
AcDbLine
 10
585.7687678646766
 20
-216.9500779111386
 30
0.0
 11
585.7687678646766
 21
-244.3827471460563
 31
0.0
  0
LINE
  5
409
330
D
100
AcDbEntity
 67
     1
  8
LOGO
 62
     4
100
AcDbLine
 10
572.4532915883014
 20
-183.2827111228301
 30
0.0
 11
532.4130563305832
 21
-183.2827111228304
 31
0.0
  0
LINE
  5
40A
330
D
100
AcDbEntity
 67
     1
  8
LOGO
  6
Continuous
 62
     7
100
AcDbLine
 10
518.6207017859957
 20
-194.58467014151
 30
0.0
 11
528.5315555900549
 21
-194.58467014151
 31
0.0
  0
TEXT
  5
40B
330
D
100
AcDbEntity
 67
     1
  8
LOGO
  6
Continuous
 62
     7
100
AcDbText
 10
538.7524665063337
 20
-200.8812679985655
 30
0.0
 40
12.4693951067808
  1
125
  7
CHINESET
 72
     1
 11
553.5969844905967
 21
-194.6465704451751
 31
0.0
100
AcDbText
 73
     2
  0
LINE
  5
40C
330
D
100
AcDbEntity
 67
     1
  8
LOGO
  6
Continuous
 62
     7
100
AcDbLine
 10
576.3202124734973
 20
-194.58467014151
 30
0.0
 11
586.2310662775573
 21
-194.58467014151
 31
0.0
  0
TEXT
  5
40D
330
D
100
AcDbEntity
 67
     1
  8
LOGO
  6
Continuous
 62
     7
100
AcDbText
 10
634.3655616491935
 20
-200.2006514928512
 30
0.0
 40
12.4693951067808
  1
(M)
  7
CHINESET
 72
     1
 11
647.72562783503
 21
-193.9659539394608
 31
0.0
100
AcDbText
 73
     2
  0
LINE
  5
40E
330
D
100
AcDbEntity
 67
     1
  8
LOGO
 62
     4
100
AcDbLine
 10
687.0830231611003
 20
-183.2827111228304
 30
0.0
 11
687.0830231611003
 21
-205.7276223150361
 31
0.0
  0
LINE
  5
40F
330
D
100
AcDbEntity
 67
     1
  8
LOGO
 62
     4
100
AcDbLine
 10
669.6161487338685
 20
-183.2827111228304
 30
0.0
 11
669.6161487338685
 21
-205.7276223150361
 31
0.0
  0
LINE
  5
410
330
D
100
AcDbEntity
 67
     1
  8
LOGO
 62
     4
100
AcDbLine
 10
627.999207236357
 20
-183.2827111228304
 30
0.0
 11
627.999207236357
 21
-205.7276223150361
 31
0.0
  0
LINE
  5
411
330
D
100
AcDbEntity
 67
     1
  8
LOGO
 62
     4
100
AcDbLine
 10
622.8093269133538
 20
-183.2827111228304
 30
0.0
 11
622.8093269133538
 21
-205.7276223150361
 31
0.0
  0
LINE
  5
412
330
D
100
AcDbEntity
 67
     1
  8
LOGO
 62
     4
100
AcDbLine
 10
671.5094985935994
 20
-244.3827471460563
 30
0.0
 11
634.9531770588346
 21
-244.3827471460563
 31
0.0
  0
LINE
  5
413
330
D
100
AcDbEntity
 67
     1
  8
LOGO
 62
     4
100
AcDbLine
 10
671.5094985935994
 20
-216.9500779111386
 30
0.0
 11
634.9531770588346
 21
-216.9500779111386
 31
0.0
  0
TEXT
  5
414
330
D
100
AcDbEntity
 67
     1
  8
LOGO
100
AcDbText
 10
641.0700142719896
 20
-240.6299523588348
 30
0.0
 40
4.963805532337713
  1
MAGNET
 72
     4
 11
653.231337826217
 21
-238.148049592666
 31
0.0
100
AcDbText
  0
TEXT
  5
415
330
D
100
AcDbEntity
 67
     1
  8
LOGO
100
AcDbText
 10
638.26806369808
 20
-230.5625009027075
 30
0.0
 40
9.975516085424638
  1
附磁石
 72
     4
 11
653.231337826217
 21
-225.678654485885
 31
0.0
100
AcDbText
  0
LINE
  5
416
330
D
100
AcDbEntity
 67
     1
  8
LOGO
 62
     4
100
AcDbLine
 10
669.6161487338685
 20
-205.7276223150361
 30
0.0
 11
627.999207236357
 21
-205.7276223150361
 31
0.0
  0
LINE
  5
417
330
D
100
AcDbEntity
 67
     1
  8
LOGO
 62
     4
100
AcDbLine
 10
634.9531770588346
 20
-216.9500779111386
 30
0.0
 11
634.9531770588346
 21
-244.3827471460563
 31
0.0
  0
LINE
  5
418
330
D
100
AcDbEntity
 67
     1
  8
LOGO
 62
     4
100
AcDbLine
 10
622.3250893994416
 20
-216.9500779111386
 30
0.0
 11
622.3250893994416
 21
-244.4861864990725
 31
0.0
  0
LINE
  5
419
330
D
100
AcDbEntity
 67
     1
  8
LOGO
 62
     4
100
AcDbLine
 10
604.5751095647236
 20
-205.7276223150361
 30
0.0
 11
604.5751095647236
 21
-216.9500779111386
 31
0.0
  0
LINE
  5
41A
330
D
100
AcDbEntity
 67
     1
  8
LOGO
 62
     4
100
AcDbLine
 10
653.231337826217
 20
-205.7276223150361
 30
0.0
 11
653.231337826217
 21
-216.9500779111386
 31
0.0
  0
LINE
  5
41B
330
D
100
AcDbEntity
 67
     1
  8
LOGO
 62
     4
100
AcDbLine
 10
671.5094985935994
 20
-216.9500779111386
 30
0.0
 11
671.5094985935994
 21
-244.4861864990725
 31
0.0
  0
LINE
  5
41C
330
D
100
AcDbEntity
 67
     1
  8
LOGO
 62
     4
100
AcDbLine
 10
677.001931427564
 20
-216.9500779111384
 30
0.0
 11
677.001931427564
 21
-244.3827471460563
 31
0.0
  0
LINE
  5
41D
330
D
100
AcDbEntity
 67
     1
  8
LOGO
 62
     4
100
AcDbLine
 10
698.4377557271665
 20
-205.7276223150361
 30
0.0
 11
698.4377557271665
 21
-216.9500779111384
 31
0.0
  0
LINE
  5
41E
330
D
100
AcDbEntity
 67
     1
  8
LOGO
 62
     4
100
AcDbLine
 10
669.6161487338685
 20
-183.2827111228304
 30
0.0
 11
627.999207236357
 21
-183.2827111228304
 31
0.0
  0
LINE
  5
41F
330
D
100
AcDbEntity
 67
     1
  8
LOGO
  6
Continuous
 62
     7
100
AcDbLine
 10
673.4830696190645
 20
-194.58467014151
 30
0.0
 11
683.3939234231247
 21
-194.58467014151
 31
0.0
  0
TEXT
  5
420
330
D
100
AcDbEntity
 67
     1
  8
LOGO
  6
Continuous
 62
     7
100
AcDbText
 10
695.4781686615578
 20
-200.8812679985656
 30
0.0
 40
12.4693951067808
  1
?
  7
CHINESET
 72
     1
 11
698.7439626180956
 21
-194.6465704451752
 31
0.0
100
AcDbText
 73
     2
  0
LINE
  5
421
330
D
100
AcDbEntity
 67
     1
  8
LOGO
 62
     4
100
AcDbLine
 10
709.7924882932327
 20
-183.2827111228304
 30
0.0
 11
709.7924882932327
 21
-205.7276223150361
 31
0.0
  0
TEXT
  5
422
330
D
100
AcDbEntity
 67
     1
  8
LOGO
100
AcDbText
 10
692.8893776911356
 20
-230.6664125285971
 30
0.0
 40
9.975516085424638
  1
配件
 72
     4
 11
702.96880540245
 21
-225.6786544858847
 31
0.0
100
AcDbText
  0
LINE
  5
423
330
D
100
AcDbEntity
 67
     1
  8
LOGO
 62
     4
100
AcDbLine
 10
725.905077056208
 20
-216.9500779111384
 30
0.0
 11
725.905077056208
 21
-244.3827471460563
 31
0.0
  0
LINE
  5
424
330
D
100
AcDbEntity
 67
     1
  8
LOGO
 62
     4
100
AcDbLine
 10
279.331302275446
 20
-250.6174446994471
 30
0.0
 11
279.331302275446
 21
-175.8010740587606
 31
0.0
  0
TEXT
  5
425
330
D
100
AcDbEntity
 67
     1
  8
LOGO
  6
Continuous
100
AcDbText
 10
141.6096635061663
 20
-235.9198815948324
 30
0.0
 40
11.22245559610282
  1
金器工業股份有限公司
  7
CHINESET
100
AcDbText
  0
TEXT
  5
426
330
D
100
AcDbEntity
 67
     1
  8
LOGO
  6
Continuous
100
AcDbText
 10
120.9962328294737
 20
-247.1445359123576
 30
0.0
 40
7.481637064068545
  1
MINDMAN INDUSTRIAL CO., LTD.
 41
0.85
  7
CHINESET
100
AcDbText
  0
LINE
  5
427
330
D
100
AcDbEntity
 67
     1
  8
LOGO
 62
     4
100
AcDbLine
 10
279.331302275446
 20
-190.7643481868982
 30
0.0
 11
169.6006253357716
 21
-190.7643481868982
 31
0.0
  0
LINE
  5
428
330
D
100
AcDbEntity
 67
     1
  8
LOGO
 62
     4
100
AcDbLine
 10
279.331302275446
 20
-205.7276223150355
 30
0.0
 11
169.6006253357716
 21
-205.7276223150355
 31
0.0
  0
LINE
  5
429
330
D
100
AcDbEntity
 67
     1
  8
LOGO
 62
     4
100
AcDbLine
 10
279.331302275446
 20
-220.6908964431725
 30
0.0
 11
114.7352868659366
 21
-220.6908964431725
 31
0.0
  0
LINE
  5
42A
330
D
100
AcDbEntity
 67
     1
  8
LOGO
 62
     4
100
AcDbLine
 10
169.6006253357716
 20
-220.6908964431725
 30
0.0
 11
169.6006253357716
 21
-175.8010740587606
 31
0.0
  0
TEXT
  5
42B
330
D
100
AcDbEntity
 67
     1
  8
LOGO
100
AcDbText
 10
244.5963638149765
 20
-216.9500779111387
 30
0.0
 40
7.481637064068545
  1
mm
  7
CHINESET
 72
     1
 11
253.8593430371566
 21
-213.2092593791044
 31
0.0
100
AcDbText
 73
     2
  0
TEXT
  5
42C
330
D
100
AcDbEntity
 67
     1
  8
LOGO
100
AcDbText
 10
240.6774110671311
 20
-187.0235296548644
 30
0.0
 40
7.481637064068545
  1
1 : 1
  7
CHINESET
 72
     1
 11
253.8593430371566
 21
-183.2827111228301
 31
0.0
100
AcDbText
 73
     2
  0
LINE
  5
42D
330
D
100
AcDbEntity
 67
     1
  8
LOGO
 62
     4
100
AcDbLine
 10
229.4537218483217
 20
-220.6908964431725
 30
0.0
 11
229.4537218483217
 21
-175.8010740587606
 31
0.0
  0
TEXT
  5
42E
330
D
100
AcDbEntity
 67
     1
  8
LOGO
100
AcDbText
 10
175.7696358970838
 20
-187.0198477468605
 30
490.3341679020062
 40
7.481637064068545
  1
比例 Scale:
 41
0.9
  7
CHINESET
 72
     4
 11
199.5271735920479
 21
-183.2827111228301
 31
490.3341679020062
100
AcDbText
  0
TEXT
  5
42F
330
D
100
AcDbEntity
 67
     1
  8
LOGO
100
AcDbText
 10
175.3387737625906
 20
-201.881562579221
 30
490.3341679020062
 40
7.481637064068545
  1
投影  View:
 41
0.9
  7
CHINESET
 72
     4
 11
199.5271735920479
 21
-198.2459852509669
 31
490.3341679020062
100
AcDbText
  0
TEXT
  5
430
330
D
100
AcDbEntity
 67
     1
  8
LOGO
100
AcDbText
 10
176.0702373862651
 20
-216.9500779111387
 30
490.3341679020062
 40
7.481637064068545
  1
單位  Unit:
 41
0.9
  7
CHINESET
 72
     4
 11
199.5271735920479
 21
-213.2092593791044
 31
490.3341679020062
100
AcDbText
  0
SOLID
  5
431
330
D
100
AcDbEntity
 67
     1
  8
LOGO
 62
     5
100
AcDbTrace
 10
122.4976053910501
 20
-208.2537397513355
 30
0.0
 11
125.7324689393964
 21
-208.2537397513375
 31
0.0
 12
139.2296582273258
 22
-177.5783095514962
 32
0.0
 13
142.4645217756732
 23
-177.5783095514986
 33
0.0
  0
SOLID
  5
432
330
D
100
AcDbEntity
 67
     1
  8
LOGO
 62
     5
100
AcDbTrace
 10
127.0710331663016
 20
-208.2537397513355
 30
0.0
 11
130.3058967146479
 21
-208.2537397513355
 31
0.0
 12
142.4645217756732
 22
-180.0323439674845
 32
0.0
 13
139.2296582273258
 23
-191.8935103114223
 33
0.0
  0
SOLID
  5
433
330
D
100
AcDbEntity
 67
     1
  8
LOGO
 62
     2
100
AcDbTrace
 10
125.7324689393964
 20
-208.2537397513375
 30
0.0
 11
127.0710331663016
 21
-208.2537397513355
 31
0.0
 12
142.4645217756732
 22
-177.5783095514986
 32
0.0
 13
143.8030860025776
 23
-177.5783095514986
 33
0.0
  0
SOLID
  5
434
330
D
100
AcDbEntity
 67
     1
  8
LOGO
 62
     5
100
AcDbTrace
 10
117.3113258373356
 20
-219.4084416421865
 30
0.0
 11
118.4267960264225
 21
-219.4084416421865
 31
0.0
 12
121.5680469001461
 22
-213.8310906967612
 32
0.0
 13
122.6835170892308
 23
-213.8310906967612
 33
0.0
  0
SOLID
  5
435
330
D
100
AcDbEntity
 67
     1
  8
LOGO
 62
     5
100
AcDbTrace
 10
121.5680469001461
 20
-213.8310906967612
 30
0.0
 11
122.6835170892308
 21
-213.8310906967612
 31
0.0
 12
121.5680469001461
 22
-219.4084416421865
 32
0.0
 13
122.6835170892308
 23
-219.4084416421865
 33
0.0
  0
SOLID
  5
436
330
D
100
AcDbEntity
 67
     1
  8
LOGO
 62
     5
100
AcDbTrace
 10
121.5680469001461
 20
-219.4084416421865
 30
0.0
 11
122.6835170892308
 21
-219.4084416421865
 31
0.0
 12
125.82476796296
 22
-213.8310906967612
 32
0.0
 13
126.9402381520438
 23
-213.8310906967612
 33
0.0
  0
SOLID
  5
437
330
D
100
AcDbEntity
 67
     1
  8
LOGO
 62
     5
100
AcDbTrace
 10
125.82476796296
 20
-213.8310906967612
 30
0.0
 11
126.9402381520438
 21
-213.8310906967612
 31
0.0
 12
125.82476796296
 22
-219.4084416421865
 32
0.0
 13
126.9402381520438
 23
-219.4084416421865
 33
0.0
  0
POLYLINE
  5
438
330
D
100
AcDbEntity
 67
     1
  8
LOGO
 62
     5
100
AcDb2dPolyline
 66
     1
 10
0.0
 20
0.0
 30
0.0
 40
1.117257801567568
 41
1.117257801567568
  0
VERTEX
  5
439
330
438
100
AcDbEntity
 67
     1
  8
LOGO
 62
     5
100
AcDbVertex
100
AcDb2dVertex
 10
163.2149487113803
 20
-216.0620310749322
 30
0.0
 42
1.0
  0
VERTEX
  5
43A
330
438
100
AcDbEntity
 67
     1
  8
LOGO
 62
     5
100
AcDbVertex
100
AcDb2dVertex
 10
159.8631753066789
 20
-216.0620310749322
 30
0.0
 42
1.0
  0
SEQEND
  5
43B
330
438
100
AcDbEntity
 67
     1
  8
LOGO
 62
     5
  0
POLYLINE
  5
43C
330
D
100
AcDbEntity
 67
     1
  8
LOGO
 62
     5
100
AcDb2dPolyline
 66
     1
 10
0.0
 20
0.0
 30
0.0
 70
     1
  0
VERTEX
  5
43D
330
43C
100
AcDbEntity
 67
     1
  8
LOGO
 62
     5
100
AcDbVertex
100
AcDb2dVertex
 10
153.5449333519308
 20
-216.6197661694742
 30
0.0
 42
1.000000057330635
  0
VERTEX
  5
43E
330
43C
100
AcDbEntity
 67
     1
  8
LOGO
 62
     5
100
AcDbVertex
100
AcDb2dVertex
 10
156.8913439191844
 20
-216.6197661694742
 30
0.0
 42
1.000000057330635
  0
SEQEND
  5
43F
330
43C
100
AcDbEntity
 67
     1
  8
LOGO
 62
     5
  0
CIRCLE
  5
440
330
D
100
AcDbEntity
 67
     1
  8
LOGO
 62
     5
100
AcDbCircle
 10
155.2181386355597
 20
-216.6197661694742
 30
0.0
 40
1.673205283627591
  0
POLYLINE
  5
441
330
D
100
AcDbEntity
 67
     1
  8
LOGO
 62
     5
100
AcDb2dPolyline
 66
     1
 10
0.0
 20
0.0
 30
0.0
 70
     1
 40
1.117257801567568
 41
1.117257801567568
  0
VERTEX
  5
442
330
441
100
AcDbEntity
 67
     1
  8
LOGO
 62
     5
100
AcDbVertex
100
AcDb2dVertex
 10
152.9836230324234
 20
-216.6197661694742
 30
0.0
 42
1.0
  0
VERTEX
  5
443
330
441
100
AcDbEntity
 67
     1
  8
LOGO
 62
     5
100
AcDbVertex
100
AcDb2dVertex
 10
157.4526542386941
 20
-216.6197661694742
 30
0.0
 42
1.0
  0
SEQEND
  5
444
330
441
100
AcDbEntity
 67
     1
  8
LOGO
 62
     5
  0
LINE
  5
445
330
D
100
AcDbEntity
 67
     1
  8
LOGO
100
AcDbLine
 10
163.7700023871962
 20
-219.4084416421865
 30
0.0
 11
163.7700023871962
 21
-216.0620310749322
 31
0.0
  0
SOLID
  5
446
330
D
100
AcDbEntity
 67
     1
  8
LOGO
 62
     5
100
AcDbTrace
 10
156.8912323721703
 20
-213.8310906967612
 30
0.0
 11
158.0067025612541
 21
-213.8310906967612
 31
0.0
 12
156.8912323721703
 22
-219.4084416421865
 32
0.0
 13
158.0067025612541
 23
-219.4084416421865
 33
0.0
  0
SOLID
  5
447
330
D
100
AcDbEntity
 67
     1
  8
LOGO
 62
     5
100
AcDbTrace
 10
159.3081216308577
 20
-219.4084416421865
 30
0.0
 11
160.4235918199429
 21
-219.4084416421865
 31
0.0
 12
159.3081216308577
 22
-213.8310906967612
 32
0.0
 13
160.4235918199429
 23
-213.8310906967612
 33
0.0
  0
SOLID
  5
448
330
D
100
AcDbEntity
 67
     1
  8
LOGO
 62
     5
100
AcDbTrace
 10
162.6545321981148
 20
-216.0620310749322
 30
0.0
 11
163.7700023871962
 21
-216.0620310749322
 31
0.0
 12
162.6545321981148
 22
-219.4084416421865
 32
0.0
 13
163.7700023871962
 23
-219.4084416421865
 33
0.0
  0
SOLID
  5
449
330
D
100
AcDbEntity
 67
     1
  8
LOGO
 62
     5
100
AcDbTrace
 10
159.1965746119484
 20
-180.0323439674845
 30
0.0
 11
155.961711063603
 21
-191.8935103114223
 31
0.0
 12
159.1965746119484
 22
-208.2537397513375
 32
0.0
 13
155.961711063603
 23
-208.2537397513375
 33
0.0
  0
SOLID
  5
44A
330
D
100
AcDbEntity
 67
     1
  8
LOGO
 62
     5
100
AcDbTrace
 10
160.5351388388515
 20
-208.2537397513375
 30
0.0
 11
163.7700023871962
 21
-208.2537397513375
 31
0.0
 12
160.5351388388515
 22
-177.5783095514986
 32
0.0
 13
163.7700023871962
 23
-177.5783095514962
 33
0.0
  0
SOLID
  5
44B
330
D
100
AcDbEntity
 67
     1
  8
LOGO
 62
     2
100
AcDbTrace
 10
159.1965746119484
 20
-177.5783095514962
 30
0.0
 11
160.5351388388515
 21
-177.5783095514986
 31
0.0
 12
159.1965746119484
 22
-208.2537397513375
 32
0.0
 13
160.5351388388515
 23
-208.2537397513375
 33
0.0
  0
POLYLINE
  5
44C
330
D
100
AcDbEntity
 67
     1
  8
LOGO
 62
     5
100
AcDb2dPolyline
 66
     1
 10
0.0
 20
0.0
 30
0.0
 40
1.117257801567568
 41
1.117257801567568
  0
VERTEX
  5
44D
330
44C
100
AcDbEntity
 67
     1
  8
LOGO
 62
     5
100
AcDbVertex
100
AcDb2dVertex
 10
147.2264683031502
 20
-216.0620310749322
 30
0.0
 42
1.0
  0
VERTEX
  5
44E
330
44C
100
AcDbEntity
 67
     1
  8
LOGO
 62
     5
100
AcDbVertex
100
AcDb2dVertex
 10
143.8746948984449
 20
-216.0620310749322
 30
0.0
 42
1.0
  0
SEQEND
  5
44F
330
44C
100
AcDbEntity
 67
     1
  8
LOGO
 62
     5
  0
POLYLINE
  5
450
330
D
100
AcDbEntity
 67
     1
  8
LOGO
 62
     5
100
AcDb2dPolyline
 66
     1
 10
0.0
 20
0.0
 30
0.0
 40
1.117257801567568
 41
1.117257801567568
  0
VERTEX
  5
451
330
450
100
AcDbEntity
 67
     1
  8
LOGO
 62
     5
100
AcDbVertex
100
AcDb2dVertex
 10
150.5728788704034
 20
-216.0620310749322
 30
0.0
 42
1.0
  0
VERTEX
  5
452
330
450
100
AcDbEntity
 67
     1
  8
LOGO
 62
     5
100
AcDbVertex
100
AcDb2dVertex
 10
147.2211054657007
 20
-216.0620310749322
 30
0.0
 42
1.0
  0
SEQEND
  5
453
330
450
100
AcDbEntity
 67
     1
  8
LOGO
 62
     5
  0
POLYLINE
  5
454
330
D
100
AcDbEntity
 67
     1
  8
LOGO
 62
     5
100
AcDb2dPolyline
 66
     1
 10
0.0
 20
0.0
 30
0.0
 40
1.117257801567568
 41
1.117257801567568
  0
VERTEX
  5
455
330
454
100
AcDbEntity
 67
     1
  8
LOGO
 62
     5
100
AcDbVertex
100
AcDb2dVertex
 10
134.5843984621699
 20
-216.0620310749322
 30
0.0
 42
1.0
  0
VERTEX
  5
456
330
454
100
AcDbEntity
 67
     1
  8
LOGO
 62
     5
100
AcDbVertex
100
AcDb2dVertex
 10
131.2326250574673
 20
-216.0620310749322
 30
0.0
 42
1.0
  0
SEQEND
  5
457
330
454
100
AcDbEntity
 67
     1
  8
LOGO
 62
     5
  0
SOLID
  5
458
330
D
100
AcDbEntity
 67
     1
  8
LOGO
 62
     5
100
AcDbTrace
 10
130.6775713816491
 20
-213.8310906967612
 30
0.0
 11
131.793041570732
 21
-213.8310906967612
 31
0.0
 12
130.6775713816491
 22
-219.4084416421865
 32
0.0
 13
131.793041570732
 23
-219.4084416421865
 33
0.0
  0
SOLID
  5
459
330
D
100
AcDbEntity
 67
     1
  8
LOGO
 62
     5
100
AcDbTrace
 10
134.0239819489056
 20
-216.0620310749322
 30
0.0
 11
135.1394521379926
 21
-216.0620310749322
 31
0.0
 12
134.0239819489056
 22
-219.4084416421865
 32
0.0
 13
135.1394521379926
 23
-219.4084416421865
 33
0.0
  0
POLYLINE
  5
45A
330
D
100
AcDbEntity
 67
     1
  8
LOGO
 62
     5
100
AcDb2dPolyline
 66
     1
 10
0.0
 20
0.0
 30
0.0
 70
     1
 40
1.117257801567568
 41
1.117257801567568
  0
VERTEX
  5
45B
330
45A
100
AcDbEntity
 67
     1
  8
LOGO
 62
     5
100
AcDbVertex
100
AcDb2dVertex
 10
136.9951426241908
 20
-216.6197661694742
 30
0.0
 42
1.0
  0
VERTEX
  5
45C
330
45A
100
AcDbEntity
 67
     1
  8
LOGO
 62
     5
100
AcDbVertex
100
AcDb2dVertex
 10
141.4641738304614
 20
-216.6197661694742
 30
0.0
 42
1.0
  0
SEQEND
  5
45D
330
45A
100
AcDbEntity
 67
     1
  8
LOGO
 62
     5
  0
SOLID
  5
45E
330
D
100
AcDbEntity
 67
     1
  8
LOGO
 62
     5
100
AcDbTrace
 10
140.9027519639369
 20
-212.157885413133
 30
0.0
 11
142.0182221530222
 21
-212.157885413133
 31
0.0
 12
140.9027519639369
 22
-219.4084416421865
 32
0.0
 13
142.0182221530222
 23
-219.4084416421865
 33
0.0
  0
SOLID
  5
45F
330
D
100
AcDbEntity
 67
     1
  8
LOGO
 62
     5
100
AcDbTrace
 10
143.3196412226299
 20
-213.8310906967612
 30
0.0
 11
144.4351114117132
 21
-213.8310906967612
 31
0.0
 12
143.3196412226299
 22
-219.4084416421865
 32
0.0
 13
144.4351114117132
 23
-219.4084416421865
 33
0.0
  0
SOLID
  5
460
330
D
100
AcDbEntity
 67
     1
  8
LOGO
 62
     5
100
AcDbTrace
 10
146.6660517898817
 20
-216.0620310749322
 30
0.0
 11
147.7815219789677
 21
-216.0620310749322
 31
0.0
 12
146.6660517898817
 22
-219.4084416421865
 32
0.0
 13
147.7815219789677
 23
-219.4084416421865
 33
0.0
  0
SOLID
  5
461
330
D
100
AcDbEntity
 67
     1
  8
LOGO
 62
     5
100
AcDbTrace
 10
150.0124623571355
 20
-216.0620310749322
 30
0.0
 11
151.1279325462225
 21
-216.0620310749322
 31
0.0
 12
150.0124623571355
 22
-219.4084416421878
 32
0.0
 13
151.1279325462225
 23
-219.4084416421878
 33
0.0
  0
SOLID
  5
462
330
D
100
AcDbEntity
 67
     1
  8
LOGO
 62
     5
100
AcDbTrace
 10
128.2606821229576
 20
-213.050261564402
 30
0.0
 11
129.3761523120479
 21
-213.050261564402
 31
0.0
 12
128.2606821229576
 22
-212.157885413133
 32
0.0
 13
129.3761523120479
 23
-212.157885413133
 33
0.0
  0
SOLID
  5
463
330
D
100
AcDbEntity
 67
     1
  8
LOGO
 62
     5
100
AcDbTrace
 10
128.2606821229576
 20
-213.8310906967612
 30
0.0
 11
129.3761523120479
 21
-213.8310906967612
 31
0.0
 12
128.2606821229576
 22
-219.4084416421878
 32
0.0
 13
129.3761523120479
 23
-219.4084416421865
 33
0.0
  0
SOLID
  5
464
330
D
100
AcDbEntity
 67
     1
  8
LOGO
 62
     5
100
AcDbTrace
 10
139.2296582273258
 20
-208.2537397513355
 30
0.0
 11
142.4645217756732
 21
-208.2537397513355
 31
0.0
 12
139.2296582273258
 22
-191.8935103114223
 32
0.0
 13
142.4645217756732
 23
-180.0323439674845
 33
0.0
  0
SOLID
  5
465
330
D
100
AcDbEntity
 67
     1
  8
LOGO
 62
     5
100
AcDbTrace
 10
143.8030860025776
 20
-177.5783095514986
 30
0.0
 11
147.0379495509237
 21
-177.5783095514962
 31
0.0
 12
143.8030860025776
 22
-205.7997053353505
 32
0.0
 13
147.0379495509237
 23
-193.9385389914117
 33
0.0
  0
SOLID
  5
466
330
D
100
AcDbEntity
 67
     1
  8
LOGO
 62
     2
100
AcDbTrace
 10
142.4645217756732
 20
-177.5783095514986
 30
0.0
 11
143.8030860025776
 21
-177.5783095514986
 31
0.0
 12
142.4645217756732
 22
-208.2537397513355
 32
0.0
 13
143.8030860025776
 23
-208.2537397513355
 33
0.0
  0
SOLID
  5
467
330
D
100
AcDbEntity
 67
     1
  8
LOGO
 62
     5
100
AcDbTrace
 10
143.8030860025776
 20
-205.7997053353505
 30
0.0
 11
147.0379495509237
 21
-193.9385389914117
 31
0.0
 12
159.1965746119484
 22
-177.5783095514962
 32
0.0
 13
155.961711063603
 23
-177.5783095514962
 33
0.0
  0
SOLID
  5
468
330
D
100
AcDbEntity
 67
     1
  8
LOGO
 62
     5
100
AcDbTrace
 10
143.8030860025776
 20
-208.2537397513355
 30
0.0
 11
147.0379495509237
 21
-208.2537397513355
 31
0.0
 12
159.1965746119484
 22
-180.0323439674845
 32
0.0
 13
155.961711063603
 23
-191.8935103114223
 33
0.0
  0
SOLID
  5
469
330
D
100
AcDbEntity
 67
     1
  8
LOGO
 62
     2
100
AcDbTrace
 10
142.4645217756732
 20
-208.2537397513355
 30
0.0
 11
143.8030860025776
 21
-208.2537397513355
 31
0.0
 12
159.1965746119484
 22
-177.5783095514962
 32
0.0
 13
160.5351388388515
 23
-177.5783095514986
 33
0.0
  0
LWPOLYLINE
  5
46A
330
D
100
AcDbEntity
 67
     1
  8
LOGO
 62
     4
100
AcDbPolyline
 90
        4
 70
     1
 43
0.0
 10
114.7352868659394
 20
-175.8010740587619
 10
1010.088692216182
 20
-175.8010740587619
 10
1010.088692216182
 20
-250.6174446994476
 10
114.7352868659394
 20
-250.6174446994476
1001
GENIUS_GENREC_14
1002
{
1000
PYDIR
1011
114.7352868659394
1021
-250.6174446994476
1031
0.0
1002
}
1002
{
1000
PXDIR
1011
1010.088692216182
1021
-175.8010740587619
1031
0.0
1002
}
1002
{
1000
PORI
1011
114.7352868659394
1021
-175.8010740587619
1031
0.0
1002
}
1002
{
1000
PINS
1011
114.7352868659394
1021
-175.8010740587619
1031
0.0
1002
}
1002
{
1000
PINS2
1011
1010.088692216182
1021
-250.6174446994476
1031
0.0
1002
}
1002
{
1000
C
1070
     1
1002
}
1001
GENIUS_GENOBJ-N-REC_13
1002
{
1000
OWNER
1000
GEN
1002
}
1001
GENIUS_GENODEF_13
1002
{
1000
HIER
1070
     0
1002
}
1002
{
1000
MANEDIT
1070
     0
1002
}
1002
{
1000
NOSEL
1070
     0
1002
}
1002
{
1000
BEHIND
1070
     0
1002
}
1002
{
1000
OTHER
1070
     0
1002
}
1002
{
1000
REACTOR
1002
}
  0
TEXT
  5
46B
330
D
100
AcDbEntity
 67
     1
  8
LOGO
100
AcDbText
 10
283.9202138031263
 20
-246.6372433109108
 30
0.0
 40
7.482720534915227
  1
10910201
 41
0.7
  7
CHINESET
 72
     1
 11
301.005759024516
 21
-246.6372433109108
 31
0.0
100
AcDbText
  0
LINE
  5
46C
330
D
100
AcDbEntity
 67
     1
  8
LOGO
 62
     4
100
AcDbLine
 10
324.2276254849323
 20
-235.6541705713082
 30
0.0
 11
324.2276254849377
 21
-250.6174446994464
 31
0.0
  0
LINE
  5
46D
330
D
100
AcDbEntity
 67
     1
  8
LOGO
 62
     4
100
AcDbLine
 10
324.2276254849323
 20
-235.6541705713082
 30
0.0
 11
279.331302275446
 21
-235.6541705713082
 31
0.0
  0
CIRCLE
  5
46E
330
D
100
AcDbEntity
 67
     1
  8
LOGO
  6
Continuous
100
AcDbCircle
 10
243.3069086608169
 20
-198.2299819745378
 30
0.0
 40
4.344014577283797
  0
CIRCLE
  5
46F
330
D
100
AcDbEntity
 67
     1
  8
LOGO
  6
Continuous
100
AcDbCircle
 10
243.3069086608169
 20
-198.2299819745378
 30
0.0
 40
2.545207988435316
  0
LINE
  5
470
330
D
100
AcDbEntity
 67
     1
  8
LOGO
100
AcDbLine
 10
270.6052003226026
 20
-202.573996551822
 30
0.0
 11
270.6052003226026
 21
-193.8859673972532
 31
0.0
  0
LINE
  5
471
330
D
100
AcDbEntity
 67
     1
  8
LOGO
100
AcDbLine
 10
256.9869639811514
 20
-200.7751899629728
 30
0.0
 11
256.9869639811514
 21
-195.6847739861018
 31
0.0
  0
LINE
  5
472
330
D
100
AcDbEntity
 67
     1
  8
LOGO
  6
Continuous
100
AcDbLine
 10
256.9869639811514
 20
-195.6847739861018
 30
0.0
 11
270.6052003226026
 21
-193.8859673972532
 31
0.0
  0
LINE
  5
473
330
D
100
AcDbEntity
 67
     1
  8
LOGO
  6
Continuous
100
AcDbLine
 10
256.9869639811514
 20
-200.7751899629728
 30
0.0
 11
270.6052003226026
 21
-202.573996551822
 31
0.0
  0
LINE
  5
474
330
D
100
AcDbEntity
 67
     1
  8
LOGO
  6
AM_ISO08W050x2
 48
0.3
100
AcDbLine
 10
237.3186195195326
 20
-198.2299819745378
 30
0.0
 11
249.2951978020959
 21
-198.2299819745378
 31
0.0
1001
GENIUS_GENOREF_13
1005
47A
  0
LINE
  5
475
330
D
100
AcDbEntity
 67
     1
  8
LOGO
  6
AM_ISO08W050x2
 48
0.3
100
AcDbLine
 10
243.3069086608169
 20
-204.2182711158189
 30
0.0
 11
243.3069086608169
 21
-192.2416928332556
 31
0.0
1001
GENIUS_GENOREF_13
1005
479
  0
LINE
  5
476
330
D
100
AcDbEntity
 67
     1
  8
LOGO
  6
CENTER
 48
0.5
100
AcDbLine
 10
255.8978835909445
 20
-198.2299819745378
 30
0.0
 11
271.9765126376806
 21
-198.2299819745378
 31
0.0
1001
GENIUS_GENOREF_13
1005
478
  0
LWPOLYLINE
  5
477
330
D
100
AcDbEntity
 67
     1
  8
LOGO
 62
     4
100
AcDbPolyline
 90
        4
 70
     1
 43
0.0
 10
1010.088692216182
 20
-175.8010740587619
 10
114.7352868659412
 20
-175.8010740587619
 10
114.7352868659412
 20
374.8094151255151
 10
1010.088692216182
 20
374.8094151255151
  0
POINT
  5
478
330
D
100
AcDbEntity
 67
     1
  8
0
 60
     1
100
AcDbPoint
 10
4062.213238213337
 20
-483.0058920557941
 30
0.0
1001
GENIUS_GENOBJ-N-CRS_13
1002
{
1000
OWNER
1000
GEN
1002
}
1001
GENIUS_GENOLIS_13
1002
{
1000
ENT
1005
0
1005
0
1005
0
1005
476
1002
}
1001
GENIUS_GENOENT_13
1002
{
1000
MYREF
1005
478
1002
}
1002
{
1000
GRP
1005
0
1002
}
1001
GENIUS_GENODEF_13
1002
{
1000
HIER
1070
    10
1002
}
1002
{
1000
MANEDIT
1070
     1
1002
}
1002
{
1000
NOSEL
1070
     0
1002
}
1002
{
1000
BEHIND
1070
     0
1002
}
1002
{
1000
OTHER
1070
     0
1002
}
1002
{
1000
REACTOR
1002
}
  0
POINT
  5
479
330
D
100
AcDbEntity
 67
     1
  8
0
 60
     1
100
AcDbPoint
 10
4050.888652990482
 20
-474.1303055771578
 30
0.0
1001
GENIUS_GENOBJ-N-CRS_13
1002
{
1000
OWNER
1000
GEN
1002
}
1001
GENIUS_GENOLIS_13
1002
{
1000
ENT
1005
0
1005
0
1005
0
1005
475
1002
}
1001
GENIUS_GENOENT_13
1002
{
1000
MYREF
1005
479
1002
}
1002
{
1000
GRP
1005
0
1002
}
1001
GENIUS_GENODEF_13
1002
{
1000
HIER
1070
    10
1002
}
1002
{
1000
MANEDIT
1070
     1
1002
}
1002
{
1000
NOSEL
1070
     0
1002
}
1002
{
1000
BEHIND
1070
     0
1002
}
1002
{
1000
OTHER
1070
     0
1002
}
1002
{
1000
REACTOR
1002
}
  0
POINT
  5
47A
330
D
100
AcDbEntity
 67
     1
  8
0
 60
     1
100
AcDbPoint
 10
4057.247326688319
 20
-483.0058920557941
 30
0.0
1001
GENIUS_GENOBJ-N-CRS_13
1002
{
1000
OWNER
1000
GEN
1002
}
1001
GENIUS_GENOLIS_13
1002
{
1000
ENT
1005
0
1005
0
1005
0
1005
474
1002
}
1001
GENIUS_GENOENT_13
1002
{
1000
MYREF
1005
47A
1002
}
1002
{
1000
GRP
1005
0
1002
}
1001
GENIUS_GENODEF_13
1002
{
1000
HIER
1070
    10
1002
}
1002
{
1000
MANEDIT
1070
     1
1002
}
1002
{
1000
NOSEL
1070
     0
1002
}
1002
{
1000
BEHIND
1070
     0
1002
}
1002
{
1000
OTHER
1070
     0
1002
}
1002
{
1000
REACTOR
1002
}
  0
LINE
  5
7FE
330
D
100
AcDbEntity
 67
     1
  8
SL
  6
ACISOTGB
100
AcDbLine
 10
462.3629061226611
 20
161.9860304606304
 30
0.0
 11
462.3629061226611
 21
317.5951799054979
 31
0.0
  0
INSERT
  5
7FF
330
D
100
AcDbEntity
 67
     1
  8
0
100
AcDbBlockReference
  2
A$C453B67D5
 10
461.1412374549006
 20
320.0697264732482
 30
0.0
 41
1.56
 42
1.56
 43
1.56
  0
INSERT
  5
800
330
D
100
AcDbEntity
 67
     1
  8
0
100
AcDbBlockReference
  2
A$C17481420
 10
462.3629067609699
 20
315.5797485077782
 30
0.0
 41
1.56
 42
1.56
 43
1.56
  0
LINE
  5
801
330
D
100
AcDbEntity
 67
     1
  8
SL
  6
ACISOTGB
100
AcDbLine
 10
462.3629061226609
 20
-56.79294619734401
 30
0.0
 11
462.3629061226609
 21
105.9848000528751
 31
0.0
  0
INSERT
  5
802
330
D
100
AcDbEntity
 67
     1
  8
0
100
AcDbBlockReference
  2
A$C17481420
 10
462.3629069082717
 20
101.2379953341012
 30
0.0
 41
1.919999999999999
 42
1.919999999999999
 43
1.919999999999999
  0
LINE
  5
1533
330
D
100
AcDbEntity
 67
     1
  8
AM_7
  6
ByBlock
100
AcDbLine
 10
577.6376797581603
 20
19.24270310045165
 30
0.0
 11
777.1376797581603
 21
19.24270310045074
 31
0.0
  0
LINE
  5
1534
330
D
100
AcDbEntity
 67
     1
  8
AM_7
100
AcDbLine
 10
512.6376797581603
 20
3.242703100451649
 30
0.0
 11
512.6376797581603
 21
3.242703100451649
 31
0.0
  0
LINE
  5
1535
330
D
100
AcDbEntity
 67
     1
  8
AM_7
100
AcDbLine
 10
512.6376797581603
 20
3.242703100451649
 30
0.0
 11
512.6376797581603
 21
3.242703100451649
 31
0.0
  0
LINE
  5
1536
330
D
100
AcDbEntity
 67
     1
  8
AM_7
100
AcDbLine
 10
500.1376797581603
 20
3.242703100451649
 30
0.0
 11
512.6376797581603
 21
3.242703100451649
 31
0.0
  0
LINE
  5
1537
330
D
100
AcDbEntity
 67
     1
  8
AM_7
100
AcDbLine
 10
512.6376797581603
 20
3.242703100451649
 30
0.0
 11
525.1376797581603
 21
3.242703100451649
 31
0.0
  0
LINE
  5
1538
330
D
100
AcDbEntity
 67
     1
  8
AM_7
100
AcDbLine
 10
512.6376797581603
 20
-9.25729689954835
 30
0.0
 11
512.6376797581603
 21
3.242703100451649
 31
0.0
  0
LINE
  5
1539
330
D
100
AcDbEntity
 67
     1
  8
AM_7
100
AcDbLine
 10
512.6376797581603
 20
3.242703100451649
 30
0.0
 11
512.6376797581603
 21
15.74270310045165
 31
0.0
  0
LINE
  5
153A
330
D
100
AcDbEntity
 67
     1
  8
AM_7
100
AcDbLine
 10
515.6376797581603
 20
30.24270310045165
 30
0.0
 11
515.6376797581603
 21
30.24270310045165
 31
0.0
  0
LINE
  5
153B
330
D
100
AcDbEntity
 67
     1
  8
AM_7
100
AcDbLine
 10
515.6376797581603
 20
30.24270310045165
 30
0.0
 11
515.6376797581603
 21
30.24270310045165
 31
0.0
  0
LINE
  5
153C
330
D
100
AcDbEntity
 67
     1
  8
AM_7
100
AcDbLine
 10
498.9376797581602
 20
30.24270310045165
 30
0.0
 11
515.6376797581603
 21
30.24270310045165
 31
0.0
  0
LINE
  5
153D
330
D
100
AcDbEntity
 67
     1
  8
AM_7
100
AcDbLine
 10
515.6376797581603
 20
30.24270310045165
 30
0.0
 11
532.3376797581602
 21
30.24270310045165
 31
0.0
  0
LINE
  5
153E
330
D
100
AcDbEntity
 67
     1
  8
AM_7
100
AcDbLine
 10
515.6376797581603
 20
13.5427031004516
 30
0.0
 11
515.6376797581603
 21
30.24270310045165
 31
0.0
  0
LINE
  5
153F
330
D
100
AcDbEntity
 67
     1
  8
AM_7
100
AcDbLine
 10
515.6376797581603
 20
30.24270310045165
 30
0.0
 11
515.6376797581603
 21
46.94270310045157
 31
0.0
  0
LINE
  5
1540
330
D
100
AcDbEntity
 67
     1
  8
AM_7
100
AcDbLine
 10
408.6376797581602
 20
3.242703100451649
 30
0.0
 11
408.6376797581602
 21
3.242703100451649
 31
0.0
  0
LINE
  5
1541
330
D
100
AcDbEntity
 67
     1
  8
AM_7
100
AcDbLine
 10
408.6376797581602
 20
3.242703100451649
 30
0.0
 11
408.6376797581602
 21
3.242703100451649
 31
0.0
  0
LINE
  5
1542
330
D
100
AcDbEntity
 67
     1
  8
AM_7
100
AcDbLine
 10
396.1376797581602
 20
3.242703100451649
 30
0.0
 11
408.6376797581602
 21
3.242703100451649
 31
0.0
  0
LINE
  5
1543
330
D
100
AcDbEntity
 67
     1
  8
AM_7
100
AcDbLine
 10
408.6376797581602
 20
3.242703100451649
 30
0.0
 11
421.1376797581602
 21
3.242703100451649
 31
0.0
  0
LINE
  5
1544
330
D
100
AcDbEntity
 67
     1
  8
AM_7
100
AcDbLine
 10
408.6376797581602
 20
-9.25729689954835
 30
0.0
 11
408.6376797581602
 21
3.242703100451649
 31
0.0
  0
LINE
  5
1545
330
D
100
AcDbEntity
 67
     1
  8
AM_7
100
AcDbLine
 10
408.6376797581602
 20
3.242703100451649
 30
0.0
 11
408.6376797581602
 21
15.74270310045165
 31
0.0
  0
LINE
  5
1546
330
D
100
AcDbEntity
 67
     1
  8
AM_7
100
AcDbLine
 10
405.6376797581601
 20
30.24270310045165
 30
0.0
 11
405.6376797581601
 21
30.24270310045165
 31
0.0
  0
LINE
  5
1547
330
D
100
AcDbEntity
 67
     1
  8
AM_7
100
AcDbLine
 10
405.6376797581601
 20
30.24270310045165
 30
0.0
 11
405.6376797581601
 21
30.24270310045165
 31
0.0
  0
LINE
  5
1548
330
D
100
AcDbEntity
 67
     1
  8
AM_7
100
AcDbLine
 10
388.9376797581602
 20
30.24270310045165
 30
0.0
 11
405.6376797581601
 21
30.24270310045165
 31
0.0
  0
LINE
  5
1549
330
D
100
AcDbEntity
 67
     1
  8
AM_7
100
AcDbLine
 10
405.6376797581601
 20
30.24270310045165
 30
0.0
 11
422.3376797581602
 21
30.24270310045165
 31
0.0
  0
LINE
  5
154A
330
D
100
AcDbEntity
 67
     1
  8
AM_7
100
AcDbLine
 10
405.6376797581601
 20
13.5427031004516
 30
0.0
 11
405.6376797581601
 21
30.24270310045165
 31
0.0
  0
LINE
  5
154B
330
D
100
AcDbEntity
 67
     1
  8
AM_7
100
AcDbLine
 10
405.6376797581601
 20
30.24270310045165
 30
0.0
 11
405.6376797581601
 21
46.94270310045157
 31
0.0
  0
LINE
  5
154C
330
D
100
AcDbEntity
 67
     1
  8
AM_7
100
AcDbLine
 10
503.6376797581603
 20
74.24270310045165
 30
0.0
 11
417.6376797581602
 21
74.24270310045165
 31
0.0
  0
LINE
  5
154D
330
D
100
AcDbEntity
 67
     1
  8
AM_7
100
AcDbLine
 10
503.6376797581603
 20
-35.75729689954835
 30
0.0
 11
417.6376797581602
 21
-35.75729689954835
 31
0.0
  0
LINE
  5
154E
330
D
100
AcDbEntity
 67
     1
  8
AM_7
100
AcDbLine
 10
503.6376797581603
 20
19.24270310045165
 30
0.0
 11
417.6376797581602
 21
19.24270310045165
 31
0.0
  0
LINE
  5
154F
330
D
100
AcDbEntity
 67
     1
  8
AM_7
100
AcDbLine
 10
383.6376797581602
 20
19.24270310045165
 30
0.0
 11
373.6376797581602
 21
19.24270310045165
 31
0.0
  0
LINE
  5
1550
330
D
100
AcDbEntity
 67
     1
  8
AM_7
  6
ByBlock
100
AcDbLine
 10
577.638157627715
 20
234.1230254673472
 30
0.0
 11
777.1376797581603
 21
234.1230254673472
 31
0.0
  0
LINE
  5
1551
330
D
100
AcDbEntity
 67
     1
  8
AM_7
100
AcDbLine
 10
503.6376797581602
 20
179.1230254673471
 30
0.0
 11
417.6376797581601
 21
179.1230254673471
 31
0.0
  0
LINE
  5
1552
330
D
100
AcDbEntity
 67
     1
  8
AM_7
100
AcDbLine
 10
503.6376797581602
 20
289.1230254673471
 30
0.0
 11
417.6376797581601
 21
289.1230254673471
 31
0.0
  0
LINE
  5
1553
330
D
100
AcDbEntity
 67
     1
  8
AM_7
100
AcDbLine
 10
503.6376797581602
 20
234.1230254673472
 30
0.0
 11
417.6376797581601
 21
234.1230254673472
 31
0.0
  0
LINE
  5
1554
330
D
100
AcDbEntity
 67
     1
  8
AM_7
100
AcDbLine
 10
383.6376797581602
 20
234.1230254673472
 30
0.0
 11
373.6376797581602
 21
234.1230254673472
 31
0.0
  0
LINE
  5
1558
330
D
100
AcDbEntity
 67
     1
  8
AM_7
100
AcDbLine
 10
896.1789264192386
 20
19.24270310045165
 30
0.0
 11
896.1789264192386
 21
19.24270310045165
 31
0.0
  0
LINE
  5
1559
330
D
100
AcDbEntity
 67
     1
  8
AM_7
100
AcDbLine
 10
896.1789264192386
 20
19.24270310045165
 30
0.0
 11
896.1789264192386
 21
19.24270310045165
 31
0.0
  0
LINE
  5
155A
330
D
100
AcDbEntity
 67
     1
  8
AM_7
100
AcDbLine
 10
879.6789264192387
 20
19.24270310045165
 30
0.0
 11
896.1789264192386
 21
19.24270310045165
 31
0.0
  0
LINE
  5
155B
330
D
100
AcDbEntity
 67
     1
  8
AM_7
100
AcDbLine
 10
896.1789264192386
 20
19.24270310045165
 30
0.0
 11
912.6789264192387
 21
19.24270310045165
 31
0.0
  0
LINE
  5
155C
330
D
100
AcDbEntity
 67
     1
  8
AM_7
100
AcDbLine
 10
896.1789264192386
 20
2.742703100451649
 30
0.0
 11
896.1789264192386
 21
19.24270310045165
 31
0.0
  0
LINE
  5
155D
330
D
100
AcDbEntity
 67
     1
  8
AM_7
100
AcDbLine
 10
896.1789264192386
 20
19.24270310045165
 30
0.0
 11
896.1789264192386
 21
35.74270310045165
 31
0.0
  0
LINE
  5
155E
330
D
100
AcDbEntity
 67
     1
  8
AM_VIS
100
AcDbLine
 10
585.6367240190506
 20
81.59653217293259
 30
0.0
 11
680.6376797581602
 21
81.59653217293259
 31
0.0
  0
LINE
  5
155F
330
D
100
AcDbEntity
 67
     1
  8
AM_VIS
100
AcDbLine
 10
585.6367240190506
 20
-43.11112597202679
 30
0.0
 11
680.6376797581602
 21
-43.11112597202679
 31
0.0
  0
LINE
  5
1560
330
D
100
AcDbEntity
 67
     1
  8
AM_VIS
100
AcDbLine
 10
540.6376797581603
 20
-49.75729689954778
 30
0.0
 11
560.6372018886054
 21
-49.75729689954778
 31
0.0
  0
LINE
  5
1561
330
D
100
AcDbEntity
 67
     1
  8
AM_VIS
100
AcDbLine
 10
540.6376797581603
 20
-43.11112597202679
 30
0.0
 11
560.6372018886054
 21
-43.11112597202679
 31
0.0
  0
LINE
  5
1562
330
D
100
AcDbEntity
 67
     1
  8
AM_VIS
100
AcDbLine
 10
540.6376797581603
 20
81.59653217293259
 30
0.0
 11
560.6372018886054
 21
81.59653217293259
 31
0.0
  0
LINE
  5
1563
330
D
100
AcDbEntity
 67
     1
  8
AM_VIS
100
AcDbLine
 10
540.6376797581603
 20
88.24270310045255
 30
0.0
 11
560.6372018886054
 21
88.24270310045255
 31
0.0
  0
LINE
  5
1564
330
D
100
AcDbEntity
 67
     1
  8
AM_VIS
100
AcDbLine
 10
560.6372018886054
 20
-43.11112597202679
 30
0.0
 11
560.6372018886054
 21
81.59653217293259
 31
0.0
  0
LINE
  5
1566
330
D
100
AcDbEntity
 67
     1
  8
AM_VIS
100
AcDbLine
 10
680.6376797581602
 20
-43.11112597202679
 30
0.0
 11
680.6376797581602
 21
81.59653217293259
 31
0.0
  0
LINE
  5
1567
330
D
100
AcDbEntity
 67
     1
  8
AM_VIS
100
AcDbLine
 10
540.6376797581603
 20
81.59653217293259
 30
0.0
 11
540.6376797581603
 21
-43.11112597202679
 31
0.0
  0
LINE
  5
1568
330
D
100
AcDbEntity
 67
     1
  8
AM_VIS
100
AcDbLine
 10
585.6376797581602
 20
88.24270310045255
 30
0.0
 11
680.6376797581602
 21
88.24270310045255
 31
0.0
  0
LINE
  5
1569
330
D
100
AcDbEntity
 67
     1
  8
AM_VIS
100
AcDbLine
 10
585.6376797581602
 20
-49.75729689954778
 30
0.0
 11
680.6376797581602
 21
-49.75729689954778
 31
0.0
  0
LINE
  5
156A
330
D
100
AcDbEntity
 67
     1
  8
AM_VIS
100
AcDbLine
 10
560.6372018886054
 20
80.92089829523615
 30
0.0
 11
585.6376797581602
 21
80.92089829523615
 31
0.0
  0
LINE
  5
156B
330
D
100
AcDbEntity
 67
     1
  8
AM_VIS
100
AcDbLine
 10
680.6376797581602
 20
49.24270310045256
 30
0.0
 11
696.6376797581602
 21
49.24270310045165
 31
0.0
  0
LINE
  5
156C
330
D
100
AcDbEntity
 67
     1
  8
AM_VIS
100
AcDbLine
 10
680.6376797581602
 20
-10.75729689954744
 30
0.0
 11
696.6376797581602
 21
-10.75729689954835
 31
0.0
  0
LINE
  5
156D
330
D
100
AcDbEntity
 67
     1
  8
AM_VIS
100
AcDbLine
 10
560.6372018886054
 20
-42.43549209433104
 30
0.0
 11
585.6376797581602
 21
-42.43549209433104
 31
0.0
  0
LINE
  5
156E
330
D
100
AcDbEntity
 67
     1
  8
AM_VIS
100
AcDbLine
 10
560.6372018886054
 20
-43.11112597202691
 30
0.0
 11
560.6372018886054
 21
-49.75729689954778
 31
0.0
  0
LINE
  5
156F
330
D
100
AcDbEntity
 67
     1
  8
AM_VIS
100
AcDbLine
 10
560.6372018886054
 20
88.24270310045267
 30
0.0
 11
560.6372018886054
 21
81.59653217293271
 31
0.0
  0
LINE
  5
1572
330
D
100
AcDbEntity
 67
     1
  8
AM_VIS
100
AcDbLine
 10
680.6376797581602
 20
-43.11112597202691
 30
0.0
 11
680.6376797581602
 21
-49.75729689954778
 31
0.0
  0
LINE
  5
1573
330
D
100
AcDbEntity
 67
     1
  8
AM_VIS
100
AcDbLine
 10
680.6376797581602
 20
88.24270310045267
 30
0.0
 11
680.6376797581602
 21
81.59653217293271
 31
0.0
  0
LINE
  5
1574
330
D
100
AcDbEntity
 67
     1
  8
AM_VIS
100
AcDbLine
 10
696.6376797581602
 20
19.24270310045165
 30
0.0
 11
696.6376797581602
 21
49.24270310045165
 31
0.0
  0
LINE
  5
1575
330
D
100
AcDbEntity
 67
     1
  8
AM_VIS
100
AcDbLine
 10
540.6376797581603
 20
81.59653217293271
 30
0.0
 11
540.6376797581603
 21
88.24270310045267
 31
0.0
  0
LINE
  5
1576
330
D
100
AcDbEntity
 67
     1
  8
AM_VIS
100
AcDbLine
 10
540.6376797581603
 20
-49.75729689954767
 30
0.0
 11
540.6376797581603
 21
-43.11112597202691
 31
0.0
  0
ARC
  5
1577
330
D
100
AcDbEntity
 67
     1
  8
AM_VIS
100
AcDbCircle
 10
596.1367240190505
 20
-27.1111259720268
 30
0.0
 40
6.149999999999997
100
AcDbArc
 50
180.0
 51
0.0
  0
ARC
  5
1578
330
D
100
AcDbEntity
 67
     1
  8
AM_VIS
100
AcDbCircle
 10
626.6367240190507
 20
19.23887402797322
 30
0.0
 40
39.5
100
AcDbArc
 50
180.0
 51
0.0
  0
ARC
  5
1579
330
D
100
AcDbEntity
 67
     1
  8
AM_VIS
100
AcDbCircle
 10
626.6367240190507
 20
19.23887402797322
 30
0.0
 40
39.5
100
AcDbArc
 50
0.0
 51
180.0
  0
ARC
  5
157A
330
D
100
AcDbEntity
 67
     1
  8
AM_VIS
100
AcDbCircle
 10
596.1367240190505
 20
-27.1111259720268
 30
0.0
 40
6.149999999999997
100
AcDbArc
 50
0.0
 51
180.0
  0
LINE
  5
157B
330
D
100
AcDbEntity
 67
     1
  8
AM_VIS
100
AcDbLine
 10
696.6376797581602
 20
-10.75729689954835
 30
0.0
 11
696.6376797581602
 21
19.24270310045165
 31
0.0
  0
ARC
  5
157C
330
D
100
AcDbEntity
 67
     1
  8
AM_VIS
100
AcDbCircle
 10
626.6367240190505
 20
19.23887402797447
 30
0.0
 40
39.24999999999985
100
AcDbArc
 50
90.0
 51
270.0
  0
ARC
  5
157D
330
D
100
AcDbEntity
 67
     1
  8
AM_VIS
100
AcDbCircle
 10
592.1367240190505
 20
19.23887402797447
 30
0.0
 40
4.350000000000001
100
AcDbArc
 50
0.0
 51
180.0
  0
ARC
  5
157E
330
D
100
AcDbEntity
 67
     1
  8
AM_VIS
100
AcDbCircle
 10
661.1367240190506
 20
19.23887402797447
 30
0.0
 40
4.350000000000001
100
AcDbArc
 50
0.0
 51
180.0
  0
ARC
  5
157F
330
D
100
AcDbEntity
 67
     1
  8
AM_VIS
100
AcDbCircle
 10
661.1367240190506
 20
19.23887402797447
 30
0.0
 40
4.350000000000001
100
AcDbArc
 50
180.0
 51
0.0
  0
ARC
  5
1580
330
D
100
AcDbEntity
 67
     1
  8
AM_VIS
100
AcDbCircle
 10
592.1367240190505
 20
19.23887402797447
 30
0.0
 40
4.350000000000001
100
AcDbArc
 50
180.0
 51
0.0
  0
ARC
  5
1581
330
D
100
AcDbEntity
 67
     1
  8
AM_VIS
100
AcDbCircle
 10
626.6367240190505
 20
19.23887402797447
 30
0.0
 40
39.24999999999985
100
AcDbArc
 50
270.0
 51
90.0
  0
LINE
  5
1582
330
D
100
AcDbEntity
 67
     1
  8
AM_VIS
100
AcDbLine
 10
696.6376797581607
 20
0.6934998067579273
 30
0.0
 11
699.6376797581602
 21
2.242703100452217
 31
0.0
  0
LINE
  5
1583
330
D
100
AcDbEntity
 67
     1
  8
AM_VIS
100
AcDbLine
 10
696.6376797581606
 20
37.79190639414628
 30
0.0
 11
699.6376797581602
 21
36.24270310045199
 31
0.0
  0
LINE
  5
1584
330
D
100
AcDbEntity
 67
     1
  8
AM_VIS
100
AcDbLine
 10
699.6376797581602
 20
36.24270310045199
 30
0.0
 11
699.6376797581602
 21
2.242703100452217
 31
0.0
  0
LINE
  5
1585
330
D
100
AcDbEntity
 67
     1
  8
AM_VIS
100
AcDbLine
 10
659.8867240190505
 20
18.51643782836811
 30
0.0
 11
661.1367240190506
 21
17.79512402797331
 31
0.0
  0
LINE
  5
1586
330
D
100
AcDbEntity
 67
     1
  8
AM_VIS
100
AcDbLine
 10
661.1367240190506
 20
17.79512402797331
 30
0.0
 11
662.3867240190506
 21
18.51643782836811
 31
0.0
  0
LINE
  5
1587
330
D
100
AcDbEntity
 67
     1
  8
AM_VIS
100
AcDbLine
 10
662.3867240190506
 20
18.51643782836811
 30
0.0
 11
662.3867240190506
 21
19.96131022757856
 31
0.0
  0
LINE
  5
1588
330
D
100
AcDbEntity
 67
     1
  8
AM_VIS
100
AcDbLine
 10
662.3867240190506
 20
19.96131022757856
 30
0.0
 11
661.1367240190506
 21
20.68262402797336
 31
0.0
  0
LINE
  5
1589
330
D
100
AcDbEntity
 67
     1
  8
AM_VIS
100
AcDbLine
 10
661.1367240190506
 20
20.68262402797336
 30
0.0
 11
659.8867240190505
 21
19.96131022757856
 31
0.0
  0
LINE
  5
158A
330
D
100
AcDbEntity
 67
     1
  8
AM_VIS
100
AcDbLine
 10
659.8867240190505
 20
19.96131022757856
 30
0.0
 11
659.8867240190505
 21
18.51643782836811
 31
0.0
  0
ARC
  5
158B
330
D
100
AcDbEntity
 67
     1
  8
AM_VIS
100
AcDbCircle
 10
661.1367240190506
 20
19.23887402797334
 30
0.0
 40
3.819999999999993
100
AcDbArc
 50
180.0
 51
0.0
  0
ARC
  5
158C
330
D
100
AcDbEntity
 67
     1
  8
AM_VIS
100
AcDbCircle
 10
661.1367240190506
 20
19.23887402797334
 30
0.0
 40
3.819999999999993
100
AcDbArc
 50
0.0
 51
180.0
  0
LINE
  5
158D
330
D
100
AcDbEntity
 67
     1
  8
AM_VIS
100
AcDbLine
 10
590.8867240190505
 20
18.51643782836811
 30
0.0
 11
592.1367240190505
 21
17.79512402797331
 31
0.0
  0
LINE
  5
158E
330
D
100
AcDbEntity
 67
     1
  8
AM_VIS
100
AcDbLine
 10
592.1367240190505
 20
17.79512402797331
 30
0.0
 11
593.3867240190505
 21
18.51643782836811
 31
0.0
  0
LINE
  5
158F
330
D
100
AcDbEntity
 67
     1
  8
AM_VIS
100
AcDbLine
 10
593.3867240190505
 20
18.51643782836811
 30
0.0
 11
593.3867240190505
 21
19.96131022757856
 31
0.0
  0
LINE
  5
1590
330
D
100
AcDbEntity
 67
     1
  8
AM_VIS
100
AcDbLine
 10
593.3867240190505
 20
19.96131022757856
 30
0.0
 11
592.1367240190505
 21
20.68262402797336
 31
0.0
  0
LINE
  5
1591
330
D
100
AcDbEntity
 67
     1
  8
AM_VIS
100
AcDbLine
 10
592.1367240190505
 20
20.68262402797336
 30
0.0
 11
590.8867240190505
 21
19.96131022757856
 31
0.0
  0
LINE
  5
1592
330
D
100
AcDbEntity
 67
     1
  8
AM_VIS
100
AcDbLine
 10
590.8867240190505
 20
19.96131022757856
 30
0.0
 11
590.8867240190505
 21
18.51643782836811
 31
0.0
  0
ARC
  5
1593
330
D
100
AcDbEntity
 67
     1
  8
AM_VIS
100
AcDbCircle
 10
592.1367240190505
 20
19.23887402797334
 30
0.0
 40
3.819999999999993
100
AcDbArc
 50
180.0
 51
0.0
  0
ARC
  5
1594
330
D
100
AcDbEntity
 67
     1
  8
AM_VIS
100
AcDbCircle
 10
592.1367240190505
 20
19.23887402797334
 30
0.0
 40
3.819999999999993
100
AcDbArc
 50
0.0
 51
180.0
  0
LINE
  5
1595
330
D
100
AcDbEntity
 67
     1
  8
AM_VIS
100
AcDbLine
 10
525.6376797581602
 20
88.36968386315788
 30
0.0
 11
525.6376797581602
 21
76.37699393892876
 31
0.0
  0
LINE
  5
1596
330
D
100
AcDbEntity
 67
     1
  8
AM_VIS
100
AcDbLine
 10
500.6376797581602
 20
77.25001317622252
 30
0.0
 11
500.6376797581602
 21
89.24270310045164
 31
0.0
  0
LINE
  5
1597
330
D
100
AcDbEntity
 67
     1
  8
AM_VIS
100
AcDbLine
 10
500.6376797581602
 20
-50.75729689954835
 30
0.0
 11
500.6376797581602
 21
-38.76460697531923
 31
0.0
  0
LINE
  5
1598
330
D
100
AcDbEntity
 67
     1
  8
AM_VIS
100
AcDbLine
 10
525.6376797581602
 20
-37.89158773802558
 30
0.0
 11
525.6376797581602
 21
-49.8842776622547
 31
0.0
  0
LINE
  5
1599
330
D
100
AcDbEntity
 67
     1
  8
AM_VIS
100
AcDbLine
 10
525.6376797581602
 20
-13.25729689954835
 30
0.0
 11
540.6376797581603
 21
-13.25729689954835
 31
0.0
  0
LINE
  5
159A
330
D
100
AcDbEntity
 67
     1
  8
AM_VIS
100
AcDbLine
 10
500.6376797581602
 20
-50.75729689954835
 30
0.0
 11
525.6376797581602
 21
-49.8842776622547
 31
0.0
  0
LINE
  5
159B
330
D
100
AcDbEntity
 67
     1
  8
AM_VIS
100
AcDbLine
 10
525.6376797581602
 20
-49.8842776622547
 30
0.0
 11
533.3859140065275
 21
-49.61370336009941
 31
0.0
  0
LINE
  5
159C
330
D
100
AcDbEntity
 67
     1
  8
AM_VIS
100
AcDbLine
 10
540.3376797581602
 20
-49.37094235072596
 30
0.0
 11
540.6376797581603
 21
-49.36046611987842
 31
0.0
  0
LINE
  5
159D
330
D
100
AcDbEntity
 67
     1
  8
AM_VIS
100
AcDbLine
 10
525.6376797581602
 20
-1.25729689954835
 30
0.0
 11
525.6376797581602
 21
-37.89158773802558
 31
0.0
  0
LINE
  5
159E
330
D
100
AcDbEntity
 67
     1
  8
AM_VIS
100
AcDbLine
 10
500.6376797581602
 20
77.25001317622252
 30
0.0
 11
500.6376797581602
 21
-38.76460697531923
 31
0.0
  0
LINE
  5
159F
330
D
100
AcDbEntity
 67
     1
  8
AM_VIS
100
AcDbLine
 10
525.6376797581602
 20
76.37699393892887
 30
0.0
 11
525.6376797581602
 21
39.74270310045165
 31
0.0
  0
LINE
  5
15A0
330
D
100
AcDbEntity
 67
     1
  8
AM_VIS
100
AcDbLine
 10
540.6376797581603
 20
51.74270310045165
 30
0.0
 11
525.6376797581602
 21
51.74270310045165
 31
0.0
  0
LINE
  5
15A1
330
D
100
AcDbEntity
 67
     1
  8
AM_VIS
100
AcDbLine
 10
540.6376797581603
 20
87.84587232078171
 30
0.0
 11
525.6376797581602
 21
88.36968386315788
 31
0.0
  0
LINE
  5
15A2
330
D
100
AcDbEntity
 67
     1
  8
AM_VIS
100
AcDbLine
 10
525.6376797581602
 20
88.36968386315801
 30
0.0
 11
500.6376797581602
 21
89.24270310045164
 31
0.0
  0
LINE
  5
15A3
330
D
100
AcDbEntity
 67
     1
  8
AM_VIS
100
AcDbLine
 10
706.6376797581603
 20
35.24270310045074
 30
0.0
 11
708.6376797581602
 21
32.74270310045074
 31
0.0
  0
LINE
  5
15A4
330
D
100
AcDbEntity
 67
     1
  8
AM_VIS
100
AcDbLine
 10
719.6376797581603
 20
32.74270310045074
 30
0.0
 11
708.6376797581602
 21
32.74270310045074
 31
0.0
  0
LINE
  5
15A5
330
D
100
AcDbEntity
 67
     1
  8
AM_VIS
100
AcDbLine
 10
719.6376797581603
 20
32.74270310045074
 30
0.0
 11
721.6376797581602
 21
32.74270310045074
 31
0.0
  0
SPLINE
  5
15A6
330
D
100
AcDbEntity
 67
     1
  8
AM_VIS
100
AcDbSpline
210
0.0
220
0.0
230
1.0
 70
     8
 71
     3
 72
    28
 73
    24
 74
     0
 42
0.0000000001
 43
0.0000000001
 40
3.504426127835642
 40
3.504426127835642
 40
3.504426127835642
 40
3.504426127835642
 40
5.062990888107244
 40
5.062990888107244
 40
5.906822702791785
 40
5.906822702791785
 40
6.750654517476326
 40
6.750654517476326
 40
7.169121954678211
 40
7.169121954678211
 40
7.587589391880096
 40
7.587589391880096
 40
7.872913502628156
 40
7.872913502628156
 40
8.158237613376217
 40
8.158237613376217
 40
8.376333157015761
 40
8.376333157015761
 40
8.594428700655303
 40
8.594428700655303
 40
8.780095675644247
 40
8.780095675644247
 40
8.965762650633193
 40
8.965762650633193
 40
8.965762650633193
 40
8.965762650633193
 10
721.6376797581601
 20
15.53460385690278
 30
0.0
 10
721.6376797581601
 20
14.9749573109982
 30
0.0
 10
721.6215345178043
 20
14.42017093687491
 30
0.0
 10
721.5380729204451
 20
13.58989823279557
 30
0.0
 10
721.4976220720719
 20
13.30307454768422
 30
0.0
 10
721.3852832931804
 20
12.7425727993641
 30
0.0
 10
721.3136494114073
 20
12.46884384827945
 30
0.0
 10
721.1717907198397
 20
12.07271193899896
 30
0.0
 10
721.1139749993349
 20
11.93067494345246
 30
0.0
 10
720.9802490197441
 20
11.65575061014488
 30
0.0
 10
720.9041073242977
 20
11.52297590561602
 30
0.0
 10
720.7722161297643
 20
11.3289641768165
 30
0.0
 10
720.7090729176806
 20
11.24565947043811
 30
0.0
 10
720.570962589856
 20
11.08983817210037
 30
0.0
 10
720.4958616357271
 20
11.01744025751713
 30
0.0
 10
720.3657955681067
 20
10.91141263485451
 30
0.0
 10
720.3008358926506
 20
10.86495541643398
 30
0.0
 10
720.1638655934061
 20
10.78433982748947
 30
0.0
 10
720.0917937297872
 20
10.75028555202379
 30
0.0
 10
719.9655087385913
 20
10.70374634461359
 30
0.0
 10
719.9001800133596
 20
10.68509090222824
 30
0.0
 10
719.7672138713614
 20
10.66065729706952
 30
0.0
 10
719.6995687498233
 20
10.65492108179205
 30
0.0
 10
719.6376797581601
 20
10.65492108179205
 30
0.0
  0
LINE
  5
15A7
330
D
100
AcDbEntity
 67
     1
  8
AM_VIS
100
AcDbLine
 10
719.6376797581603
 20
10.65492108179194
 30
0.0
 11
708.6376797581602
 21
10.65492108179194
 31
0.0
  0
LINE
  5
15A8
330
D
100
AcDbEntity
 67
     1
  8
AM_VIS
100
AcDbLine
 10
708.6376797581602
 20
27.83048511910954
 30
0.0
 11
719.6376797581603
 21
27.83048511910954
 31
0.0
  0
SPLINE
  5
15A9
330
D
100
AcDbEntity
 67
     1
  8
AM_VIS
100
AcDbSpline
210
0.0
220
0.0
230
1.0
 70
     8
 71
     3
 72
    28
 73
    24
 74
     0
 42
0.0000000001
 43
0.0000000001
 40
-8.965762650633191
 40
-8.965762650633191
 40
-8.965762650633191
 40
-8.965762650633191
 40
-8.780095675644247
 40
-8.780095675644247
 40
-8.594428700655303
 40
-8.594428700655303
 40
-8.376333157015757
 40
-8.376333157015757
 40
-8.158237613376215
 40
-8.158237613376215
 40
-7.872913502628154
 40
-7.872913502628154
 40
-7.587589391880094
 40
-7.587589391880094
 40
-7.16912195467821
 40
-7.16912195467821
 40
-6.750654517476323
 40
-6.750654517476323
 40
-5.906822702791785
 40
-5.906822702791785
 40
-5.062990888107243
 40
-5.062990888107243
 40
-3.504426127835641
 40
-3.504426127835641
 40
-3.504426127835641
 40
-3.504426127835641
 10
719.6376797581601
 20
27.83048511910966
 30
0.0
 10
719.6995687498233
 20
27.83048511910966
 30
0.0
 10
719.7672138713612
 20
27.82474890383173
 30
0.0
 10
719.9001800133594
 20
27.80031529867347
 30
0.0
 10
719.9655087385913
 20
27.78165985628766
 30
0.0
 10
720.0917937297872
 20
27.73512064887746
 30
0.0
 10
720.1638655934061
 20
27.70106637341223
 30
0.0
 10
720.3008358926506
 20
27.62045078446727
 30
0.0
 10
720.3657955681067
 20
27.57399356604697
 30
0.0
 10
720.4958616357271
 20
27.46796594338434
 30
0.0
 10
720.570962589856
 20
27.39556802880111
 30
0.0
 10
720.7090729176806
 20
27.23974673046337
 30
0.0
 10
720.7722161297643
 20
27.15644202408498
 30
0.0
 10
720.9041073242977
 20
26.96243029528546
 30
0.0
 10
720.9802490197441
 20
26.8296555907566
 30
0.0
 10
721.1139749993349
 20
26.55473125744902
 30
0.0
 10
721.1717907198397
 20
26.41269426190274
 30
0.0
 10
721.3136494114073
 20
26.01656235262203
 30
0.0
 10
721.3852832931804
 20
25.74283340153761
 30
0.0
 10
721.4976220720719
 20
25.18233165321726
 30
0.0
 10
721.5380729204451
 20
24.8955079681059
 30
0.0
 10
721.6215345178043
 20
24.06523526402657
 30
0.0
 10
721.6376797581601
 20
23.51044888990327
 30
0.0
 10
721.6376797581601
 20
22.95080234399847
 30
0.0
  0
LINE
  5
15AA
330
D
100
AcDbEntity
 67
     1
  8
AM_VIS
100
AcDbLine
 10
708.6376797581602
 20
10.65492108179194
 30
0.0
 11
708.6376797581602
 21
27.83048511910954
 31
0.0
  0
ELLIPSE
  5
15AB
330
D
100
AcDbEntity
 67
     1
  8
AM_VIS
100
AcDbEllipse
 10
719.4376797581603
 20
19.24270310045085
 30
0.0
 11
0.0
 21
15.99999999999997
 31
0.0
210
0.0
220
0.0
230
1.0
 40
0.8000000000000055
 41
1.004231996173819
 42
2.137360657415972
  0
LINE
  5
15AC
330
D
100
AcDbEntity
 67
     1
  8
AM_VIS
100
AcDbLine
 10
719.6376797581603
 20
5.742703100450739
 30
0.0
 11
721.6376797581602
 21
5.742703100450739
 31
0.0
  0
LINE
  5
15AD
330
D
100
AcDbEntity
 67
     1
  8
AM_VIS
100
AcDbLine
 10
708.6376797581602
 20
5.742703100450739
 30
0.0
 11
719.6376797581603
 21
5.742703100450739
 31
0.0
  0
LINE
  5
15AE
330
D
100
AcDbEntity
 67
     1
  8
AM_VIS
100
AcDbLine
 10
708.6376797581602
 20
5.742703100450739
 30
0.0
 11
706.6376797581603
 21
3.242703100450739
 31
0.0
  0
LINE
  5
15AF
330
D
100
AcDbEntity
 67
     1
  8
AM_VIS
100
AcDbLine
 10
395.6376797581603
 20
-37.89158773802546
 30
0.0
 11
395.6376797581603
 21
-1.25729689954835
 31
0.0
  0
LINE
  5
15B0
330
D
100
AcDbEntity
 67
     1
  8
AM_VIS
100
AcDbLine
 10
395.6376797581603
 20
51.74270310045165
 30
0.0
 11
380.6376797581603
 21
51.74270310045165
 31
0.0
  0
LINE
  5
15B1
330
D
100
AcDbEntity
 67
     1
  8
AM_VIS
100
AcDbLine
 10
395.6376797581603
 20
76.37699393892876
 30
0.0
 11
395.6376797581603
 21
88.36968386315788
 31
0.0
  0
LINE
  5
15B2
330
D
100
AcDbEntity
 67
     1
  8
AM_VIS
100
AcDbLine
 10
395.6376797581603
 20
39.74270310045165
 30
0.0
 11
395.6376797581603
 21
76.37699393892876
 31
0.0
  0
LINE
  5
15B3
330
D
100
AcDbEntity
 67
     1
  8
AM_VIS
100
AcDbLine
 10
420.6376797581603
 20
89.24270310045164
 30
0.0
 11
395.6376797581603
 21
88.36968386315801
 31
0.0
  0
LINE
  5
15B4
330
D
100
AcDbEntity
 67
     1
  8
AM_VIS
100
AcDbLine
 10
395.6376797581603
 20
88.36968386315801
 30
0.0
 11
380.6376797581603
 21
87.84587232078171
 31
0.0
  0
LINE
  5
15B5
330
D
100
AcDbEntity
 67
     1
  8
AM_VIS
100
AcDbLine
 10
380.6376797581603
 20
-37.35315158829258
 30
0.0
 11
380.6376797581603
 21
-25.25729689954835
 31
0.0
  0
LINE
  5
15B6
330
D
100
AcDbEntity
 67
     1
  8
AM_VIS
100
AcDbLine
 10
380.6376797581603
 20
-49.36046611987842
 30
0.0
 11
380.6376797581603
 21
-37.35315158829258
 31
0.0
  0
LINE
  5
15B7
330
D
100
AcDbEntity
 67
     1
  8
AM_VIS
100
AcDbLine
 10
380.6376797581603
 20
75.83855778919588
 30
0.0
 11
380.6376797581603
 21
87.84587232078171
 31
0.0
  0
LINE
  5
15B8
330
D
100
AcDbEntity
 67
     1
  8
AM_VIS
100
AcDbLine
 10
380.6376797581603
 20
63.74270310045165
 30
0.0
 11
380.6376797581603
 21
75.83855778919588
 31
0.0
  0
LINE
  5
15B9
330
D
100
AcDbEntity
 67
     1
  8
AM_VIS
100
AcDbLine
 10
380.6376797581603
 20
39.74270310045165
 30
0.0
 11
380.6376797581603
 21
51.74270310045165
 31
0.0
  0
LINE
  5
15BA
330
D
100
AcDbEntity
 67
     1
  8
AM_VIS
100
AcDbLine
 10
380.6376797581603
 20
39.74270310045165
 30
0.0
 11
380.6376797581603
 21
-1.25729689954835
 31
0.0
  0
LINE
  5
15BB
330
D
100
AcDbEntity
 67
     1
  8
AM_VIS
100
AcDbLine
 10
380.6376797581603
 20
-13.25729689954835
 30
0.0
 11
395.6376797581603
 21
-13.25729689954835
 31
0.0
  0
LINE
  5
15BC
330
D
100
AcDbEntity
 67
     1
  8
AM_VIS
100
AcDbLine
 10
380.6376797581603
 20
-13.25729689954835
 30
0.0
 11
380.6376797581603
 21
-1.25729689954835
 31
0.0
  0
LINE
  5
15BD
330
D
100
AcDbEntity
 67
     1
  8
AM_VIS
100
AcDbLine
 10
380.6376797581603
 20
-49.36046611987842
 30
0.0
 11
380.9376797581602
 21
-49.37094235072596
 31
0.0
  0
LINE
  5
15BE
330
D
100
AcDbEntity
 67
     1
  8
AM_VIS
100
AcDbLine
 10
387.889445509796
 20
-49.61370336009941
 30
0.0
 11
395.6376797581603
 21
-49.88427766225459
 31
0.0
  0
LINE
  5
15BF
330
D
100
AcDbEntity
 67
     1
  8
AM_VIS
100
AcDbLine
 10
420.6376797581603
 20
-38.76460697531923
 30
0.0
 11
420.6376797581603
 21
77.25001317622241
 31
0.0
  0
LINE
  5
15C0
330
D
100
AcDbEntity
 67
     1
  8
AM_VIS
100
AcDbLine
 10
420.6376797581603
 20
89.24270310045164
 30
0.0
 11
420.6376797581603
 21
77.25001317622252
 31
0.0
  0
LINE
  5
15C1
330
D
100
AcDbEntity
 67
     1
  8
AM_VIS
100
AcDbLine
 10
420.6376797581603
 20
-38.76460697531923
 30
0.0
 11
420.6376797581603
 21
-50.75729689954835
 31
0.0
  0
LINE
  5
15C2
330
D
100
AcDbEntity
 67
     1
  8
AM_VIS
100
AcDbLine
 10
395.6376797581603
 20
-49.8842776622547
 30
0.0
 11
420.6376797581603
 21
-50.75729689954835
 31
0.0
  0
LINE
  5
15C3
330
D
100
AcDbEntity
 67
     1
  8
AM_VIS
100
AcDbLine
 10
395.6376797581603
 20
-49.88427766225459
 30
0.0
 11
395.6376797581603
 21
-37.89158773802546
 31
0.0
  0
CIRCLE
  5
15C4
330
D
100
AcDbEntity
 67
     1
  8
AM_VIS
100
AcDbCircle
 10
512.6376797581603
 20
3.242703100451649
 30
0.0
 40
9.5
  0
CIRCLE
  5
15C5
330
D
100
AcDbEntity
 67
     1
  8
AM_VIS
100
AcDbCircle
 10
515.6376797581603
 20
30.24270310045165
 30
0.0
 40
13.7
  0
CIRCLE
  5
15C6
330
D
100
AcDbEntity
 67
     1
  8
AM_VIS
100
AcDbCircle
 10
408.6376797581602
 20
3.242703100451649
 30
0.0
 40
9.5
  0
CIRCLE
  5
15C7
330
D
100
AcDbEntity
 67
     1
  8
AM_VIS
100
AcDbCircle
 10
405.6376797581602
 20
30.24270310045165
 30
0.0
 40
13.7
  0
LINE
  5
15C8
330
D
100
AcDbEntity
 67
     1
  8
AM_VIS
100
AcDbLine
 10
721.6376797581602
 20
22.95080234399859
 30
0.0
 11
721.6376797581602
 21
19.24270310045074
 31
0.0
  0
LINE
  5
15C9
330
D
100
AcDbEntity
 67
     1
  8
AM_VIS
100
AcDbLine
 10
721.6376797581602
 20
19.24270310045074
 30
0.0
 11
721.6376797581602
 21
15.53460385690289
 31
0.0
  0
LINE
  5
15CA
330
D
100
AcDbEntity
 67
     1
  8
AM_VIS
100
AcDbLine
 10
755.6376797581602
 20
-4.428657936323929
 30
0.0
 11
742.1376797581602
 21
-4.428657936323929
 31
0.0
  0
LINE
  5
15CB
330
D
100
AcDbEntity
 67
     1
  8
AM_VIS
100
AcDbLine
 10
755.6376797581602
 20
7.407022582063405
 30
0.0
 11
742.1376797581602
 21
7.407022582063405
 31
0.0
  0
LINE
  5
15CC
330
D
100
AcDbEntity
 67
     1
  8
AM_VIS
100
AcDbLine
 10
755.6376797581602
 20
31.07838361883807
 30
0.0
 11
742.1376797581602
 21
31.07838361883807
 31
0.0
  0
LINE
  5
15CD
330
D
100
AcDbEntity
 67
     1
  8
AM_VIS
100
AcDbLine
 10
755.6376797581602
 20
42.9140641372254
 30
0.0
 11
742.1376797581602
 21
42.9140641372254
 31
0.0
  0
LINE
  5
15CE
330
D
100
AcDbEntity
 67
     1
  8
AM_VIS
100
AcDbLine
 10
755.6376797581602
 20
-4.428657936323929
 30
0.0
 11
755.6376797581602
 21
7.407022582063405
 31
0.0
  0
LINE
  5
15CF
330
D
100
AcDbEntity
 67
     1
  8
AM_VIS
100
AcDbLine
 10
755.6376797581602
 20
7.407022582063405
 30
0.0
 11
755.6376797581602
 21
31.07838361883807
 31
0.0
  0
LINE
  5
15D0
330
D
100
AcDbEntity
 67
     1
  8
AM_VIS
100
AcDbLine
 10
755.6376797581602
 20
31.07838361883807
 30
0.0
 11
755.6376797581602
 21
42.9140641372254
 31
0.0
  0
LINE
  5
15D1
330
D
100
AcDbEntity
 67
     1
  8
AM_VIS
100
AcDbLine
 10
742.1376797581602
 20
42.9140641372254
 30
0.0
 11
742.1376797581602
 21
31.07838361883807
 31
0.0
  0
LINE
  5
15D2
330
D
100
AcDbEntity
 67
     1
  8
AM_VIS
100
AcDbLine
 10
742.1376797581602
 20
31.07838361883807
 30
0.0
 11
742.1376797581602
 21
7.407022582063405
 31
0.0
  0
LINE
  5
15D3
330
D
100
AcDbEntity
 67
     1
  8
AM_VIS
100
AcDbLine
 10
742.1376797581602
 20
7.407022582063405
 30
0.0
 11
742.1376797581602
 21
-4.428657936323929
 31
0.0
  0
LINE
  5
15D4
330
D
100
AcDbEntity
 67
     1
  8
AM_VIS
100
AcDbLine
 10
525.6376797581602
 20
86.24270310045165
 30
0.0
 11
540.3376797581602
 21
86.24270310045165
 31
0.0
  0
LINE
  5
15D5
330
D
100
AcDbEntity
 67
     1
  8
AM_VIS
100
AcDbLine
 10
540.3376797581602
 20
74.24270310045165
 30
0.0
 11
540.3376797581602
 21
86.24270310045165
 31
0.0
  0
LINE
  5
15D6
330
D
100
AcDbEntity
 67
     1
  8
AM_VIS
100
AcDbLine
 10
525.6376797581602
 20
74.24270310045165
 30
0.0
 11
540.3376797581602
 21
74.24270310045165
 31
0.0
  0
LINE
  5
15D7
330
D
100
AcDbEntity
 67
     1
  8
AM_VIS
100
AcDbLine
 10
540.3376797581602
 20
62.24270310045165
 30
0.0
 11
540.3376797581602
 21
74.24270310045165
 31
0.0
  0
LINE
  5
15D8
330
D
100
AcDbEntity
 67
     1
  8
AM_VIS
100
AcDbLine
 10
525.6376797581602
 20
62.24270310045165
 30
0.0
 11
540.3376797581602
 21
62.24270310045165
 31
0.0
  0
LINE
  5
15D9
330
D
100
AcDbEntity
 67
     1
  8
AM_VIS
100
AcDbLine
 10
380.9376797581602
 20
74.24270310045165
 30
0.0
 11
380.9376797581602
 21
62.24270310045165
 31
0.0
  0
LINE
  5
15DA
330
D
100
AcDbEntity
 67
     1
  8
AM_VIS
100
AcDbLine
 10
395.6376797581603
 20
74.24270310045165
 30
0.0
 11
380.9376797581604
 21
74.24270310045165
 31
0.0
  0
LINE
  5
15DB
330
D
100
AcDbEntity
 67
     1
  8
AM_VIS
100
AcDbLine
 10
380.9376797581602
 20
86.24270310045165
 30
0.0
 11
380.9376797581602
 21
74.24270310045165
 31
0.0
  0
LINE
  5
15DC
330
D
100
AcDbEntity
 67
     1
  8
AM_VIS
100
AcDbLine
 10
395.6376797581603
 20
86.24270310045165
 30
0.0
 11
380.9376797581604
 21
86.24270310045165
 31
0.0
  0
LINE
  5
15DD
330
D
100
AcDbEntity
 67
     1
  8
AM_VIS
100
AcDbLine
 10
395.6376797581603
 20
62.24270310045165
 30
0.0
 11
380.9376797581604
 21
62.24270310045165
 31
0.0
  0
LINE
  5
15DE
330
D
100
AcDbEntity
 67
     1
  8
AM_VIS
100
AcDbLine
 10
525.6376797581602
 20
-21.9008904389973
 30
0.0
 11
540.3376797581602
 21
-21.9008904389973
 31
0.0
  0
LINE
  5
15DF
330
D
100
AcDbEntity
 67
     1
  8
AM_VIS
100
AcDbLine
 10
540.3376797581602
 20
-28.82909366927288
 30
0.0
 11
540.3376797581602
 21
-21.9008904389973
 31
0.0
  0
LINE
  5
15E0
330
D
100
AcDbEntity
 67
     1
  8
AM_VIS
100
AcDbLine
 10
525.6376797581602
 20
-28.82909366927288
 30
0.0
 11
540.3376797581602
 21
-28.82909366927288
 31
0.0
  0
LINE
  5
15E1
330
D
100
AcDbEntity
 67
     1
  8
AM_VIS
100
AcDbLine
 10
540.3376797581602
 20
-42.68550012982382
 30
0.0
 11
540.3376797581602
 21
-28.82909366927277
 31
0.0
  0
LINE
  5
15E2
330
D
100
AcDbEntity
 67
     1
  8
AM_VIS
100
AcDbLine
 10
525.6376797581602
 20
-42.68550012982382
 30
0.0
 11
540.3376797581602
 21
-42.68550012982382
 31
0.0
  0
LINE
  5
15E3
330
D
100
AcDbEntity
 67
     1
  8
AM_VIS
100
AcDbLine
 10
540.3376797581602
 20
-49.61370336009941
 30
0.0
 11
540.3376797581602
 21
-42.68550012982382
 31
0.0
  0
LINE
  5
15E4
330
D
100
AcDbEntity
 67
     1
  8
AM_VIS
100
AcDbLine
 10
525.6376797581602
 20
-49.61370336009941
 30
0.0
 11
540.3376797581602
 21
-49.61370336009941
 31
0.0
  0
LINE
  5
15E5
330
D
100
AcDbEntity
 67
     1
  8
AM_VIS
100
AcDbLine
 10
533.3859140065269
 20
88.09910956100271
 30
0.0
 11
540.3376797581602
 21
88.09910956100271
 31
0.0
  0
LINE
  5
15E6
330
D
100
AcDbEntity
 67
     1
  8
AM_VIS
100
AcDbLine
 10
540.3376797581602
 20
87.85634855162937
 30
0.0
 11
540.3376797581602
 21
88.09910956100271
 31
0.0
  0
LINE
  5
15E7
330
D
100
AcDbEntity
 67
     1
  8
AM_VIS
100
AcDbLine
 10
395.6376797581603
 20
-49.61370336009941
 30
0.0
 11
380.9376797581604
 21
-49.61370336009941
 31
0.0
  0
LINE
  5
15E8
330
D
100
AcDbEntity
 67
     1
  8
AM_VIS
100
AcDbLine
 10
380.9376797581602
 20
-42.68550012982382
 30
0.0
 11
380.9376797581602
 21
-49.61370336009929
 31
0.0
  0
LINE
  5
15E9
330
D
100
AcDbEntity
 67
     1
  8
AM_VIS
100
AcDbLine
 10
395.6376797581603
 20
-42.68550012982382
 30
0.0
 11
380.9376797581604
 21
-42.68550012982382
 31
0.0
  0
LINE
  5
15EA
330
D
100
AcDbEntity
 67
     1
  8
AM_VIS
100
AcDbLine
 10
380.9376797581602
 20
-28.82909366927277
 30
0.0
 11
380.9376797581602
 21
-42.68550012982382
 31
0.0
  0
LINE
  5
15EB
330
D
100
AcDbEntity
 67
     1
  8
AM_VIS
100
AcDbLine
 10
395.6376797581603
 20
-28.82909366927288
 30
0.0
 11
380.9376797581604
 21
-28.82909366927288
 31
0.0
  0
LINE
  5
15EC
330
D
100
AcDbEntity
 67
     1
  8
AM_VIS
100
AcDbLine
 10
380.9376797581602
 20
-21.90089043899741
 30
0.0
 11
380.9376797581602
 21
-28.82909366927288
 31
0.0
  0
LINE
  5
15ED
330
D
100
AcDbEntity
 67
     1
  8
AM_VIS
100
AcDbLine
 10
395.6376797581603
 20
-21.9008904389973
 30
0.0
 11
380.9376797581604
 21
-21.9008904389973
 31
0.0
  0
LINE
  5
15EE
330
D
100
AcDbEntity
 67
     1
  8
AM_VIS
100
AcDbLine
 10
380.9376797581602
 20
88.09910956100258
 30
0.0
 11
380.9376797581602
 21
87.85634855162925
 31
0.0
  0
LINE
  5
15EF
330
D
100
AcDbEntity
 67
     1
  8
AM_VIS
100
AcDbLine
 10
387.8894455097935
 20
88.09910956100271
 30
0.0
 11
380.9376797581602
 21
88.09910956100271
 31
0.0
  0
LINE
  5
15F0
330
D
100
AcDbEntity
 67
     1
  8
AM_VIS
100
AcDbLine
 10
500.6376797581602
 20
79.6777031004516
 30
0.0
 11
420.6376797581603
 21
79.6777031004516
 31
0.0
  0
LINE
  5
15F1
330
D
100
AcDbEntity
 67
     1
  8
AM_VIS
100
AcDbLine
 10
500.6376797581602
 20
68.8077031004517
 30
0.0
 11
420.6376797581603
 21
68.8077031004517
 31
0.0
  0
LINE
  5
15F2
330
D
100
AcDbEntity
 67
     1
  8
AM_VIS
100
AcDbLine
 10
500.6376797581602
 20
-30.32229689954841
 30
0.0
 11
420.6376797581603
 21
-30.32229689954841
 31
0.0
  0
LINE
  5
15F3
330
D
100
AcDbEntity
 67
     1
  8
AM_VIS
100
AcDbLine
 10
500.6376797581602
 20
-41.19229689954829
 30
0.0
 11
420.6376797581603
 21
-41.19229689954829
 31
0.0
  0
LINE
  5
15F4
330
D
100
AcDbEntity
 67
     1
  8
AM_VIS
100
AcDbLine
 10
500.6376797581602
 20
86.74270310045164
 30
0.0
 11
420.6376797581603
 21
86.74270310045164
 31
0.0
  0
LINE
  5
15F5
330
D
100
AcDbEntity
 67
     1
  8
AM_VIS
100
AcDbLine
 10
500.6376797581602
 20
-48.25729689954835
 30
0.0
 11
420.6376797581603
 21
-48.25729689954835
 31
0.0
  0
LINE
  5
15F6
330
D
100
AcDbEntity
 67
     1
  8
AM_VIS
100
AcDbLine
 10
699.6376797581602
 20
3.242703100450739
 30
0.0
 11
706.6376797581603
 21
3.242703100450739
 31
0.0
  0
LINE
  5
15F7
330
D
100
AcDbEntity
 67
     1
  8
AM_VIS
100
AcDbLine
 10
699.6376797581602
 20
35.24270310045074
 30
0.0
 11
706.6376797581603
 21
35.24270310045074
 31
0.0
  0
LINE
  5
15F8
330
D
100
AcDbEntity
 67
     1
  8
AM_VIS
100
AcDbLine
 10
380.6376797581603
 20
49.24270310045165
 30
0.0
 11
376.6376797581603
 21
49.24270310045165
 31
0.0
  0
LINE
  5
15F9
330
D
100
AcDbEntity
 67
     1
  8
AM_VIS
100
AcDbLine
 10
380.6376797581603
 20
-10.75729689954835
 30
0.0
 11
376.6376797581603
 21
-10.75729689954835
 31
0.0
  0
LINE
  5
15FA
330
D
100
AcDbEntity
 67
     1
  8
AM_VIS
100
AcDbLine
 10
374.6376797581603
 20
-8.75729689954835
 30
0.0
 11
376.6376797581603
 21
-10.75729689954835
 31
0.0
  0
LINE
  5
15FB
330
D
100
AcDbEntity
 67
     1
  8
AM_VIS
100
AcDbLine
 10
374.6376797581603
 20
47.24270310045165
 30
0.0
 11
376.6376797581603
 21
49.24270310045165
 31
0.0
  0
LINE
  5
15FC
330
D
100
AcDbEntity
 67
     1
  8
AM_VIS
100
AcDbLine
 10
721.6376797581602
 20
5.742703100450739
 30
0.0
 11
742.1376797581602
 21
5.742703100450739
 31
0.0
  0
LINE
  5
15FD
330
D
100
AcDbEntity
 67
     1
  8
AM_VIS
100
AcDbLine
 10
721.6376797581602
 20
32.74270310045074
 30
0.0
 11
742.1376797581602
 21
32.74270310045074
 31
0.0
  0
LINE
  5
15FE
330
D
100
AcDbEntity
 67
     1
  8
AM_VIS
100
AcDbLine
 10
755.6376797581602
 20
5.742703100450739
 30
0.0
 11
774.1376797581603
 21
5.742703100450739
 31
0.0
  0
LINE
  5
15FF
330
D
100
AcDbEntity
 67
     1
  8
AM_VIS
100
AcDbLine
 10
755.6376797581602
 20
32.74270310045074
 30
0.0
 11
774.1376797581603
 21
32.74270310045074
 31
0.0
  0
LINE
  5
1600
330
D
100
AcDbEntity
 67
     1
  8
AM_VIS
100
AcDbLine
 10
775.6376797581602
 20
31.24270310045074
 30
0.0
 11
774.1376797581603
 21
32.74270310045074
 31
0.0
  0
LINE
  5
1601
330
D
100
AcDbEntity
 67
     1
  8
AM_VIS
100
AcDbLine
 10
775.6376797581602
 20
7.242703100450739
 30
0.0
 11
774.1376797581603
 21
5.742703100450739
 31
0.0
  0
LINE
  5
1602
330
D
100
AcDbEntity
 67
     1
  8
AM_VIS
100
AcDbLine
 10
376.6376797581603
 20
49.24270310045165
 30
0.0
 11
376.6376797581603
 21
-10.75729689954835
 31
0.0
  0
LINE
  5
1603
330
D
100
AcDbEntity
 67
     1
  8
AM_VIS
100
AcDbLine
 10
374.6376797581603
 20
-8.75729689954835
 30
0.0
 11
374.6376797581603
 21
47.24270310045165
 31
0.0
  0
LINE
  5
1604
330
D
100
AcDbEntity
 67
     1
  8
AM_VIS
100
AcDbLine
 10
380.6376797581603
 20
-13.25729689954835
 30
0.0
 11
380.6376797581603
 21
-25.25729689954835
 31
0.0
  0
LINE
  5
1605
330
D
100
AcDbEntity
 67
     1
  8
AM_VIS
100
AcDbLine
 10
380.6376797581603
 20
63.74270310045165
 30
0.0
 11
380.6376797581603
 21
51.74270310045165
 31
0.0
  0
CIRCLE
  5
1606
330
D
100
AcDbEntity
 67
     1
  8
AM_VIS
100
AcDbCircle
 10
512.6376797581603
 20
3.242703100451649
 30
0.0
 40
7.5
  0
CIRCLE
  5
1607
330
D
100
AcDbEntity
 67
     1
  8
AM_VIS
100
AcDbCircle
 10
512.6376797581603
 20
3.242703100451649
 30
0.0
 40
8.5
  0
CIRCLE
  5
1608
330
D
100
AcDbEntity
 67
     1
  8
AM_VIS
100
AcDbCircle
 10
515.6376797581603
 20
30.24270310045165
 30
0.0
 40
9.25
  0
CIRCLE
  5
1609
330
D
100
AcDbEntity
 67
     1
  8
AM_VIS
100
AcDbCircle
 10
515.6376797581603
 20
30.24270310045165
 30
0.0
 40
10.9
  0
CIRCLE
  5
160A
330
D
100
AcDbEntity
 67
     1
  8
AM_VIS
100
AcDbCircle
 10
408.6376797581602
 20
3.242703100451649
 30
0.0
 40
7.5
  0
CIRCLE
  5
160B
330
D
100
AcDbEntity
 67
     1
  8
AM_VIS
100
AcDbCircle
 10
408.6376797581602
 20
3.242703100451649
 30
0.0
 40
8.5
  0
CIRCLE
  5
160C
330
D
100
AcDbEntity
 67
     1
  8
AM_VIS
100
AcDbCircle
 10
405.6376797581602
 20
30.24270310045165
 30
0.0
 40
9.25
  0
CIRCLE
  5
160D
330
D
100
AcDbEntity
 67
     1
  8
AM_VIS
100
AcDbCircle
 10
405.6376797581602
 20
30.24270310045165
 30
0.0
 40
10.9
  0
LINE
  5
160E
330
D
100
AcDbEntity
 67
     1
  8
AM_VIS
100
AcDbLine
 10
721.6376797581602
 20
32.74270310045074
 30
0.0
 11
721.6376797581602
 21
22.95080234399859
 31
0.0
  0
LINE
  5
160F
330
D
100
AcDbEntity
 67
     1
  8
AM_VIS
100
AcDbLine
 10
721.6376797581602
 20
15.53460385690289
 30
0.0
 11
721.6376797581602
 21
5.742703100450739
 31
0.0
  0
LINE
  5
1610
330
D
100
AcDbEntity
 67
     1
  8
AM_VIS
100
AcDbLine
 10
774.1376797581603
 20
5.742703100450739
 30
0.0
 11
774.1376797581603
 21
32.74270310045074
 31
0.0
  0
LINE
  5
1611
330
D
100
AcDbEntity
 67
     1
  8
AM_VIS
100
AcDbLine
 10
775.6376797581602
 20
31.24270310045074
 30
0.0
 11
775.6376797581602
 21
7.242703100450739
 31
0.0
  0
LINE
  5
1612
330
D
100
AcDbEntity
 67
     1
  8
AM_VIS
100
AcDbLine
 10
585.6372018886054
 20
165.1230254673476
 30
0.0
 11
680.6372018886054
 21
165.1230254673476
 31
0.0
  0
LINE
  5
1613
330
D
100
AcDbEntity
 67
     1
  8
AM_VIS
100
AcDbLine
 10
585.6376797581602
 20
303.1230254673471
 30
0.0
 11
680.6376797581602
 21
303.1230254673471
 31
0.0
  0
LINE
  5
1614
330
D
100
AcDbEntity
 67
     1
  8
AM_VIS
100
AcDbLine
 10
540.6376797581601
 20
303.1230254673471
 30
0.0
 11
560.6372018886054
 21
303.1230254673471
 31
0.0
  0
LINE
  5
1615
330
D
100
AcDbEntity
 67
     1
  8
AM_VIS
100
AcDbLine
 10
540.6376797581601
 20
165.1230254673476
 30
0.0
 11
560.6372018886054
 21
165.1230254673476
 31
0.0
  0
LINE
  5
1616
330
D
100
AcDbEntity
 67
     1
  8
AM_VIS
100
AcDbLine
 10
540.6376797581601
 20
171.7691963948673
 30
0.0
 11
560.6372018886054
 21
171.7691963948673
 31
0.0
  0
LINE
  5
1617
330
D
100
AcDbEntity
 67
     1
  8
AM_VIS
100
AcDbLine
 10
540.6376797581601
 20
296.4768545398274
 30
0.0
 11
560.6372018886054
 21
296.4768545398274
 31
0.0
  0
LINE
  5
1618
330
D
100
AcDbEntity
 67
     1
  8
AM_VIS
100
AcDbLine
 10
560.6372018886054
 20
171.7691963948673
 30
0.0
 11
560.6372018886054
 21
296.4768545398274
 31
0.0
  0
LINE
  5
1619
330
D
100
AcDbEntity
 67
     1
  8
AM_VIS
100
AcDbLine
 10
540.6376797581601
 20
296.4768545398274
 30
0.0
 11
540.6376797581601
 21
171.7691963948673
 31
0.0
  0
LINE
  5
161A
330
D
100
AcDbEntity
 67
     1
  8
AM_VIS
100
AcDbLine
 10
661.6312246202077
 20
216.1015810779115
 30
0.0
 11
661.6669025315307
 21
215.8888082418293
 31
0.0
  0
LINE
  5
161B
330
D
100
AcDbEntity
 67
     1
  8
AM_VIS
100
AcDbLine
 10
585.6376797581602
 20
171.7691963948673
 30
0.0
 11
680.6376797581602
 21
171.7691963948673
 31
0.0
  0
LINE
  5
161C
330
D
100
AcDbEntity
 67
     1
  8
AM_VIS
100
AcDbLine
 10
585.6376797581602
 20
296.4768545398274
 30
0.0
 11
585.6376797581602
 21
171.7691963948673
 31
0.0
  0
LINE
  5
161D
330
D
100
AcDbEntity
 67
     1
  8
AM_VIS
100
AcDbLine
 10
585.6376797581602
 20
296.4768545398274
 30
0.0
 11
680.6376797581602
 21
296.4768545398274
 31
0.0
  0
LINE
  5
161E
330
D
100
AcDbEntity
 67
     1
  8
AM_VIS
100
AcDbLine
 10
680.6376797581602
 20
171.7691963948673
 30
0.0
 11
680.6376797581602
 21
296.4768545398274
 31
0.0
  0
LINE
  5
161F
330
D
100
AcDbEntity
 67
     1
  8
AM_VIS
100
AcDbLine
 10
614.1170995318342
 20
176.9043511319819
 30
0.0
 11
614.3192051680568
 21
176.8288626899741
 31
0.0
  0
LINE
  5
1620
330
D
100
AcDbEntity
 67
     1
  8
AM_VIS
100
AcDbLine
 10
603.9640430946048
 20
237.4386326341105
 30
0.0
 11
604.130470821187
 21
237.5759170283234
 31
0.0
  0
LINE
  5
1621
330
D
100
AcDbEntity
 67
     1
  8
AM_VIS
100
AcDbLine
 10
614.1170995318342
 20
243.3416998027123
 30
0.0
 11
614.319205168057
 21
243.4171882447206
 31
0.0
  0
LINE
  5
1622
330
D
100
AcDbEntity
 67
     1
  8
AM_VIS
100
AcDbLine
 10
603.9640430946047
 20
182.807418300584
 30
0.0
 11
604.1304708211868
 21
182.6701339063713
 31
0.0
  0
LINE
  5
1623
330
D
100
AcDbEntity
 67
     1
  8
AM_VIS
100
AcDbLine
 10
661.6312246202077
 20
204.1444698567827
 30
0.0
 11
661.6669025315307
 21
204.3572426928642
 31
0.0
  0
LINE
  5
1624
330
D
100
AcDbEntity
 67
     1
  8
AM_VIS
100
AcDbLine
 10
680.6376797581602
 20
264.1230254673471
 30
0.0
 11
696.6376797581602
 21
264.1230254673471
 31
0.0
  0
LINE
  5
1625
330
D
100
AcDbEntity
 67
     1
  8
AM_VIS
100
AcDbLine
 10
680.6376797581602
 20
204.1230254673471
 30
0.0
 11
696.6376797581602
 21
204.1230254673471
 31
0.0
  0
LINE
  5
1626
330
D
100
AcDbEntity
 67
     1
  8
AM_VIS
100
AcDbLine
 10
560.6372018886054
 20
295.8012206621308
 30
0.0
 11
585.6376797581602
 21
295.8012206621308
 31
0.0
  0
LINE
  5
1627
330
D
100
AcDbEntity
 67
     1
  8
AM_VIS
100
AcDbLine
 10
560.6372018886054
 20
172.4448302725634
 30
0.0
 11
585.6376797581602
 21
172.4448302725634
 31
0.0
  0
LINE
  5
1628
330
D
100
AcDbEntity
 67
     1
  8
AM_VIS
100
AcDbLine
 10
560.6372018886054
 20
171.7691963948673
 30
0.0
 11
560.6372018886054
 21
165.1230254673473
 31
0.0
  0
LINE
  5
1629
330
D
100
AcDbEntity
 67
     1
  8
AM_VIS
100
AcDbLine
 10
560.6372018886054
 20
303.1230254673471
 30
0.0
 11
560.6372018886054
 21
296.4768545398272
 31
0.0
  0
LINE
  5
162A
330
D
100
AcDbEntity
 67
     1
  8
AM_VIS
100
AcDbLine
 10
585.6376797581602
 20
296.4768545398272
 30
0.0
 11
585.6376797581602
 21
303.1230254673471
 31
0.0
  0
LINE
  5
162B
330
D
100
AcDbEntity
 67
     1
  8
AM_VIS
100
AcDbLine
 10
585.6372018886054
 20
165.1230254673473
 30
0.0
 11
585.6376797581602
 21
171.7691963948673
 31
0.0
  0
LINE
  5
162C
330
D
100
AcDbEntity
 67
     1
  8
AM_VIS
100
AcDbLine
 10
680.6376797581602
 20
171.7691963948673
 30
0.0
 11
680.6372018886054
 21
165.1230254673473
 31
0.0
  0
LINE
  5
162D
330
D
100
AcDbEntity
 67
     1
  8
AM_VIS
100
AcDbLine
 10
680.6376797581602
 20
303.1230254673471
 30
0.0
 11
680.6376797581602
 21
296.4768545398272
 31
0.0
  0
LINE
  5
162E
330
D
100
AcDbEntity
 67
     1
  8
AM_VIS
100
AcDbLine
 10
696.6376797581602
 20
204.1230254673471
 30
0.0
 11
696.6376797581602
 21
264.1230254673471
 31
0.0
  0
LINE
  5
162F
330
D
100
AcDbEntity
 67
     1
  8
AM_VIS
100
AcDbLine
 10
540.6376797581601
 20
296.4768545398272
 30
0.0
 11
540.6376797581601
 21
303.1230254673471
 31
0.0
  0
LINE
  5
1630
330
D
100
AcDbEntity
 67
     1
  8
AM_VIS
100
AcDbLine
 10
540.6376797581601
 20
165.1230254673473
 30
0.0
 11
540.6376797581601
 21
171.7691963948673
 31
0.0
  0
ARC
  5
1631
330
D
100
AcDbEntity
 67
     1
  8
AM_VIS
100
AcDbCircle
 10
626.638157627715
 20
210.1230254673471
 30
0.0
 40
35.5
100
AcDbArc
 50
129.6953569583221
 51
230.3046430416779
  0
ARC
  5
1632
330
D
100
AcDbEntity
 67
     1
  8
AM_VIS
100
AcDbCircle
 10
626.638157627715
 20
210.1230254673471
 30
0.0
 40
35.5
100
AcDbArc
 50
249.6953569583213
 51
350.3046430416788
  0
ARC
  5
1633
330
D
100
AcDbEntity
 67
     1
  8
AM_VIS
100
AcDbCircle
 10
662.138157627715
 20
210.1230254673471
 30
0.0
 40
6.000000000000042
100
AcDbArc
 50
0.0
 51
94.84767847916069
  0
ARC
  5
1634
330
D
100
AcDbEntity
 67
     1
  8
AM_VIS
100
AcDbCircle
 10
626.638157627715
 20
210.1230254673471
 30
0.0
 40
35.5
100
AcDbArc
 50
9.695356958321172
 51
110.3046430416756
  0
ARC
  5
1635
330
D
100
AcDbEntity
 67
     1
  8
AM_VIS
100
AcDbCircle
 10
608.888157627715
 20
179.3791236329998
 30
0.0
 40
6.000000000000007
100
AcDbArc
 50
239.9999999999995
 51
334.8476784791608
  0
ARC
  5
1636
330
D
100
AcDbEntity
 67
     1
  8
AM_VIS
100
AcDbCircle
 10
608.888157627715
 20
240.8669273016951
 30
0.0
 40
6.000000000000014
100
AcDbArc
 50
120.0000000000005
 51
214.8476784791605
  0
ARC
  5
1637
330
D
100
AcDbEntity
 67
     1
  8
AM_VIS
100
AcDbCircle
 10
608.888157627715
 20
240.8669273016951
 30
0.0
 40
6.000000000000014
100
AcDbArc
 50
25.15232152083784
 51
120.0000000000005
  0
ARC
  5
1638
330
D
100
AcDbEntity
 67
     1
  8
AM_VIS
100
AcDbCircle
 10
608.888157627715
 20
179.3791236329998
 30
0.0
 40
6.000000000000007
100
AcDbArc
 50
145.1523215208395
 51
239.9999999999995
  0
ARC
  5
1639
330
D
100
AcDbEntity
 67
     1
  8
AM_VIS
100
AcDbCircle
 10
662.138157627715
 20
210.1230254673471
 30
0.0
 40
6.000000000000042
100
AcDbArc
 50
265.1523215208393
 51
0.0
  0
LINE
  5
163A
330
D
100
AcDbEntity
 67
     1
  8
AM_VIS
100
AcDbLine
 10
603.9509191536125
 20
182.8183414745588
 30
0.0
 11
604.0902337776233
 21
183.0276338341194
 31
0.0
  0
LINE
  5
163B
330
D
100
AcDbEntity
 67
     1
  8
AM_VIS
100
AcDbLine
 10
603.9640551130982
 20
182.8074328519303
 30
0.0
 11
604.1304995447723
 21
182.670170474056
 31
0.0
  0
LINE
  5
163C
330
D
100
AcDbEntity
 67
     1
  8
AM_VIS
100
AcDbLine
 10
614.335226884263
 20
176.8229586107943
 30
0.0
 11
614.4468220930636
 21
177.048254783878
 31
0.0
  0
LINE
  5
163D
330
D
100
AcDbEntity
 67
     1
  8
AM_VIS
100
AcDbLine
 10
614.117098984862
 20
176.9043499984311
 30
0.0
 11
614.3192053593477
 21
176.8288631998966
 31
0.0
  0
LINE
  5
163E
330
D
100
AcDbEntity
 67
     1
  8
AM_VIS
100
AcDbLine
 10
661.3774170325395
 20
204.1436464257358
 30
0.0
 11
661.6283268448827
 21
204.1276426042025
 31
0.0
  0
LINE
  5
163F
330
D
100
AcDbEntity
 67
     1
  8
AM_VIS
100
AcDbLine
 10
661.3774170311836
 20
216.1024045314844
 30
0.0
 11
661.628326844992
 21
216.1184083300336
 31
0.0
  0
LINE
  5
1640
330
D
100
AcDbEntity
 67
     1
  8
AM_VIS
100
AcDbLine
 10
661.6312060094006
 20
204.1444729893851
 30
0.0
 11
661.6668564997868
 21
204.3572492844701
 31
0.0
  0
LINE
  5
1641
330
D
100
AcDbEntity
 67
     1
  8
AM_VIS
100
AcDbLine
 10
661.6312240834392
 20
216.1015809886926
 30
0.0
 11
661.6669037839858
 21
215.8888083347288
 31
0.0
  0
LINE
  5
1642
330
D
100
AcDbEntity
 67
     1
  8
AM_VIS
100
AcDbLine
 10
614.335226884028
 20
243.4230923237026
 30
0.0
 11
614.4468220741941
 21
243.1977961413879
 31
0.0
  0
LINE
  5
1643
330
D
100
AcDbEntity
 67
     1
  8
AM_VIS
100
AcDbLine
 10
603.950919154576
 20
237.4277094608817
 30
0.0
 11
604.0902337575808
 21
237.2184170873395
 31
0.0
  0
LINE
  5
1644
330
D
100
AcDbEntity
 67
     1
  8
AM_VIS
100
AcDbLine
 10
614.1171168385861
 20
243.3416566435148
 30
0.0
 11
614.3192117606464
 21
243.4171705607259
 31
0.0
  0
LINE
  5
1645
330
D
100
AcDbEntity
 67
     1
  8
AM_VIS
100
AcDbLine
 10
603.9640434404323
 20
237.4386322136486
 30
0.0
 11
604.1304701137224
 21
237.5759180677032
 31
0.0
  0
ARC
  5
1646
330
D
100
AcDbEntity
 67
     1
  8
AM_VIS
100
AcDbCircle
 10
626.638157627715
 20
210.1230254673469
 30
0.0
 40
35.2499999999999
100
AcDbArc
 50
129.764727575176
 51
230.235272424824
  0
ARC
  5
1647
330
D
100
AcDbEntity
 67
     1
  8
AM_VIS
100
AcDbCircle
 10
609.0147576084858
 20
179.5984012319316
 30
0.0
 40
6.0
100
AcDbArc
 50
334.8519172805319
 51
145.148082719465
  0
ARC
  5
1648
330
D
100
AcDbEntity
 67
     1
  8
AM_VIS
100
AcDbCircle
 10
626.638157627715
 20
210.1230254673469
 30
0.0
 40
35.2499999999999
100
AcDbArc
 50
9.764727575170349
 51
110.2352724248261
  0
ARC
  5
1649
330
D
100
AcDbEntity
 67
     1
  8
AM_VIS
100
AcDbCircle
 10
626.638157627715
 20
210.1230254673469
 30
0.0
 40
35.2499999999999
100
AcDbArc
 50
249.7647275751738
 51
350.2352724248297
  0
ARC
  5
164A
330
D
100
AcDbEntity
 67
     1
  8
AM_VIS
100
AcDbCircle
 10
661.8849576661733
 20
210.1230254673469
 30
0.0
 40
6.0
100
AcDbArc
 50
94.85191728053298
 51
265.148082719467
  0
ARC
  5
164B
330
D
100
AcDbEntity
 67
     1
  8
AM_VIS
100
AcDbCircle
 10
609.0147576084858
 20
240.6476497027622
 30
0.0
 40
6.0
100
AcDbArc
 50
214.8519172805349
 51
25.14808271946803
  0
LINE
  5
164C
330
D
100
AcDbEntity
 67
     1
  8
AM_VIS
100
AcDbLine
 10
699.6376797581603
 20
251.1230254673469
 30
0.0
 11
696.6376797581609
 21
252.6722287610412
 31
0.0
  0
LINE
  5
164D
330
D
100
AcDbEntity
 67
     1
  8
AM_VIS
100
AcDbLine
 10
699.6376797581603
 20
217.1230254673474
 30
0.0
 11
696.6376797581609
 21
215.5738221736531
 31
0.0
  0
LINE
  5
164E
330
D
100
AcDbEntity
 67
     1
  8
AM_VIS
100
AcDbLine
 10
699.6376797581603
 20
251.1230254673471
 30
0.0
 11
699.6376797581603
 21
234.1230254673472
 31
0.0
  0
LINE
  5
164F
330
D
100
AcDbEntity
 67
     1
  8
AM_VIS
100
AcDbLine
 10
699.6376797581603
 20
234.1230254673472
 30
0.0
 11
699.6376797581603
 21
217.1230254673471
 31
0.0
  0
LINE
  5
1650
330
D
100
AcDbEntity
 67
     1
  8
AM_VIS
100
AcDbLine
 10
607.7322597083467
 20
181.3791236329998
 30
0.0
 11
606.578157627715
 21
179.3791236329998
 31
0.0
  0
LINE
  5
1651
330
D
100
AcDbEntity
 67
     1
  8
AM_VIS
100
AcDbLine
 10
606.578157627715
 20
179.3791236329998
 30
0.0
 11
607.7322597083467
 21
177.3791236329998
 31
0.0
  0
LINE
  5
1652
330
D
100
AcDbEntity
 67
     1
  8
AM_VIS
100
AcDbLine
 10
607.7322597083467
 20
177.3791236329998
 30
0.0
 11
610.0440555470834
 21
177.3791236329998
 31
0.0
  0
LINE
  5
1653
330
D
100
AcDbEntity
 67
     1
  8
AM_VIS
100
AcDbLine
 10
610.0440555470834
 20
177.3791236329998
 30
0.0
 11
611.1981576277151
 21
179.3791236329998
 31
0.0
  0
LINE
  5
1654
330
D
100
AcDbEntity
 67
     1
  8
AM_VIS
100
AcDbLine
 10
611.1981576277151
 20
179.3791236329998
 30
0.0
 11
610.0440555470834
 21
181.3791236329998
 31
0.0
  0
LINE
  5
1655
330
D
100
AcDbEntity
 67
     1
  8
AM_VIS
100
AcDbLine
 10
610.0440555470834
 20
181.3791236329998
 30
0.0
 11
607.7322597083467
 21
181.3791236329998
 31
0.0
  0
ARC
  5
1656
330
D
100
AcDbEntity
 67
     1
  8
AM_VIS
100
AcDbCircle
 10
608.888157627715
 20
179.3791236329998
 30
0.0
 40
5.784999999999998
100
AcDbArc
 50
90.0
 51
270.0
  0
ARC
  5
1657
330
D
100
AcDbEntity
 67
     1
  8
AM_VIS
100
AcDbCircle
 10
608.888157627715
 20
179.3791236329998
 30
0.0
 40
5.784999999999998
100
AcDbArc
 50
270.0
 51
90.0
  0
LINE
  5
1658
330
D
100
AcDbEntity
 67
     1
  8
AM_VIS
100
AcDbLine
 10
607.7322597083467
 20
242.8669273016949
 30
0.0
 11
606.578157627715
 21
240.8669273016949
 31
0.0
  0
LINE
  5
1659
330
D
100
AcDbEntity
 67
     1
  8
AM_VIS
100
AcDbLine
 10
606.578157627715
 20
240.8669273016949
 30
0.0
 11
607.7322597083467
 21
238.8669273016949
 31
0.0
  0
LINE
  5
165A
330
D
100
AcDbEntity
 67
     1
  8
AM_VIS
100
AcDbLine
 10
607.7322597083467
 20
238.8669273016949
 30
0.0
 11
610.0440555470834
 21
238.8669273016949
 31
0.0
  0
LINE
  5
165B
330
D
100
AcDbEntity
 67
     1
  8
AM_VIS
100
AcDbLine
 10
610.0440555470834
 20
238.8669273016949
 30
0.0
 11
611.1981576277151
 21
240.8669273016949
 31
0.0
  0
LINE
  5
165C
330
D
100
AcDbEntity
 67
     1
  8
AM_VIS
100
AcDbLine
 10
611.1981576277151
 20
240.8669273016949
 30
0.0
 11
610.0440555470834
 21
242.8669273016949
 31
0.0
  0
LINE
  5
165D
330
D
100
AcDbEntity
 67
     1
  8
AM_VIS
100
AcDbLine
 10
610.0440555470834
 20
242.8669273016949
 30
0.0
 11
607.7322597083467
 21
242.8669273016949
 31
0.0
  0
ARC
  5
165E
330
D
100
AcDbEntity
 67
     1
  8
AM_VIS
100
AcDbCircle
 10
608.888157627715
 20
240.8669273016949
 30
0.0
 40
5.784999999999998
100
AcDbArc
 50
90.0
 51
270.0
  0
ARC
  5
165F
330
D
100
AcDbEntity
 67
     1
  8
AM_VIS
100
AcDbCircle
 10
608.888157627715
 20
240.8669273016949
 30
0.0
 40
5.784999999999998
100
AcDbArc
 50
270.0
 51
90.0
  0
LINE
  5
1660
330
D
100
AcDbEntity
 67
     1
  8
AM_VIS
100
AcDbLine
 10
660.9822597083467
 20
212.1230254673471
 30
0.0
 11
659.8281576277151
 21
210.1230254673471
 31
0.0
  0
LINE
  5
1661
330
D
100
AcDbEntity
 67
     1
  8
AM_VIS
100
AcDbLine
 10
659.8281576277151
 20
210.1230254673471
 30
0.0
 11
660.9822597083467
 21
208.1230254673471
 31
0.0
  0
LINE
  5
1662
330
D
100
AcDbEntity
 67
     1
  8
AM_VIS
100
AcDbLine
 10
660.9822597083467
 20
208.1230254673471
 30
0.0
 11
663.2940555470834
 21
208.1230254673471
 31
0.0
  0
LINE
  5
1663
330
D
100
AcDbEntity
 67
     1
  8
AM_VIS
100
AcDbLine
 10
663.2940555470834
 20
208.1230254673471
 30
0.0
 11
664.4481576277151
 21
210.1230254673471
 31
0.0
  0
LINE
  5
1664
330
D
100
AcDbEntity
 67
     1
  8
AM_VIS
100
AcDbLine
 10
664.4481576277151
 20
210.1230254673471
 30
0.0
 11
663.2940555470834
 21
212.1230254673471
 31
0.0
  0
LINE
  5
1665
330
D
100
AcDbEntity
 67
     1
  8
AM_VIS
100
AcDbLine
 10
663.2940555470834
 20
212.1230254673471
 30
0.0
 11
660.9822597083467
 21
212.1230254673471
 31
0.0
  0
ARC
  5
1666
330
D
100
AcDbEntity
 67
     1
  8
AM_VIS
100
AcDbCircle
 10
662.138157627715
 20
210.1230254673471
 30
0.0
 40
5.784999999999998
100
AcDbArc
 50
90.0
 51
270.0
  0
ARC
  5
1667
330
D
100
AcDbEntity
 67
     1
  8
AM_VIS
100
AcDbCircle
 10
662.138157627715
 20
210.1230254673471
 30
0.0
 40
5.784999999999998
100
AcDbArc
 50
270.0
 51
90.0
  0
LINE
  5
1668
330
D
100
AcDbEntity
 67
     1
  8
AM_VIS
100
AcDbLine
 10
525.6376797581602
 20
176.9887346288699
 30
0.0
 11
525.6376797581602
 21
164.9960447046407
 31
0.0
  0
LINE
  5
1669
330
D
100
AcDbEntity
 67
     1
  8
AM_VIS
100
AcDbLine
 10
525.6376797581602
 20
303.2500062300535
 30
0.0
 11
525.6376797581602
 21
291.2573163058241
 31
0.0
  0
LINE
  5
166A
330
D
100
AcDbEntity
 67
     1
  8
AM_VIS
100
AcDbLine
 10
500.6376797581602
 20
292.130335543118
 30
0.0
 11
500.6376797581602
 21
304.1230254673471
 31
0.0
  0
LINE
  5
166B
330
D
100
AcDbEntity
 67
     1
  8
AM_VIS
100
AcDbLine
 10
500.6376797581602
 20
164.1230254673469
 30
0.0
 11
500.6376797581602
 21
176.115715391576
 31
0.0
  0
LINE
  5
166C
330
D
100
AcDbEntity
 67
     1
  8
AM_VIS
100
AcDbLine
 10
500.6376797581602
 20
164.1230254673471
 30
0.0
 11
525.6376797581602
 21
164.9960447046407
 31
0.0
  0
LINE
  5
166D
330
D
100
AcDbEntity
 67
     1
  8
AM_VIS
100
AcDbLine
 10
525.6376797581602
 20
164.996044704641
 30
0.0
 11
533.3859140065274
 21
165.2666190067962
 31
0.0
  0
LINE
  5
166E
330
D
100
AcDbEntity
 67
     1
  8
AM_VIS
100
AcDbLine
 10
540.3376797581602
 20
165.5093800161696
 30
0.0
 11
540.6376797581601
 21
165.519856247017
 31
0.0
  0
LINE
  5
166F
330
D
100
AcDbEntity
 67
     1
  8
AM_VIS
100
AcDbLine
 10
525.6376797581602
 20
201.6230254673471
 30
0.0
 11
540.6376797581601
 21
201.6230254673471
 31
0.0
  0
LINE
  5
1670
330
D
100
AcDbEntity
 67
     1
  8
AM_VIS
100
AcDbLine
 10
525.6376797581602
 20
213.6230254673471
 30
0.0
 11
525.6376797581602
 21
176.9887346288699
 31
0.0
  0
LINE
  5
1671
330
D
100
AcDbEntity
 67
     1
  8
AM_VIS
100
AcDbLine
 10
500.6376797581602
 20
292.130335543118
 30
0.0
 11
500.6376797581602
 21
176.1157153915762
 31
0.0
  0
LINE
  5
1672
330
D
100
AcDbEntity
 67
     1
  8
AM_VIS
100
AcDbLine
 10
525.6376797581602
 20
291.2573163058244
 30
0.0
 11
525.6376797581602
 21
254.6230254673471
 31
0.0
  0
LINE
  5
1673
330
D
100
AcDbEntity
 67
     1
  8
AM_VIS
100
AcDbLine
 10
540.6376797581601
 20
266.6230254673471
 30
0.0
 11
525.6376797581602
 21
266.6230254673471
 31
0.0
  0
LINE
  5
1674
330
D
100
AcDbEntity
 67
     1
  8
AM_VIS
100
AcDbLine
 10
525.6376797581602
 20
303.2500062300535
 30
0.0
 11
500.6376797581602
 21
304.1230254673471
 31
0.0
  0
LINE
  5
1675
330
D
100
AcDbEntity
 67
     1
  8
AM_VIS
100
AcDbLine
 10
540.6376797581601
 20
302.7261946876772
 30
0.0
 11
525.6376797581602
 21
303.2500062300535
 31
0.0
  0
SPLINE
  5
1676
330
D
100
AcDbEntity
 67
     1
  8
AM_VIS
100
AcDbSpline
210
0.0
220
0.0
230
1.0
 70
     8
 71
     3
 72
    28
 73
    24
 74
     0
 42
0.0000000001
 43
0.0000000001
 40
-8.965762650633198
 40
-8.965762650633198
 40
-8.965762650633198
 40
-8.965762650633198
 40
-8.780095675644254
 40
-8.780095675644254
 40
-8.594428700655306
 40
-8.594428700655306
 40
-8.376333157015764
 40
-8.376333157015764
 40
-8.158237613376222
 40
-8.158237613376222
 40
-7.872913502628165
 40
-7.872913502628165
 40
-7.587589391880108
 40
-7.587589391880108
 40
-7.169121954678217
 40
-7.169121954678217
 40
-6.750654517476327
 40
-6.750654517476327
 40
-5.906822702791785
 40
-5.906822702791785
 40
-5.062990888107247
 40
-5.062990888107247
 40
-3.504426127835658
 40
-3.504426127835658
 40
-3.504426127835658
 40
-3.504426127835658
 10
719.6376797581601
 20
242.7108074860059
 30
0.0
 10
719.6995687498233
 20
242.7108074860059
 30
0.0
 10
719.7672138713614
 20
242.7050712707282
 30
0.0
 10
719.9001800133596
 20
242.6806376655697
 30
0.0
 10
719.9655087385915
 20
242.6619822231842
 30
0.0
 10
720.0917937297872
 20
242.615443015774
 30
0.0
 10
720.1638655934064
 20
242.5813887403085
 30
0.0
 10
720.3008358926508
 20
242.5007731513638
 30
0.0
 10
720.3657955681069
 20
242.4543159329435
 30
0.0
 10
720.4958616357274
 20
242.3482883102809
 30
0.0
 10
720.5709625898562
 20
242.2758903956974
 30
0.0
 10
720.7090729176806
 20
242.1200690973599
 30
0.0
 10
720.7722161297643
 20
242.0367643909815
 30
0.0
 10
720.9041073242978
 20
241.8427526621818
 30
0.0
 10
720.9802490197444
 20
241.7099779576529
 30
0.0
 10
721.1139749993349
 20
241.4350536243455
 30
0.0
 10
721.1717907198399
 20
241.293016628799
 30
0.0
 10
721.3136494114076
 20
240.8968847195183
 30
0.0
 10
721.3852832931807
 20
240.6231557684339
 30
0.0
 10
721.497622072072
 20
240.0626540201137
 30
0.0
 10
721.5380729204452
 20
239.7758303350024
 30
0.0
 10
721.6215345178043
 20
238.9455576309231
 30
0.0
 10
721.6376797581601
 20
238.3907712567998
 30
0.0
 10
721.6376797581601
 20
237.831124710895
 30
0.0
  0
LINE
  5
1677
330
D
100
AcDbEntity
 67
     1
  8
AM_VIS
100
AcDbLine
 10
708.6376797581602
 20
225.5352434486884
 30
0.0
 11
708.6376797581602
 21
242.7108074860059
 31
0.0
  0
LINE
  5
1678
330
D
100
AcDbEntity
 67
     1
  8
AM_VIS
100
AcDbLine
 10
708.6376797581602
 20
242.7108074860059
 30
0.0
 11
719.6376797581603
 21
242.7108074860059
 31
0.0
  0
ELLIPSE
  5
1679
330
D
100
AcDbEntity
 67
     1
  8
AM_VIS
100
AcDbEllipse
 10
719.4376797581603
 20
234.1230254673472
 30
0.0
 11
0.0
 21
15.99999999999997
 31
0.0
210
0.0
220
0.0
230
1.0
 40
0.8000000000000055
 41
1.004231996173819
 42
2.137360657415972
  0
LINE
  5
167A
330
D
100
AcDbEntity
 67
     1
  8
AM_VIS
100
AcDbLine
 10
719.6376797581603
 20
225.5352434486884
 30
0.0
 11
708.6376797581602
 21
225.5352434486884
 31
0.0
  0
SPLINE
  5
167B
330
D
100
AcDbEntity
 67
     1
  8
AM_VIS
100
AcDbSpline
210
0.0
220
0.0
230
1.0
 70
     8
 71
     3
 72
    28
 73
    24
 74
     0
 42
0.0000000001
 43
0.0000000001
 40
3.504426127835658
 40
3.504426127835658
 40
3.504426127835658
 40
3.504426127835658
 40
5.062990888107245
 40
5.062990888107245
 40
5.906822702791786
 40
5.906822702791786
 40
6.750654517476327
 40
6.750654517476327
 40
7.169121954678217
 40
7.169121954678217
 40
7.587589391880107
 40
7.587589391880107
 40
7.872913502628163
 40
7.872913502628163
 40
8.15823761337622
 40
8.15823761337622
 40
8.376333157015764
 40
8.376333157015764
 40
8.594428700655306
 40
8.594428700655306
 40
8.78009567564425
 40
8.78009567564425
 40
8.965762650633196
 40
8.965762650633196
 40
8.965762650633196
 40
8.965762650633196
 10
721.6376797581601
 20
230.4149262237993
 30
0.0
 10
721.6376797581601
 20
229.8552796778945
 30
0.0
 10
721.6215345178043
 20
229.3004933037712
 30
0.0
 10
721.5380729204452
 20
228.4702205996918
 30
0.0
 10
721.497622072072
 20
228.1833969145805
 30
0.0
 10
721.3852832931807
 20
227.6228951662604
 30
0.0
 10
721.3136494114076
 20
227.349166215176
 30
0.0
 10
721.1717907198399
 20
226.9530343058952
 30
0.0
 10
721.1139749993349
 20
226.8109973103487
 30
0.0
 10
720.9802490197444
 20
226.5360729770414
 30
0.0
 10
720.9041073242978
 20
226.4032982725125
 30
0.0
 10
720.7722161297643
 20
226.2092865437128
 30
0.0
 10
720.7090729176806
 20
226.1259818373344
 30
0.0
 10
720.5709625898562
 20
225.9701605389969
 30
0.0
 10
720.4958616357274
 20
225.8977626244134
 30
0.0
 10
720.3657955681069
 20
225.7917350017508
 30
0.0
 10
720.3008358926508
 20
225.7452777833305
 30
0.0
 10
720.1638655934061
 20
225.6646621943858
 30
0.0
 10
720.0917937297872
 20
225.6306079189203
 30
0.0
 10
719.9655087385915
 20
225.5840687115101
 30
0.0
 10
719.9001800133596
 20
225.5654132691245
 30
0.0
 10
719.7672138713614
 20
225.540979663966
 30
0.0
 10
719.6995687498233
 20
225.5352434486884
 30
0.0
 10
719.6376797581601
 20
225.5352434486884
 30
0.0
  0
LINE
  5
167C
330
D
100
AcDbEntity
 67
     1
  8
AM_VIS
100
AcDbLine
 10
708.6376797581602
 20
220.6230254673471
 30
0.0
 11
719.6376797581603
 21
220.6230254673471
 31
0.0
  0
LINE
  5
167D
330
D
100
AcDbEntity
 67
     1
  8
AM_VIS
100
AcDbLine
 10
719.6376797581603
 20
220.6230254673471
 30
0.0
 11
721.6376797581602
 21
220.6230254673471
 31
0.0
  0
LINE
  5
167E
330
D
100
AcDbEntity
 67
     1
  8
AM_VIS
100
AcDbLine
 10
708.6376797581602
 20
220.6230254673471
 30
0.0
 11
706.6376797581604
 21
218.1230254673471
 31
0.0
  0
LINE
  5
167F
330
D
100
AcDbEntity
 67
     1
  8
AM_VIS
100
AcDbLine
 10
719.6376797581603
 20
247.6230254673471
 30
0.0
 11
721.6376797581602
 21
247.6230254673471
 31
0.0
  0
LINE
  5
1680
330
D
100
AcDbEntity
 67
     1
  8
AM_VIS
100
AcDbLine
 10
719.6376797581603
 20
247.6230254673471
 30
0.0
 11
708.6376797581602
 21
247.6230254673471
 31
0.0
  0
LINE
  5
1681
330
D
100
AcDbEntity
 67
     1
  8
AM_VIS
100
AcDbLine
 10
706.6376797581603
 20
250.1230254673471
 30
0.0
 11
708.6376797581602
 21
247.6230254673471
 31
0.0
  0
LINE
  5
1682
330
D
100
AcDbEntity
 67
     1
  8
AM_VIS
100
AcDbLine
 10
395.6376797581602
 20
164.9960447046407
 30
0.0
 11
420.6376797581602
 21
164.1230254673471
 31
0.0
  0
LINE
  5
1683
330
D
100
AcDbEntity
 67
     1
  8
AM_VIS
100
AcDbLine
 10
380.6376797581602
 20
165.519856247017
 30
0.0
 11
380.9376797581602
 21
165.5093800161696
 31
0.0
  0
LINE
  5
1684
330
D
100
AcDbEntity
 67
     1
  8
AM_VIS
100
AcDbLine
 10
387.8894455097992
 20
165.2666190067959
 30
0.0
 11
395.6376797581603
 21
164.9960447046407
 31
0.0
  0
LINE
  5
1685
330
D
100
AcDbEntity
 67
     1
  8
AM_VIS
100
AcDbLine
 10
395.6376797581603
 20
164.9960447046407
 30
0.0
 11
395.6376797581603
 21
176.9887346288701
 31
0.0
  0
LINE
  5
1686
330
D
100
AcDbEntity
 67
     1
  8
AM_VIS
100
AcDbLine
 10
380.6376797581602
 20
201.6230254673471
 30
0.0
 11
395.6376797581602
 21
201.6230254673471
 31
0.0
  0
LINE
  5
1687
330
D
100
AcDbEntity
 67
     1
  8
AM_VIS
100
AcDbLine
 10
395.6376797581602
 20
176.9887346288699
 30
0.0
 11
395.6376797581602
 21
213.6230254673471
 31
0.0
  0
LINE
  5
1688
330
D
100
AcDbEntity
 67
     1
  8
AM_VIS
100
AcDbLine
 10
395.6376797581602
 20
254.6230254673471
 30
0.0
 11
395.6376797581602
 21
291.2573163058244
 31
0.0
  0
LINE
  5
1689
330
D
100
AcDbEntity
 67
     1
  8
AM_VIS
100
AcDbLine
 10
420.6376797581602
 20
304.1230254673471
 30
0.0
 11
395.6376797581602
 21
303.2500062300535
 31
0.0
  0
LINE
  5
168A
330
D
100
AcDbEntity
 67
     1
  8
AM_VIS
100
AcDbLine
 10
395.6376797581603
 20
291.2573163058244
 30
0.0
 11
395.6376797581603
 21
303.2500062300535
 31
0.0
  0
LINE
  5
168B
330
D
100
AcDbEntity
 67
     1
  8
AM_VIS
100
AcDbLine
 10
395.6376797581603
 20
303.2500062300532
 30
0.0
 11
380.6376797581602
 21
302.7261946876772
 31
0.0
  0
LINE
  5
168C
330
D
100
AcDbEntity
 67
     1
  8
AM_VIS
100
AcDbLine
 10
395.6376797581602
 20
266.6230254673471
 30
0.0
 11
380.6376797581602
 21
266.6230254673471
 31
0.0
  0
LINE
  5
168D
330
D
100
AcDbEntity
 67
     1
  8
AM_VIS
100
AcDbLine
 10
380.6376797581602
 20
290.7188801560912
 30
0.0
 11
380.6376797581602
 21
302.7261946876772
 31
0.0
  0
LINE
  5
168E
330
D
100
AcDbEntity
 67
     1
  8
AM_VIS
100
AcDbLine
 10
380.6376797581602
 20
278.6230254673471
 30
0.0
 11
380.6376797581602
 21
290.7188801560912
 31
0.0
  0
LINE
  5
168F
330
D
100
AcDbEntity
 67
     1
  8
AM_VIS
100
AcDbLine
 10
380.6376797581602
 20
254.6230254673471
 30
0.0
 11
380.6376797581602
 21
266.6230254673471
 31
0.0
  0
LINE
  5
1690
330
D
100
AcDbEntity
 67
     1
  8
AM_VIS
100
AcDbLine
 10
380.6376797581602
 20
254.6230254673471
 30
0.0
 11
380.6376797581602
 21
213.6230254673471
 31
0.0
  0
LINE
  5
1691
330
D
100
AcDbEntity
 67
     1
  8
AM_VIS
100
AcDbLine
 10
380.6376797581602
 20
201.6230254673471
 30
0.0
 11
380.6376797581602
 21
213.6230254673471
 31
0.0
  0
LINE
  5
1692
330
D
100
AcDbEntity
 67
     1
  8
AM_VIS
100
AcDbLine
 10
380.6376797581602
 20
177.5271707786028
 30
0.0
 11
380.6376797581602
 21
189.6230254673471
 31
0.0
  0
LINE
  5
1693
330
D
100
AcDbEntity
 67
     1
  8
AM_VIS
100
AcDbLine
 10
380.6376797581602
 20
165.5198562470168
 30
0.0
 11
380.6376797581602
 21
177.5271707786028
 31
0.0
  0
LINE
  5
1694
330
D
100
AcDbEntity
 67
     1
  8
AM_VIS
100
AcDbLine
 10
420.6376797581602
 20
176.1157153915762
 30
0.0
 11
420.6376797581602
 21
164.1230254673471
 31
0.0
  0
LINE
  5
1695
330
D
100
AcDbEntity
 67
     1
  8
AM_VIS
100
AcDbLine
 10
420.6376797581602
 20
176.1157153915762
 30
0.0
 11
420.6376797581602
 21
292.130335543118
 31
0.0
  0
LINE
  5
1696
330
D
100
AcDbEntity
 67
     1
  8
AM_VIS
100
AcDbLine
 10
420.6376797581602
 20
304.1230254673471
 30
0.0
 11
420.6376797581602
 21
292.130335543118
 31
0.0
  0
LINE
  5
1697
330
D
100
AcDbEntity
 67
     1
  8
AM_VIS
100
AcDbLine
 10
721.6376797581602
 20
234.1230254673472
 30
0.0
 11
721.6376797581602
 21
230.4149262237993
 31
0.0
  0
LINE
  5
1698
330
D
100
AcDbEntity
 67
     1
  8
AM_VIS
100
AcDbLine
 10
721.6376797581602
 20
237.831124710895
 30
0.0
 11
721.6376797581602
 21
234.1230254673472
 31
0.0
  0
LINE
  5
1699
330
D
100
AcDbEntity
 67
     1
  8
AM_VIS
100
AcDbLine
 10
755.6376797581602
 20
213.6230254673471
 30
0.0
 11
742.1376797581602
 21
213.6230254673471
 31
0.0
  0
LINE
  5
169A
330
D
100
AcDbEntity
 67
     1
  8
AM_VIS
100
AcDbLine
 10
755.6376797581602
 20
254.6230254673471
 30
0.0
 11
742.1376797581602
 21
254.6230254673471
 31
0.0
  0
LINE
  5
169B
330
D
100
AcDbEntity
 67
     1
  8
AM_VIS
100
AcDbLine
 10
755.6376797581602
 20
234.1230254673472
 30
0.0
 11
742.1376797581602
 21
234.1230254673472
 31
0.0
  0
LINE
  5
169C
330
D
100
AcDbEntity
 67
     1
  8
AM_VIS
100
AcDbLine
 10
755.6376797581602
 20
213.6230254673471
 30
0.0
 11
755.6376797581602
 21
234.1230254673472
 31
0.0
  0
LINE
  5
169D
330
D
100
AcDbEntity
 67
     1
  8
AM_VIS
100
AcDbLine
 10
755.6376797581602
 20
234.1230254673472
 30
0.0
 11
755.6376797581602
 21
254.6230254673471
 31
0.0
  0
LINE
  5
169E
330
D
100
AcDbEntity
 67
     1
  8
AM_VIS
100
AcDbLine
 10
742.1376797581602
 20
234.1230254673472
 30
0.0
 11
742.1376797581602
 21
213.6230254673471
 31
0.0
  0
LINE
  5
169F
330
D
100
AcDbEntity
 67
     1
  8
AM_VIS
100
AcDbLine
 10
742.1376797581602
 20
254.6230254673471
 30
0.0
 11
742.1376797581602
 21
234.1230254673472
 31
0.0
  0
LINE
  5
16A0
330
D
100
AcDbEntity
 67
     1
  8
AM_VIS
100
AcDbLine
 10
525.6376797581602
 20
192.9794319278981
 30
0.0
 11
540.3376797581602
 21
192.9794319278981
 31
0.0
  0
LINE
  5
16A1
330
D
100
AcDbEntity
 67
     1
  8
AM_VIS
100
AcDbLine
 10
540.3376797581602
 20
186.0512286976225
 30
0.0
 11
540.3376797581602
 21
192.9794319278981
 31
0.0
  0
LINE
  5
16A2
330
D
100
AcDbEntity
 67
     1
  8
AM_VIS
100
AcDbLine
 10
525.6376797581602
 20
186.0512286976227
 30
0.0
 11
540.3376797581602
 21
186.0512286976227
 31
0.0
  0
LINE
  5
16A3
330
D
100
AcDbEntity
 67
     1
  8
AM_VIS
100
AcDbLine
 10
540.3376797581602
 20
172.1948222370718
 30
0.0
 11
540.3376797581602
 21
186.0512286976227
 31
0.0
  0
LINE
  5
16A4
330
D
100
AcDbEntity
 67
     1
  8
AM_VIS
100
AcDbLine
 10
525.6376797581602
 20
172.1948222370715
 30
0.0
 11
540.3376797581602
 21
172.1948222370715
 31
0.0
  0
LINE
  5
16A5
330
D
100
AcDbEntity
 67
     1
  8
AM_VIS
100
AcDbLine
 10
540.3376797581602
 20
165.2666190067959
 30
0.0
 11
540.3376797581602
 21
172.1948222370715
 31
0.0
  0
LINE
  5
16A6
330
D
100
AcDbEntity
 67
     1
  8
AM_VIS
100
AcDbLine
 10
525.6376797581602
 20
165.2666190067962
 30
0.0
 11
540.3376797581602
 21
165.2666190067962
 31
0.0
  0
LINE
  5
16A7
330
D
100
AcDbEntity
 67
     1
  8
AM_VIS
100
AcDbLine
 10
395.6376797581603
 20
165.2666190067959
 30
0.0
 11
380.9376797581602
 21
165.2666190067959
 31
0.0
  0
LINE
  5
16A8
330
D
100
AcDbEntity
 67
     1
  8
AM_VIS
100
AcDbLine
 10
380.9376797581602
 20
172.1948222370718
 30
0.0
 11
380.9376797581602
 21
165.2666190067962
 31
0.0
  0
LINE
  5
16A9
330
D
100
AcDbEntity
 67
     1
  8
AM_VIS
100
AcDbLine
 10
395.6376797581603
 20
172.1948222370715
 30
0.0
 11
380.9376797581602
 21
172.1948222370715
 31
0.0
  0
LINE
  5
16AA
330
D
100
AcDbEntity
 67
     1
  8
AM_VIS
100
AcDbLine
 10
380.9376797581602
 20
186.0512286976225
 30
0.0
 11
380.9376797581602
 21
172.1948222370715
 31
0.0
  0
LINE
  5
16AB
330
D
100
AcDbEntity
 67
     1
  8
AM_VIS
100
AcDbLine
 10
395.6376797581603
 20
186.0512286976227
 30
0.0
 11
380.9376797581602
 21
186.0512286976227
 31
0.0
  0
LINE
  5
16AC
330
D
100
AcDbEntity
 67
     1
  8
AM_VIS
100
AcDbLine
 10
380.9376797581602
 20
192.9794319278981
 30
0.0
 11
380.9376797581602
 21
186.0512286976225
 31
0.0
  0
LINE
  5
16AD
330
D
100
AcDbEntity
 67
     1
  8
AM_VIS
100
AcDbLine
 10
395.6376797581603
 20
192.9794319278981
 30
0.0
 11
380.9376797581602
 21
192.9794319278981
 31
0.0
  0
LINE
  5
16AE
330
D
100
AcDbEntity
 67
     1
  8
AM_VIS
100
AcDbLine
 10
533.3859140065302
 20
302.9794319278981
 30
0.0
 11
540.3376797581602
 21
302.9794319278981
 31
0.0
  0
LINE
  5
16AF
330
D
100
AcDbEntity
 67
     1
  8
AM_VIS
100
AcDbLine
 10
540.3376797581602
 20
302.7366709185248
 30
0.0
 11
540.3376797581602
 21
302.9794319278981
 31
0.0
  0
LINE
  5
16B0
330
D
100
AcDbEntity
 67
     1
  8
AM_VIS
100
AcDbLine
 10
525.6376797581602
 20
301.1230254673471
 30
0.0
 11
540.3376797581602
 21
301.1230254673471
 31
0.0
  0
LINE
  5
16B1
330
D
100
AcDbEntity
 67
     1
  8
AM_VIS
100
AcDbLine
 10
540.3376797581602
 20
289.1230254673471
 30
0.0
 11
540.3376797581602
 21
301.1230254673471
 31
0.0
  0
LINE
  5
16B2
330
D
100
AcDbEntity
 67
     1
  8
AM_VIS
100
AcDbLine
 10
525.6376797581602
 20
289.1230254673471
 30
0.0
 11
540.3376797581602
 21
289.1230254673471
 31
0.0
  0
LINE
  5
16B3
330
D
100
AcDbEntity
 67
     1
  8
AM_VIS
100
AcDbLine
 10
540.3376797581602
 20
277.1230254673471
 30
0.0
 11
540.3376797581602
 21
289.1230254673471
 31
0.0
  0
LINE
  5
16B4
330
D
100
AcDbEntity
 67
     1
  8
AM_VIS
100
AcDbLine
 10
525.6376797581602
 20
277.1230254673471
 30
0.0
 11
540.3376797581602
 21
277.1230254673471
 31
0.0
  0
LINE
  5
16B5
330
D
100
AcDbEntity
 67
     1
  8
AM_VIS
100
AcDbLine
 10
380.9376797581602
 20
302.9794319278981
 30
0.0
 11
380.9376797581602
 21
302.7366709185246
 31
0.0
  0
LINE
  5
16B6
330
D
100
AcDbEntity
 67
     1
  8
AM_VIS
100
AcDbLine
 10
387.8894455097968
 20
302.9794319278983
 30
0.0
 11
380.9376797581602
 21
302.9794319278983
 31
0.0
  0
LINE
  5
16B7
330
D
100
AcDbEntity
 67
     1
  8
AM_VIS
100
AcDbLine
 10
380.9376797581602
 20
289.1230254673471
 30
0.0
 11
380.9376797581602
 21
277.1230254673471
 31
0.0
  0
LINE
  5
16B8
330
D
100
AcDbEntity
 67
     1
  8
AM_VIS
100
AcDbLine
 10
395.6376797581603
 20
289.1230254673471
 30
0.0
 11
380.9376797581602
 21
289.1230254673471
 31
0.0
  0
LINE
  5
16B9
330
D
100
AcDbEntity
 67
     1
  8
AM_VIS
100
AcDbLine
 10
380.9376797581602
 20
301.1230254673471
 30
0.0
 11
380.9376797581602
 21
289.1230254673471
 31
0.0
  0
LINE
  5
16BA
330
D
100
AcDbEntity
 67
     1
  8
AM_VIS
100
AcDbLine
 10
395.6376797581603
 20
301.1230254673471
 30
0.0
 11
380.9376797581602
 21
301.1230254673471
 31
0.0
  0
LINE
  5
16BB
330
D
100
AcDbEntity
 67
     1
  8
AM_VIS
100
AcDbLine
 10
395.6376797581603
 20
277.1230254673471
 30
0.0
 11
380.9376797581602
 21
277.1230254673471
 31
0.0
  0
LINE
  5
16BC
330
D
100
AcDbEntity
 67
     1
  8
AM_VIS
100
AcDbLine
 10
500.6376797581602
 20
184.558025467347
 30
0.0
 11
420.6376797581602
 21
184.558025467347
 31
0.0
  0
LINE
  5
16BD
330
D
100
AcDbEntity
 67
     1
  8
AM_VIS
100
AcDbLine
 10
500.6376797581602
 20
173.6880254673472
 30
0.0
 11
420.6376797581602
 21
173.6880254673472
 31
0.0
  0
LINE
  5
16BE
330
D
100
AcDbEntity
 67
     1
  8
AM_VIS
100
AcDbLine
 10
500.6376797581602
 20
294.5580254673471
 30
0.0
 11
420.6376797581602
 21
294.5580254673471
 31
0.0
  0
LINE
  5
16BF
330
D
100
AcDbEntity
 67
     1
  8
AM_VIS
100
AcDbLine
 10
500.6376797581602
 20
283.6880254673472
 30
0.0
 11
420.6376797581602
 21
283.6880254673472
 31
0.0
  0
LINE
  5
16C0
330
D
100
AcDbEntity
 67
     1
  8
AM_VIS
100
AcDbLine
 10
500.6376797581602
 20
301.6230254673471
 30
0.0
 11
420.6376797581602
 21
301.6230254673471
 31
0.0
  0
LINE
  5
16C1
330
D
100
AcDbEntity
 67
     1
  8
AM_VIS
100
AcDbLine
 10
500.6376797581602
 20
166.6230254673471
 30
0.0
 11
420.6376797581602
 21
166.6230254673471
 31
0.0
  0
LINE
  5
16C2
330
D
100
AcDbEntity
 67
     1
  8
AM_VIS
100
AcDbLine
 10
699.6376797581603
 20
218.1230254673471
 30
0.0
 11
706.6376797581603
 21
218.1230254673471
 31
0.0
  0
LINE
  5
16C3
330
D
100
AcDbEntity
 67
     1
  8
AM_VIS
100
AcDbLine
 10
699.6376797581603
 20
250.1230254673471
 30
0.0
 11
706.6376797581603
 21
250.1230254673471
 31
0.0
  0
LINE
  5
16C4
330
D
100
AcDbEntity
 67
     1
  8
AM_VIS
100
AcDbLine
 10
380.6376797581602
 20
264.1230254673471
 30
0.0
 11
376.6376797581602
 21
264.1230254673471
 31
0.0
  0
LINE
  5
16C5
330
D
100
AcDbEntity
 67
     1
  8
AM_VIS
100
AcDbLine
 10
380.6376797581602
 20
204.1230254673471
 30
0.0
 11
376.6376797581602
 21
204.1230254673471
 31
0.0
  0
LINE
  5
16C6
330
D
100
AcDbEntity
 67
     1
  8
AM_VIS
100
AcDbLine
 10
374.6376797581602
 20
206.1230254673471
 30
0.0
 11
376.6376797581602
 21
204.1230254673471
 31
0.0
  0
LINE
  5
16C7
330
D
100
AcDbEntity
 67
     1
  8
AM_VIS
100
AcDbLine
 10
374.6376797581602
 20
262.1230254673471
 30
0.0
 11
376.6376797581602
 21
264.1230254673471
 31
0.0
  0
LINE
  5
16C8
330
D
100
AcDbEntity
 67
     1
  8
AM_VIS
100
AcDbLine
 10
721.6376797581602
 20
220.6230254673471
 30
0.0
 11
742.1376797581602
 21
220.6230254673471
 31
0.0
  0
LINE
  5
16C9
330
D
100
AcDbEntity
 67
     1
  8
AM_VIS
100
AcDbLine
 10
721.6376797581602
 20
247.6230254673471
 30
0.0
 11
742.1376797581602
 21
247.6230254673471
 31
0.0
  0
LINE
  5
16CA
330
D
100
AcDbEntity
 67
     1
  8
AM_VIS
100
AcDbLine
 10
755.6376797581602
 20
220.6230254673471
 30
0.0
 11
774.1376797581603
 21
220.6230254673471
 31
0.0
  0
LINE
  5
16CB
330
D
100
AcDbEntity
 67
     1
  8
AM_VIS
100
AcDbLine
 10
755.6376797581602
 20
247.6230254673471
 30
0.0
 11
774.1376797581603
 21
247.6230254673471
 31
0.0
  0
LINE
  5
16CC
330
D
100
AcDbEntity
 67
     1
  8
AM_VIS
100
AcDbLine
 10
775.6376797581602
 20
246.1230254673471
 30
0.0
 11
774.1376797581603
 21
247.6230254673471
 31
0.0
  0
LINE
  5
16CD
330
D
100
AcDbEntity
 67
     1
  8
AM_VIS
100
AcDbLine
 10
775.6376797581602
 20
222.1230254673471
 30
0.0
 11
774.1376797581603
 21
220.6230254673471
 31
0.0
  0
LINE
  5
16CE
330
D
100
AcDbEntity
 67
     1
  8
AM_VIS
100
AcDbLine
 10
376.6376797581602
 20
264.1230254673471
 30
0.0
 11
376.6376797581602
 21
204.1230254673471
 31
0.0
  0
LINE
  5
16CF
330
D
100
AcDbEntity
 67
     1
  8
AM_VIS
100
AcDbLine
 10
374.6376797581602
 20
206.1230254673471
 30
0.0
 11
374.6376797581602
 21
262.1230254673471
 31
0.0
  0
LINE
  5
16D0
330
D
100
AcDbEntity
 67
     1
  8
AM_VIS
100
AcDbLine
 10
380.6376797581602
 20
278.6230254673471
 30
0.0
 11
380.6376797581602
 21
266.6230254673471
 31
0.0
  0
LINE
  5
16D1
330
D
100
AcDbEntity
 67
     1
  8
AM_VIS
100
AcDbLine
 10
380.6376797581602
 20
201.6230254673471
 30
0.0
 11
380.6376797581602
 21
189.6230254673471
 31
0.0
  0
LINE
  5
16D2
330
D
100
AcDbEntity
 67
     1
  8
AM_VIS
100
AcDbLine
 10
721.6376797581602
 20
230.4149262237993
 30
0.0
 11
721.6376797581602
 21
220.6230254673471
 31
0.0
  0
LINE
  5
16D3
330
D
100
AcDbEntity
 67
     1
  8
AM_VIS
100
AcDbLine
 10
721.6376797581602
 20
247.6230254673471
 30
0.0
 11
721.6376797581602
 21
237.831124710895
 31
0.0
  0
LINE
  5
16D4
330
D
100
AcDbEntity
 67
     1
  8
AM_VIS
100
AcDbLine
 10
774.1376797581603
 20
220.6230254673471
 30
0.0
 11
774.1376797581603
 21
247.6230254673471
 31
0.0
  0
LINE
  5
16D5
330
D
100
AcDbEntity
 67
     1
  8
AM_VIS
100
AcDbLine
 10
775.6376797581602
 20
246.1230254673471
 30
0.0
 11
775.6376797581602
 21
222.1230254673471
 31
0.0
  0
LINE
  5
16D6
330
D
100
AcDbEntity
 67
     1
  8
AM_VIS
100
AcDbLine
 10
827.178926419239
 20
-43.11112597202679
 30
0.0
 11
827.178926419239
 21
81.59653217293259
 31
0.0
  0
LINE
  5
16D7
330
D
100
AcDbEntity
 67
     1
  8
AM_VIS
100
AcDbLine
 10
965.1789264192386
 20
81.59653217293259
 30
0.0
 11
965.1789264192386
 21
-43.11112597202668
 31
0.0
  0
LINE
  5
16D8
330
D
100
AcDbEntity
 67
     1
  8
AM_VIS
100
AcDbLine
 10
833.8250973467589
 20
88.24270310045255
 30
0.0
 11
958.5327554917189
 21
88.24270310045255
 31
0.0
  0
LINE
  5
16D9
330
D
100
AcDbEntity
 67
     1
  8
AM_VIS
100
AcDbLine
 10
958.5327554917176
 20
-49.75729689954767
 30
0.0
 11
833.82509734676
 21
-49.75729689954767
 31
0.0
  0
ARC
  5
16DA
330
D
100
AcDbEntity
 67
     1
  8
AM_VIS
100
AcDbCircle
 10
896.1789264192386
 20
19.2427031004529
 30
0.0
 40
93.0
100
AcDbArc
 50
222.1034488707463
 51
227.8965511292537
  0
ARC
  5
16DB
330
D
100
AcDbEntity
 67
     1
  8
AM_VIS
100
AcDbCircle
 10
896.1789264192386
 20
19.2427031004529
 30
0.0
 40
93.0
100
AcDbArc
 50
132.1034488707463
 51
137.8965511292536
  0
ARC
  5
16DC
330
D
100
AcDbEntity
 67
     1
  8
AM_VIS
100
AcDbCircle
 10
896.1789264192386
 20
19.2427031004529
 30
0.0
 40
93.0
100
AcDbArc
 50
42.10344887074632
 51
47.89655112925366
  0
ARC
  5
16DD
330
D
100
AcDbEntity
 67
     1
  8
AM_VIS
100
AcDbCircle
 10
896.1789264192386
 20
19.2427031004529
 30
0.0
 40
93.0
100
AcDbArc
 50
312.1034488707463
 51
317.8965511292537
  0
ARC
  5
16DE
330
D
100
AcDbEntity
 67
     1
  8
AM_VIS
100
AcDbCircle
 10
896.1789264192386
 20
19.24270310045256
 30
0.0
 40
30.0
100
AcDbArc
 50
0.0
 51
180.0
  0
ARC
  5
16DF
330
D
100
AcDbEntity
 67
     1
  8
AM_VIS
100
AcDbCircle
 10
841.1789264192391
 20
-35.75729689954755
 30
0.0
 40
5.125
100
AcDbArc
 50
0.0
 51
180.0
  0
ARC
  5
16E0
330
D
100
AcDbEntity
 67
     1
  8
AM_VIS
100
AcDbCircle
 10
951.1789264192389
 20
-35.75729689954755
 30
0.0
 40
5.125
100
AcDbArc
 50
0.0
 51
180.0
  0
ARC
  5
16E1
330
D
100
AcDbEntity
 67
     1
  8
AM_VIS
100
AcDbCircle
 10
841.1789264192391
 20
74.24270310045244
 30
0.0
 40
5.125
100
AcDbArc
 50
0.0
 51
180.0
  0
ARC
  5
16E2
330
D
100
AcDbEntity
 67
     1
  8
AM_VIS
100
AcDbCircle
 10
951.1789264192389
 20
74.24270310045244
 30
0.0
 40
5.125
100
AcDbArc
 50
0.0
 51
180.0
  0
ARC
  5
16E3
330
D
100
AcDbEntity
 67
     1
  8
AM_VIS
100
AcDbCircle
 10
896.1789264192391
 20
19.24270310045233
 30
0.0
 40
22.5
100
AcDbArc
 50
155.6593532714022
 51
180.0
  0
ARC
  5
16E4
330
D
100
AcDbEntity
 67
     1
  8
AM_VIS
100
AcDbCircle
 10
896.1789264192391
 20
19.24270310045233
 30
0.0
 40
22.5
100
AcDbArc
 50
95.65935327139566
 51
144.3406467286025
  0
ARC
  5
16E5
330
D
100
AcDbEntity
 67
     1
  8
AM_VIS
100
AcDbCircle
 10
896.1789264192391
 20
19.24270310045233
 30
0.0
 40
22.5
100
AcDbArc
 50
35.65935327139219
 51
84.34064672860758
  0
ARC
  5
16E6
330
D
100
AcDbEntity
 67
     1
  8
AM_VIS
100
AcDbCircle
 10
896.1789264192391
 20
19.24270310045233
 30
0.0
 40
22.5
100
AcDbArc
 50
0.0
 51
24.34064672860512
  0
ARC
  5
16E7
330
D
100
AcDbEntity
 67
     1
  8
AM_VIS
100
AcDbCircle
 10
896.1789264192391
 20
19.24270310045233
 30
0.0
 40
22.5
100
AcDbArc
 50
335.6593532713949
 51
0.0
  0
ARC
  5
16E8
330
D
100
AcDbEntity
 67
     1
  8
AM_VIS
100
AcDbCircle
 10
896.1789264192391
 20
19.24270310045233
 30
0.0
 40
22.5
100
AcDbArc
 50
275.6593532713989
 51
324.3406467286007
  0
ARC
  5
16E9
330
D
100
AcDbEntity
 67
     1
  8
AM_VIS
100
AcDbCircle
 10
896.1789264192391
 20
19.24270310045233
 30
0.0
 40
22.5
100
AcDbArc
 50
215.6593532714066
 51
264.3406467285978
  0
ARC
  5
16EA
330
D
100
AcDbEntity
 67
     1
  8
AM_VIS
100
AcDbCircle
 10
896.1789264192391
 20
19.24270310045233
 30
0.0
 40
22.5
100
AcDbArc
 50
180.0
 51
204.3406467285978
  0
ARC
  5
16EB
330
D
100
AcDbEntity
 67
     1
  8
AM_VIS
100
AcDbCircle
 10
951.1789264192389
 20
74.24270310045244
 30
0.0
 40
5.125
100
AcDbArc
 50
180.0
 51
0.0
  0
ARC
  5
16EC
330
D
100
AcDbEntity
 67
     1
  8
AM_VIS
100
AcDbCircle
 10
841.1789264192391
 20
74.24270310045244
 30
0.0
 40
5.125
100
AcDbArc
 50
180.0
 51
0.0
  0
ARC
  5
16ED
330
D
100
AcDbEntity
 67
     1
  8
AM_VIS
100
AcDbCircle
 10
951.1789264192389
 20
-35.75729689954755
 30
0.0
 40
5.125
100
AcDbArc
 50
180.0
 51
0.0
  0
ARC
  5
16EE
330
D
100
AcDbEntity
 67
     1
  8
AM_VIS
100
AcDbCircle
 10
841.1789264192391
 20
-35.75729689954755
 30
0.0
 40
5.125
100
AcDbArc
 50
180.0
 51
0.0
  0
ARC
  5
16EF
330
D
100
AcDbEntity
 67
     1
  8
AM_VIS
100
AcDbCircle
 10
896.1789264192386
 20
19.24270310045256
 30
0.0
 40
30.0
100
AcDbArc
 50
180.0
 51
0.0
  0
ELLIPSE
  5
16F0
330
D
100
AcDbEntity
 67
     1
  8
AM_VIS
100
AcDbEllipse
 10
839.0592601881182
 20
76.36236933157215
 30
0.0
 11
-8.495622535190282
 21
8.495622535190284
 31
0.0
210
0.0
220
0.0
230
1.0
 40
0.9987827659587182
 41
0.6392283548163411
 42
0.784789175811831
  0
ELLIPSE
  5
16F1
330
D
100
AcDbEntity
 67
     1
  8
AM_VIS
100
AcDbEllipse
 10
839.0592601881182
 20
76.36236933157215
 30
0.0
 11
-8.495622535190282
 21
8.495622535190284
 31
0.0
210
0.0
220
0.0
230
1.0
 40
0.9987827659587182
 41
5.498396131367755
 42
5.643956952362509
  0
ELLIPSE
  5
16F2
330
D
100
AcDbEntity
 67
     1
  8
AM_VIS
100
AcDbEllipse
 10
953.298592650359
 20
76.36236933157215
 30
0.0
 11
8.495622535190278
 21
8.495622535190287
 31
0.0
210
0.0
220
0.0
230
1.0
 40
0.9987827659587182
 41
0.639228354817152
 42
0.7847891758118302
  0
ELLIPSE
  5
16F3
330
D
100
AcDbEntity
 67
     1
  8
AM_VIS
100
AcDbEllipse
 10
953.298592650359
 20
76.36236933157215
 30
0.0
 11
8.495622535190278
 21
8.495622535190287
 31
0.0
210
0.0
220
0.0
230
1.0
 40
0.9987827659587182
 41
5.498396131367745
 42
5.643956952363035
  0
ELLIPSE
  5
16F4
330
D
100
AcDbEntity
 67
     1
  8
AM_VIS
100
AcDbEllipse
 10
953.298592650359
 20
-37.87696313066863
 30
0.0
 11
8.495622535190287
 21
-8.495622535190278
 31
0.0
210
0.0
220
0.0
230
1.0
 40
0.9987827659587182
 41
0.6392283548166068
 42
0.7847891758118302
  0
ELLIPSE
  5
16F5
330
D
100
AcDbEntity
 67
     1
  8
AM_VIS
100
AcDbEllipse
 10
953.298592650359
 20
-37.87696313066863
 30
0.0
 11
8.495622535190287
 21
-8.495622535190278
 31
0.0
210
0.0
220
0.0
230
1.0
 40
0.9987827659587182
 41
5.498396131367755
 42
5.643956952363369
  0
ELLIPSE
  5
16F6
330
D
100
AcDbEntity
 67
     1
  8
AM_VIS
100
AcDbEllipse
 10
954.1716118876527
 20
-38.7499823679625
 30
0.0
 11
8.495622535190287
 21
-8.495622535190278
 31
0.0
210
0.0
220
0.0
230
1.0
 40
0.9987827659587182
 41
5.498396131367748
 42
7.06797448299142
  0
ELLIPSE
  5
16F7
330
D
100
AcDbEntity
 67
     1
  8
AM_VIS
100
AcDbEllipse
 10
954.1716118876527
 20
77.2353885688658
 30
0.0
 11
8.495622535190278
 21
8.495622535190287
 31
0.0
210
0.0
220
0.0
230
1.0
 40
0.9987827659587182
 41
5.498396131367748
 42
7.06797448299142
  0
ELLIPSE
  5
16F8
330
D
100
AcDbEntity
 67
     1
  8
AM_VIS
100
AcDbEllipse
 10
838.1862409508244
 20
77.2353885688658
 30
0.0
 11
-8.495622535190282
 21
8.495622535190284
 31
0.0
210
0.0
220
0.0
230
1.0
 40
0.9987827659587182
 41
5.49839613136775
 42
7.067974482991421
  0
ELLIPSE
  5
16F9
330
D
100
AcDbEntity
 67
     1
  8
AM_VIS
100
AcDbEllipse
 10
838.1862409508245
 20
-38.7499823679625
 30
0.0
 11
-8.495622535190289
 21
-8.495622535190276
 31
0.0
210
0.0
220
0.0
230
1.0
 40
0.9987827659587182
 41
5.498396131367751
 42
7.067974482991422
  0
ELLIPSE
  5
16FA
330
D
100
AcDbEntity
 67
     1
  8
AM_VIS
100
AcDbEllipse
 10
839.0592601881182
 20
-37.87696313066886
 30
0.0
 11
-8.495622535190289
 21
-8.495622535190276
 31
0.0
210
0.0
220
0.0
230
1.0
 40
0.9987827659587182
 41
0.6392283548163145
 42
0.7847891758118303
  0
ELLIPSE
  5
16FB
330
D
100
AcDbEntity
 67
     1
  8
AM_VIS
100
AcDbEllipse
 10
839.0592601881182
 20
-37.87696313066886
 30
0.0
 11
-8.495622535190289
 21
-8.495622535190276
 31
0.0
210
0.0
220
0.0
230
1.0
 40
0.9987827659587182
 41
5.498396131367757
 42
5.643956952363315
  0
ELLIPSE
  5
16FD
330
D
100
AcDbEntity
 67
     1
  8
AM_VIS
100
AcDbEllipse
 10
875.6789264192386
 20
-37.87696313066886
 30
0.0
 11
0.0000000000000036
 21
-12.00731453158586
 31
0.0
210
0.0
220
0.0
230
1.0
 40
0.9993908270190956
 41
6.137624486183789
 42
6.283185307179587
  0
ELLIPSE
  5
16FE
330
D
100
AcDbEntity
 67
     1
  8
AM_VIS
100
AcDbEllipse
 10
953.298592650359
 20
-1.257296899548236
 30
0.0
 11
12.00731453158586
 21
0.0000000000000036
 31
0.0
210
0.0
220
0.0
230
1.0
 40
0.9993908270190956
 41
6.137624486184363
 42
6.283185307179587
  0
LINE
  5
16FF
330
D
100
AcDbEntity
 67
     1
  8
AM_VIS
100
AcDbLine
 10
838.1716163434678
 20
-50.75729689954835
 30
0.0
 11
954.1862364950095
 21
-50.75729689954835
 31
0.0
  0
LINE
  5
1700
330
D
100
AcDbEntity
 67
     1
  8
AM_VIS
100
AcDbLine
 10
839.0446355807615
 20
-49.8842776622547
 30
0.0
 11
875.6789264192386
 21
-49.8842776622547
 31
0.0
  0
LINE
  5
1701
330
D
100
AcDbEntity
 67
     1
  8
AM_VIS
100
AcDbLine
 10
916.6789264192386
 20
-49.8842776622547
 30
0.0
 11
953.3132172577159
 21
-49.8842776622547
 31
0.0
  0
ELLIPSE
  5
1702
330
D
100
AcDbEntity
 67
     1
  8
AM_VIS
100
AcDbEllipse
 10
916.6789264192386
 20
-37.87696313066863
 30
0.0
 11
-0.0000000000009726
 21
-12.00731453158586
 31
0.0
210
0.0
220
0.0
230
1.0
 40
0.9993908270190956
 41
0.0000000000000882
 42
0.1455608209956767
  0
LINE
  5
1703
330
D
100
AcDbEntity
 67
     1
  8
AM_VIS
100
AcDbLine
 10
827.0519456565322
 20
-1.25729689954835
 30
0.0
 11
827.0519456565322
 21
-37.89158773802558
 31
0.0
  0
LINE
  5
1704
330
D
100
AcDbEntity
 67
     1
  8
AM_VIS
100
AcDbLine
 10
826.1789264192387
 20
77.25001317622252
 30
0.0
 11
826.1789264192387
 21
-38.76460697531923
 31
0.0
  0
LINE
  5
1705
330
D
100
AcDbEntity
 67
     1
  8
AM_VIS
100
AcDbLine
 10
827.0519456565322
 20
76.37699393892887
 30
0.0
 11
827.0519456565322
 21
39.74270310045165
 31
0.0
  0
ELLIPSE
  5
1706
330
D
100
AcDbEntity
 67
     1
  8
AM_VIS
100
AcDbEllipse
 10
839.0592601881182
 20
39.74270310045176
 30
0.0
 11
-12.00731453158586
 21
-0.0000000000029114
 31
0.0
210
0.0
220
0.0
230
1.0
 40
0.9993908270190956
 41
6.137624486183818
 42
6.283185307179347
  0
ELLIPSE
  5
1707
330
D
100
AcDbEntity
 67
     1
  8
AM_VIS
100
AcDbEllipse
 10
875.6789264192386
 20
76.36236933157215
 30
0.0
 11
-0.0000000000000062
 21
12.00731453158586
 31
0.0
210
0.0
220
0.0
230
1.0
 40
0.9993908270190956
 41
-0.0000000000000006
 42
0.1455608209947263
  0
LINE
  5
1708
330
D
100
AcDbEntity
 67
     1
  8
AM_VIS
100
AcDbLine
 10
875.6789264192386
 20
88.36968386315801
 30
0.0
 11
839.0446355807615
 21
88.36968386315801
 31
0.0
  0
LINE
  5
1709
330
D
100
AcDbEntity
 67
     1
  8
AM_VIS
100
AcDbLine
 10
954.1862364950095
 20
89.24270310045164
 30
0.0
 11
838.1716163434678
 21
89.24270310045164
 31
0.0
  0
LINE
  5
170A
330
D
100
AcDbEntity
 67
     1
  8
AM_VIS
100
AcDbLine
 10
953.3132172577159
 20
88.36968386315801
 30
0.0
 11
916.6789264192386
 21
88.36968386315801
 31
0.0
  0
ELLIPSE
  5
170B
330
D
100
AcDbEntity
 67
     1
  8
AM_VIS
100
AcDbEllipse
 10
916.6789264192386
 20
76.36236933157215
 30
0.0
 11
-0.0000000000000036
 21
12.00731453158586
 31
0.0
210
0.0
220
0.0
230
1.0
 40
0.9993908270190956
 41
6.137624486184899
 42
6.283185307179587
  0
LINE
  5
170C
330
D
100
AcDbEntity
 67
     1
  8
AM_VIS
100
AcDbLine
 10
966.1789264192387
 20
-38.76460697531923
 30
0.0
 11
966.1789264192387
 21
77.25001317622252
 31
0.0
  0
LINE
  5
170D
330
D
100
AcDbEntity
 67
     1
  8
AM_VIS
100
AcDbLine
 10
965.305907181945
 20
-37.89158773802546
 30
0.0
 11
965.305907181945
 21
-1.25729689954835
 31
0.0
  0
LINE
  5
170E
330
D
100
AcDbEntity
 67
     1
  8
AM_VIS
100
AcDbLine
 10
965.305907181945
 20
39.74270310045165
 30
0.0
 11
965.305907181945
 21
76.37699393892887
 31
0.0
  0
ELLIPSE
  5
170F
330
D
100
AcDbEntity
 67
     1
  8
AM_VIS
100
AcDbEllipse
 10
953.298592650359
 20
39.74270310045176
 30
0.0
 11
12.00731453158586
 21
0.0000000000000062
 31
0.0
210
0.0
220
0.0
230
1.0
 40
0.9993908270190956
 41
0.0000000000000011
 42
0.1455608209952539
  0
ELLIPSE
  5
1711
330
D
100
AcDbEntity
 67
     1
  8
AM_VIS
100
AcDbEllipse
 10
826.7027379616148
 20
30.24270310045177
 30
0.0
 11
0.0000000000000014
 21
13.7
 31
0.0
210
0.0
220
0.0
230
1.0
 40
0.0349207694917482
 41
4.808894503516301
 42
10.89906876443504
  0
LINE
  5
1712
330
D
100
AcDbEntity
 67
     1
  8
AM_VIS
100
AcDbLine
 10
916.6789264192386
 20
7.407022582064314
 30
0.0
 11
896.1789264192386
 21
-4.42865793632302
 31
0.0
  0
LINE
  5
1713
330
D
100
AcDbEntity
 67
     1
  8
AM_VIS
100
AcDbLine
 10
896.1789264192386
 20
-4.42865793632302
 30
0.0
 11
875.6789264192386
 21
7.407022582064314
 31
0.0
  0
LINE
  5
1714
330
D
100
AcDbEntity
 67
     1
  8
AM_VIS
100
AcDbLine
 10
875.6789264192386
 20
7.407022582064314
 30
0.0
 11
875.6789264192386
 21
31.07838361883898
 31
0.0
  0
LINE
  5
1715
330
D
100
AcDbEntity
 67
     1
  8
AM_VIS
100
AcDbLine
 10
875.6789264192386
 20
31.07838361883898
 30
0.0
 11
896.1789264192386
 21
42.91406413722632
 31
0.0
  0
LINE
  5
1716
330
D
100
AcDbEntity
 67
     1
  8
AM_VIS
100
AcDbLine
 10
896.1789264192386
 20
42.91406413722632
 30
0.0
 11
916.6789264192386
 21
31.07838361883898
 31
0.0
  0
LINE
  5
1717
330
D
100
AcDbEntity
 67
     1
  8
AM_VIS
100
AcDbLine
 10
916.6789264192386
 20
31.07838361883898
 30
0.0
 11
916.6789264192386
 21
7.407022582064314
 31
0.0
  0
ELLIPSE
  5
1718
330
D
100
AcDbEntity
 67
     1
  8
AM_VIS
100
AcDbEllipse
 10
965.6551148768626
 20
30.24270310045177
 30
0.0
 11
-0.000000000000003
 21
-13.7
 31
0.0
210
0.0
220
0.0
230
0.9999999999999998
 40
0.0349207694917478
 41
4.80889450352434
 42
10.89906876442352
  0
CIRCLE
  5
1719
330
D
100
AcDbEntity
 67
     1
  8
AM_VIS
100
AcDbCircle
 10
896.1789264192386
 20
19.24270310045165
 30
0.0
 40
13.5
  0
CIRCLE
  5
171A
330
D
100
AcDbEntity
 67
     1
  8
AM_VIS
100
AcDbCircle
 10
896.1789264192386
 20
19.24270310045165
 30
0.0
 40
12.0
  0
DIMENSION
  5
17B7
330
D
100
AcDbEntity
 67
     1
  8
AM_5
100
AcDbDimension
  2
*D4
 10
354.5870220404718
 20
-10.75729689954834
 30
0.0
 11
354.5870220404718
 21
19.24270310045176
 31
0.0
 70
   160
  1
%%c<>
 71
     5
 42
60.0
  3
AM_ISO$0
100
AcDbAlignedDimension
 13
376.6376797581603
 23
49.24270310045165
 33
0.0
 14
376.6376797581603
 24
-10.75729689954835
 34
0.0
 50
90.0
100
AcDbRotatedDimension
1001
ACAD
1000
DSTYLE
1002
{
1070
    40
1040
2.898441249355007
1070
   272
1070
     8
1002
}
  0
LINE
  5
187B
330
D
100
AcDbEntity
 67
     1
  8
AM_7
100
AcDbLine
 10
308.7229725457979
 20
3.242703100451649
 30
0.0
 11
298.8102744695274
 21
3.242703100451649
 31
0.0
  0
LINE
  5
187C
330
D
100
AcDbEntity
 67
     1
  8
AM_7
100
AcDbLine
 10
308.7648774691883
 20
30.24270310045165
 30
0.0
 11
301.3102744695276
 21
30.24270310045165
 31
0.0
  0
LINE
  5
187D
330
D
100
AcDbEntity
 67
     1
  8
AM_7
100
AcDbLine
 10
162.8556714698666
 20
30.24270310045165
 30
0.0
 11
170.3102744695275
 21
30.24270310045165
 31
0.0
  0
LINE
  5
187E
330
D
100
AcDbEntity
 67
     1
  8
AM_7
100
AcDbLine
 10
235.8102744695275
 20
19.24270310045165
 30
0.0
 11
235.8102744695275
 21
19.24270310045165
 31
0.0
  0
LINE
  5
187F
330
D
100
AcDbEntity
 67
     1
  8
AM_7
100
AcDbLine
 10
235.8102744695275
 20
19.24270310045165
 30
0.0
 11
235.8102744695275
 21
19.24270310045165
 31
0.0
  0
LINE
  5
1880
330
D
100
AcDbEntity
 67
     1
  8
AM_7
100
AcDbLine
 10
202.8102744695275
 20
19.24270310045165
 30
0.0
 11
235.8102744695275
 21
19.24270310045165
 31
0.0
  0
LINE
  5
1881
330
D
100
AcDbEntity
 67
     1
  8
AM_7
100
AcDbLine
 10
235.8102744695275
 20
19.24270310045165
 30
0.0
 11
268.8102744695275
 21
19.24270310045165
 31
0.0
  0
LINE
  5
1882
330
D
100
AcDbEntity
 67
     1
  8
AM_7
100
AcDbLine
 10
235.8102744695275
 20
-13.75729689954835
 30
0.0
 11
235.8102744695275
 21
19.24270310045165
 31
0.0
  0
LINE
  5
1883
330
D
100
AcDbEntity
 67
     1
  8
AM_7
100
AcDbLine
 10
235.8102744695275
 20
19.24270310045165
 30
0.0
 11
235.8102744695275
 21
52.24270310045165
 31
0.0
  0
LINE
  5
1884
330
D
100
AcDbEntity
 67
     1
  8
AM_7
100
AcDbLine
 10
290.8102744695275
 20
74.24270310045165
 30
0.0
 11
290.8102744695275
 21
74.24270310045165
 31
0.0
  0
LINE
  5
1885
330
D
100
AcDbEntity
 67
     1
  8
AM_7
100
AcDbLine
 10
290.8102744695275
 20
74.24270310045165
 30
0.0
 11
290.8102744695275
 21
74.24270310045165
 31
0.0
  0
LINE
  5
1886
330
D
100
AcDbEntity
 67
     1
  8
AM_7
100
AcDbLine
 10
282.5897744695275
 20
74.24270310045165
 30
0.0
 11
290.8102744695275
 21
74.24270310045165
 31
0.0
  0
LINE
  5
1887
330
D
100
AcDbEntity
 67
     1
  8
AM_7
100
AcDbLine
 10
290.8102744695275
 20
74.24270310045165
 30
0.0
 11
299.0307744695275
 21
74.24270310045165
 31
0.0
  0
LINE
  5
1888
330
D
100
AcDbEntity
 67
     1
  8
AM_7
100
AcDbLine
 10
290.8102744695275
 20
66.02220310045163
 30
0.0
 11
290.8102744695275
 21
74.24270310045165
 31
0.0
  0
LINE
  5
1889
330
D
100
AcDbEntity
 67
     1
  8
AM_7
100
AcDbLine
 10
290.8102744695275
 20
74.24270310045165
 30
0.0
 11
290.8102744695275
 21
82.46320310045167
 31
0.0
  0
LINE
  5
188A
330
D
100
AcDbEntity
 67
     1
  8
AM_7
100
AcDbLine
 10
290.8102744695275
 20
-35.75729689954835
 30
0.0
 11
290.8102744695275
 21
-35.75729689954835
 31
0.0
  0
LINE
  5
188B
330
D
100
AcDbEntity
 67
     1
  8
AM_7
100
AcDbLine
 10
290.8102744695275
 20
-35.75729689954835
 30
0.0
 11
290.8102744695275
 21
-35.75729689954835
 31
0.0
  0
LINE
  5
188C
330
D
100
AcDbEntity
 67
     1
  8
AM_7
100
AcDbLine
 10
282.5897744695275
 20
-35.75729689954835
 30
0.0
 11
290.8102744695275
 21
-35.75729689954835
 31
0.0
  0
LINE
  5
188D
330
D
100
AcDbEntity
 67
     1
  8
AM_7
100
AcDbLine
 10
290.8102744695275
 20
-35.75729689954835
 30
0.0
 11
299.0307744695275
 21
-35.75729689954835
 31
0.0
  0
LINE
  5
188E
330
D
100
AcDbEntity
 67
     1
  8
AM_7
100
AcDbLine
 10
290.8102744695275
 20
-43.97779689954837
 30
0.0
 11
290.8102744695275
 21
-35.75729689954835
 31
0.0
  0
LINE
  5
188F
330
D
100
AcDbEntity
 67
     1
  8
AM_7
100
AcDbLine
 10
290.8102744695275
 20
-35.75729689954835
 30
0.0
 11
290.8102744695275
 21
-27.53679689954834
 31
0.0
  0
LINE
  5
1890
330
D
100
AcDbEntity
 67
     1
  8
AM_7
100
AcDbLine
 10
180.8102744695275
 20
-35.75729689954835
 30
0.0
 11
180.8102744695275
 21
-35.75729689954835
 31
0.0
  0
LINE
  5
1891
330
D
100
AcDbEntity
 67
     1
  8
AM_7
100
AcDbLine
 10
180.8102744695275
 20
-35.75729689954835
 30
0.0
 11
180.8102744695275
 21
-35.75729689954835
 31
0.0
  0
LINE
  5
1892
330
D
100
AcDbEntity
 67
     1
  8
AM_7
100
AcDbLine
 10
172.5897744695276
 20
-35.75729689954835
 30
0.0
 11
180.8102744695275
 21
-35.75729689954835
 31
0.0
  0
LINE
  5
1893
330
D
100
AcDbEntity
 67
     1
  8
AM_7
100
AcDbLine
 10
180.8102744695275
 20
-35.75729689954835
 30
0.0
 11
189.0307744695274
 21
-35.75729689954835
 31
0.0
  0
LINE
  5
1894
330
D
100
AcDbEntity
 67
     1
  8
AM_7
100
AcDbLine
 10
180.8102744695275
 20
-43.97779689954837
 30
0.0
 11
180.8102744695275
 21
-35.75729689954835
 31
0.0
  0
LINE
  5
1895
330
D
100
AcDbEntity
 67
     1
  8
AM_7
100
AcDbLine
 10
180.8102744695275
 20
-35.75729689954835
 30
0.0
 11
180.8102744695275
 21
-27.53679689954834
 31
0.0
  0
LINE
  5
1896
330
D
100
AcDbEntity
 67
     1
  8
AM_7
100
AcDbLine
 10
180.8102744695275
 20
74.24270310045165
 30
0.0
 11
180.8102744695275
 21
74.24270310045165
 31
0.0
  0
LINE
  5
1897
330
D
100
AcDbEntity
 67
     1
  8
AM_7
100
AcDbLine
 10
180.8102744695275
 20
74.24270310045165
 30
0.0
 11
180.8102744695275
 21
74.24270310045165
 31
0.0
  0
LINE
  5
1898
330
D
100
AcDbEntity
 67
     1
  8
AM_7
100
AcDbLine
 10
172.5897744695276
 20
74.24270310045165
 30
0.0
 11
180.8102744695275
 21
74.24270310045165
 31
0.0
  0
LINE
  5
1899
330
D
100
AcDbEntity
 67
     1
  8
AM_7
100
AcDbLine
 10
180.8102744695275
 20
74.24270310045165
 30
0.0
 11
189.0307744695274
 21
74.24270310045165
 31
0.0
  0
LINE
  5
189A
330
D
100
AcDbEntity
 67
     1
  8
AM_7
100
AcDbLine
 10
180.8102744695275
 20
66.02220310045163
 30
0.0
 11
180.8102744695275
 21
74.24270310045165
 31
0.0
  0
LINE
  5
189B
330
D
100
AcDbEntity
 67
     1
  8
AM_7
100
AcDbLine
 10
180.8102744695275
 20
74.24270310045165
 30
0.0
 11
180.8102744695275
 21
82.46320310045167
 31
0.0
  0
ARC
  5
189C
330
D
100
AcDbEntity
 67
     1
  8
AM_4
100
AcDbCircle
 10
290.8102744695275
 20
74.24270310045165
 30
0.0
 40
6.226499999999999
100
AcDbArc
 50
260.0000000000014
 51
189.9999999999986
  0
ARC
  5
189D
330
D
100
AcDbEntity
 67
     1
  8
AM_4
100
AcDbCircle
 10
290.8102744695275
 20
-35.75729689954835
 30
0.0
 40
6.226499999999999
100
AcDbArc
 50
260.0000000000014
 51
189.9999999999986
  0
ARC
  5
189E
330
D
100
AcDbEntity
 67
     1
  8
AM_4
100
AcDbCircle
 10
180.8102744695275
 20
-35.75729689954835
 30
0.0
 40
6.226499999999999
100
AcDbArc
 50
260.0000000000014
 51
189.9999999999986
  0
ARC
  5
189F
330
D
100
AcDbEntity
 67
     1
  8
AM_4
100
AcDbCircle
 10
180.8102744695275
 20
74.24270310045165
 30
0.0
 40
6.226499999999999
100
AcDbArc
 50
260.0000000000014
 51
189.9999999999986
  0
LINE
  5
18A0
330
D
100
AcDbEntity
 67
     1
  8
AM_VIS
100
AcDbLine
 10
166.6832937068211
 20
76.37699393892887
 30
0.0
 11
166.6832937068211
 21
39.74270310045165
 31
0.0
  0
LINE
  5
18A1
330
D
100
AcDbEntity
 67
     1
  8
AM_VIS
100
AcDbLine
 10
304.9372552322338
 20
-37.89158773802546
 30
0.0
 11
304.9372552322338
 21
-1.25729689954835
 31
0.0
  0
LINE
  5
18A2
330
D
100
AcDbEntity
 67
     1
  8
AM_VIS
100
AcDbLine
 10
292.9299407006478
 20
51.74270310045165
 30
0.0
 11
292.4061291582716
 21
51.74270310045165
 31
0.0
  0
ELLIPSE
  5
18A3
330
D
100
AcDbEntity
 67
     1
  8
AM_VIS
100
AcDbEllipse
 10
292.9299407006478
 20
76.36236933157215
 30
0.0
 11
8.495622535190276
 21
8.495622535190289
 31
0.0
210
0.0
220
0.0
230
1.0
 40
0.9987827659587182
 41
5.49839613136775
 42
7.06797448299142
  0
LINE
  5
18A4
330
D
100
AcDbEntity
 67
     1
  8
AM_VIS
100
AcDbLine
 10
304.9372552322338
 20
39.74270310045165
 30
0.0
 11
304.9372552322338
 21
76.37699393892876
 31
0.0
  0
ELLIPSE
  5
18A5
330
D
100
AcDbEntity
 67
     1
  8
AM_VIS
100
AcDbEllipse
 10
292.9299407006478
 20
39.74270310045176
 30
0.0
 11
12.00731453158586
 21
-0.0000000000009663
 31
0.0
210
0.0
220
0.0
230
1.0
 40
0.999390827019096
 41
0.0000000000000766
 42
1.570796326794972
  0
ELLIPSE
  5
18A6
330
D
100
AcDbEntity
 67
     1
  8
AM_VIS
100
AcDbEllipse
 10
256.3102744695275
 20
76.36236933157215
 30
0.0
 11
-0.0000000000000089
 21
12.00731453158586
 31
0.0
210
0.0
220
0.0
230
1.0
 40
0.9993908270190956
 41
4.712388980384689
 42
6.283185307179585
  0
LINE
  5
18A7
330
D
100
AcDbEntity
 67
     1
  8
AM_VIS
100
AcDbLine
 10
268.3102744695275
 20
75.83855778919588
 30
0.0
 11
268.3102744695275
 21
76.36236933157204
 31
0.0
  0
ELLIPSE
  5
18A8
330
D
100
AcDbEntity
 67
     1
  8
AM_VIS
100
AcDbEllipse
 10
215.3102744695275
 20
76.36236933157215
 30
0.0
 11
-0.0000000000000115
 21
12.00731453158586
 31
0.0
210
0.0
220
0.0
230
1.0
 40
0.9993908270190956
 41
-0.0000000000000015
 42
1.570796326794895
  0
LINE
  5
18A9
330
D
100
AcDbEntity
 67
     1
  8
AM_VIS
100
AcDbLine
 10
292.9445653080047
 20
88.36968386315801
 30
0.0
 11
256.3102744695275
 21
88.36968386315801
 31
0.0
  0
LINE
  5
18AA
330
D
100
AcDbEntity
 67
     1
  8
AM_VIS
100
AcDbLine
 10
215.3102744695275
 20
88.36968386315801
 30
0.0
 11
178.6759836310502
 21
88.36968386315801
 31
0.0
  0
ELLIPSE
  5
18AB
330
D
100
AcDbEntity
 67
     1
  8
AM_VIS
100
AcDbEllipse
 10
178.6906082384071
 20
76.36236933157215
 30
0.0
 11
-8.495622535190284
 21
8.495622535190282
 31
0.0
210
0.0
220
0.0
230
1.0
 40
0.9987827659587182
 41
5.49839613136775
 42
7.067974482991421
  0
ELLIPSE
  5
18AC
330
D
100
AcDbEntity
 67
     1
  8
AM_VIS
100
AcDbEllipse
 10
178.6906082384071
 20
39.74270310045176
 30
0.0
 11
-12.00731453158586
 21
-0.0000000000000089
 31
0.0
210
0.0
220
0.0
230
1.0
 40
0.9993908270190956
 41
4.712388980384689
 42
6.283185307179585
  0
LINE
  5
18AD
330
D
100
AcDbEntity
 67
     1
  8
AM_VIS
100
AcDbLine
 10
179.2144197807834
 20
51.74270310045165
 30
0.0
 11
178.6906082384071
 21
51.74270310045165
 31
0.0
  0
LINE
  5
18AE
330
D
100
AcDbEntity
 67
     1
  8
AM_VIS
100
AcDbLine
 10
203.3102744695275
 20
76.36236933157204
 30
0.0
 11
203.3102744695275
 21
75.83855778919588
 31
0.0
  0
LINE
  5
18AF
330
D
100
AcDbEntity
 67
     1
  8
AM_VIS
100
AcDbLine
 10
203.3102744695275
 20
-37.35315158829258
 30
0.0
 11
203.3102744695275
 21
-37.87696313066874
 31
0.0
  0
LINE
  5
18B0
330
D
100
AcDbEntity
 67
     1
  8
AM_VIS
100
AcDbLine
 10
178.6906082384071
 20
-13.25729689954835
 30
0.0
 11
179.2144197807834
 21
-13.25729689954835
 31
0.0
  0
ELLIPSE
  5
18B1
330
D
100
AcDbEntity
 67
     1
  8
AM_VIS
100
AcDbEllipse
 10
256.3102744695275
 20
-37.87696313066863
 30
0.0
 11
-0.0000000000019371
 21
-12.00731453158586
 31
0.0
210
0.0
220
0.0
230
1.0
 40
0.9993908270190956
 41
0.000000000000153
 42
1.570796326795049
  0
LINE
  5
18B2
330
D
100
AcDbEntity
 67
     1
  8
AM_VIS
100
AcDbLine
 10
268.3102744695275
 20
-37.87696313066874
 30
0.0
 11
268.3102744695275
 21
-37.35315158829258
 31
0.0
  0
LINE
  5
18B3
330
D
100
AcDbEntity
 67
     1
  8
AM_VIS
100
AcDbLine
 10
268.3102744695275
 20
-37.35315158829258
 30
0.0
 11
268.3102744695275
 21
-25.25729689954835
 31
0.0
  0
ELLIPSE
  5
18B4
330
D
100
AcDbEntity
 67
     1
  8
AM_VIS
100
AcDbEllipse
 10
256.3102744695275
 20
-37.35315158829258
 30
0.0
 11
-0.0000000000019371
 21
-12.00731453158586
 31
0.0
210
0.0
220
0.0
230
1.0
 40
0.9993908270190956
 41
0.000000000000153
 42
1.570796326795048
  0
ELLIPSE
  5
18B5
330
D
100
AcDbEntity
 67
     1
  8
AM_VIS
100
AcDbEllipse
 10
215.3102744695275
 20
-37.35315158829258
 30
0.0
 11
0.000000000000977
 21
-12.00731453158586
 31
0.0
210
0.0
220
0.0
230
1.0
 40
0.999390827019096
 41
4.712388980384604
 42
6.2831853071795
  0
LINE
  5
18B6
330
D
100
AcDbEntity
 67
     1
  8
AM_VIS
100
AcDbLine
 10
203.3102744695275
 20
-25.25729689954835
 30
0.0
 11
203.3102744695275
 21
-37.35315158829258
 31
0.0
  0
LINE
  5
18B7
330
D
100
AcDbEntity
 67
     1
  8
AM_VIS
100
AcDbLine
 10
179.2144197807831
 20
-13.25729689954835
 30
0.0
 11
191.3102744695274
 21
-13.25729689954835
 31
0.0
  0
ELLIPSE
  5
18B8
330
D
100
AcDbEntity
 67
     1
  8
AM_VIS
100
AcDbEllipse
 10
179.2144197807834
 20
-1.257296899548236
 30
0.0
 11
-12.00731453158586
 21
-0.0000000000000115
 31
0.0
210
0.0
220
0.0
230
1.0
 40
0.9993908270190956
 41
-0.0000000000000015
 42
1.570796326794894
  0
LINE
  5
18B9
330
D
100
AcDbEntity
 67
     1
  8
AM_VIS
100
AcDbLine
 10
167.2071052491974
 20
-1.257296899548464
 30
0.0
 11
167.2071052491974
 21
39.74270310045165
 31
0.0
  0
ELLIPSE
  5
18BA
330
D
100
AcDbEntity
 67
     1
  8
AM_VIS
100
AcDbEllipse
 10
179.2144197807834
 20
39.74270310045176
 30
0.0
 11
-12.00731453158586
 21
-0.0000000000000089
 31
0.0
210
0.0
220
0.0
230
1.0
 40
0.9993908270190956
 41
4.712388980384689
 42
6.283185307179585
  0
LINE
  5
18BB
330
D
100
AcDbEntity
 67
     1
  8
AM_VIS
100
AcDbLine
 10
191.3102744695274
 20
51.74270310045165
 30
0.0
 11
179.2144197807834
 21
51.74270310045165
 31
0.0
  0
LINE
  5
18BC
330
D
100
AcDbEntity
 67
     1
  8
AM_VIS
100
AcDbLine
 10
203.3102744695275
 20
75.83855778919588
 30
0.0
 11
203.3102744695275
 21
63.74270310045165
 31
0.0
  0
ELLIPSE
  5
18BD
330
D
100
AcDbEntity
 67
     1
  8
AM_VIS
100
AcDbEllipse
 10
215.3102744695275
 20
75.83855778919588
 30
0.0
 11
-0.0000000000000115
 21
12.00731453158586
 31
0.0
210
0.0
220
0.0
230
1.0
 40
0.9993908270190956
 41
-0.0000000000000015
 42
1.570796326794894
  0
LINE
  5
18BE
330
D
100
AcDbEntity
 67
     1
  8
AM_VIS
100
AcDbLine
 10
215.3102744695275
 20
87.84587232078171
 30
0.0
 11
256.3102744695275
 21
87.84587232078171
 31
0.0
  0
ELLIPSE
  5
18BF
330
D
100
AcDbEntity
 67
     1
  8
AM_VIS
100
AcDbEllipse
 10
256.3102744695275
 20
75.83855778919588
 30
0.0
 11
-0.0000000000000089
 21
12.00731453158586
 31
0.0
210
0.0
220
0.0
230
1.0
 40
0.9993908270190956
 41
4.712388980384689
 42
6.283185307179585
  0
LINE
  5
18C0
330
D
100
AcDbEntity
 67
     1
  8
AM_VIS
100
AcDbLine
 10
268.3102744695275
 20
63.74270310045165
 30
0.0
 11
268.3102744695275
 21
75.83855778919588
 31
0.0
  0
LINE
  5
18C1
330
D
100
AcDbEntity
 67
     1
  8
AM_VIS
100
AcDbLine
 10
292.4061291582718
 20
51.74270310045165
 30
0.0
 11
280.3102744695275
 21
51.74270310045165
 31
0.0
  0
ELLIPSE
  5
18C2
330
D
100
AcDbEntity
 67
     1
  8
AM_VIS
100
AcDbEllipse
 10
292.4061291582718
 20
39.74270310045176
 30
0.0
 11
12.00731453158586
 21
-0.0000000000009663
 31
0.0
210
0.0
220
0.0
230
1.0
 40
0.999390827019096
 41
0.0000000000000766
 42
1.570796326794972
  0
LINE
  5
18C3
330
D
100
AcDbEntity
 67
     1
  8
AM_VIS
100
AcDbLine
 10
304.4134436898576
 20
39.74270310045165
 30
0.0
 11
304.4134436898576
 21
-1.25729689954835
 31
0.0
  0
LINE
  5
18C4
330
D
100
AcDbEntity
 67
     1
  8
AM_VIS
100
AcDbLine
 10
280.3102744695275
 20
-13.25729689954835
 30
0.0
 11
292.4061291582716
 21
-13.25729689954835
 31
0.0
  0
ELLIPSE
  5
18C5
330
D
100
AcDbEntity
 67
     1
  8
AM_VIS
100
AcDbEllipse
 10
292.9299407006478
 20
-1.257296899548236
 30
0.0
 11
12.00731453158586
 21
0.0000000000000089
 31
0.0
210
0.0
220
0.0
230
1.0
 40
0.9993908270190956
 41
4.712388980384689
 42
6.283185307179585
  0
LINE
  5
18C6
330
D
100
AcDbEntity
 67
     1
  8
AM_VIS
100
AcDbLine
 10
292.4061291582716
 20
-13.25729689954835
 30
0.0
 11
292.9299407006478
 21
-13.25729689954835
 31
0.0
  0
ELLIPSE
  5
18C7
330
D
100
AcDbEntity
 67
     1
  8
AM_VIS
100
AcDbEllipse
 10
292.4061291582716
 20
-1.257296899548236
 30
0.0
 11
12.00731453158586
 21
0.0000000000000089
 31
0.0
210
0.0
220
0.0
230
1.0
 40
0.9993908270190956
 41
4.712388980384689
 42
6.283185307179585
  0
LINE
  5
18C8
330
D
100
AcDbEntity
 67
     1
  8
AM_VIS
100
AcDbLine
 10
166.6832937068211
 20
-1.25729689954835
 30
0.0
 11
166.6832937068211
 21
-37.89158773802546
 31
0.0
  0
ELLIPSE
  5
18C9
330
D
100
AcDbEntity
 67
     1
  8
AM_VIS
100
AcDbEllipse
 10
178.6906082384071
 20
-1.257296899548236
 30
0.0
 11
-12.00731453158586
 21
-0.0000000000000115
 31
0.0
210
0.0
220
0.0
230
1.0
 40
0.9993908270190956
 41
-0.0000000000000015
 42
1.570796326794894
  0
ELLIPSE
  5
18CA
330
D
100
AcDbEntity
 67
     1
  8
AM_VIS
100
AcDbEllipse
 10
215.3102744695275
 20
-37.87696313066863
 30
0.0
 11
0.000000000000977
 21
-12.00731453158586
 31
0.0
210
0.0
220
0.0
230
1.0
 40
0.999390827019096
 41
4.712388980384604
 42
6.2831853071795
  0
ELLIPSE
  5
18CB
330
D
100
AcDbEntity
 67
     1
  8
AM_VIS
100
AcDbEllipse
 10
178.6906082384071
 20
-37.87696313066863
 30
0.0
 11
-8.495622535190276
 21
-8.495622535190289
 31
0.0
210
0.0
220
0.0
230
1.0
 40
0.9987827659587182
 41
5.49839613136775
 42
7.06797448299142
  0
LINE
  5
18CC
330
D
100
AcDbEntity
 67
     1
  8
AM_VIS
100
AcDbLine
 10
178.6759836310502
 20
-49.8842776622547
 30
0.0
 11
215.3102744695275
 21
-49.8842776622547
 31
0.0
  0
LINE
  5
18CD
330
D
100
AcDbEntity
 67
     1
  8
AM_VIS
100
AcDbLine
 10
256.3102744695275
 20
-49.36046611987842
 30
0.0
 11
215.3102744695275
 21
-49.36046611987842
 31
0.0
  0
LINE
  5
18CE
330
D
100
AcDbEntity
 67
     1
  8
AM_VIS
100
AcDbLine
 10
256.3102744695275
 20
-49.8842776622547
 30
0.0
 11
292.9445653080047
 21
-49.8842776622547
 31
0.0
  0
LINE
  5
18CF
330
D
100
AcDbEntity
 67
     1
  8
AM_VIS
100
AcDbLine
 10
305.8102744695275
 20
-38.76460697531923
 30
0.0
 11
305.8102744695275
 21
77.25001317622241
 31
0.0
  0
ELLIPSE
  5
18D0
330
D
100
AcDbEntity
 67
     1
  8
AM_VIS
100
AcDbEllipse
 10
293.8029599379415
 20
77.2353885688658
 30
0.0
 11
8.495622535190276
 21
8.495622535190289
 31
0.0
210
0.0
220
0.0
230
1.0
 40
0.9987827659587182
 41
5.498396131367749
 42
7.06797448299142
  0
LINE
  5
18D1
330
D
100
AcDbEntity
 67
     1
  8
AM_VIS
100
AcDbLine
 10
293.8175845452984
 20
89.24270310045164
 30
0.0
 11
177.8029643937566
 21
89.24270310045164
 31
0.0
  0
ELLIPSE
  5
18D2
330
D
100
AcDbEntity
 67
     1
  8
AM_VIS
100
AcDbEllipse
 10
177.8175890011134
 20
77.2353885688658
 30
0.0
 11
-8.495622535190284
 21
8.495622535190282
 31
0.0
210
0.0
220
0.0
230
1.0
 40
0.9987827659587182
 41
5.49839613136775
 42
7.067974482991421
  0
LINE
  5
18D3
330
D
100
AcDbEntity
 67
     1
  8
AM_VIS
100
AcDbLine
 10
165.8102744695275
 20
77.25001317622252
 30
0.0
 11
165.8102744695275
 21
-38.76460697531923
 31
0.0
  0
ELLIPSE
  5
18D4
330
D
100
AcDbEntity
 67
     1
  8
AM_VIS
100
AcDbEllipse
 10
177.8175890011134
 20
-38.7499823679625
 30
0.0
 11
-8.495622535190276
 21
-8.495622535190289
 31
0.0
210
0.0
220
0.0
230
1.0
 40
0.9987827659587182
 41
5.498396131367749
 42
7.06797448299142
  0
LINE
  5
18D5
330
D
100
AcDbEntity
 67
     1
  8
AM_VIS
100
AcDbLine
 10
177.8029643937566
 20
-50.75729689954835
 30
0.0
 11
293.8175845452984
 21
-50.75729689954835
 31
0.0
  0
ELLIPSE
  5
18D6
330
D
100
AcDbEntity
 67
     1
  8
AM_VIS
100
AcDbEllipse
 10
293.8029599379415
 20
-38.7499823679625
 30
0.0
 11
8.495622535190289
 21
-8.495622535190276
 31
0.0
210
0.0
220
0.0
230
1.0
 40
0.9987827659587182
 41
5.498396131367749
 42
7.06797448299142
  0
ELLIPSE
  5
18D7
330
D
100
AcDbEntity
 67
     1
  8
AM_VIS
100
AcDbEllipse
 10
292.9299407006478
 20
-37.87696313066863
 30
0.0
 11
8.495622535190289
 21
-8.495622535190276
 31
0.0
210
0.0
220
0.0
230
1.0
 40
0.9987827659587182
 41
5.49839613136775
 42
7.06797448299142
  0
ELLIPSE
  5
18D8
330
D
100
AcDbEntity
 67
     1
  8
AM_VIS
100
AcDbEllipse
 10
305.3912252356265
 20
3.242703100451763
 30
0.0
 11
-0.0000000000000021
 21
9.5
 31
0.0
210
0.0
220
0.0
230
1.0
 40
0.0349207694917478
 41
4.712388980384689
 42
10.99557428756427
  0
ELLIPSE
  5
18D9
330
D
100
AcDbEntity
 67
     1
  8
AM_VIS
100
AcDbEllipse
 10
305.2864629271512
 20
30.24270310045177
 30
0.0
 11
-0.000000000000003
 21
13.7
 31
0.0
210
0.0
220
0.0
230
0.9999999999999998
 40
0.0349207694917478
 41
4.712388980384689
 42
10.99557428756427
  0
ELLIPSE
  5
18DA
330
D
100
AcDbEntity
 67
     1
  8
AM_VIS
100
AcDbEllipse
 10
166.3340860119037
 20
30.24270310045177
 30
0.0
 11
0.0000000000000047
 21
-13.7
 31
0.0
210
0.0
220
0.0
230
0.9999999999999998
 40
0.0349207694917478
 41
4.712388980384689
 42
10.99557428756427
  0
LINE
  5
18DB
330
D
100
AcDbEntity
 67
     1
  8
AM_VIS
100
AcDbLine
 10
304.6666809300784
 20
74.24270310045165
 30
0.0
 11
297.7384776998028
 21
62.24270310045165
 31
0.0
  0
LINE
  5
18DC
330
D
100
AcDbEntity
 67
     1
  8
AM_VIS
100
AcDbLine
 10
297.7384776998028
 20
86.24270310045165
 30
0.0
 11
304.6666809300784
 21
74.24270310045165
 31
0.0
  0
LINE
  5
18DD
330
D
100
AcDbEntity
 67
     1
  8
AM_VIS
100
AcDbLine
 10
283.8820712392521
 20
86.24270310045165
 30
0.0
 11
297.7384776998031
 21
86.24270310045165
 31
0.0
  0
LINE
  5
18DE
330
D
100
AcDbEntity
 67
     1
  8
AM_VIS
100
AcDbLine
 10
276.9538680089766
 20
74.24270310045165
 30
0.0
 11
283.8820712392521
 21
86.24270310045165
 31
0.0
  0
LINE
  5
18DF
330
D
100
AcDbEntity
 67
     1
  8
AM_VIS
100
AcDbLine
 10
283.8820712392519
 20
62.24270310045165
 30
0.0
 11
276.9538680089766
 21
74.24270310045165
 31
0.0
  0
LINE
  5
18E0
330
D
100
AcDbEntity
 67
     1
  8
AM_VIS
100
AcDbLine
 10
297.7384776998031
 20
62.24270310045165
 30
0.0
 11
283.8820712392521
 21
62.24270310045165
 31
0.0
  0
LINE
  5
18E1
330
D
100
AcDbEntity
 67
     1
  8
AM_VIS
100
AcDbLine
 10
290.8102744695275
 20
-49.61370336009941
 30
0.0
 11
278.8102744695275
 21
-42.68550012982394
 31
0.0
  0
LINE
  5
18E2
330
D
100
AcDbEntity
 67
     1
  8
AM_VIS
100
AcDbLine
 10
302.8102744695275
 20
-42.68550012982382
 30
0.0
 11
290.8102744695275
 21
-49.61370336009929
 31
0.0
  0
LINE
  5
18E3
330
D
100
AcDbEntity
 67
     1
  8
AM_VIS
100
AcDbLine
 10
302.8102744695275
 20
-28.82909366927277
 30
0.0
 11
302.8102744695275
 21
-42.68550012982382
 31
0.0
  0
LINE
  5
18E4
330
D
100
AcDbEntity
 67
     1
  8
AM_VIS
100
AcDbLine
 10
290.8102744695275
 20
-21.90089043899741
 30
0.0
 11
302.8102744695275
 21
-28.82909366927288
 31
0.0
  0
LINE
  5
18E5
330
D
100
AcDbEntity
 67
     1
  8
AM_VIS
100
AcDbLine
 10
278.8102744695275
 20
-28.82909366927288
 30
0.0
 11
290.8102744695275
 21
-21.90089043899741
 31
0.0
  0
LINE
  5
18E6
330
D
100
AcDbEntity
 67
     1
  8
AM_VIS
100
AcDbLine
 10
278.8102744695275
 20
-42.68550012982382
 30
0.0
 11
278.8102744695275
 21
-28.82909366927288
 31
0.0
  0
LINE
  5
18E7
330
D
100
AcDbEntity
 67
     1
  8
AM_VIS
100
AcDbLine
 10
166.9538680089765
 20
-35.75729689954835
 30
0.0
 11
173.8820712392521
 21
-23.75729689954835
 31
0.0
  0
LINE
  5
18E8
330
D
100
AcDbEntity
 67
     1
  8
AM_VIS
100
AcDbLine
 10
173.8820712392521
 20
-47.75729689954835
 30
0.0
 11
166.9538680089765
 21
-35.75729689954835
 31
0.0
  0
LINE
  5
18E9
330
D
100
AcDbEntity
 67
     1
  8
AM_VIS
100
AcDbLine
 10
187.7384776998028
 20
-47.75729689954835
 30
0.0
 11
173.8820712392519
 21
-47.75729689954835
 31
0.0
  0
LINE
  5
18EA
330
D
100
AcDbEntity
 67
     1
  8
AM_VIS
100
AcDbLine
 10
194.6666809300784
 20
-35.75729689954835
 30
0.0
 11
187.7384776998028
 21
-47.75729689954835
 31
0.0
  0
LINE
  5
18EB
330
D
100
AcDbEntity
 67
     1
  8
AM_VIS
100
AcDbLine
 10
187.7384776998031
 20
-23.75729689954835
 30
0.0
 11
194.6666809300784
 21
-35.75729689954835
 31
0.0
  0
LINE
  5
18EC
330
D
100
AcDbEntity
 67
     1
  8
AM_VIS
100
AcDbLine
 10
173.8820712392521
 20
-23.75729689954835
 30
0.0
 11
187.7384776998031
 21
-23.75729689954835
 31
0.0
  0
LINE
  5
18ED
330
D
100
AcDbEntity
 67
     1
  8
AM_VIS
100
AcDbLine
 10
180.8102744695275
 20
88.09910956100258
 30
0.0
 11
192.8102744695275
 21
81.17090633072711
 31
0.0
  0
LINE
  5
18EE
330
D
100
AcDbEntity
 67
     1
  8
AM_VIS
100
AcDbLine
 10
168.8102744695275
 20
81.17090633072711
 30
0.0
 11
180.8102744695275
 21
88.09910956100258
 31
0.0
  0
LINE
  5
18EF
330
D
100
AcDbEntity
 67
     1
  8
AM_VIS
100
AcDbLine
 10
168.8102744695275
 20
67.31449987017606
 30
0.0
 11
168.8102744695275
 21
81.17090633072711
 31
0.0
  0
LINE
  5
18F0
330
D
100
AcDbEntity
 67
     1
  8
AM_VIS
100
AcDbLine
 10
180.8102744695275
 20
60.38629663990071
 30
0.0
 11
168.8102744695275
 21
67.31449987017618
 31
0.0
  0
LINE
  5
18F1
330
D
100
AcDbEntity
 67
     1
  8
AM_VIS
100
AcDbLine
 10
192.8102744695275
 20
67.31449987017618
 30
0.0
 11
180.8102744695275
 21
60.38629663990071
 31
0.0
  0
LINE
  5
18F2
330
D
100
AcDbEntity
 67
     1
  8
AM_VIS
100
AcDbLine
 10
192.8102744695275
 20
81.17090633072711
 30
0.0
 11
192.8102744695275
 21
67.31449987017618
 31
0.0
  0
CIRCLE
  5
18F3
330
D
100
AcDbEntity
 67
     1
  8
AM_VIS
100
AcDbCircle
 10
235.8102744695275
 20
19.24270310045165
 30
0.0
 40
30.0
  0
CIRCLE
  5
18F4
330
D
100
AcDbEntity
 67
     1
  8
AM_VIS
100
AcDbCircle
 10
235.8102744695275
 20
19.24270310045165
 30
0.0
 40
28.0
  0
ARC
  5
18F5
330
D
100
AcDbEntity
 67
     1
  8
AM_VIS
100
AcDbCircle
 10
280.3102744695275
 20
-25.25729689954835
 30
0.0
 40
12.0
100
AcDbArc
 50
90.0
 51
180.0
  0
ARC
  5
18F6
330
D
100
AcDbEntity
 67
     1
  8
AM_VIS
100
AcDbCircle
 10
191.3102744695274
 20
-25.25729689954835
 30
0.0
 40
12.0
100
AcDbArc
 50
0.0
 51
90.0
  0
ARC
  5
18F7
330
D
100
AcDbEntity
 67
     1
  8
AM_VIS
100
AcDbCircle
 10
191.3102744695274
 20
63.74270310045165
 30
0.0
 40
12.0
100
AcDbArc
 50
270.0
 51
0.0
  0
ARC
  5
18F8
330
D
100
AcDbEntity
 67
     1
  8
AM_VIS
100
AcDbCircle
 10
280.3102744695275
 20
63.74270310045165
 30
0.0
 40
12.0
100
AcDbArc
 50
180.0
 51
270.0
  0
CIRCLE
  5
18F9
330
D
100
AcDbEntity
 67
     1
  8
AM_VIS
100
AcDbCircle
 10
290.8102744695275
 20
74.24270310045165
 30
0.0
 40
5.2205
  0
CIRCLE
  5
18FA
330
D
100
AcDbEntity
 67
     1
  8
AM_VIS
100
AcDbCircle
 10
290.8102744695275
 20
-35.75729689954835
 30
0.0
 40
5.2205
  0
CIRCLE
  5
18FB
330
D
100
AcDbEntity
 67
     1
  8
AM_VIS
100
AcDbCircle
 10
180.8102744695275
 20
-35.75729689954835
 30
0.0
 40
5.2205
  0
CIRCLE
  5
18FC
330
D
100
AcDbEntity
 67
     1
  8
AM_VIS
100
AcDbCircle
 10
180.8102744695275
 20
74.24270310045165
 30
0.0
 40
5.2205
  0
DIMENSION
  5
18FE
330
D
100
AcDbEntity
 67
     1
  8
AM_5
100
AcDbDimension
  2
*D5
 10
180.8102744695274
 20
74.24270310045108
 30
0.0
 11
235.6572973114103
 21
108.7278629561709
 31
0.0
 70
   164
  1
4-M12*1.25
 71
     5
 42
6.22649999999993
  3
AM_ISO$4
100
AcDbRadialDimension
 15
183.9678139691878
 25
79.60919604818549
 35
0.0
 40
0.0
1001
ACAD
1000
DSTYLE
1002
{
1070
    40
1040
2.898441249355007
1070
   272
1070
     8
1002
}
  0
DIMENSION
  5
1920
330
D
100
AcDbEntity
 67
     1
  8
AM_5
100
AcDbDimension
  2
*D6
 10
290.8102744695275
 20
-84.53859189180787
 30
0.0
 11
235.8102744695275
 21
-76.5678784560816
 31
0.0
 70
    32
  1
{\Famgdt;o}<>
 71
     5
 42
110.0
  3
AM_ISO$0
100
AcDbAlignedDimension
 13
180.8102744695275
 23
-43.97779689954837
 33
0.0
 14
290.8102744695275
 24
-43.97779689954837
 34
0.0
100
AcDbRotatedDimension
1001
ACAD
1000
DSTYLE
1002
{
1070
    40
1040
2.898441249355007
1070
   272
1070
     8
1002
}
  0
DIMENSION
  5
1936
330
D
100
AcDbEntity
 67
     1
  8
AM_5
100
AcDbDimension
  2
*D7
 10
305.8102744695274
 20
-107.7261218866481
 30
0.0
 11
235.8102744695274
 21
-107.7261218866481
 31
0.0
 70
   160
  1
{\Famgdt;o}<>
 71
     5
 42
139.9999999999999
  3
AM_ISO$0
100
AcDbAlignedDimension
 13
165.8102744695275
 23
-38.76460697531923
 33
0.0
 14
305.8102744695274
 24
-38.76460697531923
 34
0.0
100
AcDbRotatedDimension
1001
ACAD
1000
DSTYLE
1002
{
1070
    40
1040
2.898441249355007
1070
   272
1070
     8
1002
}
  0
DIMENSION
  5
1A1E
330
D
100
AcDbEntity
 67
     1
  8
AM_5
100
AcDbDimension
  2
*D8
 10
512.2128054183776
 20
19.89474505276419
 30
0.0
 11
565.1986164392098
 21
111.6831283743433
 31
0.0
 70
   163
  1
2-G1/2
 71
     5
 42
21.80000000000007
  3
AM_ISO$3
100
AcDbDiametricDimension
 15
519.0625540979426
 25
40.59066114813916
 35
0.0
 40
0.0
1001
ACAD
1000
DSTYLE
1002
{
1070
    40
1040
2.898441249355007
1002
}
  0
DIMENSION
  5
1A42
330
D
100
AcDbEntity
 67
     1
  8
AM_5
100
AcDbDimension
  2
*D9
 10
380.6376797581603
 20
-154.1011818763281
 30
0.0
 11
354.6629691875561
 21
-154.1011818763281
 31
0.0
 70
   160
 71
     5
 42
6.0
  3
AM_ISO$0
100
AcDbAlignedDimension
 13
374.6376797581603
 23
-8.75729689954835
 33
0.0
 14
380.6376797581603
 24
-49.36046611987842
 34
0.0
100
AcDbRotatedDimension
1001
ACAD
1000
DSTYLE
1002
{
1070
    40
1040
2.898441249355007
1070
   174
1070
     1
1002
}
  0
DIMENSION
  5
1A72
330
D
100
AcDbEntity
 67
     1
  8
AM_5
100
AcDbDimension
  2
*D10
 10
721.6376797581602
 20
-154.1011818763281
 30
0.0
 11
551.1376797581602
 21
-154.1011818763281
 31
0.0
 70
   160
  1
<>+ST
 71
     5
 42
341.0
  3
AM_ISO$0
100
AcDbAlignedDimension
 13
380.6376797581604
 23
-49.36046611987842
 33
0.0
 14
721.6376797581602
 24
5.742703100450739
 34
0.0
100
AcDbRotatedDimension
1001
ACAD
1000
DSTYLE
1002
{
1070
   174
1070
     1
1070
    40
1040
2.898441249355007
1002
}
  0
DIMENSION
  5
1A89
330
D
100
AcDbEntity
 67
     1
  8
AM_5
100
AcDbDimension
  2
*D11
 10
721.6376797581603
 20
-130.913651881488
 30
0.0
 11
701.1376797581604
 21
-122.9429384457617
 31
0.0
 70
    32
 71
     5
 42
41.00000000000011
  3
AM_ISO$0
100
AcDbAlignedDimension
 13
680.6376797581602
 23
-49.75729689954778
 33
0.0
 14
721.6376797581603
 24
5.742703100450739
 34
0.0
100
AcDbRotatedDimension
1001
ACAD
1000
DSTYLE
1002
{
1070
   174
1070
     1
1070
    40
1040
2.898441249355007
1002
}
  0
LINE
  5
1B43
330
D
100
AcDbEntity
 67
     1
  8
AM_VIS
100
AcDbLine
 10
585.6376797581602
 20
88.24270310045255
 30
0.0
 11
585.6376797581604
 21
-49.75729689954778
 31
0.0
  0
DIMENSION
  5
1BB6
330
D
100
AcDbEntity
 67
     1
  8
AM_5
100
AcDbDimension
  2
*D12
 10
680.6376797581601
 20
-130.913651881488
 30
0.0
 11
610.6376797581601
 21
-122.9429384457617
 31
0.0
 70
    32
 71
     5
 42
139.9999999999999
  3
AM_ISO$0
100
AcDbAlignedDimension
 13
540.6376797581603
 23
-43.11112597202679
 33
0.0
 14
680.6376797581601
 24
-49.75729689954778
 34
0.0
100
AcDbRotatedDimension
1001
ACAD
1000
DSTYLE
1002
{
1070
   174
1070
     1
1070
    40
1040
2.898441249355007
1002
}
  0
DIMENSION
  5
1C28
330
D
100
AcDbEntity
 67
     1
  8
AM_5
100
AcDbDimension
  2
*D14
 10
540.6376797581603
 20
-130.913651881488
 30
0.0
 11
460.6376797581602
 21
-122.9429384457617
 31
0.0
 70
    32
  1
<>+ST
 71
     5
 42
160.0
  3
AM_ISO$0
100
AcDbAlignedDimension
 13
380.6376797581603
 23
-49.36046611987842
 33
0.0
 14
540.6376797581603
 24
-43.11112597202679
 34
0.0
100
AcDbRotatedDimension
1001
ACAD
1000
DSTYLE
1002
{
1070
   174
1070
     1
1070
    40
1040
2.898441249355007
1002
}
  0
DIMENSION
  5
1C3E
330
D
100
AcDbEntity
 67
     1
  8
AM_5
100
AcDbDimension
  2
*D15
 10
405.6376797581601
 20
-84.53859189180787
 30
0.0
 11
393.1376797581602
 21
-84.53859189180787
 31
0.0
 70
   160
 71
     5
 42
24.99999999999989
  3
AM_ISO$0
100
AcDbAlignedDimension
 13
380.6376797581603
 23
-49.36046611987842
 33
0.0
 14
405.6376797581601
 24
13.54270310045149
 34
0.0
100
AcDbRotatedDimension
1001
ACAD
1000
DSTYLE
1002
{
1070
   174
1070
     1
1070
    40
1040
2.898441249355007
1002
}
  0
DIMENSION
  5
1C66
330
D
100
AcDbEntity
 67
     1
  8
AM_5
100
AcDbDimension
  2
*D16
 10
420.6376797581603
 20
-107.7261218866479
 30
0.0
 11
400.6376797581602
 21
-99.75540845092162
 31
0.0
 70
    32
 71
     5
 42
40.0
  3
AM_ISO$0
100
AcDbAlignedDimension
 13
380.6376797581603
 23
-49.36046611987842
 33
0.0
 14
420.6376797581603
 24
-50.75729689954835
 34
0.0
100
AcDbRotatedDimension
1001
ACAD
1000
DSTYLE
1002
{
1070
    40
1040
2.898441249355007
1070
   174
1070
     1
1002
}
  0
DIMENSION
  5
1C85
330
D
100
AcDbEntity
 67
     1
  8
AM_5
100
AcDbDimension
  2
*D17
 10
500.6376797581602
 20
-107.7261218866478
 30
0.0
 11
460.6376797581602
 21
-99.75540845092151
 31
0.0
 70
    32
  1
<>+ST
 71
     5
 42
80.0
  3
AM_ISO$0
100
AcDbAlignedDimension
 13
420.6376797581603
 23
-50.75729689954835
 33
0.0
 14
500.6376797581602
 24
-50.75729689954846
 34
0.0
100
AcDbRotatedDimension
1001
ACAD
1000
DSTYLE
1002
{
1070
   174
1070
     1
1070
    40
1040
2.898441249355007
1002
}
  0
DIMENSION
  5
1C9B
330
D
100
AcDbEntity
 67
     1
  8
AM_5
100
AcDbDimension
  2
*D18
 10
775.6376797581602
 20
-154.1011818763281
 30
0.0
 11
748.6376797581604
 21
-146.1304684406018
 31
0.0
 70
    32
 71
     5
 42
53.99999999999988
  3
AM_ISO$0
100
AcDbAlignedDimension
 13
721.6376797581603
 23
5.742703100450739
 33
0.0
 14
775.6376797581602
 24
7.242703100450739
 34
0.0
100
AcDbRotatedDimension
1001
ACAD
1000
DSTYLE
1002
{
1070
   174
1070
     1
1070
    40
1040
2.898441249355007
1002
}
  0
DIMENSION
  5
1EF8
330
D
100
AcDbEntity
 67
     1
  8
AM_5
100
AcDbDimension
  2
*D19
 10
540.6376797581604
 20
-107.7261218866478
 30
0.0
 11
520.6376797581603
 21
-99.75540845092151
 31
0.0
 70
    32
 71
     5
 42
40.00000000000011
  3
AM_ISO$0
100
AcDbAlignedDimension
 13
500.6376797581602
 23
-50.75729689954846
 33
0.0
 14
540.6376797581604
 24
-49.75729689954778
 34
0.0
100
AcDbRotatedDimension
1001
ACAD
1000
DSTYLE
1002
{
1070
   174
1070
     1
1070
    40
1040
2.898441249355007
1002
}
  0
DIMENSION
  5
1F0E
330
D
100
AcDbEntity
 67
     1
  8
AM_5
100
AcDbDimension
  2
*D20
 10
515.6376797581603
 20
-84.53859189180787
 30
0.0
 11
528.1376797581603
 21
-76.56687997730475
 31
0.0
 70
    32
 71
     5
 42
25.0
  3
AM_ISO$0
100
AcDbAlignedDimension
 13
540.6376797581603
 23
-49.75729689954778
 33
0.0
 14
515.6376797581603
 24
13.5427031004516
 34
0.0
100
AcDbRotatedDimension
1001
ACAD
1000
DSTYLE
1002
{
1070
    40
1040
2.898441249355007
1002
}
  0
DIMENSION
  5
1F5A
330
D
100
AcDbEntity
 67
     1
  8
AM_5
100
AcDbDimension
  2
*D21
 10
696.6376797581602
 20
-84.53859189180787
 30
0.0
 11
688.6376797581602
 21
-76.5678784560816
 31
0.0
 70
    32
 71
     5
 42
16.0
  3
AM_ISO$0
100
AcDbAlignedDimension
 13
680.6376797581602
 23
-49.75729689954778
 33
0.0
 14
696.6376797581602
 24
-10.75729689954835
 34
0.0
100
AcDbRotatedDimension
1001
ACAD
1000
DSTYLE
1002
{
1070
    40
1040
2.898441249355007
1002
}
  0
LINE
  5
1F74
330
D
100
AcDbEntity
 67
     1
  8
AM_7
100
AcDbLine
 10
841.1789264192391
 20
74.24270310045244
 30
0.0
 11
841.1789264192391
 21
74.24270310045244
 31
0.0
  0
LINE
  5
1F75
330
D
100
AcDbEntity
 67
     1
  8
AM_7
100
AcDbLine
 10
841.1789264192391
 20
74.24270310045244
 30
0.0
 11
841.1789264192391
 21
74.24270310045244
 31
0.0
  0
LINE
  5
1F76
330
D
100
AcDbEntity
 67
     1
  8
AM_7
100
AcDbLine
 10
832.9584264192391
 20
74.24270310045244
 30
0.0
 11
841.1789264192391
 21
74.24270310045244
 31
0.0
  0
LINE
  5
1F77
330
D
100
AcDbEntity
 67
     1
  8
AM_7
100
AcDbLine
 10
841.1789264192391
 20
74.24270310045244
 30
0.0
 11
849.3994264192391
 21
74.24270310045244
 31
0.0
  0
LINE
  5
1F78
330
D
100
AcDbEntity
 67
     1
  8
AM_7
100
AcDbLine
 10
841.1789264192391
 20
66.02220310045243
 30
0.0
 11
841.1789264192391
 21
74.24270310045244
 31
0.0
  0
LINE
  5
1F79
330
D
100
AcDbEntity
 67
     1
  8
AM_7
100
AcDbLine
 10
841.1789264192391
 20
74.24270310045244
 30
0.0
 11
841.1789264192391
 21
82.46320310045247
 31
0.0
  0
LINE
  5
1F7A
330
D
100
AcDbEntity
 67
     1
  8
AM_7
100
AcDbLine
 10
841.1789264192391
 20
-35.75729689954755
 30
0.0
 11
841.1789264192391
 21
-35.75729689954755
 31
0.0
  0
LINE
  5
1F7B
330
D
100
AcDbEntity
 67
     1
  8
AM_7
100
AcDbLine
 10
841.1789264192391
 20
-35.75729689954755
 30
0.0
 11
841.1789264192391
 21
-35.75729689954755
 31
0.0
  0
LINE
  5
1F7C
330
D
100
AcDbEntity
 67
     1
  8
AM_7
100
AcDbLine
 10
832.9584264192391
 20
-35.75729689954755
 30
0.0
 11
841.1789264192391
 21
-35.75729689954755
 31
0.0
  0
LINE
  5
1F7D
330
D
100
AcDbEntity
 67
     1
  8
AM_7
100
AcDbLine
 10
841.1789264192391
 20
-35.75729689954755
 30
0.0
 11
849.3994264192391
 21
-35.75729689954755
 31
0.0
  0
LINE
  5
1F7E
330
D
100
AcDbEntity
 67
     1
  8
AM_7
100
AcDbLine
 10
841.1789264192391
 20
-43.97779689954757
 30
0.0
 11
841.1789264192391
 21
-35.75729689954755
 31
0.0
  0
LINE
  5
1F7F
330
D
100
AcDbEntity
 67
     1
  8
AM_7
100
AcDbLine
 10
841.1789264192391
 20
-35.75729689954755
 30
0.0
 11
841.1789264192391
 21
-27.53679689954754
 31
0.0
  0
LINE
  5
1F80
330
D
100
AcDbEntity
 67
     1
  8
AM_7
100
AcDbLine
 10
951.1789264192389
 20
-35.75729689954755
 30
0.0
 11
951.1789264192389
 21
-35.75729689954755
 31
0.0
  0
LINE
  5
1F81
330
D
100
AcDbEntity
 67
     1
  8
AM_7
100
AcDbLine
 10
951.1789264192389
 20
-35.75729689954755
 30
0.0
 11
951.1789264192389
 21
-35.75729689954755
 31
0.0
  0
LINE
  5
1F82
330
D
100
AcDbEntity
 67
     1
  8
AM_7
100
AcDbLine
 10
942.9584264192389
 20
-35.75729689954755
 30
0.0
 11
951.1789264192389
 21
-35.75729689954755
 31
0.0
  0
LINE
  5
1F83
330
D
100
AcDbEntity
 67
     1
  8
AM_7
100
AcDbLine
 10
951.1789264192389
 20
-35.75729689954755
 30
0.0
 11
959.3994264192389
 21
-35.75729689954755
 31
0.0
  0
LINE
  5
1F84
330
D
100
AcDbEntity
 67
     1
  8
AM_7
100
AcDbLine
 10
951.1789264192389
 20
-43.97779689954757
 30
0.0
 11
951.1789264192389
 21
-35.75729689954755
 31
0.0
  0
LINE
  5
1F85
330
D
100
AcDbEntity
 67
     1
  8
AM_7
100
AcDbLine
 10
951.1789264192389
 20
-35.75729689954755
 30
0.0
 11
951.1789264192389
 21
-27.53679689954754
 31
0.0
  0
LINE
  5
1F86
330
D
100
AcDbEntity
 67
     1
  8
AM_7
100
AcDbLine
 10
951.1789264192389
 20
74.24270310045244
 30
0.0
 11
951.1789264192389
 21
74.24270310045244
 31
0.0
  0
LINE
  5
1F87
330
D
100
AcDbEntity
 67
     1
  8
AM_7
100
AcDbLine
 10
951.1789264192389
 20
74.24270310045244
 30
0.0
 11
951.1789264192389
 21
74.24270310045244
 31
0.0
  0
LINE
  5
1F88
330
D
100
AcDbEntity
 67
     1
  8
AM_7
100
AcDbLine
 10
942.9584264192389
 20
74.24270310045244
 30
0.0
 11
951.1789264192389
 21
74.24270310045244
 31
0.0
  0
LINE
  5
1F89
330
D
100
AcDbEntity
 67
     1
  8
AM_7
100
AcDbLine
 10
951.1789264192389
 20
74.24270310045244
 30
0.0
 11
959.3994264192389
 21
74.24270310045244
 31
0.0
  0
LINE
  5
1F8A
330
D
100
AcDbEntity
 67
     1
  8
AM_7
100
AcDbLine
 10
951.1789264192389
 20
66.02220310045243
 30
0.0
 11
951.1789264192389
 21
74.24270310045244
 31
0.0
  0
LINE
  5
1F8B
330
D
100
AcDbEntity
 67
     1
  8
AM_7
100
AcDbLine
 10
951.1789264192389
 20
74.24270310045244
 30
0.0
 11
951.1789264192389
 21
82.46320310045247
 31
0.0
  0
DIMENSION
  5
1F8C
330
D
100
AcDbEntity
 67
     1
  8
AM_5
100
AcDbDimension
  2
*D22
 10
951.178926419239
 20
74.24270310045233
 30
0.0
 11
891.5469700960402
 21
109.2645434849595
 31
0.0
 70
   164
  1
4-M12*20L
 71
     5
 42
5.125000000000284
  3
AM_ISO$4
100
AcDbRadialDimension
 15
948.1397674845032
 25
78.36934071107663
 35
0.0
 40
0.0
1001
ACAD
1000
DSTYLE
1002
{
1070
    40
1040
2.898441249355007
1002
}
  0
DIMENSION
  5
1FE4
330
D
100
AcDbEntity
 67
     1
  8
AM_5
100
AcDbDimension
  2
*D23
 10
951.1789264192389
 20
-78.75909189180766
 30
0.0
 11
896.178926419239
 21
-70.78837845608139
 31
0.0
 70
    32
  1
{\Famgdt;o}<>
 71
     5
 42
109.9999999999997
  3
AM_ISO$0
100
AcDbAlignedDimension
 13
841.1789264192391
 23
-43.97779689954757
 33
0.0
 14
951.1789264192389
 24
-43.97779689954757
 34
0.0
100
AcDbRotatedDimension
1001
ACAD
1000
DSTYLE
1002
{
1070
    40
1040
2.898441249355007
1002
}
  0
DIMENSION
  5
1FFA
330
D
100
AcDbEntity
 67
     1
  8
AM_5
100
AcDbDimension
  2
*D24
 10
966.1789264192387
 20
-101.9466218866484
 30
0.0
 11
896.1789264192386
 21
-93.97590845092221
 31
0.0
 70
    32
  1
{\Famgdt;o}<>
 71
     5
 42
140.0
  3
AM_ISO$0
100
AcDbAlignedDimension
 13
826.1789264192387
 23
-38.76460697531923
 33
0.0
 14
966.1789264192387
 24
-38.76460697531923
 34
0.0
100
AcDbRotatedDimension
1001
ACAD
1000
DSTYLE
1002
{
1070
    40
1040
2.898441249355007
1002
}
  0
DIMENSION
  5
2022
330
D
100
AcDbEntity
 67
     1
  8
AM_5
100
AcDbDimension
  2
*D25
 10
596.1367240190502
 20
-27.1111259720272
 30
0.0
 11
627.5213226488274
 21
-70.72172525029694
 31
0.0
 70
   164
  1
G1/4
 71
     5
 42
6.150000000000034
  3
AM_ISO$4
100
AcDbRadialDimension
 15
598.2013797862151
 25
-32.9041991256403
 35
0.0
 40
0.0
1001
ACAD
1000
DSTYLE
1002
{
1070
    40
1040
2.898441249355007
1002
}
  0
LEADER
  5
203E
330
D
100
AcDbEntity
 67
     1
  8
AM_5
100
AcDbLeader
  3
AM_ISO$7
 73
     0
 74
     0
 75
     1
 40
10.00196850393701
 41
44.00787401574802
 76
     3
 10
764.8876797581602
 20
32.74270310045074
 30
0.0
 10
762.4043820898432
 20
70.99137135329563
 30
0.0
 10
769.6504852132307
 20
70.99137135329563
 30
0.0
340
203F
1001
ACAD
1000
DSTYLE
1002
{
1070
    40
1040
2.898441249355007
1070
   140
1040
3.5
1070
   147
1040
1.0
1002
}
  0
MTEXT
  5
203F
102
{ACAD_REACTORS
330
203E
102
}
330
D
100
AcDbEntity
 67
     1
  8
AM_5
100
AcDbMText
 10
772.5489264625857
 20
73.88981260265063
 30
0.0
 40
10.0
 41
0.0
 71
     7
 72
     1
  1
M27*2.0
 73
     1
 44
1.0
1001
ACAD
1000
MTEXTBEGIN
1070
    73
1070
     1
1070
    44
1040
1.0
1070
    74
1070
     0
1000
MTEXTEND
  0
DIMENSION
  5
2040
330
D
100
AcDbEntity
 67
     1
  8
AM_5
100
AcDbDimension
  2
*D26
 10
795.2633819171824
 20
3.242703100450714
 30
0.0
 11
787.2916700026793
 21
19.24270310045084
 31
0.0
 70
    32
  1
%%c<>
 71
     5
 42
32.0
  3
AM_ISO$0
100
AcDbAlignedDimension
 13
706.6376797581603
 23
35.24270310045074
 33
0.0
 14
706.6376797581603
 24
3.242703100450739
 34
0.0
 50
90.0
100
AcDbRotatedDimension
1001
ACAD
1000
DSTYLE
1002
{
1070
    40
1040
2.898441249355007
1002
}
  0
DIMENSION
  5
205F
330
D
100
AcDbEntity
 67
     1
  8
AM_5
100
AcDbDimension
  2
*D27
 10
818.450911912023
 20
49.24270310045161
 30
0.0
 11
810.4801984762968
 21
19.24270310045175
 31
0.0
 70
    32
  1
%%c<>
 71
     5
 42
60.0
  3
AM_ISO$0
100
AcDbAlignedDimension
 13
696.6376797581602
 23
-10.75729689954835
 33
0.0
 14
696.6376797581602
 24
49.24270310045165
 34
0.0
 50
90.0
100
AcDbRotatedDimension
1001
ACAD
1000
DSTYLE
1002
{
1070
    40
1040
2.898441249355007
1002
}
  0
DIMENSION
  5
207E
330
D
100
AcDbEntity
 67
     1
  8
AM_5
100
AcDbDimension
  2
*D28
 10
368.7659192360916
 20
30.24270310045165
 30
0.0
 11
368.7659192360916
 21
24.74270310045171
 31
0.0
 70
   160
 71
     5
 42
11.0
  3
AM_ISO$0
100
AcDbAlignedDimension
 13
373.6376797581602
 23
19.24270310045165
 33
0.0
 14
388.9376797581602
 24
30.24270310045165
 34
0.0
 50
90.0
100
AcDbRotatedDimension
1001
ACAD
1000
DSTYLE
1002
{
1070
    40
1040
2.898441249355007
1002
}
  0
ENDSEC
  0
SECTION
  2
OBJECTS
  0
DICTIONARY
  5
8
330
0
100
AcDbDictionary
281
     1
  3
ACAD_COLOR
350
31
  3
ACAD_GROUP
350
2D
  3
ACAD_LAYOUT
350
C
  3
ACAD_MATERIAL
350
30
  3
ACAD_MLINESTYLE
350
2E
  3
ACAD_PLOTSETTINGS
350
2F
  3
ACAD_PLOTSTYLENAME
350
7
  3
ACAD_TABLESTYLE
350
32
  3
AcadDim
350
203D
  3
ACDBHEADERROUNDTRIPXREC
350
22B6
  3
AcDbVariableDictionary
350
27E
  3
AcmDictionary
350
2E2
  3
AMG
350
28A
  3
AMGSNAPSETTINGS
350
319
  3
DWGPROPS
350
22B5
  3
MAPISURF_MODULE
350
B97
  0
DICTIONARY
  5
15
330
14
100
AcDbDictionary
280
     1
281
     1
  3
ACAD_LAYERFILTERS
360
839
  3
ACAD_LAYERSTATES
360
16
  3
ACLYDICTIONARY
360
838
  0
DICTIONARY
  5
3
330
2
100
AcDbDictionary
280
     1
281
     1
  3
ACAD_INDEX
360
E3C
  0
DICTIONARY
  5
7E5
330
7E4
100
AcDbDictionary
280
     1
281
     1
  0
DICTIONARY
  5
7EC
330
7EB
100
AcDbDictionary
280
     1
281
     1
  0
DICTIONARY
  5
22BA
330
288
100
AcDbDictionary
280
     1
281
     1
  3
ACAD_XREC_ROUNDTRIP
360
22BB
  0
DICTIONARY
  5
31
102
{ACAD_REACTORS
330
8
102
}
330
8
100
AcDbDictionary
281
     1
  0
DICTIONARY
  5
2D
102
{ACAD_REACTORS
330
8
102
}
330
8
100
AcDbDictionary
281
     1
  0
DICTIONARY
  5
C
102
{ACAD_REACTORS
330
8
102
}
330
8
100
AcDbDictionary
281
     1
  3
Model
350
B
  3
配置1
350
10
  0
DICTIONARY
  5
30
102
{ACAD_REACTORS
330
8
102
}
330
8
100
AcDbDictionary
281
     1
  0
DICTIONARY
  5
2E
102
{ACAD_REACTORS
330
8
102
}
330
8
100
AcDbDictionary
281
     1
  3
STANDARD
350
33
  0
DICTIONARY
  5
2F
102
{ACAD_REACTORS
330
8
102
}
330
8
100
AcDbDictionary
281
     1
  0
ACDBDICTIONARYWDFLT
  5
7
102
{ACAD_REACTORS
330
8
102
}
330
8
100
AcDbDictionary
281
     1
  3
Normal
350
6
100
AcDbDictionaryWithDefault
340
6
  0
DICTIONARY
  5
32
102
{ACAD_REACTORS
330
8
102
}
330
8
100
AcDbDictionary
281
     1
  3
Standard
350
34
  0
XRECORD
  5
203D
102
{ACAD_REACTORS
330
8
102
}
330
8
100
AcDbXrecord
280
     1
 90
   990106
  3

 60
     0
 61
     0
 62
     1
 63
     3
 64
     1
 65
     0
 66
     0
 67
     3
 68
     0
 69
     0
 70
     0
 71
     0
 72
     0
 40
0.0
170
     2
340
203F
  0
DICTIONARY
  5
22B6
102
{ACAD_REACTORS
330
8
102
}
330
8
100
AcDbDictionary
281
     1
  0
DICTIONARY
  5
27E
102
{ACAD_REACTORS
330
8
102
}
330
8
100
AcDbDictionary
281
     1
  3
CTABLESTYLE
350
27F
  3
DIMASSOC
350
281
  3
HIDETEXT
350
280
  3
INDEXCTL
350
22B4
  3
PROJECTNAME
350
282
  0
DICTIONARY
  5
2E2
102
{ACAD_REACTORS
330
8
102
}
330
8
100
AcDbDictionary
281
     1
  3
AcmStdDictionary
350
2EF
  3
AMDTSECTSYM_ARROWCOLOR
350
30B
  0
DICTIONARY
  5
28A
102
{ACAD_REACTORS
330
8
102
}
330
8
100
AcDbDictionary
281
     1
  3
AcMgSettings
350
B12
  0
DICTIONARY
  5
319
102
{ACAD_REACTORS
330
8
102
}
330
8
100
AcDbDictionary
281
     1
  0
XRECORD
  5
22B5
102
{ACAD_REACTORS
330
8
102
}
330
8
100
AcDbXrecord
280
     1
  1
DWGPROPS COOKIE
  2

  3

  4

  6

  7

  8

  9

300
AmdtFileType=84
301
=
302
=
303
=
304
=
305
=
306
=
307
=
308
=
309
=
 40
0.3407303472222222
 41
2454887.664320868
 42
2456014.439653495
  1

 90
        1
  0
DICTIONARY
  5
839
102
{ACAD_REACTORS
330
15
102
}
330
15
100
AcDbDictionary
281
     1
  0
DICTIONARY
  5
16
102
{ACAD_REACTORS
330
15
102
}
330
15
100
AcDbDictionary
281
     1
  0
DICTIONARY
  5
838
102
{ACAD_REACTORS
330
15
102
}
330
15
100
AcDbDictionary
281
     1
1001
ACAD
1000
<All
  0
DICTIONARY
  5
E3C
102
{ACAD_REACTORS
330
3
102
}
330
3
100
AcDbDictionary
281
     1
  3
*A1
350
E3D
  0
XRECORD
  5
22BB
102
{ACAD_REACTORS
330
22BA
102
}
330
22BA
100
AcDbXrecord
280
     1
102
SHADEPLOT
 70
     0
  0
LAYOUT
  5
B
102
{ACAD_XDICTIONARY
360
22B7
102
}
102
{ACAD_REACTORS
330
C
102
}
330
C
100
AcDbPlotSettings
  1

  2
\\NOVIBDC\HPLJ4-TPUB
  4

  6

 40
0.0
 41
0.0
 42
0.0
 43
0.0
 44
0.0
 45
0.0
 46
0.0
 47
0.0
 48
0.0
 49
0.0
140
0.0
141
0.0
142
1.0
143
1.0
 70
  1712
 72
     0
 73
     0
 74
     0
  7

 75
     0
147
1.0
148
0.0
149
0.0
100
AcDbLayout
  1
Model
 70
     1
 71
     0
 10
0.0
 20
0.0
 11
12.0
 21
9.0
 12
0.0
 22
0.0
 32
0.0
 14
0.0
 24
0.0
 34
0.0
 15
0.0
 25
0.0
 35
0.0
146
0.0
 13
0.0
 23
0.0
 33
0.0
 16
1.0
 26
0.0
 36
0.0
 17
0.0
 27
1.0
 37
0.0
 76
     0
330
2
  0
LAYOUT
  5
10
102
{ACAD_XDICTIONARY
360
11
102
}
102
{ACAD_REACTORS
330
C
102
}
330
C
100
AcDbPlotSettings
  1

  2
\\RDs1\iR3300影印機
  4
A4
  6

 40
6.805083274841308
 41
5.619736671447753
 42
6.974411010742187
 43
5.027069091796875
 44
209.9733276367187
 45
296.9259948730469
 46
0.0
 47
2.686495121089279
 48
0.0
 49
0.0
140
0.0
141
0.0
142
1.0
143
2.898441249355007
 70
   692
 72
     1
 73
     1
 74
     1
  7

 75
     0
147
0.3450130307876797
148
-195.9888737429391
149
193.7979373417709
100
AcDbLayout
  1
配置1
 70
     1
 71
     1
 10
173.6315610487613
 20
-213.5220714108668
 11
1034.254112594574
 21
395.0732826757327
 12
0.0
 22
0.0
 32
0.0
 14
114.7352868659366
 24
-250.6174446994476
 34
0.0
 15
1010.088692216182
 25
374.8094151255151
 35
490.3341679020062
146
0.0
 13
0.0
 23
0.0
 33
0.0
 16
1.0
 26
0.0
 36
0.0
 17
0.0
 27
1.0
 37
0.0
 76
     0
330
D
331
288
1001
ACAD_PSEXT
1000
\\RDs1\iR3300影印機
1000
Canon iR2200-3300 PCL5e
1000
\\RDs1
1000

1070
     0
  0
MLINESTYLE
  5
33
102
{ACAD_REACTORS
330
2E
102
}
330
2E
100
AcDbMlineStyle
  2
STANDARD
 70
     0
  3

 62
     0
 51
90.0
 52
90.0
 71
     2
 49
0.5
 62
   256
  6
BYLAYER
 49
-0.5
 62
   256
  6
BYLAYER
  0
ACDBPLACEHOLDER
  5
6
102
{ACAD_REACTORS
330
7
102
}
330
7
  0
TABLESTYLE
  5
34
102
{ACAD_REACTORS
330
32
102
}
330
32
100
AcDbTableStyle
  3
Standard
 70
     0
 71
     0
 40
1.5
 41
1.5
280
     0
281
     0
  7
STANDARD
140
4.5
170
     2
 62
     0
 63
     7
283
     0
274
    -2
284
     1
 64
     0
275
    -2
285
     1
 65
     0
276
    -2
286
     1
 66
     0
277
    -2
287
     1
 67
     0
278
    -2
288
     1
 68
     0
279
    -2
289
     1
 69
     0
  7
STANDARD
140
6.0
170
     5
 62
     0
 63
     7
283
     0
274
    -2
284
     1
 64
     0
275
    -2
285
     1
 65
     0
276
    -2
286
     1
 66
     0
277
    -2
287
     1
 67
     0
278
    -2
288
     1
 68
     0
279
    -2
289
     1
 69
     0
  7
STANDARD
140
4.5
170
     5
 62
     0
 63
     7
283
     0
274
    -2
284
     1
 64
     0
275
    -2
285
     1
 65
     0
276
    -2
286
     1
 66
     0
277
    -2
287
     1
 67
     0
278
    -2
288
     1
 68
     0
279
    -2
289
     1
 69
     0
  0
DICTIONARYVAR
  5
27F
102
{ACAD_REACTORS
330
27E
102
}
330
27E
100
DictionaryVariables
280
     0
  1
STANDARD
  0
DICTIONARYVAR
  5
281
102
{ACAD_REACTORS
330
27E
102
}
330
27E
100
DictionaryVariables
280
     0
  1
1
  0
DICTIONARYVAR
  5
280
102
{ACAD_REACTORS
330
27E
102
}
330
27E
100
DictionaryVariables
280
     0
  1
1
  0
DICTIONARYVAR
  5
22B4
102
{ACAD_REACTORS
330
27E
102
}
330
27E
100
DictionaryVariables
280
     0
  1
1
  0
DICTIONARYVAR
  5
282
102
{ACAD_REACTORS
330
27E
102
}
330
27E
100
DictionaryVariables
280
     0
  1

  0
DICTIONARY
  5
2EF
102
{ACAD_REACTORS
330
2E2
102
}
330
2E2
100
AcDbDictionary
281
     1
  0
XRECORD
  5
30B
102
{ACAD_REACTORS
330
2E2
102
}
330
2E2
100
AcDbXrecord
280
     1
 90
-1023410169
  0
DICTIONARY
  5
B12
102
{ACAD_REACTORS
330
28A
102
}
330
28A
100
AcDbDictionary
281
     1
  3
DWGSETTINGS
350
B13
  3
Shaft
350
F44
  3
TRANSSETTINGS
350
B17
  0
LAYER_INDEX
  5
E3D
102
{ACAD_REACTORS
330
E3C
102
}
330
E3C
100
AcDbIndex
 40
2456014.439653495
100
AcDbLayerIndex
  8
0
360
E3E
 90
        0
  8
AM_VIS
360
E3F
 90
        0
  8
AM_7
360
E40
 90
        0
  8
LOGO
360
E41
 90
        0
  8
AM_5
360
E42
 90
        0
  8
Defpoints
360
E43
 90
        0
  8
SL
360
E44
 90
        0
  8
AM_4
360
1AD4
 90
        0
  0
DICTIONARY
  5
22B7
330
B
100
AcDbDictionary
280
     1
281
     1
  3
ACAD_XREC_ROUNDTRIP
360
22B8
  0
DICTIONARY
  5
11
330
10
100
AcDbDictionary
280
     1
281
     1
  3
ACAD_XREC_ROUNDTRIP
360
22B9
  3
ADSK_XREC_LAYOUTTHUMBNAIL
360
12
  0
IDBUFFER
  5
E3E
330
0
100
AcDbIdBuffer
  0
IDBUFFER
  5
E3F
330
0
100
AcDbIdBuffer
  0
IDBUFFER
  5
E40
330
0
100
AcDbIdBuffer
  0
IDBUFFER
  5
E41
330
0
100
AcDbIdBuffer
  0
IDBUFFER
  5
E42
330
0
100
AcDbIdBuffer
  0
IDBUFFER
  5
E43
330
0
100
AcDbIdBuffer
  0
IDBUFFER
  5
E44
330
0
100
AcDbIdBuffer
  0
IDBUFFER
  5
1AD4
330
0
100
AcDbIdBuffer
  0
XRECORD
  5
22B8
102
{ACAD_REACTORS
330
22B7
102
}
330
22B7
100
AcDbXrecord
280
     1
102
SHADEPLOT
 70
     0
102
SHADEPLOTRESLEVEL
 70
     2
102
SHADEPLOTCUSTOMDPI
 70
   300
  0
XRECORD
  5
22B9
102
{ACAD_REACTORS
330
11
102
}
330
11
100
AcDbXrecord
280
     1
102
SHADEPLOT
 70
     0
102
SHADEPLOTRESLEVEL
 70
     2
102
SHADEPLOTCUSTOMDPI
 70
   300
  0
XRECORD
  5
12
102
{ACAD_REACTORS
330
11
102
}
330
11
100
AcDbXrecord
280
     1
310
28000000B40000007F00000001000800000000004C590000000000000000000000010000000000000000000000000000FFFFFF000000000000000000000000000000000000000000000000000000000000000000330000006600000099000000CC000000FF00000000330000333300006633000099330000CC330000FF3300
310
0000660000336600006666000099660000CC660000FF66000000990000339900006699000099990000CC990000FF99000000CC000033CC000066CC000099CC0000CCCC0000FFCC000000FF000033FF000066FF000099FF0000CCFF0000FFFF000000003300330033006600330099003300CC003300FF003300003333003333
310
33006633330099333300CC333300FF33330000663300336633006666330099663300CC663300FF66330000993300339933006699330099993300CC993300FF99330000CC330033CC330066CC330099CC3300CCCC3300FFCC330000FF330033FF330066FF330099FF3300CCFF3300FFFF330000006600330066006600660099
310
006600CC006600FF00660000336600333366006633660099336600CC336600FF33660000666600336666006666660099666600CC666600FF66660000996600339966006699660099996600CC996600FF99660000CC660033CC660066CC660099CC6600CCCC6600FFCC660000FF660033FF660066FF660099FF6600CCFF6600
310
FFFF660000009900330099006600990099009900CC009900FF00990000339900333399006633990099339900CC339900FF33990000669900336699006666990099669900CC669900FF66990000999900339999006699990099999900CC999900FF99990000CC990033CC990066CC990099CC9900CCCC9900FFCC990000FF99
310
0033FF990066FF990099FF9900CCFF9900FFFF99000000CC003300CC006600CC009900CC00CC00CC00FF00CC000033CC003333CC006633CC009933CC00CC33CC00FF33CC000066CC003366CC006666CC009966CC00CC66CC00FF66CC000099CC003399CC006699CC009999CC00CC99CC00FF99CC0000CCCC0033CCCC0066CC
310
CC0099CCCC00CCCCCC00FFCCCC0000FFCC0033FFCC0066FFCC0099FFCC00CCFFCC00FFFFCC000000FF003300FF006600FF009900FF00CC00FF00FF00FF000033FF003333FF006633FF009933FF00CC33FF00FF33FF000066FF003366FF006666FF009966FF00CC66FF00FF66FF000099FF003399FF006699FF009999FF00CC
310
99FF00FF99FF0000CCFF0033CCFF0066CCFF0099CCFF00CCCCFF00FFCCFF0000FFFF0033FFFF0066FFFF0099FFFF00CCFFFF00FFFFFF00000000000D0D0D001A1A1A00282828003535350043434300505050005D5D5D006B6B6B00787878008686860093939300A1A1A100AEAEAE00BBBBBB00C9C9C900D6D6D600E4E4E400
310
F1F1F100FFFFFF00000000000000000000000000000000000000000000000000000000000000000000000000000000002DF5F5F5F5E2F5F5F5F5F5F52DE2E2F5F5F5F5F5E2E22DE2E2E2E2E2E2E2E2E2E2E2E2E2E2E2E2E2E2E2E2E2E22D2D2D2D2D2D2D2D2D2D2DE2E2E2E22D2D2D2D2D2D2D2D2D2D2D2DE2E2E22D2D2D2D
310
2D2D2D2D2DE2E22D2D2D2D2D2D2D2DE2E22D2D2D2D2D2D2D2DE22D2D2D2D2D2D2D2D2D2D2DE2E2E2E2E2E2E2E2E2E2E2E2E2E2E2E2E2E2E2E2E2E2E2E2E2E2E2E2E2E2E2E2E2E2E2E2E2E2E2E2E2E2E2E2E2E2E2E2E2E2E2E2E2E2E2E2E2E22DE2E2E2E2E22DF5F5F5F5E2F5F5F5F5F5F52DE2E2F5F5F5F5F5E2E22DE2F5F5
310
F5F5F5F5E2E2F5F5F5F5F5F5F5F5F5F5F5E2E2E2E2E2E2E22DE2E2E2E2E2E2E2E2E2E2E2E2E2E22DE2E2E2E2E2E2E2E2E2E2E2E2E22DE2E2E2E2E2E2E2E2E2E22DE2E2E2E2E2E2E2E2E22DE2E2E2E2E2E2E2E22DE2E2E2E2E2E2E2E2E2E2E2E2E2E2E2E2E2E2E2E2E2E2E2E2E2E2E2E2E2E2E2E2E2E2E2E2E2E2E2E2E2E2E2
310
E2E2E2E2E2E2E2E2E2E2E2E2E2E2E2E2E2E2E2E2E22DE2E2E2E2E22D2D2D2D2D2D2D2D2D2D2D2D2D2D2DF52D2D2D2D2D2D2DF5F5F5F5F5F5F5E2F5F5E2F5F5F5F5F5F5F5F52D2D2D2D2D2D2D2D2D2D2D2D2D2D2D2DE2E2E22D2D2D2D2D2D2D2D2D2D2DE2E2E22D2D2D2D2D2D2D2D2DE2E2E22D2D2D2D2D2D2D2D2D2D2D2D2D
310
2D2D2D2DE2E2E22D2D2D2D2DE2E2E2E2E2E2E2E2E2E2E2E2E2E2E2E2E2E2E2E2E2E2E2E2E2E2E2E2E2E2E2E2E2E2E2E2E2E2E2E2E2E2E2E2E2E2E2E2E2E2E2E2E2E2E2E2E2E2E2E2E2E22DE2E2E2E2E22DF5F5F5F5E2E2F5F5F5F5F52DE2F5F5F5F5F5F5F5F52DF5F5F5F5F5F5F5F5E2F5F5F5F5F5F5F5F5F5F52DF5F5F5E2
310
F5F5F5F5F5F5F5E2F5E22DE2E2E22DE2E2E2F5E2F5E2E2E22DE2E2E22DE2F5F5F5F5F5F52DE2E2E22DE2E2F5E2E22D2DE2F5E2F5F5E2F5E22DE2E2E22DE2F5E22DE2E2E2E2E2E2E2E2E2E2E2E2E2E2E2E2E2E2E2E2E2E2E2E2E2E2E2E2E2E2E2E2E2E2E2E2E2E2E2E2E2E2E2E2E2E2E2E2E2E2E2E2E2E2E2E2E2E2E2E2E2E2
310
2DE2E2E2E2E22DF5F5F5F5E2F5F5F5F5F5F52DE2F5F5F5E2F5F5F5F52DE2F5F5F5F5F5F5F5E2E2F5F5F5F5E2E2E2E2E22DF5F5F5F5E2F5F5F5F5F5F5E2F5F52DF5F5F52DE2E2E2F5E2F5E2E2E22DF5F5F52DE2F5E2F5E2F5F52DF5F5F52DE2F5F5E2E22D2DE2F5E2F5F5E2F5E22DF5F5F52DE2F5F52DE2E2E2E2E2E2E2E2E2
310
E2E2E2E2E2E2E2E2E2E2E2E2E2E2E2E2E2E2E2E2E2E2E2E2E2E2E2E2E2E2E2E2E2E2E2E2E2E2E2E2E2E2E2E2E2E2E2E2E2E2E2E2E22DE2E2E2E2E22D2D2D2D2D2D2D2D2D2D2D2D2D2D2DF52D2D2D2D2D2D2DE2F5F5F5F5F5F5F5E2F5F5F5F5F5E2E2E2E2E22DF5E2F5F5F5F5F5F5F5F5F5F5E2F52DE2E2E22DE2E2F5F5F5F5
310
E2E2E22DE2E2E22DF5F5F5F5F5F5F52DE2E2E22DE2F5F5E2E22D2DE2F5E2F5F5E2F5E22DE2E2E22DF5F5F52DE2E2E2E2E2E2E2E2E2E2E2E2E2E2E2E2E2E2E2E2E2E2E2E2E2E2E2E2E2E2E2E2E2E2E2E2E2E2E2E2E2E2E2E2E2E2E2E2E2E2E2E2E2E2E2E2E2E2E2E2E2E22DE2E2E2E2E22DF5F5F5F5F5F5F5F5F5F5F52DE2E2
310
F5E2F5E2E2F5E22DE2F5F5F5F5F5F5F5F5F5F5F5F5F5E2E2E2E2E22DE2E2E2E2E2E2E2E2E2E2E2E2E2E22DE2E2E22DE2E2E2E2E2E2E2E2E22DE2E2E22DE2E2E2E2E2E2E22DE2E2E22DE2E2E2E2E22D2DE2F5F5F5F5F5F5E22DE2E2E22DE2E2E22DE2E2E2E2E2E2E2E2E2E2E2E2E2E2E2E2E2E2E2E2E2E2E2E2E2E2E2E2E2E2
310
E2E2E2E2E2E2E2E2E2E2E2E2E2E2E2E2E2E2E2E2E2E2E2E2E2E2E2E2E2E2E2E22DE2E2E2E2E22DF5F5F5F5F5F5F5F5F5F5F52DE2F5F5E2F5E2F5F5E22DE2F5F5F5F5F5F5F5F5F5F5F5F5F5E2E2E2E2E22D2D2D2D2D2D2D2D2D2D2D2D2D2D2D2DE2E2E22D2D2D2D2D2D2D2D2D2D2DE2E2E22D2D2D2D2D2D2D2D2DE2E2E22D2D
310
2D2D2D2D2D2D2D2D2D2D2D2D2D2D2DE2E2E22D2D2D2D2DE2E2E2E2E2E2E2E2E2E2E2E2E2E2E2E2E2E2E2E2E2E2E2E2E2E2E2E2E2E2E2E2E2E2E2E2E2E2E2E2E2E2E2E2E2E2E2E2E2E2E2E2E2E2E2E2E2E2E2E2E2E22DE2E2E2E2E22D2D2D2D2D2D2D2D2D2D2D2D2D2D2D2D2D2D2D2D2D2D2D2D2D2D2D2D2D2D2D2D2D2D2D2D
310
2D2D2D2D2D2D2D2D2D2D2D2D2D2D2D2D2D2D2D2D2D2D2D2D2D2D2D2D2D2D2D2D2D2D2D2D2D2D2D2D2D2D2D2D2D2D2D2D2D2D2D2D2D2D2D2D2D2D2D2D2D2D2D2D2D2D2D2D2D2D2D2D2D2D2D2D2D2D2D2D2D2D2D2D2D2D2D2D2D2D2D2D2D2D2D2D2D2D2D2D2D2D2D2D2D2D2D2D2D2D2D2D2D2D2D2D2D2D2D2D2D2D2D2D2D2D2D
310
2D2D2D2D2D2D2D2D2D2D2D2DE2E2E2E2E2E2E2E2E2E2E2E2E2E2E2E2E2E2E2E2E2E2E2E2E2E2E2E2E2E2E2E2E2E2E2E2E2E2E2E2E2E2E2E2E2E2E2E2E2E2E2E2E2E2E2E2E2E2E2E2E2E2E2E2E2E2E2E2E2E2E2E2E2E2E2E2E2E2E2E2E2E2E2E2E2E2E2E2E2E2E2E2E2E2E2E2E2E2E2E2E2E2E2E2E2E2E2E2E2E2E2E2E2E2E2
310
E2E2E2E2E2E2E2E2E2E2E2E2E2E2E2E2E2E2E2E2E2E2E2E2E2E2E2E2E2E2E2E2E2E2E2E2E2E2E2E2E2E2E2E2E2E2E2E2E2E2E2E2E2E2E2E2E2E2E2E2E2E2E2E22DE2E2E2E2E2E2E2E2E2E2E2E2E2E2E2E2E2E2E2E2E2E2E2E2E2E2E2E2E2E2E2E2E2E2E2E2E2E2E2E2E2E2E2E2E2E2E2E2E2E2E2E2E2E2E2E2E2E2E2E2E2E2
310
E2E2E2E2E2E2E2E2E2E2E2E2E2E2E2E2E2E2E2E2E2E2E2E2E2E2E2E2E2E2E2E2E2E2E2E2E2E2E2E2E2E2E2E2E2E2E2E2E2E2E2E2E2E2E2E2E2E2E2E2E2E2E2E2E2E2E2E2E2E2E2E2E2E2E2E2E2E2E2E2E2E2E2E2E2E2E2E2E2E2E2E2E2E2E2E2E2E2E2E2E2E2E2E2E2E2E2E2E2E2E2E2E2E2E2E2E22DE2E2E2E2E2E2E2E2E2
310
E2E2E2E2E2E2E2E2E2E2E2E2E2E2E2E2E2E2E2E2E2E2E2E2E2E2E2E2E2E2E2E2E2E2E2E2E2E2E2E2E2E2E2E2E2E2E2E2E2E2E2E2E2E2E2E2E2E2E2E2E2E2E2E2E2E2E2E2E2E2E2E2E2E2E2E2E2E2E2E2E2E2E2E2E2E2E2E2E2E2E2E2E2E2E2E2E2E2E2E2E2E2E2E2E2E2E2E2E2E2E2E2E2E2E2E2E2E2E2E2E2E2E2E2E2E2E2
310
E2E2E2E2E2E2E2E2E2E2E2E2E2E2E2E2E2E2E2E2E2E2E2E2E2E2E2E2E2E2E2E2E2E2E2E2E2E2E2E2E2E2E22DE2E2E2E2E2E2E2E2E2E2E2E2E2E2E2E2E2E2E2E2E2E2E2E2E2E2E2E2E2E2E2E2E2E2E2E2E2E2E2E2E2E2E2E2E2E20F0F0FE20FE2E2E2E2E2E2E2E2E2E2E2E2E2E2E2E2E2E2E2E2E2E2E2E2E2E2E2E2E2E2E2E2
310
E2E2E2E2E2E2E2E2E2E2E2E2E2E2E2E2E2E2E2E2E2E2E2E2E2E2E2E2E2E2E2E2E2E20FE20F0FE2E2E2E2E2E2E2E20F0FE2E2E2E2E2E2E2E2E2E2E2E2E2E2E2E2E2E2E2E2E2E2E2E2E2E2E2E2E2E2E2E2E2E2E2E2E2E2E2E2E2E2E2E2E2E2E2E22DE2E2E2E2E2E2E2E2E2E2E2E2E2E2E2E2E2E2E2E2E2E2E2E2E2E2E2E2E2E2
310
E2E2E2E2E2E2E2E2E2E2E2E20F0F0F0F0F0F0F0F0F0F0F0F0F0F0F0F0F0F0F0F0F0F0F0F0F0F0F0F0F0F0F0F0F0F0F0F0F0F0F0F0F0F0F0F0F0F0F0F0F0F0F0F0F0F0F0F0F0F0F0F0F0F0F0F0F0F0F0F0F0F0F0F0F0F0F0F0F0F0F0F0F0F0F0F0F0F0F0F0FE2E2E2E2E2E2E2E2E2E2E2E2E2E2E2E2E2E2E2E2E2E2E2E2E2E2
310
E2E2E2E2E2E2E2E2E2E2E2E2E2E2E2E2E2E2E2E2E2E22DE2E2E2E2E2E2E2E2E2E2E2E2E2E2E2E2E2E2E2E2E2E2E2E2E2E2E2E2E2E2E2E2E2E2E2E2E2E2E2E2E2E2E20FE2E2E20F0FE2E2E2E2E2E2E2E2E2E2E2E2E2E2E2E2E2E2E2E2E2E2E2E2E2E2E2E2E2E2E20F0F0F0F0F0F0F0FE2E2E2E2E2E2E2E2E2E2E2E2E2E2E2E2
310
E2E2E2E2E2E2E2E2E2E2E2E2E2E2E20FE2E2E20F0F0F0FE2E2E20FE2E2E2E2E2E2E2E2E2E2E2E2E2E2E2E2E2E2E2E2E2E2E2E2E2E2E2E2E2E2E2E2E2E2E2E2E2E2E2E2E2E2E2E2E2E2E2E22DE2E2E2E2E2E2E2E2E2E2E2E2E2E2E2E2E2E2E2E2E2E2E2E2E2E2E2E2E2E2E2E2E2E2E2E2E2E2E2E2E2E2E20FE2E2E20F0FE2E2
310
E2E2E2E2E2E2E2E2E2E2E2E2E2E2E2E2E2E2E2E2E2E2E2E2E2E2E2E20F0F0FE20FE20F0F0F0FE2E2E2E2E2E2E2E2E2E2E2E2E2E2E2E2E2E2E2E2E2E2E2E2E2E2E2E2E2E20FE2E2E20F0F0FE2E2E2E20FE2E2E2E2E2E2E2E2E2E2E2E2E2E2E2E2E2E2E2E2E2E2E2E2E2E2E2E2E2E2E2E2E2E2E2E2E2E2E2E2E2E2E2E2E2E2E2
310
E22DE2E2E2E2E2E2E2E2E2E2E2E2E2E2E2E2E2E2E2E2E2E2E2E2E2E2E2E2E2E2E2E2E2E2E2E2E2E2E2E2E2E2E2E2E2E2E20F0FE2E2E2E2E2E2E2E2E2E2E2E2E2E2E2E2E2E2E2E2E2E2E2E2E2E2E2E2E2E2E2E2E2E2E2E2E2E2E2E2E2E2E2E2E2E2E2E2E2E2E2E2E2E2E2E2E2E2E2E2E2E2E2E2E2E2E2E2E2E20FE2E2E2E2E2
310
E2E2E2E2E20FE2E2E2E2E2E2E2E2E2E2E2E2E2E2E2E2E2E2E2E2E2E2E2E2E2E2E2E2E2E2E2E2E2E2E2E2E2E2E2E2E2E2E2E2E2E2E2E22DE2E2E2E2E2E2E2E2E2E2E2E2E2E2E2E2E2E2E2E2E2E2E2E2E2E2E2E2E2E2E2E2E2E2E2E2E2E2E2E2E2E2E2E2E2E2E20F0F0F0F0F0F0F0F0F0F0F0F0F0F0F0F0F0F0F0F0F0F0F0F0F
310
0F0F0F0F0F0F0F0F0F0F0F0F0F0F0F0F0F0F0F0F0F0F0F0F0F0F0F0F0F0F0F0F0F0F0F0F0F0F0F0F0F0F0F0F0F0F0F0FE2E2E2E2E2E2E2E2E2E20FE2E2E2E2E2E2E2E2E2E2E2E2E2E2E2E2E2E2E2E2E2E2E2E2E2E2E2E2E2E2E2E2E2E2E2E2E2E2E2E2E2E2E2E2E2E2E2E22DE2E2E2E2E2E2E2E2E2E2E2E2E2E2E2E2E2E2E2
310
E2E2E2E2E2E2E2E2E2E2E2E2E2E2E2E2E2E2E2E2E2E2E2E2E2E2E2E20F0F0F0FE2E2E2E2E2E2E2E2E2E20F0F0F0F0F0F0F0FE2E2E2E2E2E2E2E2E2E2E20F0F0F0FE2E2E2E2E2E2E2E2E2E2E20F0F0FE2E2E2E2E2E2E2E2E2E2E20F0F0F0FE20F0F0F0F0F0FE2E2E2E2E2E2E2E2E2E20FE2E2E2E2E2E2E2E2E2E2E2E2E2E2E2
310
E2E2E2E2E2E2E2E2E2E2E2E2E2E2E2E2E2E2E2E2E2E2E2E2E2E2E2E2E2E2E2E2E22DE2E2E2E2E2E2E2E2E2E2E2E2E2E2E2E2E2E2E2E2E2E2E2E2E2E2E2E2E2E2E2E2E2E2E2E2E2E2E2E2E2E2E2E2E2E2E20F0FE2E2E2E2E2E2E2E2E2E2E2E20F0F0F0F0F0F0F0FE2E2E2E2E2E2E2E2E2E2E2E20FE2E2E2E2E2E2E2E2E2E2E2
310
E20F0F0F0F0FE2E2E2E2E2E2E2E2E2E2E20FE2E2E20F0F0FE2E20FE2E2E2E2E2E2E2E2E2E20FE2E2E2E2E2E2E2E2E2E2E2E2E2E2E2E2E2E2E2E2E2E2E2E2E2E2E2E2E2E2E2E2E2E2E2E2E2E2E2E2E2E2E2E2E2E2E2E22DE2E2E2E2E2E2E2E2E2E2E2E2E2E2E2E2E2E2E2E2E2E2E2E2E2E2E2E2E2E2E2E2E2E2E2E2E2E2E2E2
310
E2E2E2E2E2E2E20F0FE2E2E2E2E2E2E2E2E2E2E2E20F0F0F0FE20F0F0F0FE2E2E2E2E2E2E2E2E2E2E20FE2E2E2E2E2E2E2E2E2E2E2E2E20F0F0FE2E2E2E2E2E2E2E2E2E2E2E20FE2E2E20FE20FE2E20FE2E2E2E2E2E2E2E2E2E20FE2E2E2E2E2E2E2E2E2E2E2E2E2E2E2E2E2E2E2E2E2E2E2E2E2E2E2E2E2E2E2E2E2E2E2E2
310
E2E2E2E2E2E2E2E2E2E2E2E22DE2E2E2E2E2E2E2E2E2E2E2E2E2E2E2E2E2E2E2E2E2E2E2E2E2E2E2E2E2E2E2E2E20FE2E2E2E2E2E2E2E2E2E2E2E2E20F0FE2E2E2E2E2E2E2E20FE2E2E2E2E2E2E2E2E2E2E2E2E2E2E20FE2E2E2E2E2E2E20FE2E2E2E2E2E2E2E2E2E2E2E2E2E2E2E2E2E2E2E2E2E2E2E2E2E2E2E20FE2E2E2
310
E2E2E2E2E20FE2E2E2E2E2E2E2E2E2E20FE2E2E2E2E2E2E2E2E2E2E2E2E2E2E2E2E2E2E2E2E2E2E2E2E2E2E2E2E2E2E2E2E2E2E2E2E2E2E2E2E2E2E2E2E2E2E2E22DE2E2E2E2E20F0F0F0F0F0F0F0F0F0F0F0F0F0F0F0F0F0F0F0F0F0F0F0F0F0F0F0F0FE2E2E2E2E2E2E2E2E2E2E2E2E20F0F0F0F0F0F0F0F0F0F0F0F0F0F
310
0F0F0F0F0F0F0F0F0F0F0F0F0F0F0F0F0F0F0F0F0FE2E2E2E2E2E2E2E2E2E2E2E2E2E2E2E2E2E2E2E2E2E2E2E2E2E2E2E20FE2E2E2E2E2E2E2E20FE2E2E2E2E2E2E2E2E2E20FE2E2E2E2E2E2E2E2E2E2E2E2E2E2E2E2E2E2E2E2E2E2E2E2E2E2E2E2E2E2E2E2E2E2E2E2E2E2E2E2E2E2E2E2E2E2E2E22DE2E2E2E2E2E2E2E2
310
E2E2E2E2E2E2E20F0F0F0F0F0F0FE2E2E2E2E2E2E2E2E2E2E20FE2E2E2E2E2E2E2E2E2E2E2E2E20F0FE2E20F0F0F0FE2E20FE2E2E20F0F0F0F0F0F0F0FE2E2E2E20FE2E20F0F0FE2E20FE2E2E2E2E2E2E2E2E2E2E2E2E2E2E2E2E2E2E2E2E2E2E2E2E2E2E2E20FE2E2E2E2E2E2E2E20FE2E2E2E2E2E2E2E2E2E20FE2E2E2E2
310
E2E2E2E2E20F0F0F0F0F0F0F0F0F0F0F0F0F0F0F0F0F0F0F0F0F0F0F0F0F0F0F0F0F0FE2E2E2E2E2E2E2E2E22DE2E2E2E2E2E2E2E2E2E2E2E2E2E2E20FE20F0F0F0F0FE2E2E2E2E2E2E2E2E2E2E20FE2E2E2E2E2E2E2E2E2E2E2E2E20F0FE2E2E20F0F0FE2E20FE2E2E20F0F0F0F0F0F0F0FE2E2E2E20FE2E20F0F0F0FE20F
310
E2E2E2E2E2E2E2E2E2E2E2E2E2E2E2E2E2E2E2E2E2E2E2E2E2E2E2E20FE2E2E2E2E2E2E2E20FE2E2E2E2E2E2E2E2E2E20FE2E2E2E2E2E2E2E2E20F0F0FE2E2E2E2E2E2E2E2E20F0F0F0F0F0F0FE2E2E2E2E2E2E2E2E20F0FE2E2E2E2E2E2E2E2E22DE2E2E2E2E2E2E2E2E2E2E2E2E2E2E20F0F0F0F0FE20FE2E2E2E2E2E2E2
310
E2E2E2E20FE2E2E2E2E2E2E2E2E2E2E2E2E20F0FE2E2E20F0FE2E2E20FE2E2E20F0F0FE2E20F0F0FE2E2E2E20FE2E20FE20FE2E20FE2E2E2E2E2E2E2E2E2E2E2E2E2E2E2E2E2E2E2E2E2E2E2E2E2E2E2E20FE2E2E2E2E2E2E2E20FE2E2E2E2E2E2E2E2E2E20FE2E2E2E2E2E2E2E2E20FE2E2E2E2E2E2E2E2E2E2E20FE20F0F
310
0F0F0FE2E2E2E2E2E2E2E2E2E20FE2E2E2E2E2E2E2E2E22DE2E2E2E2E2E2E20FE2E2E2E2E2E2E2E2E2E2E2E2E2E2E2E2E2E2E2E2E2E20FE2E20FE2E2E2E2E2E2E2E2E2E2E2E2E20F0FE2E2E2E20FE2E2E20FE2E2E2E2E2E2E2E2E2E2E2E2E2E2E20FE2E20FE2E2E2E20FE2E2E2E2E2E2E2E2E2E2E2E2E2E2E2E2E2E2E2E2E2
310
E2E2E2E2E2E2E20FE2E2E20FE2E2E2E20FE2E2E2E2E2E2E2E2E2E20FE2E2E2E2E2E2E2E2E20FE2E2E2E2E2E2E2E2E2E2E20F0F0F0F0F0F0FE2E2E2E2E2E2E2E2E2E20FE2E2E2E2E2E2E2E2E22DE2E2E2E2E2E2E20F0F0F0F0F0F0F0F0F0F0F0F0F0F0F0F0F0F0F0F0F0F0F0FE2E20FE2E2E2E2E2E2E2E2E2E2E2E2E20F0F0F
310
0F0F0F0FE2E2E20FE2E2E2E2E2E2E2E2E2E2E2E2E2E2E20FE2E20F0F0F0F0F0FE2E2E2E2E2E2E2E2E2E2E2E2E2E2E2E2E2E2E2E2E2E2E2E2E20F0F0F0F0F0F0F0F0F0F0FE20FE2E2E2E2E2E2E2E2E2E20FE2E2E2E2E2E2E2E2E20FE2E2E20FE2E2E2E2E2E2E2E2E2E2E2E2E2E2E2E2E2E2E2E2E20FE2E20FE2E2E2E2E2E2E2
310
E2E22DE2E2E2E2E2E2E20FE2E2E2E2E2E2E2E20FE20F0F0F0FE2E2E2E2E2E2E2E20FE2E20FE2E2E2E2E2E2E2E2E2E2E2E2E20F0FE20F0F0F0FE2E2E20FE2E2E2E2E2E2E2E2E2E2E2E2E2E2E20FE2E20FE20F0F0F0FE2E2E2E2E2E2E2E2E2E2E2E2E2E2E2E2E2E2E2E2E2E2E2E2E2E2E2E20F0F0F0F0FE2E2E2E20FE2E2E2E2
310
E2E2E2E2E2E20FE2E2E2E2E2E2E2E2E20FE2E2E20F0F0F0F0F0F0F0F0F0F0F0F0F0F0F0F0F0F0F0F0F0F0FE2E20FE2E2E2E2E2E2E2E2E22DE2E2E2E2E2E2E20FE2E2E2E2E2E2E2E20FE20F0F0F0FE2E2E2E2E2E2E2E20FE2E20FE2E2E2E2E2E2E2E2E2E2E2E2E20F0FE20F0F0F0FE2E2E20FE2E2E2E2E2E2E2E2E2E2E2E2E2
310
E2E20FE2E20FE20F0F0F0FE2E2E2E2E2E2E2E2E2E2E2E2E2E2E2E2E2E2E2E2E2E2E2E2E2E2E2E20F0F0F0F0FE2E2E2E20FE2E2E2E2E2E2E2E2E2E20FE2E2E2E2E2E2E2E2E20FE2E2E20FE2E2E2E2E2E2E20F0F0F0F0F0F0FE2E2E2E2E2E2E20FE2E20FE2E2E2E2E2E2E2E2E22DE2E2E2E2E2E2E20FE2E2E2E2E2E2E2E20F0F
310
0FE2E2E2E2E2E2E2E2E2E2E20FE2E20FE2E2E2E2E2E2E2E2E2E2E2E2E20F0FE2E2E2E20FE2E2E20FE2E2E2E2E2E2E2E2E2E2E2E2E2E2E20FE2E20FE2E2E2E20FE2E2E2E2E2E2E2E2E2E2E2E2E2E20F0F0F0F0F0F0FE2E2E2E2E2E2E20FE2E2E20FE2E2E2E20FE2E2E2E2E2E2E2E2E2E20FE2E2E2E2E2E2E2E2E20FE2E2E20F
310
E2E2E2E2E2E2E20FE20F0F0F0F0FE2E2E2E2E2E2E20FE2E20FE2E2E2E2E2E2E2E2E22DE2E2E2E2E2E2E20FE2E2E2E2E2E2E2E2E2E2E2E2E2E2E2E2E2E2E2E2E2E20FE2E20FE2E2E2E2E2E2E2E2E2E2E2E2E20F0FE2E2E2E20FE2E2E20FE2E2E2E2E2E2E2E2E2E2E2E2E2E2E20FE2E20FE2E2E2E20FE2E2E2E2E2E2E2E2E2E2
310
E2E2E2E20F0F0F0F0F0F0FE2E2E2E2E2E2E20FE2E2E20FE2E2E2E20FE2E2E2E2E2E2E2E2E2E20FE2E2E2E2E2E2E2E2E20FE2E2E20FE2E2E2E2E2E2E20F0F0F0F0F0F0FE2E2E2E2E2E2E20FE2E20FE2E2E2E2E2E2E2E2E22DE2E2E2E2E2E2E20FE2E2E2E2E2E2E2E2E2E2E2E2E2E2E2E2E2E2E2E2E2E20FE2E20FE2E2E2E2E2
310
E2E2E2E2E2E2E2E20F0FE2E2E2E20FE2E2E20FE2E2E2E2E2E2E2E2E2E2E2E2E2E2E20FE2E20FE2E2E2E20FE2E2E2E2E2E2E2E2E2E2E2E2E20FE20F0F0F0F0FE2E2E2E2E2E2E2E20FE2E2E20FE2E2E2E20FE2E2E2E2E2E2E2E2E2E20FE2E2E2E2E2E2E2E2E20FE2E2E20FE2E2E2E2E2E2E2E2E2E2E2E2E2E2E2E2E2E2E2E2E2
310
0FE2E20FE2E2E2E2E2E2E2E2E22DE2E2E2E2E2E2E20FE2E2E2E2E2E2E2E2E2E2E2E2E2E2E2E2E2E2E2E2E2E20FE2E20FE2E2E2E2E2E2E2E2E2E2E2E2E20F0FE2E2E2E20FE2E2E20FE2E2E2E2E2E2E2DCE2E2E2E2E2E2E20FE2E20FE2E2E2E20FE2E2E2E2E2E2E2E2E2E2E2E2E20FE2E2E2E2E2E2E2E2E2E2E2E2E2E20FE2E2
310
E20FE2E2E2E20FE2E2E2E2E2E2E2E2E2E20FE2E2E2E2E2E2E2E2E20FE2E2E20FE2E2E2E2E2E2E2E2E2E2E2E2E2E2E2E2E2E2E2E2E20FE2E20FE2E2E2E2E2E2E2E2E22DE2E2E2E2E2F5F50FF5F5F5F5F5F5F5F5F5F5F5F5F5F5F5F5F5F5F5F5F5F50FF5F50FE2E2E2E2E2E2E2E2E2E2E2E2E20F0FF5F5F5F50FF5F5F50FF5F5
310
F5F5F5F5F5F5F5F5F5F5F5F5F50FF5F50FF5F5F5F50FF5F5F5F5F5E2E2E2E2F5F5F5F50FF5F5F5F5F5F5F5F5F5F5F5F5F5F50FE2E2E20FE2E2E2E20FE2E2E2E2E2E2E2E2E2E20FE2E2E2E2E2E2E2E2E20FE2F5F50FF5F5F5F5F5F5F5F5F5F5F5F5F5F5F5F5F5F5F5F5F50FF5F50FE2E2E2E2E2E2E2E2E22DE2E2E2E2E2F5E2
310
0FE2F5E2E2F5F5E2E2E2E2E2E2E2E2E2E2F5F5E2F5F5E20FF5F50FE2E2E2E2E2E2E2E2E2E2E2E2E20FF5F5F5F5E20FE2E2E2F5E2E2E2E2E2E2E2DCE2E2E2E2E2E2E2F5E2E20FE2F5F5F50FF5F5F5F5F5E2E2E2E2F5F5F50FF5F5F5F5F5F5F5F5F5F5F5F5F5F5F5F5E2E2E20FE2E2E2E20FE2E2E2E2E2E2E2E2E2E20FE2E2E2
310
E2E2E2E2E2E20FF5E2E20FE2E2E2E2E2E2E2E2E2E2E2E2E2E2E2E2E2E2E2E2E20FE2E20FE2E2E2E2E2E2E2E2E22DE2E2E2E2E2F5F5F5F5F5E2E2F5E2E2E2E2E2E2E2E2E2E2E2E2F5E2F5E2F5F5F5F50FE2E2E2E2E2E2E2E2E2E2E2E2E20FF5E2E2F5E20FE2E2E2F5F5F5F5F5F5F5F5F5F5F5F5F5F5F5F5F5E2E20FE2F5E2E2
310
F5E2E2E2E2F5F5F5F5F5F5E2E20FE2E2E2E2E2E2E2E2E2E2E2E2E2E2E2F5E2E2E20FE2E2E2E20FE2E2E2E2E2E2E2E2E2E20FE2E2E2E2E2E2E2E2E20FF5E2F5BEE2E2E2E2E2E2E2E2E2E2E2E2E2E2E2E2E2E2E2E2E2BEF5E20FE2E2E2E2E2E2E2E2E22DE2E2E2E2E2BEF5BEF5BEF5E2F5E2E2E2E2E2E2E2E2E2E2E2E2F5E2F5
310
28F5BEF5F5F5E2E2E2E2E2E2E2E2E2E2E2E2E20FF5E2E2F5E20FE2E2BEF5BEBEBEBEBEBEBEBEBEBEBEBEBEBEBEF5BEE20FE2F5E2E2F5E2E2E2E2F5E2E2E2E2F5E2F50FE2E2E2E2E2E2E2E2E2E2E2E2E2E2E2F5E2E2E20FE2E2E2E20FE2E2E2E2E2E2E2E2E2E20FE2E2E2E2E2E2E2E2E2F5F5BEBEBEBEE2E2E2E2E2E2E2E2E2
310
E2E2E2E2E2E2E2E2E2E2BEBEBEBEF5E2E2E2E2E2E2E2E2E22DE2E2E2E2E2F5F5F5F5F5E2E2F5E2E2E2E2E2E2E2E2E2E2E2E2F5E2F5E2F5F5F5F5F5E2E2E2E2E2E2E2E2E2E2E2E2E20FF5F5F5F5E20FE2E2E2F5F5F5F5F5F5F5F5F5F5F5F5F5F5F5F5F5E2E20FE2F5F5F5F5E2E2E2E2F5E2E2E2E2F5F50FF5E2E2E2E2E2E2E2
310
E2E2E2E2E2E2E2E2F5E2E2E20FE2E2E2E20FE2E2E2E2E2E2E2E2E2E20FE2E2E2E2E2E2E2E2E2F5F5E2F5BEE2E2E2E2E2E2E2E2E2E2E2E2E2E2E2E2E2E2E2E2E2BEF5E2F5E2E2E2E2E2E2E2E2E22DE2E2E2E2E2E2F5F5F5E2E2E2F5E2E2E2E2E2E2E2E2E2E2E2E2F5E2E2F5F5BEF5E2F5E2E2E2E2E2E2E2E2E2E2E2E2E20FF5
310
E2E2F5E20FE2E2E2F5E2E2E2E2E2E2E2DCE2E2E2E2E2E2E2F5E2E20FE2F5E2E2F5E2E2E2E2F5E2E2E2E2F5F50FF5E2E2E2E2E2E2E2E2E2E2E2E2E2E2E2F5E2E2E20FE2E2E2E20FE2E2E2E2E2E2E2E2E2E20FE2E2E2E2E2E2E2E2E2F5F5E2E2BEE2E2E2E2E2E2E2E2E2E2E2E2E2E2E2E2E2E2E2E2E2BEE2E2F5E2E2E2E2E2E2
310
E2E2E22DE2E2E2E2E2E2E2E2E2E2E2F5F5E2E2E2E2E2E2E2E2E2E2E2E2F5E2E2E2E2F5E2E2F5E2E2E2E2E2E2E2E2E2E2E2E2E20FF5F5F5F5E20FE2E2E2F5E2E2E2E2E2E2E2DCE2E2E2E2E2E2E2F5E2E20FE2F5F5F5F5E2E2E2E2F5E2E2E2E2F5F5F5F5E2E2F5F5F5F5F5E2E2E2E2E2E2E2E2F5E2E2E20FE2E2E2E20FE2E2E2
310
E2E2E2E2E2E2E20FE2E2E2E2E2E2E2E2E2F5F5E2E2E2E2E2E2E2E2E2E2E2E2E2E2E2E2E2E2E2E2E2E2E2E2E2E2E2F5E2E2E2E2E2E2E2E2E22DE2E2E2E2E2E2E2E2E2E2F5F5E2E2E2E2E2E2BEE2E2E2E2E2E2E2F5F5E2E2E2E2E2F5E2E2E2E2E2E2E2E2E2E2E2E2E20FF5E2E2F5E20FE2E2E2F5E2E2E2E2E2E2E2DCE2E2E2E2
310
E2E2E2F5E2E20FE2F5E2E2F5E2E2E2E2F5E2E2E2E2F5E2E2E2F5F5F5E2E2E2E2F5F5F5E2E2E2E2E2F5E2E2E20FE2E2E2E20FE2E2E2E2E2E2E2E2E2E20FE2E2E2E2E2E2E2E2E2F5F5E2E2E2E2E2E2E2E2E2E2E2E2E2E2E2E2E2E2E2E2E2E2E2E2E2E2E2F5E2E2E2E2E2E2E2E2E22DE2E2E2E2E2F5F5F5F5F5F5E2E2E2E2E2E2
310
F5F5F5F5E2E2E2E2E2E2F5F5F5F5F5F5F5E2E2E2E2E2E2E2E20F0F0F0F0F0FF5F5F5F5E20FBEE2E2F5E2E2E2E2E2E2E2DCE2E2E2E2E2E2E2F5E2E20FE2F5F5F5F5E2E2E2E2F5E2E2E2E2F5E2E2F5E2E2E2E2E2E2E2E2E2F5E2E2E2E2E2F5F5F5F50F0F0F0F0F0F0F0F0F0F0F0F0F0F0F0F0F0F0F0F0F0F0F0F0F0FF5F5E2E2
310
E2E2E2E2E2E2E2E2E2F5F5F5F5F5E2E2E2E2E2E2E2E2E2E2E2F5E2E2E2E2E2E2E2E2E22DE2E2E2E2E2F5E2E2E2E2E2E2E2E2E2F5F5F5F5F5F5F5F5E2E2E2E2E2E2E2E2E2F5F5E2E2E2E2E2E2E2E2E20FE2E2E2F5F5E2E2F5E20FF5F5E2F5E2E2E2E2E2E2E2DCE2E2E2E2E2E2E2F5F5F50FF5F5E2E2F5E2E2E2E2F5E2E2E2E2
310
F5E2F5E2E2E2E2E2E2E2E2E2E2E2F5F5E2E2E2F5E2E2E2F5E2E2E2E20FE2E2E2F5F5F5F5E2E2E20FE2E2E2E2E2E2E2E20FF5F5E2E2E2E2E2E2E2E2E2F5F5F5E2F5E2F5F5F5E2E2E2E2E2E2E2E2E2F5E2E2E2E2E2E2E2E2E22DE2E2E2E2E2E2E2E2E2E2E2E2E2F5F5F5E2E2BEE2E2E2F5F5E2E2E2E2E2E2E2E2F5F5E2E2E2E2
310
E2E2E2E2E20FE2E2E2F5F5E2E2F5F50FBEF5F5F5E2E2E2E2E2E2E2DCE2E2E2E2E2E2E2F5F5F50FF5F5E2E2F5E2E2E2E2F5E2E2E2E2F5F5E2E2E2E2E2E2E2E2E2E2E2E2E2F5E2E2E2F5E2E2E2F5E2E2E2E20FE2E2E2F5E2E2F5E2E2E20FE2E2E2E2E2E2E2E20FF5F5E2E2E2E2E2E2E2E2F5F5E2F5F5F5F5F5E2F5F5E2E2E2E2
310
E2E2E2E2F5E2E2E2E2E2E2E2E2E22DE2E2E2E2E2E2E2E2E2E2E2E2E2F5F5E2E2E2BEE2E2E2E2F5F5E2E2E2E2E2E2BEBEF5E2E2E2E2E2E2E2E2E20FE2E20FF5F5E2E2BEF50FBEBEF5F5E2E2E2E2E2E2E2DCE2E2E2E2E2E2E2F5F5BE0FF5F5E2E2F5E2E2E2E2F5E2E2E2E2F5F5E2E2E2E2E2E2E2E2E2E2E2E2E2E2F5E2E2F5E2
310
E2E2F5F50F0F0F0F0F0F0F0F0F0F0F0F0F0F0F0F0F0F0F0FE2E2E20FF5F5E2E2E2E2E2E2E2E2F5E2F5F5E2F5E2E2F5E2F5E2E2E2E2E2E2E2E2F5E2E2E2E2E2E2E2E2E22DE2E2E2E2E2E2E2E2E2E2E2E2E2F5E2E2E2E2BEE2E2E2E2E2F5E2E2E2E2E2E2E2E2F5E2E2E2E2E2E2E20F0F0FE2E20FF5F5E2E2E2F50FF5F5F5F5E2
310
E2E2E2E2E2E2DCE2E2E2E2E2E2E2F5F5F50FF5E2E2E2F5E2E2E2E2F5E2E2E2E2F5F5E2E2E2E2E2E2E2E2E2E2E2E2E2E2F5E2E2F5E2E2E2F5E2F5F5F5F5E2E2E2F5F5F5F5E2E2E20FE20F0F0FE2E20F0F0FF5F5E2E2E2E2E2E2E2F5E2F5E2F5F5F5F5F5E2F5E2F5E2E2E2E2E2E2E2F5E2E2E2E2E2E2E2E2E22DE2E2E2E2E2E2
310
E2E2E2E2E2E2F5F5E2E2E2E2BEE2E2E2E2E2F5E2E2E2E2E2E2E2E2F5E2E2E2E2E2E20F0F0F0FE2E20FF5F5E2E2E2E20FF5F5E2F5E2E2E2E2E2E2E2DCE2E2E2E2E2E2E2F5E2F50FE2E2E2E2F5E2E2E2E2F5E2E2E2E2F5F5E2E2E2E2E2E2E2E2E2E2E2E2E2F5F5E2E2F5E2E2E2F5E2F5E2E2F5E2E2E2F5E2E2F5E2E2E2F50F0F
310
0F0FE20F0F0F0FF5F5E2E2E2E2E2E2E2F5E2F5F5F5E2BEE2F5F5F5E2F5E2E2E2E2E2E2E2F5E2E2E2E2E2E2E2E2E22DE2E2E2E2E2E2E2E2E2E2E2BEF5F5BEBEBEBEBEBEBEBEBEBEF5F5E2E2E2E2E2E2E2F5E2E2E2E2E2E20F0F0F0FE20F0F0FF5BEE2E2F5F5F5F5BEF5BEBEBEBEBEBEBEBEBEBEBEBEBEBEBEF5BEF50FF5F5E2
310
E2F5E2E2E2E2F5E2E2BEBEF5F5F5BEBEBEBEBEBEBEBEBEBEBEF5F5F5BEBEF5BEBEBEF5BEF5BEBEF5BEBEBEF5BEBEF5BEBEBEF50F0F0F0FE20F0F0F0FF5F5E2E2E2E2E2E2E2F5F5F5F5F5BEBEBEF5F5F5F5F5E2E2E2E2E2E2E2F5E2E2E2E2E2E2E2E2E22DE2E2E2E2E2E2E2E2E2E2E2E2F5F5E2E2E2E2BEE2E2E2E2E2F5E2E2
310
E2E2E2E2E2E2F5E2E2E2E2E2E20F0F0F0F0F0F0FF5F5E2E2F5F5F5F5F5F5F5E2E2E2E2E2E2E2DCE2E2E2E2E2E2E2F5F5F5F5F5F5F5E2F5E2E2E2E2F5E2E2E2E2F5F5F5E2E2E2E2E2E2E2E2E2E2E2F5F5F5E2E2F5E2E2E2F5E2F5E2E2F5E2E2E2F5E2E2F5E2E2E2F5E20F0F0FE20F0F0F0FF5F5E2E2E2E2E2E2E2F5F5F5F5F5
310
E2BEE2F5F5F5F5F5E2E2E2E2E2E2E2F5E2E2E2E2E2E2E2E2E22DE2E2E2E2E2E2E2E2E2E2E2E2F5F5E2E2E2E2BEE2E2E2E2E2F5E2E2E2E2E2E2E2E2F5E2E2E2E2E2E20F0F0F0F0F0F0FF5F5E2E2F5F5BEE2F5F5F5E2E2E2E2E2E2E2DCE2E2E2E2E2E2E2F5F5F5BEE2F5F5E2F5E2E2E2E2F5E2E2E2E2F5E2E2E2E2E2E2E2E2E2
310
E2E2E2E2E2E2F5E2E2F5E2E2E2F5E2F5F5F5F5E2E2E2F5E2E2F5E2E2E2F50F0F0F0FE20F0F0F0FF5F5E2E2E2E2E2E2E2F5E2F5E2F5F5BEF5F5E2F5E2F5E2E2E2E2E2E2E2F5E2E2E2E2E2E2E2E2E22DE2E2E2E2E2BEE2E2E2E2E2E2E2F5E2E2E2E2BEE2E2E2E2F5F5E2E2E2E2E2E2E2BEF5E2E2E2E2E2E2E2E2E20FE20F0F0F
310
0F0F0FF5F5BEBEF5F5F5E2E2E2E2E2E2E2DCE2E2E2E2E2E2E2F5F5F5BEBEF5F5BEF5E2E2E2E2F5E2E2E2E2F5F5E2E2E2E2E2E2E2E2E2E2E2E2E2E2F5E2E2F5E2E2E2F5E2F5F5F5F5F5F5F5F5F5F5F5F50FF5F5E2E2E20FE2E2E2E20FF5F5E2E2E2E2E2E2E2F5F5F5F5F5F5F5F5F5F5F5F5F5E2E2E2E2E2E2E2F5E2E2E2E2E2
310
E2E2E2E22DE2E2E2E2E2E2E2E2E2E2E2E2E2F5F5E2E2E2BEE2E2E2F5F5E2E2E2E2E2E2E2E2E2F5E2E2E2E2E2E2E2E2E20FE2E20FF5F5E2E2F5F5F5F5F5F5F5E2E2E2E2E2E2E2DCE2E2E2E2E2E2E2F5F5F5F5F5F5F5E2F5E2E2E2E2F5E2E2E2E2F5F5E2E2E2E2E2E2E2E2E2E2E2E2E2E2F5E2E2F5E2E2E2F5F50F0F0F0F0F0F
310
0F0F0F0F0F0F0F0F0F0F0F0F0F0FE2E2E20FF5F5E2E2E2E2E2E2E2E2F5E2F5F5E2BEE2F5F5E2F5E2E2E2E2E2E2E2E2F5E2E2E2E2E2E2E2E2E22DE2E2E2E2E2E2E2E2E2E2E2E2E2E2F5F5E2E2BEE2E2F5F5F5E2E2E2E2E2E2E2E2F5F5E2E2E2E2E2E2E2E2E20FE2E20FF5F5E2E2F5F5F5F5F5E2F5E2E2E2E2E2E2E2DCE2E2E2
310
E2E2E2E2F5F5F5F50FF5E2E2F5E2E2E2E2F5E2E2E2E2F5F5F5E2E2E2E2E2E2E2E2E2E2E2E2F5E2E2E2F5E2E2E2F5E2E2E2E2E2E2E2E2F5F5F5F50F0FE2E2E2E2E2E2E2E2E2E20FF5F5E2E2E2E2E2E2E2E2E2F5E2F5F5F5F5F5E2F5E2E2E2E2E2E2E2E2E2F5E2E2E2E2E2E2E2E2E22DE2E2E2E2E2F5E2E2E2E2E2E2E2E2E2F5
310
F5F5F5F5F5F5E2E2E2E2E2E2E2E2E2E2F5F5E2E2E2E2E2E2E2E20F0F0F0F0F0FF5E2E2F5E2BEE2E2E2F5E2E2E2E2E2E2E2DCE2E2E2E2E2E2E2F5E2E2BE0F0FE2E2F5E2E2E2E2F5E2E2E2E2F5E2F5E2E2E2E2E2E2E2E2E2E2E2F5E2E2E2E2F5F5F5F50F0F0F0F0F0F0F0F0F0F0F0F0F0F0F0F0F0F0F0F0F0F0F0F0F0FF5F5E2
310
E2E2E2E2E2E2E2E2E2F5F5F5F5F5F5F5E2E2E2E2E2E2E2E2E2E2F5E2E2E2E2E2E2E2E2E22DE2E2E2E2E2F5F5F5F5F5F5E2E2E2E2E2E2E2BEE2E2E2E2E2E2E2F5F5F5F5F5F5F5F5E2E2E2E2E2E2E2E2E2E2E2E2E2E2F5F5F5F5E2E2E2E2E2F5E2E2E2E2E2E2E2DCE2E2E2E2E2E2E2F5E2E2E20FF5F5F5F5E2E2E2E2F5E2E2E2
310
E2F5E2E2F5F5E2E2E2E2E2E2E2E2F5E2E2E2E2E2F5E2E2E2E2E2E2E2E2E2E2E2E2E2E2E2E2E20FE2E2E2E2E2E2E2E2E2E2E2F5F5E2E2E2E2E2E2E2E2E2E2E2E2E2E2E2E2E2E2E2E2E2E2E2E2E2E2E2F5E2E2E2E2E2E2E2E2E22DE2E2E2E2E2E2E2E2E2E2E2F5E2E2E2E2E2E2E2E2E2E2E2E2E2F5F5E2E2E2E2E2E2F5E2E2E2
310
E2E2E2E2E2E2E2E2E2E2E2F5E2E2F5E2E2E2E2E2F5E2E2E2E2E2E2E2DCE2E2E2E2E2E2E2F5E2E2E2E20FE2E2F5E2E2E2E2F5E2E2E2E2F5E2E2E2E2F5F5F5F5F5F5F5F5E2E2E2E2E2E2F5E2E2E2E2E2E2E2E2E2E2E2E2E2E2E2E2E20FE2E2E2E2E2E2E2E2E2E2E2F5F5E2E2E2E2E2E2E2E2E2E2E2E2E2E2E2E2E2E2E2E2E2E2
310
E2E2E2E2E2F5E2E2E2E2E2E2E2E2E22DE2E2E2E2E2E2F5F5E2E2E2E2F5E2E2E2E2E2E2E2E2E2E2E2E2F5E2E2F5F5F5F5E2F5E2E2E2E2E2E2E2E2E2E2E2E2E2E2F5F5F5F5E2E2E2E2E2F5E2E2E2E2E2E2E2DCE2E2E2E2E2E2E2F5E2E2E2E20FF5F5F5E2E2E2E2F5E2E2E2E2F5E2E2E2E2E2E2E2E2E2E2E2E2E2E2E2E2E2E2F5
310
E2E2E2E2E2E2E2E2E2E2E2E2E2E2E2E20FE2E2E2E2E2E2E2E2E2E2E2E2F5F5E2E2E2E2E2E2E2E2E2E2E2E2E2E2E2E2E2E2E2E2E2E2E2E2E2E2E2F5E2E2E2E2E2E2E2E2E22DE2E2E2E2E2F5E228F5F5E2E2F5E2E2E2E2E2E2E2E2E2E2E2E2F5E2E2F52828E2F5F5E2E2E2E2E2E2E2E2E2E2E2E2E2E2F5E2E2F5E2E2E2E2E2F5
310
F5F5F5F5F5F5F5F5F5F5F5F5F5F5F5F5E2E2E2E2F50FE2F5E2E2E2E2F5E2E2E2E2F5E2E2E2E2E2E2E2E2E2E2E2E2E2E2E2E2E2E2F5E2E2E2E2E2E2E2E2E2E2E2E2E2E2E2E20FE2E2E2E2E2E2E2E2E2E2E2E2F5F5E2E2BEE2E2E2E2E2E2E2E2E2E2E2E2E2E2E2E2E2E2E2E2E2BEE2E2F5E2E2E2E2E2E2E2E2E22DE2E2E2E2E2
310
E2F5F5F5F5E2E2F5E2E2E2E2E2E2E2E2E2E2E2E2F5E2F528F5F5F5F5F5E2E2E2E2E2E2E2E2E2E2E2E2E2E2F5E2E2F5E2E2E2E2E2F5E2E2E2E2E2E2E2DCE2E2E2E2E2E2E2F5E2E2E2E2F50FE2F5E2E2E2E2F5E2E2E2E2F5E2E2E2E2E2E2E2E2E2E2E2E2E2E2E2E2E2E2F5E2E2E2E2E2E2E2E2E2E2E2E2E2E2E2E20F0F0F0F0F
310
0F0F0F0F0F0F0FE2F5F5E2F5BEF5E2E2E2E2E2E2E2E2E2E2E2E2E2E2E2E2E2E2E2F5BEF5E2F5E2E2E2E2E2E2E2E2E22DE2E2E2E2E2BEF50FF5F5E2E2F5E2E2E2E2E2E2E2E2E2E2E2E2F5E2F528F5F5F5E2F5E2E2E2E2E2E2E2E2E2E2E2E2E2E2F5F5F5F5E2E2E2E2BEF5BEBEBEBEBEBEBEBEBEBEBEBEBEBEBEF5BEE2E2E2F5
310
0FF5F5E2E2E2E2F5E2E2E2E2F5E2E2E2E2E2E2E2E2E2E2E2E2E2E2E2E2E2E2F5E2E2E2E2E2E2E2E2E2E2E2E2E2E2E2E2E2E20F0F0F0F0F0F0F0F0F0FE2F5F5BEBEBEBEE2E2E2E2E2E2E2E2E2E2E2E2E2E2E2E2E2E2E2BE0FBEBEF5E2E2E2E2E2E2E2E2E22DE2E2E2E2E2F528F50FF5E2E2F5E2E2E2E2E2E2E2E2E2E2E2E2F5
310
E2E2F5F5F5E2F5F5E2E2E2E2E2E2E2E2E2E2E2E2E2E2F5E2E2F5E2E2E2E2E2F5F5F5F5F5F5F5F5F5F5F5F5F5F5F5F5F5E2E2E2E2F5E20FF5F5F5F5F5F5F5F5F5F5F5F5F5F5F5F5F5F5F5F5F5F5F5F5F5F5F5F5F5F5E2E2E2E2E2E2E2E2E2E2E2E2E2E2E2E2E2E20FE20F0F0F0F0F0FE20FE2E2F5E2F5BEE2E2E2E2E2E2E2E2
310
E2E2E2E2E2E2E2E2E2E2E2E20F0FF5E2F5E2E2E2E2E2E2E2E2E22DE2E2E2E2E2F5F5F50F0FE2E2F5F5F5F5F5F5F5F5F5F5F5F5F5E2E2E2F5F5F5F5F5E2E2E2E2E2E2E2E2E2E2E2E2E2E2E2F5F5F5F5E2E2E2E2E2F5F5F5F5F5F5F5F5F5F5F5F5F5F5F5F5F5E2E2E2E2F5F50FF5F5F5F5F5F5E2E2E2E2F5F5F5F5F5F5F5F5F5
310
F5F5F5F5F5F5F5F5F5F5F5E2E2E2E2E2E2E2E2E2E2E2E2E2E2E2E2E2E2E2E2E2E2E2E2E2E2E2E2E2E2F5F5F5F5F5F5F5F5F5F5F5F5F5F5F5F5F5F5F5F5F5F5F5F50FF5F5F5F5E2E2E2E2E2E2E2E2E22DE2E2E2E2E2E2F5F5F50FF5F5F5F5F5F5F5F5F5F5F5F5F5F5F5F5F5F5F5F5F5F5E2E2E2E2E2E2E2E2E2E2E2E2E2E2E2
310
E2E2E2F5F5F5F5F5F5F5F5E2E2E2E2E2E2E2DCE2E2E2E2E2E2E2F5F5F5F5F5F5F50FE2E2E2E2E2E2E2E2E2E2E2E2E2E2E2E2E2E2E2E2E2E2E2E2E2E2E2E2E2E2E2E2E2E2E2E2E2E2E2E2E2E2E2E2E2E2E2E2E2E2E2E2E2E2E2E2E2E2E2E2E2F5F5F5F5F5F5F5F5F5F5F5F5F5F5F5F5F5F5F5F5F5F50FF5F5F5E2E2E2E2E2E2
310
E2E2E2E2E22DE2E2E2E2E2E2E2E2E20FE2E2E2E2E2E2E2E2E2E2E2E2E2E2E2E2E2E2E2E2E2E2E2E2E2E2E2E2E2E2E2E2E2E2E2E2E2E2E2E2E2E2E2E2E2E2E2E2E2E2E2E2E2E2E2DCE2E2E2E2E2E2E2E2E2E2E2E2E2E2E20FE2E2E2E2E2E2E2E2E2E2E2E2E2E2E2E2E2E2E2E2E2E2E2E2E2E2E2E2E2E2E2E2E2E2E2E2E2E2E2
310
E2E2E2E2E2E2E2E2E2E2E2E2E2E2E2E2E2E2E2E2E2E2E2E2E2E2E2E2E2E2E2E2E2E2E2E2E2E2E2E2E2E20FE2E2E2E2E2E2E2E2E2E2E2E2E2E2E22DE2E2E2E2E2E2E2E2E2E20FE2E2E2E2E2E2E2E2E2E2E2E2E2E2E2E2E2E2E2E2E2E2E2E2E2E2E2E2E2E2E2E2E2E2E2E2E2E2E2E2E2E2E2E2E2E2E2E2E2E2E2E2E2E2DCDCDC
310
DCDCDCDCE2E2E2E2E2E2E2E2E20FE2E2E2E2E2E2E2E2E2E2E2E2E2E2E2E2E2E2E2E2E2E2E2E2E2E2E2E2E2E2E2E2E2E2E2E2E2E2E2E2E2E2E2E2E2E2E2E2E2E2E2E2E2E2E2E2E2E2E2E2E2E2E2E2E2E2E2E2E2E2E2E2E2E2E2E2E2E2E2E2E20FE2E2E2E2E2E2E2E2E2E2E2E2E2E2E22DE2E2E2E2E2E2E2E2E2E20FE2E2E2E2
310
E2E2E2E2E2E2E2E2E2E2E2E2E2E2E2E2E2E2E2E2E2E2E2E2E2E2E2E2E2E2E2E2E2E2E2E2E2E2E2E2E2E2E2E2E2E2E2E2E2E2DCDCDCDCDCDCE2E2E2E2E2E2E2E2E2E2E20FE2E2E2E2E2E2E2E2E2E2E2E2E2E2E2E2E2E2E2E2E2E2E2E2E2E2E2E2E2E2E2E2E2E2E2E2E2E2E2E2E2E2E2E2E2E2E2E2E2E2E2E2E2E2E2E2E2E2E2
310
E2E2E2E2E2E2E2E2E2E2E2E2E2E2E2E2E2E2E2E20FE2E2E2E2E2E2E2E2E2E2E2E2E2E2E2E22DE2E2E2E2E2E2E2E2E2E2E20F0F0F0F0F0F0F0F0F0F0F0F0F0F0FE2E2E2E2E2E2E2E2E2E2E2E2E2E2E2E2E2E2E2E2E2E2E2E2E2E2E2E2E2E2E2E2E2E2E2E2E2E2E2E2E2E2DCDCE2E2E2E2E2E2E2E2E2E2E2E20F0F0F0F0F0F0F
310
0F0F0FE2E2E2E2E2E2E2E2E2E2E2E2E2E2E2E2E2E2E2E2E2E2E2E2E2E2E2E2E2E2E2E2E2E2E2E2E2E2E2E2E2E2E2E2E2E2E2E2E2E2E2E2E2E2E2E20F0F0F0F0F0F0F0F0F0F0F0F0F0FE2E2E2E2E2E2E2E2E2E2E2E2E2E2E2E2E22DE2E2E2E2E2E2E2E2E2E2E2E20F0F0F0F0F0FE20F0F0F0F0F0F0FE2E2E2E2E2E2E2E2E2E2
310
E2E2E2E2E2E2E2E2E2E2E2E2E2E2E2E2E2E2E2E2E2E2E2E2E2E2E2E2E2E2E2E2E2E2E2E2E2E2E2E2E2E2E2E2E2E20F0FE20F0F0F0FE20FE2E2E2E2E2E2E2E2E2E2E2E2E2E2E2E2E2E2E2E2E2E2E2E2E2E2E2E2E2E2E2E2E2E2E2E2E2E2E2E2E2E2E2E2E2E2E2E2E2E2E2E2E2E2E2E2E20F0F0F0F0F0F0F0F0F0F0F0F0FE2E2
310
E2E2E2E2E2E2E2E2E2E2E2E2E2E2E2E22DE2E2E2E2E2E2E2E2E2E2E2E20FE2E20F0F0F0F0FE20F0F0F0F0FE2E2E2E2E2E2E2E2E2E2E2E2E2E2E2E2E2E2E2E2E2E2E2E2E2E2E2E2E2E2E2E2E2E2E2E2E2E2E2E2E2E2E2E2E2E2E2E2E2E2E2E2E2E2E2E2E20F0F0F0F0FE20F0FE2E2E2E2E2E2E2E2E2E2E2E2E2E2E2E2E2E2E2
310
E2E2E2E2E2E2E2E2E2E2E2E2E2E2E2E2E2E2E2E2E2E2E2E2E2E2E2E2E2E2E2E2E2E2E2E2E2E20FE2E20F0F0F0F0F0F0F0F0F0FE2E2E2E2E2E2E2E2E2E2E2E2E2E2E2E2E2E22DE2E2E2E2E2E2E2E2E2E2E2E2E2E2E2E2E2E2E2E2E2E2E2E2E2E2E2E2E2E2E2E2E2E2E2E2E2E2E2E2E2E2E2E2E2E2E2E2E2E2E2E2E2E2E2E2E2
310
E2E2E2E2E2E2E2E2E2E2E2E2E2E2E2E2E2E2E2E2E2E2E2E2E20F0FE20F0F0FE20F0FE2E2E2E2E2E2E2E2E2E2E2E2E2E2E2E2E2E2E2E2E2E2E2E2E2E2E2E2E2E2E2E2E2E2E2E2E2E2E2E2E2E2E2E2E2E2E2E2E2E2E2E2E2E2E2E2E2E2E2E2E2E2E2E2E2E2E2E2E2E2E2E2E2E2E2E2E2E2E2E2E2E2E2E2E2E2E2E22DE2E2E2E2
310
E2E2E2E2E2E2E2E2E2E2E2E2E2E2E2E2E2E2E2E2E2E2E2E2E2E2E2E2E2E2E2E2E2E2E2E2E2E2E2E2E2E2E2E2E2E2E2E2E2E2E2E2E2E2E2E2E2E2E2E2E2E2E2E2E2E2E2E2E2E2E2E2E2E2E2E2E2E2E2E2E2E2E2E2E2E2E2E2E2E2E2E2E2E2E2E2E2E2E2E2E2E2E2E2E2E2E2E2E2E2E2E2E2E2E2E2E2E2E2E2E2E2E2E2E2E2E2
310
E2E2E2E2E2E2E2E2E2E2E2E2E2E2E2E2E2E2E2E2E2E2E2E2E2E2E2E2E2E2E2E2E2E2E2E2E2E2E2E2E2E2E2E2E2E2E2E22DE2E2E2E2E2E2E2E2E2E2E2E2E2E2E2E2E2E2E2E2E2E2E2E2E2E2E2E2E2E2E2E2E2E2E2E2E2E2E2E2E2E2E2E2E2E2E2E2E2E2E2E2E2E2E2E2E2E2E2E2E2E2E2E2E2E2E2E2E2E2E2E2E2E2E2E2E2E2
310
E2E2E2E2E2E2E2E2E2E2E2E2E2E2E2E2E2E2E2E2E2E2E2E2E2E2E2E2E2E2E2E2E2E2E2E2E2E2E2E2E2E2E2E2E2E2E2E2E2E2E2E2E2E2E2E2E2E2E2E2E2E2E2E2E2E2E2E2E2E2E2E2E2E2E2E2E2E2E2E2E2E2E2E2E2E2E2E2E2E2E2E2E2E2E2E2E2E2E2E2E22DE2E2E2E2E2E2E2E2E2E2E2E2E2E2E2E2E2E2E2E2E2E2E2E2E2
310
E2E2E2E2E2E2E2E2E2E2E2E2E2E2E2E2E2E2E2E2E2E2E2E2E2E2E2E2E2E2E2E2E2E2E2E2E2E2E2E2E2E2E2E2E2E2E2E2E2E2E2E2E2E2E2E2E2E2E2E2E2E2E2E2E2E2E2E2E2E2E2E2E2E2E2E2E2E2E2E2E2E2E2E2E2E2E2E2E2E2E2E2E2E2E2E2E2E2E2E2E2E2E2E2E2E2E2E2E2E2E2E2E2E2E2E2E2E2E2E2E2E2E2E2E2E2E2
310
E2E2E2E2E2E2E2E2E2E2E2E2E2E2E2E2E2E2E2E2E2E2E2E2E2E2E22DE2E2E2E2E2E2E2E2E2E2E2E2E2E2E2E2E2E2E2E2E2E2E2E2E2E2E2E2E2E2E2E2E2E2E2E2E2E2E2E2E2E2E2E2E2E2E2E2E2E2E2E2E2E2E2E2E2E2E2E2E2E2E2E2E2E2E2E2E2E2E2E2E2E2E2E2E2E2E2E2E2E2E2E2E2E2E2E2E2E2E2E2E2E2E2E2E2E2E2
310
E2E2E2E2E2E2E2E2E2E2E2E2E2E2E2E2E2E2E2E2E2E2E2E2E2E2E2E2E2E2E2E2E2E2E2E2E2E2E2E2E2E2E2E2E2E2E2E2E2E2E2E2E2E2E2E2E2E2E2E2E2E2E2E2E2E2E2E2E2E2E2E2E2E2E2E2E2E2E2E22DE2E2E2E2E2E2E2E2E2E2E2E2E2E2E2E2E2E2E2E2E2E2E2E2E2E2E2E2E2E2E2E2E2E2E2E2E2E2E2E2E2E2E2E2E2E2
310
E2E2E2E2E2E2E2E2E2E2E2E2E2E2E2E2E2E2E2E2E2E2E2E2E2E2E2E2E2E2E2E2E2E2E2E2E2E2E2E2E2E2E2E2E2E2E2E2E2E2E2E2E2E2E2E2E2E2E2E2E2E2E2E2E2E2E2E2E2E2E2E2E2E2E2E2E2E2E2E2E2E2E2E2E2E2E2E2E2E2E2E2E2E2E2E2E2E2E2E2E2E2E2E2E2E2E2E2E2E2E2E2E2E2E2E2E2E2E2E2E2E2E2E2E2E2E2
310
E2E2E2E2E2E22DE2E2E2E2E2E2E2E2E2E2E2E2E2E2E2E2E2E2E2E2E2E2E2E2E2E2E2E2E2E2E2E2E2E2E2E2E2E2E2E2E2E2E2E2E2E2E2E2E2E2E2E2E2E2E2E2E2E2E2E2E2E2E2E2E2E2E2E2E2E2E2E2E2E2E2E2E2E2E2E2E2E2E2E2E2E2E2E2E2E2E2E2E2E2E2E2E2E2E2E2E2E2E2E2E2E2E2E2E2E2E2E2E2E2E2E2E2E2E2E2
310
E2E2E2E2E2E2E2E2E2E2E2E2E2E2E2E2E2E2E2E2E2E2E2E2E2E2E2E2E2E2E2E2E2E2E2E2E2E2E2E2E2E2E2E2E2E2E2E2E2E2E2E2E2E2E2E2E2E2E22DE2E2E2E2E2E2E2E2E2E2E2E2E2E2E2E2E2E2E2E2E2E2E2E2E2E2E2E2E2E2E2E2E2E2E2E2E2E2E2E2E2E2E2E2E2E2E2E2E2E2E2E2E2E2E2E2E2E2E2E2E2E2E2E2E2E2E2
310
E2E2E2E2E2E2E2E2E2E2E2E2E2E2E2E2E2E2E2E2E2E2E2E2E2E2E2E2E2E2E2E2E2E2E2E2E2E2E2E2E2E2E2E2E2E2E2E2E2E2E2E2E2E2E2E2E2E2E2E2E2E2E2E2E2E2E2E2E2E2E2E2E2E2E2E2E2E2E2E2E2E2E2E2E2E2E2E2E2E2E2E2E2E2E2E2E2E2E2E2E2E2E2E2E2E2E2E2E2E2E2E22DE2E2E2E2E2E2E2E2E2E2E2E2E2E2
310
E2E2E2E2E2E2E2E2E2E2E2E2E2E2E2E2E2E2E2E2E2E2E2E2E2E2E2E2E2E2E2E2E2E2F5F5F5F5F5F5F5F5F5F5E2E2E2E2E2E2E2DCE2E2E2E2E2E2E2F5F5F5F5F5F5F5F5F5F5F5F5F5F5E2E2E2E2F5F5F5F5F5F5F5F5F5F5F5F5F5F5F5F5F5F5F5F5E2E2E2E2E2E2E2E2E2E2E2E2E2E2E2E2E2E2E2E2E2E2E2E2E2E2E2E2E2E2
310
E2E2E2E2E2E2E2E2E2E2E2E2E2E2E2E2E2E2E2E2E2E2E2E2E2E2E2E2E2E2E2E2E2E2E2E2E2E22DE2E2E2E2E2E2E2E2E2E2E2E2E2E2E2E2E2E2E2E2E2E2E2E2E2E2E2E2E2E2E2E2E2E2E2E2E2E2E2E2E2E2E2E2E2E2E2E2F5E2E2F5E2E2E2E2E2F5F5F5F5F5F5F5F5F5F5F5F5F5F5F5F5F5E2E2E2E2F5E2E2F5E2E2E2E2F5E2
310
E2E2E2F5E2E2E2E2E2E2E2E2E2E2E2E2E2E2E2E2E2E2F5E2E2E2E2E2E2E2E2E2E2E2E2E2E2E2E2E2E2E2E2E2E2E2E2E2E2E2E2E2E2E2E2E2E2E2E2E2E2E2E2E2E2E2E2E2E2E2E2E2E2E2E2E2E2E2E2E2E2E2E2E2E2E2E2E2E2E2E22DE2E2E2E2E2E2E2E2E2E2E2E2E2E2E2E2E2E2E2E2E2E2E2E2E2E2E2E2E2E2E2E2E2E2E2
310
E2E2E2E2E2E2E2E2E2E2E2E2E2F5F5F5F5E2E2E2E2E2F5F5F5F5F5F5F5F5F5F5F5F5F5F5F5F5F5E2E2E2E2F5F5F5F5F5F5F5F5F5F5F5F5F5F5F5F5F5F5F5F5F5F5F5F5F5F5F5F5F5F5F5F5F5E2E2E2E2E2E2E2E2E2E2E2E2E2E2E2E2E2E2E2E2E2E2E2E2E2E2E2E2E2E2E2E2E2E2E2E2E2E2E2E2E2E2E2E2E2E2E2E2E2E2E2
310
E2E2E2E2E2E2E2E2E2E2E2E2E2E2E2E2E22DE2E2E2E2E2E2E2E2E2E2E2E2E2E2E2E2E2E2E2E2E2E2E2E2E2E2E2E2E2E2E2E2E2E2E2E2E2E2E2E2E2E2E2E2E2E2E2E2F5E2E2F5E2E2E2E2BEF5BEBEBEBEBEBEBEBEBEBEBEBEBEBEBEF5BEE2E2E2F5E2E2F5E2E2E2E2F5E2E2E2E2F5E2E2F5F5F5F5E2E2E2F5F5F5E2E2E2E2E2
310
E2F5E2E2E2E2E2E2E2E2E2E2E2E2E2E2E2E2E2E2E2E2E2E2E2E2E2E2E2E2E2E2E2E2E2E2E2E2E2E2E2E2E2E2E2E2E2E2E2E2E2E2E2E2E2E2E2E2E2E2E2E2E2E2E2E2E2E2E2E22DE2E2E2E2E2E2E2E2E2E2E2E2E2E2E2E2E2E2E2E2E2E2E2E2E2E2E2E2E2E2E2E2E2E2E2E2E2E2E2E2E2E2E2E2E2E2E2E2F5E2E2F5E2E2E2E2
310
E2F5F5F5F5F5F5F5F5F5F5F5F5F5F5F5F5F5E2E2E2E2F5E2E2F5E2E2E2E2F5E2E2E2E2F5E2E2F5F5F5F5E2E2E2E2E2F5F5E2E2E2E2E2F5E2E2E2E2E2E2E2E2E2E2E2E2E2E2E2E2E2E2E2E2E2E2E2E2E2E2E2E2E2E2E2E2E2E2E2E2E2E2E2E2E2E2E2E2E2E2E2E2E2E2E2E2E2E2E2E2E2E2E2E2E2E2E2E2E2E2E2E22DE2E2E2
310
E2E2E2E2E2E2E2E2E2E2E2E2E2E2E2E2E2E2E2E2E2E2E2E2E2E2E2E2E2E2E2E2E2E2E2E2E2E2E2E2E2E2E2E2E2F5F5F5F5E2E2E2E2E2F5E2E2E2E2E2E2E2DCE2E2E2E2E2E2E2F5E2E2E2E2F5F5F5F5E2E2E2E2F5E2E2E2E2F5E2F5F5F5F5E2E2E2E2E2E2E2E2F5E2E2E2E2F5E2E2E2E2E2E2E2E2E2E2E2E2E2E2E2E2E2E2E2
310
E2E2E2E2E2E2E2E2E2E2E2E2E2E2E2E2E2E2E2E2E2E2E2E2E2E2E2E2E2E2E2E2E2E2E2E2E2E2E2E2E2E2E2E2E2E2E2E2E22DE2E2E2E2E2E2E2E2E2E2E2E2E2E2E2E2E2E2E2E2E2E2E2E2E2E2E2E2E2E2E2E2E2E2E2E2E2E2E2E2E2E2E2E2E2E2E2E2F5F5F5F5E2E2E2E2E2F5E2E2E2E2E2E2E2DCE2E2E2E2E2E2E2F5E2E2E2
310
E2F5F5F5F5E2E2E2E2F5E2E2E2E2F5E2F5E2E2E2E2E2E2E2E2E2E2E2E2F5E2E2E2F5E2E2E2E2E2E2E2E2E2E2E2E2E2E2E2E2E2E2E2E2E2E2E2E2E2E2E2E2E2E2E2E2E2E2E2E2E2E2E2E2E2E2E2E2E2E2E2E2E2E2E2E2E2E2E2E2E2E2E2E2E2E2E2E2E2E2E2E22DE2E2E2E2E2E2E2E2E2E2E2E2E2E2E2E2E2E2E2E2E2E2E2E2
310
E2E2E2E2E2E2E2E2E2E2E2E2E2E2E2E2E2E2E2E2E2E2E2E2F5E2E2F5E2E2E2E2E2F5E2E2E2E2E2E2E2DCE2E2E2E2E2E2E2F5E2E2E2E2F5E2E2F5E2E2E2E2F5E2E2E2E2F5F5F5E2E2E2E2E2E2E2E2E2E2E2E2F5E2E2E2F5E2E2E2E2E2E2E2E2E2E2E2E2E2E2E2E2E2E2E2E2E2E2E2E2E2E2E2E2E2E2E2E2E2E2E2E2E2E2E2E2
310
E2E2E2E2E2E2E2E2E2E2E2E2E2E2E2E2E2E2E2E2E2E2E2E2E2E2E2E22DE2E2E2E2E2E2E2E2E2E2E2E2E2E2E2E2E2E2E2E2E2E2E2E2E2E2E2E2E2E2E2E2E2E2E2E2E2E2E2E2E2E2E2E2E2E2E2F5F5F5F5F5E2E2E2E2E2F5E2E2E2E2E2E2E2DCE2E2E2E2E2E2E2F5E2E2E2E2F5F5F5F5E2E2E2E2F5E2E2E2E2F5F5E2E2E2E2E2
310
E2E2E2E2E2E2E2E2F5F5E2E2F5F5F5F5F5E2E2E2E2E2E2E2E2E2E2E2E2E2E2E2E2E2E2E2E2E2E2E2E2E2E2E2E2E2E2E2E2E2E2E2E2E2E2E2E2E2E2E2E2E2E2E2E2E2E2E2E2E2E2E2E2E2E2E2E2E2E2E2E22DE2E2E2E2E2E2E2E2E2E2E2E2E2E2E2E2E2E2E2E2E2E2E2E2E2E2E2E2E2E2E2E2E2E2E2E2E2E2E2E2E2E2E2E2E2
310
E2E2F5F5E2E2F5E2E2E2E2E2F5E2E2E2E2E2E2E2DCE2E2E2E2E2E2E2F5E2E2E2E2F5E2E2F5E2E2E2E2F5E2E2E2E2F5F5E2E2E2E2E2E2E2E2E2E2E2E2F5F5F5F5E2F5E2E2E2F5E2E2E2E2E2E2E2E2E2E2E2E2E2E2E2E2E2E2E2E2E2E2E2E2E2E2E2E2E2E2E2E2E2E2E2E2E2E2E2E2E2E2E2E2E2E2E2E2E2E2E2E2E2E2E2E2E2
310
E2E2E2E2E2E2E22DE2E2E2E2E2E2E2E2E2E2E2E2E2E2E2E2E2E2E2E2E2E2E2E2E2E2E2E2E2E2E2E2E2E2E2E2E2E2E2E2E2E2E2E2E2E2E2F5F5E2E2F5E2E2E2E2E2F5E2E2E2E2E2E2E2DCE2E2E2E2E2E2E2F5E2E2E2E2F5E2E2F5E2E2E2E2F5E2E2E2E2F5F5E2E2E2E2E2E2E2E2E2E2E2E2F5F5F5F5E2F5E2E2E2F5E2E2E2E2
310
E2E2E2E2F5F5F5F5E2E2E2E2E2E2E2E2E2E2E2E2E2E2E2E2E2E2E2E2E2E2E2E2E2E2E2E2E2E2E2E2E2E2E2E2E2E2E2E2E2E2E2E2E2E2E2E2E2E2E2E22DE2E2E2E2E2E2E2E2E2E2E2E2E2E2E2E2E2E2E2E2E2E2E2E2E2E2E2E2E2E2E2E2E2E2E2E2E2E2E2E2E2E2E2E2E2E2E2F5F5E2E2E2E2E2E2E2E2F5E2E2E2E2E2E2E2DC
310
E2E2E2E2E2E2E2F5E2E2E2E2E2E2E2F5E2E2E2E2F5E2E2E2E2F5F5E2E2E2E2E2E2E2E2E2E2E2E2E2F5F5E2E2F5E2E2E2F5F5F5E2E2E2E2E2E2F5E2E2F5E2E2E2E2E2E2E2E2E2E2E2E2E2E2E2E2E2E2E2E2E2E2E2E2E2E2E2E2E2E2E2E2E2E2E2E2E2E2E2E2E2E2E2E2E2E2E2E2E2E2E2E22DE2E2E2E2E2E2E2E2E2E2E2E2E2
310
E2E2E2E2E2E2E2E2E2E2E2E2E2E2E2E2E2E2E2E2E2E2E2E2E2E2E2E2E2E2E2E2E2E2F5F5E2E2E2E2E2E2E2E2F5E2E2E2E2E2E2E2DCE2E2E2E2E2E2E2F5E2E2E2E2E2E2E2F5E2E2E2E2F5E2E2E2E2F5F5F5E2E2E2E2E2E2E2E2E2E2E2E2F5E2E2E2F5E2E2E2F5E2F5F5F5F5F5F5F5F5E2E2F5F5F5F5F5E2E2E2E2E2E2E2E2E2
310
E2E2E2E2E2E2E2E2E2E2E2E2E2E2E2E2E2E2E2E2E2E2E2E2E2E2E2E2E2E2E2E2E2E2E2E2E2E2E22DE2E2E2E2E2E2E2E2E2E2E2E2E2E2E2E2E2E2E2E2E2E2E2E2E2E2E2E2E2E2E2E2E2E2E2E2E2E2E2E2E2E2E2E2E2E2E2F5F5E2E2E2E2E2E2E2E2F5E2E2E2E2E2E2E2DCE2E2E2E2E2E2E2F5E2E2E2E2E2E2E2F5E2E2E2E2F5
310
E2E2E2E2F5F5F5E2E2E2E2E2E2E2E2E2E2E2E2F5E2E2E2F5E2E2E2F5E2F5F5F5F5E2E2E2F5E2E2F5E2E2E2F5E2E2E2E2E2E2E2E2E2E2E2E2E2E2E2E2E2E2E2E2E2E2E2E2E2E2E2E2E2E2E2E2E2E2E2E2E2E2E2E2E2E2E2E2E2E2E2E22DE2E2E2E2E2E2E2E2E2E2E2E2E2E2E2E2E2E2E2E2E2E2E2E2E2E2E2E2E2E2E2E2E2E2
310
E2E2E2E2E2E2E2E2E2E2E2E2E2F5F5E2E2E2E2E2E2E2E2F5E2E2E2E2E2E2E2DCE2E2E2E2E2E2E2F5E2E2E2E2E2E2E2F5E2E2E2E2F5E2E2E2E2F5E2F5E2E2E2E2E2E2E2E2E2E2E2F5E2E2E2E2F5E2E2E2F5E2F5E2E2F5E2E2E2F5E2E2F5E2E2E2F5E2E2E2E2E2E2E2E2E2E2E2E2E2E2E2E2E2E2E2E2E2E2E2E2E2E2E2E2E2E2
310
E2E2E2E2E2E2E2E2E2E2E2E2E2E2E2E2E2E22DE2E2E2E2E2E2E2E2E2E2E2E2E2E2E2E2E2E2E2E2E2E2E2E2E2E2E2E2E2E2E2E2E2E2E2E2E2E2E2E2E2E2E2E2E2E2E2F5F5BEE2E2E2E2E2E2BEF5BEBEBEBEBEBEBEBEBEBEBEBEBEBEBEF5BEE2E2E2E2E2E2F5E2E2E2E2F5E2E2BEBEF5BEBEF5F5F5F5BEBEBEBEBEBEF5F5BEBE
310
BEBEF5BEBEBEF5BEF5BEBEF5BEBEBEF5F5F5F5BEBEBEF5E2E2E2E2E2E2E2E2E2E2E2E2E2E2E2E2E2E2E2E2E2E2E2E2E2E2E2E2E2E2E2E2E2E2E2E2E2E2E2E2E2E2E2E2E2E2E2E22DE2E2E2E2E2E2E2E2E2E2E2E2E2E2E2E2E2E2E2E2E2E2E2E2E2E2E2E2E2E2E2E2E2E2E2E2E2E2E2E2E2E2E2E2E2E2E2F5F5E2E2E2E2E2E2
310
E2E2F5E2E2E2E2E2E2E2DCE2E2E2E2E2E2E2F5E2E2E2E2E2E2E2F5E2E2E2E2F5E2E2E2E2F5E2E2F5F5F5F5E2E2E2E2F5F5E2E2E2E2E2E2F5E2E2E2F5E2F5F5F5F5E2E2E2F5E2E2F5E2E2E2F5E2E2E2E2E2E2E2E2E2E2E2E2E2E2E2E2E2E2E2E2E2E2E2E2E2E2E2E2E2E2E2E2E2E2E2E2E2E2E2E2E2E2E2E2E2E2E2E22DE2E2
310
E2E2E2E2E2E2E2E2E2E2E2E2E2E2E2E2E2E2E2E2E2E2E2E2E2E2E2E2E2E2E2E2E2E2E2E2E2E2E2E2E2E2E2E2E2F5F5E2E2E2E2E2E2E2E2F5E2E2E2E2E2E2E2DCE2E2E2E2E2E2E2F5E2E2E2E2E2E2E2F5E2E2E2E2F5E2E2E2E2F5E2E2F5F5F5F5F5F5F5F5E2E2E2E2E2E2E2E2F5E2E2E2F5E2F5F5F5F5F5F5F5F5E2E2F5F5F5
310
F5F5E2E2E2E2E2E2E2E2E2E2E2E2E2E2E2E2E2E2E2E2E2E2E2E2E2E2E2E2E2E2E2E2E2E2E2E2E2E2E2E2E2E2E2E2E2E2E2E22DE2E2E2E2E2E2E2E2E2E2E2E2E2E2E2E2E2E2E2E2E2E2E2E2E2E2E2E2E2E2E2E2E2E2E2E2E2E2E2E2E2E2E2E2E2E2E2F5F5E2E2E2E2E2E2E2E2F5E2E2E2E2E2E2E2DCE2E2E2E2E2E2E2F5E2E2
310
E2E2E2E2E2F5E2E2E2E2F5E2E2E2E2F5E2E2E2E2E2E2E2E2E2E2E2E2E2E2E2E2E2E2F5E2E2E2F5F5F5E2E2E2E2E2E2F5E2E2F5E2E2E2E2E2E2E2E2E2E2E2E2E2E2E2E2E2E2E2E2E2E2E2E2E2E2E2E2E2E2E2E2E2E2E2E2E2E2E2E2E2E2E2E2E2E2E2E2E2E2E2E22DE2E2E2E2E2E2E2E2E2E2E2E2E2E2E2E2E2E2E2E2E2E2E2
310
E2E2E2E2E2E2E2E2E2E2E2E2E2E2E2E2E2E2E2E2E2E2E2E2F5F5E2E2F5E2E2E2E2E2F5E2E2E2E2E2E2E2DCE2E2E2E2E2E2E2F5E2E2E2E2F5E2E2F5E2E2E2E2F5E2E2E2E2F5E2E2E2E2E2E2E2E2E2E2E2E2E2E2E2E2E2E2F5E2E2E2F5E2E2E2E2E2E2E2E2F5F5F5F5E2E2E2E2E2E2E2E2E2E2E2E2E2E2E2E2E2E2E2E2E2E2E2
310
E2E2E2E2E2E2E2E2E2E2E2E2E2E2E2E2E2E2E2E2E2E2E2E2E2E2E2E2E22DE2E2E2E2E2E2E2E2E2E2E2E2E2E2E2E2E2E2E2E2E2E2E2E2E2E2E2E2E2E2E2E2E2E2E2E2E2E2E2E2E2E2E2E2E2E2E2F5F5E2E2F5E2E2E2E2E2F5E2E2E2E2E2E2E2DCE2E2E2E2E2E2E2F5E2E2E2E2F5E2E2F5E2E2E2E2F5E2E2E2E2F5E2E2E2E2E2
310
E2E2E2E2E2E2E2E2E2E2E2E2E2F5E2E2E2F5E2E2E2E2E2E2E2E2E2E2E2E2E2E2E2E2E2E2E2E2E2E2E2E2E2E2E2E2E2E2E2E2E2E2E2E2E2E2E2E2E2E2E2E2E2E2E2E2E2E2E2E2E2E2E2E2E2E2E2E2E2E2E2E22DE2E2E2E2E2E2E2E2E2E2E2E2E2E2E2E2E2E2E2E2E2E2E2E2E2E2E2E2E2E2E2E2E2E2E2E2E2E2E2E2E2E2E2E2
310
E2E2E2F5F5F5F5F5E2E2E2E2E2F5E2E2E2E2E2E2E2DCE2E2E2E2E2E2E2F5E2E2E2E2F5F5F5F5E2E2E2E2F5E2E2E2E2F5E2E2E2E2E2E2E2E2E2E2E2E2E2E2E2E2E2E2F5F5F5F5F5E2E2E2E2E2E2E2E2E2E2E2E2E2E2E2E2E2E2E2E2E2E2E2E2E2E2E2E2E2E2E2E2E2E2E2E2E2E2E2E2E2E2E2E2E2E2E2E2E2E2E2E2E2E2E2E2
310
E2E2E2E2E2E2E2E22DE2E2E2E2E2E2E2E2E2E2E2E2E2E2E2E2E2E2E2E2E2E2E2E2E2E2E2E2E2E2E2E2E2E2E2E2E2E2E2E2E2E2E2E2E2E2E2E2F5E2E2F5E2E2E2E2E2F5E2E2E2E2E2E2E2DCE2E2E2E2E2E2E2F5E2E2E2E2F5E2E2F5E2E2E2E2F5E2E2E2E2F5E2E2E2E2E2E2E2E2E2E2E2E2E2E2E2E2E2E2F5E2E2E2E2E2E2E2
310
E2E2E2E2E2E2E2E2E2E2E2E2E2E2E2E2E2E2E2E2E2E2E2E2E2E2E2E2E2E2E2E2E2E2E2E2E2E2E2E2E2E2E2E2E2E2E2E2E2E2E2E2E2E2E2E2E2E2E2E2E22DE2E2E2E2E2E2E2E2E2E2E2E2E2E2E2E2E2E2E2E2E2E2E2E2E2E2E2E2E2E2E2E2E2E2E2E2E2E2E2E2E2E2E2E2E2E2E2E2F5F5F5F5E2E2E2E2E2F5E2E2E2E2E2E2E2
310
DCE2E2E2E2E2E2E2F5E2E2E2E2F5F5F5F5E2E2E2E2F5E2E2E2E2F5E2E2E2E2E2E2E2E2E2E2E2E2E2E2E2E2E2E2F5E2E2E2E2E2E2E2E2E2E2E2E2E2E2E2E2E2E2E2E2E2E2E2E2E2E2E2E2E2E2E2E2E2E2E2E2E2E2E2E2E2E2E2E2E2E2E2E2E2E2E2E2E2E2E2E2E2E2E2E2E2E2E2E2E2E2E2E22DE2E2E2E2E2E2E2E2E2E2E2E2
310
E2E2E2E2E2E2E2E2E2E2E2E2E2E2E2E2E2E2E2E2E2E2E2E2E2E2E2E2E2E2E2E2E2E2E2E2F5E2E2F5E2E2E2E2E2F5E2E2E2E2E2E2E2DCE2E2E2E2E2E2E2F5E2E2E2E2F5E2E2F5E2E2E2E2F5E2E2E2E2F5E2E2E2E2E2E2E2E2E2E2E2E2E2E2E2E2E2E2F5E2E2E2E2E2E2E2E2E2E2E2E2E2E2E2E2E2E2E2E2E2E2E2E2E2E2E2E2
310
E2E2E2E2E2E2E2E2E2E2E2E2E2E2E2E2E2E2E2E2E2E2E2E2E2E2E2E2E2E2E2E2E2E2E2E2E2E2E2E22DE2E2E2E2E2E2E2E2E2E2E2E2E2E2E2E2E2E2E2E2E2E2E2E2E2E2E2E2E2E2E2E2E2E2E2E2E2E2E2E2E2E2E2E2E2E2E2E2F5E2E2F5E2E2E2E2E2F5F5F5F5F5F5F5F5F5F5F5F5F5F5F5F5F5E2E2E2E2F5E2E2F5E2E2E2E2
310
F5E2E2E2E2F5E2E2E2E2E2E2E2E2E2E2E2E2E2E2E2E2E2E2F5E2E2E2E2E2E2E2E2E2E2E2E2E2E2E2E2E2E2E2E2E2E2E2E2E2E2E2E2E2E2E2E2E2E2E2E2E2E2E2E2E2E2E2E2E2E2E2E2E2E2E2E2E2E2E2E2E2E2E2E2E2E2E2E2E2E2E2E22DE2E2E2E2E2E2E2E2E2E2E2E2E2E2E2E2E2E2E2E2E2E2E2E2E2E2E2E2E2E2E2E2E2
310
E2E2E2E2E2E2E2E2E2E2E2E2E2E2E2F5F5F5F5E2E2E2E2BEF5BEBEBEBEBEBEBEBEBEBEBEBEBEBEBEF5BEE2E2E2F5F5F5F5E2E2E2E2F5E2E2E2E2F5E2E2E2E2E2E2E2E2E2E2E2E2E2E2E2E2E2E2F5E2E2E2E2E2E2E2E2E2E2E2E2E2E2E2E2E2E2E2E2E2E2E2E2E2E2E2E2E2E2E2E2E2E2E2E2E2E2E2E2E2E2E2E2E2E2E2E2E2
310
E2E2E2E2E2E2E2E2E2E2E2E2E2E2E2E2E2E2E22DE2E2E2E2E2E2E2E2E2E2E2E2E2E2E2E2E2E2E2E2E2E2E2E2E2E2E2E2E2E2E2E2E2E2E2E2E2E2E2E2E2E2E2E2E2E2E2E2F5E2E2F5E2E2E2E2E2F5F5F5F5F5F5F5F5F5F5F5F5F5F5F5F5F5E2E2E2E2F5E2E2F5F5F5F5F5F5F5F5F5F5F5F5F5F5F5F5F5F5F5F5F5F5F5F5F5F5
310
F5F5F5F5E2E2E2E2E2E2E2E2E2E2E2E2E2E2E2E2E2E2E2E2E2E2E2E2E2E2E2E2E2E2E2E2E2E2E2E2E2E2E2E2E2E2E2E2E2E2E2E2E2E2E2E2E2E2E2E2E2E2E2E2E2E2E2E2E2E2E2E22DE2E2E2E2E2E2E2E2E2E2E2E2E2E2E2E2E2E2E2E2E2E2E2E2E2E2E2E2E2E2E2E2E2E2E2E2E2E2E2E2E2E2E2E2E2E2E2E2F5F5F5F5E2E2
310
E2E2E2F5F5F5F5F5F5F5F5F5F5F5F5F5F5F5F5F5E2E2E2E2F5F5F5F5E2E2E2E2F5E2E2E2E2F5E2E2E2E2E2E2E2E2E2E2E2E2E2E2E2E2E2E2F5E2E2E2E2E2E2E2E2E2E2E2E2E2E2E2E2E2E2E2E2E2E2E2E2E2E2E2E2E2E2E2E2E2E2E2E2E2E2E2E2E2E2E2E2E2E2E2E2E2E2E2E2E2E2E2E2E2E2E2E2E2E2E2E2E2E2E2E22DE2
310
E2E2E2E2E2E2E2E2E2E2E2E2E2E2E2E2E2E2E2E2E2E2E2E2E2E2E2E2E2E2E2E2E2E2E2E2E2E2E2E2E2E2E2E2E2E2E2F5F5F5F5F5F5F5F5F5F5E2E2E2E2E2E2E2DCE2E2E2E2E2E2E2F5F5F5F5F5F5F5F5F5F5F5F5F5F5E2E2E2E2F5F5F5F5F5F5F5F5F5F5F5F5F5F5F5F5F5F5F5F5E2E2E2E2E2E2E2E2E2E2E2E2E2E2E2E2E2
310
E2E2E2E2E2E2E2E2E2E2E2E2E2E2E2E2E2E2E2E2E2E2E2E2E2E2E2E2E2E2E2E2E2E2E2E2E2E2E2E2E2E2E2E2E2E2E2E2E2E2E22DE2E2E2E2E2E2E2E2E2E2E2E2E2E2E2E2E2E2E2E2E2E2E2E2E2E2E2E2E2E2E2E2E2E2E2E2E2E2E2E2E2E2E2E2E2E2E2E2E2E2E2E2E2E2E2E2E2E2E2E2E2E2E2E2E2DCE2E2E2E2E2E2E2E2E2
310
E2E2E2E2E2E2E2E2E2E2E2E2E2E2E2E2E2E2E2E2E2E2E2E2E2E2E2E2E2E2E2E2E2E2E2E2E2E2E2E2E2E2E2E2E2E2E2E2E2E2E2E2E2E2E2E2E2E2E2E2E2E2E2E2E2E2E2E2E2E2E2E2E2E2E2E2E2E2E2E2E2E2E2E2E2E2E2E2E2E2E2E2E2E2E2E2E2E2E2E2E2E2E2E22DE2E2E2E2E2E2E2E2E2E2E2E2E2E2E2E2E2E2E2E2E2E2
310
E2E2E2E2E2E2E2E2E2E2E2E2E2E2E2E2E2E2E2E2E2E2E2E2E2E2E2E2E2E2E2E2E2E2E2E2E2E2E2E2E2E2E2DCE2DCE2E2E2E2E2E2E2E2E2E2E2E2E2E2E2E2E2E2E2E2E2E2E2E2E2E2E2E2E2E2E2E2E2E2E2E2E2E2E2E2E2E2E2E2E2E2E2E2E2E2E2E2E2E2E2E2E2E2E2E2E2E2E2E2E2E2E2E2E2E2E2E2E2E2E2E2E2E2E2E2E2
310
E2E2E2E2E2E2E2E2E2E2E2E2E2E2E2E2E2E2E2E2E2E2E2E2E2E2E2E2E2E22DE2E2E2E2E2E2E2E2E2E2E2E2E2E2E2E2E2E2E2E2E2E2E2E2E2E2E2E2E2E2E2E2E2E2E2E2E2E2E2E2E2E2E2E2E2E2E2E2E2E2E2E2E2E2E2E2E2E2E2E2E2E2E2E2E2DCDCDCDCDCDCE2E2E2E2E2E2E2E2E2E2E2E2E2E2E2E2E2E2E2E2E2E2E2E2E2
310
E2E2E2E2E2E2E2E2E2E2E2E2E2E2E2E2E2E2E2E2E2E2E2E2E2E2E2E2E2E2E2E2E2E2E2E2E2E2E2E2E2E2E2E2E2E2E2E2E2E2E2E2E2E2E2E2E2E2E2E2E2E2E2E2E2E2E2E2E2E2E2E2E2E2E2E2E2E2E2E2E2E2E22DE2E2E2E2E2E2E2E2E2E2E2E2E2E2E2E2E2E2E2E2E2E2E2E2E2E2E2E2E2E2E2E2E2E2E2E2E2E2E2E2E2E2E2
310
E2E2E2E2E2E2E2E2E2E2E2E2E2E2E2E2E2E2E2E2E2E22DE2E2DCE2E2E2E2E2E2E2E2E2E2E2E2E2E2E2E2E2E2E2E2E2E2E2E2E2E2E2E2E2E2E2E2E2E2E2E2E2E2E2E2E2E2E2E2E2E2E2E2E2E2E2E2E2E2E2E2E2E2E2E2E2E2E2E2E2E2E2E2E2E2E2E2E2E2E2E2E2E2E2E2E2E2E2E2E2E2E2E2E2E2E2E2E2E2E2E2E2E2E2E2E2
310
E2E2E2E2E2E2E2E2E22DE2E2E2E2E2E2E2E2E2E2E2E2E2E2E2E2E2E2E2E2E2E2E2E2E2E2E2E2E2E2E2E2E2E2E2E2E2E2E2E2E2E2E2E2E2E2E2E2E2E2E2E2E2E2E2E2E2E2E2E2E2E2E2E2E22DE2E2E2E2E2E2E2E2E2E2E2E2E2E2E2E2E2E2E2E2E2E2E2E2E2E2E2E2E2E2E2E2E2E2E2E2E2E2E2E2E2E2E2E2E2E2E2E2E2E2E2
310
E2E2E2E2E2E2E2E2E2E2E2E2E2E2E2E2E2E2E2E2E2E2E2E2E2E2E2E2E2E2E2E2E2E2E2E2E2E2E2E2E2E2E2E2E2E2E2E2E2E2E2E2E2E2E2E2E2E2E2E2E2E22DE2E2E2E2E2E2E2E2E2E2E2E2E2E2E2E2E2E2E2E2E2E2E2E2E2E2E2E2E2E2E2E2E2E2E2E2E2E2E2E2E2E2E2E2E2E2E2E2E2E2E2E2E2E2E2E2E2E2E2E2E2E2E2E2
310
E22DE2E2E2E2E2E2E2E2E2E2E2E2E2E2E2E2E2E2E2E2E2E2E2E2E2E2E2E2E2E2E2E2E2E2E2E2E2E2E2E2E2E2E2E2E2E2E2E2E2E2E2E2E2E2E2E2E2E2E2E2E2E2E2E2E2E2E2E2E2E2E2E2E2E2E2E2E2E2E2E2E2E2E2E2E2E2E2E2E2E2E2E2E2E2E2E2E2E2E2E2E2E2E2E2E2E2E2E2E2E2E2E2E22DE2E2E2E2E2E2E2E2E2E2E2
310
E2E2E2E2E2E2E2E2E2E2E2E2E2E2E2E2E2E2E2E2E2E2E2E2E2E2E2E2E2E2E2E2E2E2E2E2E2E2E2E2E2E2E2E2E2E2E2E2E2E2E2E2E2E22DE2E2E2E2E2E2E2E2E2E2E2E2E2E2E2E2E2E2E2E2E2E2E2E2E2E2E2E2E2E2E2E2E2E2E2E2E2E2E2E2E2E2E2E2E2E2E2E2E2E2E2E2E2E2E2E2E2E2E2E2E2E2E2E2E2E2E2E2E2E2E2E2
310
E2E2E2E2E2E2E2E2E2E2E2E2E2E2E2E2E2E2E2E2E2E2E2E2E2E2E2E2E2E2E2E2E2E2E2E2E2E2E2E2E22DE2E2E2E2E2E2E2E2E2E2E2E2E2E2E2E2E2E2E2E2E2E2E2E2E2E2E2E2E2E2E2E2E2E2E2E2E2E2E2E2E2E2E2E2E2E2E2E2E2E2E2E2E2E2E2E2E2E2E2E2E2E2E2E2E22DE2E2E2E2E2E2E2E2E2E2E2E2E2E2E2E2E2E2E2
310
E2E2E2E2E2E2E2E2E2E2E2E2E2E2E2E2E2E2E2E2E2E2E2E2E2E2E2E2E2E2E2E2E2E2E2E2E2E2E2E2E2E2E2E2E2E2E2E2E2E2E2E2E2E2E2E2E2E2E2E2E2E2E2E2E2E2E2E2E2E2E2E2E2E2E2E2E2E2E2E2E2E2E2E2E2E2E2E2E2E2E2E2E2E22DE2E2E2E2E2E2E2E2E2E2E2E2E2E2E2E2E2E2E2E2E2E2E2E2E2E2E2E2E2E2E2E2
310
E2E2E2E2E2E2E2E2E2E2E2E2E2E2E2E2E2E2E2E2E2E2E2E2E2E2E2E2E2E2E2E2E22DE22D2D2D2DE2E2E2E2E2E2E2E2E2E2E2E2E2E2E2E2E2E2E2E2E2E2E2E2E2E2E2E2E2E2E2E2E2E2E2E2E2E2E2E2E2E2E2E2E2E2E2E2E2E2E2E2E2E2E2E2E2E2E2E2E2E2E2E2E2E2E2E2E2E2E2E2E2E2E2E2E2E2E2E2E2E2E2E2E2E2E2E2
310
E2E2E2E2E2E2E2E2E2E2E2E2E2E2E2E2E2E2E2E22DE2E2E2E2E2E2E2E2E2E2E2E2E2E2E2E2E2E2E2E2E2E2E2E2E2E2E2E2E2E2E2E2E2E2E2E2E2E2E2E2E2E2E2E2E2E2E2E2E2E2E2E2E2E2E2E2E2E2E2E2E2E2E2E2E2E2E22DE22DE2E2E2E2E2E2E2E2E2E2E2E2E2E2E2E2E2E2E2E2E2E2E2E2E2E2E2E2E2E2E2E2E2E2E2E2
310
E2E2E2E2E2E2E2E2E2E2E2E2E2E2E2E2E2E2E2E2E2E2E2E2E2E2E2E2E2E2E2E2E2E2E2E2E2E2E2E2E2E2E2E2E2E2E2E2E2E2E2E2E2E2E2E2E2E2E2E2E2E2E2E2E2E2E2E2E2E2E2E2E22DE2E2E2E2E2E2E2E2E2E2E2E2E2E2E2E2E2E2E2E2E2E2E2E2E2E2E2E2E2E2E2E2E2E2E2E2E2E2E2E2E2E2E2E2E2E2E2E2E2E2E2E2E2
310
E2E2E2E2E2E2E2E2E2E2E2E2E2E2E2E2E2E2E2E2E2E2E2E2E2E2E2E2E2E2E2E2E2E2E2E2E2E2E2E2E2E2E2E2E2E2E2E2E2E2E2E2E2E2E2E2E2E2E2E2E2E2E2E2E2E2E2E2E2E2E2E2E2E2E2E2E2E2E2E2E2E2E2E2E2E2E2E2E2E2E2E2E2E2E2E2E2E2E2E2E2E2E2E2E2E2E2E2E2E2E2E2E2E2E2E2E2E2E2E2E2E2E2E2E2E22D
310
E2E2E2E2E2E2E2E2E2E2E2E2E2E2E2E2E2E2E2E2E2E2E2E2E2E2E2E2E2E2E2E2E2E2E2E2E2E2E2E2E2E2E2E2E2E2E2E2E2E2E2E2E2E2E2E2E2E2E2E2E2E2E2E2E2E2E2E2E2E2E2E2E2E2E2E2E2E2E2E2E2E2E2E2E2E2E2E2E2E2E2E2E2E2E2E2E2E2E2E2E2E2E2E2E2E2E2E2E2E2E2E2E2E2E2E2E2E2E2E2E2E2E2E2E2E2E2
310
E2E2E2E2E2E2E2E2E2E2E2E2E2E2E2E2E2E2E2E2E2E2E2E2E2E2E2E2E2E2E2E2E2E2E2E2E2E2E2E2E2E2E2E2E2E2E2E2E2E2E2E22DE2E2E2E2E2E2E2E2E2E2E2E2E2E2E2E2E2E2E2E2E2E2E2E2E2E2E2E2E2E2E2E2E2E2E2E2E2E2E2E2E2E2E2E2E2E2E2E2E2E2E2E2E2E2E2E2E2E2E2E2E2E2E2E2E2E2E2E2E2E2E2E2E2E2
310
E2E2E2E2E2E2E2E2E2E2E2E2E2E2E2E2E2E2E2E2E2E2E2E2E2E2E2E2E2E2E2E2E2E2E2E2E2E2E2E2E2E2E2E2E2E2E2E2E2E2E2E2E2E2E2E2E2E2E2E2E2E2E2E2E2E2E2E2E2E2E2E2E2E2E2E2E2E2E2E2E2E2E2E2E2E2E2E2E2E2E2E2E2E2E2E2E2E2E2E2E2E2E2E2E22DE2E2E2E2E2E2E2E2E2E2E2E2E2E2E2E2E2E2E2E2E2
310
E2E2E2E2E2E2E2E2E2E2E2E2E2E2E2E2E2E2E2E2E2E2E2E2E2E2E2E2E2E2E2E2E2E2E2E2E2E2E2E2E2E2E2E2E2E2E2E2E2E2E2E2E2E2E2E2E2E2E2E2E2E2E2E2E2E2E2E2E2E2E2E2E2E2E2E2E2E2E2E2E2E2E2E2E2E2E2E2E2E2E2E2E2E2E2E2E2E2E2E2E2E2E2E2E2E2E2E2E2E2E2E2E2E2E2E2E2E2E2E2E2E2E2E2E2E2E2
310
E2E2E2E2E2E2E2E2E2E2E2E2E2E2E2E2E2E2E2E2E2E2E2E2E2E2E2E2E2E2E22DE2E2E2E2E22D2D2D2D2D2D2D2D2D2D2D2D2D2D2D2D2D2D2D2D2D2D2D2D2D2D2D2D2D2D2D2D2D2D2D2D2D2D2D2D2D2D2D2D2D2D2D2D2D2D2D2D2D2D2D2D2D2D2D2D2D2D2D2D2D2D2D2D2D2D2D2D2D2D2D2D2D2D2D2D2D2D2D2D2D2D2D2D2D2D
310
2D2D2D2D2D2D2D2D2D2D2D2D2D2D2D2D2D2D2D2D2D2D2D2D2D2D2D2D2D2D2D2D2D2D2D2D2D2D2D2D2D2D2D2D2D2D2D2D2D2D2D2D2D2D2D2D2D2D2D2D2D2D2D2D2D2D2D2D2D2D2D2D2D2D2D2D2D2D2D2D2D2D2D2D2DE2E2E2E2E2E2E2E2E2E2E2E2E2E2E2E2E2E2E2E2E2E2E2E2E2E2E2E2E2E2E2E2E2E2E2E2E2E2E2E2E2E2
310
E2E2E2E2E2E2E2E2E2E2E2E2E2E2E2E2E2E2E2E2E2E2E2E2E2E2E2E2E2E2E2E2E2E2E2E2E2E2E2E2E2E2E2E2E2E2E2E2E2E2E2E2E2E2E2E2E2E2E2E2E2E2E2E2E2E2E2E2E2E2E2E2E2E2E2E2E2E2E2E2E2E2E2E2E2E2E2E2E2E2E2E2E2E2E2E2E2E2E2E2E2E2E2E2E2E2E2E2E2E2E2E2E2E2E2E2E2E2E2E2E2E2E2E2E2E2E2
310
E2E2E2E2E2E2E2E2E2E2E2E2E2E2E2E2E2E2E2E2E2E2E2E2E2E2E2E2E2E2E2E2E2E2E2E2E2E2E2E2E2E2E2E2E2E2E2E2E2E2E2E2E2E2E2E2E2E2E2E2E2E2E2E2E2E2E2E2E2E2E2E2E2E2E2E2E2E2E2E2E2E2E2E2E2E2E2E2E2E2E2E2E2E2E2E2E2E2E2E2E2E2E2E2E2E2E2E2E2E2E2E2E2E2E2E2E2E2E2E2E2E2E2E2E2E2E2
310
E2E2E2E2E2E2E2E2E2E2E2E2E2E2E2E2E2E2E2E2E2E2E2E2E2E2E2E2E2E2E2E2E2E2E2E2E2E2E2E2E2E2E2E2E2E2E2E2E2E2E2E2E2E2E2E2E2E2E2E2E2E2E2E2E2E2E2E2E2E2E2E2E2E2E2E2E2E2E2E2E2E2E2E2E2E2E2E2E2E2E2E2E2E2E2E2E2E2E2E2E2E2E2E2E2E2E2E2E2E2E2E2E2E2E2E2E2E2E2E2E2E2E2E2E2E2E2
310
E2E2E2E2E2E2E2E2E2E2E2E2E2E2E2E2E2E2E2E2E2E2E2E2E2E2E2E2E2E2E2E2E2E2E2E2E2E2E2E2E2E2E2E2E2E2E2E2E2E2E2E2E2E2E2E2E2E2E2E2E2E2E2E2E2E2E2E2E2E2E2E2E2E2E2E2E2E2E2E2E2E2E2E2E2E2E2E2E2E2E2E2E2E2E2E2E2E2E2E2E2E2E2E2E2E2E2E2E2E2E2E2E2E2E2E2E2E2E2E2E2E2E2E2E2E2E2
310
E2E2E2E2E2E2E2E2E2E2E2E2E2E2E2E2E2E2E2E2E2E2E2E2E2E2E2E2E2E2E2E2E2E2E2E2E2E2E2E2E2E2E2E2E2E2E2E2E2E2E2E2E2E2E2E2E2E2E2E2E2E2E2E2E2E2E2E2E2E2E2E2E2E2E2E2E2E2E2E2E2E2E2E2E2E2E2E2E2E2E2E2E2E2E2E2E2E2E2E2E2E2E2E2E2E2E2E2E2E2E2E2E2E2E2E2E2E2E2E2E2E2E2E2E2E2E2
310
E2E2E2E2E2E2E2E2E2E2E2E2E2E2E2E2E2E2E2E2E2E2E2E2E2E2E2E2E2E2E2E2E2E2E2E2E2E2E2E2E2E2E2E2E2E2E2E2
  0
ENDSEC
  0
EOF
