  0
SECTION
  2
HEADER
  9
$ACADVER
  1
AC1015
  9
$ACADMAINTVER
 70
    20
  9
$DWGCODEPAGE
  3
ANSI_950
  9
$INSBASE
 10
0.0
 20
0.0
 30
0.0
  9
$EXTMIN
 10
55.87097272261861
 20
-51.55412969309736
 30
-186.7901186666265
  9
$EXTMAX
 10
375.8889779773181
 20
316.2928994489681
 30
22.95060932677302
  9
$LIMMIN
 10
0.0
 20
0.0
  9
$LIMMAX
 10
420.0
 20
297.0
  9
$ORTHOMODE
 70
     1
  9
$REGENMODE
 70
     1
  9
$FILLMODE
 70
     1
  9
$QTEXTMODE
 70
     0
  9
$MIRRTEXT
 70
     1
  9
$LTSCALE
 40
6.0
  9
$ATTMODE
 70
     1
  9
$TEXTSIZE
 40
2.5
  9
$TRACEWID
 40
1.0
  9
$TEXTSTYLE
  7
DAYUS
  9
$CLAYER
  8
0
  9
$CELTYPE
  6
ByLayer
  9
$CECOLOR
 62
   256
  9
$CELTSCALE
 40
1.0
  9
$DISPSILH
 70
     0
  9
$DIMSCALE
 40
0.8
  9
$DIMASZ
 40
3.0
  9
$DIMEXO
 40
0.8
  9
$DIMDLI
 40
2.0
  9
$DIMRND
 40
0.0
  9
$DIMDLE
 40
0.0
  9
$DIMEXE
 40
1.199999999999999
  9
$DIMTP
 40
0.0
  9
$DIMTM
 40
0.0
  9
$DIMTXT
 40
3.0
  9
$DIMCEN
 40
3.0
  9
$DIMTSZ
 40
0.0
  9
$DIMTOL
 70
     0
  9
$DIMLIM
 70
     0
  9
$DIMTIH
 70
     0
  9
$DIMTOH
 70
     0
  9
$DIMSE1
 70
     0
  9
$DIMSE2
 70
     0
  9
$DIMTAD
 70
     1
  9
$DIMZIN
 70
     8
  9
$DIMBLK
  1

  9
$DIMASO
 70
     1
  9
$DIMSHO
 70
     1
  9
$DIMPOST
  1

  9
$DIMAPOST
  1

  9
$DIMALT
 70
     0
  9
$DIMALTD
 70
     4
  9
$DIMALTF
 40
0.0394
  9
$DIMLFAC
 40
1.0
  9
$DIMTOFL
 70
     1
  9
$DIMTVP
 40
0.0
  9
$DIMTIX
 70
     0
  9
$DIMSOXD
 70
     0
  9
$DIMSAH
 70
     0
  9
$DIMBLK1
  1

  9
$DIMBLK2
  1

  9
$DIMSTYLE
  2
STANDARD
  9
$DIMCLRD
 70
   256
  9
$DIMCLRE
 70
   256
  9
$DIMCLRT
 70
   256
  9
$DIMTFAC
 40
0.6
  9
$DIMGAP
 40
0.8
  9
$DIMJUST
 70
     0
  9
$DIMSD1
 70
     0
  9
$DIMSD2
 70
     0
  9
$DIMTOLJ
 70
     1
  9
$DIMTZIN
 70
     8
  9
$DIMALTZ
 70
     8
  9
$DIMALTTZ
 70
     8
  9
$DIMUPT
 70
     0
  9
$DIMDEC
 70
     2
  9
$DIMTDEC
 70
     8
  9
$DIMALTU
 70
     2
  9
$DIMALTTD
 70
     4
  9
$DIMTXSTY
  7
STANDARD
  9
$DIMAUNIT
 70
     0
  9
$DIMADEC
 70
     0
  9
$DIMALTRND
 40
0.0
  9
$DIMAZIN
 70
     0
  9
$DIMDSEP
 70
    46
  9
$DIMATFIT
 70
     3
  9
$DIMFRAC
 70
     0
  9
$DIMLDRBLK
  1

  9
$DIMLUNIT
 70
     2
  9
$DIMLWD
 70
    -1
  9
$DIMLWE
 70
    -1
  9
$DIMTMOVE
 70
     2
  9
$LUNITS
 70
     2
  9
$LUPREC
 70
     4
  9
$SKETCHINC
 40
1.0
  9
$FILLETRAD
 40
10.0
  9
$AUNITS
 70
     0
  9
$AUPREC
 70
     0
  9
$MENU
  1
.
  9
$ELEVATION
 40
-186.7581714702363
  9
$PELEVATION
 40
0.0
  9
$THICKNESS
 40
0.0
  9
$LIMCHECK
 70
     0
  9
$CHAMFERA
 40
10.0
  9
$CHAMFERB
 40
10.0
  9
$CHAMFERC
 40
0.0
  9
$CHAMFERD
 40
0.0
  9
$SKPOLY
 70
     0
  9
$TDCREATE
 40
2451080.763768461
  9
$TDUCREATE
 40
2451080.430435127
  9
$TDUPDATE
 40
2454231.548892500
  9
$TDUUPDATE
 40
2454231.215559167
  9
$TDINDWG
 40
0.1952090972
  9
$TDUSRTIMER
 40
0.1952090972
  9
$USRTIMER
 70
     1
  9
$ANGBASE
 50
0.0
  9
$ANGDIR
 70
     0
  9
$PDMODE
 70
     0
  9
$PDSIZE
 40
0.0
  9
$PLINEWID
 40
0.0
  9
$SPLFRAME
 70
     0
  9
$SPLINETYPE
 70
     6
  9
$SPLINESEGS
 70
     8
  9
$HANDSEED
  5
AB7
  9
$SURFTAB1
 70
     6
  9
$SURFTAB2
 70
     6
  9
$SURFTYPE
 70
     6
  9
$SURFU
 70
     6
  9
$SURFV
 70
     6
  9
$UCSBASE
  2

  9
$UCSNAME
  2

  9
$UCSORG
 10
0.0
 20
0.0
 30
0.0
  9
$UCSXDIR
 10
1.0
 20
0.0
 30
0.0
  9
$UCSYDIR
 10
0.0
 20
1.0
 30
0.0
  9
$UCSORTHOREF
  2

  9
$UCSORTHOVIEW
 70
     0
  9
$UCSORGTOP
 10
0.0
 20
0.0
 30
0.0
  9
$UCSORGBOTTOM
 10
0.0
 20
0.0
 30
0.0
  9
$UCSORGLEFT
 10
0.0
 20
0.0
 30
0.0
  9
$UCSORGRIGHT
 10
0.0
 20
0.0
 30
0.0
  9
$UCSORGFRONT
 10
0.0
 20
0.0
 30
0.0
  9
$UCSORGBACK
 10
0.0
 20
0.0
 30
0.0
  9
$PUCSBASE
  2

  9
$PUCSNAME
  2

  9
$PUCSORG
 10
0.0
 20
0.0
 30
0.0
  9
$PUCSXDIR
 10
1.0
 20
0.0
 30
0.0
  9
$PUCSYDIR
 10
0.0
 20
1.0
 30
0.0
  9
$PUCSORTHOREF
  2

  9
$PUCSORTHOVIEW
 70
     0
  9
$PUCSORGTOP
 10
0.0
 20
0.0
 30
0.0
  9
$PUCSORGBOTTOM
 10
0.0
 20
0.0
 30
0.0
  9
$PUCSORGLEFT
 10
0.0
 20
0.0
 30
0.0
  9
$PUCSORGRIGHT
 10
0.0
 20
0.0
 30
0.0
  9
$PUCSORGFRONT
 10
0.0
 20
0.0
 30
0.0
  9
$PUCSORGBACK
 10
0.0
 20
0.0
 30
0.0
  9
$USERI1
 70
     0
  9
$USERI2
 70
     0
  9
$USERI3
 70
     0
  9
$USERI4
 70
     0
  9
$USERI5
 70
     0
  9
$USERR1
 40
0.0
  9
$USERR2
 40
0.0
  9
$USERR3
 40
0.0
  9
$USERR4
 40
0.0
  9
$USERR5
 40
0.0
  9
$WORLDVIEW
 70
     1
  9
$SHADEDGE
 70
     3
  9
$SHADEDIF
 70
    70
  9
$TILEMODE
 70
     1
  9
$MAXACTVP
 70
    48
  9
$PINSBASE
 10
0.0
 20
0.0
 30
0.0
  9
$PLIMCHECK
 70
     0
  9
$PEXTMIN
 10
-45.84836713884698
 20
-50.15486206985361
 30
0.0
  9
$PEXTMAX
 10
466.8860356860839
 20
322.3255469458355
 30
196.6150577887138
  9
$PLIMMIN
 10
0.0
 20
0.0
  9
$PLIMMAX
 10
420.0
 20
297.0
  9
$UNITMODE
 70
     0
  9
$VISRETAIN
 70
     1
  9
$PLINEGEN
 70
     0
  9
$PSLTSCALE
 70
     1
  9
$TREEDEPTH
 70
  3020
  9
$CMLSTYLE
  2
Standard
  9
$CMLJUST
 70
     0
  9
$CMLSCALE
 40
1.0
  9
$PROXYGRAPHICS
 70
     1
  9
$MEASUREMENT
 70
     0
  9
$CELWEIGHT
370
    -1
  9
$ENDCAPS
280
     0
  9
$JOINSTYLE
280
     0
  9
$LWDISPLAY
290
     0
  9
$INSUNITS
 70
     0
  9
$HYPERLINKBASE
  1

  9
$STYLESHEET
  1
彩色出圖.ctb
  9
$XEDIT
290
     1
  9
$CEPSNTYPE
380
     0
  9
$PSTYLEMODE
290
     1
  9
$FINGERPRINTGUID
  2
{13F7594F-D2FD-11D4-9D5D-0050BAE3FAE1}
  9
$VERSIONGUID
  2
{CB4E9128-C91B-454B-9FBF-8D6ACFF20FE4}
  9
$EXTNAMES
290
     1
  9
$PSVPSCALE
 40
0.0
  9
$OLESTARTUP
290
     0
  0
ENDSEC
  0
SECTION
  2
CLASSES
  0
CLASS
  1
ACDBDICTIONARYWDFLT
  2
AcDbDictionaryWithDefault
  3
ObjectDBX Classes
 90
        0
280
     0
281
     0
  0
CLASS
  1
ACDBPLACEHOLDER
  2
AcDbPlaceHolder
  3
ObjectDBX Classes
 90
        0
280
     0
281
     0
  0
CLASS
  1
LAYOUT
  2
AcDbLayout
  3
ObjectDBX Classes
 90
        0
280
     0
281
     0
  0
CLASS
  1
TABLESTYLE
  2
AcDbTableStyle
  3
ObjectDBX Classes
 90
     2047
280
     0
281
     0
  0
CLASS
  1
ACME_DOCUMENT
  2
AcMeDbDoc
  3
AcMeServices
 90
        0
280
     0
281
     0
  0
CLASS
  1
AMGSETTINGSOBJ
  2
AmgSettingsObj
  3
"AcadM|Product Description: AutoCAD Mechanical 2000|Company: Autodesk"
 90
        0
280
     0
281
     0
  0
CLASS
  1
ACMESCOPE
  2
AcMeScope
  3
AcMeServices
 90
        0
280
     0
281
     0
  0
CLASS
  1
ACMECOMMANDHISTORY
  2
AcMeCommandHistory
  3
AcMeServices
 90
        0
280
     0
281
     0
  0
CLASS
  1
ACIMSYSVARMAN
  2
AcImSysVarManager
  3
AcMeServices
 90
        0
280
     0
281
     0
  0
CLASS
  1
ACIMINTSYSVAR
  2
AcImIntSysVar
  3
AcMeServices
 90
        0
280
     0
281
     0
  0
CLASS
  1
ACMEDRAWINGMAN
  2
AcMeDrawingMan
  3
AcMeServices
 90
        0
280
     0
281
     0
  0
CLASS
  1
ACMEVIEW
  2
AcMeView
  3
AcMeServices
 90
        0
280
     0
281
     0
  0
CLASS
  1
ACDBENTITYCACHE
  2
AcMeEntityCache
  3
AcMeServices
 90
        0
280
     0
281
     0
  0
CLASS
  1
GSMANAGER
  2
AcMeGSManager
  3
AcMeServices
 90
        0
280
     0
281
     0
  0
CLASS
  1
AMDTINTERNALREACTOR
  2
AmdtInternalReactor
  3
AcMeServices
 90
        0
280
     0
281
     0
  0
CLASS
  1
ACMESTATEMGR
  2
AcMeStateMgr
  3
AcMeServices
 90
        0
280
     0
281
     0
  0
CLASS
  1
ACGREFMASTER
  2
AcGrefMaster
  3
AcAttribServices
 90
        0
280
     0
281
     0
  0
CLASS
  1
AM_DRAWING_MGR
  2
AcDmDwgMgr
  3
AcMechDwgViewMgmt
 90
        0
280
     0
281
     0
  0
CLASS
  1
AM_DWG_DOCUMENT
  2
AcDmDwgDocument
  3
AcMechDwgViewMgmt
 90
        0
280
     0
281
     0
  0
CLASS
  1
AM_DWG_SHEET
  2
AcDmSheet
  3
AcMechDwgViewMgmt
 90
        0
280
     0
281
     0
  0
CLASS
  1
AM_VIEWDIMPARMAP
  2
AcDmViewDimParMap
  3
AcMechDwgViewMgmt
 90
        0
280
     0
281
     0
  0
CLASS
  1
ACIMREALSYSVAR
  2
AcImRealSysVar
  3
AcMeServices
 90
        0
280
     0
281
     0
  0
CLASS
  1
AM_DWGMGR_NAME
  2
AcDmDwgMgrName
  3
AcMechDwgViewMgmt
 90
        0
280
     0
281
     0
  0
CLASS
  1
ACME_DATABASE
  2
AcMeDbDatabase
  3
AcMeServices
 90
        0
280
     0
281
     0
  0
CLASS
  1
ACRFINSADJUSTERMGR
  2
AcRfInsAdjusterMgr
  3
AcMeServices
 90
        0
280
     0
281
     0
  0
CLASS
  1
ACGREFACADMASTER
  2
AcGrefacadMaster
  3
AcGrefServices
 90
        0
280
     0
281
     0
  0
CLASS
  1
AMDTMENUSTATEMGR
  2
AmdtMenuStateMgr
  3
McadcomServices
 90
        0
280
     0
281
     0
  0
CLASS
  1
AMDTMCOMMENUSTATE
  2
AmdtMcomMenuState
  3
McadcomServices
 90
        0
280
     0
281
     0
  0
CLASS
  1
AMIMASTER
  2
AmiMaster
  3
AmiServices
 90
        0
280
     0
281
     0
  0
CLASS
  1
MAPIAMMOUDLE
  2
MApiAmModule
  3
MApiAmServices
 90
        0
280
     0
281
     0
  0
CLASS
  1
AMDTADMENUSTATE
  2
AmdtAdMenuState
  3
DesignerServices
 90
        0
280
     0
281
     0
  0
CLASS
  1
ADAPPL
  2
AcAdAppl
  3
DesignerServices
 90
        0
280
     0
281
     0
  0
CLASS
  1
DEPMGR
  2
AcAdDepMgr
  3
DesignerServices
 90
        0
280
     0
281
     0
  0
CLASS
  1
PARAMMGR
  2
AcAdParamMgr
  3
DesignerServices
 90
        0
280
     0
281
     0
  0
CLASS
  1
PARAMSCOPE
  2
AcAdParamScope
  3
DesignerServices
 90
        0
280
     0
281
     0
  0
CLASS
  1
NAMEDAPPL
  2
AcAdNamedAppl
  3
DesignerServices
 90
        0
280
     0
281
     0
  0
CLASS
  1
AMDTDMMENUSTATE
  2
AmdtDmMenuState
  3
AcMechDwgViewMgmt
 90
        0
280
     0
281
     0
  0
CLASS
  1
AMDTAMMENUSTATE
  2
AmdtAmMenuState
  3
DesignerAssemblies
 90
        0
280
     0
281
     0
  0
CLASS
  1
ACIMSTRSYSVAR
  2
AcImStrSysVar
  3
AcMeServices
 90
        0
280
     0
281
     0
  0
CLASS
  1
ACAMPROJECT
  2
AcAmProject
  3
DesignerAssemblies
 90
        0
280
     0
281
     0
  0
CLASS
  1
ACAMGRCOMPDEF
  2
AcAmGrCompDef
  3
DesignerAssemblies
 90
        0
280
     0
281
     0
  0
CLASS
  1
ACCMCONTEXT
  2
AcCmContext
  3
DesignerAssemblies
 90
        0
280
     0
281
     0
  0
CLASS
  1
ACAMCOMPDEF
  2
AcAmCompDef
  3
DesignerAssemblies
 90
        0
280
     0
281
     0
  0
CLASS
  1
ACAMCOMPDEFMGR
  2
AcAmCompDefMgr
  3
DesignerAssemblies
 90
        0
280
     0
281
     0
  0
CLASS
  1
AMCONTEXTMGR
  2
AcAmContextMgr
  3
DesignerAssemblies
 90
        0
280
     0
281
     0
  0
CLASS
  1
ACAMCONTEXTMODELER
  2
AcAmContextModeler
  3
DesignerAssemblies
 90
        0
280
     0
281
     0
  0
CLASS
  1
ACMDATADICTIONARY
  2
AcmDataDictionary
  3
"AcmSymBB|Product Description: AutoCAD Mechanical 2004 DX|Company: Autodesk"
 90
        0
280
     0
281
     0
  0
CLASS
  1
CATALOGSTATE
  2
AcAmCatalogState
  3
DesignerAssemblies
 90
        0
280
     0
281
     0
  0
CLASS
  1
ACAMGRCOMPDEFSET
  2
AcAmGrCompDefSet
  3
DesignerAssemblies
 90
        0
280
     0
281
     0
  0
CLASS
  1
AMDTBROWSERDBTAB
  2
AmdtBrowserDbTab
  3
McadcomServices
 90
        0
280
     0
281
     0
  0
CLASS
  1
CBROWSERAPPOBJECT
  2
CBrowserAppObject
  3
McadcomServices
 90
        0
280
     0
281
     0
  0
CLASS
  1
DM_PLACEHOLDER
  2
AcDmSelsetPlaceholder
  3
AcMechDwgViewMgmt
 90
        0
280
     0
281
     0
  0
CLASS
  1
ACMSTANDARDANSI
  2
AcmStandardANSI
  3
"Amdt_StdImp|Product Description: AutoCAD Mechanical 2004 DX|Company: Autodesk"
 90
        0
280
     0
281
     0
  0
CLASS
  1
AMGOBJPROPCFG
  2
AmgObjPropCfg
  3
"AmgLay|Product Description: AutoCAD Mechanical 2000|Company: Autodesk"
 90
        1
280
     0
281
     0
  0
CLASS
  1
ACMSURFSTANDARDANSI
  2
AcmSurfTextStdANSI
  3
"Amdt_StdImp|Product Description: AutoCAD Mechanical 2004 DX|Company: Autodesk"
 90
        0
280
     0
281
     0
  0
CLASS
  1
ACMFCFSTANDARDANSI
  2
AcmFCFStdANSI
  3
"Amdt_StdImp|Product Description: AutoCAD Mechanical 2004 DX|Company: Autodesk"
 90
        0
280
     0
281
     0
  0
CLASS
  1
ACMWELDSTANDARDANSI
  2
AcmWeldingStdANSI
  3
"Amdt_StdImp|Product Description: AutoCAD Mechanical 2004 DX|Company: Autodesk"
 90
        0
280
     0
281
     0
  0
CLASS
  1
ACMIDSTANDARDANSI
  2
AcmIdStdANSI
  3
"Amdt_StdImp|Product Description: AutoCAD Mechanical 2004 DX|Company: Autodesk"
 90
        0
280
     0
281
     0
  0
CLASS
  1
ACMDATUMSTANDARDANSI
  2
AcmDatumStdANSI
  3
"Amdt_StdImp|Product Description: AutoCAD Mechanical 2004 DX|Company: Autodesk"
 90
        0
280
     0
281
     0
  0
CLASS
  1
ACMBOMSTANDARDANSI
  2
AcmBOMStdANSI
  3
"Amdt_StdImp|Product Description: AutoCAD Mechanical 2004 DX|Company: Autodesk"
 90
        0
280
     0
281
     0
  0
CLASS
  1
ACMDETAILSTANDARDANSI
  2
AmdtDetailSymStdANSI
  3
"Amdt_StdImp|Product Description: AutoCAD Mechanical 2004 DX|Company: Autodesk"
 90
        0
280
     0
281
     0
  0
CLASS
  1
ACMSECTIONSTANDARDANSI
  2
AmdtSectionSymStdANSI
  3
"Amdt_StdImp|Product Description: AutoCAD Mechanical 2004 DX|Company: Autodesk"
 90
        0
280
     0
281
     0
  0
CLASS
  1
ACMCENTERLINESTANDARDANSI
  2
AmdtCenterLineStdANSI
  3
"Amdt_StdImp|Product Description: AutoCAD Mechanical 2004 DX|Company: Autodesk"
 90
        0
280
     0
281
     0
  0
CLASS
  1
ACMTHREADLINESTANDARDANSI
  2
AmdtThreadLineStdANSI
  3
"Amdt_StdImp|Product Description: AutoCAD Mechanical 2004 DX|Company: Autodesk"
 90
        0
280
     0
281
     0
  0
CLASS
  1
ACMNOTESTANDARDANSI
  2
AmdtNoteStdANSI
  3
"Amdt_StdImp|Product Description: AutoCAD Mechanical 2004 DX|Company: Autodesk"
 90
        0
280
     0
281
     0
  0
CLASS
  1
AMDTNOTETEMPLATEDB
  2
AmdtNoteTemplateDB
  3
AMDT_STDIMP_MODULE_NAME
 90
        0
280
     0
281
     0
  0
CLASS
  1
ACAMGLAYSTD
  2
AcAmgLayStd
  3
"AcAmgLayStd|Product Description: AutoCAD Mechanical 2000|Company: Autodesk"
 90
        0
280
     0
281
     0
  0
CLASS
  1
ACAMGDIMSTD
  2
AcAmgDimStd
  3
"AcAmgDimStd|Product Description: AutoCAD Mechanical 2000|Company: Autodesk"
 90
        0
280
     0
281
     0
  0
CLASS
  1
ACAMGHOLECHARTSTDANSI
  2
AcAmgHoleChartStdANSI
  3
ACMSYMBB_MODULE_NAME
 90
        0
280
     0
281
     0
  0
CLASS
  1
ACAMGTITLESTD
  2
AcAmgTitleStd
  3
"TITLEAPP"
 90
        0
280
     0
281
     0
  0
CLASS
  1
DICTIONARYVAR
  2
AcDbDictionaryVar
  3
ObjectDBX Classes
 90
        0
280
     0
281
     0
  0
CLASS
  1
ACAMGFILTERDAT
  2
AcAmgFilterDat
  3
"AcadM|Product Description: AutoCAD Mechanical 2000|Company: Autodesk"
 90
        0
280
     0
281
     0
  0
CLASS
  1
ACMSTANDARDISO
  2
AcmStandardISO
  3
"Amdt_StdImp|Product Description: AutoCAD Mechanical 2004 DX|Company: Autodesk"
 90
        0
280
     0
281
     0
  0
CLASS
  1
AMDTEDGESTANDARDISO
  2
AmdtEdgeStdISO
  3
"Amdt_StdImp|Product Description: AutoCAD Mechanical 2004 DX|Company: Autodesk"
 90
        0
280
     0
281
     0
  0
CLASS
  1
ACMSURFSTANDARDISO
  2
AcmSurfTextStdISO
  3
"Amdt_StdImp|Product Description: AutoCAD Mechanical 2004 DX|Company: Autodesk"
 90
        0
280
     0
281
     0
  0
CLASS
  1
ACMFCFSTANDARDISO
  2
AcmFCFStdISO
  3
"Amdt_StdImp|Product Description: AutoCAD Mechanical 2004 DX|Company: Autodesk"
 90
        0
280
     0
281
     0
  0
CLASS
  1
ACMWELDSTANDARDISO
  2
AcmWeldingStdISO
  3
"Amdt_StdImp|Product Description: AutoCAD Mechanical 2004 DX|Company: Autodesk"
 90
        0
280
     0
281
     0
  0
CLASS
  1
ACMIDSTANDARDISO
  2
AcmIdStdISO
  3
"Amdt_StdImp|Product Description: AutoCAD Mechanical 2004 DX|Company: Autodesk"
 90
        0
280
     0
281
     0
  0
CLASS
  1
ACMDATUMSTANDARDISO
  2
AcmDatumStdISO
  3
"Amdt_StdImp|Product Description: AutoCAD Mechanical 2004 DX|Company: Autodesk"
 90
        0
280
     0
281
     0
  0
CLASS
  1
ACMBOMSTANDARDISO
  2
AcmBOMStdISO
  3
"Amdt_StdImp|Product Description: AutoCAD Mechanical 2004 DX|Company: Autodesk"
 90
        0
280
     0
281
     0
  0
CLASS
  1
ACMDETAILSTANDARDISO
  2
AmdtDetailSymStdISO
  3
"Amdt_StdImp|Product Description: AutoCAD Mechanical 2004 DX|Company: Autodesk"
 90
        0
280
     0
281
     0
  0
CLASS
  1
ACMSECTIONSTANDARDISO
  2
AmdtSectionSymStdISO
  3
"Amdt_StdImp|Product Description: AutoCAD Mechanical 2004 DX|Company: Autodesk"
 90
        0
280
     0
281
     0
  0
CLASS
  1
ACMCENTERLINESTANDARDISO
  2
AmdtCenterLineStdISO
  3
"Amdt_StdImp|Product Description: AutoCAD Mechanical 2004 DX|Company: Autodesk"
 90
        0
280
     0
281
     0
  0
CLASS
  1
ACMNOTESTANDARDISO
  2
AmdtNoteStdISO
  3
"Amdt_StdImp|Product Description: AutoCAD Mechanical 2004 DX|Company: Autodesk"
 90
        0
280
     0
281
     0
  0
CLASS
  1
ACAMGHOLECHARTSTDISO
  2
AcAmgHoleChartStdISO
  3
ACMSYMBB_MODULE_NAME
 90
        0
280
     0
281
     0
  0
CLASS
  1
ACMTHREADLINESTANDARDISO
  2
AmdtThreadLineStdISO
  3
"Amdt_StdImp|Product Description: AutoCAD Mechanical 2004 DX|Company: Autodesk"
 90
        0
280
     0
281
     0
  0
CLASS
  1
ACRFATTGENMGR
  2
AcRfAttGeneralMgr
  3
AcAttribServices
 90
        0
280
     0
281
     0
  0
ENDSEC
  0
SECTION
  2
TABLES
  0
TABLE
  2
VPORT
  5
3FF
330
0
100
AcDbSymbolTable
 70
    20
  0
VPORT
  5
AB1
330
3FF
100
AcDbSymbolTableRecord
100
AcDbViewportTableRecord
  2
*Active
 70
     0
 10
0.0
 20
0.0
 11
1.0
 21
1.0
 12
89.44004103985367
 22
-54.38878659230096
 13
0.0
 23
0.0
 14
10.0
 24
10.0
 15
10.0
 25
10.0
 16
0.0
 26
0.0
 36
1.0
 17
126.4399343101146
 27
186.7581714702363
 37
9.490730840206055
 40
370.8417132327743
 41
1.661684782608695
 42
50.0
 43
0.0
 44
0.0
 50
0.0
 51
0.0
 71
     0
 72
   100
 73
     1
 74
     1
 75
     0
 76
     0
 77
     0
 78
     0
281
     0
 65
     1
110
0.0
120
0.0
130
0.0
111
1.0
121
0.0
131
0.0
112
0.0
122
1.0
132
0.0
 79
     0
146
0.0
  0
ENDTAB
  0
TABLE
  2
LTYPE
  5
3FC
330
0
100
AcDbSymbolTable
 70
    19
  0
LTYPE
  5
40A
330
3FC
100
AcDbSymbolTableRecord
100
AcDbLinetypeTableRecord
  2
ByBlock
 70
     0
  3

 72
    65
 73
     0
 40
0.0
  0
LTYPE
  5
40B
330
3FC
100
AcDbSymbolTableRecord
100
AcDbLinetypeTableRecord
  2
ByLayer
 70
     0
  3

 72
    65
 73
     0
 40
0.0
  0
LTYPE
  5
40C
330
3FC
100
AcDbSymbolTableRecord
100
AcDbLinetypeTableRecord
  2
CONTINUOUS
 70
     0
  3
Solid line
 72
    65
 73
     0
 40
0.0
  0
LTYPE
  5
433
330
3FC
100
AcDbSymbolTableRecord
100
AcDbLinetypeTableRecord
  2
CENTER
 70
     0
  3
____ _ ____ _ ____ _ ____ _ ____ _ ____ _ ____ 
 72
    65
 73
     4
 40
2.0
 49
1.25
 74
     0
 49
-0.25
 74
     0
 49
0.25
 74
     0
 49
-0.25
 74
     0
  0
LTYPE
  5
810
330
3FC
100
AcDbSymbolTableRecord
100
AcDbLinetypeTableRecord
  2
HIDDEN
 70
     0
  3
Hidden __ __ __ __ __ __ __ __ __ __ __ __ __ _
 72
    65
 73
     2
 40
0.375
 49
0.25
 74
     0
 49
-0.125
 74
     0
  0
LTYPE
  5
811
330
3FC
100
AcDbSymbolTableRecord
100
AcDbLinetypeTableRecord
  2
PHANTOM2
 70
     0
  3
Phantom (.5x) ___ _ _ ___ _ _ ___ _ _ ___ _ _
 72
    65
 73
     6
 40
1.25
 49
0.625
 74
     0
 49
-0.125
 74
     0
 49
0.125
 74
     0
 49
-0.125
 74
     0
 49
0.125
 74
     0
 49
-0.125
 74
     0
  0
LTYPE
  5
848
330
3FC
100
AcDbSymbolTableRecord
100
AcDbLinetypeTableRecord
  2
Amconstr
 70
     0
  3
_______________________
 72
    65
 73
     2
 40
9999.0
 49
9999.0
 74
     0
 49
0.0
 74
     0
  0
LTYPE
  5
849
330
3FC
100
AcDbSymbolTableRecord
100
AcDbLinetypeTableRecord
  2
AM_ISO08W050x2
 70
     0
  3
__ . __ . __ . __ . __ . __
 72
    65
 73
     4
 40
9.0
 49
6.0
 74
     0
 49
-0.75
 74
     0
 49
1.5
 74
     0
 49
-0.75
 74
     0
  0
LTYPE
  5
84E
330
3FC
100
AcDbSymbolTableRecord
100
AcDbLinetypeTableRecord
  2
CENTER2
 70
     0
  3
Center (.5x) ___ _ ___ _ ___ _ ___ _ ___ _ ___
 72
    65
 73
     4
 40
1.125
 49
0.75
 74
     0
 49
-0.125
 74
     0
 49
0.125
 74
     0
 49
-0.125
 74
     0
  0
LTYPE
  5
84F
330
3FC
100
AcDbSymbolTableRecord
100
AcDbLinetypeTableRecord
  2
HIDDEN2
 70
     0
  3
Hidden (.5x) _ _ _ _ _ _ _ _ _ _ _ _ _ _ _ _ _
 72
    65
 73
     2
 40
0.1875
 49
0.125
 74
     0
 49
-0.0625
 74
     0
  0
LTYPE
  5
850
330
3FC
100
AcDbSymbolTableRecord
100
AcDbLinetypeTableRecord
  2
Amzigzag2
 70
     0
  3
/\/-/\/-/\/-/\/-/\/-/\/
 72
    65
 73
     2
 40
0.4401
 49
0.0001
 74
     4
 75
   135
340
84C
 46
0.0016
 50
0.0
 44
0.0
 45
0.0
 49
-0.4400000000000001
 74
     0
  0
LTYPE
  5
85E
330
3FC
100
AcDbSymbolTableRecord
100
AcDbLinetypeTableRecord
  2
ACANSTGB
 70
     0
  3
__ . . __ . .
 72
    65
 73
     6
 40
0.35433070866
 49
0.15748031496
 74
     0
 49
-0.03937007874
 74
     0
 49
0.03937007874
 74
     0
 49
-0.03937007874
 74
     0
 49
0.03937007874
 74
     0
 49
-0.03937007874
 74
     0
  0
LTYPE
  5
85F
330
3FC
100
AcDbSymbolTableRecord
100
AcDbLinetypeTableRecord
  2
ACANSTGL
 70
     0
  3
_ _ _ _ _
 72
    65
 73
     2
 40
0.11811023622
 49
0.07874015748
 74
     0
 49
-0.03937007874
 74
     0
  0
LTYPE
  5
881
330
3FC
100
AcDbSymbolTableRecord
100
AcDbLinetypeTableRecord
  2
ACISOWELD
 70
     0
  3
_ _ _ _ _
 72
    65
 73
     2
 40
2.0
 49
2.0
 74
     0
 49
-1.0
 74
     0
  0
LTYPE
  5
882
330
3FC
100
AcDbSymbolTableRecord
100
AcDbLinetypeTableRecord
  2
ACISOTGB
 70
     0
  3
__ . . __ . .
 72
    65
 73
     6
 40
9.0
 49
4.0
 74
     0
 49
-1.0
 74
     0
 49
1.0
 74
     0
 49
-1.0
 74
     0
 49
1.0
 74
     0
 49
-1.0
 74
     0
  0
LTYPE
  5
883
330
3FC
100
AcDbSymbolTableRecord
100
AcDbLinetypeTableRecord
  2
ACISOTGL
 70
     0
  3
_ _ _ _ _
 72
    65
 73
     2
 40
3.0
 49
2.0
 74
     0
 49
-1.0
 74
     0
  0
ENDTAB
  0
TABLE
  2
LAYER
  5
3F9
102
{ACAD_XDICTIONARY
360
896
102
}
330
0
100
AcDbSymbolTable
 70
     5
  0
LAYER
  5
407
330
3F9
100
AcDbSymbolTableRecord
100
AcDbLayerTableRecord
  2
0
 70
     0
 62
     7
  6
CONTINUOUS
370
    -3
390
406
  0
LAYER
  5
439
330
3F9
100
AcDbSymbolTableRecord
100
AcDbLayerTableRecord
  2
DEFPOINTS
 70
     0
 62
     7
  6
CONTINUOUS
290
     0
370
    -3
390
406
  0
LAYER
  5
43A
330
3F9
100
AcDbSymbolTableRecord
100
AcDbLayerTableRecord
  2
CENTER
 70
     0
 62
     1
  6
CENTER
370
    -3
390
406
  0
LAYER
  5
43B
330
3F9
100
AcDbSymbolTableRecord
100
AcDbLayerTableRecord
  2
DIM
 70
     0
 62
     5
  6
CONTINUOUS
370
    -3
390
406
  0
LAYER
  5
64C
330
3F9
100
AcDbSymbolTableRecord
100
AcDbLayerTableRecord
  2
LOGO
 70
     0
 62
     7
  6
CONTINUOUS
370
    -3
390
406
  0
ENDTAB
  0
TABLE
  2
STYLE
  5
3FA
330
0
100
AcDbSymbolTable
 70
    10
  0
STYLE
  5
408
330
3FA
100
AcDbSymbolTableRecord
100
AcDbTextStyleTableRecord
  2
STANDARD
 70
     0
 40
0.0
 41
1.0
 50
0.0
 71
     0
 42
2.5
  3
txt
  4

  0
STYLE
  5
432
330
3FA
100
AcDbSymbolTableRecord
100
AcDbTextStyleTableRecord
  2
DAYUS
 70
     0
 40
0.0
 41
1.0
 50
0.0
 71
     0
 42
2.5
  3
txt.shx
  4
dayus.shx
  0
STYLE
  5
64D
330
3FA
100
AcDbSymbolTableRecord
100
AcDbTextStyleTableRecord
  2
chineset
 70
     0
 40
0.0
 41
1.0
 50
0.0
 71
     0
 42
5.0
  3
simplex.shx
  4
chineset.shx
  0
STYLE
  5
84C
330
3FA
100
AcDbSymbolTableRecord
100
AcDbTextStyleTableRecord
  2

 70
     1
 40
0.0
 41
1.0
 50
0.0
 71
     0
 42
2.5
  3
ltypeshp.shx
  4

  0
STYLE
  5
851
330
3FA
100
AcDbSymbolTableRecord
100
AcDbTextStyleTableRecord
  2
ACANSTS
 70
     0
 40
1.0
 41
1.0
 50
0.0
 71
     0
 42
2.5
  3
romans.shx
  4
chineset.shx
  0
STYLE
  5
85D
330
3FA
100
AcDbSymbolTableRecord
100
AcDbTextStyleTableRecord
  2
ACANSGDT
 70
     0
 40
0.0
 41
1.0
 50
0.0
 71
     0
 42
2.5
  3
amgdtans.shx
  4

  0
STYLE
  5
884
330
3FA
100
AcDbSymbolTableRecord
100
AcDbTextStyleTableRecord
  2
ACISOTS
 70
     0
 40
1.0
 41
1.0
 50
0.0
 71
     0
 42
1.0
  3
isocp.shx
  4
chineset.shx
  0
STYLE
  5
885
330
3FA
100
AcDbSymbolTableRecord
100
AcDbTextStyleTableRecord
  2
ACISOGDT
 70
     0
 40
0.0
 41
1.0
 50
0.0
 71
     0
 42
2.5
  3
amgdt.shx
  4
chineset.shx
  0
ENDTAB
  0
TABLE
  2
VIEW
  5
3FD
330
0
100
AcDbSymbolTable
 70
     0
  0
ENDTAB
  0
TABLE
  2
UCS
  5
3FE
330
0
100
AcDbSymbolTable
 70
     0
  0
ENDTAB
  0
TABLE
  2
APPID
  5
400
330
0
100
AcDbSymbolTable
 70
    16
  0
APPID
  5
409
330
400
100
AcDbSymbolTableRecord
100
AcDbRegAppTableRecord
  2
ACAD
 70
     0
  0
APPID
  5
7E3
330
400
100
AcDbSymbolTableRecord
100
AcDbRegAppTableRecord
  2
MCAD_NO_VIS
 70
     0
  0
APPID
  5
7E4
330
400
100
AcDbSymbolTableRecord
100
AcDbRegAppTableRecord
  2
ACAD_TEMP_GRAPHIC
 70
     0
  0
APPID
  5
813
330
400
100
AcDbSymbolTableRecord
100
AcDbRegAppTableRecord
  2
AD_DRAW
 70
     0
  0
APPID
  5
816
330
400
100
AcDbSymbolTableRecord
100
AcDbRegAppTableRecord
  2
ACATTRIBSERVICES
 70
     0
  0
APPID
  5
834
330
400
100
AcDbSymbolTableRecord
100
AcDbRegAppTableRecord
  2
DESIGNERASSEMBLIES
 70
     0
  0
APPID
  5
83A
330
400
100
AcDbSymbolTableRecord
100
AcDbRegAppTableRecord
  2
ACADM_DIM_EDIT
 70
     0
  0
APPID
  5
83B
330
400
100
AcDbSymbolTableRecord
100
AcDbRegAppTableRecord
  2
AMDT_DM_ADJ
 70
     0
  0
APPID
  5
88E
330
400
100
AcDbSymbolTableRecord
100
AcDbRegAppTableRecord
  2
GENIUS_GENOENT_13
 70
     0
  0
APPID
  5
88F
330
400
100
AcDbSymbolTableRecord
100
AcDbRegAppTableRecord
  2
GENIUS_GENOBJ-N-CRS_13
 70
     0
  0
APPID
  5
890
330
400
100
AcDbSymbolTableRecord
100
AcDbRegAppTableRecord
  2
GENIUS_GENOLIS_13
 70
     0
  0
APPID
  5
891
330
400
100
AcDbSymbolTableRecord
100
AcDbRegAppTableRecord
  2
GENIUS_GENODEF_13
 70
     0
  0
APPID
  5
892
330
400
100
AcDbSymbolTableRecord
100
AcDbRegAppTableRecord
  2
GENIUS_GENOREF_13
 70
     0
  0
APPID
  5
893
330
400
100
AcDbSymbolTableRecord
100
AcDbRegAppTableRecord
  2
ACAD_PSEXT
 70
     0
  0
APPID
  5
894
330
400
100
AcDbSymbolTableRecord
100
AcDbRegAppTableRecord
  2
GENIUS_GENREC_14
 70
     0
  0
APPID
  5
895
330
400
100
AcDbSymbolTableRecord
100
AcDbRegAppTableRecord
  2
GENIUS_GENOBJ-N-REC_13
 70
     0
  0
ENDTAB
  0
TABLE
  2
DIMSTYLE
  5
401
330
0
100
AcDbSymbolTable
 70
    16
100
AcDbDimStyleTable
 71
     1
340
435
  0
DIMSTYLE
105
435
102
{ACAD_REACTORS
330
A8
330
B7
330
C4
330
D3
330
E2
330
EF
330
FC
330
10B
330
11A
330
127
330
134
330
141
330
14E
330
15B
330
168
330
175
330
187
330
194
330
1A1
330
1AE
330
1BB
330
1C8
330
1D5
330
1E6
330
1F5
102
}
330
401
100
AcDbSymbolTableRecord
100
AcDbDimStyleTableRecord
  2
STANDARD
 70
     0
 40
0.8
 41
3.0
 42
0.8
 43
2.0
 44
1.199999999999999
 73
     0
 74
     0
 77
     1
 78
     8
140
3.0
141
3.0
143
0.0394
146
0.6
147
0.8
171
     4
172
     1
176
   256
177
   256
178
   256
271
     2
272
     2
274
     4
279
     2
284
     8
285
     8
286
     8
340
408
371
    -1
372
    -1
  0
DIMSTYLE
105
869
330
401
100
AcDbSymbolTableRecord
100
AcDbDimStyleTableRecord
  2
AM_ANSI
 70
     0
  4
mm
 41
0.1
 42
0.05
 43
0.5
 44
0.1
 47
0.1
 48
0.1
 78
     7
 79
     2
140
0.12
141
0.0
146
0.71
147
0.06
176
   256
177
   256
178
     2
274
     4
284
     7
340
408
371
    -1
372
    -1
  0
DIMSTYLE
105
86A
330
401
100
AcDbSymbolTableRecord
100
AcDbDimStyleTableRecord
  2
AM_ANSI$3
 70
     0
  4
mm
 41
0.1
 42
0.05
 43
0.5
 44
0.1
 47
0.1
 48
0.1
 78
     7
 79
     2
140
0.12
141
0.0
146
0.71
147
0.06
176
   256
177
   256
178
     2
274
     4
284
     7
288
     1
289
     0
340
408
371
    -1
372
    -1
  0
DIMSTYLE
105
86B
330
401
100
AcDbSymbolTableRecord
100
AcDbDimStyleTableRecord
  2
AM_ANSI$4
 70
     0
  4
mm
 41
0.1
 42
0.05
 43
0.5
 44
0.1
 47
0.1
 48
0.1
 78
     7
 79
     2
140
0.12
141
0.0
146
0.71
147
0.06
176
   256
177
   256
178
     2
274
     4
284
     7
288
     1
289
     0
340
408
371
    -1
372
    -1
  0
DIMSTYLE
105
86C
330
401
100
AcDbSymbolTableRecord
100
AcDbDimStyleTableRecord
  2
AM_ANSI$7
 70
     0
  4
mm
 41
0.1
 42
0.05
 43
0.5
 44
0.1
 47
0.1
 48
0.1
 78
     7
 79
     2
140
0.24
141
0.0
146
0.71
147
0.06
176
   256
177
   256
178
     2
274
     4
284
     7
340
408
371
    -1
372
    -1
  0
DIMSTYLE
105
86D
330
401
100
AcDbSymbolTableRecord
100
AcDbDimStyleTableRecord
  2
AM_ANSI$SF
 70
     0
  4
mm
 41
0.1
 42
0.05
 43
0.5
 44
0.1
 47
0.1
 48
0.1
 75
     1
 76
     1
 78
     7
 79
     2
140
0.12
141
0.0
146
0.71
147
0.06
176
   256
177
   256
178
     2
274
     4
284
     7
340
408
371
    -1
372
    -1
  0
DIMSTYLE
105
872
330
401
100
AcDbSymbolTableRecord
100
AcDbDimStyleTableRecord
  2
AM_ANSI$SH
 70
     0
  4
mm
 41
0.1
 42
0.05
 43
0.5
 44
0.1
 47
0.1
 48
0.1
 75
     1
 76
     1
 78
     7
 79
     2
140
0.12
141
0.0
146
0.71
147
0.06
173
     1
176
   256
177
   256
178
     2
274
     4
284
     7
340
408
343
86E
371
    -1
372
    -1
  0
DIMSTYLE
105
886
330
401
100
AcDbSymbolTableRecord
100
AcDbDimStyleTableRecord
  2
AM_ISO
 70
     0
  4
"
 41
3.0
 42
1.0
 43
15.0
 44
1.5
 47
0.1
 48
0.1
 73
     0
 74
     0
 77
     1
 78
     8
 79
     2
140
3.0
141
0.0
143
0.0393701
146
0.71
147
1.0
172
     1
176
   256
177
   256
178
   256
271
     2
272
     2
283
     2
284
     8
340
408
371
    -1
372
    -1
  0
DIMSTYLE
105
887
330
401
100
AcDbSymbolTableRecord
100
AcDbDimStyleTableRecord
  2
AM_ISO$3
 70
     0
  4
"
 41
3.0
 42
1.0
 43
15.0
 44
1.5
 47
0.1
 48
0.1
 73
     0
 77
     1
 78
     8
 79
     2
140
3.0
141
0.0
143
0.0393701
146
0.71
147
1.0
176
   256
177
   256
178
   256
271
     2
272
     2
283
     2
284
     8
288
     1
289
     0
340
408
371
    -1
372
    -1
  0
DIMSTYLE
105
888
330
401
100
AcDbSymbolTableRecord
100
AcDbDimStyleTableRecord
  2
AM_ISO$4
 70
     0
  4
"
 41
3.0
 42
1.0
 43
15.0
 44
1.5
 47
0.1
 48
0.1
 73
     0
 77
     1
 78
     8
 79
     2
140
3.0
141
0.0
143
0.0393701
146
0.71
147
1.0
176
   256
177
   256
178
   256
271
     2
272
     2
283
     2
284
     8
288
     1
289
     0
340
408
371
    -1
372
    -1
  0
DIMSTYLE
105
889
330
401
100
AcDbSymbolTableRecord
100
AcDbDimStyleTableRecord
  2
AM_ISO$6
 70
     0
  4
"
 41
3.0
 42
1.0
 43
15.0
 44
1.5
 47
0.1
 48
0.1
 73
     0
 74
     0
 78
     8
 79
     2
140
3.0
141
0.0
143
0.0393701
146
0.71
147
1.0
172
     1
176
   256
177
   256
178
   256
271
     2
272
     2
283
     2
284
     8
340
408
371
    -1
372
    -1
  0
DIMSTYLE
105
88A
330
401
100
AcDbSymbolTableRecord
100
AcDbDimStyleTableRecord
  2
AM_ISO$7
 70
     0
  4
"
 41
3.0
 42
1.0
 43
15.0
 44
1.5
 47
0.1
 48
0.1
 73
     0
 74
     0
 77
     1
 78
     8
 79
     2
140
5.0
141
0.0
143
0.0393701
146
0.71
147
1.0
172
     1
176
   256
177
   256
178
   256
271
     2
272
     2
283
     2
284
     8
340
408
371
    -1
372
    -1
  0
DIMSTYLE
105
88B
330
401
100
AcDbSymbolTableRecord
100
AcDbDimStyleTableRecord
  2
AM_ISO$SF
 70
     0
  4
"
 41
2.5
 42
1.0
 43
10.0
 44
1.0
 47
0.1
 48
0.1
 73
     0
 74
     0
 75
     1
 76
     1
 77
     1
 78
     8
 79
     2
140
3.5
141
0.0
143
0.0393701
146
0.71
147
1.5
172
     1
176
   256
177
   256
178
     2
271
     2
272
     3
274
     4
283
     0
284
     8
340
408
371
    -1
372
    -1
  0
DIMSTYLE
105
88C
330
401
100
AcDbSymbolTableRecord
100
AcDbDimStyleTableRecord
  2
AM_ISO$SH
 70
     0
  4
"
 41
2.5
 42
1.0
 43
10.0
 44
1.0
 47
0.1
 48
0.1
 73
     0
 74
     0
 75
     1
 76
     1
 77
     1
 78
     8
 79
     2
140
3.5
141
0.0
143
0.0393701
144
2.0
146
0.71
147
1.5
172
     1
173
     1
176
   256
177
   256
178
     2
271
     2
272
     3
274
     4
283
     0
284
     8
340
408
343
86E
371
    -1
372
    -1
  0
DIMSTYLE
105
88D
330
401
100
AcDbSymbolTableRecord
100
AcDbDimStyleTableRecord
  2
AM_ISO$0
 70
     0
  4
"
 41
3.0
 42
1.0
 43
15.0
 44
1.5
 47
0.1
 48
0.1
 73
     0
 74
     0
 77
     1
 78
     8
 79
     2
140
3.0
141
0.0
143
0.0393701
146
0.71
147
1.0
172
     1
176
   256
177
   256
178
   256
271
     2
272
     2
283
     2
284
     8
340
408
371
    -1
372
    -1
  0
ENDTAB
  0
TABLE
  2
BLOCK_RECORD
  5
3F8
330
0
100
AcDbSymbolTable
 70
    29
  0
BLOCK_RECORD
  5
415
102
{ACAD_XDICTIONARY
360
737
102
}
330
3F8
100
AcDbSymbolTableRecord
100
AcDbBlockTableRecord
  2
*Model_Space
340
418
  0
BLOCK_RECORD
  5
411
102
{ACAD_XDICTIONARY
360
739
102
}
330
3F8
100
AcDbSymbolTableRecord
100
AcDbBlockTableRecord
  2
*Paper_Space
340
414
  0
BLOCK_RECORD
  5
443
330
3F8
100
AcDbSymbolTableRecord
100
AcDbBlockTableRecord
  2
*D0
340
0
  0
BLOCK_RECORD
  5
44F
330
3F8
100
AcDbSymbolTableRecord
100
AcDbBlockTableRecord
  2
*D1
340
0
  0
BLOCK_RECORD
  5
45B
330
3F8
100
AcDbSymbolTableRecord
100
AcDbBlockTableRecord
  2
*D2
340
0
  0
BLOCK_RECORD
  5
469
330
3F8
100
AcDbSymbolTableRecord
100
AcDbBlockTableRecord
  2
*D3
340
0
  0
BLOCK_RECORD
  5
477
330
3F8
100
AcDbSymbolTableRecord
100
AcDbBlockTableRecord
  2
*D4
340
0
  0
BLOCK_RECORD
  5
483
330
3F8
100
AcDbSymbolTableRecord
100
AcDbBlockTableRecord
  2
*D5
340
0
  0
BLOCK_RECORD
  5
48F
330
3F8
100
AcDbSymbolTableRecord
100
AcDbBlockTableRecord
  2
*D6
340
0
  0
BLOCK_RECORD
  5
49B
330
3F8
100
AcDbSymbolTableRecord
100
AcDbBlockTableRecord
  2
*D7
340
0
  0
BLOCK_RECORD
  5
4A9
330
3F8
100
AcDbSymbolTableRecord
100
AcDbBlockTableRecord
  2
*D8
340
0
  0
BLOCK_RECORD
  5
4B5
330
3F8
100
AcDbSymbolTableRecord
100
AcDbBlockTableRecord
  2
*D9
340
0
  0
BLOCK_RECORD
  5
4C1
330
3F8
100
AcDbSymbolTableRecord
100
AcDbBlockTableRecord
  2
*D10
340
0
  0
BLOCK_RECORD
  5
4CD
330
3F8
100
AcDbSymbolTableRecord
100
AcDbBlockTableRecord
  2
*D11
340
0
  0
BLOCK_RECORD
  5
4D9
330
3F8
100
AcDbSymbolTableRecord
100
AcDbBlockTableRecord
  2
*D12
340
0
  0
BLOCK_RECORD
  5
4E5
330
3F8
100
AcDbSymbolTableRecord
100
AcDbBlockTableRecord
  2
*D13
340
0
  0
BLOCK_RECORD
  5
4F1
330
3F8
100
AcDbSymbolTableRecord
100
AcDbBlockTableRecord
  2
*D14
340
0
  0
BLOCK_RECORD
  5
4FD
330
3F8
100
AcDbSymbolTableRecord
100
AcDbBlockTableRecord
  2
*D15
340
0
  0
BLOCK_RECORD
  5
509
330
3F8
100
AcDbSymbolTableRecord
100
AcDbBlockTableRecord
  2
*D16
340
0
  0
BLOCK_RECORD
  5
515
330
3F8
100
AcDbSymbolTableRecord
100
AcDbBlockTableRecord
  2
*D17
340
0
  0
BLOCK_RECORD
  5
521
330
3F8
100
AcDbSymbolTableRecord
100
AcDbBlockTableRecord
  2
*D18
340
0
  0
BLOCK_RECORD
  5
52D
330
3F8
100
AcDbSymbolTableRecord
100
AcDbBlockTableRecord
  2
*D19
340
0
  0
BLOCK_RECORD
  5
539
330
3F8
100
AcDbSymbolTableRecord
100
AcDbBlockTableRecord
  2
*D20
340
0
  0
BLOCK_RECORD
  5
545
330
3F8
100
AcDbSymbolTableRecord
100
AcDbBlockTableRecord
  2
*D21
340
0
  0
BLOCK_RECORD
  5
551
330
3F8
100
AcDbSymbolTableRecord
100
AcDbBlockTableRecord
  2
*D22
340
0
  0
BLOCK_RECORD
  5
55F
330
3F8
100
AcDbSymbolTableRecord
100
AcDbBlockTableRecord
  2
*D23
340
0
  0
BLOCK_RECORD
  5
56B
330
3F8
100
AcDbSymbolTableRecord
100
AcDbBlockTableRecord
  2
*D24
340
0
  0
BLOCK_RECORD
  5
86E
330
3F8
100
AcDbSymbolTableRecord
100
AcDbBlockTableRecord
  2
GENAXEH
340
0
  0
ENDTAB
  0
ENDSEC
  0
SECTION
  2
BLOCKS
  0
BLOCK
  5
43E
330
415
100
AcDbEntity
  8
0
100
AcDbBlockBegin
  2
*Model_Space
 70
     0
 10
0.0
 20
0.0
 30
0.0
  3
*Model_Space
  1

  0
ENDBLK
  5
43F
330
415
100
AcDbEntity
  8
0
100
AcDbBlockEnd
  0
BLOCK
  5
43C
330
411
100
AcDbEntity
 67
     1
  8
0
100
AcDbBlockBegin
  2
*Paper_Space
 70
     0
 10
0.0
 20
0.0
 30
0.0
  3
*Paper_Space
  1

  0
ENDBLK
  5
43D
330
411
100
AcDbEntity
 67
     1
  8
0
100
AcDbBlockEnd
  0
BLOCK
  5
44D
330
443
100
AcDbEntity
  8
0
100
AcDbBlockBegin
  2
*D0
 70
     1
 10
0.0
 20
0.0
 30
0.0
  3
*D0
  1

  0
LINE
  5
9F0
330
443
100
AcDbEntity
  8
DIM
100
AcDbLine
 10
114.2868472341983
 20
248.0113096290556
 30
0.0
 11
114.2868472341983
 21
257.0511793111006
 31
0.0
  0
LINE
  5
9F1
330
443
100
AcDbEntity
  8
DIM
100
AcDbLine
 10
132.2868472341983
 20
248.0113096290556
 30
0.0
 11
132.2868472341983
 21
257.0511793111006
 31
0.0
  0
LINE
  5
9F2
330
443
100
AcDbEntity
  8
DIM
100
AcDbLine
 10
116.6868472341983
 20
256.0911793111007
 30
0.0
 11
129.8868472341983
 21
256.0911793111007
 31
0.0
  0
SOLID
  5
9F3
330
443
100
AcDbEntity
  8
DIM
100
AcDbTrace
 10
116.6868472341983
 20
256.4911793111006
 30
0.0
 11
116.6868472341983
 21
255.6911793111006
 31
0.0
 12
114.2868472341983
 22
256.0911793111007
 32
0.0
 13
114.2868472341983
 23
256.0911793111007
 33
0.0
  0
SOLID
  5
9F4
330
443
100
AcDbEntity
  8
DIM
100
AcDbTrace
 10
129.8868472341983
 20
256.4911793111006
 30
0.0
 11
129.8868472341983
 21
255.6911793111006
 31
0.0
 12
132.2868472341983
 22
256.0911793111007
 32
0.0
 13
132.2868472341983
 23
256.0911793111007
 33
0.0
  0
MTEXT
  5
9F5
330
443
100
AcDbEntity
  8
DIM
100
AcDbMText
 10
123.2868472341983
 20
257.9311793111006
 30
0.0
 40
2.4
 41
0.0
 71
     5
 72
     1
  1
\A1;18
 73
     1
 44
1.0
1001
ACAD
1000
MTEXTBEGIN
1070
    73
1070
     1
1070
    44
1040
1.0
1070
    74
1070
     0
1000
MTEXTEND
  0
POINT
  5
9F6
330
443
100
AcDbEntity
  8
DEFPOINTS
 62
     0
100
AcDbPoint
 10
114.2868472341983
 20
247.3713096290556
 30
0.0
  0
POINT
  5
9F7
330
443
100
AcDbEntity
  8
DEFPOINTS
 62
     0
100
AcDbPoint
 10
132.2868472341983
 20
247.3713096290556
 30
0.0
  0
POINT
  5
9F8
330
443
100
AcDbEntity
  8
DEFPOINTS
 62
     0
100
AcDbPoint
 10
132.2868472341983
 20
256.0911793111007
 30
0.0
  0
ENDBLK
  5
44E
330
443
100
AcDbEntity
  8
0
100
AcDbBlockEnd
  0
BLOCK
  5
459
330
44F
100
AcDbEntity
  8
0
100
AcDbBlockBegin
  2
*D1
 70
     1
 10
0.0
 20
0.0
 30
0.0
  3
*D1
  1

  0
LINE
  5
9F9
330
44F
100
AcDbEntity
  8
DIM
100
AcDbLine
 10
113.2868472341983
 20
248.5113096290556
 30
0.0
 11
113.2868472341983
 21
261.7956349485786
 31
0.0
  0
LINE
  5
9FA
330
44F
100
AcDbEntity
  8
DIM
100
AcDbLine
 10
133.2868472341983
 20
248.5113096290556
 30
0.0
 11
133.2868472341983
 21
261.7956349485786
 31
0.0
  0
LINE
  5
9FB
330
44F
100
AcDbEntity
  8
DIM
100
AcDbLine
 10
115.6868472341983
 20
260.8356349485787
 30
0.0
 11
130.8868472341983
 21
260.8356349485787
 31
0.0
  0
SOLID
  5
9FC
330
44F
100
AcDbEntity
  8
DIM
100
AcDbTrace
 10
115.6868472341983
 20
261.2356349485787
 30
0.0
 11
115.6868472341983
 21
260.4356349485787
 31
0.0
 12
113.2868472341983
 22
260.8356349485787
 32
0.0
 13
113.2868472341983
 23
260.8356349485787
 33
0.0
  0
SOLID
  5
9FD
330
44F
100
AcDbEntity
  8
DIM
100
AcDbTrace
 10
130.8868472341983
 20
261.2356349485787
 30
0.0
 11
130.8868472341983
 21
260.4356349485787
 31
0.0
 12
133.2868472341983
 22
260.8356349485787
 32
0.0
 13
133.2868472341983
 23
260.8356349485787
 33
0.0
  0
MTEXT
  5
9FE
330
44F
100
AcDbEntity
  8
DIM
100
AcDbMText
 10
123.2868472341983
 20
262.6756349485786
 30
0.0
 40
2.4
 41
0.0
 71
     5
 72
     1
  1
\A1;20
 73
     1
 44
1.0
1001
ACAD
1000
MTEXTBEGIN
1070
    73
1070
     1
1070
    44
1040
1.0
1070
    74
1070
     0
1000
MTEXTEND
  0
POINT
  5
9FF
330
44F
100
AcDbEntity
  8
DEFPOINTS
 62
     0
100
AcDbPoint
 10
113.2868472341983
 20
247.8713096290556
 30
0.0
  0
POINT
  5
A00
330
44F
100
AcDbEntity
  8
DEFPOINTS
 62
     0
100
AcDbPoint
 10
133.2868472341983
 20
247.8713096290556
 30
0.0
  0
POINT
  5
A01
330
44F
100
AcDbEntity
  8
DEFPOINTS
 62
     0
100
AcDbPoint
 10
133.2868472341983
 20
260.8356349485787
 30
0.0
  0
ENDBLK
  5
45A
330
44F
100
AcDbEntity
  8
0
100
AcDbBlockEnd
  0
BLOCK
  5
467
330
45B
100
AcDbEntity
  8
0
100
AcDbBlockBegin
  2
*D2
 70
     1
 10
0.0
 20
0.0
 30
0.0
  3
*D2
  1

  0
LINE
  5
A02
330
45B
100
AcDbEntity
  8
DIM
100
AcDbLine
 10
114.2868472341983
 20
248.0113096290556
 30
0.0
 11
114.2868472341983
 21
257.0511793111006
 31
0.0
  0
LINE
  5
A03
330
45B
100
AcDbEntity
  8
DIM
100
AcDbLine
 10
113.2868472341983
 20
248.5113096290556
 30
0.0
 11
113.2868472341983
 21
257.0511793111006
 31
0.0
  0
LINE
  5
A04
330
45B
100
AcDbEntity
  8
DIM
100
AcDbLine
 10
116.6868472341983
 20
256.0911793111007
 30
0.0
 11
119.0868472341983
 21
256.0911793111007
 31
0.0
  0
LINE
  5
A05
330
45B
100
AcDbEntity
  8
DIM
100
AcDbLine
 10
110.8868472341983
 20
256.0911793111007
 30
0.0
 11
108.4868472341983
 21
256.0911793111007
 31
0.0
  0
MTEXT
  5
A06
330
45B
100
AcDbEntity
  8
DIM
100
AcDbMText
 10
113.7868472341983
 20
259.2111793111006
 30
0.0
 40
2.4
 41
0.0
 71
     5
 72
     1
  1
\A1;1
 73
     1
 44
1.0
1001
ACAD
1000
MTEXTBEGIN
1070
    73
1070
     1
1070
    44
1040
1.0
1070
    74
1070
     0
1000
MTEXTEND
  0
LINE
  5
A07
330
45B
100
AcDbEntity
  8
DIM
100
AcDbLine
 10
114.2868472341983
 20
256.0911793111007
 30
0.0
 11
113.2868472341983
 21
256.0911793111007
 31
0.0
  0
SOLID
  5
A08
330
45B
100
AcDbEntity
  8
DIM
100
AcDbTrace
 10
116.6868472341983
 20
256.4911793111006
 30
0.0
 11
116.6868472341983
 21
255.6911793111006
 31
0.0
 12
114.2868472341983
 22
256.0911793111007
 32
0.0
 13
114.2868472341983
 23
256.0911793111007
 33
0.0
  0
SOLID
  5
A09
330
45B
100
AcDbEntity
  8
DIM
100
AcDbTrace
 10
110.8868472341983
 20
256.4911793111006
 30
0.0
 11
110.8868472341983
 21
255.6911793111006
 31
0.0
 12
113.2868472341983
 22
256.0911793111007
 32
0.0
 13
113.2868472341983
 23
256.0911793111007
 33
0.0
  0
POINT
  5
A0A
330
45B
100
AcDbEntity
  8
DEFPOINTS
 62
     0
100
AcDbPoint
 10
114.2868472341983
 20
247.3713096290556
 30
0.0
  0
POINT
  5
A0B
330
45B
100
AcDbEntity
  8
DEFPOINTS
 62
     0
100
AcDbPoint
 10
113.2868472341983
 20
247.8713096290556
 30
0.0
  0
POINT
  5
A0C
330
45B
100
AcDbEntity
  8
DEFPOINTS
 62
     0
100
AcDbPoint
 10
113.2868472341983
 20
256.0911793111007
 30
0.0
  0
ENDBLK
  5
468
330
45B
100
AcDbEntity
  8
0
100
AcDbBlockEnd
  0
BLOCK
  5
475
330
469
100
AcDbEntity
  8
0
100
AcDbBlockBegin
  2
*D3
 70
     1
 10
0.0
 20
0.0
 30
0.0
  3
*D3
  1

  0
LINE
  5
A0D
330
469
100
AcDbEntity
  8
DIM
100
AcDbLine
 10
113.1468472341983
 20
248.3713096290557
 30
0.0
 11
105.626220384918
 21
248.3713096290557
 31
0.0
  0
LINE
  5
A0E
330
469
100
AcDbEntity
  8
DIM
100
AcDbLine
 10
113.6468472341983
 20
247.3713096290556
 30
0.0
 11
105.626220384918
 21
247.3713096290556
 31
0.0
  0
LINE
  5
A0F
330
469
100
AcDbEntity
  8
DIM
100
AcDbLine
 10
106.586220384918
 20
250.7713096290557
 30
0.0
 11
106.586220384918
 21
253.1713096290557
 31
0.0
  0
LINE
  5
A10
330
469
100
AcDbEntity
  8
DIM
100
AcDbLine
 10
106.586220384918
 20
244.9713096290556
 30
0.0
 11
106.586220384918
 21
242.5713096290556
 31
0.0
  0
MTEXT
  5
A11
330
469
100
AcDbEntity
  8
DIM
100
AcDbMText
 10
103.466220384918
 20
247.8713096290556
 30
0.0
 40
2.4
 41
0.0
 71
     5
 72
     1
  1
\A1;1
 11
0.0000000000000001
 21
1.0
 31
0.0
 73
     1
 44
1.0
1001
ACAD
1000
MTEXTBEGIN
1070
    73
1070
     1
1070
    44
1040
1.0
1070
    74
1070
     0
1000
MTEXTEND
  0
LINE
  5
A12
330
469
100
AcDbEntity
  8
DIM
100
AcDbLine
 10
106.586220384918
 20
248.3713096290557
 30
0.0
 11
106.586220384918
 21
247.3713096290556
 31
0.0
  0
SOLID
  5
A13
330
469
100
AcDbEntity
  8
DIM
100
AcDbTrace
 10
106.186220384918
 20
250.7713096290557
 30
0.0
 11
106.9862203849181
 21
250.7713096290557
 31
0.0
 12
106.586220384918
 22
248.3713096290557
 32
0.0
 13
106.586220384918
 23
248.3713096290557
 33
0.0
  0
SOLID
  5
A14
330
469
100
AcDbEntity
  8
DIM
100
AcDbTrace
 10
106.186220384918
 20
244.9713096290556
 30
0.0
 11
106.9862203849181
 21
244.9713096290556
 31
0.0
 12
106.586220384918
 22
247.3713096290556
 32
0.0
 13
106.586220384918
 23
247.3713096290556
 33
0.0
  0
POINT
  5
A15
330
469
100
AcDbEntity
  8
DEFPOINTS
 62
     0
100
AcDbPoint
 10
113.7868472341983
 20
248.3713096290557
 30
0.0
  0
POINT
  5
A16
330
469
100
AcDbEntity
  8
DEFPOINTS
 62
     0
100
AcDbPoint
 10
114.2868472341983
 20
247.3713096290556
 30
0.0
  0
POINT
  5
A17
330
469
100
AcDbEntity
  8
DEFPOINTS
 62
     0
100
AcDbPoint
 10
106.586220384918
 20
247.3713096290556
 30
0.0
  0
ENDBLK
  5
476
330
469
100
AcDbEntity
  8
0
100
AcDbBlockEnd
  0
BLOCK
  5
481
330
477
100
AcDbEntity
  8
0
100
AcDbBlockBegin
  2
*D4
 70
     1
 10
0.0
 20
0.0
 30
0.0
  3
*D4
  1

  0
LINE
  5
A18
330
477
100
AcDbEntity
  8
DIM
100
AcDbLine
 10
113.1468472341983
 20
248.3713096290557
 30
0.0
 11
99.75114357441981
 21
248.3713096290557
 31
0.0
  0
LINE
  5
A19
330
477
100
AcDbEntity
  8
DIM
100
AcDbLine
 10
113.1468472341983
 20
190.3713096290556
 30
0.0
 11
99.75114357441981
 21
190.3713096290556
 31
0.0
  0
LINE
  5
A1A
330
477
100
AcDbEntity
  8
DIM
100
AcDbLine
 10
100.7111435744198
 20
245.9713096290556
 30
0.0
 11
100.7111435744198
 21
192.7713096290556
 31
0.0
  0
SOLID
  5
A1B
330
477
100
AcDbEntity
  8
DIM
100
AcDbTrace
 10
100.3111435744198
 20
245.9713096290556
 30
0.0
 11
101.1111435744198
 21
245.9713096290556
 31
0.0
 12
100.7111435744198
 22
248.3713096290557
 32
0.0
 13
100.7111435744198
 23
248.3713096290557
 33
0.0
  0
SOLID
  5
A1C
330
477
100
AcDbEntity
  8
DIM
100
AcDbTrace
 10
100.3111435744198
 20
192.7713096290556
 30
0.0
 11
101.1111435744198
 21
192.7713096290556
 31
0.0
 12
100.7111435744198
 22
190.3713096290556
 32
0.0
 13
100.7111435744198
 23
190.3713096290556
 33
0.0
  0
MTEXT
  5
A1D
330
477
100
AcDbEntity
  8
DIM
100
AcDbMText
 10
98.87114357441976
 20
219.3713096290557
 30
0.0
 40
2.4
 41
0.0
 71
     5
 72
     1
  1
\A1;58
 11
0.0000000000000001
 21
1.0
 31
0.0
 73
     1
 44
1.0
1001
ACAD
1000
MTEXTBEGIN
1070
    73
1070
     1
1070
    44
1040
1.0
1070
    74
1070
     0
1000
MTEXTEND
  0
POINT
  5
A1E
330
477
100
AcDbEntity
  8
DEFPOINTS
 62
     0
100
AcDbPoint
 10
113.7868472341983
 20
248.3713096290557
 30
0.0
  0
POINT
  5
A1F
330
477
100
AcDbEntity
  8
DEFPOINTS
 62
     0
100
AcDbPoint
 10
113.7868472341983
 20
190.3713096290556
 30
0.0
  0
POINT
  5
A20
330
477
100
AcDbEntity
  8
DEFPOINTS
 62
     0
100
AcDbPoint
 10
100.7111435744198
 20
190.3713096290556
 30
0.0
  0
ENDBLK
  5
482
330
477
100
AcDbEntity
  8
0
100
AcDbBlockEnd
  0
BLOCK
  5
48D
330
483
100
AcDbEntity
  8
0
100
AcDbBlockBegin
  2
*D5
 70
     1
 10
0.0
 20
0.0
 30
0.0
  3
*D5
  1

  0
LINE
  5
A8F
330
483
100
AcDbEntity
  8
DIM
100
AcDbLine
 10
127.5268472341983
 20
241.8713096290556
 30
0.0
 11
141.8780697184661
 21
241.8713096290556
 31
0.0
  0
LINE
  5
A90
330
483
100
AcDbEntity
  8
DIM
100
AcDbLine
 10
127.5268472341983
 20
196.8713096290556
 30
0.0
 11
141.8780697184661
 21
196.8713096290556
 31
0.0
  0
LINE
  5
A91
330
483
100
AcDbEntity
  8
DIM
100
AcDbLine
 10
140.9180697184661
 20
239.4713096290556
 30
0.0
 11
140.9180697184661
 21
199.2713096290556
 31
0.0
  0
SOLID
  5
A92
330
483
100
AcDbEntity
  8
DIM
100
AcDbTrace
 10
140.518069718466
 20
239.4713096290556
 30
0.0
 11
141.3180697184661
 21
239.4713096290556
 31
0.0
 12
140.9180697184661
 22
241.8713096290556
 32
0.0
 13
140.9180697184661
 23
241.8713096290556
 33
0.0
  0
SOLID
  5
A93
330
483
100
AcDbEntity
  8
DIM
100
AcDbTrace
 10
140.518069718466
 20
199.2713096290556
 30
0.0
 11
141.3180697184661
 21
199.2713096290556
 31
0.0
 12
140.9180697184661
 22
196.8713096290556
 32
0.0
 13
140.9180697184661
 23
196.8713096290556
 33
0.0
  0
MTEXT
  5
A94
330
483
100
AcDbEntity
  8
DIM
100
AcDbMText
 10
139.078069718466
 20
219.3713096290557
 30
0.0
 40
2.4
 41
0.0
 71
     5
 72
     1
  1
\A1;45{\H1.440000;±0.2}
 11
0.0000000000000001
 21
1.0
 31
0.0
 73
     1
 44
1.0
1001
ACAD
1000
MTEXTBEGIN
1070
    73
1070
     1
1070
    44
1040
1.0
1070
    74
1070
     0
1000
MTEXTEND
  0
POINT
  5
A95
330
483
100
AcDbEntity
  8
DEFPOINTS
 62
     0
100
AcDbPoint
 10
126.8868472341983
 20
241.8713096290556
 30
0.0
  0
POINT
  5
A96
330
483
100
AcDbEntity
  8
DEFPOINTS
 62
     0
100
AcDbPoint
 10
126.8868472341983
 20
196.8713096290556
 30
0.0
  0
POINT
  5
A97
330
483
100
AcDbEntity
  8
DEFPOINTS
 62
     0
100
AcDbPoint
 10
140.9180697184661
 20
196.8713096290556
 30
0.0
  0
ENDBLK
  5
48E
330
483
100
AcDbEntity
  8
0
100
AcDbBlockEnd
  0
BLOCK
  5
499
330
48F
100
AcDbEntity
  8
0
100
AcDbBlockBegin
  2
*D6
 70
     1
 10
0.0
 20
0.0
 30
0.0
  3
*D6
  1

  0
LINE
  5
A2A
330
48F
100
AcDbEntity
  8
DIM
100
AcDbLine
 10
132.2868472341983
 20
190.7313096290556
 30
0.0
 11
132.2868472341983
 21
181.5841310554174
 31
0.0
  0
LINE
  5
A2B
330
48F
100
AcDbEntity
  8
DIM
100
AcDbLine
 10
123.2868472341983
 20
196.2313096290556
 30
0.0
 11
123.2868472341983
 21
181.5841310554174
 31
0.0
  0
LINE
  5
A2C
330
48F
100
AcDbEntity
  8
DIM
100
AcDbLine
 10
129.8868472341983
 20
182.5441310554174
 30
0.0
 11
125.6868472341983
 21
182.5441310554174
 31
0.0
  0
SOLID
  5
A2D
330
48F
100
AcDbEntity
  8
DIM
100
AcDbTrace
 10
129.8868472341983
 20
182.9441310554174
 30
0.0
 11
129.8868472341983
 21
182.1441310554174
 31
0.0
 12
132.2868472341983
 22
182.5441310554174
 32
0.0
 13
132.2868472341983
 23
182.5441310554174
 33
0.0
  0
SOLID
  5
A2E
330
48F
100
AcDbEntity
  8
DIM
100
AcDbTrace
 10
125.6868472341983
 20
182.9441310554174
 30
0.0
 11
125.6868472341983
 21
182.1441310554174
 31
0.0
 12
123.2868472341983
 22
182.5441310554174
 32
0.0
 13
123.2868472341983
 23
182.5441310554174
 33
0.0
  0
MTEXT
  5
A2F
330
48F
100
AcDbEntity
  8
DIM
100
AcDbMText
 10
127.7868472341983
 20
184.3841310554174
 30
0.0
 40
2.4
 41
0.0
 71
     5
 72
     1
  1
\A1;9
 73
     1
 44
1.0
1001
ACAD
1000
MTEXTBEGIN
1070
    73
1070
     1
1070
    44
1040
1.0
1070
    74
1070
     0
1000
MTEXTEND
  0
POINT
  5
A30
330
48F
100
AcDbEntity
  8
DEFPOINTS
 62
     0
100
AcDbPoint
 10
132.2868472341983
 20
191.3713096290556
 30
0.0
  0
POINT
  5
A31
330
48F
100
AcDbEntity
  8
DEFPOINTS
 62
     0
100
AcDbPoint
 10
123.2868472341983
 20
196.8713096290556
 30
0.0
  0
POINT
  5
A32
330
48F
100
AcDbEntity
  8
DEFPOINTS
 62
     0
100
AcDbPoint
 10
123.2868472341983
 20
182.5441310554174
 30
0.0
  0
ENDBLK
  5
49A
330
48F
100
AcDbEntity
  8
0
100
AcDbBlockEnd
  0
BLOCK
  5
4A7
330
49B
100
AcDbEntity
  8
0
100
AcDbBlockBegin
  2
*D7
 70
     1
 10
0.0
 20
0.0
 30
0.0
  3
*D7
  1

  0
LINE
  5
5BA
330
49B
100
AcDbEntity
  8
DIM
100
AcDbLine
 10
192.30104622782
 20
242.5113096290556
 30
0.0
 11
192.30104622782
 21
257.4573771011732
 31
0.0
  0
LINE
  5
5BB
330
49B
100
AcDbEntity
  8
DIM
100
AcDbLine
 10
187.30104622782
 20
248.0113096290556
 30
0.0
 11
187.30104622782
 21
257.4573771011732
 31
0.0
  0
LINE
  5
5BC
330
49B
100
AcDbEntity
  8
DIM
100
AcDbLine
 10
194.70104622782
 20
256.4973771011732
 30
0.0
 11
197.1010462278201
 21
256.4973771011732
 31
0.0
  0
LINE
  5
5BD
330
49B
100
AcDbEntity
  8
DIM
100
AcDbLine
 10
184.90104622782
 20
256.4973771011732
 30
0.0
 11
182.50104622782
 21
256.4973771011732
 31
0.0
  0
LINE
  5
5BE
330
49B
100
AcDbEntity
  8
DIM
100
AcDbLine
 10
192.30104622782
 20
256.4973771011732
 30
0.0
 11
187.30104622782
 21
256.4973771011732
 31
0.0
  0
SOLID
  5
5BF
330
49B
100
AcDbEntity
  8
DIM
100
AcDbTrace
 10
194.70104622782
 20
256.8973771011732
 30
0.0
 11
194.70104622782
 21
256.0973771011733
 31
0.0
 12
192.30104622782
 22
256.4973771011732
 32
0.0
 13
192.30104622782
 23
256.4973771011732
 33
0.0
  0
SOLID
  5
5C0
330
49B
100
AcDbEntity
  8
DIM
100
AcDbTrace
 10
184.90104622782
 20
256.8973771011732
 30
0.0
 11
184.90104622782
 21
256.0973771011733
 31
0.0
 12
187.30104622782
 22
256.4973771011732
 32
0.0
 13
187.30104622782
 23
256.4973771011732
 33
0.0
  0
MTEXT
  5
5C1
330
49B
100
AcDbEntity
  8
DIM
100
AcDbMText
 10
189.80104622782
 20
258.3373771011732
 30
0.0
 40
2.4
 41
0.0
 71
     5
 72
     5
  1
\A1;5
 73
     1
 44
1.0
1001
ACAD
1000
MTEXTBEGIN
1070
    73
1070
     1
1070
    44
1040
1.0
1070
    74
1070
     0
1000
MTEXTEND
  0
POINT
  5
5C2
330
49B
100
AcDbEntity
  8
DEFPOINTS
 62
     0
100
AcDbPoint
 10
192.30104622782
 20
241.8713096290556
 30
0.0
  0
POINT
  5
5C3
330
49B
100
AcDbEntity
  8
DEFPOINTS
 62
     0
100
AcDbPoint
 10
187.30104622782
 20
247.3713096290556
 30
0.0
  0
POINT
  5
5C4
330
49B
100
AcDbEntity
  8
DEFPOINTS
 62
     0
100
AcDbPoint
 10
187.30104622782
 20
256.4973771011732
 30
0.0
  0
ENDBLK
  5
4A8
330
49B
100
AcDbEntity
  8
0
100
AcDbBlockEnd
  0
BLOCK
  5
4B3
330
4A9
100
AcDbEntity
  8
0
100
AcDbBlockBegin
  2
*D8
 70
     1
 10
0.0
 20
0.0
 30
0.0
  3
*D8
  1

  0
LINE
  5
5C5
330
4A9
100
AcDbEntity
  8
DIM
100
AcDbLine
 10
197.30104622782
 20
248.0113096290556
 30
0.0
 11
197.30104622782
 21
262.6136880525443
 31
0.0
  0
LINE
  5
5C6
330
4A9
100
AcDbEntity
  8
DIM
100
AcDbLine
 10
187.30104622782
 20
248.0113096290556
 30
0.0
 11
187.30104622782
 21
262.6136880525443
 31
0.0
  0
LINE
  5
5C7
330
4A9
100
AcDbEntity
  8
DIM
100
AcDbLine
 10
194.90104622782
 20
261.6536880525444
 30
0.0
 11
189.7010462278201
 21
261.6536880525444
 31
0.0
  0
SOLID
  5
5C8
330
4A9
100
AcDbEntity
  8
DIM
100
AcDbTrace
 10
194.90104622782
 20
262.0536880525443
 30
0.0
 11
194.90104622782
 21
261.2536880525444
 31
0.0
 12
197.30104622782
 22
261.6536880525444
 32
0.0
 13
197.30104622782
 23
261.6536880525444
 33
0.0
  0
SOLID
  5
5C9
330
4A9
100
AcDbEntity
  8
DIM
100
AcDbTrace
 10
189.7010462278201
 20
262.0536880525443
 30
0.0
 11
189.7010462278201
 21
261.2536880525444
 31
0.0
 12
187.30104622782
 22
261.6536880525444
 32
0.0
 13
187.30104622782
 23
261.6536880525444
 33
0.0
  0
MTEXT
  5
5CA
330
4A9
100
AcDbEntity
  8
DIM
100
AcDbMText
 10
192.30104622782
 20
263.4936880525443
 30
0.0
 40
2.4
 41
0.0
 71
     5
 72
     5
  1
\A1;10
 73
     1
 44
1.0
1001
ACAD
1000
MTEXTBEGIN
1070
    73
1070
     1
1070
    44
1040
1.0
1070
    74
1070
     0
1000
MTEXTEND
  0
POINT
  5
5CB
330
4A9
100
AcDbEntity
  8
DEFPOINTS
 62
     0
100
AcDbPoint
 10
197.30104622782
 20
247.3713096290556
 30
0.0
  0
POINT
  5
5CC
330
4A9
100
AcDbEntity
  8
DEFPOINTS
 62
     0
100
AcDbPoint
 10
187.30104622782
 20
247.3713096290556
 30
0.0
  0
POINT
  5
5CD
330
4A9
100
AcDbEntity
  8
DEFPOINTS
 62
     0
100
AcDbPoint
 10
187.30104622782
 20
261.6536880525444
 30
0.0
  0
ENDBLK
  5
4B4
330
4A9
100
AcDbEntity
  8
0
100
AcDbBlockEnd
  0
BLOCK
  5
4BF
330
4B5
100
AcDbEntity
  8
0
100
AcDbBlockBegin
  2
*D9
 70
     1
 10
0.0
 20
0.0
 30
0.0
  3
*D9
  1

  0
LINE
  5
5CE
330
4B5
100
AcDbEntity
  8
DIM
100
AcDbLine
 10
197.30104622782
 20
248.0113096290556
 30
0.0
 11
197.30104622782
 21
262.6136880525443
 31
0.0
  0
LINE
  5
5CF
330
4B5
100
AcDbEntity
  8
DIM
100
AcDbLine
 10
206.30104622782
 20
249.0113096290556
 30
0.0
 11
206.30104622782
 21
262.6136880525443
 31
0.0
  0
LINE
  5
5D0
330
4B5
100
AcDbEntity
  8
DIM
100
AcDbLine
 10
199.70104622782
 20
261.6536880525444
 30
0.0
 11
203.90104622782
 21
261.6536880525444
 31
0.0
  0
SOLID
  5
5D1
330
4B5
100
AcDbEntity
  8
DIM
100
AcDbTrace
 10
199.70104622782
 20
262.0536880525443
 30
0.0
 11
199.70104622782
 21
261.2536880525444
 31
0.0
 12
197.30104622782
 22
261.6536880525444
 32
0.0
 13
197.30104622782
 23
261.6536880525444
 33
0.0
  0
SOLID
  5
5D2
330
4B5
100
AcDbEntity
  8
DIM
100
AcDbTrace
 10
203.90104622782
 20
262.0536880525443
 30
0.0
 11
203.90104622782
 21
261.2536880525444
 31
0.0
 12
206.30104622782
 22
261.6536880525444
 32
0.0
 13
206.30104622782
 23
261.6536880525444
 33
0.0
  0
MTEXT
  5
5D3
330
4B5
100
AcDbEntity
  8
DIM
100
AcDbMText
 10
201.80104622782
 20
263.4936880525443
 30
0.0
 40
2.4
 41
0.0
 71
     5
 72
     5
  1
\A1;9
 73
     1
 44
1.0
1001
ACAD
1000
MTEXTBEGIN
1070
    73
1070
     1
1070
    44
1040
1.0
1070
    74
1070
     0
1000
MTEXTEND
  0
POINT
  5
5D4
330
4B5
100
AcDbEntity
  8
DEFPOINTS
 62
     0
100
AcDbPoint
 10
197.30104622782
 20
247.3713096290556
 30
0.0
  0
POINT
  5
5D5
330
4B5
100
AcDbEntity
  8
DEFPOINTS
 62
     0
100
AcDbPoint
 10
206.30104622782
 20
248.3713096290557
 30
0.0
  0
POINT
  5
5D6
330
4B5
100
AcDbEntity
  8
DEFPOINTS
 62
     0
100
AcDbPoint
 10
206.30104622782
 20
261.6536880525444
 30
0.0
  0
ENDBLK
  5
4C0
330
4B5
100
AcDbEntity
  8
0
100
AcDbBlockEnd
  0
BLOCK
  5
4CB
330
4C1
100
AcDbEntity
  8
0
100
AcDbBlockBegin
  2
*D10
 70
     1
 10
0.0
 20
0.0
 30
0.0
  3
*D10
  1

  0
LINE
  5
5D7
330
4C1
100
AcDbEntity
  8
DIM
100
AcDbLine
 10
206.30104622782
 20
249.0113096290556
 30
0.0
 11
206.30104622782
 21
257.4573771011732
 31
0.0
  0
LINE
  5
5D8
330
4C1
100
AcDbEntity
  8
DIM
100
AcDbLine
 10
236.3010462278201
 20
220.0113096290557
 30
0.0
 11
236.3010462278201
 21
257.4573771011732
 31
0.0
  0
LINE
  5
5D9
330
4C1
100
AcDbEntity
  8
DIM
100
AcDbLine
 10
208.70104622782
 20
256.4973771011732
 30
0.0
 11
233.9010462278201
 21
256.4973771011732
 31
0.0
  0
SOLID
  5
5DA
330
4C1
100
AcDbEntity
  8
DIM
100
AcDbTrace
 10
208.70104622782
 20
256.8973771011732
 30
0.0
 11
208.70104622782
 21
256.0973771011733
 31
0.0
 12
206.30104622782
 22
256.4973771011732
 32
0.0
 13
206.30104622782
 23
256.4973771011732
 33
0.0
  0
SOLID
  5
5DB
330
4C1
100
AcDbEntity
  8
DIM
100
AcDbTrace
 10
233.9010462278201
 20
256.8973771011732
 30
0.0
 11
233.9010462278201
 21
256.0973771011733
 31
0.0
 12
236.3010462278201
 22
256.4973771011732
 32
0.0
 13
236.3010462278201
 23
256.4973771011732
 33
0.0
  0
MTEXT
  5
5DC
330
4C1
100
AcDbEntity
  8
DIM
100
AcDbMText
 10
221.3010462278201
 20
258.3373771011732
 30
0.0
 40
2.4
 41
0.0
 71
     5
 72
     5
  1
\A1;30
 73
     1
 44
1.0
1001
ACAD
1000
MTEXTBEGIN
1070
    73
1070
     1
1070
    44
1040
1.0
1070
    74
1070
     0
1000
MTEXTEND
  0
POINT
  5
5DD
330
4C1
100
AcDbEntity
  8
DEFPOINTS
 62
     0
100
AcDbPoint
 10
206.30104622782
 20
248.3713096290557
 30
0.0
  0
POINT
  5
5DE
330
4C1
100
AcDbEntity
  8
DEFPOINTS
 62
     0
100
AcDbPoint
 10
236.3010462278201
 20
219.3713096290557
 30
0.0
  0
POINT
  5
5DF
330
4C1
100
AcDbEntity
  8
DEFPOINTS
 62
     0
100
AcDbPoint
 10
236.3010462278201
 20
256.4973771011732
 30
0.0
  0
ENDBLK
  5
4CC
330
4C1
100
AcDbEntity
  8
0
100
AcDbBlockEnd
  0
BLOCK
  5
4D7
330
4CD
100
AcDbEntity
  8
0
100
AcDbBlockBegin
  2
*D11
 70
     1
 10
0.0
 20
0.0
 30
0.0
  3
*D11
  1

  0
LINE
  5
5E0
330
4CD
100
AcDbEntity
  8
DIM
100
AcDbLine
 10
236.3010462278201
 20
220.0113096290557
 30
0.0
 11
236.3010462278201
 21
257.4573771011732
 31
0.0
  0
LINE
  5
5E1
330
4CD
100
AcDbEntity
  8
DIM
100
AcDbLine
 10
261.3010462278201
 20
220.0113096290557
 30
0.0
 11
261.3010462278201
 21
257.4573771011732
 31
0.0
  0
LINE
  5
5E2
330
4CD
100
AcDbEntity
  8
DIM
100
AcDbLine
 10
238.7010462278201
 20
256.4973771011732
 30
0.0
 11
258.9010462278201
 21
256.4973771011732
 31
0.0
  0
SOLID
  5
5E3
330
4CD
100
AcDbEntity
  8
DIM
100
AcDbTrace
 10
238.7010462278201
 20
256.8973771011732
 30
0.0
 11
238.7010462278201
 21
256.0973771011733
 31
0.0
 12
236.3010462278201
 22
256.4973771011732
 32
0.0
 13
236.3010462278201
 23
256.4973771011732
 33
0.0
  0
SOLID
  5
5E4
330
4CD
100
AcDbEntity
  8
DIM
100
AcDbTrace
 10
258.9010462278201
 20
256.8973771011732
 30
0.0
 11
258.9010462278201
 21
256.0973771011733
 31
0.0
 12
261.3010462278201
 22
256.4973771011732
 32
0.0
 13
261.3010462278201
 23
256.4973771011732
 33
0.0
  0
MTEXT
  5
5E5
330
4CD
100
AcDbEntity
  8
DIM
100
AcDbMText
 10
248.8010462278201
 20
258.3373771011732
 30
0.0
 40
2.4
 41
0.0
 71
     5
 72
     5
  1
\A1;25
 73
     1
 44
1.0
1001
ACAD
1000
MTEXTBEGIN
1070
    73
1070
     1
1070
    44
1040
1.0
1070
    74
1070
     0
1000
MTEXTEND
  0
POINT
  5
5E6
330
4CD
100
AcDbEntity
  8
DEFPOINTS
 62
     0
100
AcDbPoint
 10
236.3010462278201
 20
219.3713096290557
 30
0.0
  0
POINT
  5
5E7
330
4CD
100
AcDbEntity
  8
DEFPOINTS
 62
     0
100
AcDbPoint
 10
261.3010462278201
 20
219.3713096290557
 30
0.0
  0
POINT
  5
5E8
330
4CD
100
AcDbEntity
  8
DEFPOINTS
 62
     0
100
AcDbPoint
 10
261.3010462278201
 20
256.4973771011732
 30
0.0
  0
ENDBLK
  5
4D8
330
4CD
100
AcDbEntity
  8
0
100
AcDbBlockEnd
  0
BLOCK
  5
4E3
330
4D9
100
AcDbEntity
  8
0
100
AcDbBlockBegin
  2
*D12
 70
     1
 10
0.0
 20
0.0
 30
0.0
  3
*D12
  1

  0
LINE
  5
5E9
330
4D9
100
AcDbEntity
  8
DIM
100
AcDbLine
 10
206.30104622782
 20
249.0113096290556
 30
0.0
 11
206.30104622782
 21
262.6136880525443
 31
0.0
  0
LINE
  5
5EA
330
4D9
100
AcDbEntity
  8
DIM
100
AcDbLine
 10
276.3010462278201
 20
249.0113096290556
 30
0.0
 11
276.3010462278201
 21
262.6136880525443
 31
0.0
  0
LINE
  5
5EB
330
4D9
100
AcDbEntity
  8
DIM
100
AcDbLine
 10
208.70104622782
 20
261.6536880525444
 30
0.0
 11
273.9010462278201
 21
261.6536880525444
 31
0.0
  0
SOLID
  5
5EC
330
4D9
100
AcDbEntity
  8
DIM
100
AcDbTrace
 10
208.70104622782
 20
262.0536880525443
 30
0.0
 11
208.70104622782
 21
261.2536880525444
 31
0.0
 12
206.30104622782
 22
261.6536880525444
 32
0.0
 13
206.30104622782
 23
261.6536880525444
 33
0.0
  0
SOLID
  5
5ED
330
4D9
100
AcDbEntity
  8
DIM
100
AcDbTrace
 10
273.9010462278201
 20
262.0536880525443
 30
0.0
 11
273.9010462278201
 21
261.2536880525444
 31
0.0
 12
276.3010462278201
 22
261.6536880525444
 32
0.0
 13
276.3010462278201
 23
261.6536880525444
 33
0.0
  0
MTEXT
  5
5EE
330
4D9
100
AcDbEntity
  8
DIM
100
AcDbMText
 10
241.30104622782
 20
263.4936880525443
 30
0.0
 40
2.4
 41
0.0
 71
     5
 72
     5
  1
\A1;70
 73
     1
 44
1.0
1001
ACAD
1000
MTEXTBEGIN
1070
    73
1070
     1
1070
    44
1040
1.0
1070
    74
1070
     0
1000
MTEXTEND
  0
POINT
  5
5EF
330
4D9
100
AcDbEntity
  8
DEFPOINTS
 62
     0
100
AcDbPoint
 10
206.30104622782
 20
248.3713096290557
 30
0.0
  0
POINT
  5
5F0
330
4D9
100
AcDbEntity
  8
DEFPOINTS
 62
     0
100
AcDbPoint
 10
276.3010462278201
 20
248.3713096290557
 30
0.0
  0
POINT
  5
5F1
330
4D9
100
AcDbEntity
  8
DEFPOINTS
 62
     0
100
AcDbPoint
 10
276.3010462278201
 20
261.6536880525444
 30
0.0
  0
ENDBLK
  5
4E4
330
4D9
100
AcDbEntity
  8
0
100
AcDbBlockEnd
  0
BLOCK
  5
4EF
330
4E5
100
AcDbEntity
  8
0
100
AcDbBlockBegin
  2
*D13
 70
     1
 10
0.0
 20
0.0
 30
0.0
  3
*D13
  1

  0
LINE
  5
5F2
330
4E5
100
AcDbEntity
  8
DIM
100
AcDbLine
 10
187.30104622782
 20
248.0113096290556
 30
0.0
 11
187.30104622782
 21
268.0564599734195
 31
0.0
  0
LINE
  5
5F3
330
4E5
100
AcDbEntity
  8
DIM
100
AcDbLine
 10
276.3010462278201
 20
249.0113096290556
 30
0.0
 11
276.3010462278201
 21
268.0564599734195
 31
0.0
  0
LINE
  5
5F4
330
4E5
100
AcDbEntity
  8
DIM
100
AcDbLine
 10
189.7010462278201
 20
267.0964599734195
 30
0.0
 11
273.9010462278201
 21
267.0964599734195
 31
0.0
  0
SOLID
  5
5F5
330
4E5
100
AcDbEntity
  8
DIM
100
AcDbTrace
 10
189.7010462278201
 20
267.4964599734195
 30
0.0
 11
189.7010462278201
 21
266.6964599734196
 31
0.0
 12
187.30104622782
 22
267.0964599734195
 32
0.0
 13
187.30104622782
 23
267.0964599734195
 33
0.0
  0
SOLID
  5
5F6
330
4E5
100
AcDbEntity
  8
DIM
100
AcDbTrace
 10
273.9010462278201
 20
267.4964599734195
 30
0.0
 11
273.9010462278201
 21
266.6964599734196
 31
0.0
 12
276.3010462278201
 22
267.0964599734195
 32
0.0
 13
276.3010462278201
 23
267.0964599734195
 33
0.0
  0
MTEXT
  5
5F7
330
4E5
100
AcDbEntity
  8
DIM
100
AcDbMText
 10
231.8010462278201
 20
268.9364599734195
 30
0.0
 40
2.4
 41
0.0
 71
     5
 72
     5
  1
\A1;89
 73
     1
 44
1.0
1001
ACAD
1000
MTEXTBEGIN
1070
    73
1070
     1
1070
    44
1040
1.0
1070
    74
1070
     0
1000
MTEXTEND
  0
POINT
  5
5F8
330
4E5
100
AcDbEntity
  8
DEFPOINTS
 62
     0
100
AcDbPoint
 10
187.30104622782
 20
247.3713096290556
 30
0.0
  0
POINT
  5
5F9
330
4E5
100
AcDbEntity
  8
DEFPOINTS
 62
     0
100
AcDbPoint
 10
276.3010462278201
 20
248.3713096290557
 30
0.0
  0
POINT
  5
5FA
330
4E5
100
AcDbEntity
  8
DEFPOINTS
 62
     0
100
AcDbPoint
 10
276.3010462278201
 20
267.0964599734195
 30
0.0
  0
ENDBLK
  5
4F0
330
4E5
100
AcDbEntity
  8
0
100
AcDbBlockEnd
  0
BLOCK
  5
4FB
330
4F1
100
AcDbEntity
  8
0
100
AcDbBlockBegin
  2
*D14
 70
     1
 10
0.0
 20
0.0
 30
0.0
  3
*D14
  1

  0
LINE
  5
5FB
330
4F1
100
AcDbEntity
  8
DIM
100
AcDbLine
 10
191.66104622782
 20
241.8713096290557
 30
0.0
 11
172.0125677453016
 21
241.8713096290557
 31
0.0
  0
LINE
  5
5FC
330
4F1
100
AcDbEntity
  8
DIM
100
AcDbLine
 10
191.66104622782
 20
196.8713096290557
 30
0.0
 11
172.0125677453016
 21
196.8713096290557
 31
0.0
  0
LINE
  5
5FD
330
4F1
100
AcDbEntity
  8
DIM
100
AcDbLine
 10
172.9725677453016
 20
239.4713096290557
 30
0.0
 11
172.9725677453016
 21
199.2713096290557
 31
0.0
  0
SOLID
  5
5FE
330
4F1
100
AcDbEntity
  8
DIM
100
AcDbTrace
 10
172.5725677453016
 20
239.4713096290557
 30
0.0
 11
173.3725677453016
 21
239.4713096290557
 31
0.0
 12
172.9725677453016
 22
241.8713096290557
 32
0.0
 13
172.9725677453016
 23
241.8713096290557
 33
0.0
  0
SOLID
  5
5FF
330
4F1
100
AcDbEntity
  8
DIM
100
AcDbTrace
 10
172.5725677453016
 20
199.2713096290557
 30
0.0
 11
173.3725677453016
 21
199.2713096290557
 31
0.0
 12
172.9725677453016
 22
196.8713096290557
 32
0.0
 13
172.9725677453016
 23
196.8713096290557
 33
0.0
  0
MTEXT
  5
600
330
4F1
100
AcDbEntity
  8
DIM
100
AcDbMText
 10
171.1325677453015
 20
219.3713096290557
 30
0.0
 40
2.4
 41
0.0
 71
     5
 72
     5
  1
\A1;45
 11
0.0000000000000001
 21
1.0
 31
0.0
 73
     1
 44
1.0
1001
ACAD
1000
MTEXTBEGIN
1070
    73
1070
     1
1070
    44
1040
1.0
1070
    74
1070
     0
1000
MTEXTEND
  0
POINT
  5
601
330
4F1
100
AcDbEntity
  8
DEFPOINTS
 62
     0
100
AcDbPoint
 10
192.30104622782
 20
241.8713096290556
 30
0.0
  0
POINT
  5
602
330
4F1
100
AcDbEntity
  8
DEFPOINTS
 62
     0
100
AcDbPoint
 10
192.30104622782
 20
196.8713096290556
 30
0.0
  0
POINT
  5
603
330
4F1
100
AcDbEntity
  8
DEFPOINTS
 62
     0
100
AcDbPoint
 10
172.9725677453016
 20
196.8713096290557
 30
0.0
  0
ENDBLK
  5
4FC
330
4F1
100
AcDbEntity
  8
0
100
AcDbBlockEnd
  0
BLOCK
  5
507
330
4FD
100
AcDbEntity
  8
0
100
AcDbBlockBegin
  2
*D15
 70
     1
 10
0.0
 20
0.0
 30
0.0
  3
*D15
  1

  0
LINE
  5
604
330
4FD
100
AcDbEntity
  8
DIM
100
AcDbLine
 10
195.6610462278201
 20
202.8713096290557
 30
0.0
 11
178.60510688006
 21
202.8713096290557
 31
0.0
  0
LINE
  5
605
330
4FD
100
AcDbEntity
  8
DIM
100
AcDbLine
 10
195.6610462278201
 20
210.8713096290557
 30
0.0
 11
178.60510688006
 21
210.8713096290557
 31
0.0
  0
LINE
  5
606
330
4FD
100
AcDbEntity
  8
DIM
100
AcDbLine
 10
179.56510688006
 20
205.2713096290557
 30
0.0
 11
179.56510688006
 21
208.4713096290557
 31
0.0
  0
MTEXT
  5
607
330
4FD
100
AcDbEntity
  8
DIM
100
AcDbMText
 10
176.44510688006
 20
206.8713096290557
 30
0.0
 40
2.4
 41
0.0
 71
     5
 72
     5
  1
\A1;2-%%C8
 11
0.0000000000000001
 21
1.0
 31
0.0
 73
     1
 44
1.0
1001
ACAD
1000
MTEXTBEGIN
1070
    73
1070
     1
1070
    44
1040
1.0
1070
    74
1070
     0
1000
MTEXTEND
  0
SOLID
  5
608
330
4FD
100
AcDbEntity
  8
DIM
100
AcDbTrace
 10
179.16510688006
 20
205.2713096290557
 30
0.0
 11
179.96510688006
 21
205.2713096290557
 31
0.0
 12
179.56510688006
 22
202.8713096290557
 32
0.0
 13
179.56510688006
 23
202.8713096290557
 33
0.0
  0
SOLID
  5
609
330
4FD
100
AcDbEntity
  8
DIM
100
AcDbTrace
 10
179.16510688006
 20
208.4713096290557
 30
0.0
 11
179.96510688006
 21
208.4713096290557
 31
0.0
 12
179.56510688006
 22
210.8713096290557
 32
0.0
 13
179.56510688006
 23
210.8713096290557
 33
0.0
  0
POINT
  5
60A
330
4FD
100
AcDbEntity
  8
DEFPOINTS
 62
     0
100
AcDbPoint
 10
196.30104622782
 20
202.8713096290557
 30
0.0
  0
POINT
  5
60B
330
4FD
100
AcDbEntity
  8
DEFPOINTS
 62
     0
100
AcDbPoint
 10
196.30104622782
 20
210.8713096290557
 30
0.0
  0
POINT
  5
60C
330
4FD
100
AcDbEntity
  8
DEFPOINTS
 62
     0
100
AcDbPoint
 10
179.56510688006
 20
210.8713096290557
 30
0.0
  0
ENDBLK
  5
508
330
4FD
100
AcDbEntity
  8
0
100
AcDbBlockEnd
  0
BLOCK
  5
513
330
509
100
AcDbEntity
  8
0
100
AcDbBlockBegin
  2
*D16
 70
     1
 10
0.0
 20
0.0
 30
0.0
  3
*D16
  1

  0
LINE
  5
9E7
330
509
100
AcDbEntity
  8
DIM
100
AcDbLine
 10
332.3477694077703
 20
206.8713096290557
 30
0.0
 11
313.6890399981526
 21
206.8713096290557
 31
0.0
  0
LINE
  5
9E8
330
509
100
AcDbEntity
  8
DIM
100
AcDbLine
 10
332.3477694077703
 20
231.8713096290557
 30
0.0
 11
313.6890399981526
 21
231.8713096290557
 31
0.0
  0
LINE
  5
9E9
330
509
100
AcDbEntity
  8
DIM
100
AcDbLine
 10
314.6490399981526
 20
209.2713096290557
 30
0.0
 11
314.6490399981526
 21
229.4713096290557
 31
0.0
  0
SOLID
  5
9EA
330
509
100
AcDbEntity
  8
DIM
100
AcDbTrace
 10
314.2490399981526
 20
209.2713096290557
 30
0.0
 11
315.0490399981526
 21
209.2713096290557
 31
0.0
 12
314.6490399981526
 22
206.8713096290557
 32
0.0
 13
314.6490399981526
 23
206.8713096290557
 33
0.0
  0
SOLID
  5
9EB
330
509
100
AcDbEntity
  8
DIM
100
AcDbTrace
 10
314.2490399981526
 20
229.4713096290557
 30
0.0
 11
315.0490399981526
 21
229.4713096290557
 31
0.0
 12
314.6490399981526
 22
231.8713096290557
 32
0.0
 13
314.6490399981526
 23
231.8713096290557
 33
0.0
  0
MTEXT
  5
9EC
330
509
100
AcDbEntity
  8
DIM
100
AcDbMText
 10
312.8090399981526
 20
219.3713096290557
 30
0.0
 40
2.4
 41
0.0
 71
     5
 72
     1
  1
\A1;25
 11
0.0000000000000001
 21
1.0
 31
0.0
 73
     1
 44
1.0
1001
ACAD
1000
MTEXTBEGIN
1070
    73
1070
     1
1070
    44
1040
1.0
1070
    74
1070
     0
1000
MTEXTEND
  0
POINT
  5
9ED
330
509
100
AcDbEntity
  8
DEFPOINTS
 62
     0
100
AcDbPoint
 10
332.9877694077703
 20
206.8713096290557
 30
0.0
  0
POINT
  5
9EE
330
509
100
AcDbEntity
  8
DEFPOINTS
 62
     0
100
AcDbPoint
 10
332.9877694077703
 20
231.8713096290557
 30
0.0
  0
POINT
  5
9EF
330
509
100
AcDbEntity
  8
DEFPOINTS
 62
     0
100
AcDbPoint
 10
314.6490399981526
 20
231.8713096290557
 30
0.0
  0
ENDBLK
  5
514
330
509
100
AcDbEntity
  8
0
100
AcDbBlockEnd
  0
BLOCK
  5
51F
330
515
100
AcDbEntity
  8
0
100
AcDbBlockBegin
  2
*D17
 70
     1
 10
0.0
 20
0.0
 30
0.0
  3
*D17
  1

  0
LINE
  5
A33
330
515
100
AcDbEntity
  8
DIM
100
AcDbLine
 10
236.3010462278201
 20
140.6842883333531
 30
0.0
 11
236.3010462278201
 21
159.0240534152131
 31
0.0
  0
LINE
  5
A34
330
515
100
AcDbEntity
  8
DIM
100
AcDbLine
 10
206.30104622782
 20
150.6842883333531
 30
0.0
 11
206.30104622782
 21
159.0240534152131
 31
0.0
  0
LINE
  5
A35
330
515
100
AcDbEntity
  8
DIM
100
AcDbLine
 10
233.9010462278201
 20
158.0640534152131
 30
0.0
 11
208.70104622782
 21
158.0640534152131
 31
0.0
  0
SOLID
  5
A36
330
515
100
AcDbEntity
  8
DIM
100
AcDbTrace
 10
233.9010462278201
 20
158.4640534152131
 30
0.0
 11
233.9010462278201
 21
157.6640534152131
 31
0.0
 12
236.3010462278201
 22
158.0640534152131
 32
0.0
 13
236.3010462278201
 23
158.0640534152131
 33
0.0
  0
SOLID
  5
A37
330
515
100
AcDbEntity
  8
DIM
100
AcDbTrace
 10
208.70104622782
 20
158.4640534152131
 30
0.0
 11
208.70104622782
 21
157.6640534152131
 31
0.0
 12
206.30104622782
 22
158.0640534152131
 32
0.0
 13
206.30104622782
 23
158.0640534152131
 33
0.0
  0
MTEXT
  5
A38
330
515
100
AcDbEntity
  8
DIM
100
AcDbMText
 10
221.3010462278201
 20
159.9040534152131
 30
0.0
 40
2.4
 41
0.0
 71
     5
 72
     1
  1
\A1;30
 73
     1
 44
1.0
1001
ACAD
1000
MTEXTBEGIN
1070
    73
1070
     1
1070
    44
1040
1.0
1070
    74
1070
     0
1000
MTEXTEND
  0
POINT
  5
A39
330
515
100
AcDbEntity
  8
DEFPOINTS
 62
     0
100
AcDbPoint
 10
236.3010462278201
 20
140.0442883333531
 30
0.0
  0
POINT
  5
A3A
330
515
100
AcDbEntity
  8
DEFPOINTS
 62
     0
100
AcDbPoint
 10
206.30104622782
 20
150.0442883333531
 30
0.0
  0
POINT
  5
A3B
330
515
100
AcDbEntity
  8
DEFPOINTS
 62
     0
100
AcDbPoint
 10
206.30104622782
 20
158.0640534152131
 30
0.0
  0
ENDBLK
  5
520
330
515
100
AcDbEntity
  8
0
100
AcDbBlockEnd
  0
BLOCK
  5
52B
330
521
100
AcDbEntity
  8
0
100
AcDbBlockBegin
  2
*D18
 70
     1
 10
0.0
 20
0.0
 30
0.0
  3
*D18
  1

  0
LINE
  5
A3C
330
521
100
AcDbEntity
  8
DIM
100
AcDbLine
 10
236.3010462278201
 20
140.6842883333531
 30
0.0
 11
236.3010462278201
 21
159.0240534152131
 31
0.0
  0
LINE
  5
A3D
330
521
100
AcDbEntity
  8
DIM
100
AcDbLine
 10
261.3010462278201
 20
140.6842883333531
 30
0.0
 11
261.3010462278201
 21
159.0240534152131
 31
0.0
  0
LINE
  5
A3E
330
521
100
AcDbEntity
  8
DIM
100
AcDbLine
 10
238.7010462278201
 20
158.0640534152131
 30
0.0
 11
258.9010462278201
 21
158.0640534152131
 31
0.0
  0
SOLID
  5
A3F
330
521
100
AcDbEntity
  8
DIM
100
AcDbTrace
 10
238.7010462278201
 20
158.4640534152131
 30
0.0
 11
238.7010462278201
 21
157.6640534152131
 31
0.0
 12
236.3010462278201
 22
158.0640534152131
 32
0.0
 13
236.3010462278201
 23
158.0640534152131
 33
0.0
  0
SOLID
  5
A40
330
521
100
AcDbEntity
  8
DIM
100
AcDbTrace
 10
258.9010462278201
 20
158.4640534152131
 30
0.0
 11
258.9010462278201
 21
157.6640534152131
 31
0.0
 12
261.3010462278201
 22
158.0640534152131
 32
0.0
 13
261.3010462278201
 23
158.0640534152131
 33
0.0
  0
MTEXT
  5
A41
330
521
100
AcDbEntity
  8
DIM
100
AcDbMText
 10
248.8010462278201
 20
159.9040534152131
 30
0.0
 40
2.4
 41
0.0
 71
     5
 72
     1
  1
\A1;25
 73
     1
 44
1.0
1001
ACAD
1000
MTEXTBEGIN
1070
    73
1070
     1
1070
    44
1040
1.0
1070
    74
1070
     0
1000
MTEXTEND
  0
POINT
  5
A42
330
521
100
AcDbEntity
  8
DEFPOINTS
 62
     0
100
AcDbPoint
 10
236.3010462278201
 20
140.0442883333531
 30
0.0
  0
POINT
  5
A43
330
521
100
AcDbEntity
  8
DEFPOINTS
 62
     0
100
AcDbPoint
 10
261.3010462278201
 20
140.0442883333531
 30
0.0
  0
POINT
  5
A44
330
521
100
AcDbEntity
  8
DEFPOINTS
 62
     0
100
AcDbPoint
 10
261.3010462278201
 20
158.0640534152131
 30
0.0
  0
ENDBLK
  5
52C
330
521
100
AcDbEntity
  8
0
100
AcDbBlockEnd
  0
BLOCK
  5
537
330
52D
100
AcDbEntity
  8
0
100
AcDbBlockBegin
  2
*D19
 70
     1
 10
0.0
 20
0.0
 30
0.0
  3
*D19
  1

  0
LINE
  5
A45
330
52D
100
AcDbEntity
  8
DIM
100
AcDbLine
 10
206.30104622782
 20
129.4042883333531
 30
0.0
 11
206.30104622782
 21
120.2596986371671
 31
0.0
  0
LINE
  5
A46
330
52D
100
AcDbEntity
  8
DIM
100
AcDbLine
 10
244.8010462278201
 20
139.4042883333531
 30
0.0
 11
244.8010462278201
 21
120.2596986371671
 31
0.0
  0
LINE
  5
A47
330
52D
100
AcDbEntity
  8
DIM
100
AcDbLine
 10
208.70104622782
 20
121.2196986371671
 30
0.0
 11
242.4010462278201
 21
121.2196986371671
 31
0.0
  0
SOLID
  5
A48
330
52D
100
AcDbEntity
  8
DIM
100
AcDbTrace
 10
208.70104622782
 20
121.6196986371671
 30
0.0
 11
208.70104622782
 21
120.8196986371671
 31
0.0
 12
206.30104622782
 22
121.2196986371671
 32
0.0
 13
206.30104622782
 23
121.2196986371671
 33
0.0
  0
SOLID
  5
A49
330
52D
100
AcDbEntity
  8
DIM
100
AcDbTrace
 10
242.4010462278201
 20
121.6196986371671
 30
0.0
 11
242.4010462278201
 21
120.8196986371671
 31
0.0
 12
244.8010462278201
 22
121.2196986371671
 32
0.0
 13
244.8010462278201
 23
121.2196986371671
 33
0.0
  0
MTEXT
  5
A4A
330
52D
100
AcDbEntity
  8
DIM
100
AcDbMText
 10
225.5510462278201
 20
123.0596986371671
 30
0.0
 40
2.4
 41
0.0
 71
     5
 72
     1
  1
\A1;38.5
 73
     1
 44
1.0
1001
ACAD
1000
MTEXTBEGIN
1070
    73
1070
     1
1070
    44
1040
1.0
1070
    74
1070
     0
1000
MTEXTEND
  0
POINT
  5
A4B
330
52D
100
AcDbEntity
  8
DEFPOINTS
 62
     0
100
AcDbPoint
 10
206.30104622782
 20
130.0442883333531
 30
0.0
  0
POINT
  5
A4C
330
52D
100
AcDbEntity
  8
DEFPOINTS
 62
     0
100
AcDbPoint
 10
244.8010462278201
 20
140.0442883333531
 30
0.0
  0
POINT
  5
A4D
330
52D
100
AcDbEntity
  8
DEFPOINTS
 62
     0
100
AcDbPoint
 10
244.8010462278201
 20
121.2196986371671
 30
0.0
  0
ENDBLK
  5
538
330
52D
100
AcDbEntity
  8
0
100
AcDbBlockEnd
  0
BLOCK
  5
543
330
539
100
AcDbEntity
  8
0
100
AcDbBlockBegin
  2
*D20
 70
     1
 10
0.0
 20
0.0
 30
0.0
  3
*D20
  1

  0
LINE
  5
A4E
330
539
100
AcDbEntity
  8
DIM
100
AcDbLine
 10
268.30104622782
 20
139.4042883333531
 30
0.0
 11
268.30104622782
 21
120.2596986371671
 31
0.0
  0
LINE
  5
A4F
330
539
100
AcDbEntity
  8
DIM
100
AcDbLine
 10
276.3010462278201
 20
129.9042883333531
 30
0.0
 11
276.3010462278201
 21
120.2596986371671
 31
0.0
  0
LINE
  5
A50
330
539
100
AcDbEntity
  8
DIM
100
AcDbLine
 10
270.70104622782
 20
121.2196986371671
 30
0.0
 11
273.9010462278201
 21
121.2196986371671
 31
0.0
  0
SOLID
  5
A51
330
539
100
AcDbEntity
  8
DIM
100
AcDbTrace
 10
270.70104622782
 20
121.6196986371671
 30
0.0
 11
270.70104622782
 21
120.8196986371671
 31
0.0
 12
268.30104622782
 22
121.2196986371671
 32
0.0
 13
268.30104622782
 23
121.2196986371671
 33
0.0
  0
SOLID
  5
A52
330
539
100
AcDbEntity
  8
DIM
100
AcDbTrace
 10
273.9010462278201
 20
121.6196986371671
 30
0.0
 11
273.9010462278201
 21
120.8196986371671
 31
0.0
 12
276.3010462278201
 22
121.2196986371671
 32
0.0
 13
276.3010462278201
 23
121.2196986371671
 33
0.0
  0
MTEXT
  5
A53
330
539
100
AcDbEntity
  8
DIM
100
AcDbMText
 10
272.30104622782
 20
123.0596986371671
 30
0.0
 40
2.4
 41
0.0
 71
     5
 72
     1
  1
\A1;8
 73
     1
 44
1.0
1001
ACAD
1000
MTEXTBEGIN
1070
    73
1070
     1
1070
    44
1040
1.0
1070
    74
1070
     0
1000
MTEXTEND
  0
POINT
  5
A54
330
539
100
AcDbEntity
  8
DEFPOINTS
 62
     0
100
AcDbPoint
 10
268.30104622782
 20
140.0442883333531
 30
0.0
  0
POINT
  5
A55
330
539
100
AcDbEntity
  8
DEFPOINTS
 62
     0
100
AcDbPoint
 10
276.3010462278201
 20
130.5442883333531
 30
0.0
  0
POINT
  5
A56
330
539
100
AcDbEntity
  8
DEFPOINTS
 62
     0
100
AcDbPoint
 10
276.3010462278201
 20
121.2196986371671
 30
0.0
  0
ENDBLK
  5
544
330
539
100
AcDbEntity
  8
0
100
AcDbBlockEnd
  0
BLOCK
  5
54F
330
545
100
AcDbEntity
  8
0
100
AcDbBlockBegin
  2
*D21
 70
     1
 10
0.0
 20
0.0
 30
0.0
  3
*D21
  1

  0
LINE
  5
A57
330
545
100
AcDbEntity
  8
DIM
100
AcDbLine
 10
184.4827612540356
 20
140.0442883333531
 30
0.0
 11
181.1148141717683
 21
140.0442883333531
 31
0.0
  0
LINE
  5
A58
330
545
100
AcDbEntity
  8
DIM
100
AcDbLine
 10
205.6610463459359
 20
150.0442874911771
 30
0.0
 11
181.1148141717683
 21
150.0442874911772
 31
0.0
  0
LINE
  5
A59
330
545
100
AcDbEntity
  8
DIM
100
AcDbLine
 10
182.0748141717683
 20
142.4442883333531
 30
0.0
 11
182.0748141717683
 21
147.6442874911771
 31
0.0
  0
SOLID
  5
A5A
330
545
100
AcDbEntity
  8
DIM
100
AcDbTrace
 10
181.6748141717683
 20
142.4442883333531
 30
0.0
 11
182.4748141717684
 21
142.4442883333531
 31
0.0
 12
182.0748141717683
 22
140.0442883333531
 32
0.0
 13
182.0748141717683
 23
140.0442883333531
 33
0.0
  0
SOLID
  5
A5B
330
545
100
AcDbEntity
  8
DIM
100
AcDbTrace
 10
181.6748141717683
 20
147.6442874911771
 30
0.0
 11
182.4748141717684
 21
147.6442874911771
 31
0.0
 12
182.0748141717683
 22
150.0442874911772
 32
0.0
 13
182.0748141717683
 23
150.0442874911772
 33
0.0
  0
MTEXT
  5
A5C
330
545
100
AcDbEntity
  8
DIM
100
AcDbMText
 10
180.2348141717683
 20
145.0442879122652
 30
0.0
 40
2.4
 41
0.0
 71
     5
 72
     1
  1
\A1;10
 11
0.0000000000000001
 21
1.0
 31
0.0
 73
     1
 44
1.0
1001
ACAD
1000
MTEXTBEGIN
1070
    73
1070
     1
1070
    44
1040
1.0
1070
    74
1070
     0
1000
MTEXTEND
  0
POINT
  5
A5D
330
545
100
AcDbEntity
  8
DEFPOINTS
 62
     0
100
AcDbPoint
 10
185.1227612540356
 20
140.0442883333531
 30
0.0
  0
POINT
  5
A5E
330
545
100
AcDbEntity
  8
DEFPOINTS
 62
     0
100
AcDbPoint
 10
206.3010463459359
 20
150.0442874911771
 30
0.0
  0
POINT
  5
A5F
330
545
100
AcDbEntity
  8
DEFPOINTS
 62
     0
100
AcDbPoint
 10
182.0748141717683
 20
150.0442874911772
 30
0.0
  0
ENDBLK
  5
550
330
545
100
AcDbEntity
  8
0
100
AcDbBlockEnd
  0
BLOCK
  5
55D
330
551
100
AcDbEntity
  8
0
100
AcDbBlockBegin
  2
*D22
 70
     1
 10
0.0
 20
0.0
 30
0.0
  3
*D22
  1

  0
LINE
  5
A60
330
551
100
AcDbEntity
  8
DIM
100
AcDbLine
 10
183.8427612540356
 20
140.0442883333531
 30
0.0
 11
181.1148141717683
 21
140.0442883333531
 31
0.0
  0
LINE
  5
A61
330
551
100
AcDbEntity
  8
DIM
100
AcDbLine
 10
195.8796865442531
 20
135.0442883333531
 30
0.0
 11
181.1148141717683
 21
135.0442883333531
 31
0.0
  0
LINE
  5
A62
330
551
100
AcDbEntity
  8
DIM
100
AcDbLine
 10
182.0748141717683
 20
142.4442883333531
 30
0.0
 11
182.0748141717683
 21
144.8442883333531
 31
0.0
  0
LINE
  5
A63
330
551
100
AcDbEntity
  8
DIM
100
AcDbLine
 10
182.0748141717683
 20
132.6442883333531
 30
0.0
 11
182.0748141717683
 21
130.2442883333531
 31
0.0
  0
LINE
  5
A64
330
551
100
AcDbEntity
  8
DIM
100
AcDbLine
 10
182.0748141717683
 20
140.0442883333531
 30
0.0
 11
182.0748141717683
 21
135.0442883333531
 31
0.0
  0
SOLID
  5
A65
330
551
100
AcDbEntity
  8
DIM
100
AcDbTrace
 10
181.6748141717683
 20
142.4442883333531
 30
0.0
 11
182.4748141717684
 21
142.4442883333531
 31
0.0
 12
182.0748141717683
 22
140.0442883333531
 32
0.0
 13
182.0748141717683
 23
140.0442883333531
 33
0.0
  0
SOLID
  5
A66
330
551
100
AcDbEntity
  8
DIM
100
AcDbTrace
 10
181.6748141717683
 20
132.6442883333531
 30
0.0
 11
182.4748141717684
 21
132.6442883333531
 31
0.0
 12
182.0748141717683
 22
135.0442883333531
 32
0.0
 13
182.0748141717683
 23
135.0442883333531
 33
0.0
  0
MTEXT
  5
A67
330
551
100
AcDbEntity
  8
DIM
100
AcDbMText
 10
180.2348141717683
 20
137.5442883333531
 30
0.0
 40
2.4
 41
0.0
 71
     5
 72
     1
  1
\A1;5
 11
0.0000000000000001
 21
1.0
 31
0.0
 73
     1
 44
1.0
1001
ACAD
1000
MTEXTBEGIN
1070
    73
1070
     1
1070
    44
1040
1.0
1070
    74
1070
     0
1000
MTEXTEND
  0
POINT
  5
A68
330
551
100
AcDbEntity
  8
DEFPOINTS
 62
     0
100
AcDbPoint
 10
184.4827612540356
 20
140.0442883333531
 30
0.0
  0
POINT
  5
A69
330
551
100
AcDbEntity
  8
DEFPOINTS
 62
     0
100
AcDbPoint
 10
196.5196865442531
 20
135.0442883333531
 30
0.0
  0
POINT
  5
A6A
330
551
100
AcDbEntity
  8
DEFPOINTS
 62
     0
100
AcDbPoint
 10
182.0748141717683
 20
135.0442883333531
 30
0.0
  0
ENDBLK
  5
55E
330
551
100
AcDbEntity
  8
0
100
AcDbBlockEnd
  0
BLOCK
  5
569
330
55F
100
AcDbEntity
  8
0
100
AcDbBlockBegin
  2
*D23
 70
     1
 10
0.0
 20
0.0
 30
0.0
  3
*D23
  1

  0
LINE
  5
A6B
330
55F
100
AcDbEntity
  8
DIM
100
AcDbLine
 10
276.94104622782
 20
150.0442883333531
 30
0.0
 11
282.7493983537479
 21
150.0442883333531
 31
0.0
  0
LINE
  5
A6C
330
55F
100
AcDbEntity
  8
DIM
100
AcDbLine
 10
268.94104622782
 20
140.0442883333531
 30
0.0
 11
282.7493983537479
 21
140.0442883333531
 31
0.0
  0
LINE
  5
A6D
330
55F
100
AcDbEntity
  8
DIM
100
AcDbLine
 10
281.7893983537479
 20
147.6442883333531
 30
0.0
 11
281.7893983537479
 21
142.4442883333531
 31
0.0
  0
SOLID
  5
A6E
330
55F
100
AcDbEntity
  8
DIM
100
AcDbTrace
 10
281.3893983537479
 20
147.6442883333531
 30
0.0
 11
282.1893983537478
 21
147.6442883333531
 31
0.0
 12
281.7893983537479
 22
150.0442883333531
 32
0.0
 13
281.7893983537479
 23
150.0442883333531
 33
0.0
  0
SOLID
  5
A6F
330
55F
100
AcDbEntity
  8
DIM
100
AcDbTrace
 10
281.3893983537479
 20
142.4442883333531
 30
0.0
 11
282.1893983537478
 21
142.4442883333531
 31
0.0
 12
281.7893983537479
 22
140.0442883333531
 32
0.0
 13
281.7893983537479
 23
140.0442883333531
 33
0.0
  0
MTEXT
  5
A70
330
55F
100
AcDbEntity
  8
DIM
100
AcDbMText
 10
279.9493983537478
 20
145.0442883333531
 30
0.0
 40
2.4
 41
0.0
 71
     5
 72
     1
  1
\A1;10
 11
0.0000000000000001
 21
1.0
 31
0.0
 73
     1
 44
1.0
1001
ACAD
1000
MTEXTBEGIN
1070
    73
1070
     1
1070
    44
1040
1.0
1070
    74
1070
     0
1000
MTEXTEND
  0
POINT
  5
A71
330
55F
100
AcDbEntity
  8
DEFPOINTS
 62
     0
100
AcDbPoint
 10
276.3010462278201
 20
150.0442883333531
 30
0.0
  0
POINT
  5
A72
330
55F
100
AcDbEntity
  8
DEFPOINTS
 62
     0
100
AcDbPoint
 10
268.30104622782
 20
140.0442883333531
 30
0.0
  0
POINT
  5
A73
330
55F
100
AcDbEntity
  8
DEFPOINTS
 62
     0
100
AcDbPoint
 10
281.7893983537479
 20
140.0442883333531
 30
0.0
  0
ENDBLK
  5
56A
330
55F
100
AcDbEntity
  8
0
100
AcDbBlockEnd
  0
BLOCK
  5
575
330
56B
100
AcDbEntity
  8
0
100
AcDbBlockBegin
  2
*D24
 70
     1
 10
0.0
 20
0.0
 30
0.0
  3
*D24
  1

  0
LINE
  5
643
330
56B
100
AcDbEntity
  8
DIM
100
AcDbLine
 10
186.66104622782
 20
247.3713096290556
 30
0.0
 11
166.1160224733938
 21
247.3713096290556
 31
0.0
  0
LINE
  5
644
330
56B
100
AcDbEntity
  8
DIM
100
AcDbLine
 10
186.66104622782
 20
191.3713096290556
 30
0.0
 11
166.1160224733937
 21
191.3713096290556
 31
0.0
  0
LINE
  5
645
330
56B
100
AcDbEntity
  8
DIM
100
AcDbLine
 10
167.0760224733938
 20
244.9713096290556
 30
0.0
 11
167.0760224733938
 21
193.7713096290556
 31
0.0
  0
SOLID
  5
646
330
56B
100
AcDbEntity
  8
DIM
100
AcDbTrace
 10
166.6760224733938
 20
244.9713096290556
 30
0.0
 11
167.4760224733938
 21
244.9713096290556
 31
0.0
 12
167.0760224733938
 22
247.3713096290556
 32
0.0
 13
167.0760224733938
 23
247.3713096290556
 33
0.0
  0
SOLID
  5
647
330
56B
100
AcDbEntity
  8
DIM
100
AcDbTrace
 10
166.6760224733938
 20
193.7713096290556
 30
0.0
 11
167.4760224733938
 21
193.7713096290556
 31
0.0
 12
167.0760224733937
 22
191.3713096290556
 32
0.0
 13
167.0760224733937
 23
191.3713096290556
 33
0.0
  0
MTEXT
  5
648
330
56B
100
AcDbEntity
  8
DIM
100
AcDbMText
 10
165.2360224733937
 20
219.3713096290557
 30
0.0
 40
2.4
 41
0.0
 71
     5
 72
     5
  1
\A1;56
 11
0.0000000000000001
 21
1.0
 31
0.0
 73
     1
 44
1.0
1001
ACAD
1000
MTEXTBEGIN
1070
    73
1070
     1
1070
    44
1040
1.0
1070
    74
1070
     0
1000
MTEXTEND
  0
POINT
  5
649
330
56B
100
AcDbEntity
  8
DEFPOINTS
 62
     0
100
AcDbPoint
 10
187.30104622782
 20
247.3713096290556
 30
0.0
  0
POINT
  5
64A
330
56B
100
AcDbEntity
  8
DEFPOINTS
 62
     0
100
AcDbPoint
 10
187.30104622782
 20
191.3713096290556
 30
0.0
  0
POINT
  5
64B
330
56B
100
AcDbEntity
  8
DEFPOINTS
 62
     0
100
AcDbPoint
 10
167.0760224733937
 20
191.3713096290556
 30
0.0
  0
ENDBLK
  5
576
330
56B
100
AcDbEntity
  8
0
100
AcDbBlockEnd
  0
BLOCK
  5
870
330
86E
100
AcDbEntity
  8
0
100
AcDbBlockBegin
  2
GENAXEH
 70
     0
 10
0.0
 20
0.0
 30
0.0
  3
GENAXEH
  1

  0
LINE
  5
86F
330
86E
100
AcDbEntity
  8
0
100
AcDbLine
 10
-1.0
 20
0.0
 30
0.0
 11
1.0
 21
0.0
 31
0.0
  0
ENDBLK
  5
871
330
86E
100
AcDbEntity
  8
0
100
AcDbBlockEnd
  0
ENDSEC
  0
SECTION
  2
ENTITIES
  0
LINE
  5
27
330
415
100
AcDbEntity
  8
CENTER
  6
CENTER
100
AcDbLine
 10
123.2868472341983
 20
187.9026809330032
 30
0.0
 11
123.2868472341983
 21
249.8943735873909
 31
0.0
  0
LINE
  5
2A
330
415
100
AcDbEntity
  8
CENTER
  6
CENTER
100
AcDbLine
 10
123.2868472341983
 20
233.6713096290556
 30
0.0
 11
123.2868472341983
 21
241.8713096290556
 31
0.0
  0
LINE
  5
2B
330
415
100
AcDbEntity
  8
CENTER
  6
CENTER
100
AcDbLine
 10
122.2868472341983
 20
241.8713096290556
 30
0.0
 11
124.2868472341983
 21
241.8713096290556
 31
0.0
  0
LINE
  5
2C
330
415
100
AcDbEntity
  8
CENTER
  6
CENTER
100
AcDbLine
 10
123.2868472341983
 20
240.8713096290556
 30
0.0
 11
123.2868472341983
 21
242.8713096290556
 31
0.0
  0
LINE
  5
2D
330
415
100
AcDbEntity
  8
CENTER
  6
CENTER
100
AcDbLine
 10
119.6868472341983
 20
241.8713096290556
 30
0.0
 11
121.4868472341983
 21
241.8713096290556
 31
0.0
  0
LINE
  5
2E
330
415
100
AcDbEntity
  8
CENTER
  6
CENTER
100
AcDbLine
 10
125.0868472341983
 20
241.8713096290556
 30
0.0
 11
126.8868472341983
 21
241.8713096290556
 31
0.0
  0
LINE
  5
2F
330
415
100
AcDbEntity
  8
CENTER
  6
CENTER
100
AcDbLine
 10
123.2868472341983
 20
238.2713096290557
 30
0.0
 11
123.2868472341983
 21
240.0713096290556
 31
0.0
  0
LINE
  5
30
330
415
100
AcDbEntity
  8
CENTER
  6
CENTER
100
AcDbLine
 10
123.2868472341983
 20
243.6713096290556
 30
0.0
 11
123.2868472341983
 21
245.4713096290556
 31
0.0
  0
LINE
  5
31
330
415
100
AcDbEntity
  8
CENTER
  6
CENTER
100
AcDbLine
 10
122.2868472341983
 20
206.8713096290557
 30
0.0
 11
124.2868472341983
 21
206.8713096290557
 31
0.0
  0
LINE
  5
32
330
415
100
AcDbEntity
  8
CENTER
  6
CENTER
100
AcDbLine
 10
123.2868472341983
 20
205.8713096290556
 30
0.0
 11
123.2868472341983
 21
207.8713096290556
 31
0.0
  0
LINE
  5
33
330
415
100
AcDbEntity
  8
CENTER
  6
CENTER
100
AcDbLine
 10
117.0368472341983
 20
206.8713096290557
 30
0.0
 11
121.4868472341983
 21
206.8713096290557
 31
0.0
  0
LINE
  5
34
330
415
100
AcDbEntity
  8
CENTER
  6
CENTER
100
AcDbLine
 10
125.0868472341983
 20
206.8713096290557
 30
0.0
 11
129.5368472341983
 21
206.8713096290557
 31
0.0
  0
LINE
  5
35
330
415
100
AcDbEntity
  8
CENTER
  6
CENTER
100
AcDbLine
 10
123.2868472341983
 20
200.6213096290557
 30
0.0
 11
123.2868472341983
 21
205.0713096290556
 31
0.0
  0
LINE
  5
36
330
415
100
AcDbEntity
  8
CENTER
  6
CENTER
100
AcDbLine
 10
123.2868472341983
 20
208.6713096290556
 30
0.0
 11
123.2868472341983
 21
213.1213096290557
 31
0.0
  0
LINE
  5
37
330
415
100
AcDbEntity
  8
CENTER
  6
CENTER
100
AcDbLine
 10
122.2868472341983
 20
196.8713096290556
 30
0.0
 11
124.2868472341983
 21
196.8713096290556
 31
0.0
  0
LINE
  5
38
330
415
100
AcDbEntity
  8
CENTER
  6
CENTER
100
AcDbLine
 10
123.2868472341983
 20
195.8713096290556
 30
0.0
 11
123.2868472341983
 21
197.8713096290556
 31
0.0
  0
LINE
  5
39
330
415
100
AcDbEntity
  8
CENTER
  6
CENTER
100
AcDbLine
 10
119.6868472341983
 20
196.8713096290556
 30
0.0
 11
121.4868472341983
 21
196.8713096290556
 31
0.0
  0
LINE
  5
3A
330
415
100
AcDbEntity
  8
CENTER
  6
CENTER
100
AcDbLine
 10
125.0868472341983
 20
196.8713096290556
 30
0.0
 11
126.8868472341983
 21
196.8713096290556
 31
0.0
  0
LINE
  5
3B
330
415
100
AcDbEntity
  8
CENTER
  6
CENTER
100
AcDbLine
 10
123.2868472341983
 20
193.2713096290556
 30
0.0
 11
123.2868472341983
 21
195.0713096290556
 31
0.0
  0
LINE
  5
3C
330
415
100
AcDbEntity
  8
CENTER
  6
CENTER
100
AcDbLine
 10
123.2868472341983
 20
198.6713096290556
 30
0.0
 11
123.2868472341983
 21
200.4713096290557
 31
0.0
  0
LINE
  5
3D
330
415
100
AcDbEntity
  8
CENTER
  6
CENTER
100
AcDbLine
 10
122.2868472341983
 20
231.8713096290557
 30
0.0
 11
124.2868472341983
 21
231.8713096290557
 31
0.0
  0
LINE
  5
3E
330
415
100
AcDbEntity
  8
CENTER
  6
CENTER
100
AcDbLine
 10
123.2868472341983
 20
230.8713096290556
 30
0.0
 11
123.2868472341983
 21
232.8713096290556
 31
0.0
  0
LINE
  5
3F
330
415
100
AcDbEntity
  8
CENTER
  6
CENTER
100
AcDbLine
 10
118.2868472341983
 20
231.8713096290557
 30
0.0
 11
121.4868472341983
 21
231.8713096290557
 31
0.0
  0
LINE
  5
40
330
415
100
AcDbEntity
  8
CENTER
  6
CENTER
100
AcDbLine
 10
125.0868472341983
 20
231.8713096290557
 30
0.0
 11
128.2868472341983
 21
231.8713096290557
 31
0.0
  0
LINE
  5
41
330
415
100
AcDbEntity
  8
CENTER
  6
CENTER
100
AcDbLine
 10
123.2868472341983
 20
226.8713096290556
 30
0.0
 11
123.2868472341983
 21
230.0713096290556
 31
0.0
  0
LINE
  5
42
330
415
100
AcDbEntity
  8
CENTER
  6
CENTER
100
AcDbLine
 10
123.2868472341983
 20
233.6713096290556
 30
0.0
 11
123.2868472341983
 21
236.8713096290556
 31
0.0
  0
LINE
  5
43
330
415
100
AcDbEntity
  8
CENTER
  6
CENTER
100
AcDbLine
 10
134.7250338476856
 20
219.3713096290556
 30
0.0
 11
111.41490754547
 21
219.3713096290556
 31
0.0
  0
LINE
  5
44
330
415
100
AcDbEntity
  8
CENTER
  6
CENTER
100
AcDbLine
 10
191.30104622782
 20
196.8713096290556
 30
0.0
 11
193.30104622782
 21
196.8713096290556
 31
0.0
  0
LINE
  5
45
330
415
100
AcDbEntity
  8
CENTER
  6
CENTER
100
AcDbLine
 10
192.30104622782
 20
195.8713096290556
 30
0.0
 11
192.30104622782
 21
197.8713096290556
 31
0.0
  0
LINE
  5
46
330
415
100
AcDbEntity
  8
CENTER
  6
CENTER
100
AcDbLine
 10
189.15104622782
 20
196.8713096290556
 30
0.0
 11
190.50104622782
 21
196.8713096290556
 31
0.0
  0
LINE
  5
47
330
415
100
AcDbEntity
  8
CENTER
  6
CENTER
100
AcDbLine
 10
194.10104622782
 20
196.8713096290556
 30
0.0
 11
195.45104622782
 21
196.8713096290556
 31
0.0
  0
LINE
  5
48
330
415
100
AcDbEntity
  8
CENTER
  6
CENTER
100
AcDbLine
 10
192.30104622782
 20
193.7213096290556
 30
0.0
 11
192.30104622782
 21
195.0713096290556
 31
0.0
  0
LINE
  5
49
330
415
100
AcDbEntity
  8
CENTER
  6
CENTER
100
AcDbLine
 10
192.30104622782
 20
198.6713096290556
 30
0.0
 11
192.30104622782
 21
200.0213096290556
 31
0.0
  0
LINE
  5
4A
330
415
100
AcDbEntity
  8
CENTER
  6
CENTER
100
AcDbLine
 10
191.30104622782
 20
241.8713096290556
 30
0.0
 11
193.30104622782
 21
241.8713096290556
 31
0.0
  0
LINE
  5
4B
330
415
100
AcDbEntity
  8
CENTER
  6
CENTER
100
AcDbLine
 10
192.30104622782
 20
240.8713096290556
 30
0.0
 11
192.30104622782
 21
242.8713096290556
 31
0.0
  0
LINE
  5
4C
330
415
100
AcDbEntity
  8
CENTER
  6
CENTER
100
AcDbLine
 10
189.15104622782
 20
241.8713096290556
 30
0.0
 11
190.50104622782
 21
241.8713096290556
 31
0.0
  0
LINE
  5
4D
330
415
100
AcDbEntity
  8
CENTER
  6
CENTER
100
AcDbLine
 10
194.10104622782
 20
241.8713096290556
 30
0.0
 11
195.45104622782
 21
241.8713096290556
 31
0.0
  0
LINE
  5
4E
330
415
100
AcDbEntity
  8
CENTER
  6
CENTER
100
AcDbLine
 10
192.30104622782
 20
238.7213096290556
 30
0.0
 11
192.30104622782
 21
240.0713096290556
 31
0.0
  0
LINE
  5
4F
330
415
100
AcDbEntity
  8
CENTER
  6
CENTER
100
AcDbLine
 10
192.30104622782
 20
243.6713096290556
 30
0.0
 11
192.30104622782
 21
245.0213096290557
 31
0.0
  0
LINE
  5
50
330
415
100
AcDbEntity
  8
CENTER
  6
CENTER
100
AcDbLine
 10
191.3010462278201
 20
231.8713096290557
 30
0.0
 11
193.3010462278201
 21
231.8713096290557
 31
0.0
  0
LINE
  5
51
330
415
100
AcDbEntity
  8
CENTER
  6
CENTER
100
AcDbLine
 10
192.3010462278201
 20
230.8713096290556
 30
0.0
 11
192.3010462278201
 21
232.8713096290556
 31
0.0
  0
LINE
  5
52
330
415
100
AcDbEntity
  8
CENTER
  6
CENTER
100
AcDbLine
 10
188.20104622782
 20
231.8713096290557
 30
0.0
 11
190.50104622782
 21
231.8713096290557
 31
0.0
  0
LINE
  5
53
330
415
100
AcDbEntity
  8
CENTER
  6
CENTER
100
AcDbLine
 10
194.1010462278201
 20
231.8713096290557
 30
0.0
 11
196.4010462278201
 21
231.8713096290557
 31
0.0
  0
LINE
  5
54
330
415
100
AcDbEntity
  8
CENTER
  6
CENTER
100
AcDbLine
 10
192.3010462278201
 20
227.7713096290557
 30
0.0
 11
192.3010462278201
 21
230.0713096290556
 31
0.0
  0
LINE
  5
55
330
415
100
AcDbEntity
  8
CENTER
  6
CENTER
100
AcDbLine
 10
192.3010462278201
 20
233.6713096290556
 30
0.0
 11
192.3010462278201
 21
235.9713096290557
 31
0.0
  0
LINE
  5
56
330
415
100
AcDbEntity
  8
CENTER
  6
CENTER
100
AcDbLine
 10
208.1182616808912
 20
231.8713096290557
 30
0.0
 11
195.0345337062945
 21
231.8713096290557
 31
0.0
  0
LINE
  5
57
330
415
100
AcDbEntity
  8
CENTER
  6
CENTER
100
AcDbLine
 10
195.5476210068846
 20
206.8713096290557
 30
0.0
 11
207.3486301268238
 21
206.8713096290557
 31
0.0
  0
LINE
  5
58
330
415
100
AcDbEntity
  8
CENTER
  6
CENTER
100
AcDbLine
 10
185.2858725823519
 20
219.3713096290557
 30
0.0
 11
278.4112339253929
 21
219.3713096290557
 31
0.0
  0
LINE
  5
59
330
415
100
AcDbEntity
  8
CENTER
  6
CENTER
100
AcDbLine
 10
260.30104622782
 20
219.3713096290557
 30
0.0
 11
262.30104622782
 21
219.3713096290557
 31
0.0
  0
LINE
  5
5A
330
415
100
AcDbEntity
  8
CENTER
  6
CENTER
100
AcDbLine
 10
261.3010462278201
 20
218.3713096290557
 30
0.0
 11
261.3010462278201
 21
220.3713096290557
 31
0.0
  0
LINE
  5
5B
330
415
100
AcDbEntity
  8
CENTER
  6
CENTER
100
AcDbLine
 10
255.80104622782
 20
219.3713096290557
 30
0.0
 11
259.50104622782
 21
219.3713096290557
 31
0.0
  0
LINE
  5
5C
330
415
100
AcDbEntity
  8
CENTER
  6
CENTER
100
AcDbLine
 10
263.1010462278201
 20
219.3713096290557
 30
0.0
 11
266.80104622782
 21
219.3713096290557
 31
0.0
  0
LINE
  5
5D
330
415
100
AcDbEntity
  8
CENTER
  6
CENTER
100
AcDbLine
 10
261.3010462278201
 20
213.8713096290557
 30
0.0
 11
261.3010462278201
 21
217.5713096290557
 31
0.0
  0
LINE
  5
5E
330
415
100
AcDbEntity
  8
CENTER
  6
CENTER
100
AcDbLine
 10
261.3010462278201
 20
221.1713096290557
 30
0.0
 11
261.3010462278201
 21
224.8713096290557
 31
0.0
  0
LINE
  5
5F
330
415
100
AcDbEntity
  8
CENTER
  6
CENTER
100
AcDbLine
 10
235.30104622782
 20
219.3713096290557
 30
0.0
 11
237.30104622782
 21
219.3713096290557
 31
0.0
  0
LINE
  5
60
330
415
100
AcDbEntity
  8
CENTER
  6
CENTER
100
AcDbLine
 10
236.3010462278201
 20
218.3713096290557
 30
0.0
 11
236.3010462278201
 21
220.3713096290557
 31
0.0
  0
LINE
  5
61
330
415
100
AcDbEntity
  8
CENTER
  6
CENTER
100
AcDbLine
 10
230.80104622782
 20
219.3713096290557
 30
0.0
 11
234.50104622782
 21
219.3713096290557
 31
0.0
  0
LINE
  5
62
330
415
100
AcDbEntity
  8
CENTER
  6
CENTER
100
AcDbLine
 10
238.1010462278201
 20
219.3713096290557
 30
0.0
 11
241.80104622782
 21
219.3713096290557
 31
0.0
  0
LINE
  5
63
330
415
100
AcDbEntity
  8
CENTER
  6
CENTER
100
AcDbLine
 10
236.3010462278201
 20
213.8713096290557
 30
0.0
 11
236.3010462278201
 21
217.5713096290557
 31
0.0
  0
LINE
  5
64
330
415
100
AcDbEntity
  8
CENTER
  6
CENTER
100
AcDbLine
 10
236.3010462278201
 20
221.1713096290557
 30
0.0
 11
236.3010462278201
 21
224.8713096290557
 31
0.0
  0
LINE
  5
65
330
415
100
AcDbEntity
  8
CENTER
  6
CENTER
100
AcDbLine
 10
331.9877694077703
 20
206.8713096290557
 30
0.0
 11
333.9877694077703
 21
206.8713096290557
 31
0.0
  0
LINE
  5
66
330
415
100
AcDbEntity
  8
CENTER
  6
CENTER
100
AcDbLine
 10
332.9877694077703
 20
205.8713096290557
 30
0.0
 11
332.9877694077703
 21
207.8713096290557
 31
0.0
  0
LINE
  5
67
330
415
100
AcDbEntity
  8
CENTER
  6
CENTER
100
AcDbLine
 10
322.9877694077702
 20
206.8713096290557
 30
0.0
 11
331.1877694077702
 21
206.8713096290557
 31
0.0
  0
LINE
  5
68
330
415
100
AcDbEntity
  8
CENTER
  6
CENTER
100
AcDbLine
 10
334.7877694077703
 20
206.8713096290557
 30
0.0
 11
342.9877694077703
 21
206.8713096290557
 31
0.0
  0
LINE
  5
69
330
415
100
AcDbEntity
  8
CENTER
  6
CENTER
100
AcDbLine
 10
332.9877694077703
 20
196.8713096290557
 30
0.0
 11
332.9877694077703
 21
205.0713096290557
 31
0.0
  0
LINE
  5
6A
330
415
100
AcDbEntity
  8
CENTER
  6
CENTER
100
AcDbLine
 10
332.9877694077703
 20
208.6713096290557
 30
0.0
 11
332.9877694077703
 21
216.8713096290557
 31
0.0
  0
LINE
  5
6B
330
415
100
AcDbEntity
  8
CENTER
  6
CENTER
100
AcDbLine
 10
331.9877694077703
 20
231.8713096290557
 30
0.0
 11
333.9877694077703
 21
231.8713096290557
 31
0.0
  0
LINE
  5
6C
330
415
100
AcDbEntity
  8
CENTER
  6
CENTER
100
AcDbLine
 10
332.9877694077703
 20
230.8713096290556
 30
0.0
 11
332.9877694077703
 21
232.8713096290556
 31
0.0
  0
LINE
  5
6D
330
415
100
AcDbEntity
  8
CENTER
  6
CENTER
100
AcDbLine
 10
322.9877694077702
 20
231.8713096290557
 30
0.0
 11
331.1877694077702
 21
231.8713096290557
 31
0.0
  0
LINE
  5
6E
330
415
100
AcDbEntity
  8
CENTER
  6
CENTER
100
AcDbLine
 10
334.7877694077703
 20
231.8713096290557
 30
0.0
 11
342.9877694077703
 21
231.8713096290557
 31
0.0
  0
LINE
  5
6F
330
415
100
AcDbEntity
  8
CENTER
  6
CENTER
100
AcDbLine
 10
332.9877694077703
 20
221.8713096290557
 30
0.0
 11
332.9877694077703
 21
230.0713096290556
 31
0.0
  0
LINE
  5
70
330
415
100
AcDbEntity
  8
CENTER
  6
CENTER
100
AcDbLine
 10
332.9877694077703
 20
233.6713096290556
 30
0.0
 11
332.9877694077703
 21
241.8713096290556
 31
0.0
  0
LINE
  5
71
330
415
100
AcDbEntity
  8
CENTER
  6
CENTER
100
AcDbLine
 10
320.9507329047974
 20
219.3713096290557
 30
0.0
 11
344.7099705891121
 21
219.3713096290557
 31
0.0
  0
LINE
  5
72
330
415
100
AcDbEntity
  8
CENTER
  6
CENTER
100
AcDbLine
 10
332.9877694077702
 20
250.5812857211963
 30
0.0
 11
332.9877694077702
 21
188.1316513442652
 31
0.0
  0
LINE
  5
73
330
415
100
AcDbEntity
  8
CENTER
  6
CENTER
100
AcDbLine
 10
185.1227612540356
 20
140.0442883333531
 30
0.0
 11
278.2386212708202
 21
140.0442883333531
 31
0.0
  0
LINE
  5
74
330
415
100
AcDbEntity
  8
CENTER
  6
CENTER
100
AcDbLine
 10
235.30104622782
 20
140.0442883333531
 30
0.0
 11
237.30104622782
 21
140.0442883333531
 31
0.0
  0
LINE
  5
75
330
415
100
AcDbEntity
  8
CENTER
  6
CENTER
100
AcDbLine
 10
236.3010462278201
 20
139.0442883333531
 30
0.0
 11
236.3010462278201
 21
141.0442883333531
 31
0.0
  0
LINE
  5
76
330
415
100
AcDbEntity
  8
CENTER
  6
CENTER
100
AcDbLine
 10
233.15104622782
 20
140.0442883333531
 30
0.0
 11
234.50104622782
 21
140.0442883333531
 31
0.0
  0
LINE
  5
77
330
415
100
AcDbEntity
  8
CENTER
  6
CENTER
100
AcDbLine
 10
238.1010462278201
 20
140.0442883333531
 30
0.0
 11
239.45104622782
 21
140.0442883333531
 31
0.0
  0
LINE
  5
78
330
415
100
AcDbEntity
  8
CENTER
  6
CENTER
100
AcDbLine
 10
236.3010462278201
 20
136.8942883333531
 30
0.0
 11
236.3010462278201
 21
138.2442883333531
 31
0.0
  0
LINE
  5
79
330
415
100
AcDbEntity
  8
CENTER
  6
CENTER
100
AcDbLine
 10
236.3010462278201
 20
141.8442883333531
 30
0.0
 11
236.3010462278201
 21
143.1942883333531
 31
0.0
  0
LINE
  5
7A
330
415
100
AcDbEntity
  8
CENTER
  6
CENTER
100
AcDbLine
 10
243.80104622782
 20
140.0442883333531
 30
0.0
 11
245.80104622782
 21
140.0442883333531
 31
0.0
  0
LINE
  5
7B
330
415
100
AcDbEntity
  8
CENTER
  6
CENTER
100
AcDbLine
 10
244.8010462278201
 20
139.0442883333531
 30
0.0
 11
244.8010462278201
 21
141.0442883333531
 31
0.0
  0
LINE
  5
7C
330
415
100
AcDbEntity
  8
CENTER
  6
CENTER
100
AcDbLine
 10
241.2010462278201
 20
140.0442883333531
 30
0.0
 11
243.00104622782
 21
140.0442883333531
 31
0.0
  0
LINE
  5
7D
330
415
100
AcDbEntity
  8
CENTER
  6
CENTER
100
AcDbLine
 10
246.6010462278201
 20
140.0442883333531
 30
0.0
 11
248.4010462278201
 21
140.0442883333531
 31
0.0
  0
LINE
  5
7E
330
415
100
AcDbEntity
  8
CENTER
  6
CENTER
100
AcDbLine
 10
244.8010462278201
 20
136.4442883333531
 30
0.0
 11
244.8010462278201
 21
138.2442883333531
 31
0.0
  0
LINE
  5
7F
330
415
100
AcDbEntity
  8
CENTER
  6
CENTER
100
AcDbLine
 10
244.8010462278201
 20
141.8442883333531
 30
0.0
 11
244.8010462278201
 21
143.6442883333531
 31
0.0
  0
LINE
  5
80
330
415
100
AcDbEntity
  8
CENTER
  6
CENTER
100
AcDbLine
 10
260.30104622782
 20
140.0442883333531
 30
0.0
 11
262.30104622782
 21
140.0442883333531
 31
0.0
  0
LINE
  5
81
330
415
100
AcDbEntity
  8
CENTER
  6
CENTER
100
AcDbLine
 10
261.3010462278201
 20
139.0442883333531
 30
0.0
 11
261.3010462278201
 21
141.0442883333531
 31
0.0
  0
LINE
  5
82
330
415
100
AcDbEntity
  8
CENTER
  6
CENTER
100
AcDbLine
 10
258.1510462278201
 20
140.0442883333531
 30
0.0
 11
259.50104622782
 21
140.0442883333531
 31
0.0
  0
LINE
  5
83
330
415
100
AcDbEntity
  8
CENTER
  6
CENTER
100
AcDbLine
 10
263.1010462278201
 20
140.0442883333531
 30
0.0
 11
264.45104622782
 21
140.0442883333531
 31
0.0
  0
LINE
  5
84
330
415
100
AcDbEntity
  8
CENTER
  6
CENTER
100
AcDbLine
 10
261.3010462278201
 20
136.8942883333531
 30
0.0
 11
261.3010462278201
 21
138.2442883333531
 31
0.0
  0
LINE
  5
85
330
415
100
AcDbEntity
  8
CENTER
  6
CENTER
100
AcDbLine
 10
261.3010462278201
 20
141.8442883333531
 30
0.0
 11
261.3010462278201
 21
143.1942883333531
 31
0.0
  0
LINE
  5
86
330
415
100
AcDbEntity
  8
CENTER
  6
CENTER
100
AcDbLine
 10
267.3010462278201
 20
140.0442883333531
 30
0.0
 11
269.3010462278201
 21
140.0442883333531
 31
0.0
  0
LINE
  5
87
330
415
100
AcDbEntity
  8
CENTER
  6
CENTER
100
AcDbLine
 10
268.30104622782
 20
139.0442883333531
 30
0.0
 11
268.30104622782
 21
141.0442883333531
 31
0.0
  0
LINE
  5
88
330
415
100
AcDbEntity
  8
CENTER
  6
CENTER
100
AcDbLine
 10
264.70104622782
 20
140.0442883333531
 30
0.0
 11
266.50104622782
 21
140.0442883333531
 31
0.0
  0
LINE
  5
89
330
415
100
AcDbEntity
  8
CENTER
  6
CENTER
100
AcDbLine
 10
270.1010462278201
 20
140.0442883333531
 30
0.0
 11
271.9010462278201
 21
140.0442883333531
 31
0.0
  0
LINE
  5
8A
330
415
100
AcDbEntity
  8
CENTER
  6
CENTER
100
AcDbLine
 10
268.30104622782
 20
136.4442883333531
 30
0.0
 11
268.30104622782
 21
138.2442883333531
 31
0.0
  0
LINE
  5
8B
330
415
100
AcDbEntity
  8
CENTER
  6
CENTER
100
AcDbLine
 10
268.30104622782
 20
141.8442883333531
 30
0.0
 11
268.30104622782
 21
143.6442883333531
 31
0.0
  0
LINE
  5
8C
330
415
100
AcDbEntity
  8
CENTER
  6
CENTER
100
AcDbLine
 10
196.5196865442531
 20
135.0442883333531
 30
0.0
 11
207.3489401624824
 21
135.0442883333531
 31
0.0
  0
LINE
  5
8D
330
415
100
AcDbEntity
  8
CENTER
  6
CENTER
100
AcDbLine
 10
191.30104622782
 20
30.35379321659354
 30
0.0
 11
193.30104622782
 21
30.35379321659354
 31
0.0
  0
LINE
  5
8E
330
415
100
AcDbEntity
  8
CENTER
  6
CENTER
100
AcDbLine
 10
192.30104622782
 20
29.35379321659354
 30
0.0
 11
192.30104622782
 21
31.35379321659355
 31
0.0
  0
LINE
  5
8F
330
415
100
AcDbEntity
  8
CENTER
  6
CENTER
100
AcDbLine
 10
189.15104622782
 20
30.35379321659354
 30
0.0
 11
190.50104622782
 21
30.35379321659354
 31
0.0
  0
LINE
  5
90
330
415
100
AcDbEntity
  8
CENTER
  6
CENTER
100
AcDbLine
 10
194.10104622782
 20
30.35379321659354
 30
0.0
 11
195.45104622782
 21
30.35379321659354
 31
0.0
  0
LINE
  5
91
330
415
100
AcDbEntity
  8
CENTER
  6
CENTER
100
AcDbLine
 10
192.30104622782
 20
27.20379321659355
 30
0.0
 11
192.30104622782
 21
28.55379321659354
 31
0.0
  0
LINE
  5
92
330
415
100
AcDbEntity
  8
CENTER
  6
CENTER
100
AcDbLine
 10
192.30104622782
 20
32.15379321659354
 30
0.0
 11
192.30104622782
 21
33.50379321659354
 31
0.0
  0
LINE
  5
93
330
415
100
AcDbEntity
  8
CENTER
  6
CENTER
100
AcDbLine
 10
191.30104622782
 20
75.35379321659354
 30
0.0
 11
193.30104622782
 21
75.35379321659354
 31
0.0
  0
LINE
  5
94
330
415
100
AcDbEntity
  8
CENTER
  6
CENTER
100
AcDbLine
 10
192.30104622782
 20
74.35379321659354
 30
0.0
 11
192.30104622782
 21
76.35379321659354
 31
0.0
  0
LINE
  5
95
330
415
100
AcDbEntity
  8
CENTER
  6
CENTER
100
AcDbLine
 10
189.15104622782
 20
75.35379321659354
 30
0.0
 11
190.50104622782
 21
75.35379321659354
 31
0.0
  0
LINE
  5
96
330
415
100
AcDbEntity
  8
CENTER
  6
CENTER
100
AcDbLine
 10
194.10104622782
 20
75.35379321659354
 30
0.0
 11
195.45104622782
 21
75.35379321659354
 31
0.0
  0
LINE
  5
97
330
415
100
AcDbEntity
  8
CENTER
  6
CENTER
100
AcDbLine
 10
192.30104622782
 20
72.20379321659354
 30
0.0
 11
192.30104622782
 21
73.55379321659355
 31
0.0
  0
LINE
  5
98
330
415
100
AcDbEntity
  8
CENTER
  6
CENTER
100
AcDbLine
 10
192.30104622782
 20
77.15379321659354
 30
0.0
 11
192.30104622782
 21
78.50379321659355
 31
0.0
  0
LINE
  5
99
330
415
100
AcDbEntity
  8
CENTER
  6
CENTER
100
AcDbLine
 10
195.1873511269232
 20
65.35379321659352
 30
0.0
 11
208.7984195978595
 21
65.35379321659352
 31
0.0
  0
LINE
  5
9A
330
415
100
AcDbEntity
  8
CENTER
  6
CENTER
100
AcDbLine
 10
194.2799467230427
 20
40.35379321659354
 30
0.0
 11
209.70582400174
 21
40.35379321659354
 31
0.0
  0
LINE
  5
9B
330
415
100
AcDbEntity
  8
CENTER
  6
CENTER
100
AcDbLine
 10
183.3910926701126
 20
52.85379321659354
 30
0.0
 11
278.6685707603012
 21
52.85379321659354
 31
0.0
  0
LINE
  5
9C
330
415
100
AcDbEntity
  8
CENTER
  6
CENTER
100
AcDbLine
 10
260.30104622782
 20
52.85379321659352
 30
0.0
 11
262.30104622782
 21
52.85379321659352
 31
0.0
  0
LINE
  5
9D
330
415
100
AcDbEntity
  8
CENTER
  6
CENTER
100
AcDbLine
 10
261.3010462278201
 20
51.85379321659351
 30
0.0
 11
261.3010462278201
 21
53.85379321659351
 31
0.0
  0
LINE
  5
9E
330
415
100
AcDbEntity
  8
CENTER
  6
CENTER
100
AcDbLine
 10
255.80104622782
 20
52.85379321659352
 30
0.0
 11
259.50104622782
 21
52.85379321659352
 31
0.0
  0
LINE
  5
9F
330
415
100
AcDbEntity
  8
CENTER
  6
CENTER
100
AcDbLine
 10
263.1010462278201
 20
52.85379321659352
 30
0.0
 11
266.80104622782
 21
52.85379321659352
 31
0.0
  0
LINE
  5
A0
330
415
100
AcDbEntity
  8
CENTER
  6
CENTER
100
AcDbLine
 10
261.3010462278201
 20
47.35379321659351
 30
0.0
 11
261.3010462278201
 21
51.05379321659352
 31
0.0
  0
LINE
  5
A1
330
415
100
AcDbEntity
  8
CENTER
  6
CENTER
100
AcDbLine
 10
261.3010462278201
 20
54.65379321659352
 30
0.0
 11
261.3010462278201
 21
58.35379321659352
 31
0.0
  0
LINE
  5
A2
330
415
100
AcDbEntity
  8
CENTER
  6
CENTER
100
AcDbLine
 10
235.30104622782
 20
52.85379321659352
 30
0.0
 11
237.30104622782
 21
52.85379321659352
 31
0.0
  0
LINE
  5
A3
330
415
100
AcDbEntity
  8
CENTER
  6
CENTER
100
AcDbLine
 10
236.3010462278201
 20
51.85379321659351
 30
0.0
 11
236.3010462278201
 21
53.85379321659351
 31
0.0
  0
LINE
  5
A4
330
415
100
AcDbEntity
  8
CENTER
  6
CENTER
100
AcDbLine
 10
230.80104622782
 20
52.85379321659352
 30
0.0
 11
234.50104622782
 21
52.85379321659352
 31
0.0
  0
LINE
  5
A5
330
415
100
AcDbEntity
  8
CENTER
  6
CENTER
100
AcDbLine
 10
238.1010462278201
 20
52.85379321659352
 30
0.0
 11
241.80104622782
 21
52.85379321659352
 31
0.0
  0
LINE
  5
A6
330
415
100
AcDbEntity
  8
CENTER
  6
CENTER
100
AcDbLine
 10
236.3010462278201
 20
47.35379321659351
 30
0.0
 11
236.3010462278201
 21
51.05379321659352
 31
0.0
  0
LINE
  5
A7
330
415
100
AcDbEntity
  8
CENTER
  6
CENTER
100
AcDbLine
 10
236.3010462278201
 20
54.65379321659352
 30
0.0
 11
236.3010462278201
 21
58.35379321659352
 31
0.0
  0
DIMENSION
  5
A8
330
415
100
AcDbEntity
  8
DIM
100
AcDbDimension
  2
*D0
 10
132.2868472341983
 20
256.0911793111007
 30
0.0
 11
123.2868472341983
 21
257.9311793111006
 31
0.0
 70
    32
  1
<>
 71
     5
 42
18.0
  3
STANDARD
100
AcDbAlignedDimension
 13
114.2868472341983
 23
247.3713096290556
 33
0.0
 14
132.2868472341983
 24
247.3713096290556
 34
0.0
100
AcDbRotatedDimension
1001
ACAD
1000
DSTYLE
1002
{
1002
}
  0
DIMENSION
  5
B7
330
415
100
AcDbEntity
  8
DIM
100
AcDbDimension
  2
*D1
 10
133.2868472341983
 20
260.8356349485787
 30
0.0
 11
123.2868472341983
 21
262.6756349485786
 31
0.0
 70
    32
  1
<>
 71
     5
 42
19.99999999999997
  3
STANDARD
100
AcDbAlignedDimension
 13
113.2868472341983
 23
247.8713096290556
 33
0.0
 14
133.2868472341983
 24
247.8713096290556
 34
0.0
100
AcDbRotatedDimension
1001
ACAD
1000
DSTYLE
1002
{
1002
}
  0
DIMENSION
  5
C4
330
415
100
AcDbEntity
  8
DIM
100
AcDbDimension
  2
*D2
 10
113.2868472341983
 20
256.0911793111007
 30
0.0
 11
113.7868472341983
 21
259.2111793111006
 31
0.0
 70
    32
  1
<>
 71
     5
 42
0.9999999999999715
  3
STANDARD
100
AcDbAlignedDimension
 13
114.2868472341983
 23
247.3713096290556
 33
0.0
 14
113.2868472341983
 24
247.8713096290556
 34
0.0
100
AcDbRotatedDimension
1001
ACAD
1000
DSTYLE
1002
{
1002
}
  0
DIMENSION
  5
D3
330
415
100
AcDbEntity
  8
DIM
100
AcDbDimension
  2
*D3
 10
106.586220384918
 20
247.3713096290556
 30
0.0
 11
103.466220384918
 21
247.8713096290556
 31
0.0
 70
    32
  1
<>
 71
     5
 42
1.000000000000056
  3
STANDARD
100
AcDbAlignedDimension
 13
113.7868472341983
 23
248.3713096290557
 33
0.0
 14
114.2868472341983
 24
247.3713096290556
 34
0.0
 50
90.0
100
AcDbRotatedDimension
1001
ACAD
1000
DSTYLE
1002
{
1002
}
  0
DIMENSION
  5
E2
330
415
100
AcDbEntity
  8
DIM
100
AcDbDimension
  2
*D4
 10
100.7111435744198
 20
190.3713096290556
 30
0.0
 11
98.87114357441976
 21
219.3713096290557
 31
0.0
 70
    32
  1
<>
 71
     5
 42
58.0
  3
STANDARD
100
AcDbAlignedDimension
 13
113.7868472341983
 23
248.3713096290557
 33
0.0
 14
113.7868472341983
 24
190.3713096290556
 34
0.0
 50
90.0
100
AcDbRotatedDimension
1001
ACAD
1000
DSTYLE
1002
{
1002
}
  0
DIMENSION
  5
EF
330
415
100
AcDbEntity
  8
DIM
100
AcDbDimension
  2
*D5
 10
140.9180697184661
 20
196.8713096290556
 30
0.0
 11
139.078069718466
 21
219.3713096290557
 31
0.0
 70
    32
  1
<>
 71
     5
 42
45.0
  3
STANDARD
100
AcDbAlignedDimension
 13
126.8868472341983
 23
241.8713096290556
 33
0.0
 14
126.8868472341983
 24
196.8713096290556
 34
0.0
 50
90.0
100
AcDbRotatedDimension
1001
ACAD
1000
DSTYLE
1002
{
1070
    47
1040
0.2
1070
    71
1070
     1
1070
    48
1040
0.2
1002
}
  0
DIMENSION
  5
FC
330
415
100
AcDbEntity
  8
DIM
100
AcDbDimension
  2
*D6
 10
123.2868472341983
 20
182.5441310554174
 30
0.0
 11
127.7868472341983
 21
184.3841310554174
 31
0.0
 70
    32
  1
<>
 71
     5
 42
9.0
  3
STANDARD
100
AcDbAlignedDimension
 13
132.2868472341983
 23
191.3713096290556
 33
0.0
 14
123.2868472341983
 24
196.8713096290556
 34
0.0
100
AcDbRotatedDimension
1001
ACAD
1000
DSTYLE
1002
{
1002
}
  0
SOLID
  5
109
330
415
100
AcDbEntity
  8
DIM
  6
Continuous
100
AcDbTrace
 10
-120.4639082720889
 20
193.3441272385058
 30
0.0
 11
-122.1249687440526
 21
195.1220130921194
 31
0.0
 12
-121.1303069528264
 22
192.9015068613075
 32
0.0
 13
-121.1303069528264
 23
192.9015068613075
 33
0.0
210
0.0
220
0.0
230
-1.0
  0
POLYLINE
  5
37D
330
415
100
AcDbEntity
  8
DIM
100
AcDb2dPolyline
 66
     1
 10
0.0
 20
0.0
 30
0.0
 70
   128
1001
ACAD
1000
R13OBJECT
1002
{
1005
109
1002
}
  0
VERTEX
  5
7A0
330
37D
100
AcDbEntity
  8
DIM
100
AcDbVertex
100
AcDb2dVertex
 10
120.7971076124576
 20
193.1228170499067
 30
0.0
  0
VERTEX
  5
7A1
330
37D
100
AcDbEntity
  8
DIM
100
AcDbVertex
100
AcDb2dVertex
 10
113.6679740745467
 20
182.3893636681679
 30
0.0
  0
VERTEX
  5
7A2
330
37D
100
AcDbEntity
  8
DIM
100
AcDbVertex
100
AcDb2dVertex
 10
111.2679740745467
 20
182.3893636681679
 30
0.0
  0
SEQEND
  5
7A3
330
37D
100
AcDbEntity
  8
DIM
  0
TEXT
  5
10A
330
415
100
AcDbEntity
  8
DIM
100
AcDbText
 10
80.31797407454666
 20
181.1893636681679
 30
0.0
 40
2.4
  1
2-M5×0.8（貫通）
  7
DAYUS
100
AcDbText
  0
DIMENSION
  5
10B
330
415
100
AcDbEntity
  8
DIM
100
AcDbDimension
  2
*D7
 10
187.30104622782
 20
256.4973771011732
 30
0.0
 11
189.80104622782
 21
258.3373771011732
 31
0.0
 70
    32
  1
<>
 71
     5
 42
-1.0
  3
STANDARD
100
AcDbAlignedDimension
 13
192.30104622782
 23
241.8713096290556
 33
0.0
 14
187.30104622782
 24
247.3713096290556
 34
0.0
100
AcDbRotatedDimension
1001
ACAD
1000
DSTYLE
1002
{
1002
}
  0
DIMENSION
  5
11A
330
415
100
AcDbEntity
  8
DIM
100
AcDbDimension
  2
*D8
 10
187.30104622782
 20
261.6536880525444
 30
0.0
 11
192.30104622782
 21
263.4936880525443
 31
0.0
 70
    32
  1
<>
 71
     5
 42
-1.0
  3
STANDARD
100
AcDbAlignedDimension
 13
197.30104622782
 23
247.3713096290556
 33
0.0
 14
187.30104622782
 24
247.3713096290556
 34
0.0
100
AcDbRotatedDimension
1001
ACAD
1000
DSTYLE
1002
{
1002
}
  0
DIMENSION
  5
127
330
415
100
AcDbEntity
  8
DIM
100
AcDbDimension
  2
*D9
 10
206.30104622782
 20
261.6536880525444
 30
0.0
 11
201.80104622782
 21
263.4936880525443
 31
0.0
 70
    32
  1
<>
 71
     5
 42
-1.0
  3
STANDARD
100
AcDbAlignedDimension
 13
197.30104622782
 23
247.3713096290556
 33
0.0
 14
206.30104622782
 24
248.3713096290557
 34
0.0
100
AcDbRotatedDimension
1001
ACAD
1000
DSTYLE
1002
{
1002
}
  0
DIMENSION
  5
134
330
415
100
AcDbEntity
  8
DIM
100
AcDbDimension
  2
*D10
 10
236.3010462278201
 20
256.4973771011732
 30
0.0
 11
221.3010462278201
 21
258.3373771011732
 31
0.0
 70
    32
  1
<>
 71
     5
 42
-1.0
  3
STANDARD
100
AcDbAlignedDimension
 13
206.30104622782
 23
248.3713096290557
 33
0.0
 14
236.3010462278201
 24
219.3713096290557
 34
0.0
100
AcDbRotatedDimension
1001
ACAD
1000
DSTYLE
1002
{
1002
}
  0
DIMENSION
  5
141
330
415
100
AcDbEntity
  8
DIM
100
AcDbDimension
  2
*D11
 10
261.3010462278201
 20
256.4973771011732
 30
0.0
 11
248.8010462278201
 21
258.3373771011732
 31
0.0
 70
    32
  1
<>
 71
     5
 42
-1.0
  3
STANDARD
100
AcDbAlignedDimension
 13
236.3010462278201
 23
219.3713096290557
 33
0.0
 14
261.3010462278201
 24
219.3713096290557
 34
0.0
100
AcDbRotatedDimension
1001
ACAD
1000
DSTYLE
1002
{
1002
}
  0
DIMENSION
  5
14E
330
415
100
AcDbEntity
  8
DIM
100
AcDbDimension
  2
*D12
 10
276.3010462278201
 20
261.6536880525444
 30
0.0
 11
241.30104622782
 21
263.4936880525443
 31
0.0
 70
    32
  1
<>
 71
     5
 42
-1.0
  3
STANDARD
100
AcDbAlignedDimension
 13
206.30104622782
 23
248.3713096290557
 33
0.0
 14
276.3010462278201
 24
248.3713096290557
 34
0.0
100
AcDbRotatedDimension
1001
ACAD
1000
DSTYLE
1002
{
1002
}
  0
DIMENSION
  5
15B
330
415
100
AcDbEntity
  8
DIM
100
AcDbDimension
  2
*D13
 10
276.3010462278201
 20
267.0964599734195
 30
0.0
 11
231.8010462278201
 21
268.9364599734195
 31
0.0
 70
    32
  1
<>
 71
     5
 42
-1.0
  3
STANDARD
100
AcDbAlignedDimension
 13
187.30104622782
 23
247.3713096290556
 33
0.0
 14
276.3010462278201
 24
248.3713096290557
 34
0.0
100
AcDbRotatedDimension
1001
ACAD
1000
DSTYLE
1002
{
1002
}
  0
DIMENSION
  5
168
330
415
100
AcDbEntity
  8
DIM
100
AcDbDimension
  2
*D14
 10
172.9725677453016
 20
196.8713096290557
 30
0.0
 11
171.1325677453015
 21
219.3713096290557
 31
0.0
 70
    32
  1
<>
 71
     5
 42
-1.0
  3
STANDARD
100
AcDbAlignedDimension
 13
192.30104622782
 23
241.8713096290556
 33
0.0
 14
192.30104622782
 24
196.8713096290556
 34
0.0
 50
90.00000000000019
100
AcDbRotatedDimension
1001
ACAD
1000
DSTYLE
1002
{
1002
}
  0
DIMENSION
  5
175
330
415
100
AcDbEntity
  8
DIM
100
AcDbDimension
  2
*D15
 10
179.56510688006
 20
210.8713096290557
 30
0.0
 11
176.44510688006
 21
206.8713096290557
 31
0.0
 70
    32
  1
2-%%C<>
 71
     5
 42
-1.0
  3
STANDARD
100
AcDbAlignedDimension
 13
196.30104622782
 23
202.8713096290557
 33
0.0
 14
196.30104622782
 24
210.8713096290557
 34
0.0
 50
90.00000000000019
100
AcDbRotatedDimension
1001
ACAD
1000
DSTYLE
1002
{
1002
}
  0
SOLID
  5
183
330
415
100
AcDbEntity
  8
DIM
  6
Continuous
100
AcDbTrace
 10
-190.0190862177872
 20
245.2410512382315
 30
0.0
 11
-191.2460589234215
 21
243.1399710447052
 31
0.0
 12
-189.4039776526238
 22
244.7295422421595
 32
0.0
 13
-189.4039776526238
 23
244.7295422421595
 33
0.0
210
0.0
220
0.0
230
-1.0
  0
POLYLINE
  5
382
330
415
100
AcDbEntity
  8
DIM
100
AcDb2dPolyline
 66
     1
 10
0.0
 20
0.0
 30
0.0
 70
   128
1001
ACAD
1000
R13OBJECT
1002
{
1005
183
1002
}
  0
VERTEX
  5
7A4
330
382
100
AcDbEntity
  8
DIM
100
AcDbVertex
100
AcDb2dVertex
 10
189.7115319352055
 20
244.9852967401954
 30
0.0
  0
VERTEX
  5
7A5
330
382
100
AcDbEntity
  8
DIM
100
AcDbVertex
100
AcDb2dVertex
 10
180.1383712575489
 20
256.4973780011931
 30
0.0
  0
VERTEX
  5
7A6
330
382
100
AcDbEntity
  8
DIM
100
AcDbVertex
100
AcDb2dVertex
 10
148.4052707538268
 20
256.4973780011931
 30
0.0
  0
SEQEND
  5
7A7
330
382
100
AcDbEntity
  8
DIM
  0
TEXT
  5
184
330
415
100
AcDbEntity
  8
DIM
100
AcDbText
 10
149.0383712575489
 20
257.2973780011931
 30
0.0
 40
2.4
  1
4-M4×0.7x6深
  7
DAYUS
100
AcDbText
  0
TEXT
  5
387
330
415
100
AcDbEntity
  8
DIM
100
AcDbText
 10
162.6383712575489
 20
253.2973780011931
 30
0.0
 40
2.4
  1
（正反面）
  7
DAYUS
100
AcDbText
1001
ACAD
1000
R13OBJECT
1002
{
1005
184
1002
}
  0
SOLID
  5
185
330
415
100
AcDbEntity
  8
DIM
  6
Continuous
100
AcDbTrace
 10
-264.3318546128613
 20
225.0223449796055
 30
0.0
 11
-262.9680461815208
 21
223.0073942202556
 31
0.0
 12
-263.6046376946213
 22
225.3557449703456
 32
0.0
 13
-263.6046376946213
 23
225.3557449703456
 33
0.0
210
0.0
220
0.0
230
-1.0
  0
POLYLINE
  5
388
330
415
100
AcDbEntity
  8
DIM
100
AcDb2dPolyline
 66
     1
 10
0.0
 20
0.0
 30
0.0
 70
   128
1001
ACAD
1000
R13OBJECT
1002
{
1005
185
1002
}
  0
VERTEX
  5
7A8
330
388
100
AcDbEntity
  8
DIM
100
AcDbVertex
100
AcDb2dVertex
 10
263.9682461537413
 20
225.1890449749756
 30
0.0
  0
VERTEX
  5
7A9
330
388
100
AcDbEntity
  8
DIM
100
AcDbVertex
100
AcDb2dVertex
 10
278.4532011396223
 20
256.7838398707167
 30
0.0
  0
VERTEX
  5
7AA
330
388
100
AcDbEntity
  8
DIM
100
AcDbVertex
100
AcDb2dVertex
 10
327.8455103983539
 20
256.7838398707167
 30
0.0
  0
SEQEND
  5
7AB
330
388
100
AcDbEntity
  8
DIM
  0
TEXT
  5
186
330
415
100
AcDbEntity
  8
DIM
100
AcDbText
 10
282.0532011396224
 20
261.4959035908196
 30
0.0
 40
2.4
  1
4-
  7
DAYUS
100
AcDbText
  0
TEXT
  5
38D
330
415
100
AcDbEntity
  8
DIM
100
AcDbText
 10
286.8532011396224
 20
261.4959035908196
 30
0.0
 40
2.4
  1
%%c
  7
DAYUS
100
AcDbText
1001
ACAD
1000
R13OBJECT
1002
{
1005
186
1002
}
  0
TEXT
  5
38E
330
415
100
AcDbEntity
  8
DIM
100
AcDbText
 10
289.2532011396223
 20
261.4959035908196
 30
0.0
 40
2.4
  1
8沉孔，深4.4mm
  7
DAYUS
100
AcDbText
1001
ACAD
1000
R13OBJECT
1002
{
1005
186
1002
}
  0
TEXT
  5
38F
330
415
100
AcDbEntity
  8
DIM
100
AcDbText
 10
314.4063310661076
 20
261.2005273696917
 30
0.0
 40
2.4
  1
（正反面）
  7
DAYUS
100
AcDbText
1001
ACAD
1000
R13OBJECT
1002
{
1005
186
1002
}
  0
TEXT
  5
390
330
415
100
AcDbEntity
  8
DIM
100
AcDbText
 10
282.0532011396224
 20
257.977302881282
 30
0.0
 40
2.4
  1
2-M5×0.8（貫通）
  7
DAYUS
100
AcDbText
1001
ACAD
1000
R13OBJECT
1002
{
1005
186
1002
}
  0
DIMENSION
  5
187
330
415
100
AcDbEntity
  8
DIM
100
AcDbDimension
  2
*D16
 10
314.6490399981526
 20
231.8713096290557
 30
0.0
 11
312.8090399981526
 21
219.3713096290557
 31
0.0
 70
    32
  1
<>
 71
     5
 42
24.99999999999997
  3
STANDARD
100
AcDbAlignedDimension
 13
332.9877694077703
 23
206.8713096290557
 33
0.0
 14
332.9877694077703
 24
231.8713096290557
 34
0.0
 50
90.00000000000081
100
AcDbRotatedDimension
1001
ACAD
1000
DSTYLE
1002
{
1002
}
  0
DIMENSION
  5
194
330
415
100
AcDbEntity
  8
DIM
100
AcDbDimension
  2
*D17
 10
206.30104622782
 20
158.0640534152131
 30
0.0
 11
221.3010462278201
 21
159.9040534152131
 31
0.0
 70
    32
  1
<>
 71
     5
 42
30.0
  3
STANDARD
100
AcDbAlignedDimension
 13
236.3010462278201
 23
140.0442883333531
 33
0.0
 14
206.30104622782
 24
150.0442883333531
 34
0.0
100
AcDbRotatedDimension
1001
ACAD
1000
DSTYLE
1002
{
1002
}
  0
DIMENSION
  5
1A1
330
415
100
AcDbEntity
  8
DIM
100
AcDbDimension
  2
*D18
 10
261.3010462278201
 20
158.0640534152131
 30
0.0
 11
248.8010462278201
 21
159.9040534152131
 31
0.0
 70
    32
  1
<>
 71
     5
 42
25.0
  3
STANDARD
100
AcDbAlignedDimension
 13
236.3010462278201
 23
140.0442883333531
 33
0.0
 14
261.3010462278201
 24
140.0442883333531
 34
0.0
100
AcDbRotatedDimension
1001
ACAD
1000
DSTYLE
1002
{
1002
}
  0
DIMENSION
  5
1AE
330
415
100
AcDbEntity
  8
DIM
100
AcDbDimension
  2
*D19
 10
244.8010462278201
 20
121.2196986371671
 30
0.0
 11
225.5510462278201
 21
123.0596986371671
 31
0.0
 70
    32
  1
<>
 71
     5
 42
38.5
  3
STANDARD
100
AcDbAlignedDimension
 13
206.30104622782
 23
130.0442883333531
 33
0.0
 14
244.8010462278201
 24
140.0442883333531
 34
0.0
100
AcDbRotatedDimension
1001
ACAD
1000
DSTYLE
1002
{
1002
}
  0
DIMENSION
  5
1BB
330
415
100
AcDbEntity
  8
DIM
100
AcDbDimension
  2
*D20
 10
276.3010462278201
 20
121.2196986371671
 30
0.0
 11
272.30104622782
 21
123.0596986371671
 31
0.0
 70
    32
  1
<>
 71
     5
 42
8.0
  3
STANDARD
100
AcDbAlignedDimension
 13
268.30104622782
 23
140.0442883333531
 33
0.0
 14
276.3010462278201
 24
130.5442883333531
 34
0.0
100
AcDbRotatedDimension
1001
ACAD
1000
DSTYLE
1002
{
1002
}
  0
DIMENSION
  5
1C8
330
415
100
AcDbEntity
  8
DIM
100
AcDbDimension
  2
*D21
 10
182.0748141717683
 20
150.0442874911772
 30
0.0
 11
180.2348141717683
 21
145.0442879122652
 31
0.0
 70
    32
 71
     5
 42
9.999999157824078
  3
STANDARD
100
AcDbAlignedDimension
 13
185.1227612540356
 23
140.0442883333531
 33
0.0
 14
206.3010463459359
 24
150.0442874911771
 34
0.0
 50
90.0
100
AcDbRotatedDimension
  0
DIMENSION
  5
1D5
330
415
100
AcDbEntity
  8
DIM
100
AcDbDimension
  2
*D22
 10
182.0748141717683
 20
135.0442883333531
 30
0.0
 11
180.2348141717683
 21
137.5442883333531
 31
0.0
 70
    32
 71
     5
 42
4.999999999999971
  3
STANDARD
100
AcDbAlignedDimension
 13
184.4827612540356
 23
140.0442883333531
 33
0.0
 14
196.5196865442531
 24
135.0442883333531
 34
0.0
 50
90.0
100
AcDbRotatedDimension
  0
SOLID
  5
1E4
330
415
100
AcDbEntity
  8
DIM
  6
Continuous
100
AcDbTrace
 10
-264.078373082347
 20
143.019007739133
 30
0.0
 11
-262.3030792480502
 21
141.3551772784466
 31
0.0
 12
-263.4427905635137
 22
143.5048419307597
 32
0.0
 13
-263.4427905635137
 23
143.5048419307597
 33
0.0
210
0.0
220
0.0
230
-1.0
  0
POLYLINE
  5
391
330
415
100
AcDbEntity
  8
DIM
100
AcDb2dPolyline
 66
     1
 10
0.0
 20
0.0
 30
0.0
 70
   128
1001
ACAD
1000
R13OBJECT
1002
{
1005
1E4
1002
}
  0
VERTEX
  5
7AC
330
391
100
AcDbEntity
  8
DIM
100
AcDbVertex
100
AcDb2dVertex
 10
263.7605818229304
 20
143.2619248349463
 30
0.0
  0
VERTEX
  5
7AD
330
391
100
AcDbEntity
  8
DIM
100
AcDbVertex
100
AcDb2dVertex
 10
275.2196389985352
 20
158.2529990504902
 30
0.0
  0
VERTEX
  5
7AE
330
391
100
AcDbEntity
  8
DIM
100
AcDbVertex
100
AcDb2dVertex
 10
277.6196389985352
 20
158.2529990504902
 30
0.0
  0
SEQEND
  5
7AF
330
391
100
AcDbEntity
  8
DIM
  0
TEXT
  5
1E5
330
415
100
AcDbEntity
  8
DIM
100
AcDbText
 10
278.8196389985352
 20
159.0529990504902
 30
0.0
 40
2.4
  1
4-M4×0.7深5mm
  7
DAYUS
100
AcDbText
  0
TEXT
  5
396
330
415
100
AcDbEntity
  8
DIM
100
AcDbText
 10
278.8196389985352
 20
155.0529990504902
 30
0.0
 40
2.4
  1
（正反面）
  7
DAYUS
100
AcDbText
1001
ACAD
1000
R13OBJECT
1002
{
1005
1E5
1002
}
  0
DIMENSION
  5
1E6
330
415
100
AcDbEntity
  8
DIM
100
AcDbDimension
  2
*D23
 10
281.7893983537479
 20
140.0442883333531
 30
0.0
 11
279.9493983537478
 21
145.0442883333531
 31
0.0
 70
    32
  1
<>
 71
     5
 42
10.0
  3
STANDARD
100
AcDbAlignedDimension
 13
276.3010462278201
 23
150.0442883333531
 33
0.0
 14
268.30104622782
 24
140.0442883333531
 34
0.0
 50
90.00000000000019
100
AcDbRotatedDimension
1001
ACAD
1000
DSTYLE
1002
{
1002
}
  0
SOLID
  5
1F3
330
415
100
AcDbEntity
  8
DIM
  6
Continuous
100
AcDbTrace
 10
-271.779495436592
 20
137.1615134371821
 30
0.0
 11
-270.0302415210919
 21
138.8526996300975
 31
0.0
 12
-272.2334339902132
 22
137.8202545012857
 32
0.0
 13
-272.2334339902132
 23
137.8202545012857
 33
0.0
210
0.0
220
0.0
230
-1.0
  0
POLYLINE
  5
397
330
415
100
AcDbEntity
  8
DIM
100
AcDb2dPolyline
 66
     1
 10
0.0
 20
0.0
 30
0.0
 70
   128
1001
ACAD
1000
R13OBJECT
1002
{
1005
1F3
1002
}
  0
VERTEX
  5
7B0
330
397
100
AcDbEntity
  8
DIM
100
AcDbVertex
100
AcDb2dVertex
 10
272.0064647134027
 20
137.4908839692339
 30
0.0
  0
VERTEX
  5
7B1
330
397
100
AcDbEntity
  8
DIM
100
AcDbVertex
100
AcDb2dVertex
 10
281.9387112857053
 20
130.6465715543467
 30
0.0
  0
VERTEX
  5
7B2
330
397
100
AcDbEntity
  8
DIM
100
AcDbVertex
100
AcDb2dVertex
 10
284.3387112857053
 20
130.6465715543467
 30
0.0
  0
SEQEND
  5
7B3
330
397
100
AcDbEntity
  8
DIM
  0
TEXT
  5
1F4
330
415
100
AcDbEntity
  8
DIM
100
AcDbText
 10
285.5387112857053
 20
131.4465715543467
 30
0.0
 40
2.4
  1
4-M5×0.8
  7
DAYUS
100
AcDbText
  0
TEXT
  5
39C
330
415
100
AcDbEntity
  8
DIM
100
AcDbText
 10
285.5387112857053
 20
127.4465715543467
 30
0.0
 40
2.4
  1
（正反面）
  7
DAYUS
100
AcDbText
1001
ACAD
1000
R13OBJECT
1002
{
1005
1F4
1002
}
  0
DIMENSION
  5
1F5
330
415
100
AcDbEntity
  8
DIM
100
AcDbDimension
  2
*D24
 10
167.0760224733937
 20
191.3713096290556
 30
0.0
 11
165.2360224733937
 21
219.3713096290557
 31
0.0
 70
    32
  1
<>
 71
     5
 42
-1.0
  3
STANDARD
100
AcDbAlignedDimension
 13
187.30104622782
 23
247.3713096290556
 33
0.0
 14
187.30104622782
 24
191.3713096290556
 34
0.0
 50
90.00000000000019
100
AcDbRotatedDimension
1001
ACAD
1000
DSTYLE
1002
{
1002
}
  0
LINE
  5
207
330
415
100
AcDbEntity
  8
0
100
AcDbLine
 10
114.2868472341983
 20
218.2995128593312
 30
0.0
 11
113.6680450806813
 21
219.3713096290557
 31
0.0
  0
LINE
  5
209
330
415
100
AcDbEntity
  8
0
100
AcDbLine
 10
113.6680450806813
 20
219.3713096290557
 30
0.0
 11
114.2868472341983
 21
220.4431063987801
 31
0.0
  0
CIRCLE
  5
20A
330
415
100
AcDbEntity
  8
0
100
AcDbCircle
 10
123.2868472341983
 20
206.8713096290557
 30
0.0
 40
4.25
  0
CIRCLE
  5
20B
330
415
100
AcDbEntity
  8
0
100
AcDbCircle
 10
-123.2868472341983
 20
206.8713096290557
 30
0.0
 40
3.75
210
0.0
220
0.0
230
-1.0
  0
LINE
  5
20C
330
415
100
AcDbEntity
  8
0
100
AcDbLine
 10
124.4618472341983
 20
204.8361499301623
 30
0.0
 11
122.1118472341983
 21
204.8361499301623
 31
0.0
  0
LINE
  5
20D
330
415
100
AcDbEntity
  8
0
100
AcDbLine
 10
122.1118472341983
 20
204.8361499301623
 30
0.0
 11
120.9368472341983
 21
206.8713096290557
 31
0.0
  0
LINE
  5
20E
330
415
100
AcDbEntity
  8
0
100
AcDbLine
 10
120.9368472341983
 20
206.8713096290557
 30
0.0
 11
122.1118472341983
 21
208.9064693279492
 31
0.0
  0
LINE
  5
20F
330
415
100
AcDbEntity
  8
0
100
AcDbLine
 10
122.1118472341983
 20
208.9064693279492
 30
0.0
 11
124.4618472341983
 21
208.9064693279492
 31
0.0
  0
LINE
  5
210
330
415
100
AcDbEntity
  8
0
100
AcDbLine
 10
124.4618472341983
 20
208.9064693279492
 30
0.0
 11
125.6368472341983
 21
206.8713096290557
 31
0.0
  0
LINE
  5
211
330
415
100
AcDbEntity
  8
0
100
AcDbLine
 10
125.6368472341983
 20
206.8713096290557
 30
0.0
 11
124.4618472341983
 21
204.8361499301623
 31
0.0
  0
LINE
  5
212
330
415
100
AcDbEntity
  8
0
100
AcDbLine
 10
132.2868472341983
 20
191.3713096290556
 30
0.0
 11
114.2868472341983
 21
191.3713096290556
 31
0.0
  0
LINE
  5
213
330
415
100
AcDbEntity
  8
0
100
AcDbLine
 10
132.2868472341983
 20
247.3713096290556
 30
0.0
 11
132.2868472341983
 21
191.3713096290556
 31
0.0
  0
LINE
  5
214
330
415
100
AcDbEntity
  8
0
100
AcDbLine
 10
114.2868472341983
 20
247.3713096290556
 30
0.0
 11
132.2868472341983
 21
247.3713096290556
 31
0.0
  0
LINE
  5
215
330
415
100
AcDbEntity
  8
0
100
AcDbLine
 10
114.2868472341983
 20
191.3713096290556
 30
0.0
 11
114.2868472341983
 21
247.3713096290556
 31
0.0
  0
CIRCLE
  5
216
330
415
100
AcDbEntity
  8
0
100
AcDbCircle
 10
-123.2868472341983
 20
231.8713096290557
 30
0.0
 40
4.0
210
0.0
220
0.0
230
-1.0
  0
CIRCLE
  5
217
330
415
100
AcDbEntity
  8
0
100
AcDbCircle
 10
-123.2868472341983
 20
206.8713096290557
 30
0.0
 40
4.75
210
0.0
220
0.0
230
-1.0
  0
CIRCLE
  5
218
330
415
100
AcDbEntity
  8
0
100
AcDbCircle
 10
-123.2868472341983
 20
196.8713096290556
 30
0.0
 40
2.1
210
0.0
220
0.0
230
-1.0
  0
CIRCLE
  5
219
330
415
100
AcDbEntity
  8
0
100
AcDbCircle
 10
-123.2868472341983
 20
241.8713096290556
 30
0.0
 40
2.1
210
0.0
220
0.0
230
-1.0
  0
CIRCLE
  5
21A
330
415
100
AcDbEntity
  8
0
100
AcDbCircle
 10
-123.2868472341983
 20
231.8713096290557
 30
0.0
 40
3.5
210
0.0
220
0.0
230
-1.0
  0
ARC
  5
21B
330
415
100
AcDbEntity
  8
0
100
AcDbCircle
 10
-132.7868472341983
 20
190.8713096290556
 30
0.0
 40
0.5
210
0.0
220
0.0
230
-1.0
100
AcDbArc
 50
180.0
 51
270.0
  0
LINE
  5
21C
330
415
100
AcDbEntity
  8
0
100
AcDbLine
 10
132.7868472341983
 20
190.3713096290556
 30
0.0
 11
113.7868472341983
 21
190.3713096290556
 31
0.0
  0
ARC
  5
21D
330
415
100
AcDbEntity
  8
0
100
AcDbCircle
 10
-113.7868472341983
 20
190.8713096290556
 30
0.0
 40
0.5
210
0.0
220
0.0
230
-1.0
100
AcDbArc
 50
270.0
 51
0.0
  0
LINE
  5
21E
330
415
100
AcDbEntity
  8
0
100
AcDbLine
 10
113.2868472341983
 20
190.8713096290556
 30
0.0
 11
113.2868472341983
 21
193.3713096290556
 31
0.0
  0
LINE
  5
21F
330
415
100
AcDbEntity
  8
0
100
AcDbLine
 10
113.5868472341983
 20
193.6713096290556
 30
0.0
 11
113.2868472341983
 21
193.3713096290556
 31
0.0
  0
LINE
  5
220
330
415
100
AcDbEntity
  8
0
100
AcDbLine
 10
113.5868472341983
 20
195.6713096290556
 30
0.0
 11
113.5868472341983
 21
193.6713096290556
 31
0.0
  0
LINE
  5
221
330
415
100
AcDbEntity
  8
0
100
AcDbLine
 10
114.0868472341983
 20
195.6713096290556
 30
0.0
 11
113.5868472341983
 21
195.6713096290556
 31
0.0
  0
LINE
  5
222
330
415
100
AcDbEntity
  8
0
100
AcDbLine
 10
114.2868472341983
 20
195.4713096290556
 30
0.0
 11
114.0868472341983
 21
195.6713096290556
 31
0.0
  0
LINE
  5
223
330
415
100
AcDbEntity
  8
0
100
AcDbLine
 10
114.0868472341983
 20
199.0713096290556
 30
0.0
 11
114.2868472341983
 21
199.2713096290556
 31
0.0
  0
LINE
  5
224
330
415
100
AcDbEntity
  8
0
100
AcDbLine
 10
113.5868472341983
 20
199.0713096290556
 30
0.0
 11
114.0868472341983
 21
199.0713096290556
 31
0.0
  0
LINE
  5
225
330
415
100
AcDbEntity
  8
0
100
AcDbLine
 10
113.5868472341983
 20
201.0713096290556
 30
0.0
 11
113.5868472341983
 21
199.0713096290556
 31
0.0
  0
LINE
  5
226
330
415
100
AcDbEntity
  8
0
100
AcDbLine
 10
113.2868472341983
 20
201.3713096290556
 30
0.0
 11
113.5868472341983
 21
201.0713096290556
 31
0.0
  0
LINE
  5
227
330
415
100
AcDbEntity
  8
0
100
AcDbLine
 10
113.2868472341983
 20
201.3713096290556
 30
0.0
 11
113.2868472341983
 21
237.3713096290556
 31
0.0
  0
LINE
  5
228
330
415
100
AcDbEntity
  8
0
100
AcDbLine
 10
113.2868472341983
 20
245.3713096290556
 30
0.0
 11
113.2868472341983
 21
247.8713096290556
 31
0.0
  0
ARC
  5
229
330
415
100
AcDbEntity
  8
0
100
AcDbCircle
 10
-113.7868472341983
 20
247.8713096290556
 30
0.0
 40
0.5
210
0.0
220
0.0
230
-1.0
100
AcDbArc
 50
0.0
 51
90.0
  0
LINE
  5
22A
330
415
100
AcDbEntity
  8
0
100
AcDbLine
 10
113.7868472341983
 20
248.3713096290557
 30
0.0
 11
132.7868472341983
 21
248.3713096290557
 31
0.0
  0
ARC
  5
22B
330
415
100
AcDbEntity
  8
0
100
AcDbCircle
 10
-132.7868472341983
 20
247.8713096290556
 30
0.0
 40
0.5
210
0.0
220
0.0
230
-1.0
100
AcDbArc
 50
90.0
 51
180.0
  0
LINE
  5
22C
330
415
100
AcDbEntity
  8
0
100
AcDbLine
 10
114.2868472341983
 20
239.4713096290556
 30
0.0
 11
114.0868472341983
 21
239.6713096290556
 31
0.0
  0
LINE
  5
22D
330
415
100
AcDbEntity
  8
0
100
AcDbLine
 10
114.0868472341983
 20
239.6713096290556
 30
0.0
 11
113.5868472341983
 21
239.6713096290556
 31
0.0
  0
LINE
  5
22E
330
415
100
AcDbEntity
  8
0
100
AcDbLine
 10
113.5868472341983
 20
239.6713096290556
 30
0.0
 11
113.5868472341983
 21
237.6713096290556
 31
0.0
  0
LINE
  5
22F
330
415
100
AcDbEntity
  8
0
100
AcDbLine
 10
113.5868472341983
 20
237.6713096290556
 30
0.0
 11
113.2868472341983
 21
237.3713096290556
 31
0.0
  0
LINE
  5
230
330
415
100
AcDbEntity
  8
0
100
AcDbLine
 10
113.2868472341983
 20
245.3713096290556
 30
0.0
 11
113.5868472341983
 21
245.0713096290556
 31
0.0
  0
LINE
  5
231
330
415
100
AcDbEntity
  8
0
100
AcDbLine
 10
113.5868472341983
 20
245.0713096290556
 30
0.0
 11
113.5868472341983
 21
243.0713096290556
 31
0.0
  0
LINE
  5
232
330
415
100
AcDbEntity
  8
0
100
AcDbLine
 10
113.5868472341983
 20
243.0713096290556
 30
0.0
 11
114.0868472341983
 21
243.0713096290556
 31
0.0
  0
LINE
  5
233
330
415
100
AcDbEntity
  8
0
100
AcDbLine
 10
114.0868472341983
 20
243.0713096290556
 30
0.0
 11
114.2868472341983
 21
243.2713096290556
 31
0.0
  0
LINE
  5
234
330
415
100
AcDbEntity
  8
0
100
AcDbLine
 10
133.2868472341983
 20
193.2713096290557
 30
0.0
 11
133.2868472341983
 21
190.8713096290556
 31
0.0
  0
LINE
  5
235
330
415
100
AcDbEntity
  8
0
100
AcDbLine
 10
132.2868472341983
 20
200.8713096290557
 30
0.0
 11
132.9868472341983
 21
200.8713096290557
 31
0.0
  0
LINE
  5
236
330
415
100
AcDbEntity
  8
0
100
AcDbLine
 10
132.9868472341983
 20
193.5713096290556
 30
0.0
 11
132.2868472341983
 21
193.5713096290556
 31
0.0
  0
ARC
  5
237
330
415
100
AcDbEntity
  8
0
100
AcDbCircle
 10
-132.9868472341983
 20
193.2713096290557
 30
0.0
 40
0.3
210
0.0
220
0.0
230
-1.0
100
AcDbArc
 50
90.0
 51
180.0
  0
LINE
  5
238
330
415
100
AcDbEntity
  8
0
100
AcDbLine
 10
133.2868472341983
 20
237.5713096290557
 30
0.0
 11
133.2868472341983
 21
201.1713096290557
 31
0.0
  0
ARC
  5
239
330
415
100
AcDbEntity
  8
0
100
AcDbCircle
 10
-132.9868472341983
 20
201.1713096290557
 30
0.0
 40
0.2999999999999999
210
0.0
220
0.0
230
-1.0
100
AcDbArc
 50
180.0
 51
270.0
  0
LINE
  5
23A
330
415
100
AcDbEntity
  8
0
100
AcDbLine
 10
132.2868472341983
 20
245.1713096290557
 30
0.0
 11
132.9868472341983
 21
245.1713096290557
 31
0.0
  0
LINE
  5
23B
330
415
100
AcDbEntity
  8
0
100
AcDbLine
 10
132.9868472341983
 20
237.8713096290557
 30
0.0
 11
132.2868472341983
 21
237.8713096290557
 31
0.0
  0
ARC
  5
23C
330
415
100
AcDbEntity
  8
0
100
AcDbCircle
 10
-132.9868472341983
 20
237.5713096290557
 30
0.0
 40
0.3
210
0.0
220
0.0
230
-1.0
100
AcDbArc
 50
90.0
 51
180.0
  0
LINE
  5
23D
330
415
100
AcDbEntity
  8
0
100
AcDbLine
 10
133.2868472341983
 20
247.8713096290556
 30
0.0
 11
133.2868472341983
 21
245.4713096290557
 31
0.0
  0
ARC
  5
23E
330
415
100
AcDbEntity
  8
0
100
AcDbCircle
 10
-132.9868472341983
 20
245.4713096290557
 30
0.0
 40
0.2999999999999999
210
0.0
220
0.0
230
-1.0
100
AcDbArc
 50
180.0
 51
270.0
  0
LINE
  5
243
330
415
100
AcDbEntity
  8
0
100
AcDbLine
 10
197.80104622782
 20
223.3713096290557
 30
0.0
 11
197.80104622782
 21
219.3713096290557
 31
0.0
  0
LINE
  5
244
330
415
100
AcDbEntity
  8
0
100
AcDbLine
 10
197.80104622782
 20
223.3713096290557
 30
0.0
 11
201.80104622782
 21
223.3713096290557
 31
0.0
  0
LINE
  5
245
330
415
100
AcDbEntity
  8
0
100
AcDbLine
 10
201.80104622782
 20
219.3713096290557
 30
0.0
 11
201.80104622782
 21
223.3713096290557
 31
0.0
  0
LINE
  5
246
330
415
100
AcDbEntity
  8
0
100
AcDbLine
 10
197.80104622782
 20
219.3713096290557
 30
0.0
 11
197.80104622782
 21
215.3713096290557
 31
0.0
  0
LINE
  5
247
330
415
100
AcDbEntity
  8
0
100
AcDbLine
 10
197.80104622782
 20
219.3713096290557
 30
0.0
 11
201.80104622782
 21
219.3713096290557
 31
0.0
  0
LINE
  5
248
330
415
100
AcDbEntity
  8
0
100
AcDbLine
 10
201.80104622782
 20
215.3713096290557
 30
0.0
 11
201.80104622782
 21
219.3713096290557
 31
0.0
  0
LINE
  5
249
330
415
100
AcDbEntity
  8
0
100
AcDbLine
 10
197.80104622782
 20
215.3713096290557
 30
0.0
 11
201.80104622782
 21
215.3713096290557
 31
0.0
  0
LINE
  5
24A
330
415
100
AcDbEntity
  8
0
100
AcDbLine
 10
202.9160468446472
 20
223.3713096290557
 30
0.0
 11
205.8860456109929
 21
223.3713096290557
 31
0.0
  0
LINE
  5
24B
330
415
100
AcDbEntity
  8
0
100
AcDbLine
 10
202.9160468446472
 20
219.3713096290557
 30
0.0
 11
205.8860456109929
 21
219.3713096290557
 31
0.0
  0
POLYLINE
  5
24C
330
415
100
AcDbEntity
  8
0
100
AcDb2dPolyline
 66
     1
 10
0.0
 20
0.0
 30
0.0
  0
VERTEX
  5
764
330
24C
100
AcDbEntity
  8
0
100
AcDbVertex
100
AcDb2dVertex
 10
202.5587812547393
 20
223.3713096290557
 30
0.0
  0
VERTEX
  5
765
330
24C
100
AcDbEntity
  8
0
100
AcDbVertex
100
AcDb2dVertex
 10
202.9160468446472
 20
223.3713096290557
 30
0.0
  0
SEQEND
  5
766
330
24C
100
AcDbEntity
  8
0
  0
POLYLINE
  5
24D
330
415
100
AcDbEntity
  8
0
100
AcDb2dPolyline
 66
     1
 10
0.0
 20
0.0
 30
0.0
  0
VERTEX
  5
767
330
24D
100
AcDbEntity
  8
0
100
AcDbVertex
100
AcDb2dVertex
 10
202.9160468446472
 20
223.3713096290557
 30
0.0
  0
VERTEX
  5
768
330
24D
100
AcDbEntity
  8
0
100
AcDbVertex
100
AcDb2dVertex
 10
202.9160468446472
 20
219.3713096290557
 30
0.0
  0
SEQEND
  5
769
330
24D
100
AcDbEntity
  8
0
  0
POLYLINE
  5
24E
330
415
100
AcDbEntity
  8
0
100
AcDb2dPolyline
 66
     1
 10
0.0
 20
0.0
 30
0.0
  0
VERTEX
  5
76A
330
24E
100
AcDbEntity
  8
0
100
AcDbVertex
100
AcDb2dVertex
 10
202.9160468446472
 20
219.3713096290557
 30
0.0
  0
VERTEX
  5
76B
330
24E
100
AcDbEntity
  8
0
100
AcDbVertex
100
AcDb2dVertex
 10
202.9160468446472
 20
215.3713096290557
 30
0.0
  0
SEQEND
  5
76C
330
24E
100
AcDbEntity
  8
0
  0
POLYLINE
  5
24F
330
415
100
AcDbEntity
  8
0
100
AcDb2dPolyline
 66
     1
 10
0.0
 20
0.0
 30
0.0
  0
VERTEX
  5
76D
330
24F
100
AcDbEntity
  8
0
100
AcDbVertex
100
AcDb2dVertex
 10
202.9160468446472
 20
215.3713096290557
 30
0.0
  0
VERTEX
  5
76E
330
24F
100
AcDbEntity
  8
0
100
AcDbVertex
100
AcDb2dVertex
 10
202.5587812547393
 20
215.3713096290556
 30
0.0
  0
SEQEND
  5
76F
330
24F
100
AcDbEntity
  8
0
  0
LINE
  5
250
330
415
100
AcDbEntity
  8
0
100
AcDbLine
 10
202.9160468446472
 20
215.3713096290557
 30
0.0
 11
205.8860456109929
 21
215.3713096290557
 31
0.0
  0
POLYLINE
  5
251
330
415
100
AcDbEntity
  8
0
100
AcDb2dPolyline
 66
     1
 10
0.0
 20
0.0
 30
0.0
  0
VERTEX
  5
770
330
251
100
AcDbEntity
  8
0
100
AcDbVertex
100
AcDb2dVertex
 10
205.8860456109929
 20
219.3713096290557
 30
0.0
  0
VERTEX
  5
771
330
251
100
AcDbEntity
  8
0
100
AcDbVertex
100
AcDb2dVertex
 10
205.8860456109929
 20
223.3713096290557
 30
0.0
  0
SEQEND
  5
772
330
251
100
AcDbEntity
  8
0
  0
POLYLINE
  5
252
330
415
100
AcDbEntity
  8
0
100
AcDb2dPolyline
 66
     1
 10
0.0
 20
0.0
 30
0.0
  0
VERTEX
  5
773
330
252
100
AcDbEntity
  8
0
100
AcDbVertex
100
AcDb2dVertex
 10
205.8860456109929
 20
223.3713096290557
 30
0.0
  0
VERTEX
  5
774
330
252
100
AcDbEntity
  8
0
100
AcDbVertex
100
AcDb2dVertex
 10
206.2433112009009
 20
223.3713096290557
 30
0.0
  0
SEQEND
  5
775
330
252
100
AcDbEntity
  8
0
  0
POLYLINE
  5
253
330
415
100
AcDbEntity
  8
0
100
AcDb2dPolyline
 66
     1
 10
0.0
 20
0.0
 30
0.0
  0
VERTEX
  5
776
330
253
100
AcDbEntity
  8
0
100
AcDbVertex
100
AcDb2dVertex
 10
206.2433112009009
 20
215.3713096290556
 30
0.0
  0
VERTEX
  5
777
330
253
100
AcDbEntity
  8
0
100
AcDbVertex
100
AcDb2dVertex
 10
205.8860456109929
 20
215.3713096290557
 30
0.0
  0
SEQEND
  5
778
330
253
100
AcDbEntity
  8
0
  0
POLYLINE
  5
254
330
415
100
AcDbEntity
  8
0
100
AcDb2dPolyline
 66
     1
 10
0.0
 20
0.0
 30
0.0
  0
VERTEX
  5
779
330
254
100
AcDbEntity
  8
0
100
AcDbVertex
100
AcDb2dVertex
 10
205.8860456109929
 20
215.3713096290557
 30
0.0
  0
VERTEX
  5
77A
330
254
100
AcDbEntity
  8
0
100
AcDbVertex
100
AcDb2dVertex
 10
205.8860456109929
 20
219.3713096290557
 30
0.0
  0
SEQEND
  5
77B
330
254
100
AcDbEntity
  8
0
  0
LINE
  5
255
330
415
100
AcDbEntity
  8
0
100
AcDbLine
 10
202.5010462278201
 20
223.2713096290556
 30
0.0
 11
202.5010462278201
 21
215.4713096290556
 31
0.0
  0
LINE
  5
256
330
415
100
AcDbEntity
  8
0
100
AcDbLine
 10
191.399037894168
 20
230.3078439248173
 30
0.0
 11
190.50104622782
 21
231.8713096290557
 31
0.0
  0
LINE
  5
257
330
415
100
AcDbEntity
  8
0
100
AcDbLine
 10
193.2010462278201
 20
230.3078439248173
 30
0.0
 11
191.399037894168
 21
230.3078439248173
 31
0.0
  0
LINE
  5
258
330
415
100
AcDbEntity
  8
0
100
AcDbLine
 10
194.1010462278201
 20
231.8678439248173
 30
0.0
 11
193.2010462278201
 21
230.3078439248173
 31
0.0
  0
LINE
  5
259
330
415
100
AcDbEntity
  8
0
100
AcDbLine
 10
193.2050451222599
 20
233.4278439248173
 30
0.0
 11
194.10104622782
 21
231.8678439248173
 31
0.0
  0
LINE
  5
25A
330
415
100
AcDbEntity
  8
0
100
AcDbLine
 10
191.3990467830672
 20
233.4278439248173
 30
0.0
 11
193.20504512226
 21
233.4278439248173
 31
0.0
  0
LINE
  5
25B
330
415
100
AcDbEntity
  8
0
100
AcDbLine
 10
190.50104622782
 20
231.8713096290557
 30
0.0
 11
191.3990467830672
 21
233.4278439248173
 31
0.0
  0
CIRCLE
  5
25C
330
415
100
AcDbEntity
  8
0
100
AcDbCircle
 10
-192.3010462278201
 20
231.8713096290557
 30
0.0
 40
2.711324865405188
210
0.0
220
0.0
230
-1.0
  0
LINE
  5
25D
330
415
100
AcDbEntity
  8
0
100
AcDbLine
 10
197.30104622782
 20
191.3713096290556
 30
0.0
 11
197.30104622782
 21
247.3713096290556
 31
0.0
  0
LINE
  5
25E
330
415
100
AcDbEntity
  8
0
100
AcDbLine
 10
197.30104622782
 20
191.3713096290556
 30
0.0
 11
187.3010462278201
 21
191.3713096290556
 31
0.0
  0
LINE
  5
25F
330
415
100
AcDbEntity
  8
0
100
AcDbLine
 10
187.3010462278201
 20
247.3713096290556
 30
0.0
 11
187.3010462278201
 21
191.3713096290556
 31
0.0
  0
LINE
  5
260
330
415
100
AcDbEntity
  8
0
100
AcDbLine
 10
197.30104622782
 20
247.3713096290556
 30
0.0
 11
187.3010462278201
 21
247.3713096290556
 31
0.0
  0
CIRCLE
  5
261
330
415
100
AcDbEntity
  8
0
100
AcDbCircle
 10
-192.3010462278201
 20
231.8713096290557
 30
0.0
 40
2.6
210
0.0
220
0.0
230
-1.0
  0
CIRCLE
  5
262
330
415
100
AcDbEntity
  8
0
100
AcDbCircle
 10
-192.3010462278201
 20
196.8713096290556
 30
0.0
 40
1.649999999999999
210
0.0
220
0.0
230
-1.0
  0
CIRCLE
  5
263
330
415
100
AcDbEntity
  8
0
100
AcDbCircle
 10
-192.3010462278201
 20
241.8713096290556
 30
0.0
 40
1.649999999999999
210
0.0
220
0.0
230
-1.0
  0
LINE
  5
264
330
415
100
AcDbEntity
  8
0
100
AcDbLine
 10
206.30104622782
 20
190.3713096290556
 30
0.0
 11
276.3010462278201
 21
190.3713096290556
 31
0.0
  0
LINE
  5
265
330
415
100
AcDbEntity
  8
0
100
AcDbLine
 10
276.3010462278201
 20
248.3713096290557
 30
0.0
 11
206.30104622782
 21
248.3713096290557
 31
0.0
  0
CIRCLE
  5
266
330
415
100
AcDbEntity
  8
0
100
AcDbCircle
 10
236.3010462278201
 20
219.3713096290557
 30
0.0
 40
2.149999999999999
  0
CIRCLE
  5
267
330
415
100
AcDbEntity
  8
0
100
AcDbCircle
 10
261.3010462278201
 20
219.3713096290557
 30
0.0
 40
2.149999999999999
  0
LINE
  5
268
330
415
100
AcDbEntity
  8
0
100
AcDbLine
 10
206.30104622782
 20
190.3713096290556
 30
0.0
 11
206.30104622782
 21
190.8713096290556
 31
0.0
  0
LINE
  5
269
330
415
100
AcDbEntity
  8
0
100
AcDbLine
 10
206.30104622782
 20
247.8713096290556
 30
0.0
 11
206.30104622782
 21
248.3713096290557
 31
0.0
  0
LINE
  5
26A
330
415
100
AcDbEntity
  8
0
100
AcDbLine
 10
206.30104622782
 20
193.2713096290557
 30
0.0
 11
206.30104622782
 21
190.8713096290556
 31
0.0
  0
LINE
  5
26B
330
415
100
AcDbEntity
  8
0
100
AcDbLine
 10
206.30104622782
 20
193.5713096290556
 30
0.0
 11
206.30104622782
 21
200.3713096290556
 31
0.0
  0
LINE
  5
26C
330
415
100
AcDbEntity
  8
0
100
AcDbLine
 10
206.30104622782
 20
200.3713096290556
 30
0.0
 11
206.30104622782
 21
200.8713096290557
 31
0.0
  0
LINE
  5
26D
330
415
100
AcDbEntity
  8
0
100
AcDbLine
 10
206.30104622782
 20
193.2713096290557
 30
0.0
 11
206.30104622782
 21
193.5713096290557
 31
0.0
  0
LINE
  5
26E
330
415
100
AcDbEntity
  8
0
100
AcDbLine
 10
276.3010462278201
 20
193.5713096290556
 30
0.0
 11
206.30104622782
 21
193.5713096290556
 31
0.0
  0
CIRCLE
  5
26F
330
415
100
AcDbEntity
  8
0
100
AcDbCircle
 10
-236.3010462278201
 20
219.3713096290557
 30
0.0
 40
4.0
210
0.0
220
0.0
230
-1.0
  0
CIRCLE
  5
270
330
415
100
AcDbEntity
  8
0
100
AcDbCircle
 10
-261.3010462278201
 20
219.3713096290557
 30
0.0
 40
4.0
210
0.0
220
0.0
230
-1.0
  0
LINE
  5
271
330
415
100
AcDbEntity
  8
0
100
AcDbLine
 10
206.30104622782
 20
237.5713096290557
 30
0.0
 11
206.30104622782
 21
201.1713096290557
 31
0.0
  0
LINE
  5
272
330
415
100
AcDbEntity
  8
0
100
AcDbLine
 10
206.30104622782
 20
200.8713096290557
 30
0.0
 11
276.3010462278201
 21
200.8713096290557
 31
0.0
  0
LINE
  5
273
330
415
100
AcDbEntity
  8
0
100
AcDbLine
 10
206.30104622782
 20
200.8713096290557
 30
0.0
 11
206.30104622782
 21
201.1713096290557
 31
0.0
  0
LINE
  5
274
330
415
100
AcDbEntity
  8
0
100
AcDbLine
 10
206.30104622782
 20
237.8713096290557
 30
0.0
 11
206.30104622782
 21
238.3713096290557
 31
0.0
  0
LINE
  5
275
330
415
100
AcDbEntity
  8
0
100
AcDbLine
 10
206.30104622782
 20
238.3713096290557
 30
0.0
 11
206.30104622782
 21
245.1713096290557
 31
0.0
  0
LINE
  5
276
330
415
100
AcDbEntity
  8
0
100
AcDbLine
 10
206.30104622782
 20
237.5713096290557
 30
0.0
 11
206.30104622782
 21
237.8713096290557
 31
0.0
  0
LINE
  5
277
330
415
100
AcDbEntity
  8
0
100
AcDbLine
 10
276.3010462278201
 20
237.8713096290557
 30
0.0
 11
206.30104622782
 21
237.8713096290557
 31
0.0
  0
LINE
  5
278
330
415
100
AcDbEntity
  8
0
100
AcDbLine
 10
276.3010462278201
 20
248.3713096290557
 30
0.0
 11
276.3010462278201
 21
247.8713096290556
 31
0.0
  0
LINE
  5
279
330
415
100
AcDbEntity
  8
0
100
AcDbLine
 10
276.3010462278201
 20
190.8713096290556
 30
0.0
 11
276.3010462278201
 21
190.3713096290556
 31
0.0
  0
LINE
  5
27A
330
415
100
AcDbEntity
  8
0
100
AcDbLine
 10
276.3010462278201
 20
193.2713096290557
 30
0.0
 11
276.3010462278201
 21
190.8713096290556
 31
0.0
  0
LINE
  5
27B
330
415
100
AcDbEntity
  8
0
100
AcDbLine
 10
276.3010462278201
 20
193.5713096290557
 30
0.0
 11
276.3010462278201
 21
193.2713096290557
 31
0.0
  0
LINE
  5
27C
330
415
100
AcDbEntity
  8
0
100
AcDbLine
 10
276.3010462278201
 20
200.3713096290556
 30
0.0
 11
276.3010462278201
 21
193.5713096290556
 31
0.0
  0
LINE
  5
27D
330
415
100
AcDbEntity
  8
0
100
AcDbLine
 10
276.3010462278201
 20
200.8713096290557
 30
0.0
 11
276.3010462278201
 21
200.3713096290556
 31
0.0
  0
LINE
  5
27E
330
415
100
AcDbEntity
  8
0
100
AcDbLine
 10
276.3010462278201
 20
201.1713096290557
 30
0.0
 11
276.3010462278201
 21
200.8713096290557
 31
0.0
  0
LINE
  5
27F
330
415
100
AcDbEntity
  8
0
100
AcDbLine
 10
276.3010462278201
 20
237.5713096290557
 30
0.0
 11
276.3010462278201
 21
201.1713096290557
 31
0.0
  0
LINE
  5
280
330
415
100
AcDbEntity
  8
0
100
AcDbLine
 10
276.3010462278201
 20
237.8713096290557
 30
0.0
 11
276.3010462278201
 21
237.5713096290557
 31
0.0
  0
LINE
  5
281
330
415
100
AcDbEntity
  8
0
100
AcDbLine
 10
276.3010462278201
 20
238.3713096290557
 30
0.0
 11
276.3010462278201
 21
237.8713096290557
 31
0.0
  0
LINE
  5
282
330
415
100
AcDbEntity
  8
0
100
AcDbLine
 10
276.3010462278201
 20
245.1713096290557
 30
0.0
 11
276.3010462278201
 21
238.3713096290557
 31
0.0
  0
LINE
  5
283
330
415
100
AcDbEntity
  8
0
100
AcDbLine
 10
206.30104622782
 20
247.8713096290556
 30
0.0
 11
206.30104622782
 21
245.4713096290557
 31
0.0
  0
LINE
  5
284
330
415
100
AcDbEntity
  8
0
100
AcDbLine
 10
276.3010462278201
 20
247.8713096290556
 30
0.0
 11
276.3010462278201
 21
245.4713096290557
 31
0.0
  0
LINE
  5
285
330
415
100
AcDbEntity
  8
0
100
AcDbLine
 10
276.3010462278201
 20
245.4713096290557
 30
0.0
 11
276.3010462278201
 21
245.1713096290557
 31
0.0
  0
LINE
  5
286
330
415
100
AcDbEntity
  8
0
100
AcDbLine
 10
206.30104622782
 20
245.1713096290557
 30
0.0
 11
276.3010462278201
 21
245.1713096290557
 31
0.0
  0
LINE
  5
287
330
415
100
AcDbEntity
  8
0
100
AcDbLine
 10
206.30104622782
 20
245.1713096290557
 30
0.0
 11
206.30104622782
 21
245.4713096290557
 31
0.0
  0
LINE
  5
288
330
415
100
AcDbEntity
  8
0
100
AcDbLine
 10
197.30104622782
 20
227.8713096290557
 30
0.0
 11
206.30104622782
 21
227.8713096290557
 31
0.0
  0
LINE
  5
289
330
415
100
AcDbEntity
  8
0
100
AcDbLine
 10
206.30104622782
 20
235.8713096290557
 30
0.0
 11
197.30104622782
 21
235.8713096290557
 31
0.0
  0
LINE
  5
28A
330
415
100
AcDbEntity
  8
0
100
AcDbLine
 10
197.30104622782
 20
202.8713096290557
 30
0.0
 11
206.3010462278201
 21
202.8713096290557
 31
0.0
  0
LINE
  5
28B
330
415
100
AcDbEntity
  8
0
100
AcDbLine
 10
206.30104622782
 20
210.8713096290557
 30
0.0
 11
197.30104622782
 21
210.8713096290557
 31
0.0
  0
LINE
  5
28C
330
415
100
AcDbEntity
  8
0
100
AcDbLine
 10
206.243311200901
 20
215.3713096290555
 30
0.0
 11
206.30104622782
 21
215.4713096290556
 31
0.0
  0
LINE
  5
28D
330
415
100
AcDbEntity
  8
0
100
AcDbLine
 10
206.30104622782
 20
223.2713096290556
 30
0.0
 11
206.243311200901
 21
223.3713096290557
 31
0.0
  0
LINE
  5
28E
330
415
100
AcDbEntity
  8
0
100
AcDbLine
 10
202.5010462278201
 20
215.4713096290556
 30
0.0
 11
202.5587812547391
 21
215.3713096290555
 31
0.0
  0
LINE
  5
28F
330
415
100
AcDbEntity
  8
0
100
AcDbLine
 10
202.5587812547391
 20
223.3713096290558
 30
0.0
 11
202.5010462278201
 21
223.2713096290556
 31
0.0
  0
ARC
  5
290
330
415
100
AcDbEntity
  8
0
100
AcDbCircle
 10
197.60104622782
 20
221.5713096290556
 30
0.0
 40
0.3
100
AcDbArc
 50
90.0
 51
180.0
  0
ARC
  5
291
330
415
100
AcDbEntity
  8
0
100
AcDbCircle
 10
197.60104622782
 20
217.1713096290556
 30
0.0
 40
0.3
100
AcDbArc
 50
180.0
 51
270.0
  0
LINE
  5
292
330
415
100
AcDbEntity
  8
0
100
AcDbLine
 10
197.80104622782
 20
221.8713096290557
 30
0.0
 11
197.60104622782
 21
221.8713096290557
 31
0.0
  0
LINE
  5
293
330
415
100
AcDbEntity
  8
0
100
AcDbLine
 10
197.60104622782
 20
216.8713096290556
 30
0.0
 11
197.80104622782
 21
216.8713096290556
 31
0.0
  0
LINE
  5
294
330
415
100
AcDbEntity
  8
0
100
AcDbLine
 10
201.80104622782
 20
217.3713096290557
 30
0.0
 11
202.5010462278201
 21
217.3713096290557
 31
0.0
  0
LINE
  5
295
330
415
100
AcDbEntity
  8
0
100
AcDbLine
 10
202.5010462278201
 20
221.3713096290557
 30
0.0
 11
201.80104622782
 21
221.3713096290557
 31
0.0
  0
LINE
  5
297
330
415
100
AcDbEntity
  8
0
100
AcDbLine
 10
335.3268826012037
 20
223.6994952975681
 30
0.0
 11
334.8098694077703
 21
225.9823245656098
 31
0.0
  0
LINE
  5
298
330
415
100
AcDbEntity
  8
0
100
AcDbLine
 10
331.1637694077703
 20
225.9742964972364
 30
0.0
 11
330.6298581124671
 21
223.7048995044365
 31
0.0
  0
ARC
  5
299
330
415
100
AcDbEntity
  8
0
100
AcDbCircle
 10
-330.1903460746545
 20
226.2033096290557
 30
0.0
 40
1.0
210
0.0
220
0.0
230
-1.0
100
AcDbArc
 50
31.56812191269418
 51
193.2389776638863
  0
LINE
  5
29A
330
415
100
AcDbEntity
  8
0
100
AcDbLine
 10
328.7137694077703
 20
225.7103497290076
 30
0.0
 11
329.3383277383433
 21
226.726821572176
 31
0.0
  0
ARC
  5
29B
330
415
100
AcDbEntity
  8
0
100
AcDbCircle
 10
332.9877694077703
 20
231.8713096290557
 30
0.0
 40
7.498299999999999
100
AcDbArc
 50
304.7276933681662
 51
235.2500625410476
  0
LINE
  5
29C
330
415
100
AcDbEntity
  8
0
100
AcDbLine
 10
336.6384300404287
 20
226.7246940767603
 30
0.0
 11
337.2593772001076
 21
225.7086908871211
 31
0.0
  0
ARC
  5
29D
330
415
100
AcDbEntity
  8
0
100
AcDbCircle
 10
-335.7851692533288
 20
226.2032096290557
 30
0.0
 40
1.0
210
0.0
220
0.0
230
-1.0
100
AcDbArc
 50
347.2389776638854
 51
148.5681219126948
  0
CIRCLE
  5
29E
330
415
100
AcDbEntity
  8
0
100
AcDbCircle
 10
-330.1903460746545
 20
226.2033096290557
 30
0.0
 40
0.5
210
0.0
220
0.0
230
-1.0
  0
CIRCLE
  5
29F
330
415
100
AcDbEntity
  8
0
100
AcDbCircle
 10
-335.7851692533288
 20
226.2032096290557
 30
0.0
 40
0.5
210
0.0
220
0.0
230
-1.0
  0
LINE
  5
2A0
330
415
100
AcDbEntity
  8
0
100
AcDbLine
 10
335.3268826012037
 20
198.6994952975681
 30
0.0
 11
334.8098694077703
 21
200.9823245656098
 31
0.0
  0
LINE
  5
2A1
330
415
100
AcDbEntity
  8
0
100
AcDbLine
 10
331.1637694077703
 20
200.9742964972364
 30
0.0
 11
330.6298581124671
 21
198.7048995044365
 31
0.0
  0
ARC
  5
2A2
330
415
100
AcDbEntity
  8
0
100
AcDbCircle
 10
-330.1903460746545
 20
201.2033096290557
 30
0.0
 40
1.0
210
0.0
220
0.0
230
-1.0
100
AcDbArc
 50
31.56812191269418
 51
193.2389776638863
  0
LINE
  5
2A3
330
415
100
AcDbEntity
  8
0
100
AcDbLine
 10
328.7137694077703
 20
200.7103497290076
 30
0.0
 11
329.3383277383433
 21
201.7268215721759
 31
0.0
  0
ARC
  5
2A4
330
415
100
AcDbEntity
  8
0
100
AcDbCircle
 10
332.9877694077703
 20
206.8713096290557
 30
0.0
 40
7.498299999999999
100
AcDbArc
 50
304.7276933681662
 51
235.2500625410476
  0
LINE
  5
2A5
330
415
100
AcDbEntity
  8
0
100
AcDbLine
 10
336.6384300404287
 20
201.7246940767603
 30
0.0
 11
337.2593772001076
 21
200.7086908871211
 31
0.0
  0
ARC
  5
2A6
330
415
100
AcDbEntity
  8
0
100
AcDbCircle
 10
-335.7851692533288
 20
201.2032096290556
 30
0.0
 40
1.0
210
0.0
220
0.0
230
-1.0
100
AcDbArc
 50
347.2389776638854
 51
148.5681219126948
  0
CIRCLE
  5
2A7
330
415
100
AcDbEntity
  8
0
100
AcDbCircle
 10
-330.1903460746545
 20
201.2033096290557
 30
0.0
 40
0.5
210
0.0
220
0.0
230
-1.0
  0
CIRCLE
  5
2A8
330
415
100
AcDbEntity
  8
0
100
AcDbCircle
 10
-335.7851692533288
 20
201.2032096290556
 30
0.0
 40
0.5
210
0.0
220
0.0
230
-1.0
  0
LINE
  5
2A9
330
415
100
AcDbEntity
  8
0
100
AcDbLine
 10
323.9877694077703
 20
193.5713096290557
 30
0.0
 11
323.9877694077703
 21
200.8713096290556
 31
0.0
  0
LINE
  5
2AA
330
415
100
AcDbEntity
  8
0
100
AcDbLine
 10
323.9877694077703
 20
237.8713096290557
 30
0.0
 11
323.9877694077703
 21
245.1713096290557
 31
0.0
  0
LINE
  5
2AB
330
415
100
AcDbEntity
  8
0
100
AcDbLine
 10
341.9877694077702
 20
243.2713096290557
 30
0.0
 11
341.9877694077702
 21
239.4713096290557
 31
0.0
  0
LINE
  5
2AC
330
415
100
AcDbEntity
  8
0
100
AcDbLine
 10
341.9877694077702
 20
199.2713096290556
 30
0.0
 11
341.9877694077702
 21
195.4713096290556
 31
0.0
  0
ARC
  5
2AD
330
415
100
AcDbEntity
  8
0
100
AcDbCircle
 10
-332.9877694077703
 20
231.8713096290557
 30
0.0
 40
8.299999999999997
210
0.0
220
0.0
230
-1.0
100
AcDbArc
 50
253.9491863855575
 51
286.1742935609269
  0
ARC
  5
2AE
330
415
100
AcDbEntity
  8
0
100
AcDbCircle
 10
-332.9877694077703
 20
206.8713096290557
 30
0.0
 40
8.299999999999997
210
0.0
220
0.0
230
-1.0
100
AcDbArc
 50
253.9491863855577
 51
286.1742935609267
  0
CIRCLE
  5
2AF
330
415
100
AcDbEntity
  8
0
100
AcDbCircle
 10
-332.9877694077703
 20
231.8713096290557
 30
0.0
 40
8.5
210
0.0
220
0.0
230
-1.0
  0
CIRCLE
  5
2B0
330
415
100
AcDbEntity
  8
0
100
AcDbCircle
 10
-332.9877694077703
 20
206.8713096290557
 30
0.0
 40
8.5
210
0.0
220
0.0
230
-1.0
  0
ARC
  5
2B1
330
415
100
AcDbEntity
  8
0
100
AcDbCircle
 10
-323.4877694077703
 20
247.8713096290556
 30
0.0
 40
0.5
210
0.0
220
0.0
230
-1.0
100
AcDbArc
 50
0.0
 51
90.0
  0
LINE
  5
2B2
330
415
100
AcDbEntity
  8
0
100
AcDbLine
 10
342.4877694077703
 20
248.3713096290557
 30
0.0
 11
323.4877694077703
 21
248.3713096290557
 31
0.0
  0
ARC
  5
2B3
330
415
100
AcDbEntity
  8
0
100
AcDbCircle
 10
-342.4877694077703
 20
247.8713096290556
 30
0.0
 40
0.5
210
0.0
220
0.0
230
-1.0
100
AcDbArc
 50
90.0
 51
180.0
  0
LINE
  5
2B4
330
415
100
AcDbEntity
  8
0
100
AcDbLine
 10
342.9877694077702
 20
245.3713096290556
 30
0.0
 11
342.9877694077702
 21
247.8713096290556
 31
0.0
  0
LINE
  5
2B5
330
415
100
AcDbEntity
  8
0
100
AcDbLine
 10
342.6877694077703
 20
245.0713096290556
 30
0.0
 11
342.9877694077703
 21
245.3713096290556
 31
0.0
  0
LINE
  5
2B6
330
415
100
AcDbEntity
  8
0
100
AcDbLine
 10
342.6877694077703
 20
243.0713096290556
 30
0.0
 11
342.6877694077703
 21
245.0713096290556
 31
0.0
  0
LINE
  5
2B7
330
415
100
AcDbEntity
  8
0
100
AcDbLine
 10
342.1877694077703
 20
243.0713096290556
 30
0.0
 11
342.6877694077703
 21
243.0713096290556
 31
0.0
  0
LINE
  5
2B8
330
415
100
AcDbEntity
  8
0
100
AcDbLine
 10
341.7377694077702
 20
243.5213096290557
 30
0.0
 11
342.1877694077703
 21
243.0713096290556
 31
0.0
  0
LINE
  5
2B9
330
415
100
AcDbEntity
  8
0
100
AcDbLine
 10
339.5877694077702
 20
243.5213096290557
 30
0.0
 11
341.7377694077702
 21
243.5213096290557
 31
0.0
  0
ARC
  5
2BA
330
415
100
AcDbEntity
  8
0
100
AcDbCircle
 10
-339.5877694077702
 20
241.8213096290557
 30
0.0
 40
1.7
210
0.0
220
0.0
230
-1.0
100
AcDbArc
 50
0.0
 51
90.0
  0
LINE
  5
2BB
330
415
100
AcDbEntity
  8
0
100
AcDbLine
 10
337.8877694077702
 20
240.9213096290557
 30
0.0
 11
337.8877694077702
 21
241.8213096290557
 31
0.0
  0
ARC
  5
2BC
330
415
100
AcDbEntity
  8
0
100
AcDbCircle
 10
-339.5877694077702
 20
240.9213096290557
 30
0.0
 40
1.7
210
0.0
220
0.0
230
-1.0
100
AcDbArc
 50
270.0
 51
0.0
  0
LINE
  5
2BD
330
415
100
AcDbEntity
  8
0
100
AcDbLine
 10
341.7377694077702
 20
239.2213096290556
 30
0.0
 11
339.5877694077702
 21
239.2213096290556
 31
0.0
  0
LINE
  5
2BE
330
415
100
AcDbEntity
  8
0
100
AcDbLine
 10
342.1877694077703
 20
239.6713096290556
 30
0.0
 11
341.7377694077702
 21
239.2213096290557
 31
0.0
  0
LINE
  5
2BF
330
415
100
AcDbEntity
  8
0
100
AcDbLine
 10
342.6877694077703
 20
239.6713096290556
 30
0.0
 11
342.1877694077703
 21
239.6713096290556
 31
0.0
  0
LINE
  5
2C0
330
415
100
AcDbEntity
  8
0
100
AcDbLine
 10
342.6877694077703
 20
237.6713096290556
 30
0.0
 11
342.6877694077703
 21
239.6713096290556
 31
0.0
  0
LINE
  5
2C1
330
415
100
AcDbEntity
  8
0
100
AcDbLine
 10
342.9877694077703
 20
237.3713096290556
 30
0.0
 11
342.6877694077703
 21
237.6713096290556
 31
0.0
  0
LINE
  5
2C2
330
415
100
AcDbEntity
  8
0
100
AcDbLine
 10
342.9877694077702
 20
201.3713096290556
 30
0.0
 11
342.9877694077702
 21
237.3713096290556
 31
0.0
  0
LINE
  5
2C3
330
415
100
AcDbEntity
  8
0
100
AcDbLine
 10
342.6877694077703
 20
201.0713096290556
 30
0.0
 11
342.9877694077702
 21
201.3713096290556
 31
0.0
  0
LINE
  5
2C4
330
415
100
AcDbEntity
  8
0
100
AcDbLine
 10
342.6877694077703
 20
199.0713096290556
 30
0.0
 11
342.6877694077703
 21
201.0713096290556
 31
0.0
  0
LINE
  5
2C5
330
415
100
AcDbEntity
  8
0
100
AcDbLine
 10
342.1877694077703
 20
199.0713096290556
 30
0.0
 11
342.6877694077703
 21
199.0713096290556
 31
0.0
  0
LINE
  5
2C6
330
415
100
AcDbEntity
  8
0
100
AcDbLine
 10
341.7377694077702
 20
199.5213096290556
 30
0.0
 11
342.1877694077703
 21
199.0713096290556
 31
0.0
  0
LINE
  5
2C7
330
415
100
AcDbEntity
  8
0
100
AcDbLine
 10
339.5877694077702
 20
199.5213096290556
 30
0.0
 11
341.7377694077702
 21
199.5213096290556
 31
0.0
  0
ARC
  5
2C8
330
415
100
AcDbEntity
  8
0
100
AcDbCircle
 10
-339.5877694077702
 20
197.8213096290556
 30
0.0
 40
1.7
210
0.0
220
0.0
230
-1.0
100
AcDbArc
 50
0.0
 51
90.0
  0
LINE
  5
2C9
330
415
100
AcDbEntity
  8
0
100
AcDbLine
 10
337.8877694077702
 20
196.9213096290556
 30
0.0
 11
337.8877694077702
 21
197.8213096290556
 31
0.0
  0
ARC
  5
2CA
330
415
100
AcDbEntity
  8
0
100
AcDbCircle
 10
-339.5877694077702
 20
196.9213096290556
 30
0.0
 40
1.7
210
0.0
220
0.0
230
-1.0
100
AcDbArc
 50
270.0
 51
0.0
  0
LINE
  5
2CB
330
415
100
AcDbEntity
  8
0
100
AcDbLine
 10
341.7377694077702
 20
195.2213096290556
 30
0.0
 11
339.5877694077702
 21
195.2213096290556
 31
0.0
  0
LINE
  5
2CC
330
415
100
AcDbEntity
  8
0
100
AcDbLine
 10
342.1877694077703
 20
195.6713096290556
 30
0.0
 11
341.7377694077702
 21
195.2213096290556
 31
0.0
  0
LINE
  5
2CD
330
415
100
AcDbEntity
  8
0
100
AcDbLine
 10
342.6877694077703
 20
195.6713096290556
 30
0.0
 11
342.1877694077703
 21
195.6713096290556
 31
0.0
  0
LINE
  5
2CE
330
415
100
AcDbEntity
  8
0
100
AcDbLine
 10
342.6877694077703
 20
193.6713096290556
 30
0.0
 11
342.6877694077703
 21
195.6713096290556
 31
0.0
  0
LINE
  5
2CF
330
415
100
AcDbEntity
  8
0
100
AcDbLine
 10
342.9877694077703
 20
193.3713096290556
 30
0.0
 11
342.6877694077703
 21
193.6713096290556
 31
0.0
  0
LINE
  5
2D0
330
415
100
AcDbEntity
  8
0
100
AcDbLine
 10
342.9877694077702
 20
190.8713096290556
 30
0.0
 11
342.9877694077702
 21
193.3713096290556
 31
0.0
  0
ARC
  5
2D1
330
415
100
AcDbEntity
  8
0
100
AcDbCircle
 10
-342.4877694077703
 20
190.8713096290556
 30
0.0
 40
0.5
210
0.0
220
0.0
230
-1.0
100
AcDbArc
 50
180.0
 51
270.0
  0
LINE
  5
2D2
330
415
100
AcDbEntity
  8
0
100
AcDbLine
 10
323.4877694077703
 20
190.3713096290556
 30
0.0
 11
342.4877694077703
 21
190.3713096290556
 31
0.0
  0
ARC
  5
2D3
330
415
100
AcDbEntity
  8
0
100
AcDbCircle
 10
-323.4877694077703
 20
190.8713096290556
 30
0.0
 40
0.5
210
0.0
220
0.0
230
-1.0
100
AcDbArc
 50
270.0
 51
0.0
  0
LINE
  5
2D4
330
415
100
AcDbEntity
  8
0
100
AcDbLine
 10
322.9877694077702
 20
193.2713096290557
 30
0.0
 11
322.9877694077702
 21
190.8713096290556
 31
0.0
  0
ARC
  5
2D5
330
415
100
AcDbEntity
  8
0
100
AcDbCircle
 10
-323.2877694077703
 20
193.2713096290557
 30
0.0
 40
0.3
210
0.0
220
0.0
230
-1.0
100
AcDbArc
 50
0.0
 51
90.0
  0
LINE
  5
2D6
330
415
100
AcDbEntity
  8
0
100
AcDbLine
 10
324.2877694077703
 20
193.5713096290556
 30
0.0
 11
323.2877694077703
 21
193.5713096290556
 31
0.0
  0
ARC
  5
2D7
330
415
100
AcDbEntity
  8
0
100
AcDbCircle
 10
-324.2877694077703
 20
193.0713096290556
 30
0.0
 40
0.5
210
0.0
220
0.0
230
-1.0
100
AcDbArc
 50
90.0
 51
180.0
  0
LINE
  5
2D8
330
415
100
AcDbEntity
  8
0
100
AcDbLine
 10
324.7877694077703
 20
192.3713096290556
 30
0.0
 11
324.7877694077703
 21
193.0713096290556
 31
0.0
  0
ARC
  5
2D9
330
415
100
AcDbEntity
  8
0
100
AcDbCircle
 10
-325.2877694077703
 20
192.3713096290556
 30
0.0
 40
0.5
210
0.0
220
0.0
230
-1.0
100
AcDbArc
 50
270.0
 51
0.0
  0
LINE
  5
2DA
330
415
100
AcDbEntity
  8
0
100
AcDbLine
 10
325.4877694077702
 20
191.8713096290556
 30
0.0
 11
325.2877694077703
 21
191.8713096290556
 31
0.0
  0
ARC
  5
2DB
330
415
100
AcDbEntity
  8
0
100
AcDbCircle
 10
-325.4877694077702
 20
192.3713096290556
 30
0.0
 40
0.5
210
0.0
220
0.0
230
-1.0
100
AcDbArc
 50
180.0
 51
270.0
  0
LINE
  5
2DC
330
415
100
AcDbEntity
  8
0
100
AcDbLine
 10
325.9877694077703
 20
200.3713096290556
 30
0.0
 11
325.9877694077703
 21
192.3713096290556
 31
0.0
  0
ARC
  5
2DD
330
415
100
AcDbEntity
  8
0
100
AcDbCircle
 10
-325.4877694077702
 20
200.3713096290556
 30
0.0
 40
0.5
210
0.0
220
0.0
230
-1.0
100
AcDbArc
 50
90.0
 51
180.0
  0
LINE
  5
2DE
330
415
100
AcDbEntity
  8
0
100
AcDbLine
 10
323.2877694077703
 20
200.8713096290557
 30
0.0
 11
325.4877694077702
 21
200.8713096290557
 31
0.0
  0
ARC
  5
2DF
330
415
100
AcDbEntity
  8
0
100
AcDbCircle
 10
-323.2877694077703
 20
201.1713096290557
 30
0.0
 40
0.2999999999999999
210
0.0
220
0.0
230
-1.0
100
AcDbArc
 50
270.0
 51
0.0
  0
LINE
  5
2E0
330
415
100
AcDbEntity
  8
0
100
AcDbLine
 10
322.9877694077702
 20
237.5713096290557
 30
0.0
 11
322.9877694077702
 21
201.1713096290557
 31
0.0
  0
ARC
  5
2E1
330
415
100
AcDbEntity
  8
0
100
AcDbCircle
 10
-323.2877694077703
 20
237.5713096290557
 30
0.0
 40
0.3
210
0.0
220
0.0
230
-1.0
100
AcDbArc
 50
0.0
 51
90.0
  0
LINE
  5
2E2
330
415
100
AcDbEntity
  8
0
100
AcDbLine
 10
325.4877694077702
 20
237.8713096290557
 30
0.0
 11
323.2877694077703
 21
237.8713096290557
 31
0.0
  0
ARC
  5
2E3
330
415
100
AcDbEntity
  8
0
100
AcDbCircle
 10
-325.4877694077702
 20
238.3713096290557
 30
0.0
 40
0.5
210
0.0
220
0.0
230
-1.0
100
AcDbArc
 50
180.0
 51
270.0
  0
LINE
  5
2E4
330
415
100
AcDbEntity
  8
0
100
AcDbLine
 10
325.9877694077703
 20
246.3713096290557
 30
0.0
 11
325.9877694077703
 21
238.3713096290557
 31
0.0
  0
ARC
  5
2E5
330
415
100
AcDbEntity
  8
0
100
AcDbCircle
 10
-325.4877694077702
 20
246.3713096290557
 30
0.0
 40
0.5
210
0.0
220
0.0
230
-1.0
100
AcDbArc
 50
90.0
 51
180.0
  0
LINE
  5
2E6
330
415
100
AcDbEntity
  8
0
100
AcDbLine
 10
325.2877694077703
 20
246.8713096290557
 30
0.0
 11
325.4877694077702
 21
246.8713096290557
 31
0.0
  0
ARC
  5
2E7
330
415
100
AcDbEntity
  8
0
100
AcDbCircle
 10
-325.2877694077703
 20
246.3713096290557
 30
0.0
 40
0.5
210
0.0
220
0.0
230
-1.0
100
AcDbArc
 50
0.0
 51
90.0
  0
LINE
  5
2E8
330
415
100
AcDbEntity
  8
0
100
AcDbLine
 10
324.7877694077703
 20
245.6713096290557
 30
0.0
 11
324.7877694077703
 21
246.3713096290557
 31
0.0
  0
ARC
  5
2E9
330
415
100
AcDbEntity
  8
0
100
AcDbCircle
 10
-324.2877694077703
 20
245.6713096290557
 30
0.0
 40
0.5
210
0.0
220
0.0
230
-1.0
100
AcDbArc
 50
180.0
 51
270.0
  0
LINE
  5
2EA
330
415
100
AcDbEntity
  8
0
100
AcDbLine
 10
323.2877694077703
 20
245.1713096290557
 30
0.0
 11
324.2877694077703
 21
245.1713096290557
 31
0.0
  0
LINE
  5
2EB
330
415
100
AcDbEntity
  8
0
100
AcDbLine
 10
322.9877694077702
 20
247.8713096290556
 30
0.0
 11
322.9877694077702
 21
245.4713096290557
 31
0.0
  0
ARC
  5
2EC
330
415
100
AcDbEntity
  8
0
100
AcDbCircle
 10
-323.2877694077703
 20
245.4713096290557
 30
0.0
 40
0.2999999999999999
210
0.0
220
0.0
230
-1.0
100
AcDbArc
 50
270.0
 51
0.0
  0
LINE
  5
2EE
330
415
100
AcDbEntity
  8
0
100
AcDbLine
 10
197.80104622782
 20
136.0442883333531
 30
0.0
 11
197.80104622782
 21
132.7348872565946
 31
0.0
  0
LINE
  5
2EF
330
415
100
AcDbEntity
  8
0
100
AcDbLine
 10
201.80104622782
 20
132.7348872565946
 30
0.0
 11
201.80104622782
 21
136.0442883333531
 31
0.0
  0
LINE
  5
2F0
330
415
100
AcDbEntity
  8
0
100
AcDbLine
 10
197.80104622782
 20
132.7348872565946
 30
0.0
 11
197.80104622782
 21
130.4254861798361
 31
0.0
  0
LINE
  5
2F1
330
415
100
AcDbEntity
  8
0
100
AcDbLine
 10
197.80104622782
 20
132.7348872565946
 30
0.0
 11
201.80104622782
 21
132.7348872565946
 31
0.0
  0
LINE
  5
2F2
330
415
100
AcDbEntity
  8
0
100
AcDbLine
 10
201.80104622782
 20
130.4254861798361
 30
0.0
 11
201.80104622782
 21
132.7348872565946
 31
0.0
  0
LINE
  5
2F3
330
415
100
AcDbEntity
  8
0
100
AcDbLine
 10
197.80104622782
 20
130.4254861798361
 30
0.0
 11
201.80104622782
 21
130.4254861798361
 31
0.0
  0
POLYLINE
  5
2F4
330
415
100
AcDbEntity
  8
0
100
AcDb2dPolyline
 66
     1
 10
0.0
 20
0.0
 30
0.0
  0
VERTEX
  5
77C
330
2F4
100
AcDbEntity
  8
0
100
AcDbVertex
100
AcDb2dVertex
 10
202.6298563217631
 20
136.0442883400295
 30
0.0
  0
VERTEX
  5
77D
330
2F4
100
AcDbEntity
  8
0
100
AcDbVertex
100
AcDb2dVertex
 10
202.9160468446472
 20
132.7348872565946
 30
0.0
  0
SEQEND
  5
77E
330
2F4
100
AcDbEntity
  8
0
  0
POLYLINE
  5
2F5
330
415
100
AcDbEntity
  8
0
100
AcDb2dPolyline
 66
     1
 10
0.0
 20
0.0
 30
0.0
  0
VERTEX
  5
77F
330
2F5
100
AcDbEntity
  8
0
100
AcDbVertex
100
AcDb2dVertex
 10
202.9160468446472
 20
132.7348872565946
 30
0.0
  0
VERTEX
  5
780
330
2F5
100
AcDbEntity
  8
0
100
AcDbVertex
100
AcDb2dVertex
 10
202.9160468446472
 20
130.4254861798361
 30
0.0
  0
SEQEND
  5
781
330
2F5
100
AcDbEntity
  8
0
  0
LINE
  5
2F6
330
415
100
AcDbEntity
  8
0
100
AcDbLine
 10
202.9160468446472
 20
132.7348872565946
 30
0.0
 11
205.8860456109929
 21
132.7348872565946
 31
0.0
  0
LINE
  5
2F7
330
415
100
AcDbEntity
  8
0
100
AcDbLine
 10
202.9160468446472
 20
130.4254861798361
 30
0.0
 11
205.8860456109929
 21
130.4254861798361
 31
0.0
  0
POLYLINE
  5
2F8
330
415
100
AcDbEntity
  8
0
100
AcDb2dPolyline
 66
     1
 10
0.0
 20
0.0
 30
0.0
  0
VERTEX
  5
782
330
2F8
100
AcDbEntity
  8
0
100
AcDbVertex
100
AcDb2dVertex
 10
205.8860456109929
 20
130.4254861798361
 30
0.0
  0
VERTEX
  5
783
330
2F8
100
AcDbEntity
  8
0
100
AcDbVertex
100
AcDb2dVertex
 10
205.8860456109929
 20
132.7348872565946
 30
0.0
  0
SEQEND
  5
784
330
2F8
100
AcDbEntity
  8
0
  0
POLYLINE
  5
2F9
330
415
100
AcDbEntity
  8
0
100
AcDb2dPolyline
 66
     1
 10
0.0
 20
0.0
 30
0.0
  0
VERTEX
  5
785
330
2F9
100
AcDbEntity
  8
0
100
AcDbVertex
100
AcDb2dVertex
 10
205.8860456109929
 20
132.7348872565946
 30
0.0
  0
VERTEX
  5
786
330
2F9
100
AcDbEntity
  8
0
100
AcDbVertex
100
AcDb2dVertex
 10
206.1722361348117
 20
136.0442883333531
 30
0.0
  0
SEQEND
  5
787
330
2F9
100
AcDbEntity
  8
0
  0
LINE
  5
2FA
330
415
100
AcDbEntity
  8
0
100
AcDbLine
 10
202.5010462278201
 20
136.0442883333531
 30
0.0
 11
202.5010462278201
 21
131.1442883333531
 31
0.0
  0
LINE
  5
2FB
330
415
100
AcDbEntity
  8
0
100
AcDbLine
 10
197.30104622782
 20
131.0442883333531
 30
0.0
 11
197.30104622782
 21
149.0442883333531
 31
0.0
  0
LINE
  5
2FC
330
415
100
AcDbEntity
  8
0
100
AcDbLine
 10
187.3010462278201
 20
149.0442883333531
 30
0.0
 11
187.3010462278201
 21
131.0442883333531
 31
0.0
  0
LINE
  5
2FD
330
415
100
AcDbEntity
  8
0
100
AcDbLine
 10
197.30104622782
 20
149.0442883333531
 30
0.0
 11
187.3010462278201
 21
149.0442883333531
 31
0.0
  0
LINE
  5
2FE
330
415
100
AcDbEntity
  8
0
100
AcDbLine
 10
197.30104622782
 20
131.0442883333531
 30
0.0
 11
187.3010462278201
 21
131.0442883333531
 31
0.0
  0
LINE
  5
2FF
330
415
100
AcDbEntity
  8
0
100
AcDbLine
 10
268.30104622782
 20
140.7942883333534
 30
0.0
 11
268.30104622782
 21
140.044288333353
 31
0.0
  0
LINE
  5
300
330
415
100
AcDbEntity
  8
0
100
AcDbLine
 10
268.30104622782
 20
140.0442883333531
 30
0.0
 11
268.30104622782
 21
139.2942883333527
 31
0.0
  0
LINE
  5
301
330
415
100
AcDbEntity
  8
0
100
AcDbLine
 10
206.30104622782
 20
130.0442883333531
 30
0.0
 11
276.3010462278201
 21
130.0442883333531
 31
0.0
  0
CIRCLE
  5
302
330
415
100
AcDbEntity
  8
0
100
AcDbCircle
 10
-244.8010462278201
 20
140.0442883333531
 30
0.0
 40
2.1
210
0.0
220
0.0
230
-1.0
  0
CIRCLE
  5
303
330
415
100
AcDbEntity
  8
0
100
AcDbCircle
 10
244.8010462278201
 20
140.0442883333531
 30
0.0
 40
0.75
  0
CIRCLE
  5
304
330
415
100
AcDbEntity
  8
0
100
AcDbCircle
 10
-268.30104622782
 20
140.0442883333531
 30
0.0
 40
2.1
210
0.0
220
0.0
230
-1.0
  0
CIRCLE
  5
305
330
415
100
AcDbEntity
  8
0
100
AcDbCircle
 10
-236.3010462278201
 20
140.0442883333531
 30
0.0
 40
1.649999999999999
210
0.0
220
0.0
230
-1.0
  0
CIRCLE
  5
306
330
415
100
AcDbEntity
  8
0
100
AcDbCircle
 10
-261.3010462278201
 20
140.0442883333531
 30
0.0
 40
1.649999999999999
210
0.0
220
0.0
230
-1.0
  0
LINE
  5
307
330
415
100
AcDbEntity
  8
0
100
AcDbLine
 10
206.30104622782
 20
149.5442883333531
 30
0.0
 11
206.30104622782
 21
150.0442883333531
 31
0.0
  0
LINE
  5
308
330
415
100
AcDbEntity
  8
0
100
AcDbLine
 10
206.30104622782
 20
149.5442883333531
 30
0.0
 11
206.30104622782
 21
130.5442883333531
 31
0.0
  0
LINE
  5
309
330
415
100
AcDbEntity
  8
0
100
AcDbLine
 10
206.30104622782
 20
130.0442883333531
 30
0.0
 11
206.30104622782
 21
130.5442883333531
 31
0.0
  0
LINE
  5
30A
330
415
100
AcDbEntity
  8
0
100
AcDbLine
 10
276.3010462278201
 20
150.0442883333531
 30
0.0
 11
206.30104622782
 21
150.0442883333531
 31
0.0
  0
LINE
  5
30B
330
415
100
AcDbEntity
  8
0
100
AcDbLine
 10
276.3010462278201
 20
130.5442883333531
 30
0.0
 11
276.3010462278201
 21
130.0442883333531
 31
0.0
  0
LINE
  5
30C
330
415
100
AcDbEntity
  8
0
100
AcDbLine
 10
276.3010462278201
 20
149.5442883333531
 30
0.0
 11
276.3010462278201
 21
130.5442883333531
 31
0.0
  0
LINE
  5
30D
330
415
100
AcDbEntity
  8
0
100
AcDbLine
 10
276.3010462278201
 20
150.0442883333531
 30
0.0
 11
276.3010462278201
 21
149.5442883333531
 31
0.0
  0
CIRCLE
  5
30E
330
415
100
AcDbEntity
  8
0
100
AcDbCircle
 10
268.30104622782
 20
140.0442883333531
 30
0.0
 40
0.75
  0
LINE
  5
30F
330
415
100
AcDbEntity
  8
0
100
AcDbLine
 10
197.30104622782
 20
136.0442883333531
 30
0.0
 11
206.30104622782
 21
136.0442883333531
 31
0.0
  0
LINE
  5
310
330
415
100
AcDbEntity
  8
0
100
AcDbLine
 10
206.30104622782
 20
144.0442883333531
 30
0.0
 11
197.30104622782
 21
144.0442883333531
 31
0.0
  0
LINE
  5
311
330
415
100
AcDbEntity
  8
0
100
AcDbLine
 10
205.8860456109929
 20
130.4254861798361
 30
0.0
 11
206.30104622782
 21
131.1442883333531
 31
0.0
  0
LINE
  5
312
330
415
100
AcDbEntity
  8
0
100
AcDbLine
 10
202.5010462278201
 20
131.1442883333531
 30
0.0
 11
202.9160468446472
 21
130.4254861798361
 31
0.0
  0
ARC
  5
313
330
415
100
AcDbEntity
  8
0
100
AcDbCircle
 10
197.60104622782
 20
132.8442883333531
 30
0.0
 40
0.3
100
AcDbArc
 50
180.0
 51
270.0
  0
LINE
  5
314
330
415
100
AcDbEntity
  8
0
100
AcDbLine
 10
197.60104622782
 20
132.5442883333531
 30
0.0
 11
197.80104622782
 21
132.5442883333531
 31
0.0
  0
LINE
  5
315
330
415
100
AcDbEntity
  8
0
100
AcDbLine
 10
201.80104622782
 20
133.0442883333531
 30
0.0
 11
202.5010462278201
 21
133.0442883333531
 31
0.0
  0
LINE
  5
317
330
415
100
AcDbEntity
  8
0
100
AcDbLine
 10
197.80104622782
 20
56.85379321659354
 30
0.0
 11
197.80104622782
 21
52.85379321659354
 31
0.0
  0
LINE
  5
318
330
415
100
AcDbEntity
  8
0
100
AcDbLine
 10
197.80104622782
 20
56.85379321659354
 30
0.0
 11
201.80104622782
 21
56.85379321659354
 31
0.0
  0
LINE
  5
319
330
415
100
AcDbEntity
  8
0
100
AcDbLine
 10
201.80104622782
 20
52.85379321659354
 30
0.0
 11
201.80104622782
 21
56.85379321659354
 31
0.0
  0
LINE
  5
31A
330
415
100
AcDbEntity
  8
0
100
AcDbLine
 10
197.80104622782
 20
48.85379321659354
 30
0.0
 11
201.80104622782
 21
48.85379321659354
 31
0.0
  0
LINE
  5
31B
330
415
100
AcDbEntity
  8
0
100
AcDbLine
 10
197.80104622782
 20
52.85379321659354
 30
0.0
 11
197.80104622782
 21
48.85379321659354
 31
0.0
  0
LINE
  5
31C
330
415
100
AcDbEntity
  8
0
100
AcDbLine
 10
197.80104622782
 20
52.85379321659354
 30
0.0
 11
201.80104622782
 21
52.85379321659354
 31
0.0
  0
LINE
  5
31D
330
415
100
AcDbEntity
  8
0
100
AcDbLine
 10
201.80104622782
 20
48.85379321659354
 30
0.0
 11
201.80104622782
 21
52.85379321659354
 31
0.0
  0
POLYLINE
  5
31E
330
415
100
AcDbEntity
  8
0
100
AcDb2dPolyline
 66
     1
 10
0.0
 20
0.0
 30
0.0
  0
VERTEX
  5
788
330
31E
100
AcDbEntity
  8
0
100
AcDbVertex
100
AcDb2dVertex
 10
202.9160468446472
 20
48.85379321659354
 30
0.0
  0
VERTEX
  5
789
330
31E
100
AcDbEntity
  8
0
100
AcDbVertex
100
AcDb2dVertex
 10
202.5587812547393
 20
48.85379321659351
 30
0.0
  0
SEQEND
  5
78A
330
31E
100
AcDbEntity
  8
0
  0
POLYLINE
  5
31F
330
415
100
AcDbEntity
  8
0
100
AcDb2dPolyline
 66
     1
 10
0.0
 20
0.0
 30
0.0
  0
VERTEX
  5
78B
330
31F
100
AcDbEntity
  8
0
100
AcDbVertex
100
AcDb2dVertex
 10
202.5587812547393
 20
56.8537932165936
 30
0.0
  0
VERTEX
  5
78C
330
31F
100
AcDbEntity
  8
0
100
AcDbVertex
100
AcDb2dVertex
 10
202.9160468446472
 20
56.85379321659349
 30
0.0
  0
SEQEND
  5
78D
330
31F
100
AcDbEntity
  8
0
  0
POLYLINE
  5
320
330
415
100
AcDbEntity
  8
0
100
AcDb2dPolyline
 66
     1
 10
0.0
 20
0.0
 30
0.0
  0
VERTEX
  5
78E
330
320
100
AcDbEntity
  8
0
100
AcDbVertex
100
AcDb2dVertex
 10
202.9160468446472
 20
56.85379321659354
 30
0.0
  0
VERTEX
  5
78F
330
320
100
AcDbEntity
  8
0
100
AcDbVertex
100
AcDb2dVertex
 10
202.9160468446472
 20
52.85379321659354
 30
0.0
  0
SEQEND
  5
790
330
320
100
AcDbEntity
  8
0
  0
LINE
  5
321
330
415
100
AcDbEntity
  8
0
100
AcDbLine
 10
202.9160468446472
 20
56.85379321659354
 30
0.0
 11
205.8860456109929
 21
56.85379321659354
 31
0.0
  0
LINE
  5
322
330
415
100
AcDbEntity
  8
0
100
AcDbLine
 10
202.9160468446472
 20
48.85379321659354
 30
0.0
 11
205.8860456109929
 21
48.85379321659354
 31
0.0
  0
POLYLINE
  5
323
330
415
100
AcDbEntity
  8
0
100
AcDb2dPolyline
 66
     1
 10
0.0
 20
0.0
 30
0.0
  0
VERTEX
  5
791
330
323
100
AcDbEntity
  8
0
100
AcDbVertex
100
AcDb2dVertex
 10
202.9160468446472
 20
52.85379321659354
 30
0.0
  0
VERTEX
  5
792
330
323
100
AcDbEntity
  8
0
100
AcDbVertex
100
AcDb2dVertex
 10
202.9160468446472
 20
48.85379321659354
 30
0.0
  0
SEQEND
  5
793
330
323
100
AcDbEntity
  8
0
  0
LINE
  5
324
330
415
100
AcDbEntity
  8
0
100
AcDbLine
 10
202.9160468446472
 20
52.85379321659354
 30
0.0
 11
205.8860456109929
 21
52.85379321659354
 31
0.0
  0
POLYLINE
  5
325
330
415
100
AcDbEntity
  8
0
100
AcDb2dPolyline
 66
     1
 10
0.0
 20
0.0
 30
0.0
  0
VERTEX
  5
794
330
325
100
AcDbEntity
  8
0
100
AcDbVertex
100
AcDb2dVertex
 10
206.2433112009009
 20
48.85379321659351
 30
0.0
  0
VERTEX
  5
795
330
325
100
AcDbEntity
  8
0
100
AcDbVertex
100
AcDb2dVertex
 10
205.8860456109929
 20
48.85379321659354
 30
0.0
  0
SEQEND
  5
796
330
325
100
AcDbEntity
  8
0
  0
POLYLINE
  5
326
330
415
100
AcDbEntity
  8
0
100
AcDb2dPolyline
 66
     1
 10
0.0
 20
0.0
 30
0.0
  0
VERTEX
  5
797
330
326
100
AcDbEntity
  8
0
100
AcDbVertex
100
AcDb2dVertex
 10
205.8860456109929
 20
48.85379321659354
 30
0.0
  0
VERTEX
  5
798
330
326
100
AcDbEntity
  8
0
100
AcDbVertex
100
AcDb2dVertex
 10
205.8860456109929
 20
52.8537932165936
 30
0.0
  0
SEQEND
  5
799
330
326
100
AcDbEntity
  8
0
  0
POLYLINE
  5
327
330
415
100
AcDbEntity
  8
0
100
AcDb2dPolyline
 66
     1
 10
0.0
 20
0.0
 30
0.0
  0
VERTEX
  5
79A
330
327
100
AcDbEntity
  8
0
100
AcDbVertex
100
AcDb2dVertex
 10
205.8860456109929
 20
52.85379321659354
 30
0.0
  0
VERTEX
  5
79B
330
327
100
AcDbEntity
  8
0
100
AcDbVertex
100
AcDb2dVertex
 10
205.8860456109929
 20
56.85379321659354
 30
0.0
  0
SEQEND
  5
79C
330
327
100
AcDbEntity
  8
0
  0
POLYLINE
  5
328
330
415
100
AcDbEntity
  8
0
100
AcDb2dPolyline
 66
     1
 10
0.0
 20
0.0
 30
0.0
  0
VERTEX
  5
79D
330
328
100
AcDbEntity
  8
0
100
AcDbVertex
100
AcDb2dVertex
 10
205.8860456109929
 20
56.85379321659349
 30
0.0
  0
VERTEX
  5
79E
330
328
100
AcDbEntity
  8
0
100
AcDbVertex
100
AcDb2dVertex
 10
206.2433112009009
 20
56.85379321659354
 30
0.0
  0
SEQEND
  5
79F
330
328
100
AcDbEntity
  8
0
  0
LINE
  5
329
330
415
100
AcDbEntity
  8
0
100
AcDbLine
 10
202.5010462278201
 20
56.75379321659352
 30
0.0
 11
202.5010462278201
 21
50.90379321659352
 31
0.0
  0
LINE
  5
32A
330
415
100
AcDbEntity
  8
0
100
AcDbLine
 10
202.5010462278201
 20
50.90379321659359
 30
0.0
 11
202.5010462278201
 21
48.95379321659357
 31
0.0
  0
LINE
  5
32B
330
415
100
AcDbEntity
  8
0
100
AcDbLine
 10
197.30104622782
 20
80.85379321659354
 30
0.0
 11
187.3010462278201
 21
80.85379321659354
 31
0.0
  0
LINE
  5
32C
330
415
100
AcDbEntity
  8
0
100
AcDbLine
 10
197.30104622782
 20
24.8537932165936
 30
0.0
 11
197.30104622782
 21
80.85379321659354
 31
0.0
  0
LINE
  5
32D
330
415
100
AcDbEntity
  8
0
100
AcDbLine
 10
197.30104622782
 20
24.8537932165936
 30
0.0
 11
187.3010462278201
 21
24.8537932165936
 31
0.0
  0
LINE
  5
32E
330
415
100
AcDbEntity
  8
0
100
AcDbLine
 10
187.3010462278201
 20
80.85379321659354
 30
0.0
 11
187.3010462278201
 21
24.8537932165936
 31
0.0
  0
CIRCLE
  5
32F
330
415
100
AcDbEntity
  8
0
100
AcDbCircle
 10
-192.3010462278201
 20
75.35379321659354
 30
0.0
 40
1.649999999999999
210
0.0
220
0.0
230
-1.0
  0
CIRCLE
  5
330
330
415
100
AcDbEntity
  8
0
100
AcDbCircle
 10
-192.3010462278201
 20
30.35379321659354
 30
0.0
 40
1.649999999999999
210
0.0
220
0.0
230
-1.0
  0
LINE
  5
331
330
415
100
AcDbEntity
  8
0
100
AcDbLine
 10
276.3010462278201
 20
81.85379321659354
 30
0.0
 11
206.30104622782
 21
81.85379321659354
 31
0.0
  0
LINE
  5
332
330
415
100
AcDbEntity
  8
0
100
AcDbLine
 10
206.30104622782
 20
23.85379321659355
 30
0.0
 11
276.3010462278201
 21
23.85379321659354
 31
0.0
  0
CIRCLE
  5
333
330
415
100
AcDbEntity
  8
0
100
AcDbCircle
 10
236.3010462278201
 20
52.85379321659352
 30
0.0
 40
2.149999999999999
  0
CIRCLE
  5
334
330
415
100
AcDbEntity
  8
0
100
AcDbCircle
 10
261.3010462278201
 20
52.85379321659352
 30
0.0
 40
2.149999999999999
  0
LINE
  5
335
330
415
100
AcDbEntity
  8
0
100
AcDbLine
 10
206.30104622782
 20
76.55379321659353
 30
0.0
 11
276.3010462278201
 21
76.55379321659353
 31
0.0
  0
LINE
  5
336
330
415
100
AcDbEntity
  8
0
100
AcDbLine
 10
206.30104622782
 20
78.55379321659353
 30
0.0
 11
276.3010462278201
 21
78.55379321659353
 31
0.0
  0
LINE
  5
337
330
415
100
AcDbEntity
  8
0
100
AcDbLine
 10
206.30104622782
 20
78.85379321659354
 30
0.0
 11
276.3010462278201
 21
78.85379321659354
 31
0.0
  0
LINE
  5
338
330
415
100
AcDbEntity
  8
0
100
AcDbLine
 10
206.30104622782
 20
71.15379321659355
 30
0.0
 11
276.3010462278201
 21
71.15379321659355
 31
0.0
  0
LINE
  5
339
330
415
100
AcDbEntity
  8
0
100
AcDbLine
 10
206.30104622782
 20
73.15379321659356
 30
0.0
 11
276.3010462278201
 21
73.15379321659356
 31
0.0
  0
CIRCLE
  5
33A
330
415
100
AcDbEntity
  8
0
100
AcDbCircle
 10
-236.3010462278201
 20
52.85379321659352
 30
0.0
 40
4.0
210
0.0
220
0.0
230
-1.0
  0
CIRCLE
  5
33B
330
415
100
AcDbEntity
  8
0
100
AcDbCircle
 10
-261.3010462278201
 20
52.85379321659352
 30
0.0
 40
4.0
210
0.0
220
0.0
230
-1.0
  0
LINE
  5
33C
330
415
100
AcDbEntity
  8
0
100
AcDbLine
 10
276.3010462278201
 20
70.85379321659354
 30
0.0
 11
206.30104622782
 21
70.85379321659354
 31
0.0
  0
LINE
  5
33D
330
415
100
AcDbEntity
  8
0
100
AcDbLine
 10
206.30104622782
 20
81.35379321659355
 30
0.0
 11
206.30104622782
 21
81.85379321659354
 31
0.0
  0
LINE
  5
33E
330
415
100
AcDbEntity
  8
0
100
AcDbLine
 10
206.30104622782
 20
81.35379321659355
 30
0.0
 11
206.30104622782
 21
78.85379321659354
 31
0.0
  0
LINE
  5
33F
330
415
100
AcDbEntity
  8
0
100
AcDbLine
 10
206.30104622782
 20
78.55379321659353
 30
0.0
 11
206.30104622782
 21
78.85379321659354
 31
0.0
  0
LINE
  5
340
330
415
100
AcDbEntity
  8
0
100
AcDbLine
 10
206.30104622782
 20
76.55379321659353
 30
0.0
 11
206.30104622782
 21
78.55379321659353
 31
0.0
  0
LINE
  5
341
330
415
100
AcDbEntity
  8
0
100
AcDbLine
 10
206.30104622782
 20
75.30379321659353
 30
0.0
 11
206.30104622782
 21
76.55379321659353
 31
0.0
  0
LINE
  5
342
330
415
100
AcDbEntity
  8
0
100
AcDbLine
 10
206.30104622782
 20
74.40379321659356
 30
0.0
 11
206.30104622782
 21
75.30379321659353
 31
0.0
  0
LINE
  5
343
330
415
100
AcDbEntity
  8
0
100
AcDbLine
 10
206.30104622782
 20
73.15379321659356
 30
0.0
 11
206.30104622782
 21
74.40379321659356
 31
0.0
  0
LINE
  5
344
330
415
100
AcDbEntity
  8
0
100
AcDbLine
 10
206.30104622782
 20
71.15379321659355
 30
0.0
 11
206.30104622782
 21
73.15379321659356
 31
0.0
  0
LINE
  5
345
330
415
100
AcDbEntity
  8
0
100
AcDbLine
 10
206.30104622782
 20
70.85379321659354
 30
0.0
 11
206.30104622782
 21
71.15379321659355
 31
0.0
  0
LINE
  5
346
330
415
100
AcDbEntity
  8
0
100
AcDbLine
 10
206.30104622782
 20
70.85379321659354
 30
0.0
 11
206.30104622782
 21
34.85379321659355
 31
0.0
  0
LINE
  5
347
330
415
100
AcDbEntity
  8
0
100
AcDbLine
 10
206.30104622782
 20
26.85379321659354
 30
0.0
 11
206.30104622782
 21
24.35379321659354
 31
0.0
  0
LINE
  5
348
330
415
100
AcDbEntity
  8
0
100
AcDbLine
 10
206.30104622782
 20
23.85379321659355
 30
0.0
 11
206.30104622782
 21
24.35379321659354
 31
0.0
  0
LINE
  5
349
330
415
100
AcDbEntity
  8
0
100
AcDbLine
 10
206.30104622782
 20
32.55379321659353
 30
0.0
 11
276.3010462278201
 21
32.55379321659353
 31
0.0
  0
LINE
  5
34A
330
415
100
AcDbEntity
  8
0
100
AcDbLine
 10
206.30104622782
 20
32.55379321659353
 30
0.0
 11
206.30104622782
 21
34.55379321659354
 31
0.0
  0
LINE
  5
34B
330
415
100
AcDbEntity
  8
0
100
AcDbLine
 10
206.30104622782
 20
34.55379321659354
 30
0.0
 11
276.3010462278201
 21
34.55379321659353
 31
0.0
  0
LINE
  5
34C
330
415
100
AcDbEntity
  8
0
100
AcDbLine
 10
206.30104622782
 20
34.55379321659354
 30
0.0
 11
206.30104622782
 21
34.85379321659355
 31
0.0
  0
LINE
  5
34D
330
415
100
AcDbEntity
  8
0
100
AcDbLine
 10
206.30104622782
 20
34.85379321659355
 30
0.0
 11
276.3010462278201
 21
34.85379321659354
 31
0.0
  0
LINE
  5
34E
330
415
100
AcDbEntity
  8
0
100
AcDbLine
 10
206.30104622782
 20
30.40379321659356
 30
0.0
 11
206.30104622782
 21
31.30379321659353
 31
0.0
  0
LINE
  5
34F
330
415
100
AcDbEntity
  8
0
100
AcDbLine
 10
206.30104622782
 20
31.30379321659353
 30
0.0
 11
206.30104622782
 21
32.55379321659353
 31
0.0
  0
LINE
  5
350
330
415
100
AcDbEntity
  8
0
100
AcDbLine
 10
276.3010462278201
 20
26.85379321659354
 30
0.0
 11
206.30104622782
 21
26.85379321659355
 31
0.0
  0
LINE
  5
351
330
415
100
AcDbEntity
  8
0
100
AcDbLine
 10
206.30104622782
 20
26.85379321659354
 30
0.0
 11
206.30104622782
 21
27.15379321659356
 31
0.0
  0
LINE
  5
352
330
415
100
AcDbEntity
  8
0
100
AcDbLine
 10
206.30104622782
 20
27.15379321659356
 30
0.0
 11
276.3010462278201
 21
27.15379321659355
 31
0.0
  0
LINE
  5
353
330
415
100
AcDbEntity
  8
0
100
AcDbLine
 10
206.30104622782
 20
27.15379321659356
 30
0.0
 11
206.30104622782
 21
29.15379321659356
 31
0.0
  0
LINE
  5
354
330
415
100
AcDbEntity
  8
0
100
AcDbLine
 10
206.30104622782
 20
29.15379321659356
 30
0.0
 11
276.3010462278201
 21
29.15379321659355
 31
0.0
  0
LINE
  5
355
330
415
100
AcDbEntity
  8
0
100
AcDbLine
 10
206.30104622782
 20
29.15379321659356
 30
0.0
 11
206.30104622782
 21
30.40379321659356
 31
0.0
  0
LINE
  5
356
330
415
100
AcDbEntity
  8
0
100
AcDbLine
 10
276.3010462278201
 20
24.35379321659354
 30
0.0
 11
276.3010462278201
 21
23.85379321659355
 31
0.0
  0
LINE
  5
357
330
415
100
AcDbEntity
  8
0
100
AcDbLine
 10
276.3010462278201
 20
26.85379321659354
 30
0.0
 11
276.3010462278201
 21
24.35379321659354
 31
0.0
  0
LINE
  5
358
330
415
100
AcDbEntity
  8
0
100
AcDbLine
 10
276.3010462278201
 20
27.15379321659356
 30
0.0
 11
276.3010462278201
 21
26.85379321659354
 31
0.0
  0
LINE
  5
359
330
415
100
AcDbEntity
  8
0
100
AcDbLine
 10
276.3010462278201
 20
29.15379321659356
 30
0.0
 11
276.3010462278201
 21
27.15379321659356
 31
0.0
  0
LINE
  5
35A
330
415
100
AcDbEntity
  8
0
100
AcDbLine
 10
276.3010462278201
 20
30.40379321659356
 30
0.0
 11
276.3010462278201
 21
29.15379321659356
 31
0.0
  0
LINE
  5
35B
330
415
100
AcDbEntity
  8
0
100
AcDbLine
 10
276.3010462278201
 20
31.30379321659353
 30
0.0
 11
276.3010462278201
 21
30.40379321659356
 31
0.0
  0
LINE
  5
35C
330
415
100
AcDbEntity
  8
0
100
AcDbLine
 10
276.3010462278201
 20
32.55379321659353
 30
0.0
 11
276.3010462278201
 21
31.30379321659353
 31
0.0
  0
LINE
  5
35D
330
415
100
AcDbEntity
  8
0
100
AcDbLine
 10
276.3010462278201
 20
34.55379321659354
 30
0.0
 11
276.3010462278201
 21
32.55379321659353
 31
0.0
  0
LINE
  5
35E
330
415
100
AcDbEntity
  8
0
100
AcDbLine
 10
276.3010462278201
 20
34.85379321659355
 30
0.0
 11
276.3010462278201
 21
34.55379321659354
 31
0.0
  0
LINE
  5
35F
330
415
100
AcDbEntity
  8
0
100
AcDbLine
 10
276.3010462278201
 20
70.85379321659354
 30
0.0
 11
276.3010462278201
 21
34.85379321659355
 31
0.0
  0
LINE
  5
360
330
415
100
AcDbEntity
  8
0
100
AcDbLine
 10
276.3010462278201
 20
71.15379321659355
 30
0.0
 11
276.3010462278201
 21
70.85379321659354
 31
0.0
  0
LINE
  5
361
330
415
100
AcDbEntity
  8
0
100
AcDbLine
 10
276.3010462278201
 20
73.15379321659356
 30
0.0
 11
276.3010462278201
 21
71.15379321659355
 31
0.0
  0
LINE
  5
362
330
415
100
AcDbEntity
  8
0
100
AcDbLine
 10
276.3010462278201
 20
74.40379321659356
 30
0.0
 11
276.3010462278201
 21
73.15379321659356
 31
0.0
  0
LINE
  5
363
330
415
100
AcDbEntity
  8
0
100
AcDbLine
 10
276.3010462278201
 20
75.30379321659353
 30
0.0
 11
276.3010462278201
 21
74.40379321659356
 31
0.0
  0
LINE
  5
364
330
415
100
AcDbEntity
  8
0
100
AcDbLine
 10
276.3010462278201
 20
76.55379321659353
 30
0.0
 11
276.3010462278201
 21
75.30379321659353
 31
0.0
  0
LINE
  5
365
330
415
100
AcDbEntity
  8
0
100
AcDbLine
 10
276.3010462278201
 20
78.55379321659353
 30
0.0
 11
276.3010462278201
 21
76.55379321659353
 31
0.0
  0
LINE
  5
366
330
415
100
AcDbEntity
  8
0
100
AcDbLine
 10
276.3010462278201
 20
78.85379321659354
 30
0.0
 11
276.3010462278201
 21
78.55379321659353
 31
0.0
  0
LINE
  5
367
330
415
100
AcDbEntity
  8
0
100
AcDbLine
 10
276.3010462278201
 20
81.35379321659355
 30
0.0
 11
276.3010462278201
 21
78.85379321659354
 31
0.0
  0
LINE
  5
368
330
415
100
AcDbEntity
  8
0
100
AcDbLine
 10
276.3010462278201
 20
81.85379321659354
 30
0.0
 11
276.3010462278201
 21
81.35379321659355
 31
0.0
  0
LINE
  5
369
330
415
100
AcDbEntity
  8
0
100
AcDbLine
 10
197.30104622782
 20
36.35379321659355
 30
0.0
 11
206.30104622782
 21
36.35379321659355
 31
0.0
  0
LINE
  5
36A
330
415
100
AcDbEntity
  8
0
100
AcDbLine
 10
206.30104622782
 20
44.35379321659354
 30
0.0
 11
197.30104622782
 21
44.35379321659354
 31
0.0
  0
LINE
  5
36B
330
415
100
AcDbEntity
  8
0
100
AcDbLine
 10
197.30104622782
 20
61.35379321659351
 30
0.0
 11
206.30104622782
 21
61.35379321659351
 31
0.0
  0
LINE
  5
36C
330
415
100
AcDbEntity
  8
0
100
AcDbLine
 10
206.30104622782
 20
69.35379321659351
 30
0.0
 11
197.30104622782
 21
69.35379321659351
 31
0.0
  0
LINE
  5
36D
330
415
100
AcDbEntity
  8
0
100
AcDbLine
 10
206.243311200901
 20
48.85379321659346
 30
0.0
 11
206.3010462278201
 21
48.95379321659357
 31
0.0
  0
LINE
  5
36E
330
415
100
AcDbEntity
  8
0
100
AcDbLine
 10
206.30104622782
 20
56.75379321659352
 30
0.0
 11
206.243311200901
 21
56.85379321659365
 31
0.0
  0
LINE
  5
36F
330
415
100
AcDbEntity
  8
0
100
AcDbLine
 10
202.5010462278201
 20
48.95379321659357
 30
0.0
 11
202.5587812547391
 21
48.8537932165934
 31
0.0
  0
LINE
  5
370
330
415
100
AcDbEntity
  8
0
100
AcDbLine
 10
202.5587812547391
 20
56.85379321659365
 30
0.0
 11
202.5010462278201
 21
56.75379321659352
 31
0.0
  0
ARC
  5
371
330
415
100
AcDbEntity
  8
0
100
AcDbCircle
 10
197.60104622782
 20
55.05379321659353
 30
0.0
 40
0.3
100
AcDbArc
 50
90.0
 51
180.0
  0
ARC
  5
372
330
415
100
AcDbEntity
  8
0
100
AcDbCircle
 10
197.60104622782
 20
50.65379321659356
 30
0.0
 40
0.3
100
AcDbArc
 50
180.0
 51
270.0
  0
LINE
  5
373
330
415
100
AcDbEntity
  8
0
100
AcDbLine
 10
197.80104622782
 20
55.35379321659354
 30
0.0
 11
197.60104622782
 21
55.35379321659354
 31
0.0
  0
LINE
  5
374
330
415
100
AcDbEntity
  8
0
100
AcDbLine
 10
197.60104622782
 20
50.35379321659354
 30
0.0
 11
197.80104622782
 21
50.35379321659354
 31
0.0
  0
LINE
  5
375
330
415
100
AcDbEntity
  8
0
100
AcDbLine
 10
201.80104622782
 20
50.85379321659354
 30
0.0
 11
202.5010462278201
 21
50.85379321659354
 31
0.0
  0
LINE
  5
376
330
415
100
AcDbEntity
  8
0
100
AcDbLine
 10
202.5010462278201
 20
54.85379321659355
 30
0.0
 11
201.8010462278201
 21
54.85379321659355
 31
0.0
  0
LWPOLYLINE
  5
94D
330
415
100
AcDbEntity
  8
LOGO
 62
     4
100
AcDbPolyline
 90
        4
 70
     1
 43
0.0
 38
-186.7581714702363
 10
55.87761791931564
 20
-19.55839385382878
 10
375.8776179193158
 20
-19.55839385382878
 10
375.8776179193158
 20
316.2838313713537
 10
55.87761791931564
 20
316.2838313713537
1001
GENIUS_GENREC_14
1002
{
1000
PYDIR
1011
55.87761791931564
1021
316.2838313713537
1031
-186.7581714702363
1002
}
1002
{
1000
PXDIR
1011
375.8776179193158
1021
-19.55839385382878
1031
-186.7581714702363
1002
}
1002
{
1000
PORI
1011
55.87761791931564
1021
-19.55839385382878
1031
-186.7581714702363
1002
}
1002
{
1000
PINS
1011
55.87761791931564
1021
-19.55839385382878
1031
-186.7581714702363
1002
}
1002
{
1000
PINS2
1011
375.8776179193158
1021
316.2838313713537
1031
-186.7581714702363
1002
}
1002
{
1000
C
1070
     1
1002
}
1001
GENIUS_GENODEF_13
1002
{
1000
HIER
1070
     0
1002
}
1002
{
1000
MANEDIT
1070
     0
1002
}
1002
{
1000
NOSEL
1070
     0
1002
}
1002
{
1000
BEHIND
1070
     0
1002
}
1002
{
1000
OTHER
1070
     0
1002
}
1002
{
1000
REACTOR
1002
}
1001
GENIUS_GENOBJ-N-REC_13
1002
{
1000
OWNER
1000
GEN
1002
}
  0
LWPOLYLINE
  5
94E
330
415
100
AcDbEntity
  8
LOGO
 62
     4
100
AcDbPolyline
 90
        4
 70
     1
 43
0.0
 38
-186.7581714702363
 10
55.87761791931564
 20
-19.55839385382878
 10
375.8776179193158
 20
-19.55839385382878
 10
375.8776179193158
 20
-51.55376036966646
 10
55.87761791931564
 20
-51.55376036966646
1001
GENIUS_GENREC_14
1002
{
1000
PYDIR
1011
55.87761791931564
1021
-51.55376036966646
1031
-186.7581714702363
1002
}
1002
{
1000
PXDIR
1011
375.8776179193158
1021
-19.55839385382878
1031
-186.7581714702363
1002
}
1002
{
1000
PORI
1011
55.87761791931564
1021
-19.55839385382878
1031
-186.7581714702363
1002
}
1002
{
1000
PINS
1011
55.87761791931564
1021
-19.55839385382878
1031
-186.7581714702363
1002
}
1002
{
1000
PINS2
1011
375.8776179193158
1021
-51.55376036966646
1031
-186.7581714702363
1002
}
1002
{
1000
C
1070
     1
1002
}
1001
GENIUS_GENOBJ-N-REC_13
1002
{
1000
OWNER
1000
GEN
1002
}
1001
GENIUS_GENODEF_13
1002
{
1000
HIER
1070
     0
1002
}
1002
{
1000
MANEDIT
1070
     0
1002
}
1002
{
1000
NOSEL
1070
     0
1002
}
1002
{
1000
BEHIND
1070
     0
1002
}
1002
{
1000
OTHER
1070
     0
1002
}
1002
{
1000
REACTOR
1002
}
  0
TEXT
  5
94F
330
415
100
AcDbEntity
  8
LOGO
 62
     7
100
AcDbText
 10
128.1210369572474
 20
-33.57501947673282
 30
-186.7581714702363
 40
4.26604886877828
  1
Order example:
 41
0.8
  7
chineset
100
AcDbText
  0
TEXT
  5
950
330
415
100
AcDbEntity
  8
LOGO
 62
     7
100
AcDbText
 10
128.8864014030952
 20
-27.56930596618204
 30
-186.7581714702363
 40
6.39907330316742
  1
訂購代號：
  7
chineset
100
AcDbText
  0
LINE
  5
951
330
415
100
AcDbEntity
  8
LOGO
 62
     4
100
AcDbLine
 10
126.2674242541574
 20
-51.55376036966609
 30
-186.7581714702363
 11
126.2674242541574
 21
-19.55839385382879
 31
-186.7581714702363
  0
TEXT
  5
952
330
415
100
AcDbEntity
  8
LOGO
  6
Continuous
100
AcDbText
 10
67.37049739375959
 20
-45.26831890284793
 30
-186.7581714702363
 40
4.799304977375565
  1
金器工業股份有限公司
  7
chineset
100
AcDbText
  0
TEXT
  5
953
330
415
100
AcDbEntity
  8
LOGO
  6
Continuous
100
AcDbText
 10
58.55512364598633
 20
-50.06856416771897
 30
-186.7581714702363
 40
3.19953665158371
  1
MINDMAN INDUSTRIAL CO., LTD.
 41
0.85
  7
chineset
100
AcDbText
  0
LINE
  5
954
330
415
100
AcDbEntity
  8
LOGO
 62
     4
100
AcDbLine
 10
126.2674242541574
 20
-25.95746715699625
 30
-186.7581714702363
 11
79.34088669759603
 21
-25.95746715699625
 31
-186.7581714702363
  0
LINE
  5
955
330
415
100
AcDbEntity
  8
LOGO
 62
     4
100
AcDbLine
 10
126.2674242541574
 20
-32.3565404601637
 30
-186.7581714702363
 11
79.34088669759603
 21
-32.3565404601637
 31
-186.7581714702363
  0
LINE
  5
956
330
415
100
AcDbEntity
  8
LOGO
 62
     4
100
AcDbLine
 10
126.2674242541574
 20
-38.75561376333081
 30
-186.7581714702363
 11
55.87761791931569
 21
-38.75561376333081
 31
-186.7581714702363
  0
LINE
  5
957
330
415
100
AcDbEntity
  8
LOGO
 62
     4
100
AcDbLine
 10
79.34088669759603
 20
-38.75561376333081
 30
-186.7581714702363
 11
79.34088669759603
 21
-19.55839385382879
 31
-186.7581714702363
  0
TEXT
  5
958
330
415
100
AcDbEntity
  8
LOGO
100
AcDbText
 10
111.4129602186701
 20
-37.15584543753947
 30
-186.7581714702363
 40
3.19953665158371
  1
mm
  7
chineset
 72
     1
 11
115.3742913111071
 21
-35.55607711174761
 31
-186.7581714702363
100
AcDbText
 73
     2
  0
TEXT
  5
959
330
415
100
AcDbEntity
  8
LOGO
100
AcDbText
 10
109.7370124487929
 20
-24.35769883120456
 30
-186.7581714702363
 40
3.19953665158371
  1
1 : 1
  7
chineset
 72
     1
 11
115.3742913111071
 21
-22.7579305054127
 31
-186.7581714702363
100
AcDbText
 73
     2
  0
LINE
  5
95A
330
415
100
AcDbEntity
  8
LOGO
 62
     4
100
AcDbLine
 10
104.9371799102658
 20
-38.75561376333081
 30
-186.7581714702363
 11
104.9371799102658
 21
-19.55839385382879
 31
-186.7581714702363
  0
CIRCLE
  5
95B
330
415
100
AcDbEntity
  8
LOGO
  6
Continuous
100
AcDbCircle
 10
110.8615222123911
 20
-29.15015997626852
 30
-186.7581714702363
 40
1.85772628851301
  0
CIRCLE
  5
95C
330
415
100
AcDbEntity
  8
LOGO
  6
Continuous
100
AcDbCircle
 10
110.8615222123911
 20
-29.15015997626852
 30
-186.7581714702363
 40
1.088463149864955
  0
LINE
  5
95D
330
415
100
AcDbEntity
  8
LOGO
100
AcDbLine
 10
122.5356897708495
 20
-31.00788626478189
 30
-186.7581714702363
 11
122.5356897708495
 21
-27.29243368775513
 31
-186.7581714702363
  0
LINE
  5
95E
330
415
100
AcDbEntity
  8
LOGO
100
AcDbLine
 10
116.7118244949388
 20
-30.23862312613329
 30
-186.7581714702363
 11
116.7118244949388
 21
-28.06169682640339
 31
-186.7581714702363
  0
LINE
  5
95F
330
415
100
AcDbEntity
  8
LOGO
  6
Continuous
100
AcDbLine
 10
116.7118244949388
 20
-28.06169682640339
 30
-186.7581714702363
 11
122.5356897708495
 21
-27.29243368775513
 31
-186.7581714702363
  0
LINE
  5
960
330
415
100
AcDbEntity
  8
LOGO
  6
Continuous
100
AcDbLine
 10
116.7118244949388
 20
-30.23862312613329
 30
-186.7581714702363
 11
122.5356897708495
 21
-31.00788626478189
 31
-186.7581714702363
  0
TEXT
  5
961
330
415
100
AcDbEntity
  8
LOGO
100
AcDbText
 10
81.97907607057606
 20
-24.35612425608075
 30
22.93418974584335
 40
3.19953665158371
  1
比例 Scale:
 41
0.9
  7
chineset
 72
     4
 11
92.13903330393094
 21
-22.7579305054127
 31
22.93418974584335
100
AcDbText
  0
TEXT
  5
962
330
415
100
AcDbEntity
  8
LOGO
100
AcDbText
 10
81.79481704019469
 20
-30.71176552874975
 30
22.93418974584335
 40
3.19953665158371
  1
投影  View:
 41
0.9
  7
chineset
 72
     4
 11
92.13903330393094
 21
-29.15700380858016
 31
22.93418974584335
100
AcDbText
  0
TEXT
  5
963
330
415
100
AcDbEntity
  8
LOGO
100
AcDbText
 10
82.10762888247005
 20
-37.15584543753947
 30
22.93418974584335
 40
3.19953665158371
  1
單位  Unit:
 41
0.9
  7
chineset
 72
     4
 11
92.13903330393094
 21
-35.55607711174761
 31
22.93418974584335
100
AcDbText
  0
SOLID
  5
964
330
415
100
AcDbEntity
  8
LOGO
 62
     5
100
AcDbTrace
 10
59.19718854399121
 20
-33.43683949825337
 30
-186.7581714702363
 11
60.58058423629427
 21
-33.43683949825373
 31
-186.7581714702363
 12
66.35268350417914
 22
-20.31843207124129
 32
-186.7581714702363
 13
67.73607919648293
 23
-20.31843207124203
 33
-186.7581714702363
  0
SOLID
  5
965
330
415
100
AcDbEntity
  8
LOGO
 62
     5
100
AcDbTrace
 10
61.15302383311081
 20
-33.43683949825337
 30
-186.7581714702363
 11
62.5364195254138
 21
-33.43683949825337
 31
-186.7581714702363
 12
67.73607919648293
 22
-21.36790466540279
 32
-186.7581714702363
 13
66.35268350417914
 23
-26.44035553718078
 33
-186.7581714702363
  0
SOLID
  5
966
330
415
100
AcDbEntity
  8
LOGO
 62
     2
100
AcDbTrace
 10
60.58058423629427
 20
-33.43683949825373
 30
-186.7581714702363
 11
61.15302383311081
 21
-33.43683949825337
 31
-186.7581714702363
 12
67.73607919648293
 22
-20.31843207124203
 32
-186.7581714702363
 13
68.30851879329873
 23
-20.31843207124203
 33
-186.7581714702363
  0
SOLID
  5
967
330
415
100
AcDbEntity
  8
LOGO
 62
     5
100
AcDbTrace
 10
56.97926599904985
 20
-38.20716947171187
 30
-186.7581714702363
 11
57.45629899639624
 21
-38.20716947171187
 31
-186.7581714702363
 12
58.79966104620343
 22
-35.82200448498279
 32
-186.7581714702363
 13
59.27669404354833
 23
-35.82200448498279
 33
-186.7581714702363
  0
SOLID
  5
968
330
415
100
AcDbEntity
  8
LOGO
 62
     5
100
AcDbTrace
 10
58.79966104620343
 20
-35.82200448498279
 30
-186.7581714702363
 11
59.27669404354833
 21
-35.82200448498279
 31
-186.7581714702363
 12
58.79966104620343
 22
-38.20716947171187
 32
-186.7581714702363
 13
59.27669404354833
 23
-38.20716947171187
 33
-186.7581714702363
  0
SOLID
  5
969
330
415
100
AcDbEntity
  8
LOGO
 62
     5
100
AcDbTrace
 10
58.79966104620343
 20
-38.20716947171187
 30
-186.7581714702363
 11
59.27669404354833
 21
-38.20716947171187
 31
-186.7581714702363
 12
60.62005609335773
 22
-35.82200448498279
 32
-186.7581714702363
 13
61.09708909070338
 23
-35.82200448498279
 33
-186.7581714702363
  0
SOLID
  5
96A
330
415
100
AcDbEntity
  8
LOGO
 62
     5
100
AcDbTrace
 10
60.62005609335773
 20
-35.82200448498279
 30
-186.7581714702363
 11
61.09708909070338
 21
-35.82200448498279
 31
-186.7581714702363
 12
60.62005609335773
 22
-38.20716947171187
 32
-186.7581714702363
 13
61.09708909070338
 23
-38.20716947171187
 33
-186.7581714702363
  0
POLYLINE
  5
96B
330
415
100
AcDbEntity
  8
LOGO
 62
     5
100
AcDb2dPolyline
 66
     1
 10
0.0
 20
0.0
 30
-186.7581714702363
 40
0.4777974733031673
 41
0.4777974733031673
  0
VERTEX
  5
96C
330
96B
100
AcDbEntity
  8
LOGO
 62
     5
100
AcDbVertex
100
AcDb2dVertex
 10
76.61003966105289
 20
-36.7760704796745
 30
-186.7581714702363
 42
1.0
  0
VERTEX
  5
96D
330
96B
100
AcDbEntity
  8
LOGO
 62
     5
100
AcDbVertex
100
AcDb2dVertex
 10
75.17664724114308
 20
-36.7760704796745
 30
-186.7581714702363
 42
1.0
  0
SEQEND
  5
96E
330
96B
100
AcDbEntity
  8
LOGO
 62
     5
  0
POLYLINE
  5
96F
330
415
100
AcDbEntity
  8
LOGO
 62
     5
100
AcDb2dPolyline
 66
     1
 10
0.0
 20
0.0
 30
-186.7581714702363
 70
     1
  0
VERTEX
  5
970
330
96F
100
AcDbEntity
  8
LOGO
 62
     5
100
AcDbVertex
100
AcDb2dVertex
 10
72.47463877231803
 20
-37.0145869783477
 30
-186.7581714702363
 42
1.000000057330635
  0
VERTEX
  5
971
330
96F
100
AcDbEntity
  8
LOGO
 62
     5
100
AcDbVertex
100
AcDb2dVertex
 10
73.90573776435577
 20
-37.0145869783477
 30
-186.7581714702363
 42
1.000000057330635
  0
SEQEND
  5
972
330
96F
100
AcDbEntity
  8
LOGO
 62
     5
  0
CIRCLE
  5
973
330
415
100
AcDbEntity
  8
LOGO
 62
     5
100
AcDbCircle
 10
73.19018826833797
 20
-37.0145869783477
 30
-186.7581714702363
 40
0.7155494960188236
  0
POLYLINE
  5
974
330
415
100
AcDbEntity
  8
LOGO
 62
     5
100
AcDb2dPolyline
 66
     1
 10
0.0
 20
0.0
 30
-186.7581714702363
 70
     1
 40
0.4777974733031673
 41
0.4777974733031673
  0
VERTEX
  5
975
330
974
100
AcDbEntity
  8
LOGO
 62
     5
100
AcDbVertex
100
AcDb2dVertex
 10
72.23459332173092
 20
-37.0145869783477
 30
-186.7581714702363
 42
1.0
  0
VERTEX
  5
976
330
974
100
AcDbEntity
  8
LOGO
 62
     5
100
AcDbVertex
100
AcDb2dVertex
 10
74.14578321494355
 20
-37.0145869783477
 30
-186.7581714702363
 42
1.0
  0
SEQEND
  5
977
330
974
100
AcDbEntity
  8
LOGO
 62
     5
  0
LINE
  5
978
330
415
100
AcDbEntity
  8
LOGO
100
AcDbLine
 10
76.84740944578897
 20
-38.20716947171187
 30
-186.7581714702363
 11
76.84740944578897
 21
-36.7760704796745
 31
-186.7581714702363
  0
SOLID
  5
979
330
415
100
AcDbEntity
  8
LOGO
 62
     5
100
AcDbTrace
 10
73.90569006105812
 20
-35.82200448498279
 30
-186.7581714702363
 11
74.38272305840309
 21
-35.82200448498279
 31
-186.7581714702363
 12
73.90569006105812
 22
-38.20716947171187
 32
-186.7581714702363
 13
74.38272305840309
 23
-38.20716947171187
 33
-186.7581714702363
  0
SOLID
  5
97A
330
415
100
AcDbEntity
  8
LOGO
 62
     5
100
AcDbTrace
 10
74.93927745640553
 20
-38.20716947171187
 30
-186.7581714702363
 11
75.41631045375197
 21
-38.20716947171187
 31
-186.7581714702363
 12
74.93927745640553
 22
-35.82200448498279
 32
-186.7581714702363
 13
75.41631045375197
 23
-35.82200448498279
 33
-186.7581714702363
  0
SOLID
  5
97B
330
415
100
AcDbEntity
  8
LOGO
 62
     5
100
AcDbTrace
 10
76.37037644844401
 20
-36.7760704796745
 30
-186.7581714702363
 11
76.84740944578897
 21
-36.7760704796745
 31
-186.7581714702363
 12
76.37037644844401
 22
-38.20716947171187
 32
-186.7581714702363
 13
76.84740944578897
 23
-38.20716947171187
 33
-186.7581714702363
  0
SOLID
  5
97C
330
415
100
AcDbEntity
  8
LOGO
 62
     5
100
AcDbTrace
 10
74.89157415667086
 20
-21.36790466540279
 30
-186.7581714702363
 11
73.50817846436854
 21
-26.44035553718078
 31
-186.7581714702363
 12
74.89157415667086
 22
-33.43683949825373
 32
-186.7581714702363
 13
73.50817846436854
 23
-33.43683949825373
 33
-186.7581714702363
  0
SOLID
  5
97D
330
415
100
AcDbEntity
  8
LOGO
 62
     5
100
AcDbTrace
 10
75.46401375348665
 20
-33.43683949825373
 30
-186.7581714702363
 11
76.84740944578897
 21
-33.43683949825373
 31
-186.7581714702363
 12
75.46401375348665
 22
-20.31843207124203
 32
-186.7581714702363
 13
76.84740944578897
 23
-20.31843207124129
 33
-186.7581714702363
  0
SOLID
  5
97E
330
415
100
AcDbEntity
  8
LOGO
 62
     2
100
AcDbTrace
 10
74.89157415667086
 20
-20.31843207124129
 30
-186.7581714702363
 11
75.46401375348665
 21
-20.31843207124203
 31
-186.7581714702363
 12
74.89157415667086
 22
-33.43683949825373
 32
-186.7581714702363
 13
75.46401375348665
 23
-33.43683949825373
 33
-186.7581714702363
  0
POLYLINE
  5
97F
330
415
100
AcDbEntity
  8
LOGO
 62
     5
100
AcDb2dPolyline
 66
     1
 10
0.0
 20
0.0
 30
-186.7581714702363
 40
0.4777974733031673
 41
0.4777974733031673
  0
VERTEX
  5
980
330
97F
100
AcDbEntity
  8
LOGO
 62
     5
100
AcDbVertex
100
AcDb2dVertex
 10
69.77253489689553
 20
-36.7760704796745
 30
-186.7581714702363
 42
1.0
  0
VERTEX
  5
981
330
97F
100
AcDbEntity
  8
LOGO
 62
     5
100
AcDbVertex
100
AcDb2dVertex
 10
68.33914247698572
 20
-36.7760704796745
 30
-186.7581714702363
 42
1.0
  0
SEQEND
  5
982
330
97F
100
AcDbEntity
  8
LOGO
 62
     5
  0
POLYLINE
  5
983
330
415
100
AcDbEntity
  8
LOGO
 62
     5
100
AcDb2dPolyline
 66
     1
 10
0.0
 20
0.0
 30
-186.7581714702363
 40
0.4777974733031673
 41
0.4777974733031673
  0
VERTEX
  5
984
330
983
100
AcDbEntity
  8
LOGO
 62
     5
100
AcDbVertex
100
AcDb2dVertex
 10
71.20363388893179
 20
-36.7760704796745
 30
-186.7581714702363
 42
1.0
  0
VERTEX
  5
985
330
983
100
AcDbEntity
  8
LOGO
 62
     5
100
AcDbVertex
100
AcDb2dVertex
 10
69.77024146902272
 20
-36.7760704796745
 30
-186.7581714702363
 42
1.0
  0
SEQEND
  5
986
330
983
100
AcDbEntity
  8
LOGO
 62
     5
  0
POLYLINE
  5
987
330
415
100
AcDbEntity
  8
LOGO
 62
     5
100
AcDb2dPolyline
 66
     1
 10
0.0
 20
0.0
 30
-186.7581714702363
 40
0.4777974733031673
 41
0.4777974733031673
  0
VERTEX
  5
988
330
987
100
AcDbEntity
  8
LOGO
 62
     5
100
AcDbVertex
100
AcDb2dVertex
 10
64.36612912477449
 20
-36.7760704796745
 30
-186.7581714702363
 42
1.0
  0
VERTEX
  5
989
330
987
100
AcDbEntity
  8
LOGO
 62
     5
100
AcDbVertex
100
AcDb2dVertex
 10
62.93273670486541
 20
-36.7760704796745
 30
-186.7581714702363
 42
1.0
  0
SEQEND
  5
98A
330
987
100
AcDbEntity
  8
LOGO
 62
     5
  0
SOLID
  5
98B
330
415
100
AcDbEntity
  8
LOGO
 62
     5
100
AcDbTrace
 10
62.6953669201286
 20
-35.82200448498279
 30
-186.7581714702363
 11
63.17239991747351
 21
-35.82200448498279
 31
-186.7581714702363
 12
62.6953669201286
 22
-38.20716947171187
 32
-186.7581714702363
 13
63.17239991747351
 23
-38.20716947171187
 33
-186.7581714702363
  0
SOLID
  5
98C
330
415
100
AcDbEntity
  8
LOGO
 62
     5
100
AcDbTrace
 10
64.12646591216634
 20
-36.7760704796745
 30
-186.7581714702363
 11
64.60349890951272
 21
-36.7760704796745
 31
-186.7581714702363
 12
64.12646591216634
 22
-38.20716947171187
 32
-186.7581714702363
 13
64.60349890951272
 23
-38.20716947171187
 33
-186.7581714702363
  0
POLYLINE
  5
98D
330
415
100
AcDbEntity
  8
LOGO
 62
     5
100
AcDb2dPolyline
 66
     1
 10
0.0
 20
0.0
 30
-186.7581714702363
 70
     1
 40
0.4777974733031673
 41
0.4777974733031673
  0
VERTEX
  5
98E
330
98D
100
AcDbEntity
  8
LOGO
 62
     5
100
AcDbVertex
100
AcDb2dVertex
 10
65.39708855757289
 20
-37.0145869783477
 30
-186.7581714702363
 42
1.0
  0
VERTEX
  5
98F
330
98D
100
AcDbEntity
  8
LOGO
 62
     5
100
AcDbVertex
100
AcDb2dVertex
 10
67.30827845078619
 20
-37.0145869783477
 30
-186.7581714702363
 42
1.0
  0
SEQEND
  5
990
330
98D
100
AcDbEntity
  8
LOGO
 62
     5
  0
SOLID
  5
991
330
415
100
AcDbEntity
  8
LOGO
 62
     5
100
AcDbTrace
 10
67.06818529689934
 20
-35.10645498896355
 30
-186.7581714702363
 11
67.54521829424499
 21
-35.10645498896355
 31
-186.7581714702363
 12
67.06818529689934
 22
-38.20716947171187
 32
-186.7581714702363
 13
67.54521829424499
 23
-38.20716947171187
 33
-186.7581714702363
  0
SOLID
  5
992
330
415
100
AcDbEntity
  8
LOGO
 62
     5
100
AcDbTrace
 10
68.10177269224965
 20
-35.82200448498279
 30
-186.7581714702363
 11
68.57880568959462
 21
-35.82200448498279
 31
-186.7581714702363
 12
68.10177269224965
 22
-38.20716947171187
 32
-186.7581714702363
 13
68.57880568959462
 23
-38.20716947171187
 33
-186.7581714702363
  0
SOLID
  5
993
330
415
100
AcDbEntity
  8
LOGO
 62
     5
100
AcDbTrace
 10
69.53287168428596
 20
-36.7760704796745
 30
-186.7581714702363
 11
70.00990468163235
 21
-36.7760704796745
 31
-186.7581714702363
 12
69.53287168428596
 22
-38.20716947171187
 32
-186.7581714702363
 13
70.00990468163235
 23
-38.20716947171187
 33
-186.7581714702363
  0
SOLID
  5
994
330
415
100
AcDbEntity
  8
LOGO
 62
     5
100
AcDbTrace
 10
70.9639706763237
 20
-36.7760704796745
 30
-186.7581714702363
 11
71.44100367366934
 21
-36.7760704796745
 31
-186.7581714702363
 12
70.9639706763237
 22
-38.20716947171258
 32
-186.7581714702363
 13
71.44100367366934
 23
-38.20716947171258
 33
-186.7581714702363
  0
SOLID
  5
995
330
415
100
AcDbEntity
  8
LOGO
 62
     5
100
AcDbTrace
 10
61.66177952477898
 20
-35.48808138684052
 30
-186.7581714702363
 11
62.1388125221261
 21
-35.48808138684052
 31
-186.7581714702363
 12
61.66177952477898
 22
-35.10645498896355
 32
-186.7581714702363
 13
62.1388125221261
 23
-35.10645498896355
 33
-186.7581714702363
  0
SOLID
  5
996
330
415
100
AcDbEntity
  8
LOGO
 62
     5
100
AcDbTrace
 10
61.66177952477898
 20
-35.82200448498279
 30
-186.7581714702363
 11
62.1388125221261
 21
-35.82200448498279
 31
-186.7581714702363
 12
61.66177952477898
 22
-38.20716947171258
 32
-186.7581714702363
 13
62.1388125221261
 23
-38.20716947171187
 33
-186.7581714702363
  0
SOLID
  5
997
330
415
100
AcDbEntity
  8
LOGO
 62
     5
100
AcDbTrace
 10
66.35268350417914
 20
-33.43683949825337
 30
-186.7581714702363
 11
67.73607919648293
 21
-33.43683949825337
 31
-186.7581714702363
 12
66.35268350417914
 22
-26.44035553718078
 32
-186.7581714702363
 13
67.73607919648293
 23
-21.36790466540279
 33
-186.7581714702363
  0
SOLID
  5
998
330
415
100
AcDbEntity
  8
LOGO
 62
     5
100
AcDbTrace
 10
68.30851879329873
 20
-20.31843207124203
 30
-186.7581714702363
 11
69.69191448560104
 21
-20.31843207124129
 31
-186.7581714702363
 12
68.30851879329873
 22
-32.3873669040926
 32
-186.7581714702363
 13
69.69191448560104
 23
-27.31491603231461
 33
-186.7581714702363
  0
SOLID
  5
999
330
415
100
AcDbEntity
  8
LOGO
 62
     2
100
AcDbTrace
 10
67.73607919648293
 20
-20.31843207124203
 30
-186.7581714702363
 11
68.30851879329873
 21
-20.31843207124203
 31
-186.7581714702363
 12
67.73607919648293
 22
-33.43683949825337
 32
-186.7581714702363
 13
68.30851879329873
 23
-33.43683949825337
 33
-186.7581714702363
  0
SOLID
  5
99A
330
415
100
AcDbEntity
  8
LOGO
 62
     5
100
AcDbTrace
 10
68.30851879329873
 20
-32.3873669040926
 30
-186.7581714702363
 11
69.69191448560104
 21
-27.31491603231461
 31
-186.7581714702363
 12
74.89157415667086
 22
-20.31843207124129
 32
-186.7581714702363
 13
73.50817846436854
 23
-20.31843207124129
 33
-186.7581714702363
  0
SOLID
  5
99B
330
415
100
AcDbEntity
  8
LOGO
 62
     5
100
AcDbTrace
 10
68.30851879329873
 20
-33.43683949825337
 30
-186.7581714702363
 11
69.69191448560104
 21
-33.43683949825337
 31
-186.7581714702363
 12
74.89157415667086
 22
-21.36790466540279
 32
-186.7581714702363
 13
73.50817846436854
 23
-26.44035553718078
 33
-186.7581714702363
  0
SOLID
  5
99C
330
415
100
AcDbEntity
  8
LOGO
 62
     2
100
AcDbTrace
 10
67.73607919648293
 20
-33.43683949825337
 30
-186.7581714702363
 11
68.30851879329873
 21
-33.43683949825337
 31
-186.7581714702363
 12
74.89157415667086
 22
-20.31843207124129
 32
-186.7581714702363
 13
75.46401375348665
 23
-20.31843207124203
 33
-186.7581714702363
  0
LINE
  5
99D
330
415
100
AcDbEntity
  8
LOGO
 62
     4
100
AcDbLine
 10
191.6058752141291
 20
-37.15584543753886
 30
-186.7581714702363
 11
191.6058752141291
 21
-48.88747982667974
 31
-186.7581714702363
  0
LINE
  5
99E
330
415
100
AcDbEntity
  8
LOGO
 62
     4
100
AcDbLine
 10
170.2756308702376
 20
-37.15584543753886
 30
-186.7581714702363
 11
170.2756308702376
 21
-48.88747982667974
 31
-186.7581714702363
  0
LINE
  5
99F
330
415
100
AcDbEntity
  8
LOGO
 62
     4
100
AcDbLine
 10
191.6058752141291
 20
-48.88747982667974
 30
-186.7581714702363
 11
170.2756308702376
 21
-48.88747982667974
 31
-186.7581714702363
  0
LINE
  5
9A0
330
415
100
AcDbEntity
  8
LOGO
 62
     4
100
AcDbLine
 10
195.4316812244857
 20
-22.7579305054127
 30
-186.7581714702363
 11
170.2756308702376
 21
-22.7579305054127
 31
-186.7581714702363
  0
LINE
  5
9A1
330
415
100
AcDbEntity
  8
LOGO
 62
     4
100
AcDbLine
 10
195.4316812244857
 20
-32.3565404601637
 30
-186.7581714702363
 11
170.2756308702376
 21
-32.3565404601637
 31
-186.7581714702363
  0
LINE
  5
9A2
330
415
100
AcDbEntity
  8
LOGO
 62
     4
100
AcDbLine
 10
170.2756308702376
 20
-22.7579305054127
 30
-186.7581714702363
 11
170.2756308702376
 21
-32.3565404601637
 31
-186.7581714702363
  0
LINE
  5
9A3
330
415
100
AcDbEntity
  8
LOGO
 62
     4
100
AcDbLine
 10
195.4316812244857
 20
-22.7579305054127
 30
-186.7581714702363
 11
195.4316812244857
 21
-32.3565404601637
 31
-186.7581714702363
  0
LINE
  5
9A4
330
415
100
AcDbEntity
  8
LOGO
 62
     4
100
AcDbLine
 10
182.0536560473616
 20
-32.3565404601637
 30
-186.7581714702363
 11
182.0536560473616
 21
-37.15584543753886
 31
-186.7581714702363
  0
TEXT
  5
9A5
330
415
100
AcDbEntity
  8
LOGO
  6
Continuous
100
AcDbText
 10
171.9811535314854
 20
-30.35284466527574
 30
-186.7581714702363
 40
5.6
  1
MCDA
  7
chineset
100
AcDbText
  0
LINE
  5
9A6
330
415
100
AcDbEntity
  8
LOGO
 62
     4
100
AcDbLine
 10
191.6058752141291
 20
-37.15584543753886
 30
-186.7581714702363
 11
170.2756308702376
 21
-37.15584543753886
 31
-186.7581714702363
  0
TEXT
  5
9A7
330
415
100
AcDbEntity
  8
LOGO
  6
Continuous
100
AcDbText
 10
177.1204387496664
 20
-47.23158451016115
 30
22.93418974584335
 40
2.4
  1
Model
 41
0.8
  7
chineset
100
AcDbText
  0
TEXT
  5
9A8
330
415
100
AcDbEntity
  8
LOGO
100
AcDbText
 10
176.4816367688678
 20
-42.78250174707736
 30
22.93418974584335
 40
4.0
  1
型號
  7
chineset
100
AcDbText
  0
LINE
  5
9A9
330
415
100
AcDbEntity
  8
LOGO
  6
Continuous
100
AcDbLine
 10
196.4520927940948
 20
-27.59123527618667
 30
-186.7581714702363
 11
200.690488712398
 21
-27.59123527618667
 31
-186.7581714702363
  0
LINE
  5
9AA
330
415
100
AcDbEntity
  8
LOGO
 62
     4
100
AcDbLine
 10
223.662010137897
 20
-37.15584543753886
 30
-186.7581714702363
 11
223.662010137897
 21
-48.88747982667974
 31
-186.7581714702363
  0
LINE
  5
9AB
330
415
100
AcDbEntity
  8
LOGO
 62
     4
100
AcDbLine
 10
196.122582620768
 20
-37.15584543753886
 30
-186.7581714702363
 11
196.122582620768
 21
-48.88747982667974
 31
-186.7581714702363
  0
LINE
  5
9AC
330
415
100
AcDbEntity
  8
LOGO
 62
     4
100
AcDbLine
 10
223.662010137897
 20
-48.88747982667974
 30
-186.7581714702363
 11
196.122582620768
 21
-48.88747982667974
 31
-186.7581714702363
  0
LINE
  5
9AD
330
415
100
AcDbEntity
  8
LOGO
 62
     4
100
AcDbLine
 10
232.0878362996985
 20
-22.7579305054127
 30
-186.7581714702363
 11
202.0274792054408
 21
-22.7579305054127
 31
-186.7581714702363
  0
LINE
  5
9AE
330
415
100
AcDbEntity
  8
LOGO
 62
     4
100
AcDbLine
 10
232.0878362996985
 20
-32.3565404601637
 30
-186.7581714702363
 11
202.0274792054408
 21
-32.3565404601637
 31
-186.7581714702363
  0
LINE
  5
9AF
330
415
100
AcDbEntity
  8
LOGO
 62
     4
100
AcDbLine
 10
202.0274792054408
 20
-22.7579305054127
 30
-186.7581714702363
 11
202.0274792054408
 21
-32.3565404601637
 31
-186.7581714702363
  0
LINE
  5
9B0
330
415
100
AcDbEntity
  8
LOGO
 62
     4
100
AcDbLine
 10
232.0878362996985
 20
-22.7579305054127
 30
-186.7581714702363
 11
232.0878362996985
 21
-32.3565404601637
 31
-186.7581714702363
  0
LINE
  5
9B1
330
415
100
AcDbEntity
  8
LOGO
 62
     4
100
AcDbLine
 10
214.7100247659525
 20
-32.3565404601637
 30
-186.7581714702363
 11
214.7100247659525
 21
-37.15584543753886
 31
-186.7581714702363
  0
TEXT
  5
9B2
330
415
100
AcDbEntity
  8
LOGO
  6
Continuous
100
AcDbText
 10
203.5877987242932
 20
-30.35284466527574
 30
-186.7581714702363
 40
5.6
  1
03/23
  7
chineset
100
AcDbText
  0
LINE
  5
9B3
330
415
100
AcDbEntity
  8
LOGO
 62
     4
100
AcDbLine
 10
223.662010137897
 20
-37.15584543753886
 30
-186.7581714702363
 11
196.122582620768
 21
-37.15584543753886
 31
-186.7581714702363
  0
LINE
  5
9B4
330
415
100
AcDbEntity
  8
LOGO
  6
Continuous
100
AcDbLine
 10
234.315445709053
 20
-27.59123527618667
 30
-186.7581714702363
 11
238.5538416273563
 21
-27.59123527618667
 31
-186.7581714702363
  0
LINE
  5
9B5
330
415
100
AcDbEntity
  8
LOGO
 62
     4
100
AcDbLine
 10
249.8850232671854
 20
-37.15584543753886
 30
-186.7581714702363
 11
249.8850232671854
 21
-48.88747982667974
 31
-186.7581714702363
  0
LINE
  5
9B6
330
415
100
AcDbEntity
  8
LOGO
 62
     4
100
AcDbLine
 10
228.5547789232938
 20
-37.15584543753886
 30
-186.7581714702363
 11
228.5547789232938
 21
-48.88747982667974
 31
-186.7581714702363
  0
LINE
  5
9B7
330
415
100
AcDbEntity
  8
LOGO
 62
     4
100
AcDbLine
 10
249.8850232671854
 20
-48.88747982667974
 30
-186.7581714702363
 11
228.5547789232938
 21
-48.88747982667974
 31
-186.7581714702363
  0
LINE
  5
9B8
330
415
100
AcDbEntity
  8
LOGO
 62
     4
100
AcDbLine
 10
251.3050561676877
 20
-22.7579305054127
 30
-186.7581714702363
 11
239.890832120399
 21
-22.7579305054127
 31
-186.7581714702363
  0
LINE
  5
9B9
330
415
100
AcDbEntity
  8
LOGO
 62
     4
100
AcDbLine
 10
251.3050561676877
 20
-32.3565404601637
 30
-186.7581714702363
 11
239.890832120399
 21
-32.3565404601637
 31
-186.7581714702363
  0
LINE
  5
9BA
330
415
100
AcDbEntity
  8
LOGO
 62
     4
100
AcDbLine
 10
239.890832120399
 20
-22.7579305054127
 30
-186.7581714702363
 11
239.890832120399
 21
-32.3565404601637
 31
-186.7581714702363
  0
LINE
  5
9BB
330
415
100
AcDbEntity
  8
LOGO
 62
     4
100
AcDbLine
 10
251.3050561676877
 20
-22.7579305054127
 30
-186.7581714702363
 11
251.3050561676877
 21
-32.3565404601637
 31
-186.7581714702363
  0
LINE
  5
9BC
330
415
100
AcDbEntity
  8
LOGO
 62
     4
100
AcDbLine
 10
247.2656218186885
 20
-32.3565404601637
 30
-186.7581714702363
 11
247.2656218186885
 21
-37.15584543753886
 31
-186.7581714702363
  0
TEXT
  5
9BD
330
415
100
AcDbEntity
  8
LOGO
  6
Continuous
100
AcDbText
 10
241.1683814387104
 20
-30.35284466527574
 30
-186.7581714702363
 40
5.6
  1
16
  7
chineset
100
AcDbText
  0
LINE
  5
9BE
330
415
100
AcDbEntity
  8
LOGO
 62
     4
100
AcDbLine
 10
249.8850232671854
 20
-37.15584543753886
 30
-186.7581714702363
 11
228.5547789232938
 21
-37.15584543753886
 31
-186.7581714702363
  0
LINE
  5
9BF
330
415
100
AcDbEntity
  8
LOGO
  6
Continuous
100
AcDbLine
 10
253.3828828198033
 20
-27.59123527618667
 30
-186.7581714702363
 11
257.6212787381073
 21
-27.59123527618667
 31
-186.7581714702363
  0
LINE
  5
9C0
330
415
100
AcDbEntity
  8
LOGO
 62
     4
100
AcDbLine
 10
269.273986196035
 20
-37.15584543753886
 30
-186.7581714702363
 11
269.273986196035
 21
-48.88747982667974
 31
-186.7581714702363
  0
LINE
  5
9C1
330
415
100
AcDbEntity
  8
LOGO
 62
     4
100
AcDbLine
 10
251.8971016865611
 20
-37.15584543753886
 30
-186.7581714702363
 11
251.8971016865611
 21
-48.88747982667974
 31
-186.7581714702363
  0
LINE
  5
9C2
330
415
100
AcDbEntity
  8
LOGO
 62
     4
100
AcDbLine
 10
269.273986196035
 20
-48.88747982667974
 30
-186.7581714702363
 11
251.8971016865611
 21
-48.88747982667974
 31
-186.7581714702363
  0
LINE
  5
9C3
330
415
100
AcDbEntity
  8
LOGO
 62
     4
100
AcDbLine
 10
270.1108413375371
 20
-22.7579305054127
 30
-186.7581714702363
 11
258.9582692311493
 21
-22.7579305054127
 31
-186.7581714702363
  0
LINE
  5
9C4
330
415
100
AcDbEntity
  8
LOGO
 62
     4
100
AcDbLine
 10
270.1108413375371
 20
-32.3565404601637
 30
-186.7581714702363
 11
258.9582692311493
 21
-32.3565404601637
 31
-186.7581714702363
  0
LINE
  5
9C5
330
415
100
AcDbEntity
  8
LOGO
 62
     4
100
AcDbLine
 10
258.9582692311493
 20
-22.7579305054127
 30
-186.7581714702363
 11
258.9582692311493
 21
-32.3565404601637
 31
-186.7581714702363
  0
LINE
  5
9C6
330
415
100
AcDbEntity
  8
LOGO
 62
     4
100
AcDbLine
 10
270.1108413375371
 20
-22.7579305054127
 30
-186.7581714702363
 11
270.1108413375371
 21
-32.3565404601637
 31
-186.7581714702363
  0
LINE
  5
9C7
330
415
100
AcDbEntity
  8
LOGO
 62
     4
100
AcDbLine
 10
264.0645964513284
 20
-32.3565404601637
 30
-186.7581714702363
 11
264.0645964513284
 21
-37.15584543753886
 31
-186.7581714702363
  0
TEXT
  5
9C8
330
415
100
AcDbEntity
  8
LOGO
  6
Continuous
100
AcDbText
 10
260.5576494657629
 20
-30.35284466527574
 30
-186.7581714702363
 40
5.6
  1
10
  7
chineset
100
AcDbText
  0
LINE
  5
9C9
330
415
100
AcDbEntity
  8
LOGO
 62
     4
100
AcDbLine
 10
269.273986196035
 20
-37.15584543753886
 30
-186.7581714702363
 11
251.8971016865611
 21
-37.15584543753886
 31
-186.7581714702363
  0
TEXT
  5
9CA
330
415
100
AcDbEntity
  8
LOGO
  6
Continuous
100
AcDbText
 10
201.6876116728885
 20
-47.23158451016115
 30
22.93418974584335
 40
2.4
  1
Bearing type
 41
0.8
  7
chineset
100
AcDbText
  0
TEXT
  5
9CB
330
415
100
AcDbEntity
  8
LOGO
100
AcDbText
 10
201.6650028416525
 20
-42.78250174707736
 30
22.93418974584335
 40
4.0
  1
軸承型式
  7
chineset
100
AcDbText
  0
TEXT
  5
9CC
330
415
100
AcDbEntity
  8
LOGO
  6
Continuous
100
AcDbText
 10
233.022593323068
 20
-47.23158451016115
 30
22.93418974584335
 40
2.4
  1
Tube I.D.
 41
0.8
  7
chineset
100
AcDbText
  0
TEXT
  5
9CD
330
415
100
AcDbEntity
  8
LOGO
100
AcDbText
 10
233.990299180629
 20
-42.78250174707736
 30
22.93418974584335
 40
4.0
  1
內徑
  7
chineset
100
AcDbText
  0
TEXT
  5
9CE
330
415
100
AcDbEntity
  8
LOGO
  6
Continuous
100
AcDbText
 10
256.476793209147
 20
-47.23158451016115
 30
22.93418974584335
 40
2.4
  1
Stroke
 41
0.8
  7
chineset
100
AcDbText
  0
TEXT
  5
9CF
330
415
100
AcDbEntity
  8
LOGO
100
AcDbText
 10
256.310385098609
 20
-42.78250174707736
 30
22.93418974584335
 40
4.0
  1
行程
  7
chineset
100
AcDbText
  0
TEXT
  5
9DC
330
415
100
AcDbEntity
  8
LOGO
100
AcDbText
 10
127.5898812001376
 20
-49.85161949939193
 30
-186.7581714702363
 40
3.2
  1
10705096
 41
0.7
  7
chineset
 72
     1
 11
135.5365478668043
 21
-49.85161949939193
 31
-186.7581714702363
100
AcDbText
  0
LINE
  5
9DD
330
415
100
AcDbEntity
  8
LOGO
 62
     4
100
AcDbLine
 10
145.4674242541559
 20
-45.1546870664979
 30
-186.7581714702363
 11
145.4674242541574
 21
-51.55376036966572
 31
-186.7581714702363
  0
LINE
  5
9DE
330
415
100
AcDbEntity
  8
LOGO
 62
     4
100
AcDbLine
 10
145.4674242541559
 20
-45.1546870664979
 30
-186.7581714702363
 11
126.2674242541574
 21
-45.1546870664979
 31
-186.7581714702363
  0
LINE
  5
9DF
330
415
100
AcDbEntity
  8
LOGO
  6
AM_ISO08W050x2
 48
0.3
100
AcDbLine
 10
108.3006187064152
 20
-29.15015997626852
 30
-186.7581714702363
 11
113.422425718367
 21
-29.15015997626852
 31
-186.7581714702363
1001
GENIUS_GENOREF_13
1005
9E4
  0
LINE
  5
9E0
330
415
100
AcDbEntity
  8
LOGO
  6
AM_ISO08W050x2
 48
0.3
100
AcDbLine
 10
110.8615222123911
 20
-31.71106348224439
 30
-186.7581714702363
 11
110.8615222123911
 21
-26.58925647029264
 31
-186.7581714702363
1001
GENIUS_GENOREF_13
1005
9E3
  0
LINE
  5
9E1
330
415
100
AcDbEntity
  8
LOGO
  6
CENTER
 48
0.5
100
AcDbLine
 10
116.2460771464439
 20
-29.15015997626852
 30
-186.7581714702363
 11
123.1221341513098
 21
-29.15015997626852
 31
-186.7581714702363
1001
GENIUS_GENOREF_13
1005
9E2
  0
POINT
  5
9E2
330
415
100
AcDbEntity
  8
0
 60
     1
100
AcDbPoint
 10
-1628.239616058679
 20
-986.3019269039588
 30
-186.7581714702363
1001
GENIUS_GENOBJ-N-CRS_13
1002
{
1000
OWNER
1000
GEN
1002
}
1001
GENIUS_GENOLIS_13
1002
{
1000
ENT
1005
0
1005
0
1005
0
1005
9E1
1002
}
1001
GENIUS_GENOENT_13
1002
{
1000
MYREF
1005
9E2
1002
}
1002
{
1000
GRP
1005
0
1002
}
1001
GENIUS_GENODEF_13
1002
{
1000
HIER
1070
    10
1002
}
1002
{
1000
MANEDIT
1070
     1
1002
}
1002
{
1000
NOSEL
1070
     0
1002
}
1002
{
1000
BEHIND
1070
     0
1002
}
1002
{
1000
OTHER
1070
     0
1002
}
1002
{
1000
REACTOR
1002
}
  0
POINT
  5
9E3
330
415
100
AcDbEntity
  8
0
 60
     1
100
AcDbPoint
 10
-1639.564201281534
 20
-977.4263404253225
 30
-186.7581714702363
1001
GENIUS_GENOBJ-N-CRS_13
1002
{
1000
OWNER
1000
GEN
1002
}
1001
GENIUS_GENOLIS_13
1002
{
1000
ENT
1005
0
1005
0
1005
0
1005
9E0
1002
}
1001
GENIUS_GENOENT_13
1002
{
1000
MYREF
1005
9E3
1002
}
1002
{
1000
GRP
1005
0
1002
}
1001
GENIUS_GENODEF_13
1002
{
1000
HIER
1070
    10
1002
}
1002
{
1000
MANEDIT
1070
     1
1002
}
1002
{
1000
NOSEL
1070
     0
1002
}
1002
{
1000
BEHIND
1070
     0
1002
}
1002
{
1000
OTHER
1070
     0
1002
}
1002
{
1000
REACTOR
1002
}
  0
POINT
  5
9E4
330
415
100
AcDbEntity
  8
0
 60
     1
100
AcDbPoint
 10
-1633.205527583697
 20
-986.3019269039588
 30
-186.7581714702363
1001
GENIUS_GENOBJ-N-CRS_13
1002
{
1000
OWNER
1000
GEN
1002
}
1001
GENIUS_GENOLIS_13
1002
{
1000
ENT
1005
0
1005
0
1005
0
1005
9DF
1002
}
1001
GENIUS_GENOENT_13
1002
{
1000
MYREF
1005
9E4
1002
}
1002
{
1000
GRP
1005
0
1002
}
1001
GENIUS_GENODEF_13
1002
{
1000
HIER
1070
    10
1002
}
1002
{
1000
MANEDIT
1070
     1
1002
}
1002
{
1000
NOSEL
1070
     0
1002
}
1002
{
1000
BEHIND
1070
     0
1002
}
1002
{
1000
OTHER
1070
     0
1002
}
1002
{
1000
REACTOR
1002
}
  0
ENDSEC
  0
SECTION
  2
OBJECTS
  0
DICTIONARY
  5
403
330
0
100
AcDbDictionary
281
     1
  3
ACAD_COLOR
350
7D5
  3
ACAD_GROUP
350
404
  3
ACAD_LAYOUT
350
410
  3
ACAD_MATERIAL
350
7D4
  3
ACAD_MLINESTYLE
350
40D
  3
ACAD_PLOTSETTINGS
350
40F
  3
ACAD_PLOTSTYLENAME
350
405
  3
ACAD_TABLESTYLE
350
7D6
  3
ACDBHEADERROUNDTRIPXREC
350
AB2
  3
AcDbVariableDictionary
350
877
  3
AcmDictionary
350
835
  3
AMG
350
7DE
  3
AMGSNAPSETTINGS
350
879
  0
DICTIONARY
  5
896
330
3F9
100
AcDbDictionary
280
     1
281
     1
  3
ACAD_LAYERSTATES
360
897
  0
DICTIONARY
  5
737
330
415
100
AcDbDictionary
280
     1
281
     1
  3
ACAD_LAYOUTSELFREF
360
7B9
  0
DICTIONARY
  5
739
330
411
100
AcDbDictionary
280
     1
281
     1
  3
ACAD_LAYOUTSELFREF
360
7B8
  0
DICTIONARY
  5
7D5
102
{ACAD_REACTORS
330
403
102
}
330
403
100
AcDbDictionary
281
     1
  0
DICTIONARY
  5
404
102
{ACAD_REACTORS
330
403
102
}
330
403
100
AcDbDictionary
281
     1
  0
DICTIONARY
  5
410
102
{ACAD_REACTORS
330
403
102
}
330
403
100
AcDbDictionary
281
     1
  3
Model
350
418
  3
配置1
350
414
  0
DICTIONARY
  5
7D4
102
{ACAD_REACTORS
330
403
102
}
330
403
100
AcDbDictionary
281
     1
  0
DICTIONARY
  5
40D
102
{ACAD_REACTORS
330
403
102
}
330
403
100
AcDbDictionary
281
     1
  3
Standard
350
40E
  0
DICTIONARY
  5
40F
102
{ACAD_REACTORS
330
403
102
}
330
403
100
AcDbDictionary
281
     1
  0
ACDBDICTIONARYWDFLT
  5
405
102
{ACAD_REACTORS
330
403
102
}
330
403
100
AcDbDictionary
281
     1
  3
Normal
350
406
100
AcDbDictionaryWithDefault
340
406
1001
ACAD
1000
TREAT_AS_HARD
1070
     0
  0
DICTIONARY
  5
7D6
102
{ACAD_REACTORS
330
403
102
}
330
403
100
AcDbDictionary
281
     1
  3
Standard
350
7D7
  0
DICTIONARY
  5
AB2
102
{ACAD_REACTORS
330
403
102
}
330
403
100
AcDbDictionary
281
     1
  0
DICTIONARY
  5
877
102
{ACAD_REACTORS
330
403
102
}
330
403
100
AcDbDictionary
281
     1
  3
CTABLESTYLE
350
878
  3
DIMASSOC
350
AAF
  3
PROJECTNAME
350
AB0
  0
DICTIONARY
  5
835
102
{ACAD_REACTORS
330
403
102
}
330
403
100
AcDbDictionary
281
     1
  3
AcmStdDictionary
350
842
  3
AMDTSECTSYM_ARROWCOLOR
350
861
  0
DICTIONARY
  5
7DE
102
{ACAD_REACTORS
330
403
102
}
330
403
100
AcDbDictionary
281
     1
  0
DICTIONARY
  5
879
102
{ACAD_REACTORS
330
403
102
}
330
403
100
AcDbDictionary
281
     1
  0
DICTIONARY
  5
897
102
{ACAD_REACTORS
330
896
102
}
330
896
100
AcDbDictionary
281
     1
  0
XRECORD
  5
7B9
102
{ACAD_REACTORS
330
737
102
}
330
737
100
AcDbXrecord
280
     1
340
415
  0
XRECORD
  5
7B8
102
{ACAD_REACTORS
330
739
102
}
330
739
100
AcDbXrecord
280
     1
340
411
  0
LAYOUT
  5
418
102
{ACAD_XDICTIONARY
360
AB5
102
}
102
{ACAD_REACTORS
330
410
102
}
330
410
100
AcDbPlotSettings
  1

  2
DWF Classic.pc3
  4
ISO_expand_A3_(420.00_x_297.00_MM)
  6

 40
5.793749809265136
 41
10.79374980926513
 42
5.79376220703125
 43
10.79376220703125
 44
420.0
 45
297.0
 46
58.59
 47
0.0
 48
0.0
 49
0.0
140
0.0
141
0.0
142
1.0
143
1.184855108870991
 70
 11956
 72
     1
 73
     0
 74
     1
  7
彩色出圖.ctb
 75
     0
147
0.8439850514320406
148
-27.44411286440004
149
50.16622840260049
100
AcDbLayout
  1
Model
 70
     1
 71
     0
 10
0.0
 20
0.0
 11
12.0
 21
9.0
 12
0.0
 22
0.0
 32
0.0
 14
0.0
 24
0.0
 34
0.0
 15
0.0
 25
0.0
 35
0.0
146
0.0
 13
0.0
 23
0.0
 33
0.0
 16
1.0
 26
0.0
 36
0.0
 17
0.0
 27
1.0
 37
0.0
 76
     0
330
415
  0
LAYOUT
  5
414
102
{ACAD_XDICTIONARY
360
AB3
102
}
102
{ACAD_REACTORS
330
410
102
}
330
410
100
AcDbPlotSettings
  1

  2
\\WINNT\EPSON Stylus Photo 750 單色
  4

  6

 40
0.0
 41
0.0
 42
0.0
 43
0.0
 44
0.0
 45
0.0
 46
0.0
 47
0.0
 48
0.0
 49
0.0
140
0.0
141
0.0
142
1.0
143
1.0
 70
   688
 72
     0
 73
     0
 74
     5
  7
彩色出圖.ctb
 75
    16
147
1.0
148
0.0
149
0.0
100
AcDbLayout
  1
配置1
 70
     1
 71
     1
 10
0.0
 20
0.0
 11
420.0
 21
297.0
 12
0.0
 22
0.0
 32
0.0
 14
-45.84836713884698
 24
-50.15486206985361
 34
0.0
 15
466.8860356860839
 25
322.3255469458355
 35
196.6150577887138
146
0.0
 13
0.0
 23
0.0
 33
0.0
 16
1.0
 26
0.0
 36
0.0
 17
0.0
 27
1.0
 37
0.0
 76
     0
330
411
  0
MLINESTYLE
  5
40E
102
{ACAD_REACTORS
330
40D
102
}
330
40D
100
AcDbMlineStyle
  2
STANDARD
 70
     0
  3

 62
   256
 51
90.0
 52
90.0
 71
     2
 49
0.5
 62
   256
  6
BYLAYER
 49
-0.5
 62
   256
  6
BYLAYER
  0
ACDBPLACEHOLDER
  5
406
102
{ACAD_REACTORS
330
405
102
}
330
405
  0
TABLESTYLE
  5
7D7
102
{ACAD_REACTORS
330
7D6
102
}
330
7D6
100
AcDbTableStyle
  3
Standard
 70
     0
 71
     0
 40
0.06
 41
0.06
280
     0
281
     0
  7
STANDARD
140
0.18
170
     2
 62
     0
 63
     7
283
     0
274
    -2
284
     1
 64
     0
275
    -2
285
     1
 65
     0
276
    -2
286
     1
 66
     0
277
    -2
287
     1
 67
     0
278
    -2
288
     1
 68
     0
279
    -2
289
     1
 69
     0
  7
STANDARD
140
0.25
170
     5
 62
     0
 63
     7
283
     0
274
    -2
284
     1
 64
     0
275
    -2
285
     1
 65
     0
276
    -2
286
     1
 66
     0
277
    -2
287
     1
 67
     0
278
    -2
288
     1
 68
     0
279
    -2
289
     1
 69
     0
  7
STANDARD
140
0.18
170
     5
 62
     0
 63
     7
283
     0
274
    -2
284
     1
 64
     0
275
    -2
285
     1
 65
     0
276
    -2
286
     1
 66
     0
277
    -2
287
     1
 67
     0
278
    -2
288
     1
 68
     0
279
    -2
289
     1
 69
     0
  0
DICTIONARYVAR
  5
878
102
{ACAD_REACTORS
330
877
102
}
330
877
100
DictionaryVariables
280
     0
  1
STANDARD
  0
DICTIONARYVAR
  5
AAF
102
{ACAD_REACTORS
330
877
102
}
330
877
100
DictionaryVariables
280
     0
  1
1
  0
DICTIONARYVAR
  5
AB0
102
{ACAD_REACTORS
330
877
102
}
330
877
100
DictionaryVariables
280
     0
  1

  0
DICTIONARY
  5
842
102
{ACAD_REACTORS
330
835
102
}
330
835
100
AcDbDictionary
281
     1
  0
XRECORD
  5
861
102
{ACAD_REACTORS
330
835
102
}
330
835
100
AcDbXrecord
280
     1
 90
-1023410169
  0
DICTIONARY
  5
AB5
330
418
100
AcDbDictionary
280
     1
281
     1
  3
ACAD_XREC_ROUNDTRIP
360
AB6
  0
DICTIONARY
  5
AB3
330
414
100
AcDbDictionary
280
     1
281
     1
  3
ACAD_XREC_ROUNDTRIP
360
AB4
  0
XRECORD
  5
AB6
102
{ACAD_REACTORS
330
AB5
102
}
330
AB5
100
AcDbXrecord
280
     1
102
SHADEPLOT
 70
     0
102
SHADEPLOTRESLEVEL
 70
     2
102
SHADEPLOTCUSTOMDPI
 70
   300
  0
XRECORD
  5
AB4
102
{ACAD_REACTORS
330
AB3
102
}
330
AB3
100
AcDbXrecord
280
     1
102
SHADEPLOT
 70
     0
102
SHADEPLOTRESLEVEL
 70
     2
102
SHADEPLOTCUSTOMDPI
 70
   300
  0
ENDSEC
  0
EOF
