  0
SECTION
  2
HEADER
  9
$ACADVER
  1
AC1009
  9
$INSBASE
 10
0.0
 20
0.0
 30
0.0
  9
$EXTMIN
 10
-21.806534123990101
 20
-219.9116109563424
 30
-0.0300144626564816
  9
$EXTMAX
 10
422.7939335678891
 20
249.65311220157301
 30
987.6712337325265
  9
$LIMMIN
 10
0.0
 20
0.0
  9
$LIMMAX
 10
420.0
 20
297.0
  9
$ORTHOMODE
 70
     1
  9
$REGENMODE
 70
     1
  9
$FILLMODE
 70
     1
  9
$QTEXTMODE
 70
     0
  9
$MIRRTEXT
 70
     1
  9
$DRAGMODE
 70
     2
  9
$LTSCALE
 40
6.0
  9
$OSMODE
 70
    39
  9
$ATTMODE
 70
     1
  9
$TEXTSIZE
 40
2.5
  9
$TRACEWID
 40
1.0
  9
$TEXTSTYLE
  7
DAYUS
  9
$CLAYER
  8
DIM
  9
$CELTYPE
  6
BYLAYER
  9
$CECOLOR
 62
   256
  9
$DIMSCALE
 40
1.0
  9
$DIMASZ
 40
3.0
  9
$DIMEXO
 40
0.8
  9
$DIMDLI
 40
2.0
  9
$DIMRND
 40
0.0
  9
$DIMDLE
 40
0.0
  9
$DIMEXE
 40
1.1999999999999991
  9
$DIMTP
 40
0.0
  9
$DIMTM
 40
0.0
  9
$DIMTXT
 40
3.0
  9
$DIMCEN
 40
3.0
  9
$DIMTSZ
 40
0.0
  9
$DIMTOL
 70
     0
  9
$DIMLIM
 70
     0
  9
$DIMTIH
 70
     0
  9
$DIMTOH
 70
     0
  9
$DIMSE1
 70
     0
  9
$DIMSE2
 70
     0
  9
$DIMTAD
 70
     1
  9
$DIMZIN
 70
     8
  9
$DIMBLK
  1

  9
$DIMASO
 70
     1
  9
$DIMSHO
 70
     1
  9
$DIMPOST
  1

  9
$DIMAPOST
  1

  9
$DIMALT
 70
     0
  9
$DIMALTD
 70
     4
  9
$DIMALTF
 40
0.0394
  9
$DIMLFAC
 40
1.0
  9
$DIMTOFL
 70
     1
  9
$DIMTVP
 40
0.0
  9
$DIMTIX
 70
     0
  9
$DIMSOXD
 70
     0
  9
$DIMSAH
 70
     0
  9
$DIMBLK1
  1

  9
$DIMBLK2
  1

  9
$DIMSTYLE
  2
STANDARD
  9
$DIMCLRD
 70
     0
  9
$DIMCLRE
 70
     0
  9
$DIMCLRT
 70
     0
  9
$DIMTFAC
 40
1.0
  9
$DIMGAP
 40
0.8
  9
$LUNITS
 70
     2
  9
$LUPREC
 70
     4
  9
$SKETCHINC
 40
1.0
  9
$FILLETRAD
 40
10.0
  9
$AUNITS
 70
     0
  9
$AUPREC
 70
     0
  9
$MENU
  1
.
  9
$ELEVATION
 40
-191.3981262372088
  9
$PELEVATION
 40
0.0
  9
$THICKNESS
 40
0.0
  9
$LIMCHECK
 70
     0
  9
$BLIPMODE
 70
     0
  9
$CHAMFERA
 40
10.0
  9
$CHAMFERB
 40
10.0
  9
$SKPOLY
 70
     0
  9
$TDCREATE
 40
2451081.6428860989
  9
$TDUPDATE
 40
2451895.49851368
  9
$TDINDWG
 40
0.2186980556
  9
$TDUSRTIMER
 40
0.2186980556
  9
$USRTIMER
 70
     1
  9
$ANGBASE
 50
0.0
  9
$ANGDIR
 70
     0
  9
$PDMODE
 70
     0
  9
$PDSIZE
 40
0.0
  9
$PLINEWID
 40
0.0
  9
$COORDS
 70
     2
  9
$SPLFRAME
 70
     0
  9
$SPLINETYPE
 70
     6
  9
$SPLINESEGS
 70
     8
  9
$ATTDIA
 70
     0
  9
$ATTREQ
 70
     1
  9
$HANDLING
 70
 12289
  9
$HANDSEED
  5
80C
  9
$SURFTAB1
 70
     6
  9
$SURFTAB2
 70
     6
  9
$SURFTYPE
 70
     6
  9
$SURFU
 70
     6
  9
$SURFV
 70
     6
  9
$UCSNAME
  2

  9
$UCSORG
 10
0.0
 20
0.0
 30
0.0
  9
$UCSXDIR
 10
1.0
 20
0.0
 30
0.0
  9
$UCSYDIR
 10
0.0
 20
1.0
 30
0.0
  9
$PUCSNAME
  2

  9
$PUCSORG
 10
0.0
 20
0.0
 30
0.0
  9
$PUCSXDIR
 10
1.0
 20
0.0
 30
0.0
  9
$PUCSYDIR
 10
0.0
 20
1.0
 30
0.0
  9
$USERI1
 70
     0
  9
$USERI2
 70
     0
  9
$USERI3
 70
     0
  9
$USERI4
 70
     0
  9
$USERI5
 70
     0
  9
$USERR1
 40
0.0
  9
$USERR2
 40
0.0
  9
$USERR3
 40
0.0
  9
$USERR4
 40
0.0
  9
$USERR5
 40
0.0
  9
$WORLDVIEW
 70
     1
  9
$SHADEDGE
 70
     3
  9
$SHADEDIF
 70
    70
  9
$TILEMODE
 70
     1
  9
$MAXACTVP
 70
    48
  9
$PLIMCHECK
 70
     0
  9
$PEXTMIN
 10
-55.858184927744048
 20
-125.5730221711288
 30
-0.0059997576134947
  9
$PEXTMAX
 10
457.79770740617931
 20
249.6482211702467
 30
196.62105846188749
  9
$PLIMMIN
 10
0.0
 20
0.0
  9
$PLIMMAX
 10
420.0
 20
297.0
  9
$UNITMODE
 70
     0
  9
$VISRETAIN
 70
     1
  9
$PLINEGEN
 70
     0
  9
$PSLTSCALE
 70
     1
  0
ENDSEC
  0
SECTION
  2
TABLES
  0
TABLE
  2
VPORT
 70
     2
  0
VPORT
  2
*ACTIVE
 70
     0
 10
0.0
 20
0.0
 11
1.0
 21
1.0
 12
58.586045014736889
 22
-176.5273756145935
 13
0.0
 23
0.0
 14
10.0
 24
10.0
 15
10.0
 25
10.0
 16
0.0
 26
0.0
 36
1.0
 17
141.9076547072126
 27
191.3981262372088
 37
11.00852108687355
 40
474.74374583980432
 41
1.7274401473296499
 42
50.0
 43
0.0
 44
0.0
 50
0.0
 51
0.0
 71
     0
 72
   100
 73
     1
 74
     1
 75
     0
 76
     0
 77
     0
 78
     0
  0
ENDTAB
  0
TABLE
  2
LTYPE
 70
     2
  0
LTYPE
  2
CONTINUOUS
 70
     0
  3
Solid line
 72
    65
 73
     0
 40
0.0
  0
LTYPE
  2
CENTER
 70
     0
  3
____ _ ____ _ ____ _ ____ _ ____ _ ____ _ ____ 
 72
    65
 73
     4
 40
2.0
 49
1.25
 49
-0.25
 49
0.25
 49
-0.25
  0
ENDTAB
  0
TABLE
  2
LAYER
 70
     8
  0
LAYER
  2
0
 70
     0
 62
     7
  6
CONTINUOUS
  0
LAYER
  2
DEFPOINTS
 70
     0
 62
    -7
  6
CONTINUOUS
  0
LAYER
  2
DIM
 70
     0
 62
     5
  6
CONTINUOUS
  0
LAYER
  2
CENTER
 70
     0
 62
     1
  6
CENTER
  0
LAYER
  2
LOGO
 70
     0
 62
     7
  6
CONTINUOUS
  0
ENDTAB
  0
TABLE
  2
STYLE
 70
     4
  0
STYLE
  2
STANDARD
 70
     0
 40
0.0
 41
1.0
 50
0.0
 71
     0
 42
2.5
  3
txt
  4

  0
STYLE
  2
DAYUS
 70
     0
 40
0.0
 41
1.0
 50
0.0
 71
     0
 42
2.5
  3
txt.shx
  4
dayus.shx
  0
STYLE
  2
CHINESET
 70
     0
 40
0.0
 41
1.0
 50
0.0
 71
     0
 42
5.0
  3
simplex.shx
  4
chineset.shx
  0
STYLE
  2
LOGO
 70
     0
 40
0.0
 41
1.0
 50
0.0
 71
     0
 42
5.0
  3
txt
  4

  0
ENDTAB
  0
TABLE
  2
VIEW
 70
     0
  0
ENDTAB
  0
TABLE
  2
UCS
 70
     0
  0
ENDTAB
  0
TABLE
  2
APPID
 70
     1
  0
APPID
  2
ACAD
 70
     0
  0
ENDTAB
  0
TABLE
  2
DIMSTYLE
 70
     1
  0
DIMSTYLE
  2
STANDARD
 70
     0
  3

  4

  5

  6

  7

 40
1.0
 41
3.0
 42
0.8
 43
2.0
 44
1.1999999999999991
 45
0.0
 46
0.0
 47
0.0
 48
0.0
140
3.0
141
3.0
142
0.0
143
0.0394
144
1.0
145
0.0
146
1.0
147
0.8
 71
     0
 72
     0
 73
     0
 74
     0
 75
     0
 76
     0
 77
     1
 78
     8
170
     0
171
     4
172
     1
173
     0
174
     0
175
     0
176
     0
177
     0
178
     0
  0
ENDTAB
  0
ENDSEC
  0
SECTION
  2
BLOCKS
  0
BLOCK
  8
0
  2
$MODEL_SPACE
 70
     0
 10
0.0
 20
0.0
 30
0.0
  3
$MODEL_SPACE
  1

  0
ENDBLK
  5
580
  8
0
  0
BLOCK
 67
     1
  8
0
  2
$PAPER_SPACE
 70
     0
 10
0.0
 20
0.0
 30
0.0
  3
$PAPER_SPACE
  1

  0
ENDBLK
  5
57E
 67
     1
  8
0
  0
BLOCK
  8
0
  2
*D24
 70
     1
 10
0.0
 20
0.0
 30
0.0
  3
*D24
  1

  0
LINE
  5
1EA
  8
0
  6
BYBLOCK
 62
     0
 10
182.6398180202653
 20
68.823266512816005
 30
0.0
 11
141.7694556003494
 21
68.823266512816005
 31
0.0
  0
LINE
  5
1EB
  8
0
  6
BYBLOCK
 62
     0
 10
149.79820918653871
 20
49.823266627306367
 30
0.0
 11
141.7694556003494
 21
49.823266627306367
 31
0.0
  0
LINE
  5
1EC
  8
0
  6
BYBLOCK
 62
     0
 10
142.96945560034939
 20
65.823266512816019
 30
0.0
 11
142.96945560034939
 21
52.823266627306367
 31
0.0
  0
SOLID
  5
1ED
  8
0
  6
BYBLOCK
 62
     0
 10
142.46945560034939
 20
65.823266512816019
 30
0.0
 11
143.46945560034939
 21
65.823266512816019
 31
0.0
 12
142.96945560034939
 22
68.823266512816005
 32
0.0
 13
142.96945560034939
 23
68.823266512816005
 33
0.0
  0
SOLID
  5
1EE
  8
0
  6
BYBLOCK
 62
     0
 10
142.46945560034939
 20
52.823266627306367
 30
0.0
 11
143.46945560034939
 21
52.823266627306367
 31
0.0
 12
142.96945560034939
 22
49.823266627306367
 32
0.0
 13
142.96945560034939
 23
49.823266627306367
 33
0.0
  0
TEXT
  5
1EF
  8
0
  6
BYBLOCK
 62
     0
 10
142.16945560034941
 20
57.3232665700612
 30
0.0
 40
3.0
  1
19
 50
90.0
  7
DAYUS
  0
POINT
  5
1F0
  8
DEFPOINTS
  6
BYBLOCK
 62
     0
 10
183.43981802026531
 20
68.823266512816005
 30
0.0
  0
POINT
  5
1F1
  8
DEFPOINTS
  6
BYBLOCK
 62
     0
 10
150.5982091865387
 20
49.823266627306367
 30
0.0
  0
POINT
  5
1F2
  8
DEFPOINTS
  6
BYBLOCK
 62
     0
 10
142.96945560034939
 20
49.823266627306367
 30
0.0
  0
ENDBLK
  5
1F4
  8
0
  0
BLOCK
  8
0
  2
*D25
 70
     1
 10
0.0
 20
0.0
 30
0.0
  3
*D25
  1

  0
LINE
  5
1F7
  8
0
  6
BYBLOCK
 62
     0
 10
149.79820918653871
 20
49.823266627306367
 30
0.0
 11
141.7694556003494
 21
49.823266627306367
 31
0.0
  0
LINE
  5
1F8
  8
0
  6
BYBLOCK
 62
     0
 10
167.21464879853821
 20
38.323266627306282
 30
0.0
 11
141.7694556003494
 21
38.323266627306282
 31
0.0
  0
LINE
  5
1F9
  8
0
  6
BYBLOCK
 62
     0
 10
142.96945560034939
 20
46.823266627306367
 30
0.0
 11
142.96945560034939
 21
41.323266627306282
 31
0.0
  0
SOLID
  5
1FA
  8
0
  6
BYBLOCK
 62
     0
 10
142.46945560034939
 20
46.823266627306367
 30
0.0
 11
143.46945560034939
 21
46.823266627306367
 31
0.0
 12
142.96945560034939
 22
49.823266627306367
 32
0.0
 13
142.96945560034939
 23
49.823266627306367
 33
0.0
  0
SOLID
  5
1FB
  8
0
  6
BYBLOCK
 62
     0
 10
142.46945560034939
 20
41.323266627306282
 30
0.0
 11
143.46945560034939
 21
41.323266627306282
 31
0.0
 12
142.96945560034939
 22
38.323266627306282
 32
0.0
 13
142.96945560034939
 23
38.323266627306282
 33
0.0
  0
TEXT
  5
1FC
  8
0
  6
BYBLOCK
 62
     0
 10
142.16945560034941
 20
40.573266627306332
 30
0.0
 40
3.0
  1
11.5
 50
90.0
  7
DAYUS
  0
POINT
  5
1FD
  8
DEFPOINTS
  6
BYBLOCK
 62
     0
 10
150.5982091865387
 20
49.823266627306367
 30
0.0
  0
POINT
  5
1FE
  8
DEFPOINTS
  6
BYBLOCK
 62
     0
 10
168.01464879853819
 20
38.323266627306282
 30
0.0
  0
POINT
  5
1FF
  8
DEFPOINTS
  6
BYBLOCK
 62
     0
 10
142.96945560034939
 20
38.323266627306282
 30
0.0
  0
ENDBLK
  5
201
  8
0
  0
BLOCK
  8
0
  2
*D26
 70
     1
 10
0.0
 20
0.0
 30
0.0
  3
*D26
  1

  0
LINE
  5
585
  8
DIM
 62
     0
 10
35.698636853705601
 20
207.47390920945369
 30
0.0
 11
35.698636853705601
 21
218.13515474603591
 31
0.0
  0
LINE
  5
586
  8
DIM
 62
     0
 10
71.698636853705608
 20
207.47390920945369
 30
0.0
 11
71.698636853705608
 21
218.13515474603591
 31
0.0
  0
LINE
  5
587
  8
DIM
 62
     0
 10
38.698636853705601
 20
216.93515474603589
 30
0.0
 11
68.698636853705594
 21
216.93515474603589
 31
0.0
  0
SOLID
  5
588
  8
DIM
 62
     0
 10
38.698636853705601
 20
217.43515474603601
 30
0.0
 11
38.698636853705601
 21
216.43515474603601
 31
0.0
 12
35.698636853705601
 22
216.93515474603589
 32
0.0
 13
35.698636853705601
 23
216.93515474603589
 33
0.0
  0
SOLID
  5
589
  8
DIM
 62
     0
 10
68.698636853705594
 20
217.43515474603601
 30
0.0
 11
68.698636853705594
 21
216.43515474603601
 31
0.0
 12
71.698636853705608
 22
216.93515474603589
 32
0.0
 13
71.698636853705608
 23
216.93515474603589
 33
0.0
  0
TEXT
  5
58A
  8
DIM
 62
     0
 10
51.198636853705601
 20
217.73515474603599
 30
0.0
 40
3.0
  1
36
  0
POINT
  5
58B
  8
DEFPOINTS
 62
     0
 10
35.698636853705601
 20
206.67390920945371
 30
0.0
  0
POINT
  5
58C
  8
DEFPOINTS
 62
     0
 10
71.698636853705608
 20
206.67390920945371
 30
0.0
  0
POINT
  5
58D
  8
DEFPOINTS
 62
     0
 10
71.698636853705608
 20
216.93515474603589
 30
0.0
  0
ENDBLK
  5
58F
  8
0
  0
BLOCK
  8
0
  2
*D27
 70
     1
 10
0.0
 20
0.0
 30
0.0
  3
*D27
  1

  0
LINE
  5
591
  8
DIM
 62
     0
 10
34.69863685370558
 20
207.47390920945369
 30
0.0
 11
34.69863685370558
 21
224.7495558753466
 31
0.0
  0
LINE
  5
592
  8
DIM
 62
     0
 10
72.69863685370558
 20
207.47390920945369
 30
0.0
 11
72.69863685370558
 21
224.7495558753466
 31
0.0
  0
LINE
  5
593
  8
DIM
 62
     0
 10
37.69863685370558
 20
223.54955587534661
 30
0.0
 11
69.69863685370558
 21
223.54955587534661
 31
0.0
  0
SOLID
  5
594
  8
DIM
 62
     0
 10
37.69863685370558
 20
224.04955587534661
 30
0.0
 11
37.69863685370558
 21
223.04955587534661
 31
0.0
 12
34.69863685370558
 22
223.54955587534661
 32
0.0
 13
34.69863685370558
 23
223.54955587534661
 33
0.0
  0
SOLID
  5
595
  8
DIM
 62
     0
 10
69.69863685370558
 20
224.04955587534661
 30
0.0
 11
69.69863685370558
 21
223.04955587534661
 31
0.0
 12
72.69863685370558
 22
223.54955587534661
 32
0.0
 13
72.69863685370558
 23
223.54955587534661
 33
0.0
  0
TEXT
  5
596
  8
DIM
 62
     0
 10
51.19863685370558
 20
224.3495558753466
 30
0.0
 40
3.0
  1
38
  0
POINT
  5
597
  8
DEFPOINTS
 62
     0
 10
34.69863685370558
 20
206.67390920945371
 30
0.0
  0
POINT
  5
598
  8
DEFPOINTS
 62
     0
 10
72.69863685370558
 20
206.67390920945371
 30
0.0
  0
POINT
  5
599
  8
DEFPOINTS
 62
     0
 10
72.69863685370558
 20
223.54955587534661
 30
0.0
  0
ENDBLK
  5
59B
  8
0
  0
BLOCK
  8
0
  2
*D28
 70
     1
 10
0.0
 20
0.0
 30
0.0
  3
*D28
  1

  0
LINE
  5
59D
  8
DIM
 62
     0
 10
35.698636853705601
 20
207.47390920945369
 30
0.0
 11
35.698636853705601
 21
218.13515474603591
 31
0.0
  0
LINE
  5
59E
  8
DIM
 62
     0
 10
34.69863685370558
 20
207.47390920945369
 30
0.0
 11
34.69863685370558
 21
218.13515474603591
 31
0.0
  0
LINE
  5
59F
  8
DIM
 62
     0
 10
38.698636853705601
 20
216.93515474603589
 30
0.0
 11
41.698636853705601
 21
216.93515474603589
 31
0.0
  0
LINE
  5
5A0
  8
DIM
 62
     0
 10
31.698636853705569
 20
216.93515474603589
 30
0.0
 11
28.69863685370558
 21
216.93515474603589
 31
0.0
  0
TEXT
  5
5A1
  8
DIM
 62
     0
 10
34.698636853705587
 20
219.3351547460359
 30
0.0
 40
3.0
  1
1
  0
LINE
  5
5A2
  8
DIM
 62
     0
 10
35.698636853705601
 20
216.93515474603589
 30
0.0
 11
34.69863685370558
 21
216.93515474603589
 31
0.0
  0
SOLID
  5
5A3
  8
DIM
 62
     0
 10
38.698636853705601
 20
217.43515474603601
 30
0.0
 11
38.698636853705601
 21
216.43515474603601
 31
0.0
 12
35.698636853705601
 22
216.93515474603589
 32
0.0
 13
35.698636853705601
 23
216.93515474603589
 33
0.0
  0
SOLID
  5
5A4
  8
DIM
 62
     0
 10
31.698636853705569
 20
217.43515474603601
 30
0.0
 11
31.698636853705569
 21
216.43515474603601
 31
0.0
 12
34.69863685370558
 22
216.93515474603589
 32
0.0
 13
34.69863685370558
 23
216.93515474603589
 33
0.0
  0
POINT
  5
5A5
  8
DEFPOINTS
 62
     0
 10
35.698636853705601
 20
206.67390920945371
 30
0.0
  0
POINT
  5
5A6
  8
DEFPOINTS
 62
     0
 10
34.69863685370558
 20
206.67390920945371
 30
0.0
  0
POINT
  5
5A7
  8
DEFPOINTS
 62
     0
 10
34.69863685370558
 20
216.93515474603589
 30
0.0
  0
ENDBLK
  5
5A9
  8
0
  0
BLOCK
  8
0
  2
*D29
 70
     1
 10
0.0
 20
0.0
 30
0.0
  3
*D29
  1

  0
LINE
  5
5AB
  8
DIM
 62
     0
 10
34.898636853705611
 20
207.67390920945371
 30
0.0
 11
25.437420829990561
 21
207.67390920945371
 31
0.0
  0
LINE
  5
5AC
  8
DIM
 62
     0
 10
34.898636853705611
 20
206.67390920945371
 30
0.0
 11
25.437420829990561
 21
206.67390920945371
 31
0.0
  0
LINE
  5
5AD
  8
DIM
 62
     0
 10
26.63742082999056
 20
210.67390920945371
 30
0.0
 11
26.63742082999056
 21
213.67390920945371
 31
0.0
  0
LINE
  5
5AE
  8
DIM
 62
     0
 10
26.63742082999056
 20
203.67390920945371
 30
0.0
 11
26.63742082999056
 21
200.67390920945371
 31
0.0
  0
TEXT
  5
5AF
  8
DIM
 62
     0
 10
24.23742082999053
 20
206.67390920945371
 30
0.0
 40
3.0
  1
1
 50
90.0
  0
LINE
  5
5B0
  8
DIM
 62
     0
 10
26.63742082999056
 20
207.67390920945371
 30
0.0
 11
26.63742082999056
 21
206.67390920945371
 31
0.0
  0
SOLID
  5
5B1
  8
DIM
 62
     0
 10
26.13742082999056
 20
210.67390920945371
 30
0.0
 11
27.13742082999056
 21
210.67390920945371
 31
0.0
 12
26.63742082999056
 22
207.67390920945371
 32
0.0
 13
26.63742082999056
 23
207.67390920945371
 33
0.0
  0
SOLID
  5
5B2
  8
DIM
 62
     0
 10
26.13742082999056
 20
203.67390920945371
 30
0.0
 11
27.13742082999056
 21
203.67390920945371
 31
0.0
 12
26.63742082999056
 22
206.67390920945371
 32
0.0
 13
26.63742082999056
 23
206.67390920945371
 33
0.0
  0
POINT
  5
5B3
  8
DEFPOINTS
 62
     0
 10
35.698636853705601
 20
207.67390920945371
 30
0.0
  0
POINT
  5
5B4
  8
DEFPOINTS
 62
     0
 10
35.698636853705601
 20
206.67390920945371
 30
0.0
  0
POINT
  5
5B5
  8
DEFPOINTS
 62
     0
 10
26.63742082999056
 20
206.67390920945371
 30
0.0
  0
ENDBLK
  5
5B7
  8
0
  0
BLOCK
  8
0
  2
*D30
 70
     1
 10
0.0
 20
0.0
 30
0.0
  3
*D30
  1

  0
LINE
  5
5B9
  8
DIM
 62
     0
 10
34.898636853705611
 20
207.67390920945371
 30
0.0
 11
17.764756070605308
 21
207.67390920945371
 31
0.0
  0
LINE
  5
5BA
  8
DIM
 62
     0
 10
34.898636853705582
 20
109.6739092094537
 30
0.0
 11
17.764756070605291
 21
109.6739092094537
 31
0.0
  0
LINE
  5
5BB
  8
DIM
 62
     0
 10
18.964756070605311
 20
204.67390920945371
 30
0.0
 11
18.96475607060529
 21
112.6739092094537
 31
0.0
  0
SOLID
  5
5BC
  8
DIM
 62
     0
 10
18.464756070605311
 20
204.67390920945371
 30
0.0
 11
19.464756070605311
 21
204.67390920945371
 31
0.0
 12
18.964756070605311
 22
207.67390920945371
 32
0.0
 13
18.964756070605311
 23
207.67390920945371
 33
0.0
  0
SOLID
  5
5BD
  8
DIM
 62
     0
 10
18.46475607060529
 20
112.6739092094537
 30
0.0
 11
19.46475607060529
 21
112.6739092094537
 31
0.0
 12
18.96475607060529
 22
109.6739092094537
 32
0.0
 13
18.96475607060529
 23
109.6739092094537
 33
0.0
  0
TEXT
  5
5BE
  8
DIM
 62
     0
 10
18.164756070605272
 20
156.17390920945371
 30
0.0
 40
3.0
  1
98
 50
90.0
  0
POINT
  5
5BF
  8
DEFPOINTS
 62
     0
 10
35.698636853705601
 20
207.67390920945371
 30
0.0
  0
POINT
  5
5C0
  8
DEFPOINTS
 62
     0
 10
35.69863685370558
 20
109.6739092094537
 30
0.0
  0
POINT
  5
5C1
  8
DEFPOINTS
 62
     0
 10
18.96475607060529
 20
109.6739092094537
 30
0.0
  0
ENDBLK
  5
5C3
  8
0
  0
BLOCK
  8
0
  2
*D31
 70
     1
 10
0.0
 20
0.0
 30
0.0
  3
*D31
  1

  0
LINE
  5
5C5
  8
DIM
 62
     0
 10
54.498636853705598
 20
121.1739092094537
 30
0.0
 11
83.951599651497816
 21
121.1739092094537
 31
0.0
  0
LINE
  5
5C6
  8
DIM
 62
     0
 10
54.498636853705598
 20
196.17390920945371
 30
0.0
 11
83.95159965149783
 21
196.17390920945371
 31
0.0
  0
LINE
  5
5C7
  8
DIM
 62
     0
 10
82.751599651497799
 20
124.1739092094537
 30
0.0
 11
82.751599651497827
 21
193.17390920945371
 31
0.0
  0
SOLID
  5
5C8
  8
DIM
 62
     0
 10
82.251599651497813
 20
124.1739092094537
 30
0.0
 11
83.251599651497813
 21
124.1739092094537
 31
0.0
 12
82.751599651497799
 22
121.1739092094537
 32
0.0
 13
82.751599651497799
 23
121.1739092094537
 33
0.0
  0
SOLID
  5
5C9
  8
DIM
 62
     0
 10
82.251599651497827
 20
193.17390920945371
 30
0.0
 11
83.251599651497827
 21
193.17390920945371
 31
0.0
 12
82.751599651497827
 22
196.17390920945371
 32
0.0
 13
82.751599651497827
 23
196.17390920945371
 33
0.0
  0
INSERT
  5
5CA
  8
DIM
  2
*U50
 10
0.0
 20
0.0
 30
0.0
  0
POINT
  5
5CB
  8
DEFPOINTS
 62
     0
 10
53.698636853705601
 20
121.1739092094537
 30
0.0
  0
POINT
  5
5CC
  8
DEFPOINTS
 62
     0
 10
53.698636853705601
 20
196.17390920945371
 30
0.0
  0
POINT
  5
5CD
  8
DEFPOINTS
 62
     0
 10
82.751599651497827
 20
196.17390920945371
 30
0.0
  0
ENDBLK
  5
5CF
  8
0
  0
BLOCK
  8
0
  2
*D32
 70
     1
 10
0.0
 20
0.0
 30
0.0
  3
*D32
  1

  0
LINE
  5
5D1
  8
DIM
 62
     0
 10
71.698636853705608
 20
109.8739092094537
 30
0.0
 11
71.698636853705608
 21
96.749679180106384
 31
0.0
  0
LINE
  5
5D2
  8
DIM
 62
     0
 10
53.698636853705601
 20
120.3739092094537
 30
0.0
 11
53.698636853705601
 21
96.749679180106384
 31
0.0
  0
LINE
  5
5D3
  8
DIM
 62
     0
 10
68.698636853705594
 20
97.949679180106386
 30
0.0
 11
56.698636853705608
 21
97.949679180106386
 31
0.0
  0
SOLID
  5
5D4
  8
DIM
 62
     0
 10
68.698636853705594
 20
98.449679180106386
 30
0.0
 11
68.698636853705594
 21
97.449679180106386
 31
0.0
 12
71.698636853705608
 22
97.949679180106386
 32
0.0
 13
71.698636853705608
 23
97.949679180106386
 33
0.0
  0
SOLID
  5
5D5
  8
DIM
 62
     0
 10
56.698636853705608
 20
98.449679180106386
 30
0.0
 11
56.698636853705608
 21
97.449679180106386
 31
0.0
 12
53.698636853705601
 22
97.949679180106386
 32
0.0
 13
53.698636853705601
 23
97.949679180106386
 33
0.0
  0
TEXT
  5
5D6
  8
DIM
 62
     0
 10
60.698636853705601
 20
98.749679180106384
 30
0.0
 40
3.0
  1
18
  0
POINT
  5
5D7
  8
DEFPOINTS
 62
     0
 10
71.698636853705608
 20
110.6739092094537
 30
0.0
  0
POINT
  5
5D8
  8
DEFPOINTS
 62
     0
 10
53.698636853705601
 20
121.1739092094537
 30
0.0
  0
POINT
  5
5D9
  8
DEFPOINTS
 62
     0
 10
53.698636853705601
 20
97.949679180106386
 30
0.0
  0
ENDBLK
  5
5DB
  8
0
  0
BLOCK
  8
0
  2
*D33
 70
     1
 10
0.0
 20
0.0
 30
0.0
  3
*D33
  1

  0
LINE
  5
5DD
  8
DIM
 62
     0
 10
161.43981742063011
 20
196.97390920945369
 30
0.0
 11
161.43981742063011
 21
218.13515474603591
 31
0.0
  0
LINE
  5
5DE
  8
DIM
 62
     0
 10
153.43981742063011
 20
207.47390920945369
 30
0.0
 11
153.43981742063011
 21
218.13515474603591
 31
0.0
  0
LINE
  5
5DF
  8
DIM
 62
     0
 10
158.43981742063011
 20
216.93515474603589
 30
0.0
 11
156.43981742063011
 21
216.93515474603589
 31
0.0
  0
SOLID
  5
5E0
  8
DIM
 62
     0
 10
158.43981742063011
 20
217.43515474603601
 30
0.0
 11
158.43981742063011
 21
216.43515474603601
 31
0.0
 12
161.43981742063011
 22
216.93515474603589
 32
0.0
 13
161.43981742063011
 23
216.93515474603589
 33
0.0
  0
SOLID
  5
5E1
  8
DIM
 62
     0
 10
156.43981742063011
 20
217.43515474603601
 30
0.0
 11
156.43981742063011
 21
216.43515474603601
 31
0.0
 12
153.43981742063011
 22
216.93515474603589
 32
0.0
 13
153.43981742063011
 23
216.93515474603589
 33
0.0
  0
TEXT
  5
5E2
  8
DIM
 62
     0
 10
156.43981742063011
 20
217.73515474603599
 30
0.0
 40
3.0
  1
8
  0
POINT
  5
5E3
  8
DEFPOINTS
 62
     0
 10
161.43981742063011
 20
196.17390920945371
 30
0.0
  0
POINT
  5
5E4
  8
DEFPOINTS
 62
     0
 10
153.43981742063011
 20
206.67390920945371
 30
0.0
  0
POINT
  5
5E5
  8
DEFPOINTS
 62
     0
 10
153.43981742063011
 20
216.93515474603589
 30
0.0
  0
ENDBLK
  5
5E7
  8
0
  0
BLOCK
  8
0
  2
*D34
 70
     1
 10
0.0
 20
0.0
 30
0.0
  3
*D34
  1

  0
LINE
  5
5E9
  8
DIM
 62
     0
 10
169.43981742063011
 20
207.47390920945369
 30
0.0
 11
169.43981742063011
 21
224.7495558753466
 31
0.0
  0
LINE
  5
5EA
  8
DIM
 62
     0
 10
153.43981742063011
 20
207.47390920945369
 30
0.0
 11
153.43981742063011
 21
224.7495558753466
 31
0.0
  0
LINE
  5
5EB
  8
DIM
 62
     0
 10
166.43981742063011
 20
223.54955587534661
 30
0.0
 11
156.43981742063011
 21
223.54955587534661
 31
0.0
  0
SOLID
  5
5EC
  8
DIM
 62
     0
 10
166.43981742063011
 20
224.04955587534661
 30
0.0
 11
166.43981742063011
 21
223.04955587534661
 31
0.0
 12
169.43981742063011
 22
223.54955587534661
 32
0.0
 13
169.43981742063011
 23
223.54955587534661
 33
0.0
  0
SOLID
  5
5ED
  8
DIM
 62
     0
 10
156.43981742063011
 20
224.04955587534661
 30
0.0
 11
156.43981742063011
 21
223.04955587534661
 31
0.0
 12
153.43981742063011
 22
223.54955587534661
 32
0.0
 13
153.43981742063011
 23
223.54955587534661
 33
0.0
  0
TEXT
  5
5EE
  8
DIM
 62
     0
 10
159.43981742063011
 20
224.3495558753466
 30
0.0
 40
3.0
  1
16
  0
POINT
  5
5EF
  8
DEFPOINTS
 62
     0
 10
169.43981742063011
 20
206.67390920945371
 30
0.0
  0
POINT
  5
5F0
  8
DEFPOINTS
 62
     0
 10
153.43981742063011
 20
206.67390920945371
 30
0.0
  0
POINT
  5
5F1
  8
DEFPOINTS
 62
     0
 10
153.43981742063011
 20
223.54955587534661
 30
0.0
  0
ENDBLK
  5
5F3
  8
0
  0
BLOCK
  8
0
  2
*D35
 70
     1
 10
0.0
 20
0.0
 30
0.0
  3
*D35
  1

  0
LINE
  5
5F5
  8
DIM
 62
     0
 10
169.43981742063011
 20
207.47390920945369
 30
0.0
 11
169.43981742063011
 21
224.7495558753466
 31
0.0
  0
LINE
  5
5F6
  8
DIM
 62
     0
 10
183.43981742063011
 20
208.47390920945369
 30
0.0
 11
183.43981742063011
 21
224.7495558753466
 31
0.0
  0
LINE
  5
5F7
  8
DIM
 62
     0
 10
172.43981742062999
 20
223.54955587534661
 30
0.0
 11
180.43981742063011
 21
223.54955587534661
 31
0.0
  0
SOLID
  5
5F8
  8
DIM
 62
     0
 10
172.43981742062999
 20
224.04955587534661
 30
0.0
 11
172.43981742062999
 21
223.04955587534661
 31
0.0
 12
169.43981742063011
 22
223.54955587534661
 32
0.0
 13
169.43981742063011
 23
223.54955587534661
 33
0.0
  0
SOLID
  5
5F9
  8
DIM
 62
     0
 10
180.43981742063011
 20
224.04955587534661
 30
0.0
 11
180.43981742063011
 21
223.04955587534661
 31
0.0
 12
183.43981742063011
 22
223.54955587534661
 32
0.0
 13
183.43981742063011
 23
223.54955587534661
 33
0.0
  0
TEXT
  5
5FA
  8
DIM
 62
     0
 10
174.43981742063011
 20
224.3495558753466
 30
0.0
 40
3.0
  1
14
  0
POINT
  5
5FB
  8
DEFPOINTS
 62
     0
 10
169.43981742063011
 20
206.67390920945371
 30
0.0
  0
POINT
  5
5FC
  8
DEFPOINTS
 62
     0
 10
183.43981742063011
 20
207.67390920945371
 30
0.0
  0
POINT
  5
5FD
  8
DEFPOINTS
 62
     0
 10
183.43981742063011
 20
223.54955587534661
 30
0.0
  0
ENDBLK
  5
5FF
  8
0
  0
BLOCK
  8
0
  2
*D36
 70
     1
 10
0.0
 20
0.0
 30
0.0
  3
*D36
  1

  0
LINE
  5
601
  8
DIM
 62
     0
 10
183.43981742063011
 20
208.47390920945369
 30
0.0
 11
183.43981742063011
 21
218.13515474603591
 31
0.0
  0
LINE
  5
602
  8
DIM
 62
     0
 10
213.43981742062999
 20
159.47390920945369
 30
0.0
 11
213.43981742062999
 21
218.13515474603591
 31
0.0
  0
LINE
  5
603
  8
DIM
 62
     0
 10
186.43981742063011
 20
216.93515474603589
 30
0.0
 11
210.43981742063011
 21
216.93515474603589
 31
0.0
  0
SOLID
  5
604
  8
DIM
 62
     0
 10
186.43981742063011
 20
217.43515474603601
 30
0.0
 11
186.43981742063011
 21
216.43515474603601
 31
0.0
 12
183.43981742063011
 22
216.93515474603589
 32
0.0
 13
183.43981742063011
 23
216.93515474603589
 33
0.0
  0
SOLID
  5
605
  8
DIM
 62
     0
 10
210.43981742063011
 20
217.43515474603601
 30
0.0
 11
210.43981742063011
 21
216.43515474603601
 31
0.0
 12
213.43981742062999
 22
216.93515474603589
 32
0.0
 13
213.43981742062999
 23
216.93515474603589
 33
0.0
  0
TEXT
  5
606
  8
DIM
 62
     0
 10
196.18981742062999
 20
217.73515474603599
 30
0.0
 40
3.0
  1
30
  0
POINT
  5
607
  8
DEFPOINTS
 62
     0
 10
183.43981742063011
 20
207.67390920945371
 30
0.0
  0
POINT
  5
608
  8
DEFPOINTS
 62
     0
 10
213.43981742062999
 20
158.67390920945371
 30
0.0
  0
POINT
  5
609
  8
DEFPOINTS
 62
     0
 10
213.43981742062999
 20
216.93515474603589
 30
0.0
  0
ENDBLK
  5
60B
  8
0
  0
BLOCK
  8
0
  2
*D37
 70
     1
 10
0.0
 20
0.0
 30
0.0
  3
*D37
  1

  0
LINE
  5
60D
  8
DIM
 62
     0
 10
253.43981742063011
 20
159.47390920945369
 30
0.0
 11
253.43981742063011
 21
218.13515474603591
 31
0.0
  0
LINE
  5
60E
  8
DIM
 62
     0
 10
213.43981742062999
 20
159.47390920945369
 30
0.0
 11
213.43981742062999
 21
218.13515474603591
 31
0.0
  0
LINE
  5
60F
  8
DIM
 62
     0
 10
250.43981742063011
 20
216.93515474603589
 30
0.0
 11
216.43981742063011
 21
216.93515474603589
 31
0.0
  0
SOLID
  5
610
  8
DIM
 62
     0
 10
250.43981742063011
 20
217.43515474603601
 30
0.0
 11
250.43981742063011
 21
216.43515474603601
 31
0.0
 12
253.43981742063011
 22
216.93515474603589
 32
0.0
 13
253.43981742063011
 23
216.93515474603589
 33
0.0
  0
SOLID
  5
611
  8
DIM
 62
     0
 10
216.43981742063011
 20
217.43515474603601
 30
0.0
 11
216.43981742063011
 21
216.43515474603601
 31
0.0
 12
213.43981742062999
 22
216.93515474603589
 32
0.0
 13
213.43981742062999
 23
216.93515474603589
 33
0.0
  0
TEXT
  5
612
  8
DIM
 62
     0
 10
231.18981742063011
 20
217.73515474603599
 30
0.0
 40
3.0
  1
40
  0
POINT
  5
613
  8
DEFPOINTS
 62
     0
 10
253.43981742063011
 20
158.67390920945371
 30
0.0
  0
POINT
  5
614
  8
DEFPOINTS
 62
     0
 10
213.43981742062999
 20
158.67390920945371
 30
0.0
  0
POINT
  5
615
  8
DEFPOINTS
 62
     0
 10
213.43981742062999
 20
216.93515474603589
 30
0.0
  0
ENDBLK
  5
617
  8
0
  0
BLOCK
  8
0
  2
*D38
 70
     1
 10
0.0
 20
0.0
 30
0.0
  3
*D38
  1

  0
LINE
  5
619
  8
DIM
 62
     0
 10
183.43981742063011
 20
208.47390920945369
 30
0.0
 11
183.43981742063011
 21
224.7495558753466
 31
0.0
  0
LINE
  5
61A
  8
DIM
 62
     0
 10
275.43981742063011
 20
208.47390920945369
 30
0.0
 11
275.43981742063011
 21
224.7495558753466
 31
0.0
  0
LINE
  5
61B
  8
DIM
 62
     0
 10
186.43981742063011
 20
223.54955587534661
 30
0.0
 11
272.43981742063011
 21
223.54955587534661
 31
0.0
  0
SOLID
  5
61C
  8
DIM
 62
     0
 10
186.43981742063011
 20
224.04955587534661
 30
0.0
 11
186.43981742063011
 21
223.04955587534661
 31
0.0
 12
183.43981742063011
 22
223.54955587534661
 32
0.0
 13
183.43981742063011
 23
223.54955587534661
 33
0.0
  0
SOLID
  5
61D
  8
DIM
 62
     0
 10
272.43981742063011
 20
224.04955587534661
 30
0.0
 11
272.43981742063011
 21
223.04955587534661
 31
0.0
 12
275.43981742063011
 22
223.54955587534661
 32
0.0
 13
275.43981742063011
 23
223.54955587534661
 33
0.0
  0
TEXT
  5
61E
  8
DIM
 62
     0
 10
226.93981742063011
 20
224.3495558753466
 30
0.0
 40
3.0
  1
92
  0
POINT
  5
61F
  8
DEFPOINTS
 62
     0
 10
183.43981742063011
 20
207.67390920945371
 30
0.0
  0
POINT
  5
620
  8
DEFPOINTS
 62
     0
 10
275.43981742063011
 20
207.67390920945371
 30
0.0
  0
POINT
  5
621
  8
DEFPOINTS
 62
     0
 10
275.43981742063011
 20
223.54955587534661
 30
0.0
  0
ENDBLK
  5
623
  8
0
  0
BLOCK
  8
0
  2
*D39
 70
     1
 10
0.0
 20
0.0
 30
0.0
  3
*D39
  1

  0
LINE
  5
625
  8
DIM
 62
     0
 10
153.43981742063011
 20
207.47390920945369
 30
0.0
 11
153.43981742063011
 21
231.7145893167507
 31
0.0
  0
LINE
  5
626
  8
DIM
 62
     0
 10
275.43981742063011
 20
208.47390920945369
 30
0.0
 11
275.43981742063011
 21
231.7145893167507
 31
0.0
  0
LINE
  5
627
  8
DIM
 62
     0
 10
156.43981742063011
 20
230.51458931675069
 30
0.0
 11
272.43981742063011
 21
230.51458931675069
 31
0.0
  0
SOLID
  5
628
  8
DIM
 62
     0
 10
156.43981742063011
 20
231.01458931675069
 30
0.0
 11
156.43981742063011
 21
230.01458931675069
 31
0.0
 12
153.43981742063011
 22
230.51458931675069
 32
0.0
 13
153.43981742063011
 23
230.51458931675069
 33
0.0
  0
SOLID
  5
629
  8
DIM
 62
     0
 10
272.43981742063011
 20
231.01458931675069
 30
0.0
 11
272.43981742063011
 21
230.01458931675069
 31
0.0
 12
275.43981742063011
 22
230.51458931675069
 32
0.0
 13
275.43981742063011
 23
230.51458931675069
 33
0.0
  0
TEXT
  5
62A
  8
DIM
 62
     0
 10
210.93981742063011
 20
231.3145893167507
 30
0.0
 40
3.0
  1
122
  0
POINT
  5
62B
  8
DEFPOINTS
 62
     0
 10
153.43981742063011
 20
206.67390920945371
 30
0.0
  0
POINT
  5
62C
  8
DEFPOINTS
 62
     0
 10
275.43981742063011
 20
207.67390920945371
 30
0.0
  0
POINT
  5
62D
  8
DEFPOINTS
 62
     0
 10
275.43981742063011
 20
230.51458931675069
 30
0.0
  0
ENDBLK
  5
62F
  8
0
  0
BLOCK
  8
0
  2
*D40
 70
     1
 10
0.0
 20
0.0
 30
0.0
  3
*D40
  1

  0
LINE
  5
631
  8
DIM
 62
     0
 10
167.13981742063001
 20
128.67390920945371
 30
0.0
 11
141.7694556003494
 21
128.67390920945371
 31
0.0
  0
LINE
  5
632
  8
DIM
 62
     0
 10
167.13981742063001
 20
144.67390920945371
 30
0.0
 11
141.7694556003494
 21
144.67390920945371
 31
0.0
  0
LINE
  5
633
  8
DIM
 62
     0
 10
142.96945560034939
 20
131.67390920945371
 30
0.0
 11
142.96945560034939
 21
141.67390920945371
 31
0.0
  0
SOLID
  5
634
  8
DIM
 62
     0
 10
142.46945560034939
 20
131.67390920945371
 30
0.0
 11
143.46945560034939
 21
131.67390920945371
 31
0.0
 12
142.96945560034939
 22
128.67390920945371
 32
0.0
 13
142.96945560034939
 23
128.67390920945371
 33
0.0
  0
SOLID
  5
635
  8
DIM
 62
     0
 10
142.46945560034939
 20
141.67390920945371
 30
0.0
 11
143.46945560034939
 21
141.67390920945371
 31
0.0
 12
142.96945560034939
 22
144.67390920945371
 32
0.0
 13
142.96945560034939
 23
144.67390920945371
 33
0.0
  0
INSERT
  5
636
  8
DIM
  2
*U51
 10
0.0
 20
0.0
 30
0.0
  0
POINT
  5
637
  8
DEFPOINTS
 62
     0
 10
167.93981742063011
 20
128.67390920945371
 30
0.0
  0
POINT
  5
638
  8
DEFPOINTS
 62
     0
 10
167.93981742063011
 20
144.67390920945371
 30
0.0
  0
POINT
  5
639
  8
DEFPOINTS
 62
     0
 10
142.96945560034939
 20
144.67390920945371
 30
0.0
  0
ENDBLK
  5
63B
  8
0
  0
BLOCK
  8
0
  2
*D41
 70
     1
 10
0.0
 20
0.0
 30
0.0
  3
*D41
  1

  0
LINE
  5
63D
  8
DIM
 62
     0
 10
160.63981742063001
 20
121.1739092094537
 30
0.0
 11
133.2842803313238
 21
121.1739092094537
 31
0.0
  0
LINE
  5
63E
  8
DIM
 62
     0
 10
160.63981742063001
 20
196.17390920945371
 30
0.0
 11
133.2842803313238
 21
196.17390920945371
 31
0.0
  0
LINE
  5
63F
  8
DIM
 62
     0
 10
134.4842803313237
 20
124.1739092094537
 30
0.0
 11
134.48428033132379
 21
193.17390920945371
 31
0.0
  0
SOLID
  5
640
  8
DIM
 62
     0
 10
133.9842803313237
 20
124.1739092094537
 30
0.0
 11
134.9842803313237
 21
124.1739092094537
 31
0.0
 12
134.4842803313237
 22
121.1739092094537
 32
0.0
 13
134.4842803313237
 23
121.1739092094537
 33
0.0
  0
SOLID
  5
641
  8
DIM
 62
     0
 10
133.98428033132379
 20
193.17390920945371
 30
0.0
 11
134.98428033132379
 21
193.17390920945371
 31
0.0
 12
134.48428033132379
 22
196.17390920945371
 32
0.0
 13
134.48428033132379
 23
196.17390920945371
 33
0.0
  0
TEXT
  5
642
  8
DIM
 62
     0
 10
133.68428033132369
 20
156.17390920945371
 30
0.0
 40
3.0
  1
75
 50
90.0
  0
POINT
  5
643
  8
DEFPOINTS
 62
     0
 10
161.43981742063011
 20
121.1739092094537
 30
0.0
  0
POINT
  5
644
  8
DEFPOINTS
 62
     0
 10
161.43981742063011
 20
196.17390920945371
 30
0.0
  0
POINT
  5
645
  8
DEFPOINTS
 62
     0
 10
134.48428033132379
 20
196.17390920945371
 30
0.0
  0
ENDBLK
  5
647
  8
0
  0
BLOCK
  8
0
  2
*D42
 70
     1
 10
0.0
 20
0.0
 30
0.0
  3
*D42
  1

  0
LINE
  5
649
  8
DIM
 62
     0
 10
152.6398174206301
 20
110.6739092094537
 30
0.0
 11
125.4779748639541
 21
110.6739092094537
 31
0.0
  0
LINE
  5
64A
  8
DIM
 62
     0
 10
152.6398174206301
 20
206.67390920945371
 30
0.0
 11
125.4779748639542
 21
206.67390920945371
 31
0.0
  0
LINE
  5
64B
  8
DIM
 62
     0
 10
126.67797486395411
 20
113.6739092094537
 30
0.0
 11
126.6779748639542
 21
203.67390920945371
 31
0.0
  0
SOLID
  5
64C
  8
DIM
 62
     0
 10
126.17797486395411
 20
113.6739092094537
 30
0.0
 11
127.17797486395411
 21
113.6739092094537
 31
0.0
 12
126.67797486395411
 22
110.6739092094537
 32
0.0
 13
126.67797486395411
 23
110.6739092094537
 33
0.0
  0
SOLID
  5
64D
  8
DIM
 62
     0
 10
126.17797486395411
 20
203.67390920945371
 30
0.0
 11
127.17797486395411
 21
203.67390920945371
 31
0.0
 12
126.6779748639542
 22
206.67390920945371
 32
0.0
 13
126.6779748639542
 23
206.67390920945371
 33
0.0
  0
TEXT
  5
64E
  8
DIM
 62
     0
 10
125.87797486395409
 20
156.17390920945371
 30
0.0
 40
3.0
  1
96
 50
90.0
  0
POINT
  5
64F
  8
DEFPOINTS
 62
     0
 10
153.43981742063011
 20
110.6739092094537
 30
0.0
  0
POINT
  5
650
  8
DEFPOINTS
 62
     0
 10
153.43981742063011
 20
206.67390920945371
 30
0.0
  0
POINT
  5
651
  8
DEFPOINTS
 62
     0
 10
126.6779748639542
 20
206.67390920945371
 30
0.0
  0
ENDBLK
  5
653
  8
0
  0
BLOCK
  8
0
  2
*D43
 70
     1
 10
0.0
 20
0.0
 30
0.0
  3
*D43
  1

  0
LINE
  5
655
  8
DIM
 62
     0
 10
368.47129452246742
 20
136.67390920945371
 30
0.0
 11
341.65215937810058
 21
136.67390920945371
 31
0.0
  0
LINE
  5
656
  8
DIM
 62
     0
 10
368.47129452246742
 20
180.67390920945371
 30
0.0
 11
341.65215937810058
 21
180.67390920945371
 31
0.0
  0
LINE
  5
657
  8
DIM
 62
     0
 10
342.85215937810062
 20
139.67390920945371
 30
0.0
 11
342.85215937810062
 21
177.67390920945371
 31
0.0
  0
SOLID
  5
658
  8
DIM
 62
     0
 10
342.35215937810062
 20
139.67390920945371
 30
0.0
 11
343.35215937810062
 21
139.67390920945371
 31
0.0
 12
342.85215937810062
 22
136.67390920945371
 32
0.0
 13
342.85215937810062
 23
136.67390920945371
 33
0.0
  0
SOLID
  5
659
  8
DIM
 62
     0
 10
342.35215937810062
 20
177.67390920945371
 30
0.0
 11
343.35215937810062
 21
177.67390920945371
 31
0.0
 12
342.85215937810062
 22
180.67390920945371
 32
0.0
 13
342.85215937810062
 23
180.67390920945371
 33
0.0
  0
TEXT
  5
65A
  8
DIM
 62
     0
 10
342.0521593781005
 20
156.1739092094538
 30
0.0
 40
3.0
  1
44
 50
90.0
  0
POINT
  5
65B
  8
DEFPOINTS
 62
     0
 10
369.27129452246737
 20
136.67390920945371
 30
0.0
  0
POINT
  5
65C
  8
DEFPOINTS
 62
     0
 10
369.27129452246737
 20
180.67390920945371
 30
0.0
  0
POINT
  5
65D
  8
DEFPOINTS
 62
     0
 10
342.85215937810062
 20
180.67390920945371
 30
0.0
  0
ENDBLK
  5
65F
  8
0
  0
BLOCK
  8
0
  2
*D44
 70
     1
 10
0.0
 20
0.0
 30
0.0
  3
*D44
  1

  0
LINE
  5
725
  8
DIM
 62
     0
 10
213.43981742063011
 20
60.623266627306329
 30
0.0
 11
213.43981742063011
 21
80.314465791255415
 31
0.0
  0
LINE
  5
726
  8
DIM
 62
     0
 10
183.43981742063011
 20
68.623266627306336
 30
0.0
 11
183.43981742063011
 21
80.314465791255415
 31
0.0
  0
LINE
  5
727
  8
DIM
 62
     0
 10
210.43981742063011
 20
79.114465791255427
 30
0.0
 11
186.43981742063011
 21
79.114465791255427
 31
0.0
  0
SOLID
  5
728
  8
DIM
 62
     0
 10
210.43981742063011
 20
79.614465791255427
 30
0.0
 11
210.43981742063011
 21
78.614465791255427
 31
0.0
 12
213.43981742063011
 22
79.114465791255427
 32
0.0
 13
213.43981742063011
 23
79.114465791255427
 33
0.0
  0
SOLID
  5
729
  8
DIM
 62
     0
 10
186.43981742063011
 20
79.614465791255427
 30
0.0
 11
186.43981742063011
 21
78.614465791255427
 31
0.0
 12
183.43981742063011
 22
79.114465791255427
 32
0.0
 13
183.43981742063011
 23
79.114465791255427
 33
0.0
  0
TEXT
  5
72A
  8
DIM
 62
     0
 10
196.18981742063011
 20
79.914465791255424
 30
0.0
 40
3.0
  1
30
  0
POINT
  5
72B
  8
DEFPOINTS
 62
     0
 10
213.43981742063011
 20
59.823266627306339
 30
0.0
  0
POINT
  5
72C
  8
DEFPOINTS
 62
     0
 10
183.43981742063011
 20
67.823266627306339
 30
0.0
  0
POINT
  5
72D
  8
DEFPOINTS
 62
     0
 10
183.43981742063011
 20
79.114465791255427
 30
0.0
  0
ENDBLK
  5
66C
  8
0
  0
BLOCK
  8
0
  2
*D45
 70
     1
 10
0.0
 20
0.0
 30
0.0
  3
*D45
  1

  0
LINE
  5
72E
  8
DIM
 62
     0
 10
213.43981742063011
 20
60.623266627306329
 30
0.0
 11
213.43981742063011
 21
80.314465791255415
 31
0.0
  0
LINE
  5
72F
  8
DIM
 62
     0
 10
253.43981742063011
 20
60.623266627306329
 30
0.0
 11
253.43981742063011
 21
80.314465791255415
 31
0.0
  0
LINE
  5
730
  8
DIM
 62
     0
 10
216.43981742063011
 20
79.114465791255427
 30
0.0
 11
250.43981742063011
 21
79.114465791255427
 31
0.0
  0
SOLID
  5
731
  8
DIM
 62
     0
 10
216.43981742063011
 20
79.614465791255427
 30
0.0
 11
216.43981742063011
 21
78.614465791255427
 31
0.0
 12
213.43981742063011
 22
79.114465791255427
 32
0.0
 13
213.43981742063011
 23
79.114465791255427
 33
0.0
  0
SOLID
  5
732
  8
DIM
 62
     0
 10
250.43981742063011
 20
79.614465791255427
 30
0.0
 11
250.43981742063011
 21
78.614465791255427
 31
0.0
 12
253.43981742063011
 22
79.114465791255427
 32
0.0
 13
253.43981742063011
 23
79.114465791255427
 33
0.0
  0
TEXT
  5
733
  8
DIM
 62
     0
 10
231.18981742063011
 20
79.914465791255424
 30
0.0
 40
3.0
  1
40
  0
POINT
  5
734
  8
DEFPOINTS
 62
     0
 10
213.43981742063011
 20
59.823266627306339
 30
0.0
  0
POINT
  5
735
  8
DEFPOINTS
 62
     0
 10
253.43981742063011
 20
59.823266627306339
 30
0.0
  0
POINT
  5
736
  8
DEFPOINTS
 62
     0
 10
253.43981742063011
 20
79.114465791255427
 30
0.0
  0
ENDBLK
  5
679
  8
0
  0
BLOCK
  8
0
  2
*D46
 70
     1
 10
0.0
 20
0.0
 30
0.0
  3
*D46
  1

  0
LINE
  5
737
  8
DIM
 62
     0
 10
239.43981742063011
 20
49.023266627306342
 30
0.0
 11
239.43981742063011
 21
20.912376784689151
 31
0.0
  0
LINE
  5
738
  8
DIM
 62
     0
 10
183.43981742063011
 20
31.023266627306342
 30
0.0
 11
183.43981742063011
 21
20.912376784689151
 31
0.0
  0
LINE
  5
739
  8
DIM
 62
     0
 10
236.43981742063011
 20
22.11237678468914
 30
0.0
 11
186.43981742063011
 21
22.11237678468914
 31
0.0
  0
SOLID
  5
73A
  8
DIM
 62
     0
 10
236.43981742063011
 20
22.61237678468915
 30
0.0
 11
236.43981742063011
 21
21.61237678468915
 31
0.0
 12
239.43981742063011
 22
22.11237678468914
 32
0.0
 13
239.43981742063011
 23
22.11237678468914
 33
0.0
  0
SOLID
  5
73B
  8
DIM
 62
     0
 10
186.43981742063011
 20
22.61237678468915
 30
0.0
 11
186.43981742063011
 21
21.61237678468915
 31
0.0
 12
183.43981742063011
 22
22.11237678468914
 32
0.0
 13
183.43981742063011
 23
22.11237678468914
 33
0.0
  0
TEXT
  5
73C
  8
DIM
 62
     0
 10
208.93981742063011
 20
22.912376784689151
 30
0.0
 40
3.0
  1
56
  0
POINT
  5
73D
  8
DEFPOINTS
 62
     0
 10
239.43981742063011
 20
49.823266627306339
 30
0.0
  0
POINT
  5
73E
  8
DEFPOINTS
 62
     0
 10
183.43981742063011
 20
31.823266627306339
 30
0.0
  0
POINT
  5
73F
  8
DEFPOINTS
 62
     0
 10
183.43981742063011
 20
22.11237678468914
 30
0.0
  0
ENDBLK
  5
686
  8
0
  0
BLOCK
  8
0
  2
*D47
 70
     1
 10
0.0
 20
0.0
 30
0.0
  3
*D47
  1

  0
LINE
  5
740
  8
DIM
 62
     0
 10
265.43981742062999
 20
49.023266627306342
 30
0.0
 11
265.43981742062999
 21
20.912376784689151
 31
0.0
  0
LINE
  5
741
  8
DIM
 62
     0
 10
275.43981742063011
 20
31.023266627306342
 30
0.0
 11
275.43981742063011
 21
20.912376784689151
 31
0.0
  0
LINE
  5
742
  8
DIM
 62
     0
 10
268.43981742063011
 20
22.11237678468914
 30
0.0
 11
272.43981742063011
 21
22.11237678468914
 31
0.0
  0
SOLID
  5
743
  8
DIM
 62
     0
 10
268.43981742063011
 20
22.61237678468915
 30
0.0
 11
268.43981742063011
 21
21.61237678468915
 31
0.0
 12
265.43981742062999
 22
22.11237678468914
 32
0.0
 13
265.43981742062999
 23
22.11237678468914
 33
0.0
  0
SOLID
  5
744
  8
DIM
 62
     0
 10
272.43981742063011
 20
22.61237678468915
 30
0.0
 11
272.43981742063011
 21
21.61237678468915
 31
0.0
 12
275.43981742063011
 22
22.11237678468914
 32
0.0
 13
275.43981742063011
 23
22.11237678468914
 33
0.0
  0
TEXT
  5
745
  8
DIM
 62
     0
 10
268.68981742063011
 20
22.912376784689151
 30
0.0
 40
3.0
  1
10
  0
POINT
  5
746
  8
DEFPOINTS
 62
     0
 10
265.43981742062999
 20
49.823266627306339
 30
0.0
  0
POINT
  5
747
  8
DEFPOINTS
 62
     0
 10
275.43981742063011
 20
31.823266627306339
 30
0.0
  0
POINT
  5
748
  8
DEFPOINTS
 62
     0
 10
275.43981742063011
 20
22.11237678468914
 30
0.0
  0
ENDBLK
  5
694
  8
0
  0
BLOCK
  8
0
  2
*D48
 70
     1
 10
0.0
 20
0.0
 30
0.0
  3
*D48
  1

  0
LINE
  5
752
  8
DIM
 62
     0
 10
276.23981742063012
 20
68.823266627306324
 30
0.0
 11
283.64716056159187
 21
68.823266627306324
 31
0.0
  0
LINE
  5
753
  8
DIM
 62
     0
 10
254.23981742063009
 20
59.823266627306339
 30
0.0
 11
283.64716056159187
 21
59.823266627306332
 31
0.0
  0
LINE
  5
754
  8
DIM
 62
     0
 10
282.44716056159189
 20
65.823266627306339
 30
0.0
 11
282.44716056159189
 21
62.823266627306332
 31
0.0
  0
SOLID
  5
755
  8
DIM
 62
     0
 10
281.94716056159189
 20
65.823266627306339
 30
0.0
 11
282.94716056159189
 21
65.823266627306339
 31
0.0
 12
282.44716056159189
 22
68.823266627306324
 32
0.0
 13
282.44716056159189
 23
68.823266627306324
 33
0.0
  0
SOLID
  5
756
  8
DIM
 62
     0
 10
281.94716056159189
 20
62.823266627306332
 30
0.0
 11
282.94716056159189
 21
62.823266627306332
 31
0.0
 12
282.44716056159189
 22
59.823266627306332
 32
0.0
 13
282.44716056159189
 23
59.823266627306332
 33
0.0
  0
TEXT
  5
757
  8
DIM
 62
     0
 10
281.64716056159187
 20
63.323266627306381
 30
0.0
 40
3.0
  1
9
 50
90.0
  0
POINT
  5
758
  8
DEFPOINTS
 62
     0
 10
275.43981742063011
 20
68.823266627306324
 30
0.0
  0
POINT
  5
759
  8
DEFPOINTS
 62
     0
 10
253.43981742063011
 20
59.823266627306339
 30
0.0
  0
POINT
  5
75A
  8
DEFPOINTS
 62
     0
 10
282.44716056159189
 20
59.823266627306332
 30
0.0
  0
ENDBLK
  5
6A2
  8
0
  0
BLOCK
  8
0
  2
*D49
 70
     1
 10
0.0
 20
0.0
 30
0.0
  3
*D49
  1

  0
LINE
  5
749
  8
DIM
 62
     0
 10
254.23981742063009
 20
59.823266627306339
 30
0.0
 11
283.64716056159187
 21
59.823266627306332
 31
0.0
  0
LINE
  5
74A
  8
DIM
 62
     0
 10
254.23981742063009
 20
39.823266627306332
 30
0.0
 11
283.64716056159187
 21
39.823266627306332
 31
0.0
  0
LINE
  5
74B
  8
DIM
 62
     0
 10
282.44716056159189
 20
56.823266627306332
 30
0.0
 11
282.44716056159189
 21
42.823266627306332
 31
0.0
  0
SOLID
  5
74C
  8
DIM
 62
     0
 10
281.94716056159189
 20
56.823266627306332
 30
0.0
 11
282.94716056159189
 21
56.823266627306332
 31
0.0
 12
282.44716056159189
 22
59.823266627306332
 32
0.0
 13
282.44716056159189
 23
59.823266627306332
 33
0.0
  0
SOLID
  5
74D
  8
DIM
 62
     0
 10
281.94716056159189
 20
42.823266627306332
 30
0.0
 11
282.94716056159189
 21
42.823266627306332
 31
0.0
 12
282.44716056159189
 22
39.823266627306332
 32
0.0
 13
282.44716056159189
 23
39.823266627306332
 33
0.0
  0
TEXT
  5
74E
  8
DIM
 62
     0
 10
281.64716056159187
 20
47.573266627306381
 30
0.0
 40
3.0
  1
20
 50
90.0
  0
POINT
  5
74F
  8
DEFPOINTS
 62
     0
 10
253.43981742063011
 20
59.823266627306339
 30
0.0
  0
POINT
  5
750
  8
DEFPOINTS
 62
     0
 10
253.43981742063011
 20
39.823266627306332
 30
0.0
  0
POINT
  5
751
  8
DEFPOINTS
 62
     0
 10
282.44716056159189
 20
39.823266627306332
 30
0.0
  0
ENDBLK
  5
6AF
  8
0
  0
BLOCK
  8
0
  2
*U50
 70
     1
 10
0.0
 20
0.0
 30
0.0
  3
*U50
  1

  0
TEXT
  5
7ED
  8
DIM
 62
     0
 10
81.951599651497801
 20
153.1239092094537
 30
0.0
 40
3.0
  1
75
 50
90.0
  0
TEXT
  5
7EE
  8
DIM
 62
     0
 10
81.351599651497807
 20
159.1239092094537
 30
0.0
 40
1.8
  1
±0.2
 50
90.0
  0
ENDBLK
  5
7F0
  8
0
  0
BLOCK
  8
0
  2
*U51
 70
     1
 10
0.0
 20
0.0
 30
0.0
  3
*U51
  1

  0
TEXT
  5
7F2
  8
DIM
 62
     0
 10
142.16945560034929
 20
130.17390920945371
 30
0.0
 40
3.0
  1
2-
 50
90.0
  0
TEXT
  5
7F3
  8
DIM
 62
     0
 10
142.16945560034929
 20
136.17390920945371
 30
0.0
 40
3.0
  1
\U+2205
 50
90.0
  0
TEXT
  5
7F4
  8
DIM
 62
     0
 10
142.16945560034929
 20
139.17390920945371
 30
0.0
 40
3.0
  1
16
 50
90.0
  0
ENDBLK
  5
7F6
  8
0
  0
ENDSEC
  0
SECTION
  2
ENTITIES
  0
LINE
  5
20
  8
CENTER
  6
CENTER
 10
53.698636853705601
 20
106.9922179355184
 30
0.0
 11
53.698636853705601
 21
212.4736605645698
 31
0.0
  0
LINE
  5
23
  8
CENTER
  6
CENTER
 10
52.698636853705608
 20
180.67390920945371
 30
0.0
 11
54.698636853705608
 21
180.67390920945371
 31
0.0
  0
LINE
  5
24
  8
CENTER
  6
CENTER
 10
53.698636853705601
 20
179.67390920945371
 30
0.0
 11
53.698636853705601
 21
181.67390920945371
 31
0.0
  0
LINE
  5
25
  8
CENTER
  6
CENTER
 10
44.698636853705608
 20
180.67390920945371
 30
0.0
 11
51.898636853705611
 21
180.67390920945371
 31
0.0
  0
LINE
  5
26
  8
CENTER
  6
CENTER
 10
55.498636853705598
 20
180.67390920945371
 30
0.0
 11
62.698636853705608
 21
180.67390920945371
 31
0.0
  0
LINE
  5
27
  8
CENTER
  6
CENTER
 10
53.698636853705601
 20
171.67390920945371
 30
0.0
 11
53.698636853705601
 21
178.8739092094537
 31
0.0
  0
LINE
  5
28
  8
CENTER
  6
CENTER
 10
53.698636853705601
 20
182.47390920945369
 30
0.0
 11
53.698636853705601
 21
189.67390920945371
 31
0.0
  0
LINE
  5
29
  8
CENTER
  6
CENTER
 10
52.69863685370558
 20
136.67390920945371
 30
0.0
 11
54.69863685370558
 21
136.67390920945371
 31
0.0
  0
LINE
  5
2A
  8
CENTER
  6
CENTER
 10
53.69863685370558
 20
135.67390920945371
 30
0.0
 11
53.69863685370558
 21
137.67390920945371
 31
0.0
  0
LINE
  5
2B
  8
CENTER
  6
CENTER
 10
45.19863685370558
 20
136.67390920945371
 30
0.0
 11
51.898636853705582
 21
136.67390920945371
 31
0.0
  0
LINE
  5
2C
  8
CENTER
  6
CENTER
 10
55.49863685370557
 20
136.67390920945371
 30
0.0
 11
62.19863685370558
 21
136.67390920945371
 31
0.0
  0
LINE
  5
2D
  8
CENTER
  6
CENTER
 10
53.69863685370558
 20
128.17390920945371
 30
0.0
 11
53.69863685370558
 21
134.8739092094537
 31
0.0
  0
LINE
  5
2E
  8
CENTER
  6
CENTER
 10
53.69863685370558
 20
138.47390920945369
 30
0.0
 11
53.69863685370558
 21
145.17390920945371
 31
0.0
  0
LINE
  5
2F
  8
CENTER
  6
CENTER
 10
75.146816805743583
 20
158.67390920945371
 30
0.0
 11
31.745460039016962
 21
158.67390920945371
 31
0.0
  0
LINE
  5
30
  8
CENTER
  6
CENTER
 10
166.79877337145831
 20
136.67390920945371
 30
0.0
 11
185.97300978087989
 21
136.67390920945371
 31
0.0
  0
LINE
  5
31
  8
CENTER
  6
CENTER
 10
167.354549301405
 20
180.67390920945371
 30
0.0
 11
185.97300978087989
 21
180.67390920945371
 31
0.0
  0
LINE
  5
32
  8
CENTER
  6
CENTER
 10
160.43981742063011
 20
196.17390920945371
 30
0.0
 11
162.43981742063011
 21
196.17390920945371
 31
0.0
  0
LINE
  5
33
  8
CENTER
  6
CENTER
 10
161.43981742063011
 20
195.17390920945371
 30
0.0
 11
161.43981742063011
 21
197.17390920945371
 31
0.0
  0
LINE
  5
34
  8
CENTER
  6
CENTER
 10
157.83981742063011
 20
196.17390920945371
 30
0.0
 11
159.63981742063001
 21
196.17390920945371
 31
0.0
  0
LINE
  5
35
  8
CENTER
  6
CENTER
 10
163.23981742063009
 20
196.17390920945371
 30
0.0
 11
165.03981742062999
 21
196.17390920945371
 31
0.0
  0
LINE
  5
36
  8
CENTER
  6
CENTER
 10
161.43981742063011
 20
192.57390920945369
 30
0.0
 11
161.43981742063011
 21
194.3739092094537
 31
0.0
  0
LINE
  5
37
  8
CENTER
  6
CENTER
 10
161.43981742063011
 20
197.97390920945369
 30
0.0
 11
161.43981742063011
 21
199.77390920945371
 31
0.0
  0
LINE
  5
38
  8
CENTER
  6
CENTER
 10
160.43981742063011
 20
180.67390920945371
 30
0.0
 11
162.43981742063011
 21
180.67390920945371
 31
0.0
  0
LINE
  5
39
  8
CENTER
  6
CENTER
 10
161.43981742063011
 20
179.67390920945371
 30
0.0
 11
161.43981742063011
 21
181.67390920945371
 31
0.0
  0
LINE
  5
3A
  8
CENTER
  6
CENTER
 10
155.68981742063011
 20
180.67390920945371
 30
0.0
 11
159.63981742063001
 21
180.67390920945371
 31
0.0
  0
LINE
  5
3B
  8
CENTER
  6
CENTER
 10
163.23981742063009
 20
180.67390920945371
 30
0.0
 11
167.18981742063011
 21
180.67390920945371
 31
0.0
  0
LINE
  5
3C
  8
CENTER
  6
CENTER
 10
161.43981742063011
 20
174.92390920945371
 30
0.0
 11
161.43981742063011
 21
178.8739092094537
 31
0.0
  0
LINE
  5
3D
  8
CENTER
  6
CENTER
 10
161.43981742063011
 20
182.47390920945369
 30
0.0
 11
161.43981742063011
 21
186.42390920945371
 31
0.0
  0
LINE
  5
3E
  8
CENTER
  6
CENTER
 10
160.43981742063011
 20
121.1739092094537
 30
0.0
 11
162.43981742063011
 21
121.1739092094537
 31
0.0
  0
LINE
  5
3F
  8
CENTER
  6
CENTER
 10
161.43981742063011
 20
120.1739092094537
 30
0.0
 11
161.43981742063011
 21
122.1739092094537
 31
0.0
  0
LINE
  5
40
  8
CENTER
  6
CENTER
 10
157.83981742063011
 20
121.1739092094537
 30
0.0
 11
159.63981742063001
 21
121.1739092094537
 31
0.0
  0
LINE
  5
41
  8
CENTER
  6
CENTER
 10
163.23981742063009
 20
121.1739092094537
 30
0.0
 11
165.03981742062999
 21
121.1739092094537
 31
0.0
  0
LINE
  5
42
  8
CENTER
  6
CENTER
 10
161.43981742063011
 20
117.5739092094537
 30
0.0
 11
161.43981742063011
 21
119.3739092094537
 31
0.0
  0
LINE
  5
43
  8
CENTER
  6
CENTER
 10
161.43981742063011
 20
122.97390920945369
 30
0.0
 11
161.43981742063011
 21
124.77390920945371
 31
0.0
  0
LINE
  5
44
  8
CENTER
  6
CENTER
 10
276.84221690269231
 20
158.67390920945371
 30
0.0
 11
150.68130035463119
 21
158.67390920945371
 31
0.0
  0
LINE
  5
45
  8
CENTER
  6
CENTER
 10
212.43981742063011
 20
158.67390920945371
 30
0.0
 11
214.43981742063011
 21
158.67390920945371
 31
0.0
  0
LINE
  5
46
  8
CENTER
  6
CENTER
 10
213.43981742062999
 20
157.67390920945371
 30
0.0
 11
213.43981742062999
 21
159.67390920945371
 31
0.0
  0
LINE
  5
47
  8
CENTER
  6
CENTER
 10
206.43981742063011
 20
158.67390920945371
 30
0.0
 11
211.6398174206301
 21
158.67390920945371
 31
0.0
  0
LINE
  5
48
  8
CENTER
  6
CENTER
 10
215.23981742063009
 20
158.67390920945371
 30
0.0
 11
220.43981742063011
 21
158.67390920945371
 31
0.0
  0
LINE
  5
49
  8
CENTER
  6
CENTER
 10
213.43981742062999
 20
151.67390920945371
 30
0.0
 11
213.43981742062999
 21
156.8739092094537
 31
0.0
  0
LINE
  5
4A
  8
CENTER
  6
CENTER
 10
213.43981742062999
 20
160.47390920945369
 30
0.0
 11
213.43981742062999
 21
165.67390920945371
 31
0.0
  0
LINE
  5
4B
  8
CENTER
  6
CENTER
 10
252.43981742063011
 20
158.67390920945371
 30
0.0
 11
254.43981742063011
 21
158.67390920945371
 31
0.0
  0
LINE
  5
4C
  8
CENTER
  6
CENTER
 10
253.43981742063011
 20
157.67390920945371
 30
0.0
 11
253.43981742063011
 21
159.67390920945371
 31
0.0
  0
LINE
  5
4D
  8
CENTER
  6
CENTER
 10
246.43981742063011
 20
158.67390920945371
 30
0.0
 11
251.6398174206301
 21
158.67390920945371
 31
0.0
  0
LINE
  5
4E
  8
CENTER
  6
CENTER
 10
255.23981742063009
 20
158.67390920945371
 30
0.0
 11
260.43981742063011
 21
158.67390920945371
 31
0.0
  0
LINE
  5
4F
  8
CENTER
  6
CENTER
 10
253.43981742063011
 20
151.67390920945371
 30
0.0
 11
253.43981742063011
 21
156.8739092094537
 31
0.0
  0
LINE
  5
50
  8
CENTER
  6
CENTER
 10
253.43981742063011
 20
160.47390920945369
 30
0.0
 11
253.43981742063011
 21
165.67390920945371
 31
0.0
  0
LINE
  5
51
  8
CENTER
  6
CENTER
 10
368.27129452246737
 20
136.67390920945371
 30
0.0
 11
370.27129452246737
 21
136.67390920945371
 31
0.0
  0
LINE
  5
52
  8
CENTER
  6
CENTER
 10
369.27129452246737
 20
135.67390920945371
 30
0.0
 11
369.27129452246737
 21
137.67390920945371
 31
0.0
  0
LINE
  5
53
  8
CENTER
  6
CENTER
 10
350.77129452246737
 20
136.67390920945371
 30
0.0
 11
367.47129452246742
 21
136.67390920945371
 31
0.0
  0
LINE
  5
54
  8
CENTER
  6
CENTER
 10
371.07129452246738
 20
136.67390920945371
 30
0.0
 11
387.77129452246737
 21
136.67390920945371
 31
0.0
  0
LINE
  5
55
  8
CENTER
  6
CENTER
 10
369.27129452246737
 20
118.1739092094537
 30
0.0
 11
369.27129452246737
 21
134.8739092094537
 31
0.0
  0
LINE
  5
56
  8
CENTER
  6
CENTER
 10
369.27129452246737
 20
138.47390920945369
 30
0.0
 11
369.27129452246737
 21
155.17390920945371
 31
0.0
  0
LINE
  5
57
  8
CENTER
  6
CENTER
 10
368.27129452246737
 20
180.67390920945371
 30
0.0
 11
370.27129452246737
 21
180.67390920945371
 31
0.0
  0
LINE
  5
58
  8
CENTER
  6
CENTER
 10
369.27129452246737
 20
179.67390920945371
 30
0.0
 11
369.27129452246737
 21
181.67390920945371
 31
0.0
  0
LINE
  5
59
  8
CENTER
  6
CENTER
 10
350.77129452246737
 20
180.67390920945371
 30
0.0
 11
367.47129452246742
 21
180.67390920945371
 31
0.0
  0
LINE
  5
5A
  8
CENTER
  6
CENTER
 10
371.07129452246738
 20
180.67390920945371
 30
0.0
 11
387.77129452246737
 21
180.67390920945371
 31
0.0
  0
LINE
  5
5B
  8
CENTER
  6
CENTER
 10
369.27129452246737
 20
162.17390920945371
 30
0.0
 11
369.27129452246737
 21
178.8739092094537
 31
0.0
  0
LINE
  5
5C
  8
CENTER
  6
CENTER
 10
369.27129452246737
 20
182.47390920945369
 30
0.0
 11
369.27129452246737
 21
199.17390920945371
 31
0.0
  0
LINE
  5
5D
  8
CENTER
  6
CENTER
 10
346.85713317275508
 20
158.67390920945371
 30
0.0
 11
390.53850042057383
 21
158.67390920945371
 31
0.0
  0
LINE
  5
5E
  8
CENTER
  6
CENTER
 10
369.27129452246737
 20
209.7907795161841
 30
0.0
 11
369.27129452246737
 21
105.6131467932283
 31
0.0
  0
LINE
  5
5F
  8
CENTER
  6
CENTER
 10
278.4375383784411
 20
49.82326662730614
 30
0.0
 11
150.5982091865387
 21
49.823266627306367
 31
0.0
  0
LINE
  5
60
  8
CENTER
  6
CENTER
 10
264.43981742063011
 20
49.823266627306339
 30
0.0
 11
266.43981742063011
 21
49.823266627306339
 31
0.0
  0
LINE
  5
61
  8
CENTER
  6
CENTER
 10
265.43981742062999
 20
48.823266627306332
 30
0.0
 11
265.43981742062999
 21
50.823266627306339
 31
0.0
  0
LINE
  5
62
  8
CENTER
  6
CENTER
 10
259.28981742063007
 20
49.823266627306339
 30
0.0
 11
263.6398174206301
 21
49.823266627306339
 31
0.0
  0
LINE
  5
63
  8
CENTER
  6
CENTER
 10
267.23981742063012
 20
49.823266627306339
 30
0.0
 11
271.58981742063008
 21
49.823266627306339
 31
0.0
  0
LINE
  5
64
  8
CENTER
  6
CENTER
 10
265.43981742062999
 20
43.67326662730634
 30
0.0
 11
265.43981742062999
 21
48.023266627306342
 31
0.0
  0
LINE
  5
65
  8
CENTER
  6
CENTER
 10
265.43981742062999
 20
51.623266627306343
 30
0.0
 11
265.43981742062999
 21
55.97326662730633
 31
0.0
  0
LINE
  5
66
  8
CENTER
  6
CENTER
 10
238.43981742063011
 20
49.823266627306339
 30
0.0
 11
240.43981742063011
 21
49.823266627306339
 31
0.0
  0
LINE
  5
67
  8
CENTER
  6
CENTER
 10
239.43981742063011
 20
48.823266627306332
 30
0.0
 11
239.43981742063011
 21
50.823266627306339
 31
0.0
  0
LINE
  5
68
  8
CENTER
  6
CENTER
 10
233.7898174206301
 20
49.823266627306339
 30
0.0
 11
237.6398174206301
 21
49.823266627306339
 31
0.0
  0
LINE
  5
69
  8
CENTER
  6
CENTER
 10
241.23981742063009
 20
49.823266627306339
 30
0.0
 11
245.08981742063011
 21
49.823266627306339
 31
0.0
  0
LINE
  5
6A
  8
CENTER
  6
CENTER
 10
239.43981742063011
 20
44.17326662730634
 30
0.0
 11
239.43981742063011
 21
48.023266627306342
 31
0.0
  0
LINE
  5
6B
  8
CENTER
  6
CENTER
 10
239.43981742063011
 20
51.623266627306343
 30
0.0
 11
239.43981742063011
 21
55.47326662730633
 31
0.0
  0
LINE
  5
6C
  8
CENTER
  6
CENTER
 10
212.43981742063011
 20
39.823266627306332
 30
0.0
 11
214.43981742063011
 21
39.823266627306332
 31
0.0
  0
LINE
  5
6D
  8
CENTER
  6
CENTER
 10
213.43981742062999
 20
38.823266627306332
 30
0.0
 11
213.43981742062999
 21
40.823266627306339
 31
0.0
  0
LINE
  5
6E
  8
CENTER
  6
CENTER
 10
209.83981742063011
 20
39.823266627306332
 30
0.0
 11
211.6398174206301
 21
39.823266627306332
 31
0.0
  0
LINE
  5
6F
  8
CENTER
  6
CENTER
 10
215.23981742063009
 20
39.823266627306332
 30
0.0
 11
217.03981742062999
 21
39.823266627306332
 31
0.0
  0
LINE
  5
70
  8
CENTER
  6
CENTER
 10
213.43981742062999
 20
36.223266627306337
 30
0.0
 11
213.43981742062999
 21
38.023266627306342
 31
0.0
  0
LINE
  5
71
  8
CENTER
  6
CENTER
 10
213.43981742062999
 20
41.623266627306343
 30
0.0
 11
213.43981742062999
 21
43.423266627306333
 31
0.0
  0
LINE
  5
72
  8
CENTER
  6
CENTER
 10
212.43981742063011
 20
59.823266627306339
 30
0.0
 11
214.43981742063011
 21
59.823266627306339
 31
0.0
  0
LINE
  5
73
  8
CENTER
  6
CENTER
 10
213.43981742063011
 20
58.823266627306332
 30
0.0
 11
213.43981742063011
 21
60.823266627306339
 31
0.0
  0
LINE
  5
74
  8
CENTER
  6
CENTER
 10
209.83981742063011
 20
59.823266627306339
 30
0.0
 11
211.6398174206301
 21
59.823266627306339
 31
0.0
  0
LINE
  5
75
  8
CENTER
  6
CENTER
 10
215.23981742063009
 20
59.823266627306339
 30
0.0
 11
217.0398174206301
 21
59.823266627306339
 31
0.0
  0
LINE
  5
76
  8
CENTER
  6
CENTER
 10
213.43981742063011
 20
56.223266627306337
 30
0.0
 11
213.43981742063011
 21
58.023266627306342
 31
0.0
  0
LINE
  5
77
  8
CENTER
  6
CENTER
 10
213.43981742063011
 20
61.623266627306343
 30
0.0
 11
213.43981742063011
 21
63.42326662730634
 31
0.0
  0
LINE
  5
78
  8
CENTER
  6
CENTER
 10
252.43981742063011
 20
59.823266627306339
 30
0.0
 11
254.43981742063011
 21
59.823266627306339
 31
0.0
  0
LINE
  5
79
  8
CENTER
  6
CENTER
 10
253.43981742063011
 20
58.823266627306332
 30
0.0
 11
253.43981742063011
 21
60.823266627306339
 31
0.0
  0
LINE
  5
7A
  8
CENTER
  6
CENTER
 10
249.83981742063011
 20
59.823266627306339
 30
0.0
 11
251.6398174206301
 21
59.823266627306339
 31
0.0
  0
LINE
  5
7B
  8
CENTER
  6
CENTER
 10
255.23981742063009
 20
59.823266627306339
 30
0.0
 11
257.03981742063007
 21
59.823266627306339
 31
0.0
  0
LINE
  5
7C
  8
CENTER
  6
CENTER
 10
253.43981742063011
 20
56.223266627306337
 30
0.0
 11
253.43981742063011
 21
58.023266627306342
 31
0.0
  0
LINE
  5
7D
  8
CENTER
  6
CENTER
 10
253.43981742063011
 20
61.623266627306343
 30
0.0
 11
253.43981742063011
 21
63.42326662730634
 31
0.0
  0
LINE
  5
7E
  8
CENTER
  6
CENTER
 10
252.43981742063011
 20
39.823266627306332
 30
0.0
 11
254.43981742063011
 21
39.823266627306332
 31
0.0
  0
LINE
  5
7F
  8
CENTER
  6
CENTER
 10
253.43981742063011
 20
38.823266627306332
 30
0.0
 11
253.43981742063011
 21
40.823266627306339
 31
0.0
  0
LINE
  5
80
  8
CENTER
  6
CENTER
 10
249.83981742063011
 20
39.823266627306332
 30
0.0
 11
251.6398174206301
 21
39.823266627306332
 31
0.0
  0
LINE
  5
81
  8
CENTER
  6
CENTER
 10
255.23981742063009
 20
39.823266627306332
 30
0.0
 11
257.03981742063007
 21
39.823266627306332
 31
0.0
  0
LINE
  5
82
  8
CENTER
  6
CENTER
 10
253.43981742063011
 20
36.223266627306337
 30
0.0
 11
253.43981742063011
 21
38.023266627306342
 31
0.0
  0
LINE
  5
83
  8
CENTER
  6
CENTER
 10
253.43981742063011
 20
41.623266627306343
 30
0.0
 11
253.43981742063011
 21
43.423266627306333
 31
0.0
  0
LINE
  5
84
  8
CENTER
  6
CENTER
 10
168.01464879853819
 20
38.323266627306282
 30
0.0
 11
191.2775979633499
 21
38.323266627306282
 31
0.0
  0
LINE
  5
85
  8
CENTER
  6
CENTER
 10
166.5658527108896
 20
-79.515044713775296
 30
0.0
 11
186.71800509749161
 21
-79.515044713775296
 31
0.0
  0
LINE
  5
86
  8
CENTER
  6
CENTER
 10
166.88572837537251
 20
-35.515044713775289
 30
0.0
 11
185.75837931036099
 21
-35.515044713775289
 31
0.0
  0
LINE
  5
87
  8
CENTER
  6
CENTER
 10
160.43981742063011
 20
-95.015044713775296
 30
0.0
 11
162.43981742063011
 21
-95.015044713775296
 31
0.0
  0
LINE
  5
88
  8
CENTER
  6
CENTER
 10
161.43981742063011
 20
-96.01504471377531
 30
0.0
 11
161.43981742063011
 21
-94.015044713775296
 31
0.0
  0
LINE
  5
89
  8
CENTER
  6
CENTER
 10
157.83981742063011
 20
-95.015044713775296
 30
0.0
 11
159.63981742063001
 21
-95.015044713775296
 31
0.0
  0
LINE
  5
8A
  8
CENTER
  6
CENTER
 10
163.23981742063009
 20
-95.015044713775296
 30
0.0
 11
165.03981742062999
 21
-95.015044713775296
 31
0.0
  0
LINE
  5
8B
  8
CENTER
  6
CENTER
 10
161.43981742063011
 20
-98.615044713775291
 30
0.0
 11
161.43981742063011
 21
-96.815044713775293
 31
0.0
  0
LINE
  5
8C
  8
CENTER
  6
CENTER
 10
161.43981742063011
 20
-93.215044713775285
 30
0.0
 11
161.43981742063011
 21
-91.415044713775302
 31
0.0
  0
LINE
  5
8D
  8
CENTER
  6
CENTER
 10
160.43981742063011
 20
-20.015044713775289
 30
0.0
 11
162.43981742063011
 21
-20.015044713775289
 31
0.0
  0
LINE
  5
8E
  8
CENTER
  6
CENTER
 10
161.43981742063011
 20
-21.015044713775289
 30
0.0
 11
161.43981742063011
 21
-19.015044713775289
 31
0.0
  0
LINE
  5
8F
  8
CENTER
  6
CENTER
 10
157.83981742063011
 20
-20.015044713775289
 30
0.0
 11
159.63981742063001
 21
-20.015044713775289
 31
0.0
  0
LINE
  5
90
  8
CENTER
  6
CENTER
 10
163.23981742063009
 20
-20.015044713775289
 30
0.0
 11
165.03981742062999
 21
-20.015044713775289
 31
0.0
  0
LINE
  5
91
  8
CENTER
  6
CENTER
 10
161.43981742063011
 20
-23.615044713775291
 30
0.0
 11
161.43981742063011
 21
-21.81504471377529
 31
0.0
  0
LINE
  5
92
  8
CENTER
  6
CENTER
 10
161.43981742063011
 20
-18.215044713775288
 30
0.0
 11
161.43981742063011
 21
-16.415044713775291
 31
0.0
  0
LINE
  5
93
  8
CENTER
  6
CENTER
 10
212.43981742063011
 20
-57.515044713775289
 30
0.0
 11
214.43981742063011
 21
-57.515044713775289
 31
0.0
  0
LINE
  5
94
  8
CENTER
  6
CENTER
 10
213.43981742062999
 20
-58.515044713775303
 30
0.0
 11
213.43981742062999
 21
-56.515044713775289
 31
0.0
  0
LINE
  5
95
  8
CENTER
  6
CENTER
 10
206.43981742063011
 20
-57.515044713775289
 30
0.0
 11
211.6398174206301
 21
-57.515044713775289
 31
0.0
  0
LINE
  5
96
  8
CENTER
  6
CENTER
 10
215.23981742063009
 20
-57.515044713775289
 30
0.0
 11
220.43981742063011
 21
-57.515044713775289
 31
0.0
  0
LINE
  5
97
  8
CENTER
  6
CENTER
 10
213.43981742062999
 20
-64.515044713775296
 30
0.0
 11
213.43981742062999
 21
-59.315044713775293
 31
0.0
  0
LINE
  5
98
  8
CENTER
  6
CENTER
 10
213.43981742062999
 20
-55.715044713775292
 30
0.0
 11
213.43981742062999
 21
-50.515044713775303
 31
0.0
  0
LINE
  5
99
  8
CENTER
  6
CENTER
 10
252.43981742063011
 20
-57.515044713775289
 30
0.0
 11
254.43981742063011
 21
-57.515044713775289
 31
0.0
  0
LINE
  5
9A
  8
CENTER
  6
CENTER
 10
253.43981742063011
 20
-58.515044713775303
 30
0.0
 11
253.43981742063011
 21
-56.515044713775289
 31
0.0
  0
LINE
  5
9B
  8
CENTER
  6
CENTER
 10
246.43981742063011
 20
-57.515044713775289
 30
0.0
 11
251.6398174206301
 21
-57.515044713775289
 31
0.0
  0
LINE
  5
9C
  8
CENTER
  6
CENTER
 10
255.23981742063009
 20
-57.515044713775289
 30
0.0
 11
260.43981742063011
 21
-57.515044713775289
 31
0.0
  0
LINE
  5
9D
  8
CENTER
  6
CENTER
 10
253.43981742063011
 20
-64.515044713775296
 30
0.0
 11
253.43981742063011
 21
-59.315044713775293
 31
0.0
  0
LINE
  5
9E
  8
CENTER
  6
CENTER
 10
253.43981742063011
 20
-55.715044713775292
 30
0.0
 11
253.43981742063011
 21
-50.515044713775303
 31
0.0
  0
LINE
  5
9F
  8
CENTER
  6
CENTER
 10
278.52225807552509
 20
-57.515044713775289
 30
0.0
 11
150.252204679128
 21
-57.515044713775289
 31
0.0
  0
DIMENSION
  5
A0
  8
DIM
  2
*D26
 10
71.698636853705608
 20
216.93515474603589
 30
0.0
 11
53.698636853705601
 21
219.23515474603599
 31
0.0
 70
     0
  1
<>
 13
35.698636853705601
 23
206.67390920945371
 33
0.0
 14
71.698636853705608
 24
206.67390920945371
 34
0.0
1001
ACAD
1000
DSTYLE
1002
{
1070
    78
1070
     8
1070
   284
1070
     8
1070
   140
1040
3.0
1070
   340
1005
1D
1070
    74
1070
     0
1070
   172
1070
     1
1070
    73
1070
     0
1070
    77
1070
     1
1070
   147
1040
0.8
1070
    42
1040
0.8
1070
    44
1040
1.1999999999999991
1070
    43
1040
2.0
1070
   141
1040
3.0
1070
    41
1040
3.0
1070
   273
1070
     8
1070
   274
1070
     4
1070
   143
1040
0.0394
1070
   171
1070
     4
1002
}
  0
DIMENSION
  5
AF
  8
DIM
  2
*D27
 10
72.69863685370558
 20
223.54955587534661
 30
0.0
 11
53.69863685370558
 21
225.8495558753466
 31
0.0
 70
     0
  1
<>
 13
34.69863685370558
 23
206.67390920945371
 33
0.0
 14
72.69863685370558
 24
206.67390920945371
 34
0.0
1001
ACAD
1000
DSTYLE
1002
{
1070
    78
1070
     8
1070
   284
1070
     8
1070
   140
1040
3.0
1070
   340
1005
1D
1070
    74
1070
     0
1070
   172
1070
     1
1070
    73
1070
     0
1070
    77
1070
     1
1070
   147
1040
0.8
1070
    42
1040
0.8
1070
    44
1040
1.1999999999999991
1070
    43
1040
2.0
1070
   141
1040
3.0
1070
    41
1040
3.0
1070
   273
1070
     8
1070
   274
1070
     4
1070
   143
1040
0.0394
1070
   171
1070
     4
1002
}
  0
DIMENSION
  5
BC
  8
DIM
  2
*D28
 10
34.69863685370558
 20
216.93515474603589
 30
0.0
 11
35.198636853705587
 21
220.83515474603601
 31
0.0
 70
     0
  1
<>
 13
35.698636853705601
 23
206.67390920945371
 33
0.0
 14
34.69863685370558
 24
206.67390920945371
 34
0.0
1001
ACAD
1000
DSTYLE
1002
{
1070
    78
1070
     8
1070
   284
1070
     8
1070
   140
1040
3.0
1070
   340
1005
1D
1070
    74
1070
     0
1070
   172
1070
     1
1070
    73
1070
     0
1070
    77
1070
     1
1070
   147
1040
0.8
1070
    42
1040
0.8
1070
    44
1040
1.1999999999999991
1070
    43
1040
2.0
1070
   141
1040
3.0
1070
    41
1040
3.0
1070
   273
1070
     8
1070
   274
1070
     4
1070
   143
1040
0.0394
1070
   171
1070
     4
1002
}
  0
DIMENSION
  5
CB
  8
DIM
  2
*D29
 10
26.63742082999056
 20
206.67390920945371
 30
0.0
 11
22.737420829990519
 21
207.17390920945371
 31
0.0
 70
     0
  1
<>
 13
35.698636853705601
 23
207.67390920945371
 33
0.0
 14
35.698636853705601
 24
206.67390920945371
 34
0.0
 50
90.000000000000185
1001
ACAD
1000
DSTYLE
1002
{
1070
    78
1070
     8
1070
   284
1070
     8
1070
   140
1040
3.0
1070
   340
1005
1D
1070
    74
1070
     0
1070
   172
1070
     1
1070
    73
1070
     0
1070
    77
1070
     1
1070
   147
1040
0.8
1070
    42
1040
0.8
1070
    44
1040
1.1999999999999991
1070
    43
1040
2.0
1070
   141
1040
3.0
1070
    41
1040
3.0
1070
   273
1070
     8
1070
   274
1070
     4
1070
   143
1040
0.0394
1070
   171
1070
     4
1002
}
  0
DIMENSION
  5
DA
  8
DIM
  2
*D30
 10
18.96475607060529
 20
109.6739092094537
 30
0.0
 11
16.664756070605272
 21
158.67390920945371
 31
0.0
 70
     0
  1
<>
 13
35.698636853705601
 23
207.67390920945371
 33
0.0
 14
35.69863685370558
 24
109.6739092094537
 34
0.0
 50
90.000000000000185
1001
ACAD
1000
DSTYLE
1002
{
1070
    78
1070
     8
1070
   284
1070
     8
1070
   140
1040
3.0
1070
   340
1005
1D
1070
    74
1070
     0
1070
   172
1070
     1
1070
    73
1070
     0
1070
    77
1070
     1
1070
   147
1040
0.8
1070
    42
1040
0.8
1070
    44
1040
1.1999999999999991
1070
    43
1040
2.0
1070
   141
1040
3.0
1070
    41
1040
3.0
1070
   273
1070
     8
1070
   274
1070
     4
1070
   143
1040
0.0394
1070
   171
1070
     4
1002
}
  0
DIMENSION
  5
E7
  8
DIM
  2
*D31
 10
82.751599651497827
 20
196.17390920945371
 30
0.0
 11
80.451599651497801
 21
158.67390920945371
 31
0.0
 70
     0
  1
<>
 13
53.698636853705601
 23
121.1739092094537
 33
0.0
 14
53.698636853705601
 24
196.17390920945371
 34
0.0
 50
90.000000000000185
1001
ACAD
1000
DSTYLE
1002
{
1070
    78
1070
     8
1070
   284
1070
     8
1070
   140
1040
3.0
1070
   340
1005
1D
1070
    47
1040
0.2
1070
    71
1070
     1
1070
    74
1070
     0
1070
   172
1070
     1
1070
    48
1040
0.2
1070
    73
1070
     0
1070
   146
1040
0.6
1070
    77
1070
     1
1070
   147
1040
0.8
1070
    42
1040
0.8
1070
    44
1040
1.1999999999999991
1070
    43
1040
2.0
1070
   141
1040
3.0
1070
    41
1040
3.0
1070
   273
1070
     8
1070
   274
1070
     4
1070
   143
1040
0.0394
1070
   171
1070
     4
1002
}
  0
DIMENSION
  5
F4
  8
DIM
  2
*D32
 10
53.698636853705601
 20
97.949679180106386
 30
0.0
 11
62.698636853705608
 21
100.2496791801063
 31
0.0
 70
     0
  1
<>
 13
71.698636853705608
 23
110.6739092094537
 33
0.0
 14
53.698636853705601
 24
121.1739092094537
 34
0.0
1001
ACAD
1000
DSTYLE
1002
{
1070
    78
1070
     8
1070
   284
1070
     8
1070
   140
1040
3.0
1070
   340
1005
1D
1070
    74
1070
     0
1070
   172
1070
     1
1070
    73
1070
     0
1070
    77
1070
     1
1070
   147
1040
0.8
1070
    42
1040
0.8
1070
    44
1040
1.1999999999999991
1070
    43
1040
2.0
1070
   141
1040
3.0
1070
    41
1040
3.0
1070
   273
1070
     8
1070
   274
1070
     4
1070
   143
1040
0.0394
1070
   171
1070
     4
1002
}
  0
SOLID
  5
101
  8
DIM
  6
CONTINUOUS
 10
-50.76495608356754
 20
116.3777110130776
 30
0.0
 11
-52.544592742414203
 21
118.8440632511995
 31
0.0
 12
-51.661050682896089
 22
115.93384789335011
 32
0.0
 13
-51.661050682896089
 23
115.93384789335011
 33
0.0
210
0.0
220
0.0
230
-1.0
  0
POLYLINE
  5
390
  8
DIM
 66
     1
 10
0.0
 20
0.0
 30
0.0
 70
   128
1001
ACAD
1000
R13OBJECT
1002
{
1005
443EE30200000101
1002
}
  0
VERTEX
  5
7D4
  8
DIM
 10
51.213003383231808
 20
116.1557794532138
 30
0.0
  0
VERTEX
  5
7D5
  8
DIM
 10
42.085216186579821
 20
97.728114600674644
 30
0.0
  0
VERTEX
  5
7D6
  8
DIM
 10
39.085216186579821
 20
97.728114600674644
 30
0.0
  0
SEQEND
  5
7D7
  8
DIM
  0
TEXT
  5
102
  8
DIM
 10
1.3977161865798271
 20
96.228114600674644
 30
0.0
 40
3.0
  1
2-M6×1.0（貫通）
  7
DAYUS
  0
DIMENSION
  5
103
  8
DIM
  2
*D33
 10
153.43981742063011
 20
216.93515474603589
 30
0.0
 11
157.43981742063011
 21
219.23515474603599
 31
0.0
 70
     0
  1
<>
 13
161.43981742063011
 23
196.17390920945371
 33
0.0
 14
153.43981742063011
 24
206.67390920945371
 34
0.0
1001
ACAD
1000
DSTYLE
1002
{
1002
}
  0
DIMENSION
  5
110
  8
DIM
  2
*D34
 10
153.43981742063011
 20
223.54955587534661
 30
0.0
 11
161.43981742063011
 21
225.8495558753466
 31
0.0
 70
     0
  1
<>
 13
169.43981742063011
 23
206.67390920945371
 33
0.0
 14
153.43981742063011
 24
206.67390920945371
 34
0.0
1001
ACAD
1000
DSTYLE
1002
{
1002
}
  0
DIMENSION
  5
11D
  8
DIM
  2
*D35
 10
183.43981742063011
 20
223.54955587534661
 30
0.0
 11
176.43981742063011
 21
225.8495558753466
 31
0.0
 70
     0
  1
<>
 13
169.43981742063011
 23
206.67390920945371
 33
0.0
 14
183.43981742063011
 24
207.67390920945371
 34
0.0
1001
ACAD
1000
DSTYLE
1002
{
1002
}
  0
DIMENSION
  5
12A
  8
DIM
  2
*D36
 10
213.43981742062999
 20
216.93515474603589
 30
0.0
 11
198.43981742063011
 21
219.23515474603599
 31
0.0
 70
     0
  1
<>
 13
183.43981742063011
 23
207.67390920945371
 33
0.0
 14
213.43981742062999
 24
158.67390920945371
 34
0.0
1001
ACAD
1000
DSTYLE
1002
{
1002
}
  0
DIMENSION
  5
137
  8
DIM
  2
*D37
 10
213.43981742062999
 20
216.93515474603589
 30
0.0
 11
233.43981742063011
 21
219.23515474603599
 31
0.0
 70
     0
  1
<>
 13
253.43981742063011
 23
158.67390920945371
 33
0.0
 14
213.43981742062999
 24
158.67390920945371
 34
0.0
1001
ACAD
1000
DSTYLE
1002
{
1002
}
  0
DIMENSION
  5
144
  8
DIM
  2
*D38
 10
275.43981742063011
 20
223.54955587534661
 30
0.0
 11
229.43981742063011
 21
225.8495558753466
 31
0.0
 70
     0
  1
<>
 13
183.43981742063011
 23
207.67390920945371
 33
0.0
 14
275.43981742063011
 24
207.67390920945371
 34
0.0
1001
ACAD
1000
DSTYLE
1002
{
1002
}
  0
DIMENSION
  5
151
  8
DIM
  2
*D39
 10
275.43981742063011
 20
230.51458931675069
 30
0.0
 11
214.43981742063011
 21
232.8145893167507
 31
0.0
 70
     0
  1
<>
 13
153.43981742063011
 23
206.67390920945371
 33
0.0
 14
275.43981742063011
 24
207.67390920945371
 34
0.0
1001
ACAD
1000
DSTYLE
1002
{
1002
}
  0
SOLID
  5
15E
  8
DIM
  6
CONTINUOUS
 10
-158.6855154251642
 20
200.49523082647929
 30
0.0
 11
-160.1437030996355
 21
197.8262069026413
 31
0.0
 12
-157.8987069998368
 22
199.87803353076771
 32
0.0
 13
-157.8987069998368
 23
199.87803353076771
 33
0.0
210
0.0
220
0.0
230
-1.0
  0
POLYLINE
  5
395
  8
DIM
 66
     1
 10
0.0
 20
0.0
 30
0.0
 70
   128
1001
ACAD
1000
R13OBJECT
1002
{
1005
3830E3020000015E
1002
}
  0
VERTEX
  5
7D8
  8
DIM
 10
158.29211121250049
 20
200.18663217862351
 30
0.0
  0
VERTEX
  5
7D9
  8
DIM
 10
145.34522486569259
 20
216.6914343386504
 30
0.0
  0
VERTEX
  5
7DA
  8
DIM
 10
142.34522486569259
 20
216.6914343386504
 30
0.0
  0
SEQEND
  5
7DB
  8
DIM
  0
TEXT
  5
15F
  8
DIM
 10
106.4702248656926
 20
217.6914343386504
 30
0.0
 40
3.0
  1
4-M5×0.8深8mm
  7
DAYUS
  0
TEXT
  5
39A
  8
DIM
 10
123.4702248656926
 20
212.6914343386504
 30
0.0
 40
3.0
  1
（正反面）
  7
DAYUS
1001
ACAD
1000
R13OBJECT
1002
{
1005
15F
1002
}
  0
DIMENSION
  5
160
  8
DIM
  2
*D40
 10
142.96945560034939
 20
144.67390920945371
 30
0.0
 11
140.66945560034929
 21
136.67390920945371
 31
0.0
 70
     0
  1
2-%%c<>
 13
167.93981742063011
 23
128.67390920945371
 33
0.0
 14
167.93981742063011
 24
144.67390920945371
 34
0.0
 50
90.000000000000185
1001
ACAD
1000
DSTYLE
1002
{
1002
}
  0
DIMENSION
  5
16D
  8
DIM
  2
*D41
 10
134.48428033132379
 20
196.17390920945371
 30
0.0
 11
132.18428033132369
 21
158.67390920945371
 31
0.0
 70
     0
  1
<>
 13
161.43981742063011
 23
121.1739092094537
 33
0.0
 14
161.43981742063011
 24
196.17390920945371
 34
0.0
 50
90.000000000000185
1001
ACAD
1000
DSTYLE
1002
{
1002
}
  0
DIMENSION
  5
17A
  8
DIM
  2
*D42
 10
126.6779748639542
 20
206.67390920945371
 30
0.0
 11
124.37797486395409
 21
158.67390920945371
 31
0.0
 70
     0
  1
<>
 13
153.43981742063011
 23
110.6739092094537
 33
0.0
 14
153.43981742063011
 24
206.67390920945371
 34
0.0
 50
90.000000000000185
1001
ACAD
1000
DSTYLE
1002
{
1002
}
  0
SOLID
  5
187
  8
DIM
  6
CONTINUOUS
 10
-257.32637606444518
 20
166.24983568139001
 30
0.0
 11
-255.65861492132711
 21
163.70649677957121
 31
0.0
 12
-256.4113601426057
 22
166.65325340878951
 32
0.0
 13
-256.4113601426057
 23
166.65325340878951
 33
0.0
210
0.0
220
0.0
230
-1.0
  0
POLYLINE
  5
39B
  8
DIM
 66
     1
 10
0.0
 20
0.0
 30
0.0
 70
   128
1001
ACAD
1000
R13OBJECT
1002
{
1005
D000E30200000187
1002
}
  0
VERTEX
  5
7DC
  8
DIM
 10
256.86886810352541
 20
166.4515445450898
 30
0.0
  0
VERTEX
  5
7DD
  8
DIM
 10
279.4993030912741
 20
217.78099024255329
 30
0.0
  0
VERTEX
  5
7DE
  8
DIM
 10
282.49930309127421
 20
217.78099024255329
 30
0.0
  0
SEQEND
  5
7DF
  8
DIM
  0
TEXT
  5
188
  8
DIM
 10
283.99930309127421
 20
221.28099024255329
 30
0.0
 40
3.0
  1
4-
  7
DAYUS
  0
TEXT
  5
3A0
  8
DIM
 10
289.99930309127421
 20
221.28099024255329
 30
0.0
 40
3.0
  1
%%c
  7
DAYUS
1001
ACAD
1000
R13OBJECT
1002
{
1005
188
1002
}
  0
TEXT
  5
3A1
  8
DIM
 10
292.99930309127421
 20
221.28099024255329
 30
0.0
 40
3.0
  1
11沉孔，深6.3MM
  7
DAYUS
1001
ACAD
1000
R13OBJECT
1002
{
1005
188
1002
}
  0
TEXT
  5
3A2
  8
DIM
 10
283.99930309127421
 20
216.28099024255329
 30
0.0
 40
3.0
  1
（正反面）
  7
DAYUS
1001
ACAD
1000
R13OBJECT
1002
{
1005
188
1002
}
  0
TEXT
  5
3A3
  8
DIM
 10
283.99930309127421
 20
211.28099024255329
 30
0.0
 40
3.0
  1
2-M8×1.25（貫通）
  7
DAYUS
1001
ACAD
1000
R13OBJECT
1002
{
1005
188
1002
}
  0
DIMENSION
  5
189
  8
DIM
  2
*D43
 10
342.85215937810062
 20
180.67390920945371
 30
0.0
 11
340.5521593781005
 21
158.6739092094538
 31
0.0
 70
     0
  1
<>
 13
369.27129452246737
 23
136.67390920945371
 33
0.0
 14
369.27129452246737
 24
180.67390920945371
 34
0.0
 50
90.000000000000796
1001
ACAD
1000
DSTYLE
1002
{
1002
}
  0
DIMENSION
  5
196
  8
DIM
  2
*D44
 10
183.43981742063011
 20
79.114465791255427
 30
0.0
 11
198.43981742063011
 21
81.414465791255424
 31
0.0
 70
     0
  1
<>
 13
213.43981742063011
 23
59.823266627306339
 33
0.0
 14
183.43981742063011
 24
67.823266627306339
 34
0.0
1001
ACAD
1000
DSTYLE
1002
{
1002
}
  0
DIMENSION
  5
1A3
  8
DIM
  2
*D45
 10
253.43981742063011
 20
79.114465791255427
 30
0.0
 11
233.43981742063011
 21
81.414465791255424
 31
0.0
 70
     0
  1
<>
 13
213.43981742063011
 23
59.823266627306339
 33
0.0
 14
253.43981742063011
 24
59.823266627306339
 34
0.0
1001
ACAD
1000
DSTYLE
1002
{
1002
}
  0
DIMENSION
  5
1B0
  8
DIM
  2
*D46
 10
183.43981742063011
 20
22.11237678468914
 30
0.0
 11
211.43981742062999
 21
24.412376784689151
 31
0.0
 70
     0
  1
<>
 13
239.43981742063011
 23
49.823266627306339
 33
0.0
 14
183.43981742063011
 24
31.823266627306339
 34
0.0
1001
ACAD
1000
DSTYLE
1002
{
1002
}
  0
DIMENSION
  5
1BD
  8
DIM
  2
*D47
 10
275.43981742063011
 20
22.11237678468914
 30
0.0
 11
270.43981742063011
 21
24.412376784689151
 31
0.0
 70
     0
  1
<>
 13
265.43981742062999
 23
49.823266627306339
 33
0.0
 14
275.43981742063011
 24
31.823266627306339
 34
0.0
1001
ACAD
1000
DSTYLE
1002
{
1002
}
  0
DIMENSION
  5
1CA
  8
DIM
  2
*D48
 10
282.44716056159189
 20
59.823266627306332
 30
0.0
 11
280.14716056159187
 21
64.323266627306381
 31
0.0
 70
     0
  1
<>
 13
275.43981742063011
 23
68.823266627306324
 33
0.0
 14
253.43981742063011
 24
59.823266627306339
 34
0.0
 50
90.000000000000185
1001
ACAD
1000
DSTYLE
1002
{
1002
}
  0
DIMENSION
  5
1D7
  8
DIM
  2
*D49
 10
282.44716056159189
 20
39.823266627306332
 30
0.0
 11
280.14716056159187
 21
49.823266627306381
 31
0.0
 70
     0
  1
<>
 13
253.43981742063011
 23
59.823266627306339
 33
0.0
 14
253.43981742063011
 24
39.823266627306332
 34
0.0
 50
90.000000000000185
1001
ACAD
1000
DSTYLE
1002
{
1002
}
  0
SOLID
  5
1E4
  8
DIM
  6
CONTINUOUS
 10
-257.10092166613327
 20
63.408837112397642
 30
0.0
 11
-254.78961092634199
 21
61.432010700158827
 31
0.0
 12
-256.33485306001307
 22
64.051595924641404
 32
0.0
 13
-256.33485306001307
 23
64.051595924641404
 33
0.0
210
0.0
220
0.0
230
-1.0
  0
POLYLINE
  5
3A4
  8
DIM
 66
     1
 10
0.0
 20
0.0
 30
0.0
 70
   128
1001
ACAD
1000
R13OBJECT
1002
{
1005
D036E302000001E4
1002
}
  0
VERTEX
  5
7E0
  8
DIM
 10
256.71788736307332
 20
63.730216518519519
 30
0.0
  0
VERTEX
  5
7E1
  8
DIM
 10
267.92044507426129
 20
77.081924200026492
 30
0.0
  0
VERTEX
  5
7E2
  8
DIM
 10
270.92044507426129
 20
77.081924200026492
 30
0.0
  0
SEQEND
  5
7E3
  8
DIM
  0
TEXT
  5
1E5
  8
DIM
 10
272.42044507426129
 20
78.081924200026492
 30
0.0
 40
3.0
  1
8-M5×0.8深7.5mm
  7
DAYUS
  0
TEXT
  5
3A9
  8
DIM
 10
272.42044507426129
 20
73.081924200026492
 30
0.0
 40
3.0
  1
（正反面）
  7
DAYUS
1001
ACAD
1000
R13OBJECT
1002
{
1005
1E5
1002
}
  0
SOLID
  5
1E6
  8
DIM
  6
CONTINUOUS
 10
-268.96809037965988
 20
43.584373301837573
 30
0.0
 11
-267.72972706153053
 21
46.362224322376939
 31
0.0
 12
-269.8020764772333
 22
44.136158757476238
 32
0.0
 13
-269.8020764772333
 23
44.136158757476238
 33
0.0
210
0.0
220
0.0
230
-1.0
  0
POLYLINE
  5
3AA
  8
DIM
 66
     1
 10
0.0
 20
0.0
 30
0.0
 70
   128
1001
ACAD
1000
R13OBJECT
1002
{
1005
6030E302000001E6
1002
}
  0
VERTEX
  5
7E4
  8
DIM
 10
269.38508342844648
 20
43.860266029656898
 30
0.0
  0
VERTEX
  5
7E5
  8
DIM
 10
285.25072705839352
 20
19.880427341967099
 30
0.0
  0
VERTEX
  5
7E6
  8
DIM
 10
288.25072705839352
 20
19.880427341967099
 30
0.0
  0
SEQEND
  5
7E7
  8
DIM
  0
TEXT
  5
1E7
  8
DIM
 10
289.75072705839352
 20
18.380427341967099
 30
0.0
 40
3.0
  1
4-PT1/8（正反面）
  7
DAYUS
  0
DIMENSION
  5
1E8
  8
DIM
  2
*D24
 10
142.96945560034939
 20
49.823266627306367
 30
0.0
 11
140.66945560034929
 21
59.3232665700612
 31
0.0
 13
183.43981802026531
 23
68.823266512816005
 33
0.0
 14
150.5982091865387
 24
49.823266627306367
 34
0.0
 50
90.0
  0
DIMENSION
  5
1F5
  8
DIM
  2
*D25
 10
142.96945560034939
 20
38.323266627306282
 30
0.0
 11
140.66945560034929
 21
44.073266627306332
 31
0.0
 13
150.5982091865387
 23
49.823266627306367
 33
0.0
 14
168.01464879853819
 24
38.323266627306282
 34
0.0
 50
90.0
  0
LINE
  5
208
  8
0
 62
     6
 10
-21.77443499485133
 20
-219.895837750705
 30
196.6150577887137
 11
422.79246796429402
 21
-219.895837750705
 31
196.6150577887137
  0
LINE
  5
209
  8
0
 62
     6
 10
-21.77443499485133
 20
249.6482211702467
 30
196.6150577887137
 11
-21.77443499485133
 21
-219.895837750705
 31
196.6150577887137
  0
LINE
  5
20A
  8
0
 62
     6
 10
422.79246796429402
 20
249.6482211702467
 30
196.6150577887137
 11
-21.77443499485133
 21
249.6482211702467
 31
196.6150577887137
  0
LINE
  5
20B
  8
0
 62
     6
 10
422.79246796429402
 20
-219.895837750705
 30
196.6150577887137
 11
422.79246796429402
 21
249.6482211702467
 31
196.6150577887137
  0
ARC
  5
20E
  8
0
 10
-53.698636853705523
 20
180.67390920945371
 30
0.0000000000000018
 40
16.699999999999989
210
0.0
220
0.0
230
-1.0
 50
81.778955859293248
 51
98.221044140707065
  0
ARC
  5
210
  8
0
 10
-53.698636853705523
 20
136.67390920945371
 30
0.0
 40
16.699999999999989
210
0.0
220
0.0
230
-1.0
 50
261.77895585929269
 51
278.22104414070662
  0
LINE
  5
211
  8
0
 10
34.69863685370558
 20
206.67390920945371
 30
-0.0000000000000018
 11
35.698636853705601
 21
207.67390920945371
 31
-0.0000000000000018
  0
LINE
  5
212
  8
0
 10
72.69863685370558
 20
206.67390920945371
 30
0.0000000000000018
 11
72.69863685370558
 21
196.97390920945369
 31
0.0000000000000018
  0
LINE
  5
213
  8
0
 10
71.698636853705565
 20
196.97390920945369
 30
0.0
 11
72.69863685370558
 21
196.97390920945369
 31
0.0
  0
LINE
  5
214
  8
0
 10
72.69863685370558
 20
189.67390920945371
 30
0.0
 11
71.698636853705565
 21
189.67390920945371
 31
0.0
  0
LINE
  5
215
  8
0
 10
72.69863685370558
 20
189.67390920945371
 30
0.0
 11
72.69863685370558
 21
127.6739092094537
 31
0.0
  0
LINE
  5
216
  8
0
 10
71.698636853705565
 20
127.6739092094537
 30
0.0
 11
72.69863685370558
 21
127.6739092094537
 31
0.0
  0
LINE
  5
217
  8
0
 10
72.69863685370558
 20
120.3739092094537
 30
0.0000000000000018
 11
71.698636853705565
 21
120.3739092094537
 31
0.0000000000000018
  0
LINE
  5
218
  8
0
 10
72.69863685370558
 20
120.3739092094537
 30
0.0000000000000018
 11
72.69863685370558
 21
110.6739092094537
 31
0.0000000000000018
  0
LINE
  5
219
  8
0
 10
72.69863685370558
 20
110.6739092094537
 30
0.0
 11
71.698636853705565
 21
109.6739092094537
 31
0.0
  0
LINE
  5
21A
  8
0
 10
35.69863685370558
 20
109.6739092094537
 30
0.0
 11
34.69863685370558
 21
110.6739092094537
 31
0.0
  0
LINE
  5
21B
  8
0
 10
71.698636853705565
 20
207.67390920945371
 30
-0.0000000000000018
 11
72.69863685370558
 21
206.67390920945371
 31
-0.0000000000000018
  0
LINE
  5
21C
  8
0
 10
34.69863685370558
 20
110.6739092094537
 30
-0.0000000000000036
 11
34.69863685370558
 21
117.6739092094537
 31
-0.0000000000000036
  0
LINE
  5
21D
  8
0
 10
34.69863685370558
 20
129.67390920945371
 30
0.0
 11
34.69863685370558
 21
158.6642902440104
 31
0.0
  0
LINE
  5
21E
  8
0
 10
34.69863685370558
 20
158.68352817489711
 30
0.0
 11
34.69863685370558
 21
187.67390920945371
 31
0.0
  0
LINE
  5
21F
  8
0
 10
34.998636853705591
 20
121.97390920945369
 30
-0.0000000000000018
 11
34.998636853705591
 21
118.27390920945371
 31
-0.0000000000000018
  0
LINE
  5
220
  8
0
 10
34.998636853705591
 20
118.27390920945371
 30
-0.0000000000000018
 11
34.69863685370558
 21
117.6739092094537
 31
-0.0000000000000018
  0
LINE
  5
221
  8
0
 10
34.69863685370558
 20
129.67390920945371
 30
0.0
 11
34.998636853705591
 21
129.07390920945369
 31
0.0
  0
LINE
  5
222
  8
0
 10
34.998636853705591
 20
129.07390920945369
 30
0.0
 11
34.998636853705591
 21
125.3739092094537
 31
0.0
  0
LINE
  5
223
  8
0
 10
34.998636853705591
 20
125.3739092094537
 30
-0.0000000000000018
 11
35.498636853705591
 21
125.3739092094537
 31
-0.0000000000000018
  0
LINE
  5
224
  8
0
 10
35.498636853705591
 20
125.3739092094537
 30
-0.0000000000000018
 11
35.69863685370558
 21
125.55390920945371
 31
-0.0000000000000018
  0
LINE
  5
225
  8
0
 10
35.498636853705591
 20
121.97390920945369
 30
-0.0000000000000018
 11
34.998636853705591
 21
121.97390920945369
 31
-0.0000000000000018
  0
LINE
  5
226
  8
0
 10
35.69863685370558
 20
121.7939092094537
 30
-0.0000000000000018
 11
35.498636853705591
 21
121.97390920945369
 31
-0.0000000000000018
  0
LINE
  5
227
  8
0
 10
34.69863685370558
 20
199.67390920945371
 30
-0.0000000000000018
 11
34.69863685370558
 21
206.67390920945371
 31
-0.0000000000000018
  0
LINE
  5
228
  8
0
 10
34.998636853705591
 20
191.97390920945369
 30
0.0
 11
34.998636853705591
 21
188.27390920945371
 31
0.0
  0
LINE
  5
229
  8
0
 10
34.998636853705591
 20
188.27390920945371
 30
0.0
 11
34.69863685370558
 21
187.67390920945371
 31
0.0
  0
LINE
  5
22A
  8
0
 10
34.69863685370558
 20
199.67390920945371
 30
-0.0000000000000018
 11
34.998636853705591
 21
199.07390920945369
 31
-0.0000000000000018
  0
LINE
  5
22B
  8
0
 10
34.998636853705591
 20
199.07390920945369
 30
-0.0000000000000018
 11
34.998636853705591
 21
195.3739092094537
 31
-0.0000000000000018
  0
LINE
  5
22C
  8
0
 10
34.998636853705591
 20
195.3739092094537
 30
0.0
 11
35.498636853705591
 21
195.3739092094537
 31
0.0
  0
LINE
  5
22D
  8
0
 10
35.498636853705591
 20
195.3739092094537
 30
0.0
 11
35.698636853705601
 21
195.55390920945371
 31
0.0
  0
LINE
  5
22E
  8
0
 10
35.498636853705591
 20
191.97390920945369
 30
0.0
 11
34.998636853705591
 21
191.97390920945369
 31
0.0
  0
LINE
  5
22F
  8
0
 10
35.69863685370558
 20
191.79390920945369
 30
0.0
 11
35.498636853705591
 21
191.97390920945369
 31
0.0
  0
ARC
  5
230
  8
0
 10
-53.69863685370558
 20
136.67390920945371
 30
0.0
 40
17.0
210
0.0
220
0.0
230
-1.0
 50
270.0
 51
277.50120088997602
  0
ARC
  5
231
  8
0
 10
-53.69863685370558
 20
136.67390920945371
 30
0.0
 40
17.0
210
0.0
220
0.0
230
-1.0
 50
262.49879904102772
 51
270.00000000000068
  0
ARC
  5
232
  8
0
 10
-53.69863685370558
 20
180.67390920945371
 30
0.0000000000000018
 40
17.0
210
0.0
220
0.0
230
-1.0
 50
82.498799041027823
 51
97.501200958972163
  0
LINE
  5
233
  8
0
 10
71.698636853705565
 20
109.6739092094537
 30
0.0
 11
35.69863685370558
 21
109.6739092094537
 31
0.0
  0
LINE
  5
234
  8
0
 10
35.698636853705601
 20
207.67390920945371
 30
-0.0000000000000018
 11
71.698636853705565
 21
207.67390920945371
 31
-0.0000000000000018
  0
LINE
  5
235
  8
0
 10
50.698636853705601
 20
138.42385522047181
 30
0.0
 11
53.729650255387178
 21
140.17390920945371
 31
0.0
  0
LINE
  5
236
  8
0
 10
50.698636853705629
 20
134.92384000857629
 30
0.0
 11
50.698636853705629
 21
138.42385522047181
 31
0.0
  0
LINE
  5
237
  8
0
 10
53.729863622094257
 20
133.17390920945371
 30
0.0
 11
50.698636853705551
 21
134.92384000857629
 31
0.0
  0
LINE
  5
238
  8
0
 10
56.760836853705598
 20
134.9239400049415
 30
0.0000000000000071
 11
53.729863622094229
 21
133.17390920945371
 31
0.0000000000000071
  0
LINE
  5
239
  8
0
 10
56.760836853705541
 20
138.4240016005603
 30
0.0
 11
56.760836853705541
 21
134.9239400049415
 31
0.0
  0
LINE
  5
23A
  8
0
 10
53.72965025538722
 20
140.1739092094538
 30
0.0000000000000018
 11
56.760836853705563
 21
138.4240016005603
 31
0.0000000000000018
  0
CIRCLE
  5
23B
  8
0
 10
53.69863685370558
 20
136.67390920945371
 30
0.0
 40
6.5
  0
CIRCLE
  5
23C
  8
0
 10
-53.69863685370558
 20
136.67390920945371
 30
0.0
 40
6.2113248654051736
210
0.0
220
0.0
230
-1.0
  0
LINE
  5
23D
  8
0
 10
71.698636853705565
 20
110.6739092094537
 30
0.0
 11
35.69863685370558
 21
110.6739092094537
 31
0.0
  0
LINE
  5
23E
  8
0
 10
71.698636853705565
 20
206.67390920945371
 30
0.0000000000000053
 11
71.698636853705565
 21
110.6739092094537
 31
0.0000000000000053
  0
LINE
  5
23F
  8
0
 10
35.69863685370558
 20
206.67390920945371
 30
0.0000000000000053
 11
71.698636853705565
 21
206.67390920945371
 31
0.0000000000000053
  0
LINE
  5
240
  8
0
 10
35.69863685370558
 20
110.6739092094537
 30
0.0
 11
35.69863685370558
 21
206.67390920945371
 31
0.0
  0
CIRCLE
  5
241
  8
0
 10
-53.698636853705523
 20
180.67390920945371
 30
-0.0000000000000053
 40
8.0
210
0.0
220
0.0
230
-1.0
  0
CIRCLE
  5
242
  8
0
 10
-53.69863685370558
 20
121.1739092094537
 30
-0.0000000000000053
 40
2.6000000000000001
210
0.0
220
0.0
230
-1.0
  0
CIRCLE
  5
243
  8
0
 10
-53.69863685370558
 20
196.17390920945371
 30
0.0
 40
2.6000000000000001
210
0.0
220
0.0
230
-1.0
  0
CIRCLE
  5
244
  8
0
 10
-53.698636853705551
 20
136.67390920945371
 30
0.0
 40
7.0
210
0.0
220
0.0
230
-1.0
  0
POLYLINE
  5
245
  8
0
 66
     1
 10
0.0
 20
0.0
 30
0.0
  0
VERTEX
  5
75C
  8
0
 10
35.698636853705523
 20
156.93223945865151
 30
0.0
  0
VERTEX
  5
75D
  8
0
 10
34.6930833542404
 20
158.67390920945371
 30
0.0
  0
SEQEND
  5
75E
  8
0
  0
POLYLINE
  5
246
  8
0
 66
     1
 10
0.0
 20
0.0
 30
0.0
  0
VERTEX
  5
75F
  8
0
 10
34.69308335424045
 20
158.67390920945371
 30
0.0
  0
VERTEX
  5
760
  8
0
 10
35.698636853266407
 20
160.41557895949529
 30
0.0
  0
SEQEND
  5
761
  8
0
  0
CIRCLE
  5
247
  8
0
 10
-53.69863685370558
 20
180.67390920945371
 30
-0.0000000000000053
 40
7.5
210
0.0
220
0.0
230
-1.0
  0
LINE
  5
249
  8
0
 10
275.43981742063011
 20
120.3739092094537
 30
0.0
 11
183.43981742063011
 21
120.3739092094537
 31
0.0
  0
LINE
  5
24A
  8
0
 10
183.43981742063011
 20
127.6739092094537
 30
0.0
 11
275.43981742063011
 21
127.6739092094537
 31
0.0
  0
LINE
  5
24B
  8
0
 10
183.43981742063011
 20
196.97390920945369
 30
0.0
 11
275.43981742063011
 21
196.97390920945369
 31
0.0
  0
LINE
  5
24C
  8
0
 10
275.43981742063011
 20
189.67390920945371
 30
0.0
 11
183.43981742063011
 21
189.67390920945371
 31
0.0
  0
LINE
  5
24D
  8
0
 10
275.43981742063011
 20
110.6739092094537
 30
0.0
 11
183.43981742063011
 21
110.6739092094537
 31
0.0
  0
LINE
  5
24E
  8
0
 10
183.43981742063011
 20
206.67390920945371
 30
0.0
 11
183.43981742063011
 21
196.97390920945369
 31
0.0
  0
LINE
  5
24F
  8
0
 10
183.43981742063011
 20
189.67390920945371
 30
0.0
 11
183.43981742063011
 21
196.97390920945369
 31
0.0
  0
LINE
  5
250
  8
0
 10
183.43981742063011
 20
189.67390920945371
 30
0.0
 11
183.43981742063011
 21
127.6739092094537
 31
0.0
  0
LINE
  5
251
  8
0
 10
183.43981742063011
 20
120.3739092094537
 30
0.0
 11
183.43981742063011
 21
127.6739092094537
 31
0.0
  0
LINE
  5
252
  8
0
 10
183.43981742063011
 20
120.3739092094537
 30
0.0
 11
183.43981742063011
 21
110.6739092094537
 31
0.0
  0
LINE
  5
253
  8
0
 10
183.43981742063011
 20
110.6739092094537
 30
0.0
 11
183.43981742063011
 21
109.6739092094537
 31
0.0
  0
LINE
  5
254
  8
0
 10
183.43981742063011
 20
207.67390920945371
 30
0.0
 11
183.43981742063011
 21
206.67390920945371
 31
0.0
  0
LINE
  5
255
  8
0
 10
183.43981742063011
 20
206.67390920945371
 30
0.0
 11
275.43981742063011
 21
206.67390920945371
 31
0.0
  0
LINE
  5
256
  8
0
 10
275.43981742063011
 20
109.6739092094537
 30
0.0
 11
275.43981742063011
 21
110.6739092094537
 31
0.0
  0
LINE
  5
257
  8
0
 10
275.43981742063011
 20
120.3739092094537
 30
0.0
 11
275.43981742063011
 21
110.6739092094537
 31
0.0
  0
LINE
  5
258
  8
0
 10
275.43981742063011
 20
127.6739092094537
 30
0.0
 11
275.43981742063011
 21
120.3739092094537
 31
0.0
  0
LINE
  5
259
  8
0
 10
275.43981742063011
 20
189.67390920945371
 30
0.0
 11
275.43981742063011
 21
127.6739092094537
 31
0.0
  0
LINE
  5
25A
  8
0
 10
275.43981742063011
 20
196.97390920945369
 30
0.0
 11
275.43981742063011
 21
189.67390920945371
 31
0.0
  0
LINE
  5
25B
  8
0
 10
275.43981742063011
 20
206.67390920945371
 30
0.0
 11
275.43981742063011
 21
196.97390920945369
 31
0.0
  0
LINE
  5
25C
  8
0
 10
275.43981742063011
 20
206.67390920945371
 30
0.0
 11
275.43981742063011
 21
207.67390920945371
 31
0.0
  0
LINE
  5
25D
  8
0
 10
183.43981742063011
 20
109.6739092094537
 30
0.0
 11
275.43981742063011
 21
109.6739092094537
 31
0.0
  0
LINE
  5
25E
  8
0
 10
275.43981742063011
 20
207.67390920945371
 30
0.0
 11
183.43981742063011
 21
207.67390920945371
 31
0.0
  0
CIRCLE
  5
25F
  8
0
 10
253.43981742063011
 20
158.67390920945371
 30
0.0
 40
3.399999999999999
  0
CIRCLE
  5
260
  8
0
 10
-253.43981742063011
 20
158.67390920945371
 30
0.0
 40
5.5
210
0.0
220
0.0
230
-1.0
  0
CIRCLE
  5
261
  8
0
 10
213.43981742062999
 20
158.67390920945371
 30
0.0
 40
3.399999999999999
  0
CIRCLE
  5
262
  8
0
 10
-213.43981742062999
 20
158.67390920945371
 30
0.0
 40
5.5
210
0.0
220
0.0
230
-1.0
  0
LINE
  5
263
  8
0
 10
162.91481742062999
 20
183.2286841506178
 30
0.0000000000000284
 11
164.3898174206301
 21
180.67390920945371
 31
0.0000000000000284
  0
LINE
  5
264
  8
0
 10
159.96481742063011
 20
183.2286841506178
 30
0.0000000000000284
 11
162.91481742062999
 21
183.2286841506178
 31
0.0000000000000284
  0
LINE
  5
265
  8
0
 10
158.48981742063009
 20
180.67390920945371
 30
0.0000000000000284
 11
159.96481742063011
 21
183.2286841506178
 31
0.0000000000000284
  0
LINE
  5
266
  8
0
 10
159.96481742063011
 20
178.11913426828971
 30
0.0000000000000284
 11
158.48981742063009
 21
180.67390920945371
 31
0.0000000000000284
  0
LINE
  5
267
  8
0
 10
162.91481742062999
 20
178.11913426828971
 30
0.0000000000000284
 11
159.96481742063011
 21
178.11913426828971
 31
0.0000000000000284
  0
LINE
  5
268
  8
0
 10
164.3898174206301
 20
180.67390920945371
 30
0.0000000000000284
 11
162.9148174206301
 21
178.11913426828971
 31
0.0000000000000284
  0
CIRCLE
  5
269
  8
0
 10
-161.43981742063011
 20
180.67390920945371
 30
-0.0000000000000284
 40
4.0
210
0.0
220
0.0
230
-1.0
  0
LINE
  5
26A
  8
0
 10
169.43981742063011
 20
110.6739092094537
 30
0.0
 11
169.43981742063011
 21
206.67390920945371
 31
0.0
  0
LINE
  5
26B
  8
0
 10
169.43981742063011
 20
110.6739092094537
 30
0.0
 11
153.43981742063011
 21
110.6739092094537
 31
0.0
  0
LINE
  5
26C
  8
0
 10
153.43981742062999
 20
206.67390920945371
 30
0.0000000000000284
 11
153.43981742062999
 21
110.6739092094537
 31
0.0000000000000284
  0
LINE
  5
26D
  8
0
 10
169.43981742063011
 20
206.67390920945371
 30
0.0
 11
153.43981742063011
 21
206.67390920945371
 31
0.0
  0
CIRCLE
  5
26E
  8
0
 10
-161.43981742063011
 20
180.67390920945371
 30
-0.0000000000000284
 40
4.25
210
0.0
220
0.0
230
-1.0
  0
CIRCLE
  5
26F
  8
0
 10
-161.43981742062999
 20
121.1739092094537
 30
-0.0000000000000284
 40
2.1000000000000001
210
0.0
220
0.0
230
-1.0
  0
CIRCLE
  5
270
  8
0
 10
-161.43981742062999
 20
196.17390920945371
 30
-0.0000000000000284
 40
2.1000000000000001
210
0.0
220
0.0
230
-1.0
  0
LINE
  5
271
  8
0
 10
179.13584405806881
 20
165.17390920945371
 30
0.0
 11
182.7437907831914
 21
165.17390920945371
 31
0.0
  0
LINE
  5
272
  8
0
 10
179.13584405806881
 20
158.67390920945371
 30
0.0
 11
182.7437907831914
 21
158.67390920945371
 31
0.0
  0
POLYLINE
  5
273
  8
0
 66
     1
 10
0.0
 20
0.0
 30
0.0
  0
VERTEX
  5
762
  8
0
 10
178.555287474468
 20
165.17390920945371
 30
0.0
  0
VERTEX
  5
763
  8
0
 10
179.1358440580687
 20
165.17390920945371
 30
0.0
  0
SEQEND
  5
764
  8
0
  0
POLYLINE
  5
274
  8
0
 66
     1
 10
0.0
 20
0.0
 30
0.0
  0
VERTEX
  5
765
  8
0
 10
179.13584405806881
 20
165.17390920945371
 30
0.0
  0
VERTEX
  5
766
  8
0
 10
178.555287474468
 20
161.92390920945371
 30
0.0
  0
VERTEX
  5
767
  8
0
 10
179.13584405806881
 20
158.67390920945371
 30
0.0
  0
SEQEND
  5
768
  8
0
  0
POLYLINE
  5
275
  8
0
 66
     1
 10
0.0
 20
0.0
 30
0.0
  0
VERTEX
  5
769
  8
0
 10
179.13584405806881
 20
158.67390920945371
 30
0.0
  0
VERTEX
  5
76A
  8
0
 10
178.555287474468
 20
155.42390920945371
 30
0.0
  0
VERTEX
  5
76B
  8
0
 10
179.1358440580687
 20
152.17390920945371
 30
0.0
  0
SEQEND
  5
76C
  8
0
  0
POLYLINE
  5
276
  8
0
 66
     1
 10
0.0
 20
0.0
 30
0.0
  0
VERTEX
  5
76D
  8
0
 10
179.13584405806881
 20
152.17390920945371
 30
0.0
  0
VERTEX
  5
76E
  8
0
 10
178.555287474468
 20
152.17390920945371
 30
0.0
  0
SEQEND
  5
76F
  8
0
  0
LINE
  5
277
  8
0
 10
179.13584405806881
 20
152.17390920945371
 30
0.0
 11
182.7437907831914
 21
152.17390920945371
 31
0.0
  0
POLYLINE
  5
278
  8
0
 66
     1
 10
0.0
 20
0.0
 30
0.0
  0
VERTEX
  5
770
  8
0
 10
182.7437907831914
 20
158.67390920945371
 30
0.0
  0
VERTEX
  5
771
  8
0
 10
183.3243473667921
 20
161.9239092094538
 30
0.0
  0
VERTEX
  5
772
  8
0
 10
182.7437907831914
 20
165.17390920945371
 30
0.0
  0
SEQEND
  5
773
  8
0
  0
POLYLINE
  5
279
  8
0
 66
     1
 10
0.0
 20
0.0
 30
0.0
  0
VERTEX
  5
774
  8
0
 10
182.7437907831914
 20
165.17390920945371
 30
0.0
  0
VERTEX
  5
775
  8
0
 10
183.3243473667921
 20
165.17390920945371
 30
0.0
  0
SEQEND
  5
776
  8
0
  0
POLYLINE
  5
27A
  8
0
 66
     1
 10
0.0
 20
0.0
 30
0.0
  0
VERTEX
  5
777
  8
0
 10
183.3243473667921
 20
152.17390920945371
 30
0.0
  0
VERTEX
  5
778
  8
0
 10
182.7437907831914
 20
152.17390920945371
 30
0.0
  0
SEQEND
  5
779
  8
0
  0
POLYLINE
  5
27B
  8
0
 66
     1
 10
0.0
 20
0.0
 30
0.0
  0
VERTEX
  5
77A
  8
0
 10
182.7437907831914
 20
152.17390920945371
 30
0.0
  0
VERTEX
  5
77B
  8
0
 10
183.3243473667921
 20
155.42390920945371
 30
0.0
  0
VERTEX
  5
77C
  8
0
 10
182.7437907831914
 20
158.67390920945371
 30
0.0
  0
SEQEND
  5
77D
  8
0
  0
LINE
  5
27C
  8
0
 10
178.43981742063011
 20
164.97390920945369
 30
0.0
 11
178.43981742063011
 21
152.3739092094537
 31
0.0
  0
LINE
  5
27D
  8
0
 10
171.93981742063011
 20
161.271985420807
 30
0.0
 11
171.93981742063011
 21
165.67390920945371
 31
0.0
  0
LINE
  5
27E
  8
0
 10
172.43981742063011
 20
166.17390920945371
 30
0.0
 11
172.43981742063011
 21
162.41556659622771
 31
0.0
  0
LINE
  5
27F
  8
0
 10
170.93981742063011
 20
154.67390920945371
 30
0.0
 11
170.93981742063011
 21
158.6739092094538
 31
0.0
  0
LINE
  5
280
  8
0
 10
170.93981742063011
 20
158.67390920945371
 30
0.0
 11
170.93981742063011
 21
162.67390920945371
 31
0.0
  0
LINE
  5
281
  8
0
 10
171.93981742063011
 20
151.67390920945371
 30
0.0
 11
171.93981742063011
 21
156.0758329981004
 31
0.0
  0
LINE
  5
282
  8
0
 10
172.43981742063011
 20
154.9322518226798
 30
0.0
 11
172.43981742063011
 21
151.17390920945371
 31
0.0
  0
LINE
  5
283
  8
0
 10
176.43981742063011
 20
162.41556659622771
 30
0.0
 11
176.43981742063011
 21
166.17390920945371
 31
0.0
  0
LINE
  5
284
  8
0
 10
176.43981742063011
 20
151.17390920945371
 30
0.0
 11
176.43981742063011
 21
154.9322518226798
 31
0.0
  0
LINE
  5
285
  8
0
 10
176.93981742063011
 20
165.67390920945371
 30
0.0
 11
176.93981742063011
 21
161.271985420807
 31
0.0
  0
LINE
  5
286
  8
0
 10
176.93981742063011
 20
156.0758329981004
 30
0.0
 11
176.93981742063011
 21
151.67390920945371
 31
0.0
  0
LINE
  5
287
  8
0
 10
172.43981742063011
 20
162.41556659622771
 30
0.0
 11
176.43981742063011
 21
162.41556659622771
 31
0.0
  0
POLYLINE
  5
288
  8
0
 66
     1
 10
0.0
 20
0.0
 30
0.0
  0
VERTEX
  5
77E
  8
0
 10
176.43981742063011
 20
162.41556659622771
 30
0.0
  0
VERTEX
  5
77F
  8
0
 10
176.93981742063011
 20
161.271985420807
 30
0.0
  0
SEQEND
  5
780
  8
0
  0
LINE
  5
289
  8
0
 10
176.93981742063011
 20
161.271985420807
 30
0.0
 11
176.93981742063011
 21
156.0758329981004
 31
0.0
  0
POLYLINE
  5
28A
  8
0
 66
     1
 10
0.0
 20
0.0
 30
0.0
  0
VERTEX
  5
781
  8
0
 10
176.93981742063011
 20
156.0758329981004
 30
0.0
  0
VERTEX
  5
782
  8
0
 10
176.43981742063011
 20
154.9322518226798
 30
0.0
  0
SEQEND
  5
783
  8
0
  0
LINE
  5
28B
  8
0
 10
176.43981742063011
 20
154.9322518226798
 30
0.0
 11
172.43981742063011
 21
154.9322518226798
 31
0.0
  0
POLYLINE
  5
28C
  8
0
 66
     1
 10
0.0
 20
0.0
 30
0.0
  0
VERTEX
  5
784
  8
0
 10
172.43981742063011
 20
154.9322518226798
 30
0.0
  0
VERTEX
  5
785
  8
0
 10
171.93981742063011
 20
156.0758329981004
 30
0.0
  0
SEQEND
  5
786
  8
0
  0
LINE
  5
28D
  8
0
 10
171.93981742063011
 20
156.0758329981004
 30
0.0
 11
171.93981742063011
 21
161.271985420807
 31
0.0
  0
POLYLINE
  5
28E
  8
0
 66
     1
 10
0.0
 20
0.0
 30
0.0
  0
VERTEX
  5
787
  8
0
 10
171.93981742063011
 20
161.271985420807
 30
0.0
  0
VERTEX
  5
788
  8
0
 10
172.43981742063011
 20
162.41556659622771
 30
0.0
  0
SEQEND
  5
789
  8
0
  0
LINE
  5
28F
  8
0
 10
169.43981742063011
 20
172.67390920945371
 30
0.0
 11
183.43981742063011
 21
172.67390920945371
 31
0.0
  0
LINE
  5
290
  8
0
 10
183.43981742063011
 20
188.67390920945371
 30
0.0
 11
169.43981742063011
 21
188.67390920945371
 31
0.0
  0
LINE
  5
291
  8
0
 10
169.43981742063011
 20
128.67390920945371
 30
0.0
 11
183.43981742063011
 21
128.67390920945371
 31
0.0
  0
LINE
  5
292
  8
0
 10
183.43981742063011
 20
144.67390920945371
 30
0.0
 11
169.43981742063011
 21
144.67390920945371
 31
0.0
  0
LINE
  5
293
  8
0
 10
176.43981742063011
 20
151.17390920945371
 30
0.0
 11
176.93981742063011
 21
151.67390920945371
 31
0.0
  0
LINE
  5
294
  8
0
 10
176.93981742063011
 20
165.67390920945371
 30
0.0
 11
176.43981742063011
 21
166.17390920945371
 31
0.0
  0
LINE
  5
295
  8
0
 10
172.43981742063011
 20
151.17390920945371
 30
0.0
 11
176.43981742063011
 21
151.17390920945371
 31
0.0
  0
LINE
  5
296
  8
0
 10
171.93981742063011
 20
151.67390920945371
 30
0.0
 11
172.43981742063011
 21
151.17390920945371
 31
0.0
  0
ARC
  5
297
  8
0
 10
171.43981742063011
 20
162.67390920945371
 30
0.0
 40
0.5
 50
90.0
 51
180.0
  0
ARC
  5
298
  8
0
 10
171.43981742063011
 20
154.67390920945371
 30
0.0
 40
0.5
 50
180.0
 51
270.0
  0
LINE
  5
299
  8
0
 10
171.93981742063011
 20
163.17390920945371
 30
0.0
 11
171.43981742063011
 21
163.17390920945371
 31
0.0
  0
LINE
  5
29A
  8
0
 10
171.43981742063011
 20
154.17390920945371
 30
0.0
 11
171.93981742063011
 21
154.17390920945371
 31
0.0
  0
LINE
  5
29B
  8
0
 10
172.43981742063011
 20
166.17390920945371
 30
0.0
 11
171.93981742063011
 21
165.67390920945371
 31
0.0
  0
LINE
  5
29C
  8
0
 10
176.43981742063011
 20
166.17390920945371
 30
0.0
 11
172.43981742063011
 21
166.17390920945371
 31
0.0
  0
LINE
  5
29D
  8
0
 10
176.93981742063011
 20
154.67390920945371
 30
0.0
 11
178.43981742063011
 21
154.67390920945371
 31
0.0
  0
LINE
  5
29E
  8
0
 10
178.43981742063011
 20
162.67390920945371
 30
0.0
 11
176.93981742063011
 21
162.67390920945371
 31
0.0
  0
LINE
  5
29F
  8
0
 10
183.32434736679221
 20
152.17390920945371
 30
0.0
 11
183.43981742063011
 21
152.3739092094537
 31
0.0
  0
LINE
  5
2A0
  8
0
 10
183.43981742063011
 20
164.97390920945369
 30
0.0
 11
183.3243473667921
 21
165.17390920945371
 31
0.0
  0
LINE
  5
2A1
  8
0
 10
178.43981742063011
 20
152.3739092094537
 30
0.0
 11
178.555287474468
 21
152.17390920945371
 31
0.0
  0
LINE
  5
2A2
  8
0
 10
178.555287474468
 20
165.17390920945371
 30
0.0
 11
178.43981742063011
 21
164.97390920945369
 31
0.0
  0
LINE
  5
2A4
  8
0
 10
387.97129452246742
 20
188.27390920945371
 30
-0.0000000000000036
 11
387.97129452246742
 21
191.97390920945369
 31
-0.0000000000000036
  0
LINE
  5
2A5
  8
0
 10
388.27129452246737
 20
187.67390920945371
 30
-0.0000000000000036
 11
387.97129452246742
 21
188.27390920945371
 31
-0.0000000000000036
  0
LINE
  5
2A6
  8
0
 10
388.27129452246737
 20
129.67390920945371
 30
-0.0000000000000036
 11
388.27129452246737
 21
187.67390920945371
 31
-0.0000000000000036
  0
LINE
  5
2A7
  8
0
 10
387.97129452246742
 20
129.07390920945369
 30
-0.0000000000000036
 11
388.27129452246737
 21
129.67390920945371
 31
-0.0000000000000036
  0
LINE
  5
2A8
  8
0
 10
387.97129452246742
 20
125.3739092094537
 30
-0.0000000000000018
 11
387.97129452246742
 21
129.07390920945369
 31
-0.0000000000000018
  0
LINE
  5
2A9
  8
0
 10
387.47129452246742
 20
125.3739092094537
 30
-0.0000000000000018
 11
387.97129452246742
 21
125.3739092094537
 31
-0.0000000000000018
  0
LINE
  5
2AA
  8
0
 10
386.97129452246742
 20
125.8239092094537
 30
-0.0000000000000036
 11
387.47129452246742
 21
125.3739092094537
 31
-0.0000000000000036
  0
LINE
  5
2AB
  8
0
 10
384.57129452246733
 20
125.8239092094537
 30
-0.0000000000000036
 11
386.9712945224673
 21
125.8239092094537
 31
-0.0000000000000036
  0
ARC
  5
2AC
  8
0
 10
-384.57129452246733
 20
124.1239092094537
 30
0.0000000000000018
 40
1.6999999999999991
210
0.0
220
0.0
230
-1.0
 50
0.0
 51
90.0
  0
LINE
  5
2AD
  8
0
 10
382.87129452246739
 20
123.22390920945369
 30
-0.0000000000000018
 11
382.87129452246739
 21
124.1239092094537
 31
-0.0000000000000018
  0
ARC
  5
2AE
  8
0
 10
-384.57129452246733
 20
123.22390920945369
 30
0.0000000000000018
 40
1.6999999999999991
210
0.0
220
0.0
230
-1.0
 50
270.0
 51
0.0
  0
LINE
  5
2AF
  8
0
 10
386.97129452246742
 20
121.52390920945371
 30
-0.0000000000000018
 11
384.57129452246733
 21
121.52390920945371
 31
-0.0000000000000018
  0
LINE
  5
2B0
  8
0
 10
387.47129452246742
 20
121.97390920945369
 30
-0.0000000000000018
 11
386.97129452246742
 21
121.52390920945371
 31
-0.0000000000000018
  0
LINE
  5
2B1
  8
0
 10
387.97129452246742
 20
121.97390920945369
 30
-0.0000000000000018
 11
387.47129452246742
 21
121.97390920945369
 31
-0.0000000000000018
  0
LINE
  5
2B2
  8
0
 10
387.97129452246742
 20
118.27390920945371
 30
-0.0000000000000018
 11
387.97129452246742
 21
121.97390920945369
 31
-0.0000000000000018
  0
LINE
  5
2B3
  8
0
 10
388.27129452246737
 20
117.6739092094537
 30
-0.0000000000000018
 11
387.97129452246747
 21
118.27390920945371
 31
-0.0000000000000018
  0
LINE
  5
2B4
  8
0
 10
388.27129452246737
 20
110.6739092094537
 30
0.0
 11
388.27129452246737
 21
117.6739092094537
 31
0.0
  0
LINE
  5
2B5
  8
0
 10
388.27129452246737
 20
110.6739092094537
 30
0.0
 11
387.27129452246737
 21
109.6739092094537
 31
0.0
  0
LINE
  5
2B6
  8
0
 10
351.27129452246737
 20
109.6739092094537
 30
0.0
 11
350.27129452246737
 21
110.6739092094537
 31
0.0
  0
LINE
  5
2B7
  8
0
 10
350.27129452246737
 20
120.3739092094538
 30
-0.0000000000000018
 11
350.27129452246737
 21
110.6739092094537
 31
-0.0000000000000018
  0
LINE
  5
2B8
  8
0
 10
352.07129452246738
 20
120.3739092094538
 30
-0.0000000000000018
 11
350.27129452246737
 21
120.3739092094538
 31
-0.0000000000000018
  0
LINE
  5
2B9
  8
0
 10
352.07129452246733
 20
118.6739092094537
 30
-0.0000000000000018
 11
352.07129452246733
 21
120.3739092094538
 31
-0.0000000000000018
  0
LINE
  5
2BA
  8
0
 10
353.27129452246737
 20
118.6739092094537
 30
-0.0000000000000018
 11
352.07129452246733
 21
118.6739092094537
 31
-0.0000000000000018
  0
LINE
  5
2BB
  8
0
 10
353.27129452246737
 20
127.6739092094537
 30
-0.0000000000000036
 11
353.27129452246737
 21
118.6739092094537
 31
-0.0000000000000036
  0
LINE
  5
2BC
  8
0
 10
350.27129452246737
 20
127.6739092094537
 30
-0.0000000000000036
 11
353.27129452246737
 21
127.6739092094537
 31
-0.0000000000000036
  0
LINE
  5
2BD
  8
0
 10
350.27129452246737
 20
189.67390920945371
 30
-0.0000000000000036
 11
350.27129452246737
 21
127.6739092094537
 31
-0.0000000000000036
  0
LINE
  5
2BE
  8
0
 10
353.27129452246737
 20
189.67390920945371
 30
-0.0000000000000036
 11
350.27129452246737
 21
189.67390920945371
 31
-0.0000000000000036
  0
LINE
  5
2BF
  8
0
 10
353.27129452246737
 20
198.67390920945371
 30
-0.0000000000000053
 11
353.27129452246737
 21
189.67390920945371
 31
-0.0000000000000053
  0
LINE
  5
2C0
  8
0
 10
352.07129452246738
 20
198.67390920945371
 30
-0.0000000000000053
 11
353.27129452246737
 21
198.67390920945371
 31
-0.0000000000000053
  0
LINE
  5
2C1
  8
0
 10
352.07129452246738
 20
196.97390920945369
 30
-0.0000000000000036
 11
352.07129452246738
 21
198.67390920945371
 31
-0.0000000000000036
  0
LINE
  5
2C2
  8
0
 10
350.27129452246737
 20
196.97390920945369
 30
-0.0000000000000036
 11
352.07129452246738
 21
196.97390920945369
 31
-0.0000000000000036
  0
LINE
  5
2C3
  8
0
 10
350.27129452246737
 20
206.67390920945371
 30
-0.0000000000000053
 11
350.27129452246737
 21
196.97390920945369
 31
-0.0000000000000053
  0
LINE
  5
2C4
  8
0
 10
350.27129452246737
 20
206.67390920945371
 30
-0.0000000000000053
 11
351.27129452246737
 21
207.67390920945371
 31
-0.0000000000000053
  0
LINE
  5
2C5
  8
0
 10
387.27129452246737
 20
207.67390920945371
 30
-0.0000000000000053
 11
388.27129452246737
 21
206.67390920945371
 31
-0.0000000000000053
  0
LINE
  5
2C6
  8
0
 10
388.27129452246737
 20
199.67390920945371
 30
-0.0000000000000053
 11
388.27129452246737
 21
206.67390920945371
 31
-0.0000000000000053
  0
LINE
  5
2C7
  8
0
 10
387.97129452246742
 20
199.07390920945369
 30
0.0000000000000018
 11
388.27129452246737
 21
199.67390920945371
 31
0.0000000000000018
  0
LINE
  5
2C8
  8
0
 10
387.97129452246742
 20
195.3739092094537
 30
-0.0000000000000036
 11
387.97129452246742
 21
199.07390920945369
 31
-0.0000000000000036
  0
LINE
  5
2C9
  8
0
 10
387.47129452246742
 20
195.3739092094537
 30
-0.0000000000000036
 11
387.97129452246742
 21
195.3739092094537
 31
-0.0000000000000036
  0
LINE
  5
2CA
  8
0
 10
386.97129452246742
 20
195.82390920945369
 30
-0.0000000000000036
 11
387.47129452246742
 21
195.3739092094537
 31
-0.0000000000000036
  0
LINE
  5
2CB
  8
0
 10
384.57129452246733
 20
195.82390920945369
 30
-0.0000000000000036
 11
386.9712945224673
 21
195.82390920945369
 31
-0.0000000000000036
  0
ARC
  5
2CC
  8
0
 10
-384.57129452246733
 20
194.1239092094537
 30
0.0000000000000036
 40
1.6999999999999991
210
0.0
220
0.0
230
-1.0
 50
0.0
 51
90.0
  0
LINE
  5
2CD
  8
0
 10
382.87129452246739
 20
193.22390920945369
 30
-0.0000000000000036
 11
382.87129452246739
 21
194.1239092094537
 31
-0.0000000000000036
  0
ARC
  5
2CE
  8
0
 10
-384.57129452246733
 20
193.22390920945369
 30
0.0000000000000036
 40
1.6999999999999991
210
0.0
220
0.0
230
-1.0
 50
270.0
 51
0.0
  0
LINE
  5
2CF
  8
0
 10
386.97129452246742
 20
191.52390920945371
 30
-0.0000000000000036
 11
384.57129452246733
 21
191.52390920945371
 31
-0.0000000000000036
  0
LINE
  5
2D0
  8
0
 10
387.97129452246742
 20
191.97390920945369
 30
-0.0000000000000036
 11
387.47129452246742
 21
191.97390920945369
 31
-0.0000000000000036
  0
LINE
  5
2D1
  8
0
 10
387.47129452246742
 20
191.97390920945369
 30
-0.0000000000000036
 11
386.97129452246742
 21
191.52390920945371
 31
-0.0000000000000036
  0
CIRCLE
  5
2D2
  8
0
 10
-369.27129452246737
 20
136.67390920945371
 30
0.0
 40
17.0
210
0.0
220
0.0
230
-1.0
  0
CIRCLE
  5
2D3
  8
0
 10
-369.27129452246737
 20
180.67390920945371
 30
0.0000000000000053
 40
17.0
210
0.0
220
0.0
230
-1.0
  0
LINE
  5
2D4
  8
0
 10
351.27129452246737
 20
109.6739092094537
 30
0.0
 11
387.27129452246737
 21
109.6739092094537
 31
0.0
  0
LINE
  5
2D5
  8
0
 10
387.27129452246737
 20
207.67390920945371
 30
-0.0000000000000053
 11
351.27129452246737
 21
207.67390920945371
 31
-0.0000000000000053
  0
LINE
  5
2D6
  8
0
 10
351.27129452246737
 20
120.3739092094537
 30
-0.0000000000000018
 11
351.27129452246737
 21
127.6739092094537
 31
-0.0000000000000018
  0
LINE
  5
2D7
  8
0
 10
351.27129452246737
 20
189.67390920945371
 30
0.0000000000000036
 11
351.27129452246737
 21
196.97390920945369
 31
0.0000000000000036
  0
LINE
  5
2D8
  8
0
 10
387.27129452246737
 20
195.55390920945371
 30
0.0000000000000036
 11
387.27129452246737
 21
191.79390920945369
 31
0.0000000000000036
  0
LINE
  5
2D9
  8
0
 10
387.27129452246737
 20
125.55390920945371
 30
0.0000000000000053
 11
387.27129452246737
 21
121.7939092094537
 31
0.0000000000000053
  0
POLYLINE
  5
2DA
  8
0
 66
     1
 10
0.0
 20
0.0
 30
0.0
  0
VERTEX
  5
78A
  8
0
 10
388.27129452831031
 20
158.6835281425669
 30
0.0
  0
VERTEX
  5
78B
  8
0
 10
388.27684802193249
 20
158.67390920945371
 30
0.0
  0
SEQEND
  5
78C
  8
0
  0
POLYLINE
  5
2DB
  8
0
 66
     1
 10
0.0
 20
0.0
 30
0.0
  0
VERTEX
  5
78D
  8
0
 10
388.27684802193249
 20
158.67390920945371
 30
0.0
  0
VERTEX
  5
78E
  8
0
 10
388.27129452275619
 20
158.6642902667204
 30
0.0
  0
SEQEND
  5
78F
  8
0
  0
CIRCLE
  5
2DC
  8
0
 10
-369.27129452246737
 20
180.67390920945371
 30
-0.0000000000000018
 40
16.800000000000011
210
0.0
220
0.0
230
-1.0
  0
CIRCLE
  5
2DD
  8
0
 10
-369.27129452246737
 20
136.67390920945371
 30
-0.0000000000000071
 40
16.800000000000011
210
0.0
220
0.0
230
-1.0
  0
LINE
  5
2DF
  8
0
 10
275.43981742063011
 20
68.823266627306324
 30
0.0
 11
183.43981742063011
 21
68.823266627306353
 31
0.0
  0
LINE
  5
2E0
  8
0
 10
183.43981742063011
 20
68.823266627306324
 30
0.0
 11
183.43981742063011
 21
67.823266627306339
 31
0.0
  0
LINE
  5
2E1
  8
0
 10
183.43981742063011
 20
31.823266627306339
 30
0.0
 11
183.43981742063011
 21
30.823266627306339
 31
0.0
  0
LINE
  5
2E2
  8
0
 10
183.43981742063011
 20
30.823266627306339
 30
0.0
 11
275.43981742063011
 21
30.82326662730631
 31
0.0
  0
LINE
  5
2E3
  8
0
 10
275.43981742063011
 20
30.823266627306339
 30
0.0
 11
275.43981742063011
 21
31.823266627306339
 31
0.0
  0
LINE
  5
2E4
  8
0
 10
275.43981742063011
 20
67.823266627306339
 30
0.0
 11
275.43981742063011
 21
68.823266627306324
 31
0.0
  0
CIRCLE
  5
2E5
  8
0
 10
265.43981742062999
 20
49.823266627306339
 30
0.0
 40
1.5
  0
CIRCLE
  5
2E6
  8
0
 10
239.43981742063011
 20
49.823266627306339
 30
0.0
 40
1.5
  0
CIRCLE
  5
2E7
  8
0
 10
-265.43981742062999
 20
49.823266627306339
 30
0.0
 40
4.1500000000000004
210
0.0
220
0.0
230
-1.0
  0
LINE
  5
2E8
  8
0
 10
275.43981742063011
 20
67.823266627306339
 30
0.0
 11
275.43981742063011
 21
31.823266627306339
 31
0.0
  0
LINE
  5
2E9
  8
0
 10
275.43981742063011
 20
31.823266627306339
 30
0.0
 11
183.43981742063011
 21
31.82326662730636
 31
0.0
  0
LINE
  5
2EA
  8
0
 10
183.43981742063011
 20
67.823266627306339
 30
0.0
 11
183.43981742063011
 21
31.823266627306339
 31
0.0
  0
LINE
  5
2EB
  8
0
 10
183.43981742063011
 20
67.823266627306339
 30
0.0
 11
275.43981742063011
 21
67.823266627306324
 31
0.0
  0
CIRCLE
  5
2EC
  8
0
 10
265.43981742062999
 20
49.823266627306339
 30
0.0
 40
4.6500000000000004
  0
CIRCLE
  5
2ED
  8
0
 10
239.43981742063011
 20
49.823266627306339
 30
0.0
 40
4.6500000000000004
  0
CIRCLE
  5
2EE
  8
0
 10
-239.43981742063011
 20
49.823266627306339
 30
0.0
 40
4.1500000000000004
210
0.0
220
0.0
230
-1.0
  0
CIRCLE
  5
2EF
  8
0
 10
-213.43981742062999
 20
39.823266627306332
 30
0.0
 40
2.1000000000000001
210
0.0
220
0.0
230
-1.0
  0
CIRCLE
  5
2F0
  8
0
 10
-253.43981742063011
 20
39.823266627306332
 30
0.0
 40
2.1000000000000001
210
0.0
220
0.0
230
-1.0
  0
CIRCLE
  5
2F1
  8
0
 10
-213.43981742062999
 20
59.823266627306339
 30
0.0
 40
2.1000000000000001
210
0.0
220
0.0
230
-1.0
  0
CIRCLE
  5
2F2
  8
0
 10
-253.43981742063011
 20
59.823266627306339
 30
0.0
 40
2.1000000000000001
210
0.0
220
0.0
230
-1.0
  0
LINE
  5
2F3
  8
0
 10
238.43981742063011
 20
50.57326662730631
 30
0.0
 11
238.43981742063011
 21
50.941300616056253
 31
0.0
  0
LINE
  5
2F4
  8
0
 10
238.43981742063011
 20
48.705232638556389
 30
0.0
 11
238.43981742063011
 21
49.07326662730631
 31
0.0
  0
POLYLINE
  5
2F5
  8
0
 66
     1
 10
0.0
 20
0.0
 30
0.0
  0
VERTEX
  5
790
  8
0
 10
238.43981742063011
 20
49.07326662730631
 30
0.0
  0
VERTEX
  5
791
  8
0
 10
238.1407793148685
 20
49.073266627306282
 30
0.0
  0
SEQEND
  5
792
  8
0
  0
POLYLINE
  5
2F6
  8
0
 66
     1
 10
0.0
 20
0.0
 30
0.0
  0
VERTEX
  5
793
  8
0
 10
238.1407793148685
 20
50.573266627306339
 30
0.0
  0
VERTEX
  5
794
  8
0
 10
238.43981742063011
 20
50.57326662730631
 30
0.0
  0
SEQEND
  5
795
  8
0
  0
LINE
  5
2F7
  8
0
 10
169.43981742063011
 20
31.823266627306339
 30
0.0
 11
169.43981742063011
 21
67.823266627306339
 31
0.0
  0
LINE
  5
2F8
  8
0
 10
153.43981742063011
 20
67.823266627306353
 30
0.0
 11
153.43981742063011
 21
31.82326662730636
 31
0.0
  0
LINE
  5
2F9
  8
0
 10
169.43981742063011
 20
67.823266627306339
 30
0.0
 11
153.43981742063011
 21
67.823266627306339
 31
0.0
  0
LINE
  5
2FA
  8
0
 10
169.43981742063011
 20
31.823266627306339
 30
0.0
 11
153.43981742063011
 21
31.823266627306339
 31
0.0
  0
POLYLINE
  5
2FB
  8
0
 66
     1
 10
0.0
 20
0.0
 30
0.0
  0
VERTEX
  5
796
  8
0
 10
179.06474800895739
 20
41.823266627454117
 30
0.0
  0
VERTEX
  5
797
  8
0
 10
178.55575780182869
 20
38.220354698321501
 30
0.0
  0
VERTEX
  5
798
  8
0
 10
179.1358440580687
 20
34.570489877573777
 30
0.0
  0
SEQEND
  5
799
  8
0
  0
POLYLINE
  5
2FC
  8
0
 66
     1
 10
0.0
 20
0.0
 30
0.0
  0
VERTEX
  5
79A
  8
0
 10
179.1358440580687
 20
34.570489877573777
 30
0.0
  0
VERTEX
  5
79B
  8
0
 10
178.555287474468
 20
32.694101502707468
 30
0.0
  0
VERTEX
  5
79C
  8
0
 10
179.1358440580687
 20
30.817713127841159
 30
0.0
  0
SEQEND
  5
79D
  8
0
  0
LINE
  5
2FD
  8
0
 10
179.1358440580687
 20
34.570489877573777
 30
0.0
 11
182.7437907831914
 21
34.570489877573777
 31
0.0
  0
LINE
  5
2FE
  8
0
 10
179.1358440580687
 20
30.817713127841209
 30
0.0
 11
182.7437907831914
 21
30.817713127841209
 31
0.0
  0
POLYLINE
  5
2FF
  8
0
 66
     1
 10
0.0
 20
0.0
 30
0.0
  0
VERTEX
  5
79E
  8
0
 10
182.7437907831914
 20
30.817713127841209
 30
0.0
  0
VERTEX
  5
79F
  8
0
 10
183.3243473667921
 20
32.694101502707433
 30
0.0
  0
VERTEX
  5
7A0
  8
0
 10
182.7437907831914
 20
34.570489877573777
 30
0.0
  0
SEQEND
  5
7A1
  8
0
  0
POLYLINE
  5
300
  8
0
 66
     1
 10
0.0
 20
0.0
 30
0.0
  0
VERTEX
  5
7A2
  8
0
 10
182.7437907831914
 20
34.570489877573777
 30
0.0
  0
VERTEX
  5
7A3
  8
0
 10
183.32387703943101
 20
38.220354698272409
 30
0.0
  0
VERTEX
  5
7A4
  8
0
 10
182.81488683233539
 20
41.823266627335073
 30
0.0
  0
SEQEND
  5
7A5
  8
0
  0
LINE
  5
301
  8
0
 10
178.43981742063011
 20
41.823266627306367
 30
0.0
 11
178.43981742063011
 21
32.02326662730632
 31
0.0
  0
LINE
  5
302
  8
0
 10
170.93981742063011
 20
34.323266627306282
 30
0.0
 11
170.93981742063011
 21
41.823266627306332
 31
0.0
  0
POLYLINE
  5
303
  8
0
 66
     1
 10
0.0
 20
0.0
 30
0.0
  0
VERTEX
  5
7A6
  8
0
 10
171.93981742063011
 20
31.823266627306278
 30
0.0
  0
VERTEX
  5
7A7
  8
0
 10
172.43981742063011
 20
31.823266627306278
 30
0.0
  0
SEQEND
  5
7A8
  8
0
  0
LINE
  5
304
  8
0
 10
171.93981742063011
 20
31.823266627306278
 30
0.0
 11
171.93981742063011
 21
41.823266627306332
 31
0.0
  0
LINE
  5
305
  8
0
 10
172.43981742063011
 20
31.823266627306278
 30
0.0
 11
176.43981742063011
 21
31.823266627306278
 31
0.0
  0
LINE
  5
306
  8
0
 10
172.43981742063011
 20
41.823266627306332
 30
0.0
 11
172.43981742063011
 21
31.823266627306278
 31
0.0
  0
POLYLINE
  5
307
  8
0
 66
     1
 10
0.0
 20
0.0
 30
0.0
  0
VERTEX
  5
7A9
  8
0
 10
176.43981742063011
 20
31.823266627306278
 30
0.0
  0
VERTEX
  5
7AA
  8
0
 10
176.93981742063011
 20
31.823266627306278
 30
0.0
  0
SEQEND
  5
7AB
  8
0
  0
LINE
  5
308
  8
0
 10
176.43981742063011
 20
31.823266627306278
 30
0.0
 11
176.43981742063011
 21
41.823266627306332
 31
0.0
  0
LINE
  5
309
  8
0
 10
176.93981742063011
 20
41.823266627306332
 30
0.0
 11
176.93981742063011
 21
31.823266627306278
 31
0.0
  0
LINE
  5
30A
  8
0
 10
264.93981742063011
 20
48.409053064933111
 30
0.0
 11
264.93981742063011
 21
49.823266627306339
 31
0.0
  0
LINE
  5
30B
  8
0
 10
264.93981742063011
 20
49.823266627306133
 30
0.0
 11
264.93981742063011
 21
51.23748018967953
 31
0.0
  0
LINE
  5
30C
  8
0
 10
265.43981742062999
 20
48.32326662730577
 30
0.0
 11
265.43981742062999
 21
49.823266627306197
 31
0.0
  0
LINE
  5
30D
  8
0
 10
265.43981742062999
 20
49.823266627305969
 30
0.0
 11
265.43981742062999
 21
51.323266627306879
 31
0.0
  0
LINE
  5
30E
  8
0
 10
266.43981742063011
 20
50.941300616056388
 30
0.0
 11
266.43981742063011
 21
49.823266627305969
 31
0.0
  0
LINE
  5
30F
  8
0
 10
266.43981742063011
 20
49.823266627306197
 30
0.0
 11
266.43981742063011
 21
48.705232638556282
 31
0.0
  0
LINE
  5
310
  8
0
 10
169.43981742063011
 20
41.823266627306332
 30
0.0
 11
183.43981742063011
 21
41.823266627306332
 31
0.0
  0
LINE
  5
311
  8
0
 10
183.43981742063011
 20
57.823266627306339
 30
0.0
 11
169.43981742063011
 21
57.823266627306339
 31
0.0
  0
ARC
  5
312
  8
0
 10
171.43981742063011
 20
34.323266627306282
 30
0.0
 40
0.5
 50
180.0
 51
270.0
  0
LINE
  5
313
  8
0
 10
171.43981742063011
 20
33.823266627306282
 30
0.0
 11
171.93981742063011
 21
33.823266627306282
 31
0.0
  0
LINE
  5
314
  8
0
 10
176.93981742063011
 20
34.323266627306282
 30
0.0
 11
178.43981742063011
 21
34.323266627306282
 31
0.0
  0
LINE
  5
315
  8
0
 10
182.7437907831914
 20
30.817713127841209
 30
0.0
 11
183.43981742063011
 21
32.02326662730632
 31
0.0
  0
LINE
  5
316
  8
0
 10
178.43981742063011
 20
32.02326662730632
 30
0.0
 11
179.1358440580687
 21
30.817713127841209
 31
0.0
  0
LINE
  5
318
  8
0
 10
183.43981742063011
 20
-105.5150447137753
 30
0.0
 11
183.43981742063011
 21
-106.5150447137753
 31
0.0
  0
LINE
  5
319
  8
0
 10
183.43981742063011
 20
-8.5150447137752963
 30
0.0
 11
183.43981742063011
 21
-9.5150447137752963
 31
0.0
  0
LINE
  5
31A
  8
0
 10
183.43981742063011
 20
-9.5150447137752963
 30
0.0
 11
183.43981742063011
 21
-16.515044713775278
 31
0.0
  0
LINE
  5
31B
  8
0
 10
183.43981742063011
 20
-9.5150447137752963
 30
0.0
 11
275.43981742063011
 21
-9.5150447137753051
 31
0.0
  0
LINE
  5
31C
  8
0
 10
183.43981742063011
 20
-28.515044713775278
 30
0.0
 11
183.43981742063011
 21
-86.515044713775296
 31
0.0
  0
LINE
  5
31D
  8
0
 10
183.43981742063011
 20
-20.815044713775269
 30
0.0
 11
183.43981742063011
 21
-17.115044713775269
 31
0.0
  0
LINE
  5
31E
  8
0
 10
183.43981742063011
 20
-17.115044713775269
 30
0.0
 11
275.43981742063011
 21
-17.11504471377528
 31
0.0
  0
LINE
  5
31F
  8
0
 10
183.43981742063011
 20
-17.115044713775269
 30
0.0
 11
183.43981742063011
 21
-16.515044713775278
 31
0.0
  0
LINE
  5
320
  8
0
 10
183.43981742063011
 20
-16.515044713775261
 30
0.0
 11
275.43981742063011
 21
-16.515044713775278
 31
0.0
  0
LINE
  5
321
  8
0
 10
275.43981742063011
 20
-28.515044713775321
 30
0.0
 11
183.43981742063011
 21
-28.51504471377531
 31
0.0
  0
LINE
  5
322
  8
0
 10
183.43981742063011
 20
-28.515044713775289
 30
0.0
 11
183.43981742063011
 21
-27.91504471377527
 31
0.0
  0
LINE
  5
323
  8
0
 10
183.43981742063011
 20
-27.91504471377527
 30
0.0
 11
275.43981742063011
 21
-27.915044713775281
 31
0.0
  0
LINE
  5
324
  8
0
 10
183.43981742063011
 20
-27.91504471377527
 30
0.0
 11
183.43981742063011
 21
-24.215044713775281
 31
0.0
  0
LINE
  5
325
  8
0
 10
183.43981742063011
 20
-24.215044713775281
 30
0.0
 11
275.43981742063011
 21
-24.215044713775288
 31
0.0
  0
LINE
  5
326
  8
0
 10
183.43981742063011
 20
-22.965044713775271
 30
0.0
 11
183.43981742063011
 21
-22.06504471377529
 31
0.0
  0
LINE
  5
327
  8
0
 10
183.43981742063011
 20
-22.06504471377529
 30
0.0
 11
183.43981742063011
 21
-20.815044713775269
 31
0.0
  0
LINE
  5
328
  8
0
 10
183.43981742063011
 20
-24.215044713775271
 30
0.0
 11
183.43981742063011
 21
-22.965044713775271
 31
0.0
  0
LINE
  5
329
  8
0
 10
183.43981742063011
 20
-20.815044713775269
 30
0.0
 11
275.43981742063011
 21
-20.81504471377529
 31
0.0
  0
LINE
  5
32A
  8
0
 10
275.43981742063011
 20
-105.5150447137753
 30
0.0
 11
183.43981742063011
 21
-105.5150447137752
 31
0.0
  0
LINE
  5
32B
  8
0
 10
183.43981742063011
 20
-98.51504471377531
 30
0.0
 11
183.43981742063011
 21
-105.5150447137753
 31
0.0
  0
LINE
  5
32C
  8
0
 10
183.43981742063011
 20
-90.815044713775265
 30
0.0
 11
183.43981742063011
 21
-87.115044713775276
 31
0.0
  0
LINE
  5
32D
  8
0
 10
183.43981742063011
 20
-87.115044713775276
 30
0.0
 11
275.43981742063011
 21
-87.115044713775305
 31
0.0
  0
LINE
  5
32E
  8
0
 10
183.43981742063011
 20
-87.115044713775276
 30
0.0
 11
183.43981742063011
 21
-86.515044713775296
 31
0.0
  0
LINE
  5
32F
  8
0
 10
183.43981742063011
 20
-86.515044713775239
 30
0.0
 11
275.43981742063011
 21
-86.515044713775254
 31
0.0
  0
LINE
  5
330
  8
0
 10
275.43981742063011
 20
-98.515044713775325
 30
0.0
 11
183.43981742063011
 21
-98.51504471377531
 31
0.0
  0
LINE
  5
331
  8
0
 10
183.43981742063011
 20
-98.51504471377531
 30
0.0
 11
183.43981742063011
 21
-97.915044713775274
 31
0.0
  0
LINE
  5
332
  8
0
 10
183.43981742063011
 20
-97.915044713775274
 30
0.0
 11
275.43981742063011
 21
-97.915044713775274
 31
0.0
  0
LINE
  5
333
  8
0
 10
183.43981742063011
 20
-97.915044713775274
 30
0.0
 11
183.43981742063011
 21
-94.215044713775285
 31
0.0
  0
LINE
  5
334
  8
0
 10
183.43981742063011
 20
-94.215044713775285
 30
0.0
 11
275.43981742063011
 21
-94.215044713775285
 31
0.0
  0
LINE
  5
335
  8
0
 10
183.43981742063011
 20
-92.965044713775285
 30
0.0
 11
183.43981742063011
 21
-92.065044713775265
 31
0.0
  0
LINE
  5
336
  8
0
 10
183.43981742063011
 20
-92.065044713775265
 30
0.0
 11
183.43981742063011
 21
-90.815044713775265
 31
0.0
  0
LINE
  5
337
  8
0
 10
183.43981742063011
 20
-94.215044713775285
 30
0.0
 11
183.43981742063011
 21
-92.965044713775285
 31
0.0
  0
LINE
  5
338
  8
0
 10
275.43981742063011
 20
-87.115044713775276
 30
0.0
 11
275.43981742063011
 21
-90.815044713775265
 31
0.0
  0
LINE
  5
339
  8
0
 10
275.43981742063011
 20
-86.515044713775296
 30
0.0
 11
275.43981742063011
 21
-87.115044713775276
 31
0.0
  0
LINE
  5
33A
  8
0
 10
275.43981742063011
 20
-28.515044713775278
 30
0.0
 11
275.43981742063011
 21
-86.515044713775296
 31
0.0
  0
LINE
  5
33B
  8
0
 10
275.43981742063011
 20
-27.91504471377527
 30
0.0
 11
275.43981742063011
 21
-28.515044713775278
 31
0.0
  0
LINE
  5
33C
  8
0
 10
275.43981742063011
 20
-24.215044713775281
 30
0.0
 11
275.43981742063011
 21
-27.91504471377527
 31
0.0
  0
LINE
  5
33D
  8
0
 10
275.43981742063011
 20
-22.965044713775271
 30
0.0
 11
275.43981742063011
 21
-24.215044713775281
 31
0.0
  0
LINE
  5
33E
  8
0
 10
275.43981742063011
 20
-22.06504471377529
 30
0.0
 11
275.43981742063011
 21
-22.965044713775271
 31
0.0
  0
LINE
  5
33F
  8
0
 10
275.43981742063011
 20
-20.815044713775269
 30
0.0
 11
275.43981742063011
 21
-22.06504471377529
 31
0.0
  0
LINE
  5
340
  8
0
 10
275.43981742063011
 20
-17.115044713775269
 30
0.0
 11
275.43981742063011
 21
-20.815044713775269
 31
0.0
  0
LINE
  5
341
  8
0
 10
275.43981742063011
 20
-16.515044713775278
 30
0.0
 11
275.43981742063011
 21
-17.115044713775291
 31
0.0
  0
LINE
  5
342
  8
0
 10
275.43981742063011
 20
-9.5150447137752963
 30
0.0
 11
275.43981742063011
 21
-16.515044713775278
 31
0.0
  0
LINE
  5
343
  8
0
 10
275.43981742063011
 20
-9.5150447137752963
 30
0.0
 11
275.43981742063011
 21
-8.5150447137752963
 31
0.0
  0
LINE
  5
344
  8
0
 10
275.43981742063011
 20
-106.5150447137753
 30
0.0
 11
275.43981742063011
 21
-105.5150447137753
 31
0.0
  0
LINE
  5
345
  8
0
 10
275.43981742063011
 20
-98.51504471377531
 30
0.0
 11
275.43981742063011
 21
-105.5150447137753
 31
0.0
  0
LINE
  5
346
  8
0
 10
275.43981742063011
 20
-97.915044713775274
 30
0.0
 11
275.43981742063011
 21
-98.51504471377531
 31
0.0
  0
LINE
  5
347
  8
0
 10
275.43981742063011
 20
-94.215044713775285
 30
0.0
 11
275.43981742063011
 21
-97.915044713775274
 31
0.0
  0
LINE
  5
348
  8
0
 10
275.43981742063011
 20
-92.965044713775285
 30
0.0
 11
275.43981742063011
 21
-94.215044713775285
 31
0.0
  0
LINE
  5
349
  8
0
 10
275.43981742063011
 20
-92.065044713775265
 30
0.0
 11
275.43981742063011
 21
-92.965044713775285
 31
0.0
  0
LINE
  5
34A
  8
0
 10
275.43981742063011
 20
-90.815044713775265
 30
0.0
 11
275.43981742063011
 21
-92.065044713775265
 31
0.0
  0
LINE
  5
34B
  8
0
 10
183.43981742063011
 20
-90.815044713775265
 30
0.0
 11
275.43981742063011
 21
-90.815044713775293
 31
0.0
  0
LINE
  5
34C
  8
0
 10
275.43981742063011
 20
-8.5150447137752963
 30
0.0
 11
183.43981742063011
 21
-8.5150447137752856
 31
0.0
  0
LINE
  5
34D
  8
0
 10
183.43981742063011
 20
-106.5150447137753
 30
0.0
 11
275.43981742063011
 21
-106.5150447137753
 31
0.0
  0
CIRCLE
  5
34E
  8
0
 10
253.43981742063011
 20
-57.515044713775289
 30
0.0
 40
3.399999999999999
  0
CIRCLE
  5
34F
  8
0
 10
-253.43981742063011
 20
-57.515044713775289
 30
0.0
 40
5.5
210
0.0
220
0.0
230
-1.0
  0
CIRCLE
  5
350
  8
0
 10
213.43981742062999
 20
-57.515044713775289
 30
0.0
 40
3.399999999999999
  0
CIRCLE
  5
351
  8
0
 10
-213.43981742062999
 20
-57.515044713775289
 30
0.0
 40
5.5
210
0.0
220
0.0
230
-1.0
  0
LINE
  5
352
  8
0
 10
169.43981742063011
 20
-9.5150447137752963
 30
0.0
 11
153.43981742063011
 21
-9.5150447137752945
 31
0.0
  0
LINE
  5
353
  8
0
 10
169.43981742063011
 20
-105.5150447137753
 30
0.0
 11
169.43981742063011
 21
-9.5150447137753105
 31
0.0
  0
LINE
  5
354
  8
0
 10
169.43981742063011
 20
-105.5150447137753
 30
0.0
 11
153.43981742063011
 21
-105.5150447137753
 31
0.0
  0
LINE
  5
355
  8
0
 10
153.43981742063011
 20
-9.5150447137752963
 30
-0.0000000000000284
 11
153.43981742063011
 21
-105.5150447137752
 31
-0.0000000000000284
  0
CIRCLE
  5
356
  8
0
 10
-161.43981742063011
 20
-95.015044713775296
 30
0.0000000000000284
 40
2.1000000000000001
210
0.0
220
0.0
230
-1.0
  0
CIRCLE
  5
357
  8
0
 10
-161.43981742063011
 20
-20.015044713775289
 30
0.0000000000000284
 40
2.1000000000000001
210
0.0
220
0.0
230
-1.0
  0
POLYLINE
  5
358
  8
0
 66
     1
 10
0.0
 20
0.0
 30
0.0
  0
VERTEX
  5
7AC
  8
0
 10
179.1358440580687
 20
-64.015044713775296
 30
0.0
  0
VERTEX
  5
7AD
  8
0
 10
178.555287474468
 20
-64.015044713775325
 30
0.0
  0
SEQEND
  5
7AE
  8
0
  0
POLYLINE
  5
359
  8
0
 66
     1
 10
0.0
 20
0.0
 30
0.0
  0
VERTEX
  5
7AF
  8
0
 10
178.555287474468
 20
-51.015044713775303
 30
0.0
  0
VERTEX
  5
7B0
  8
0
 10
179.1358440580687
 20
-51.015044713775303
 30
0.0
  0
SEQEND
  5
7B1
  8
0
  0
POLYLINE
  5
35A
  8
0
 66
     1
 10
0.0
 20
0.0
 30
0.0
  0
VERTEX
  5
7B2
  8
0
 10
179.1358440580687
 20
-51.015044713775303
 30
0.0
  0
VERTEX
  5
7B3
  8
0
 10
178.555287474468
 20
-54.265044713775303
 30
0.0
  0
VERTEX
  5
7B4
  8
0
 10
179.1358440580687
 20
-57.515044713775289
 30
0.0
  0
SEQEND
  5
7B5
  8
0
  0
LINE
  5
35B
  8
0
 10
179.1358440580687
 20
-51.015044713775303
 30
0.0
 11
182.7437907831914
 21
-51.015044713775303
 31
0.0
  0
LINE
  5
35C
  8
0
 10
179.1358440580687
 20
-64.015044713775296
 30
0.0
 11
182.7437907831914
 21
-64.015044713775296
 31
0.0
  0
POLYLINE
  5
35D
  8
0
 66
     1
 10
0.0
 20
0.0
 30
0.0
  0
VERTEX
  5
7B6
  8
0
 10
179.1358440580687
 20
-57.515044713775289
 30
0.0
  0
VERTEX
  5
7B7
  8
0
 10
178.555287474468
 20
-60.765044713775289
 30
0.0
  0
VERTEX
  5
7B8
  8
0
 10
179.1358440580687
 20
-64.015044713775296
 30
0.0
  0
SEQEND
  5
7B9
  8
0
  0
LINE
  5
35E
  8
0
 10
179.1358440580687
 20
-57.515044713775289
 30
0.0
 11
182.7437907831914
 21
-57.515044713775289
 31
0.0
  0
POLYLINE
  5
35F
  8
0
 66
     1
 10
0.0
 20
0.0
 30
0.0
  0
VERTEX
  5
7BA
  8
0
 10
183.3243473667921
 20
-64.015044713775296
 30
0.0
  0
VERTEX
  5
7BB
  8
0
 10
182.7437907831914
 20
-64.015044713775296
 30
0.0
  0
SEQEND
  5
7BC
  8
0
  0
POLYLINE
  5
360
  8
0
 66
     1
 10
0.0
 20
0.0
 30
0.0
  0
VERTEX
  5
7BD
  8
0
 10
182.7437907831914
 20
-64.015044713775296
 30
0.0
  0
VERTEX
  5
7BE
  8
0
 10
183.3243473667921
 20
-60.765044713775318
 30
0.0
  0
VERTEX
  5
7BF
  8
0
 10
182.7437907831914
 20
-57.515044713775332
 30
0.0
  0
SEQEND
  5
7C0
  8
0
  0
POLYLINE
  5
361
  8
0
 66
     1
 10
0.0
 20
0.0
 30
0.0
  0
VERTEX
  5
7C1
  8
0
 10
182.7437907831914
 20
-57.515044713775289
 30
0.0
  0
VERTEX
  5
7C2
  8
0
 10
183.3243473667921
 20
-54.265044713775303
 30
0.0
  0
VERTEX
  5
7C3
  8
0
 10
182.7437907831914
 20
-51.015044713775303
 30
0.0
  0
SEQEND
  5
7C4
  8
0
  0
POLYLINE
  5
362
  8
0
 66
     1
 10
0.0
 20
0.0
 30
0.0
  0
VERTEX
  5
7C5
  8
0
 10
182.7437907831914
 20
-51.015044713775303
 30
0.0
  0
VERTEX
  5
7C6
  8
0
 10
183.3243473667921
 20
-51.015044713775318
 30
0.0
  0
SEQEND
  5
7C7
  8
0
  0
LINE
  5
363
  8
0
 10
178.43981742063011
 20
-51.215044713775278
 30
0.0
 11
178.43981742063011
 21
-60.665044713775359
 31
0.0
  0
LINE
  5
364
  8
0
 10
178.43981742063011
 20
-60.665044713775274
 30
0.0
 11
178.43981742063011
 21
-63.815044713775308
 31
0.0
  0
LINE
  5
365
  8
0
 10
171.93981742063011
 20
-64.515044713775296
 30
0.0
 11
171.93981742063011
 21
-60.113120925128577
 31
0.0
  0
LINE
  5
366
  8
0
 10
172.43981742063011
 20
-61.256702100549241
 30
0.0
 11
172.43981742063011
 21
-65.015044713775296
 31
0.0
  0
LINE
  5
367
  8
0
 10
170.93981742063011
 20
-61.515044713775289
 30
0.0
 11
170.93981742063011
 21
-53.515044713775303
 31
0.0
  0
LINE
  5
368
  8
0
 10
176.43981742063011
 20
-61.256702100549241
 30
0.0
 11
172.43981742063011
 21
-61.256702100549241
 31
0.0
  0
POLYLINE
  5
369
  8
0
 66
     1
 10
0.0
 20
0.0
 30
0.0
  0
VERTEX
  5
7C8
  8
0
 10
172.43981742063011
 20
-61.256702100549241
 30
0.0
  0
VERTEX
  5
7C9
  8
0
 10
171.93981742063011
 20
-60.113120925128577
 30
0.0
  0
SEQEND
  5
7CA
  8
0
  0
LINE
  5
36A
  8
0
 10
171.93981742063011
 20
-60.113120925128577
 30
0.0
 11
171.93981742063011
 21
-54.91696850242198
 31
0.0
  0
POLYLINE
  5
36B
  8
0
 66
     1
 10
0.0
 20
0.0
 30
0.0
  0
VERTEX
  5
7CB
  8
0
 10
171.93981742063011
 20
-54.91696850242198
 30
0.0
  0
VERTEX
  5
7CC
  8
0
 10
172.43981742063011
 20
-53.773387327001359
 30
0.0
  0
SEQEND
  5
7CD
  8
0
  0
LINE
  5
36C
  8
0
 10
171.93981742063011
 20
-54.91696850242198
 30
0.0
 11
171.93981742063011
 21
-50.515044713775303
 31
0.0
  0
LINE
  5
36D
  8
0
 10
172.43981742063011
 20
-53.773387327001359
 30
0.0
 11
176.43981742063011
 21
-53.773387327001359
 31
0.0
  0
LINE
  5
36E
  8
0
 10
172.43981742063011
 20
-50.015044713775289
 30
0.0
 11
172.43981742063011
 21
-53.773387327001359
 31
0.0
  0
LINE
  5
36F
  8
0
 10
176.43981742063011
 20
-65.015044713775296
 30
0.0
 11
176.43981742063011
 21
-61.256702100549241
 31
0.0
  0
POLYLINE
  5
370
  8
0
 66
     1
 10
0.0
 20
0.0
 30
0.0
  0
VERTEX
  5
7CE
  8
0
 10
176.93981742063011
 20
-60.113120925128577
 30
0.0
  0
VERTEX
  5
7CF
  8
0
 10
176.43981742063011
 20
-61.256702100549241
 30
0.0
  0
SEQEND
  5
7D0
  8
0
  0
POLYLINE
  5
371
  8
0
 66
     1
 10
0.0
 20
0.0
 30
0.0
  0
VERTEX
  5
7D1
  8
0
 10
176.43981742063011
 20
-53.773387327001359
 30
0.0
  0
VERTEX
  5
7D2
  8
0
 10
176.93981742063011
 20
-54.91696850242198
 30
0.0
  0
SEQEND
  5
7D3
  8
0
  0
LINE
  5
372
  8
0
 10
176.43981742063011
 20
-53.773387327001359
 30
0.0
 11
176.43981742063011
 21
-50.015044713775289
 31
0.0
  0
LINE
  5
373
  8
0
 10
176.93981742063011
 20
-60.113120925128612
 30
0.0
 11
176.93981742063011
 21
-64.515044713775296
 31
0.0
  0
LINE
  5
374
  8
0
 10
176.93981742063011
 20
-54.91696850242198
 30
0.0
 11
176.93981742063011
 21
-60.113120925128612
 31
0.0
  0
LINE
  5
375
  8
0
 10
176.93981742063011
 20
-50.515044713775303
 30
0.0
 11
176.93981742063011
 21
-54.91696850242198
 31
0.0
  0
LINE
  5
376
  8
0
 10
169.43981742063011
 20
-87.515044713775296
 30
0.0
 11
183.43981742063011
 21
-87.515044713775296
 31
0.0
  0
LINE
  5
377
  8
0
 10
183.43981742063011
 20
-71.515044713775296
 30
0.0
 11
169.43981742063011
 21
-71.515044713775296
 31
0.0
  0
LINE
  5
378
  8
0
 10
169.43981742063011
 20
-43.515044713775303
 30
0.0
 11
183.43981742063011
 21
-43.515044713775303
 31
0.0
  0
LINE
  5
379
  8
0
 10
183.43981742063011
 20
-27.51504471377531
 30
0.0
 11
169.43981742063011
 21
-27.51504471377531
 31
0.0
  0
LINE
  5
37A
  8
0
 10
176.93981742063011
 20
-50.515044713775303
 30
0.0
 11
176.43981742063011
 21
-50.015044713775289
 31
0.0
  0
LINE
  5
37B
  8
0
 10
176.43981742063011
 20
-65.015044713775296
 30
0.0
 11
176.93981742063011
 21
-64.515044713775296
 31
0.0
  0
LINE
  5
37C
  8
0
 10
176.43981742063011
 20
-50.015044713775289
 30
0.0
 11
172.43981742063011
 21
-50.015044713775289
 31
0.0
  0
LINE
  5
37D
  8
0
 10
172.43981742063011
 20
-50.015044713775289
 30
0.0
 11
171.93981742063011
 21
-50.515044713775303
 31
0.0
  0
ARC
  5
37E
  8
0
 10
171.43981742063011
 20
-53.515044713775303
 30
0.0
 40
0.5
 50
90.0
 51
180.0
  0
ARC
  5
37F
  8
0
 10
171.43981742063011
 20
-61.515044713775289
 30
0.0
 40
0.5
 50
180.0
 51
270.0
  0
LINE
  5
380
  8
0
 10
171.93981742063011
 20
-53.015044713775303
 30
0.0
 11
171.43981742063011
 21
-53.015044713775303
 31
0.0
  0
LINE
  5
381
  8
0
 10
171.43981742063011
 20
-62.015044713775289
 30
0.0
 11
171.93981742063011
 21
-62.015044713775289
 31
0.0
  0
LINE
  5
382
  8
0
 10
171.93981742063011
 20
-64.515044713775296
 30
0.0
 11
172.43981742063011
 21
-65.015044713775296
 31
0.0
  0
LINE
  5
383
  8
0
 10
172.43981742063011
 20
-65.015044713775296
 30
0.0
 11
176.43981742063011
 21
-65.015044713775296
 31
0.0
  0
LINE
  5
384
  8
0
 10
176.93981742063011
 20
-61.515044713775289
 30
0.0
 11
178.43981742063011
 21
-61.515044713775289
 31
0.0
  0
LINE
  5
385
  8
0
 10
178.43981742063011
 20
-53.515044713775303
 30
0.0
 11
176.93981742063011
 21
-53.515044713775303
 31
0.0
  0
LINE
  5
386
  8
0
 10
183.3243473667921
 20
-64.015044713775296
 30
0.0
 11
183.43981742063011
 21
-63.815044713775308
 31
0.0
  0
LINE
  5
387
  8
0
 10
183.43981742063011
 20
-51.215044713775278
 30
0.0
 11
183.32434736679221
 21
-51.015044713775318
 31
0.0
  0
LINE
  5
388
  8
0
 10
178.43981742063011
 20
-63.815044713775308
 30
0.0
 11
178.555287474468
 21
-64.015044713775268
 31
0.0
  0
LINE
  5
389
  8
0
 10
178.555287474468
 20
-51.015044713775303
 30
0.0
 11
178.43981742063011
 21
-51.215044713775278
 31
0.0
  0
LINE
  5
6B3
  8
LOGO
 62
     1
 10
422.79246796429402
 20
-219.895837750705
 30
196.6150577887137
 11
-21.77443499485133
 21
-219.895837750705
 31
196.6150577887137
  0
LINE
  5
6B4
  8
LOGO
 62
     1
 10
422.79246796429402
 20
-159.5473893852101
 30
196.6150577887137
 11
-21.77443499485133
 21
-159.5473893852101
 31
196.6150577887137
  0
TEXT
  5
6B5
  8
LOGO
 62
     7
 10
115.93196690298539
 20
-174.65726836514199
 30
196.6150577887137
 40
12.069689673098971
  1
訂購代號:
  7
CHINESET
  0
TEXT
  5
6B6
  8
LOGO
 62
     7
 10
114.48836547656779
 20
-185.9850176975344
 30
196.6150577887137
 40
8.0464597820659804
  1
Order example:
 41
0.8
  7
CHINESET
  0
TEXT
  5
6B7
  8
LOGO
  6
CONTINUOUS
 62
     5
 10
-17.20710502580928
 20
-217.09451693253399
 30
196.6150577887137
 40
6.0348448365494853
  1
MINDMAN INDUSTRIAL CO.,LTD
 41
0.85
  7
CHINESET
  0
TEXT
  5
6B8
  8
LOGO
  6
CONTINUOUS
 62
     5
 10
-19.79912838688784
 20
-208.04047614305301
 30
196.6150577887137
 40
9.052267254824228
  1
金器工業股份有限公司
 41
0.8
  7
LOGO
  0
SOLID
  5
6B9
  8
LOGO
 62
     2
 10
0.5925454779347632
 20
-185.72438785626409
 30
196.6150577887137
 11
1.6722593619335731
 21
-185.72438785626409
 31
196.6150577887137
 12
14.088969027910959
 22
-160.98094468130631
 32
196.6150577887137
 13
15.16868291191
 23
-160.98094468130819
 33
196.6150577887137
  0
SOLID
  5
6BA
  8
LOGO
 62
     5
 10
1.6722593619335731
 20
-185.72438785626409
 30
196.6150577887137
 11
4.281567914928714
 21
-185.72438785626409
 31
196.6150577887137
 12
14.088969027910959
 22
-162.96042013530391
 32
196.6150577887137
 13
11.47966047491559
 23
-172.5278848296212
 33
196.6150577887137
  0
SOLID
  5
6BB
  8
LOGO
 62
     5
 10
1.6722593619335731
 20
-183.7449124022684
 30
196.6150577887137
 11
4.281567914928714
 21
-174.1774477079509
 31
196.6150577887137
 12
14.088969027910959
 22
-160.98094468130631
 32
196.6150577887137
 13
11.47966047491559
 23
-160.98094468130631
 33
196.6150577887137
  0
LINE
  5
6BC
  8
LOGO
 62
     1
 10
110.9921514092371
 20
-195.7564584045071
 30
196.6150577887137
 11
-21.774434994851561
 21
-195.7564584045071
 31
196.6150577887137
  0
SOLID
  5
6BD
  8
LOGO
 62
     2
 10
0.5925454779347632
 20
-160.98094468130819
 30
196.6150577887137
 11
1.6722593619335731
 21
-160.98094468130819
 31
196.6150577887137
 12
0.5925454779347632
 22
-185.72438785626409
 32
196.6150577887137
 13
1.6722593619335731
 23
-185.72438785626409
 33
196.6150577887137
  0
SOLID
  5
6BE
  8
LOGO
 62
     2
 10
-12.903878072042581
 20
-185.724387856265
 30
196.6150577887137
 11
-11.82416418804285
 21
-185.72438785626409
 31
196.6150577887137
 12
0.5925454779347632
 22
-160.98094468130819
 32
196.6150577887137
 13
1.6722593619335731
 23
-160.98094468130819
 33
196.6150577887137
  0
SOLID
  5
6BF
  8
LOGO
 62
     5
 10
1.6722593619335731
 20
-160.98094468130819
 30
196.6150577887137
 11
4.281567914928714
 21
-160.98094468130631
 31
196.6150577887137
 12
1.6722593619335731
 22
-183.7449124022684
 32
196.6150577887137
 13
4.281567914928714
 23
-174.1774477079509
 33
196.6150577887137
  0
SOLID
  5
6C0
  8
LOGO
 62
     5
 10
-2.016763075060374
 20
-185.72438785626409
 30
196.6150577887137
 11
0.5925454779347632
 21
-185.72438785626409
 31
196.6150577887137
 12
-2.016763075060374
 22
-172.5278848296212
 32
196.6150577887137
 13
0.5925454779347632
 23
-162.96042013530391
 33
196.6150577887137
  0
SOLID
  5
6C1
  8
LOGO
 62
     5
 10
-11.82416418804285
 20
-185.72438785626409
 30
196.6150577887137
 11
-9.2148556350477122
 21
-185.72438785626409
 31
196.6150577887137
 12
0.5925454779347632
 22
-162.96042013530391
 32
196.6150577887137
 13
-2.016763075060374
 23
-172.5278848296212
 33
196.6150577887137
  0
SOLID
  5
6C2
  8
LOGO
 62
     5
 10
-15.51318662503772
 20
-185.72438785626409
 30
196.6150577887137
 11
-12.903878072042581
 21
-185.724387856265
 31
196.6150577887137
 12
-2.016763075060374
 22
-160.98094468130631
 32
196.6150577887137
 13
0.5925454779347632
 23
-160.98094468130819
 33
196.6150577887137
  0
LINE
  5
6C3
  8
LOGO
 62
     1
 10
-21.77443499485133
 20
-219.895837750705
 30
196.6150577887137
 11
-21.77443499485133
 21
-159.5473893852101
 31
196.6150577887137
  0
SOLID
  5
6C4
  8
LOGO
 62
     5
 10
-10.864568473640469
 20
-190.2231957062564
 30
196.6150577887137
 11
-9.9648069036401665
 21
-190.2231957062564
 31
196.6150577887137
 12
-10.864568473640469
 22
-194.72200355624969
 32
196.6150577887137
 13
-9.9648069036401665
 23
-194.72200355624801
 33
196.6150577887137
  0
SOLID
  5
6C5
  8
LOGO
 62
     5
 10
-10.864568473640469
 20
-189.593362607258
 30
196.6150577887137
 11
-9.9648069036401665
 21
-189.593362607258
 31
196.6150577887137
 12
-10.864568473640469
 22
-188.87355335125841
 32
196.6150577887137
 13
-9.9648069036401665
 23
-188.87355335125841
 33
196.6150577887137
  0
SOLID
  5
6C6
  8
LOGO
 62
     5
 10
-12.82942775040973
 20
-190.2231957062564
 30
196.6150577887137
 11
-11.929666180412401
 21
-190.2231957062564
 31
196.6150577887137
 12
-12.82942775040973
 22
-194.72200355624801
 32
196.6150577887137
 13
-11.929666180412401
 23
-194.72200355624801
 33
196.6150577887137
  0
SOLID
  5
6C7
  8
LOGO
 62
     5
 10
-16.262987933369359
 20
-194.72200355624801
 30
196.6150577887137
 11
-15.36322636337157
 21
-194.72200355624801
 31
196.6150577887137
 12
-12.82942775040973
 22
-190.2231957062564
 32
196.6150577887137
 13
-11.929666180412401
 23
-190.2231957062564
 33
196.6150577887137
  0
SOLID
  5
6C8
  8
LOGO
 62
     5
 10
-16.262987933369359
 20
-190.2231957062564
 30
196.6150577887137
 11
-15.36322636337157
 21
-190.2231957062564
 31
196.6150577887137
 12
-16.262987933369359
 22
-194.72200355624801
 32
196.6150577887137
 13
-15.36322636337157
 23
-194.72200355624801
 33
196.6150577887137
  0
SOLID
  5
6C9
  8
LOGO
 62
     5
 10
-19.696548116327619
 20
-194.72200355624801
 30
196.6150577887137
 11
-18.796786546328001
 21
-194.72200355624801
 31
196.6150577887137
 12
-16.262987933369359
 22
-190.2231957062564
 32
196.6150577887137
 13
-15.36322636337157
 23
-190.2231957062564
 33
196.6150577887137
  0
SOLID
  5
6CA
  8
LOGO
 62
     5
 10
6.6808721174865608
 20
-192.0227188462535
 30
196.6150577887137
 11
7.5806336874838918
 21
-192.0227188462535
 31
196.6150577887137
 12
6.6808721174865608
 22
-194.72200355624969
 32
196.6150577887137
 13
7.5806336874838918
 23
-194.72200355624969
 33
196.6150577887137
  0
SOLID
  5
6CB
  8
LOGO
 62
     5
 10
3.9815874074918258
 20
-192.0227188462535
 30
196.6150577887137
 11
4.8813489774893837
 21
-192.0227188462535
 31
196.6150577887137
 12
3.9815874074918258
 22
-194.72200355624801
 32
196.6150577887137
 13
4.8813489774893837
 23
-194.72200355624801
 33
196.6150577887137
  0
SOLID
  5
6CC
  8
LOGO
 62
     5
 10
1.282302697497087
 20
-190.2231957062564
 30
196.6150577887137
 11
2.182064267494876
 21
-190.2231957062564
 31
196.6150577887137
 12
1.282302697497087
 22
-194.72200355624801
 32
196.6150577887137
 13
2.182064267494876
 23
-194.72200355624801
 33
196.6150577887137
  0
SOLID
  5
6CD
  8
LOGO
 62
     5
 10
-0.6672106962192183
 20
-188.87355335125841
 30
196.6150577887137
 11
0.2325508737783402
 21
-188.87355335125841
 31
196.6150577887137
 12
-0.6672106962192183
 22
-194.72200355624801
 32
196.6150577887137
 13
0.2325508737783402
 23
-194.72200355624801
 33
196.6150577887137
  0
POLYLINE
  5
6CE
  8
LOGO
 62
     5
 66
     1
 10
0.0
 20
0.0
 30
196.6150577887137
 70
     1
 40
0.9012034955913897
 41
0.9012034955913897
  0
VERTEX
  5
7F7
  8
LOGO
 62
     5
 10
-3.8191700662439869
 20
-192.47259963125279
 30
196.6150577887137
 42
1.0
  0
VERTEX
  5
7F8
  8
LOGO
 62
     5
 10
-0.2143560838781404
 20
-192.47259963125279
 30
196.6150577887137
 42
1.0
  0
SEQEND
  5
7F9
  8
LOGO
 62
     5
  0
SOLID
  5
6CF
  8
LOGO
 62
     5
 10
-6.215770369929424
 20
-192.0227188462535
 30
196.6150577887137
 11
-5.3160087999302661
 21
-192.0227188462535
 31
196.6150577887137
 12
-6.215770369929424
 22
-194.72200355624801
 32
196.6150577887137
 13
-5.3160087999302661
 23
-194.72200355624801
 33
196.6150577887137
  0
SOLID
  5
6D0
  8
LOGO
 62
     5
 10
-8.9150550799239312
 20
-190.2231957062564
 30
196.6150577887137
 11
-8.0152935099263747
 21
-190.2231957062564
 31
196.6150577887137
 12
-8.9150550799239312
 22
-194.72200355624801
 32
196.6150577887137
 13
-8.0152935099263747
 23
-194.72200355624801
 33
196.6150577887137
  0
POLYLINE
  5
6D1
  8
LOGO
 62
     5
 66
     1
 10
0.0
 20
0.0
 30
196.6150577887137
 40
0.9012034955913897
 41
0.9012034955913897
  0
VERTEX
  5
7FA
  8
LOGO
 62
     5
 10
-5.7637266965405374
 20
-192.0227188462535
 30
196.6150577887137
 42
1.0
  0
VERTEX
  5
7FB
  8
LOGO
 62
     5
 10
-8.4673371833148074
 20
-192.0227188462535
 30
196.6150577887137
 42
1.0
  0
SEQEND
  5
7FC
  8
LOGO
 62
     5
  0
POLYLINE
  5
6D2
  8
LOGO
 62
     5
 66
     1
 10
0.0
 20
0.0
 30
196.6150577887137
 40
0.9012034955913897
 41
0.9012034955913897
  0
VERTEX
  5
7FD
  8
LOGO
 62
     5
 10
7.1329157908749936
 20
-192.0227188462535
 30
196.6150577887137
 42
1.0
  0
VERTEX
  5
7FE
  8
LOGO
 62
     5
 10
4.4293053041007218
 20
-192.0227188462535
 30
196.6150577887137
 42
1.0
  0
SEQEND
  5
7FF
  8
LOGO
 62
     5
  0
POLYLINE
  5
6D3
  8
LOGO
 62
     5
 66
     1
 10
0.0
 20
0.0
 30
196.6150577887137
 40
0.9012034955913897
 41
0.9012034955913897
  0
VERTEX
  5
800
  8
LOGO
 62
     5
 10
4.4336310808802573
 20
-192.0227188462535
 30
196.6150577887137
 42
1.0
  0
VERTEX
  5
801
  8
LOGO
 62
     5
 10
1.730020594105987
 20
-192.0227188462535
 30
196.6150577887137
 42
1.0
  0
SEQEND
  5
802
  8
LOGO
 62
     5
  0
CIRCLE
  5
6D4
  8
LOGO
  6
CONTINUOUS
 62
     6
 10
81.93412254023886
 20
-177.63901531759129
 30
196.6150577887137
 40
2.053017963237123
  0
CIRCLE
  5
6D5
  8
LOGO
  6
CONTINUOUS
 62
     6
 10
81.93412254023886
 20
-177.63901531759129
 30
196.6150577887137
 40
3.503972956335943
  0
LINE
  5
6D6
  8
LOGO
 62
     1
 10
110.9921514092371
 20
-183.68676873140811
 30
196.6150577887137
 11
22.481093806511549
 21
-183.68676873140811
 31
196.6150577887137
  0
LINE
  5
6D7
  8
LOGO
 62
     1
 10
110.9921514092371
 20
-171.61707905830909
 30
196.6150577887137
 11
22.481093806511549
 21
-171.61707905830909
 31
196.6150577887137
  0
TEXT
  5
6D8
  8
LOGO
 62
     6
 10
79.813114819594119
 20
-168.5996566400344
 30
196.6150577887137
 40
6.0348448365494853
  1
1 : 1
  7
CHINESET
 72
     1
 11
90.445936674467035
 21
-165.58223422175959
 31
196.6150577887137
 73
     2
  0
TEXT
  5
6D9
  8
LOGO
 62
     6
 10
79.813114819594119
 20
-192.7390359862323
 30
196.6150577887137
 40
6.0348448365494853
  1
m/m
  7
CHINESET
 72
     1
 11
90.445936674467035
 21
-189.7216135679576
 31
196.6150577887137
 73
     2
  0
SOLID
  5
6DA
  8
LOGO
 62
     2
 10
14.088969027910959
 20
-160.98094468130631
 30
196.6150577887137
 11
15.16868291191
 21
-160.98094468130819
 31
196.6150577887137
 12
14.088969027910959
 22
-185.724387856265
 32
196.6150577887137
 13
15.16868291191
 23
-185.724387856265
 33
196.6150577887137
  0
SOLID
  5
6DB
  8
LOGO
 62
     5
 10
15.16868291191
 20
-185.724387856265
 30
196.6150577887137
 11
17.777991464905138
 21
-185.724387856265
 31
196.6150577887137
 12
15.16868291191
 22
-160.98094468130819
 32
196.6150577887137
 13
17.777991464905138
 23
-160.98094468130631
 33
196.6150577887137
  0
SOLID
  5
6DC
  8
LOGO
 62
     5
 10
14.088969027910959
 20
-162.96042013530391
 30
196.6150577887137
 11
11.47966047491559
 21
-172.5278848296212
 31
196.6150577887137
 12
14.088969027910959
 22
-185.724387856265
 32
196.6150577887137
 13
11.47966047491559
 23
-185.724387856265
 33
196.6150577887137
  0
LINE
  5
6DD
  8
LOGO
 62
     1
 10
22.481093806511549
 20
-195.7564584045071
 30
196.6150577887137
 11
22.481093806511549
 21
-159.5473893852101
 31
196.6150577887137
  0
LINE
  5
6DE
  8
LOGO
 62
     1
 10
70.759852498907435
 20
-195.7564584045071
 30
196.6150577887137
 11
70.759852498907435
 21
-159.5473893852101
 31
196.6150577887137
  0
TEXT
  5
6DF
  8
LOGO
 62
     6
 10
30.15666208299794
 20
-192.7390359862323
 30
987.64263531144582
 40
6.0348448365494853
  1
單位 Unit:
 41
0.9
  7
CHINESET
 72
     4
 11
46.620473152709501
 21
-189.7216135679576
 31
987.64263531144582
  0
SOLID
  5
6E0
  8
LOGO
 62
     5
 10
16.878229894907349
 20
-192.0227188462535
 30
196.6150577887137
 11
17.777991464905138
 21
-192.02271884625361
 31
196.6150577887137
 12
16.878229894907349
 22
-194.72200355624801
 32
196.6150577887137
 13
17.777991464905138
 23
-194.72200355624801
 33
196.6150577887137
  0
SOLID
  5
6E1
  8
LOGO
 62
     5
 10
14.17894518491125
 20
-194.72200355624801
 30
196.6150577887137
 11
15.078706754910399
 21
-194.72200355624801
 31
196.6150577887137
 12
14.17894518491125
 22
-190.2231957062564
 32
196.6150577887137
 13
15.078706754910399
 23
-190.2231957062564
 33
196.6150577887137
  0
SOLID
  5
6E2
  8
LOGO
 62
     5
 10
12.229431791197451
 20
-190.2231957062564
 30
196.6150577887137
 11
13.129193361195011
 21
-190.2231957062564
 31
196.6150577887137
 12
12.229431791197451
 22
-194.72200355624801
 32
196.6150577887137
 13
13.129193361195011
 23
-194.72200355624801
 33
196.6150577887137
  0
LINE
  5
6E3
  8
LOGO
 62
     5
 10
17.777991464905138
 20
-194.72200355624801
 30
196.6150577887137
 11
17.777991464905138
 21
-192.0227188462535
 31
196.6150577887137
  0
POLYLINE
  5
6E4
  8
LOGO
 62
     5
 66
     1
 10
0.0
 20
0.0
 30
196.6150577887137
 70
     1
 40
0.9012034955913897
 41
0.9012034955913897
  0
VERTEX
  5
803
  8
LOGO
 62
     5
 10
9.0774724211720006
 20
-192.47259963125279
 30
196.6150577887137
 42
1.0
  0
VERTEX
  5
804
  8
LOGO
 62
     5
 10
12.68228640353739
 20
-192.47259963125279
 30
196.6150577887137
 42
1.0
  0
SEQEND
  5
805
  8
LOGO
 62
     5
  0
CIRCLE
  5
6E5
  8
LOGO
 62
     5
 10
10.87987941235515
 20
-192.47259963125231
 30
196.6150577887137
 40
1.3496423549976651
  0
POLYLINE
  5
6E6
  8
LOGO
 62
     5
 66
     1
 10
0.0
 20
0.0
 30
196.6150577887137
 70
     1
  0
VERTEX
  5
806
  8
LOGO
 62
     5
 10
9.5302370573573274
 20
-192.47259963125231
 30
196.6150577887137
 42
1.0000000573306349
  0
VERTEX
  5
807
  8
LOGO
 62
     5
 10
12.2295217673532
 20
-192.47259963125231
 30
196.6150577887137
 42
1.0000000573306349
  0
SEQEND
  5
808
  8
LOGO
 62
     5
  0
POLYLINE
  5
6E7
  8
LOGO
 62
     5
 66
     1
 10
0.0
 20
0.0
 30
196.6150577887137
 40
0.9012034955913897
 41
0.9012034955913897
  0
VERTEX
  5
809
  8
LOGO
 62
     5
 10
17.330273568296239
 20
-192.0227188462535
 30
196.6150577887137
 42
1.0
  0
VERTEX
  5
80A
  8
LOGO
 62
     5
 10
14.62666308152197
 20
-192.0227188462535
 30
196.6150577887137
 42
1.0
  0
SEQEND
  5
80B
  8
LOGO
 62
     5
  0
TEXT
  5
6E8
  8
LOGO
 62
     6
 10
29.56664823513886
 20
-180.5844565584197
 30
987.64263531144582
 40
6.0348448365494853
  1
投影 View:
 41
0.9
  7
CHINESET
 72
     4
 11
46.620473152709501
 21
-177.65192389485861
 31
987.64263531144582
  0
TEXT
  5
6E9
  8
LOGO
 62
     6
 10
27.457146669505718
 20
-168.59668673607939
 30
987.64263531144582
 40
6.0348448365494853
  1
比例 Scale:
 41
0.9
  7
CHINESET
 72
     4
 11
46.620473152709501
 21
-165.58223422175959
 31
987.64263531144582
  0
LINE
  5
6EA
  8
LOGO
 62
     1
 10
110.9921514092371
 20
-219.895837750705
 30
196.6150577887137
 11
110.9921514092371
 21
-159.5473893852101
 31
196.6150577887137
  0
LINE
  5
6EB
  8
LOGO
  6
CONTINUOUS
 62
     6
 10
92.968741101213837
 20
-179.6920332808285
 30
196.6150577887137
 11
103.9534951816826
 21
-181.1429882739273
 31
196.6150577887137
  0
LINE
  5
6EC
  8
LOGO
  6
CONTINUOUS
 62
     6
 10
92.968741101213837
 20
-175.58599735435419
 30
196.6150577887137
 11
103.9534951816826
 21
-174.13504236125539
 31
196.6150577887137
  0
LINE
  5
6ED
  8
LOGO
 62
     6
 10
92.968741101214093
 20
-179.6920332808285
 30
196.6150577887137
 11
92.968741101213837
 21
-175.58599735435411
 31
196.6150577887137
  0
LINE
  5
6EE
  8
LOGO
 62
     6
 10
103.9534951816826
 20
-181.1429882739273
 30
196.6150577887137
 11
103.9534951816826
 21
-174.13504236125539
 31
196.6150577887137
  0
LINE
  5
6EF
  8
LOGO
 62
     6
 10
238.2542925372309
 20
-214.8668003869137
 30
196.6150577887137
 11
198.02199362690101
 21
-214.8668003869137
 31
196.6150577887137
  0
LINE
  5
6F0
  8
LOGO
 62
     6
 10
238.2542925372309
 20
-192.7390359862323
 30
196.6150577887137
 11
198.02199362690101
 21
-192.7390359862323
 31
196.6150577887137
  0
LINE
  5
6F1
  8
LOGO
 62
     6
 10
242.27752242826389
 20
-183.68676873140811
 30
196.6150577887137
 11
193.99876373586801
 21
-183.68676873140811
 31
196.6150577887137
  0
LINE
  5
6F2
  8
LOGO
 62
     6
 10
242.27752242826389
 20
-165.58223422175959
 30
196.6150577887137
 11
193.99876373586801
 21
-165.58223422175959
 31
196.6150577887137
  0
TEXT
  5
6F3
  8
LOGO
  6
CONTINUOUS
 62
     7
 10
198.50094956630971
 20
-179.66353884037511
 30
196.6150577887137
 40
10.05807472758247
  1
MCDA
  7
CHINESET
 72
     1
 11
218.13814308206591
 21
-174.63450147658389
 31
196.6150577887137
 73
     2
  0
LINE
  5
6F4
  8
LOGO
 62
     6
 10
193.99876373586801
 20
-165.58223422175959
 30
196.6150577887137
 11
193.99876373586801
 21
-183.68676873140811
 31
196.6150577887137
  0
LINE
  5
6F5
  8
LOGO
 62
     6
 10
198.02199362690101
 20
-192.7390359862323
 30
196.6150577887137
 11
198.02199362690101
 21
-214.8668003869137
 31
196.6150577887137
  0
TEXT
  5
6F6
  8
LOGO
  6
CONTINUOUS
 62
     6
 10
208.55902429389209
 20
-212.35228170501821
 30
987.64263531144582
 40
5.0290373637912369
  1
Model
  7
CHINESET
 72
     4
 11
218.13814308206591
 21
-209.83776302312251
 31
987.64263531144582
  0
TEXT
  5
6F7
  8
LOGO
 62
     6
 10
210.09168329999989
 20
-203.59700484569339
 30
987.64263531144582
 40
8.0464597820659804
  1
型式
  7
CHINESET
 72
     4
 11
218.13814308206591
 21
-199.77968829554001
 31
987.64263531144582
  0
LINE
  5
6F8
  8
LOGO
 62
     6
 10
218.13814308206591
 20
-183.68676873140811
 30
196.6150577887137
 11
218.13814308206591
 21
-192.7390359862323
 31
196.6150577887137
  0
LINE
  5
6F9
  8
LOGO
 62
     6
 10
242.27752242826389
 20
-165.58223422175959
 30
196.6150577887137
 11
242.27752242826389
 21
-183.68676873140811
 31
196.6150577887137
  0
LINE
  5
6FA
  8
LOGO
 62
     6
 10
308.93530323523748
 20
-165.58223422175951
 30
196.6150577887137
 11
308.93530323523748
 21
-183.68676873140811
 31
196.6150577887137
  0
LINE
  5
6FB
  8
LOGO
 62
     6
 10
256.52186310290779
 20
-165.58223422175959
 30
196.6150577887137
 11
256.52186310290779
 21
-183.68676873140811
 31
196.6150577887137
  0
TEXT
  5
6FC
  8
LOGO
  6
CONTINUOUS
 62
     6
 10
259.14000315319481
 20
-211.51410881105289
 30
987.64263531144582
 40
5.0290373637912369
  1
Bearing type
  7
CHINESET
 72
     4
 11
282.72858316907281
 21
-209.83776302312251
 31
987.64263531144582
  0
TEXT
  5
6FD
  8
LOGO
 62
     6
 10
266.71948089433732
 20
-203.59700484569339
 30
987.64263531144582
 40
8.0464597820659804
  1
軸承型式
  7
CHINESET
 72
     4
 11
282.72858316907281
 21
-199.77968829554001
 31
987.64263531144582
  0
LINE
  5
6FE
  8
LOGO
 62
     6
 10
308.93530323523748
 20
-183.68676873140811
 30
196.6150577887137
 11
256.52186310290779
 21
-183.68676873140811
 31
196.6150577887137
  0
LINE
  5
6FF
  8
LOGO
 62
     6
 10
308.93530323523748
 20
-192.7390359862323
 30
196.6150577887137
 11
256.52186310290779
 21
-192.7390359862323
 31
196.6150577887137
  0
LINE
  5
700
  8
LOGO
 62
     6
 10
308.93530323523748
 20
-214.8668003869137
 30
196.6150577887137
 11
256.52186310290779
 21
-214.8668003869137
 31
196.6150577887137
  0
LINE
  5
701
  8
LOGO
 62
     6
 10
238.2542925372309
 20
-192.7390359862323
 30
196.6150577887137
 11
238.2542925372309
 21
-214.8668003869137
 31
196.6150577887137
  0
LINE
  5
702
  8
LOGO
 62
     6
 10
256.52186310290779
 20
-192.7390359862323
 30
196.6150577887137
 11
256.52186310290779
 21
-214.8668003869137
 31
196.6150577887137
  0
LINE
  5
703
  8
LOGO
 62
     6
 10
308.93530323523748
 20
-192.7390359862323
 30
196.6150577887137
 11
308.93530323523748
 21
-214.8668003869137
 31
196.6150577887137
  0
LINE
  5
704
  8
LOGO
 62
     6
 10
282.72858316907281
 20
-183.68676873140811
 30
196.6150577887137
 11
282.72858316907281
 21
-192.7390359862323
 31
196.6150577887137
  0
LINE
  5
705
  8
LOGO
 62
     6
 10
308.93530323523748
 20
-165.58223422175951
 30
196.6150577887137
 11
256.52186310290779
 21
-165.58223422175959
 31
196.6150577887137
  0
LINE
  5
706
  8
LOGO
  6
CONTINUOUS
 62
     7
 10
245.39666164038181
 20
-174.69863059900979
 30
196.6150577887137
 11
253.39096347473239
 21
-174.69863059900979
 31
196.6150577887137
  0
TEXT
  5
707
  8
LOGO
  6
CONTINUOUS
 62
     7
 10
259.73869807745558
 20
-179.7775980415731
 30
196.6150577887137
 40
10.05807472758247
  1
03/23
  7
CHINESET
 72
     1
 11
282.72858316907281
 21
-174.74856067778191
 31
196.6150577887137
 73
     2
  0
TEXT
  5
708
  8
LOGO
  6
CONTINUOUS
 62
     7
 10
380.23085154024523
 20
-179.7775980415731
 30
196.6150577887137
 40
10.05807472758247
  1
10
  7
CHINESET
 72
     1
 11
387.41519063137548
 21
-174.74856067778191
 31
196.6150577887137
 73
     2
  0
TEXT
  5
709
  8
LOGO
  6
CONTINUOUS
 62
     6
 10
377.37627388229231
 20
-212.35228170501821
 30
987.64263531144582
 40
5.0290373637912369
  1
Stroke
 41
0.8
  7
CHINESET
 72
     4
 11
386.47643673105739
 21
-209.83776302312251
 31
987.64263531144582
  0
LINE
  5
70A
  8
LOGO
 62
     6
 10
403.23159820042451
 20
-165.58223422175959
 30
196.6150577887137
 11
369.7212752616901
 21
-165.58223422175959
 31
196.6150577887137
  0
TEXT
  5
70B
  8
LOGO
 62
     6
 10
379.23462292719802
 20
-203.80291818657301
 30
987.64263531144582
 40
8.0464597820659804
  1
行程
 41
0.9
  7
CHINESET
 72
     4
 11
386.47643673105739
 21
-199.77968829554001
 31
987.64263531144582
  0
LINE
  5
70C
  8
LOGO
 62
     6
 10
401.21998325490802
 20
-214.8668003869137
 30
196.6150577887137
 11
371.73289020720659
 21
-214.8668003869137
 31
196.6150577887137
  0
LINE
  5
70D
  8
LOGO
 62
     6
 10
403.23159820042451
 20
-183.68676873140811
 30
196.6150577887137
 11
369.7212752616901
 21
-183.68676873140811
 31
196.6150577887137
  0
LINE
  5
70E
  8
LOGO
 62
     6
 10
401.21998325490802
 20
-192.7390359862323
 30
196.6150577887137
 11
371.73289020720659
 21
-192.7390359862323
 31
196.6150577887137
  0
LINE
  5
70F
  8
LOGO
 62
     6
 10
355.47693458704612
 20
-165.58223422175939
 30
196.6150577887137
 11
355.47693458704612
 21
-183.68676873140791
 31
196.6150577887137
  0
LINE
  5
710
  8
LOGO
 62
     6
 10
323.17964390988152
 20
-165.58223422175951
 30
196.6150577887137
 11
323.17964390988152
 21
-183.68676873140791
 31
196.6150577887137
  0
LINE
  5
711
  8
LOGO
 62
     6
 10
369.7212752616901
 20
-165.58223422175959
 30
196.6150577887137
 11
369.7212752616901
 21
-183.68676873140811
 31
196.6150577887137
  0
LINE
  5
712
  8
LOGO
 62
     6
 10
355.47693458704612
 20
-214.86680038691361
 30
196.6150577887137
 11
323.17964390988152
 21
-214.8668003869137
 31
196.6150577887137
  0
LINE
  5
713
  8
LOGO
 62
     6
 10
355.47693458704612
 20
-183.68676873140791
 30
196.6150577887137
 11
323.17964390988152
 21
-183.68676873140791
 31
196.6150577887137
  0
LINE
  5
714
  8
LOGO
 62
     6
 10
355.47693458704612
 20
-192.73903598623221
 30
196.6150577887137
 11
323.17964390988152
 21
-192.73903598623221
 31
196.6150577887137
  0
LINE
  5
715
  8
LOGO
 62
     6
 10
323.17964390988152
 20
-192.73903598623221
 30
196.6150577887137
 11
323.17964390988152
 21
-214.86680038691361
 31
196.6150577887137
  0
TEXT
  5
716
  8
LOGO
  6
CONTINUOUS
 62
     6
 10
333.10186203615092
 20
-212.35228170501821
 30
987.64263531144582
 40
5.0290373637912369
  1
Bore
 41
0.8
  7
CHINESET
 72
     4
 11
339.32828924846388
 21
-209.83776302312251
 31
987.64263531144582
  0
TEXT
  5
717
  8
LOGO
 62
     6
 10
331.6338620818633
 20
-203.80291818657301
 30
987.64263531144582
 40
8.0464597820659804
  1
內徑
 41
0.9
  7
CHINESET
 72
     4
 11
339.32828924846388
 21
-199.77968829554001
 31
987.64263531144582
  0
LINE
  5
718
  8
LOGO
 62
     6
 10
339.32828878461657
 20
-183.68676873140791
 30
196.6150577887137
 11
339.32828878461657
 21
-192.73903598623221
 31
196.6150577887137
  0
LINE
  5
719
  8
LOGO
 62
     6
 10
355.47693458704612
 20
-192.73903598623221
 30
196.6150577887137
 11
355.47693458704612
 21
-214.8668003869135
 31
196.6150577887137
  0
LINE
  5
71A
  8
LOGO
 62
     6
 10
371.73289020720659
 20
-192.7390359862323
 30
196.6150577887137
 11
371.73289020720659
 21
-214.8668003869137
 31
196.6150577887137
  0
LINE
  5
71B
  8
LOGO
 62
     6
 10
355.47693458704612
 20
-165.58223422175939
 30
196.6150577887137
 11
323.17964390988152
 21
-165.58223422175951
 31
196.6150577887137
  0
LINE
  5
71C
  8
LOGO
  6
CONTINUOUS
 62
     7
 10
312.05444244735543
 20
-174.69863059900959
 30
196.6150577887137
 11
320.04874428170569
 21
-174.69863059900959
 31
196.6150577887137
  0
TEXT
  5
71D
  8
LOGO
  6
CONTINUOUS
 62
     7
 10
332.12479217883453
 20
-179.77759804157299
 30
196.6150577887137
 40
10.05807472758247
  1
32
  7
CHINESET
 72
     1
 11
340.26704314878231
 21
-174.74856067778171
 31
196.6150577887137
 73
     2
  0
LINE
  5
71E
  8
LOGO
  6
CONTINUOUS
 62
     7
 10
358.59607379916412
 20
-174.6986305990095
 30
196.6150577887137
 11
366.59037563351461
 21
-174.6986305990095
 31
196.6150577887137
  0
LINE
  5
71F
  8
LOGO
 62
     6
 10
403.23159820042451
 20
-165.58223422175959
 30
196.6150577887137
 11
403.23159820042451
 21
-183.68676873140811
 31
196.6150577887137
  0
LINE
  5
720
  8
LOGO
 62
     6
 10
401.21998325490802
 20
-192.7390359862323
 30
196.6150577887137
 11
401.21998325490802
 21
-214.95023673113889
 31
196.6150577887137
  0
LINE
  5
721
  8
LOGO
 62
     6
 10
386.90247851134637
 20
-183.68676873140811
 30
196.6150577887137
 11
386.90247851134637
 21
-192.7390359862323
 31
196.6150577887137
  0
LINE
  5
722
  8
LOGO
 62
     1
 10
422.79246796429402
 20
-219.895837750705
 30
196.6150577887137
 11
422.79246796429402
 21
-159.5473893852101
 31
196.6150577887137
  0
ENDSEC
  0
EOF
