  0
SECTION
  2
HEADER
  9
$ACADVER
  1
AC1012
  9
$DWGCODEPAGE
  3
big5
  9
$INSBASE
 10
0.0
 20
0.0
 30
0.0
  9
$EXTMIN
 10
-52.53356160209114
 20
-93.85932453449049
 30
0.0
  9
$EXTMAX
 10
891.4122083234451
 20
821.7527353224017
 30
0.0
  9
$LIMMIN
 10
0.0
 20
0.0
  9
$LIMMAX
 10
800.0
 20
600.0
  9
$ORTHOMODE
 70
     0
  9
$REGENMODE
 70
     1
  9
$FILLMODE
 70
     1
  9
$QTEXTMODE
 70
     0
  9
$MIRRTEXT
 70
     1
  9
$DRAGMODE
 70
     2
  9
$LTSCALE
 40
3.5
  9
$OSMODE
 70
    55
  9
$ATTMODE
 70
     1
  9
$TEXTSIZE
 40
10.0
  9
$TRACEWID
 40
0.05
  9
$TEXTSTYLE
  7
DAYUS
  9
$CLAYER
  8
0
  9
$CELTYPE
  6
BYLAYER
  9
$CECOLOR
 62
   256
  9
$CELTSCALE
 40
1.0
  9
$DELOBJ
 70
     1
  9
$DISPSILH
 70
     0
  9
$DIMSCALE
 40
1.0
  9
$DIMASZ
 40
3.0
  9
$DIMEXO
 40
1.5
  9
$DIMDLI
 40
7.0
  9
$DIMRND
 40
0.0
  9
$DIMDLE
 40
0.0
  9
$DIMEXE
 40
2.0
  9
$DIMTP
 40
0.01
  9
$DIMTM
 40
0.01
  9
$DIMTXT
 40
3.0
  9
$DIMCEN
 40
3.0
  9
$DIMTSZ
 40
0.0
  9
$DIMTOL
 70
     0
  9
$DIMLIM
 70
     0
  9
$DIMTIH
 70
     0
  9
$DIMTOH
 70
     0
  9
$DIMSE1
 70
     0
  9
$DIMSE2
 70
     0
  9
$DIMTAD
 70
     1
  9
$DIMZIN
 70
     8
  9
$DIMBLK
  1

  9
$DIMASO
 70
     1
  9
$DIMSHO
 70
     0
  9
$DIMPOST
  1

  9
$DIMAPOST
  1

  9
$DIMALT
 70
     0
  9
$DIMALTD
 70
     2
  9
$DIMALTF
 40
25.4
  9
$DIMLFAC
 40
1.0
  9
$DIMTOFL
 70
     1
  9
$DIMTVP
 40
0.0
  9
$DIMTIX
 70
     0
  9
$DIMSOXD
 70
     0
  9
$DIMSAH
 70
     0
  9
$DIMBLK1
  1

  9
$DIMBLK2
  1

  9
$DIMSTYLE
  2
STANDARD
  9
$DIMCLRD
 70
     5
  9
$DIMCLRE
 70
     5
  9
$DIMCLRT
 70
     5
  9
$DIMTFAC
 40
0.6
  9
$DIMGAP
 40
0.8
  9
$DIMJUST
 70
     0
  9
$DIMSD1
 70
     0
  9
$DIMSD2
 70
     0
  9
$DIMTOLJ
 70
     1
  9
$DIMTZIN
 70
     8
  9
$DIMALTZ
 70
     0
  9
$DIMALTTZ
 70
     0
  9
$DIMFIT
 70
     3
  9
$DIMUPT
 70
     0
  9
$DIMUNIT
 70
     2
  9
$DIMDEC
 70
     1
  9
$DIMTDEC
 70
     1
  9
$DIMALTU
 70
     2
  9
$DIMALTTD
 70
     2
  9
$DIMTXSTY
  7
DAYUS
  9
$DIMAUNIT
 70
     0
  9
$LUNITS
 70
     2
  9
$LUPREC
 70
     2
  9
$SKETCHINC
 40
0.1
  9
$FILLETRAD
 40
1.0
  9
$AUNITS
 70
     0
  9
$AUPREC
 70
     0
  9
$MENU
  1
C:\CACAD\ACAD
  9
$ELEVATION
 40
0.0
  9
$PELEVATION
 40
0.0
  9
$THICKNESS
 40
0.0
  9
$LIMCHECK
 70
     0
  9
$BLIPMODE
 70
     0
  9
$CHAMFERA
 40
1.199999999999999
  9
$CHAMFERB
 40
1.199999999999999
  9
$CHAMFERC
 40
0.0
  9
$CHAMFERD
 40
0.0
  9
$SKPOLY
 70
     0
  9
$TDCREATE
 40
2451089.381228483
  9
$TDUPDATE
 40
2452705.630305150
  9
$TDINDWG
 40
0.0968258681
  9
$TDUSRTIMER
 40
0.0968258681
  9
$USRTIMER
 70
     1
  9
$ANGBASE
 50
0.0
  9
$ANGDIR
 70
     0
  9
$PDMODE
 70
    65
  9
$PDSIZE
 40
8.3
  9
$PLINEWID
 40
0.0
  9
$COORDS
 70
     0
  9
$SPLFRAME
 70
     0
  9
$SPLINETYPE
 70
     6
  9
$SPLINESEGS
 70
     8
  9
$ATTDIA
 70
     1
  9
$ATTREQ
 70
     1
  9
$HANDLING
 70
 22529
  9
$HANDSEED
  5
2064
  9
$SURFTAB1
 70
     6
  9
$SURFTAB2
 70
     6
  9
$SURFTYPE
 70
     6
  9
$SURFU
 70
     6
  9
$SURFV
 70
     6
  9
$UCSNAME
  2

  9
$UCSORG
 10
0.0
 20
0.0
 30
0.0
  9
$UCSXDIR
 10
1.0
 20
0.0
 30
0.0
  9
$UCSYDIR
 10
0.0
 20
1.0
 30
0.0
  9
$PUCSNAME
  2

  9
$PUCSORG
 10
0.0
 20
0.0
 30
0.0
  9
$PUCSXDIR
 10
1.0
 20
0.0
 30
0.0
  9
$PUCSYDIR
 10
0.0
 20
1.0
 30
0.0
  9
$USERI1
 70
     0
  9
$USERI2
 70
     0
  9
$USERI3
 70
     0
  9
$USERI4
 70
     0
  9
$USERI5
 70
     0
  9
$USERR1
 40
0.0
  9
$USERR2
 40
0.0
  9
$USERR3
 40
0.0
  9
$USERR4
 40
0.0
  9
$USERR5
 40
0.0
  9
$WORLDVIEW
 70
     1
  9
$SHADEDGE
 70
     3
  9
$SHADEDIF
 70
    70
  9
$TILEMODE
 70
     1
  9
$MAXACTVP
 70
    16
  9
$PINSBASE
 10
141.4198650116346
 20
0.0
 30
0.0
  9
$PLIMCHECK
 70
     0
  9
$PEXTMIN
 10
1.000000000000000E+20
 20
1.000000000000000E+20
 30
1.000000000000000E+20
  9
$PEXTMAX
 10
-1.000000000000000E+20
 20
-1.000000000000000E+20
 30
-1.000000000000000E+20
  9
$PLIMMIN
 10
0.0
 20
0.0
  9
$PLIMMAX
 10
12.0
 20
9.0
  9
$UNITMODE
 70
     0
  9
$VISRETAIN
 70
     0
  9
$PLINEGEN
 70
     0
  9
$PSLTSCALE
 70
     0
  9
$TREEDEPTH
 70
  3020
  9
$PICKSTYLE
 70
     0
  9
$CMLSTYLE
  2
STANDARD
  9
$CMLJUST
 70
     0
  9
$CMLSCALE
 40
1.0
  9
$SAVEIMAGES
 70
     1
  0
ENDSEC
  0
SECTION
  2
CLASSES
  0
CLASS
  1
ACDBDICTIONARYWDFLT
  2
AcDbDictionaryWithDefault
  3
AutoCAD 2000
 90
    32768
280
     0
281
     0
  0
CLASS
  1
ACDBPLACEHOLDER
  2
AcDbPlaceHolder
  3
AutoCAD 2000
 90
    32768
280
     0
281
     0
  0
CLASS
  1
LAYOUT
  2
AcDbLayout
  3
AutoCAD 2000
 90
    32768
280
     0
281
     0
  0
CLASS
  1
LONG_TRANSACTION
  2
AcDbLongTransaction
  3
AutoCAD 2000
 90
    32768
280
     0
281
     0
  0
CLASS
  1
LWPOLYLINE
  2
AcDbPolyline
  3
AutoCAD 2000
 90
    32768
280
     0
281
     1
  0
CLASS
  1
HATCH
  2
AcDbHatch
  3
AutoCAD 2000
 90
    32768
280
     0
281
     1
  0
CLASS
  1
XRECORD
  2
AcDbXrecord
  3
AutoCAD 2000
 90
    32768
280
     0
281
     0
  0
CLASS
  1
DICTIONARYVAR
  2
AcDbDictionaryVar
  3
AutoCAD 2000
 90
    32768
280
     0
281
     0
  0
CLASS
  1
LONG_TRANSACTION
  2
AcDbLongTransaction
  3
AutoCAD 2000
 90
    32768
280
     0
281
     0
  0
CLASS
  1
LWPOLYLINE
  2
AcDbPolyline
  3
AutoCAD 2000
 90
    32768
280
     0
281
     1
  0
CLASS
  1
HATCH
  2
AcDbHatch
  3
AutoCAD 2000
 90
    32768
280
     0
281
     1
  0
CLASS
  1
XRECORD
  2
AcDbXrecord
  3
AutoCAD 2000
 90
    32768
280
     0
281
     0
  0
CLASS
  1
ACME_DOCUMENT
  2
AcMeDbDoc
  3
AcMeServices
 90
    32768
280
     0
281
     0
  0
CLASS
  1
AMGSETTINGSOBJ
  2
AmgSettingsObj
  3
"AcadM|Product Description: AutoCAD Mechanical 2000|Company: Autodesk"
 90
    32768
280
     0
281
     0
  0
CLASS
  1
ACMESCOPE
  2
AcMeScope
  3
AcMeServices
 90
    32768
280
     0
281
     0
  0
CLASS
  1
ACMECOMMANDHISTORY
  2
AcMeCommandHistory
  3
AcMeServices
 90
    32768
280
     0
281
     0
  0
CLASS
  1
ACIMSYSVARMAN
  2
AcImSysVarManager
  3
AcMeServices
 90
    32768
280
     0
281
     0
  0
CLASS
  1
ACIMREALSYSVAR
  2
AcImRealSysVar
  3
AcMeServices
 90
    32768
280
     0
281
     0
  0
CLASS
  1
ACIMINTSYSVAR
  2
AcImIntSysVar
  3
AcMeServices
 90
    32768
280
     0
281
     0
  0
CLASS
  1
ACMEDRAWINGMAN
  2
AcMeDrawingMan
  3
AcMeServices
 90
    32768
280
     0
281
     0
  0
CLASS
  1
ACMEVIEW
  2
AcMeView
  3
AcMeServices
 90
    32768
280
     0
281
     0
  0
CLASS
  1
ACDBENTITYCACHE
  2
AcMeEntityCache
  3
AcMeServices
 90
    32768
280
     0
281
     0
  0
CLASS
  1
GSMANAGER
  2
AcMeGSManager
  3
AcMeServices
 90
    32768
280
     0
281
     0
  0
CLASS
  1
AMDTINTERNALREACTOR
  2
AmdtInternalReactor
  3
AcMeServices
 90
    32768
280
     0
281
     0
  0
CLASS
  1
ACMESTATEMGR
  2
AcMeStateMgr
  3
AcMeServices
 90
    32768
280
     0
281
     0
  0
CLASS
  1
ACGREFMASTER
  2
AcGrefMaster
  3
AcAttribServices
 90
    32768
280
     0
281
     0
  0
CLASS
  1
ACME_DATABASE
  2
AcMeDbDatabase
  3
AcMeServices
 90
    32768
280
     0
281
     0
  0
CLASS
  1
ACRFINSADJUSTERMGR
  2
AcRfInsAdjusterMgr
  3
AcMeServices
 90
    32768
280
     0
281
     0
  0
CLASS
  1
ACGREFACADMASTER
  2
AcGrefacadMaster
  3
AcGrefServices
 90
    32768
280
     0
281
     0
  0
CLASS
  1
AMIMASTER
  2
AmiMaster
  3
AmiServices
 90
    32768
280
     0
281
     0
  0
CLASS
  1
ACMDATADICTIONARY
  2
AcmDataDictionary
  3
"AcmSymBB|Product Description: AutoCAD Mechanical 2000|Company: Autodesk"
 90
    32768
280
     0
281
     0
  0
CLASS
  1
ACMDATAENTRYBLOCK
  2
AcmDataEntryBlock
  3
"AcmSymBB|Product Description: AutoCAD Mechanical 2000|Company: Autodesk"
 90
    32768
280
     0
281
     0
  0
CLASS
  1
ACIMSTRSYSVAR
  2
AcImStrSysVar
  3
AcMeServices
 90
    32768
280
     0
281
     0
  0
CLASS
  1
ACMSTANDARDANSI
  2
AcmStandardANSI
  3
"Amdt_StdImp|Product Description: AutoCAD Mechanical 2000|Company: Autodesk"
 90
    32768
280
     0
281
     0
  0
CLASS
  1
AMGOBJPROPCFG
  2
AmgObjPropCfg
  3
"AmgLay|Product Description: AutoCAD Mechanical 2000|Company: Autodesk"
 90
    32769
280
     0
281
     0
  0
CLASS
  1
ACMSURFSTANDARDANSI
  2
AcmSurfTextStdANSI
  3
"Amdt_StdImp|Product Description: AutoCAD Mechanical 2000|Company: Autodesk"
 90
    32768
280
     0
281
     0
  0
CLASS
  1
ACMFCFSTANDARDANSI
  2
AcmFCFStdANSI
  3
"Amdt_StdImp|Product Description: AutoCAD Mechanical 2000|Company: Autodesk"
 90
    32768
280
     0
281
     0
  0
CLASS
  1
ACMWELDSTANDARDANSI
  2
AcmWeldingStdANSI
  3
"Amdt_StdImp|Product Description: AutoCAD Mechanical 2000|Company: Autodesk"
 90
    32768
280
     0
281
     0
  0
CLASS
  1
ACMIDSTANDARDANSI
  2
AcmIdStdANSI
  3
"Amdt_StdImp|Product Description: AutoCAD Mechanical 2000|Company: Autodesk"
 90
    32768
280
     0
281
     0
  0
CLASS
  1
ACMDATUMSTANDARDANSI
  2
AcmDatumStdANSI
  3
"Amdt_StdImp|Product Description: AutoCAD Mechanical 2000|Company: Autodesk"
 90
    32768
280
     0
281
     0
  0
CLASS
  1
ACMBOMSTANDARDANSI
  2
AcmBOMStdANSI
  3
"Amdt_StdImp|Product Description: AutoCAD Mechanical 2000|Company: Autodesk"
 90
    32768
280
     0
281
     0
  0
CLASS
  1
ACMDETAILSTANDARDANSI
  2
AmdtDetailSymStdANSI
  3
"Amdt_StdImp|Product Description: AutoCAD Mechanical 2000|Company: Autodesk"
 90
    32768
280
     0
281
     0
  0
CLASS
  1
ACMSECTIONSTANDARDANSI
  2
AmdtSectionSymStdANSI
  3
"Amdt_StdImp|Product Description: AutoCAD Mechanical 2000|Company: Autodesk"
 90
    32768
280
     0
281
     0
  0
CLASS
  1
ACMCENTERLINESTANDARDANSI
  2
AmdtCenterLineStdANSI
  3
"Amdt_StdImp|Product Description: AutoCAD Mechanical 2000|Company: Autodesk"
 90
    32768
280
     0
281
     0
  0
CLASS
  1
ACMNOTESTANDARDANSI
  2
AmdtNoteStdANSI
  3
"Amdt_StdImp|Product Description: AutoCAD Mechanical 2000|Company: Autodesk"
 90
    32768
280
     0
281
     0
  0
CLASS
  1
ACAMGLAYSTD
  2
AcAmgLayStd
  3
"AcAmgLayStd|Product Description: AutoCAD Mechanical 2000|Company: Autodesk"
 90
    32768
280
     0
281
     0
  0
CLASS
  1
ACAMGDIMSTD
  2
AcAmgDimStd
  3
"AcAmgDimStd|Product Description: AutoCAD Mechanical 2000|Company: Autodesk"
 90
    32768
280
     0
281
     0
  0
CLASS
  1
ACAMGHOLECHARTSTDANSI
  2
AcAmgHoleChartStdANSI
  3
ACMSYMBB_MODULE_NAME
 90
    32768
280
     0
281
     0
  0
CLASS
  1
ACAMGTITLESTD
  2
AcAmgTitleStd
  3
"TITLEAPP"
 90
    32768
280
     0
281
     0
  0
CLASS
  1
LAYER_INDEX
  2
AcDbLayerIndex
  3
AutoCAD 2000
 90
    32768
280
     0
281
     0
  0
CLASS
  1
IDBUFFER
  2
AcDbIdBuffer
  3
AutoCAD 2000
 90
    32768
280
     0
281
     0
  0
CLASS
  1
LONG_TRANSACTION
  2
AcDbLongTransaction
  3
AutoCAD 2000
 90
    32768
280
     0
281
     0
  0
CLASS
  1
LWPOLYLINE
  2
AcDbPolyline
  3
AutoCAD 2000
 90
    32768
280
     0
281
     1
  0
CLASS
  1
HATCH
  2
AcDbHatch
  3
AutoCAD 2000
 90
    32768
280
     0
281
     1
  0
CLASS
  1
XRECORD
  2
AcDbXrecord
  3
AutoCAD 2000
 90
    32768
280
     0
281
     0
  0
ENDSEC
  0
SECTION
  2
TABLES
  0
TABLE
  2
VPORT
  5
94C
330
0
100
AcDbSymbolTable
 70
     5
  0
VPORT
  5
204C
330
94C
100
AcDbSymbolTableRecord
100
AcDbViewportTableRecord
  2
*ACTIVE
 70
     0
 10
0.0
 20
0.0
 11
1.0
 21
1.0
 12
419.4353751660328
 22
374.069962199276
 13
0.0
 23
0.0
 14
1.0
 24
1.0
 15
0.0
 25
0.0
 16
0.0
 26
0.0
 36
1.0
 17
0.0
 27
0.0
 37
0.0
 40
946.2471223613595
 41
1.765124555160142
 42
50.0
 43
0.0
 44
0.0
 50
0.0
 51
0.0
 71
     0
 72
   100
 73
     1
 74
     1
 75
     0
 76
     0
 77
     0
 78
     0
  0
ENDTAB
  0
TABLE
  2
LTYPE
  5
949
330
0
100
AcDbSymbolTable
 70
    16
  0
LTYPE
  5
957
330
949
100
AcDbSymbolTableRecord
100
AcDbLinetypeTableRecord
  2
BYBLOCK
 70
     0
  3

 72
    65
 73
     0
 40
0.0
  0
LTYPE
  5
958
330
949
100
AcDbSymbolTableRecord
100
AcDbLinetypeTableRecord
  2
BYLAYER
 70
     0
  3

 72
    65
 73
     0
 40
0.0
  0
LTYPE
  5
959
330
949
100
AcDbSymbolTableRecord
100
AcDbLinetypeTableRecord
  2
CONTINUOUS
 70
     0
  3
Solid line
 72
    65
 73
     0
 40
0.0
  0
LTYPE
  5
967
330
949
100
AcDbSymbolTableRecord
100
AcDbLinetypeTableRecord
  2
CENTER
 70
     0
  3
---- - ---- - ---- 3,-.3,.3,-.3
 72
    65
 73
     4
 40
3.9
 49
3.0
 74
     0
 49
-0.3
 74
     0
 49
0.3
 74
     0
 49
-0.3
 74
     0
  0
LTYPE
  5
DD5
330
949
100
AcDbSymbolTableRecord
100
AcDbLinetypeTableRecord
  2
HIDDEN2
 70
     0
  3
Hidden (.5x) _ _ _ _ _ _ _ _ _ _ _ _ _ _ _ _ _
 72
    65
 73
     2
 40
0.1875
 49
0.125
 74
     0
 49
-0.0625
 74
     0
  0
LTYPE
  5
1FB3
330
949
100
AcDbSymbolTableRecord
100
AcDbLinetypeTableRecord
  2
AM_ISO02W050
 70
     0
  3
__ __ __ __ __ __ __ __ __ __ __ __ __ __ __
 72
    65
 73
     2
 40
7.5
 49
6.0
 74
     0
 49
-1.5
 74
     0
  0
LTYPE
  5
1FB4
330
949
100
AcDbSymbolTableRecord
100
AcDbLinetypeTableRecord
  2
AM_ISO08W050
 70
     0
  3
____ . ____ . ____ . ____ . ____ . ____ . ____
 72
    65
 73
     4
 40
18.0
 49
12.0
 74
     0
 49
-1.5
 74
     0
 49
3.0
 74
     0
 49
-1.5
 74
     0
  0
LTYPE
  5
1FB5
330
949
100
AcDbSymbolTableRecord
100
AcDbLinetypeTableRecord
  2
AM_ISO09W050
 70
     0
  3
_____ . . _____ . . _____ . . ____ .. ____
 72
    65
 73
     6
 40
22.5
 49
12.0
 74
     0
 49
-1.5
 74
     0
 49
3.0
 74
     0
 49
-1.5
 74
     0
 49
3.0
 74
     0
 49
-1.5
 74
     0
  0
LTYPE
  5
1FB6
330
949
100
AcDbSymbolTableRecord
100
AcDbLinetypeTableRecord
  2
AMCONSTR
 70
     0
  3
_______________________
 72
    65
 73
     2
 40
9999.0
 49
9999.0
 74
     0
 49
0.0
 74
     0
  0
LTYPE
  5
1FB7
330
949
100
AcDbSymbolTableRecord
100
AcDbLinetypeTableRecord
  2
AM_ISO08W050X2
 70
     0
  3
__ . __ . __ . __ . __ . __
 72
    65
 73
     4
 40
9.0
 49
6.0
 74
     0
 49
-0.75
 74
     0
 49
1.5
 74
     0
 49
-0.75
 74
     0
  0
LTYPE
  5
1FB8
330
949
100
AcDbSymbolTableRecord
100
AcDbLinetypeTableRecord
  2
AM_ISO02W050X2
 70
     0
  3
 _ _ _ _ _ _ _ _ _ _ _ _
 72
    65
 73
     2
 40
3.75
 49
3.0
 74
     0
 49
-0.75
 74
     0
  0
LTYPE
  5
1FBB
330
949
100
AcDbSymbolTableRecord
100
AcDbLinetypeTableRecord
  2
AMZIGZAG
 70
     0
  3
/\/-/\/-/\/-/\/-/\/-/\/
 72
    65
 73
     2
 40
11.00009999999999
 49
0.0001
 74
     4
 75
   135
340
1FBA
 46
0.04
 50
0.0
 44
0.0
 45
0.0
 49
-11.0
 74
     0
  0
LTYPE
  5
1FBC
330
949
100
AcDbSymbolTableRecord
100
AcDbLinetypeTableRecord
  2
HIDDEN
 70
     0
  3
Hidden __ __ __ __ __ __ __ __ __ __ __ __ __ _
 72
    65
 73
     2
 40
0.375
 49
0.25
 74
     0
 49
-0.125
 74
     0
  0
LTYPE
  5
1FBD
330
949
100
AcDbSymbolTableRecord
100
AcDbLinetypeTableRecord
  2
PHANTOM2
 70
     0
  3
Phantom (.5x) ___ _ _ ___ _ _ ___ _ _ ___ _ _
 72
    65
 73
     6
 40
1.25
 49
0.625
 74
     0
 49
-0.125
 74
     0
 49
0.125
 74
     0
 49
-0.125
 74
     0
 49
0.125
 74
     0
 49
-0.125
 74
     0
  0
LTYPE
  5
1FBE
330
949
100
AcDbSymbolTableRecord
100
AcDbLinetypeTableRecord
  2
CENTER2
 70
     0
  3
Center (.5x) ___ _ ___ _ ___ _ ___ _ ___ _ ___
 72
    65
 73
     4
 40
1.125
 49
0.75
 74
     0
 49
-0.125
 74
     0
 49
0.125
 74
     0
 49
-0.125
 74
     0
  0
LTYPE
  5
1FBF
330
949
100
AcDbSymbolTableRecord
100
AcDbLinetypeTableRecord
  2
AMZIGZAG2
 70
     0
  3
/\/-/\/-/\/-/\/-/\/-/\/
 72
    65
 73
     2
 40
0.4401
 49
0.0001
 74
     4
 75
   135
340
1FBA
 46
0.0016
 50
0.0
 44
0.0
 45
0.0
 49
-0.4400000000000001
 74
     0
  0
LTYPE
  5
1FCC
330
949
100
AcDbSymbolTableRecord
100
AcDbLinetypeTableRecord
  2
ACANSTGB
 70
     0
  3
__ . . __ . .
 72
    65
 73
     6
 40
0.35433070866
 49
0.15748031496
 74
     0
 49
-0.03937007874
 74
     0
 49
0.03937007874
 74
     0
 49
-0.03937007874
 74
     0
 49
0.03937007874
 74
     0
 49
-0.03937007874
 74
     0
  0
LTYPE
  5
1FCD
330
949
100
AcDbSymbolTableRecord
100
AcDbLinetypeTableRecord
  2
ACANSTGL
 70
     0
  3
_ _ _ _ _
 72
    65
 73
     2
 40
0.11811023622
 49
0.07874015748
 74
     0
 49
-0.03937007874
 74
     0
  0
ENDTAB
  0
TABLE
  2
LAYER
  5
946
330
0
100
AcDbSymbolTable
 70
     7
  0
LAYER
  5
954
330
946
100
AcDbSymbolTableRecord
100
AcDbLayerTableRecord
  2
0
 70
     0
 62
     7
  6
CONTINUOUS
  0
LAYER
  5
980
330
946
100
AcDbSymbolTableRecord
100
AcDbLayerTableRecord
  2
LOGO
 70
     0
 62
     7
  6
CONTINUOUS
  0
LAYER
  5
DD6
330
946
100
AcDbSymbolTableRecord
100
AcDbLayerTableRecord
  2
AM_VIS
 70
     0
 62
     7
  6
CONTINUOUS
  0
LAYER
  5
DD7
330
946
100
AcDbSymbolTableRecord
100
AcDbLayerTableRecord
  2
AM_7
 70
     0
 62
     1
  6
CENTER
  0
LAYER
  5
DD9
330
946
100
AcDbSymbolTableRecord
100
AcDbLayerTableRecord
  2
AM_4
 70
     0
 62
     5
  6
CONTINUOUS
  0
LAYER
  5
131D
330
946
100
AcDbSymbolTableRecord
100
AcDbLayerTableRecord
  2
DEFPOINTS
 70
     0
 62
     7
  6
CONTINUOUS
  0
LAYER
  5
167F
330
946
100
AcDbSymbolTableRecord
100
AcDbLayerTableRecord
  2
DIM
 70
     0
 62
     5
  6
CONTINUOUS
  0
ENDTAB
  0
TABLE
  2
STYLE
  5
947
330
0
100
AcDbSymbolTable
 70
     7
  0
STYLE
  5
955
330
947
100
AcDbSymbolTableRecord
100
AcDbTextStyleTableRecord
  2
STANDARD
 70
     0
 40
0.0
 41
1.0
 50
0.0
 71
     0
 42
5.0
  3
txt
  4

  0
STYLE
  5
966
330
947
100
AcDbSymbolTableRecord
100
AcDbTextStyleTableRecord
  2
CHINESET
 70
     0
 40
0.0
 41
1.0
 50
0.0
 71
     0
 42
4.0
  3
simplex
  4
CHINESET.SHX
  0
STYLE
  5
981
330
947
100
AcDbSymbolTableRecord
100
AcDbTextStyleTableRecord
  2
LOGO
 70
     0
 40
0.0
 41
1.0
 50
0.0
 71
     0
 42
5.0
  3
LEI00DP.TTF
  4

1001
ACAD
1000
文鼎中粗隸
1071
    34865
  0
STYLE
  5
DDA
330
947
100
AcDbSymbolTableRecord
100
AcDbTextStyleTableRecord
  2
DAYUS
 70
     0
 40
0.0
 41
1.0
 50
0.0
 71
     0
 42
10.0
  3
simplex.shx
  4
dayus.shx
  0
STYLE
  5
1FBA
330
947
100
AcDbSymbolTableRecord
100
AcDbTextStyleTableRecord
  2

 70
     1
 40
0.0
 41
1.0
 50
0.0
 71
     0
 42
10.0
  3
ltypeshp.shx
  4

  0
STYLE
  5
1FC0
330
947
100
AcDbSymbolTableRecord
100
AcDbTextStyleTableRecord
  2
ACANSTS
 70
     0
 40
1.0
 41
1.0
 50
0.0
 71
     0
 42
10.0
  3
romans.shx
  4
chineset.shx
  0
STYLE
  5
1FCB
330
947
100
AcDbSymbolTableRecord
100
AcDbTextStyleTableRecord
  2
ACANSGDT
 70
     0
 40
0.0
 41
1.0
 50
0.0
 71
     0
 42
10.0
  3
amgdtans.shx
  4

  0
ENDTAB
  0
TABLE
  2
VIEW
  5
94A
330
0
100
AcDbSymbolTable
 70
     0
  0
ENDTAB
  0
TABLE
  2
UCS
  5
94B
330
0
100
AcDbSymbolTable
 70
     0
  0
ENDTAB
  0
TABLE
  2
APPID
  5
94D
330
0
100
AcDbSymbolTable
 70
     7
  0
APPID
  5
956
330
94D
100
AcDbSymbolTableRecord
100
AcDbRegAppTableRecord
  2
ACAD
 70
     0
  0
APPID
  5
1682
330
94D
100
AcDbSymbolTableRecord
100
AcDbRegAppTableRecord
  2
AD_DRAW
 70
     0
  0
APPID
  5
1683
330
94D
100
AcDbSymbolTableRecord
100
AcDbRegAppTableRecord
  2
DESIGNERASSEMBLIES
 70
     0
  0
APPID
  5
1684
330
94D
100
AcDbSymbolTableRecord
100
AcDbRegAppTableRecord
  2
MCAD_NO_VIS
 70
     0
  0
APPID
  5
1685
330
94D
100
AcDbSymbolTableRecord
100
AcDbRegAppTableRecord
  2
ASURF_PCURVE_APPNAME
 70
     0
  0
APPID
  5
1686
330
94D
100
AcDbSymbolTableRecord
100
AcDbRegAppTableRecord
  2
ACAD_TEMP_GRAPHIC
 70
     0
  0
APPID
  5
1FA7
330
94D
100
AcDbSymbolTableRecord
100
AcDbRegAppTableRecord
  2
ACATTRIBSERVICES
 70
     0
  0
ENDTAB
  0
TABLE
  2
DIMSTYLE
  5
94E
330
0
100
AcDbSymbolTable
 70
     8
  0
DIMSTYLE
105
96B
330
94E
100
AcDbSymbolTableRecord
100
AcDbDimStyleTableRecord
  2
AUDIT_I_030306140827-32
 70
     0
  3

  4

  5

  6

  7

 40
1.0
 41
3.0
 42
2.0
 43
8.0
 44
2.0
 45
0.0
 46
0.0
 47
0.0
 48
0.0
140
3.0
141
-1.0
142
0.0
143
25.4
144
1.0
145
0.0
146
1.0
147
1.5
 71
     0
 72
     0
 73
     1
 74
     1
 75
     0
 76
     0
 77
     0
 78
     0
170
     0
171
     2
172
     0
173
     0
174
     0
175
     0
176
     0
177
     0
178
     0
270
     2
271
     2
272
     2
273
     2
274
     2
340
955
275
     0
280
     0
281
     0
282
     0
283
     1
284
     0
285
     0
286
     0
287
     5
288
     0
  0
DIMSTYLE
105
DDB
102
{ACAD_REACTORS
330
131C
330
1344
330
1387
330
1396
330
13C4
330
13A3
330
13F2
330
13FF
330
140C
330
1419
330
1426
330
1468
102
}
330
94E
100
AcDbSymbolTableRecord
100
AcDbDimStyleTableRecord
  2
STANDARD
 70
     0
  3

  4

  5

  6

  7

 40
1.0
 41
3.0
 42
1.5
 43
7.0
 44
2.0
 45
0.0
 46
0.0
 47
0.01
 48
0.01
140
3.0
141
3.0
142
0.0
143
25.4
144
1.0
145
0.0
146
0.6
147
0.8
 71
     0
 72
     0
 73
     0
 74
     0
 75
     0
 76
     0
 77
     1
 78
     8
170
     0
171
     2
172
     1
173
     0
174
     0
175
     0
176
     5
177
     5
178
     5
270
     2
271
     1
272
     1
273
     2
274
     2
340
DDA
275
     0
280
     0
281
     0
282
     0
283
     1
284
     8
285
     0
286
     0
287
     3
288
     0
  0
DIMSTYLE
105
1FD1
330
94E
100
AcDbSymbolTableRecord
100
AcDbDimStyleTableRecord
  2
AM_ANSI
 70
     0
  3

  4
mm
  5

  6

  7

 40
1.0
 41
0.1
 42
0.05
 43
0.5
 44
0.1
 45
0.0
 46
0.0
 47
0.1
 48
0.1
140
0.12
141
0.0
142
0.0
143
25.4
144
1.0
145
0.0
146
0.71
147
0.06
 71
     0
 72
     0
 73
     1
 74
     1
 75
     0
 76
     0
 77
     0
 78
     7
170
     0
171
     2
172
     0
173
     0
174
     0
175
     0
176
   256
177
   256
178
     2
270
     2
271
     4
272
     4
273
     2
274
     4
340
955
275
     0
280
     0
281
     0
282
     0
283
     1
284
     7
285
     0
286
     0
287
     3
288
     0
  0
DIMSTYLE
105
1FD2
330
94E
100
AcDbSymbolTableRecord
100
AcDbDimStyleTableRecord
  2
AM_ANSI$3
 70
     0
  3

  4
mm
  5

  6

  7

 40
1.0
 41
0.1
 42
0.05
 43
0.5
 44
0.1
 45
0.0
 46
0.0
 47
0.1
 48
0.1
140
0.12
141
0.0
142
0.0
143
25.4
144
1.0
145
0.0
146
0.71
147
0.06
 71
     0
 72
     0
 73
     1
 74
     1
 75
     0
 76
     0
 77
     0
 78
     7
170
     0
171
     2
172
     0
173
     0
174
     0
175
     0
176
   256
177
   256
178
     2
270
     2
271
     4
272
     4
273
     2
274
     4
340
955
275
     0
280
     0
281
     0
282
     0
283
     1
284
     7
285
     0
286
     0
287
     0
288
     1
  0
DIMSTYLE
105
1FD3
330
94E
100
AcDbSymbolTableRecord
100
AcDbDimStyleTableRecord
  2
AM_ANSI$4
 70
     0
  3

  4
mm
  5

  6

  7

 40
1.0
 41
0.1
 42
0.05
 43
0.5
 44
0.1
 45
0.0
 46
0.0
 47
0.1
 48
0.1
140
0.12
141
0.0
142
0.0
143
25.4
144
1.0
145
0.0
146
0.71
147
0.06
 71
     0
 72
     0
 73
     1
 74
     1
 75
     0
 76
     0
 77
     0
 78
     7
170
     0
171
     2
172
     0
173
     0
174
     0
175
     0
176
   256
177
   256
178
     2
270
     2
271
     4
272
     4
273
     2
274
     4
340
955
275
     0
280
     0
281
     0
282
     0
283
     1
284
     7
285
     0
286
     0
287
     0
288
     1
  0
DIMSTYLE
105
1FD4
330
94E
100
AcDbSymbolTableRecord
100
AcDbDimStyleTableRecord
  2
AM_ANSI$7
 70
     0
  3

  4
mm
  5

  6

  7

 40
1.0
 41
0.1
 42
0.05
 43
0.5
 44
0.1
 45
0.0
 46
0.0
 47
0.1
 48
0.1
140
0.24
141
0.0
142
0.0
143
25.4
144
1.0
145
0.0
146
0.71
147
0.06
 71
     0
 72
     0
 73
     1
 74
     1
 75
     0
 76
     0
 77
     0
 78
     7
170
     0
171
     2
172
     0
173
     0
174
     0
175
     0
176
   256
177
   256
178
     2
270
     2
271
     4
272
     4
273
     2
274
     4
340
955
275
     0
280
     0
281
     0
282
     0
283
     1
284
     7
285
     0
286
     0
287
     3
288
     0
  0
DIMSTYLE
105
1FD5
330
94E
100
AcDbSymbolTableRecord
100
AcDbDimStyleTableRecord
  2
AM_ANSI$SF
 70
     0
  3

  4
mm
  5

  6

  7

 40
1.0
 41
0.1
 42
0.05
 43
0.5
 44
0.1
 45
0.0
 46
0.0
 47
0.1
 48
0.1
140
0.12
141
0.0
142
0.0
143
25.4
144
1.0
145
0.0
146
0.71
147
0.06
 71
     0
 72
     0
 73
     1
 74
     1
 75
     1
 76
     1
 77
     0
 78
     7
170
     0
171
     2
172
     0
173
     0
174
     0
175
     0
176
   256
177
   256
178
     2
270
     2
271
     4
272
     4
273
     2
274
     4
340
955
275
     0
280
     0
281
     0
282
     0
283
     1
284
     7
285
     0
286
     0
287
     3
288
     0
  0
DIMSTYLE
105
1FDA
330
94E
100
AcDbSymbolTableRecord
100
AcDbDimStyleTableRecord
  2
AM_ANSI$SH
 70
     0
  3

  4
mm
  5

  6
GENAXEH
  7

 40
1.0
 41
0.1
 42
0.05
 43
0.5
 44
0.1
 45
0.0
 46
0.0
 47
0.1
 48
0.1
140
0.12
141
0.0
142
0.0
143
25.4
144
1.0
145
0.0
146
0.71
147
0.06
 71
     0
 72
     0
 73
     1
 74
     1
 75
     1
 76
     1
 77
     0
 78
     7
170
     0
171
     2
172
     0
173
     1
174
     0
175
     0
176
   256
177
   256
178
     2
270
     2
271
     4
272
     4
273
     2
274
     4
340
955
275
     0
280
     0
281
     0
282
     0
283
     1
284
     7
285
     0
286
     0
287
     3
288
     0
  0
ENDTAB
  0
TABLE
  2
BLOCK_RECORD
  5
945
330
0
100
AcDbSymbolTable
 70
    13
  0
BLOCK_RECORD
  5
962
102
{ACAD_XDICTIONARY
360
A28
102
}
330
945
100
AcDbSymbolTableRecord
100
AcDbBlockTableRecord
  2
*MODEL_SPACE
  0
BLOCK_RECORD
  5
95E
102
{ACAD_XDICTIONARY
360
A2A
102
}
330
945
100
AcDbSymbolTableRecord
100
AcDbBlockTableRecord
  2
*PAPER_SPACE
  0
BLOCK_RECORD
  5
131E
330
945
100
AcDbSymbolTableRecord
100
AcDbBlockTableRecord
  2
*D0
  0
BLOCK_RECORD
  5
1345
330
945
100
AcDbSymbolTableRecord
100
AcDbBlockTableRecord
  2
*D1
  0
BLOCK_RECORD
  5
1388
330
945
100
AcDbSymbolTableRecord
100
AcDbBlockTableRecord
  2
*D2
  0
BLOCK_RECORD
  5
1397
330
945
100
AcDbSymbolTableRecord
100
AcDbBlockTableRecord
  2
*D3
  0
BLOCK_RECORD
  5
13A4
330
945
100
AcDbSymbolTableRecord
100
AcDbBlockTableRecord
  2
*D4
  0
BLOCK_RECORD
  5
13C5
330
945
100
AcDbSymbolTableRecord
100
AcDbBlockTableRecord
  2
*D5
  0
BLOCK_RECORD
  5
13F3
330
945
100
AcDbSymbolTableRecord
100
AcDbBlockTableRecord
  2
*D6
  0
BLOCK_RECORD
  5
1400
330
945
100
AcDbSymbolTableRecord
100
AcDbBlockTableRecord
  2
*D7
  0
BLOCK_RECORD
  5
140D
330
945
100
AcDbSymbolTableRecord
100
AcDbBlockTableRecord
  2
*D8
  0
BLOCK_RECORD
  5
141A
330
945
100
AcDbSymbolTableRecord
100
AcDbBlockTableRecord
  2
*D9
  0
BLOCK_RECORD
  5
1427
330
945
100
AcDbSymbolTableRecord
100
AcDbBlockTableRecord
  2
*D10
  0
BLOCK_RECORD
  5
1469
330
945
100
AcDbSymbolTableRecord
100
AcDbBlockTableRecord
  2
*D11
  0
BLOCK_RECORD
  5
1FD6
330
945
100
AcDbSymbolTableRecord
100
AcDbBlockTableRecord
  2
GENAXEH
  0
ENDTAB
  0
ENDSEC
  0
SECTION
  2
BLOCKS
  0
BLOCK
  5
96F
330
962
100
AcDbEntity
  8
0
100
AcDbBlockBegin
  2
*MODEL_SPACE
 70
     0
 10
0.0
 20
0.0
 30
0.0
  3
*MODEL_SPACE
  1

  0
ENDBLK
  5
970
330
962
100
AcDbEntity
  8
0
100
AcDbBlockEnd
  0
BLOCK
  5
96D
330
95E
100
AcDbEntity
 67
     1
  8
0
100
AcDbBlockBegin
  2
*PAPER_SPACE
 70
     0
 10
0.0
 20
0.0
 30
0.0
  3
*PAPER_SPACE
  1

  0
ENDBLK
  5
96E
330
95E
100
AcDbEntity
 67
     1
  8
0
100
AcDbBlockEnd
  0
BLOCK
  5
1328
330
131E
100
AcDbEntity
  8
0
 62
     1
100
AcDbBlockBegin
  2
*D0
 70
     1
 10
0.0
 20
0.0
 30
0.0
  3
*D0
  1

  0
LINE
  5
1E9D
330
131E
100
AcDbEntity
  8
DIM
 62
     5
100
AcDbLine
 10
597.4564254079398
 20
490.4999441278208
 30
0.0
 11
597.4564254079398
 21
511.1937082808826
 31
0.0
  0
LINE
  5
1E9E
330
131E
100
AcDbEntity
  8
DIM
 62
     5
100
AcDbLine
 10
817.4564254079397
 20
490.4999441278208
 30
0.0
 11
817.4564254079397
 21
511.1937082808826
 31
0.0
  0
LINE
  5
1E9F
330
131E
100
AcDbEntity
  8
DIM
 62
     5
100
AcDbLine
 10
600.4564254079398
 20
509.1937082808826
 30
0.0
 11
814.4564254079398
 21
509.1937082808826
 31
0.0
  0
SOLID
  5
1EA0
330
131E
100
AcDbEntity
  8
DIM
 62
     5
100
AcDbTrace
 10
600.4564254079398
 20
509.6937082808826
 30
0.0
 11
600.4564254079398
 21
508.6937082808826
 31
0.0
 12
597.4564254079398
 22
509.1937082808826
 32
0.0
 13
597.4564254079398
 23
509.1937082808826
 33
0.0
  0
SOLID
  5
1EA1
330
131E
100
AcDbEntity
  8
DIM
 62
     5
100
AcDbTrace
 10
814.4564254079398
 20
509.6937082808826
 30
0.0
 11
814.4564254079398
 21
508.6937082808826
 31
0.0
 12
817.4564254079397
 22
509.1937082808826
 32
0.0
 13
817.4564254079397
 23
509.1937082808826
 33
0.0
  0
MTEXT
  5
1EA2
330
131E
100
AcDbEntity
  8
DIM
 62
     5
100
AcDbMText
 10
707.4564254079398
 20
511.4937082808826
 30
0.0
 40
3.0
 41
0.0
 71
     5
 72
     1
  1
\A1;%%c220
  7
DAYUS
1001
ACAD
1000
MTEXTBEGIN
1070
    73
1070
     1
1070
    44
1040
1.0
1070
    74
1070
     0
1000
MTEXTEND
  0
POINT
  5
1EA3
330
131E
100
AcDbEntity
  8
DEFPOINTS
 62
     0
100
AcDbPoint
 10
597.4564254079398
 20
488.9999441278209
 30
0.0
  0
POINT
  5
1EA4
330
131E
100
AcDbEntity
  8
DEFPOINTS
 62
     0
100
AcDbPoint
 10
817.4564254079397
 20
488.9999441278209
 30
0.0
  0
POINT
  5
1EA5
330
131E
100
AcDbEntity
  8
DEFPOINTS
 62
     0
100
AcDbPoint
 10
817.4564254079397
 20
509.1937082808826
 30
0.0
  0
ENDBLK
  5
1329
330
131E
100
AcDbEntity
  8
0
 62
     1
100
AcDbBlockEnd
  0
BLOCK
  5
134F
330
1345
100
AcDbEntity
  8
0
 62
     1
100
AcDbBlockBegin
  2
*D1
 70
     1
 10
0.0
 20
0.0
 30
0.0
  3
*D1
  1

  0
LINE
  5
1EA6
330
1345
100
AcDbEntity
  8
DIM
 62
     5
100
AcDbLine
 10
127.9502540291949
 20
467.9999441278208
 30
0.0
 11
127.9502540291949
 21
505.5237181464967
 31
0.0
  0
LINE
  5
1EA7
330
1345
100
AcDbEntity
  8
DIM
 62
     5
100
AcDbLine
 10
152.9502540291949
 20
467.9999441278208
 30
0.0
 11
152.9502540291949
 21
505.5237181464967
 31
0.0
  0
LINE
  5
1EA8
330
1345
100
AcDbEntity
  8
DIM
 62
     5
100
AcDbLine
 10
130.9502540291949
 20
503.5237181464967
 30
0.0
 11
149.9502540291949
 21
503.5237181464967
 31
0.0
  0
SOLID
  5
1EA9
330
1345
100
AcDbEntity
  8
DIM
 62
     5
100
AcDbTrace
 10
130.9502540291949
 20
504.0237181464966
 30
0.0
 11
130.9502540291949
 21
503.0237181464967
 31
0.0
 12
127.9502540291949
 22
503.5237181464967
 32
0.0
 13
127.9502540291949
 23
503.5237181464967
 33
0.0
  0
SOLID
  5
1EAA
330
1345
100
AcDbEntity
  8
DIM
 62
     5
100
AcDbTrace
 10
149.9502540291949
 20
504.0237181464966
 30
0.0
 11
149.9502540291949
 21
503.0237181464967
 31
0.0
 12
152.9502540291949
 22
503.5237181464967
 32
0.0
 13
152.9502540291949
 23
503.5237181464967
 33
0.0
  0
MTEXT
  5
1EAB
330
1345
100
AcDbEntity
  8
DIM
 62
     5
100
AcDbMText
 10
140.4502540291949
 20
505.8237181464967
 30
0.0
 40
3.0
 41
0.0
 71
     5
 72
     1
  1
\A1;%%C25
  7
DAYUS
1001
ACAD
1000
MTEXTBEGIN
1070
    73
1070
     1
1070
    44
1040
1.0
1070
    74
1070
     0
1000
MTEXTEND
  0
POINT
  5
1EAC
330
1345
100
AcDbEntity
  8
DEFPOINTS
 62
     0
100
AcDbPoint
 10
127.9502540291949
 20
466.4999441278208
 30
0.0
  0
POINT
  5
1EAD
330
1345
100
AcDbEntity
  8
DEFPOINTS
 62
     0
100
AcDbPoint
 10
152.9502540291949
 20
466.4999441278208
 30
0.0
  0
POINT
  5
1EAE
330
1345
100
AcDbEntity
  8
DEFPOINTS
 62
     0
100
AcDbPoint
 10
152.9502540291949
 20
503.5237181464967
 30
0.0
  0
ENDBLK
  5
1350
330
1345
100
AcDbEntity
  8
0
 62
     1
100
AcDbBlockEnd
  0
BLOCK
  5
1392
330
1388
100
AcDbEntity
  8
0
 62
     1
100
AcDbBlockBegin
  2
*D2
 70
     1
 10
0.0
 20
0.0
 30
0.0
  3
*D2
  1

  0
LINE
  5
1EAF
330
1388
100
AcDbEntity
  8
DIM
 62
     5
100
AcDbLine
 10
476.1173332312079
 20
211.6709106103594
 30
0.0
 11
548.7203878294914
 21
211.6709106103594
 31
0.0
  0
LINE
  5
1EB0
330
1388
100
AcDbEntity
  8
DIM
 62
     5
100
AcDbLine
 10
476.1173332312082
 20
179.6709106103593
 30
0.0
 11
548.7203878294914
 21
179.6709106103593
 31
0.0
  0
LINE
  5
1EB1
330
1388
100
AcDbEntity
  8
DIM
 62
     5
100
AcDbLine
 10
546.7203878294914
 20
208.6709106103593
 30
0.0
 11
546.7203878294914
 21
182.6709106103593
 31
0.0
  0
SOLID
  5
1EB2
330
1388
100
AcDbEntity
  8
DIM
 62
     5
100
AcDbTrace
 10
546.2203878294913
 20
208.6709106103593
 30
0.0
 11
547.2203878294914
 21
208.6709106103593
 31
0.0
 12
546.7203878294914
 22
211.6709106103594
 32
0.0
 13
546.7203878294914
 23
211.6709106103594
 33
0.0
  0
SOLID
  5
1EB3
330
1388
100
AcDbEntity
  8
DIM
 62
     5
100
AcDbTrace
 10
546.2203878294913
 20
182.6709106103593
 30
0.0
 11
547.2203878294914
 21
182.6709106103593
 31
0.0
 12
546.7203878294914
 22
179.6709106103593
 32
0.0
 13
546.7203878294914
 23
179.6709106103593
 33
0.0
  0
MTEXT
  5
1EB4
330
1388
100
AcDbEntity
  8
DIM
 62
     5
100
AcDbMText
 10
544.4203878294914
 20
195.6709106103594
 30
0.0
 40
3.0
 41
0.0
 71
     5
 72
     1
  1
\A1;32
  7
DAYUS
 11
0.0000000000000001
 21
1.0
 31
0.0
1001
ACAD
1000
MTEXTBEGIN
1070
    73
1070
     1
1070
    44
1040
1.0
1070
    74
1070
     0
1000
MTEXTEND
  0
POINT
  5
1EB5
330
1388
100
AcDbEntity
  8
DEFPOINTS
 62
     0
100
AcDbPoint
 10
474.6173332312078
 20
211.6709106103594
 30
0.0
  0
POINT
  5
1EB6
330
1388
100
AcDbEntity
  8
DEFPOINTS
 62
     0
100
AcDbPoint
 10
474.6173332312081
 20
179.6709106103593
 30
0.0
  0
POINT
  5
1EB7
330
1388
100
AcDbEntity
  8
DEFPOINTS
 62
     0
100
AcDbPoint
 10
546.7203878294914
 20
179.6709106103593
 30
0.0
  0
ENDBLK
  5
1393
330
1388
100
AcDbEntity
  8
0
 62
     1
100
AcDbBlockEnd
  0
BLOCK
  5
13A1
330
1397
100
AcDbEntity
  8
0
 62
     1
100
AcDbBlockBegin
  2
*D3
 70
     1
 10
0.0
 20
0.0
 30
0.0
  3
*D3
  1

  0
LINE
  5
1EB8
330
1397
100
AcDbEntity
  8
DIM
 62
     5
100
AcDbLine
 10
357.0401128445679
 20
121.5103298254528
 30
0.0
 11
357.0401128445679
 21
61.19736297093936
 31
0.0
  0
LINE
  5
1EB9
330
1397
100
AcDbEntity
  8
DIM
 62
     5
100
AcDbLine
 10
418.240112844569
 20
82.57091061035906
 30
0.0
 11
418.240112844569
 21
61.19736297093936
 31
0.0
  0
LINE
  5
1EBA
330
1397
100
AcDbEntity
  8
DIM
 62
     5
100
AcDbLine
 10
360.0401128445679
 20
63.19736297093936
 30
0.0
 11
415.2401128445689
 21
63.19736297093936
 31
0.0
  0
SOLID
  5
1EBB
330
1397
100
AcDbEntity
  8
DIM
 62
     5
100
AcDbTrace
 10
360.0401128445679
 20
63.69736297093936
 30
0.0
 11
360.0401128445679
 21
62.69736297093936
 31
0.0
 12
357.0401128445679
 22
63.19736297093936
 32
0.0
 13
357.0401128445679
 23
63.19736297093936
 33
0.0
  0
SOLID
  5
1EBC
330
1397
100
AcDbEntity
  8
DIM
 62
     5
100
AcDbTrace
 10
415.2401128445689
 20
63.69736297093936
 30
0.0
 11
415.2401128445689
 21
62.69736297093936
 31
0.0
 12
418.240112844569
 22
63.19736297093936
 32
0.0
 13
418.240112844569
 23
63.19736297093936
 33
0.0
  0
MTEXT
  5
1EBD
330
1397
100
AcDbEntity
  8
DIM
 62
     5
100
AcDbMText
 10
387.6401128445684
 20
65.49736297093936
 30
0.0
 40
3.0
 41
0.0
 71
     5
 72
     1
  1
\A1;61.2
  7
DAYUS
1001
ACAD
1000
MTEXTBEGIN
1070
    73
1070
     1
1070
    44
1040
1.0
1070
    74
1070
     0
1000
MTEXTEND
  0
POINT
  5
1EBE
330
1397
100
AcDbEntity
  8
DEFPOINTS
 62
     0
100
AcDbPoint
 10
357.0401128445679
 20
123.0103298254528
 30
0.0
  0
POINT
  5
1EBF
330
1397
100
AcDbEntity
  8
DEFPOINTS
 62
     0
100
AcDbPoint
 10
418.240112844569
 20
84.07091061035904
 30
0.0
  0
POINT
  5
1EC0
330
1397
100
AcDbEntity
  8
DEFPOINTS
 62
     0
100
AcDbPoint
 10
418.240112844569
 20
63.19736297093936
 30
0.0
  0
ENDBLK
  5
13A2
330
1397
100
AcDbEntity
  8
0
 62
     1
100
AcDbBlockEnd
  0
BLOCK
  5
13AF
330
13A4
100
AcDbEntity
  8
0
 62
     1
100
AcDbBlockBegin
  2
*D4
 70
     1
 10
0.0
 20
0.0
 30
0.0
  3
*D4
  1

  0
LINE
  5
1EC1
330
13A4
100
AcDbEntity
  8
DIM
 62
     5
100
AcDbLine
 10
195.4021593130283
 20
375.4999441278208
 30
0.0
 11
195.4021593130283
 21
358.434678569386
 31
0.0
  0
LINE
  5
1EC2
330
13A4
100
AcDbEntity
  8
DIM
 62
     5
100
AcDbLine
 10
215.4021593130283
 20
375.4999441278208
 30
0.0
 11
215.4021593130283
 21
358.434678569386
 31
0.0
  0
LINE
  5
1EC3
330
13A4
100
AcDbEntity
  8
DIM
 62
     5
100
AcDbLine
 10
198.4021593130283
 20
360.4346785693859
 30
0.0
 11
212.4021593130283
 21
360.4346785693859
 31
0.0
  0
SOLID
  5
1EC4
330
13A4
100
AcDbEntity
  8
DIM
 62
     5
100
AcDbTrace
 10
198.4021593130283
 20
360.934678569386
 30
0.0
 11
198.4021593130283
 21
359.9346785693859
 31
0.0
 12
195.4021593130283
 22
360.4346785693859
 32
0.0
 13
195.4021593130283
 23
360.4346785693859
 33
0.0
  0
SOLID
  5
1EC5
330
13A4
100
AcDbEntity
  8
DIM
 62
     5
100
AcDbTrace
 10
212.4021593130283
 20
360.934678569386
 30
0.0
 11
212.4021593130283
 21
359.9346785693859
 31
0.0
 12
215.4021593130283
 22
360.4346785693859
 32
0.0
 13
215.4021593130283
 23
360.4346785693859
 33
0.0
  0
MTEXT
  5
1EC6
330
13A4
100
AcDbEntity
  8
DIM
 62
     5
100
AcDbMText
 10
205.4021593130283
 20
362.7346785693859
 30
0.0
 40
3.0
 41
0.0
 71
     5
 72
     1
  1
\A1;3-%%CD
  7
DAYUS
1001
ACAD
1000
MTEXTBEGIN
1070
    73
1070
     1
1070
    44
1040
1.0
1070
    74
1070
     0
1000
MTEXTEND
  0
POINT
  5
1EC7
330
13A4
100
AcDbEntity
  8
DEFPOINTS
 62
     0
100
AcDbPoint
 10
195.4021593130283
 20
376.9999441278208
 30
0.0
  0
POINT
  5
1EC8
330
13A4
100
AcDbEntity
  8
DEFPOINTS
 62
     0
100
AcDbPoint
 10
215.4021593130283
 20
376.9999441278208
 30
0.0
  0
POINT
  5
1EC9
330
13A4
100
AcDbEntity
  8
DEFPOINTS
 62
     0
100
AcDbPoint
 10
215.4021593130283
 20
360.4346785693859
 30
0.0
  0
ENDBLK
  5
13B0
330
13A4
100
AcDbEntity
  8
0
 62
     1
100
AcDbBlockEnd
  0
BLOCK
  5
13D1
330
13C5
100
AcDbEntity
  8
0
 62
     1
100
AcDbBlockBegin
  2
*D5
 70
     1
 10
0.0
 20
0.0
 30
0.0
  3
*D5
  1

  0
LINE
  5
1ECA
330
13C5
100
AcDbEntity
  8
DIM
 62
     5
100
AcDbLine
 10
514.7401128445689
 20
465.9999441278208
 30
0.0
 11
543.4143225507606
 21
465.9999441278208
 31
0.0
  0
LINE
  5
1ECB
330
13C5
100
AcDbEntity
  8
DIM
 62
     5
100
AcDbLine
 10
529.740112844569
 20
470.9999441278208
 30
0.0
 11
543.4143225507606
 21
470.9999441278208
 31
0.0
  0
LINE
  5
1ECC
330
13C5
100
AcDbEntity
  8
DIM
 62
     5
100
AcDbLine
 10
541.4143225507606
 20
462.9999441278208
 30
0.0
 11
541.4143225507606
 21
459.9999441278209
 31
0.0
  0
LINE
  5
1ECD
330
13C5
100
AcDbEntity
  8
DIM
 62
     5
100
AcDbLine
 10
541.4143225507606
 20
473.9999441278208
 30
0.0
 11
541.4143225507606
 21
476.9999441278208
 31
0.0
  0
LINE
  5
1ECE
330
13C5
100
AcDbEntity
  8
DIM
 62
     5
100
AcDbLine
 10
541.4143225507606
 20
465.9999441278208
 30
0.0
 11
541.4143225507606
 21
470.9999441278208
 31
0.0
  0
SOLID
  5
1ECF
330
13C5
100
AcDbEntity
  8
DIM
 62
     5
100
AcDbTrace
 10
540.9143225507606
 20
462.9999441278208
 30
0.0
 11
541.9143225507606
 21
462.9999441278208
 31
0.0
 12
541.4143225507606
 22
465.9999441278208
 32
0.0
 13
541.4143225507606
 23
465.9999441278208
 33
0.0
  0
SOLID
  5
1ED0
330
13C5
100
AcDbEntity
  8
DIM
 62
     5
100
AcDbTrace
 10
540.9143225507606
 20
473.9999441278208
 30
0.0
 11
541.9143225507606
 21
473.9999441278208
 31
0.0
 12
541.4143225507606
 22
470.9999441278208
 32
0.0
 13
541.4143225507606
 23
470.9999441278208
 33
0.0
  0
MTEXT
  5
1ED1
330
13C5
100
AcDbEntity
  8
DIM
 62
     5
100
AcDbMText
 10
539.1143225507605
 20
468.4999441278208
 30
0.0
 40
3.0
 41
0.0
 71
     5
 72
     1
  1
\A1;5
  7
DAYUS
 11
0.0000000000000001
 21
1.0
 31
0.0
1001
ACAD
1000
MTEXTBEGIN
1070
    73
1070
     1
1070
    44
1040
1.0
1070
    74
1070
     0
1000
MTEXTEND
  0
POINT
  5
1ED2
330
13C5
100
AcDbEntity
  8
DEFPOINTS
 62
     0
100
AcDbPoint
 10
513.240112844569
 20
465.9999441278208
 30
0.0
  0
POINT
  5
1ED3
330
13C5
100
AcDbEntity
  8
DEFPOINTS
 62
     0
100
AcDbPoint
 10
528.240112844569
 20
470.9999441278208
 30
0.0
  0
POINT
  5
1ED4
330
13C5
100
AcDbEntity
  8
DEFPOINTS
 62
     0
100
AcDbPoint
 10
541.4143225507606
 20
470.9999441278208
 30
0.0
  0
ENDBLK
  5
13D2
330
13C5
100
AcDbEntity
  8
0
 62
     1
100
AcDbBlockEnd
  0
BLOCK
  5
13FD
330
13F3
100
AcDbEntity
  8
0
 62
     1
100
AcDbBlockBegin
  2
*D6
 70
     1
 10
0.0
 20
0.0
 30
0.0
  3
*D6
  1

  0
LINE
  5
1ED5
330
13F3
100
AcDbEntity
  8
DIM
 62
     5
100
AcDbLine
 10
151.0502540291952
 20
443.9999441278208
 30
0.0
 11
242.0731247567892
 21
443.9999441278208
 31
0.0
  0
LINE
  5
1ED6
330
13F3
100
AcDbEntity
  8
DIM
 62
     5
100
AcDbLine
 10
231.2812991332561
 20
465.9999441278208
 30
0.0
 11
242.0731247567892
 21
465.9999441278208
 31
0.0
  0
LINE
  5
1ED7
330
13F3
100
AcDbEntity
  8
DIM
 62
     5
100
AcDbLine
 10
240.0731247567892
 20
446.9999441278209
 30
0.0
 11
240.0731247567893
 21
462.9999441278208
 31
0.0
  0
SOLID
  5
1ED8
330
13F3
100
AcDbEntity
  8
DIM
 62
     5
100
AcDbTrace
 10
239.5731247567892
 20
446.9999441278209
 30
0.0
 11
240.5731247567892
 21
446.9999441278209
 31
0.0
 12
240.0731247567892
 22
443.9999441278208
 32
0.0
 13
240.0731247567892
 23
443.9999441278208
 33
0.0
  0
SOLID
  5
1ED9
330
13F3
100
AcDbEntity
  8
DIM
 62
     5
100
AcDbTrace
 10
239.5731247567892
 20
462.9999441278208
 30
0.0
 11
240.5731247567893
 21
462.9999441278208
 31
0.0
 12
240.0731247567893
 22
465.9999441278208
 32
0.0
 13
240.0731247567893
 23
465.9999441278208
 33
0.0
  0
MTEXT
  5
1EDA
330
13F3
100
AcDbEntity
  8
DIM
 62
     5
100
AcDbMText
 10
237.7731247567892
 20
454.9999441278209
 30
0.0
 40
3.0
 41
0.0
 71
     5
 72
     1
  1
\A1;22
  7
DAYUS
 11
0.0000000000000001
 21
1.0
 31
0.0
1001
ACAD
1000
MTEXTBEGIN
1070
    73
1070
     1
1070
    44
1040
1.0
1070
    74
1070
     0
1000
MTEXTEND
  0
POINT
  5
1EDB
330
13F3
100
AcDbEntity
  8
DEFPOINTS
 62
     0
100
AcDbPoint
 10
149.5502540291951
 20
443.9999441278208
 30
0.0
  0
POINT
  5
1EDC
330
13F3
100
AcDbEntity
  8
DEFPOINTS
 62
     0
100
AcDbPoint
 10
229.7812991332562
 20
465.9999441278208
 30
0.0
  0
POINT
  5
1EDD
330
13F3
100
AcDbEntity
  8
DEFPOINTS
 62
     0
100
AcDbPoint
 10
240.0731247567893
 20
465.9999441278208
 30
0.0
  0
ENDBLK
  5
13FE
330
13F3
100
AcDbEntity
  8
0
 62
     1
100
AcDbBlockEnd
  0
BLOCK
  5
140A
330
1400
100
AcDbEntity
  8
0
 62
     1
100
AcDbBlockBegin
  2
*D7
 70
     1
 10
0.0
 20
0.0
 30
0.0
  3
*D7
  1

  0
LINE
  5
1EDE
330
1400
100
AcDbEntity
  8
DIM
 62
     5
100
AcDbLine
 10
151.0502540291952
 20
422.9999441278208
 30
0.0
 11
242.7743716917149
 21
422.9999441278208
 31
0.0
  0
LINE
  5
1EDF
330
1400
100
AcDbEntity
  8
DIM
 62
     5
100
AcDbLine
 10
231.2812991332561
 20
400.9999441278209
 30
0.0
 11
242.7743716917149
 21
400.9999441278209
 31
0.0
  0
LINE
  5
1EE0
330
1400
100
AcDbEntity
  8
DIM
 62
     5
100
AcDbLine
 10
240.7743716917149
 20
419.9999441278208
 30
0.0
 11
240.7743716917149
 21
403.9999441278208
 31
0.0
  0
SOLID
  5
1EE1
330
1400
100
AcDbEntity
  8
DIM
 62
     5
100
AcDbTrace
 10
240.2743716917149
 20
419.9999441278208
 30
0.0
 11
241.2743716917149
 21
419.9999441278208
 31
0.0
 12
240.7743716917149
 22
422.9999441278208
 32
0.0
 13
240.7743716917149
 23
422.9999441278208
 33
0.0
  0
SOLID
  5
1EE2
330
1400
100
AcDbEntity
  8
DIM
 62
     5
100
AcDbTrace
 10
240.2743716917149
 20
403.9999441278208
 30
0.0
 11
241.2743716917149
 21
403.9999441278208
 31
0.0
 12
240.7743716917149
 22
400.9999441278209
 32
0.0
 13
240.7743716917149
 23
400.9999441278209
 33
0.0
  0
MTEXT
  5
1EE3
330
1400
100
AcDbEntity
  8
DIM
 62
     5
100
AcDbMText
 10
238.4743716917148
 20
411.9999441278209
 30
0.0
 40
3.0
 41
0.0
 71
     5
 72
     1
  1
\A1;22
  7
DAYUS
 11
0.0000000000000001
 21
1.0
 31
0.0
1001
ACAD
1000
MTEXTBEGIN
1070
    73
1070
     1
1070
    44
1040
1.0
1070
    74
1070
     0
1000
MTEXTEND
  0
POINT
  5
1EE4
330
1400
100
AcDbEntity
  8
DEFPOINTS
 62
     0
100
AcDbPoint
 10
149.5502540291951
 20
422.9999441278208
 30
0.0
  0
POINT
  5
1EE5
330
1400
100
AcDbEntity
  8
DEFPOINTS
 62
     0
100
AcDbPoint
 10
229.7812991332562
 20
400.9999441278209
 30
0.0
  0
POINT
  5
1EE6
330
1400
100
AcDbEntity
  8
DEFPOINTS
 62
     0
100
AcDbPoint
 10
240.7743716917149
 20
400.9999441278209
 30
0.0
  0
ENDBLK
  5
140B
330
1400
100
AcDbEntity
  8
0
 62
     1
100
AcDbBlockEnd
  0
BLOCK
  5
1417
330
140D
100
AcDbEntity
  8
0
 62
     1
100
AcDbBlockBegin
  2
*D8
 70
     1
 10
0.0
 20
0.0
 30
0.0
  3
*D8
  1

  0
LINE
  5
1EE7
330
140D
100
AcDbEntity
  8
DIM
 62
     5
100
AcDbLine
 10
514.7401128445689
 20
465.9999441278208
 30
0.0
 11
543.3506902841192
 21
465.9999441278208
 31
0.0
  0
LINE
  5
1EE8
330
140D
100
AcDbEntity
  8
DIM
 62
     5
100
AcDbLine
 10
514.7401128445689
 20
400.9999441278209
 30
0.0
 11
543.3506902841192
 21
400.9999441278209
 31
0.0
  0
LINE
  5
1EE9
330
140D
100
AcDbEntity
  8
DIM
 62
     5
100
AcDbLine
 10
541.3506902841191
 20
462.9999441278208
 30
0.0
 11
541.3506902841191
 21
403.9999441278208
 31
0.0
  0
SOLID
  5
1EEA
330
140D
100
AcDbEntity
  8
DIM
 62
     5
100
AcDbTrace
 10
540.8506902841192
 20
462.9999441278208
 30
0.0
 11
541.8506902841191
 21
462.9999441278208
 31
0.0
 12
541.3506902841191
 22
465.9999441278208
 32
0.0
 13
541.3506902841191
 23
465.9999441278208
 33
0.0
  0
SOLID
  5
1EEB
330
140D
100
AcDbEntity
  8
DIM
 62
     5
100
AcDbTrace
 10
540.8506902841192
 20
403.9999441278208
 30
0.0
 11
541.8506902841191
 21
403.9999441278208
 31
0.0
 12
541.3506902841191
 22
400.9999441278209
 32
0.0
 13
541.3506902841191
 23
400.9999441278209
 33
0.0
  0
MTEXT
  5
1EEC
330
140D
100
AcDbEntity
  8
DIM
 62
     5
100
AcDbMText
 10
539.0506902841191
 20
433.4999441278209
 30
0.0
 40
3.0
 41
0.0
 71
     5
 72
     1
  1
\A1;65
  7
DAYUS
 11
0.0000000000000001
 21
1.0
 31
0.0
1001
ACAD
1000
MTEXTBEGIN
1070
    73
1070
     1
1070
    44
1040
1.0
1070
    74
1070
     0
1000
MTEXTEND
  0
POINT
  5
1EED
330
140D
100
AcDbEntity
  8
DEFPOINTS
 62
     0
100
AcDbPoint
 10
513.240112844569
 20
465.9999441278208
 30
0.0
  0
POINT
  5
1EEE
330
140D
100
AcDbEntity
  8
DEFPOINTS
 62
     0
100
AcDbPoint
 10
513.240112844569
 20
400.9999441278209
 30
0.0
  0
POINT
  5
1EEF
330
140D
100
AcDbEntity
  8
DEFPOINTS
 62
     0
100
AcDbPoint
 10
541.3506902841191
 20
400.9999441278209
 30
0.0
  0
ENDBLK
  5
1418
330
140D
100
AcDbEntity
  8
0
 62
     1
100
AcDbBlockEnd
  0
BLOCK
  5
1424
330
141A
100
AcDbEntity
  8
0
 62
     1
100
AcDbBlockBegin
  2
*D9
 70
     1
 10
0.0
 20
0.0
 30
0.0
  3
*D9
  1

  0
LINE
  5
1EF0
330
141A
100
AcDbEntity
  8
DIM
 62
     5
100
AcDbLine
 10
529.740112844569
 20
488.9999441278209
 30
0.0
 11
554.7858652635169
 21
488.9999441278209
 31
0.0
  0
LINE
  5
1EF1
330
141A
100
AcDbEntity
  8
DIM
 62
     5
100
AcDbLine
 10
516.240112844569
 20
400.9999441278209
 30
0.0
 11
554.7858652635169
 21
400.9999441278209
 31
0.0
  0
LINE
  5
1EF2
330
141A
100
AcDbEntity
  8
DIM
 62
     5
100
AcDbLine
 10
552.7858652635169
 20
485.9999441278208
 30
0.0
 11
552.7858652635169
 21
403.9999441278208
 31
0.0
  0
SOLID
  5
1EF3
330
141A
100
AcDbEntity
  8
DIM
 62
     5
100
AcDbTrace
 10
552.2858652635169
 20
485.9999441278208
 30
0.0
 11
553.2858652635169
 21
485.9999441278208
 31
0.0
 12
552.7858652635169
 22
488.9999441278209
 32
0.0
 13
552.7858652635169
 23
488.9999441278209
 33
0.0
  0
SOLID
  5
1EF4
330
141A
100
AcDbEntity
  8
DIM
 62
     5
100
AcDbTrace
 10
552.2858652635169
 20
403.9999441278208
 30
0.0
 11
553.2858652635169
 21
403.9999441278208
 31
0.0
 12
552.7858652635169
 22
400.9999441278209
 32
0.0
 13
552.7858652635169
 23
400.9999441278209
 33
0.0
  0
MTEXT
  5
1EF5
330
141A
100
AcDbEntity
  8
DIM
 62
     5
100
AcDbMText
 10
550.4858652635168
 20
444.9999441278209
 30
0.0
 40
3.0
 41
0.0
 71
     5
 72
     1
  1
\A1;88
  7
DAYUS
 11
0.0000000000000001
 21
1.0
 31
0.0
1001
ACAD
1000
MTEXTBEGIN
1070
    73
1070
     1
1070
    44
1040
1.0
1070
    74
1070
     0
1000
MTEXTEND
  0
POINT
  5
1EF6
330
141A
100
AcDbEntity
  8
DEFPOINTS
 62
     0
100
AcDbPoint
 10
528.240112844569
 20
488.9999441278209
 30
0.0
  0
POINT
  5
1EF7
330
141A
100
AcDbEntity
  8
DEFPOINTS
 62
     0
100
AcDbPoint
 10
514.7401128445689
 20
400.9999441278209
 30
0.0
  0
POINT
  5
1EF8
330
141A
100
AcDbEntity
  8
DEFPOINTS
 62
     0
100
AcDbPoint
 10
552.7858652635169
 20
400.9999441278209
 30
0.0
  0
ENDBLK
  5
1425
330
141A
100
AcDbEntity
  8
0
 62
     1
100
AcDbBlockEnd
  0
BLOCK
  5
1431
330
1427
100
AcDbEntity
  8
0
 62
     1
100
AcDbBlockBegin
  2
*D10
 70
     1
 10
0.0
 20
0.0
 30
0.0
  3
*D10
  1

  0
LINE
  5
1EF9
330
1427
100
AcDbEntity
  8
DIM
 62
     5
100
AcDbLine
 10
503.740112844569
 20
375.9999441278208
 30
0.0
 11
543.4402142682349
 21
375.9999441278208
 31
0.0
  0
LINE
  5
1EFA
330
1427
100
AcDbEntity
  8
DIM
 62
     5
100
AcDbLine
 10
514.7401128445689
 20
400.9999441278209
 30
0.0
 11
543.4402142682349
 21
400.9999441278209
 31
0.0
  0
LINE
  5
1EFB
330
1427
100
AcDbEntity
  8
DIM
 62
     5
100
AcDbLine
 10
541.4402142682348
 20
378.9999441278208
 30
0.0
 11
541.4402142682348
 21
397.9999441278208
 31
0.0
  0
SOLID
  5
1EFC
330
1427
100
AcDbEntity
  8
DIM
 62
     5
100
AcDbTrace
 10
540.9402142682348
 20
378.9999441278208
 30
0.0
 11
541.9402142682348
 21
378.9999441278208
 31
0.0
 12
541.4402142682348
 22
375.9999441278208
 32
0.0
 13
541.4402142682348
 23
375.9999441278208
 33
0.0
  0
SOLID
  5
1EFD
330
1427
100
AcDbEntity
  8
DIM
 62
     5
100
AcDbTrace
 10
540.9402142682348
 20
397.9999441278208
 30
0.0
 11
541.9402142682348
 21
397.9999441278208
 31
0.0
 12
541.4402142682348
 22
400.9999441278209
 32
0.0
 13
541.4402142682348
 23
400.9999441278209
 33
0.0
  0
MTEXT
  5
1EFE
330
1427
100
AcDbEntity
  8
DIM
 62
     5
100
AcDbMText
 10
539.1402142682347
 20
388.4999441278209
 30
0.0
 40
3.0
 41
0.0
 71
     5
 72
     1
  1
\A1;L
  7
DAYUS
 11
0.0000000000000001
 21
1.0
 31
0.0
1001
ACAD
1000
MTEXTBEGIN
1070
    73
1070
     1
1070
    44
1040
1.0
1070
    74
1070
     0
1000
MTEXTEND
  0
POINT
  5
1EFF
330
1427
100
AcDbEntity
  8
DEFPOINTS
 62
     0
100
AcDbPoint
 10
502.2401128445689
 20
375.9999441278208
 30
0.0
  0
POINT
  5
1F00
330
1427
100
AcDbEntity
  8
DEFPOINTS
 62
     0
100
AcDbPoint
 10
513.240112844569
 20
400.9999441278209
 30
0.0
  0
POINT
  5
1F01
330
1427
100
AcDbEntity
  8
DEFPOINTS
 62
     0
100
AcDbPoint
 10
541.4402142682348
 20
400.9999441278209
 30
0.0
  0
ENDBLK
  5
1432
330
1427
100
AcDbEntity
  8
0
 62
     1
100
AcDbBlockEnd
  0
BLOCK
  5
1472
330
1469
100
AcDbEntity
  8
0
 62
     5
100
AcDbBlockBegin
  2
*D11
 70
     1
 10
0.0
 20
0.0
 30
0.0
  3
*D11
  1

  0
LINE
  5
1FDF
330
1469
100
AcDbEntity
  8
DIM
 62
     5
100
AcDbLine
 10
292.2070909980266
 20
247.5388123904745
 30
0.0
 11
327.6145600795466
 21
232.9671461581208
 31
0.0
  0
LINE
  5
1FE0
330
1469
100
AcDbEntity
  8
DIM
 62
     5
100
AcDbLine
 10
508.8656656095917
 20
158.3746750625973
 30
0.0
 11
511.6399172248475
 21
157.2329535662372
 31
0.0
  0
MTEXT
  5
1FE1
330
1469
100
AcDbEntity
  8
DIM
 62
     5
100
AcDbMText
 10
298.3799103248435
 20
247.4855942476926
 30
0.0
 40
3.0
 41
0.0
 71
     5
 72
     1
  1
\A1;\U+2205190
  7
DAYUS
 11
0.9247505384185966
 21
-0.380573832120018
 31
0.0
1001
ACAD
1000
MTEXTBEGIN
1070
    73
1070
     1
1070
    44
1040
1.0
1070
    74
1070
     0
1000
MTEXTEND
  0
LINE
  5
1FE2
330
1469
100
AcDbEntity
  8
DIM
 62
     5
100
AcDbLine
 10
506.0914139943358
 20
159.5163965589573
 30
0.0
 11
330.3888116948024
 21
231.8254246617608
 31
0.0
  0
SOLID
  5
1FE3
330
1469
100
AcDbEntity
  8
DIM
 62
     5
100
AcDbTrace
 10
509.0559525256517
 20
158.8370503318066
 30
0.0
 11
508.6753786935316
 21
157.912299793388
 31
0.0
 12
506.0914139943358
 22
159.5163965589573
 32
0.0
 13
506.0914139943358
 23
159.5163965589573
 33
0.0
  0
SOLID
  5
1FE4
330
1469
100
AcDbEntity
  8
DIM
 62
     5
100
AcDbTrace
 10
327.8048469956067
 20
233.4295214273301
 30
0.0
 11
327.4242731634866
 21
232.5047708889115
 31
0.0
 12
330.3888116948024
 22
231.8254246617608
 32
0.0
 13
330.3888116948024
 23
231.8254246617608
 33
0.0
  0
POINT
  5
1FE5
330
1469
100
AcDbEntity
  8
DEFPOINTS
 62
     0
100
AcDbPoint
 10
330.3888116948024
 20
231.8254246617608
 30
0.0
  0
POINT
  5
1FE6
330
1469
100
AcDbEntity
  8
DEFPOINTS
 62
     0
100
AcDbPoint
 10
506.0914139943358
 20
159.5163965589573
 30
0.0
  0
ENDBLK
  5
1473
330
1469
100
AcDbEntity
  8
0
 62
     5
100
AcDbBlockEnd
  0
BLOCK
  5
1FD8
330
1FD6
100
AcDbEntity
  8
0
100
AcDbBlockBegin
  2
GENAXEH
 70
     0
 10
0.0
 20
0.0
 30
0.0
  3
GENAXEH
  1

  0
LINE
  5
1FD7
330
1FD6
100
AcDbEntity
  8
0
100
AcDbLine
 10
-1.0
 20
0.0
 30
0.0
 11
1.0
 21
0.0
 31
0.0
  0
ENDBLK
  5
1FD9
330
1FD6
100
AcDbEntity
  8
0
100
AcDbBlockEnd
  0
ENDSEC
  0
SECTION
  2
ENTITIES
  0
TEXT
  5
A80
330
962
100
AcDbEntity
  8
LOGO
  6
CONTINUOUS
 62
     6
100
AcDbText
 10
217.8061591009845
 20
202.4782660262112
 30
0.0
 40
2.164502164502164
  1

  7
CHINESET
 72
     4
 11
217.8061591009845
 21
202.4782660262112
 31
0.0
100
AcDbText
  0
LINE
  5
107F
330
962
100
AcDbEntity
  8
AM_7
100
AcDbLine
 10
493.240112844569
 20
375.3999441278208
 30
0.0
 11
493.240112844569
 21
478.5999441278208
 31
0.0
  0
LINE
  5
1080
330
962
100
AcDbEntity
  8
AM_7
100
AcDbLine
 10
418.2401128445689
 20
438.3999441278208
 30
0.0
 11
418.2401128445689
 21
490.5999441278208
 31
0.0
  0
LINE
  5
1081
330
962
100
AcDbEntity
  8
AM_7
100
AcDbLine
 10
380.7401128445697
 20
375.3999441278208
 30
0.0
 11
380.7401128445697
 21
478.5999441278208
 31
0.0
  0
LINE
  5
1082
330
962
100
AcDbEntity
  8
AM_7
100
AcDbLine
 10
484.4152128445696
 20
742.7911368199054
 30
0.0
 11
486.4152128445696
 21
742.7911368199054
 31
0.0
  0
LINE
  5
1083
330
962
100
AcDbEntity
  8
AM_7
100
AcDbLine
 10
485.4152128445696
 20
741.7911368199054
 30
0.0
 11
485.4152128445696
 21
743.7911368199054
 31
0.0
  0
LINE
  5
1084
330
962
100
AcDbEntity
  8
AM_7
100
AcDbLine
 10
479.5652128445696
 20
742.7911368199054
 30
0.0
 11
483.6152128445696
 21
742.7911368199054
 31
0.0
  0
LINE
  5
1085
330
962
100
AcDbEntity
  8
AM_7
100
AcDbLine
 10
487.2152128445695
 20
742.7911368199054
 30
0.0
 11
491.2652128445696
 21
742.7911368199054
 31
0.0
  0
LINE
  5
1086
330
962
100
AcDbEntity
  8
AM_7
100
AcDbLine
 10
485.4152128445696
 20
736.9411368199052
 30
0.0
 11
485.4152128445696
 21
740.9911368199052
 31
0.0
  0
LINE
  5
1087
330
962
100
AcDbEntity
  8
AM_7
100
AcDbLine
 10
485.4152128445696
 20
744.5911368199054
 30
0.0
 11
485.4152128445696
 21
748.6411368199053
 31
0.0
  0
LINE
  5
1088
330
962
100
AcDbEntity
  8
AM_7
100
AcDbLine
 10
350.0650128445693
 20
742.7911368199063
 30
0.0
 11
352.0650128445693
 21
742.7911368199063
 31
0.0
  0
LINE
  5
1089
330
962
100
AcDbEntity
  8
AM_7
100
AcDbLine
 10
351.0650128445693
 20
741.7911368199063
 30
0.0
 11
351.0650128445693
 21
743.7911368199063
 31
0.0
  0
LINE
  5
108A
330
962
100
AcDbEntity
  8
AM_7
100
AcDbLine
 10
345.2150128445692
 20
742.7911368199063
 30
0.0
 11
349.2650128445693
 21
742.7911368199063
 31
0.0
  0
LINE
  5
108B
330
962
100
AcDbEntity
  8
AM_7
100
AcDbLine
 10
352.8650128445693
 20
742.7911368199063
 30
0.0
 11
356.9150128445693
 21
742.7911368199063
 31
0.0
  0
LINE
  5
108C
330
962
100
AcDbEntity
  8
AM_7
100
AcDbLine
 10
351.0650128445693
 20
736.9411368199061
 30
0.0
 11
351.0650128445693
 21
740.9911368199061
 31
0.0
  0
LINE
  5
108D
330
962
100
AcDbEntity
  8
AM_7
100
AcDbLine
 10
351.0650128445693
 20
744.5911368199062
 30
0.0
 11
351.0650128445693
 21
748.6411368199062
 31
0.0
  0
LINE
  5
108E
330
962
100
AcDbEntity
  8
AM_7
100
AcDbLine
 10
350.0650128445688
 20
608.440936819906
 30
0.0
 11
352.0650128445688
 21
608.440936819906
 31
0.0
  0
LINE
  5
108F
330
962
100
AcDbEntity
  8
AM_7
100
AcDbLine
 10
351.0650128445688
 20
607.440936819906
 30
0.0
 11
351.0650128445688
 21
609.440936819906
 31
0.0
  0
LINE
  5
1090
330
962
100
AcDbEntity
  8
AM_7
100
AcDbLine
 10
345.2150128445688
 20
608.440936819906
 30
0.0
 11
349.2650128445689
 21
608.440936819906
 31
0.0
  0
LINE
  5
1091
330
962
100
AcDbEntity
  8
AM_7
100
AcDbLine
 10
352.8650128445688
 20
608.440936819906
 30
0.0
 11
356.9150128445688
 21
608.440936819906
 31
0.0
  0
LINE
  5
1092
330
962
100
AcDbEntity
  8
AM_7
100
AcDbLine
 10
351.0650128445688
 20
602.5909368199059
 30
0.0
 11
351.0650128445688
 21
606.640936819906
 31
0.0
  0
LINE
  5
1093
330
962
100
AcDbEntity
  8
AM_7
100
AcDbLine
 10
351.0650128445688
 20
610.240936819906
 30
0.0
 11
351.0650128445688
 21
614.2909368199059
 31
0.0
  0
LINE
  5
1094
330
962
100
AcDbEntity
  8
AM_7
100
AcDbLine
 10
379.7401128445694
 20
740.5679421037391
 30
0.0
 11
381.7401128445694
 21
740.5679421037391
 31
0.0
  0
LINE
  5
1095
330
962
100
AcDbEntity
  8
AM_7
100
AcDbLine
 10
380.7401128445694
 20
739.5679421037391
 30
0.0
 11
380.7401128445694
 21
741.5679421037391
 31
0.0
  0
LINE
  5
1096
330
962
100
AcDbEntity
  8
AM_7
100
AcDbLine
 10
369.6401128445694
 20
740.5679421037391
 30
0.0
 11
378.9401128445694
 21
740.5679421037391
 31
0.0
  0
LINE
  5
1097
330
962
100
AcDbEntity
  8
AM_7
100
AcDbLine
 10
382.5401128445694
 20
740.5679421037391
 30
0.0
 11
391.8401128445694
 21
740.5679421037391
 31
0.0
  0
LINE
  5
1098
330
962
100
AcDbEntity
  8
AM_7
100
AcDbLine
 10
380.7401128445694
 20
729.467942103739
 30
0.0
 11
380.7401128445694
 21
738.767942103739
 31
0.0
  0
LINE
  5
1099
330
962
100
AcDbEntity
  8
AM_7
100
AcDbLine
 10
380.7401128445694
 20
742.3679421037391
 30
0.0
 11
380.7401128445694
 21
751.667942103739
 31
0.0
  0
LINE
  5
109A
330
962
100
AcDbEntity
  8
AM_7
100
AcDbLine
 10
379.7401128445688
 20
610.664131536073
 30
0.0
 11
381.7401128445688
 21
610.664131536073
 31
0.0
  0
LINE
  5
109B
330
962
100
AcDbEntity
  8
AM_7
100
AcDbLine
 10
380.7401128445687
 20
609.664131536073
 30
0.0
 11
380.7401128445687
 21
611.6641315360729
 31
0.0
  0
LINE
  5
109C
330
962
100
AcDbEntity
  8
AM_7
100
AcDbLine
 10
369.6401128445688
 20
610.664131536073
 30
0.0
 11
378.9401128445688
 21
610.664131536073
 31
0.0
  0
LINE
  5
109D
330
962
100
AcDbEntity
  8
AM_7
100
AcDbLine
 10
382.5401128445688
 20
610.664131536073
 30
0.0
 11
391.8401128445688
 21
610.664131536073
 31
0.0
  0
LINE
  5
109E
330
962
100
AcDbEntity
  8
AM_7
100
AcDbLine
 10
380.7401128445687
 20
599.5641315360731
 30
0.0
 11
380.7401128445687
 21
608.864131536073
 31
0.0
  0
LINE
  5
109F
330
962
100
AcDbEntity
  8
AM_7
100
AcDbLine
 10
380.7401128445687
 20
612.4641315360731
 30
0.0
 11
380.7401128445687
 21
621.7641315360731
 31
0.0
  0
LINE
  5
10A0
330
962
100
AcDbEntity
  8
AM_7
100
AcDbLine
 10
492.240112844569
 20
675.616036819906
 30
0.0
 11
494.2401128445689
 21
675.616036819906
 31
0.0
  0
LINE
  5
10A1
330
962
100
AcDbEntity
  8
AM_7
100
AcDbLine
 10
493.240112844569
 20
674.6160368199059
 30
0.0
 11
493.240112844569
 21
676.6160368199059
 31
0.0
  0
LINE
  5
10A2
330
962
100
AcDbEntity
  8
AM_7
100
AcDbLine
 10
482.140112844569
 20
675.616036819906
 30
0.0
 11
491.440112844569
 21
675.616036819906
 31
0.0
  0
LINE
  5
10A3
330
962
100
AcDbEntity
  8
AM_7
100
AcDbLine
 10
495.0401128445689
 20
675.616036819906
 30
0.0
 11
504.340112844569
 21
675.616036819906
 31
0.0
  0
LINE
  5
10A6
330
962
100
AcDbEntity
  8
AM_7
100
AcDbLine
 10
417.240112844569
 20
675.616036819906
 30
0.0
 11
419.2401128445689
 21
675.616036819906
 31
0.0
  0
LINE
  5
10A7
330
962
100
AcDbEntity
  8
AM_7
100
AcDbLine
 10
418.240112844569
 20
674.6160368199059
 30
0.0
 11
418.240112844569
 21
676.6160368199059
 31
0.0
  0
LINE
  5
10A8
330
962
100
AcDbEntity
  8
AM_7
100
AcDbLine
 10
306.640112844569
 20
675.616036819906
 30
0.0
 11
416.440112844569
 21
675.616036819906
 31
0.0
  0
LINE
  5
10A9
330
962
100
AcDbEntity
  8
AM_7
100
AcDbLine
 10
420.0401128445689
 20
675.616036819906
 30
0.0
 11
529.840112844569
 21
675.616036819906
 31
0.0
  0
LINE
  5
10AA
330
962
100
AcDbEntity
  8
AM_7
100
AcDbLine
 10
418.240112844569
 20
564.0160368199058
 30
0.0
 11
418.240112844569
 21
673.8160368199057
 31
0.0
  0
LINE
  5
10AB
330
962
100
AcDbEntity
  8
AM_7
100
AcDbLine
 10
418.240112844569
 20
677.4160368199058
 30
0.0
 11
418.240112844569
 21
787.2160368199058
 31
0.0
  0
LINE
  5
10AC
330
962
100
AcDbEntity
  8
AM_7
100
AcDbLine
 10
484.4152128445691
 20
608.440936819906
 30
0.0
 11
486.4152128445692
 21
608.440936819906
 31
0.0
  0
LINE
  5
10AD
330
962
100
AcDbEntity
  8
AM_7
100
AcDbLine
 10
485.4152128445691
 20
607.440936819906
 30
0.0
 11
485.4152128445691
 21
609.440936819906
 31
0.0
  0
LINE
  5
10AE
330
962
100
AcDbEntity
  8
AM_7
100
AcDbLine
 10
479.5652128445691
 20
608.440936819906
 30
0.0
 11
483.615212844569
 21
608.440936819906
 31
0.0
  0
LINE
  5
10AF
330
962
100
AcDbEntity
  8
AM_7
100
AcDbLine
 10
487.2152128445691
 20
608.440936819906
 30
0.0
 11
491.2652128445691
 21
608.440936819906
 31
0.0
  0
LINE
  5
10B0
330
962
100
AcDbEntity
  8
AM_7
100
AcDbLine
 10
485.4152128445691
 20
602.590936819906
 30
0.0
 11
485.4152128445691
 21
606.640936819906
 31
0.0
  0
LINE
  5
10B1
330
962
100
AcDbEntity
  8
AM_7
100
AcDbLine
 10
485.4152128445691
 20
610.240936819906
 30
0.0
 11
485.4152128445691
 21
614.2909368199061
 31
0.0
  0
CIRCLE
  5
10B2
330
962
100
AcDbEntity
  8
AM_4
  6
HIDDEN2
100
AcDbCircle
 10
485.4152128445688
 20
742.7911368199061
 30
0.0
 40
5.0
  0
CIRCLE
  5
10B3
330
962
100
AcDbEntity
  8
AM_4
  6
HIDDEN2
100
AcDbCircle
 10
351.0650128445688
 20
742.7911368199056
 30
0.0
 40
5.0
  0
CIRCLE
  5
10B4
330
962
100
AcDbEntity
  8
AM_4
  6
HIDDEN2
100
AcDbCircle
 10
351.0650128445691
 20
608.4409368199057
 30
0.0
 40
5.0
  0
CIRCLE
  5
10B5
330
962
100
AcDbEntity
  8
AM_4
  6
HIDDEN2
100
AcDbCircle
 10
485.4152128445691
 20
608.440936819906
 30
0.0
 40
5.0
  0
LINE
  5
10B6
330
962
100
AcDbEntity
  8
AM_7
100
AcDbLine
 10
772.4083306917726
 20
375.3999441278208
 30
0.0
 11
772.4083306917726
 21
478.5999441278208
 31
0.0
  0
LINE
  5
10B7
330
962
100
AcDbEntity
  8
AM_7
100
AcDbLine
 10
642.5045201241065
 20
375.3999441278208
 30
0.0
 11
642.5045201241065
 21
478.5999441278208
 31
0.0
  0
LINE
  5
10B8
330
962
100
AcDbEntity
  8
AM_7
100
AcDbLine
 10
707.4564254079398
 20
375.3999441278208
 30
0.0
 11
707.4564254079398
 21
490.5999441278208
 31
0.0
  0
LINE
  5
10B9
330
962
100
AcDbEntity
  8
AM_7
100
AcDbLine
 10
142.200254029195
 20
443.9999441278208
 30
0.0
 11
144.2002540291951
 21
443.9999441278208
 31
0.0
  0
LINE
  5
10BA
330
962
100
AcDbEntity
  8
AM_7
100
AcDbLine
 10
143.200254029195
 20
442.9999441278209
 30
0.0
 11
143.200254029195
 21
444.9999441278208
 31
0.0
  0
LINE
  5
10BB
330
962
100
AcDbEntity
  8
AM_7
100
AcDbLine
 10
139.8502540291951
 20
443.9999441278208
 30
0.0
 11
141.400254029195
 21
443.9999441278208
 31
0.0
  0
LINE
  5
10BC
330
962
100
AcDbEntity
  8
AM_7
100
AcDbLine
 10
145.0002540291951
 20
443.9999441278208
 30
0.0
 11
146.550254029195
 21
443.9999441278208
 31
0.0
  0
LINE
  5
10BD
330
962
100
AcDbEntity
  8
AM_7
100
AcDbLine
 10
143.200254029195
 20
440.6499441278208
 30
0.0
 11
143.200254029195
 21
442.1999441278209
 31
0.0
  0
LINE
  5
10BE
330
962
100
AcDbEntity
  8
AM_7
100
AcDbLine
 10
143.200254029195
 20
445.7999441278208
 30
0.0
 11
143.200254029195
 21
447.3499441278208
 31
0.0
  0
LINE
  5
10BF
330
962
100
AcDbEntity
  8
AM_7
100
AcDbLine
 10
136.7002540291951
 20
443.9999441278208
 30
0.0
 11
138.7002540291951
 21
443.9999441278208
 31
0.0
  0
LINE
  5
10C0
330
962
100
AcDbEntity
  8
AM_7
100
AcDbLine
 10
137.7002540291951
 20
442.9999441278209
 30
0.0
 11
137.7002540291951
 21
444.9999441278208
 31
0.0
  0
LINE
  5
10C1
330
962
100
AcDbEntity
  8
AM_7
100
AcDbLine
 10
134.350254029195
 20
443.9999441278208
 30
0.0
 11
135.900254029195
 21
443.9999441278208
 31
0.0
  0
LINE
  5
10C2
330
962
100
AcDbEntity
  8
AM_7
100
AcDbLine
 10
139.5002540291951
 20
443.9999441278208
 30
0.0
 11
141.050254029195
 21
443.9999441278208
 31
0.0
  0
LINE
  5
10C3
330
962
100
AcDbEntity
  8
AM_7
100
AcDbLine
 10
137.7002540291951
 20
440.6499441278208
 30
0.0
 11
137.7002540291951
 21
442.1999441278209
 31
0.0
  0
LINE
  5
10C4
330
962
100
AcDbEntity
  8
AM_7
100
AcDbLine
 10
137.7002540291951
 20
445.7999441278208
 30
0.0
 11
137.7002540291951
 21
447.3499441278208
 31
0.0
  0
LINE
  5
10C5
330
962
100
AcDbEntity
  8
AM_7
100
AcDbLine
 10
142.200254029195
 20
422.9999441278208
 30
0.0
 11
144.2002540291951
 21
422.9999441278208
 31
0.0
  0
LINE
  5
10C6
330
962
100
AcDbEntity
  8
AM_7
100
AcDbLine
 10
143.200254029195
 20
421.9999441278208
 30
0.0
 11
143.200254029195
 21
423.9999441278207
 31
0.0
  0
LINE
  5
10C7
330
962
100
AcDbEntity
  8
AM_7
100
AcDbLine
 10
139.8502540291951
 20
422.9999441278208
 30
0.0
 11
141.400254029195
 21
422.9999441278208
 31
0.0
  0
LINE
  5
10C8
330
962
100
AcDbEntity
  8
AM_7
100
AcDbLine
 10
145.0002540291951
 20
422.9999441278208
 30
0.0
 11
146.550254029195
 21
422.9999441278208
 31
0.0
  0
LINE
  5
10C9
330
962
100
AcDbEntity
  8
AM_7
100
AcDbLine
 10
143.200254029195
 20
419.6499441278208
 30
0.0
 11
143.200254029195
 21
421.1999441278208
 31
0.0
  0
LINE
  5
10CA
330
962
100
AcDbEntity
  8
AM_7
100
AcDbLine
 10
143.200254029195
 20
424.7999441278208
 30
0.0
 11
143.200254029195
 21
426.3499441278208
 31
0.0
  0
LINE
  5
10CB
330
962
100
AcDbEntity
  8
AM_7
100
AcDbLine
 10
136.7002540291951
 20
422.9999441278208
 30
0.0
 11
138.7002540291951
 21
422.9999441278208
 31
0.0
  0
LINE
  5
10CC
330
962
100
AcDbEntity
  8
AM_7
100
AcDbLine
 10
137.7002540291951
 20
421.9999441278208
 30
0.0
 11
137.7002540291951
 21
423.9999441278207
 31
0.0
  0
LINE
  5
10CD
330
962
100
AcDbEntity
  8
AM_7
100
AcDbLine
 10
134.350254029195
 20
422.9999441278208
 30
0.0
 11
135.900254029195
 21
422.9999441278208
 31
0.0
  0
LINE
  5
10CE
330
962
100
AcDbEntity
  8
AM_7
100
AcDbLine
 10
139.5002540291951
 20
422.9999441278208
 30
0.0
 11
141.050254029195
 21
422.9999441278208
 31
0.0
  0
LINE
  5
10CF
330
962
100
AcDbEntity
  8
AM_7
100
AcDbLine
 10
137.7002540291951
 20
419.6499441278208
 30
0.0
 11
137.7002540291951
 21
421.1999441278208
 31
0.0
  0
LINE
  5
10D0
330
962
100
AcDbEntity
  8
AM_7
100
AcDbLine
 10
137.7002540291951
 20
424.7999441278208
 30
0.0
 11
137.7002540291951
 21
426.3499441278208
 31
0.0
  0
LINE
  5
10D1
330
962
100
AcDbEntity
  8
AM_7
100
AcDbLine
 10
139.4502540291952
 20
422.9999441278208
 30
0.0
 11
141.4502540291952
 21
422.9999441278208
 31
0.0
  0
LINE
  5
10D2
330
962
100
AcDbEntity
  8
AM_7
100
AcDbLine
 10
140.4502540291952
 20
421.9999441278209
 30
0.0
 11
140.4502540291952
 21
423.9999441278208
 31
0.0
  0
LINE
  5
10D3
330
962
100
AcDbEntity
  8
AM_7
100
AcDbLine
 10
131.3502540291952
 20
422.9999441278208
 30
0.0
 11
138.6502540291951
 21
422.9999441278208
 31
0.0
  0
LINE
  5
10D4
330
962
100
AcDbEntity
  8
AM_7
100
AcDbLine
 10
142.2502540291952
 20
422.9999441278208
 30
0.0
 11
149.5502540291951
 21
422.9999441278208
 31
0.0
  0
LINE
  5
10D5
330
962
100
AcDbEntity
  8
AM_7
100
AcDbLine
 10
140.4502540291952
 20
413.8999441278208
 30
0.0
 11
140.4502540291952
 21
421.1999441278208
 31
0.0
  0
LINE
  5
10D6
330
962
100
AcDbEntity
  8
AM_7
100
AcDbLine
 10
140.4502540291952
 20
424.7999441278208
 30
0.0
 11
140.4502540291952
 21
432.0999441278208
 31
0.0
  0
LINE
  5
10D7
330
962
100
AcDbEntity
  8
AM_7
100
AcDbLine
 10
139.4502540291952
 20
443.9999441278208
 30
0.0
 11
141.4502540291952
 21
443.9999441278208
 31
0.0
  0
LINE
  5
10D8
330
962
100
AcDbEntity
  8
AM_7
100
AcDbLine
 10
140.4502540291952
 20
442.9999441278209
 30
0.0
 11
140.4502540291952
 21
444.9999441278208
 31
0.0
  0
LINE
  5
10D9
330
962
100
AcDbEntity
  8
AM_7
100
AcDbLine
 10
131.3502540291952
 20
443.9999441278208
 30
0.0
 11
138.6502540291951
 21
443.9999441278208
 31
0.0
  0
LINE
  5
10DA
330
962
100
AcDbEntity
  8
AM_7
100
AcDbLine
 10
142.2502540291952
 20
443.9999441278208
 30
0.0
 11
149.5502540291951
 21
443.9999441278208
 31
0.0
  0
LINE
  5
10DB
330
962
100
AcDbEntity
  8
AM_7
100
AcDbLine
 10
140.4502540291952
 20
434.8999441278208
 30
0.0
 11
140.4502540291952
 21
442.1999441278209
 31
0.0
  0
LINE
  5
10DC
330
962
100
AcDbEntity
  8
AM_7
100
AcDbLine
 10
140.4502540291952
 20
445.7999441278208
 30
0.0
 11
140.4502540291952
 21
453.0999441278208
 31
0.0
  0
CIRCLE
  5
10DD
330
962
100
AcDbEntity
  8
AM_4
  6
HIDDEN2
100
AcDbCircle
 10
140.4502540291952
 20
422.9999441278208
 30
0.0
 40
8.25
  0
CIRCLE
  5
10DE
330
962
100
AcDbEntity
  8
AM_4
  6
HIDDEN2
100
AcDbCircle
 10
140.4502540291952
 20
443.9999441278208
 30
0.0
 40
8.25
  0
LINE
  5
10DF
330
962
100
AcDbEntity
  8
AM_7
100
AcDbLine
 10
140.4502540291949
 20
375.3999441278208
 30
0.0
 11
140.4502540291949
 21
490.5999441278208
 31
0.0
  0
LINE
  5
10E0
330
962
100
AcDbEntity
  8
AM_7
100
AcDbLine
 10
75.49834874536225
 20
375.3999441278208
 30
0.0
 11
75.49834874536225
 21
478.5999441278208
 31
0.0
  0
LINE
  5
10E1
330
962
100
AcDbEntity
  8
AM_7
100
AcDbLine
 10
205.4021593130283
 20
375.3999441278208
 30
0.0
 11
205.4021593130283
 21
478.5999441278208
 31
0.0
  0
LINE
  5
10E2
330
962
100
AcDbEntity
  8
AM_7
100
AcDbLine
 10
467.7673332312079
 20
211.6709106103594
 30
0.0
 11
469.7673332312079
 21
211.6709106103594
 31
0.0
  0
LINE
  5
10E3
330
962
100
AcDbEntity
  8
AM_7
100
AcDbLine
 10
468.7673332312079
 20
210.6709106103593
 30
0.0
 11
468.7673332312079
 21
212.6709106103593
 31
0.0
  0
LINE
  5
10E4
330
962
100
AcDbEntity
  8
AM_7
100
AcDbLine
 10
462.9173332312079
 20
211.6709106103594
 30
0.0
 11
466.9673332312079
 21
211.6709106103594
 31
0.0
  0
LINE
  5
10E5
330
962
100
AcDbEntity
  8
AM_7
100
AcDbLine
 10
470.567333231208
 20
211.6709106103594
 30
0.0
 11
474.6173332312078
 21
211.6709106103594
 31
0.0
  0
LINE
  5
10E6
330
962
100
AcDbEntity
  8
AM_7
100
AcDbLine
 10
468.7673332312079
 20
205.8209106103593
 30
0.0
 11
468.7673332312079
 21
209.8709106103593
 31
0.0
  0
LINE
  5
10E7
330
962
100
AcDbEntity
  8
AM_7
100
AcDbLine
 10
468.7673332312079
 20
213.4709106103593
 30
0.0
 11
468.7673332312079
 21
217.5209106103594
 31
0.0
  0
LINE
  5
10E8
330
962
100
AcDbEntity
  8
AM_7
100
AcDbLine
 10
405.8329091118005
 20
143.9130541729145
 30
0.0
 11
407.8329091118005
 21
143.9130541729145
 31
0.0
  0
LINE
  5
10E9
330
962
100
AcDbEntity
  8
AM_7
100
AcDbLine
 10
406.8329091118005
 20
142.9130541729145
 30
0.0
 11
406.8329091118005
 21
144.9130541729145
 31
0.0
  0
LINE
  5
10EA
330
962
100
AcDbEntity
  8
AM_7
100
AcDbLine
 10
400.9829091118005
 20
143.9130541729145
 30
0.0
 11
405.0329091118006
 21
143.9130541729145
 31
0.0
  0
LINE
  5
10EB
330
962
100
AcDbEntity
  8
AM_7
100
AcDbLine
 10
408.6329091118005
 20
143.9130541729145
 30
0.0
 11
412.6829091118005
 21
143.9130541729145
 31
0.0
  0
LINE
  5
10EC
330
962
100
AcDbEntity
  8
AM_7
100
AcDbLine
 10
406.8329091118005
 20
138.0630541729145
 30
0.0
 11
406.8329091118005
 21
142.1130541729145
 31
0.0
  0
LINE
  5
10ED
330
962
100
AcDbEntity
  8
AM_7
100
AcDbLine
 10
406.8329091118005
 20
145.7130541729145
 30
0.0
 11
406.8329091118005
 21
149.7630541729145
 31
0.0
  0
LINE
  5
10EE
330
962
100
AcDbEntity
  8
AM_7
100
AcDbLine
 10
467.7673332312082
 20
179.6709106103593
 30
0.0
 11
469.7673332312082
 21
179.6709106103593
 31
0.0
  0
LINE
  5
10EF
330
962
100
AcDbEntity
  8
AM_7
100
AcDbLine
 10
468.7673332312082
 20
178.6709106103593
 30
0.0
 11
468.7673332312082
 21
180.6709106103593
 31
0.0
  0
LINE
  5
10F0
330
962
100
AcDbEntity
  8
AM_7
100
AcDbLine
 10
462.9173332312082
 20
179.6709106103593
 30
0.0
 11
466.9673332312081
 21
179.6709106103593
 31
0.0
  0
LINE
  5
10F1
330
962
100
AcDbEntity
  8
AM_7
100
AcDbLine
 10
470.5673332312081
 20
179.6709106103593
 30
0.0
 11
474.6173332312081
 21
179.6709106103593
 31
0.0
  0
LINE
  5
10F2
330
962
100
AcDbEntity
  8
AM_7
100
AcDbLine
 10
468.7673332312082
 20
173.8209106103593
 30
0.0
 11
468.7673332312082
 21
177.8709106103593
 31
0.0
  0
LINE
  5
10F3
330
962
100
AcDbEntity
  8
AM_7
100
AcDbLine
 10
468.7673332312082
 20
181.4709106103594
 30
0.0
 11
468.7673332312082
 21
185.5209106103593
 31
0.0
  0
LINE
  5
10F4
330
962
100
AcDbEntity
  8
AM_7
100
AcDbLine
 10
378.1200961906984
 20
159.9130541729144
 30
0.0
 11
380.1200961906984
 21
159.9130541729144
 31
0.0
  0
LINE
  5
10F5
330
962
100
AcDbEntity
  8
AM_7
100
AcDbLine
 10
379.1200961906984
 20
158.9130541729144
 30
0.0
 11
379.1200961906984
 21
160.9130541729144
 31
0.0
  0
LINE
  5
10F6
330
962
100
AcDbEntity
  8
AM_7
100
AcDbLine
 10
373.2700961906985
 20
159.9130541729144
 30
0.0
 11
377.3200961906984
 21
159.9130541729144
 31
0.0
  0
LINE
  5
10F7
330
962
100
AcDbEntity
  8
AM_7
100
AcDbLine
 10
380.9200961906984
 20
159.9130541729144
 30
0.0
 11
384.9700961906984
 21
159.9130541729144
 31
0.0
  0
LINE
  5
10F8
330
962
100
AcDbEntity
  8
AM_7
100
AcDbLine
 10
379.1200961906984
 20
154.0630541729144
 30
0.0
 11
379.1200961906984
 21
158.1130541729144
 31
0.0
  0
LINE
  5
10F9
330
962
100
AcDbEntity
  8
AM_7
100
AcDbLine
 10
379.1200961906984
 20
161.7130541729144
 30
0.0
 11
379.1200961906984
 21
165.7630541729144
 31
0.0
  0
LINE
  5
10FA
330
962
100
AcDbEntity
  8
AM_7
100
AcDbLine
 10
378.1200961906984
 20
231.4287670478035
 30
0.0
 11
380.1200961906984
 21
231.4287670478035
 31
0.0
  0
LINE
  5
10FB
330
962
100
AcDbEntity
  8
AM_7
100
AcDbLine
 10
379.1200961906984
 20
230.4287670478035
 30
0.0
 11
379.1200961906984
 21
232.4287670478035
 31
0.0
  0
LINE
  5
10FC
330
962
100
AcDbEntity
  8
AM_7
100
AcDbLine
 10
373.2700961906985
 20
231.4287670478035
 30
0.0
 11
377.3200961906984
 21
231.4287670478035
 31
0.0
  0
LINE
  5
10FD
330
962
100
AcDbEntity
  8
AM_7
100
AcDbLine
 10
380.9200961906984
 20
231.4287670478035
 30
0.0
 11
384.9700961906984
 21
231.4287670478035
 31
0.0
  0
LINE
  5
10FE
330
962
100
AcDbEntity
  8
AM_7
100
AcDbLine
 10
379.1200961906984
 20
225.5787670478035
 30
0.0
 11
379.1200961906984
 21
229.6287670478035
 31
0.0
  0
LINE
  5
10FF
330
962
100
AcDbEntity
  8
AM_7
100
AcDbLine
 10
379.1200961906984
 20
233.2287670478035
 30
0.0
 11
379.1200961906984
 21
237.2787670478035
 31
0.0
  0
LINE
  5
1100
330
962
100
AcDbEntity
  8
AM_7
100
AcDbLine
 10
405.8329091118005
 20
247.4287670478035
 30
0.0
 11
407.8329091118005
 21
247.4287670478035
 31
0.0
  0
LINE
  5
1101
330
962
100
AcDbEntity
  8
AM_7
100
AcDbLine
 10
406.8329091118005
 20
246.4287670478035
 30
0.0
 11
406.8329091118005
 21
248.4287670478035
 31
0.0
  0
LINE
  5
1102
330
962
100
AcDbEntity
  8
AM_7
100
AcDbLine
 10
400.9829091118005
 20
247.4287670478035
 30
0.0
 11
405.0329091118005
 21
247.4287670478035
 31
0.0
  0
LINE
  5
1103
330
962
100
AcDbEntity
  8
AM_7
100
AcDbLine
 10
408.6329091118005
 20
247.4287670478035
 30
0.0
 11
412.6829091118005
 21
247.4287670478035
 31
0.0
  0
LINE
  5
1104
330
962
100
AcDbEntity
  8
AM_7
100
AcDbLine
 10
406.8329091118005
 20
241.5787670478035
 30
0.0
 11
406.8329091118005
 21
245.6287670478035
 31
0.0
  0
LINE
  5
1105
330
962
100
AcDbEntity
  8
AM_7
100
AcDbLine
 10
406.8329091118005
 20
249.2287670478035
 30
0.0
 11
406.8329091118005
 21
253.2787670478035
 31
0.0
  0
LINE
  5
1106
330
962
100
AcDbEntity
  8
AM_7
100
AcDbLine
 10
484.4152128445696
 20
128.4958106103595
 30
0.0
 11
486.4152128445696
 21
128.4958106103595
 31
0.0
  0
LINE
  5
1107
330
962
100
AcDbEntity
  8
AM_7
100
AcDbLine
 10
485.4152128445696
 20
127.4958106103595
 30
0.0
 11
485.4152128445696
 21
129.4958106103595
 31
0.0
  0
LINE
  5
1108
330
962
100
AcDbEntity
  8
AM_7
100
AcDbLine
 10
479.5652128445696
 20
128.4958106103595
 30
0.0
 11
483.6152128445696
 21
128.4958106103595
 31
0.0
  0
LINE
  5
1109
330
962
100
AcDbEntity
  8
AM_7
100
AcDbLine
 10
487.2152128445695
 20
128.4958106103595
 30
0.0
 11
491.2652128445696
 21
128.4958106103595
 31
0.0
  0
LINE
  5
110A
330
962
100
AcDbEntity
  8
AM_7
100
AcDbLine
 10
485.4152128445696
 20
122.6458106103595
 30
0.0
 11
485.4152128445696
 21
126.6958106103595
 31
0.0
  0
LINE
  5
110B
330
962
100
AcDbEntity
  8
AM_7
100
AcDbLine
 10
485.4152128445696
 20
130.2958106103595
 30
0.0
 11
485.4152128445696
 21
134.3458106103595
 31
0.0
  0
LINE
  5
110C
330
962
100
AcDbEntity
  8
AM_7
100
AcDbLine
 10
350.0650128445693
 20
128.4958106103586
 30
0.0
 11
352.0650128445693
 21
128.4958106103586
 31
0.0
  0
LINE
  5
110D
330
962
100
AcDbEntity
  8
AM_7
100
AcDbLine
 10
351.0650128445693
 20
127.4958106103586
 30
0.0
 11
351.0650128445693
 21
129.4958106103586
 31
0.0
  0
LINE
  5
110E
330
962
100
AcDbEntity
  8
AM_7
100
AcDbLine
 10
345.2150128445692
 20
128.4958106103586
 30
0.0
 11
349.2650128445693
 21
128.4958106103586
 31
0.0
  0
LINE
  5
110F
330
962
100
AcDbEntity
  8
AM_7
100
AcDbLine
 10
352.8650128445693
 20
128.4958106103586
 30
0.0
 11
356.9150128445693
 21
128.4958106103586
 31
0.0
  0
LINE
  5
1110
330
962
100
AcDbEntity
  8
AM_7
100
AcDbLine
 10
351.0650128445693
 20
122.6458106103586
 30
0.0
 11
351.0650128445693
 21
126.6958106103586
 31
0.0
  0
LINE
  5
1111
330
962
100
AcDbEntity
  8
AM_7
100
AcDbLine
 10
351.0650128445693
 20
130.2958106103586
 30
0.0
 11
351.0650128445693
 21
134.3458106103586
 31
0.0
  0
LINE
  5
1112
330
962
100
AcDbEntity
  8
AM_7
100
AcDbLine
 10
350.0650128445688
 20
262.8460106103589
 30
0.0
 11
352.0650128445688
 21
262.8460106103589
 31
0.0
  0
LINE
  5
1113
330
962
100
AcDbEntity
  8
AM_7
100
AcDbLine
 10
351.0650128445688
 20
261.8460106103589
 30
0.0
 11
351.0650128445688
 21
263.8460106103589
 31
0.0
  0
LINE
  5
1114
330
962
100
AcDbEntity
  8
AM_7
100
AcDbLine
 10
345.2150128445688
 20
262.8460106103589
 30
0.0
 11
349.2650128445689
 21
262.8460106103589
 31
0.0
  0
LINE
  5
1115
330
962
100
AcDbEntity
  8
AM_7
100
AcDbLine
 10
352.8650128445688
 20
262.8460106103589
 30
0.0
 11
356.9150128445688
 21
262.8460106103589
 31
0.0
  0
LINE
  5
1116
330
962
100
AcDbEntity
  8
AM_7
100
AcDbLine
 10
351.0650128445688
 20
256.9960106103589
 30
0.0
 11
351.0650128445688
 21
261.0460106103589
 31
0.0
  0
LINE
  5
1117
330
962
100
AcDbEntity
  8
AM_7
100
AcDbLine
 10
351.0650128445688
 20
264.6460106103589
 30
0.0
 11
351.0650128445688
 21
268.6960106103589
 31
0.0
  0
LINE
  5
1118
330
962
100
AcDbEntity
  8
AM_7
100
AcDbLine
 10
417.240112844569
 20
195.670910610359
 30
0.0
 11
419.2401128445689
 21
195.670910610359
 31
0.0
  0
LINE
  5
1119
330
962
100
AcDbEntity
  8
AM_7
100
AcDbLine
 10
418.240112844569
 20
194.670910610359
 30
0.0
 11
418.240112844569
 21
196.670910610359
 31
0.0
  0
LINE
  5
111A
330
962
100
AcDbEntity
  8
AM_7
100
AcDbLine
 10
306.640112844569
 20
195.670910610359
 30
0.0
 11
416.440112844569
 21
195.670910610359
 31
0.0
  0
LINE
  5
111B
330
962
100
AcDbEntity
  8
AM_7
100
AcDbLine
 10
420.0401128445689
 20
195.670910610359
 30
0.0
 11
529.840112844569
 21
195.670910610359
 31
0.0
  0
LINE
  5
111C
330
962
100
AcDbEntity
  8
AM_7
100
AcDbLine
 10
418.240112844569
 20
84.07091061035902
 30
0.0
 11
418.240112844569
 21
193.870910610359
 31
0.0
  0
LINE
  5
111D
330
962
100
AcDbEntity
  8
AM_7
100
AcDbLine
 10
418.240112844569
 20
197.470910610359
 30
0.0
 11
418.240112844569
 21
307.270910610359
 31
0.0
  0
LINE
  5
111E
330
962
100
AcDbEntity
  8
AM_7
100
AcDbLine
 10
484.4152128445691
 20
262.8460106103588
 30
0.0
 11
486.4152128445692
 21
262.8460106103588
 31
0.0
  0
LINE
  5
111F
330
962
100
AcDbEntity
  8
AM_7
100
AcDbLine
 10
485.4152128445691
 20
261.8460106103588
 30
0.0
 11
485.4152128445691
 21
263.8460106103588
 31
0.0
  0
LINE
  5
1120
330
962
100
AcDbEntity
  8
AM_7
100
AcDbLine
 10
479.5652128445691
 20
262.8460106103588
 30
0.0
 11
483.615212844569
 21
262.8460106103588
 31
0.0
  0
LINE
  5
1121
330
962
100
AcDbEntity
  8
AM_7
100
AcDbLine
 10
487.2152128445691
 20
262.8460106103588
 30
0.0
 11
491.2652128445691
 21
262.8460106103588
 31
0.0
  0
LINE
  5
1122
330
962
100
AcDbEntity
  8
AM_7
100
AcDbLine
 10
485.4152128445691
 20
256.9960106103589
 30
0.0
 11
485.4152128445691
 21
261.0460106103588
 31
0.0
  0
LINE
  5
1123
330
962
100
AcDbEntity
  8
AM_7
100
AcDbLine
 10
485.4152128445691
 20
264.6460106103588
 30
0.0
 11
485.4152128445691
 21
268.6960106103589
 31
0.0
  0
CIRCLE
  5
1124
330
962
100
AcDbEntity
  8
AM_4
  6
HIDDEN2
100
AcDbCircle
 10
468.7673332312081
 20
211.6709106103589
 30
0.0
 40
5.0
  0
CIRCLE
  5
1125
330
962
100
AcDbEntity
  8
AM_4
  6
HIDDEN2
100
AcDbCircle
 10
406.8329091118003
 20
143.9130541729146
 30
0.0
 40
5.0
  0
CIRCLE
  5
1126
330
962
100
AcDbEntity
  8
AM_4
  6
HIDDEN2
100
AcDbCircle
 10
468.767333231208
 20
179.6709106103589
 30
0.0
 40
5.0
  0
CIRCLE
  5
1127
330
962
100
AcDbEntity
  8
AM_4
  6
HIDDEN2
100
AcDbCircle
 10
379.1200961906982
 20
159.9130541729146
 30
0.0
 40
5.0
  0
CIRCLE
  5
1128
330
962
100
AcDbEntity
  8
AM_4
  6
HIDDEN2
100
AcDbCircle
 10
379.1200961906984
 20
231.4287670478035
 30
0.0
 40
5.0
  0
CIRCLE
  5
1129
330
962
100
AcDbEntity
  8
AM_4
  6
HIDDEN2
100
AcDbCircle
 10
406.8329091118005
 20
247.4287670478035
 30
0.0
 40
5.0
  0
CIRCLE
  5
112A
330
962
100
AcDbEntity
  8
AM_4
  6
HIDDEN2
100
AcDbCircle
 10
485.4152128445688
 20
128.4958106103588
 30
0.0
 40
5.0
  0
CIRCLE
  5
112B
330
962
100
AcDbEntity
  8
AM_4
  6
HIDDEN2
100
AcDbCircle
 10
351.0650128445688
 20
128.4958106103592
 30
0.0
 40
5.0
  0
CIRCLE
  5
112C
330
962
100
AcDbEntity
  8
AM_4
  6
HIDDEN2
100
AcDbCircle
 10
351.0650128445691
 20
262.8460106103592
 30
0.0
 40
5.0
  0
CIRCLE
  5
112D
330
962
100
AcDbEntity
  8
AM_4
  6
HIDDEN2
100
AcDbCircle
 10
485.4152128445691
 20
262.8460106103589
 30
0.0
 40
5.0
  0
LINE
  5
112E
330
962
100
AcDbEntity
  8
AM_7
100
AcDbLine
 10
379.7401128445696
 20
260.6228158941923
 30
0.0
 11
381.7401128445697
 21
260.6228158941923
 31
0.0
  0
LINE
  5
112F
330
962
100
AcDbEntity
  8
AM_7
100
AcDbLine
 10
380.7401128445697
 20
259.6228158941924
 30
0.0
 11
380.7401128445697
 21
261.6228158941924
 31
0.0
  0
LINE
  5
1130
330
962
100
AcDbEntity
  8
AM_7
100
AcDbLine
 10
364.6401128445696
 20
260.6228158941923
 30
0.0
 11
378.9401128445696
 21
260.6228158941923
 31
0.0
  0
LINE
  5
1131
330
962
100
AcDbEntity
  8
AM_7
100
AcDbLine
 10
382.5401128445697
 20
260.6228158941923
 30
0.0
 11
396.8401128445697
 21
260.6228158941923
 31
0.0
  0
LINE
  5
1132
330
962
100
AcDbEntity
  8
AM_7
100
AcDbLine
 10
380.7401128445697
 20
244.5228158941924
 30
0.0
 11
380.7401128445697
 21
258.8228158941924
 31
0.0
  0
LINE
  5
1133
330
962
100
AcDbEntity
  8
AM_7
100
AcDbLine
 10
380.7401128445697
 20
262.4228158941924
 30
0.0
 11
380.7401128445697
 21
276.7228158941924
 31
0.0
  0
LINE
  5
1134
330
962
100
AcDbEntity
  8
AM_7
100
AcDbLine
 10
379.7401128445685
 20
130.7190053265263
 30
0.0
 11
381.7401128445684
 21
130.7190053265263
 31
0.0
  0
LINE
  5
1135
330
962
100
AcDbEntity
  8
AM_7
100
AcDbLine
 10
380.7401128445685
 20
129.7190053265263
 30
0.0
 11
380.7401128445685
 21
131.7190053265263
 31
0.0
  0
LINE
  5
1136
330
962
100
AcDbEntity
  8
AM_7
100
AcDbLine
 10
364.6401128445684
 20
130.7190053265263
 30
0.0
 11
378.9401128445684
 21
130.7190053265263
 31
0.0
  0
LINE
  5
1137
330
962
100
AcDbEntity
  8
AM_7
100
AcDbLine
 10
382.5401128445685
 20
130.7190053265263
 30
0.0
 11
396.8401128445685
 21
130.7190053265263
 31
0.0
  0
LINE
  5
1138
330
962
100
AcDbEntity
  8
AM_7
100
AcDbLine
 10
380.7401128445685
 20
114.6190053265262
 30
0.0
 11
380.7401128445685
 21
128.9190053265263
 31
0.0
  0
LINE
  5
1139
330
962
100
AcDbEntity
  8
AM_7
100
AcDbLine
 10
380.7401128445685
 20
132.5190053265263
 30
0.0
 11
380.7401128445685
 21
146.8190053265263
 31
0.0
  0
LINE
  5
113A
330
962
100
AcDbEntity
  8
AM_7
100
AcDbLine
 10
492.240112844569
 20
195.6709106103589
 30
0.0
 11
494.2401128445689
 21
195.6709106103589
 31
0.0
  0
LINE
  5
113B
330
962
100
AcDbEntity
  8
AM_7
100
AcDbLine
 10
493.240112844569
 20
194.6709106103589
 30
0.0
 11
493.240112844569
 21
196.6709106103589
 31
0.0
  0
LINE
  5
113C
330
962
100
AcDbEntity
  8
AM_7
100
AcDbLine
 10
477.1401128445689
 20
195.6709106103589
 30
0.0
 11
491.4401128445689
 21
195.6709106103589
 31
0.0
  0
LINE
  5
113D
330
962
100
AcDbEntity
  8
AM_7
100
AcDbLine
 10
495.0401128445689
 20
195.6709106103589
 30
0.0
 11
509.3401128445689
 21
195.6709106103589
 31
0.0
  0
LINE
  5
113E
330
962
100
AcDbEntity
  8
AM_7
100
AcDbLine
 10
493.240112844569
 20
179.5709106103589
 30
0.0
 11
493.240112844569
 21
193.8709106103589
 31
0.0
  0
LINE
  5
113F
330
962
100
AcDbEntity
  8
AM_7
100
AcDbLine
 10
493.240112844569
 20
197.4709106103589
 30
0.0
 11
493.240112844569
 21
211.7709106103589
 31
0.0
  0
LINE
  5
1140
330
962
100
AcDbEntity
  8
AM_VIS
100
AcDbLine
 10
357.040112844569
 20
400.9999441278209
 30
0.0
 11
385.9142040311082
 21
400.9999441278209
 31
0.0
  0
LINE
  5
1141
330
962
100
AcDbEntity
  8
AM_VIS
100
AcDbLine
 10
511.7660216580299
 20
400.9999441278209
 30
0.0
 11
513.240112844569
 21
400.9999441278209
 31
0.0
  0
LINE
  5
1142
330
962
100
AcDbEntity
  8
AM_VIS
100
AcDbLine
 10
407.662357927624
 20
400.9999441278209
 30
0.0
 11
415.040112844569
 21
400.9999441278209
 31
0.0
  0
LINE
  5
1143
330
962
100
AcDbEntity
  8
AM_VIS
100
AcDbLine
 10
482.5645582835527
 20
400.9999441278209
 30
0.0
 11
489.380112844569
 21
400.9999441278209
 31
0.0
  0
LINE
  5
1144
330
962
100
AcDbEntity
  8
AM_VIS
100
AcDbLine
 10
513.240112844569
 20
465.9999441278208
 30
0.0
 11
511.7660216580299
 21
465.9999441278208
 31
0.0
  0
LINE
  5
1145
330
962
100
AcDbEntity
  8
AM_VIS
100
AcDbLine
 10
385.9142040311082
 20
465.9999441278208
 30
0.0
 11
357.040112844569
 21
465.9999441278208
 31
0.0
  0
LINE
  5
1146
330
962
100
AcDbEntity
  8
AM_VIS
100
AcDbLine
 10
513.240112844569
 20
465.9999441278208
 30
0.0
 11
513.240112844569
 21
400.9999441278209
 31
0.0
  0
LINE
  5
1147
330
962
100
AcDbEntity
  8
AM_VIS
100
AcDbLine
 10
462.0978205366147
 20
400.9999441278209
 30
0.0
 11
462.0978205366147
 21
465.9999441278208
 31
0.0
  0
LINE
  5
1148
330
962
100
AcDbEntity
  8
AM_VIS
100
AcDbLine
 10
482.6374984468698
 20
465.9999441278208
 30
0.0
 11
482.6374984468698
 21
401.0840863220184
 31
0.0
  0
LINE
  5
1149
330
962
100
AcDbEntity
  8
AM_VIS
100
AcDbLine
 10
430.4276250846281
 20
465.9999441278208
 30
0.0
 11
430.4276250846281
 21
400.9999441278208
 31
0.0
  0
LINE
  5
114A
330
962
100
AcDbEntity
  8
AM_VIS
100
AcDbLine
 10
430.0803287292942
 20
400.9999441278208
 30
0.0
 11
430.0803287292942
 21
465.9999441278208
 31
0.0
  0
LINE
  5
114B
330
962
100
AcDbEntity
  8
AM_VIS
100
AcDbLine
 10
423.1400477123377
 20
400.9999441278208
 30
0.0
 11
423.1400477123377
 21
465.9999441278208
 31
0.0
  0
LINE
  5
114C
330
962
100
AcDbEntity
  8
AM_VIS
100
AcDbLine
 10
443.5143128445689
 20
400.9999441278209
 30
0.0
 11
443.5143128445689
 21
465.9999441278208
 31
0.0
  0
LINE
  5
114D
330
962
100
AcDbEntity
  8
AM_VIS
100
AcDbLine
 10
454.2847232914776
 20
465.9999441278208
 30
0.0
 11
454.2847232914776
 21
400.9999441278209
 31
0.0
  0
LINE
  5
114E
330
962
100
AcDbEntity
  8
AM_VIS
100
AcDbLine
 10
456.8126699537702
 20
465.9999441278208
 30
0.0
 11
456.8126699537702
 21
400.9999441278209
 31
0.0
  0
LINE
  5
114F
330
962
100
AcDbEntity
  8
AM_VIS
100
AcDbLine
 10
452.0560416420899
 20
400.9999441278209
 30
0.0
 11
452.0560416420899
 21
465.9999441278208
 31
0.0
  0
LINE
  5
1150
330
962
100
AcDbEntity
  8
AM_VIS
100
AcDbLine
 10
385.9142040311082
 20
465.9999441278208
 30
0.0
 11
385.9142040311082
 21
400.9999441278209
 31
0.0
  0
LINE
  5
1151
330
962
100
AcDbEntity
  8
AM_VIS
100
AcDbLine
 10
511.7660216580299
 20
400.9999441278209
 30
0.0
 11
511.7660216580299
 21
465.9999441278208
 31
0.0
  0
LINE
  5
1152
330
962
100
AcDbEntity
  8
AM_VIS
100
AcDbLine
 10
407.662357927624
 20
400.9999441278209
 30
0.0
 11
385.9142040311082
 21
400.9999441278209
 31
0.0
  0
LINE
  5
1153
330
962
100
AcDbEntity
  8
AM_VIS
100
AcDbLine
 10
423.1400477123377
 20
400.9999441278209
 30
0.0
 11
415.040112844569
 21
400.9999441278209
 31
0.0
  0
LINE
  5
1154
330
962
100
AcDbEntity
  8
AM_VIS
100
AcDbLine
 10
430.0803287292942
 20
400.9999441278209
 30
0.0
 11
423.1400477123377
 21
400.9999441278209
 31
0.0
  0
LINE
  5
1155
330
962
100
AcDbEntity
  8
AM_VIS
100
AcDbLine
 10
430.4276250846281
 20
400.9999441278209
 30
0.0
 11
430.0803287292942
 21
400.9999441278209
 31
0.0
  0
LINE
  5
1156
330
962
100
AcDbEntity
  8
AM_VIS
100
AcDbLine
 10
443.5143128445689
 20
400.9999441278209
 30
0.0
 11
430.4276250846281
 21
400.9999441278209
 31
0.0
  0
LINE
  5
1157
330
962
100
AcDbEntity
  8
AM_VIS
100
AcDbLine
 10
452.0560416420899
 20
400.9999441278209
 30
0.0
 11
443.5143128445689
 21
400.9999441278209
 31
0.0
  0
LINE
  5
1158
330
962
100
AcDbEntity
  8
AM_VIS
100
AcDbLine
 10
454.2847232914777
 20
400.9999441278209
 30
0.0
 11
452.0560416420899
 21
400.9999441278209
 31
0.0
  0
LINE
  5
1159
330
962
100
AcDbEntity
  8
AM_VIS
100
AcDbLine
 10
456.8126699537702
 20
400.9999441278209
 30
0.0
 11
454.2847232914776
 21
400.9999441278209
 31
0.0
  0
LINE
  5
115A
330
962
100
AcDbEntity
  8
AM_VIS
100
AcDbLine
 10
462.0978205366147
 20
400.9999441278209
 30
0.0
 11
456.8126699537702
 21
400.9999441278209
 31
0.0
  0
LINE
  5
115B
330
962
100
AcDbEntity
  8
AM_VIS
100
AcDbLine
 10
482.5645582835526
 20
400.9999441278209
 30
0.0
 11
462.0978205366146
 21
400.9999441278209
 31
0.0
  0
LINE
  5
115C
330
962
100
AcDbEntity
  8
AM_VIS
100
AcDbLine
 10
511.7660216580299
 20
400.9999441278209
 30
0.0
 11
490.0178677615141
 21
400.9999441278209
 31
0.0
  0
LINE
  5
115D
330
962
100
AcDbEntity
  8
AM_VIS
100
AcDbLine
 10
357.040112844569
 20
400.9999441278209
 30
0.0
 11
357.040112844569
 21
465.9999441278208
 31
0.0
  0
LINE
  5
115E
330
962
100
AcDbEntity
  8
AM_VIS
100
AcDbLine
 10
415.040112844569
 20
401.0857094908267
 30
0.0
 11
415.040112844569
 21
465.9999441278208
 31
0.0
  0
SPLINE
  5
115F
330
962
100
AcDbEntity
  8
AM_VIS
100
AcDbSpline
210
0.0
220
0.0
230
1.0
 70
    12
 71
     2
 72
     6
 73
     3
 74
     0
 42
0.0000000001
 43
0.0000000001
 40
0.0
 40
0.0
 40
0.0
 40
4.882760957202089
 40
4.882760957202089
 40
4.882760957202089
 10
407.662357927624
 20
400.9999441278209
 30
0.0
 41
1.0
 10
409.5082212202564
 20
402.3076173540436
 30
0.0
 41
1.000378399762674
 10
411.294540535707
 20
403.4999441278208
 30
0.0
 41
1.0
  0
SPLINE
  5
1160
330
962
100
AcDbEntity
  8
AM_VIS
100
AcDbSpline
210
0.0
220
0.0
230
1.0
 70
    12
 71
     2
 72
     6
 73
     3
 74
     0
 42
0.0000000001
 43
0.0000000001
 40
0.0
 40
0.0
 40
0.0
 40
4.882760957202108
 40
4.882760957202108
 40
4.882760957202108
 10
486.385685153431
 20
403.4999441278208
 30
0.0
 41
1.0
 10
488.1720044688823
 20
402.3076173540432
 30
0.0
 41
1.000378399761205
 10
490.017867761514
 20
400.9999441278209
 30
0.0
 41
1.0
  0
LINE
  5
1161
330
962
100
AcDbEntity
  8
AM_VIS
100
AcDbLine
 10
415.040112844569
 20
401.0857094908267
 30
0.0
 11
415.040112844569
 21
400.9999441278209
 31
0.0
  0
SPLINE
  5
1162
330
962
100
AcDbEntity
  8
AM_VIS
100
AcDbSpline
210
0.0
220
0.0
230
1.0
 70
    12
 71
     2
 72
     6
 73
     3
 74
     0
 42
0.0000000001
 43
0.0000000001
 40
0.0
 40
0.0
 40
0.0
 40
4.948808873195191
 40
4.948808873195191
 40
4.948808873195191
 10
411.2945405357071
 20
403.4999441278208
 30
0.0
 41
1.0
 10
413.1979620646996
 20
402.2294543384691
 30
0.0
 41
1.000445813882417
 10
415.040112844569
 20
401.0857094908267
 30
0.0
 41
1.000032272233172
  0
SPLINE
  5
1163
330
962
100
AcDbEntity
  8
AM_VIS
100
AcDbSpline
210
0.0
220
0.0
230
1.0
 70
     8
 71
     3
 72
    10
 73
     6
 74
     0
 42
0.0000000001
 43
0.0000000001
 40
1.332219534839756
 40
1.332219534839756
 40
1.332219534839756
 40
1.332219534839756
 40
1.385154221259006
 40
1.385154221259006
 40
1.677112348929857
 40
1.677112348929857
 40
1.677112348929857
 40
1.677112348929857
 10
489.380112844569
 20
400.9999441278209
 30
0.0
 10
489.3933513135512
 20
401.0136390957335
 30
0.0
 10
489.406596002634
 20
401.027336617501
 30
0.0
 10
489.492919983804
 20
401.1165867034972
 30
0.0
 10
489.5661380366779
 20
401.1921616492943
 30
0.0
 10
489.6391780190682
 20
401.2674490745681
 30
0.0
  0
LINE
  5
1164
330
962
100
AcDbEntity
  8
AM_VIS
100
AcDbLine
 10
482.5645582913948
 20
400.9999441210227
 30
0.0
 11
482.6374984546984
 21
401.0840863152321
 31
0.0
  0
SPLINE
  5
1165
330
962
100
AcDbEntity
  8
AM_VIS
100
AcDbSpline
210
0.0
220
0.0
230
1.0
 70
    12
 71
     2
 72
     6
 73
     3
 74
     0
 42
0.0000000001
 43
0.0000000001
 40
0.1823372580553165
 40
0.1823372580553165
 40
0.1823372580553165
 40
5.134656415913847
 40
5.134656415913847
 40
5.134656415913847
 10
482.6374984468698
 20
401.0840863220184
 30
0.0
 41
1.000031685134724
 10
484.4809140932571
 20
402.2285535576592
 30
0.0
 41
1.000446130105386
 10
486.385685153431
 20
403.4999441278208
 30
0.0
 41
1.0
  0
LINE
  5
1166
330
962
100
AcDbEntity
  8
AM_VIS
100
AcDbLine
 10
511.7660216580299
 20
465.9999441278208
 30
0.0
 11
482.6374984468698
 21
465.9999441278208
 31
0.0
  0
LINE
  5
1167
330
962
100
AcDbEntity
  8
AM_VIS
100
AcDbLine
 10
462.0978205366147
 20
465.9999441278208
 30
0.0
 11
482.6374984468698
 21
465.9999441278208
 31
0.0
  0
LINE
  5
1168
330
962
100
AcDbEntity
  8
AM_VIS
100
AcDbLine
 10
456.8126699537702
 20
465.9999441278208
 30
0.0
 11
462.0978205366147
 21
465.9999441278208
 31
0.0
  0
LINE
  5
1169
330
962
100
AcDbEntity
  8
AM_VIS
100
AcDbLine
 10
454.2847232914776
 20
465.9999441278208
 30
0.0
 11
456.8126699537702
 21
465.9999441278208
 31
0.0
  0
LINE
  5
116A
330
962
100
AcDbEntity
  8
AM_VIS
100
AcDbLine
 10
452.0560416420898
 20
465.9999441278208
 30
0.0
 11
454.2847232914777
 21
465.9999441278208
 31
0.0
  0
LINE
  5
116B
330
962
100
AcDbEntity
  8
AM_VIS
100
AcDbLine
 10
443.5143128445689
 20
465.9999441278208
 30
0.0
 11
452.0560416420899
 21
465.9999441278208
 31
0.0
  0
LINE
  5
116C
330
962
100
AcDbEntity
  8
AM_VIS
100
AcDbLine
 10
430.4276250846281
 20
465.9999441278208
 30
0.0
 11
443.5143128445689
 21
465.9999441278208
 31
0.0
  0
LINE
  5
116D
330
962
100
AcDbEntity
  8
AM_VIS
100
AcDbLine
 10
430.0803287292942
 20
465.9999441278208
 30
0.0
 11
430.4276250846282
 21
465.9999441278208
 31
0.0
  0
LINE
  5
116E
330
962
100
AcDbEntity
  8
AM_VIS
100
AcDbLine
 10
423.1400477123377
 20
465.9999441278208
 30
0.0
 11
430.0803287292942
 21
465.9999441278208
 31
0.0
  0
LINE
  5
116F
330
962
100
AcDbEntity
  8
AM_VIS
100
AcDbLine
 10
415.040112844569
 20
465.9999441278208
 30
0.0
 11
423.1400477123377
 21
465.9999441278208
 31
0.0
  0
LINE
  5
1170
330
962
100
AcDbEntity
  8
AM_VIS
100
AcDbLine
 10
415.040112844569
 20
465.9999441278208
 30
0.0
 11
385.9142040311082
 21
465.9999441278208
 31
0.0
  0
LINE
  5
1171
330
962
100
AcDbEntity
  8
AM_VIS
100
AcDbLine
 10
412.3029418010499
 20
469.7678933202519
 30
0.0
 11
407.2401128445688
 21
469.7678933202519
 31
0.0
  0
LINE
  5
1172
330
962
100
AcDbEntity
  8
AM_VIS
100
AcDbLine
 10
429.240112844569
 20
469.7678933202519
 30
0.0
 11
424.1772838880879
 21
469.7678933202519
 31
0.0
  0
LINE
  5
1173
330
962
100
AcDbEntity
  8
AM_VIS
100
AcDbLine
 10
430.7401128445689
 20
465.9999441278208
 30
0.0
 11
430.7401128445689
 21
466.4999441278208
 31
0.0
  0
LINE
  5
1174
330
962
100
AcDbEntity
  8
AM_VIS
100
AcDbLine
 10
405.7401128445689
 20
465.9999441278208
 30
0.0
 11
405.7401128445689
 21
466.4999441278208
 31
0.0
  0
LINE
  5
1175
330
962
100
AcDbEntity
  8
AM_VIS
100
AcDbLine
 10
407.2401128445689
 20
470.9999441278208
 30
0.0
 11
407.2401128445689
 21
469.7678933202519
 31
0.0
  0
LINE
  5
1176
330
962
100
AcDbEntity
  8
AM_VIS
100
AcDbLine
 10
407.2401128445689
 20
469.7678933202519
 30
0.0
 11
407.2401128445689
 21
467.4999441278209
 31
0.0
  0
LINE
  5
1177
330
962
100
AcDbEntity
  8
AM_VIS
100
AcDbLine
 10
405.7401128445689
 20
466.4999441278208
 30
0.0
 11
407.2401128445688
 21
467.4999441278208
 31
0.0
  0
SPLINE
  5
1178
330
962
100
AcDbEntity
  8
AM_VIS
100
AcDbSpline
210
0.0
220
0.0
230
1.0
 70
    12
 71
     2
 72
     6
 73
     3
 74
     0
 42
0.0000000001
 43
0.0000000001
 40
1.096022561558782
 40
1.096022561558782
 40
1.096022561558782
 40
3.114708787573474
 40
3.114708787573474
 40
3.114708787573474
 10
422.4795540139938
 20
470.9999441278207
 30
0.0
 41
1.002664993955071
 10
423.303558857448
 20
470.486688163347
 30
0.0
 41
1.003786728659529
 10
424.1772838880879
 20
469.7678933202519
 30
0.0
 41
1.0
  0
LINE
  5
1179
330
962
100
AcDbEntity
  8
AM_VIS
100
AcDbLine
 10
424.1772838880879
 20
469.7678933202519
 30
0.0
 11
424.1772838880879
 21
467.4999441278209
 31
0.0
  0
LINE
  5
117A
330
962
100
AcDbEntity
  8
AM_VIS
100
AcDbLine
 10
412.30294180105
 20
467.4999441278209
 30
0.0
 11
412.30294180105
 21
469.7678933202519
 31
0.0
  0
SPLINE
  5
117B
330
962
100
AcDbEntity
  8
AM_VIS
100
AcDbSpline
210
0.0
220
0.0
230
1.0
 70
    12
 71
     2
 72
     6
 73
     3
 74
     0
 42
0.0000000001
 43
0.0000000001
 40
0.0
 40
0.0
 40
0.0
 40
2.018686226014657
 40
2.018686226014657
 40
2.018686226014657
 10
412.30294180105
 20
469.7678933202519
 30
0.0
 41
1.0
 10
413.17666683169
 20
470.486688163347
 30
0.0
 41
1.00378672865961
 10
414.0006716751441
 20
470.9999441278207
 30
0.0
 41
1.002664993955128
  0
LINE
  5
117C
330
962
100
AcDbEntity
  8
AM_VIS
100
AcDbLine
 10
424.1772838880879
 20
467.4999441278209
 30
0.0
 11
412.30294180105
 21
467.4999441278209
 31
0.0
  0
ELLIPSE
  5
117D
330
962
100
AcDbEntity
  8
AM_VIS
100
AcDbEllipse
 10
418.2401128445689
 20
474.8332774611542
 30
0.0
 11
12.5
 21
-0.0000000000000205
 31
0.0
210
0.0
220
0.0
230
1.0
 40
0.6666666666666666
 41
4.217454854043799
 42
5.207323106725588
  0
LINE
  5
117E
330
962
100
AcDbEntity
  8
AM_VIS
100
AcDbLine
 10
429.240112844569
 20
467.4999441278209
 30
0.0
 11
429.240112844569
 21
469.7678933202519
 31
0.0
  0
LINE
  5
117F
330
962
100
AcDbEntity
  8
AM_VIS
100
AcDbLine
 10
429.240112844569
 20
470.9999441278208
 30
0.0
 11
429.240112844569
 21
469.7678933202519
 31
0.0
  0
LINE
  5
1180
330
962
100
AcDbEntity
  8
AM_VIS
100
AcDbLine
 10
429.240112844569
 20
467.4999441278209
 30
0.0
 11
430.740112844569
 21
466.4999441278208
 31
0.0
  0
LINE
  5
1181
330
962
100
AcDbEntity
  8
AM_VIS
100
AcDbLine
 10
493.240112844569
 20
376.9999441278208
 30
0.0
 11
503.240112844569
 21
376.9999441278208
 31
0.0
  0
LINE
  5
1182
330
962
100
AcDbEntity
  8
AM_VIS
100
AcDbLine
 10
483.240112844569
 20
376.9999441278208
 30
0.0
 11
493.240112844569
 21
376.9999441278208
 31
0.0
  0
LINE
  5
1183
330
962
100
AcDbEntity
  8
AM_VIS
100
AcDbLine
 10
493.240112844569
 20
375.9999441278208
 30
0.0
 11
484.240112844569
 21
375.9999441278208
 31
0.0
  0
LINE
  5
1184
330
962
100
AcDbEntity
  8
AM_VIS
100
AcDbLine
 10
502.2401128445689
 20
375.9999441278208
 30
0.0
 11
493.240112844569
 21
375.9999441278208
 31
0.0
  0
LINE
  5
1185
330
962
100
AcDbEntity
  8
AM_VIS
100
AcDbLine
 10
503.240112844569
 20
465.9999441278208
 30
0.0
 11
503.240112844569
 21
470.9999441278208
 31
0.0
  0
LINE
  5
1186
330
962
100
AcDbEntity
  8
AM_VIS
100
AcDbLine
 10
503.240112844569
 20
376.9999441278208
 30
0.0
 11
503.240112844569
 21
400.9999441278209
 31
0.0
  0
LINE
  5
1187
330
962
100
AcDbEntity
  8
AM_VIS
100
AcDbLine
 10
483.240112844569
 20
465.9999441278208
 30
0.0
 11
483.240112844569
 21
470.9999441278208
 31
0.0
  0
LINE
  5
1188
330
962
100
AcDbEntity
  8
AM_VIS
100
AcDbLine
 10
483.240112844569
 20
376.9999441278208
 30
0.0
 11
483.240112844569
 21
400.9999441278209
 31
0.0
  0
LINE
  5
1189
330
962
100
AcDbEntity
  8
AM_VIS
100
AcDbLine
 10
502.2401128445689
 20
375.9999441278208
 30
0.0
 11
503.240112844569
 21
376.9999441278208
 31
0.0
  0
LINE
  5
118A
330
962
100
AcDbEntity
  8
AM_VIS
100
AcDbLine
 10
484.240112844569
 20
375.9999441278208
 30
0.0
 11
483.240112844569
 21
376.9999441278208
 31
0.0
  0
LINE
  5
118B
330
962
100
AcDbEntity
  8
AM_VIS
100
AcDbLine
 10
380.7401128445697
 20
376.9999441278208
 30
0.0
 11
390.7401128445696
 21
376.9999441278208
 31
0.0
  0
LINE
  5
118C
330
962
100
AcDbEntity
  8
AM_VIS
100
AcDbLine
 10
370.7401128445697
 20
376.9999441278208
 30
0.0
 11
380.7401128445697
 21
376.9999441278208
 31
0.0
  0
LINE
  5
118D
330
962
100
AcDbEntity
  8
AM_VIS
100
AcDbLine
 10
380.7401128445697
 20
375.9999441278208
 30
0.0
 11
371.7401128445696
 21
375.9999441278208
 31
0.0
  0
LINE
  5
118E
330
962
100
AcDbEntity
  8
AM_VIS
100
AcDbLine
 10
389.7401128445697
 20
375.9999441278208
 30
0.0
 11
380.7401128445697
 21
375.9999441278208
 31
0.0
  0
LINE
  5
118F
330
962
100
AcDbEntity
  8
AM_VIS
100
AcDbLine
 10
390.7401128445696
 20
465.9999441278208
 30
0.0
 11
390.7401128445696
 21
470.9999441278208
 31
0.0
  0
LINE
  5
1190
330
962
100
AcDbEntity
  8
AM_VIS
100
AcDbLine
 10
390.7401128445696
 20
376.9999441278208
 30
0.0
 11
390.7401128445696
 21
400.9999441278209
 31
0.0
  0
LINE
  5
1191
330
962
100
AcDbEntity
  8
AM_VIS
100
AcDbLine
 10
370.7401128445697
 20
465.9999441278208
 30
0.0
 11
370.7401128445697
 21
470.9999441278208
 31
0.0
  0
LINE
  5
1192
330
962
100
AcDbEntity
  8
AM_VIS
100
AcDbLine
 10
370.7401128445697
 20
376.9999441278208
 30
0.0
 11
370.7401128445697
 21
400.9999441278209
 31
0.0
  0
LINE
  5
1193
330
962
100
AcDbEntity
  8
AM_VIS
100
AcDbLine
 10
389.7401128445697
 20
375.9999441278208
 30
0.0
 11
390.7401128445696
 21
376.9999441278208
 31
0.0
  0
LINE
  5
1194
330
962
100
AcDbEntity
  8
AM_VIS
100
AcDbLine
 10
371.7401128445696
 20
375.9999441278208
 30
0.0
 11
370.7401128445697
 21
376.9999441278208
 31
0.0
  0
LINE
  5
1195
330
962
100
AcDbEntity
  8
AM_VIS
100
AcDbLine
 10
528.240112844569
 20
470.9999441278208
 30
0.0
 11
308.240112844569
 21
470.9999441278208
 31
0.0
  0
LINE
  5
1196
330
962
100
AcDbEntity
  8
AM_VIS
100
AcDbLine
 10
308.240112844569
 20
488.9999441278209
 30
0.0
 11
528.240112844569
 21
488.9999441278209
 31
0.0
  0
LINE
  5
1197
330
962
100
AcDbEntity
  8
AM_VIS
100
AcDbLine
 10
308.240112844569
 20
488.9999441278209
 30
0.0
 11
308.240112844569
 21
470.9999441278208
 31
0.0
  0
LINE
  5
1198
330
962
100
AcDbEntity
  8
AM_VIS
100
AcDbLine
 10
528.240112844569
 20
488.9999441278209
 30
0.0
 11
528.240112844569
 21
470.9999441278208
 31
0.0
  0
LINE
  5
1199
330
962
100
AcDbEntity
  8
AM_VIS
100
AcDbLine
 10
383.5261031136886
 20
608.6039171733498
 30
0.0
 11
380.3504555415426
 21
607.2211107423227
 31
0.0
  0
LINE
  5
119A
330
962
100
AcDbEntity
  8
AM_VIS
100
AcDbLine
 10
380.3504555415426
 20
607.2211107423227
 30
0.0
 11
377.5641623452896
 21
609.2786484340019
 31
0.0
  0
LINE
  5
119B
330
962
100
AcDbEntity
  8
AM_VIS
100
AcDbLine
 10
377.5641623452896
 20
609.2786484340019
 30
0.0
 11
377.9541225754499
 21
612.7243458987966
 31
0.0
  0
LINE
  5
119C
330
962
100
AcDbEntity
  8
AM_VIS
100
AcDbLine
 10
381.1297701475958
 20
614.1071523298237
 30
0.0
 11
383.9160633438489
 21
612.0496146381444
 31
0.0
  0
LINE
  5
119D
330
962
100
AcDbEntity
  8
AM_VIS
100
AcDbLine
 10
383.9160633438489
 20
612.0496146381444
 30
0.0
 11
383.5261031136886
 21
608.6039171733496
 31
0.0
  0
LINE
  5
119E
330
962
100
AcDbEntity
  8
AM_VIS
100
AcDbLine
 10
377.9541225754499
 20
612.7243458987966
 30
0.0
 11
381.1297701475958
 21
614.1071523298237
 31
0.0
  0
CIRCLE
  5
119F
330
962
100
AcDbEntity
  8
AM_VIS
100
AcDbCircle
 10
380.740112844569
 20
610.6641315360732
 30
0.0
 40
8.750000000000001
  0
LINE
  5
11A0
330
962
100
AcDbEntity
  8
AM_VIS
100
AcDbLine
 10
383.7401128445694
 20
738.8340952246867
 30
0.0
 11
380.7401128445694
 21
737.1029421037392
 31
0.0
  0
LINE
  5
11A1
330
962
100
AcDbEntity
  8
AM_VIS
100
AcDbLine
 10
380.7401128445694
 20
737.1029421037392
 30
0.0
 11
377.7401128445694
 21
738.8340952246867
 31
0.0
  0
LINE
  5
11A2
330
962
100
AcDbEntity
  8
AM_VIS
100
AcDbLine
 10
377.7401128445695
 20
738.8340952246867
 30
0.0
 11
377.7401128445695
 21
742.3017889827917
 31
0.0
  0
LINE
  5
11A3
330
962
100
AcDbEntity
  8
AM_VIS
100
AcDbLine
 10
380.7401128445694
 20
744.0329421037392
 30
0.0
 11
383.7401128445694
 21
742.3017889827917
 31
0.0
  0
LINE
  5
11A4
330
962
100
AcDbEntity
  8
AM_VIS
100
AcDbLine
 10
383.7401128445694
 20
742.3017889827917
 30
0.0
 11
383.7401128445694
 21
738.834095224687
 31
0.0
  0
LINE
  5
11A5
330
962
100
AcDbEntity
  8
AM_VIS
100
AcDbLine
 10
377.7401128445695
 20
742.3017889827917
 30
0.0
 11
380.7401128445695
 21
744.0329421037392
 31
0.0
  0
CIRCLE
  5
11A6
330
962
100
AcDbEntity
  8
AM_VIS
100
AcDbCircle
 10
380.7401128445694
 20
740.5679421037393
 30
0.0
 40
8.75
  0
LINE
  5
11A7
330
962
100
AcDbEntity
  8
AM_VIS
100
AcDbLine
 10
496.2401128445689
 20
673.8821899408535
 30
0.0
 11
493.2401128445689
 21
672.151036819906
 31
0.0
  0
LINE
  5
11A8
330
962
100
AcDbEntity
  8
AM_VIS
100
AcDbLine
 10
493.2401128445689
 20
672.151036819906
 30
0.0
 11
490.2401128445689
 21
673.8821899408535
 31
0.0
  0
LINE
  5
11A9
330
962
100
AcDbEntity
  8
AM_VIS
100
AcDbLine
 10
490.2401128445689
 20
673.8821899408535
 30
0.0
 11
490.2401128445689
 21
677.3498836989583
 31
0.0
  0
LINE
  5
11AA
330
962
100
AcDbEntity
  8
AM_VIS
100
AcDbLine
 10
493.2401128445689
 20
679.0810368199061
 30
0.0
 11
496.2401128445689
 21
677.3498836989586
 31
0.0
  0
LINE
  5
11AB
330
962
100
AcDbEntity
  8
AM_VIS
100
AcDbLine
 10
496.2401128445689
 20
677.3498836989586
 30
0.0
 11
496.2401128445689
 21
673.8821899408535
 31
0.0
  0
LINE
  5
11AC
330
962
100
AcDbEntity
  8
AM_VIS
100
AcDbLine
 10
490.2401128445689
 20
677.3498836989586
 30
0.0
 11
493.2401128445689
 21
679.0810368199061
 31
0.0
  0
CIRCLE
  5
11AD
330
962
100
AcDbEntity
  8
AM_VIS
100
AcDbCircle
 10
493.2401128445689
 20
675.616036819906
 30
0.0
 40
8.75
  0
LINE
  5
11AE
330
962
100
AcDbEntity
  8
AM_VIS
100
AcDbLine
 10
420.9877060964965
 20
670.5365332691679
 30
0.0
 11
415.2171389145676
 21
670.6954419759331
 31
0.0
  0
LINE
  5
11AF
330
962
100
AcDbEntity
  8
AM_VIS
100
AcDbLine
 10
415.2171389145676
 20
670.6954419759331
 30
0.0
 11
412.4671955441625
 21
675.7711201609449
 31
0.0
  0
LINE
  5
11B0
330
962
100
AcDbEntity
  8
AM_VIS
100
AcDbLine
 10
412.4671955441625
 20
675.7711201609449
 30
0.0
 11
415.4925195926415
 21
680.6955403706442
 31
0.0
  0
LINE
  5
11B1
330
962
100
AcDbEntity
  8
AM_VIS
100
AcDbLine
 10
421.2630867745702
 20
680.536631663879
 30
0.0
 11
424.0130301449754
 21
675.4609534788671
 31
0.0
  0
LINE
  5
11B2
330
962
100
AcDbEntity
  8
AM_VIS
100
AcDbLine
 10
424.0130301449754
 20
675.4609534788671
 30
0.0
 11
420.9877060964965
 21
670.5365332691679
 31
0.0
  0
LINE
  5
11B3
330
962
100
AcDbEntity
  8
AM_VIS
100
AcDbLine
 10
415.4925195926415
 20
680.6955403706442
 30
0.0
 11
421.2630867745702
 21
680.5366316638788
 31
0.0
  0
CIRCLE
  5
11B4
330
962
100
AcDbEntity
  8
AM_VIS
100
AcDbCircle
 10
418.240112844569
 20
675.616036819906
 30
0.0
 40
9.000000000000003
  0
CIRCLE
  5
11B5
330
962
100
AcDbEntity
  8
AM_VIS
100
AcDbCircle
 10
485.4152128445696
 20
742.7911368199054
 30
0.0
 40
4.25
  0
CIRCLE
  5
11B6
330
962
100
AcDbEntity
  8
AM_VIS
100
AcDbCircle
 10
485.4152128445696
 20
742.7911368199054
 30
0.0
 40
5.450000000000002
  0
CIRCLE
  5
11B7
330
962
100
AcDbEntity
  8
AM_VIS
100
AcDbCircle
 10
351.0650128445693
 20
742.7911368199063
 30
0.0
 40
5.450000000000002
  0
CIRCLE
  5
11B8
330
962
100
AcDbEntity
  8
AM_VIS
100
AcDbCircle
 10
485.4152128445691
 20
608.440936819906
 30
0.0
 40
5.450000000000002
  0
CIRCLE
  5
11B9
330
962
100
AcDbEntity
  8
AM_VIS
100
AcDbCircle
 10
380.7401128445694
 20
740.5679421037391
 30
0.0
 40
9.500000000000001
  0
CIRCLE
  5
11BA
330
962
100
AcDbEntity
  8
AM_VIS
100
AcDbCircle
 10
380.7401128445687
 20
610.664131536073
 30
0.0
 40
9.5
  0
CIRCLE
  5
11BB
330
962
100
AcDbEntity
  8
AM_VIS
100
AcDbCircle
 10
493.240112844569
 20
675.616036819906
 30
0.0
 40
9.5
  0
CIRCLE
  5
11BC
330
962
100
AcDbEntity
  8
AM_VIS
100
AcDbCircle
 10
418.240112844569
 20
675.616036819906
 30
0.0
 40
10.0
  0
CIRCLE
  5
11BD
330
962
100
AcDbEntity
  8
AM_VIS
100
AcDbCircle
 10
418.240112844569
 20
675.616036819906
 30
0.0
 40
110.0
  0
CIRCLE
  5
11BE
330
962
100
AcDbEntity
  8
AM_VIS
100
AcDbCircle
 10
351.0650128445688
 20
608.440936819906
 30
0.0
 40
5.450000000000002
  0
CIRCLE
  5
11BF
330
962
100
AcDbEntity
  8
AM_VIS
100
AcDbCircle
 10
351.0650128445693
 20
742.7911368199063
 30
0.0
 40
4.25
  0
CIRCLE
  5
11C0
330
962
100
AcDbEntity
  8
AM_VIS
100
AcDbCircle
 10
351.0650128445688
 20
608.440936819906
 30
0.0
 40
4.25
  0
CIRCLE
  5
11C1
330
962
100
AcDbEntity
  8
AM_VIS
100
AcDbCircle
 10
485.4152128445691
 20
608.440936819906
 30
0.0
 40
4.25
  0
LINE
  5
11C2
330
962
100
AcDbEntity
  8
AM_VIS
100
AcDbLine
 10
634.9412315977226
 20
465.9999441278208
 30
0.0
 11
618.1253803038786
 21
465.9999441278208
 31
0.0
  0
LINE
  5
11C3
330
962
100
AcDbEntity
  8
AM_VIS
100
AcDbLine
 10
634.9412315977227
 20
465.9999441278208
 30
0.0
 11
658.6594571731936
 21
465.9999441278208
 31
0.0
  0
LINE
  5
11C4
330
962
100
AcDbEntity
  8
AM_VIS
100
AcDbLine
 10
658.6594571731936
 20
465.9999441278208
 30
0.0
 11
660.0876942323623
 21
465.9999441278208
 31
0.0
  0
LINE
  5
11C5
330
962
100
AcDbEntity
  8
AM_VIS
100
AcDbLine
 10
660.0876942323623
 20
465.9999441278208
 30
0.0
 11
661.3726907470976
 21
465.9999441278208
 31
0.0
  0
LINE
  5
11C6
330
962
100
AcDbEntity
  8
AM_VIS
100
AcDbLine
 10
661.3726907470977
 20
465.9999441278208
 30
0.0
 11
663.6802268872826
 21
465.9999441278208
 31
0.0
  0
LINE
  5
11C7
330
962
100
AcDbEntity
  8
AM_VIS
100
AcDbLine
 10
663.6802268872825
 20
465.9999441278208
 30
0.0
 11
673.8598628686935
 21
465.9999441278208
 31
0.0
  0
LINE
  5
11C8
330
962
100
AcDbEntity
  8
AM_VIS
100
AcDbLine
 10
673.8598628686935
 20
465.9999441278208
 30
0.0
 11
673.9686003717261
 21
465.9999441278208
 31
0.0
  0
LINE
  5
11C9
330
962
100
AcDbEntity
  8
AM_VIS
100
AcDbLine
 10
690.7859610887856
 20
465.9999441278208
 30
0.0
 11
673.9686003717261
 21
465.9999441278208
 31
0.0
  0
LINE
  5
11CA
330
962
100
AcDbEntity
  8
AM_VIS
100
AcDbLine
 10
740.9412315977227
 20
465.9999441278208
 30
0.0
 11
724.1235246149898
 21
465.9999441278208
 31
0.0
  0
LINE
  5
11CB
330
962
100
AcDbEntity
  8
AM_VIS
100
AcDbLine
 10
740.9412315977228
 20
465.9999441278208
 30
0.0
 11
741.0529879471862
 21
465.9999441278208
 31
0.0
  0
LINE
  5
11CC
330
962
100
AcDbEntity
  8
AM_VIS
100
AcDbLine
 10
741.0529879471861
 20
465.9999441278208
 30
0.0
 11
751.2326239285973
 21
465.9999441278208
 31
0.0
  0
LINE
  5
11CD
330
962
100
AcDbEntity
  8
AM_VIS
100
AcDbLine
 10
751.2326239285971
 20
465.9999441278208
 30
0.0
 11
753.5401600687819
 21
465.9999441278208
 31
0.0
  0
LINE
  5
11CE
330
962
100
AcDbEntity
  8
AM_VIS
100
AcDbLine
 10
753.5401600687819
 20
465.9999441278208
 30
0.0
 11
754.8251565835172
 21
465.9999441278208
 31
0.0
  0
LINE
  5
11CF
330
962
100
AcDbEntity
  8
AM_VIS
100
AcDbLine
 10
754.8251565835171
 20
465.9999441278208
 30
0.0
 11
756.253393642686
 21
465.9999441278208
 31
0.0
  0
LINE
  5
11D0
330
962
100
AcDbEntity
  8
AM_VIS
100
AcDbLine
 10
756.2533936426862
 20
465.9999441278208
 30
0.0
 11
779.9686003717261
 21
465.9999441278208
 31
0.0
  0
LINE
  5
11D1
330
962
100
AcDbEntity
  8
AM_VIS
100
AcDbLine
 10
796.7863073544589
 20
465.9999441278208
 30
0.0
 11
779.9686003717259
 21
465.9999441278208
 31
0.0
  0
LINE
  5
11D2
330
962
100
AcDbEntity
  8
AM_VIS
100
AcDbLine
 10
740.8998165628499
 20
400.999944124746
 30
0.0
 11
740.9412316038559
 21
401.0826935765235
 31
0.0
  0
SPLINE
  5
11D3
330
962
100
AcDbEntity
  8
AM_VIS
100
AcDbSpline
210
0.0
220
0.0
230
1.0
 70
    12
 71
     2
 72
     6
 73
     3
 74
     0
 42
0.0000000001
 43
0.0000000001
 40
0.0
 40
0.0
 40
0.0
 40
4.954974240824641
 40
4.954974240824641
 40
4.954974240824641
 10
738.7761245317667
 20
403.4999441278208
 30
0.0
 41
1.0
 10
739.8764091554774
 20
402.2277926133505
 30
0.0
 41
1.000446316815587
 10
740.9412315977227
 20
401.0826935795931
 30
0.0
 41
1.000031174418094
  0
SPLINE
  5
11D4
330
962
100
AcDbEntity
  8
AM_VIS
100
AcDbSpline
210
0.0
220
0.0
230
1.0
 70
    12
 71
     2
 72
     6
 73
     3
 74
     0
 42
0.0000000001
 43
0.0000000001
 40
0.1793102172299835
 40
0.1793102172299835
 40
0.1793102172299835
 40
5.134284458054716
 40
5.134284458054716
 40
5.134284458054716
 10
779.9686003717261
 20
401.0826935795931
 30
0.0
 41
1.000031174418094
 10
781.0334228139713
 20
402.2277926133505
 30
0.0
 41
1.000446316815587
 10
782.133707437682
 20
403.4999441278208
 30
0.0
 41
1.0
  0
LINE
  5
11D5
330
962
100
AcDbEntity
  8
AM_VIS
100
AcDbLine
 10
779.8857702973683
 20
400.9999441201383
 30
0.0
 11
779.968600379388
 21
401.0826935719237
 31
0.0
  0
SPLINE
  5
11D6
330
962
100
AcDbEntity
  8
AM_VIS
100
AcDbSpline
210
0.0
220
0.0
230
1.0
 70
    12
 71
     2
 72
     6
 73
     3
 74
     0
 42
0.0000000001
 43
0.0000000001
 40
0.1823372580553165
 40
0.1823372580553165
 40
0.1823372580553165
 40
5.134656415913847
 40
5.134656415913847
 40
5.134656415913847
 10
673.9686003717261
 20
401.0840863220184
 30
0.0
 41
1.000031685134724
 10
675.0328968913962
 20
402.2285535576592
 30
0.0
 41
1.000446130105386
 10
676.1326169757321
 20
403.4999441278208
 30
0.0
 41
1.0
  0
LINE
  5
11D7
330
962
100
AcDbEntity
  8
AM_VIS
100
AcDbLine
 10
673.9686003653956
 20
401.0840863188501
 30
0.0
 11
674.0107123883104
 21
400.9999441246469
 31
0.0
  0
SPLINE
  5
11D8
330
962
100
AcDbEntity
  8
AM_VIS
100
AcDbSpline
210
0.0
220
0.0
230
1.0
 70
    12
 71
     2
 72
     6
 73
     3
 74
     0
 42
0.0000000001
 43
0.0000000001
 40
0.0
 40
0.0
 40
0.0
 40
4.948808873195191
 40
4.948808873195191
 40
4.948808873195191
 10
632.7787244169319
 20
403.4999441278208
 30
0.0
 41
1.0
 10
633.8776653490772
 20
402.2294543384691
 30
0.0
 41
1.000445813882417
 10
634.9412315977226
 20
401.0857094908267
 30
0.0
 41
1.000032272233172
  0
LINE
  5
11D9
330
962
100
AcDbEntity
  8
AM_VIS
100
AcDbLine
 10
634.9412315894928
 20
401.0857094825889
 30
0.0
 11
635.0270805179418
 21
400.9999441195684
 31
0.0
  0
SPLINE
  5
11DA
330
962
100
AcDbEntity
  8
AM_VIS
100
AcDbSpline
210
0.0
220
0.0
230
1.0
 70
    12
 71
     2
 72
     6
 73
     3
 74
     0
 42
0.0000000001
 43
0.0000000001
 40
0.0
 40
0.0
 40
0.0
 40
4.882760957202108
 40
4.882760957202108
 40
4.882760957202108
 10
676.1326169757321
 20
403.4999441278208
 30
0.0
 41
1.0
 10
677.1639489133665
 20
402.3076173540432
 30
0.0
 41
1.000378399761205
 10
678.2296585822548
 20
400.9999441278209
 30
0.0
 41
1.0
  0
SPLINE
  5
11DB
330
962
100
AcDbEntity
  8
AM_VIS
100
AcDbSpline
210
0.0
220
0.0
230
1.0
 70
    12
 71
     2
 72
     6
 73
     3
 74
     0
 42
0.0000000001
 43
0.0000000001
 40
0.0
 40
0.0
 40
0.0
 40
4.882481321938677
 40
4.882481321938677
 40
4.882481321938677
 10
736.679245671128
 20
400.9999441278209
 30
0.0
 41
1.0
 10
737.744872633092
 20
402.307608402656
 30
0.0
 41
1.000378340995084
 10
738.7761245317667
 20
403.4999441278208
 30
0.0
 41
1.0
  0
SPLINE
  5
11DC
330
962
100
AcDbEntity
  8
AM_VIS
100
AcDbSpline
210
0.0
220
0.0
230
1.0
 70
    12
 71
     2
 72
     6
 73
     3
 74
     0
 42
0.0000000001
 43
0.0000000001
 40
0.0
 40
0.0
 40
0.0
 40
4.882481321938677
 40
4.882481321938677
 40
4.882481321938677
 10
782.133707437682
 20
403.4999441278208
 30
0.0
 41
1.0
 10
783.1649593363569
 20
402.307608402656
 30
0.0
 41
1.000378340995084
 10
784.2305862983208
 20
400.9999441278209
 30
0.0
 41
1.0
  0
SPLINE
  5
11DD
330
962
100
AcDbEntity
  8
AM_VIS
100
AcDbSpline
210
0.0
220
0.0
230
1.0
 70
     8
 71
     3
 72
    10
 73
     6
 74
     0
 42
0.0000000001
 43
0.0000000001
 40
4.098973322317783
 40
4.098973322317783
 40
4.098973322317783
 40
4.098973322317783
 40
4.530638756182723
 40
4.530638756182723
 40
4.645801198851991
 40
4.645801198851991
 40
4.645801198851991
 40
4.645801198851991
 10
780.2710088493813
 20
401.4096838766332
 30
0.0
 10
780.3650302605412
 20
401.3009430988627
 30
0.0
 10
780.4580598986979
 20
401.1928421701546
 30
0.0
 10
780.5744068910524
 20
401.0569827376385
 30
0.0
 10
780.5988259074581
 20
401.0284311925031
 30
0.0
 10
780.623158022657
 20
400.9999441278208
 30
0.0
  0
SPLINE
  5
11DE
330
962
100
AcDbEntity
  8
AM_VIS
100
AcDbSpline
210
0.0
220
0.0
230
1.0
 70
    12
 71
     2
 72
     6
 73
     3
 74
     0
 42
0.0000000001
 43
0.0000000001
 40
0.0
 40
0.0
 40
0.0
 40
4.882760957202089
 40
4.882760957202089
 40
4.882760957202089
 10
630.6816828104092
 20
400.9999441278209
 30
0.0
 41
1.0
 10
631.7473924792977
 20
402.3076173540436
 30
0.0
 41
1.000378399762674
 10
632.7787244169319
 20
403.4999441278208
 30
0.0
 41
1.0
  0
SPLINE
  5
11DF
330
962
100
AcDbEntity
  8
AM_VIS
100
AcDbSpline
210
0.0
220
0.0
230
1.0
 70
     8
 71
     3
 72
    10
 73
     6
 74
     0
 42
0.0000000001
 43
0.0000000001
 40
1.395050476058279
 40
1.395050476058279
 40
1.395050476058279
 40
1.395050476058279
 40
1.51021291872757
 40
1.51021291872757
 40
1.941696327420756
 40
1.941696327420756
 40
1.941696327420756
 40
1.941696327420756
 10
634.289692793222
 20
400.9999441278209
 30
0.0
 10
634.3140249084211
 20
401.0284311925031
 30
0.0
 10
634.3384439248266
 20
401.0569827376385
 30
0.0
 10
634.4547521882097
 20
401.1927969459852
 30
0.0
 10
634.5477420978611
 20
401.300851930769
 30
0.0
 10
634.6417230160546
 20
401.4095463123553
 30
0.0
  0
LINE
  5
11E0
330
962
100
AcDbEntity
  8
AM_VIS
100
AcDbLine
 10
658.6594571731936
 20
400.9999441278209
 30
0.0
 11
635.0270805261863
 21
400.9999441278209
 31
0.0
  0
LINE
  5
11E1
330
962
100
AcDbEntity
  8
AM_VIS
100
AcDbLine
 10
658.6594571731936
 20
400.9999441278209
 30
0.0
 11
658.6594571731936
 21
465.9999441278208
 31
0.0
  0
LINE
  5
11E2
330
962
100
AcDbEntity
  8
AM_VIS
100
AcDbLine
 10
634.9412315977227
 20
401.0857094908267
 30
0.0
 11
634.9412315977227
 21
465.9999441278208
 31
0.0
  0
LINE
  5
11E3
330
962
100
AcDbEntity
  8
AM_VIS
100
AcDbLine
 10
740.9412315977228
 20
401.0826935795932
 30
0.0
 11
740.9412315977228
 21
465.9999441278208
 31
0.0
  0
LINE
  5
11E4
330
962
100
AcDbEntity
  8
AM_VIS
100
AcDbLine
 10
736.6792456711281
 20
400.9999441278209
 30
0.0
 11
724.1235246149898
 21
400.9999441278209
 31
0.0
  0
LINE
  5
11E5
330
962
100
AcDbEntity
  8
AM_VIS
100
AcDbLine
 10
690.7859610887856
 20
400.9999441278209
 30
0.0
 11
678.2296585822548
 21
400.9999441278209
 31
0.0
  0
LINE
  5
11E6
330
962
100
AcDbEntity
  8
AM_VIS
100
AcDbLine
 10
779.8857702896933
 20
400.9999441278209
 30
0.0
 11
756.253393642686
 21
400.9999441278209
 31
0.0
  0
LINE
  5
11E7
330
962
100
AcDbEntity
  8
AM_VIS
100
AcDbLine
 10
756.2533936426862
 20
400.9999441278209
 30
0.0
 11
754.8251565835172
 21
400.9999441278209
 31
0.0
  0
LINE
  5
11E8
330
962
100
AcDbEntity
  8
AM_VIS
100
AcDbLine
 10
754.8251565835172
 20
400.9999441278208
 30
0.0
 11
753.5401600687819
 21
400.9999441278208
 31
0.0
  0
LINE
  5
11E9
330
962
100
AcDbEntity
  8
AM_VIS
100
AcDbLine
 10
753.5401600687819
 20
400.9999441278209
 30
0.0
 11
751.2326239285973
 21
400.9999441278209
 31
0.0
  0
LINE
  5
11EA
330
962
100
AcDbEntity
  8
AM_VIS
100
AcDbLine
 10
751.2326239285971
 20
400.9999441278209
 30
0.0
 11
741.0529879471861
 21
400.9999441278209
 31
0.0
  0
LINE
  5
11EB
330
962
100
AcDbEntity
  8
AM_VIS
100
AcDbLine
 10
741.0529879471861
 20
400.9999441278209
 30
0.0
 11
740.8998165567063
 21
400.9999441278209
 31
0.0
  0
LINE
  5
11EC
330
962
100
AcDbEntity
  8
AM_VIS
100
AcDbLine
 10
674.010712394652
 20
400.9999441278209
 30
0.0
 11
673.8598628686935
 21
400.9999441278209
 31
0.0
  0
LINE
  5
11ED
330
962
100
AcDbEntity
  8
AM_VIS
100
AcDbLine
 10
673.8598628686935
 20
400.9999441278209
 30
0.0
 11
663.6802268872825
 21
400.9999441278209
 31
0.0
  0
LINE
  5
11EE
330
962
100
AcDbEntity
  8
AM_VIS
100
AcDbLine
 10
663.6802268872826
 20
400.9999441278209
 30
0.0
 11
661.3726907470977
 21
400.9999441278209
 31
0.0
  0
LINE
  5
11EF
330
962
100
AcDbEntity
  8
AM_VIS
100
AcDbLine
 10
661.3726907470976
 20
400.9999441278209
 30
0.0
 11
660.0876942323623
 21
400.9999441278209
 31
0.0
  0
LINE
  5
11F0
330
962
100
AcDbEntity
  8
AM_VIS
100
AcDbLine
 10
660.0876942323625
 20
400.9999441278209
 30
0.0
 11
658.6594571731936
 21
400.9999441278209
 31
0.0
  0
LINE
  5
11F1
330
962
100
AcDbEntity
  8
AM_VIS
100
AcDbLine
 10
796.7863073544589
 20
400.9999441278209
 30
0.0
 11
784.2305862983208
 21
400.9999441278209
 31
0.0
  0
LINE
  5
11F2
330
962
100
AcDbEntity
  8
AM_VIS
100
AcDbLine
 10
630.6816828104094
 20
400.9999441278209
 30
0.0
 11
618.1253803038786
 21
400.9999441278209
 31
0.0
  0
LINE
  5
11F3
330
962
100
AcDbEntity
  8
AM_VIS
100
AcDbLine
 10
690.7859610887856
 20
400.9999441278209
 30
0.0
 11
690.7859610887856
 21
465.9999441278208
 31
0.0
  0
LINE
  5
11F4
330
962
100
AcDbEntity
  8
AM_VIS
100
AcDbLine
 10
724.1235246149899
 20
465.9999441278208
 30
0.0
 11
724.1235246149899
 21
400.9999441278209
 31
0.0
  0
LINE
  5
11F5
330
962
100
AcDbEntity
  8
AM_VIS
100
AcDbLine
 10
796.7863073544589
 20
400.9999441278209
 30
0.0
 11
796.7863073544589
 21
465.9999441278208
 31
0.0
  0
LINE
  5
11F6
330
962
100
AcDbEntity
  8
AM_VIS
100
AcDbLine
 10
618.1253803038786
 20
465.9999441278208
 30
0.0
 11
618.1253803038786
 21
400.9999441278209
 31
0.0
  0
LINE
  5
11F7
330
962
100
AcDbEntity
  8
AM_VIS
100
AcDbLine
 10
673.8598628686935
 20
400.9999441278209
 30
0.0
 11
673.8598628686935
 21
465.9999441278208
 31
0.0
  0
LINE
  5
11F8
330
962
100
AcDbEntity
  8
AM_VIS
100
AcDbLine
 10
663.6802268872825
 20
400.9999441278209
 30
0.0
 11
663.6802268872825
 21
465.9999441278208
 31
0.0
  0
LINE
  5
11F9
330
962
100
AcDbEntity
  8
AM_VIS
100
AcDbLine
 10
660.0876942323623
 20
400.9999441278208
 30
0.0
 11
660.0876942323623
 21
465.9999441278208
 31
0.0
  0
LINE
  5
11FA
330
962
100
AcDbEntity
  8
AM_VIS
100
AcDbLine
 10
661.3726907470977
 20
465.9999441278208
 30
0.0
 11
661.3726907470977
 21
400.9999441278208
 31
0.0
  0
LINE
  5
11FB
330
962
100
AcDbEntity
  8
AM_VIS
100
AcDbLine
 10
741.0529879471861
 20
465.9999441278208
 30
0.0
 11
741.0529879471861
 21
400.9999441278209
 31
0.0
  0
LINE
  5
11FC
330
962
100
AcDbEntity
  8
AM_VIS
100
AcDbLine
 10
753.5401600687819
 20
400.9999441278209
 30
0.0
 11
753.5401600687819
 21
465.9999441278208
 31
0.0
  0
LINE
  5
11FD
330
962
100
AcDbEntity
  8
AM_VIS
100
AcDbLine
 10
754.8251565835172
 20
465.9999441278208
 30
0.0
 11
754.8251565835172
 21
400.9999441278209
 31
0.0
  0
LINE
  5
11FE
330
962
100
AcDbEntity
  8
AM_VIS
100
AcDbLine
 10
751.2326239285971
 20
400.9999441278209
 30
0.0
 11
751.2326239285971
 21
465.9999441278208
 31
0.0
  0
LINE
  5
11FF
330
962
100
AcDbEntity
  8
AM_VIS
100
AcDbLine
 10
673.9686003717261
 20
465.9999441278208
 30
0.0
 11
673.9686003717261
 21
401.0840863220184
 31
0.0
  0
LINE
  5
1200
330
962
100
AcDbEntity
  8
AM_VIS
100
AcDbLine
 10
756.253393642686
 20
400.9999441278209
 30
0.0
 11
756.253393642686
 21
465.9999441278208
 31
0.0
  0
LINE
  5
1201
330
962
100
AcDbEntity
  8
AM_VIS
100
AcDbLine
 10
779.9686003717261
 20
465.9999441278208
 30
0.0
 11
779.9686003717261
 21
401.0826935795931
 31
0.0
  0
LINE
  5
1202
330
962
100
AcDbEntity
  8
AM_VIS
100
AcDbLine
 10
724.1235246149898
 20
465.9999441278208
 30
0.0
 11
690.7859610887856
 21
465.9999441278208
 31
0.0
  0
LINE
  5
1203
330
962
100
AcDbEntity
  8
AM_VIS
100
AcDbLine
 10
736.679245671128
 20
400.9999441278209
 30
0.0
 11
740.8998165567063
 21
400.9999441278209
 31
0.0
  0
LINE
  5
1204
330
962
100
AcDbEntity
  8
AM_VIS
100
AcDbLine
 10
674.010712394652
 20
400.9999441278209
 30
0.0
 11
678.2296585822548
 21
400.9999441278209
 31
0.0
  0
LINE
  5
1205
330
962
100
AcDbEntity
  8
AM_VIS
100
AcDbLine
 10
784.2305862983208
 20
400.9999441278209
 30
0.0
 11
780.6231580226571
 21
400.9999441278209
 31
0.0
  0
LINE
  5
1206
330
962
100
AcDbEntity
  8
AM_VIS
100
AcDbLine
 10
634.2896927932221
 20
400.9999441278209
 30
0.0
 11
630.6816828104094
 21
400.9999441278209
 31
0.0
  0
LINE
  5
1207
330
962
100
AcDbEntity
  8
AM_VIS
100
AcDbLine
 10
690.7859610887856
 20
400.9999441278209
 30
0.0
 11
724.1235246149898
 21
400.9999441278209
 31
0.0
  0
LINE
  5
1208
330
962
100
AcDbEntity
  8
AM_VIS
100
AcDbLine
 10
718.4564254079399
 20
467.4999441278208
 30
0.0
 11
719.9564254079398
 21
466.4999441278208
 31
0.0
  0
LINE
  5
1209
330
962
100
AcDbEntity
  8
AM_VIS
100
AcDbLine
 10
718.4564254079398
 20
470.9999441278208
 30
0.0
 11
718.4564254079398
 21
469.7678933202519
 31
0.0
  0
LINE
  5
120A
330
962
100
AcDbEntity
  8
AM_VIS
100
AcDbLine
 10
718.4564254079399
 20
467.4999441278209
 30
0.0
 11
718.4564254079399
 21
469.7678933202519
 31
0.0
  0
LINE
  5
120B
330
962
100
AcDbEntity
  8
AM_VIS
100
AcDbLine
 10
694.9564254079398
 20
466.4999441278208
 30
0.0
 11
696.4564254079398
 21
467.4999441278209
 31
0.0
  0
LINE
  5
120C
330
962
100
AcDbEntity
  8
AM_VIS
100
AcDbLine
 10
696.4564254079398
 20
469.7678933202519
 30
0.0
 11
696.4564254079398
 21
467.4999441278209
 31
0.0
  0
LINE
  5
120D
330
962
100
AcDbEntity
  8
AM_VIS
100
AcDbLine
 10
696.4564254079398
 20
470.9999441278208
 30
0.0
 11
696.4564254079398
 21
469.7678933202519
 31
0.0
  0
LINE
  5
120E
330
962
100
AcDbEntity
  8
AM_VIS
100
AcDbLine
 10
694.9564254079398
 20
465.9999441278208
 30
0.0
 11
694.9564254079398
 21
466.4999441278208
 31
0.0
  0
LINE
  5
120F
330
962
100
AcDbEntity
  8
AM_VIS
100
AcDbLine
 10
719.9564254079398
 20
465.9999441278208
 30
0.0
 11
719.9564254079398
 21
466.4999441278208
 31
0.0
  0
LINE
  5
1210
330
962
100
AcDbEntity
  8
AM_VIS
100
AcDbLine
 10
718.4564254079399
 20
469.7678933202519
 30
0.0
 11
717.4564254079399
 21
469.7678933202519
 31
0.0
  0
LINE
  5
1211
330
962
100
AcDbEntity
  8
AM_VIS
100
AcDbLine
 10
697.4564254079399
 20
469.7678933202519
 30
0.0
 11
696.4564254079398
 21
469.7678933202519
 31
0.0
  0
LINE
  5
1212
330
962
100
AcDbEntity
  8
AM_VIS
100
AcDbLine
 10
698.4564254079399
 20
375.9999441278208
 30
0.0
 11
697.4564254079399
 21
376.9999441278208
 31
0.0
  0
LINE
  5
1213
330
962
100
AcDbEntity
  8
AM_VIS
100
AcDbLine
 10
716.4564254079399
 20
375.9999441278208
 30
0.0
 11
717.4564254079399
 21
376.9999441278208
 31
0.0
  0
LINE
  5
1214
330
962
100
AcDbEntity
  8
AM_VIS
100
AcDbLine
 10
697.4564254079399
 20
376.9999441278208
 30
0.0
 11
697.4564254079399
 21
400.9999441278209
 31
0.0
  0
LINE
  5
1215
330
962
100
AcDbEntity
  8
AM_VIS
100
AcDbLine
 10
697.4564254079399
 20
465.9999441278208
 30
0.0
 11
697.4564254079399
 21
470.9999441278208
 31
0.0
  0
LINE
  5
1216
330
962
100
AcDbEntity
  8
AM_VIS
100
AcDbLine
 10
717.4564254079399
 20
376.9999441278208
 30
0.0
 11
717.4564254079399
 21
400.9999441278209
 31
0.0
  0
LINE
  5
1217
330
962
100
AcDbEntity
  8
AM_VIS
100
AcDbLine
 10
717.4564254079399
 20
465.9999441278208
 30
0.0
 11
717.4564254079399
 21
470.9999441278208
 31
0.0
  0
LINE
  5
1218
330
962
100
AcDbEntity
  8
AM_VIS
100
AcDbLine
 10
716.4564254079399
 20
375.9999441278208
 30
0.0
 11
698.4564254079399
 21
375.9999441278208
 31
0.0
  0
LINE
  5
1219
330
962
100
AcDbEntity
  8
AM_VIS
100
AcDbLine
 10
697.4564254079399
 20
376.9999441278208
 30
0.0
 11
717.4564254079399
 21
376.9999441278208
 31
0.0
  0
LINE
  5
121A
330
962
100
AcDbEntity
  8
AM_VIS
100
AcDbLine
 10
763.4083306917725
 20
375.9999441278208
 30
0.0
 11
762.4083306917725
 21
376.9999441278208
 31
0.0
  0
LINE
  5
121B
330
962
100
AcDbEntity
  8
AM_VIS
100
AcDbLine
 10
781.4083306917726
 20
375.9999441278208
 30
0.0
 11
782.4083306917725
 21
376.9999441278208
 31
0.0
  0
LINE
  5
121C
330
962
100
AcDbEntity
  8
AM_VIS
100
AcDbLine
 10
762.4083306917725
 20
376.9999441278208
 30
0.0
 11
762.4083306917725
 21
400.9999441278209
 31
0.0
  0
LINE
  5
121D
330
962
100
AcDbEntity
  8
AM_VIS
100
AcDbLine
 10
762.4083306917725
 20
465.9999441278209
 30
0.0
 11
762.4083306917725
 21
470.9999441278208
 31
0.0
  0
LINE
  5
121E
330
962
100
AcDbEntity
  8
AM_VIS
100
AcDbLine
 10
782.4083306917725
 20
376.9999441278208
 30
0.0
 11
782.4083306917725
 21
400.9999441278209
 31
0.0
  0
LINE
  5
121F
330
962
100
AcDbEntity
  8
AM_VIS
100
AcDbLine
 10
782.4083306917725
 20
465.9999441278208
 30
0.0
 11
782.4083306917725
 21
470.9999441278208
 31
0.0
  0
LINE
  5
1220
330
962
100
AcDbEntity
  8
AM_VIS
100
AcDbLine
 10
781.4083306917726
 20
375.9999441278208
 30
0.0
 11
763.4083306917725
 21
375.9999441278208
 31
0.0
  0
LINE
  5
1221
330
962
100
AcDbEntity
  8
AM_VIS
100
AcDbLine
 10
762.4083306917725
 20
376.9999441278208
 30
0.0
 11
782.4083306917725
 21
376.9999441278208
 31
0.0
  0
LINE
  5
1222
330
962
100
AcDbEntity
  8
AM_VIS
100
AcDbLine
 10
633.5045201241065
 20
375.9999441278208
 30
0.0
 11
632.5045201241065
 21
376.9999441278208
 31
0.0
  0
LINE
  5
1223
330
962
100
AcDbEntity
  8
AM_VIS
100
AcDbLine
 10
651.5045201241064
 20
375.9999441278208
 30
0.0
 11
652.5045201241064
 21
376.9999441278208
 31
0.0
  0
LINE
  5
1224
330
962
100
AcDbEntity
  8
AM_VIS
100
AcDbLine
 10
632.5045201241065
 20
376.9999441278208
 30
0.0
 11
632.5045201241065
 21
400.9999441278209
 31
0.0
  0
LINE
  5
1225
330
962
100
AcDbEntity
  8
AM_VIS
100
AcDbLine
 10
632.5045201241065
 20
465.9999441278208
 30
0.0
 11
632.5045201241065
 21
470.9999441278208
 31
0.0
  0
LINE
  5
1226
330
962
100
AcDbEntity
  8
AM_VIS
100
AcDbLine
 10
652.5045201241064
 20
376.9999441278208
 30
0.0
 11
652.5045201241064
 21
400.9999441278209
 31
0.0
  0
LINE
  5
1227
330
962
100
AcDbEntity
  8
AM_VIS
100
AcDbLine
 10
652.5045201241064
 20
465.9999441278208
 30
0.0
 11
652.5045201241064
 21
470.9999441278208
 31
0.0
  0
LINE
  5
1228
330
962
100
AcDbEntity
  8
AM_VIS
100
AcDbLine
 10
651.5045201241064
 20
375.9999441278208
 30
0.0
 11
633.5045201241065
 21
375.9999441278208
 31
0.0
  0
LINE
  5
1229
330
962
100
AcDbEntity
  8
AM_VIS
100
AcDbLine
 10
632.5045201241065
 20
376.9999441278208
 30
0.0
 11
652.5045201241064
 21
376.9999441278208
 31
0.0
  0
LINE
  5
122A
330
962
100
AcDbEntity
  8
AM_VIS
100
AcDbLine
 10
817.4564254079397
 20
488.9999441278209
 30
0.0
 11
817.4564254079397
 21
470.9999441278208
 31
0.0
  0
LINE
  5
122B
330
962
100
AcDbEntity
  8
AM_VIS
100
AcDbLine
 10
597.4564254079398
 20
488.9999441278209
 30
0.0
 11
597.4564254079398
 21
470.9999441278208
 31
0.0
  0
LINE
  5
122C
330
962
100
AcDbEntity
  8
AM_VIS
100
AcDbLine
 10
597.4564254079398
 20
488.9999441278209
 30
0.0
 11
707.45642540794
 21
488.9999441278209
 31
0.0
  0
LINE
  5
122D
330
962
100
AcDbEntity
  8
AM_VIS
100
AcDbLine
 10
707.45642540794
 20
488.9999441278209
 30
0.0
 11
817.4564254079397
 21
488.9999441278209
 31
0.0
  0
LINE
  5
122E
330
962
100
AcDbEntity
  8
AM_VIS
100
AcDbLine
 10
817.4564254079397
 20
470.9999441278208
 30
0.0
 11
707.45642540794
 21
470.9999441278208
 31
0.0
  0
LINE
  5
122F
330
962
100
AcDbEntity
  8
AM_VIS
100
AcDbLine
 10
707.45642540794
 20
470.9999441278208
 30
0.0
 11
597.4564254079398
 21
470.9999441278208
 31
0.0
  0
LINE
  5
1230
330
962
100
AcDbEntity
  8
AM_VIS
100
AcDbLine
 10
213.110834814102
 20
400.9999441278209
 30
0.0
 11
229.7812991332562
 21
400.9999441278209
 31
0.0
  0
LINE
  5
1231
330
962
100
AcDbEntity
  8
AM_VIS
100
AcDbLine
 10
51.12037208267588
 20
400.9999441278209
 30
0.0
 11
67.78967324428811
 21
400.9999441278209
 31
0.0
  0
LINE
  5
1232
330
962
100
AcDbEntity
  8
AM_VIS
100
AcDbLine
 10
184.3746411744681
 20
400.9999441278209
 30
0.0
 11
187.9982298010404
 21
400.9999441278209
 31
0.0
  0
LINE
  5
1233
330
962
100
AcDbEntity
  8
AM_VIS
100
AcDbLine
 10
92.90227825734973
 20
400.9999441278209
 30
0.0
 11
96.52796381196663
 21
400.9999441278209
 31
0.0
  0
CIRCLE
  5
1234
330
962
100
AcDbEntity
  8
AM_VIS
100
AcDbCircle
 10
140.4502540291952
 20
443.9999441278208
 30
0.0
 40
7.5
  0
CIRCLE
  5
1235
330
962
100
AcDbEntity
  8
AM_VIS
100
AcDbCircle
 10
140.4502540291952
 20
443.9999441278208
 30
0.0
 40
8.65
  0
CIRCLE
  5
1236
330
962
100
AcDbEntity
  8
AM_VIS
100
AcDbCircle
 10
140.4502540291952
 20
422.9999441278208
 30
0.0
 40
8.649999999999998
  0
CIRCLE
  5
1237
330
962
100
AcDbEntity
  8
AM_VIS
100
AcDbCircle
 10
140.4502540291952
 20
422.9999441278208
 30
0.0
 40
7.5
  0
LINE
  5
1238
330
962
100
AcDbEntity
  8
AM_VIS
100
AcDbLine
 10
67.78967324428811
 20
465.9999441278208
 30
0.0
 11
51.12037208267588
 21
465.9999441278208
 31
0.0
  0
LINE
  5
1239
330
962
100
AcDbEntity
  8
AM_VIS
100
AcDbLine
 10
229.7812991332562
 20
465.9999441278208
 30
0.0
 11
213.110834814102
 21
465.9999441278208
 31
0.0
  0
CIRCLE
  5
123A
330
962
100
AcDbEntity
  8
AM_VIS
100
AcDbCircle
 10
137.7002540291951
 20
422.9999441278208
 30
0.0
 40
1.75
  0
CIRCLE
  5
123B
330
962
100
AcDbEntity
  8
AM_VIS
100
AcDbCircle
 10
143.200254029195
 20
422.9999441278208
 30
0.0
 40
1.75
  0
CIRCLE
  5
123C
330
962
100
AcDbEntity
  8
AM_VIS
100
AcDbCircle
 10
137.7002540291951
 20
443.9999441278208
 30
0.0
 40
1.75
  0
CIRCLE
  5
123D
330
962
100
AcDbEntity
  8
AM_VIS
100
AcDbCircle
 10
143.200254029195
 20
443.9999441278208
 30
0.0
 40
1.75
  0
LINE
  5
123E
330
962
100
AcDbEntity
  8
AM_VIS
100
AcDbLine
 10
179.4791322264137
 20
400.9999441278209
 30
0.0
 11
179.4791322264137
 21
465.9999441278208
 31
0.0
  0
LINE
  5
123F
330
962
100
AcDbEntity
  8
AM_VIS
100
AcDbLine
 10
122.450254029195
 20
400.9999441278209
 30
0.0
 11
122.450254029195
 21
465.9999441278208
 31
0.0
  0
LINE
  5
1240
330
962
100
AcDbEntity
  8
AM_VIS
100
AcDbLine
 10
158.4502540291951
 20
400.9999441278209
 30
0.0
 11
158.4502540291951
 21
465.9999441278208
 31
0.0
  0
LINE
  5
1241
330
962
100
AcDbEntity
  8
AM_VIS
100
AcDbLine
 10
229.7812991332562
 20
465.9999441278208
 30
0.0
 11
229.7812991332562
 21
400.9999441278209
 31
0.0
  0
LINE
  5
1242
330
962
100
AcDbEntity
  8
AM_VIS
100
AcDbLine
 10
67.78967324428811
 20
465.9999441278208
 30
0.0
 11
67.78967324428811
 21
400.9999441278209
 31
0.0
  0
LINE
  5
1243
330
962
100
AcDbEntity
  8
AM_VIS
100
AcDbLine
 10
51.12037208267588
 20
400.9999441278209
 30
0.0
 11
51.12037208267588
 21
465.9999441278208
 31
0.0
  0
LINE
  5
1244
330
962
100
AcDbEntity
  8
AM_VIS
100
AcDbLine
 10
92.90227825734973
 20
400.9999441278209
 30
0.0
 11
67.78967324428811
 21
400.9999441278209
 31
0.0
  0
LINE
  5
1245
330
962
100
AcDbEntity
  8
AM_VIS
100
AcDbLine
 10
122.450254029195
 20
400.9999441278209
 30
0.0
 11
101.4243946784071
 21
400.9999441278209
 31
0.0
  0
LINE
  5
1246
330
962
100
AcDbEntity
  8
AM_VIS
100
AcDbLine
 10
123.350254029195
 20
400.9999441278209
 30
0.0
 11
122.450254029195
 21
400.9999441278209
 31
0.0
  0
LINE
  5
1247
330
962
100
AcDbEntity
  8
AM_VIS
100
AcDbLine
 10
158.4502540291949
 20
400.9999441278209
 30
0.0
 11
157.550254029195
 21
400.9999441278209
 31
0.0
  0
LINE
  5
1248
330
962
100
AcDbEntity
  8
AM_VIS
100
AcDbLine
 10
179.4791322264137
 20
400.9999441278209
 30
0.0
 11
158.4502540291951
 21
400.9999441278209
 31
0.0
  0
LINE
  5
1249
330
962
100
AcDbEntity
  8
AM_VIS
100
AcDbLine
 10
184.3746411744681
 20
400.9999441278209
 30
0.0
 11
179.4791322264137
 21
400.9999441278209
 31
0.0
  0
LINE
  5
124A
330
962
100
AcDbEntity
  8
AM_VIS
100
AcDbLine
 10
94.49619144813164
 20
401.9674943584302
 30
0.0
 11
94.49619144813164
 21
465.9999441278208
 31
0.0
  0
LINE
  5
124B
330
962
100
AcDbEntity
  8
AM_VIS
100
AcDbLine
 10
101.4243946784071
 20
400.9999441278209
 30
0.0
 11
101.4243946784071
 21
465.9999441278208
 31
0.0
  0
LINE
  5
124C
330
962
100
AcDbEntity
  8
AM_VIS
100
AcDbLine
 10
101.4243946784071
 20
400.9999441278209
 30
0.0
 11
96.52796381196663
 21
400.9999441278209
 31
0.0
  0
LINE
  5
124D
330
962
100
AcDbEntity
  8
AM_VIS
100
AcDbLine
 10
186.4073354566893
 20
465.9999441278208
 30
0.0
 11
186.4073354566893
 21
401.9656816479789
 31
0.0
  0
LINE
  5
124E
330
962
100
AcDbEntity
  8
AM_VIS
100
AcDbLine
 10
213.110834814102
 20
400.9999441278209
 30
0.0
 11
213.110834814102
 21
465.9999441278208
 31
0.0
  0
LINE
  5
124F
330
962
100
AcDbEntity
  8
AM_VIS
100
AcDbLine
 10
213.110834814102
 20
400.9999441278209
 30
0.0
 11
187.9982298010404
 21
400.9999441278209
 31
0.0
  0
SPLINE
  5
1250
330
962
100
AcDbEntity
  8
AM_VIS
100
AcDbSpline
210
0.0
220
0.0
230
1.0
 70
    12
 71
     2
 72
     6
 73
     3
 74
     0
 42
0.0000000001
 43
0.0000000001
 40
0.0
 40
0.0
 40
0.0
 40
1.836742243101113
 40
1.836742243101113
 40
1.836742243101113
 10
92.90227825734973
 20
400.9999441278209
 30
0.0
 41
1.0
 10
93.70424091178291
 20
401.491966074439
 30
0.0
 41
1.000142342177681
 10
94.49619144813164
 20
401.9674943584302
 30
0.0
 41
1.000177594988091
  0
SPLINE
  5
1251
330
962
100
AcDbEntity
  8
AM_VIS
100
AcDbSpline
210
0.0
220
0.0
230
1.0
 70
    12
 71
     2
 72
     6
 73
     3
 74
     0
 42
0.0000000001
 43
0.0000000001
 40
1.359386519955837
 40
1.359386519955837
 40
1.359386519955837
 40
3.54856347971323
 40
3.54856347971323
 40
3.54856347971323
 10
94.49619144813164
 20
401.9674943584302
 30
0.0
 41
1.000064463602347
 10
94.88606182465582
 20
402.7415839929679
 30
0.0
 41
1.000084138389524
 10
95.26812561964822
 20
403.4999441278208
 30
0.0
 41
1.0
  0
SPLINE
  5
1252
330
962
100
AcDbEntity
  8
AM_VIS
100
AcDbSpline
210
0.0
220
0.0
230
1.0
 70
    12
 71
     2
 72
     6
 73
     3
 74
     0
 42
0.0000000001
 43
0.0000000001
 40
3.0495195464844
 40
3.0495195464844
 40
3.0495195464844
 40
4.882760957202082
 40
4.882760957202082
 40
4.882760957202082
 10
186.4073354566893
 20
401.9656816479789
 30
0.0
 41
1.000177460214888
 10
187.197795471025
 20
401.491028413376
 30
0.0
 41
1.000142070873051
 10
187.9982298010404
 20
400.9999441278209
 30
0.0
 41
1.0
  0
SPLINE
  5
1253
330
962
100
AcDbEntity
  8
AM_VIS
100
AcDbSpline
210
0.0
220
0.0
230
1.0
 70
    12
 71
     2
 72
     6
 73
     3
 74
     0
 42
0.0000000001
 43
0.0000000001
 40
0.0
 40
0.0
 40
0.0
 40
2.191744861484758
 40
2.191744861484758
 40
2.191744861484758
 10
185.6344850269593
 20
403.4999441278208
 30
0.0
 41
1.0
 10
186.0169977425772
 20
402.7406962240712
 30
0.0
 41
1.000084237461104
 10
186.4073354566893
 20
401.9656816479789
 30
0.0
 41
1.00006441781113
  0
SPLINE
  5
1254
330
962
100
AcDbEntity
  8
AM_VIS
100
AcDbSpline
210
0.0
220
0.0
230
1.0
 70
    12
 71
     2
 72
     6
 73
     3
 74
     0
 42
0.0000000001
 43
0.0000000001
 40
0.0
 40
0.0
 40
0.0
 40
3.549482523862458
 40
3.549482523862458
 40
3.549482523862458
 10
184.3746411744681
 20
400.9999441278209
 30
0.0
 41
1.0
 10
184.9938864584526
 20
402.2284226844146
 30
0.0
 41
1.000145940175858
 10
185.6344850269593
 20
403.4999441278208
 30
0.0
 41
1.0
  0
SPLINE
  5
1255
330
962
100
AcDbEntity
  8
AM_VIS
100
AcDbSpline
210
0.0
220
0.0
230
1.0
 70
    12
 71
     2
 72
     6
 73
     3
 74
     0
 42
0.0000000001
 43
0.0000000001
 40
0.0
 40
0.0
 40
0.0
 40
3.549474487835764
 40
3.549474487835764
 40
3.549474487835764
 10
95.26812561964822
 20
403.4999441278208
 30
0.0
 41
1.0
 10
95.90872131120887
 20
402.2284228755971
 30
0.0
 41
1.000145938799553
 10
96.52796381196663
 20
400.9999441278209
 30
0.0
 41
1.0
  0
LINE
  5
1256
330
962
100
AcDbEntity
  8
AM_VIS
100
AcDbLine
 10
157.550254029195
 20
400.9999441278209
 30
0.0
 11
123.350254029195
 21
400.9999441278209
 31
0.0
  0
LINE
  5
1257
330
962
100
AcDbEntity
  8
AM_VIS
100
AcDbLine
 10
123.350254029195
 20
400.9999441278209
 30
0.0
 11
123.350254029195
 21
465.9999441278208
 31
0.0
  0
LINE
  5
1258
330
962
100
AcDbEntity
  8
AM_VIS
100
AcDbLine
 10
157.5502540291951
 20
465.9999441278208
 30
0.0
 11
157.5502540291951
 21
400.9999441278209
 31
0.0
  0
LINE
  5
1259
330
962
100
AcDbEntity
  8
AM_VIS
100
AcDbLine
 10
213.110834814102
 20
465.9999441278208
 30
0.0
 11
186.4073354566893
 21
465.9999441278208
 31
0.0
  0
LINE
  5
125A
330
962
100
AcDbEntity
  8
AM_VIS
100
AcDbLine
 10
179.4791322264137
 20
465.9999441278208
 30
0.0
 11
186.4073354566893
 21
465.9999441278208
 31
0.0
  0
LINE
  5
125B
330
962
100
AcDbEntity
  8
AM_VIS
100
AcDbLine
 10
158.4502540291949
 20
465.9999441278208
 30
0.0
 11
179.4791322264137
 21
465.9999441278208
 31
0.0
  0
LINE
  5
125C
330
962
100
AcDbEntity
  8
AM_VIS
100
AcDbLine
 10
157.5502540291951
 20
465.9999441278208
 30
0.0
 11
158.4502540291951
 21
465.9999441278208
 31
0.0
  0
LINE
  5
125D
330
962
100
AcDbEntity
  8
AM_VIS
100
AcDbLine
 10
123.350254029195
 20
465.9999441278208
 30
0.0
 11
157.5502540291951
 21
465.9999441278208
 31
0.0
  0
LINE
  5
125E
330
962
100
AcDbEntity
  8
AM_VIS
100
AcDbLine
 10
122.450254029195
 20
465.9999441278208
 30
0.0
 11
123.350254029195
 21
465.9999441278208
 31
0.0
  0
LINE
  5
125F
330
962
100
AcDbEntity
  8
AM_VIS
100
AcDbLine
 10
101.4243946784071
 20
465.9999441278208
 30
0.0
 11
122.4502540291949
 21
465.9999441278208
 31
0.0
  0
LINE
  5
1260
330
962
100
AcDbEntity
  8
AM_VIS
100
AcDbLine
 10
94.49619144813153
 20
465.9999441278208
 30
0.0
 11
101.4243946784071
 21
465.9999441278208
 31
0.0
  0
LINE
  5
1261
330
962
100
AcDbEntity
  8
AM_VIS
100
AcDbLine
 10
94.49619144813164
 20
465.9999441278208
 30
0.0
 11
67.78967324428811
 21
465.9999441278208
 31
0.0
  0
LINE
  5
1262
330
962
100
AcDbEntity
  8
AM_VIS
100
AcDbLine
 10
136.0232030460702
 20
444.4999441278207
 30
0.0
 11
139.3773050123199
 21
444.4999441278207
 31
0.0
  0
LINE
  5
1263
330
962
100
AcDbEntity
  8
AM_VIS
100
AcDbLine
 10
141.5232030460702
 20
444.4999441278207
 30
0.0
 11
144.8773050123199
 21
444.4999441278207
 31
0.0
  0
LINE
  5
1264
330
962
100
AcDbEntity
  8
AM_VIS
100
AcDbLine
 10
144.8773050123198
 20
423.4999441278208
 30
0.0
 11
141.5232030460703
 21
423.4999441278208
 31
0.0
  0
LINE
  5
1265
330
962
100
AcDbEntity
  8
AM_VIS
100
AcDbLine
 10
139.3773050123198
 20
423.4999441278208
 30
0.0
 11
136.0232030460703
 21
423.4999441278208
 31
0.0
  0
LINE
  5
1266
330
962
100
AcDbEntity
  8
AM_VIS
100
AcDbLine
 10
144.8773050123199
 20
422.4999441278209
 30
0.0
 11
141.5232030460702
 21
422.4999441278209
 31
0.0
  0
LINE
  5
1267
330
962
100
AcDbEntity
  8
AM_VIS
100
AcDbLine
 10
139.3773050123199
 20
422.4999441278209
 30
0.0
 11
136.0232030460702
 21
422.4999441278209
 31
0.0
  0
LINE
  5
1268
330
962
100
AcDbEntity
  8
AM_VIS
100
AcDbLine
 10
151.4502540291949
 20
469.7678933202519
 30
0.0
 11
146.3874250727138
 21
469.7678933202519
 31
0.0
  0
LINE
  5
1269
330
962
100
AcDbEntity
  8
AM_VIS
100
AcDbLine
 10
134.513082985676
 20
469.7678933202519
 30
0.0
 11
129.4502540291951
 21
469.7678933202519
 31
0.0
  0
LINE
  5
126A
330
962
100
AcDbEntity
  8
AM_VIS
100
AcDbLine
 10
152.9502540291949
 20
465.9999441278208
 30
0.0
 11
152.9502540291949
 21
466.4999441278208
 31
0.0
  0
LINE
  5
126B
330
962
100
AcDbEntity
  8
AM_VIS
100
AcDbLine
 10
127.9502540291949
 20
465.9999441278208
 30
0.0
 11
127.9502540291949
 21
466.4999441278208
 31
0.0
  0
SPLINE
  5
126C
330
962
100
AcDbEntity
  8
AM_VIS
100
AcDbSpline
210
0.0
220
0.0
230
1.0
 70
    12
 71
     2
 72
     6
 73
     3
 74
     0
 42
0.0000000001
 43
0.0000000001
 40
1.096022561558804
 40
1.096022561558804
 40
1.096022561558804
 40
3.114708787573476
 40
3.114708787573476
 40
3.114708787573476
 10
144.6896951986196
 20
470.9999441278207
 30
0.0
 41
1.002664993955128
 10
145.513700042074
 20
470.486688163347
 30
0.0
 41
1.00378672865961
 10
146.3874250727138
 20
469.7678933202519
 30
0.0
 41
1.0
  0
LINE
  5
126D
330
962
100
AcDbEntity
  8
AM_VIS
100
AcDbLine
 10
146.3874250727138
 20
469.7678933202519
 30
0.0
 11
146.3874250727138
 21
467.4999441278209
 31
0.0
  0
LINE
  5
126E
330
962
100
AcDbEntity
  8
AM_VIS
100
AcDbLine
 10
134.5130829856759
 20
467.4999441278209
 30
0.0
 11
134.5130829856759
 21
469.7678933202519
 31
0.0
  0
LINE
  5
126F
330
962
100
AcDbEntity
  8
AM_VIS
100
AcDbLine
 10
146.3874250727138
 20
467.4999441278209
 30
0.0
 11
134.513082985676
 21
467.4999441278209
 31
0.0
  0
ELLIPSE
  5
1270
330
962
100
AcDbEntity
  8
AM_VIS
100
AcDbEllipse
 10
140.4502540291949
 20
474.8332774611542
 30
0.0
 11
12.5
 21
0.0
 31
0.0
210
0.0
220
0.0
230
1.0
 40
0.6666666666666666
 41
4.217454854043794
 42
5.207323106725585
  0
LINE
  5
1271
330
962
100
AcDbEntity
  8
AM_VIS
100
AcDbLine
 10
151.4502540291949
 20
467.4999441278209
 30
0.0
 11
151.4502540291949
 21
469.7678933202519
 31
0.0
  0
LINE
  5
1272
330
962
100
AcDbEntity
  8
AM_VIS
100
AcDbLine
 10
151.4502540291949
 20
470.9999441278208
 30
0.0
 11
151.4502540291949
 21
469.7678933202519
 31
0.0
  0
LINE
  5
1273
330
962
100
AcDbEntity
  8
AM_VIS
100
AcDbLine
 10
151.4502540291949
 20
467.4999441278208
 30
0.0
 11
152.9502540291949
 21
466.4999441278208
 31
0.0
  0
SPLINE
  5
1274
330
962
100
AcDbEntity
  8
AM_VIS
100
AcDbSpline
210
0.0
220
0.0
230
1.0
 70
    12
 71
     2
 72
     6
 73
     3
 74
     0
 42
0.0000000001
 43
0.0000000001
 40
0.0
 40
0.0
 40
0.0
 40
2.018686226014675
 40
2.018686226014675
 40
2.018686226014675
 10
134.513082985676
 20
469.7678933202519
 30
0.0
 41
1.0
 10
135.3868080163159
 20
470.486688163347
 30
0.0
 41
1.00378672865961
 10
136.21081285977
 20
470.9999441278207
 30
0.0
 41
1.002664993955128
  0
LINE
  5
1275
330
962
100
AcDbEntity
  8
AM_VIS
100
AcDbLine
 10
129.4502540291949
 20
470.9999441278208
 30
0.0
 11
129.4502540291949
 21
469.7678933202519
 31
0.0
  0
LINE
  5
1276
330
962
100
AcDbEntity
  8
AM_VIS
100
AcDbLine
 10
129.4502540291951
 20
469.7678933202519
 30
0.0
 11
129.4502540291951
 21
467.4999441278209
 31
0.0
  0
LINE
  5
1277
330
962
100
AcDbEntity
  8
AM_VIS
100
AcDbLine
 10
127.9502540291949
 20
466.4999441278208
 30
0.0
 11
129.4502540291951
 21
467.4999441278209
 31
0.0
  0
LINE
  5
1278
330
962
100
AcDbEntity
  8
AM_VIS
100
AcDbLine
 10
130.4502540291948
 20
376.9999441278208
 30
0.0
 11
150.4502540291948
 21
376.9999441278208
 31
0.0
  0
LINE
  5
1279
330
962
100
AcDbEntity
  8
AM_VIS
100
AcDbLine
 10
149.4502540291948
 20
375.9999441278208
 30
0.0
 11
131.4502540291948
 21
375.9999441278208
 31
0.0
  0
LINE
  5
127A
330
962
100
AcDbEntity
  8
AM_VIS
100
AcDbLine
 10
150.4502540291948
 20
376.9999441278208
 30
0.0
 11
150.4502540291948
 21
400.9999441278209
 31
0.0
  0
LINE
  5
127B
330
962
100
AcDbEntity
  8
AM_VIS
100
AcDbLine
 10
130.4502540291948
 20
376.9999441278208
 30
0.0
 11
130.4502540291948
 21
400.9999441278209
 31
0.0
  0
LINE
  5
127C
330
962
100
AcDbEntity
  8
AM_VIS
100
AcDbLine
 10
149.4502540291948
 20
375.9999441278208
 30
0.0
 11
150.4502540291948
 21
376.9999441278208
 31
0.0
  0
LINE
  5
127D
330
962
100
AcDbEntity
  8
AM_VIS
100
AcDbLine
 10
131.4502540291948
 20
375.9999441278208
 30
0.0
 11
130.4502540291948
 21
376.9999441278208
 31
0.0
  0
LINE
  5
127E
330
962
100
AcDbEntity
  8
AM_VIS
100
AcDbLine
 10
65.49834874536225
 20
376.9999441278208
 30
0.0
 11
85.49834874536225
 21
376.9999441278208
 31
0.0
  0
LINE
  5
127F
330
962
100
AcDbEntity
  8
AM_VIS
100
AcDbLine
 10
84.49834874536225
 20
375.9999441278208
 30
0.0
 11
66.49834874536225
 21
375.9999441278208
 31
0.0
  0
LINE
  5
1280
330
962
100
AcDbEntity
  8
AM_VIS
100
AcDbLine
 10
85.49834874536225
 20
465.9999441278208
 30
0.0
 11
85.49834874536225
 21
470.9999441278208
 31
0.0
  0
LINE
  5
1281
330
962
100
AcDbEntity
  8
AM_VIS
100
AcDbLine
 10
85.49834874536225
 20
376.9999441278208
 30
0.0
 11
85.49834874536225
 21
400.9999441278209
 31
0.0
  0
LINE
  5
1282
330
962
100
AcDbEntity
  8
AM_VIS
100
AcDbLine
 10
65.49834874536225
 20
465.9999441278208
 30
0.0
 11
65.49834874536225
 21
470.9999441278208
 31
0.0
  0
LINE
  5
1283
330
962
100
AcDbEntity
  8
AM_VIS
100
AcDbLine
 10
65.49834874536225
 20
376.9999441278208
 30
0.0
 11
65.49834874536225
 21
400.9999441278209
 31
0.0
  0
LINE
  5
1284
330
962
100
AcDbEntity
  8
AM_VIS
100
AcDbLine
 10
84.49834874536225
 20
375.9999441278208
 30
0.0
 11
85.49834874536225
 21
376.9999441278208
 31
0.0
  0
LINE
  5
1285
330
962
100
AcDbEntity
  8
AM_VIS
100
AcDbLine
 10
66.49834874536225
 20
375.9999441278208
 30
0.0
 11
65.49834874536225
 21
376.9999441278208
 31
0.0
  0
LINE
  5
1286
330
962
100
AcDbEntity
  8
AM_VIS
100
AcDbLine
 10
195.4021593130283
 20
376.9999441278208
 30
0.0
 11
215.4021593130283
 21
376.9999441278208
 31
0.0
  0
LINE
  5
1287
330
962
100
AcDbEntity
  8
AM_VIS
100
AcDbLine
 10
214.4021593130283
 20
375.9999441278208
 30
0.0
 11
196.4021593130284
 21
375.9999441278208
 31
0.0
  0
LINE
  5
1288
330
962
100
AcDbEntity
  8
AM_VIS
100
AcDbLine
 10
215.4021593130283
 20
465.9999441278208
 30
0.0
 11
215.4021593130283
 21
470.9999441278208
 31
0.0
  0
LINE
  5
1289
330
962
100
AcDbEntity
  8
AM_VIS
100
AcDbLine
 10
215.4021593130283
 20
376.9999441278208
 30
0.0
 11
215.4021593130283
 21
400.9999441278209
 31
0.0
  0
LINE
  5
128A
330
962
100
AcDbEntity
  8
AM_VIS
100
AcDbLine
 10
195.4021593130283
 20
465.9999441278208
 30
0.0
 11
195.4021593130283
 21
470.9999441278208
 31
0.0
  0
LINE
  5
128B
330
962
100
AcDbEntity
  8
AM_VIS
100
AcDbLine
 10
195.4021593130283
 20
376.9999441278208
 30
0.0
 11
195.4021593130283
 21
400.9999441278209
 31
0.0
  0
LINE
  5
128C
330
962
100
AcDbEntity
  8
AM_VIS
100
AcDbLine
 10
214.4021593130283
 20
375.9999441278208
 30
0.0
 11
215.4021593130283
 21
376.9999441278208
 31
0.0
  0
LINE
  5
128D
330
962
100
AcDbEntity
  8
AM_VIS
100
AcDbLine
 10
196.4021593130284
 20
375.9999441278208
 30
0.0
 11
195.4021593130283
 21
376.9999441278208
 31
0.0
  0
LINE
  5
128E
330
962
100
AcDbEntity
  8
AM_VIS
100
AcDbLine
 10
250.4502540291949
 20
470.9999441278208
 30
0.0
 11
30.45025402919498
 21
470.9999441278208
 31
0.0
  0
LINE
  5
128F
330
962
100
AcDbEntity
  8
AM_VIS
100
AcDbLine
 10
30.45025402919498
 20
488.9999441278209
 30
0.0
 11
250.4502540291949
 21
488.9999441278209
 31
0.0
  0
LINE
  5
1290
330
962
100
AcDbEntity
  8
AM_VIS
100
AcDbLine
 10
30.45025402919498
 20
488.9999441278209
 30
0.0
 11
30.45025402919498
 21
470.9999441278208
 31
0.0
  0
LINE
  5
1291
330
962
100
AcDbEntity
  8
AM_VIS
100
AcDbLine
 10
250.4502540291949
 20
488.9999441278209
 30
0.0
 11
250.4502540291949
 21
470.9999441278208
 31
0.0
  0
ARC
  5
1292
330
962
100
AcDbEntity
  8
AM_VIS
100
AcDbCircle
 10
418.2401128445689
 20
195.670910610359
 30
0.0
 40
95.0
100
AcDbArc
 50
109.8934907769739
 51
130.1065092230263
  0
CIRCLE
  5
1293
330
962
100
AcDbEntity
  8
AM_VIS
100
AcDbCircle
 10
418.2401128445689
 20
195.670910610359
 30
0.0
 40
41.0
  0
ARC
  5
1294
330
962
100
AcDbEntity
  8
AM_VIS
100
AcDbCircle
 10
380.7401128445697
 20
260.6228158941923
 30
0.0
 40
14.5
100
AcDbArc
 50
34.50928733889468
 51
205.4907126611042
  0
ARC
  5
1295
330
962
100
AcDbEntity
  8
AM_VIS
100
AcDbCircle
 10
418.2401128445689
 20
195.670910610359
 30
0.0
 40
95.0
100
AcDbArc
 50
229.8934907769737
 51
250.104447696915
  0
ARC
  5
1296
330
962
100
AcDbEntity
  8
AM_VIS
100
AcDbCircle
 10
380.7401128445697
 20
260.6228158941923
 30
0.0
 40
14.5
100
AcDbArc
 50
225.4386791219084
 51
14.56132087809075
  0
CIRCLE
  5
1297
330
962
100
AcDbEntity
  8
AM_VIS
100
AcDbCircle
 10
418.2401128445689
 20
195.670910610359
 30
0.0
 40
41.5
  0
ARC
  5
1298
330
962
100
AcDbEntity
  8
AM_VIS
100
AcDbCircle
 10
418.2401128445689
 20
195.670910610359
 30
0.0
 40
95.0
100
AcDbArc
 50
349.8955523030835
 51
10.10650922302493
  0
ARC
  5
1299
330
962
100
AcDbEntity
  8
AM_VIS
100
AcDbCircle
 10
493.240112844569
 20
195.6709106103589
 30
0.0
 40
14.5
100
AcDbArc
 50
274.5092873388946
 51
85.49071266110535
  0
ARC
  5
129A
330
962
100
AcDbEntity
  8
AM_VIS
100
AcDbCircle
 10
493.240112844569
 20
195.6709106103589
 30
0.0
 40
14.5
100
AcDbArc
 50
105.4386791219085
 51
254.5613208780914
  0
ARC
  5
129B
330
962
100
AcDbEntity
  8
AM_VIS
100
AcDbCircle
 10
380.7401128445685
 20
130.7190053265263
 30
0.0
 40
14.5
100
AcDbArc
 50
154.5092873388951
 51
325.4907126611044
  0
ARC
  5
129C
330
962
100
AcDbEntity
  8
AM_VIS
100
AcDbCircle
 10
380.7401128445685
 20
130.7190053265263
 30
0.0
 40
14.5
100
AcDbArc
 50
345.4386791219092
 51
134.5613208780915
  0
ARC
  5
129D
330
962
100
AcDbEntity
  8
AM_VIS
100
AcDbCircle
 10
418.2401128445689
 20
195.670910610359
 30
0.0
 40
77.50000000000001
100
AcDbArc
 50
97.84462395435745
 51
109.2503732803048
  0
ARC
  5
129E
330
962
100
AcDbEntity
  8
AM_VIS
100
AcDbCircle
 10
418.2401128445689
 20
195.670910610359
 30
0.0
 40
77.50000000000001
100
AcDbArc
 50
250.7496267196941
 51
262.1522257821134
  0
ARC
  5
129F
330
962
100
AcDbEntity
  8
AM_VIS
100
AcDbCircle
 10
418.2401128445689
 20
195.670910610359
 30
0.0
 40
77.50000000000001
100
AcDbArc
 50
337.847774217887
 51
349.2503732803044
  0
ARC
  5
12A0
330
962
100
AcDbEntity
  8
AM_VIS
100
AcDbCircle
 10
418.2401128445689
 20
195.670910610359
 30
0.0
 40
77.50000000000001
100
AcDbArc
 50
217.8446239543577
 51
229.2503732803062
  0
ARC
  5
12A1
330
962
100
AcDbEntity
  8
AM_VIS
100
AcDbCircle
 10
418.2401128445689
 20
195.670910610359
 30
0.0
 40
77.50000000000001
100
AcDbArc
 50
10.74962671969557
 51
22.1553760456427
  0
ARC
  5
12A2
330
962
100
AcDbEntity
  8
AM_VIS
100
AcDbCircle
 10
418.2401128445689
 20
195.670910610359
 30
0.0
 40
77.50000000000001
100
AcDbArc
 50
130.7496267196937
 51
142.1553760456423
  0
ARC
  5
12A3
330
962
100
AcDbEntity
  8
AM_VIS
100
AcDbCircle
 10
418.2401128445689
 20
195.670910610359
 30
0.0
 40
72.5
100
AcDbArc
 50
92.52973900666438
 51
108.8847476950906
  0
ARC
  5
12A4
330
962
100
AcDbEntity
  8
AM_VIS
100
AcDbCircle
 10
418.2401128445689
 20
195.670910610359
 30
0.0
 40
75.0
100
AcDbArc
 50
95.31364004826793
 51
108.9054913228944
  0
ARC
  5
12A5
330
962
100
AcDbEntity
  8
AM_VIS
100
AcDbCircle
 10
418.2401128445689
 20
195.670910610359
 30
0.0
 40
75.0
100
AcDbArc
 50
11.09450867710502
 51
24.68635995173192
  0
ARC
  5
12A6
330
962
100
AcDbEntity
  8
AM_VIS
100
AcDbCircle
 10
418.2401128445689
 20
195.670910610359
 30
0.0
 40
72.5
100
AcDbArc
 50
11.11525230490823
 51
27.47232913070244
  0
ARC
  5
12A7
330
962
100
AcDbEntity
  8
AM_VIS
100
AcDbCircle
 10
418.2401128445689
 20
195.670910610359
 30
0.0
 40
75.0
100
AcDbArc
 50
131.0945086771035
 51
142.9539713938551
  0
ARC
  5
12A8
330
962
100
AcDbEntity
  8
AM_VIS
100
AcDbCircle
 10
418.2401128445689
 20
195.670910610359
 30
0.0
 40
72.5
100
AcDbArc
 50
131.1152523049075
 51
142.7097075302781
  0
ARC
  5
12A9
330
962
100
AcDbEntity
  8
AM_VIS
100
AcDbCircle
 10
418.2401128445689
 20
195.670910610359
 30
0.0
 40
75.0
100
AcDbArc
 50
251.094508677104
 51
264.6829049544943
  0
ARC
  5
12AA
330
962
100
AcDbEntity
  8
AM_VIS
100
AcDbCircle
 10
418.2401128445689
 20
195.670910610359
 30
0.0
 40
72.5
100
AcDbArc
 50
251.1152523049078
 51
267.470260993334
  0
ARC
  5
12AB
330
962
100
AcDbEntity
  8
AM_VIS
100
AcDbCircle
 10
418.2401128445689
 20
195.670910610359
 30
0.0
 40
75.0
100
AcDbArc
 50
335.317095045505
 51
348.9054913228947
  0
ARC
  5
12AC
330
962
100
AcDbEntity
  8
AM_VIS
100
AcDbCircle
 10
418.2401128445689
 20
195.670910610359
 30
0.0
 40
72.5
100
AcDbArc
 50
332.5297390066651
 51
348.8847476950917
  0
ARC
  5
12AD
330
962
100
AcDbEntity
  8
AM_VIS
100
AcDbCircle
 10
418.2401128445689
 20
195.670910610359
 30
0.0
 40
75.0
100
AcDbArc
 50
217.0440161596161
 51
228.9054913228952
  0
ARC
  5
12AE
330
962
100
AcDbEntity
  8
AM_VIS
100
AcDbCircle
 10
418.2401128445689
 20
195.670910610359
 30
0.0
 40
72.5
100
AcDbArc
 50
217.288209512302
 51
228.8847476950925
  0
CIRCLE
  5
12AF
330
962
100
AcDbEntity
  8
AM_VIS
100
AcDbCircle
 10
406.8329091118005
 20
247.4287670478035
 30
0.0
 40
4.25
  0
CIRCLE
  5
12B0
330
962
100
AcDbEntity
  8
AM_VIS
100
AcDbCircle
 10
379.1200961906984
 20
231.4287670478035
 30
0.0
 40
4.25
  0
CIRCLE
  5
12B1
330
962
100
AcDbEntity
  8
AM_VIS
100
AcDbCircle
 10
379.1200961906984
 20
159.9130541729144
 30
0.0
 40
4.25
  0
CIRCLE
  5
12B2
330
962
100
AcDbEntity
  8
AM_VIS
100
AcDbCircle
 10
468.7673332312082
 20
179.6709106103593
 30
0.0
 40
4.25
  0
CIRCLE
  5
12B3
330
962
100
AcDbEntity
  8
AM_VIS
100
AcDbCircle
 10
406.8329091118005
 20
143.9130541729145
 30
0.0
 40
4.25
  0
CIRCLE
  5
12B4
330
962
100
AcDbEntity
  8
AM_VIS
100
AcDbCircle
 10
468.7673332312079
 20
211.6709106103594
 30
0.0
 40
4.25
  0
LINE
  5
12B5
330
962
100
AcDbEntity
  8
AM_VIS
100
AcDbLine
 10
407.662357927624
 20
272.4456532078894
 30
0.0
 11
385.9142040311082
 21
285.0019557144203
 31
0.0
  0
LINE
  5
12B6
330
962
100
AcDbEntity
  8
AM_VIS
100
AcDbLine
 10
385.9109898836694
 20
106.3410286638399
 30
0.0
 11
407.6581366785632
 21
118.8967497199781
 31
0.0
  0
LINE
  5
12B7
330
962
100
AcDbEntity
  8
AM_VIS
100
AcDbLine
 10
357.0401128445688
 20
148.1229348385137
 30
0.0
 11
357.0401128445688
 21
123.0103298254521
 31
0.0
  0
LINE
  5
12B8
330
962
100
AcDbEntity
  8
AM_VIS
100
AcDbLine
 10
423.1400477123377
 20
243.0396417859363
 30
0.0
 11
415.040112844569
 21
244.4678788451053
 31
0.0
  0
LINE
  5
12B9
330
962
100
AcDbEntity
  8
AM_VIS
100
AcDbLine
 10
422.5670087260369
 20
239.7897762009961
 30
0.0
 11
423.1400477123377
 21
243.0396417859364
 31
0.0
  0
LINE
  5
12BA
330
962
100
AcDbEntity
  8
AM_VIS
100
AcDbLine
 10
431.6272400537492
 20
238.1922129664604
 30
0.0
 11
422.5670087260368
 21
239.7897762009961
 31
0.0
  0
LINE
  5
12BB
330
962
100
AcDbEntity
  8
AM_VIS
100
AcDbLine
 10
431.8529826847163
 20
239.4724630453763
 30
0.0
 11
431.6272400537492
 21
238.1922129664604
 31
0.0
  0
LINE
  5
12BC
330
962
100
AcDbEntity
  8
AM_VIS
100
AcDbLine
 10
430.0803287292942
 20
239.7850297651768
 30
0.0
 11
431.8529826847163
 21
239.4724630453763
 31
0.0
  0
LINE
  5
12BD
330
962
100
AcDbEntity
  8
AM_VIS
100
AcDbLine
 10
430.4276250846281
 20
241.7546452712012
 30
0.0
 11
430.0803287292942
 21
239.7850297651768
 31
0.0
  0
LINE
  5
12BE
330
962
100
AcDbEntity
  8
AM_VIS
100
AcDbLine
 10
443.5143128445689
 20
239.4471091310162
 30
0.0
 11
430.4276250846281
 21
241.7546452712011
 31
0.0
  0
LINE
  5
12BF
330
962
100
AcDbEntity
  8
AM_VIS
100
AcDbLine
 10
452.0560416420899
 20
229.2674731496053
 30
0.0
 11
443.5143128445689
 21
239.4471091310163
 31
0.0
  0
LINE
  5
12C0
330
962
100
AcDbEntity
  8
AM_VIS
100
AcDbLine
 10
450.5239527558519
 20
227.9818979302322
 30
0.0
 11
452.0560416420898
 21
229.2674731496053
 31
0.0
  0
LINE
  5
12C1
330
962
100
AcDbEntity
  8
AM_VIS
100
AcDbLine
 10
449.3669350584162
 20
229.3607779278463
 30
0.0
 11
450.5239527558519
 21
227.9818979302321
 31
0.0
  0
LINE
  5
12C2
330
962
100
AcDbEntity
  8
AM_VIS
100
AcDbLine
 10
448.3710772823614
 20
228.5251540352538
 30
0.0
 11
449.3669350584161
 21
229.3607779278464
 31
0.0
  0
LINE
  5
12C3
330
962
100
AcDbEntity
  8
AM_VIS
100
AcDbLine
 10
454.2847232914776
 20
221.4775451585592
 30
0.0
 11
448.3710772823614
 21
228.5251540352539
 31
0.0
  0
LINE
  5
12C4
330
962
100
AcDbEntity
  8
AM_VIS
100
AcDbLine
 10
456.8126699537702
 20
223.5987442705249
 30
0.0
 11
454.2847232914776
 21
221.4775451585592
 31
0.0
  0
LINE
  5
12C5
330
962
100
AcDbEntity
  8
AM_VIS
100
AcDbLine
 10
462.0978205366147
 20
217.3001470760187
 30
0.0
 11
456.8126699537702
 21
223.5987442705249
 31
0.0
  0
LINE
  5
12C6
330
962
100
AcDbEntity
  8
AM_VIS
100
AcDbLine
 10
482.5645582835526
 20
229.1166236236467
 30
0.0
 11
462.0978205366146
 21
217.3001470760186
 31
0.0
  0
LINE
  5
12C7
330
962
100
AcDbEntity
  8
AM_VIS
100
AcDbLine
 10
456.8126699537703
 20
167.7430769501932
 30
0.0
 11
462.0995269635216
 21
174.0437077850961
 31
0.0
  0
LINE
  5
12C8
330
962
100
AcDbEntity
  8
AM_VIS
100
AcDbLine
 10
454.2847232914778
 20
169.8642760621588
 30
0.0
 11
456.8126699537704
 21
167.7430769501932
 31
0.0
  0
LINE
  5
12C9
330
962
100
AcDbEntity
  8
AM_VIS
100
AcDbLine
 10
448.3710772823616
 20
162.8166671854641
 30
0.0
 11
454.2847232914778
 21
169.8642760621588
 31
0.0
  0
LINE
  5
12CA
330
962
100
AcDbEntity
  8
AM_VIS
100
AcDbLine
 10
449.3669350584163
 20
161.9810432928716
 30
0.0
 11
448.3710772823616
 21
162.8166671854641
 31
0.0
  0
LINE
  5
12CB
330
962
100
AcDbEntity
  8
AM_VIS
100
AcDbLine
 10
450.523952755852
 20
163.3599232904859
 30
0.0
 11
449.3669350584163
 21
161.9810432928716
 31
0.0
  0
LINE
  5
12CC
330
962
100
AcDbEntity
  8
AM_VIS
100
AcDbLine
 10
452.05604164209
 20
162.0743480711127
 30
0.0
 11
450.523952755852
 21
163.3599232904858
 31
0.0
  0
LINE
  5
12CD
330
962
100
AcDbEntity
  8
AM_VIS
100
AcDbLine
 10
443.5143128445688
 20
151.8947120897017
 30
0.0
 11
452.0560416420899
 21
162.0743480711127
 31
0.0
  0
LINE
  5
12CE
330
962
100
AcDbEntity
  8
AM_VIS
100
AcDbLine
 10
430.4276250846282
 20
149.5871759495169
 30
0.0
 11
443.5143128445688
 21
151.8947120897016
 31
0.0
  0
LINE
  5
12CF
330
962
100
AcDbEntity
  8
AM_VIS
100
AcDbLine
 10
430.0803287292943
 20
151.5567914555413
 30
0.0
 11
430.4276250846282
 21
149.5871759495169
 31
0.0
  0
LINE
  5
12D0
330
962
100
AcDbEntity
  8
AM_VIS
100
AcDbLine
 10
431.8529826847163
 20
151.8693581753417
 30
0.0
 11
430.0803287292943
 21
151.5567914555413
 31
0.0
  0
LINE
  5
12D1
330
962
100
AcDbEntity
  8
AM_VIS
100
AcDbLine
 10
431.6272400537493
 20
153.1496082542577
 30
0.0
 11
431.8529826847163
 21
151.8693581753419
 31
0.0
  0
LINE
  5
12D2
330
962
100
AcDbEntity
  8
AM_VIS
100
AcDbLine
 10
422.5670087260369
 20
151.5520450197219
 30
0.0
 11
431.6272400537492
 21
153.1496082542576
 31
0.0
  0
LINE
  5
12D3
330
962
100
AcDbEntity
  8
AM_VIS
100
AcDbLine
 10
423.1400477123377
 20
148.3021794347816
 30
0.0
 11
422.5670087260369
 21
151.5520450197219
 31
0.0
  0
LINE
  5
12D4
330
962
100
AcDbEntity
  8
AM_VIS
100
AcDbLine
 10
415.0401128445688
 20
146.8739423756126
 30
0.0
 11
423.1400477123377
 21
148.3021794347816
 31
0.0
  0
LINE
  5
12D5
330
962
100
AcDbEntity
  8
AM_VIS
100
AcDbLine
 10
415.0401128445688
 20
123.2415657286055
 30
0.0
 11
415.0401128445688
 21
146.8739423756128
 31
0.0
  0
LINE
  5
12D6
330
962
100
AcDbEntity
  8
AM_VIS
100
AcDbLine
 10
369.0401128445689
 20
177.6709106103591
 30
0.0
 11
369.0401128445689
 21
156.6450512595711
 31
0.0
  0
LINE
  5
12D7
330
962
100
AcDbEntity
  8
AM_VIS
100
AcDbLine
 10
358.2401128445689
 20
178.5709106103591
 30
0.0
 11
369.0401128445689
 21
177.6709106103591
 31
0.0
  0
LINE
  5
12D8
330
962
100
AcDbEntity
  8
AM_VIS
100
AcDbLine
 10
369.0401128445689
 20
213.670910610359
 30
0.0
 11
358.2401128445689
 21
212.770910610359
 31
0.0
  0
LINE
  5
12D9
330
962
100
AcDbEntity
  8
AM_VIS
100
AcDbLine
 10
369.040112844569
 20
234.6997888075778
 30
0.0
 11
369.0401128445689
 21
213.6709106103591
 31
0.0
  0
LINE
  5
12DA
330
962
100
AcDbEntity
  8
AM_VIS
100
AcDbLine
 10
360.5608426176307
 20
239.5952977556321
 30
0.0
 11
369.040112844569
 21
234.6997888075778
 31
0.0
  0
LINE
  5
12DB
330
962
100
AcDbEntity
  8
AM_VIS
100
AcDbLine
 10
511.7660216580299
 20
212.3413749295132
 30
0.0
 11
490.0178677615141
 21
224.897677436044
 31
0.0
  0
LINE
  5
12DC
330
962
100
AcDbEntity
  8
AM_VIS
100
AcDbLine
 10
490.0194746128753
 20
166.4480903471707
 30
0.0
 11
511.7666214077691
 21
179.003811403309
 31
0.0
  0
LINE
  5
12DD
330
962
100
AcDbEntity
  8
AM_VIS
100
AcDbLine
 10
462.0995269635216
 20
174.043707785096
 30
0.0
 11
482.5657654916319
 21
162.2275194615925
 31
0.0
  0
LINE
  5
12DE
330
962
100
AcDbEntity
  8
AM_VIS
100
AcDbLine
 10
369.0401128445689
 20
156.6450512595711
 30
0.0
 11
360.5592458081454
 21
151.7486203931307
 31
0.0
  0
LINE
  5
12DF
330
962
100
AcDbEntity
  8
AM_VIS
100
AcDbLine
 10
357.040112844569
 20
268.3314913952661
 30
0.0
 11
357.040112844569
 21
243.2188863822045
 31
0.0
  0
LINE
  5
12E0
330
962
100
AcDbEntity
  8
AM_VIS
100
AcDbLine
 10
415.040112844569
 20
244.4678788451053
 30
0.0
 11
415.040112844569
 21
268.1002554921125
 31
0.0
  0
ARC
  5
12E1
330
962
100
AcDbEntity
  8
AM_VIS
100
AcDbCircle
 10
380.7401128445681
 20
260.6228158941912
 30
0.0
 40
14.50000000000195
100
AcDbArc
 50
24.45274566144841
 51
34.50928733889561
  0
LINE
  5
12E2
330
962
100
AcDbEntity
  8
AM_VIS
100
AcDbLine
 10
407.662357927624
 20
272.4456532078894
 30
0.0
 11
411.294540535707
 21
270.3486116013668
 31
0.0
  0
ARC
  5
12E3
330
962
100
AcDbEntity
  8
AM_VIS
100
AcDbCircle
 10
380.7401128445551
 20
130.7190053265339
 30
0.0
 40
14.50000000001535
100
AcDbArc
 50
325.4907126611088
 51
335.5472543385449
  0
LINE
  5
12E4
330
962
100
AcDbEntity
  8
AM_VIS
100
AcDbLine
 10
407.6581366785632
 20
118.8967497199781
 30
0.0
 11
411.2900374025067
 21
120.9936285806168
 31
0.0
  0
LINE
  5
12E5
330
962
100
AcDbEntity
  8
AM_VIS
100
AcDbLine
 10
486.3875738889317
 20
164.351211486532
 30
0.0
 11
490.0194746128753
 21
166.4480903471707
 31
0.0
  0
ARC
  5
12E6
330
962
100
AcDbEntity
  8
AM_VIS
100
AcDbCircle
 10
493.2401128445689
 20
195.6709106103672
 30
0.0
 40
14.50000000000826
100
AcDbArc
 50
264.4527456614512
 51
274.509287338893
  0
LINE
  5
12E7
330
962
100
AcDbEntity
  8
AM_VIS
100
AcDbLine
 10
357.0401128445688
 20
149.7168480292956
 30
0.0
 11
357.0401128445688
 21
148.1229348385137
 31
0.0
  0
LINE
  5
12E8
330
962
100
AcDbEntity
  8
AM_VIS
100
AcDbLine
 10
357.0401128445688
 20
149.7168480292956
 30
0.0
 11
358.3771420497342
 21
150.4887822008122
 31
0.0
  0
ARC
  5
12E9
330
962
100
AcDbEntity
  8
AM_VIS
100
AcDbCircle
 10
380.740112844562
 20
130.71900532653
 30
0.0
 40
14.49999999999258
100
AcDbArc
 50
144.4527456614453
 51
154.5092873388957
  0
ARC
  5
12EA
330
962
100
AcDbEntity
  8
AM_VIS
100
AcDbCircle
 10
493.2401128445675
 20
195.6709106103783
 30
0.0
 40
14.49999999998061
100
AcDbArc
 50
85.49071266109399
 51
95.54725433855354
  0
LINE
  5
12EB
330
962
100
AcDbEntity
  8
AM_VIS
100
AcDbLine
 10
486.3856851534311
 20
226.9947190425666
 30
0.0
 11
490.0178677615141
 21
224.897677436044
 31
0.0
  0
LINE
  5
12EC
330
962
100
AcDbEntity
  8
AM_VIS
100
AcDbLine
 10
357.0401128445689
 20
243.2188863822045
 30
0.0
 11
357.0401128445689
 21
241.6279920378534
 31
0.0
  0
ARC
  5
12ED
330
962
100
AcDbEntity
  8
AM_VIS
100
AcDbCircle
 10
380.7401128445736
 20
260.6228158941945
 30
0.0
 40
14.50000000000445
100
AcDbArc
 50
205.4907126611048
 51
215.5472543385501
  0
LINE
  5
12EE
330
962
100
AcDbEntity
  8
AM_VIS
100
AcDbLine
 10
357.0401128445689
 20
241.6279920378534
 30
0.0
 11
358.3787290555128
 21
240.8551416081233
 31
0.0
  0
LINE
  5
12EF
330
962
100
AcDbEntity
  8
AM_VIS
100
AcDbLine
 10
415.040112844569
 20
268.1861044205761
 30
0.0
 11
415.040112844569
 21
268.1002554921125
 31
0.0
  0
ARC
  5
12F0
330
962
100
AcDbEntity
  8
AM_VIS
100
AcDbCircle
 10
380.7401128445588
 20
260.6228158941886
 30
0.0
 40
14.50000000001141
100
AcDbArc
 50
14.5613208780939
 51
24.4527456614418
  0
LINE
  5
12F1
330
962
100
AcDbEntity
  8
AM_VIS
100
AcDbLine
 10
411.2945405357071
 20
270.3486116013668
 30
0.0
 11
415.040112844569
 21
268.1861044205761
 31
0.0
  0
ARC
  5
12F2
330
962
100
AcDbEntity
  8
AM_VIS
100
AcDbCircle
 10
493.2401128445691
 20
195.6709106103612
 30
0.0
 40
14.49999999999772
100
AcDbArc
 50
95.54725433855354
 51
105.4386791219116
  0
LINE
  5
12F3
330
962
100
AcDbEntity
  8
AM_VIS
100
AcDbLine
 10
482.5645582835527
 20
229.1166236236468
 30
0.0
 11
482.6374984468698
 21
229.1587356465727
 31
0.0
  0
LINE
  5
12F4
330
962
100
AcDbEntity
  8
AM_VIS
100
AcDbLine
 10
482.6374984468698
 20
229.1587356465727
 30
0.0
 11
486.385685153431
 21
226.9947190425666
 31
0.0
  0
ARC
  5
12F5
330
962
100
AcDbEntity
  8
AM_VIS
100
AcDbCircle
 10
380.7401128445759
 20
260.6228158941979
 30
0.0
 40
14.50000000000839
100
AcDbArc
 50
215.5472543385546
 51
225.438679121905
  0
LINE
  5
12F6
330
962
100
AcDbEntity
  8
AM_VIS
100
AcDbLine
 10
358.3787290555128
 20
240.8551416081233
 30
0.0
 11
360.5608426176307
 21
239.5952977556321
 31
0.0
  0
ARC
  5
12F7
330
962
100
AcDbEntity
  8
AM_VIS
100
AcDbCircle
 10
380.740112844561
 20
130.7190053265287
 30
0.0
 40
14.50000000000779
100
AcDbArc
 50
335.5472543385552
 51
345.438679121906
  0
LINE
  5
12F8
330
962
100
AcDbEntity
  8
AM_VIS
100
AcDbLine
 10
415.0401128445688
 20
123.2415657286055
 30
0.0
 11
415.0401128445688
 21
123.1587356465727
 31
0.0
  0
LINE
  5
12F9
330
962
100
AcDbEntity
  8
AM_VIS
100
AcDbLine
 10
411.2900374025067
 20
120.9936285806168
 30
0.0
 11
415.0401128445688
 21
123.1587356465727
 31
0.0
  0
LINE
  5
12FA
330
962
100
AcDbEntity
  8
AM_VIS
100
AcDbLine
 10
482.6374984468698
 20
162.1861044205761
 30
0.0
 11
486.3875738889317
 21
164.351211486532
 31
0.0
  0
LINE
  5
12FB
330
962
100
AcDbEntity
  8
AM_VIS
100
AcDbLine
 10
482.5657654916319
 20
162.2275194615925
 30
0.0
 11
482.6374984468698
 21
162.1861044205761
 31
0.0
  0
ARC
  5
12FC
330
962
100
AcDbEntity
  8
AM_VIS
100
AcDbCircle
 10
493.2401128445659
 20
195.6709106103439
 30
0.0
 40
14.49999999998477
100
AcDbArc
 50
254.5613208780867
 51
264.4527456614529
  0
LINE
  5
12FD
330
962
100
AcDbEntity
  8
AM_VIS
100
AcDbLine
 10
358.3771420497342
 20
150.4887822008122
 30
0.0
 11
360.5592458081454
 21
151.7486203931307
 31
0.0
  0
ARC
  5
12FE
330
962
100
AcDbEntity
  8
AM_VIS
100
AcDbCircle
 10
380.7401128445724
 20
130.7190053265227
 30
0.0
 40
14.50000000000532
100
AcDbArc
 50
134.5613208780915
 51
144.4527456614453
  0
LINE
  5
12FF
330
962
100
AcDbEntity
  8
AM_VIS
100
AcDbLine
 10
358.2401128445689
 20
212.770910610359
 30
0.0
 11
358.2401128445689
 21
178.5709106103591
 31
0.0
  0
ARC
  5
1300
330
962
100
AcDbEntity
  8
AM_VIS
100
AcDbCircle
 10
418.2401128445689
 20
195.670910610359
 30
0.0
 40
40.0
100
AcDbArc
 50
90.0
 51
109.8768740700791
  0
ARC
  5
1301
330
962
100
AcDbEntity
  8
AM_VIS
100
AcDbCircle
 10
418.2401128445689
 20
195.670910610359
 30
0.0
 40
40.0
100
AcDbArc
 50
113.1104144000286
 51
115.5238246719647
  0
ARC
  5
1302
330
962
100
AcDbEntity
  8
AM_VIS
100
AcDbCircle
 10
418.2401128445689
 20
195.670910610359
 30
0.0
 40
40.0
100
AcDbArc
 50
64.47617532803525
 51
66.88958559997137
  0
ARC
  5
1303
330
962
100
AcDbEntity
  8
AM_VIS
100
AcDbCircle
 10
418.2401128445689
 20
195.670910610359
 30
0.0
 40
40.0
100
AcDbArc
 50
70.12312592992081
 51
90.0
  0
CIRCLE
  5
1304
330
962
100
AcDbEntity
  8
AM_VIS
100
AcDbCircle
 10
434.1968459383714
 20
230.9830214078341
 30
0.0
 40
1.5
  0
CIRCLE
  5
1305
330
962
100
AcDbEntity
  8
AM_VIS
100
AcDbCircle
 10
402.2833797507665
 20
230.9830214078341
 30
0.0
 40
1.5
  0
ARC
  5
1306
330
962
100
AcDbEntity
  8
AM_VIS
100
AcDbCircle
 10
434.1968459383714
 20
230.9830214078341
 30
0.0
 40
3.0
100
AcDbArc
 50
160.1231259299223
 51
304.0050280273654
  0
ARC
  5
1307
330
962
100
AcDbEntity
  8
AM_VIS
100
AcDbCircle
 10
437.5524398625751
 20
226.0090904256181
 30
0.0
 40
3.0
100
AcDbArc
 50
55.95958166790468
 51
124.0050280273654
  0
ARC
  5
1308
330
962
100
AcDbEntity
  8
AM_VIS
100
AcDbCircle
 10
418.240112844569
 20
197.420910610359
 30
0.0
 40
37.49999999999997
100
AcDbArc
 50
124.0404183320953
 51
55.95958166790468
  0
ARC
  5
1309
330
962
100
AcDbEntity
  8
AM_VIS
100
AcDbCircle
 10
398.9277858265628
 20
226.0090904256182
 30
0.0
 40
3.0
100
AcDbArc
 50
55.99497197263458
 51
124.0404183320953
  0
ARC
  5
130A
330
962
100
AcDbEntity
  8
AM_VIS
100
AcDbCircle
 10
402.2833797507665
 20
230.9830214078341
 30
0.0
 40
3.0
100
AcDbArc
 50
235.9949719726345
 51
19.87687407007765
  0
LINE
  5
130B
330
962
100
AcDbEntity
  8
AM_VIS
100
AcDbLine
 10
431.3755696314493
 20
232.003021407834
 30
0.0
 11
432.180112844569
 21
234.2283534716277
 31
0.0
  0
LINE
  5
130C
330
962
100
AcDbEntity
  8
AM_VIS
100
AcDbLine
 10
404.3001128445689
 20
234.2283534716277
 30
0.0
 11
405.1046560576886
 21
232.003021407834
 31
0.0
  0
CIRCLE
  5
130D
330
962
100
AcDbEntity
  8
AM_VIS
100
AcDbCircle
 10
493.240112844569
 20
195.6709106103589
 30
0.0
 40
10.0
  0
CIRCLE
  5
130E
330
962
100
AcDbEntity
  8
AM_VIS
100
AcDbCircle
 10
493.240112844569
 20
195.6709106103589
 30
0.0
 40
9.0
  0
CIRCLE
  5
130F
330
962
100
AcDbEntity
  8
AM_VIS
100
AcDbCircle
 10
380.7401128445685
 20
130.7190053265263
 30
0.0
 40
10.0
  0
CIRCLE
  5
1310
330
962
100
AcDbEntity
  8
AM_VIS
100
AcDbCircle
 10
380.7401128445685
 20
130.7190053265263
 30
0.0
 40
9.0
  0
CIRCLE
  5
1311
330
962
100
AcDbEntity
  8
AM_VIS
100
AcDbCircle
 10
380.7401128445697
 20
260.6228158941923
 30
0.0
 40
10.0
  0
CIRCLE
  5
1312
330
962
100
AcDbEntity
  8
AM_VIS
100
AcDbCircle
 10
380.7401128445697
 20
260.6228158941923
 30
0.0
 40
9.0
  0
CIRCLE
  5
1313
330
962
100
AcDbEntity
  8
AM_VIS
100
AcDbCircle
 10
485.4152128445691
 20
262.8460106103589
 30
0.0
 40
4.25
  0
CIRCLE
  5
1314
330
962
100
AcDbEntity
  8
AM_VIS
100
AcDbCircle
 10
351.0650128445688
 20
262.8460106103589
 30
0.0
 40
4.25
  0
CIRCLE
  5
1315
330
962
100
AcDbEntity
  8
AM_VIS
100
AcDbCircle
 10
351.0650128445693
 20
128.4958106103586
 30
0.0
 40
4.25
  0
CIRCLE
  5
1316
330
962
100
AcDbEntity
  8
AM_VIS
100
AcDbCircle
 10
351.0650128445688
 20
262.8460106103589
 30
0.0
 40
5.450000000000002
  0
CIRCLE
  5
1317
330
962
100
AcDbEntity
  8
AM_VIS
100
AcDbCircle
 10
418.240112844569
 20
195.670910610359
 30
0.0
 40
110.0
  0
CIRCLE
  5
1318
330
962
100
AcDbEntity
  8
AM_VIS
100
AcDbCircle
 10
485.4152128445691
 20
262.8460106103589
 30
0.0
 40
5.450000000000002
  0
CIRCLE
  5
1319
330
962
100
AcDbEntity
  8
AM_VIS
100
AcDbCircle
 10
351.0650128445693
 20
128.4958106103586
 30
0.0
 40
5.450000000000002
  0
CIRCLE
  5
131A
330
962
100
AcDbEntity
  8
AM_VIS
100
AcDbCircle
 10
485.4152128445696
 20
128.4958106103595
 30
0.0
 40
5.450000000000002
  0
CIRCLE
  5
131B
330
962
100
AcDbEntity
  8
AM_VIS
100
AcDbCircle
 10
485.4152128445696
 20
128.4958106103595
 30
0.0
 40
4.25
  0
DIMENSION
  5
131C
330
962
100
AcDbEntity
  8
DIM
 62
     1
100
AcDbDimension
  2
*D0
 10
817.4564254079397
 20
509.1937082808826
 30
0.0
 11
707.4564254079398
 21
511.4937082808826
 31
0.0
 70
    32
  1
%%c220
  3
STANDARD
100
AcDbAlignedDimension
 13
597.4564254079398
 23
488.9999441278209
 33
0.0
 14
817.4564254079397
 24
488.9999441278209
 34
0.0
100
AcDbRotatedDimension
  0
DIMENSION
  5
1344
330
962
100
AcDbEntity
  8
DIM
 62
     1
100
AcDbDimension
  2
*D1
 10
152.9502540291949
 20
503.5237181464967
 30
0.0
 11
140.4502540291949
 21
505.8237181464967
 31
0.0
 70
    32
  1
%%C25
  3
STANDARD
100
AcDbAlignedDimension
 13
127.9502540291949
 23
466.4999441278208
 33
0.0
 14
152.9502540291949
 24
466.4999441278208
 34
0.0
100
AcDbRotatedDimension
  0
DIMENSION
  5
1387
330
962
100
AcDbEntity
  8
DIM
 62
     1
100
AcDbDimension
  2
*D2
 10
546.7203878294914
 20
179.6709106103593
 30
0.0
 11
544.4203878294914
 21
195.6709106103594
 31
0.0
 70
    32
  3
STANDARD
100
AcDbAlignedDimension
 13
474.6173332312078
 23
211.6709106103594
 33
0.0
 14
474.6173332312081
 24
179.6709106103593
 34
0.0
 50
90.0
100
AcDbRotatedDimension
  0
DIMENSION
  5
1396
330
962
100
AcDbEntity
  8
DIM
 62
     1
100
AcDbDimension
  2
*D3
 10
418.240112844569
 20
63.19736297093936
 30
0.0
 11
387.6401128445684
 21
65.49736297093936
 31
0.0
 70
    32
  3
STANDARD
100
AcDbAlignedDimension
 13
357.0401128445679
 23
123.0103298254528
 33
0.0
 14
418.240112844569
 24
84.07091061035904
 34
0.0
100
AcDbRotatedDimension
  0
DIMENSION
  5
13A3
330
962
100
AcDbEntity
  8
DIM
 62
     1
100
AcDbDimension
  2
*D4
 10
215.4021593130283
 20
360.4346785693859
 30
0.0
 11
205.4021593130283
 21
362.7346785693859
 31
0.0
 70
    32
  1
3-%%CD
  3
STANDARD
100
AcDbAlignedDimension
 13
195.4021593130283
 23
376.9999441278208
 33
0.0
 14
215.4021593130283
 24
376.9999441278208
 34
0.0
100
AcDbRotatedDimension
  0
DIMENSION
  5
13C4
330
962
100
AcDbEntity
  8
DIM
 62
     1
100
AcDbDimension
  2
*D5
 10
541.4143225507606
 20
470.9999441278208
 30
0.0
 11
539.1143225507605
 21
468.4999441278208
 31
0.0
 70
    32
  3
STANDARD
100
AcDbAlignedDimension
 13
513.240112844569
 23
465.9999441278208
 33
0.0
 14
528.240112844569
 24
470.9999441278208
 34
0.0
 50
90.0
100
AcDbRotatedDimension
  0
DIMENSION
  5
13F2
330
962
100
AcDbEntity
  8
DIM
 62
     1
100
AcDbDimension
  2
*D6
 10
240.0731247567893
 20
465.9999441278208
 30
0.0
 11
237.7731247567892
 21
454.9999441278209
 31
0.0
 70
    32
  3
STANDARD
100
AcDbAlignedDimension
 13
149.5502540291951
 23
443.9999441278208
 33
0.0
 14
229.7812991332562
 24
465.9999441278208
 34
0.0
 50
90.0
100
AcDbRotatedDimension
  0
DIMENSION
  5
13FF
330
962
100
AcDbEntity
  8
DIM
 62
     1
100
AcDbDimension
  2
*D7
 10
240.7743716917149
 20
400.9999441278209
 30
0.0
 11
238.4743716917148
 21
411.9999441278209
 31
0.0
 70
    32
  3
STANDARD
100
AcDbAlignedDimension
 13
149.5502540291951
 23
422.9999441278208
 33
0.0
 14
229.7812991332562
 24
400.9999441278209
 34
0.0
 50
90.0
100
AcDbRotatedDimension
  0
DIMENSION
  5
140C
330
962
100
AcDbEntity
  8
DIM
 62
     1
100
AcDbDimension
  2
*D8
 10
541.3506902841191
 20
400.9999441278209
 30
0.0
 11
539.0506902841191
 21
433.4999441278209
 31
0.0
 70
    32
  3
STANDARD
100
AcDbAlignedDimension
 13
513.240112844569
 23
465.9999441278208
 33
0.0
 14
513.240112844569
 24
400.9999441278209
 34
0.0
 50
90.0
100
AcDbRotatedDimension
  0
DIMENSION
  5
1419
330
962
100
AcDbEntity
  8
DIM
 62
     1
100
AcDbDimension
  2
*D9
 10
552.7858652635169
 20
400.9999441278209
 30
0.0
 11
550.4858652635168
 21
444.9999441278209
 31
0.0
 70
    32
  3
STANDARD
100
AcDbAlignedDimension
 13
528.240112844569
 23
488.9999441278209
 33
0.0
 14
514.7401128445689
 24
400.9999441278209
 34
0.0
 50
90.0
100
AcDbRotatedDimension
  0
DIMENSION
  5
1426
330
962
100
AcDbEntity
  8
DIM
 62
     1
100
AcDbDimension
  2
*D10
 10
541.4402142682348
 20
400.9999441278209
 30
0.0
 11
539.1402142682347
 21
388.4999441278209
 31
0.0
 70
    32
  1
L
  3
STANDARD
100
AcDbAlignedDimension
 13
502.2401128445689
 23
375.9999441278208
 33
0.0
 14
513.240112844569
 24
400.9999441278209
 34
0.0
 50
90.0
100
AcDbRotatedDimension
  0
CIRCLE
  5
1448
330
962
100
AcDbEntity
  8
0
  6
CENTER
 62
     1
100
AcDbCircle
 10
418.240112844569
 20
195.670910610359
 30
0.0
 40
53.0
  0
CIRCLE
  5
1449
330
962
100
AcDbEntity
  8
0
  6
CENTER
 62
     1
100
AcDbCircle
 10
418.2401128445689
 20
195.670910610359
 30
0.0
 40
95.0
  0
DIMENSION
  5
1468
330
962
100
AcDbEntity
  8
DIM
100
AcDbDimension
  2
*D11
 10
506.0914139943358
 20
159.5163965589573
 30
0.0
 11
297.5045905109674
 21
245.3586680093298
 31
0.0
 70
   163
  3
STANDARD
100
AcDbDiametricDimension
 15
330.3888116948024
 25
231.8254246617608
 35
0.0
 40
0.0
1001
ACAD
1000
DSTYLE
1002
{
1070
   288
1070
     1
1002
}
  0
LINE
  5
1480
330
962
100
AcDbEntity
  8
DIM
100
AcDbLine
 10
309.6823872434903
 20
128.4226499930698
 30
0.0
 11
370.6342671595621
 21
166.1805146039417
 31
0.0
  0
LINE
  5
1481
330
962
100
AcDbEntity
  8
DIM
100
AcDbLine
 10
465.8459585295758
 20
225.1613066167763
 30
0.0
 11
468.3962716912726
 21
226.7411492599772
 31
0.0
  0
LINE
  5
1483
330
962
100
AcDbEntity
  8
DIM
100
AcDbLine
 10
463.295645367879
 20
223.5814639735754
 30
0.0
 11
373.1845803212589
 21
167.7603572471426
 31
0.0
  0
SOLID
  5
1484
330
962
100
AcDbEntity
  8
DIM
100
AcDbTrace
 10
465.5826514223757
 20
225.5863588103924
 30
0.0
 11
466.109265636776
 21
224.7362544231602
 31
0.0
 12
463.295645367879
 22
223.5814639735754
 32
0.0
 13
463.295645367879
 23
223.5814639735754
 33
0.0
  0
SOLID
  5
1485
330
962
100
AcDbEntity
  8
DIM
100
AcDbTrace
 10
370.3709600523619
 20
166.6055667975579
 30
0.0
 11
370.8975742667622
 21
165.7554624103256
 31
0.0
 12
373.1845803212589
 22
167.7603572471426
 32
0.0
 13
373.1845803212589
 23
167.7603572471426
 33
0.0
  0
TEXT
  5
1486
330
962
100
AcDbEntity
  8
DIM
100
AcDbText
 10
286.2439344459727
 20
129.914215030197
 30
0.0
 40
3.0
  1
P.C.D.%%c106
  7
DAYUS
100
AcDbText
  0
LINE
  5
1487
330
962
100
AcDbEntity
  8
DIM
100
AcDbLine
 10
309.6823872434903
 20
128.4226499930698
 30
0.0
 11
285.3454904401861
 21
128.4226499930698
 31
0.0
  0
LINE
  5
1494
330
962
100
AcDbEntity
  8
DIM
100
AcDbLine
 10
89.85134534929915
 20
505.9661378812466
 30
0.0
 11
133.3348151424682
 21
452.7139001438479
 31
0.0
  0
LINE
  5
1495
330
962
100
AcDbEntity
  8
DIM
100
AcDbLine
 10
147.5656929159222
 20
435.2859881117938
 30
0.0
 11
149.463143285716
 21
432.9622665075198
 31
0.0
  0
LINE
  5
1497
330
962
100
AcDbEntity
  8
DIM
100
AcDbLine
 10
145.6682425461283
 20
437.6097097160677
 30
0.0
 11
135.232265512262
 21
450.390178539574
 31
0.0
  0
SOLID
  5
1498
330
962
100
AcDbEntity
  8
DIM
100
AcDbTrace
 10
147.9529798499678
 20
435.6022298400928
 30
0.0
 11
147.1784059818765
 21
434.9697463834949
 31
0.0
 12
145.6682425461283
 22
437.6097097160677
 32
0.0
 13
145.6682425461283
 23
437.6097097160677
 33
0.0
  0
SOLID
  5
1499
330
962
100
AcDbEntity
  8
DIM
100
AcDbTrace
 10
133.7221020765138
 20
453.0301418721468
 30
0.0
 11
132.9475282084225
 21
452.3976584155489
 31
0.0
 12
135.232265512262
 22
450.390178539574
 32
0.0
 13
135.232265512262
 23
450.390178539574
 33
0.0
  0
TEXT
  5
149A
330
962
100
AcDbEntity
  8
DIM
100
AcDbText
 10
68.90974123300487
 20
508.3713748032059
 30
0.0
 40
3.0
  1
2-PT3/8
  7
DAYUS
100
AcDbText
  0
LINE
  5
149B
330
962
100
AcDbEntity
  8
DIM
100
AcDbLine
 10
89.85134534929915
 20
505.9661378812466
 30
0.0
 11
68.21923905544929
 21
505.9661378812466
 31
0.0
  0
CIRCLE
  5
149C
330
962
100
AcDbEntity
  8
0
  6
CENTER
 62
     1
100
AcDbCircle
 10
418.240112844569
 20
675.616036819906
 30
0.0
 40
94.9999374737688
  0
CIRCLE
  5
149D
330
962
100
AcDbEntity
  8
0
  6
CENTER
 62
     1
100
AcDbCircle
 10
418.240112844569
 20
675.616036819906
 30
0.0
 40
74.99999999999994
  0
LINE
  5
14B6
330
962
100
AcDbEntity
  8
DIM
100
AcDbLine
 10
523.3089389028235
 20
591.2574537237041
 30
0.0
 11
492.7011069174922
 21
605.1370379779095
 31
0.0
  0
LINE
  5
14B7
330
962
100
AcDbEntity
  8
DIM
100
AcDbLine
 10
478.1293187716459
 20
611.7448356619022
 30
0.0
 11
475.3971084942999
 21
612.9837977276508
 31
0.0
  0
LINE
  5
14B9
330
962
100
AcDbEntity
  8
DIM
100
AcDbLine
 10
480.8615290489922
 20
610.5058735961535
 30
0.0
 11
489.9688966401461
 21
606.3760000436582
 31
0.0
  0
SOLID
  5
14BA
330
962
100
AcDbEntity
  8
DIM
100
AcDbTrace
 10
478.3358124492708
 20
612.2002040414599
 30
0.0
 11
477.9228250940213
 21
611.2894672823444
 31
0.0
 12
480.8615290489922
 22
610.5058735961535
 32
0.0
 13
480.8615290489922
 23
610.5058735961535
 33
0.0
  0
SOLID
  5
14BB
330
962
100
AcDbEntity
  8
DIM
100
AcDbTrace
 10
492.907600595117
 20
605.5924063574673
 30
0.0
 11
492.4946132398674
 21
604.6816695983521
 31
0.0
 12
489.9688966401461
 22
606.3760000436582
 32
0.0
 13
489.9688966401461
 23
606.3760000436582
 33
0.0
  0
LINE
  5
14BC
330
962
100
AcDbEntity
  8
DIM
100
AcDbLine
 10
541.1474549136065
 20
615.2772239758339
 30
0.0
 11
506.2107800042997
 21
632.4286606049229
 31
0.0
  0
LINE
  5
14BD
330
962
100
AcDbEntity
  8
DIM
100
AcDbLine
 10
330.2694456848384
 20
718.8034130348889
 30
0.0
 11
327.5764643597245
 21
720.125476415589
 31
0.0
  0
LINE
  5
14BF
330
962
100
AcDbEntity
  8
DIM
100
AcDbLine
 10
332.9624270099523
 20
717.4813496541892
 30
0.0
 11
503.5177986791857
 21
633.7507239856226
 31
0.0
  0
SOLID
  5
14C0
330
962
100
AcDbEntity
  8
DIM
100
AcDbTrace
 10
330.4897895816217
 20
719.2522432557414
 30
0.0
 11
330.0491017880551
 21
718.3545828140368
 31
0.0
 12
332.9624270099523
 22
717.4813496541892
 32
0.0
 13
332.9624270099523
 23
717.4813496541892
 33
0.0
  0
SOLID
  5
14C1
330
962
100
AcDbEntity
  8
DIM
100
AcDbTrace
 10
506.4311239010829
 20
632.877490825775
 30
0.0
 11
505.9904361075163
 21
631.9798303840705
 31
0.0
 12
503.5177986791857
 22
633.7507239856226
 32
0.0
 13
503.5177986791857
 23
633.7507239856226
 33
0.0
  0
TEXT
  5
14C2
330
962
100
AcDbEntity
  8
DIM
100
AcDbText
 10
544.7349505858483
 20
617.0619568290954
 30
0.0
 40
3.0
  1
P.C.D.%%c190
  7
DAYUS
100
AcDbText
  0
LINE
  5
14C3
330
962
100
AcDbEntity
  8
DIM
100
AcDbLine
 10
541.1474549136065
 20
615.2772239758339
 30
0.0
 11
568.4096962106751
 21
615.2772239758339
 31
0.0
  0
TEXT
  5
14C4
330
962
100
AcDbEntity
  8
DIM
100
AcDbText
 10
526.6214038461949
 20
592.2938500739701
 30
0.0
 40
3.0
  1
4-M10x1.5
  7
DAYUS
100
AcDbText
  0
LINE
  5
14C5
330
962
100
AcDbEntity
  8
DIM
100
AcDbLine
 10
523.3089389028235
 20
591.2574537237041
 30
0.0
 11
550.4562073608577
 21
591.2574537237041
 31
0.0
  0
LINE
  5
14D4
330
962
100
AcDbEntity
  8
DIM
100
AcDbLine
 10
538.0681543408898
 20
743.0159382501683
 30
0.0
 11
486.2238221633559
 21
713.8549602783229
 31
0.0
  0
LINE
  5
14D5
330
962
100
AcDbEntity
  8
DIM
100
AcDbLine
 10
350.2564035257821
 20
637.3771133614886
 30
0.0
 11
347.6416454750595
 21
635.906385536165
 31
0.0
  0
LINE
  5
14D7
330
962
100
AcDbEntity
  8
DIM
100
AcDbLine
 10
352.8711615765046
 20
638.8478411868125
 30
0.0
 11
483.6090641126332
 21
712.3842324529994
 31
0.0
  0
SOLID
  5
14D8
330
962
100
AcDbEntity
  8
DIM
100
AcDbTrace
 10
350.0112822215614
 20
637.8129063699425
 30
0.0
 11
350.5015248300027
 21
636.9413203530348
 31
0.0
 12
352.8711615765046
 22
638.8478411868125
 32
0.0
 13
352.8711615765046
 23
638.8478411868125
 33
0.0
  0
SOLID
  5
14D9
330
962
100
AcDbEntity
  8
DIM
100
AcDbTrace
 10
485.9787008591352
 20
714.2907532867768
 30
0.0
 11
486.4689434675764
 21
713.4191672698693
 31
0.0
 12
483.6090641126332
 22
712.3842324529994
 32
0.0
 13
483.6090641126332
 23
712.3842324529994
 33
0.0
  0
TEXT
  5
14DA
330
962
100
AcDbEntity
  8
DIM
100
AcDbText
 10
539.7342315082297
 20
744.3372819429145
 30
0.0
 40
3.0
  1
P.C.D.%%C150
  7
DAYUS
100
AcDbText
  0
LINE
  5
14DB
330
962
100
AcDbEntity
  8
DIM
100
AcDbLine
 10
538.0681543408898
 20
743.0159382501683
 30
0.0
 11
563.1115113207116
 21
743.0159382501683
 31
0.0
  0
LINE
  5
14E8
330
962
100
AcDbEntity
  8
DIM
100
AcDbLine
 10
536.201650637076
 20
256.7673044131091
 30
0.0
 11
475.4173483861372
 21
216.1180780728244
 31
0.0
  0
LINE
  5
14E9
330
962
100
AcDbEntity
  8
DIM
100
AcDbLine
 10
462.1173180762788
 20
207.2237431478934
 30
0.0
 11
459.6235623931803
 21
205.5560553494688
 31
0.0
  0
LINE
  5
14EB
330
962
100
AcDbEntity
  8
DIM
100
AcDbLine
 10
464.6110737593772
 20
208.8914309463179
 30
0.0
 11
472.9235927030388
 21
214.4503902743998
 31
0.0
  0
SOLID
  5
14EC
330
962
100
AcDbEntity
  8
DIM
100
AcDbTrace
 10
461.8393701098748
 20
207.6393690950764
 30
0.0
 11
462.3952660426829
 21
206.8081172007103
 31
0.0
 12
464.6110737593772
 22
208.8914309463179
 32
0.0
 13
464.6110737593772
 23
208.8914309463179
 33
0.0
  0
SOLID
  5
14ED
330
962
100
AcDbEntity
  8
DIM
100
AcDbTrace
 10
475.1394004197331
 20
216.5337040200075
 30
0.0
 11
475.6952963525414
 21
215.7024521256413
 31
0.0
 12
472.9235927030388
 22
214.4503902743998
 32
0.0
 13
472.9235927030388
 23
214.4503902743998
 33
0.0
  0
TEXT
  5
14EE
330
962
100
AcDbEntity
  8
DIM
100
AcDbText
 10
537.9208528546079
 20
258.178436866952
 30
0.0
 40
3.0
  1
4-M10x1.5x23L
  7
DAYUS
100
AcDbText
  0
LINE
  5
14EF
330
962
100
AcDbEntity
  8
DIM
100
AcDbLine
 10
536.201650637076
 20
256.7673044131091
 30
0.0
 11
572.0427396942897
 21
256.7673044131091
 31
0.0
  0
LINE
  5
1537
330
962
100
AcDbEntity
  8
0
 62
     6
100
AcDbLine
 10
-52.53356160209114
 20
821.7527353224017
 30
0.0
 11
-52.53356160209114
 21
14.49644576363971
 31
0.0
  0
LINE
  5
1538
330
962
100
AcDbEntity
  8
0
 62
     6
100
AcDbLine
 10
-52.53356160209114
 20
14.49644576363971
 30
0.0
 11
891.4122083234451
 21
14.49644576363971
 31
0.0
  0
LINE
  5
1539
330
962
100
AcDbEntity
  8
0
 62
     6
100
AcDbLine
 10
891.4122083234451
 20
14.49644576363971
 30
0.0
 11
891.4122083234451
 21
821.7527353224017
 31
0.0
  0
LINE
  5
153A
330
962
100
AcDbEntity
  8
0
 62
     6
100
AcDbLine
 10
891.4122083234451
 20
821.7527353224017
 30
0.0
 11
-52.53356160209114
 21
821.7527353224017
 31
0.0
  0
LINE
  5
1C16
330
962
100
AcDbEntity
  8
LOGO
 62
     1
100
AcDbLine
 10
891.4122083234451
 20
-93.85932453449049
 30
0.0
 11
-52.53356160209114
 21
-93.85932453449049
 31
0.0
  0
LINE
  5
1C17
330
962
100
AcDbEntity
  8
LOGO
 62
     1
100
AcDbLine
 10
891.4122083234451
 20
14.49644576363971
 30
0.0
 11
-52.53356160209114
 21
14.49644576363971
 31
0.0
  0
TEXT
  5
1C18
330
962
100
AcDbEntity
  8
LOGO
  6
CONTINUOUS
 62
     6
100
AcDbText
 10
610.9516704580043
 20
-79.6698784240213
 30
0.0
 40
9.029647524844184
  1
Purpose/type of Bearing
 41
0.8
  7
CHINESET
 72
     4
 11
678.7170252158825
 21
-75.80002948480236
 31
0.0
100
AcDbText
  0
LINE
  5
1C19
330
962
100
AcDbEntity
  8
LOGO
 62
     6
100
AcDbLine
 10
691.5747554592362
 20
3.660868733826475
 30
0.0
 11
616.178597263462
 21
3.660868733826475
 31
0.0
  0
LINE
  5
1C1A
330
962
100
AcDbEntity
  8
LOGO
 62
     6
100
AcDbLine
 10
750.5404632362211
 20
-45.09922790033213
 30
0.0
 11
608.8935871955441
 21
-45.09922790033213
 31
0.0
  0
LINE
  5
1C1B
330
962
100
AcDbEntity
  8
LOGO
 62
     6
100
AcDbLine
 10
691.5747554592362
 20
-28.84586235561279
 30
0.0
 11
616.178597263462
 21
-28.84586235561279
 31
0.0
  0
LINE
  5
1C1C
330
962
100
AcDbEntity
  8
LOGO
 62
     6
100
AcDbLine
 10
750.5404632362211
 20
-84.82967700964648
 30
0.0
 11
608.8935871955441
 21
-84.82967700964653
 31
0.0
  0
TEXT
  5
1C1D
330
962
100
AcDbEntity
  8
LOGO
 62
     7
100
AcDbText
 10
194.7185825169194
 20
-12.63337480881698
 30
0.0
 40
21.67115405962604
  1
訂購代號:
  7
CHINESET
100
AcDbText
  0
TEXT
  5
1C1E
330
962
100
AcDbEntity
  8
LOGO
 62
     7
100
AcDbText
 10
192.1265930159534
 20
-32.97237337298406
 30
0.0
 40
14.44743603975069
  1
Order example:
 41
0.8
  7
CHINESET
100
AcDbText
  0
TEXT
  5
1C1F
330
962
100
AcDbEntity
  8
LOGO
  6
CONTINUOUS
 62
     5
100
AcDbText
 10
-44.33291070873247
 20
-88.82954691259135
 30
0.0
 40
10.83557702981302
  1
MINDMAN INDUSTRIAL CO.,LTD
 41
0.85
  7
CHINESET
100
AcDbText
  0
TEXT
  5
1C20
330
962
100
AcDbEntity
  8
LOGO
  6
CONTINUOUS
 62
     5
100
AcDbText
 10
-48.98689429120032
 20
-72.57299698253809
 30
0.0
 40
16.25336554471953
  1
金器工業股份有限公司
 41
0.8
  7
LOGO
100
AcDbText
  0
SOLID
  5
1C21
330
962
100
AcDbEntity
  8
LOGO
 62
     2
100
AcDbTrace
 10
-12.37359951501775
 20
-32.50441192611329
 30
0.0
 11
-10.43497088791991
 21
-32.50441192611329
 31
0.0
 12
11.85925832368798
 22
11.92249411151586
 32
0.0
 13
13.79788695078582
 23
11.92249411151277
 33
0.0
  0
SOLID
  5
1C22
330
962
100
AcDbEntity
  8
LOGO
 62
     5
100
AcDbTrace
 10
-10.43497088791991
 20
-32.50441192611329
 30
0.0
 11
-5.749951705770854
 21
-32.50441192611329
 31
0.0
 12
11.85925832368798
 22
8.368341628503912
 32
0.0
 13
7.174239141538237
 23
-8.810062039379943
 33
0.0
  0
SOLID
  5
1C23
330
962
100
AcDbEntity
  8
LOGO
 62
     5
100
AcDbTrace
 10
-10.43497088791991
 20
-28.95025944310443
 30
0.0
 11
-5.749951705770854
 21
-11.77185577522057
 31
0.0
 12
11.85925832368798
 22
11.92249411151586
 32
0.0
 13
7.174239141538237
 23
11.92249411151586
 33
0.0
  0
LINE
  5
1C24
330
962
100
AcDbEntity
  8
LOGO
 62
     1
100
AcDbLine
 10
185.8491330537951
 20
-50.51701641523831
 30
0.0
 11
-52.53356160209114
 21
-50.51701641523831
 31
0.0
  0
SOLID
  5
1C25
330
962
100
AcDbEntity
  8
LOGO
 62
     2
100
AcDbTrace
 10
-12.37359951501775
 20
11.92249411151277
 30
0.0
 11
-10.43497088791991
 21
11.92249411151277
 31
0.0
 12
-12.37359951501775
 22
-32.50441192611329
 32
0.0
 13
-10.43497088791991
 23
-32.50441192611329
 33
0.0
  0
SOLID
  5
1C26
330
962
100
AcDbEntity
  8
LOGO
 62
     2
100
AcDbTrace
 10
-36.60645735372486
 20
-32.50441192611484
 30
0.0
 11
-34.66782872662566
 21
-32.50441192611329
 31
0.0
 12
-12.37359951501775
 22
11.92249411151277
 32
0.0
 13
-10.43497088791991
 23
11.92249411151277
 33
0.0
  0
SOLID
  5
1C27
330
962
100
AcDbEntity
  8
LOGO
 62
     5
100
AcDbTrace
 10
-10.43497088791991
 20
11.92249411151277
 30
0.0
 11
-5.749951705770854
 21
11.92249411151586
 31
0.0
 12
-10.43497088791991
 22
-28.95025944310443
 32
0.0
 13
-5.749951705770854
 23
-11.77185577522057
 33
0.0
  0
SOLID
  5
1C28
330
962
100
AcDbEntity
  8
LOGO
 62
     5
100
AcDbTrace
 10
-17.05861869716704
 20
-32.50441192611329
 30
0.0
 11
-12.37359951501775
 21
-32.50441192611329
 31
0.0
 12
-17.05861869716704
 22
-8.810062039379943
 32
0.0
 13
-12.37359951501775
 23
8.368341628503912
 33
0.0
  0
SOLID
  5
1C29
330
962
100
AcDbEntity
  8
LOGO
 62
     5
100
AcDbTrace
 10
-34.66782872662566
 20
-32.50441192611329
 30
0.0
 11
-29.98280954447636
 21
-32.50441192611329
 31
0.0
 12
-12.37359951501775
 22
8.368341628503912
 32
0.0
 13
-17.05861869716704
 23
-8.810062039379943
 33
0.0
  0
SOLID
  5
1C2A
330
962
100
AcDbEntity
  8
LOGO
 62
     5
100
AcDbTrace
 10
-41.29147653587461
 20
-32.50441192611329
 30
0.0
 11
-36.60645735372486
 21
-32.50441192611484
 31
0.0
 12
-17.05861869716704
 22
11.92249411151586
 32
0.0
 13
-12.37359951501775
 23
11.92249411151277
 33
0.0
  0
LINE
  5
1C2B
330
962
100
AcDbEntity
  8
LOGO
 62
     1
100
AcDbLine
 10
-52.53356160209114
 20
-93.85932453449049
 30
0.0
 11
-52.53356160209114
 21
14.49644576363971
 31
0.0
  0
SOLID
  5
1C2C
330
962
100
AcDbEntity
  8
LOGO
 62
     5
100
AcDbTrace
 10
-32.94487253429542
 20
-40.58203120568235
 30
0.0
 11
-31.32934867837866
 21
-40.58203120568235
 31
0.0
 12
-32.94487253429542
 22
-48.65965048525303
 32
0.0
 13
-31.32934867837866
 23
-48.65965048524996
 33
0.0
  0
SOLID
  5
1C2D
330
962
100
AcDbEntity
  8
LOGO
 62
     5
100
AcDbTrace
 10
-32.94487253429542
 20
-39.45116450654348
 30
0.0
 11
-31.32934867837866
 21
-39.45116450654348
 31
0.0
 12
-32.94487253429542
 22
-38.15874542181092
 32
0.0
 13
-31.32934867837866
 23
-38.15874542181092
 33
0.0
  0
SOLID
  5
1C2E
330
962
100
AcDbEntity
  8
LOGO
 62
     5
100
AcDbTrace
 10
-36.47278163930423
 20
-40.58203120568235
 30
0.0
 11
-34.85725778339201
 21
-40.58203120568235
 31
0.0
 12
-36.47278163930423
 22
-48.65965048524996
 32
0.0
 13
-34.85725778339201
 23
-48.65965048524996
 33
0.0
  0
SOLID
  5
1C2F
330
962
100
AcDbEntity
  8
LOGO
 62
     5
100
AcDbTrace
 10
-42.63774641580176
 20
-48.65965048524996
 30
0.0
 11
-41.02222255988908
 21
-48.65965048524996
 31
0.0
 12
-36.47278163930423
 22
-40.58203120568235
 32
0.0
 13
-34.85725778339201
 23
-40.58203120568235
 33
0.0
  0
SOLID
  5
1C30
330
962
100
AcDbEntity
  8
LOGO
 62
     5
100
AcDbTrace
 10
-42.63774641580176
 20
-40.58203120568235
 30
0.0
 11
-41.02222255988908
 21
-40.58203120568235
 31
0.0
 12
-42.63774641580176
 22
-48.65965048524996
 32
0.0
 13
-41.02222255988908
 23
-48.65965048524996
 33
0.0
  0
SOLID
  5
1C31
330
962
100
AcDbEntity
  8
LOGO
 62
     5
100
AcDbTrace
 10
-48.80271119229701
 20
-48.65965048524996
 30
0.0
 11
-47.18718733638161
 21
-48.65965048524996
 31
0.0
 12
-42.63774641580176
 22
-40.58203120568235
 32
0.0
 13
-41.02222255988908
 23
-40.58203120568235
 33
0.0
  0
SOLID
  5
1C32
330
962
100
AcDbEntity
  8
LOGO
 62
     5
100
AcDbTrace
 10
-1.441995791591125
 20
-43.81307891750996
 30
0.0
 11
0.1735280643208625
 21
-43.81307891750996
 31
0.0
 12
-1.441995791591125
 22
-48.65965048525303
 32
0.0
 13
0.1735280643208625
 23
-48.65965048525303
 33
0.0
  0
SOLID
  5
1C33
330
962
100
AcDbEntity
  8
LOGO
 62
     5
100
AcDbTrace
 10
-6.288567359331409
 20
-43.81307891750996
 30
0.0
 11
-4.673043503418966
 21
-43.81307891750996
 31
0.0
 12
-6.288567359331409
 22
-48.65965048524996
 32
0.0
 13
-4.673043503418966
 23
-48.65965048524996
 33
0.0
  0
SOLID
  5
1C34
330
962
100
AcDbEntity
  8
LOGO
 62
     5
100
AcDbTrace
 10
-11.13513892707146
 20
-40.58203120568235
 30
0.0
 11
-9.519615071159023
 21
-40.58203120568235
 31
0.0
 12
-11.13513892707146
 22
-48.65965048524996
 32
0.0
 13
-9.519615071159023
 23
-48.65965048524996
 33
0.0
  0
SOLID
  5
1C35
330
962
100
AcDbEntity
  8
LOGO
 62
     5
100
AcDbTrace
 10
-14.63549446568094
 20
-38.15874542181092
 30
0.0
 11
-13.01997060976873
 21
-38.15874542181092
 31
0.0
 12
-14.63549446568094
 22
-48.65965048524996
 32
0.0
 13
-13.01997060976873
 23
-48.65965048524996
 33
0.0
  0
POLYLINE
  5
1C36
330
962
100
AcDbEntity
  8
LOGO
 62
     5
100
AcDb2dPolyline
 66
     1
 10
0.0
 20
0.0
 30
0.0
 70
     1
 40
1.618112836452077
 41
1.618112836452077
  0
VERTEX
  5
204F
330
1C36
100
AcDbEntity
  8
LOGO
 62
     5
100
AcDbVertex
100
AcDb2dVertex
 10
-20.29484437007226
 20
-44.62084084546686
 30
0.0
 42
1.0
  0
VERTEX
  5
2050
330
1C36
100
AcDbEntity
  8
LOGO
 62
     5
100
AcDbVertex
100
AcDb2dVertex
 10
-13.82239302426387
 20
-44.62084084546686
 30
0.0
 42
1.0
  0
SEQEND
  5
2051
330
1C36
100
AcDbEntity
  8
LOGO
 62
     5
  0
SOLID
  5
1C37
330
962
100
AcDbEntity
  8
LOGO
 62
     5
100
AcDbTrace
 10
-24.59794542794588
 20
-43.81307891750996
 30
0.0
 11
-22.98242157203071
 21
-43.81307891750996
 31
0.0
 12
-24.59794542794588
 22
-48.65965048524996
 32
0.0
 13
-22.98242157203071
 23
-48.65965048524996
 33
0.0
  0
SOLID
  5
1C38
330
962
100
AcDbEntity
  8
LOGO
 62
     5
100
AcDbTrace
 10
-29.44451699568549
 20
-40.58203120568235
 30
0.0
 11
-27.82899313977327
 21
-40.58203120568235
 31
0.0
 12
-29.44451699568549
 22
-48.65965048524996
 32
0.0
 13
-27.82899313977327
 23
-48.65965048524996
 33
0.0
  0
POLYLINE
  5
1C39
330
962
100
AcDbEntity
  8
LOGO
 62
     5
100
AcDb2dPolyline
 66
     1
 10
0.0
 20
0.0
 30
0.0
 40
1.618112836452077
 41
1.618112836452077
  0
VERTEX
  5
2052
330
1C39
100
AcDbEntity
  8
LOGO
 62
     5
100
AcDbVertex
100
AcDb2dVertex
 10
-23.78630002918112
 20
-43.81307891750996
 30
0.0
 42
1.0
  0
VERTEX
  5
2053
330
1C39
100
AcDbEntity
  8
LOGO
 62
     5
100
AcDbVertex
100
AcDb2dVertex
 10
-28.64063853853759
 20
-43.81307891750996
 30
0.0
 42
1.0
  0
SEQEND
  5
2054
330
1C39
100
AcDbEntity
  8
LOGO
 62
     5
  0
POLYLINE
  5
1C3A
330
962
100
AcDbEntity
  8
LOGO
 62
     5
100
AcDb2dPolyline
 66
     1
 10
0.0
 20
0.0
 30
0.0
 40
1.618112836452077
 41
1.618112836452077
  0
VERTEX
  5
2055
330
1C3A
100
AcDbEntity
  8
LOGO
 62
     5
100
AcDbVertex
100
AcDb2dVertex
 10
-0.6303503928270402
 20
-43.81307891750996
 30
0.0
 42
1.0
  0
VERTEX
  5
2056
330
1C3A
100
AcDbEntity
  8
LOGO
 62
     5
100
AcDbVertex
100
AcDb2dVertex
 10
-5.484688902183506
 20
-43.81307891750996
 30
0.0
 42
1.0
  0
SEQEND
  5
2057
330
1C3A
100
AcDbEntity
  8
LOGO
 62
     5
  0
POLYLINE
  5
1C3B
330
962
100
AcDbEntity
  8
LOGO
 62
     5
100
AcDb2dPolyline
 66
     1
 10
0.0
 20
0.0
 30
0.0
 40
1.618112836452077
 41
1.618112836452077
  0
VERTEX
  5
2058
330
1C3B
100
AcDbEntity
  8
LOGO
 62
     5
100
AcDbVertex
100
AcDb2dVertex
 10
-5.476921960567096
 20
-43.81307891750996
 30
0.0
 42
1.0
  0
VERTEX
  5
2059
330
1C3B
100
AcDbEntity
  8
LOGO
 62
     5
100
AcDbVertex
100
AcDb2dVertex
 10
-10.33126046992333
 20
-43.81307891750996
 30
0.0
 42
1.0
  0
SEQEND
  5
205A
330
1C3B
100
AcDbEntity
  8
LOGO
 62
     5
  0
CIRCLE
  5
1C3C
330
962
100
AcDbEntity
  8
LOGO
  6
CONTINUOUS
 62
     6
100
AcDbCircle
 10
133.6753790182915
 20
-17.98710794723985
 30
0.0
 40
3.686198218306631
  0
CIRCLE
  5
1C3D
330
962
100
AcDbEntity
  8
LOGO
  6
CONTINUOUS
 62
     6
100
AcDbCircle
 10
133.6753790182915
 20
-17.98710794723985
 30
0.0
 40
6.29139106424289
  0
LINE
  5
1C3E
330
962
100
AcDbEntity
  8
LOGO
 62
     1
100
AcDbLine
 10
185.8491330537951
 20
-28.84586235561236
 30
0.0
 11
26.92733661653778
 21
-28.84586235561236
 31
0.0
  0
LINE
  5
1C3F
330
962
100
AcDbEntity
  8
LOGO
 62
     1
100
AcDbLine
 10
185.8491330537951
 20
-7.174708295986334
 30
0.0
 11
26.92733661653778
 21
-7.174708295986334
 31
0.0
  0
TEXT
  5
1C40
330
962
100
AcDbEntity
  8
LOGO
 62
     6
100
AcDbText
 10
129.8671050426818
 20
-1.756919781079821
 30
0.0
 40
10.83557702981302
  1
1 : 1
  7
CHINESET
 72
     1
 11
148.9583598094952
 21
3.660868733826688
 31
0.0
100
AcDbText
 73
     2
  0
TEXT
  5
1C41
330
962
100
AcDbEntity
  8
LOGO
 62
     6
100
AcDbText
 10
129.8671050426818
 20
-45.09922790033191
 30
0.0
 40
10.83557702981302
  1
m/m
  7
CHINESET
 72
     1
 11
148.9583598094952
 21
-39.6814393854254
 31
0.0
100
AcDbText
 73
     2
  0
SOLID
  5
1C42
330
962
100
AcDbEntity
  8
LOGO
 62
     2
100
AcDbTrace
 10
11.85925832368798
 20
11.92249411151586
 30
0.0
 11
13.79788695078582
 21
11.92249411151277
 31
0.0
 12
11.85925832368798
 22
-32.50441192611484
 32
0.0
 13
13.79788695078582
 23
-32.50441192611484
 33
0.0
  0
SOLID
  5
1C43
330
962
100
AcDbEntity
  8
LOGO
 62
     5
100
AcDbTrace
 10
13.79788695078582
 20
-32.50441192611484
 30
0.0
 11
18.48290613293511
 21
-32.50441192611484
 31
0.0
 12
13.79788695078582
 22
11.92249411151277
 32
0.0
 13
18.48290613293511
 23
11.92249411151586
 33
0.0
  0
SOLID
  5
1C44
330
962
100
AcDbEntity
  8
LOGO
 62
     5
100
AcDbTrace
 10
11.85925832368798
 20
8.368341628503912
 30
0.0
 11
7.174239141538237
 21
-8.810062039379943
 31
0.0
 12
11.85925832368798
 22
-32.50441192611484
 32
0.0
 13
7.174239141538237
 23
-32.50441192611484
 33
0.0
  0
LINE
  5
1C45
330
962
100
AcDbEntity
  8
LOGO
 62
     1
100
AcDbLine
 10
26.92733661653778
 20
-50.5170164152384
 30
0.0
 11
26.92733661653778
 21
14.49644576363971
 31
0.0
  0
LINE
  5
1C46
330
962
100
AcDbEntity
  8
LOGO
 62
     1
100
AcDbLine
 10
113.6119528550418
 20
-50.5170164152384
 30
0.0
 11
113.6119528550418
 21
14.49644576363971
 31
0.0
  0
TEXT
  5
1C47
330
962
100
AcDbEntity
  8
LOGO
 62
     6
100
AcDbText
 10
40.70883615133118
 20
-45.09922790033191
 30
0.0
 40
10.83557702981302
  1
單位 Unit:
 41
0.9
  7
CHINESET
 72
     4
 11
70.26964473578982
 21
-39.6814393854254
 31
0.0
100
AcDbText
  0
SOLID
  5
1C48
330
962
100
AcDbEntity
  8
LOGO
 62
     5
100
AcDbTrace
 10
16.86738227702289
 20
-43.81307891750996
 30
0.0
 11
18.48290613293511
 21
-43.81307891751027
 31
0.0
 12
16.86738227702289
 22
-48.65965048524996
 32
0.0
 13
18.48290613293511
 23
-48.65965048524996
 33
0.0
  0
SOLID
  5
1C49
330
962
100
AcDbEntity
  8
LOGO
 62
     5
100
AcDbTrace
 10
12.02081070927988
 20
-48.65965048524996
 30
0.0
 11
13.63633456519505
 21
-48.65965048524996
 31
0.0
 12
12.02081070927988
 22
-40.58203120568235
 32
0.0
 13
13.63633456519505
 23
-40.58203120568235
 33
0.0
  0
SOLID
  5
1C4A
330
962
100
AcDbEntity
  8
LOGO
 62
     5
100
AcDbTrace
 10
8.520455170674722
 20
-40.58203120568235
 30
0.0
 11
10.13597902658716
 21
-40.58203120568235
 31
0.0
 12
8.520455170674722
 22
-48.65965048524996
 32
0.0
 13
10.13597902658716
 23
-48.65965048524996
 33
0.0
  0
LINE
  5
1C4B
330
962
100
AcDbEntity
  8
LOGO
 62
     5
100
AcDbLine
 10
18.48290613293511
 20
-48.65965048524996
 30
0.0
 11
18.48290613293511
 21
-43.81307891750996
 31
0.0
  0
POLYLINE
  5
1C4C
330
962
100
AcDbEntity
  8
LOGO
 62
     5
100
AcDb2dPolyline
 66
     1
 10
0.0
 20
0.0
 30
0.0
 70
     1
 40
1.618112836452077
 41
1.618112836452077
  0
VERTEX
  5
205B
330
1C4C
100
AcDbEntity
  8
LOGO
 62
     5
100
AcDbVertex
100
AcDb2dVertex
 10
2.861105266282038
 20
-44.62084084546686
 30
0.0
 42
1.0
  0
VERTEX
  5
205C
330
1C4C
100
AcDbEntity
  8
LOGO
 62
     5
100
AcDbVertex
100
AcDb2dVertex
 10
9.333556612090205
 20
-44.62084084546686
 30
0.0
 42
1.0
  0
SEQEND
  5
205D
330
1C4C
100
AcDbEntity
  8
LOGO
 62
     5
  0
CIRCLE
  5
1C4D
330
962
100
AcDbEntity
  8
LOGO
 62
     5
100
AcDbCircle
 10
6.097330939187031
 20
-44.62084084546615
 30
0.0
 40
2.423285783870632
  0
POLYLINE
  5
1C4E
330
962
100
AcDbEntity
  8
LOGO
 62
     5
100
AcDb2dPolyline
 66
     1
 10
0.0
 20
0.0
 30
0.0
 70
     1
  0
VERTEX
  5
205E
330
1C4E
100
AcDbEntity
  8
LOGO
 62
     5
100
AcDbVertex
100
AcDb2dVertex
 10
3.674045155316207
 20
-44.62084084546618
 30
0.0
 42
1.000000057330635
  0
VERTEX
  5
205F
330
1C4E
100
AcDbEntity
  8
LOGO
 62
     5
100
AcDbVertex
100
AcDb2dVertex
 10
8.520616723058083
 20
-44.62084084546618
 30
0.0
 42
1.000000057330635
  0
SEQEND
  5
2060
330
1C4E
100
AcDbEntity
  8
LOGO
 62
     5
  0
POLYLINE
  5
1C4F
330
962
100
AcDbEntity
  8
LOGO
 62
     5
100
AcDb2dPolyline
 66
     1
 10
0.0
 20
0.0
 30
0.0
 40
1.618112836452077
 41
1.618112836452077
  0
VERTEX
  5
2061
330
1C4F
100
AcDbEntity
  8
LOGO
 62
     5
100
AcDbVertex
100
AcDb2dVertex
 10
17.67902767578743
 20
-43.81307891750996
 30
0.0
 42
1.0
  0
VERTEX
  5
2062
330
1C4F
100
AcDbEntity
  8
LOGO
 62
     5
100
AcDbVertex
100
AcDb2dVertex
 10
12.82468916643097
 20
-43.81307891750996
 30
0.0
 42
1.0
  0
SEQEND
  5
2063
330
1C4F
100
AcDbEntity
  8
LOGO
 62
     5
  0
TEXT
  5
1C50
330
962
100
AcDbEntity
  8
LOGO
 62
     6
100
AcDbText
 10
39.64946500421999
 20
-23.27565410148235
 30
0.0
 40
10.83557702981302
  1
投影 View:
 41
0.9
  7
CHINESET
 72
     4
 11
70.26964473578982
 21
-18.01028532579934
 31
0.0
100
AcDbText
  0
TEXT
  5
1C51
330
962
100
AcDbEntity
  8
LOGO
 62
     6
100
AcDbText
 10
35.86185035495947
 20
-1.751587312069087
 30
0.0
 40
10.83557702981302
  1
比例 Scale:
 41
0.9
  7
CHINESET
 72
     4
 11
70.26964473578982
 21
3.660868733826688
 31
0.0
100
AcDbText
  0
LINE
  5
1C52
330
962
100
AcDbEntity
  8
LOGO
 62
     1
100
AcDbLine
 10
185.8491330537951
 20
-93.85932453449049
 30
0.0
 11
185.8491330537951
 21
14.49644576363971
 31
0.0
  0
LINE
  5
1C53
330
962
100
AcDbEntity
  8
LOGO
  6
CONTINUOUS
 62
     6
100
AcDbLine
 10
153.4880606448193
 20
-21.67330616554644
 30
0.0
 11
173.2112104881425
 21
-24.2784990114827
 31
0.0
  0
LINE
  5
1C54
330
962
100
AcDbEntity
  8
LOGO
  6
CONTINUOUS
 62
     6
100
AcDbLine
 10
153.4880606448193
 20
-14.30090972893315
 30
0.0
 11
173.2112104881425
 21
-11.6957168829969
 31
0.0
  0
LINE
  5
1C55
330
962
100
AcDbEntity
  8
LOGO
 62
     6
100
AcDbLine
 10
153.4880606448195
 20
-21.67330616554644
 30
0.0
 11
153.4880606448193
 21
-14.30090972893315
 31
0.0
  0
LINE
  5
1C56
330
962
100
AcDbEntity
  8
LOGO
 62
     6
100
AcDbLine
 10
173.2112104881425
 20
-24.2784990114827
 30
0.0
 11
173.2112104881425
 21
-11.6957168829969
 31
0.0
  0
LINE
  5
1C57
330
962
100
AcDbEntity
  8
LOGO
 62
     6
100
AcDbLine
 10
414.348584244284
 20
-84.8296770096463
 30
0.0
 11
342.1114040455306
 21
-84.82967700964641
 31
0.0
  0
LINE
  5
1C58
330
962
100
AcDbEntity
  8
LOGO
 62
     6
100
AcDbLine
 10
414.348584244284
 20
-45.0992279003319
 30
0.0
 11
342.1114040455306
 21
-45.0992279003319
 31
0.0
  0
LINE
  5
1C59
330
962
100
AcDbEntity
  8
LOGO
 62
     6
100
AcDbLine
 10
421.5723022641594
 20
-28.84586235561236
 30
0.0
 11
334.8876860256552
 21
-28.84586235561236
 31
0.0
  0
LINE
  5
1C5A
330
962
100
AcDbEntity
  8
LOGO
 62
     6
100
AcDbLine
 10
421.5723022641594
 20
3.660868733826688
 30
0.0
 11
334.8876860256552
 21
3.660868733826688
 31
0.0
  0
TEXT
  5
1C5B
330
962
100
AcDbEntity
  8
LOGO
  6
CONTINUOUS
 62
     7
100
AcDbText
 10
343.8313369074056
 20
-21.62214433573702
 30
0.0
 40
18.05929504968837
  1
MCG3
  7
CHINESET
 72
     1
 11
378.2299941449073
 21
-12.59249681089284
 31
0.0
100
AcDbText
 73
     2
  0
LINE
  5
1C5C
330
962
100
AcDbEntity
  8
LOGO
 62
     6
100
AcDbLine
 10
334.8876860256552
 20
3.660868733826688
 30
0.0
 11
334.8876860256552
 21
-28.84586235561236
 31
0.0
  0
LINE
  5
1C5D
330
962
100
AcDbEntity
  8
LOGO
 62
     6
100
AcDbLine
 10
342.1114040455306
 20
-45.0992279003319
 30
0.0
 11
342.1114040455306
 21
-84.82967700964641
 31
0.0
  0
TEXT
  5
1C5E
330
962
100
AcDbEntity
  8
LOGO
  6
CONTINUOUS
 62
     6
100
AcDbText
 10
361.0306655261565
 20
-80.31485324722423
 30
0.0
 40
9.029647524844184
  1
Model
  7
CHINESET
 72
     4
 11
378.2299941449073
 21
-75.80002948480213
 31
0.0
100
AcDbText
  0
TEXT
  5
1C5F
330
962
100
AcDbEntity
  8
LOGO
 62
     6
100
AcDbText
 10
363.7825581051566
 20
-64.59473460357815
 30
0.0
 40
14.44743603975069
  1
型式
  7
CHINESET
 72
     4
 11
378.2299941449073
 21
-57.74073443511375
 31
0.0
100
AcDbText
  0
LINE
  5
1C60
330
962
100
AcDbEntity
  8
LOGO
 62
     6
100
AcDbLine
 10
378.2299941449073
 20
-28.84586235561236
 30
0.0
 11
378.2299941449073
 21
-45.0992279003319
 31
0.0
  0
LINE
  5
1C61
330
962
100
AcDbEntity
  8
LOGO
 62
     6
100
AcDbLine
 10
421.5723022641595
 20
3.660868733826688
 30
0.0
 11
421.5723022641595
 21
-28.84586235561236
 31
0.0
  0
LINE
  5
1C62
330
962
100
AcDbEntity
  8
LOGO
 62
     6
100
AcDbLine
 10
414.3485842442841
 20
-45.0992279003319
 30
0.0
 11
414.3485842442841
 21
-84.8296770096463
 31
0.0
  0
TEXT
  5
1C63
330
962
100
AcDbEntity
  8
LOGO
  6
CONTINUOUS
 62
     7
100
AcDbText
 10
557.7532954075357
 20
-21.82693787956706
 30
0.0
 40
18.05929504968837
  1
?
  7
CHINESET
 72
     1
 11
562.4831107776921
 21
-12.79729035472287
 31
0.0
100
AcDbText
 73
     2
  0
TEXT
  5
1C64
330
962
100
AcDbEntity
  8
LOGO
  6
CONTINUOUS
 62
     6
100
AcDbText
 10
544.4582139200674
 20
-80.31485324722451
 30
0.0
 40
9.029647524844184
  1
Stroke
 41
0.8
  7
CHINESET
 72
     4
 11
560.7975761078807
 21
-75.80002948480242
 31
0.0
100
AcDbText
  0
LINE
  5
1C65
330
962
100
AcDbEntity
  8
LOGO
 62
     6
100
AcDbLine
 10
590.8815049686084
 20
3.660868733826475
 30
0.0
 11
530.7136472471531
 21
3.660868733826475
 31
0.0
  0
TEXT
  5
1C66
330
962
100
AcDbEntity
  8
LOGO
 62
     6
100
AcDbText
 10
547.7948836721051
 20
-64.96445245498941
 30
0.0
 40
14.44743603975069
  1
行程
 41
0.9
  7
CHINESET
 72
     4
 11
560.7975761078807
 21
-57.74073443511406
 31
0.0
100
AcDbText
  0
LINE
  5
1C67
330
962
100
AcDbEntity
  8
LOGO
 62
     6
100
AcDbLine
 10
587.2696459586706
 20
-84.82967700964653
 30
0.0
 11
534.3255062570908
 21
-84.82967700964664
 31
0.0
  0
LINE
  5
1C68
330
962
100
AcDbEntity
  8
LOGO
 62
     6
100
AcDbLine
 10
590.8815049686084
 20
-28.84586235561258
 30
0.0
 11
530.7136472471531
 21
-28.84586235561258
 31
0.0
  0
LINE
  5
1C69
330
962
100
AcDbEntity
  8
LOGO
 62
     6
100
AcDbLine
 10
587.2696459586706
 20
-45.0992279003321
 30
0.0
 11
534.3255062570908
 21
-45.0992279003321
 31
0.0
  0
LINE
  5
1C6A
330
962
100
AcDbEntity
  8
LOGO
 62
     6
100
AcDbLine
 10
505.137902584387
 20
3.660868733826887
 30
0.0
 11
505.137902584387
 21
-28.84586235561238
 31
0.0
  0
LINE
  5
1C6B
330
962
100
AcDbEntity
  8
LOGO
 62
     6
100
AcDbLine
 10
447.1480469269258
 20
3.660868733826688
 30
0.0
 11
447.1480469269258
 21
-28.84586235561238
 31
0.0
  0
LINE
  5
1C6C
330
962
100
AcDbEntity
  8
LOGO
 62
     6
100
AcDbLine
 10
530.7136472471533
 20
3.660868733826475
 30
0.0
 11
530.7136472471531
 21
-28.84586235561258
 31
0.0
  0
LINE
  5
1C6D
330
962
100
AcDbEntity
  8
LOGO
 62
     6
100
AcDbLine
 10
505.137902584387
 20
-84.8296770096463
 30
0.0
 11
447.1480469269258
 21
-84.82967700964641
 31
0.0
  0
LINE
  5
1C6E
330
962
100
AcDbEntity
  8
LOGO
 62
     6
100
AcDbLine
 10
505.137902584387
 20
-28.84586235561238
 30
0.0
 11
447.1480469269258
 21
-28.84586235561238
 31
0.0
  0
LINE
  5
1C6F
330
962
100
AcDbEntity
  8
LOGO
 62
     6
100
AcDbLine
 10
505.137902584387
 20
-45.0992279003319
 30
0.0
 11
447.1480469269258
 21
-45.0992279003319
 31
0.0
  0
LINE
  5
1C70
330
962
100
AcDbEntity
  8
LOGO
 62
     6
100
AcDbLine
 10
447.1480469269258
 20
-45.0992279003319
 30
0.0
 11
447.1480469269258
 21
-84.8296770096463
 31
0.0
  0
TEXT
  5
1C71
330
962
100
AcDbEntity
  8
LOGO
  6
CONTINUOUS
 62
     6
100
AcDbText
 10
464.9634111534685
 20
-80.31485324722435
 30
0.0
 40
9.029647524844184
  1
Bore
 41
0.8
  7
CHINESET
 72
     4
 11
476.1429747556564
 21
-75.80002948480225
 31
0.0
100
AcDbText
  0
TEXT
  5
1C72
330
962
100
AcDbEntity
  8
LOGO
 62
     6
100
AcDbText
 10
462.3276140426448
 20
-64.96445245498922
 30
0.0
 40
14.44743603975069
  1
內徑
 41
0.9
  7
CHINESET
 72
     4
 11
476.1429747556564
 21
-57.74073443511387
 31
0.0
100
AcDbText
  0
LINE
  5
1C73
330
962
100
AcDbEntity
  8
LOGO
 62
     6
100
AcDbLine
 10
476.1429739228178
 20
-28.84586235561238
 30
0.0
 11
476.1429739228178
 21
-45.0992279003319
 31
0.0
  0
LINE
  5
1C74
330
962
100
AcDbEntity
  8
LOGO
 62
     6
100
AcDbLine
 10
505.137902584387
 20
-45.0992279003319
 30
0.0
 11
505.137902584387
 21
-84.82967700964625
 31
0.0
  0
LINE
  5
1C75
330
962
100
AcDbEntity
  8
LOGO
 62
     6
100
AcDbLine
 10
534.3255062570908
 20
-45.0992279003321
 30
0.0
 11
534.3255062570908
 21
-84.82967700964664
 31
0.0
  0
LINE
  5
1C76
330
962
100
AcDbEntity
  8
LOGO
 62
     6
100
AcDbLine
 10
505.137902584387
 20
3.660868733826887
 30
0.0
 11
447.1480469269258
 21
3.660868733826688
 31
0.0
  0
LINE
  5
1C77
330
962
100
AcDbEntity
  8
LOGO
  6
CONTINUOUS
 62
     7
100
AcDbLine
 10
427.1727235036455
 20
-12.70764078968946
 30
0.0
 11
441.5265098348295
 21
-12.70764078968946
 31
0.0
  0
TEXT
  5
1C78
330
962
100
AcDbEntity
  8
LOGO
  6
CONTINUOUS
 62
     7
100
AcDbText
 10
463.2090800995297
 20
-21.82693787956686
 30
0.0
 40
18.05929504968837
  1
80
  7
CHINESET
 72
     1
 11
477.8285094254679
 21
-12.79729035472267
 31
0.0
100
AcDbText
 73
     2
  0
LINE
  5
1C79
330
962
100
AcDbEntity
  8
LOGO
  6
CONTINUOUS
 62
     7
100
AcDbLine
 10
510.7383238238728
 20
-12.70764078968926
 30
0.0
 11
525.092110155057
 21
-12.70764078968926
 31
0.0
  0
LINE
  5
1C7A
330
962
100
AcDbEntity
  8
LOGO
 62
     6
100
AcDbLine
 10
616.178597263462
 20
3.660868733826475
 30
0.0
 11
616.178597263462
 21
-28.84586235561279
 31
0.0
  0
LINE
  5
1C7B
330
962
100
AcDbEntity
  8
LOGO
 62
     6
100
AcDbLine
 10
590.8815049686084
 20
3.660868733826475
 30
0.0
 11
590.8815049686084
 21
-28.84586235561258
 31
0.0
  0
LINE
  5
1C7C
330
962
100
AcDbEntity
  8
LOGO
 62
     6
100
AcDbLine
 10
587.2696459586706
 20
-45.0992279003321
 30
0.0
 11
587.2696459586706
 21
-84.97948714717674
 31
0.0
  0
LINE
  5
1C7D
330
962
100
AcDbEntity
  8
LOGO
 62
     6
100
AcDbLine
 10
561.5625350510308
 20
-28.84586235561258
 30
0.0
 11
561.5625350510308
 21
-45.0992279003321
 31
0.0
  0
LINE
  5
1C7E
330
962
100
AcDbEntity
  8
LOGO
 62
     6
100
AcDbLine
 10
608.8935871955441
 20
-45.09922790033213
 30
0.0
 11
608.8935871955441
 21
-84.82967700964653
 31
0.0
  0
LINE
  5
1C7F
330
962
100
AcDbEntity
  8
LOGO
 62
     6
100
AcDbLine
 10
632.6235381659589
 20
-28.84586235561279
 30
0.0
 11
632.6235381659589
 21
-45.09922790033213
 31
0.0
  0
LINE
  5
1C80
330
962
100
AcDbEntity
  8
LOGO
  6
CONTINUOUS
 62
     7
100
AcDbLine
 10
596.4819262080943
 20
-12.70764078968967
 30
0.0
 11
610.8357125392785
 21
-12.70764078968967
 31
0.0
  0
TEXT
  5
1C81
330
962
100
AcDbEntity
  8
LOGO
  6
CONTINUOUS
 62
     7
100
AcDbText
 10
627.8309979381077
 20
-21.82693787956727
 30
0.0
 40
18.05929504968837
  1
D/B
  7
CHINESET
 72
     1
 11
652.3400412198277
 21
-12.79729035472308
 31
0.0
100
AcDbText
 73
     2
  0
LINE
  5
1C82
330
962
100
AcDbEntity
  8
LOGO
 62
     6
100
AcDbLine
 10
691.5747554592362
 20
3.660868733826475
 30
0.0
 11
691.5747554592362
 21
-28.84586235561279
 31
0.0
  0
LINE
  5
1C83
330
962
100
AcDbEntity
  8
LOGO
 62
     1
100
AcDbLine
 10
891.4122083234451
 20
-93.85932453449049
 30
0.0
 11
891.4122083234451
 21
14.49644576363971
 31
0.0
  0
TEXT
  5
1C84
330
962
100
AcDbEntity
  8
LOGO
 62
     6
100
AcDbText
 10
617.759876626882
 20
-63.93249273786427
 30
0.0
 40
14.44743603975069
  1
用途/導桿軸承型式
 41
0.9
  7
CHINESET
 72
     4
 11
676.7170252158826
 21
-57.74073443511397
 31
0.0
100
AcDbText
  0
LINE
  5
1C85
330
962
100
AcDbEntity
  8
LOGO
 62
     6
100
AcDbLine
 10
750.5404632362211
 20
-45.09922790033213
 30
0.0
 11
750.5404632362211
 21
-84.82967700964648
 31
0.0
  0
TEXT
  5
1E33
330
962
100
AcDbEntity
  8
0
100
AcDbText
 10
499.9465052360664
 20
84.80047507536164
 30
0.0
 40
15.0
  1
註:MCG3-D,%%CD為28;MCG3-B,%%C為20
  7
DAYUS
100
AcDbText
  0
TEXT
  5
1E34
330
962
100
AcDbEntity
  8
0
100
AcDbText
 10
530.1318972874887
 20
57.10577272749469
 30
0.0
 40
15.0
  1
MCG3-D,L為0;MCG-B,L為25
  7
DAYUS
100
AcDbText
  0
TEXT
  5
1E35
330
962
100
AcDbEntity
  8
0
 62
     6
100
AcDbText
 10
1.970542693453353
 20
741.2483448807911
 30
0.0
 40
20.0
  1
MCG3-80-?-D/B
  7
DAYUS
100
AcDbText
  0
TEXT
  5
1E7C
330
962
100
AcDbEntity
  8
0
100
AcDbText
 10
527.8931368738295
 20
30.68011131655271
 30
0.0
 40
15.0
  1
本圖為零行程
  7
DAYUS
100
AcDbText
  0
ENDSEC
  0
SECTION
  2
OBJECTS
  0
DICTIONARY
  5
950
330
0
100
AcDbDictionary
  3
ACAD_GROUP
350
951
  3
ACAD_LAYOUT
350
95D
  3
ACAD_MLINESTYLE
350
95A
  3
ACAD_PLOTSETTINGS
350
95C
  3
ACADDIM
350
1395
  3
ACMDICTIONARY
350
1FAA
  3
AMG
350
1F92
  3
DWGPROPS
350
1FAD
1001
ACAD
1000
TREAT_AS_HARD
1070
     0
  0
DICTIONARY
  5
A28
330
962
100
AcDbDictionary
  3
ACAD_INDEX
350
1FE7
  3
ACAD_LAYOUTSELFREF
350
204E
1001
ACAD
1000
TREAT_AS_HARD
1070
     1
  0
DICTIONARY
  5
A2A
330
95E
100
AcDbDictionary
  3
ACAD_LAYOUTSELFREF
350
204D
1001
ACAD
1000
TREAT_AS_HARD
1070
     1
  0
DICTIONARY
  5
951
102
{ACAD_REACTORS
330
950
102
}
330
950
100
AcDbDictionary
1001
ACAD
1000
TREAT_AS_HARD
1070
     0
  0
DICTIONARY
  5
95D
102
{ACAD_REACTORS
330
950
102
}
330
950
100
AcDbDictionary
1001
ACAD
1000
TREAT_AS_HARD
1070
     0
  0
DICTIONARY
  5
95A
102
{ACAD_REACTORS
330
950
102
}
330
950
100
AcDbDictionary
  3
STANDARD
350
95B
1001
ACAD
1000
TREAT_AS_HARD
1070
     0
  0
DICTIONARY
  5
95C
102
{ACAD_REACTORS
330
950
102
}
330
950
100
AcDbDictionary
1001
ACAD
1000
TREAT_AS_HARD
1070
     0
  0
XRECORD
  5
1395
102
{ACAD_REACTORS
330
950
102
}
330
950
100
AcDbXrecord
 90
   990106
  3

 60
     0
 61
     0
 62
     1
 63
     3
 64
     0
 65
     0
 66
     0
 67
     3
 68
     1
 69
     0
 70
     0
 71
     0
 72
     0
 40
0.0
170
     0
  0
DICTIONARY
  5
1FAA
102
{ACAD_REACTORS
330
950
102
}
330
950
100
AcDbDictionary
  3
ACMSTDDICTIONARY
350
1FB0
1001
ACAD
1000
TREAT_AS_HARD
1070
     0
  0
DICTIONARY
  5
1F92
102
{ACAD_REACTORS
330
950
102
}
330
950
100
AcDbDictionary
  3
ACMGSETTINGS
350
1F93
1001
ACAD
1000
TREAT_AS_HARD
1070
     0
  0
XRECORD
  5
1FAD
102
{ACAD_REACTORS
330
950
102
}
330
950
100
AcDbXrecord
  1
DWGPROPS COOKIE
  2

  3

  4

  6

  7

  8

  9

300
AmdtFileType=84
301
=
302
=
303
=
304
=
305
=
306
=
307
=
308
=
309
=
 40
0.0965364467592593
 41
2451089.381228483
 42
2452643.39324074
  1

 90
        1
  0
DICTIONARY
  5
1FE7
102
{ACAD_REACTORS
330
A28
102
}
330
A28
100
AcDbDictionary
  3
*A1
350
1FE8
1001
ACAD
1000
TREAT_AS_HARD
1070
     0
  0
XRECORD
  5
204E
102
{ACAD_REACTORS
330
A28
102
}
330
A28
100
AcDbXrecord
340
962
  0
XRECORD
  5
204D
102
{ACAD_REACTORS
330
A2A
102
}
330
A2A
100
AcDbXrecord
340
95E
  0
MLINESTYLE
  5
95B
102
{ACAD_REACTORS
330
95A
102
}
330
95A
100
AcDbMlineStyle
  2
STANDARD
 70
     0
  3

 62
   256
 51
90.0
 52
90.0
 71
     2
 49
0.5
 62
   256
  6
BYLAYER
 49
-0.5
 62
   256
  6
BYLAYER
  0
DICTIONARY
  5
1FB0
102
{ACAD_REACTORS
330
1FAA
102
}
330
1FAA
100
AcDbDictionary
1001
ACAD
1000
TREAT_AS_HARD
1070
     0
  0
DICTIONARY
  5
1F93
102
{ACAD_REACTORS
330
1F92
102
}
330
1F92
100
AcDbDictionary
  3
DWGSETTINGS
350
1F94
1001
ACAD
1000
TREAT_AS_HARD
1070
     0
  0
LAYER_INDEX
  5
1FE8
102
{ACAD_REACTORS
330
1FE7
102
}
330
1FE7
100
AcDbIndex
 40
2452705.63030515
100
AcDbLayerIndex
  8
0
360
1FE9
 90
       12
  8
LOGO
360
1FEA
 90
      113
  8
AM_VIS
360
1FEB
 90
      476
  8
AM_7
360
1FEC
 90
      175
  8
AM_4
360
1FED
 90
       16
  8
Defpoints
360
1FEE
 90
        0
  8
dim
360
1FEF
 90
       54
  0
XRECORD
  5
1F94
102
{ACAD_REACTORS
330
1F93
102
}
330
1F93
100
AcDbXrecord
  1
VERSION
140
15.0
  1
PRODUCT
  2
AutoCAD Mechanical 2000
  0
IDBUFFER
  5
1FE9
330
0
100
AcDbIdBuffer
330
1448
330
1449
330
149C
330
149D
330
1537
330
1538
330
1539
330
153A
330
1E33
330
1E34
330
1E35
330
1E7C
  0
IDBUFFER
  5
1FEA
330
0
100
AcDbIdBuffer
330
1C85
330
A80
330
1C16
330
1C17
330
1C18
330
1C19
330
1C1A
330
1C1B
330
1C1C
330
1C1D
330
1C1E
330
1C1F
330
1C20
330
1C21
330
1C22
330
1C23
330
1C24
330
1C25
330
1C26
330
1C27
330
1C28
330
1C29
330
1C2A
330
1C2B
330
1C2C
330
1C2D
330
1C2E
330
1C2F
330
1C30
330
1C31
330
1C32
330
1C33
330
1C34
330
1C35
330
1C36
330
1C37
330
1C38
330
1C39
330
1C3A
330
1C3B
330
1C3C
330
1C3D
330
1C3E
330
1C3F
330
1C40
330
1C41
330
1C42
330
1C43
330
1C44
330
1C45
330
1C46
330
1C47
330
1C48
330
1C49
330
1C4A
330
1C4B
330
1C4C
330
1C4D
330
1C4E
330
1C4F
330
1C50
330
1C51
330
1C52
330
1C53
330
1C54
330
1C55
330
1C56
330
1C57
330
1C58
330
1C59
330
1C5A
330
1C5B
330
1C5C
330
1C5D
330
1C5E
330
1C5F
330
1C60
330
1C61
330
1C62
330
1C63
330
1C64
330
1C65
330
1C66
330
1C67
330
1C68
330
1C69
330
1C6A
330
1C6B
330
1C6C
330
1C6D
330
1C6E
330
1C6F
330
1C70
330
1C71
330
1C72
330
1C73
330
1C74
330
1C75
330
1C76
330
1C77
330
1C78
330
1C79
330
1C7A
330
1C7B
330
1C7C
330
1C7D
330
1C7E
330
1C7F
330
1C80
330
1C81
330
1C82
330
1C83
330
1C84
  0
IDBUFFER
  5
1FEB
330
0
100
AcDbIdBuffer
330
1230
330
1231
330
1232
330
1233
330
1234
330
1235
330
1236
330
1237
330
1238
330
1239
330
123A
330
123B
330
123C
330
123D
330
123E
330
123F
330
1240
330
1241
330
1242
330
1243
330
1244
330
1245
330
1246
330
1247
330
1248
330
1249
330
124A
330
124B
330
124C
330
124D
330
124E
330
124F
330
1250
330
1251
330
1252
330
1253
330
1254
330
1255
330
1256
330
1257
330
1258
330
1259
330
125A
330
125B
330
125C
330
125D
330
125E
330
125F
330
1260
330
1261
330
1262
330
1263
330
1264
330
1265
330
1266
330
1267
330
1268
330
1269
330
126A
330
126B
330
126C
330
126D
330
126E
330
126F
330
1270
330
1271
330
1272
330
1273
330
1274
330
1275
330
1276
330
1277
330
1278
330
1279
330
127A
330
127B
330
127C
330
127D
330
127E
330
127F
330
1280
330
1281
330
1282
330
1283
330
1284
330
1285
330
1286
330
1287
330
1288
330
1289
330
128A
330
128B
330
128C
330
128D
330
128E
330
128F
330
1290
330
1291
330
1292
330
1293
330
1294
330
1295
330
1296
330
1297
330
1298
330
1299
330
129A
330
129B
330
129C
330
129D
330
129E
330
129F
330
12A0
330
12A1
330
12A2
330
12A3
330
12A4
330
12A5
330
12A6
330
12A7
330
12A8
330
12A9
330
12AA
330
12AB
330
12AC
330
12AD
330
12AE
330
12AF
330
12B0
330
12B1
330
12B2
330
12B3
330
12B4
330
12B5
330
12B6
330
12B7
330
12B8
330
12B9
330
12BA
330
12BB
330
12BC
330
12BD
330
12BE
330
12BF
330
12C0
330
12C1
330
12C2
330
12C3
330
12C4
330
12C5
330
12C6
330
12C7
330
12C8
330
12C9
330
12CA
330
12CB
330
12CC
330
12CD
330
12CE
330
12CF
330
12D0
330
12D1
330
12D2
330
12D3
330
12D4
330
12D5
330
12D6
330
12D7
330
12D8
330
12D9
330
12DA
330
12DB
330
12DC
330
12DD
330
12DE
330
12DF
330
12E0
330
12E1
330
12E2
330
12E3
330
12E4
330
12E5
330
12E6
330
12E7
330
12E8
330
12E9
330
12EA
330
12EB
330
12EC
330
12ED
330
12EE
330
12EF
330
12F0
330
12F1
330
12F2
330
12F3
330
12F4
330
12F5
330
12F6
330
12F7
330
12F8
330
12F9
330
12FA
330
12FB
330
12FC
330
12FD
330
12FE
330
12FF
330
1300
330
1301
330
1302
330
1303
330
1304
330
1305
330
1306
330
1307
330
1308
330
1309
330
130A
330
130B
330
130C
330
130D
330
130E
330
130F
330
1310
330
1311
330
1312
330
1313
330
1314
330
1315
330
1316
330
1317
330
1318
330
1319
330
131A
330
131B
330
1140
330
1141
330
1142
330
1143
330
1144
330
1145
330
1146
330
1147
330
1148
330
1149
330
114A
330
114B
330
114C
330
114D
330
114E
330
114F
330
1150
330
1151
330
1152
330
1153
330
1154
330
1155
330
1156
330
1157
330
1158
330
1159
330
115A
330
115B
330
115C
330
115D
330
115E
330
115F
330
1160
330
1161
330
1162
330
1163
330
1164
330
1165
330
1166
330
1167
330
1168
330
1169
330
116A
330
116B
330
116C
330
116D
330
116E
330
116F
330
1170
330
1171
330
1172
330
1173
330
1174
330
1175
330
1176
330
1177
330
1178
330
1179
330
117A
330
117B
330
117C
330
117D
330
117E
330
117F
330
1180
330
1181
330
1182
330
1183
330
1184
330
1185
330
1186
330
1187
330
1188
330
1189
330
118A
330
118B
330
118C
330
118D
330
118E
330
118F
330
1190
330
1191
330
1192
330
1193
330
1194
330
1195
330
1196
330
1197
330
1198
330
1199
330
119A
330
119B
330
119C
330
119D
330
119E
330
119F
330
11A0
330
11A1
330
11A2
330
11A3
330
11A4
330
11A5
330
11A6
330
11A7
330
11A8
330
11A9
330
11AA
330
11AB
330
11AC
330
11AD
330
11AE
330
11AF
330
11B0
330
11B1
330
11B2
330
11B3
330
11B4
330
11B5
330
11B6
330
11B7
330
11B8
330
11B9
330
11BA
330
11BB
330
11BC
330
11BD
330
11BE
330
11BF
330
11C0
330
11C1
330
11C2
330
11C3
330
11C4
330
11C5
330
11C6
330
11C7
330
11C8
330
11C9
330
11CA
330
11CB
330
11CC
330
11CD
330
11CE
330
11CF
330
11D0
330
11D1
330
11D2
330
11D3
330
11D4
330
11D5
330
11D6
330
11D7
330
11D8
330
11D9
330
11DA
330
11DB
330
11DC
330
11DD
330
11DE
330
11DF
330
11E0
330
11E1
330
11E2
330
11E3
330
11E4
330
11E5
330
11E6
330
11E7
330
11E8
330
11E9
330
11EA
330
11EB
330
11EC
330
11ED
330
11EE
330
11EF
330
11F0
330
11F1
330
11F2
330
11F3
330
11F4
330
11F5
330
11F6
330
11F7
330
11F8
330
11F9
330
11FA
330
11FB
330
11FC
330
11FD
330
11FE
330
11FF
330
1200
330
1201
330
1202
330
1203
330
1204
330
1205
330
1206
330
1207
330
1208
330
1209
330
120A
330
120B
330
120C
330
120D
330
120E
330
120F
330
1210
330
1211
330
1212
330
1213
330
1214
330
1215
330
1216
330
1217
330
1218
330
1219
330
121A
330
121B
330
121C
330
121D
330
121E
330
121F
330
1220
330
1221
330
1222
330
1223
330
1224
330
1225
330
1226
330
1227
330
1228
330
1229
330
122A
330
122B
330
122C
330
122D
330
122E
330
122F
  0
IDBUFFER
  5
1FEC
330
0
100
AcDbIdBuffer
330
10F7
330
10F8
330
10F9
330
10FA
330
10FB
330
10FC
330
10FD
330
10FE
330
10FF
330
1100
330
1101
330
1102
330
1103
330
1104
330
1105
330
1106
330
1107
330
1108
330
1109
330
110A
330
110B
330
110C
330
110D
330
110E
330
110F
330
1110
330
1111
330
1112
330
1113
330
1114
330
1115
330
1116
330
1117
330
1118
330
1119
330
111A
330
111B
330
111C
330
111D
330
111E
330
111F
330
1120
330
1121
330
1122
330
1123
330
112E
330
112F
330
1130
330
1131
330
1132
330
1133
330
1134
330
1135
330
1136
330
1137
330
1138
330
1139
330
113A
330
113B
330
113C
330
113D
330
113E
330
113F
330
107F
330
1080
330
1081
330
1082
330
1083
330
1084
330
1085
330
1086
330
1087
330
1088
330
1089
330
108A
330
108B
330
108C
330
108D
330
108E
330
108F
330
1090
330
1091
330
1092
330
1093
330
1094
330
1095
330
1096
330
1097
330
1098
330
1099
330
109A
330
109B
330
109C
330
109D
330
109E
330
109F
330
10A0
330
10A1
330
10A2
330
10A3
330
10A6
330
10A7
330
10A8
330
10A9
330
10AA
330
10AB
330
10AC
330
10AD
330
10AE
330
10AF
330
10B0
330
10B1
330
10B6
330
10B7
330
10B8
330
10B9
330
10BA
330
10BB
330
10BC
330
10BD
330
10BE
330
10BF
330
10C0
330
10C1
330
10C2
330
10C3
330
10C4
330
10C5
330
10C6
330
10C7
330
10C8
330
10C9
330
10CA
330
10CB
330
10CC
330
10CD
330
10CE
330
10CF
330
10D0
330
10D1
330
10D2
330
10D3
330
10D4
330
10D5
330
10D6
330
10D7
330
10D8
330
10D9
330
10DA
330
10DB
330
10DC
330
10DF
330
10E0
330
10E1
330
10E2
330
10E3
330
10E4
330
10E5
330
10E6
330
10E7
330
10E8
330
10E9
330
10EA
330
10EB
330
10EC
330
10ED
330
10EE
330
10EF
330
10F0
330
10F1
330
10F2
330
10F3
330
10F4
330
10F5
330
10F6
  0
IDBUFFER
  5
1FED
330
0
100
AcDbIdBuffer
330
10B2
330
10B3
330
10B4
330
10B5
330
10DD
330
10DE
330
1124
330
1125
330
1126
330
1127
330
1128
330
1129
330
112A
330
112B
330
112C
330
112D
  0
IDBUFFER
  5
1FEE
330
0
100
AcDbIdBuffer
  0
IDBUFFER
  5
1FEF
330
0
100
AcDbIdBuffer
330
14E9
330
14EB
330
14EC
330
14ED
330
14EE
330
14EF
330
131C
330
1344
330
1387
330
1396
330
13A3
330
13C4
330
13F2
330
13FF
330
140C
330
1419
330
1426
330
1468
330
1480
330
1481
330
1483
330
1484
330
1485
330
1486
330
1487
330
1494
330
1495
330
1497
330
1498
330
1499
330
149A
330
149B
330
14B6
330
14B7
330
14B9
330
14BA
330
14BB
330
14BC
330
14BD
330
14BF
330
14C0
330
14C1
330
14C2
330
14C3
330
14C4
330
14C5
330
14D4
330
14D5
330
14D7
330
14D8
330
14D9
330
14DA
330
14DB
330
14E8
  0
ENDSEC
  0
EOF
