  0
SECTION
  2
HEADER
  9
$ACADVER
  1
AC1015
  9
$ACADMAINTVER
 70
    20
  9
$DWGCODEPAGE
  3
ANSI_950
  9
$INSBASE
 10
0.0
 20
0.0
 30
0.0
  9
$EXTMIN
 10
2070.520490797993
 20
1277.49340282484
 30
-0.0056542622816096
  9
$EXTMAX
 10
2401.177989444843
 20
1740.70361483199
 30
185.4472302997114
  9
$LIMMIN
 10
0.0
 20
0.0
  9
$LIMMAX
 10
420.0
 20
297.0
  9
$ORTHOMODE
 70
     1
  9
$REGENMODE
 70
     1
  9
$FILLMODE
 70
     1
  9
$QTEXTMODE
 70
     0
  9
$MIRRTEXT
 70
     1
  9
$LTSCALE
 40
1.0
  9
$ATTMODE
 70
     1
  9
$TEXTSIZE
 40
3.0
  9
$TRACEWID
 40
1.0
  9
$TEXTSTYLE
  7
CHINESET
  9
$CLAYER
  8
0
  9
$CELTYPE
  6
ByLayer
  9
$CECOLOR
 62
   256
  9
$CELTSCALE
 40
1.0
  9
$DISPSILH
 70
     0
  9
$DIMSCALE
 40
1.0
  9
$DIMASZ
 40
3.0
  9
$DIMEXO
 40
1.0
  9
$DIMDLI
 40
10.0
  9
$DIMRND
 40
0.0
  9
$DIMDLE
 40
0.0
  9
$DIMEXE
 40
1.5
  9
$DIMTP
 40
0.1
  9
$DIMTM
 40
0.1
  9
$DIMTXT
 40
3.0
  9
$DIMCEN
 40
0.0
  9
$DIMTSZ
 40
0.0
  9
$DIMTOL
 70
     0
  9
$DIMLIM
 70
     0
  9
$DIMTIH
 70
     0
  9
$DIMTOH
 70
     0
  9
$DIMSE1
 70
     0
  9
$DIMSE2
 70
     0
  9
$DIMTAD
 70
     1
  9
$DIMZIN
 70
     8
  9
$DIMBLK
  1

  9
$DIMASO
 70
     1
  9
$DIMSHO
 70
     1
  9
$DIMPOST
  1

  9
$DIMAPOST
  1
"
  9
$DIMALT
 70
     0
  9
$DIMALTD
 70
     2
  9
$DIMALTF
 40
0.0393701
  9
$DIMLFAC
 40
1.0
  9
$DIMTOFL
 70
     1
  9
$DIMTVP
 40
0.0
  9
$DIMTIX
 70
     0
  9
$DIMSOXD
 70
     0
  9
$DIMSAH
 70
     0
  9
$DIMBLK1
  1

  9
$DIMBLK2
  1

  9
$DIMSTYLE
  2
AM_ISO
  9
$DIMCLRD
 70
   256
  9
$DIMCLRE
 70
   256
  9
$DIMCLRT
 70
   256
  9
$DIMTFAC
 40
0.71
  9
$DIMGAP
 40
1.0
  9
$DIMJUST
 70
     0
  9
$DIMSD1
 70
     0
  9
$DIMSD2
 70
     0
  9
$DIMTOLJ
 70
     0
  9
$DIMTZIN
 70
     8
  9
$DIMALTZ
 70
     0
  9
$DIMALTTZ
 70
     0
  9
$DIMUPT
 70
     0
  9
$DIMDEC
 70
     2
  9
$DIMTDEC
 70
     8
  9
$DIMALTU
 70
     2
  9
$DIMALTTD
 70
     2
  9
$DIMTXSTY
  7
STANDARD
  9
$DIMAUNIT
 70
     0
  9
$DIMADEC
 70
     0
  9
$DIMALTRND
 40
0.0
  9
$DIMAZIN
 70
     2
  9
$DIMDSEP
 70
    46
  9
$DIMATFIT
 70
     3
  9
$DIMFRAC
 70
     0
  9
$DIMLDRBLK
  1

  9
$DIMLUNIT
 70
     2
  9
$DIMLWD
 70
    -1
  9
$DIMLWE
 70
    -1
  9
$DIMTMOVE
 70
     0
  9
$LUNITS
 70
     2
  9
$LUPREC
 70
     2
  9
$SKETCHINC
 40
1.0
  9
$FILLETRAD
 40
2.5
  9
$AUNITS
 70
     0
  9
$AUPREC
 70
     0
  9
$MENU
  1
.
  9
$ELEVATION
 40
0.0
  9
$PELEVATION
 40
0.0
  9
$THICKNESS
 40
0.0
  9
$LIMCHECK
 70
     0
  9
$CHAMFERA
 40
2.5
  9
$CHAMFERB
 40
2.5
  9
$CHAMFERC
 40
20.0
  9
$CHAMFERD
 40
0.0
  9
$SKPOLY
 70
     0
  9
$TDCREATE
 40
2453595.458965741
  9
$TDUCREATE
 40
2453595.125632408
  9
$TDUPDATE
 40
2453942.679550417
  9
$TDUUPDATE
 40
2453942.346217083
  9
$TDINDWG
 40
0.3509528704
  9
$TDUSRTIMER
 40
0.3509528704
  9
$USRTIMER
 70
     1
  9
$ANGBASE
 50
0.0
  9
$ANGDIR
 70
     0
  9
$PDMODE
 70
     0
  9
$PDSIZE
 40
0.0
  9
$PLINEWID
 40
0.0
  9
$SPLFRAME
 70
     0
  9
$SPLINETYPE
 70
     6
  9
$SPLINESEGS
 70
     8
  9
$HANDSEED
  5
1893
  9
$SURFTAB1
 70
     6
  9
$SURFTAB2
 70
     6
  9
$SURFTYPE
 70
     6
  9
$SURFU
 70
     6
  9
$SURFV
 70
     6
  9
$UCSBASE
  2

  9
$UCSNAME
  2

  9
$UCSORG
 10
0.0
 20
0.0
 30
0.0
  9
$UCSXDIR
 10
1.0
 20
0.0
 30
0.0
  9
$UCSYDIR
 10
0.0
 20
1.0
 30
0.0
  9
$UCSORTHOREF
  2

  9
$UCSORTHOVIEW
 70
     0
  9
$UCSORGTOP
 10
0.0
 20
0.0
 30
0.0
  9
$UCSORGBOTTOM
 10
0.0
 20
0.0
 30
0.0
  9
$UCSORGLEFT
 10
0.0
 20
0.0
 30
0.0
  9
$UCSORGRIGHT
 10
0.0
 20
0.0
 30
0.0
  9
$UCSORGFRONT
 10
0.0
 20
0.0
 30
0.0
  9
$UCSORGBACK
 10
0.0
 20
0.0
 30
0.0
  9
$PUCSBASE
  2

  9
$PUCSNAME
  2

  9
$PUCSORG
 10
0.0
 20
0.0
 30
0.0
  9
$PUCSXDIR
 10
1.0
 20
0.0
 30
0.0
  9
$PUCSYDIR
 10
0.0
 20
1.0
 30
0.0
  9
$PUCSORTHOREF
  2

  9
$PUCSORTHOVIEW
 70
     0
  9
$PUCSORGTOP
 10
0.0
 20
0.0
 30
0.0
  9
$PUCSORGBOTTOM
 10
0.0
 20
0.0
 30
0.0
  9
$PUCSORGLEFT
 10
0.0
 20
0.0
 30
0.0
  9
$PUCSORGRIGHT
 10
0.0
 20
0.0
 30
0.0
  9
$PUCSORGFRONT
 10
0.0
 20
0.0
 30
0.0
  9
$PUCSORGBACK
 10
0.0
 20
0.0
 30
0.0
  9
$USERI1
 70
     0
  9
$USERI2
 70
     0
  9
$USERI3
 70
     0
  9
$USERI4
 70
     0
  9
$USERI5
 70
     0
  9
$USERR1
 40
0.0
  9
$USERR2
 40
0.0
  9
$USERR3
 40
0.0
  9
$USERR4
 40
0.0
  9
$USERR5
 40
0.0
  9
$WORLDVIEW
 70
     1
  9
$SHADEDGE
 70
     3
  9
$SHADEDIF
 70
    70
  9
$TILEMODE
 70
     1
  9
$MAXACTVP
 70
    64
  9
$PINSBASE
 10
0.0
 20
0.0
 30
0.0
  9
$PLIMCHECK
 70
     0
  9
$PEXTMIN
 10
1.000000000000000E+20
 20
1.000000000000000E+20
 30
1.000000000000000E+20
  9
$PEXTMAX
 10
-1.000000000000000E+20
 20
-1.000000000000000E+20
 30
-1.000000000000000E+20
  9
$PLIMMIN
 10
0.0
 20
0.0
  9
$PLIMMAX
 10
420.0
 20
297.0
  9
$UNITMODE
 70
     0
  9
$VISRETAIN
 70
     1
  9
$PLINEGEN
 70
     0
  9
$PSLTSCALE
 70
     1
  9
$TREEDEPTH
 70
  3020
  9
$CMLSTYLE
  2
Standard
  9
$CMLJUST
 70
     0
  9
$CMLSCALE
 40
20.0
  9
$PROXYGRAPHICS
 70
     1
  9
$MEASUREMENT
 70
     1
  9
$CELWEIGHT
370
    -1
  9
$ENDCAPS
280
     0
  9
$JOINSTYLE
280
     0
  9
$LWDISPLAY
290
     0
  9
$INSUNITS
 70
     4
  9
$HYPERLINKBASE
  1

  9
$STYLESHEET
  1
彩色出圖.ctb
  9
$XEDIT
290
     1
  9
$CEPSNTYPE
380
     0
  9
$PSTYLEMODE
290
     1
  9
$FINGERPRINTGUID
  2
{9E01B807-D114-4957-B4FC-231A1635D619}
  9
$VERSIONGUID
  2
{F57E3695-5782-4BE4-944D-47989F7125F3}
  9
$EXTNAMES
290
     1
  9
$PSVPSCALE
 40
0.0
  9
$OLESTARTUP
290
     0
  0
ENDSEC
  0
SECTION
  2
CLASSES
  0
CLASS
  1
ACDBDICTIONARYWDFLT
  2
AcDbDictionaryWithDefault
  3
ObjectDBX Classes
 90
        0
280
     0
281
     0
  0
CLASS
  1
ACDBPLACEHOLDER
  2
AcDbPlaceHolder
  3
ObjectDBX Classes
 90
        0
280
     0
281
     0
  0
CLASS
  1
LAYOUT
  2
AcDbLayout
  3
ObjectDBX Classes
 90
        0
280
     0
281
     0
  0
CLASS
  1
ACME_DOCUMENT
  2
AcMeDbDoc
  3
AcMeServices
 90
        0
280
     0
281
     0
  0
CLASS
  1
AMGSETTINGSOBJ
  2
AmgSettingsObj
  3
"AcadM|Product Description: AutoCAD Mechanical 2000|Company: Autodesk"
 90
        0
280
     0
281
     0
  0
CLASS
  1
ACMESCOPE
  2
AcMeScope
  3
AcMeServices
 90
        0
280
     0
281
     0
  0
CLASS
  1
ACMECOMMANDHISTORY
  2
AcMeCommandHistory
  3
AcMeServices
 90
        0
280
     0
281
     0
  0
CLASS
  1
ACIMSYSVARMAN
  2
AcImSysVarManager
  3
AcMeServices
 90
        0
280
     0
281
     0
  0
CLASS
  1
ACIMREALSYSVAR
  2
AcImRealSysVar
  3
AcMeServices
 90
        0
280
     0
281
     0
  0
CLASS
  1
ACIMINTSYSVAR
  2
AcImIntSysVar
  3
AcMeServices
 90
        0
280
     0
281
     0
  0
CLASS
  1
ACMEDRAWINGMAN
  2
AcMeDrawingMan
  3
AcMeServices
 90
        0
280
     0
281
     0
  0
CLASS
  1
ACMEVIEW
  2
AcMeView
  3
AcMeServices
 90
        0
280
     0
281
     0
  0
CLASS
  1
ACDBENTITYCACHE
  2
AcMeEntityCache
  3
AcMeServices
 90
        0
280
     0
281
     0
  0
CLASS
  1
GSMANAGER
  2
AcMeGSManager
  3
AcMeServices
 90
        0
280
     0
281
     0
  0
CLASS
  1
AMDTINTERNALREACTOR
  2
AmdtInternalReactor
  3
AcMeServices
 90
        0
280
     0
281
     0
  0
CLASS
  1
ACMESTATEMGR
  2
AcMeStateMgr
  3
AcMeServices
 90
        0
280
     0
281
     0
  0
CLASS
  1
ACGREFMASTER
  2
AcGrefMaster
  3
AcAttribServices
 90
        0
280
     0
281
     0
  0
CLASS
  1
ACME_DATABASE
  2
AcMeDbDatabase
  3
AcMeServices
 90
        0
280
     0
281
     0
  0
CLASS
  1
ACRFINSADJUSTERMGR
  2
AcRfInsAdjusterMgr
  3
AcMeServices
 90
        0
280
     0
281
     0
  0
CLASS
  1
ACGREFACADMASTER
  2
AcGrefacadMaster
  3
AcGrefServices
 90
        0
280
     0
281
     0
  0
CLASS
  1
AMIMASTER
  2
AmiMaster
  3
AmiServices
 90
        0
280
     0
281
     0
  0
CLASS
  1
ACMDATADICTIONARY
  2
AcmDataDictionary
  3
"AcmSymBB|Product Description: AutoCAD Mechanical 2004 DX|Company: Autodesk"
 90
        0
280
     0
281
     0
  0
CLASS
  1
ACMDATAENTRYBLOCK
  2
AcmDataEntryBlock
  3
"AcmSymBB|Product Description: AutoCAD Mechanical 2004 DX|Company: Autodesk"
 90
        0
280
     0
281
     0
  0
CLASS
  1
ACIMSTRSYSVAR
  2
AcImStrSysVar
  3
AcMeServices
 90
        0
280
     0
281
     0
  0
CLASS
  1
ACMSTANDARDISO
  2
AcmStandardISO
  3
"Amdt_StdImp|Product Description: AutoCAD Mechanical 2004 DX|Company: Autodesk"
 90
        0
280
     0
281
     0
  0
CLASS
  1
AMGOBJPROPCFG
  2
AmgObjPropCfg
  3
"AmgLay|Product Description: AutoCAD Mechanical 2000|Company: Autodesk"
 90
        1
280
     0
281
     0
  0
CLASS
  1
AMDTEDGESTANDARDISO
  2
AmdtEdgeStdISO
  3
"Amdt_StdImp|Product Description: AutoCAD Mechanical 2004 DX|Company: Autodesk"
 90
        0
280
     0
281
     0
  0
CLASS
  1
ACMSURFSTANDARDISO
  2
AcmSurfTextStdISO
  3
"Amdt_StdImp|Product Description: AutoCAD Mechanical 2004 DX|Company: Autodesk"
 90
        0
280
     0
281
     0
  0
CLASS
  1
ACMFCFSTANDARDISO
  2
AcmFCFStdISO
  3
"Amdt_StdImp|Product Description: AutoCAD Mechanical 2004 DX|Company: Autodesk"
 90
        0
280
     0
281
     0
  0
CLASS
  1
ACMWELDSTANDARDISO
  2
AcmWeldingStdISO
  3
"Amdt_StdImp|Product Description: AutoCAD Mechanical 2004 DX|Company: Autodesk"
 90
        0
280
     0
281
     0
  0
CLASS
  1
ACMIDSTANDARDISO
  2
AcmIdStdISO
  3
"Amdt_StdImp|Product Description: AutoCAD Mechanical 2004 DX|Company: Autodesk"
 90
        0
280
     0
281
     0
  0
CLASS
  1
ACMDATUMSTANDARDISO
  2
AcmDatumStdISO
  3
"Amdt_StdImp|Product Description: AutoCAD Mechanical 2004 DX|Company: Autodesk"
 90
        0
280
     0
281
     0
  0
CLASS
  1
ACMBOMSTANDARDISO
  2
AcmBOMStdISO
  3
"Amdt_StdImp|Product Description: AutoCAD Mechanical 2004 DX|Company: Autodesk"
 90
        0
280
     0
281
     0
  0
CLASS
  1
ACMDETAILSTANDARDISO
  2
AmdtDetailSymStdISO
  3
"Amdt_StdImp|Product Description: AutoCAD Mechanical 2004 DX|Company: Autodesk"
 90
        0
280
     0
281
     0
  0
CLASS
  1
ACMSECTIONSTANDARDISO
  2
AmdtSectionSymStdISO
  3
"Amdt_StdImp|Product Description: AutoCAD Mechanical 2004 DX|Company: Autodesk"
 90
        0
280
     0
281
     0
  0
CLASS
  1
ACMCENTERLINESTANDARDISO
  2
AmdtCenterLineStdISO
  3
"Amdt_StdImp|Product Description: AutoCAD Mechanical 2004 DX|Company: Autodesk"
 90
        0
280
     0
281
     0
  0
CLASS
  1
ACMNOTESTANDARDISO
  2
AmdtNoteStdISO
  3
"Amdt_StdImp|Product Description: AutoCAD Mechanical 2004 DX|Company: Autodesk"
 90
        0
280
     0
281
     0
  0
CLASS
  1
ACAMGLAYSTD
  2
AcAmgLayStd
  3
"AcAmgLayStd|Product Description: AutoCAD Mechanical 2000|Company: Autodesk"
 90
        0
280
     0
281
     0
  0
CLASS
  1
ACAMGDIMSTD
  2
AcAmgDimStd
  3
"AcAmgDimStd|Product Description: AutoCAD Mechanical 2000|Company: Autodesk"
 90
        0
280
     0
281
     0
  0
CLASS
  1
ACAMGHOLECHARTSTDISO
  2
AcAmgHoleChartStdISO
  3
ACMSYMBB_MODULE_NAME
 90
        0
280
     0
281
     0
  0
CLASS
  1
ACAMGTITLESTD
  2
AcAmgTitleStd
  3
"TITLEAPP"
 90
        0
280
     0
281
     0
  0
CLASS
  1
LAYER_INDEX
  2
AcDbLayerIndex
  3
ObjectDBX Classes
 90
    32768
280
     0
281
     0
  0
CLASS
  1
IDBUFFER
  2
AcDbIdBuffer
  3
ObjectDBX Classes
 90
    32768
280
     0
281
     0
  0
CLASS
  1
DICTIONARYVAR
  2
AcDbDictionaryVar
  3
ObjectDBX Classes
 90
        0
280
     0
281
     0
  0
CLASS
  1
AM_DRAWING_MGR
  2
AcDmDwgMgr
  3
AcMechDwgViewMgmt
 90
        0
280
     0
281
     0
  0
CLASS
  1
AM_DWG_DOCUMENT
  2
AcDmDwgDocument
  3
AcMechDwgViewMgmt
 90
        0
280
     0
281
     0
  0
CLASS
  1
AM_DWG_SHEET
  2
AcDmSheet
  3
AcMechDwgViewMgmt
 90
        0
280
     0
281
     0
  0
CLASS
  1
AM_VIEWDIMPARMAP
  2
AcDmViewDimParMap
  3
AcMechDwgViewMgmt
 90
        0
280
     0
281
     0
  0
CLASS
  1
AM_DWGMGR_NAME
  2
AcDmDwgMgrName
  3
AcMechDwgViewMgmt
 90
        0
280
     0
281
     0
  0
CLASS
  1
AMDTMENUSTATEMGR
  2
AmdtMenuStateMgr
  3
McadcomServices
 90
        0
280
     0
281
     0
  0
CLASS
  1
AMDTMCOMMENUSTATE
  2
AmdtMcomMenuState
  3
McadcomServices
 90
        0
280
     0
281
     0
  0
CLASS
  1
MAPIAMMOUDLE
  2
MApiAmModule
  3
MApiAmServices
 90
        0
280
     0
281
     0
  0
CLASS
  1
AMDTADMENUSTATE
  2
AmdtAdMenuState
  3
DesignerServices
 90
        0
280
     0
281
     0
  0
CLASS
  1
ADAPPL
  2
AcAdAppl
  3
DesignerServices
 90
        0
280
     0
281
     0
  0
CLASS
  1
DEPMGR
  2
AcAdDepMgr
  3
DesignerServices
 90
        0
280
     0
281
     0
  0
CLASS
  1
PARAMMGR
  2
AcAdParamMgr
  3
DesignerServices
 90
        0
280
     0
281
     0
  0
CLASS
  1
PARAMSCOPE
  2
AcAdParamScope
  3
DesignerServices
 90
        0
280
     0
281
     0
  0
CLASS
  1
NAMEDAPPL
  2
AcAdNamedAppl
  3
DesignerServices
 90
        0
280
     0
281
     0
  0
CLASS
  1
AMDTDMMENUSTATE
  2
AmdtDmMenuState
  3
AcMechDwgViewMgmt
 90
        0
280
     0
281
     0
  0
CLASS
  1
AMDTAMMENUSTATE
  2
AmdtAmMenuState
  3
DesignerAssemblies
 90
        0
280
     0
281
     0
  0
CLASS
  1
ACAMPROJECT
  2
AcAmProject
  3
DesignerAssemblies
 90
        0
280
     0
281
     0
  0
CLASS
  1
ACAMGRCOMPDEF
  2
AcAmGrCompDef
  3
DesignerAssemblies
 90
        0
280
     0
281
     0
  0
CLASS
  1
ACCMCONTEXT
  2
AcCmContext
  3
DesignerAssemblies
 90
        0
280
     0
281
     0
  0
CLASS
  1
ACAMCOMPDEF
  2
AcAmCompDef
  3
DesignerAssemblies
 90
        0
280
     0
281
     0
  0
CLASS
  1
ACAMCOMPDEFMGR
  2
AcAmCompDefMgr
  3
DesignerAssemblies
 90
        0
280
     0
281
     0
  0
CLASS
  1
AMCONTEXTMGR
  2
AcAmContextMgr
  3
DesignerAssemblies
 90
        0
280
     0
281
     0
  0
CLASS
  1
ACAMCONTEXTMODELER
  2
AcAmContextModeler
  3
DesignerAssemblies
 90
        0
280
     0
281
     0
  0
CLASS
  1
ACMTHREADLINESTANDARDISO
  2
AmdtThreadLineStdISO
  3
"Amdt_StdImp|Product Description: AutoCAD Mechanical 2004 DX|Company: Autodesk"
 90
        0
280
     0
281
     0
  0
CLASS
  1
CATALOGSTATE
  2
AcAmCatalogState
  3
DesignerAssemblies
 90
        0
280
     0
281
     0
  0
CLASS
  1
ACAMGRCOMPDEFSET
  2
AcAmGrCompDefSet
  3
DesignerAssemblies
 90
        0
280
     0
281
     0
  0
CLASS
  1
AMDTBROWSERDBTAB
  2
AmdtBrowserDbTab
  3
McadcomServices
 90
        0
280
     0
281
     0
  0
CLASS
  1
CBROWSERAPPOBJECT
  2
CBrowserAppObject
  3
McadcomServices
 90
        0
280
     0
281
     0
  0
CLASS
  1
DM_PLACEHOLDER
  2
AcDmSelsetPlaceholder
  3
AcMechDwgViewMgmt
 90
        0
280
     0
281
     0
  0
CLASS
  1
TABLESTYLE
  2
AcDbTableStyle
  3
ObjectDBX Classes
 90
     2047
280
     0
281
     0
  0
CLASS
  1
VAACXREFPANELOBJECT
  2
VaAcXREFPanelObject
  3
VAAC_ADDIN
 90
    32768
280
     0
281
     0
  0
CLASS
  1
VAACIMAGEINVENTORY
  2
VaAcImageInventory
  3
VAAC_ADDIN
 90
    32768
280
     0
281
     0
  0
CLASS
  1
AMDTNOTETEMPLATEDB
  2
AmdtNoteTemplateDB
  3
AMDT_STDIMP_MODULE_NAME
 90
        0
280
     0
281
     0
  0
CLASS
  1
ACMBOM
  2
AcmBom
  3
"AcmSymBB|Product Description: AutoCAD Mechanical 2004 DX|Company: Autodesk"
 90
    32768
280
     0
281
     0
  0
CLASS
  1
AMDTFORMULAUPDATEDISPATCHER
  2
AmdtFormulaUpdateDispatcher
  3
AcMeServices
 90
        0
280
     0
281
     0
  0
CLASS
  1
ACMPARTLIST
  2
AcmPartList
  3
"AcmSymBB|Product Description: AutoCAD Mechanical 2004 DX|Company: Autodesk"
 90
    33791
280
     0
281
     1
  0
CLASS
  1
ACAMGFILTERDAT
  2
AcAmgFilterDat
  3
"AcadM|Product Description: AutoCAD Mechanical 2000|Company: Autodesk"
 90
        0
280
     0
281
     0
  0
CLASS
  1
DIMASSOC
  2
AcDbDimAssoc
  3
"AcDbDimAssoc|Product Desc:     AcDim ARX App For Dimension|Company:          Autodesk, Inc.|WEB Address:      www.autodesk.com"
 90
        0
280
     0
281
     0
  0
CLASS
  1
SORTENTSTABLE
  2
AcDbSortentsTable
  3
ObjectDBX Classes
 90
    32768
280
     0
281
     0
  0
CLASS
  1
AMDTNOTE
  2
AmdtNote
  3
"AcmSymBB|Product Description: AutoCAD Mechanical 2004 DX|Company: Autodesk"
 90
     1023
280
     0
281
     1
  0
CLASS
  1
ACRFATTGENMGR
  2
AcRfAttGeneralMgr
  3
AcAttribServices
 90
        0
280
     0
281
     0
  0
ENDSEC
  0
SECTION
  2
TABLES
  0
TABLE
  2
VPORT
  5
8
330
0
100
AcDbSymbolTable
 70
     3
  0
VPORT
  5
188A
330
8
100
AcDbSymbolTableRecord
100
AcDbViewportTableRecord
  2
*Active
 70
     0
 10
0.0
 20
0.0
 11
1.0
 21
1.0
 12
2235.859989587887
 22
1509.034782351823
 13
0.0
 23
0.0
 14
2.5
 24
2.5
 15
10.0
 25
10.0
 16
0.0
 26
0.0
 36
1.0
 17
0.0
 27
0.0
 37
0.0
 40
466.9127278488085
 41
1.609210526315789
 42
50.0
 43
0.0
 44
0.0
 50
0.0
 51
0.0
 71
     0
 72
   100
 73
     1
 74
     3
 75
     0
 76
     0
 77
     0
 78
     0
281
     0
 65
     1
110
0.0
120
0.0
130
0.0
111
1.0
121
0.0
131
0.0
112
0.0
122
1.0
132
0.0
 79
     0
146
0.0
  0
ENDTAB
  0
TABLE
  2
LTYPE
  5
5
330
0
100
AcDbSymbolTable
 70
    14
  0
LTYPE
  5
14
330
5
100
AcDbSymbolTableRecord
100
AcDbLinetypeTableRecord
  2
ByBlock
 70
     0
  3

 72
    65
 73
     0
 40
0.0
  0
LTYPE
  5
15
330
5
100
AcDbSymbolTableRecord
100
AcDbLinetypeTableRecord
  2
ByLayer
 70
     0
  3

 72
    65
 73
     0
 40
0.0
  0
LTYPE
  5
16
330
5
100
AcDbSymbolTableRecord
100
AcDbLinetypeTableRecord
  2
Continuous
 70
     0
  3
Solid line
 72
    65
 73
     0
 40
0.0
  0
LTYPE
  5
64
330
5
100
AcDbSymbolTableRecord
100
AcDbLinetypeTableRecord
  2
AM_ISO02W050
 70
     0
  3
__ __ __ __ __ __ __ __ __ __ __ __ __ __ __
 72
    65
 73
     2
 40
7.5
 49
6.0
 74
     0
 49
-1.5
 74
     0
  0
LTYPE
  5
65
330
5
100
AcDbSymbolTableRecord
100
AcDbLinetypeTableRecord
  2
AM_ISO08W050
 70
     0
  3
____ . ____ . ____ . ____ . ____ . ____ . ____
 72
    65
 73
     4
 40
18.0
 49
12.0
 74
     0
 49
-1.5
 74
     0
 49
3.0
 74
     0
 49
-1.5
 74
     0
  0
LTYPE
  5
66
330
5
100
AcDbSymbolTableRecord
100
AcDbLinetypeTableRecord
  2
AM_ISO09W050
 70
     0
  3
_____ . . _____ . . _____ . . ____ .. ____
 72
    65
 73
     6
 40
22.5
 49
12.0
 74
     0
 49
-1.5
 74
     0
 49
3.0
 74
     0
 49
-1.5
 74
     0
 49
3.0
 74
     0
 49
-1.5
 74
     0
  0
LTYPE
  5
67
330
5
100
AcDbSymbolTableRecord
100
AcDbLinetypeTableRecord
  2
Amconstr
 70
     0
  3
_______________________
 72
    65
 73
     2
 40
9999.0
 49
9999.0
 74
     0
 49
0.0
 74
     0
  0
LTYPE
  5
68
330
5
100
AcDbSymbolTableRecord
100
AcDbLinetypeTableRecord
  2
AM_ISO08W050x2
 70
     0
  3
__ . __ . __ . __ . __ . __
 72
    65
 73
     4
 40
9.0
 49
6.0
 74
     0
 49
-0.75
 74
     0
 49
1.5
 74
     0
 49
-0.75
 74
     0
  0
LTYPE
  5
69
330
5
100
AcDbSymbolTableRecord
100
AcDbLinetypeTableRecord
  2
AM_ISO02W050x2
 70
     0
  3
 _ _ _ _ _ _ _ _ _ _ _ _
 72
    65
 73
     2
 40
3.75
 49
3.0
 74
     0
 49
-0.75
 74
     0
  0
LTYPE
  5
6C
330
5
100
AcDbSymbolTableRecord
100
AcDbLinetypeTableRecord
  2
Amzigzag
 70
     0
  3
/\/-/\/-/\/-/\/-/\/-/\/
 72
    65
 73
     2
 40
11.0001
 49
0.0001
 74
     4
 75
   135
340
6B
 46
0.04
 50
0.0
 44
0.0
 45
0.0
 49
-11.0
 74
     0
  0
LTYPE
  5
7A
330
5
100
AcDbSymbolTableRecord
100
AcDbLinetypeTableRecord
  2
ACISOWELD
 70
     0
  3
_ _ _ _ _
 72
    65
 73
     2
 40
2.0
 49
2.0
 74
     0
 49
-1.0
 74
     0
  0
LTYPE
  5
7B
330
5
100
AcDbSymbolTableRecord
100
AcDbLinetypeTableRecord
  2
ACISOTGB
 70
     0
  3
__ . . __ . .
 72
    65
 73
     6
 40
9.0
 49
4.0
 74
     0
 49
-1.0
 74
     0
 49
1.0
 74
     0
 49
-1.0
 74
     0
 49
1.0
 74
     0
 49
-1.0
 74
     0
  0
LTYPE
  5
7C
330
5
100
AcDbSymbolTableRecord
100
AcDbLinetypeTableRecord
  2
ACISOTGL
 70
     0
  3
_ _ _ _ _
 72
    65
 73
     2
 40
3.0
 49
2.0
 74
     0
 49
-1.0
 74
     0
  0
LTYPE
  5
7E
330
5
100
AcDbSymbolTableRecord
100
AcDbLinetypeTableRecord
  2
CENTER
 70
     0
  3
__ . __
 72
    65
 73
     4
 40
7.0
 49
4.0
 74
     0
 49
-1.0
 74
     0
 49
1.0
 74
     0
 49
-1.0
 74
     0
  0
LTYPE
  5
D8
330
5
100
AcDbSymbolTableRecord
100
AcDbLinetypeTableRecord
  2
HIDDEN
 70
     0
  3
Hidden __ __ __ __ __ __ __ __ __ __ __ __ __ _
 72
    65
 73
     2
 40
9.524999999999998
 49
6.349999999999999
 74
     0
 49
-3.174999999999999
 74
     0
  0
LTYPE
  5
D9
330
5
100
AcDbSymbolTableRecord
100
AcDbLinetypeTableRecord
  2
PHANTOM2
 70
     0
  3
Phantom (.5x) ___ _ _ ___ _ _ ___ _ _ ___ _ _
 72
    65
 73
     6
 40
31.75
 49
15.875
 74
     0
 49
-3.174999999999999
 74
     0
 49
3.174999999999999
 74
     0
 49
-3.174999999999999
 74
     0
 49
3.174999999999999
 74
     0
 49
-3.174999999999999
 74
     0
  0
ENDTAB
  0
TABLE
  2
LAYER
  5
2
102
{ACAD_XDICTIONARY
360
3F9
102
}
330
0
100
AcDbSymbolTable
 70
     9
  0
LAYER
  5
10
330
2
100
AcDbSymbolTableRecord
100
AcDbLayerTableRecord
  2
0
 70
     0
 62
     7
  6
Continuous
370
    -3
390
F
  0
LAYER
  5
206
330
2
100
AcDbSymbolTableRecord
100
AcDbLayerTableRecord
  2
Defpoints
 70
     0
 62
     7
  6
Continuous
290
     0
370
    -3
390
F
  0
LAYER
  5
5AE
330
2
100
AcDbSymbolTableRecord
100
AcDbLayerTableRecord
  2
AM_7
 70
     0
 62
     1
  6
CENTER
370
    25
390
F
  0
LAYER
  5
7C5
330
2
100
AcDbSymbolTableRecord
100
AcDbLayerTableRecord
  2
LOGO
 70
     0
 62
     7
  6
Continuous
370
    -3
390
F
  0
LAYER
  5
7C6
330
2
100
AcDbSymbolTableRecord
100
AcDbLayerTableRecord
  2
AM_5
 70
     0
 62
     5
  6
Continuous
370
    50
390
F
  0
LAYER
  5
7C7
330
2
100
AcDbSymbolTableRecord
100
AcDbLayerTableRecord
  2
AM_VIS
 70
     0
 62
     7
  6
Continuous
370
    50
390
F
  0
LAYER
  5
7C8
330
2
100
AcDbSymbolTableRecord
100
AcDbLayerTableRecord
  2
AM_0
 70
     0
 62
     7
  6
Continuous
370
    50
390
F
  0
LAYER
  5
7C9
330
2
100
AcDbSymbolTableRecord
100
AcDbLayerTableRecord
  2
AM_4
 70
     0
 62
     3
  6
Continuous
370
    25
390
F
  0
LAYER
  5
7CA
330
2
100
AcDbSymbolTableRecord
100
AcDbLayerTableRecord
  2
AM_0N
 70
     0
 62
     7
  6
Continuous
370
    50
390
F
  0
ENDTAB
  0
TABLE
  2
STYLE
  5
3
330
0
100
AcDbSymbolTable
 70
     6
  0
STYLE
  5
11
330
3
100
AcDbSymbolTableRecord
100
AcDbTextStyleTableRecord
  2
STANDARD
 70
     0
 40
0.0
 41
1.0
 50
0.0
 71
     0
 42
3.0
  3
ISOCP.SHX
  4
CHINESET.SHX
  0
STYLE
  5
6B
330
3
100
AcDbSymbolTableRecord
100
AcDbTextStyleTableRecord
  2

 70
     1
 40
0.0
 41
1.0
 50
0.0
 71
     0
 42
2.5
  3
ltypeshp.shx
  4

  0
STYLE
  5
6D
330
3
100
AcDbSymbolTableRecord
100
AcDbTextStyleTableRecord
  2
ACISOTS
 70
     0
 40
1.0
 41
1.0
 50
0.0
 71
     0
 42
1.0
  3
isocp.shx
  4
chineset.shx
  0
STYLE
  5
79
330
3
100
AcDbSymbolTableRecord
100
AcDbTextStyleTableRecord
  2
ACISOGDT
 70
     0
 40
0.0
 41
1.0
 50
0.0
 71
     0
 42
2.5
  3
amgdt.shx
  4
chineset.shx
  0
STYLE
  5
60C
330
3
100
AcDbSymbolTableRecord
100
AcDbTextStyleTableRecord
  2
CHINESET
 70
     0
 40
0.0
 41
1.0
 50
0.0
 71
     0
 42
3.0
  3
simplex.shx
  4
CHINESET.SHX
  0
ENDTAB
  0
TABLE
  2
VIEW
  5
6
330
0
100
AcDbSymbolTable
 70
     0
  0
ENDTAB
  0
TABLE
  2
UCS
  5
7
330
0
100
AcDbSymbolTable
 70
     0
  0
ENDTAB
  0
TABLE
  2
APPID
  5
9
330
0
100
AcDbSymbolTable
 70
    19
  0
APPID
  5
12
330
9
100
AcDbSymbolTableRecord
100
AcDbRegAppTableRecord
  2
ACAD
 70
     0
  0
APPID
  5
46
330
9
100
AcDbSymbolTableRecord
100
AcDbRegAppTableRecord
  2
MCAD_NO_VIS
 70
     0
  0
APPID
  5
47
330
9
100
AcDbSymbolTableRecord
100
AcDbRegAppTableRecord
  2
ACAD_TEMP_GRAPHIC
 70
     0
  0
APPID
  5
58
330
9
100
AcDbSymbolTableRecord
100
AcDbRegAppTableRecord
  2
ACATTRIBSERVICES
 70
     0
  0
APPID
  5
EE
330
9
100
AcDbSymbolTableRecord
100
AcDbRegAppTableRecord
  2
AD_DRAW
 70
     0
  0
APPID
  5
10C
330
9
100
AcDbSymbolTableRecord
100
AcDbRegAppTableRecord
  2
DESIGNERASSEMBLIES
 70
     0
  0
APPID
  5
111
330
9
100
AcDbSymbolTableRecord
100
AcDbRegAppTableRecord
  2
ACADM_DIM_EDIT
 70
     0
  0
APPID
  5
112
330
9
100
AcDbSymbolTableRecord
100
AcDbRegAppTableRecord
  2
AMDT_DM_ADJ
 70
     0
  0
APPID
  5
22C
330
9
100
AcDbSymbolTableRecord
100
AcDbRegAppTableRecord
  2
ACAD_DSTYLE_DIMTEXT_FILL
 70
     0
  0
APPID
  5
452
330
9
100
AcDbSymbolTableRecord
100
AcDbRegAppTableRecord
  2
GENIUS_GENOENT_13
 70
     0
  0
APPID
  5
453
330
9
100
AcDbSymbolTableRecord
100
AcDbRegAppTableRecord
  2
GENIUS_GENOBJ-N-CRS_13
 70
     0
  0
APPID
  5
454
330
9
100
AcDbSymbolTableRecord
100
AcDbRegAppTableRecord
  2
GENIUS_GENOLIS_13
 70
     0
  0
APPID
  5
455
330
9
100
AcDbSymbolTableRecord
100
AcDbRegAppTableRecord
  2
GENIUS_GENODEF_13
 70
     0
  0
APPID
  5
456
330
9
100
AcDbSymbolTableRecord
100
AcDbRegAppTableRecord
  2
GENIUS_GENOREF_13
 70
     0
  0
APPID
  5
6F3
330
9
100
AcDbSymbolTableRecord
100
AcDbRegAppTableRecord
  2
ACAD_PSEXT
 70
     0
  0
APPID
  5
7CB
330
9
100
AcDbSymbolTableRecord
100
AcDbRegAppTableRecord
  2
GENIUS_GENREC_14
 70
     0
  0
APPID
  5
7CC
330
9
100
AcDbSymbolTableRecord
100
AcDbRegAppTableRecord
  2
GENIUS_GENOBJ-N-REC_13
 70
     0
  0
APPID
  5
7CD
330
9
100
AcDbSymbolTableRecord
100
AcDbRegAppTableRecord
  2
GENIUS_GENOBJ-N-CEN_13
 70
     0
  0
APPID
  5
7CE
330
9
100
AcDbSymbolTableRecord
100
AcDbRegAppTableRecord
  2
GENIUS_GENCEN_19
 70
     0
  0
ENDTAB
  0
TABLE
  2
DIMSTYLE
  5
A
330
0
100
AcDbSymbolTable
 70
     9
100
AcDbDimStyleTable
 71
     3
340
81
340
8B
340
86
  0
DIMSTYLE
105
81
330
A
100
AcDbSymbolTableRecord
100
AcDbDimStyleTableRecord
  2
AM_ISO
 70
     0
  4
"
 41
3.0
 42
1.0
 43
10.0
 44
1.5
 47
0.1
 48
0.1
 73
     0
 74
     0
 77
     1
 78
     8
 79
     2
140
3.0
141
0.0
143
0.0393701
146
0.71
147
1.0
172
     1
176
   256
177
   256
178
   256
271
     2
272
     2
283
     0
284
     8
340
11
371
    -1
372
    -1
  0
DIMSTYLE
105
82
330
A
100
AcDbSymbolTableRecord
100
AcDbDimStyleTableRecord
  2
AM_ISO$3
 70
     0
  4
"
 41
3.0
 42
1.0
 43
10.0
 44
1.5
 47
0.1
 48
0.1
 73
     0
 77
     1
 78
     8
 79
     2
140
3.0
141
0.0
143
0.0393701
146
0.71
147
1.0
176
   256
177
   256
178
   256
271
     2
272
     2
283
     0
284
     8
288
     1
289
     0
340
11
371
    -1
372
    -1
  0
DIMSTYLE
105
83
330
A
100
AcDbSymbolTableRecord
100
AcDbDimStyleTableRecord
  2
AM_ISO$4
 70
     0
  4
"
 41
3.0
 42
1.0
 43
10.0
 44
1.5
 47
0.1
 48
0.1
 73
     0
 77
     1
 78
     8
 79
     2
140
3.0
141
0.0
143
0.0393701
146
0.71
147
1.0
176
   256
177
   256
178
   256
271
     2
272
     2
283
     0
284
     8
288
     1
289
     0
340
11
371
    -1
372
    -1
  0
DIMSTYLE
105
84
330
A
100
AcDbSymbolTableRecord
100
AcDbDimStyleTableRecord
  2
AM_ISO$6
 70
     0
  4
"
 41
3.0
 42
1.0
 43
10.0
 44
1.5
 47
0.1
 48
0.1
 73
     0
 74
     0
 78
     8
 79
     2
140
3.0
141
0.0
143
0.0393701
146
0.71
147
1.0
172
     1
176
   256
177
   256
178
   256
271
     2
272
     2
283
     0
284
     8
340
11
371
    -1
372
    -1
  0
DIMSTYLE
105
85
330
A
100
AcDbSymbolTableRecord
100
AcDbDimStyleTableRecord
  2
AM_ISO$7
 70
     0
  4
"
 41
3.0
 42
1.0
 43
10.0
 44
1.5
 47
0.1
 48
0.1
 73
     0
 74
     0
 77
     1
 78
     8
 79
     2
140
5.0
141
0.0
143
0.0393701
146
0.71
147
1.0
172
     1
176
   256
177
   256
178
   256
271
     2
272
     2
283
     0
284
     8
340
11
371
    -1
372
    -1
  0
DIMSTYLE
105
86
330
A
100
AcDbSymbolTableRecord
100
AcDbDimStyleTableRecord
  2
AM_ISO$SF
 70
     0
  4
"
 41
2.5
 42
1.0
 43
10.0
 44
1.0
 47
0.1
 48
0.1
 73
     0
 74
     0
 75
     1
 76
     1
 77
     1
 78
     8
 79
     2
140
3.5
141
0.0
143
0.0393701
146
0.71
147
1.5
172
     1
176
   256
177
   256
178
     2
271
     2
272
     3
274
     4
283
     0
284
     8
340
11
371
    -1
372
    -1
  0
DIMSTYLE
105
8B
330
A
100
AcDbSymbolTableRecord
100
AcDbDimStyleTableRecord
  2
AM_ISO$SH
 70
     0
  4
"
 41
2.5
 42
1.0
 43
10.0
 44
1.0
 47
0.1
 48
0.1
 73
     0
 74
     0
 75
     1
 76
     1
 77
     1
 78
     8
 79
     2
140
3.5
141
0.0
143
0.0393701
144
2.0
146
0.71
147
1.5
172
     1
173
     1
176
   256
177
   256
178
     2
271
     2
272
     3
274
     4
283
     0
284
     8
340
11
343
87
371
    -1
372
    -1
  0
DIMSTYLE
105
40B
102
{ACAD_REACTORS
330
12C0
330
12C3
330
12FB
330
1303
330
1304
330
1307
102
}
330
A
100
AcDbSymbolTableRecord
100
AcDbDimStyleTableRecord
  2
AM_ISO$0
 70
     0
  4
"
 41
3.0
 42
1.0
 43
10.0
 44
1.5
 47
0.1
 48
0.1
 73
     0
 74
     0
 77
     1
 78
     8
 79
     2
140
3.0
141
0.0
143
0.0393701
146
0.71
147
1.0
172
     1
176
   256
177
   256
178
   256
271
     2
272
     2
283
     0
284
     8
340
11
371
    -1
372
    -1
  0
ENDTAB
  0
TABLE
  2
BLOCK_RECORD
  5
1
330
0
100
AcDbSymbolTable
 70
    12
  0
BLOCK_RECORD
  5
1F
102
{ACAD_XDICTIONARY
360
8F
102
}
330
1
100
AcDbSymbolTableRecord
100
AcDbBlockTableRecord
  2
*Model_Space
340
22
  0
BLOCK_RECORD
  5
1B
330
1
100
AcDbSymbolTableRecord
100
AcDbBlockTableRecord
  2
*Paper_Space
340
1E
  0
BLOCK_RECORD
  5
23
330
1
100
AcDbSymbolTableRecord
100
AcDbBlockTableRecord
  2
*Paper_Space0
340
26
  0
BLOCK_RECORD
  5
87
330
1
100
AcDbSymbolTableRecord
100
AcDbBlockTableRecord
  2
GENAXEH
340
0
  0
BLOCK_RECORD
  5
135E
330
1
100
AcDbSymbolTableRecord
100
AcDbBlockTableRecord
  2
*D3
340
0
  0
BLOCK_RECORD
  5
136C
330
1
100
AcDbSymbolTableRecord
100
AcDbBlockTableRecord
  2
*D4
340
0
  0
BLOCK_RECORD
  5
1392
330
1
100
AcDbSymbolTableRecord
100
AcDbBlockTableRecord
  2
*D5
340
0
  0
BLOCK_RECORD
  5
139E
330
1
100
AcDbSymbolTableRecord
100
AcDbBlockTableRecord
  2
*D6
340
0
  0
BLOCK_RECORD
  5
13AC
330
1
100
AcDbSymbolTableRecord
100
AcDbBlockTableRecord
  2
*D7
340
0
  0
BLOCK_RECORD
  5
13D4
330
1
100
AcDbSymbolTableRecord
100
AcDbBlockTableRecord
  2
*D8
340
0
  0
BLOCK_RECORD
  5
1878
330
1
100
AcDbSymbolTableRecord
100
AcDbBlockTableRecord
  2
*S10
340
0
  0
BLOCK_RECORD
  5
1880
330
1
100
AcDbSymbolTableRecord
100
AcDbBlockTableRecord
  2
*S11
340
0
  0
ENDTAB
  0
ENDSEC
  0
SECTION
  2
BLOCKS
  0
BLOCK
  5
20
330
1F
100
AcDbEntity
  8
0
100
AcDbBlockBegin
  2
*Model_Space
 70
     0
 10
0.0
 20
0.0
 30
0.0
  3
*Model_Space
  1

  0
ENDBLK
  5
21
330
1F
100
AcDbEntity
  8
0
100
AcDbBlockEnd
  0
BLOCK
  5
1C
330
1B
100
AcDbEntity
 67
     1
  8
0
100
AcDbBlockBegin
  2
*Paper_Space
 70
     0
 10
0.0
 20
0.0
 30
0.0
  3
*Paper_Space
  1

  0
ENDBLK
  5
1D
330
1B
100
AcDbEntity
 67
     1
  8
0
100
AcDbBlockEnd
  0
BLOCK
  5
24
330
23
100
AcDbEntity
  8
0
100
AcDbBlockBegin
  2
*Paper_Space0
 70
     0
 10
0.0
 20
0.0
 30
0.0
  3
*Paper_Space0
  1

  0
ENDBLK
  5
25
330
23
100
AcDbEntity
  8
0
100
AcDbBlockEnd
  0
BLOCK
  5
89
330
87
100
AcDbEntity
  8
0
100
AcDbBlockBegin
  2
GENAXEH
 70
     0
 10
0.0
 20
0.0
 30
0.0
  3
GENAXEH
  1

  0
LINE
  5
88
330
87
100
AcDbEntity
  8
0
100
AcDbLine
 10
-1.0
 20
0.0
 30
0.0
 11
1.0
 21
0.0
 31
0.0
  0
ENDBLK
  5
8A
330
87
100
AcDbEntity
  8
0
100
AcDbBlockEnd
  0
BLOCK
  5
136A
330
135E
100
AcDbEntity
  8
0
100
AcDbBlockBegin
  2
*D3
 70
     1
 10
0.0
 20
0.0
 30
0.0
  3
*D3
  1

  0
LINE
  5
15B2
330
135E
100
AcDbEntity
  8
AM_5
100
AcDbLine
 10
2220.717291092356
 20
1369.025429166282
 30
0.0
 11
2245.467291092356
 21
1369.025429166282
 31
0.0
  0
LINE
  5
15B3
330
135E
100
AcDbEntity
  8
AM_5
100
AcDbLine
 10
2225.967291092356
 20
1387.025429166283
 30
0.0
 11
2245.467291092356
 21
1387.025429166283
 31
0.0
  0
LINE
  5
15B4
330
135E
100
AcDbEntity
  8
AM_5
100
AcDbLine
 10
2243.967291092356
 20
1372.025429166283
 30
0.0
 11
2243.967291092356
 21
1384.025429166283
 31
0.0
  0
SOLID
  5
15B5
330
135E
100
AcDbEntity
  8
AM_5
100
AcDbTrace
 10
2243.467291092356
 20
1372.025429166283
 30
0.0
 11
2244.467291092357
 21
1372.025429166283
 31
0.0
 12
2243.967291092356
 22
1369.025429166282
 32
0.0
 13
2243.967291092356
 23
1369.025429166282
 33
0.0
  0
SOLID
  5
15B6
330
135E
100
AcDbEntity
  8
AM_5
100
AcDbTrace
 10
2243.467291092356
 20
1384.025429166283
 30
0.0
 11
2244.467291092357
 21
1384.025429166283
 31
0.0
 12
2243.967291092356
 22
1387.025429166283
 32
0.0
 13
2243.967291092356
 23
1387.025429166283
 33
0.0
  0
MTEXT
  5
15B7
330
135E
100
AcDbEntity
  8
AM_5
100
AcDbMText
 10
2241.466995816766
 20
1378.025429166283
 30
0.0
 40
3.0
 41
0.0
 71
     5
 72
     1
  1
L2
 11
0.0000000000000001
 21
1.0
 31
0.0
 73
     1
 44
1.0
1001
ACAD
1000
MTEXTBEGIN
1070
    73
1070
     1
1070
    44
1040
1.0
1070
    74
1070
     0
1000
MTEXTEND
  0
POINT
  5
15B8
330
135E
100
AcDbEntity
  8
Defpoints
 62
     0
100
AcDbPoint
 10
2219.717291092356
 20
1369.025429166282
 30
0.0
  0
POINT
  5
15B9
330
135E
100
AcDbEntity
  8
Defpoints
 62
     0
100
AcDbPoint
 10
2224.967291092355
 20
1387.025429166283
 30
0.0
  0
POINT
  5
15BA
330
135E
100
AcDbEntity
  8
Defpoints
 62
     0
100
AcDbPoint
 10
2243.967291092356
 20
1387.025429166283
 30
0.0
  0
ENDBLK
  5
136B
330
135E
100
AcDbEntity
  8
0
100
AcDbBlockEnd
  0
BLOCK
  5
1376
330
136C
100
AcDbEntity
  8
0
100
AcDbBlockBegin
  2
*D4
 70
     1
 10
0.0
 20
0.0
 30
0.0
  3
*D4
  1

  0
LINE
  5
161D
330
136C
100
AcDbEntity
  8
AM_5
100
AcDbLine
 10
2225.967291092356
 20
1387.025429166283
 30
0.0
 11
2238.467291092355
 21
1387.025429166283
 31
0.0
  0
LINE
  5
161E
330
136C
100
AcDbEntity
  8
AM_5
100
AcDbLine
 10
2225.967291092356
 20
1426.025429166283
 30
0.0
 11
2238.467291092355
 21
1426.025429166283
 31
0.0
  0
LINE
  5
161F
330
136C
100
AcDbEntity
  8
AM_5
100
AcDbLine
 10
2236.967291092355
 20
1390.025429166283
 30
0.0
 11
2236.967291092355
 21
1423.025429166283
 31
0.0
  0
SOLID
  5
1620
330
136C
100
AcDbEntity
  8
AM_5
100
AcDbTrace
 10
2236.467291092356
 20
1390.025429166283
 30
0.0
 11
2237.467291092356
 21
1390.025429166283
 31
0.0
 12
2236.967291092355
 22
1387.025429166283
 32
0.0
 13
2236.967291092355
 23
1387.025429166283
 33
0.0
  0
SOLID
  5
1621
330
136C
100
AcDbEntity
  8
AM_5
100
AcDbTrace
 10
2236.467291092356
 20
1423.025429166283
 30
0.0
 11
2237.467291092356
 21
1423.025429166283
 31
0.0
 12
2236.967291092355
 22
1426.025429166283
 32
0.0
 13
2236.967291092355
 23
1426.025429166283
 33
0.0
  0
MTEXT
  5
1622
330
136C
100
AcDbEntity
  8
AM_5
100
AcDbMText
 10
2234.467291092355
 20
1406.525429166283
 30
0.0
 40
3.0
 41
0.0
 71
     5
 72
     1
  1
L1
 11
0.0000000000000001
 21
1.0
 31
0.0
 73
     1
 44
1.0
1001
ACAD
1000
MTEXTBEGIN
1070
    73
1070
     1
1070
    44
1040
1.0
1070
    74
1070
     0
1000
MTEXTEND
  0
POINT
  5
1623
330
136C
100
AcDbEntity
  8
Defpoints
 62
     0
100
AcDbPoint
 10
2224.967291092355
 20
1387.025429166283
 30
0.0
  0
POINT
  5
1624
330
136C
100
AcDbEntity
  8
Defpoints
 62
     0
100
AcDbPoint
 10
2224.967291092355
 20
1426.025429166283
 30
0.0
  0
POINT
  5
1625
330
136C
100
AcDbEntity
  8
Defpoints
 62
     0
100
AcDbPoint
 10
2236.967291092355
 20
1426.025429166283
 30
0.0
  0
ENDBLK
  5
1377
330
136C
100
AcDbEntity
  8
0
100
AcDbBlockEnd
  0
BLOCK
  5
139C
330
1392
100
AcDbEntity
  8
0
100
AcDbBlockBegin
  2
*D5
 70
     1
 10
0.0
 20
0.0
 30
0.0
  3
*D5
  1

  0
LINE
  5
1614
330
1392
100
AcDbEntity
  8
AM_5
100
AcDbLine
 10
2225.967291092356
 20
1387.025429166283
 30
0.0
 11
2245.467291092356
 21
1387.025429166283
 31
0.0
  0
LINE
  5
1615
330
1392
100
AcDbEntity
  8
AM_5
100
AcDbLine
 10
2224.467291092356
 20
1436.025429166283
 30
0.0
 11
2245.467291092356
 21
1436.025429166283
 31
0.0
  0
LINE
  5
1616
330
1392
100
AcDbEntity
  8
AM_5
100
AcDbLine
 10
2243.967291092356
 20
1390.025429166283
 30
0.0
 11
2243.967291092356
 21
1433.025429166282
 31
0.0
  0
SOLID
  5
1617
330
1392
100
AcDbEntity
  8
AM_5
100
AcDbTrace
 10
2243.467291092356
 20
1390.025429166283
 30
0.0
 11
2244.467291092355
 21
1390.025429166283
 31
0.0
 12
2243.967291092356
 22
1387.025429166283
 32
0.0
 13
2243.967291092356
 23
1387.025429166283
 33
0.0
  0
SOLID
  5
1618
330
1392
100
AcDbEntity
  8
AM_5
100
AcDbTrace
 10
2243.467291092356
 20
1433.025429166282
 30
0.0
 11
2244.467291092355
 21
1433.025429166282
 31
0.0
 12
2243.967291092356
 22
1436.025429166283
 32
0.0
 13
2243.967291092356
 23
1436.025429166283
 33
0.0
  0
MTEXT
  5
1619
330
1392
100
AcDbEntity
  8
AM_5
100
AcDbMText
 10
2241.467291092355
 20
1411.525429166283
 30
0.0
 40
3.0
 41
0.0
 71
     5
 72
     1
  1
L
 11
0.0000000000000001
 21
1.0
 31
0.0
 73
     1
 44
1.0
1001
ACAD
1000
MTEXTBEGIN
1070
    73
1070
     1
1070
    44
1040
1.0
1070
    74
1070
     0
1000
MTEXTEND
  0
POINT
  5
161A
330
1392
100
AcDbEntity
  8
Defpoints
 62
     0
100
AcDbPoint
 10
2224.967291092355
 20
1387.025429166283
 30
0.0
  0
POINT
  5
161B
330
1392
100
AcDbEntity
  8
Defpoints
 62
     0
100
AcDbPoint
 10
2223.467291092356
 20
1436.025429166283
 30
0.0
  0
POINT
  5
161C
330
1392
100
AcDbEntity
  8
Defpoints
 62
     0
100
AcDbPoint
 10
2243.967291092356
 20
1436.025429166283
 30
0.0
  0
ENDBLK
  5
139D
330
1392
100
AcDbEntity
  8
0
100
AcDbBlockEnd
  0
BLOCK
  5
13AA
330
139E
100
AcDbEntity
  8
0
100
AcDbBlockBegin
  2
*D6
 70
     1
 10
0.0
 20
0.0
 30
0.0
  3
*D6
  1

  0
LINE
  5
159F
330
139E
100
AcDbEntity
  8
AM_5
100
AcDbLine
 10
2221.717291092355
 20
1584.371012811811
 30
0.0
 11
2245.467291092356
 21
1584.371012811811
 31
0.0
  0
LINE
  5
15A0
330
139E
100
AcDbEntity
  8
AM_5
100
AcDbLine
 10
2225.967291092356
 20
1602.371012811811
 30
0.0
 11
2245.467291092356
 21
1602.371012811811
 31
0.0
  0
LINE
  5
15A1
330
139E
100
AcDbEntity
  8
AM_5
100
AcDbLine
 10
2243.967291092356
 20
1587.371012811811
 30
0.0
 11
2243.967291092356
 21
1599.371012811811
 31
0.0
  0
SOLID
  5
15A2
330
139E
100
AcDbEntity
  8
AM_5
100
AcDbTrace
 10
2243.467291092356
 20
1587.371012811811
 30
0.0
 11
2244.467291092357
 21
1587.371012811811
 31
0.0
 12
2243.967291092356
 22
1584.371012811811
 32
0.0
 13
2243.967291092356
 23
1584.371012811811
 33
0.0
  0
SOLID
  5
15A3
330
139E
100
AcDbEntity
  8
AM_5
100
AcDbTrace
 10
2243.467291092356
 20
1599.371012811811
 30
0.0
 11
2244.467291092357
 21
1599.371012811811
 31
0.0
 12
2243.967291092356
 22
1602.371012811811
 32
0.0
 13
2243.967291092356
 23
1602.371012811811
 33
0.0
  0
MTEXT
  5
15A4
330
139E
100
AcDbEntity
  8
AM_5
100
AcDbMText
 10
2241.466995816766
 20
1593.371012811811
 30
0.0
 40
3.0
 41
0.0
 71
     5
 72
     1
  1
L2
 11
0.0000000000000001
 21
1.0
 31
0.0
 73
     1
 44
1.0
1001
ACAD
1000
MTEXTBEGIN
1070
    73
1070
     1
1070
    44
1040
1.0
1070
    74
1070
     0
1000
MTEXTEND
  0
POINT
  5
15A5
330
139E
100
AcDbEntity
  8
Defpoints
 62
     0
100
AcDbPoint
 10
2220.717291092356
 20
1584.371012811811
 30
0.0
  0
POINT
  5
15A6
330
139E
100
AcDbEntity
  8
Defpoints
 62
     0
100
AcDbPoint
 10
2224.967291092355
 20
1602.371012811811
 30
0.0
  0
POINT
  5
15A7
330
139E
100
AcDbEntity
  8
Defpoints
 62
     0
100
AcDbPoint
 10
2243.967291092356
 20
1602.371012811811
 30
0.0
  0
ENDBLK
  5
13AB
330
139E
100
AcDbEntity
  8
0
100
AcDbBlockEnd
  0
BLOCK
  5
13B6
330
13AC
100
AcDbEntity
  8
0
100
AcDbBlockBegin
  2
*D7
 70
     1
 10
0.0
 20
0.0
 30
0.0
  3
*D7
  1

  0
LINE
  5
160B
330
13AC
100
AcDbEntity
  8
AM_5
100
AcDbLine
 10
2225.967291092356
 20
1602.371012811811
 30
0.0
 11
2238.467291092355
 21
1602.371012811811
 31
0.0
  0
LINE
  5
160C
330
13AC
100
AcDbEntity
  8
AM_5
100
AcDbLine
 10
2225.967291092356
 20
1641.371012811811
 30
0.0
 11
2238.467291092355
 21
1641.371012811811
 31
0.0
  0
LINE
  5
160D
330
13AC
100
AcDbEntity
  8
AM_5
100
AcDbLine
 10
2236.967291092355
 20
1605.371012811811
 30
0.0
 11
2236.967291092355
 21
1638.371012811811
 31
0.0
  0
SOLID
  5
160E
330
13AC
100
AcDbEntity
  8
AM_5
100
AcDbTrace
 10
2236.467291092356
 20
1605.371012811811
 30
0.0
 11
2237.467291092356
 21
1605.371012811811
 31
0.0
 12
2236.967291092355
 22
1602.371012811811
 32
0.0
 13
2236.967291092355
 23
1602.371012811811
 33
0.0
  0
SOLID
  5
160F
330
13AC
100
AcDbEntity
  8
AM_5
100
AcDbTrace
 10
2236.467291092356
 20
1638.371012811811
 30
0.0
 11
2237.467291092356
 21
1638.371012811811
 31
0.0
 12
2236.967291092355
 22
1641.371012811811
 32
0.0
 13
2236.967291092355
 23
1641.371012811811
 33
0.0
  0
MTEXT
  5
1610
330
13AC
100
AcDbEntity
  8
AM_5
100
AcDbMText
 10
2234.467291092355
 20
1621.871012811811
 30
0.0
 40
3.0
 41
0.0
 71
     5
 72
     1
  1
L1
 11
0.0000000000000001
 21
1.0
 31
0.0
 73
     1
 44
1.0
1001
ACAD
1000
MTEXTBEGIN
1070
    73
1070
     1
1070
    44
1040
1.0
1070
    74
1070
     0
1000
MTEXTEND
  0
POINT
  5
1611
330
13AC
100
AcDbEntity
  8
Defpoints
 62
     0
100
AcDbPoint
 10
2224.967291092355
 20
1602.371012811811
 30
0.0
  0
POINT
  5
1612
330
13AC
100
AcDbEntity
  8
Defpoints
 62
     0
100
AcDbPoint
 10
2224.967291092355
 20
1641.371012811811
 30
0.0
  0
POINT
  5
1613
330
13AC
100
AcDbEntity
  8
Defpoints
 62
     0
100
AcDbPoint
 10
2236.967291092355
 20
1641.371012811811
 30
0.0
  0
ENDBLK
  5
13B7
330
13AC
100
AcDbEntity
  8
0
100
AcDbBlockEnd
  0
BLOCK
  5
13DE
330
13D4
100
AcDbEntity
  8
0
100
AcDbBlockBegin
  2
*D8
 70
     1
 10
0.0
 20
0.0
 30
0.0
  3
*D8
  1

  0
LINE
  5
1602
330
13D4
100
AcDbEntity
  8
AM_5
100
AcDbLine
 10
2225.967291092356
 20
1602.371012811811
 30
0.0
 11
2245.467291092356
 21
1602.371012811811
 31
0.0
  0
LINE
  5
1603
330
13D4
100
AcDbEntity
  8
AM_5
100
AcDbLine
 10
2224.467291092356
 20
1651.371012811811
 30
0.0
 11
2245.467291092356
 21
1651.371012811811
 31
0.0
  0
LINE
  5
1604
330
13D4
100
AcDbEntity
  8
AM_5
100
AcDbLine
 10
2243.967291092356
 20
1605.371012811811
 30
0.0
 11
2243.967291092356
 21
1648.371012811811
 31
0.0
  0
SOLID
  5
1605
330
13D4
100
AcDbEntity
  8
AM_5
100
AcDbTrace
 10
2243.467291092356
 20
1605.371012811811
 30
0.0
 11
2244.467291092355
 21
1605.371012811811
 31
0.0
 12
2243.967291092356
 22
1602.371012811811
 32
0.0
 13
2243.967291092356
 23
1602.371012811811
 33
0.0
  0
SOLID
  5
1606
330
13D4
100
AcDbEntity
  8
AM_5
100
AcDbTrace
 10
2243.467291092356
 20
1648.371012811811
 30
0.0
 11
2244.467291092355
 21
1648.371012811811
 31
0.0
 12
2243.967291092356
 22
1651.371012811811
 32
0.0
 13
2243.967291092356
 23
1651.371012811811
 33
0.0
  0
MTEXT
  5
1607
330
13D4
100
AcDbEntity
  8
AM_5
100
AcDbMText
 10
2241.467291092355
 20
1626.871012811811
 30
0.0
 40
3.0
 41
0.0
 71
     5
 72
     1
  1
L
 11
0.0000000000000001
 21
1.0
 31
0.0
 73
     1
 44
1.0
1001
ACAD
1000
MTEXTBEGIN
1070
    73
1070
     1
1070
    44
1040
1.0
1070
    74
1070
     0
1000
MTEXTEND
  0
POINT
  5
1608
330
13D4
100
AcDbEntity
  8
Defpoints
 62
     0
100
AcDbPoint
 10
2224.967291092355
 20
1602.371012811811
 30
0.0
  0
POINT
  5
1609
330
13D4
100
AcDbEntity
  8
Defpoints
 62
     0
100
AcDbPoint
 10
2223.467291092356
 20
1651.371012811811
 30
0.0
  0
POINT
  5
160A
330
13D4
100
AcDbEntity
  8
Defpoints
 62
     0
100
AcDbPoint
 10
2243.967291092356
 20
1651.371012811811
 30
0.0
  0
ENDBLK
  5
13DF
330
13D4
100
AcDbEntity
  8
0
100
AcDbBlockEnd
  0
BLOCK
  5
187D
330
1878
100
AcDbEntity
  8
0
100
AcDbBlockBegin
  2
*S10
 70
     1
 10
0.0
 20
0.0
 30
0.0
  3
*S10
  1

  0
LINE
  5
1879
330
1878
100
AcDbEntity
  8
AM_5
 62
     5
100
AcDbLine
 10
2164.183235058693
 20
1592.616971602135
 30
0.0
 11
2150.920254650503
 21
1592.616971602135
 31
0.0
  0
LINE
  5
187A
330
1878
100
AcDbEntity
  8
AM_5
 62
     5
100
AcDbLine
 10
2150.920254650503
 20
1592.616971602135
 30
0.0
 11
2142.752272806263
 21
1612.299462928153
 31
0.0
  0
TRACE
  5
187B
330
1878
100
AcDbEntity
  8
AM_5
 62
     5
370
    35
100
AcDbTrace
 10
2143.177864971349
 20
1612.476078226485
 30
0.0
 11
2142.326680641177
 21
1612.12284762982
 31
0.0
 12
2141.410746421598
 22
1615.532156380871
 32
0.0
 13
2141.410746421598
 23
1615.532156380871
 33
0.0
  0
MTEXT
  5
187C
330
1878
100
AcDbEntity
  8
AM_5
 62
     2
100
AcDbMText
 10
2164.183235058693
 20
1597.717172287524
 30
0.0
 40
3.5
 41
0.0
 71
     7
 72
     5
  1

  7
ACISOTS
 73
     1
 44
1.0
1001
ACAD
1000
MTEXTBEGIN
1070
    73
1070
     1
1070
    44
1040
1.0
1070
    74
1070
     0
1000
MTEXTEND
  0
ENDBLK
  5
187E
330
1878
100
AcDbEntity
  8
0
100
AcDbBlockEnd
  0
BLOCK
  5
1885
330
1880
100
AcDbEntity
  8
0
100
AcDbBlockBegin
  2
*S11
 70
     1
 10
0.0
 20
0.0
 30
0.0
  3
*S11
  1

  0
LINE
  5
1881
330
1880
100
AcDbEntity
  8
AM_5
 62
     5
100
AcDbLine
 10
2164.183235058693
 20
1377.271387956606
 30
0.0
 11
2150.920254650503
 21
1377.271387956606
 31
0.0
  0
LINE
  5
1882
330
1880
100
AcDbEntity
  8
AM_5
 62
     5
100
AcDbLine
 10
2150.920254650503
 20
1377.271387956606
 30
0.0
 11
2142.752272806263
 21
1396.953879282624
 31
0.0
  0
TRACE
  5
1883
330
1880
100
AcDbEntity
  8
AM_5
 62
     5
370
    35
100
AcDbTrace
 10
2143.177864971349
 20
1397.130494580956
 30
0.0
 11
2142.326680641177
 21
1396.777263984291
 31
0.0
 12
2141.410746421598
 22
1400.186572735342
 32
0.0
 13
2141.410746421598
 23
1400.186572735342
 33
0.0
  0
MTEXT
  5
1884
330
1880
100
AcDbEntity
  8
AM_5
 62
     2
100
AcDbMText
 10
2164.183235058693
 20
1382.371588641995
 30
0.0
 40
3.5
 41
0.0
 71
     7
 72
     5
  1

  7
ACISOTS
 73
     1
 44
1.0
1001
ACAD
1000
MTEXTBEGIN
1070
    73
1070
     1
1070
    44
1040
1.0
1070
    74
1070
     0
1000
MTEXTEND
  0
ENDBLK
  5
1886
330
1880
100
AcDbEntity
  8
0
100
AcDbBlockEnd
  0
ENDSEC
  0
SECTION
  2
ENTITIES
  0
LINE
  5
D9C
330
1F
100
AcDbEntity
  8
LOGO
 62
     1
100
AcDbLine
 10
2401.104688387047
 20
1305.841080299689
 30
0.0
 11
2070.683719858092
 21
1305.841080299689
 31
0.0
  0
LWPOLYLINE
  5
DB0
330
1F
100
AcDbEntity
  8
0
 62
     4
100
AcDbPolyline
 90
        4
 70
     1
 43
0.0
 10
2070.683719858092
 20
1305.841080299689
 10
2401.104688387047
 20
1305.841080299689
 10
2401.104688387047
 20
1740.650476157209
 10
2070.683719858092
 20
1740.650476157209
1001
GENIUS_GENREC_14
1002
{
1000
PYDIR
1011
2070.683719858092
1021
1740.650476157209
1031
0.0
1002
}
1002
{
1000
PXDIR
1011
2401.104688387047
1021
1305.841080299689
1031
0.0
1002
}
1002
{
1000
PORI
1011
2070.683719858092
1021
1305.841080299689
1031
0.0
1002
}
1002
{
1000
PINS
1011
2070.683719858092
1021
1305.841080299689
1031
0.0
1002
}
1002
{
1000
PINS2
1011
2401.104688387047
1021
1740.650476157209
1031
0.0
1002
}
1002
{
1000
C
1070
     1
1002
}
1001
GENIUS_GENODEF_13
1002
{
1000
HIER
1070
     0
1002
}
1002
{
1000
MANEDIT
1070
     0
1002
}
1002
{
1000
NOSEL
1070
     0
1002
}
1002
{
1000
BEHIND
1070
     0
1002
}
1002
{
1000
OTHER
1070
     0
1002
}
1002
{
1000
REACTOR
1002
}
1001
GENIUS_GENOBJ-N-REC_13
1002
{
1000
OWNER
1000
GEN
1002
}
  0
LINE
  5
DEE
330
1F
100
AcDbEntity
  8
LOGO
 62
     4
100
AcDbLine
 10
2192.579883420052
 20
1279.911429773934
 30
0.0
 11
2173.717907673446
 21
1279.911429773934
 31
0.0
  0
LINE
  5
DEF
330
1F
100
AcDbEntity
  8
LOGO
 62
     4
100
AcDbLine
 10
2192.579883420052
 20
1290.285516434567
 30
0.0
 11
2173.717907673446
 21
1290.285516434567
 31
0.0
  0
LINE
  5
DF0
330
1F
100
AcDbEntity
  8
LOGO
 62
     4
100
AcDbLine
 10
2194.466080994713
 20
1294.529460977553
 30
0.0
 11
2171.831710098786
 21
1294.529460977553
 31
0.0
  0
LINE
  5
DF1
330
1F
100
AcDbEntity
  8
LOGO
 62
     4
100
AcDbLine
 10
2194.466080994713
 20
1303.017350063526
 30
0.0
 11
2171.831710098786
 21
1303.017350063526
 31
0.0
  0
TEXT
  5
DF2
330
1F
100
AcDbEntity
  8
LOGO
  6
Continuous
 62
     7
100
AcDbText
 10
2173.715562213416
 20
1296.29715552054
 30
0.0
 40
4.9525
  1
MCGB
  7
CHINESET
 72
     1
 11
2183.14889554675
 21
1298.77340552054
 31
0.0
100
AcDbText
 73
     2
  0
LINE
  5
DF3
330
1F
100
AcDbEntity
  8
LOGO
 62
     4
100
AcDbLine
 10
2171.831710098786
 20
1303.017350063526
 30
0.0
 11
2171.831710098786
 21
1294.529460977553
 31
0.0
  0
LINE
  5
DF4
330
1F
100
AcDbEntity
  8
LOGO
 62
     4
100
AcDbLine
 10
2173.717907673446
 20
1290.285516434567
 30
0.0
 11
2173.717907673446
 21
1279.911429773934
 31
0.0
  0
TEXT
  5
DF5
330
1F
100
AcDbEntity
  8
LOGO
  6
Continuous
100
AcDbText
 10
2179.914609832464
 20
1281.20792674226
 30
185.4274225714162
 40
2.1225
  1
Model
 41
0.8
  7
CHINESET
 72
     4
 11
2183.14889554675
 21
1282.269176742259
 31
185.4274225714162
100
AcDbText
  0
TEXT
  5
DF6
330
1F
100
AcDbEntity
  8
LOGO
100
AcDbText
 10
2179.611395546749
 20
1285.306447253714
 30
185.4274225714162
 40
3.5375
  1
型式
  7
CHINESET
 72
     4
 11
2183.14889554675
 21
1286.984670678911
 31
185.4274225714162
100
AcDbText
  0
LINE
  5
DF7
330
1F
100
AcDbEntity
  8
LOGO
 62
     4
100
AcDbLine
 10
2183.14889554675
 20
1294.529460977553
 30
0.0
 11
2183.14889554675
 21
1290.285516434567
 31
0.0
  0
LINE
  5
DF8
330
1F
100
AcDbEntity
  8
LOGO
 62
     4
100
AcDbLine
 10
2194.466080994713
 20
1303.017350063526
 30
0.0
 11
2194.466080994713
 21
1294.529460977553
 31
0.0
  0
LINE
  5
DF9
330
1F
100
AcDbEntity
  8
LOGO
 62
     4
100
AcDbLine
 10
2225.717028093362
 20
1303.017350063526
 30
0.0
 11
2225.717028093362
 21
1294.529460977553
 31
0.0
  0
LINE
  5
DFA
330
1F
100
AcDbEntity
  8
LOGO
 62
     4
100
AcDbLine
 10
2201.144208161405
 20
1303.017350063526
 30
0.0
 11
2201.144208161405
 21
1294.529460977553
 31
0.0
  0
TEXT
  5
DFB
330
1F
100
AcDbEntity
  8
LOGO
  6
Continuous
100
AcDbText
 10
2205.466189555955
 20
1281.561676742259
 30
185.4274225714162
 40
2.1225
  1
Bearing type
 41
0.8
  7
CHINESET
 72
     4
 11
2213.430618127383
 21
1282.269176742259
 31
185.4274225714162
100
AcDbText
  0
TEXT
  5
DFC
330
1F
100
AcDbEntity
  8
LOGO
100
AcDbText
 10
2206.392467085716
 20
1285.306447253714
 30
185.4274225714162
 40
3.5375
  1
軸承型式
  7
CHINESET
 72
     4
 11
2213.430618127383
 21
1286.984670678911
 31
185.4274225714162
100
AcDbText
  0
LINE
  5
DFD
330
1F
100
AcDbEntity
  8
LOGO
 62
     4
100
AcDbLine
 10
2225.717028093362
 20
1294.529460977553
 30
0.0
 11
2201.144208161405
 21
1294.529460977553
 31
0.0
  0
LINE
  5
DFE
330
1F
100
AcDbEntity
  8
LOGO
 62
     4
100
AcDbLine
 10
2225.717028093362
 20
1290.285516434567
 30
0.0
 11
2201.144208161405
 21
1290.285516434567
 31
0.0
  0
LINE
  5
DFF
330
1F
100
AcDbEntity
  8
LOGO
 62
     4
100
AcDbLine
 10
2225.717028093362
 20
1279.911429773934
 30
0.0
 11
2201.144208161405
 21
1279.911429773934
 31
0.0
  0
LINE
  5
E00
330
1F
100
AcDbEntity
  8
LOGO
 62
     4
100
AcDbLine
 10
2192.579883420052
 20
1290.285516434567
 30
0.0
 11
2192.579883420052
 21
1279.911429773934
 31
0.0
  0
LINE
  5
E01
330
1F
100
AcDbEntity
  8
LOGO
 62
     4
100
AcDbLine
 10
2201.144208161405
 20
1290.285516434567
 30
0.0
 11
2201.144208161405
 21
1279.911429773934
 31
0.0
  0
LINE
  5
E02
330
1F
100
AcDbEntity
  8
LOGO
 62
     4
100
AcDbLine
 10
2225.717028093362
 20
1290.285516434567
 30
0.0
 11
2225.717028093362
 21
1279.911429773934
 31
0.0
  0
LINE
  5
E03
330
1F
100
AcDbEntity
  8
LOGO
 62
     4
100
AcDbLine
 10
2213.430618127383
 20
1294.529460977553
 30
0.0
 11
2213.430618127383
 21
1290.285516434567
 31
0.0
  0
LINE
  5
E04
330
1F
100
AcDbEntity
  8
LOGO
 62
     4
100
AcDbLine
 10
2225.717028093362
 20
1303.017350063526
 30
0.0
 11
2201.144208161405
 21
1303.017350063526
 31
0.0
  0
LINE
  5
E05
330
1F
100
AcDbEntity
  8
LOGO
  6
Continuous
 62
     7
100
AcDbLine
 10
2195.928416724033
 20
1298.743340075994
 30
0.0
 11
2199.676358835088
 21
1298.743340075994
 31
0.0
  0
TEXT
  5
E06
330
1F
100
AcDbEntity
  8
LOGO
  6
Continuous
 62
     7
100
AcDbText
 10
2202.110618127383
 20
1296.243681522162
 30
0.0
 40
4.9525
  1
03/23
  7
CHINESET
 72
     1
 11
2213.430618127383
 21
1298.719931522162
 31
0.0
100
AcDbText
 73
     2
  0
TEXT
  5
E07
330
1F
100
AcDbEntity
  8
LOGO
  6
Continuous
 62
     7
100
AcDbText
 10
2258.972994356913
 20
1296.243681522162
 30
0.0
 40
4.9525
  1
10
  7
CHINESET
 72
     1
 11
2262.510494356913
 21
1298.719931522162
 31
0.0
100
AcDbText
 73
     2
  0
TEXT
  5
E08
330
1F
100
AcDbEntity
  8
LOGO
  6
Continuous
100
AcDbText
 10
2258.229667182316
 20
1281.20792674226
 30
185.4274225714162
 40
2.1225
  1
Stroke
 41
0.8
  7
CHINESET
 72
     4
 11
2262.07038146803
 21
1282.269176742259
 31
185.4274225714162
100
AcDbText
  0
LINE
  5
E09
330
1F
100
AcDbEntity
  8
LOGO
 62
     4
100
AcDbLine
 10
2269.925648450662
 20
1303.017350063526
 30
0.0
 11
2254.215114485399
 21
1303.017350063526
 31
0.0
  0
TEXT
  5
E0A
330
1F
100
AcDbEntity
  8
LOGO
100
AcDbText
 10
2258.53288146803
 20
1285.215920678911
 30
185.4274225714162
 40
3.5375
  1
行程
  7
CHINESET
 72
     4
 11
2262.07038146803
 21
1286.984670678911
 31
185.4274225714162
100
AcDbText
  0
LINE
  5
E0B
330
1F
100
AcDbEntity
  8
LOGO
 62
     4
100
AcDbLine
 10
2268.982549663332
 20
1279.911429773934
 30
0.0
 11
2255.158213272729
 21
1279.911429773934
 31
0.0
  0
LINE
  5
E0C
330
1F
100
AcDbEntity
  8
LOGO
 62
     4
100
AcDbLine
 10
2269.925648450662
 20
1294.529460977553
 30
0.0
 11
2254.215114485399
 21
1294.529460977553
 31
0.0
  0
LINE
  5
E0D
330
1F
100
AcDbEntity
  8
LOGO
 62
     4
100
AcDbLine
 10
2268.982549663332
 20
1290.285516434567
 30
0.0
 11
2255.158213272729
 21
1290.285516434567
 31
0.0
  0
LINE
  5
E0E
330
1F
100
AcDbEntity
  8
LOGO
 62
     4
100
AcDbLine
 10
2247.536987318707
 20
1303.017350063527
 30
0.0
 11
2247.536987318707
 21
1294.529460977553
 31
0.0
  0
LINE
  5
E0F
330
1F
100
AcDbEntity
  8
LOGO
 62
     4
100
AcDbLine
 10
2232.395155260054
 20
1303.017350063526
 30
0.0
 11
2232.395155260054
 21
1294.529460977553
 31
0.0
  0
LINE
  5
E10
330
1F
100
AcDbEntity
  8
LOGO
 62
     4
100
AcDbLine
 10
2254.215114485399
 20
1303.017350063526
 30
0.0
 11
2254.215114485399
 21
1294.529460977553
 31
0.0
  0
LINE
  5
E11
330
1F
100
AcDbEntity
  8
LOGO
 62
     4
100
AcDbLine
 10
2247.536987318707
 20
1279.911429773934
 30
0.0
 11
2232.395155260054
 21
1279.911429773934
 31
0.0
  0
LINE
  5
E12
330
1F
100
AcDbEntity
  8
LOGO
 62
     4
100
AcDbLine
 10
2247.536987318707
 20
1294.529460977553
 30
0.0
 11
2232.395155260054
 21
1294.529460977553
 31
0.0
  0
LINE
  5
E13
330
1F
100
AcDbEntity
  8
LOGO
 62
     4
100
AcDbLine
 10
2247.536987318707
 20
1290.285516434567
 30
0.0
 11
2232.395155260054
 21
1290.285516434567
 31
0.0
  0
LINE
  5
E14
330
1F
100
AcDbEntity
  8
LOGO
 62
     4
100
AcDbLine
 10
2232.395155260054
 20
1290.285516434567
 30
0.0
 11
2232.395155260054
 21
1279.911429773934
 31
0.0
  0
TEXT
  5
E15
330
1F
100
AcDbEntity
  8
LOGO
  6
Continuous
100
AcDbText
 10
2237.338214146523
 20
1281.20792674226
 30
185.4274225714162
 40
2.1225
  1
Bore
 41
0.8
  7
CHINESET
 72
     4
 11
2239.96607128938
 21
1282.269176742259
 31
185.4274225714162
100
AcDbText
  0
TEXT
  5
E16
330
1F
100
AcDbEntity
  8
LOGO
100
AcDbText
 10
2236.20747753938
 20
1285.215920678911
 30
185.4274225714162
 40
3.5375
  1
內徑
  7
CHINESET
 72
     4
 11
2239.96607128938
 21
1286.984670678911
 31
185.4274225714162
100
AcDbText
  0
LINE
  5
E17
330
1F
100
AcDbEntity
  8
LOGO
 62
     4
100
AcDbLine
 10
2239.966071071917
 20
1294.529460977553
 30
0.0
 11
2239.966071071917
 21
1290.285516434567
 31
0.0
  0
LINE
  5
E18
330
1F
100
AcDbEntity
  8
LOGO
 62
     4
100
AcDbLine
 10
2247.536987318707
 20
1290.285516434567
 30
0.0
 11
2247.536987318707
 21
1279.911429773934
 31
0.0
  0
LINE
  5
E19
330
1F
100
AcDbEntity
  8
LOGO
 62
     4
100
AcDbLine
 10
2255.158213272729
 20
1290.285516434567
 30
0.0
 11
2255.158213272729
 21
1279.911429773934
 31
0.0
  0
LINE
  5
E1A
330
1F
100
AcDbEntity
  8
LOGO
 62
     4
100
AcDbLine
 10
2247.536987318707
 20
1303.017350063527
 30
0.0
 11
2232.395155260054
 21
1303.017350063526
 31
0.0
  0
LINE
  5
E1B
330
1F
100
AcDbEntity
  8
LOGO
  6
Continuous
 62
     7
100
AcDbLine
 10
2227.179363822682
 20
1298.743340075994
 30
0.0
 11
2230.927305933736
 21
1298.743340075994
 31
0.0
  0
TEXT
  5
E1C
330
1F
100
AcDbEntity
  8
LOGO
  6
Continuous
 62
     7
100
AcDbText
 10
2236.868684178263
 20
1296.243681522162
 30
0.0
 40
4.9525
  1
12
  7
CHINESET
 72
     1
 11
2240.406184178263
 21
1298.719931522162
 31
0.0
100
AcDbText
 73
     2
  0
LINE
  5
E1D
330
1F
100
AcDbEntity
  8
LOGO
  6
Continuous
 62
     7
100
AcDbLine
 10
2248.999323048028
 20
1298.743340075994
 30
0.0
 11
2252.747265159082
 21
1298.743340075994
 31
0.0
  0
LINE
  5
E1E
330
1F
100
AcDbEntity
  8
LOGO
 62
     4
100
AcDbLine
 10
2269.925648450662
 20
1303.017350063526
 30
0.0
 11
2269.925648450662
 21
1294.529460977553
 31
0.0
  0
LINE
  5
E1F
330
1F
100
AcDbEntity
  8
LOGO
 62
     4
100
AcDbLine
 10
2268.982549663332
 20
1290.285516434567
 30
0.0
 11
2268.982549663332
 21
1279.872312588394
 31
0.0
  0
LINE
  5
E20
330
1F
100
AcDbEntity
  8
LOGO
 62
     4
100
AcDbLine
 10
2262.270121227987
 20
1294.529460977553
 30
0.0
 11
2262.270121227987
 21
1290.285516434567
 31
0.0
  0
LINE
  5
E21
330
1F
100
AcDbEntity
  8
0
 62
     4
100
AcDbLine
 10
2070.683719858092
 20
1523.245778228449
 30
0.0
 11
2401.104688387047
 21
1523.245778228449
 31
0.0
  0
LINE
  5
E22
330
1F
100
AcDbEntity
  8
AM_VIS
100
AcDbLine
 10
2168.467291092356
 20
1651.371012811811
 30
0.0
 11
2168.217291092355
 21
1651.121012811811
 31
0.0
  0
LINE
  5
E23
330
1F
100
AcDbEntity
  8
AM_VIS
100
AcDbLine
 10
2223.717291092356
 20
1651.121012811811
 30
0.0
 11
2223.967291092356
 21
1650.871012811811
 31
0.0
  0
LINE
  5
E24
330
1F
100
AcDbEntity
  8
AM_VIS
100
AcDbLine
 10
2223.467291092356
 20
1651.371012811811
 30
0.0
 11
2223.717291092356
 21
1651.121012811811
 31
0.0
  0
LINE
  5
E25
330
1F
100
AcDbEntity
  8
AM_VIS
100
AcDbLine
 10
2223.967291092356
 20
1643.871012811811
 30
0.0
 11
2223.967291092356
 21
1650.871012811811
 31
0.0
  0
LINE
  5
E26
330
1F
100
AcDbEntity
  8
AM_VIS
100
AcDbLine
 10
2223.967291092356
 20
1643.871012811811
 30
0.0
 11
2223.717291092356
 21
1643.621012811811
 31
0.0
  0
LINE
  5
E27
330
1F
100
AcDbEntity
  8
AM_VIS
100
AcDbLine
 10
2167.967291092355
 20
1650.871012811811
 30
0.0
 11
2167.967291092355
 21
1643.871012811811
 31
0.0
  0
LINE
  5
E28
330
1F
100
AcDbEntity
  8
AM_VIS
100
AcDbLine
 10
2167.967291092355
 20
1650.871012811811
 30
0.0
 11
2168.217291092355
 21
1651.121012811811
 31
0.0
  0
LINE
  5
E29
330
1F
100
AcDbEntity
  8
AM_VIS
100
AcDbLine
 10
2223.467291092356
 20
1643.371012811811
 30
0.0
 11
2223.717291092356
 21
1643.621012811811
 31
0.0
  0
LINE
  5
E2A
330
1F
100
AcDbEntity
  8
AM_VIS
100
AcDbLine
 10
2168.467291092356
 20
1643.371012811811
 30
0.0
 11
2168.217291092355
 21
1643.621012811811
 31
0.0
  0
LINE
  5
E2B
330
1F
100
AcDbEntity
  8
AM_VIS
100
AcDbLine
 10
2168.217291092355
 20
1643.621012811811
 30
0.0
 11
2167.967291092355
 21
1643.871012811811
 31
0.0
  0
LINE
  5
E2C
330
1F
100
AcDbEntity
  8
AM_VIS
100
AcDbLine
 10
2223.467291092356
 20
1651.371012811811
 30
0.0
 11
2168.467291092356
 21
1651.371012811811
 31
0.0
  0
LINE
  5
E2D
330
1F
100
AcDbEntity
  8
AM_VIS
100
AcDbLine
 10
2168.467291092356
 20
1643.371012811811
 30
0.0
 11
2223.467291092356
 21
1643.371012811811
 31
0.0
  0
LINE
  5
E2E
330
1F
100
AcDbEntity
  8
AM_VIS
100
AcDbLine
 10
2207.467291092356
 20
1632.371012811811
 30
0.0
 11
2207.467291092356
 21
1626.371012811811
 31
0.0
  0
LINE
  5
E2F
330
1F
100
AcDbEntity
  8
AM_VIS
100
AcDbLine
 10
2184.467291092356
 20
1618.371012811811
 30
0.0
 11
2184.467291092356
 21
1602.371012811811
 31
0.0
  0
LINE
  5
E30
330
1F
100
AcDbEntity
  8
AM_VIS
100
AcDbLine
 10
2187.467291092355
 20
1619.725261500747
 30
0.0
 11
2187.467291092355
 21
1602.371012811811
 31
0.0
  0
LINE
  5
E31
330
1F
100
AcDbEntity
  8
AM_VIS
100
AcDbLine
 10
2204.467291092356
 20
1625.016764122876
 30
0.0
 11
2204.467291092356
 21
1633.725261500747
 31
0.0
  0
LINE
  5
E32
330
1F
100
AcDbEntity
  8
AM_VIS
100
AcDbLine
 10
2202.467291092355
 20
1641.371012811811
 30
0.0
 11
2202.467291092355
 21
1602.371012811811
 31
0.0
  0
LINE
  5
E33
330
1F
100
AcDbEntity
  8
AM_VIS
100
AcDbLine
 10
2189.467291092356
 20
1602.371012811811
 30
0.0
 11
2189.467291092356
 21
1641.371012811811
 31
0.0
  0
LINE
  5
E34
330
1F
100
AcDbEntity
  8
AM_VIS
100
AcDbLine
 10
2201.667291092356
 20
1641.371012811811
 30
0.0
 11
2201.667291092356
 21
1602.371012811811
 31
0.0
  0
LINE
  5
E35
330
1F
100
AcDbEntity
  8
AM_VIS
100
AcDbLine
 10
2198.267291092355
 20
1602.371012811811
 30
0.0
 11
2198.267291092355
 21
1641.371012811811
 31
0.0
  0
LINE
  5
E36
330
1F
100
AcDbEntity
  8
AM_VIS
100
AcDbLine
 10
2193.667291092356
 20
1641.371012811811
 30
0.0
 11
2193.667291092356
 21
1602.371012811811
 31
0.0
  0
LINE
  5
E37
330
1F
100
AcDbEntity
  8
AM_VIS
100
AcDbLine
 10
2190.267291092355
 20
1602.371012811811
 30
0.0
 11
2190.267291092355
 21
1641.371012811811
 31
0.0
  0
LINE
  5
E38
330
1F
100
AcDbEntity
  8
AM_VIS
100
AcDbLine
 10
2224.967291092355
 20
1602.371012811811
 30
0.0
 11
2224.967291092355
 21
1641.371012811811
 31
0.0
  0
LINE
  5
E39
330
1F
100
AcDbEntity
  8
AM_VIS
100
AcDbLine
 10
2187.467291092355
 20
1641.371012811811
 30
0.0
 11
2187.467291092355
 21
1639.016764122876
 31
0.0
  0
LINE
  5
E3A
330
1F
100
AcDbEntity
  8
AM_VIS
100
AcDbLine
 10
2184.467291092356
 20
1641.371012811811
 30
0.0
 11
2184.467291092356
 21
1640.371012811811
 31
0.0
  0
ARC
  5
E3B
330
1F
100
AcDbEntity
  8
AM_VIS
100
AcDbCircle
 10
2184.467291092356
 20
1636.371012811811
 30
0.0
 40
3.999999999999999
100
AcDbArc
 50
90.0
 51
138.5903778907302
  0
ARC
  5
E3C
330
1F
100
AcDbEntity
  8
AM_VIS
100
AcDbCircle
 10
2184.467291092356
 20
1636.371012811811
 30
0.0
 40
4.0
100
AcDbArc
 50
41.40962210926974
 51
90.0
  0
LINE
  5
E3D
330
1F
100
AcDbEntity
  8
AM_VIS
100
AcDbLine
 10
2204.467291092356
 20
1639.016764122876
 30
0.0
 11
2204.467291092356
 21
1641.371012811811
 31
0.0
  0
LINE
  5
E3E
330
1F
100
AcDbEntity
  8
AM_VIS
100
AcDbLine
 10
2204.467291092356
 20
1602.371012811811
 30
0.0
 11
2204.467291092356
 21
1619.725261500747
 31
0.0
  0
LINE
  5
E3F
330
1F
100
AcDbEntity
  8
AM_VIS
100
AcDbLine
 10
2207.467291092356
 20
1641.371012811811
 30
0.0
 11
2207.467291092356
 21
1640.371012811811
 31
0.0
  0
LINE
  5
E40
330
1F
100
AcDbEntity
  8
AM_VIS
100
AcDbLine
 10
2207.467291092356
 20
1618.371012811811
 30
0.0
 11
2207.467291092356
 21
1602.371012811811
 31
0.0
  0
LINE
  5
E41
330
1F
100
AcDbEntity
  8
AM_VIS
100
AcDbLine
 10
2210.467291092355
 20
1633.725261500747
 30
0.0
 11
2210.467291092355
 21
1625.016764122876
 31
0.0
  0
LINE
  5
E42
330
1F
100
AcDbEntity
  8
AM_VIS
100
AcDbLine
 10
2210.467291092355
 20
1641.371012811811
 30
0.0
 11
2210.467291092355
 21
1639.016764122876
 31
0.0
  0
LINE
  5
E43
330
1F
100
AcDbEntity
  8
AM_VIS
100
AcDbLine
 10
2210.467291092355
 20
1619.725261500747
 30
0.0
 11
2210.467291092355
 21
1602.371012811811
 31
0.0
  0
ARC
  5
E44
330
1F
100
AcDbEntity
  8
AM_VIS
100
AcDbCircle
 10
2184.467291092356
 20
1636.371012811811
 30
0.0
 40
4.0
100
AcDbArc
 50
270.0
 51
318.5903778907302
  0
LINE
  5
E45
330
1F
100
AcDbEntity
  8
AM_VIS
100
AcDbLine
 10
2187.467291092355
 20
1633.725261500747
 30
0.0
 11
2187.467291092355
 21
1625.016764122876
 31
0.0
  0
ARC
  5
E46
330
1F
100
AcDbEntity
  8
AM_VIS
100
AcDbCircle
 10
2184.467291092356
 20
1636.371012811811
 30
0.0
 40
3.999999999999999
100
AcDbArc
 50
221.4096221092697
 51
270.0
  0
LINE
  5
E47
330
1F
100
AcDbEntity
  8
AM_VIS
100
AcDbLine
 10
2184.467291092356
 20
1632.371012811811
 30
0.0
 11
2184.467291092356
 21
1626.371012811811
 31
0.0
  0
ARC
  5
E48
330
1F
100
AcDbEntity
  8
AM_VIS
100
AcDbCircle
 10
2207.467291092356
 20
1636.371012811811
 30
0.0
 40
4.0
100
AcDbArc
 50
270.0
 51
318.5903778907302
  0
ARC
  5
E49
330
1F
100
AcDbEntity
  8
AM_VIS
100
AcDbCircle
 10
2207.467291092356
 20
1636.371012811811
 30
0.0
 40
3.999999999999999
100
AcDbArc
 50
221.4096221092697
 51
270.0
  0
ARC
  5
E4A
330
1F
100
AcDbEntity
  8
AM_VIS
100
AcDbCircle
 10
2207.467291092356
 20
1636.371012811811
 30
0.0
 40
3.999999999999999
100
AcDbArc
 50
90.0
 51
138.5903778907302
  0
ARC
  5
E4B
330
1F
100
AcDbEntity
  8
AM_VIS
100
AcDbCircle
 10
2207.467291092356
 20
1636.371012811811
 30
0.0
 40
4.0
100
AcDbArc
 50
41.40962210926974
 51
90.0
  0
ARC
  5
E4C
330
1F
100
AcDbEntity
  8
AM_VIS
100
AcDbCircle
 10
2184.467291092356
 20
1622.371012811811
 30
0.0
 40
3.999999999999999
100
AcDbArc
 50
90.0
 51
138.5903778907302
  0
ARC
  5
E4D
330
1F
100
AcDbEntity
  8
AM_VIS
100
AcDbCircle
 10
2184.467291092356
 20
1622.371012811811
 30
0.0
 40
4.0
100
AcDbArc
 50
41.40962210926974
 51
90.0
  0
ARC
  5
E4E
330
1F
100
AcDbEntity
  8
AM_VIS
100
AcDbCircle
 10
2184.467291092356
 20
1622.371012811811
 30
0.0
 40
4.0
100
AcDbArc
 50
270.0
 51
318.5903778907302
  0
ARC
  5
E4F
330
1F
100
AcDbEntity
  8
AM_VIS
100
AcDbCircle
 10
2184.467291092356
 20
1622.371012811811
 30
0.0
 40
3.999999999999999
100
AcDbArc
 50
221.4096221092697
 51
270.0
  0
ARC
  5
E50
330
1F
100
AcDbEntity
  8
AM_VIS
100
AcDbCircle
 10
2207.467291092356
 20
1622.371012811811
 30
0.0
 40
4.0
100
AcDbArc
 50
270.0
 51
318.5903778907302
  0
ARC
  5
E51
330
1F
100
AcDbEntity
  8
AM_VIS
100
AcDbCircle
 10
2207.467291092356
 20
1622.371012811811
 30
0.0
 40
3.999999999999999
100
AcDbArc
 50
221.4096221092697
 51
270.0
  0
ARC
  5
E52
330
1F
100
AcDbEntity
  8
AM_VIS
100
AcDbCircle
 10
2207.467291092356
 20
1622.371012811811
 30
0.0
 40
3.999999999999999
100
AcDbArc
 50
90.0
 51
138.5903778907302
  0
ARC
  5
E53
330
1F
100
AcDbEntity
  8
AM_VIS
100
AcDbCircle
 10
2207.467291092356
 20
1622.371012811811
 30
0.0
 40
4.0
100
AcDbArc
 50
41.40962210926974
 51
90.0
  0
LINE
  5
E54
330
1F
100
AcDbEntity
  8
AM_VIS
100
AcDbLine
 10
2223.967291092356
 20
1641.371012811811
 30
0.0
 11
2210.467291092355
 21
1641.371012811811
 31
0.0
  0
LINE
  5
E55
330
1F
100
AcDbEntity
  8
AM_VIS
100
AcDbLine
 10
2207.467291092356
 20
1641.371012811811
 30
0.0
 11
2210.467291092355
 21
1641.371012811811
 31
0.0
  0
LINE
  5
E56
330
1F
100
AcDbEntity
  8
AM_VIS
100
AcDbLine
 10
2204.467291092356
 20
1641.371012811811
 30
0.0
 11
2207.467291092356
 21
1641.371012811811
 31
0.0
  0
LINE
  5
E57
330
1F
100
AcDbEntity
  8
AM_VIS
100
AcDbLine
 10
2204.467291092356
 20
1641.371012811811
 30
0.0
 11
2202.467291092355
 21
1641.371012811811
 31
0.0
  0
LINE
  5
E58
330
1F
100
AcDbEntity
  8
AM_VIS
100
AcDbLine
 10
2202.067291092355
 20
1641.371012811811
 30
0.0
 11
2202.467291092355
 21
1641.371012811811
 31
0.0
  0
LINE
  5
E59
330
1F
100
AcDbEntity
  8
AM_VIS
100
AcDbLine
 10
2201.667291092356
 20
1641.371012811811
 30
0.0
 11
2202.067291092355
 21
1641.371012811811
 31
0.0
  0
LINE
  5
E5A
330
1F
100
AcDbEntity
  8
AM_VIS
100
AcDbLine
 10
2199.517291092355
 20
1641.371012811811
 30
0.0
 11
2200.417291092355
 21
1641.371012811811
 31
0.0
  0
LINE
  5
E5B
330
1F
100
AcDbEntity
  8
AM_VIS
100
AcDbLine
 10
2191.517291092355
 20
1641.371012811811
 30
0.0
 11
2192.417291092355
 21
1641.371012811811
 31
0.0
  0
LINE
  5
E5C
330
1F
100
AcDbEntity
  8
AM_VIS
100
AcDbLine
 10
2189.867291092355
 20
1641.371012811811
 30
0.0
 11
2190.267291092355
 21
1641.371012811811
 31
0.0
  0
LINE
  5
E5D
330
1F
100
AcDbEntity
  8
AM_VIS
100
AcDbLine
 10
2189.467291092356
 20
1641.371012811811
 30
0.0
 11
2189.867291092355
 21
1641.371012811811
 31
0.0
  0
LINE
  5
E5E
330
1F
100
AcDbEntity
  8
AM_VIS
100
AcDbLine
 10
2189.467291092356
 20
1641.371012811811
 30
0.0
 11
2187.467291092355
 21
1641.371012811811
 31
0.0
  0
LINE
  5
E5F
330
1F
100
AcDbEntity
  8
AM_VIS
100
AcDbLine
 10
2184.467291092356
 20
1641.371012811811
 30
0.0
 11
2187.467291092355
 21
1641.371012811811
 31
0.0
  0
LINE
  5
E60
330
1F
100
AcDbEntity
  8
AM_VIS
100
AcDbLine
 10
2181.467291092356
 20
1641.371012811811
 30
0.0
 11
2184.467291092356
 21
1641.371012811811
 31
0.0
  0
LINE
  5
E61
330
1F
100
AcDbEntity
  8
AM_VIS
100
AcDbLine
 10
2181.467291092356
 20
1602.371012811811
 30
0.0
 11
2181.467291092356
 21
1619.725261500747
 31
0.0
  0
LINE
  5
E62
330
1F
100
AcDbEntity
  8
AM_VIS
100
AcDbLine
 10
2181.467291092356
 20
1641.371012811811
 30
0.0
 11
2167.967291092355
 21
1641.371012811811
 31
0.0
  0
LINE
  5
E63
330
1F
100
AcDbEntity
  8
AM_VIS
100
AcDbLine
 10
2181.467291092356
 20
1639.016764122876
 30
0.0
 11
2181.467291092356
 21
1641.371012811811
 31
0.0
  0
LINE
  5
E64
330
1F
100
AcDbEntity
  8
AM_VIS
100
AcDbLine
 10
2181.467291092356
 20
1625.016764122876
 30
0.0
 11
2181.467291092356
 21
1633.725261500747
 31
0.0
  0
LINE
  5
E65
330
1F
100
AcDbEntity
  8
AM_VIS
100
AcDbLine
 10
2166.967291092356
 20
1641.371012811811
 30
0.0
 11
2166.967291092356
 21
1602.371012811811
 31
0.0
  0
LINE
  5
E66
330
1F
100
AcDbEntity
  8
AM_VIS
100
AcDbLine
 10
2167.967291092355
 20
1602.371012811811
 30
0.0
 11
2181.467291092356
 21
1602.371012811811
 31
0.0
  0
LINE
  5
E67
330
1F
100
AcDbEntity
  8
AM_VIS
100
AcDbLine
 10
2184.467291092356
 20
1602.371012811811
 30
0.0
 11
2181.467291092356
 21
1602.371012811811
 31
0.0
  0
LINE
  5
E68
330
1F
100
AcDbEntity
  8
AM_VIS
100
AcDbLine
 10
2187.467291092355
 20
1602.371012811811
 30
0.0
 11
2184.467291092356
 21
1602.371012811811
 31
0.0
  0
LINE
  5
E69
330
1F
100
AcDbEntity
  8
AM_VIS
100
AcDbLine
 10
2187.467291092355
 20
1602.371012811811
 30
0.0
 11
2189.467291092356
 21
1602.371012811811
 31
0.0
  0
LINE
  5
E6A
330
1F
100
AcDbEntity
  8
AM_VIS
100
AcDbLine
 10
2189.867291092355
 20
1602.371012811811
 30
0.0
 11
2189.467291092356
 21
1602.371012811811
 31
0.0
  0
LINE
  5
E6B
330
1F
100
AcDbEntity
  8
AM_VIS
100
AcDbLine
 10
2190.267291092355
 20
1602.371012811811
 30
0.0
 11
2189.867291092355
 21
1602.371012811811
 31
0.0
  0
LINE
  5
E6C
330
1F
100
AcDbEntity
  8
AM_VIS
100
AcDbLine
 10
2192.417291092355
 20
1602.371012811811
 30
0.0
 11
2191.517291092355
 21
1602.371012811811
 31
0.0
  0
LINE
  5
E6D
330
1F
100
AcDbEntity
  8
AM_VIS
100
AcDbLine
 10
2198.267291092355
 20
1602.371012811811
 30
0.0
 11
2193.667291092356
 21
1602.371012811811
 31
0.0
  0
LINE
  5
E6E
330
1F
100
AcDbEntity
  8
AM_VIS
100
AcDbLine
 10
2200.417291092355
 20
1602.371012811811
 30
0.0
 11
2199.517291092355
 21
1602.371012811811
 31
0.0
  0
LINE
  5
E6F
330
1F
100
AcDbEntity
  8
AM_VIS
100
AcDbLine
 10
2202.067291092355
 20
1602.371012811811
 30
0.0
 11
2201.667291092356
 21
1602.371012811811
 31
0.0
  0
LINE
  5
E70
330
1F
100
AcDbEntity
  8
AM_VIS
100
AcDbLine
 10
2202.467291092355
 20
1602.371012811811
 30
0.0
 11
2202.067291092355
 21
1602.371012811811
 31
0.0
  0
LINE
  5
E71
330
1F
100
AcDbEntity
  8
AM_VIS
100
AcDbLine
 10
2202.467291092355
 20
1602.371012811811
 30
0.0
 11
2204.467291092356
 21
1602.371012811811
 31
0.0
  0
LINE
  5
E72
330
1F
100
AcDbEntity
  8
AM_VIS
100
AcDbLine
 10
2207.467291092356
 20
1602.371012811811
 30
0.0
 11
2204.467291092356
 21
1602.371012811811
 31
0.0
  0
LINE
  5
E73
330
1F
100
AcDbEntity
  8
AM_VIS
100
AcDbLine
 10
2210.467291092355
 20
1602.371012811811
 30
0.0
 11
2207.467291092356
 21
1602.371012811811
 31
0.0
  0
LINE
  5
E74
330
1F
100
AcDbEntity
  8
AM_VIS
100
AcDbLine
 10
2210.467291092355
 20
1602.371012811811
 30
0.0
 11
2223.967291092356
 21
1602.371012811811
 31
0.0
  0
ARC
  5
E75
330
1F
100
AcDbEntity
  8
AM_VIS
100
AcDbCircle
 10
2184.467291092356
 20
1636.371012811811
 30
0.0
 40
4.0
100
AcDbArc
 50
318.5903778907302
 51
41.40962210926974
  0
CIRCLE
  5
E76
330
1F
100
AcDbEntity
  8
AM_VIS
100
AcDbCircle
 10
2184.467291092356
 20
1636.371012811811
 30
0.0
 40
2.095
  0
ARC
  5
E77
330
1F
100
AcDbEntity
  8
AM_VIS
100
AcDbCircle
 10
2207.467291092356
 20
1636.371012811811
 30
0.0
 40
4.0
100
AcDbArc
 50
318.5903778907302
 51
41.40962210926974
  0
ARC
  5
E78
330
1F
100
AcDbEntity
  8
AM_VIS
100
AcDbCircle
 10
2207.467291092356
 20
1636.371012811811
 30
0.0
 40
4.0
100
AcDbArc
 50
138.5903778907302
 51
221.4096221092697
  0
CIRCLE
  5
E79
330
1F
100
AcDbEntity
  8
AM_VIS
100
AcDbCircle
 10
2207.467291092356
 20
1636.371012811811
 30
0.0
 40
2.095
  0
ARC
  5
E7A
330
1F
100
AcDbEntity
  8
AM_VIS
100
AcDbCircle
 10
2184.467291092356
 20
1622.371012811811
 30
0.0
 40
4.0
100
AcDbArc
 50
318.5903778907302
 51
41.40962210926974
  0
CIRCLE
  5
E7B
330
1F
100
AcDbEntity
  8
AM_VIS
100
AcDbCircle
 10
2184.467291092356
 20
1622.371012811811
 30
0.0
 40
2.095
  0
ARC
  5
E7C
330
1F
100
AcDbEntity
  8
AM_VIS
100
AcDbCircle
 10
2207.467291092356
 20
1622.371012811811
 30
0.0
 40
4.0
100
AcDbArc
 50
318.5903778907302
 51
41.40962210926974
  0
ARC
  5
E7D
330
1F
100
AcDbEntity
  8
AM_VIS
100
AcDbCircle
 10
2207.467291092356
 20
1622.371012811811
 30
0.0
 40
4.0
100
AcDbArc
 50
138.5903778907302
 51
221.4096221092697
  0
CIRCLE
  5
E7E
330
1F
100
AcDbEntity
  8
AM_VIS
100
AcDbCircle
 10
2207.467291092356
 20
1622.371012811811
 30
0.0
 40
2.095
  0
LINE
  5
E7F
102
{ACAD_REACTORS
330
12C5
102
}
330
1F
100
AcDbEntity
  8
AM_VIS
100
AcDbLine
 10
2223.967291092356
 20
1641.371012811811
 30
0.0
 11
2224.967291092355
 21
1641.371012811811
 31
0.0
  0
LINE
  5
E80
330
1F
100
AcDbEntity
  8
AM_VIS
100
AcDbLine
 10
2201.667291092356
 20
1641.371012811811
 30
0.0
 11
2200.417291092355
 21
1641.371012811811
 31
0.0
  0
LINE
  5
E81
330
1F
100
AcDbEntity
  8
AM_VIS
100
AcDbLine
 10
2199.517291092355
 20
1641.371012811811
 30
0.0
 11
2195.967291092355
 21
1641.371012811811
 31
0.0
  0
LINE
  5
E82
330
1F
100
AcDbEntity
  8
AM_VIS
100
AcDbLine
 10
2192.417291092355
 20
1641.371012811811
 30
0.0
 11
2195.967291092355
 21
1641.371012811811
 31
0.0
  0
LINE
  5
E83
330
1F
100
AcDbEntity
  8
AM_VIS
100
AcDbLine
 10
2190.267291092355
 20
1641.371012811811
 30
0.0
 11
2191.517291092355
 21
1641.371012811811
 31
0.0
  0
LINE
  5
E84
330
1F
100
AcDbEntity
  8
AM_VIS
100
AcDbLine
 10
2166.967291092356
 20
1641.371012811811
 30
0.0
 11
2167.967291092355
 21
1641.371012811811
 31
0.0
  0
ARC
  5
E85
330
1F
100
AcDbEntity
  8
AM_VIS
100
AcDbCircle
 10
2184.467291092356
 20
1636.371012811811
 30
0.0
 40
4.0
100
AcDbArc
 50
138.5903778907302
 51
221.4096221092697
  0
ARC
  5
E86
330
1F
100
AcDbEntity
  8
AM_VIS
100
AcDbCircle
 10
2184.467291092356
 20
1622.371012811811
 30
0.0
 40
4.0
100
AcDbArc
 50
138.5903778907302
 51
221.4096221092697
  0
LINE
  5
E87
330
1F
100
AcDbEntity
  8
AM_VIS
100
AcDbLine
 10
2167.967291092355
 20
1602.371012811811
 30
0.0
 11
2166.967291092356
 21
1602.371012811811
 31
0.0
  0
LINE
  5
E88
330
1F
100
AcDbEntity
  8
AM_VIS
100
AcDbLine
 10
2191.517291092355
 20
1602.371012811811
 30
0.0
 11
2190.267291092355
 21
1602.371012811811
 31
0.0
  0
LINE
  5
E89
330
1F
100
AcDbEntity
  8
AM_VIS
100
AcDbLine
 10
2193.667291092356
 20
1602.371012811811
 30
0.0
 11
2192.417291092355
 21
1602.371012811811
 31
0.0
  0
LINE
  5
E8A
330
1F
100
AcDbEntity
  8
AM_VIS
100
AcDbLine
 10
2198.267291092355
 20
1602.371012811811
 30
0.0
 11
2199.517291092355
 21
1602.371012811811
 31
0.0
  0
LINE
  5
E8B
330
1F
100
AcDbEntity
  8
AM_VIS
100
AcDbLine
 10
2200.417291092355
 20
1602.371012811811
 30
0.0
 11
2201.667291092356
 21
1602.371012811811
 31
0.0
  0
LINE
  5
E8C
102
{ACAD_REACTORS
330
12C2
330
12C5
330
12FD
102
}
330
1F
100
AcDbEntity
  8
AM_VIS
100
AcDbLine
 10
2224.967291092355
 20
1602.371012811811
 30
0.0
 11
2223.967291092356
 21
1602.371012811811
 31
0.0
  0
LINE
  5
E8D
330
1F
100
AcDbEntity
  8
AM_VIS
100
AcDbLine
 10
2167.967291092355
 20
1693.924920561368
 30
0.0
 11
2167.967291092355
 21
1672.924920561367
 31
0.0
  0
LINE
  5
E8E
330
1F
100
AcDbEntity
  8
AM_VIS
100
AcDbLine
 10
2223.467291092356
 20
1672.424920561368
 30
0.0
 11
2223.717291092356
 21
1672.674920561367
 31
0.0
  0
LINE
  5
E8F
330
1F
100
AcDbEntity
  8
AM_VIS
100
AcDbLine
 10
2223.717291092356
 20
1672.674920561367
 30
0.0
 11
2223.967291092356
 21
1672.924920561367
 31
0.0
  0
LINE
  5
E90
330
1F
100
AcDbEntity
  8
AM_VIS
100
AcDbLine
 10
2223.967291092356
 20
1693.924920561368
 30
0.0
 11
2223.717291092356
 21
1694.174920561367
 31
0.0
  0
LINE
  5
E91
330
1F
100
AcDbEntity
  8
AM_VIS
100
AcDbLine
 10
2223.717291092356
 20
1694.174920561367
 30
0.0
 11
2223.467291092356
 21
1694.424920561367
 31
0.0
  0
LINE
  5
E92
330
1F
100
AcDbEntity
  8
AM_VIS
100
AcDbLine
 10
2223.967291092356
 20
1672.924920561367
 30
0.0
 11
2223.967291092356
 21
1693.924920561368
 31
0.0
  0
LINE
  5
E93
330
1F
100
AcDbEntity
  8
AM_VIS
100
AcDbLine
 10
2168.467291092356
 20
1672.424920561368
 30
0.0
 11
2223.467291092356
 21
1672.424920561368
 31
0.0
  0
LINE
  5
E94
330
1F
100
AcDbEntity
  8
AM_VIS
100
AcDbLine
 10
2167.967291092355
 20
1672.924920561367
 30
0.0
 11
2168.217291092355
 21
1672.674920561367
 31
0.0
  0
LINE
  5
E95
330
1F
100
AcDbEntity
  8
AM_VIS
100
AcDbLine
 10
2168.217291092355
 20
1672.674920561367
 30
0.0
 11
2168.467291092356
 21
1672.424920561368
 31
0.0
  0
LINE
  5
E96
330
1F
100
AcDbEntity
  8
AM_VIS
100
AcDbLine
 10
2168.467291092356
 20
1694.424920561367
 30
0.0
 11
2168.217291092355
 21
1694.174920561367
 31
0.0
  0
LINE
  5
E97
330
1F
100
AcDbEntity
  8
AM_VIS
100
AcDbLine
 10
2168.217291092355
 20
1694.174920561367
 30
0.0
 11
2167.967291092355
 21
1693.924920561368
 31
0.0
  0
LINE
  5
E98
330
1F
100
AcDbEntity
  8
AM_VIS
100
AcDbLine
 10
2223.467291092356
 20
1694.424920561367
 30
0.0
 11
2168.467291092356
 21
1694.424920561367
 31
0.0
  0
CIRCLE
  5
E99
330
1F
100
AcDbEntity
  8
AM_VIS
100
AcDbCircle
 10
2195.967291092355
 20
1683.424920561368
 30
0.0
 40
3.25
  0
LINE
  5
E9A
330
1F
100
AcDbEntity
  8
AM_VIS
100
AcDbLine
 10
2174.467291092355
 20
1695.924920561368
 30
0.0
 11
2173.967291092356
 21
1696.424920561367
 31
0.0
  0
LINE
  5
E9B
330
1F
100
AcDbEntity
  8
AM_VIS
100
AcDbLine
 10
2177.767291092355
 20
1695.924920561368
 30
0.0
 11
2174.467291092355
 21
1695.924920561368
 31
0.0
  0
LINE
  5
E9C
330
1F
100
AcDbEntity
  8
AM_VIS
100
AcDbLine
 10
2178.717291092356
 20
1694.974920561367
 30
0.0
 11
2177.767291092355
 21
1695.924920561368
 31
0.0
  0
LINE
  5
E9D
330
1F
100
AcDbEntity
  8
AM_VIS
100
AcDbLine
 10
2180.167291092355
 20
1696.424920561367
 30
0.0
 11
2178.717291092356
 21
1694.974920561367
 31
0.0
  0
LINE
  5
E9E
330
1F
100
AcDbEntity
  8
AM_VIS
100
AcDbLine
 10
2188.767291092355
 20
1696.424920561367
 30
0.0
 11
2180.167291092355
 21
1696.424920561367
 31
0.0
  0
LINE
  5
E9F
330
1F
100
AcDbEntity
  8
AM_VIS
100
AcDbLine
 10
2189.167291092355
 20
1696.024920561367
 30
0.0
 11
2188.767291092355
 21
1696.424920561367
 31
0.0
  0
LINE
  5
EA0
330
1F
100
AcDbEntity
  8
AM_VIS
100
AcDbLine
 10
2190.267291092355
 20
1696.024920561367
 30
0.0
 11
2189.167291092355
 21
1696.024920561367
 31
0.0
  0
LINE
  5
EA1
330
1F
100
AcDbEntity
  8
AM_VIS
100
AcDbLine
 10
2190.267291092355
 20
1695.524920561367
 30
0.0
 11
2190.267291092355
 21
1696.024920561367
 31
0.0
  0
LINE
  5
EA2
330
1F
100
AcDbEntity
  8
AM_VIS
100
AcDbLine
 10
2189.817291092356
 20
1695.024920561367
 30
0.0
 11
2190.267291092355
 21
1695.524920561367
 31
0.0
  0
LINE
  5
EA3
330
1F
100
AcDbEntity
  8
AM_VIS
100
AcDbLine
 10
2189.817291092356
 20
1694.424920561368
 30
0.0
 11
2189.817291092356
 21
1695.024920561367
 31
0.0
  0
LINE
  5
EA4
330
1F
100
AcDbEntity
  8
AM_VIS
100
AcDbLine
 10
2194.117291092355
 20
1695.024920561367
 30
0.0
 11
2194.117291092355
 21
1694.424920561368
 31
0.0
  0
LINE
  5
EA5
330
1F
100
AcDbEntity
  8
AM_VIS
100
AcDbLine
 10
2193.667291092356
 20
1695.524920561367
 30
0.0
 11
2194.117291092355
 21
1695.024920561367
 31
0.0
  0
LINE
  5
EA6
330
1F
100
AcDbEntity
  8
AM_VIS
100
AcDbLine
 10
2193.667291092356
 20
1696.024920561367
 30
0.0
 11
2193.667291092356
 21
1695.524920561367
 31
0.0
  0
LINE
  5
EA7
330
1F
100
AcDbEntity
  8
AM_VIS
100
AcDbLine
 10
2198.267291092355
 20
1696.024920561367
 30
0.0
 11
2193.667291092356
 21
1696.024920561367
 31
0.0
  0
LINE
  5
EA8
330
1F
100
AcDbEntity
  8
AM_VIS
100
AcDbLine
 10
2198.267291092355
 20
1695.524920561367
 30
0.0
 11
2198.267291092355
 21
1696.024920561367
 31
0.0
  0
LINE
  5
EA9
330
1F
100
AcDbEntity
  8
AM_VIS
100
AcDbLine
 10
2197.817291092356
 20
1695.024920561367
 30
0.0
 11
2198.267291092355
 21
1695.524920561367
 31
0.0
  0
LINE
  5
EAA
330
1F
100
AcDbEntity
  8
AM_VIS
100
AcDbLine
 10
2197.817291092356
 20
1694.424920561368
 30
0.0
 11
2197.817291092356
 21
1695.024920561367
 31
0.0
  0
LINE
  5
EAB
330
1F
100
AcDbEntity
  8
AM_VIS
100
AcDbLine
 10
2202.117291092355
 20
1695.024920561367
 30
0.0
 11
2202.117291092355
 21
1694.424920561368
 31
0.0
  0
LINE
  5
EAC
330
1F
100
AcDbEntity
  8
AM_VIS
100
AcDbLine
 10
2201.667291092356
 20
1695.524920561367
 30
0.0
 11
2202.117291092355
 21
1695.024920561367
 31
0.0
  0
LINE
  5
EAD
330
1F
100
AcDbEntity
  8
AM_VIS
100
AcDbLine
 10
2201.667291092356
 20
1696.024920561367
 30
0.0
 11
2201.667291092356
 21
1695.524920561367
 31
0.0
  0
LINE
  5
EAE
330
1F
100
AcDbEntity
  8
AM_VIS
100
AcDbLine
 10
2202.767291092355
 20
1696.024920561367
 30
0.0
 11
2201.667291092356
 21
1696.024920561367
 31
0.0
  0
LINE
  5
EAF
330
1F
100
AcDbEntity
  8
AM_VIS
100
AcDbLine
 10
2203.167291092356
 20
1696.424920561367
 30
0.0
 11
2202.767291092355
 21
1696.024920561367
 31
0.0
  0
LINE
  5
EB0
330
1F
100
AcDbEntity
  8
AM_VIS
100
AcDbLine
 10
2211.767291092355
 20
1696.424920561367
 30
0.0
 11
2203.167291092356
 21
1696.424920561367
 31
0.0
  0
LINE
  5
EB1
330
1F
100
AcDbEntity
  8
AM_VIS
100
AcDbLine
 10
2213.217291092355
 20
1694.974920561367
 30
0.0
 11
2211.767291092355
 21
1696.424920561367
 31
0.0
  0
LINE
  5
EB2
330
1F
100
AcDbEntity
  8
AM_VIS
100
AcDbLine
 10
2214.167291092355
 20
1695.924920561367
 30
0.0
 11
2213.217291092355
 21
1694.974920561367
 31
0.0
  0
LINE
  5
EB3
330
1F
100
AcDbEntity
  8
AM_VIS
100
AcDbLine
 10
2217.467291092356
 20
1695.924920561368
 30
0.0
 11
2214.167291092355
 21
1695.924920561368
 31
0.0
  0
LINE
  5
EB4
330
1F
100
AcDbEntity
  8
AM_VIS
100
AcDbLine
 10
2217.967291092355
 20
1696.424920561367
 30
0.0
 11
2217.467291092356
 21
1695.924920561368
 31
0.0
  0
LINE
  5
EB5
330
1F
100
AcDbEntity
  8
AM_VIS
100
AcDbLine
 10
2224.681433935209
 20
1696.424920561367
 30
0.0
 11
2217.967291092355
 21
1696.424920561367
 31
0.0
  0
LINE
  5
EB6
330
1F
100
AcDbEntity
  8
AM_VIS
100
AcDbLine
 10
2224.967291092355
 20
1695.724920561367
 30
0.0
 11
2224.967291092355
 21
1671.424920561367
 31
0.0
  0
LINE
  5
EB7
330
1F
100
AcDbEntity
  8
AM_VIS
100
AcDbLine
 10
2223.967291092356
 20
1670.424920561367
 30
0.0
 11
2210.467291092355
 21
1670.424920561367
 31
0.0
  0
LINE
  5
EB8
330
1F
100
AcDbEntity
  8
AM_VIS
100
AcDbLine
 10
2207.467291092356
 20
1672.156971368936
 30
0.0
 11
2210.467291092355
 21
1670.424920561367
 31
0.0
  0
LINE
  5
EB9
330
1F
100
AcDbEntity
  8
AM_VIS
100
AcDbLine
 10
2204.467291092356
 20
1670.424920561367
 30
0.0
 11
2207.467291092356
 21
1672.156971368936
 31
0.0
  0
LINE
  5
EBA
330
1F
100
AcDbEntity
  8
AM_VIS
100
AcDbLine
 10
2204.467291092356
 20
1670.424920561367
 30
0.0
 11
2202.467291092355
 21
1670.424920561367
 31
0.0
  0
LINE
  5
EBB
330
1F
100
AcDbEntity
  8
AM_VIS
100
AcDbLine
 10
2202.067291092355
 20
1670.824920561367
 30
0.0
 11
2202.467291092355
 21
1670.424920561367
 31
0.0
  0
LINE
  5
EBC
330
1F
100
AcDbEntity
  8
AM_VIS
100
AcDbLine
 10
2201.667291092356
 20
1670.824920561367
 30
0.0
 11
2202.067291092355
 21
1670.824920561367
 31
0.0
  0
LINE
  5
EBD
330
1F
100
AcDbEntity
  8
AM_VIS
100
AcDbLine
 10
2201.667291092356
 20
1671.324920561367
 30
0.0
 11
2201.667291092356
 21
1670.824920561367
 31
0.0
  0
LINE
  5
EBE
330
1F
100
AcDbEntity
  8
AM_VIS
100
AcDbLine
 10
2202.117291092355
 20
1671.824920561367
 30
0.0
 11
2201.667291092356
 21
1671.324920561367
 31
0.0
  0
LINE
  5
EBF
330
1F
100
AcDbEntity
  8
AM_VIS
100
AcDbLine
 10
2202.117291092355
 20
1672.424920561368
 30
0.0
 11
2202.117291092355
 21
1671.824920561367
 31
0.0
  0
LINE
  5
EC0
330
1F
100
AcDbEntity
  8
AM_VIS
100
AcDbLine
 10
2197.817291092356
 20
1671.824920561367
 30
0.0
 11
2197.817291092356
 21
1672.424920561368
 31
0.0
  0
LINE
  5
EC1
330
1F
100
AcDbEntity
  8
AM_VIS
100
AcDbLine
 10
2198.267291092355
 20
1671.324920561367
 30
0.0
 11
2197.817291092356
 21
1671.824920561367
 31
0.0
  0
LINE
  5
EC2
330
1F
100
AcDbEntity
  8
AM_VIS
100
AcDbLine
 10
2198.267291092355
 20
1670.824920561367
 30
0.0
 11
2198.267291092355
 21
1671.324920561367
 31
0.0
  0
LINE
  5
EC3
330
1F
100
AcDbEntity
  8
AM_VIS
100
AcDbLine
 10
2193.667291092356
 20
1670.824920561367
 30
0.0
 11
2198.267291092355
 21
1670.824920561367
 31
0.0
  0
LINE
  5
EC4
330
1F
100
AcDbEntity
  8
AM_VIS
100
AcDbLine
 10
2193.667291092356
 20
1671.324920561367
 30
0.0
 11
2193.667291092356
 21
1670.824920561367
 31
0.0
  0
LINE
  5
EC5
330
1F
100
AcDbEntity
  8
AM_VIS
100
AcDbLine
 10
2194.117291092355
 20
1671.824920561367
 30
0.0
 11
2193.667291092356
 21
1671.324920561367
 31
0.0
  0
LINE
  5
EC6
330
1F
100
AcDbEntity
  8
AM_VIS
100
AcDbLine
 10
2194.117291092355
 20
1672.424920561368
 30
0.0
 11
2194.117291092355
 21
1671.824920561367
 31
0.0
  0
LINE
  5
EC7
330
1F
100
AcDbEntity
  8
AM_VIS
100
AcDbLine
 10
2189.817291092356
 20
1671.824920561367
 30
0.0
 11
2189.817291092356
 21
1672.424920561368
 31
0.0
  0
LINE
  5
EC8
330
1F
100
AcDbEntity
  8
AM_VIS
100
AcDbLine
 10
2190.267291092355
 20
1671.324920561367
 30
0.0
 11
2189.817291092355
 21
1671.824920561367
 31
0.0
  0
LINE
  5
EC9
330
1F
100
AcDbEntity
  8
AM_VIS
100
AcDbLine
 10
2190.267291092355
 20
1670.824920561367
 30
0.0
 11
2190.267291092355
 21
1671.324920561367
 31
0.0
  0
LINE
  5
ECA
330
1F
100
AcDbEntity
  8
AM_VIS
100
AcDbLine
 10
2189.867291092355
 20
1670.824920561367
 30
0.0
 11
2190.267291092355
 21
1670.824920561367
 31
0.0
  0
LINE
  5
ECB
330
1F
100
AcDbEntity
  8
AM_VIS
100
AcDbLine
 10
2189.467291092356
 20
1670.424920561367
 30
0.0
 11
2189.867291092355
 21
1670.824920561367
 31
0.0
  0
LINE
  5
ECC
330
1F
100
AcDbEntity
  8
AM_VIS
100
AcDbLine
 10
2189.467291092356
 20
1670.424920561367
 30
0.0
 11
2187.467291092355
 21
1670.424920561367
 31
0.0
  0
LINE
  5
ECD
330
1F
100
AcDbEntity
  8
AM_VIS
100
AcDbLine
 10
2184.467291092356
 20
1672.156971368936
 30
0.0
 11
2187.467291092355
 21
1670.424920561367
 31
0.0
  0
LINE
  5
ECE
330
1F
100
AcDbEntity
  8
AM_VIS
100
AcDbLine
 10
2181.467291092356
 20
1670.424920561367
 30
0.0
 11
2184.467291092356
 21
1672.156971368936
 31
0.0
  0
LINE
  5
ECF
330
1F
100
AcDbEntity
  8
AM_VIS
100
AcDbLine
 10
2173.967291092356
 20
1696.424920561367
 30
0.0
 11
2167.253148249501
 21
1696.424920561367
 31
0.0
  0
LINE
  5
ED0
330
1F
100
AcDbEntity
  8
AM_VIS
100
AcDbLine
 10
2181.467291092356
 20
1670.424920561367
 30
0.0
 11
2167.967291092355
 21
1670.424920561367
 31
0.0
  0
LINE
  5
ED1
330
1F
100
AcDbEntity
  8
AM_VIS
100
AcDbLine
 10
2166.967291092356
 20
1671.424920561367
 30
0.0
 11
2166.967291092356
 21
1695.724920561367
 31
0.0
  0
ARC
  5
ED2
330
1F
100
AcDbEntity
  8
AM_VIS
100
AcDbCircle
 10
2223.967291092356
 20
1695.724920561367
 30
0.0
 40
0.9999999999999998
100
AcDbArc
 50
0.0
 51
44.42700400081833
  0
ARC
  5
ED3
330
1F
100
AcDbEntity
  8
AM_VIS
100
AcDbCircle
 10
2223.967291092356
 20
1671.424920561367
 30
0.0
 40
0.9999999999999998
100
AcDbArc
 50
270.0
 51
0.0
  0
ARC
  5
ED4
330
1F
100
AcDbEntity
  8
AM_VIS
100
AcDbCircle
 10
2167.967291092355
 20
1671.424920561367
 30
0.0
 40
0.9999999999999998
100
AcDbArc
 50
180.0
 51
270.0
  0
ARC
  5
ED5
330
1F
100
AcDbEntity
  8
AM_VIS
100
AcDbCircle
 10
2167.967291092355
 20
1695.724920561367
 30
0.0
 40
0.9999999999999998
100
AcDbArc
 50
135.5729959991816
 51
180.0
  0
LINE
  5
ED6
330
1F
100
AcDbEntity
  8
AM_VIS
100
AcDbLine
 10
2189.817291092356
 20
1547.159891458949
 30
0.0
 11
2194.117291092355
 21
1547.159891458949
 31
0.0
  0
LINE
  5
ED7
330
1F
100
AcDbEntity
  8
AM_VIS
100
AcDbLine
 10
2197.817291092356
 20
1547.159891458949
 30
0.0
 11
2202.117291092355
 21
1547.159891458949
 31
0.0
  0
LINE
  5
ED8
330
1F
100
AcDbEntity
  8
AM_VIS
100
AcDbLine
 10
2202.117291092355
 20
1569.159891458949
 30
0.0
 11
2197.817291092356
 21
1569.159891458949
 31
0.0
  0
LINE
  5
ED9
330
1F
100
AcDbEntity
  8
AM_VIS
100
AcDbLine
 10
2194.117291092355
 20
1569.159891458949
 30
0.0
 11
2189.817291092356
 21
1569.159891458949
 31
0.0
  0
LINE
  5
EDA
330
1F
100
AcDbEntity
  8
AM_VIS
100
AcDbLine
 10
2166.967291092356
 20
1545.859891458949
 30
0.0
 11
2166.967291092356
 21
1570.159891458949
 31
0.0
  0
LINE
  5
EDB
330
1F
100
AcDbEntity
  8
AM_VIS
100
AcDbLine
 10
2167.967291092355
 20
1571.159891458949
 30
0.0
 11
2181.467291092356
 21
1571.159891458949
 31
0.0
  0
LINE
  5
EDC
330
1F
100
AcDbEntity
  8
AM_VIS
100
AcDbLine
 10
2184.467291092356
 20
1569.42784065138
 30
0.0
 11
2181.467291092356
 21
1571.159891458949
 31
0.0
  0
LINE
  5
EDD
330
1F
100
AcDbEntity
  8
AM_VIS
100
AcDbLine
 10
2187.467291092355
 20
1571.159891458949
 30
0.0
 11
2184.467291092356
 21
1569.42784065138
 31
0.0
  0
LINE
  5
EDE
330
1F
100
AcDbEntity
  8
AM_VIS
100
AcDbLine
 10
2187.467291092355
 20
1571.159891458949
 30
0.0
 11
2189.467291092356
 21
1571.159891458949
 31
0.0
  0
LINE
  5
EDF
330
1F
100
AcDbEntity
  8
AM_VIS
100
AcDbLine
 10
2189.867291092355
 20
1570.759891458949
 30
0.0
 11
2189.467291092356
 21
1571.159891458949
 31
0.0
  0
LINE
  5
EE0
330
1F
100
AcDbEntity
  8
AM_VIS
100
AcDbLine
 10
2190.267291092355
 20
1570.759891458949
 30
0.0
 11
2189.867291092355
 21
1570.759891458949
 31
0.0
  0
LINE
  5
EE1
330
1F
100
AcDbEntity
  8
AM_VIS
100
AcDbLine
 10
2190.267291092355
 20
1570.259891458949
 30
0.0
 11
2190.267291092355
 21
1570.759891458949
 31
0.0
  0
LINE
  5
EE2
330
1F
100
AcDbEntity
  8
AM_VIS
100
AcDbLine
 10
2189.817291092355
 20
1569.759891458949
 30
0.0
 11
2190.267291092355
 21
1570.259891458949
 31
0.0
  0
LINE
  5
EE3
330
1F
100
AcDbEntity
  8
AM_VIS
100
AcDbLine
 10
2189.817291092356
 20
1567.659891458949
 30
0.0
 11
2189.817291092356
 21
1569.759891458949
 31
0.0
  0
LINE
  5
EE4
330
1F
100
AcDbEntity
  8
AM_VIS
100
AcDbLine
 10
2192.417291092355
 20
1565.959891458949
 30
0.0
 11
2191.517291092355
 21
1565.959891458949
 31
0.0
  0
LINE
  5
EE5
330
1F
100
AcDbEntity
  8
AM_VIS
100
AcDbLine
 10
2194.117291092355
 20
1569.759891458949
 30
0.0
 11
2194.117291092355
 21
1567.659891458949
 31
0.0
  0
LINE
  5
EE6
330
1F
100
AcDbEntity
  8
AM_VIS
100
AcDbLine
 10
2193.667291092356
 20
1570.259891458949
 30
0.0
 11
2194.117291092355
 21
1569.759891458949
 31
0.0
  0
LINE
  5
EE7
330
1F
100
AcDbEntity
  8
AM_VIS
100
AcDbLine
 10
2193.667291092356
 20
1570.759891458949
 30
0.0
 11
2193.667291092356
 21
1570.259891458949
 31
0.0
  0
LINE
  5
EE8
330
1F
100
AcDbEntity
  8
AM_VIS
100
AcDbLine
 10
2198.267291092355
 20
1570.759891458949
 30
0.0
 11
2193.667291092356
 21
1570.759891458949
 31
0.0
  0
LINE
  5
EE9
330
1F
100
AcDbEntity
  8
AM_VIS
100
AcDbLine
 10
2198.267291092355
 20
1570.259891458949
 30
0.0
 11
2198.267291092355
 21
1570.759891458949
 31
0.0
  0
LINE
  5
EEA
330
1F
100
AcDbEntity
  8
AM_VIS
100
AcDbLine
 10
2197.817291092356
 20
1569.759891458949
 30
0.0
 11
2198.267291092355
 21
1570.259891458949
 31
0.0
  0
LINE
  5
EEB
330
1F
100
AcDbEntity
  8
AM_VIS
100
AcDbLine
 10
2197.817291092356
 20
1567.659891458949
 30
0.0
 11
2197.817291092356
 21
1569.759891458949
 31
0.0
  0
LINE
  5
EEC
330
1F
100
AcDbEntity
  8
AM_VIS
100
AcDbLine
 10
2200.417291092355
 20
1565.959891458949
 30
0.0
 11
2199.517291092355
 21
1565.959891458949
 31
0.0
  0
LINE
  5
EED
330
1F
100
AcDbEntity
  8
AM_VIS
100
AcDbLine
 10
2202.117291092355
 20
1569.759891458949
 30
0.0
 11
2202.117291092355
 21
1567.659891458949
 31
0.0
  0
LINE
  5
EEE
330
1F
100
AcDbEntity
  8
AM_VIS
100
AcDbLine
 10
2201.667291092356
 20
1570.259891458949
 30
0.0
 11
2202.117291092355
 21
1569.759891458949
 31
0.0
  0
LINE
  5
EEF
330
1F
100
AcDbEntity
  8
AM_VIS
100
AcDbLine
 10
2201.667291092356
 20
1570.759891458949
 30
0.0
 11
2201.667291092356
 21
1570.259891458949
 31
0.0
  0
LINE
  5
EF0
330
1F
100
AcDbEntity
  8
AM_VIS
100
AcDbLine
 10
2202.067291092355
 20
1570.759891458949
 30
0.0
 11
2201.667291092356
 21
1570.759891458949
 31
0.0
  0
LINE
  5
EF1
330
1F
100
AcDbEntity
  8
AM_VIS
100
AcDbLine
 10
2202.467291092355
 20
1571.159891458949
 30
0.0
 11
2202.067291092355
 21
1570.759891458949
 31
0.0
  0
LINE
  5
EF2
330
1F
100
AcDbEntity
  8
AM_VIS
100
AcDbLine
 10
2202.467291092355
 20
1571.159891458949
 30
0.0
 11
2204.467291092356
 21
1571.159891458949
 31
0.0
  0
LINE
  5
EF3
330
1F
100
AcDbEntity
  8
AM_VIS
100
AcDbLine
 10
2207.467291092356
 20
1569.42784065138
 30
0.0
 11
2204.467291092356
 21
1571.159891458949
 31
0.0
  0
LINE
  5
EF4
330
1F
100
AcDbEntity
  8
AM_VIS
100
AcDbLine
 10
2210.467291092355
 20
1571.159891458949
 30
0.0
 11
2207.467291092356
 21
1569.42784065138
 31
0.0
  0
LINE
  5
EF5
330
1F
100
AcDbEntity
  8
AM_VIS
100
AcDbLine
 10
2210.467291092355
 20
1571.159891458949
 30
0.0
 11
2223.967291092356
 21
1571.159891458949
 31
0.0
  0
LINE
  5
EF6
330
1F
100
AcDbEntity
  8
AM_VIS
100
AcDbLine
 10
2224.967291092355
 20
1570.159891458949
 30
0.0
 11
2224.967291092355
 21
1545.859891458949
 31
0.0
  0
LINE
  5
EF7
330
1F
100
AcDbEntity
  8
AM_VIS
100
AcDbLine
 10
2217.967291092355
 20
1545.159891458949
 30
0.0
 11
2224.681433935209
 21
1545.159891458949
 31
0.0
  0
LINE
  5
EF8
330
1F
100
AcDbEntity
  8
AM_VIS
100
AcDbLine
 10
2217.467291092356
 20
1545.659891458949
 30
0.0
 11
2217.967291092355
 21
1545.159891458949
 31
0.0
  0
LINE
  5
EF9
330
1F
100
AcDbEntity
  8
AM_VIS
100
AcDbLine
 10
2214.167291092355
 20
1545.659891458949
 30
0.0
 11
2217.467291092356
 21
1545.659891458949
 31
0.0
  0
LINE
  5
EFA
330
1F
100
AcDbEntity
  8
AM_VIS
100
AcDbLine
 10
2213.217291092355
 20
1546.609891458949
 30
0.0
 11
2214.167291092355
 21
1545.659891458949
 31
0.0
  0
LINE
  5
EFB
330
1F
100
AcDbEntity
  8
AM_VIS
100
AcDbLine
 10
2211.767291092355
 20
1545.159891458949
 30
0.0
 11
2213.217291092355
 21
1546.609891458949
 31
0.0
  0
LINE
  5
EFC
330
1F
100
AcDbEntity
  8
AM_VIS
100
AcDbLine
 10
2203.167291092356
 20
1545.159891458949
 30
0.0
 11
2211.767291092355
 21
1545.159891458949
 31
0.0
  0
LINE
  5
EFD
330
1F
100
AcDbEntity
  8
AM_VIS
100
AcDbLine
 10
2202.767291092355
 20
1545.559891458949
 30
0.0
 11
2203.167291092356
 21
1545.159891458949
 31
0.0
  0
LINE
  5
EFE
330
1F
100
AcDbEntity
  8
AM_VIS
100
AcDbLine
 10
2201.667291092356
 20
1545.559891458949
 30
0.0
 11
2202.767291092355
 21
1545.559891458949
 31
0.0
  0
LINE
  5
EFF
330
1F
100
AcDbEntity
  8
AM_VIS
100
AcDbLine
 10
2201.667291092356
 20
1546.059891458949
 30
0.0
 11
2201.667291092356
 21
1545.559891458949
 31
0.0
  0
LINE
  5
F00
330
1F
100
AcDbEntity
  8
AM_VIS
100
AcDbLine
 10
2202.117291092355
 20
1546.559891458949
 30
0.0
 11
2201.667291092356
 21
1546.059891458949
 31
0.0
  0
LINE
  5
F01
330
1F
100
AcDbEntity
  8
AM_VIS
100
AcDbLine
 10
2202.117291092355
 20
1548.659891458949
 30
0.0
 11
2202.117291092355
 21
1546.559891458949
 31
0.0
  0
LINE
  5
F02
330
1F
100
AcDbEntity
  8
AM_VIS
100
AcDbLine
 10
2199.517291092355
 20
1550.359891458949
 30
0.0
 11
2200.417291092355
 21
1550.359891458949
 31
0.0
  0
LINE
  5
F03
330
1F
100
AcDbEntity
  8
AM_VIS
100
AcDbLine
 10
2197.817291092356
 20
1546.559891458949
 30
0.0
 11
2197.817291092356
 21
1548.659891458949
 31
0.0
  0
LINE
  5
F04
330
1F
100
AcDbEntity
  8
AM_VIS
100
AcDbLine
 10
2198.267291092355
 20
1546.059891458949
 30
0.0
 11
2197.817291092356
 21
1546.559891458949
 31
0.0
  0
LINE
  5
F05
330
1F
100
AcDbEntity
  8
AM_VIS
100
AcDbLine
 10
2198.267291092355
 20
1545.559891458949
 30
0.0
 11
2198.267291092355
 21
1546.059891458949
 31
0.0
  0
LINE
  5
F06
330
1F
100
AcDbEntity
  8
AM_VIS
100
AcDbLine
 10
2193.667291092356
 20
1545.559891458949
 30
0.0
 11
2198.267291092355
 21
1545.559891458949
 31
0.0
  0
LINE
  5
F07
330
1F
100
AcDbEntity
  8
AM_VIS
100
AcDbLine
 10
2193.667291092356
 20
1546.059891458949
 30
0.0
 11
2193.667291092356
 21
1545.559891458949
 31
0.0
  0
LINE
  5
F08
330
1F
100
AcDbEntity
  8
AM_VIS
100
AcDbLine
 10
2194.117291092355
 20
1546.559891458949
 30
0.0
 11
2193.667291092356
 21
1546.059891458949
 31
0.0
  0
LINE
  5
F09
330
1F
100
AcDbEntity
  8
AM_VIS
100
AcDbLine
 10
2194.117291092355
 20
1548.659891458949
 30
0.0
 11
2194.117291092355
 21
1546.559891458949
 31
0.0
  0
LINE
  5
F0A
330
1F
100
AcDbEntity
  8
AM_VIS
100
AcDbLine
 10
2191.517291092355
 20
1550.359891458949
 30
0.0
 11
2192.417291092355
 21
1550.359891458949
 31
0.0
  0
LINE
  5
F0B
330
1F
100
AcDbEntity
  8
AM_VIS
100
AcDbLine
 10
2189.817291092356
 20
1546.559891458949
 30
0.0
 11
2189.817291092356
 21
1548.659891458949
 31
0.0
  0
LINE
  5
F0C
330
1F
100
AcDbEntity
  8
AM_VIS
100
AcDbLine
 10
2190.267291092355
 20
1546.059891458949
 30
0.0
 11
2189.817291092356
 21
1546.559891458949
 31
0.0
  0
LINE
  5
F0D
330
1F
100
AcDbEntity
  8
AM_VIS
100
AcDbLine
 10
2190.267291092355
 20
1545.559891458949
 30
0.0
 11
2190.267291092355
 21
1546.059891458949
 31
0.0
  0
LINE
  5
F0E
330
1F
100
AcDbEntity
  8
AM_VIS
100
AcDbLine
 10
2189.167291092355
 20
1545.559891458949
 30
0.0
 11
2190.267291092355
 21
1545.559891458949
 31
0.0
  0
LINE
  5
F0F
330
1F
100
AcDbEntity
  8
AM_VIS
100
AcDbLine
 10
2188.767291092355
 20
1545.159891458949
 30
0.0
 11
2189.167291092355
 21
1545.559891458949
 31
0.0
  0
LINE
  5
F10
330
1F
100
AcDbEntity
  8
AM_VIS
100
AcDbLine
 10
2180.167291092355
 20
1545.159891458949
 30
0.0
 11
2188.767291092355
 21
1545.159891458949
 31
0.0
  0
LINE
  5
F11
330
1F
100
AcDbEntity
  8
AM_VIS
100
AcDbLine
 10
2178.717291092356
 20
1546.609891458949
 30
0.0
 11
2180.167291092355
 21
1545.159891458949
 31
0.0
  0
LINE
  5
F12
330
1F
100
AcDbEntity
  8
AM_VIS
100
AcDbLine
 10
2177.767291092355
 20
1545.659891458949
 30
0.0
 11
2178.717291092356
 21
1546.609891458949
 31
0.0
  0
LINE
  5
F13
330
1F
100
AcDbEntity
  8
AM_VIS
100
AcDbLine
 10
2174.467291092355
 20
1545.659891458949
 30
0.0
 11
2177.767291092355
 21
1545.659891458949
 31
0.0
  0
LINE
  5
F14
330
1F
100
AcDbEntity
  8
AM_VIS
100
AcDbLine
 10
2173.967291092356
 20
1545.159891458949
 30
0.0
 11
2174.467291092355
 21
1545.659891458949
 31
0.0
  0
LINE
  5
F15
330
1F
100
AcDbEntity
  8
AM_VIS
100
AcDbLine
 10
2167.253148249501
 20
1545.159891458949
 30
0.0
 11
2173.967291092356
 21
1545.159891458949
 31
0.0
  0
ARC
  5
F16
330
1F
100
AcDbEntity
  8
AM_VIS
100
AcDbCircle
 10
2167.967291092355
 20
1545.859891458949
 30
0.0
 40
0.9999999999999998
100
AcDbArc
 50
180.0
 51
224.4270040008183
  0
ARC
  5
F17
330
1F
100
AcDbEntity
  8
AM_VIS
100
AcDbCircle
 10
2167.967291092355
 20
1570.159891458949
 30
0.0
 40
0.9999999999999998
100
AcDbArc
 50
90.0
 51
180.0
  0
ARC
  5
F18
330
1F
100
AcDbEntity
  8
AM_VIS
100
AcDbCircle
 10
2191.517291092355
 20
1567.659891458949
 30
0.0
 40
1.7
100
AcDbArc
 50
180.0
 51
270.0
  0
ARC
  5
F19
330
1F
100
AcDbEntity
  8
AM_VIS
100
AcDbCircle
 10
2192.417291092355
 20
1567.659891458949
 30
0.0
 40
1.7
100
AcDbArc
 50
270.0
 51
0.0
  0
ARC
  5
F1A
330
1F
100
AcDbEntity
  8
AM_VIS
100
AcDbCircle
 10
2199.517291092355
 20
1567.659891458949
 30
0.0
 40
1.7
100
AcDbArc
 50
180.0
 51
270.0
  0
ARC
  5
F1B
330
1F
100
AcDbEntity
  8
AM_VIS
100
AcDbCircle
 10
2200.417291092355
 20
1567.659891458949
 30
0.0
 40
1.7
100
AcDbArc
 50
270.0
 51
0.0
  0
ARC
  5
F1C
330
1F
100
AcDbEntity
  8
AM_VIS
100
AcDbCircle
 10
2223.967291092356
 20
1570.159891458949
 30
0.0
 40
0.9999999999999998
100
AcDbArc
 50
0.0
 51
90.0
  0
ARC
  5
F1D
330
1F
100
AcDbEntity
  8
AM_VIS
100
AcDbCircle
 10
2223.967291092356
 20
1545.859891458949
 30
0.0
 40
0.9999999999999998
100
AcDbArc
 50
315.5729959991817
 51
0.0
  0
ARC
  5
F1E
330
1F
100
AcDbEntity
  8
AM_VIS
100
AcDbCircle
 10
2200.417291092355
 20
1548.659891458949
 30
0.0
 40
1.7
100
AcDbArc
 50
0.0
 51
90.0
  0
ARC
  5
F1F
330
1F
100
AcDbEntity
  8
AM_VIS
100
AcDbCircle
 10
2199.517291092355
 20
1548.659891458949
 30
0.0
 40
1.7
100
AcDbArc
 50
90.0
 51
180.0
  0
ARC
  5
F20
330
1F
100
AcDbEntity
  8
AM_VIS
100
AcDbCircle
 10
2192.417291092355
 20
1548.659891458949
 30
0.0
 40
1.7
100
AcDbArc
 50
0.0
 51
90.0
  0
ARC
  5
F21
330
1F
100
AcDbEntity
  8
AM_VIS
100
AcDbCircle
 10
2191.517291092355
 20
1548.659891458949
 30
0.0
 40
1.7
100
AcDbArc
 50
90.0
 51
180.0
  0
LINE
  5
F22
330
1F
100
AcDbEntity
  8
AM_VIS
100
AcDbLine
 10
2120.619601263067
 20
1651.371012811811
 30
0.0
 11
2120.369601263067
 21
1651.121012811811
 31
0.0
  0
LINE
  5
F23
330
1F
100
AcDbEntity
  8
AM_VIS
100
AcDbLine
 10
2141.619601263067
 20
1651.371012811811
 30
0.0
 11
2141.869601263067
 21
1651.121012811811
 31
0.0
  0
LINE
  5
F24
330
1F
100
AcDbEntity
  8
AM_VIS
100
AcDbLine
 10
2141.869601263067
 20
1651.121012811811
 30
0.0
 11
2142.119601263066
 21
1650.871012811811
 31
0.0
  0
LINE
  5
F25
330
1F
100
AcDbEntity
  8
AM_VIS
100
AcDbLine
 10
2142.119601263066
 20
1643.871012811811
 30
0.0
 11
2142.119601263066
 21
1650.871012811811
 31
0.0
  0
LINE
  5
F26
330
1F
100
AcDbEntity
  8
AM_VIS
100
AcDbLine
 10
2120.119601263067
 20
1650.871012811811
 30
0.0
 11
2120.369601263067
 21
1651.121012811811
 31
0.0
  0
LINE
  5
F27
330
1F
100
AcDbEntity
  8
AM_VIS
100
AcDbLine
 10
2120.119601263067
 20
1650.871012811811
 30
0.0
 11
2120.119601263067
 21
1643.871012811811
 31
0.0
  0
LINE
  5
F28
330
1F
100
AcDbEntity
  8
AM_VIS
100
AcDbLine
 10
2120.369601263067
 20
1643.621012811811
 30
0.0
 11
2120.119601263067
 21
1643.871012811811
 31
0.0
  0
LINE
  5
F29
330
1F
100
AcDbEntity
  8
AM_VIS
100
AcDbLine
 10
2142.119601263066
 20
1643.871012811811
 30
0.0
 11
2141.869601263067
 21
1643.621012811811
 31
0.0
  0
LINE
  5
F2A
330
1F
100
AcDbEntity
  8
AM_VIS
100
AcDbLine
 10
2141.619601263067
 20
1643.371012811811
 30
0.0
 11
2141.869601263067
 21
1643.621012811811
 31
0.0
  0
LINE
  5
F2B
330
1F
100
AcDbEntity
  8
AM_VIS
100
AcDbLine
 10
2120.369601263067
 20
1643.621012811811
 30
0.0
 11
2120.619601263067
 21
1643.371012811811
 31
0.0
  0
LINE
  5
F2C
330
1F
100
AcDbEntity
  8
AM_VIS
100
AcDbLine
 10
2141.619601263067
 20
1651.371012811811
 30
0.0
 11
2120.619601263067
 21
1651.371012811811
 31
0.0
  0
LINE
  5
F2D
330
1F
100
AcDbEntity
  8
AM_VIS
100
AcDbLine
 10
2120.619601263067
 20
1643.371012811811
 30
0.0
 11
2141.619601263067
 21
1643.371012811811
 31
0.0
  0
LINE
  5
F2E
330
1F
100
AcDbEntity
  8
AM_VIS
100
AcDbLine
 10
2118.119601263067
 20
1641.371012811811
 30
0.0
 11
2118.119601263067
 21
1602.371012811811
 31
0.0
  0
LINE
  5
F2F
330
1F
100
AcDbEntity
  8
AM_VIS
100
AcDbLine
 10
2144.119601263067
 20
1602.371012811811
 30
0.0
 11
2144.119601263067
 21
1641.371012811811
 31
0.0
  0
LINE
  5
F30
330
1F
100
AcDbEntity
  8
AM_VIS
100
AcDbLine
 10
2143.119601263067
 20
1641.371012811811
 30
0.0
 11
2118.819601263067
 21
1641.371012811811
 31
0.0
  0
LINE
  5
F31
330
1F
100
AcDbEntity
  8
AM_VIS
100
AcDbLine
 10
2118.819601263067
 20
1602.371012811811
 30
0.0
 11
2143.119601263067
 21
1602.371012811811
 31
0.0
  0
LINE
  5
F32
330
1F
100
AcDbEntity
  8
AM_VIS
100
AcDbLine
 10
2143.119601263067
 20
1641.371012811811
 30
0.0
 11
2144.119601263067
 21
1641.371012811811
 31
0.0
  0
LINE
  5
F33
330
1F
100
AcDbEntity
  8
AM_VIS
100
AcDbLine
 10
2118.119601263067
 20
1641.371012811811
 30
0.0
 11
2118.819601263067
 21
1641.371012811811
 31
0.0
  0
LINE
  5
F34
330
1F
100
AcDbEntity
  8
AM_VIS
100
AcDbLine
 10
2118.819601263067
 20
1602.371012811811
 30
0.0
 11
2118.119601263067
 21
1602.371012811811
 31
0.0
  0
LINE
  5
F35
330
1F
100
AcDbEntity
  8
AM_VIS
100
AcDbLine
 10
2144.119601263067
 20
1602.371012811811
 30
0.0
 11
2143.119601263067
 21
1602.371012811811
 31
0.0
  0
LINE
  5
F36
330
1F
100
AcDbEntity
  8
AM_VIS
100
AcDbLine
 10
2253.97163054705
 20
1650.871012811811
 30
0.0
 11
2254.22163054705
 21
1651.121012811811
 31
0.0
  0
LINE
  5
F37
330
1F
100
AcDbEntity
  8
AM_VIS
100
AcDbLine
 10
2254.47163054705
 20
1651.371012811811
 30
0.0
 11
2254.22163054705
 21
1651.121012811811
 31
0.0
  0
LINE
  5
F38
330
1F
100
AcDbEntity
  8
AM_VIS
100
AcDbLine
 10
2275.72163054705
 20
1651.121012811811
 30
0.0
 11
2275.47163054705
 21
1651.371012811811
 31
0.0
  0
LINE
  5
F39
330
1F
100
AcDbEntity
  8
AM_VIS
100
AcDbLine
 10
2275.72163054705
 20
1651.121012811811
 30
0.0
 11
2275.97163054705
 21
1650.871012811811
 31
0.0
  0
LINE
  5
F3A
330
1F
100
AcDbEntity
  8
AM_VIS
100
AcDbLine
 10
2253.97163054705
 20
1650.871012811811
 30
0.0
 11
2253.97163054705
 21
1643.871012811811
 31
0.0
  0
LINE
  5
F3B
330
1F
100
AcDbEntity
  8
AM_VIS
100
AcDbLine
 10
2275.97163054705
 20
1643.871012811811
 30
0.0
 11
2275.97163054705
 21
1650.871012811811
 31
0.0
  0
LINE
  5
F3C
330
1F
100
AcDbEntity
  8
AM_VIS
100
AcDbLine
 10
2275.72163054705
 20
1643.621012811811
 30
0.0
 11
2275.47163054705
 21
1643.371012811811
 31
0.0
  0
LINE
  5
F3D
330
1F
100
AcDbEntity
  8
AM_VIS
100
AcDbLine
 10
2275.97163054705
 20
1643.871012811811
 30
0.0
 11
2275.72163054705
 21
1643.621012811811
 31
0.0
  0
LINE
  5
F3E
330
1F
100
AcDbEntity
  8
AM_VIS
100
AcDbLine
 10
2254.22163054705
 20
1643.621012811811
 30
0.0
 11
2253.97163054705
 21
1643.871012811811
 31
0.0
  0
LINE
  5
F3F
330
1F
100
AcDbEntity
  8
AM_VIS
100
AcDbLine
 10
2254.47163054705
 20
1643.371012811811
 30
0.0
 11
2254.22163054705
 21
1643.621012811811
 31
0.0
  0
LINE
  5
F40
330
1F
100
AcDbEntity
  8
AM_VIS
100
AcDbLine
 10
2275.47163054705
 20
1651.371012811811
 30
0.0
 11
2254.47163054705
 21
1651.371012811811
 31
0.0
  0
LINE
  5
F41
330
1F
100
AcDbEntity
  8
AM_VIS
100
AcDbLine
 10
2254.47163054705
 20
1643.371012811811
 30
0.0
 11
2275.47163054705
 21
1643.371012811811
 31
0.0
  0
LINE
  5
F42
330
1F
100
AcDbEntity
  8
AM_VIS
100
AcDbLine
 10
2251.971630547049
 20
1641.371012811811
 30
0.0
 11
2251.971630547049
 21
1602.371012811811
 31
0.0
  0
LINE
  5
F43
330
1F
100
AcDbEntity
  8
AM_VIS
100
AcDbLine
 10
2277.97163054705
 20
1602.371012811811
 30
0.0
 11
2277.97163054705
 21
1641.371012811811
 31
0.0
  0
LINE
  5
F44
330
1F
100
AcDbEntity
  8
AM_VIS
100
AcDbLine
 10
2277.271630547049
 20
1641.371012811811
 30
0.0
 11
2252.971630547049
 21
1641.371012811811
 31
0.0
  0
LINE
  5
F45
330
1F
100
AcDbEntity
  8
AM_VIS
100
AcDbLine
 10
2252.971630547049
 20
1602.371012811811
 30
0.0
 11
2277.271630547049
 21
1602.371012811811
 31
0.0
  0
LINE
  5
F46
330
1F
100
AcDbEntity
  8
AM_VIS
100
AcDbLine
 10
2277.271630547049
 20
1641.371012811811
 30
0.0
 11
2277.97163054705
 21
1641.371012811811
 31
0.0
  0
LINE
  5
F47
330
1F
100
AcDbEntity
  8
AM_VIS
100
AcDbLine
 10
2251.971630547049
 20
1641.371012811811
 30
0.0
 11
2252.971630547049
 21
1641.371012811811
 31
0.0
  0
LINE
  5
F48
330
1F
100
AcDbEntity
  8
AM_VIS
100
AcDbLine
 10
2252.971630547049
 20
1602.371012811811
 30
0.0
 11
2251.971630547049
 21
1602.371012811811
 31
0.0
  0
LINE
  5
F49
330
1F
100
AcDbEntity
  8
AM_VIS
100
AcDbLine
 10
2277.97163054705
 20
1602.371012811811
 30
0.0
 11
2277.271630547049
 21
1602.371012811811
 31
0.0
  0
LINE
  5
F4A
330
1F
100
AcDbEntity
  8
AM_VIS
100
AcDbLine
 10
2364.35674886636
 20
1651.371012811811
 30
0.0
 11
2364.60674886636
 21
1651.121012811811
 31
0.0
  0
LINE
  5
F4B
330
1F
100
AcDbEntity
  8
AM_VIS
100
AcDbLine
 10
2309.10674886636
 20
1651.121012811811
 30
0.0
 11
2309.35674886636
 21
1651.371012811811
 31
0.0
  0
LINE
  5
F4C
330
1F
100
AcDbEntity
  8
AM_VIS
100
AcDbLine
 10
2308.85674886636
 20
1650.871012811811
 30
0.0
 11
2309.10674886636
 21
1651.121012811811
 31
0.0
  0
LINE
  5
F4D
330
1F
100
AcDbEntity
  8
AM_VIS
100
AcDbLine
 10
2308.85674886636
 20
1650.871012811811
 30
0.0
 11
2308.85674886636
 21
1643.871012811811
 31
0.0
  0
LINE
  5
F4E
330
1F
100
AcDbEntity
  8
AM_VIS
100
AcDbLine
 10
2309.10674886636
 20
1643.621012811811
 30
0.0
 11
2308.85674886636
 21
1643.871012811811
 31
0.0
  0
LINE
  5
F4F
330
1F
100
AcDbEntity
  8
AM_VIS
100
AcDbLine
 10
2364.60674886636
 20
1651.121012811811
 30
0.0
 11
2364.85674886636
 21
1650.871012811811
 31
0.0
  0
LINE
  5
F50
330
1F
100
AcDbEntity
  8
AM_VIS
100
AcDbLine
 10
2364.85674886636
 20
1643.871012811811
 30
0.0
 11
2364.85674886636
 21
1650.871012811811
 31
0.0
  0
LINE
  5
F51
330
1F
100
AcDbEntity
  8
AM_VIS
100
AcDbLine
 10
2309.10674886636
 20
1643.621012811811
 30
0.0
 11
2309.35674886636
 21
1643.371012811811
 31
0.0
  0
LINE
  5
F52
330
1F
100
AcDbEntity
  8
AM_VIS
100
AcDbLine
 10
2364.60674886636
 20
1643.621012811811
 30
0.0
 11
2364.35674886636
 21
1643.371012811811
 31
0.0
  0
LINE
  5
F53
330
1F
100
AcDbEntity
  8
AM_VIS
100
AcDbLine
 10
2364.85674886636
 20
1643.871012811811
 30
0.0
 11
2364.60674886636
 21
1643.621012811811
 31
0.0
  0
LINE
  5
F54
330
1F
100
AcDbEntity
  8
AM_VIS
100
AcDbLine
 10
2364.35674886636
 20
1651.371012811811
 30
0.0
 11
2309.35674886636
 21
1651.371012811811
 31
0.0
  0
LINE
  5
F55
330
1F
100
AcDbEntity
  8
AM_VIS
100
AcDbLine
 10
2309.35674886636
 20
1643.371012811811
 30
0.0
 11
2364.35674886636
 21
1643.371012811811
 31
0.0
  0
LINE
  5
F56
330
1F
100
AcDbEntity
  8
AM_VIS
100
AcDbLine
 10
2318.65674886636
 20
1641.371012811811
 30
0.0
 11
2318.65674886636
 21
1602.371012811811
 31
0.0
  0
LINE
  5
F57
330
1F
100
AcDbEntity
  8
AM_VIS
100
AcDbLine
 10
2315.35674886636
 20
1641.371012811811
 30
0.0
 11
2315.35674886636
 21
1602.371012811811
 31
0.0
  0
LINE
  5
F58
330
1F
100
AcDbEntity
  8
AM_VIS
100
AcDbLine
 10
2358.35674886636
 20
1641.371012811811
 30
0.0
 11
2358.35674886636
 21
1602.371012811811
 31
0.0
  0
LINE
  5
F59
330
1F
100
AcDbEntity
  8
AM_VIS
100
AcDbLine
 10
2354.10674886636
 20
1641.371012811811
 30
0.0
 11
2354.10674886636
 21
1602.371012811811
 31
0.0
  0
LINE
  5
F5A
330
1F
100
AcDbEntity
  8
AM_VIS
100
AcDbLine
 10
2355.05674886636
 20
1641.371012811811
 30
0.0
 11
2355.05674886636
 21
1602.371012811811
 31
0.0
  0
LINE
  5
F5B
330
1F
100
AcDbEntity
  8
AM_VIS
100
AcDbLine
 10
2330.05674886636
 20
1641.371012811811
 30
0.0
 11
2330.05674886636
 21
1602.371012811811
 31
0.0
  0
LINE
  5
F5C
330
1F
100
AcDbEntity
  8
AM_VIS
100
AcDbLine
 10
2334.55674886636
 20
1641.371012811811
 30
0.0
 11
2334.55674886636
 21
1602.371012811811
 31
0.0
  0
LINE
  5
F5D
330
1F
100
AcDbEntity
  8
AM_VIS
100
AcDbLine
 10
2331.15674886636
 20
1602.371012811811
 30
0.0
 11
2331.15674886636
 21
1641.371012811811
 31
0.0
  0
LINE
  5
F5E
330
1F
100
AcDbEntity
  8
AM_VIS
100
AcDbLine
 10
2342.55674886636
 20
1641.371012811811
 30
0.0
 11
2342.55674886636
 21
1602.371012811811
 31
0.0
  0
LINE
  5
F5F
330
1F
100
AcDbEntity
  8
AM_VIS
100
AcDbLine
 10
2339.15674886636
 20
1602.371012811811
 30
0.0
 11
2339.15674886636
 21
1641.371012811811
 31
0.0
  0
LINE
  5
F60
330
1F
100
AcDbEntity
  8
AM_VIS
100
AcDbLine
 10
2343.65674886636
 20
1641.371012811811
 30
0.0
 11
2343.65674886636
 21
1602.371012811811
 31
0.0
  0
LINE
  5
F61
330
1F
100
AcDbEntity
  8
AM_VIS
100
AcDbLine
 10
2319.60674886636
 20
1641.371012811811
 30
0.0
 11
2319.60674886636
 21
1602.371012811811
 31
0.0
  0
LINE
  5
F62
330
1F
100
AcDbEntity
  8
AM_VIS
100
AcDbLine
 10
2307.85674886636
 20
1641.371012811811
 30
0.0
 11
2307.85674886636
 21
1602.371012811811
 31
0.0
  0
LINE
  5
F63
330
1F
100
AcDbEntity
  8
AM_VIS
100
AcDbLine
 10
2344.05674886636
 20
1602.371012811811
 30
0.0
 11
2344.05674886636
 21
1641.371012811811
 31
0.0
  0
LINE
  5
F64
330
1F
100
AcDbEntity
  8
AM_VIS
100
AcDbLine
 10
2352.65674886636
 20
1641.371012811811
 30
0.0
 11
2352.65674886636
 21
1602.371012811811
 31
0.0
  0
LINE
  5
F65
330
1F
100
AcDbEntity
  8
AM_VIS
100
AcDbLine
 10
2321.05674886636
 20
1602.371012811811
 30
0.0
 11
2321.05674886636
 21
1641.371012811811
 31
0.0
  0
LINE
  5
F66
330
1F
100
AcDbEntity
  8
AM_VIS
100
AcDbLine
 10
2329.65674886636
 20
1641.371012811811
 30
0.0
 11
2329.65674886636
 21
1602.371012811811
 31
0.0
  0
LINE
  5
F67
330
1F
100
AcDbEntity
  8
AM_VIS
100
AcDbLine
 10
2314.85674886636
 20
1641.371012811811
 30
0.0
 11
2314.85674886636
 21
1602.371012811811
 31
0.0
  0
LINE
  5
F68
330
1F
100
AcDbEntity
  8
AM_VIS
100
AcDbLine
 10
2358.85674886636
 20
1602.371012811811
 30
0.0
 11
2358.85674886636
 21
1641.371012811811
 31
0.0
  0
LINE
  5
F69
330
1F
100
AcDbEntity
  8
AM_VIS
100
AcDbLine
 10
2358.35674886636
 20
1641.371012811811
 30
0.0
 11
2358.85674886636
 21
1641.371012811811
 31
0.0
  0
LINE
  5
F6A
330
1F
100
AcDbEntity
  8
AM_VIS
100
AcDbLine
 10
2355.05674886636
 20
1641.371012811811
 30
0.0
 11
2358.35674886636
 21
1641.371012811811
 31
0.0
  0
LINE
  5
F6B
330
1F
100
AcDbEntity
  8
AM_VIS
100
AcDbLine
 10
2354.10674886636
 20
1641.371012811811
 30
0.0
 11
2355.05674886636
 21
1641.371012811811
 31
0.0
  0
LINE
  5
F6C
330
1F
100
AcDbEntity
  8
AM_VIS
100
AcDbLine
 10
2352.65674886636
 20
1641.371012811811
 30
0.0
 11
2354.10674886636
 21
1641.371012811811
 31
0.0
  0
LINE
  5
F6D
330
1F
100
AcDbEntity
  8
AM_VIS
100
AcDbLine
 10
2344.05674886636
 20
1641.371012811811
 30
0.0
 11
2352.65674886636
 21
1641.371012811811
 31
0.0
  0
LINE
  5
F6E
330
1F
100
AcDbEntity
  8
AM_VIS
100
AcDbLine
 10
2343.65674886636
 20
1641.371012811811
 30
0.0
 11
2344.05674886636
 21
1641.371012811811
 31
0.0
  0
LINE
  5
F6F
330
1F
100
AcDbEntity
  8
AM_VIS
100
AcDbLine
 10
2342.55674886636
 20
1641.371012811811
 30
0.0
 11
2343.65674886636
 21
1641.371012811811
 31
0.0
  0
LINE
  5
F70
330
1F
100
AcDbEntity
  8
AM_VIS
100
AcDbLine
 10
2340.40674886636
 20
1641.371012811811
 30
0.0
 11
2341.30674886636
 21
1641.371012811811
 31
0.0
  0
LINE
  5
F71
330
1F
100
AcDbEntity
  8
AM_VIS
100
AcDbLine
 10
2334.55674886636
 20
1641.371012811811
 30
0.0
 11
2339.15674886636
 21
1641.371012811811
 31
0.0
  0
LINE
  5
F72
330
1F
100
AcDbEntity
  8
AM_VIS
100
AcDbLine
 10
2332.40674886636
 20
1641.371012811811
 30
0.0
 11
2333.30674886636
 21
1641.371012811811
 31
0.0
  0
LINE
  5
F73
330
1F
100
AcDbEntity
  8
AM_VIS
100
AcDbLine
 10
2330.056748866359
 20
1641.371012811811
 30
0.0
 11
2331.15674886636
 21
1641.371012811811
 31
0.0
  0
LINE
  5
F74
330
1F
100
AcDbEntity
  8
AM_VIS
100
AcDbLine
 10
2329.65674886636
 20
1641.371012811811
 30
0.0
 11
2330.05674886636
 21
1641.371012811811
 31
0.0
  0
LINE
  5
F75
330
1F
100
AcDbEntity
  8
AM_VIS
100
AcDbLine
 10
2321.05674886636
 20
1641.371012811811
 30
0.0
 11
2329.65674886636
 21
1641.371012811811
 31
0.0
  0
LINE
  5
F76
330
1F
100
AcDbEntity
  8
AM_VIS
100
AcDbLine
 10
2319.60674886636
 20
1641.371012811811
 30
0.0
 11
2321.05674886636
 21
1641.371012811811
 31
0.0
  0
LINE
  5
F77
330
1F
100
AcDbEntity
  8
AM_VIS
100
AcDbLine
 10
2318.65674886636
 20
1641.371012811811
 30
0.0
 11
2319.60674886636
 21
1641.371012811811
 31
0.0
  0
LINE
  5
F78
330
1F
100
AcDbEntity
  8
AM_VIS
100
AcDbLine
 10
2315.35674886636
 20
1641.371012811811
 30
0.0
 11
2318.65674886636
 21
1641.371012811811
 31
0.0
  0
LINE
  5
F79
330
1F
100
AcDbEntity
  8
AM_VIS
100
AcDbLine
 10
2314.85674886636
 20
1641.371012811811
 30
0.0
 11
2315.35674886636
 21
1641.371012811811
 31
0.0
  0
LINE
  5
F7A
330
1F
100
AcDbEntity
  8
AM_VIS
100
AcDbLine
 10
2308.142606023506
 20
1641.371012811811
 30
0.0
 11
2314.85674886636
 21
1641.371012811811
 31
0.0
  0
LINE
  5
F7B
330
1F
100
AcDbEntity
  8
AM_VIS
100
AcDbLine
 10
2358.85674886636
 20
1641.371012811811
 30
0.0
 11
2365.570891709214
 21
1641.371012811811
 31
0.0
  0
LINE
  5
F7C
330
1F
100
AcDbEntity
  8
AM_VIS
100
AcDbLine
 10
2365.85674886636
 20
1602.371012811811
 30
0.0
 11
2365.85674886636
 21
1641.371012811811
 31
0.0
  0
LINE
  5
F7D
330
1F
100
AcDbEntity
  8
AM_VIS
100
AcDbLine
 10
2314.85674886636
 20
1602.371012811811
 30
0.0
 11
2308.142606023506
 21
1602.371012811811
 31
0.0
  0
LINE
  5
F7E
330
1F
100
AcDbEntity
  8
AM_VIS
100
AcDbLine
 10
2315.35674886636
 20
1602.371012811811
 30
0.0
 11
2314.85674886636
 21
1602.371012811811
 31
0.0
  0
LINE
  5
F7F
330
1F
100
AcDbEntity
  8
AM_VIS
100
AcDbLine
 10
2318.65674886636
 20
1602.371012811811
 30
0.0
 11
2315.35674886636
 21
1602.371012811811
 31
0.0
  0
LINE
  5
F80
330
1F
100
AcDbEntity
  8
AM_VIS
100
AcDbLine
 10
2319.60674886636
 20
1602.371012811811
 30
0.0
 11
2318.65674886636
 21
1602.371012811811
 31
0.0
  0
LINE
  5
F81
330
1F
100
AcDbEntity
  8
AM_VIS
100
AcDbLine
 10
2321.05674886636
 20
1602.371012811811
 30
0.0
 11
2319.60674886636
 21
1602.371012811811
 31
0.0
  0
LINE
  5
F82
330
1F
100
AcDbEntity
  8
AM_VIS
100
AcDbLine
 10
2329.65674886636
 20
1602.371012811811
 30
0.0
 11
2321.05674886636
 21
1602.371012811811
 31
0.0
  0
LINE
  5
F83
330
1F
100
AcDbEntity
  8
AM_VIS
100
AcDbLine
 10
2330.05674886636
 20
1602.371012811811
 30
0.0
 11
2329.65674886636
 21
1602.371012811811
 31
0.0
  0
LINE
  5
F84
330
1F
100
AcDbEntity
  8
AM_VIS
100
AcDbLine
 10
2331.15674886636
 20
1602.371012811811
 30
0.0
 11
2330.056748866359
 21
1602.371012811811
 31
0.0
  0
LINE
  5
F85
330
1F
100
AcDbEntity
  8
AM_VIS
100
AcDbLine
 10
2333.30674886636
 20
1602.371012811811
 30
0.0
 11
2332.40674886636
 21
1602.371012811811
 31
0.0
  0
LINE
  5
F86
330
1F
100
AcDbEntity
  8
AM_VIS
100
AcDbLine
 10
2339.15674886636
 20
1602.371012811811
 30
0.0
 11
2334.55674886636
 21
1602.371012811811
 31
0.0
  0
LINE
  5
F87
330
1F
100
AcDbEntity
  8
AM_VIS
100
AcDbLine
 10
2341.30674886636
 20
1602.371012811811
 30
0.0
 11
2340.40674886636
 21
1602.371012811811
 31
0.0
  0
LINE
  5
F88
330
1F
100
AcDbEntity
  8
AM_VIS
100
AcDbLine
 10
2343.65674886636
 20
1602.371012811811
 30
0.0
 11
2342.55674886636
 21
1602.371012811811
 31
0.0
  0
LINE
  5
F89
330
1F
100
AcDbEntity
  8
AM_VIS
100
AcDbLine
 10
2344.05674886636
 20
1602.371012811811
 30
0.0
 11
2343.65674886636
 21
1602.371012811811
 31
0.0
  0
LINE
  5
F8A
330
1F
100
AcDbEntity
  8
AM_VIS
100
AcDbLine
 10
2352.65674886636
 20
1602.371012811811
 30
0.0
 11
2344.05674886636
 21
1602.371012811811
 31
0.0
  0
LINE
  5
F8B
330
1F
100
AcDbEntity
  8
AM_VIS
100
AcDbLine
 10
2354.10674886636
 20
1602.371012811811
 30
0.0
 11
2352.65674886636
 21
1602.371012811811
 31
0.0
  0
LINE
  5
F8C
330
1F
100
AcDbEntity
  8
AM_VIS
100
AcDbLine
 10
2355.05674886636
 20
1602.371012811811
 30
0.0
 11
2354.10674886636
 21
1602.371012811811
 31
0.0
  0
LINE
  5
F8D
330
1F
100
AcDbEntity
  8
AM_VIS
100
AcDbLine
 10
2358.35674886636
 20
1602.371012811811
 30
0.0
 11
2355.05674886636
 21
1602.371012811811
 31
0.0
  0
LINE
  5
F8E
330
1F
100
AcDbEntity
  8
AM_VIS
100
AcDbLine
 10
2358.85674886636
 20
1602.371012811811
 30
0.0
 11
2358.35674886636
 21
1602.371012811811
 31
0.0
  0
LINE
  5
F8F
330
1F
100
AcDbEntity
  8
AM_VIS
100
AcDbLine
 10
2365.570891709214
 20
1602.371012811811
 30
0.0
 11
2358.85674886636
 21
1602.371012811811
 31
0.0
  0
LINE
  5
F90
330
1F
100
AcDbEntity
  8
AM_VIS
100
AcDbLine
 10
2341.30674886636
 20
1641.371012811811
 30
0.0
 11
2342.55674886636
 21
1641.371012811811
 31
0.0
  0
LINE
  5
F91
330
1F
100
AcDbEntity
  8
AM_VIS
100
AcDbLine
 10
2339.15674886636
 20
1641.371012811811
 30
0.0
 11
2340.40674886636
 21
1641.371012811811
 31
0.0
  0
LINE
  5
F92
330
1F
100
AcDbEntity
  8
AM_VIS
100
AcDbLine
 10
2334.55674886636
 20
1641.371012811811
 30
0.0
 11
2333.30674886636
 21
1641.371012811811
 31
0.0
  0
LINE
  5
F93
330
1F
100
AcDbEntity
  8
AM_VIS
100
AcDbLine
 10
2332.40674886636
 20
1641.371012811811
 30
0.0
 11
2331.15674886636
 21
1641.371012811811
 31
0.0
  0
LINE
  5
F94
330
1F
100
AcDbEntity
  8
AM_VIS
100
AcDbLine
 10
2307.85674886636
 20
1641.371012811811
 30
0.0
 11
2308.142606023506
 21
1641.371012811811
 31
0.0
  0
LINE
  5
F95
330
1F
100
AcDbEntity
  8
AM_VIS
100
AcDbLine
 10
2365.570891709214
 20
1641.371012811811
 30
0.0
 11
2365.85674886636
 21
1641.371012811811
 31
0.0
  0
LINE
  5
F96
330
1F
100
AcDbEntity
  8
AM_VIS
100
AcDbLine
 10
2365.85674886636
 20
1602.371012811811
 30
0.0
 11
2365.570891709214
 21
1602.371012811811
 31
0.0
  0
LINE
  5
F97
330
1F
100
AcDbEntity
  8
AM_VIS
100
AcDbLine
 10
2308.142606023506
 20
1602.371012811811
 30
0.0
 11
2307.85674886636
 21
1602.371012811811
 31
0.0
  0
LINE
  5
F98
330
1F
100
AcDbEntity
  8
AM_VIS
100
AcDbLine
 10
2331.15674886636
 20
1602.371012811811
 30
0.0
 11
2332.40674886636
 21
1602.371012811811
 31
0.0
  0
LINE
  5
F99
330
1F
100
AcDbEntity
  8
AM_VIS
100
AcDbLine
 10
2333.30674886636
 20
1602.371012811811
 30
0.0
 11
2334.55674886636
 21
1602.371012811811
 31
0.0
  0
LINE
  5
F9A
330
1F
100
AcDbEntity
  8
AM_VIS
100
AcDbLine
 10
2340.40674886636
 20
1602.371012811811
 30
0.0
 11
2339.15674886636
 21
1602.371012811811
 31
0.0
  0
LINE
  5
F9B
330
1F
100
AcDbEntity
  8
AM_VIS
100
AcDbLine
 10
2342.55674886636
 20
1602.371012811811
 30
0.0
 11
2341.30674886636
 21
1602.371012811811
 31
0.0
  0
CIRCLE
  5
F9C
330
1F
100
AcDbEntity
  8
0
100
AcDbCircle
 10
2195.967291092355
 20
1558.159891458949
 30
0.0
 40
8.0
  0
ARC
  5
F9D
330
1F
100
AcDbEntity
  8
AM_4
100
AcDbCircle
 10
2175.967291092355
 20
1549.009891458949
 30
0.0
 40
2.0
100
AcDbArc
 50
259.9999999999939
 51
170.0000000000089
  0
CIRCLE
  5
F9E
330
1F
100
AcDbEntity
  8
AM_0
100
AcDbCircle
 10
2175.967291092355
 20
1549.009891458949
 30
0.0
 40
1.621113885844339
  0
ARC
  5
F9F
330
1F
100
AcDbEntity
  8
AM_4
100
AcDbCircle
 10
2215.967291092356
 20
1549.009891458949
 30
0.0
 40
2.0
100
AcDbArc
 50
259.9999999999939
 51
170.0000000000089
  0
CIRCLE
  5
FA0
330
1F
100
AcDbEntity
  8
AM_0
100
AcDbCircle
 10
2215.967291092356
 20
1549.009891458949
 30
0.0
 40
1.621113885844339
  0
ARC
  5
FA1
330
1F
100
AcDbEntity
  8
AM_4
100
AcDbCircle
 10
2175.967291092355
 20
1567.009891458949
 30
0.0
 40
2.0
100
AcDbArc
 50
259.9999999999939
 51
170.0000000000089
  0
CIRCLE
  5
FA2
330
1F
100
AcDbEntity
  8
AM_0
100
AcDbCircle
 10
2175.967291092355
 20
1567.009891458949
 30
0.0
 40
1.621113885844339
  0
ARC
  5
FA3
330
1F
100
AcDbEntity
  8
AM_4
100
AcDbCircle
 10
2215.967291092356
 20
1567.009891458949
 30
0.0
 40
2.0
100
AcDbArc
 50
259.9999999999939
 51
170.0000000000089
  0
CIRCLE
  5
FA4
330
1F
100
AcDbEntity
  8
AM_0
100
AcDbCircle
 10
2215.967291092356
 20
1567.009891458949
 30
0.0
 40
1.621113885844339
  0
LINE
  5
FA5
330
1F
100
AcDbEntity
  8
AM_7
  6
AM_ISO08W050x2
100
AcDbLine
 10
2215.967291092356
 20
1549.009891458949
 30
0.0
 11
2218.967291092356
 21
1549.009891458949
 31
0.0
1001
GENIUS_GENOREF_13
1005
1359
  0
LINE
  5
FA6
330
1F
100
AcDbEntity
  8
AM_7
  6
AM_ISO08W050x2
100
AcDbLine
 10
2215.967291092356
 20
1549.009891458949
 30
0.0
 11
2215.967291092356
 21
1552.009891458949
 31
0.0
1001
GENIUS_GENOREF_13
1005
1359
  0
LINE
  5
FA7
330
1F
100
AcDbEntity
  8
AM_7
  6
AM_ISO08W050x2
100
AcDbLine
 10
2215.967291092356
 20
1549.009891458949
 30
0.0
 11
2212.967291092356
 21
1549.009891458949
 31
0.0
1001
GENIUS_GENOREF_13
1005
1359
  0
LINE
  5
FA8
330
1F
100
AcDbEntity
  8
AM_7
  6
AM_ISO08W050x2
100
AcDbLine
 10
2215.967291092356
 20
1549.009891458949
 30
0.0
 11
2215.967291092356
 21
1546.009891458949
 31
0.0
1001
GENIUS_GENOREF_13
1005
1359
  0
LINE
  5
FA9
330
1F
100
AcDbEntity
  8
AM_7
100
AcDbLine
 10
2216.717291092356
 20
1558.159891458949
 30
0.0
 11
2222.367291092355
 21
1558.159891458949
 31
0.0
1001
GENIUS_GENOREF_13
1005
1358
  0
LINE
  5
FAA
330
1F
100
AcDbEntity
  8
AM_7
100
AcDbLine
 10
2216.717291092356
 20
1558.159891458949
 30
0.0
 11
2216.717291092356
 21
1563.809891458949
 31
0.0
1001
GENIUS_GENOREF_13
1005
1358
  0
LINE
  5
FAB
330
1F
100
AcDbEntity
  8
AM_7
100
AcDbLine
 10
2216.717291092356
 20
1558.159891458949
 30
0.0
 11
2211.067291092355
 21
1558.159891458949
 31
0.0
1001
GENIUS_GENOREF_13
1005
1358
  0
LINE
  5
FAC
330
1F
100
AcDbEntity
  8
AM_7
100
AcDbLine
 10
2216.717291092356
 20
1558.159891458949
 30
0.0
 11
2216.717291092356
 21
1552.509891458949
 31
0.0
1001
GENIUS_GENOREF_13
1005
1358
  0
LINE
  5
FAD
330
1F
100
AcDbEntity
  8
AM_7
  6
AM_ISO08W050x2
100
AcDbLine
 10
2215.967291092356
 20
1567.009891458949
 30
0.0
 11
2218.967291092356
 21
1567.009891458949
 31
0.0
1001
GENIUS_GENOREF_13
1005
1357
  0
LINE
  5
FAE
330
1F
100
AcDbEntity
  8
AM_7
  6
AM_ISO08W050x2
100
AcDbLine
 10
2215.967291092356
 20
1567.009891458949
 30
0.0
 11
2215.967291092356
 21
1570.009891458949
 31
0.0
1001
GENIUS_GENOREF_13
1005
1357
  0
LINE
  5
FAF
330
1F
100
AcDbEntity
  8
AM_7
  6
AM_ISO08W050x2
100
AcDbLine
 10
2215.967291092356
 20
1567.009891458949
 30
0.0
 11
2212.967291092356
 21
1567.009891458949
 31
0.0
1001
GENIUS_GENOREF_13
1005
1357
  0
LINE
  5
FB0
330
1F
100
AcDbEntity
  8
AM_7
  6
AM_ISO08W050x2
100
AcDbLine
 10
2215.967291092356
 20
1567.009891458949
 30
0.0
 11
2215.967291092356
 21
1564.009891458949
 31
0.0
1001
GENIUS_GENOREF_13
1005
1357
  0
LINE
  5
FB1
330
1F
100
AcDbEntity
  8
AM_7
  6
AM_ISO08W050x2
100
AcDbLine
 10
2175.967291092355
 20
1549.009891458949
 30
0.0
 11
2178.967291092356
 21
1549.009891458949
 31
0.0
1001
GENIUS_GENOREF_13
1005
1356
  0
LINE
  5
FB2
330
1F
100
AcDbEntity
  8
AM_7
  6
AM_ISO08W050x2
100
AcDbLine
 10
2175.967291092355
 20
1549.009891458949
 30
0.0
 11
2175.967291092355
 21
1552.009891458949
 31
0.0
1001
GENIUS_GENOREF_13
1005
1356
  0
LINE
  5
FB3
330
1F
100
AcDbEntity
  8
AM_7
  6
AM_ISO08W050x2
100
AcDbLine
 10
2175.967291092355
 20
1549.009891458949
 30
0.0
 11
2172.967291092355
 21
1549.009891458949
 31
0.0
1001
GENIUS_GENOREF_13
1005
1356
  0
LINE
  5
FB4
330
1F
100
AcDbEntity
  8
AM_7
  6
AM_ISO08W050x2
100
AcDbLine
 10
2175.967291092355
 20
1549.009891458949
 30
0.0
 11
2175.967291092355
 21
1546.009891458949
 31
0.0
1001
GENIUS_GENOREF_13
1005
1356
  0
LINE
  5
FB5
330
1F
100
AcDbEntity
  8
AM_7
100
AcDbLine
 10
2175.217291092355
 20
1558.159891458949
 30
0.0
 11
2180.867291092355
 21
1558.159891458949
 31
0.0
1001
GENIUS_GENOREF_13
1005
1355
  0
LINE
  5
FB6
330
1F
100
AcDbEntity
  8
AM_7
100
AcDbLine
 10
2175.217291092355
 20
1558.159891458949
 30
0.0
 11
2175.217291092355
 21
1563.809891458949
 31
0.0
1001
GENIUS_GENOREF_13
1005
1355
  0
LINE
  5
FB7
330
1F
100
AcDbEntity
  8
AM_7
100
AcDbLine
 10
2175.217291092355
 20
1558.159891458949
 30
0.0
 11
2169.567291092355
 21
1558.159891458949
 31
0.0
1001
GENIUS_GENOREF_13
1005
1355
  0
LINE
  5
FB8
330
1F
100
AcDbEntity
  8
AM_7
100
AcDbLine
 10
2175.217291092355
 20
1558.159891458949
 30
0.0
 11
2175.217291092355
 21
1552.509891458949
 31
0.0
1001
GENIUS_GENOREF_13
1005
1355
  0
LINE
  5
FB9
330
1F
100
AcDbEntity
  8
AM_7
  6
AM_ISO08W050x2
100
AcDbLine
 10
2175.967291092355
 20
1567.009891458949
 30
0.0
 11
2178.967291092356
 21
1567.009891458949
 31
0.0
1001
GENIUS_GENOREF_13
1005
1354
  0
LINE
  5
FBA
330
1F
100
AcDbEntity
  8
AM_7
  6
AM_ISO08W050x2
100
AcDbLine
 10
2175.967291092355
 20
1567.009891458949
 30
0.0
 11
2175.967291092355
 21
1570.009891458949
 31
0.0
1001
GENIUS_GENOREF_13
1005
1354
  0
LINE
  5
FBB
330
1F
100
AcDbEntity
  8
AM_7
  6
AM_ISO08W050x2
100
AcDbLine
 10
2175.967291092355
 20
1567.009891458949
 30
0.0
 11
2172.967291092355
 21
1567.009891458949
 31
0.0
1001
GENIUS_GENOREF_13
1005
1354
  0
LINE
  5
FBC
330
1F
100
AcDbEntity
  8
AM_7
  6
AM_ISO08W050x2
100
AcDbLine
 10
2175.967291092355
 20
1567.009891458949
 30
0.0
 11
2175.967291092355
 21
1564.009891458949
 31
0.0
1001
GENIUS_GENOREF_13
1005
1354
  0
LINE
  5
FBD
330
1F
100
AcDbEntity
  8
AM_7
100
AcDbLine
 10
2195.967291092355
 20
1558.159891458949
 30
0.0
 11
2204.967291092355
 21
1558.159891458949
 31
0.0
1001
GENIUS_GENOREF_13
1005
1340
  0
LINE
  5
FBE
330
1F
100
AcDbEntity
  8
AM_7
100
AcDbLine
 10
2195.967291092355
 20
1558.159891458949
 30
0.0
 11
2195.967291092355
 21
1567.159891458949
 31
0.0
1001
GENIUS_GENOREF_13
1005
1340
  0
LINE
  5
FBF
330
1F
100
AcDbEntity
  8
AM_7
100
AcDbLine
 10
2195.967291092355
 20
1558.159891458949
 30
0.0
 11
2186.967291092356
 21
1558.159891458949
 31
0.0
1001
GENIUS_GENOREF_13
1005
1340
  0
LINE
  5
FC0
330
1F
100
AcDbEntity
  8
AM_7
100
AcDbLine
 10
2195.967291092355
 20
1558.159891458949
 30
0.0
 11
2195.967291092355
 21
1549.159891458949
 31
0.0
1001
GENIUS_GENOREF_13
1005
1340
  0
LINE
  5
FC1
330
1F
100
AcDbEntity
  8
AM_7
100
AcDbLine
 10
2184.467291092356
 20
1636.371012811811
 30
0.0
 11
2189.467291092356
 21
1636.371012811811
 31
0.0
1001
GENIUS_GENOREF_13
1005
133F
  0
LINE
  5
FC2
330
1F
100
AcDbEntity
  8
AM_7
100
AcDbLine
 10
2184.467291092356
 20
1636.371012811811
 30
0.0
 11
2184.467291092356
 21
1641.371012811811
 31
0.0
1001
GENIUS_GENOREF_13
1005
133F
  0
LINE
  5
FC3
330
1F
100
AcDbEntity
  8
AM_7
100
AcDbLine
 10
2184.467291092356
 20
1636.371012811811
 30
0.0
 11
2179.467291092356
 21
1636.371012811811
 31
0.0
1001
GENIUS_GENOREF_13
1005
133F
  0
LINE
  5
FC4
330
1F
100
AcDbEntity
  8
AM_7
100
AcDbLine
 10
2184.467291092356
 20
1636.371012811811
 30
0.0
 11
2184.467291092356
 21
1631.371012811811
 31
0.0
1001
GENIUS_GENOREF_13
1005
133F
  0
LINE
  5
FC5
330
1F
100
AcDbEntity
  8
AM_7
100
AcDbLine
 10
2184.467291092356
 20
1622.371012811811
 30
0.0
 11
2189.467291092356
 21
1622.371012811811
 31
0.0
1001
GENIUS_GENOREF_13
1005
133E
  0
LINE
  5
FC6
330
1F
100
AcDbEntity
  8
AM_7
100
AcDbLine
 10
2184.467291092356
 20
1622.371012811811
 30
0.0
 11
2184.467291092356
 21
1627.371012811811
 31
0.0
1001
GENIUS_GENOREF_13
1005
133E
  0
LINE
  5
FC7
330
1F
100
AcDbEntity
  8
AM_7
100
AcDbLine
 10
2184.467291092356
 20
1622.371012811811
 30
0.0
 11
2179.467291092356
 21
1622.371012811811
 31
0.0
1001
GENIUS_GENOREF_13
1005
133E
  0
LINE
  5
FC8
330
1F
100
AcDbEntity
  8
AM_7
100
AcDbLine
 10
2184.467291092356
 20
1622.371012811811
 30
0.0
 11
2184.467291092356
 21
1617.371012811811
 31
0.0
1001
GENIUS_GENOREF_13
1005
133E
  0
LINE
  5
FC9
330
1F
100
AcDbEntity
  8
AM_7
100
AcDbLine
 10
2207.467291092356
 20
1622.371012811811
 30
0.0
 11
2212.467291092355
 21
1622.371012811811
 31
0.0
1001
GENIUS_GENOREF_13
1005
133D
  0
LINE
  5
FCA
330
1F
100
AcDbEntity
  8
AM_7
100
AcDbLine
 10
2207.467291092356
 20
1622.371012811811
 30
0.0
 11
2207.467291092356
 21
1627.371012811811
 31
0.0
1001
GENIUS_GENOREF_13
1005
133D
  0
LINE
  5
FCB
330
1F
100
AcDbEntity
  8
AM_7
100
AcDbLine
 10
2207.467291092356
 20
1622.371012811811
 30
0.0
 11
2202.467291092355
 21
1622.371012811811
 31
0.0
1001
GENIUS_GENOREF_13
1005
133D
  0
LINE
  5
FCC
330
1F
100
AcDbEntity
  8
AM_7
100
AcDbLine
 10
2207.467291092356
 20
1622.371012811811
 30
0.0
 11
2207.467291092356
 21
1617.371012811811
 31
0.0
1001
GENIUS_GENOREF_13
1005
133D
  0
LINE
  5
FCD
330
1F
100
AcDbEntity
  8
AM_7
100
AcDbLine
 10
2207.467291092356
 20
1636.371012811811
 30
0.0
 11
2212.467291092355
 21
1636.371012811811
 31
0.0
1001
GENIUS_GENOREF_13
1005
133C
  0
LINE
  5
FCE
330
1F
100
AcDbEntity
  8
AM_7
100
AcDbLine
 10
2207.467291092356
 20
1636.371012811811
 30
0.0
 11
2207.467291092356
 21
1641.371012811811
 31
0.0
1001
GENIUS_GENOREF_13
1005
133C
  0
LINE
  5
FCF
330
1F
100
AcDbEntity
  8
AM_7
100
AcDbLine
 10
2207.467291092356
 20
1636.371012811811
 30
0.0
 11
2202.467291092355
 21
1636.371012811811
 31
0.0
1001
GENIUS_GENOREF_13
1005
133C
  0
LINE
  5
FD0
330
1F
100
AcDbEntity
  8
AM_7
100
AcDbLine
 10
2207.467291092356
 20
1636.371012811811
 30
0.0
 11
2207.467291092356
 21
1631.371012811811
 31
0.0
1001
GENIUS_GENOREF_13
1005
133C
  0
ARC
  5
FD5
330
1F
100
AcDbEntity
  8
AM_4
100
AcDbCircle
 10
2176.467291092356
 20
1617.371012811811
 30
0.0
 40
2.5
100
AcDbArc
 50
259.9999999999939
 51
170.0000000000089
  0
CIRCLE
  5
FD6
330
1F
100
AcDbEntity
  8
AM_0
100
AcDbCircle
 10
2176.467291092356
 20
1617.371012811811
 30
0.0
 40
2.066987298107819
  0
LINE
  5
FD7
330
1F
100
AcDbEntity
  8
AM_7
  6
AM_ISO08W050x2
100
AcDbLine
 10
2172.967291092355
 20
1617.371012811811
 30
0.0
 11
2179.967291092355
 21
1617.371012811811
 31
0.0
  0
LINE
  5
FD8
330
1F
100
AcDbEntity
  8
AM_7
  6
AM_ISO08W050x2
100
AcDbLine
 10
2176.467291092356
 20
1613.871012811811
 30
0.0
 11
2176.467291092356
 21
1620.871012811811
 31
0.0
  0
ARC
  5
FD9
330
1F
100
AcDbEntity
  8
AM_4
100
AcDbCircle
 10
2139.619601263067
 20
1617.371012811811
 30
0.0
 40
2.5
100
AcDbArc
 50
259.9999999999939
 51
170.0000000000089
  0
CIRCLE
  5
FDA
330
1F
100
AcDbEntity
  8
AM_0
100
AcDbCircle
 10
2139.619601263067
 20
1617.371012811811
 30
0.0
 40
2.066987298107819
  0
LINE
  5
FDB
330
1F
100
AcDbEntity
  8
AM_7
  6
AM_ISO08W050x2
100
AcDbLine
 10
2136.119601263067
 20
1617.371012811811
 30
0.0
 11
2143.119601263067
 21
1617.371012811811
 31
0.0
  0
LINE
  5
FDC
330
1F
100
AcDbEntity
  8
AM_7
  6
AM_ISO08W050x2
100
AcDbLine
 10
2139.619601263067
 20
1613.871012811811
 30
0.0
 11
2139.619601263067
 21
1620.871012811811
 31
0.0
  0
ARC
  5
FDD
330
1F
100
AcDbEntity
  8
AM_4
100
AcDbCircle
 10
2139.619601263067
 20
1630.371012811811
 30
0.0
 40
2.5
100
AcDbArc
 50
259.9999999999939
 51
170.0000000000089
  0
CIRCLE
  5
FDE
330
1F
100
AcDbEntity
  8
AM_0
100
AcDbCircle
 10
2139.619601263067
 20
1630.371012811811
 30
0.0
 40
2.066987298107819
  0
LINE
  5
FDF
330
1F
100
AcDbEntity
  8
AM_7
  6
AM_ISO08W050x2
100
AcDbLine
 10
2136.119601263067
 20
1630.371012811811
 30
0.0
 11
2143.119601263067
 21
1630.371012811811
 31
0.0
  0
LINE
  5
FE0
330
1F
100
AcDbEntity
  8
AM_7
  6
AM_ISO08W050x2
100
AcDbLine
 10
2139.619601263067
 20
1626.871012811811
 30
0.0
 11
2139.619601263067
 21
1633.871012811811
 31
0.0
  0
ARC
  5
FE1
330
1F
100
AcDbEntity
  8
AM_4
100
AcDbCircle
 10
2171.967291092355
 20
1676.424920561367
 30
0.0
 40
2.0
100
AcDbArc
 50
259.9999999999939
 51
170.0000000000089
  0
CIRCLE
  5
FE2
330
1F
100
AcDbEntity
  8
AM_0
100
AcDbCircle
 10
2171.967291092355
 20
1676.424920561367
 30
0.0
 40
1.621113885844339
  0
LINE
  5
FE3
330
1F
100
AcDbEntity
  8
AM_7
  6
AM_ISO08W050x2
100
AcDbLine
 10
2171.967291092355
 20
1676.424920561367
 30
0.0
 11
2174.967291092356
 21
1676.424920561367
 31
0.0
1001
GENIUS_GENOREF_13
1005
133B
  0
LINE
  5
FE4
330
1F
100
AcDbEntity
  8
AM_7
  6
AM_ISO08W050x2
100
AcDbLine
 10
2171.967291092355
 20
1676.424920561367
 30
0.0
 11
2171.967291092355
 21
1679.424920561367
 31
0.0
1001
GENIUS_GENOREF_13
1005
133B
  0
LINE
  5
FE5
330
1F
100
AcDbEntity
  8
AM_7
  6
AM_ISO08W050x2
100
AcDbLine
 10
2171.967291092355
 20
1676.424920561367
 30
0.0
 11
2168.967291092355
 21
1676.424920561367
 31
0.0
1001
GENIUS_GENOREF_13
1005
133B
  0
LINE
  5
FE6
330
1F
100
AcDbEntity
  8
AM_7
  6
AM_ISO08W050x2
100
AcDbLine
 10
2171.967291092355
 20
1676.424920561367
 30
0.0
 11
2171.967291092355
 21
1673.424920561367
 31
0.0
1001
GENIUS_GENOREF_13
1005
133B
  0
ARC
  5
FE7
330
1F
100
AcDbEntity
  8
AM_4
100
AcDbCircle
 10
2171.967291092355
 20
1690.424920561367
 30
0.0
 40
2.0
100
AcDbArc
 50
259.9999999999939
 51
170.0000000000089
  0
CIRCLE
  5
FE8
330
1F
100
AcDbEntity
  8
AM_0
100
AcDbCircle
 10
2171.967291092355
 20
1690.424920561367
 30
0.0
 40
1.621113885844339
  0
LINE
  5
FE9
330
1F
100
AcDbEntity
  8
AM_7
  6
AM_ISO08W050x2
100
AcDbLine
 10
2171.967291092355
 20
1690.424920561367
 30
0.0
 11
2174.967291092356
 21
1690.424920561367
 31
0.0
1001
GENIUS_GENOREF_13
1005
133A
  0
LINE
  5
FEA
330
1F
100
AcDbEntity
  8
AM_7
  6
AM_ISO08W050x2
100
AcDbLine
 10
2171.967291092355
 20
1690.424920561367
 30
0.0
 11
2171.967291092355
 21
1693.424920561367
 31
0.0
1001
GENIUS_GENOREF_13
1005
133A
  0
LINE
  5
FEB
330
1F
100
AcDbEntity
  8
AM_7
  6
AM_ISO08W050x2
100
AcDbLine
 10
2171.967291092355
 20
1690.424920561367
 30
0.0
 11
2168.967291092355
 21
1690.424920561367
 31
0.0
1001
GENIUS_GENOREF_13
1005
133A
  0
LINE
  5
FEC
330
1F
100
AcDbEntity
  8
AM_7
  6
AM_ISO08W050x2
100
AcDbLine
 10
2171.967291092355
 20
1690.424920561367
 30
0.0
 11
2171.967291092355
 21
1687.424920561367
 31
0.0
1001
GENIUS_GENOREF_13
1005
133A
  0
ARC
  5
FED
330
1F
100
AcDbEntity
  8
AM_4
100
AcDbCircle
 10
2219.967291092356
 20
1690.424920561367
 30
0.0
 40
2.0
100
AcDbArc
 50
259.9999999999939
 51
170.0000000000089
  0
CIRCLE
  5
FEE
330
1F
100
AcDbEntity
  8
AM_0
100
AcDbCircle
 10
2219.967291092356
 20
1690.424920561367
 30
0.0
 40
1.621113885844339
  0
LINE
  5
FEF
330
1F
100
AcDbEntity
  8
AM_7
  6
AM_ISO08W050x2
100
AcDbLine
 10
2219.967291092356
 20
1690.424920561367
 30
0.0
 11
2222.967291092356
 21
1690.424920561367
 31
0.0
1001
GENIUS_GENOREF_13
1005
1339
  0
LINE
  5
FF0
330
1F
100
AcDbEntity
  8
AM_7
  6
AM_ISO08W050x2
100
AcDbLine
 10
2219.967291092356
 20
1690.424920561367
 30
0.0
 11
2219.967291092356
 21
1693.424920561367
 31
0.0
1001
GENIUS_GENOREF_13
1005
1339
  0
LINE
  5
FF1
330
1F
100
AcDbEntity
  8
AM_7
  6
AM_ISO08W050x2
100
AcDbLine
 10
2219.967291092356
 20
1690.424920561367
 30
0.0
 11
2216.967291092355
 21
1690.424920561367
 31
0.0
1001
GENIUS_GENOREF_13
1005
1339
  0
LINE
  5
FF2
330
1F
100
AcDbEntity
  8
AM_7
  6
AM_ISO08W050x2
100
AcDbLine
 10
2219.967291092356
 20
1690.424920561367
 30
0.0
 11
2219.967291092356
 21
1687.424920561367
 31
0.0
1001
GENIUS_GENOREF_13
1005
1339
  0
ARC
  5
FF3
330
1F
100
AcDbEntity
  8
AM_4
100
AcDbCircle
 10
2219.967291092356
 20
1676.424920561367
 30
0.0
 40
2.0
100
AcDbArc
 50
259.9999999999939
 51
170.0000000000089
  0
CIRCLE
  5
FF4
330
1F
100
AcDbEntity
  8
AM_0
100
AcDbCircle
 10
2219.967291092356
 20
1676.424920561367
 30
0.0
 40
1.621113885844339
  0
LINE
  5
FF5
330
1F
100
AcDbEntity
  8
AM_7
  6
AM_ISO08W050x2
100
AcDbLine
 10
2219.967291092356
 20
1676.424920561367
 30
0.0
 11
2222.967291092356
 21
1676.424920561367
 31
0.0
1001
GENIUS_GENOREF_13
1005
1338
  0
LINE
  5
FF6
330
1F
100
AcDbEntity
  8
AM_7
  6
AM_ISO08W050x2
100
AcDbLine
 10
2219.967291092356
 20
1676.424920561367
 30
0.0
 11
2219.967291092356
 21
1679.424920561367
 31
0.0
1001
GENIUS_GENOREF_13
1005
1338
  0
LINE
  5
FF7
330
1F
100
AcDbEntity
  8
AM_7
  6
AM_ISO08W050x2
100
AcDbLine
 10
2219.967291092356
 20
1676.424920561367
 30
0.0
 11
2216.967291092355
 21
1676.424920561367
 31
0.0
1001
GENIUS_GENOREF_13
1005
1338
  0
LINE
  5
FF8
330
1F
100
AcDbEntity
  8
AM_7
  6
AM_ISO08W050x2
100
AcDbLine
 10
2219.967291092356
 20
1676.424920561367
 30
0.0
 11
2219.967291092356
 21
1673.424920561367
 31
0.0
1001
GENIUS_GENOREF_13
1005
1338
  0
LINE
  5
FF9
330
1F
100
AcDbEntity
  8
AM_7
100
AcDbLine
 10
2170.417291092356
 20
1683.424920561368
 30
0.0
 11
2180.017291092355
 21
1683.424920561368
 31
0.0
  0
CIRCLE
  5
FFA
330
1F
100
AcDbEntity
  8
AM_0N
100
AcDbCircle
 10
2175.217291092355
 20
1683.424920561368
 30
0.0
 40
3.799999999999999
  0
CIRCLE
  5
FFB
330
1F
100
AcDbEntity
  8
AM_0N
100
AcDbCircle
 10
2175.217291092355
 20
1683.424920561368
 30
0.0
 40
1.443375672974059
  0
LINE
  5
FFC
330
1F
100
AcDbEntity
  8
AM_0N
100
AcDbLine
 10
2176.66066676533
 20
1683.424920561368
 30
0.0
 11
2175.938978928843
 21
1684.674920561367
 31
0.0
  0
LINE
  5
FFD
330
1F
100
AcDbEntity
  8
AM_0N
100
AcDbLine
 10
2174.495603255869
 20
1684.674920561367
 30
0.0
 11
2173.773915419381
 21
1683.424920561368
 31
0.0
  0
LINE
  5
FFE
330
1F
100
AcDbEntity
  8
AM_7
100
AcDbLine
 10
2175.217291092355
 20
1688.224920561367
 30
0.0
 11
2175.217291092355
 21
1678.624920561367
 31
0.0
  0
LINE
  5
FFF
330
1F
100
AcDbEntity
  8
AM_0N
100
AcDbLine
 10
2174.495603255868
 20
1682.174920561368
 30
0.0
 11
2175.938978928843
 21
1682.174920561368
 31
0.0
  0
LINE
  5
1000
330
1F
100
AcDbEntity
  8
AM_0N
100
AcDbLine
 10
2173.773915419381
 20
1683.424920561368
 30
0.0
 11
2174.495603255868
 21
1682.174920561368
 31
0.0
  0
LINE
  5
1001
330
1F
100
AcDbEntity
  8
AM_0N
100
AcDbLine
 10
2175.938978928843
 20
1682.174920561368
 30
0.0
 11
2176.66066676533
 21
1683.424920561368
 31
0.0
  0
LINE
  5
1002
330
1F
100
AcDbEntity
  8
AM_0N
100
AcDbLine
 10
2175.938978928843
 20
1684.674920561367
 30
0.0
 11
2174.495603255869
 21
1684.674920561367
 31
0.0
  0
LINE
  5
1003
330
1F
100
AcDbEntity
  8
AM_7
100
AcDbLine
 10
2211.917291092355
 20
1683.424920561368
 30
0.0
 11
2221.517291092355
 21
1683.424920561368
 31
0.0
  0
CIRCLE
  5
1004
330
1F
100
AcDbEntity
  8
AM_0N
100
AcDbCircle
 10
2216.717291092356
 20
1683.424920561368
 30
0.0
 40
3.799999999999999
  0
CIRCLE
  5
1005
330
1F
100
AcDbEntity
  8
AM_0N
100
AcDbCircle
 10
2216.717291092356
 20
1683.424920561368
 30
0.0
 40
1.443375672974059
  0
LINE
  5
1006
330
1F
100
AcDbEntity
  8
AM_0N
100
AcDbLine
 10
2218.16066676533
 20
1683.424920561368
 30
0.0
 11
2217.438978928843
 21
1684.674920561367
 31
0.0
  0
LINE
  5
1007
330
1F
100
AcDbEntity
  8
AM_0N
100
AcDbLine
 10
2215.995603255869
 20
1684.674920561367
 30
0.0
 11
2215.273915419381
 21
1683.424920561368
 31
0.0
  0
LINE
  5
1008
330
1F
100
AcDbEntity
  8
AM_7
100
AcDbLine
 10
2216.717291092356
 20
1688.224920561367
 30
0.0
 11
2216.717291092356
 21
1678.624920561367
 31
0.0
  0
LINE
  5
1009
330
1F
100
AcDbEntity
  8
AM_0N
100
AcDbLine
 10
2215.995603255867
 20
1682.174920561368
 30
0.0
 11
2217.438978928843
 21
1682.174920561368
 31
0.0
  0
LINE
  5
100A
330
1F
100
AcDbEntity
  8
AM_0N
100
AcDbLine
 10
2215.273915419381
 20
1683.424920561368
 30
0.0
 11
2215.995603255867
 21
1682.174920561368
 31
0.0
  0
LINE
  5
100B
330
1F
100
AcDbEntity
  8
AM_0N
100
AcDbLine
 10
2217.438978928843
 20
1682.174920561368
 30
0.0
 11
2218.16066676533
 21
1683.424920561368
 31
0.0
  0
LINE
  5
100C
330
1F
100
AcDbEntity
  8
AM_0N
100
AcDbLine
 10
2217.438978928843
 20
1684.674920561367
 30
0.0
 11
2215.995603255869
 21
1684.674920561367
 31
0.0
  0
LINE
  5
100D
330
1F
100
AcDbEntity
  8
AM_7
100
AcDbLine
 10
2192.217291092356
 20
1683.424920561368
 30
0.0
 11
2199.717291092356
 21
1683.424920561368
 31
0.0
  0
CIRCLE
  5
100E
330
1F
100
AcDbEntity
  8
AM_0N
100
AcDbCircle
 10
2195.967291092355
 20
1683.424920561368
 30
0.0
 40
1.443375672974059
  0
LINE
  5
100F
330
1F
100
AcDbEntity
  8
AM_0N
100
AcDbLine
 10
2197.41066676533
 20
1683.424920561368
 30
0.0
 11
2196.688978928843
 21
1684.674920561367
 31
0.0
  0
LINE
  5
1010
330
1F
100
AcDbEntity
  8
AM_0N
100
AcDbLine
 10
2195.245603255869
 20
1684.674920561367
 30
0.0
 11
2194.523915419381
 21
1683.424920561368
 31
0.0
  0
LINE
  5
1011
330
1F
100
AcDbEntity
  8
AM_7
100
AcDbLine
 10
2195.967291092355
 20
1687.174920561367
 30
0.0
 11
2195.967291092355
 21
1679.674920561367
 31
0.0
  0
LINE
  5
1012
330
1F
100
AcDbEntity
  8
AM_0N
100
AcDbLine
 10
2195.245603255868
 20
1682.174920561368
 30
0.0
 11
2196.688978928843
 21
1682.174920561368
 31
0.0
  0
LINE
  5
1013
330
1F
100
AcDbEntity
  8
AM_0N
100
AcDbLine
 10
2194.523915419381
 20
1683.424920561368
 30
0.0
 11
2195.245603255868
 21
1682.174920561368
 31
0.0
  0
LINE
  5
1014
330
1F
100
AcDbEntity
  8
AM_0N
100
AcDbLine
 10
2196.688978928843
 20
1682.174920561368
 30
0.0
 11
2197.41066676533
 21
1683.424920561368
 31
0.0
  0
LINE
  5
1015
330
1F
100
AcDbEntity
  8
AM_0N
100
AcDbLine
 10
2196.688978928843
 20
1684.674920561367
 30
0.0
 11
2195.245603255869
 21
1684.674920561367
 31
0.0
  0
ARC
  5
1016
330
1F
100
AcDbEntity
  8
AM_4
100
AcDbCircle
 10
2325.35674886636
 20
1636.371012811811
 30
0.0
 40
2.5
100
AcDbArc
 50
259.9999999999939
 51
170.0000000000089
  0
CIRCLE
  5
1017
330
1F
100
AcDbEntity
  8
AM_0
100
AcDbCircle
 10
2325.35674886636
 20
1636.371012811811
 30
0.0
 40
2.066987298107819
  0
LINE
  5
1018
330
1F
100
AcDbEntity
  8
AM_7
  6
AM_ISO08W050x2
100
AcDbLine
 10
2321.85674886636
 20
1636.371012811811
 30
0.0
 11
2328.85674886636
 21
1636.371012811811
 31
0.0
  0
LINE
  5
1019
330
1F
100
AcDbEntity
  8
AM_7
  6
AM_ISO08W050x2
100
AcDbLine
 10
2325.35674886636
 20
1632.871012811811
 30
0.0
 11
2325.35674886636
 21
1639.871012811811
 31
0.0
  0
ARC
  5
101A
330
1F
100
AcDbEntity
  8
AM_4
100
AcDbCircle
 10
2325.35674886636
 20
1622.371012811811
 30
0.0
 40
2.5
100
AcDbArc
 50
259.9999999999939
 51
170.0000000000089
  0
CIRCLE
  5
101B
330
1F
100
AcDbEntity
  8
AM_0
100
AcDbCircle
 10
2325.35674886636
 20
1622.371012811811
 30
0.0
 40
2.066987298107819
  0
LINE
  5
101C
330
1F
100
AcDbEntity
  8
AM_7
  6
AM_ISO08W050x2
100
AcDbLine
 10
2321.85674886636
 20
1622.371012811811
 30
0.0
 11
2328.85674886636
 21
1622.371012811811
 31
0.0
  0
LINE
  5
101D
330
1F
100
AcDbEntity
  8
AM_7
  6
AM_ISO08W050x2
100
AcDbLine
 10
2325.35674886636
 20
1618.871012811811
 30
0.0
 11
2325.35674886636
 21
1625.871012811811
 31
0.0
  0
ARC
  5
101E
330
1F
100
AcDbEntity
  8
AM_4
100
AcDbCircle
 10
2348.35674886636
 20
1622.371012811811
 30
0.0
 40
2.5
100
AcDbArc
 50
259.9999999999939
 51
170.0000000000089
  0
CIRCLE
  5
101F
330
1F
100
AcDbEntity
  8
AM_0
100
AcDbCircle
 10
2348.35674886636
 20
1622.371012811811
 30
0.0
 40
2.066987298107819
  0
LINE
  5
1020
330
1F
100
AcDbEntity
  8
AM_7
  6
AM_ISO08W050x2
100
AcDbLine
 10
2344.85674886636
 20
1622.371012811811
 30
0.0
 11
2351.85674886636
 21
1622.371012811811
 31
0.0
  0
LINE
  5
1021
330
1F
100
AcDbEntity
  8
AM_7
  6
AM_ISO08W050x2
100
AcDbLine
 10
2348.35674886636
 20
1618.871012811811
 30
0.0
 11
2348.35674886636
 21
1625.871012811811
 31
0.0
  0
ARC
  5
1022
330
1F
100
AcDbEntity
  8
AM_4
100
AcDbCircle
 10
2348.35674886636
 20
1636.371012811811
 30
0.0
 40
2.5
100
AcDbArc
 50
259.9999999999939
 51
170.0000000000089
  0
CIRCLE
  5
1023
330
1F
100
AcDbEntity
  8
AM_0
100
AcDbCircle
 10
2348.35674886636
 20
1636.371012811811
 30
0.0
 40
2.066987298107819
  0
LINE
  5
1024
330
1F
100
AcDbEntity
  8
AM_7
  6
AM_ISO08W050x2
100
AcDbLine
 10
2344.85674886636
 20
1636.371012811811
 30
0.0
 11
2351.85674886636
 21
1636.371012811811
 31
0.0
  0
LINE
  5
1025
330
1F
100
AcDbEntity
  8
AM_7
  6
AM_ISO08W050x2
100
AcDbLine
 10
2348.35674886636
 20
1632.871012811811
 30
0.0
 11
2348.35674886636
 21
1639.871012811811
 31
0.0
  0
ARC
  5
1026
330
1F
100
AcDbEntity
  8
AM_4
100
AcDbCircle
 10
2311.85674886636
 20
1614.371012811811
 30
0.0
 40
2.0
100
AcDbArc
 50
259.9999999999939
 51
170.0000000000089
  0
CIRCLE
  5
1027
330
1F
100
AcDbEntity
  8
AM_0
100
AcDbCircle
 10
2311.85674886636
 20
1614.371012811811
 30
0.0
 40
1.621113885844339
  0
LINE
  5
1028
330
1F
100
AcDbEntity
  8
AM_7
  6
AM_ISO08W050x2
100
AcDbLine
 10
2311.85674886636
 20
1614.371012811811
 30
0.0
 11
2314.85674886636
 21
1614.371012811811
 31
0.0
1001
GENIUS_GENOREF_13
1005
135D
  0
LINE
  5
1029
330
1F
100
AcDbEntity
  8
AM_7
  6
AM_ISO08W050x2
100
AcDbLine
 10
2311.85674886636
 20
1614.371012811811
 30
0.0
 11
2311.85674886636
 21
1617.371012811811
 31
0.0
1001
GENIUS_GENOREF_13
1005
135D
  0
LINE
  5
102A
330
1F
100
AcDbEntity
  8
AM_7
  6
AM_ISO08W050x2
100
AcDbLine
 10
2311.85674886636
 20
1614.371012811811
 30
0.0
 11
2308.85674886636
 21
1614.371012811811
 31
0.0
1001
GENIUS_GENOREF_13
1005
135D
  0
LINE
  5
102B
330
1F
100
AcDbEntity
  8
AM_7
  6
AM_ISO08W050x2
100
AcDbLine
 10
2311.85674886636
 20
1614.371012811811
 30
0.0
 11
2311.85674886636
 21
1611.371012811811
 31
0.0
1001
GENIUS_GENOREF_13
1005
135D
  0
ARC
  5
102C
330
1F
100
AcDbEntity
  8
AM_4
100
AcDbCircle
 10
2311.85674886636
 20
1629.371012811811
 30
0.0
 40
2.0
100
AcDbArc
 50
259.9999999999939
 51
170.0000000000089
  0
CIRCLE
  5
102D
330
1F
100
AcDbEntity
  8
AM_0
100
AcDbCircle
 10
2311.85674886636
 20
1629.371012811811
 30
0.0
 40
1.621113885844339
  0
LINE
  5
102E
330
1F
100
AcDbEntity
  8
AM_7
  6
AM_ISO08W050x2
100
AcDbLine
 10
2311.85674886636
 20
1629.371012811811
 30
0.0
 11
2314.85674886636
 21
1629.371012811811
 31
0.0
1001
GENIUS_GENOREF_13
1005
135C
  0
LINE
  5
102F
330
1F
100
AcDbEntity
  8
AM_7
  6
AM_ISO08W050x2
100
AcDbLine
 10
2311.85674886636
 20
1629.371012811811
 30
0.0
 11
2311.85674886636
 21
1632.371012811811
 31
0.0
1001
GENIUS_GENOREF_13
1005
135C
  0
LINE
  5
1030
330
1F
100
AcDbEntity
  8
AM_7
  6
AM_ISO08W050x2
100
AcDbLine
 10
2311.85674886636
 20
1629.371012811811
 30
0.0
 11
2308.85674886636
 21
1629.371012811811
 31
0.0
1001
GENIUS_GENOREF_13
1005
135C
  0
LINE
  5
1031
330
1F
100
AcDbEntity
  8
AM_7
  6
AM_ISO08W050x2
100
AcDbLine
 10
2311.85674886636
 20
1629.371012811811
 30
0.0
 11
2311.85674886636
 21
1626.371012811811
 31
0.0
1001
GENIUS_GENOREF_13
1005
135C
  0
ARC
  5
1032
330
1F
100
AcDbEntity
  8
AM_4
100
AcDbCircle
 10
2361.85674886636
 20
1629.371012811811
 30
0.0
 40
2.0
100
AcDbArc
 50
259.9999999999939
 51
170.0000000000089
  0
CIRCLE
  5
1033
330
1F
100
AcDbEntity
  8
AM_0
100
AcDbCircle
 10
2361.85674886636
 20
1629.371012811811
 30
0.0
 40
1.621113885844339
  0
LINE
  5
1034
330
1F
100
AcDbEntity
  8
AM_7
  6
AM_ISO08W050x2
100
AcDbLine
 10
2361.85674886636
 20
1629.371012811811
 30
0.0
 11
2364.85674886636
 21
1629.371012811811
 31
0.0
1001
GENIUS_GENOREF_13
1005
135B
  0
LINE
  5
1035
330
1F
100
AcDbEntity
  8
AM_7
  6
AM_ISO08W050x2
100
AcDbLine
 10
2361.85674886636
 20
1629.371012811811
 30
0.0
 11
2361.85674886636
 21
1632.371012811811
 31
0.0
1001
GENIUS_GENOREF_13
1005
135B
  0
LINE
  5
1036
330
1F
100
AcDbEntity
  8
AM_7
  6
AM_ISO08W050x2
100
AcDbLine
 10
2361.85674886636
 20
1629.371012811811
 30
0.0
 11
2358.85674886636
 21
1629.371012811811
 31
0.0
1001
GENIUS_GENOREF_13
1005
135B
  0
LINE
  5
1037
330
1F
100
AcDbEntity
  8
AM_7
  6
AM_ISO08W050x2
100
AcDbLine
 10
2361.85674886636
 20
1629.371012811811
 30
0.0
 11
2361.85674886636
 21
1626.371012811811
 31
0.0
1001
GENIUS_GENOREF_13
1005
135B
  0
ARC
  5
1038
330
1F
100
AcDbEntity
  8
AM_4
100
AcDbCircle
 10
2361.85674886636
 20
1614.371012811811
 30
0.0
 40
2.0
100
AcDbArc
 50
259.9999999999939
 51
170.0000000000089
  0
CIRCLE
  5
1039
330
1F
100
AcDbEntity
  8
AM_0
100
AcDbCircle
 10
2361.85674886636
 20
1614.371012811811
 30
0.0
 40
1.621113885844339
  0
LINE
  5
103A
330
1F
100
AcDbEntity
  8
AM_7
  6
AM_ISO08W050x2
100
AcDbLine
 10
2361.85674886636
 20
1614.371012811811
 30
0.0
 11
2364.85674886636
 21
1614.371012811811
 31
0.0
1001
GENIUS_GENOREF_13
1005
135A
  0
LINE
  5
103B
330
1F
100
AcDbEntity
  8
AM_7
  6
AM_ISO08W050x2
100
AcDbLine
 10
2361.85674886636
 20
1614.371012811811
 30
0.0
 11
2361.85674886636
 21
1617.371012811811
 31
0.0
1001
GENIUS_GENOREF_13
1005
135A
  0
LINE
  5
103C
330
1F
100
AcDbEntity
  8
AM_7
  6
AM_ISO08W050x2
100
AcDbLine
 10
2361.85674886636
 20
1614.371012811811
 30
0.0
 11
2358.85674886636
 21
1614.371012811811
 31
0.0
1001
GENIUS_GENOREF_13
1005
135A
  0
LINE
  5
103D
330
1F
100
AcDbEntity
  8
AM_7
  6
AM_ISO08W050x2
100
AcDbLine
 10
2361.85674886636
 20
1614.371012811811
 30
0.0
 11
2361.85674886636
 21
1611.371012811811
 31
0.0
1001
GENIUS_GENOREF_13
1005
135A
  0
LINE
  5
103E
330
1F
100
AcDbEntity
  8
AM_7
  6
AM_ISO08W050x2
100
AcDbLine
 10
2131.119601263067
 20
1644.371012811811
 30
0.0
 11
2131.119601263067
 21
1640.371012811811
 31
0.0
1001
GENIUS_GENODEF_13
1002
{
1000
HIER
1070
     0
1002
}
1002
{
1000
MANEDIT
1070
     0
1002
}
1002
{
1000
NOSEL
1070
     0
1002
}
1002
{
1000
BEHIND
1070
     0
1002
}
1002
{
1000
OTHER
1070
     0
1002
}
1002
{
1000
REACTOR
1002
}
1001
GENIUS_GENOBJ-N-CEN_13
1002
{
1000
OWNER
1000
GEN
1002
}
1001
GENIUS_GENCEN_19
1002
{
1040
1.0
1002
}
  0
LINE
  5
103F
330
1F
100
AcDbEntity
  8
AM_7
  6
AM_ISO08W050x2
100
AcDbLine
 10
2195.967291092355
 20
1644.371012811811
 30
0.0
 11
2195.967291092355
 21
1640.371012811811
 31
0.0
1001
GENIUS_GENODEF_13
1002
{
1000
HIER
1070
     0
1002
}
1002
{
1000
MANEDIT
1070
     0
1002
}
1002
{
1000
NOSEL
1070
     0
1002
}
1002
{
1000
BEHIND
1070
     0
1002
}
1002
{
1000
OTHER
1070
     0
1002
}
1002
{
1000
REACTOR
1002
}
1001
GENIUS_GENOBJ-N-CEN_13
1002
{
1000
OWNER
1000
GEN
1002
}
1001
GENIUS_GENCEN_19
1002
{
1040
1.0
1002
}
  0
LINE
  5
1040
330
1F
100
AcDbEntity
  8
0
100
AcDbLine
 10
2220.717291092356
 20
1643.371012811811
 30
0.0
 11
2220.717291092356
 21
1641.371012811811
 31
0.0
  0
LINE
  5
1041
330
1F
100
AcDbEntity
  8
0
100
AcDbLine
 10
2212.717291092356
 20
1643.371012811811
 30
0.0
 11
2212.717291092356
 21
1641.371012811811
 31
0.0
  0
LINE
  5
1042
330
1F
100
AcDbEntity
  8
AM_7
  6
AM_ISO08W050x2
100
AcDbLine
 10
2216.717291092356
 20
1644.371012811811
 30
0.0
 11
2216.717291092356
 21
1640.371012811811
 31
0.0
1001
GENIUS_GENODEF_13
1002
{
1000
HIER
1070
     0
1002
}
1002
{
1000
MANEDIT
1070
     0
1002
}
1002
{
1000
NOSEL
1070
     0
1002
}
1002
{
1000
BEHIND
1070
     0
1002
}
1002
{
1000
OTHER
1070
     0
1002
}
1002
{
1000
REACTOR
1002
}
1001
GENIUS_GENOBJ-N-CEN_13
1002
{
1000
OWNER
1000
GEN
1002
}
1001
GENIUS_GENCEN_19
1002
{
1040
1.0
1002
}
  0
LINE
  5
1043
330
1F
100
AcDbEntity
  8
0
100
AcDbLine
 10
2198.967291092356
 20
1643.371012811811
 30
0.0
 11
2198.967291092356
 21
1641.371012811811
 31
0.0
  0
LINE
  5
1044
330
1F
100
AcDbEntity
  8
0
100
AcDbLine
 10
2192.967291092355
 20
1643.371012811811
 30
0.0
 11
2192.967291092355
 21
1641.371012811811
 31
0.0
  0
LINE
  5
1045
330
1F
100
AcDbEntity
  8
AM_7
  6
AM_ISO08W050x2
100
AcDbLine
 10
2175.217291092355
 20
1644.371012811811
 30
0.0
 11
2175.217291092355
 21
1640.371012811811
 31
0.0
1001
GENIUS_GENODEF_13
1002
{
1000
HIER
1070
     0
1002
}
1002
{
1000
MANEDIT
1070
     0
1002
}
1002
{
1000
NOSEL
1070
     0
1002
}
1002
{
1000
BEHIND
1070
     0
1002
}
1002
{
1000
OTHER
1070
     0
1002
}
1002
{
1000
REACTOR
1002
}
1001
GENIUS_GENOBJ-N-CEN_13
1002
{
1000
OWNER
1000
GEN
1002
}
1001
GENIUS_GENCEN_19
1002
{
1040
1.0
1002
}
  0
LINE
  5
1046
330
1F
100
AcDbEntity
  8
AM_7
  6
AM_ISO08W050x2
100
AcDbLine
 10
2264.97163054705
 20
1644.371012811811
 30
0.0
 11
2264.97163054705
 21
1640.371012811811
 31
0.0
1001
GENIUS_GENODEF_13
1002
{
1000
HIER
1070
     0
1002
}
1002
{
1000
MANEDIT
1070
     0
1002
}
1002
{
1000
NOSEL
1070
     0
1002
}
1002
{
1000
BEHIND
1070
     0
1002
}
1002
{
1000
OTHER
1070
     0
1002
}
1002
{
1000
REACTOR
1002
}
1001
GENIUS_GENOBJ-N-CEN_13
1002
{
1000
OWNER
1000
GEN
1002
}
1001
GENIUS_GENCEN_19
1002
{
1040
1.0
1002
}
  0
LINE
  5
1047
330
1F
100
AcDbEntity
  8
0
100
AcDbLine
 10
2135.119601263067
 20
1643.371012811811
 30
0.0
 11
2135.119601263067
 21
1641.371012811811
 31
0.0
  0
LINE
  5
1048
330
1F
100
AcDbEntity
  8
0
100
AcDbLine
 10
2127.119601263067
 20
1643.371012811811
 30
0.0
 11
2127.119601263067
 21
1641.371012811811
 31
0.0
  0
LINE
  5
1049
330
1F
100
AcDbEntity
  8
AM_7
  6
AM_ISO08W050x2
100
AcDbLine
 10
2131.119601263067
 20
1644.371012811811
 30
0.0
 11
2131.119601263067
 21
1640.371012811811
 31
0.0
1001
GENIUS_GENODEF_13
1002
{
1000
HIER
1070
     0
1002
}
1002
{
1000
MANEDIT
1070
     0
1002
}
1002
{
1000
NOSEL
1070
     0
1002
}
1002
{
1000
BEHIND
1070
     0
1002
}
1002
{
1000
OTHER
1070
     0
1002
}
1002
{
1000
REACTOR
1002
}
1001
GENIUS_GENOBJ-N-CEN_13
1002
{
1000
OWNER
1000
GEN
1002
}
1001
GENIUS_GENCEN_19
1002
{
1040
1.0
1002
}
  0
LINE
  5
104A
330
1F
100
AcDbEntity
  8
0
100
AcDbLine
 10
2179.217291092355
 20
1643.371012811811
 30
0.0
 11
2179.217291092355
 21
1641.371012811811
 31
0.0
  0
LINE
  5
104B
330
1F
100
AcDbEntity
  8
0
100
AcDbLine
 10
2171.217291092355
 20
1643.371012811811
 30
0.0
 11
2171.217291092355
 21
1641.371012811811
 31
0.0
  0
LINE
  5
104C
330
1F
100
AcDbEntity
  8
0
100
AcDbLine
 10
2268.97163054705
 20
1643.371012811811
 30
0.0
 11
2268.97163054705
 21
1641.371012811811
 31
0.0
  0
LINE
  5
104D
330
1F
100
AcDbEntity
  8
0
100
AcDbLine
 10
2260.97163054705
 20
1643.371012811811
 30
0.0
 11
2260.97163054705
 21
1641.371012811811
 31
0.0
  0
LINE
  5
104E
330
1F
100
AcDbEntity
  8
AM_7
  6
AM_ISO08W050x2
100
AcDbLine
 10
2336.85674886636
 20
1644.371012811811
 30
0.0
 11
2336.85674886636
 21
1640.371012811811
 31
0.0
1001
GENIUS_GENODEF_13
1002
{
1000
HIER
1070
     0
1002
}
1002
{
1000
MANEDIT
1070
     0
1002
}
1002
{
1000
NOSEL
1070
     0
1002
}
1002
{
1000
BEHIND
1070
     0
1002
}
1002
{
1000
OTHER
1070
     0
1002
}
1002
{
1000
REACTOR
1002
}
1001
GENIUS_GENOBJ-N-CEN_13
1002
{
1000
OWNER
1000
GEN
1002
}
1001
GENIUS_GENCEN_19
1002
{
1040
1.0
1002
}
  0
LINE
  5
104F
330
1F
100
AcDbEntity
  8
0
100
AcDbLine
 10
2361.60674886636
 20
1643.371012811811
 30
0.0
 11
2361.60674886636
 21
1641.371012811811
 31
0.0
  0
LINE
  5
1050
330
1F
100
AcDbEntity
  8
0
100
AcDbLine
 10
2353.60674886636
 20
1643.371012811811
 30
0.0
 11
2353.60674886636
 21
1641.371012811811
 31
0.0
  0
LINE
  5
1051
330
1F
100
AcDbEntity
  8
AM_7
  6
AM_ISO08W050x2
100
AcDbLine
 10
2357.60674886636
 20
1644.371012811811
 30
0.0
 11
2357.60674886636
 21
1640.371012811811
 31
0.0
1001
GENIUS_GENODEF_13
1002
{
1000
HIER
1070
     0
1002
}
1002
{
1000
MANEDIT
1070
     0
1002
}
1002
{
1000
NOSEL
1070
     0
1002
}
1002
{
1000
BEHIND
1070
     0
1002
}
1002
{
1000
OTHER
1070
     0
1002
}
1002
{
1000
REACTOR
1002
}
1001
GENIUS_GENOBJ-N-CEN_13
1002
{
1000
OWNER
1000
GEN
1002
}
1001
GENIUS_GENCEN_19
1002
{
1040
1.0
1002
}
  0
LINE
  5
1052
330
1F
100
AcDbEntity
  8
0
100
AcDbLine
 10
2339.85674886636
 20
1643.371012811811
 30
0.0
 11
2339.85674886636
 21
1641.371012811811
 31
0.0
  0
LINE
  5
1053
330
1F
100
AcDbEntity
  8
0
100
AcDbLine
 10
2333.85674886636
 20
1643.371012811811
 30
0.0
 11
2333.85674886636
 21
1641.371012811811
 31
0.0
  0
LINE
  5
1054
330
1F
100
AcDbEntity
  8
AM_7
  6
AM_ISO08W050x2
100
AcDbLine
 10
2316.10674886636
 20
1644.371012811811
 30
0.0
 11
2316.10674886636
 21
1640.371012811811
 31
0.0
1001
GENIUS_GENODEF_13
1002
{
1000
HIER
1070
     0
1002
}
1002
{
1000
MANEDIT
1070
     0
1002
}
1002
{
1000
NOSEL
1070
     0
1002
}
1002
{
1000
BEHIND
1070
     0
1002
}
1002
{
1000
OTHER
1070
     0
1002
}
1002
{
1000
REACTOR
1002
}
1001
GENIUS_GENOBJ-N-CEN_13
1002
{
1000
OWNER
1000
GEN
1002
}
1001
GENIUS_GENCEN_19
1002
{
1040
1.0
1002
}
  0
LINE
  5
1055
330
1F
100
AcDbEntity
  8
0
100
AcDbLine
 10
2320.10674886636
 20
1643.371012811811
 30
0.0
 11
2320.10674886636
 21
1641.371012811811
 31
0.0
  0
LINE
  5
1056
330
1F
100
AcDbEntity
  8
0
100
AcDbLine
 10
2312.10674886636
 20
1643.371012811811
 30
0.0
 11
2312.10674886636
 21
1641.371012811811
 31
0.0
  0
LINE
  5
1057
330
1F
100
AcDbEntity
  8
0
 62
     2
100
AcDbLine
 10
2220.717291092356
 20
1602.371012811811
 30
0.0
 11
2220.717291092356
 21
1584.371012811811
 31
0.0
  0
LINE
  5
1058
330
1F
100
AcDbEntity
  8
0
 62
     2
100
AcDbLine
 10
2212.717291092356
 20
1602.371012811811
 30
0.0
 11
2212.717291092356
 21
1584.371012811811
 31
0.0
  0
LINE
  5
1059
330
1F
100
AcDbEntity
  8
AM_7
  6
AM_ISO08W050x2
100
AcDbLine
 10
2216.717291092356
 20
1603.371012811811
 30
0.0
 11
2216.717291092356
 21
1583.371012811811
 31
0.0
1001
GENIUS_GENODEF_13
1002
{
1000
HIER
1070
     0
1002
}
1002
{
1000
MANEDIT
1070
     0
1002
}
1002
{
1000
NOSEL
1070
     0
1002
}
1002
{
1000
BEHIND
1070
     0
1002
}
1002
{
1000
OTHER
1070
     0
1002
}
1002
{
1000
REACTOR
1002
}
1001
GENIUS_GENOBJ-N-CEN_13
1002
{
1000
OWNER
1000
GEN
1002
}
1001
GENIUS_GENCEN_19
1002
{
1040
1.0
1002
}
  0
LINE
  5
105A
330
1F
100
AcDbEntity
  8
0
 62
     2
100
AcDbLine
 10
2179.217291092355
 20
1602.371012811811
 30
0.0
 11
2179.217291092355
 21
1584.371012811811
 31
0.0
  0
LINE
  5
105B
330
1F
100
AcDbEntity
  8
0
 62
     2
100
AcDbLine
 10
2171.217291092355
 20
1602.371012811811
 30
0.0
 11
2171.217291092355
 21
1584.371012811811
 31
0.0
  0
LINE
  5
105C
330
1F
100
AcDbEntity
  8
AM_7
  6
AM_ISO08W050x2
100
AcDbLine
 10
2175.217291092355
 20
1603.371012811811
 30
0.0
 11
2175.217291092355
 21
1583.371012811811
 31
0.0
1001
GENIUS_GENODEF_13
1002
{
1000
HIER
1070
     0
1002
}
1002
{
1000
MANEDIT
1070
     0
1002
}
1002
{
1000
NOSEL
1070
     0
1002
}
1002
{
1000
BEHIND
1070
     0
1002
}
1002
{
1000
OTHER
1070
     0
1002
}
1002
{
1000
REACTOR
1002
}
1001
GENIUS_GENOBJ-N-CEN_13
1002
{
1000
OWNER
1000
GEN
1002
}
1001
GENIUS_GENCEN_19
1002
{
1040
1.0
1002
}
  0
LINE
  5
105D
102
{ACAD_REACTORS
330
12C2
102
}
330
1F
100
AcDbEntity
  8
0
 62
     2
100
AcDbLine
 10
2212.717291092356
 20
1584.371012811811
 30
0.0
 11
2220.717291092356
 21
1584.371012811811
 31
0.0
  0
LINE
  5
105E
330
1F
100
AcDbEntity
  8
0
 62
     2
100
AcDbLine
 10
2171.217291092355
 20
1584.371012811811
 30
0.0
 11
2179.217291092355
 21
1584.371012811811
 31
0.0
  0
LINE
  5
105F
330
1F
100
AcDbEntity
  8
0
 62
     2
100
AcDbLine
 10
2268.97163054705
 20
1602.371012811811
 30
0.0
 11
2268.97163054705
 21
1584.371012811811
 31
0.0
  0
LINE
  5
1060
330
1F
100
AcDbEntity
  8
0
 62
     2
100
AcDbLine
 10
2260.97163054705
 20
1602.371012811811
 30
0.0
 11
2260.97163054705
 21
1584.371012811811
 31
0.0
  0
LINE
  5
1061
330
1F
100
AcDbEntity
  8
AM_7
  6
AM_ISO08W050x2
100
AcDbLine
 10
2264.97163054705
 20
1603.371012811811
 30
0.0
 11
2264.97163054705
 21
1583.371012811811
 31
0.0
1001
GENIUS_GENODEF_13
1002
{
1000
HIER
1070
     0
1002
}
1002
{
1000
MANEDIT
1070
     0
1002
}
1002
{
1000
NOSEL
1070
     0
1002
}
1002
{
1000
BEHIND
1070
     0
1002
}
1002
{
1000
OTHER
1070
     0
1002
}
1002
{
1000
REACTOR
1002
}
1001
GENIUS_GENOBJ-N-CEN_13
1002
{
1000
OWNER
1000
GEN
1002
}
1001
GENIUS_GENCEN_19
1002
{
1040
1.0
1002
}
  0
LINE
  5
1062
330
1F
100
AcDbEntity
  8
0
 62
     2
100
AcDbLine
 10
2260.97163054705
 20
1584.371012811811
 30
0.0
 11
2268.97163054705
 21
1584.371012811811
 31
0.0
  0
LINE
  5
1063
330
1F
100
AcDbEntity
  8
0
 62
     2
100
AcDbLine
 10
2135.119601263067
 20
1602.371012811811
 30
0.0
 11
2135.119601263067
 21
1584.371012811811
 31
0.0
  0
LINE
  5
1064
330
1F
100
AcDbEntity
  8
0
 62
     2
100
AcDbLine
 10
2127.119601263067
 20
1602.371012811811
 30
0.0
 11
2127.119601263067
 21
1584.371012811811
 31
0.0
  0
LINE
  5
1065
330
1F
100
AcDbEntity
  8
AM_7
  6
AM_ISO08W050x2
100
AcDbLine
 10
2131.119601263067
 20
1603.371012811811
 30
0.0
 11
2131.119601263067
 21
1583.371012811811
 31
0.0
1001
GENIUS_GENODEF_13
1002
{
1000
HIER
1070
     0
1002
}
1002
{
1000
MANEDIT
1070
     0
1002
}
1002
{
1000
NOSEL
1070
     0
1002
}
1002
{
1000
BEHIND
1070
     0
1002
}
1002
{
1000
OTHER
1070
     0
1002
}
1002
{
1000
REACTOR
1002
}
1001
GENIUS_GENOBJ-N-CEN_13
1002
{
1000
OWNER
1000
GEN
1002
}
1001
GENIUS_GENCEN_19
1002
{
1040
1.0
1002
}
  0
LINE
  5
1066
330
1F
100
AcDbEntity
  8
0
 62
     2
100
AcDbLine
 10
2127.119601263067
 20
1584.371012811811
 30
0.0
 11
2135.119601263067
 21
1584.371012811811
 31
0.0
  0
LINE
  5
1067
330
1F
100
AcDbEntity
  8
0
 62
     2
100
AcDbLine
 10
2361.60674886636
 20
1602.371012811811
 30
0.0
 11
2361.60674886636
 21
1584.371012811811
 31
0.0
  0
LINE
  5
1068
330
1F
100
AcDbEntity
  8
0
 62
     2
100
AcDbLine
 10
2353.60674886636
 20
1602.371012811811
 30
0.0
 11
2353.60674886636
 21
1584.371012811811
 31
0.0
  0
LINE
  5
1069
330
1F
100
AcDbEntity
  8
AM_7
  6
AM_ISO08W050x2
100
AcDbLine
 10
2357.60674886636
 20
1603.371012811811
 30
0.0
 11
2357.60674886636
 21
1583.371012811811
 31
0.0
1001
GENIUS_GENODEF_13
1002
{
1000
HIER
1070
     0
1002
}
1002
{
1000
MANEDIT
1070
     0
1002
}
1002
{
1000
NOSEL
1070
     0
1002
}
1002
{
1000
BEHIND
1070
     0
1002
}
1002
{
1000
OTHER
1070
     0
1002
}
1002
{
1000
REACTOR
1002
}
1001
GENIUS_GENOBJ-N-CEN_13
1002
{
1000
OWNER
1000
GEN
1002
}
1001
GENIUS_GENCEN_19
1002
{
1040
1.0
1002
}
  0
LINE
  5
106A
330
1F
100
AcDbEntity
  8
0
 62
     2
100
AcDbLine
 10
2320.10674886636
 20
1602.371012811811
 30
0.0
 11
2320.10674886636
 21
1584.371012811811
 31
0.0
  0
LINE
  5
106B
330
1F
100
AcDbEntity
  8
0
 62
     2
100
AcDbLine
 10
2312.10674886636
 20
1602.371012811811
 30
0.0
 11
2312.10674886636
 21
1584.371012811811
 31
0.0
  0
LINE
  5
106C
330
1F
100
AcDbEntity
  8
AM_7
  6
AM_ISO08W050x2
100
AcDbLine
 10
2316.10674886636
 20
1603.371012811811
 30
0.0
 11
2316.10674886636
 21
1583.371012811811
 31
0.0
1001
GENIUS_GENODEF_13
1002
{
1000
HIER
1070
     0
1002
}
1002
{
1000
MANEDIT
1070
     0
1002
}
1002
{
1000
NOSEL
1070
     0
1002
}
1002
{
1000
BEHIND
1070
     0
1002
}
1002
{
1000
OTHER
1070
     0
1002
}
1002
{
1000
REACTOR
1002
}
1001
GENIUS_GENOBJ-N-CEN_13
1002
{
1000
OWNER
1000
GEN
1002
}
1001
GENIUS_GENCEN_19
1002
{
1040
1.0
1002
}
  0
LINE
  5
106D
330
1F
100
AcDbEntity
  8
0
 62
     2
100
AcDbLine
 10
2353.60674886636
 20
1584.371012811811
 30
0.0
 11
2361.60674886636
 21
1584.371012811811
 31
0.0
  0
LINE
  5
106E
330
1F
100
AcDbEntity
  8
0
 62
     2
100
AcDbLine
 10
2312.10674886636
 20
1584.371012811811
 30
0.0
 11
2320.10674886636
 21
1584.371012811811
 31
0.0
  0
LINE
  5
106F
330
1F
100
AcDbEntity
  8
AM_VIS
100
AcDbLine
 10
2168.467291092356
 20
1436.025429166283
 30
0.0
 11
2168.217291092355
 21
1435.775429166282
 31
0.0
  0
LINE
  5
1070
330
1F
100
AcDbEntity
  8
AM_VIS
100
AcDbLine
 10
2223.717291092356
 20
1435.775429166282
 30
0.0
 11
2223.967291092356
 21
1435.525429166283
 31
0.0
  0
LINE
  5
1071
330
1F
100
AcDbEntity
  8
AM_VIS
100
AcDbLine
 10
2223.467291092356
 20
1436.025429166283
 30
0.0
 11
2223.717291092356
 21
1435.775429166282
 31
0.0
  0
LINE
  5
1072
330
1F
100
AcDbEntity
  8
AM_VIS
100
AcDbLine
 10
2223.967291092356
 20
1428.525429166283
 30
0.0
 11
2223.967291092356
 21
1435.525429166283
 31
0.0
  0
LINE
  5
1073
330
1F
100
AcDbEntity
  8
AM_VIS
100
AcDbLine
 10
2223.967291092356
 20
1428.525429166283
 30
0.0
 11
2223.717291092356
 21
1428.275429166283
 31
0.0
  0
LINE
  5
1074
330
1F
100
AcDbEntity
  8
AM_VIS
100
AcDbLine
 10
2167.967291092355
 20
1435.525429166283
 30
0.0
 11
2167.967291092355
 21
1428.525429166283
 31
0.0
  0
LINE
  5
1075
330
1F
100
AcDbEntity
  8
AM_VIS
100
AcDbLine
 10
2167.967291092355
 20
1435.525429166283
 30
0.0
 11
2168.217291092355
 21
1435.775429166282
 31
0.0
  0
LINE
  5
1076
330
1F
100
AcDbEntity
  8
AM_VIS
100
AcDbLine
 10
2223.467291092356
 20
1428.025429166283
 30
0.0
 11
2223.717291092356
 21
1428.275429166283
 31
0.0
  0
LINE
  5
1077
330
1F
100
AcDbEntity
  8
AM_VIS
100
AcDbLine
 10
2168.467291092356
 20
1428.025429166283
 30
0.0
 11
2168.217291092355
 21
1428.275429166283
 31
0.0
  0
LINE
  5
1078
330
1F
100
AcDbEntity
  8
AM_VIS
100
AcDbLine
 10
2168.217291092355
 20
1428.275429166283
 30
0.0
 11
2167.967291092355
 21
1428.525429166283
 31
0.0
  0
LINE
  5
1079
330
1F
100
AcDbEntity
  8
AM_VIS
100
AcDbLine
 10
2223.467291092356
 20
1436.025429166283
 30
0.0
 11
2168.467291092356
 21
1436.025429166283
 31
0.0
  0
LINE
  5
107A
330
1F
100
AcDbEntity
  8
AM_VIS
100
AcDbLine
 10
2168.467291092356
 20
1428.025429166283
 30
0.0
 11
2223.467291092356
 21
1428.025429166283
 31
0.0
  0
LINE
  5
107B
330
1F
100
AcDbEntity
  8
AM_VIS
100
AcDbLine
 10
2207.467291092356
 20
1417.025429166282
 30
0.0
 11
2207.467291092356
 21
1411.025429166282
 31
0.0
  0
LINE
  5
107C
330
1F
100
AcDbEntity
  8
AM_VIS
100
AcDbLine
 10
2184.467291092356
 20
1403.025429166283
 30
0.0
 11
2184.467291092356
 21
1387.025429166283
 31
0.0
  0
LINE
  5
107D
330
1F
100
AcDbEntity
  8
AM_VIS
100
AcDbLine
 10
2187.467291092355
 20
1404.379677855218
 30
0.0
 11
2187.467291092355
 21
1387.025429166283
 31
0.0
  0
LINE
  5
107E
330
1F
100
AcDbEntity
  8
AM_VIS
100
AcDbLine
 10
2204.467291092356
 20
1409.671180477347
 30
0.0
 11
2204.467291092356
 21
1418.379677855218
 31
0.0
  0
LINE
  5
107F
330
1F
100
AcDbEntity
  8
AM_VIS
100
AcDbLine
 10
2202.467291092355
 20
1426.025429166283
 30
0.0
 11
2202.467291092355
 21
1387.025429166283
 31
0.0
  0
LINE
  5
1080
330
1F
100
AcDbEntity
  8
AM_VIS
100
AcDbLine
 10
2189.467291092356
 20
1387.025429166283
 30
0.0
 11
2189.467291092356
 21
1426.025429166283
 31
0.0
  0
LINE
  5
1081
330
1F
100
AcDbEntity
  8
AM_VIS
100
AcDbLine
 10
2201.667291092356
 20
1426.025429166283
 30
0.0
 11
2201.667291092356
 21
1387.025429166283
 31
0.0
  0
LINE
  5
1082
330
1F
100
AcDbEntity
  8
AM_VIS
100
AcDbLine
 10
2198.267291092355
 20
1387.025429166283
 30
0.0
 11
2198.267291092355
 21
1426.025429166283
 31
0.0
  0
LINE
  5
1083
330
1F
100
AcDbEntity
  8
AM_VIS
100
AcDbLine
 10
2193.667291092356
 20
1426.025429166283
 30
0.0
 11
2193.667291092356
 21
1387.025429166283
 31
0.0
  0
LINE
  5
1084
330
1F
100
AcDbEntity
  8
AM_VIS
100
AcDbLine
 10
2190.267291092355
 20
1387.025429166283
 30
0.0
 11
2190.267291092355
 21
1426.025429166283
 31
0.0
  0
LINE
  5
1085
330
1F
100
AcDbEntity
  8
AM_VIS
100
AcDbLine
 10
2224.967291092355
 20
1387.025429166283
 30
0.0
 11
2224.967291092355
 21
1426.025429166283
 31
0.0
  0
LINE
  5
1086
330
1F
100
AcDbEntity
  8
AM_VIS
100
AcDbLine
 10
2187.467291092355
 20
1426.025429166283
 30
0.0
 11
2187.467291092355
 21
1423.671180477347
 31
0.0
  0
LINE
  5
1087
330
1F
100
AcDbEntity
  8
AM_VIS
100
AcDbLine
 10
2184.467291092356
 20
1426.025429166283
 30
0.0
 11
2184.467291092356
 21
1425.025429166282
 31
0.0
  0
ARC
  5
1088
330
1F
100
AcDbEntity
  8
AM_VIS
100
AcDbCircle
 10
2184.467291092356
 20
1421.025429166283
 30
0.0
 40
3.999999999999999
100
AcDbArc
 50
90.0
 51
138.5903778907302
  0
ARC
  5
1089
330
1F
100
AcDbEntity
  8
AM_VIS
100
AcDbCircle
 10
2184.467291092356
 20
1421.025429166283
 30
0.0
 40
4.0
100
AcDbArc
 50
41.40962210926974
 51
90.0
  0
LINE
  5
108A
330
1F
100
AcDbEntity
  8
AM_VIS
100
AcDbLine
 10
2204.467291092356
 20
1423.671180477347
 30
0.0
 11
2204.467291092356
 21
1426.025429166283
 31
0.0
  0
LINE
  5
108B
330
1F
100
AcDbEntity
  8
AM_VIS
100
AcDbLine
 10
2204.467291092356
 20
1387.025429166283
 30
0.0
 11
2204.467291092356
 21
1404.379677855218
 31
0.0
  0
LINE
  5
108C
330
1F
100
AcDbEntity
  8
AM_VIS
100
AcDbLine
 10
2207.467291092356
 20
1426.025429166283
 30
0.0
 11
2207.467291092356
 21
1425.025429166282
 31
0.0
  0
LINE
  5
108D
330
1F
100
AcDbEntity
  8
AM_VIS
100
AcDbLine
 10
2207.467291092356
 20
1403.025429166283
 30
0.0
 11
2207.467291092356
 21
1387.025429166283
 31
0.0
  0
LINE
  5
108E
330
1F
100
AcDbEntity
  8
AM_VIS
100
AcDbLine
 10
2210.467291092355
 20
1418.379677855218
 30
0.0
 11
2210.467291092355
 21
1409.671180477347
 31
0.0
  0
LINE
  5
108F
330
1F
100
AcDbEntity
  8
AM_VIS
100
AcDbLine
 10
2210.467291092355
 20
1426.025429166283
 30
0.0
 11
2210.467291092355
 21
1423.671180477347
 31
0.0
  0
LINE
  5
1090
330
1F
100
AcDbEntity
  8
AM_VIS
100
AcDbLine
 10
2210.467291092355
 20
1404.379677855218
 30
0.0
 11
2210.467291092355
 21
1387.025429166283
 31
0.0
  0
ARC
  5
1091
330
1F
100
AcDbEntity
  8
AM_VIS
100
AcDbCircle
 10
2184.467291092356
 20
1421.025429166283
 30
0.0
 40
4.0
100
AcDbArc
 50
270.0
 51
318.5903778907302
  0
LINE
  5
1092
330
1F
100
AcDbEntity
  8
AM_VIS
100
AcDbLine
 10
2187.467291092355
 20
1418.379677855218
 30
0.0
 11
2187.467291092355
 21
1409.671180477347
 31
0.0
  0
ARC
  5
1093
330
1F
100
AcDbEntity
  8
AM_VIS
100
AcDbCircle
 10
2184.467291092356
 20
1421.025429166283
 30
0.0
 40
3.999999999999999
100
AcDbArc
 50
221.4096221092697
 51
270.0
  0
LINE
  5
1094
330
1F
100
AcDbEntity
  8
AM_VIS
100
AcDbLine
 10
2184.467291092356
 20
1417.025429166282
 30
0.0
 11
2184.467291092356
 21
1411.025429166282
 31
0.0
  0
ARC
  5
1095
330
1F
100
AcDbEntity
  8
AM_VIS
100
AcDbCircle
 10
2207.467291092356
 20
1421.025429166283
 30
0.0
 40
4.0
100
AcDbArc
 50
270.0
 51
318.5903778907302
  0
ARC
  5
1096
330
1F
100
AcDbEntity
  8
AM_VIS
100
AcDbCircle
 10
2207.467291092356
 20
1421.025429166283
 30
0.0
 40
3.999999999999999
100
AcDbArc
 50
221.4096221092697
 51
270.0
  0
ARC
  5
1097
330
1F
100
AcDbEntity
  8
AM_VIS
100
AcDbCircle
 10
2207.467291092356
 20
1421.025429166283
 30
0.0
 40
3.999999999999999
100
AcDbArc
 50
90.0
 51
138.5903778907302
  0
ARC
  5
1098
330
1F
100
AcDbEntity
  8
AM_VIS
100
AcDbCircle
 10
2207.467291092356
 20
1421.025429166283
 30
0.0
 40
4.0
100
AcDbArc
 50
41.40962210926974
 51
90.0
  0
ARC
  5
1099
330
1F
100
AcDbEntity
  8
AM_VIS
100
AcDbCircle
 10
2184.467291092356
 20
1407.025429166283
 30
0.0
 40
3.999999999999999
100
AcDbArc
 50
90.0
 51
138.5903778907302
  0
ARC
  5
109A
330
1F
100
AcDbEntity
  8
AM_VIS
100
AcDbCircle
 10
2184.467291092356
 20
1407.025429166283
 30
0.0
 40
4.0
100
AcDbArc
 50
41.40962210926974
 51
90.0
  0
ARC
  5
109B
330
1F
100
AcDbEntity
  8
AM_VIS
100
AcDbCircle
 10
2184.467291092356
 20
1407.025429166283
 30
0.0
 40
4.0
100
AcDbArc
 50
270.0
 51
318.5903778907302
  0
ARC
  5
109C
330
1F
100
AcDbEntity
  8
AM_VIS
100
AcDbCircle
 10
2184.467291092356
 20
1407.025429166283
 30
0.0
 40
3.999999999999999
100
AcDbArc
 50
221.4096221092697
 51
270.0
  0
ARC
  5
109D
330
1F
100
AcDbEntity
  8
AM_VIS
100
AcDbCircle
 10
2207.467291092356
 20
1407.025429166283
 30
0.0
 40
4.0
100
AcDbArc
 50
270.0
 51
318.5903778907302
  0
ARC
  5
109E
330
1F
100
AcDbEntity
  8
AM_VIS
100
AcDbCircle
 10
2207.467291092356
 20
1407.025429166283
 30
0.0
 40
3.999999999999999
100
AcDbArc
 50
221.4096221092697
 51
270.0
  0
ARC
  5
109F
330
1F
100
AcDbEntity
  8
AM_VIS
100
AcDbCircle
 10
2207.467291092356
 20
1407.025429166283
 30
0.0
 40
3.999999999999999
100
AcDbArc
 50
90.0
 51
138.5903778907302
  0
ARC
  5
10A0
330
1F
100
AcDbEntity
  8
AM_VIS
100
AcDbCircle
 10
2207.467291092356
 20
1407.025429166283
 30
0.0
 40
4.0
100
AcDbArc
 50
41.40962210926974
 51
90.0
  0
LINE
  5
10A1
330
1F
100
AcDbEntity
  8
AM_VIS
100
AcDbLine
 10
2223.967291092356
 20
1426.025429166283
 30
0.0
 11
2210.467291092355
 21
1426.025429166283
 31
0.0
  0
LINE
  5
10A2
330
1F
100
AcDbEntity
  8
AM_VIS
100
AcDbLine
 10
2207.467291092356
 20
1426.025429166283
 30
0.0
 11
2210.467291092355
 21
1426.025429166283
 31
0.0
  0
LINE
  5
10A3
330
1F
100
AcDbEntity
  8
AM_VIS
100
AcDbLine
 10
2204.467291092356
 20
1426.025429166283
 30
0.0
 11
2207.467291092356
 21
1426.025429166283
 31
0.0
  0
LINE
  5
10A4
330
1F
100
AcDbEntity
  8
AM_VIS
100
AcDbLine
 10
2204.467291092356
 20
1426.025429166283
 30
0.0
 11
2202.467291092355
 21
1426.025429166283
 31
0.0
  0
LINE
  5
10A5
330
1F
100
AcDbEntity
  8
AM_VIS
100
AcDbLine
 10
2202.067291092355
 20
1426.025429166283
 30
0.0
 11
2202.467291092355
 21
1426.025429166283
 31
0.0
  0
LINE
  5
10A6
330
1F
100
AcDbEntity
  8
AM_VIS
100
AcDbLine
 10
2201.667291092356
 20
1426.025429166283
 30
0.0
 11
2202.067291092355
 21
1426.025429166283
 31
0.0
  0
LINE
  5
10A7
330
1F
100
AcDbEntity
  8
AM_VIS
100
AcDbLine
 10
2199.517291092355
 20
1426.025429166283
 30
0.0
 11
2200.417291092355
 21
1426.025429166283
 31
0.0
  0
LINE
  5
10A8
330
1F
100
AcDbEntity
  8
AM_VIS
100
AcDbLine
 10
2191.517291092355
 20
1426.025429166283
 30
0.0
 11
2192.417291092355
 21
1426.025429166283
 31
0.0
  0
LINE
  5
10A9
330
1F
100
AcDbEntity
  8
AM_VIS
100
AcDbLine
 10
2189.867291092355
 20
1426.025429166283
 30
0.0
 11
2190.267291092355
 21
1426.025429166283
 31
0.0
  0
LINE
  5
10AA
330
1F
100
AcDbEntity
  8
AM_VIS
100
AcDbLine
 10
2189.467291092356
 20
1426.025429166283
 30
0.0
 11
2189.867291092355
 21
1426.025429166283
 31
0.0
  0
LINE
  5
10AB
330
1F
100
AcDbEntity
  8
AM_VIS
100
AcDbLine
 10
2189.467291092356
 20
1426.025429166283
 30
0.0
 11
2187.467291092355
 21
1426.025429166283
 31
0.0
  0
LINE
  5
10AC
330
1F
100
AcDbEntity
  8
AM_VIS
100
AcDbLine
 10
2184.467291092356
 20
1426.025429166283
 30
0.0
 11
2187.467291092355
 21
1426.025429166283
 31
0.0
  0
LINE
  5
10AD
330
1F
100
AcDbEntity
  8
AM_VIS
100
AcDbLine
 10
2181.467291092356
 20
1426.025429166283
 30
0.0
 11
2184.467291092356
 21
1426.025429166283
 31
0.0
  0
LINE
  5
10AE
330
1F
100
AcDbEntity
  8
AM_VIS
100
AcDbLine
 10
2181.467291092356
 20
1387.025429166283
 30
0.0
 11
2181.467291092356
 21
1404.379677855218
 31
0.0
  0
LINE
  5
10AF
330
1F
100
AcDbEntity
  8
AM_VIS
100
AcDbLine
 10
2181.467291092356
 20
1426.025429166283
 30
0.0
 11
2167.967291092355
 21
1426.025429166283
 31
0.0
  0
LINE
  5
10B0
330
1F
100
AcDbEntity
  8
AM_VIS
100
AcDbLine
 10
2181.467291092356
 20
1423.671180477347
 30
0.0
 11
2181.467291092356
 21
1426.025429166283
 31
0.0
  0
LINE
  5
10B1
330
1F
100
AcDbEntity
  8
AM_VIS
100
AcDbLine
 10
2181.467291092356
 20
1409.671180477347
 30
0.0
 11
2181.467291092356
 21
1418.379677855218
 31
0.0
  0
LINE
  5
10B2
330
1F
100
AcDbEntity
  8
AM_VIS
100
AcDbLine
 10
2166.967291092356
 20
1426.025429166283
 30
0.0
 11
2166.967291092356
 21
1387.025429166283
 31
0.0
  0
LINE
  5
10B3
330
1F
100
AcDbEntity
  8
AM_VIS
100
AcDbLine
 10
2167.967291092355
 20
1387.025429166283
 30
0.0
 11
2181.467291092356
 21
1387.025429166283
 31
0.0
  0
LINE
  5
10B4
330
1F
100
AcDbEntity
  8
AM_VIS
100
AcDbLine
 10
2184.467291092356
 20
1387.025429166283
 30
0.0
 11
2181.467291092356
 21
1387.025429166283
 31
0.0
  0
LINE
  5
10B5
330
1F
100
AcDbEntity
  8
AM_VIS
100
AcDbLine
 10
2187.467291092355
 20
1387.025429166283
 30
0.0
 11
2184.467291092356
 21
1387.025429166283
 31
0.0
  0
LINE
  5
10B6
330
1F
100
AcDbEntity
  8
AM_VIS
100
AcDbLine
 10
2187.467291092355
 20
1387.025429166283
 30
0.0
 11
2189.467291092356
 21
1387.025429166283
 31
0.0
  0
LINE
  5
10B7
330
1F
100
AcDbEntity
  8
AM_VIS
100
AcDbLine
 10
2189.867291092355
 20
1387.025429166283
 30
0.0
 11
2189.467291092356
 21
1387.025429166283
 31
0.0
  0
LINE
  5
10B8
330
1F
100
AcDbEntity
  8
AM_VIS
100
AcDbLine
 10
2190.267291092355
 20
1387.025429166283
 30
0.0
 11
2189.867291092355
 21
1387.025429166283
 31
0.0
  0
LINE
  5
10B9
330
1F
100
AcDbEntity
  8
AM_VIS
100
AcDbLine
 10
2192.417291092355
 20
1387.025429166283
 30
0.0
 11
2191.517291092355
 21
1387.025429166283
 31
0.0
  0
LINE
  5
10BA
330
1F
100
AcDbEntity
  8
AM_VIS
100
AcDbLine
 10
2198.267291092355
 20
1387.025429166283
 30
0.0
 11
2193.667291092356
 21
1387.025429166283
 31
0.0
  0
LINE
  5
10BB
330
1F
100
AcDbEntity
  8
AM_VIS
100
AcDbLine
 10
2200.417291092355
 20
1387.025429166283
 30
0.0
 11
2199.517291092355
 21
1387.025429166283
 31
0.0
  0
LINE
  5
10BC
330
1F
100
AcDbEntity
  8
AM_VIS
100
AcDbLine
 10
2202.067291092355
 20
1387.025429166283
 30
0.0
 11
2201.667291092356
 21
1387.025429166283
 31
0.0
  0
LINE
  5
10BD
330
1F
100
AcDbEntity
  8
AM_VIS
100
AcDbLine
 10
2202.467291092355
 20
1387.025429166283
 30
0.0
 11
2202.067291092355
 21
1387.025429166283
 31
0.0
  0
LINE
  5
10BE
330
1F
100
AcDbEntity
  8
AM_VIS
100
AcDbLine
 10
2202.467291092355
 20
1387.025429166283
 30
0.0
 11
2204.467291092356
 21
1387.025429166283
 31
0.0
  0
LINE
  5
10BF
330
1F
100
AcDbEntity
  8
AM_VIS
100
AcDbLine
 10
2207.467291092356
 20
1387.025429166283
 30
0.0
 11
2204.467291092356
 21
1387.025429166283
 31
0.0
  0
LINE
  5
10C0
330
1F
100
AcDbEntity
  8
AM_VIS
100
AcDbLine
 10
2210.467291092355
 20
1387.025429166283
 30
0.0
 11
2207.467291092356
 21
1387.025429166283
 31
0.0
  0
LINE
  5
10C1
330
1F
100
AcDbEntity
  8
AM_VIS
100
AcDbLine
 10
2210.467291092355
 20
1387.025429166283
 30
0.0
 11
2223.967291092356
 21
1387.025429166283
 31
0.0
  0
ARC
  5
10C2
330
1F
100
AcDbEntity
  8
AM_VIS
100
AcDbCircle
 10
2184.467291092356
 20
1421.025429166283
 30
0.0
 40
4.0
100
AcDbArc
 50
318.5903778907302
 51
41.40962210926974
  0
CIRCLE
  5
10C3
330
1F
100
AcDbEntity
  8
AM_VIS
100
AcDbCircle
 10
2184.467291092356
 20
1421.025429166283
 30
0.0
 40
2.095
  0
ARC
  5
10C4
330
1F
100
AcDbEntity
  8
AM_VIS
100
AcDbCircle
 10
2207.467291092356
 20
1421.025429166283
 30
0.0
 40
4.0
100
AcDbArc
 50
318.5903778907302
 51
41.40962210926974
  0
ARC
  5
10C5
330
1F
100
AcDbEntity
  8
AM_VIS
100
AcDbCircle
 10
2207.467291092356
 20
1421.025429166283
 30
0.0
 40
4.0
100
AcDbArc
 50
138.5903778907302
 51
221.4096221092697
  0
CIRCLE
  5
10C6
330
1F
100
AcDbEntity
  8
AM_VIS
100
AcDbCircle
 10
2207.467291092356
 20
1421.025429166283
 30
0.0
 40
2.095
  0
ARC
  5
10C7
330
1F
100
AcDbEntity
  8
AM_VIS
100
AcDbCircle
 10
2184.467291092356
 20
1407.025429166283
 30
0.0
 40
4.0
100
AcDbArc
 50
318.5903778907302
 51
41.40962210926974
  0
CIRCLE
  5
10C8
330
1F
100
AcDbEntity
  8
AM_VIS
100
AcDbCircle
 10
2184.467291092356
 20
1407.025429166283
 30
0.0
 40
2.095
  0
ARC
  5
10C9
330
1F
100
AcDbEntity
  8
AM_VIS
100
AcDbCircle
 10
2207.467291092356
 20
1407.025429166283
 30
0.0
 40
4.0
100
AcDbArc
 50
318.5903778907302
 51
41.40962210926974
  0
ARC
  5
10CA
330
1F
100
AcDbEntity
  8
AM_VIS
100
AcDbCircle
 10
2207.467291092356
 20
1407.025429166283
 30
0.0
 40
4.0
100
AcDbArc
 50
138.5903778907302
 51
221.4096221092697
  0
CIRCLE
  5
10CB
330
1F
100
AcDbEntity
  8
AM_VIS
100
AcDbCircle
 10
2207.467291092356
 20
1407.025429166283
 30
0.0
 40
2.095
  0
LINE
  5
10CC
330
1F
100
AcDbEntity
  8
AM_VIS
100
AcDbLine
 10
2223.967291092356
 20
1426.025429166283
 30
0.0
 11
2224.967291092355
 21
1426.025429166283
 31
0.0
  0
LINE
  5
10CD
330
1F
100
AcDbEntity
  8
AM_VIS
100
AcDbLine
 10
2201.667291092356
 20
1426.025429166283
 30
0.0
 11
2200.417291092355
 21
1426.025429166283
 31
0.0
  0
LINE
  5
10CE
330
1F
100
AcDbEntity
  8
AM_VIS
100
AcDbLine
 10
2199.517291092355
 20
1426.025429166283
 30
0.0
 11
2195.967291092355
 21
1426.025429166283
 31
0.0
  0
LINE
  5
10CF
330
1F
100
AcDbEntity
  8
AM_VIS
100
AcDbLine
 10
2192.417291092355
 20
1426.025429166283
 30
0.0
 11
2195.967291092355
 21
1426.025429166283
 31
0.0
  0
LINE
  5
10D0
330
1F
100
AcDbEntity
  8
AM_VIS
100
AcDbLine
 10
2190.267291092355
 20
1426.025429166283
 30
0.0
 11
2191.517291092355
 21
1426.025429166283
 31
0.0
  0
LINE
  5
10D1
330
1F
100
AcDbEntity
  8
AM_VIS
100
AcDbLine
 10
2166.967291092356
 20
1426.025429166283
 30
0.0
 11
2167.967291092355
 21
1426.025429166283
 31
0.0
  0
ARC
  5
10D2
330
1F
100
AcDbEntity
  8
AM_VIS
100
AcDbCircle
 10
2184.467291092356
 20
1421.025429166283
 30
0.0
 40
4.0
100
AcDbArc
 50
138.5903778907302
 51
221.4096221092697
  0
ARC
  5
10D3
330
1F
100
AcDbEntity
  8
AM_VIS
100
AcDbCircle
 10
2184.467291092356
 20
1407.025429166283
 30
0.0
 40
4.0
100
AcDbArc
 50
138.5903778907302
 51
221.4096221092697
  0
LINE
  5
10D4
330
1F
100
AcDbEntity
  8
AM_VIS
100
AcDbLine
 10
2167.967291092355
 20
1387.025429166283
 30
0.0
 11
2166.967291092356
 21
1387.025429166283
 31
0.0
  0
LINE
  5
10D5
330
1F
100
AcDbEntity
  8
AM_VIS
100
AcDbLine
 10
2191.517291092355
 20
1387.025429166283
 30
0.0
 11
2190.267291092355
 21
1387.025429166283
 31
0.0
  0
LINE
  5
10D6
330
1F
100
AcDbEntity
  8
AM_VIS
100
AcDbLine
 10
2193.667291092356
 20
1387.025429166283
 30
0.0
 11
2192.417291092355
 21
1387.025429166283
 31
0.0
  0
LINE
  5
10D7
330
1F
100
AcDbEntity
  8
AM_VIS
100
AcDbLine
 10
2198.267291092355
 20
1387.025429166283
 30
0.0
 11
2199.517291092355
 21
1387.025429166283
 31
0.0
  0
LINE
  5
10D8
330
1F
100
AcDbEntity
  8
AM_VIS
100
AcDbLine
 10
2200.417291092355
 20
1387.025429166283
 30
0.0
 11
2201.667291092356
 21
1387.025429166283
 31
0.0
  0
LINE
  5
10D9
330
1F
100
AcDbEntity
  8
AM_VIS
100
AcDbLine
 10
2224.967291092355
 20
1387.025429166283
 30
0.0
 11
2223.967291092356
 21
1387.025429166283
 31
0.0
  0
LINE
  5
10DA
330
1F
100
AcDbEntity
  8
AM_VIS
100
AcDbLine
 10
2167.967291092355
 20
1478.579336915839
 30
0.0
 11
2167.967291092355
 21
1457.579336915839
 31
0.0
  0
LINE
  5
10DB
330
1F
100
AcDbEntity
  8
AM_VIS
100
AcDbLine
 10
2223.467291092356
 20
1457.079336915839
 30
0.0
 11
2223.717291092356
 21
1457.329336915839
 31
0.0
  0
LINE
  5
10DC
330
1F
100
AcDbEntity
  8
AM_VIS
100
AcDbLine
 10
2223.717291092356
 20
1457.329336915839
 30
0.0
 11
2223.967291092356
 21
1457.579336915839
 31
0.0
  0
LINE
  5
10DD
330
1F
100
AcDbEntity
  8
AM_VIS
100
AcDbLine
 10
2223.967291092356
 20
1478.579336915839
 30
0.0
 11
2223.717291092356
 21
1478.829336915839
 31
0.0
  0
LINE
  5
10DE
330
1F
100
AcDbEntity
  8
AM_VIS
100
AcDbLine
 10
2223.717291092356
 20
1478.829336915839
 30
0.0
 11
2223.467291092356
 21
1479.079336915839
 31
0.0
  0
LINE
  5
10DF
330
1F
100
AcDbEntity
  8
AM_VIS
100
AcDbLine
 10
2223.967291092356
 20
1457.579336915839
 30
0.0
 11
2223.967291092356
 21
1478.579336915839
 31
0.0
  0
LINE
  5
10E0
330
1F
100
AcDbEntity
  8
AM_VIS
100
AcDbLine
 10
2168.467291092356
 20
1457.079336915839
 30
0.0
 11
2223.467291092356
 21
1457.079336915839
 31
0.0
  0
LINE
  5
10E1
330
1F
100
AcDbEntity
  8
AM_VIS
100
AcDbLine
 10
2167.967291092355
 20
1457.579336915839
 30
0.0
 11
2168.217291092355
 21
1457.329336915839
 31
0.0
  0
LINE
  5
10E2
330
1F
100
AcDbEntity
  8
AM_VIS
100
AcDbLine
 10
2168.217291092355
 20
1457.329336915839
 30
0.0
 11
2168.467291092356
 21
1457.079336915839
 31
0.0
  0
LINE
  5
10E3
330
1F
100
AcDbEntity
  8
AM_VIS
100
AcDbLine
 10
2168.467291092356
 20
1479.079336915839
 30
0.0
 11
2168.217291092355
 21
1478.829336915839
 31
0.0
  0
LINE
  5
10E4
330
1F
100
AcDbEntity
  8
AM_VIS
100
AcDbLine
 10
2168.217291092355
 20
1478.829336915839
 30
0.0
 11
2167.967291092355
 21
1478.579336915839
 31
0.0
  0
LINE
  5
10E5
330
1F
100
AcDbEntity
  8
AM_VIS
100
AcDbLine
 10
2223.467291092356
 20
1479.079336915839
 30
0.0
 11
2168.467291092356
 21
1479.079336915839
 31
0.0
  0
LINE
  5
10E6
330
1F
100
AcDbEntity
  8
AM_VIS
100
AcDbLine
 10
2174.467291092355
 20
1480.579336915839
 30
0.0
 11
2173.967291092356
 21
1481.079336915839
 31
0.0
  0
LINE
  5
10E7
330
1F
100
AcDbEntity
  8
AM_VIS
100
AcDbLine
 10
2177.767291092355
 20
1480.579336915839
 30
0.0
 11
2174.467291092355
 21
1480.579336915839
 31
0.0
  0
LINE
  5
10E8
330
1F
100
AcDbEntity
  8
AM_VIS
100
AcDbLine
 10
2178.717291092356
 20
1479.629336915839
 30
0.0
 11
2177.767291092355
 21
1480.579336915839
 31
0.0
  0
LINE
  5
10E9
330
1F
100
AcDbEntity
  8
AM_VIS
100
AcDbLine
 10
2180.167291092355
 20
1481.079336915839
 30
0.0
 11
2178.717291092356
 21
1479.629336915839
 31
0.0
  0
LINE
  5
10EA
330
1F
100
AcDbEntity
  8
AM_VIS
100
AcDbLine
 10
2188.767291092355
 20
1481.079336915839
 30
0.0
 11
2180.167291092355
 21
1481.079336915839
 31
0.0
  0
LINE
  5
10EB
330
1F
100
AcDbEntity
  8
AM_VIS
100
AcDbLine
 10
2189.167291092355
 20
1480.679336915839
 30
0.0
 11
2188.767291092355
 21
1481.079336915839
 31
0.0
  0
LINE
  5
10EC
330
1F
100
AcDbEntity
  8
AM_VIS
100
AcDbLine
 10
2190.267291092355
 20
1480.679336915839
 30
0.0
 11
2189.167291092355
 21
1480.679336915839
 31
0.0
  0
LINE
  5
10ED
330
1F
100
AcDbEntity
  8
AM_VIS
100
AcDbLine
 10
2190.267291092355
 20
1480.179336915839
 30
0.0
 11
2190.267291092355
 21
1480.679336915839
 31
0.0
  0
LINE
  5
10EE
330
1F
100
AcDbEntity
  8
AM_VIS
100
AcDbLine
 10
2189.817291092356
 20
1479.679336915839
 30
0.0
 11
2190.267291092355
 21
1480.179336915839
 31
0.0
  0
LINE
  5
10EF
330
1F
100
AcDbEntity
  8
AM_VIS
100
AcDbLine
 10
2189.817291092356
 20
1479.079336915839
 30
0.0
 11
2189.817291092356
 21
1479.679336915839
 31
0.0
  0
LINE
  5
10F0
330
1F
100
AcDbEntity
  8
AM_VIS
100
AcDbLine
 10
2194.117291092355
 20
1479.679336915839
 30
0.0
 11
2194.117291092355
 21
1479.079336915839
 31
0.0
  0
LINE
  5
10F1
330
1F
100
AcDbEntity
  8
AM_VIS
100
AcDbLine
 10
2193.667291092356
 20
1480.179336915839
 30
0.0
 11
2194.117291092355
 21
1479.679336915839
 31
0.0
  0
LINE
  5
10F2
330
1F
100
AcDbEntity
  8
AM_VIS
100
AcDbLine
 10
2193.667291092356
 20
1480.679336915839
 30
0.0
 11
2193.667291092356
 21
1480.179336915839
 31
0.0
  0
LINE
  5
10F3
330
1F
100
AcDbEntity
  8
AM_VIS
100
AcDbLine
 10
2198.267291092355
 20
1480.679336915839
 30
0.0
 11
2193.667291092356
 21
1480.679336915839
 31
0.0
  0
LINE
  5
10F4
330
1F
100
AcDbEntity
  8
AM_VIS
100
AcDbLine
 10
2198.267291092355
 20
1480.179336915839
 30
0.0
 11
2198.267291092355
 21
1480.679336915839
 31
0.0
  0
LINE
  5
10F5
330
1F
100
AcDbEntity
  8
AM_VIS
100
AcDbLine
 10
2197.817291092356
 20
1479.679336915839
 30
0.0
 11
2198.267291092355
 21
1480.179336915839
 31
0.0
  0
LINE
  5
10F6
330
1F
100
AcDbEntity
  8
AM_VIS
100
AcDbLine
 10
2197.817291092356
 20
1479.079336915839
 30
0.0
 11
2197.817291092356
 21
1479.679336915839
 31
0.0
  0
LINE
  5
10F7
330
1F
100
AcDbEntity
  8
AM_VIS
100
AcDbLine
 10
2202.117291092355
 20
1479.679336915839
 30
0.0
 11
2202.117291092355
 21
1479.079336915839
 31
0.0
  0
LINE
  5
10F8
330
1F
100
AcDbEntity
  8
AM_VIS
100
AcDbLine
 10
2201.667291092356
 20
1480.179336915839
 30
0.0
 11
2202.117291092355
 21
1479.679336915839
 31
0.0
  0
LINE
  5
10F9
330
1F
100
AcDbEntity
  8
AM_VIS
100
AcDbLine
 10
2201.667291092356
 20
1480.679336915839
 30
0.0
 11
2201.667291092356
 21
1480.179336915839
 31
0.0
  0
LINE
  5
10FA
330
1F
100
AcDbEntity
  8
AM_VIS
100
AcDbLine
 10
2202.767291092355
 20
1480.679336915839
 30
0.0
 11
2201.667291092356
 21
1480.679336915839
 31
0.0
  0
LINE
  5
10FB
330
1F
100
AcDbEntity
  8
AM_VIS
100
AcDbLine
 10
2203.167291092356
 20
1481.079336915839
 30
0.0
 11
2202.767291092355
 21
1480.679336915839
 31
0.0
  0
LINE
  5
10FC
330
1F
100
AcDbEntity
  8
AM_VIS
100
AcDbLine
 10
2211.767291092355
 20
1481.079336915839
 30
0.0
 11
2203.167291092356
 21
1481.079336915839
 31
0.0
  0
LINE
  5
10FD
330
1F
100
AcDbEntity
  8
AM_VIS
100
AcDbLine
 10
2213.217291092355
 20
1479.629336915839
 30
0.0
 11
2211.767291092355
 21
1481.079336915839
 31
0.0
  0
LINE
  5
10FE
330
1F
100
AcDbEntity
  8
AM_VIS
100
AcDbLine
 10
2214.167291092355
 20
1480.579336915839
 30
0.0
 11
2213.217291092355
 21
1479.629336915839
 31
0.0
  0
LINE
  5
10FF
330
1F
100
AcDbEntity
  8
AM_VIS
100
AcDbLine
 10
2217.467291092356
 20
1480.579336915839
 30
0.0
 11
2214.167291092355
 21
1480.579336915839
 31
0.0
  0
LINE
  5
1100
330
1F
100
AcDbEntity
  8
AM_VIS
100
AcDbLine
 10
2217.967291092355
 20
1481.079336915839
 30
0.0
 11
2217.467291092356
 21
1480.579336915839
 31
0.0
  0
LINE
  5
1101
330
1F
100
AcDbEntity
  8
AM_VIS
100
AcDbLine
 10
2224.681433935209
 20
1481.079336915839
 30
0.0
 11
2217.967291092355
 21
1481.079336915839
 31
0.0
  0
LINE
  5
1102
330
1F
100
AcDbEntity
  8
AM_VIS
100
AcDbLine
 10
2224.967291092355
 20
1480.379336915839
 30
0.0
 11
2224.967291092355
 21
1456.079336915839
 31
0.0
  0
LINE
  5
1103
330
1F
100
AcDbEntity
  8
AM_VIS
100
AcDbLine
 10
2223.967291092356
 20
1455.079336915839
 30
0.0
 11
2210.467291092355
 21
1455.079336915839
 31
0.0
  0
LINE
  5
1104
330
1F
100
AcDbEntity
  8
AM_VIS
100
AcDbLine
 10
2207.467291092356
 20
1456.811387723408
 30
0.0
 11
2210.467291092355
 21
1455.079336915839
 31
0.0
  0
LINE
  5
1105
330
1F
100
AcDbEntity
  8
AM_VIS
100
AcDbLine
 10
2204.467291092356
 20
1455.079336915839
 30
0.0
 11
2207.467291092356
 21
1456.811387723408
 31
0.0
  0
LINE
  5
1106
330
1F
100
AcDbEntity
  8
AM_VIS
100
AcDbLine
 10
2204.467291092356
 20
1455.079336915839
 30
0.0
 11
2202.467291092355
 21
1455.079336915839
 31
0.0
  0
LINE
  5
1107
330
1F
100
AcDbEntity
  8
AM_VIS
100
AcDbLine
 10
2202.067291092355
 20
1455.479336915838
 30
0.0
 11
2202.467291092355
 21
1455.079336915839
 31
0.0
  0
LINE
  5
1108
330
1F
100
AcDbEntity
  8
AM_VIS
100
AcDbLine
 10
2201.667291092356
 20
1455.479336915838
 30
0.0
 11
2202.067291092355
 21
1455.479336915838
 31
0.0
  0
LINE
  5
1109
330
1F
100
AcDbEntity
  8
AM_VIS
100
AcDbLine
 10
2201.667291092356
 20
1455.979336915839
 30
0.0
 11
2201.667291092356
 21
1455.479336915838
 31
0.0
  0
LINE
  5
110A
330
1F
100
AcDbEntity
  8
AM_VIS
100
AcDbLine
 10
2202.117291092355
 20
1456.479336915839
 30
0.0
 11
2201.667291092356
 21
1455.979336915839
 31
0.0
  0
LINE
  5
110B
330
1F
100
AcDbEntity
  8
AM_VIS
100
AcDbLine
 10
2202.117291092355
 20
1457.079336915839
 30
0.0
 11
2202.117291092355
 21
1456.479336915839
 31
0.0
  0
LINE
  5
110C
330
1F
100
AcDbEntity
  8
AM_VIS
100
AcDbLine
 10
2197.817291092356
 20
1456.479336915839
 30
0.0
 11
2197.817291092356
 21
1457.079336915839
 31
0.0
  0
LINE
  5
110D
330
1F
100
AcDbEntity
  8
AM_VIS
100
AcDbLine
 10
2198.267291092355
 20
1455.979336915839
 30
0.0
 11
2197.817291092356
 21
1456.479336915839
 31
0.0
  0
LINE
  5
110E
330
1F
100
AcDbEntity
  8
AM_VIS
100
AcDbLine
 10
2198.267291092355
 20
1455.479336915838
 30
0.0
 11
2198.267291092355
 21
1455.979336915839
 31
0.0
  0
LINE
  5
110F
330
1F
100
AcDbEntity
  8
AM_VIS
100
AcDbLine
 10
2193.667291092356
 20
1455.479336915838
 30
0.0
 11
2198.267291092355
 21
1455.479336915838
 31
0.0
  0
LINE
  5
1110
330
1F
100
AcDbEntity
  8
AM_VIS
100
AcDbLine
 10
2193.667291092356
 20
1455.979336915839
 30
0.0
 11
2193.667291092356
 21
1455.479336915838
 31
0.0
  0
LINE
  5
1111
330
1F
100
AcDbEntity
  8
AM_VIS
100
AcDbLine
 10
2194.117291092355
 20
1456.479336915839
 30
0.0
 11
2193.667291092356
 21
1455.979336915839
 31
0.0
  0
LINE
  5
1112
330
1F
100
AcDbEntity
  8
AM_VIS
100
AcDbLine
 10
2194.117291092355
 20
1457.079336915839
 30
0.0
 11
2194.117291092355
 21
1456.479336915839
 31
0.0
  0
LINE
  5
1113
330
1F
100
AcDbEntity
  8
AM_VIS
100
AcDbLine
 10
2189.817291092356
 20
1456.479336915839
 30
0.0
 11
2189.817291092356
 21
1457.079336915839
 31
0.0
  0
LINE
  5
1114
330
1F
100
AcDbEntity
  8
AM_VIS
100
AcDbLine
 10
2190.267291092355
 20
1455.979336915839
 30
0.0
 11
2189.817291092355
 21
1456.479336915839
 31
0.0
  0
LINE
  5
1115
330
1F
100
AcDbEntity
  8
AM_VIS
100
AcDbLine
 10
2190.267291092355
 20
1455.479336915838
 30
0.0
 11
2190.267291092355
 21
1455.979336915839
 31
0.0
  0
LINE
  5
1116
330
1F
100
AcDbEntity
  8
AM_VIS
100
AcDbLine
 10
2189.867291092355
 20
1455.479336915838
 30
0.0
 11
2190.267291092355
 21
1455.479336915838
 31
0.0
  0
LINE
  5
1117
330
1F
100
AcDbEntity
  8
AM_VIS
100
AcDbLine
 10
2189.467291092356
 20
1455.079336915839
 30
0.0
 11
2189.867291092355
 21
1455.479336915838
 31
0.0
  0
LINE
  5
1118
330
1F
100
AcDbEntity
  8
AM_VIS
100
AcDbLine
 10
2189.467291092356
 20
1455.079336915839
 30
0.0
 11
2187.467291092355
 21
1455.079336915839
 31
0.0
  0
LINE
  5
1119
330
1F
100
AcDbEntity
  8
AM_VIS
100
AcDbLine
 10
2184.467291092356
 20
1456.811387723408
 30
0.0
 11
2187.467291092355
 21
1455.079336915839
 31
0.0
  0
LINE
  5
111A
330
1F
100
AcDbEntity
  8
AM_VIS
100
AcDbLine
 10
2181.467291092356
 20
1455.079336915839
 30
0.0
 11
2184.467291092356
 21
1456.811387723408
 31
0.0
  0
LINE
  5
111B
330
1F
100
AcDbEntity
  8
AM_VIS
100
AcDbLine
 10
2173.967291092356
 20
1481.079336915839
 30
0.0
 11
2167.253148249501
 21
1481.079336915839
 31
0.0
  0
LINE
  5
111C
330
1F
100
AcDbEntity
  8
AM_VIS
100
AcDbLine
 10
2181.467291092356
 20
1455.079336915839
 30
0.0
 11
2167.967291092355
 21
1455.079336915839
 31
0.0
  0
LINE
  5
111D
330
1F
100
AcDbEntity
  8
AM_VIS
100
AcDbLine
 10
2166.967291092356
 20
1456.079336915839
 30
0.0
 11
2166.967291092356
 21
1480.379336915839
 31
0.0
  0
ARC
  5
111E
330
1F
100
AcDbEntity
  8
AM_VIS
100
AcDbCircle
 10
2223.967291092356
 20
1480.379336915839
 30
0.0
 40
0.9999999999999998
100
AcDbArc
 50
0.0
 51
44.42700400081833
  0
ARC
  5
111F
330
1F
100
AcDbEntity
  8
AM_VIS
100
AcDbCircle
 10
2223.967291092356
 20
1456.079336915839
 30
0.0
 40
0.9999999999999998
100
AcDbArc
 50
270.0
 51
0.0
  0
ARC
  5
1120
330
1F
100
AcDbEntity
  8
AM_VIS
100
AcDbCircle
 10
2167.967291092355
 20
1456.079336915839
 30
0.0
 40
0.9999999999999998
100
AcDbArc
 50
180.0
 51
270.0
  0
ARC
  5
1121
330
1F
100
AcDbEntity
  8
AM_VIS
100
AcDbCircle
 10
2167.967291092355
 20
1480.379336915839
 30
0.0
 40
0.9999999999999998
100
AcDbArc
 50
135.5729959991816
 51
180.0
  0
LINE
  5
1122
330
1F
100
AcDbEntity
  8
AM_VIS
100
AcDbLine
 10
2189.817291092356
 20
1331.81430781342
 30
0.0
 11
2194.117291092355
 21
1331.81430781342
 31
0.0
  0
LINE
  5
1123
330
1F
100
AcDbEntity
  8
AM_VIS
100
AcDbLine
 10
2197.817291092356
 20
1331.81430781342
 30
0.0
 11
2202.117291092355
 21
1331.81430781342
 31
0.0
  0
LINE
  5
1124
330
1F
100
AcDbEntity
  8
AM_VIS
100
AcDbLine
 10
2202.117291092355
 20
1353.81430781342
 30
0.0
 11
2197.817291092356
 21
1353.81430781342
 31
0.0
  0
LINE
  5
1125
330
1F
100
AcDbEntity
  8
AM_VIS
100
AcDbLine
 10
2194.117291092355
 20
1353.81430781342
 30
0.0
 11
2189.817291092356
 21
1353.81430781342
 31
0.0
  0
LINE
  5
1126
330
1F
100
AcDbEntity
  8
AM_VIS
100
AcDbLine
 10
2166.967291092356
 20
1330.51430781342
 30
0.0
 11
2166.967291092356
 21
1354.81430781342
 31
0.0
  0
LINE
  5
1127
330
1F
100
AcDbEntity
  8
AM_VIS
100
AcDbLine
 10
2167.967291092355
 20
1355.81430781342
 30
0.0
 11
2181.467291092356
 21
1355.81430781342
 31
0.0
  0
LINE
  5
1128
330
1F
100
AcDbEntity
  8
AM_VIS
100
AcDbLine
 10
2184.467291092356
 20
1354.082257005851
 30
0.0
 11
2181.467291092356
 21
1355.81430781342
 31
0.0
  0
LINE
  5
1129
330
1F
100
AcDbEntity
  8
AM_VIS
100
AcDbLine
 10
2187.467291092355
 20
1355.81430781342
 30
0.0
 11
2184.467291092356
 21
1354.082257005851
 31
0.0
  0
LINE
  5
112A
330
1F
100
AcDbEntity
  8
AM_VIS
100
AcDbLine
 10
2187.467291092355
 20
1355.81430781342
 30
0.0
 11
2189.467291092356
 21
1355.81430781342
 31
0.0
  0
LINE
  5
112B
330
1F
100
AcDbEntity
  8
AM_VIS
100
AcDbLine
 10
2189.867291092355
 20
1355.41430781342
 30
0.0
 11
2189.467291092356
 21
1355.81430781342
 31
0.0
  0
LINE
  5
112C
330
1F
100
AcDbEntity
  8
AM_VIS
100
AcDbLine
 10
2190.267291092355
 20
1355.41430781342
 30
0.0
 11
2189.867291092355
 21
1355.41430781342
 31
0.0
  0
LINE
  5
112D
330
1F
100
AcDbEntity
  8
AM_VIS
100
AcDbLine
 10
2190.267291092355
 20
1354.91430781342
 30
0.0
 11
2190.267291092355
 21
1355.41430781342
 31
0.0
  0
LINE
  5
112E
330
1F
100
AcDbEntity
  8
AM_VIS
100
AcDbLine
 10
2189.817291092355
 20
1354.41430781342
 30
0.0
 11
2190.267291092355
 21
1354.91430781342
 31
0.0
  0
LINE
  5
112F
330
1F
100
AcDbEntity
  8
AM_VIS
100
AcDbLine
 10
2189.817291092356
 20
1352.31430781342
 30
0.0
 11
2189.817291092356
 21
1354.41430781342
 31
0.0
  0
LINE
  5
1130
330
1F
100
AcDbEntity
  8
AM_VIS
100
AcDbLine
 10
2192.417291092355
 20
1350.61430781342
 30
0.0
 11
2191.517291092355
 21
1350.61430781342
 31
0.0
  0
LINE
  5
1131
330
1F
100
AcDbEntity
  8
AM_VIS
100
AcDbLine
 10
2194.117291092355
 20
1354.41430781342
 30
0.0
 11
2194.117291092355
 21
1352.31430781342
 31
0.0
  0
LINE
  5
1132
330
1F
100
AcDbEntity
  8
AM_VIS
100
AcDbLine
 10
2193.667291092356
 20
1354.91430781342
 30
0.0
 11
2194.117291092355
 21
1354.41430781342
 31
0.0
  0
LINE
  5
1133
330
1F
100
AcDbEntity
  8
AM_VIS
100
AcDbLine
 10
2193.667291092356
 20
1355.41430781342
 30
0.0
 11
2193.667291092356
 21
1354.91430781342
 31
0.0
  0
LINE
  5
1134
330
1F
100
AcDbEntity
  8
AM_VIS
100
AcDbLine
 10
2198.267291092355
 20
1355.41430781342
 30
0.0
 11
2193.667291092356
 21
1355.41430781342
 31
0.0
  0
LINE
  5
1135
330
1F
100
AcDbEntity
  8
AM_VIS
100
AcDbLine
 10
2198.267291092355
 20
1354.91430781342
 30
0.0
 11
2198.267291092355
 21
1355.41430781342
 31
0.0
  0
LINE
  5
1136
330
1F
100
AcDbEntity
  8
AM_VIS
100
AcDbLine
 10
2197.817291092356
 20
1354.41430781342
 30
0.0
 11
2198.267291092355
 21
1354.91430781342
 31
0.0
  0
LINE
  5
1137
330
1F
100
AcDbEntity
  8
AM_VIS
100
AcDbLine
 10
2197.817291092356
 20
1352.31430781342
 30
0.0
 11
2197.817291092356
 21
1354.41430781342
 31
0.0
  0
LINE
  5
1138
330
1F
100
AcDbEntity
  8
AM_VIS
100
AcDbLine
 10
2200.417291092355
 20
1350.61430781342
 30
0.0
 11
2199.517291092355
 21
1350.61430781342
 31
0.0
  0
LINE
  5
1139
330
1F
100
AcDbEntity
  8
AM_VIS
100
AcDbLine
 10
2202.117291092355
 20
1354.41430781342
 30
0.0
 11
2202.117291092355
 21
1352.31430781342
 31
0.0
  0
LINE
  5
113A
330
1F
100
AcDbEntity
  8
AM_VIS
100
AcDbLine
 10
2201.667291092356
 20
1354.91430781342
 30
0.0
 11
2202.117291092355
 21
1354.41430781342
 31
0.0
  0
LINE
  5
113B
330
1F
100
AcDbEntity
  8
AM_VIS
100
AcDbLine
 10
2201.667291092356
 20
1355.41430781342
 30
0.0
 11
2201.667291092356
 21
1354.91430781342
 31
0.0
  0
LINE
  5
113C
330
1F
100
AcDbEntity
  8
AM_VIS
100
AcDbLine
 10
2202.067291092355
 20
1355.41430781342
 30
0.0
 11
2201.667291092356
 21
1355.41430781342
 31
0.0
  0
LINE
  5
113D
330
1F
100
AcDbEntity
  8
AM_VIS
100
AcDbLine
 10
2202.467291092355
 20
1355.81430781342
 30
0.0
 11
2202.067291092355
 21
1355.41430781342
 31
0.0
  0
LINE
  5
113E
330
1F
100
AcDbEntity
  8
AM_VIS
100
AcDbLine
 10
2202.467291092355
 20
1355.81430781342
 30
0.0
 11
2204.467291092356
 21
1355.81430781342
 31
0.0
  0
LINE
  5
113F
330
1F
100
AcDbEntity
  8
AM_VIS
100
AcDbLine
 10
2207.467291092356
 20
1354.082257005851
 30
0.0
 11
2204.467291092356
 21
1355.81430781342
 31
0.0
  0
LINE
  5
1140
330
1F
100
AcDbEntity
  8
AM_VIS
100
AcDbLine
 10
2210.467291092355
 20
1355.81430781342
 30
0.0
 11
2207.467291092356
 21
1354.082257005851
 31
0.0
  0
LINE
  5
1141
330
1F
100
AcDbEntity
  8
AM_VIS
100
AcDbLine
 10
2210.467291092355
 20
1355.81430781342
 30
0.0
 11
2223.967291092356
 21
1355.81430781342
 31
0.0
  0
LINE
  5
1142
330
1F
100
AcDbEntity
  8
AM_VIS
100
AcDbLine
 10
2224.967291092355
 20
1354.81430781342
 30
0.0
 11
2224.967291092355
 21
1330.51430781342
 31
0.0
  0
LINE
  5
1143
330
1F
100
AcDbEntity
  8
AM_VIS
100
AcDbLine
 10
2217.967291092355
 20
1329.81430781342
 30
0.0
 11
2224.681433935209
 21
1329.81430781342
 31
0.0
  0
LINE
  5
1144
330
1F
100
AcDbEntity
  8
AM_VIS
100
AcDbLine
 10
2217.467291092356
 20
1330.31430781342
 30
0.0
 11
2217.967291092355
 21
1329.81430781342
 31
0.0
  0
LINE
  5
1145
330
1F
100
AcDbEntity
  8
AM_VIS
100
AcDbLine
 10
2214.167291092355
 20
1330.31430781342
 30
0.0
 11
2217.467291092356
 21
1330.31430781342
 31
0.0
  0
LINE
  5
1146
330
1F
100
AcDbEntity
  8
AM_VIS
100
AcDbLine
 10
2213.217291092355
 20
1331.26430781342
 30
0.0
 11
2214.167291092355
 21
1330.31430781342
 31
0.0
  0
LINE
  5
1147
330
1F
100
AcDbEntity
  8
AM_VIS
100
AcDbLine
 10
2211.767291092355
 20
1329.81430781342
 30
0.0
 11
2213.217291092355
 21
1331.26430781342
 31
0.0
  0
LINE
  5
1148
330
1F
100
AcDbEntity
  8
AM_VIS
100
AcDbLine
 10
2203.167291092356
 20
1329.81430781342
 30
0.0
 11
2211.767291092355
 21
1329.81430781342
 31
0.0
  0
LINE
  5
1149
330
1F
100
AcDbEntity
  8
AM_VIS
100
AcDbLine
 10
2202.767291092355
 20
1330.21430781342
 30
0.0
 11
2203.167291092356
 21
1329.81430781342
 31
0.0
  0
LINE
  5
114A
330
1F
100
AcDbEntity
  8
AM_VIS
100
AcDbLine
 10
2201.667291092356
 20
1330.21430781342
 30
0.0
 11
2202.767291092355
 21
1330.21430781342
 31
0.0
  0
LINE
  5
114B
330
1F
100
AcDbEntity
  8
AM_VIS
100
AcDbLine
 10
2201.667291092356
 20
1330.71430781342
 30
0.0
 11
2201.667291092356
 21
1330.21430781342
 31
0.0
  0
LINE
  5
114C
330
1F
100
AcDbEntity
  8
AM_VIS
100
AcDbLine
 10
2202.117291092355
 20
1331.21430781342
 30
0.0
 11
2201.667291092356
 21
1330.71430781342
 31
0.0
  0
LINE
  5
114D
330
1F
100
AcDbEntity
  8
AM_VIS
100
AcDbLine
 10
2202.117291092355
 20
1333.31430781342
 30
0.0
 11
2202.117291092355
 21
1331.21430781342
 31
0.0
  0
LINE
  5
114E
330
1F
100
AcDbEntity
  8
AM_VIS
100
AcDbLine
 10
2199.517291092355
 20
1335.01430781342
 30
0.0
 11
2200.417291092355
 21
1335.01430781342
 31
0.0
  0
LINE
  5
114F
330
1F
100
AcDbEntity
  8
AM_VIS
100
AcDbLine
 10
2197.817291092356
 20
1331.21430781342
 30
0.0
 11
2197.817291092356
 21
1333.31430781342
 31
0.0
  0
LINE
  5
1150
330
1F
100
AcDbEntity
  8
AM_VIS
100
AcDbLine
 10
2198.267291092355
 20
1330.71430781342
 30
0.0
 11
2197.817291092356
 21
1331.21430781342
 31
0.0
  0
LINE
  5
1151
330
1F
100
AcDbEntity
  8
AM_VIS
100
AcDbLine
 10
2198.267291092355
 20
1330.21430781342
 30
0.0
 11
2198.267291092355
 21
1330.71430781342
 31
0.0
  0
LINE
  5
1152
330
1F
100
AcDbEntity
  8
AM_VIS
100
AcDbLine
 10
2193.667291092356
 20
1330.21430781342
 30
0.0
 11
2198.267291092355
 21
1330.21430781342
 31
0.0
  0
LINE
  5
1153
330
1F
100
AcDbEntity
  8
AM_VIS
100
AcDbLine
 10
2193.667291092356
 20
1330.71430781342
 30
0.0
 11
2193.667291092356
 21
1330.21430781342
 31
0.0
  0
LINE
  5
1154
330
1F
100
AcDbEntity
  8
AM_VIS
100
AcDbLine
 10
2194.117291092355
 20
1331.21430781342
 30
0.0
 11
2193.667291092356
 21
1330.71430781342
 31
0.0
  0
LINE
  5
1155
330
1F
100
AcDbEntity
  8
AM_VIS
100
AcDbLine
 10
2194.117291092355
 20
1333.31430781342
 30
0.0
 11
2194.117291092355
 21
1331.21430781342
 31
0.0
  0
LINE
  5
1156
330
1F
100
AcDbEntity
  8
AM_VIS
100
AcDbLine
 10
2191.517291092355
 20
1335.01430781342
 30
0.0
 11
2192.417291092355
 21
1335.01430781342
 31
0.0
  0
LINE
  5
1157
330
1F
100
AcDbEntity
  8
AM_VIS
100
AcDbLine
 10
2189.817291092356
 20
1331.21430781342
 30
0.0
 11
2189.817291092356
 21
1333.31430781342
 31
0.0
  0
LINE
  5
1158
330
1F
100
AcDbEntity
  8
AM_VIS
100
AcDbLine
 10
2190.267291092355
 20
1330.71430781342
 30
0.0
 11
2189.817291092356
 21
1331.21430781342
 31
0.0
  0
LINE
  5
1159
330
1F
100
AcDbEntity
  8
AM_VIS
100
AcDbLine
 10
2190.267291092355
 20
1330.21430781342
 30
0.0
 11
2190.267291092355
 21
1330.71430781342
 31
0.0
  0
LINE
  5
115A
330
1F
100
AcDbEntity
  8
AM_VIS
100
AcDbLine
 10
2189.167291092355
 20
1330.21430781342
 30
0.0
 11
2190.267291092355
 21
1330.21430781342
 31
0.0
  0
LINE
  5
115B
330
1F
100
AcDbEntity
  8
AM_VIS
100
AcDbLine
 10
2188.767291092355
 20
1329.81430781342
 30
0.0
 11
2189.167291092355
 21
1330.21430781342
 31
0.0
  0
LINE
  5
115C
330
1F
100
AcDbEntity
  8
AM_VIS
100
AcDbLine
 10
2180.167291092355
 20
1329.81430781342
 30
0.0
 11
2188.767291092355
 21
1329.81430781342
 31
0.0
  0
LINE
  5
115D
330
1F
100
AcDbEntity
  8
AM_VIS
100
AcDbLine
 10
2178.717291092356
 20
1331.26430781342
 30
0.0
 11
2180.167291092355
 21
1329.81430781342
 31
0.0
  0
LINE
  5
115E
330
1F
100
AcDbEntity
  8
AM_VIS
100
AcDbLine
 10
2177.767291092355
 20
1330.31430781342
 30
0.0
 11
2178.717291092356
 21
1331.26430781342
 31
0.0
  0
LINE
  5
115F
330
1F
100
AcDbEntity
  8
AM_VIS
100
AcDbLine
 10
2174.467291092355
 20
1330.31430781342
 30
0.0
 11
2177.767291092355
 21
1330.31430781342
 31
0.0
  0
LINE
  5
1160
330
1F
100
AcDbEntity
  8
AM_VIS
100
AcDbLine
 10
2173.967291092356
 20
1329.81430781342
 30
0.0
 11
2174.467291092355
 21
1330.31430781342
 31
0.0
  0
LINE
  5
1161
330
1F
100
AcDbEntity
  8
AM_VIS
100
AcDbLine
 10
2167.253148249501
 20
1329.81430781342
 30
0.0
 11
2173.967291092356
 21
1329.81430781342
 31
0.0
  0
ARC
  5
1162
330
1F
100
AcDbEntity
  8
AM_VIS
100
AcDbCircle
 10
2167.967291092355
 20
1330.51430781342
 30
0.0
 40
0.9999999999999998
100
AcDbArc
 50
180.0
 51
224.4270040008183
  0
ARC
  5
1163
330
1F
100
AcDbEntity
  8
AM_VIS
100
AcDbCircle
 10
2167.967291092355
 20
1354.81430781342
 30
0.0
 40
0.9999999999999998
100
AcDbArc
 50
90.0
 51
180.0
  0
ARC
  5
1164
330
1F
100
AcDbEntity
  8
AM_VIS
100
AcDbCircle
 10
2191.517291092355
 20
1352.31430781342
 30
0.0
 40
1.7
100
AcDbArc
 50
180.0
 51
270.0
  0
ARC
  5
1165
330
1F
100
AcDbEntity
  8
AM_VIS
100
AcDbCircle
 10
2192.417291092355
 20
1352.31430781342
 30
0.0
 40
1.7
100
AcDbArc
 50
270.0
 51
0.0
  0
ARC
  5
1166
330
1F
100
AcDbEntity
  8
AM_VIS
100
AcDbCircle
 10
2199.517291092355
 20
1352.31430781342
 30
0.0
 40
1.7
100
AcDbArc
 50
180.0
 51
270.0
  0
ARC
  5
1167
330
1F
100
AcDbEntity
  8
AM_VIS
100
AcDbCircle
 10
2200.417291092355
 20
1352.31430781342
 30
0.0
 40
1.7
100
AcDbArc
 50
270.0
 51
0.0
  0
ARC
  5
1168
330
1F
100
AcDbEntity
  8
AM_VIS
100
AcDbCircle
 10
2223.967291092356
 20
1354.81430781342
 30
0.0
 40
0.9999999999999998
100
AcDbArc
 50
0.0
 51
90.0
  0
ARC
  5
1169
330
1F
100
AcDbEntity
  8
AM_VIS
100
AcDbCircle
 10
2223.967291092356
 20
1330.51430781342
 30
0.0
 40
0.9999999999999998
100
AcDbArc
 50
315.5729959991817
 51
0.0
  0
ARC
  5
116A
330
1F
100
AcDbEntity
  8
AM_VIS
100
AcDbCircle
 10
2200.417291092355
 20
1333.31430781342
 30
0.0
 40
1.7
100
AcDbArc
 50
0.0
 51
90.0
  0
ARC
  5
116B
330
1F
100
AcDbEntity
  8
AM_VIS
100
AcDbCircle
 10
2199.517291092355
 20
1333.31430781342
 30
0.0
 40
1.7
100
AcDbArc
 50
90.0
 51
180.0
  0
ARC
  5
116C
330
1F
100
AcDbEntity
  8
AM_VIS
100
AcDbCircle
 10
2192.417291092355
 20
1333.31430781342
 30
0.0
 40
1.7
100
AcDbArc
 50
0.0
 51
90.0
  0
ARC
  5
116D
330
1F
100
AcDbEntity
  8
AM_VIS
100
AcDbCircle
 10
2191.517291092355
 20
1333.31430781342
 30
0.0
 40
1.7
100
AcDbArc
 50
90.0
 51
180.0
  0
LINE
  5
116E
330
1F
100
AcDbEntity
  8
AM_VIS
100
AcDbLine
 10
2120.619601263067
 20
1436.025429166283
 30
0.0
 11
2120.369601263067
 21
1435.775429166282
 31
0.0
  0
LINE
  5
116F
330
1F
100
AcDbEntity
  8
AM_VIS
100
AcDbLine
 10
2141.619601263067
 20
1436.025429166283
 30
0.0
 11
2141.869601263067
 21
1435.775429166282
 31
0.0
  0
LINE
  5
1170
330
1F
100
AcDbEntity
  8
AM_VIS
100
AcDbLine
 10
2141.869601263067
 20
1435.775429166282
 30
0.0
 11
2142.119601263066
 21
1435.525429166283
 31
0.0
  0
LINE
  5
1171
330
1F
100
AcDbEntity
  8
AM_VIS
100
AcDbLine
 10
2142.119601263066
 20
1428.525429166283
 30
0.0
 11
2142.119601263066
 21
1435.525429166283
 31
0.0
  0
LINE
  5
1172
330
1F
100
AcDbEntity
  8
AM_VIS
100
AcDbLine
 10
2120.119601263067
 20
1435.525429166283
 30
0.0
 11
2120.369601263067
 21
1435.775429166282
 31
0.0
  0
LINE
  5
1173
330
1F
100
AcDbEntity
  8
AM_VIS
100
AcDbLine
 10
2120.119601263067
 20
1435.525429166283
 30
0.0
 11
2120.119601263067
 21
1428.525429166283
 31
0.0
  0
LINE
  5
1174
330
1F
100
AcDbEntity
  8
AM_VIS
100
AcDbLine
 10
2120.369601263067
 20
1428.275429166283
 30
0.0
 11
2120.119601263067
 21
1428.525429166283
 31
0.0
  0
LINE
  5
1175
330
1F
100
AcDbEntity
  8
AM_VIS
100
AcDbLine
 10
2142.119601263066
 20
1428.525429166283
 30
0.0
 11
2141.869601263067
 21
1428.275429166283
 31
0.0
  0
LINE
  5
1176
330
1F
100
AcDbEntity
  8
AM_VIS
100
AcDbLine
 10
2141.619601263067
 20
1428.025429166283
 30
0.0
 11
2141.869601263067
 21
1428.275429166283
 31
0.0
  0
LINE
  5
1177
330
1F
100
AcDbEntity
  8
AM_VIS
100
AcDbLine
 10
2120.369601263067
 20
1428.275429166283
 30
0.0
 11
2120.619601263067
 21
1428.025429166283
 31
0.0
  0
LINE
  5
1178
330
1F
100
AcDbEntity
  8
AM_VIS
100
AcDbLine
 10
2141.619601263067
 20
1436.025429166283
 30
0.0
 11
2120.619601263067
 21
1436.025429166283
 31
0.0
  0
LINE
  5
1179
330
1F
100
AcDbEntity
  8
AM_VIS
100
AcDbLine
 10
2120.619601263067
 20
1428.025429166283
 30
0.0
 11
2141.619601263067
 21
1428.025429166283
 31
0.0
  0
LINE
  5
117A
330
1F
100
AcDbEntity
  8
AM_VIS
100
AcDbLine
 10
2118.119601263067
 20
1426.025429166283
 30
0.0
 11
2118.119601263067
 21
1387.025429166283
 31
0.0
  0
LINE
  5
117B
330
1F
100
AcDbEntity
  8
AM_VIS
100
AcDbLine
 10
2144.119601263067
 20
1387.025429166283
 30
0.0
 11
2144.119601263067
 21
1426.025429166283
 31
0.0
  0
LINE
  5
117C
330
1F
100
AcDbEntity
  8
AM_VIS
100
AcDbLine
 10
2143.119601263067
 20
1426.025429166283
 30
0.0
 11
2118.819601263067
 21
1426.025429166283
 31
0.0
  0
LINE
  5
117D
330
1F
100
AcDbEntity
  8
AM_VIS
100
AcDbLine
 10
2118.819601263067
 20
1387.025429166283
 30
0.0
 11
2143.119601263067
 21
1387.025429166283
 31
0.0
  0
LINE
  5
117E
330
1F
100
AcDbEntity
  8
AM_VIS
100
AcDbLine
 10
2143.119601263067
 20
1426.025429166283
 30
0.0
 11
2144.119601263067
 21
1426.025429166283
 31
0.0
  0
LINE
  5
117F
330
1F
100
AcDbEntity
  8
AM_VIS
100
AcDbLine
 10
2118.119601263067
 20
1426.025429166283
 30
0.0
 11
2118.819601263067
 21
1426.025429166283
 31
0.0
  0
LINE
  5
1180
330
1F
100
AcDbEntity
  8
AM_VIS
100
AcDbLine
 10
2118.819601263067
 20
1387.025429166283
 30
0.0
 11
2118.119601263067
 21
1387.025429166283
 31
0.0
  0
LINE
  5
1181
330
1F
100
AcDbEntity
  8
AM_VIS
100
AcDbLine
 10
2144.119601263067
 20
1387.025429166283
 30
0.0
 11
2143.119601263067
 21
1387.025429166283
 31
0.0
  0
LINE
  5
1182
330
1F
100
AcDbEntity
  8
AM_VIS
100
AcDbLine
 10
2253.97163054705
 20
1435.525429166283
 30
0.0
 11
2254.22163054705
 21
1435.775429166282
 31
0.0
  0
LINE
  5
1183
330
1F
100
AcDbEntity
  8
AM_VIS
100
AcDbLine
 10
2254.47163054705
 20
1436.025429166283
 30
0.0
 11
2254.22163054705
 21
1435.775429166282
 31
0.0
  0
LINE
  5
1184
330
1F
100
AcDbEntity
  8
AM_VIS
100
AcDbLine
 10
2275.72163054705
 20
1435.775429166282
 30
0.0
 11
2275.47163054705
 21
1436.025429166283
 31
0.0
  0
LINE
  5
1185
330
1F
100
AcDbEntity
  8
AM_VIS
100
AcDbLine
 10
2275.72163054705
 20
1435.775429166282
 30
0.0
 11
2275.97163054705
 21
1435.525429166283
 31
0.0
  0
LINE
  5
1186
330
1F
100
AcDbEntity
  8
AM_VIS
100
AcDbLine
 10
2253.97163054705
 20
1435.525429166283
 30
0.0
 11
2253.97163054705
 21
1428.525429166283
 31
0.0
  0
LINE
  5
1187
330
1F
100
AcDbEntity
  8
AM_VIS
100
AcDbLine
 10
2275.97163054705
 20
1428.525429166283
 30
0.0
 11
2275.97163054705
 21
1435.525429166283
 31
0.0
  0
LINE
  5
1188
330
1F
100
AcDbEntity
  8
AM_VIS
100
AcDbLine
 10
2275.72163054705
 20
1428.275429166283
 30
0.0
 11
2275.47163054705
 21
1428.025429166283
 31
0.0
  0
LINE
  5
1189
330
1F
100
AcDbEntity
  8
AM_VIS
100
AcDbLine
 10
2275.97163054705
 20
1428.525429166283
 30
0.0
 11
2275.72163054705
 21
1428.275429166283
 31
0.0
  0
LINE
  5
118A
330
1F
100
AcDbEntity
  8
AM_VIS
100
AcDbLine
 10
2254.22163054705
 20
1428.275429166283
 30
0.0
 11
2253.97163054705
 21
1428.525429166283
 31
0.0
  0
LINE
  5
118B
330
1F
100
AcDbEntity
  8
AM_VIS
100
AcDbLine
 10
2254.47163054705
 20
1428.025429166283
 30
0.0
 11
2254.22163054705
 21
1428.275429166283
 31
0.0
  0
LINE
  5
118C
330
1F
100
AcDbEntity
  8
AM_VIS
100
AcDbLine
 10
2275.47163054705
 20
1436.025429166283
 30
0.0
 11
2254.47163054705
 21
1436.025429166283
 31
0.0
  0
LINE
  5
118D
330
1F
100
AcDbEntity
  8
AM_VIS
100
AcDbLine
 10
2254.47163054705
 20
1428.025429166283
 30
0.0
 11
2275.47163054705
 21
1428.025429166283
 31
0.0
  0
LINE
  5
118E
330
1F
100
AcDbEntity
  8
AM_VIS
100
AcDbLine
 10
2251.971630547049
 20
1426.025429166283
 30
0.0
 11
2251.971630547049
 21
1387.025429166283
 31
0.0
  0
LINE
  5
118F
330
1F
100
AcDbEntity
  8
AM_VIS
100
AcDbLine
 10
2277.97163054705
 20
1387.025429166283
 30
0.0
 11
2277.97163054705
 21
1426.025429166283
 31
0.0
  0
LINE
  5
1190
330
1F
100
AcDbEntity
  8
AM_VIS
100
AcDbLine
 10
2277.271630547049
 20
1426.025429166283
 30
0.0
 11
2252.971630547049
 21
1426.025429166283
 31
0.0
  0
LINE
  5
1191
330
1F
100
AcDbEntity
  8
AM_VIS
100
AcDbLine
 10
2252.971630547049
 20
1387.025429166283
 30
0.0
 11
2277.271630547049
 21
1387.025429166283
 31
0.0
  0
LINE
  5
1192
330
1F
100
AcDbEntity
  8
AM_VIS
100
AcDbLine
 10
2277.271630547049
 20
1426.025429166283
 30
0.0
 11
2277.97163054705
 21
1426.025429166283
 31
0.0
  0
LINE
  5
1193
330
1F
100
AcDbEntity
  8
AM_VIS
100
AcDbLine
 10
2251.971630547049
 20
1426.025429166283
 30
0.0
 11
2252.971630547049
 21
1426.025429166283
 31
0.0
  0
LINE
  5
1194
330
1F
100
AcDbEntity
  8
AM_VIS
100
AcDbLine
 10
2252.971630547049
 20
1387.025429166283
 30
0.0
 11
2251.971630547049
 21
1387.025429166283
 31
0.0
  0
LINE
  5
1195
330
1F
100
AcDbEntity
  8
AM_VIS
100
AcDbLine
 10
2277.97163054705
 20
1387.025429166283
 30
0.0
 11
2277.271630547049
 21
1387.025429166283
 31
0.0
  0
LINE
  5
1196
330
1F
100
AcDbEntity
  8
AM_VIS
100
AcDbLine
 10
2364.35674886636
 20
1436.025429166283
 30
0.0
 11
2364.60674886636
 21
1435.775429166282
 31
0.0
  0
LINE
  5
1197
330
1F
100
AcDbEntity
  8
AM_VIS
100
AcDbLine
 10
2309.10674886636
 20
1435.775429166282
 30
0.0
 11
2309.35674886636
 21
1436.025429166283
 31
0.0
  0
LINE
  5
1198
330
1F
100
AcDbEntity
  8
AM_VIS
100
AcDbLine
 10
2308.85674886636
 20
1435.525429166283
 30
0.0
 11
2309.10674886636
 21
1435.775429166282
 31
0.0
  0
LINE
  5
1199
330
1F
100
AcDbEntity
  8
AM_VIS
100
AcDbLine
 10
2308.85674886636
 20
1435.525429166283
 30
0.0
 11
2308.85674886636
 21
1428.525429166283
 31
0.0
  0
LINE
  5
119A
330
1F
100
AcDbEntity
  8
AM_VIS
100
AcDbLine
 10
2309.10674886636
 20
1428.275429166283
 30
0.0
 11
2308.85674886636
 21
1428.525429166283
 31
0.0
  0
LINE
  5
119B
330
1F
100
AcDbEntity
  8
AM_VIS
100
AcDbLine
 10
2364.60674886636
 20
1435.775429166282
 30
0.0
 11
2364.85674886636
 21
1435.525429166283
 31
0.0
  0
LINE
  5
119C
330
1F
100
AcDbEntity
  8
AM_VIS
100
AcDbLine
 10
2364.85674886636
 20
1428.525429166283
 30
0.0
 11
2364.85674886636
 21
1435.525429166283
 31
0.0
  0
LINE
  5
119D
330
1F
100
AcDbEntity
  8
AM_VIS
100
AcDbLine
 10
2309.10674886636
 20
1428.275429166283
 30
0.0
 11
2309.35674886636
 21
1428.025429166283
 31
0.0
  0
LINE
  5
119E
330
1F
100
AcDbEntity
  8
AM_VIS
100
AcDbLine
 10
2364.60674886636
 20
1428.275429166283
 30
0.0
 11
2364.35674886636
 21
1428.025429166283
 31
0.0
  0
LINE
  5
119F
330
1F
100
AcDbEntity
  8
AM_VIS
100
AcDbLine
 10
2364.85674886636
 20
1428.525429166283
 30
0.0
 11
2364.60674886636
 21
1428.275429166283
 31
0.0
  0
LINE
  5
11A0
330
1F
100
AcDbEntity
  8
AM_VIS
100
AcDbLine
 10
2364.35674886636
 20
1436.025429166283
 30
0.0
 11
2309.35674886636
 21
1436.025429166283
 31
0.0
  0
LINE
  5
11A1
330
1F
100
AcDbEntity
  8
AM_VIS
100
AcDbLine
 10
2309.35674886636
 20
1428.025429166283
 30
0.0
 11
2364.35674886636
 21
1428.025429166283
 31
0.0
  0
LINE
  5
11A2
330
1F
100
AcDbEntity
  8
AM_VIS
100
AcDbLine
 10
2318.65674886636
 20
1426.025429166283
 30
0.0
 11
2318.65674886636
 21
1387.025429166283
 31
0.0
  0
LINE
  5
11A3
330
1F
100
AcDbEntity
  8
AM_VIS
100
AcDbLine
 10
2315.35674886636
 20
1426.025429166283
 30
0.0
 11
2315.35674886636
 21
1387.025429166283
 31
0.0
  0
LINE
  5
11A4
330
1F
100
AcDbEntity
  8
AM_VIS
100
AcDbLine
 10
2358.35674886636
 20
1426.025429166283
 30
0.0
 11
2358.35674886636
 21
1387.025429166283
 31
0.0
  0
LINE
  5
11A5
330
1F
100
AcDbEntity
  8
AM_VIS
100
AcDbLine
 10
2354.10674886636
 20
1426.025429166283
 30
0.0
 11
2354.10674886636
 21
1387.025429166283
 31
0.0
  0
LINE
  5
11A6
330
1F
100
AcDbEntity
  8
AM_VIS
100
AcDbLine
 10
2355.05674886636
 20
1426.025429166283
 30
0.0
 11
2355.05674886636
 21
1387.025429166283
 31
0.0
  0
LINE
  5
11A7
330
1F
100
AcDbEntity
  8
AM_VIS
100
AcDbLine
 10
2330.05674886636
 20
1426.025429166283
 30
0.0
 11
2330.05674886636
 21
1387.025429166283
 31
0.0
  0
LINE
  5
11A8
330
1F
100
AcDbEntity
  8
AM_VIS
100
AcDbLine
 10
2334.55674886636
 20
1426.025429166283
 30
0.0
 11
2334.55674886636
 21
1387.025429166283
 31
0.0
  0
LINE
  5
11A9
330
1F
100
AcDbEntity
  8
AM_VIS
100
AcDbLine
 10
2331.15674886636
 20
1387.025429166283
 30
0.0
 11
2331.15674886636
 21
1426.025429166283
 31
0.0
  0
LINE
  5
11AA
330
1F
100
AcDbEntity
  8
AM_VIS
100
AcDbLine
 10
2342.55674886636
 20
1426.025429166283
 30
0.0
 11
2342.55674886636
 21
1387.025429166283
 31
0.0
  0
LINE
  5
11AB
330
1F
100
AcDbEntity
  8
AM_VIS
100
AcDbLine
 10
2339.15674886636
 20
1387.025429166283
 30
0.0
 11
2339.15674886636
 21
1426.025429166283
 31
0.0
  0
LINE
  5
11AC
330
1F
100
AcDbEntity
  8
AM_VIS
100
AcDbLine
 10
2343.65674886636
 20
1426.025429166283
 30
0.0
 11
2343.65674886636
 21
1387.025429166283
 31
0.0
  0
LINE
  5
11AD
330
1F
100
AcDbEntity
  8
AM_VIS
100
AcDbLine
 10
2319.60674886636
 20
1426.025429166283
 30
0.0
 11
2319.60674886636
 21
1387.025429166283
 31
0.0
  0
LINE
  5
11AE
330
1F
100
AcDbEntity
  8
AM_VIS
100
AcDbLine
 10
2307.85674886636
 20
1426.025429166283
 30
0.0
 11
2307.85674886636
 21
1387.025429166283
 31
0.0
  0
LINE
  5
11AF
330
1F
100
AcDbEntity
  8
AM_VIS
100
AcDbLine
 10
2344.05674886636
 20
1387.025429166283
 30
0.0
 11
2344.05674886636
 21
1426.025429166283
 31
0.0
  0
LINE
  5
11B0
330
1F
100
AcDbEntity
  8
AM_VIS
100
AcDbLine
 10
2352.65674886636
 20
1426.025429166283
 30
0.0
 11
2352.65674886636
 21
1387.025429166283
 31
0.0
  0
LINE
  5
11B1
330
1F
100
AcDbEntity
  8
AM_VIS
100
AcDbLine
 10
2321.05674886636
 20
1387.025429166283
 30
0.0
 11
2321.05674886636
 21
1426.025429166283
 31
0.0
  0
LINE
  5
11B2
330
1F
100
AcDbEntity
  8
AM_VIS
100
AcDbLine
 10
2329.65674886636
 20
1426.025429166283
 30
0.0
 11
2329.65674886636
 21
1387.025429166283
 31
0.0
  0
LINE
  5
11B3
330
1F
100
AcDbEntity
  8
AM_VIS
100
AcDbLine
 10
2314.85674886636
 20
1426.025429166283
 30
0.0
 11
2314.85674886636
 21
1387.025429166283
 31
0.0
  0
LINE
  5
11B4
330
1F
100
AcDbEntity
  8
AM_VIS
100
AcDbLine
 10
2358.85674886636
 20
1387.025429166283
 30
0.0
 11
2358.85674886636
 21
1426.025429166283
 31
0.0
  0
LINE
  5
11B5
330
1F
100
AcDbEntity
  8
AM_VIS
100
AcDbLine
 10
2358.35674886636
 20
1426.025429166283
 30
0.0
 11
2358.85674886636
 21
1426.025429166283
 31
0.0
  0
LINE
  5
11B6
330
1F
100
AcDbEntity
  8
AM_VIS
100
AcDbLine
 10
2355.05674886636
 20
1426.025429166283
 30
0.0
 11
2358.35674886636
 21
1426.025429166283
 31
0.0
  0
LINE
  5
11B7
330
1F
100
AcDbEntity
  8
AM_VIS
100
AcDbLine
 10
2354.10674886636
 20
1426.025429166283
 30
0.0
 11
2355.05674886636
 21
1426.025429166283
 31
0.0
  0
LINE
  5
11B8
330
1F
100
AcDbEntity
  8
AM_VIS
100
AcDbLine
 10
2352.65674886636
 20
1426.025429166283
 30
0.0
 11
2354.10674886636
 21
1426.025429166283
 31
0.0
  0
LINE
  5
11B9
330
1F
100
AcDbEntity
  8
AM_VIS
100
AcDbLine
 10
2344.05674886636
 20
1426.025429166283
 30
0.0
 11
2352.65674886636
 21
1426.025429166283
 31
0.0
  0
LINE
  5
11BA
330
1F
100
AcDbEntity
  8
AM_VIS
100
AcDbLine
 10
2343.65674886636
 20
1426.025429166283
 30
0.0
 11
2344.05674886636
 21
1426.025429166283
 31
0.0
  0
LINE
  5
11BB
330
1F
100
AcDbEntity
  8
AM_VIS
100
AcDbLine
 10
2342.55674886636
 20
1426.025429166283
 30
0.0
 11
2343.65674886636
 21
1426.025429166283
 31
0.0
  0
LINE
  5
11BC
330
1F
100
AcDbEntity
  8
AM_VIS
100
AcDbLine
 10
2340.40674886636
 20
1426.025429166283
 30
0.0
 11
2341.30674886636
 21
1426.025429166283
 31
0.0
  0
LINE
  5
11BD
330
1F
100
AcDbEntity
  8
AM_VIS
100
AcDbLine
 10
2334.55674886636
 20
1426.025429166283
 30
0.0
 11
2339.15674886636
 21
1426.025429166283
 31
0.0
  0
LINE
  5
11BE
330
1F
100
AcDbEntity
  8
AM_VIS
100
AcDbLine
 10
2332.40674886636
 20
1426.025429166283
 30
0.0
 11
2333.30674886636
 21
1426.025429166283
 31
0.0
  0
LINE
  5
11BF
330
1F
100
AcDbEntity
  8
AM_VIS
100
AcDbLine
 10
2330.056748866359
 20
1426.025429166283
 30
0.0
 11
2331.15674886636
 21
1426.025429166283
 31
0.0
  0
LINE
  5
11C0
330
1F
100
AcDbEntity
  8
AM_VIS
100
AcDbLine
 10
2329.65674886636
 20
1426.025429166283
 30
0.0
 11
2330.05674886636
 21
1426.025429166283
 31
0.0
  0
LINE
  5
11C1
330
1F
100
AcDbEntity
  8
AM_VIS
100
AcDbLine
 10
2321.05674886636
 20
1426.025429166283
 30
0.0
 11
2329.65674886636
 21
1426.025429166283
 31
0.0
  0
LINE
  5
11C2
330
1F
100
AcDbEntity
  8
AM_VIS
100
AcDbLine
 10
2319.60674886636
 20
1426.025429166283
 30
0.0
 11
2321.05674886636
 21
1426.025429166283
 31
0.0
  0
LINE
  5
11C3
330
1F
100
AcDbEntity
  8
AM_VIS
100
AcDbLine
 10
2318.65674886636
 20
1426.025429166283
 30
0.0
 11
2319.60674886636
 21
1426.025429166283
 31
0.0
  0
LINE
  5
11C4
330
1F
100
AcDbEntity
  8
AM_VIS
100
AcDbLine
 10
2315.35674886636
 20
1426.025429166283
 30
0.0
 11
2318.65674886636
 21
1426.025429166283
 31
0.0
  0
LINE
  5
11C5
330
1F
100
AcDbEntity
  8
AM_VIS
100
AcDbLine
 10
2314.85674886636
 20
1426.025429166283
 30
0.0
 11
2315.35674886636
 21
1426.025429166283
 31
0.0
  0
LINE
  5
11C6
330
1F
100
AcDbEntity
  8
AM_VIS
100
AcDbLine
 10
2308.142606023506
 20
1426.025429166283
 30
0.0
 11
2314.85674886636
 21
1426.025429166283
 31
0.0
  0
LINE
  5
11C7
330
1F
100
AcDbEntity
  8
AM_VIS
100
AcDbLine
 10
2358.85674886636
 20
1426.025429166283
 30
0.0
 11
2365.570891709214
 21
1426.025429166283
 31
0.0
  0
LINE
  5
11C8
330
1F
100
AcDbEntity
  8
AM_VIS
100
AcDbLine
 10
2365.85674886636
 20
1387.025429166283
 30
0.0
 11
2365.85674886636
 21
1426.025429166283
 31
0.0
  0
LINE
  5
11C9
330
1F
100
AcDbEntity
  8
AM_VIS
100
AcDbLine
 10
2314.85674886636
 20
1387.025429166283
 30
0.0
 11
2308.142606023506
 21
1387.025429166283
 31
0.0
  0
LINE
  5
11CA
330
1F
100
AcDbEntity
  8
AM_VIS
100
AcDbLine
 10
2315.35674886636
 20
1387.025429166283
 30
0.0
 11
2314.85674886636
 21
1387.025429166283
 31
0.0
  0
LINE
  5
11CB
330
1F
100
AcDbEntity
  8
AM_VIS
100
AcDbLine
 10
2318.65674886636
 20
1387.025429166283
 30
0.0
 11
2315.35674886636
 21
1387.025429166283
 31
0.0
  0
LINE
  5
11CC
330
1F
100
AcDbEntity
  8
AM_VIS
100
AcDbLine
 10
2319.60674886636
 20
1387.025429166283
 30
0.0
 11
2318.65674886636
 21
1387.025429166283
 31
0.0
  0
LINE
  5
11CD
330
1F
100
AcDbEntity
  8
AM_VIS
100
AcDbLine
 10
2321.05674886636
 20
1387.025429166283
 30
0.0
 11
2319.60674886636
 21
1387.025429166283
 31
0.0
  0
LINE
  5
11CE
330
1F
100
AcDbEntity
  8
AM_VIS
100
AcDbLine
 10
2329.65674886636
 20
1387.025429166283
 30
0.0
 11
2321.05674886636
 21
1387.025429166283
 31
0.0
  0
LINE
  5
11CF
330
1F
100
AcDbEntity
  8
AM_VIS
100
AcDbLine
 10
2330.05674886636
 20
1387.025429166283
 30
0.0
 11
2329.65674886636
 21
1387.025429166283
 31
0.0
  0
LINE
  5
11D0
330
1F
100
AcDbEntity
  8
AM_VIS
100
AcDbLine
 10
2331.15674886636
 20
1387.025429166283
 30
0.0
 11
2330.056748866359
 21
1387.025429166283
 31
0.0
  0
LINE
  5
11D1
330
1F
100
AcDbEntity
  8
AM_VIS
100
AcDbLine
 10
2333.30674886636
 20
1387.025429166283
 30
0.0
 11
2332.40674886636
 21
1387.025429166283
 31
0.0
  0
LINE
  5
11D2
330
1F
100
AcDbEntity
  8
AM_VIS
100
AcDbLine
 10
2339.15674886636
 20
1387.025429166283
 30
0.0
 11
2334.55674886636
 21
1387.025429166283
 31
0.0
  0
LINE
  5
11D3
330
1F
100
AcDbEntity
  8
AM_VIS
100
AcDbLine
 10
2341.30674886636
 20
1387.025429166283
 30
0.0
 11
2340.40674886636
 21
1387.025429166283
 31
0.0
  0
LINE
  5
11D4
330
1F
100
AcDbEntity
  8
AM_VIS
100
AcDbLine
 10
2343.65674886636
 20
1387.025429166283
 30
0.0
 11
2342.55674886636
 21
1387.025429166283
 31
0.0
  0
LINE
  5
11D5
330
1F
100
AcDbEntity
  8
AM_VIS
100
AcDbLine
 10
2344.05674886636
 20
1387.025429166283
 30
0.0
 11
2343.65674886636
 21
1387.025429166283
 31
0.0
  0
LINE
  5
11D6
330
1F
100
AcDbEntity
  8
AM_VIS
100
AcDbLine
 10
2352.65674886636
 20
1387.025429166283
 30
0.0
 11
2344.05674886636
 21
1387.025429166283
 31
0.0
  0
LINE
  5
11D7
330
1F
100
AcDbEntity
  8
AM_VIS
100
AcDbLine
 10
2354.10674886636
 20
1387.025429166283
 30
0.0
 11
2352.65674886636
 21
1387.025429166283
 31
0.0
  0
LINE
  5
11D8
330
1F
100
AcDbEntity
  8
AM_VIS
100
AcDbLine
 10
2355.05674886636
 20
1387.025429166283
 30
0.0
 11
2354.10674886636
 21
1387.025429166283
 31
0.0
  0
LINE
  5
11D9
330
1F
100
AcDbEntity
  8
AM_VIS
100
AcDbLine
 10
2358.35674886636
 20
1387.025429166283
 30
0.0
 11
2355.05674886636
 21
1387.025429166283
 31
0.0
  0
LINE
  5
11DA
330
1F
100
AcDbEntity
  8
AM_VIS
100
AcDbLine
 10
2358.85674886636
 20
1387.025429166283
 30
0.0
 11
2358.35674886636
 21
1387.025429166283
 31
0.0
  0
LINE
  5
11DB
330
1F
100
AcDbEntity
  8
AM_VIS
100
AcDbLine
 10
2365.570891709214
 20
1387.025429166283
 30
0.0
 11
2358.85674886636
 21
1387.025429166283
 31
0.0
  0
LINE
  5
11DC
330
1F
100
AcDbEntity
  8
AM_VIS
100
AcDbLine
 10
2341.30674886636
 20
1426.025429166283
 30
0.0
 11
2342.55674886636
 21
1426.025429166283
 31
0.0
  0
LINE
  5
11DD
330
1F
100
AcDbEntity
  8
AM_VIS
100
AcDbLine
 10
2339.15674886636
 20
1426.025429166283
 30
0.0
 11
2340.40674886636
 21
1426.025429166283
 31
0.0
  0
LINE
  5
11DE
330
1F
100
AcDbEntity
  8
AM_VIS
100
AcDbLine
 10
2334.55674886636
 20
1426.025429166283
 30
0.0
 11
2333.30674886636
 21
1426.025429166283
 31
0.0
  0
LINE
  5
11DF
330
1F
100
AcDbEntity
  8
AM_VIS
100
AcDbLine
 10
2332.40674886636
 20
1426.025429166283
 30
0.0
 11
2331.15674886636
 21
1426.025429166283
 31
0.0
  0
LINE
  5
11E0
330
1F
100
AcDbEntity
  8
AM_VIS
100
AcDbLine
 10
2307.85674886636
 20
1426.025429166283
 30
0.0
 11
2308.142606023506
 21
1426.025429166283
 31
0.0
  0
LINE
  5
11E1
330
1F
100
AcDbEntity
  8
AM_VIS
100
AcDbLine
 10
2365.570891709214
 20
1426.025429166283
 30
0.0
 11
2365.85674886636
 21
1426.025429166283
 31
0.0
  0
LINE
  5
11E2
330
1F
100
AcDbEntity
  8
AM_VIS
100
AcDbLine
 10
2365.85674886636
 20
1387.025429166283
 30
0.0
 11
2365.570891709214
 21
1387.025429166283
 31
0.0
  0
LINE
  5
11E3
330
1F
100
AcDbEntity
  8
AM_VIS
100
AcDbLine
 10
2308.142606023506
 20
1387.025429166283
 30
0.0
 11
2307.85674886636
 21
1387.025429166283
 31
0.0
  0
LINE
  5
11E4
330
1F
100
AcDbEntity
  8
AM_VIS
100
AcDbLine
 10
2331.15674886636
 20
1387.025429166283
 30
0.0
 11
2332.40674886636
 21
1387.025429166283
 31
0.0
  0
LINE
  5
11E5
330
1F
100
AcDbEntity
  8
AM_VIS
100
AcDbLine
 10
2333.30674886636
 20
1387.025429166283
 30
0.0
 11
2334.55674886636
 21
1387.025429166283
 31
0.0
  0
LINE
  5
11E6
330
1F
100
AcDbEntity
  8
AM_VIS
100
AcDbLine
 10
2340.40674886636
 20
1387.025429166283
 30
0.0
 11
2339.15674886636
 21
1387.025429166283
 31
0.0
  0
LINE
  5
11E7
330
1F
100
AcDbEntity
  8
AM_VIS
100
AcDbLine
 10
2342.55674886636
 20
1387.025429166283
 30
0.0
 11
2341.30674886636
 21
1387.025429166283
 31
0.0
  0
CIRCLE
  5
11E8
330
1F
100
AcDbEntity
  8
0
100
AcDbCircle
 10
2195.967291092355
 20
1342.81430781342
 30
0.0
 40
8.0
  0
ARC
  5
11E9
330
1F
100
AcDbEntity
  8
AM_4
100
AcDbCircle
 10
2175.967291092355
 20
1333.66430781342
 30
0.0
 40
2.0
100
AcDbArc
 50
259.9999999999939
 51
170.0000000000089
  0
CIRCLE
  5
11EA
330
1F
100
AcDbEntity
  8
AM_0
100
AcDbCircle
 10
2175.967291092355
 20
1333.66430781342
 30
0.0
 40
1.621113885844339
  0
ARC
  5
11EB
330
1F
100
AcDbEntity
  8
AM_4
100
AcDbCircle
 10
2215.967291092356
 20
1333.66430781342
 30
0.0
 40
2.0
100
AcDbArc
 50
259.9999999999939
 51
170.0000000000089
  0
CIRCLE
  5
11EC
330
1F
100
AcDbEntity
  8
AM_0
100
AcDbCircle
 10
2215.967291092356
 20
1333.66430781342
 30
0.0
 40
1.621113885844339
  0
ARC
  5
11ED
330
1F
100
AcDbEntity
  8
AM_4
100
AcDbCircle
 10
2175.967291092355
 20
1351.66430781342
 30
0.0
 40
2.0
100
AcDbArc
 50
259.9999999999939
 51
170.0000000000089
  0
CIRCLE
  5
11EE
330
1F
100
AcDbEntity
  8
AM_0
100
AcDbCircle
 10
2175.967291092355
 20
1351.66430781342
 30
0.0
 40
1.621113885844339
  0
ARC
  5
11EF
330
1F
100
AcDbEntity
  8
AM_4
100
AcDbCircle
 10
2215.967291092356
 20
1351.66430781342
 30
0.0
 40
2.0
100
AcDbArc
 50
259.9999999999939
 51
170.0000000000089
  0
CIRCLE
  5
11F0
330
1F
100
AcDbEntity
  8
AM_0
100
AcDbCircle
 10
2215.967291092356
 20
1351.66430781342
 30
0.0
 40
1.621113885844339
  0
LINE
  5
11F1
330
1F
100
AcDbEntity
  8
AM_7
  6
AM_ISO08W050x2
100
AcDbLine
 10
2215.967291092356
 20
1333.66430781342
 30
0.0
 11
2218.967291092356
 21
1333.66430781342
 31
0.0
1001
GENIUS_GENOREF_13
1005
1353
  0
LINE
  5
11F2
330
1F
100
AcDbEntity
  8
AM_7
  6
AM_ISO08W050x2
100
AcDbLine
 10
2215.967291092356
 20
1333.66430781342
 30
0.0
 11
2215.967291092356
 21
1336.66430781342
 31
0.0
1001
GENIUS_GENOREF_13
1005
1353
  0
LINE
  5
11F3
330
1F
100
AcDbEntity
  8
AM_7
  6
AM_ISO08W050x2
100
AcDbLine
 10
2215.967291092356
 20
1333.66430781342
 30
0.0
 11
2212.967291092356
 21
1333.66430781342
 31
0.0
1001
GENIUS_GENOREF_13
1005
1353
  0
LINE
  5
11F4
330
1F
100
AcDbEntity
  8
AM_7
  6
AM_ISO08W050x2
100
AcDbLine
 10
2215.967291092356
 20
1333.66430781342
 30
0.0
 11
2215.967291092356
 21
1330.66430781342
 31
0.0
1001
GENIUS_GENOREF_13
1005
1353
  0
LINE
  5
11F5
330
1F
100
AcDbEntity
  8
AM_7
100
AcDbLine
 10
2216.717291092356
 20
1342.81430781342
 30
0.0
 11
2222.367291092355
 21
1342.81430781342
 31
0.0
1001
GENIUS_GENOREF_13
1005
1352
  0
LINE
  5
11F6
330
1F
100
AcDbEntity
  8
AM_7
100
AcDbLine
 10
2216.717291092356
 20
1342.81430781342
 30
0.0
 11
2216.717291092356
 21
1348.46430781342
 31
0.0
1001
GENIUS_GENOREF_13
1005
1352
  0
LINE
  5
11F7
330
1F
100
AcDbEntity
  8
AM_7
100
AcDbLine
 10
2216.717291092356
 20
1342.81430781342
 30
0.0
 11
2211.067291092355
 21
1342.81430781342
 31
0.0
1001
GENIUS_GENOREF_13
1005
1352
  0
LINE
  5
11F8
330
1F
100
AcDbEntity
  8
AM_7
100
AcDbLine
 10
2216.717291092356
 20
1342.81430781342
 30
0.0
 11
2216.717291092356
 21
1337.16430781342
 31
0.0
1001
GENIUS_GENOREF_13
1005
1352
  0
LINE
  5
11F9
330
1F
100
AcDbEntity
  8
AM_7
  6
AM_ISO08W050x2
100
AcDbLine
 10
2215.967291092356
 20
1351.66430781342
 30
0.0
 11
2218.967291092356
 21
1351.66430781342
 31
0.0
1001
GENIUS_GENOREF_13
1005
1351
  0
LINE
  5
11FA
330
1F
100
AcDbEntity
  8
AM_7
  6
AM_ISO08W050x2
100
AcDbLine
 10
2215.967291092356
 20
1351.66430781342
 30
0.0
 11
2215.967291092356
 21
1354.66430781342
 31
0.0
1001
GENIUS_GENOREF_13
1005
1351
  0
LINE
  5
11FB
330
1F
100
AcDbEntity
  8
AM_7
  6
AM_ISO08W050x2
100
AcDbLine
 10
2215.967291092356
 20
1351.66430781342
 30
0.0
 11
2212.967291092356
 21
1351.66430781342
 31
0.0
1001
GENIUS_GENOREF_13
1005
1351
  0
LINE
  5
11FC
330
1F
100
AcDbEntity
  8
AM_7
  6
AM_ISO08W050x2
100
AcDbLine
 10
2215.967291092356
 20
1351.66430781342
 30
0.0
 11
2215.967291092356
 21
1348.66430781342
 31
0.0
1001
GENIUS_GENOREF_13
1005
1351
  0
LINE
  5
11FD
330
1F
100
AcDbEntity
  8
AM_7
  6
AM_ISO08W050x2
100
AcDbLine
 10
2175.967291092355
 20
1333.66430781342
 30
0.0
 11
2178.967291092356
 21
1333.66430781342
 31
0.0
1001
GENIUS_GENOREF_13
1005
1350
  0
LINE
  5
11FE
330
1F
100
AcDbEntity
  8
AM_7
  6
AM_ISO08W050x2
100
AcDbLine
 10
2175.967291092355
 20
1333.66430781342
 30
0.0
 11
2175.967291092355
 21
1336.66430781342
 31
0.0
1001
GENIUS_GENOREF_13
1005
1350
  0
LINE
  5
11FF
330
1F
100
AcDbEntity
  8
AM_7
  6
AM_ISO08W050x2
100
AcDbLine
 10
2175.967291092355
 20
1333.66430781342
 30
0.0
 11
2172.967291092355
 21
1333.66430781342
 31
0.0
1001
GENIUS_GENOREF_13
1005
1350
  0
LINE
  5
1200
330
1F
100
AcDbEntity
  8
AM_7
  6
AM_ISO08W050x2
100
AcDbLine
 10
2175.967291092355
 20
1333.66430781342
 30
0.0
 11
2175.967291092355
 21
1330.66430781342
 31
0.0
1001
GENIUS_GENOREF_13
1005
1350
  0
LINE
  5
1201
330
1F
100
AcDbEntity
  8
AM_7
100
AcDbLine
 10
2175.217291092355
 20
1342.81430781342
 30
0.0
 11
2180.867291092355
 21
1342.81430781342
 31
0.0
1001
GENIUS_GENOREF_13
1005
134F
  0
LINE
  5
1202
330
1F
100
AcDbEntity
  8
AM_7
100
AcDbLine
 10
2175.217291092355
 20
1342.81430781342
 30
0.0
 11
2175.217291092355
 21
1348.46430781342
 31
0.0
1001
GENIUS_GENOREF_13
1005
134F
  0
LINE
  5
1203
330
1F
100
AcDbEntity
  8
AM_7
100
AcDbLine
 10
2175.217291092355
 20
1342.81430781342
 30
0.0
 11
2169.567291092355
 21
1342.81430781342
 31
0.0
1001
GENIUS_GENOREF_13
1005
134F
  0
LINE
  5
1204
330
1F
100
AcDbEntity
  8
AM_7
100
AcDbLine
 10
2175.217291092355
 20
1342.81430781342
 30
0.0
 11
2175.217291092355
 21
1337.16430781342
 31
0.0
1001
GENIUS_GENOREF_13
1005
134F
  0
LINE
  5
1205
330
1F
100
AcDbEntity
  8
AM_7
  6
AM_ISO08W050x2
100
AcDbLine
 10
2175.967291092355
 20
1351.66430781342
 30
0.0
 11
2178.967291092356
 21
1351.66430781342
 31
0.0
1001
GENIUS_GENOREF_13
1005
134E
  0
LINE
  5
1206
330
1F
100
AcDbEntity
  8
AM_7
  6
AM_ISO08W050x2
100
AcDbLine
 10
2175.967291092355
 20
1351.66430781342
 30
0.0
 11
2175.967291092355
 21
1354.66430781342
 31
0.0
1001
GENIUS_GENOREF_13
1005
134E
  0
LINE
  5
1207
330
1F
100
AcDbEntity
  8
AM_7
  6
AM_ISO08W050x2
100
AcDbLine
 10
2175.967291092355
 20
1351.66430781342
 30
0.0
 11
2172.967291092355
 21
1351.66430781342
 31
0.0
1001
GENIUS_GENOREF_13
1005
134E
  0
LINE
  5
1208
330
1F
100
AcDbEntity
  8
AM_7
  6
AM_ISO08W050x2
100
AcDbLine
 10
2175.967291092355
 20
1351.66430781342
 30
0.0
 11
2175.967291092355
 21
1348.66430781342
 31
0.0
1001
GENIUS_GENOREF_13
1005
134E
  0
LINE
  5
1209
330
1F
100
AcDbEntity
  8
AM_7
100
AcDbLine
 10
2195.967291092355
 20
1342.81430781342
 30
0.0
 11
2204.967291092355
 21
1342.81430781342
 31
0.0
1001
GENIUS_GENOREF_13
1005
134D
  0
LINE
  5
120A
330
1F
100
AcDbEntity
  8
AM_7
100
AcDbLine
 10
2195.967291092355
 20
1342.81430781342
 30
0.0
 11
2195.967291092355
 21
1351.81430781342
 31
0.0
1001
GENIUS_GENOREF_13
1005
134D
  0
LINE
  5
120B
330
1F
100
AcDbEntity
  8
AM_7
100
AcDbLine
 10
2195.967291092355
 20
1342.81430781342
 30
0.0
 11
2186.967291092356
 21
1342.81430781342
 31
0.0
1001
GENIUS_GENOREF_13
1005
134D
  0
LINE
  5
120C
330
1F
100
AcDbEntity
  8
AM_7
100
AcDbLine
 10
2195.967291092355
 20
1342.81430781342
 30
0.0
 11
2195.967291092355
 21
1333.81430781342
 31
0.0
1001
GENIUS_GENOREF_13
1005
134D
  0
LINE
  5
120D
330
1F
100
AcDbEntity
  8
AM_7
100
AcDbLine
 10
2184.467291092356
 20
1421.025429166283
 30
0.0
 11
2189.467291092356
 21
1421.025429166283
 31
0.0
1001
GENIUS_GENOREF_13
1005
134C
  0
LINE
  5
120E
330
1F
100
AcDbEntity
  8
AM_7
100
AcDbLine
 10
2184.467291092356
 20
1421.025429166283
 30
0.0
 11
2184.467291092356
 21
1426.025429166283
 31
0.0
1001
GENIUS_GENOREF_13
1005
134C
  0
LINE
  5
120F
330
1F
100
AcDbEntity
  8
AM_7
100
AcDbLine
 10
2184.467291092356
 20
1421.025429166283
 30
0.0
 11
2179.467291092356
 21
1421.025429166283
 31
0.0
1001
GENIUS_GENOREF_13
1005
134C
  0
LINE
  5
1210
330
1F
100
AcDbEntity
  8
AM_7
100
AcDbLine
 10
2184.467291092356
 20
1421.025429166283
 30
0.0
 11
2184.467291092356
 21
1416.025429166283
 31
0.0
1001
GENIUS_GENOREF_13
1005
134C
  0
LINE
  5
1211
330
1F
100
AcDbEntity
  8
AM_7
100
AcDbLine
 10
2184.467291092356
 20
1407.025429166283
 30
0.0
 11
2189.467291092356
 21
1407.025429166283
 31
0.0
1001
GENIUS_GENOREF_13
1005
134B
  0
LINE
  5
1212
330
1F
100
AcDbEntity
  8
AM_7
100
AcDbLine
 10
2184.467291092356
 20
1407.025429166283
 30
0.0
 11
2184.467291092356
 21
1412.025429166282
 31
0.0
1001
GENIUS_GENOREF_13
1005
134B
  0
LINE
  5
1213
330
1F
100
AcDbEntity
  8
AM_7
100
AcDbLine
 10
2184.467291092356
 20
1407.025429166283
 30
0.0
 11
2179.467291092356
 21
1407.025429166283
 31
0.0
1001
GENIUS_GENOREF_13
1005
134B
  0
LINE
  5
1214
330
1F
100
AcDbEntity
  8
AM_7
100
AcDbLine
 10
2184.467291092356
 20
1407.025429166283
 30
0.0
 11
2184.467291092356
 21
1402.025429166283
 31
0.0
1001
GENIUS_GENOREF_13
1005
134B
  0
LINE
  5
1215
330
1F
100
AcDbEntity
  8
AM_7
100
AcDbLine
 10
2207.467291092356
 20
1407.025429166283
 30
0.0
 11
2212.467291092355
 21
1407.025429166283
 31
0.0
1001
GENIUS_GENOREF_13
1005
134A
  0
LINE
  5
1216
330
1F
100
AcDbEntity
  8
AM_7
100
AcDbLine
 10
2207.467291092356
 20
1407.025429166283
 30
0.0
 11
2207.467291092356
 21
1412.025429166282
 31
0.0
1001
GENIUS_GENOREF_13
1005
134A
  0
LINE
  5
1217
330
1F
100
AcDbEntity
  8
AM_7
100
AcDbLine
 10
2207.467291092356
 20
1407.025429166283
 30
0.0
 11
2202.467291092355
 21
1407.025429166283
 31
0.0
1001
GENIUS_GENOREF_13
1005
134A
  0
LINE
  5
1218
330
1F
100
AcDbEntity
  8
AM_7
100
AcDbLine
 10
2207.467291092356
 20
1407.025429166283
 30
0.0
 11
2207.467291092356
 21
1402.025429166283
 31
0.0
1001
GENIUS_GENOREF_13
1005
134A
  0
LINE
  5
1219
330
1F
100
AcDbEntity
  8
AM_7
100
AcDbLine
 10
2207.467291092356
 20
1421.025429166283
 30
0.0
 11
2212.467291092355
 21
1421.025429166283
 31
0.0
1001
GENIUS_GENOREF_13
1005
1349
  0
LINE
  5
121A
330
1F
100
AcDbEntity
  8
AM_7
100
AcDbLine
 10
2207.467291092356
 20
1421.025429166283
 30
0.0
 11
2207.467291092356
 21
1426.025429166283
 31
0.0
1001
GENIUS_GENOREF_13
1005
1349
  0
LINE
  5
121B
330
1F
100
AcDbEntity
  8
AM_7
100
AcDbLine
 10
2207.467291092356
 20
1421.025429166283
 30
0.0
 11
2202.467291092355
 21
1421.025429166283
 31
0.0
1001
GENIUS_GENOREF_13
1005
1349
  0
LINE
  5
121C
330
1F
100
AcDbEntity
  8
AM_7
100
AcDbLine
 10
2207.467291092356
 20
1421.025429166283
 30
0.0
 11
2207.467291092356
 21
1416.025429166283
 31
0.0
1001
GENIUS_GENOREF_13
1005
1349
  0
ARC
  5
121D
330
1F
100
AcDbEntity
  8
AM_4
100
AcDbCircle
 10
2176.467291092356
 20
1415.025429166283
 30
0.0
 40
2.5
100
AcDbArc
 50
259.9999999999939
 51
170.0000000000089
  0
CIRCLE
  5
121E
330
1F
100
AcDbEntity
  8
AM_0
100
AcDbCircle
 10
2176.467291092356
 20
1415.025429166283
 30
0.0
 40
2.066987298107819
  0
LINE
  5
121F
330
1F
100
AcDbEntity
  8
AM_7
  6
AM_ISO08W050x2
100
AcDbLine
 10
2172.967291092355
 20
1415.025429166283
 30
0.0
 11
2179.967291092355
 21
1415.025429166283
 31
0.0
  0
LINE
  5
1220
330
1F
100
AcDbEntity
  8
AM_7
  6
AM_ISO08W050x2
100
AcDbLine
 10
2176.467291092356
 20
1411.525429166283
 30
0.0
 11
2176.467291092356
 21
1418.525429166282
 31
0.0
  0
ARC
  5
1221
330
1F
100
AcDbEntity
  8
AM_4
100
AcDbCircle
 10
2176.467291092356
 20
1402.025429166283
 30
0.0
 40
2.5
100
AcDbArc
 50
259.9999999999939
 51
170.0000000000089
  0
CIRCLE
  5
1222
330
1F
100
AcDbEntity
  8
AM_0
100
AcDbCircle
 10
2176.467291092356
 20
1402.025429166283
 30
0.0
 40
2.066987298107819
  0
LINE
  5
1223
330
1F
100
AcDbEntity
  8
AM_7
  6
AM_ISO08W050x2
100
AcDbLine
 10
2172.967291092355
 20
1402.025429166283
 30
0.0
 11
2179.967291092355
 21
1402.025429166283
 31
0.0
  0
LINE
  5
1224
330
1F
100
AcDbEntity
  8
AM_7
  6
AM_ISO08W050x2
100
AcDbLine
 10
2176.467291092356
 20
1398.525429166282
 30
0.0
 11
2176.467291092356
 21
1405.525429166283
 31
0.0
  0
ARC
  5
1225
330
1F
100
AcDbEntity
  8
AM_4
100
AcDbCircle
 10
2139.619601263067
 20
1402.025429166283
 30
0.0
 40
2.5
100
AcDbArc
 50
259.9999999999939
 51
170.0000000000089
  0
CIRCLE
  5
1226
330
1F
100
AcDbEntity
  8
AM_0
100
AcDbCircle
 10
2139.619601263067
 20
1402.025429166283
 30
0.0
 40
2.066987298107819
  0
LINE
  5
1227
330
1F
100
AcDbEntity
  8
AM_7
  6
AM_ISO08W050x2
100
AcDbLine
 10
2136.119601263067
 20
1402.025429166283
 30
0.0
 11
2143.119601263067
 21
1402.025429166283
 31
0.0
  0
LINE
  5
1228
330
1F
100
AcDbEntity
  8
AM_7
  6
AM_ISO08W050x2
100
AcDbLine
 10
2139.619601263067
 20
1398.525429166282
 30
0.0
 11
2139.619601263067
 21
1405.525429166283
 31
0.0
  0
ARC
  5
1229
330
1F
100
AcDbEntity
  8
AM_4
100
AcDbCircle
 10
2139.619601263067
 20
1415.025429166283
 30
0.0
 40
2.5
100
AcDbArc
 50
259.9999999999939
 51
170.0000000000089
  0
CIRCLE
  5
122A
330
1F
100
AcDbEntity
  8
AM_0
100
AcDbCircle
 10
2139.619601263067
 20
1415.025429166283
 30
0.0
 40
2.066987298107819
  0
LINE
  5
122B
330
1F
100
AcDbEntity
  8
AM_7
  6
AM_ISO08W050x2
100
AcDbLine
 10
2136.119601263067
 20
1415.025429166283
 30
0.0
 11
2143.119601263067
 21
1415.025429166283
 31
0.0
  0
LINE
  5
122C
330
1F
100
AcDbEntity
  8
AM_7
  6
AM_ISO08W050x2
100
AcDbLine
 10
2139.619601263067
 20
1411.525429166283
 30
0.0
 11
2139.619601263067
 21
1418.525429166282
 31
0.0
  0
ARC
  5
122D
330
1F
100
AcDbEntity
  8
AM_4
100
AcDbCircle
 10
2171.967291092355
 20
1461.079336915839
 30
0.0
 40
2.0
100
AcDbArc
 50
259.9999999999939
 51
170.0000000000089
  0
CIRCLE
  5
122E
330
1F
100
AcDbEntity
  8
AM_0
100
AcDbCircle
 10
2171.967291092355
 20
1461.079336915839
 30
0.0
 40
1.621113885844339
  0
LINE
  5
122F
330
1F
100
AcDbEntity
  8
AM_7
  6
AM_ISO08W050x2
100
AcDbLine
 10
2171.967291092355
 20
1461.079336915839
 30
0.0
 11
2174.967291092356
 21
1461.079336915839
 31
0.0
1001
GENIUS_GENOREF_13
1005
1348
  0
LINE
  5
1230
330
1F
100
AcDbEntity
  8
AM_7
  6
AM_ISO08W050x2
100
AcDbLine
 10
2171.967291092355
 20
1461.079336915839
 30
0.0
 11
2171.967291092355
 21
1464.079336915839
 31
0.0
1001
GENIUS_GENOREF_13
1005
1348
  0
LINE
  5
1231
330
1F
100
AcDbEntity
  8
AM_7
  6
AM_ISO08W050x2
100
AcDbLine
 10
2171.967291092355
 20
1461.079336915839
 30
0.0
 11
2168.967291092355
 21
1461.079336915839
 31
0.0
1001
GENIUS_GENOREF_13
1005
1348
  0
LINE
  5
1232
330
1F
100
AcDbEntity
  8
AM_7
  6
AM_ISO08W050x2
100
AcDbLine
 10
2171.967291092355
 20
1461.079336915839
 30
0.0
 11
2171.967291092355
 21
1458.079336915839
 31
0.0
1001
GENIUS_GENOREF_13
1005
1348
  0
ARC
  5
1233
330
1F
100
AcDbEntity
  8
AM_4
100
AcDbCircle
 10
2171.967291092355
 20
1475.079336915839
 30
0.0
 40
2.0
100
AcDbArc
 50
259.9999999999939
 51
170.0000000000089
  0
CIRCLE
  5
1234
330
1F
100
AcDbEntity
  8
AM_0
100
AcDbCircle
 10
2171.967291092355
 20
1475.079336915839
 30
0.0
 40
1.621113885844339
  0
LINE
  5
1235
330
1F
100
AcDbEntity
  8
AM_7
  6
AM_ISO08W050x2
100
AcDbLine
 10
2171.967291092355
 20
1475.079336915839
 30
0.0
 11
2174.967291092356
 21
1475.079336915839
 31
0.0
1001
GENIUS_GENOREF_13
1005
1347
  0
LINE
  5
1236
330
1F
100
AcDbEntity
  8
AM_7
  6
AM_ISO08W050x2
100
AcDbLine
 10
2171.967291092355
 20
1475.079336915839
 30
0.0
 11
2171.967291092355
 21
1478.079336915839
 31
0.0
1001
GENIUS_GENOREF_13
1005
1347
  0
LINE
  5
1237
330
1F
100
AcDbEntity
  8
AM_7
  6
AM_ISO08W050x2
100
AcDbLine
 10
2171.967291092355
 20
1475.079336915839
 30
0.0
 11
2168.967291092355
 21
1475.079336915839
 31
0.0
1001
GENIUS_GENOREF_13
1005
1347
  0
LINE
  5
1238
330
1F
100
AcDbEntity
  8
AM_7
  6
AM_ISO08W050x2
100
AcDbLine
 10
2171.967291092355
 20
1475.079336915839
 30
0.0
 11
2171.967291092355
 21
1472.079336915839
 31
0.0
1001
GENIUS_GENOREF_13
1005
1347
  0
ARC
  5
1239
330
1F
100
AcDbEntity
  8
AM_4
100
AcDbCircle
 10
2219.967291092356
 20
1475.079336915839
 30
0.0
 40
2.0
100
AcDbArc
 50
259.9999999999939
 51
170.0000000000089
  0
CIRCLE
  5
123A
330
1F
100
AcDbEntity
  8
AM_0
100
AcDbCircle
 10
2219.967291092356
 20
1475.079336915839
 30
0.0
 40
1.621113885844339
  0
LINE
  5
123B
330
1F
100
AcDbEntity
  8
AM_7
  6
AM_ISO08W050x2
100
AcDbLine
 10
2219.967291092356
 20
1475.079336915839
 30
0.0
 11
2222.967291092356
 21
1475.079336915839
 31
0.0
1001
GENIUS_GENOREF_13
1005
1346
  0
LINE
  5
123C
330
1F
100
AcDbEntity
  8
AM_7
  6
AM_ISO08W050x2
100
AcDbLine
 10
2219.967291092356
 20
1475.079336915839
 30
0.0
 11
2219.967291092356
 21
1478.079336915839
 31
0.0
1001
GENIUS_GENOREF_13
1005
1346
  0
LINE
  5
123D
330
1F
100
AcDbEntity
  8
AM_7
  6
AM_ISO08W050x2
100
AcDbLine
 10
2219.967291092356
 20
1475.079336915839
 30
0.0
 11
2216.967291092355
 21
1475.079336915839
 31
0.0
1001
GENIUS_GENOREF_13
1005
1346
  0
LINE
  5
123E
330
1F
100
AcDbEntity
  8
AM_7
  6
AM_ISO08W050x2
100
AcDbLine
 10
2219.967291092356
 20
1475.079336915839
 30
0.0
 11
2219.967291092356
 21
1472.079336915839
 31
0.0
1001
GENIUS_GENOREF_13
1005
1346
  0
ARC
  5
123F
330
1F
100
AcDbEntity
  8
AM_4
100
AcDbCircle
 10
2219.967291092356
 20
1461.079336915839
 30
0.0
 40
2.0
100
AcDbArc
 50
259.9999999999939
 51
170.0000000000089
  0
CIRCLE
  5
1240
330
1F
100
AcDbEntity
  8
AM_0
100
AcDbCircle
 10
2219.967291092356
 20
1461.079336915839
 30
0.0
 40
1.621113885844339
  0
LINE
  5
1241
330
1F
100
AcDbEntity
  8
AM_7
  6
AM_ISO08W050x2
100
AcDbLine
 10
2219.967291092356
 20
1461.079336915839
 30
0.0
 11
2222.967291092356
 21
1461.079336915839
 31
0.0
1001
GENIUS_GENOREF_13
1005
1345
  0
LINE
  5
1242
330
1F
100
AcDbEntity
  8
AM_7
  6
AM_ISO08W050x2
100
AcDbLine
 10
2219.967291092356
 20
1461.079336915839
 30
0.0
 11
2219.967291092356
 21
1464.079336915839
 31
0.0
1001
GENIUS_GENOREF_13
1005
1345
  0
LINE
  5
1243
330
1F
100
AcDbEntity
  8
AM_7
  6
AM_ISO08W050x2
100
AcDbLine
 10
2219.967291092356
 20
1461.079336915839
 30
0.0
 11
2216.967291092355
 21
1461.079336915839
 31
0.0
1001
GENIUS_GENOREF_13
1005
1345
  0
LINE
  5
1244
330
1F
100
AcDbEntity
  8
AM_7
  6
AM_ISO08W050x2
100
AcDbLine
 10
2219.967291092356
 20
1461.079336915839
 30
0.0
 11
2219.967291092356
 21
1458.079336915839
 31
0.0
1001
GENIUS_GENOREF_13
1005
1345
  0
LINE
  5
1245
330
1F
100
AcDbEntity
  8
AM_7
100
AcDbLine
 10
2192.217291092356
 20
1468.079336915839
 30
0.0
 11
2199.717291092356
 21
1468.079336915839
 31
0.0
  0
CIRCLE
  5
1246
330
1F
100
AcDbEntity
  8
AM_0N
100
AcDbCircle
 10
2195.967291092355
 20
1468.079336915839
 30
0.0
 40
2.75
  0
CIRCLE
  5
1247
330
1F
100
AcDbEntity
  8
AM_0N
100
AcDbCircle
 10
2195.967291092355
 20
1468.079336915839
 30
0.0
 40
1.443375672974059
  0
LINE
  5
1248
330
1F
100
AcDbEntity
  8
AM_0N
100
AcDbLine
 10
2197.41066676533
 20
1468.079336915839
 30
0.0
 11
2196.688978928843
 21
1469.329336915839
 31
0.0
  0
LINE
  5
1249
330
1F
100
AcDbEntity
  8
AM_0N
100
AcDbLine
 10
2195.245603255869
 20
1469.329336915839
 30
0.0
 11
2194.523915419381
 21
1468.079336915839
 31
0.0
  0
LINE
  5
124A
330
1F
100
AcDbEntity
  8
AM_7
100
AcDbLine
 10
2195.967291092355
 20
1471.829336915839
 30
0.0
 11
2195.967291092355
 21
1464.329336915839
 31
0.0
  0
LINE
  5
124B
330
1F
100
AcDbEntity
  8
AM_0N
100
AcDbLine
 10
2195.245603255868
 20
1466.829336915839
 30
0.0
 11
2196.688978928843
 21
1466.829336915839
 31
0.0
  0
LINE
  5
124C
330
1F
100
AcDbEntity
  8
AM_0N
100
AcDbLine
 10
2194.523915419381
 20
1468.079336915839
 30
0.0
 11
2195.245603255868
 21
1466.829336915839
 31
0.0
  0
LINE
  5
124D
330
1F
100
AcDbEntity
  8
AM_0N
100
AcDbLine
 10
2196.688978928843
 20
1466.829336915839
 30
0.0
 11
2197.41066676533
 21
1468.079336915839
 31
0.0
  0
LINE
  5
124E
330
1F
100
AcDbEntity
  8
AM_0N
100
AcDbLine
 10
2196.688978928843
 20
1469.329336915839
 30
0.0
 11
2195.245603255869
 21
1469.329336915839
 31
0.0
  0
ARC
  5
124F
330
1F
100
AcDbEntity
  8
AM_4
100
AcDbCircle
 10
2325.35674886636
 20
1421.025429166283
 30
0.0
 40
2.5
100
AcDbArc
 50
259.9999999999939
 51
170.0000000000089
  0
CIRCLE
  5
1250
330
1F
100
AcDbEntity
  8
AM_0
100
AcDbCircle
 10
2325.35674886636
 20
1421.025429166283
 30
0.0
 40
2.066987298107819
  0
LINE
  5
1251
330
1F
100
AcDbEntity
  8
AM_7
  6
AM_ISO08W050x2
100
AcDbLine
 10
2321.85674886636
 20
1421.025429166283
 30
0.0
 11
2328.85674886636
 21
1421.025429166283
 31
0.0
  0
LINE
  5
1252
330
1F
100
AcDbEntity
  8
AM_7
  6
AM_ISO08W050x2
100
AcDbLine
 10
2325.35674886636
 20
1417.525429166283
 30
0.0
 11
2325.35674886636
 21
1424.525429166283
 31
0.0
  0
ARC
  5
1253
330
1F
100
AcDbEntity
  8
AM_4
100
AcDbCircle
 10
2325.35674886636
 20
1407.025429166283
 30
0.0
 40
2.5
100
AcDbArc
 50
259.9999999999939
 51
170.0000000000089
  0
CIRCLE
  5
1254
330
1F
100
AcDbEntity
  8
AM_0
100
AcDbCircle
 10
2325.35674886636
 20
1407.025429166283
 30
0.0
 40
2.066987298107819
  0
LINE
  5
1255
330
1F
100
AcDbEntity
  8
AM_7
  6
AM_ISO08W050x2
100
AcDbLine
 10
2321.85674886636
 20
1407.025429166283
 30
0.0
 11
2328.85674886636
 21
1407.025429166283
 31
0.0
  0
LINE
  5
1256
330
1F
100
AcDbEntity
  8
AM_7
  6
AM_ISO08W050x2
100
AcDbLine
 10
2325.35674886636
 20
1403.525429166283
 30
0.0
 11
2325.35674886636
 21
1410.525429166282
 31
0.0
  0
ARC
  5
1257
330
1F
100
AcDbEntity
  8
AM_4
100
AcDbCircle
 10
2348.35674886636
 20
1407.025429166283
 30
0.0
 40
2.5
100
AcDbArc
 50
259.9999999999939
 51
170.0000000000089
  0
CIRCLE
  5
1258
330
1F
100
AcDbEntity
  8
AM_0
100
AcDbCircle
 10
2348.35674886636
 20
1407.025429166283
 30
0.0
 40
2.066987298107819
  0
LINE
  5
1259
330
1F
100
AcDbEntity
  8
AM_7
  6
AM_ISO08W050x2
100
AcDbLine
 10
2344.85674886636
 20
1407.025429166283
 30
0.0
 11
2351.85674886636
 21
1407.025429166283
 31
0.0
  0
LINE
  5
125A
330
1F
100
AcDbEntity
  8
AM_7
  6
AM_ISO08W050x2
100
AcDbLine
 10
2348.35674886636
 20
1403.525429166283
 30
0.0
 11
2348.35674886636
 21
1410.525429166282
 31
0.0
  0
ARC
  5
125B
330
1F
100
AcDbEntity
  8
AM_4
100
AcDbCircle
 10
2348.35674886636
 20
1421.025429166283
 30
0.0
 40
2.5
100
AcDbArc
 50
259.9999999999939
 51
170.0000000000089
  0
CIRCLE
  5
125C
330
1F
100
AcDbEntity
  8
AM_0
100
AcDbCircle
 10
2348.35674886636
 20
1421.025429166283
 30
0.0
 40
2.066987298107819
  0
LINE
  5
125D
330
1F
100
AcDbEntity
  8
AM_7
  6
AM_ISO08W050x2
100
AcDbLine
 10
2344.85674886636
 20
1421.025429166283
 30
0.0
 11
2351.85674886636
 21
1421.025429166283
 31
0.0
  0
LINE
  5
125E
330
1F
100
AcDbEntity
  8
AM_7
  6
AM_ISO08W050x2
100
AcDbLine
 10
2348.35674886636
 20
1417.525429166283
 30
0.0
 11
2348.35674886636
 21
1424.525429166283
 31
0.0
  0
ARC
  5
125F
330
1F
100
AcDbEntity
  8
AM_4
100
AcDbCircle
 10
2311.85674886636
 20
1399.025429166283
 30
0.0
 40
2.0
100
AcDbArc
 50
259.9999999999939
 51
170.0000000000089
  0
CIRCLE
  5
1260
330
1F
100
AcDbEntity
  8
AM_0
100
AcDbCircle
 10
2311.85674886636
 20
1399.025429166283
 30
0.0
 40
1.621113885844339
  0
LINE
  5
1261
330
1F
100
AcDbEntity
  8
AM_7
  6
AM_ISO08W050x2
100
AcDbLine
 10
2311.85674886636
 20
1399.025429166283
 30
0.0
 11
2314.85674886636
 21
1399.025429166283
 31
0.0
1001
GENIUS_GENOREF_13
1005
1344
  0
LINE
  5
1262
330
1F
100
AcDbEntity
  8
AM_7
  6
AM_ISO08W050x2
100
AcDbLine
 10
2311.85674886636
 20
1399.025429166283
 30
0.0
 11
2311.85674886636
 21
1402.025429166283
 31
0.0
1001
GENIUS_GENOREF_13
1005
1344
  0
LINE
  5
1263
330
1F
100
AcDbEntity
  8
AM_7
  6
AM_ISO08W050x2
100
AcDbLine
 10
2311.85674886636
 20
1399.025429166283
 30
0.0
 11
2308.85674886636
 21
1399.025429166283
 31
0.0
1001
GENIUS_GENOREF_13
1005
1344
  0
LINE
  5
1264
330
1F
100
AcDbEntity
  8
AM_7
  6
AM_ISO08W050x2
100
AcDbLine
 10
2311.85674886636
 20
1399.025429166283
 30
0.0
 11
2311.85674886636
 21
1396.025429166283
 31
0.0
1001
GENIUS_GENOREF_13
1005
1344
  0
ARC
  5
1265
330
1F
100
AcDbEntity
  8
AM_4
100
AcDbCircle
 10
2311.85674886636
 20
1414.025429166283
 30
0.0
 40
2.0
100
AcDbArc
 50
259.9999999999939
 51
170.0000000000089
  0
CIRCLE
  5
1266
330
1F
100
AcDbEntity
  8
AM_0
100
AcDbCircle
 10
2311.85674886636
 20
1414.025429166283
 30
0.0
 40
1.621113885844339
  0
LINE
  5
1267
330
1F
100
AcDbEntity
  8
AM_7
  6
AM_ISO08W050x2
100
AcDbLine
 10
2311.85674886636
 20
1414.025429166283
 30
0.0
 11
2314.85674886636
 21
1414.025429166283
 31
0.0
1001
GENIUS_GENOREF_13
1005
1343
  0
LINE
  5
1268
330
1F
100
AcDbEntity
  8
AM_7
  6
AM_ISO08W050x2
100
AcDbLine
 10
2311.85674886636
 20
1414.025429166283
 30
0.0
 11
2311.85674886636
 21
1417.025429166282
 31
0.0
1001
GENIUS_GENOREF_13
1005
1343
  0
LINE
  5
1269
330
1F
100
AcDbEntity
  8
AM_7
  6
AM_ISO08W050x2
100
AcDbLine
 10
2311.85674886636
 20
1414.025429166283
 30
0.0
 11
2308.85674886636
 21
1414.025429166283
 31
0.0
1001
GENIUS_GENOREF_13
1005
1343
  0
LINE
  5
126A
330
1F
100
AcDbEntity
  8
AM_7
  6
AM_ISO08W050x2
100
AcDbLine
 10
2311.85674886636
 20
1414.025429166283
 30
0.0
 11
2311.85674886636
 21
1411.025429166282
 31
0.0
1001
GENIUS_GENOREF_13
1005
1343
  0
ARC
  5
126B
330
1F
100
AcDbEntity
  8
AM_4
100
AcDbCircle
 10
2361.85674886636
 20
1414.025429166283
 30
0.0
 40
2.0
100
AcDbArc
 50
259.9999999999939
 51
170.0000000000089
  0
CIRCLE
  5
126C
330
1F
100
AcDbEntity
  8
AM_0
100
AcDbCircle
 10
2361.85674886636
 20
1414.025429166283
 30
0.0
 40
1.621113885844339
  0
LINE
  5
126D
330
1F
100
AcDbEntity
  8
AM_7
  6
AM_ISO08W050x2
100
AcDbLine
 10
2361.85674886636
 20
1414.025429166283
 30
0.0
 11
2364.85674886636
 21
1414.025429166283
 31
0.0
1001
GENIUS_GENOREF_13
1005
1342
  0
LINE
  5
126E
330
1F
100
AcDbEntity
  8
AM_7
  6
AM_ISO08W050x2
100
AcDbLine
 10
2361.85674886636
 20
1414.025429166283
 30
0.0
 11
2361.85674886636
 21
1417.025429166282
 31
0.0
1001
GENIUS_GENOREF_13
1005
1342
  0
LINE
  5
126F
330
1F
100
AcDbEntity
  8
AM_7
  6
AM_ISO08W050x2
100
AcDbLine
 10
2361.85674886636
 20
1414.025429166283
 30
0.0
 11
2358.85674886636
 21
1414.025429166283
 31
0.0
1001
GENIUS_GENOREF_13
1005
1342
  0
LINE
  5
1270
330
1F
100
AcDbEntity
  8
AM_7
  6
AM_ISO08W050x2
100
AcDbLine
 10
2361.85674886636
 20
1414.025429166283
 30
0.0
 11
2361.85674886636
 21
1411.025429166282
 31
0.0
1001
GENIUS_GENOREF_13
1005
1342
  0
ARC
  5
1271
330
1F
100
AcDbEntity
  8
AM_4
100
AcDbCircle
 10
2361.85674886636
 20
1399.025429166283
 30
0.0
 40
2.0
100
AcDbArc
 50
259.9999999999939
 51
170.0000000000089
  0
CIRCLE
  5
1272
330
1F
100
AcDbEntity
  8
AM_0
100
AcDbCircle
 10
2361.85674886636
 20
1399.025429166283
 30
0.0
 40
1.621113885844339
  0
LINE
  5
1273
330
1F
100
AcDbEntity
  8
AM_7
  6
AM_ISO08W050x2
100
AcDbLine
 10
2361.85674886636
 20
1399.025429166283
 30
0.0
 11
2364.85674886636
 21
1399.025429166283
 31
0.0
1001
GENIUS_GENOREF_13
1005
1341
  0
LINE
  5
1274
330
1F
100
AcDbEntity
  8
AM_7
  6
AM_ISO08W050x2
100
AcDbLine
 10
2361.85674886636
 20
1399.025429166283
 30
0.0
 11
2361.85674886636
 21
1402.025429166283
 31
0.0
1001
GENIUS_GENOREF_13
1005
1341
  0
LINE
  5
1275
330
1F
100
AcDbEntity
  8
AM_7
  6
AM_ISO08W050x2
100
AcDbLine
 10
2361.85674886636
 20
1399.025429166283
 30
0.0
 11
2358.85674886636
 21
1399.025429166283
 31
0.0
1001
GENIUS_GENOREF_13
1005
1341
  0
LINE
  5
1276
330
1F
100
AcDbEntity
  8
AM_7
  6
AM_ISO08W050x2
100
AcDbLine
 10
2361.85674886636
 20
1399.025429166283
 30
0.0
 11
2361.85674886636
 21
1396.025429166283
 31
0.0
1001
GENIUS_GENOREF_13
1005
1341
  0
LINE
  5
1277
330
1F
100
AcDbEntity
  8
AM_7
  6
AM_ISO08W050x2
100
AcDbLine
 10
2131.119601263067
 20
1429.025429166283
 30
0.0
 11
2131.119601263067
 21
1425.025429166282
 31
0.0
1001
GENIUS_GENODEF_13
1002
{
1000
HIER
1070
     0
1002
}
1002
{
1000
MANEDIT
1070
     0
1002
}
1002
{
1000
NOSEL
1070
     0
1002
}
1002
{
1000
BEHIND
1070
     0
1002
}
1002
{
1000
OTHER
1070
     0
1002
}
1002
{
1000
REACTOR
1002
}
1001
GENIUS_GENOBJ-N-CEN_13
1002
{
1000
OWNER
1000
GEN
1002
}
1001
GENIUS_GENCEN_19
1002
{
1040
1.0
1002
}
  0
LINE
  5
1278
330
1F
100
AcDbEntity
  8
AM_7
  6
AM_ISO08W050x2
100
AcDbLine
 10
2195.967291092355
 20
1429.025429166283
 30
0.0
 11
2195.967291092355
 21
1425.025429166282
 31
0.0
1001
GENIUS_GENODEF_13
1002
{
1000
HIER
1070
     0
1002
}
1002
{
1000
MANEDIT
1070
     0
1002
}
1002
{
1000
NOSEL
1070
     0
1002
}
1002
{
1000
BEHIND
1070
     0
1002
}
1002
{
1000
OTHER
1070
     0
1002
}
1002
{
1000
REACTOR
1002
}
1001
GENIUS_GENOBJ-N-CEN_13
1002
{
1000
OWNER
1000
GEN
1002
}
1001
GENIUS_GENCEN_19
1002
{
1040
1.0
1002
}
  0
LINE
  5
1279
330
1F
100
AcDbEntity
  8
AM_7
  6
AM_ISO08W050x2
100
AcDbLine
 10
2216.717291092356
 20
1429.025429166283
 30
0.0
 11
2216.717291092356
 21
1425.025429166282
 31
0.0
1001
GENIUS_GENODEF_13
1002
{
1000
HIER
1070
     0
1002
}
1002
{
1000
MANEDIT
1070
     0
1002
}
1002
{
1000
NOSEL
1070
     0
1002
}
1002
{
1000
BEHIND
1070
     0
1002
}
1002
{
1000
OTHER
1070
     0
1002
}
1002
{
1000
REACTOR
1002
}
1001
GENIUS_GENOBJ-N-CEN_13
1002
{
1000
OWNER
1000
GEN
1002
}
1001
GENIUS_GENCEN_19
1002
{
1040
1.0
1002
}
  0
LINE
  5
127A
330
1F
100
AcDbEntity
  8
0
100
AcDbLine
 10
2198.967291092356
 20
1428.025429166283
 30
0.0
 11
2198.967291092356
 21
1426.025429166283
 31
0.0
  0
LINE
  5
127B
330
1F
100
AcDbEntity
  8
0
100
AcDbLine
 10
2192.967291092355
 20
1428.025429166283
 30
0.0
 11
2192.967291092355
 21
1426.025429166283
 31
0.0
  0
LINE
  5
127C
330
1F
100
AcDbEntity
  8
AM_7
  6
AM_ISO08W050x2
100
AcDbLine
 10
2175.217291092355
 20
1429.025429166283
 30
0.0
 11
2175.217291092355
 21
1425.025429166282
 31
0.0
1001
GENIUS_GENODEF_13
1002
{
1000
HIER
1070
     0
1002
}
1002
{
1000
MANEDIT
1070
     0
1002
}
1002
{
1000
NOSEL
1070
     0
1002
}
1002
{
1000
BEHIND
1070
     0
1002
}
1002
{
1000
OTHER
1070
     0
1002
}
1002
{
1000
REACTOR
1002
}
1001
GENIUS_GENOBJ-N-CEN_13
1002
{
1000
OWNER
1000
GEN
1002
}
1001
GENIUS_GENCEN_19
1002
{
1040
1.0
1002
}
  0
LINE
  5
127D
330
1F
100
AcDbEntity
  8
AM_7
  6
AM_ISO08W050x2
100
AcDbLine
 10
2264.97163054705
 20
1429.025429166283
 30
0.0
 11
2264.97163054705
 21
1425.025429166282
 31
0.0
1001
GENIUS_GENODEF_13
1002
{
1000
HIER
1070
     0
1002
}
1002
{
1000
MANEDIT
1070
     0
1002
}
1002
{
1000
NOSEL
1070
     0
1002
}
1002
{
1000
BEHIND
1070
     0
1002
}
1002
{
1000
OTHER
1070
     0
1002
}
1002
{
1000
REACTOR
1002
}
1001
GENIUS_GENOBJ-N-CEN_13
1002
{
1000
OWNER
1000
GEN
1002
}
1001
GENIUS_GENCEN_19
1002
{
1040
1.0
1002
}
  0
LINE
  5
127E
330
1F
100
AcDbEntity
  8
AM_7
  6
AM_ISO08W050x2
100
AcDbLine
 10
2131.119601263067
 20
1429.025429166283
 30
0.0
 11
2131.119601263067
 21
1425.025429166282
 31
0.0
1001
GENIUS_GENODEF_13
1002
{
1000
HIER
1070
     0
1002
}
1002
{
1000
MANEDIT
1070
     0
1002
}
1002
{
1000
NOSEL
1070
     0
1002
}
1002
{
1000
BEHIND
1070
     0
1002
}
1002
{
1000
OTHER
1070
     0
1002
}
1002
{
1000
REACTOR
1002
}
1001
GENIUS_GENOBJ-N-CEN_13
1002
{
1000
OWNER
1000
GEN
1002
}
1001
GENIUS_GENCEN_19
1002
{
1040
1.0
1002
}
  0
LINE
  5
127F
330
1F
100
AcDbEntity
  8
AM_7
  6
AM_ISO08W050x2
100
AcDbLine
 10
2336.85674886636
 20
1429.025429166283
 30
0.0
 11
2336.85674886636
 21
1425.025429166282
 31
0.0
1001
GENIUS_GENODEF_13
1002
{
1000
HIER
1070
     0
1002
}
1002
{
1000
MANEDIT
1070
     0
1002
}
1002
{
1000
NOSEL
1070
     0
1002
}
1002
{
1000
BEHIND
1070
     0
1002
}
1002
{
1000
OTHER
1070
     0
1002
}
1002
{
1000
REACTOR
1002
}
1001
GENIUS_GENOBJ-N-CEN_13
1002
{
1000
OWNER
1000
GEN
1002
}
1001
GENIUS_GENCEN_19
1002
{
1040
1.0
1002
}
  0
LINE
  5
1280
330
1F
100
AcDbEntity
  8
AM_7
  6
AM_ISO08W050x2
100
AcDbLine
 10
2357.60674886636
 20
1429.025429166283
 30
0.0
 11
2357.60674886636
 21
1425.025429166282
 31
0.0
1001
GENIUS_GENODEF_13
1002
{
1000
HIER
1070
     0
1002
}
1002
{
1000
MANEDIT
1070
     0
1002
}
1002
{
1000
NOSEL
1070
     0
1002
}
1002
{
1000
BEHIND
1070
     0
1002
}
1002
{
1000
OTHER
1070
     0
1002
}
1002
{
1000
REACTOR
1002
}
1001
GENIUS_GENOBJ-N-CEN_13
1002
{
1000
OWNER
1000
GEN
1002
}
1001
GENIUS_GENCEN_19
1002
{
1040
1.0
1002
}
  0
LINE
  5
1281
330
1F
100
AcDbEntity
  8
0
100
AcDbLine
 10
2339.85674886636
 20
1428.025429166283
 30
0.0
 11
2339.85674886636
 21
1426.025429166283
 31
0.0
  0
LINE
  5
1282
330
1F
100
AcDbEntity
  8
0
100
AcDbLine
 10
2333.85674886636
 20
1428.025429166283
 30
0.0
 11
2333.85674886636
 21
1426.025429166283
 31
0.0
  0
LINE
  5
1283
330
1F
100
AcDbEntity
  8
AM_7
  6
AM_ISO08W050x2
100
AcDbLine
 10
2316.10674886636
 20
1429.025429166283
 30
0.0
 11
2316.10674886636
 21
1425.025429166282
 31
0.0
1001
GENIUS_GENODEF_13
1002
{
1000
HIER
1070
     0
1002
}
1002
{
1000
MANEDIT
1070
     0
1002
}
1002
{
1000
NOSEL
1070
     0
1002
}
1002
{
1000
BEHIND
1070
     0
1002
}
1002
{
1000
OTHER
1070
     0
1002
}
1002
{
1000
REACTOR
1002
}
1001
GENIUS_GENOBJ-N-CEN_13
1002
{
1000
OWNER
1000
GEN
1002
}
1001
GENIUS_GENCEN_19
1002
{
1040
1.0
1002
}
  0
LINE
  5
1284
330
1F
100
AcDbEntity
  8
AM_7
  6
AM_ISO08W050x2
100
AcDbLine
 10
2216.717291092356
 20
1388.025429166283
 30
0.0
 11
2216.717291092356
 21
1368.025429166283
 31
0.0
1001
GENIUS_GENODEF_13
1002
{
1000
HIER
1070
     0
1002
}
1002
{
1000
MANEDIT
1070
     0
1002
}
1002
{
1000
NOSEL
1070
     0
1002
}
1002
{
1000
BEHIND
1070
     0
1002
}
1002
{
1000
OTHER
1070
     0
1002
}
1002
{
1000
REACTOR
1002
}
1001
GENIUS_GENOBJ-N-CEN_13
1002
{
1000
OWNER
1000
GEN
1002
}
1001
GENIUS_GENCEN_19
1002
{
1040
1.0
1002
}
  0
LINE
  5
1285
330
1F
100
AcDbEntity
  8
0
 62
     2
100
AcDbLine
 10
2178.217291092356
 20
1387.025429166283
 30
0.0
 11
2178.217291092356
 21
1369.025429166282
 31
0.0
  0
LINE
  5
1286
330
1F
100
AcDbEntity
  8
0
 62
     2
100
AcDbLine
 10
2172.217291092355
 20
1387.025429166283
 30
0.0
 11
2172.217291092355
 21
1369.025429166282
 31
0.0
  0
LINE
  5
1287
330
1F
100
AcDbEntity
  8
AM_7
  6
AM_ISO08W050x2
100
AcDbLine
 10
2175.217291092355
 20
1388.025429166283
 30
0.0
 11
2175.217291092355
 21
1368.025429166283
 31
0.0
1001
GENIUS_GENODEF_13
1002
{
1000
HIER
1070
     0
1002
}
1002
{
1000
MANEDIT
1070
     0
1002
}
1002
{
1000
NOSEL
1070
     0
1002
}
1002
{
1000
BEHIND
1070
     0
1002
}
1002
{
1000
OTHER
1070
     0
1002
}
1002
{
1000
REACTOR
1002
}
1001
GENIUS_GENOBJ-N-CEN_13
1002
{
1000
OWNER
1000
GEN
1002
}
1001
GENIUS_GENCEN_19
1002
{
1040
1.0
1002
}
  0
LINE
  5
1288
330
1F
100
AcDbEntity
  8
0
 62
     2
100
AcDbLine
 10
2172.217291092355
 20
1369.025429166282
 30
0.0
 11
2178.217291092356
 21
1369.025429166282
 31
0.0
  0
LINE
  5
1289
330
1F
100
AcDbEntity
  8
AM_7
  6
AM_ISO08W050x2
100
AcDbLine
 10
2264.97163054705
 20
1388.025429166283
 30
0.0
 11
2264.97163054705
 21
1368.025429166283
 31
0.0
1001
GENIUS_GENODEF_13
1002
{
1000
HIER
1070
     0
1002
}
1002
{
1000
MANEDIT
1070
     0
1002
}
1002
{
1000
NOSEL
1070
     0
1002
}
1002
{
1000
BEHIND
1070
     0
1002
}
1002
{
1000
OTHER
1070
     0
1002
}
1002
{
1000
REACTOR
1002
}
1001
GENIUS_GENOBJ-N-CEN_13
1002
{
1000
OWNER
1000
GEN
1002
}
1001
GENIUS_GENCEN_19
1002
{
1040
1.0
1002
}
  0
LINE
  5
128A
330
1F
100
AcDbEntity
  8
AM_7
  6
AM_ISO08W050x2
100
AcDbLine
 10
2131.119601263067
 20
1388.025429166283
 30
0.0
 11
2131.119601263067
 21
1368.025429166283
 31
0.0
1001
GENIUS_GENODEF_13
1002
{
1000
HIER
1070
     0
1002
}
1002
{
1000
MANEDIT
1070
     0
1002
}
1002
{
1000
NOSEL
1070
     0
1002
}
1002
{
1000
BEHIND
1070
     0
1002
}
1002
{
1000
OTHER
1070
     0
1002
}
1002
{
1000
REACTOR
1002
}
1001
GENIUS_GENOBJ-N-CEN_13
1002
{
1000
OWNER
1000
GEN
1002
}
1001
GENIUS_GENCEN_19
1002
{
1040
1.0
1002
}
  0
LINE
  5
128B
330
1F
100
AcDbEntity
  8
AM_7
  6
AM_ISO08W050x2
100
AcDbLine
 10
2357.60674886636
 20
1388.025429166283
 30
0.0
 11
2357.60674886636
 21
1368.025429166283
 31
0.0
1001
GENIUS_GENODEF_13
1002
{
1000
HIER
1070
     0
1002
}
1002
{
1000
MANEDIT
1070
     0
1002
}
1002
{
1000
NOSEL
1070
     0
1002
}
1002
{
1000
BEHIND
1070
     0
1002
}
1002
{
1000
OTHER
1070
     0
1002
}
1002
{
1000
REACTOR
1002
}
1001
GENIUS_GENOBJ-N-CEN_13
1002
{
1000
OWNER
1000
GEN
1002
}
1001
GENIUS_GENCEN_19
1002
{
1040
1.0
1002
}
  0
LINE
  5
128C
330
1F
100
AcDbEntity
  8
AM_7
  6
AM_ISO08W050x2
100
AcDbLine
 10
2316.10674886636
 20
1388.025429166283
 30
0.0
 11
2316.10674886636
 21
1368.025429166283
 31
0.0
1001
GENIUS_GENODEF_13
1002
{
1000
HIER
1070
     0
1002
}
1002
{
1000
MANEDIT
1070
     0
1002
}
1002
{
1000
NOSEL
1070
     0
1002
}
1002
{
1000
BEHIND
1070
     0
1002
}
1002
{
1000
OTHER
1070
     0
1002
}
1002
{
1000
REACTOR
1002
}
1001
GENIUS_GENOBJ-N-CEN_13
1002
{
1000
OWNER
1000
GEN
1002
}
1001
GENIUS_GENCEN_19
1002
{
1040
1.0
1002
}
  0
LINE
  5
128D
330
1F
100
AcDbEntity
  8
AM_7
100
AcDbLine
 10
2171.467291092355
 20
1468.079336915839
 30
0.0
 11
2178.967291092356
 21
1468.079336915839
 31
0.0
  0
CIRCLE
  5
128E
330
1F
100
AcDbEntity
  8
AM_0N
100
AcDbCircle
 10
2175.217291092355
 20
1468.079336915839
 30
0.0
 40
2.75
  0
CIRCLE
  5
128F
330
1F
100
AcDbEntity
  8
AM_0N
100
AcDbCircle
 10
2175.217291092355
 20
1468.079336915839
 30
0.0
 40
1.443375672974059
  0
LINE
  5
1290
330
1F
100
AcDbEntity
  8
AM_0N
100
AcDbLine
 10
2176.66066676533
 20
1468.079336915839
 30
0.0
 11
2175.938978928843
 21
1469.329336915839
 31
0.0
  0
LINE
  5
1291
330
1F
100
AcDbEntity
  8
AM_0N
100
AcDbLine
 10
2174.495603255869
 20
1469.329336915839
 30
0.0
 11
2173.773915419381
 21
1468.079336915839
 31
0.0
  0
LINE
  5
1292
330
1F
100
AcDbEntity
  8
AM_7
100
AcDbLine
 10
2175.217291092355
 20
1471.829336915839
 30
0.0
 11
2175.217291092355
 21
1464.329336915839
 31
0.0
  0
LINE
  5
1293
330
1F
100
AcDbEntity
  8
AM_0N
100
AcDbLine
 10
2174.495603255868
 20
1466.829336915839
 30
0.0
 11
2175.938978928843
 21
1466.829336915839
 31
0.0
  0
LINE
  5
1294
330
1F
100
AcDbEntity
  8
AM_0N
100
AcDbLine
 10
2173.773915419381
 20
1468.079336915839
 30
0.0
 11
2174.495603255868
 21
1466.829336915839
 31
0.0
  0
LINE
  5
1295
330
1F
100
AcDbEntity
  8
AM_0N
100
AcDbLine
 10
2175.938978928843
 20
1466.829336915839
 30
0.0
 11
2176.66066676533
 21
1468.079336915839
 31
0.0
  0
LINE
  5
1296
330
1F
100
AcDbEntity
  8
AM_0N
100
AcDbLine
 10
2175.938978928843
 20
1469.329336915839
 30
0.0
 11
2174.495603255869
 21
1469.329336915839
 31
0.0
  0
LINE
  5
1297
330
1F
100
AcDbEntity
  8
AM_7
100
AcDbLine
 10
2220.467291092356
 20
1468.079336915839
 30
0.0
 11
2212.967291092356
 21
1468.079336915839
 31
0.0
  0
CIRCLE
  5
1298
330
1F
100
AcDbEntity
  8
AM_0N
100
AcDbCircle
 10
2216.717291092356
 20
1468.079336915839
 30
0.0
 40
2.75
  0
CIRCLE
  5
1299
330
1F
100
AcDbEntity
  8
AM_0N
100
AcDbCircle
 10
2216.717291092356
 20
1468.079336915839
 30
0.0
 40
1.443375672974059
  0
LINE
  5
129A
330
1F
100
AcDbEntity
  8
AM_0N
100
AcDbLine
 10
2215.273915419381
 20
1468.079336915839
 30
0.0
 11
2215.995603255867
 21
1469.329336915839
 31
0.0
  0
LINE
  5
129B
330
1F
100
AcDbEntity
  8
AM_0N
100
AcDbLine
 10
2217.438978928843
 20
1469.329336915839
 30
0.0
 11
2218.160666765329
 21
1468.079336915839
 31
0.0
  0
LINE
  5
129C
330
1F
100
AcDbEntity
  8
AM_7
100
AcDbLine
 10
2216.717291092356
 20
1471.829336915839
 30
0.0
 11
2216.717291092356
 21
1464.329336915839
 31
0.0
  0
LINE
  5
129D
330
1F
100
AcDbEntity
  8
AM_0N
100
AcDbLine
 10
2217.438978928843
 20
1466.829336915839
 30
0.0
 11
2215.995603255869
 21
1466.829336915839
 31
0.0
  0
LINE
  5
129E
330
1F
100
AcDbEntity
  8
AM_0N
100
AcDbLine
 10
2218.160666765329
 20
1468.079336915839
 30
0.0
 11
2217.438978928843
 21
1466.829336915839
 31
0.0
  0
LINE
  5
129F
330
1F
100
AcDbEntity
  8
AM_0N
100
AcDbLine
 10
2215.995603255869
 20
1466.829336915839
 30
0.0
 11
2215.273915419381
 21
1468.079336915839
 31
0.0
  0
LINE
  5
12A0
330
1F
100
AcDbEntity
  8
AM_0N
100
AcDbLine
 10
2215.995603255867
 20
1469.329336915839
 30
0.0
 11
2217.438978928843
 21
1469.329336915839
 31
0.0
  0
CIRCLE
  5
12A1
330
1F
100
AcDbEntity
  8
0
100
AcDbCircle
 10
2175.217291092355
 20
1558.159891458949
 30
0.0
 40
4.0
  0
CIRCLE
  5
12A2
330
1F
100
AcDbEntity
  8
0
100
AcDbCircle
 10
2216.717291092356
 20
1558.159891458949
 30
0.0
 40
4.0
  0
CIRCLE
  5
12A3
330
1F
100
AcDbEntity
  8
0
100
AcDbCircle
 10
2175.217291092355
 20
1342.81430781342
 30
0.0
 40
3.0
  0
CIRCLE
  5
12A4
330
1F
100
AcDbEntity
  8
0
100
AcDbCircle
 10
2216.717291092356
 20
1342.81430781342
 30
0.0
 40
3.0
  0
LINE
  5
12A5
330
1F
100
AcDbEntity
  8
0
100
AcDbLine
 10
2178.217291092356
 20
1428.025429166283
 30
0.0
 11
2178.217291092356
 21
1426.025429166283
 31
0.0
  0
LINE
  5
12A6
330
1F
100
AcDbEntity
  8
0
100
AcDbLine
 10
2172.217291092355
 20
1428.025429166283
 30
0.0
 11
2172.217291092355
 21
1426.025429166283
 31
0.0
  0
LINE
  5
12A7
330
1F
100
AcDbEntity
  8
0
100
AcDbLine
 10
2219.717291092356
 20
1428.025429166283
 30
0.0
 11
2219.717291092356
 21
1426.025429166283
 31
0.0
  0
LINE
  5
12A8
330
1F
100
AcDbEntity
  8
0
100
AcDbLine
 10
2213.717291092356
 20
1428.025429166283
 30
0.0
 11
2213.717291092356
 21
1426.025429166283
 31
0.0
  0
LINE
  5
12A9
330
1F
100
AcDbEntity
  8
0
100
AcDbLine
 10
2134.119601263067
 20
1428.025429166283
 30
0.0
 11
2134.119601263067
 21
1426.025429166283
 31
0.0
  0
LINE
  5
12AA
330
1F
100
AcDbEntity
  8
0
100
AcDbLine
 10
2128.119601263067
 20
1428.025429166283
 30
0.0
 11
2128.119601263067
 21
1426.025429166283
 31
0.0
  0
LINE
  5
12AB
330
1F
100
AcDbEntity
  8
0
100
AcDbLine
 10
2267.97163054705
 20
1428.025429166283
 30
0.0
 11
2267.97163054705
 21
1426.025429166283
 31
0.0
  0
LINE
  5
12AC
330
1F
100
AcDbEntity
  8
0
100
AcDbLine
 10
2261.97163054705
 20
1428.025429166283
 30
0.0
 11
2261.97163054705
 21
1426.025429166283
 31
0.0
  0
LINE
  5
12AD
330
1F
100
AcDbEntity
  8
0
100
AcDbLine
 10
2319.10674886636
 20
1428.025429166283
 30
0.0
 11
2319.10674886636
 21
1426.025429166283
 31
0.0
  0
LINE
  5
12AE
330
1F
100
AcDbEntity
  8
0
100
AcDbLine
 10
2313.10674886636
 20
1428.025429166283
 30
0.0
 11
2313.10674886636
 21
1426.025429166283
 31
0.0
  0
LINE
  5
12AF
330
1F
100
AcDbEntity
  8
0
100
AcDbLine
 10
2360.60674886636
 20
1428.025429166283
 30
0.0
 11
2360.60674886636
 21
1426.025429166283
 31
0.0
  0
LINE
  5
12B0
330
1F
100
AcDbEntity
  8
0
100
AcDbLine
 10
2354.60674886636
 20
1428.025429166283
 30
0.0
 11
2354.60674886636
 21
1426.025429166283
 31
0.0
  0
LINE
  5
12B1
330
1F
100
AcDbEntity
  8
0
 62
     2
100
AcDbLine
 10
2219.717291092356
 20
1387.025429166283
 30
0.0
 11
2219.717291092356
 21
1369.025429166282
 31
0.0
  0
LINE
  5
12B2
330
1F
100
AcDbEntity
  8
0
 62
     2
100
AcDbLine
 10
2213.717291092356
 20
1387.025429166283
 30
0.0
 11
2213.717291092356
 21
1369.025429166282
 31
0.0
  0
LINE
  5
12B3
330
1F
100
AcDbEntity
  8
0
 62
     2
100
AcDbLine
 10
2213.717291092356
 20
1369.025429166282
 30
0.0
 11
2219.717291092356
 21
1369.025429166282
 31
0.0
  0
LINE
  5
12B4
330
1F
100
AcDbEntity
  8
0
 62
     2
100
AcDbLine
 10
2267.97163054705
 20
1387.025429166283
 30
0.0
 11
2267.97163054705
 21
1369.025429166282
 31
0.0
  0
LINE
  5
12B5
330
1F
100
AcDbEntity
  8
0
 62
     2
100
AcDbLine
 10
2261.97163054705
 20
1387.025429166283
 30
0.0
 11
2261.97163054705
 21
1369.025429166282
 31
0.0
  0
LINE
  5
12B6
330
1F
100
AcDbEntity
  8
0
 62
     2
100
AcDbLine
 10
2261.97163054705
 20
1369.025429166282
 30
0.0
 11
2267.97163054705
 21
1369.025429166282
 31
0.0
  0
LINE
  5
12B7
330
1F
100
AcDbEntity
  8
0
 62
     2
100
AcDbLine
 10
2319.10674886636
 20
1387.025429166283
 30
0.0
 11
2319.10674886636
 21
1369.025429166282
 31
0.0
  0
LINE
  5
12B8
330
1F
100
AcDbEntity
  8
0
 62
     2
100
AcDbLine
 10
2313.10674886636
 20
1387.025429166283
 30
0.0
 11
2313.10674886636
 21
1369.025429166282
 31
0.0
  0
LINE
  5
12B9
330
1F
100
AcDbEntity
  8
0
 62
     2
100
AcDbLine
 10
2313.10674886636
 20
1369.025429166282
 30
0.0
 11
2319.10674886636
 21
1369.025429166282
 31
0.0
  0
LINE
  5
12BA
330
1F
100
AcDbEntity
  8
0
 62
     2
100
AcDbLine
 10
2360.60674886636
 20
1387.025429166283
 30
0.0
 11
2360.60674886636
 21
1369.025429166282
 31
0.0
  0
LINE
  5
12BB
330
1F
100
AcDbEntity
  8
0
 62
     2
100
AcDbLine
 10
2354.60674886636
 20
1387.025429166283
 30
0.0
 11
2354.60674886636
 21
1369.025429166282
 31
0.0
  0
LINE
  5
12BC
330
1F
100
AcDbEntity
  8
0
 62
     2
100
AcDbLine
 10
2354.60674886636
 20
1369.025429166282
 30
0.0
 11
2360.60674886636
 21
1369.025429166282
 31
0.0
  0
LINE
  5
12BD
330
1F
100
AcDbEntity
  8
0
 62
     2
100
AcDbLine
 10
2134.119601263067
 20
1387.025429166283
 30
0.0
 11
2134.119601263067
 21
1369.025429166282
 31
0.0
  0
LINE
  5
12BE
330
1F
100
AcDbEntity
  8
0
 62
     2
100
AcDbLine
 10
2128.119601263067
 20
1387.025429166283
 30
0.0
 11
2128.119601263067
 21
1369.025429166282
 31
0.0
  0
LINE
  5
12BF
330
1F
100
AcDbEntity
  8
0
 62
     2
100
AcDbLine
 10
2128.119601263067
 20
1369.025429166282
 30
0.0
 11
2134.119601263067
 21
1369.025429166282
 31
0.0
  0
DIMENSION
  5
12C0
102
{ACAD_XDICTIONARY
360
12C1
102
}
102
{ACAD_REACTORS
330
12C2
102
}
330
1F
100
AcDbEntity
  8
AM_5
100
AcDbDimension
  2
*D6
 10
2243.967291092356
 20
1602.371012811811
 30
0.0
 11
2243.967291092356
 21
1593.371012811811
 31
0.0
 70
   160
  1
L2
 71
     5
 42
18.0
  3
AM_ISO$0
100
AcDbAlignedDimension
 13
2220.717291092356
 23
1584.371012811811
 33
0.0
 14
2224.967291092355
 24
1602.371012811811
 34
0.0
 50
90.0
100
AcDbRotatedDimension
1001
ACAD
1000
DSTYLE
1002
{
1070
    40
1040
1.0
1070
   144
1040
1.0
1070
   272
1070
     8
1002
}
  0
DIMENSION
  5
12C3
102
{ACAD_XDICTIONARY
360
12C4
102
}
102
{ACAD_REACTORS
330
12C5
102
}
330
1F
100
AcDbEntity
  8
AM_5
100
AcDbDimension
  2
*D7
 10
2236.967291092355
 20
1641.371012811811
 30
0.0
 11
2234.467291092355
 21
1621.871012811811
 31
0.0
 70
    32
  1
L1
 71
     5
 42
39.0
  3
AM_ISO$0
100
AcDbAlignedDimension
 13
2224.967291092355
 23
1602.371012811811
 33
0.0
 14
2224.967291092355
 24
1641.371012811811
 34
0.0
 50
90.0
100
AcDbRotatedDimension
1001
ACAD
1000
DSTYLE
1002
{
1070
    40
1040
1.0
1070
   144
1040
1.0
1070
   272
1070
     8
1002
}
  0
LINE
  5
12CC
330
1F
100
AcDbEntity
  8
0
100
AcDbLine
 10
2314.538428702173
 20
1682.293324724046
 30
0.0
 11
2356.138428702174
 21
1682.293324724046
 31
0.0
  0
LINE
  5
12CD
330
1F
100
AcDbEntity
  8
0
100
AcDbLine
 10
2314.538428702173
 20
1687.413324724046
 30
0.0
 11
2356.138428702174
 21
1687.413324724046
 31
0.0
  0
LINE
  5
12CE
330
1F
100
AcDbEntity
  8
0
100
AcDbLine
 10
2314.538428702173
 20
1692.533324724046
 30
0.0
 11
2356.138428702174
 21
1692.533324724046
 31
0.0
  0
LINE
  5
12CF
330
1F
100
AcDbEntity
  8
0
100
AcDbLine
 10
2314.538428702173
 20
1697.653324724046
 30
0.0
 11
2356.138428702174
 21
1697.653324724046
 31
0.0
  0
LINE
  5
12D0
330
1F
100
AcDbEntity
  8
0
100
AcDbLine
 10
2314.538428702173
 20
1702.773324724046
 30
0.0
 11
2356.138428702174
 21
1702.773324724046
 31
0.0
  0
LINE
  5
12D1
330
1F
100
AcDbEntity
  8
0
100
AcDbLine
 10
2314.538428702173
 20
1707.893324724046
 30
0.0
 11
2356.138428702174
 21
1707.893324724046
 31
0.0
  0
LINE
  5
12D2
330
1F
100
AcDbEntity
  8
0
100
AcDbLine
 10
2314.538428702173
 20
1713.013324724046
 30
0.0
 11
2356.138428702174
 21
1713.013324724046
 31
0.0
  0
LINE
  5
12D3
330
1F
100
AcDbEntity
  8
0
100
AcDbLine
 10
2314.538428702173
 20
1718.133324724046
 30
0.0
 11
2356.138428702174
 21
1718.133324724046
 31
0.0
  0
LINE
  5
12D4
330
1F
100
AcDbEntity
  8
0
100
AcDbLine
 10
2314.538428702173
 20
1723.253324724046
 30
0.0
 11
2356.138428702174
 21
1723.253324724046
 31
0.0
  0
LINE
  5
12D5
330
1F
100
AcDbEntity
  8
0
100
AcDbLine
 10
2327.338428702174
 20
1723.253324724046
 30
0.0
 11
2327.338428702174
 21
1682.293324724046
 31
0.0
  0
LINE
  5
12D6
330
1F
100
AcDbEntity
  8
0
100
AcDbLine
 10
2314.538428702173
 20
1723.253324724046
 30
0.0
 11
2314.538428702173
 21
1682.293324724046
 31
0.0
  0
TEXT
  5
12D7
330
1F
100
AcDbEntity
  8
0
100
AcDbText
 10
2318.995571559316
 20
1688.773324724046
 30
0.0
 40
2.4
  1
75
  7
CHINESET
 72
     4
 11
2320.938428702174
 21
1689.973324724046
 31
0.0
100
AcDbText
  0
TEXT
  5
12D8
330
1F
100
AcDbEntity
  8
0
100
AcDbText
 10
2318.995571559316
 20
1693.893324724046
 30
0.0
 40
2.4
  1
50
  7
CHINESET
 72
     4
 11
2320.938428702174
 21
1695.093324724046
 31
0.0
100
AcDbText
  0
TEXT
  5
12D9
330
1F
100
AcDbEntity
  8
0
100
AcDbText
 10
2318.081285845031
 20
1683.653324724046
 30
0.0
 40
2.4
  1
100
  7
CHINESET
 72
     4
 11
2320.938428702174
 21
1684.853324724046
 31
0.0
100
AcDbText
  0
TEXT
  5
12DA
330
1F
100
AcDbEntity
  8
0
100
AcDbText
 10
2318.995571559316
 20
1709.253324724046
 30
0.0
 40
2.4
  1
20
  7
CHINESET
 72
     4
 11
2320.938428702174
 21
1710.453324724046
 31
0.0
100
AcDbText
  0
TEXT
  5
12DB
330
1F
100
AcDbEntity
  8
0
100
AcDbText
 10
2318.995571559316
 20
1699.013324724046
 30
0.0
 40
2.4
  1
40
  7
CHINESET
 72
     4
 11
2320.938428702174
 21
1700.213324724046
 31
0.0
100
AcDbText
  0
TEXT
  5
12DC
330
1F
100
AcDbEntity
  8
0
100
AcDbText
 10
2318.995571559316
 20
1704.133324724046
 30
0.0
 40
2.4
  1
30
  7
CHINESET
 72
     4
 11
2320.938428702174
 21
1705.333324724046
 31
0.0
100
AcDbText
  0
TEXT
  5
12DD
330
1F
100
AcDbEntity
  8
0
100
AcDbText
 10
2319.224142987888
 20
1714.373324724046
 30
0.0
 40
2.4
  1
10
  7
CHINESET
 72
     4
 11
2320.938428702174
 21
1715.573324724046
 31
0.0
100
AcDbText
  0
TEXT
  5
12DE
330
1F
100
AcDbEntity
  8
0
100
AcDbText
 10
2315.37914192921
 20
1719.079926591247
 30
0.0
 40
3.04128
  1
Stroke
 41
0.8
  7
CHINESET
100
AcDbText
  0
LINE
  5
12DF
330
1F
100
AcDbEntity
  8
0
100
AcDbLine
 10
2356.138428702174
 20
1723.253324724046
 30
0.0
 11
2356.138428702174
 21
1682.293324724046
 31
0.0
  0
LINE
  5
12E0
330
1F
100
AcDbEntity
  8
0
100
AcDbLine
 10
2356.138428702174
 20
1723.253324724046
 30
0.0
 11
2356.138428702174
 21
1682.293324724046
 31
0.0
  0
LINE
  5
12E1
330
1F
100
AcDbEntity
  8
0
100
AcDbLine
 10
2346.538428702173
 20
1723.253324724046
 30
0.0
 11
2346.538428702173
 21
1682.293324724046
 31
0.0
  0
LINE
  5
12E2
330
1F
100
AcDbEntity
  8
0
100
AcDbLine
 10
2336.938428702174
 20
1723.253324724046
 30
0.0
 11
2336.938428702174
 21
1682.293324724046
 31
0.0
  0
TEXT
  5
12E3
330
1F
100
AcDbEntity
  8
0
100
AcDbText
 10
2329.338428702174
 20
1683.653324724046
 30
0.0
 40
2.4
  1
139
  7
CHINESET
 72
     4
 11
2332.138428702174
 21
1684.853324724046
 31
0.0
100
AcDbText
  0
TEXT
  5
12E4
330
1F
100
AcDbEntity
  8
0
100
AcDbText
 10
2329.45271441646
 20
1688.773324724046
 30
0.0
 40
2.4
  1
114
  7
CHINESET
 72
     4
 11
2332.138428702174
 21
1689.973324724046
 31
0.0
100
AcDbText
  0
TEXT
  5
12E5
330
1F
100
AcDbEntity
  8
0
100
AcDbText
 10
2330.252714416459
 20
1693.893324724046
 30
0.0
 40
2.4
  1
89
  7
CHINESET
 72
     4
 11
2332.138428702174
 21
1695.093324724046
 31
0.0
100
AcDbText
  0
TEXT
  5
12E6
330
1F
100
AcDbEntity
  8
0
100
AcDbText
 10
2338.938428702173
 20
1683.653324724046
 30
0.0
 40
2.4
  1
129
  7
CHINESET
 72
     4
 11
2341.738428702173
 21
1684.853324724046
 31
0.0
100
AcDbText
  0
TEXT
  5
12E7
330
1F
100
AcDbEntity
  8
0
100
AcDbText
 10
2339.852714416459
 20
1693.893324724046
 30
0.0
 40
2.4
  1
79
  7
CHINESET
 72
     4
 11
2341.738428702173
 21
1695.093324724046
 31
0.0
100
AcDbText
  0
TEXT
  5
12E8
330
1F
100
AcDbEntity
  8
0
100
AcDbText
 10
2338.824142987888
 20
1688.773324724046
 30
0.0
 40
2.4
  1
104
  7
CHINESET
 72
     4
 11
2341.738428702173
 21
1689.973324724046
 31
0.0
100
AcDbText
  0
TEXT
  5
12E9
330
1F
100
AcDbEntity
  8
0
100
AcDbText
 10
2330.252714416459
 20
1699.013324724046
 30
0.0
 40
2.4
  1
79
  7
CHINESET
 72
     4
 11
2332.138428702174
 21
1700.213324724046
 31
0.0
100
AcDbText
  0
TEXT
  5
12EA
330
1F
100
AcDbEntity
  8
0
100
AcDbText
 10
2330.252714416459
 20
1704.133324724046
 30
0.0
 40
2.4
  1
69
  7
CHINESET
 72
     4
 11
2332.138428702174
 21
1705.333324724046
 31
0.0
100
AcDbText
  0
TEXT
  5
12EB
330
1F
100
AcDbEntity
  8
0
100
AcDbText
 10
2330.252714416459
 20
1709.253324724046
 30
0.0
 40
2.4
  1
59
  7
CHINESET
 72
     4
 11
2332.138428702174
 21
1710.453324724046
 31
0.0
100
AcDbText
  0
TEXT
  5
12EC
330
1F
100
AcDbEntity
  8
0
100
AcDbText
 10
2330.252714416459
 20
1714.373324724046
 30
0.0
 40
2.4
  1
49
  7
CHINESET
 72
     4
 11
2332.138428702174
 21
1715.573324724046
 31
0.0
100
AcDbText
  0
TEXT
  5
12ED
330
1F
100
AcDbEntity
  8
0
100
AcDbText
 10
2339.852714416459
 20
1699.013324724046
 30
0.0
 40
2.4
  1
69
  7
CHINESET
 72
     4
 11
2341.738428702173
 21
1700.213324724046
 31
0.0
100
AcDbText
  0
TEXT
  5
12EE
330
1F
100
AcDbEntity
  8
0
100
AcDbText
 10
2339.852714416459
 20
1704.133324724046
 30
0.0
 40
2.4
  1
59
  7
CHINESET
 72
     4
 11
2341.738428702173
 21
1705.333324724046
 31
0.0
100
AcDbText
  0
TEXT
  5
12EF
330
1F
100
AcDbEntity
  8
0
100
AcDbText
 10
2339.852714416459
 20
1709.253324724046
 30
0.0
 40
2.4
  1
49
  7
CHINESET
 72
     4
 11
2341.738428702173
 21
1710.453324724046
 31
0.0
100
AcDbText
  0
TEXT
  5
12F0
330
1F
100
AcDbEntity
  8
0
100
AcDbText
 10
2339.852714416459
 20
1714.373324724046
 30
0.0
 40
2.4
  1
39
  7
CHINESET
 72
     4
 11
2341.738428702173
 21
1715.573324724046
 31
0.0
100
AcDbText
  0
TEXT
  5
12F1
330
1F
100
AcDbEntity
  8
0
100
AcDbText
 10
2349.624142987888
 20
1683.653324724046
 30
0.0
 40
2.4
  1
18
  7
CHINESET
 72
     4
 11
2351.338428702174
 21
1684.853324724046
 31
0.0
100
AcDbText
  0
TEXT
  5
12F2
330
1F
100
AcDbEntity
  8
0
100
AcDbText
 10
2349.624142987888
 20
1688.773324724046
 30
0.0
 40
2.4
  1
18
  7
CHINESET
 72
     4
 11
2351.338428702174
 21
1689.973324724046
 31
0.0
100
AcDbText
  0
TEXT
  5
12F3
330
1F
100
AcDbEntity
  8
0
100
AcDbText
 10
2330.858220113483
 20
1719.317995657842
 30
0.0
 40
2.8
  1
L
  7
CHINESET
100
AcDbText
  0
TEXT
  5
12F4
330
1F
100
AcDbEntity
  8
0
100
AcDbText
 10
2339.766395139905
 20
1719.317995657842
 30
0.0
 40
2.8
  1
L
  7
CHINESET
100
AcDbText
  0
TEXT
  5
12F5
330
1F
100
AcDbEntity
  8
0
100
AcDbText
 10
2342.142280032571
 20
1719.339718462515
 30
0.0
 40
1.6
  1
1
  7
CHINESET
100
AcDbText
  0
TEXT
  5
12F6
330
1F
100
AcDbEntity
  8
0
100
AcDbText
 10
2349.343018185479
 20
1719.317995657842
 30
0.0
 40
2.8
  1
L
  7
CHINESET
100
AcDbText
  0
TEXT
  5
12F7
330
1F
100
AcDbEntity
  8
0
100
AcDbText
 10
2351.551451812752
 20
1719.342627610076
 30
0.0
 40
1.6
  1
2
  7
CHINESET
100
AcDbText
  0
TEXT
  5
12F8
330
1F
100
AcDbEntity
  8
0
100
AcDbText
 10
2268.746087128592
 20
1720.408329403876
 30
0.0
 40
3.04128
  1
Model : MCGB-03
 41
0.8
  7
CHINESET
100
AcDbText
  0
TEXT
  5
12F9
330
1F
100
AcDbEntity
  8
0
100
AcDbText
 10
2268.746087128592
 20
1714.964093290447
 30
0.0
 40
3.04128
  1
Tube I.D. : %%C12
 41
0.8
  7
CHINESET
100
AcDbText
  0
TEXT
  5
12FA
330
1F
100
AcDbEntity
  8
0
100
AcDbText
 10
2268.746087128592
 20
1709.726306604826
 30
0.0
 40
3.04128
  1
Stroke : 10
 41
0.8
  7
CHINESET
100
AcDbText
  0
DIMENSION
  5
12FB
102
{ACAD_XDICTIONARY
360
12FC
102
}
102
{ACAD_REACTORS
330
12FD
102
}
330
1F
100
AcDbEntity
  8
AM_5
100
AcDbDimension
  2
*D8
 10
2243.967291092356
 20
1651.371012811811
 30
0.0
 11
2241.467291092355
 21
1626.871012811811
 31
0.0
 70
    32
  1
L
 71
     5
 42
49.0
  3
AM_ISO$0
100
AcDbAlignedDimension
 13
2224.967291092355
 23
1602.371012811811
 33
0.0
 14
2223.467291092356
 24
1651.371012811811
 34
0.0
 50
90.0
100
AcDbRotatedDimension
1001
ACAD
1000
DSTYLE
1002
{
1070
    40
1040
1.0
1070
   144
1040
1.0
1070
   272
1070
     8
1002
}
  0
TEXT
  5
12FE
330
1F
100
AcDbEntity
  8
0
100
AcDbText
 10
2350.538428702173
 20
1714.373324724046
 30
0.0
 40
2.4
  1
0
  7
CHINESET
 72
     4
 11
2351.338428702174
 21
1715.573324724046
 31
0.0
100
AcDbText
  0
TEXT
  5
12FF
330
1F
100
AcDbEntity
  8
0
100
AcDbText
 10
2350.538428702173
 20
1709.253324724046
 30
0.0
 40
2.4
  1
0
  7
CHINESET
 72
     4
 11
2351.338428702174
 21
1710.453324724046
 31
0.0
100
AcDbText
  0
TEXT
  5
1300
330
1F
100
AcDbEntity
  8
0
100
AcDbText
 10
2350.538428702173
 20
1704.133324724046
 30
0.0
 40
2.4
  1
0
  7
CHINESET
 72
     4
 11
2351.338428702174
 21
1705.333324724046
 31
0.0
100
AcDbText
  0
TEXT
  5
1301
330
1F
100
AcDbEntity
  8
0
100
AcDbText
 10
2350.538428702173
 20
1699.013324724046
 30
0.0
 40
2.4
  1
0
  7
CHINESET
 72
     4
 11
2351.338428702174
 21
1700.213324724046
 31
0.0
100
AcDbText
  0
TEXT
  5
1302
330
1F
100
AcDbEntity
  8
0
100
AcDbText
 10
2350.538428702173
 20
1693.893324724046
 30
0.0
 40
2.4
  1
0
  7
CHINESET
 72
     4
 11
2351.338428702174
 21
1695.093324724046
 31
0.0
100
AcDbText
  0
DIMENSION
  5
1303
330
1F
100
AcDbEntity
  8
AM_5
100
AcDbDimension
  2
*D3
 10
2243.967291092356
 20
1387.025429166283
 30
0.0
 11
2243.967291092356
 21
1378.025429166283
 31
0.0
 70
   160
  1
L2
 71
     5
 42
18.0
  3
AM_ISO$0
100
AcDbAlignedDimension
 13
2219.717291092356
 23
1369.025429166282
 33
0.0
 14
2224.967291092355
 24
1387.025429166283
 34
0.0
 50
90.0
100
AcDbRotatedDimension
1001
ACAD
1000
DSTYLE
1002
{
1070
    40
1040
1.0
1070
   144
1040
1.0
1070
   272
1070
     8
1002
}
  0
DIMENSION
  5
1304
330
1F
100
AcDbEntity
  8
AM_5
100
AcDbDimension
  2
*D4
 10
2236.967291092355
 20
1426.025429166283
 30
0.0
 11
2234.467291092355
 21
1406.525429166283
 31
0.0
 70
    32
  1
L1
 71
     5
 42
39.0
  3
AM_ISO$0
100
AcDbAlignedDimension
 13
2224.967291092355
 23
1387.025429166283
 33
0.0
 14
2224.967291092355
 24
1426.025429166283
 34
0.0
 50
90.0
100
AcDbRotatedDimension
1001
ACAD
1000
DSTYLE
1002
{
1070
    40
1040
1.0
1070
   144
1040
1.0
1070
   272
1070
     8
1002
}
  0
DIMENSION
  5
1307
330
1F
100
AcDbEntity
  8
AM_5
100
AcDbDimension
  2
*D5
 10
2243.967291092356
 20
1436.025429166283
 30
0.0
 11
2241.467291092355
 21
1411.525429166283
 31
0.0
 70
    32
  1
L
 71
     5
 42
49.0
  3
AM_ISO$0
100
AcDbAlignedDimension
 13
2224.967291092355
 23
1387.025429166283
 33
0.0
 14
2223.467291092356
 24
1436.025429166283
 34
0.0
 50
90.0
100
AcDbRotatedDimension
1001
ACAD
1000
DSTYLE
1002
{
1070
    40
1040
1.0
1070
   144
1040
1.0
1070
   272
1070
     8
1002
}
  0
TEXT
  5
1308
330
1F
100
AcDbEntity
  8
0
100
AcDbText
 10
2268.746087128592
 20
1503.003631475116
 30
0.0
 40
3.04128
  1
Model : MCGB-23
 41
0.8
  7
CHINESET
100
AcDbText
  0
TEXT
  5
1309
330
1F
100
AcDbEntity
  8
0
100
AcDbText
 10
2268.746087128592
 20
1497.559395361688
 30
0.0
 40
3.04128
  1
Tube I.D. : %%C12
 41
0.8
  7
CHINESET
100
AcDbText
  0
TEXT
  5
130A
330
1F
100
AcDbEntity
  8
0
100
AcDbText
 10
2268.746087128592
 20
1492.321608676067
 30
0.0
 40
3.04128
  1
Stroke : 10
 41
0.8
  7
CHINESET
100
AcDbText
  0
LINE
  5
130B
330
1F
100
AcDbEntity
  8
0
100
AcDbLine
 10
2356.138428702174
 20
1505.848626795286
 30
0.0
 11
2356.138428702174
 21
1464.888626795286
 31
0.0
  0
LINE
  5
130C
330
1F
100
AcDbEntity
  8
0
100
AcDbLine
 10
2314.538428702173
 20
1505.848626795286
 30
0.0
 11
2314.538428702173
 21
1464.888626795286
 31
0.0
  0
LINE
  5
130D
330
1F
100
AcDbEntity
  8
0
100
AcDbLine
 10
2327.338428702174
 20
1505.848626795286
 30
0.0
 11
2327.338428702174
 21
1464.888626795286
 31
0.0
  0
LINE
  5
130E
330
1F
100
AcDbEntity
  8
0
100
AcDbLine
 10
2346.538428702173
 20
1505.848626795286
 30
0.0
 11
2346.538428702173
 21
1464.888626795286
 31
0.0
  0
LINE
  5
130F
330
1F
100
AcDbEntity
  8
0
100
AcDbLine
 10
2336.938428702174
 20
1505.848626795286
 30
0.0
 11
2336.938428702174
 21
1464.888626795286
 31
0.0
  0
LINE
  5
1310
330
1F
100
AcDbEntity
  8
0
100
AcDbLine
 10
2314.538428702173
 20
1464.888626795286
 30
0.0
 11
2356.138428702174
 21
1464.888626795286
 31
0.0
  0
LINE
  5
1311
330
1F
100
AcDbEntity
  8
0
100
AcDbLine
 10
2314.538428702173
 20
1470.008626795286
 30
0.0
 11
2356.138428702174
 21
1470.008626795286
 31
0.0
  0
LINE
  5
1312
330
1F
100
AcDbEntity
  8
0
100
AcDbLine
 10
2314.538428702173
 20
1475.128626795286
 30
0.0
 11
2356.138428702174
 21
1475.128626795286
 31
0.0
  0
LINE
  5
1313
330
1F
100
AcDbEntity
  8
0
100
AcDbLine
 10
2314.538428702173
 20
1480.248626795286
 30
0.0
 11
2356.138428702174
 21
1480.248626795286
 31
0.0
  0
LINE
  5
1314
330
1F
100
AcDbEntity
  8
0
100
AcDbLine
 10
2314.538428702173
 20
1485.368626795287
 30
0.0
 11
2356.138428702174
 21
1485.368626795287
 31
0.0
  0
LINE
  5
1315
330
1F
100
AcDbEntity
  8
0
100
AcDbLine
 10
2314.538428702173
 20
1490.488626795286
 30
0.0
 11
2356.138428702174
 21
1490.488626795286
 31
0.0
  0
LINE
  5
1316
330
1F
100
AcDbEntity
  8
0
100
AcDbLine
 10
2314.538428702173
 20
1495.608626795286
 30
0.0
 11
2356.138428702174
 21
1495.608626795286
 31
0.0
  0
TEXT
  5
1317
330
1F
100
AcDbEntity
  8
0
100
AcDbText
 10
2330.252714416459
 20
1481.608626795286
 30
0.0
 40
2.4
  1
79
  7
CHINESET
 72
     4
 11
2332.138428702174
 21
1482.808626795286
 31
0.0
100
AcDbText
  0
TEXT
  5
1318
330
1F
100
AcDbEntity
  8
0
100
AcDbText
 10
2330.252714416459
 20
1486.728626795286
 30
0.0
 40
2.4
  1
69
  7
CHINESET
 72
     4
 11
2332.138428702174
 21
1487.928626795286
 31
0.0
100
AcDbText
  0
TEXT
  5
1319
330
1F
100
AcDbEntity
  8
0
100
AcDbText
 10
2330.252714416459
 20
1491.848626795286
 30
0.0
 40
2.4
  1
59
  7
CHINESET
 72
     4
 11
2332.138428702174
 21
1493.048626795286
 31
0.0
100
AcDbText
  0
TEXT
  5
131A
330
1F
100
AcDbEntity
  8
0
100
AcDbText
 10
2330.252714416459
 20
1496.968626795286
 30
0.0
 40
2.4
  1
49
  7
CHINESET
 72
     4
 11
2332.138428702174
 21
1498.168626795286
 31
0.0
100
AcDbText
  0
TEXT
  5
131B
330
1F
100
AcDbEntity
  8
0
100
AcDbText
 10
2329.45271441646
 20
1471.368626795286
 30
0.0
 40
2.4
  1
114
  7
CHINESET
 72
     4
 11
2332.138428702174
 21
1472.568626795286
 31
0.0
100
AcDbText
  0
TEXT
  5
131C
330
1F
100
AcDbEntity
  8
0
100
AcDbText
 10
2329.338428702174
 20
1466.248626795287
 30
0.0
 40
2.4
  1
139
  7
CHINESET
 72
     4
 11
2332.138428702174
 21
1467.448626795287
 31
0.0
100
AcDbText
  0
TEXT
  5
131D
330
1F
100
AcDbEntity
  8
0
100
AcDbText
 10
2330.252714416459
 20
1476.488626795286
 30
0.0
 40
2.4
  1
89
  7
CHINESET
 72
     4
 11
2332.138428702174
 21
1477.688626795286
 31
0.0
100
AcDbText
  0
TEXT
  5
131E
330
1F
100
AcDbEntity
  8
0
100
AcDbText
 10
2318.995571559316
 20
1471.368626795286
 30
0.0
 40
2.4
  1
75
  7
CHINESET
 72
     4
 11
2320.938428702174
 21
1472.568626795286
 31
0.0
100
AcDbText
  0
TEXT
  5
131F
330
1F
100
AcDbEntity
  8
0
100
AcDbText
 10
2318.995571559316
 20
1476.488626795286
 30
0.0
 40
2.4
  1
50
  7
CHINESET
 72
     4
 11
2320.938428702174
 21
1477.688626795286
 31
0.0
100
AcDbText
  0
TEXT
  5
1320
330
1F
100
AcDbEntity
  8
0
100
AcDbText
 10
2318.081285845031
 20
1466.248626795287
 30
0.0
 40
2.4
  1
100
  7
CHINESET
 72
     4
 11
2320.938428702174
 21
1467.448626795287
 31
0.0
100
AcDbText
  0
TEXT
  5
1321
330
1F
100
AcDbEntity
  8
0
100
AcDbText
 10
2318.995571559316
 20
1491.848626795286
 30
0.0
 40
2.4
  1
20
  7
CHINESET
 72
     4
 11
2320.938428702174
 21
1493.048626795286
 31
0.0
100
AcDbText
  0
TEXT
  5
1322
330
1F
100
AcDbEntity
  8
0
100
AcDbText
 10
2318.995571559316
 20
1481.608626795286
 30
0.0
 40
2.4
  1
40
  7
CHINESET
 72
     4
 11
2320.938428702174
 21
1482.808626795286
 31
0.0
100
AcDbText
  0
TEXT
  5
1323
330
1F
100
AcDbEntity
  8
0
100
AcDbText
 10
2318.995571559316
 20
1486.728626795286
 30
0.0
 40
2.4
  1
30
  7
CHINESET
 72
     4
 11
2320.938428702174
 21
1487.928626795286
 31
0.0
100
AcDbText
  0
TEXT
  5
1324
330
1F
100
AcDbEntity
  8
0
100
AcDbText
 10
2319.224142987888
 20
1496.968626795286
 30
0.0
 40
2.4
  1
10
  7
CHINESET
 72
     4
 11
2320.938428702174
 21
1498.168626795286
 31
0.0
100
AcDbText
  0
TEXT
  5
1325
330
1F
100
AcDbEntity
  8
0
100
AcDbText
 10
2338.938428702173
 20
1466.248626795287
 30
0.0
 40
2.4
  1
129
  7
CHINESET
 72
     4
 11
2341.738428702173
 21
1467.448626795287
 31
0.0
100
AcDbText
  0
TEXT
  5
1326
330
1F
100
AcDbEntity
  8
0
100
AcDbText
 10
2339.852714416459
 20
1476.488626795286
 30
0.0
 40
2.4
  1
79
  7
CHINESET
 72
     4
 11
2341.738428702173
 21
1477.688626795286
 31
0.0
100
AcDbText
  0
TEXT
  5
1327
330
1F
100
AcDbEntity
  8
0
100
AcDbText
 10
2338.824142987888
 20
1471.368626795286
 30
0.0
 40
2.4
  1
104
  7
CHINESET
 72
     4
 11
2341.738428702173
 21
1472.568626795286
 31
0.0
100
AcDbText
  0
TEXT
  5
1328
330
1F
100
AcDbEntity
  8
0
100
AcDbText
 10
2339.852714416459
 20
1481.608626795286
 30
0.0
 40
2.4
  1
69
  7
CHINESET
 72
     4
 11
2341.738428702173
 21
1482.808626795286
 31
0.0
100
AcDbText
  0
TEXT
  5
1329
330
1F
100
AcDbEntity
  8
0
100
AcDbText
 10
2339.852714416459
 20
1486.728626795286
 30
0.0
 40
2.4
  1
59
  7
CHINESET
 72
     4
 11
2341.738428702173
 21
1487.928626795286
 31
0.0
100
AcDbText
  0
TEXT
  5
132A
330
1F
100
AcDbEntity
  8
0
100
AcDbText
 10
2339.852714416459
 20
1491.848626795286
 30
0.0
 40
2.4
  1
49
  7
CHINESET
 72
     4
 11
2341.738428702173
 21
1493.048626795286
 31
0.0
100
AcDbText
  0
TEXT
  5
132B
330
1F
100
AcDbEntity
  8
0
100
AcDbText
 10
2339.852714416459
 20
1496.968626795286
 30
0.0
 40
2.4
  1
39
  7
CHINESET
 72
     4
 11
2341.738428702173
 21
1498.168626795286
 31
0.0
100
AcDbText
  0
TEXT
  5
132C
330
1F
100
AcDbEntity
  8
0
100
AcDbText
 10
2349.567000130745
 20
1466.248626795287
 30
0.0
 40
2.4
  1
14
  7
CHINESET
 72
     4
 11
2351.338428702174
 21
1467.448626795287
 31
0.0
100
AcDbText
  0
TEXT
  5
132D
330
1F
100
AcDbEntity
  8
0
100
AcDbText
 10
2349.567000130745
 20
1471.368626795286
 30
0.0
 40
2.4
  1
14
  7
CHINESET
 72
     4
 11
2351.338428702174
 21
1472.568626795286
 31
0.0
100
AcDbText
  0
TEXT
  5
132E
330
1F
100
AcDbEntity
  8
0
100
AcDbText
 10
2349.567000130745
 20
1476.488626795286
 30
0.0
 40
2.4
  1
14
  7
CHINESET
 72
     4
 11
2351.338428702174
 21
1477.688626795286
 31
0.0
100
AcDbText
  0
TEXT
  5
132F
330
1F
100
AcDbEntity
  8
0
100
AcDbText
 10
2349.567000130745
 20
1481.608626795287
 30
0.0
 40
2.4
  1
14
  7
CHINESET
 72
     4
 11
2351.338428702174
 21
1482.808626795287
 31
0.0
100
AcDbText
  0
LINE
  5
1330
330
1F
100
AcDbEntity
  8
0
100
AcDbLine
 10
2314.538428702173
 20
1500.728626795286
 30
0.0
 11
2356.138428702174
 21
1500.728626795286
 31
0.0
  0
LINE
  5
1331
330
1F
100
AcDbEntity
  8
0
100
AcDbLine
 10
2314.538428702173
 20
1505.848626795286
 30
0.0
 11
2356.138428702174
 21
1505.848626795286
 31
0.0
  0
TEXT
  5
1332
330
1F
100
AcDbEntity
  8
0
100
AcDbText
 10
2330.858220113483
 20
1501.913297729082
 30
0.0
 40
2.8
  1
L
  7
CHINESET
100
AcDbText
  0
TEXT
  5
1334
330
1F
100
AcDbEntity
  8
0
100
AcDbText
 10
2349.343018185479
 20
1501.913297729082
 30
0.0
 40
2.8
  1
L
  7
CHINESET
100
AcDbText
  0
TEXT
  5
1335
330
1F
100
AcDbEntity
  8
0
100
AcDbText
 10
2339.766395139905
 20
1501.913297729082
 30
0.0
 40
2.8
  1
L
  7
CHINESET
100
AcDbText
  0
TEXT
  5
1336
330
1F
100
AcDbEntity
  8
0
100
AcDbText
 10
2342.142280032571
 20
1501.935020533755
 30
0.0
 40
1.6
  1
1
  7
CHINESET
100
AcDbText
  0
TEXT
  5
1337
330
1F
100
AcDbEntity
  8
0
100
AcDbText
 10
2351.551451812752
 20
1501.937929681316
 30
0.0
 40
1.6
  1
2
  7
CHINESET
100
AcDbText
  0
POINT
  5
1338
330
1F
100
AcDbEntity
  8
0
 60
     1
100
AcDbPoint
 10
726.025794859574
 20
1052.791440614131
 30
0.0
1001
GENIUS_GENOLIS_13
1002
{
1000
ENT
1005
FF8
1005
FF7
1005
FF6
1005
FF5
1002
}
1001
GENIUS_GENODEF_13
1002
{
1000
HIER
1070
    10
1002
}
1002
{
1000
MANEDIT
1070
     0
1002
}
1002
{
1000
NOSEL
1070
     0
1002
}
1002
{
1000
BEHIND
1070
     0
1002
}
1002
{
1000
OTHER
1070
     0
1002
}
1002
{
1000
REACTOR
1002
}
1001
GENIUS_GENOENT_13
1002
{
1000
MYREF
1005
1338
1002
}
1002
{
1000
GRP
1005
0
1002
}
1001
GENIUS_GENOBJ-N-CRS_13
1002
{
1000
OWNER
1000
GEN
1002
}
  0
POINT
  5
1339
330
1F
100
AcDbEntity
  8
0
 60
     1
100
AcDbPoint
 10
726.025794859574
 20
1066.791440614132
 30
0.0
1001
GENIUS_GENOLIS_13
1002
{
1000
ENT
1005
FF2
1005
FF1
1005
FF0
1005
FEF
1002
}
1001
GENIUS_GENODEF_13
1002
{
1000
HIER
1070
    10
1002
}
1002
{
1000
MANEDIT
1070
     0
1002
}
1002
{
1000
NOSEL
1070
     0
1002
}
1002
{
1000
BEHIND
1070
     0
1002
}
1002
{
1000
OTHER
1070
     0
1002
}
1002
{
1000
REACTOR
1002
}
1001
GENIUS_GENOENT_13
1002
{
1000
MYREF
1005
1339
1002
}
1002
{
1000
GRP
1005
0
1002
}
1001
GENIUS_GENOBJ-N-CRS_13
1002
{
1000
OWNER
1000
GEN
1002
}
  0
POINT
  5
133A
330
1F
100
AcDbEntity
  8
0
 60
     1
100
AcDbPoint
 10
678.025794859574
 20
1066.791440614132
 30
0.0
1001
GENIUS_GENOLIS_13
1002
{
1000
ENT
1005
FEC
1005
FEB
1005
FEA
1005
FE9
1002
}
1001
GENIUS_GENODEF_13
1002
{
1000
HIER
1070
    10
1002
}
1002
{
1000
MANEDIT
1070
     0
1002
}
1002
{
1000
NOSEL
1070
     0
1002
}
1002
{
1000
BEHIND
1070
     0
1002
}
1002
{
1000
OTHER
1070
     0
1002
}
1002
{
1000
REACTOR
1002
}
1001
GENIUS_GENOENT_13
1002
{
1000
MYREF
1005
133A
1002
}
1002
{
1000
GRP
1005
0
1002
}
1001
GENIUS_GENOBJ-N-CRS_13
1002
{
1000
OWNER
1000
GEN
1002
}
  0
POINT
  5
133B
330
1F
100
AcDbEntity
  8
0
 60
     1
100
AcDbPoint
 10
678.025794859574
 20
1052.791440614131
 30
0.0
1001
GENIUS_GENOLIS_13
1002
{
1000
ENT
1005
FE6
1005
FE5
1005
FE4
1005
FE3
1002
}
1001
GENIUS_GENODEF_13
1002
{
1000
HIER
1070
    10
1002
}
1002
{
1000
MANEDIT
1070
     0
1002
}
1002
{
1000
NOSEL
1070
     0
1002
}
1002
{
1000
BEHIND
1070
     0
1002
}
1002
{
1000
OTHER
1070
     0
1002
}
1002
{
1000
REACTOR
1002
}
1001
GENIUS_GENOENT_13
1002
{
1000
MYREF
1005
133B
1002
}
1002
{
1000
GRP
1005
0
1002
}
1001
GENIUS_GENOBJ-N-CRS_13
1002
{
1000
OWNER
1000
GEN
1002
}
  0
POINT
  5
133C
330
1F
100
AcDbEntity
  8
0
 60
     1
100
AcDbPoint
 10
682.025794859574
 20
948.2666734684785
 30
0.0
1001
GENIUS_GENODEF_13
1002
{
1000
HIER
1070
    10
1002
}
1002
{
1000
MANEDIT
1070
     0
1002
}
1002
{
1000
NOSEL
1070
     0
1002
}
1002
{
1000
BEHIND
1070
     0
1002
}
1002
{
1000
OTHER
1070
     0
1002
}
1002
{
1000
REACTOR
1002
}
1001
GENIUS_GENOLIS_13
1002
{
1000
ENT
1005
FD0
1005
FCF
1005
FCE
1005
FCD
1002
}
1001
GENIUS_GENOENT_13
1002
{
1000
MYREF
1005
133C
1002
}
1002
{
1000
GRP
1005
0
1002
}
1001
GENIUS_GENOBJ-N-CRS_13
1002
{
1000
OWNER
1000
GEN
1002
}
  0
POINT
  5
133D
330
1F
100
AcDbEntity
  8
0
 60
     1
100
AcDbPoint
 10
682.025794859574
 20
948.2666734684785
 30
0.0
1001
GENIUS_GENOENT_13
1002
{
1000
MYREF
1005
133D
1002
}
1002
{
1000
GRP
1005
0
1002
}
1001
GENIUS_GENOBJ-N-CRS_13
1002
{
1000
OWNER
1000
GEN
1002
}
1001
GENIUS_GENODEF_13
1002
{
1000
HIER
1070
    10
1002
}
1002
{
1000
MANEDIT
1070
     0
1002
}
1002
{
1000
NOSEL
1070
     0
1002
}
1002
{
1000
BEHIND
1070
     0
1002
}
1002
{
1000
OTHER
1070
     0
1002
}
1002
{
1000
REACTOR
1002
}
1001
GENIUS_GENOLIS_13
1002
{
1000
ENT
1005
FCC
1005
FCB
1005
FCA
1005
FC9
1002
}
  0
POINT
  5
133E
330
1F
100
AcDbEntity
  8
0
 60
     1
100
AcDbPoint
 10
682.025794859574
 20
948.2666734684785
 30
0.0
1001
GENIUS_GENOLIS_13
1002
{
1000
ENT
1005
FC8
1005
FC7
1005
FC6
1005
FC5
1002
}
1001
GENIUS_GENODEF_13
1002
{
1000
HIER
1070
    10
1002
}
1002
{
1000
MANEDIT
1070
     0
1002
}
1002
{
1000
NOSEL
1070
     0
1002
}
1002
{
1000
BEHIND
1070
     0
1002
}
1002
{
1000
OTHER
1070
     0
1002
}
1002
{
1000
REACTOR
1002
}
1001
GENIUS_GENOENT_13
1002
{
1000
MYREF
1005
133E
1002
}
1002
{
1000
GRP
1005
0
1002
}
1001
GENIUS_GENOBJ-N-CRS_13
1002
{
1000
OWNER
1000
GEN
1002
}
  0
POINT
  5
133F
330
1F
100
AcDbEntity
  8
0
 60
     1
100
AcDbPoint
 10
682.025794859574
 20
948.2666734684785
 30
0.0
1001
GENIUS_GENOLIS_13
1002
{
1000
ENT
1005
FC4
1005
FC3
1005
FC2
1005
FC1
1002
}
1001
GENIUS_GENODEF_13
1002
{
1000
HIER
1070
    10
1002
}
1002
{
1000
MANEDIT
1070
     0
1002
}
1002
{
1000
NOSEL
1070
     0
1002
}
1002
{
1000
BEHIND
1070
     0
1002
}
1002
{
1000
OTHER
1070
     0
1002
}
1002
{
1000
REACTOR
1002
}
1001
GENIUS_GENOENT_13
1002
{
1000
MYREF
1005
133F
1002
}
1002
{
1000
GRP
1005
0
1002
}
1001
GENIUS_GENOBJ-N-CRS_13
1002
{
1000
OWNER
1000
GEN
1002
}
  0
POINT
  5
1340
330
1F
100
AcDbEntity
  8
0
 60
     1
100
AcDbPoint
 10
682.025794859574
 20
948.2666734684785
 30
0.0
1001
GENIUS_GENODEF_13
1002
{
1000
HIER
1070
    10
1002
}
1002
{
1000
MANEDIT
1070
     0
1002
}
1002
{
1000
NOSEL
1070
     0
1002
}
1002
{
1000
BEHIND
1070
     0
1002
}
1002
{
1000
OTHER
1070
     0
1002
}
1002
{
1000
REACTOR
1002
}
1001
GENIUS_GENOENT_13
1002
{
1000
MYREF
1005
1340
1002
}
1002
{
1000
GRP
1005
0
1002
}
1001
GENIUS_GENOBJ-N-CRS_13
1002
{
1000
OWNER
1000
GEN
1002
}
1001
GENIUS_GENOLIS_13
1002
{
1000
ENT
1005
FC0
1005
FBF
1005
FBE
1005
FBD
1002
}
  0
POINT
  5
1341
330
1F
100
AcDbEntity
  8
0
 60
     1
100
AcDbPoint
 10
839.1620806052564
 20
744.8725532551621
 30
0.0
1001
GENIUS_GENOBJ-N-CRS_13
1002
{
1000
OWNER
1000
GEN
1002
}
1001
GENIUS_GENOENT_13
1002
{
1000
MYREF
1005
1341
1002
}
1002
{
1000
GRP
1005
0
1002
}
1001
GENIUS_GENOLIS_13
1002
{
1000
ENT
1005
1276
1005
1275
1005
1274
1005
1273
1002
}
1001
GENIUS_GENODEF_13
1002
{
1000
HIER
1070
    10
1002
}
1002
{
1000
MANEDIT
1070
     0
1002
}
1002
{
1000
NOSEL
1070
     0
1002
}
1002
{
1000
BEHIND
1070
     0
1002
}
1002
{
1000
OTHER
1070
     0
1002
}
1002
{
1000
REACTOR
1002
}
  0
POINT
  5
1342
330
1F
100
AcDbEntity
  8
0
 60
     1
100
AcDbPoint
 10
839.1620806052564
 20
759.872553255162
 30
0.0
1001
GENIUS_GENOBJ-N-CRS_13
1002
{
1000
OWNER
1000
GEN
1002
}
1001
GENIUS_GENOENT_13
1002
{
1000
MYREF
1005
1342
1002
}
1002
{
1000
GRP
1005
0
1002
}
1001
GENIUS_GENOLIS_13
1002
{
1000
ENT
1005
1270
1005
126F
1005
126E
1005
126D
1002
}
1001
GENIUS_GENODEF_13
1002
{
1000
HIER
1070
    10
1002
}
1002
{
1000
MANEDIT
1070
     0
1002
}
1002
{
1000
NOSEL
1070
     0
1002
}
1002
{
1000
BEHIND
1070
     0
1002
}
1002
{
1000
OTHER
1070
     0
1002
}
1002
{
1000
REACTOR
1002
}
  0
POINT
  5
1343
330
1F
100
AcDbEntity
  8
0
 60
     1
100
AcDbPoint
 10
789.1620806052565
 20
759.872553255162
 30
0.0
1001
GENIUS_GENOBJ-N-CRS_13
1002
{
1000
OWNER
1000
GEN
1002
}
1001
GENIUS_GENOENT_13
1002
{
1000
MYREF
1005
1343
1002
}
1002
{
1000
GRP
1005
0
1002
}
1001
GENIUS_GENOLIS_13
1002
{
1000
ENT
1005
126A
1005
1269
1005
1268
1005
1267
1002
}
1001
GENIUS_GENODEF_13
1002
{
1000
HIER
1070
    10
1002
}
1002
{
1000
MANEDIT
1070
     0
1002
}
1002
{
1000
NOSEL
1070
     0
1002
}
1002
{
1000
BEHIND
1070
     0
1002
}
1002
{
1000
OTHER
1070
     0
1002
}
1002
{
1000
REACTOR
1002
}
  0
POINT
  5
1344
330
1F
100
AcDbEntity
  8
0
 60
     1
100
AcDbPoint
 10
789.1620806052565
 20
744.8725532551621
 30
0.0
1001
GENIUS_GENOBJ-N-CRS_13
1002
{
1000
OWNER
1000
GEN
1002
}
1001
GENIUS_GENOENT_13
1002
{
1000
MYREF
1005
1344
1002
}
1002
{
1000
GRP
1005
0
1002
}
1001
GENIUS_GENOLIS_13
1002
{
1000
ENT
1005
1264
1005
1263
1005
1262
1005
1261
1002
}
1001
GENIUS_GENODEF_13
1002
{
1000
HIER
1070
    10
1002
}
1002
{
1000
MANEDIT
1070
     0
1002
}
1002
{
1000
NOSEL
1070
     0
1002
}
1002
{
1000
BEHIND
1070
     0
1002
}
1002
{
1000
OTHER
1070
     0
1002
}
1002
{
1000
REACTOR
1002
}
  0
POINT
  5
1345
330
1F
100
AcDbEntity
  8
0
 60
     1
100
AcDbPoint
 10
726.025794859574
 20
796.2479537355843
 30
0.0
1001
GENIUS_GENOLIS_13
1002
{
1000
ENT
1005
1244
1005
1243
1005
1242
1005
1241
1002
}
1001
GENIUS_GENODEF_13
1002
{
1000
HIER
1070
    10
1002
}
1002
{
1000
MANEDIT
1070
     0
1002
}
1002
{
1000
NOSEL
1070
     0
1002
}
1002
{
1000
BEHIND
1070
     0
1002
}
1002
{
1000
OTHER
1070
     0
1002
}
1002
{
1000
REACTOR
1002
}
1001
GENIUS_GENOENT_13
1002
{
1000
MYREF
1005
1345
1002
}
1002
{
1000
GRP
1005
0
1002
}
1001
GENIUS_GENOBJ-N-CRS_13
1002
{
1000
OWNER
1000
GEN
1002
}
  0
POINT
  5
1346
330
1F
100
AcDbEntity
  8
0
 60
     1
100
AcDbPoint
 10
726.025794859574
 20
810.2479537355844
 30
0.0
1001
GENIUS_GENOLIS_13
1002
{
1000
ENT
1005
123E
1005
123D
1005
123C
1005
123B
1002
}
1001
GENIUS_GENODEF_13
1002
{
1000
HIER
1070
    10
1002
}
1002
{
1000
MANEDIT
1070
     0
1002
}
1002
{
1000
NOSEL
1070
     0
1002
}
1002
{
1000
BEHIND
1070
     0
1002
}
1002
{
1000
OTHER
1070
     0
1002
}
1002
{
1000
REACTOR
1002
}
1001
GENIUS_GENOENT_13
1002
{
1000
MYREF
1005
1346
1002
}
1002
{
1000
GRP
1005
0
1002
}
1001
GENIUS_GENOBJ-N-CRS_13
1002
{
1000
OWNER
1000
GEN
1002
}
  0
POINT
  5
1347
330
1F
100
AcDbEntity
  8
0
 60
     1
100
AcDbPoint
 10
678.025794859574
 20
810.2479537355844
 30
0.0
1001
GENIUS_GENOLIS_13
1002
{
1000
ENT
1005
1238
1005
1237
1005
1236
1005
1235
1002
}
1001
GENIUS_GENODEF_13
1002
{
1000
HIER
1070
    10
1002
}
1002
{
1000
MANEDIT
1070
     0
1002
}
1002
{
1000
NOSEL
1070
     0
1002
}
1002
{
1000
BEHIND
1070
     0
1002
}
1002
{
1000
OTHER
1070
     0
1002
}
1002
{
1000
REACTOR
1002
}
1001
GENIUS_GENOENT_13
1002
{
1000
MYREF
1005
1347
1002
}
1002
{
1000
GRP
1005
0
1002
}
1001
GENIUS_GENOBJ-N-CRS_13
1002
{
1000
OWNER
1000
GEN
1002
}
  0
POINT
  5
1348
330
1F
100
AcDbEntity
  8
0
 60
     1
100
AcDbPoint
 10
678.025794859574
 20
796.2479537355843
 30
0.0
1001
GENIUS_GENOLIS_13
1002
{
1000
ENT
1005
1232
1005
1231
1005
1230
1005
122F
1002
}
1001
GENIUS_GENODEF_13
1002
{
1000
HIER
1070
    10
1002
}
1002
{
1000
MANEDIT
1070
     0
1002
}
1002
{
1000
NOSEL
1070
     0
1002
}
1002
{
1000
BEHIND
1070
     0
1002
}
1002
{
1000
OTHER
1070
     0
1002
}
1002
{
1000
REACTOR
1002
}
1001
GENIUS_GENOENT_13
1002
{
1000
MYREF
1005
1348
1002
}
1002
{
1000
GRP
1005
0
1002
}
1001
GENIUS_GENOBJ-N-CRS_13
1002
{
1000
OWNER
1000
GEN
1002
}
  0
POINT
  5
1349
330
1F
100
AcDbEntity
  8
0
 60
     1
100
AcDbPoint
 10
682.025794859574
 20
691.7231865899311
 30
0.0
1001
GENIUS_GENODEF_13
1002
{
1000
HIER
1070
    10
1002
}
1002
{
1000
MANEDIT
1070
     0
1002
}
1002
{
1000
NOSEL
1070
     0
1002
}
1002
{
1000
BEHIND
1070
     0
1002
}
1002
{
1000
OTHER
1070
     0
1002
}
1002
{
1000
REACTOR
1002
}
1001
GENIUS_GENOLIS_13
1002
{
1000
ENT
1005
121C
1005
121B
1005
121A
1005
1219
1002
}
1001
GENIUS_GENOENT_13
1002
{
1000
MYREF
1005
1349
1002
}
1002
{
1000
GRP
1005
0
1002
}
1001
GENIUS_GENOBJ-N-CRS_13
1002
{
1000
OWNER
1000
GEN
1002
}
  0
POINT
  5
134A
330
1F
100
AcDbEntity
  8
0
 60
     1
100
AcDbPoint
 10
682.025794859574
 20
691.7231865899311
 30
0.0
1001
GENIUS_GENOENT_13
1002
{
1000
MYREF
1005
134A
1002
}
1002
{
1000
GRP
1005
0
1002
}
1001
GENIUS_GENOBJ-N-CRS_13
1002
{
1000
OWNER
1000
GEN
1002
}
1001
GENIUS_GENODEF_13
1002
{
1000
HIER
1070
    10
1002
}
1002
{
1000
MANEDIT
1070
     0
1002
}
1002
{
1000
NOSEL
1070
     0
1002
}
1002
{
1000
BEHIND
1070
     0
1002
}
1002
{
1000
OTHER
1070
     0
1002
}
1002
{
1000
REACTOR
1002
}
1001
GENIUS_GENOLIS_13
1002
{
1000
ENT
1005
1218
1005
1217
1005
1216
1005
1215
1002
}
  0
POINT
  5
134B
330
1F
100
AcDbEntity
  8
0
 60
     1
100
AcDbPoint
 10
682.025794859574
 20
691.7231865899311
 30
0.0
1001
GENIUS_GENOLIS_13
1002
{
1000
ENT
1005
1214
1005
1213
1005
1212
1005
1211
1002
}
1001
GENIUS_GENODEF_13
1002
{
1000
HIER
1070
    10
1002
}
1002
{
1000
MANEDIT
1070
     0
1002
}
1002
{
1000
NOSEL
1070
     0
1002
}
1002
{
1000
BEHIND
1070
     0
1002
}
1002
{
1000
OTHER
1070
     0
1002
}
1002
{
1000
REACTOR
1002
}
1001
GENIUS_GENOENT_13
1002
{
1000
MYREF
1005
134B
1002
}
1002
{
1000
GRP
1005
0
1002
}
1001
GENIUS_GENOBJ-N-CRS_13
1002
{
1000
OWNER
1000
GEN
1002
}
  0
POINT
  5
134C
330
1F
100
AcDbEntity
  8
0
 60
     1
100
AcDbPoint
 10
682.025794859574
 20
691.7231865899311
 30
0.0
1001
GENIUS_GENOLIS_13
1002
{
1000
ENT
1005
1210
1005
120F
1005
120E
1005
120D
1002
}
1001
GENIUS_GENODEF_13
1002
{
1000
HIER
1070
    10
1002
}
1002
{
1000
MANEDIT
1070
     0
1002
}
1002
{
1000
NOSEL
1070
     0
1002
}
1002
{
1000
BEHIND
1070
     0
1002
}
1002
{
1000
OTHER
1070
     0
1002
}
1002
{
1000
REACTOR
1002
}
1001
GENIUS_GENOENT_13
1002
{
1000
MYREF
1005
134C
1002
}
1002
{
1000
GRP
1005
0
1002
}
1001
GENIUS_GENOBJ-N-CRS_13
1002
{
1000
OWNER
1000
GEN
1002
}
  0
POINT
  5
134D
330
1F
100
AcDbEntity
  8
0
 60
     1
100
AcDbPoint
 10
682.025794859574
 20
691.7231865899311
 30
0.0
1001
GENIUS_GENODEF_13
1002
{
1000
HIER
1070
    10
1002
}
1002
{
1000
MANEDIT
1070
     0
1002
}
1002
{
1000
NOSEL
1070
     0
1002
}
1002
{
1000
BEHIND
1070
     0
1002
}
1002
{
1000
OTHER
1070
     0
1002
}
1002
{
1000
REACTOR
1002
}
1001
GENIUS_GENOENT_13
1002
{
1000
MYREF
1005
134D
1002
}
1002
{
1000
GRP
1005
0
1002
}
1001
GENIUS_GENOBJ-N-CRS_13
1002
{
1000
OWNER
1000
GEN
1002
}
1001
GENIUS_GENOLIS_13
1002
{
1000
ENT
1005
120C
1005
120B
1005
120A
1005
1209
1002
}
  0
POINT
  5
134E
330
1F
100
AcDbEntity
  8
0
 60
     1
100
AcDbPoint
 10
682.025794859574
 20
691.7231865899311
 30
0.0
1001
GENIUS_GENOLIS_13
1002
{
1000
ENT
1005
1208
1005
1207
1005
1206
1005
1205
1002
}
1001
GENIUS_GENODEF_13
1002
{
1000
HIER
1070
    10
1002
}
1002
{
1000
MANEDIT
1070
     0
1002
}
1002
{
1000
NOSEL
1070
     0
1002
}
1002
{
1000
BEHIND
1070
     0
1002
}
1002
{
1000
OTHER
1070
     0
1002
}
1002
{
1000
REACTOR
1002
}
1001
GENIUS_GENOENT_13
1002
{
1000
MYREF
1005
134E
1002
}
1002
{
1000
GRP
1005
0
1002
}
1001
GENIUS_GENOBJ-N-CRS_13
1002
{
1000
OWNER
1000
GEN
1002
}
  0
POINT
  5
134F
330
1F
100
AcDbEntity
  8
0
 60
     1
100
AcDbPoint
 10
682.025794859574
 20
691.7231865899311
 30
0.0
1001
GENIUS_GENOLIS_13
1002
{
1000
ENT
1005
1204
1005
1203
1005
1202
1005
1201
1002
}
1001
GENIUS_GENOENT_13
1002
{
1000
MYREF
1005
134F
1002
}
1002
{
1000
GRP
1005
0
1002
}
1001
GENIUS_GENODEF_13
1002
{
1000
HIER
1070
    10
1002
}
1002
{
1000
MANEDIT
1070
     0
1002
}
1002
{
1000
NOSEL
1070
     0
1002
}
1002
{
1000
BEHIND
1070
     0
1002
}
1002
{
1000
OTHER
1070
     0
1002
}
1002
{
1000
REACTOR
1002
}
1001
GENIUS_GENOBJ-N-CRS_13
1002
{
1000
OWNER
1000
GEN
1002
}
  0
POINT
  5
1350
330
1F
100
AcDbEntity
  8
0
 60
     1
100
AcDbPoint
 10
682.025794859574
 20
691.7231865899311
 30
0.0
1001
GENIUS_GENOBJ-N-CRS_13
1002
{
1000
OWNER
1000
GEN
1002
}
1001
GENIUS_GENOENT_13
1002
{
1000
MYREF
1005
1350
1002
}
1002
{
1000
GRP
1005
0
1002
}
1001
GENIUS_GENODEF_13
1002
{
1000
HIER
1070
    10
1002
}
1002
{
1000
MANEDIT
1070
     0
1002
}
1002
{
1000
NOSEL
1070
     0
1002
}
1002
{
1000
BEHIND
1070
     0
1002
}
1002
{
1000
OTHER
1070
     0
1002
}
1002
{
1000
REACTOR
1002
}
1001
GENIUS_GENOLIS_13
1002
{
1000
ENT
1005
1200
1005
11FF
1005
11FE
1005
11FD
1002
}
  0
POINT
  5
1351
330
1F
100
AcDbEntity
  8
0
 60
     1
100
AcDbPoint
 10
682.025794859574
 20
691.7231865899311
 30
0.0
1001
GENIUS_GENOLIS_13
1002
{
1000
ENT
1005
11FC
1005
11FB
1005
11FA
1005
11F9
1002
}
1001
GENIUS_GENODEF_13
1002
{
1000
HIER
1070
    10
1002
}
1002
{
1000
MANEDIT
1070
     0
1002
}
1002
{
1000
NOSEL
1070
     0
1002
}
1002
{
1000
BEHIND
1070
     0
1002
}
1002
{
1000
OTHER
1070
     0
1002
}
1002
{
1000
REACTOR
1002
}
1001
GENIUS_GENOENT_13
1002
{
1000
MYREF
1005
1351
1002
}
1002
{
1000
GRP
1005
0
1002
}
1001
GENIUS_GENOBJ-N-CRS_13
1002
{
1000
OWNER
1000
GEN
1002
}
  0
POINT
  5
1352
330
1F
100
AcDbEntity
  8
0
 60
     1
100
AcDbPoint
 10
682.025794859574
 20
691.7231865899311
 30
0.0
1001
GENIUS_GENODEF_13
1002
{
1000
HIER
1070
    10
1002
}
1002
{
1000
MANEDIT
1070
     0
1002
}
1002
{
1000
NOSEL
1070
     0
1002
}
1002
{
1000
BEHIND
1070
     0
1002
}
1002
{
1000
OTHER
1070
     0
1002
}
1002
{
1000
REACTOR
1002
}
1001
GENIUS_GENOENT_13
1002
{
1000
MYREF
1005
1352
1002
}
1002
{
1000
GRP
1005
0
1002
}
1001
GENIUS_GENOLIS_13
1002
{
1000
ENT
1005
11F8
1005
11F7
1005
11F6
1005
11F5
1002
}
1001
GENIUS_GENOBJ-N-CRS_13
1002
{
1000
OWNER
1000
GEN
1002
}
  0
POINT
  5
1353
330
1F
100
AcDbEntity
  8
0
 60
     1
100
AcDbPoint
 10
682.025794859574
 20
691.7231865899311
 30
0.0
1001
GENIUS_GENOBJ-N-CRS_13
1002
{
1000
OWNER
1000
GEN
1002
}
1001
GENIUS_GENOENT_13
1002
{
1000
MYREF
1005
1353
1002
}
1002
{
1000
GRP
1005
0
1002
}
1001
GENIUS_GENOLIS_13
1002
{
1000
ENT
1005
11F4
1005
11F3
1005
11F2
1005
11F1
1002
}
1001
GENIUS_GENODEF_13
1002
{
1000
HIER
1070
    10
1002
}
1002
{
1000
MANEDIT
1070
     0
1002
}
1002
{
1000
NOSEL
1070
     0
1002
}
1002
{
1000
BEHIND
1070
     0
1002
}
1002
{
1000
OTHER
1070
     0
1002
}
1002
{
1000
REACTOR
1002
}
  0
POINT
  5
1354
330
1F
100
AcDbEntity
  8
0
 60
     1
100
AcDbPoint
 10
682.025794859574
 20
948.2666734684785
 30
0.0
1001
GENIUS_GENOLIS_13
1002
{
1000
ENT
1005
FBC
1005
FBB
1005
FBA
1005
FB9
1002
}
1001
GENIUS_GENODEF_13
1002
{
1000
HIER
1070
    10
1002
}
1002
{
1000
MANEDIT
1070
     0
1002
}
1002
{
1000
NOSEL
1070
     0
1002
}
1002
{
1000
BEHIND
1070
     0
1002
}
1002
{
1000
OTHER
1070
     0
1002
}
1002
{
1000
REACTOR
1002
}
1001
GENIUS_GENOENT_13
1002
{
1000
MYREF
1005
1354
1002
}
1002
{
1000
GRP
1005
0
1002
}
1001
GENIUS_GENOBJ-N-CRS_13
1002
{
1000
OWNER
1000
GEN
1002
}
  0
POINT
  5
1355
330
1F
100
AcDbEntity
  8
0
 60
     1
100
AcDbPoint
 10
682.025794859574
 20
948.2666734684785
 30
0.0
1001
GENIUS_GENOLIS_13
1002
{
1000
ENT
1005
FB8
1005
FB7
1005
FB6
1005
FB5
1002
}
1001
GENIUS_GENOENT_13
1002
{
1000
MYREF
1005
1355
1002
}
1002
{
1000
GRP
1005
0
1002
}
1001
GENIUS_GENODEF_13
1002
{
1000
HIER
1070
    10
1002
}
1002
{
1000
MANEDIT
1070
     0
1002
}
1002
{
1000
NOSEL
1070
     0
1002
}
1002
{
1000
BEHIND
1070
     0
1002
}
1002
{
1000
OTHER
1070
     0
1002
}
1002
{
1000
REACTOR
1002
}
1001
GENIUS_GENOBJ-N-CRS_13
1002
{
1000
OWNER
1000
GEN
1002
}
  0
POINT
  5
1356
330
1F
100
AcDbEntity
  8
0
 60
     1
100
AcDbPoint
 10
682.025794859574
 20
948.2666734684785
 30
0.0
1001
GENIUS_GENOBJ-N-CRS_13
1002
{
1000
OWNER
1000
GEN
1002
}
1001
GENIUS_GENOENT_13
1002
{
1000
MYREF
1005
1356
1002
}
1002
{
1000
GRP
1005
0
1002
}
1001
GENIUS_GENODEF_13
1002
{
1000
HIER
1070
    10
1002
}
1002
{
1000
MANEDIT
1070
     0
1002
}
1002
{
1000
NOSEL
1070
     0
1002
}
1002
{
1000
BEHIND
1070
     0
1002
}
1002
{
1000
OTHER
1070
     0
1002
}
1002
{
1000
REACTOR
1002
}
1001
GENIUS_GENOLIS_13
1002
{
1000
ENT
1005
FB4
1005
FB3
1005
FB2
1005
FB1
1002
}
  0
POINT
  5
1357
330
1F
100
AcDbEntity
  8
0
 60
     1
100
AcDbPoint
 10
682.025794859574
 20
948.2666734684785
 30
0.0
1001
GENIUS_GENOLIS_13
1002
{
1000
ENT
1005
FB0
1005
FAF
1005
FAE
1005
FAD
1002
}
1001
GENIUS_GENODEF_13
1002
{
1000
HIER
1070
    10
1002
}
1002
{
1000
MANEDIT
1070
     0
1002
}
1002
{
1000
NOSEL
1070
     0
1002
}
1002
{
1000
BEHIND
1070
     0
1002
}
1002
{
1000
OTHER
1070
     0
1002
}
1002
{
1000
REACTOR
1002
}
1001
GENIUS_GENOENT_13
1002
{
1000
MYREF
1005
1357
1002
}
1002
{
1000
GRP
1005
0
1002
}
1001
GENIUS_GENOBJ-N-CRS_13
1002
{
1000
OWNER
1000
GEN
1002
}
  0
POINT
  5
1358
330
1F
100
AcDbEntity
  8
0
 60
     1
100
AcDbPoint
 10
682.025794859574
 20
948.2666734684785
 30
0.0
1001
GENIUS_GENODEF_13
1002
{
1000
HIER
1070
    10
1002
}
1002
{
1000
MANEDIT
1070
     0
1002
}
1002
{
1000
NOSEL
1070
     0
1002
}
1002
{
1000
BEHIND
1070
     0
1002
}
1002
{
1000
OTHER
1070
     0
1002
}
1002
{
1000
REACTOR
1002
}
1001
GENIUS_GENOENT_13
1002
{
1000
MYREF
1005
1358
1002
}
1002
{
1000
GRP
1005
0
1002
}
1001
GENIUS_GENOLIS_13
1002
{
1000
ENT
1005
FAC
1005
FAB
1005
FAA
1005
FA9
1002
}
1001
GENIUS_GENOBJ-N-CRS_13
1002
{
1000
OWNER
1000
GEN
1002
}
  0
POINT
  5
1359
330
1F
100
AcDbEntity
  8
0
 60
     1
100
AcDbPoint
 10
682.025794859574
 20
948.2666734684785
 30
0.0
1001
GENIUS_GENOBJ-N-CRS_13
1002
{
1000
OWNER
1000
GEN
1002
}
1001
GENIUS_GENOENT_13
1002
{
1000
MYREF
1005
1359
1002
}
1002
{
1000
GRP
1005
0
1002
}
1001
GENIUS_GENOLIS_13
1002
{
1000
ENT
1005
FA8
1005
FA7
1005
FA6
1005
FA5
1002
}
1001
GENIUS_GENODEF_13
1002
{
1000
HIER
1070
    10
1002
}
1002
{
1000
MANEDIT
1070
     0
1002
}
1002
{
1000
NOSEL
1070
     0
1002
}
1002
{
1000
BEHIND
1070
     0
1002
}
1002
{
1000
OTHER
1070
     0
1002
}
1002
{
1000
REACTOR
1002
}
  0
POINT
  5
135A
330
1F
100
AcDbEntity
  8
0
 60
     1
100
AcDbPoint
 10
839.1620806052562
 20
1001.416040133709
 30
0.0
1001
GENIUS_GENOBJ-N-CRS_13
1002
{
1000
OWNER
1000
GEN
1002
}
1001
GENIUS_GENOENT_13
1002
{
1000
MYREF
1005
135A
1002
}
1002
{
1000
GRP
1005
0
1002
}
1001
GENIUS_GENOLIS_13
1002
{
1000
ENT
1005
103D
1005
103C
1005
103B
1005
103A
1002
}
1001
GENIUS_GENODEF_13
1002
{
1000
HIER
1070
    10
1002
}
1002
{
1000
MANEDIT
1070
     0
1002
}
1002
{
1000
NOSEL
1070
     0
1002
}
1002
{
1000
BEHIND
1070
     0
1002
}
1002
{
1000
OTHER
1070
     0
1002
}
1002
{
1000
REACTOR
1002
}
  0
POINT
  5
135B
330
1F
100
AcDbEntity
  8
0
 60
     1
100
AcDbPoint
 10
839.1620806052562
 20
1016.416040133709
 30
0.0
1001
GENIUS_GENOBJ-N-CRS_13
1002
{
1000
OWNER
1000
GEN
1002
}
1001
GENIUS_GENOENT_13
1002
{
1000
MYREF
1005
135B
1002
}
1002
{
1000
GRP
1005
0
1002
}
1001
GENIUS_GENOLIS_13
1002
{
1000
ENT
1005
1037
1005
1036
1005
1035
1005
1034
1002
}
1001
GENIUS_GENODEF_13
1002
{
1000
HIER
1070
    10
1002
}
1002
{
1000
MANEDIT
1070
     0
1002
}
1002
{
1000
NOSEL
1070
     0
1002
}
1002
{
1000
BEHIND
1070
     0
1002
}
1002
{
1000
OTHER
1070
     0
1002
}
1002
{
1000
REACTOR
1002
}
  0
POINT
  5
135C
330
1F
100
AcDbEntity
  8
0
 60
     1
100
AcDbPoint
 10
789.1620806052562
 20
1016.416040133709
 30
0.0
1001
GENIUS_GENOBJ-N-CRS_13
1002
{
1000
OWNER
1000
GEN
1002
}
1001
GENIUS_GENOENT_13
1002
{
1000
MYREF
1005
135C
1002
}
1002
{
1000
GRP
1005
0
1002
}
1001
GENIUS_GENOLIS_13
1002
{
1000
ENT
1005
1031
1005
1030
1005
102F
1005
102E
1002
}
1001
GENIUS_GENODEF_13
1002
{
1000
HIER
1070
    10
1002
}
1002
{
1000
MANEDIT
1070
     0
1002
}
1002
{
1000
NOSEL
1070
     0
1002
}
1002
{
1000
BEHIND
1070
     0
1002
}
1002
{
1000
OTHER
1070
     0
1002
}
1002
{
1000
REACTOR
1002
}
  0
POINT
  5
135D
330
1F
100
AcDbEntity
  8
0
 60
     1
100
AcDbPoint
 10
789.1620806052562
 20
1001.416040133709
 30
0.0
1001
GENIUS_GENOBJ-N-CRS_13
1002
{
1000
OWNER
1000
GEN
1002
}
1001
GENIUS_GENOENT_13
1002
{
1000
MYREF
1005
135D
1002
}
1002
{
1000
GRP
1005
0
1002
}
1001
GENIUS_GENOLIS_13
1002
{
1000
ENT
1005
102B
1005
102A
1005
1029
1005
1028
1002
}
1001
GENIUS_GENODEF_13
1002
{
1000
HIER
1070
    10
1002
}
1002
{
1000
MANEDIT
1070
     0
1002
}
1002
{
1000
NOSEL
1070
     0
1002
}
1002
{
1000
BEHIND
1070
     0
1002
}
1002
{
1000
OTHER
1070
     0
1002
}
1002
{
1000
REACTOR
1002
}
  0
TEXT
  5
1414
330
1F
100
AcDbEntity
  8
0
100
AcDbText
 10
2350.538428702173
 20
1486.728626795286
 30
0.0
 40
2.4
  1
0
  7
CHINESET
 72
     4
 11
2351.338428702174
 21
1487.928626795286
 31
0.0
100
AcDbText
  0
TEXT
  5
1415
330
1F
100
AcDbEntity
  8
0
100
AcDbText
 10
2350.538428702173
 20
1491.848626795286
 30
0.0
 40
2.4
  1
0
  7
CHINESET
 72
     4
 11
2351.338428702174
 21
1493.048626795286
 31
0.0
100
AcDbText
  0
TEXT
  5
1416
330
1F
100
AcDbEntity
  8
0
100
AcDbText
 10
2350.538428702173
 20
1496.968626795286
 30
0.0
 40
2.4
  1
0
  7
CHINESET
 72
     4
 11
2351.338428702174
 21
1498.168626795286
 31
0.0
100
AcDbText
  0
INSERT
  5
141B
330
1F
100
AcDbEntity
  8
AM_5
100
AcDbBlockReference
  2
*S10
 10
0.0
 20
0.0
 30
0.0
  0
TEXT
  5
141D
330
1F
100
AcDbEntity
  8
AM_5
100
AcDbText
 10
2151.589766458975
 20
1593.439006192775
 30
0.0
 40
3.0
  1
M5x0.8
100
AcDbText
  0
INSERT
  5
141E
330
1F
100
AcDbEntity
  8
AM_5
100
AcDbBlockReference
  2
*S11
 10
0.0
 20
0.0
 30
0.0
  0
TEXT
  5
141F
330
1F
100
AcDbEntity
  8
AM_5
100
AcDbText
 10
2151.589766458975
 20
1378.093422547246
 30
0.0
 40
3.0
  1
M5x0.8
100
AcDbText
  0
TEXT
  5
1423
330
1F
100
AcDbEntity
  8
0
100
AcDbText
 10
2315.37914192921
 20
1501.675228662487
 30
0.0
 40
3.04128
  1
Stroke
 41
0.8
  7
CHINESET
100
AcDbText
  0
ARC
  5
1470
330
1F
100
AcDbEntity
  8
AM_4
100
AcDbCircle
 10
2176.467291092356
 20
1630.371012811811
 30
0.0
 40
2.5
100
AcDbArc
 50
259.9999999999939
 51
170.0000000000089
  0
CIRCLE
  5
1471
330
1F
100
AcDbEntity
  8
AM_0
100
AcDbCircle
 10
2176.467291092356
 20
1630.371012811811
 30
0.0
 40
2.066987298107819
  0
LINE
  5
1472
330
1F
100
AcDbEntity
  8
AM_7
  6
AM_ISO08W050x2
100
AcDbLine
 10
2172.967291092355
 20
1630.371012811811
 30
0.0
 11
2179.967291092355
 21
1630.371012811811
 31
0.0
  0
LINE
  5
1473
330
1F
100
AcDbEntity
  8
AM_7
  6
AM_ISO08W050x2
100
AcDbLine
 10
2176.467291092356
 20
1626.871012811811
 30
0.0
 11
2176.467291092356
 21
1633.871012811811
 31
0.0
  0
CIRCLE
  5
149C
330
1F
100
AcDbEntity
  8
0
100
AcDbCircle
 10
2312.425888951739
 20
1715.619461635332
 30
0.0
 40
1.176267253676314
  0
CIRCLE
  5
149D
330
1F
100
AcDbEntity
  8
0
100
AcDbCircle
 10
2312.425888951739
 20
1498.214763706572
 30
0.0
 40
1.176267253676314
  0
LWPOLYLINE
  5
17D0
330
1F
100
AcDbEntity
  8
LOGO
 62
     4
100
AcDbPolyline
 90
        4
 70
     1
 43
0.0
 10
2070.683719858092
 20
1305.841080299689
 10
2401.104688387047
 20
1305.841080299689
 10
2401.104688387047
 20
1277.545178037245
 10
2070.683719858092
 20
1277.545178037245
1001
GENIUS_GENREC_14
1002
{
1000
PYDIR
1011
2070.683719858092
1021
1277.545178037245
1031
0.0
1002
}
1002
{
1000
PXDIR
1011
2401.104688387047
1021
1305.841080299689
1031
0.0
1002
}
1002
{
1000
PORI
1011
2070.683719858092
1021
1305.841080299689
1031
0.0
1002
}
1002
{
1000
PINS
1011
2070.683719858092
1021
1305.841080299689
1031
0.0
1002
}
1002
{
1000
PINS2
1011
2401.104688387047
1021
1277.545178037245
1031
0.0
1002
}
1002
{
1000
C
1070
     1
1002
}
1001
GENIUS_GENOBJ-N-REC_13
1002
{
1000
OWNER
1000
GEN
1002
}
1001
GENIUS_GENODEF_13
1002
{
1000
HIER
1070
     0
1002
}
1002
{
1000
MANEDIT
1070
     0
1002
}
1002
{
1000
NOSEL
1070
     0
1002
}
1002
{
1000
BEHIND
1070
     0
1002
}
1002
{
1000
OTHER
1070
     0
1002
}
1002
{
1000
REACTOR
1002
}
  0
TEXT
  5
17D1
330
1F
100
AcDbEntity
  8
LOGO
 62
     7
100
AcDbText
 10
2134.573993569763
 20
1293.445127014434
 30
0.0
 40
3.772786968325791
  1
Order example:
 41
0.8
  7
CHINESET
100
AcDbText
  0
TEXT
  5
17D2
330
1F
100
AcDbEntity
  8
LOGO
 62
     7
100
AcDbText
 10
2135.25086275156
 20
1298.756429900327
 30
0.0
 40
5.659180452488687
  1
訂購代號：
  7
CHINESET
100
AcDbText
  0
LINE
  5
17D3
330
1F
100
AcDbEntity
  8
LOGO
 62
     4
100
AcDbLine
 10
2132.934704835468
 20
1277.545178037245
 30
0.0
 11
2132.934704835468
 21
1305.841080299689
 31
0.0
  0
TEXT
  5
17D4
330
1F
100
AcDbEntity
  8
LOGO
  6
Continuous
100
AcDbText
 10
2080.847735143303
 20
1283.103865334463
 30
0.0
 40
4.244385339366516
  1
金器工業股份有限公司
  7
CHINESET
100
AcDbText
  0
TEXT
  5
17D5
330
1F
100
AcDbEntity
  8
LOGO
  6
Continuous
100
AcDbText
 10
2073.051638985116
 20
1278.858648428342
 30
0.0
 40
2.829590226244343
  1
MINDMAN INDUSTRIAL CO., LTD.
 41
0.85
  7
CHINESET
100
AcDbText
  0
LINE
  5
17D6
330
1F
100
AcDbEntity
  8
LOGO
 62
     4
100
AcDbLine
 10
2132.934704835468
 20
1300.1818998472
 30
0.0
 11
2091.434048183884
 21
1300.1818998472
 31
0.0
  0
LINE
  5
17D7
330
1F
100
AcDbEntity
  8
LOGO
 62
     4
100
AcDbLine
 10
2132.934704835468
 20
1294.522719394712
 30
0.0
 11
2091.434048183884
 21
1294.522719394712
 31
0.0
  0
LINE
  5
17D8
330
1F
100
AcDbEntity
  8
LOGO
 62
     4
100
AcDbLine
 10
2132.934704835468
 20
1288.863538942223
 30
0.0
 11
2070.683719858092
 21
1288.863538942223
 31
0.0
  0
LINE
  5
17D9
330
1F
100
AcDbEntity
  8
LOGO
 62
     4
100
AcDbLine
 10
2091.434048183884
 20
1288.863538942223
 30
0.0
 11
2091.434048183884
 21
1305.841080299689
 31
0.0
  0
TEXT
  5
17DA
330
1F
100
AcDbEntity
  8
LOGO
100
AcDbText
 10
2119.797788204084
 20
1290.278334055345
 30
0.0
 40
2.829590226244343
  1
mm
  7
CHINESET
 72
     1
 11
2123.301090388958
 21
1291.693129168467
 31
0.0
100
AcDbText
 73
     2
  0
TEXT
  5
17DB
330
1F
100
AcDbEntity
  8
LOGO
100
AcDbText
 10
2118.315621895098
 20
1301.596694960322
 30
0.0
 40
2.829590226244343
  1
1 : 1
  7
CHINESET
 72
     1
 11
2123.301090388958
 21
1303.011490073445
 31
0.0
100
AcDbText
 73
     2
  0
LINE
  5
17DC
330
1F
100
AcDbEntity
  8
LOGO
 62
     4
100
AcDbLine
 10
2114.070769993839
 20
1288.863538942223
 30
0.0
 11
2114.070769993839
 21
1305.841080299689
 31
0.0
  0
CIRCLE
  5
17DD
330
1F
100
AcDbEntity
  8
LOGO
  6
Continuous
100
AcDbCircle
 10
2119.310110217281
 20
1297.358362135156
 30
0.0
 40
1.642926686403693
  0
CIRCLE
  5
17DE
330
1F
100
AcDbEntity
  8
LOGO
  6
Continuous
100
AcDbCircle
 10
2119.310110217281
 20
1297.358362135156
 30
0.0
 40
0.9626095981618199
  0
LINE
  5
17DF
330
1F
100
AcDbEntity
  8
LOGO
100
AcDbLine
 10
2129.634452151792
 20
1295.715435448753
 30
0.0
 11
2129.634452151792
 21
1299.00128882156
 31
0.0
  0
LINE
  5
17E0
330
1F
100
AcDbEntity
  8
LOGO
100
AcDbLine
 10
2124.483971298408
 20
1296.395752536995
 30
0.0
 11
2124.483971298408
 21
1298.320971733319
 31
0.0
  0
LINE
  5
17E1
330
1F
100
AcDbEntity
  8
LOGO
  6
Continuous
100
AcDbLine
 10
2124.483971298408
 20
1298.320971733319
 30
0.0
 11
2129.634452151792
 21
1299.00128882156
 31
0.0
  0
LINE
  5
17E2
330
1F
100
AcDbEntity
  8
LOGO
  6
Continuous
100
AcDbLine
 10
2124.483971298408
 20
1296.395752536995
 30
0.0
 11
2129.634452151792
 21
1295.715435448753
 31
0.0
  0
TEXT
  5
17E3
330
1F
100
AcDbEntity
  8
LOGO
100
AcDbText
 10
2093.767196910613
 20
1301.598087475198
 30
185.4466819504705
 40
2.829590226244343
  1
比例 Scale:
 41
0.9
  7
CHINESET
 72
     4
 11
2102.752409088861
 21
1303.011490073445
 31
185.4466819504705
100
AcDbText
  0
TEXT
  5
17E4
330
1F
100
AcDbEntity
  8
LOGO
100
AcDbText
 10
2093.604242830619
 20
1295.977317224681
 30
185.4466819504705
 40
2.829590226244343
  1
投影  View:
 41
0.9
  7
CHINESET
 72
     4
 11
2102.752409088861
 21
1297.352309620956
 31
185.4466819504705
100
AcDbText
  0
TEXT
  5
17E5
330
1F
100
AcDbEntity
  8
LOGO
100
AcDbText
 10
2093.880885803631
 20
1290.278334055345
 30
185.4466819504705
 40
2.829590226244343
  1
單位  Unit:
 41
0.9
  7
CHINESET
 72
     4
 11
2102.752409088861
 21
1291.693129168467
 31
185.4466819504705
100
AcDbText
  0
SOLID
  5
17E6
330
1F
100
AcDbEntity
  8
LOGO
 62
     5
100
AcDbTrace
 10
2073.61946512929
 20
1293.567329932901
 30
0.0
 11
2074.84290569467
 21
1293.567329932901
 31
0.0
 12
2079.947605984706
 22
1305.168921501165
 32
0.0
 13
2081.171046550087
 23
1305.168921501164
 33
0.0
  0
SOLID
  5
17E7
330
1F
100
AcDbEntity
  8
LOGO
 62
     5
100
AcDbTrace
 10
2075.349156963105
 20
1293.567329932901
 30
0.0
 11
2076.572597528485
 21
1293.567329932901
 31
0.0
 12
2081.171046550087
 22
1304.240794175703
 32
0.0
 13
2079.947605984706
 23
1299.754845435975
 33
0.0
  0
SOLID
  5
17E8
330
1F
100
AcDbEntity
  8
LOGO
 62
     2
100
AcDbTrace
 10
2074.84290569467
 20
1293.567329932901
 30
0.0
 11
2075.349156963105
 21
1293.567329932901
 31
0.0
 12
2081.171046550087
 22
1305.168921501164
 32
0.0
 13
2081.677297818521
 23
1305.168921501164
 33
0.0
  0
SOLID
  5
17E9
330
1F
100
AcDbEntity
  8
LOGO
 62
     5
100
AcDbTrace
 10
2071.657989878607
 20
1289.348569362624
 30
0.0
 11
2072.079865935635
 21
1289.348569362624
 31
0.0
 12
2073.267901748433
 22
1291.457949647762
 32
0.0
 13
2073.68977780546
 23
1291.457949647762
 33
0.0
  0
SOLID
  5
17EA
330
1F
100
AcDbEntity
  8
LOGO
 62
     5
100
AcDbTrace
 10
2073.267901748433
 20
1291.457949647762
 30
0.0
 11
2073.68977780546
 21
1291.457949647762
 31
0.0
 12
2073.267901748433
 22
1289.348569362624
 32
0.0
 13
2073.68977780546
 23
1289.348569362624
 33
0.0
  0
SOLID
  5
17EB
330
1F
100
AcDbEntity
  8
LOGO
 62
     5
100
AcDbTrace
 10
2073.267901748433
 20
1289.348569362624
 30
0.0
 11
2073.68977780546
 21
1289.348569362624
 31
0.0
 12
2074.877813618261
 22
1291.457949647762
 32
0.0
 13
2075.299689675288
 23
1291.457949647762
 33
0.0
  0
SOLID
  5
17EC
330
1F
100
AcDbEntity
  8
LOGO
 62
     5
100
AcDbTrace
 10
2074.877813618261
 20
1291.457949647762
 30
0.0
 11
2075.299689675288
 21
1291.457949647762
 31
0.0
 12
2074.877813618261
 22
1289.348569362624
 32
0.0
 13
2075.299689675288
 23
1289.348569362624
 33
0.0
  0
POLYLINE
  5
17ED
330
1F
100
AcDbEntity
  8
LOGO
 62
     5
100
AcDb2dPolyline
 66
     1
 10
0.0
 20
0.0
 30
0.0
 40
0.4225521404524887
 41
0.4225521404524887
  0
VERTEX
  5
17EE
330
17ED
100
AcDbEntity
  8
LOGO
 62
     5
100
AcDbVertex
100
AcDb2dVertex
 10
2089.018955335941
 20
1290.614197533707
 30
0.0
 42
1.0
  0
VERTEX
  5
17EF
330
17ED
100
AcDbEntity
  8
LOGO
 62
     5
100
AcDbVertex
100
AcDb2dVertex
 10
2087.751298914584
 20
1290.614197533707
 30
0.0
 42
1.0
  0
SEQEND
  5
17F0
330
17ED
100
AcDbEntity
  8
LOGO
 62
     5
  0
POLYLINE
  5
17F1
330
1F
100
AcDbEntity
  8
LOGO
 62
     5
100
AcDb2dPolyline
 66
     1
 10
0.0
 20
0.0
 30
0.0
 70
     1
  0
VERTEX
  5
17F2
330
17F1
100
AcDbEntity
  8
LOGO
 62
     5
100
AcDbVertex
100
AcDb2dVertex
 10
2085.361710174966
 20
1290.403259505193
 30
0.0
 42
1.000000057330635
  0
VERTEX
  5
17F3
330
17F1
100
AcDbEntity
  8
LOGO
 62
     5
100
AcDbVertex
100
AcDb2dVertex
 10
2086.627338346049
 20
1290.403259505193
 30
0.0
 42
1.000000057330635
  0
SEQEND
  5
17F4
330
17F1
100
AcDbEntity
  8
LOGO
 62
     5
  0
CIRCLE
  5
17F5
330
1F
100
AcDbEntity
  8
LOGO
 62
     5
100
AcDbCircle
 10
2085.994524260509
 20
1290.403259505193
 30
0.0
 40
0.6328140855416472
  0
POLYLINE
  5
17F6
330
1F
100
AcDbEntity
  8
LOGO
 62
     5
100
AcDb2dPolyline
 66
     1
 10
0.0
 20
0.0
 30
0.0
 70
     1
 40
0.4225521404524887
 41
0.4225521404524887
  0
VERTEX
  5
17F7
330
17F6
100
AcDbEntity
  8
LOGO
 62
     5
100
AcDbVertex
100
AcDb2dVertex
 10
2085.149419979603
 20
1290.403259505193
 30
0.0
 42
1.0
  0
VERTEX
  5
17F8
330
17F6
100
AcDbEntity
  8
LOGO
 62
     5
100
AcDbVertex
100
AcDb2dVertex
 10
2086.839628541413
 20
1290.403259505193
 30
0.0
 42
1.0
  0
SEQEND
  5
17F9
330
17F6
100
AcDbEntity
  8
LOGO
 62
     5
  0
LINE
  5
17FA
330
1F
100
AcDbEntity
  8
LOGO
100
AcDbLine
 10
2089.228879239317
 20
1289.348569362624
 30
0.0
 11
2089.228879239317
 21
1290.614197533707
 31
0.0
  0
SOLID
  5
17FB
330
1F
100
AcDbEntity
  8
LOGO
 62
     5
100
AcDbTrace
 10
2086.627296158445
 20
1291.457949647762
 30
0.0
 11
2087.049172215472
 21
1291.457949647762
 31
0.0
 12
2086.627296158445
 22
1289.348569362624
 32
0.0
 13
2087.049172215472
 23
1289.348569362624
 33
0.0
  0
SOLID
  5
17FC
330
1F
100
AcDbEntity
  8
LOGO
 62
     5
100
AcDbTrace
 10
2087.541375011206
 20
1289.348569362624
 30
0.0
 11
2087.963251068234
 21
1289.348569362624
 31
0.0
 12
2087.541375011206
 22
1291.457949647762
 32
0.0
 13
2087.963251068234
 23
1291.457949647762
 33
0.0
  0
SOLID
  5
17FD
330
1F
100
AcDbEntity
  8
LOGO
 62
     5
100
AcDbTrace
 10
2088.80700318229
 20
1290.614197533707
 30
0.0
 11
2089.228879239317
 21
1290.614197533707
 31
0.0
 12
2088.80700318229
 22
1289.348569362624
 32
0.0
 13
2089.228879239317
 23
1289.348569362624
 33
0.0
  0
SOLID
  5
17FE
330
1F
100
AcDbEntity
  8
LOGO
 62
     5
100
AcDbTrace
 10
2087.499187405503
 20
1304.240794175703
 30
0.0
 11
2086.275746840124
 21
1299.754845435975
 31
0.0
 12
2087.499187405503
 22
1293.567329932901
 32
0.0
 13
2086.275746840124
 23
1293.567329932901
 33
0.0
  0
SOLID
  5
17FF
330
1F
100
AcDbEntity
  8
LOGO
 62
     5
100
AcDbTrace
 10
2088.005438673937
 20
1293.567329932901
 30
0.0
 11
2089.228879239317
 21
1293.567329932901
 31
0.0
 12
2088.005438673937
 22
1305.168921501164
 32
0.0
 13
2089.228879239317
 23
1305.168921501165
 33
0.0
  0
SOLID
  5
1800
330
1F
100
AcDbEntity
  8
LOGO
 62
     2
100
AcDbTrace
 10
2087.499187405503
 20
1305.168921501165
 30
0.0
 11
2088.005438673937
 21
1305.168921501164
 31
0.0
 12
2087.499187405503
 22
1293.567329932901
 32
0.0
 13
2088.005438673937
 23
1293.567329932901
 33
0.0
  0
POLYLINE
  5
1801
330
1F
100
AcDbEntity
  8
LOGO
 62
     5
100
AcDb2dPolyline
 66
     1
 10
0.0
 20
0.0
 30
0.0
 40
0.4225521404524887
 41
0.4225521404524887
  0
VERTEX
  5
1802
330
1801
100
AcDbEntity
  8
LOGO
 62
     5
100
AcDbVertex
100
AcDb2dVertex
 10
2082.972037060139
 20
1290.614197533707
 30
0.0
 42
1.0
  0
VERTEX
  5
1803
330
1801
100
AcDbEntity
  8
LOGO
 62
     5
100
AcDbVertex
100
AcDb2dVertex
 10
2081.704380638782
 20
1290.614197533707
 30
0.0
 42
1.0
  0
SEQEND
  5
1804
330
1801
100
AcDbEntity
  8
LOGO
 62
     5
  0
POLYLINE
  5
1805
330
1F
100
AcDbEntity
  8
LOGO
 62
     5
100
AcDb2dPolyline
 66
     1
 10
0.0
 20
0.0
 30
0.0
 40
0.4225521404524887
 41
0.4225521404524887
  0
VERTEX
  5
1806
330
1805
100
AcDbEntity
  8
LOGO
 62
     5
100
AcDbVertex
100
AcDb2dVertex
 10
2084.237665231222
 20
1290.614197533707
 30
0.0
 42
1.0
  0
VERTEX
  5
1807
330
1805
100
AcDbEntity
  8
LOGO
 62
     5
100
AcDbVertex
100
AcDb2dVertex
 10
2082.970008809864
 20
1290.614197533707
 30
0.0
 42
1.0
  0
SEQEND
  5
1808
330
1805
100
AcDbEntity
  8
LOGO
 62
     5
  0
POLYLINE
  5
1809
330
1F
100
AcDbEntity
  8
LOGO
 62
     5
100
AcDb2dPolyline
 66
     1
 10
0.0
 20
0.0
 30
0.0
 40
0.4225521404524887
 41
0.4225521404524887
  0
VERTEX
  5
180A
330
1809
100
AcDbEntity
  8
LOGO
 62
     5
100
AcDbVertex
100
AcDb2dVertex
 10
2078.19074695542
 20
1290.614197533707
 30
0.0
 42
1.0
  0
VERTEX
  5
180B
330
1809
100
AcDbEntity
  8
LOGO
 62
     5
100
AcDbVertex
100
AcDb2dVertex
 10
2076.923090534063
 20
1290.614197533707
 30
0.0
 42
1.0
  0
SEQEND
  5
180C
330
1809
100
AcDbEntity
  8
LOGO
 62
     5
  0
SOLID
  5
180D
330
1F
100
AcDbEntity
  8
LOGO
 62
     5
100
AcDbTrace
 10
2076.713166630686
 20
1291.457949647762
 30
0.0
 11
2077.135042687713
 21
1291.457949647762
 31
0.0
 12
2076.713166630686
 22
1289.348569362624
 32
0.0
 13
2077.135042687713
 23
1289.348569362624
 33
0.0
  0
SOLID
  5
180E
330
1F
100
AcDbEntity
  8
LOGO
 62
     5
100
AcDbTrace
 10
2077.978794801769
 20
1290.614197533707
 30
0.0
 11
2078.400670858798
 21
1290.614197533707
 31
0.0
 12
2077.978794801769
 22
1289.348569362624
 32
0.0
 13
2078.400670858798
 23
1289.348569362624
 33
0.0
  0
POLYLINE
  5
180F
330
1F
100
AcDbEntity
  8
LOGO
 62
     5
100
AcDb2dPolyline
 66
     1
 10
0.0
 20
0.0
 30
0.0
 70
     1
 40
0.4225521404524887
 41
0.4225521404524887
  0
VERTEX
  5
1810
330
180F
100
AcDbEntity
  8
LOGO
 62
     5
100
AcDbVertex
100
AcDb2dVertex
 10
2079.102501703801
 20
1290.403259505193
 30
0.0
 42
1.0
  0
VERTEX
  5
1811
330
180F
100
AcDbEntity
  8
LOGO
 62
     5
100
AcDbVertex
100
AcDb2dVertex
 10
2080.792710265611
 20
1290.403259505193
 30
0.0
 42
1.0
  0
SEQEND
  5
1812
330
180F
100
AcDbEntity
  8
LOGO
 62
     5
  0
SOLID
  5
1813
330
1F
100
AcDbEntity
  8
LOGO
 62
     5
100
AcDbTrace
 10
2080.580377882643
 20
1292.090763733305
 30
0.0
 11
2081.00225393967
 21
1292.090763733305
 31
0.0
 12
2080.580377882643
 22
1289.348569362624
 32
0.0
 13
2081.00225393967
 23
1289.348569362624
 33
0.0
  0
SOLID
  5
1814
330
1F
100
AcDbEntity
  8
LOGO
 62
     5
100
AcDbTrace
 10
2081.494456735406
 20
1291.457949647762
 30
0.0
 11
2081.916332792433
 21
1291.457949647762
 31
0.0
 12
2081.494456735406
 22
1289.348569362624
 32
0.0
 13
2081.916332792433
 23
1289.348569362624
 33
0.0
  0
SOLID
  5
1815
330
1F
100
AcDbEntity
  8
LOGO
 62
     5
100
AcDbTrace
 10
2082.760084906488
 20
1290.614197533707
 30
0.0
 11
2083.181960963516
 21
1290.614197533707
 31
0.0
 12
2082.760084906488
 22
1289.348569362624
 32
0.0
 13
2083.181960963516
 23
1289.348569362624
 33
0.0
  0
SOLID
  5
1816
330
1F
100
AcDbEntity
  8
LOGO
 62
     5
100
AcDbTrace
 10
2084.025713077571
 20
1290.614197533707
 30
0.0
 11
2084.447589134599
 21
1290.614197533707
 31
0.0
 12
2084.025713077571
 22
1289.348569362623
 32
0.0
 13
2084.447589134599
 23
1289.348569362623
 33
0.0
  0
SOLID
  5
1817
330
1F
100
AcDbEntity
  8
LOGO
 62
     5
100
AcDbTrace
 10
2075.799087777924
 20
1291.753262887682
 30
0.0
 11
2076.220963834953
 21
1291.753262887682
 31
0.0
 12
2075.799087777924
 22
1292.090763733305
 32
0.0
 13
2076.220963834953
 23
1292.090763733305
 33
0.0
  0
SOLID
  5
1818
330
1F
100
AcDbEntity
  8
LOGO
 62
     5
100
AcDbTrace
 10
2075.799087777924
 20
1291.457949647762
 30
0.0
 11
2076.220963834953
 21
1291.457949647762
 31
0.0
 12
2075.799087777924
 22
1289.348569362623
 32
0.0
 13
2076.220963834953
 23
1289.348569362624
 33
0.0
  0
SOLID
  5
1819
330
1F
100
AcDbEntity
  8
LOGO
 62
     5
100
AcDbTrace
 10
2079.947605984706
 20
1293.567329932901
 30
0.0
 11
2081.171046550087
 21
1293.567329932901
 31
0.0
 12
2079.947605984706
 22
1299.754845435975
 32
0.0
 13
2081.171046550087
 23
1304.240794175703
 33
0.0
  0
SOLID
  5
181A
330
1F
100
AcDbEntity
  8
LOGO
 62
     5
100
AcDbTrace
 10
2081.677297818521
 20
1305.168921501164
 30
0.0
 11
2082.900738383901
 21
1305.168921501165
 31
0.0
 12
2081.677297818521
 22
1294.495457258362
 32
0.0
 13
2082.900738383901
 23
1298.981405998091
 33
0.0
  0
SOLID
  5
181B
330
1F
100
AcDbEntity
  8
LOGO
 62
     2
100
AcDbTrace
 10
2081.171046550087
 20
1305.168921501164
 30
0.0
 11
2081.677297818521
 21
1305.168921501164
 31
0.0
 12
2081.171046550087
 22
1293.567329932901
 32
0.0
 13
2081.677297818521
 23
1293.567329932901
 33
0.0
  0
SOLID
  5
181C
330
1F
100
AcDbEntity
  8
LOGO
 62
     5
100
AcDbTrace
 10
2081.677297818521
 20
1294.495457258362
 30
0.0
 11
2082.900738383901
 21
1298.981405998091
 31
0.0
 12
2087.499187405503
 22
1305.168921501165
 32
0.0
 13
2086.275746840124
 23
1305.168921501165
 33
0.0
  0
SOLID
  5
181D
330
1F
100
AcDbEntity
  8
LOGO
 62
     5
100
AcDbTrace
 10
2081.677297818521
 20
1293.567329932901
 30
0.0
 11
2082.900738383901
 21
1293.567329932901
 31
0.0
 12
2087.499187405503
 22
1304.240794175703
 32
0.0
 13
2086.275746840124
 23
1299.754845435975
 33
0.0
  0
SOLID
  5
181E
330
1F
100
AcDbEntity
  8
LOGO
 62
     2
100
AcDbTrace
 10
2081.171046550087
 20
1293.567329932901
 30
0.0
 11
2081.677297818521
 21
1293.567329932901
 31
0.0
 12
2087.499187405503
 22
1305.168921501165
 32
0.0
 13
2088.005438673937
 23
1305.168921501164
 33
0.0
  0
TEXT
  5
181F
330
1F
100
AcDbEntity
  8
LOGO
100
AcDbText
 10
2134.245752697069
 20
1279.050508869394
 30
0.0
 40
2.83
  1
10607162
 41
0.7
  7
CHINESET
 72
     1
 11
2141.132086030403
 21
1279.050508869394
 31
0.0
100
AcDbText
  0
LINE
  5
1820
330
1F
100
AcDbEntity
  8
LOGO
 62
     4
100
AcDbLine
 10
2149.914704835466
 20
1283.204358489735
 30
0.0
 11
2149.914704835468
 21
1277.545178037246
 31
0.0
  0
LINE
  5
1821
330
1F
100
AcDbEntity
  8
LOGO
 62
     4
100
AcDbLine
 10
2149.914704835466
 20
1283.204358489735
 30
0.0
 11
2132.934704835468
 21
1283.204358489735
 31
0.0
  0
LINE
  5
1822
330
1F
100
AcDbEntity
  8
LOGO
  6
AM_ISO08W050x2
 48
0.3
100
AcDbLine
 10
2117.045311179183
 20
1297.358362135156
 30
0.0
 11
2121.574909255378
 21
1297.358362135156
 31
0.0
1001
GENIUS_GENOREF_13
1005
1827
  0
LINE
  5
1823
330
1F
100
AcDbEntity
  8
LOGO
  6
AM_ISO08W050x2
 48
0.3
100
AcDbLine
 10
2119.310110217281
 20
1295.093563097059
 30
0.0
 11
2119.310110217281
 21
1299.623161173254
 31
0.0
1001
GENIUS_GENOREF_13
1005
1826
  0
LINE
  5
1824
330
1F
100
AcDbEntity
  8
LOGO
  6
CENTER
 48
0.5
100
AcDbLine
 10
2124.072075987084
 20
1297.358362135156
 30
0.0
 11
2130.153088900762
 21
1297.358362135156
 31
0.0
1001
GENIUS_GENOREF_13
1005
1825
  0
POINT
  5
1825
330
1F
100
AcDbEntity
  8
0
 60
     1
100
AcDbPoint
 10
264.4668083988674
 20
356.4453454220521
 30
0.0
1001
GENIUS_GENOBJ-N-CRS_13
1002
{
1000
OWNER
1000
GEN
1002
}
1001
GENIUS_GENOLIS_13
1002
{
1000
ENT
1005
0
1005
0
1005
0
1005
1824
1002
}
1001
GENIUS_GENOENT_13
1002
{
1000
MYREF
1005
1825
1002
}
1002
{
1000
GRP
1005
0
1002
}
1001
GENIUS_GENODEF_13
1002
{
1000
HIER
1070
    10
1002
}
1002
{
1000
MANEDIT
1070
     1
1002
}
1002
{
1000
NOSEL
1070
     0
1002
}
1002
{
1000
BEHIND
1070
     0
1002
}
1002
{
1000
OTHER
1070
     0
1002
}
1002
{
1000
REACTOR
1002
}
  0
POINT
  5
1826
330
1F
100
AcDbEntity
  8
0
 60
     1
100
AcDbPoint
 10
253.1422231760128
 20
365.3209319006884
 30
0.0
1001
GENIUS_GENOBJ-N-CRS_13
1002
{
1000
OWNER
1000
GEN
1002
}
1001
GENIUS_GENOLIS_13
1002
{
1000
ENT
1005
0
1005
0
1005
0
1005
1823
1002
}
1001
GENIUS_GENOENT_13
1002
{
1000
MYREF
1005
1826
1002
}
1002
{
1000
GRP
1005
0
1002
}
1001
GENIUS_GENODEF_13
1002
{
1000
HIER
1070
    10
1002
}
1002
{
1000
MANEDIT
1070
     1
1002
}
1002
{
1000
NOSEL
1070
     0
1002
}
1002
{
1000
BEHIND
1070
     0
1002
}
1002
{
1000
OTHER
1070
     0
1002
}
1002
{
1000
REACTOR
1002
}
  0
POINT
  5
1827
330
1F
100
AcDbEntity
  8
0
 60
     1
100
AcDbPoint
 10
259.5008968738496
 20
356.4453454220521
 30
0.0
1001
GENIUS_GENOBJ-N-CRS_13
1002
{
1000
OWNER
1000
GEN
1002
}
1001
GENIUS_GENOLIS_13
1002
{
1000
ENT
1005
0
1005
0
1005
0
1005
1822
1002
}
1001
GENIUS_GENOENT_13
1002
{
1000
MYREF
1005
1827
1002
}
1002
{
1000
GRP
1005
0
1002
}
1001
GENIUS_GENODEF_13
1002
{
1000
HIER
1070
    10
1002
}
1002
{
1000
MANEDIT
1070
     1
1002
}
1002
{
1000
NOSEL
1070
     0
1002
}
1002
{
1000
BEHIND
1070
     0
1002
}
1002
{
1000
OTHER
1070
     0
1002
}
1002
{
1000
REACTOR
1002
}
  0
TEXT
  5
182C
330
1F
100
AcDbEntity
  8
0
100
AcDbText
 10
2080.768613693795
 20
1728.284549740455
 30
0.0
 40
4.56192
  1
Slide bearing type
 41
0.8
  7
CHINESET
100
AcDbText
  0
TEXT
  5
1830
330
1F
100
AcDbEntity
  8
0
100
AcDbText
 10
2080.768613693795
 20
1510.879851811695
 30
0.0
 40
4.56192
  1
Linear bush bearing type
 41
0.8
  7
CHINESET
100
AcDbText
  0
ENDSEC
  0
SECTION
  2
OBJECTS
  0
DICTIONARY
  5
C
330
0
100
AcDbDictionary
281
     1
  3
ACAD_COLOR
350
BE
  3
ACAD_GROUP
350
D
  3
ACAD_LAYOUT
350
1A
  3
ACAD_MATERIAL
350
BD
  3
ACAD_MLINESTYLE
350
17
  3
ACAD_PLOTSETTINGS
350
19
  3
ACAD_PLOTSTYLENAME
350
E
  3
ACAD_TABLESTYLE
350
11A
  3
ACDBHEADERROUNDTRIPXREC
350
188C
  3
AcDbVariableDictionary
350
94
  3
AcmDictionary
350
5B
  3
AMG
350
41
  3
AMGSNAPSETTINGS
350
1B8
  3
DWGPROPS
350
188B
  0
DICTIONARY
  5
3F9
330
2
100
AcDbDictionary
280
     1
281
     1
  3
ACAD_LAYERFILTERS
360
5B7
  3
ACAD_LAYERSTATES
360
7CF
  3
ACLYDICTIONARY
360
5B6
  0
DICTIONARY
  5
8F
330
1F
100
AcDbDictionary
280
     1
281
     1
  0
DICTIONARY
  5
12C1
330
12C0
100
AcDbDictionary
280
     1
281
     1
  3
ACAD_DIMASSOC
360
12C2
  0
DICTIONARY
  5
12C4
330
12C3
100
AcDbDictionary
280
     1
281
     1
  3
ACAD_DIMASSOC
360
12C5
  0
DICTIONARY
  5
12FC
330
12FB
100
AcDbDictionary
280
     1
281
     1
  3
ACAD_DIMASSOC
360
12FD
  0
DICTIONARY
  5
BE
102
{ACAD_REACTORS
330
C
102
}
330
C
100
AcDbDictionary
281
     1
  0
DICTIONARY
  5
D
102
{ACAD_REACTORS
330
C
102
}
330
C
100
AcDbDictionary
281
     1
  0
DICTIONARY
  5
1A
102
{ACAD_REACTORS
330
C
102
}
330
C
100
AcDbDictionary
281
     1
  3
Model
350
22
  3
配置1
350
1E
  3
配置2
350
26
  0
DICTIONARY
  5
BD
102
{ACAD_REACTORS
330
C
102
}
330
C
100
AcDbDictionary
281
     1
  0
DICTIONARY
  5
17
102
{ACAD_REACTORS
330
C
102
}
330
C
100
AcDbDictionary
281
     1
  3
Standard
350
18
  0
DICTIONARY
  5
19
102
{ACAD_REACTORS
330
C
102
}
330
C
100
AcDbDictionary
281
     1
  0
ACDBDICTIONARYWDFLT
  5
E
102
{ACAD_REACTORS
330
C
102
}
330
C
100
AcDbDictionary
281
     1
  3
Normal
350
F
100
AcDbDictionaryWithDefault
340
F
  0
DICTIONARY
  5
11A
102
{ACAD_REACTORS
330
C
102
}
330
C
100
AcDbDictionary
281
     1
  3
Standard
350
11B
  0
DICTIONARY
  5
188C
102
{ACAD_REACTORS
330
C
102
}
330
C
100
AcDbDictionary
281
     1
  0
DICTIONARY
  5
94
102
{ACAD_REACTORS
330
C
102
}
330
C
100
AcDbDictionary
281
     1
  3
CTABLESTYLE
350
138
  3
DIMASSOC
350
96
  3
INDEXCTL
350
95
  3
PROJECTNAME
350
1889
  0
DICTIONARY
  5
5B
102
{ACAD_REACTORS
330
C
102
}
330
C
100
AcDbDictionary
281
     1
  3
AcmBOM
350
1B5
  3
AcmStdDictionary
350
61
  3
AMDTSECTSYM_ARROWCOLOR
350
123
  0
DICTIONARY
  5
41
102
{ACAD_REACTORS
330
C
102
}
330
C
100
AcDbDictionary
281
     1
  0
DICTIONARY
  5
1B8
102
{ACAD_REACTORS
330
C
102
}
330
C
100
AcDbDictionary
281
     1
  0
XRECORD
  5
188B
102
{ACAD_REACTORS
330
C
102
}
330
C
100
AcDbXrecord
280
     1
  1
DWGPROPS COOKIE
  2

  3

  4

  6

  7

  8

  9

300
AmdtFileType=84
301
=
302
=
303
=
304
=
305
=
306
=
307
=
308
=
309
=
 40
0.3509525115740741
 41
2453595.458965741
 42
2453942.679550417
  1

 90
        1
  0
DICTIONARY
  5
5B7
102
{ACAD_REACTORS
330
3F9
102
}
330
3F9
100
AcDbDictionary
281
     1
  0
DICTIONARY
  5
7CF
102
{ACAD_REACTORS
330
3F9
102
}
330
3F9
100
AcDbDictionary
281
     1
  0
DICTIONARY
  5
5B6
102
{ACAD_REACTORS
330
3F9
102
}
330
3F9
100
AcDbDictionary
281
     1
1001
ACAD
1000
<All
  0
DIMASSOC
  5
12C2
102
{ACAD_REACTORS
330
12C1
102
}
330
12C1
100
AcDbDimAssoc
330
12C0
 90
        3
 70
     0
 71
     0
  1
AcDbOsnapPointRef
 72
     1
331
105D
 73
     0
 91
        0
 40
0.0
 10
0.0
 20
0.0
 30
2.000000000000000E+50
 75
     0
  1
AcDbOsnapPointRef
 72
    13
331
E8C
 73
     0
 91
        0
 40
0.0
 10
0.0
 20
0.0
 30
2.000000000000000E+50
 75
     0
  0
DIMASSOC
  5
12C5
102
{ACAD_REACTORS
330
12C4
102
}
330
12C4
100
AcDbDimAssoc
330
12C3
 90
        3
 70
     0
 71
     0
  1
AcDbOsnapPointRef
 72
    13
331
E8C
 73
     0
 91
        0
 40
0.0
 10
0.0
 20
0.0
 30
2.000000000000000E+50
 75
     0
  1
AcDbOsnapPointRef
 72
     1
331
E7F
 73
     0
 91
        0
 40
0.0
 10
0.0
 20
0.0
 30
2.000000000000000E+50
 75
     0
  0
DIMASSOC
  5
12FD
102
{ACAD_REACTORS
330
12FC
102
}
330
12FC
100
AcDbDimAssoc
330
12FB
 90
        1
 70
     0
 71
     0
  1
AcDbOsnapPointRef
 72
    13
331
E8C
 73
     0
 91
        0
 40
0.0
 10
0.0
 20
0.0
 30
2.000000000000000E+50
 75
     0
  0
LAYOUT
  5
22
102
{ACAD_XDICTIONARY
360
188F
102
}
102
{ACAD_REACTORS
330
1A
102
}
330
1A
100
AcDbPlotSettings
  1

  2
\\RD\EPSON Stylus C63 Series單色
  4
A4
  6

 40
3.757083177566528
 41
3.757076978683471
 42
3.757080078125
 43
3.757080078125
 44
209.9733276367187
 45
296.9683227539062
 46
0.0
 47
0.0
 48
0.0
 49
0.0
140
0.0
141
0.0
142
1.0
143
0.3405120737814363
 70
 11952
 72
     1
 73
     0
 74
     0
  7
彩色出圖.ctb
 75
     0
147
2.936753428137963
148
-2047.07469463503
149
-1261.649717473083
100
AcDbLayout
  1
Model
 70
     1
 71
     0
 10
0.0
 20
0.0
 11
12.0
 21
9.0
 12
0.0
 22
0.0
 32
0.0
 14
0.0
 24
0.0
 34
0.0
 15
0.0
 25
0.0
 35
0.0
146
0.0
 13
0.0
 23
0.0
 33
0.0
 16
1.0
 26
0.0
 36
0.0
 17
0.0
 27
1.0
 37
0.0
 76
     0
330
1F
1001
ACAD_PSEXT
1000
\\RD\EPSON Stylus C63 Series單色
1000
EPSON Stylus C63 Series
1000
\\RD
1000

1070
     0
  0
LAYOUT
  5
1E
102
{ACAD_XDICTIONARY
360
188D
102
}
102
{ACAD_REACTORS
330
1A
102
}
330
1A
100
AcDbPlotSettings
  1

  2

  4

  6

 40
0.0
 41
0.0
 42
0.0
 43
0.0
 44
0.0
 45
0.0
 46
0.0
 47
0.0
 48
0.0
 49
0.0
140
0.0
141
0.0
142
1.0
143
1.0
 70
   688
 72
     0
 73
     0
 74
     5
  7
彩色出圖.ctb
 75
    16
147
1.0
148
0.0
149
0.0
100
AcDbLayout
  1
配置1
 70
     1
 71
     1
 10
0.0
 20
0.0
 11
420.0
 21
297.0
 12
0.0
 22
0.0
 32
0.0
 14
1.000000000000000E+20
 24
1.000000000000000E+20
 34
1.000000000000000E+20
 15
-1.000000000000000E+20
 25
-1.000000000000000E+20
 35
-1.000000000000000E+20
146
0.0
 13
0.0
 23
0.0
 33
0.0
 16
1.0
 26
0.0
 36
0.0
 17
0.0
 27
1.0
 37
0.0
 76
     0
330
1B
  0
LAYOUT
  5
26
102
{ACAD_XDICTIONARY
360
1891
102
}
102
{ACAD_REACTORS
330
1A
102
}
330
1A
100
AcDbPlotSettings
  1

  2

  4

  6

 40
0.0
 41
0.0
 42
0.0
 43
0.0
 44
0.0
 45
0.0
 46
0.0
 47
0.0
 48
0.0
 49
0.0
140
0.0
141
0.0
142
1.0
143
1.0
 70
   688
 72
     0
 73
     0
 74
     5
  7
彩色出圖.ctb
 75
    16
147
1.0
148
0.0
149
0.0
100
AcDbLayout
  1
配置2
 70
     1
 71
     2
 10
0.0
 20
0.0
 11
12.0
 21
9.0
 12
0.0
 22
0.0
 32
0.0
 14
0.0
 24
0.0
 34
0.0
 15
0.0
 25
0.0
 35
0.0
146
0.0
 13
0.0
 23
0.0
 33
0.0
 16
1.0
 26
0.0
 36
0.0
 17
0.0
 27
1.0
 37
0.0
 76
     0
330
23
  0
MLINESTYLE
  5
18
102
{ACAD_REACTORS
330
17
102
}
330
17
100
AcDbMlineStyle
  2
STANDARD
 70
     0
  3

 62
   256
 51
90.0
 52
90.0
 71
     2
 49
0.5
 62
   256
  6
BYLAYER
 49
-0.5
 62
   256
  6
BYLAYER
  0
ACDBPLACEHOLDER
  5
F
102
{ACAD_REACTORS
330
E
102
}
330
E
  0
TABLESTYLE
  5
11B
102
{ACAD_REACTORS
330
11A
102
}
330
11A
100
AcDbTableStyle
  3
Standard
 70
     0
 71
     0
 40
1.5
 41
1.5
280
     0
281
     0
  7
STANDARD
140
4.5
170
     2
 62
     0
 63
     7
283
     0
274
    -2
284
     1
 64
     0
275
    -2
285
     1
 65
     0
276
    -2
286
     1
 66
     0
277
    -2
287
     1
 67
     0
278
    -2
288
     1
 68
     0
279
    -2
289
     1
 69
     0
  7
STANDARD
140
6.0
170
     5
 62
     0
 63
     7
283
     0
274
    -2
284
     1
 64
     0
275
    -2
285
     1
 65
     0
276
    -2
286
     1
 66
     0
277
    -2
287
     1
 67
     0
278
    -2
288
     1
 68
     0
279
    -2
289
     1
 69
     0
  7
STANDARD
140
4.5
170
     5
 62
     0
 63
     7
283
     0
274
    -2
284
     1
 64
     0
275
    -2
285
     1
 65
     0
276
    -2
286
     1
 66
     0
277
    -2
287
     1
 67
     0
278
    -2
288
     1
 68
     0
279
    -2
289
     1
 69
     0
  0
DICTIONARYVAR
  5
138
102
{ACAD_REACTORS
330
94
102
}
330
94
100
DictionaryVariables
280
     0
  1
STANDARD
  0
DICTIONARYVAR
  5
96
102
{ACAD_REACTORS
330
94
102
}
330
94
100
DictionaryVariables
280
     0
  1
2
  0
DICTIONARYVAR
  5
95
102
{ACAD_REACTORS
330
94
102
}
330
94
100
DictionaryVariables
280
     0
  1
0
  0
DICTIONARYVAR
  5
1889
102
{ACAD_REACTORS
330
94
102
}
330
94
100
DictionaryVariables
280
     0
  1

  0
DICTIONARY
  5
1B5
102
{ACAD_REACTORS
330
5B
102
}
330
5B
100
AcDbDictionary
281
     1
  0
DICTIONARY
  5
61
102
{ACAD_REACTORS
330
5B
102
}
330
5B
100
AcDbDictionary
281
     1
  0
XRECORD
  5
123
102
{ACAD_REACTORS
330
5B
102
}
330
5B
100
AcDbXrecord
280
     1
 90
-1023410169
  0
DICTIONARY
  5
188F
330
22
100
AcDbDictionary
280
     1
281
     1
  3
ACAD_XREC_ROUNDTRIP
360
1890
  0
DICTIONARY
  5
188D
330
1E
100
AcDbDictionary
280
     1
281
     1
  3
ACAD_XREC_ROUNDTRIP
360
188E
  0
DICTIONARY
  5
1891
330
26
100
AcDbDictionary
280
     1
281
     1
  3
ACAD_XREC_ROUNDTRIP
360
1892
  0
XRECORD
  5
1890
102
{ACAD_REACTORS
330
188F
102
}
330
188F
100
AcDbXrecord
280
     1
102
SHADEPLOT
 70
     0
102
SHADEPLOTRESLEVEL
 70
     2
102
SHADEPLOTCUSTOMDPI
 70
   300
  0
XRECORD
  5
188E
102
{ACAD_REACTORS
330
188D
102
}
330
188D
100
AcDbXrecord
280
     1
102
SHADEPLOT
 70
     0
102
SHADEPLOTRESLEVEL
 70
     2
102
SHADEPLOTCUSTOMDPI
 70
   300
  0
XRECORD
  5
1892
102
{ACAD_REACTORS
330
1891
102
}
330
1891
100
AcDbXrecord
280
     1
102
SHADEPLOT
 70
     0
102
SHADEPLOTRESLEVEL
 70
     2
102
SHADEPLOTCUSTOMDPI
 70
   300
  0
ENDSEC
  0
EOF
