  0
SECTION
  2
HEADER
  9
$ACADVER
  1
AC1015
  9
$ACADMAINTVER
 70
    20
  9
$DWGCODEPAGE
  3
ANSI_950
  9
$INSBASE
 10
0.0
 20
0.0
 30
0.0
  9
$EXTMIN
 10
2019.492073458849
 20
1203.30741860384
 30
-0.0122499916992069
  9
$EXTMAX
 10
2459.507392063815
 20
1819.775803140672
 30
246.8111932653541
  9
$LIMMIN
 10
0.0
 20
0.0
  9
$LIMMAX
 10
420.0
 20
297.0
  9
$ORTHOMODE
 70
     0
  9
$REGENMODE
 70
     1
  9
$FILLMODE
 70
     1
  9
$QTEXTMODE
 70
     0
  9
$MIRRTEXT
 70
     1
  9
$LTSCALE
 40
1.0
  9
$ATTMODE
 70
     1
  9
$TEXTSIZE
 40
3.0
  9
$TRACEWID
 40
1.0
  9
$TEXTSTYLE
  7
CHINESET
  9
$CLAYER
  8
0
  9
$CELTYPE
  6
ByLayer
  9
$CECOLOR
 62
   256
  9
$CELTSCALE
 40
1.0
  9
$DISPSILH
 70
     0
  9
$DIMSCALE
 40
1.0
  9
$DIMASZ
 40
3.0
  9
$DIMEXO
 40
1.0
  9
$DIMDLI
 40
10.0
  9
$DIMRND
 40
0.0
  9
$DIMDLE
 40
0.0
  9
$DIMEXE
 40
1.5
  9
$DIMTP
 40
0.1
  9
$DIMTM
 40
0.1
  9
$DIMTXT
 40
3.0
  9
$DIMCEN
 40
0.0
  9
$DIMTSZ
 40
0.0
  9
$DIMTOL
 70
     0
  9
$DIMLIM
 70
     0
  9
$DIMTIH
 70
     0
  9
$DIMTOH
 70
     0
  9
$DIMSE1
 70
     0
  9
$DIMSE2
 70
     0
  9
$DIMTAD
 70
     1
  9
$DIMZIN
 70
     8
  9
$DIMBLK
  1

  9
$DIMASO
 70
     1
  9
$DIMSHO
 70
     1
  9
$DIMPOST
  1

  9
$DIMAPOST
  1
"
  9
$DIMALT
 70
     0
  9
$DIMALTD
 70
     2
  9
$DIMALTF
 40
0.0393701
  9
$DIMLFAC
 40
1.0
  9
$DIMTOFL
 70
     1
  9
$DIMTVP
 40
0.0
  9
$DIMTIX
 70
     0
  9
$DIMSOXD
 70
     0
  9
$DIMSAH
 70
     0
  9
$DIMBLK1
  1

  9
$DIMBLK2
  1

  9
$DIMSTYLE
  2
AM_ISO
  9
$DIMCLRD
 70
   256
  9
$DIMCLRE
 70
   256
  9
$DIMCLRT
 70
   256
  9
$DIMTFAC
 40
0.71
  9
$DIMGAP
 40
1.0
  9
$DIMJUST
 70
     0
  9
$DIMSD1
 70
     0
  9
$DIMSD2
 70
     0
  9
$DIMTOLJ
 70
     0
  9
$DIMTZIN
 70
     8
  9
$DIMALTZ
 70
     0
  9
$DIMALTTZ
 70
     0
  9
$DIMUPT
 70
     0
  9
$DIMDEC
 70
     2
  9
$DIMTDEC
 70
     8
  9
$DIMALTU
 70
     2
  9
$DIMALTTD
 70
     2
  9
$DIMTXSTY
  7
STANDARD
  9
$DIMAUNIT
 70
     0
  9
$DIMADEC
 70
     0
  9
$DIMALTRND
 40
0.0
  9
$DIMAZIN
 70
     2
  9
$DIMDSEP
 70
    46
  9
$DIMATFIT
 70
     3
  9
$DIMFRAC
 70
     0
  9
$DIMLDRBLK
  1

  9
$DIMLUNIT
 70
     2
  9
$DIMLWD
 70
    -1
  9
$DIMLWE
 70
    -1
  9
$DIMTMOVE
 70
     0
  9
$LUNITS
 70
     2
  9
$LUPREC
 70
     2
  9
$SKETCHINC
 40
1.0
  9
$FILLETRAD
 40
2.5
  9
$AUNITS
 70
     0
  9
$AUPREC
 70
     0
  9
$MENU
  1
.
  9
$ELEVATION
 40
0.0
  9
$PELEVATION
 40
0.0
  9
$THICKNESS
 40
0.0
  9
$LIMCHECK
 70
     0
  9
$CHAMFERA
 40
2.5
  9
$CHAMFERB
 40
2.5
  9
$CHAMFERC
 40
20.0
  9
$CHAMFERD
 40
0.0
  9
$SKPOLY
 70
     0
  9
$TDCREATE
 40
2453595.458965741
  9
$TDUCREATE
 40
2453595.125632408
  9
$TDUPDATE
 40
2453942.680396586
  9
$TDUUPDATE
 40
2453942.347063252
  9
$TDINDWG
 40
0.1891592477
  9
$TDUSRTIMER
 40
0.1891592477
  9
$USRTIMER
 70
     1
  9
$ANGBASE
 50
0.0
  9
$ANGDIR
 70
     0
  9
$PDMODE
 70
     0
  9
$PDSIZE
 40
0.0
  9
$PLINEWID
 40
0.0
  9
$SPLFRAME
 70
     0
  9
$SPLINETYPE
 70
     6
  9
$SPLINESEGS
 70
     8
  9
$HANDSEED
  5
35C9
  9
$SURFTAB1
 70
     6
  9
$SURFTAB2
 70
     6
  9
$SURFTYPE
 70
     6
  9
$SURFU
 70
     6
  9
$SURFV
 70
     6
  9
$UCSBASE
  2

  9
$UCSNAME
  2

  9
$UCSORG
 10
0.0
 20
0.0
 30
0.0
  9
$UCSXDIR
 10
1.0
 20
0.0
 30
0.0
  9
$UCSYDIR
 10
0.0
 20
1.0
 30
0.0
  9
$UCSORTHOREF
  2

  9
$UCSORTHOVIEW
 70
     0
  9
$UCSORGTOP
 10
0.0
 20
0.0
 30
0.0
  9
$UCSORGBOTTOM
 10
0.0
 20
0.0
 30
0.0
  9
$UCSORGLEFT
 10
0.0
 20
0.0
 30
0.0
  9
$UCSORGRIGHT
 10
0.0
 20
0.0
 30
0.0
  9
$UCSORGFRONT
 10
0.0
 20
0.0
 30
0.0
  9
$UCSORGBACK
 10
0.0
 20
0.0
 30
0.0
  9
$PUCSBASE
  2

  9
$PUCSNAME
  2

  9
$PUCSORG
 10
0.0
 20
0.0
 30
0.0
  9
$PUCSXDIR
 10
1.0
 20
0.0
 30
0.0
  9
$PUCSYDIR
 10
0.0
 20
1.0
 30
0.0
  9
$PUCSORTHOREF
  2

  9
$PUCSORTHOVIEW
 70
     0
  9
$PUCSORGTOP
 10
0.0
 20
0.0
 30
0.0
  9
$PUCSORGBOTTOM
 10
0.0
 20
0.0
 30
0.0
  9
$PUCSORGLEFT
 10
0.0
 20
0.0
 30
0.0
  9
$PUCSORGRIGHT
 10
0.0
 20
0.0
 30
0.0
  9
$PUCSORGFRONT
 10
0.0
 20
0.0
 30
0.0
  9
$PUCSORGBACK
 10
0.0
 20
0.0
 30
0.0
  9
$USERI1
 70
     0
  9
$USERI2
 70
     0
  9
$USERI3
 70
     0
  9
$USERI4
 70
     0
  9
$USERI5
 70
     0
  9
$USERR1
 40
0.0
  9
$USERR2
 40
0.0
  9
$USERR3
 40
0.0
  9
$USERR4
 40
0.0
  9
$USERR5
 40
0.0
  9
$WORLDVIEW
 70
     1
  9
$SHADEDGE
 70
     3
  9
$SHADEDIF
 70
    70
  9
$TILEMODE
 70
     1
  9
$MAXACTVP
 70
    64
  9
$PINSBASE
 10
0.0
 20
0.0
 30
0.0
  9
$PLIMCHECK
 70
     0
  9
$PEXTMIN
 10
1.000000000000000E+20
 20
1.000000000000000E+20
 30
1.000000000000000E+20
  9
$PEXTMAX
 10
-1.000000000000000E+20
 20
-1.000000000000000E+20
 30
-1.000000000000000E+20
  9
$PLIMMIN
 10
0.0
 20
0.0
  9
$PLIMMAX
 10
420.0
 20
297.0
  9
$UNITMODE
 70
     0
  9
$VISRETAIN
 70
     1
  9
$PLINEGEN
 70
     0
  9
$PSLTSCALE
 70
     1
  9
$TREEDEPTH
 70
  3020
  9
$CMLSTYLE
  2
Standard
  9
$CMLJUST
 70
     0
  9
$CMLSCALE
 40
20.0
  9
$PROXYGRAPHICS
 70
     1
  9
$MEASUREMENT
 70
     1
  9
$CELWEIGHT
370
    -1
  9
$ENDCAPS
280
     0
  9
$JOINSTYLE
280
     0
  9
$LWDISPLAY
290
     0
  9
$INSUNITS
 70
     4
  9
$HYPERLINKBASE
  1

  9
$STYLESHEET
  1
彩色出圖.ctb
  9
$XEDIT
290
     1
  9
$CEPSNTYPE
380
     0
  9
$PSTYLEMODE
290
     1
  9
$FINGERPRINTGUID
  2
{9E01B807-D114-4957-B4FC-231A1635D619}
  9
$VERSIONGUID
  2
{905D6F2E-D2D5-4317-8DB2-0EFA4E45EE6A}
  9
$EXTNAMES
290
     1
  9
$PSVPSCALE
 40
0.0
  9
$OLESTARTUP
290
     0
  0
ENDSEC
  0
SECTION
  2
CLASSES
  0
CLASS
  1
ACDBDICTIONARYWDFLT
  2
AcDbDictionaryWithDefault
  3
ObjectDBX Classes
 90
        0
280
     0
281
     0
  0
CLASS
  1
ACDBPLACEHOLDER
  2
AcDbPlaceHolder
  3
ObjectDBX Classes
 90
        0
280
     0
281
     0
  0
CLASS
  1
LAYOUT
  2
AcDbLayout
  3
ObjectDBX Classes
 90
        0
280
     0
281
     0
  0
CLASS
  1
ACME_DOCUMENT
  2
AcMeDbDoc
  3
AcMeServices
 90
        0
280
     0
281
     0
  0
CLASS
  1
AMGSETTINGSOBJ
  2
AmgSettingsObj
  3
"AcadM|Product Description: AutoCAD Mechanical 2000|Company: Autodesk"
 90
        0
280
     0
281
     0
  0
CLASS
  1
ACMESCOPE
  2
AcMeScope
  3
AcMeServices
 90
        0
280
     0
281
     0
  0
CLASS
  1
ACMECOMMANDHISTORY
  2
AcMeCommandHistory
  3
AcMeServices
 90
        0
280
     0
281
     0
  0
CLASS
  1
ACIMSYSVARMAN
  2
AcImSysVarManager
  3
AcMeServices
 90
        0
280
     0
281
     0
  0
CLASS
  1
ACIMREALSYSVAR
  2
AcImRealSysVar
  3
AcMeServices
 90
        0
280
     0
281
     0
  0
CLASS
  1
ACIMINTSYSVAR
  2
AcImIntSysVar
  3
AcMeServices
 90
        0
280
     0
281
     0
  0
CLASS
  1
ACMEDRAWINGMAN
  2
AcMeDrawingMan
  3
AcMeServices
 90
        0
280
     0
281
     0
  0
CLASS
  1
ACMEVIEW
  2
AcMeView
  3
AcMeServices
 90
        0
280
     0
281
     0
  0
CLASS
  1
ACDBENTITYCACHE
  2
AcMeEntityCache
  3
AcMeServices
 90
        0
280
     0
281
     0
  0
CLASS
  1
GSMANAGER
  2
AcMeGSManager
  3
AcMeServices
 90
        0
280
     0
281
     0
  0
CLASS
  1
AMDTINTERNALREACTOR
  2
AmdtInternalReactor
  3
AcMeServices
 90
        0
280
     0
281
     0
  0
CLASS
  1
ACMESTATEMGR
  2
AcMeStateMgr
  3
AcMeServices
 90
        0
280
     0
281
     0
  0
CLASS
  1
ACGREFMASTER
  2
AcGrefMaster
  3
AcAttribServices
 90
        0
280
     0
281
     0
  0
CLASS
  1
ACME_DATABASE
  2
AcMeDbDatabase
  3
AcMeServices
 90
        0
280
     0
281
     0
  0
CLASS
  1
ACRFINSADJUSTERMGR
  2
AcRfInsAdjusterMgr
  3
AcMeServices
 90
        0
280
     0
281
     0
  0
CLASS
  1
ACGREFACADMASTER
  2
AcGrefacadMaster
  3
AcGrefServices
 90
        0
280
     0
281
     0
  0
CLASS
  1
AMIMASTER
  2
AmiMaster
  3
AmiServices
 90
        0
280
     0
281
     0
  0
CLASS
  1
ACMDATADICTIONARY
  2
AcmDataDictionary
  3
"AcmSymBB|Product Description: AutoCAD Mechanical 2004 DX|Company: Autodesk"
 90
        0
280
     0
281
     0
  0
CLASS
  1
ACMDATAENTRYBLOCK
  2
AcmDataEntryBlock
  3
"AcmSymBB|Product Description: AutoCAD Mechanical 2004 DX|Company: Autodesk"
 90
        0
280
     0
281
     0
  0
CLASS
  1
ACIMSTRSYSVAR
  2
AcImStrSysVar
  3
AcMeServices
 90
        0
280
     0
281
     0
  0
CLASS
  1
ACMSTANDARDISO
  2
AcmStandardISO
  3
"Amdt_StdImp|Product Description: AutoCAD Mechanical 2004 DX|Company: Autodesk"
 90
        0
280
     0
281
     0
  0
CLASS
  1
AMGOBJPROPCFG
  2
AmgObjPropCfg
  3
"AmgLay|Product Description: AutoCAD Mechanical 2000|Company: Autodesk"
 90
        1
280
     0
281
     0
  0
CLASS
  1
AMDTEDGESTANDARDISO
  2
AmdtEdgeStdISO
  3
"Amdt_StdImp|Product Description: AutoCAD Mechanical 2004 DX|Company: Autodesk"
 90
        0
280
     0
281
     0
  0
CLASS
  1
ACMSURFSTANDARDISO
  2
AcmSurfTextStdISO
  3
"Amdt_StdImp|Product Description: AutoCAD Mechanical 2004 DX|Company: Autodesk"
 90
        0
280
     0
281
     0
  0
CLASS
  1
ACMFCFSTANDARDISO
  2
AcmFCFStdISO
  3
"Amdt_StdImp|Product Description: AutoCAD Mechanical 2004 DX|Company: Autodesk"
 90
        0
280
     0
281
     0
  0
CLASS
  1
ACMWELDSTANDARDISO
  2
AcmWeldingStdISO
  3
"Amdt_StdImp|Product Description: AutoCAD Mechanical 2004 DX|Company: Autodesk"
 90
        0
280
     0
281
     0
  0
CLASS
  1
ACMIDSTANDARDISO
  2
AcmIdStdISO
  3
"Amdt_StdImp|Product Description: AutoCAD Mechanical 2004 DX|Company: Autodesk"
 90
        0
280
     0
281
     0
  0
CLASS
  1
ACMDATUMSTANDARDISO
  2
AcmDatumStdISO
  3
"Amdt_StdImp|Product Description: AutoCAD Mechanical 2004 DX|Company: Autodesk"
 90
        0
280
     0
281
     0
  0
CLASS
  1
ACMBOMSTANDARDISO
  2
AcmBOMStdISO
  3
"Amdt_StdImp|Product Description: AutoCAD Mechanical 2004 DX|Company: Autodesk"
 90
        0
280
     0
281
     0
  0
CLASS
  1
ACMDETAILSTANDARDISO
  2
AmdtDetailSymStdISO
  3
"Amdt_StdImp|Product Description: AutoCAD Mechanical 2004 DX|Company: Autodesk"
 90
        0
280
     0
281
     0
  0
CLASS
  1
ACMSECTIONSTANDARDISO
  2
AmdtSectionSymStdISO
  3
"Amdt_StdImp|Product Description: AutoCAD Mechanical 2004 DX|Company: Autodesk"
 90
        0
280
     0
281
     0
  0
CLASS
  1
ACMCENTERLINESTANDARDISO
  2
AmdtCenterLineStdISO
  3
"Amdt_StdImp|Product Description: AutoCAD Mechanical 2004 DX|Company: Autodesk"
 90
        0
280
     0
281
     0
  0
CLASS
  1
ACMNOTESTANDARDISO
  2
AmdtNoteStdISO
  3
"Amdt_StdImp|Product Description: AutoCAD Mechanical 2004 DX|Company: Autodesk"
 90
        0
280
     0
281
     0
  0
CLASS
  1
ACAMGLAYSTD
  2
AcAmgLayStd
  3
"AcAmgLayStd|Product Description: AutoCAD Mechanical 2000|Company: Autodesk"
 90
        0
280
     0
281
     0
  0
CLASS
  1
ACAMGDIMSTD
  2
AcAmgDimStd
  3
"AcAmgDimStd|Product Description: AutoCAD Mechanical 2000|Company: Autodesk"
 90
        0
280
     0
281
     0
  0
CLASS
  1
ACAMGHOLECHARTSTDISO
  2
AcAmgHoleChartStdISO
  3
ACMSYMBB_MODULE_NAME
 90
        0
280
     0
281
     0
  0
CLASS
  1
ACAMGTITLESTD
  2
AcAmgTitleStd
  3
"TITLEAPP"
 90
        0
280
     0
281
     0
  0
CLASS
  1
LAYER_INDEX
  2
AcDbLayerIndex
  3
ObjectDBX Classes
 90
    32768
280
     0
281
     0
  0
CLASS
  1
IDBUFFER
  2
AcDbIdBuffer
  3
ObjectDBX Classes
 90
    32768
280
     0
281
     0
  0
CLASS
  1
DICTIONARYVAR
  2
AcDbDictionaryVar
  3
ObjectDBX Classes
 90
        0
280
     0
281
     0
  0
CLASS
  1
AM_DRAWING_MGR
  2
AcDmDwgMgr
  3
AcMechDwgViewMgmt
 90
        0
280
     0
281
     0
  0
CLASS
  1
AM_DWG_DOCUMENT
  2
AcDmDwgDocument
  3
AcMechDwgViewMgmt
 90
        0
280
     0
281
     0
  0
CLASS
  1
AM_DWG_SHEET
  2
AcDmSheet
  3
AcMechDwgViewMgmt
 90
        0
280
     0
281
     0
  0
CLASS
  1
AM_VIEWDIMPARMAP
  2
AcDmViewDimParMap
  3
AcMechDwgViewMgmt
 90
        0
280
     0
281
     0
  0
CLASS
  1
AM_DWGMGR_NAME
  2
AcDmDwgMgrName
  3
AcMechDwgViewMgmt
 90
        0
280
     0
281
     0
  0
CLASS
  1
AMDTMENUSTATEMGR
  2
AmdtMenuStateMgr
  3
McadcomServices
 90
        0
280
     0
281
     0
  0
CLASS
  1
AMDTMCOMMENUSTATE
  2
AmdtMcomMenuState
  3
McadcomServices
 90
        0
280
     0
281
     0
  0
CLASS
  1
MAPIAMMOUDLE
  2
MApiAmModule
  3
MApiAmServices
 90
        0
280
     0
281
     0
  0
CLASS
  1
AMDTADMENUSTATE
  2
AmdtAdMenuState
  3
DesignerServices
 90
        0
280
     0
281
     0
  0
CLASS
  1
ADAPPL
  2
AcAdAppl
  3
DesignerServices
 90
        0
280
     0
281
     0
  0
CLASS
  1
DEPMGR
  2
AcAdDepMgr
  3
DesignerServices
 90
        0
280
     0
281
     0
  0
CLASS
  1
PARAMMGR
  2
AcAdParamMgr
  3
DesignerServices
 90
        0
280
     0
281
     0
  0
CLASS
  1
PARAMSCOPE
  2
AcAdParamScope
  3
DesignerServices
 90
        0
280
     0
281
     0
  0
CLASS
  1
NAMEDAPPL
  2
AcAdNamedAppl
  3
DesignerServices
 90
        0
280
     0
281
     0
  0
CLASS
  1
AMDTDMMENUSTATE
  2
AmdtDmMenuState
  3
AcMechDwgViewMgmt
 90
        0
280
     0
281
     0
  0
CLASS
  1
AMDTAMMENUSTATE
  2
AmdtAmMenuState
  3
DesignerAssemblies
 90
        0
280
     0
281
     0
  0
CLASS
  1
ACAMPROJECT
  2
AcAmProject
  3
DesignerAssemblies
 90
        0
280
     0
281
     0
  0
CLASS
  1
ACAMGRCOMPDEF
  2
AcAmGrCompDef
  3
DesignerAssemblies
 90
        0
280
     0
281
     0
  0
CLASS
  1
ACCMCONTEXT
  2
AcCmContext
  3
DesignerAssemblies
 90
        0
280
     0
281
     0
  0
CLASS
  1
ACAMCOMPDEF
  2
AcAmCompDef
  3
DesignerAssemblies
 90
        0
280
     0
281
     0
  0
CLASS
  1
ACAMCOMPDEFMGR
  2
AcAmCompDefMgr
  3
DesignerAssemblies
 90
        0
280
     0
281
     0
  0
CLASS
  1
AMCONTEXTMGR
  2
AcAmContextMgr
  3
DesignerAssemblies
 90
        0
280
     0
281
     0
  0
CLASS
  1
ACAMCONTEXTMODELER
  2
AcAmContextModeler
  3
DesignerAssemblies
 90
        0
280
     0
281
     0
  0
CLASS
  1
ACMTHREADLINESTANDARDISO
  2
AmdtThreadLineStdISO
  3
"Amdt_StdImp|Product Description: AutoCAD Mechanical 2004 DX|Company: Autodesk"
 90
        0
280
     0
281
     0
  0
CLASS
  1
CATALOGSTATE
  2
AcAmCatalogState
  3
DesignerAssemblies
 90
        0
280
     0
281
     0
  0
CLASS
  1
ACAMGRCOMPDEFSET
  2
AcAmGrCompDefSet
  3
DesignerAssemblies
 90
        0
280
     0
281
     0
  0
CLASS
  1
AMDTBROWSERDBTAB
  2
AmdtBrowserDbTab
  3
McadcomServices
 90
        0
280
     0
281
     0
  0
CLASS
  1
CBROWSERAPPOBJECT
  2
CBrowserAppObject
  3
McadcomServices
 90
        0
280
     0
281
     0
  0
CLASS
  1
DM_PLACEHOLDER
  2
AcDmSelsetPlaceholder
  3
AcMechDwgViewMgmt
 90
        0
280
     0
281
     0
  0
CLASS
  1
TABLESTYLE
  2
AcDbTableStyle
  3
ObjectDBX Classes
 90
     2047
280
     0
281
     0
  0
CLASS
  1
VAACXREFPANELOBJECT
  2
VaAcXREFPanelObject
  3
VAAC_ADDIN
 90
    32768
280
     0
281
     0
  0
CLASS
  1
VAACIMAGEINVENTORY
  2
VaAcImageInventory
  3
VAAC_ADDIN
 90
    32768
280
     0
281
     0
  0
CLASS
  1
AMDTNOTETEMPLATEDB
  2
AmdtNoteTemplateDB
  3
AMDT_STDIMP_MODULE_NAME
 90
        0
280
     0
281
     0
  0
CLASS
  1
ACMBOM
  2
AcmBom
  3
"AcmSymBB|Product Description: AutoCAD Mechanical 2004 DX|Company: Autodesk"
 90
    32768
280
     0
281
     0
  0
CLASS
  1
AMDTFORMULAUPDATEDISPATCHER
  2
AmdtFormulaUpdateDispatcher
  3
AcMeServices
 90
    32768
280
     0
281
     0
  0
CLASS
  1
ACMPARTLIST
  2
AcmPartList
  3
"AcmSymBB|Product Description: AutoCAD Mechanical 2004 DX|Company: Autodesk"
 90
    33791
280
     0
281
     1
  0
CLASS
  1
ACAMGFILTERDAT
  2
AcAmgFilterDat
  3
"AcadM|Product Description: AutoCAD Mechanical 2000|Company: Autodesk"
 90
        0
280
     0
281
     0
  0
CLASS
  1
DIMASSOC
  2
AcDbDimAssoc
  3
"AcDbDimAssoc|Product Desc:     AcDim ARX App For Dimension|Company:          Autodesk, Inc.|WEB Address:      www.autodesk.com"
 90
    32768
280
     0
281
     0
  0
CLASS
  1
SORTENTSTABLE
  2
AcDbSortentsTable
  3
ObjectDBX Classes
 90
        0
280
     0
281
     0
  0
CLASS
  1
AMDTNOTE
  2
AmdtNote
  3
"AcmSymBB|Product Description: AutoCAD Mechanical 2004 DX|Company: Autodesk"
 90
     1023
280
     0
281
     1
  0
CLASS
  1
STDPART2D
  2
AmgStdPart
  3
"AmgStdPart|Product Description: AutoCAD Mechanical 2000|Company: Autodesk"
 90
    33791
280
     0
281
     1
  0
CLASS
  1
ACAMSTDPCOMPDEF
  2
AcAmStdpCompDef
  3
DesignerAssemblies
 90
    32768
280
     0
281
     0
  0
CLASS
  1
ACRFATTGENMGR
  2
AcRfAttGeneralMgr
  3
AcAttribServices
 90
        0
280
     0
281
     0
  0
CLASS
  1
ACRFOBJATTMGR
  2
AcRfObjAttGroupMgr
  3
AcAttribServices
 90
    32768
280
     0
281
     0
  0
CLASS
  1
ACRFMCADAPIATTHOLDER
  2
AcRfMCADAPIAttHolder
  3
AcAttribServices
 90
    32768
280
     0
281
     0
  0
CLASS
  1
AMDTSYSATTR
  2
AmdtSystemAttribute
  3
AcAttribServices
 90
    32768
280
     0
281
     0
  0
CLASS
  1
ACAMCOMP
  2
AcAmComp
  3
DesignerAssemblies
 90
    32768
280
     0
281
     0
  0
CLASS
  1
AC_AM_STDP_VIEW_DEF
  2
AcAmStdpViewDef
  3
DesignerAssemblies
 90
    32768
280
     0
281
     0
  0
CLASS
  1
AC_AM_MVD_DEP_MGR
  2
AcAmMVDdepMgr
  3
DesignerAssemblies
 90
        0
280
     0
281
     0
  0
CLASS
  1
AC_AM_MASTER_VIEW_DEF
  2
AcAmMasterViewDef
  3
DesignerAssemblies
 90
        0
280
     0
281
     0
  0
CLASS
  1
AC_AM_DIRTY_NODES
  2
AcAmDirtyNodes
  3
DesignerAssemblies
 90
        0
280
     0
281
     0
  0
CLASS
  1
AC_AM_MAPPER_CACHE
  2
AcAmMapperCache
  3
DesignerAssemblies
 90
        0
280
     0
281
     0
  0
CLASS
  1
ACAMMVDBACKUPOBJECT
  2
AcAmMVDBackupObject
  3
DesignerAssemblies
 90
        0
280
     0
281
     0
  0
CLASS
  1
AC_AM_COMP_VIEW_INST
  2
AcAmCompView
  3
DesignerAssemblies
 90
    32768
280
     0
281
     0
  0
CLASS
  1
AC_AM_2D_XREF_MGR
  2
AcAmXrefMgr2d
  3
DesignerAssemblies
 90
        0
280
     0
281
     0
  0
ENDSEC
  0
SECTION
  2
TABLES
  0
TABLE
  2
VPORT
  5
8
330
0
100
AcDbSymbolTable
 70
     3
  0
VPORT
  5
35C0
330
8
100
AcDbSymbolTableRecord
100
AcDbViewportTableRecord
  2
*Active
 70
     0
 10
0.0
 20
0.0
 11
1.0
 21
1.0
 12
2239.431385524905
 22
1511.564900168498
 13
0.0
 23
0.0
 14
2.5
 24
2.5
 15
10.0
 25
10.0
 16
0.0
 26
0.0
 36
1.0
 17
0.0
 27
0.0
 37
0.0
 40
621.6965231392024
 41
1.609210526315789
 42
50.0
 43
0.0
 44
0.0
 50
0.0
 51
0.0
 71
     0
 72
   100
 73
     1
 74
     3
 75
     0
 76
     0
 77
     0
 78
     0
281
     0
 65
     1
110
0.0
120
0.0
130
0.0
111
1.0
121
0.0
131
0.0
112
0.0
122
1.0
132
0.0
 79
     0
146
0.0
  0
ENDTAB
  0
TABLE
  2
LTYPE
  5
5
330
0
100
AcDbSymbolTable
 70
    14
  0
LTYPE
  5
14
330
5
100
AcDbSymbolTableRecord
100
AcDbLinetypeTableRecord
  2
ByBlock
 70
     0
  3

 72
    65
 73
     0
 40
0.0
  0
LTYPE
  5
15
330
5
100
AcDbSymbolTableRecord
100
AcDbLinetypeTableRecord
  2
ByLayer
 70
     0
  3

 72
    65
 73
     0
 40
0.0
  0
LTYPE
  5
16
330
5
100
AcDbSymbolTableRecord
100
AcDbLinetypeTableRecord
  2
Continuous
 70
     0
  3
Solid line
 72
    65
 73
     0
 40
0.0
  0
LTYPE
  5
64
330
5
100
AcDbSymbolTableRecord
100
AcDbLinetypeTableRecord
  2
AM_ISO02W050
 70
     0
  3
__ __ __ __ __ __ __ __ __ __ __ __ __ __ __
 72
    65
 73
     2
 40
7.5
 49
6.0
 74
     0
 49
-1.5
 74
     0
  0
LTYPE
  5
65
330
5
100
AcDbSymbolTableRecord
100
AcDbLinetypeTableRecord
  2
AM_ISO08W050
 70
     0
  3
____ . ____ . ____ . ____ . ____ . ____ . ____
 72
    65
 73
     4
 40
18.0
 49
12.0
 74
     0
 49
-1.5
 74
     0
 49
3.0
 74
     0
 49
-1.5
 74
     0
  0
LTYPE
  5
66
330
5
100
AcDbSymbolTableRecord
100
AcDbLinetypeTableRecord
  2
AM_ISO09W050
 70
     0
  3
_____ . . _____ . . _____ . . ____ .. ____
 72
    65
 73
     6
 40
22.5
 49
12.0
 74
     0
 49
-1.5
 74
     0
 49
3.0
 74
     0
 49
-1.5
 74
     0
 49
3.0
 74
     0
 49
-1.5
 74
     0
  0
LTYPE
  5
67
330
5
100
AcDbSymbolTableRecord
100
AcDbLinetypeTableRecord
  2
Amconstr
 70
     0
  3
_______________________
 72
    65
 73
     2
 40
9999.0
 49
9999.0
 74
     0
 49
0.0
 74
     0
  0
LTYPE
  5
68
330
5
100
AcDbSymbolTableRecord
100
AcDbLinetypeTableRecord
  2
AM_ISO08W050x2
 70
     0
  3
__ . __ . __ . __ . __ . __
 72
    65
 73
     4
 40
9.0
 49
6.0
 74
     0
 49
-0.75
 74
     0
 49
1.5
 74
     0
 49
-0.75
 74
     0
  0
LTYPE
  5
69
330
5
100
AcDbSymbolTableRecord
100
AcDbLinetypeTableRecord
  2
AM_ISO02W050x2
 70
     0
  3
 _ _ _ _ _ _ _ _ _ _ _ _
 72
    65
 73
     2
 40
3.75
 49
3.0
 74
     0
 49
-0.75
 74
     0
  0
LTYPE
  5
6C
330
5
100
AcDbSymbolTableRecord
100
AcDbLinetypeTableRecord
  2
Amzigzag
 70
     0
  3
/\/-/\/-/\/-/\/-/\/-/\/
 72
    65
 73
     2
 40
11.0001
 49
0.0001
 74
     4
 75
   135
340
6B
 46
0.04
 50
0.0
 44
0.0
 45
0.0
 49
-11.0
 74
     0
  0
LTYPE
  5
7A
330
5
100
AcDbSymbolTableRecord
100
AcDbLinetypeTableRecord
  2
ACISOWELD
 70
     0
  3
_ _ _ _ _
 72
    65
 73
     2
 40
2.0
 49
2.0
 74
     0
 49
-1.0
 74
     0
  0
LTYPE
  5
7B
330
5
100
AcDbSymbolTableRecord
100
AcDbLinetypeTableRecord
  2
ACISOTGB
 70
     0
  3
__ . . __ . .
 72
    65
 73
     6
 40
9.0
 49
4.0
 74
     0
 49
-1.0
 74
     0
 49
1.0
 74
     0
 49
-1.0
 74
     0
 49
1.0
 74
     0
 49
-1.0
 74
     0
  0
LTYPE
  5
7C
330
5
100
AcDbSymbolTableRecord
100
AcDbLinetypeTableRecord
  2
ACISOTGL
 70
     0
  3
_ _ _ _ _
 72
    65
 73
     2
 40
3.0
 49
2.0
 74
     0
 49
-1.0
 74
     0
  0
LTYPE
  5
7E
330
5
100
AcDbSymbolTableRecord
100
AcDbLinetypeTableRecord
  2
CENTER
 70
     0
  3
__ . __
 72
    65
 73
     4
 40
7.0
 49
4.0
 74
     0
 49
-1.0
 74
     0
 49
1.0
 74
     0
 49
-1.0
 74
     0
  0
LTYPE
  5
D8
330
5
100
AcDbSymbolTableRecord
100
AcDbLinetypeTableRecord
  2
HIDDEN
 70
     0
  3
Hidden __ __ __ __ __ __ __ __ __ __ __ __ __ _
 72
    65
 73
     2
 40
9.524999999999998
 49
6.349999999999999
 74
     0
 49
-3.174999999999999
 74
     0
  0
LTYPE
  5
D9
330
5
100
AcDbSymbolTableRecord
100
AcDbLinetypeTableRecord
  2
PHANTOM2
 70
     0
  3
Phantom (.5x) ___ _ _ ___ _ _ ___ _ _ ___ _ _
 72
    65
 73
     6
 40
31.75
 49
15.875
 74
     0
 49
-3.174999999999999
 74
     0
 49
3.174999999999999
 74
     0
 49
-3.174999999999999
 74
     0
 49
3.174999999999999
 74
     0
 49
-3.174999999999999
 74
     0
  0
ENDTAB
  0
TABLE
  2
LAYER
  5
2
102
{ACAD_XDICTIONARY
360
3F9
102
}
330
0
100
AcDbSymbolTable
 70
     8
  0
LAYER
  5
10
330
2
100
AcDbSymbolTableRecord
100
AcDbLayerTableRecord
  2
0
 70
     0
 62
     7
  6
Continuous
370
    -3
390
F
  0
LAYER
  5
206
330
2
100
AcDbSymbolTableRecord
100
AcDbLayerTableRecord
  2
Defpoints
 70
     0
 62
     7
  6
Continuous
290
     0
370
    -3
390
F
  0
LAYER
  5
5AE
330
2
100
AcDbSymbolTableRecord
100
AcDbLayerTableRecord
  2
AM_7
 70
     0
 62
     1
  6
CENTER
370
    25
390
F
  0
LAYER
  5
7C5
330
2
100
AcDbSymbolTableRecord
100
AcDbLayerTableRecord
  2
LOGO
 70
     0
 62
     7
  6
Continuous
370
    -3
390
F
  0
LAYER
  5
7C6
330
2
100
AcDbSymbolTableRecord
100
AcDbLayerTableRecord
  2
AM_5
 70
     0
 62
     5
  6
Continuous
370
    50
390
F
  0
LAYER
  5
7C7
330
2
100
AcDbSymbolTableRecord
100
AcDbLayerTableRecord
  2
AM_VIS
 70
     0
 62
     7
  6
Continuous
370
    50
390
F
  0
LAYER
  5
7C8
330
2
100
AcDbSymbolTableRecord
100
AcDbLayerTableRecord
  2
AM_0
 70
     0
 62
     7
  6
Continuous
370
    50
390
F
  0
LAYER
  5
7C9
330
2
100
AcDbSymbolTableRecord
100
AcDbLayerTableRecord
  2
AM_4
 70
     0
 62
     3
  6
Continuous
370
    25
390
F
  0
ENDTAB
  0
TABLE
  2
STYLE
  5
3
330
0
100
AcDbSymbolTable
 70
     6
  0
STYLE
  5
11
330
3
100
AcDbSymbolTableRecord
100
AcDbTextStyleTableRecord
  2
STANDARD
 70
     0
 40
0.0
 41
1.0
 50
0.0
 71
     0
 42
3.0
  3
ISOCP.SHX
  4
CHINESET.SHX
  0
STYLE
  5
6B
330
3
100
AcDbSymbolTableRecord
100
AcDbTextStyleTableRecord
  2

 70
     1
 40
0.0
 41
1.0
 50
0.0
 71
     0
 42
2.5
  3
ltypeshp.shx
  4

  0
STYLE
  5
6D
330
3
100
AcDbSymbolTableRecord
100
AcDbTextStyleTableRecord
  2
ACISOTS
 70
     0
 40
1.0
 41
1.0
 50
0.0
 71
     0
 42
1.0
  3
isocp.shx
  4
chineset.shx
  0
STYLE
  5
79
330
3
100
AcDbSymbolTableRecord
100
AcDbTextStyleTableRecord
  2
ACISOGDT
 70
     0
 40
0.0
 41
1.0
 50
0.0
 71
     0
 42
2.5
  3
amgdt.shx
  4
chineset.shx
  0
STYLE
  5
60C
330
3
100
AcDbSymbolTableRecord
100
AcDbTextStyleTableRecord
  2
CHINESET
 70
     0
 40
0.0
 41
1.0
 50
0.0
 71
     0
 42
3.0
  3
simplex.shx
  4
CHINESET.SHX
  0
ENDTAB
  0
TABLE
  2
VIEW
  5
6
330
0
100
AcDbSymbolTable
 70
     0
  0
ENDTAB
  0
TABLE
  2
UCS
  5
7
330
0
100
AcDbSymbolTable
 70
     0
  0
ENDTAB
  0
TABLE
  2
APPID
  5
9
330
0
100
AcDbSymbolTable
 70
    26
  0
APPID
  5
12
330
9
100
AcDbSymbolTableRecord
100
AcDbRegAppTableRecord
  2
ACAD
 70
     0
  0
APPID
  5
46
330
9
100
AcDbSymbolTableRecord
100
AcDbRegAppTableRecord
  2
MCAD_NO_VIS
 70
     0
  0
APPID
  5
47
330
9
100
AcDbSymbolTableRecord
100
AcDbRegAppTableRecord
  2
ACAD_TEMP_GRAPHIC
 70
     0
  0
APPID
  5
58
330
9
100
AcDbSymbolTableRecord
100
AcDbRegAppTableRecord
  2
ACATTRIBSERVICES
 70
     0
  0
APPID
  5
EE
330
9
100
AcDbSymbolTableRecord
100
AcDbRegAppTableRecord
  2
AD_DRAW
 70
     0
  0
APPID
  5
10C
330
9
100
AcDbSymbolTableRecord
100
AcDbRegAppTableRecord
  2
DESIGNERASSEMBLIES
 70
     0
  0
APPID
  5
111
330
9
100
AcDbSymbolTableRecord
100
AcDbRegAppTableRecord
  2
ACADM_DIM_EDIT
 70
     0
  0
APPID
  5
112
330
9
100
AcDbSymbolTableRecord
100
AcDbRegAppTableRecord
  2
AMDT_DM_ADJ
 70
     0
  0
APPID
  5
22C
330
9
100
AcDbSymbolTableRecord
100
AcDbRegAppTableRecord
  2
ACAD_DSTYLE_DIMTEXT_FILL
 70
     0
  0
APPID
  5
452
330
9
100
AcDbSymbolTableRecord
100
AcDbRegAppTableRecord
  2
GENIUS_GENOENT_13
 70
     0
  0
APPID
  5
453
330
9
100
AcDbSymbolTableRecord
100
AcDbRegAppTableRecord
  2
GENIUS_GENOBJ-N-CRS_13
 70
     0
  0
APPID
  5
454
330
9
100
AcDbSymbolTableRecord
100
AcDbRegAppTableRecord
  2
GENIUS_GENOLIS_13
 70
     0
  0
APPID
  5
455
330
9
100
AcDbSymbolTableRecord
100
AcDbRegAppTableRecord
  2
GENIUS_GENODEF_13
 70
     0
  0
APPID
  5
456
330
9
100
AcDbSymbolTableRecord
100
AcDbRegAppTableRecord
  2
GENIUS_GENOREF_13
 70
     0
  0
APPID
  5
6F3
330
9
100
AcDbSymbolTableRecord
100
AcDbRegAppTableRecord
  2
ACAD_PSEXT
 70
     0
  0
APPID
  5
7CB
330
9
100
AcDbSymbolTableRecord
100
AcDbRegAppTableRecord
  2
GENIUS_GENREC_14
 70
     0
  0
APPID
  5
7CC
330
9
100
AcDbSymbolTableRecord
100
AcDbRegAppTableRecord
  2
GENIUS_GENOBJ-N-REC_13
 70
     0
  0
APPID
  5
7CD
330
9
100
AcDbSymbolTableRecord
100
AcDbRegAppTableRecord
  2
GENIUS_GENOBJ-N-CEN_13
 70
     0
  0
APPID
  5
7CE
330
9
100
AcDbSymbolTableRecord
100
AcDbRegAppTableRecord
  2
GENIUS_GENCEN_19
 70
     0
  0
APPID
  5
245E
330
9
100
AcDbSymbolTableRecord
100
AcDbRegAppTableRecord
  2
GEVID1124068070
 70
     0
  0
APPID
  5
245F
330
9
100
AcDbSymbolTableRecord
100
AcDbRegAppTableRecord
  2
GEVDC
 70
     0
  0
APPID
  5
2468
330
9
100
AcDbSymbolTableRecord
100
AcDbRegAppTableRecord
  2
AMG_2DHIDE
 70
     0
  0
APPID
  5
2469
330
9
100
AcDbSymbolTableRecord
100
AcDbRegAppTableRecord
  2
AMG_2DSTRUCT_BTR
 70
     0
  0
APPID
  5
247A
330
9
100
AcDbSymbolTableRecord
100
AcDbRegAppTableRecord
  2
ACADM_2DVIEW_IGN_NOTIFY
 70
     0
  0
APPID
  5
2576
330
9
100
AcDbSymbolTableRecord
100
AcDbRegAppTableRecord
  2
GEVID1124068071
 70
     0
  0
APPID
  5
2577
330
9
100
AcDbSymbolTableRecord
100
AcDbRegAppTableRecord
  2
GEVRADREF
 70
     0
  0
ENDTAB
  0
TABLE
  2
DIMSTYLE
  5
A
330
0
100
AcDbSymbolTable
 70
     9
100
AcDbDimStyleTable
 71
     3
340
81
340
8B
340
86
  0
DIMSTYLE
105
81
330
A
100
AcDbSymbolTableRecord
100
AcDbDimStyleTableRecord
  2
AM_ISO
 70
     0
  4
"
 41
3.0
 42
1.0
 43
10.0
 44
1.5
 47
0.1
 48
0.1
 73
     0
 74
     0
 77
     1
 78
     8
 79
     2
140
3.0
141
0.0
143
0.0393701
146
0.71
147
1.0
172
     1
176
   256
177
   256
178
   256
271
     2
272
     2
283
     0
284
     8
340
11
371
    -1
372
    -1
  0
DIMSTYLE
105
82
330
A
100
AcDbSymbolTableRecord
100
AcDbDimStyleTableRecord
  2
AM_ISO$3
 70
     0
  4
"
 41
3.0
 42
1.0
 43
10.0
 44
1.5
 47
0.1
 48
0.1
 73
     0
 77
     1
 78
     8
 79
     2
140
3.0
141
0.0
143
0.0393701
146
0.71
147
1.0
176
   256
177
   256
178
   256
271
     2
272
     2
283
     0
284
     8
288
     1
289
     0
340
11
371
    -1
372
    -1
  0
DIMSTYLE
105
83
330
A
100
AcDbSymbolTableRecord
100
AcDbDimStyleTableRecord
  2
AM_ISO$4
 70
     0
  4
"
 41
3.0
 42
1.0
 43
10.0
 44
1.5
 47
0.1
 48
0.1
 73
     0
 77
     1
 78
     8
 79
     2
140
3.0
141
0.0
143
0.0393701
146
0.71
147
1.0
176
   256
177
   256
178
   256
271
     2
272
     2
283
     0
284
     8
288
     1
289
     0
340
11
371
    -1
372
    -1
  0
DIMSTYLE
105
84
330
A
100
AcDbSymbolTableRecord
100
AcDbDimStyleTableRecord
  2
AM_ISO$6
 70
     0
  4
"
 41
3.0
 42
1.0
 43
10.0
 44
1.5
 47
0.1
 48
0.1
 73
     0
 74
     0
 78
     8
 79
     2
140
3.0
141
0.0
143
0.0393701
146
0.71
147
1.0
172
     1
176
   256
177
   256
178
   256
271
     2
272
     2
283
     0
284
     8
340
11
371
    -1
372
    -1
  0
DIMSTYLE
105
85
330
A
100
AcDbSymbolTableRecord
100
AcDbDimStyleTableRecord
  2
AM_ISO$7
 70
     0
  4
"
 41
3.0
 42
1.0
 43
10.0
 44
1.5
 47
0.1
 48
0.1
 73
     0
 74
     0
 77
     1
 78
     8
 79
     2
140
5.0
141
0.0
143
0.0393701
146
0.71
147
1.0
172
     1
176
   256
177
   256
178
   256
271
     2
272
     2
283
     0
284
     8
340
11
371
    -1
372
    -1
  0
DIMSTYLE
105
86
330
A
100
AcDbSymbolTableRecord
100
AcDbDimStyleTableRecord
  2
AM_ISO$SF
 70
     0
  4
"
 41
2.5
 42
1.0
 43
10.0
 44
1.0
 47
0.1
 48
0.1
 73
     0
 74
     0
 75
     1
 76
     1
 77
     1
 78
     8
 79
     2
140
3.5
141
0.0
143
0.0393701
146
0.71
147
1.5
172
     1
176
   256
177
   256
178
     2
271
     2
272
     3
274
     4
283
     0
284
     8
340
11
371
    -1
372
    -1
  0
DIMSTYLE
105
8B
330
A
100
AcDbSymbolTableRecord
100
AcDbDimStyleTableRecord
  2
AM_ISO$SH
 70
     0
  4
"
 41
2.5
 42
1.0
 43
10.0
 44
1.0
 47
0.1
 48
0.1
 73
     0
 74
     0
 75
     1
 76
     1
 77
     1
 78
     8
 79
     2
140
3.5
141
0.0
143
0.0393701
144
2.0
146
0.71
147
1.5
172
     1
173
     1
176
   256
177
   256
178
     2
271
     2
272
     3
274
     4
283
     0
284
     8
340
11
343
87
371
    -1
372
    -1
  0
DIMSTYLE
105
40B
102
{ACAD_REACTORS
330
26A6
330
26A7
330
26A8
330
3065
330
3066
330
3067
102
}
330
A
100
AcDbSymbolTableRecord
100
AcDbDimStyleTableRecord
  2
AM_ISO$0
 70
     0
  4
"
 41
3.0
 42
1.0
 43
10.0
 44
1.5
 47
0.1
 48
0.1
 73
     0
 74
     0
 77
     1
 78
     8
 79
     2
140
3.0
141
0.0
143
0.0393701
146
0.71
147
1.0
172
     1
176
   256
177
   256
178
   256
271
     2
272
     2
283
     0
284
     8
340
11
371
    -1
372
    -1
  0
ENDTAB
  0
TABLE
  2
BLOCK_RECORD
  5
1
330
0
100
AcDbSymbolTable
 70
    14
  0
BLOCK_RECORD
  5
1F
102
{ACAD_XDICTIONARY
360
8F
102
}
330
1
100
AcDbSymbolTableRecord
100
AcDbBlockTableRecord
  2
*Model_Space
340
22
  0
BLOCK_RECORD
  5
1B
330
1
100
AcDbSymbolTableRecord
100
AcDbBlockTableRecord
  2
*Paper_Space
340
1E
  0
BLOCK_RECORD
  5
23
330
1
100
AcDbSymbolTableRecord
100
AcDbBlockTableRecord
  2
*Paper_Space0
340
26
  0
BLOCK_RECORD
  5
87
330
1
100
AcDbSymbolTableRecord
100
AcDbBlockTableRecord
  2
GENAXEH
340
0
  0
BLOCK_RECORD
  5
247E
330
1
100
AcDbSymbolTableRecord
100
AcDbBlockTableRecord
  2
*U4
340
0
  0
BLOCK_RECORD
  5
26A9
330
1
100
AcDbSymbolTableRecord
100
AcDbBlockTableRecord
  2
*D5
340
0
  0
BLOCK_RECORD
  5
26B5
330
1
100
AcDbSymbolTableRecord
100
AcDbBlockTableRecord
  2
*D6
340
0
  0
BLOCK_RECORD
  5
26C1
330
1
100
AcDbSymbolTableRecord
100
AcDbBlockTableRecord
  2
*D7
340
0
  0
BLOCK_RECORD
  5
3072
330
1
100
AcDbSymbolTableRecord
100
AcDbBlockTableRecord
  2
*D8
340
0
  0
BLOCK_RECORD
  5
307E
330
1
100
AcDbSymbolTableRecord
100
AcDbBlockTableRecord
  2
*D9
340
0
  0
BLOCK_RECORD
  5
308A
330
1
100
AcDbSymbolTableRecord
100
AcDbBlockTableRecord
  2
*D10
340
0
  0
BLOCK_RECORD
  5
35AE
330
1
100
AcDbSymbolTableRecord
100
AcDbBlockTableRecord
  2
*S12
340
0
  0
BLOCK_RECORD
  5
35B6
330
1
100
AcDbSymbolTableRecord
100
AcDbBlockTableRecord
  2
*S13
340
0
  0
ENDTAB
  0
ENDSEC
  0
SECTION
  2
BLOCKS
  0
BLOCK
  5
20
330
1F
100
AcDbEntity
  8
0
100
AcDbBlockBegin
  2
*Model_Space
 70
     0
 10
0.0
 20
0.0
 30
0.0
  3
*Model_Space
  1

  0
ENDBLK
  5
21
330
1F
100
AcDbEntity
  8
0
100
AcDbBlockEnd
  0
BLOCK
  5
1C
330
1B
100
AcDbEntity
 67
     1
  8
0
100
AcDbBlockBegin
  2
*Paper_Space
 70
     0
 10
0.0
 20
0.0
 30
0.0
  3
*Paper_Space
  1

  0
ENDBLK
  5
1D
330
1B
100
AcDbEntity
 67
     1
  8
0
100
AcDbBlockEnd
  0
BLOCK
  5
24
330
23
100
AcDbEntity
  8
0
100
AcDbBlockBegin
  2
*Paper_Space0
 70
     0
 10
0.0
 20
0.0
 30
0.0
  3
*Paper_Space0
  1

  0
ENDBLK
  5
25
330
23
100
AcDbEntity
  8
0
100
AcDbBlockEnd
  0
BLOCK
  5
89
330
87
100
AcDbEntity
  8
0
100
AcDbBlockBegin
  2
GENAXEH
 70
     0
 10
0.0
 20
0.0
 30
0.0
  3
GENAXEH
  1

  0
LINE
  5
88
330
87
100
AcDbEntity
  8
0
100
AcDbLine
 10
-1.0
 20
0.0
 30
0.0
 11
1.0
 21
0.0
 31
0.0
  0
ENDBLK
  5
8A
330
87
100
AcDbEntity
  8
0
100
AcDbBlockEnd
  0
BLOCK
  5
247F
330
247E
100
AcDbEntity
  8
0
100
AcDbBlockBegin
  2
*U4
 70
     1
 10
0.0
 20
0.0
 30
0.0
  3
*U4
  1

  0
ENDBLK
  5
2480
330
247E
100
AcDbEntity
  8
0
100
AcDbBlockEnd
  0
BLOCK
  5
26B3
330
26A9
100
AcDbEntity
  8
0
100
AcDbBlockBegin
  2
*D5
 70
     1
 10
0.0
 20
0.0
 30
0.0
  3
*D5
  1

  0
LINE
  5
317A
330
26A9
100
AcDbEntity
  8
AM_5
100
AcDbLine
 10
2204.667343324643
 20
1615.587483690915
 30
0.0
 11
2233.167343324645
 21
1615.587483690915
 31
0.0
  0
LINE
  5
317B
330
26A9
100
AcDbEntity
  8
AM_5
100
AcDbLine
 10
2213.667343324644
 20
1629.587483690915
 30
0.0
 11
2233.167343324645
 21
1629.587483690915
 31
0.0
  0
LINE
  5
317C
330
26A9
100
AcDbEntity
  8
AM_5
100
AcDbLine
 10
2231.667343324645
 20
1618.587483690915
 30
0.0
 11
2231.667343324645
 21
1626.587483690915
 31
0.0
  0
SOLID
  5
317D
330
26A9
100
AcDbEntity
  8
AM_5
100
AcDbTrace
 10
2231.167343324645
 20
1618.587483690915
 30
0.0
 11
2232.167343324645
 21
1618.587483690915
 31
0.0
 12
2231.667343324645
 22
1615.587483690915
 32
0.0
 13
2231.667343324645
 23
1615.587483690915
 33
0.0
  0
SOLID
  5
317E
330
26A9
100
AcDbEntity
  8
AM_5
100
AcDbTrace
 10
2231.167343324645
 20
1626.587483690915
 30
0.0
 11
2232.167343324645
 21
1626.587483690915
 31
0.0
 12
2231.667343324645
 22
1629.587483690915
 32
0.0
 13
2231.667343324645
 23
1629.587483690915
 33
0.0
  0
MTEXT
  5
317F
330
26A9
100
AcDbEntity
  8
AM_5
100
AcDbMText
 10
2229.167048049054
 20
1622.587483690915
 30
0.0
 40
3.0
 41
0.0
 71
     5
 72
     1
  1
L2
 11
0.0000000000000001
 21
1.0
 31
0.0
 73
     1
 44
1.0
1001
ACAD
1000
MTEXTBEGIN
1070
    73
1070
     1
1070
    44
1040
1.0
1070
    74
1070
     0
1000
MTEXTEND
  0
POINT
  5
3180
330
26A9
100
AcDbEntity
  8
Defpoints
 62
     0
100
AcDbPoint
 10
2203.667343324644
 20
1615.587483690915
 30
0.0
  0
POINT
  5
3181
330
26A9
100
AcDbEntity
  8
Defpoints
 62
     0
100
AcDbPoint
 10
2212.667343324644
 20
1629.587483690915
 30
0.0
  0
POINT
  5
3182
330
26A9
100
AcDbEntity
  8
Defpoints
 62
     0
100
AcDbPoint
 10
2231.667343324645
 20
1629.587483690915
 30
0.0
  0
ENDBLK
  5
26B4
330
26A9
100
AcDbEntity
  8
0
100
AcDbBlockEnd
  0
BLOCK
  5
26BF
330
26B5
100
AcDbEntity
  8
0
100
AcDbBlockBegin
  2
*D6
 70
     1
 10
0.0
 20
0.0
 30
0.0
  3
*D6
  1

  0
LINE
  5
3183
330
26B5
100
AcDbEntity
  8
AM_5
100
AcDbLine
 10
2213.667343324644
 20
1629.587483690915
 30
0.0
 11
2226.167343324644
 21
1629.587483690915
 31
0.0
  0
LINE
  5
3184
330
26B5
100
AcDbEntity
  8
AM_5
100
AcDbLine
 10
2213.667343324644
 20
1684.587483690915
 30
0.0
 11
2226.167343324644
 21
1684.587483690915
 31
0.0
  0
LINE
  5
3185
330
26B5
100
AcDbEntity
  8
AM_5
100
AcDbLine
 10
2224.667343324644
 20
1632.587483690915
 30
0.0
 11
2224.667343324644
 21
1681.587483690915
 31
0.0
  0
SOLID
  5
3186
330
26B5
100
AcDbEntity
  8
AM_5
100
AcDbTrace
 10
2224.167343324644
 20
1632.587483690915
 30
0.0
 11
2225.167343324644
 21
1632.587483690915
 31
0.0
 12
2224.667343324644
 22
1629.587483690915
 32
0.0
 13
2224.667343324644
 23
1629.587483690915
 33
0.0
  0
SOLID
  5
3187
330
26B5
100
AcDbEntity
  8
AM_5
100
AcDbTrace
 10
2224.167343324644
 20
1681.587483690915
 30
0.0
 11
2225.167343324644
 21
1681.587483690915
 31
0.0
 12
2224.667343324644
 22
1684.587483690915
 32
0.0
 13
2224.667343324644
 23
1684.587483690915
 33
0.0
  0
MTEXT
  5
3188
330
26B5
100
AcDbEntity
  8
AM_5
100
AcDbMText
 10
2222.167343324644
 20
1657.087483690915
 30
0.0
 40
3.0
 41
0.0
 71
     5
 72
     1
  1
L1
 11
0.0000000000000001
 21
1.0
 31
0.0
 73
     1
 44
1.0
1001
ACAD
1000
MTEXTBEGIN
1070
    73
1070
     1
1070
    44
1040
1.0
1070
    74
1070
     0
1000
MTEXTEND
  0
POINT
  5
3189
330
26B5
100
AcDbEntity
  8
Defpoints
 62
     0
100
AcDbPoint
 10
2212.667343324644
 20
1629.587483690915
 30
0.0
  0
POINT
  5
318A
330
26B5
100
AcDbEntity
  8
Defpoints
 62
     0
100
AcDbPoint
 10
2212.667343324644
 20
1684.587483690915
 30
0.0
  0
POINT
  5
318B
330
26B5
100
AcDbEntity
  8
Defpoints
 62
     0
100
AcDbPoint
 10
2224.667343324644
 20
1684.587483690915
 30
0.0
  0
ENDBLK
  5
26C0
330
26B5
100
AcDbEntity
  8
0
100
AcDbBlockEnd
  0
BLOCK
  5
26CB
330
26C1
100
AcDbEntity
  8
0
100
AcDbBlockBegin
  2
*D7
 70
     1
 10
0.0
 20
0.0
 30
0.0
  3
*D7
  1

  0
LINE
  5
318C
330
26C1
100
AcDbEntity
  8
AM_5
100
AcDbLine
 10
2213.667343324644
 20
1629.587483690915
 30
0.0
 11
2233.167343324644
 21
1629.587483690915
 31
0.0
  0
LINE
  5
318D
330
26C1
100
AcDbEntity
  8
AM_5
100
AcDbLine
 10
2206.667343324644
 20
1696.387483690915
 30
0.0
 11
2233.167343324644
 21
1696.387483690915
 31
0.0
  0
LINE
  5
318E
330
26C1
100
AcDbEntity
  8
AM_5
100
AcDbLine
 10
2231.667343324644
 20
1632.587483690915
 30
0.0
 11
2231.667343324644
 21
1693.387483690915
 31
0.0
  0
SOLID
  5
318F
330
26C1
100
AcDbEntity
  8
AM_5
100
AcDbTrace
 10
2231.167343324644
 20
1632.587483690915
 30
0.0
 11
2232.167343324644
 21
1632.587483690915
 31
0.0
 12
2231.667343324644
 22
1629.587483690915
 32
0.0
 13
2231.667343324644
 23
1629.587483690915
 33
0.0
  0
SOLID
  5
3190
330
26C1
100
AcDbEntity
  8
AM_5
100
AcDbTrace
 10
2231.167343324644
 20
1693.387483690915
 30
0.0
 11
2232.167343324644
 21
1693.387483690915
 31
0.0
 12
2231.667343324644
 22
1696.387483690915
 32
0.0
 13
2231.667343324644
 23
1696.387483690915
 33
0.0
  0
MTEXT
  5
3191
330
26C1
100
AcDbEntity
  8
AM_5
100
AcDbMText
 10
2229.167343324643
 20
1662.987483690915
 30
0.0
 40
3.0
 41
0.0
 71
     5
 72
     1
  1
L
 11
0.0000000000000001
 21
1.0
 31
0.0
 73
     1
 44
1.0
1001
ACAD
1000
MTEXTBEGIN
1070
    73
1070
     1
1070
    44
1040
1.0
1070
    74
1070
     0
1000
MTEXTEND
  0
POINT
  5
3192
330
26C1
100
AcDbEntity
  8
Defpoints
 62
     0
100
AcDbPoint
 10
2212.667343324644
 20
1629.587483690915
 30
0.0
  0
POINT
  5
3193
330
26C1
100
AcDbEntity
  8
Defpoints
 62
     0
100
AcDbPoint
 10
2205.667343324644
 20
1696.387483690915
 30
0.0
  0
POINT
  5
3194
330
26C1
100
AcDbEntity
  8
Defpoints
 62
     0
100
AcDbPoint
 10
2231.667343324644
 20
1696.387483690915
 30
0.0
  0
ENDBLK
  5
26CC
330
26C1
100
AcDbEntity
  8
0
100
AcDbBlockEnd
  0
BLOCK
  5
307C
330
3072
100
AcDbEntity
  8
0
100
AcDbBlockBegin
  2
*D8
 70
     1
 10
0.0
 20
0.0
 30
0.0
  3
*D8
  1

  0
LINE
  5
33A2
330
3072
100
AcDbEntity
  8
AM_5
100
AcDbLine
 10
2202.917343324644
 20
1312.120054398175
 30
0.0
 11
2233.167343324646
 21
1312.120054398175
 31
0.0
  0
LINE
  5
33A3
330
3072
100
AcDbEntity
  8
AM_5
100
AcDbLine
 10
2213.667343324644
 20
1339.120054398175
 30
0.0
 11
2233.167343324646
 21
1339.120054398175
 31
0.0
  0
LINE
  5
33A4
330
3072
100
AcDbEntity
  8
AM_5
100
AcDbLine
 10
2231.667343324646
 20
1315.120054398175
 30
0.0
 11
2231.667343324646
 21
1336.120054398175
 31
0.0
  0
SOLID
  5
33A5
330
3072
100
AcDbEntity
  8
AM_5
100
AcDbTrace
 10
2231.167343324646
 20
1315.120054398175
 30
0.0
 11
2232.167343324646
 21
1315.120054398175
 31
0.0
 12
2231.667343324646
 22
1312.120054398175
 32
0.0
 13
2231.667343324646
 23
1312.120054398175
 33
0.0
  0
SOLID
  5
33A6
330
3072
100
AcDbEntity
  8
AM_5
100
AcDbTrace
 10
2231.167343324646
 20
1336.120054398175
 30
0.0
 11
2232.167343324646
 21
1336.120054398175
 31
0.0
 12
2231.667343324646
 22
1339.120054398175
 32
0.0
 13
2231.667343324646
 23
1339.120054398175
 33
0.0
  0
MTEXT
  5
33A7
330
3072
100
AcDbEntity
  8
AM_5
100
AcDbMText
 10
2229.167048049055
 20
1325.620054398175
 30
0.0
 40
3.0
 41
0.0
 71
     5
 72
     1
  1
L2
 11
0.0000000000000001
 21
1.0
 31
0.0
 73
     1
 44
1.0
1001
ACAD
1000
MTEXTBEGIN
1070
    73
1070
     1
1070
    44
1040
1.0
1070
    74
1070
     0
1000
MTEXTEND
  0
POINT
  5
33A8
330
3072
100
AcDbEntity
  8
Defpoints
 62
     0
100
AcDbPoint
 10
2201.917343324644
 20
1312.120054398175
 30
0.0
  0
POINT
  5
33A9
330
3072
100
AcDbEntity
  8
Defpoints
 62
     0
100
AcDbPoint
 10
2212.667343324644
 20
1339.120054398175
 30
0.0
  0
POINT
  5
33AA
330
3072
100
AcDbEntity
  8
Defpoints
 62
     0
100
AcDbPoint
 10
2231.667343324646
 20
1339.120054398175
 30
0.0
  0
ENDBLK
  5
307D
330
3072
100
AcDbEntity
  8
0
100
AcDbBlockEnd
  0
BLOCK
  5
3088
330
307E
100
AcDbEntity
  8
0
100
AcDbBlockBegin
  2
*D9
 70
     1
 10
0.0
 20
0.0
 30
0.0
  3
*D9
  1

  0
LINE
  5
32F7
330
307E
100
AcDbEntity
  8
AM_5
100
AcDbLine
 10
2213.667343324644
 20
1339.120054398175
 30
0.0
 11
2226.167343324644
 21
1339.120054398175
 31
0.0
  0
LINE
  5
32F8
330
307E
100
AcDbEntity
  8
AM_5
100
AcDbLine
 10
2213.667343324644
 20
1394.120054398175
 30
0.0
 11
2226.167343324644
 21
1394.120054398175
 31
0.0
  0
LINE
  5
32F9
330
307E
100
AcDbEntity
  8
AM_5
100
AcDbLine
 10
2224.667343324644
 20
1342.120054398175
 30
0.0
 11
2224.667343324644
 21
1391.120054398174
 31
0.0
  0
SOLID
  5
32FA
330
307E
100
AcDbEntity
  8
AM_5
100
AcDbTrace
 10
2224.167343324644
 20
1342.120054398175
 30
0.0
 11
2225.167343324644
 21
1342.120054398175
 31
0.0
 12
2224.667343324644
 22
1339.120054398175
 32
0.0
 13
2224.667343324644
 23
1339.120054398175
 33
0.0
  0
SOLID
  5
32FB
330
307E
100
AcDbEntity
  8
AM_5
100
AcDbTrace
 10
2224.167343324644
 20
1391.120054398174
 30
0.0
 11
2225.167343324644
 21
1391.120054398174
 31
0.0
 12
2224.667343324644
 22
1394.120054398175
 32
0.0
 13
2224.667343324644
 23
1394.120054398175
 33
0.0
  0
MTEXT
  5
32FC
330
307E
100
AcDbEntity
  8
AM_5
100
AcDbMText
 10
2222.167343324644
 20
1366.620054398175
 30
0.0
 40
3.0
 41
0.0
 71
     5
 72
     1
  1
L1
 11
0.0000000000000001
 21
1.0
 31
0.0
 73
     1
 44
1.0
1001
ACAD
1000
MTEXTBEGIN
1070
    73
1070
     1
1070
    44
1040
1.0
1070
    74
1070
     0
1000
MTEXTEND
  0
POINT
  5
32FD
330
307E
100
AcDbEntity
  8
Defpoints
 62
     0
100
AcDbPoint
 10
2212.667343324644
 20
1339.120054398175
 30
0.0
  0
POINT
  5
32FE
330
307E
100
AcDbEntity
  8
Defpoints
 62
     0
100
AcDbPoint
 10
2212.667343324644
 20
1394.120054398175
 30
0.0
  0
POINT
  5
32FF
330
307E
100
AcDbEntity
  8
Defpoints
 62
     0
100
AcDbPoint
 10
2224.667343324644
 20
1394.120054398175
 30
0.0
  0
ENDBLK
  5
3089
330
307E
100
AcDbEntity
  8
0
100
AcDbBlockEnd
  0
BLOCK
  5
3094
330
308A
100
AcDbEntity
  8
0
100
AcDbBlockBegin
  2
*D10
 70
     1
 10
0.0
 20
0.0
 30
0.0
  3
*D10
  1

  0
LINE
  5
3300
330
308A
100
AcDbEntity
  8
AM_5
100
AcDbLine
 10
2213.667343324644
 20
1339.120054398175
 30
0.0
 11
2233.167343324644
 21
1339.120054398175
 31
0.0
  0
LINE
  5
3301
330
308A
100
AcDbEntity
  8
AM_5
100
AcDbLine
 10
2206.667343324644
 20
1405.920054398175
 30
0.0
 11
2233.167343324644
 21
1405.920054398175
 31
0.0
  0
LINE
  5
3302
330
308A
100
AcDbEntity
  8
AM_5
100
AcDbLine
 10
2231.667343324644
 20
1342.120054398175
 30
0.0
 11
2231.667343324644
 21
1402.920054398174
 31
0.0
  0
SOLID
  5
3303
330
308A
100
AcDbEntity
  8
AM_5
100
AcDbTrace
 10
2231.167343324644
 20
1342.120054398175
 30
0.0
 11
2232.167343324644
 21
1342.120054398175
 31
0.0
 12
2231.667343324644
 22
1339.120054398175
 32
0.0
 13
2231.667343324644
 23
1339.120054398175
 33
0.0
  0
SOLID
  5
3304
330
308A
100
AcDbEntity
  8
AM_5
100
AcDbTrace
 10
2231.167343324644
 20
1402.920054398174
 30
0.0
 11
2232.167343324644
 21
1402.920054398174
 31
0.0
 12
2231.667343324644
 22
1405.920054398175
 32
0.0
 13
2231.667343324644
 23
1405.920054398175
 33
0.0
  0
MTEXT
  5
3305
330
308A
100
AcDbEntity
  8
AM_5
100
AcDbMText
 10
2229.167343324643
 20
1372.520054398175
 30
0.0
 40
3.0
 41
0.0
 71
     5
 72
     1
  1
L
 11
0.0000000000000001
 21
1.0
 31
0.0
 73
     1
 44
1.0
1001
ACAD
1000
MTEXTBEGIN
1070
    73
1070
     1
1070
    44
1040
1.0
1070
    74
1070
     0
1000
MTEXTEND
  0
POINT
  5
3306
330
308A
100
AcDbEntity
  8
Defpoints
 62
     0
100
AcDbPoint
 10
2212.667343324644
 20
1339.120054398175
 30
0.0
  0
POINT
  5
3307
330
308A
100
AcDbEntity
  8
Defpoints
 62
     0
100
AcDbPoint
 10
2205.667343324644
 20
1405.920054398175
 30
0.0
  0
POINT
  5
3308
330
308A
100
AcDbEntity
  8
Defpoints
 62
     0
100
AcDbPoint
 10
2231.667343324644
 20
1405.920054398175
 30
0.0
  0
ENDBLK
  5
3095
330
308A
100
AcDbEntity
  8
0
100
AcDbBlockEnd
  0
BLOCK
  5
35B3
330
35AE
100
AcDbEntity
  8
0
100
AcDbBlockBegin
  2
*S12
 70
     1
 10
0.0
 20
0.0
 30
0.0
  3
*S12
  1

  0
LINE
  5
35AF
330
35AE
100
AcDbEntity
  8
AM_5
 62
     5
100
AcDbLine
 10
2113.262391583111
 20
1621.882599021564
 30
0.0
 11
2099.999411174921
 21
1621.882599021564
 31
0.0
  0
LINE
  5
35B0
330
35AE
100
AcDbEntity
  8
AM_5
 62
     5
100
AcDbLine
 10
2099.999411174921
 20
1621.882599021564
 30
0.0
 11
2093.045482778379
 21
1645.674993007801
 31
0.0
  0
TRACE
  5
35B1
330
35AE
100
AcDbEntity
  8
AM_5
 62
     5
370
    35
100
AcDbTrace
 10
2093.48776274492
 20
1645.804260504813
 30
0.0
 11
2092.603202811837
 21
1645.545725510787
 31
0.0
 12
2092.063598651918
 22
1649.03444289762
 32
0.0
 13
2092.063598651918
 23
1649.03444289762
 33
0.0
  0
MTEXT
  5
35B2
330
35AE
100
AcDbEntity
  8
AM_5
 62
     2
100
AcDbMText
 10
2113.262391583111
 20
1626.982799706954
 30
0.0
 40
3.5
 41
0.0
 71
     7
 72
     5
  1

  7
ACISOTS
 73
     1
 44
1.0
1001
ACAD
1000
MTEXTBEGIN
1070
    73
1070
     1
1070
    44
1040
1.0
1070
    74
1070
     0
1000
MTEXTEND
  0
ENDBLK
  5
35B4
330
35AE
100
AcDbEntity
  8
0
100
AcDbBlockEnd
  0
BLOCK
  5
35BB
330
35B6
100
AcDbEntity
  8
0
100
AcDbBlockBegin
  2
*S13
 70
     1
 10
0.0
 20
0.0
 30
0.0
  3
*S13
  1

  0
LINE
  5
35B7
330
35B6
100
AcDbEntity
  8
AM_5
 62
     5
100
AcDbLine
 10
2113.262391583111
 20
1331.415169728824
 30
0.0
 11
2099.999411174921
 21
1331.415169728824
 31
0.0
  0
LINE
  5
35B8
330
35B6
100
AcDbEntity
  8
AM_5
 62
     5
100
AcDbLine
 10
2099.999411174921
 20
1331.415169728824
 30
0.0
 11
2093.045482778379
 21
1355.20756371506
 31
0.0
  0
TRACE
  5
35B9
330
35B6
100
AcDbEntity
  8
AM_5
 62
     5
370
    35
100
AcDbTrace
 10
2093.48776274492
 20
1355.336831212073
 30
0.0
 11
2092.603202811837
 21
1355.078296218047
 31
0.0
 12
2092.063598651918
 22
1358.567013604879
 32
0.0
 13
2092.063598651918
 23
1358.567013604879
 33
0.0
  0
MTEXT
  5
35BA
330
35B6
100
AcDbEntity
  8
AM_5
 62
     2
100
AcDbMText
 10
2113.262391583111
 20
1336.515370414214
 30
0.0
 40
3.5
 41
0.0
 71
     7
 72
     5
  1

  7
ACISOTS
 73
     1
 44
1.0
1001
ACAD
1000
MTEXTBEGIN
1070
    73
1070
     1
1070
    44
1040
1.0
1070
    74
1070
     0
1000
MTEXTEND
  0
ENDBLK
  5
35BC
330
35B6
100
AcDbEntity
  8
0
100
AcDbBlockEnd
  0
ENDSEC
  0
SECTION
  2
ENTITIES
  0
LINE
  5
D9C
330
1F
100
AcDbEntity
  8
LOGO
 62
     1
100
AcDbLine
 10
2459.33550131756
 20
1241.001154150035
 30
0.0
 11
2019.545192205521
 21
1241.001154150035
 31
0.0
  0
LWPOLYLINE
  5
DB0
330
1F
100
AcDbEntity
  8
0
 62
     4
100
AcDbPolyline
 90
        4
 70
     1
 43
0.0
 10
2019.545192205522
 20
1241.001154150035
 10
2459.335501317561
 20
1241.001154150035
 10
2459.335501317561
 20
1819.732460036393
 10
2019.545192205522
 20
1819.732460036393
1001
GENIUS_GENREC_14
1002
{
1000
PYDIR
1011
2019.545192205522
1021
1819.732460036393
1031
0.0
1002
}
1002
{
1000
PXDIR
1011
2459.335501317561
1021
1241.001154150035
1031
0.0
1002
}
1002
{
1000
PORI
1011
2019.545192205522
1021
1241.001154150035
1031
0.0
1002
}
1002
{
1000
PINS
1011
2019.545192205522
1021
1241.001154150035
1031
0.0
1002
}
1002
{
1000
PINS2
1011
2459.335501317561
1021
1819.732460036393
1031
0.0
1002
}
1002
{
1000
C
1070
     1
1002
}
1001
GENIUS_GENODEF_13
1002
{
1000
HIER
1070
     0
1002
}
1002
{
1000
MANEDIT
1070
     0
1002
}
1002
{
1000
NOSEL
1070
     0
1002
}
1002
{
1000
BEHIND
1070
     0
1002
}
1002
{
1000
OTHER
1070
     0
1002
}
1002
{
1000
REACTOR
1002
}
1001
GENIUS_GENOBJ-N-REC_13
1002
{
1000
OWNER
1000
GEN
1002
}
  0
LINE
  5
DEE
330
1F
100
AcDbEntity
  8
LOGO
 62
     4
100
AcDbLine
 10
2181.788985906491
 20
1206.488789300254
 30
0.0
 11
2156.683696187758
 21
1206.488789300254
 31
0.0
  0
LINE
  5
DEF
330
1F
100
AcDbEntity
  8
LOGO
 62
     4
100
AcDbLine
 10
2181.788985906491
 20
1220.296698645557
 30
0.0
 11
2156.683696187758
 21
1220.296698645557
 31
0.0
  0
LINE
  5
DF0
330
1F
100
AcDbEntity
  8
LOGO
 62
     4
100
AcDbLine
 10
2184.299514878365
 20
1225.945388832272
 30
0.0
 11
2154.173167215885
 21
1225.945388832272
 31
0.0
  0
LINE
  5
DF1
330
1F
100
AcDbEntity
  8
LOGO
 62
     4
100
AcDbLine
 10
2184.299514878365
 20
1237.242769205702
 30
0.0
 11
2154.173167215885
 21
1237.242769205702
 31
0.0
  0
TEXT
  5
DF2
330
1F
100
AcDbEntity
  8
LOGO
  6
Continuous
 62
     7
100
AcDbText
 10
2156.686341047124
 20
1228.299704018987
 30
0.0
 40
6.58875
  1
MCGB
  7
CHINESET
 72
     1
 11
2169.236341047124
 21
1231.594079018987
 31
0.0
100
AcDbText
 73
     2
  0
LINE
  5
DF3
330
1F
100
AcDbEntity
  8
LOGO
 62
     4
100
AcDbLine
 10
2154.173167215885
 20
1237.242769205702
 30
0.0
 11
2154.173167215885
 21
1225.945388832272
 31
0.0
  0
LINE
  5
DF4
330
1F
100
AcDbEntity
  8
LOGO
 62
     4
100
AcDbLine
 10
2156.683696187758
 20
1220.296698645557
 30
0.0
 11
2156.683696187758
 21
1206.488789300254
 31
0.0
  0
TEXT
  5
DF5
330
1F
100
AcDbEntity
  8
LOGO
  6
Continuous
100
AcDbText
 10
2164.933483904267
 20
1208.215075515096
 30
246.8038994425551
 40
2.82375
  1
Model
 41
0.8
  7
CHINESET
 72
     4
 11
2169.236341047124
 21
1209.626950515096
 31
246.8038994425551
100
AcDbText
  0
TEXT
  5
DF6
330
1F
100
AcDbEntity
  8
LOGO
100
AcDbText
 10
2164.530091047124
 20
1213.670583476275
 30
246.8038994425551
 40
4.706249999999999
  1
型式
  7
CHINESET
 72
     4
 11
2169.236341047124
 21
1215.903272944778
 31
246.8038994425551
100
AcDbText
  0
LINE
  5
DF7
330
1F
100
AcDbEntity
  8
LOGO
 62
     4
100
AcDbLine
 10
2169.236341047124
 20
1225.945388832272
 30
0.0
 11
2169.236341047124
 21
1220.296698645557
 31
0.0
  0
LINE
  5
DF8
330
1F
100
AcDbEntity
  8
LOGO
 62
     4
100
AcDbLine
 10
2184.299514878365
 20
1237.242769205702
 30
0.0
 11
2184.299514878365
 21
1225.945388832272
 31
0.0
  0
LINE
  5
DF9
330
1F
100
AcDbEntity
  8
LOGO
 62
     4
100
AcDbLine
 10
2225.894525466665
 20
1237.242769205702
 30
0.0
 11
2225.894525466665
 21
1225.945388832272
 31
0.0
  0
LINE
  5
DFA
330
1F
100
AcDbEntity
  8
LOGO
 62
     4
100
AcDbLine
 10
2193.188102137231
 20
1237.242769205702
 30
0.0
 11
2193.188102137231
 21
1225.945388832272
 31
0.0
  0
TEXT
  5
DFB
330
1F
100
AcDbEntity
  8
LOGO
  6
Continuous
100
AcDbText
 10
2198.945528087662
 20
1208.685700515095
 30
246.8038994425551
 40
2.82375
  1
Bearing type
 41
0.8
  7
CHINESET
 72
     4
 11
2209.541313801948
 21
1209.626950515096
 31
246.8038994425551
100
AcDbText
  0
TEXT
  5
DFC
330
1F
100
AcDbEntity
  8
LOGO
100
AcDbText
 10
2200.177837239448
 20
1213.670583476275
 30
246.8038994425551
 40
4.706249999999999
  1
軸承型式
  7
CHINESET
 72
     4
 11
2209.541313801948
 21
1215.903272944778
 31
246.8038994425551
100
AcDbText
  0
LINE
  5
DFD
330
1F
100
AcDbEntity
  8
LOGO
 62
     4
100
AcDbLine
 10
2225.894525466665
 20
1225.945388832272
 30
0.0
 11
2193.188102137231
 21
1225.945388832272
 31
0.0
  0
LINE
  5
DFE
330
1F
100
AcDbEntity
  8
LOGO
 62
     4
100
AcDbLine
 10
2225.894525466665
 20
1220.296698645557
 30
0.0
 11
2193.188102137231
 21
1220.296698645557
 31
0.0
  0
LINE
  5
DFF
330
1F
100
AcDbEntity
  8
LOGO
 62
     4
100
AcDbLine
 10
2225.894525466665
 20
1206.488789300254
 30
0.0
 11
2193.188102137231
 21
1206.488789300254
 31
0.0
  0
LINE
  5
E00
330
1F
100
AcDbEntity
  8
LOGO
 62
     4
100
AcDbLine
 10
2181.788985906491
 20
1220.296698645557
 30
0.0
 11
2181.788985906491
 21
1206.488789300254
 31
0.0
  0
LINE
  5
E01
330
1F
100
AcDbEntity
  8
LOGO
 62
     4
100
AcDbLine
 10
2193.188102137231
 20
1220.296698645557
 30
0.0
 11
2193.188102137231
 21
1206.488789300254
 31
0.0
  0
LINE
  5
E02
330
1F
100
AcDbEntity
  8
LOGO
 62
     4
100
AcDbLine
 10
2225.894525466665
 20
1220.296698645557
 30
0.0
 11
2225.894525466665
 21
1206.488789300254
 31
0.0
  0
LINE
  5
E03
330
1F
100
AcDbEntity
  8
LOGO
 62
     4
100
AcDbLine
 10
2209.541313801948
 20
1225.945388832272
 30
0.0
 11
2209.541313801948
 21
1220.296698645557
 31
0.0
  0
LINE
  5
E04
330
1F
100
AcDbEntity
  8
LOGO
 62
     4
100
AcDbLine
 10
2225.894525466665
 20
1237.242769205702
 30
0.0
 11
2193.188102137231
 21
1237.242769205702
 31
0.0
  0
LINE
  5
E05
330
1F
100
AcDbEntity
  8
LOGO
  6
Continuous
 62
     7
100
AcDbLine
 10
2186.245883734089
 20
1231.554061912296
 30
0.0
 11
2191.234394683903
 21
1231.554061912296
 31
0.0
  0
TEXT
  5
E06
330
1F
100
AcDbEntity
  8
LOGO
  6
Continuous
 62
     7
100
AcDbText
 10
2194.481313801948
 20
1228.228530127146
 30
0.0
 40
6.58875
  1
03/23
  7
CHINESET
 72
     1
 11
2209.541313801948
 21
1231.522905127146
 31
0.0
100
AcDbText
 73
     2
  0
TEXT
  5
E07
330
1F
100
AcDbEntity
  8
LOGO
  6
Continuous
 62
     7
100
AcDbText
 10
2269.532879063453
 20
1228.228530127146
 30
0.0
 40
6.58875
  1
20
  7
CHINESET
 72
     1
 11
2274.866629063453
 21
1231.522905127146
 31
0.0
100
AcDbText
 73
     2
  0
TEXT
  5
E08
330
1F
100
AcDbEntity
  8
LOGO
  6
Continuous
100
AcDbText
 10
2269.171195951206
 20
1208.215075515096
 30
246.8038994425551
 40
2.82375
  1
Stroke
 41
0.8
  7
CHINESET
 72
     4
 11
2274.280838808349
 21
1209.626950515096
 31
246.8038994425551
100
AcDbText
  0
LINE
  5
E09
330
1F
100
AcDbEntity
  8
LOGO
 62
     4
100
AcDbLine
 10
2284.736199162232
 20
1237.242769205702
 30
0.0
 11
2263.825478454467
 21
1237.242769205702
 31
0.0
  0
TEXT
  5
E0A
330
1F
100
AcDbEntity
  8
LOGO
100
AcDbText
 10
2269.574588808349
 20
1213.550147944779
 30
246.8038994425551
 40
4.706249999999999
  1
行程
  7
CHINESET
 72
     4
 11
2274.280838808349
 21
1215.903272944778
 31
246.8038994425551
100
AcDbText
  0
LINE
  5
E0B
330
1F
100
AcDbEntity
  8
LOGO
 62
     4
100
AcDbLine
 10
2283.480934676296
 20
1206.488789300254
 30
0.0
 11
2265.080742940404
 21
1206.488789300254
 31
0.0
  0
LINE
  5
E0C
330
1F
100
AcDbEntity
  8
LOGO
 62
     4
100
AcDbLine
 10
2284.736199162232
 20
1225.945388832272
 30
0.0
 11
2263.825478454467
 21
1225.945388832272
 31
0.0
  0
LINE
  5
E0D
330
1F
100
AcDbEntity
  8
LOGO
 62
     4
100
AcDbLine
 10
2283.480934676296
 20
1220.296698645557
 30
0.0
 11
2265.080742940404
 21
1220.296698645557
 31
0.0
  0
LINE
  5
E0E
330
1F
100
AcDbEntity
  8
LOGO
 62
     4
100
AcDbLine
 10
2254.936891195601
 20
1237.242769205702
 30
0.0
 11
2254.936891195601
 21
1225.945388832272
 31
0.0
  0
LINE
  5
E0F
330
1F
100
AcDbEntity
  8
LOGO
 62
     4
100
AcDbLine
 10
2234.783112725532
 20
1237.242769205702
 30
0.0
 11
2234.783112725532
 21
1225.945388832272
 31
0.0
  0
LINE
  5
E10
330
1F
100
AcDbEntity
  8
LOGO
 62
     4
100
AcDbLine
 10
2263.825478454467
 20
1237.242769205702
 30
0.0
 11
2263.825478454467
 21
1225.945388832272
 31
0.0
  0
LINE
  5
E11
330
1F
100
AcDbEntity
  8
LOGO
 62
     4
100
AcDbLine
 10
2254.936891195601
 20
1206.488789300254
 30
0.0
 11
2234.783112725532
 21
1206.488789300254
 31
0.0
  0
LINE
  5
E12
330
1F
100
AcDbEntity
  8
LOGO
 62
     4
100
AcDbLine
 10
2254.936891195601
 20
1225.945388832272
 30
0.0
 11
2234.783112725532
 21
1225.945388832272
 31
0.0
  0
LINE
  5
E13
330
1F
100
AcDbEntity
  8
LOGO
 62
     4
100
AcDbLine
 10
2254.936891195601
 20
1220.296698645557
 30
0.0
 11
2234.783112725532
 21
1220.296698645557
 31
0.0
  0
LINE
  5
E14
330
1F
100
AcDbEntity
  8
LOGO
 62
     4
100
AcDbLine
 10
2234.783112725532
 20
1220.296698645557
 30
0.0
 11
2234.783112725532
 21
1206.488789300254
 31
0.0
  0
TEXT
  5
E15
330
1F
100
AcDbEntity
  8
LOGO
  6
Continuous
100
AcDbText
 10
2241.363930531995
 20
1208.215075515096
 30
246.8038994425551
 40
2.82375
  1
Bore
 41
0.8
  7
CHINESET
 72
     4
 11
2244.860001960566
 21
1209.626950515096
 31
246.8038994425551
100
AcDbText
  0
TEXT
  5
E16
330
1F
100
AcDbEntity
  8
LOGO
100
AcDbText
 10
2239.859611335566
 20
1213.550147944779
 30
246.8038994425551
 40
4.706249999999999
  1
內徑
  7
CHINESET
 72
     4
 11
2244.860001960566
 21
1215.903272944778
 31
246.8038994425551
100
AcDbText
  0
LINE
  5
E17
330
1F
100
AcDbEntity
  8
LOGO
 62
     4
100
AcDbLine
 10
2244.860001671122
 20
1225.945388832272
 30
0.0
 11
2244.860001671122
 21
1220.296698645557
 31
0.0
  0
LINE
  5
E18
330
1F
100
AcDbEntity
  8
LOGO
 62
     4
100
AcDbLine
 10
2254.936891195601
 20
1220.296698645557
 30
0.0
 11
2254.936891195601
 21
1206.488789300254
 31
0.0
  0
LINE
  5
E19
330
1F
100
AcDbEntity
  8
LOGO
 62
     4
100
AcDbLine
 10
2265.080742940404
 20
1220.296698645557
 30
0.0
 11
2265.080742940404
 21
1206.488789300254
 31
0.0
  0
LINE
  5
E1A
330
1F
100
AcDbEntity
  8
LOGO
 62
     4
100
AcDbLine
 10
2254.936891195601
 20
1237.242769205702
 30
0.0
 11
2234.783112725532
 21
1237.242769205702
 31
0.0
  0
LINE
  5
E1B
330
1F
100
AcDbEntity
  8
LOGO
  6
Continuous
 62
     7
100
AcDbLine
 10
2227.84089432239
 20
1231.554061912296
 30
0.0
 11
2232.829405272205
 21
1231.554061912296
 31
0.0
  0
TEXT
  5
E1C
330
1F
100
AcDbEntity
  8
LOGO
  6
Continuous
 62
     7
100
AcDbText
 10
2240.11204221567
 20
1228.228530127146
 30
0.0
 40
6.58875
  1
20
  7
CHINESET
 72
     1
 11
2245.44579221567
 21
1231.522905127146
 31
0.0
100
AcDbText
 73
     2
  0
LINE
  5
E1D
330
1F
100
AcDbEntity
  8
LOGO
  6
Continuous
 62
     7
100
AcDbLine
 10
2256.883260051326
 20
1231.554061912296
 30
0.0
 11
2261.871771001139
 21
1231.554061912296
 31
0.0
  0
LINE
  5
E1E
330
1F
100
AcDbEntity
  8
LOGO
 62
     4
100
AcDbLine
 10
2284.736199162232
 20
1237.242769205702
 30
0.0
 11
2284.736199162232
 21
1225.945388832272
 31
0.0
  0
LINE
  5
E1F
330
1F
100
AcDbEntity
  8
LOGO
 62
     4
100
AcDbLine
 10
2283.480934676296
 20
1220.296698645557
 30
0.0
 11
2283.480934676296
 21
1206.4367243263
 31
0.0
  0
LINE
  5
E20
330
1F
100
AcDbEntity
  8
LOGO
 62
     4
100
AcDbLine
 10
2274.546692428851
 20
1225.945388832272
 30
0.0
 11
2274.546692428851
 21
1220.296698645557
 31
0.0
  0
LINE
  5
E21
330
1F
100
AcDbEntity
  8
0
 62
     4
100
AcDbLine
 10
2019.545192205522
 20
1530.366807093214
 30
0.0
 11
2459.335501317561
 21
1530.366807093214
 31
0.0
  0
LINE
  5
2297
330
1F
100
AcDbEntity
  8
AM_VIS
100
AcDbLine
 10
2148.667343324644
 20
1684.587483690915
 30
0.0
 11
2148.667343324644
 21
1686.587483690915
 31
0.0
  0
LINE
  5
2298
330
1F
100
AcDbEntity
  8
AM_VIS
100
AcDbLine
 10
2136.667343324644
 20
1684.587483690915
 30
0.0
 11
2136.667343324644
 21
1686.587483690915
 31
0.0
  0
LINE
  5
2299
330
1F
100
AcDbEntity
  8
AM_VIS
100
AcDbLine
 10
2165.167343324644
 20
1686.587483690915
 30
0.0
 11
2165.167343324644
 21
1684.587483690915
 31
0.0
  0
LINE
  5
229A
330
1F
100
AcDbEntity
  8
AM_VIS
100
AcDbLine
 10
2175.167343324644
 20
1684.587483690915
 30
0.0
 11
2175.167343324644
 21
1686.587483690915
 31
0.0
  0
LINE
  5
229B
330
1F
100
AcDbEntity
  8
AM_VIS
100
AcDbLine
 10
2203.667343324644
 20
1684.587483690915
 30
0.0
 11
2203.667343324644
 21
1686.587483690915
 31
0.0
  0
LINE
  5
229C
330
1F
100
AcDbEntity
  8
AM_VIS
100
AcDbLine
 10
2191.667343324644
 20
1684.587483690915
 30
0.0
 11
2191.667343324644
 21
1686.587483690915
 31
0.0
  0
LINE
  5
229D
330
1F
100
AcDbEntity
  8
AM_VIS
100
AcDbLine
 10
2205.667343324644
 20
1696.387483690915
 30
0.0
 11
2206.167343324644
 21
1695.887483690915
 31
0.0
  0
LINE
  5
229E
330
1F
100
AcDbEntity
  8
AM_VIS
100
AcDbLine
 10
2206.167343324644
 20
1687.087483690915
 30
0.0
 11
2206.167343324644
 21
1695.887483690915
 31
0.0
  0
LINE
  5
229F
330
1F
100
AcDbEntity
  8
AM_VIS
100
AcDbLine
 10
2206.167343324644
 20
1687.087483690915
 30
0.0
 11
2205.667343324644
 21
1686.587483690915
 31
0.0
  0
LINE
  5
22A0
330
1F
100
AcDbEntity
  8
AM_VIS
100
AcDbLine
 10
2134.167343324644
 20
1695.887483690915
 30
0.0
 11
2134.167343324644
 21
1687.087483690915
 31
0.0
  0
LINE
  5
22A1
330
1F
100
AcDbEntity
  8
AM_VIS
100
AcDbLine
 10
2134.167343324644
 20
1695.887483690915
 30
0.0
 11
2134.667343324644
 21
1696.387483690915
 31
0.0
  0
LINE
  5
22A2
330
1F
100
AcDbEntity
  8
AM_VIS
100
AcDbLine
 10
2134.667343324644
 20
1686.587483690915
 30
0.0
 11
2134.167343324644
 21
1687.087483690915
 31
0.0
  0
LINE
  5
22A3
330
1F
100
AcDbEntity
  8
AM_VIS
100
AcDbLine
 10
2205.667343324644
 20
1696.387483690915
 30
0.0
 11
2134.667343324644
 21
1696.387483690915
 31
0.0
  0
LINE
  5
22A4
330
1F
100
AcDbEntity
  8
AM_VIS
100
AcDbLine
 10
2134.667343324644
 20
1686.587483690915
 30
0.0
 11
2205.667343324644
 21
1686.587483690915
 31
0.0
  0
LINE
  5
22A5
330
1F
100
AcDbEntity
  8
AM_VIS
100
AcDbLine
 10
2180.267343324644
 20
1684.587483690915
 30
0.0
 11
2180.267343324644
 21
1668.299033063506
 31
0.0
  0
LINE
  5
22A6
330
1F
100
AcDbEntity
  8
AM_VIS
100
AcDbLine
 10
2175.867343324644
 20
1684.587483690915
 30
0.0
 11
2175.867343324644
 21
1629.587483690915
 31
0.0
  0
LINE
  5
22A7
330
1F
100
AcDbEntity
  8
AM_VIS
100
AcDbLine
 10
2172.467343324644
 20
1629.587483690915
 30
0.0
 11
2172.467343324644
 21
1684.587483690915
 31
0.0
  0
LINE
  5
22A8
330
1F
100
AcDbEntity
  8
AM_VIS
100
AcDbLine
 10
2167.867343324644
 20
1684.587483690915
 30
0.0
 11
2167.867343324644
 21
1629.587483690915
 31
0.0
  0
LINE
  5
22A9
330
1F
100
AcDbEntity
  8
AM_VIS
100
AcDbLine
 10
2212.667343324644
 20
1629.587483690915
 30
0.0
 11
2212.667343324644
 21
1684.587483690915
 31
0.0
  0
LINE
  5
22AA
330
1F
100
AcDbEntity
  8
AM_VIS
100
AcDbLine
 10
2180.267343324644
 20
1684.587483690915
 30
0.0
 11
2182.167343324644
 21
1684.587483690915
 31
0.0
  0
LINE
  5
22AB
330
1F
100
AcDbEntity
  8
AM_VIS
100
AcDbLine
 10
2175.867343324644
 20
1684.587483690915
 30
0.0
 11
2180.267343324644
 21
1684.587483690915
 31
0.0
  0
LINE
  5
22AC
330
1F
100
AcDbEntity
  8
AM_VIS
100
AcDbLine
 10
2173.717343324644
 20
1684.587483690915
 30
0.0
 11
2174.617343324644
 21
1684.587483690915
 31
0.0
  0
LINE
  5
22AD
330
1F
100
AcDbEntity
  8
AM_VIS
100
AcDbLine
 10
2167.867343324644
 20
1684.587483690915
 30
0.0
 11
2172.467343324644
 21
1684.587483690915
 31
0.0
  0
LINE
  5
22AE
330
1F
100
AcDbEntity
  8
AM_VIS
100
AcDbLine
 10
2165.717343324644
 20
1684.587483690915
 30
0.0
 11
2166.617343324643
 21
1684.587483690915
 31
0.0
  0
LINE
  5
22AF
330
1F
100
AcDbEntity
  8
AM_VIS
100
AcDbLine
 10
2158.167343324643
 20
1684.587483690915
 30
0.0
 11
2160.067343324644
 21
1684.587483690915
 31
0.0
  0
ARC
  5
22B0
330
1F
100
AcDbEntity
  8
AM_VIS
100
AcDbCircle
 10
2156.167343324644
 20
1645.587483690915
 30
0.0
 40
4.75
100
AcDbArc
 50
294.9010623703813
 51
325.1903054471692
  0
LINE
  5
22B1
330
1F
100
AcDbEntity
  8
AM_VIS
100
AcDbLine
 10
2180.267343324644
 20
1662.875934318323
 30
0.0
 11
2180.267343324644
 21
1648.299033063506
 31
0.0
  0
LINE
  5
22B2
330
1F
100
AcDbEntity
  8
AM_VIS
100
AcDbLine
 10
2180.267343324644
 20
1642.875934318324
 30
0.0
 11
2180.267343324644
 21
1629.587483690915
 31
0.0
  0
LINE
  5
22B3
330
1F
100
AcDbEntity
  8
AM_VIS
100
AcDbLine
 10
2182.167343324644
 20
1684.587483690915
 30
0.0
 11
2182.167343324644
 21
1669.895905675818
 31
0.0
  0
LINE
  5
22B4
330
1F
100
AcDbEntity
  8
AM_VIS
100
AcDbLine
 10
2211.667343324644
 20
1684.587483690915
 30
0.0
 11
2182.167343324644
 21
1684.587483690915
 31
0.0
  0
LINE
  5
22B5
330
1F
100
AcDbEntity
  8
AM_VIS
100
AcDbLine
 10
2182.167343324644
 20
1641.279061706011
 30
0.0
 11
2182.167343324644
 21
1629.587483690915
 31
0.0
  0
LINE
  5
22B6
330
1F
100
AcDbEntity
  8
AM_VIS
100
AcDbLine
 10
2182.167343324644
 20
1661.279061706012
 30
0.0
 11
2182.167343324644
 21
1649.895905675818
 31
0.0
  0
ARC
  5
22B7
330
1F
100
AcDbEntity
  8
AM_VIS
100
AcDbCircle
 10
2156.167343324644
 20
1645.587483690915
 30
0.0
 40
4.75
100
AcDbArc
 50
34.80969455283082
 51
65.09893762961865
  0
LINE
  5
22B8
330
1F
100
AcDbEntity
  8
AM_VIS
100
AcDbLine
 10
2160.067343324644
 20
1684.587483690915
 30
0.0
 11
2160.067343324644
 21
1668.299033063506
 31
0.0
  0
LINE
  5
22B9
330
1F
100
AcDbEntity
  8
AM_VIS
100
AcDbLine
 10
2160.067343324644
 20
1684.587483690915
 30
0.0
 11
2164.467343324644
 21
1684.587483690915
 31
0.0
  0
LINE
  5
22BA
330
1F
100
AcDbEntity
  8
AM_VIS
100
AcDbLine
 10
2164.467343324644
 20
1629.587483690915
 30
0.0
 11
2164.467343324644
 21
1684.587483690915
 31
0.0
  0
LINE
  5
22BB
330
1F
100
AcDbEntity
  8
AM_VIS
100
AcDbLine
 10
2160.067343324644
 20
1642.875934318324
 30
0.0
 11
2160.067343324644
 21
1629.587483690915
 31
0.0
  0
LINE
  5
22BC
330
1F
100
AcDbEntity
  8
AM_VIS
100
AcDbLine
 10
2160.067343324644
 20
1662.875934318323
 30
0.0
 11
2160.067343324644
 21
1648.299033063506
 31
0.0
  0
ARC
  5
22BD
330
1F
100
AcDbEntity
  8
AM_VIS
100
AcDbCircle
 10
2184.167343324644
 20
1645.587483690915
 30
0.0
 40
4.75
100
AcDbArc
 50
214.8096945528308
 51
245.0989376296186
  0
ARC
  5
22BE
330
1F
100
AcDbEntity
  8
AM_VIS
100
AcDbCircle
 10
2184.167343324644
 20
1645.587483690915
 30
0.0
 40
4.75
100
AcDbArc
 50
114.9010623703814
 51
145.1903054471691
  0
ARC
  5
22BF
330
1F
100
AcDbEntity
  8
AM_VIS
100
AcDbCircle
 10
2156.167343324644
 20
1665.587483690915
 30
0.0
 40
4.75
100
AcDbArc
 50
294.9010623703578
 51
325.1903054471692
  0
ARC
  5
22C0
330
1F
100
AcDbEntity
  8
AM_VIS
100
AcDbCircle
 10
2156.167343324644
 20
1665.587483690915
 30
0.0
 40
4.75
100
AcDbArc
 50
34.80969455283082
 51
65.09893762964226
  0
ARC
  5
22C1
330
1F
100
AcDbEntity
  8
AM_VIS
100
AcDbCircle
 10
2184.167343324644
 20
1665.587483690915
 30
0.0
 40
4.75
100
AcDbArc
 50
214.8096945528308
 51
245.0989376296186
  0
ARC
  5
22C2
330
1F
100
AcDbEntity
  8
AM_VIS
100
AcDbCircle
 10
2184.167343324644
 20
1665.587483690915
 30
0.0
 40
4.75
100
AcDbArc
 50
114.9010623703814
 51
145.1903054471691
  0
LINE
  5
22C3
330
1F
100
AcDbEntity
  8
AM_VIS
100
AcDbLine
 10
2158.167343324643
 20
1649.895905675818
 30
0.0
 11
2158.167343324643
 21
1661.279061706011
 31
0.0
  0
LINE
  5
22C4
330
1F
100
AcDbEntity
  8
AM_VIS
100
AcDbLine
 10
2158.167343324643
 20
1629.587483690915
 30
0.0
 11
2158.167343324643
 21
1641.279061706011
 31
0.0
  0
LINE
  5
22C5
330
1F
100
AcDbEntity
  8
AM_VIS
100
AcDbLine
 10
2158.167343324643
 20
1684.587483690915
 30
0.0
 11
2128.667343324644
 21
1684.587483690915
 31
0.0
  0
LINE
  5
22C6
330
1F
100
AcDbEntity
  8
AM_VIS
100
AcDbLine
 10
2158.167343324643
 20
1669.895905675818
 30
0.0
 11
2158.167343324643
 21
1684.587483690915
 31
0.0
  0
LINE
  5
22C7
330
1F
100
AcDbEntity
  8
AM_VIS
100
AcDbLine
 10
2127.667343324644
 20
1684.587483690915
 30
0.0
 11
2127.667343324644
 21
1629.587483690915
 31
0.0
  0
LINE
  5
22C8
330
1F
100
AcDbEntity
  8
AM_VIS
100
AcDbLine
 10
2128.667343324644
 20
1629.587483690915
 30
0.0
 11
2158.167343324643
 21
1629.587483690915
 31
0.0
  0
LINE
  5
22C9
330
1F
100
AcDbEntity
  8
AM_VIS
100
AcDbLine
 10
2160.067343324644
 20
1629.587483690915
 30
0.0
 11
2158.167343324643
 21
1629.587483690915
 31
0.0
  0
LINE
  5
22CA
330
1F
100
AcDbEntity
  8
AM_VIS
100
AcDbLine
 10
2164.467343324644
 20
1629.587483690915
 30
0.0
 11
2160.067343324644
 21
1629.587483690915
 31
0.0
  0
LINE
  5
22CB
330
1F
100
AcDbEntity
  8
AM_VIS
100
AcDbLine
 10
2166.617343324643
 20
1629.587483690915
 30
0.0
 11
2165.717343324644
 21
1629.587483690915
 31
0.0
  0
LINE
  5
22CC
330
1F
100
AcDbEntity
  8
AM_VIS
100
AcDbLine
 10
2172.467343324644
 20
1629.587483690915
 30
0.0
 11
2167.867343324644
 21
1629.587483690915
 31
0.0
  0
LINE
  5
22CD
330
1F
100
AcDbEntity
  8
AM_VIS
100
AcDbLine
 10
2174.617343324644
 20
1629.587483690915
 30
0.0
 11
2173.717343324644
 21
1629.587483690915
 31
0.0
  0
LINE
  5
22CE
330
1F
100
AcDbEntity
  8
AM_VIS
100
AcDbLine
 10
2180.267343324644
 20
1629.587483690915
 30
0.0
 11
2175.867343324644
 21
1629.587483690915
 31
0.0
  0
LINE
  5
22CF
330
1F
100
AcDbEntity
  8
AM_VIS
100
AcDbLine
 10
2182.167343324644
 20
1629.587483690915
 30
0.0
 11
2180.267343324644
 21
1629.587483690915
 31
0.0
  0
LINE
  5
22D0
330
1F
100
AcDbEntity
  8
AM_VIS
100
AcDbLine
 10
2182.167343324644
 20
1629.587483690915
 30
0.0
 11
2211.667343324644
 21
1629.587483690915
 31
0.0
  0
LINE
  5
22D1
330
1F
100
AcDbEntity
  8
AM_VIS
100
AcDbLine
 10
2211.667343324644
 20
1684.587483690915
 30
0.0
 11
2212.667343324644
 21
1684.587483690915
 31
0.0
  0
LINE
  5
22D2
330
1F
100
AcDbEntity
  8
AM_VIS
100
AcDbLine
 10
2175.867343324644
 20
1684.587483690915
 30
0.0
 11
2174.617343324644
 21
1684.587483690915
 31
0.0
  0
LINE
  5
22D3
330
1F
100
AcDbEntity
  8
AM_VIS
100
AcDbLine
 10
2173.717343324644
 20
1684.587483690915
 30
0.0
 11
2172.467343324644
 21
1684.587483690915
 31
0.0
  0
LINE
  5
22D4
330
1F
100
AcDbEntity
  8
AM_VIS
100
AcDbLine
 10
2167.867343324644
 20
1684.587483690915
 30
0.0
 11
2166.617343324643
 21
1684.587483690915
 31
0.0
  0
LINE
  5
22D5
330
1F
100
AcDbEntity
  8
AM_VIS
100
AcDbLine
 10
2165.717343324644
 20
1684.587483690915
 30
0.0
 11
2164.467343324644
 21
1684.587483690915
 31
0.0
  0
LINE
  5
22D6
330
1F
100
AcDbEntity
  8
AM_VIS
100
AcDbLine
 10
2127.667343324644
 20
1684.587483690915
 30
0.0
 11
2128.667343324644
 21
1684.587483690915
 31
0.0
  0
CIRCLE
  5
22D7
330
1F
100
AcDbEntity
  8
AM_VIS
100
AcDbCircle
 10
2156.167343324644
 20
1645.587483690915
 30
0.0
 40
2.6
  0
ARC
  5
22D8
330
1F
100
AcDbEntity
  8
AM_VIS
100
AcDbCircle
 10
2156.167343324644
 20
1645.587483690915
 30
0.0
 40
4.75
100
AcDbArc
 50
325.1903054471692
 51
34.80969455283082
  0
ARC
  5
22D9
330
1F
100
AcDbEntity
  8
AM_VIS
100
AcDbCircle
 10
2184.167343324644
 20
1645.587483690915
 30
0.0
 40
4.75
100
AcDbArc
 50
245.0989376296186
 51
114.9010623703814
  0
ARC
  5
22DA
330
1F
100
AcDbEntity
  8
AM_VIS
100
AcDbCircle
 10
2184.167343324644
 20
1645.587483690915
 30
0.0
 40
4.75
100
AcDbArc
 50
145.1903054471691
 51
214.8096945528308
  0
CIRCLE
  5
22DB
330
1F
100
AcDbEntity
  8
AM_VIS
100
AcDbCircle
 10
2184.167343324644
 20
1645.587483690915
 30
0.0
 40
2.6
  0
CIRCLE
  5
22DC
330
1F
100
AcDbEntity
  8
AM_VIS
100
AcDbCircle
 10
2156.167343324644
 20
1665.587483690915
 30
0.0
 40
2.6
  0
ARC
  5
22DD
330
1F
100
AcDbEntity
  8
AM_VIS
100
AcDbCircle
 10
2156.167343324644
 20
1665.587483690915
 30
0.0
 40
4.75
100
AcDbArc
 50
325.1903054471692
 51
34.80969455283082
  0
ARC
  5
22DE
330
1F
100
AcDbEntity
  8
AM_VIS
100
AcDbCircle
 10
2184.167343324644
 20
1665.587483690915
 30
0.0
 40
4.75
100
AcDbArc
 50
245.0989376296186
 51
114.9010623703814
  0
ARC
  5
22DF
330
1F
100
AcDbEntity
  8
AM_VIS
100
AcDbCircle
 10
2184.167343324644
 20
1665.587483690915
 30
0.0
 40
4.75
100
AcDbArc
 50
145.1903054471691
 51
214.8096945528308
  0
CIRCLE
  5
22E0
330
1F
100
AcDbEntity
  8
AM_VIS
100
AcDbCircle
 10
2184.167343324644
 20
1665.587483690915
 30
0.0
 40
2.6
  0
ARC
  5
22E1
330
1F
100
AcDbEntity
  8
AM_VIS
100
AcDbCircle
 10
2156.167343324644
 20
1645.587483690915
 30
0.0
 40
4.75
100
AcDbArc
 50
65.09893762961865
 51
294.9010623703813
  0
ARC
  5
22E2
330
1F
100
AcDbEntity
  8
AM_VIS
100
AcDbCircle
 10
2156.167343324644
 20
1665.587483690915
 30
0.0
 40
4.75
100
AcDbArc
 50
65.09893762964226
 51
294.9010623703578
  0
LINE
  5
22E3
330
1F
100
AcDbEntity
  8
AM_VIS
100
AcDbLine
 10
2128.667343324644
 20
1629.587483690915
 30
0.0
 11
2127.667343324644
 21
1629.587483690915
 31
0.0
  0
LINE
  5
22E4
330
1F
100
AcDbEntity
  8
AM_VIS
100
AcDbLine
 10
2164.467343324644
 20
1629.587483690915
 30
0.0
 11
2165.717343324644
 21
1629.587483690915
 31
0.0
  0
LINE
  5
22E5
330
1F
100
AcDbEntity
  8
AM_VIS
100
AcDbLine
 10
2166.617343324643
 20
1629.587483690915
 30
0.0
 11
2167.867343324644
 21
1629.587483690915
 31
0.0
  0
LINE
  5
22E6
330
1F
100
AcDbEntity
  8
AM_VIS
100
AcDbLine
 10
2172.467343324644
 20
1629.587483690915
 30
0.0
 11
2173.717343324644
 21
1629.587483690915
 31
0.0
  0
LINE
  5
22E7
330
1F
100
AcDbEntity
  8
AM_VIS
100
AcDbLine
 10
2174.617343324644
 20
1629.587483690915
 30
0.0
 11
2175.867343324644
 21
1629.587483690915
 31
0.0
  0
LINE
  5
22E8
330
1F
100
AcDbEntity
  8
AM_VIS
100
AcDbLine
 10
2212.667343324644
 20
1629.587483690915
 30
0.0
 11
2211.667343324644
 21
1629.587483690915
 31
0.0
  0
LINE
  5
22E9
330
1F
100
AcDbEntity
  8
AM_VIS
100
AcDbLine
 10
2196.167343324644
 20
1749.267523841673
 30
0.0
 11
2197.667343324644
 21
1750.145858825173
 31
0.0
  0
LINE
  5
22EA
330
1F
100
AcDbEntity
  8
AM_VIS
100
AcDbLine
 10
2199.167343324644
 20
1749.267523841673
 30
0.0
 11
2199.167343324644
 21
1747.584193808673
 31
0.0
  0
LINE
  5
22EB
330
1F
100
AcDbEntity
  8
AM_VIS
100
AcDbLine
 10
2197.667343324644
 20
1750.145858825173
 30
0.0
 11
2199.167343324644
 21
1749.267523841673
 31
0.0
  0
LINE
  5
22EC
330
1F
100
AcDbEntity
  8
AM_VIS
100
AcDbLine
 10
2196.167343324644
 20
1747.584193808673
 30
0.0
 11
2196.167343324644
 21
1749.267523841673
 31
0.0
  0
LINE
  5
22ED
330
1F
100
AcDbEntity
  8
AM_VIS
100
AcDbLine
 10
2197.667343324644
 20
1746.705858825173
 30
0.0
 11
2196.167343324644
 21
1747.584193808673
 31
0.0
  0
LINE
  5
22EE
330
1F
100
AcDbEntity
  8
AM_VIS
100
AcDbLine
 10
2199.167343324644
 20
1747.584193808673
 30
0.0
 11
2197.667343324644
 21
1746.705858825173
 31
0.0
  0
CIRCLE
  5
22EF
330
1F
100
AcDbEntity
  8
AM_VIS
100
AcDbCircle
 10
2197.667343324644
 20
1748.425858825173
 30
0.0
 40
4.75
  0
LINE
  5
22F0
330
1F
100
AcDbEntity
  8
AM_VIS
100
AcDbLine
 10
2168.667343324644
 20
1749.267523841673
 30
0.0
 11
2170.167343324644
 21
1750.145858825173
 31
0.0
  0
LINE
  5
22F1
330
1F
100
AcDbEntity
  8
AM_VIS
100
AcDbLine
 10
2171.667343324644
 20
1749.267523841673
 30
0.0
 11
2171.667343324644
 21
1747.584193808673
 31
0.0
  0
LINE
  5
22F2
330
1F
100
AcDbEntity
  8
AM_VIS
100
AcDbLine
 10
2170.167343324644
 20
1750.145858825173
 30
0.0
 11
2171.667343324644
 21
1749.267523841673
 31
0.0
  0
LINE
  5
22F3
330
1F
100
AcDbEntity
  8
AM_VIS
100
AcDbLine
 10
2168.667343324644
 20
1747.584193808673
 30
0.0
 11
2168.667343324644
 21
1749.267523841673
 31
0.0
  0
LINE
  5
22F4
330
1F
100
AcDbEntity
  8
AM_VIS
100
AcDbLine
 10
2170.167343324644
 20
1746.705858825173
 30
0.0
 11
2168.667343324644
 21
1747.584193808673
 31
0.0
  0
LINE
  5
22F5
330
1F
100
AcDbEntity
  8
AM_VIS
100
AcDbLine
 10
2171.667343324644
 20
1747.584193808673
 30
0.0
 11
2170.167343324644
 21
1746.705858825173
 31
0.0
  0
CIRCLE
  5
22F6
330
1F
100
AcDbEntity
  8
AM_VIS
100
AcDbCircle
 10
2170.167343324644
 20
1748.425858825173
 30
0.0
 40
4.75
  0
LINE
  5
22F7
330
1F
100
AcDbEntity
  8
AM_VIS
100
AcDbLine
 10
2141.167343324644
 20
1749.267523841673
 30
0.0
 11
2142.667343324644
 21
1750.145858825173
 31
0.0
  0
LINE
  5
22F8
330
1F
100
AcDbEntity
  8
AM_VIS
100
AcDbLine
 10
2144.167343324644
 20
1749.267523841673
 30
0.0
 11
2144.167343324644
 21
1747.584193808673
 31
0.0
  0
LINE
  5
22F9
330
1F
100
AcDbEntity
  8
AM_VIS
100
AcDbLine
 10
2142.667343324644
 20
1750.145858825173
 30
0.0
 11
2144.167343324644
 21
1749.267523841673
 31
0.0
  0
LINE
  5
22FA
330
1F
100
AcDbEntity
  8
AM_VIS
100
AcDbLine
 10
2141.167343324644
 20
1747.584193808673
 30
0.0
 11
2141.167343324644
 21
1749.267523841673
 31
0.0
  0
LINE
  5
22FB
330
1F
100
AcDbEntity
  8
AM_VIS
100
AcDbLine
 10
2142.667343324644
 20
1746.705858825174
 30
0.0
 11
2141.167343324644
 21
1747.584193808673
 31
0.0
  0
LINE
  5
22FC
330
1F
100
AcDbEntity
  8
AM_VIS
100
AcDbLine
 10
2144.167343324644
 20
1747.584193808673
 30
0.0
 11
2142.667343324644
 21
1746.705858825174
 31
0.0
  0
CIRCLE
  5
22FD
330
1F
100
AcDbEntity
  8
AM_VIS
100
AcDbCircle
 10
2142.667343324644
 20
1748.425858825173
 30
0.0
 40
4.75
  0
LINE
  5
22FE
330
1F
100
AcDbEntity
  8
AM_VIS
100
AcDbLine
 10
2205.167343324644
 20
1763.425858825173
 30
0.0
 11
2135.167343324644
 21
1763.425858825173
 31
0.0
  0
LINE
  5
22FF
330
1F
100
AcDbEntity
  8
AM_VIS
100
AcDbLine
 10
2134.167343324644
 20
1762.425858825174
 30
0.0
 11
2134.167343324644
 21
1734.425858825173
 31
0.0
  0
LINE
  5
2300
330
1F
100
AcDbEntity
  8
AM_VIS
100
AcDbLine
 10
2135.167343324644
 20
1733.425858825174
 30
0.0
 11
2205.167343324644
 21
1733.425858825174
 31
0.0
  0
LINE
  5
2301
330
1F
100
AcDbEntity
  8
AM_VIS
100
AcDbLine
 10
2205.167343324644
 20
1733.425858825174
 30
0.0
 11
2205.667343324644
 21
1733.925858825173
 31
0.0
  0
LINE
  5
2302
330
1F
100
AcDbEntity
  8
AM_VIS
100
AcDbLine
 10
2205.667343324644
 20
1733.925858825173
 30
0.0
 11
2206.167343324644
 21
1734.425858825173
 31
0.0
  0
LINE
  5
2303
330
1F
100
AcDbEntity
  8
AM_VIS
100
AcDbLine
 10
2206.167343324644
 20
1762.425858825174
 30
0.0
 11
2205.667343324644
 21
1762.925858825173
 31
0.0
  0
LINE
  5
2304
330
1F
100
AcDbEntity
  8
AM_VIS
100
AcDbLine
 10
2205.667343324644
 20
1762.925858825173
 30
0.0
 11
2205.167343324644
 21
1763.425858825173
 31
0.0
  0
LINE
  5
2305
330
1F
100
AcDbEntity
  8
AM_VIS
100
AcDbLine
 10
2206.167343324644
 20
1734.425858825173
 30
0.0
 11
2206.167343324644
 21
1762.425858825174
 31
0.0
  0
LINE
  5
2306
330
1F
100
AcDbEntity
  8
AM_VIS
100
AcDbLine
 10
2134.167343324644
 20
1734.425858825173
 30
0.0
 11
2134.667343324644
 21
1733.925858825173
 31
0.0
  0
LINE
  5
2307
330
1F
100
AcDbEntity
  8
AM_VIS
100
AcDbLine
 10
2134.667343324644
 20
1733.925858825173
 30
0.0
 11
2135.167343324644
 21
1733.425858825174
 31
0.0
  0
LINE
  5
2308
330
1F
100
AcDbEntity
  8
AM_VIS
100
AcDbLine
 10
2135.167343324644
 20
1763.425858825173
 30
0.0
 11
2134.667343324644
 21
1762.925858825173
 31
0.0
  0
LINE
  5
2309
330
1F
100
AcDbEntity
  8
AM_VIS
100
AcDbLine
 10
2134.667343324644
 20
1762.925858825173
 30
0.0
 11
2134.167343324644
 21
1762.425858825174
 31
0.0
  0
LINE
  5
230E
330
1F
100
AcDbEntity
  8
AM_VIS
100
AcDbLine
 10
2150.967343506821
 20
1763.425858825173
 30
0.0
 11
2148.967343348406
 21
1765.425858825173
 31
0.0
  0
LINE
  5
230F
330
1F
100
AcDbEntity
  8
AM_VIS
100
AcDbLine
 10
2164.467343324643
 20
1765.425858825173
 30
0.0
 11
2153.367343348406
 21
1765.425858825173
 31
0.0
  0
LINE
  5
2310
330
1F
100
AcDbEntity
  8
AM_VIS
100
AcDbLine
 10
2164.467343324643
 20
1764.925858825173
 30
0.0
 11
2164.467343324643
 21
1765.425858825173
 31
0.0
  0
LINE
  5
2311
330
1F
100
AcDbEntity
  8
AM_VIS
100
AcDbLine
 10
2164.017343324644
 20
1764.425858825173
 30
0.0
 11
2164.467343324643
 21
1764.925858825173
 31
0.0
  0
LINE
  5
2312
330
1F
100
AcDbEntity
  8
AM_VIS
100
AcDbLine
 10
2164.017343324644
 20
1763.425858825173
 30
0.0
 11
2164.017343324644
 21
1764.425858825173
 31
0.0
  0
LINE
  5
2313
330
1F
100
AcDbEntity
  8
AM_VIS
100
AcDbLine
 10
2168.317343324643
 20
1764.425858825173
 30
0.0
 11
2168.317343324643
 21
1763.425858825173
 31
0.0
  0
LINE
  5
2314
330
1F
100
AcDbEntity
  8
AM_VIS
100
AcDbLine
 10
2167.867343324644
 20
1764.925858825173
 30
0.0
 11
2168.317343324643
 21
1764.425858825173
 31
0.0
  0
LINE
  5
2315
330
1F
100
AcDbEntity
  8
AM_VIS
100
AcDbLine
 10
2167.867343324644
 20
1765.425858825173
 30
0.0
 11
2167.867343324644
 21
1764.925858825173
 31
0.0
  0
LINE
  5
2316
330
1F
100
AcDbEntity
  8
AM_VIS
100
AcDbLine
 10
2172.467343324644
 20
1765.425858825173
 30
0.0
 11
2167.867343324644
 21
1765.425858825173
 31
0.0
  0
LINE
  5
2317
330
1F
100
AcDbEntity
  8
AM_VIS
100
AcDbLine
 10
2172.467343324643
 20
1764.925858825173
 30
0.0
 11
2172.467343324643
 21
1765.425858825173
 31
0.0
  0
LINE
  5
2318
330
1F
100
AcDbEntity
  8
AM_VIS
100
AcDbLine
 10
2172.017343324644
 20
1764.425858825173
 30
0.0
 11
2172.467343324643
 21
1764.925858825173
 31
0.0
  0
LINE
  5
2319
330
1F
100
AcDbEntity
  8
AM_VIS
100
AcDbLine
 10
2172.017343324644
 20
1763.425858825173
 30
0.0
 11
2172.017343324644
 21
1764.425858825173
 31
0.0
  0
LINE
  5
231A
330
1F
100
AcDbEntity
  8
AM_VIS
100
AcDbLine
 10
2176.317343324643
 20
1764.425858825173
 30
0.0
 11
2176.317343324643
 21
1763.425858825173
 31
0.0
  0
LINE
  5
231B
330
1F
100
AcDbEntity
  8
AM_VIS
100
AcDbLine
 10
2175.867343324644
 20
1764.925858825173
 30
0.0
 11
2176.317343324643
 21
1764.425858825173
 31
0.0
  0
LINE
  5
231C
330
1F
100
AcDbEntity
  8
AM_VIS
100
AcDbLine
 10
2175.867343324644
 20
1765.425858825173
 30
0.0
 11
2175.867343324644
 21
1764.925858825173
 31
0.0
  0
LINE
  5
231D
330
1F
100
AcDbEntity
  8
AM_VIS
100
AcDbLine
 10
2191.467343506821
 20
1763.425858825173
 30
0.0
 11
2189.467343348406
 21
1765.425858825173
 31
0.0
  0
LINE
  5
231E
330
1F
100
AcDbEntity
  8
AM_VIS
100
AcDbLine
 10
2193.867343348406
 20
1765.425858825173
 30
0.0
 11
2191.867343506821
 21
1763.425858825173
 31
0.0
  0
LINE
  5
231F
330
1F
100
AcDbEntity
  8
AM_VIS
100
AcDbLine
 10
2206.667343324644
 20
1765.125858825173
 30
0.0
 11
2206.367343324644
 21
1765.425858825173
 31
0.0
  0
LINE
  5
2320
330
1F
100
AcDbEntity
  8
AM_VIS
100
AcDbLine
 10
2211.667343324644
 20
1765.125858825173
 30
0.0
 11
2206.667343324644
 21
1765.125858825173
 31
0.0
  0
LINE
  5
2321
330
1F
100
AcDbEntity
  8
AM_VIS
100
AcDbLine
 10
2212.667343324644
 20
1764.125858825173
 30
0.0
 11
2212.667343324644
 21
1757.825858825173
 31
0.0
  0
LINE
  5
2322
330
1F
100
AcDbEntity
  8
AM_VIS
100
AcDbLine
 10
2209.667343324644
 20
1754.825858825174
 30
0.0
 11
2212.667343324644
 21
1757.825858825173
 31
0.0
  0
LINE
  5
2323
330
1F
100
AcDbEntity
  8
AM_VIS
100
AcDbLine
 10
2209.667343324644
 20
1747.825858825174
 30
0.0
 11
2209.667343324644
 21
1754.825858825174
 31
0.0
  0
LINE
  5
2324
330
1F
100
AcDbEntity
  8
AM_VIS
100
AcDbLine
 10
2212.667343324644
 20
1744.825858825173
 30
0.0
 11
2209.667343324644
 21
1747.825858825174
 31
0.0
  0
LINE
  5
2325
330
1F
100
AcDbEntity
  8
AM_VIS
100
AcDbLine
 10
2212.667343324644
 20
1744.825858825173
 30
0.0
 11
2212.667343324644
 21
1730.425858825174
 31
0.0
  0
LINE
  5
2326
330
1F
100
AcDbEntity
  8
AM_VIS
100
AcDbLine
 10
2180.267343324644
 20
1731.325858825173
 30
0.0
 11
2182.167343324644
 21
1729.425858825173
 31
0.0
  0
LINE
  5
2327
330
1F
100
AcDbEntity
  8
AM_VIS
100
AcDbLine
 10
2175.867343324644
 20
1731.325858825173
 30
0.0
 11
2180.267343324644
 21
1731.325858825173
 31
0.0
  0
LINE
  5
2328
330
1F
100
AcDbEntity
  8
AM_VIS
100
AcDbLine
 10
2175.867343324644
 20
1731.825858825174
 30
0.0
 11
2175.867343324644
 21
1731.325858825173
 31
0.0
  0
LINE
  5
2329
330
1F
100
AcDbEntity
  8
AM_VIS
100
AcDbLine
 10
2176.317343324643
 20
1732.325858825173
 30
0.0
 11
2175.867343324644
 21
1731.825858825174
 31
0.0
  0
LINE
  5
232A
330
1F
100
AcDbEntity
  8
AM_VIS
100
AcDbLine
 10
2176.317343324643
 20
1733.425858825174
 30
0.0
 11
2176.317343324643
 21
1732.325858825173
 31
0.0
  0
LINE
  5
232B
330
1F
100
AcDbEntity
  8
AM_VIS
100
AcDbLine
 10
2172.017343324644
 20
1732.325858825173
 30
0.0
 11
2172.017343324644
 21
1733.425858825174
 31
0.0
  0
LINE
  5
232C
330
1F
100
AcDbEntity
  8
AM_VIS
100
AcDbLine
 10
2172.467343324643
 20
1731.825858825174
 30
0.0
 11
2172.017343324644
 21
1732.325858825173
 31
0.0
  0
LINE
  5
232D
330
1F
100
AcDbEntity
  8
AM_VIS
100
AcDbLine
 10
2172.467343324644
 20
1731.325858825173
 30
0.0
 11
2172.467343324644
 21
1731.825858825174
 31
0.0
  0
LINE
  5
232E
330
1F
100
AcDbEntity
  8
AM_VIS
100
AcDbLine
 10
2167.867343324644
 20
1731.325858825173
 30
0.0
 11
2172.467343324644
 21
1731.325858825173
 31
0.0
  0
LINE
  5
232F
330
1F
100
AcDbEntity
  8
AM_VIS
100
AcDbLine
 10
2167.867343324644
 20
1731.825858825174
 30
0.0
 11
2167.867343324644
 21
1731.325858825173
 31
0.0
  0
LINE
  5
2330
330
1F
100
AcDbEntity
  8
AM_VIS
100
AcDbLine
 10
2168.317343324643
 20
1732.325858825173
 30
0.0
 11
2167.867343324644
 21
1731.825858825174
 31
0.0
  0
LINE
  5
2331
330
1F
100
AcDbEntity
  8
AM_VIS
100
AcDbLine
 10
2168.317343324643
 20
1733.425858825174
 30
0.0
 11
2168.317343324643
 21
1732.325858825173
 31
0.0
  0
LINE
  5
2332
330
1F
100
AcDbEntity
  8
AM_VIS
100
AcDbLine
 10
2164.017343324644
 20
1732.325858825173
 30
0.0
 11
2164.017343324644
 21
1733.425858825174
 31
0.0
  0
LINE
  5
2333
330
1F
100
AcDbEntity
  8
AM_VIS
100
AcDbLine
 10
2164.467343324644
 20
1731.825858825174
 30
0.0
 11
2164.017343324644
 21
1732.325858825173
 31
0.0
  0
LINE
  5
2334
330
1F
100
AcDbEntity
  8
AM_VIS
100
AcDbLine
 10
2164.467343324644
 20
1731.325858825173
 30
0.0
 11
2164.467343324644
 21
1731.825858825174
 31
0.0
  0
LINE
  5
2335
330
1F
100
AcDbEntity
  8
AM_VIS
100
AcDbLine
 10
2130.667343324644
 20
1747.825858825174
 30
0.0
 11
2127.667343324644
 21
1744.825858825173
 31
0.0
  0
LINE
  5
2336
330
1F
100
AcDbEntity
  8
AM_VIS
100
AcDbLine
 10
2130.667343324644
 20
1754.825858825174
 30
0.0
 11
2130.667343324644
 21
1747.825858825174
 31
0.0
  0
LINE
  5
2337
330
1F
100
AcDbEntity
  8
AM_VIS
100
AcDbLine
 10
2127.667343324644
 20
1757.825858825173
 30
0.0
 11
2130.667343324644
 21
1754.825858825174
 31
0.0
  0
LINE
  5
2338
330
1F
100
AcDbEntity
  8
AM_VIS
100
AcDbLine
 10
2127.667343324644
 20
1757.825858825173
 30
0.0
 11
2127.667343324644
 21
1764.125858825173
 31
0.0
  0
LINE
  5
2339
330
1F
100
AcDbEntity
  8
AM_VIS
100
AcDbLine
 10
2133.667343324644
 20
1765.125858825173
 30
0.0
 11
2128.667343324644
 21
1765.125858825173
 31
0.0
  0
LINE
  5
233A
330
1F
100
AcDbEntity
  8
AM_VIS
100
AcDbLine
 10
2133.967343324643
 20
1765.425858825173
 30
0.0
 11
2133.667343324644
 21
1765.125858825173
 31
0.0
  0
LINE
  5
233B
330
1F
100
AcDbEntity
  8
AM_VIS
100
AcDbLine
 10
2158.167343324643
 20
1729.425858825173
 30
0.0
 11
2160.067343324644
 21
1731.325858825173
 31
0.0
  0
LINE
  5
233C
330
1F
100
AcDbEntity
  8
AM_VIS
100
AcDbLine
 10
2211.667343324644
 20
1729.425858825173
 30
0.0
 11
2182.167343324644
 21
1729.425858825173
 31
0.0
  0
LINE
  5
233D
330
1F
100
AcDbEntity
  8
AM_VIS
100
AcDbLine
 10
2160.067343324644
 20
1731.325858825173
 30
0.0
 11
2164.467343324644
 21
1731.325858825173
 31
0.0
  0
LINE
  5
233E
330
1F
100
AcDbEntity
  8
AM_VIS
100
AcDbLine
 10
2153.367343348406
 20
1765.425858825173
 30
0.0
 11
2151.367343506821
 21
1763.425858825173
 31
0.0
  0
LINE
  5
233F
330
1F
100
AcDbEntity
  8
AM_VIS
100
AcDbLine
 10
2189.467343348406
 20
1765.425858825173
 30
0.0
 11
2175.867343324644
 21
1765.425858825173
 31
0.0
  0
LINE
  5
2340
330
1F
100
AcDbEntity
  8
AM_VIS
100
AcDbLine
 10
2158.167343324643
 20
1729.425858825173
 30
0.0
 11
2128.667343324644
 21
1729.425858825173
 31
0.0
  0
LINE
  5
2341
330
1F
100
AcDbEntity
  8
AM_VIS
100
AcDbLine
 10
2127.667343324644
 20
1730.425858825174
 30
0.0
 11
2127.667343324644
 21
1744.825858825173
 31
0.0
  0
LINE
  5
2342
330
1F
100
AcDbEntity
  8
AM_VIS
100
AcDbLine
 10
2206.367343324644
 20
1765.425858825173
 30
0.0
 11
2193.867343348406
 21
1765.425858825173
 31
0.0
  0
LINE
  5
2343
330
1F
100
AcDbEntity
  8
AM_VIS
100
AcDbLine
 10
2148.967343348406
 20
1765.425858825173
 30
0.0
 11
2133.967343324643
 21
1765.425858825173
 31
0.0
  0
ARC
  5
2344
330
1F
100
AcDbEntity
  8
AM_VIS
100
AcDbCircle
 10
2211.667343324644
 20
1764.125858825173
 30
0.0
 40
0.9999999999999998
100
AcDbArc
 50
0.0
 51
90.0
  0
ARC
  5
2345
330
1F
100
AcDbEntity
  8
AM_VIS
100
AcDbCircle
 10
2211.667343324644
 20
1730.425858825174
 30
0.0
 40
0.9999999999999998
100
AcDbArc
 50
270.0
 51
0.0
  0
ARC
  5
2346
330
1F
100
AcDbEntity
  8
AM_VIS
100
AcDbCircle
 10
2128.667343324644
 20
1730.425858825174
 30
0.0
 40
0.9999999999999998
100
AcDbArc
 50
180.0
 51
270.0
  0
ARC
  5
2347
330
1F
100
AcDbEntity
  8
AM_VIS
100
AcDbCircle
 10
2128.667343324644
 20
1764.125858825173
 30
0.0
 40
0.9999999999999998
100
AcDbArc
 50
90.0
 51
180.0
  0
LINE
  5
234F
330
1F
100
AcDbEntity
  8
AM_VIS
100
AcDbLine
 10
2176.317343324643
 20
1588.18322293569
 30
0.0
 11
2172.017343324644
 21
1588.18322293569
 31
0.0
  0
LINE
  5
2350
330
1F
100
AcDbEntity
  8
AM_VIS
100
AcDbLine
 10
2168.317343324643
 20
1588.18322293569
 30
0.0
 11
2164.017343324644
 21
1588.18322293569
 31
0.0
  0
LINE
  5
2351
330
1F
100
AcDbEntity
  8
AM_VIS
100
AcDbLine
 10
2150.967343506821
 20
1558.18322293569
 30
0.0
 11
2151.367343506821
 21
1558.18322293569
 31
0.0
  0
LINE
  5
2352
330
1F
100
AcDbEntity
  8
AM_VIS
100
AcDbLine
 10
2164.017343324644
 20
1558.18322293569
 30
0.0
 11
2168.317343324643
 21
1558.18322293569
 31
0.0
  0
LINE
  5
2353
330
1F
100
AcDbEntity
  8
AM_VIS
100
AcDbLine
 10
2172.017343324644
 20
1558.18322293569
 30
0.0
 11
2176.317343324643
 21
1558.18322293569
 31
0.0
  0
LINE
  5
2354
330
1F
100
AcDbEntity
  8
AM_VIS
100
AcDbLine
 10
2191.467343506821
 20
1558.18322293569
 30
0.0
 11
2191.867343506821
 21
1558.18322293569
 31
0.0
  0
LINE
  5
2359
330
1F
100
AcDbEntity
  8
AM_VIS
100
AcDbLine
 10
2133.667343324644
 20
1556.48322293569
 30
0.0
 11
2133.967343324643
 21
1556.18322293569
 31
0.0
  0
LINE
  5
235A
330
1F
100
AcDbEntity
  8
AM_VIS
100
AcDbLine
 10
2128.667343324644
 20
1556.48322293569
 30
0.0
 11
2133.667343324644
 21
1556.48322293569
 31
0.0
  0
LINE
  5
235B
330
1F
100
AcDbEntity
  8
AM_VIS
100
AcDbLine
 10
2127.667343324644
 20
1557.48322293569
 30
0.0
 11
2127.667343324644
 21
1563.78322293569
 31
0.0
  0
LINE
  5
235C
330
1F
100
AcDbEntity
  8
AM_VIS
100
AcDbLine
 10
2130.667343324644
 20
1566.78322293569
 30
0.0
 11
2127.667343324644
 21
1563.78322293569
 31
0.0
  0
LINE
  5
235D
330
1F
100
AcDbEntity
  8
AM_VIS
100
AcDbLine
 10
2130.667343324644
 20
1573.78322293569
 30
0.0
 11
2130.667343324644
 21
1566.78322293569
 31
0.0
  0
LINE
  5
235E
330
1F
100
AcDbEntity
  8
AM_VIS
100
AcDbLine
 10
2127.667343324644
 20
1576.78322293569
 30
0.0
 11
2130.667343324644
 21
1573.78322293569
 31
0.0
  0
LINE
  5
235F
330
1F
100
AcDbEntity
  8
AM_VIS
100
AcDbLine
 10
2127.667343324644
 20
1576.78322293569
 30
0.0
 11
2127.667343324644
 21
1591.18322293569
 31
0.0
  0
LINE
  5
2360
330
1F
100
AcDbEntity
  8
AM_VIS
100
AcDbLine
 10
2128.667343324644
 20
1592.18322293569
 30
0.0
 11
2158.167343324643
 21
1592.18322293569
 31
0.0
  0
LINE
  5
2361
330
1F
100
AcDbEntity
  8
AM_VIS
100
AcDbLine
 10
2160.067343324644
 20
1590.28322293569
 30
0.0
 11
2158.167343324643
 21
1592.18322293569
 31
0.0
  0
LINE
  5
2362
330
1F
100
AcDbEntity
  8
AM_VIS
100
AcDbLine
 10
2164.467343324644
 20
1590.28322293569
 30
0.0
 11
2160.067343324644
 21
1590.28322293569
 31
0.0
  0
LINE
  5
2363
330
1F
100
AcDbEntity
  8
AM_VIS
100
AcDbLine
 10
2164.467343324644
 20
1589.78322293569
 30
0.0
 11
2164.467343324644
 21
1590.28322293569
 31
0.0
  0
LINE
  5
2364
330
1F
100
AcDbEntity
  8
AM_VIS
100
AcDbLine
 10
2164.017343324644
 20
1589.28322293569
 30
0.0
 11
2164.467343324644
 21
1589.78322293569
 31
0.0
  0
LINE
  5
2365
330
1F
100
AcDbEntity
  8
AM_VIS
100
AcDbLine
 10
2164.017343324644
 20
1587.18322293569
 30
0.0
 11
2164.017343324644
 21
1589.28322293569
 31
0.0
  0
LINE
  5
2366
330
1F
100
AcDbEntity
  8
AM_VIS
100
AcDbLine
 10
2166.617343324643
 20
1585.48322293569
 30
0.0
 11
2165.717343324644
 21
1585.48322293569
 31
0.0
  0
LINE
  5
2367
330
1F
100
AcDbEntity
  8
AM_VIS
100
AcDbLine
 10
2168.317343324643
 20
1589.28322293569
 30
0.0
 11
2168.317343324643
 21
1587.18322293569
 31
0.0
  0
LINE
  5
2368
330
1F
100
AcDbEntity
  8
AM_VIS
100
AcDbLine
 10
2167.867343324644
 20
1589.78322293569
 30
0.0
 11
2168.317343324643
 21
1589.28322293569
 31
0.0
  0
LINE
  5
2369
330
1F
100
AcDbEntity
  8
AM_VIS
100
AcDbLine
 10
2167.867343324644
 20
1590.28322293569
 30
0.0
 11
2167.867343324644
 21
1589.78322293569
 31
0.0
  0
LINE
  5
236A
330
1F
100
AcDbEntity
  8
AM_VIS
100
AcDbLine
 10
2172.467343324644
 20
1590.28322293569
 30
0.0
 11
2167.867343324644
 21
1590.28322293569
 31
0.0
  0
LINE
  5
236B
330
1F
100
AcDbEntity
  8
AM_VIS
100
AcDbLine
 10
2172.467343324644
 20
1589.78322293569
 30
0.0
 11
2172.467343324644
 21
1590.28322293569
 31
0.0
  0
LINE
  5
236C
330
1F
100
AcDbEntity
  8
AM_VIS
100
AcDbLine
 10
2172.017343324644
 20
1589.28322293569
 30
0.0
 11
2172.467343324643
 21
1589.78322293569
 31
0.0
  0
LINE
  5
236D
330
1F
100
AcDbEntity
  8
AM_VIS
100
AcDbLine
 10
2172.017343324644
 20
1587.18322293569
 30
0.0
 11
2172.017343324644
 21
1589.28322293569
 31
0.0
  0
LINE
  5
236E
330
1F
100
AcDbEntity
  8
AM_VIS
100
AcDbLine
 10
2174.617343324644
 20
1585.48322293569
 30
0.0
 11
2173.717343324644
 21
1585.48322293569
 31
0.0
  0
LINE
  5
236F
330
1F
100
AcDbEntity
  8
AM_VIS
100
AcDbLine
 10
2176.317343324643
 20
1589.28322293569
 30
0.0
 11
2176.317343324643
 21
1587.18322293569
 31
0.0
  0
LINE
  5
2370
330
1F
100
AcDbEntity
  8
AM_VIS
100
AcDbLine
 10
2175.867343324644
 20
1589.78322293569
 30
0.0
 11
2176.317343324643
 21
1589.28322293569
 31
0.0
  0
LINE
  5
2371
330
1F
100
AcDbEntity
  8
AM_VIS
100
AcDbLine
 10
2175.867343324644
 20
1590.28322293569
 30
0.0
 11
2175.867343324644
 21
1589.78322293569
 31
0.0
  0
LINE
  5
2372
330
1F
100
AcDbEntity
  8
AM_VIS
100
AcDbLine
 10
2180.267343324644
 20
1590.28322293569
 30
0.0
 11
2175.867343324644
 21
1590.28322293569
 31
0.0
  0
LINE
  5
2373
330
1F
100
AcDbEntity
  8
AM_VIS
100
AcDbLine
 10
2182.167343324644
 20
1592.18322293569
 30
0.0
 11
2180.267343324644
 21
1590.28322293569
 31
0.0
  0
LINE
  5
2374
330
1F
100
AcDbEntity
  8
AM_VIS
100
AcDbLine
 10
2182.167343324644
 20
1592.18322293569
 30
0.0
 11
2211.667343324644
 21
1592.18322293569
 31
0.0
  0
LINE
  5
2375
330
1F
100
AcDbEntity
  8
AM_VIS
100
AcDbLine
 10
2212.667343324644
 20
1591.18322293569
 30
0.0
 11
2212.667343324644
 21
1576.78322293569
 31
0.0
  0
LINE
  5
2376
330
1F
100
AcDbEntity
  8
AM_VIS
100
AcDbLine
 10
2209.667343324644
 20
1573.78322293569
 30
0.0
 11
2212.667343324644
 21
1576.78322293569
 31
0.0
  0
LINE
  5
2377
330
1F
100
AcDbEntity
  8
AM_VIS
100
AcDbLine
 10
2209.667343324644
 20
1566.78322293569
 30
0.0
 11
2209.667343324644
 21
1573.78322293569
 31
0.0
  0
LINE
  5
2378
330
1F
100
AcDbEntity
  8
AM_VIS
100
AcDbLine
 10
2212.667343324644
 20
1563.78322293569
 30
0.0
 11
2209.667343324644
 21
1566.78322293569
 31
0.0
  0
LINE
  5
2379
330
1F
100
AcDbEntity
  8
AM_VIS
100
AcDbLine
 10
2212.667343324644
 20
1563.78322293569
 30
0.0
 11
2212.667343324644
 21
1557.48322293569
 31
0.0
  0
LINE
  5
237A
330
1F
100
AcDbEntity
  8
AM_VIS
100
AcDbLine
 10
2206.667343324644
 20
1556.48322293569
 30
0.0
 11
2211.667343324644
 21
1556.48322293569
 31
0.0
  0
LINE
  5
237B
330
1F
100
AcDbEntity
  8
AM_VIS
100
AcDbLine
 10
2206.367343324644
 20
1556.18322293569
 30
0.0
 11
2206.667343324644
 21
1556.48322293569
 31
0.0
  0
LINE
  5
237C
330
1F
100
AcDbEntity
  8
AM_VIS
100
AcDbLine
 10
2191.667343522663
 20
1558.38322293569
 30
0.0
 11
2193.867343348406
 21
1556.18322293569
 31
0.0
  0
LINE
  5
237D
330
1F
100
AcDbEntity
  8
AM_VIS
100
AcDbLine
 10
2189.467343348406
 20
1556.18322293569
 30
0.0
 11
2191.667343522663
 21
1558.38322293569
 31
0.0
  0
LINE
  5
237E
330
1F
100
AcDbEntity
  8
AM_VIS
100
AcDbLine
 10
2175.867343324644
 20
1556.18322293569
 30
0.0
 11
2189.467343348406
 21
1556.18322293569
 31
0.0
  0
LINE
  5
237F
330
1F
100
AcDbEntity
  8
AM_VIS
100
AcDbLine
 10
2175.867343324644
 20
1556.68322293569
 30
0.0
 11
2175.867343324644
 21
1556.18322293569
 31
0.0
  0
LINE
  5
2380
330
1F
100
AcDbEntity
  8
AM_VIS
100
AcDbLine
 10
2176.317343324643
 20
1557.18322293569
 30
0.0
 11
2175.867343324644
 21
1556.68322293569
 31
0.0
  0
LINE
  5
2381
330
1F
100
AcDbEntity
  8
AM_VIS
100
AcDbLine
 10
2176.317343324643
 20
1559.28322293569
 30
0.0
 11
2176.317343324643
 21
1557.18322293569
 31
0.0
  0
LINE
  5
2382
330
1F
100
AcDbEntity
  8
AM_VIS
100
AcDbLine
 10
2173.717343324644
 20
1560.98322293569
 30
0.0
 11
2174.617343324644
 21
1560.98322293569
 31
0.0
  0
LINE
  5
2383
330
1F
100
AcDbEntity
  8
AM_VIS
100
AcDbLine
 10
2172.017343324644
 20
1557.18322293569
 30
0.0
 11
2172.017343324644
 21
1559.28322293569
 31
0.0
  0
LINE
  5
2384
330
1F
100
AcDbEntity
  8
AM_VIS
100
AcDbLine
 10
2172.467343324643
 20
1556.68322293569
 30
0.0
 11
2172.017343324644
 21
1557.18322293569
 31
0.0
  0
LINE
  5
2385
330
1F
100
AcDbEntity
  8
AM_VIS
100
AcDbLine
 10
2172.467343324643
 20
1556.18322293569
 30
0.0
 11
2172.467343324643
 21
1556.68322293569
 31
0.0
  0
LINE
  5
2386
330
1F
100
AcDbEntity
  8
AM_VIS
100
AcDbLine
 10
2167.867343324644
 20
1556.18322293569
 30
0.0
 11
2172.467343324644
 21
1556.18322293569
 31
0.0
  0
LINE
  5
2387
330
1F
100
AcDbEntity
  8
AM_VIS
100
AcDbLine
 10
2167.867343324644
 20
1556.68322293569
 30
0.0
 11
2167.867343324644
 21
1556.18322293569
 31
0.0
  0
LINE
  5
2388
330
1F
100
AcDbEntity
  8
AM_VIS
100
AcDbLine
 10
2168.317343324643
 20
1557.18322293569
 30
0.0
 11
2167.867343324644
 21
1556.68322293569
 31
0.0
  0
LINE
  5
2389
330
1F
100
AcDbEntity
  8
AM_VIS
100
AcDbLine
 10
2168.317343324643
 20
1559.28322293569
 30
0.0
 11
2168.317343324643
 21
1557.18322293569
 31
0.0
  0
LINE
  5
238A
330
1F
100
AcDbEntity
  8
AM_VIS
100
AcDbLine
 10
2165.717343324644
 20
1560.98322293569
 30
0.0
 11
2166.617343324643
 21
1560.98322293569
 31
0.0
  0
LINE
  5
238B
330
1F
100
AcDbEntity
  8
AM_VIS
100
AcDbLine
 10
2164.017343324644
 20
1557.18322293569
 30
0.0
 11
2164.017343324644
 21
1559.28322293569
 31
0.0
  0
LINE
  5
238C
330
1F
100
AcDbEntity
  8
AM_VIS
100
AcDbLine
 10
2164.467343324643
 20
1556.68322293569
 30
0.0
 11
2164.017343324644
 21
1557.18322293569
 31
0.0
  0
LINE
  5
238D
330
1F
100
AcDbEntity
  8
AM_VIS
100
AcDbLine
 10
2164.467343324643
 20
1556.18322293569
 30
0.0
 11
2164.467343324643
 21
1556.68322293569
 31
0.0
  0
LINE
  5
238E
330
1F
100
AcDbEntity
  8
AM_VIS
100
AcDbLine
 10
2153.367343348406
 20
1556.18322293569
 30
0.0
 11
2164.467343324643
 21
1556.18322293569
 31
0.0
  0
LINE
  5
238F
330
1F
100
AcDbEntity
  8
AM_VIS
100
AcDbLine
 10
2151.167343522663
 20
1558.38322293569
 30
0.0
 11
2153.367343348406
 21
1556.18322293569
 31
0.0
  0
LINE
  5
2390
330
1F
100
AcDbEntity
  8
AM_VIS
100
AcDbLine
 10
2148.967343348406
 20
1556.18322293569
 30
0.0
 11
2151.167343522663
 21
1558.38322293569
 31
0.0
  0
LINE
  5
2391
330
1F
100
AcDbEntity
  8
AM_VIS
100
AcDbLine
 10
2193.867343348406
 20
1556.18322293569
 30
0.0
 11
2206.367343324644
 21
1556.18322293569
 31
0.0
  0
LINE
  5
2392
330
1F
100
AcDbEntity
  8
AM_VIS
100
AcDbLine
 10
2133.967343324643
 20
1556.18322293569
 30
0.0
 11
2148.967343348406
 21
1556.18322293569
 31
0.0
  0
CIRCLE
  5
2393
330
1F
100
AcDbEntity
  8
AM_VIS
100
AcDbCircle
 10
2170.167343324644
 20
1573.18322293569
 30
0.0
 40
11.0
  0
ARC
  5
2399
330
1F
100
AcDbEntity
  8
AM_VIS
100
AcDbCircle
 10
2128.667343324644
 20
1557.48322293569
 30
0.0
 40
0.9999999999999998
100
AcDbArc
 50
180.0
 51
270.0
  0
ARC
  5
239A
330
1F
100
AcDbEntity
  8
AM_VIS
100
AcDbCircle
 10
2128.667343324644
 20
1591.18322293569
 30
0.0
 40
0.9999999999999998
100
AcDbArc
 50
90.0
 51
180.0
  0
ARC
  5
239B
330
1F
100
AcDbEntity
  8
AM_VIS
100
AcDbCircle
 10
2165.717343324644
 20
1587.18322293569
 30
0.0
 40
1.7
100
AcDbArc
 50
180.0
 51
270.0
  0
ARC
  5
239C
330
1F
100
AcDbEntity
  8
AM_VIS
100
AcDbCircle
 10
2166.617343324643
 20
1587.18322293569
 30
0.0
 40
1.7
100
AcDbArc
 50
270.0
 51
0.0
  0
ARC
  5
239D
330
1F
100
AcDbEntity
  8
AM_VIS
100
AcDbCircle
 10
2173.717343324644
 20
1587.18322293569
 30
0.0
 40
1.7
100
AcDbArc
 50
180.0
 51
270.0
  0
ARC
  5
239E
330
1F
100
AcDbEntity
  8
AM_VIS
100
AcDbCircle
 10
2174.617343324644
 20
1587.18322293569
 30
0.0
 40
1.7
100
AcDbArc
 50
270.0
 51
0.0
  0
ARC
  5
239F
330
1F
100
AcDbEntity
  8
AM_VIS
100
AcDbCircle
 10
2211.667343324644
 20
1591.18322293569
 30
0.0
 40
0.9999999999999998
100
AcDbArc
 50
0.0
 51
90.0
  0
ARC
  5
23A0
330
1F
100
AcDbEntity
  8
AM_VIS
100
AcDbCircle
 10
2211.667343324644
 20
1557.48322293569
 30
0.0
 40
0.9999999999999998
100
AcDbArc
 50
270.0
 51
0.0
  0
ARC
  5
23A1
330
1F
100
AcDbEntity
  8
AM_VIS
100
AcDbCircle
 10
2174.617343324644
 20
1559.28322293569
 30
0.0
 40
1.7
100
AcDbArc
 50
0.0
 51
90.0
  0
ARC
  5
23A2
330
1F
100
AcDbEntity
  8
AM_VIS
100
AcDbCircle
 10
2173.717343324644
 20
1559.28322293569
 30
0.0
 40
1.7
100
AcDbArc
 50
90.0
 51
180.0
  0
ARC
  5
23A3
330
1F
100
AcDbEntity
  8
AM_VIS
100
AcDbCircle
 10
2166.617343324643
 20
1559.28322293569
 30
0.0
 40
1.7
100
AcDbArc
 50
0.0
 51
90.0
  0
ARC
  5
23A4
330
1F
100
AcDbEntity
  8
AM_VIS
100
AcDbCircle
 10
2165.717343324644
 20
1559.28322293569
 30
0.0
 40
1.7
100
AcDbArc
 50
90.0
 51
180.0
  0
LINE
  5
23AB
330
1F
100
AcDbEntity
  8
AM_VIS
100
AcDbLine
 10
2083.198757787485
 20
1684.587483690915
 30
0.0
 11
2083.198757787485
 21
1686.587483690915
 31
0.0
  0
LINE
  5
23AC
330
1F
100
AcDbEntity
  8
AM_VIS
100
AcDbLine
 10
2071.198757787485
 20
1684.587483690915
 30
0.0
 11
2071.198757787485
 21
1686.587483690915
 31
0.0
  0
LINE
  5
23AD
330
1F
100
AcDbEntity
  8
AM_VIS
100
AcDbLine
 10
2091.698757787485
 20
1696.387483690915
 30
0.0
 11
2092.198757787485
 21
1695.887483690915
 31
0.0
  0
LINE
  5
23AE
330
1F
100
AcDbEntity
  8
AM_VIS
100
AcDbLine
 10
2092.198757787485
 20
1687.087483690915
 30
0.0
 11
2092.198757787485
 21
1695.887483690915
 31
0.0
  0
LINE
  5
23AF
330
1F
100
AcDbEntity
  8
AM_VIS
100
AcDbLine
 10
2092.198757787485
 20
1687.087483690915
 30
0.0
 11
2091.698757787485
 21
1686.587483690915
 31
0.0
  0
LINE
  5
23B0
330
1F
100
AcDbEntity
  8
AM_VIS
100
AcDbLine
 10
2062.698757787485
 20
1686.587483690915
 30
0.0
 11
2062.198757787485
 21
1687.087483690915
 31
0.0
  0
LINE
  5
23B1
330
1F
100
AcDbEntity
  8
AM_VIS
100
AcDbLine
 10
2062.198757787485
 20
1695.887483690915
 30
0.0
 11
2062.198757787485
 21
1687.087483690915
 31
0.0
  0
LINE
  5
23B2
330
1F
100
AcDbEntity
  8
AM_VIS
100
AcDbLine
 10
2062.198757787485
 20
1695.887483690915
 30
0.0
 11
2062.698757787485
 21
1696.387483690915
 31
0.0
  0
LINE
  5
23B3
330
1F
100
AcDbEntity
  8
AM_VIS
100
AcDbLine
 10
2091.698757787485
 20
1696.387483690915
 30
0.0
 11
2062.698757787485
 21
1696.387483690915
 31
0.0
  0
LINE
  5
23B4
330
1F
100
AcDbEntity
  8
AM_VIS
100
AcDbLine
 10
2062.698757787485
 20
1686.587483690915
 30
0.0
 11
2091.698757787485
 21
1686.587483690915
 31
0.0
  0
LINE
  5
23B5
330
1F
100
AcDbEntity
  8
AM_VIS
100
AcDbLine
 10
2077.798757787485
 20
1684.587483690915
 30
0.0
 11
2077.798757787485
 21
1629.587483690915
 31
0.0
  0
LINE
  5
23B6
330
1F
100
AcDbEntity
  8
AM_VIS
100
AcDbLine
 10
2070.798757787485
 20
1684.587483690915
 30
0.0
 11
2070.798757787485
 21
1629.587483690915
 31
0.0
  0
LINE
  5
23B7
330
1F
100
AcDbEntity
  8
AM_VIS
100
AcDbLine
 10
2067.798757787485
 20
1629.587483690915
 30
0.0
 11
2067.798757787485
 21
1684.587483690915
 31
0.0
  0
LINE
  5
23B8
330
1F
100
AcDbEntity
  8
AM_VIS
100
AcDbLine
 10
2077.798757787485
 20
1684.587483690915
 30
0.0
 11
2080.798757787485
 21
1684.587483690915
 31
0.0
  0
LINE
  5
23B9
330
1F
100
AcDbEntity
  8
AM_VIS
100
AcDbLine
 10
2070.798757787485
 20
1684.587483690915
 30
0.0
 11
2077.798757787485
 21
1684.587483690915
 31
0.0
  0
LINE
  5
23BA
330
1F
100
AcDbEntity
  8
AM_VIS
100
AcDbLine
 10
2067.798757787485
 20
1684.587483690915
 30
0.0
 11
2070.798757787485
 21
1684.587483690915
 31
0.0
  0
LINE
  5
23BB
330
1F
100
AcDbEntity
  8
AM_VIS
100
AcDbLine
 10
2067.798757787485
 20
1684.587483690915
 30
0.0
 11
2061.498757787485
 21
1684.587483690915
 31
0.0
  0
LINE
  5
23BC
330
1F
100
AcDbEntity
  8
AM_VIS
100
AcDbLine
 10
2060.198757787485
 20
1684.587483690915
 30
0.0
 11
2060.498757787485
 21
1684.587483690915
 31
0.0
  0
LINE
  5
23BD
330
1F
100
AcDbEntity
  8
AM_VIS
100
AcDbLine
 10
2096.198757787485
 20
1629.587483690915
 30
0.0
 11
2096.198757787485
 21
1684.587483690915
 31
0.0
  0
LINE
  5
23BE
330
1F
100
AcDbEntity
  8
AM_VIS
100
AcDbLine
 10
2080.798757787485
 20
1684.587483690915
 30
0.0
 11
2080.798757787485
 21
1629.587483690915
 31
0.0
  0
LINE
  5
23BF
330
1F
100
AcDbEntity
  8
AM_VIS
100
AcDbLine
 10
2095.198757787485
 20
1684.587483690915
 30
0.0
 11
2080.798757787485
 21
1684.587483690915
 31
0.0
  0
LINE
  5
23C0
330
1F
100
AcDbEntity
  8
AM_VIS
100
AcDbLine
 10
2060.498757787485
 20
1629.587483690915
 30
0.0
 11
2060.198757787485
 21
1629.587483690915
 31
0.0
  0
LINE
  5
23C1
330
1F
100
AcDbEntity
  8
AM_VIS
100
AcDbLine
 10
2061.498757787485
 20
1629.587483690915
 30
0.0
 11
2067.798757787485
 21
1629.587483690915
 31
0.0
  0
LINE
  5
23C2
330
1F
100
AcDbEntity
  8
AM_VIS
100
AcDbLine
 10
2070.798757787485
 20
1629.587483690915
 30
0.0
 11
2067.798757787485
 21
1629.587483690915
 31
0.0
  0
LINE
  5
23C3
330
1F
100
AcDbEntity
  8
AM_VIS
100
AcDbLine
 10
2077.798757787485
 20
1629.587483690915
 30
0.0
 11
2070.798757787485
 21
1629.587483690915
 31
0.0
  0
LINE
  5
23C4
330
1F
100
AcDbEntity
  8
AM_VIS
100
AcDbLine
 10
2080.798757787485
 20
1629.587483690915
 30
0.0
 11
2077.798757787485
 21
1629.587483690915
 31
0.0
  0
LINE
  5
23C5
330
1F
100
AcDbEntity
  8
AM_VIS
100
AcDbLine
 10
2080.798757787485
 20
1629.587483690915
 30
0.0
 11
2095.198757787485
 21
1629.587483690915
 31
0.0
  0
LINE
  5
23C6
330
1F
100
AcDbEntity
  8
AM_VIS
100
AcDbLine
 10
2060.198757787485
 20
1684.587483690915
 30
0.0
 11
2060.198757787485
 21
1629.587483690915
 31
0.0
  0
LINE
  5
23C7
330
1F
100
AcDbEntity
  8
AM_VIS
100
AcDbLine
 10
2095.198757787485
 20
1684.587483690915
 30
0.0
 11
2096.198757787485
 21
1684.587483690915
 31
0.0
  0
LINE
  5
23C8
330
1F
100
AcDbEntity
  8
AM_VIS
100
AcDbLine
 10
2060.498757787485
 20
1684.587483690915
 30
0.0
 11
2061.498757787485
 21
1684.587483690915
 31
0.0
  0
LINE
  5
23C9
330
1F
100
AcDbEntity
  8
AM_VIS
100
AcDbLine
 10
2061.498757787485
 20
1629.587483690915
 30
0.0
 11
2060.498757787485
 21
1629.587483690915
 31
0.0
  0
LINE
  5
23CA
330
1F
100
AcDbEntity
  8
AM_VIS
100
AcDbLine
 10
2096.198757787485
 20
1629.587483690915
 30
0.0
 11
2095.198757787485
 21
1629.587483690915
 31
0.0
  0
LINE
  5
23CB
330
1F
100
AcDbEntity
  8
AM_VIS
100
AcDbLine
 10
2284.464026451329
 20
1684.587483690915
 30
0.0
 11
2284.464026451329
 21
1686.587483690915
 31
0.0
  0
LINE
  5
23CC
330
1F
100
AcDbEntity
  8
AM_VIS
100
AcDbLine
 10
2272.464026451329
 20
1684.587483690915
 30
0.0
 11
2272.464026451329
 21
1686.587483690915
 31
0.0
  0
LINE
  5
23CD
330
1F
100
AcDbEntity
  8
AM_VIS
100
AcDbLine
 10
2263.464026451329
 20
1695.887483690915
 30
0.0
 11
2263.464026451329
 21
1687.087483690915
 31
0.0
  0
LINE
  5
23CE
330
1F
100
AcDbEntity
  8
AM_VIS
100
AcDbLine
 10
2263.464026451329
 20
1695.887483690915
 30
0.0
 11
2263.964026451329
 21
1696.387483690915
 31
0.0
  0
LINE
  5
23CF
330
1F
100
AcDbEntity
  8
AM_VIS
100
AcDbLine
 10
2292.964026451329
 20
1696.387483690915
 30
0.0
 11
2293.464026451329
 21
1695.887483690915
 31
0.0
  0
LINE
  5
23D0
330
1F
100
AcDbEntity
  8
AM_VIS
100
AcDbLine
 10
2293.464026451329
 20
1687.087483690915
 30
0.0
 11
2293.464026451329
 21
1695.887483690915
 31
0.0
  0
LINE
  5
23D1
330
1F
100
AcDbEntity
  8
AM_VIS
100
AcDbLine
 10
2263.964026451329
 20
1686.587483690915
 30
0.0
 11
2263.464026451329
 21
1687.087483690915
 31
0.0
  0
LINE
  5
23D2
330
1F
100
AcDbEntity
  8
AM_VIS
100
AcDbLine
 10
2293.464026451329
 20
1687.087483690915
 30
0.0
 11
2292.964026451329
 21
1686.587483690915
 31
0.0
  0
LINE
  5
23D3
330
1F
100
AcDbEntity
  8
AM_VIS
100
AcDbLine
 10
2292.964026451329
 20
1696.387483690915
 30
0.0
 11
2263.964026451329
 21
1696.387483690915
 31
0.0
  0
LINE
  5
23D4
330
1F
100
AcDbEntity
  8
AM_VIS
100
AcDbLine
 10
2263.964026451329
 20
1686.587483690915
 30
0.0
 11
2292.964026451329
 21
1686.587483690915
 31
0.0
  0
LINE
  5
23D5
330
1F
100
AcDbEntity
  8
AM_VIS
100
AcDbLine
 10
2284.864026451329
 20
1684.587483690915
 30
0.0
 11
2284.864026451329
 21
1629.587483690915
 31
0.0
  0
LINE
  5
23D6
330
1F
100
AcDbEntity
  8
AM_VIS
100
AcDbLine
 10
2277.864026451329
 20
1684.587483690915
 30
0.0
 11
2277.864026451329
 21
1629.587483690915
 31
0.0
  0
LINE
  5
23D7
330
1F
100
AcDbEntity
  8
AM_VIS
100
AcDbLine
 10
2274.864026451329
 20
1629.587483690915
 30
0.0
 11
2274.864026451329
 21
1684.587483690915
 31
0.0
  0
LINE
  5
23D8
330
1F
100
AcDbEntity
  8
AM_VIS
100
AcDbLine
 10
2287.864026451329
 20
1684.587483690915
 30
0.0
 11
2287.864026451329
 21
1629.587483690915
 31
0.0
  0
LINE
  5
23D9
330
1F
100
AcDbEntity
  8
AM_VIS
100
AcDbLine
 10
2295.164026451329
 20
1684.587483690915
 30
0.0
 11
2295.464026451329
 21
1684.587483690915
 31
0.0
  0
LINE
  5
23DA
330
1F
100
AcDbEntity
  8
AM_VIS
100
AcDbLine
 10
2294.164026451329
 20
1684.587483690915
 30
0.0
 11
2287.864026451329
 21
1684.587483690915
 31
0.0
  0
LINE
  5
23DB
330
1F
100
AcDbEntity
  8
AM_VIS
100
AcDbLine
 10
2284.864026451329
 20
1684.587483690915
 30
0.0
 11
2287.864026451329
 21
1684.587483690915
 31
0.0
  0
LINE
  5
23DC
330
1F
100
AcDbEntity
  8
AM_VIS
100
AcDbLine
 10
2277.864026451329
 20
1684.587483690915
 30
0.0
 11
2284.864026451329
 21
1684.587483690915
 31
0.0
  0
LINE
  5
23DD
330
1F
100
AcDbEntity
  8
AM_VIS
100
AcDbLine
 10
2274.864026451329
 20
1684.587483690915
 30
0.0
 11
2277.864026451329
 21
1684.587483690915
 31
0.0
  0
LINE
  5
23DE
330
1F
100
AcDbEntity
  8
AM_VIS
100
AcDbLine
 10
2274.864026451329
 20
1684.587483690915
 30
0.0
 11
2260.464026451329
 21
1684.587483690915
 31
0.0
  0
LINE
  5
23DF
330
1F
100
AcDbEntity
  8
AM_VIS
100
AcDbLine
 10
2259.464026451329
 20
1684.587483690915
 30
0.0
 11
2259.464026451329
 21
1629.587483690915
 31
0.0
  0
LINE
  5
23E0
330
1F
100
AcDbEntity
  8
AM_VIS
100
AcDbLine
 10
2260.464026451329
 20
1629.587483690915
 30
0.0
 11
2274.864026451329
 21
1629.587483690915
 31
0.0
  0
LINE
  5
23E1
330
1F
100
AcDbEntity
  8
AM_VIS
100
AcDbLine
 10
2277.864026451329
 20
1629.587483690915
 30
0.0
 11
2274.864026451329
 21
1629.587483690915
 31
0.0
  0
LINE
  5
23E2
330
1F
100
AcDbEntity
  8
AM_VIS
100
AcDbLine
 10
2284.864026451329
 20
1629.587483690915
 30
0.0
 11
2277.864026451329
 21
1629.587483690915
 31
0.0
  0
LINE
  5
23E3
330
1F
100
AcDbEntity
  8
AM_VIS
100
AcDbLine
 10
2287.864026451329
 20
1629.587483690915
 30
0.0
 11
2284.864026451329
 21
1629.587483690915
 31
0.0
  0
LINE
  5
23E4
330
1F
100
AcDbEntity
  8
AM_VIS
100
AcDbLine
 10
2287.864026451329
 20
1629.587483690915
 30
0.0
 11
2294.164026451329
 21
1629.587483690915
 31
0.0
  0
LINE
  5
23E5
330
1F
100
AcDbEntity
  8
AM_VIS
100
AcDbLine
 10
2295.464026451329
 20
1629.587483690915
 30
0.0
 11
2295.164026451329
 21
1629.587483690915
 31
0.0
  0
LINE
  5
23E6
330
1F
100
AcDbEntity
  8
AM_VIS
100
AcDbLine
 10
2295.464026451329
 20
1629.587483690915
 30
0.0
 11
2295.464026451329
 21
1684.587483690915
 31
0.0
  0
LINE
  5
23E7
330
1F
100
AcDbEntity
  8
AM_VIS
100
AcDbLine
 10
2294.164026451329
 20
1684.587483690915
 30
0.0
 11
2295.164026451329
 21
1684.587483690915
 31
0.0
  0
LINE
  5
23E8
330
1F
100
AcDbEntity
  8
AM_VIS
100
AcDbLine
 10
2259.464026451329
 20
1684.587483690915
 30
0.0
 11
2260.464026451329
 21
1684.587483690915
 31
0.0
  0
LINE
  5
23E9
330
1F
100
AcDbEntity
  8
AM_VIS
100
AcDbLine
 10
2260.464026451329
 20
1629.587483690915
 30
0.0
 11
2259.464026451329
 21
1629.587483690915
 31
0.0
  0
LINE
  5
23EA
330
1F
100
AcDbEntity
  8
AM_VIS
100
AcDbLine
 10
2295.164026451329
 20
1629.587483690915
 30
0.0
 11
2294.164026451329
 21
1629.587483690915
 31
0.0
  0
LINE
  5
23EB
330
1F
100
AcDbEntity
  8
AM_VIS
100
AcDbLine
 10
2396.858880073104
 20
1684.587483690915
 30
0.0
 11
2396.858880073104
 21
1686.587483690915
 31
0.0
  0
LINE
  5
23EC
330
1F
100
AcDbEntity
  8
AM_VIS
100
AcDbLine
 10
2384.858880073105
 20
1684.587483690915
 30
0.0
 11
2384.858880073105
 21
1686.587483690915
 31
0.0
  0
LINE
  5
23EF
330
1F
100
AcDbEntity
  8
AM_VIS
100
AcDbLine
 10
2341.858880073104
 20
1684.587483690915
 30
0.0
 11
2341.858880073104
 21
1686.587483690915
 31
0.0
  0
LINE
  5
23F0
330
1F
100
AcDbEntity
  8
AM_VIS
100
AcDbLine
 10
2329.858880073105
 20
1684.587483690915
 30
0.0
 11
2329.858880073105
 21
1686.587483690915
 31
0.0
  0
LINE
  5
23F1
330
1F
100
AcDbEntity
  8
AM_VIS
100
AcDbLine
 10
2327.358880073104
 20
1695.887483690915
 30
0.0
 11
2327.858880073105
 21
1696.387483690915
 31
0.0
  0
LINE
  5
23F2
330
1F
100
AcDbEntity
  8
AM_VIS
100
AcDbLine
 10
2327.358880073104
 20
1695.887483690915
 30
0.0
 11
2327.358880073104
 21
1687.087483690915
 31
0.0
  0
LINE
  5
23F3
330
1F
100
AcDbEntity
  8
AM_VIS
100
AcDbLine
 10
2327.858880073105
 20
1686.587483690915
 30
0.0
 11
2327.358880073104
 21
1687.087483690915
 31
0.0
  0
LINE
  5
23F4
330
1F
100
AcDbEntity
  8
AM_VIS
100
AcDbLine
 10
2398.858880073104
 20
1696.387483690915
 30
0.0
 11
2399.358880073105
 21
1695.887483690915
 31
0.0
  0
LINE
  5
23F5
330
1F
100
AcDbEntity
  8
AM_VIS
100
AcDbLine
 10
2399.358880073105
 20
1687.087483690915
 30
0.0
 11
2399.358880073105
 21
1695.887483690915
 31
0.0
  0
LINE
  5
23F6
330
1F
100
AcDbEntity
  8
AM_VIS
100
AcDbLine
 10
2399.358880073105
 20
1687.087483690915
 30
0.0
 11
2398.858880073104
 21
1686.587483690915
 31
0.0
  0
LINE
  5
23F7
330
1F
100
AcDbEntity
  8
AM_VIS
100
AcDbLine
 10
2398.858880073104
 20
1696.387483690915
 30
0.0
 11
2327.858880073105
 21
1696.387483690915
 31
0.0
  0
LINE
  5
23F8
330
1F
100
AcDbEntity
  8
AM_VIS
100
AcDbLine
 10
2327.858880073105
 20
1686.587483690915
 30
0.0
 11
2398.858880073104
 21
1686.587483690915
 31
0.0
  0
LINE
  5
23F9
330
1F
100
AcDbEntity
  8
AM_VIS
100
AcDbLine
 10
2326.858880073105
 20
1684.587483690915
 30
0.0
 11
2326.858880073105
 21
1629.587483690915
 31
0.0
  0
LINE
  5
23FA
330
1F
100
AcDbEntity
  8
AM_VIS
100
AcDbLine
 10
2361.058880073105
 20
1684.587483690915
 30
0.0
 11
2361.058880073105
 21
1629.587483690915
 31
0.0
  0
LINE
  5
23FB
330
1F
100
AcDbEntity
  8
AM_VIS
100
AcDbLine
 10
2369.058880073105
 20
1684.587483690915
 30
0.0
 11
2369.058880073105
 21
1629.587483690915
 31
0.0
  0
LINE
  5
23FC
330
1F
100
AcDbEntity
  8
AM_VIS
100
AcDbLine
 10
2365.658880073105
 20
1629.587483690915
 30
0.0
 11
2365.658880073105
 21
1684.587483690915
 31
0.0
  0
LINE
  5
23FD
330
1F
100
AcDbEntity
  8
AM_VIS
100
AcDbLine
 10
2320.858880073105
 20
1684.587483690915
 30
0.0
 11
2320.858880073105
 21
1629.587483690915
 31
0.0
  0
LINE
  5
23FE
330
1F
100
AcDbEntity
  8
AM_VIS
100
AcDbLine
 10
2405.858880073104
 20
1629.587483690915
 30
0.0
 11
2405.858880073104
 21
1684.587483690915
 31
0.0
  0
LINE
  5
23FF
330
1F
100
AcDbEntity
  8
AM_VIS
100
AcDbLine
 10
2341.858879875086
 20
1684.587483690915
 30
0.0
 11
2341.858879875086
 21
1629.587483690915
 31
0.0
  0
LINE
  5
2400
330
1F
100
AcDbEntity
  8
AM_VIS
100
AcDbLine
 10
2399.858880073105
 20
1684.587483690915
 30
0.0
 11
2399.858880073105
 21
1629.587483690915
 31
0.0
  0
LINE
  5
2401
330
1F
100
AcDbEntity
  8
AM_VIS
100
AcDbLine
 10
2382.358879875086
 20
1684.587483690915
 30
0.0
 11
2384.558880049342
 21
1684.587483690915
 31
0.0
  0
LINE
  5
2402
330
1F
100
AcDbEntity
  8
AM_VIS
100
AcDbLine
 10
2369.058880073105
 20
1684.587483690915
 30
0.0
 11
2380.158880049342
 21
1684.587483690915
 31
0.0
  0
LINE
  5
2403
330
1F
100
AcDbEntity
  8
AM_VIS
100
AcDbLine
 10
2366.908880073105
 20
1684.587483690915
 30
0.0
 11
2367.808880073105
 21
1684.587483690915
 31
0.0
  0
LINE
  5
2404
330
1F
100
AcDbEntity
  8
AM_VIS
100
AcDbLine
 10
2361.058880073104
 20
1684.587483690915
 30
0.0
 11
2365.658880073105
 21
1684.587483690915
 31
0.0
  0
LINE
  5
2405
330
1F
100
AcDbEntity
  8
AM_VIS
100
AcDbLine
 10
2358.908880073105
 20
1684.587483690915
 30
0.0
 11
2359.808880073105
 21
1684.587483690915
 31
0.0
  0
LINE
  5
2406
330
1F
100
AcDbEntity
  8
AM_VIS
100
AcDbLine
 10
2341.858879875086
 20
1684.587483690915
 30
0.0
 11
2344.058880049343
 21
1684.587483690915
 31
0.0
  0
LINE
  5
2407
330
1F
100
AcDbEntity
  8
AM_VIS
100
AcDbLine
 10
2339.658880049342
 20
1684.587483690915
 30
0.0
 11
2341.858879875086
 21
1684.587483690915
 31
0.0
  0
LINE
  5
2408
330
1F
100
AcDbEntity
  8
AM_VIS
100
AcDbLine
 10
2326.858880073105
 20
1684.587483690915
 30
0.0
 11
2327.158880073105
 21
1684.587483690915
 31
0.0
  0
LINE
  5
2409
330
1F
100
AcDbEntity
  8
AM_VIS
100
AcDbLine
 10
2321.858880073104
 20
1684.587483690915
 30
0.0
 11
2326.858880073105
 21
1684.587483690915
 31
0.0
  0
LINE
  5
240A
330
1F
100
AcDbEntity
  8
AM_VIS
100
AcDbLine
 10
2399.858880073105
 20
1684.587483690915
 30
0.0
 11
2404.858880073105
 21
1684.587483690915
 31
0.0
  0
LINE
  5
240B
330
1F
100
AcDbEntity
  8
AM_VIS
100
AcDbLine
 10
2399.558880073105
 20
1684.587483690915
 30
0.0
 11
2399.858880073105
 21
1684.587483690915
 31
0.0
  0
LINE
  5
240C
330
1F
100
AcDbEntity
  8
AM_VIS
100
AcDbLine
 10
2380.158880049342
 20
1684.587483690915
 30
0.0
 11
2380.158880049342
 21
1667.030570705986
 31
0.0
  0
LINE
  5
240D
330
1F
100
AcDbEntity
  8
AM_VIS
100
AcDbLine
 10
2380.158880049342
 20
1684.587483690915
 30
0.0
 11
2382.358879875086
 21
1684.587483690915
 31
0.0
  0
LINE
  5
240E
330
1F
100
AcDbEntity
  8
AM_VIS
100
AcDbLine
 10
2382.358879875086
 20
1684.587483690915
 30
0.0
 11
2382.358879875086
 21
1629.587483690915
 31
0.0
  0
LINE
  5
240F
330
1F
100
AcDbEntity
  8
AM_VIS
100
AcDbLine
 10
2380.158880049342
 20
1644.144396675843
 30
0.0
 11
2380.158880049342
 21
1629.587483690915
 31
0.0
  0
SPLINE
  5
2410
330
1F
100
AcDbEntity
  8
AM_VIS
100
AcDbSpline
210
0.0
220
0.0
230
1.0
 70
    12
 71
     2
 72
     6
 73
     3
 74
     0
 42
0.0000000001
 43
0.0000000001
 40
0.0
 40
0.0
 40
0.0
 40
2.928310189433604
 40
2.928310189433604
 40
2.928310189433604
 10
2380.158880049342
 20
1644.144396675843
 30
0.0
 41
1.0
 10
2380.508880058428
 20
1645.587483690914
 30
0.0
 41
1.000000004659241
 10
2380.158880049342
 20
1647.030570705986
 30
0.0
 41
1.0
  0
LINE
  5
2411
330
1F
100
AcDbEntity
  8
AM_VIS
100
AcDbLine
 10
2380.158880049342
 20
1664.144396675843
 30
0.0
 11
2380.158880049342
 21
1647.030570705986
 31
0.0
  0
SPLINE
  5
2412
330
1F
100
AcDbEntity
  8
AM_VIS
100
AcDbSpline
210
0.0
220
0.0
230
1.0
 70
    12
 71
     2
 72
     6
 73
     3
 74
     0
 42
0.0000000001
 43
0.0000000001
 40
0.0
 40
0.0
 40
0.0
 40
2.928310189433588
 40
2.928310189433588
 40
2.928310189433588
 10
2380.158880049342
 20
1664.144396675843
 30
0.0
 41
1.0
 10
2380.508880058428
 20
1665.587483690915
 30
0.0
 41
1.000000004659241
 10
2380.158880049342
 20
1667.030570705986
 30
0.0
 41
1.0
  0
LINE
  5
2413
330
1F
100
AcDbEntity
  8
AM_VIS
100
AcDbLine
 10
2344.058880049343
 20
1629.587483690915
 30
0.0
 11
2344.058880049343
 21
1684.587483690915
 31
0.0
  0
LINE
  5
2414
330
1F
100
AcDbEntity
  8
AM_VIS
100
AcDbLine
 10
2344.058880049343
 20
1684.587483690915
 30
0.0
 11
2357.658880073105
 21
1684.587483690915
 31
0.0
  0
LINE
  5
2415
330
1F
100
AcDbEntity
  8
AM_VIS
100
AcDbLine
 10
2357.658880073105
 20
1629.587483690915
 30
0.0
 11
2357.658880073105
 21
1684.587483690915
 31
0.0
  0
LINE
  5
2416
330
1F
100
AcDbEntity
  8
AM_VIS
100
AcDbLine
 10
2399.858880073105
 20
1629.587483690915
 30
0.0
 11
2399.558880073105
 21
1629.587483690915
 31
0.0
  0
LINE
  5
2417
330
1F
100
AcDbEntity
  8
AM_VIS
100
AcDbLine
 10
2404.858880073105
 20
1629.587483690915
 30
0.0
 11
2399.858880073105
 21
1629.587483690915
 31
0.0
  0
LINE
  5
2418
330
1F
100
AcDbEntity
  8
AM_VIS
100
AcDbLine
 10
2326.858880073105
 20
1629.587483690915
 30
0.0
 11
2321.858880073104
 21
1629.587483690915
 31
0.0
  0
LINE
  5
2419
330
1F
100
AcDbEntity
  8
AM_VIS
100
AcDbLine
 10
2327.158880073105
 20
1629.587483690915
 30
0.0
 11
2326.858880073105
 21
1629.587483690915
 31
0.0
  0
LINE
  5
241A
330
1F
100
AcDbEntity
  8
AM_VIS
100
AcDbLine
 10
2341.858879875086
 20
1629.587483690915
 30
0.0
 11
2339.658880049342
 21
1629.587483690915
 31
0.0
  0
LINE
  5
241B
330
1F
100
AcDbEntity
  8
AM_VIS
100
AcDbLine
 10
2344.058880049343
 20
1629.587483690915
 30
0.0
 11
2341.858879875086
 21
1629.587483690915
 31
0.0
  0
LINE
  5
241C
330
1F
100
AcDbEntity
  8
AM_VIS
100
AcDbLine
 10
2357.658880073105
 20
1629.587483690915
 30
0.0
 11
2344.058880049343
 21
1629.587483690915
 31
0.0
  0
LINE
  5
241D
330
1F
100
AcDbEntity
  8
AM_VIS
100
AcDbLine
 10
2359.808880073105
 20
1629.587483690915
 30
0.0
 11
2358.908880073105
 21
1629.587483690915
 31
0.0
  0
LINE
  5
241E
330
1F
100
AcDbEntity
  8
AM_VIS
100
AcDbLine
 10
2365.658880073105
 20
1629.587483690915
 30
0.0
 11
2361.058880073104
 21
1629.587483690915
 31
0.0
  0
LINE
  5
241F
330
1F
100
AcDbEntity
  8
AM_VIS
100
AcDbLine
 10
2367.808880073105
 20
1629.587483690915
 30
0.0
 11
2366.908880073105
 21
1629.587483690915
 31
0.0
  0
LINE
  5
2420
330
1F
100
AcDbEntity
  8
AM_VIS
100
AcDbLine
 10
2380.158880049342
 20
1629.587483690915
 30
0.0
 11
2369.058880073104
 21
1629.587483690915
 31
0.0
  0
LINE
  5
2421
330
1F
100
AcDbEntity
  8
AM_VIS
100
AcDbLine
 10
2382.358879875086
 20
1629.587483690915
 30
0.0
 11
2380.158880049342
 21
1629.587483690915
 31
0.0
  0
LINE
  5
2422
330
1F
100
AcDbEntity
  8
AM_VIS
100
AcDbLine
 10
2384.558880049342
 20
1629.587483690915
 30
0.0
 11
2382.358879875086
 21
1629.587483690915
 31
0.0
  0
LINE
  5
2423
330
1F
100
AcDbEntity
  8
AM_VIS
100
AcDbLine
 10
2327.158880073105
 20
1684.587483690915
 30
0.0
 11
2339.658880049342
 21
1684.587483690915
 31
0.0
  0
LINE
  5
2424
330
1F
100
AcDbEntity
  8
AM_VIS
100
AcDbLine
 10
2339.658880049342
 20
1684.587483690915
 30
0.0
 11
2339.658880049342
 21
1629.587483690915
 31
0.0
  0
LINE
  5
2425
330
1F
100
AcDbEntity
  8
AM_VIS
100
AcDbLine
 10
2339.658880049342
 20
1629.587483690915
 30
0.0
 11
2327.158880073105
 21
1629.587483690915
 31
0.0
  0
LINE
  5
2426
330
1F
100
AcDbEntity
  8
AM_VIS
100
AcDbLine
 10
2327.158880073105
 20
1629.587483690915
 30
0.0
 11
2327.158880073105
 21
1684.587483690915
 31
0.0
  0
LINE
  5
2427
330
1F
100
AcDbEntity
  8
AM_VIS
100
AcDbLine
 10
2384.558880049342
 20
1684.587483690915
 30
0.0
 11
2399.558880073105
 21
1684.587483690915
 31
0.0
  0
LINE
  5
2428
330
1F
100
AcDbEntity
  8
AM_VIS
100
AcDbLine
 10
2399.558880073105
 20
1684.587483690915
 30
0.0
 11
2399.558880073105
 21
1629.587483690915
 31
0.0
  0
LINE
  5
2429
330
1F
100
AcDbEntity
  8
AM_VIS
100
AcDbLine
 10
2399.558880073105
 20
1629.587483690915
 30
0.0
 11
2384.558880049342
 21
1629.587483690915
 31
0.0
  0
LINE
  5
242A
330
1F
100
AcDbEntity
  8
AM_VIS
100
AcDbLine
 10
2384.558880049342
 20
1629.587483690915
 30
0.0
 11
2384.558880049342
 21
1684.587483690915
 31
0.0
  0
LINE
  5
242B
330
1F
100
AcDbEntity
  8
AM_VIS
100
AcDbLine
 10
2369.058880073105
 20
1684.587483690915
 30
0.0
 11
2367.808880073105
 21
1684.587483690915
 31
0.0
  0
LINE
  5
242C
330
1F
100
AcDbEntity
  8
AM_VIS
100
AcDbLine
 10
2366.908880073105
 20
1684.587483690915
 30
0.0
 11
2365.658880073105
 21
1684.587483690915
 31
0.0
  0
LINE
  5
242D
330
1F
100
AcDbEntity
  8
AM_VIS
100
AcDbLine
 10
2361.058880073105
 20
1684.587483690915
 30
0.0
 11
2359.808880073105
 21
1684.587483690915
 31
0.0
  0
LINE
  5
242E
330
1F
100
AcDbEntity
  8
AM_VIS
100
AcDbLine
 10
2358.908880073105
 20
1684.587483690915
 30
0.0
 11
2357.658880073105
 21
1684.587483690915
 31
0.0
  0
LINE
  5
242F
330
1F
100
AcDbEntity
  8
AM_VIS
100
AcDbLine
 10
2320.858880073105
 20
1684.587483690915
 30
0.0
 11
2321.858880073104
 21
1684.587483690915
 31
0.0
  0
LINE
  5
2430
330
1F
100
AcDbEntity
  8
AM_VIS
100
AcDbLine
 10
2404.858880073105
 20
1684.587483690915
 30
0.0
 11
2405.858880073104
 21
1684.587483690915
 31
0.0
  0
LINE
  5
243F
330
1F
100
AcDbEntity
  8
AM_VIS
100
AcDbLine
 10
2405.858880073104
 20
1629.587483690915
 30
0.0
 11
2404.858880073105
 21
1629.587483690915
 31
0.0
  0
LINE
  5
2440
330
1F
100
AcDbEntity
  8
AM_VIS
100
AcDbLine
 10
2321.858880073104
 20
1629.587483690915
 30
0.0
 11
2320.858880073105
 21
1629.587483690915
 31
0.0
  0
LINE
  5
2441
330
1F
100
AcDbEntity
  8
AM_VIS
100
AcDbLine
 10
2357.658880073105
 20
1629.587483690915
 30
0.0
 11
2358.908880073105
 21
1629.587483690915
 31
0.0
  0
LINE
  5
2442
330
1F
100
AcDbEntity
  8
AM_VIS
100
AcDbLine
 10
2359.808880073105
 20
1629.587483690915
 30
0.0
 11
2361.058880073105
 21
1629.587483690915
 31
0.0
  0
LINE
  5
2443
330
1F
100
AcDbEntity
  8
AM_VIS
100
AcDbLine
 10
2365.658880073105
 20
1629.587483690915
 30
0.0
 11
2366.908880073105
 21
1629.587483690915
 31
0.0
  0
LINE
  5
2444
330
1F
100
AcDbEntity
  8
AM_VIS
100
AcDbLine
 10
2367.808880073105
 20
1629.587483690915
 30
0.0
 11
2369.058880073105
 21
1629.587483690915
 31
0.0
  0
ARC
  5
248F
330
1F
100
AcDbEntity
  8
AM_4
100
AcDbCircle
 10
2088.698757787485
 20
1652.587483690915
 30
0.0
 40
4.863999999999999
100
AcDbArc
 50
260.0
 51
170.0
  0
LINE
  5
2490
330
1F
100
AcDbEntity
  8
AM_7
  6
AM_ISO08W050x2
100
AcDbLine
 10
2088.698757787485
 20
1659.451483690915
 30
0.0
 11
2088.698757787485
 21
1645.723483690915
 31
0.0
  0
CIRCLE
  5
2491
330
1F
100
AcDbEntity
  8
AM_0
100
AcDbCircle
 10
2088.698757787485
 20
1652.587483690915
 30
0.0
 40
4.283
  0
LINE
  5
2492
330
1F
100
AcDbEntity
  8
AM_7
  6
AM_ISO08W050x2
100
AcDbLine
 10
2081.834757787484
 20
1652.587483690915
 30
0.0
 11
2095.562757787485
 21
1652.587483690915
 31
0.0
  0
ARC
  5
2493
330
1F
100
AcDbEntity
  8
AM_4
100
AcDbCircle
 10
2088.698757787485
 20
1672.587483690915
 30
0.0
 40
4.863999999999999
100
AcDbArc
 50
260.0
 51
170.0
  0
LINE
  5
2494
330
1F
100
AcDbEntity
  8
AM_7
  6
AM_ISO08W050x2
100
AcDbLine
 10
2088.698757787485
 20
1679.451483690915
 30
0.0
 11
2088.698757787485
 21
1665.723483690915
 31
0.0
  0
CIRCLE
  5
2495
330
1F
100
AcDbEntity
  8
AM_0
100
AcDbCircle
 10
2088.698757787485
 20
1672.587483690915
 30
0.0
 40
4.283
  0
LINE
  5
2496
330
1F
100
AcDbEntity
  8
AM_7
  6
AM_ISO08W050x2
100
AcDbLine
 10
2081.834757787484
 20
1672.587483690915
 30
0.0
 11
2095.562757787485
 21
1672.587483690915
 31
0.0
  0
ARC
  5
2497
330
1F
100
AcDbEntity
  8
AM_4
100
AcDbCircle
 10
2145.667343324644
 20
1672.587483690915
 30
0.0
 40
4.863999999999999
100
AcDbArc
 50
260.0
 51
170.0
  0
LINE
  5
2498
330
1F
100
AcDbEntity
  8
AM_7
  6
AM_ISO08W050x2
100
AcDbLine
 10
2145.667343324644
 20
1679.451483690915
 30
0.0
 11
2145.667343324644
 21
1665.723483690915
 31
0.0
  0
CIRCLE
  5
2499
330
1F
100
AcDbEntity
  8
AM_0
100
AcDbCircle
 10
2145.667343324644
 20
1672.587483690915
 30
0.0
 40
4.283
  0
LINE
  5
249A
330
1F
100
AcDbEntity
  8
AM_7
  6
AM_ISO08W050x2
100
AcDbLine
 10
2138.803343324644
 20
1672.587483690915
 30
0.0
 11
2152.531343324644
 21
1672.587483690915
 31
0.0
  0
ARC
  5
249B
330
1F
100
AcDbEntity
  8
AM_4
100
AcDbCircle
 10
2145.667343324644
 20
1652.587483690915
 30
0.0
 40
4.863999999999999
100
AcDbArc
 50
260.0
 51
170.0
  0
LINE
  5
249C
330
1F
100
AcDbEntity
  8
AM_7
  6
AM_ISO08W050x2
100
AcDbLine
 10
2145.667343324644
 20
1659.451483690915
 30
0.0
 11
2145.667343324644
 21
1645.723483690915
 31
0.0
  0
CIRCLE
  5
249D
330
1F
100
AcDbEntity
  8
AM_0
100
AcDbCircle
 10
2145.667343324644
 20
1652.587483690915
 30
0.0
 40
4.283
  0
LINE
  5
249E
330
1F
100
AcDbEntity
  8
AM_7
  6
AM_ISO08W050x2
100
AcDbLine
 10
2138.803343324644
 20
1652.587483690915
 30
0.0
 11
2152.531343324644
 21
1652.587483690915
 31
0.0
  0
LINE
  5
24AC
330
1F
100
AcDbEntity
  8
AM_7
  6
AM_ISO08W050x2
100
AcDbLine
 10
2156.167343324644
 20
1665.587483690915
 30
0.0
 11
2162.917343324644
 21
1665.587483690915
 31
0.0
1001
GENIUS_GENOREF_13
1005
24B0
  0
LINE
  5
24AD
330
1F
100
AcDbEntity
  8
AM_7
  6
AM_ISO08W050x2
100
AcDbLine
 10
2156.167343324644
 20
1665.587483690915
 30
0.0
 11
2156.167343324644
 21
1672.337483690915
 31
0.0
1001
GENIUS_GENOREF_13
1005
24B0
  0
LINE
  5
24AE
330
1F
100
AcDbEntity
  8
AM_7
  6
AM_ISO08W050x2
100
AcDbLine
 10
2156.167343324644
 20
1665.587483690915
 30
0.0
 11
2149.417343324644
 21
1665.587483690915
 31
0.0
1001
GENIUS_GENOREF_13
1005
24B0
  0
LINE
  5
24AF
330
1F
100
AcDbEntity
  8
AM_7
  6
AM_ISO08W050x2
100
AcDbLine
 10
2156.167343324644
 20
1665.587483690915
 30
0.0
 11
2156.167343324644
 21
1658.837483690915
 31
0.0
1001
GENIUS_GENOREF_13
1005
24B0
  0
POINT
  5
24B0
330
1F
100
AcDbEntity
  8
0
 60
     1
100
AcDbPoint
 10
0.0
 20
0.0
 30
0.0
1001
GENIUS_GENOENT_13
1002
{
1000
MYREF
1005
24B0
1002
}
1002
{
1000
GRP
1005
0
1002
}
1001
GENIUS_GENODEF_13
1002
{
1000
HIER
1070
    10
1002
}
1002
{
1000
MANEDIT
1070
     0
1002
}
1002
{
1000
NOSEL
1070
     0
1002
}
1002
{
1000
BEHIND
1070
     0
1002
}
1002
{
1000
OTHER
1070
     0
1002
}
1002
{
1000
REACTOR
1002
}
1001
GENIUS_GENOLIS_13
1002
{
1000
ENT
1005
24AF
1005
24AE
1005
24AD
1005
24AC
1002
}
1001
GENIUS_GENOBJ-N-CRS_13
1002
{
1000
OWNER
1000
GEN
1002
}
  0
LINE
  5
24BE
330
1F
100
AcDbEntity
  8
AM_7
  6
AM_ISO08W050x2
100
AcDbLine
 10
2156.167343324644
 20
1645.587483690915
 30
0.0
 11
2162.917343324644
 21
1645.587483690915
 31
0.0
1001
GENIUS_GENOREF_13
1005
24C2
  0
LINE
  5
24BF
330
1F
100
AcDbEntity
  8
AM_7
  6
AM_ISO08W050x2
100
AcDbLine
 10
2156.167343324644
 20
1645.587483690915
 30
0.0
 11
2156.167343324644
 21
1652.337483690915
 31
0.0
1001
GENIUS_GENOREF_13
1005
24C2
  0
LINE
  5
24C0
330
1F
100
AcDbEntity
  8
AM_7
  6
AM_ISO08W050x2
100
AcDbLine
 10
2156.167343324644
 20
1645.587483690915
 30
0.0
 11
2149.417343324644
 21
1645.587483690915
 31
0.0
1001
GENIUS_GENOREF_13
1005
24C2
  0
LINE
  5
24C1
330
1F
100
AcDbEntity
  8
AM_7
  6
AM_ISO08W050x2
100
AcDbLine
 10
2156.167343324644
 20
1645.587483690915
 30
0.0
 11
2156.167343324644
 21
1638.837483690915
 31
0.0
1001
GENIUS_GENOREF_13
1005
24C2
  0
POINT
  5
24C2
330
1F
100
AcDbEntity
  8
0
 60
     1
100
AcDbPoint
 10
0.0
 20
0.0
 30
0.0
1001
GENIUS_GENOENT_13
1002
{
1000
MYREF
1005
24C2
1002
}
1002
{
1000
GRP
1005
0
1002
}
1001
GENIUS_GENOBJ-N-CRS_13
1002
{
1000
OWNER
1000
GEN
1002
}
1001
GENIUS_GENOLIS_13
1002
{
1000
ENT
1005
24C1
1005
24C0
1005
24BF
1005
24BE
1002
}
1001
GENIUS_GENODEF_13
1002
{
1000
HIER
1070
    10
1002
}
1002
{
1000
MANEDIT
1070
     0
1002
}
1002
{
1000
NOSEL
1070
     0
1002
}
1002
{
1000
BEHIND
1070
     0
1002
}
1002
{
1000
OTHER
1070
     0
1002
}
1002
{
1000
REACTOR
1002
}
  0
LINE
  5
24D0
330
1F
100
AcDbEntity
  8
AM_7
  6
AM_ISO08W050x2
100
AcDbLine
 10
2184.167343324644
 20
1645.587483690915
 30
0.0
 11
2190.917343324644
 21
1645.587483690915
 31
0.0
1001
GENIUS_GENOREF_13
1005
24D4
  0
LINE
  5
24D1
330
1F
100
AcDbEntity
  8
AM_7
  6
AM_ISO08W050x2
100
AcDbLine
 10
2184.167343324644
 20
1645.587483690915
 30
0.0
 11
2184.167343324644
 21
1652.337483690915
 31
0.0
1001
GENIUS_GENOREF_13
1005
24D4
  0
LINE
  5
24D2
330
1F
100
AcDbEntity
  8
AM_7
  6
AM_ISO08W050x2
100
AcDbLine
 10
2184.167343324644
 20
1645.587483690915
 30
0.0
 11
2177.417343324644
 21
1645.587483690915
 31
0.0
1001
GENIUS_GENOREF_13
1005
24D4
  0
LINE
  5
24D3
330
1F
100
AcDbEntity
  8
AM_7
  6
AM_ISO08W050x2
100
AcDbLine
 10
2184.167343324644
 20
1645.587483690915
 30
0.0
 11
2184.167343324644
 21
1638.837483690915
 31
0.0
1001
GENIUS_GENOREF_13
1005
24D4
  0
POINT
  5
24D4
330
1F
100
AcDbEntity
  8
0
 60
     1
100
AcDbPoint
 10
0.0
 20
0.0
 30
0.0
1001
GENIUS_GENOBJ-N-CRS_13
1002
{
1000
OWNER
1000
GEN
1002
}
1001
GENIUS_GENOLIS_13
1002
{
1000
ENT
1005
24D3
1005
24D2
1005
24D1
1005
24D0
1002
}
1001
GENIUS_GENODEF_13
1002
{
1000
HIER
1070
    10
1002
}
1002
{
1000
MANEDIT
1070
     0
1002
}
1002
{
1000
NOSEL
1070
     0
1002
}
1002
{
1000
BEHIND
1070
     0
1002
}
1002
{
1000
OTHER
1070
     0
1002
}
1002
{
1000
REACTOR
1002
}
1001
GENIUS_GENOENT_13
1002
{
1000
MYREF
1005
24D4
1002
}
1002
{
1000
GRP
1005
0
1002
}
  0
LINE
  5
24E2
330
1F
100
AcDbEntity
  8
AM_7
  6
AM_ISO08W050x2
100
AcDbLine
 10
2184.167343324644
 20
1665.587483690915
 30
0.0
 11
2190.917343324644
 21
1665.587483690915
 31
0.0
1001
GENIUS_GENOREF_13
1005
24E6
  0
LINE
  5
24E3
330
1F
100
AcDbEntity
  8
AM_7
  6
AM_ISO08W050x2
100
AcDbLine
 10
2184.167343324644
 20
1665.587483690915
 30
0.0
 11
2184.167343324644
 21
1672.337483690915
 31
0.0
1001
GENIUS_GENOREF_13
1005
24E6
  0
LINE
  5
24E4
330
1F
100
AcDbEntity
  8
AM_7
  6
AM_ISO08W050x2
100
AcDbLine
 10
2184.167343324644
 20
1665.587483690915
 30
0.0
 11
2177.417343324644
 21
1665.587483690915
 31
0.0
1001
GENIUS_GENOREF_13
1005
24E6
  0
LINE
  5
24E5
330
1F
100
AcDbEntity
  8
AM_7
  6
AM_ISO08W050x2
100
AcDbLine
 10
2184.167343324644
 20
1665.587483690915
 30
0.0
 11
2184.167343324644
 21
1658.837483690915
 31
0.0
1001
GENIUS_GENOREF_13
1005
24E6
  0
POINT
  5
24E6
330
1F
100
AcDbEntity
  8
0
 60
     1
100
AcDbPoint
 10
0.0
 20
0.0
 30
0.0
1001
GENIUS_GENODEF_13
1002
{
1000
HIER
1070
    10
1002
}
1002
{
1000
MANEDIT
1070
     0
1002
}
1002
{
1000
NOSEL
1070
     0
1002
}
1002
{
1000
BEHIND
1070
     0
1002
}
1002
{
1000
OTHER
1070
     0
1002
}
1002
{
1000
REACTOR
1002
}
1001
GENIUS_GENOENT_13
1002
{
1000
MYREF
1005
24E6
1002
}
1002
{
1000
GRP
1005
0
1002
}
1001
GENIUS_GENOBJ-N-CRS_13
1002
{
1000
OWNER
1000
GEN
1002
}
1001
GENIUS_GENOLIS_13
1002
{
1000
ENT
1005
24E5
1005
24E4
1005
24E3
1005
24E2
1002
}
  0
ARC
  5
2512
330
1F
100
AcDbEntity
  8
AM_4
100
AcDbCircle
 10
2331.358880073105
 20
1673.587483690915
 30
0.0
 40
2.5
100
AcDbArc
 50
259.9999999999939
 51
170.0000000000089
  0
CIRCLE
  5
2513
330
1F
100
AcDbEntity
  8
AM_0
100
AcDbCircle
 10
2331.358880073105
 20
1673.587483690915
 30
0.0
 40
2.066987298107819
  0
LINE
  5
2514
330
1F
100
AcDbEntity
  8
AM_7
  6
AM_ISO08W050x2
100
AcDbLine
 10
2327.858880073105
 20
1673.587483690915
 30
0.0
 11
2334.858880073105
 21
1673.587483690915
 31
0.0
  0
LINE
  5
2515
330
1F
100
AcDbEntity
  8
AM_7
  6
AM_ISO08W050x2
100
AcDbLine
 10
2331.358880073105
 20
1670.087483690915
 30
0.0
 11
2331.358880073105
 21
1677.087483690915
 31
0.0
  0
ARC
  5
2516
330
1F
100
AcDbEntity
  8
AM_4
100
AcDbCircle
 10
2331.358880073105
 20
1643.587483690915
 30
0.0
 40
2.5
100
AcDbArc
 50
259.9999999999939
 51
170.0000000000089
  0
CIRCLE
  5
2517
330
1F
100
AcDbEntity
  8
AM_0
100
AcDbCircle
 10
2331.358880073105
 20
1643.587483690915
 30
0.0
 40
2.066987298107819
  0
LINE
  5
2518
330
1F
100
AcDbEntity
  8
AM_7
  6
AM_ISO08W050x2
100
AcDbLine
 10
2327.858880073105
 20
1643.587483690915
 30
0.0
 11
2334.858880073105
 21
1643.587483690915
 31
0.0
  0
LINE
  5
2519
330
1F
100
AcDbEntity
  8
AM_7
  6
AM_ISO08W050x2
100
AcDbLine
 10
2331.358880073105
 20
1640.087483690915
 30
0.0
 11
2331.358880073105
 21
1647.087483690915
 31
0.0
  0
ARC
  5
251A
330
1F
100
AcDbEntity
  8
AM_4
100
AcDbCircle
 10
2395.358880073104
 20
1643.587483690915
 30
0.0
 40
2.5
100
AcDbArc
 50
259.9999999999939
 51
170.0000000000089
  0
CIRCLE
  5
251B
330
1F
100
AcDbEntity
  8
AM_0
100
AcDbCircle
 10
2395.358880073104
 20
1643.587483690915
 30
0.0
 40
2.066987298107819
  0
LINE
  5
251C
330
1F
100
AcDbEntity
  8
AM_7
  6
AM_ISO08W050x2
100
AcDbLine
 10
2391.858880073105
 20
1643.587483690915
 30
0.0
 11
2398.858880073104
 21
1643.587483690915
 31
0.0
  0
LINE
  5
251D
330
1F
100
AcDbEntity
  8
AM_7
  6
AM_ISO08W050x2
100
AcDbLine
 10
2395.358880073104
 20
1640.087483690915
 30
0.0
 11
2395.358880073104
 21
1647.087483690915
 31
0.0
  0
ARC
  5
251E
330
1F
100
AcDbEntity
  8
AM_4
100
AcDbCircle
 10
2395.358880073104
 20
1673.587483690915
 30
0.0
 40
2.5
100
AcDbArc
 50
259.9999999999939
 51
170.0000000000089
  0
CIRCLE
  5
251F
330
1F
100
AcDbEntity
  8
AM_0
100
AcDbCircle
 10
2395.358880073104
 20
1673.587483690915
 30
0.0
 40
2.066987298107819
  0
LINE
  5
2520
330
1F
100
AcDbEntity
  8
AM_7
  6
AM_ISO08W050x2
100
AcDbLine
 10
2391.858880073105
 20
1673.587483690915
 30
0.0
 11
2398.858880073104
 21
1673.587483690915
 31
0.0
  0
LINE
  5
2521
330
1F
100
AcDbEntity
  8
AM_7
  6
AM_ISO08W050x2
100
AcDbLine
 10
2395.358880073104
 20
1670.087483690915
 30
0.0
 11
2395.358880073104
 21
1677.087483690915
 31
0.0
  0
ARC
  5
25B0
330
1F
100
AcDbEntity
  8
AM_4
100
AcDbCircle
 10
2349.358880073105
 20
1665.587483690915
 30
0.0
 40
3.0
100
AcDbArc
 50
260.0
 51
170.0
  0
LINE
  5
25B1
330
1F
100
AcDbEntity
  8
AM_7
  6
AM_ISO08W050x2
100
AcDbLine
 10
2344.358880073105
 20
1665.587483690915
 30
0.0
 11
2354.358880073105
 21
1665.587483690915
 31
0.0
  0
LINE
  5
25B2
330
1F
100
AcDbEntity
  8
AM_7
  6
AM_ISO08W050x2
100
AcDbLine
 10
2349.358880073105
 20
1660.587483690915
 30
0.0
 11
2349.358880073105
 21
1670.587483690915
 31
0.0
  0
CIRCLE
  5
25B3
330
1F
100
AcDbEntity
  8
0
100
AcDbCircle
 10
2349.358880073105
 20
1665.587483690915
 30
0.0
 40
2.649999999999999
  0
ARC
  5
25B4
330
1F
100
AcDbEntity
  8
AM_4
100
AcDbCircle
 10
2377.358880073105
 20
1665.587483690915
 30
0.0
 40
3.0
100
AcDbArc
 50
260.0
 51
170.0
  0
LINE
  5
25B5
330
1F
100
AcDbEntity
  8
AM_7
  6
AM_ISO08W050x2
100
AcDbLine
 10
2372.358880073105
 20
1665.587483690915
 30
0.0
 11
2382.358880073105
 21
1665.587483690915
 31
0.0
  0
LINE
  5
25B6
330
1F
100
AcDbEntity
  8
AM_7
  6
AM_ISO08W050x2
100
AcDbLine
 10
2377.358880073105
 20
1660.587483690915
 30
0.0
 11
2377.358880073105
 21
1670.587483690915
 31
0.0
  0
CIRCLE
  5
25B7
330
1F
100
AcDbEntity
  8
0
100
AcDbCircle
 10
2377.358880073105
 20
1665.587483690915
 30
0.0
 40
2.649999999999999
  0
ARC
  5
25B8
330
1F
100
AcDbEntity
  8
AM_4
100
AcDbCircle
 10
2377.358880073105
 20
1645.587483690915
 30
0.0
 40
3.0
100
AcDbArc
 50
260.0
 51
170.0
  0
LINE
  5
25B9
330
1F
100
AcDbEntity
  8
AM_7
  6
AM_ISO08W050x2
100
AcDbLine
 10
2372.358880073105
 20
1645.587483690915
 30
0.0
 11
2382.358880073105
 21
1645.587483690915
 31
0.0
  0
LINE
  5
25BA
330
1F
100
AcDbEntity
  8
AM_7
  6
AM_ISO08W050x2
100
AcDbLine
 10
2377.358880073105
 20
1640.587483690915
 30
0.0
 11
2377.358880073105
 21
1650.587483690915
 31
0.0
  0
CIRCLE
  5
25BB
330
1F
100
AcDbEntity
  8
0
100
AcDbCircle
 10
2377.358880073105
 20
1645.587483690915
 30
0.0
 40
2.649999999999999
  0
ARC
  5
25BC
330
1F
100
AcDbEntity
  8
AM_4
100
AcDbCircle
 10
2349.358880073105
 20
1645.587483690915
 30
0.0
 40
3.0
100
AcDbArc
 50
260.0
 51
170.0
  0
LINE
  5
25BD
330
1F
100
AcDbEntity
  8
AM_7
  6
AM_ISO08W050x2
100
AcDbLine
 10
2344.358880073105
 20
1645.587483690915
 30
0.0
 11
2354.358880073105
 21
1645.587483690915
 31
0.0
  0
LINE
  5
25BE
330
1F
100
AcDbEntity
  8
AM_7
  6
AM_ISO08W050x2
100
AcDbLine
 10
2349.358880073105
 20
1640.587483690915
 30
0.0
 11
2349.358880073105
 21
1650.587483690915
 31
0.0
  0
CIRCLE
  5
25BF
330
1F
100
AcDbEntity
  8
0
100
AcDbCircle
 10
2349.358880073105
 20
1645.587483690915
 30
0.0
 40
2.649999999999999
  0
ARC
  5
25D9
330
1F
100
AcDbEntity
  8
AM_4
100
AcDbCircle
 10
2144.167343324644
 20
1586.18322293569
 30
0.0
 40
2.5
100
AcDbArc
 50
259.9999999999939
 51
170.0000000000089
  0
CIRCLE
  5
25DA
330
1F
100
AcDbEntity
  8
AM_0
100
AcDbCircle
 10
2144.167343324644
 20
1586.18322293569
 30
0.0
 40
2.066987298107819
  0
LINE
  5
25DB
330
1F
100
AcDbEntity
  8
AM_7
  6
AM_ISO08W050x2
100
AcDbLine
 10
2140.667343324644
 20
1586.18322293569
 30
0.0
 11
2147.667343324644
 21
1586.18322293569
 31
0.0
  0
LINE
  5
25DC
330
1F
100
AcDbEntity
  8
AM_7
  6
AM_ISO08W050x2
100
AcDbLine
 10
2144.167343324644
 20
1582.68322293569
 30
0.0
 11
2144.167343324644
 21
1589.68322293569
 31
0.0
  0
ARC
  5
25DD
330
1F
100
AcDbEntity
  8
AM_4
100
AcDbCircle
 10
2144.167343324644
 20
1560.18322293569
 30
0.0
 40
2.5
100
AcDbArc
 50
259.9999999999939
 51
170.0000000000089
  0
CIRCLE
  5
25DE
330
1F
100
AcDbEntity
  8
AM_0
100
AcDbCircle
 10
2144.167343324644
 20
1560.18322293569
 30
0.0
 40
2.066987298107819
  0
LINE
  5
25DF
330
1F
100
AcDbEntity
  8
AM_7
  6
AM_ISO08W050x2
100
AcDbLine
 10
2140.667343324644
 20
1560.18322293569
 30
0.0
 11
2147.667343324644
 21
1560.18322293569
 31
0.0
  0
LINE
  5
25E0
330
1F
100
AcDbEntity
  8
AM_7
  6
AM_ISO08W050x2
100
AcDbLine
 10
2144.167343324644
 20
1556.68322293569
 30
0.0
 11
2144.167343324644
 21
1563.68322293569
 31
0.0
  0
ARC
  5
25E1
330
1F
100
AcDbEntity
  8
AM_4
100
AcDbCircle
 10
2196.167343324644
 20
1560.18322293569
 30
0.0
 40
2.5
100
AcDbArc
 50
259.9999999999939
 51
170.0000000000089
  0
CIRCLE
  5
25E2
330
1F
100
AcDbEntity
  8
AM_0
100
AcDbCircle
 10
2196.167343324644
 20
1560.18322293569
 30
0.0
 40
2.066987298107819
  0
LINE
  5
25E3
330
1F
100
AcDbEntity
  8
AM_7
  6
AM_ISO08W050x2
100
AcDbLine
 10
2192.667343324644
 20
1560.18322293569
 30
0.0
 11
2199.667343324644
 21
1560.18322293569
 31
0.0
  0
LINE
  5
25E4
330
1F
100
AcDbEntity
  8
AM_7
  6
AM_ISO08W050x2
100
AcDbLine
 10
2196.167343324644
 20
1556.68322293569
 30
0.0
 11
2196.167343324644
 21
1563.68322293569
 31
0.0
  0
ARC
  5
25E5
330
1F
100
AcDbEntity
  8
AM_4
100
AcDbCircle
 10
2196.167343324644
 20
1586.18322293569
 30
0.0
 40
2.5
100
AcDbArc
 50
259.9999999999939
 51
170.0000000000089
  0
CIRCLE
  5
25E6
330
1F
100
AcDbEntity
  8
AM_0
100
AcDbCircle
 10
2196.167343324644
 20
1586.18322293569
 30
0.0
 40
2.066987298107819
  0
LINE
  5
25E7
330
1F
100
AcDbEntity
  8
AM_7
  6
AM_ISO08W050x2
100
AcDbLine
 10
2192.667343324644
 20
1586.18322293569
 30
0.0
 11
2199.667343324644
 21
1586.18322293569
 31
0.0
  0
LINE
  5
25E8
330
1F
100
AcDbEntity
  8
AM_7
  6
AM_ISO08W050x2
100
AcDbLine
 10
2196.167343324644
 20
1582.68322293569
 30
0.0
 11
2196.167343324644
 21
1589.68322293569
 31
0.0
  0
ARC
  5
2603
330
1F
100
AcDbEntity
  8
AM_4
100
AcDbCircle
 10
2140.167343324644
 20
1739.425858825174
 30
0.0
 40
2.5
100
AcDbArc
 50
259.9999999999939
 51
170.0000000000089
  0
CIRCLE
  5
2604
330
1F
100
AcDbEntity
  8
AM_0
100
AcDbCircle
 10
2140.167343324644
 20
1739.425858825174
 30
0.0
 40
2.066987298107819
  0
LINE
  5
2605
330
1F
100
AcDbEntity
  8
AM_7
  6
AM_ISO08W050x2
100
AcDbLine
 10
2136.667343324644
 20
1739.425858825174
 30
0.0
 11
2143.667343324644
 21
1739.425858825174
 31
0.0
  0
LINE
  5
2606
330
1F
100
AcDbEntity
  8
AM_7
  6
AM_ISO08W050x2
100
AcDbLine
 10
2140.167343324644
 20
1735.925858825174
 30
0.0
 11
2140.167343324644
 21
1742.925858825174
 31
0.0
  0
ARC
  5
2607
330
1F
100
AcDbEntity
  8
AM_4
100
AcDbCircle
 10
2140.167343324644
 20
1757.425858825174
 30
0.0
 40
2.5
100
AcDbArc
 50
259.9999999999939
 51
170.0000000000089
  0
CIRCLE
  5
2608
330
1F
100
AcDbEntity
  8
AM_0
100
AcDbCircle
 10
2140.167343324644
 20
1757.425858825174
 30
0.0
 40
2.066987298107819
  0
LINE
  5
2609
330
1F
100
AcDbEntity
  8
AM_7
  6
AM_ISO08W050x2
100
AcDbLine
 10
2136.667343324644
 20
1757.425858825174
 30
0.0
 11
2143.667343324644
 21
1757.425858825174
 31
0.0
  0
LINE
  5
260A
330
1F
100
AcDbEntity
  8
AM_7
  6
AM_ISO08W050x2
100
AcDbLine
 10
2140.167343324644
 20
1753.925858825174
 30
0.0
 11
2140.167343324644
 21
1760.925858825174
 31
0.0
  0
ARC
  5
260B
330
1F
100
AcDbEntity
  8
AM_4
100
AcDbCircle
 10
2200.167343324644
 20
1757.425858825174
 30
0.0
 40
2.5
100
AcDbArc
 50
259.9999999999939
 51
170.0000000000089
  0
CIRCLE
  5
260C
330
1F
100
AcDbEntity
  8
AM_0
100
AcDbCircle
 10
2200.167343324644
 20
1757.425858825174
 30
0.0
 40
2.066987298107819
  0
LINE
  5
260D
330
1F
100
AcDbEntity
  8
AM_7
  6
AM_ISO08W050x2
100
AcDbLine
 10
2196.667343324644
 20
1757.425858825174
 30
0.0
 11
2203.667343324644
 21
1757.425858825174
 31
0.0
  0
LINE
  5
260E
330
1F
100
AcDbEntity
  8
AM_7
  6
AM_ISO08W050x2
100
AcDbLine
 10
2200.167343324644
 20
1753.925858825174
 30
0.0
 11
2200.167343324644
 21
1760.925858825174
 31
0.0
  0
ARC
  5
260F
330
1F
100
AcDbEntity
  8
AM_4
100
AcDbCircle
 10
2200.167343324644
 20
1739.425858825174
 30
0.0
 40
2.5
100
AcDbArc
 50
259.9999999999939
 51
170.0000000000089
  0
CIRCLE
  5
2610
330
1F
100
AcDbEntity
  8
AM_0
100
AcDbCircle
 10
2200.167343324644
 20
1739.425858825174
 30
0.0
 40
2.066987298107819
  0
LINE
  5
2611
330
1F
100
AcDbEntity
  8
AM_7
  6
AM_ISO08W050x2
100
AcDbLine
 10
2196.667343324644
 20
1739.425858825174
 30
0.0
 11
2203.667343324644
 21
1739.425858825174
 31
0.0
  0
LINE
  5
2612
330
1F
100
AcDbEntity
  8
AM_7
  6
AM_ISO08W050x2
100
AcDbLine
 10
2200.167343324644
 20
1735.925858825174
 30
0.0
 11
2200.167343324644
 21
1742.925858825174
 31
0.0
  0
CIRCLE
  5
262C
330
1F
100
AcDbEntity
  8
0
100
AcDbCircle
 10
2142.667343324644
 20
1573.18322293569
 30
0.0
 40
6.0
  0
CIRCLE
  5
262D
330
1F
100
AcDbEntity
  8
0
100
AcDbCircle
 10
2197.667343324644
 20
1573.18322293569
 30
0.0
 40
6.0
  0
LINE
  5
263B
330
1F
100
AcDbEntity
  8
AM_7
  6
AM_ISO08W050x2
100
AcDbLine
 10
2142.667343324644
 20
1573.18322293569
 30
0.0
 11
2150.667343324644
 21
1573.18322293569
 31
0.0
1001
GENIUS_GENOREF_13
1005
263F
  0
LINE
  5
263C
330
1F
100
AcDbEntity
  8
AM_7
  6
AM_ISO08W050x2
100
AcDbLine
 10
2142.667343324644
 20
1573.18322293569
 30
0.0
 11
2142.667343324644
 21
1581.18322293569
 31
0.0
1001
GENIUS_GENOREF_13
1005
263F
  0
LINE
  5
263D
330
1F
100
AcDbEntity
  8
AM_7
  6
AM_ISO08W050x2
100
AcDbLine
 10
2142.667343324644
 20
1573.18322293569
 30
0.0
 11
2134.667343324644
 21
1573.18322293569
 31
0.0
1001
GENIUS_GENOREF_13
1005
263F
  0
LINE
  5
263E
330
1F
100
AcDbEntity
  8
AM_7
  6
AM_ISO08W050x2
100
AcDbLine
 10
2142.667343324644
 20
1573.18322293569
 30
0.0
 11
2142.667343324644
 21
1565.18322293569
 31
0.0
1001
GENIUS_GENOREF_13
1005
263F
  0
POINT
  5
263F
330
1F
100
AcDbEntity
  8
0
 60
     1
100
AcDbPoint
 10
0.0
 20
0.0
 30
0.0
1001
GENIUS_GENOBJ-N-CRS_13
1002
{
1000
OWNER
1000
GEN
1002
}
1001
GENIUS_GENOENT_13
1002
{
1000
MYREF
1005
263F
1002
}
1002
{
1000
GRP
1005
0
1002
}
1001
GENIUS_GENODEF_13
1002
{
1000
HIER
1070
    10
1002
}
1002
{
1000
MANEDIT
1070
     0
1002
}
1002
{
1000
NOSEL
1070
     0
1002
}
1002
{
1000
BEHIND
1070
     0
1002
}
1002
{
1000
OTHER
1070
     0
1002
}
1002
{
1000
REACTOR
1002
}
1001
GENIUS_GENOLIS_13
1002
{
1000
ENT
1005
263E
1005
263D
1005
263C
1005
263B
1002
}
  0
LINE
  5
264F
330
1F
100
AcDbEntity
  8
AM_7
  6
AM_ISO08W050x2
100
AcDbLine
 10
2197.667343324644
 20
1573.18322293569
 30
0.0
 11
2205.667343324644
 21
1573.18322293569
 31
0.0
1001
GENIUS_GENOREF_13
1005
2653
  0
LINE
  5
2650
330
1F
100
AcDbEntity
  8
AM_7
  6
AM_ISO08W050x2
100
AcDbLine
 10
2197.667343324644
 20
1573.18322293569
 30
0.0
 11
2197.667343324644
 21
1581.18322293569
 31
0.0
1001
GENIUS_GENOREF_13
1005
2653
  0
LINE
  5
2651
330
1F
100
AcDbEntity
  8
AM_7
  6
AM_ISO08W050x2
100
AcDbLine
 10
2197.667343324644
 20
1573.18322293569
 30
0.0
 11
2189.667343324644
 21
1573.18322293569
 31
0.0
1001
GENIUS_GENOREF_13
1005
2653
  0
LINE
  5
2652
330
1F
100
AcDbEntity
  8
AM_7
  6
AM_ISO08W050x2
100
AcDbLine
 10
2197.667343324644
 20
1573.18322293569
 30
0.0
 11
2197.667343324644
 21
1565.18322293569
 31
0.0
1001
GENIUS_GENOREF_13
1005
2653
  0
POINT
  5
2653
330
1F
100
AcDbEntity
  8
0
 60
     1
100
AcDbPoint
 10
0.0
 20
0.0
 30
0.0
1001
GENIUS_GENODEF_13
1002
{
1000
HIER
1070
    10
1002
}
1002
{
1000
MANEDIT
1070
     0
1002
}
1002
{
1000
NOSEL
1070
     0
1002
}
1002
{
1000
BEHIND
1070
     0
1002
}
1002
{
1000
OTHER
1070
     0
1002
}
1002
{
1000
REACTOR
1002
}
1001
GENIUS_GENOLIS_13
1002
{
1000
ENT
1005
2652
1005
2651
1005
2650
1005
264F
1002
}
1001
GENIUS_GENOBJ-N-CRS_13
1002
{
1000
OWNER
1000
GEN
1002
}
1001
GENIUS_GENOENT_13
1002
{
1000
MYREF
1005
2653
1002
}
1002
{
1000
GRP
1005
0
1002
}
  0
LINE
  5
2679
330
1F
100
AcDbEntity
  8
AM_7
  6
AM_ISO08W050x2
100
AcDbLine
 10
2142.667343324644
 20
1688.587483690915
 30
0.0
 11
2142.667343324644
 21
1682.587483690915
 31
0.0
1001
GENIUS_GENODEF_13
1002
{
1000
HIER
1070
     0
1002
}
1002
{
1000
MANEDIT
1070
     0
1002
}
1002
{
1000
NOSEL
1070
     0
1002
}
1002
{
1000
BEHIND
1070
     0
1002
}
1002
{
1000
OTHER
1070
     0
1002
}
1002
{
1000
REACTOR
1002
}
1001
GENIUS_GENOBJ-N-CEN_13
1002
{
1000
OWNER
1000
GEN
1002
}
1001
GENIUS_GENCEN_19
1002
{
1040
2.0
1002
}
  0
LINE
  5
267A
330
1F
100
AcDbEntity
  8
AM_7
  6
AM_ISO08W050x2
100
AcDbLine
 10
2197.667343324644
 20
1688.587483690915
 30
0.0
 11
2197.667343324644
 21
1682.587483690915
 31
0.0
1001
GENIUS_GENODEF_13
1002
{
1000
HIER
1070
     0
1002
}
1002
{
1000
MANEDIT
1070
     0
1002
}
1002
{
1000
NOSEL
1070
     0
1002
}
1002
{
1000
BEHIND
1070
     0
1002
}
1002
{
1000
OTHER
1070
     0
1002
}
1002
{
1000
REACTOR
1002
}
1001
GENIUS_GENOBJ-N-CEN_13
1002
{
1000
OWNER
1000
GEN
1002
}
1001
GENIUS_GENCEN_19
1002
{
1040
2.0
1002
}
  0
LINE
  5
2687
330
1F
100
AcDbEntity
  8
AM_7
  6
AM_ISO08W050x2
100
AcDbLine
 10
2170.167343324644
 20
1688.587483690915
 30
0.0
 11
2170.167343324644
 21
1682.587483690915
 31
0.0
1001
GENIUS_GENODEF_13
1002
{
1000
HIER
1070
     0
1002
}
1002
{
1000
MANEDIT
1070
     0
1002
}
1002
{
1000
NOSEL
1070
     0
1002
}
1002
{
1000
BEHIND
1070
     0
1002
}
1002
{
1000
OTHER
1070
     0
1002
}
1002
{
1000
REACTOR
1002
}
1001
GENIUS_GENOBJ-N-CEN_13
1002
{
1000
OWNER
1000
GEN
1002
}
1001
GENIUS_GENCEN_19
1002
{
1040
2.0
1002
}
  0
LINE
  5
2688
330
1F
100
AcDbEntity
  8
AM_7
  6
AM_ISO08W050x2
100
AcDbLine
 10
2077.198757787485
 20
1688.587483690915
 30
0.0
 11
2077.198757787485
 21
1682.587483690915
 31
0.0
1001
GENIUS_GENODEF_13
1002
{
1000
HIER
1070
     0
1002
}
1002
{
1000
MANEDIT
1070
     0
1002
}
1002
{
1000
NOSEL
1070
     0
1002
}
1002
{
1000
BEHIND
1070
     0
1002
}
1002
{
1000
OTHER
1070
     0
1002
}
1002
{
1000
REACTOR
1002
}
1001
GENIUS_GENOBJ-N-CEN_13
1002
{
1000
OWNER
1000
GEN
1002
}
1001
GENIUS_GENCEN_19
1002
{
1040
2.0
1002
}
  0
LINE
  5
2689
330
1F
100
AcDbEntity
  8
AM_7
  6
AM_ISO08W050x2
100
AcDbLine
 10
2278.464026451329
 20
1688.587483690915
 30
0.0
 11
2278.464026451329
 21
1682.587483690915
 31
0.0
1001
GENIUS_GENODEF_13
1002
{
1000
HIER
1070
     0
1002
}
1002
{
1000
MANEDIT
1070
     0
1002
}
1002
{
1000
NOSEL
1070
     0
1002
}
1002
{
1000
BEHIND
1070
     0
1002
}
1002
{
1000
OTHER
1070
     0
1002
}
1002
{
1000
REACTOR
1002
}
1001
GENIUS_GENOBJ-N-CEN_13
1002
{
1000
OWNER
1000
GEN
1002
}
1001
GENIUS_GENCEN_19
1002
{
1040
2.0
1002
}
  0
LINE
  5
268A
330
1F
100
AcDbEntity
  8
AM_7
  6
AM_ISO08W050x2
100
AcDbLine
 10
2335.858880073105
 20
1688.587483690915
 30
0.0
 11
2335.858880073105
 21
1682.587483690915
 31
0.0
1001
GENIUS_GENODEF_13
1002
{
1000
HIER
1070
     0
1002
}
1002
{
1000
MANEDIT
1070
     0
1002
}
1002
{
1000
NOSEL
1070
     0
1002
}
1002
{
1000
BEHIND
1070
     0
1002
}
1002
{
1000
OTHER
1070
     0
1002
}
1002
{
1000
REACTOR
1002
}
1001
GENIUS_GENOBJ-N-CEN_13
1002
{
1000
OWNER
1000
GEN
1002
}
1001
GENIUS_GENCEN_19
1002
{
1040
2.0
1002
}
  0
LINE
  5
268B
330
1F
100
AcDbEntity
  8
AM_7
  6
AM_ISO08W050x2
100
AcDbLine
 10
2390.858880073105
 20
1688.587483690915
 30
0.0
 11
2390.858880073105
 21
1682.587483690915
 31
0.0
1001
GENIUS_GENODEF_13
1002
{
1000
HIER
1070
     0
1002
}
1002
{
1000
MANEDIT
1070
     0
1002
}
1002
{
1000
NOSEL
1070
     0
1002
}
1002
{
1000
BEHIND
1070
     0
1002
}
1002
{
1000
OTHER
1070
     0
1002
}
1002
{
1000
REACTOR
1002
}
1001
GENIUS_GENOBJ-N-CEN_13
1002
{
1000
OWNER
1000
GEN
1002
}
1001
GENIUS_GENCEN_19
1002
{
1040
2.0
1002
}
  0
LINE
  5
268C
330
1F
100
AcDbEntity
  8
AM_7
  6
AM_ISO08W050x2
100
AcDbLine
 10
2363.358880073104
 20
1688.587483690915
 30
0.0
 11
2363.358880073104
 21
1682.587483690915
 31
0.0
1001
GENIUS_GENODEF_13
1002
{
1000
HIER
1070
     0
1002
}
1002
{
1000
MANEDIT
1070
     0
1002
}
1002
{
1000
NOSEL
1070
     0
1002
}
1002
{
1000
BEHIND
1070
     0
1002
}
1002
{
1000
OTHER
1070
     0
1002
}
1002
{
1000
REACTOR
1002
}
1001
GENIUS_GENOBJ-N-CEN_13
1002
{
1000
OWNER
1000
GEN
1002
}
1001
GENIUS_GENCEN_19
1002
{
1040
2.0
1002
}
  0
LINE
  5
268E
330
1F
100
AcDbEntity
  8
0
 62
     2
100
AcDbLine
 10
2148.667343324644
 20
1615.587483690915
 30
0.0
 11
2148.667343324644
 21
1629.587483690915
 31
0.0
  0
LINE
  5
268F
330
1F
100
AcDbEntity
  8
0
 62
     2
100
AcDbLine
 10
2136.667343324644
 20
1615.587483690915
 30
0.0
 11
2136.667343324644
 21
1629.587483690915
 31
0.0
  0
LINE
  5
2690
330
1F
100
AcDbEntity
  8
AM_7
  6
AM_ISO08W050x2
100
AcDbLine
 10
2142.667343324644
 20
1631.587483690915
 30
0.0
 11
2142.667343324644
 21
1613.587483690915
 31
0.0
1001
GENIUS_GENODEF_13
1002
{
1000
HIER
1070
     0
1002
}
1002
{
1000
MANEDIT
1070
     0
1002
}
1002
{
1000
NOSEL
1070
     0
1002
}
1002
{
1000
BEHIND
1070
     0
1002
}
1002
{
1000
OTHER
1070
     0
1002
}
1002
{
1000
REACTOR
1002
}
1001
GENIUS_GENOBJ-N-CEN_13
1002
{
1000
OWNER
1000
GEN
1002
}
1001
GENIUS_GENCEN_19
1002
{
1040
2.0
1002
}
  0
LINE
  5
2691
330
1F
100
AcDbEntity
  8
0
 62
     2
100
AcDbLine
 10
2136.667343324644
 20
1615.587483690915
 30
0.0
 11
2148.667343324644
 21
1615.587483690915
 31
0.0
  0
LINE
  5
2692
330
1F
100
AcDbEntity
  8
0
 62
     2
100
AcDbLine
 10
2191.667343324644
 20
1615.587483690915
 30
0.0
 11
2191.667343324644
 21
1629.587483690915
 31
0.0
  0
LINE
  5
2693
330
1F
100
AcDbEntity
  8
0
 62
     2
100
AcDbLine
 10
2203.667343324644
 20
1615.587483690915
 30
0.0
 11
2203.667343324644
 21
1629.587483690915
 31
0.0
  0
LINE
  5
2694
330
1F
100
AcDbEntity
  8
AM_7
  6
AM_ISO08W050x2
100
AcDbLine
 10
2197.667343324643
 20
1631.587483690915
 30
0.0
 11
2197.667343324643
 21
1613.587483690915
 31
0.0
1001
GENIUS_GENODEF_13
1002
{
1000
HIER
1070
     0
1002
}
1002
{
1000
MANEDIT
1070
     0
1002
}
1002
{
1000
NOSEL
1070
     0
1002
}
1002
{
1000
BEHIND
1070
     0
1002
}
1002
{
1000
OTHER
1070
     0
1002
}
1002
{
1000
REACTOR
1002
}
1001
GENIUS_GENOBJ-N-CEN_13
1002
{
1000
OWNER
1000
GEN
1002
}
1001
GENIUS_GENCEN_19
1002
{
1040
2.0
1002
}
  0
LINE
  5
2695
330
1F
100
AcDbEntity
  8
0
 62
     2
100
AcDbLine
 10
2203.667343324644
 20
1615.587483690915
 30
0.0
 11
2191.667343324644
 21
1615.587483690915
 31
0.0
  0
LINE
  5
2696
330
1F
100
AcDbEntity
  8
0
 62
     2
100
AcDbLine
 10
2272.464026451329
 20
1615.587483690915
 30
0.0
 11
2272.464026451329
 21
1629.587483690915
 31
0.0
  0
LINE
  5
2697
330
1F
100
AcDbEntity
  8
0
 62
     2
100
AcDbLine
 10
2284.464026451329
 20
1615.587483690915
 30
0.0
 11
2284.464026451329
 21
1629.587483690915
 31
0.0
  0
LINE
  5
2698
330
1F
100
AcDbEntity
  8
AM_7
  6
AM_ISO08W050x2
100
AcDbLine
 10
2278.464026451329
 20
1631.587483690915
 30
0.0
 11
2278.464026451329
 21
1613.587483690915
 31
0.0
1001
GENIUS_GENODEF_13
1002
{
1000
HIER
1070
     0
1002
}
1002
{
1000
MANEDIT
1070
     0
1002
}
1002
{
1000
NOSEL
1070
     0
1002
}
1002
{
1000
BEHIND
1070
     0
1002
}
1002
{
1000
OTHER
1070
     0
1002
}
1002
{
1000
REACTOR
1002
}
1001
GENIUS_GENOBJ-N-CEN_13
1002
{
1000
OWNER
1000
GEN
1002
}
1001
GENIUS_GENCEN_19
1002
{
1040
2.0
1002
}
  0
LINE
  5
2699
330
1F
100
AcDbEntity
  8
0
 62
     2
100
AcDbLine
 10
2284.464026451329
 20
1615.587483690915
 30
0.0
 11
2272.464026451329
 21
1615.587483690915
 31
0.0
  0
LINE
  5
269A
330
1F
100
AcDbEntity
  8
0
 62
     2
100
AcDbLine
 10
2071.198757787485
 20
1615.587483690915
 30
0.0
 11
2071.198757787485
 21
1629.587483690915
 31
0.0
  0
LINE
  5
269B
330
1F
100
AcDbEntity
  8
0
 62
     2
100
AcDbLine
 10
2083.198757787485
 20
1615.587483690915
 30
0.0
 11
2083.198757787485
 21
1629.587483690915
 31
0.0
  0
LINE
  5
269C
330
1F
100
AcDbEntity
  8
AM_7
  6
AM_ISO08W050x2
100
AcDbLine
 10
2077.198757787484
 20
1631.587483690915
 30
0.0
 11
2077.198757787484
 21
1613.587483690915
 31
0.0
1001
GENIUS_GENODEF_13
1002
{
1000
HIER
1070
     0
1002
}
1002
{
1000
MANEDIT
1070
     0
1002
}
1002
{
1000
NOSEL
1070
     0
1002
}
1002
{
1000
BEHIND
1070
     0
1002
}
1002
{
1000
OTHER
1070
     0
1002
}
1002
{
1000
REACTOR
1002
}
1001
GENIUS_GENOBJ-N-CEN_13
1002
{
1000
OWNER
1000
GEN
1002
}
1001
GENIUS_GENCEN_19
1002
{
1040
2.0
1002
}
  0
LINE
  5
269D
330
1F
100
AcDbEntity
  8
0
 62
     2
100
AcDbLine
 10
2083.198757787485
 20
1615.587483690915
 30
0.0
 11
2071.198757787485
 21
1615.587483690915
 31
0.0
  0
LINE
  5
269E
330
1F
100
AcDbEntity
  8
0
 62
     2
100
AcDbLine
 10
2341.858880073104
 20
1615.587483690915
 30
0.0
 11
2341.858880073104
 21
1629.587483690915
 31
0.0
  0
LINE
  5
269F
330
1F
100
AcDbEntity
  8
0
 62
     2
100
AcDbLine
 10
2329.858880073105
 20
1615.587483690915
 30
0.0
 11
2329.858880073105
 21
1629.587483690915
 31
0.0
  0
LINE
  5
26A0
330
1F
100
AcDbEntity
  8
AM_7
  6
AM_ISO08W050x2
100
AcDbLine
 10
2335.858880073105
 20
1631.587483690915
 30
0.0
 11
2335.858880073105
 21
1613.587483690915
 31
0.0
1001
GENIUS_GENODEF_13
1002
{
1000
HIER
1070
     0
1002
}
1002
{
1000
MANEDIT
1070
     0
1002
}
1002
{
1000
NOSEL
1070
     0
1002
}
1002
{
1000
BEHIND
1070
     0
1002
}
1002
{
1000
OTHER
1070
     0
1002
}
1002
{
1000
REACTOR
1002
}
1001
GENIUS_GENOBJ-N-CEN_13
1002
{
1000
OWNER
1000
GEN
1002
}
1001
GENIUS_GENCEN_19
1002
{
1040
2.0
1002
}
  0
LINE
  5
26A1
330
1F
100
AcDbEntity
  8
0
 62
     2
100
AcDbLine
 10
2329.858880073105
 20
1615.587483690915
 30
0.0
 11
2341.858880073104
 21
1615.587483690915
 31
0.0
  0
LINE
  5
26A2
330
1F
100
AcDbEntity
  8
0
 62
     2
100
AcDbLine
 10
2384.858880073104
 20
1615.587483690915
 30
0.0
 11
2384.858880073104
 21
1629.587483690915
 31
0.0
  0
LINE
  5
26A3
330
1F
100
AcDbEntity
  8
0
 62
     2
100
AcDbLine
 10
2396.858880073104
 20
1615.587483690915
 30
0.0
 11
2396.858880073104
 21
1629.587483690915
 31
0.0
  0
LINE
  5
26A4
330
1F
100
AcDbEntity
  8
AM_7
  6
AM_ISO08W050x2
100
AcDbLine
 10
2390.858880073104
 20
1631.587483690915
 30
0.0
 11
2390.858880073104
 21
1613.587483690915
 31
0.0
1001
GENIUS_GENODEF_13
1002
{
1000
HIER
1070
     0
1002
}
1002
{
1000
MANEDIT
1070
     0
1002
}
1002
{
1000
NOSEL
1070
     0
1002
}
1002
{
1000
BEHIND
1070
     0
1002
}
1002
{
1000
OTHER
1070
     0
1002
}
1002
{
1000
REACTOR
1002
}
1001
GENIUS_GENOBJ-N-CEN_13
1002
{
1000
OWNER
1000
GEN
1002
}
1001
GENIUS_GENCEN_19
1002
{
1040
2.0
1002
}
  0
LINE
  5
26A5
330
1F
100
AcDbEntity
  8
0
 62
     2
100
AcDbLine
 10
2396.858880073104
 20
1615.587483690915
 30
0.0
 11
2384.858880073104
 21
1615.587483690915
 31
0.0
  0
DIMENSION
  5
26A6
330
1F
100
AcDbEntity
  8
AM_5
100
AcDbDimension
  2
*D5
 10
2231.667343324645
 20
1629.587483690915
 30
0.0
 11
2231.667343324645
 21
1622.587483690915
 31
0.0
 70
   160
  1
L2
 71
     5
 42
14.0
  3
AM_ISO$0
100
AcDbAlignedDimension
 13
2203.667343324644
 23
1615.587483690915
 33
0.0
 14
2212.667343324644
 24
1629.587483690915
 34
0.0
 50
90.0
100
AcDbRotatedDimension
1001
ACAD
1000
DSTYLE
1002
{
1070
    40
1040
1.0
1070
   144
1040
1.0
1070
   272
1070
     8
1002
}
  0
DIMENSION
  5
26A7
330
1F
100
AcDbEntity
  8
AM_5
100
AcDbDimension
  2
*D6
 10
2224.667343324644
 20
1684.587483690915
 30
0.0
 11
2222.167343324644
 21
1657.087483690915
 31
0.0
 70
    32
  1
L1
 71
     5
 42
55.0
  3
AM_ISO$0
100
AcDbAlignedDimension
 13
2212.667343324644
 23
1629.587483690915
 33
0.0
 14
2212.667343324644
 24
1684.587483690915
 34
0.0
 50
90.0
100
AcDbRotatedDimension
1001
ACAD
1000
DSTYLE
1002
{
1070
    40
1040
1.0
1070
   144
1040
1.0
1070
   272
1070
     8
1002
}
  0
DIMENSION
  5
26A8
330
1F
100
AcDbEntity
  8
AM_5
100
AcDbDimension
  2
*D7
 10
2231.667343324644
 20
1696.387483690915
 30
0.0
 11
2229.167343324643
 21
1662.987483690915
 31
0.0
 70
    32
  1
L
 71
     5
 42
66.79999999999996
  3
AM_ISO$0
100
AcDbAlignedDimension
 13
2212.667343324644
 23
1629.587483690915
 33
0.0
 14
2205.667343324644
 24
1696.387483690915
 34
0.0
 50
90.0
100
AcDbRotatedDimension
1001
ACAD
1000
DSTYLE
1002
{
1070
    40
1040
1.0
1070
   144
1040
1.0
1070
   272
1070
     8
1002
}
  0
INSERT
  5
2727
330
1F
100
AcDbEntity
  8
AM_5
100
AcDbBlockReference
  2
*S12
 10
0.0
 20
0.0
 30
0.0
  0
TEXT
  5
2728
330
1F
100
AcDbEntity
  8
AM_5
100
AcDbText
 10
2100.668922983393
 20
1622.704633612205
 30
0.0
 40
3.0
  1
PT1/8
100
AcDbText
  0
LINE
  5
2E3A
330
1F
100
AcDbEntity
  8
AM_VIS
100
AcDbLine
 10
2358.358880073105
 20
1686.587483690915
 30
0.0
 11
2358.358880073105
 21
1684.587483690915
 31
0.0
  0
LINE
  5
2E3B
330
1F
100
AcDbEntity
  8
AM_VIS
100
AcDbLine
 10
2368.358880073104
 20
1684.587483690915
 30
0.0
 11
2368.358880073104
 21
1686.587483690915
 31
0.0
  0
LINE
  5
2E59
330
1F
100
AcDbEntity
  8
AM_VIS
100
AcDbLine
 10
2165.167343324644
 20
1396.120054398174
 30
0.0
 11
2165.167343324644
 21
1394.120054398175
 31
0.0
  0
LINE
  5
2E5A
330
1F
100
AcDbEntity
  8
AM_VIS
100
AcDbLine
 10
2175.167343324644
 20
1394.120054398175
 30
0.0
 11
2175.167343324644
 21
1396.120054398174
 31
0.0
  0
LINE
  5
2E5D
330
1F
100
AcDbEntity
  8
AM_VIS
100
AcDbLine
 10
2205.667343324644
 20
1405.920054398175
 30
0.0
 11
2206.167343324644
 21
1405.420054398175
 31
0.0
  0
LINE
  5
2E5E
330
1F
100
AcDbEntity
  8
AM_VIS
100
AcDbLine
 10
2206.167343324644
 20
1396.620054398175
 30
0.0
 11
2206.167343324644
 21
1405.420054398175
 31
0.0
  0
LINE
  5
2E5F
330
1F
100
AcDbEntity
  8
AM_VIS
100
AcDbLine
 10
2206.167343324644
 20
1396.620054398175
 30
0.0
 11
2205.667343324644
 21
1396.120054398174
 31
0.0
  0
LINE
  5
2E60
330
1F
100
AcDbEntity
  8
AM_VIS
100
AcDbLine
 10
2134.167343324644
 20
1405.420054398175
 30
0.0
 11
2134.167343324644
 21
1396.620054398175
 31
0.0
  0
LINE
  5
2E61
330
1F
100
AcDbEntity
  8
AM_VIS
100
AcDbLine
 10
2134.167343324644
 20
1405.420054398175
 30
0.0
 11
2134.667343324644
 21
1405.920054398175
 31
0.0
  0
LINE
  5
2E62
330
1F
100
AcDbEntity
  8
AM_VIS
100
AcDbLine
 10
2134.667343324644
 20
1396.120054398174
 30
0.0
 11
2134.167343324644
 21
1396.620054398175
 31
0.0
  0
LINE
  5
2E63
330
1F
100
AcDbEntity
  8
AM_VIS
100
AcDbLine
 10
2205.667343324644
 20
1405.920054398175
 30
0.0
 11
2134.667343324644
 21
1405.920054398175
 31
0.0
  0
LINE
  5
2E64
330
1F
100
AcDbEntity
  8
AM_VIS
100
AcDbLine
 10
2134.667343324644
 20
1396.120054398174
 30
0.0
 11
2205.667343324644
 21
1396.120054398174
 31
0.0
  0
LINE
  5
2E65
330
1F
100
AcDbEntity
  8
AM_VIS
100
AcDbLine
 10
2180.267343324644
 20
1394.120054398175
 30
0.0
 11
2180.267343324644
 21
1377.831603770766
 31
0.0
  0
LINE
  5
2E66
330
1F
100
AcDbEntity
  8
AM_VIS
100
AcDbLine
 10
2175.867343324644
 20
1394.120054398175
 30
0.0
 11
2175.867343324644
 21
1339.120054398175
 31
0.0
  0
LINE
  5
2E67
330
1F
100
AcDbEntity
  8
AM_VIS
100
AcDbLine
 10
2172.467343324644
 20
1339.120054398175
 30
0.0
 11
2172.467343324644
 21
1394.120054398175
 31
0.0
  0
LINE
  5
2E68
330
1F
100
AcDbEntity
  8
AM_VIS
100
AcDbLine
 10
2167.867343324644
 20
1394.120054398175
 30
0.0
 11
2167.867343324644
 21
1339.120054398175
 31
0.0
  0
LINE
  5
2E69
330
1F
100
AcDbEntity
  8
AM_VIS
100
AcDbLine
 10
2212.667343324644
 20
1339.120054398175
 30
0.0
 11
2212.667343324644
 21
1394.120054398175
 31
0.0
  0
LINE
  5
2E6A
330
1F
100
AcDbEntity
  8
AM_VIS
100
AcDbLine
 10
2180.267343324644
 20
1394.120054398175
 30
0.0
 11
2182.167343324644
 21
1394.120054398175
 31
0.0
  0
LINE
  5
2E6B
330
1F
100
AcDbEntity
  8
AM_VIS
100
AcDbLine
 10
2175.867343324644
 20
1394.120054398175
 30
0.0
 11
2180.267343324644
 21
1394.120054398175
 31
0.0
  0
LINE
  5
2E6C
330
1F
100
AcDbEntity
  8
AM_VIS
100
AcDbLine
 10
2173.717343324644
 20
1394.120054398175
 30
0.0
 11
2174.617343324644
 21
1394.120054398175
 31
0.0
  0
LINE
  5
2E6D
330
1F
100
AcDbEntity
  8
AM_VIS
100
AcDbLine
 10
2167.867343324644
 20
1394.120054398175
 30
0.0
 11
2172.467343324644
 21
1394.120054398175
 31
0.0
  0
LINE
  5
2E6E
330
1F
100
AcDbEntity
  8
AM_VIS
100
AcDbLine
 10
2165.717343324644
 20
1394.120054398175
 30
0.0
 11
2166.617343324643
 21
1394.120054398175
 31
0.0
  0
LINE
  5
2E6F
330
1F
100
AcDbEntity
  8
AM_VIS
100
AcDbLine
 10
2158.167343324643
 20
1394.120054398175
 30
0.0
 11
2160.067343324644
 21
1394.120054398175
 31
0.0
  0
ARC
  5
2E70
330
1F
100
AcDbEntity
  8
AM_VIS
100
AcDbCircle
 10
2156.167343324644
 20
1355.120054398175
 30
0.0
 40
4.75
100
AcDbArc
 50
294.9010623703813
 51
325.1903054471692
  0
LINE
  5
2E71
330
1F
100
AcDbEntity
  8
AM_VIS
100
AcDbLine
 10
2180.267343324644
 20
1372.408505025583
 30
0.0
 11
2180.267343324644
 21
1357.831603770766
 31
0.0
  0
LINE
  5
2E72
330
1F
100
AcDbEntity
  8
AM_VIS
100
AcDbLine
 10
2180.267343324644
 20
1352.408505025583
 30
0.0
 11
2180.267343324644
 21
1339.120054398175
 31
0.0
  0
LINE
  5
2E73
330
1F
100
AcDbEntity
  8
AM_VIS
100
AcDbLine
 10
2182.167343324644
 20
1394.120054398175
 30
0.0
 11
2182.167343324644
 21
1379.428476383078
 31
0.0
  0
LINE
  5
2E74
330
1F
100
AcDbEntity
  8
AM_VIS
100
AcDbLine
 10
2211.667343324644
 20
1394.120054398175
 30
0.0
 11
2182.167343324644
 21
1394.120054398175
 31
0.0
  0
LINE
  5
2E75
330
1F
100
AcDbEntity
  8
AM_VIS
100
AcDbLine
 10
2182.167343324644
 20
1350.811632413271
 30
0.0
 11
2182.167343324644
 21
1339.120054398175
 31
0.0
  0
LINE
  5
2E76
330
1F
100
AcDbEntity
  8
AM_VIS
100
AcDbLine
 10
2182.167343324644
 20
1370.811632413271
 30
0.0
 11
2182.167343324644
 21
1359.428476383078
 31
0.0
  0
ARC
  5
2E77
330
1F
100
AcDbEntity
  8
AM_VIS
100
AcDbCircle
 10
2156.167343324644
 20
1355.120054398175
 30
0.0
 40
4.75
100
AcDbArc
 50
34.80969455283082
 51
65.09893762961865
  0
LINE
  5
2E78
330
1F
100
AcDbEntity
  8
AM_VIS
100
AcDbLine
 10
2160.067343324644
 20
1394.120054398175
 30
0.0
 11
2160.067343324644
 21
1377.831603770766
 31
0.0
  0
LINE
  5
2E79
330
1F
100
AcDbEntity
  8
AM_VIS
100
AcDbLine
 10
2160.067343324644
 20
1394.120054398175
 30
0.0
 11
2164.467343324644
 21
1394.120054398175
 31
0.0
  0
LINE
  5
2E7A
330
1F
100
AcDbEntity
  8
AM_VIS
100
AcDbLine
 10
2164.467343324644
 20
1339.120054398175
 30
0.0
 11
2164.467343324644
 21
1394.120054398175
 31
0.0
  0
LINE
  5
2E7B
330
1F
100
AcDbEntity
  8
AM_VIS
100
AcDbLine
 10
2160.067343324644
 20
1352.408505025583
 30
0.0
 11
2160.067343324644
 21
1339.120054398175
 31
0.0
  0
LINE
  5
2E7C
330
1F
100
AcDbEntity
  8
AM_VIS
100
AcDbLine
 10
2160.067343324644
 20
1372.408505025583
 30
0.0
 11
2160.067343324644
 21
1357.831603770766
 31
0.0
  0
ARC
  5
2E7D
330
1F
100
AcDbEntity
  8
AM_VIS
100
AcDbCircle
 10
2184.167343324644
 20
1355.120054398175
 30
0.0
 40
4.75
100
AcDbArc
 50
214.8096945528308
 51
245.0989376296186
  0
ARC
  5
2E7E
330
1F
100
AcDbEntity
  8
AM_VIS
100
AcDbCircle
 10
2184.167343324644
 20
1355.120054398175
 30
0.0
 40
4.75
100
AcDbArc
 50
114.9010623703814
 51
145.1903054471691
  0
ARC
  5
2E7F
330
1F
100
AcDbEntity
  8
AM_VIS
100
AcDbCircle
 10
2156.167343324644
 20
1375.120054398174
 30
0.0
 40
4.75
100
AcDbArc
 50
294.9010623703578
 51
325.1903054471692
  0
ARC
  5
2E80
330
1F
100
AcDbEntity
  8
AM_VIS
100
AcDbCircle
 10
2156.167343324644
 20
1375.120054398174
 30
0.0
 40
4.75
100
AcDbArc
 50
34.80969455283082
 51
65.09893762964226
  0
ARC
  5
2E81
330
1F
100
AcDbEntity
  8
AM_VIS
100
AcDbCircle
 10
2184.167343324644
 20
1375.120054398174
 30
0.0
 40
4.75
100
AcDbArc
 50
214.8096945528308
 51
245.0989376296186
  0
ARC
  5
2E82
330
1F
100
AcDbEntity
  8
AM_VIS
100
AcDbCircle
 10
2184.167343324644
 20
1375.120054398174
 30
0.0
 40
4.75
100
AcDbArc
 50
114.9010623703814
 51
145.1903054471691
  0
LINE
  5
2E83
330
1F
100
AcDbEntity
  8
AM_VIS
100
AcDbLine
 10
2158.167343324643
 20
1359.428476383078
 30
0.0
 11
2158.167343324643
 21
1370.811632413271
 31
0.0
  0
LINE
  5
2E84
330
1F
100
AcDbEntity
  8
AM_VIS
100
AcDbLine
 10
2158.167343324643
 20
1339.120054398175
 30
0.0
 11
2158.167343324643
 21
1350.811632413271
 31
0.0
  0
LINE
  5
2E85
330
1F
100
AcDbEntity
  8
AM_VIS
100
AcDbLine
 10
2158.167343324643
 20
1394.120054398175
 30
0.0
 11
2128.667343324644
 21
1394.120054398175
 31
0.0
  0
LINE
  5
2E86
330
1F
100
AcDbEntity
  8
AM_VIS
100
AcDbLine
 10
2158.167343324643
 20
1379.428476383078
 30
0.0
 11
2158.167343324643
 21
1394.120054398175
 31
0.0
  0
LINE
  5
2E87
330
1F
100
AcDbEntity
  8
AM_VIS
100
AcDbLine
 10
2127.667343324644
 20
1394.120054398175
 30
0.0
 11
2127.667343324644
 21
1339.120054398175
 31
0.0
  0
LINE
  5
2E88
330
1F
100
AcDbEntity
  8
AM_VIS
100
AcDbLine
 10
2128.667343324644
 20
1339.120054398175
 30
0.0
 11
2158.167343324643
 21
1339.120054398175
 31
0.0
  0
LINE
  5
2E89
330
1F
100
AcDbEntity
  8
AM_VIS
100
AcDbLine
 10
2160.067343324644
 20
1339.120054398175
 30
0.0
 11
2158.167343324643
 21
1339.120054398175
 31
0.0
  0
LINE
  5
2E8A
330
1F
100
AcDbEntity
  8
AM_VIS
100
AcDbLine
 10
2164.467343324644
 20
1339.120054398175
 30
0.0
 11
2160.067343324644
 21
1339.120054398175
 31
0.0
  0
LINE
  5
2E8B
330
1F
100
AcDbEntity
  8
AM_VIS
100
AcDbLine
 10
2166.617343324643
 20
1339.120054398175
 30
0.0
 11
2165.717343324644
 21
1339.120054398175
 31
0.0
  0
LINE
  5
2E8C
330
1F
100
AcDbEntity
  8
AM_VIS
100
AcDbLine
 10
2172.467343324644
 20
1339.120054398175
 30
0.0
 11
2167.867343324644
 21
1339.120054398175
 31
0.0
  0
LINE
  5
2E8D
330
1F
100
AcDbEntity
  8
AM_VIS
100
AcDbLine
 10
2174.617343324644
 20
1339.120054398175
 30
0.0
 11
2173.717343324644
 21
1339.120054398175
 31
0.0
  0
LINE
  5
2E8E
330
1F
100
AcDbEntity
  8
AM_VIS
100
AcDbLine
 10
2180.267343324644
 20
1339.120054398175
 30
0.0
 11
2175.867343324644
 21
1339.120054398175
 31
0.0
  0
LINE
  5
2E8F
330
1F
100
AcDbEntity
  8
AM_VIS
100
AcDbLine
 10
2182.167343324644
 20
1339.120054398175
 30
0.0
 11
2180.267343324644
 21
1339.120054398175
 31
0.0
  0
LINE
  5
2E90
330
1F
100
AcDbEntity
  8
AM_VIS
100
AcDbLine
 10
2182.167343324644
 20
1339.120054398175
 30
0.0
 11
2211.667343324644
 21
1339.120054398175
 31
0.0
  0
LINE
  5
2E91
330
1F
100
AcDbEntity
  8
AM_VIS
100
AcDbLine
 10
2211.667343324644
 20
1394.120054398175
 30
0.0
 11
2212.667343324644
 21
1394.120054398175
 31
0.0
  0
LINE
  5
2E92
330
1F
100
AcDbEntity
  8
AM_VIS
100
AcDbLine
 10
2175.867343324644
 20
1394.120054398175
 30
0.0
 11
2174.617343324644
 21
1394.120054398175
 31
0.0
  0
LINE
  5
2E93
330
1F
100
AcDbEntity
  8
AM_VIS
100
AcDbLine
 10
2173.717343324644
 20
1394.120054398175
 30
0.0
 11
2172.467343324644
 21
1394.120054398175
 31
0.0
  0
LINE
  5
2E94
330
1F
100
AcDbEntity
  8
AM_VIS
100
AcDbLine
 10
2167.867343324644
 20
1394.120054398175
 30
0.0
 11
2166.617343324643
 21
1394.120054398175
 31
0.0
  0
LINE
  5
2E95
330
1F
100
AcDbEntity
  8
AM_VIS
100
AcDbLine
 10
2165.717343324644
 20
1394.120054398175
 30
0.0
 11
2164.467343324644
 21
1394.120054398175
 31
0.0
  0
LINE
  5
2E96
330
1F
100
AcDbEntity
  8
AM_VIS
100
AcDbLine
 10
2127.667343324644
 20
1394.120054398175
 30
0.0
 11
2128.667343324644
 21
1394.120054398175
 31
0.0
  0
CIRCLE
  5
2E97
330
1F
100
AcDbEntity
  8
AM_VIS
100
AcDbCircle
 10
2156.167343324644
 20
1355.120054398175
 30
0.0
 40
2.6
  0
ARC
  5
2E98
330
1F
100
AcDbEntity
  8
AM_VIS
100
AcDbCircle
 10
2156.167343324644
 20
1355.120054398175
 30
0.0
 40
4.75
100
AcDbArc
 50
325.1903054471692
 51
34.80969455283082
  0
ARC
  5
2E99
330
1F
100
AcDbEntity
  8
AM_VIS
100
AcDbCircle
 10
2184.167343324644
 20
1355.120054398175
 30
0.0
 40
4.75
100
AcDbArc
 50
245.0989376296186
 51
114.9010623703814
  0
ARC
  5
2E9A
330
1F
100
AcDbEntity
  8
AM_VIS
100
AcDbCircle
 10
2184.167343324644
 20
1355.120054398175
 30
0.0
 40
4.75
100
AcDbArc
 50
145.1903054471691
 51
214.8096945528308
  0
CIRCLE
  5
2E9B
330
1F
100
AcDbEntity
  8
AM_VIS
100
AcDbCircle
 10
2184.167343324644
 20
1355.120054398175
 30
0.0
 40
2.6
  0
CIRCLE
  5
2E9C
330
1F
100
AcDbEntity
  8
AM_VIS
100
AcDbCircle
 10
2156.167343324644
 20
1375.120054398174
 30
0.0
 40
2.6
  0
ARC
  5
2E9D
330
1F
100
AcDbEntity
  8
AM_VIS
100
AcDbCircle
 10
2156.167343324644
 20
1375.120054398174
 30
0.0
 40
4.75
100
AcDbArc
 50
325.1903054471692
 51
34.80969455283082
  0
ARC
  5
2E9E
330
1F
100
AcDbEntity
  8
AM_VIS
100
AcDbCircle
 10
2184.167343324644
 20
1375.120054398174
 30
0.0
 40
4.75
100
AcDbArc
 50
245.0989376296186
 51
114.9010623703814
  0
ARC
  5
2E9F
330
1F
100
AcDbEntity
  8
AM_VIS
100
AcDbCircle
 10
2184.167343324644
 20
1375.120054398174
 30
0.0
 40
4.75
100
AcDbArc
 50
145.1903054471691
 51
214.8096945528308
  0
CIRCLE
  5
2EA0
330
1F
100
AcDbEntity
  8
AM_VIS
100
AcDbCircle
 10
2184.167343324644
 20
1375.120054398174
 30
0.0
 40
2.6
  0
ARC
  5
2EA1
330
1F
100
AcDbEntity
  8
AM_VIS
100
AcDbCircle
 10
2156.167343324644
 20
1355.120054398175
 30
0.0
 40
4.75
100
AcDbArc
 50
65.09893762961865
 51
294.9010623703813
  0
ARC
  5
2EA2
330
1F
100
AcDbEntity
  8
AM_VIS
100
AcDbCircle
 10
2156.167343324644
 20
1375.120054398174
 30
0.0
 40
4.75
100
AcDbArc
 50
65.09893762964226
 51
294.9010623703578
  0
LINE
  5
2EA3
330
1F
100
AcDbEntity
  8
AM_VIS
100
AcDbLine
 10
2128.667343324644
 20
1339.120054398175
 30
0.0
 11
2127.667343324644
 21
1339.120054398175
 31
0.0
  0
LINE
  5
2EA4
330
1F
100
AcDbEntity
  8
AM_VIS
100
AcDbLine
 10
2164.467343324644
 20
1339.120054398175
 30
0.0
 11
2165.717343324644
 21
1339.120054398175
 31
0.0
  0
LINE
  5
2EA5
330
1F
100
AcDbEntity
  8
AM_VIS
100
AcDbLine
 10
2166.617343324643
 20
1339.120054398175
 30
0.0
 11
2167.867343324644
 21
1339.120054398175
 31
0.0
  0
LINE
  5
2EA6
330
1F
100
AcDbEntity
  8
AM_VIS
100
AcDbLine
 10
2172.467343324644
 20
1339.120054398175
 30
0.0
 11
2173.717343324644
 21
1339.120054398175
 31
0.0
  0
LINE
  5
2EA7
330
1F
100
AcDbEntity
  8
AM_VIS
100
AcDbLine
 10
2174.617343324644
 20
1339.120054398175
 30
0.0
 11
2175.867343324644
 21
1339.120054398175
 31
0.0
  0
LINE
  5
2EA8
330
1F
100
AcDbEntity
  8
AM_VIS
100
AcDbLine
 10
2212.667343324644
 20
1339.120054398175
 30
0.0
 11
2211.667343324644
 21
1339.120054398175
 31
0.0
  0
LINE
  5
2EA9
330
1F
100
AcDbEntity
  8
AM_VIS
100
AcDbLine
 10
2196.167343324644
 20
1458.800094548933
 30
0.0
 11
2197.667343324644
 21
1459.678429532433
 31
0.0
  0
LINE
  5
2EAA
330
1F
100
AcDbEntity
  8
AM_VIS
100
AcDbLine
 10
2199.167343324644
 20
1458.800094548933
 30
0.0
 11
2199.167343324644
 21
1457.116764515933
 31
0.0
  0
LINE
  5
2EAB
330
1F
100
AcDbEntity
  8
AM_VIS
100
AcDbLine
 10
2197.667343324644
 20
1459.678429532433
 30
0.0
 11
2199.167343324644
 21
1458.800094548933
 31
0.0
  0
LINE
  5
2EAC
330
1F
100
AcDbEntity
  8
AM_VIS
100
AcDbLine
 10
2196.167343324644
 20
1457.116764515933
 30
0.0
 11
2196.167343324644
 21
1458.800094548933
 31
0.0
  0
LINE
  5
2EAD
330
1F
100
AcDbEntity
  8
AM_VIS
100
AcDbLine
 10
2197.667343324644
 20
1456.238429532433
 30
0.0
 11
2196.167343324644
 21
1457.116764515933
 31
0.0
  0
LINE
  5
2EAE
330
1F
100
AcDbEntity
  8
AM_VIS
100
AcDbLine
 10
2199.167343324644
 20
1457.116764515933
 30
0.0
 11
2197.667343324644
 21
1456.238429532433
 31
0.0
  0
CIRCLE
  5
2EAF
330
1F
100
AcDbEntity
  8
AM_VIS
100
AcDbCircle
 10
2197.667343324644
 20
1457.958429532433
 30
0.0
 40
4.75
  0
LINE
  5
2EB0
330
1F
100
AcDbEntity
  8
AM_VIS
100
AcDbLine
 10
2168.667343324644
 20
1458.800094548933
 30
0.0
 11
2170.167343324644
 21
1459.678429532433
 31
0.0
  0
LINE
  5
2EB1
330
1F
100
AcDbEntity
  8
AM_VIS
100
AcDbLine
 10
2171.667343324644
 20
1458.800094548933
 30
0.0
 11
2171.667343324644
 21
1457.116764515933
 31
0.0
  0
LINE
  5
2EB2
330
1F
100
AcDbEntity
  8
AM_VIS
100
AcDbLine
 10
2170.167343324644
 20
1459.678429532433
 30
0.0
 11
2171.667343324644
 21
1458.800094548933
 31
0.0
  0
LINE
  5
2EB3
330
1F
100
AcDbEntity
  8
AM_VIS
100
AcDbLine
 10
2168.667343324644
 20
1457.116764515933
 30
0.0
 11
2168.667343324644
 21
1458.800094548933
 31
0.0
  0
LINE
  5
2EB4
330
1F
100
AcDbEntity
  8
AM_VIS
100
AcDbLine
 10
2170.167343324644
 20
1456.238429532433
 30
0.0
 11
2168.667343324644
 21
1457.116764515933
 31
0.0
  0
LINE
  5
2EB5
330
1F
100
AcDbEntity
  8
AM_VIS
100
AcDbLine
 10
2171.667343324644
 20
1457.116764515933
 30
0.0
 11
2170.167343324644
 21
1456.238429532433
 31
0.0
  0
CIRCLE
  5
2EB6
330
1F
100
AcDbEntity
  8
AM_VIS
100
AcDbCircle
 10
2170.167343324644
 20
1457.958429532433
 30
0.0
 40
4.75
  0
LINE
  5
2EB7
330
1F
100
AcDbEntity
  8
AM_VIS
100
AcDbLine
 10
2141.167343324644
 20
1458.800094548933
 30
0.0
 11
2142.667343324644
 21
1459.678429532433
 31
0.0
  0
LINE
  5
2EB8
330
1F
100
AcDbEntity
  8
AM_VIS
100
AcDbLine
 10
2144.167343324644
 20
1458.800094548933
 30
0.0
 11
2144.167343324644
 21
1457.116764515933
 31
0.0
  0
LINE
  5
2EB9
330
1F
100
AcDbEntity
  8
AM_VIS
100
AcDbLine
 10
2142.667343324644
 20
1459.678429532433
 30
0.0
 11
2144.167343324644
 21
1458.800094548933
 31
0.0
  0
LINE
  5
2EBA
330
1F
100
AcDbEntity
  8
AM_VIS
100
AcDbLine
 10
2141.167343324644
 20
1457.116764515933
 30
0.0
 11
2141.167343324644
 21
1458.800094548933
 31
0.0
  0
LINE
  5
2EBB
330
1F
100
AcDbEntity
  8
AM_VIS
100
AcDbLine
 10
2142.667343324644
 20
1456.238429532433
 30
0.0
 11
2141.167343324644
 21
1457.116764515933
 31
0.0
  0
LINE
  5
2EBC
330
1F
100
AcDbEntity
  8
AM_VIS
100
AcDbLine
 10
2144.167343324644
 20
1457.116764515933
 30
0.0
 11
2142.667343324644
 21
1456.238429532433
 31
0.0
  0
CIRCLE
  5
2EBD
330
1F
100
AcDbEntity
  8
AM_VIS
100
AcDbCircle
 10
2142.667343324644
 20
1457.958429532433
 30
0.0
 40
4.75
  0
LINE
  5
2EBE
330
1F
100
AcDbEntity
  8
AM_VIS
100
AcDbLine
 10
2205.167343324644
 20
1472.958429532433
 30
0.0
 11
2135.167343324644
 21
1472.958429532433
 31
0.0
  0
LINE
  5
2EBF
330
1F
100
AcDbEntity
  8
AM_VIS
100
AcDbLine
 10
2134.167343324644
 20
1471.958429532433
 30
0.0
 11
2134.167343324644
 21
1443.958429532433
 31
0.0
  0
LINE
  5
2EC0
330
1F
100
AcDbEntity
  8
AM_VIS
100
AcDbLine
 10
2135.167343324644
 20
1442.958429532433
 30
0.0
 11
2205.167343324644
 21
1442.958429532433
 31
0.0
  0
LINE
  5
2EC1
330
1F
100
AcDbEntity
  8
AM_VIS
100
AcDbLine
 10
2205.167343324644
 20
1442.958429532433
 30
0.0
 11
2205.667343324644
 21
1443.458429532433
 31
0.0
  0
LINE
  5
2EC2
330
1F
100
AcDbEntity
  8
AM_VIS
100
AcDbLine
 10
2205.667343324644
 20
1443.458429532433
 30
0.0
 11
2206.167343324644
 21
1443.958429532433
 31
0.0
  0
LINE
  5
2EC3
330
1F
100
AcDbEntity
  8
AM_VIS
100
AcDbLine
 10
2206.167343324644
 20
1471.958429532433
 30
0.0
 11
2205.667343324644
 21
1472.458429532433
 31
0.0
  0
LINE
  5
2EC4
330
1F
100
AcDbEntity
  8
AM_VIS
100
AcDbLine
 10
2205.667343324644
 20
1472.458429532433
 30
0.0
 11
2205.167343324644
 21
1472.958429532433
 31
0.0
  0
LINE
  5
2EC5
330
1F
100
AcDbEntity
  8
AM_VIS
100
AcDbLine
 10
2206.167343324644
 20
1443.958429532433
 30
0.0
 11
2206.167343324644
 21
1471.958429532433
 31
0.0
  0
LINE
  5
2EC6
330
1F
100
AcDbEntity
  8
AM_VIS
100
AcDbLine
 10
2134.167343324644
 20
1443.958429532433
 30
0.0
 11
2134.667343324644
 21
1443.458429532433
 31
0.0
  0
LINE
  5
2EC7
330
1F
100
AcDbEntity
  8
AM_VIS
100
AcDbLine
 10
2134.667343324644
 20
1443.458429532433
 30
0.0
 11
2135.167343324644
 21
1442.958429532433
 31
0.0
  0
LINE
  5
2EC8
330
1F
100
AcDbEntity
  8
AM_VIS
100
AcDbLine
 10
2135.167343324644
 20
1472.958429532433
 30
0.0
 11
2134.667343324644
 21
1472.458429532433
 31
0.0
  0
LINE
  5
2EC9
330
1F
100
AcDbEntity
  8
AM_VIS
100
AcDbLine
 10
2134.667343324644
 20
1472.458429532433
 30
0.0
 11
2134.167343324644
 21
1471.958429532433
 31
0.0
  0
LINE
  5
2ECA
330
1F
100
AcDbEntity
  8
AM_VIS
100
AcDbLine
 10
2150.967343506821
 20
1472.958429532433
 30
0.0
 11
2148.967343348406
 21
1474.958429532433
 31
0.0
  0
LINE
  5
2ECB
330
1F
100
AcDbEntity
  8
AM_VIS
100
AcDbLine
 10
2164.467343324643
 20
1474.958429532433
 30
0.0
 11
2153.367343348406
 21
1474.958429532433
 31
0.0
  0
LINE
  5
2ECC
330
1F
100
AcDbEntity
  8
AM_VIS
100
AcDbLine
 10
2164.467343324643
 20
1474.458429532433
 30
0.0
 11
2164.467343324643
 21
1474.958429532433
 31
0.0
  0
LINE
  5
2ECD
330
1F
100
AcDbEntity
  8
AM_VIS
100
AcDbLine
 10
2164.017343324644
 20
1473.958429532433
 30
0.0
 11
2164.467343324643
 21
1474.458429532433
 31
0.0
  0
LINE
  5
2ECE
330
1F
100
AcDbEntity
  8
AM_VIS
100
AcDbLine
 10
2164.017343324644
 20
1472.958429532433
 30
0.0
 11
2164.017343324644
 21
1473.958429532433
 31
0.0
  0
LINE
  5
2ECF
330
1F
100
AcDbEntity
  8
AM_VIS
100
AcDbLine
 10
2168.317343324643
 20
1473.958429532433
 30
0.0
 11
2168.317343324643
 21
1472.958429532433
 31
0.0
  0
LINE
  5
2ED0
330
1F
100
AcDbEntity
  8
AM_VIS
100
AcDbLine
 10
2167.867343324644
 20
1474.458429532433
 30
0.0
 11
2168.317343324643
 21
1473.958429532433
 31
0.0
  0
LINE
  5
2ED1
330
1F
100
AcDbEntity
  8
AM_VIS
100
AcDbLine
 10
2167.867343324644
 20
1474.958429532433
 30
0.0
 11
2167.867343324644
 21
1474.458429532433
 31
0.0
  0
LINE
  5
2ED2
330
1F
100
AcDbEntity
  8
AM_VIS
100
AcDbLine
 10
2172.467343324644
 20
1474.958429532433
 30
0.0
 11
2167.867343324644
 21
1474.958429532433
 31
0.0
  0
LINE
  5
2ED3
330
1F
100
AcDbEntity
  8
AM_VIS
100
AcDbLine
 10
2172.467343324643
 20
1474.458429532433
 30
0.0
 11
2172.467343324643
 21
1474.958429532433
 31
0.0
  0
LINE
  5
2ED4
330
1F
100
AcDbEntity
  8
AM_VIS
100
AcDbLine
 10
2172.017343324644
 20
1473.958429532433
 30
0.0
 11
2172.467343324643
 21
1474.458429532433
 31
0.0
  0
LINE
  5
2ED5
330
1F
100
AcDbEntity
  8
AM_VIS
100
AcDbLine
 10
2172.017343324644
 20
1472.958429532433
 30
0.0
 11
2172.017343324644
 21
1473.958429532433
 31
0.0
  0
LINE
  5
2ED6
330
1F
100
AcDbEntity
  8
AM_VIS
100
AcDbLine
 10
2176.317343324643
 20
1473.958429532433
 30
0.0
 11
2176.317343324643
 21
1472.958429532433
 31
0.0
  0
LINE
  5
2ED7
330
1F
100
AcDbEntity
  8
AM_VIS
100
AcDbLine
 10
2175.867343324644
 20
1474.458429532433
 30
0.0
 11
2176.317343324643
 21
1473.958429532433
 31
0.0
  0
LINE
  5
2ED8
330
1F
100
AcDbEntity
  8
AM_VIS
100
AcDbLine
 10
2175.867343324644
 20
1474.958429532433
 30
0.0
 11
2175.867343324644
 21
1474.458429532433
 31
0.0
  0
LINE
  5
2ED9
330
1F
100
AcDbEntity
  8
AM_VIS
100
AcDbLine
 10
2191.467343506821
 20
1472.958429532433
 30
0.0
 11
2189.467343348406
 21
1474.958429532433
 31
0.0
  0
LINE
  5
2EDA
330
1F
100
AcDbEntity
  8
AM_VIS
100
AcDbLine
 10
2193.867343348406
 20
1474.958429532433
 30
0.0
 11
2191.867343506821
 21
1472.958429532433
 31
0.0
  0
LINE
  5
2EDB
330
1F
100
AcDbEntity
  8
AM_VIS
100
AcDbLine
 10
2206.667343324644
 20
1474.658429532433
 30
0.0
 11
2206.367343324644
 21
1474.958429532433
 31
0.0
  0
LINE
  5
2EDC
330
1F
100
AcDbEntity
  8
AM_VIS
100
AcDbLine
 10
2211.667343324644
 20
1474.658429532433
 30
0.0
 11
2206.667343324644
 21
1474.658429532433
 31
0.0
  0
LINE
  5
2EDD
330
1F
100
AcDbEntity
  8
AM_VIS
100
AcDbLine
 10
2212.667343324644
 20
1473.658429532433
 30
0.0
 11
2212.667343324644
 21
1467.358429532433
 31
0.0
  0
LINE
  5
2EDE
330
1F
100
AcDbEntity
  8
AM_VIS
100
AcDbLine
 10
2209.667343324644
 20
1464.358429532433
 30
0.0
 11
2212.667343324644
 21
1467.358429532433
 31
0.0
  0
LINE
  5
2EDF
330
1F
100
AcDbEntity
  8
AM_VIS
100
AcDbLine
 10
2209.667343324644
 20
1457.358429532433
 30
0.0
 11
2209.667343324644
 21
1464.358429532433
 31
0.0
  0
LINE
  5
2EE0
330
1F
100
AcDbEntity
  8
AM_VIS
100
AcDbLine
 10
2212.667343324644
 20
1454.358429532433
 30
0.0
 11
2209.667343324644
 21
1457.358429532433
 31
0.0
  0
LINE
  5
2EE1
330
1F
100
AcDbEntity
  8
AM_VIS
100
AcDbLine
 10
2212.667343324644
 20
1454.358429532433
 30
0.0
 11
2212.667343324644
 21
1439.958429532433
 31
0.0
  0
LINE
  5
2EE2
330
1F
100
AcDbEntity
  8
AM_VIS
100
AcDbLine
 10
2180.267343324644
 20
1440.858429532433
 30
0.0
 11
2182.167343324644
 21
1438.958429532433
 31
0.0
  0
LINE
  5
2EE3
330
1F
100
AcDbEntity
  8
AM_VIS
100
AcDbLine
 10
2175.867343324644
 20
1440.858429532433
 30
0.0
 11
2180.267343324644
 21
1440.858429532433
 31
0.0
  0
LINE
  5
2EE4
330
1F
100
AcDbEntity
  8
AM_VIS
100
AcDbLine
 10
2175.867343324644
 20
1441.358429532433
 30
0.0
 11
2175.867343324644
 21
1440.858429532433
 31
0.0
  0
LINE
  5
2EE5
330
1F
100
AcDbEntity
  8
AM_VIS
100
AcDbLine
 10
2176.317343324643
 20
1441.858429532433
 30
0.0
 11
2175.867343324644
 21
1441.358429532433
 31
0.0
  0
LINE
  5
2EE6
330
1F
100
AcDbEntity
  8
AM_VIS
100
AcDbLine
 10
2176.317343324643
 20
1442.958429532433
 30
0.0
 11
2176.317343324643
 21
1441.858429532433
 31
0.0
  0
LINE
  5
2EE7
330
1F
100
AcDbEntity
  8
AM_VIS
100
AcDbLine
 10
2172.017343324644
 20
1441.858429532433
 30
0.0
 11
2172.017343324644
 21
1442.958429532433
 31
0.0
  0
LINE
  5
2EE8
330
1F
100
AcDbEntity
  8
AM_VIS
100
AcDbLine
 10
2172.467343324643
 20
1441.358429532433
 30
0.0
 11
2172.017343324644
 21
1441.858429532433
 31
0.0
  0
LINE
  5
2EE9
330
1F
100
AcDbEntity
  8
AM_VIS
100
AcDbLine
 10
2172.467343324644
 20
1440.858429532433
 30
0.0
 11
2172.467343324644
 21
1441.358429532433
 31
0.0
  0
LINE
  5
2EEA
330
1F
100
AcDbEntity
  8
AM_VIS
100
AcDbLine
 10
2167.867343324644
 20
1440.858429532433
 30
0.0
 11
2172.467343324644
 21
1440.858429532433
 31
0.0
  0
LINE
  5
2EEB
330
1F
100
AcDbEntity
  8
AM_VIS
100
AcDbLine
 10
2167.867343324644
 20
1441.358429532433
 30
0.0
 11
2167.867343324644
 21
1440.858429532433
 31
0.0
  0
LINE
  5
2EEC
330
1F
100
AcDbEntity
  8
AM_VIS
100
AcDbLine
 10
2168.317343324643
 20
1441.858429532433
 30
0.0
 11
2167.867343324644
 21
1441.358429532433
 31
0.0
  0
LINE
  5
2EED
330
1F
100
AcDbEntity
  8
AM_VIS
100
AcDbLine
 10
2168.317343324643
 20
1442.958429532433
 30
0.0
 11
2168.317343324643
 21
1441.858429532433
 31
0.0
  0
LINE
  5
2EEE
330
1F
100
AcDbEntity
  8
AM_VIS
100
AcDbLine
 10
2164.017343324644
 20
1441.858429532433
 30
0.0
 11
2164.017343324644
 21
1442.958429532433
 31
0.0
  0
LINE
  5
2EEF
330
1F
100
AcDbEntity
  8
AM_VIS
100
AcDbLine
 10
2164.467343324644
 20
1441.358429532433
 30
0.0
 11
2164.017343324644
 21
1441.858429532433
 31
0.0
  0
LINE
  5
2EF0
330
1F
100
AcDbEntity
  8
AM_VIS
100
AcDbLine
 10
2164.467343324644
 20
1440.858429532433
 30
0.0
 11
2164.467343324644
 21
1441.358429532433
 31
0.0
  0
LINE
  5
2EF1
330
1F
100
AcDbEntity
  8
AM_VIS
100
AcDbLine
 10
2130.667343324644
 20
1457.358429532433
 30
0.0
 11
2127.667343324644
 21
1454.358429532433
 31
0.0
  0
LINE
  5
2EF2
330
1F
100
AcDbEntity
  8
AM_VIS
100
AcDbLine
 10
2130.667343324644
 20
1464.358429532433
 30
0.0
 11
2130.667343324644
 21
1457.358429532433
 31
0.0
  0
LINE
  5
2EF3
330
1F
100
AcDbEntity
  8
AM_VIS
100
AcDbLine
 10
2127.667343324644
 20
1467.358429532433
 30
0.0
 11
2130.667343324644
 21
1464.358429532433
 31
0.0
  0
LINE
  5
2EF4
330
1F
100
AcDbEntity
  8
AM_VIS
100
AcDbLine
 10
2127.667343324644
 20
1467.358429532433
 30
0.0
 11
2127.667343324644
 21
1473.658429532433
 31
0.0
  0
LINE
  5
2EF5
330
1F
100
AcDbEntity
  8
AM_VIS
100
AcDbLine
 10
2133.667343324644
 20
1474.658429532433
 30
0.0
 11
2128.667343324644
 21
1474.658429532433
 31
0.0
  0
LINE
  5
2EF6
330
1F
100
AcDbEntity
  8
AM_VIS
100
AcDbLine
 10
2133.967343324643
 20
1474.958429532433
 30
0.0
 11
2133.667343324644
 21
1474.658429532433
 31
0.0
  0
LINE
  5
2EF7
330
1F
100
AcDbEntity
  8
AM_VIS
100
AcDbLine
 10
2158.167343324643
 20
1438.958429532433
 30
0.0
 11
2160.067343324644
 21
1440.858429532433
 31
0.0
  0
LINE
  5
2EF8
330
1F
100
AcDbEntity
  8
AM_VIS
100
AcDbLine
 10
2211.667343324644
 20
1438.958429532433
 30
0.0
 11
2182.167343324644
 21
1438.958429532433
 31
0.0
  0
LINE
  5
2EF9
330
1F
100
AcDbEntity
  8
AM_VIS
100
AcDbLine
 10
2160.067343324644
 20
1440.858429532433
 30
0.0
 11
2164.467343324644
 21
1440.858429532433
 31
0.0
  0
LINE
  5
2EFA
330
1F
100
AcDbEntity
  8
AM_VIS
100
AcDbLine
 10
2153.367343348406
 20
1474.958429532433
 30
0.0
 11
2151.367343506821
 21
1472.958429532433
 31
0.0
  0
LINE
  5
2EFB
330
1F
100
AcDbEntity
  8
AM_VIS
100
AcDbLine
 10
2189.467343348406
 20
1474.958429532433
 30
0.0
 11
2175.867343324644
 21
1474.958429532433
 31
0.0
  0
LINE
  5
2EFC
330
1F
100
AcDbEntity
  8
AM_VIS
100
AcDbLine
 10
2158.167343324643
 20
1438.958429532433
 30
0.0
 11
2128.667343324644
 21
1438.958429532433
 31
0.0
  0
LINE
  5
2EFD
330
1F
100
AcDbEntity
  8
AM_VIS
100
AcDbLine
 10
2127.667343324644
 20
1439.958429532433
 30
0.0
 11
2127.667343324644
 21
1454.358429532433
 31
0.0
  0
LINE
  5
2EFE
330
1F
100
AcDbEntity
  8
AM_VIS
100
AcDbLine
 10
2206.367343324644
 20
1474.958429532433
 30
0.0
 11
2193.867343348406
 21
1474.958429532433
 31
0.0
  0
LINE
  5
2EFF
330
1F
100
AcDbEntity
  8
AM_VIS
100
AcDbLine
 10
2148.967343348406
 20
1474.958429532433
 30
0.0
 11
2133.967343324643
 21
1474.958429532433
 31
0.0
  0
ARC
  5
2F00
330
1F
100
AcDbEntity
  8
AM_VIS
100
AcDbCircle
 10
2211.667343324644
 20
1473.658429532433
 30
0.0
 40
0.9999999999999998
100
AcDbArc
 50
0.0
 51
90.0
  0
ARC
  5
2F01
330
1F
100
AcDbEntity
  8
AM_VIS
100
AcDbCircle
 10
2211.667343324644
 20
1439.958429532433
 30
0.0
 40
0.9999999999999998
100
AcDbArc
 50
270.0
 51
0.0
  0
ARC
  5
2F02
330
1F
100
AcDbEntity
  8
AM_VIS
100
AcDbCircle
 10
2128.667343324644
 20
1439.958429532433
 30
0.0
 40
0.9999999999999998
100
AcDbArc
 50
180.0
 51
270.0
  0
ARC
  5
2F03
330
1F
100
AcDbEntity
  8
AM_VIS
100
AcDbCircle
 10
2128.667343324644
 20
1473.658429532433
 30
0.0
 40
0.9999999999999998
100
AcDbArc
 50
90.0
 51
180.0
  0
LINE
  5
2F04
330
1F
100
AcDbEntity
  8
AM_VIS
100
AcDbLine
 10
2176.317343324643
 20
1291.355830859165
 30
0.0
 11
2172.017343324644
 21
1291.355830859165
 31
0.0
  0
LINE
  5
2F05
330
1F
100
AcDbEntity
  8
AM_VIS
100
AcDbLine
 10
2168.317343324643
 20
1291.355830859165
 30
0.0
 11
2164.017343324644
 21
1291.355830859165
 31
0.0
  0
LINE
  5
2F06
330
1F
100
AcDbEntity
  8
AM_VIS
100
AcDbLine
 10
2150.967343506821
 20
1261.355830859165
 30
0.0
 11
2151.367343506821
 21
1261.355830859165
 31
0.0
  0
LINE
  5
2F07
330
1F
100
AcDbEntity
  8
AM_VIS
100
AcDbLine
 10
2164.017343324644
 20
1261.355830859165
 30
0.0
 11
2168.317343324643
 21
1261.355830859165
 31
0.0
  0
LINE
  5
2F08
330
1F
100
AcDbEntity
  8
AM_VIS
100
AcDbLine
 10
2172.017343324644
 20
1261.355830859165
 30
0.0
 11
2176.317343324643
 21
1261.355830859165
 31
0.0
  0
LINE
  5
2F09
330
1F
100
AcDbEntity
  8
AM_VIS
100
AcDbLine
 10
2191.467343506821
 20
1261.355830859165
 30
0.0
 11
2191.867343506821
 21
1261.355830859165
 31
0.0
  0
LINE
  5
2F0A
330
1F
100
AcDbEntity
  8
AM_VIS
100
AcDbLine
 10
2133.667343324644
 20
1259.655830859166
 30
0.0
 11
2133.967343324643
 21
1259.355830859165
 31
0.0
  0
LINE
  5
2F0B
330
1F
100
AcDbEntity
  8
AM_VIS
100
AcDbLine
 10
2128.667343324644
 20
1259.655830859166
 30
0.0
 11
2133.667343324644
 21
1259.655830859166
 31
0.0
  0
LINE
  5
2F0C
330
1F
100
AcDbEntity
  8
AM_VIS
100
AcDbLine
 10
2127.667343324644
 20
1260.655830859165
 30
0.0
 11
2127.667343324644
 21
1266.955830859165
 31
0.0
  0
LINE
  5
2F0D
330
1F
100
AcDbEntity
  8
AM_VIS
100
AcDbLine
 10
2130.667343324644
 20
1269.955830859166
 30
0.0
 11
2127.667343324644
 21
1266.955830859165
 31
0.0
  0
LINE
  5
2F0E
330
1F
100
AcDbEntity
  8
AM_VIS
100
AcDbLine
 10
2130.667343324644
 20
1276.955830859165
 30
0.0
 11
2130.667343324644
 21
1269.955830859166
 31
0.0
  0
LINE
  5
2F0F
330
1F
100
AcDbEntity
  8
AM_VIS
100
AcDbLine
 10
2127.667343324644
 20
1279.955830859165
 30
0.0
 11
2130.667343324644
 21
1276.955830859165
 31
0.0
  0
LINE
  5
2F10
330
1F
100
AcDbEntity
  8
AM_VIS
100
AcDbLine
 10
2127.667343324644
 20
1279.955830859165
 30
0.0
 11
2127.667343324644
 21
1294.355830859165
 31
0.0
  0
LINE
  5
2F11
330
1F
100
AcDbEntity
  8
AM_VIS
100
AcDbLine
 10
2128.667343324644
 20
1295.355830859165
 30
0.0
 11
2158.167343324643
 21
1295.355830859165
 31
0.0
  0
LINE
  5
2F12
330
1F
100
AcDbEntity
  8
AM_VIS
100
AcDbLine
 10
2160.067343324644
 20
1293.455830859165
 30
0.0
 11
2158.167343324643
 21
1295.355830859165
 31
0.0
  0
LINE
  5
2F13
330
1F
100
AcDbEntity
  8
AM_VIS
100
AcDbLine
 10
2164.467343324644
 20
1293.455830859165
 30
0.0
 11
2160.067343324644
 21
1293.455830859165
 31
0.0
  0
LINE
  5
2F14
330
1F
100
AcDbEntity
  8
AM_VIS
100
AcDbLine
 10
2164.467343324644
 20
1292.955830859165
 30
0.0
 11
2164.467343324644
 21
1293.455830859165
 31
0.0
  0
LINE
  5
2F15
330
1F
100
AcDbEntity
  8
AM_VIS
100
AcDbLine
 10
2164.017343324644
 20
1292.455830859166
 30
0.0
 11
2164.467343324644
 21
1292.955830859165
 31
0.0
  0
LINE
  5
2F16
330
1F
100
AcDbEntity
  8
AM_VIS
100
AcDbLine
 10
2164.017343324644
 20
1290.355830859165
 30
0.0
 11
2164.017343324644
 21
1292.455830859166
 31
0.0
  0
LINE
  5
2F17
330
1F
100
AcDbEntity
  8
AM_VIS
100
AcDbLine
 10
2166.617343324643
 20
1288.655830859166
 30
0.0
 11
2165.717343324644
 21
1288.655830859166
 31
0.0
  0
LINE
  5
2F18
330
1F
100
AcDbEntity
  8
AM_VIS
100
AcDbLine
 10
2168.317343324643
 20
1292.455830859166
 30
0.0
 11
2168.317343324643
 21
1290.355830859165
 31
0.0
  0
LINE
  5
2F19
330
1F
100
AcDbEntity
  8
AM_VIS
100
AcDbLine
 10
2167.867343324644
 20
1292.955830859165
 30
0.0
 11
2168.317343324643
 21
1292.455830859166
 31
0.0
  0
LINE
  5
2F1A
330
1F
100
AcDbEntity
  8
AM_VIS
100
AcDbLine
 10
2167.867343324644
 20
1293.455830859165
 30
0.0
 11
2167.867343324644
 21
1292.955830859165
 31
0.0
  0
LINE
  5
2F1B
330
1F
100
AcDbEntity
  8
AM_VIS
100
AcDbLine
 10
2172.467343324644
 20
1293.455830859165
 30
0.0
 11
2167.867343324644
 21
1293.455830859165
 31
0.0
  0
LINE
  5
2F1C
330
1F
100
AcDbEntity
  8
AM_VIS
100
AcDbLine
 10
2172.467343324644
 20
1292.955830859165
 30
0.0
 11
2172.467343324644
 21
1293.455830859165
 31
0.0
  0
LINE
  5
2F1D
330
1F
100
AcDbEntity
  8
AM_VIS
100
AcDbLine
 10
2172.017343324644
 20
1292.455830859166
 30
0.0
 11
2172.467343324643
 21
1292.955830859165
 31
0.0
  0
LINE
  5
2F1E
330
1F
100
AcDbEntity
  8
AM_VIS
100
AcDbLine
 10
2172.017343324644
 20
1290.355830859165
 30
0.0
 11
2172.017343324644
 21
1292.455830859166
 31
0.0
  0
LINE
  5
2F1F
330
1F
100
AcDbEntity
  8
AM_VIS
100
AcDbLine
 10
2174.617343324644
 20
1288.655830859166
 30
0.0
 11
2173.717343324644
 21
1288.655830859166
 31
0.0
  0
LINE
  5
2F20
330
1F
100
AcDbEntity
  8
AM_VIS
100
AcDbLine
 10
2176.317343324643
 20
1292.455830859166
 30
0.0
 11
2176.317343324643
 21
1290.355830859165
 31
0.0
  0
LINE
  5
2F21
330
1F
100
AcDbEntity
  8
AM_VIS
100
AcDbLine
 10
2175.867343324644
 20
1292.955830859165
 30
0.0
 11
2176.317343324643
 21
1292.455830859166
 31
0.0
  0
LINE
  5
2F22
330
1F
100
AcDbEntity
  8
AM_VIS
100
AcDbLine
 10
2175.867343324644
 20
1293.455830859165
 30
0.0
 11
2175.867343324644
 21
1292.955830859165
 31
0.0
  0
LINE
  5
2F23
330
1F
100
AcDbEntity
  8
AM_VIS
100
AcDbLine
 10
2180.267343324644
 20
1293.455830859165
 30
0.0
 11
2175.867343324644
 21
1293.455830859165
 31
0.0
  0
LINE
  5
2F24
330
1F
100
AcDbEntity
  8
AM_VIS
100
AcDbLine
 10
2182.167343324644
 20
1295.355830859165
 30
0.0
 11
2180.267343324644
 21
1293.455830859165
 31
0.0
  0
LINE
  5
2F25
330
1F
100
AcDbEntity
  8
AM_VIS
100
AcDbLine
 10
2182.167343324644
 20
1295.355830859165
 30
0.0
 11
2211.667343324644
 21
1295.355830859165
 31
0.0
  0
LINE
  5
2F26
330
1F
100
AcDbEntity
  8
AM_VIS
100
AcDbLine
 10
2212.667343324644
 20
1294.355830859165
 30
0.0
 11
2212.667343324644
 21
1279.955830859165
 31
0.0
  0
LINE
  5
2F27
330
1F
100
AcDbEntity
  8
AM_VIS
100
AcDbLine
 10
2209.667343324644
 20
1276.955830859165
 30
0.0
 11
2212.667343324644
 21
1279.955830859165
 31
0.0
  0
LINE
  5
2F28
330
1F
100
AcDbEntity
  8
AM_VIS
100
AcDbLine
 10
2209.667343324644
 20
1269.955830859166
 30
0.0
 11
2209.667343324644
 21
1276.955830859165
 31
0.0
  0
LINE
  5
2F29
330
1F
100
AcDbEntity
  8
AM_VIS
100
AcDbLine
 10
2212.667343324644
 20
1266.955830859165
 30
0.0
 11
2209.667343324644
 21
1269.955830859166
 31
0.0
  0
LINE
  5
2F2A
330
1F
100
AcDbEntity
  8
AM_VIS
100
AcDbLine
 10
2212.667343324644
 20
1266.955830859165
 30
0.0
 11
2212.667343324644
 21
1260.655830859165
 31
0.0
  0
LINE
  5
2F2B
330
1F
100
AcDbEntity
  8
AM_VIS
100
AcDbLine
 10
2206.667343324644
 20
1259.655830859166
 30
0.0
 11
2211.667343324644
 21
1259.655830859166
 31
0.0
  0
LINE
  5
2F2C
330
1F
100
AcDbEntity
  8
AM_VIS
100
AcDbLine
 10
2206.367343324644
 20
1259.355830859165
 30
0.0
 11
2206.667343324644
 21
1259.655830859166
 31
0.0
  0
LINE
  5
2F2D
330
1F
100
AcDbEntity
  8
AM_VIS
100
AcDbLine
 10
2191.667343522663
 20
1261.555830859166
 30
0.0
 11
2193.867343348406
 21
1259.355830859165
 31
0.0
  0
LINE
  5
2F2E
330
1F
100
AcDbEntity
  8
AM_VIS
100
AcDbLine
 10
2189.467343348406
 20
1259.355830859165
 30
0.0
 11
2191.667343522663
 21
1261.555830859166
 31
0.0
  0
LINE
  5
2F2F
330
1F
100
AcDbEntity
  8
AM_VIS
100
AcDbLine
 10
2175.867343324644
 20
1259.355830859165
 30
0.0
 11
2189.467343348406
 21
1259.355830859165
 31
0.0
  0
LINE
  5
2F30
330
1F
100
AcDbEntity
  8
AM_VIS
100
AcDbLine
 10
2175.867343324644
 20
1259.855830859165
 30
0.0
 11
2175.867343324644
 21
1259.355830859165
 31
0.0
  0
LINE
  5
2F31
330
1F
100
AcDbEntity
  8
AM_VIS
100
AcDbLine
 10
2176.317343324643
 20
1260.355830859165
 30
0.0
 11
2175.867343324644
 21
1259.855830859165
 31
0.0
  0
LINE
  5
2F32
330
1F
100
AcDbEntity
  8
AM_VIS
100
AcDbLine
 10
2176.317343324643
 20
1262.455830859166
 30
0.0
 11
2176.317343324643
 21
1260.355830859165
 31
0.0
  0
LINE
  5
2F33
330
1F
100
AcDbEntity
  8
AM_VIS
100
AcDbLine
 10
2173.717343324644
 20
1264.155830859166
 30
0.0
 11
2174.617343324644
 21
1264.155830859166
 31
0.0
  0
LINE
  5
2F34
330
1F
100
AcDbEntity
  8
AM_VIS
100
AcDbLine
 10
2172.017343324644
 20
1260.355830859165
 30
0.0
 11
2172.017343324644
 21
1262.455830859166
 31
0.0
  0
LINE
  5
2F35
330
1F
100
AcDbEntity
  8
AM_VIS
100
AcDbLine
 10
2172.467343324643
 20
1259.855830859165
 30
0.0
 11
2172.017343324644
 21
1260.355830859165
 31
0.0
  0
LINE
  5
2F36
330
1F
100
AcDbEntity
  8
AM_VIS
100
AcDbLine
 10
2172.467343324643
 20
1259.355830859165
 30
0.0
 11
2172.467343324643
 21
1259.855830859165
 31
0.0
  0
LINE
  5
2F37
330
1F
100
AcDbEntity
  8
AM_VIS
100
AcDbLine
 10
2167.867343324644
 20
1259.355830859165
 30
0.0
 11
2172.467343324644
 21
1259.355830859165
 31
0.0
  0
LINE
  5
2F38
330
1F
100
AcDbEntity
  8
AM_VIS
100
AcDbLine
 10
2167.867343324644
 20
1259.855830859165
 30
0.0
 11
2167.867343324644
 21
1259.355830859165
 31
0.0
  0
LINE
  5
2F39
330
1F
100
AcDbEntity
  8
AM_VIS
100
AcDbLine
 10
2168.317343324643
 20
1260.355830859165
 30
0.0
 11
2167.867343324644
 21
1259.855830859165
 31
0.0
  0
LINE
  5
2F3A
330
1F
100
AcDbEntity
  8
AM_VIS
100
AcDbLine
 10
2168.317343324643
 20
1262.455830859166
 30
0.0
 11
2168.317343324643
 21
1260.355830859165
 31
0.0
  0
LINE
  5
2F3B
330
1F
100
AcDbEntity
  8
AM_VIS
100
AcDbLine
 10
2165.717343324644
 20
1264.155830859166
 30
0.0
 11
2166.617343324643
 21
1264.155830859166
 31
0.0
  0
LINE
  5
2F3C
330
1F
100
AcDbEntity
  8
AM_VIS
100
AcDbLine
 10
2164.017343324644
 20
1260.355830859165
 30
0.0
 11
2164.017343324644
 21
1262.455830859166
 31
0.0
  0
LINE
  5
2F3D
330
1F
100
AcDbEntity
  8
AM_VIS
100
AcDbLine
 10
2164.467343324643
 20
1259.855830859165
 30
0.0
 11
2164.017343324644
 21
1260.355830859165
 31
0.0
  0
LINE
  5
2F3E
330
1F
100
AcDbEntity
  8
AM_VIS
100
AcDbLine
 10
2164.467343324643
 20
1259.355830859165
 30
0.0
 11
2164.467343324643
 21
1259.855830859165
 31
0.0
  0
LINE
  5
2F3F
330
1F
100
AcDbEntity
  8
AM_VIS
100
AcDbLine
 10
2153.367343348406
 20
1259.355830859165
 30
0.0
 11
2164.467343324643
 21
1259.355830859165
 31
0.0
  0
LINE
  5
2F40
330
1F
100
AcDbEntity
  8
AM_VIS
100
AcDbLine
 10
2151.167343522663
 20
1261.555830859166
 30
0.0
 11
2153.367343348406
 21
1259.355830859165
 31
0.0
  0
LINE
  5
2F41
330
1F
100
AcDbEntity
  8
AM_VIS
100
AcDbLine
 10
2148.967343348406
 20
1259.355830859165
 30
0.0
 11
2151.167343522663
 21
1261.555830859166
 31
0.0
  0
LINE
  5
2F42
330
1F
100
AcDbEntity
  8
AM_VIS
100
AcDbLine
 10
2193.867343348406
 20
1259.355830859165
 30
0.0
 11
2206.367343324644
 21
1259.355830859165
 31
0.0
  0
LINE
  5
2F43
330
1F
100
AcDbEntity
  8
AM_VIS
100
AcDbLine
 10
2133.967343324643
 20
1259.355830859165
 30
0.0
 11
2148.967343348406
 21
1259.355830859165
 31
0.0
  0
CIRCLE
  5
2F44
330
1F
100
AcDbEntity
  8
AM_VIS
100
AcDbCircle
 10
2170.167343324644
 20
1276.355830859165
 30
0.0
 40
11.0
  0
ARC
  5
2F45
330
1F
100
AcDbEntity
  8
AM_VIS
100
AcDbCircle
 10
2128.667343324644
 20
1260.655830859165
 30
0.0
 40
0.9999999999999998
100
AcDbArc
 50
180.0
 51
270.0
  0
ARC
  5
2F46
330
1F
100
AcDbEntity
  8
AM_VIS
100
AcDbCircle
 10
2128.667343324644
 20
1294.355830859165
 30
0.0
 40
0.9999999999999998
100
AcDbArc
 50
90.0
 51
180.0
  0
ARC
  5
2F47
330
1F
100
AcDbEntity
  8
AM_VIS
100
AcDbCircle
 10
2165.717343324644
 20
1290.355830859165
 30
0.0
 40
1.7
100
AcDbArc
 50
180.0
 51
270.0
  0
ARC
  5
2F48
330
1F
100
AcDbEntity
  8
AM_VIS
100
AcDbCircle
 10
2166.617343324643
 20
1290.355830859165
 30
0.0
 40
1.7
100
AcDbArc
 50
270.0
 51
0.0
  0
ARC
  5
2F49
330
1F
100
AcDbEntity
  8
AM_VIS
100
AcDbCircle
 10
2173.717343324644
 20
1290.355830859165
 30
0.0
 40
1.7
100
AcDbArc
 50
180.0
 51
270.0
  0
ARC
  5
2F4A
330
1F
100
AcDbEntity
  8
AM_VIS
100
AcDbCircle
 10
2174.617343324644
 20
1290.355830859165
 30
0.0
 40
1.7
100
AcDbArc
 50
270.0
 51
0.0
  0
ARC
  5
2F4B
330
1F
100
AcDbEntity
  8
AM_VIS
100
AcDbCircle
 10
2211.667343324644
 20
1294.355830859165
 30
0.0
 40
0.9999999999999998
100
AcDbArc
 50
0.0
 51
90.0
  0
ARC
  5
2F4C
330
1F
100
AcDbEntity
  8
AM_VIS
100
AcDbCircle
 10
2211.667343324644
 20
1260.655830859165
 30
0.0
 40
0.9999999999999998
100
AcDbArc
 50
270.0
 51
0.0
  0
ARC
  5
2F4D
330
1F
100
AcDbEntity
  8
AM_VIS
100
AcDbCircle
 10
2174.617343324644
 20
1262.455830859166
 30
0.0
 40
1.7
100
AcDbArc
 50
0.0
 51
90.0
  0
ARC
  5
2F4E
330
1F
100
AcDbEntity
  8
AM_VIS
100
AcDbCircle
 10
2173.717343324644
 20
1262.455830859166
 30
0.0
 40
1.7
100
AcDbArc
 50
90.0
 51
180.0
  0
ARC
  5
2F4F
330
1F
100
AcDbEntity
  8
AM_VIS
100
AcDbCircle
 10
2166.617343324643
 20
1262.455830859166
 30
0.0
 40
1.7
100
AcDbArc
 50
0.0
 51
90.0
  0
ARC
  5
2F50
330
1F
100
AcDbEntity
  8
AM_VIS
100
AcDbCircle
 10
2165.717343324644
 20
1262.455830859166
 30
0.0
 40
1.7
100
AcDbArc
 50
90.0
 51
180.0
  0
LINE
  5
2F53
330
1F
100
AcDbEntity
  8
AM_VIS
100
AcDbLine
 10
2091.698757787485
 20
1405.920054398175
 30
0.0
 11
2092.198757787485
 21
1405.420054398175
 31
0.0
  0
LINE
  5
2F54
330
1F
100
AcDbEntity
  8
AM_VIS
100
AcDbLine
 10
2092.198757787485
 20
1396.620054398175
 30
0.0
 11
2092.198757787485
 21
1405.420054398175
 31
0.0
  0
LINE
  5
2F55
330
1F
100
AcDbEntity
  8
AM_VIS
100
AcDbLine
 10
2092.198757787485
 20
1396.620054398175
 30
0.0
 11
2091.698757787485
 21
1396.120054398174
 31
0.0
  0
LINE
  5
2F56
330
1F
100
AcDbEntity
  8
AM_VIS
100
AcDbLine
 10
2062.698757787485
 20
1396.120054398174
 30
0.0
 11
2062.198757787485
 21
1396.620054398175
 31
0.0
  0
LINE
  5
2F57
330
1F
100
AcDbEntity
  8
AM_VIS
100
AcDbLine
 10
2062.198757787485
 20
1405.420054398175
 30
0.0
 11
2062.198757787485
 21
1396.620054398175
 31
0.0
  0
LINE
  5
2F58
330
1F
100
AcDbEntity
  8
AM_VIS
100
AcDbLine
 10
2062.198757787485
 20
1405.420054398175
 30
0.0
 11
2062.698757787485
 21
1405.920054398175
 31
0.0
  0
LINE
  5
2F59
330
1F
100
AcDbEntity
  8
AM_VIS
100
AcDbLine
 10
2091.698757787485
 20
1405.920054398175
 30
0.0
 11
2062.698757787485
 21
1405.920054398175
 31
0.0
  0
LINE
  5
2F5A
330
1F
100
AcDbEntity
  8
AM_VIS
100
AcDbLine
 10
2062.698757787485
 20
1396.120054398174
 30
0.0
 11
2091.698757787485
 21
1396.120054398174
 31
0.0
  0
LINE
  5
2F5B
330
1F
100
AcDbEntity
  8
AM_VIS
100
AcDbLine
 10
2077.798757787485
 20
1394.120054398175
 30
0.0
 11
2077.798757787485
 21
1339.120054398175
 31
0.0
  0
LINE
  5
2F5C
330
1F
100
AcDbEntity
  8
AM_VIS
100
AcDbLine
 10
2070.798757787485
 20
1394.120054398175
 30
0.0
 11
2070.798757787485
 21
1339.120054398175
 31
0.0
  0
LINE
  5
2F5D
330
1F
100
AcDbEntity
  8
AM_VIS
100
AcDbLine
 10
2067.798757787485
 20
1339.120054398175
 30
0.0
 11
2067.798757787485
 21
1394.120054398175
 31
0.0
  0
LINE
  5
2F5E
330
1F
100
AcDbEntity
  8
AM_VIS
100
AcDbLine
 10
2077.798757787485
 20
1394.120054398175
 30
0.0
 11
2080.798757787485
 21
1394.120054398175
 31
0.0
  0
LINE
  5
2F5F
330
1F
100
AcDbEntity
  8
AM_VIS
100
AcDbLine
 10
2070.798757787485
 20
1394.120054398175
 30
0.0
 11
2077.798757787485
 21
1394.120054398175
 31
0.0
  0
LINE
  5
2F60
330
1F
100
AcDbEntity
  8
AM_VIS
100
AcDbLine
 10
2067.798757787485
 20
1394.120054398175
 30
0.0
 11
2070.798757787485
 21
1394.120054398175
 31
0.0
  0
LINE
  5
2F61
330
1F
100
AcDbEntity
  8
AM_VIS
100
AcDbLine
 10
2067.798757787485
 20
1394.120054398175
 30
0.0
 11
2061.498757787485
 21
1394.120054398175
 31
0.0
  0
LINE
  5
2F62
330
1F
100
AcDbEntity
  8
AM_VIS
100
AcDbLine
 10
2060.198757787485
 20
1394.120054398175
 30
0.0
 11
2060.498757787485
 21
1394.120054398175
 31
0.0
  0
LINE
  5
2F63
330
1F
100
AcDbEntity
  8
AM_VIS
100
AcDbLine
 10
2096.198757787485
 20
1339.120054398175
 30
0.0
 11
2096.198757787485
 21
1394.120054398175
 31
0.0
  0
LINE
  5
2F64
330
1F
100
AcDbEntity
  8
AM_VIS
100
AcDbLine
 10
2080.798757787485
 20
1394.120054398175
 30
0.0
 11
2080.798757787485
 21
1339.120054398175
 31
0.0
  0
LINE
  5
2F65
330
1F
100
AcDbEntity
  8
AM_VIS
100
AcDbLine
 10
2095.198757787485
 20
1394.120054398175
 30
0.0
 11
2080.798757787485
 21
1394.120054398175
 31
0.0
  0
LINE
  5
2F66
330
1F
100
AcDbEntity
  8
AM_VIS
100
AcDbLine
 10
2060.498757787485
 20
1339.120054398175
 30
0.0
 11
2060.198757787485
 21
1339.120054398175
 31
0.0
  0
LINE
  5
2F67
330
1F
100
AcDbEntity
  8
AM_VIS
100
AcDbLine
 10
2061.498757787485
 20
1339.120054398175
 30
0.0
 11
2067.798757787485
 21
1339.120054398175
 31
0.0
  0
LINE
  5
2F68
330
1F
100
AcDbEntity
  8
AM_VIS
100
AcDbLine
 10
2070.798757787485
 20
1339.120054398175
 30
0.0
 11
2067.798757787485
 21
1339.120054398175
 31
0.0
  0
LINE
  5
2F69
330
1F
100
AcDbEntity
  8
AM_VIS
100
AcDbLine
 10
2077.798757787485
 20
1339.120054398175
 30
0.0
 11
2070.798757787485
 21
1339.120054398175
 31
0.0
  0
LINE
  5
2F6A
330
1F
100
AcDbEntity
  8
AM_VIS
100
AcDbLine
 10
2080.798757787485
 20
1339.120054398175
 30
0.0
 11
2077.798757787485
 21
1339.120054398175
 31
0.0
  0
LINE
  5
2F6B
330
1F
100
AcDbEntity
  8
AM_VIS
100
AcDbLine
 10
2080.798757787485
 20
1339.120054398175
 30
0.0
 11
2095.198757787485
 21
1339.120054398175
 31
0.0
  0
LINE
  5
2F6C
330
1F
100
AcDbEntity
  8
AM_VIS
100
AcDbLine
 10
2060.198757787485
 20
1394.120054398175
 30
0.0
 11
2060.198757787485
 21
1339.120054398175
 31
0.0
  0
LINE
  5
2F6D
330
1F
100
AcDbEntity
  8
AM_VIS
100
AcDbLine
 10
2095.198757787485
 20
1394.120054398175
 30
0.0
 11
2096.198757787485
 21
1394.120054398175
 31
0.0
  0
LINE
  5
2F6E
330
1F
100
AcDbEntity
  8
AM_VIS
100
AcDbLine
 10
2060.498757787485
 20
1394.120054398175
 30
0.0
 11
2061.498757787485
 21
1394.120054398175
 31
0.0
  0
LINE
  5
2F6F
330
1F
100
AcDbEntity
  8
AM_VIS
100
AcDbLine
 10
2061.498757787485
 20
1339.120054398175
 30
0.0
 11
2060.498757787485
 21
1339.120054398175
 31
0.0
  0
LINE
  5
2F70
330
1F
100
AcDbEntity
  8
AM_VIS
100
AcDbLine
 10
2096.198757787485
 20
1339.120054398175
 30
0.0
 11
2095.198757787485
 21
1339.120054398175
 31
0.0
  0
LINE
  5
2F73
330
1F
100
AcDbEntity
  8
AM_VIS
100
AcDbLine
 10
2263.464026451329
 20
1405.420054398175
 30
0.0
 11
2263.464026451329
 21
1396.620054398175
 31
0.0
  0
LINE
  5
2F74
330
1F
100
AcDbEntity
  8
AM_VIS
100
AcDbLine
 10
2263.464026451329
 20
1405.420054398175
 30
0.0
 11
2263.964026451329
 21
1405.920054398175
 31
0.0
  0
LINE
  5
2F75
330
1F
100
AcDbEntity
  8
AM_VIS
100
AcDbLine
 10
2292.964026451329
 20
1405.920054398175
 30
0.0
 11
2293.464026451329
 21
1405.420054398175
 31
0.0
  0
LINE
  5
2F76
330
1F
100
AcDbEntity
  8
AM_VIS
100
AcDbLine
 10
2293.464026451329
 20
1396.620054398175
 30
0.0
 11
2293.464026451329
 21
1405.420054398175
 31
0.0
  0
LINE
  5
2F77
330
1F
100
AcDbEntity
  8
AM_VIS
100
AcDbLine
 10
2263.964026451329
 20
1396.120054398174
 30
0.0
 11
2263.464026451329
 21
1396.620054398175
 31
0.0
  0
LINE
  5
2F78
330
1F
100
AcDbEntity
  8
AM_VIS
100
AcDbLine
 10
2293.464026451329
 20
1396.620054398175
 30
0.0
 11
2292.964026451329
 21
1396.120054398174
 31
0.0
  0
LINE
  5
2F79
330
1F
100
AcDbEntity
  8
AM_VIS
100
AcDbLine
 10
2292.964026451329
 20
1405.920054398175
 30
0.0
 11
2263.964026451329
 21
1405.920054398175
 31
0.0
  0
LINE
  5
2F7A
330
1F
100
AcDbEntity
  8
AM_VIS
100
AcDbLine
 10
2263.964026451329
 20
1396.120054398174
 30
0.0
 11
2292.964026451329
 21
1396.120054398174
 31
0.0
  0
LINE
  5
2F7B
330
1F
100
AcDbEntity
  8
AM_VIS
100
AcDbLine
 10
2284.864026451329
 20
1394.120054398175
 30
0.0
 11
2284.864026451329
 21
1339.120054398175
 31
0.0
  0
LINE
  5
2F7C
330
1F
100
AcDbEntity
  8
AM_VIS
100
AcDbLine
 10
2277.864026451329
 20
1394.120054398175
 30
0.0
 11
2277.864026451329
 21
1339.120054398175
 31
0.0
  0
LINE
  5
2F7D
330
1F
100
AcDbEntity
  8
AM_VIS
100
AcDbLine
 10
2274.864026451329
 20
1339.120054398175
 30
0.0
 11
2274.864026451329
 21
1394.120054398175
 31
0.0
  0
LINE
  5
2F7E
330
1F
100
AcDbEntity
  8
AM_VIS
100
AcDbLine
 10
2287.864026451329
 20
1394.120054398175
 30
0.0
 11
2287.864026451329
 21
1339.120054398175
 31
0.0
  0
LINE
  5
2F7F
330
1F
100
AcDbEntity
  8
AM_VIS
100
AcDbLine
 10
2295.164026451329
 20
1394.120054398175
 30
0.0
 11
2295.464026451329
 21
1394.120054398175
 31
0.0
  0
LINE
  5
2F80
330
1F
100
AcDbEntity
  8
AM_VIS
100
AcDbLine
 10
2294.164026451329
 20
1394.120054398175
 30
0.0
 11
2287.864026451329
 21
1394.120054398175
 31
0.0
  0
LINE
  5
2F81
330
1F
100
AcDbEntity
  8
AM_VIS
100
AcDbLine
 10
2284.864026451329
 20
1394.120054398175
 30
0.0
 11
2287.864026451329
 21
1394.120054398175
 31
0.0
  0
LINE
  5
2F82
330
1F
100
AcDbEntity
  8
AM_VIS
100
AcDbLine
 10
2277.864026451329
 20
1394.120054398175
 30
0.0
 11
2284.864026451329
 21
1394.120054398175
 31
0.0
  0
LINE
  5
2F83
330
1F
100
AcDbEntity
  8
AM_VIS
100
AcDbLine
 10
2274.864026451329
 20
1394.120054398175
 30
0.0
 11
2277.864026451329
 21
1394.120054398175
 31
0.0
  0
LINE
  5
2F84
330
1F
100
AcDbEntity
  8
AM_VIS
100
AcDbLine
 10
2274.864026451329
 20
1394.120054398175
 30
0.0
 11
2260.464026451329
 21
1394.120054398175
 31
0.0
  0
LINE
  5
2F85
330
1F
100
AcDbEntity
  8
AM_VIS
100
AcDbLine
 10
2259.464026451329
 20
1394.120054398175
 30
0.0
 11
2259.464026451329
 21
1339.120054398175
 31
0.0
  0
LINE
  5
2F86
330
1F
100
AcDbEntity
  8
AM_VIS
100
AcDbLine
 10
2260.464026451329
 20
1339.120054398175
 30
0.0
 11
2274.864026451329
 21
1339.120054398175
 31
0.0
  0
LINE
  5
2F87
330
1F
100
AcDbEntity
  8
AM_VIS
100
AcDbLine
 10
2277.864026451329
 20
1339.120054398175
 30
0.0
 11
2274.864026451329
 21
1339.120054398175
 31
0.0
  0
LINE
  5
2F88
330
1F
100
AcDbEntity
  8
AM_VIS
100
AcDbLine
 10
2284.864026451329
 20
1339.120054398175
 30
0.0
 11
2277.864026451329
 21
1339.120054398175
 31
0.0
  0
LINE
  5
2F89
330
1F
100
AcDbEntity
  8
AM_VIS
100
AcDbLine
 10
2287.864026451329
 20
1339.120054398175
 30
0.0
 11
2284.864026451329
 21
1339.120054398175
 31
0.0
  0
LINE
  5
2F8A
330
1F
100
AcDbEntity
  8
AM_VIS
100
AcDbLine
 10
2287.864026451329
 20
1339.120054398175
 30
0.0
 11
2294.164026451329
 21
1339.120054398175
 31
0.0
  0
LINE
  5
2F8B
330
1F
100
AcDbEntity
  8
AM_VIS
100
AcDbLine
 10
2295.464026451329
 20
1339.120054398175
 30
0.0
 11
2295.164026451329
 21
1339.120054398175
 31
0.0
  0
LINE
  5
2F8C
330
1F
100
AcDbEntity
  8
AM_VIS
100
AcDbLine
 10
2295.464026451329
 20
1339.120054398175
 30
0.0
 11
2295.464026451329
 21
1394.120054398175
 31
0.0
  0
LINE
  5
2F8D
330
1F
100
AcDbEntity
  8
AM_VIS
100
AcDbLine
 10
2294.164026451329
 20
1394.120054398175
 30
0.0
 11
2295.164026451329
 21
1394.120054398175
 31
0.0
  0
LINE
  5
2F8E
330
1F
100
AcDbEntity
  8
AM_VIS
100
AcDbLine
 10
2259.464026451329
 20
1394.120054398175
 30
0.0
 11
2260.464026451329
 21
1394.120054398175
 31
0.0
  0
LINE
  5
2F8F
330
1F
100
AcDbEntity
  8
AM_VIS
100
AcDbLine
 10
2260.464026451329
 20
1339.120054398175
 30
0.0
 11
2259.464026451329
 21
1339.120054398175
 31
0.0
  0
LINE
  5
2F90
330
1F
100
AcDbEntity
  8
AM_VIS
100
AcDbLine
 10
2295.164026451329
 20
1339.120054398175
 30
0.0
 11
2294.164026451329
 21
1339.120054398175
 31
0.0
  0
LINE
  5
2F95
330
1F
100
AcDbEntity
  8
AM_VIS
100
AcDbLine
 10
2327.358880073104
 20
1405.420054398175
 30
0.0
 11
2327.858880073105
 21
1405.920054398175
 31
0.0
  0
LINE
  5
2F96
330
1F
100
AcDbEntity
  8
AM_VIS
100
AcDbLine
 10
2327.358880073104
 20
1405.420054398175
 30
0.0
 11
2327.358880073104
 21
1396.620054398175
 31
0.0
  0
LINE
  5
2F97
330
1F
100
AcDbEntity
  8
AM_VIS
100
AcDbLine
 10
2327.858880073105
 20
1396.120054398174
 30
0.0
 11
2327.358880073104
 21
1396.620054398175
 31
0.0
  0
LINE
  5
2F98
330
1F
100
AcDbEntity
  8
AM_VIS
100
AcDbLine
 10
2398.858880073104
 20
1405.920054398175
 30
0.0
 11
2399.358880073105
 21
1405.420054398175
 31
0.0
  0
LINE
  5
2F99
330
1F
100
AcDbEntity
  8
AM_VIS
100
AcDbLine
 10
2399.358880073105
 20
1396.620054398175
 30
0.0
 11
2399.358880073105
 21
1405.420054398175
 31
0.0
  0
LINE
  5
2F9A
330
1F
100
AcDbEntity
  8
AM_VIS
100
AcDbLine
 10
2399.358880073105
 20
1396.620054398175
 30
0.0
 11
2398.858880073104
 21
1396.120054398174
 31
0.0
  0
LINE
  5
2F9B
330
1F
100
AcDbEntity
  8
AM_VIS
100
AcDbLine
 10
2398.858880073104
 20
1405.920054398175
 30
0.0
 11
2327.858880073105
 21
1405.920054398175
 31
0.0
  0
LINE
  5
2F9C
330
1F
100
AcDbEntity
  8
AM_VIS
100
AcDbLine
 10
2327.858880073105
 20
1396.120054398174
 30
0.0
 11
2398.858880073104
 21
1396.120054398174
 31
0.0
  0
LINE
  5
2F9D
330
1F
100
AcDbEntity
  8
AM_VIS
100
AcDbLine
 10
2326.858880073105
 20
1394.120054398175
 30
0.0
 11
2326.858880073105
 21
1339.120054398175
 31
0.0
  0
LINE
  5
2F9E
330
1F
100
AcDbEntity
  8
AM_VIS
100
AcDbLine
 10
2361.058880073105
 20
1394.120054398175
 30
0.0
 11
2361.058880073105
 21
1339.120054398175
 31
0.0
  0
LINE
  5
2F9F
330
1F
100
AcDbEntity
  8
AM_VIS
100
AcDbLine
 10
2369.058880073105
 20
1394.120054398175
 30
0.0
 11
2369.058880073105
 21
1339.120054398175
 31
0.0
  0
LINE
  5
2FA0
330
1F
100
AcDbEntity
  8
AM_VIS
100
AcDbLine
 10
2365.658880073105
 20
1339.120054398175
 30
0.0
 11
2365.658880073105
 21
1394.120054398175
 31
0.0
  0
LINE
  5
2FA1
330
1F
100
AcDbEntity
  8
AM_VIS
100
AcDbLine
 10
2320.858880073105
 20
1394.120054398175
 30
0.0
 11
2320.858880073105
 21
1339.120054398175
 31
0.0
  0
LINE
  5
2FA2
330
1F
100
AcDbEntity
  8
AM_VIS
100
AcDbLine
 10
2405.858880073104
 20
1339.120054398175
 30
0.0
 11
2405.858880073104
 21
1394.120054398175
 31
0.0
  0
LINE
  5
2FA3
330
1F
100
AcDbEntity
  8
AM_VIS
100
AcDbLine
 10
2341.858879875086
 20
1394.120054398175
 30
0.0
 11
2341.858879875086
 21
1339.120054398175
 31
0.0
  0
LINE
  5
2FA4
330
1F
100
AcDbEntity
  8
AM_VIS
100
AcDbLine
 10
2399.858880073105
 20
1394.120054398175
 30
0.0
 11
2399.858880073105
 21
1339.120054398175
 31
0.0
  0
LINE
  5
2FA5
330
1F
100
AcDbEntity
  8
AM_VIS
100
AcDbLine
 10
2382.358879875086
 20
1394.120054398175
 30
0.0
 11
2384.558880049342
 21
1394.120054398175
 31
0.0
  0
LINE
  5
2FA6
330
1F
100
AcDbEntity
  8
AM_VIS
100
AcDbLine
 10
2369.058880073105
 20
1394.120054398175
 30
0.0
 11
2380.158880049342
 21
1394.120054398175
 31
0.0
  0
LINE
  5
2FA7
330
1F
100
AcDbEntity
  8
AM_VIS
100
AcDbLine
 10
2366.908880073105
 20
1394.120054398175
 30
0.0
 11
2367.808880073105
 21
1394.120054398175
 31
0.0
  0
LINE
  5
2FA8
330
1F
100
AcDbEntity
  8
AM_VIS
100
AcDbLine
 10
2361.058880073104
 20
1394.120054398175
 30
0.0
 11
2365.658880073105
 21
1394.120054398175
 31
0.0
  0
LINE
  5
2FA9
330
1F
100
AcDbEntity
  8
AM_VIS
100
AcDbLine
 10
2358.908880073105
 20
1394.120054398175
 30
0.0
 11
2359.808880073105
 21
1394.120054398175
 31
0.0
  0
LINE
  5
2FAA
330
1F
100
AcDbEntity
  8
AM_VIS
100
AcDbLine
 10
2341.858879875086
 20
1394.120054398175
 30
0.0
 11
2344.058880049343
 21
1394.120054398175
 31
0.0
  0
LINE
  5
2FAB
330
1F
100
AcDbEntity
  8
AM_VIS
100
AcDbLine
 10
2339.658880049342
 20
1394.120054398175
 30
0.0
 11
2341.858879875086
 21
1394.120054398175
 31
0.0
  0
LINE
  5
2FAC
330
1F
100
AcDbEntity
  8
AM_VIS
100
AcDbLine
 10
2326.858880073105
 20
1394.120054398175
 30
0.0
 11
2327.158880073105
 21
1394.120054398175
 31
0.0
  0
LINE
  5
2FAD
330
1F
100
AcDbEntity
  8
AM_VIS
100
AcDbLine
 10
2321.858880073104
 20
1394.120054398175
 30
0.0
 11
2326.858880073105
 21
1394.120054398175
 31
0.0
  0
LINE
  5
2FAE
330
1F
100
AcDbEntity
  8
AM_VIS
100
AcDbLine
 10
2399.858880073105
 20
1394.120054398175
 30
0.0
 11
2404.858880073105
 21
1394.120054398175
 31
0.0
  0
LINE
  5
2FAF
330
1F
100
AcDbEntity
  8
AM_VIS
100
AcDbLine
 10
2399.558880073105
 20
1394.120054398175
 30
0.0
 11
2399.858880073105
 21
1394.120054398175
 31
0.0
  0
LINE
  5
2FB0
330
1F
100
AcDbEntity
  8
AM_VIS
100
AcDbLine
 10
2380.158880049342
 20
1394.120054398175
 30
0.0
 11
2380.158880049342
 21
1376.563141413246
 31
0.0
  0
LINE
  5
2FB1
330
1F
100
AcDbEntity
  8
AM_VIS
100
AcDbLine
 10
2380.158880049342
 20
1394.120054398175
 30
0.0
 11
2382.358879875086
 21
1394.120054398175
 31
0.0
  0
LINE
  5
2FB2
330
1F
100
AcDbEntity
  8
AM_VIS
100
AcDbLine
 10
2382.358879875086
 20
1394.120054398175
 30
0.0
 11
2382.358879875086
 21
1339.120054398175
 31
0.0
  0
LINE
  5
2FB3
330
1F
100
AcDbEntity
  8
AM_VIS
100
AcDbLine
 10
2380.158880049342
 20
1353.676967383103
 30
0.0
 11
2380.158880049342
 21
1339.120054398175
 31
0.0
  0
SPLINE
  5
2FB4
330
1F
100
AcDbEntity
  8
AM_VIS
100
AcDbSpline
210
0.0
220
0.0
230
1.0
 70
    12
 71
     2
 72
     6
 73
     3
 74
     0
 42
0.0000000001
 43
0.0000000001
 40
0.0
 40
0.0
 40
0.0
 40
2.928310189433604
 40
2.928310189433604
 40
2.928310189433604
 10
2380.158880049342
 20
1353.676967383103
 30
0.0
 41
1.0
 10
2380.508880058428
 20
1355.120054398174
 30
0.0
 41
1.000000004659241
 10
2380.158880049342
 20
1356.563141413246
 30
0.0
 41
1.0
  0
LINE
  5
2FB5
330
1F
100
AcDbEntity
  8
AM_VIS
100
AcDbLine
 10
2380.158880049342
 20
1373.676967383103
 30
0.0
 11
2380.158880049342
 21
1356.563141413246
 31
0.0
  0
SPLINE
  5
2FB6
330
1F
100
AcDbEntity
  8
AM_VIS
100
AcDbSpline
210
0.0
220
0.0
230
1.0
 70
    12
 71
     2
 72
     6
 73
     3
 74
     0
 42
0.0000000001
 43
0.0000000001
 40
0.0
 40
0.0
 40
0.0
 40
2.928310189433588
 40
2.928310189433588
 40
2.928310189433588
 10
2380.158880049342
 20
1373.676967383103
 30
0.0
 41
1.0
 10
2380.508880058428
 20
1375.120054398174
 30
0.0
 41
1.000000004659241
 10
2380.158880049342
 20
1376.563141413246
 30
0.0
 41
1.0
  0
LINE
  5
2FB7
330
1F
100
AcDbEntity
  8
AM_VIS
100
AcDbLine
 10
2344.058880049343
 20
1339.120054398175
 30
0.0
 11
2344.058880049343
 21
1394.120054398175
 31
0.0
  0
LINE
  5
2FB8
330
1F
100
AcDbEntity
  8
AM_VIS
100
AcDbLine
 10
2344.058880049343
 20
1394.120054398175
 30
0.0
 11
2357.658880073105
 21
1394.120054398175
 31
0.0
  0
LINE
  5
2FB9
330
1F
100
AcDbEntity
  8
AM_VIS
100
AcDbLine
 10
2357.658880073105
 20
1339.120054398175
 30
0.0
 11
2357.658880073105
 21
1394.120054398175
 31
0.0
  0
LINE
  5
2FBA
330
1F
100
AcDbEntity
  8
AM_VIS
100
AcDbLine
 10
2399.858880073105
 20
1339.120054398175
 30
0.0
 11
2399.558880073105
 21
1339.120054398175
 31
0.0
  0
LINE
  5
2FBB
330
1F
100
AcDbEntity
  8
AM_VIS
100
AcDbLine
 10
2404.858880073105
 20
1339.120054398175
 30
0.0
 11
2399.858880073105
 21
1339.120054398175
 31
0.0
  0
LINE
  5
2FBC
330
1F
100
AcDbEntity
  8
AM_VIS
100
AcDbLine
 10
2326.858880073105
 20
1339.120054398175
 30
0.0
 11
2321.858880073104
 21
1339.120054398175
 31
0.0
  0
LINE
  5
2FBD
330
1F
100
AcDbEntity
  8
AM_VIS
100
AcDbLine
 10
2327.158880073105
 20
1339.120054398175
 30
0.0
 11
2326.858880073105
 21
1339.120054398175
 31
0.0
  0
LINE
  5
2FBE
330
1F
100
AcDbEntity
  8
AM_VIS
100
AcDbLine
 10
2341.858879875086
 20
1339.120054398175
 30
0.0
 11
2339.658880049342
 21
1339.120054398175
 31
0.0
  0
LINE
  5
2FBF
330
1F
100
AcDbEntity
  8
AM_VIS
100
AcDbLine
 10
2344.058880049343
 20
1339.120054398175
 30
0.0
 11
2341.858879875086
 21
1339.120054398175
 31
0.0
  0
LINE
  5
2FC0
330
1F
100
AcDbEntity
  8
AM_VIS
100
AcDbLine
 10
2357.658880073105
 20
1339.120054398175
 30
0.0
 11
2344.058880049343
 21
1339.120054398175
 31
0.0
  0
LINE
  5
2FC1
330
1F
100
AcDbEntity
  8
AM_VIS
100
AcDbLine
 10
2359.808880073105
 20
1339.120054398175
 30
0.0
 11
2358.908880073105
 21
1339.120054398175
 31
0.0
  0
LINE
  5
2FC2
330
1F
100
AcDbEntity
  8
AM_VIS
100
AcDbLine
 10
2365.658880073105
 20
1339.120054398175
 30
0.0
 11
2361.058880073104
 21
1339.120054398175
 31
0.0
  0
LINE
  5
2FC3
330
1F
100
AcDbEntity
  8
AM_VIS
100
AcDbLine
 10
2367.808880073105
 20
1339.120054398175
 30
0.0
 11
2366.908880073105
 21
1339.120054398175
 31
0.0
  0
LINE
  5
2FC4
330
1F
100
AcDbEntity
  8
AM_VIS
100
AcDbLine
 10
2380.158880049342
 20
1339.120054398175
 30
0.0
 11
2369.058880073104
 21
1339.120054398175
 31
0.0
  0
LINE
  5
2FC5
330
1F
100
AcDbEntity
  8
AM_VIS
100
AcDbLine
 10
2382.358879875086
 20
1339.120054398175
 30
0.0
 11
2380.158880049342
 21
1339.120054398175
 31
0.0
  0
LINE
  5
2FC6
330
1F
100
AcDbEntity
  8
AM_VIS
100
AcDbLine
 10
2384.558880049342
 20
1339.120054398175
 30
0.0
 11
2382.358879875086
 21
1339.120054398175
 31
0.0
  0
LINE
  5
2FC7
330
1F
100
AcDbEntity
  8
AM_VIS
100
AcDbLine
 10
2327.158880073105
 20
1394.120054398175
 30
0.0
 11
2339.658880049342
 21
1394.120054398175
 31
0.0
  0
LINE
  5
2FC8
330
1F
100
AcDbEntity
  8
AM_VIS
100
AcDbLine
 10
2339.658880049342
 20
1394.120054398175
 30
0.0
 11
2339.658880049342
 21
1339.120054398175
 31
0.0
  0
LINE
  5
2FC9
330
1F
100
AcDbEntity
  8
AM_VIS
100
AcDbLine
 10
2339.658880049342
 20
1339.120054398175
 30
0.0
 11
2327.158880073105
 21
1339.120054398175
 31
0.0
  0
LINE
  5
2FCA
330
1F
100
AcDbEntity
  8
AM_VIS
100
AcDbLine
 10
2327.158880073105
 20
1339.120054398175
 30
0.0
 11
2327.158880073105
 21
1394.120054398175
 31
0.0
  0
LINE
  5
2FCB
330
1F
100
AcDbEntity
  8
AM_VIS
100
AcDbLine
 10
2384.558880049342
 20
1394.120054398175
 30
0.0
 11
2399.558880073105
 21
1394.120054398175
 31
0.0
  0
LINE
  5
2FCC
330
1F
100
AcDbEntity
  8
AM_VIS
100
AcDbLine
 10
2399.558880073105
 20
1394.120054398175
 30
0.0
 11
2399.558880073105
 21
1339.120054398175
 31
0.0
  0
LINE
  5
2FCD
330
1F
100
AcDbEntity
  8
AM_VIS
100
AcDbLine
 10
2399.558880073105
 20
1339.120054398175
 30
0.0
 11
2384.558880049342
 21
1339.120054398175
 31
0.0
  0
LINE
  5
2FCE
330
1F
100
AcDbEntity
  8
AM_VIS
100
AcDbLine
 10
2384.558880049342
 20
1339.120054398175
 30
0.0
 11
2384.558880049342
 21
1394.120054398175
 31
0.0
  0
LINE
  5
2FCF
330
1F
100
AcDbEntity
  8
AM_VIS
100
AcDbLine
 10
2369.058880073105
 20
1394.120054398175
 30
0.0
 11
2367.808880073105
 21
1394.120054398175
 31
0.0
  0
LINE
  5
2FD0
330
1F
100
AcDbEntity
  8
AM_VIS
100
AcDbLine
 10
2366.908880073105
 20
1394.120054398175
 30
0.0
 11
2365.658880073105
 21
1394.120054398175
 31
0.0
  0
LINE
  5
2FD1
330
1F
100
AcDbEntity
  8
AM_VIS
100
AcDbLine
 10
2361.058880073105
 20
1394.120054398175
 30
0.0
 11
2359.808880073105
 21
1394.120054398175
 31
0.0
  0
LINE
  5
2FD2
330
1F
100
AcDbEntity
  8
AM_VIS
100
AcDbLine
 10
2358.908880073105
 20
1394.120054398175
 30
0.0
 11
2357.658880073105
 21
1394.120054398175
 31
0.0
  0
LINE
  5
2FD3
330
1F
100
AcDbEntity
  8
AM_VIS
100
AcDbLine
 10
2320.858880073105
 20
1394.120054398175
 30
0.0
 11
2321.858880073104
 21
1394.120054398175
 31
0.0
  0
LINE
  5
2FD4
330
1F
100
AcDbEntity
  8
AM_VIS
100
AcDbLine
 10
2404.858880073105
 20
1394.120054398175
 30
0.0
 11
2405.858880073104
 21
1394.120054398175
 31
0.0
  0
LINE
  5
2FD5
330
1F
100
AcDbEntity
  8
AM_VIS
100
AcDbLine
 10
2405.858880073104
 20
1339.120054398175
 30
0.0
 11
2404.858880073105
 21
1339.120054398175
 31
0.0
  0
LINE
  5
2FD6
330
1F
100
AcDbEntity
  8
AM_VIS
100
AcDbLine
 10
2321.858880073104
 20
1339.120054398175
 30
0.0
 11
2320.858880073105
 21
1339.120054398175
 31
0.0
  0
LINE
  5
2FD7
330
1F
100
AcDbEntity
  8
AM_VIS
100
AcDbLine
 10
2357.658880073105
 20
1339.120054398175
 30
0.0
 11
2358.908880073105
 21
1339.120054398175
 31
0.0
  0
LINE
  5
2FD8
330
1F
100
AcDbEntity
  8
AM_VIS
100
AcDbLine
 10
2359.808880073105
 20
1339.120054398175
 30
0.0
 11
2361.058880073105
 21
1339.120054398175
 31
0.0
  0
LINE
  5
2FD9
330
1F
100
AcDbEntity
  8
AM_VIS
100
AcDbLine
 10
2365.658880073105
 20
1339.120054398175
 30
0.0
 11
2366.908880073105
 21
1339.120054398175
 31
0.0
  0
LINE
  5
2FDA
330
1F
100
AcDbEntity
  8
AM_VIS
100
AcDbLine
 10
2367.808880073105
 20
1339.120054398175
 30
0.0
 11
2369.058880073105
 21
1339.120054398175
 31
0.0
  0
ARC
  5
2FDB
330
1F
100
AcDbEntity
  8
AM_4
100
AcDbCircle
 10
2088.698757787485
 20
1362.120054398175
 30
0.0
 40
4.863999999999999
100
AcDbArc
 50
260.0
 51
170.0
  0
LINE
  5
2FDC
330
1F
100
AcDbEntity
  8
AM_7
  6
AM_ISO08W050x2
100
AcDbLine
 10
2088.698757787485
 20
1368.984054398175
 30
0.0
 11
2088.698757787485
 21
1355.256054398174
 31
0.0
  0
CIRCLE
  5
2FDD
330
1F
100
AcDbEntity
  8
AM_0
100
AcDbCircle
 10
2088.698757787485
 20
1362.120054398175
 30
0.0
 40
4.283
  0
LINE
  5
2FDE
330
1F
100
AcDbEntity
  8
AM_7
  6
AM_ISO08W050x2
100
AcDbLine
 10
2081.834757787484
 20
1362.120054398175
 30
0.0
 11
2095.562757787485
 21
1362.120054398175
 31
0.0
  0
ARC
  5
2FDF
330
1F
100
AcDbEntity
  8
AM_4
100
AcDbCircle
 10
2088.698757787485
 20
1382.120054398175
 30
0.0
 40
4.863999999999999
100
AcDbArc
 50
260.0
 51
170.0
  0
LINE
  5
2FE0
330
1F
100
AcDbEntity
  8
AM_7
  6
AM_ISO08W050x2
100
AcDbLine
 10
2088.698757787485
 20
1388.984054398175
 30
0.0
 11
2088.698757787485
 21
1375.256054398175
 31
0.0
  0
CIRCLE
  5
2FE1
330
1F
100
AcDbEntity
  8
AM_0
100
AcDbCircle
 10
2088.698757787485
 20
1382.120054398175
 30
0.0
 40
4.283
  0
LINE
  5
2FE2
330
1F
100
AcDbEntity
  8
AM_7
  6
AM_ISO08W050x2
100
AcDbLine
 10
2081.834757787484
 20
1382.120054398175
 30
0.0
 11
2095.562757787485
 21
1382.120054398175
 31
0.0
  0
ARC
  5
2FE3
330
1F
100
AcDbEntity
  8
AM_4
100
AcDbCircle
 10
2145.667343324644
 20
1382.120054398175
 30
0.0
 40
4.863999999999999
100
AcDbArc
 50
260.0
 51
170.0
  0
LINE
  5
2FE4
330
1F
100
AcDbEntity
  8
AM_7
  6
AM_ISO08W050x2
100
AcDbLine
 10
2145.667343324644
 20
1388.984054398175
 30
0.0
 11
2145.667343324644
 21
1375.256054398175
 31
0.0
  0
CIRCLE
  5
2FE5
330
1F
100
AcDbEntity
  8
AM_0
100
AcDbCircle
 10
2145.667343324644
 20
1382.120054398175
 30
0.0
 40
4.283
  0
LINE
  5
2FE6
330
1F
100
AcDbEntity
  8
AM_7
  6
AM_ISO08W050x2
100
AcDbLine
 10
2138.803343324644
 20
1382.120054398175
 30
0.0
 11
2152.531343324644
 21
1382.120054398175
 31
0.0
  0
ARC
  5
2FE7
330
1F
100
AcDbEntity
  8
AM_4
100
AcDbCircle
 10
2145.667343324644
 20
1362.120054398175
 30
0.0
 40
4.863999999999999
100
AcDbArc
 50
260.0
 51
170.0
  0
LINE
  5
2FE8
330
1F
100
AcDbEntity
  8
AM_7
  6
AM_ISO08W050x2
100
AcDbLine
 10
2145.667343324644
 20
1368.984054398175
 30
0.0
 11
2145.667343324644
 21
1355.256054398174
 31
0.0
  0
CIRCLE
  5
2FE9
330
1F
100
AcDbEntity
  8
AM_0
100
AcDbCircle
 10
2145.667343324644
 20
1362.120054398175
 30
0.0
 40
4.283
  0
LINE
  5
2FEA
330
1F
100
AcDbEntity
  8
AM_7
  6
AM_ISO08W050x2
100
AcDbLine
 10
2138.803343324644
 20
1362.120054398175
 30
0.0
 11
2152.531343324644
 21
1362.120054398175
 31
0.0
  0
LINE
  5
2FEB
330
1F
100
AcDbEntity
  8
AM_7
  6
AM_ISO08W050x2
100
AcDbLine
 10
2156.167343324644
 20
1375.120054398174
 30
0.0
 11
2162.917343324644
 21
1375.120054398174
 31
0.0
1001
GENIUS_GENOREF_13
1005
306E
  0
LINE
  5
2FEC
330
1F
100
AcDbEntity
  8
AM_7
  6
AM_ISO08W050x2
100
AcDbLine
 10
2156.167343324644
 20
1375.120054398174
 30
0.0
 11
2156.167343324644
 21
1381.870054398175
 31
0.0
1001
GENIUS_GENOREF_13
1005
306E
  0
LINE
  5
2FED
330
1F
100
AcDbEntity
  8
AM_7
  6
AM_ISO08W050x2
100
AcDbLine
 10
2156.167343324644
 20
1375.120054398174
 30
0.0
 11
2149.417343324644
 21
1375.120054398174
 31
0.0
1001
GENIUS_GENOREF_13
1005
306E
  0
LINE
  5
2FEE
330
1F
100
AcDbEntity
  8
AM_7
  6
AM_ISO08W050x2
100
AcDbLine
 10
2156.167343324644
 20
1375.120054398174
 30
0.0
 11
2156.167343324644
 21
1368.370054398174
 31
0.0
1001
GENIUS_GENOREF_13
1005
306E
  0
LINE
  5
2FEF
330
1F
100
AcDbEntity
  8
AM_7
  6
AM_ISO08W050x2
100
AcDbLine
 10
2156.167343324644
 20
1355.120054398175
 30
0.0
 11
2162.917343324644
 21
1355.120054398175
 31
0.0
1001
GENIUS_GENOREF_13
1005
306D
  0
LINE
  5
2FF0
330
1F
100
AcDbEntity
  8
AM_7
  6
AM_ISO08W050x2
100
AcDbLine
 10
2156.167343324644
 20
1355.120054398175
 30
0.0
 11
2156.167343324644
 21
1361.870054398174
 31
0.0
1001
GENIUS_GENOREF_13
1005
306D
  0
LINE
  5
2FF1
330
1F
100
AcDbEntity
  8
AM_7
  6
AM_ISO08W050x2
100
AcDbLine
 10
2156.167343324644
 20
1355.120054398175
 30
0.0
 11
2149.417343324644
 21
1355.120054398175
 31
0.0
1001
GENIUS_GENOREF_13
1005
306D
  0
LINE
  5
2FF2
330
1F
100
AcDbEntity
  8
AM_7
  6
AM_ISO08W050x2
100
AcDbLine
 10
2156.167343324644
 20
1355.120054398175
 30
0.0
 11
2156.167343324644
 21
1348.370054398175
 31
0.0
1001
GENIUS_GENOREF_13
1005
306D
  0
LINE
  5
2FF3
330
1F
100
AcDbEntity
  8
AM_7
  6
AM_ISO08W050x2
100
AcDbLine
 10
2184.167343324644
 20
1355.120054398175
 30
0.0
 11
2190.917343324644
 21
1355.120054398175
 31
0.0
1001
GENIUS_GENOREF_13
1005
306C
  0
LINE
  5
2FF4
330
1F
100
AcDbEntity
  8
AM_7
  6
AM_ISO08W050x2
100
AcDbLine
 10
2184.167343324644
 20
1355.120054398175
 30
0.0
 11
2184.167343324644
 21
1361.870054398174
 31
0.0
1001
GENIUS_GENOREF_13
1005
306C
  0
LINE
  5
2FF5
330
1F
100
AcDbEntity
  8
AM_7
  6
AM_ISO08W050x2
100
AcDbLine
 10
2184.167343324644
 20
1355.120054398175
 30
0.0
 11
2177.417343324644
 21
1355.120054398175
 31
0.0
1001
GENIUS_GENOREF_13
1005
306C
  0
LINE
  5
2FF6
330
1F
100
AcDbEntity
  8
AM_7
  6
AM_ISO08W050x2
100
AcDbLine
 10
2184.167343324644
 20
1355.120054398175
 30
0.0
 11
2184.167343324644
 21
1348.370054398175
 31
0.0
1001
GENIUS_GENOREF_13
1005
306C
  0
LINE
  5
2FF7
330
1F
100
AcDbEntity
  8
AM_7
  6
AM_ISO08W050x2
100
AcDbLine
 10
2184.167343324644
 20
1375.120054398174
 30
0.0
 11
2190.917343324644
 21
1375.120054398174
 31
0.0
1001
GENIUS_GENOREF_13
1005
3071
  0
LINE
  5
2FF8
330
1F
100
AcDbEntity
  8
AM_7
  6
AM_ISO08W050x2
100
AcDbLine
 10
2184.167343324644
 20
1375.120054398174
 30
0.0
 11
2184.167343324644
 21
1381.870054398175
 31
0.0
1001
GENIUS_GENOREF_13
1005
3071
  0
LINE
  5
2FF9
330
1F
100
AcDbEntity
  8
AM_7
  6
AM_ISO08W050x2
100
AcDbLine
 10
2184.167343324644
 20
1375.120054398174
 30
0.0
 11
2177.417343324644
 21
1375.120054398174
 31
0.0
1001
GENIUS_GENOREF_13
1005
3071
  0
LINE
  5
2FFA
330
1F
100
AcDbEntity
  8
AM_7
  6
AM_ISO08W050x2
100
AcDbLine
 10
2184.167343324644
 20
1375.120054398174
 30
0.0
 11
2184.167343324644
 21
1368.370054398174
 31
0.0
1001
GENIUS_GENOREF_13
1005
3071
  0
ARC
  5
2FFB
330
1F
100
AcDbEntity
  8
AM_4
100
AcDbCircle
 10
2331.358880073105
 20
1383.120054398174
 30
0.0
 40
2.5
100
AcDbArc
 50
259.9999999999939
 51
170.0000000000089
  0
CIRCLE
  5
2FFC
330
1F
100
AcDbEntity
  8
AM_0
100
AcDbCircle
 10
2331.358880073105
 20
1383.120054398174
 30
0.0
 40
2.066987298107819
  0
LINE
  5
2FFD
330
1F
100
AcDbEntity
  8
AM_7
  6
AM_ISO08W050x2
100
AcDbLine
 10
2327.858880073105
 20
1383.120054398174
 30
0.0
 11
2334.858880073105
 21
1383.120054398174
 31
0.0
  0
LINE
  5
2FFE
330
1F
100
AcDbEntity
  8
AM_7
  6
AM_ISO08W050x2
100
AcDbLine
 10
2331.358880073105
 20
1379.620054398175
 30
0.0
 11
2331.358880073105
 21
1386.620054398175
 31
0.0
  0
ARC
  5
2FFF
330
1F
100
AcDbEntity
  8
AM_4
100
AcDbCircle
 10
2331.358880073105
 20
1353.120054398174
 30
0.0
 40
2.5
100
AcDbArc
 50
259.9999999999939
 51
170.0000000000089
  0
CIRCLE
  5
3000
330
1F
100
AcDbEntity
  8
AM_0
100
AcDbCircle
 10
2331.358880073105
 20
1353.120054398174
 30
0.0
 40
2.066987298107819
  0
LINE
  5
3001
330
1F
100
AcDbEntity
  8
AM_7
  6
AM_ISO08W050x2
100
AcDbLine
 10
2327.858880073105
 20
1353.120054398174
 30
0.0
 11
2334.858880073105
 21
1353.120054398174
 31
0.0
  0
LINE
  5
3002
330
1F
100
AcDbEntity
  8
AM_7
  6
AM_ISO08W050x2
100
AcDbLine
 10
2331.358880073105
 20
1349.620054398174
 30
0.0
 11
2331.358880073105
 21
1356.620054398175
 31
0.0
  0
ARC
  5
3003
330
1F
100
AcDbEntity
  8
AM_4
100
AcDbCircle
 10
2395.358880073104
 20
1353.120054398174
 30
0.0
 40
2.5
100
AcDbArc
 50
259.9999999999939
 51
170.0000000000089
  0
CIRCLE
  5
3004
330
1F
100
AcDbEntity
  8
AM_0
100
AcDbCircle
 10
2395.358880073104
 20
1353.120054398174
 30
0.0
 40
2.066987298107819
  0
LINE
  5
3005
330
1F
100
AcDbEntity
  8
AM_7
  6
AM_ISO08W050x2
100
AcDbLine
 10
2391.858880073105
 20
1353.120054398174
 30
0.0
 11
2398.858880073104
 21
1353.120054398174
 31
0.0
  0
LINE
  5
3006
330
1F
100
AcDbEntity
  8
AM_7
  6
AM_ISO08W050x2
100
AcDbLine
 10
2395.358880073104
 20
1349.620054398174
 30
0.0
 11
2395.358880073104
 21
1356.620054398175
 31
0.0
  0
ARC
  5
3007
330
1F
100
AcDbEntity
  8
AM_4
100
AcDbCircle
 10
2395.358880073104
 20
1383.120054398174
 30
0.0
 40
2.5
100
AcDbArc
 50
259.9999999999939
 51
170.0000000000089
  0
CIRCLE
  5
3008
330
1F
100
AcDbEntity
  8
AM_0
100
AcDbCircle
 10
2395.358880073104
 20
1383.120054398174
 30
0.0
 40
2.066987298107819
  0
LINE
  5
3009
330
1F
100
AcDbEntity
  8
AM_7
  6
AM_ISO08W050x2
100
AcDbLine
 10
2391.858880073105
 20
1383.120054398174
 30
0.0
 11
2398.858880073104
 21
1383.120054398174
 31
0.0
  0
LINE
  5
300A
330
1F
100
AcDbEntity
  8
AM_7
  6
AM_ISO08W050x2
100
AcDbLine
 10
2395.358880073104
 20
1379.620054398175
 30
0.0
 11
2395.358880073104
 21
1386.620054398175
 31
0.0
  0
ARC
  5
300B
330
1F
100
AcDbEntity
  8
AM_4
100
AcDbCircle
 10
2349.358880073105
 20
1375.120054398174
 30
0.0
 40
3.0
100
AcDbArc
 50
260.0
 51
170.0
  0
LINE
  5
300C
330
1F
100
AcDbEntity
  8
AM_7
  6
AM_ISO08W050x2
100
AcDbLine
 10
2344.358880073105
 20
1375.120054398174
 30
0.0
 11
2354.358880073105
 21
1375.120054398174
 31
0.0
  0
LINE
  5
300D
330
1F
100
AcDbEntity
  8
AM_7
  6
AM_ISO08W050x2
100
AcDbLine
 10
2349.358880073105
 20
1370.120054398175
 30
0.0
 11
2349.358880073105
 21
1380.120054398175
 31
0.0
  0
CIRCLE
  5
300E
330
1F
100
AcDbEntity
  8
0
100
AcDbCircle
 10
2349.358880073105
 20
1375.120054398174
 30
0.0
 40
2.649999999999999
  0
ARC
  5
300F
330
1F
100
AcDbEntity
  8
AM_4
100
AcDbCircle
 10
2377.358880073105
 20
1375.120054398174
 30
0.0
 40
3.0
100
AcDbArc
 50
260.0
 51
170.0
  0
LINE
  5
3010
330
1F
100
AcDbEntity
  8
AM_7
  6
AM_ISO08W050x2
100
AcDbLine
 10
2372.358880073105
 20
1375.120054398174
 30
0.0
 11
2382.358880073105
 21
1375.120054398174
 31
0.0
  0
LINE
  5
3011
330
1F
100
AcDbEntity
  8
AM_7
  6
AM_ISO08W050x2
100
AcDbLine
 10
2377.358880073105
 20
1370.120054398175
 30
0.0
 11
2377.358880073105
 21
1380.120054398175
 31
0.0
  0
CIRCLE
  5
3012
330
1F
100
AcDbEntity
  8
0
100
AcDbCircle
 10
2377.358880073105
 20
1375.120054398174
 30
0.0
 40
2.649999999999999
  0
ARC
  5
3013
330
1F
100
AcDbEntity
  8
AM_4
100
AcDbCircle
 10
2377.358880073105
 20
1355.120054398175
 30
0.0
 40
3.0
100
AcDbArc
 50
260.0
 51
170.0
  0
LINE
  5
3014
330
1F
100
AcDbEntity
  8
AM_7
  6
AM_ISO08W050x2
100
AcDbLine
 10
2372.358880073105
 20
1355.120054398175
 30
0.0
 11
2382.358880073105
 21
1355.120054398175
 31
0.0
  0
LINE
  5
3015
330
1F
100
AcDbEntity
  8
AM_7
  6
AM_ISO08W050x2
100
AcDbLine
 10
2377.358880073105
 20
1350.120054398175
 30
0.0
 11
2377.358880073105
 21
1360.120054398175
 31
0.0
  0
CIRCLE
  5
3016
330
1F
100
AcDbEntity
  8
0
100
AcDbCircle
 10
2377.358880073105
 20
1355.120054398175
 30
0.0
 40
2.649999999999999
  0
ARC
  5
3017
330
1F
100
AcDbEntity
  8
AM_4
100
AcDbCircle
 10
2349.358880073105
 20
1355.120054398175
 30
0.0
 40
3.0
100
AcDbArc
 50
260.0
 51
170.0
  0
LINE
  5
3018
330
1F
100
AcDbEntity
  8
AM_7
  6
AM_ISO08W050x2
100
AcDbLine
 10
2344.358880073105
 20
1355.120054398175
 30
0.0
 11
2354.358880073105
 21
1355.120054398175
 31
0.0
  0
LINE
  5
3019
330
1F
100
AcDbEntity
  8
AM_7
  6
AM_ISO08W050x2
100
AcDbLine
 10
2349.358880073105
 20
1350.120054398175
 30
0.0
 11
2349.358880073105
 21
1360.120054398175
 31
0.0
  0
CIRCLE
  5
301A
330
1F
100
AcDbEntity
  8
0
100
AcDbCircle
 10
2349.358880073105
 20
1355.120054398175
 30
0.0
 40
2.649999999999999
  0
ARC
  5
301B
330
1F
100
AcDbEntity
  8
AM_4
100
AcDbCircle
 10
2144.167343324644
 20
1289.355830859165
 30
0.0
 40
2.5
100
AcDbArc
 50
259.9999999999939
 51
170.0000000000089
  0
CIRCLE
  5
301C
330
1F
100
AcDbEntity
  8
AM_0
100
AcDbCircle
 10
2144.167343324644
 20
1289.355830859165
 30
0.0
 40
2.066987298107819
  0
LINE
  5
301D
330
1F
100
AcDbEntity
  8
AM_7
  6
AM_ISO08W050x2
100
AcDbLine
 10
2140.667343324644
 20
1289.355830859165
 30
0.0
 11
2147.667343324644
 21
1289.355830859165
 31
0.0
  0
LINE
  5
301E
330
1F
100
AcDbEntity
  8
AM_7
  6
AM_ISO08W050x2
100
AcDbLine
 10
2144.167343324644
 20
1285.855830859165
 30
0.0
 11
2144.167343324644
 21
1292.855830859165
 31
0.0
  0
ARC
  5
301F
330
1F
100
AcDbEntity
  8
AM_4
100
AcDbCircle
 10
2144.167343324644
 20
1263.355830859165
 30
0.0
 40
2.5
100
AcDbArc
 50
259.9999999999939
 51
170.0000000000089
  0
CIRCLE
  5
3020
330
1F
100
AcDbEntity
  8
AM_0
100
AcDbCircle
 10
2144.167343324644
 20
1263.355830859165
 30
0.0
 40
2.066987298107819
  0
LINE
  5
3021
330
1F
100
AcDbEntity
  8
AM_7
  6
AM_ISO08W050x2
100
AcDbLine
 10
2140.667343324644
 20
1263.355830859165
 30
0.0
 11
2147.667343324644
 21
1263.355830859165
 31
0.0
  0
LINE
  5
3022
330
1F
100
AcDbEntity
  8
AM_7
  6
AM_ISO08W050x2
100
AcDbLine
 10
2144.167343324644
 20
1259.855830859165
 30
0.0
 11
2144.167343324644
 21
1266.855830859165
 31
0.0
  0
ARC
  5
3023
330
1F
100
AcDbEntity
  8
AM_4
100
AcDbCircle
 10
2196.167343324644
 20
1263.355830859165
 30
0.0
 40
2.5
100
AcDbArc
 50
259.9999999999939
 51
170.0000000000089
  0
CIRCLE
  5
3024
330
1F
100
AcDbEntity
  8
AM_0
100
AcDbCircle
 10
2196.167343324644
 20
1263.355830859165
 30
0.0
 40
2.066987298107819
  0
LINE
  5
3025
330
1F
100
AcDbEntity
  8
AM_7
  6
AM_ISO08W050x2
100
AcDbLine
 10
2192.667343324644
 20
1263.355830859165
 30
0.0
 11
2199.667343324644
 21
1263.355830859165
 31
0.0
  0
LINE
  5
3026
330
1F
100
AcDbEntity
  8
AM_7
  6
AM_ISO08W050x2
100
AcDbLine
 10
2196.167343324644
 20
1259.855830859165
 30
0.0
 11
2196.167343324644
 21
1266.855830859165
 31
0.0
  0
ARC
  5
3027
330
1F
100
AcDbEntity
  8
AM_4
100
AcDbCircle
 10
2196.167343324644
 20
1289.355830859165
 30
0.0
 40
2.5
100
AcDbArc
 50
259.9999999999939
 51
170.0000000000089
  0
CIRCLE
  5
3028
330
1F
100
AcDbEntity
  8
AM_0
100
AcDbCircle
 10
2196.167343324644
 20
1289.355830859165
 30
0.0
 40
2.066987298107819
  0
LINE
  5
3029
330
1F
100
AcDbEntity
  8
AM_7
  6
AM_ISO08W050x2
100
AcDbLine
 10
2192.667343324644
 20
1289.355830859165
 30
0.0
 11
2199.667343324644
 21
1289.355830859165
 31
0.0
  0
LINE
  5
302A
330
1F
100
AcDbEntity
  8
AM_7
  6
AM_ISO08W050x2
100
AcDbLine
 10
2196.167343324644
 20
1285.855830859165
 30
0.0
 11
2196.167343324644
 21
1292.855830859165
 31
0.0
  0
ARC
  5
302B
330
1F
100
AcDbEntity
  8
AM_4
100
AcDbCircle
 10
2140.167343324644
 20
1448.958429532433
 30
0.0
 40
2.5
100
AcDbArc
 50
259.9999999999939
 51
170.0000000000089
  0
CIRCLE
  5
302C
330
1F
100
AcDbEntity
  8
AM_0
100
AcDbCircle
 10
2140.167343324644
 20
1448.958429532433
 30
0.0
 40
2.066987298107819
  0
LINE
  5
302D
330
1F
100
AcDbEntity
  8
AM_7
  6
AM_ISO08W050x2
100
AcDbLine
 10
2136.667343324644
 20
1448.958429532433
 30
0.0
 11
2143.667343324644
 21
1448.958429532433
 31
0.0
  0
LINE
  5
302E
330
1F
100
AcDbEntity
  8
AM_7
  6
AM_ISO08W050x2
100
AcDbLine
 10
2140.167343324644
 20
1445.458429532433
 30
0.0
 11
2140.167343324644
 21
1452.458429532433
 31
0.0
  0
ARC
  5
302F
330
1F
100
AcDbEntity
  8
AM_4
100
AcDbCircle
 10
2140.167343324644
 20
1466.958429532433
 30
0.0
 40
2.5
100
AcDbArc
 50
259.9999999999939
 51
170.0000000000089
  0
CIRCLE
  5
3030
330
1F
100
AcDbEntity
  8
AM_0
100
AcDbCircle
 10
2140.167343324644
 20
1466.958429532433
 30
0.0
 40
2.066987298107819
  0
LINE
  5
3031
330
1F
100
AcDbEntity
  8
AM_7
  6
AM_ISO08W050x2
100
AcDbLine
 10
2136.667343324644
 20
1466.958429532433
 30
0.0
 11
2143.667343324644
 21
1466.958429532433
 31
0.0
  0
LINE
  5
3032
330
1F
100
AcDbEntity
  8
AM_7
  6
AM_ISO08W050x2
100
AcDbLine
 10
2140.167343324644
 20
1463.458429532433
 30
0.0
 11
2140.167343324644
 21
1470.458429532433
 31
0.0
  0
ARC
  5
3033
330
1F
100
AcDbEntity
  8
AM_4
100
AcDbCircle
 10
2200.167343324644
 20
1466.958429532433
 30
0.0
 40
2.5
100
AcDbArc
 50
259.9999999999939
 51
170.0000000000089
  0
CIRCLE
  5
3034
330
1F
100
AcDbEntity
  8
AM_0
100
AcDbCircle
 10
2200.167343324644
 20
1466.958429532433
 30
0.0
 40
2.066987298107819
  0
LINE
  5
3035
330
1F
100
AcDbEntity
  8
AM_7
  6
AM_ISO08W050x2
100
AcDbLine
 10
2196.667343324644
 20
1466.958429532433
 30
0.0
 11
2203.667343324644
 21
1466.958429532433
 31
0.0
  0
LINE
  5
3036
330
1F
100
AcDbEntity
  8
AM_7
  6
AM_ISO08W050x2
100
AcDbLine
 10
2200.167343324644
 20
1463.458429532433
 30
0.0
 11
2200.167343324644
 21
1470.458429532433
 31
0.0
  0
ARC
  5
3037
330
1F
100
AcDbEntity
  8
AM_4
100
AcDbCircle
 10
2200.167343324644
 20
1448.958429532433
 30
0.0
 40
2.5
100
AcDbArc
 50
259.9999999999939
 51
170.0000000000089
  0
CIRCLE
  5
3038
330
1F
100
AcDbEntity
  8
AM_0
100
AcDbCircle
 10
2200.167343324644
 20
1448.958429532433
 30
0.0
 40
2.066987298107819
  0
LINE
  5
3039
330
1F
100
AcDbEntity
  8
AM_7
  6
AM_ISO08W050x2
100
AcDbLine
 10
2196.667343324644
 20
1448.958429532433
 30
0.0
 11
2203.667343324644
 21
1448.958429532433
 31
0.0
  0
LINE
  5
303A
330
1F
100
AcDbEntity
  8
AM_7
  6
AM_ISO08W050x2
100
AcDbLine
 10
2200.167343324644
 20
1445.458429532433
 30
0.0
 11
2200.167343324644
 21
1452.458429532433
 31
0.0
  0
CIRCLE
  5
303B
330
1F
100
AcDbEntity
  8
0
100
AcDbCircle
 10
2142.667343324644
 20
1276.355830859165
 30
0.0
 40
6.0
  0
CIRCLE
  5
303C
330
1F
100
AcDbEntity
  8
0
100
AcDbCircle
 10
2197.667343324644
 20
1276.355830859165
 30
0.0
 40
6.0
  0
LINE
  5
303D
330
1F
100
AcDbEntity
  8
AM_7
  6
AM_ISO08W050x2
100
AcDbLine
 10
2142.667343324644
 20
1276.355830859165
 30
0.0
 11
2150.667343324644
 21
1276.355830859165
 31
0.0
1001
GENIUS_GENOREF_13
1005
3070
  0
LINE
  5
303E
330
1F
100
AcDbEntity
  8
AM_7
  6
AM_ISO08W050x2
100
AcDbLine
 10
2142.667343324644
 20
1276.355830859165
 30
0.0
 11
2142.667343324644
 21
1284.355830859165
 31
0.0
1001
GENIUS_GENOREF_13
1005
3070
  0
LINE
  5
303F
330
1F
100
AcDbEntity
  8
AM_7
  6
AM_ISO08W050x2
100
AcDbLine
 10
2142.667343324644
 20
1276.355830859165
 30
0.0
 11
2134.667343324644
 21
1276.355830859165
 31
0.0
1001
GENIUS_GENOREF_13
1005
3070
  0
LINE
  5
3040
330
1F
100
AcDbEntity
  8
AM_7
  6
AM_ISO08W050x2
100
AcDbLine
 10
2142.667343324644
 20
1276.355830859165
 30
0.0
 11
2142.667343324644
 21
1268.355830859165
 31
0.0
1001
GENIUS_GENOREF_13
1005
3070
  0
LINE
  5
3041
330
1F
100
AcDbEntity
  8
AM_7
  6
AM_ISO08W050x2
100
AcDbLine
 10
2197.667343324644
 20
1276.355830859165
 30
0.0
 11
2205.667343324644
 21
1276.355830859165
 31
0.0
1001
GENIUS_GENOREF_13
1005
306F
  0
LINE
  5
3042
330
1F
100
AcDbEntity
  8
AM_7
  6
AM_ISO08W050x2
100
AcDbLine
 10
2197.667343324644
 20
1276.355830859165
 30
0.0
 11
2197.667343324644
 21
1284.355830859165
 31
0.0
1001
GENIUS_GENOREF_13
1005
306F
  0
LINE
  5
3043
330
1F
100
AcDbEntity
  8
AM_7
  6
AM_ISO08W050x2
100
AcDbLine
 10
2197.667343324644
 20
1276.355830859165
 30
0.0
 11
2189.667343324644
 21
1276.355830859165
 31
0.0
1001
GENIUS_GENOREF_13
1005
306F
  0
LINE
  5
3044
330
1F
100
AcDbEntity
  8
AM_7
  6
AM_ISO08W050x2
100
AcDbLine
 10
2197.667343324644
 20
1276.355830859165
 30
0.0
 11
2197.667343324644
 21
1268.355830859165
 31
0.0
1001
GENIUS_GENOREF_13
1005
306F
  0
LINE
  5
3045
330
1F
100
AcDbEntity
  8
AM_7
  6
AM_ISO08W050x2
100
AcDbLine
 10
2142.667343324644
 20
1398.120054398175
 30
0.0
 11
2142.667343324644
 21
1392.120054398175
 31
0.0
1001
GENIUS_GENODEF_13
1002
{
1000
HIER
1070
     0
1002
}
1002
{
1000
MANEDIT
1070
     0
1002
}
1002
{
1000
NOSEL
1070
     0
1002
}
1002
{
1000
BEHIND
1070
     0
1002
}
1002
{
1000
OTHER
1070
     0
1002
}
1002
{
1000
REACTOR
1002
}
1001
GENIUS_GENOBJ-N-CEN_13
1002
{
1000
OWNER
1000
GEN
1002
}
1001
GENIUS_GENCEN_19
1002
{
1040
2.0
1002
}
  0
LINE
  5
3046
330
1F
100
AcDbEntity
  8
AM_7
  6
AM_ISO08W050x2
100
AcDbLine
 10
2197.667343324644
 20
1398.120054398175
 30
0.0
 11
2197.667343324644
 21
1392.120054398175
 31
0.0
1001
GENIUS_GENODEF_13
1002
{
1000
HIER
1070
     0
1002
}
1002
{
1000
MANEDIT
1070
     0
1002
}
1002
{
1000
NOSEL
1070
     0
1002
}
1002
{
1000
BEHIND
1070
     0
1002
}
1002
{
1000
OTHER
1070
     0
1002
}
1002
{
1000
REACTOR
1002
}
1001
GENIUS_GENOBJ-N-CEN_13
1002
{
1000
OWNER
1000
GEN
1002
}
1001
GENIUS_GENCEN_19
1002
{
1040
2.0
1002
}
  0
LINE
  5
3047
330
1F
100
AcDbEntity
  8
AM_7
  6
AM_ISO08W050x2
100
AcDbLine
 10
2170.167343324644
 20
1398.120054398175
 30
0.0
 11
2170.167343324644
 21
1392.120054398175
 31
0.0
1001
GENIUS_GENODEF_13
1002
{
1000
HIER
1070
     0
1002
}
1002
{
1000
MANEDIT
1070
     0
1002
}
1002
{
1000
NOSEL
1070
     0
1002
}
1002
{
1000
BEHIND
1070
     0
1002
}
1002
{
1000
OTHER
1070
     0
1002
}
1002
{
1000
REACTOR
1002
}
1001
GENIUS_GENOBJ-N-CEN_13
1002
{
1000
OWNER
1000
GEN
1002
}
1001
GENIUS_GENCEN_19
1002
{
1040
2.0
1002
}
  0
LINE
  5
3048
330
1F
100
AcDbEntity
  8
AM_7
  6
AM_ISO08W050x2
100
AcDbLine
 10
2077.198757787485
 20
1398.120054398175
 30
0.0
 11
2077.198757787485
 21
1392.120054398175
 31
0.0
1001
GENIUS_GENODEF_13
1002
{
1000
HIER
1070
     0
1002
}
1002
{
1000
MANEDIT
1070
     0
1002
}
1002
{
1000
NOSEL
1070
     0
1002
}
1002
{
1000
BEHIND
1070
     0
1002
}
1002
{
1000
OTHER
1070
     0
1002
}
1002
{
1000
REACTOR
1002
}
1001
GENIUS_GENOBJ-N-CEN_13
1002
{
1000
OWNER
1000
GEN
1002
}
1001
GENIUS_GENCEN_19
1002
{
1040
2.0
1002
}
  0
LINE
  5
3049
330
1F
100
AcDbEntity
  8
AM_7
  6
AM_ISO08W050x2
100
AcDbLine
 10
2278.464026451329
 20
1398.120054398175
 30
0.0
 11
2278.464026451329
 21
1392.120054398175
 31
0.0
1001
GENIUS_GENODEF_13
1002
{
1000
HIER
1070
     0
1002
}
1002
{
1000
MANEDIT
1070
     0
1002
}
1002
{
1000
NOSEL
1070
     0
1002
}
1002
{
1000
BEHIND
1070
     0
1002
}
1002
{
1000
OTHER
1070
     0
1002
}
1002
{
1000
REACTOR
1002
}
1001
GENIUS_GENOBJ-N-CEN_13
1002
{
1000
OWNER
1000
GEN
1002
}
1001
GENIUS_GENCEN_19
1002
{
1040
2.0
1002
}
  0
LINE
  5
304A
330
1F
100
AcDbEntity
  8
AM_7
  6
AM_ISO08W050x2
100
AcDbLine
 10
2335.858880073105
 20
1398.120054398175
 30
0.0
 11
2335.858880073105
 21
1392.120054398175
 31
0.0
1001
GENIUS_GENODEF_13
1002
{
1000
HIER
1070
     0
1002
}
1002
{
1000
MANEDIT
1070
     0
1002
}
1002
{
1000
NOSEL
1070
     0
1002
}
1002
{
1000
BEHIND
1070
     0
1002
}
1002
{
1000
OTHER
1070
     0
1002
}
1002
{
1000
REACTOR
1002
}
1001
GENIUS_GENOBJ-N-CEN_13
1002
{
1000
OWNER
1000
GEN
1002
}
1001
GENIUS_GENCEN_19
1002
{
1040
2.0
1002
}
  0
LINE
  5
304B
330
1F
100
AcDbEntity
  8
AM_7
  6
AM_ISO08W050x2
100
AcDbLine
 10
2390.858880073105
 20
1398.120054398175
 30
0.0
 11
2390.858880073105
 21
1392.120054398175
 31
0.0
1001
GENIUS_GENODEF_13
1002
{
1000
HIER
1070
     0
1002
}
1002
{
1000
MANEDIT
1070
     0
1002
}
1002
{
1000
NOSEL
1070
     0
1002
}
1002
{
1000
BEHIND
1070
     0
1002
}
1002
{
1000
OTHER
1070
     0
1002
}
1002
{
1000
REACTOR
1002
}
1001
GENIUS_GENOBJ-N-CEN_13
1002
{
1000
OWNER
1000
GEN
1002
}
1001
GENIUS_GENCEN_19
1002
{
1040
2.0
1002
}
  0
LINE
  5
304C
330
1F
100
AcDbEntity
  8
AM_7
  6
AM_ISO08W050x2
100
AcDbLine
 10
2363.358880073104
 20
1398.120054398175
 30
0.0
 11
2363.358880073104
 21
1392.120054398175
 31
0.0
1001
GENIUS_GENODEF_13
1002
{
1000
HIER
1070
     0
1002
}
1002
{
1000
MANEDIT
1070
     0
1002
}
1002
{
1000
NOSEL
1070
     0
1002
}
1002
{
1000
BEHIND
1070
     0
1002
}
1002
{
1000
OTHER
1070
     0
1002
}
1002
{
1000
REACTOR
1002
}
1001
GENIUS_GENOBJ-N-CEN_13
1002
{
1000
OWNER
1000
GEN
1002
}
1001
GENIUS_GENCEN_19
1002
{
1040
2.0
1002
}
  0
LINE
  5
304F
330
1F
100
AcDbEntity
  8
AM_7
  6
AM_ISO08W050x2
100
AcDbLine
 10
2142.667343324644
 20
1341.120054398175
 30
0.0
 11
2142.667343324644
 21
1310.120054398175
 31
0.0
1001
GENIUS_GENODEF_13
1002
{
1000
HIER
1070
     0
1002
}
1002
{
1000
MANEDIT
1070
     0
1002
}
1002
{
1000
NOSEL
1070
     0
1002
}
1002
{
1000
BEHIND
1070
     0
1002
}
1002
{
1000
OTHER
1070
     0
1002
}
1002
{
1000
REACTOR
1002
}
1001
GENIUS_GENOBJ-N-CEN_13
1002
{
1000
OWNER
1000
GEN
1002
}
1001
GENIUS_GENCEN_19
1002
{
1040
2.0
1002
}
  0
LINE
  5
3053
330
1F
100
AcDbEntity
  8
AM_7
  6
AM_ISO08W050x2
100
AcDbLine
 10
2197.667343324643
 20
1341.120054398175
 30
0.0
 11
2197.667343324643
 21
1310.120054398175
 31
0.0
1001
GENIUS_GENODEF_13
1002
{
1000
HIER
1070
     0
1002
}
1002
{
1000
MANEDIT
1070
     0
1002
}
1002
{
1000
NOSEL
1070
     0
1002
}
1002
{
1000
BEHIND
1070
     0
1002
}
1002
{
1000
OTHER
1070
     0
1002
}
1002
{
1000
REACTOR
1002
}
1001
GENIUS_GENOBJ-N-CEN_13
1002
{
1000
OWNER
1000
GEN
1002
}
1001
GENIUS_GENCEN_19
1002
{
1040
2.0
1002
}
  0
LINE
  5
3057
330
1F
100
AcDbEntity
  8
AM_7
  6
AM_ISO08W050x2
100
AcDbLine
 10
2278.464026451329
 20
1341.120054398175
 30
0.0
 11
2278.464026451329
 21
1310.120054398175
 31
0.0
1001
GENIUS_GENODEF_13
1002
{
1000
HIER
1070
     0
1002
}
1002
{
1000
MANEDIT
1070
     0
1002
}
1002
{
1000
NOSEL
1070
     0
1002
}
1002
{
1000
BEHIND
1070
     0
1002
}
1002
{
1000
OTHER
1070
     0
1002
}
1002
{
1000
REACTOR
1002
}
1001
GENIUS_GENOBJ-N-CEN_13
1002
{
1000
OWNER
1000
GEN
1002
}
1001
GENIUS_GENCEN_19
1002
{
1040
2.0
1002
}
  0
LINE
  5
3059
330
1F
100
AcDbEntity
  8
0
 62
     2
100
AcDbLine
 10
2072.198757787484
 20
1312.120054398175
 30
0.0
 11
2072.198757787484
 21
1339.120054398175
 31
0.0
  0
LINE
  5
305A
330
1F
100
AcDbEntity
  8
0
 62
     2
100
AcDbLine
 10
2082.198757787484
 20
1312.120054398175
 30
0.0
 11
2082.198757787484
 21
1339.120054398175
 31
0.0
  0
LINE
  5
305B
330
1F
100
AcDbEntity
  8
AM_7
  6
AM_ISO08W050x2
100
AcDbLine
 10
2077.198757787484
 20
1341.120054398175
 30
0.0
 11
2077.198757787484
 21
1310.120054398175
 31
0.0
1001
GENIUS_GENODEF_13
1002
{
1000
HIER
1070
     0
1002
}
1002
{
1000
MANEDIT
1070
     0
1002
}
1002
{
1000
NOSEL
1070
     0
1002
}
1002
{
1000
BEHIND
1070
     0
1002
}
1002
{
1000
OTHER
1070
     0
1002
}
1002
{
1000
REACTOR
1002
}
1001
GENIUS_GENOBJ-N-CEN_13
1002
{
1000
OWNER
1000
GEN
1002
}
1001
GENIUS_GENCEN_19
1002
{
1040
2.0
1002
}
  0
LINE
  5
305C
330
1F
100
AcDbEntity
  8
0
 62
     2
100
AcDbLine
 10
2082.198757787484
 20
1312.120054398175
 30
0.0
 11
2072.198757787484
 21
1312.120054398175
 31
0.0
  0
LINE
  5
305F
330
1F
100
AcDbEntity
  8
AM_7
  6
AM_ISO08W050x2
100
AcDbLine
 10
2335.858880073105
 20
1341.120054398175
 30
0.0
 11
2335.858880073105
 21
1310.120054398175
 31
0.0
1001
GENIUS_GENODEF_13
1002
{
1000
HIER
1070
     0
1002
}
1002
{
1000
MANEDIT
1070
     0
1002
}
1002
{
1000
NOSEL
1070
     0
1002
}
1002
{
1000
BEHIND
1070
     0
1002
}
1002
{
1000
OTHER
1070
     0
1002
}
1002
{
1000
REACTOR
1002
}
1001
GENIUS_GENOBJ-N-CEN_13
1002
{
1000
OWNER
1000
GEN
1002
}
1001
GENIUS_GENCEN_19
1002
{
1040
2.0
1002
}
  0
LINE
  5
3063
330
1F
100
AcDbEntity
  8
AM_7
  6
AM_ISO08W050x2
100
AcDbLine
 10
2390.858880073104
 20
1341.120054398175
 30
0.0
 11
2390.858880073104
 21
1310.120054398175
 31
0.0
1001
GENIUS_GENODEF_13
1002
{
1000
HIER
1070
     0
1002
}
1002
{
1000
MANEDIT
1070
     0
1002
}
1002
{
1000
NOSEL
1070
     0
1002
}
1002
{
1000
BEHIND
1070
     0
1002
}
1002
{
1000
OTHER
1070
     0
1002
}
1002
{
1000
REACTOR
1002
}
1001
GENIUS_GENOBJ-N-CEN_13
1002
{
1000
OWNER
1000
GEN
1002
}
1001
GENIUS_GENCEN_19
1002
{
1040
2.0
1002
}
  0
DIMENSION
  5
3065
330
1F
100
AcDbEntity
  8
AM_5
100
AcDbDimension
  2
*D8
 10
2231.667343324646
 20
1339.120054398175
 30
0.0
 11
2231.667343324645
 21
1325.620054398175
 31
0.0
 70
   160
  1
L2
 71
     5
 42
27.0
  3
AM_ISO$0
100
AcDbAlignedDimension
 13
2201.917343324644
 23
1312.120054398175
 33
0.0
 14
2212.667343324644
 24
1339.120054398175
 34
0.0
 50
90.0
100
AcDbRotatedDimension
1001
ACAD
1000
DSTYLE
1002
{
1070
    40
1040
1.0
1070
   144
1040
1.0
1070
   272
1070
     8
1002
}
  0
DIMENSION
  5
3066
330
1F
100
AcDbEntity
  8
AM_5
100
AcDbDimension
  2
*D9
 10
2224.667343324644
 20
1394.120054398175
 30
0.0
 11
2222.167343324644
 21
1366.620054398175
 31
0.0
 70
    32
  1
L1
 71
     5
 42
55.0
  3
AM_ISO$0
100
AcDbAlignedDimension
 13
2212.667343324644
 23
1339.120054398175
 33
0.0
 14
2212.667343324644
 24
1394.120054398175
 34
0.0
 50
90.0
100
AcDbRotatedDimension
1001
ACAD
1000
DSTYLE
1002
{
1070
    40
1040
1.0
1070
   144
1040
1.0
1070
   272
1070
     8
1002
}
  0
DIMENSION
  5
3067
330
1F
100
AcDbEntity
  8
AM_5
100
AcDbDimension
  2
*D10
 10
2231.667343324644
 20
1405.920054398175
 30
0.0
 11
2229.167343324643
 21
1372.520054398175
 31
0.0
 70
    32
  1
L
 71
     5
 42
66.79999999999996
  3
AM_ISO$0
100
AcDbAlignedDimension
 13
2212.667343324644
 23
1339.120054398175
 33
0.0
 14
2205.667343324644
 24
1405.920054398175
 34
0.0
 50
90.0
100
AcDbRotatedDimension
1001
ACAD
1000
DSTYLE
1002
{
1070
    40
1040
1.0
1070
   144
1040
1.0
1070
   272
1070
     8
1002
}
  0
INSERT
  5
3068
330
1F
100
AcDbEntity
  8
AM_5
100
AcDbBlockReference
  2
*S13
 10
0.0
 20
0.0
 30
0.0
  0
TEXT
  5
3069
330
1F
100
AcDbEntity
  8
AM_5
100
AcDbText
 10
2100.668922983393
 20
1332.237204319464
 30
0.0
 40
3.0
  1
PT1/8
100
AcDbText
  0
POINT
  5
306C
330
1F
100
AcDbEntity
  8
0
 60
     1
100
AcDbPoint
 10
0.0
 20
-263.2242145803557
 30
0.0
1001
GENIUS_GENOBJ-N-CRS_13
1002
{
1000
OWNER
1000
GEN
1002
}
1001
GENIUS_GENOLIS_13
1002
{
1000
ENT
1005
2FF6
1005
2FF5
1005
2FF4
1005
2FF3
1002
}
1001
GENIUS_GENODEF_13
1002
{
1000
HIER
1070
    10
1002
}
1002
{
1000
MANEDIT
1070
     0
1002
}
1002
{
1000
NOSEL
1070
     0
1002
}
1002
{
1000
BEHIND
1070
     0
1002
}
1002
{
1000
OTHER
1070
     0
1002
}
1002
{
1000
REACTOR
1002
}
1001
GENIUS_GENOENT_13
1002
{
1000
MYREF
1005
306C
1002
}
1002
{
1000
GRP
1005
0
1002
}
  0
POINT
  5
306D
330
1F
100
AcDbEntity
  8
0
 60
     1
100
AcDbPoint
 10
0.0
 20
-263.2242145803557
 30
0.0
1001
GENIUS_GENOENT_13
1002
{
1000
MYREF
1005
306D
1002
}
1002
{
1000
GRP
1005
0
1002
}
1001
GENIUS_GENOBJ-N-CRS_13
1002
{
1000
OWNER
1000
GEN
1002
}
1001
GENIUS_GENOLIS_13
1002
{
1000
ENT
1005
2FF2
1005
2FF1
1005
2FF0
1005
2FEF
1002
}
1001
GENIUS_GENODEF_13
1002
{
1000
HIER
1070
    10
1002
}
1002
{
1000
MANEDIT
1070
     0
1002
}
1002
{
1000
NOSEL
1070
     0
1002
}
1002
{
1000
BEHIND
1070
     0
1002
}
1002
{
1000
OTHER
1070
     0
1002
}
1002
{
1000
REACTOR
1002
}
  0
POINT
  5
306E
330
1F
100
AcDbEntity
  8
0
 60
     1
100
AcDbPoint
 10
0.0
 20
-263.2242145803557
 30
0.0
1001
GENIUS_GENOENT_13
1002
{
1000
MYREF
1005
306E
1002
}
1002
{
1000
GRP
1005
0
1002
}
1001
GENIUS_GENODEF_13
1002
{
1000
HIER
1070
    10
1002
}
1002
{
1000
MANEDIT
1070
     0
1002
}
1002
{
1000
NOSEL
1070
     0
1002
}
1002
{
1000
BEHIND
1070
     0
1002
}
1002
{
1000
OTHER
1070
     0
1002
}
1002
{
1000
REACTOR
1002
}
1001
GENIUS_GENOLIS_13
1002
{
1000
ENT
1005
2FEE
1005
2FED
1005
2FEC
1005
2FEB
1002
}
1001
GENIUS_GENOBJ-N-CRS_13
1002
{
1000
OWNER
1000
GEN
1002
}
  0
POINT
  5
306F
330
1F
100
AcDbEntity
  8
0
 60
     1
100
AcDbPoint
 10
0.0
 20
-263.2242145803557
 30
0.0
1001
GENIUS_GENODEF_13
1002
{
1000
HIER
1070
    10
1002
}
1002
{
1000
MANEDIT
1070
     0
1002
}
1002
{
1000
NOSEL
1070
     0
1002
}
1002
{
1000
BEHIND
1070
     0
1002
}
1002
{
1000
OTHER
1070
     0
1002
}
1002
{
1000
REACTOR
1002
}
1001
GENIUS_GENOLIS_13
1002
{
1000
ENT
1005
3044
1005
3043
1005
3042
1005
3041
1002
}
1001
GENIUS_GENOBJ-N-CRS_13
1002
{
1000
OWNER
1000
GEN
1002
}
1001
GENIUS_GENOENT_13
1002
{
1000
MYREF
1005
306F
1002
}
1002
{
1000
GRP
1005
0
1002
}
  0
POINT
  5
3070
330
1F
100
AcDbEntity
  8
0
 60
     1
100
AcDbPoint
 10
0.0
 20
-263.2242145803557
 30
0.0
1001
GENIUS_GENOBJ-N-CRS_13
1002
{
1000
OWNER
1000
GEN
1002
}
1001
GENIUS_GENOENT_13
1002
{
1000
MYREF
1005
3070
1002
}
1002
{
1000
GRP
1005
0
1002
}
1001
GENIUS_GENODEF_13
1002
{
1000
HIER
1070
    10
1002
}
1002
{
1000
MANEDIT
1070
     0
1002
}
1002
{
1000
NOSEL
1070
     0
1002
}
1002
{
1000
BEHIND
1070
     0
1002
}
1002
{
1000
OTHER
1070
     0
1002
}
1002
{
1000
REACTOR
1002
}
1001
GENIUS_GENOLIS_13
1002
{
1000
ENT
1005
3040
1005
303F
1005
303E
1005
303D
1002
}
  0
POINT
  5
3071
330
1F
100
AcDbEntity
  8
0
 60
     1
100
AcDbPoint
 10
0.0
 20
-263.2242145803557
 30
0.0
1001
GENIUS_GENODEF_13
1002
{
1000
HIER
1070
    10
1002
}
1002
{
1000
MANEDIT
1070
     0
1002
}
1002
{
1000
NOSEL
1070
     0
1002
}
1002
{
1000
BEHIND
1070
     0
1002
}
1002
{
1000
OTHER
1070
     0
1002
}
1002
{
1000
REACTOR
1002
}
1001
GENIUS_GENOENT_13
1002
{
1000
MYREF
1005
3071
1002
}
1002
{
1000
GRP
1005
0
1002
}
1001
GENIUS_GENOBJ-N-CRS_13
1002
{
1000
OWNER
1000
GEN
1002
}
1001
GENIUS_GENOLIS_13
1002
{
1000
ENT
1005
2FFA
1005
2FF9
1005
2FF8
1005
2FF7
1002
}
  0
LINE
  5
30B1
330
1F
100
AcDbEntity
  8
AM_VIS
100
AcDbLine
 10
2137.667343324644
 20
1396.120054398174
 30
0.0
 11
2137.667343324644
 21
1394.120054398175
 31
0.0
  0
LINE
  5
30B2
330
1F
100
AcDbEntity
  8
AM_VIS
100
AcDbLine
 10
2147.667343324644
 20
1394.120054398175
 30
0.0
 11
2147.667343324644
 21
1396.120054398174
 31
0.0
  0
LINE
  5
30B3
330
1F
100
AcDbEntity
  8
AM_VIS
100
AcDbLine
 10
2072.198757787485
 20
1396.120054398174
 30
0.0
 11
2072.198757787485
 21
1394.120054398175
 31
0.0
  0
LINE
  5
30B4
330
1F
100
AcDbEntity
  8
AM_VIS
100
AcDbLine
 10
2082.198757787485
 20
1394.120054398175
 30
0.0
 11
2082.198757787485
 21
1396.120054398174
 31
0.0
  0
LINE
  5
30B5
330
1F
100
AcDbEntity
  8
AM_VIS
100
AcDbLine
 10
2192.667343324644
 20
1396.120054398174
 30
0.0
 11
2192.667343324644
 21
1394.120054398175
 31
0.0
  0
LINE
  5
30B6
330
1F
100
AcDbEntity
  8
AM_VIS
100
AcDbLine
 10
2202.667343324644
 20
1394.120054398175
 30
0.0
 11
2202.667343324644
 21
1396.120054398174
 31
0.0
  0
LINE
  5
30B7
330
1F
100
AcDbEntity
  8
AM_VIS
100
AcDbLine
 10
2273.464026451329
 20
1396.120054398174
 30
0.0
 11
2273.464026451329
 21
1394.120054398175
 31
0.0
  0
LINE
  5
30B8
330
1F
100
AcDbEntity
  8
AM_VIS
100
AcDbLine
 10
2283.464026451329
 20
1394.120054398175
 30
0.0
 11
2283.464026451329
 21
1396.120054398174
 31
0.0
  0
LINE
  5
30B9
330
1F
100
AcDbEntity
  8
AM_VIS
100
AcDbLine
 10
2330.858880073105
 20
1396.120054398174
 30
0.0
 11
2330.858880073105
 21
1394.120054398175
 31
0.0
  0
LINE
  5
30BA
330
1F
100
AcDbEntity
  8
AM_VIS
100
AcDbLine
 10
2340.858880073104
 20
1394.120054398175
 30
0.0
 11
2340.858880073104
 21
1396.120054398174
 31
0.0
  0
LINE
  5
30BB
330
1F
100
AcDbEntity
  8
AM_VIS
100
AcDbLine
 10
2358.358880073105
 20
1396.120054398174
 30
0.0
 11
2358.358880073105
 21
1394.120054398175
 31
0.0
  0
LINE
  5
30BC
330
1F
100
AcDbEntity
  8
AM_VIS
100
AcDbLine
 10
2368.358880073104
 20
1394.120054398175
 30
0.0
 11
2368.358880073104
 21
1396.120054398174
 31
0.0
  0
LINE
  5
30BD
330
1F
100
AcDbEntity
  8
AM_VIS
100
AcDbLine
 10
2385.858880073104
 20
1396.120054398174
 30
0.0
 11
2385.858880073104
 21
1394.120054398175
 31
0.0
  0
LINE
  5
30BE
330
1F
100
AcDbEntity
  8
AM_VIS
100
AcDbLine
 10
2395.858880073105
 20
1394.120054398175
 30
0.0
 11
2395.858880073105
 21
1396.120054398174
 31
0.0
  0
LINE
  5
30BF
330
1F
100
AcDbEntity
  8
0
 62
     2
100
AcDbLine
 10
2137.667343324644
 20
1312.120054398175
 30
0.0
 11
2137.667343324644
 21
1339.120054398175
 31
0.0
  0
LINE
  5
30C0
330
1F
100
AcDbEntity
  8
0
 62
     2
100
AcDbLine
 10
2147.667343324644
 20
1312.120054398175
 30
0.0
 11
2147.667343324644
 21
1339.120054398175
 31
0.0
  0
LINE
  5
30C1
330
1F
100
AcDbEntity
  8
0
 62
     2
100
AcDbLine
 10
2147.667343324644
 20
1312.120054398175
 30
0.0
 11
2137.667343324644
 21
1312.120054398175
 31
0.0
  0
LINE
  5
30C2
330
1F
100
AcDbEntity
  8
0
 62
     2
100
AcDbLine
 10
2191.917343324644
 20
1312.120054398175
 30
0.0
 11
2191.917343324644
 21
1339.120054398175
 31
0.0
  0
LINE
  5
30C3
330
1F
100
AcDbEntity
  8
0
 62
     2
100
AcDbLine
 10
2201.917343324644
 20
1312.120054398175
 30
0.0
 11
2201.917343324644
 21
1339.120054398175
 31
0.0
  0
LINE
  5
30C4
330
1F
100
AcDbEntity
  8
0
 62
     2
100
AcDbLine
 10
2201.917343324644
 20
1312.120054398175
 30
0.0
 11
2191.917343324644
 21
1312.120054398175
 31
0.0
  0
LINE
  5
30C5
330
1F
100
AcDbEntity
  8
0
 62
     2
100
AcDbLine
 10
2273.464026451329
 20
1312.120054398175
 30
0.0
 11
2273.464026451329
 21
1339.120054398175
 31
0.0
  0
LINE
  5
30C6
330
1F
100
AcDbEntity
  8
0
 62
     2
100
AcDbLine
 10
2283.464026451329
 20
1312.120054398175
 30
0.0
 11
2283.464026451329
 21
1339.120054398175
 31
0.0
  0
LINE
  5
30C7
330
1F
100
AcDbEntity
  8
0
 62
     2
100
AcDbLine
 10
2283.464026451329
 20
1312.120054398175
 30
0.0
 11
2273.464026451329
 21
1312.120054398175
 31
0.0
  0
LINE
  5
30C8
330
1F
100
AcDbEntity
  8
0
 62
     2
100
AcDbLine
 10
2330.858880073105
 20
1312.120054398175
 30
0.0
 11
2330.858880073105
 21
1339.120054398175
 31
0.0
  0
LINE
  5
30C9
330
1F
100
AcDbEntity
  8
0
 62
     2
100
AcDbLine
 10
2340.858880073104
 20
1312.120054398175
 30
0.0
 11
2340.858880073104
 21
1339.120054398175
 31
0.0
  0
LINE
  5
30CA
330
1F
100
AcDbEntity
  8
0
 62
     2
100
AcDbLine
 10
2340.858880073104
 20
1312.120054398175
 30
0.0
 11
2330.858880073105
 21
1312.120054398175
 31
0.0
  0
LINE
  5
30CB
330
1F
100
AcDbEntity
  8
0
 62
     2
100
AcDbLine
 10
2385.858880073104
 20
1312.120054398175
 30
0.0
 11
2385.858880073104
 21
1339.120054398175
 31
0.0
  0
LINE
  5
30CC
330
1F
100
AcDbEntity
  8
0
 62
     2
100
AcDbLine
 10
2395.858880073104
 20
1312.120054398175
 30
0.0
 11
2395.858880073104
 21
1339.120054398175
 31
0.0
  0
LINE
  5
30CD
330
1F
100
AcDbEntity
  8
0
 62
     2
100
AcDbLine
 10
2395.858880073104
 20
1312.120054398175
 30
0.0
 11
2385.858880073104
 21
1312.120054398175
 31
0.0
  0
TEXT
  5
322E
330
1F
100
AcDbEntity
  8
0
100
AcDbText
 10
2367.511506927653
 20
1758.656994702033
 30
0.0
 40
3.75
  1
122
 41
0.8
  7
CHINESET
 72
     4
 11
2371.082935499082
 21
1760.531994702033
 31
0.0
100
AcDbText
  0
TEXT
  5
322F
330
1F
100
AcDbEntity
  8
0
100
AcDbText
 10
2367.511506927653
 20
1750.656994702033
 30
0.0
 40
3.75
  1
147
 41
0.8
  7
CHINESET
 72
     4
 11
2371.082935499082
 21
1752.531994702033
 31
0.0
100
AcDbText
  0
TEXT
  5
3230
330
1F
100
AcDbEntity
  8
0
100
AcDbText
 10
2367.511506927653
 20
1734.656994702033
 30
0.0
 40
3.75
  1
197
 41
0.8
  7
CHINESET
 72
     4
 11
2371.082935499082
 21
1736.531994702033
 31
0.0
100
AcDbText
  0
TEXT
  5
3231
330
1F
100
AcDbEntity
  8
0
100
AcDbText
 10
2367.511506927653
 20
1742.656994702033
 30
0.0
 40
3.75
  1
172
 41
0.8
  7
CHINESET
 72
     4
 11
2371.082935499082
 21
1744.531994702033
 31
0.0
100
AcDbText
  0
TEXT
  5
3232
330
1F
100
AcDbEntity
  8
0
100
AcDbText
 10
2367.225792641939
 20
1726.656994702033
 30
0.0
 40
3.75
  1
222
 41
0.8
  7
CHINESET
 72
     4
 11
2371.082935499082
 21
1728.531994702033
 31
0.0
100
AcDbText
  0
TEXT
  5
3233
330
1F
100
AcDbEntity
  8
0
100
AcDbText
 10
2367.225792641939
 20
1718.656994702033
 30
0.0
 40
3.75
  1
247
 41
0.8
  7
CHINESET
 72
     4
 11
2371.082935499082
 21
1720.531994702033
 31
0.0
100
AcDbText
  0
LINE
  5
3234
330
1F
100
AcDbEntity
  8
0
100
AcDbLine
 10
2343.582935499082
 20
1804.531994702033
 30
0.0
 11
2408.582935499082
 21
1804.531994702033
 31
0.0
  0
LINE
  5
3235
330
1F
100
AcDbEntity
  8
0
100
AcDbLine
 10
2343.582935499082
 20
1796.531994702033
 30
0.0
 11
2408.582935499082
 21
1796.531994702033
 31
0.0
  0
LINE
  5
3236
330
1F
100
AcDbEntity
  8
0
100
AcDbLine
 10
2343.582935499082
 20
1740.531994702033
 30
0.0
 11
2408.582935499082
 21
1740.531994702033
 31
0.0
  0
LINE
  5
3237
330
1F
100
AcDbEntity
  8
0
100
AcDbLine
 10
2343.582935499082
 20
1748.531994702033
 30
0.0
 11
2408.582935499082
 21
1748.531994702033
 31
0.0
  0
LINE
  5
3238
330
1F
100
AcDbEntity
  8
0
100
AcDbLine
 10
2343.582935499082
 20
1756.531994702033
 30
0.0
 11
2408.582935499082
 21
1756.531994702033
 31
0.0
  0
LINE
  5
3239
330
1F
100
AcDbEntity
  8
0
100
AcDbLine
 10
2343.582935499082
 20
1764.531994702033
 30
0.0
 11
2408.582935499082
 21
1764.531994702033
 31
0.0
  0
LINE
  5
323A
330
1F
100
AcDbEntity
  8
0
100
AcDbLine
 10
2343.582935499082
 20
1772.531994702033
 30
0.0
 11
2408.582935499082
 21
1772.531994702033
 31
0.0
  0
LINE
  5
323B
330
1F
100
AcDbEntity
  8
0
100
AcDbLine
 10
2343.582935499082
 20
1780.531994702033
 30
0.0
 11
2408.582935499082
 21
1780.531994702033
 31
0.0
  0
LINE
  5
323C
330
1F
100
AcDbEntity
  8
0
100
AcDbLine
 10
2343.582935499082
 20
1788.531994702033
 30
0.0
 11
2408.582935499082
 21
1788.531994702033
 31
0.0
  0
LINE
  5
323D
330
1F
100
AcDbEntity
  8
0
100
AcDbLine
 10
2343.582935499082
 20
1716.531994702033
 30
0.0
 11
2408.582935499082
 21
1716.531994702033
 31
0.0
  0
LINE
  5
323E
330
1F
100
AcDbEntity
  8
0
100
AcDbLine
 10
2343.582935499082
 20
1724.531994702033
 30
0.0
 11
2408.582935499082
 21
1724.531994702033
 31
0.0
  0
LINE
  5
323F
330
1F
100
AcDbEntity
  8
0
100
AcDbLine
 10
2343.582935499082
 20
1732.531994702033
 30
0.0
 11
2408.582935499082
 21
1732.531994702033
 31
0.0
  0
LINE
  5
3240
330
1F
100
AcDbEntity
  8
0
100
AcDbLine
 10
2343.582935499082
 20
1804.531994702033
 30
0.0
 11
2343.582935499082
 21
1716.531994702033
 31
0.0
  0
LINE
  5
3241
330
1F
100
AcDbEntity
  8
0
100
AcDbLine
 10
2363.582935499081
 20
1804.531994702033
 30
0.0
 11
2363.582935499082
 21
1716.531994702033
 31
0.0
  0
TEXT
  5
3242
330
1F
100
AcDbEntity
  8
0
100
AcDbText
 10
2349.725792641939
 20
1718.656994702033
 30
0.0
 40
3.75
  1
200
 41
0.8
  7
CHINESET
 72
     4
 11
2353.582935499082
 21
1720.531994702033
 31
0.0
100
AcDbText
  0
TEXT
  5
3243
330
1F
100
AcDbEntity
  8
0
100
AcDbText
 10
2350.011506927653
 20
1726.656994702033
 30
0.0
 40
3.75
  1
175
 41
0.8
  7
CHINESET
 72
     4
 11
2353.582935499082
 21
1728.531994702033
 31
0.0
100
AcDbText
  0
TEXT
  5
3244
330
1F
100
AcDbEntity
  8
0
100
AcDbText
 10
2350.011506927653
 20
1734.656994702033
 30
0.0
 40
3.75
  1
150
 41
0.8
  7
CHINESET
 72
     4
 11
2353.582935499082
 21
1736.531994702033
 31
0.0
100
AcDbText
  0
TEXT
  5
3246
330
1F
100
AcDbEntity
  8
0
100
AcDbText
 10
2351.15436407051
 20
1766.656994702033
 30
0.0
 40
3.75
  1
50
 41
0.8
  7
CHINESET
 72
     4
 11
2353.582935499082
 21
1768.531994702033
 31
0.0
100
AcDbText
  0
TEXT
  5
3247
330
1F
100
AcDbEntity
  8
0
100
AcDbText
 10
2350.011506927653
 20
1750.656994702033
 30
0.0
 40
3.75
  1
100
 41
0.8
  7
CHINESET
 72
     4
 11
2353.582935499082
 21
1752.531994702033
 31
0.0
100
AcDbText
  0
TEXT
  5
3248
330
1F
100
AcDbEntity
  8
0
100
AcDbText
 10
2350.011506927653
 20
1742.656994702033
 30
0.0
 40
3.75
  1
125
 41
0.8
  7
CHINESET
 72
     4
 11
2353.582935499082
 21
1744.531994702033
 31
0.0
100
AcDbText
  0
TEXT
  5
3249
330
1F
100
AcDbEntity
  8
0
100
AcDbText
 10
2351.15436407051
 20
1758.656994702033
 30
0.0
 40
3.75
  1
75
 41
0.8
  7
CHINESET
 72
     4
 11
2353.582935499082
 21
1760.531994702033
 31
0.0
100
AcDbText
  0
TEXT
  5
324A
330
1F
100
AcDbEntity
  8
0
100
AcDbText
 10
2351.15436407051
 20
1782.656994702033
 30
0.0
 40
3.75
  1
30
 41
0.8
  7
CHINESET
 72
     4
 11
2353.582935499082
 21
1784.531994702033
 31
0.0
100
AcDbText
  0
TEXT
  5
324B
330
1F
100
AcDbEntity
  8
0
100
AcDbText
 10
2351.15436407051
 20
1774.656994702033
 30
0.0
 40
3.75
  1
40
 41
0.8
  7
CHINESET
 72
     4
 11
2353.582935499082
 21
1776.531994702033
 31
0.0
100
AcDbText
  0
TEXT
  5
324C
330
1F
100
AcDbEntity
  8
0
100
AcDbText
 10
2351.15436407051
 20
1790.656994702033
 30
0.0
 40
3.75
  1
20
 41
0.8
  7
CHINESET
 72
     4
 11
2353.582935499082
 21
1792.531994702033
 31
0.0
100
AcDbText
  0
LINE
  5
324D
330
1F
100
AcDbEntity
  8
0
100
AcDbLine
 10
2378.582935499082
 20
1804.531994702033
 30
0.0
 11
2378.582935499082
 21
1716.531994702033
 31
0.0
  0
LINE
  5
324E
330
1F
100
AcDbEntity
  8
0
100
AcDbLine
 10
2393.582935499082
 20
1804.531994702033
 30
0.0
 11
2393.582935499082
 21
1716.531994702033
 31
0.0
  0
TEXT
  5
324F
330
1F
100
AcDbEntity
  8
0
100
AcDbText
 10
2382.225792641939
 20
1718.656994702033
 30
0.0
 40
3.75
  1
235
 41
0.8
  7
CHINESET
 72
     4
 11
2386.082935499082
 21
1720.531994702033
 31
0.0
100
AcDbText
  0
TEXT
  5
3250
330
1F
100
AcDbEntity
  8
0
100
AcDbText
 10
2382.511506927654
 20
1726.656994702033
 30
0.0
 40
3.75
  1
210
 41
0.8
  7
CHINESET
 72
     4
 11
2386.082935499082
 21
1728.531994702033
 31
0.0
100
AcDbText
  0
TEXT
  5
3251
330
1F
100
AcDbEntity
  8
0
100
AcDbText
 10
2382.511506927654
 20
1734.656994702033
 30
0.0
 40
3.75
  1
185
 41
0.8
  7
CHINESET
 72
     4
 11
2386.082935499082
 21
1736.531994702033
 31
0.0
100
AcDbText
  0
TEXT
  5
3252
330
1F
100
AcDbEntity
  8
0
100
AcDbText
 10
2399.297221213368
 20
1718.656994702033
 30
0.0
 40
3.75
  1
31
 41
0.8
  7
CHINESET
 72
     4
 11
2401.082935499082
 21
1720.531994702033
 31
0.0
100
AcDbText
  0
TEXT
  5
3253
330
1F
100
AcDbEntity
  8
0
100
AcDbText
 10
2399.297221213368
 20
1726.656994702033
 30
0.0
 40
3.75
  1
31
 41
0.8
  7
CHINESET
 72
     4
 11
2401.082935499082
 21
1728.531994702033
 31
0.0
100
AcDbText
  0
TEXT
  5
3254
330
1F
100
AcDbEntity
  8
0
100
AcDbText
 10
2399.297221213368
 20
1734.656994702033
 30
0.0
 40
3.75
  1
31
 41
0.8
  7
CHINESET
 72
     4
 11
2401.082935499082
 21
1736.531994702033
 31
0.0
100
AcDbText
  0
TEXT
  5
3255
330
1F
100
AcDbEntity
  8
0
100
AcDbText
 10
2397.965106566746
 20
1798.383043036089
 30
0.0
 40
3.75
  1
L
 41
0.8
  7
CHINESET
100
AcDbText
  0
TEXT
  5
3256
330
1F
100
AcDbEntity
  8
0
100
AcDbText
 10
2386.713953202827
 20
1798.416984918391
 30
0.0
 40
3.75
  1
1
 41
0.8
  7
CHINESET
100
AcDbText
  0
TEXT
  5
3257
330
1F
100
AcDbEntity
  8
0
100
AcDbText
 10
2383.001633058036
 20
1798.383043036089
 30
0.0
 40
3.75
  1
L
 41
0.8
  7
CHINESET
100
AcDbText
  0
TEXT
  5
3258
330
1F
100
AcDbEntity
  8
0
100
AcDbText
 10
2401.415784109361
 20
1798.421530461454
 30
0.0
 40
3.75
  1
2
 41
0.8
  7
CHINESET
100
AcDbText
  0
TEXT
  5
3259
330
1F
100
AcDbEntity
  8
0
100
AcDbText
 10
2369.082609579254
 20
1798.383043036089
 30
0.0
 40
3.75
  1
L
 41
0.8
  7
CHINESET
100
AcDbText
  0
TEXT
  5
325A
330
1F
100
AcDbEntity
  8
0
100
AcDbText
 10
2383.654364070511
 20
1766.656994702033
 30
0.0
 40
3.75
  1
85
 41
0.8
  7
CHINESET
 72
     4
 11
2386.082935499082
 21
1768.531994702033
 31
0.0
100
AcDbText
  0
TEXT
  5
325B
330
1F
100
AcDbEntity
  8
0
100
AcDbText
 10
2368.65436407051
 20
1766.656994702033
 30
0.0
 40
3.75
  1
97
 41
0.8
  7
CHINESET
 72
     4
 11
2371.082935499082
 21
1768.531994702033
 31
0.0
100
AcDbText
  0
TEXT
  5
325C
330
1F
100
AcDbEntity
  8
0
100
AcDbText
 10
2382.511506927654
 20
1742.656994702033
 30
0.0
 40
3.75
  1
160
 41
0.8
  7
CHINESET
 72
     4
 11
2386.082935499082
 21
1744.531994702033
 31
0.0
100
AcDbText
  0
TEXT
  5
325D
330
1F
100
AcDbEntity
  8
0
100
AcDbText
 10
2382.511506927654
 20
1750.656994702033
 30
0.0
 40
3.75
  1
135
 41
0.8
  7
CHINESET
 72
     4
 11
2386.082935499082
 21
1752.531994702033
 31
0.0
100
AcDbText
  0
TEXT
  5
325E
330
1F
100
AcDbEntity
  8
0
100
AcDbText
 10
2382.797221213368
 20
1758.656994702033
 30
0.0
 40
3.75
  1
110
 41
0.8
  7
CHINESET
 72
     4
 11
2386.082935499082
 21
1760.531994702033
 31
0.0
100
AcDbText
  0
TEXT
  5
325F
330
1F
100
AcDbEntity
  8
0
100
AcDbText
 10
2399.297221213368
 20
1742.656994702033
 30
0.0
 40
3.75
  1
31
 41
0.8
  7
CHINESET
 72
     4
 11
2401.082935499082
 21
1744.531994702033
 31
0.0
100
AcDbText
  0
TEXT
  5
3260
330
1F
100
AcDbEntity
  8
0
100
AcDbText
 10
2398.868649784796
 20
1750.656994702033
 30
0.0
 40
3.75
  1
14
 41
0.8
  7
CHINESET
 72
     4
 11
2401.082935499082
 21
1752.531994702033
 31
0.0
100
AcDbText
  0
TEXT
  5
3261
330
1F
100
AcDbEntity
  8
0
100
AcDbText
 10
2398.868649784796
 20
1758.656994702033
 30
0.0
 40
3.75
  1
14
 41
0.8
  7
CHINESET
 72
     4
 11
2401.082935499082
 21
1760.531994702033
 31
0.0
100
AcDbText
  0
TEXT
  5
3262
330
1F
100
AcDbEntity
  8
0
100
AcDbText
 10
2383.654364070511
 20
1782.656994702033
 30
0.0
 40
3.75
  1
65
 41
0.8
  7
CHINESET
 72
     4
 11
2386.082935499082
 21
1784.531994702033
 31
0.0
100
AcDbText
  0
TEXT
  5
3263
330
1F
100
AcDbEntity
  8
0
100
AcDbText
 10
2368.65436407051
 20
1782.656994702033
 30
0.0
 40
3.75
  1
77
 41
0.8
  7
CHINESET
 72
     4
 11
2371.082935499082
 21
1784.531994702033
 31
0.0
100
AcDbText
  0
TEXT
  5
3264
330
1F
100
AcDbEntity
  8
0
100
AcDbText
 10
2368.65436407051
 20
1774.656994702033
 30
0.0
 40
3.75
  1
87
 41
0.8
  7
CHINESET
 72
     4
 11
2371.082935499082
 21
1776.531994702033
 31
0.0
100
AcDbText
  0
TEXT
  5
3265
330
1F
100
AcDbEntity
  8
0
100
AcDbText
 10
2383.654364070511
 20
1774.656994702033
 30
0.0
 40
3.75
  1
75
 41
0.8
  7
CHINESET
 72
     4
 11
2386.082935499082
 21
1776.531994702033
 31
0.0
100
AcDbText
  0
TEXT
  5
3266
330
1F
100
AcDbEntity
  8
0
100
AcDbText
 10
2368.65436407051
 20
1790.656994702033
 30
0.0
 40
3.75
  1
67
 41
0.8
  7
CHINESET
 72
     4
 11
2371.082935499082
 21
1792.531994702033
 31
0.0
100
AcDbText
  0
TEXT
  5
3267
330
1F
100
AcDbEntity
  8
0
100
AcDbText
 10
2383.654364070511
 20
1790.656994702033
 30
0.0
 40
3.75
  1
55
 41
0.8
  7
CHINESET
 72
     4
 11
2386.082935499082
 21
1792.531994702033
 31
0.0
100
AcDbText
  0
LINE
  5
32A4
330
1F
100
AcDbEntity
  8
0
100
AcDbLine
 10
2408.582935499081
 20
1804.531994702033
 30
0.0
 11
2408.582935499082
 21
1716.531994702033
 31
0.0
  0
TEXT
  5
32AA
330
1F
100
AcDbEntity
  8
0
100
AcDbText
 10
2269.739092168405
 20
1799.322071995965
 30
0.0
 40
4.783933440000001
  1
Model : MCGB-03
 41
0.8
  7
CHINESET
100
AcDbText
  0
TEXT
  5
32AB
330
1F
100
AcDbEntity
  8
0
100
AcDbText
 10
2269.739092168405
 20
1790.758288589542
 30
0.0
 40
4.783933440000001
  1
Tube I.D. : %%C20
 41
0.8
  7
CHINESET
100
AcDbText
  0
TEXT
  5
32AC
330
1F
100
AcDbEntity
  8
0
100
AcDbText
 10
2269.739092168405
 20
1782.519250133061
 30
0.0
 40
4.783933440000001
  1
Stroke : 20
 41
0.8
  7
CHINESET
100
AcDbText
  0
TEXT
  5
32AF
330
1F
100
AcDbEntity
  8
0
100
AcDbText
 10
2346.797221213368
 20
1798.656994702033
 30
0.0
 40
3.75
  1
Stroke
 41
0.8
  7
CHINESET
 72
     4
 11
2353.582935499082
 21
1800.531994702033
 31
0.0
100
AcDbText
  0
LINE
  5
330F
330
1F
100
AcDbEntity
  8
0
100
AcDbLine
 10
2343.582935499082
 20
1515.166341758854
 30
0.0
 11
2408.582935499082
 21
1515.166341758854
 31
0.0
  0
LINE
  5
3310
330
1F
100
AcDbEntity
  8
0
100
AcDbLine
 10
2343.582935499082
 20
1507.166341758854
 30
0.0
 11
2408.582935499082
 21
1507.166341758854
 31
0.0
  0
LINE
  5
3311
330
1F
100
AcDbEntity
  8
0
100
AcDbLine
 10
2343.582935499082
 20
1451.166341758854
 30
0.0
 11
2408.582935499082
 21
1451.166341758854
 31
0.0
  0
LINE
  5
3312
330
1F
100
AcDbEntity
  8
0
100
AcDbLine
 10
2343.582935499082
 20
1459.166341758854
 30
0.0
 11
2408.582935499082
 21
1459.166341758854
 31
0.0
  0
LINE
  5
3313
330
1F
100
AcDbEntity
  8
0
100
AcDbLine
 10
2343.582935499082
 20
1467.166341758854
 30
0.0
 11
2408.582935499082
 21
1467.166341758854
 31
0.0
  0
LINE
  5
3314
330
1F
100
AcDbEntity
  8
0
100
AcDbLine
 10
2343.582935499082
 20
1475.166341758854
 30
0.0
 11
2408.582935499082
 21
1475.166341758854
 31
0.0
  0
LINE
  5
3315
330
1F
100
AcDbEntity
  8
0
100
AcDbLine
 10
2343.582935499082
 20
1483.166341758854
 30
0.0
 11
2408.582935499082
 21
1483.166341758854
 31
0.0
  0
LINE
  5
3316
330
1F
100
AcDbEntity
  8
0
100
AcDbLine
 10
2343.582935499082
 20
1491.166341758854
 30
0.0
 11
2408.582935499082
 21
1491.166341758854
 31
0.0
  0
LINE
  5
3317
330
1F
100
AcDbEntity
  8
0
100
AcDbLine
 10
2343.582935499082
 20
1499.166341758854
 30
0.0
 11
2408.582935499082
 21
1499.166341758854
 31
0.0
  0
LINE
  5
3318
330
1F
100
AcDbEntity
  8
0
100
AcDbLine
 10
2343.582935499082
 20
1427.166341758853
 30
0.0
 11
2408.582935499082
 21
1427.166341758853
 31
0.0
  0
LINE
  5
3319
330
1F
100
AcDbEntity
  8
0
100
AcDbLine
 10
2343.582935499082
 20
1435.166341758854
 30
0.0
 11
2408.582935499082
 21
1435.166341758854
 31
0.0
  0
LINE
  5
331A
330
1F
100
AcDbEntity
  8
0
100
AcDbLine
 10
2343.582935499082
 20
1443.166341758854
 30
0.0
 11
2408.582935499082
 21
1443.166341758854
 31
0.0
  0
LINE
  5
331B
330
1F
100
AcDbEntity
  8
0
100
AcDbLine
 10
2343.582935499082
 20
1515.166341758854
 30
0.0
 11
2343.582935499082
 21
1427.166341758853
 31
0.0
  0
LINE
  5
331C
330
1F
100
AcDbEntity
  8
0
100
AcDbLine
 10
2363.582935499081
 20
1515.166341758854
 30
0.0
 11
2363.582935499082
 21
1427.166341758853
 31
0.0
  0
TEXT
  5
331D
330
1F
100
AcDbEntity
  8
0
100
AcDbText
 10
2349.725792641939
 20
1429.291341758854
 30
0.0
 40
3.75
  1
200
 41
0.8
  7
CHINESET
 72
     4
 11
2353.582935499082
 21
1431.166341758854
 31
0.0
100
AcDbText
  0
TEXT
  5
331E
330
1F
100
AcDbEntity
  8
0
100
AcDbText
 10
2350.011506927653
 20
1437.291341758854
 30
0.0
 40
3.75
  1
175
 41
0.8
  7
CHINESET
 72
     4
 11
2353.582935499082
 21
1439.166341758854
 31
0.0
100
AcDbText
  0
TEXT
  5
331F
330
1F
100
AcDbEntity
  8
0
100
AcDbText
 10
2350.011506927653
 20
1445.291341758854
 30
0.0
 40
3.75
  1
150
 41
0.8
  7
CHINESET
 72
     4
 11
2353.582935499082
 21
1447.166341758854
 31
0.0
100
AcDbText
  0
TEXT
  5
3320
330
1F
100
AcDbEntity
  8
0
100
AcDbText
 10
2351.15436407051
 20
1477.291341758854
 30
0.0
 40
3.75
  1
50
 41
0.8
  7
CHINESET
 72
     4
 11
2353.582935499082
 21
1479.166341758854
 31
0.0
100
AcDbText
  0
TEXT
  5
3321
330
1F
100
AcDbEntity
  8
0
100
AcDbText
 10
2350.011506927653
 20
1461.291341758854
 30
0.0
 40
3.75
  1
100
 41
0.8
  7
CHINESET
 72
     4
 11
2353.582935499082
 21
1463.166341758854
 31
0.0
100
AcDbText
  0
TEXT
  5
3322
330
1F
100
AcDbEntity
  8
0
100
AcDbText
 10
2350.011506927653
 20
1453.291341758854
 30
0.0
 40
3.75
  1
125
 41
0.8
  7
CHINESET
 72
     4
 11
2353.582935499082
 21
1455.166341758854
 31
0.0
100
AcDbText
  0
TEXT
  5
3323
330
1F
100
AcDbEntity
  8
0
100
AcDbText
 10
2351.15436407051
 20
1469.291341758854
 30
0.0
 40
3.75
  1
75
 41
0.8
  7
CHINESET
 72
     4
 11
2353.582935499082
 21
1471.166341758854
 31
0.0
100
AcDbText
  0
TEXT
  5
3324
330
1F
100
AcDbEntity
  8
0
100
AcDbText
 10
2351.15436407051
 20
1493.291341758854
 30
0.0
 40
3.75
  1
30
 41
0.8
  7
CHINESET
 72
     4
 11
2353.582935499082
 21
1495.166341758854
 31
0.0
100
AcDbText
  0
TEXT
  5
3325
330
1F
100
AcDbEntity
  8
0
100
AcDbText
 10
2351.15436407051
 20
1485.291341758854
 30
0.0
 40
3.75
  1
40
 41
0.8
  7
CHINESET
 72
     4
 11
2353.582935499082
 21
1487.166341758853
 31
0.0
100
AcDbText
  0
TEXT
  5
3326
330
1F
100
AcDbEntity
  8
0
100
AcDbText
 10
2351.15436407051
 20
1501.291341758854
 30
0.0
 40
3.75
  1
20
 41
0.8
  7
CHINESET
 72
     4
 11
2353.582935499082
 21
1503.166341758854
 31
0.0
100
AcDbText
  0
LINE
  5
3327
330
1F
100
AcDbEntity
  8
0
100
AcDbLine
 10
2378.582935499082
 20
1515.166341758854
 30
0.0
 11
2378.582935499082
 21
1427.166341758853
 31
0.0
  0
LINE
  5
3328
330
1F
100
AcDbEntity
  8
0
100
AcDbLine
 10
2393.582935499082
 20
1515.166341758854
 30
0.0
 11
2393.582935499082
 21
1427.166341758853
 31
0.0
  0
TEXT
  5
332F
330
1F
100
AcDbEntity
  8
0
100
AcDbText
 10
2397.965106566746
 20
1509.01739009291
 30
0.0
 40
3.75
  1
L
 41
0.8
  7
CHINESET
100
AcDbText
  0
TEXT
  5
3330
330
1F
100
AcDbEntity
  8
0
100
AcDbText
 10
2386.713953202827
 20
1509.051331975211
 30
0.0
 40
3.75
  1
1
 41
0.8
  7
CHINESET
100
AcDbText
  0
TEXT
  5
3331
330
1F
100
AcDbEntity
  8
0
100
AcDbText
 10
2383.001633058036
 20
1509.01739009291
 30
0.0
 40
3.75
  1
L
 41
0.8
  7
CHINESET
100
AcDbText
  0
TEXT
  5
3332
330
1F
100
AcDbEntity
  8
0
100
AcDbText
 10
2401.415784109361
 20
1509.055877518275
 30
0.0
 40
3.75
  1
2
 41
0.8
  7
CHINESET
100
AcDbText
  0
TEXT
  5
3333
330
1F
100
AcDbEntity
  8
0
100
AcDbText
 10
2369.082609579254
 20
1509.01739009291
 30
0.0
 40
3.75
  1
L
 41
0.8
  7
CHINESET
100
AcDbText
  0
LINE
  5
3342
330
1F
100
AcDbEntity
  8
0
100
AcDbLine
 10
2408.582935499081
 20
1515.166341758854
 30
0.0
 11
2408.582935499082
 21
1427.166341758853
 31
0.0
  0
TEXT
  5
3343
330
1F
100
AcDbEntity
  8
0
100
AcDbText
 10
2269.739092168405
 20
1509.956419052786
 30
0.0
 40
4.783933440000001
  1
Model : MCGB-23
 41
0.8
  7
CHINESET
100
AcDbText
  0
TEXT
  5
3344
330
1F
100
AcDbEntity
  8
0
100
AcDbText
 10
2269.739092168405
 20
1501.392635646363
 30
0.0
 40
4.783933440000001
  1
Tube I.D. : %%C20
 41
0.8
  7
CHINESET
100
AcDbText
  0
TEXT
  5
3345
330
1F
100
AcDbEntity
  8
0
100
AcDbText
 10
2269.739092168405
 20
1493.153597189881
 30
0.0
 40
4.783933440000001
  1
Stroke : 20
 41
0.8
  7
CHINESET
100
AcDbText
  0
TEXT
  5
3346
330
1F
100
AcDbEntity
  8
0
100
AcDbText
 10
2346.797221213368
 20
1509.291341758854
 30
0.0
 40
3.75
  1
Stroke
 41
0.8
  7
CHINESET
 72
     4
 11
2353.582935499082
 21
1511.166341758854
 31
0.0
100
AcDbText
  0
TEXT
  5
3347
330
1F
100
AcDbEntity
  8
0
100
AcDbText
 10
2398.65436407051
 20
1429.291341758854
 30
0.0
 40
3.75
  1
50
 41
0.8
  7
CHINESET
 72
     4
 11
2401.082935499081
 21
1431.166341758854
 31
0.0
100
AcDbText
  0
TEXT
  5
3348
330
1F
100
AcDbEntity
  8
0
100
AcDbText
 10
2398.65436407051
 20
1437.291341758854
 30
0.0
 40
3.75
  1
50
 41
0.8
  7
CHINESET
 72
     4
 11
2401.082935499081
 21
1439.166341758854
 31
0.0
100
AcDbText
  0
TEXT
  5
3349
330
1F
100
AcDbEntity
  8
0
100
AcDbText
 10
2398.65436407051
 20
1445.291341758854
 30
0.0
 40
3.75
  1
50
 41
0.8
  7
CHINESET
 72
     4
 11
2401.082935499081
 21
1447.166341758853
 31
0.0
100
AcDbText
  0
TEXT
  5
334A
330
1F
100
AcDbEntity
  8
0
100
AcDbText
 10
2367.511506927653
 20
1445.291341758854
 30
0.0
 40
3.75
  1
197
 41
0.8
  7
CHINESET
 72
     4
 11
2371.082935499082
 21
1447.166341758853
 31
0.0
100
AcDbText
  0
TEXT
  5
334B
330
1F
100
AcDbEntity
  8
0
100
AcDbText
 10
2367.225792641939
 20
1437.291341758854
 30
0.0
 40
3.75
  1
222
 41
0.8
  7
CHINESET
 72
     4
 11
2371.082935499082
 21
1439.166341758854
 31
0.0
100
AcDbText
  0
TEXT
  5
334C
330
1F
100
AcDbEntity
  8
0
100
AcDbText
 10
2367.225792641939
 20
1429.291341758854
 30
0.0
 40
3.75
  1
247
 41
0.8
  7
CHINESET
 72
     4
 11
2371.082935499082
 21
1431.166341758854
 31
0.0
100
AcDbText
  0
TEXT
  5
334D
330
1F
100
AcDbEntity
  8
0
100
AcDbText
 10
2382.225792641939
 20
1429.291341758854
 30
0.0
 40
3.75
  1
235
 41
0.8
  7
CHINESET
 72
     4
 11
2386.082935499082
 21
1431.166341758854
 31
0.0
100
AcDbText
  0
TEXT
  5
334E
330
1F
100
AcDbEntity
  8
0
100
AcDbText
 10
2382.511506927653
 20
1445.291341758854
 30
0.0
 40
3.75
  1
185
 41
0.8
  7
CHINESET
 72
     4
 11
2386.082935499082
 21
1447.166341758853
 31
0.0
100
AcDbText
  0
TEXT
  5
334F
330
1F
100
AcDbEntity
  8
0
100
AcDbText
 10
2382.511506927653
 20
1437.291341758854
 30
0.0
 40
3.75
  1
210
 41
0.8
  7
CHINESET
 72
     4
 11
2386.082935499082
 21
1439.166341758854
 31
0.0
100
AcDbText
  0
TEXT
  5
3350
330
1F
100
AcDbEntity
  8
0
100
AcDbText
 10
2398.65436407051
 20
1461.291341758854
 30
0.0
 40
3.75
  1
27
 41
0.8
  7
CHINESET
 72
     4
 11
2401.082935499081
 21
1463.166341758853
 31
0.0
100
AcDbText
  0
TEXT
  5
3351
330
1F
100
AcDbEntity
  8
0
100
AcDbText
 10
2398.65436407051
 20
1469.291341758854
 30
0.0
 40
3.75
  1
27
 41
0.8
  7
CHINESET
 72
     4
 11
2401.082935499081
 21
1471.166341758854
 31
0.0
100
AcDbText
  0
TEXT
  5
3352
330
1F
100
AcDbEntity
  8
0
100
AcDbText
 10
2398.65436407051
 20
1477.291341758854
 30
0.0
 40
3.75
  1
27
 41
0.8
  7
CHINESET
 72
     4
 11
2401.082935499081
 21
1479.166341758854
 31
0.0
100
AcDbText
  0
TEXT
  5
3353
330
1F
100
AcDbEntity
  8
0
100
AcDbText
 10
2398.65436407051
 20
1485.291341758854
 30
0.0
 40
3.75
  1
27
 41
0.8
  7
CHINESET
 72
     4
 11
2401.082935499081
 21
1487.166341758853
 31
0.0
100
AcDbText
  0
TEXT
  5
3354
330
1F
100
AcDbEntity
  8
0
100
AcDbText
 10
2398.65436407051
 20
1453.291341758854
 30
0.0
 40
3.75
  1
50
 41
0.8
  7
CHINESET
 72
     4
 11
2401.082935499081
 21
1455.166341758854
 31
0.0
100
AcDbText
  0
TEXT
  5
3355
330
1F
100
AcDbEntity
  8
0
100
AcDbText
 10
2383.65436407051
 20
1477.291341758854
 30
0.0
 40
3.75
  1
85
 41
0.8
  7
CHINESET
 72
     4
 11
2386.082935499082
 21
1479.166341758854
 31
0.0
100
AcDbText
  0
TEXT
  5
3356
330
1F
100
AcDbEntity
  8
0
100
AcDbText
 10
2368.65436407051
 20
1477.291341758854
 30
0.0
 40
3.75
  1
97
 41
0.8
  7
CHINESET
 72
     4
 11
2371.082935499082
 21
1479.166341758854
 31
0.0
100
AcDbText
  0
TEXT
  5
3357
330
1F
100
AcDbEntity
  8
0
100
AcDbText
 10
2367.511506927653
 20
1469.291341758854
 30
0.0
 40
3.75
  1
122
 41
0.8
  7
CHINESET
 72
     4
 11
2371.082935499082
 21
1471.166341758854
 31
0.0
100
AcDbText
  0
TEXT
  5
3358
330
1F
100
AcDbEntity
  8
0
100
AcDbText
 10
2367.511506927653
 20
1461.291341758854
 30
0.0
 40
3.75
  1
147
 41
0.8
  7
CHINESET
 72
     4
 11
2371.082935499082
 21
1463.166341758853
 31
0.0
100
AcDbText
  0
TEXT
  5
3359
330
1F
100
AcDbEntity
  8
0
100
AcDbText
 10
2367.511506927653
 20
1453.291341758854
 30
0.0
 40
3.75
  1
172
 41
0.8
  7
CHINESET
 72
     4
 11
2371.082935499082
 21
1455.166341758854
 31
0.0
100
AcDbText
  0
TEXT
  5
335A
330
1F
100
AcDbEntity
  8
0
100
AcDbText
 10
2382.511506927653
 20
1461.291341758854
 30
0.0
 40
3.75
  1
135
 41
0.8
  7
CHINESET
 72
     4
 11
2386.082935499082
 21
1463.166341758853
 31
0.0
100
AcDbText
  0
TEXT
  5
335B
330
1F
100
AcDbEntity
  8
0
100
AcDbText
 10
2382.511506927653
 20
1453.291341758854
 30
0.0
 40
3.75
  1
160
 41
0.8
  7
CHINESET
 72
     4
 11
2386.082935499082
 21
1455.166341758854
 31
0.0
100
AcDbText
  0
TEXT
  5
335C
330
1F
100
AcDbEntity
  8
0
100
AcDbText
 10
2382.797221213367
 20
1469.291341758854
 30
0.0
 40
3.75
  1
110
 41
0.8
  7
CHINESET
 72
     4
 11
2386.082935499082
 21
1471.166341758854
 31
0.0
100
AcDbText
  0
TEXT
  5
335D
330
1F
100
AcDbEntity
  8
0
100
AcDbText
 10
2368.65436407051
 20
1501.291341758853
 30
0.0
 40
3.75
  1
67
 41
0.8
  7
CHINESET
 72
     4
 11
2371.082935499082
 21
1503.166341758853
 31
0.0
100
AcDbText
  0
TEXT
  5
335E
330
1F
100
AcDbEntity
  8
0
100
AcDbText
 10
2368.65436407051
 20
1493.291341758854
 30
0.0
 40
3.75
  1
77
 41
0.8
  7
CHINESET
 72
     4
 11
2371.082935499082
 21
1495.166341758854
 31
0.0
100
AcDbText
  0
TEXT
  5
335F
330
1F
100
AcDbEntity
  8
0
100
AcDbText
 10
2368.65436407051
 20
1485.291341758854
 30
0.0
 40
3.75
  1
87
 41
0.8
  7
CHINESET
 72
     4
 11
2371.082935499082
 21
1487.166341758853
 31
0.0
100
AcDbText
  0
TEXT
  5
3360
330
1F
100
AcDbEntity
  8
0
100
AcDbText
 10
2383.65436407051
 20
1493.291341758854
 30
0.0
 40
3.75
  1
65
 41
0.8
  7
CHINESET
 72
     4
 11
2386.082935499082
 21
1495.166341758854
 31
0.0
100
AcDbText
  0
TEXT
  5
3361
330
1F
100
AcDbEntity
  8
0
100
AcDbText
 10
2383.65436407051
 20
1485.291341758854
 30
0.0
 40
3.75
  1
75
 41
0.8
  7
CHINESET
 72
     4
 11
2386.082935499082
 21
1487.166341758853
 31
0.0
100
AcDbText
  0
TEXT
  5
3362
330
1F
100
AcDbEntity
  8
0
100
AcDbText
 10
2383.65436407051
 20
1501.291341758853
 30
0.0
 40
3.75
  1
55
 41
0.8
  7
CHINESET
 72
     4
 11
2386.082935499082
 21
1503.166341758853
 31
0.0
100
AcDbText
  0
TEXT
  5
3363
330
1F
100
AcDbEntity
  8
0
100
AcDbText
 10
2400.082935499082
 20
1493.291341758854
 30
0.0
 40
3.75
  1
0
 41
0.8
  7
CHINESET
 72
     4
 11
2401.082935499081
 21
1495.166341758853
 31
0.0
100
AcDbText
  0
TEXT
  5
3365
330
1F
100
AcDbEntity
  8
0
100
AcDbText
 10
2400.082935499082
 20
1501.291341758853
 30
0.0
 40
3.75
  1
0
 41
0.8
  7
CHINESET
 72
     4
 11
2401.082935499082
 21
1503.166341758853
 31
0.0
100
AcDbText
  0
TEXT
  5
3366
330
1F
100
AcDbEntity
  8
0
100
AcDbText
 10
2400.082935499082
 20
1766.656994702033
 30
0.0
 40
3.75
  1
0
 41
0.8
  7
CHINESET
 72
     4
 11
2401.082935499082
 21
1768.531994702033
 31
0.0
100
AcDbText
  0
TEXT
  5
3367
330
1F
100
AcDbEntity
  8
0
100
AcDbText
 10
2400.082935499082
 20
1774.656994702033
 30
0.0
 40
3.75
  1
0
 41
0.8
  7
CHINESET
 72
     4
 11
2401.082935499082
 21
1776.531994702033
 31
0.0
100
AcDbText
  0
TEXT
  5
3368
330
1F
100
AcDbEntity
  8
0
100
AcDbText
 10
2400.082935499082
 20
1782.656994702033
 30
0.0
 40
3.75
  1
0
 41
0.8
  7
CHINESET
 72
     4
 11
2401.082935499082
 21
1784.531994702033
 31
0.0
100
AcDbText
  0
TEXT
  5
3369
330
1F
100
AcDbEntity
  8
0
100
AcDbText
 10
2400.082935499082
 20
1790.656994702032
 30
0.0
 40
3.75
  1
0
 41
0.8
  7
CHINESET
 72
     4
 11
2401.082935499082
 21
1792.531994702033
 31
0.0
100
AcDbText
  0
CIRCLE
  5
336D
330
1F
100
AcDbEntity
  8
0
100
AcDbCircle
 10
2338.43169775733
 20
1502.861864267249
 30
0.0
 40
2.260277237768605
  0
CIRCLE
  5
336E
330
1F
100
AcDbEntity
  8
0
100
AcDbCircle
 10
2338.43169775733
 20
1792.227517210428
 30
0.0
 40
2.260277237768605
  0
TEXT
  5
33D5
330
1F
100
AcDbEntity
  8
0
100
AcDbText
 10
2027.253741547902
 20
1803.946882754416
 30
0.0
 40
7.175900160000002
  1
Slide bearing type
 41
0.8
  7
CHINESET
100
AcDbText
  0
TEXT
  5
33D8
330
1F
100
AcDbEntity
  8
0
100
AcDbText
 10
2027.253741547902
 20
1514.581229811236
 30
0.0
 40
7.175900160000002
  1
Linear bush bearing type
 41
0.8
  7
CHINESET
100
AcDbText
  0
LWPOLYLINE
  5
3511
330
1F
100
AcDbEntity
  8
LOGO
 62
     4
100
AcDbPolyline
 90
        4
 70
     1
 43
0.0
 10
2019.545192205522
 20
1241.001154150035
 10
2459.33550131756
 20
1241.001154150035
 10
2459.33550131756
 20
1203.356605733745
 10
2019.545192205522
 20
1203.356605733745
1001
GENIUS_GENREC_14
1002
{
1000
PYDIR
1011
2019.545192205522
1021
1203.356605733745
1031
0.0
1002
}
1002
{
1000
PXDIR
1011
2459.33550131756
1021
1241.001154150035
1031
0.0
1002
}
1002
{
1000
PORI
1011
2019.545192205522
1021
1241.001154150035
1031
0.0
1002
}
1002
{
1000
PINS
1011
2019.545192205522
1021
1241.001154150035
1031
0.0
1002
}
1002
{
1000
PINS2
1011
2459.33550131756
1021
1203.356605733745
1031
0.0
1002
}
1002
{
1000
C
1070
     1
1002
}
1001
GENIUS_GENOBJ-N-REC_13
1002
{
1000
OWNER
1000
GEN
1002
}
1001
GENIUS_GENODEF_13
1002
{
1000
HIER
1070
     0
1002
}
1002
{
1000
MANEDIT
1070
     0
1002
}
1002
{
1000
NOSEL
1070
     0
1002
}
1002
{
1000
BEHIND
1070
     0
1002
}
1002
{
1000
OTHER
1070
     0
1002
}
1002
{
1000
REACTOR
1002
}
  0
TEXT
  5
3512
330
1F
100
AcDbEntity
  8
LOGO
 62
     7
100
AcDbText
 10
2104.544089917337
 20
1224.509718065587
 30
0.0
 40
5.019273122171945
  1
Order example:
 41
0.8
  7
CHINESET
100
AcDbText
  0
TEXT
  5
3513
330
1F
100
AcDbEntity
  8
LOGO
 62
     7
100
AcDbText
 10
2105.444589023155
 20
1231.575815367844
 30
0.0
 40
7.528909683257918
  1
訂購代號：
  7
CHINESET
100
AcDbText
  0
LINE
  5
3514
330
1F
100
AcDbEntity
  8
LOGO
 62
     4
100
AcDbLine
 10
2102.363198721359
 20
1203.356605733745
 30
0.0
 11
2102.363198721359
 21
1241.001154150035
 31
0.0
  0
TEXT
  5
3515
330
1F
100
AcDbEntity
  8
LOGO
  6
Continuous
100
AcDbText
 10
2033.067283212172
 20
1210.751820459548
 30
0.0
 40
5.646682262443439
  1
金器工業股份有限公司
  7
CHINESET
100
AcDbText
  0
TEXT
  5
3516
330
1F
100
AcDbEntity
  8
LOGO
  6
Continuous
100
AcDbText
 10
2022.695445037057
 20
1205.104031890099
 30
0.0
 40
3.764454841628959
  1
MINDMAN INDUSTRIAL CO., LTD.
 41
0.85
  7
CHINESET
100
AcDbText
  0
LINE
  5
3517
330
1F
100
AcDbEntity
  8
LOGO
 62
     4
100
AcDbLine
 10
2102.363198721359
 20
1233.472244466777
 30
0.0
 11
2047.151194377466
 21
1233.472244466777
 31
0.0
  0
LINE
  5
3518
330
1F
100
AcDbEntity
  8
LOGO
 62
     4
100
AcDbLine
 10
2102.363198721359
 20
1225.943334783519
 30
0.0
 11
2047.151194377466
 21
1225.943334783519
 31
0.0
  0
LINE
  5
3519
330
1F
100
AcDbEntity
  8
LOGO
 62
     4
100
AcDbLine
 10
2102.363198721359
 20
1218.414425100261
 30
0.0
 11
2019.545192205522
 21
1218.414425100261
 31
0.0
  0
LINE
  5
351A
330
1F
100
AcDbEntity
  8
LOGO
 62
     4
100
AcDbLine
 10
2047.151194377466
 20
1218.414425100261
 30
0.0
 11
2047.151194377466
 21
1241.001154150035
 31
0.0
  0
TEXT
  5
351B
330
1F
100
AcDbEntity
  8
LOGO
100
AcDbText
 10
2084.885993379607
 20
1220.296652521075
 30
0.0
 40
3.764454841628959
  1
mm
  7
CHINESET
 72
     1
 11
2089.546746993052
 21
1222.17887994189
 31
0.0
100
AcDbText
 73
     2
  0
TEXT
  5
351C
330
1F
100
AcDbEntity
  8
LOGO
100
AcDbText
 10
2082.91413608161
 20
1235.354471887591
 30
0.0
 40
3.764454841628959
  1
1 : 1
  7
CHINESET
 72
     1
 11
2089.546746993052
 21
1237.236699308406
 31
0.0
100
AcDbText
 73
     2
  0
LINE
  5
351D
330
1F
100
AcDbEntity
  8
LOGO
 62
     4
100
AcDbLine
 10
2077.266833110499
 20
1218.414425100261
 30
0.0
 11
2077.266833110499
 21
1241.001154150035
 31
0.0
  0
CIRCLE
  5
351E
330
1F
100
AcDbEntity
  8
LOGO
  6
Continuous
100
AcDbCircle
 10
2084.237192100342
 20
1229.715841821602
 30
0.0
 40
2.185731086328588
  0
CIRCLE
  5
351F
330
1F
100
AcDbEntity
  8
LOGO
  6
Continuous
100
AcDbCircle
 10
2084.237192100342
 20
1229.715841821602
 30
0.0
 40
1.280644924762986
  0
LINE
  5
3520
330
1F
100
AcDbEntity
  8
LOGO
100
AcDbLine
 10
2097.972579868342
 20
1227.530110735273
 30
0.0
 11
2097.972579868342
 21
1231.901572907931
 31
0.0
  0
LINE
  5
3521
330
1F
100
AcDbEntity
  8
LOGO
100
AcDbLine
 10
2091.120438379653
 20
1228.435196896839
 30
0.0
 11
2091.120438379653
 21
1230.996486746365
 31
0.0
  0
LINE
  5
3522
330
1F
100
AcDbEntity
  8
LOGO
  6
Continuous
100
AcDbLine
 10
2091.120438379653
 20
1230.996486746365
 30
0.0
 11
2097.972579868342
 21
1231.901572907931
 31
0.0
  0
LINE
  5
3523
330
1F
100
AcDbEntity
  8
LOGO
  6
Continuous
100
AcDbLine
 10
2091.120438379653
 20
1228.435196896839
 30
0.0
 11
2097.972579868342
 21
1227.530110735273
 31
0.0
  0
TEXT
  5
3524
330
1F
100
AcDbEntity
  8
LOGO
100
AcDbText
 10
2050.255189061615
 20
1235.356324473635
 30
246.7161687432938
 40
3.764454841628959
  1
比例 Scale:
 41
0.9
  7
CHINESET
 72
     4
 11
2062.209013743984
 21
1237.236699308406
 31
246.7161687432938
100
AcDbText
  0
TEXT
  5
3525
330
1F
100
AcDbEntity
  8
LOGO
100
AcDbText
 10
2050.038396796182
 20
1227.878515288761
 30
246.7161687432938
 40
3.764454841628959
  1
投影  View:
 41
0.9
  7
CHINESET
 72
     4
 11
2062.209013743984
 21
1229.707789625148
 31
246.7161687432938
100
AcDbText
  0
TEXT
  5
3526
330
1F
100
AcDbEntity
  8
LOGO
100
AcDbText
 10
2050.406439479359
 20
1220.296652521075
 30
246.7161687432938
 40
3.764454841628959
  1
單位  Unit:
 41
0.9
  7
CHINESET
 72
     4
 11
2062.209013743984
 21
1222.17887994189
 31
246.7161687432938
100
AcDbText
  0
SOLID
  5
3527
330
1F
100
AcDbEntity
  8
LOGO
 62
     5
100
AcDbTrace
 10
2023.450874518617
 20
1224.672295446517
 30
0.0
 11
2025.078526012842
 21
1224.672295446516
 31
0.0
 12
2031.869761557713
 22
1240.106921684861
 32
0.0
 13
2033.497413051938
 23
1240.10692168486
 33
0.0
  0
SOLID
  5
3528
330
1F
100
AcDbEntity
  8
LOGO
 62
     5
100
AcDbTrace
 10
2025.752036975972
 20
1224.672295446517
 30
0.0
 11
2027.379688470197
 21
1224.672295446517
 31
0.0
 12
2033.497413051938
 22
1238.872151585792
 32
0.0
 13
2031.869761557713
 23
1232.904096106966
 33
0.0
  0
SOLID
  5
3529
330
1F
100
AcDbEntity
  8
LOGO
 62
     2
100
AcDbTrace
 10
2025.078526012842
 20
1224.672295446516
 30
0.0
 11
2025.752036975972
 21
1224.672295446517
 31
0.0
 12
2033.497413051938
 22
1240.10692168486
 32
0.0
 13
2034.170924015068
 23
1240.10692168486
 33
0.0
  0
SOLID
  5
352A
330
1F
100
AcDbEntity
  8
LOGO
 62
     5
100
AcDbTrace
 10
2020.841350024333
 20
1219.05970408712
 30
0.0
 11
2021.402609160275
 21
1219.05970408712
 31
0.0
 12
2022.983158572
 22
1221.865999766818
 32
0.0
 13
2023.54441770794
 23
1221.865999766818
 33
0.0
  0
SOLID
  5
352B
330
1F
100
AcDbEntity
  8
LOGO
 62
     5
100
AcDbTrace
 10
2022.983158572
 20
1221.865999766818
 30
0.0
 11
2023.54441770794
 21
1221.865999766818
 31
0.0
 12
2022.983158572
 22
1219.05970408712
 32
0.0
 13
2023.54441770794
 23
1219.05970408712
 33
0.0
  0
SOLID
  5
352C
330
1F
100
AcDbEntity
  8
LOGO
 62
     5
100
AcDbTrace
 10
2022.983158572
 20
1219.05970408712
 30
0.0
 11
2023.54441770794
 21
1219.05970408712
 31
0.0
 12
2025.124967119668
 22
1221.865999766818
 32
0.0
 13
2025.686226255608
 23
1221.865999766818
 33
0.0
  0
SOLID
  5
352D
330
1F
100
AcDbEntity
  8
LOGO
 62
     5
100
AcDbTrace
 10
2025.124967119668
 20
1221.865999766818
 30
0.0
 11
2025.686226255608
 21
1221.865999766818
 31
0.0
 12
2025.124967119668
 22
1219.05970408712
 32
0.0
 13
2025.686226255608
 23
1219.05970408712
 33
0.0
  0
POLYLINE
  5
352E
330
1F
100
AcDbEntity
  8
LOGO
 62
     5
100
AcDb2dPolyline
 66
     1
 10
0.0
 20
0.0
 30
0.0
 40
0.5621585896832579
 41
0.5621585896832579
  0
VERTEX
  5
352F
330
352E
100
AcDbEntity
  8
LOGO
 62
     5
100
AcDbVertex
100
AcDb2dVertex
 10
2043.938182161034
 20
1220.743481494938
 30
0.0
 42
1.0
  0
VERTEX
  5
3530
330
352E
100
AcDbEntity
  8
LOGO
 62
     5
100
AcDbVertex
100
AcDb2dVertex
 10
2042.251706391985
 20
1220.743481494938
 30
0.0
 42
1.0
  0
SEQEND
  5
3531
330
352E
100
AcDbEntity
  8
LOGO
 62
     5
  0
POLYLINE
  5
3532
330
1F
100
AcDbEntity
  8
LOGO
 62
     5
100
AcDb2dPolyline
 66
     1
 10
0.0
 20
0.0
 30
0.0
 70
     1
  0
VERTEX
  5
3533
330
3532
100
AcDbEntity
  8
LOGO
 62
     5
100
AcDbVertex
100
AcDb2dVertex
 10
2039.072624552883
 20
1220.462851926968
 30
0.0
 42
1.000000057330635
  0
VERTEX
  5
3534
330
3532
100
AcDbEntity
  8
LOGO
 62
     5
100
AcDbVertex
100
AcDb2dVertex
 10
2040.756401960701
 20
1220.462851926968
 30
0.0
 42
1.000000057330635
  0
SEQEND
  5
3535
330
3532
100
AcDbEntity
  8
LOGO
 62
     5
  0
CIRCLE
  5
3536
330
1F
100
AcDbEntity
  8
LOGO
 62
     5
100
AcDbCircle
 10
2039.914513256793
 20
1220.462851926968
 30
0.0
 40
0.8418887039096471
  0
POLYLINE
  5
3537
330
1F
100
AcDbEntity
  8
LOGO
 62
     5
100
AcDb2dPolyline
 66
     1
 10
0.0
 20
0.0
 30
0.0
 70
     1
 40
0.5621585896832579
 41
0.5621585896832579
  0
VERTEX
  5
3538
330
3537
100
AcDbEntity
  8
LOGO
 62
     5
100
AcDbVertex
100
AcDb2dVertex
 10
2038.790196077426
 20
1220.462851926968
 30
0.0
 42
1.0
  0
VERTEX
  5
3539
330
3537
100
AcDbEntity
  8
LOGO
 62
     5
100
AcDbVertex
100
AcDb2dVertex
 10
2041.038830436159
 20
1220.462851926968
 30
0.0
 42
1.0
  0
SEQEND
  5
353A
330
3537
100
AcDbEntity
  8
LOGO
 62
     5
  0
LINE
  5
353B
330
1F
100
AcDbEntity
  8
LOGO
100
AcDbLine
 10
2044.217462548388
 20
1219.05970408712
 30
0.0
 11
2044.217462548388
 21
1220.743481494938
 31
0.0
  0
SOLID
  5
353C
330
1F
100
AcDbEntity
  8
LOGO
 62
     5
100
AcDbTrace
 10
2040.756345834791
 20
1221.865999766818
 30
0.0
 11
2041.317604970729
 21
1221.865999766818
 31
0.0
 12
2040.756345834791
 22
1219.05970408712
 32
0.0
 13
2041.317604970729
 23
1219.05970408712
 33
0.0
  0
SOLID
  5
353D
330
1F
100
AcDbEntity
  8
LOGO
 62
     5
100
AcDbTrace
 10
2041.97242600463
 20
1219.05970408712
 30
0.0
 11
2042.533685140569
 21
1219.05970408712
 31
0.0
 12
2041.97242600463
 22
1221.865999766818
 32
0.0
 13
2042.533685140569
 23
1221.865999766818
 33
0.0
  0
SOLID
  5
353E
330
1F
100
AcDbEntity
  8
LOGO
 62
     5
100
AcDbTrace
 10
2043.65620341245
 20
1220.743481494938
 30
0.0
 11
2044.217462548388
 21
1220.743481494938
 31
0.0
 12
2043.65620341245
 22
1219.05970408712
 32
0.0
 13
2044.217462548388
 23
1219.05970408712
 33
0.0
  0
SOLID
  5
353F
330
1F
100
AcDbEntity
  8
LOGO
 62
     5
100
AcDbTrace
 10
2041.916300091034
 20
1238.872151585792
 30
0.0
 11
2040.288648596811
 21
1232.904096106966
 31
0.0
 12
2041.916300091034
 22
1224.672295446516
 32
0.0
 13
2040.288648596811
 23
1224.672295446516
 33
0.0
  0
SOLID
  5
3540
330
1F
100
AcDbEntity
  8
LOGO
 62
     5
100
AcDbTrace
 10
2042.589811054164
 20
1224.672295446516
 30
0.0
 11
2044.217462548388
 21
1224.672295446516
 31
0.0
 12
2042.589811054164
 22
1240.10692168486
 32
0.0
 13
2044.217462548388
 23
1240.106921684861
 33
0.0
  0
SOLID
  5
3541
330
1F
100
AcDbEntity
  8
LOGO
 62
     2
100
AcDbTrace
 10
2041.916300091034
 20
1240.106921684861
 30
0.0
 11
2042.589811054164
 21
1240.10692168486
 31
0.0
 12
2041.916300091034
 22
1224.672295446516
 32
0.0
 13
2042.589811054164
 23
1224.672295446516
 33
0.0
  0
POLYLINE
  5
3542
330
1F
100
AcDbEntity
  8
LOGO
 62
     5
100
AcDb2dPolyline
 66
     1
 10
0.0
 20
0.0
 30
0.0
 40
0.5621585896832579
 41
0.5621585896832579
  0
VERTEX
  5
3543
330
3542
100
AcDbEntity
  8
LOGO
 62
     5
100
AcDbVertex
100
AcDb2dVertex
 10
2035.893430461955
 20
1220.743481494938
 30
0.0
 42
1.0
  0
VERTEX
  5
3544
330
3542
100
AcDbEntity
  8
LOGO
 62
     5
100
AcDbVertex
100
AcDb2dVertex
 10
2034.206954692906
 20
1220.743481494938
 30
0.0
 42
1.0
  0
SEQEND
  5
3545
330
3542
100
AcDbEntity
  8
LOGO
 62
     5
  0
POLYLINE
  5
3546
330
1F
100
AcDbEntity
  8
LOGO
 62
     5
100
AcDb2dPolyline
 66
     1
 10
0.0
 20
0.0
 30
0.0
 40
0.5621585896832579
 41
0.5621585896832579
  0
VERTEX
  5
3547
330
3546
100
AcDbEntity
  8
LOGO
 62
     5
100
AcDbVertex
100
AcDb2dVertex
 10
2037.577207869774
 20
1220.743481494938
 30
0.0
 42
1.0
  0
VERTEX
  5
3548
330
3546
100
AcDbEntity
  8
LOGO
 62
     5
100
AcDbVertex
100
AcDb2dVertex
 10
2035.890732100725
 20
1220.743481494938
 30
0.0
 42
1.0
  0
SEQEND
  5
3549
330
3546
100
AcDbEntity
  8
LOGO
 62
     5
  0
POLYLINE
  5
354A
330
1F
100
AcDbEntity
  8
LOGO
 62
     5
100
AcDb2dPolyline
 66
     1
 10
0.0
 20
0.0
 30
0.0
 40
0.5621585896832579
 41
0.5621585896832579
  0
VERTEX
  5
354B
330
354A
100
AcDbEntity
  8
LOGO
 62
     5
100
AcDbVertex
100
AcDb2dVertex
 10
2029.532456170695
 20
1220.743481494938
 30
0.0
 42
1.0
  0
VERTEX
  5
354C
330
354A
100
AcDbEntity
  8
LOGO
 62
     5
100
AcDbVertex
100
AcDb2dVertex
 10
2027.845980401645
 20
1220.743481494938
 30
0.0
 42
1.0
  0
SEQEND
  5
354D
330
354A
100
AcDbEntity
  8
LOGO
 62
     5
  0
SOLID
  5
354E
330
1F
100
AcDbEntity
  8
LOGO
 62
     5
100
AcDbTrace
 10
2027.56670001429
 20
1221.865999766818
 30
0.0
 11
2028.12795915023
 21
1221.865999766818
 31
0.0
 12
2027.56670001429
 22
1219.05970408712
 32
0.0
 13
2028.12795915023
 23
1219.05970408712
 33
0.0
  0
SOLID
  5
354F
330
1F
100
AcDbEntity
  8
LOGO
 62
     5
100
AcDbTrace
 10
2029.25047742211
 20
1220.743481494938
 30
0.0
 11
2029.81173655805
 21
1220.743481494938
 31
0.0
 12
2029.25047742211
 22
1219.05970408712
 32
0.0
 13
2029.81173655805
 23
1219.05970408712
 33
0.0
  0
POLYLINE
  5
3550
330
1F
100
AcDbEntity
  8
LOGO
 62
     5
100
AcDb2dPolyline
 66
     1
 10
0.0
 20
0.0
 30
0.0
 70
     1
 40
0.5621585896832579
 41
0.5621585896832579
  0
VERTEX
  5
3551
330
3550
100
AcDbEntity
  8
LOGO
 62
     5
100
AcDbVertex
100
AcDb2dVertex
 10
2030.745444378346
 20
1220.462851926968
 30
0.0
 42
1.0
  0
VERTEX
  5
3552
330
3550
100
AcDbEntity
  8
LOGO
 62
     5
100
AcDbVertex
100
AcDb2dVertex
 10
2032.994078737081
 20
1220.462851926968
 30
0.0
 42
1.0
  0
SEQEND
  5
3553
330
3550
100
AcDbEntity
  8
LOGO
 62
     5
  0
SOLID
  5
3554
330
1F
100
AcDbEntity
  8
LOGO
 62
     5
100
AcDbTrace
 10
2032.71159413571
 20
1222.707888470728
 30
0.0
 11
2033.27285327165
 21
1222.707888470728
 31
0.0
 12
2032.71159413571
 22
1219.05970408712
 32
0.0
 13
2033.27285327165
 23
1219.05970408712
 33
0.0
  0
SOLID
  5
3555
330
1F
100
AcDbEntity
  8
LOGO
 62
     5
100
AcDbTrace
 10
2033.927674305552
 20
1221.865999766818
 30
0.0
 11
2034.48893344149
 21
1221.865999766818
 31
0.0
 12
2033.927674305552
 22
1219.05970408712
 32
0.0
 13
2034.48893344149
 23
1219.05970408712
 33
0.0
  0
SOLID
  5
3556
330
1F
100
AcDbEntity
  8
LOGO
 62
     5
100
AcDbTrace
 10
2035.611451713369
 20
1220.743481494938
 30
0.0
 11
2036.17271084931
 21
1220.743481494938
 31
0.0
 12
2035.611451713369
 22
1219.05970408712
 32
0.0
 13
2036.17271084931
 23
1219.05970408712
 33
0.0
  0
SOLID
  5
3557
330
1F
100
AcDbEntity
  8
LOGO
 62
     5
100
AcDbTrace
 10
2037.295229121189
 20
1220.743481494938
 30
0.0
 11
2037.856488257129
 21
1220.743481494938
 31
0.0
 12
2037.295229121189
 22
1219.059704087119
 32
0.0
 13
2037.856488257129
 23
1219.059704087119
 33
0.0
  0
SOLID
  5
3558
330
1F
100
AcDbEntity
  8
LOGO
 62
     5
100
AcDbTrace
 10
2026.35061984445
 20
1222.258881161976
 30
0.0
 11
2026.911878980391
 21
1222.258881161976
 31
0.0
 12
2026.35061984445
 22
1222.707888470728
 32
0.0
 13
2026.911878980391
 23
1222.707888470728
 33
0.0
  0
SOLID
  5
3559
330
1F
100
AcDbEntity
  8
LOGO
 62
     5
100
AcDbTrace
 10
2026.35061984445
 20
1221.865999766818
 30
0.0
 11
2026.911878980391
 21
1221.865999766818
 31
0.0
 12
2026.35061984445
 22
1219.059704087119
 32
0.0
 13
2026.911878980391
 23
1219.05970408712
 33
0.0
  0
SOLID
  5
355A
330
1F
100
AcDbEntity
  8
LOGO
 62
     5
100
AcDbTrace
 10
2031.869761557713
 20
1224.672295446517
 30
0.0
 11
2033.497413051938
 21
1224.672295446517
 31
0.0
 12
2031.869761557713
 22
1232.904096106966
 32
0.0
 13
2033.497413051938
 23
1238.872151585792
 33
0.0
  0
SOLID
  5
355B
330
1F
100
AcDbEntity
  8
LOGO
 62
     5
100
AcDbTrace
 10
2034.170924015068
 20
1240.10692168486
 30
0.0
 11
2035.798575509291
 21
1240.106921684861
 31
0.0
 12
2034.170924015068
 22
1225.907065545584
 32
0.0
 13
2035.798575509291
 23
1231.87512102441
 33
0.0
  0
SOLID
  5
355C
330
1F
100
AcDbEntity
  8
LOGO
 62
     2
100
AcDbTrace
 10
2033.497413051938
 20
1240.10692168486
 30
0.0
 11
2034.170924015068
 21
1240.10692168486
 31
0.0
 12
2033.497413051938
 22
1224.672295446517
 32
0.0
 13
2034.170924015068
 23
1224.672295446517
 33
0.0
  0
SOLID
  5
355D
330
1F
100
AcDbEntity
  8
LOGO
 62
     5
100
AcDbTrace
 10
2034.170924015068
 20
1225.907065545584
 30
0.0
 11
2035.798575509291
 21
1231.87512102441
 31
0.0
 12
2041.916300091034
 22
1240.106921684861
 32
0.0
 13
2040.288648596811
 23
1240.106921684861
 33
0.0
  0
SOLID
  5
355E
330
1F
100
AcDbEntity
  8
LOGO
 62
     5
100
AcDbTrace
 10
2034.170924015068
 20
1224.672295446517
 30
0.0
 11
2035.798575509291
 21
1224.672295446517
 31
0.0
 12
2041.916300091034
 22
1238.872151585792
 32
0.0
 13
2040.288648596811
 23
1232.904096106966
 33
0.0
  0
SOLID
  5
355F
330
1F
100
AcDbEntity
  8
LOGO
 62
     2
100
AcDbTrace
 10
2033.497413051938
 20
1224.672295446517
 30
0.0
 11
2034.170924015068
 21
1224.672295446517
 31
0.0
 12
2041.916300091034
 22
1240.106921684861
 32
0.0
 13
2042.589811054164
 23
1240.10692168486
 33
0.0
  0
TEXT
  5
3560
330
1F
100
AcDbEntity
  8
LOGO
100
AcDbText
 10
2104.044651971864
 20
1205.359280851427
 30
0.0
 40
3.765
  1
10607164
 41
0.7
  7
CHINESET
 72
     1
 11
2113.268901971864
 21
1205.359280851427
 31
0.0
100
AcDbText
  0
LINE
  5
3561
330
1F
100
AcDbEntity
  8
LOGO
 62
     4
100
AcDbLine
 10
2124.953198721358
 20
1210.885515417004
 30
0.0
 11
2124.95319872136
 21
1203.356605733746
 31
0.0
  0
LINE
  5
3562
330
1F
100
AcDbEntity
  8
LOGO
 62
     4
100
AcDbLine
 10
2124.953198721358
 20
1210.885515417004
 30
0.0
 11
2102.363198721359
 21
1210.885515417004
 31
0.0
  0
LINE
  5
3563
330
1F
100
AcDbEntity
  8
LOGO
  6
AM_ISO08W050x2
 48
0.3
100
AcDbLine
 10
2081.224129069093
 20
1229.715841821602
 30
0.0
 11
2087.250255131593
 21
1229.715841821602
 31
0.0
1001
GENIUS_GENOREF_13
1005
3568
  0
LINE
  5
3564
330
1F
100
AcDbEntity
  8
LOGO
  6
AM_ISO08W050x2
 48
0.3
100
AcDbLine
 10
2084.237192100342
 20
1226.702778790352
 30
0.0
 11
2084.237192100342
 21
1232.728904852852
 31
0.0
1001
GENIUS_GENOREF_13
1005
3567
  0
LINE
  5
3565
330
1F
100
AcDbEntity
  8
LOGO
  6
CENTER
 48
0.5
100
AcDbLine
 10
2090.57245751494
 20
1229.715841821602
 30
0.0
 11
2098.662568334727
 21
1229.715841821602
 31
0.0
1001
GENIUS_GENOREF_13
1005
3566
  0
POINT
  5
3566
330
1F
100
AcDbEntity
  8
0
 60
     1
100
AcDbPoint
 10
-52.79596753446071
 20
282.8707477719105
 30
0.0
1001
GENIUS_GENOBJ-N-CRS_13
1002
{
1000
OWNER
1000
GEN
1002
}
1001
GENIUS_GENOLIS_13
1002
{
1000
ENT
1005
0
1005
0
1005
0
1005
3565
1002
}
1001
GENIUS_GENOENT_13
1002
{
1000
MYREF
1005
3566
1002
}
1002
{
1000
GRP
1005
0
1002
}
1001
GENIUS_GENODEF_13
1002
{
1000
HIER
1070
    10
1002
}
1002
{
1000
MANEDIT
1070
     1
1002
}
1002
{
1000
NOSEL
1070
     0
1002
}
1002
{
1000
BEHIND
1070
     0
1002
}
1002
{
1000
OTHER
1070
     0
1002
}
1002
{
1000
REACTOR
1002
}
  0
POINT
  5
3567
330
1F
100
AcDbEntity
  8
0
 60
     1
100
AcDbPoint
 10
-64.12055275731541
 20
291.7463342505467
 30
0.0
1001
GENIUS_GENOBJ-N-CRS_13
1002
{
1000
OWNER
1000
GEN
1002
}
1001
GENIUS_GENOLIS_13
1002
{
1000
ENT
1005
0
1005
0
1005
0
1005
3564
1002
}
1001
GENIUS_GENOENT_13
1002
{
1000
MYREF
1005
3567
1002
}
1002
{
1000
GRP
1005
0
1002
}
1001
GENIUS_GENODEF_13
1002
{
1000
HIER
1070
    10
1002
}
1002
{
1000
MANEDIT
1070
     1
1002
}
1002
{
1000
NOSEL
1070
     0
1002
}
1002
{
1000
BEHIND
1070
     0
1002
}
1002
{
1000
OTHER
1070
     0
1002
}
1002
{
1000
REACTOR
1002
}
  0
POINT
  5
3568
330
1F
100
AcDbEntity
  8
0
 60
     1
100
AcDbPoint
 10
-57.76187905947859
 20
282.8707477719105
 30
0.0
1001
GENIUS_GENOBJ-N-CRS_13
1002
{
1000
OWNER
1000
GEN
1002
}
1001
GENIUS_GENOLIS_13
1002
{
1000
ENT
1005
0
1005
0
1005
0
1005
3563
1002
}
1001
GENIUS_GENOENT_13
1002
{
1000
MYREF
1005
3568
1002
}
1002
{
1000
GRP
1005
0
1002
}
1001
GENIUS_GENODEF_13
1002
{
1000
HIER
1070
    10
1002
}
1002
{
1000
MANEDIT
1070
     1
1002
}
1002
{
1000
NOSEL
1070
     0
1002
}
1002
{
1000
BEHIND
1070
     0
1002
}
1002
{
1000
OTHER
1070
     0
1002
}
1002
{
1000
REACTOR
1002
}
  0
ENDSEC
  0
SECTION
  2
OBJECTS
  0
DICTIONARY
  5
C
330
0
100
AcDbDictionary
281
     1
  3
ACAD_COLOR
350
BE
  3
ACAD_GROUP
350
D
  3
ACAD_LAYOUT
350
1A
  3
ACAD_MATERIAL
350
BD
  3
ACAD_MLINESTYLE
350
17
  3
ACAD_PLOTSETTINGS
350
19
  3
ACAD_PLOTSTYLENAME
350
E
  3
ACAD_TABLESTYLE
350
11A
  3
ACDBHEADERROUNDTRIPXREC
350
35C2
  3
AcDbVariableDictionary
350
94
  3
AcmDictionary
350
5B
  3
AMG
350
41
  3
AMGSNAPSETTINGS
350
1B8
  3
DWGPROPS
350
35C1
  0
DICTIONARY
  5
3F9
330
2
100
AcDbDictionary
280
     1
281
     1
  3
ACAD_LAYERFILTERS
360
5B7
  3
ACAD_LAYERSTATES
360
7CF
  3
ACLYDICTIONARY
360
5B6
  0
DICTIONARY
  5
8F
330
1F
100
AcDbDictionary
280
     1
281
     1
  3
ACAD_SORTENTS
360
2489
  0
DICTIONARY
  5
BE
102
{ACAD_REACTORS
330
C
102
}
330
C
100
AcDbDictionary
281
     1
  0
DICTIONARY
  5
D
102
{ACAD_REACTORS
330
C
102
}
330
C
100
AcDbDictionary
281
     1
  0
DICTIONARY
  5
1A
102
{ACAD_REACTORS
330
C
102
}
330
C
100
AcDbDictionary
281
     1
  3
Model
350
22
  3
配置1
350
1E
  3
配置2
350
26
  0
DICTIONARY
  5
BD
102
{ACAD_REACTORS
330
C
102
}
330
C
100
AcDbDictionary
281
     1
  0
DICTIONARY
  5
17
102
{ACAD_REACTORS
330
C
102
}
330
C
100
AcDbDictionary
281
     1
  3
Standard
350
18
  0
DICTIONARY
  5
19
102
{ACAD_REACTORS
330
C
102
}
330
C
100
AcDbDictionary
281
     1
  0
ACDBDICTIONARYWDFLT
  5
E
102
{ACAD_REACTORS
330
C
102
}
330
C
100
AcDbDictionary
281
     1
  3
Normal
350
F
100
AcDbDictionaryWithDefault
340
F
  0
DICTIONARY
  5
11A
102
{ACAD_REACTORS
330
C
102
}
330
C
100
AcDbDictionary
281
     1
  3
Standard
350
11B
  0
DICTIONARY
  5
35C2
102
{ACAD_REACTORS
330
C
102
}
330
C
100
AcDbDictionary
281
     1
  0
DICTIONARY
  5
94
102
{ACAD_REACTORS
330
C
102
}
330
C
100
AcDbDictionary
281
     1
  3
CTABLESTYLE
350
138
  3
DIMASSOC
350
96
  3
INDEXCTL
350
95
  3
PROJECTNAME
350
35BF
  0
DICTIONARY
  5
5B
102
{ACAD_REACTORS
330
C
102
}
330
C
100
AcDbDictionary
281
     1
  3
AcmBOM
350
1B5
  3
AcmStdDictionary
350
61
  3
AMDTSECTSYM_ARROWCOLOR
350
123
  0
DICTIONARY
  5
41
102
{ACAD_REACTORS
330
C
102
}
330
C
100
AcDbDictionary
281
     1
  0
DICTIONARY
  5
1B8
102
{ACAD_REACTORS
330
C
102
}
330
C
100
AcDbDictionary
281
     1
  0
XRECORD
  5
35C1
102
{ACAD_REACTORS
330
C
102
}
330
C
100
AcDbXrecord
280
     1
  1
DWGPROPS COOKIE
  2

  3

  4

  6

  7

  8

  9

300
AmdtFileType=84
301
=
302
=
303
=
304
=
305
=
306
=
307
=
308
=
309
=
 40
0.1891588888888889
 41
2453595.458965741
 42
2453942.680396586
  1

 90
        1
  0
DICTIONARY
  5
5B7
102
{ACAD_REACTORS
330
3F9
102
}
330
3F9
100
AcDbDictionary
281
     1
  0
DICTIONARY
  5
7CF
102
{ACAD_REACTORS
330
3F9
102
}
330
3F9
100
AcDbDictionary
281
     1
  0
DICTIONARY
  5
5B6
102
{ACAD_REACTORS
330
3F9
102
}
330
3F9
100
AcDbDictionary
281
     1
1001
ACAD
1000
<All
  0
SORTENTSTABLE
  5
2489
102
{ACAD_REACTORS
330
8F
102
}
330
8F
100
AcDbSortentsTable
330
1F
331
2360
  5
2360
331
2321
  5
2321
331
23DE
  5
23DE
331
2368
  5
2368
331
2329
  5
2329
331
239F
  5
239F
331
2415
  5
2415
331
2370
  5
2370
331
23E6
  5
23E6
331
2331
  5
2331
331
241D
  5
241D
331
2378
  5
2378
331
2339
  5
2339
331
23AF
  5
23AF
331
2425
  5
2425
331
23F6
  5
23F6
331
23B7
  5
23B7
331
242D
  5
242D
331
22E8
  5
22E8
331
E0A
  5
E0A
331
22A9
  5
22A9
331
22F0
  5
22F0
331
E12
  5
E12
331
22B1
  5
22B1
331
22F8
  5
22F8
331
E1A
  5
E1A
331
22B9
  5
22B9
331
2300
  5
2300
331
22C1
  5
22C1
331
2380
  5
2380
331
2341
  5
2341
331
23FE
  5
23FE
331
2388
  5
2388
331
23BF
  5
23BF
331
24D3
  5
24D3
331
2406
  5
2406
331
2494
  5
2494
331
2390
  5
2390
331
2351
  5
2351
331
23C7
  5
23C7
331
24E3
  5
24E3
331
240E
  5
240E
331
249C
  5
249C
331
2359
  5
2359
331
23CF
  5
23CF
331
2513
  5
2513
331
251B
  5
251B
331
23D7
  5
23D7
331
2308
  5
2308
331
22C9
  5
22C9
331
2310
  5
2310
331
229A
  5
229A
331
DF3
  5
DF3
331
22D1
  5
22D1
331
2318
  5
2318
331
22A2
  5
22A2
331
DFB
  5
DFB
331
22D9
  5
22D9
331
E03
  5
E03
331
22E1
  5
22E1
331
2361
  5
2361
331
2322
  5
2322
331
23DF
  5
23DF
331
2369
  5
2369
331
232A
  5
232A
331
23A0
  5
23A0
331
2416
  5
2416
331
24AC
  5
24AC
331
2371
  5
2371
331
23E7
  5
23E7
331
2332
  5
2332
331
241E
  5
241E
331
23EF
  5
23EF
331
2379
  5
2379
331
233A
  5
233A
331
23B0
  5
23B0
331
2426
  5
2426
331
23F7
  5
23F7
331
242E
  5
242E
331
E0B
  5
E0B
331
22AA
  5
22AA
331
22E9
  5
22E9
331
E13
  5
E13
331
22B2
  5
22B2
331
22F1
  5
22F1
331
E1B
  5
E1B
331
22BA
  5
22BA
331
D9C
  5
D9C
331
22F9
  5
22F9
331
22C2
  5
22C2
331
2301
  5
2301
331
2381
  5
2381
331
2342
  5
2342
331
23B8
  5
23B8
331
23FF
  5
23FF
331
2389
  5
2389
331
23C0
  5
23C0
331
2407
  5
2407
331
2495
  5
2495
331
2391
  5
2391
331
2352
  5
2352
331
23C8
  5
23C8
331
24E4
  5
24E4
331
235A
  5
235A
331
23D0
  5
23D0
331
240F
  5
240F
331
249D
  5
249D
331
2514
  5
2514
331
251C
  5
251C
331
22CA
  5
22CA
331
2309
  5
2309
331
229B
  5
229B
331
DF4
  5
DF4
331
22D2
  5
22D2
331
2311
  5
2311
331
22A3
  5
22A3
331
DFC
  5
DFC
331
22DA
  5
22DA
331
2319
  5
2319
331
E04
  5
E04
331
22E2
  5
22E2
331
23D8
  5
23D8
331
2362
  5
2362
331
2323
  5
2323
331
2399
  5
2399
331
23E0
  5
23E0
331
236A
  5
236A
331
232B
  5
232B
331
23A1
  5
23A1
331
2417
  5
2417
331
24AD
  5
24AD
331
2372
  5
2372
331
23E8
  5
23E8
331
2333
  5
2333
331
241F
  5
241F
331
23F0
  5
23F0
331
237A
  5
237A
331
233B
  5
233B
331
23B1
  5
23B1
331
2427
  5
2427
331
242F
  5
242F
331
E0C
  5
E0C
331
22AB
  5
22AB
331
22EA
  5
22EA
331
E14
  5
E14
331
22B3
  5
22B3
331
22F2
  5
22F2
331
E1C
  5
E1C
331
22BB
  5
22BB
331
22FA
  5
22FA
331
22C3
  5
22C3
331
2302
  5
2302
331
23F8
  5
23F8
331
2382
  5
2382
331
2343
  5
2343
331
23B9
  5
23B9
331
2400
  5
2400
331
238A
  5
238A
331
23C1
  5
23C1
331
2496
  5
2496
331
2408
  5
2408
331
2392
  5
2392
331
2353
  5
2353
331
23C9
  5
23C9
331
243F
  5
243F
331
24E5
  5
24E5
331
235B
  5
235B
331
23D1
  5
23D1
331
249E
  5
249E
331
2515
  5
2515
331
251D
  5
251D
331
22CB
  5
22CB
331
229C
  5
229C
331
DF5
  5
DF5
331
22D3
  5
22D3
331
2312
  5
2312
331
22A4
  5
22A4
331
DFD
  5
DFD
331
22DB
  5
22DB
331
231A
  5
231A
331
E05
  5
E05
331
22E3
  5
22E3
331
23D9
  5
23D9
331
2363
  5
2363
331
2324
  5
2324
331
239A
  5
239A
331
2410
  5
2410
331
23E1
  5
23E1
331
236B
  5
236B
331
232C
  5
232C
331
23A2
  5
23A2
331
2418
  5
2418
331
24AE
  5
24AE
331
2373
  5
2373
331
23E9
  5
23E9
331
2334
  5
2334
331
2420
  5
2420
331
23F1
  5
23F1
331
237B
  5
237B
331
233C
  5
233C
331
23B2
  5
23B2
331
2428
  5
2428
331
24BE
  5
24BE
331
E0D
  5
E0D
331
22AC
  5
22AC
331
22EB
  5
22EB
331
E15
  5
E15
331
22B4
  5
22B4
331
22F3
  5
22F3
331
E1D
  5
E1D
331
22BC
  5
22BC
331
22FB
  5
22FB
331
22C4
  5
22C4
331
2303
  5
2303
331
23F9
  5
23F9
331
2383
  5
2383
331
2344
  5
2344
331
23BA
  5
23BA
331
2430
  5
2430
331
2401
  5
2401
331
248F
  5
248F
331
238B
  5
238B
331
23C2
  5
23C2
331
2497
  5
2497
331
2409
  5
2409
331
2393
  5
2393
331
2354
  5
2354
331
23CA
  5
23CA
331
2440
  5
2440
331
235C
  5
235C
331
23D2
  5
23D2
331
2516
  5
2516
331
251E
  5
251E
331
DEE
  5
DEE
331
22CC
  5
22CC
331
229D
  5
229D
331
DF6
  5
DF6
331
22D4
  5
22D4
331
2313
  5
2313
331
22A5
  5
22A5
331
DFE
  5
DFE
331
22DC
  5
22DC
331
231B
  5
231B
331
E06
  5
E06
331
22E4
  5
22E4
331
23DA
  5
23DA
331
2364
  5
2364
331
2325
  5
2325
331
239B
  5
239B
331
2411
  5
2411
331
23E2
  5
23E2
331
236C
  5
236C
331
232D
  5
232D
331
23A3
  5
23A3
331
2419
  5
2419
331
24AF
  5
24AF
331
23EA
  5
23EA
331
2374
  5
2374
331
2335
  5
2335
331
23AB
  5
23AB
331
2421
  5
2421
331
23F2
  5
23F2
331
237C
  5
237C
331
233D
  5
233D
331
23B3
  5
23B3
331
2429
  5
2429
331
24BF
  5
24BF
331
E0E
  5
E0E
331
22AD
  5
22AD
331
22EC
  5
22EC
331
E16
  5
E16
331
22B5
  5
22B5
331
22F4
  5
22F4
331
E1E
  5
E1E
331
22BD
  5
22BD
331
22FC
  5
22FC
331
22C5
  5
22C5
331
2304
  5
2304
331
23FA
  5
23FA
331
2384
  5
2384
331
2345
  5
2345
331
23BB
  5
23BB
331
2402
  5
2402
331
2490
  5
2490
331
238C
  5
238C
331
23C3
  5
23C3
331
2498
  5
2498
331
240A
  5
240A
331
23CB
  5
23CB
331
2441
  5
2441
331
235D
  5
235D
331
23D3
  5
23D3
331
2517
  5
2517
331
251F
  5
251F
331
DEF
  5
DEF
331
22CD
  5
22CD
331
229E
  5
229E
331
DF7
  5
DF7
331
22D5
  5
22D5
331
2314
  5
2314
331
22A6
  5
22A6
331
DFF
  5
DFF
331
22DD
  5
22DD
331
231C
  5
231C
331
22E5
  5
22E5
331
E07
  5
E07
331
23DB
  5
23DB
331
2365
  5
2365
331
2326
  5
2326
331
239C
  5
239C
331
2412
  5
2412
331
23E3
  5
23E3
331
236D
  5
236D
331
232E
  5
232E
331
23A4
  5
23A4
331
241A
  5
241A
331
23EB
  5
23EB
331
2375
  5
2375
331
2336
  5
2336
331
23AC
  5
23AC
331
2422
  5
2422
331
23F3
  5
23F3
331
237D
  5
237D
331
233E
  5
233E
331
23B4
  5
23B4
331
242A
  5
242A
331
24C0
  5
24C0
331
22ED
  5
22ED
331
E0F
  5
E0F
331
22AE
  5
22AE
331
22F5
  5
22F5
331
E17
  5
E17
331
22B6
  5
22B6
331
22FD
  5
22FD
331
DB0
  5
DB0
331
E1F
  5
E1F
331
22BE
  5
22BE
331
2305
  5
2305
331
22C6
  5
22C6
331
23FB
  5
23FB
331
2385
  5
2385
331
2346
  5
2346
331
23BC
  5
23BC
331
24D0
  5
24D0
331
2403
  5
2403
331
2491
  5
2491
331
238D
  5
238D
331
23C4
  5
23C4
331
2499
  5
2499
331
240B
  5
240B
331
23CC
  5
23CC
331
2442
  5
2442
331
235E
  5
235E
331
23D4
  5
23D4
331
2518
  5
2518
331
2297
  5
2297
331
DF0
  5
DF0
331
22CE
  5
22CE
331
2315
  5
2315
331
229F
  5
229F
331
DF8
  5
DF8
331
22D6
  5
22D6
331
231D
  5
231D
331
E00
  5
E00
331
22A7
  5
22A7
331
22DE
  5
22DE
331
22E6
  5
22E6
331
23DC
  5
23DC
331
2366
  5
2366
331
2327
  5
2327
331
239D
  5
239D
331
2413
  5
2413
331
2520
  5
2520
331
236E
  5
236E
331
23E4
  5
23E4
331
232F
  5
232F
331
241B
  5
241B
331
23EC
  5
23EC
331
2376
  5
2376
331
2337
  5
2337
331
23AD
  5
23AD
331
2423
  5
2423
331
23F4
  5
23F4
331
237E
  5
237E
331
233F
  5
233F
331
23B5
  5
23B5
331
242B
  5
242B
331
24C1
  5
24C1
331
E08
  5
E08
331
22EE
  5
22EE
331
E10
  5
E10
331
22AF
  5
22AF
331
22F6
  5
22F6
331
E18
  5
E18
331
22B7
  5
22B7
331
22FE
  5
22FE
331
E20
  5
E20
331
22BF
  5
22BF
331
2306
  5
2306
331
22C7
  5
22C7
331
23FC
  5
23FC
331
2386
  5
2386
331
2347
  5
2347
331
23BD
  5
23BD
331
24D1
  5
24D1
331
2404
  5
2404
331
2492
  5
2492
331
238E
  5
238E
331
234F
  5
234F
331
23C5
  5
23C5
331
249A
  5
249A
331
240C
  5
240C
331
23CD
  5
23CD
331
2443
  5
2443
331
2519
  5
2519
331
235F
  5
235F
331
23D5
  5
23D5
331
230E
  5
230E
331
2298
  5
2298
331
DF1
  5
DF1
331
22CF
  5
22CF
331
2316
  5
2316
331
22A0
  5
22A0
331
DF9
  5
DF9
331
22D7
  5
22D7
331
231E
  5
231E
331
E01
  5
E01
331
22DF
  5
22DF
331
22E7
  5
22E7
331
2320
  5
2320
331
2521
  5
2521
331
23DD
  5
23DD
331
2367
  5
2367
331
2328
  5
2328
331
239E
  5
239E
331
2414
  5
2414
331
236F
  5
236F
331
23E5
  5
23E5
331
2330
  5
2330
331
241C
  5
241C
331
2377
  5
2377
331
2338
  5
2338
331
23AE
  5
23AE
331
2424
  5
2424
331
23F5
  5
23F5
331
237F
  5
237F
331
23B6
  5
23B6
331
242C
  5
242C
331
E09
  5
E09
331
22A8
  5
22A8
331
22EF
  5
22EF
331
E11
  5
E11
331
22B0
  5
22B0
331
22F7
  5
22F7
331
E19
  5
E19
331
22B8
  5
22B8
331
22FF
  5
22FF
331
E21
  5
E21
331
22C0
  5
22C0
331
2307
  5
2307
331
2340
  5
2340
331
23FD
  5
23FD
331
2387
  5
2387
331
23BE
  5
23BE
331
24D2
  5
24D2
331
2405
  5
2405
331
2493
  5
2493
331
238F
  5
238F
331
2350
  5
2350
331
23C6
  5
23C6
331
24E2
  5
24E2
331
249B
  5
249B
331
240D
  5
240D
331
23CE
  5
23CE
331
2444
  5
2444
331
2512
  5
2512
331
251A
  5
251A
331
23D6
  5
23D6
331
22C8
  5
22C8
331
230F
  5
230F
331
2299
  5
2299
331
DF2
  5
DF2
331
22D0
  5
22D0
331
2317
  5
2317
331
22A1
  5
22A1
331
DFA
  5
DFA
331
22D8
  5
22D8
331
22E0
  5
22E0
331
231F
  5
231F
331
E02
  5
E02
  0
LAYOUT
  5
22
102
{ACAD_XDICTIONARY
360
35C5
102
}
102
{ACAD_REACTORS
330
1A
102
}
330
1A
100
AcDbPlotSettings
  1

  2
\\RD\EPSON Stylus C63 Series單色
  4
A4
  6

 40
3.757083177566528
 41
3.757076978683471
 42
3.757080078125
 43
3.757080078125
 44
209.9733276367187
 45
296.9683227539062
 46
0.0
 47
0.0
 48
0.0
 49
0.0
140
0.0
141
0.0
142
1.0
143
0.3405120737814363
 70
 11952
 72
     1
 73
     0
 74
     0
  7
單色出圖.ctb
 75
     0
147
2.936753428137963
148
-2047.07469463503
149
-1261.649717473083
100
AcDbLayout
  1
Model
 70
     1
 71
     0
 10
0.0
 20
0.0
 11
12.0
 21
9.0
 12
0.0
 22
0.0
 32
0.0
 14
0.0
 24
0.0
 34
0.0
 15
0.0
 25
0.0
 35
0.0
146
0.0
 13
0.0
 23
0.0
 33
0.0
 16
1.0
 26
0.0
 36
0.0
 17
0.0
 27
1.0
 37
0.0
 76
     0
330
1F
1001
ACAD_PSEXT
1000
\\RD\EPSON Stylus C63 Series單色
1000
EPSON Stylus C63 Series
1000
\\RD
1000

1070
     0
  0
LAYOUT
  5
1E
102
{ACAD_XDICTIONARY
360
35C3
102
}
102
{ACAD_REACTORS
330
1A
102
}
330
1A
100
AcDbPlotSettings
  1

  2

  4

  6

 40
0.0
 41
0.0
 42
0.0
 43
0.0
 44
0.0
 45
0.0
 46
0.0
 47
0.0
 48
0.0
 49
0.0
140
0.0
141
0.0
142
1.0
143
1.0
 70
   688
 72
     0
 73
     0
 74
     5
  7
單色出圖.ctb
 75
    16
147
1.0
148
0.0
149
0.0
100
AcDbLayout
  1
配置1
 70
     1
 71
     1
 10
0.0
 20
0.0
 11
420.0
 21
297.0
 12
0.0
 22
0.0
 32
0.0
 14
1.000000000000000E+20
 24
1.000000000000000E+20
 34
1.000000000000000E+20
 15
-1.000000000000000E+20
 25
-1.000000000000000E+20
 35
-1.000000000000000E+20
146
0.0
 13
0.0
 23
0.0
 33
0.0
 16
1.0
 26
0.0
 36
0.0
 17
0.0
 27
1.0
 37
0.0
 76
     0
330
1B
  0
LAYOUT
  5
26
102
{ACAD_XDICTIONARY
360
35C7
102
}
102
{ACAD_REACTORS
330
1A
102
}
330
1A
100
AcDbPlotSettings
  1

  2

  4

  6

 40
0.0
 41
0.0
 42
0.0
 43
0.0
 44
0.0
 45
0.0
 46
0.0
 47
0.0
 48
0.0
 49
0.0
140
0.0
141
0.0
142
1.0
143
1.0
 70
   688
 72
     0
 73
     0
 74
     5
  7
單色出圖.ctb
 75
    16
147
1.0
148
0.0
149
0.0
100
AcDbLayout
  1
配置2
 70
     1
 71
     2
 10
0.0
 20
0.0
 11
12.0
 21
9.0
 12
0.0
 22
0.0
 32
0.0
 14
0.0
 24
0.0
 34
0.0
 15
0.0
 25
0.0
 35
0.0
146
0.0
 13
0.0
 23
0.0
 33
0.0
 16
1.0
 26
0.0
 36
0.0
 17
0.0
 27
1.0
 37
0.0
 76
     0
330
23
  0
MLINESTYLE
  5
18
102
{ACAD_REACTORS
330
17
102
}
330
17
100
AcDbMlineStyle
  2
STANDARD
 70
     0
  3

 62
   256
 51
90.0
 52
90.0
 71
     2
 49
0.5
 62
   256
  6
BYLAYER
 49
-0.5
 62
   256
  6
BYLAYER
  0
ACDBPLACEHOLDER
  5
F
102
{ACAD_REACTORS
330
E
102
}
330
E
  0
TABLESTYLE
  5
11B
102
{ACAD_REACTORS
330
11A
102
}
330
11A
100
AcDbTableStyle
  3
Standard
 70
     0
 71
     0
 40
1.5
 41
1.5
280
     0
281
     0
  7
STANDARD
140
4.5
170
     2
 62
     0
 63
     7
283
     0
274
    -2
284
     1
 64
     0
275
    -2
285
     1
 65
     0
276
    -2
286
     1
 66
     0
277
    -2
287
     1
 67
     0
278
    -2
288
     1
 68
     0
279
    -2
289
     1
 69
     0
  7
STANDARD
140
6.0
170
     5
 62
     0
 63
     7
283
     0
274
    -2
284
     1
 64
     0
275
    -2
285
     1
 65
     0
276
    -2
286
     1
 66
     0
277
    -2
287
     1
 67
     0
278
    -2
288
     1
 68
     0
279
    -2
289
     1
 69
     0
  7
STANDARD
140
4.5
170
     5
 62
     0
 63
     7
283
     0
274
    -2
284
     1
 64
     0
275
    -2
285
     1
 65
     0
276
    -2
286
     1
 66
     0
277
    -2
287
     1
 67
     0
278
    -2
288
     1
 68
     0
279
    -2
289
     1
 69
     0
  0
DICTIONARYVAR
  5
138
102
{ACAD_REACTORS
330
94
102
}
330
94
100
DictionaryVariables
280
     0
  1
STANDARD
  0
DICTIONARYVAR
  5
96
102
{ACAD_REACTORS
330
94
102
}
330
94
100
DictionaryVariables
280
     0
  1
2
  0
DICTIONARYVAR
  5
95
102
{ACAD_REACTORS
330
94
102
}
330
94
100
DictionaryVariables
280
     0
  1
0
  0
DICTIONARYVAR
  5
35BF
102
{ACAD_REACTORS
330
94
102
}
330
94
100
DictionaryVariables
280
     0
  1

  0
DICTIONARY
  5
1B5
102
{ACAD_REACTORS
330
5B
102
}
330
5B
100
AcDbDictionary
281
     1
  0
DICTIONARY
  5
61
102
{ACAD_REACTORS
330
5B
102
}
330
5B
100
AcDbDictionary
281
     1
  0
XRECORD
  5
123
102
{ACAD_REACTORS
330
5B
102
}
330
5B
100
AcDbXrecord
280
     1
 90
-1023410169
  0
DICTIONARY
  5
35C5
330
22
100
AcDbDictionary
280
     1
281
     1
  3
ACAD_XREC_ROUNDTRIP
360
35C6
  0
DICTIONARY
  5
35C3
330
1E
100
AcDbDictionary
280
     1
281
     1
  3
ACAD_XREC_ROUNDTRIP
360
35C4
  0
DICTIONARY
  5
35C7
330
26
100
AcDbDictionary
280
     1
281
     1
  3
ACAD_XREC_ROUNDTRIP
360
35C8
  0
XRECORD
  5
35C6
102
{ACAD_REACTORS
330
35C5
102
}
330
35C5
100
AcDbXrecord
280
     1
102
SHADEPLOT
 70
     0
102
SHADEPLOTRESLEVEL
 70
     2
102
SHADEPLOTCUSTOMDPI
 70
   300
  0
XRECORD
  5
35C4
102
{ACAD_REACTORS
330
35C3
102
}
330
35C3
100
AcDbXrecord
280
     1
102
SHADEPLOT
 70
     0
102
SHADEPLOTRESLEVEL
 70
     2
102
SHADEPLOTCUSTOMDPI
 70
   300
  0
XRECORD
  5
35C8
102
{ACAD_REACTORS
330
35C7
102
}
330
35C7
100
AcDbXrecord
280
     1
102
SHADEPLOT
 70
     0
102
SHADEPLOTRESLEVEL
 70
     2
102
SHADEPLOTCUSTOMDPI
 70
   300
  0
ENDSEC
  0
EOF
