  0
SECTION
  2
HEADER
  9
$ACADVER
  1
AC1015
  9
$ACADMAINTVER
 70
    20
  9
$DWGCODEPAGE
  3
ANSI_950
  9
$INSBASE
 10
0.0
 20
0.0
 30
0.0
  9
$EXTMIN
 10
1484.508442990884
 20
749.7953171118338
 30
-0.0053445177944695
  9
$EXTMAX
 10
2459.780903462768
 20
1370.685571422245
 30
464.7169252385166
  9
$LIMMIN
 10
0.0
 20
0.0
  9
$LIMMAX
 10
420.0
 20
297.0
  9
$ORTHOMODE
 70
     0
  9
$REGENMODE
 70
     1
  9
$FILLMODE
 70
     1
  9
$QTEXTMODE
 70
     0
  9
$MIRRTEXT
 70
     1
  9
$LTSCALE
 40
2.0
  9
$ATTMODE
 70
     1
  9
$TEXTSIZE
 40
3.0
  9
$TRACEWID
 40
1.0
  9
$TEXTSTYLE
  7
CHINESET
  9
$CLAYER
  8
0
  9
$CELTYPE
  6
ByLayer
  9
$CECOLOR
 62
   256
  9
$CELTSCALE
 40
1.0
  9
$DISPSILH
 70
     0
  9
$DIMSCALE
 40
1.0
  9
$DIMASZ
 40
3.0
  9
$DIMEXO
 40
1.0
  9
$DIMDLI
 40
12.0
  9
$DIMRND
 40
0.0
  9
$DIMDLE
 40
0.0
  9
$DIMEXE
 40
1.5
  9
$DIMTP
 40
0.1
  9
$DIMTM
 40
0.1
  9
$DIMTXT
 40
3.0
  9
$DIMCEN
 40
0.0
  9
$DIMTSZ
 40
0.0
  9
$DIMTOL
 70
     0
  9
$DIMLIM
 70
     0
  9
$DIMTIH
 70
     0
  9
$DIMTOH
 70
     0
  9
$DIMSE1
 70
     0
  9
$DIMSE2
 70
     0
  9
$DIMTAD
 70
     1
  9
$DIMZIN
 70
     8
  9
$DIMBLK
  1

  9
$DIMASO
 70
     1
  9
$DIMSHO
 70
     1
  9
$DIMPOST
  1

  9
$DIMAPOST
  1
"
  9
$DIMALT
 70
     0
  9
$DIMALTD
 70
     2
  9
$DIMALTF
 40
0.0393701
  9
$DIMLFAC
 40
1.0
  9
$DIMTOFL
 70
     1
  9
$DIMTVP
 40
0.0
  9
$DIMTIX
 70
     0
  9
$DIMSOXD
 70
     0
  9
$DIMSAH
 70
     0
  9
$DIMBLK1
  1

  9
$DIMBLK2
  1

  9
$DIMSTYLE
  2
AM_ISO
  9
$DIMCLRD
 70
   256
  9
$DIMCLRE
 70
   256
  9
$DIMCLRT
 70
   256
  9
$DIMTFAC
 40
0.71
  9
$DIMGAP
 40
1.0
  9
$DIMJUST
 70
     0
  9
$DIMSD1
 70
     0
  9
$DIMSD2
 70
     0
  9
$DIMTOLJ
 70
     2
  9
$DIMTZIN
 70
     8
  9
$DIMALTZ
 70
     0
  9
$DIMALTTZ
 70
     0
  9
$DIMUPT
 70
     0
  9
$DIMDEC
 70
     2
  9
$DIMTDEC
 70
     8
  9
$DIMALTU
 70
     2
  9
$DIMALTTD
 70
     2
  9
$DIMTXSTY
  7
STANDARD
  9
$DIMAUNIT
 70
     0
  9
$DIMADEC
 70
     0
  9
$DIMALTRND
 40
0.0
  9
$DIMAZIN
 70
     2
  9
$DIMDSEP
 70
    46
  9
$DIMATFIT
 70
     3
  9
$DIMFRAC
 70
     0
  9
$DIMLDRBLK
  1

  9
$DIMLUNIT
 70
     2
  9
$DIMLWD
 70
    -1
  9
$DIMLWE
 70
    -1
  9
$DIMTMOVE
 70
     0
  9
$LUNITS
 70
     2
  9
$LUPREC
 70
     2
  9
$SKETCHINC
 40
1.0
  9
$FILLETRAD
 40
2.5
  9
$AUNITS
 70
     0
  9
$AUPREC
 70
     0
  9
$MENU
  1
.
  9
$ELEVATION
 40
0.0
  9
$PELEVATION
 40
0.0
  9
$THICKNESS
 40
0.0
  9
$LIMCHECK
 70
     0
  9
$CHAMFERA
 40
2.5
  9
$CHAMFERB
 40
2.5
  9
$CHAMFERC
 40
20.0
  9
$CHAMFERD
 40
0.0
  9
$SKPOLY
 70
     0
  9
$TDCREATE
 40
2453580.633342373
  9
$TDUCREATE
 40
2453580.300009039
  9
$TDUPDATE
 40
2453584.699418762
  9
$TDUUPDATE
 40
2453584.366085428
  9
$TDINDWG
 40
0.4124533218
  9
$TDUSRTIMER
 40
0.4124533218
  9
$USRTIMER
 70
     1
  9
$ANGBASE
 50
0.0
  9
$ANGDIR
 70
     0
  9
$PDMODE
 70
     0
  9
$PDSIZE
 40
0.0
  9
$PLINEWID
 40
0.0
  9
$SPLFRAME
 70
     0
  9
$SPLINETYPE
 70
     6
  9
$SPLINESEGS
 70
     8
  9
$HANDSEED
  5
575E
  9
$SURFTAB1
 70
     6
  9
$SURFTAB2
 70
     6
  9
$SURFTYPE
 70
     6
  9
$SURFU
 70
     6
  9
$SURFV
 70
     6
  9
$UCSBASE
  2

  9
$UCSNAME
  2

  9
$UCSORG
 10
0.0
 20
0.0
 30
0.0
  9
$UCSXDIR
 10
1.0
 20
0.0
 30
0.0
  9
$UCSYDIR
 10
0.0
 20
1.0
 30
0.0
  9
$UCSORTHOREF
  2

  9
$UCSORTHOVIEW
 70
     0
  9
$UCSORGTOP
 10
0.0
 20
0.0
 30
0.0
  9
$UCSORGBOTTOM
 10
0.0
 20
0.0
 30
0.0
  9
$UCSORGLEFT
 10
0.0
 20
0.0
 30
0.0
  9
$UCSORGRIGHT
 10
0.0
 20
0.0
 30
0.0
  9
$UCSORGFRONT
 10
0.0
 20
0.0
 30
0.0
  9
$UCSORGBACK
 10
0.0
 20
0.0
 30
0.0
  9
$PUCSBASE
  2

  9
$PUCSNAME
  2

  9
$PUCSORG
 10
0.0
 20
0.0
 30
0.0
  9
$PUCSXDIR
 10
1.0
 20
0.0
 30
0.0
  9
$PUCSYDIR
 10
0.0
 20
1.0
 30
0.0
  9
$PUCSORTHOREF
  2

  9
$PUCSORTHOVIEW
 70
     0
  9
$PUCSORGTOP
 10
0.0
 20
0.0
 30
0.0
  9
$PUCSORGBOTTOM
 10
0.0
 20
0.0
 30
0.0
  9
$PUCSORGLEFT
 10
0.0
 20
0.0
 30
0.0
  9
$PUCSORGRIGHT
 10
0.0
 20
0.0
 30
0.0
  9
$PUCSORGFRONT
 10
0.0
 20
0.0
 30
0.0
  9
$PUCSORGBACK
 10
0.0
 20
0.0
 30
0.0
  9
$USERI1
 70
     0
  9
$USERI2
 70
     0
  9
$USERI3
 70
     0
  9
$USERI4
 70
     0
  9
$USERI5
 70
     0
  9
$USERR1
 40
0.0
  9
$USERR2
 40
0.0
  9
$USERR3
 40
0.0
  9
$USERR4
 40
0.0
  9
$USERR5
 40
0.0
  9
$WORLDVIEW
 70
     1
  9
$SHADEDGE
 70
     3
  9
$SHADEDIF
 70
    70
  9
$TILEMODE
 70
     1
  9
$MAXACTVP
 70
    64
  9
$PINSBASE
 10
0.0
 20
0.0
 30
0.0
  9
$PLIMCHECK
 70
     0
  9
$PEXTMIN
 10
1.000000000000000E+20
 20
1.000000000000000E+20
 30
1.000000000000000E+20
  9
$PEXTMAX
 10
-1.000000000000000E+20
 20
-1.000000000000000E+20
 30
-1.000000000000000E+20
  9
$PLIMMIN
 10
0.0
 20
0.0
  9
$PLIMMAX
 10
420.0
 20
297.0
  9
$UNITMODE
 70
     0
  9
$VISRETAIN
 70
     1
  9
$PLINEGEN
 70
     0
  9
$PSLTSCALE
 70
     1
  9
$TREEDEPTH
 70
  3020
  9
$CMLSTYLE
  2
Standard
  9
$CMLJUST
 70
     0
  9
$CMLSCALE
 40
20.0
  9
$PROXYGRAPHICS
 70
     1
  9
$MEASUREMENT
 70
     1
  9
$CELWEIGHT
370
    -1
  9
$ENDCAPS
280
     0
  9
$JOINSTYLE
280
     0
  9
$LWDISPLAY
290
     0
  9
$INSUNITS
 70
     4
  9
$HYPERLINKBASE
  1

  9
$STYLESHEET
  1
彩色出圖.ctb
  9
$XEDIT
290
     1
  9
$CEPSNTYPE
380
     0
  9
$PSTYLEMODE
290
     1
  9
$FINGERPRINTGUID
  2
{B9E4BE39-A089-470C-A359-98F2256325D3}
  9
$VERSIONGUID
  2
{649D0B05-200E-4293-BCC1-B17D17EBE6EC}
  9
$EXTNAMES
290
     1
  9
$PSVPSCALE
 40
0.0
  9
$OLESTARTUP
290
     0
  0
ENDSEC
  0
SECTION
  2
CLASSES
  0
CLASS
  1
ACDBDICTIONARYWDFLT
  2
AcDbDictionaryWithDefault
  3
ObjectDBX Classes
 90
        0
280
     0
281
     0
  0
CLASS
  1
ACDBPLACEHOLDER
  2
AcDbPlaceHolder
  3
ObjectDBX Classes
 90
        0
280
     0
281
     0
  0
CLASS
  1
LAYOUT
  2
AcDbLayout
  3
ObjectDBX Classes
 90
        0
280
     0
281
     0
  0
CLASS
  1
ACME_DOCUMENT
  2
AcMeDbDoc
  3
AcMeServices
 90
        0
280
     0
281
     0
  0
CLASS
  1
AMGSETTINGSOBJ
  2
AmgSettingsObj
  3
"AcadM|Product Description: AutoCAD Mechanical 2000|Company: Autodesk"
 90
        0
280
     0
281
     0
  0
CLASS
  1
ACMESCOPE
  2
AcMeScope
  3
AcMeServices
 90
        0
280
     0
281
     0
  0
CLASS
  1
ACMECOMMANDHISTORY
  2
AcMeCommandHistory
  3
AcMeServices
 90
        0
280
     0
281
     0
  0
CLASS
  1
ACIMSYSVARMAN
  2
AcImSysVarManager
  3
AcMeServices
 90
        0
280
     0
281
     0
  0
CLASS
  1
ACIMREALSYSVAR
  2
AcImRealSysVar
  3
AcMeServices
 90
        0
280
     0
281
     0
  0
CLASS
  1
ACIMINTSYSVAR
  2
AcImIntSysVar
  3
AcMeServices
 90
        0
280
     0
281
     0
  0
CLASS
  1
ACMEDRAWINGMAN
  2
AcMeDrawingMan
  3
AcMeServices
 90
        0
280
     0
281
     0
  0
CLASS
  1
ACMEVIEW
  2
AcMeView
  3
AcMeServices
 90
        0
280
     0
281
     0
  0
CLASS
  1
ACDBENTITYCACHE
  2
AcMeEntityCache
  3
AcMeServices
 90
        0
280
     0
281
     0
  0
CLASS
  1
GSMANAGER
  2
AcMeGSManager
  3
AcMeServices
 90
        0
280
     0
281
     0
  0
CLASS
  1
AMDTINTERNALREACTOR
  2
AmdtInternalReactor
  3
AcMeServices
 90
        0
280
     0
281
     0
  0
CLASS
  1
ACMESTATEMGR
  2
AcMeStateMgr
  3
AcMeServices
 90
        0
280
     0
281
     0
  0
CLASS
  1
ACGREFMASTER
  2
AcGrefMaster
  3
AcAttribServices
 90
        0
280
     0
281
     0
  0
CLASS
  1
ACME_DATABASE
  2
AcMeDbDatabase
  3
AcMeServices
 90
        0
280
     0
281
     0
  0
CLASS
  1
ACRFINSADJUSTERMGR
  2
AcRfInsAdjusterMgr
  3
AcMeServices
 90
        0
280
     0
281
     0
  0
CLASS
  1
ACGREFACADMASTER
  2
AcGrefacadMaster
  3
AcGrefServices
 90
        0
280
     0
281
     0
  0
CLASS
  1
AMIMASTER
  2
AmiMaster
  3
AmiServices
 90
        0
280
     0
281
     0
  0
CLASS
  1
ACMDATADICTIONARY
  2
AcmDataDictionary
  3
"AcmSymBB|Product Description: AutoCAD Mechanical 2004 DX|Company: Autodesk"
 90
        0
280
     0
281
     0
  0
CLASS
  1
ACMDATAENTRYBLOCK
  2
AcmDataEntryBlock
  3
"AcmSymBB|Product Description: AutoCAD Mechanical 2004 DX|Company: Autodesk"
 90
        0
280
     0
281
     0
  0
CLASS
  1
ACIMSTRSYSVAR
  2
AcImStrSysVar
  3
AcMeServices
 90
        0
280
     0
281
     0
  0
CLASS
  1
ACMSTANDARDISO
  2
AcmStandardISO
  3
"Amdt_StdImp|Product Description: AutoCAD Mechanical 2004 DX|Company: Autodesk"
 90
        0
280
     0
281
     0
  0
CLASS
  1
AMGOBJPROPCFG
  2
AmgObjPropCfg
  3
"AmgLay|Product Description: AutoCAD Mechanical 2000|Company: Autodesk"
 90
        1
280
     0
281
     0
  0
CLASS
  1
AMDTEDGESTANDARDISO
  2
AmdtEdgeStdISO
  3
"Amdt_StdImp|Product Description: AutoCAD Mechanical 2004 DX|Company: Autodesk"
 90
        0
280
     0
281
     0
  0
CLASS
  1
ACMSURFSTANDARDISO
  2
AcmSurfTextStdISO
  3
"Amdt_StdImp|Product Description: AutoCAD Mechanical 2004 DX|Company: Autodesk"
 90
        0
280
     0
281
     0
  0
CLASS
  1
ACMFCFSTANDARDISO
  2
AcmFCFStdISO
  3
"Amdt_StdImp|Product Description: AutoCAD Mechanical 2004 DX|Company: Autodesk"
 90
        0
280
     0
281
     0
  0
CLASS
  1
ACMWELDSTANDARDISO
  2
AcmWeldingStdISO
  3
"Amdt_StdImp|Product Description: AutoCAD Mechanical 2004 DX|Company: Autodesk"
 90
        0
280
     0
281
     0
  0
CLASS
  1
ACMIDSTANDARDISO
  2
AcmIdStdISO
  3
"Amdt_StdImp|Product Description: AutoCAD Mechanical 2004 DX|Company: Autodesk"
 90
        0
280
     0
281
     0
  0
CLASS
  1
ACMDATUMSTANDARDISO
  2
AcmDatumStdISO
  3
"Amdt_StdImp|Product Description: AutoCAD Mechanical 2004 DX|Company: Autodesk"
 90
        0
280
     0
281
     0
  0
CLASS
  1
ACMBOMSTANDARDISO
  2
AcmBOMStdISO
  3
"Amdt_StdImp|Product Description: AutoCAD Mechanical 2004 DX|Company: Autodesk"
 90
        0
280
     0
281
     0
  0
CLASS
  1
ACMDETAILSTANDARDISO
  2
AmdtDetailSymStdISO
  3
"Amdt_StdImp|Product Description: AutoCAD Mechanical 2004 DX|Company: Autodesk"
 90
        0
280
     0
281
     0
  0
CLASS
  1
ACMSECTIONSTANDARDISO
  2
AmdtSectionSymStdISO
  3
"Amdt_StdImp|Product Description: AutoCAD Mechanical 2004 DX|Company: Autodesk"
 90
        0
280
     0
281
     0
  0
CLASS
  1
ACMCENTERLINESTANDARDISO
  2
AmdtCenterLineStdISO
  3
"Amdt_StdImp|Product Description: AutoCAD Mechanical 2004 DX|Company: Autodesk"
 90
        0
280
     0
281
     0
  0
CLASS
  1
ACMNOTESTANDARDISO
  2
AmdtNoteStdISO
  3
"Amdt_StdImp|Product Description: AutoCAD Mechanical 2004 DX|Company: Autodesk"
 90
        0
280
     0
281
     0
  0
CLASS
  1
ACAMGLAYSTD
  2
AcAmgLayStd
  3
"AcAmgLayStd|Product Description: AutoCAD Mechanical 2000|Company: Autodesk"
 90
        0
280
     0
281
     0
  0
CLASS
  1
ACAMGDIMSTD
  2
AcAmgDimStd
  3
"AcAmgDimStd|Product Description: AutoCAD Mechanical 2000|Company: Autodesk"
 90
        0
280
     0
281
     0
  0
CLASS
  1
ACAMGHOLECHARTSTDISO
  2
AcAmgHoleChartStdISO
  3
ACMSYMBB_MODULE_NAME
 90
        0
280
     0
281
     0
  0
CLASS
  1
ACAMGTITLESTD
  2
AcAmgTitleStd
  3
"TITLEAPP"
 90
        0
280
     0
281
     0
  0
CLASS
  1
LAYER_INDEX
  2
AcDbLayerIndex
  3
ObjectDBX Classes
 90
    32768
280
     0
281
     0
  0
CLASS
  1
IDBUFFER
  2
AcDbIdBuffer
  3
ObjectDBX Classes
 90
    32768
280
     0
281
     0
  0
CLASS
  1
DICTIONARYVAR
  2
AcDbDictionaryVar
  3
ObjectDBX Classes
 90
        0
280
     0
281
     0
  0
CLASS
  1
AM_DRAWING_MGR
  2
AcDmDwgMgr
  3
AcMechDwgViewMgmt
 90
        0
280
     0
281
     0
  0
CLASS
  1
AM_DWG_DOCUMENT
  2
AcDmDwgDocument
  3
AcMechDwgViewMgmt
 90
        0
280
     0
281
     0
  0
CLASS
  1
AM_DWG_SHEET
  2
AcDmSheet
  3
AcMechDwgViewMgmt
 90
        0
280
     0
281
     0
  0
CLASS
  1
AM_VIEWDIMPARMAP
  2
AcDmViewDimParMap
  3
AcMechDwgViewMgmt
 90
        0
280
     0
281
     0
  0
CLASS
  1
AM_DWGMGR_NAME
  2
AcDmDwgMgrName
  3
AcMechDwgViewMgmt
 90
        0
280
     0
281
     0
  0
CLASS
  1
AMDTMENUSTATEMGR
  2
AmdtMenuStateMgr
  3
McadcomServices
 90
        0
280
     0
281
     0
  0
CLASS
  1
AMDTMCOMMENUSTATE
  2
AmdtMcomMenuState
  3
McadcomServices
 90
        0
280
     0
281
     0
  0
CLASS
  1
MAPIAMMOUDLE
  2
MApiAmModule
  3
MApiAmServices
 90
        0
280
     0
281
     0
  0
CLASS
  1
AMDTADMENUSTATE
  2
AmdtAdMenuState
  3
DesignerServices
 90
        0
280
     0
281
     0
  0
CLASS
  1
ADAPPL
  2
AcAdAppl
  3
DesignerServices
 90
        0
280
     0
281
     0
  0
CLASS
  1
DEPMGR
  2
AcAdDepMgr
  3
DesignerServices
 90
        0
280
     0
281
     0
  0
CLASS
  1
PARAMMGR
  2
AcAdParamMgr
  3
DesignerServices
 90
        0
280
     0
281
     0
  0
CLASS
  1
PARAMSCOPE
  2
AcAdParamScope
  3
DesignerServices
 90
        0
280
     0
281
     0
  0
CLASS
  1
NAMEDAPPL
  2
AcAdNamedAppl
  3
DesignerServices
 90
        0
280
     0
281
     0
  0
CLASS
  1
AMDTDMMENUSTATE
  2
AmdtDmMenuState
  3
AcMechDwgViewMgmt
 90
        0
280
     0
281
     0
  0
CLASS
  1
AMDTAMMENUSTATE
  2
AmdtAmMenuState
  3
DesignerAssemblies
 90
        0
280
     0
281
     0
  0
CLASS
  1
ACAMPROJECT
  2
AcAmProject
  3
DesignerAssemblies
 90
        0
280
     0
281
     0
  0
CLASS
  1
ACAMGRCOMPDEF
  2
AcAmGrCompDef
  3
DesignerAssemblies
 90
        0
280
     0
281
     0
  0
CLASS
  1
ACCMCONTEXT
  2
AcCmContext
  3
DesignerAssemblies
 90
        0
280
     0
281
     0
  0
CLASS
  1
ACAMCOMPDEF
  2
AcAmCompDef
  3
DesignerAssemblies
 90
        0
280
     0
281
     0
  0
CLASS
  1
ACAMCOMPDEFMGR
  2
AcAmCompDefMgr
  3
DesignerAssemblies
 90
        0
280
     0
281
     0
  0
CLASS
  1
AMCONTEXTMGR
  2
AcAmContextMgr
  3
DesignerAssemblies
 90
        0
280
     0
281
     0
  0
CLASS
  1
ACAMCONTEXTMODELER
  2
AcAmContextModeler
  3
DesignerAssemblies
 90
        0
280
     0
281
     0
  0
CLASS
  1
ACMTHREADLINESTANDARDISO
  2
AmdtThreadLineStdISO
  3
"Amdt_StdImp|Product Description: AutoCAD Mechanical 2004 DX|Company: Autodesk"
 90
        0
280
     0
281
     0
  0
CLASS
  1
CATALOGSTATE
  2
AcAmCatalogState
  3
DesignerAssemblies
 90
        0
280
     0
281
     0
  0
CLASS
  1
ACAMGRCOMPDEFSET
  2
AcAmGrCompDefSet
  3
DesignerAssemblies
 90
        0
280
     0
281
     0
  0
CLASS
  1
AMDTBROWSERDBTAB
  2
AmdtBrowserDbTab
  3
McadcomServices
 90
        0
280
     0
281
     0
  0
CLASS
  1
CBROWSERAPPOBJECT
  2
CBrowserAppObject
  3
McadcomServices
 90
        0
280
     0
281
     0
  0
CLASS
  1
DM_PLACEHOLDER
  2
AcDmSelsetPlaceholder
  3
AcMechDwgViewMgmt
 90
        0
280
     0
281
     0
  0
CLASS
  1
TABLESTYLE
  2
AcDbTableStyle
  3
ObjectDBX Classes
 90
     2047
280
     0
281
     0
  0
CLASS
  1
VAACXREFPANELOBJECT
  2
VaAcXREFPanelObject
  3
VAAC_ADDIN
 90
    32768
280
     0
281
     0
  0
CLASS
  1
VAACIMAGEINVENTORY
  2
VaAcImageInventory
  3
VAAC_ADDIN
 90
    32768
280
     0
281
     0
  0
CLASS
  1
AMDTNOTETEMPLATEDB
  2
AmdtNoteTemplateDB
  3
AMDT_STDIMP_MODULE_NAME
 90
        0
280
     0
281
     0
  0
CLASS
  1
ACMBOM
  2
AcmBom
  3
"AcmSymBB|Product Description: AutoCAD Mechanical 2004 DX|Company: Autodesk"
 90
    32768
280
     0
281
     0
  0
CLASS
  1
AMDTFORMULAUPDATEDISPATCHER
  2
AmdtFormulaUpdateDispatcher
  3
AcMeServices
 90
    32768
280
     0
281
     0
  0
CLASS
  1
ACMPARTLIST
  2
AcmPartList
  3
"AcmSymBB|Product Description: AutoCAD Mechanical 2004 DX|Company: Autodesk"
 90
    33791
280
     0
281
     1
  0
CLASS
  1
ACAMGFILTERDAT
  2
AcAmgFilterDat
  3
"AcadM|Product Description: AutoCAD Mechanical 2000|Company: Autodesk"
 90
        0
280
     0
281
     0
  0
CLASS
  1
DIMASSOC
  2
AcDbDimAssoc
  3
"AcDbDimAssoc|Product Desc:     AcDim ARX App For Dimension|Company:          Autodesk, Inc.|WEB Address:      www.autodesk.com"
 90
    32768
280
     0
281
     0
  0
CLASS
  1
SORTENTSTABLE
  2
AcDbSortentsTable
  3
ObjectDBX Classes
 90
        0
280
     0
281
     0
  0
CLASS
  1
AMDTNOTE
  2
AmdtNote
  3
"AcmSymBB|Product Description: AutoCAD Mechanical 2004 DX|Company: Autodesk"
 90
     1023
280
     0
281
     1
  0
CLASS
  1
STDPART2D
  2
AmgStdPart
  3
"AmgStdPart|Product Description: AutoCAD Mechanical 2000|Company: Autodesk"
 90
    33791
280
     0
281
     1
  0
CLASS
  1
ACAMSTDPCOMPDEF
  2
AcAmStdpCompDef
  3
DesignerAssemblies
 90
    32768
280
     0
281
     0
  0
CLASS
  1
ACRFATTGENMGR
  2
AcRfAttGeneralMgr
  3
AcAttribServices
 90
        0
280
     0
281
     0
  0
CLASS
  1
ACRFOBJATTMGR
  2
AcRfObjAttGroupMgr
  3
AcAttribServices
 90
    32768
280
     0
281
     0
  0
CLASS
  1
ACRFMCADAPIATTHOLDER
  2
AcRfMCADAPIAttHolder
  3
AcAttribServices
 90
    32768
280
     0
281
     0
  0
CLASS
  1
AMDTSYSATTR
  2
AmdtSystemAttribute
  3
AcAttribServices
 90
    32768
280
     0
281
     0
  0
CLASS
  1
ACAMCOMP
  2
AcAmComp
  3
DesignerAssemblies
 90
    32768
280
     0
281
     0
  0
CLASS
  1
AC_AM_STDP_VIEW_DEF
  2
AcAmStdpViewDef
  3
DesignerAssemblies
 90
    32768
280
     0
281
     0
  0
CLASS
  1
AC_AM_MVD_DEP_MGR
  2
AcAmMVDdepMgr
  3
DesignerAssemblies
 90
        0
280
     0
281
     0
  0
CLASS
  1
AC_AM_MASTER_VIEW_DEF
  2
AcAmMasterViewDef
  3
DesignerAssemblies
 90
        0
280
     0
281
     0
  0
CLASS
  1
AC_AM_DIRTY_NODES
  2
AcAmDirtyNodes
  3
DesignerAssemblies
 90
        0
280
     0
281
     0
  0
CLASS
  1
AC_AM_MAPPER_CACHE
  2
AcAmMapperCache
  3
DesignerAssemblies
 90
        0
280
     0
281
     0
  0
CLASS
  1
ACAMMVDBACKUPOBJECT
  2
AcAmMVDBackupObject
  3
DesignerAssemblies
 90
        0
280
     0
281
     0
  0
CLASS
  1
AC_AM_COMP_VIEW_INST
  2
AcAmCompView
  3
DesignerAssemblies
 90
    32768
280
     0
281
     0
  0
CLASS
  1
AC_AM_2D_XREF_MGR
  2
AcAmXrefMgr2d
  3
DesignerAssemblies
 90
        0
280
     0
281
     0
  0
CLASS
  1
ACMSTANDARDANSI
  2
AcmStandardANSI
  3
"Amdt_StdImp|Product Description: AutoCAD Mechanical 2004 DX|Company: Autodesk"
 90
        0
280
     0
281
     0
  0
CLASS
  1
ACMSURFSTANDARDANSI
  2
AcmSurfTextStdANSI
  3
"Amdt_StdImp|Product Description: AutoCAD Mechanical 2004 DX|Company: Autodesk"
 90
        0
280
     0
281
     0
  0
CLASS
  1
ACMFCFSTANDARDANSI
  2
AcmFCFStdANSI
  3
"Amdt_StdImp|Product Description: AutoCAD Mechanical 2004 DX|Company: Autodesk"
 90
        0
280
     0
281
     0
  0
CLASS
  1
ACMWELDSTANDARDANSI
  2
AcmWeldingStdANSI
  3
"Amdt_StdImp|Product Description: AutoCAD Mechanical 2004 DX|Company: Autodesk"
 90
        0
280
     0
281
     0
  0
CLASS
  1
ACMIDSTANDARDANSI
  2
AcmIdStdANSI
  3
"Amdt_StdImp|Product Description: AutoCAD Mechanical 2004 DX|Company: Autodesk"
 90
        0
280
     0
281
     0
  0
CLASS
  1
ACMDATUMSTANDARDANSI
  2
AcmDatumStdANSI
  3
"Amdt_StdImp|Product Description: AutoCAD Mechanical 2004 DX|Company: Autodesk"
 90
        0
280
     0
281
     0
  0
CLASS
  1
ACMBOMSTANDARDANSI
  2
AcmBOMStdANSI
  3
"Amdt_StdImp|Product Description: AutoCAD Mechanical 2004 DX|Company: Autodesk"
 90
        0
280
     0
281
     0
  0
CLASS
  1
ACMDETAILSTANDARDANSI
  2
AmdtDetailSymStdANSI
  3
"Amdt_StdImp|Product Description: AutoCAD Mechanical 2004 DX|Company: Autodesk"
 90
        0
280
     0
281
     0
  0
CLASS
  1
ACMSECTIONSTANDARDANSI
  2
AmdtSectionSymStdANSI
  3
"Amdt_StdImp|Product Description: AutoCAD Mechanical 2004 DX|Company: Autodesk"
 90
        0
280
     0
281
     0
  0
CLASS
  1
ACMCENTERLINESTANDARDANSI
  2
AmdtCenterLineStdANSI
  3
"Amdt_StdImp|Product Description: AutoCAD Mechanical 2004 DX|Company: Autodesk"
 90
        0
280
     0
281
     0
  0
CLASS
  1
ACMTHREADLINESTANDARDANSI
  2
AmdtThreadLineStdANSI
  3
"Amdt_StdImp|Product Description: AutoCAD Mechanical 2004 DX|Company: Autodesk"
 90
        0
280
     0
281
     0
  0
CLASS
  1
ACMNOTESTANDARDANSI
  2
AmdtNoteStdANSI
  3
"Amdt_StdImp|Product Description: AutoCAD Mechanical 2004 DX|Company: Autodesk"
 90
        0
280
     0
281
     0
  0
CLASS
  1
ACAMGHOLECHARTSTDANSI
  2
AcAmgHoleChartStdANSI
  3
ACMSYMBB_MODULE_NAME
 90
        0
280
     0
281
     0
  0
ENDSEC
  0
SECTION
  2
TABLES
  0
TABLE
  2
VPORT
  5
8
330
0
100
AcDbSymbolTable
 70
     3
  0
VPORT
  5
5755
330
8
100
AcDbSymbolTableRecord
100
AcDbViewportTableRecord
  2
*Active
 70
     0
 10
0.0
 20
0.0
 11
1.0
 21
1.0
 12
1972.047281133292
 22
1060.260375118154
 13
0.0
 23
0.0
 14
2.5
 24
2.5
 15
10.0
 25
10.0
 16
0.0
 26
0.0
 36
1.0
 17
0.0
 27
0.0
 37
0.0
 40
627.9662296213319
 41
1.81766917293233
 42
50.0
 43
0.0
 44
0.0
 50
0.0
 51
0.0
 71
     0
 72
   100
 73
     1
 74
     3
 75
     0
 76
     0
 77
     0
 78
     0
281
     0
 65
     1
110
0.0
120
0.0
130
0.0
111
1.0
121
0.0
131
0.0
112
0.0
122
1.0
132
0.0
 79
     0
146
0.0
  0
ENDTAB
  0
TABLE
  2
LTYPE
  5
5
330
0
100
AcDbSymbolTable
 70
    16
  0
LTYPE
  5
14
330
5
100
AcDbSymbolTableRecord
100
AcDbLinetypeTableRecord
  2
ByBlock
 70
     0
  3

 72
    65
 73
     0
 40
0.0
  0
LTYPE
  5
15
330
5
100
AcDbSymbolTableRecord
100
AcDbLinetypeTableRecord
  2
ByLayer
 70
     0
  3

 72
    65
 73
     0
 40
0.0
  0
LTYPE
  5
16
330
5
100
AcDbSymbolTableRecord
100
AcDbLinetypeTableRecord
  2
Continuous
 70
     0
  3
Solid line
 72
    65
 73
     0
 40
0.0
  0
LTYPE
  5
64
330
5
100
AcDbSymbolTableRecord
100
AcDbLinetypeTableRecord
  2
AM_ISO02W050
 70
     0
  3
__ __ __ __ __ __ __ __ __ __ __ __ __ __ __
 72
    65
 73
     2
 40
7.5
 49
6.0
 74
     0
 49
-1.5
 74
     0
  0
LTYPE
  5
65
330
5
100
AcDbSymbolTableRecord
100
AcDbLinetypeTableRecord
  2
AM_ISO08W050
 70
     0
  3
____ . ____ . ____ . ____ . ____ . ____ . ____
 72
    65
 73
     4
 40
18.0
 49
12.0
 74
     0
 49
-1.5
 74
     0
 49
3.0
 74
     0
 49
-1.5
 74
     0
  0
LTYPE
  5
66
330
5
100
AcDbSymbolTableRecord
100
AcDbLinetypeTableRecord
  2
AM_ISO09W050
 70
     0
  3
_____ . . _____ . . _____ . . ____ .. ____
 72
    65
 73
     6
 40
22.5
 49
12.0
 74
     0
 49
-1.5
 74
     0
 49
3.0
 74
     0
 49
-1.5
 74
     0
 49
3.0
 74
     0
 49
-1.5
 74
     0
  0
LTYPE
  5
67
330
5
100
AcDbSymbolTableRecord
100
AcDbLinetypeTableRecord
  2
Amconstr
 70
     0
  3
_______________________
 72
    65
 73
     2
 40
9999.0
 49
9999.0
 74
     0
 49
0.0
 74
     0
  0
LTYPE
  5
68
330
5
100
AcDbSymbolTableRecord
100
AcDbLinetypeTableRecord
  2
AM_ISO08W050x2
 70
     0
  3
__ . __ . __ . __ . __ . __
 72
    65
 73
     4
 40
9.0
 49
6.0
 74
     0
 49
-0.75
 74
     0
 49
1.5
 74
     0
 49
-0.75
 74
     0
  0
LTYPE
  5
69
330
5
100
AcDbSymbolTableRecord
100
AcDbLinetypeTableRecord
  2
AM_ISO02W050x2
 70
     0
  3
 _ _ _ _ _ _ _ _ _ _ _ _
 72
    65
 73
     2
 40
3.75
 49
3.0
 74
     0
 49
-0.75
 74
     0
  0
LTYPE
  5
6C
330
5
100
AcDbSymbolTableRecord
100
AcDbLinetypeTableRecord
  2
Amzigzag
 70
     0
  3
/\/-/\/-/\/-/\/-/\/-/\/
 72
    65
 73
     2
 40
11.0001
 49
0.0001
 74
     4
 75
   135
340
6B
 46
0.04
 50
0.0
 44
0.0
 45
0.0
 49
-11.0
 74
     0
  0
LTYPE
  5
7A
330
5
100
AcDbSymbolTableRecord
100
AcDbLinetypeTableRecord
  2
ACISOWELD
 70
     0
  3
_ _ _ _ _
 72
    65
 73
     2
 40
2.0
 49
2.0
 74
     0
 49
-1.0
 74
     0
  0
LTYPE
  5
7B
330
5
100
AcDbSymbolTableRecord
100
AcDbLinetypeTableRecord
  2
ACISOTGB
 70
     0
  3
__ . . __ . .
 72
    65
 73
     6
 40
9.0
 49
4.0
 74
     0
 49
-1.0
 74
     0
 49
1.0
 74
     0
 49
-1.0
 74
     0
 49
1.0
 74
     0
 49
-1.0
 74
     0
  0
LTYPE
  5
7C
330
5
100
AcDbSymbolTableRecord
100
AcDbLinetypeTableRecord
  2
ACISOTGL
 70
     0
  3
_ _ _ _ _
 72
    65
 73
     2
 40
3.0
 49
2.0
 74
     0
 49
-1.0
 74
     0
  0
LTYPE
  5
7E
330
5
100
AcDbSymbolTableRecord
100
AcDbLinetypeTableRecord
  2
CENTER
 70
     0
  3
__ . __
 72
    65
 73
     4
 40
7.0
 49
4.0
 74
     0
 49
-1.0
 74
     0
 49
1.0
 74
     0
 49
-1.0
 74
     0
  0
LTYPE
  5
D8
330
5
100
AcDbSymbolTableRecord
100
AcDbLinetypeTableRecord
  2
HIDDEN
 70
     0
  3
Hidden __ __ __ __ __ __ __ __ __ __ __ __ __ _
 72
    65
 73
     2
 40
9.524999999999998
 49
6.349999999999999
 74
     0
 49
-3.174999999999999
 74
     0
  0
LTYPE
  5
D9
330
5
100
AcDbSymbolTableRecord
100
AcDbLinetypeTableRecord
  2
PHANTOM2
 70
     0
  3
Phantom (.5x) ___ _ _ ___ _ _ ___ _ _ ___ _ _
 72
    65
 73
     6
 40
31.75
 49
15.875
 74
     0
 49
-3.174999999999999
 74
     0
 49
3.174999999999999
 74
     0
 49
-3.174999999999999
 74
     0
 49
3.174999999999999
 74
     0
 49
-3.174999999999999
 74
     0
  0
LTYPE
  5
1B32
330
5
100
AcDbSymbolTableRecord
100
AcDbLinetypeTableRecord
  2
ACANSTGB
 70
     0
  3
__ . . __ . .
 72
    65
 73
     6
 40
0.35433070866
 49
0.15748031496
 74
     0
 49
-0.03937007874
 74
     0
 49
0.03937007874
 74
     0
 49
-0.03937007874
 74
     0
 49
0.03937007874
 74
     0
 49
-0.03937007874
 74
     0
  0
LTYPE
  5
1B33
330
5
100
AcDbSymbolTableRecord
100
AcDbLinetypeTableRecord
  2
ACANSTGL
 70
     0
  3
_ _ _ _ _
 72
    65
 73
     2
 40
0.11811023622
 49
0.07874015748
 74
     0
 49
-0.03937007874
 74
     0
  0
ENDTAB
  0
TABLE
  2
LAYER
  5
2
102
{ACAD_XDICTIONARY
360
3F9
102
}
330
0
100
AcDbSymbolTable
 70
     8
  0
LAYER
  5
10
330
2
100
AcDbSymbolTableRecord
100
AcDbLayerTableRecord
  2
0
 70
     0
 62
     7
  6
Continuous
370
    -3
390
F
  0
LAYER
  5
206
330
2
100
AcDbSymbolTableRecord
100
AcDbLayerTableRecord
  2
Defpoints
 70
     0
 62
     7
  6
Continuous
290
     0
370
    -3
390
F
  0
LAYER
  5
5AE
330
2
100
AcDbSymbolTableRecord
100
AcDbLayerTableRecord
  2
AM_7
 70
     0
 62
     1
  6
CENTER
370
    25
390
F
  0
LAYER
  5
71A
330
2
100
AcDbSymbolTableRecord
100
AcDbLayerTableRecord
  2
LOGO
 70
     0
 62
     7
  6
Continuous
370
    -3
390
F
  0
LAYER
  5
84F
330
2
100
AcDbSymbolTableRecord
100
AcDbLayerTableRecord
  2
AM_VIS
 70
     0
 62
     7
  6
Continuous
370
    50
390
F
  0
LAYER
  5
850
330
2
100
AcDbSymbolTableRecord
100
AcDbLayerTableRecord
  2
AM_4
 70
     0
 62
     3
  6
Continuous
370
    25
390
F
  0
LAYER
  5
851
330
2
100
AcDbSymbolTableRecord
100
AcDbLayerTableRecord
  2
AM_0
 70
     0
 62
     7
  6
Continuous
370
    50
390
F
  0
LAYER
  5
B99
330
2
100
AcDbSymbolTableRecord
100
AcDbLayerTableRecord
  2
AM_5
 70
     0
 62
     5
  6
Continuous
370
    50
390
F
  0
ENDTAB
  0
TABLE
  2
STYLE
  5
3
330
0
100
AcDbSymbolTable
 70
     9
  0
STYLE
  5
11
330
3
100
AcDbSymbolTableRecord
100
AcDbTextStyleTableRecord
  2
STANDARD
 70
     0
 40
0.0
 41
1.0
 50
0.0
 71
     0
 42
3.0
  3
ISOCP.SHX
  4
CHINESET.SHX
  0
STYLE
  5
6B
330
3
100
AcDbSymbolTableRecord
100
AcDbTextStyleTableRecord
  2

 70
     1
 40
0.0
 41
1.0
 50
0.0
 71
     0
 42
2.5
  3
ltypeshp.shx
  4

  0
STYLE
  5
6D
330
3
100
AcDbSymbolTableRecord
100
AcDbTextStyleTableRecord
  2
ACISOTS
 70
     0
 40
1.0
 41
1.0
 50
0.0
 71
     0
 42
1.0
  3
isocp.shx
  4
chineset.shx
  0
STYLE
  5
79
330
3
100
AcDbSymbolTableRecord
100
AcDbTextStyleTableRecord
  2
ACISOGDT
 70
     0
 40
0.0
 41
1.0
 50
0.0
 71
     0
 42
2.5
  3
amgdt.shx
  4
chineset.shx
  0
STYLE
  5
60C
330
3
100
AcDbSymbolTableRecord
100
AcDbTextStyleTableRecord
  2
CHINESET
 70
     0
 40
0.0
 41
1.0
 50
0.0
 71
     0
 42
3.0
  3
simplex.shx
  4
CHINESET.SHX
  0
STYLE
  5
F6A
330
3
100
AcDbSymbolTableRecord
100
AcDbTextStyleTableRecord
  2
DAYUS
 70
     0
 40
0.0
 41
1.0
 50
0.0
 71
     0
 42
2.5
  3
simplex.shx
  4
dayus.shx
  0
STYLE
  5
1B34
330
3
100
AcDbSymbolTableRecord
100
AcDbTextStyleTableRecord
  2
ACANSTS
 70
     0
 40
1.0
 41
1.0
 50
0.0
 71
     0
 42
2.0
  3
romans.shx
  4
chineset.shx
  0
STYLE
  5
1B35
330
3
100
AcDbSymbolTableRecord
100
AcDbTextStyleTableRecord
  2
ACANSGDT
 70
     0
 40
0.0
 41
1.0
 50
0.0
 71
     0
 42
2.0
  3
amgdtans.shx
  4

  0
ENDTAB
  0
TABLE
  2
VIEW
  5
6
330
0
100
AcDbSymbolTable
 70
     0
  0
ENDTAB
  0
TABLE
  2
UCS
  5
7
330
0
100
AcDbSymbolTable
 70
     0
  0
ENDTAB
  0
TABLE
  2
APPID
  5
9
330
0
100
AcDbSymbolTable
 70
    32
  0
APPID
  5
12
330
9
100
AcDbSymbolTableRecord
100
AcDbRegAppTableRecord
  2
ACAD
 70
     0
  0
APPID
  5
46
330
9
100
AcDbSymbolTableRecord
100
AcDbRegAppTableRecord
  2
MCAD_NO_VIS
 70
     0
  0
APPID
  5
47
330
9
100
AcDbSymbolTableRecord
100
AcDbRegAppTableRecord
  2
ACAD_TEMP_GRAPHIC
 70
     0
  0
APPID
  5
58
330
9
100
AcDbSymbolTableRecord
100
AcDbRegAppTableRecord
  2
ACATTRIBSERVICES
 70
     0
  0
APPID
  5
EE
330
9
100
AcDbSymbolTableRecord
100
AcDbRegAppTableRecord
  2
AD_DRAW
 70
     0
  0
APPID
  5
10C
330
9
100
AcDbSymbolTableRecord
100
AcDbRegAppTableRecord
  2
DESIGNERASSEMBLIES
 70
     0
  0
APPID
  5
111
330
9
100
AcDbSymbolTableRecord
100
AcDbRegAppTableRecord
  2
ACADM_DIM_EDIT
 70
     0
  0
APPID
  5
112
330
9
100
AcDbSymbolTableRecord
100
AcDbRegAppTableRecord
  2
AMDT_DM_ADJ
 70
     0
  0
APPID
  5
22C
330
9
100
AcDbSymbolTableRecord
100
AcDbRegAppTableRecord
  2
ACAD_DSTYLE_DIMTEXT_FILL
 70
     0
  0
APPID
  5
452
330
9
100
AcDbSymbolTableRecord
100
AcDbRegAppTableRecord
  2
GENIUS_GENOENT_13
 70
     0
  0
APPID
  5
453
330
9
100
AcDbSymbolTableRecord
100
AcDbRegAppTableRecord
  2
GENIUS_GENOBJ-N-CRS_13
 70
     0
  0
APPID
  5
454
330
9
100
AcDbSymbolTableRecord
100
AcDbRegAppTableRecord
  2
GENIUS_GENOLIS_13
 70
     0
  0
APPID
  5
455
330
9
100
AcDbSymbolTableRecord
100
AcDbRegAppTableRecord
  2
GENIUS_GENODEF_13
 70
     0
  0
APPID
  5
456
330
9
100
AcDbSymbolTableRecord
100
AcDbRegAppTableRecord
  2
GENIUS_GENOREF_13
 70
     0
  0
APPID
  5
6F3
330
9
100
AcDbSymbolTableRecord
100
AcDbRegAppTableRecord
  2
ACAD_PSEXT
 70
     0
  0
APPID
  5
71B
330
9
100
AcDbSymbolTableRecord
100
AcDbRegAppTableRecord
  2
GENIUS_GENREC_14
 70
     0
  0
APPID
  5
71C
330
9
100
AcDbSymbolTableRecord
100
AcDbRegAppTableRecord
  2
GENIUS_GENOBJ-N-REC_13
 70
     0
  0
APPID
  5
1340
330
9
100
AcDbSymbolTableRecord
100
AcDbRegAppTableRecord
  2
GEVID1122707684
 70
     0
  0
APPID
  5
1341
330
9
100
AcDbSymbolTableRecord
100
AcDbRegAppTableRecord
  2
GEVDC
 70
     0
  0
APPID
  5
1342
330
9
100
AcDbSymbolTableRecord
100
AcDbRegAppTableRecord
  2
GEVRADREF
 70
     0
  0
APPID
  5
134B
330
9
100
AcDbSymbolTableRecord
100
AcDbRegAppTableRecord
  2
AMG_2DHIDE
 70
     0
  0
APPID
  5
134C
330
9
100
AcDbSymbolTableRecord
100
AcDbRegAppTableRecord
  2
AMG_2DSTRUCT_BTR
 70
     0
  0
APPID
  5
135D
330
9
100
AcDbSymbolTableRecord
100
AcDbRegAppTableRecord
  2
ACADM_2DVIEW_IGN_NOTIFY
 70
     0
  0
APPID
  5
1463
330
9
100
AcDbSymbolTableRecord
100
AcDbRegAppTableRecord
  2
GEVID1122707685
 70
     0
  0
APPID
  5
14AD
330
9
100
AcDbSymbolTableRecord
100
AcDbRegAppTableRecord
  2
GEVID1122707686
 70
     0
  0
APPID
  5
1577
330
9
100
AcDbSymbolTableRecord
100
AcDbRegAppTableRecord
  2
GENIUS_GENOBJ-N-CEN_13
 70
     0
  0
APPID
  5
1578
330
9
100
AcDbSymbolTableRecord
100
AcDbRegAppTableRecord
  2
GENIUS_GENCEN_19
 70
     0
  0
APPID
  5
17C3
330
9
100
AcDbSymbolTableRecord
100
AcDbRegAppTableRecord
  2
GENIUS_GENDTOL_13
 70
     0
  0
APPID
  5
36FA
330
9
100
AcDbSymbolTableRecord
100
AcDbRegAppTableRecord
  2
GEVID1122861188
 70
     0
  0
APPID
  5
37B2
330
9
100
AcDbSymbolTableRecord
100
AcDbRegAppTableRecord
  2
GEVID1122861189
 70
     0
  0
APPID
  5
4104
330
9
100
AcDbSymbolTableRecord
100
AcDbRegAppTableRecord
  2
GEVID1122861190
 70
     0
  0
APPID
  5
4ED7
330
9
100
AcDbSymbolTableRecord
100
AcDbRegAppTableRecord
  2
GEVID1122876830
 70
     0
  0
ENDTAB
  0
TABLE
  2
DIMSTYLE
  5
A
330
0
100
AcDbSymbolTable
 70
    17
100
AcDbDimStyleTable
 71
     5
340
81
340
1B36
340
F6C
340
8B
340
86
  0
DIMSTYLE
105
81
330
A
100
AcDbSymbolTableRecord
100
AcDbDimStyleTableRecord
  2
AM_ISO
 70
     0
  4
"
 41
3.0
 42
1.0
 43
12.0
 44
1.5
 47
0.1
 48
0.1
 73
     0
 74
     0
 77
     1
 78
     8
 79
     2
140
3.0
141
0.0
143
0.0393701
146
0.71
147
1.0
172
     1
176
   256
177
   256
178
   256
271
     2
272
     2
283
     2
284
     8
340
11
371
    -1
372
    -1
  0
DIMSTYLE
105
82
330
A
100
AcDbSymbolTableRecord
100
AcDbDimStyleTableRecord
  2
AM_ISO$3
 70
     0
  4
"
 41
3.0
 42
1.0
 43
12.0
 44
1.5
 47
0.1
 48
0.1
 73
     0
 77
     1
 78
     8
 79
     2
140
3.0
141
0.0
143
0.0393701
146
0.71
147
1.0
176
   256
177
   256
178
   256
271
     2
272
     2
283
     2
284
     8
288
     1
289
     0
340
11
371
    -1
372
    -1
  0
DIMSTYLE
105
83
330
A
100
AcDbSymbolTableRecord
100
AcDbDimStyleTableRecord
  2
AM_ISO$4
 70
     0
  4
"
 41
3.0
 42
1.0
 43
12.0
 44
1.5
 47
0.1
 48
0.1
 73
     0
 77
     1
 78
     8
 79
     2
140
3.0
141
0.0
143
0.0393701
146
0.71
147
1.0
176
   256
177
   256
178
   256
271
     2
272
     2
283
     2
284
     8
288
     1
289
     0
340
11
371
    -1
372
    -1
  0
DIMSTYLE
105
84
330
A
100
AcDbSymbolTableRecord
100
AcDbDimStyleTableRecord
  2
AM_ISO$6
 70
     0
  4
"
 41
3.0
 42
1.0
 43
12.0
 44
1.5
 47
0.1
 48
0.1
 73
     0
 74
     0
 78
     8
 79
     2
140
3.0
141
0.0
143
0.0393701
146
0.71
147
1.0
172
     1
176
   256
177
   256
178
   256
271
     2
272
     2
283
     2
284
     8
340
11
371
    -1
372
    -1
  0
DIMSTYLE
105
85
330
A
100
AcDbSymbolTableRecord
100
AcDbDimStyleTableRecord
  2
AM_ISO$7
 70
     0
  4
"
 41
3.0
 42
1.0
 43
12.0
 44
1.5
 47
0.1
 48
0.1
 73
     0
 74
     0
 77
     1
 78
     8
 79
     2
140
5.0
141
0.0
143
0.0393701
146
0.71
147
1.0
172
     1
176
   256
177
   256
178
   256
271
     2
272
     2
283
     2
284
     8
340
11
371
    -1
372
    -1
  0
DIMSTYLE
105
86
330
A
100
AcDbSymbolTableRecord
100
AcDbDimStyleTableRecord
  2
AM_ISO$SF
 70
     0
  4
"
 41
2.5
 42
1.0
 43
10.0
 44
1.0
 47
0.1
 48
0.1
 73
     0
 74
     0
 75
     1
 76
     1
 77
     1
 78
     8
 79
     2
140
3.5
141
0.0
143
0.0393701
146
0.71
147
1.5
172
     1
176
   256
177
   256
178
     2
271
     2
272
     3
274
     4
283
     0
284
     8
340
11
371
    -1
372
    -1
  0
DIMSTYLE
105
8B
330
A
100
AcDbSymbolTableRecord
100
AcDbDimStyleTableRecord
  2
AM_ISO$SH
 70
     0
  4
"
 41
2.5
 42
1.0
 43
10.0
 44
1.0
 47
0.1
 48
0.1
 73
     0
 74
     0
 75
     1
 76
     1
 77
     1
 78
     8
 79
     2
140
3.5
141
0.0
143
0.0393701
144
2.0
146
0.71
147
1.5
172
     1
173
     1
176
   256
177
   256
178
     2
271
     2
272
     3
274
     4
283
     0
284
     8
340
11
343
87
371
    -1
372
    -1
  0
DIMSTYLE
105
40B
102
{ACAD_REACTORS
330
4F96
330
4F97
330
4F98
330
4F99
330
50B8
330
50B9
330
52B5
330
52B6
330
52B7
330
52B8
330
52B9
330
52BA
102
}
330
A
100
AcDbSymbolTableRecord
100
AcDbDimStyleTableRecord
  2
AM_ISO$0
 70
     0
  4
"
 41
3.0
 42
1.0
 43
12.0
 44
1.5
 47
0.1
 48
0.1
 73
     0
 74
     0
 77
     1
 78
     8
 79
     2
140
3.0
141
0.0
143
0.0393701
146
0.71
147
1.0
172
     1
176
   256
177
   256
178
   256
271
     2
272
     2
283
     2
284
     8
340
11
371
    -1
372
    -1
  0
DIMSTYLE
105
F6C
330
A
100
AcDbSymbolTableRecord
100
AcDbDimStyleTableRecord
  2
AM_ANSI
 70
     0
  4
"
 41
3.0
 42
1.5
 43
8.0
 44
2.0
 47
0.1
 48
0.1
 73
     0
 74
     0
 77
     3
 78
     8
 79
     2
140
3.0
141
0.0
143
0.0393701
146
0.6
147
0.8
172
     1
176
   256
177
   256
178
   256
271
     2
272
     2
284
     8
340
F6A
371
    -1
372
    -1
  0
DIMSTYLE
105
1B36
330
A
100
AcDbSymbolTableRecord
100
AcDbDimStyleTableRecord
  2
AUDIT_I_030306140827-30
 70
     0
 41
3.0
 42
2.0
 43
8.0
 44
2.0
 73
     0
 74
     0
 77
     1
 78
     8
 79
     2
140
3.0
141
-1.0
147
1.0
176
   256
178
   256
271
     2
272
     2
279
     2
340
60C
371
    -1
  0
DIMSTYLE
105
1B37
330
A
100
AcDbSymbolTableRecord
100
AcDbDimStyleTableRecord
  2
AM_ANSI$3
 70
     0
  4
mm
 41
0.1
 42
0.05
 43
0.5
 44
0.1
 47
0.1
 48
0.1
 78
     7
 79
     2
140
0.12
141
0.0
146
0.71
147
0.06
176
   256
177
   256
178
     2
274
     4
284
     7
288
     1
289
     0
340
11
371
    -1
372
    -1
  0
DIMSTYLE
105
1B38
330
A
100
AcDbSymbolTableRecord
100
AcDbDimStyleTableRecord
  2
AM_ANSI$4
 70
     0
  4
mm
 41
0.1
 42
0.05
 43
0.5
 44
0.1
 47
0.1
 48
0.1
 78
     7
 79
     2
140
0.12
141
0.0
146
0.71
147
0.06
176
   256
177
   256
178
     2
274
     4
284
     7
288
     1
289
     0
340
11
371
    -1
372
    -1
  0
DIMSTYLE
105
1B39
330
A
100
AcDbSymbolTableRecord
100
AcDbDimStyleTableRecord
  2
AM_ANSI$7
 70
     0
  4
mm
 41
0.1
 42
0.05
 43
0.5
 44
0.1
 47
0.1
 48
0.1
 78
     7
 79
     2
140
0.24
141
0.0
146
0.71
147
0.06
176
   256
177
   256
178
     2
274
     4
284
     7
340
11
371
    -1
372
    -1
  0
DIMSTYLE
105
1B3A
330
A
100
AcDbSymbolTableRecord
100
AcDbDimStyleTableRecord
  2
AM_ANSI$SF
 70
     0
  4
mm
 41
0.1
 42
0.05
 43
0.5
 44
0.1
 47
0.1
 48
0.1
 75
     1
 76
     1
 78
     7
 79
     2
140
0.12
141
0.0
146
0.71
147
0.06
176
   256
177
   256
178
     2
274
     4
284
     7
340
11
371
    -1
372
    -1
  0
DIMSTYLE
105
1B3B
330
A
100
AcDbSymbolTableRecord
100
AcDbDimStyleTableRecord
  2
AM_ANSI$SH
 70
     0
  4
mm
 41
0.1
 42
0.05
 43
0.5
 44
0.1
 47
0.1
 48
0.1
 75
     1
 76
     1
 78
     7
 79
     2
140
0.12
141
0.0
146
0.71
147
0.06
173
     1
176
   256
177
   256
178
     2
274
     4
284
     7
340
11
341
87
343
87
371
    -1
372
    -1
  0
DIMSTYLE
105
1B3C
330
A
100
AcDbSymbolTableRecord
100
AcDbDimStyleTableRecord
  2
AUDIT_I_030306140827-30$0
 70
     0
 41
3.0
 42
2.0
 43
8.0
 44
2.0
 73
     0
 74
     0
 77
     1
 78
     8
 79
     2
140
3.0
141
-1.0
147
1.0
176
   256
178
   256
271
     2
272
     2
279
     2
340
60C
371
    -1
  0
ENDTAB
  0
TABLE
  2
BLOCK_RECORD
  5
1
330
0
100
AcDbSymbolTable
 70
    41
  0
BLOCK_RECORD
  5
1F
102
{ACAD_XDICTIONARY
360
8F
102
}
330
1
100
AcDbSymbolTableRecord
100
AcDbBlockTableRecord
  2
*Model_Space
340
22
  0
BLOCK_RECORD
  5
1B
330
1
100
AcDbSymbolTableRecord
100
AcDbBlockTableRecord
  2
*Paper_Space
340
1E
  0
BLOCK_RECORD
  5
23
330
1
100
AcDbSymbolTableRecord
100
AcDbBlockTableRecord
  2
*Paper_Space0
340
26
  0
BLOCK_RECORD
  5
87
330
1
100
AcDbSymbolTableRecord
100
AcDbBlockTableRecord
  2
GENAXEH
340
0
  0
BLOCK_RECORD
  5
1361
330
1
100
AcDbSymbolTableRecord
100
AcDbBlockTableRecord
  2
*U4
340
0
  0
BLOCK_RECORD
  5
4F9A
330
1
100
AcDbSymbolTableRecord
100
AcDbBlockTableRecord
  2
*D5
340
0
  0
BLOCK_RECORD
  5
4FA6
330
1
100
AcDbSymbolTableRecord
100
AcDbBlockTableRecord
  2
*D6
340
0
  0
BLOCK_RECORD
  5
4FB2
330
1
100
AcDbSymbolTableRecord
100
AcDbBlockTableRecord
  2
*D7
340
0
  0
BLOCK_RECORD
  5
4FBE
330
1
100
AcDbSymbolTableRecord
100
AcDbBlockTableRecord
  2
*D8
340
0
  0
BLOCK_RECORD
  5
50BC
330
1
100
AcDbSymbolTableRecord
100
AcDbBlockTableRecord
  2
*D9
340
0
  0
BLOCK_RECORD
  5
50C8
330
1
100
AcDbSymbolTableRecord
100
AcDbBlockTableRecord
  2
*D10
340
0
  0
BLOCK_RECORD
  5
52DD
330
1
100
AcDbSymbolTableRecord
100
AcDbBlockTableRecord
  2
*D11
340
0
  0
BLOCK_RECORD
  5
52E9
330
1
100
AcDbSymbolTableRecord
100
AcDbBlockTableRecord
  2
*D12
340
0
  0
BLOCK_RECORD
  5
52F5
330
1
100
AcDbSymbolTableRecord
100
AcDbBlockTableRecord
  2
*D13
340
0
  0
BLOCK_RECORD
  5
5301
330
1
100
AcDbSymbolTableRecord
100
AcDbBlockTableRecord
  2
*D14
340
0
  0
BLOCK_RECORD
  5
530D
330
1
100
AcDbSymbolTableRecord
100
AcDbBlockTableRecord
  2
*D15
340
0
  0
BLOCK_RECORD
  5
5319
330
1
100
AcDbSymbolTableRecord
100
AcDbBlockTableRecord
  2
*D16
340
0
  0
BLOCK_RECORD
  5
56E3
330
1
100
AcDbSymbolTableRecord
100
AcDbBlockTableRecord
  2
*S27
340
0
  0
BLOCK_RECORD
  5
56EB
330
1
100
AcDbSymbolTableRecord
100
AcDbBlockTableRecord
  2
*S28
340
0
  0
BLOCK_RECORD
  5
56F3
330
1
100
AcDbSymbolTableRecord
100
AcDbBlockTableRecord
  2
*S29
340
0
  0
BLOCK_RECORD
  5
56FB
330
1
100
AcDbSymbolTableRecord
100
AcDbBlockTableRecord
  2
*S30
340
0
  0
BLOCK_RECORD
  5
5703
330
1
100
AcDbSymbolTableRecord
100
AcDbBlockTableRecord
  2
*S31
340
0
  0
BLOCK_RECORD
  5
570B
330
1
100
AcDbSymbolTableRecord
100
AcDbBlockTableRecord
  2
*S32
340
0
  0
BLOCK_RECORD
  5
5713
330
1
100
AcDbSymbolTableRecord
100
AcDbBlockTableRecord
  2
*S33
340
0
  0
BLOCK_RECORD
  5
571B
330
1
100
AcDbSymbolTableRecord
100
AcDbBlockTableRecord
  2
*S34
340
0
  0
BLOCK_RECORD
  5
5723
330
1
100
AcDbSymbolTableRecord
100
AcDbBlockTableRecord
  2
*S35
340
0
  0
BLOCK_RECORD
  5
572B
330
1
100
AcDbSymbolTableRecord
100
AcDbBlockTableRecord
  2
*S36
340
0
  0
BLOCK_RECORD
  5
5733
330
1
100
AcDbSymbolTableRecord
100
AcDbBlockTableRecord
  2
*S37
340
0
  0
BLOCK_RECORD
  5
573B
330
1
100
AcDbSymbolTableRecord
100
AcDbBlockTableRecord
  2
*S38
340
0
  0
BLOCK_RECORD
  5
5743
330
1
100
AcDbSymbolTableRecord
100
AcDbBlockTableRecord
  2
*S39
340
0
  0
BLOCK_RECORD
  5
574B
330
1
100
AcDbSymbolTableRecord
100
AcDbBlockTableRecord
  2
*S40
340
0
  0
ENDTAB
  0
ENDSEC
  0
SECTION
  2
BLOCKS
  0
BLOCK
  5
20
330
1F
100
AcDbEntity
  8
0
100
AcDbBlockBegin
  2
*Model_Space
 70
     0
 10
0.0
 20
0.0
 30
0.0
  3
*Model_Space
  1

  0
ENDBLK
  5
21
330
1F
100
AcDbEntity
  8
0
100
AcDbBlockEnd
  0
BLOCK
  5
1C
330
1B
100
AcDbEntity
 67
     1
  8
0
100
AcDbBlockBegin
  2
*Paper_Space
 70
     0
 10
0.0
 20
0.0
 30
0.0
  3
*Paper_Space
  1

  0
ENDBLK
  5
1D
330
1B
100
AcDbEntity
 67
     1
  8
0
100
AcDbBlockEnd
  0
BLOCK
  5
24
330
23
100
AcDbEntity
  8
0
100
AcDbBlockBegin
  2
*Paper_Space0
 70
     0
 10
0.0
 20
0.0
 30
0.0
  3
*Paper_Space0
  1

  0
ENDBLK
  5
25
330
23
100
AcDbEntity
  8
0
100
AcDbBlockEnd
  0
BLOCK
  5
89
330
87
100
AcDbEntity
  8
0
100
AcDbBlockBegin
  2
GENAXEH
 70
     0
 10
0.0
 20
0.0
 30
0.0
  3
GENAXEH
  1

  0
LINE
  5
88
330
87
100
AcDbEntity
  8
0
100
AcDbLine
 10
-1.0
 20
0.0
 30
0.0
 11
1.0
 21
0.0
 31
0.0
  0
ENDBLK
  5
8A
330
87
100
AcDbEntity
  8
0
100
AcDbBlockEnd
  0
BLOCK
  5
1362
330
1361
100
AcDbEntity
  8
0
100
AcDbBlockBegin
  2
*U4
 70
     1
 10
0.0
 20
0.0
 30
0.0
  3
*U4
  1

  0
ENDBLK
  5
1363
330
1361
100
AcDbEntity
  8
0
100
AcDbBlockEnd
  0
BLOCK
  5
4FA4
330
4F9A
100
AcDbEntity
  8
0
100
AcDbBlockBegin
  2
*D5
 70
     1
 10
0.0
 20
0.0
 30
0.0
  3
*D5
  1

  0
LINE
  5
5470
330
4F9A
100
AcDbEntity
  8
AM_5
100
AcDbLine
 10
1665.153478631904
 20
962.507530246744
 30
0.0
 11
1665.153478631904
 21
937.807530246744
 31
0.0
  0
LINE
  5
5471
330
4F9A
100
AcDbEntity
  8
AM_5
100
AcDbLine
 10
1793.153478631904
 20
962.507530246744
 30
0.0
 11
1793.153478631904
 21
937.807530246744
 31
0.0
  0
LINE
  5
5472
330
4F9A
100
AcDbEntity
  8
AM_5
100
AcDbLine
 10
1669.353478631904
 20
939.9075302467441
 30
0.0
 11
1788.953478631904
 21
939.9075302467441
 31
0.0
  0
SOLID
  5
5473
330
4F9A
100
AcDbEntity
  8
AM_5
100
AcDbTrace
 10
1669.353478631904
 20
940.607530246744
 30
0.0
 11
1669.353478631904
 21
939.2075302467439
 31
0.0
 12
1665.153478631904
 22
939.9075302467441
 32
0.0
 13
1665.153478631904
 23
939.9075302467441
 33
0.0
  0
SOLID
  5
5474
330
4F9A
100
AcDbEntity
  8
AM_5
100
AcDbTrace
 10
1788.953478631904
 20
940.607530246744
 30
0.0
 11
1788.953478631904
 21
939.2075302467439
 31
0.0
 12
1793.153478631904
 22
939.9075302467441
 32
0.0
 13
1793.153478631904
 23
939.9075302467441
 33
0.0
  0
MTEXT
  5
5475
330
4F9A
100
AcDbEntity
  8
AM_5
100
AcDbMText
 10
1729.153478631904
 20
943.4079436325708
 30
0.0
 40
4.199999999999999
 41
0.0
 71
     5
 72
     1
  1
\A2;68+2xstroke
 73
     1
 44
1.0
1001
ACAD
1000
MTEXTBEGIN
1070
    73
1070
     1
1070
    44
1040
1.0
1070
    74
1070
     0
1000
MTEXTEND
  0
POINT
  5
5476
330
4F9A
100
AcDbEntity
  8
Defpoints
 62
     0
100
AcDbPoint
 10
1665.153478631904
 20
963.9075302467441
 30
0.0
  0
POINT
  5
5477
330
4F9A
100
AcDbEntity
  8
Defpoints
 62
     0
100
AcDbPoint
 10
1793.153478631904
 20
963.9075302467441
 30
0.0
  0
POINT
  5
5478
330
4F9A
100
AcDbEntity
  8
Defpoints
 62
     0
100
AcDbPoint
 10
1793.153478631904
 20
939.9075302467441
 30
0.0
  0
ENDBLK
  5
4FA5
330
4F9A
100
AcDbEntity
  8
0
100
AcDbBlockEnd
  0
BLOCK
  5
4FB0
330
4FA6
100
AcDbEntity
  8
0
100
AcDbBlockBegin
  2
*D6
 70
     1
 10
0.0
 20
0.0
 30
0.0
  3
*D6
  1

  0
LINE
  5
5479
330
4FA6
100
AcDbEntity
  8
AM_5
100
AcDbLine
 10
1681.153478631904
 20
962.507530246744
 30
0.0
 11
1681.153478631904
 21
949.8075302467439
 31
0.0
  0
LINE
  5
547A
330
4FA6
100
AcDbEntity
  8
AM_5
100
AcDbLine
 10
1747.153478631904
 20
962.507530246744
 30
0.0
 11
1747.153478631904
 21
949.8075302467439
 31
0.0
  0
LINE
  5
547B
330
4FA6
100
AcDbEntity
  8
AM_5
100
AcDbLine
 10
1685.353478631904
 20
951.907530246744
 30
0.0
 11
1742.953478631904
 21
951.907530246744
 31
0.0
  0
SOLID
  5
547C
330
4FA6
100
AcDbEntity
  8
AM_5
100
AcDbTrace
 10
1685.353478631904
 20
952.6075302467441
 30
0.0
 11
1685.353478631904
 21
951.207530246744
 31
0.0
 12
1681.153478631904
 22
951.907530246744
 32
0.0
 13
1681.153478631904
 23
951.907530246744
 33
0.0
  0
SOLID
  5
547D
330
4FA6
100
AcDbEntity
  8
AM_5
100
AcDbTrace
 10
1742.953478631904
 20
952.6075302467441
 30
0.0
 11
1742.953478631904
 21
951.207530246744
 31
0.0
 12
1747.153478631904
 22
951.907530246744
 32
0.0
 13
1747.153478631904
 23
951.907530246744
 33
0.0
  0
MTEXT
  5
547E
330
4FA6
100
AcDbEntity
  8
AM_5
100
AcDbMText
 10
1714.153478631904
 20
955.407530246744
 30
0.0
 40
4.199999999999999
 41
0.0
 71
     5
 72
     1
  1
\A2;36+stroke
 73
     1
 44
1.0
1001
ACAD
1000
MTEXTBEGIN
1070
    73
1070
     1
1070
    44
1040
1.0
1070
    74
1070
     0
1000
MTEXTEND
  0
POINT
  5
547F
330
4FA6
100
AcDbEntity
  8
Defpoints
 62
     0
100
AcDbPoint
 10
1681.153478631904
 20
963.9075302467441
 30
0.0
  0
POINT
  5
5480
330
4FA6
100
AcDbEntity
  8
Defpoints
 62
     0
100
AcDbPoint
 10
1747.153478631904
 20
963.9075302467441
 30
0.0
  0
POINT
  5
5481
330
4FA6
100
AcDbEntity
  8
Defpoints
 62
     0
100
AcDbPoint
 10
1747.153478631904
 20
951.907530246744
 30
0.0
  0
ENDBLK
  5
4FB1
330
4FA6
100
AcDbEntity
  8
0
100
AcDbBlockEnd
  0
BLOCK
  5
4FBC
330
4FB2
100
AcDbEntity
  8
0
100
AcDbBlockBegin
  2
*D7
 70
     1
 10
0.0
 20
0.0
 30
0.0
  3
*D7
  1

  0
LINE
  5
5482
330
4FB2
100
AcDbEntity
  8
AM_5
100
AcDbLine
 10
1747.153478631904
 20
962.507530246744
 30
0.0
 11
1747.153478631904
 21
949.8075302467439
 31
0.0
  0
LINE
  5
5483
330
4FB2
100
AcDbEntity
  8
AM_5
100
AcDbLine
 10
1779.153478631904
 20
962.507530246744
 30
0.0
 11
1779.153478631904
 21
949.8075302467439
 31
0.0
  0
LINE
  5
5484
330
4FB2
100
AcDbEntity
  8
AM_5
100
AcDbLine
 10
1751.353478631904
 20
951.907530246744
 30
0.0
 11
1774.953478631904
 21
951.907530246744
 31
0.0
  0
SOLID
  5
5485
330
4FB2
100
AcDbEntity
  8
AM_5
100
AcDbTrace
 10
1751.353478631904
 20
952.6075302467441
 30
0.0
 11
1751.353478631904
 21
951.207530246744
 31
0.0
 12
1747.153478631904
 22
951.907530246744
 32
0.0
 13
1747.153478631904
 23
951.907530246744
 33
0.0
  0
SOLID
  5
5486
330
4FB2
100
AcDbEntity
  8
AM_5
100
AcDbTrace
 10
1774.953478631904
 20
952.6075302467441
 30
0.0
 11
1774.953478631904
 21
951.207530246744
 31
0.0
 12
1779.153478631904
 22
951.907530246744
 32
0.0
 13
1779.153478631904
 23
951.907530246744
 33
0.0
  0
MTEXT
  5
5487
330
4FB2
100
AcDbEntity
  8
AM_5
100
AcDbMText
 10
1763.153478631904
 20
955.4079436325707
 30
0.0
 40
4.199999999999999
 41
0.0
 71
     5
 72
     1
  1
\A2;2+stroke
 73
     1
 44
1.0
1001
ACAD
1000
MTEXTBEGIN
1070
    73
1070
     1
1070
    44
1040
1.0
1070
    74
1070
     0
1000
MTEXTEND
  0
POINT
  5
5488
330
4FB2
100
AcDbEntity
  8
Defpoints
 62
     0
100
AcDbPoint
 10
1747.153478631904
 20
963.9075302467441
 30
0.0
  0
POINT
  5
5489
330
4FB2
100
AcDbEntity
  8
Defpoints
 62
     0
100
AcDbPoint
 10
1779.153478631904
 20
963.9075302467441
 30
0.0
  0
POINT
  5
548A
330
4FB2
100
AcDbEntity
  8
Defpoints
 62
     0
100
AcDbPoint
 10
1779.153478631904
 20
951.907530246744
 30
0.0
  0
ENDBLK
  5
4FBD
330
4FB2
100
AcDbEntity
  8
0
100
AcDbBlockEnd
  0
BLOCK
  5
4FC8
330
4FBE
100
AcDbEntity
  8
0
100
AcDbBlockBegin
  2
*D8
 70
     1
 10
0.0
 20
0.0
 30
0.0
  3
*D8
  1

  0
LINE
  5
548B
330
4FBE
100
AcDbEntity
  8
AM_5
100
AcDbLine
 10
1779.153478631904
 20
962.507530246744
 30
0.0
 11
1779.153478631904
 21
949.8075302467439
 31
0.0
  0
LINE
  5
548C
330
4FBE
100
AcDbEntity
  8
AM_5
100
AcDbLine
 10
1793.153478631904
 20
962.507530246744
 30
0.0
 11
1793.153478631904
 21
949.8075302467439
 31
0.0
  0
LINE
  5
548D
330
4FBE
100
AcDbEntity
  8
AM_5
100
AcDbLine
 10
1783.353478631904
 20
951.907530246744
 30
0.0
 11
1788.953478631904
 21
951.907530246744
 31
0.0
  0
SOLID
  5
548E
330
4FBE
100
AcDbEntity
  8
AM_5
100
AcDbTrace
 10
1783.353478631904
 20
952.6075302467441
 30
0.0
 11
1783.353478631904
 21
951.207530246744
 31
0.0
 12
1779.153478631904
 22
951.907530246744
 32
0.0
 13
1779.153478631904
 23
951.907530246744
 33
0.0
  0
SOLID
  5
548F
330
4FBE
100
AcDbEntity
  8
AM_5
100
AcDbTrace
 10
1788.953478631904
 20
952.6075302467441
 30
0.0
 11
1788.953478631904
 21
951.207530246744
 31
0.0
 12
1793.153478631904
 22
951.907530246744
 32
0.0
 13
1793.153478631904
 23
951.907530246744
 33
0.0
  0
MTEXT
  5
5490
330
4FBE
100
AcDbEntity
  8
AM_5
100
AcDbMText
 10
1786.153478631904
 20
955.407530246744
 30
0.0
 40
4.199999999999999
 41
0.0
 71
     5
 72
     1
  1
\A2;14
 73
     1
 44
1.0
1001
ACAD
1000
MTEXTBEGIN
1070
    73
1070
     1
1070
    44
1040
1.0
1070
    74
1070
     0
1000
MTEXTEND
  0
POINT
  5
5491
330
4FBE
100
AcDbEntity
  8
Defpoints
 62
     0
100
AcDbPoint
 10
1779.153478631904
 20
963.9075302467441
 30
0.0
  0
POINT
  5
5492
330
4FBE
100
AcDbEntity
  8
Defpoints
 62
     0
100
AcDbPoint
 10
1793.153478631904
 20
963.9075302467441
 30
0.0
  0
POINT
  5
5493
330
4FBE
100
AcDbEntity
  8
Defpoints
 62
     0
100
AcDbPoint
 10
1793.153478631904
 20
951.907530246744
 30
0.0
  0
ENDBLK
  5
4FC9
330
4FBE
100
AcDbEntity
  8
0
100
AcDbBlockEnd
  0
BLOCK
  5
50C6
330
50BC
100
AcDbEntity
  8
0
100
AcDbBlockBegin
  2
*D9
 70
     1
 10
0.0
 20
0.0
 30
0.0
  3
*D9
  1

  0
LINE
  5
5494
330
50BC
100
AcDbEntity
  8
AM_5
100
AcDbLine
 10
1847.698826400585
 20
962.507530246744
 30
0.0
 11
1847.698826400585
 21
941.5810978193094
 31
0.0
  0
LINE
  5
5495
330
50BC
100
AcDbEntity
  8
AM_5
100
AcDbLine
 10
1898.698826400585
 20
962.507530246744
 30
0.0
 11
1898.698826400585
 21
941.5810978193094
 31
0.0
  0
LINE
  5
5496
330
50BC
100
AcDbEntity
  8
AM_5
100
AcDbLine
 10
1851.898826400585
 20
943.6810978193095
 30
0.0
 11
1894.498826400585
 21
943.6810978193095
 31
0.0
  0
SOLID
  5
5497
330
50BC
100
AcDbEntity
  8
AM_5
100
AcDbTrace
 10
1851.898826400585
 20
944.3810978193097
 30
0.0
 11
1851.898826400585
 21
942.9810978193096
 31
0.0
 12
1847.698826400585
 22
943.6810978193095
 32
0.0
 13
1847.698826400585
 23
943.6810978193095
 33
0.0
  0
SOLID
  5
5498
330
50BC
100
AcDbEntity
  8
AM_5
100
AcDbTrace
 10
1894.498826400585
 20
944.3810978193097
 30
0.0
 11
1894.498826400585
 21
942.9810978193096
 31
0.0
 12
1898.698826400585
 22
943.6810978193095
 32
0.0
 13
1898.698826400585
 23
943.6810978193095
 33
0.0
  0
MTEXT
  5
5499
330
50BC
100
AcDbEntity
  8
AM_5
100
AcDbMText
 10
1873.198826400585
 20
947.1810978193095
 30
0.0
 40
4.199999999999999
 41
0.0
 71
     5
 72
     1
  1
\A2;51
 73
     1
 44
1.0
1001
ACAD
1000
MTEXTBEGIN
1070
    73
1070
     1
1070
    44
1040
1.0
1070
    74
1070
     0
1000
MTEXTEND
  0
POINT
  5
549A
330
50BC
100
AcDbEntity
  8
Defpoints
 62
     0
100
AcDbPoint
 10
1847.698826400585
 20
963.9075302467441
 30
0.0
  0
POINT
  5
549B
330
50BC
100
AcDbEntity
  8
Defpoints
 62
     0
100
AcDbPoint
 10
1898.698826400585
 20
963.9075302467441
 30
0.0
  0
POINT
  5
549C
330
50BC
100
AcDbEntity
  8
Defpoints
 62
     0
100
AcDbPoint
 10
1898.698826400585
 20
943.6810978193095
 30
0.0
  0
ENDBLK
  5
50C7
330
50BC
100
AcDbEntity
  8
0
100
AcDbBlockEnd
  0
BLOCK
  5
50D2
330
50C8
100
AcDbEntity
  8
0
100
AcDbBlockBegin
  2
*D10
 70
     1
 10
0.0
 20
0.0
 30
0.0
  3
*D10
  1

  0
LINE
  5
549D
330
50C8
100
AcDbEntity
  8
AM_5
100
AcDbLine
 10
1846.298826400585
 20
963.9075302467441
 30
0.0
 11
1833.598825400585
 21
963.9075302467441
 31
0.0
  0
LINE
  5
549E
330
50C8
100
AcDbEntity
  8
AM_5
100
AcDbLine
 10
1846.298826400585
 20
1079.907530246744
 30
0.0
 11
1833.598825400585
 21
1079.907530246744
 31
0.0
  0
LINE
  5
549F
330
50C8
100
AcDbEntity
  8
AM_5
100
AcDbLine
 10
1835.698825400585
 20
968.1075302467441
 30
0.0
 11
1835.698825400585
 21
1075.707530246744
 31
0.0
  0
SOLID
  5
54A0
330
50C8
100
AcDbEntity
  8
AM_5
100
AcDbTrace
 10
1834.998825400585
 20
968.1075302467441
 30
0.0
 11
1836.398825400585
 21
968.1075302467441
 31
0.0
 12
1835.698825400585
 22
963.9075302467441
 32
0.0
 13
1835.698825400585
 23
963.9075302467441
 33
0.0
  0
SOLID
  5
54A1
330
50C8
100
AcDbEntity
  8
AM_5
100
AcDbTrace
 10
1834.998825400585
 20
1075.707530246744
 30
0.0
 11
1836.398825400585
 21
1075.707530246744
 31
0.0
 12
1835.698825400585
 22
1079.907530246744
 32
0.0
 13
1835.698825400585
 23
1079.907530246744
 33
0.0
  0
MTEXT
  5
54A2
330
50C8
100
AcDbEntity
  8
AM_5
100
AcDbMText
 10
1832.198825400584
 20
1011.907530246744
 30
0.0
 40
4.199999999999999
 41
0.0
 71
     5
 72
     1
  1
\A2;116
 11
0.0000000000000001
 21
1.0
 31
0.0
 73
     1
 44
1.0
1001
ACAD
1000
MTEXTBEGIN
1070
    73
1070
     1
1070
    44
1040
1.0
1070
    74
1070
     0
1000
MTEXTEND
  0
POINT
  5
54A3
330
50C8
100
AcDbEntity
  8
Defpoints
 62
     0
100
AcDbPoint
 10
1847.698826400585
 20
963.9075302467441
 30
0.0
  0
POINT
  5
54A4
330
50C8
100
AcDbEntity
  8
Defpoints
 62
     0
100
AcDbPoint
 10
1847.698826400585
 20
1079.907530246744
 30
0.0
  0
POINT
  5
54A5
330
50C8
100
AcDbEntity
  8
Defpoints
 62
     0
100
AcDbPoint
 10
1835.698825400585
 20
1079.907530246744
 30
0.0
  0
ENDBLK
  5
50D3
330
50C8
100
AcDbEntity
  8
0
100
AcDbBlockEnd
  0
BLOCK
  5
52E7
330
52DD
100
AcDbEntity
  8
0
100
AcDbBlockBegin
  2
*D11
 70
     1
 10
0.0
 20
0.0
 30
0.0
  3
*D11
  1

  0
LINE
  5
543A
330
52DD
100
AcDbEntity
  8
AM_5
100
AcDbLine
 10
2151.669823376289
 20
962.507530246744
 30
0.0
 11
2151.669823376289
 21
937.807530246744
 31
0.0
  0
LINE
  5
543B
330
52DD
100
AcDbEntity
  8
AM_5
100
AcDbLine
 10
2279.669823376289
 20
962.507530246744
 30
0.0
 11
2279.669823376289
 21
937.807530246744
 31
0.0
  0
LINE
  5
543C
330
52DD
100
AcDbEntity
  8
AM_5
100
AcDbLine
 10
2155.869823376289
 20
939.9075302467441
 30
0.0
 11
2275.469823376289
 21
939.9075302467441
 31
0.0
  0
SOLID
  5
543D
330
52DD
100
AcDbEntity
  8
AM_5
100
AcDbTrace
 10
2155.869823376289
 20
940.607530246744
 30
0.0
 11
2155.869823376289
 21
939.2075302467439
 31
0.0
 12
2151.669823376289
 22
939.9075302467441
 32
0.0
 13
2151.669823376289
 23
939.9075302467441
 33
0.0
  0
SOLID
  5
543E
330
52DD
100
AcDbEntity
  8
AM_5
100
AcDbTrace
 10
2275.469823376289
 20
940.607530246744
 30
0.0
 11
2275.469823376289
 21
939.2075302467439
 31
0.0
 12
2279.669823376289
 22
939.9075302467441
 32
0.0
 13
2279.669823376289
 23
939.9075302467441
 33
0.0
  0
MTEXT
  5
543F
330
52DD
100
AcDbEntity
  8
AM_5
100
AcDbMText
 10
2215.669823376289
 20
943.4079436325708
 30
0.0
 40
4.199999999999999
 41
0.0
 71
     5
 72
     1
  1
\A2;68+2xstroke
 73
     1
 44
1.0
1001
ACAD
1000
MTEXTBEGIN
1070
    73
1070
     1
1070
    44
1040
1.0
1070
    74
1070
     0
1000
MTEXTEND
  0
POINT
  5
5440
330
52DD
100
AcDbEntity
  8
Defpoints
 62
     0
100
AcDbPoint
 10
2151.669823376289
 20
963.9075302467441
 30
0.0
  0
POINT
  5
5441
330
52DD
100
AcDbEntity
  8
Defpoints
 62
     0
100
AcDbPoint
 10
2279.669823376289
 20
963.9075302467441
 30
0.0
  0
POINT
  5
5442
330
52DD
100
AcDbEntity
  8
Defpoints
 62
     0
100
AcDbPoint
 10
2279.669823376289
 20
939.9075302467441
 30
0.0
  0
ENDBLK
  5
52E8
330
52DD
100
AcDbEntity
  8
0
100
AcDbBlockEnd
  0
BLOCK
  5
52F3
330
52E9
100
AcDbEntity
  8
0
100
AcDbBlockBegin
  2
*D12
 70
     1
 10
0.0
 20
0.0
 30
0.0
  3
*D12
  1

  0
LINE
  5
5443
330
52E9
100
AcDbEntity
  8
AM_5
100
AcDbLine
 10
2167.669823376289
 20
962.507530246744
 30
0.0
 11
2167.669823376289
 21
949.8075302467439
 31
0.0
  0
LINE
  5
5444
330
52E9
100
AcDbEntity
  8
AM_5
100
AcDbLine
 10
2233.669823376289
 20
962.507530246744
 30
0.0
 11
2233.669823376289
 21
949.8075302467439
 31
0.0
  0
LINE
  5
5445
330
52E9
100
AcDbEntity
  8
AM_5
100
AcDbLine
 10
2171.869823376289
 20
951.907530246744
 30
0.0
 11
2229.469823376289
 21
951.907530246744
 31
0.0
  0
SOLID
  5
5446
330
52E9
100
AcDbEntity
  8
AM_5
100
AcDbTrace
 10
2171.869823376289
 20
952.6075302467441
 30
0.0
 11
2171.869823376289
 21
951.207530246744
 31
0.0
 12
2167.669823376289
 22
951.907530246744
 32
0.0
 13
2167.669823376289
 23
951.907530246744
 33
0.0
  0
SOLID
  5
5447
330
52E9
100
AcDbEntity
  8
AM_5
100
AcDbTrace
 10
2229.469823376289
 20
952.6075302467441
 30
0.0
 11
2229.469823376289
 21
951.207530246744
 31
0.0
 12
2233.669823376289
 22
951.907530246744
 32
0.0
 13
2233.669823376289
 23
951.907530246744
 33
0.0
  0
MTEXT
  5
5448
330
52E9
100
AcDbEntity
  8
AM_5
100
AcDbMText
 10
2200.669823376289
 20
955.407530246744
 30
0.0
 40
4.199999999999999
 41
0.0
 71
     5
 72
     1
  1
\A2;36+stroke
 73
     1
 44
1.0
1001
ACAD
1000
MTEXTBEGIN
1070
    73
1070
     1
1070
    44
1040
1.0
1070
    74
1070
     0
1000
MTEXTEND
  0
POINT
  5
5449
330
52E9
100
AcDbEntity
  8
Defpoints
 62
     0
100
AcDbPoint
 10
2167.669823376289
 20
963.9075302467441
 30
0.0
  0
POINT
  5
544A
330
52E9
100
AcDbEntity
  8
Defpoints
 62
     0
100
AcDbPoint
 10
2233.669823376289
 20
963.9075302467441
 30
0.0
  0
POINT
  5
544B
330
52E9
100
AcDbEntity
  8
Defpoints
 62
     0
100
AcDbPoint
 10
2233.669823376289
 20
951.907530246744
 30
0.0
  0
ENDBLK
  5
52F4
330
52E9
100
AcDbEntity
  8
0
100
AcDbBlockEnd
  0
BLOCK
  5
52FF
330
52F5
100
AcDbEntity
  8
0
100
AcDbBlockBegin
  2
*D13
 70
     1
 10
0.0
 20
0.0
 30
0.0
  3
*D13
  1

  0
LINE
  5
544C
330
52F5
100
AcDbEntity
  8
AM_5
100
AcDbLine
 10
2233.669823376289
 20
962.507530246744
 30
0.0
 11
2233.669823376289
 21
949.8075302467439
 31
0.0
  0
LINE
  5
544D
330
52F5
100
AcDbEntity
  8
AM_5
100
AcDbLine
 10
2265.669823376289
 20
962.507530246744
 30
0.0
 11
2265.669823376289
 21
949.8075302467439
 31
0.0
  0
LINE
  5
544E
330
52F5
100
AcDbEntity
  8
AM_5
100
AcDbLine
 10
2237.869823376289
 20
951.907530246744
 30
0.0
 11
2261.469823376289
 21
951.907530246744
 31
0.0
  0
SOLID
  5
544F
330
52F5
100
AcDbEntity
  8
AM_5
100
AcDbTrace
 10
2237.869823376289
 20
952.6075302467441
 30
0.0
 11
2237.869823376289
 21
951.207530246744
 31
0.0
 12
2233.669823376289
 22
951.907530246744
 32
0.0
 13
2233.669823376289
 23
951.907530246744
 33
0.0
  0
SOLID
  5
5450
330
52F5
100
AcDbEntity
  8
AM_5
100
AcDbTrace
 10
2261.469823376289
 20
952.6075302467441
 30
0.0
 11
2261.469823376289
 21
951.207530246744
 31
0.0
 12
2265.669823376289
 22
951.907530246744
 32
0.0
 13
2265.669823376289
 23
951.907530246744
 33
0.0
  0
MTEXT
  5
5451
330
52F5
100
AcDbEntity
  8
AM_5
100
AcDbMText
 10
2249.669823376289
 20
955.4079436325707
 30
0.0
 40
4.199999999999999
 41
0.0
 71
     5
 72
     1
  1
\A2;2+stroke
 73
     1
 44
1.0
1001
ACAD
1000
MTEXTBEGIN
1070
    73
1070
     1
1070
    44
1040
1.0
1070
    74
1070
     0
1000
MTEXTEND
  0
POINT
  5
5452
330
52F5
100
AcDbEntity
  8
Defpoints
 62
     0
100
AcDbPoint
 10
2233.669823376289
 20
963.9075302467441
 30
0.0
  0
POINT
  5
5453
330
52F5
100
AcDbEntity
  8
Defpoints
 62
     0
100
AcDbPoint
 10
2265.669823376289
 20
963.9075302467441
 30
0.0
  0
POINT
  5
5454
330
52F5
100
AcDbEntity
  8
Defpoints
 62
     0
100
AcDbPoint
 10
2265.669823376289
 20
951.907530246744
 30
0.0
  0
ENDBLK
  5
5300
330
52F5
100
AcDbEntity
  8
0
100
AcDbBlockEnd
  0
BLOCK
  5
530B
330
5301
100
AcDbEntity
  8
0
100
AcDbBlockBegin
  2
*D14
 70
     1
 10
0.0
 20
0.0
 30
0.0
  3
*D14
  1

  0
LINE
  5
5455
330
5301
100
AcDbEntity
  8
AM_5
100
AcDbLine
 10
2265.669823376289
 20
962.507530246744
 30
0.0
 11
2265.669823376289
 21
949.8075302467439
 31
0.0
  0
LINE
  5
5456
330
5301
100
AcDbEntity
  8
AM_5
100
AcDbLine
 10
2279.669823376289
 20
962.507530246744
 30
0.0
 11
2279.669823376289
 21
949.8075302467439
 31
0.0
  0
LINE
  5
5457
330
5301
100
AcDbEntity
  8
AM_5
100
AcDbLine
 10
2269.869823376289
 20
951.907530246744
 30
0.0
 11
2275.469823376289
 21
951.907530246744
 31
0.0
  0
SOLID
  5
5458
330
5301
100
AcDbEntity
  8
AM_5
100
AcDbTrace
 10
2269.869823376289
 20
952.6075302467441
 30
0.0
 11
2269.869823376289
 21
951.207530246744
 31
0.0
 12
2265.669823376289
 22
951.907530246744
 32
0.0
 13
2265.669823376289
 23
951.907530246744
 33
0.0
  0
SOLID
  5
5459
330
5301
100
AcDbEntity
  8
AM_5
100
AcDbTrace
 10
2275.469823376289
 20
952.6075302467441
 30
0.0
 11
2275.469823376289
 21
951.207530246744
 31
0.0
 12
2279.669823376289
 22
951.907530246744
 32
0.0
 13
2279.669823376289
 23
951.907530246744
 33
0.0
  0
MTEXT
  5
545A
330
5301
100
AcDbEntity
  8
AM_5
100
AcDbMText
 10
2272.669823376289
 20
955.407530246744
 30
0.0
 40
4.199999999999999
 41
0.0
 71
     5
 72
     1
  1
\A2;14
 73
     1
 44
1.0
1001
ACAD
1000
MTEXTBEGIN
1070
    73
1070
     1
1070
    44
1040
1.0
1070
    74
1070
     0
1000
MTEXTEND
  0
POINT
  5
545B
330
5301
100
AcDbEntity
  8
Defpoints
 62
     0
100
AcDbPoint
 10
2265.669823376289
 20
963.9075302467441
 30
0.0
  0
POINT
  5
545C
330
5301
100
AcDbEntity
  8
Defpoints
 62
     0
100
AcDbPoint
 10
2279.669823376289
 20
963.9075302467441
 30
0.0
  0
POINT
  5
545D
330
5301
100
AcDbEntity
  8
Defpoints
 62
     0
100
AcDbPoint
 10
2279.669823376289
 20
951.907530246744
 30
0.0
  0
ENDBLK
  5
530C
330
5301
100
AcDbEntity
  8
0
100
AcDbBlockEnd
  0
BLOCK
  5
5317
330
530D
100
AcDbEntity
  8
0
100
AcDbBlockBegin
  2
*D15
 70
     1
 10
0.0
 20
0.0
 30
0.0
  3
*D15
  1

  0
LINE
  5
545E
330
530D
100
AcDbEntity
  8
AM_5
100
AcDbLine
 10
2334.21517114497
 20
962.507530246744
 30
0.0
 11
2334.21517114497
 21
941.5810978193094
 31
0.0
  0
LINE
  5
545F
330
530D
100
AcDbEntity
  8
AM_5
100
AcDbLine
 10
2385.21517114497
 20
962.507530246744
 30
0.0
 11
2385.21517114497
 21
941.5810978193094
 31
0.0
  0
LINE
  5
5460
330
530D
100
AcDbEntity
  8
AM_5
100
AcDbLine
 10
2338.41517114497
 20
943.6810978193095
 30
0.0
 11
2381.01517114497
 21
943.6810978193095
 31
0.0
  0
SOLID
  5
5461
330
530D
100
AcDbEntity
  8
AM_5
100
AcDbTrace
 10
2338.41517114497
 20
944.3810978193097
 30
0.0
 11
2338.41517114497
 21
942.9810978193096
 31
0.0
 12
2334.21517114497
 22
943.6810978193095
 32
0.0
 13
2334.21517114497
 23
943.6810978193095
 33
0.0
  0
SOLID
  5
5462
330
530D
100
AcDbEntity
  8
AM_5
100
AcDbTrace
 10
2381.01517114497
 20
944.3810978193097
 30
0.0
 11
2381.01517114497
 21
942.9810978193096
 31
0.0
 12
2385.21517114497
 22
943.6810978193095
 32
0.0
 13
2385.21517114497
 23
943.6810978193095
 33
0.0
  0
MTEXT
  5
5463
330
530D
100
AcDbEntity
  8
AM_5
100
AcDbMText
 10
2359.71517114497
 20
947.1810978193095
 30
0.0
 40
4.199999999999999
 41
0.0
 71
     5
 72
     1
  1
\A2;51
 73
     1
 44
1.0
1001
ACAD
1000
MTEXTBEGIN
1070
    73
1070
     1
1070
    44
1040
1.0
1070
    74
1070
     0
1000
MTEXTEND
  0
POINT
  5
5464
330
530D
100
AcDbEntity
  8
Defpoints
 62
     0
100
AcDbPoint
 10
2334.21517114497
 20
963.9075302467441
 30
0.0
  0
POINT
  5
5465
330
530D
100
AcDbEntity
  8
Defpoints
 62
     0
100
AcDbPoint
 10
2385.21517114497
 20
963.9075302467441
 30
0.0
  0
POINT
  5
5466
330
530D
100
AcDbEntity
  8
Defpoints
 62
     0
100
AcDbPoint
 10
2385.21517114497
 20
943.6810978193095
 30
0.0
  0
ENDBLK
  5
5318
330
530D
100
AcDbEntity
  8
0
100
AcDbBlockEnd
  0
BLOCK
  5
5323
330
5319
100
AcDbEntity
  8
0
100
AcDbBlockBegin
  2
*D16
 70
     1
 10
0.0
 20
0.0
 30
0.0
  3
*D16
  1

  0
LINE
  5
5467
330
5319
100
AcDbEntity
  8
AM_5
100
AcDbLine
 10
2332.81517114497
 20
963.9075302467441
 30
0.0
 11
2320.11517014497
 21
963.9075302467441
 31
0.0
  0
LINE
  5
5468
330
5319
100
AcDbEntity
  8
AM_5
100
AcDbLine
 10
2332.81517114497
 20
1079.907530246744
 30
0.0
 11
2320.11517014497
 21
1079.907530246744
 31
0.0
  0
LINE
  5
5469
330
5319
100
AcDbEntity
  8
AM_5
100
AcDbLine
 10
2322.21517014497
 20
968.1075302467441
 30
0.0
 11
2322.21517014497
 21
1075.707530246744
 31
0.0
  0
SOLID
  5
546A
330
5319
100
AcDbEntity
  8
AM_5
100
AcDbTrace
 10
2321.515170144969
 20
968.1075302467441
 30
0.0
 11
2322.915170144969
 21
968.1075302467441
 31
0.0
 12
2322.21517014497
 22
963.9075302467441
 32
0.0
 13
2322.21517014497
 23
963.9075302467441
 33
0.0
  0
SOLID
  5
546B
330
5319
100
AcDbEntity
  8
AM_5
100
AcDbTrace
 10
2321.51517014497
 20
1075.707530246744
 30
0.0
 11
2322.91517014497
 21
1075.707530246744
 31
0.0
 12
2322.21517014497
 22
1079.907530246744
 32
0.0
 13
2322.21517014497
 23
1079.907530246744
 33
0.0
  0
MTEXT
  5
546C
330
5319
100
AcDbEntity
  8
AM_5
100
AcDbMText
 10
2318.715170144969
 20
1011.907530246744
 30
0.0
 40
4.199999999999999
 41
0.0
 71
     5
 72
     1
  1
\A2;116
 11
0.0000000000000001
 21
1.0
 31
0.0
 73
     1
 44
1.0
1001
ACAD
1000
MTEXTBEGIN
1070
    73
1070
     1
1070
    44
1040
1.0
1070
    74
1070
     0
1000
MTEXTEND
  0
POINT
  5
546D
330
5319
100
AcDbEntity
  8
Defpoints
 62
     0
100
AcDbPoint
 10
2334.21517114497
 20
963.9075302467441
 30
0.0
  0
POINT
  5
546E
330
5319
100
AcDbEntity
  8
Defpoints
 62
     0
100
AcDbPoint
 10
2334.21517114497
 20
1079.907530246744
 30
0.0
  0
POINT
  5
546F
330
5319
100
AcDbEntity
  8
Defpoints
 62
     0
100
AcDbPoint
 10
2322.21517014497
 20
1079.907530246744
 30
0.0
  0
ENDBLK
  5
5324
330
5319
100
AcDbEntity
  8
0
100
AcDbBlockEnd
  0
BLOCK
  5
56E8
330
56E3
100
AcDbEntity
  8
0
100
AcDbBlockBegin
  2
*S27
 70
     1
 10
0.0
 20
0.0
 30
0.0
  3
*S27
  1

  0
LINE
  5
56E4
330
56E3
100
AcDbEntity
  8
AM_5
 62
     5
100
AcDbLine
 10
1768.94662386696
 20
913.0585698467253
 30
0.0
 11
1750.532979002568
 21
913.0585698467253
 31
0.0
  0
LINE
  5
56E5
330
56E3
100
AcDbEntity
  8
AM_5
 62
     5
100
AcDbLine
 10
1750.532979002568
 20
913.0585698467253
 30
0.0
 11
1742.967019955106
 21
902.3596493058091
 31
0.0
  0
TRACE
  5
56E6
330
56E3
100
AcDbEntity
  8
AM_5
 62
     5
370
    35
100
AcDbTrace
 10
1742.44031604433
 20
902.7321186781939
 30
0.0
 11
1743.493723865882
 21
901.9871799334241
 31
0.0
 12
1740.137834175326
 22
898.3589358914924
 32
0.0
 13
1740.137834175326
 23
898.3589358914924
 33
0.0
  0
MTEXT
  5
56E7
330
56E3
100
AcDbEntity
  8
AM_5
 62
     2
100
AcDbMText
 10
1768.94662386696
 20
922.9184065696998
 30
0.0
 40
4.899999999999999
 41
0.0
 71
     9
 72
     5
  1

  7
ACISOTS
210
0.0
220
0.0
230
-1.0
 11
-1.0
 21
0.0
 31
0.0
 73
     1
 44
1.0
1001
ACAD
1000
MTEXTBEGIN
1070
    73
1070
     1
1070
    44
1040
1.0
1070
    74
1070
     0
1000
MTEXTEND
  0
ENDBLK
  5
56E9
330
56E3
100
AcDbEntity
  8
0
100
AcDbBlockEnd
  0
BLOCK
  5
56F0
330
56EB
100
AcDbEntity
  8
0
100
AcDbBlockBegin
  2
*S28
 70
     1
 10
0.0
 20
0.0
 30
0.0
  3
*S28
  1

  0
LINE
  5
56EC
330
56EB
100
AcDbEntity
  8
AM_5
 62
     5
100
AcDbLine
 10
1816.783948613966
 20
952.4100061310996
 30
0.0
 11
1833.919437302019
 21
952.4100061310996
 31
0.0
  0
LINE
  5
56ED
330
56EB
100
AcDbEntity
  8
AM_5
 62
     5
100
AcDbLine
 10
1833.919437302019
 20
952.4100061310996
 30
0.0
 11
1853.031474709547
 21
968.4525203858349
 31
0.0
  0
TRACE
  5
56EE
330
56EB
100
AcDbEntity
  8
AM_5
 62
     5
370
    35
100
AcDbTrace
 10
1853.446220334056
 20
967.9584186655965
 30
0.0
 11
1852.616729085039
 21
968.9466221060735
 31
0.0
 12
1856.784549899899
 22
971.6028261829865
 32
0.0
 13
1856.784549899899
 23
971.6028261829865
 33
0.0
  0
MTEXT
  5
56EF
330
56EB
100
AcDbEntity
  8
AM_5
 62
     2
100
AcDbMText
 10
1816.783948613966
 20
961.2378163529296
 30
0.0
 40
4.899999999999999
 41
0.0
 71
     9
 72
     5
  1

  7
ACISOTS
 73
     1
 44
1.0
1001
ACAD
1000
MTEXTBEGIN
1070
    73
1070
     1
1070
    44
1040
1.0
1070
    74
1070
     0
1000
MTEXTEND
  0
ENDBLK
  5
56F1
330
56EB
100
AcDbEntity
  8
0
100
AcDbBlockEnd
  0
BLOCK
  5
56F8
330
56F3
100
AcDbEntity
  8
0
100
AcDbBlockBegin
  2
*S29
 70
     1
 10
0.0
 20
0.0
 30
0.0
  3
*S29
  1

  0
LINE
  5
56F4
330
56F3
100
AcDbEntity
  8
AM_5
 62
     5
100
AcDbLine
 10
1784.065472828471
 20
1090.888288987485
 30
0.0
 11
1746.85928455034
 21
1090.888288987485
 31
0.0
  0
LINE
  5
56F5
330
56F3
100
AcDbEntity
  8
AM_5
 62
     5
100
AcDbLine
 10
1746.85928455034
 20
1090.888288987485
 30
0.0
 11
1732.700739117837
 21
1051.632172927976
 31
0.0
  0
TRACE
  5
56F6
330
56F3
100
AcDbEntity
  8
AM_5
 62
     5
370
    35
100
AcDbTrace
 10
1732.093905139336
 20
1051.851040389076
 30
0.0
 11
1733.307573096339
 21
1051.413305466875
 31
0.0
 12
1731.038275692628
 22
1047.02281121947
 32
0.0
 13
1731.038275692628
 23
1047.02281121947
 33
0.0
  0
MTEXT
  5
56F7
330
56F3
100
AcDbEntity
  8
AM_5
 62
     2
100
AcDbMText
 10
1784.065472828471
 20
1100.556784725827
 30
0.0
 40
4.899999999999999
 41
0.0
 71
     9
 72
     5
  1

  7
ACISOTS
210
0.0
220
0.0
230
-1.0
 11
-1.0
 21
0.0
 31
0.0
 73
     1
 44
1.0
1001
ACAD
1000
MTEXTBEGIN
1070
    73
1070
     1
1070
    44
1040
1.0
1070
    74
1070
     0
1000
MTEXTEND
  0
ENDBLK
  5
56F9
330
56F3
100
AcDbEntity
  8
0
100
AcDbBlockEnd
  0
BLOCK
  5
5700
330
56FB
100
AcDbEntity
  8
0
100
AcDbBlockBegin
  2
*S30
 70
     1
 10
0.0
 20
0.0
 30
0.0
  3
*S30
  1

  0
LINE
  5
56FC
330
56FB
100
AcDbEntity
  8
AM_5
 62
     5
100
AcDbLine
 10
1843.21509915931
 20
1090.373266322522
 30
0.0
 11
1802.947614889457
 21
1090.373266322522
 31
0.0
  0
LINE
  5
56FD
330
56FB
100
AcDbEntity
  8
AM_5
 62
     5
100
AcDbLine
 10
1802.947614889457
 20
1090.373266322522
 30
0.0
 11
1791.184579898631
 21
1066.966775916843
 31
0.0
  0
TRACE
  5
56FE
330
56FB
100
AcDbEntity
  8
AM_5
 62
     5
370
    35
100
AcDbTrace
 10
1790.608177540167
 20
1067.256449464389
 30
0.0
 11
1791.760982257096
 21
1066.677102369297
 31
0.0
 12
1788.984290848693
 22
1062.588565312415
 32
0.0
 13
1788.984290848693
 23
1062.588565312415
 33
0.0
  0
MTEXT
  5
56FF
330
56FB
100
AcDbEntity
  8
AM_5
 62
     2
100
AcDbMText
 10
1843.21509915931
 20
1100.304456766022
 30
0.0
 40
4.899999999999999
 41
0.0
 71
     9
 72
     5
  1

  7
ACISOTS
210
0.0
220
0.0
230
-1.0
 11
-1.0
 21
0.0
 31
0.0
 73
     1
 44
1.0
1001
ACAD
1000
MTEXTBEGIN
1070
    73
1070
     1
1070
    44
1040
1.0
1070
    74
1070
     0
1000
MTEXTEND
  0
ENDBLK
  5
5701
330
56FB
100
AcDbEntity
  8
0
100
AcDbBlockEnd
  0
BLOCK
  5
5708
330
5703
100
AcDbEntity
  8
0
100
AcDbBlockBegin
  2
*S31
 70
     1
 10
0.0
 20
0.0
 30
0.0
  3
*S31
  1

  0
LINE
  5
5704
330
5703
100
AcDbEntity
  8
AM_5
 62
     5
100
AcDbLine
 10
1782.244698897441
 20
1194.979654870724
 30
0.0
 11
1748.156072593656
 21
1194.979654870724
 31
0.0
  0
LINE
  5
5705
330
5703
100
AcDbEntity
  8
AM_5
 62
     5
100
AcDbLine
 10
1748.156072593656
 20
1194.979654870724
 30
0.0
 11
1736.241536819402
 21
1212.110980019639
 31
0.0
  0
TRACE
  5
5706
330
5703
100
AcDbEntity
  8
AM_5
 62
     5
370
    35
100
AcDbTrace
 10
1736.771142633127
 20
1212.479311561948
 30
0.0
 11
1735.711931005675
 21
1211.74264847733
 31
0.0
 12
1733.443780979582
 22
1216.133735575319
 32
0.0
 13
1733.443780979582
 23
1216.133735575319
 33
0.0
  0
MTEXT
  5
5707
330
5703
100
AcDbEntity
  8
AM_5
 62
     2
100
AcDbMText
 10
1782.244698897441
 20
1204.136331352965
 30
0.0
 40
4.899999999999999
 41
0.0
 71
     9
 72
     5
  1

  7
ACISOTS
210
0.0
220
0.0
230
-1.0
 11
-1.0
 21
0.0
 31
0.0
 73
     1
 44
1.0
1001
ACAD
1000
MTEXTBEGIN
1070
    73
1070
     1
1070
    44
1040
1.0
1070
    74
1070
     0
1000
MTEXTEND
  0
ENDBLK
  5
5709
330
5703
100
AcDbEntity
  8
0
100
AcDbBlockEnd
  0
BLOCK
  5
5710
330
570B
100
AcDbEntity
  8
0
100
AcDbBlockBegin
  2
*S32
 70
     1
 10
0.0
 20
0.0
 30
0.0
  3
*S32
  1

  0
LINE
  5
570C
330
570B
100
AcDbEntity
  8
AM_5
 62
     5
100
AcDbLine
 10
1841.120564669373
 20
1221.404611593652
 30
0.0
 11
1800.85308039952
 21
1221.404611593652
 31
0.0
  0
LINE
  5
570D
330
570B
100
AcDbEntity
  8
AM_5
 62
     5
100
AcDbLine
 10
1800.85308039952
 20
1221.404611593652
 30
0.0
 11
1792.510295890213
 21
1232.93681866639
 31
0.0
  0
TRACE
  5
570E
330
570B
100
AcDbEntity
  8
AM_5
 62
     5
370
    35
100
AcDbTrace
 10
1793.032962167674
 20
1233.314932941969
 30
0.0
 11
1791.987629612752
 21
1232.55870439081
 31
0.0
 12
1789.638232813588
 22
1236.906863210709
 32
0.0
 13
1789.638232813588
 23
1236.906863210709
 33
0.0
  0
MTEXT
  5
570F
330
570B
100
AcDbEntity
  8
AM_5
 62
     2
100
AcDbMText
 10
1841.120564669373
 20
1231.335802037152
 30
0.0
 40
4.899999999999999
 41
0.0
 71
     9
 72
     5
  1

  7
ACISOTS
210
0.0
220
0.0
230
-1.0
 11
-1.0
 21
0.0
 31
0.0
 73
     1
 44
1.0
1001
ACAD
1000
MTEXTBEGIN
1070
    73
1070
     1
1070
    44
1040
1.0
1070
    74
1070
     0
1000
MTEXTEND
  0
ENDBLK
  5
5711
330
570B
100
AcDbEntity
  8
0
100
AcDbBlockEnd
  0
BLOCK
  5
5718
330
5713
100
AcDbEntity
  8
0
100
AcDbBlockBegin
  2
*S33
 70
     1
 10
0.0
 20
0.0
 30
0.0
  3
*S33
  1

  0
LINE
  5
5714
330
5713
100
AcDbEntity
  8
AM_5
 62
     5
100
AcDbLine
 10
1651.154016852347
 20
1195.372280097863
 30
0.0
 11
1685.242643156133
 21
1195.372280097863
 31
0.0
  0
LINE
  5
5715
330
5713
100
AcDbEntity
  8
AM_5
 62
     5
100
AcDbLine
 10
1685.242643156133
 20
1195.372280097863
 30
0.0
 11
1697.172515644298
 21
1240.760269563639
 31
0.0
  0
TRACE
  5
5716
330
5713
100
AcDbEntity
  8
AM_5
 62
     5
370
    35
100
AcDbTrace
 10
1697.796421224965
 20
1240.596280937801
 30
0.0
 11
1696.548610063631
 21
1240.924258189476
 31
0.0
 12
1698.418132929
 22
1245.499302965088
 32
0.0
 13
1698.418132929
 23
1245.499302965088
 33
0.0
  0
MTEXT
  5
5717
330
5713
100
AcDbEntity
  8
AM_5
 62
     2
100
AcDbMText
 10
1651.154016852347
 20
1204.528956580103
 30
0.0
 40
4.899999999999999
 41
0.0
 71
     9
 72
     5
  1

  7
ACISOTS
 73
     1
 44
1.0
1001
ACAD
1000
MTEXTBEGIN
1070
    73
1070
     1
1070
    44
1040
1.0
1070
    74
1070
     0
1000
MTEXTEND
  0
ENDBLK
  5
5719
330
5713
100
AcDbEntity
  8
0
100
AcDbBlockEnd
  0
BLOCK
  5
5720
330
571B
100
AcDbEntity
  8
0
100
AcDbBlockBegin
  2
*S34
 70
     1
 10
0.0
 20
0.0
 30
0.0
  3
*S34
  1

  0
LINE
  5
571C
330
571B
100
AcDbEntity
  8
AM_5
 62
     5
100
AcDbLine
 10
2255.462968611344
 20
913.0585698467253
 30
0.0
 11
2237.049323746953
 21
913.0585698467253
 31
0.0
  0
LINE
  5
571D
330
571B
100
AcDbEntity
  8
AM_5
 62
     5
100
AcDbLine
 10
2237.049323746953
 20
913.0585698467253
 30
0.0
 11
2229.48336469949
 21
902.3596493058091
 31
0.0
  0
TRACE
  5
571E
330
571B
100
AcDbEntity
  8
AM_5
 62
     5
370
    35
100
AcDbTrace
 10
2228.956660788714
 20
902.7321186781939
 30
0.0
 11
2230.010068610266
 21
901.9871799334241
 31
0.0
 12
2226.654178919711
 22
898.3589358914924
 32
0.0
 13
2226.654178919711
 23
898.3589358914924
 33
0.0
  0
MTEXT
  5
571F
330
571B
100
AcDbEntity
  8
AM_5
 62
     2
100
AcDbMText
 10
2255.462968611344
 20
922.9184065696998
 30
0.0
 40
4.899999999999999
 41
0.0
 71
     9
 72
     5
  1

  7
ACISOTS
210
0.0
220
0.0
230
-1.0
 11
-1.0
 21
0.0
 31
0.0
 73
     1
 44
1.0
1001
ACAD
1000
MTEXTBEGIN
1070
    73
1070
     1
1070
    44
1040
1.0
1070
    74
1070
     0
1000
MTEXTEND
  0
ENDBLK
  5
5721
330
571B
100
AcDbEntity
  8
0
100
AcDbBlockEnd
  0
BLOCK
  5
5728
330
5723
100
AcDbEntity
  8
0
100
AcDbBlockBegin
  2
*S35
 70
     1
 10
0.0
 20
0.0
 30
0.0
  3
*S35
  1

  0
LINE
  5
5724
330
5723
100
AcDbEntity
  8
AM_5
 62
     5
100
AcDbLine
 10
2303.300293358351
 20
952.4100061310996
 30
0.0
 11
2320.435782046404
 21
952.4100061310996
 31
0.0
  0
LINE
  5
5725
330
5723
100
AcDbEntity
  8
AM_5
 62
     5
100
AcDbLine
 10
2320.435782046404
 20
952.4100061310996
 30
0.0
 11
2339.547819453932
 21
968.4525203858349
 31
0.0
  0
TRACE
  5
5726
330
5723
100
AcDbEntity
  8
AM_5
 62
     5
370
    35
100
AcDbTrace
 10
2339.96256507844
 20
967.9584186655965
 30
0.0
 11
2339.133073829424
 21
968.9466221060735
 31
0.0
 12
2343.300894644284
 22
971.6028261829865
 32
0.0
 13
2343.300894644284
 23
971.6028261829865
 33
0.0
  0
MTEXT
  5
5727
330
5723
100
AcDbEntity
  8
AM_5
 62
     2
100
AcDbMText
 10
2303.300293358351
 20
961.2378163529296
 30
0.0
 40
4.899999999999999
 41
0.0
 71
     9
 72
     5
  1

  7
ACISOTS
 73
     1
 44
1.0
1001
ACAD
1000
MTEXTBEGIN
1070
    73
1070
     1
1070
    44
1040
1.0
1070
    74
1070
     0
1000
MTEXTEND
  0
ENDBLK
  5
5729
330
5723
100
AcDbEntity
  8
0
100
AcDbBlockEnd
  0
BLOCK
  5
5730
330
572B
100
AcDbEntity
  8
0
100
AcDbBlockBegin
  2
*S36
 70
     1
 10
0.0
 20
0.0
 30
0.0
  3
*S36
  1

  0
LINE
  5
572C
330
572B
100
AcDbEntity
  8
AM_5
 62
     5
100
AcDbLine
 10
2270.581817572856
 20
1090.888288987485
 30
0.0
 11
2233.375629294725
 21
1090.888288987485
 31
0.0
  0
LINE
  5
572D
330
572B
100
AcDbEntity
  8
AM_5
 62
     5
100
AcDbLine
 10
2233.375629294725
 20
1090.888288987485
 30
0.0
 11
2219.217083862222
 21
1051.632172927976
 31
0.0
  0
TRACE
  5
572E
330
572B
100
AcDbEntity
  8
AM_5
 62
     5
370
    35
100
AcDbTrace
 10
2218.610249883721
 20
1051.851040389076
 30
0.0
 11
2219.823917840723
 21
1051.413305466875
 31
0.0
 12
2217.554620437013
 22
1047.02281121947
 32
0.0
 13
2217.554620437013
 23
1047.02281121947
 33
0.0
  0
MTEXT
  5
572F
330
572B
100
AcDbEntity
  8
AM_5
 62
     2
100
AcDbMText
 10
2270.581817572856
 20
1100.556784725827
 30
0.0
 40
4.899999999999999
 41
0.0
 71
     9
 72
     5
  1

  7
ACISOTS
210
0.0
220
0.0
230
-1.0
 11
-1.0
 21
0.0
 31
0.0
 73
     1
 44
1.0
1001
ACAD
1000
MTEXTBEGIN
1070
    73
1070
     1
1070
    44
1040
1.0
1070
    74
1070
     0
1000
MTEXTEND
  0
ENDBLK
  5
5731
330
572B
100
AcDbEntity
  8
0
100
AcDbBlockEnd
  0
BLOCK
  5
5738
330
5733
100
AcDbEntity
  8
0
100
AcDbBlockBegin
  2
*S37
 70
     1
 10
0.0
 20
0.0
 30
0.0
  3
*S37
  1

  0
LINE
  5
5734
330
5733
100
AcDbEntity
  8
AM_5
 62
     5
100
AcDbLine
 10
2329.731443903694
 20
1090.373266322522
 30
0.0
 11
2289.463959633842
 21
1090.373266322522
 31
0.0
  0
LINE
  5
5735
330
5733
100
AcDbEntity
  8
AM_5
 62
     5
100
AcDbLine
 10
2289.463959633842
 20
1090.373266322522
 30
0.0
 11
2277.700924643016
 21
1066.966775916843
 31
0.0
  0
TRACE
  5
5736
330
5733
100
AcDbEntity
  8
AM_5
 62
     5
370
    35
100
AcDbTrace
 10
2277.124522284551
 20
1067.256449464389
 30
0.0
 11
2278.277327001481
 21
1066.677102369297
 31
0.0
 12
2275.500635593078
 22
1062.588565312415
 32
0.0
 13
2275.500635593078
 23
1062.588565312415
 33
0.0
  0
MTEXT
  5
5737
330
5733
100
AcDbEntity
  8
AM_5
 62
     2
100
AcDbMText
 10
2329.731443903694
 20
1100.304456766022
 30
0.0
 40
4.899999999999999
 41
0.0
 71
     9
 72
     5
  1

  7
ACISOTS
210
0.0
220
0.0
230
-1.0
 11
-1.0
 21
0.0
 31
0.0
 73
     1
 44
1.0
1001
ACAD
1000
MTEXTBEGIN
1070
    73
1070
     1
1070
    44
1040
1.0
1070
    74
1070
     0
1000
MTEXTEND
  0
ENDBLK
  5
5739
330
5733
100
AcDbEntity
  8
0
100
AcDbBlockEnd
  0
BLOCK
  5
5740
330
573B
100
AcDbEntity
  8
0
100
AcDbBlockBegin
  2
*S38
 70
     1
 10
0.0
 20
0.0
 30
0.0
  3
*S38
  1

  0
LINE
  5
573C
330
573B
100
AcDbEntity
  8
AM_5
 62
     5
100
AcDbLine
 10
2268.761043641826
 20
1194.979654870724
 30
0.0
 11
2234.672417338041
 21
1194.979654870724
 31
0.0
  0
LINE
  5
573D
330
573B
100
AcDbEntity
  8
AM_5
 62
     5
100
AcDbLine
 10
2234.672417338041
 20
1194.979654870724
 30
0.0
 11
2222.757881563786
 21
1212.110980019639
 31
0.0
  0
TRACE
  5
573E
330
573B
100
AcDbEntity
  8
AM_5
 62
     5
370
    35
100
AcDbTrace
 10
2223.287487377513
 20
1212.479311561948
 30
0.0
 11
2222.228275750061
 21
1211.74264847733
 31
0.0
 12
2219.960125723966
 22
1216.133735575319
 32
0.0
 13
2219.960125723966
 23
1216.133735575319
 33
0.0
  0
MTEXT
  5
573F
330
573B
100
AcDbEntity
  8
AM_5
 62
     2
100
AcDbMText
 10
2268.761043641826
 20
1204.136331352965
 30
0.0
 40
4.899999999999999
 41
0.0
 71
     9
 72
     5
  1

  7
ACISOTS
210
0.0
220
0.0
230
-1.0
 11
-1.0
 21
0.0
 31
0.0
 73
     1
 44
1.0
1001
ACAD
1000
MTEXTBEGIN
1070
    73
1070
     1
1070
    44
1040
1.0
1070
    74
1070
     0
1000
MTEXTEND
  0
ENDBLK
  5
5741
330
573B
100
AcDbEntity
  8
0
100
AcDbBlockEnd
  0
BLOCK
  5
5748
330
5743
100
AcDbEntity
  8
0
100
AcDbBlockBegin
  2
*S39
 70
     1
 10
0.0
 20
0.0
 30
0.0
  3
*S39
  1

  0
LINE
  5
5744
330
5743
100
AcDbEntity
  8
AM_5
 62
     5
100
AcDbLine
 10
2327.636909413758
 20
1221.404611593652
 30
0.0
 11
2287.369425143905
 21
1221.404611593652
 31
0.0
  0
LINE
  5
5745
330
5743
100
AcDbEntity
  8
AM_5
 62
     5
100
AcDbLine
 10
2287.369425143905
 20
1221.404611593652
 30
0.0
 11
2279.026640634598
 21
1232.93681866639
 31
0.0
  0
TRACE
  5
5746
330
5743
100
AcDbEntity
  8
AM_5
 62
     5
370
    35
100
AcDbTrace
 10
2279.549306912059
 20
1233.314932941969
 30
0.0
 11
2278.503974357137
 21
1232.55870439081
 31
0.0
 12
2276.154577557973
 22
1236.906863210709
 32
0.0
 13
2276.154577557973
 23
1236.906863210709
 33
0.0
  0
MTEXT
  5
5747
330
5743
100
AcDbEntity
  8
AM_5
 62
     2
100
AcDbMText
 10
2327.636909413758
 20
1231.335802037152
 30
0.0
 40
4.899999999999999
 41
0.0
 71
     9
 72
     5
  1

  7
ACISOTS
210
0.0
220
0.0
230
-1.0
 11
-1.0
 21
0.0
 31
0.0
 73
     1
 44
1.0
1001
ACAD
1000
MTEXTBEGIN
1070
    73
1070
     1
1070
    44
1040
1.0
1070
    74
1070
     0
1000
MTEXTEND
  0
ENDBLK
  5
5749
330
5743
100
AcDbEntity
  8
0
100
AcDbBlockEnd
  0
BLOCK
  5
5750
330
574B
100
AcDbEntity
  8
0
100
AcDbBlockBegin
  2
*S40
 70
     1
 10
0.0
 20
0.0
 30
0.0
  3
*S40
  1

  0
LINE
  5
574C
330
574B
100
AcDbEntity
  8
AM_5
 62
     5
100
AcDbLine
 10
2137.670361596732
 20
1195.372280097863
 30
0.0
 11
2171.758987900518
 21
1195.372280097863
 31
0.0
  0
LINE
  5
574D
330
574B
100
AcDbEntity
  8
AM_5
 62
     5
100
AcDbLine
 10
2171.758987900518
 20
1195.372280097863
 30
0.0
 11
2183.688860388683
 21
1240.760269563639
 31
0.0
  0
TRACE
  5
574E
330
574B
100
AcDbEntity
  8
AM_5
 62
     5
370
    35
100
AcDbTrace
 10
2184.31276596935
 20
1240.596280937801
 30
0.0
 11
2183.064954808016
 21
1240.924258189476
 31
0.0
 12
2184.934477673385
 22
1245.499302965088
 32
0.0
 13
2184.934477673385
 23
1245.499302965088
 33
0.0
  0
MTEXT
  5
574F
330
574B
100
AcDbEntity
  8
AM_5
 62
     2
100
AcDbMText
 10
2137.670361596732
 20
1204.528956580103
 30
0.0
 40
4.899999999999999
 41
0.0
 71
     9
 72
     5
  1

  7
ACISOTS
 73
     1
 44
1.0
1001
ACAD
1000
MTEXTBEGIN
1070
    73
1070
     1
1070
    44
1040
1.0
1070
    74
1070
     0
1000
MTEXTEND
  0
ENDBLK
  5
5751
330
574B
100
AcDbEntity
  8
0
100
AcDbBlockEnd
  0
ENDSEC
  0
SECTION
  2
ENTITIES
  0
TEXT
  5
E1F
330
1F
100
AcDbEntity
  8
AM_5
100
AcDbText
 10
2673.874599262465
 20
1604.83630397753
 30
0.0
 40
6.0
  1

100
AcDbText
  0
TEXT
  5
E3C
330
1F
100
AcDbEntity
  8
LOGO
 62
     7
100
AcDbText
 10
1644.614511350501
 20
789.6576758736306
 30
0.0
 40
9.454246861031672
  1
Order example:
 41
0.8
  7
CHINESET
100
AcDbText
  0
TEXT
  5
E3D
330
1F
100
AcDbEntity
  8
LOGO
 62
     7
100
AcDbText
 10
1646.310681420811
 20
802.967297927173
 30
0.0
 40
14.18137029154751
  1
訂購代號:
  7
CHINESET
100
AcDbText
  0
LINE
  5
E3E
330
1F
100
AcDbEntity
  8
LOGO
 62
     1
100
AcDbLine
 10
2459.621935815399
 20
820.7207609140857
 30
0.0
 11
1484.511535815398
 21
820.7207609140857
 31
0.0
  0
LINE
  5
E3F
330
1F
100
AcDbEntity
  8
LOGO
 62
     1
100
AcDbLine
 10
1640.506609022421
 20
749.8139094563477
 30
0.0
 11
1640.506609022421
 21
820.7207609140857
 31
0.0
  0
TEXT
  5
E40
330
1F
100
AcDbEntity
  8
LOGO
  6
Continuous
 62
     5
100
AcDbText
 10
1509.981595591482
 20
763.7434534174513
 30
0.0
 40
10.63602771866063
  1
金器工業股份有限公司
  7
CHINESET
100
AcDbText
  0
TEXT
  5
E41
330
1F
100
AcDbEntity
  8
LOGO
  6
Continuous
 62
     5
100
AcDbText
 10
1490.445316906616
 20
753.1053418712547
 30
0.0
 40
7.090685145773753
  1
MINDMAN INDUSTRIAL CO., LTD.
 41
0.85
  7
CHINESET
100
AcDbText
  0
LINE
  5
E42
330
1F
100
AcDbEntity
  8
LOGO
 62
     1
100
AcDbLine
 10
1640.506609022421
 20
806.5393906225381
 30
0.0
 11
1536.509893551072
 21
806.5393906225381
 31
0.0
  0
LINE
  5
E43
330
1F
100
AcDbEntity
  8
LOGO
 62
     1
100
AcDbLine
 10
1640.506609022421
 20
792.3580203309906
 30
0.0
 11
1536.509893551072
 21
792.3580203309906
 31
0.0
  0
LINE
  5
E44
330
1F
100
AcDbEntity
  8
LOGO
 62
     1
100
AcDbLine
 10
1640.506609022421
 20
778.1766500394436
 30
0.0
 11
1484.511535815398
 21
778.1766500394436
 31
0.0
  0
LINE
  5
E45
330
1F
100
AcDbEntity
  8
LOGO
 62
     1
100
AcDbLine
 10
1536.509893551072
 20
778.1766500394436
 30
0.0
 11
1536.509893551072
 21
820.7207609140857
 31
0.0
  0
TEXT
  5
E46
330
1F
100
AcDbEntity
  8
LOGO
 62
     6
100
AcDbText
 10
1603.872571595845
 20
781.7219926123295
 30
0.0
 40
7.090685145773753
  1
m/m
  7
CHINESET
 72
     1
 11
1616.365683519351
 21
785.2673351852164
 31
0.0
100
AcDbText
 73
     2
  0
TEXT
  5
E47
330
1F
100
AcDbEntity
  8
LOGO
 62
     6
100
AcDbText
 10
1603.872571595845
 20
810.0847331954247
 30
0.0
 40
7.090685145773753
  1
1 : 1
  7
CHINESET
 72
     1
 11
1616.365683519351
 21
813.6300757683114
 31
0.0
100
AcDbText
 73
     2
  0
LINE
  5
E48
330
1F
100
AcDbEntity
  8
LOGO
 62
     1
100
AcDbLine
 10
1593.235374717262
 20
778.1766500394436
 30
0.0
 11
1593.235374717262
 21
820.7207609140857
 31
0.0
  0
CIRCLE
  5
E49
330
1F
100
AcDbEntity
  8
LOGO
  6
Continuous
 62
     6
100
AcDbCircle
 10
1606.36466515354
 20
799.4638725041796
 30
0.0
 40
4.117018691550993
  0
CIRCLE
  5
E4A
330
1F
100
AcDbEntity
  8
LOGO
  6
Continuous
 62
     6
100
AcDbCircle
 10
1606.36466515354
 20
799.4638725041796
 30
0.0
 40
2.412208494204719
  0
LINE
  5
E4B
330
1F
100
AcDbEntity
  8
LOGO
 62
     6
100
AcDbLine
 10
1632.236488329894
 20
795.3468538126277
 30
0.0
 11
1632.236488329894
 21
803.5808911957312
 31
0.0
  0
LINE
  5
E4C
330
1F
100
AcDbEntity
  8
LOGO
 62
     6
100
AcDbLine
 10
1619.329871060031
 20
797.0516640099753
 30
0.0
 11
1619.329871060031
 21
801.8760809983849
 31
0.0
  0
LINE
  5
E4D
330
1F
100
AcDbEntity
  8
LOGO
  6
Continuous
 62
     6
100
AcDbLine
 10
1619.329871060031
 20
801.8760809983849
 30
0.0
 11
1632.236488329894
 21
803.5808911957312
 31
0.0
  0
LINE
  5
E4E
330
1F
100
AcDbEntity
  8
LOGO
  6
Continuous
 62
     6
100
AcDbLine
 10
1619.329871060031
 20
797.0516640099753
 30
0.0
 11
1632.236488329894
 21
795.3468538126277
 31
0.0
  0
TEXT
  5
E59
330
1F
100
AcDbEntity
  8
LOGO
 62
     6
100
AcDbText
 10
1542.356543311895
 20
810.088222705831
 30
464.711823232627
 40
7.090685145773753
  1
比例 Scale:
 41
0.9
  7
CHINESET
 72
     4
 11
1564.872634134167
 21
813.6300757683114
 31
464.711823232627
100
AcDbText
  0
TEXT
  5
E5A
330
1F
100
AcDbEntity
  8
LOGO
 62
     6
100
AcDbText
 10
1544.835117628476
 20
796.003104742993
 30
464.711823232627
 40
7.090685145773753
  1
投影 View:
 41
0.9
  7
CHINESET
 72
     4
 11
1564.872634134167
 21
799.4487054767639
 31
464.711823232627
100
AcDbText
  0
TEXT
  5
E5B
330
1F
100
AcDbEntity
  8
LOGO
 62
     6
100
AcDbText
 10
1545.528358720853
 20
781.7219926123295
 30
464.711823232627
 40
7.090685145773753
  1
單位 Unit:
 41
0.9
  7
CHINESET
 72
     4
 11
1564.872634134167
 21
785.2673351852164
 31
464.711823232627
100
AcDbText
  0
LWPOLYLINE
  5
E5E
330
1F
100
AcDbEntity
  8
0
 62
     4
100
AcDbPolyline
 90
        4
 70
     1
 43
0.0
 10
1484.511535815398
 20
820.7207609140857
 10
2459.621935815399
 20
820.7207609140857
 10
2459.621935815399
 20
1370.658016136519
 10
1484.511535815398
 20
1370.658016136519
1001
GENIUS_GENREC_14
1002
{
1000
PYDIR
1011
1484.511535815398
1021
1370.658016136519
1031
0.0
1002
}
1002
{
1000
PXDIR
1011
2459.621935815399
1021
820.7207609140857
1031
0.0
1002
}
1002
{
1000
PORI
1011
1484.511535815398
1021
820.7207609140857
1031
0.0
1002
}
1002
{
1000
PINS
1011
1484.511535815398
1021
820.7207609140857
1031
0.0
1002
}
1002
{
1000
PINS2
1011
2459.621935815399
1021
1370.658016136519
1031
0.0
1002
}
1002
{
1000
C
1070
     1
1002
}
1001
GENIUS_GENODEF_13
1002
{
1000
HIER
1070
     0
1002
}
1002
{
1000
MANEDIT
1070
     0
1002
}
1002
{
1000
NOSEL
1070
     0
1002
}
1002
{
1000
BEHIND
1070
     0
1002
}
1002
{
1000
OTHER
1070
     0
1002
}
1002
{
1000
REACTOR
1002
}
1001
GENIUS_GENOBJ-N-REC_13
1002
{
1000
OWNER
1000
GEN
1002
}
  0
SOLID
  5
E5F
330
1F
100
AcDbEntity
  8
LOGO
 62
     5
100
AcDbTrace
 10
1491.868235450979
 20
789.9639048147377
 30
0.0
 11
1494.934061648433
 21
789.9639048147369
 31
0.0
 12
1507.72595716195
 22
819.0363946181847
 32
0.0
 13
1510.791783359405
 23
819.0363946181831
 33
0.0
  0
SOLID
  5
E60
330
1F
100
AcDbEntity
  8
LOGO
 62
     5
100
AcDbTrace
 10
1496.202679385314
 20
789.9639048147377
 30
0.0
 11
1499.268505582768
 21
789.9639048147377
 31
0.0
 12
1510.791783359405
 22
816.7105954339078
 32
0.0
 13
1507.72595716195
 23
805.4692327099081
 33
0.0
  0
SOLID
  5
E61
330
1F
100
AcDbEntity
  8
LOGO
 62
     2
100
AcDbTrace
 10
1494.934061648433
 20
789.9639048147369
 30
0.0
 11
1496.202679385314
 21
789.9639048147377
 31
0.0
 12
1510.791783359405
 22
819.0363946181831
 32
0.0
 13
1512.060401096285
 23
819.0363946181831
 33
0.0
  0
SOLID
  5
E62
330
1F
100
AcDbEntity
  8
LOGO
 62
     5
100
AcDbTrace
 10
1486.952964223782
 20
779.3920903407579
 30
0.0
 11
1488.010145671181
 21
779.3920903407579
 31
0.0
 12
1490.987250911481
 22
784.6779975777474
 32
0.0
 13
1492.044432358878
 23
784.6779975777474
 33
0.0
  0
SOLID
  5
E63
330
1F
100
AcDbEntity
  8
LOGO
 62
     5
100
AcDbTrace
 10
1490.987250911481
 20
784.6779975777474
 30
0.0
 11
1492.044432358878
 21
784.6779975777474
 31
0.0
 12
1490.987250911481
 22
779.3920903407579
 32
0.0
 13
1492.044432358878
 23
779.3920903407579
 33
0.0
  0
SOLID
  5
E64
330
1F
100
AcDbEntity
  8
LOGO
 62
     5
100
AcDbTrace
 10
1490.987250911481
 20
779.3920903407579
 30
0.0
 11
1492.044432358878
 21
779.3920903407579
 31
0.0
 12
1495.021537599183
 22
784.6779975777474
 32
0.0
 13
1496.078719046581
 23
784.6779975777474
 33
0.0
  0
SOLID
  5
E65
330
1F
100
AcDbEntity
  8
LOGO
 62
     5
100
AcDbTrace
 10
1495.021537599183
 20
784.6779975777474
 30
0.0
 11
1496.078719046581
 21
784.6779975777474
 31
0.0
 12
1495.021537599183
 22
779.3920903407579
 32
0.0
 13
1496.078719046581
 23
779.3920903407579
 33
0.0
  0
POLYLINE
  5
E66
330
1F
100
AcDbEntity
  8
LOGO
 62
     5
100
AcDb2dPolyline
 66
     1
 10
0.0
 20
0.0
 30
0.0
 40
1.058875648435547
 41
1.058875648435547
  0
VERTEX
  5
E67
330
E66
100
AcDbEntity
  8
LOGO
 62
     5
100
AcDbVertex
100
AcDb2dVertex
 10
1530.457899582567
 20
782.5636346829514
 30
0.0
 42
1.0
  0
VERTEX
  5
E68
330
E66
100
AcDbEntity
  8
LOGO
 62
     5
100
AcDbVertex
100
AcDb2dVertex
 10
1527.281272637259
 20
782.5636346829514
 30
0.0
 42
1.0
  0
SEQEND
  5
E69
330
E66
100
AcDbEntity
  8
LOGO
 62
     5
  0
POLYLINE
  5
E6A
330
1F
100
AcDbEntity
  8
LOGO
 62
     5
100
AcDb2dPolyline
 66
     1
 10
0.0
 20
0.0
 30
0.0
 70
     1
  0
VERTEX
  5
E6B
330
E6A
100
AcDbEntity
  8
LOGO
 62
     5
100
AcDbVertex
100
AcDb2dVertex
 10
1521.293189548988
 20
782.035043959252
 30
0.0
 42
1.000000057330635
  0
VERTEX
  5
E6C
330
E6A
100
AcDbEntity
  8
LOGO
 62
     5
100
AcDbVertex
100
AcDb2dVertex
 10
1524.464733891182
 20
782.035043959252
 30
0.0
 42
1.000000057330635
  0
SEQEND
  5
E6D
330
E6A
100
AcDbEntity
  8
LOGO
 62
     5
  0
CIRCLE
  5
E6E
330
1F
100
AcDbEntity
  8
LOGO
 62
     5
100
AcDbCircle
 10
1522.878961720087
 20
782.035043959252
 30
0.0
 40
1.585772171097075
  0
POLYLINE
  5
E6F
330
1F
100
AcDbEntity
  8
LOGO
 62
     5
100
AcDb2dPolyline
 66
     1
 10
0.0
 20
0.0
 30
0.0
 70
     1
 40
1.058875648435547
 41
1.058875648435547
  0
VERTEX
  5
E70
330
E6F
100
AcDbEntity
  8
LOGO
 62
     5
100
AcDbVertex
100
AcDb2dVertex
 10
1520.761210423215
 20
782.035043959252
 30
0.0
 42
1.0
  0
VERTEX
  5
E71
330
E6F
100
AcDbEntity
  8
LOGO
 62
     5
100
AcDbVertex
100
AcDb2dVertex
 10
1524.996713016957
 20
782.035043959252
 30
0.0
 42
1.0
  0
SEQEND
  5
E72
330
E6F
100
AcDbEntity
  8
LOGO
 62
     5
  0
LINE
  5
E73
330
1F
100
AcDbEntity
  8
LOGO
 62
     5
100
AcDbLine
 10
1530.983949004707
 20
779.3920903407579
 30
0.0
 11
1530.983949004707
 21
782.5636346829514
 31
0.0
  0
SOLID
  5
E74
330
1F
100
AcDbEntity
  8
LOGO
 62
     5
100
AcDbTrace
 10
1524.464628173042
 20
784.6779975777474
 30
0.0
 11
1525.521809620438
 21
784.6779975777474
 31
0.0
 12
1524.464628173042
 22
779.3920903407579
 32
0.0
 13
1525.521809620438
 23
779.3920903407579
 33
0.0
  0
SOLID
  5
E75
330
1F
100
AcDbEntity
  8
LOGO
 62
     5
100
AcDbTrace
 10
1526.755223215115
 20
779.3920903407579
 30
0.0
 11
1527.812404662514
 21
779.3920903407579
 31
0.0
 12
1526.755223215115
 22
784.6779975777474
 32
0.0
 13
1527.812404662514
 23
784.6779975777474
 33
0.0
  0
SOLID
  5
E76
330
1F
100
AcDbEntity
  8
LOGO
 62
     5
100
AcDbTrace
 10
1529.926767557311
 20
782.5636346829514
 30
0.0
 11
1530.983949004707
 21
782.5636346829514
 31
0.0
 12
1529.926767557311
 22
779.3920903407579
 32
0.0
 13
1530.983949004707
 23
779.3920903407579
 33
0.0
  0
SOLID
  5
E77
330
1F
100
AcDbEntity
  8
LOGO
 62
     5
100
AcDbTrace
 10
1526.649505070375
 20
816.7105954339078
 30
0.0
 11
1523.583678872922
 21
805.4692327099081
 31
0.0
 12
1526.649505070375
 22
789.9639048147369
 32
0.0
 13
1523.583678872922
 23
789.9639048147369
 33
0.0
  0
SOLID
  5
E78
330
1F
100
AcDbEntity
  8
LOGO
 62
     5
100
AcDbTrace
 10
1527.918122807254
 20
789.9639048147369
 30
0.0
 11
1530.983949004707
 21
789.9639048147369
 31
0.0
 12
1527.918122807254
 22
819.0363946181831
 32
0.0
 13
1530.983949004707
 23
819.0363946181847
 33
0.0
  0
SOLID
  5
E79
330
1F
100
AcDbEntity
  8
LOGO
 62
     2
100
AcDbTrace
 10
1526.649505070375
 20
819.0363946181847
 30
0.0
 11
1527.918122807254
 21
819.0363946181831
 31
0.0
 12
1526.649505070375
 22
789.9639048147369
 32
0.0
 13
1527.918122807254
 23
789.9639048147369
 33
0.0
  0
POLYLINE
  5
E7A
330
1F
100
AcDbEntity
  8
LOGO
 62
     5
100
AcDb2dPolyline
 66
     1
 10
0.0
 20
0.0
 30
0.0
 40
1.058875648435547
 41
1.058875648435547
  0
VERTEX
  5
E7B
330
E7A
100
AcDbEntity
  8
LOGO
 62
     5
100
AcDbVertex
100
AcDb2dVertex
 10
1515.304895024431
 20
782.5636346829514
 30
0.0
 42
1.0
  0
VERTEX
  5
E7C
330
E7A
100
AcDbEntity
  8
LOGO
 62
     5
100
AcDbVertex
100
AcDb2dVertex
 10
1512.128268079124
 20
782.5636346829514
 30
0.0
 42
1.0
  0
SEQEND
  5
E7D
330
E7A
100
AcDbEntity
  8
LOGO
 62
     5
  0
POLYLINE
  5
E7E
330
1F
100
AcDbEntity
  8
LOGO
 62
     5
100
AcDb2dPolyline
 66
     1
 10
0.0
 20
0.0
 30
0.0
 40
1.058875648435547
 41
1.058875648435547
  0
VERTEX
  5
E7F
330
E7E
100
AcDbEntity
  8
LOGO
 62
     5
100
AcDbVertex
100
AcDb2dVertex
 10
1518.476439366623
 20
782.5636346829514
 30
0.0
 42
1.0
  0
VERTEX
  5
E80
330
E7E
100
AcDbEntity
  8
LOGO
 62
     5
100
AcDbVertex
100
AcDb2dVertex
 10
1515.299812421317
 20
782.5636346829514
 30
0.0
 42
1.0
  0
SEQEND
  5
E81
330
E7E
100
AcDbEntity
  8
LOGO
 62
     5
  0
POLYLINE
  5
E82
330
1F
100
AcDbEntity
  8
LOGO
 62
     5
100
AcDb2dPolyline
 66
     1
 10
0.0
 20
0.0
 30
0.0
 40
1.058875648435547
 41
1.058875648435547
  0
VERTEX
  5
E83
330
E82
100
AcDbEntity
  8
LOGO
 62
     5
100
AcDbVertex
100
AcDb2dVertex
 10
1503.323434808488
 20
782.5636346829514
 30
0.0
 42
1.0
  0
VERTEX
  5
E84
330
E82
100
AcDbEntity
  8
LOGO
 62
     5
100
AcDbVertex
100
AcDb2dVertex
 10
1500.146807863182
 20
782.5636346829514
 30
0.0
 42
1.0
  0
SEQEND
  5
E85
330
E82
100
AcDbEntity
  8
LOGO
 62
     5
  0
SOLID
  5
E86
330
1F
100
AcDbEntity
  8
LOGO
 62
     5
100
AcDbTrace
 10
1499.62075844104
 20
784.6779975777474
 30
0.0
 11
1500.677939888436
 21
784.6779975777474
 31
0.0
 12
1499.62075844104
 22
779.3920903407579
 32
0.0
 13
1500.677939888436
 23
779.3920903407579
 33
0.0
  0
SOLID
  5
E87
330
1F
100
AcDbEntity
  8
LOGO
 62
     5
100
AcDbTrace
 10
1502.792302783234
 20
782.5636346829514
 30
0.0
 11
1503.849484230633
 21
782.5636346829514
 31
0.0
 12
1502.792302783234
 22
779.3920903407579
 32
0.0
 13
1503.849484230633
 23
779.3920903407579
 33
0.0
  0
POLYLINE
  5
E88
330
1F
100
AcDbEntity
  8
LOGO
 62
     5
100
AcDb2dPolyline
 66
     1
 10
0.0
 20
0.0
 30
0.0
 70
     1
 40
1.058875648435547
 41
1.058875648435547
  0
VERTEX
  5
E89
330
E88
100
AcDbEntity
  8
LOGO
 62
     5
100
AcDbVertex
100
AcDb2dVertex
 10
1505.608205865078
 20
782.035043959252
 30
0.0
 42
1.0
  0
VERTEX
  5
E8A
330
E88
100
AcDbEntity
  8
LOGO
 62
     5
100
AcDbVertex
100
AcDb2dVertex
 10
1509.843708458822
 20
782.035043959252
 30
0.0
 42
1.0
  0
SEQEND
  5
E8B
330
E88
100
AcDbEntity
  8
LOGO
 62
     5
  0
SOLID
  5
E8C
330
1F
100
AcDbEntity
  8
LOGO
 62
     5
100
AcDbTrace
 10
1509.311623614904
 20
786.2637697488451
 30
0.0
 11
1510.368805062302
 21
786.2637697488451
 31
0.0
 12
1509.311623614904
 22
779.3920903407579
 32
0.0
 13
1510.368805062302
 23
779.3920903407579
 33
0.0
  0
SOLID
  5
E8D
330
1F
100
AcDbEntity
  8
LOGO
 62
     5
100
AcDbTrace
 10
1511.602218656983
 20
784.6779975777474
 30
0.0
 11
1512.659400104379
 21
784.6779975777474
 31
0.0
 12
1511.602218656983
 22
779.3920903407579
 32
0.0
 13
1512.659400104379
 23
779.3920903407579
 33
0.0
  0
SOLID
  5
E8E
330
1F
100
AcDbEntity
  8
LOGO
 62
     5
100
AcDbTrace
 10
1514.773762999175
 20
782.5636346829514
 30
0.0
 11
1515.830944446574
 21
782.5636346829514
 31
0.0
 12
1514.773762999175
 22
779.3920903407579
 32
0.0
 13
1515.830944446574
 23
779.3920903407579
 33
0.0
  0
SOLID
  5
E8F
330
1F
100
AcDbEntity
  8
LOGO
 62
     5
100
AcDbTrace
 10
1517.945307341369
 20
782.5636346829514
 30
0.0
 11
1519.002488788767
 21
782.5636346829514
 31
0.0
 12
1517.945307341369
 22
779.3920903407563
 32
0.0
 13
1519.002488788767
 23
779.3920903407563
 33
0.0
  0
SOLID
  5
E90
330
1F
100
AcDbEntity
  8
LOGO
 62
     5
100
AcDbTrace
 10
1497.330163398961
 20
785.4180245909262
 30
0.0
 11
1498.387344846362
 21
785.4180245909262
 31
0.0
 12
1497.330163398961
 22
786.2637697488451
 32
0.0
 13
1498.387344846362
 23
786.2637697488451
 33
0.0
  0
SOLID
  5
E91
330
1F
100
AcDbEntity
  8
LOGO
 62
     5
100
AcDbTrace
 10
1497.330163398961
 20
784.6779975777474
 30
0.0
 11
1498.387344846362
 21
784.6779975777474
 31
0.0
 12
1497.330163398961
 22
779.3920903407563
 32
0.0
 13
1498.387344846362
 23
779.3920903407579
 33
0.0
  0
SOLID
  5
E92
330
1F
100
AcDbEntity
  8
LOGO
 62
     5
100
AcDbTrace
 10
1507.72595716195
 20
789.9639048147377
 30
0.0
 11
1510.791783359405
 21
789.9639048147377
 31
0.0
 12
1507.72595716195
 22
805.4692327099081
 32
0.0
 13
1510.791783359405
 23
816.7105954339078
 33
0.0
  0
SOLID
  5
E93
330
1F
100
AcDbEntity
  8
LOGO
 62
     5
100
AcDbTrace
 10
1512.060401096285
 20
819.0363946181831
 30
0.0
 11
1515.126227293737
 21
819.0363946181847
 31
0.0
 12
1512.060401096285
 22
792.2897039990129
 32
0.0
 13
1515.126227293737
 23
803.5310667230126
 33
0.0
  0
SOLID
  5
E94
330
1F
100
AcDbEntity
  8
LOGO
 62
     2
100
AcDbTrace
 10
1510.791783359405
 20
819.0363946181831
 30
0.0
 11
1512.060401096285
 21
819.0363946181831
 31
0.0
 12
1510.791783359405
 22
789.9639048147377
 32
0.0
 13
1512.060401096285
 23
789.9639048147377
 33
0.0
  0
SOLID
  5
E95
330
1F
100
AcDbEntity
  8
LOGO
 62
     5
100
AcDbTrace
 10
1512.060401096285
 20
792.2897039990129
 30
0.0
 11
1515.126227293737
 21
803.5310667230126
 31
0.0
 12
1526.649505070375
 22
819.0363946181847
 32
0.0
 13
1523.583678872922
 23
819.0363946181847
 33
0.0
  0
SOLID
  5
E96
330
1F
100
AcDbEntity
  8
LOGO
 62
     5
100
AcDbTrace
 10
1512.060401096285
 20
789.9639048147377
 30
0.0
 11
1515.126227293737
 21
789.9639048147377
 31
0.0
 12
1526.649505070375
 22
816.7105954339078
 32
0.0
 13
1523.583678872922
 23
805.4692327099081
 33
0.0
  0
SOLID
  5
E97
330
1F
100
AcDbEntity
  8
LOGO
 62
     2
100
AcDbTrace
 10
1510.791783359405
 20
789.9639048147377
 30
0.0
 11
1512.060401096285
 21
789.9639048147377
 31
0.0
 12
1526.649505070375
 22
819.0363946181847
 32
0.0
 13
1527.918122807254
 23
819.0363946181831
 33
0.0
  0
LWPOLYLINE
  5
E9B
330
1F
100
AcDbEntity
  8
0
 62
     1
100
AcDbPolyline
 90
        4
 70
     1
 43
0.0
 10
1484.511535815398
 20
820.7207609140857
 10
2459.621935815399
 20
820.7207609140857
 10
2459.621935815399
 20
749.8139094563466
 10
1484.511535815398
 20
749.8139094563466
1001
GENIUS_GENREC_14
1002
{
1000
PYDIR
1011
1484.511535815398
1021
749.8139094563466
1031
0.0
1002
}
1002
{
1000
PXDIR
1011
2459.621935815399
1021
820.7207609140857
1031
0.0
1002
}
1002
{
1000
PORI
1011
1484.511535815398
1021
820.7207609140857
1031
0.0
1002
}
1002
{
1000
PINS
1011
1484.511535815398
1021
820.7207609140857
1031
0.0
1002
}
1002
{
1000
PINS2
1011
2459.621935815399
1021
749.8139094563466
1031
0.0
1002
}
1002
{
1000
C
1070
     1
1002
}
1001
GENIUS_GENOBJ-N-REC_13
1002
{
1000
OWNER
1000
GEN
1002
}
1001
GENIUS_GENODEF_13
1002
{
1000
HIER
1070
     0
1002
}
1002
{
1000
MANEDIT
1070
     0
1002
}
1002
{
1000
NOSEL
1070
     0
1002
}
1002
{
1000
BEHIND
1070
     0
1002
}
1002
{
1000
OTHER
1070
     0
1002
}
1002
{
1000
REACTOR
1002
}
  0
LINE
  5
ED2
330
1F
100
AcDbEntity
  8
LOGO
 62
     6
100
AcDbLine
 10
1785.307070501872
 20
781.7219926123306
 30
0.0
 11
1785.307070501872
 21
755.7228137444923
 31
0.0
  0
LINE
  5
ED3
330
1F
100
AcDbEntity
  8
LOGO
 62
     6
100
AcDbLine
 10
1738.035836196713
 20
781.7219926123306
 30
0.0
 11
1738.035836196713
 21
755.7228137444923
 31
0.0
  0
LINE
  5
ED4
330
1F
100
AcDbEntity
  8
LOGO
 62
     6
100
AcDbLine
 10
1785.307070501872
 20
755.7228137444923
 30
0.0
 11
1738.035836196713
 21
755.7228137444923
 31
0.0
  0
LINE
  5
ED5
330
1F
100
AcDbEntity
  8
LOGO
 62
     6
100
AcDbLine
 10
1793.297406645459
 20
813.6300757683114
 30
0.0
 11
1738.035836196713
 21
813.6300757683114
 31
0.0
  0
LINE
  5
ED6
330
1F
100
AcDbEntity
  8
LOGO
 62
     6
100
AcDbLine
 10
1793.297406645459
 20
792.3580203309906
 30
0.0
 11
1738.035836196713
 21
792.3580203309906
 31
0.0
  0
LINE
  5
ED7
330
1F
100
AcDbEntity
  8
LOGO
 62
     6
100
AcDbLine
 10
1738.035836196713
 20
813.6300757683114
 30
0.0
 11
1738.035836196713
 21
792.3580203309906
 31
0.0
  0
LINE
  5
ED8
330
1F
100
AcDbEntity
  8
LOGO
 62
     6
100
AcDbLine
 10
1793.297406645459
 20
813.6300757683114
 30
0.0
 11
1793.297406645459
 21
792.3580203309906
 31
0.0
  0
LINE
  5
ED9
330
1F
100
AcDbEntity
  8
LOGO
 62
     6
100
AcDbLine
 10
1764.137824473248
 20
792.3580203309906
 30
0.0
 11
1764.137824473248
 21
781.7219926123306
 31
0.0
  0
TEXT
  5
EDA
330
1F
100
AcDbEntity
  8
LOGO
  6
Continuous
 62
     7
100
AcDbText
 10
1741.815547297665
 20
796.7985308037892
 30
0.0
 40
12.410496
  1
MCGD
  7
CHINESET
100
AcDbText
  0
LINE
  5
EDB
330
1F
100
AcDbEntity
  8
LOGO
 62
     6
100
AcDbLine
 10
1785.307070501872
 20
781.7219926123306
 30
0.0
 11
1738.035836196713
 21
781.7219926123306
 31
0.0
  0
TEXT
  5
EDC
330
1F
100
AcDbEntity
  8
LOGO
  6
Continuous
 62
     6
100
AcDbText
 10
1750.88147045723
 20
759.3925427091479
 30
464.711823232627
 40
5.318783999999999
  1
Model
  7
CHINESET
100
AcDbText
  0
TEXT
  5
EDD
330
1F
100
AcDbEntity
  8
LOGO
 62
     6
100
AcDbText
 10
1751.789338229022
 20
769.2524219653839
 30
464.711823232627
 40
8.864639999999997
  1
型號
  7
CHINESET
100
AcDbText
  0
LINE
  5
EDE
330
1F
100
AcDbEntity
  8
LOGO
  6
Continuous
 62
     7
100
AcDbLine
 10
1796.615301364974
 20
802.918699067513
 30
0.0
 11
1806.008264863281
 21
802.918699067513
 31
0.0
  0
LINE
  5
EDF
330
1F
100
AcDbEntity
  8
LOGO
 62
     6
100
AcDbLine
 10
1856.916831785615
 20
781.7219926123306
 30
0.0
 11
1856.916831785615
 21
755.7228137444923
 31
0.0
  0
LINE
  5
EE0
330
1F
100
AcDbEntity
  8
LOGO
 62
     6
100
AcDbLine
 10
1795.885054099254
 20
781.7219926123306
 30
0.0
 11
1795.885054099254
 21
755.7228137444923
 31
0.0
  0
LINE
  5
EE1
330
1F
100
AcDbEntity
  8
LOGO
 62
     6
100
AcDbLine
 10
1856.916831785615
 20
755.7228137444923
 30
0.0
 11
1795.885054099254
 21
755.7228137444923
 31
0.0
  0
LINE
  5
EE2
330
1F
100
AcDbEntity
  8
LOGO
 62
     6
100
AcDbLine
 10
1871.590346770597
 20
813.6300757683114
 30
0.0
 11
1808.971249714343
 21
813.6300757683114
 31
0.0
  0
LINE
  5
EE3
330
1F
100
AcDbEntity
  8
LOGO
 62
     6
100
AcDbLine
 10
1871.590346770597
 20
792.3580203309906
 30
0.0
 11
1808.971249714343
 21
792.3580203309906
 31
0.0
  0
LINE
  5
EE4
330
1F
100
AcDbEntity
  8
LOGO
 62
     6
100
AcDbLine
 10
1808.971249714343
 20
813.6300757683114
 30
0.0
 11
1808.971249714343
 21
792.3580203309906
 31
0.0
  0
LINE
  5
EE5
330
1F
100
AcDbEntity
  8
LOGO
 62
     6
100
AcDbLine
 10
1871.590346770597
 20
813.6300757683114
 30
0.0
 11
1871.590346770597
 21
792.3580203309906
 31
0.0
  0
LINE
  5
EE6
330
1F
100
AcDbEntity
  8
LOGO
 62
     6
100
AcDbLine
 10
1837.077799883726
 20
792.3580203309906
 30
0.0
 11
1837.077799883726
 21
781.7219926123306
 31
0.0
  0
TEXT
  5
EE7
330
1F
100
AcDbEntity
  8
LOGO
  6
Continuous
 62
     7
100
AcDbText
 10
1812.429167419242
 20
796.7985308037892
 30
0.0
 40
12.410496
  1
03/23
  7
CHINESET
100
AcDbText
  0
LINE
  5
EE8
330
1F
100
AcDbEntity
  8
LOGO
 62
     6
100
AcDbLine
 10
1856.916831785615
 20
781.7219926123306
 30
0.0
 11
1795.885054099254
 21
781.7219926123306
 31
0.0
  0
LINE
  5
EE9
330
1F
100
AcDbEntity
  8
LOGO
  6
Continuous
 62
     7
100
AcDbLine
 10
1876.562194368954
 20
802.918699067513
 30
0.0
 11
1885.955157867261
 21
802.918699067513
 31
0.0
  0
LINE
  5
EEA
330
1F
100
AcDbEntity
  8
LOGO
 62
     6
100
AcDbLine
 10
1919.889327094668
 20
781.7219926123306
 30
0.0
 11
1919.889327094668
 21
755.7228137444923
 31
0.0
  0
LINE
  5
EEB
330
1F
100
AcDbEntity
  8
LOGO
 62
     6
100
AcDbLine
 10
1872.618092789509
 20
781.7219926123306
 30
0.0
 11
1872.618092789509
 21
755.7228137444923
 31
0.0
  0
LINE
  5
EEC
330
1F
100
AcDbEntity
  8
LOGO
 62
     6
100
AcDbLine
 10
1919.889327094668
 20
755.7228137444923
 30
0.0
 11
1872.618092789509
 21
755.7228137444923
 31
0.0
  0
LINE
  5
EED
330
1F
100
AcDbEntity
  8
LOGO
 62
     6
100
AcDbLine
 10
1915.742404400103
 20
813.6300757683114
 30
0.0
 11
1890.021181054282
 21
813.6300757683114
 31
0.0
  0
LINE
  5
EEE
330
1F
100
AcDbEntity
  8
LOGO
 62
     6
100
AcDbLine
 10
1915.742404400103
 20
792.3580203309906
 30
0.0
 11
1890.021181054282
 21
792.3580203309906
 31
0.0
  0
LINE
  5
EEF
330
1F
100
AcDbEntity
  8
LOGO
 62
     6
100
AcDbLine
 10
1890.021181054282
 20
813.6300757683114
 30
0.0
 11
1890.021181054282
 21
792.3580203309906
 31
0.0
  0
LINE
  5
EF0
330
1F
100
AcDbEntity
  8
LOGO
 62
     6
100
AcDbLine
 10
1915.742404400103
 20
813.6300757683114
 30
0.0
 11
1915.742404400103
 21
792.3580203309906
 31
0.0
  0
LINE
  5
EF1
330
1F
100
AcDbEntity
  8
LOGO
 62
     6
100
AcDbLine
 10
1902.881792727192
 20
792.3580203309906
 30
0.0
 11
1902.881792727192
 21
781.7219926123306
 31
0.0
  0
TEXT
  5
EF2
330
1F
100
AcDbEntity
  8
LOGO
  6
Continuous
 62
     7
100
AcDbText
 10
1892.852434751551
 20
796.7985308037892
 30
0.0
 40
12.410496
  1
32
  7
CHINESET
100
AcDbText
  0
LINE
  5
EF3
330
1F
100
AcDbEntity
  8
LOGO
 62
     6
100
AcDbLine
 10
1919.889327094668
 20
781.7219926123306
 30
0.0
 11
1872.618092789509
 21
781.7219926123306
 31
0.0
  0
LINE
  5
EF4
330
1F
100
AcDbEntity
  8
LOGO
  6
Continuous
 62
     7
100
AcDbLine
 10
1921.0136182702
 20
802.918699067513
 30
0.0
 11
1930.406581768509
 21
802.918699067513
 31
0.0
  0
LINE
  5
EF5
330
1F
100
AcDbEntity
  8
LOGO
 62
     6
100
AcDbLine
 10
1962.858371179067
 20
781.7219926123306
 30
0.0
 11
1962.858371179067
 21
755.7228137444923
 31
0.0
  0
LINE
  5
EF6
330
1F
100
AcDbEntity
  8
LOGO
 62
     6
100
AcDbLine
 10
1924.348414804551
 20
781.7219926123306
 30
0.0
 11
1924.348414804551
 21
755.7228137444923
 31
0.0
  0
LINE
  5
EF7
330
1F
100
AcDbEntity
  8
LOGO
 62
     6
100
AcDbLine
 10
1962.858371179067
 20
755.7228137444923
 30
0.0
 11
1924.348414804551
 21
755.7228137444923
 31
0.0
  0
LINE
  5
EF8
330
1F
100
AcDbEntity
  8
LOGO
 62
     6
100
AcDbLine
 10
1959.27677894797
 20
813.6300757683114
 30
0.0
 11
1933.369566619569
 21
813.6300757683114
 31
0.0
  0
LINE
  5
EF9
330
1F
100
AcDbEntity
  8
LOGO
 62
     6
100
AcDbLine
 10
1959.27677894797
 20
792.3580203309906
 30
0.0
 11
1933.369566619569
 21
792.3580203309906
 31
0.0
  0
LINE
  5
EFA
330
1F
100
AcDbEntity
  8
LOGO
 62
     6
100
AcDbLine
 10
1933.369566619569
 20
813.6300757683114
 30
0.0
 11
1933.369566619569
 21
792.3580203309906
 31
0.0
  0
LINE
  5
EFB
330
1F
100
AcDbEntity
  8
LOGO
 62
     6
100
AcDbLine
 10
1959.27677894797
 20
813.6300757683114
 30
0.0
 11
1959.27677894797
 21
792.3580203309906
 31
0.0
  0
LINE
  5
EFC
330
1F
100
AcDbEntity
  8
LOGO
 62
     6
100
AcDbLine
 10
1946.32317278377
 20
792.3580203309906
 30
0.0
 11
1946.32317278377
 21
781.7219926123306
 31
0.0
  0
TEXT
  5
EFD
330
1F
100
AcDbEntity
  8
LOGO
  6
Continuous
 62
     7
100
AcDbText
 10
1936.086422052176
 20
796.7985308037892
 30
0.0
 40
12.410496
  1
30
  7
CHINESET
100
AcDbText
  0
LINE
  5
EFE
330
1F
100
AcDbEntity
  8
LOGO
 62
     6
100
AcDbLine
 10
1962.858371179067
 20
781.7219926123306
 30
0.0
 11
1924.348414804551
 21
781.7219926123306
 31
0.0
  0
TEXT
  5
EFF
330
1F
100
AcDbEntity
  8
LOGO
  6
Continuous
 62
     6
100
AcDbText
 10
1800.998223924424
 20
759.3925427091479
 30
464.711823232627
 40
5.318783999999999
  1
Acting type
  7
CHINESET
100
AcDbText
  0
TEXT
  5
F00
330
1F
100
AcDbEntity
  8
LOGO
 62
     6
100
AcDbText
 10
1804.62208809597
 20
769.2524219653839
 30
464.711823232627
 40
8.864639999999997
  1
作動型式
  7
CHINESET
100
AcDbText
  0
TEXT
  5
F01
330
1F
100
AcDbEntity
  8
LOGO
  6
Continuous
 62
     6
100
AcDbText
 10
1877.256440391473
 20
759.3925427091479
 30
464.711823232627
 40
5.318783999999999
  1
Tube I.D.
  7
CHINESET
100
AcDbText
  0
TEXT
  5
F02
330
1F
100
AcDbEntity
  8
LOGO
 62
     6
100
AcDbText
 10
1884.664075363005
 20
769.2524219653839
 30
464.711823232627
 40
8.864639999999997
  1
內徑
  7
CHINESET
100
AcDbText
  0
TEXT
  5
F03
330
1F
100
AcDbEntity
  8
LOGO
  6
Continuous
 62
     6
100
AcDbText
 10
1930.50509279945
 20
759.3925427091479
 30
464.711823232627
 40
5.318783999999999
  1
Stroke
  7
CHINESET
100
AcDbText
  0
TEXT
  5
F04
330
1F
100
AcDbEntity
  8
LOGO
 62
     6
100
AcDbText
 10
1934.128956970996
 20
769.2524219653839
 30
464.711823232627
 40
8.864639999999997
  1
行程
  7
CHINESET
100
AcDbText
  0
TEXT
  5
F14
330
1F
100
AcDbEntity
  8
0
100
AcDbText
 10
1644.703762350682
 20
753.5861259674144
 30
0.0
 40
7.091711999999999
  1
1050801
 41
0.8
  7
CHINESET
 72
     1
 11
1661.048470007825
 21
753.5861259674144
 31
0.0
100
AcDbText
  0
LINE
  5
F15
330
1F
100
AcDbEntity
  8
LOGO
 62
     1
100
AcDbLine
 10
1683.056881022418
 20
763.9952797478967
 30
0.0
 11
1683.056881022421
 21
749.8139094563486
 31
0.0
  0
LINE
  5
F16
330
1F
100
AcDbEntity
  8
LOGO
 62
     1
100
AcDbLine
 10
1683.056881022418
 20
763.9952797478967
 30
0.0
 11
1640.506609022421
 21
763.9952797478967
 31
0.0
  0
LINE
  5
1CA3
330
1F
100
AcDbEntity
  8
0
 62
     4
100
AcDbLine
 10
1972.066735815398
 20
1370.658016136519
 30
0.0
 11
1972.066735815398
 21
820.7207609140857
 31
0.0
  0
TEXT
  5
1CA4
330
1F
100
AcDbEntity
  8
0
100
AcDbText
 10
1507.44926622871
 20
1338.139821772639
 30
0.0
 40
10.637568
  1
MCGD-03
 41
0.8
  7
CHINESET
100
AcDbText
  0
TEXT
  5
1CA7
330
1F
100
AcDbEntity
  8
0
100
AcDbText
 10
1995.00446622871
 20
1338.139821772639
 30
0.0
 40
10.637568
  1
MCGD-23
 41
0.8
  7
CHINESET
100
AcDbText
  0
TEXT
  5
2744
330
1F
100
AcDbEntity
  8
0
100
AcDbText
 10
1507.44926622871
 20
1317.850990666604
 30
0.0
 40
10.637568
  1
Stroke=30
 41
0.8
  7
CHINESET
100
AcDbText
  0
TEXT
  5
2745
330
1F
100
AcDbEntity
  8
0
100
AcDbText
 10
1995.00446622871
 20
1317.850990666604
 30
0.0
 40
10.637568
  1
Stroke=30
 41
0.8
  7
CHINESET
100
AcDbText
  0
LINE
  5
4B20
330
1F
100
AcDbEntity
  8
AM_VIS
100
AcDbLine
 10
1779.153478631904
 20
1079.907530246744
 30
0.0
 11
1793.153478631904
 21
1079.907530246744
 31
0.0
  0
LINE
  5
4B21
330
1F
100
AcDbEntity
  8
AM_VIS
100
AcDbLine
 10
1793.153478631904
 20
963.9075302467441
 30
0.0
 11
1793.153478631904
 21
1079.907530246744
 31
0.0
  0
LINE
  5
4B22
330
1F
100
AcDbEntity
  8
AM_VIS
100
AcDbLine
 10
1779.153478631904
 20
1079.907530246744
 30
0.0
 11
1779.153478631904
 21
963.9075302467441
 31
0.0
  0
LINE
  5
4B23
330
1F
100
AcDbEntity
  8
AM_VIS
100
AcDbLine
 10
1779.153478631904
 20
963.9075302467441
 30
0.0
 11
1793.153478631904
 21
963.9075302467441
 31
0.0
  0
CIRCLE
  5
4B24
330
1F
100
AcDbEntity
  8
AM_VIS
100
AcDbCircle
 10
1786.153478631904
 20
993.907530246744
 30
0.0
 40
3.299999999999999
  0
CIRCLE
  5
4B25
330
1F
100
AcDbEntity
  8
AM_VIS
100
AcDbCircle
 10
1786.153478631904
 20
1049.907530246744
 30
0.0
 40
3.299999999999999
  0
CIRCLE
  5
4B26
330
1F
100
AcDbEntity
  8
AM_VIS
100
AcDbCircle
 10
1786.153478631904
 20
1059.907530246744
 30
0.0
 40
4.0
  0
CIRCLE
  5
4B27
330
1F
100
AcDbEntity
  8
AM_VIS
100
AcDbCircle
 10
1786.153478631904
 20
983.907530246744
 30
0.0
 40
4.0
  0
LINE
  5
4B28
330
1F
100
AcDbEntity
  8
AM_VIS
100
AcDbLine
 10
1679.153478631904
 20
963.9075302467441
 30
0.0
 11
1665.153478631904
 21
963.9075302467441
 31
0.0
  0
LINE
  5
4B29
330
1F
100
AcDbEntity
  8
AM_VIS
100
AcDbLine
 10
1665.153478631904
 20
1079.907530246744
 30
0.0
 11
1665.153478631904
 21
963.9075302467441
 31
0.0
  0
LINE
  5
4B2A
330
1F
100
AcDbEntity
  8
AM_VIS
100
AcDbLine
 10
1679.153478631904
 20
963.9075302467441
 30
0.0
 11
1679.153478631904
 21
1079.907530246744
 31
0.0
  0
LINE
  5
4B2B
330
1F
100
AcDbEntity
  8
AM_VIS
100
AcDbLine
 10
1679.153478631904
 20
1079.907530246744
 30
0.0
 11
1665.153478631904
 21
1079.907530246744
 31
0.0
  0
CIRCLE
  5
4B2C
330
1F
100
AcDbEntity
  8
AM_VIS
100
AcDbCircle
 10
1672.153478631904
 20
1049.907530246744
 30
0.0
 40
3.299999999999999
  0
CIRCLE
  5
4B2D
330
1F
100
AcDbEntity
  8
AM_VIS
100
AcDbCircle
 10
1672.153478631904
 20
993.907530246744
 30
0.0
 40
3.299999999999999
  0
CIRCLE
  5
4B2E
330
1F
100
AcDbEntity
  8
AM_VIS
100
AcDbCircle
 10
1672.153478631904
 20
983.907530246744
 30
0.0
 40
4.0
  0
CIRCLE
  5
4B2F
330
1F
100
AcDbEntity
  8
AM_VIS
100
AcDbCircle
 10
1672.153478631904
 20
1059.907530246744
 30
0.0
 40
4.0
  0
LINE
  5
4B47
330
1F
100
AcDbEntity
  8
AM_VIS
100
AcDbLine
 10
1679.153478631904
 20
971.9075302467441
 30
0.0
 11
1681.153478631904
 21
971.9075302467441
 31
0.0
  0
LINE
  5
4B48
330
1F
100
AcDbEntity
  8
AM_VIS
100
AcDbLine
 10
1747.153478631904
 20
971.9075302467441
 30
0.0
 11
1779.153478631904
 21
971.9075302467441
 31
0.0
  0
LINE
  5
4B49
330
1F
100
AcDbEntity
  8
AM_VIS
100
AcDbLine
 10
1679.153478631904
 20
991.9075302467442
 30
0.0
 11
1681.153478631904
 21
991.9075302467442
 31
0.0
  0
LINE
  5
4B4A
330
1F
100
AcDbEntity
  8
AM_VIS
100
AcDbLine
 10
1747.153478631904
 20
991.9075302467442
 30
0.0
 11
1779.153478631904
 21
991.907530246744
 31
0.0
  0
LINE
  5
4B51
330
1F
100
AcDbEntity
  8
AM_VIS
100
AcDbLine
 10
1747.153478631904
 20
1013.907530246744
 30
0.0
 11
1779.153478631904
 21
1013.907530246744
 31
0.0
  0
LINE
  5
4B52
330
1F
100
AcDbEntity
  8
AM_VIS
100
AcDbLine
 10
1747.153478631904
 20
1029.907530246744
 30
0.0
 11
1779.153478631904
 21
1029.907530246744
 31
0.0
  0
LINE
  5
4B53
330
1F
100
AcDbEntity
  8
AM_VIS
100
AcDbLine
 10
1681.153478631904
 20
1029.907530246744
 30
0.0
 11
1679.153478631904
 21
1029.907530246744
 31
0.0
  0
LINE
  5
4B54
330
1F
100
AcDbEntity
  8
AM_VIS
100
AcDbLine
 10
1681.153478631904
 20
1013.907530246744
 30
0.0
 11
1679.153478631904
 21
1013.907530246744
 31
0.0
  0
LINE
  5
4B55
330
1F
100
AcDbEntity
  8
AM_VIS
100
AcDbLine
 10
1747.153478631904
 20
1026.707530246744
 30
0.0
 11
1681.153478631904
 21
1026.707530246744
 31
0.0
  0
LINE
  5
4B56
330
1F
100
AcDbEntity
  8
AM_VIS
100
AcDbLine
 10
1681.153478631904
 20
1017.107530246744
 30
0.0
 11
1747.153478631904
 21
1017.107530246744
 31
0.0
  0
LINE
  5
4B57
330
1F
100
AcDbEntity
  8
AM_VIS
100
AcDbLine
 10
1681.153478631904
 20
1027.957530246744
 30
0.0
 11
1681.153478631904
 21
1028.857530246744
 31
0.0
  0
LINE
  5
4B58
330
1F
100
AcDbEntity
  8
AM_VIS
100
AcDbLine
 10
1681.153478631904
 20
1017.107530246744
 30
0.0
 11
1681.153478631904
 21
1026.707530246744
 31
0.0
  0
LINE
  5
4B59
330
1F
100
AcDbEntity
  8
AM_VIS
100
AcDbLine
 10
1681.153478631904
 20
1014.957530246744
 30
0.0
 11
1681.153478631904
 21
1015.857530246744
 31
0.0
  0
LINE
  5
4B5A
330
1F
100
AcDbEntity
  8
AM_VIS
100
AcDbLine
 10
1747.153478631904
 20
1004.707530246744
 30
0.0
 11
1747.153478631904
 21
1003.907530246744
 31
0.0
  0
LINE
  5
4B5B
330
1F
100
AcDbEntity
  8
AM_VIS
100
AcDbLine
 10
1747.153478631904
 20
1015.857530246744
 30
0.0
 11
1747.153478631904
 21
1014.957530246744
 31
0.0
  0
LINE
  5
4B5C
330
1F
100
AcDbEntity
  8
AM_VIS
100
AcDbLine
 10
1747.153478631904
 20
1026.707530246744
 30
0.0
 11
1747.153478631904
 21
1017.107530246744
 31
0.0
  0
LINE
  5
4B5D
330
1F
100
AcDbEntity
  8
AM_VIS
100
AcDbLine
 10
1747.153478631904
 20
1028.857530246744
 30
0.0
 11
1747.153478631904
 21
1027.957530246744
 31
0.0
  0
LINE
  5
4B5E
330
1F
100
AcDbEntity
  8
AM_VIS
100
AcDbLine
 10
1681.153478631904
 20
1003.907530246744
 30
0.0
 11
1681.153478631904
 21
1004.707530246744
 31
0.0
  0
LINE
  5
4B5F
330
1F
100
AcDbEntity
  8
AM_VIS
100
AcDbLine
 10
1747.153478631904
 20
1003.907530246744
 30
0.0
 11
1731.76325086055
 21
1003.907530246744
 31
0.0
  0
LINE
  5
4B60
330
1F
100
AcDbEntity
  8
AM_VIS
100
AcDbLine
 10
1747.153478631904
 20
963.9075302467441
 30
0.0
 11
1747.153478631904
 21
1003.907530246744
 31
0.0
  0
LINE
  5
4B61
330
1F
100
AcDbEntity
  8
AM_VIS
100
AcDbLine
 10
1681.153478631904
 20
963.9075302467441
 30
0.0
 11
1681.153478631904
 21
1003.907530246744
 31
0.0
  0
LINE
  5
4B62
330
1F
100
AcDbEntity
  8
AM_VIS
100
AcDbLine
 10
1696.543706403258
 20
1003.907530246744
 30
0.0
 11
1681.153478631904
 21
1003.907530246744
 31
0.0
  0
ARC
  5
4B63
330
1F
100
AcDbEntity
  8
AM_VIS
100
AcDbCircle
 10
1727.153478631904
 20
1000.907530246744
 30
0.0
 40
5.5
100
AcDbArc
 50
33.05573115085955
 51
43.70211443735165
  0
ARC
  5
4B64
330
1F
100
AcDbEntity
  8
AM_VIS
100
AcDbCircle
 10
1727.153478631904
 20
1000.907530246744
 30
0.0
 40
5.5
100
AcDbArc
 50
136.2978855626483
 51
146.9442688491404
  0
LINE
  5
4B65
330
1F
100
AcDbEntity
  8
AM_VIS
100
AcDbLine
 10
1722.543706403258
 20
1003.907530246744
 30
0.0
 11
1705.763250860551
 21
1003.907530246744
 31
0.0
  0
LINE
  5
4B66
330
1F
100
AcDbEntity
  8
AM_VIS
100
AcDbLine
 10
1681.153478631904
 20
1004.707530246744
 30
0.0
 11
1697.17729956149
 21
1004.707530246744
 31
0.0
  0
LINE
  5
4B67
330
1F
100
AcDbEntity
  8
AM_VIS
100
AcDbLine
 10
1681.153478631904
 20
1004.707530246744
 30
0.0
 11
1681.153478631904
 21
1013.707530246744
 31
0.0
  0
LINE
  5
4B68
330
1F
100
AcDbEntity
  8
AM_VIS
100
AcDbLine
 10
1747.153478631904
 20
1013.707530246744
 30
0.0
 11
1681.153478631904
 21
1013.707530246744
 31
0.0
  0
LINE
  5
4B69
330
1F
100
AcDbEntity
  8
AM_VIS
100
AcDbLine
 10
1747.153478631904
 20
1013.707530246744
 30
0.0
 11
1747.153478631904
 21
1004.707530246744
 31
0.0
  0
LINE
  5
4B6A
330
1F
100
AcDbEntity
  8
AM_VIS
100
AcDbLine
 10
1731.129657702318
 20
1004.707530246744
 30
0.0
 11
1747.153478631904
 21
1004.707530246744
 31
0.0
  0
LINE
  5
4B6B
330
1F
100
AcDbEntity
  8
AM_VIS
100
AcDbLine
 10
1705.129657702318
 20
1004.707530246744
 30
0.0
 11
1723.17729956149
 21
1004.707530246744
 31
0.0
  0
ARC
  5
4B6C
330
1F
100
AcDbEntity
  8
AM_VIS
100
AcDbCircle
 10
1701.153478631904
 20
1000.907530246744
 30
0.0
 40
5.5
100
AcDbArc
 50
33.05573115085955
 51
43.70211443735165
  0
ARC
  5
4B6D
330
1F
100
AcDbEntity
  8
AM_VIS
100
AcDbCircle
 10
1701.153478631904
 20
1000.907530246744
 30
0.0
 40
5.5
100
AcDbArc
 50
136.2978855626483
 51
146.9442688491404
  0
LINE
  5
4B6E
330
1F
100
AcDbEntity
  8
AM_VIS
100
AcDbLine
 10
1747.153478631904
 20
1039.907530246744
 30
0.0
 11
1747.153478631904
 21
1039.107530246744
 31
0.0
  0
LINE
  5
4B6F
330
1F
100
AcDbEntity
  8
AM_VIS
100
AcDbLine
 10
1681.153478631904
 20
1039.907530246744
 30
0.0
 11
1681.153478631904
 21
1079.907530246744
 31
0.0
  0
LINE
  5
4B70
330
1F
100
AcDbEntity
  8
AM_VIS
100
AcDbLine
 10
1681.153478631904
 20
1079.907530246744
 30
0.0
 11
1747.153478631904
 21
1079.907530246744
 31
0.0
  0
LINE
  5
4B71
330
1F
100
AcDbEntity
  8
AM_VIS
100
AcDbLine
 10
1747.153478631904
 20
1039.907530246744
 30
0.0
 11
1747.153478631904
 21
1079.907530246744
 31
0.0
  0
LINE
  5
4B72
330
1F
100
AcDbEntity
  8
AM_VIS
100
AcDbLine
 10
1731.763250860551
 20
1039.907530246744
 30
0.0
 11
1747.153478631904
 21
1039.907530246744
 31
0.0
  0
LINE
  5
4B73
330
1F
100
AcDbEntity
  8
AM_VIS
100
AcDbLine
 10
1705.763250860551
 20
1039.907530246744
 30
0.0
 11
1722.543706403257
 21
1039.907530246744
 31
0.0
  0
ARC
  5
4B74
330
1F
100
AcDbEntity
  8
AM_VIS
100
AcDbCircle
 10
1727.153478631904
 20
1042.907530246744
 30
0.0
 40
5.5
100
AcDbArc
 50
316.2978855626483
 51
326.9442688491459
  0
ARC
  5
4B75
330
1F
100
AcDbEntity
  8
AM_VIS
100
AcDbCircle
 10
1727.153478631904
 20
1042.907530246744
 30
0.0
 40
5.5
100
AcDbArc
 50
213.0557311508541
 51
223.7021144373517
  0
LINE
  5
4B76
330
1F
100
AcDbEntity
  8
AM_VIS
100
AcDbLine
 10
1681.153478631904
 20
1039.107530246744
 30
0.0
 11
1681.153478631904
 21
1039.907530246744
 31
0.0
  0
LINE
  5
4B77
330
1F
100
AcDbEntity
  8
AM_VIS
100
AcDbLine
 10
1681.153478631904
 20
1039.907530246744
 30
0.0
 11
1696.543706403257
 21
1039.907530246744
 31
0.0
  0
LINE
  5
4B78
330
1F
100
AcDbEntity
  8
AM_VIS
100
AcDbLine
 10
1705.129657702318
 20
1039.107530246744
 30
0.0
 11
1723.17729956149
 21
1039.107530246744
 31
0.0
  0
LINE
  5
4B79
330
1F
100
AcDbEntity
  8
AM_VIS
100
AcDbLine
 10
1731.129657702318
 20
1039.107530246744
 30
0.0
 11
1747.153478631904
 21
1039.107530246744
 31
0.0
  0
LINE
  5
4B7A
330
1F
100
AcDbEntity
  8
AM_VIS
100
AcDbLine
 10
1747.153478631904
 20
1039.107530246744
 30
0.0
 11
1747.153478631904
 21
1030.107530246744
 31
0.0
  0
LINE
  5
4B7B
330
1F
100
AcDbEntity
  8
AM_VIS
100
AcDbLine
 10
1681.153478631904
 20
1030.107530246744
 30
0.0
 11
1747.153478631904
 21
1030.107530246744
 31
0.0
  0
LINE
  5
4B7C
330
1F
100
AcDbEntity
  8
AM_VIS
100
AcDbLine
 10
1681.153478631904
 20
1030.107530246744
 30
0.0
 11
1681.153478631904
 21
1039.107530246744
 31
0.0
  0
LINE
  5
4B7D
330
1F
100
AcDbEntity
  8
AM_VIS
100
AcDbLine
 10
1681.153478631904
 20
1039.107530246744
 30
0.0
 11
1697.17729956149
 21
1039.107530246744
 31
0.0
  0
ARC
  5
4B7E
330
1F
100
AcDbEntity
  8
AM_VIS
100
AcDbCircle
 10
1701.153478631904
 20
1042.907530246744
 30
0.0
 40
5.5
100
AcDbArc
 50
213.0557311508541
 51
223.7021144373517
  0
ARC
  5
4B7F
330
1F
100
AcDbEntity
  8
AM_VIS
100
AcDbCircle
 10
1701.153478631904
 20
1042.907530246744
 30
0.0
 40
5.5
100
AcDbArc
 50
316.2978855626483
 51
326.9442688491459
  0
LINE
  5
4B80
330
1F
100
AcDbEntity
  8
AM_VIS
100
AcDbLine
 10
1681.153478631904
 20
963.9075302467441
 30
0.0
 11
1747.153478631904
 21
963.9075302467441
 31
0.0
  0
LINE
  5
4B85
330
1F
100
AcDbEntity
  8
AM_VIS
100
AcDbLine
 10
1681.153478631904
 20
1030.107530246744
 30
0.0
 11
1681.153478631904
 21
1028.857530246744
 31
0.0
  0
LINE
  5
4B86
330
1F
100
AcDbEntity
  8
AM_VIS
100
AcDbLine
 10
1681.153478631904
 20
1027.957530246744
 30
0.0
 11
1681.153478631904
 21
1026.707530246744
 31
0.0
  0
LINE
  5
4B87
330
1F
100
AcDbEntity
  8
AM_VIS
100
AcDbLine
 10
1681.153478631904
 20
1017.107530246744
 30
0.0
 11
1681.153478631904
 21
1015.857530246744
 31
0.0
  0
LINE
  5
4B88
330
1F
100
AcDbEntity
  8
AM_VIS
100
AcDbLine
 10
1681.153478631904
 20
1014.957530246744
 30
0.0
 11
1681.153478631904
 21
1013.707530246744
 31
0.0
  0
LINE
  5
4B89
330
1F
100
AcDbEntity
  8
AM_VIS
100
AcDbLine
 10
1747.153478631904
 20
1013.707530246744
 30
0.0
 11
1747.153478631904
 21
1014.957530246744
 31
0.0
  0
LINE
  5
4B8A
330
1F
100
AcDbEntity
  8
AM_VIS
100
AcDbLine
 10
1747.153478631904
 20
1015.857530246744
 30
0.0
 11
1747.153478631904
 21
1017.107530246744
 31
0.0
  0
LINE
  5
4B8B
330
1F
100
AcDbEntity
  8
AM_VIS
100
AcDbLine
 10
1747.153478631904
 20
1026.707530246744
 30
0.0
 11
1747.153478631904
 21
1027.957530246744
 31
0.0
  0
LINE
  5
4B8C
330
1F
100
AcDbEntity
  8
AM_VIS
100
AcDbLine
 10
1747.153478631904
 20
1028.857530246744
 30
0.0
 11
1747.153478631904
 21
1030.107530246744
 31
0.0
  0
ARC
  5
4B8D
330
1F
100
AcDbEntity
  8
AM_VIS
100
AcDbCircle
 10
1727.153478631904
 20
1000.907530246744
 30
0.0
 40
5.5
100
AcDbArc
 50
146.9442688491404
 51
33.05573115085955
  0
CIRCLE
  5
4B8E
330
1F
100
AcDbEntity
  8
AM_VIS
100
AcDbCircle
 10
1727.153478631904
 20
1000.907530246744
 30
0.0
 40
3.399999999999999
  0
ARC
  5
4B8F
330
1F
100
AcDbEntity
  8
AM_VIS
100
AcDbCircle
 10
1727.153478631904
 20
1000.907530246744
 30
0.0
 40
5.5
100
AcDbArc
 50
43.70211443735165
 51
136.2978855626483
  0
CIRCLE
  5
4B90
330
1F
100
AcDbEntity
  8
AM_VIS
100
AcDbCircle
 10
1701.153478631904
 20
1000.907530246744
 30
0.0
 40
3.399999999999999
  0
ARC
  5
4B91
330
1F
100
AcDbEntity
  8
AM_VIS
100
AcDbCircle
 10
1701.153478631904
 20
1000.907530246744
 30
0.0
 40
5.5
100
AcDbArc
 50
43.70211443735165
 51
136.2978855626483
  0
ARC
  5
4B92
330
1F
100
AcDbEntity
  8
AM_VIS
100
AcDbCircle
 10
1701.153478631904
 20
1000.907530246744
 30
0.0
 40
5.5
100
AcDbArc
 50
146.9442688491404
 51
33.05573115085955
  0
ARC
  5
4B93
330
1F
100
AcDbEntity
  8
AM_VIS
100
AcDbCircle
 10
1727.153478631904
 20
1042.907530246744
 30
0.0
 40
5.5
100
AcDbArc
 50
326.9442688491459
 51
213.0557311508541
  0
CIRCLE
  5
4B94
330
1F
100
AcDbEntity
  8
AM_VIS
100
AcDbCircle
 10
1727.153478631904
 20
1042.907530246744
 30
0.0
 40
3.399999999999999
  0
ARC
  5
4B95
330
1F
100
AcDbEntity
  8
AM_VIS
100
AcDbCircle
 10
1727.153478631904
 20
1042.907530246744
 30
0.0
 40
5.5
100
AcDbArc
 50
223.7021144373517
 51
316.2978855626483
  0
CIRCLE
  5
4B96
330
1F
100
AcDbEntity
  8
AM_VIS
100
AcDbCircle
 10
1701.153478631904
 20
1042.907530246744
 30
0.0
 40
3.399999999999999
  0
ARC
  5
4B97
330
1F
100
AcDbEntity
  8
AM_VIS
100
AcDbCircle
 10
1701.153478631904
 20
1042.907530246744
 30
0.0
 40
5.5
100
AcDbArc
 50
223.7021144373517
 51
316.2978855626483
  0
ARC
  5
4B98
330
1F
100
AcDbEntity
  8
AM_VIS
100
AcDbCircle
 10
1701.153478631904
 20
1042.907530246744
 30
0.0
 40
5.5
100
AcDbArc
 50
326.9442688491459
 51
213.0557311508541
  0
LINE
  5
4B9B
330
1F
100
AcDbEntity
  8
AM_VIS
100
AcDbLine
 10
1872.198826400585
 20
1023.352402645954
 30
0.0
 11
1874.698826400585
 21
1024.795030246744
 31
0.0
  0
LINE
  5
4B9C
330
1F
100
AcDbEntity
  8
AM_VIS
100
AcDbLine
 10
1877.198826400585
 20
1023.352402645954
 30
0.0
 11
1877.198826400585
 21
1020.462657847533
 31
0.0
  0
LINE
  5
4B9D
330
1F
100
AcDbEntity
  8
AM_VIS
100
AcDbLine
 10
1874.698826400585
 20
1024.795030246744
 30
0.0
 11
1877.198826400585
 21
1023.352402645954
 31
0.0
  0
LINE
  5
4B9E
330
1F
100
AcDbEntity
  8
AM_VIS
100
AcDbLine
 10
1872.198826400585
 20
1020.462657847533
 30
0.0
 11
1872.198826400585
 21
1023.352402645954
 31
0.0
  0
LINE
  5
4B9F
330
1F
100
AcDbEntity
  8
AM_VIS
100
AcDbLine
 10
1874.698826400585
 20
1019.020030246744
 30
0.0
 11
1872.198826400585
 21
1020.462657847533
 31
0.0
  0
LINE
  5
4BA0
330
1F
100
AcDbEntity
  8
AM_VIS
100
AcDbLine
 10
1877.198826400585
 20
1020.462657847533
 30
0.0
 11
1874.698826400585
 21
1019.020030246744
 31
0.0
  0
CIRCLE
  5
4BA1
330
1F
100
AcDbEntity
  8
AM_VIS
100
AcDbCircle
 10
1874.698826400585
 20
1021.907530246744
 30
0.0
 40
7.0
  0
LINE
  5
4BA2
330
1F
100
AcDbEntity
  8
AM_VIS
100
AcDbLine
 10
1872.198826400585
 20
1063.352402645954
 30
0.0
 11
1874.698826400585
 21
1064.795030246744
 31
0.0
  0
LINE
  5
4BA3
330
1F
100
AcDbEntity
  8
AM_VIS
100
AcDbLine
 10
1877.198826400585
 20
1063.352402645954
 30
0.0
 11
1877.198826400585
 21
1060.462657847534
 31
0.0
  0
LINE
  5
4BA4
330
1F
100
AcDbEntity
  8
AM_VIS
100
AcDbLine
 10
1874.698826400585
 20
1064.795030246744
 30
0.0
 11
1877.198826400585
 21
1063.352402645954
 31
0.0
  0
LINE
  5
4BA5
330
1F
100
AcDbEntity
  8
AM_VIS
100
AcDbLine
 10
1872.198826400585
 20
1060.462657847534
 30
0.0
 11
1872.198826400585
 21
1063.352402645954
 31
0.0
  0
LINE
  5
4BA6
330
1F
100
AcDbEntity
  8
AM_VIS
100
AcDbLine
 10
1874.698826400585
 20
1059.020030246744
 30
0.0
 11
1872.198826400585
 21
1060.462657847534
 31
0.0
  0
LINE
  5
4BA7
330
1F
100
AcDbEntity
  8
AM_VIS
100
AcDbLine
 10
1877.198826400585
 20
1060.462657847534
 30
0.0
 11
1874.698826400585
 21
1059.020030246744
 31
0.0
  0
CIRCLE
  5
4BA8
330
1F
100
AcDbEntity
  8
AM_VIS
100
AcDbCircle
 10
1874.698826400585
 20
1061.907530246744
 30
0.0
 40
7.0
  0
LINE
  5
4BA9
330
1F
100
AcDbEntity
  8
AM_VIS
100
AcDbLine
 10
1847.698826400585
 20
1079.907530246744
 30
0.0
 11
1898.698826400585
 21
1079.907530246744
 31
0.0
  0
LINE
  5
4BAA
330
1F
100
AcDbEntity
  8
AM_VIS
100
AcDbLine
 10
1898.698826400585
 20
1079.907530246744
 30
0.0
 11
1898.698826400585
 21
963.9075302467441
 31
0.0
  0
LINE
  5
4BAB
330
1F
100
AcDbEntity
  8
AM_VIS
100
AcDbLine
 10
1847.698826400585
 20
963.9075302467441
 30
0.0
 11
1847.698826400585
 21
1079.907530246744
 31
0.0
  0
LINE
  5
4BAC
330
1F
100
AcDbEntity
  8
AM_VIS
100
AcDbLine
 10
1898.698826400585
 20
963.9075302467441
 30
0.0
 11
1847.698826400585
 21
963.9075302467441
 31
0.0
  0
CIRCLE
  5
4BB1
330
1F
100
AcDbEntity
  8
AM_VIS
100
AcDbCircle
 10
1874.698826400585
 20
981.9075302467441
 30
0.0
 40
8.0
  0
CIRCLE
  5
4BB2
330
1F
100
AcDbEntity
  8
AM_VIS
100
AcDbCircle
 10
1874.698826400585
 20
1061.907530246744
 30
0.0
 40
8.0
  0
CIRCLE
  5
4BB3
330
1F
100
AcDbEntity
  8
AM_VIS
100
AcDbCircle
 10
1874.698826400585
 20
1021.907530246744
 30
0.0
 40
8.0
  0
LINE
  5
4BB9
330
1F
100
AcDbEntity
  8
AM_VIS
100
AcDbLine
 10
1900.698826400585
 20
963.9075302467441
 30
0.0
 11
1898.698826400585
 21
963.9075302467441
 31
0.0
  0
LINE
  5
4BBA
330
1F
100
AcDbEntity
  8
AM_VIS
100
AcDbLine
 10
1898.698826400585
 20
1079.907530246744
 30
0.0
 11
1900.698826400585
 21
1079.907530246744
 31
0.0
  0
LINE
  5
4BBB
330
1F
100
AcDbEntity
  8
AM_VIS
100
AcDbLine
 10
1900.198826400585
 20
1065.907530246744
 30
0.0
 11
1900.698826400585
 21
1066.407530246744
 31
0.0
  0
LINE
  5
4BBC
330
1F
100
AcDbEntity
  8
AM_VIS
100
AcDbLine
 10
1900.198826400585
 20
1058.107530246744
 30
0.0
 11
1900.198826400585
 21
1065.907530246744
 31
0.0
  0
LINE
  5
4BBD
330
1F
100
AcDbEntity
  8
AM_VIS
100
AcDbLine
 10
1898.698826400585
 20
1056.607530246744
 30
0.0
 11
1900.198826400585
 21
1058.107530246744
 31
0.0
  0
LINE
  5
4BBE
330
1F
100
AcDbEntity
  8
AM_VIS
100
AcDbLine
 10
1900.698826400585
 20
1049.207530246744
 30
0.0
 11
1898.698826400585
 21
1051.207530246744
 31
0.0
  0
LINE
  5
4BBF
330
1F
100
AcDbEntity
  8
AM_VIS
100
AcDbLine
 10
1898.698826400585
 20
1034.607530246744
 30
0.0
 11
1900.698826400585
 21
1036.607530246744
 31
0.0
  0
LINE
  5
4BC0
330
1F
100
AcDbEntity
  8
AM_VIS
100
AcDbLine
 10
1900.698826400585
 20
1007.207530246744
 30
0.0
 11
1898.698826400585
 21
1009.207530246744
 31
0.0
  0
LINE
  5
4BC1
330
1F
100
AcDbEntity
  8
AM_VIS
100
AcDbLine
 10
1898.698826400585
 20
992.607530246744
 30
0.0
 11
1900.698826400585
 21
994.6075302467441
 31
0.0
  0
LINE
  5
4BC2
330
1F
100
AcDbEntity
  8
AM_VIS
100
AcDbLine
 10
1900.198826400585
 20
985.7075302467439
 30
0.0
 11
1898.698826400585
 21
987.207530246744
 31
0.0
  0
LINE
  5
4BC3
330
1F
100
AcDbEntity
  8
AM_VIS
100
AcDbLine
 10
1900.198826400585
 20
977.907530246744
 30
0.0
 11
1900.198826400585
 21
985.7075302467439
 31
0.0
  0
LINE
  5
4BC4
330
1F
100
AcDbEntity
  8
AM_VIS
100
AcDbLine
 10
1900.698826400585
 20
977.4075302467441
 30
0.0
 11
1900.198826400585
 21
977.907530246744
 31
0.0
  0
LINE
  5
4BC5
330
1F
100
AcDbEntity
  8
AM_VIS
100
AcDbLine
 10
1900.698826400585
 20
994.6075302467441
 30
0.0
 11
1900.698826400585
 21
1007.207530246744
 31
0.0
  0
LINE
  5
4BC6
330
1F
100
AcDbEntity
  8
AM_VIS
100
AcDbLine
 10
1900.698826400585
 20
1036.607530246744
 30
0.0
 11
1900.698826400585
 21
1049.207530246744
 31
0.0
  0
LINE
  5
4BC7
330
1F
100
AcDbEntity
  8
AM_VIS
100
AcDbLine
 10
1900.698826400585
 20
1066.407530246744
 30
0.0
 11
1900.698826400585
 21
1079.907530246744
 31
0.0
  0
LINE
  5
4BC8
330
1F
100
AcDbEntity
  8
AM_VIS
100
AcDbLine
 10
1900.698826400585
 20
963.9075302467441
 30
0.0
 11
1900.698826400585
 21
977.4075302467441
 31
0.0
  0
LINE
  5
4BC9
330
1F
100
AcDbEntity
  8
AM_VIS
100
AcDbLine
 10
1598.5477087966
 20
980.4626578475337
 30
0.0
 11
1596.0477087966
 21
979.0200302467441
 31
0.0
  0
LINE
  5
4BCA
330
1F
100
AcDbEntity
  8
AM_VIS
100
AcDbLine
 10
1593.5477087966
 20
980.4626578475337
 30
0.0
 11
1593.5477087966
 21
983.3524026459544
 31
0.0
  0
LINE
  5
4BCB
330
1F
100
AcDbEntity
  8
AM_VIS
100
AcDbLine
 10
1596.0477087966
 20
979.0200302467441
 30
0.0
 11
1593.5477087966
 21
980.4626578475337
 31
0.0
  0
LINE
  5
4BCC
330
1F
100
AcDbEntity
  8
AM_VIS
100
AcDbLine
 10
1598.5477087966
 20
983.3524026459544
 30
0.0
 11
1598.5477087966
 21
980.4626578475337
 31
0.0
  0
LINE
  5
4BCD
330
1F
100
AcDbEntity
  8
AM_VIS
100
AcDbLine
 10
1596.0477087966
 20
984.795030246744
 30
0.0
 11
1598.5477087966
 21
983.3524026459544
 31
0.0
  0
LINE
  5
4BCE
330
1F
100
AcDbEntity
  8
AM_VIS
100
AcDbLine
 10
1593.5477087966
 20
983.3524026459544
 30
0.0
 11
1596.0477087966
 21
984.795030246744
 31
0.0
  0
CIRCLE
  5
4BCF
330
1F
100
AcDbEntity
  8
AM_VIS
100
AcDbCircle
 10
1596.0477087966
 20
981.9075302467441
 30
0.0
 40
7.0
  0
LINE
  5
4BD0
330
1F
100
AcDbEntity
  8
AM_VIS
100
AcDbLine
 10
1598.5477087966
 20
1020.462657847533
 30
0.0
 11
1596.0477087966
 21
1019.020030246744
 31
0.0
  0
LINE
  5
4BD1
330
1F
100
AcDbEntity
  8
AM_VIS
100
AcDbLine
 10
1593.5477087966
 20
1020.462657847533
 30
0.0
 11
1593.5477087966
 21
1023.352402645954
 31
0.0
  0
LINE
  5
4BD2
330
1F
100
AcDbEntity
  8
AM_VIS
100
AcDbLine
 10
1596.0477087966
 20
1019.020030246744
 30
0.0
 11
1593.5477087966
 21
1020.462657847533
 31
0.0
  0
LINE
  5
4BD3
330
1F
100
AcDbEntity
  8
AM_VIS
100
AcDbLine
 10
1598.5477087966
 20
1023.352402645954
 30
0.0
 11
1598.5477087966
 21
1020.462657847533
 31
0.0
  0
LINE
  5
4BD4
330
1F
100
AcDbEntity
  8
AM_VIS
100
AcDbLine
 10
1596.0477087966
 20
1024.795030246744
 30
0.0
 11
1598.5477087966
 21
1023.352402645954
 31
0.0
  0
LINE
  5
4BD5
330
1F
100
AcDbEntity
  8
AM_VIS
100
AcDbLine
 10
1593.5477087966
 20
1023.352402645954
 30
0.0
 11
1596.0477087966
 21
1024.795030246744
 31
0.0
  0
CIRCLE
  5
4BD6
330
1F
100
AcDbEntity
  8
AM_VIS
100
AcDbCircle
 10
1596.0477087966
 20
1021.907530246744
 30
0.0
 40
7.0
  0
LINE
  5
4BD7
330
1F
100
AcDbEntity
  8
AM_VIS
100
AcDbLine
 10
1623.0477087966
 20
963.9075302467441
 30
0.0
 11
1572.0477087966
 21
963.9075302467441
 31
0.0
  0
LINE
  5
4BD8
330
1F
100
AcDbEntity
  8
AM_VIS
100
AcDbLine
 10
1572.0477087966
 20
963.9075302467441
 30
0.0
 11
1572.0477087966
 21
1079.907530246744
 31
0.0
  0
LINE
  5
4BD9
330
1F
100
AcDbEntity
  8
AM_VIS
100
AcDbLine
 10
1623.0477087966
 20
1079.907530246744
 30
0.0
 11
1623.0477087966
 21
963.9075302467441
 31
0.0
  0
LINE
  5
4BDA
330
1F
100
AcDbEntity
  8
AM_VIS
100
AcDbLine
 10
1572.0477087966
 20
1079.907530246744
 30
0.0
 11
1623.0477087966
 21
1079.907530246744
 31
0.0
  0
CIRCLE
  5
4BDF
330
1F
100
AcDbEntity
  8
AM_VIS
100
AcDbCircle
 10
1596.0477087966
 20
1061.907530246744
 30
0.0
 40
8.0
  0
CIRCLE
  5
4BE0
330
1F
100
AcDbEntity
  8
AM_VIS
100
AcDbCircle
 10
1596.0477087966
 20
981.9075302467441
 30
0.0
 40
8.0
  0
CIRCLE
  5
4BE1
330
1F
100
AcDbEntity
  8
AM_VIS
100
AcDbCircle
 10
1596.0477087966
 20
1021.907530246744
 30
0.0
 40
8.0
  0
LINE
  5
4BE7
330
1F
100
AcDbEntity
  8
AM_VIS
100
AcDbLine
 10
1570.5477087966
 20
977.907530246744
 30
0.0
 11
1570.0477087966
 21
977.4075302467441
 31
0.0
  0
LINE
  5
4BE8
330
1F
100
AcDbEntity
  8
AM_VIS
100
AcDbLine
 10
1570.5477087966
 20
985.7075302467439
 30
0.0
 11
1570.5477087966
 21
977.907530246744
 31
0.0
  0
LINE
  5
4BE9
330
1F
100
AcDbEntity
  8
AM_VIS
100
AcDbLine
 10
1572.0477087966
 20
987.207530246744
 30
0.0
 11
1570.5477087966
 21
985.7075302467439
 31
0.0
  0
LINE
  5
4BEA
330
1F
100
AcDbEntity
  8
AM_VIS
100
AcDbLine
 10
1570.0477087966
 20
994.6075302467441
 30
0.0
 11
1572.0477087966
 21
992.607530246744
 31
0.0
  0
LINE
  5
4BEB
330
1F
100
AcDbEntity
  8
AM_VIS
100
AcDbLine
 10
1572.0477087966
 20
1009.207530246744
 30
0.0
 11
1570.0477087966
 21
1007.207530246744
 31
0.0
  0
LINE
  5
4BEC
330
1F
100
AcDbEntity
  8
AM_VIS
100
AcDbLine
 10
1570.0477087966
 20
1036.607530246744
 30
0.0
 11
1572.0477087966
 21
1034.607530246744
 31
0.0
  0
LINE
  5
4BED
330
1F
100
AcDbEntity
  8
AM_VIS
100
AcDbLine
 10
1572.0477087966
 20
1051.207530246744
 30
0.0
 11
1570.0477087966
 21
1049.207530246744
 31
0.0
  0
LINE
  5
4BEE
330
1F
100
AcDbEntity
  8
AM_VIS
100
AcDbLine
 10
1570.5477087966
 20
1058.107530246744
 30
0.0
 11
1572.0477087966
 21
1056.607530246744
 31
0.0
  0
LINE
  5
4BEF
330
1F
100
AcDbEntity
  8
AM_VIS
100
AcDbLine
 10
1570.5477087966
 20
1065.907530246744
 30
0.0
 11
1570.5477087966
 21
1058.107530246744
 31
0.0
  0
LINE
  5
4BF0
330
1F
100
AcDbEntity
  8
AM_VIS
100
AcDbLine
 10
1570.0477087966
 20
1066.407530246744
 30
0.0
 11
1570.5477087966
 21
1065.907530246744
 31
0.0
  0
LINE
  5
4BF1
330
1F
100
AcDbEntity
  8
AM_VIS
100
AcDbLine
 10
1572.0477087966
 20
1079.907530246744
 30
0.0
 11
1570.0477087966
 21
1079.907530246744
 31
0.0
  0
LINE
  5
4BF2
330
1F
100
AcDbEntity
  8
AM_VIS
100
AcDbLine
 10
1570.0477087966
 20
963.9075302467441
 30
0.0
 11
1572.0477087966
 21
963.9075302467441
 31
0.0
  0
LINE
  5
4BF3
330
1F
100
AcDbEntity
  8
AM_VIS
100
AcDbLine
 10
1570.0477087966
 20
1007.207530246744
 30
0.0
 11
1570.0477087966
 21
994.6075302467441
 31
0.0
  0
LINE
  5
4BF4
330
1F
100
AcDbEntity
  8
AM_VIS
100
AcDbLine
 10
1570.0477087966
 20
1049.207530246744
 30
0.0
 11
1570.0477087966
 21
1036.607530246744
 31
0.0
  0
LINE
  5
4BF5
330
1F
100
AcDbEntity
  8
AM_VIS
100
AcDbLine
 10
1570.0477087966
 20
1079.907530246744
 30
0.0
 11
1570.0477087966
 21
1066.407530246744
 31
0.0
  0
LINE
  5
4BF6
330
1F
100
AcDbEntity
  8
AM_VIS
100
AcDbLine
 10
1570.0477087966
 20
977.4075302467441
 30
0.0
 11
1570.0477087966
 21
963.9075302467441
 31
0.0
  0
LINE
  5
4BF7
330
1F
100
AcDbEntity
  8
AM_VIS
100
AcDbLine
 10
1779.153478631904
 20
855.5690601050811
 30
0.0
 11
1793.153478631904
 21
855.5690601050811
 31
0.0
  0
LINE
  5
4BF8
330
1F
100
AcDbEntity
  8
AM_VIS
100
AcDbLine
 10
1779.153478631904
 20
906.569060105081
 30
0.0
 11
1779.153478631904
 21
855.5690601050811
 31
0.0
  0
LINE
  5
4BF9
330
1F
100
AcDbEntity
  8
AM_VIS
100
AcDbLine
 10
1779.153478631904
 20
906.569060105081
 30
0.0
 11
1793.153478631904
 21
906.569060105081
 31
0.0
  0
LINE
  5
4BFA
330
1F
100
AcDbEntity
  8
AM_VIS
100
AcDbLine
 10
1793.153478631904
 20
855.5690601050811
 30
0.0
 11
1793.153478631904
 21
906.569060105081
 31
0.0
  0
LINE
  5
4BFD
330
1F
100
AcDbEntity
  8
AM_VIS
100
AcDbLine
 10
1679.153478631904
 20
855.5690601050811
 30
0.0
 11
1665.153478631904
 21
855.5690601050811
 31
0.0
  0
LINE
  5
4BFE
330
1F
100
AcDbEntity
  8
AM_VIS
100
AcDbLine
 10
1679.153478631904
 20
906.569060105081
 30
0.0
 11
1665.153478631904
 21
906.569060105081
 31
0.0
  0
LINE
  5
4BFF
330
1F
100
AcDbEntity
  8
AM_VIS
100
AcDbLine
 10
1665.153478631904
 20
906.569060105081
 30
0.0
 11
1665.153478631904
 21
855.5690601050811
 31
0.0
  0
LINE
  5
4C00
330
1F
100
AcDbEntity
  8
AM_VIS
100
AcDbLine
 10
1679.153478631904
 20
855.5690601050811
 30
0.0
 11
1679.153478631904
 21
906.569060105081
 31
0.0
  0
LINE
  5
4C11
330
1F
100
AcDbEntity
  8
AM_VIS
100
AcDbLine
 10
1747.153478631904
 20
868.569060105081
 30
0.0
 11
1681.153478631904
 21
868.569060105081
 31
0.0
  0
LINE
  5
4C12
330
1F
100
AcDbEntity
  8
AM_VIS
100
AcDbLine
 10
1681.153478631904
 20
870.069060105081
 30
0.0
 11
1747.153478631904
 21
870.069060105081
 31
0.0
  0
LINE
  5
4C13
330
1F
100
AcDbEntity
  8
AM_VIS
100
AcDbLine
 10
1681.153478631904
 20
885.0690601050811
 30
0.0
 11
1747.153478631904
 21
885.0690601050811
 31
0.0
  0
LINE
  5
4C1C
330
1F
100
AcDbEntity
  8
AM_VIS
100
AcDbLine
 10
1681.153478631904
 20
853.5690601050809
 30
0.0
 11
1747.153478631904
 21
853.5690601050809
 31
0.0
  0
LINE
  5
4C1D
330
1F
100
AcDbEntity
  8
AM_VIS
100
AcDbLine
 10
1681.153478631904
 20
853.5690601050809
 30
0.0
 11
1681.153478631904
 21
904.5690601050809
 31
0.0
  0
LINE
  5
4C1E
330
1F
100
AcDbEntity
  8
AM_VIS
100
AcDbLine
 10
1681.153478631904
 20
904.5690601050809
 30
0.0
 11
1747.153478631904
 21
904.5690601050809
 31
0.0
  0
LINE
  5
4C1F
330
1F
100
AcDbEntity
  8
AM_VIS
100
AcDbLine
 10
1747.153478631904
 20
853.5690601050809
 30
0.0
 11
1747.153478631904
 21
904.5690601050809
 31
0.0
  0
LINE
  5
4C20
330
1F
100
AcDbEntity
  8
AM_VIS
100
AcDbLine
 10
1681.153478631904
 20
886.5690601050811
 30
0.0
 11
1747.153478631904
 21
886.5690601050811
 31
0.0
  0
LINE
  5
4C2B
330
1F
100
AcDbEntity
  8
AM_VIS
100
AcDbLine
 10
1779.153478631904
 20
1171.937542774168
 30
0.0
 11
1793.153478631904
 21
1171.937542774168
 31
0.0
  0
LINE
  5
4C2C
330
1F
100
AcDbEntity
  8
AM_VIS
100
AcDbLine
 10
1779.153478631904
 20
1120.937542774168
 30
0.0
 11
1793.153478631904
 21
1120.937542774168
 31
0.0
  0
LINE
  5
4C2D
330
1F
100
AcDbEntity
  8
AM_VIS
100
AcDbLine
 10
1793.153478631904
 20
1120.937542774168
 30
0.0
 11
1793.153478631904
 21
1171.937542774168
 31
0.0
  0
LINE
  5
4C2E
330
1F
100
AcDbEntity
  8
AM_VIS
100
AcDbLine
 10
1779.153478631904
 20
1171.937542774168
 30
0.0
 11
1779.153478631904
 21
1120.937542774168
 31
0.0
  0
LINE
  5
4C2F
330
1F
100
AcDbEntity
  8
AM_VIS
100
AcDbLine
 10
1679.153478631904
 20
1171.937542774168
 30
0.0
 11
1665.153478631904
 21
1171.937542774168
 31
0.0
  0
LINE
  5
4C30
330
1F
100
AcDbEntity
  8
AM_VIS
100
AcDbLine
 10
1679.153478631904
 20
1120.937542774168
 30
0.0
 11
1679.153478631904
 21
1171.937542774168
 31
0.0
  0
LINE
  5
4C31
330
1F
100
AcDbEntity
  8
AM_VIS
100
AcDbLine
 10
1679.153478631904
 20
1120.937542774168
 30
0.0
 11
1665.153478631904
 21
1120.937542774168
 31
0.0
  0
LINE
  5
4C32
330
1F
100
AcDbEntity
  8
AM_VIS
100
AcDbLine
 10
1665.153478631904
 20
1171.937542774168
 30
0.0
 11
1665.153478631904
 21
1120.937542774168
 31
0.0
  0
LINE
  5
4C45
330
1F
100
AcDbEntity
  8
AM_VIS
100
AcDbLine
 10
1747.153478631904
 20
1140.937542774168
 30
0.0
 11
1681.153478631904
 21
1140.937542774168
 31
0.0
  0
LINE
  5
4C46
330
1F
100
AcDbEntity
  8
AM_VIS
100
AcDbLine
 10
1681.153478631904
 20
1142.437542774168
 30
0.0
 11
1747.153478631904
 21
1142.437542774168
 31
0.0
  0
LINE
  5
4C47
330
1F
100
AcDbEntity
  8
AM_VIS
100
AcDbLine
 10
1681.153478631904
 20
1157.437542774168
 30
0.0
 11
1747.153478631904
 21
1157.437542774168
 31
0.0
  0
LINE
  5
4C48
330
1F
100
AcDbEntity
  8
AM_VIS
100
AcDbLine
 10
1681.153478631904
 20
1158.937542774168
 30
0.0
 11
1747.153478631904
 21
1158.937542774168
 31
0.0
  0
LINE
  5
4C49
330
1F
100
AcDbEntity
  8
AM_VIS
100
AcDbLine
 10
1681.153478631904
 20
1122.937542774168
 30
0.0
 11
1681.153478631904
 21
1173.937542774168
 31
0.0
  0
LINE
  5
4C52
330
1F
100
AcDbEntity
  8
AM_VIS
100
AcDbLine
 10
1747.153478631904
 20
1122.937542774168
 30
0.0
 11
1747.153478631904
 21
1173.937542774168
 31
0.0
  0
LINE
  5
4C53
330
1F
100
AcDbEntity
  8
AM_VIS
100
AcDbLine
 10
1681.153478631904
 20
1122.937542774168
 30
0.0
 11
1747.153478631904
 21
1122.937542774168
 31
0.0
  0
LINE
  5
4C54
330
1F
100
AcDbEntity
  8
AM_VIS
100
AcDbLine
 10
1747.153478631904
 20
1173.937542774168
 30
0.0
 11
1681.153478631904
 21
1173.937542774168
 31
0.0
  0
LINE
  5
4C55
330
1F
100
AcDbEntity
  8
AM_VIS
100
AcDbLine
 10
1779.153478631904
 20
1210.927703905425
 30
0.0
 11
1793.153478631904
 21
1210.927703905425
 31
0.0
  0
LINE
  5
4C56
330
1F
100
AcDbEntity
  8
AM_VIS
100
AcDbLine
 10
1793.153478631904
 20
1210.927703905425
 30
0.0
 11
1793.153478631904
 21
1326.927703905425
 31
0.0
  0
LINE
  5
4C57
330
1F
100
AcDbEntity
  8
AM_VIS
100
AcDbLine
 10
1779.153478631904
 20
1326.927703905425
 30
0.0
 11
1779.153478631904
 21
1210.927703905425
 31
0.0
  0
LINE
  5
4C58
330
1F
100
AcDbEntity
  8
AM_VIS
100
AcDbLine
 10
1779.153478631904
 20
1326.927703905425
 30
0.0
 11
1793.153478631904
 21
1326.927703905425
 31
0.0
  0
CIRCLE
  5
4C59
330
1F
100
AcDbEntity
  8
AM_VIS
100
AcDbCircle
 10
1786.153478631904
 20
1296.927703905425
 30
0.0
 40
5.5
  0
CIRCLE
  5
4C5A
330
1F
100
AcDbEntity
  8
AM_VIS
100
AcDbCircle
 10
1786.153478631904
 20
1296.927703905425
 30
0.0
 40
3.299999999999999
  0
CIRCLE
  5
4C5B
330
1F
100
AcDbEntity
  8
AM_VIS
100
AcDbCircle
 10
1786.153478631904
 20
1240.927703905425
 30
0.0
 40
5.5
  0
CIRCLE
  5
4C5C
330
1F
100
AcDbEntity
  8
AM_VIS
100
AcDbCircle
 10
1786.153478631904
 20
1240.927703905425
 30
0.0
 40
3.299999999999999
  0
LINE
  5
4C5D
330
1F
100
AcDbEntity
  8
AM_VIS
100
AcDbLine
 10
1679.153478631904
 20
1326.927703905425
 30
0.0
 11
1665.153478631904
 21
1326.927703905425
 31
0.0
  0
LINE
  5
4C5E
330
1F
100
AcDbEntity
  8
AM_VIS
100
AcDbLine
 10
1665.153478631904
 20
1326.927703905425
 30
0.0
 11
1665.153478631904
 21
1210.927703905425
 31
0.0
  0
LINE
  5
4C5F
330
1F
100
AcDbEntity
  8
AM_VIS
100
AcDbLine
 10
1679.153478631904
 20
1210.927703905425
 30
0.0
 11
1679.153478631904
 21
1326.927703905425
 31
0.0
  0
LINE
  5
4C60
330
1F
100
AcDbEntity
  8
AM_VIS
100
AcDbLine
 10
1679.153478631904
 20
1210.927703905425
 30
0.0
 11
1665.153478631904
 21
1210.927703905425
 31
0.0
  0
CIRCLE
  5
4C61
330
1F
100
AcDbEntity
  8
AM_VIS
100
AcDbCircle
 10
1672.153478631904
 20
1240.927703905425
 30
0.0
 40
5.5
  0
CIRCLE
  5
4C62
330
1F
100
AcDbEntity
  8
AM_VIS
100
AcDbCircle
 10
1672.153478631904
 20
1240.927703905425
 30
0.0
 40
3.299999999999999
  0
CIRCLE
  5
4C63
330
1F
100
AcDbEntity
  8
AM_VIS
100
AcDbCircle
 10
1672.153478631904
 20
1296.927703905425
 30
0.0
 40
5.5
  0
CIRCLE
  5
4C64
330
1F
100
AcDbEntity
  8
AM_VIS
100
AcDbCircle
 10
1672.153478631904
 20
1296.927703905425
 30
0.0
 40
3.299999999999999
  0
LINE
  5
4C85
330
1F
100
AcDbEntity
  8
AM_VIS
100
AcDbLine
 10
1747.153478631904
 20
1260.927703905425
 30
0.0
 11
1779.153478631904
 21
1260.927703905425
 31
0.0
  0
LINE
  5
4C86
330
1F
100
AcDbEntity
  8
AM_VIS
100
AcDbLine
 10
1747.153478631904
 20
1276.927703905425
 30
0.0
 11
1779.153478631904
 21
1276.927703905425
 31
0.0
  0
LINE
  5
4C87
330
1F
100
AcDbEntity
  8
AM_VIS
100
AcDbLine
 10
1681.153478631904
 20
1276.927703905425
 30
0.0
 11
1679.153478631904
 21
1276.927703905425
 31
0.0
  0
LINE
  5
4C88
330
1F
100
AcDbEntity
  8
AM_VIS
100
AcDbLine
 10
1681.153478631904
 20
1260.927703905425
 30
0.0
 11
1679.153478631904
 21
1260.927703905425
 31
0.0
  0
LINE
  5
4C89
330
1F
100
AcDbEntity
  8
AM_VIS
100
AcDbLine
 10
1681.153478631904
 20
1232.727703905425
 30
0.0
 11
1747.153478631904
 21
1232.727703905425
 31
0.0
  0
LINE
  5
4C8A
330
1F
100
AcDbEntity
  8
AM_VIS
100
AcDbLine
 10
1681.153478631904
 20
1224.927703905425
 30
0.0
 11
1747.153478631904
 21
1224.927703905425
 31
0.0
  0
LINE
  5
4C8B
330
1F
100
AcDbEntity
  8
AM_VIS
100
AcDbLine
 10
1681.153478631904
 20
1300.927703905425
 30
0.0
 11
1747.153478631904
 21
1300.927703905425
 31
0.0
  0
LINE
  5
4C8C
330
1F
100
AcDbEntity
  8
AM_VIS
100
AcDbLine
 10
1681.153478631904
 20
1305.127703905425
 30
0.0
 11
1747.153478631904
 21
1305.127703905425
 31
0.0
  0
LINE
  5
4C8D
330
1F
100
AcDbEntity
  8
AM_VIS
100
AcDbLine
 10
1681.153478631904
 20
1257.027703905425
 30
0.0
 11
1747.153478631904
 21
1257.027703905425
 31
0.0
  0
LINE
  5
4C8E
330
1F
100
AcDbEntity
  8
AM_VIS
100
AcDbLine
 10
1747.153478631904
 20
1260.727703905425
 30
0.0
 11
1681.153478631904
 21
1260.727703905425
 31
0.0
  0
LINE
  5
4C8F
330
1F
100
AcDbEntity
  8
AM_VIS
100
AcDbLine
 10
1681.153478631904
 20
1264.127703905425
 30
0.0
 11
1747.153478631904
 21
1264.127703905425
 31
0.0
  0
LINE
  5
4C90
330
1F
100
AcDbEntity
  8
AM_VIS
100
AcDbLine
 10
1681.153478631904
 20
1277.127703905425
 30
0.0
 11
1747.153478631904
 21
1277.127703905425
 31
0.0
  0
LINE
  5
4C91
330
1F
100
AcDbEntity
  8
AM_VIS
100
AcDbLine
 10
1747.153478631904
 20
1273.727703905425
 30
0.0
 11
1681.153478631904
 21
1273.727703905425
 31
0.0
  0
LINE
  5
4C92
330
1F
100
AcDbEntity
  8
AM_VIS
100
AcDbLine
 10
1681.153478631904
 20
1280.827703905425
 30
0.0
 11
1747.153478631904
 21
1280.827703905425
 31
0.0
  0
LINE
  5
4C93
330
1F
100
AcDbEntity
  8
AM_VIS
100
AcDbLine
 10
1681.153478631904
 20
1236.927703905425
 30
0.0
 11
1747.153478631904
 21
1236.927703905425
 31
0.0
  0
LINE
  5
4C94
330
1F
100
AcDbEntity
  8
AM_VIS
100
AcDbLine
 10
1681.153478631904
 20
1312.927703905425
 30
0.0
 11
1747.153478631904
 21
1312.927703905425
 31
0.0
  0
LINE
  5
4CB4
330
1F
100
AcDbEntity
  8
AM_VIS
100
AcDbLine
 10
1747.153478631904
 20
1283.627703905425
 30
0.0
 11
1681.153478631904
 21
1283.627703905425
 31
0.0
  0
LINE
  5
4CB6
330
1F
100
AcDbEntity
  8
AM_VIS
100
AcDbLine
 10
1681.153478631904
 20
1296.227703905425
 30
0.0
 11
1747.153478631904
 21
1296.227703905425
 31
0.0
  0
LINE
  5
4CB8
330
1F
100
AcDbEntity
  8
AM_VIS
100
AcDbLine
 10
1747.153478631904
 20
1241.627703905425
 30
0.0
 11
1681.153478631904
 21
1241.627703905425
 31
0.0
  0
LINE
  5
4CBA
330
1F
100
AcDbEntity
  8
AM_VIS
100
AcDbLine
 10
1681.153478631904
 20
1254.227703905425
 30
0.0
 11
1747.153478631904
 21
1254.227703905425
 31
0.0
  0
LINE
  5
4CBB
330
1F
100
AcDbEntity
  8
AM_VIS
100
AcDbLine
 10
1747.153478631904
 20
1210.927703905425
 30
0.0
 11
1681.153478631904
 21
1210.927703905425
 31
0.0
  0
LINE
  5
4CBD
330
1F
100
AcDbEntity
  8
AM_VIS
100
AcDbLine
 10
1681.153478631904
 20
1224.427703905425
 30
0.0
 11
1747.153478631904
 21
1224.427703905425
 31
0.0
  0
LINE
  5
4CBF
330
1F
100
AcDbEntity
  8
AM_VIS
100
AcDbLine
 10
1747.153478631904
 20
1313.427703905425
 30
0.0
 11
1681.153478631904
 21
1313.427703905425
 31
0.0
  0
LINE
  5
4CC0
330
1F
100
AcDbEntity
  8
AM_VIS
100
AcDbLine
 10
1681.153478631904
 20
1210.927703905425
 30
0.0
 11
1681.153478631904
 21
1326.927703905425
 31
0.0
  0
LINE
  5
4CC1
330
1F
100
AcDbEntity
  8
AM_VIS
100
AcDbLine
 10
1681.153478631904
 20
1326.927703905425
 30
0.0
 11
1747.153478631904
 21
1326.927703905425
 31
0.0
  0
LINE
  5
4CC2
330
1F
100
AcDbEntity
  8
AM_VIS
100
AcDbLine
 10
1747.153478631904
 20
1326.927703905425
 30
0.0
 11
1747.153478631904
 21
1210.927703905425
 31
0.0
  0
LINE
  5
4CC3
330
1F
100
AcDbEntity
  8
AM_VIS
100
AcDbLine
 10
1713.153478631904
 20
1222.927703905425
 30
0.0
 11
1715.153478631904
 21
1222.927703905425
 31
0.0
  0
LINE
  5
4CC4
330
1F
100
AcDbEntity
  8
AM_VIS
100
AcDbLine
 10
1715.153478631904
 20
1214.927703905425
 30
0.0
 11
1713.153478631904
 21
1214.927703905425
 31
0.0
  0
CIRCLE
  5
4CCD
330
1F
100
AcDbEntity
  8
AM_VIS
100
AcDbCircle
 10
1727.153478631904
 20
1289.927703905425
 30
0.0
 40
3.399999999999999
  0
CIRCLE
  5
4CCF
330
1F
100
AcDbEntity
  8
AM_VIS
100
AcDbCircle
 10
1701.153478631904
 20
1289.927703905425
 30
0.0
 40
3.399999999999999
  0
CIRCLE
  5
4CD3
330
1F
100
AcDbEntity
  8
AM_VIS
100
AcDbCircle
 10
1727.153478631904
 20
1247.927703905425
 30
0.0
 40
3.399999999999999
  0
CIRCLE
  5
4CD5
330
1F
100
AcDbEntity
  8
AM_VIS
100
AcDbCircle
 10
1701.153478631904
 20
1247.927703905425
 30
0.0
 40
3.399999999999999
  0
CIRCLE
  5
4CE1
330
1F
100
AcDbEntity
  8
AM_VIS
100
AcDbCircle
 10
1714.153478631904
 20
1318.927703905425
 30
0.0
 40
4.0
  0
ARC
  5
4CE2
330
1F
100
AcDbEntity
  8
AM_VIS
100
AcDbCircle
 10
1715.153478631904
 20
1218.927703905425
 30
0.0
 40
4.0
100
AcDbArc
 50
270.0
 51
90.0
  0
ARC
  5
4CE3
330
1F
100
AcDbEntity
  8
AM_VIS
100
AcDbCircle
 10
1713.153478631904
 20
1218.927703905425
 30
0.0
 40
3.999999999999985
100
AcDbArc
 50
90.0
 51
270.0
  0
ARC
  5
4CE4
330
1F
100
AcDbEntity
  8
AM_VIS
100
AcDbCircle
 10
1714.153478631904
 20
1218.927703905425
 30
0.0
 40
4.0
100
AcDbArc
 50
270.0
 51
90.0
  0
ARC
  5
4CE5
330
1F
100
AcDbEntity
  8
AM_VIS
100
AcDbCircle
 10
1714.153478631904
 20
1218.927703905425
 30
0.0
 40
4.0
100
AcDbArc
 50
90.0
 51
270.0
  0
LINE
  5
4D0E
330
1F
100
AcDbEntity
  8
AM_VIS
100
AcDbLine
 10
1679.153478631904
 20
1051.907530246744
 30
0.0
 11
1681.153478631904
 21
1051.907530246744
 31
0.0
  0
LINE
  5
4D0F
330
1F
100
AcDbEntity
  8
AM_VIS
100
AcDbLine
 10
1747.153478631904
 20
1051.907530246744
 30
0.0
 11
1779.153478631904
 21
1051.907530246744
 31
0.0
  0
LINE
  5
4D10
330
1F
100
AcDbEntity
  8
AM_VIS
100
AcDbLine
 10
1679.153478631904
 20
1071.907530246744
 30
0.0
 11
1681.153478631904
 21
1071.907530246744
 31
0.0
  0
LINE
  5
4D11
330
1F
100
AcDbEntity
  8
AM_VIS
100
AcDbLine
 10
1747.153478631904
 20
1071.907530246744
 30
0.0
 11
1779.153478631904
 21
1071.907530246744
 31
0.0
  0
LINE
  5
4D12
330
1F
100
AcDbEntity
  8
AM_VIS
100
AcDbLine
 10
1679.153478631904
 20
869.5690601050809
 30
0.0
 11
1681.153478631904
 21
869.5690601050809
 31
0.0
  0
LINE
  5
4D13
330
1F
100
AcDbEntity
  8
AM_VIS
100
AcDbLine
 10
1747.153478631904
 20
869.5690601050809
 30
0.0
 11
1779.153478631904
 21
869.5690601050809
 31
0.0
  0
LINE
  5
4D14
330
1F
100
AcDbEntity
  8
AM_VIS
100
AcDbLine
 10
1679.153478631904
 20
889.569060105081
 30
0.0
 11
1681.153478631904
 21
889.569060105081
 31
0.0
  0
LINE
  5
4D15
330
1F
100
AcDbEntity
  8
AM_VIS
100
AcDbLine
 10
1747.153478631904
 20
889.569060105081
 30
0.0
 11
1779.153478631904
 21
889.5690601050809
 31
0.0
  0
LINE
  5
4D22
330
1F
100
AcDbEntity
  8
AM_7
100
AcDbLine
 10
1663.153478631904
 20
1021.907530246744
 30
0.0
 11
1795.153478631904
 21
1021.907530246744
 31
0.0
1001
GENIUS_GENODEF_13
1002
{
1000
HIER
1070
     0
1002
}
1002
{
1000
MANEDIT
1070
     0
1002
}
1002
{
1000
NOSEL
1070
     0
1002
}
1002
{
1000
BEHIND
1070
     0
1002
}
1002
{
1000
OTHER
1070
     0
1002
}
1002
{
1000
REACTOR
1002
}
1001
GENIUS_GENOBJ-N-CEN_13
1002
{
1000
OWNER
1000
GEN
1002
}
1001
GENIUS_GENCEN_19
1002
{
1040
2.0
1002
}
  0
LINE
  5
4D23
330
1F
100
AcDbEntity
  8
AM_VIS
100
AcDbLine
 10
1679.153478631904
 20
1298.927703905425
 30
0.0
 11
1681.153478631904
 21
1298.927703905425
 31
0.0
  0
LINE
  5
4D24
330
1F
100
AcDbEntity
  8
AM_VIS
100
AcDbLine
 10
1747.153478631904
 20
1298.927703905425
 30
0.0
 11
1779.153478631904
 21
1298.927703905425
 31
0.0
  0
LINE
  5
4D25
330
1F
100
AcDbEntity
  8
AM_VIS
100
AcDbLine
 10
1679.153478631904
 20
1318.927703905425
 30
0.0
 11
1681.153478631904
 21
1318.927703905425
 31
0.0
  0
LINE
  5
4D26
330
1F
100
AcDbEntity
  8
AM_VIS
100
AcDbLine
 10
1747.153478631904
 20
1318.927703905425
 30
0.0
 11
1779.153478631904
 21
1318.927703905425
 31
0.0
  0
LINE
  5
4D27
330
1F
100
AcDbEntity
  8
AM_VIS
100
AcDbLine
 10
1679.153478631904
 20
1238.927703905425
 30
0.0
 11
1681.153478631904
 21
1238.927703905425
 31
0.0
  0
LINE
  5
4D28
330
1F
100
AcDbEntity
  8
AM_VIS
100
AcDbLine
 10
1747.153478631904
 20
1238.927703905425
 30
0.0
 11
1779.153478631904
 21
1238.927703905425
 31
0.0
  0
LINE
  5
4D29
330
1F
100
AcDbEntity
  8
AM_VIS
100
AcDbLine
 10
1679.153478631904
 20
1218.927703905425
 30
0.0
 11
1681.153478631904
 21
1218.927703905425
 31
0.0
  0
LINE
  5
4D2A
330
1F
100
AcDbEntity
  8
AM_VIS
100
AcDbLine
 10
1747.153478631904
 20
1218.927703905425
 30
0.0
 11
1779.153478631904
 21
1218.927703905425
 31
0.0
  0
LINE
  5
4D37
330
1F
100
AcDbEntity
  8
AM_7
100
AcDbLine
 10
1677.153478631904
 20
1061.907530246744
 30
0.0
 11
1683.153478631904
 21
1061.907530246744
 31
0.0
1001
GENIUS_GENODEF_13
1002
{
1000
HIER
1070
     0
1002
}
1002
{
1000
MANEDIT
1070
     0
1002
}
1002
{
1000
NOSEL
1070
     0
1002
}
1002
{
1000
BEHIND
1070
     0
1002
}
1002
{
1000
OTHER
1070
     0
1002
}
1002
{
1000
REACTOR
1002
}
1001
GENIUS_GENOBJ-N-CEN_13
1002
{
1000
OWNER
1000
GEN
1002
}
1001
GENIUS_GENCEN_19
1002
{
1040
2.0
1002
}
  0
LINE
  5
4D44
330
1F
100
AcDbEntity
  8
AM_7
100
AcDbLine
 10
1745.153478631904
 20
1061.907530246744
 30
0.0
 11
1781.153478631904
 21
1061.907530246744
 31
0.0
1001
GENIUS_GENODEF_13
1002
{
1000
HIER
1070
     0
1002
}
1002
{
1000
MANEDIT
1070
     0
1002
}
1002
{
1000
NOSEL
1070
     0
1002
}
1002
{
1000
BEHIND
1070
     0
1002
}
1002
{
1000
OTHER
1070
     0
1002
}
1002
{
1000
REACTOR
1002
}
1001
GENIUS_GENOBJ-N-CEN_13
1002
{
1000
OWNER
1000
GEN
1002
}
1001
GENIUS_GENCEN_19
1002
{
1040
2.0
1002
}
  0
LINE
  5
4D51
330
1F
100
AcDbEntity
  8
AM_7
100
AcDbLine
 10
1677.153478631904
 20
981.9075302467441
 30
0.0
 11
1683.153478631904
 21
981.9075302467441
 31
0.0
1001
GENIUS_GENOBJ-N-CEN_13
1002
{
1000
OWNER
1000
GEN
1002
}
1001
GENIUS_GENODEF_13
1002
{
1000
HIER
1070
     0
1002
}
1002
{
1000
MANEDIT
1070
     0
1002
}
1002
{
1000
NOSEL
1070
     0
1002
}
1002
{
1000
BEHIND
1070
     0
1002
}
1002
{
1000
OTHER
1070
     0
1002
}
1002
{
1000
REACTOR
1002
}
1001
GENIUS_GENCEN_19
1002
{
1040
2.0
1002
}
  0
LINE
  5
4D5E
330
1F
100
AcDbEntity
  8
AM_7
100
AcDbLine
 10
1745.153478631904
 20
981.9075302467441
 30
0.0
 11
1781.153478631904
 21
981.9075302467441
 31
0.0
1001
GENIUS_GENOBJ-N-CEN_13
1002
{
1000
OWNER
1000
GEN
1002
}
1001
GENIUS_GENODEF_13
1002
{
1000
HIER
1070
     0
1002
}
1002
{
1000
MANEDIT
1070
     0
1002
}
1002
{
1000
NOSEL
1070
     0
1002
}
1002
{
1000
BEHIND
1070
     0
1002
}
1002
{
1000
OTHER
1070
     0
1002
}
1002
{
1000
REACTOR
1002
}
1001
GENIUS_GENCEN_19
1002
{
1040
2.0
1002
}
  0
LINE
  5
4D6B
330
1F
100
AcDbEntity
  8
AM_7
100
AcDbLine
 10
1663.153478631904
 20
879.5690601050809
 30
0.0
 11
1795.153478631904
 21
879.5690601050809
 31
0.0
1001
GENIUS_GENODEF_13
1002
{
1000
HIER
1070
     0
1002
}
1002
{
1000
MANEDIT
1070
     0
1002
}
1002
{
1000
NOSEL
1070
     0
1002
}
1002
{
1000
BEHIND
1070
     0
1002
}
1002
{
1000
OTHER
1070
     0
1002
}
1002
{
1000
REACTOR
1002
}
1001
GENIUS_GENOBJ-N-CEN_13
1002
{
1000
OWNER
1000
GEN
1002
}
1001
GENIUS_GENCEN_19
1002
{
1040
2.0
1002
}
  0
LINE
  5
4D78
330
1F
100
AcDbEntity
  8
AM_7
100
AcDbLine
 10
1663.153478631904
 20
1147.937542774168
 30
0.0
 11
1795.153478631904
 21
1147.937542774168
 31
0.0
1001
GENIUS_GENODEF_13
1002
{
1000
HIER
1070
     0
1002
}
1002
{
1000
MANEDIT
1070
     0
1002
}
1002
{
1000
NOSEL
1070
     0
1002
}
1002
{
1000
BEHIND
1070
     0
1002
}
1002
{
1000
OTHER
1070
     0
1002
}
1002
{
1000
REACTOR
1002
}
1001
GENIUS_GENOBJ-N-CEN_13
1002
{
1000
OWNER
1000
GEN
1002
}
1001
GENIUS_GENCEN_19
1002
{
1040
2.0
1002
}
  0
LINE
  5
4D79
330
1F
100
AcDbEntity
  8
AM_VIS
100
AcDbLine
 10
1679.153478631904
 20
1137.937542774168
 30
0.0
 11
1681.153478631904
 21
1137.937542774168
 31
0.0
  0
LINE
  5
4D7A
330
1F
100
AcDbEntity
  8
AM_VIS
100
AcDbLine
 10
1747.153478631904
 20
1137.937542774168
 30
0.0
 11
1779.153478631904
 21
1137.937542774168
 31
0.0
  0
LINE
  5
4D7B
330
1F
100
AcDbEntity
  8
AM_VIS
100
AcDbLine
 10
1679.153478631904
 20
1157.937542774168
 30
0.0
 11
1681.153478631904
 21
1157.937542774168
 31
0.0
  0
LINE
  5
4D7C
330
1F
100
AcDbEntity
  8
AM_VIS
100
AcDbLine
 10
1747.153478631904
 20
1157.937542774168
 30
0.0
 11
1779.153478631904
 21
1157.937542774168
 31
0.0
  0
LINE
  5
4D7D
330
1F
100
AcDbEntity
  8
AM_7
100
AcDbLine
 10
1663.153478631904
 20
1268.927703905425
 30
0.0
 11
1795.153478631904
 21
1268.927703905425
 31
0.0
1001
GENIUS_GENODEF_13
1002
{
1000
HIER
1070
     0
1002
}
1002
{
1000
MANEDIT
1070
     0
1002
}
1002
{
1000
NOSEL
1070
     0
1002
}
1002
{
1000
BEHIND
1070
     0
1002
}
1002
{
1000
OTHER
1070
     0
1002
}
1002
{
1000
REACTOR
1002
}
1001
GENIUS_GENOBJ-N-CEN_13
1002
{
1000
OWNER
1000
GEN
1002
}
1001
GENIUS_GENCEN_19
1002
{
1040
2.0
1002
}
  0
LINE
  5
4D7E
330
1F
100
AcDbEntity
  8
AM_7
100
AcDbLine
 10
1677.153478631904
 20
1308.927703905425
 30
0.0
 11
1683.153478631904
 21
1308.927703905425
 31
0.0
1001
GENIUS_GENODEF_13
1002
{
1000
HIER
1070
     0
1002
}
1002
{
1000
MANEDIT
1070
     0
1002
}
1002
{
1000
NOSEL
1070
     0
1002
}
1002
{
1000
BEHIND
1070
     0
1002
}
1002
{
1000
OTHER
1070
     0
1002
}
1002
{
1000
REACTOR
1002
}
1001
GENIUS_GENOBJ-N-CEN_13
1002
{
1000
OWNER
1000
GEN
1002
}
1001
GENIUS_GENCEN_19
1002
{
1040
2.0
1002
}
  0
LINE
  5
4D7F
330
1F
100
AcDbEntity
  8
AM_7
100
AcDbLine
 10
1745.153478631904
 20
1308.927703905425
 30
0.0
 11
1781.153478631904
 21
1308.927703905425
 31
0.0
1001
GENIUS_GENODEF_13
1002
{
1000
HIER
1070
     0
1002
}
1002
{
1000
MANEDIT
1070
     0
1002
}
1002
{
1000
NOSEL
1070
     0
1002
}
1002
{
1000
BEHIND
1070
     0
1002
}
1002
{
1000
OTHER
1070
     0
1002
}
1002
{
1000
REACTOR
1002
}
1001
GENIUS_GENOBJ-N-CEN_13
1002
{
1000
OWNER
1000
GEN
1002
}
1001
GENIUS_GENCEN_19
1002
{
1040
2.0
1002
}
  0
LINE
  5
4D80
330
1F
100
AcDbEntity
  8
AM_7
100
AcDbLine
 10
1677.153478631904
 20
1228.927703905425
 30
0.0
 11
1683.153478631904
 21
1228.927703905425
 31
0.0
1001
GENIUS_GENOBJ-N-CEN_13
1002
{
1000
OWNER
1000
GEN
1002
}
1001
GENIUS_GENODEF_13
1002
{
1000
HIER
1070
     0
1002
}
1002
{
1000
MANEDIT
1070
     0
1002
}
1002
{
1000
NOSEL
1070
     0
1002
}
1002
{
1000
BEHIND
1070
     0
1002
}
1002
{
1000
OTHER
1070
     0
1002
}
1002
{
1000
REACTOR
1002
}
1001
GENIUS_GENCEN_19
1002
{
1040
2.0
1002
}
  0
LINE
  5
4D81
330
1F
100
AcDbEntity
  8
AM_7
100
AcDbLine
 10
1745.153478631904
 20
1228.927703905425
 30
0.0
 11
1781.153478631904
 21
1228.927703905425
 31
0.0
1001
GENIUS_GENOBJ-N-CEN_13
1002
{
1000
OWNER
1000
GEN
1002
}
1001
GENIUS_GENODEF_13
1002
{
1000
HIER
1070
     0
1002
}
1002
{
1000
MANEDIT
1070
     0
1002
}
1002
{
1000
NOSEL
1070
     0
1002
}
1002
{
1000
BEHIND
1070
     0
1002
}
1002
{
1000
OTHER
1070
     0
1002
}
1002
{
1000
REACTOR
1002
}
1001
GENIUS_GENCEN_19
1002
{
1040
2.0
1002
}
  0
LINE
  5
4D91
330
1F
100
AcDbEntity
  8
AM_7
  6
AM_ISO08W050x2
100
AcDbLine
 10
1786.153478631904
 20
983.907530246744
 30
0.0
 11
1792.153478631904
 21
983.907530246744
 31
0.0
1001
GENIUS_GENOREF_13
1005
4D95
  0
LINE
  5
4D92
330
1F
100
AcDbEntity
  8
AM_7
  6
AM_ISO08W050x2
100
AcDbLine
 10
1786.153478631904
 20
983.907530246744
 30
0.0
 11
1786.153478631904
 21
989.9075302467441
 31
0.0
1001
GENIUS_GENOREF_13
1005
4D95
  0
LINE
  5
4D93
330
1F
100
AcDbEntity
  8
AM_7
  6
AM_ISO08W050x2
100
AcDbLine
 10
1786.153478631904
 20
983.907530246744
 30
0.0
 11
1780.153478631904
 21
983.907530246744
 31
0.0
1001
GENIUS_GENOREF_13
1005
4D95
  0
LINE
  5
4D94
330
1F
100
AcDbEntity
  8
AM_7
  6
AM_ISO08W050x2
100
AcDbLine
 10
1786.153478631904
 20
983.907530246744
 30
0.0
 11
1786.153478631904
 21
977.907530246744
 31
0.0
1001
GENIUS_GENOREF_13
1005
4D95
  0
POINT
  5
4D95
330
1F
100
AcDbEntity
  8
0
 60
     1
100
AcDbPoint
 10
0.0
 20
0.0
 30
0.0
1001
GENIUS_GENOLIS_13
1002
{
1000
ENT
1005
4D94
1005
4D93
1005
4D92
1005
4D91
1002
}
1001
GENIUS_GENOENT_13
1002
{
1000
MYREF
1005
4D95
1002
}
1002
{
1000
GRP
1005
0
1002
}
1001
GENIUS_GENOBJ-N-CRS_13
1002
{
1000
OWNER
1000
GEN
1002
}
1001
GENIUS_GENODEF_13
1002
{
1000
HIER
1070
    10
1002
}
1002
{
1000
MANEDIT
1070
     0
1002
}
1002
{
1000
NOSEL
1070
     0
1002
}
1002
{
1000
BEHIND
1070
     0
1002
}
1002
{
1000
OTHER
1070
     0
1002
}
1002
{
1000
REACTOR
1002
}
  0
LINE
  5
4DA3
330
1F
100
AcDbEntity
  8
AM_7
  6
AM_ISO08W050x2
100
AcDbLine
 10
1786.153478631904
 20
993.907530246744
 30
0.0
 11
1791.453478631904
 21
993.907530246744
 31
0.0
1001
GENIUS_GENOREF_13
1005
4DA7
  0
LINE
  5
4DA4
330
1F
100
AcDbEntity
  8
AM_7
  6
AM_ISO08W050x2
100
AcDbLine
 10
1786.153478631904
 20
993.907530246744
 30
0.0
 11
1786.153478631904
 21
999.2075302467442
 31
0.0
1001
GENIUS_GENOREF_13
1005
4DA7
  0
LINE
  5
4DA5
330
1F
100
AcDbEntity
  8
AM_7
  6
AM_ISO08W050x2
100
AcDbLine
 10
1786.153478631904
 20
993.907530246744
 30
0.0
 11
1780.853478631904
 21
993.907530246744
 31
0.0
1001
GENIUS_GENOREF_13
1005
4DA7
  0
LINE
  5
4DA6
330
1F
100
AcDbEntity
  8
AM_7
  6
AM_ISO08W050x2
100
AcDbLine
 10
1786.153478631904
 20
993.907530246744
 30
0.0
 11
1786.153478631904
 21
988.6075302467439
 31
0.0
1001
GENIUS_GENOREF_13
1005
4DA7
  0
POINT
  5
4DA7
330
1F
100
AcDbEntity
  8
0
 60
     1
100
AcDbPoint
 10
0.0
 20
0.0
 30
0.0
1001
GENIUS_GENOENT_13
1002
{
1000
MYREF
1005
4DA7
1002
}
1002
{
1000
GRP
1005
0
1002
}
1001
GENIUS_GENOBJ-N-CRS_13
1002
{
1000
OWNER
1000
GEN
1002
}
1001
GENIUS_GENODEF_13
1002
{
1000
HIER
1070
    10
1002
}
1002
{
1000
MANEDIT
1070
     0
1002
}
1002
{
1000
NOSEL
1070
     0
1002
}
1002
{
1000
BEHIND
1070
     0
1002
}
1002
{
1000
OTHER
1070
     0
1002
}
1002
{
1000
REACTOR
1002
}
1001
GENIUS_GENOLIS_13
1002
{
1000
ENT
1005
4DA6
1005
4DA5
1005
4DA4
1005
4DA3
1002
}
  0
LINE
  5
4DB5
330
1F
100
AcDbEntity
  8
AM_7
  6
AM_ISO08W050x2
100
AcDbLine
 10
1786.153478631904
 20
1049.907530246744
 30
0.0
 11
1791.453478631904
 21
1049.907530246744
 31
0.0
1001
GENIUS_GENOREF_13
1005
4DB9
  0
LINE
  5
4DB6
330
1F
100
AcDbEntity
  8
AM_7
  6
AM_ISO08W050x2
100
AcDbLine
 10
1786.153478631904
 20
1049.907530246744
 30
0.0
 11
1786.153478631904
 21
1055.207530246744
 31
0.0
1001
GENIUS_GENOREF_13
1005
4DB9
  0
LINE
  5
4DB7
330
1F
100
AcDbEntity
  8
AM_7
  6
AM_ISO08W050x2
100
AcDbLine
 10
1786.153478631904
 20
1049.907530246744
 30
0.0
 11
1780.853478631904
 21
1049.907530246744
 31
0.0
1001
GENIUS_GENOREF_13
1005
4DB9
  0
LINE
  5
4DB8
330
1F
100
AcDbEntity
  8
AM_7
  6
AM_ISO08W050x2
100
AcDbLine
 10
1786.153478631904
 20
1049.907530246744
 30
0.0
 11
1786.153478631904
 21
1044.607530246744
 31
0.0
1001
GENIUS_GENOREF_13
1005
4DB9
  0
POINT
  5
4DB9
330
1F
100
AcDbEntity
  8
0
 60
     1
100
AcDbPoint
 10
0.0
 20
0.0
 30
0.0
1001
GENIUS_GENODEF_13
1002
{
1000
HIER
1070
    10
1002
}
1002
{
1000
MANEDIT
1070
     0
1002
}
1002
{
1000
NOSEL
1070
     0
1002
}
1002
{
1000
BEHIND
1070
     0
1002
}
1002
{
1000
OTHER
1070
     0
1002
}
1002
{
1000
REACTOR
1002
}
1001
GENIUS_GENOLIS_13
1002
{
1000
ENT
1005
4DB8
1005
4DB7
1005
4DB6
1005
4DB5
1002
}
1001
GENIUS_GENOBJ-N-CRS_13
1002
{
1000
OWNER
1000
GEN
1002
}
1001
GENIUS_GENOENT_13
1002
{
1000
MYREF
1005
4DB9
1002
}
1002
{
1000
GRP
1005
0
1002
}
  0
LINE
  5
4DC7
330
1F
100
AcDbEntity
  8
AM_7
  6
AM_ISO08W050x2
100
AcDbLine
 10
1786.153478631904
 20
1059.907530246744
 30
0.0
 11
1792.153478631904
 21
1059.907530246744
 31
0.0
1001
GENIUS_GENOREF_13
1005
4DCB
  0
LINE
  5
4DC8
330
1F
100
AcDbEntity
  8
AM_7
  6
AM_ISO08W050x2
100
AcDbLine
 10
1786.153478631904
 20
1059.907530246744
 30
0.0
 11
1786.153478631904
 21
1065.907530246744
 31
0.0
1001
GENIUS_GENOREF_13
1005
4DCB
  0
LINE
  5
4DC9
330
1F
100
AcDbEntity
  8
AM_7
  6
AM_ISO08W050x2
100
AcDbLine
 10
1786.153478631904
 20
1059.907530246744
 30
0.0
 11
1780.153478631904
 21
1059.907530246744
 31
0.0
1001
GENIUS_GENOREF_13
1005
4DCB
  0
LINE
  5
4DCA
330
1F
100
AcDbEntity
  8
AM_7
  6
AM_ISO08W050x2
100
AcDbLine
 10
1786.153478631904
 20
1059.907530246744
 30
0.0
 11
1786.153478631904
 21
1053.907530246744
 31
0.0
1001
GENIUS_GENOREF_13
1005
4DCB
  0
POINT
  5
4DCB
330
1F
100
AcDbEntity
  8
0
 60
     1
100
AcDbPoint
 10
0.0
 20
0.0
 30
0.0
1001
GENIUS_GENOLIS_13
1002
{
1000
ENT
1005
4DCA
1005
4DC9
1005
4DC8
1005
4DC7
1002
}
1001
GENIUS_GENOENT_13
1002
{
1000
MYREF
1005
4DCB
1002
}
1002
{
1000
GRP
1005
0
1002
}
1001
GENIUS_GENOBJ-N-CRS_13
1002
{
1000
OWNER
1000
GEN
1002
}
1001
GENIUS_GENODEF_13
1002
{
1000
HIER
1070
    10
1002
}
1002
{
1000
MANEDIT
1070
     0
1002
}
1002
{
1000
NOSEL
1070
     0
1002
}
1002
{
1000
BEHIND
1070
     0
1002
}
1002
{
1000
OTHER
1070
     0
1002
}
1002
{
1000
REACTOR
1002
}
  0
LINE
  5
4DD9
330
1F
100
AcDbEntity
  8
AM_7
  6
AM_ISO08W050x2
100
AcDbLine
 10
1672.153478631904
 20
1059.907530246744
 30
0.0
 11
1678.153478631904
 21
1059.907530246744
 31
0.0
1001
GENIUS_GENOREF_13
1005
4DDD
  0
LINE
  5
4DDA
330
1F
100
AcDbEntity
  8
AM_7
  6
AM_ISO08W050x2
100
AcDbLine
 10
1672.153478631904
 20
1059.907530246744
 30
0.0
 11
1672.153478631904
 21
1065.907530246744
 31
0.0
1001
GENIUS_GENOREF_13
1005
4DDD
  0
LINE
  5
4DDB
330
1F
100
AcDbEntity
  8
AM_7
  6
AM_ISO08W050x2
100
AcDbLine
 10
1672.153478631904
 20
1059.907530246744
 30
0.0
 11
1666.153478631904
 21
1059.907530246744
 31
0.0
1001
GENIUS_GENOREF_13
1005
4DDD
  0
LINE
  5
4DDC
330
1F
100
AcDbEntity
  8
AM_7
  6
AM_ISO08W050x2
100
AcDbLine
 10
1672.153478631904
 20
1059.907530246744
 30
0.0
 11
1672.153478631904
 21
1053.907530246744
 31
0.0
1001
GENIUS_GENOREF_13
1005
4DDD
  0
POINT
  5
4DDD
330
1F
100
AcDbEntity
  8
0
 60
     1
100
AcDbPoint
 10
0.0
 20
0.0
 30
0.0
1001
GENIUS_GENODEF_13
1002
{
1000
HIER
1070
    10
1002
}
1002
{
1000
MANEDIT
1070
     0
1002
}
1002
{
1000
NOSEL
1070
     0
1002
}
1002
{
1000
BEHIND
1070
     0
1002
}
1002
{
1000
OTHER
1070
     0
1002
}
1002
{
1000
REACTOR
1002
}
1001
GENIUS_GENOENT_13
1002
{
1000
MYREF
1005
4DDD
1002
}
1002
{
1000
GRP
1005
0
1002
}
1001
GENIUS_GENOBJ-N-CRS_13
1002
{
1000
OWNER
1000
GEN
1002
}
1001
GENIUS_GENOLIS_13
1002
{
1000
ENT
1005
4DDC
1005
4DDB
1005
4DDA
1005
4DD9
1002
}
  0
LINE
  5
4DEB
330
1F
100
AcDbEntity
  8
AM_7
  6
AM_ISO08W050x2
100
AcDbLine
 10
1672.153478631904
 20
1049.907530246744
 30
0.0
 11
1677.453478631904
 21
1049.907530246744
 31
0.0
1001
GENIUS_GENOREF_13
1005
4DEF
  0
LINE
  5
4DEC
330
1F
100
AcDbEntity
  8
AM_7
  6
AM_ISO08W050x2
100
AcDbLine
 10
1672.153478631904
 20
1049.907530246744
 30
0.0
 11
1672.153478631904
 21
1055.207530246744
 31
0.0
1001
GENIUS_GENOREF_13
1005
4DEF
  0
LINE
  5
4DED
330
1F
100
AcDbEntity
  8
AM_7
  6
AM_ISO08W050x2
100
AcDbLine
 10
1672.153478631904
 20
1049.907530246744
 30
0.0
 11
1666.853478631904
 21
1049.907530246744
 31
0.0
1001
GENIUS_GENOREF_13
1005
4DEF
  0
LINE
  5
4DEE
330
1F
100
AcDbEntity
  8
AM_7
  6
AM_ISO08W050x2
100
AcDbLine
 10
1672.153478631904
 20
1049.907530246744
 30
0.0
 11
1672.153478631904
 21
1044.607530246744
 31
0.0
1001
GENIUS_GENOREF_13
1005
4DEF
  0
POINT
  5
4DEF
330
1F
100
AcDbEntity
  8
0
 60
     1
100
AcDbPoint
 10
0.0
 20
0.0
 30
0.0
1001
GENIUS_GENOLIS_13
1002
{
1000
ENT
1005
4DEE
1005
4DED
1005
4DEC
1005
4DEB
1002
}
1001
GENIUS_GENOBJ-N-CRS_13
1002
{
1000
OWNER
1000
GEN
1002
}
1001
GENIUS_GENODEF_13
1002
{
1000
HIER
1070
    10
1002
}
1002
{
1000
MANEDIT
1070
     0
1002
}
1002
{
1000
NOSEL
1070
     0
1002
}
1002
{
1000
BEHIND
1070
     0
1002
}
1002
{
1000
OTHER
1070
     0
1002
}
1002
{
1000
REACTOR
1002
}
1001
GENIUS_GENOENT_13
1002
{
1000
MYREF
1005
4DEF
1002
}
1002
{
1000
GRP
1005
0
1002
}
  0
LINE
  5
4DFD
330
1F
100
AcDbEntity
  8
AM_7
  6
AM_ISO08W050x2
100
AcDbLine
 10
1672.153478631904
 20
993.907530246744
 30
0.0
 11
1677.453478631904
 21
993.907530246744
 31
0.0
1001
GENIUS_GENOREF_13
1005
4E01
  0
LINE
  5
4DFE
330
1F
100
AcDbEntity
  8
AM_7
  6
AM_ISO08W050x2
100
AcDbLine
 10
1672.153478631904
 20
993.907530246744
 30
0.0
 11
1672.153478631904
 21
999.2075302467442
 31
0.0
1001
GENIUS_GENOREF_13
1005
4E01
  0
LINE
  5
4DFF
330
1F
100
AcDbEntity
  8
AM_7
  6
AM_ISO08W050x2
100
AcDbLine
 10
1672.153478631904
 20
993.907530246744
 30
0.0
 11
1666.853478631904
 21
993.907530246744
 31
0.0
1001
GENIUS_GENOREF_13
1005
4E01
  0
LINE
  5
4E00
330
1F
100
AcDbEntity
  8
AM_7
  6
AM_ISO08W050x2
100
AcDbLine
 10
1672.153478631904
 20
993.907530246744
 30
0.0
 11
1672.153478631904
 21
988.6075302467439
 31
0.0
1001
GENIUS_GENOREF_13
1005
4E01
  0
POINT
  5
4E01
330
1F
100
AcDbEntity
  8
0
 60
     1
100
AcDbPoint
 10
0.0
 20
0.0
 30
0.0
1001
GENIUS_GENODEF_13
1002
{
1000
HIER
1070
    10
1002
}
1002
{
1000
MANEDIT
1070
     0
1002
}
1002
{
1000
NOSEL
1070
     0
1002
}
1002
{
1000
BEHIND
1070
     0
1002
}
1002
{
1000
OTHER
1070
     0
1002
}
1002
{
1000
REACTOR
1002
}
1001
GENIUS_GENOENT_13
1002
{
1000
MYREF
1005
4E01
1002
}
1002
{
1000
GRP
1005
0
1002
}
1001
GENIUS_GENOBJ-N-CRS_13
1002
{
1000
OWNER
1000
GEN
1002
}
1001
GENIUS_GENOLIS_13
1002
{
1000
ENT
1005
4E00
1005
4DFF
1005
4DFE
1005
4DFD
1002
}
  0
LINE
  5
4E0F
330
1F
100
AcDbEntity
  8
AM_7
  6
AM_ISO08W050x2
100
AcDbLine
 10
1672.153478631904
 20
983.907530246744
 30
0.0
 11
1678.153478631904
 21
983.907530246744
 31
0.0
1001
GENIUS_GENOREF_13
1005
4E13
  0
LINE
  5
4E10
330
1F
100
AcDbEntity
  8
AM_7
  6
AM_ISO08W050x2
100
AcDbLine
 10
1672.153478631904
 20
983.907530246744
 30
0.0
 11
1672.153478631904
 21
989.9075302467441
 31
0.0
1001
GENIUS_GENOREF_13
1005
4E13
  0
LINE
  5
4E11
330
1F
100
AcDbEntity
  8
AM_7
  6
AM_ISO08W050x2
100
AcDbLine
 10
1672.153478631904
 20
983.907530246744
 30
0.0
 11
1666.153478631904
 21
983.907530246744
 31
0.0
1001
GENIUS_GENOREF_13
1005
4E13
  0
LINE
  5
4E12
330
1F
100
AcDbEntity
  8
AM_7
  6
AM_ISO08W050x2
100
AcDbLine
 10
1672.153478631904
 20
983.907530246744
 30
0.0
 11
1672.153478631904
 21
977.907530246744
 31
0.0
1001
GENIUS_GENOREF_13
1005
4E13
  0
POINT
  5
4E13
330
1F
100
AcDbEntity
  8
0
 60
     1
100
AcDbPoint
 10
0.0
 20
0.0
 30
0.0
1001
GENIUS_GENOENT_13
1002
{
1000
MYREF
1005
4E13
1002
}
1002
{
1000
GRP
1005
0
1002
}
1001
GENIUS_GENOBJ-N-CRS_13
1002
{
1000
OWNER
1000
GEN
1002
}
1001
GENIUS_GENODEF_13
1002
{
1000
HIER
1070
    10
1002
}
1002
{
1000
MANEDIT
1070
     0
1002
}
1002
{
1000
NOSEL
1070
     0
1002
}
1002
{
1000
BEHIND
1070
     0
1002
}
1002
{
1000
OTHER
1070
     0
1002
}
1002
{
1000
REACTOR
1002
}
1001
GENIUS_GENOLIS_13
1002
{
1000
ENT
1005
4E12
1005
4E11
1005
4E10
1005
4E0F
1002
}
  0
LINE
  5
4E21
330
1F
100
AcDbEntity
  8
AM_7
  6
AM_ISO08W050x2
100
AcDbLine
 10
1701.153478631904
 20
1000.907530246744
 30
0.0
 11
1708.653478631904
 21
1000.907530246744
 31
0.0
1001
GENIUS_GENOREF_13
1005
4E25
  0
LINE
  5
4E22
330
1F
100
AcDbEntity
  8
AM_7
  6
AM_ISO08W050x2
100
AcDbLine
 10
1701.153478631904
 20
1000.907530246744
 30
0.0
 11
1701.153478631904
 21
1008.407530246744
 31
0.0
1001
GENIUS_GENOREF_13
1005
4E25
  0
LINE
  5
4E23
330
1F
100
AcDbEntity
  8
AM_7
  6
AM_ISO08W050x2
100
AcDbLine
 10
1701.153478631904
 20
1000.907530246744
 30
0.0
 11
1693.653478631904
 21
1000.907530246744
 31
0.0
1001
GENIUS_GENOREF_13
1005
4E25
  0
LINE
  5
4E24
330
1F
100
AcDbEntity
  8
AM_7
  6
AM_ISO08W050x2
100
AcDbLine
 10
1701.153478631904
 20
1000.907530246744
 30
0.0
 11
1701.153478631904
 21
993.4075302467441
 31
0.0
1001
GENIUS_GENOREF_13
1005
4E25
  0
POINT
  5
4E25
330
1F
100
AcDbEntity
  8
0
 60
     1
100
AcDbPoint
 10
0.0
 20
0.0
 30
0.0
1001
GENIUS_GENODEF_13
1002
{
1000
HIER
1070
    10
1002
}
1002
{
1000
MANEDIT
1070
     0
1002
}
1002
{
1000
NOSEL
1070
     0
1002
}
1002
{
1000
BEHIND
1070
     0
1002
}
1002
{
1000
OTHER
1070
     0
1002
}
1002
{
1000
REACTOR
1002
}
1001
GENIUS_GENOENT_13
1002
{
1000
MYREF
1005
4E25
1002
}
1002
{
1000
GRP
1005
0
1002
}
1001
GENIUS_GENOBJ-N-CRS_13
1002
{
1000
OWNER
1000
GEN
1002
}
1001
GENIUS_GENOLIS_13
1002
{
1000
ENT
1005
4E24
1005
4E23
1005
4E22
1005
4E21
1002
}
  0
LINE
  5
4E34
330
1F
100
AcDbEntity
  8
AM_7
  6
AM_ISO08W050x2
100
AcDbLine
 10
1727.153478631904
 20
1000.907530246744
 30
0.0
 11
1734.653478631904
 21
1000.907530246744
 31
0.0
1001
GENIUS_GENOREF_13
1005
4E38
  0
LINE
  5
4E35
330
1F
100
AcDbEntity
  8
AM_7
  6
AM_ISO08W050x2
100
AcDbLine
 10
1727.153478631904
 20
1000.907530246744
 30
0.0
 11
1727.153478631904
 21
1008.407530246744
 31
0.0
1001
GENIUS_GENOREF_13
1005
4E38
  0
LINE
  5
4E36
330
1F
100
AcDbEntity
  8
AM_7
  6
AM_ISO08W050x2
100
AcDbLine
 10
1727.153478631904
 20
1000.907530246744
 30
0.0
 11
1719.653478631904
 21
1000.907530246744
 31
0.0
1001
GENIUS_GENOREF_13
1005
4E38
  0
LINE
  5
4E37
330
1F
100
AcDbEntity
  8
AM_7
  6
AM_ISO08W050x2
100
AcDbLine
 10
1727.153478631904
 20
1000.907530246744
 30
0.0
 11
1727.153478631904
 21
993.4075302467441
 31
0.0
1001
GENIUS_GENOREF_13
1005
4E38
  0
POINT
  5
4E38
330
1F
100
AcDbEntity
  8
0
 60
     1
100
AcDbPoint
 10
0.0
 20
0.0
 30
0.0
1001
GENIUS_GENOLIS_13
1002
{
1000
ENT
1005
4E37
1005
4E36
1005
4E35
1005
4E34
1002
}
1001
GENIUS_GENOENT_13
1002
{
1000
MYREF
1005
4E38
1002
}
1002
{
1000
GRP
1005
0
1002
}
1001
GENIUS_GENOBJ-N-CRS_13
1002
{
1000
OWNER
1000
GEN
1002
}
1001
GENIUS_GENODEF_13
1002
{
1000
HIER
1070
    10
1002
}
1002
{
1000
MANEDIT
1070
     0
1002
}
1002
{
1000
NOSEL
1070
     0
1002
}
1002
{
1000
BEHIND
1070
     0
1002
}
1002
{
1000
OTHER
1070
     0
1002
}
1002
{
1000
REACTOR
1002
}
  0
LINE
  5
4E46
330
1F
100
AcDbEntity
  8
AM_7
  6
AM_ISO08W050x2
100
AcDbLine
 10
1727.153478631904
 20
1042.907530246744
 30
0.0
 11
1734.653478631904
 21
1042.907530246744
 31
0.0
1001
GENIUS_GENOREF_13
1005
4E4A
  0
LINE
  5
4E47
330
1F
100
AcDbEntity
  8
AM_7
  6
AM_ISO08W050x2
100
AcDbLine
 10
1727.153478631904
 20
1042.907530246744
 30
0.0
 11
1727.153478631904
 21
1050.407530246744
 31
0.0
1001
GENIUS_GENOREF_13
1005
4E4A
  0
LINE
  5
4E48
330
1F
100
AcDbEntity
  8
AM_7
  6
AM_ISO08W050x2
100
AcDbLine
 10
1727.153478631904
 20
1042.907530246744
 30
0.0
 11
1719.653478631904
 21
1042.907530246744
 31
0.0
1001
GENIUS_GENOREF_13
1005
4E4A
  0
LINE
  5
4E49
330
1F
100
AcDbEntity
  8
AM_7
  6
AM_ISO08W050x2
100
AcDbLine
 10
1727.153478631904
 20
1042.907530246744
 30
0.0
 11
1727.153478631904
 21
1035.407530246744
 31
0.0
1001
GENIUS_GENOREF_13
1005
4E4A
  0
POINT
  5
4E4A
330
1F
100
AcDbEntity
  8
0
 60
     1
100
AcDbPoint
 10
0.0
 20
0.0
 30
0.0
1001
GENIUS_GENODEF_13
1002
{
1000
HIER
1070
    10
1002
}
1002
{
1000
MANEDIT
1070
     0
1002
}
1002
{
1000
NOSEL
1070
     0
1002
}
1002
{
1000
BEHIND
1070
     0
1002
}
1002
{
1000
OTHER
1070
     0
1002
}
1002
{
1000
REACTOR
1002
}
1001
GENIUS_GENOLIS_13
1002
{
1000
ENT
1005
4E49
1005
4E48
1005
4E47
1005
4E46
1002
}
1001
GENIUS_GENOENT_13
1002
{
1000
MYREF
1005
4E4A
1002
}
1002
{
1000
GRP
1005
0
1002
}
1001
GENIUS_GENOBJ-N-CRS_13
1002
{
1000
OWNER
1000
GEN
1002
}
  0
LINE
  5
4E58
330
1F
100
AcDbEntity
  8
AM_7
  6
AM_ISO08W050x2
100
AcDbLine
 10
1701.153478631904
 20
1042.907530246744
 30
0.0
 11
1708.653478631904
 21
1042.907530246744
 31
0.0
1001
GENIUS_GENOREF_13
1005
4E5C
  0
LINE
  5
4E59
330
1F
100
AcDbEntity
  8
AM_7
  6
AM_ISO08W050x2
100
AcDbLine
 10
1701.153478631904
 20
1042.907530246744
 30
0.0
 11
1701.153478631904
 21
1050.407530246744
 31
0.0
1001
GENIUS_GENOREF_13
1005
4E5C
  0
LINE
  5
4E5A
330
1F
100
AcDbEntity
  8
AM_7
  6
AM_ISO08W050x2
100
AcDbLine
 10
1701.153478631904
 20
1042.907530246744
 30
0.0
 11
1693.653478631904
 21
1042.907530246744
 31
0.0
1001
GENIUS_GENOREF_13
1005
4E5C
  0
LINE
  5
4E5B
330
1F
100
AcDbEntity
  8
AM_7
  6
AM_ISO08W050x2
100
AcDbLine
 10
1701.153478631904
 20
1042.907530246744
 30
0.0
 11
1701.153478631904
 21
1035.407530246744
 31
0.0
1001
GENIUS_GENOREF_13
1005
4E5C
  0
POINT
  5
4E5C
330
1F
100
AcDbEntity
  8
0
 60
     1
100
AcDbPoint
 10
0.0
 20
0.0
 30
0.0
1001
GENIUS_GENOLIS_13
1002
{
1000
ENT
1005
4E5B
1005
4E5A
1005
4E59
1005
4E58
1002
}
1001
GENIUS_GENOENT_13
1002
{
1000
MYREF
1005
4E5C
1002
}
1002
{
1000
GRP
1005
0
1002
}
1001
GENIUS_GENOBJ-N-CRS_13
1002
{
1000
OWNER
1000
GEN
1002
}
1001
GENIUS_GENODEF_13
1002
{
1000
HIER
1070
    10
1002
}
1002
{
1000
MANEDIT
1070
     0
1002
}
1002
{
1000
NOSEL
1070
     0
1002
}
1002
{
1000
BEHIND
1070
     0
1002
}
1002
{
1000
OTHER
1070
     0
1002
}
1002
{
1000
REACTOR
1002
}
  0
LINE
  5
4E6A
330
1F
100
AcDbEntity
  8
AM_7
  6
AM_ISO08W050x2
100
AcDbLine
 10
1786.153478631904
 20
1240.927703905425
 30
0.0
 11
1793.653478631904
 21
1240.927703905425
 31
0.0
1001
GENIUS_GENOREF_13
1005
4E6E
  0
LINE
  5
4E6B
330
1F
100
AcDbEntity
  8
AM_7
  6
AM_ISO08W050x2
100
AcDbLine
 10
1786.153478631904
 20
1240.927703905425
 30
0.0
 11
1786.153478631904
 21
1248.427703905425
 31
0.0
1001
GENIUS_GENOREF_13
1005
4E6E
  0
LINE
  5
4E6C
330
1F
100
AcDbEntity
  8
AM_7
  6
AM_ISO08W050x2
100
AcDbLine
 10
1786.153478631904
 20
1240.927703905425
 30
0.0
 11
1778.653478631904
 21
1240.927703905425
 31
0.0
1001
GENIUS_GENOREF_13
1005
4E6E
  0
LINE
  5
4E6D
330
1F
100
AcDbEntity
  8
AM_7
  6
AM_ISO08W050x2
100
AcDbLine
 10
1786.153478631904
 20
1240.927703905425
 30
0.0
 11
1786.153478631904
 21
1233.427703905425
 31
0.0
1001
GENIUS_GENOREF_13
1005
4E6E
  0
POINT
  5
4E6E
330
1F
100
AcDbEntity
  8
0
 60
     1
100
AcDbPoint
 10
0.0
 20
0.0
 30
0.0
1001
GENIUS_GENOLIS_13
1002
{
1000
ENT
1005
4E6D
1005
4E6C
1005
4E6B
1005
4E6A
1002
}
1001
GENIUS_GENOENT_13
1002
{
1000
MYREF
1005
4E6E
1002
}
1002
{
1000
GRP
1005
0
1002
}
1001
GENIUS_GENODEF_13
1002
{
1000
HIER
1070
    10
1002
}
1002
{
1000
MANEDIT
1070
     0
1002
}
1002
{
1000
NOSEL
1070
     0
1002
}
1002
{
1000
BEHIND
1070
     0
1002
}
1002
{
1000
OTHER
1070
     0
1002
}
1002
{
1000
REACTOR
1002
}
1001
GENIUS_GENOBJ-N-CRS_13
1002
{
1000
OWNER
1000
GEN
1002
}
  0
LINE
  5
4E7C
330
1F
100
AcDbEntity
  8
AM_7
  6
AM_ISO08W050x2
100
AcDbLine
 10
1786.153478631904
 20
1296.927703905425
 30
0.0
 11
1793.653478631904
 21
1296.927703905425
 31
0.0
1001
GENIUS_GENOREF_13
1005
4E80
  0
LINE
  5
4E7D
330
1F
100
AcDbEntity
  8
AM_7
  6
AM_ISO08W050x2
100
AcDbLine
 10
1786.153478631904
 20
1296.927703905425
 30
0.0
 11
1786.153478631904
 21
1304.427703905425
 31
0.0
1001
GENIUS_GENOREF_13
1005
4E80
  0
LINE
  5
4E7E
330
1F
100
AcDbEntity
  8
AM_7
  6
AM_ISO08W050x2
100
AcDbLine
 10
1786.153478631904
 20
1296.927703905425
 30
0.0
 11
1778.653478631904
 21
1296.927703905425
 31
0.0
1001
GENIUS_GENOREF_13
1005
4E80
  0
LINE
  5
4E7F
330
1F
100
AcDbEntity
  8
AM_7
  6
AM_ISO08W050x2
100
AcDbLine
 10
1786.153478631904
 20
1296.927703905425
 30
0.0
 11
1786.153478631904
 21
1289.427703905425
 31
0.0
1001
GENIUS_GENOREF_13
1005
4E80
  0
POINT
  5
4E80
330
1F
100
AcDbEntity
  8
0
 60
     1
100
AcDbPoint
 10
0.0
 20
0.0
 30
0.0
1001
GENIUS_GENOENT_13
1002
{
1000
MYREF
1005
4E80
1002
}
1002
{
1000
GRP
1005
0
1002
}
1001
GENIUS_GENOBJ-N-CRS_13
1002
{
1000
OWNER
1000
GEN
1002
}
1001
GENIUS_GENODEF_13
1002
{
1000
HIER
1070
    10
1002
}
1002
{
1000
MANEDIT
1070
     0
1002
}
1002
{
1000
NOSEL
1070
     0
1002
}
1002
{
1000
BEHIND
1070
     0
1002
}
1002
{
1000
OTHER
1070
     0
1002
}
1002
{
1000
REACTOR
1002
}
1001
GENIUS_GENOLIS_13
1002
{
1000
ENT
1005
4E7F
1005
4E7E
1005
4E7D
1005
4E7C
1002
}
  0
LINE
  5
4E8E
330
1F
100
AcDbEntity
  8
AM_7
  6
AM_ISO08W050x2
100
AcDbLine
 10
1672.153478631904
 20
1296.927703905425
 30
0.0
 11
1679.653478631904
 21
1296.927703905425
 31
0.0
1001
GENIUS_GENOREF_13
1005
4E92
  0
LINE
  5
4E8F
330
1F
100
AcDbEntity
  8
AM_7
  6
AM_ISO08W050x2
100
AcDbLine
 10
1672.153478631904
 20
1296.927703905425
 30
0.0
 11
1672.153478631904
 21
1304.427703905425
 31
0.0
1001
GENIUS_GENOREF_13
1005
4E92
  0
LINE
  5
4E90
330
1F
100
AcDbEntity
  8
AM_7
  6
AM_ISO08W050x2
100
AcDbLine
 10
1672.153478631904
 20
1296.927703905425
 30
0.0
 11
1664.653478631904
 21
1296.927703905425
 31
0.0
1001
GENIUS_GENOREF_13
1005
4E92
  0
LINE
  5
4E91
330
1F
100
AcDbEntity
  8
AM_7
  6
AM_ISO08W050x2
100
AcDbLine
 10
1672.153478631904
 20
1296.927703905425
 30
0.0
 11
1672.153478631904
 21
1289.427703905425
 31
0.0
1001
GENIUS_GENOREF_13
1005
4E92
  0
POINT
  5
4E92
330
1F
100
AcDbEntity
  8
0
 60
     1
100
AcDbPoint
 10
0.0
 20
0.0
 30
0.0
1001
GENIUS_GENOLIS_13
1002
{
1000
ENT
1005
4E91
1005
4E90
1005
4E8F
1005
4E8E
1002
}
1001
GENIUS_GENOENT_13
1002
{
1000
MYREF
1005
4E92
1002
}
1002
{
1000
GRP
1005
0
1002
}
1001
GENIUS_GENODEF_13
1002
{
1000
HIER
1070
    10
1002
}
1002
{
1000
MANEDIT
1070
     0
1002
}
1002
{
1000
NOSEL
1070
     0
1002
}
1002
{
1000
BEHIND
1070
     0
1002
}
1002
{
1000
OTHER
1070
     0
1002
}
1002
{
1000
REACTOR
1002
}
1001
GENIUS_GENOBJ-N-CRS_13
1002
{
1000
OWNER
1000
GEN
1002
}
  0
LINE
  5
4EA0
330
1F
100
AcDbEntity
  8
AM_7
  6
AM_ISO08W050x2
100
AcDbLine
 10
1672.153478631904
 20
1240.927703905425
 30
0.0
 11
1679.653478631904
 21
1240.927703905425
 31
0.0
1001
GENIUS_GENOREF_13
1005
4EA4
  0
LINE
  5
4EA1
330
1F
100
AcDbEntity
  8
AM_7
  6
AM_ISO08W050x2
100
AcDbLine
 10
1672.153478631904
 20
1240.927703905425
 30
0.0
 11
1672.153478631904
 21
1248.427703905425
 31
0.0
1001
GENIUS_GENOREF_13
1005
4EA4
  0
LINE
  5
4EA2
330
1F
100
AcDbEntity
  8
AM_7
  6
AM_ISO08W050x2
100
AcDbLine
 10
1672.153478631904
 20
1240.927703905425
 30
0.0
 11
1664.653478631904
 21
1240.927703905425
 31
0.0
1001
GENIUS_GENOREF_13
1005
4EA4
  0
LINE
  5
4EA3
330
1F
100
AcDbEntity
  8
AM_7
  6
AM_ISO08W050x2
100
AcDbLine
 10
1672.153478631904
 20
1240.927703905425
 30
0.0
 11
1672.153478631904
 21
1233.427703905425
 31
0.0
1001
GENIUS_GENOREF_13
1005
4EA4
  0
POINT
  5
4EA4
330
1F
100
AcDbEntity
  8
0
 60
     1
100
AcDbPoint
 10
0.0
 20
0.0
 30
0.0
1001
GENIUS_GENOENT_13
1002
{
1000
MYREF
1005
4EA4
1002
}
1002
{
1000
GRP
1005
0
1002
}
1001
GENIUS_GENODEF_13
1002
{
1000
HIER
1070
    10
1002
}
1002
{
1000
MANEDIT
1070
     0
1002
}
1002
{
1000
NOSEL
1070
     0
1002
}
1002
{
1000
BEHIND
1070
     0
1002
}
1002
{
1000
OTHER
1070
     0
1002
}
1002
{
1000
REACTOR
1002
}
1001
GENIUS_GENOBJ-N-CRS_13
1002
{
1000
OWNER
1000
GEN
1002
}
1001
GENIUS_GENOLIS_13
1002
{
1000
ENT
1005
4EA3
1005
4EA2
1005
4EA1
1005
4EA0
1002
}
  0
ARC
  5
4EF7
330
1F
100
AcDbEntity
  8
AM_4
100
AcDbCircle
 10
1859.698826400585
 20
973.9075302467441
 30
0.0
 40
4.0
100
AcDbArc
 50
260.0
 51
170.0
  0
CIRCLE
  5
4EF8
330
1F
100
AcDbEntity
  8
AM_0
100
AcDbCircle
 10
1859.698826400585
 20
973.9075302467441
 30
0.0
 40
3.323417653293459
  0
LINE
  5
4EF9
330
1F
100
AcDbEntity
  8
AM_7
  6
AM_ISO08W050x2
100
AcDbLine
 10
1853.698826400585
 20
973.9075302467441
 30
0.0
 11
1865.698826400585
 21
973.9075302467441
 31
0.0
  0
LINE
  5
4EFA
330
1F
100
AcDbEntity
  8
AM_7
  6
AM_ISO08W050x2
100
AcDbLine
 10
1859.698826400585
 20
967.907530246744
 30
0.0
 11
1859.698826400585
 21
979.9075302467441
 31
0.0
  0
ARC
  5
4EFB
330
1F
100
AcDbEntity
  8
AM_4
100
AcDbCircle
 10
1889.698826400585
 20
973.9075302467441
 30
0.0
 40
4.0
100
AcDbArc
 50
260.0
 51
170.0
  0
CIRCLE
  5
4EFC
330
1F
100
AcDbEntity
  8
AM_0
100
AcDbCircle
 10
1889.698826400585
 20
973.9075302467441
 30
0.0
 40
3.323417653293459
  0
LINE
  5
4EFD
330
1F
100
AcDbEntity
  8
AM_7
  6
AM_ISO08W050x2
100
AcDbLine
 10
1883.698826400585
 20
973.9075302467441
 30
0.0
 11
1895.698826400585
 21
973.9075302467441
 31
0.0
  0
LINE
  5
4EFE
330
1F
100
AcDbEntity
  8
AM_7
  6
AM_ISO08W050x2
100
AcDbLine
 10
1889.698826400585
 20
967.907530246744
 30
0.0
 11
1889.698826400585
 21
979.9075302467441
 31
0.0
  0
ARC
  5
4EFF
330
1F
100
AcDbEntity
  8
AM_4
100
AcDbCircle
 10
1859.698826400585
 20
1069.907530246744
 30
0.0
 40
4.0
100
AcDbArc
 50
260.0
 51
170.0
  0
CIRCLE
  5
4F00
330
1F
100
AcDbEntity
  8
AM_0
100
AcDbCircle
 10
1859.698826400585
 20
1069.907530246744
 30
0.0
 40
3.323417653293459
  0
LINE
  5
4F01
330
1F
100
AcDbEntity
  8
AM_7
  6
AM_ISO08W050x2
100
AcDbLine
 10
1853.698826400585
 20
1069.907530246744
 30
0.0
 11
1865.698826400585
 21
1069.907530246744
 31
0.0
  0
LINE
  5
4F02
330
1F
100
AcDbEntity
  8
AM_7
  6
AM_ISO08W050x2
100
AcDbLine
 10
1859.698826400585
 20
1063.907530246744
 30
0.0
 11
1859.698826400585
 21
1075.907530246744
 31
0.0
  0
ARC
  5
4F03
330
1F
100
AcDbEntity
  8
AM_4
100
AcDbCircle
 10
1889.698826400585
 20
1069.907530246744
 30
0.0
 40
4.0
100
AcDbArc
 50
260.0
 51
170.0
  0
CIRCLE
  5
4F04
330
1F
100
AcDbEntity
  8
AM_0
100
AcDbCircle
 10
1889.698826400585
 20
1069.907530246744
 30
0.0
 40
3.323417653293459
  0
LINE
  5
4F05
330
1F
100
AcDbEntity
  8
AM_7
  6
AM_ISO08W050x2
100
AcDbLine
 10
1883.698826400585
 20
1069.907530246744
 30
0.0
 11
1895.698826400585
 21
1069.907530246744
 31
0.0
  0
LINE
  5
4F06
330
1F
100
AcDbEntity
  8
AM_7
  6
AM_ISO08W050x2
100
AcDbLine
 10
1889.698826400585
 20
1063.907530246744
 30
0.0
 11
1889.698826400585
 21
1075.907530246744
 31
0.0
  0
ARC
  5
4F07
330
1F
100
AcDbEntity
  8
AM_4
100
AcDbCircle
 10
1581.0477087966
 20
1069.907530246744
 30
0.0
 40
4.0
100
AcDbArc
 50
260.0
 51
170.0
  0
CIRCLE
  5
4F08
330
1F
100
AcDbEntity
  8
AM_0
100
AcDbCircle
 10
1581.0477087966
 20
1069.907530246744
 30
0.0
 40
3.323417653293459
  0
LINE
  5
4F09
330
1F
100
AcDbEntity
  8
AM_7
  6
AM_ISO08W050x2
100
AcDbLine
 10
1575.0477087966
 20
1069.907530246744
 30
0.0
 11
1587.0477087966
 21
1069.907530246744
 31
0.0
  0
LINE
  5
4F0A
330
1F
100
AcDbEntity
  8
AM_7
  6
AM_ISO08W050x2
100
AcDbLine
 10
1581.0477087966
 20
1063.907530246744
 30
0.0
 11
1581.0477087966
 21
1075.907530246744
 31
0.0
  0
ARC
  5
4F0B
330
1F
100
AcDbEntity
  8
AM_4
100
AcDbCircle
 10
1611.0477087966
 20
1069.907530246744
 30
0.0
 40
4.0
100
AcDbArc
 50
260.0
 51
170.0
  0
CIRCLE
  5
4F0C
330
1F
100
AcDbEntity
  8
AM_0
100
AcDbCircle
 10
1611.0477087966
 20
1069.907530246744
 30
0.0
 40
3.323417653293459
  0
LINE
  5
4F0D
330
1F
100
AcDbEntity
  8
AM_7
  6
AM_ISO08W050x2
100
AcDbLine
 10
1605.0477087966
 20
1069.907530246744
 30
0.0
 11
1617.0477087966
 21
1069.907530246744
 31
0.0
  0
LINE
  5
4F0E
330
1F
100
AcDbEntity
  8
AM_7
  6
AM_ISO08W050x2
100
AcDbLine
 10
1611.0477087966
 20
1063.907530246744
 30
0.0
 11
1611.0477087966
 21
1075.907530246744
 31
0.0
  0
ARC
  5
4F0F
330
1F
100
AcDbEntity
  8
AM_4
100
AcDbCircle
 10
1581.0477087966
 20
973.9075302467441
 30
0.0
 40
4.0
100
AcDbArc
 50
260.0
 51
170.0
  0
CIRCLE
  5
4F10
330
1F
100
AcDbEntity
  8
AM_0
100
AcDbCircle
 10
1581.0477087966
 20
973.9075302467441
 30
0.0
 40
3.323417653293459
  0
LINE
  5
4F11
330
1F
100
AcDbEntity
  8
AM_7
  6
AM_ISO08W050x2
100
AcDbLine
 10
1575.0477087966
 20
973.9075302467441
 30
0.0
 11
1587.0477087966
 21
973.9075302467441
 31
0.0
  0
LINE
  5
4F12
330
1F
100
AcDbEntity
  8
AM_7
  6
AM_ISO08W050x2
100
AcDbLine
 10
1581.0477087966
 20
967.907530246744
 30
0.0
 11
1581.0477087966
 21
979.9075302467441
 31
0.0
  0
ARC
  5
4F13
330
1F
100
AcDbEntity
  8
AM_4
100
AcDbCircle
 10
1611.0477087966
 20
973.9075302467441
 30
0.0
 40
4.0
100
AcDbArc
 50
260.0
 51
170.0
  0
CIRCLE
  5
4F14
330
1F
100
AcDbEntity
  8
AM_0
100
AcDbCircle
 10
1611.0477087966
 20
973.9075302467441
 30
0.0
 40
3.323417653293459
  0
LINE
  5
4F15
330
1F
100
AcDbEntity
  8
AM_7
  6
AM_ISO08W050x2
100
AcDbLine
 10
1605.0477087966
 20
973.9075302467441
 30
0.0
 11
1617.0477087966
 21
973.9075302467441
 31
0.0
  0
LINE
  5
4F16
330
1F
100
AcDbEntity
  8
AM_7
  6
AM_ISO08W050x2
100
AcDbLine
 10
1611.0477087966
 20
967.907530246744
 30
0.0
 11
1611.0477087966
 21
979.9075302467441
 31
0.0
  0
ARC
  5
4F19
330
1F
100
AcDbEntity
  8
AM_4
100
AcDbCircle
 10
1692.153478631904
 20
895.5690601050809
 30
0.0
 40
4.863999999999999
100
AcDbArc
 50
260.0
 51
170.0
  0
LINE
  5
4F1A
330
1F
100
AcDbEntity
  8
AM_7
  6
AM_ISO08W050x2
100
AcDbLine
 10
1692.153478631904
 20
902.4330601050809
 30
0.0
 11
1692.153478631904
 21
888.7050601050809
 31
0.0
  0
CIRCLE
  5
4F1B
330
1F
100
AcDbEntity
  8
AM_0
100
AcDbCircle
 10
1692.153478631904
 20
895.5690601050809
 30
0.0
 40
4.283
  0
LINE
  5
4F1C
330
1F
100
AcDbEntity
  8
AM_7
  6
AM_ISO08W050x2
100
AcDbLine
 10
1685.289478631904
 20
895.5690601050809
 30
0.0
 11
1699.017478631904
 21
895.5690601050809
 31
0.0
  0
ARC
  5
4F1D
330
1F
100
AcDbEntity
  8
AM_4
100
AcDbCircle
 10
1736.153478631904
 20
895.5690601050809
 30
0.0
 40
4.863999999999999
100
AcDbArc
 50
260.0
 51
170.0
  0
LINE
  5
4F1E
330
1F
100
AcDbEntity
  8
AM_7
  6
AM_ISO08W050x2
100
AcDbLine
 10
1736.153478631904
 20
902.4330601050809
 30
0.0
 11
1736.153478631904
 21
888.7050601050809
 31
0.0
  0
CIRCLE
  5
4F1F
330
1F
100
AcDbEntity
  8
AM_0
100
AcDbCircle
 10
1736.153478631904
 20
895.5690601050809
 30
0.0
 40
4.283
  0
LINE
  5
4F20
330
1F
100
AcDbEntity
  8
AM_7
  6
AM_ISO08W050x2
100
AcDbLine
 10
1729.289478631904
 20
895.5690601050809
 30
0.0
 11
1743.017478631904
 21
895.5690601050809
 31
0.0
  0
ARC
  5
4F3A
330
1F
100
AcDbEntity
  8
AM_4
100
AcDbCircle
 10
1697.653478631904
 20
1218.927703905425
 30
0.0
 40
4.0
100
AcDbArc
 50
260.0
 51
170.0
  0
CIRCLE
  5
4F3B
330
1F
100
AcDbEntity
  8
AM_0
100
AcDbCircle
 10
1697.653478631904
 20
1218.927703905425
 30
0.0
 40
3.323417653293459
  0
LINE
  5
4F3C
330
1F
100
AcDbEntity
  8
AM_7
  6
AM_ISO08W050x2
100
AcDbLine
 10
1691.653478631904
 20
1218.927703905425
 30
0.0
 11
1703.653478631904
 21
1218.927703905425
 31
0.0
  0
LINE
  5
4F3D
330
1F
100
AcDbEntity
  8
AM_7
  6
AM_ISO08W050x2
100
AcDbLine
 10
1697.653478631904
 20
1212.927703905425
 30
0.0
 11
1697.653478631904
 21
1224.927703905425
 31
0.0
  0
ARC
  5
4F3E
330
1F
100
AcDbEntity
  8
AM_4
100
AcDbCircle
 10
1730.653478631904
 20
1218.927703905425
 30
0.0
 40
4.0
100
AcDbArc
 50
260.0
 51
170.0
  0
CIRCLE
  5
4F3F
330
1F
100
AcDbEntity
  8
AM_0
100
AcDbCircle
 10
1730.653478631904
 20
1218.927703905425
 30
0.0
 40
3.323417653293459
  0
LINE
  5
4F40
330
1F
100
AcDbEntity
  8
AM_7
  6
AM_ISO08W050x2
100
AcDbLine
 10
1724.653478631904
 20
1218.927703905425
 30
0.0
 11
1736.653478631904
 21
1218.927703905425
 31
0.0
  0
LINE
  5
4F41
330
1F
100
AcDbEntity
  8
AM_7
  6
AM_ISO08W050x2
100
AcDbLine
 10
1730.653478631904
 20
1212.927703905425
 30
0.0
 11
1730.653478631904
 21
1224.927703905425
 31
0.0
  0
ARC
  5
4F42
330
1F
100
AcDbEntity
  8
AM_4
100
AcDbCircle
 10
1697.653478631904
 20
1318.927703905425
 30
0.0
 40
4.0
100
AcDbArc
 50
260.0
 51
170.0
  0
CIRCLE
  5
4F43
330
1F
100
AcDbEntity
  8
AM_0
100
AcDbCircle
 10
1697.653478631904
 20
1318.927703905425
 30
0.0
 40
3.323417653293459
  0
LINE
  5
4F44
330
1F
100
AcDbEntity
  8
AM_7
  6
AM_ISO08W050x2
100
AcDbLine
 10
1691.653478631904
 20
1318.927703905425
 30
0.0
 11
1703.653478631904
 21
1318.927703905425
 31
0.0
  0
LINE
  5
4F45
330
1F
100
AcDbEntity
  8
AM_7
  6
AM_ISO08W050x2
100
AcDbLine
 10
1697.653478631904
 20
1312.927703905425
 30
0.0
 11
1697.653478631904
 21
1324.927703905425
 31
0.0
  0
ARC
  5
4F46
330
1F
100
AcDbEntity
  8
AM_4
100
AcDbCircle
 10
1730.653478631904
 20
1318.927703905425
 30
0.0
 40
4.0
100
AcDbArc
 50
260.0
 51
170.0
  0
CIRCLE
  5
4F47
330
1F
100
AcDbEntity
  8
AM_0
100
AcDbCircle
 10
1730.653478631904
 20
1318.927703905425
 30
0.0
 40
3.323417653293459
  0
LINE
  5
4F48
330
1F
100
AcDbEntity
  8
AM_7
  6
AM_ISO08W050x2
100
AcDbLine
 10
1724.653478631904
 20
1318.927703905425
 30
0.0
 11
1736.653478631904
 21
1318.927703905425
 31
0.0
  0
LINE
  5
4F49
330
1F
100
AcDbEntity
  8
AM_7
  6
AM_ISO08W050x2
100
AcDbLine
 10
1730.653478631904
 20
1312.927703905425
 30
0.0
 11
1730.653478631904
 21
1324.927703905425
 31
0.0
  0
LINE
  5
4F57
330
1F
100
AcDbEntity
  8
AM_7
  6
AM_ISO08W050x2
100
AcDbLine
 10
1714.153478631904
 20
1318.927703905425
 30
0.0
 11
1720.153478631904
 21
1318.927703905425
 31
0.0
1001
GENIUS_GENOREF_13
1005
4F5B
  0
LINE
  5
4F58
330
1F
100
AcDbEntity
  8
AM_7
  6
AM_ISO08W050x2
100
AcDbLine
 10
1714.153478631904
 20
1318.927703905425
 30
0.0
 11
1714.153478631904
 21
1324.927703905425
 31
0.0
1001
GENIUS_GENOREF_13
1005
4F5B
  0
LINE
  5
4F59
330
1F
100
AcDbEntity
  8
AM_7
  6
AM_ISO08W050x2
100
AcDbLine
 10
1714.153478631904
 20
1318.927703905425
 30
0.0
 11
1708.153478631904
 21
1318.927703905425
 31
0.0
1001
GENIUS_GENOREF_13
1005
4F5B
  0
LINE
  5
4F5A
330
1F
100
AcDbEntity
  8
AM_7
  6
AM_ISO08W050x2
100
AcDbLine
 10
1714.153478631904
 20
1318.927703905425
 30
0.0
 11
1714.153478631904
 21
1312.927703905425
 31
0.0
1001
GENIUS_GENOREF_13
1005
4F5B
  0
POINT
  5
4F5B
330
1F
100
AcDbEntity
  8
0
 60
     1
100
AcDbPoint
 10
0.0
 20
0.0
 30
0.0
1001
GENIUS_GENOENT_13
1002
{
1000
MYREF
1005
4F5B
1002
}
1002
{
1000
GRP
1005
0
1002
}
1001
GENIUS_GENOBJ-N-CRS_13
1002
{
1000
OWNER
1000
GEN
1002
}
1001
GENIUS_GENODEF_13
1002
{
1000
HIER
1070
    10
1002
}
1002
{
1000
MANEDIT
1070
     0
1002
}
1002
{
1000
NOSEL
1070
     0
1002
}
1002
{
1000
BEHIND
1070
     0
1002
}
1002
{
1000
OTHER
1070
     0
1002
}
1002
{
1000
REACTOR
1002
}
1001
GENIUS_GENOLIS_13
1002
{
1000
ENT
1005
4F5A
1005
4F59
1005
4F58
1005
4F57
1002
}
  0
LINE
  5
4F69
330
1F
100
AcDbEntity
  8
AM_7
  6
AM_ISO08W050x2
100
AcDbLine
 10
1714.153478631904
 20
1218.927703905425
 30
0.0
 11
1720.153478631904
 21
1218.927703905425
 31
0.0
1001
GENIUS_GENOREF_13
1005
4F6D
  0
LINE
  5
4F6A
330
1F
100
AcDbEntity
  8
AM_7
  6
AM_ISO08W050x2
100
AcDbLine
 10
1714.153478631904
 20
1218.927703905425
 30
0.0
 11
1714.153478631904
 21
1224.927703905425
 31
0.0
1001
GENIUS_GENOREF_13
1005
4F6D
  0
LINE
  5
4F6B
330
1F
100
AcDbEntity
  8
AM_7
  6
AM_ISO08W050x2
100
AcDbLine
 10
1714.153478631904
 20
1218.927703905425
 30
0.0
 11
1708.153478631904
 21
1218.927703905425
 31
0.0
1001
GENIUS_GENOREF_13
1005
4F6D
  0
LINE
  5
4F6C
330
1F
100
AcDbEntity
  8
AM_7
  6
AM_ISO08W050x2
100
AcDbLine
 10
1714.153478631904
 20
1218.927703905425
 30
0.0
 11
1714.153478631904
 21
1212.927703905425
 31
0.0
1001
GENIUS_GENOREF_13
1005
4F6D
  0
POINT
  5
4F6D
330
1F
100
AcDbEntity
  8
0
 60
     1
100
AcDbPoint
 10
0.0
 20
0.0
 30
0.0
1001
GENIUS_GENOLIS_13
1002
{
1000
ENT
1005
4F6C
1005
4F6B
1005
4F6A
1005
4F69
1002
}
1001
GENIUS_GENOENT_13
1002
{
1000
MYREF
1005
4F6D
1002
}
1002
{
1000
GRP
1005
0
1002
}
1001
GENIUS_GENOBJ-N-CRS_13
1002
{
1000
OWNER
1000
GEN
1002
}
1001
GENIUS_GENODEF_13
1002
{
1000
HIER
1070
    10
1002
}
1002
{
1000
MANEDIT
1070
     0
1002
}
1002
{
1000
NOSEL
1070
     0
1002
}
1002
{
1000
BEHIND
1070
     0
1002
}
1002
{
1000
OTHER
1070
     0
1002
}
1002
{
1000
REACTOR
1002
}
  0
ARC
  5
4F6E
330
1F
100
AcDbEntity
  8
AM_4
100
AcDbCircle
 10
1701.153478631904
 20
1247.927703905425
 30
0.0
 40
4.0
100
AcDbArc
 50
260.0
 51
170.0
  0
LINE
  5
4F6F
330
1F
100
AcDbEntity
  8
AM_7
  6
AM_ISO08W050x2
100
AcDbLine
 10
1695.153478631904
 20
1247.927703905425
 30
0.0
 11
1707.153478631904
 21
1247.927703905425
 31
0.0
  0
LINE
  5
4F70
330
1F
100
AcDbEntity
  8
AM_7
  6
AM_ISO08W050x2
100
AcDbLine
 10
1701.153478631904
 20
1241.927703905425
 30
0.0
 11
1701.153478631904
 21
1253.927703905425
 31
0.0
  0
ARC
  5
4F71
330
1F
100
AcDbEntity
  8
AM_4
100
AcDbCircle
 10
1727.153478631904
 20
1247.927703905425
 30
0.0
 40
4.0
100
AcDbArc
 50
260.0
 51
170.0
  0
LINE
  5
4F72
330
1F
100
AcDbEntity
  8
AM_7
  6
AM_ISO08W050x2
100
AcDbLine
 10
1721.153478631904
 20
1247.927703905425
 30
0.0
 11
1733.153478631904
 21
1247.927703905425
 31
0.0
  0
LINE
  5
4F73
330
1F
100
AcDbEntity
  8
AM_7
  6
AM_ISO08W050x2
100
AcDbLine
 10
1727.153478631904
 20
1241.927703905425
 30
0.0
 11
1727.153478631904
 21
1253.927703905425
 31
0.0
  0
ARC
  5
4F74
330
1F
100
AcDbEntity
  8
AM_4
100
AcDbCircle
 10
1701.153478631904
 20
1289.927703905425
 30
0.0
 40
4.0
100
AcDbArc
 50
260.0
 51
170.0
  0
LINE
  5
4F75
330
1F
100
AcDbEntity
  8
AM_7
  6
AM_ISO08W050x2
100
AcDbLine
 10
1695.153478631904
 20
1289.927703905425
 30
0.0
 11
1707.153478631904
 21
1289.927703905425
 31
0.0
  0
LINE
  5
4F76
330
1F
100
AcDbEntity
  8
AM_7
  6
AM_ISO08W050x2
100
AcDbLine
 10
1701.153478631904
 20
1283.927703905425
 30
0.0
 11
1701.153478631904
 21
1295.927703905425
 31
0.0
  0
ARC
  5
4F77
330
1F
100
AcDbEntity
  8
AM_4
100
AcDbCircle
 10
1727.153478631904
 20
1289.927703905425
 30
0.0
 40
4.0
100
AcDbArc
 50
260.0
 51
170.0
  0
LINE
  5
4F78
330
1F
100
AcDbEntity
  8
AM_7
  6
AM_ISO08W050x2
100
AcDbLine
 10
1721.153478631904
 20
1289.927703905425
 30
0.0
 11
1733.153478631904
 21
1289.927703905425
 31
0.0
  0
LINE
  5
4F79
330
1F
100
AcDbEntity
  8
AM_7
  6
AM_ISO08W050x2
100
AcDbLine
 10
1727.153478631904
 20
1283.927703905425
 30
0.0
 11
1727.153478631904
 21
1295.927703905425
 31
0.0
  0
LINE
  5
4F86
330
1F
100
AcDbEntity
  8
AM_7
100
AcDbLine
 10
1625.0477087966
 20
1021.907530246744
 30
0.0
 11
1566.549652755448
 21
1021.907530246744
 31
0.0
1001
GENIUS_GENODEF_13
1002
{
1000
HIER
1070
     0
1002
}
1002
{
1000
MANEDIT
1070
     0
1002
}
1002
{
1000
NOSEL
1070
     0
1002
}
1002
{
1000
BEHIND
1070
     0
1002
}
1002
{
1000
OTHER
1070
     0
1002
}
1002
{
1000
REACTOR
1002
}
1001
GENIUS_GENOBJ-N-CEN_13
1002
{
1000
OWNER
1000
GEN
1002
}
1001
GENIUS_GENCEN_19
1002
{
1040
2.0
1002
}
  0
LINE
  5
4F93
330
1F
100
AcDbEntity
  8
AM_7
100
AcDbLine
 10
1845.698826400585
 20
1021.907530246744
 30
0.0
 11
1903.469869088332
 21
1021.907530246744
 31
0.0
1001
GENIUS_GENODEF_13
1002
{
1000
HIER
1070
     0
1002
}
1002
{
1000
MANEDIT
1070
     0
1002
}
1002
{
1000
NOSEL
1070
     0
1002
}
1002
{
1000
BEHIND
1070
     0
1002
}
1002
{
1000
OTHER
1070
     0
1002
}
1002
{
1000
REACTOR
1002
}
1001
GENIUS_GENOBJ-N-CEN_13
1002
{
1000
OWNER
1000
GEN
1002
}
1001
GENIUS_GENCEN_19
1002
{
1040
2.0
1002
}
  0
INSERT
  5
4F94
330
1F
100
AcDbEntity
  8
AM_5
100
AcDbBlockReference
  2
*S27
 10
0.0
 20
0.0
 30
0.0
  0
TEXT
  5
4F95
330
1F
100
AcDbEntity
  8
AM_5
100
AcDbText
 10
1750.90457302007
 20
914.7189146446764
 30
0.0
 40
4.199999999999999
  1
2-PT1/8
 41
0.8
100
AcDbText
  0
DIMENSION
  5
4F96
330
1F
100
AcDbEntity
  8
AM_5
100
AcDbDimension
  2
*D5
 10
1793.153478631904
 20
939.9075302467441
 30
0.0
 11
1729.153478631904
 21
943.4079436325708
 31
0.0
 70
    32
  1
68+2xstroke
 71
     5
 42
128.0
  3
AM_ISO$0
100
AcDbAlignedDimension
 13
1665.153478631904
 23
963.9075302467441
 33
0.0
 14
1793.153478631904
 24
963.9075302467441
 34
0.0
100
AcDbRotatedDimension
1001
ACAD
1000
DSTYLE
1002
{
1070
    40
1040
1.399999999999999
1070
   272
1070
     8
1002
}
  0
DIMENSION
  5
4F97
330
1F
100
AcDbEntity
  8
AM_5
100
AcDbDimension
  2
*D6
 10
1747.153478631904
 20
951.907530246744
 30
0.0
 11
1714.153478631904
 21
955.407530246744
 31
0.0
 70
    32
  1
36+stroke
 71
     5
 42
66.0
  3
AM_ISO$0
100
AcDbAlignedDimension
 13
1681.153478631904
 23
963.9075302467441
 33
0.0
 14
1747.153478631904
 24
963.9075302467441
 34
0.0
100
AcDbRotatedDimension
1001
ACAD
1000
DSTYLE
1002
{
1070
    40
1040
1.399999999999999
1070
   144
1040
1.0
1070
   272
1070
     8
1002
}
  0
DIMENSION
  5
4F98
330
1F
100
AcDbEntity
  8
AM_5
100
AcDbDimension
  2
*D7
 10
1779.153478631904
 20
951.907530246744
 30
0.0
 11
1763.153478631904
 21
955.4079436325707
 31
0.0
 70
    32
  1
2+stroke
 71
     5
 42
32.0
  3
AM_ISO$0
100
AcDbAlignedDimension
 13
1747.153478631904
 23
963.9075302467441
 33
0.0
 14
1779.153478631904
 24
963.9075302467441
 34
0.0
100
AcDbRotatedDimension
1001
ACAD
1000
DSTYLE
1002
{
1070
    40
1040
1.399999999999999
1070
   272
1070
     8
1002
}
  0
DIMENSION
  5
4F99
330
1F
100
AcDbEntity
  8
AM_5
100
AcDbDimension
  2
*D8
 10
1793.153478631904
 20
951.907530246744
 30
0.0
 11
1786.153478631904
 21
955.407530246744
 31
0.0
 70
    32
 71
     5
 42
14.0
  3
AM_ISO$0
100
AcDbAlignedDimension
 13
1779.153478631904
 23
963.9075302467441
 33
0.0
 14
1793.153478631904
 24
963.9075302467441
 34
0.0
100
AcDbRotatedDimension
1001
ACAD
1000
DSTYLE
1002
{
1070
    40
1040
1.399999999999999
1070
   272
1070
     8
1002
}
  0
DIMENSION
  5
50B8
330
1F
100
AcDbEntity
  8
AM_5
100
AcDbDimension
  2
*D9
 10
1898.698826400585
 20
943.6810978193095
 30
0.0
 11
1873.198826400585
 21
947.1810978193095
 31
0.0
 70
    32
 71
     5
 42
51.0
  3
AM_ISO$0
100
AcDbAlignedDimension
 13
1847.698826400585
 23
963.9075302467441
 33
0.0
 14
1898.698826400585
 24
963.9075302467441
 34
0.0
100
AcDbRotatedDimension
1001
ACAD
1000
DSTYLE
1002
{
1070
    40
1040
1.399999999999999
1070
   272
1070
     8
1002
}
  0
DIMENSION
  5
50B9
330
1F
100
AcDbEntity
  8
AM_5
100
AcDbDimension
  2
*D10
 10
1835.698825400585
 20
1079.907530246744
 30
0.0
 11
1835.698825400584
 21
1011.907530246744
 31
0.0
 70
   160
 71
     5
 42
116.0
  3
AM_ISO$0
100
AcDbAlignedDimension
 13
1847.698826400585
 23
963.9075302467441
 33
0.0
 14
1847.698826400585
 24
1079.907530246744
 34
0.0
 50
90.0
100
AcDbRotatedDimension
1001
ACAD
1000
DSTYLE
1002
{
1070
    40
1040
1.399999999999999
1070
   272
1070
     8
1002
}
  0
TEXT
  5
50BA
330
1F
100
AcDbEntity
  8
AM_5
100
AcDbText
 10
1817.156050590876
 20
953.356426087204
 30
0.0
 40
4.199999999999999
  1
2x4-M8
 41
0.8
100
AcDbText
  0
INSERT
  5
50BB
330
1F
100
AcDbEntity
  8
AM_5
100
AcDbBlockReference
  2
*S28
 10
0.0
 20
0.0
 30
0.0
  0
TEXT
  5
50F9
330
1F
100
AcDbEntity
  8
AM_5
100
AcDbText
 10
1747.230878567843
 20
1098.612782378493
 30
0.0
 40
4.199999999999999
  1
4-%%c5.2 thru
 41
0.8
100
AcDbText
  0
INSERT
  5
50FA
330
1F
100
AcDbEntity
  8
AM_5
100
AcDbBlockReference
  2
*S29
 10
0.0
 20
0.0
 30
0.0
  0
TEXT
  5
50FB
330
1F
100
AcDbEntity
  8
AM_5
100
AcDbText
 10
1747.230878567843
 20
1092.548633785436
 30
0.0
 40
4.199999999999999
  1
4-%%c9.5x5.5 depth
 41
0.8
100
AcDbText
  0
INSERT
  5
50FC
330
1F
100
AcDbEntity
  8
AM_5
100
AcDbBlockReference
  2
*S30
 10
0.0
 20
0.0
 30
0.0
  0
TEXT
  5
50FD
330
1F
100
AcDbEntity
  8
AM_5
100
AcDbText
 10
1803.319208906959
 20
1092.033611120473
 30
0.0
 40
4.199999999999999
  1
2x2-%%c8    x12 depth
 41
0.8
100
AcDbText
  0
TEXT
  5
50FE
330
1F
100
AcDbEntity
  8
AM_5
100
AcDbText
 10
1818.238740535908
 20
1092.295148826704
 30
0.0
 40
1.68
  1
+0
 41
0.8
100
AcDbText
  0
TEXT
  5
50FF
330
1F
100
AcDbEntity
  8
AM_5
100
AcDbText
 10
1818.238740535908
 20
1094.416652891221
 30
0.0
 40
1.68
  1
+0.02
 41
0.8
100
AcDbText
  0
TEXT
  5
5102
330
1F
100
AcDbEntity
  8
AM_5
100
AcDbText
 10
1652.534307108069
 20
1197.032624895814
 30
0.0
 40
4.199999999999999
  1
4-M8x16 depth
 41
0.8
100
AcDbText
  0
TEXT
  5
5103
330
1F
100
AcDbEntity
  8
AM_5
100
AcDbText
 10
1750.349387510921
 20
1196.639999668675
 30
0.0
 40
4.199999999999999
  1
4-M8x11 depth
 41
0.8
100
AcDbText
  0
INSERT
  5
5104
330
1F
100
AcDbEntity
  8
AM_5
100
AcDbBlockReference
  2
*S31
 10
0.0
 20
0.0
 30
0.0
  0
TEXT
  5
5105
330
1F
100
AcDbEntity
  8
AM_5
100
AcDbText
 10
1801.224674417023
 20
1229.12910498466
 30
0.0
 40
4.199999999999999
  1
2x2-%%c6.6 thru
 41
0.8
100
AcDbText
  0
INSERT
  5
5106
330
1F
100
AcDbEntity
  8
AM_5
100
AcDbBlockReference
  2
*S32
 10
0.0
 20
0.0
 30
0.0
  0
TEXT
  5
5107
330
1F
100
AcDbEntity
  8
AM_5
100
AcDbText
 10
1801.224674417023
 20
1223.064956391603
 30
0.0
 40
4.199999999999999
  1
2x2-%%c11x6.5 depth
 41
0.8
100
AcDbText
  0
INSERT
  5
510C
330
1F
100
AcDbEntity
  8
AM_5
100
AcDbBlockReference
  2
*S33
 10
0.0
 20
0.0
 30
0.0
  0
LINE
  5
510E
330
1F
100
AcDbEntity
  8
AM_VIS
100
AcDbLine
 10
2265.669823376289
 20
1079.907530246744
 30
0.0
 11
2279.669823376289
 21
1079.907530246744
 31
0.0
  0
LINE
  5
510F
330
1F
100
AcDbEntity
  8
AM_VIS
100
AcDbLine
 10
2279.669823376289
 20
963.9075302467441
 30
0.0
 11
2279.669823376289
 21
1079.907530246744
 31
0.0
  0
LINE
  5
5110
330
1F
100
AcDbEntity
  8
AM_VIS
100
AcDbLine
 10
2265.669823376289
 20
1079.907530246744
 30
0.0
 11
2265.669823376289
 21
963.9075302467441
 31
0.0
  0
LINE
  5
5111
330
1F
100
AcDbEntity
  8
AM_VIS
100
AcDbLine
 10
2265.669823376289
 20
963.9075302467441
 30
0.0
 11
2279.669823376289
 21
963.9075302467441
 31
0.0
  0
CIRCLE
  5
5112
330
1F
100
AcDbEntity
  8
AM_VIS
100
AcDbCircle
 10
2272.669823376289
 20
993.907530246744
 30
0.0
 40
3.299999999999999
  0
CIRCLE
  5
5113
330
1F
100
AcDbEntity
  8
AM_VIS
100
AcDbCircle
 10
2272.669823376289
 20
1049.907530246744
 30
0.0
 40
3.299999999999999
  0
CIRCLE
  5
5114
330
1F
100
AcDbEntity
  8
AM_VIS
100
AcDbCircle
 10
2272.669823376289
 20
1059.907530246744
 30
0.0
 40
4.0
  0
CIRCLE
  5
5115
330
1F
100
AcDbEntity
  8
AM_VIS
100
AcDbCircle
 10
2272.669823376289
 20
983.907530246744
 30
0.0
 40
4.0
  0
LINE
  5
5116
330
1F
100
AcDbEntity
  8
AM_VIS
100
AcDbLine
 10
2165.669823376289
 20
963.9075302467441
 30
0.0
 11
2151.669823376289
 21
963.9075302467441
 31
0.0
  0
LINE
  5
5117
330
1F
100
AcDbEntity
  8
AM_VIS
100
AcDbLine
 10
2151.669823376289
 20
1079.907530246744
 30
0.0
 11
2151.669823376289
 21
963.9075302467441
 31
0.0
  0
LINE
  5
5118
330
1F
100
AcDbEntity
  8
AM_VIS
100
AcDbLine
 10
2165.669823376289
 20
963.9075302467441
 30
0.0
 11
2165.669823376289
 21
1079.907530246744
 31
0.0
  0
LINE
  5
5119
330
1F
100
AcDbEntity
  8
AM_VIS
100
AcDbLine
 10
2165.669823376289
 20
1079.907530246744
 30
0.0
 11
2151.669823376289
 21
1079.907530246744
 31
0.0
  0
CIRCLE
  5
511A
330
1F
100
AcDbEntity
  8
AM_VIS
100
AcDbCircle
 10
2158.669823376289
 20
1049.907530246744
 30
0.0
 40
3.299999999999999
  0
CIRCLE
  5
511B
330
1F
100
AcDbEntity
  8
AM_VIS
100
AcDbCircle
 10
2158.669823376289
 20
993.907530246744
 30
0.0
 40
3.299999999999999
  0
CIRCLE
  5
511C
330
1F
100
AcDbEntity
  8
AM_VIS
100
AcDbCircle
 10
2158.669823376289
 20
983.907530246744
 30
0.0
 40
4.0
  0
CIRCLE
  5
511D
330
1F
100
AcDbEntity
  8
AM_VIS
100
AcDbCircle
 10
2158.669823376289
 20
1059.907530246744
 30
0.0
 40
4.0
  0
LINE
  5
5122
330
1F
100
AcDbEntity
  8
AM_VIS
100
AcDbLine
 10
2233.669823376289
 20
1013.907530246744
 30
0.0
 11
2265.669823376289
 21
1013.907530246744
 31
0.0
  0
LINE
  5
5123
330
1F
100
AcDbEntity
  8
AM_VIS
100
AcDbLine
 10
2233.669823376289
 20
1029.907530246744
 30
0.0
 11
2265.669823376289
 21
1029.907530246744
 31
0.0
  0
LINE
  5
5124
330
1F
100
AcDbEntity
  8
AM_VIS
100
AcDbLine
 10
2167.669823376289
 20
1029.907530246744
 30
0.0
 11
2165.669823376289
 21
1029.907530246744
 31
0.0
  0
LINE
  5
5125
330
1F
100
AcDbEntity
  8
AM_VIS
100
AcDbLine
 10
2167.669823376289
 20
1013.907530246744
 30
0.0
 11
2165.669823376289
 21
1013.907530246744
 31
0.0
  0
LINE
  5
5126
330
1F
100
AcDbEntity
  8
AM_VIS
100
AcDbLine
 10
2233.669823376289
 20
1026.707530246744
 30
0.0
 11
2167.669823376289
 21
1026.707530246744
 31
0.0
  0
LINE
  5
5127
330
1F
100
AcDbEntity
  8
AM_VIS
100
AcDbLine
 10
2167.669823376289
 20
1017.107530246744
 30
0.0
 11
2233.669823376289
 21
1017.107530246744
 31
0.0
  0
LINE
  5
5128
330
1F
100
AcDbEntity
  8
AM_VIS
100
AcDbLine
 10
2167.669823376289
 20
1027.957530246744
 30
0.0
 11
2167.669823376289
 21
1028.857530246744
 31
0.0
  0
LINE
  5
5129
330
1F
100
AcDbEntity
  8
AM_VIS
100
AcDbLine
 10
2167.669823376289
 20
1017.107530246744
 30
0.0
 11
2167.669823376289
 21
1026.707530246744
 31
0.0
  0
LINE
  5
512A
330
1F
100
AcDbEntity
  8
AM_VIS
100
AcDbLine
 10
2167.669823376289
 20
1014.957530246744
 30
0.0
 11
2167.669823376289
 21
1015.857530246744
 31
0.0
  0
LINE
  5
512B
330
1F
100
AcDbEntity
  8
AM_VIS
100
AcDbLine
 10
2233.669823376289
 20
1004.707530246744
 30
0.0
 11
2233.669823376289
 21
1003.907530246744
 31
0.0
  0
LINE
  5
512C
330
1F
100
AcDbEntity
  8
AM_VIS
100
AcDbLine
 10
2233.669823376289
 20
1015.857530246744
 30
0.0
 11
2233.669823376289
 21
1014.957530246744
 31
0.0
  0
LINE
  5
512D
330
1F
100
AcDbEntity
  8
AM_VIS
100
AcDbLine
 10
2233.669823376289
 20
1026.707530246744
 30
0.0
 11
2233.669823376289
 21
1017.107530246744
 31
0.0
  0
LINE
  5
512E
330
1F
100
AcDbEntity
  8
AM_VIS
100
AcDbLine
 10
2233.669823376289
 20
1028.857530246744
 30
0.0
 11
2233.669823376289
 21
1027.957530246744
 31
0.0
  0
LINE
  5
512F
330
1F
100
AcDbEntity
  8
AM_VIS
100
AcDbLine
 10
2167.669823376289
 20
1003.907530246744
 30
0.0
 11
2167.669823376289
 21
1004.707530246744
 31
0.0
  0
LINE
  5
5130
330
1F
100
AcDbEntity
  8
AM_VIS
100
AcDbLine
 10
2233.669823376289
 20
1003.907530246744
 30
0.0
 11
2218.279595604935
 21
1003.907530246744
 31
0.0
  0
LINE
  5
5131
330
1F
100
AcDbEntity
  8
AM_VIS
100
AcDbLine
 10
2233.669823376289
 20
963.9075302467441
 30
0.0
 11
2233.669823376289
 21
1003.907530246744
 31
0.0
  0
LINE
  5
5132
330
1F
100
AcDbEntity
  8
AM_VIS
100
AcDbLine
 10
2167.669823376289
 20
963.9075302467441
 30
0.0
 11
2167.669823376289
 21
1003.907530246744
 31
0.0
  0
LINE
  5
5133
330
1F
100
AcDbEntity
  8
AM_VIS
100
AcDbLine
 10
2183.060051147643
 20
1003.907530246744
 30
0.0
 11
2167.669823376289
 21
1003.907530246744
 31
0.0
  0
ARC
  5
5134
330
1F
100
AcDbEntity
  8
AM_VIS
100
AcDbCircle
 10
2213.669823376289
 20
1000.907530246744
 30
0.0
 40
5.5
100
AcDbArc
 50
33.05573115085955
 51
43.70211443735165
  0
ARC
  5
5135
330
1F
100
AcDbEntity
  8
AM_VIS
100
AcDbCircle
 10
2213.669823376289
 20
1000.907530246744
 30
0.0
 40
5.5
100
AcDbArc
 50
136.2978855626483
 51
146.9442688491404
  0
LINE
  5
5136
330
1F
100
AcDbEntity
  8
AM_VIS
100
AcDbLine
 10
2209.060051147643
 20
1003.907530246744
 30
0.0
 11
2192.279595604935
 21
1003.907530246744
 31
0.0
  0
LINE
  5
5137
330
1F
100
AcDbEntity
  8
AM_VIS
100
AcDbLine
 10
2167.669823376289
 20
1004.707530246744
 30
0.0
 11
2183.693644305875
 21
1004.707530246744
 31
0.0
  0
LINE
  5
5138
330
1F
100
AcDbEntity
  8
AM_VIS
100
AcDbLine
 10
2167.669823376289
 20
1004.707530246744
 30
0.0
 11
2167.669823376289
 21
1013.707530246744
 31
0.0
  0
LINE
  5
5139
330
1F
100
AcDbEntity
  8
AM_VIS
100
AcDbLine
 10
2233.669823376289
 20
1013.707530246744
 30
0.0
 11
2167.669823376289
 21
1013.707530246744
 31
0.0
  0
LINE
  5
513A
330
1F
100
AcDbEntity
  8
AM_VIS
100
AcDbLine
 10
2233.669823376289
 20
1013.707530246744
 30
0.0
 11
2233.669823376289
 21
1004.707530246744
 31
0.0
  0
LINE
  5
513B
330
1F
100
AcDbEntity
  8
AM_VIS
100
AcDbLine
 10
2217.646002446703
 20
1004.707530246744
 30
0.0
 11
2233.669823376289
 21
1004.707530246744
 31
0.0
  0
LINE
  5
513C
330
1F
100
AcDbEntity
  8
AM_VIS
100
AcDbLine
 10
2191.646002446703
 20
1004.707530246744
 30
0.0
 11
2209.693644305875
 21
1004.707530246744
 31
0.0
  0
ARC
  5
513D
330
1F
100
AcDbEntity
  8
AM_VIS
100
AcDbCircle
 10
2187.669823376289
 20
1000.907530246744
 30
0.0
 40
5.5
100
AcDbArc
 50
33.05573115085955
 51
43.70211443735165
  0
ARC
  5
513E
330
1F
100
AcDbEntity
  8
AM_VIS
100
AcDbCircle
 10
2187.669823376289
 20
1000.907530246744
 30
0.0
 40
5.5
100
AcDbArc
 50
136.2978855626483
 51
146.9442688491404
  0
LINE
  5
513F
330
1F
100
AcDbEntity
  8
AM_VIS
100
AcDbLine
 10
2233.669823376289
 20
1039.907530246744
 30
0.0
 11
2233.669823376289
 21
1039.107530246744
 31
0.0
  0
LINE
  5
5140
330
1F
100
AcDbEntity
  8
AM_VIS
100
AcDbLine
 10
2167.669823376289
 20
1039.907530246744
 30
0.0
 11
2167.669823376289
 21
1079.907530246744
 31
0.0
  0
LINE
  5
5141
330
1F
100
AcDbEntity
  8
AM_VIS
100
AcDbLine
 10
2167.669823376289
 20
1079.907530246744
 30
0.0
 11
2233.669823376289
 21
1079.907530246744
 31
0.0
  0
LINE
  5
5142
330
1F
100
AcDbEntity
  8
AM_VIS
100
AcDbLine
 10
2233.669823376289
 20
1039.907530246744
 30
0.0
 11
2233.669823376289
 21
1079.907530246744
 31
0.0
  0
LINE
  5
5143
330
1F
100
AcDbEntity
  8
AM_VIS
100
AcDbLine
 10
2218.279595604936
 20
1039.907530246744
 30
0.0
 11
2233.669823376289
 21
1039.907530246744
 31
0.0
  0
LINE
  5
5144
330
1F
100
AcDbEntity
  8
AM_VIS
100
AcDbLine
 10
2192.279595604936
 20
1039.907530246744
 30
0.0
 11
2209.060051147643
 21
1039.907530246744
 31
0.0
  0
ARC
  5
5145
330
1F
100
AcDbEntity
  8
AM_VIS
100
AcDbCircle
 10
2213.669823376289
 20
1042.907530246744
 30
0.0
 40
5.5
100
AcDbArc
 50
316.2978855626483
 51
326.9442688491459
  0
ARC
  5
5146
330
1F
100
AcDbEntity
  8
AM_VIS
100
AcDbCircle
 10
2213.669823376289
 20
1042.907530246744
 30
0.0
 40
5.5
100
AcDbArc
 50
213.0557311508541
 51
223.7021144373517
  0
LINE
  5
5147
330
1F
100
AcDbEntity
  8
AM_VIS
100
AcDbLine
 10
2167.669823376289
 20
1039.107530246744
 30
0.0
 11
2167.669823376289
 21
1039.907530246744
 31
0.0
  0
LINE
  5
5148
330
1F
100
AcDbEntity
  8
AM_VIS
100
AcDbLine
 10
2167.669823376289
 20
1039.907530246744
 30
0.0
 11
2183.060051147642
 21
1039.907530246744
 31
0.0
  0
LINE
  5
5149
330
1F
100
AcDbEntity
  8
AM_VIS
100
AcDbLine
 10
2191.646002446703
 20
1039.107530246744
 30
0.0
 11
2209.693644305875
 21
1039.107530246744
 31
0.0
  0
LINE
  5
514A
330
1F
100
AcDbEntity
  8
AM_VIS
100
AcDbLine
 10
2217.646002446703
 20
1039.107530246744
 30
0.0
 11
2233.669823376289
 21
1039.107530246744
 31
0.0
  0
LINE
  5
514B
330
1F
100
AcDbEntity
  8
AM_VIS
100
AcDbLine
 10
2233.669823376289
 20
1039.107530246744
 30
0.0
 11
2233.669823376289
 21
1030.107530246744
 31
0.0
  0
LINE
  5
514C
330
1F
100
AcDbEntity
  8
AM_VIS
100
AcDbLine
 10
2167.669823376289
 20
1030.107530246744
 30
0.0
 11
2233.669823376289
 21
1030.107530246744
 31
0.0
  0
LINE
  5
514D
330
1F
100
AcDbEntity
  8
AM_VIS
100
AcDbLine
 10
2167.669823376289
 20
1030.107530246744
 30
0.0
 11
2167.669823376289
 21
1039.107530246744
 31
0.0
  0
LINE
  5
514E
330
1F
100
AcDbEntity
  8
AM_VIS
100
AcDbLine
 10
2167.669823376289
 20
1039.107530246744
 30
0.0
 11
2183.693644305875
 21
1039.107530246744
 31
0.0
  0
ARC
  5
514F
330
1F
100
AcDbEntity
  8
AM_VIS
100
AcDbCircle
 10
2187.669823376289
 20
1042.907530246744
 30
0.0
 40
5.5
100
AcDbArc
 50
213.0557311508541
 51
223.7021144373517
  0
ARC
  5
5150
330
1F
100
AcDbEntity
  8
AM_VIS
100
AcDbCircle
 10
2187.669823376289
 20
1042.907530246744
 30
0.0
 40
5.5
100
AcDbArc
 50
316.2978855626483
 51
326.9442688491459
  0
LINE
  5
5151
330
1F
100
AcDbEntity
  8
AM_VIS
100
AcDbLine
 10
2167.669823376289
 20
963.9075302467441
 30
0.0
 11
2233.669823376289
 21
963.9075302467441
 31
0.0
  0
LINE
  5
5152
330
1F
100
AcDbEntity
  8
AM_VIS
100
AcDbLine
 10
2167.669823376289
 20
1030.107530246744
 30
0.0
 11
2167.669823376289
 21
1028.857530246744
 31
0.0
  0
LINE
  5
5153
330
1F
100
AcDbEntity
  8
AM_VIS
100
AcDbLine
 10
2167.669823376289
 20
1027.957530246744
 30
0.0
 11
2167.669823376289
 21
1026.707530246744
 31
0.0
  0
LINE
  5
5154
330
1F
100
AcDbEntity
  8
AM_VIS
100
AcDbLine
 10
2167.669823376289
 20
1017.107530246744
 30
0.0
 11
2167.669823376289
 21
1015.857530246744
 31
0.0
  0
LINE
  5
5155
330
1F
100
AcDbEntity
  8
AM_VIS
100
AcDbLine
 10
2167.669823376289
 20
1014.957530246744
 30
0.0
 11
2167.669823376289
 21
1013.707530246744
 31
0.0
  0
LINE
  5
5156
330
1F
100
AcDbEntity
  8
AM_VIS
100
AcDbLine
 10
2233.669823376289
 20
1013.707530246744
 30
0.0
 11
2233.669823376289
 21
1014.957530246744
 31
0.0
  0
LINE
  5
5157
330
1F
100
AcDbEntity
  8
AM_VIS
100
AcDbLine
 10
2233.669823376289
 20
1015.857530246744
 30
0.0
 11
2233.669823376289
 21
1017.107530246744
 31
0.0
  0
LINE
  5
5158
330
1F
100
AcDbEntity
  8
AM_VIS
100
AcDbLine
 10
2233.669823376289
 20
1026.707530246744
 30
0.0
 11
2233.669823376289
 21
1027.957530246744
 31
0.0
  0
LINE
  5
5159
330
1F
100
AcDbEntity
  8
AM_VIS
100
AcDbLine
 10
2233.669823376289
 20
1028.857530246744
 30
0.0
 11
2233.669823376289
 21
1030.107530246744
 31
0.0
  0
ARC
  5
515A
330
1F
100
AcDbEntity
  8
AM_VIS
100
AcDbCircle
 10
2213.669823376289
 20
1000.907530246744
 30
0.0
 40
5.5
100
AcDbArc
 50
146.9442688491404
 51
33.05573115085955
  0
CIRCLE
  5
515B
330
1F
100
AcDbEntity
  8
AM_VIS
100
AcDbCircle
 10
2213.669823376289
 20
1000.907530246744
 30
0.0
 40
3.399999999999999
  0
ARC
  5
515C
330
1F
100
AcDbEntity
  8
AM_VIS
100
AcDbCircle
 10
2213.669823376289
 20
1000.907530246744
 30
0.0
 40
5.5
100
AcDbArc
 50
43.70211443735165
 51
136.2978855626483
  0
CIRCLE
  5
515D
330
1F
100
AcDbEntity
  8
AM_VIS
100
AcDbCircle
 10
2187.669823376289
 20
1000.907530246744
 30
0.0
 40
3.399999999999999
  0
ARC
  5
515E
330
1F
100
AcDbEntity
  8
AM_VIS
100
AcDbCircle
 10
2187.669823376289
 20
1000.907530246744
 30
0.0
 40
5.5
100
AcDbArc
 50
43.70211443735165
 51
136.2978855626483
  0
ARC
  5
515F
330
1F
100
AcDbEntity
  8
AM_VIS
100
AcDbCircle
 10
2187.669823376289
 20
1000.907530246744
 30
0.0
 40
5.5
100
AcDbArc
 50
146.9442688491404
 51
33.05573115085955
  0
ARC
  5
5160
330
1F
100
AcDbEntity
  8
AM_VIS
100
AcDbCircle
 10
2213.669823376289
 20
1042.907530246744
 30
0.0
 40
5.5
100
AcDbArc
 50
326.9442688491459
 51
213.0557311508541
  0
CIRCLE
  5
5161
330
1F
100
AcDbEntity
  8
AM_VIS
100
AcDbCircle
 10
2213.669823376289
 20
1042.907530246744
 30
0.0
 40
3.399999999999999
  0
ARC
  5
5162
330
1F
100
AcDbEntity
  8
AM_VIS
100
AcDbCircle
 10
2213.669823376289
 20
1042.907530246744
 30
0.0
 40
5.5
100
AcDbArc
 50
223.7021144373517
 51
316.2978855626483
  0
CIRCLE
  5
5163
330
1F
100
AcDbEntity
  8
AM_VIS
100
AcDbCircle
 10
2187.669823376289
 20
1042.907530246744
 30
0.0
 40
3.399999999999999
  0
ARC
  5
5164
330
1F
100
AcDbEntity
  8
AM_VIS
100
AcDbCircle
 10
2187.669823376289
 20
1042.907530246744
 30
0.0
 40
5.5
100
AcDbArc
 50
223.7021144373517
 51
316.2978855626483
  0
ARC
  5
5165
330
1F
100
AcDbEntity
  8
AM_VIS
100
AcDbCircle
 10
2187.669823376289
 20
1042.907530246744
 30
0.0
 40
5.5
100
AcDbArc
 50
326.9442688491459
 51
213.0557311508541
  0
LINE
  5
5166
330
1F
100
AcDbEntity
  8
AM_VIS
100
AcDbLine
 10
2358.71517114497
 20
1023.352402645954
 30
0.0
 11
2361.21517114497
 21
1024.795030246744
 31
0.0
  0
LINE
  5
5167
330
1F
100
AcDbEntity
  8
AM_VIS
100
AcDbLine
 10
2363.71517114497
 20
1023.352402645954
 30
0.0
 11
2363.71517114497
 21
1020.462657847533
 31
0.0
  0
LINE
  5
5168
330
1F
100
AcDbEntity
  8
AM_VIS
100
AcDbLine
 10
2361.21517114497
 20
1024.795030246744
 30
0.0
 11
2363.71517114497
 21
1023.352402645954
 31
0.0
  0
LINE
  5
5169
330
1F
100
AcDbEntity
  8
AM_VIS
100
AcDbLine
 10
2358.71517114497
 20
1020.462657847533
 30
0.0
 11
2358.71517114497
 21
1023.352402645954
 31
0.0
  0
LINE
  5
516A
330
1F
100
AcDbEntity
  8
AM_VIS
100
AcDbLine
 10
2361.21517114497
 20
1019.020030246744
 30
0.0
 11
2358.71517114497
 21
1020.462657847533
 31
0.0
  0
LINE
  5
516B
330
1F
100
AcDbEntity
  8
AM_VIS
100
AcDbLine
 10
2363.71517114497
 20
1020.462657847533
 30
0.0
 11
2361.21517114497
 21
1019.020030246744
 31
0.0
  0
CIRCLE
  5
516C
330
1F
100
AcDbEntity
  8
AM_VIS
100
AcDbCircle
 10
2361.21517114497
 20
1021.907530246744
 30
0.0
 40
7.0
  0
LINE
  5
516D
330
1F
100
AcDbEntity
  8
AM_VIS
100
AcDbLine
 10
2358.71517114497
 20
1063.352402645954
 30
0.0
 11
2361.21517114497
 21
1064.795030246744
 31
0.0
  0
LINE
  5
516E
330
1F
100
AcDbEntity
  8
AM_VIS
100
AcDbLine
 10
2363.71517114497
 20
1063.352402645954
 30
0.0
 11
2363.71517114497
 21
1060.462657847534
 31
0.0
  0
LINE
  5
516F
330
1F
100
AcDbEntity
  8
AM_VIS
100
AcDbLine
 10
2361.21517114497
 20
1064.795030246744
 30
0.0
 11
2363.71517114497
 21
1063.352402645954
 31
0.0
  0
LINE
  5
5170
330
1F
100
AcDbEntity
  8
AM_VIS
100
AcDbLine
 10
2358.71517114497
 20
1060.462657847534
 30
0.0
 11
2358.71517114497
 21
1063.352402645954
 31
0.0
  0
LINE
  5
5171
330
1F
100
AcDbEntity
  8
AM_VIS
100
AcDbLine
 10
2361.21517114497
 20
1059.020030246744
 30
0.0
 11
2358.71517114497
 21
1060.462657847534
 31
0.0
  0
LINE
  5
5172
330
1F
100
AcDbEntity
  8
AM_VIS
100
AcDbLine
 10
2363.71517114497
 20
1060.462657847534
 30
0.0
 11
2361.21517114497
 21
1059.020030246744
 31
0.0
  0
CIRCLE
  5
5173
330
1F
100
AcDbEntity
  8
AM_VIS
100
AcDbCircle
 10
2361.21517114497
 20
1061.907530246744
 30
0.0
 40
7.0
  0
LINE
  5
5174
330
1F
100
AcDbEntity
  8
AM_VIS
100
AcDbLine
 10
2334.21517114497
 20
1079.907530246744
 30
0.0
 11
2385.21517114497
 21
1079.907530246744
 31
0.0
  0
LINE
  5
5175
330
1F
100
AcDbEntity
  8
AM_VIS
100
AcDbLine
 10
2385.21517114497
 20
1079.907530246744
 30
0.0
 11
2385.21517114497
 21
963.9075302467441
 31
0.0
  0
LINE
  5
5176
330
1F
100
AcDbEntity
  8
AM_VIS
100
AcDbLine
 10
2334.21517114497
 20
963.9075302467441
 30
0.0
 11
2334.21517114497
 21
1079.907530246744
 31
0.0
  0
LINE
  5
5177
330
1F
100
AcDbEntity
  8
AM_VIS
100
AcDbLine
 10
2385.21517114497
 20
963.9075302467441
 30
0.0
 11
2334.21517114497
 21
963.9075302467441
 31
0.0
  0
CIRCLE
  5
5178
330
1F
100
AcDbEntity
  8
AM_VIS
100
AcDbCircle
 10
2361.21517114497
 20
981.9075302467441
 30
0.0
 40
8.0
  0
CIRCLE
  5
5179
330
1F
100
AcDbEntity
  8
AM_VIS
100
AcDbCircle
 10
2361.21517114497
 20
1061.907530246744
 30
0.0
 40
8.0
  0
CIRCLE
  5
517A
330
1F
100
AcDbEntity
  8
AM_VIS
100
AcDbCircle
 10
2361.21517114497
 20
1021.907530246744
 30
0.0
 40
8.0
  0
LINE
  5
517B
330
1F
100
AcDbEntity
  8
AM_VIS
100
AcDbLine
 10
2387.21517114497
 20
963.9075302467441
 30
0.0
 11
2385.21517114497
 21
963.9075302467441
 31
0.0
  0
LINE
  5
517C
330
1F
100
AcDbEntity
  8
AM_VIS
100
AcDbLine
 10
2385.21517114497
 20
1079.907530246744
 30
0.0
 11
2387.21517114497
 21
1079.907530246744
 31
0.0
  0
LINE
  5
517D
330
1F
100
AcDbEntity
  8
AM_VIS
100
AcDbLine
 10
2386.71517114497
 20
1065.907530246744
 30
0.0
 11
2387.21517114497
 21
1066.407530246744
 31
0.0
  0
LINE
  5
517E
330
1F
100
AcDbEntity
  8
AM_VIS
100
AcDbLine
 10
2386.71517114497
 20
1058.107530246744
 30
0.0
 11
2386.71517114497
 21
1065.907530246744
 31
0.0
  0
LINE
  5
517F
330
1F
100
AcDbEntity
  8
AM_VIS
100
AcDbLine
 10
2385.21517114497
 20
1056.607530246744
 30
0.0
 11
2386.71517114497
 21
1058.107530246744
 31
0.0
  0
LINE
  5
5180
330
1F
100
AcDbEntity
  8
AM_VIS
100
AcDbLine
 10
2387.21517114497
 20
1049.207530246744
 30
0.0
 11
2385.21517114497
 21
1051.207530246744
 31
0.0
  0
LINE
  5
5181
330
1F
100
AcDbEntity
  8
AM_VIS
100
AcDbLine
 10
2385.21517114497
 20
1034.607530246744
 30
0.0
 11
2387.21517114497
 21
1036.607530246744
 31
0.0
  0
LINE
  5
5182
330
1F
100
AcDbEntity
  8
AM_VIS
100
AcDbLine
 10
2387.21517114497
 20
1007.207530246744
 30
0.0
 11
2385.21517114497
 21
1009.207530246744
 31
0.0
  0
LINE
  5
5183
330
1F
100
AcDbEntity
  8
AM_VIS
100
AcDbLine
 10
2385.21517114497
 20
992.607530246744
 30
0.0
 11
2387.21517114497
 21
994.6075302467441
 31
0.0
  0
LINE
  5
5184
330
1F
100
AcDbEntity
  8
AM_VIS
100
AcDbLine
 10
2386.71517114497
 20
985.7075302467439
 30
0.0
 11
2385.21517114497
 21
987.207530246744
 31
0.0
  0
LINE
  5
5185
330
1F
100
AcDbEntity
  8
AM_VIS
100
AcDbLine
 10
2386.71517114497
 20
977.907530246744
 30
0.0
 11
2386.71517114497
 21
985.7075302467439
 31
0.0
  0
LINE
  5
5186
330
1F
100
AcDbEntity
  8
AM_VIS
100
AcDbLine
 10
2387.21517114497
 20
977.4075302467441
 30
0.0
 11
2386.71517114497
 21
977.907530246744
 31
0.0
  0
LINE
  5
5187
330
1F
100
AcDbEntity
  8
AM_VIS
100
AcDbLine
 10
2387.21517114497
 20
994.6075302467441
 30
0.0
 11
2387.21517114497
 21
1007.207530246744
 31
0.0
  0
LINE
  5
5188
330
1F
100
AcDbEntity
  8
AM_VIS
100
AcDbLine
 10
2387.21517114497
 20
1036.607530246744
 30
0.0
 11
2387.21517114497
 21
1049.207530246744
 31
0.0
  0
LINE
  5
5189
330
1F
100
AcDbEntity
  8
AM_VIS
100
AcDbLine
 10
2387.21517114497
 20
1066.407530246744
 30
0.0
 11
2387.21517114497
 21
1079.907530246744
 31
0.0
  0
LINE
  5
518A
330
1F
100
AcDbEntity
  8
AM_VIS
100
AcDbLine
 10
2387.21517114497
 20
963.9075302467441
 30
0.0
 11
2387.21517114497
 21
977.4075302467441
 31
0.0
  0
LINE
  5
518B
330
1F
100
AcDbEntity
  8
AM_VIS
100
AcDbLine
 10
2085.064053540985
 20
980.4626578475337
 30
0.0
 11
2082.564053540985
 21
979.0200302467441
 31
0.0
  0
LINE
  5
518C
330
1F
100
AcDbEntity
  8
AM_VIS
100
AcDbLine
 10
2080.064053540985
 20
980.4626578475337
 30
0.0
 11
2080.064053540985
 21
983.3524026459544
 31
0.0
  0
LINE
  5
518D
330
1F
100
AcDbEntity
  8
AM_VIS
100
AcDbLine
 10
2082.564053540985
 20
979.0200302467441
 30
0.0
 11
2080.064053540985
 21
980.4626578475337
 31
0.0
  0
LINE
  5
518E
330
1F
100
AcDbEntity
  8
AM_VIS
100
AcDbLine
 10
2085.064053540985
 20
983.3524026459544
 30
0.0
 11
2085.064053540985
 21
980.4626578475337
 31
0.0
  0
LINE
  5
518F
330
1F
100
AcDbEntity
  8
AM_VIS
100
AcDbLine
 10
2082.564053540985
 20
984.795030246744
 30
0.0
 11
2085.064053540985
 21
983.3524026459544
 31
0.0
  0
LINE
  5
5190
330
1F
100
AcDbEntity
  8
AM_VIS
100
AcDbLine
 10
2080.064053540985
 20
983.3524026459544
 30
0.0
 11
2082.564053540985
 21
984.795030246744
 31
0.0
  0
CIRCLE
  5
5191
330
1F
100
AcDbEntity
  8
AM_VIS
100
AcDbCircle
 10
2082.564053540985
 20
981.9075302467441
 30
0.0
 40
7.0
  0
LINE
  5
5192
330
1F
100
AcDbEntity
  8
AM_VIS
100
AcDbLine
 10
2085.064053540985
 20
1020.462657847533
 30
0.0
 11
2082.564053540985
 21
1019.020030246744
 31
0.0
  0
LINE
  5
5193
330
1F
100
AcDbEntity
  8
AM_VIS
100
AcDbLine
 10
2080.064053540985
 20
1020.462657847533
 30
0.0
 11
2080.064053540985
 21
1023.352402645954
 31
0.0
  0
LINE
  5
5194
330
1F
100
AcDbEntity
  8
AM_VIS
100
AcDbLine
 10
2082.564053540985
 20
1019.020030246744
 30
0.0
 11
2080.064053540985
 21
1020.462657847533
 31
0.0
  0
LINE
  5
5195
330
1F
100
AcDbEntity
  8
AM_VIS
100
AcDbLine
 10
2085.064053540985
 20
1023.352402645954
 30
0.0
 11
2085.064053540985
 21
1020.462657847533
 31
0.0
  0
LINE
  5
5196
330
1F
100
AcDbEntity
  8
AM_VIS
100
AcDbLine
 10
2082.564053540985
 20
1024.795030246744
 30
0.0
 11
2085.064053540985
 21
1023.352402645954
 31
0.0
  0
LINE
  5
5197
330
1F
100
AcDbEntity
  8
AM_VIS
100
AcDbLine
 10
2080.064053540985
 20
1023.352402645954
 30
0.0
 11
2082.564053540985
 21
1024.795030246744
 31
0.0
  0
CIRCLE
  5
5198
330
1F
100
AcDbEntity
  8
AM_VIS
100
AcDbCircle
 10
2082.564053540985
 20
1021.907530246744
 30
0.0
 40
7.0
  0
LINE
  5
5199
330
1F
100
AcDbEntity
  8
AM_VIS
100
AcDbLine
 10
2109.564053540985
 20
963.9075302467441
 30
0.0
 11
2058.564053540985
 21
963.9075302467441
 31
0.0
  0
LINE
  5
519A
330
1F
100
AcDbEntity
  8
AM_VIS
100
AcDbLine
 10
2058.564053540985
 20
963.9075302467441
 30
0.0
 11
2058.564053540985
 21
1079.907530246744
 31
0.0
  0
LINE
  5
519B
330
1F
100
AcDbEntity
  8
AM_VIS
100
AcDbLine
 10
2109.564053540985
 20
1079.907530246744
 30
0.0
 11
2109.564053540985
 21
963.9075302467441
 31
0.0
  0
LINE
  5
519C
330
1F
100
AcDbEntity
  8
AM_VIS
100
AcDbLine
 10
2058.564053540985
 20
1079.907530246744
 30
0.0
 11
2109.564053540985
 21
1079.907530246744
 31
0.0
  0
CIRCLE
  5
519D
330
1F
100
AcDbEntity
  8
AM_VIS
100
AcDbCircle
 10
2082.564053540985
 20
1061.907530246744
 30
0.0
 40
8.0
  0
CIRCLE
  5
519E
330
1F
100
AcDbEntity
  8
AM_VIS
100
AcDbCircle
 10
2082.564053540985
 20
981.9075302467441
 30
0.0
 40
8.0
  0
CIRCLE
  5
519F
330
1F
100
AcDbEntity
  8
AM_VIS
100
AcDbCircle
 10
2082.564053540985
 20
1021.907530246744
 30
0.0
 40
8.0
  0
LINE
  5
51A0
330
1F
100
AcDbEntity
  8
AM_VIS
100
AcDbLine
 10
2057.064053540985
 20
977.907530246744
 30
0.0
 11
2056.564053540985
 21
977.4075302467441
 31
0.0
  0
LINE
  5
51A1
330
1F
100
AcDbEntity
  8
AM_VIS
100
AcDbLine
 10
2057.064053540985
 20
985.7075302467439
 30
0.0
 11
2057.064053540985
 21
977.907530246744
 31
0.0
  0
LINE
  5
51A2
330
1F
100
AcDbEntity
  8
AM_VIS
100
AcDbLine
 10
2058.564053540985
 20
987.207530246744
 30
0.0
 11
2057.064053540985
 21
985.7075302467439
 31
0.0
  0
LINE
  5
51A3
330
1F
100
AcDbEntity
  8
AM_VIS
100
AcDbLine
 10
2056.564053540985
 20
994.6075302467441
 30
0.0
 11
2058.564053540985
 21
992.607530246744
 31
0.0
  0
LINE
  5
51A4
330
1F
100
AcDbEntity
  8
AM_VIS
100
AcDbLine
 10
2058.564053540985
 20
1009.207530246744
 30
0.0
 11
2056.564053540985
 21
1007.207530246744
 31
0.0
  0
LINE
  5
51A5
330
1F
100
AcDbEntity
  8
AM_VIS
100
AcDbLine
 10
2056.564053540985
 20
1036.607530246744
 30
0.0
 11
2058.564053540985
 21
1034.607530246744
 31
0.0
  0
LINE
  5
51A6
330
1F
100
AcDbEntity
  8
AM_VIS
100
AcDbLine
 10
2058.564053540985
 20
1051.207530246744
 30
0.0
 11
2056.564053540985
 21
1049.207530246744
 31
0.0
  0
LINE
  5
51A7
330
1F
100
AcDbEntity
  8
AM_VIS
100
AcDbLine
 10
2057.064053540985
 20
1058.107530246744
 30
0.0
 11
2058.564053540985
 21
1056.607530246744
 31
0.0
  0
LINE
  5
51A8
330
1F
100
AcDbEntity
  8
AM_VIS
100
AcDbLine
 10
2057.064053540985
 20
1065.907530246744
 30
0.0
 11
2057.064053540985
 21
1058.107530246744
 31
0.0
  0
LINE
  5
51A9
330
1F
100
AcDbEntity
  8
AM_VIS
100
AcDbLine
 10
2056.564053540985
 20
1066.407530246744
 30
0.0
 11
2057.064053540985
 21
1065.907530246744
 31
0.0
  0
LINE
  5
51AA
330
1F
100
AcDbEntity
  8
AM_VIS
100
AcDbLine
 10
2058.564053540985
 20
1079.907530246744
 30
0.0
 11
2056.564053540985
 21
1079.907530246744
 31
0.0
  0
LINE
  5
51AB
330
1F
100
AcDbEntity
  8
AM_VIS
100
AcDbLine
 10
2056.564053540985
 20
963.9075302467441
 30
0.0
 11
2058.564053540985
 21
963.9075302467441
 31
0.0
  0
LINE
  5
51AC
330
1F
100
AcDbEntity
  8
AM_VIS
100
AcDbLine
 10
2056.564053540985
 20
1007.207530246744
 30
0.0
 11
2056.564053540985
 21
994.6075302467441
 31
0.0
  0
LINE
  5
51AD
330
1F
100
AcDbEntity
  8
AM_VIS
100
AcDbLine
 10
2056.564053540985
 20
1049.207530246744
 30
0.0
 11
2056.564053540985
 21
1036.607530246744
 31
0.0
  0
LINE
  5
51AE
330
1F
100
AcDbEntity
  8
AM_VIS
100
AcDbLine
 10
2056.564053540985
 20
1079.907530246744
 30
0.0
 11
2056.564053540985
 21
1066.407530246744
 31
0.0
  0
LINE
  5
51AF
330
1F
100
AcDbEntity
  8
AM_VIS
100
AcDbLine
 10
2056.564053540985
 20
977.4075302467441
 30
0.0
 11
2056.564053540985
 21
963.9075302467441
 31
0.0
  0
LINE
  5
51B0
330
1F
100
AcDbEntity
  8
AM_VIS
100
AcDbLine
 10
2265.669823376289
 20
855.5690601050811
 30
0.0
 11
2279.669823376289
 21
855.5690601050811
 31
0.0
  0
LINE
  5
51B1
330
1F
100
AcDbEntity
  8
AM_VIS
100
AcDbLine
 10
2265.669823376289
 20
906.569060105081
 30
0.0
 11
2265.669823376289
 21
855.5690601050811
 31
0.0
  0
LINE
  5
51B2
330
1F
100
AcDbEntity
  8
AM_VIS
100
AcDbLine
 10
2265.669823376289
 20
906.569060105081
 30
0.0
 11
2279.669823376289
 21
906.569060105081
 31
0.0
  0
LINE
  5
51B3
330
1F
100
AcDbEntity
  8
AM_VIS
100
AcDbLine
 10
2279.669823376289
 20
855.5690601050811
 30
0.0
 11
2279.669823376289
 21
906.569060105081
 31
0.0
  0
LINE
  5
51B4
330
1F
100
AcDbEntity
  8
AM_VIS
100
AcDbLine
 10
2165.669823376289
 20
855.5690601050811
 30
0.0
 11
2151.669823376289
 21
855.5690601050811
 31
0.0
  0
LINE
  5
51B5
330
1F
100
AcDbEntity
  8
AM_VIS
100
AcDbLine
 10
2165.669823376289
 20
906.569060105081
 30
0.0
 11
2151.669823376289
 21
906.569060105081
 31
0.0
  0
LINE
  5
51B6
330
1F
100
AcDbEntity
  8
AM_VIS
100
AcDbLine
 10
2151.669823376289
 20
906.569060105081
 30
0.0
 11
2151.669823376289
 21
855.5690601050811
 31
0.0
  0
LINE
  5
51B7
330
1F
100
AcDbEntity
  8
AM_VIS
100
AcDbLine
 10
2165.669823376289
 20
855.5690601050811
 30
0.0
 11
2165.669823376289
 21
906.569060105081
 31
0.0
  0
LINE
  5
51B8
330
1F
100
AcDbEntity
  8
AM_VIS
100
AcDbLine
 10
2233.669823376289
 20
868.569060105081
 30
0.0
 11
2167.669823376289
 21
868.569060105081
 31
0.0
  0
LINE
  5
51B9
330
1F
100
AcDbEntity
  8
AM_VIS
100
AcDbLine
 10
2167.669823376289
 20
870.069060105081
 30
0.0
 11
2233.669823376289
 21
870.069060105081
 31
0.0
  0
LINE
  5
51BA
330
1F
100
AcDbEntity
  8
AM_VIS
100
AcDbLine
 10
2167.669823376289
 20
885.0690601050811
 30
0.0
 11
2233.669823376289
 21
885.0690601050811
 31
0.0
  0
LINE
  5
51BB
330
1F
100
AcDbEntity
  8
AM_VIS
100
AcDbLine
 10
2167.669823376289
 20
853.5690601050809
 30
0.0
 11
2233.669823376289
 21
853.5690601050809
 31
0.0
  0
LINE
  5
51BC
330
1F
100
AcDbEntity
  8
AM_VIS
100
AcDbLine
 10
2167.669823376289
 20
853.5690601050809
 30
0.0
 11
2167.669823376289
 21
904.5690601050809
 31
0.0
  0
LINE
  5
51BD
330
1F
100
AcDbEntity
  8
AM_VIS
100
AcDbLine
 10
2167.669823376289
 20
904.5690601050809
 30
0.0
 11
2233.669823376289
 21
904.5690601050809
 31
0.0
  0
LINE
  5
51BE
330
1F
100
AcDbEntity
  8
AM_VIS
100
AcDbLine
 10
2233.669823376289
 20
853.5690601050809
 30
0.0
 11
2233.669823376289
 21
904.5690601050809
 31
0.0
  0
LINE
  5
51BF
330
1F
100
AcDbEntity
  8
AM_VIS
100
AcDbLine
 10
2167.669823376289
 20
886.5690601050811
 30
0.0
 11
2233.669823376289
 21
886.5690601050811
 31
0.0
  0
LINE
  5
51C0
330
1F
100
AcDbEntity
  8
AM_VIS
100
AcDbLine
 10
2265.669823376289
 20
1171.937542774168
 30
0.0
 11
2279.669823376289
 21
1171.937542774168
 31
0.0
  0
LINE
  5
51C1
330
1F
100
AcDbEntity
  8
AM_VIS
100
AcDbLine
 10
2265.669823376289
 20
1120.937542774168
 30
0.0
 11
2279.669823376289
 21
1120.937542774168
 31
0.0
  0
LINE
  5
51C2
330
1F
100
AcDbEntity
  8
AM_VIS
100
AcDbLine
 10
2279.669823376289
 20
1120.937542774168
 30
0.0
 11
2279.669823376289
 21
1171.937542774168
 31
0.0
  0
LINE
  5
51C3
330
1F
100
AcDbEntity
  8
AM_VIS
100
AcDbLine
 10
2265.669823376289
 20
1171.937542774168
 30
0.0
 11
2265.669823376289
 21
1120.937542774168
 31
0.0
  0
LINE
  5
51C4
330
1F
100
AcDbEntity
  8
AM_VIS
100
AcDbLine
 10
2165.669823376289
 20
1171.937542774168
 30
0.0
 11
2151.669823376289
 21
1171.937542774168
 31
0.0
  0
LINE
  5
51C5
330
1F
100
AcDbEntity
  8
AM_VIS
100
AcDbLine
 10
2165.669823376289
 20
1120.937542774168
 30
0.0
 11
2165.669823376289
 21
1171.937542774168
 31
0.0
  0
LINE
  5
51C6
330
1F
100
AcDbEntity
  8
AM_VIS
100
AcDbLine
 10
2165.669823376289
 20
1120.937542774168
 30
0.0
 11
2151.669823376289
 21
1120.937542774168
 31
0.0
  0
LINE
  5
51C7
330
1F
100
AcDbEntity
  8
AM_VIS
100
AcDbLine
 10
2151.669823376289
 20
1171.937542774168
 30
0.0
 11
2151.669823376289
 21
1120.937542774168
 31
0.0
  0
LINE
  5
51C8
330
1F
100
AcDbEntity
  8
AM_VIS
100
AcDbLine
 10
2233.669823376289
 20
1140.937542774168
 30
0.0
 11
2167.669823376289
 21
1140.937542774168
 31
0.0
  0
LINE
  5
51C9
330
1F
100
AcDbEntity
  8
AM_VIS
100
AcDbLine
 10
2167.669823376289
 20
1142.437542774168
 30
0.0
 11
2233.669823376289
 21
1142.437542774168
 31
0.0
  0
LINE
  5
51CA
330
1F
100
AcDbEntity
  8
AM_VIS
100
AcDbLine
 10
2167.669823376289
 20
1157.437542774168
 30
0.0
 11
2233.669823376289
 21
1157.437542774168
 31
0.0
  0
LINE
  5
51CB
330
1F
100
AcDbEntity
  8
AM_VIS
100
AcDbLine
 10
2167.669823376289
 20
1158.937542774168
 30
0.0
 11
2233.669823376289
 21
1158.937542774168
 31
0.0
  0
LINE
  5
51CC
330
1F
100
AcDbEntity
  8
AM_VIS
100
AcDbLine
 10
2167.669823376289
 20
1122.937542774168
 30
0.0
 11
2167.669823376289
 21
1173.937542774168
 31
0.0
  0
LINE
  5
51CD
330
1F
100
AcDbEntity
  8
AM_VIS
100
AcDbLine
 10
2233.669823376289
 20
1122.937542774168
 30
0.0
 11
2233.669823376289
 21
1173.937542774168
 31
0.0
  0
LINE
  5
51CE
330
1F
100
AcDbEntity
  8
AM_VIS
100
AcDbLine
 10
2167.669823376289
 20
1122.937542774168
 30
0.0
 11
2233.669823376289
 21
1122.937542774168
 31
0.0
  0
LINE
  5
51CF
330
1F
100
AcDbEntity
  8
AM_VIS
100
AcDbLine
 10
2233.669823376289
 20
1173.937542774168
 30
0.0
 11
2167.669823376289
 21
1173.937542774168
 31
0.0
  0
LINE
  5
51D0
330
1F
100
AcDbEntity
  8
AM_VIS
100
AcDbLine
 10
2265.669823376289
 20
1210.927703905425
 30
0.0
 11
2279.669823376289
 21
1210.927703905425
 31
0.0
  0
LINE
  5
51D1
330
1F
100
AcDbEntity
  8
AM_VIS
100
AcDbLine
 10
2279.669823376289
 20
1210.927703905425
 30
0.0
 11
2279.669823376289
 21
1326.927703905425
 31
0.0
  0
LINE
  5
51D2
330
1F
100
AcDbEntity
  8
AM_VIS
100
AcDbLine
 10
2265.669823376289
 20
1326.927703905425
 30
0.0
 11
2265.669823376289
 21
1210.927703905425
 31
0.0
  0
LINE
  5
51D3
330
1F
100
AcDbEntity
  8
AM_VIS
100
AcDbLine
 10
2265.669823376289
 20
1326.927703905425
 30
0.0
 11
2279.669823376289
 21
1326.927703905425
 31
0.0
  0
CIRCLE
  5
51D4
330
1F
100
AcDbEntity
  8
AM_VIS
100
AcDbCircle
 10
2272.669823376289
 20
1296.927703905425
 30
0.0
 40
5.5
  0
CIRCLE
  5
51D5
330
1F
100
AcDbEntity
  8
AM_VIS
100
AcDbCircle
 10
2272.669823376289
 20
1296.927703905425
 30
0.0
 40
3.299999999999999
  0
CIRCLE
  5
51D6
330
1F
100
AcDbEntity
  8
AM_VIS
100
AcDbCircle
 10
2272.669823376289
 20
1240.927703905425
 30
0.0
 40
5.5
  0
CIRCLE
  5
51D7
330
1F
100
AcDbEntity
  8
AM_VIS
100
AcDbCircle
 10
2272.669823376289
 20
1240.927703905425
 30
0.0
 40
3.299999999999999
  0
LINE
  5
51D8
330
1F
100
AcDbEntity
  8
AM_VIS
100
AcDbLine
 10
2165.669823376289
 20
1326.927703905425
 30
0.0
 11
2151.669823376289
 21
1326.927703905425
 31
0.0
  0
LINE
  5
51D9
330
1F
100
AcDbEntity
  8
AM_VIS
100
AcDbLine
 10
2151.669823376289
 20
1326.927703905425
 30
0.0
 11
2151.669823376289
 21
1210.927703905425
 31
0.0
  0
LINE
  5
51DA
330
1F
100
AcDbEntity
  8
AM_VIS
100
AcDbLine
 10
2165.669823376289
 20
1210.927703905425
 30
0.0
 11
2165.669823376289
 21
1326.927703905425
 31
0.0
  0
LINE
  5
51DB
330
1F
100
AcDbEntity
  8
AM_VIS
100
AcDbLine
 10
2165.669823376289
 20
1210.927703905425
 30
0.0
 11
2151.669823376289
 21
1210.927703905425
 31
0.0
  0
CIRCLE
  5
51DC
330
1F
100
AcDbEntity
  8
AM_VIS
100
AcDbCircle
 10
2158.669823376289
 20
1240.927703905425
 30
0.0
 40
5.5
  0
CIRCLE
  5
51DD
330
1F
100
AcDbEntity
  8
AM_VIS
100
AcDbCircle
 10
2158.669823376289
 20
1240.927703905425
 30
0.0
 40
3.299999999999999
  0
CIRCLE
  5
51DE
330
1F
100
AcDbEntity
  8
AM_VIS
100
AcDbCircle
 10
2158.669823376289
 20
1296.927703905425
 30
0.0
 40
5.5
  0
CIRCLE
  5
51DF
330
1F
100
AcDbEntity
  8
AM_VIS
100
AcDbCircle
 10
2158.669823376289
 20
1296.927703905425
 30
0.0
 40
3.299999999999999
  0
LINE
  5
51E0
330
1F
100
AcDbEntity
  8
AM_VIS
100
AcDbLine
 10
2233.669823376289
 20
1260.927703905425
 30
0.0
 11
2265.669823376289
 21
1260.927703905425
 31
0.0
  0
LINE
  5
51E1
330
1F
100
AcDbEntity
  8
AM_VIS
100
AcDbLine
 10
2233.669823376289
 20
1276.927703905425
 30
0.0
 11
2265.669823376289
 21
1276.927703905425
 31
0.0
  0
LINE
  5
51E2
330
1F
100
AcDbEntity
  8
AM_VIS
100
AcDbLine
 10
2167.669823376289
 20
1276.927703905425
 30
0.0
 11
2165.669823376289
 21
1276.927703905425
 31
0.0
  0
LINE
  5
51E3
330
1F
100
AcDbEntity
  8
AM_VIS
100
AcDbLine
 10
2167.669823376289
 20
1260.927703905425
 30
0.0
 11
2165.669823376289
 21
1260.927703905425
 31
0.0
  0
LINE
  5
51E4
330
1F
100
AcDbEntity
  8
AM_VIS
100
AcDbLine
 10
2167.669823376289
 20
1232.727703905425
 30
0.0
 11
2233.669823376289
 21
1232.727703905425
 31
0.0
  0
LINE
  5
51E5
330
1F
100
AcDbEntity
  8
AM_VIS
100
AcDbLine
 10
2167.669823376289
 20
1224.927703905425
 30
0.0
 11
2233.669823376289
 21
1224.927703905425
 31
0.0
  0
LINE
  5
51E6
330
1F
100
AcDbEntity
  8
AM_VIS
100
AcDbLine
 10
2167.669823376289
 20
1300.927703905425
 30
0.0
 11
2233.669823376289
 21
1300.927703905425
 31
0.0
  0
LINE
  5
51E7
330
1F
100
AcDbEntity
  8
AM_VIS
100
AcDbLine
 10
2167.669823376289
 20
1305.127703905425
 30
0.0
 11
2233.669823376289
 21
1305.127703905425
 31
0.0
  0
LINE
  5
51E8
330
1F
100
AcDbEntity
  8
AM_VIS
100
AcDbLine
 10
2167.669823376289
 20
1257.027703905425
 30
0.0
 11
2233.669823376289
 21
1257.027703905425
 31
0.0
  0
LINE
  5
51E9
330
1F
100
AcDbEntity
  8
AM_VIS
100
AcDbLine
 10
2233.669823376289
 20
1260.727703905425
 30
0.0
 11
2167.669823376289
 21
1260.727703905425
 31
0.0
  0
LINE
  5
51EA
330
1F
100
AcDbEntity
  8
AM_VIS
100
AcDbLine
 10
2167.669823376289
 20
1264.127703905425
 30
0.0
 11
2233.669823376289
 21
1264.127703905425
 31
0.0
  0
LINE
  5
51EB
330
1F
100
AcDbEntity
  8
AM_VIS
100
AcDbLine
 10
2167.669823376289
 20
1277.127703905425
 30
0.0
 11
2233.669823376289
 21
1277.127703905425
 31
0.0
  0
LINE
  5
51EC
330
1F
100
AcDbEntity
  8
AM_VIS
100
AcDbLine
 10
2233.669823376289
 20
1273.727703905425
 30
0.0
 11
2167.669823376289
 21
1273.727703905425
 31
0.0
  0
LINE
  5
51ED
330
1F
100
AcDbEntity
  8
AM_VIS
100
AcDbLine
 10
2167.669823376289
 20
1280.827703905425
 30
0.0
 11
2233.669823376289
 21
1280.827703905425
 31
0.0
  0
LINE
  5
51EE
330
1F
100
AcDbEntity
  8
AM_VIS
100
AcDbLine
 10
2167.669823376289
 20
1236.927703905425
 30
0.0
 11
2233.669823376289
 21
1236.927703905425
 31
0.0
  0
LINE
  5
51EF
330
1F
100
AcDbEntity
  8
AM_VIS
100
AcDbLine
 10
2167.669823376289
 20
1312.927703905425
 30
0.0
 11
2233.669823376289
 21
1312.927703905425
 31
0.0
  0
LINE
  5
51F0
330
1F
100
AcDbEntity
  8
AM_VIS
100
AcDbLine
 10
2233.669823376289
 20
1283.627703905425
 30
0.0
 11
2167.669823376289
 21
1283.627703905425
 31
0.0
  0
LINE
  5
51F1
330
1F
100
AcDbEntity
  8
AM_VIS
100
AcDbLine
 10
2167.669823376289
 20
1296.227703905425
 30
0.0
 11
2233.669823376289
 21
1296.227703905425
 31
0.0
  0
LINE
  5
51F2
330
1F
100
AcDbEntity
  8
AM_VIS
100
AcDbLine
 10
2233.669823376289
 20
1241.627703905425
 30
0.0
 11
2167.669823376289
 21
1241.627703905425
 31
0.0
  0
LINE
  5
51F3
330
1F
100
AcDbEntity
  8
AM_VIS
100
AcDbLine
 10
2167.669823376289
 20
1254.227703905425
 30
0.0
 11
2233.669823376289
 21
1254.227703905425
 31
0.0
  0
LINE
  5
51F4
330
1F
100
AcDbEntity
  8
AM_VIS
100
AcDbLine
 10
2233.669823376289
 20
1210.927703905425
 30
0.0
 11
2167.669823376289
 21
1210.927703905425
 31
0.0
  0
LINE
  5
51F5
330
1F
100
AcDbEntity
  8
AM_VIS
100
AcDbLine
 10
2167.669823376289
 20
1224.427703905425
 30
0.0
 11
2233.669823376289
 21
1224.427703905425
 31
0.0
  0
LINE
  5
51F6
330
1F
100
AcDbEntity
  8
AM_VIS
100
AcDbLine
 10
2233.669823376289
 20
1313.427703905425
 30
0.0
 11
2167.669823376289
 21
1313.427703905425
 31
0.0
  0
LINE
  5
51F7
330
1F
100
AcDbEntity
  8
AM_VIS
100
AcDbLine
 10
2167.669823376289
 20
1210.927703905425
 30
0.0
 11
2167.669823376289
 21
1326.927703905425
 31
0.0
  0
LINE
  5
51F8
330
1F
100
AcDbEntity
  8
AM_VIS
100
AcDbLine
 10
2167.669823376289
 20
1326.927703905425
 30
0.0
 11
2233.669823376289
 21
1326.927703905425
 31
0.0
  0
LINE
  5
51F9
330
1F
100
AcDbEntity
  8
AM_VIS
100
AcDbLine
 10
2233.669823376289
 20
1326.927703905425
 30
0.0
 11
2233.669823376288
 21
1210.927703905425
 31
0.0
  0
LINE
  5
51FA
330
1F
100
AcDbEntity
  8
AM_VIS
100
AcDbLine
 10
2199.669823376289
 20
1222.927703905425
 30
0.0
 11
2201.669823376289
 21
1222.927703905425
 31
0.0
  0
LINE
  5
51FB
330
1F
100
AcDbEntity
  8
AM_VIS
100
AcDbLine
 10
2201.669823376289
 20
1214.927703905425
 30
0.0
 11
2199.669823376289
 21
1214.927703905425
 31
0.0
  0
CIRCLE
  5
51FC
330
1F
100
AcDbEntity
  8
AM_VIS
100
AcDbCircle
 10
2213.669823376289
 20
1289.927703905425
 30
0.0
 40
3.399999999999999
  0
CIRCLE
  5
51FD
330
1F
100
AcDbEntity
  8
AM_VIS
100
AcDbCircle
 10
2187.669823376289
 20
1289.927703905425
 30
0.0
 40
3.399999999999999
  0
CIRCLE
  5
51FE
330
1F
100
AcDbEntity
  8
AM_VIS
100
AcDbCircle
 10
2213.669823376289
 20
1247.927703905425
 30
0.0
 40
3.399999999999999
  0
CIRCLE
  5
51FF
330
1F
100
AcDbEntity
  8
AM_VIS
100
AcDbCircle
 10
2187.669823376289
 20
1247.927703905425
 30
0.0
 40
3.399999999999999
  0
CIRCLE
  5
5200
330
1F
100
AcDbEntity
  8
AM_VIS
100
AcDbCircle
 10
2200.669823376289
 20
1318.927703905425
 30
0.0
 40
4.0
  0
ARC
  5
5201
330
1F
100
AcDbEntity
  8
AM_VIS
100
AcDbCircle
 10
2201.669823376289
 20
1218.927703905425
 30
0.0
 40
4.0
100
AcDbArc
 50
270.0
 51
90.0
  0
ARC
  5
5202
330
1F
100
AcDbEntity
  8
AM_VIS
100
AcDbCircle
 10
2199.669823376289
 20
1218.927703905425
 30
0.0
 40
3.999999999999985
100
AcDbArc
 50
90.0
 51
270.0
  0
ARC
  5
5203
330
1F
100
AcDbEntity
  8
AM_VIS
100
AcDbCircle
 10
2200.669823376289
 20
1218.927703905425
 30
0.0
 40
4.0
100
AcDbArc
 50
270.0
 51
90.0
  0
ARC
  5
5204
330
1F
100
AcDbEntity
  8
AM_VIS
100
AcDbCircle
 10
2200.669823376289
 20
1218.927703905425
 30
0.0
 40
4.0
100
AcDbArc
 50
90.0
 51
270.0
  0
LINE
  5
520D
330
1F
100
AcDbEntity
  8
AM_7
100
AcDbLine
 10
2149.669823376289
 20
1021.907530246744
 30
0.0
 11
2281.669823376289
 21
1021.907530246744
 31
0.0
1001
GENIUS_GENODEF_13
1002
{
1000
HIER
1070
     0
1002
}
1002
{
1000
MANEDIT
1070
     0
1002
}
1002
{
1000
NOSEL
1070
     0
1002
}
1002
{
1000
BEHIND
1070
     0
1002
}
1002
{
1000
OTHER
1070
     0
1002
}
1002
{
1000
REACTOR
1002
}
1001
GENIUS_GENOBJ-N-CEN_13
1002
{
1000
OWNER
1000
GEN
1002
}
1001
GENIUS_GENCEN_19
1002
{
1040
2.0
1002
}
  0
LINE
  5
5216
330
1F
100
AcDbEntity
  8
AM_7
100
AcDbLine
 10
2163.669823376289
 20
1061.907530246744
 30
0.0
 11
2169.669823376289
 21
1061.907530246744
 31
0.0
1001
GENIUS_GENODEF_13
1002
{
1000
HIER
1070
     0
1002
}
1002
{
1000
MANEDIT
1070
     0
1002
}
1002
{
1000
NOSEL
1070
     0
1002
}
1002
{
1000
BEHIND
1070
     0
1002
}
1002
{
1000
OTHER
1070
     0
1002
}
1002
{
1000
REACTOR
1002
}
1001
GENIUS_GENOBJ-N-CEN_13
1002
{
1000
OWNER
1000
GEN
1002
}
1001
GENIUS_GENCEN_19
1002
{
1040
2.0
1002
}
  0
LINE
  5
5217
330
1F
100
AcDbEntity
  8
AM_7
100
AcDbLine
 10
2231.669823376289
 20
1061.907530246744
 30
0.0
 11
2267.669823376289
 21
1061.907530246744
 31
0.0
1001
GENIUS_GENODEF_13
1002
{
1000
HIER
1070
     0
1002
}
1002
{
1000
MANEDIT
1070
     0
1002
}
1002
{
1000
NOSEL
1070
     0
1002
}
1002
{
1000
BEHIND
1070
     0
1002
}
1002
{
1000
OTHER
1070
     0
1002
}
1002
{
1000
REACTOR
1002
}
1001
GENIUS_GENOBJ-N-CEN_13
1002
{
1000
OWNER
1000
GEN
1002
}
1001
GENIUS_GENCEN_19
1002
{
1040
2.0
1002
}
  0
LINE
  5
5218
330
1F
100
AcDbEntity
  8
AM_7
100
AcDbLine
 10
2163.669823376289
 20
981.9075302467441
 30
0.0
 11
2169.669823376289
 21
981.9075302467441
 31
0.0
1001
GENIUS_GENOBJ-N-CEN_13
1002
{
1000
OWNER
1000
GEN
1002
}
1001
GENIUS_GENODEF_13
1002
{
1000
HIER
1070
     0
1002
}
1002
{
1000
MANEDIT
1070
     0
1002
}
1002
{
1000
NOSEL
1070
     0
1002
}
1002
{
1000
BEHIND
1070
     0
1002
}
1002
{
1000
OTHER
1070
     0
1002
}
1002
{
1000
REACTOR
1002
}
1001
GENIUS_GENCEN_19
1002
{
1040
2.0
1002
}
  0
LINE
  5
5219
330
1F
100
AcDbEntity
  8
AM_7
100
AcDbLine
 10
2231.669823376289
 20
981.9075302467441
 30
0.0
 11
2267.669823376289
 21
981.9075302467441
 31
0.0
1001
GENIUS_GENOBJ-N-CEN_13
1002
{
1000
OWNER
1000
GEN
1002
}
1001
GENIUS_GENODEF_13
1002
{
1000
HIER
1070
     0
1002
}
1002
{
1000
MANEDIT
1070
     0
1002
}
1002
{
1000
NOSEL
1070
     0
1002
}
1002
{
1000
BEHIND
1070
     0
1002
}
1002
{
1000
OTHER
1070
     0
1002
}
1002
{
1000
REACTOR
1002
}
1001
GENIUS_GENCEN_19
1002
{
1040
2.0
1002
}
  0
LINE
  5
521A
330
1F
100
AcDbEntity
  8
AM_7
100
AcDbLine
 10
2149.669823376289
 20
879.5690601050809
 30
0.0
 11
2281.669823376289
 21
879.5690601050809
 31
0.0
1001
GENIUS_GENODEF_13
1002
{
1000
HIER
1070
     0
1002
}
1002
{
1000
MANEDIT
1070
     0
1002
}
1002
{
1000
NOSEL
1070
     0
1002
}
1002
{
1000
BEHIND
1070
     0
1002
}
1002
{
1000
OTHER
1070
     0
1002
}
1002
{
1000
REACTOR
1002
}
1001
GENIUS_GENOBJ-N-CEN_13
1002
{
1000
OWNER
1000
GEN
1002
}
1001
GENIUS_GENCEN_19
1002
{
1040
2.0
1002
}
  0
LINE
  5
521B
330
1F
100
AcDbEntity
  8
AM_7
100
AcDbLine
 10
2149.669823376289
 20
1147.937542774168
 30
0.0
 11
2281.669823376289
 21
1147.937542774168
 31
0.0
1001
GENIUS_GENODEF_13
1002
{
1000
HIER
1070
     0
1002
}
1002
{
1000
MANEDIT
1070
     0
1002
}
1002
{
1000
NOSEL
1070
     0
1002
}
1002
{
1000
BEHIND
1070
     0
1002
}
1002
{
1000
OTHER
1070
     0
1002
}
1002
{
1000
REACTOR
1002
}
1001
GENIUS_GENOBJ-N-CEN_13
1002
{
1000
OWNER
1000
GEN
1002
}
1001
GENIUS_GENCEN_19
1002
{
1040
2.0
1002
}
  0
LINE
  5
5220
330
1F
100
AcDbEntity
  8
AM_7
100
AcDbLine
 10
2149.669823376289
 20
1268.927703905425
 30
0.0
 11
2281.669823376289
 21
1268.927703905425
 31
0.0
1001
GENIUS_GENODEF_13
1002
{
1000
HIER
1070
     0
1002
}
1002
{
1000
MANEDIT
1070
     0
1002
}
1002
{
1000
NOSEL
1070
     0
1002
}
1002
{
1000
BEHIND
1070
     0
1002
}
1002
{
1000
OTHER
1070
     0
1002
}
1002
{
1000
REACTOR
1002
}
1001
GENIUS_GENOBJ-N-CEN_13
1002
{
1000
OWNER
1000
GEN
1002
}
1001
GENIUS_GENCEN_19
1002
{
1040
2.0
1002
}
  0
LINE
  5
5221
330
1F
100
AcDbEntity
  8
AM_7
100
AcDbLine
 10
2163.669823376289
 20
1308.927703905425
 30
0.0
 11
2169.669823376289
 21
1308.927703905425
 31
0.0
1001
GENIUS_GENODEF_13
1002
{
1000
HIER
1070
     0
1002
}
1002
{
1000
MANEDIT
1070
     0
1002
}
1002
{
1000
NOSEL
1070
     0
1002
}
1002
{
1000
BEHIND
1070
     0
1002
}
1002
{
1000
OTHER
1070
     0
1002
}
1002
{
1000
REACTOR
1002
}
1001
GENIUS_GENOBJ-N-CEN_13
1002
{
1000
OWNER
1000
GEN
1002
}
1001
GENIUS_GENCEN_19
1002
{
1040
2.0
1002
}
  0
LINE
  5
5222
330
1F
100
AcDbEntity
  8
AM_7
100
AcDbLine
 10
2231.669823376289
 20
1308.927703905425
 30
0.0
 11
2267.669823376289
 21
1308.927703905425
 31
0.0
1001
GENIUS_GENODEF_13
1002
{
1000
HIER
1070
     0
1002
}
1002
{
1000
MANEDIT
1070
     0
1002
}
1002
{
1000
NOSEL
1070
     0
1002
}
1002
{
1000
BEHIND
1070
     0
1002
}
1002
{
1000
OTHER
1070
     0
1002
}
1002
{
1000
REACTOR
1002
}
1001
GENIUS_GENOBJ-N-CEN_13
1002
{
1000
OWNER
1000
GEN
1002
}
1001
GENIUS_GENCEN_19
1002
{
1040
2.0
1002
}
  0
LINE
  5
5223
330
1F
100
AcDbEntity
  8
AM_7
100
AcDbLine
 10
2163.669823376289
 20
1228.927703905425
 30
0.0
 11
2169.669823376289
 21
1228.927703905425
 31
0.0
1001
GENIUS_GENOBJ-N-CEN_13
1002
{
1000
OWNER
1000
GEN
1002
}
1001
GENIUS_GENODEF_13
1002
{
1000
HIER
1070
     0
1002
}
1002
{
1000
MANEDIT
1070
     0
1002
}
1002
{
1000
NOSEL
1070
     0
1002
}
1002
{
1000
BEHIND
1070
     0
1002
}
1002
{
1000
OTHER
1070
     0
1002
}
1002
{
1000
REACTOR
1002
}
1001
GENIUS_GENCEN_19
1002
{
1040
2.0
1002
}
  0
LINE
  5
5224
330
1F
100
AcDbEntity
  8
AM_7
100
AcDbLine
 10
2231.669823376289
 20
1228.927703905425
 30
0.0
 11
2267.669823376289
 21
1228.927703905425
 31
0.0
1001
GENIUS_GENOBJ-N-CEN_13
1002
{
1000
OWNER
1000
GEN
1002
}
1001
GENIUS_GENODEF_13
1002
{
1000
HIER
1070
     0
1002
}
1002
{
1000
MANEDIT
1070
     0
1002
}
1002
{
1000
NOSEL
1070
     0
1002
}
1002
{
1000
BEHIND
1070
     0
1002
}
1002
{
1000
OTHER
1070
     0
1002
}
1002
{
1000
REACTOR
1002
}
1001
GENIUS_GENCEN_19
1002
{
1040
2.0
1002
}
  0
LINE
  5
5225
330
1F
100
AcDbEntity
  8
AM_7
  6
AM_ISO08W050x2
100
AcDbLine
 10
2272.669823376289
 20
983.907530246744
 30
0.0
 11
2278.669823376289
 21
983.907530246744
 31
0.0
1001
GENIUS_GENOREF_13
1005
52CB
  0
LINE
  5
5226
330
1F
100
AcDbEntity
  8
AM_7
  6
AM_ISO08W050x2
100
AcDbLine
 10
2272.669823376289
 20
983.907530246744
 30
0.0
 11
2272.669823376289
 21
989.9075302467441
 31
0.0
1001
GENIUS_GENOREF_13
1005
52CB
  0
LINE
  5
5227
330
1F
100
AcDbEntity
  8
AM_7
  6
AM_ISO08W050x2
100
AcDbLine
 10
2272.669823376289
 20
983.907530246744
 30
0.0
 11
2266.669823376289
 21
983.907530246744
 31
0.0
1001
GENIUS_GENOREF_13
1005
52CB
  0
LINE
  5
5228
330
1F
100
AcDbEntity
  8
AM_7
  6
AM_ISO08W050x2
100
AcDbLine
 10
2272.669823376289
 20
983.907530246744
 30
0.0
 11
2272.669823376289
 21
977.907530246744
 31
0.0
1001
GENIUS_GENOREF_13
1005
52CB
  0
LINE
  5
5229
330
1F
100
AcDbEntity
  8
AM_7
  6
AM_ISO08W050x2
100
AcDbLine
 10
2272.669823376289
 20
993.907530246744
 30
0.0
 11
2277.969823376289
 21
993.907530246744
 31
0.0
1001
GENIUS_GENOREF_13
1005
52DC
  0
LINE
  5
522A
330
1F
100
AcDbEntity
  8
AM_7
  6
AM_ISO08W050x2
100
AcDbLine
 10
2272.669823376289
 20
993.907530246744
 30
0.0
 11
2272.669823376289
 21
999.2075302467442
 31
0.0
1001
GENIUS_GENOREF_13
1005
52DC
  0
LINE
  5
522B
330
1F
100
AcDbEntity
  8
AM_7
  6
AM_ISO08W050x2
100
AcDbLine
 10
2272.669823376289
 20
993.907530246744
 30
0.0
 11
2267.369823376289
 21
993.907530246744
 31
0.0
1001
GENIUS_GENOREF_13
1005
52DC
  0
LINE
  5
522C
330
1F
100
AcDbEntity
  8
AM_7
  6
AM_ISO08W050x2
100
AcDbLine
 10
2272.669823376289
 20
993.907530246744
 30
0.0
 11
2272.669823376289
 21
988.6075302467439
 31
0.0
1001
GENIUS_GENOREF_13
1005
52DC
  0
LINE
  5
522D
330
1F
100
AcDbEntity
  8
AM_7
  6
AM_ISO08W050x2
100
AcDbLine
 10
2272.669823376289
 20
1049.907530246744
 30
0.0
 11
2277.969823376289
 21
1049.907530246744
 31
0.0
1001
GENIUS_GENOREF_13
1005
52DB
  0
LINE
  5
522E
330
1F
100
AcDbEntity
  8
AM_7
  6
AM_ISO08W050x2
100
AcDbLine
 10
2272.669823376289
 20
1049.907530246744
 30
0.0
 11
2272.669823376289
 21
1055.207530246744
 31
0.0
1001
GENIUS_GENOREF_13
1005
52DB
  0
LINE
  5
522F
330
1F
100
AcDbEntity
  8
AM_7
  6
AM_ISO08W050x2
100
AcDbLine
 10
2272.669823376289
 20
1049.907530246744
 30
0.0
 11
2267.369823376289
 21
1049.907530246744
 31
0.0
1001
GENIUS_GENOREF_13
1005
52DB
  0
LINE
  5
5230
330
1F
100
AcDbEntity
  8
AM_7
  6
AM_ISO08W050x2
100
AcDbLine
 10
2272.669823376289
 20
1049.907530246744
 30
0.0
 11
2272.669823376289
 21
1044.607530246744
 31
0.0
1001
GENIUS_GENOREF_13
1005
52DB
  0
LINE
  5
5231
330
1F
100
AcDbEntity
  8
AM_7
  6
AM_ISO08W050x2
100
AcDbLine
 10
2272.669823376289
 20
1059.907530246744
 30
0.0
 11
2278.669823376289
 21
1059.907530246744
 31
0.0
1001
GENIUS_GENOREF_13
1005
52DA
  0
LINE
  5
5232
330
1F
100
AcDbEntity
  8
AM_7
  6
AM_ISO08W050x2
100
AcDbLine
 10
2272.669823376289
 20
1059.907530246744
 30
0.0
 11
2272.669823376289
 21
1065.907530246744
 31
0.0
1001
GENIUS_GENOREF_13
1005
52DA
  0
LINE
  5
5233
330
1F
100
AcDbEntity
  8
AM_7
  6
AM_ISO08W050x2
100
AcDbLine
 10
2272.669823376289
 20
1059.907530246744
 30
0.0
 11
2266.669823376289
 21
1059.907530246744
 31
0.0
1001
GENIUS_GENOREF_13
1005
52DA
  0
LINE
  5
5234
330
1F
100
AcDbEntity
  8
AM_7
  6
AM_ISO08W050x2
100
AcDbLine
 10
2272.669823376289
 20
1059.907530246744
 30
0.0
 11
2272.669823376289
 21
1053.907530246744
 31
0.0
1001
GENIUS_GENOREF_13
1005
52DA
  0
LINE
  5
5235
330
1F
100
AcDbEntity
  8
AM_7
  6
AM_ISO08W050x2
100
AcDbLine
 10
2158.669823376289
 20
1059.907530246744
 30
0.0
 11
2164.669823376289
 21
1059.907530246744
 31
0.0
1001
GENIUS_GENOREF_13
1005
52D9
  0
LINE
  5
5236
330
1F
100
AcDbEntity
  8
AM_7
  6
AM_ISO08W050x2
100
AcDbLine
 10
2158.669823376289
 20
1059.907530246744
 30
0.0
 11
2158.669823376289
 21
1065.907530246744
 31
0.0
1001
GENIUS_GENOREF_13
1005
52D9
  0
LINE
  5
5237
330
1F
100
AcDbEntity
  8
AM_7
  6
AM_ISO08W050x2
100
AcDbLine
 10
2158.669823376289
 20
1059.907530246744
 30
0.0
 11
2152.669823376289
 21
1059.907530246744
 31
0.0
1001
GENIUS_GENOREF_13
1005
52D9
  0
LINE
  5
5238
330
1F
100
AcDbEntity
  8
AM_7
  6
AM_ISO08W050x2
100
AcDbLine
 10
2158.669823376289
 20
1059.907530246744
 30
0.0
 11
2158.669823376289
 21
1053.907530246744
 31
0.0
1001
GENIUS_GENOREF_13
1005
52D9
  0
LINE
  5
5239
330
1F
100
AcDbEntity
  8
AM_7
  6
AM_ISO08W050x2
100
AcDbLine
 10
2158.669823376289
 20
1049.907530246744
 30
0.0
 11
2163.969823376289
 21
1049.907530246744
 31
0.0
1001
GENIUS_GENOREF_13
1005
52D8
  0
LINE
  5
523A
330
1F
100
AcDbEntity
  8
AM_7
  6
AM_ISO08W050x2
100
AcDbLine
 10
2158.669823376289
 20
1049.907530246744
 30
0.0
 11
2158.669823376289
 21
1055.207530246744
 31
0.0
1001
GENIUS_GENOREF_13
1005
52D8
  0
LINE
  5
523B
330
1F
100
AcDbEntity
  8
AM_7
  6
AM_ISO08W050x2
100
AcDbLine
 10
2158.669823376289
 20
1049.907530246744
 30
0.0
 11
2153.369823376289
 21
1049.907530246744
 31
0.0
1001
GENIUS_GENOREF_13
1005
52D8
  0
LINE
  5
523C
330
1F
100
AcDbEntity
  8
AM_7
  6
AM_ISO08W050x2
100
AcDbLine
 10
2158.669823376289
 20
1049.907530246744
 30
0.0
 11
2158.669823376289
 21
1044.607530246744
 31
0.0
1001
GENIUS_GENOREF_13
1005
52D8
  0
LINE
  5
523D
330
1F
100
AcDbEntity
  8
AM_7
  6
AM_ISO08W050x2
100
AcDbLine
 10
2158.669823376289
 20
993.907530246744
 30
0.0
 11
2163.969823376289
 21
993.907530246744
 31
0.0
1001
GENIUS_GENOREF_13
1005
52D7
  0
LINE
  5
523E
330
1F
100
AcDbEntity
  8
AM_7
  6
AM_ISO08W050x2
100
AcDbLine
 10
2158.669823376289
 20
993.907530246744
 30
0.0
 11
2158.669823376289
 21
999.2075302467442
 31
0.0
1001
GENIUS_GENOREF_13
1005
52D7
  0
LINE
  5
523F
330
1F
100
AcDbEntity
  8
AM_7
  6
AM_ISO08W050x2
100
AcDbLine
 10
2158.669823376289
 20
993.907530246744
 30
0.0
 11
2153.369823376289
 21
993.907530246744
 31
0.0
1001
GENIUS_GENOREF_13
1005
52D7
  0
LINE
  5
5240
330
1F
100
AcDbEntity
  8
AM_7
  6
AM_ISO08W050x2
100
AcDbLine
 10
2158.669823376289
 20
993.907530246744
 30
0.0
 11
2158.669823376289
 21
988.6075302467439
 31
0.0
1001
GENIUS_GENOREF_13
1005
52D7
  0
LINE
  5
5241
330
1F
100
AcDbEntity
  8
AM_7
  6
AM_ISO08W050x2
100
AcDbLine
 10
2158.669823376289
 20
983.907530246744
 30
0.0
 11
2164.669823376289
 21
983.907530246744
 31
0.0
1001
GENIUS_GENOREF_13
1005
52D6
  0
LINE
  5
5242
330
1F
100
AcDbEntity
  8
AM_7
  6
AM_ISO08W050x2
100
AcDbLine
 10
2158.669823376289
 20
983.907530246744
 30
0.0
 11
2158.669823376289
 21
989.9075302467441
 31
0.0
1001
GENIUS_GENOREF_13
1005
52D6
  0
LINE
  5
5243
330
1F
100
AcDbEntity
  8
AM_7
  6
AM_ISO08W050x2
100
AcDbLine
 10
2158.669823376289
 20
983.907530246744
 30
0.0
 11
2152.669823376289
 21
983.907530246744
 31
0.0
1001
GENIUS_GENOREF_13
1005
52D6
  0
LINE
  5
5244
330
1F
100
AcDbEntity
  8
AM_7
  6
AM_ISO08W050x2
100
AcDbLine
 10
2158.669823376289
 20
983.907530246744
 30
0.0
 11
2158.669823376289
 21
977.907530246744
 31
0.0
1001
GENIUS_GENOREF_13
1005
52D6
  0
LINE
  5
5245
330
1F
100
AcDbEntity
  8
AM_7
  6
AM_ISO08W050x2
100
AcDbLine
 10
2187.669823376289
 20
1000.907530246744
 30
0.0
 11
2195.169823376289
 21
1000.907530246744
 31
0.0
1001
GENIUS_GENOREF_13
1005
52D5
  0
LINE
  5
5246
330
1F
100
AcDbEntity
  8
AM_7
  6
AM_ISO08W050x2
100
AcDbLine
 10
2187.669823376289
 20
1000.907530246744
 30
0.0
 11
2187.669823376289
 21
1008.407530246744
 31
0.0
1001
GENIUS_GENOREF_13
1005
52D5
  0
LINE
  5
5247
330
1F
100
AcDbEntity
  8
AM_7
  6
AM_ISO08W050x2
100
AcDbLine
 10
2187.669823376289
 20
1000.907530246744
 30
0.0
 11
2180.169823376289
 21
1000.907530246744
 31
0.0
1001
GENIUS_GENOREF_13
1005
52D5
  0
LINE
  5
5248
330
1F
100
AcDbEntity
  8
AM_7
  6
AM_ISO08W050x2
100
AcDbLine
 10
2187.669823376289
 20
1000.907530246744
 30
0.0
 11
2187.669823376289
 21
993.4075302467441
 31
0.0
1001
GENIUS_GENOREF_13
1005
52D5
  0
LINE
  5
5249
330
1F
100
AcDbEntity
  8
AM_7
  6
AM_ISO08W050x2
100
AcDbLine
 10
2213.669823376289
 20
1000.907530246744
 30
0.0
 11
2221.169823376289
 21
1000.907530246744
 31
0.0
1001
GENIUS_GENOREF_13
1005
52D4
  0
LINE
  5
524A
330
1F
100
AcDbEntity
  8
AM_7
  6
AM_ISO08W050x2
100
AcDbLine
 10
2213.669823376289
 20
1000.907530246744
 30
0.0
 11
2213.669823376289
 21
1008.407530246744
 31
0.0
1001
GENIUS_GENOREF_13
1005
52D4
  0
LINE
  5
524B
330
1F
100
AcDbEntity
  8
AM_7
  6
AM_ISO08W050x2
100
AcDbLine
 10
2213.669823376289
 20
1000.907530246744
 30
0.0
 11
2206.169823376289
 21
1000.907530246744
 31
0.0
1001
GENIUS_GENOREF_13
1005
52D4
  0
LINE
  5
524C
330
1F
100
AcDbEntity
  8
AM_7
  6
AM_ISO08W050x2
100
AcDbLine
 10
2213.669823376289
 20
1000.907530246744
 30
0.0
 11
2213.669823376289
 21
993.4075302467441
 31
0.0
1001
GENIUS_GENOREF_13
1005
52D4
  0
LINE
  5
524D
330
1F
100
AcDbEntity
  8
AM_7
  6
AM_ISO08W050x2
100
AcDbLine
 10
2213.669823376289
 20
1042.907530246744
 30
0.0
 11
2221.169823376289
 21
1042.907530246744
 31
0.0
1001
GENIUS_GENOREF_13
1005
52D3
  0
LINE
  5
524E
330
1F
100
AcDbEntity
  8
AM_7
  6
AM_ISO08W050x2
100
AcDbLine
 10
2213.669823376289
 20
1042.907530246744
 30
0.0
 11
2213.669823376289
 21
1050.407530246744
 31
0.0
1001
GENIUS_GENOREF_13
1005
52D3
  0
LINE
  5
524F
330
1F
100
AcDbEntity
  8
AM_7
  6
AM_ISO08W050x2
100
AcDbLine
 10
2213.669823376289
 20
1042.907530246744
 30
0.0
 11
2206.169823376289
 21
1042.907530246744
 31
0.0
1001
GENIUS_GENOREF_13
1005
52D3
  0
LINE
  5
5250
330
1F
100
AcDbEntity
  8
AM_7
  6
AM_ISO08W050x2
100
AcDbLine
 10
2213.669823376289
 20
1042.907530246744
 30
0.0
 11
2213.669823376289
 21
1035.407530246744
 31
0.0
1001
GENIUS_GENOREF_13
1005
52D3
  0
LINE
  5
5251
330
1F
100
AcDbEntity
  8
AM_7
  6
AM_ISO08W050x2
100
AcDbLine
 10
2187.669823376289
 20
1042.907530246744
 30
0.0
 11
2195.169823376289
 21
1042.907530246744
 31
0.0
1001
GENIUS_GENOREF_13
1005
52D2
  0
LINE
  5
5252
330
1F
100
AcDbEntity
  8
AM_7
  6
AM_ISO08W050x2
100
AcDbLine
 10
2187.669823376289
 20
1042.907530246744
 30
0.0
 11
2187.669823376289
 21
1050.407530246744
 31
0.0
1001
GENIUS_GENOREF_13
1005
52D2
  0
LINE
  5
5253
330
1F
100
AcDbEntity
  8
AM_7
  6
AM_ISO08W050x2
100
AcDbLine
 10
2187.669823376289
 20
1042.907530246744
 30
0.0
 11
2180.169823376289
 21
1042.907530246744
 31
0.0
1001
GENIUS_GENOREF_13
1005
52D2
  0
LINE
  5
5254
330
1F
100
AcDbEntity
  8
AM_7
  6
AM_ISO08W050x2
100
AcDbLine
 10
2187.669823376289
 20
1042.907530246744
 30
0.0
 11
2187.669823376289
 21
1035.407530246744
 31
0.0
1001
GENIUS_GENOREF_13
1005
52D2
  0
LINE
  5
5255
330
1F
100
AcDbEntity
  8
AM_7
  6
AM_ISO08W050x2
100
AcDbLine
 10
2272.669823376289
 20
1240.927703905425
 30
0.0
 11
2280.169823376289
 21
1240.927703905425
 31
0.0
1001
GENIUS_GENOREF_13
1005
52D1
  0
LINE
  5
5256
330
1F
100
AcDbEntity
  8
AM_7
  6
AM_ISO08W050x2
100
AcDbLine
 10
2272.669823376289
 20
1240.927703905425
 30
0.0
 11
2272.669823376289
 21
1248.427703905425
 31
0.0
1001
GENIUS_GENOREF_13
1005
52D1
  0
LINE
  5
5257
330
1F
100
AcDbEntity
  8
AM_7
  6
AM_ISO08W050x2
100
AcDbLine
 10
2272.669823376289
 20
1240.927703905425
 30
0.0
 11
2265.169823376289
 21
1240.927703905425
 31
0.0
1001
GENIUS_GENOREF_13
1005
52D1
  0
LINE
  5
5258
330
1F
100
AcDbEntity
  8
AM_7
  6
AM_ISO08W050x2
100
AcDbLine
 10
2272.669823376289
 20
1240.927703905425
 30
0.0
 11
2272.669823376289
 21
1233.427703905425
 31
0.0
1001
GENIUS_GENOREF_13
1005
52D1
  0
LINE
  5
5259
330
1F
100
AcDbEntity
  8
AM_7
  6
AM_ISO08W050x2
100
AcDbLine
 10
2272.669823376289
 20
1296.927703905425
 30
0.0
 11
2280.169823376289
 21
1296.927703905425
 31
0.0
1001
GENIUS_GENOREF_13
1005
52D0
  0
LINE
  5
525A
330
1F
100
AcDbEntity
  8
AM_7
  6
AM_ISO08W050x2
100
AcDbLine
 10
2272.669823376289
 20
1296.927703905425
 30
0.0
 11
2272.669823376289
 21
1304.427703905425
 31
0.0
1001
GENIUS_GENOREF_13
1005
52D0
  0
LINE
  5
525B
330
1F
100
AcDbEntity
  8
AM_7
  6
AM_ISO08W050x2
100
AcDbLine
 10
2272.669823376289
 20
1296.927703905425
 30
0.0
 11
2265.169823376289
 21
1296.927703905425
 31
0.0
1001
GENIUS_GENOREF_13
1005
52D0
  0
LINE
  5
525C
330
1F
100
AcDbEntity
  8
AM_7
  6
AM_ISO08W050x2
100
AcDbLine
 10
2272.669823376289
 20
1296.927703905425
 30
0.0
 11
2272.669823376289
 21
1289.427703905425
 31
0.0
1001
GENIUS_GENOREF_13
1005
52D0
  0
LINE
  5
525D
330
1F
100
AcDbEntity
  8
AM_7
  6
AM_ISO08W050x2
100
AcDbLine
 10
2158.669823376289
 20
1296.927703905425
 30
0.0
 11
2166.169823376289
 21
1296.927703905425
 31
0.0
1001
GENIUS_GENOREF_13
1005
52CF
  0
LINE
  5
525E
330
1F
100
AcDbEntity
  8
AM_7
  6
AM_ISO08W050x2
100
AcDbLine
 10
2158.669823376289
 20
1296.927703905425
 30
0.0
 11
2158.669823376289
 21
1304.427703905425
 31
0.0
1001
GENIUS_GENOREF_13
1005
52CF
  0
LINE
  5
525F
330
1F
100
AcDbEntity
  8
AM_7
  6
AM_ISO08W050x2
100
AcDbLine
 10
2158.669823376289
 20
1296.927703905425
 30
0.0
 11
2151.169823376289
 21
1296.927703905425
 31
0.0
1001
GENIUS_GENOREF_13
1005
52CF
  0
LINE
  5
5260
330
1F
100
AcDbEntity
  8
AM_7
  6
AM_ISO08W050x2
100
AcDbLine
 10
2158.669823376289
 20
1296.927703905425
 30
0.0
 11
2158.669823376289
 21
1289.427703905425
 31
0.0
1001
GENIUS_GENOREF_13
1005
52CF
  0
LINE
  5
5261
330
1F
100
AcDbEntity
  8
AM_7
  6
AM_ISO08W050x2
100
AcDbLine
 10
2158.669823376289
 20
1240.927703905425
 30
0.0
 11
2166.169823376289
 21
1240.927703905425
 31
0.0
1001
GENIUS_GENOREF_13
1005
52CE
  0
LINE
  5
5262
330
1F
100
AcDbEntity
  8
AM_7
  6
AM_ISO08W050x2
100
AcDbLine
 10
2158.669823376289
 20
1240.927703905425
 30
0.0
 11
2158.669823376289
 21
1248.427703905425
 31
0.0
1001
GENIUS_GENOREF_13
1005
52CE
  0
LINE
  5
5263
330
1F
100
AcDbEntity
  8
AM_7
  6
AM_ISO08W050x2
100
AcDbLine
 10
2158.669823376289
 20
1240.927703905425
 30
0.0
 11
2151.169823376289
 21
1240.927703905425
 31
0.0
1001
GENIUS_GENOREF_13
1005
52CE
  0
LINE
  5
5264
330
1F
100
AcDbEntity
  8
AM_7
  6
AM_ISO08W050x2
100
AcDbLine
 10
2158.669823376289
 20
1240.927703905425
 30
0.0
 11
2158.669823376289
 21
1233.427703905425
 31
0.0
1001
GENIUS_GENOREF_13
1005
52CE
  0
ARC
  5
5265
330
1F
100
AcDbEntity
  8
AM_4
100
AcDbCircle
 10
2346.21517114497
 20
973.9075302467441
 30
0.0
 40
4.0
100
AcDbArc
 50
260.0
 51
170.0
  0
CIRCLE
  5
5266
330
1F
100
AcDbEntity
  8
AM_0
100
AcDbCircle
 10
2346.21517114497
 20
973.9075302467441
 30
0.0
 40
3.323417653293459
  0
LINE
  5
5267
330
1F
100
AcDbEntity
  8
AM_7
  6
AM_ISO08W050x2
100
AcDbLine
 10
2340.21517114497
 20
973.9075302467441
 30
0.0
 11
2352.21517114497
 21
973.9075302467441
 31
0.0
  0
LINE
  5
5268
330
1F
100
AcDbEntity
  8
AM_7
  6
AM_ISO08W050x2
100
AcDbLine
 10
2346.21517114497
 20
967.907530246744
 30
0.0
 11
2346.21517114497
 21
979.9075302467441
 31
0.0
  0
ARC
  5
5269
330
1F
100
AcDbEntity
  8
AM_4
100
AcDbCircle
 10
2376.21517114497
 20
973.9075302467441
 30
0.0
 40
4.0
100
AcDbArc
 50
260.0
 51
170.0
  0
CIRCLE
  5
526A
330
1F
100
AcDbEntity
  8
AM_0
100
AcDbCircle
 10
2376.21517114497
 20
973.9075302467441
 30
0.0
 40
3.323417653293459
  0
LINE
  5
526B
330
1F
100
AcDbEntity
  8
AM_7
  6
AM_ISO08W050x2
100
AcDbLine
 10
2370.21517114497
 20
973.9075302467441
 30
0.0
 11
2382.21517114497
 21
973.9075302467441
 31
0.0
  0
LINE
  5
526C
330
1F
100
AcDbEntity
  8
AM_7
  6
AM_ISO08W050x2
100
AcDbLine
 10
2376.21517114497
 20
967.907530246744
 30
0.0
 11
2376.21517114497
 21
979.9075302467441
 31
0.0
  0
ARC
  5
526D
330
1F
100
AcDbEntity
  8
AM_4
100
AcDbCircle
 10
2346.21517114497
 20
1069.907530246744
 30
0.0
 40
4.0
100
AcDbArc
 50
260.0
 51
170.0
  0
CIRCLE
  5
526E
330
1F
100
AcDbEntity
  8
AM_0
100
AcDbCircle
 10
2346.21517114497
 20
1069.907530246744
 30
0.0
 40
3.323417653293459
  0
LINE
  5
526F
330
1F
100
AcDbEntity
  8
AM_7
  6
AM_ISO08W050x2
100
AcDbLine
 10
2340.21517114497
 20
1069.907530246744
 30
0.0
 11
2352.21517114497
 21
1069.907530246744
 31
0.0
  0
LINE
  5
5270
330
1F
100
AcDbEntity
  8
AM_7
  6
AM_ISO08W050x2
100
AcDbLine
 10
2346.21517114497
 20
1063.907530246744
 30
0.0
 11
2346.21517114497
 21
1075.907530246744
 31
0.0
  0
ARC
  5
5271
330
1F
100
AcDbEntity
  8
AM_4
100
AcDbCircle
 10
2376.21517114497
 20
1069.907530246744
 30
0.0
 40
4.0
100
AcDbArc
 50
260.0
 51
170.0
  0
CIRCLE
  5
5272
330
1F
100
AcDbEntity
  8
AM_0
100
AcDbCircle
 10
2376.21517114497
 20
1069.907530246744
 30
0.0
 40
3.323417653293459
  0
LINE
  5
5273
330
1F
100
AcDbEntity
  8
AM_7
  6
AM_ISO08W050x2
100
AcDbLine
 10
2370.21517114497
 20
1069.907530246744
 30
0.0
 11
2382.21517114497
 21
1069.907530246744
 31
0.0
  0
LINE
  5
5274
330
1F
100
AcDbEntity
  8
AM_7
  6
AM_ISO08W050x2
100
AcDbLine
 10
2376.21517114497
 20
1063.907530246744
 30
0.0
 11
2376.21517114497
 21
1075.907530246744
 31
0.0
  0
ARC
  5
5275
330
1F
100
AcDbEntity
  8
AM_4
100
AcDbCircle
 10
2067.564053540985
 20
1069.907530246744
 30
0.0
 40
4.0
100
AcDbArc
 50
260.0
 51
170.0
  0
CIRCLE
  5
5276
330
1F
100
AcDbEntity
  8
AM_0
100
AcDbCircle
 10
2067.564053540985
 20
1069.907530246744
 30
0.0
 40
3.323417653293459
  0
LINE
  5
5277
330
1F
100
AcDbEntity
  8
AM_7
  6
AM_ISO08W050x2
100
AcDbLine
 10
2061.564053540985
 20
1069.907530246744
 30
0.0
 11
2073.564053540985
 21
1069.907530246744
 31
0.0
  0
LINE
  5
5278
330
1F
100
AcDbEntity
  8
AM_7
  6
AM_ISO08W050x2
100
AcDbLine
 10
2067.564053540985
 20
1063.907530246744
 30
0.0
 11
2067.564053540985
 21
1075.907530246744
 31
0.0
  0
ARC
  5
5279
330
1F
100
AcDbEntity
  8
AM_4
100
AcDbCircle
 10
2097.564053540985
 20
1069.907530246744
 30
0.0
 40
4.0
100
AcDbArc
 50
260.0
 51
170.0
  0
CIRCLE
  5
527A
330
1F
100
AcDbEntity
  8
AM_0
100
AcDbCircle
 10
2097.564053540985
 20
1069.907530246744
 30
0.0
 40
3.323417653293459
  0
LINE
  5
527B
330
1F
100
AcDbEntity
  8
AM_7
  6
AM_ISO08W050x2
100
AcDbLine
 10
2091.564053540985
 20
1069.907530246744
 30
0.0
 11
2103.564053540985
 21
1069.907530246744
 31
0.0
  0
LINE
  5
527C
330
1F
100
AcDbEntity
  8
AM_7
  6
AM_ISO08W050x2
100
AcDbLine
 10
2097.564053540985
 20
1063.907530246744
 30
0.0
 11
2097.564053540985
 21
1075.907530246744
 31
0.0
  0
ARC
  5
527D
330
1F
100
AcDbEntity
  8
AM_4
100
AcDbCircle
 10
2067.564053540985
 20
973.9075302467441
 30
0.0
 40
4.0
100
AcDbArc
 50
260.0
 51
170.0
  0
CIRCLE
  5
527E
330
1F
100
AcDbEntity
  8
AM_0
100
AcDbCircle
 10
2067.564053540985
 20
973.9075302467441
 30
0.0
 40
3.323417653293459
  0
LINE
  5
527F
330
1F
100
AcDbEntity
  8
AM_7
  6
AM_ISO08W050x2
100
AcDbLine
 10
2061.564053540985
 20
973.9075302467441
 30
0.0
 11
2073.564053540985
 21
973.9075302467441
 31
0.0
  0
LINE
  5
5280
330
1F
100
AcDbEntity
  8
AM_7
  6
AM_ISO08W050x2
100
AcDbLine
 10
2067.564053540985
 20
967.907530246744
 30
0.0
 11
2067.564053540985
 21
979.9075302467441
 31
0.0
  0
ARC
  5
5281
330
1F
100
AcDbEntity
  8
AM_4
100
AcDbCircle
 10
2097.564053540985
 20
973.9075302467441
 30
0.0
 40
4.0
100
AcDbArc
 50
260.0
 51
170.0
  0
CIRCLE
  5
5282
330
1F
100
AcDbEntity
  8
AM_0
100
AcDbCircle
 10
2097.564053540985
 20
973.9075302467441
 30
0.0
 40
3.323417653293459
  0
LINE
  5
5283
330
1F
100
AcDbEntity
  8
AM_7
  6
AM_ISO08W050x2
100
AcDbLine
 10
2091.564053540985
 20
973.9075302467441
 30
0.0
 11
2103.564053540985
 21
973.9075302467441
 31
0.0
  0
LINE
  5
5284
330
1F
100
AcDbEntity
  8
AM_7
  6
AM_ISO08W050x2
100
AcDbLine
 10
2097.564053540985
 20
967.907530246744
 30
0.0
 11
2097.564053540985
 21
979.9075302467441
 31
0.0
  0
ARC
  5
5285
330
1F
100
AcDbEntity
  8
AM_4
100
AcDbCircle
 10
2178.669823376289
 20
895.5690601050809
 30
0.0
 40
4.863999999999999
100
AcDbArc
 50
260.0
 51
170.0
  0
LINE
  5
5286
330
1F
100
AcDbEntity
  8
AM_7
  6
AM_ISO08W050x2
100
AcDbLine
 10
2178.669823376289
 20
902.4330601050809
 30
0.0
 11
2178.669823376289
 21
888.7050601050809
 31
0.0
  0
CIRCLE
  5
5287
330
1F
100
AcDbEntity
  8
AM_0
100
AcDbCircle
 10
2178.669823376289
 20
895.5690601050809
 30
0.0
 40
4.283
  0
LINE
  5
5288
330
1F
100
AcDbEntity
  8
AM_7
  6
AM_ISO08W050x2
100
AcDbLine
 10
2171.805823376289
 20
895.5690601050809
 30
0.0
 11
2185.533823376289
 21
895.5690601050809
 31
0.0
  0
ARC
  5
5289
330
1F
100
AcDbEntity
  8
AM_4
100
AcDbCircle
 10
2222.669823376289
 20
895.5690601050809
 30
0.0
 40
4.863999999999999
100
AcDbArc
 50
260.0
 51
170.0
  0
LINE
  5
528A
330
1F
100
AcDbEntity
  8
AM_7
  6
AM_ISO08W050x2
100
AcDbLine
 10
2222.669823376289
 20
902.4330601050809
 30
0.0
 11
2222.669823376289
 21
888.7050601050809
 31
0.0
  0
CIRCLE
  5
528B
330
1F
100
AcDbEntity
  8
AM_0
100
AcDbCircle
 10
2222.669823376289
 20
895.5690601050809
 30
0.0
 40
4.283
  0
LINE
  5
528C
330
1F
100
AcDbEntity
  8
AM_7
  6
AM_ISO08W050x2
100
AcDbLine
 10
2215.805823376289
 20
895.5690601050809
 30
0.0
 11
2229.533823376289
 21
895.5690601050809
 31
0.0
  0
ARC
  5
528D
330
1F
100
AcDbEntity
  8
AM_4
100
AcDbCircle
 10
2184.169823376289
 20
1218.927703905425
 30
0.0
 40
4.0
100
AcDbArc
 50
260.0
 51
170.0
  0
CIRCLE
  5
528E
330
1F
100
AcDbEntity
  8
AM_0
100
AcDbCircle
 10
2184.169823376289
 20
1218.927703905425
 30
0.0
 40
3.323417653293459
  0
LINE
  5
528F
330
1F
100
AcDbEntity
  8
AM_7
  6
AM_ISO08W050x2
100
AcDbLine
 10
2178.169823376289
 20
1218.927703905425
 30
0.0
 11
2190.169823376289
 21
1218.927703905425
 31
0.0
  0
LINE
  5
5290
330
1F
100
AcDbEntity
  8
AM_7
  6
AM_ISO08W050x2
100
AcDbLine
 10
2184.169823376289
 20
1212.927703905425
 30
0.0
 11
2184.169823376289
 21
1224.927703905425
 31
0.0
  0
ARC
  5
5291
330
1F
100
AcDbEntity
  8
AM_4
100
AcDbCircle
 10
2217.169823376289
 20
1218.927703905425
 30
0.0
 40
4.0
100
AcDbArc
 50
260.0
 51
170.0
  0
CIRCLE
  5
5292
330
1F
100
AcDbEntity
  8
AM_0
100
AcDbCircle
 10
2217.169823376289
 20
1218.927703905425
 30
0.0
 40
3.323417653293459
  0
LINE
  5
5293
330
1F
100
AcDbEntity
  8
AM_7
  6
AM_ISO08W050x2
100
AcDbLine
 10
2211.169823376289
 20
1218.927703905425
 30
0.0
 11
2223.169823376289
 21
1218.927703905425
 31
0.0
  0
LINE
  5
5294
330
1F
100
AcDbEntity
  8
AM_7
  6
AM_ISO08W050x2
100
AcDbLine
 10
2217.169823376289
 20
1212.927703905425
 30
0.0
 11
2217.169823376289
 21
1224.927703905425
 31
0.0
  0
ARC
  5
5295
330
1F
100
AcDbEntity
  8
AM_4
100
AcDbCircle
 10
2184.169823376289
 20
1318.927703905425
 30
0.0
 40
4.0
100
AcDbArc
 50
260.0
 51
170.0
  0
CIRCLE
  5
5296
330
1F
100
AcDbEntity
  8
AM_0
100
AcDbCircle
 10
2184.169823376289
 20
1318.927703905425
 30
0.0
 40
3.323417653293459
  0
LINE
  5
5297
330
1F
100
AcDbEntity
  8
AM_7
  6
AM_ISO08W050x2
100
AcDbLine
 10
2178.169823376289
 20
1318.927703905425
 30
0.0
 11
2190.169823376289
 21
1318.927703905425
 31
0.0
  0
LINE
  5
5298
330
1F
100
AcDbEntity
  8
AM_7
  6
AM_ISO08W050x2
100
AcDbLine
 10
2184.169823376289
 20
1312.927703905425
 30
0.0
 11
2184.169823376289
 21
1324.927703905425
 31
0.0
  0
ARC
  5
5299
330
1F
100
AcDbEntity
  8
AM_4
100
AcDbCircle
 10
2217.169823376289
 20
1318.927703905425
 30
0.0
 40
4.0
100
AcDbArc
 50
260.0
 51
170.0
  0
CIRCLE
  5
529A
330
1F
100
AcDbEntity
  8
AM_0
100
AcDbCircle
 10
2217.169823376289
 20
1318.927703905425
 30
0.0
 40
3.323417653293459
  0
LINE
  5
529B
330
1F
100
AcDbEntity
  8
AM_7
  6
AM_ISO08W050x2
100
AcDbLine
 10
2211.169823376289
 20
1318.927703905425
 30
0.0
 11
2223.169823376289
 21
1318.927703905425
 31
0.0
  0
LINE
  5
529C
330
1F
100
AcDbEntity
  8
AM_7
  6
AM_ISO08W050x2
100
AcDbLine
 10
2217.169823376289
 20
1312.927703905425
 30
0.0
 11
2217.169823376289
 21
1324.927703905425
 31
0.0
  0
LINE
  5
529D
330
1F
100
AcDbEntity
  8
AM_7
  6
AM_ISO08W050x2
100
AcDbLine
 10
2200.669823376289
 20
1318.927703905425
 30
0.0
 11
2206.669823376289
 21
1318.927703905425
 31
0.0
1001
GENIUS_GENOREF_13
1005
52CD
  0
LINE
  5
529E
330
1F
100
AcDbEntity
  8
AM_7
  6
AM_ISO08W050x2
100
AcDbLine
 10
2200.669823376289
 20
1318.927703905425
 30
0.0
 11
2200.669823376289
 21
1324.927703905425
 31
0.0
1001
GENIUS_GENOREF_13
1005
52CD
  0
LINE
  5
529F
330
1F
100
AcDbEntity
  8
AM_7
  6
AM_ISO08W050x2
100
AcDbLine
 10
2200.669823376289
 20
1318.927703905425
 30
0.0
 11
2194.669823376289
 21
1318.927703905425
 31
0.0
1001
GENIUS_GENOREF_13
1005
52CD
  0
LINE
  5
52A0
330
1F
100
AcDbEntity
  8
AM_7
  6
AM_ISO08W050x2
100
AcDbLine
 10
2200.669823376289
 20
1318.927703905425
 30
0.0
 11
2200.669823376289
 21
1312.927703905425
 31
0.0
1001
GENIUS_GENOREF_13
1005
52CD
  0
LINE
  5
52A1
330
1F
100
AcDbEntity
  8
AM_7
  6
AM_ISO08W050x2
100
AcDbLine
 10
2200.669823376289
 20
1218.927703905425
 30
0.0
 11
2206.669823376289
 21
1218.927703905425
 31
0.0
1001
GENIUS_GENOREF_13
1005
52CC
  0
LINE
  5
52A2
330
1F
100
AcDbEntity
  8
AM_7
  6
AM_ISO08W050x2
100
AcDbLine
 10
2200.669823376289
 20
1218.927703905425
 30
0.0
 11
2200.669823376289
 21
1224.927703905425
 31
0.0
1001
GENIUS_GENOREF_13
1005
52CC
  0
LINE
  5
52A3
330
1F
100
AcDbEntity
  8
AM_7
  6
AM_ISO08W050x2
100
AcDbLine
 10
2200.669823376289
 20
1218.927703905425
 30
0.0
 11
2194.669823376289
 21
1218.927703905425
 31
0.0
1001
GENIUS_GENOREF_13
1005
52CC
  0
LINE
  5
52A4
330
1F
100
AcDbEntity
  8
AM_7
  6
AM_ISO08W050x2
100
AcDbLine
 10
2200.669823376289
 20
1218.927703905425
 30
0.0
 11
2200.669823376289
 21
1212.927703905425
 31
0.0
1001
GENIUS_GENOREF_13
1005
52CC
  0
ARC
  5
52A5
330
1F
100
AcDbEntity
  8
AM_4
100
AcDbCircle
 10
2187.669823376289
 20
1247.927703905425
 30
0.0
 40
4.0
100
AcDbArc
 50
260.0
 51
170.0
  0
LINE
  5
52A6
330
1F
100
AcDbEntity
  8
AM_7
  6
AM_ISO08W050x2
100
AcDbLine
 10
2181.669823376289
 20
1247.927703905425
 30
0.0
 11
2193.669823376289
 21
1247.927703905425
 31
0.0
  0
LINE
  5
52A7
330
1F
100
AcDbEntity
  8
AM_7
  6
AM_ISO08W050x2
100
AcDbLine
 10
2187.669823376289
 20
1241.927703905425
 30
0.0
 11
2187.669823376289
 21
1253.927703905425
 31
0.0
  0
ARC
  5
52A8
330
1F
100
AcDbEntity
  8
AM_4
100
AcDbCircle
 10
2213.669823376289
 20
1247.927703905425
 30
0.0
 40
4.0
100
AcDbArc
 50
260.0
 51
170.0
  0
LINE
  5
52A9
330
1F
100
AcDbEntity
  8
AM_7
  6
AM_ISO08W050x2
100
AcDbLine
 10
2207.669823376289
 20
1247.927703905425
 30
0.0
 11
2219.669823376289
 21
1247.927703905425
 31
0.0
  0
LINE
  5
52AA
330
1F
100
AcDbEntity
  8
AM_7
  6
AM_ISO08W050x2
100
AcDbLine
 10
2213.669823376289
 20
1241.927703905425
 30
0.0
 11
2213.669823376289
 21
1253.927703905425
 31
0.0
  0
ARC
  5
52AB
330
1F
100
AcDbEntity
  8
AM_4
100
AcDbCircle
 10
2187.669823376289
 20
1289.927703905425
 30
0.0
 40
4.0
100
AcDbArc
 50
260.0
 51
170.0
  0
LINE
  5
52AC
330
1F
100
AcDbEntity
  8
AM_7
  6
AM_ISO08W050x2
100
AcDbLine
 10
2181.669823376289
 20
1289.927703905425
 30
0.0
 11
2193.669823376289
 21
1289.927703905425
 31
0.0
  0
LINE
  5
52AD
330
1F
100
AcDbEntity
  8
AM_7
  6
AM_ISO08W050x2
100
AcDbLine
 10
2187.669823376289
 20
1283.927703905425
 30
0.0
 11
2187.669823376289
 21
1295.927703905425
 31
0.0
  0
ARC
  5
52AE
330
1F
100
AcDbEntity
  8
AM_4
100
AcDbCircle
 10
2213.669823376289
 20
1289.927703905425
 30
0.0
 40
4.0
100
AcDbArc
 50
260.0
 51
170.0
  0
LINE
  5
52AF
330
1F
100
AcDbEntity
  8
AM_7
  6
AM_ISO08W050x2
100
AcDbLine
 10
2207.669823376289
 20
1289.927703905425
 30
0.0
 11
2219.669823376289
 21
1289.927703905425
 31
0.0
  0
LINE
  5
52B0
330
1F
100
AcDbEntity
  8
AM_7
  6
AM_ISO08W050x2
100
AcDbLine
 10
2213.669823376289
 20
1283.927703905425
 30
0.0
 11
2213.669823376289
 21
1295.927703905425
 31
0.0
  0
LINE
  5
52B1
330
1F
100
AcDbEntity
  8
AM_7
100
AcDbLine
 10
2111.564053540985
 20
1021.907530246744
 30
0.0
 11
2053.065997499833
 21
1021.907530246744
 31
0.0
1001
GENIUS_GENODEF_13
1002
{
1000
HIER
1070
     0
1002
}
1002
{
1000
MANEDIT
1070
     0
1002
}
1002
{
1000
NOSEL
1070
     0
1002
}
1002
{
1000
BEHIND
1070
     0
1002
}
1002
{
1000
OTHER
1070
     0
1002
}
1002
{
1000
REACTOR
1002
}
1001
GENIUS_GENOBJ-N-CEN_13
1002
{
1000
OWNER
1000
GEN
1002
}
1001
GENIUS_GENCEN_19
1002
{
1040
2.0
1002
}
  0
LINE
  5
52B2
330
1F
100
AcDbEntity
  8
AM_7
100
AcDbLine
 10
2332.215171144969
 20
1021.907530246744
 30
0.0
 11
2389.986213832717
 21
1021.907530246744
 31
0.0
1001
GENIUS_GENODEF_13
1002
{
1000
HIER
1070
     0
1002
}
1002
{
1000
MANEDIT
1070
     0
1002
}
1002
{
1000
NOSEL
1070
     0
1002
}
1002
{
1000
BEHIND
1070
     0
1002
}
1002
{
1000
OTHER
1070
     0
1002
}
1002
{
1000
REACTOR
1002
}
1001
GENIUS_GENOBJ-N-CEN_13
1002
{
1000
OWNER
1000
GEN
1002
}
1001
GENIUS_GENCEN_19
1002
{
1040
2.0
1002
}
  0
INSERT
  5
52B3
330
1F
100
AcDbEntity
  8
AM_5
100
AcDbBlockReference
  2
*S34
 10
0.0
 20
0.0
 30
0.0
  0
TEXT
  5
52B4
330
1F
100
AcDbEntity
  8
AM_5
100
AcDbText
 10
2237.420917764455
 20
914.7189146446764
 30
0.0
 40
4.199999999999999
  1
2-PT1/8
 41
0.8
100
AcDbText
  0
DIMENSION
  5
52B5
330
1F
100
AcDbEntity
  8
AM_5
100
AcDbDimension
  2
*D11
 10
2279.669823376289
 20
939.9075302467441
 30
0.0
 11
2215.669823376289
 21
943.4079436325708
 31
0.0
 70
    32
  1
68+2xstroke
 71
     5
 42
128.0
  3
AM_ISO$0
100
AcDbAlignedDimension
 13
2151.669823376289
 23
963.9075302467441
 33
0.0
 14
2279.669823376289
 24
963.9075302467441
 34
0.0
100
AcDbRotatedDimension
1001
ACAD
1000
DSTYLE
1002
{
1070
    40
1040
1.399999999999999
1070
   272
1070
     8
1002
}
  0
DIMENSION
  5
52B6
330
1F
100
AcDbEntity
  8
AM_5
100
AcDbDimension
  2
*D12
 10
2233.669823376289
 20
951.907530246744
 30
0.0
 11
2200.669823376289
 21
955.407530246744
 31
0.0
 70
    32
  1
36+stroke
 71
     5
 42
66.0
  3
AM_ISO$0
100
AcDbAlignedDimension
 13
2167.669823376289
 23
963.9075302467441
 33
0.0
 14
2233.669823376289
 24
963.9075302467441
 34
0.0
100
AcDbRotatedDimension
1001
ACAD
1000
DSTYLE
1002
{
1070
    40
1040
1.399999999999999
1070
   144
1040
1.0
1070
   272
1070
     8
1002
}
  0
DIMENSION
  5
52B7
330
1F
100
AcDbEntity
  8
AM_5
100
AcDbDimension
  2
*D13
 10
2265.669823376289
 20
951.907530246744
 30
0.0
 11
2249.669823376289
 21
955.4079436325707
 31
0.0
 70
    32
  1
2+stroke
 71
     5
 42
32.0
  3
AM_ISO$0
100
AcDbAlignedDimension
 13
2233.669823376289
 23
963.9075302467441
 33
0.0
 14
2265.669823376289
 24
963.9075302467441
 34
0.0
100
AcDbRotatedDimension
1001
ACAD
1000
DSTYLE
1002
{
1070
    40
1040
1.399999999999999
1070
   272
1070
     8
1002
}
  0
DIMENSION
  5
52B8
330
1F
100
AcDbEntity
  8
AM_5
100
AcDbDimension
  2
*D14
 10
2279.669823376289
 20
951.907530246744
 30
0.0
 11
2272.669823376289
 21
955.407530246744
 31
0.0
 70
    32
 71
     5
 42
14.0
  3
AM_ISO$0
100
AcDbAlignedDimension
 13
2265.669823376289
 23
963.9075302467441
 33
0.0
 14
2279.669823376289
 24
963.9075302467441
 34
0.0
100
AcDbRotatedDimension
1001
ACAD
1000
DSTYLE
1002
{
1070
    40
1040
1.399999999999999
1070
   272
1070
     8
1002
}
  0
DIMENSION
  5
52B9
330
1F
100
AcDbEntity
  8
AM_5
100
AcDbDimension
  2
*D15
 10
2385.21517114497
 20
943.6810978193095
 30
0.0
 11
2359.71517114497
 21
947.1810978193095
 31
0.0
 70
    32
 71
     5
 42
51.0
  3
AM_ISO$0
100
AcDbAlignedDimension
 13
2334.21517114497
 23
963.9075302467441
 33
0.0
 14
2385.21517114497
 24
963.9075302467441
 34
0.0
100
AcDbRotatedDimension
1001
ACAD
1000
DSTYLE
1002
{
1070
    40
1040
1.399999999999999
1070
   272
1070
     8
1002
}
  0
DIMENSION
  5
52BA
330
1F
100
AcDbEntity
  8
AM_5
100
AcDbDimension
  2
*D16
 10
2322.21517014497
 20
1079.907530246744
 30
0.0
 11
2322.21517014497
 21
1011.907530246744
 31
0.0
 70
   160
 71
     5
 42
115.9999999999999
  3
AM_ISO$0
100
AcDbAlignedDimension
 13
2334.21517114497
 23
963.9075302467441
 33
0.0
 14
2334.21517114497
 24
1079.907530246744
 34
0.0
 50
90.0
100
AcDbRotatedDimension
1001
ACAD
1000
DSTYLE
1002
{
1070
    40
1040
1.399999999999999
1070
   272
1070
     8
1002
}
  0
TEXT
  5
52BB
330
1F
100
AcDbEntity
  8
AM_5
100
AcDbText
 10
2303.672395335261
 20
953.356426087204
 30
0.0
 40
4.199999999999999
  1
2x4-M8
 41
0.8
100
AcDbText
  0
INSERT
  5
52BC
330
1F
100
AcDbEntity
  8
AM_5
100
AcDbBlockReference
  2
*S35
 10
0.0
 20
0.0
 30
0.0
  0
TEXT
  5
52BD
330
1F
100
AcDbEntity
  8
AM_5
100
AcDbText
 10
2233.747223312228
 20
1098.612782378493
 30
0.0
 40
4.199999999999999
  1
4-%%c5.2 thru
 41
0.8
100
AcDbText
  0
INSERT
  5
52BE
330
1F
100
AcDbEntity
  8
AM_5
100
AcDbBlockReference
  2
*S36
 10
0.0
 20
0.0
 30
0.0
  0
TEXT
  5
52BF
330
1F
100
AcDbEntity
  8
AM_5
100
AcDbText
 10
2233.747223312228
 20
1092.548633785436
 30
0.0
 40
4.199999999999999
  1
4-%%c9.5x5.5 depth
 41
0.8
100
AcDbText
  0
INSERT
  5
52C0
330
1F
100
AcDbEntity
  8
AM_5
100
AcDbBlockReference
  2
*S37
 10
0.0
 20
0.0
 30
0.0
  0
TEXT
  5
52C1
330
1F
100
AcDbEntity
  8
AM_5
100
AcDbText
 10
2289.835553651344
 20
1092.033611120473
 30
0.0
 40
4.199999999999999
  1
2x2-%%c8    x12 depth
 41
0.8
100
AcDbText
  0
TEXT
  5
52C2
330
1F
100
AcDbEntity
  8
AM_5
100
AcDbText
 10
2304.755085280293
 20
1092.295148826704
 30
0.0
 40
1.68
  1
+0
 41
0.8
100
AcDbText
  0
TEXT
  5
52C3
330
1F
100
AcDbEntity
  8
AM_5
100
AcDbText
 10
2304.755085280293
 20
1094.416652891221
 30
0.0
 40
1.68
  1
+0.02
 41
0.8
100
AcDbText
  0
TEXT
  5
52C4
330
1F
100
AcDbEntity
  8
AM_5
100
AcDbText
 10
2139.050651852454
 20
1197.032624895814
 30
0.0
 40
4.199999999999999
  1
4-M8x16 depth
 41
0.8
100
AcDbText
  0
TEXT
  5
52C5
330
1F
100
AcDbEntity
  8
AM_5
100
AcDbText
 10
2236.865732255306
 20
1196.639999668675
 30
0.0
 40
4.199999999999999
  1
4-M8x11 depth
 41
0.8
100
AcDbText
  0
INSERT
  5
52C6
330
1F
100
AcDbEntity
  8
AM_5
100
AcDbBlockReference
  2
*S38
 10
0.0
 20
0.0
 30
0.0
  0
TEXT
  5
52C7
330
1F
100
AcDbEntity
  8
AM_5
100
AcDbText
 10
2287.741019161408
 20
1229.12910498466
 30
0.0
 40
4.199999999999999
  1
2x2-%%c6.6 thru
 41
0.8
100
AcDbText
  0
INSERT
  5
52C8
330
1F
100
AcDbEntity
  8
AM_5
100
AcDbBlockReference
  2
*S39
 10
0.0
 20
0.0
 30
0.0
  0
TEXT
  5
52C9
330
1F
100
AcDbEntity
  8
AM_5
100
AcDbText
 10
2287.741019161408
 20
1223.064956391603
 30
0.0
 40
4.199999999999999
  1
2x2-%%c11x6.5 depth
 41
0.8
100
AcDbText
  0
INSERT
  5
52CA
330
1F
100
AcDbEntity
  8
AM_5
100
AcDbBlockReference
  2
*S40
 10
0.0
 20
0.0
 30
0.0
  0
POINT
  5
52CB
330
1F
100
AcDbEntity
  8
0
 60
     1
100
AcDbPoint
 10
480.4052946552383
 20
0.0
 30
0.0
1001
GENIUS_GENOLIS_13
1002
{
1000
ENT
1005
5228
1005
5227
1005
5226
1005
5225
1002
}
1001
GENIUS_GENOENT_13
1002
{
1000
MYREF
1005
52CB
1002
}
1002
{
1000
GRP
1005
0
1002
}
1001
GENIUS_GENOBJ-N-CRS_13
1002
{
1000
OWNER
1000
GEN
1002
}
1001
GENIUS_GENODEF_13
1002
{
1000
HIER
1070
    10
1002
}
1002
{
1000
MANEDIT
1070
     0
1002
}
1002
{
1000
NOSEL
1070
     0
1002
}
1002
{
1000
BEHIND
1070
     0
1002
}
1002
{
1000
OTHER
1070
     0
1002
}
1002
{
1000
REACTOR
1002
}
  0
POINT
  5
52CC
330
1F
100
AcDbEntity
  8
0
 60
     1
100
AcDbPoint
 10
480.4052946552383
 20
0.0
 30
0.0
1001
GENIUS_GENOLIS_13
1002
{
1000
ENT
1005
52A4
1005
52A3
1005
52A2
1005
52A1
1002
}
1001
GENIUS_GENOENT_13
1002
{
1000
MYREF
1005
52CC
1002
}
1002
{
1000
GRP
1005
0
1002
}
1001
GENIUS_GENOBJ-N-CRS_13
1002
{
1000
OWNER
1000
GEN
1002
}
1001
GENIUS_GENODEF_13
1002
{
1000
HIER
1070
    10
1002
}
1002
{
1000
MANEDIT
1070
     0
1002
}
1002
{
1000
NOSEL
1070
     0
1002
}
1002
{
1000
BEHIND
1070
     0
1002
}
1002
{
1000
OTHER
1070
     0
1002
}
1002
{
1000
REACTOR
1002
}
  0
POINT
  5
52CD
330
1F
100
AcDbEntity
  8
0
 60
     1
100
AcDbPoint
 10
480.4052946552383
 20
0.0
 30
0.0
1001
GENIUS_GENOENT_13
1002
{
1000
MYREF
1005
52CD
1002
}
1002
{
1000
GRP
1005
0
1002
}
1001
GENIUS_GENOBJ-N-CRS_13
1002
{
1000
OWNER
1000
GEN
1002
}
1001
GENIUS_GENODEF_13
1002
{
1000
HIER
1070
    10
1002
}
1002
{
1000
MANEDIT
1070
     0
1002
}
1002
{
1000
NOSEL
1070
     0
1002
}
1002
{
1000
BEHIND
1070
     0
1002
}
1002
{
1000
OTHER
1070
     0
1002
}
1002
{
1000
REACTOR
1002
}
1001
GENIUS_GENOLIS_13
1002
{
1000
ENT
1005
52A0
1005
529F
1005
529E
1005
529D
1002
}
  0
POINT
  5
52CE
330
1F
100
AcDbEntity
  8
0
 60
     1
100
AcDbPoint
 10
480.4052946552383
 20
0.0
 30
0.0
1001
GENIUS_GENOENT_13
1002
{
1000
MYREF
1005
52CE
1002
}
1002
{
1000
GRP
1005
0
1002
}
1001
GENIUS_GENODEF_13
1002
{
1000
HIER
1070
    10
1002
}
1002
{
1000
MANEDIT
1070
     0
1002
}
1002
{
1000
NOSEL
1070
     0
1002
}
1002
{
1000
BEHIND
1070
     0
1002
}
1002
{
1000
OTHER
1070
     0
1002
}
1002
{
1000
REACTOR
1002
}
1001
GENIUS_GENOBJ-N-CRS_13
1002
{
1000
OWNER
1000
GEN
1002
}
1001
GENIUS_GENOLIS_13
1002
{
1000
ENT
1005
5264
1005
5263
1005
5262
1005
5261
1002
}
  0
POINT
  5
52CF
330
1F
100
AcDbEntity
  8
0
 60
     1
100
AcDbPoint
 10
480.4052946552383
 20
0.0
 30
0.0
1001
GENIUS_GENOLIS_13
1002
{
1000
ENT
1005
5260
1005
525F
1005
525E
1005
525D
1002
}
1001
GENIUS_GENOENT_13
1002
{
1000
MYREF
1005
52CF
1002
}
1002
{
1000
GRP
1005
0
1002
}
1001
GENIUS_GENODEF_13
1002
{
1000
HIER
1070
    10
1002
}
1002
{
1000
MANEDIT
1070
     0
1002
}
1002
{
1000
NOSEL
1070
     0
1002
}
1002
{
1000
BEHIND
1070
     0
1002
}
1002
{
1000
OTHER
1070
     0
1002
}
1002
{
1000
REACTOR
1002
}
1001
GENIUS_GENOBJ-N-CRS_13
1002
{
1000
OWNER
1000
GEN
1002
}
  0
POINT
  5
52D0
330
1F
100
AcDbEntity
  8
0
 60
     1
100
AcDbPoint
 10
480.4052946552383
 20
0.0
 30
0.0
1001
GENIUS_GENOENT_13
1002
{
1000
MYREF
1005
52D0
1002
}
1002
{
1000
GRP
1005
0
1002
}
1001
GENIUS_GENOBJ-N-CRS_13
1002
{
1000
OWNER
1000
GEN
1002
}
1001
GENIUS_GENODEF_13
1002
{
1000
HIER
1070
    10
1002
}
1002
{
1000
MANEDIT
1070
     0
1002
}
1002
{
1000
NOSEL
1070
     0
1002
}
1002
{
1000
BEHIND
1070
     0
1002
}
1002
{
1000
OTHER
1070
     0
1002
}
1002
{
1000
REACTOR
1002
}
1001
GENIUS_GENOLIS_13
1002
{
1000
ENT
1005
525C
1005
525B
1005
525A
1005
5259
1002
}
  0
POINT
  5
52D1
330
1F
100
AcDbEntity
  8
0
 60
     1
100
AcDbPoint
 10
480.4052946552383
 20
0.0
 30
0.0
1001
GENIUS_GENOLIS_13
1002
{
1000
ENT
1005
5258
1005
5257
1005
5256
1005
5255
1002
}
1001
GENIUS_GENOENT_13
1002
{
1000
MYREF
1005
52D1
1002
}
1002
{
1000
GRP
1005
0
1002
}
1001
GENIUS_GENODEF_13
1002
{
1000
HIER
1070
    10
1002
}
1002
{
1000
MANEDIT
1070
     0
1002
}
1002
{
1000
NOSEL
1070
     0
1002
}
1002
{
1000
BEHIND
1070
     0
1002
}
1002
{
1000
OTHER
1070
     0
1002
}
1002
{
1000
REACTOR
1002
}
1001
GENIUS_GENOBJ-N-CRS_13
1002
{
1000
OWNER
1000
GEN
1002
}
  0
POINT
  5
52D2
330
1F
100
AcDbEntity
  8
0
 60
     1
100
AcDbPoint
 10
480.4052946552383
 20
0.0
 30
0.0
1001
GENIUS_GENOLIS_13
1002
{
1000
ENT
1005
5254
1005
5253
1005
5252
1005
5251
1002
}
1001
GENIUS_GENOENT_13
1002
{
1000
MYREF
1005
52D2
1002
}
1002
{
1000
GRP
1005
0
1002
}
1001
GENIUS_GENOBJ-N-CRS_13
1002
{
1000
OWNER
1000
GEN
1002
}
1001
GENIUS_GENODEF_13
1002
{
1000
HIER
1070
    10
1002
}
1002
{
1000
MANEDIT
1070
     0
1002
}
1002
{
1000
NOSEL
1070
     0
1002
}
1002
{
1000
BEHIND
1070
     0
1002
}
1002
{
1000
OTHER
1070
     0
1002
}
1002
{
1000
REACTOR
1002
}
  0
POINT
  5
52D3
330
1F
100
AcDbEntity
  8
0
 60
     1
100
AcDbPoint
 10
480.4052946552383
 20
0.0
 30
0.0
1001
GENIUS_GENODEF_13
1002
{
1000
HIER
1070
    10
1002
}
1002
{
1000
MANEDIT
1070
     0
1002
}
1002
{
1000
NOSEL
1070
     0
1002
}
1002
{
1000
BEHIND
1070
     0
1002
}
1002
{
1000
OTHER
1070
     0
1002
}
1002
{
1000
REACTOR
1002
}
1001
GENIUS_GENOLIS_13
1002
{
1000
ENT
1005
5250
1005
524F
1005
524E
1005
524D
1002
}
1001
GENIUS_GENOENT_13
1002
{
1000
MYREF
1005
52D3
1002
}
1002
{
1000
GRP
1005
0
1002
}
1001
GENIUS_GENOBJ-N-CRS_13
1002
{
1000
OWNER
1000
GEN
1002
}
  0
POINT
  5
52D4
330
1F
100
AcDbEntity
  8
0
 60
     1
100
AcDbPoint
 10
480.4052946552383
 20
0.0
 30
0.0
1001
GENIUS_GENOLIS_13
1002
{
1000
ENT
1005
524C
1005
524B
1005
524A
1005
5249
1002
}
1001
GENIUS_GENOENT_13
1002
{
1000
MYREF
1005
52D4
1002
}
1002
{
1000
GRP
1005
0
1002
}
1001
GENIUS_GENOBJ-N-CRS_13
1002
{
1000
OWNER
1000
GEN
1002
}
1001
GENIUS_GENODEF_13
1002
{
1000
HIER
1070
    10
1002
}
1002
{
1000
MANEDIT
1070
     0
1002
}
1002
{
1000
NOSEL
1070
     0
1002
}
1002
{
1000
BEHIND
1070
     0
1002
}
1002
{
1000
OTHER
1070
     0
1002
}
1002
{
1000
REACTOR
1002
}
  0
POINT
  5
52D5
330
1F
100
AcDbEntity
  8
0
 60
     1
100
AcDbPoint
 10
480.4052946552383
 20
0.0
 30
0.0
1001
GENIUS_GENODEF_13
1002
{
1000
HIER
1070
    10
1002
}
1002
{
1000
MANEDIT
1070
     0
1002
}
1002
{
1000
NOSEL
1070
     0
1002
}
1002
{
1000
BEHIND
1070
     0
1002
}
1002
{
1000
OTHER
1070
     0
1002
}
1002
{
1000
REACTOR
1002
}
1001
GENIUS_GENOENT_13
1002
{
1000
MYREF
1005
52D5
1002
}
1002
{
1000
GRP
1005
0
1002
}
1001
GENIUS_GENOBJ-N-CRS_13
1002
{
1000
OWNER
1000
GEN
1002
}
1001
GENIUS_GENOLIS_13
1002
{
1000
ENT
1005
5248
1005
5247
1005
5246
1005
5245
1002
}
  0
POINT
  5
52D6
330
1F
100
AcDbEntity
  8
0
 60
     1
100
AcDbPoint
 10
480.4052946552383
 20
0.0
 30
0.0
1001
GENIUS_GENOENT_13
1002
{
1000
MYREF
1005
52D6
1002
}
1002
{
1000
GRP
1005
0
1002
}
1001
GENIUS_GENOBJ-N-CRS_13
1002
{
1000
OWNER
1000
GEN
1002
}
1001
GENIUS_GENODEF_13
1002
{
1000
HIER
1070
    10
1002
}
1002
{
1000
MANEDIT
1070
     0
1002
}
1002
{
1000
NOSEL
1070
     0
1002
}
1002
{
1000
BEHIND
1070
     0
1002
}
1002
{
1000
OTHER
1070
     0
1002
}
1002
{
1000
REACTOR
1002
}
1001
GENIUS_GENOLIS_13
1002
{
1000
ENT
1005
5244
1005
5243
1005
5242
1005
5241
1002
}
  0
POINT
  5
52D7
330
1F
100
AcDbEntity
  8
0
 60
     1
100
AcDbPoint
 10
480.4052946552383
 20
0.0
 30
0.0
1001
GENIUS_GENODEF_13
1002
{
1000
HIER
1070
    10
1002
}
1002
{
1000
MANEDIT
1070
     0
1002
}
1002
{
1000
NOSEL
1070
     0
1002
}
1002
{
1000
BEHIND
1070
     0
1002
}
1002
{
1000
OTHER
1070
     0
1002
}
1002
{
1000
REACTOR
1002
}
1001
GENIUS_GENOENT_13
1002
{
1000
MYREF
1005
52D7
1002
}
1002
{
1000
GRP
1005
0
1002
}
1001
GENIUS_GENOBJ-N-CRS_13
1002
{
1000
OWNER
1000
GEN
1002
}
1001
GENIUS_GENOLIS_13
1002
{
1000
ENT
1005
5240
1005
523F
1005
523E
1005
523D
1002
}
  0
POINT
  5
52D8
330
1F
100
AcDbEntity
  8
0
 60
     1
100
AcDbPoint
 10
480.4052946552383
 20
0.0
 30
0.0
1001
GENIUS_GENOLIS_13
1002
{
1000
ENT
1005
523C
1005
523B
1005
523A
1005
5239
1002
}
1001
GENIUS_GENOBJ-N-CRS_13
1002
{
1000
OWNER
1000
GEN
1002
}
1001
GENIUS_GENODEF_13
1002
{
1000
HIER
1070
    10
1002
}
1002
{
1000
MANEDIT
1070
     0
1002
}
1002
{
1000
NOSEL
1070
     0
1002
}
1002
{
1000
BEHIND
1070
     0
1002
}
1002
{
1000
OTHER
1070
     0
1002
}
1002
{
1000
REACTOR
1002
}
1001
GENIUS_GENOENT_13
1002
{
1000
MYREF
1005
52D8
1002
}
1002
{
1000
GRP
1005
0
1002
}
  0
POINT
  5
52D9
330
1F
100
AcDbEntity
  8
0
 60
     1
100
AcDbPoint
 10
480.4052946552383
 20
0.0
 30
0.0
1001
GENIUS_GENODEF_13
1002
{
1000
HIER
1070
    10
1002
}
1002
{
1000
MANEDIT
1070
     0
1002
}
1002
{
1000
NOSEL
1070
     0
1002
}
1002
{
1000
BEHIND
1070
     0
1002
}
1002
{
1000
OTHER
1070
     0
1002
}
1002
{
1000
REACTOR
1002
}
1001
GENIUS_GENOENT_13
1002
{
1000
MYREF
1005
52D9
1002
}
1002
{
1000
GRP
1005
0
1002
}
1001
GENIUS_GENOBJ-N-CRS_13
1002
{
1000
OWNER
1000
GEN
1002
}
1001
GENIUS_GENOLIS_13
1002
{
1000
ENT
1005
5238
1005
5237
1005
5236
1005
5235
1002
}
  0
POINT
  5
52DA
330
1F
100
AcDbEntity
  8
0
 60
     1
100
AcDbPoint
 10
480.4052946552383
 20
0.0
 30
0.0
1001
GENIUS_GENOLIS_13
1002
{
1000
ENT
1005
5234
1005
5233
1005
5232
1005
5231
1002
}
1001
GENIUS_GENOENT_13
1002
{
1000
MYREF
1005
52DA
1002
}
1002
{
1000
GRP
1005
0
1002
}
1001
GENIUS_GENOBJ-N-CRS_13
1002
{
1000
OWNER
1000
GEN
1002
}
1001
GENIUS_GENODEF_13
1002
{
1000
HIER
1070
    10
1002
}
1002
{
1000
MANEDIT
1070
     0
1002
}
1002
{
1000
NOSEL
1070
     0
1002
}
1002
{
1000
BEHIND
1070
     0
1002
}
1002
{
1000
OTHER
1070
     0
1002
}
1002
{
1000
REACTOR
1002
}
  0
POINT
  5
52DB
330
1F
100
AcDbEntity
  8
0
 60
     1
100
AcDbPoint
 10
480.4052946552383
 20
0.0
 30
0.0
1001
GENIUS_GENODEF_13
1002
{
1000
HIER
1070
    10
1002
}
1002
{
1000
MANEDIT
1070
     0
1002
}
1002
{
1000
NOSEL
1070
     0
1002
}
1002
{
1000
BEHIND
1070
     0
1002
}
1002
{
1000
OTHER
1070
     0
1002
}
1002
{
1000
REACTOR
1002
}
1001
GENIUS_GENOLIS_13
1002
{
1000
ENT
1005
5230
1005
522F
1005
522E
1005
522D
1002
}
1001
GENIUS_GENOBJ-N-CRS_13
1002
{
1000
OWNER
1000
GEN
1002
}
1001
GENIUS_GENOENT_13
1002
{
1000
MYREF
1005
52DB
1002
}
1002
{
1000
GRP
1005
0
1002
}
  0
POINT
  5
52DC
330
1F
100
AcDbEntity
  8
0
 60
     1
100
AcDbPoint
 10
480.4052946552383
 20
0.0
 30
0.0
1001
GENIUS_GENOENT_13
1002
{
1000
MYREF
1005
52DC
1002
}
1002
{
1000
GRP
1005
0
1002
}
1001
GENIUS_GENOBJ-N-CRS_13
1002
{
1000
OWNER
1000
GEN
1002
}
1001
GENIUS_GENODEF_13
1002
{
1000
HIER
1070
    10
1002
}
1002
{
1000
MANEDIT
1070
     0
1002
}
1002
{
1000
NOSEL
1070
     0
1002
}
1002
{
1000
BEHIND
1070
     0
1002
}
1002
{
1000
OTHER
1070
     0
1002
}
1002
{
1000
REACTOR
1002
}
1001
GENIUS_GENOLIS_13
1002
{
1000
ENT
1005
522C
1005
522B
1005
522A
1005
5229
1002
}
  0
LINE
  5
535B
330
1F
100
AcDbEntity
  8
AM_VIS
100
AcDbLine
 10
2233.669823376289
 20
1300.927703905425
 30
0.0
 11
2265.669823376289
 21
1300.927703905425
 31
0.0
  0
LINE
  5
535C
330
1F
100
AcDbEntity
  8
AM_VIS
100
AcDbLine
 10
2233.669823376289
 20
1316.927703905425
 30
0.0
 11
2265.669823376289
 21
1316.927703905425
 31
0.0
  0
LINE
  5
535D
330
1F
100
AcDbEntity
  8
AM_VIS
100
AcDbLine
 10
2167.669823376289
 20
1316.927703905425
 30
0.0
 11
2165.669823376289
 21
1316.927703905425
 31
0.0
  0
LINE
  5
535E
330
1F
100
AcDbEntity
  8
AM_VIS
100
AcDbLine
 10
2167.669823376289
 20
1300.927703905425
 30
0.0
 11
2165.669823376289
 21
1300.927703905425
 31
0.0
  0
LINE
  5
535F
330
1F
100
AcDbEntity
  8
AM_VIS
100
AcDbLine
 10
2233.669823376289
 20
1220.927703905425
 30
0.0
 11
2265.669823376289
 21
1220.927703905425
 31
0.0
  0
LINE
  5
5360
330
1F
100
AcDbEntity
  8
AM_VIS
100
AcDbLine
 10
2233.669823376289
 20
1236.927703905425
 30
0.0
 11
2265.669823376289
 21
1236.927703905425
 31
0.0
  0
LINE
  5
5361
330
1F
100
AcDbEntity
  8
AM_VIS
100
AcDbLine
 10
2167.669823376289
 20
1236.927703905425
 30
0.0
 11
2165.669823376289
 21
1236.927703905425
 31
0.0
  0
LINE
  5
5362
330
1F
100
AcDbEntity
  8
AM_VIS
100
AcDbLine
 10
2167.669823376289
 20
1220.927703905425
 30
0.0
 11
2165.669823376289
 21
1220.927703905425
 31
0.0
  0
LINE
  5
5363
330
1F
100
AcDbEntity
  8
AM_VIS
100
AcDbLine
 10
2233.669823376289
 20
1139.937542774168
 30
0.0
 11
2265.669823376289
 21
1139.937542774168
 31
0.0
  0
LINE
  5
5364
330
1F
100
AcDbEntity
  8
AM_VIS
100
AcDbLine
 10
2233.669823376289
 20
1155.937542774168
 30
0.0
 11
2265.669823376289
 21
1155.937542774168
 31
0.0
  0
LINE
  5
5365
330
1F
100
AcDbEntity
  8
AM_VIS
100
AcDbLine
 10
2167.669823376289
 20
1155.937542774168
 30
0.0
 11
2165.669823376289
 21
1155.937542774168
 31
0.0
  0
LINE
  5
5366
330
1F
100
AcDbEntity
  8
AM_VIS
100
AcDbLine
 10
2167.669823376289
 20
1139.937542774168
 30
0.0
 11
2165.669823376289
 21
1139.937542774168
 31
0.0
  0
LINE
  5
5367
330
1F
100
AcDbEntity
  8
AM_VIS
100
AcDbLine
 10
2233.669823376289
 20
1053.907530246744
 30
0.0
 11
2265.669823376289
 21
1053.907530246744
 31
0.0
  0
LINE
  5
5368
330
1F
100
AcDbEntity
  8
AM_VIS
100
AcDbLine
 10
2233.669823376289
 20
1069.907530246744
 30
0.0
 11
2265.669823376289
 21
1069.907530246744
 31
0.0
  0
LINE
  5
5369
330
1F
100
AcDbEntity
  8
AM_VIS
100
AcDbLine
 10
2167.669823376289
 20
1069.907530246744
 30
0.0
 11
2165.669823376289
 21
1069.907530246744
 31
0.0
  0
LINE
  5
536A
330
1F
100
AcDbEntity
  8
AM_VIS
100
AcDbLine
 10
2167.669823376289
 20
1053.907530246744
 30
0.0
 11
2165.669823376289
 21
1053.907530246744
 31
0.0
  0
LINE
  5
536B
330
1F
100
AcDbEntity
  8
AM_VIS
100
AcDbLine
 10
2233.669823376289
 20
973.9075302467441
 30
0.0
 11
2265.669823376289
 21
973.9075302467441
 31
0.0
  0
LINE
  5
536C
330
1F
100
AcDbEntity
  8
AM_VIS
100
AcDbLine
 10
2233.669823376289
 20
989.9075302467441
 30
0.0
 11
2265.669823376289
 21
989.9075302467441
 31
0.0
  0
LINE
  5
536D
330
1F
100
AcDbEntity
  8
AM_VIS
100
AcDbLine
 10
2167.669823376289
 20
989.9075302467439
 30
0.0
 11
2165.669823376289
 21
989.9075302467439
 31
0.0
  0
LINE
  5
536E
330
1F
100
AcDbEntity
  8
AM_VIS
100
AcDbLine
 10
2167.669823376289
 20
973.9075302467441
 30
0.0
 11
2165.669823376289
 21
973.9075302467441
 31
0.0
  0
LINE
  5
536F
330
1F
100
AcDbEntity
  8
AM_VIS
100
AcDbLine
 10
2233.669823376289
 20
871.5690601050809
 30
0.0
 11
2265.669823376289
 21
871.5690601050809
 31
0.0
  0
LINE
  5
5370
330
1F
100
AcDbEntity
  8
AM_VIS
100
AcDbLine
 10
2233.669823376289
 20
887.5690601050809
 30
0.0
 11
2265.669823376289
 21
887.5690601050809
 31
0.0
  0
LINE
  5
5371
330
1F
100
AcDbEntity
  8
AM_VIS
100
AcDbLine
 10
2167.669823376289
 20
887.5690601050807
 30
0.0
 11
2165.669823376289
 21
887.5690601050807
 31
0.0
  0
LINE
  5
5372
330
1F
100
AcDbEntity
  8
AM_VIS
100
AcDbLine
 10
2167.669823376289
 20
871.5690601050809
 30
0.0
 11
2165.669823376289
 21
871.5690601050809
 31
0.0
  0
ENDSEC
  0
SECTION
  2
OBJECTS
  0
DICTIONARY
  5
C
330
0
100
AcDbDictionary
281
     1
  3
ACAD_COLOR
350
BE
  3
ACAD_GROUP
350
D
  3
ACAD_LAYOUT
350
1A
  3
ACAD_MATERIAL
350
BD
  3
ACAD_MLINESTYLE
350
17
  3
ACAD_PLOTSETTINGS
350
19
  3
ACAD_PLOTSTYLENAME
350
E
  3
ACAD_TABLESTYLE
350
11A
  3
ACDBHEADERROUNDTRIPXREC
350
5757
  3
AcDbVariableDictionary
350
94
  3
AcmDictionary
350
5B
  3
AMG
350
41
  3
AMGSNAPSETTINGS
350
1B8
  3
DWGPROPS
350
5756
  0
DICTIONARY
  5
3F9
330
2
100
AcDbDictionary
280
     1
281
     1
  3
ACAD_LAYERFILTERS
360
5B7
  3
ACAD_LAYERSTATES
360
71D
  3
ACLYDICTIONARY
360
5B6
  0
DICTIONARY
  5
8F
330
1F
100
AcDbDictionary
280
     1
281
     1
  3
ACAD_SORTENTS
360
136C
  0
DICTIONARY
  5
BE
102
{ACAD_REACTORS
330
C
102
}
330
C
100
AcDbDictionary
281
     1
  0
DICTIONARY
  5
D
102
{ACAD_REACTORS
330
C
102
}
330
C
100
AcDbDictionary
281
     1
  0
DICTIONARY
  5
1A
102
{ACAD_REACTORS
330
C
102
}
330
C
100
AcDbDictionary
281
     1
  3
Model
350
22
  3
配置1
350
1E
  3
配置2
350
26
  0
DICTIONARY
  5
BD
102
{ACAD_REACTORS
330
C
102
}
330
C
100
AcDbDictionary
281
     1
  0
DICTIONARY
  5
17
102
{ACAD_REACTORS
330
C
102
}
330
C
100
AcDbDictionary
281
     1
  3
Standard
350
18
  0
DICTIONARY
  5
19
102
{ACAD_REACTORS
330
C
102
}
330
C
100
AcDbDictionary
281
     1
  0
ACDBDICTIONARYWDFLT
  5
E
102
{ACAD_REACTORS
330
C
102
}
330
C
100
AcDbDictionary
281
     1
  3
Normal
350
F
100
AcDbDictionaryWithDefault
340
F
  0
DICTIONARY
  5
11A
102
{ACAD_REACTORS
330
C
102
}
330
C
100
AcDbDictionary
281
     1
  3
Standard
350
11B
  0
DICTIONARY
  5
5757
102
{ACAD_REACTORS
330
C
102
}
330
C
100
AcDbDictionary
281
     1
  0
DICTIONARY
  5
94
102
{ACAD_REACTORS
330
C
102
}
330
C
100
AcDbDictionary
281
     1
  3
CTABLESTYLE
350
138
  3
DIMASSOC
350
96
  3
INDEXCTL
350
95
  3
PROJECTNAME
350
5754
  0
DICTIONARY
  5
5B
102
{ACAD_REACTORS
330
C
102
}
330
C
100
AcDbDictionary
281
     1
  3
AcmBOM
350
1B5
  3
AcmStdDictionary
350
61
  3
AMDTSECTSYM_ARROWCOLOR
350
123
  0
DICTIONARY
  5
41
102
{ACAD_REACTORS
330
C
102
}
330
C
100
AcDbDictionary
281
     1
  0
DICTIONARY
  5
1B8
102
{ACAD_REACTORS
330
C
102
}
330
C
100
AcDbDictionary
281
     1
  0
XRECORD
  5
5756
102
{ACAD_REACTORS
330
C
102
}
330
C
100
AcDbXrecord
280
     1
  1
DWGPROPS COOKIE
  2

  3

  4

  6

  7

  8

  9

300
AmdtFileType=84
301
=
302
=
303
=
304
=
305
=
306
=
307
=
308
=
309
=
 40
0.412452962962963
 41
2453580.633342373
 42
2453584.699418762
  1

 90
        1
  0
DICTIONARY
  5
5B7
102
{ACAD_REACTORS
330
3F9
102
}
330
3F9
100
AcDbDictionary
281
     1
  0
DICTIONARY
  5
71D
102
{ACAD_REACTORS
330
3F9
102
}
330
3F9
100
AcDbDictionary
281
     1
  0
DICTIONARY
  5
5B6
102
{ACAD_REACTORS
330
3F9
102
}
330
3F9
100
AcDbDictionary
281
     1
1001
ACAD
1000
<All
  0
SORTENTSTABLE
  5
136C
102
{ACAD_REACTORS
330
8F
102
}
330
8F
100
AcDbSortentsTable
330
1F
331
4EA0
  5
4EA0
331
4D93
  5
4D93
331
4E49
  5
4E49
331
4DA3
  5
4DA3
331
4D44
  5
4D44
331
4CCD
  5
4CCD
331
4E59
  5
4E59
331
4CD5
  5
4CD5
331
4E12
  5
4E12
331
4CE5
  5
4CE5
331
4BD0
  5
4BD0
331
4B91
  5
4B91
331
4B5A
  5
4B5A
331
4C5E
  5
4C5E
331
4BD8
  5
4BD8
331
4B62
  5
4B62
331
E97
  5
E97
331
4C1F
  5
4C1F
331
4BE0
  5
4BE0
331
4BA1
  5
4BA1
331
4B6A
  5
4B6A
331
E60
  5
E60
331
F16
  5
F16
331
4C86
  5
4C86
331
4BE8
  5
4BE8
331
4BA9
  5
4BA9
331
4B72
  5
4B72
331
4B23
  5
4B23
331
ED7
  5
ED7
331
4C8E
  5
4C8E
331
4C2F
  5
4C2F
331
EDF
  5
EDF
331
4E22
  5
4E22
331
4D7C
  5
4D7C
331
4D15
  5
4D15
331
4DDB
  5
4DDB
331
4D25
  5
4D25
331
4E91
  5
4E91
331
4DEB
  5
4DEB
331
4BF0
  5
4BF0
331
4BB1
  5
4BB1
331
4B7A
  5
4B7A
331
4B2B
  5
4B2B
331
E78
  5
E78
331
4BF8
  5
4BF8
331
4BB9
  5
4BB9
331
1CA4
  5
1CA4
331
EE7
  5
EE7
331
4CB6
  5
4CB6
331
4C00
  5
4C00
331
4BC1
  5
4BC1
331
4B8A
  5
4B8A
331
2744
  5
2744
331
4C47
  5
4C47
331
EEF
  5
EEF
331
E88
  5
E88
331
E41
  5
E41
331
4BC9
  5
4BC9
331
4B53
  5
4B53
331
EF7
  5
EF7
331
E49
  5
E49
331
4C57
  5
4C57
331
EFF
  5
EFF
331
4EA1
  5
4EA1
331
4D94
  5
4D94
331
4DA4
  5
4DA4
331
4E5A
  5
4E5A
331
4E6A
  5
4E6A
331
4BD1
  5
4BD1
331
4B92
  5
4B92
331
4B5B
  5
4B5B
331
E59
  5
E59
331
4C5F
  5
4C5F
331
4BD9
  5
4BD9
331
4B63
  5
4B63
331
E90
  5
E90
331
E61
  5
E61
331
4BE1
  5
4BE1
331
4BA2
  5
4BA2
331
4B6B
  5
4B6B
331
4C20
  5
4C20
331
4C87
  5
4C87
331
4BE9
  5
4BE9
331
4BAA
  5
4BAA
331
4B73
  5
4B73
331
4B24
  5
4B24
331
ED8
  5
ED8
331
4C8F
  5
4C8F
331
4E23
  5
4E23
331
4D0E
  5
4D0E
331
4D7D
  5
4D7D
331
4DDC
  5
4DDC
331
4D26
  5
4D26
331
4DEC
  5
4DEC
331
4C30
  5
4C30
331
4BF1
  5
4BF1
331
4BB2
  5
4BB2
331
4B7B
  5
4B7B
331
4B2C
  5
4B2C
331
EE0
  5
EE0
331
4BF9
  5
4BF9
331
4BBA
  5
4BBA
331
E79
  5
E79
331
EE8
  5
EE8
331
4BC2
  5
4BC2
331
4B8B
  5
4B8B
331
2745
  5
2745
331
4C48
  5
4C48
331
EF0
  5
EF0
331
E42
  5
E42
331
4CBF
  5
4CBF
331
4BCA
  5
4BCA
331
4B54
  5
4B54
331
EF8
  5
EF8
331
E4A
  5
E4A
331
4EA2
  5
4EA2
331
4DA5
  5
4DA5
331
4CCF
  5
4CCF
331
4E5B
  5
4E5B
331
4DB5
  5
4DB5
331
4E6B
  5
4E6B
331
4D5E
  5
4D5E
331
4C58
  5
4C58
331
4C11
  5
4C11
331
4BD2
  5
4BD2
331
4B93
  5
4B93
331
4B5C
  5
4B5C
331
F00
  5
F00
331
E91
  5
E91
331
4C60
  5
4C60
331
4BDA
  5
4BDA
331
4B9B
  5
4B9B
331
4B64
  5
4B64
331
E5A
  5
E5A
331
4BA3
  5
4BA3
331
4B6C
  5
4B6C
331
E62
  5
E62
331
E6A
  5
E6A
331
4C88
  5
4C88
331
4BEA
  5
4BEA
331
4BAB
  5
4BAB
331
4B74
  5
4B74
331
4B25
  5
4B25
331
ED9
  5
ED9
331
4E24
  5
4E24
331
4D0F
  5
4D0F
331
4E34
  5
4E34
331
4D7E
  5
4D7E
331
4D27
  5
4D27
331
4DED
  5
4DED
331
4C90
  5
4C90
331
4C31
  5
4C31
331
4BF2
  5
4BF2
331
4BB3
  5
4BB3
331
4B7C
  5
4B7C
331
4B2D
  5
4B2D
331
EE1
  5
EE1
331
4BFA
  5
4BFA
331
4BBB
  5
4BBB
331
E7A
  5
E7A
331
EE9
  5
EE9
331
E82
  5
E82
331
4CB8
  5
4CB8
331
4C49
  5
4C49
331
4B8C
  5
4B8C
331
4BC3
  5
4BC3
331
EF1
  5
EF1
331
E43
  5
E43
331
4BCB
  5
4BCB
331
4B55
  5
4B55
331
EF9
  5
EF9
331
E4B
  5
E4B
331
4CC0
  5
4CC0
331
4EA3
  5
4EA3
331
4DFD
  5
4DFD
331
4D37
  5
4D37
331
4DA6
  5
4DA6
331
4DB6
  5
4DB6
331
4E6C
  5
4E6C
331
4C59
  5
4C59
331
4C12
  5
4C12
331
4BD3
  5
4BD3
331
4B94
  5
4B94
331
4B5D
  5
4B5D
331
F01
  5
F01
331
E92
  5
E92
331
4C61
  5
4C61
331
4B9C
  5
4B9C
331
4B65
  5
4B65
331
E5B
  5
E5B
331
E63
  5
E63
331
4B6D
  5
4B6D
331
4BA4
  5
4BA4
331
ED2
  5
ED2
331
4C89
  5
4C89
331
4BEB
  5
4BEB
331
4BAC
  5
4BAC
331
4B75
  5
4B75
331
4B26
  5
4B26
331
EDA
  5
EDA
331
E73
  5
E73
331
4E7C
  5
4E7C
331
4D10
  5
4D10
331
4E35
  5
4E35
331
4D7F
  5
4D7F
331
4D28
  5
4D28
331
4DEE
  5
4DEE
331
4C91
  5
4C91
331
4C32
  5
4C32
331
4BF3
  5
4BF3
331
4B7D
  5
4B7D
331
4B2E
  5
4B2E
331
4BBC
  5
4BBC
331
4B85
  5
4B85
331
1CA7
  5
1CA7
331
EE2
  5
EE2
331
EEA
  5
EEA
331
E3C
  5
E3C
331
4BC4
  5
4BC4
331
4B8D
  5
4B8D
331
EF2
  5
EF2
331
E44
  5
E44
331
4C52
  5
4C52
331
4BCC
  5
4BCC
331
4B56
  5
4B56
331
EFA
  5
EFA
331
E4C
  5
E4C
331
4CC1
  5
4CC1
331
4DFE
  5
4DFE
331
4DB7
  5
4DB7
331
4CE1
  5
4CE1
331
4E6D
  5
4E6D
331
4C5A
  5
4C5A
331
4C13
  5
4C13
331
4BD4
  5
4BD4
331
4B95
  5
4B95
331
4B5E
  5
4B5E
331
F02
  5
F02
331
4C62
  5
4C62
331
4B9D
  5
4B9D
331
4B66
  5
4B66
331
E93
  5
E93
331
E9B
  5
E9B
331
E64
  5
E64
331
4BA5
  5
4BA5
331
4B6E
  5
4B6E
331
ED3
  5
ED3
331
4C8A
  5
4C8A
331
4C2B
  5
4C2B
331
4BEC
  5
4BEC
331
4B76
  5
4B76
331
4B27
  5
4B27
331
EDB
  5
EDB
331
E74
  5
E74
331
4E7D
  5
4E7D
331
4DC7
  5
4DC7
331
4D78
  5
4D78
331
4D11
  5
4D11
331
4E36
  5
4E36
331
4D80
  5
4D80
331
4D29
  5
4D29
331
4C92
  5
4C92
331
4BF4
  5
4BF4
331
4B7E
  5
4B7E
331
4B2F
  5
4B2F
331
4BBD
  5
4BBD
331
4B86
  5
4B86
331
4B47
  5
4B47
331
EE3
  5
EE3
331
EEB
  5
EEB
331
E3D
  5
E3D
331
4CBA
  5
4CBA
331
4BC5
  5
4BC5
331
4B8E
  5
4B8E
331
EF3
  5
EF3
331
E8C
  5
E8C
331
E45
  5
E45
331
4C53
  5
4C53
331
4BCD
  5
4BCD
331
4B57
  5
4B57
331
EFB
  5
EFB
331
E4D
  5
E4D
331
4CC2
  5
4CC2
331
4E46
  5
4E46
331
4DFF
  5
4DFF
331
4D51
  5
4D51
331
4E0F
  5
4E0F
331
4CE2
  5
4CE2
331
4DB8
  5
4DB8
331
4C5B
  5
4C5B
331
4BD5
  5
4BD5
331
4B96
  5
4B96
331
4B5F
  5
4B5F
331
F03
  5
F03
331
4C63
  5
4C63
331
4C1C
  5
4C1C
331
4B9E
  5
4B9E
331
4B67
  5
4B67
331
E94
  5
E94
331
E65
  5
E65
331
4BA6
  5
4BA6
331
4B6F
  5
4B6F
331
4B20
  5
4B20
331
ED4
  5
ED4
331
4C8B
  5
4C8B
331
4C2C
  5
4C2C
331
4BED
  5
4BED
331
4B77
  5
4B77
331
EDC
  5
EDC
331
E75
  5
E75
331
4E7E
  5
4E7E
331
4DC8
  5
4DC8
331
4D79
  5
4D79
331
4D12
  5
4D12
331
4E37
  5
4E37
331
4D81
  5
4D81
331
4D22
  5
4D22
331
4D2A
  5
4D2A
331
4E8E
  5
4E8E
331
4B28
  5
4B28
331
4C93
  5
4C93
331
4BF5
  5
4BF5
331
4B7F
  5
4B7F
331
4BFD
  5
4BFD
331
4BBE
  5
4BBE
331
4B87
  5
4B87
331
4B48
  5
4B48
331
EE4
  5
EE4
331
EEC
  5
EEC
331
E3E
  5
E3E
331
4CBB
  5
4CBB
331
4BC6
  5
4BC6
331
4B8F
  5
4B8F
331
EF4
  5
EF4
331
E8D
  5
E8D
331
E46
  5
E46
331
4C54
  5
4C54
331
4BCE
  5
4BCE
331
EFC
  5
EFC
331
E4E
  5
E4E
331
4D91
  5
4D91
331
4CC3
  5
4CC3
331
4E47
  5
4E47
331
4E00
  5
4E00
331
4CD3
  5
4CD3
331
4CE3
  5
4CE3
331
4E10
  5
4E10
331
4B58
  5
4B58
331
4C5C
  5
4C5C
331
4BD6
  5
4BD6
331
4B97
  5
4B97
331
4B60
  5
4B60
331
F04
  5
F04
331
E95
  5
E95
331
4C64
  5
4C64
331
4C1D
  5
4C1D
331
4B9F
  5
4B9F
331
4B68
  5
4B68
331
E5E
  5
E5E
331
F14
  5
F14
331
E66
  5
E66
331
4BA7
  5
4BA7
331
4B70
  5
4B70
331
4B21
  5
4B21
331
ED5
  5
ED5
331
E6E
  5
E6E
331
4C8C
  5
4C8C
331
4C2D
  5
4C2D
331
4BEE
  5
4BEE
331
EDD
  5
EDD
331
E76
  5
E76
331
4E7F
  5
4E7F
331
4DC9
  5
4DC9
331
4D7A
  5
4D7A
331
4D13
  5
4D13
331
4DD9
  5
4DD9
331
4D23
  5
4D23
331
4E8F
  5
4E8F
331
4B78
  5
4B78
331
4B29
  5
4B29
331
4C94
  5
4C94
331
4BF6
  5
4BF6
331
4B80
  5
4B80
331
EE5
  5
EE5
331
E7E
  5
E7E
331
4CB4
  5
4CB4
331
4C45
  5
4C45
331
4BFE
  5
4BFE
331
4BBF
  5
4BBF
331
4B88
  5
4B88
331
4B49
  5
4B49
331
E1F
  5
E1F
331
EED
  5
EED
331
E86
  5
E86
331
E3F
  5
E3F
331
4BC7
  5
4BC7
331
4B51
  5
4B51
331
EF5
  5
EF5
331
E8E
  5
E8E
331
E47
  5
E47
331
4C55
  5
4C55
331
4BCF
  5
4BCF
331
EFD
  5
EFD
331
4D92
  5
4D92
331
4CC4
  5
4CC4
331
4E48
  5
4E48
331
4E58
  5
4E58
331
4E11
  5
4E11
331
4CE4
  5
4CE4
331
4B90
  5
4B90
331
4B59
  5
4B59
331
4C5D
  5
4C5D
331
4BD7
  5
4BD7
331
4B98
  5
4B98
331
4B61
  5
4B61
331
E96
  5
E96
331
4C1E
  5
4C1E
331
4BDF
  5
4BDF
331
4BA0
  5
4BA0
331
4B69
  5
4B69
331
E5F
  5
E5F
331
F15
  5
F15
331
4C85
  5
4C85
331
4BE7
  5
4BE7
331
4BA8
  5
4BA8
331
4B71
  5
4B71
331
4B22
  5
4B22
331
ED6
  5
ED6
331
E6F
  5
E6F
331
4C8D
  5
4C8D
331
4C2E
  5
4C2E
331
4BEF
  5
4BEF
331
EDE
  5
EDE
331
E77
  5
E77
331
4E21
  5
4E21
331
4D6B
  5
4D6B
331
4DCA
  5
4DCA
331
4D7B
  5
4D7B
331
4D14
  5
4D14
331
4DDA
  5
4DDA
331
4D24
  5
4D24
331
4E90
  5
4E90
331
4B79
  5
4B79
331
4B2A
  5
4B2A
331
4BF7
  5
4BF7
331
1CA3
  5
1CA3
331
4C46
  5
4C46
331
4BFF
  5
4BFF
331
4BC0
  5
4BC0
331
4B89
  5
4B89
331
4B4A
  5
4B4A
331
EE6
  5
EE6
331
EEE
  5
EEE
331
E87
  5
E87
331
E40
  5
E40
331
4CBD
  5
4CBD
331
4BC8
  5
4BC8
331
4B52
  5
4B52
331
EF6
  5
EF6
331
E8F
  5
E8F
331
E48
  5
E48
331
4C56
  5
4C56
331
EFE
  5
EFE
  0
LAYOUT
  5
22
102
{ACAD_XDICTIONARY
360
575A
102
}
102
{ACAD_REACTORS
330
1A
102
}
330
1A
100
AcDbPlotSettings
  1

  2
\\RD\EPSON Stylus C63 Series單色
  4
A4
  6

 40
3.757083177566528
 41
3.757076978683471
 42
3.757080078125
 43
3.757080078125
 44
209.9733276367187
 45
296.9683227539062
 46
0.0
 47
0.0
 48
0.0
 49
0.0
140
0.0
141
0.0
142
1.0
143
0.3405120737814363
 70
 11952
 72
     1
 73
     0
 74
     0
  7
單色出圖.ctb
 75
     0
147
2.936753428137963
148
-2047.07469463503
149
-1261.649717473083
100
AcDbLayout
  1
Model
 70
     1
 71
     0
 10
0.0
 20
0.0
 11
12.0
 21
9.0
 12
0.0
 22
0.0
 32
0.0
 14
0.0
 24
0.0
 34
0.0
 15
0.0
 25
0.0
 35
0.0
146
0.0
 13
0.0
 23
0.0
 33
0.0
 16
1.0
 26
0.0
 36
0.0
 17
0.0
 27
1.0
 37
0.0
 76
     0
330
1F
1001
ACAD_PSEXT
1000
\\RD\EPSON Stylus C63 Series單色
1000
EPSON Stylus C63 Series
1000
\\RD
1000

1070
     0
  0
LAYOUT
  5
1E
102
{ACAD_XDICTIONARY
360
5758
102
}
102
{ACAD_REACTORS
330
1A
102
}
330
1A
100
AcDbPlotSettings
  1

  2

  4

  6

 40
0.0
 41
0.0
 42
0.0
 43
0.0
 44
0.0
 45
0.0
 46
0.0
 47
0.0
 48
0.0
 49
0.0
140
0.0
141
0.0
142
1.0
143
1.0
 70
   688
 72
     0
 73
     0
 74
     5
  7
單色出圖.ctb
 75
    16
147
1.0
148
0.0
149
0.0
100
AcDbLayout
  1
配置1
 70
     1
 71
     1
 10
0.0
 20
0.0
 11
420.0
 21
297.0
 12
0.0
 22
0.0
 32
0.0
 14
1.000000000000000E+20
 24
1.000000000000000E+20
 34
1.000000000000000E+20
 15
-1.000000000000000E+20
 25
-1.000000000000000E+20
 35
-1.000000000000000E+20
146
0.0
 13
0.0
 23
0.0
 33
0.0
 16
1.0
 26
0.0
 36
0.0
 17
0.0
 27
1.0
 37
0.0
 76
     0
330
1B
  0
LAYOUT
  5
26
102
{ACAD_XDICTIONARY
360
575C
102
}
102
{ACAD_REACTORS
330
1A
102
}
330
1A
100
AcDbPlotSettings
  1

  2

  4

  6

 40
0.0
 41
0.0
 42
0.0
 43
0.0
 44
0.0
 45
0.0
 46
0.0
 47
0.0
 48
0.0
 49
0.0
140
0.0
141
0.0
142
1.0
143
1.0
 70
   688
 72
     0
 73
     0
 74
     5
  7
單色出圖.ctb
 75
    16
147
1.0
148
0.0
149
0.0
100
AcDbLayout
  1
配置2
 70
     1
 71
     2
 10
0.0
 20
0.0
 11
12.0
 21
9.0
 12
0.0
 22
0.0
 32
0.0
 14
0.0
 24
0.0
 34
0.0
 15
0.0
 25
0.0
 35
0.0
146
0.0
 13
0.0
 23
0.0
 33
0.0
 16
1.0
 26
0.0
 36
0.0
 17
0.0
 27
1.0
 37
0.0
 76
     0
330
23
  0
MLINESTYLE
  5
18
102
{ACAD_REACTORS
330
17
102
}
330
17
100
AcDbMlineStyle
  2
STANDARD
 70
     0
  3

 62
   256
 51
90.0
 52
90.0
 71
     2
 49
0.5
 62
   256
  6
BYLAYER
 49
-0.5
 62
   256
  6
BYLAYER
  0
ACDBPLACEHOLDER
  5
F
102
{ACAD_REACTORS
330
E
102
}
330
E
  0
TABLESTYLE
  5
11B
102
{ACAD_REACTORS
330
11A
102
}
330
11A
100
AcDbTableStyle
  3
Standard
 70
     0
 71
     0
 40
1.5
 41
1.5
280
     0
281
     0
  7
STANDARD
140
4.5
170
     2
 62
     0
 63
     7
283
     0
274
    -2
284
     1
 64
     0
275
    -2
285
     1
 65
     0
276
    -2
286
     1
 66
     0
277
    -2
287
     1
 67
     0
278
    -2
288
     1
 68
     0
279
    -2
289
     1
 69
     0
  7
STANDARD
140
6.0
170
     5
 62
     0
 63
     7
283
     0
274
    -2
284
     1
 64
     0
275
    -2
285
     1
 65
     0
276
    -2
286
     1
 66
     0
277
    -2
287
     1
 67
     0
278
    -2
288
     1
 68
     0
279
    -2
289
     1
 69
     0
  7
STANDARD
140
4.5
170
     5
 62
     0
 63
     7
283
     0
274
    -2
284
     1
 64
     0
275
    -2
285
     1
 65
     0
276
    -2
286
     1
 66
     0
277
    -2
287
     1
 67
     0
278
    -2
288
     1
 68
     0
279
    -2
289
     1
 69
     0
  0
DICTIONARYVAR
  5
138
102
{ACAD_REACTORS
330
94
102
}
330
94
100
DictionaryVariables
280
     0
  1
STANDARD
  0
DICTIONARYVAR
  5
96
102
{ACAD_REACTORS
330
94
102
}
330
94
100
DictionaryVariables
280
     0
  1
2
  0
DICTIONARYVAR
  5
95
102
{ACAD_REACTORS
330
94
102
}
330
94
100
DictionaryVariables
280
     0
  1
0
  0
DICTIONARYVAR
  5
5754
102
{ACAD_REACTORS
330
94
102
}
330
94
100
DictionaryVariables
280
     0
  1

  0
DICTIONARY
  5
1B5
102
{ACAD_REACTORS
330
5B
102
}
330
5B
100
AcDbDictionary
281
     1
  0
DICTIONARY
  5
61
102
{ACAD_REACTORS
330
5B
102
}
330
5B
100
AcDbDictionary
281
     1
  0
XRECORD
  5
123
102
{ACAD_REACTORS
330
5B
102
}
330
5B
100
AcDbXrecord
280
     1
 90
-1023410169
  0
DICTIONARY
  5
575A
330
22
100
AcDbDictionary
280
     1
281
     1
  3
ACAD_XREC_ROUNDTRIP
360
575B
  0
DICTIONARY
  5
5758
330
1E
100
AcDbDictionary
280
     1
281
     1
  3
ACAD_XREC_ROUNDTRIP
360
5759
  0
DICTIONARY
  5
575C
330
26
100
AcDbDictionary
280
     1
281
     1
  3
ACAD_XREC_ROUNDTRIP
360
575D
  0
XRECORD
  5
575B
102
{ACAD_REACTORS
330
575A
102
}
330
575A
100
AcDbXrecord
280
     1
102
SHADEPLOT
 70
     0
102
SHADEPLOTRESLEVEL
 70
     2
102
SHADEPLOTCUSTOMDPI
 70
   300
  0
XRECORD
  5
5759
102
{ACAD_REACTORS
330
5758
102
}
330
5758
100
AcDbXrecord
280
     1
102
SHADEPLOT
 70
     0
102
SHADEPLOTRESLEVEL
 70
     2
102
SHADEPLOTCUSTOMDPI
 70
   300
  0
XRECORD
  5
575D
102
{ACAD_REACTORS
330
575C
102
}
330
575C
100
AcDbXrecord
280
     1
102
SHADEPLOT
 70
     0
102
SHADEPLOTRESLEVEL
 70
     2
102
SHADEPLOTCUSTOMDPI
 70
   300
  0
ENDSEC
  0
EOF
