  0
SECTION
  2
HEADER
  9
$ACADVER
  1
AC1015
  9
$ACADMAINTVER
 70
    20
  9
$DWGCODEPAGE
  3
ANSI_950
  9
$INSBASE
 10
0.0
 20
0.0
 30
0.0
  9
$EXTMIN
 10
2764.177262708487
 20
1308.90997609227
 30
-0.0204044277198818
  9
$EXTMAX
 10
3285.847843449443
 20
1979.402413839223
 30
341.7009387947294
  9
$LIMMIN
 10
0.0
 20
0.0
  9
$LIMMAX
 10
420.0
 20
297.0
  9
$ORTHOMODE
 70
     1
  9
$REGENMODE
 70
     1
  9
$FILLMODE
 70
     1
  9
$QTEXTMODE
 70
     0
  9
$MIRRTEXT
 70
     1
  9
$LTSCALE
 40
1.0
  9
$ATTMODE
 70
     1
  9
$TEXTSIZE
 40
3.0
  9
$TRACEWID
 40
1.0
  9
$TEXTSTYLE
  7
CHINESET
  9
$CLAYER
  8
0
  9
$CELTYPE
  6
ByLayer
  9
$CECOLOR
 62
   256
  9
$CELTSCALE
 40
1.0
  9
$DISPSILH
 70
     0
  9
$DIMSCALE
 40
1.0
  9
$DIMASZ
 40
3.0
  9
$DIMEXO
 40
1.0
  9
$DIMDLI
 40
18.0
  9
$DIMRND
 40
0.0
  9
$DIMDLE
 40
0.0
  9
$DIMEXE
 40
1.5
  9
$DIMTP
 40
0.1
  9
$DIMTM
 40
0.1
  9
$DIMTXT
 40
3.0
  9
$DIMCEN
 40
0.0
  9
$DIMTSZ
 40
0.0
  9
$DIMTOL
 70
     0
  9
$DIMLIM
 70
     0
  9
$DIMTIH
 70
     0
  9
$DIMTOH
 70
     0
  9
$DIMSE1
 70
     0
  9
$DIMSE2
 70
     0
  9
$DIMTAD
 70
     1
  9
$DIMZIN
 70
     8
  9
$DIMBLK
  1

  9
$DIMASO
 70
     1
  9
$DIMSHO
 70
     1
  9
$DIMPOST
  1

  9
$DIMAPOST
  1
"
  9
$DIMALT
 70
     0
  9
$DIMALTD
 70
     2
  9
$DIMALTF
 40
0.0393701
  9
$DIMLFAC
 40
1.0
  9
$DIMTOFL
 70
     1
  9
$DIMTVP
 40
0.0
  9
$DIMTIX
 70
     0
  9
$DIMSOXD
 70
     0
  9
$DIMSAH
 70
     0
  9
$DIMBLK1
  1

  9
$DIMBLK2
  1

  9
$DIMSTYLE
  2
AM_ISO
  9
$DIMCLRD
 70
   256
  9
$DIMCLRE
 70
   256
  9
$DIMCLRT
 70
   256
  9
$DIMTFAC
 40
0.6
  9
$DIMGAP
 40
1.0
  9
$DIMJUST
 70
     0
  9
$DIMSD1
 70
     0
  9
$DIMSD2
 70
     0
  9
$DIMTOLJ
 70
     0
  9
$DIMTZIN
 70
     8
  9
$DIMALTZ
 70
     0
  9
$DIMALTTZ
 70
     0
  9
$DIMUPT
 70
     0
  9
$DIMDEC
 70
     2
  9
$DIMTDEC
 70
     8
  9
$DIMALTU
 70
     2
  9
$DIMALTTD
 70
     2
  9
$DIMTXSTY
  7
STANDARD
  9
$DIMAUNIT
 70
     0
  9
$DIMADEC
 70
     0
  9
$DIMALTRND
 40
0.0
  9
$DIMAZIN
 70
     2
  9
$DIMDSEP
 70
    46
  9
$DIMATFIT
 70
     3
  9
$DIMFRAC
 70
     0
  9
$DIMLDRBLK
  1

  9
$DIMLUNIT
 70
     2
  9
$DIMLWD
 70
    -1
  9
$DIMLWE
 70
    -1
  9
$DIMTMOVE
 70
     0
  9
$LUNITS
 70
     2
  9
$LUPREC
 70
     2
  9
$SKETCHINC
 40
1.0
  9
$FILLETRAD
 40
2.5
  9
$AUNITS
 70
     0
  9
$AUPREC
 70
     0
  9
$MENU
  1
.
  9
$ELEVATION
 40
0.0
  9
$PELEVATION
 40
0.0
  9
$THICKNESS
 40
0.0
  9
$LIMCHECK
 70
     0
  9
$CHAMFERA
 40
2.5
  9
$CHAMFERB
 40
2.5
  9
$CHAMFERC
 40
20.0
  9
$CHAMFERD
 40
0.0
  9
$SKPOLY
 70
     0
  9
$TDCREATE
 40
2453809.488480533
  9
$TDUCREATE
 40
2453809.155147199
  9
$TDUPDATE
 40
2453815.443258634
  9
$TDUUPDATE
 40
2453815.109925301
  9
$TDINDWG
 40
0.2160563542
  9
$TDUSRTIMER
 40
0.2160563542
  9
$USRTIMER
 70
     1
  9
$ANGBASE
 50
0.0
  9
$ANGDIR
 70
     0
  9
$PDMODE
 70
     0
  9
$PDSIZE
 40
0.0
  9
$PLINEWID
 40
0.0
  9
$SPLFRAME
 70
     0
  9
$SPLINETYPE
 70
     6
  9
$SPLINESEGS
 70
     8
  9
$HANDSEED
  5
2914
  9
$SURFTAB1
 70
     6
  9
$SURFTAB2
 70
     6
  9
$SURFTYPE
 70
     6
  9
$SURFU
 70
     6
  9
$SURFV
 70
     6
  9
$UCSBASE
  2

  9
$UCSNAME
  2

  9
$UCSORG
 10
0.0
 20
0.0
 30
0.0
  9
$UCSXDIR
 10
1.0
 20
0.0
 30
0.0
  9
$UCSYDIR
 10
0.0
 20
1.0
 30
0.0
  9
$UCSORTHOREF
  2

  9
$UCSORTHOVIEW
 70
     0
  9
$UCSORGTOP
 10
0.0
 20
0.0
 30
0.0
  9
$UCSORGBOTTOM
 10
0.0
 20
0.0
 30
0.0
  9
$UCSORGLEFT
 10
0.0
 20
0.0
 30
0.0
  9
$UCSORGRIGHT
 10
0.0
 20
0.0
 30
0.0
  9
$UCSORGFRONT
 10
0.0
 20
0.0
 30
0.0
  9
$UCSORGBACK
 10
0.0
 20
0.0
 30
0.0
  9
$PUCSBASE
  2

  9
$PUCSNAME
  2

  9
$PUCSORG
 10
0.0
 20
0.0
 30
0.0
  9
$PUCSXDIR
 10
1.0
 20
0.0
 30
0.0
  9
$PUCSYDIR
 10
0.0
 20
1.0
 30
0.0
  9
$PUCSORTHOREF
  2

  9
$PUCSORTHOVIEW
 70
     0
  9
$PUCSORGTOP
 10
0.0
 20
0.0
 30
0.0
  9
$PUCSORGBOTTOM
 10
0.0
 20
0.0
 30
0.0
  9
$PUCSORGLEFT
 10
0.0
 20
0.0
 30
0.0
  9
$PUCSORGRIGHT
 10
0.0
 20
0.0
 30
0.0
  9
$PUCSORGFRONT
 10
0.0
 20
0.0
 30
0.0
  9
$PUCSORGBACK
 10
0.0
 20
0.0
 30
0.0
  9
$USERI1
 70
     0
  9
$USERI2
 70
     0
  9
$USERI3
 70
     0
  9
$USERI4
 70
     0
  9
$USERI5
 70
     0
  9
$USERR1
 40
0.0
  9
$USERR2
 40
0.0
  9
$USERR3
 40
0.0
  9
$USERR4
 40
0.0
  9
$USERR5
 40
0.0
  9
$WORLDVIEW
 70
     1
  9
$SHADEDGE
 70
     3
  9
$SHADEDIF
 70
    70
  9
$TILEMODE
 70
     1
  9
$MAXACTVP
 70
    64
  9
$PINSBASE
 10
0.0
 20
0.0
 30
0.0
  9
$PLIMCHECK
 70
     0
  9
$PEXTMIN
 10
1.000000000000000E+20
 20
1.000000000000000E+20
 30
1.000000000000000E+20
  9
$PEXTMAX
 10
-1.000000000000000E+20
 20
-1.000000000000000E+20
 30
-1.000000000000000E+20
  9
$PLIMMIN
 10
0.0
 20
0.0
  9
$PLIMMAX
 10
420.0
 20
297.0
  9
$UNITMODE
 70
     0
  9
$VISRETAIN
 70
     1
  9
$PLINEGEN
 70
     0
  9
$PSLTSCALE
 70
     1
  9
$TREEDEPTH
 70
  3020
  9
$CMLSTYLE
  2
Standard
  9
$CMLJUST
 70
     0
  9
$CMLSCALE
 40
20.0
  9
$PROXYGRAPHICS
 70
     1
  9
$MEASUREMENT
 70
     1
  9
$CELWEIGHT
370
    -1
  9
$ENDCAPS
280
     0
  9
$JOINSTYLE
280
     0
  9
$LWDISPLAY
290
     0
  9
$INSUNITS
 70
     4
  9
$HYPERLINKBASE
  1

  9
$STYLESHEET
  1
彩色出圖.ctb
  9
$XEDIT
290
     1
  9
$CEPSNTYPE
380
     0
  9
$PSTYLEMODE
290
     1
  9
$FINGERPRINTGUID
  2
{5D7CF7E5-09B4-4001-B38A-9C16224019A8}
  9
$VERSIONGUID
  2
{5C79ED15-A64A-420F-AB13-458896DFE2B0}
  9
$EXTNAMES
290
     1
  9
$PSVPSCALE
 40
0.0
  9
$OLESTARTUP
290
     0
  0
ENDSEC
  0
SECTION
  2
CLASSES
  0
CLASS
  1
ACDBDICTIONARYWDFLT
  2
AcDbDictionaryWithDefault
  3
ObjectDBX Classes
 90
        0
280
     0
281
     0
  0
CLASS
  1
ACDBPLACEHOLDER
  2
AcDbPlaceHolder
  3
ObjectDBX Classes
 90
        0
280
     0
281
     0
  0
CLASS
  1
LAYOUT
  2
AcDbLayout
  3
ObjectDBX Classes
 90
        0
280
     0
281
     0
  0
CLASS
  1
ACME_DOCUMENT
  2
AcMeDbDoc
  3
AcMeServices
 90
        0
280
     0
281
     0
  0
CLASS
  1
AMGSETTINGSOBJ
  2
AmgSettingsObj
  3
"AcadM|Product Description: AutoCAD Mechanical 2000|Company: Autodesk"
 90
        0
280
     0
281
     0
  0
CLASS
  1
ACMESCOPE
  2
AcMeScope
  3
AcMeServices
 90
        0
280
     0
281
     0
  0
CLASS
  1
ACMECOMMANDHISTORY
  2
AcMeCommandHistory
  3
AcMeServices
 90
        0
280
     0
281
     0
  0
CLASS
  1
ACIMSYSVARMAN
  2
AcImSysVarManager
  3
AcMeServices
 90
        0
280
     0
281
     0
  0
CLASS
  1
ACIMREALSYSVAR
  2
AcImRealSysVar
  3
AcMeServices
 90
        0
280
     0
281
     0
  0
CLASS
  1
ACIMINTSYSVAR
  2
AcImIntSysVar
  3
AcMeServices
 90
        0
280
     0
281
     0
  0
CLASS
  1
ACMEDRAWINGMAN
  2
AcMeDrawingMan
  3
AcMeServices
 90
        0
280
     0
281
     0
  0
CLASS
  1
ACMEVIEW
  2
AcMeView
  3
AcMeServices
 90
        0
280
     0
281
     0
  0
CLASS
  1
ACDBENTITYCACHE
  2
AcMeEntityCache
  3
AcMeServices
 90
        0
280
     0
281
     0
  0
CLASS
  1
GSMANAGER
  2
AcMeGSManager
  3
AcMeServices
 90
        0
280
     0
281
     0
  0
CLASS
  1
AMDTINTERNALREACTOR
  2
AmdtInternalReactor
  3
AcMeServices
 90
        0
280
     0
281
     0
  0
CLASS
  1
ACMESTATEMGR
  2
AcMeStateMgr
  3
AcMeServices
 90
        0
280
     0
281
     0
  0
CLASS
  1
ACGREFMASTER
  2
AcGrefMaster
  3
AcAttribServices
 90
        0
280
     0
281
     0
  0
CLASS
  1
ACME_DATABASE
  2
AcMeDbDatabase
  3
AcMeServices
 90
        0
280
     0
281
     0
  0
CLASS
  1
ACRFINSADJUSTERMGR
  2
AcRfInsAdjusterMgr
  3
AcMeServices
 90
        0
280
     0
281
     0
  0
CLASS
  1
ACGREFACADMASTER
  2
AcGrefacadMaster
  3
AcGrefServices
 90
        0
280
     0
281
     0
  0
CLASS
  1
AMIMASTER
  2
AmiMaster
  3
AmiServices
 90
        0
280
     0
281
     0
  0
CLASS
  1
ACMDATADICTIONARY
  2
AcmDataDictionary
  3
"AcmSymBB|Product Description: AutoCAD Mechanical 2004 DX|Company: Autodesk"
 90
        0
280
     0
281
     0
  0
CLASS
  1
ACMDATAENTRYBLOCK
  2
AcmDataEntryBlock
  3
"AcmSymBB|Product Description: AutoCAD Mechanical 2004 DX|Company: Autodesk"
 90
        0
280
     0
281
     0
  0
CLASS
  1
ACIMSTRSYSVAR
  2
AcImStrSysVar
  3
AcMeServices
 90
        0
280
     0
281
     0
  0
CLASS
  1
ACMSTANDARDISO
  2
AcmStandardISO
  3
"Amdt_StdImp|Product Description: AutoCAD Mechanical 2004 DX|Company: Autodesk"
 90
        0
280
     0
281
     0
  0
CLASS
  1
AMGOBJPROPCFG
  2
AmgObjPropCfg
  3
"AmgLay|Product Description: AutoCAD Mechanical 2000|Company: Autodesk"
 90
        1
280
     0
281
     0
  0
CLASS
  1
AMDTEDGESTANDARDISO
  2
AmdtEdgeStdISO
  3
"Amdt_StdImp|Product Description: AutoCAD Mechanical 2004 DX|Company: Autodesk"
 90
        0
280
     0
281
     0
  0
CLASS
  1
ACMSURFSTANDARDISO
  2
AcmSurfTextStdISO
  3
"Amdt_StdImp|Product Description: AutoCAD Mechanical 2004 DX|Company: Autodesk"
 90
        0
280
     0
281
     0
  0
CLASS
  1
ACMFCFSTANDARDISO
  2
AcmFCFStdISO
  3
"Amdt_StdImp|Product Description: AutoCAD Mechanical 2004 DX|Company: Autodesk"
 90
        0
280
     0
281
     0
  0
CLASS
  1
ACMWELDSTANDARDISO
  2
AcmWeldingStdISO
  3
"Amdt_StdImp|Product Description: AutoCAD Mechanical 2004 DX|Company: Autodesk"
 90
        0
280
     0
281
     0
  0
CLASS
  1
ACMIDSTANDARDISO
  2
AcmIdStdISO
  3
"Amdt_StdImp|Product Description: AutoCAD Mechanical 2004 DX|Company: Autodesk"
 90
        0
280
     0
281
     0
  0
CLASS
  1
ACMDATUMSTANDARDISO
  2
AcmDatumStdISO
  3
"Amdt_StdImp|Product Description: AutoCAD Mechanical 2004 DX|Company: Autodesk"
 90
        0
280
     0
281
     0
  0
CLASS
  1
ACMBOMSTANDARDISO
  2
AcmBOMStdISO
  3
"Amdt_StdImp|Product Description: AutoCAD Mechanical 2004 DX|Company: Autodesk"
 90
        0
280
     0
281
     0
  0
CLASS
  1
ACMDETAILSTANDARDISO
  2
AmdtDetailSymStdISO
  3
"Amdt_StdImp|Product Description: AutoCAD Mechanical 2004 DX|Company: Autodesk"
 90
        0
280
     0
281
     0
  0
CLASS
  1
ACMSECTIONSTANDARDISO
  2
AmdtSectionSymStdISO
  3
"Amdt_StdImp|Product Description: AutoCAD Mechanical 2004 DX|Company: Autodesk"
 90
        0
280
     0
281
     0
  0
CLASS
  1
ACMCENTERLINESTANDARDISO
  2
AmdtCenterLineStdISO
  3
"Amdt_StdImp|Product Description: AutoCAD Mechanical 2004 DX|Company: Autodesk"
 90
        0
280
     0
281
     0
  0
CLASS
  1
ACMNOTESTANDARDISO
  2
AmdtNoteStdISO
  3
"Amdt_StdImp|Product Description: AutoCAD Mechanical 2004 DX|Company: Autodesk"
 90
        0
280
     0
281
     0
  0
CLASS
  1
ACAMGLAYSTD
  2
AcAmgLayStd
  3
"AcAmgLayStd|Product Description: AutoCAD Mechanical 2000|Company: Autodesk"
 90
        0
280
     0
281
     0
  0
CLASS
  1
ACAMGDIMSTD
  2
AcAmgDimStd
  3
"AcAmgDimStd|Product Description: AutoCAD Mechanical 2000|Company: Autodesk"
 90
        0
280
     0
281
     0
  0
CLASS
  1
ACAMGHOLECHARTSTDISO
  2
AcAmgHoleChartStdISO
  3
ACMSYMBB_MODULE_NAME
 90
        0
280
     0
281
     0
  0
CLASS
  1
ACAMGTITLESTD
  2
AcAmgTitleStd
  3
"TITLEAPP"
 90
        0
280
     0
281
     0
  0
CLASS
  1
LAYER_INDEX
  2
AcDbLayerIndex
  3
ObjectDBX Classes
 90
    32768
280
     0
281
     0
  0
CLASS
  1
IDBUFFER
  2
AcDbIdBuffer
  3
ObjectDBX Classes
 90
    32768
280
     0
281
     0
  0
CLASS
  1
DICTIONARYVAR
  2
AcDbDictionaryVar
  3
ObjectDBX Classes
 90
        0
280
     0
281
     0
  0
CLASS
  1
AM_DRAWING_MGR
  2
AcDmDwgMgr
  3
AcMechDwgViewMgmt
 90
        0
280
     0
281
     0
  0
CLASS
  1
AM_DWG_DOCUMENT
  2
AcDmDwgDocument
  3
AcMechDwgViewMgmt
 90
        0
280
     0
281
     0
  0
CLASS
  1
AM_DWG_SHEET
  2
AcDmSheet
  3
AcMechDwgViewMgmt
 90
        0
280
     0
281
     0
  0
CLASS
  1
AM_VIEWDIMPARMAP
  2
AcDmViewDimParMap
  3
AcMechDwgViewMgmt
 90
        0
280
     0
281
     0
  0
CLASS
  1
AM_DWGMGR_NAME
  2
AcDmDwgMgrName
  3
AcMechDwgViewMgmt
 90
        0
280
     0
281
     0
  0
CLASS
  1
AMDTMENUSTATEMGR
  2
AmdtMenuStateMgr
  3
McadcomServices
 90
        0
280
     0
281
     0
  0
CLASS
  1
AMDTMCOMMENUSTATE
  2
AmdtMcomMenuState
  3
McadcomServices
 90
        0
280
     0
281
     0
  0
CLASS
  1
MAPIAMMOUDLE
  2
MApiAmModule
  3
MApiAmServices
 90
        0
280
     0
281
     0
  0
CLASS
  1
AMDTADMENUSTATE
  2
AmdtAdMenuState
  3
DesignerServices
 90
        0
280
     0
281
     0
  0
CLASS
  1
ADAPPL
  2
AcAdAppl
  3
DesignerServices
 90
        0
280
     0
281
     0
  0
CLASS
  1
DEPMGR
  2
AcAdDepMgr
  3
DesignerServices
 90
        0
280
     0
281
     0
  0
CLASS
  1
PARAMMGR
  2
AcAdParamMgr
  3
DesignerServices
 90
        0
280
     0
281
     0
  0
CLASS
  1
PARAMSCOPE
  2
AcAdParamScope
  3
DesignerServices
 90
        0
280
     0
281
     0
  0
CLASS
  1
NAMEDAPPL
  2
AcAdNamedAppl
  3
DesignerServices
 90
        0
280
     0
281
     0
  0
CLASS
  1
AMDTDMMENUSTATE
  2
AmdtDmMenuState
  3
AcMechDwgViewMgmt
 90
        0
280
     0
281
     0
  0
CLASS
  1
AMDTAMMENUSTATE
  2
AmdtAmMenuState
  3
DesignerAssemblies
 90
        0
280
     0
281
     0
  0
CLASS
  1
ACAMPROJECT
  2
AcAmProject
  3
DesignerAssemblies
 90
        0
280
     0
281
     0
  0
CLASS
  1
ACAMGRCOMPDEF
  2
AcAmGrCompDef
  3
DesignerAssemblies
 90
        0
280
     0
281
     0
  0
CLASS
  1
ACCMCONTEXT
  2
AcCmContext
  3
DesignerAssemblies
 90
        0
280
     0
281
     0
  0
CLASS
  1
ACAMCOMPDEF
  2
AcAmCompDef
  3
DesignerAssemblies
 90
        0
280
     0
281
     0
  0
CLASS
  1
ACAMCOMPDEFMGR
  2
AcAmCompDefMgr
  3
DesignerAssemblies
 90
        0
280
     0
281
     0
  0
CLASS
  1
AMCONTEXTMGR
  2
AcAmContextMgr
  3
DesignerAssemblies
 90
        0
280
     0
281
     0
  0
CLASS
  1
ACAMCONTEXTMODELER
  2
AcAmContextModeler
  3
DesignerAssemblies
 90
        0
280
     0
281
     0
  0
CLASS
  1
ACMTHREADLINESTANDARDISO
  2
AmdtThreadLineStdISO
  3
"Amdt_StdImp|Product Description: AutoCAD Mechanical 2004 DX|Company: Autodesk"
 90
        0
280
     0
281
     0
  0
CLASS
  1
CATALOGSTATE
  2
AcAmCatalogState
  3
DesignerAssemblies
 90
        0
280
     0
281
     0
  0
CLASS
  1
ACAMGRCOMPDEFSET
  2
AcAmGrCompDefSet
  3
DesignerAssemblies
 90
        0
280
     0
281
     0
  0
CLASS
  1
AMDTBROWSERDBTAB
  2
AmdtBrowserDbTab
  3
McadcomServices
 90
        0
280
     0
281
     0
  0
CLASS
  1
CBROWSERAPPOBJECT
  2
CBrowserAppObject
  3
McadcomServices
 90
        0
280
     0
281
     0
  0
CLASS
  1
DM_PLACEHOLDER
  2
AcDmSelsetPlaceholder
  3
AcMechDwgViewMgmt
 90
        0
280
     0
281
     0
  0
CLASS
  1
TABLESTYLE
  2
AcDbTableStyle
  3
ObjectDBX Classes
 90
     2047
280
     0
281
     0
  0
CLASS
  1
VAACXREFPANELOBJECT
  2
VaAcXREFPanelObject
  3
VAAC_ADDIN
 90
    32768
280
     0
281
     0
  0
CLASS
  1
VAACIMAGEINVENTORY
  2
VaAcImageInventory
  3
VAAC_ADDIN
 90
    32768
280
     0
281
     0
  0
CLASS
  1
AMDTNOTETEMPLATEDB
  2
AmdtNoteTemplateDB
  3
AMDT_STDIMP_MODULE_NAME
 90
        0
280
     0
281
     0
  0
CLASS
  1
ACMBOM
  2
AcmBom
  3
"AcmSymBB|Product Description: AutoCAD Mechanical 2004 DX|Company: Autodesk"
 90
    32768
280
     0
281
     0
  0
CLASS
  1
AMDTFORMULAUPDATEDISPATCHER
  2
AmdtFormulaUpdateDispatcher
  3
AcMeServices
 90
    32768
280
     0
281
     0
  0
CLASS
  1
ACMPARTLIST
  2
AcmPartList
  3
"AcmSymBB|Product Description: AutoCAD Mechanical 2004 DX|Company: Autodesk"
 90
    33791
280
     0
281
     1
  0
CLASS
  1
ACAMGFILTERDAT
  2
AcAmgFilterDat
  3
"AcadM|Product Description: AutoCAD Mechanical 2000|Company: Autodesk"
 90
        0
280
     0
281
     0
  0
CLASS
  1
DIMASSOC
  2
AcDbDimAssoc
  3
"AcDbDimAssoc|Product Desc:     AcDim ARX App For Dimension|Company:          Autodesk, Inc.|WEB Address:      www.autodesk.com"
 90
    32768
280
     0
281
     0
  0
CLASS
  1
STDPART2D
  2
AmgStdPart
  3
"AmgStdPart|Product Description: AutoCAD Mechanical 2000|Company: Autodesk"
 90
    33791
280
     0
281
     1
  0
CLASS
  1
ACAMSTDPCOMPDEF
  2
AcAmStdpCompDef
  3
DesignerAssemblies
 90
    32768
280
     0
281
     0
  0
CLASS
  1
ACRFATTGENMGR
  2
AcRfAttGeneralMgr
  3
AcAttribServices
 90
        0
280
     0
281
     0
  0
CLASS
  1
ACRFOBJATTMGR
  2
AcRfObjAttGroupMgr
  3
AcAttribServices
 90
    32768
280
     0
281
     0
  0
CLASS
  1
ACRFMCADAPIATTHOLDER
  2
AcRfMCADAPIAttHolder
  3
AcAttribServices
 90
    32768
280
     0
281
     0
  0
CLASS
  1
AMDTSYSATTR
  2
AmdtSystemAttribute
  3
AcAttribServices
 90
    32768
280
     0
281
     0
  0
CLASS
  1
ACAMCOMP
  2
AcAmComp
  3
DesignerAssemblies
 90
    32768
280
     0
281
     0
  0
CLASS
  1
AC_AM_STDP_VIEW_DEF
  2
AcAmStdpViewDef
  3
DesignerAssemblies
 90
    32768
280
     0
281
     0
  0
CLASS
  1
AC_AM_MVD_DEP_MGR
  2
AcAmMVDdepMgr
  3
DesignerAssemblies
 90
        0
280
     0
281
     0
  0
CLASS
  1
AC_AM_MASTER_VIEW_DEF
  2
AcAmMasterViewDef
  3
DesignerAssemblies
 90
        0
280
     0
281
     0
  0
CLASS
  1
AC_AM_DIRTY_NODES
  2
AcAmDirtyNodes
  3
DesignerAssemblies
 90
        0
280
     0
281
     0
  0
CLASS
  1
AC_AM_MAPPER_CACHE
  2
AcAmMapperCache
  3
DesignerAssemblies
 90
        0
280
     0
281
     0
  0
CLASS
  1
ACAMMVDBACKUPOBJECT
  2
AcAmMVDBackupObject
  3
DesignerAssemblies
 90
        0
280
     0
281
     0
  0
CLASS
  1
AC_AM_COMP_VIEW_INST
  2
AcAmCompView
  3
DesignerAssemblies
 90
    32768
280
     0
281
     0
  0
CLASS
  1
AC_AM_2D_XREF_MGR
  2
AcAmXrefMgr2d
  3
DesignerAssemblies
 90
        0
280
     0
281
     0
  0
CLASS
  1
SORTENTSTABLE
  2
AcDbSortentsTable
  3
ObjectDBX Classes
 90
        0
280
     0
281
     0
  0
CLASS
  1
AMDTNOTE
  2
AmdtNote
  3
"AcmSymBB|Product Description: AutoCAD Mechanical 2004 DX|Company: Autodesk"
 90
     1023
280
     0
281
     1
  0
CLASS
  1
ACMSTANDARDANSI
  2
AcmStandardANSI
  3
"Amdt_StdImp|Product Description: AutoCAD Mechanical 2004 DX|Company: Autodesk"
 90
        0
280
     0
281
     0
  0
CLASS
  1
ACMSURFSTANDARDANSI
  2
AcmSurfTextStdANSI
  3
"Amdt_StdImp|Product Description: AutoCAD Mechanical 2004 DX|Company: Autodesk"
 90
        0
280
     0
281
     0
  0
CLASS
  1
ACMFCFSTANDARDANSI
  2
AcmFCFStdANSI
  3
"Amdt_StdImp|Product Description: AutoCAD Mechanical 2004 DX|Company: Autodesk"
 90
        0
280
     0
281
     0
  0
CLASS
  1
ACMWELDSTANDARDANSI
  2
AcmWeldingStdANSI
  3
"Amdt_StdImp|Product Description: AutoCAD Mechanical 2004 DX|Company: Autodesk"
 90
        0
280
     0
281
     0
  0
CLASS
  1
ACMIDSTANDARDANSI
  2
AcmIdStdANSI
  3
"Amdt_StdImp|Product Description: AutoCAD Mechanical 2004 DX|Company: Autodesk"
 90
        0
280
     0
281
     0
  0
CLASS
  1
ACMDATUMSTANDARDANSI
  2
AcmDatumStdANSI
  3
"Amdt_StdImp|Product Description: AutoCAD Mechanical 2004 DX|Company: Autodesk"
 90
        0
280
     0
281
     0
  0
CLASS
  1
ACMBOMSTANDARDANSI
  2
AcmBOMStdANSI
  3
"Amdt_StdImp|Product Description: AutoCAD Mechanical 2004 DX|Company: Autodesk"
 90
        0
280
     0
281
     0
  0
CLASS
  1
ACMDETAILSTANDARDANSI
  2
AmdtDetailSymStdANSI
  3
"Amdt_StdImp|Product Description: AutoCAD Mechanical 2004 DX|Company: Autodesk"
 90
        0
280
     0
281
     0
  0
CLASS
  1
ACMSECTIONSTANDARDANSI
  2
AmdtSectionSymStdANSI
  3
"Amdt_StdImp|Product Description: AutoCAD Mechanical 2004 DX|Company: Autodesk"
 90
        0
280
     0
281
     0
  0
CLASS
  1
ACMCENTERLINESTANDARDANSI
  2
AmdtCenterLineStdANSI
  3
"Amdt_StdImp|Product Description: AutoCAD Mechanical 2004 DX|Company: Autodesk"
 90
        0
280
     0
281
     0
  0
CLASS
  1
ACMTHREADLINESTANDARDANSI
  2
AmdtThreadLineStdANSI
  3
"Amdt_StdImp|Product Description: AutoCAD Mechanical 2004 DX|Company: Autodesk"
 90
        0
280
     0
281
     0
  0
CLASS
  1
ACMNOTESTANDARDANSI
  2
AmdtNoteStdANSI
  3
"Amdt_StdImp|Product Description: AutoCAD Mechanical 2004 DX|Company: Autodesk"
 90
        0
280
     0
281
     0
  0
CLASS
  1
ACAMGHOLECHARTSTDANSI
  2
AcAmgHoleChartStdANSI
  3
ACMSYMBB_MODULE_NAME
 90
        0
280
     0
281
     0
  0
ENDSEC
  0
SECTION
  2
TABLES
  0
TABLE
  2
VPORT
  5
8
330
0
100
AcDbSymbolTable
 70
     3
  0
VPORT
  5
290B
330
8
100
AcDbSymbolTableRecord
100
AcDbViewportTableRecord
  2
*Active
 70
     0
 10
0.0
 20
0.0
 11
1.0
 21
1.0
 12
3024.96403170333
 22
1644.092705615493
 13
0.0
 23
0.0
 14
2.5
 24
2.5
 15
10.0
 25
10.0
 16
0.0
 26
0.0
 36
1.0
 17
0.0
 27
0.0
 37
0.0
 40
678.0464243984525
 41
1.81766917293233
 42
50.0
 43
0.0
 44
0.0
 50
0.0
 51
0.0
 71
     0
 72
   100
 73
     1
 74
     3
 75
     0
 76
     0
 77
     0
 78
     0
281
     0
 65
     1
110
0.0
120
0.0
130
0.0
111
1.0
121
0.0
131
0.0
112
0.0
122
1.0
132
0.0
 79
     0
146
0.0
  0
ENDTAB
  0
TABLE
  2
LTYPE
  5
5
330
0
100
AcDbSymbolTable
 70
    16
  0
LTYPE
  5
14
330
5
100
AcDbSymbolTableRecord
100
AcDbLinetypeTableRecord
  2
ByBlock
 70
     0
  3

 72
    65
 73
     0
 40
0.0
  0
LTYPE
  5
15
330
5
100
AcDbSymbolTableRecord
100
AcDbLinetypeTableRecord
  2
ByLayer
 70
     0
  3

 72
    65
 73
     0
 40
0.0
  0
LTYPE
  5
16
330
5
100
AcDbSymbolTableRecord
100
AcDbLinetypeTableRecord
  2
Continuous
 70
     0
  3
Solid line
 72
    65
 73
     0
 40
0.0
  0
LTYPE
  5
64
330
5
100
AcDbSymbolTableRecord
100
AcDbLinetypeTableRecord
  2
AM_ISO02W050
 70
     0
  3
__ __ __ __ __ __ __ __ __ __ __ __ __ __ __
 72
    65
 73
     2
 40
7.5
 49
6.0
 74
     0
 49
-1.5
 74
     0
  0
LTYPE
  5
65
330
5
100
AcDbSymbolTableRecord
100
AcDbLinetypeTableRecord
  2
AM_ISO08W050
 70
     0
  3
____ . ____ . ____ . ____ . ____ . ____ . ____
 72
    65
 73
     4
 40
18.0
 49
12.0
 74
     0
 49
-1.5
 74
     0
 49
3.0
 74
     0
 49
-1.5
 74
     0
  0
LTYPE
  5
66
330
5
100
AcDbSymbolTableRecord
100
AcDbLinetypeTableRecord
  2
AM_ISO09W050
 70
     0
  3
_____ . . _____ . . _____ . . ____ .. ____
 72
    65
 73
     6
 40
22.5
 49
12.0
 74
     0
 49
-1.5
 74
     0
 49
3.0
 74
     0
 49
-1.5
 74
     0
 49
3.0
 74
     0
 49
-1.5
 74
     0
  0
LTYPE
  5
67
330
5
100
AcDbSymbolTableRecord
100
AcDbLinetypeTableRecord
  2
Amconstr
 70
     0
  3
_______________________
 72
    65
 73
     2
 40
9999.0
 49
9999.0
 74
     0
 49
0.0
 74
     0
  0
LTYPE
  5
68
330
5
100
AcDbSymbolTableRecord
100
AcDbLinetypeTableRecord
  2
AM_ISO08W050x2
 70
     0
  3
__ . __ . __ . __ . __ . __
 72
    65
 73
     4
 40
9.0
 49
6.0
 74
     0
 49
-0.75
 74
     0
 49
1.5
 74
     0
 49
-0.75
 74
     0
  0
LTYPE
  5
69
330
5
100
AcDbSymbolTableRecord
100
AcDbLinetypeTableRecord
  2
AM_ISO02W050x2
 70
     0
  3
 _ _ _ _ _ _ _ _ _ _ _ _
 72
    65
 73
     2
 40
3.75
 49
3.0
 74
     0
 49
-0.75
 74
     0
  0
LTYPE
  5
6C
330
5
100
AcDbSymbolTableRecord
100
AcDbLinetypeTableRecord
  2
Amzigzag
 70
     0
  3
/\/-/\/-/\/-/\/-/\/-/\/
 72
    65
 73
     2
 40
11.0001
 49
0.0001
 74
     4
 75
   135
340
6B
 46
0.04
 50
0.0
 44
0.0
 45
0.0
 49
-11.0
 74
     0
  0
LTYPE
  5
7A
330
5
100
AcDbSymbolTableRecord
100
AcDbLinetypeTableRecord
  2
ACISOWELD
 70
     0
  3
_ _ _ _ _
 72
    65
 73
     2
 40
2.0
 49
2.0
 74
     0
 49
-1.0
 74
     0
  0
LTYPE
  5
7B
330
5
100
AcDbSymbolTableRecord
100
AcDbLinetypeTableRecord
  2
ACISOTGB
 70
     0
  3
__ . . __ . .
 72
    65
 73
     6
 40
9.0
 49
4.0
 74
     0
 49
-1.0
 74
     0
 49
1.0
 74
     0
 49
-1.0
 74
     0
 49
1.0
 74
     0
 49
-1.0
 74
     0
  0
LTYPE
  5
7C
330
5
100
AcDbSymbolTableRecord
100
AcDbLinetypeTableRecord
  2
ACISOTGL
 70
     0
  3
_ _ _ _ _
 72
    65
 73
     2
 40
3.0
 49
2.0
 74
     0
 49
-1.0
 74
     0
  0
LTYPE
  5
7E
330
5
100
AcDbSymbolTableRecord
100
AcDbLinetypeTableRecord
  2
CENTER
 70
     0
  3
__ . __
 72
    65
 73
     4
 40
7.0
 49
4.0
 74
     0
 49
-1.0
 74
     0
 49
1.0
 74
     0
 49
-1.0
 74
     0
  0
LTYPE
  5
D8
330
5
100
AcDbSymbolTableRecord
100
AcDbLinetypeTableRecord
  2
HIDDEN
 70
     0
  3
Hidden __ __ __ __ __ __ __ __ __ __ __ __ __ _
 72
    65
 73
     2
 40
9.524999999999998
 49
6.349999999999999
 74
     0
 49
-3.174999999999999
 74
     0
  0
LTYPE
  5
D9
330
5
100
AcDbSymbolTableRecord
100
AcDbLinetypeTableRecord
  2
PHANTOM2
 70
     0
  3
Phantom (.5x) ___ _ _ ___ _ _ ___ _ _ ___ _ _
 72
    65
 73
     6
 40
31.75
 49
15.875
 74
     0
 49
-3.174999999999999
 74
     0
 49
3.174999999999999
 74
     0
 49
-3.174999999999999
 74
     0
 49
3.174999999999999
 74
     0
 49
-3.174999999999999
 74
     0
  0
LTYPE
  5
1DFD
330
5
100
AcDbSymbolTableRecord
100
AcDbLinetypeTableRecord
  2
ACANSTGB
 70
     0
  3
__ . . __ . .
 72
    65
 73
     6
 40
0.35433070866
 49
0.15748031496
 74
     0
 49
-0.03937007874
 74
     0
 49
0.03937007874
 74
     0
 49
-0.03937007874
 74
     0
 49
0.03937007874
 74
     0
 49
-0.03937007874
 74
     0
  0
LTYPE
  5
1DFE
330
5
100
AcDbSymbolTableRecord
100
AcDbLinetypeTableRecord
  2
ACANSTGL
 70
     0
  3
_ _ _ _ _
 72
    65
 73
     2
 40
0.11811023622
 49
0.07874015748
 74
     0
 49
-0.03937007874
 74
     0
  0
ENDTAB
  0
TABLE
  2
LAYER
  5
2
102
{ACAD_XDICTIONARY
360
3F9
102
}
330
0
100
AcDbSymbolTable
 70
     8
  0
LAYER
  5
10
330
2
100
AcDbSymbolTableRecord
100
AcDbLayerTableRecord
  2
0
 70
     0
 62
     7
  6
Continuous
370
    -3
390
F
  0
LAYER
  5
812
330
2
100
AcDbSymbolTableRecord
100
AcDbLayerTableRecord
  2
AM_VIS
 70
     0
 62
     7
  6
Continuous
370
    50
390
F
  0
LAYER
  5
813
330
2
100
AcDbSymbolTableRecord
100
AcDbLayerTableRecord
  2
AM_4
 70
     0
 62
     3
  6
Continuous
370
    25
390
F
  0
LAYER
  5
BD2
330
2
100
AcDbSymbolTableRecord
100
AcDbLayerTableRecord
  2
AM_0
 70
     0
 62
     7
  6
Continuous
370
    50
390
F
  0
LAYER
  5
BF8
330
2
100
AcDbSymbolTableRecord
100
AcDbLayerTableRecord
  2
AM_7
 70
     0
 62
     1
  6
CENTER
370
    25
390
F
  0
LAYER
  5
C53
330
2
100
AcDbSymbolTableRecord
100
AcDbLayerTableRecord
  2
AM_5
 70
     0
 62
     5
  6
Continuous
370
    50
390
F
  0
LAYER
  5
D49
330
2
100
AcDbSymbolTableRecord
100
AcDbLayerTableRecord
  2
Defpoints
 70
     0
 62
     7
  6
Continuous
290
     0
370
    -3
390
F
  0
LAYER
  5
150C
330
2
100
AcDbSymbolTableRecord
100
AcDbLayerTableRecord
  2
LOGO
 70
     0
 62
     7
  6
Continuous
370
    -3
390
F
  0
ENDTAB
  0
TABLE
  2
STYLE
  5
3
330
0
100
AcDbSymbolTable
 70
     9
  0
STYLE
  5
11
330
3
100
AcDbSymbolTableRecord
100
AcDbTextStyleTableRecord
  2
STANDARD
 70
     0
 40
0.0
 41
1.0
 50
0.0
 71
     0
 42
3.0
  3
ISOCP.SHX
  4
CHINESET.SHX
  0
STYLE
  5
6B
330
3
100
AcDbSymbolTableRecord
100
AcDbTextStyleTableRecord
  2

 70
     1
 40
0.0
 41
1.0
 50
0.0
 71
     0
 42
2.5
  3
ltypeshp.shx
  4

  0
STYLE
  5
6D
330
3
100
AcDbSymbolTableRecord
100
AcDbTextStyleTableRecord
  2
ACISOTS
 70
     0
 40
1.0
 41
1.0
 50
0.0
 71
     0
 42
1.0
  3
isocp.shx
  4
chineset.shx
  0
STYLE
  5
79
330
3
100
AcDbSymbolTableRecord
100
AcDbTextStyleTableRecord
  2
ACISOGDT
 70
     0
 40
0.0
 41
1.0
 50
0.0
 71
     0
 42
2.5
  3
amgdt.shx
  4
chineset.shx
  0
STYLE
  5
60C
330
3
100
AcDbSymbolTableRecord
100
AcDbTextStyleTableRecord
  2
CHINESET
 70
     0
 40
0.0
 41
1.0
 50
0.0
 71
     0
 42
3.0
  3
simplex.shx
  4
CHINESET.SHX
  0
STYLE
  5
1E01
330
3
100
AcDbSymbolTableRecord
100
AcDbTextStyleTableRecord
  2
ACANSTS
 70
     0
 40
1.0
 41
1.0
 50
0.0
 71
     0
 42
2.7
  3
romans.shx
  4
chineset.shx
  0
STYLE
  5
1E02
330
3
100
AcDbSymbolTableRecord
100
AcDbTextStyleTableRecord
  2
ACANSGDT
 70
     0
 40
0.0
 41
1.0
 50
0.0
 71
     0
 42
2.7
  3
amgdtans.shx
  4

  0
ENDTAB
  0
TABLE
  2
VIEW
  5
6
330
0
100
AcDbSymbolTable
 70
     0
  0
ENDTAB
  0
TABLE
  2
UCS
  5
7
330
0
100
AcDbSymbolTable
 70
     0
  0
ENDTAB
  0
TABLE
  2
APPID
  5
9
330
0
100
AcDbSymbolTable
 70
    29
  0
APPID
  5
12
330
9
100
AcDbSymbolTableRecord
100
AcDbRegAppTableRecord
  2
ACAD
 70
     0
  0
APPID
  5
46
330
9
100
AcDbSymbolTableRecord
100
AcDbRegAppTableRecord
  2
MCAD_NO_VIS
 70
     0
  0
APPID
  5
47
330
9
100
AcDbSymbolTableRecord
100
AcDbRegAppTableRecord
  2
ACAD_TEMP_GRAPHIC
 70
     0
  0
APPID
  5
58
330
9
100
AcDbSymbolTableRecord
100
AcDbRegAppTableRecord
  2
ACATTRIBSERVICES
 70
     0
  0
APPID
  5
EE
330
9
100
AcDbSymbolTableRecord
100
AcDbRegAppTableRecord
  2
AD_DRAW
 70
     0
  0
APPID
  5
10C
330
9
100
AcDbSymbolTableRecord
100
AcDbRegAppTableRecord
  2
DESIGNERASSEMBLIES
 70
     0
  0
APPID
  5
111
330
9
100
AcDbSymbolTableRecord
100
AcDbRegAppTableRecord
  2
ACADM_DIM_EDIT
 70
     0
  0
APPID
  5
112
330
9
100
AcDbSymbolTableRecord
100
AcDbRegAppTableRecord
  2
AMDT_DM_ADJ
 70
     0
  0
APPID
  5
22C
330
9
100
AcDbSymbolTableRecord
100
AcDbRegAppTableRecord
  2
ACAD_DSTYLE_DIMTEXT_FILL
 70
     0
  0
APPID
  5
452
330
9
100
AcDbSymbolTableRecord
100
AcDbRegAppTableRecord
  2
GENIUS_GENOENT_13
 70
     0
  0
APPID
  5
453
330
9
100
AcDbSymbolTableRecord
100
AcDbRegAppTableRecord
  2
GENIUS_GENOBJ-N-CRS_13
 70
     0
  0
APPID
  5
454
330
9
100
AcDbSymbolTableRecord
100
AcDbRegAppTableRecord
  2
GENIUS_GENOLIS_13
 70
     0
  0
APPID
  5
455
330
9
100
AcDbSymbolTableRecord
100
AcDbRegAppTableRecord
  2
GENIUS_GENODEF_13
 70
     0
  0
APPID
  5
456
330
9
100
AcDbSymbolTableRecord
100
AcDbRegAppTableRecord
  2
GENIUS_GENOREF_13
 70
     0
  0
APPID
  5
6F3
330
9
100
AcDbSymbolTableRecord
100
AcDbRegAppTableRecord
  2
ACAD_PSEXT
 70
     0
  0
APPID
  5
782
330
9
100
AcDbSymbolTableRecord
100
AcDbRegAppTableRecord
  2
GENIUS_GENDTOL_13
 70
     0
  0
APPID
  5
BD9
330
9
100
AcDbSymbolTableRecord
100
AcDbRegAppTableRecord
  2
GEVID1142294916
 70
     0
  0
APPID
  5
BDA
330
9
100
AcDbSymbolTableRecord
100
AcDbRegAppTableRecord
  2
GEVDC
 70
     0
  0
APPID
  5
BDB
330
9
100
AcDbSymbolTableRecord
100
AcDbRegAppTableRecord
  2
GEVRADREF
 70
     0
  0
APPID
  5
BE4
330
9
100
AcDbSymbolTableRecord
100
AcDbRegAppTableRecord
  2
AMG_2DHIDE
 70
     0
  0
APPID
  5
BE5
330
9
100
AcDbSymbolTableRecord
100
AcDbRegAppTableRecord
  2
AMG_2DSTRUCT_BTR
 70
     0
  0
APPID
  5
BF6
330
9
100
AcDbSymbolTableRecord
100
AcDbRegAppTableRecord
  2
ACADM_2DVIEW_IGN_NOTIFY
 70
     0
  0
APPID
  5
CAE
330
9
100
AcDbSymbolTableRecord
100
AcDbRegAppTableRecord
  2
GEVID1142294917
 70
     0
  0
APPID
  5
12D3
330
9
100
AcDbSymbolTableRecord
100
AcDbRegAppTableRecord
  2
GENIUS_GENDIMSH_14
 70
     0
  0
APPID
  5
150D
330
9
100
AcDbSymbolTableRecord
100
AcDbRegAppTableRecord
  2
GENIUS_GENREC_14
 70
     0
  0
APPID
  5
150E
330
9
100
AcDbSymbolTableRecord
100
AcDbRegAppTableRecord
  2
GENIUS_GENOBJ-N-REC_13
 70
     0
  0
APPID
  5
1B7E
330
9
100
AcDbSymbolTableRecord
100
AcDbRegAppTableRecord
  2
GEVID1142658489
 70
     0
  0
APPID
  5
1BED
330
9
100
AcDbSymbolTableRecord
100
AcDbRegAppTableRecord
  2
GENIUS_GENOBJ-N-CEN_13
 70
     0
  0
APPID
  5
1BEE
330
9
100
AcDbSymbolTableRecord
100
AcDbRegAppTableRecord
  2
GENIUS_GENCEN_19
 70
     0
  0
ENDTAB
  0
TABLE
  2
DIMSTYLE
  5
A
330
0
100
AcDbSymbolTable
 70
    16
100
AcDbDimStyleTable
 71
     3
340
81
340
8B
340
86
  0
DIMSTYLE
105
81
330
A
100
AcDbSymbolTableRecord
100
AcDbDimStyleTableRecord
  2
AM_ISO
 70
     0
  4
"
 41
3.0
 42
1.0
 43
18.0
 44
1.5
 47
0.1
 48
0.1
 73
     0
 74
     0
 77
     1
 78
     8
 79
     2
140
3.0
141
0.0
143
0.0393701
146
0.6
147
1.0
172
     1
176
   256
177
   256
178
   256
271
     2
272
     2
283
     0
284
     8
340
11
371
    -1
372
    -1
  0
DIMSTYLE
105
82
330
A
100
AcDbSymbolTableRecord
100
AcDbDimStyleTableRecord
  2
AM_ISO$3
 70
     0
  4
"
 41
3.0
 42
1.0
 43
18.0
 44
1.5
 47
0.1
 48
0.1
 73
     0
 77
     1
 78
     8
 79
     2
140
3.0
141
0.0
143
0.0393701
146
0.6
147
1.0
176
   256
177
   256
178
   256
271
     2
272
     2
283
     0
284
     8
288
     1
289
     0
340
11
371
    -1
372
    -1
  0
DIMSTYLE
105
83
330
A
100
AcDbSymbolTableRecord
100
AcDbDimStyleTableRecord
  2
AM_ISO$4
 70
     0
  4
"
 41
3.0
 42
1.0
 43
18.0
 44
1.5
 47
0.1
 48
0.1
 73
     0
 77
     1
 78
     8
 79
     2
140
3.0
141
0.0
143
0.0393701
146
0.6
147
1.0
176
   256
177
   256
178
   256
271
     2
272
     2
283
     0
284
     8
288
     1
289
     0
340
11
371
    -1
372
    -1
  0
DIMSTYLE
105
84
330
A
100
AcDbSymbolTableRecord
100
AcDbDimStyleTableRecord
  2
AM_ISO$6
 70
     0
  4
"
 41
3.0
 42
1.0
 43
18.0
 44
1.5
 47
0.1
 48
0.1
 73
     0
 74
     0
 78
     8
 79
     2
140
3.0
141
0.0
143
0.0393701
146
0.6
147
1.0
172
     1
176
   256
177
   256
178
   256
271
     2
272
     2
283
     0
284
     8
340
11
371
    -1
372
    -1
  0
DIMSTYLE
105
85
330
A
100
AcDbSymbolTableRecord
100
AcDbDimStyleTableRecord
  2
AM_ISO$7
 70
     0
  4
"
 41
3.0
 42
1.0
 43
18.0
 44
1.5
 47
0.1
 48
0.1
 73
     0
 74
     0
 77
     1
 78
     8
 79
     2
140
5.0
141
0.0
143
0.0393701
146
0.6
147
1.0
172
     1
176
   256
177
   256
178
   256
271
     2
272
     2
283
     0
284
     8
340
11
371
    -1
372
    -1
  0
DIMSTYLE
105
86
330
A
100
AcDbSymbolTableRecord
100
AcDbDimStyleTableRecord
  2
AM_ISO$SF
 70
     0
  4
"
 41
2.5
 42
1.0
 43
10.0
 44
1.0
 47
0.1
 48
0.1
 73
     0
 74
     0
 75
     1
 76
     1
 77
     1
 78
     8
 79
     2
140
3.5
141
0.0
143
0.0393701
146
0.71
147
1.5
172
     1
176
   256
177
   256
178
     2
271
     2
272
     3
274
     4
283
     0
284
     8
340
11
371
    -1
372
    -1
  0
DIMSTYLE
105
8B
330
A
100
AcDbSymbolTableRecord
100
AcDbDimStyleTableRecord
  2
AM_ISO$SH
 70
     0
  4
"
 41
2.5
 42
1.0
 43
10.0
 44
1.0
 47
0.1
 48
0.1
 73
     0
 74
     0
 75
     1
 76
     1
 77
     1
 78
     8
 79
     2
140
3.5
141
0.0
143
0.0393701
144
2.0
146
0.71
147
1.5
172
     1
173
     1
176
   256
177
   256
178
     2
271
     2
272
     3
274
     4
283
     0
284
     8
340
11
343
87
371
    -1
372
    -1
  0
DIMSTYLE
105
40B
102
{ACAD_REACTORS
330
F85
330
F0F
330
EC3
330
1022
330
FFC
330
FD6
330
EE9
330
E9D
330
E65
330
F35
330
F5F
102
}
330
A
100
AcDbSymbolTableRecord
100
AcDbDimStyleTableRecord
  2
AM_ISO$0
 70
     0
  4
"
 41
3.0
 42
1.0
 43
18.0
 44
1.5
 47
0.1
 48
0.1
 73
     0
 74
     0
 77
     1
 78
     8
 79
     2
140
3.0
141
0.0
143
0.0393701
146
0.6
147
1.0
172
     1
176
   256
177
   256
178
   256
271
     2
272
     2
283
     0
284
     8
340
11
371
    -1
372
    -1
  0
DIMSTYLE
105
1E05
330
A
100
AcDbSymbolTableRecord
100
AcDbDimStyleTableRecord
  2
AM_ANSI
 70
     0
  4
mm
 41
0.1
 42
0.05
 43
0.5
 44
0.1
 47
0.1
 48
0.1
 78
     7
 79
     2
140
0.12
141
0.0
146
0.71
147
0.06
176
   256
177
   256
178
     2
274
     4
284
     7
340
11
371
    -1
372
    -1
  0
DIMSTYLE
105
1E06
330
A
100
AcDbSymbolTableRecord
100
AcDbDimStyleTableRecord
  2
AM_ANSI$3
 70
     0
  4
mm
 41
0.1
 42
0.05
 43
0.5
 44
0.1
 47
0.1
 48
0.1
 78
     7
 79
     2
140
0.12
141
0.0
146
0.71
147
0.06
176
   256
177
   256
178
     2
274
     4
284
     7
288
     1
289
     0
340
11
371
    -1
372
    -1
  0
DIMSTYLE
105
1E07
330
A
100
AcDbSymbolTableRecord
100
AcDbDimStyleTableRecord
  2
AM_ANSI$4
 70
     0
  4
mm
 41
0.1
 42
0.05
 43
0.5
 44
0.1
 47
0.1
 48
0.1
 78
     7
 79
     2
140
0.12
141
0.0
146
0.71
147
0.06
176
   256
177
   256
178
     2
274
     4
284
     7
288
     1
289
     0
340
11
371
    -1
372
    -1
  0
DIMSTYLE
105
1E08
330
A
100
AcDbSymbolTableRecord
100
AcDbDimStyleTableRecord
  2
AM_ANSI$7
 70
     0
  4
mm
 41
0.1
 42
0.05
 43
0.5
 44
0.1
 47
0.1
 48
0.1
 78
     7
 79
     2
140
0.24
141
0.0
146
0.71
147
0.06
176
   256
177
   256
178
     2
274
     4
284
     7
340
11
371
    -1
372
    -1
  0
DIMSTYLE
105
1E09
330
A
100
AcDbSymbolTableRecord
100
AcDbDimStyleTableRecord
  2
AM_ANSI$SF
 70
     0
  4
mm
 41
0.1
 42
0.05
 43
0.5
 44
0.1
 47
0.1
 48
0.1
 75
     1
 76
     1
 78
     7
 79
     2
140
0.12
141
0.0
146
0.71
147
0.06
176
   256
177
   256
178
     2
274
     4
284
     7
340
11
371
    -1
372
    -1
  0
DIMSTYLE
105
1E0A
330
A
100
AcDbSymbolTableRecord
100
AcDbDimStyleTableRecord
  2
AM_ANSI$SH
 70
     0
  4
mm
 41
0.1
 42
0.05
 43
0.5
 44
0.1
 47
0.1
 48
0.1
 75
     1
 76
     1
 78
     7
 79
     2
140
0.12
141
0.0
146
0.71
147
0.06
173
     1
176
   256
177
   256
178
     2
274
     4
284
     7
340
11
343
87
371
    -1
372
    -1
  0
ENDTAB
  0
TABLE
  2
BLOCK_RECORD
  5
1
330
0
100
AcDbSymbolTable
 70
    22
  0
BLOCK_RECORD
  5
1F
102
{ACAD_XDICTIONARY
360
8F
102
}
330
1
100
AcDbSymbolTableRecord
100
AcDbBlockTableRecord
  2
*Model_Space
340
22
  0
BLOCK_RECORD
  5
1B
330
1
100
AcDbSymbolTableRecord
100
AcDbBlockTableRecord
  2
*Paper_Space
340
1E
  0
BLOCK_RECORD
  5
23
330
1
100
AcDbSymbolTableRecord
100
AcDbBlockTableRecord
  2
*Paper_Space0
340
26
  0
BLOCK_RECORD
  5
87
330
1
100
AcDbSymbolTableRecord
100
AcDbBlockTableRecord
  2
GENAXEH
340
0
  0
BLOCK_RECORD
  5
BFB
330
1
100
AcDbSymbolTableRecord
100
AcDbBlockTableRecord
  2
*U4
340
0
  0
BLOCK_RECORD
  5
E66
330
1
100
AcDbSymbolTableRecord
100
AcDbBlockTableRecord
  2
*D5
340
0
  0
BLOCK_RECORD
  5
E9E
330
1
100
AcDbSymbolTableRecord
100
AcDbBlockTableRecord
  2
*D6
340
0
  0
BLOCK_RECORD
  5
EC4
330
1
100
AcDbSymbolTableRecord
100
AcDbBlockTableRecord
  2
*D7
340
0
  0
BLOCK_RECORD
  5
EEA
330
1
100
AcDbSymbolTableRecord
100
AcDbBlockTableRecord
  2
*D8
340
0
  0
BLOCK_RECORD
  5
F10
330
1
100
AcDbSymbolTableRecord
100
AcDbBlockTableRecord
  2
*D9
340
0
  0
BLOCK_RECORD
  5
F36
330
1
100
AcDbSymbolTableRecord
100
AcDbBlockTableRecord
  2
*D10
340
0
  0
BLOCK_RECORD
  5
F60
330
1
100
AcDbSymbolTableRecord
100
AcDbBlockTableRecord
  2
*D11
340
0
  0
BLOCK_RECORD
  5
F86
330
1
100
AcDbSymbolTableRecord
100
AcDbBlockTableRecord
  2
*D12
340
0
  0
BLOCK_RECORD
  5
FD7
330
1
100
AcDbSymbolTableRecord
100
AcDbBlockTableRecord
  2
*D13
340
0
  0
BLOCK_RECORD
  5
FFD
330
1
100
AcDbSymbolTableRecord
100
AcDbBlockTableRecord
  2
*D14
340
0
  0
BLOCK_RECORD
  5
1023
330
1
100
AcDbSymbolTableRecord
100
AcDbBlockTableRecord
  2
*D15
340
0
  0
BLOCK_RECORD
  5
12D4
330
1
100
AcDbSymbolTableRecord
100
AcDbBlockTableRecord
  2
GENDOT
340
0
102
{BLKREFS
331
2747
331
2751
102
}
  0
BLOCK_RECORD
  5
28F1
330
1
100
AcDbSymbolTableRecord
100
AcDbBlockTableRecord
  2
*S19
340
0
  0
BLOCK_RECORD
  5
28F9
330
1
100
AcDbSymbolTableRecord
100
AcDbBlockTableRecord
  2
*S20
340
0
  0
BLOCK_RECORD
  5
2901
330
1
100
AcDbSymbolTableRecord
100
AcDbBlockTableRecord
  2
*S21
340
0
  0
ENDTAB
  0
ENDSEC
  0
SECTION
  2
BLOCKS
  0
BLOCK
  5
20
330
1F
100
AcDbEntity
  8
0
100
AcDbBlockBegin
  2
*Model_Space
 70
     0
 10
0.0
 20
0.0
 30
0.0
  3
*Model_Space
  1

  0
ENDBLK
  5
21
330
1F
100
AcDbEntity
  8
0
100
AcDbBlockEnd
  0
BLOCK
  5
1C
330
1B
100
AcDbEntity
 67
     1
  8
0
100
AcDbBlockBegin
  2
*Paper_Space
 70
     0
 10
0.0
 20
0.0
 30
0.0
  3
*Paper_Space
  1

  0
ENDBLK
  5
1D
330
1B
100
AcDbEntity
 67
     1
  8
0
100
AcDbBlockEnd
  0
BLOCK
  5
24
330
23
100
AcDbEntity
  8
0
100
AcDbBlockBegin
  2
*Paper_Space0
 70
     0
 10
0.0
 20
0.0
 30
0.0
  3
*Paper_Space0
  1

  0
ENDBLK
  5
25
330
23
100
AcDbEntity
  8
0
100
AcDbBlockEnd
  0
BLOCK
  5
89
330
87
100
AcDbEntity
  8
0
100
AcDbBlockBegin
  2
GENAXEH
 70
     0
 10
0.0
 20
0.0
 30
0.0
  3
GENAXEH
  1

  0
LINE
  5
88
330
87
100
AcDbEntity
  8
0
100
AcDbLine
 10
-1.0
 20
0.0
 30
0.0
 11
1.0
 21
0.0
 31
0.0
  0
ENDBLK
  5
8A
330
87
100
AcDbEntity
  8
0
100
AcDbBlockEnd
  0
BLOCK
  5
BFC
330
BFB
100
AcDbEntity
  8
0
100
AcDbBlockBegin
  2
*U4
 70
     1
 10
0.0
 20
0.0
 30
0.0
  3
*U4
  1

  0
ENDBLK
  5
BFD
330
BFB
100
AcDbEntity
  8
0
100
AcDbBlockEnd
  0
BLOCK
  5
E70
330
E66
100
AcDbEntity
  8
0
100
AcDbBlockBegin
  2
*D5
 70
     1
 10
0.0
 20
0.0
 30
0.0
  3
*D5
  1

  0
LINE
  5
272E
330
E66
100
AcDbEntity
  8
AM_5
100
AcDbLine
 10
2888.950948690868
 20
1858.196631030473
 30
0.0
 11
2888.950948690868
 21
1777.616626478867
 31
0.0
  0
LINE
  5
272F
330
E66
100
AcDbEntity
  8
AM_5
100
AcDbLine
 10
2980.950948690868
 20
1858.196631030473
 30
0.0
 11
2980.950948690868
 21
1777.616626478867
 31
0.0
  0
LINE
  5
2730
330
E66
100
AcDbEntity
  8
AM_5
100
AcDbLine
 10
2896.450948690868
 20
1781.366626478867
 30
0.0
 11
2973.450948690868
 21
1781.366626478867
 31
0.0
  0
SOLID
  5
2731
330
E66
100
AcDbEntity
  8
AM_5
100
AcDbTrace
 10
2896.450948690868
 20
1782.616626478867
 30
0.0
 11
2896.450948690868
 21
1780.116626478866
 31
0.0
 12
2888.950948690868
 22
1781.366626478867
 32
0.0
 13
2888.950948690868
 23
1781.366626478867
 33
0.0
  0
SOLID
  5
2732
330
E66
100
AcDbEntity
  8
AM_5
100
AcDbTrace
 10
2973.450948690868
 20
1782.616626478867
 30
0.0
 11
2973.450948690868
 21
1780.116626478866
 31
0.0
 12
2980.950948690868
 22
1781.366626478867
 32
0.0
 13
2980.950948690868
 23
1781.366626478867
 33
0.0
  0
MTEXT
  5
2733
330
E66
100
AcDbEntity
  8
AM_5
100
AcDbMText
 10
2934.950948690869
 20
1787.619177264167
 30
0.0
 40
7.5
 41
0.0
 71
     5
 72
     1
  1
92
 73
     1
 44
1.0
1001
ACAD
1000
MTEXTBEGIN
1070
    73
1070
     1
1070
    44
1040
1.0
1070
    74
1070
     0
1000
MTEXTEND
  0
POINT
  5
2734
330
E66
100
AcDbEntity
  8
Defpoints
 62
     0
100
AcDbPoint
 10
2888.950948690868
 20
1860.696631030473
 30
0.0
  0
POINT
  5
2735
330
E66
100
AcDbEntity
  8
Defpoints
 62
     0
100
AcDbPoint
 10
2980.950948690868
 20
1860.696631030473
 30
0.0
  0
POINT
  5
2736
330
E66
100
AcDbEntity
  8
Defpoints
 62
     0
100
AcDbPoint
 10
2980.950948690868
 20
1781.366626478867
 30
0.0
  0
ENDBLK
  5
E71
330
E66
100
AcDbEntity
  8
0
100
AcDbBlockEnd
  0
BLOCK
  5
EA8
330
E9E
100
AcDbEntity
  8
0
100
AcDbBlockBegin
  2
*D6
 70
     1
 10
0.0
 20
0.0
 30
0.0
  3
*D6
  1

  0
LINE
  5
2725
330
E9E
100
AcDbEntity
  8
AM_5
100
AcDbLine
 10
2874.950948690868
 20
1807.196631030473
 30
0.0
 11
2874.950948690868
 21
1759.616626478867
 31
0.0
  0
LINE
  5
2726
330
E9E
100
AcDbEntity
  8
AM_5
100
AcDbLine
 10
2994.950948690868
 20
1807.196631030473
 30
0.0
 11
2994.950948690868
 21
1759.616626478867
 31
0.0
  0
LINE
  5
2727
330
E9E
100
AcDbEntity
  8
AM_5
100
AcDbLine
 10
2882.450948690868
 20
1763.366626478867
 30
0.0
 11
2987.450948690868
 21
1763.366626478867
 31
0.0
  0
SOLID
  5
2728
330
E9E
100
AcDbEntity
  8
AM_5
100
AcDbTrace
 10
2882.450948690868
 20
1764.616626478867
 30
0.0
 11
2882.450948690868
 21
1762.116626478866
 31
0.0
 12
2874.950948690868
 22
1763.366626478867
 32
0.0
 13
2874.950948690868
 23
1763.366626478867
 33
0.0
  0
SOLID
  5
2729
330
E9E
100
AcDbEntity
  8
AM_5
100
AcDbTrace
 10
2987.450948690868
 20
1764.616626478867
 30
0.0
 11
2987.450948690868
 21
1762.116626478866
 31
0.0
 12
2994.950948690868
 22
1763.366626478867
 32
0.0
 13
2994.950948690868
 23
1763.366626478867
 33
0.0
  0
MTEXT
  5
272A
330
E9E
100
AcDbEntity
  8
AM_5
100
AcDbMText
 10
2934.950948690869
 20
1769.617364667843
 30
0.0
 40
7.5
 41
0.0
 71
     5
 72
     1
  1
120
 73
     1
 44
1.0
1001
ACAD
1000
MTEXTBEGIN
1070
    73
1070
     1
1070
    44
1040
1.0
1070
    74
1070
     0
1000
MTEXTEND
  0
POINT
  5
272B
330
E9E
100
AcDbEntity
  8
Defpoints
 62
     0
100
AcDbPoint
 10
2874.950948690868
 20
1809.696631030473
 30
0.0
  0
POINT
  5
272C
330
E9E
100
AcDbEntity
  8
Defpoints
 62
     0
100
AcDbPoint
 10
2994.950948690868
 20
1809.696631030473
 30
0.0
  0
POINT
  5
272D
330
E9E
100
AcDbEntity
  8
Defpoints
 62
     0
100
AcDbPoint
 10
2994.950948690868
 20
1763.366626478867
 30
0.0
  0
ENDBLK
  5
EA9
330
E9E
100
AcDbEntity
  8
0
100
AcDbBlockEnd
  0
BLOCK
  5
ECE
330
EC4
100
AcDbEntity
  8
0
100
AcDbBlockBegin
  2
*D7
 70
     1
 10
0.0
 20
0.0
 30
0.0
  3
*D7
  1

  0
LINE
  5
2713
330
EC4
100
AcDbEntity
  8
AM_5
100
AcDbLine
 10
2945.450948690869
 20
1820.696631030473
 30
0.0
 11
3028.912981335813
 21
1820.696631030473
 31
0.0
  0
LINE
  5
2714
330
EC4
100
AcDbEntity
  8
AM_5
100
AcDbLine
 10
2943.450948690868
 20
1916.696631030473
 30
0.0
 11
3028.912981335813
 21
1916.696631030473
 31
0.0
  0
LINE
  5
2715
330
EC4
100
AcDbEntity
  8
AM_5
100
AcDbLine
 10
3025.162981335812
 20
1828.196631030473
 30
0.0
 11
3025.162981335812
 21
1909.196631030473
 31
0.0
  0
SOLID
  5
2716
330
EC4
100
AcDbEntity
  8
AM_5
100
AcDbTrace
 10
3023.912981335812
 20
1828.196631030473
 30
0.0
 11
3026.412981335813
 21
1828.196631030473
 31
0.0
 12
3025.162981335812
 22
1820.696631030473
 32
0.0
 13
3025.162981335812
 23
1820.696631030473
 33
0.0
  0
SOLID
  5
2717
330
EC4
100
AcDbEntity
  8
AM_5
100
AcDbTrace
 10
3023.912981335812
 20
1909.196631030473
 30
0.0
 11
3026.412981335813
 21
1909.196631030473
 31
0.0
 12
3025.162981335812
 22
1916.696631030473
 32
0.0
 13
3025.162981335812
 23
1916.696631030473
 33
0.0
  0
MTEXT
  5
2718
330
EC4
100
AcDbEntity
  8
AM_5
100
AcDbMText
 10
3018.912981335812
 20
1868.696631030474
 30
0.0
 40
7.5
 41
0.0
 71
     5
 72
     1
  1
96
 11
0.0000000000000001
 21
1.0
 31
0.0
 73
     1
 44
1.0
1001
ACAD
1000
MTEXTBEGIN
1070
    73
1070
     1
1070
    44
1040
1.0
1070
    74
1070
     0
1000
MTEXTEND
  0
POINT
  5
2719
330
EC4
100
AcDbEntity
  8
Defpoints
 62
     0
100
AcDbPoint
 10
2942.950948690868
 20
1820.696631030473
 30
0.0
  0
POINT
  5
271A
330
EC4
100
AcDbEntity
  8
Defpoints
 62
     0
100
AcDbPoint
 10
2940.950948690868
 20
1916.696631030473
 30
0.0
  0
POINT
  5
271B
330
EC4
100
AcDbEntity
  8
Defpoints
 62
     0
100
AcDbPoint
 10
3025.162981335812
 20
1916.696631030473
 30
0.0
  0
ENDBLK
  5
ECF
330
EC4
100
AcDbEntity
  8
0
100
AcDbBlockEnd
  0
BLOCK
  5
EF4
330
EEA
100
AcDbEntity
  8
0
100
AcDbBlockBegin
  2
*D8
 70
     1
 10
0.0
 20
0.0
 30
0.0
  3
*D8
  1

  0
LINE
  5
271C
330
EEA
100
AcDbEntity
  8
AM_5
100
AcDbLine
 10
2992.450948690868
 20
1804.696631030473
 30
0.0
 11
3046.912981335812
 21
1804.696631030473
 31
0.0
  0
LINE
  5
271D
330
EEA
100
AcDbEntity
  8
AM_5
100
AcDbLine
 10
2992.450948690868
 20
1932.696631030473
 30
0.0
 11
3046.912981335812
 21
1932.696631030473
 31
0.0
  0
LINE
  5
271E
330
EEA
100
AcDbEntity
  8
AM_5
100
AcDbLine
 10
3043.162981335812
 20
1812.196631030473
 30
0.0
 11
3043.162981335812
 21
1925.196631030473
 31
0.0
  0
SOLID
  5
271F
330
EEA
100
AcDbEntity
  8
AM_5
100
AcDbTrace
 10
3041.912981335813
 20
1812.196631030473
 30
0.0
 11
3044.412981335812
 21
1812.196631030473
 31
0.0
 12
3043.162981335812
 22
1804.696631030473
 32
0.0
 13
3043.162981335812
 23
1804.696631030473
 33
0.0
  0
SOLID
  5
2720
330
EEA
100
AcDbEntity
  8
AM_5
100
AcDbTrace
 10
3041.912981335813
 20
1925.196631030473
 30
0.0
 11
3044.412981335812
 21
1925.196631030473
 31
0.0
 12
3043.162981335812
 22
1932.696631030473
 32
0.0
 13
3043.162981335812
 23
1932.696631030473
 33
0.0
  0
MTEXT
  5
2721
330
EEA
100
AcDbEntity
  8
AM_5
100
AcDbMText
 10
3036.912243146836
 20
1868.696631030474
 30
0.0
 40
7.5
 41
0.0
 71
     5
 72
     1
  1
128
 11
0.0000000000000001
 21
1.0
 31
0.0
 73
     1
 44
1.0
1001
ACAD
1000
MTEXTBEGIN
1070
    73
1070
     1
1070
    44
1040
1.0
1070
    74
1070
     0
1000
MTEXTEND
  0
POINT
  5
2722
330
EEA
100
AcDbEntity
  8
Defpoints
 62
     0
100
AcDbPoint
 10
2989.950948690868
 20
1804.696631030473
 30
0.0
  0
POINT
  5
2723
330
EEA
100
AcDbEntity
  8
Defpoints
 62
     0
100
AcDbPoint
 10
2989.950948690868
 20
1932.696631030473
 30
0.0
  0
POINT
  5
2724
330
EEA
100
AcDbEntity
  8
Defpoints
 62
     0
100
AcDbPoint
 10
3043.162981335812
 20
1932.696631030473
 30
0.0
  0
ENDBLK
  5
EF5
330
EEA
100
AcDbEntity
  8
0
100
AcDbBlockEnd
  0
BLOCK
  5
F1A
330
F10
100
AcDbEntity
  8
0
100
AcDbBlockBegin
  2
*D9
 70
     1
 10
0.0
 20
0.0
 30
0.0
  3
*D9
  1

  0
LINE
  5
2738
330
F10
100
AcDbEntity
  8
AM_5
100
AcDbLine
 10
2994.450948724293
 20
1632.532295400836
 30
0.0
 11
3023.391620125499
 21
1632.532295400836
 31
0.0
  0
LINE
  5
2739
330
F10
100
AcDbEntity
  8
AM_5
100
AcDbLine
 10
2995.950948724293
 20
1690.032295400836
 30
0.0
 11
3023.391620125499
 21
1690.032295400836
 31
0.0
  0
LINE
  5
273A
330
F10
100
AcDbEntity
  8
AM_5
100
AcDbLine
 10
3019.641620125498
 20
1640.032295400836
 30
0.0
 11
3019.641620125498
 21
1682.532295400836
 31
0.0
  0
SOLID
  5
273B
330
F10
100
AcDbEntity
  8
AM_5
100
AcDbTrace
 10
3018.391620125499
 20
1640.032295400836
 30
0.0
 11
3020.891620125498
 21
1640.032295400836
 31
0.0
 12
3019.641620125498
 22
1632.532295400836
 32
0.0
 13
3019.641620125498
 23
1632.532295400836
 33
0.0
  0
SOLID
  5
273C
330
F10
100
AcDbEntity
  8
AM_5
100
AcDbTrace
 10
3018.391620125499
 20
1682.532295400836
 30
0.0
 11
3020.891620125498
 21
1682.532295400836
 31
0.0
 12
3019.641620125498
 22
1690.032295400836
 32
0.0
 13
3019.641620125498
 23
1690.032295400836
 33
0.0
  0
MTEXT
  5
273D
330
F10
100
AcDbEntity
  8
AM_5
100
AcDbMText
 10
3013.391620125498
 20
1661.282295400836
 30
0.0
 40
7.5
 41
0.0
 71
     5
 72
     1
  1
57.5+stroke
 11
0.0000000000000001
 21
1.0
 31
0.0
 73
     1
 44
1.0
1001
ACAD
1000
MTEXTBEGIN
1070
    73
1070
     1
1070
    44
1040
1.0
1070
    74
1070
     0
1000
MTEXTEND
  0
POINT
  5
273E
330
F10
100
AcDbEntity
  8
Defpoints
 62
     0
100
AcDbPoint
 10
2991.950948724293
 20
1632.532295400836
 30
0.0
  0
POINT
  5
273F
330
F10
100
AcDbEntity
  8
Defpoints
 62
     0
100
AcDbPoint
 10
2993.450948724293
 20
1690.032295400836
 30
0.0
  0
POINT
  5
2740
330
F10
100
AcDbEntity
  8
Defpoints
 62
     0
100
AcDbPoint
 10
3019.641620125498
 20
1690.032295400836
 30
0.0
  0
ENDBLK
  5
F1B
330
F10
100
AcDbEntity
  8
0
100
AcDbBlockEnd
  0
BLOCK
  5
F42
330
F36
100
AcDbEntity
  8
0
100
AcDbBlockBegin
  2
*D10
 70
     1
 10
0.0
 20
0.0
 30
0.0
  3
*D10
  1

  0
LINE
  5
2741
330
F36
100
AcDbEntity
  8
AM_5
100
AcDbLine
 10
2995.950948724293
 20
1690.032295400836
 30
0.0
 11
3023.391620125499
 21
1690.032295400836
 31
0.0
  0
LINE
  5
2742
330
F36
100
AcDbEntity
  8
AM_5
100
AcDbLine
 10
2997.450948690869
 20
1709.032295400836
 30
0.0
 11
3023.391620125499
 21
1709.032295400836
 31
0.0
  0
LINE
  5
2743
330
F36
100
AcDbEntity
  8
AM_5
100
AcDbLine
 10
3019.641620125498
 20
1682.532295400836
 30
0.0
 11
3019.641620125498
 21
1675.032295400836
 31
0.0
  0
LINE
  5
2744
330
F36
100
AcDbEntity
  8
AM_5
100
AcDbLine
 10
3019.641620125498
 20
1716.532295400836
 30
0.0
 11
3019.641620125498
 21
1724.032295400836
 31
0.0
  0
LINE
  5
2745
330
F36
100
AcDbEntity
  8
AM_5
100
AcDbLine
 10
3019.641620125498
 20
1690.032295400836
 30
0.0
 11
3019.641620125498
 21
1709.032295400836
 31
0.0
  0
SOLID
  5
2746
330
F36
100
AcDbEntity
  8
AM_5
100
AcDbTrace
 10
3018.391620125499
 20
1682.532295400836
 30
0.0
 11
3020.891620125498
 21
1682.532295400836
 31
0.0
 12
3019.641620125498
 22
1690.032295400836
 32
0.0
 13
3019.641620125498
 23
1690.032295400836
 33
0.0
  0
INSERT
  5
2747
330
F36
100
AcDbEntity
  8
AM_5
100
AcDbBlockReference
  2
GENDOT
 10
3019.641620125498
 20
1709.032295400836
 30
0.0
 41
7.5
 42
7.5
 43
7.5
 50
270.0
  0
MTEXT
  5
2748
330
F36
100
AcDbEntity
  8
AM_5
100
AcDbMText
 10
3013.391620125498
 20
1699.532295400836
 30
0.0
 40
7.5
 41
0.0
 71
     5
 72
     1
  1
19
 11
0.0000000000000001
 21
1.0
 31
0.0
 73
     1
 44
1.0
1001
ACAD
1000
MTEXTBEGIN
1070
    73
1070
     1
1070
    44
1040
1.0
1070
    74
1070
     0
1000
MTEXTEND
  0
POINT
  5
2749
330
F36
100
AcDbEntity
  8
Defpoints
 62
     0
100
AcDbPoint
 10
2993.450948724293
 20
1690.032295400836
 30
0.0
  0
POINT
  5
274A
330
F36
100
AcDbEntity
  8
Defpoints
 62
     0
100
AcDbPoint
 10
2994.950948690868
 20
1709.032295400836
 30
0.0
  0
POINT
  5
274B
330
F36
100
AcDbEntity
  8
Defpoints
 62
     0
100
AcDbPoint
 10
3019.641620125498
 20
1709.032295400836
 30
0.0
  0
ENDBLK
  5
F43
330
F36
100
AcDbEntity
  8
0
100
AcDbBlockEnd
  0
BLOCK
  5
F6A
330
F60
100
AcDbEntity
  8
0
100
AcDbBlockBegin
  2
*D11
 70
     1
 10
0.0
 20
0.0
 30
0.0
  3
*D11
  1

  0
LINE
  5
274C
330
F60
100
AcDbEntity
  8
AM_5
100
AcDbLine
 10
2997.450948690869
 20
1709.032295400836
 30
0.0
 11
3023.391620125499
 21
1709.032295400836
 31
0.0
  0
LINE
  5
274D
330
F60
100
AcDbEntity
  8
AM_5
100
AcDbLine
 10
2997.450948690869
 20
1727.032295400836
 30
0.0
 11
3023.391620125499
 21
1727.032295400836
 31
0.0
  0
LINE
  5
274E
330
F60
100
AcDbEntity
  8
AM_5
100
AcDbLine
 10
3019.641620125498
 20
1701.532295400836
 30
0.0
 11
3019.641620125498
 21
1694.032295400836
 31
0.0
  0
LINE
  5
274F
330
F60
100
AcDbEntity
  8
AM_5
100
AcDbLine
 10
3019.641620125498
 20
1734.532295400836
 30
0.0
 11
3019.641620125498
 21
1742.032295400836
 31
0.0
  0
LINE
  5
2750
330
F60
100
AcDbEntity
  8
AM_5
100
AcDbLine
 10
3019.641620125498
 20
1709.032295400836
 30
0.0
 11
3019.641620125498
 21
1727.032295400836
 31
0.0
  0
INSERT
  5
2751
330
F60
100
AcDbEntity
  8
AM_5
100
AcDbBlockReference
  2
GENDOT
 10
3019.641620125498
 20
1709.032295400836
 30
0.0
 41
7.5
 42
7.5
 43
7.5
 50
90.0
  0
SOLID
  5
2752
330
F60
100
AcDbEntity
  8
AM_5
100
AcDbTrace
 10
3018.391620125499
 20
1734.532295400836
 30
0.0
 11
3020.891620125498
 21
1734.532295400836
 31
0.0
 12
3019.641620125498
 22
1727.032295400836
 32
0.0
 13
3019.641620125498
 23
1727.032295400836
 33
0.0
  0
MTEXT
  5
2753
330
F60
100
AcDbEntity
  8
AM_5
100
AcDbMText
 10
3013.391620125498
 20
1718.032295400836
 30
0.0
 40
7.5
 41
0.0
 71
     5
 72
     1
  1
18
 11
0.0000000000000001
 21
1.0
 31
0.0
 73
     1
 44
1.0
1001
ACAD
1000
MTEXTBEGIN
1070
    73
1070
     1
1070
    44
1040
1.0
1070
    74
1070
     0
1000
MTEXTEND
  0
POINT
  5
2754
330
F60
100
AcDbEntity
  8
Defpoints
 62
     0
100
AcDbPoint
 10
2994.950948690868
 20
1709.032295400836
 30
0.0
  0
POINT
  5
2755
330
F60
100
AcDbEntity
  8
Defpoints
 62
     0
100
AcDbPoint
 10
2994.950948690868
 20
1727.032295400836
 30
0.0
  0
POINT
  5
2756
330
F60
100
AcDbEntity
  8
Defpoints
 62
     0
100
AcDbPoint
 10
3019.641620125498
 20
1727.032295400836
 30
0.0
  0
ENDBLK
  5
F6B
330
F60
100
AcDbEntity
  8
0
100
AcDbBlockEnd
  0
BLOCK
  5
F90
330
F86
100
AcDbEntity
  8
0
100
AcDbBlockBegin
  2
*D12
 70
     1
 10
0.0
 20
0.0
 30
0.0
  3
*D12
  1

  0
LINE
  5
2757
330
F86
100
AcDbEntity
  8
AM_5
100
AcDbLine
 10
2994.450948724293
 20
1632.532295400836
 30
0.0
 11
3041.391620125498
 21
1632.532295400836
 31
0.0
  0
LINE
  5
2758
330
F86
100
AcDbEntity
  8
AM_5
100
AcDbLine
 10
2997.450948690869
 20
1727.032295400836
 30
0.0
 11
3041.391620125498
 21
1727.032295400836
 31
0.0
  0
LINE
  5
2759
330
F86
100
AcDbEntity
  8
AM_5
100
AcDbLine
 10
3037.641620125498
 20
1640.032295400836
 30
0.0
 11
3037.641620125498
 21
1719.532295400836
 31
0.0
  0
SOLID
  5
275A
330
F86
100
AcDbEntity
  8
AM_5
100
AcDbTrace
 10
3036.391620125499
 20
1640.032295400836
 30
0.0
 11
3038.891620125498
 21
1640.032295400836
 31
0.0
 12
3037.641620125498
 22
1632.532295400836
 32
0.0
 13
3037.641620125498
 23
1632.532295400836
 33
0.0
  0
SOLID
  5
275B
330
F86
100
AcDbEntity
  8
AM_5
100
AcDbTrace
 10
3036.391620125499
 20
1719.532295400836
 30
0.0
 11
3038.891620125498
 21
1719.532295400836
 31
0.0
 12
3037.641620125498
 22
1727.032295400836
 32
0.0
 13
3037.641620125498
 23
1727.032295400836
 33
0.0
  0
MTEXT
  5
275C
330
F86
100
AcDbEntity
  8
AM_5
100
AcDbMText
 10
3031.391620125498
 20
1679.782295400836
 30
0.0
 40
7.5
 41
0.0
 71
     5
 72
     1
  1
94.5+stroke
 11
0.0000000000000001
 21
1.0
 31
0.0
 73
     1
 44
1.0
1001
ACAD
1000
MTEXTBEGIN
1070
    73
1070
     1
1070
    44
1040
1.0
1070
    74
1070
     0
1000
MTEXTEND
  0
POINT
  5
275D
330
F86
100
AcDbEntity
  8
Defpoints
 62
     0
100
AcDbPoint
 10
2991.950948724293
 20
1632.532295400836
 30
0.0
  0
POINT
  5
275E
330
F86
100
AcDbEntity
  8
Defpoints
 62
     0
100
AcDbPoint
 10
2994.950948690868
 20
1727.032295400836
 30
0.0
  0
POINT
  5
275F
330
F86
100
AcDbEntity
  8
Defpoints
 62
     0
100
AcDbPoint
 10
3037.641620125498
 20
1727.032295400836
 30
0.0
  0
ENDBLK
  5
F91
330
F86
100
AcDbEntity
  8
0
100
AcDbBlockEnd
  0
BLOCK
  5
FE1
330
FD7
100
AcDbEntity
  8
0
100
AcDbBlockBegin
  2
*D13
 70
     1
 10
0.0
 20
0.0
 30
0.0
  3
*D13
  1

  0
LINE
  5
2842
330
FD7
100
AcDbEntity
  8
AM_5
100
AcDbLine
 10
2887.950948690868
 20
1464.106095757994
 30
0.0
 11
2887.950948690868
 21
1424.69910131929
 31
0.0
  0
LINE
  5
2843
330
FD7
100
AcDbEntity
  8
AM_5
100
AcDbLine
 10
2981.950948690868
 20
1461.856095757994
 30
0.0
 11
2981.950948690868
 21
1424.69910131929
 31
0.0
  0
LINE
  5
2844
330
FD7
100
AcDbEntity
  8
AM_5
100
AcDbLine
 10
2895.450948690868
 20
1428.44910131929
 30
0.0
 11
2974.450948690869
 21
1428.44910131929
 31
0.0
  0
SOLID
  5
2845
330
FD7
100
AcDbEntity
  8
AM_5
100
AcDbTrace
 10
2895.450948690868
 20
1429.699101319291
 30
0.0
 11
2895.450948690868
 21
1427.19910131929
 31
0.0
 12
2887.950948690868
 22
1428.44910131929
 32
0.0
 13
2887.950948690868
 23
1428.44910131929
 33
0.0
  0
SOLID
  5
2846
330
FD7
100
AcDbEntity
  8
AM_5
100
AcDbTrace
 10
2974.450948690869
 20
1429.699101319291
 30
0.0
 11
2974.450948690869
 21
1427.19910131929
 31
0.0
 12
2981.950948690868
 22
1428.44910131929
 32
0.0
 13
2981.950948690868
 23
1428.44910131929
 33
0.0
  0
MTEXT
  5
2847
330
FD7
100
AcDbEntity
  8
AM_5
100
AcDbMText
 10
2934.950948690869
 20
1434.69910131929
 30
0.0
 40
7.5
 41
0.0
 71
     5
 72
     1
  1
{\Famgdt|c136;o}94
 73
     1
 44
1.0
1001
ACAD
1000
MTEXTBEGIN
1070
    73
1070
     1
1070
    44
1040
1.0
1070
    74
1070
     0
1000
MTEXTEND
  0
POINT
  5
2848
330
FD7
100
AcDbEntity
  8
Defpoints
 62
     0
100
AcDbPoint
 10
2887.950948690868
 20
1466.606095757994
 30
0.0
  0
POINT
  5
2849
330
FD7
100
AcDbEntity
  8
Defpoints
 62
     0
100
AcDbPoint
 10
2981.950948690868
 20
1464.356095757995
 30
0.0
  0
POINT
  5
284A
330
FD7
100
AcDbEntity
  8
Defpoints
 62
     0
100
AcDbPoint
 10
2981.950948690868
 20
1428.44910131929
 30
0.0
  0
ENDBLK
  5
FE2
330
FD7
100
AcDbEntity
  8
0
100
AcDbBlockEnd
  0
BLOCK
  5
1007
330
FFD
100
AcDbEntity
  8
0
100
AcDbBlockBegin
  2
*D14
 70
     1
 10
0.0
 20
0.0
 30
0.0
  3
*D14
  1

  0
LINE
  5
2894
330
FFD
100
AcDbEntity
  8
AM_5
100
AcDbLine
 10
2876.45094869087
 20
1468.013945194439
 30
0.0
 11
2876.45094869087
 21
1406.69910131929
 31
0.0
  0
LINE
  5
2895
330
FFD
100
AcDbEntity
  8
AM_5
100
AcDbLine
 10
2993.450948724293
 20
1468.013945235409
 30
0.0
 11
2993.450948724293
 21
1406.69910131929
 31
0.0
  0
LINE
  5
2896
330
FFD
100
AcDbEntity
  8
AM_5
100
AcDbLine
 10
2883.95094869087
 20
1410.44910131929
 30
0.0
 11
2985.950948724293
 21
1410.44910131929
 31
0.0
  0
SOLID
  5
2897
330
FFD
100
AcDbEntity
  8
AM_5
100
AcDbTrace
 10
2883.95094869087
 20
1411.69910131929
 30
0.0
 11
2883.95094869087
 21
1409.199101319291
 31
0.0
 12
2876.45094869087
 22
1410.44910131929
 32
0.0
 13
2876.45094869087
 23
1410.44910131929
 33
0.0
  0
SOLID
  5
2898
330
FFD
100
AcDbEntity
  8
AM_5
100
AcDbTrace
 10
2985.950948724293
 20
1411.69910131929
 30
0.0
 11
2985.950948724293
 21
1409.199101319291
 31
0.0
 12
2993.450948724293
 22
1410.44910131929
 32
0.0
 13
2993.450948724293
 23
1410.44910131929
 33
0.0
  0
MTEXT
  5
2899
330
FFD
100
AcDbEntity
  8
AM_5
100
AcDbMText
 10
2934.950948707582
 20
1416.69910131929
 30
0.0
 40
7.5
 41
0.0
 71
     5
 72
     1
  1
117
 73
     1
 44
1.0
1001
ACAD
1000
MTEXTBEGIN
1070
    73
1070
     1
1070
    44
1040
1.0
1070
    74
1070
     0
1000
MTEXTEND
  0
POINT
  5
289A
330
FFD
100
AcDbEntity
  8
Defpoints
 62
     0
100
AcDbPoint
 10
2876.45094869087
 20
1470.513945194439
 30
0.0
  0
POINT
  5
289B
330
FFD
100
AcDbEntity
  8
Defpoints
 62
     0
100
AcDbPoint
 10
2993.450948724293
 20
1470.513945235409
 30
0.0
  0
POINT
  5
289C
330
FFD
100
AcDbEntity
  8
Defpoints
 62
     0
100
AcDbPoint
 10
2993.450948724293
 20
1410.44910131929
 30
0.0
  0
ENDBLK
  5
1008
330
FFD
100
AcDbEntity
  8
0
100
AcDbBlockEnd
  0
BLOCK
  5
102D
330
1023
100
AcDbEntity
  8
0
100
AcDbBlockBegin
  2
*D15
 70
     1
 10
0.0
 20
0.0
 30
0.0
  3
*D15
  1

  0
LINE
  5
282F
330
1023
100
AcDbEntity
  8
AM_5
100
AcDbLine
 10
2989.043099279743
 20
1463.606095783313
 30
0.0
 11
3025.819163768375
 21
1463.606095783313
 31
0.0
  0
LINE
  5
2830
330
1023
100
AcDbEntity
  8
AM_5
100
AcDbLine
 10
2950.450948689516
 20
1587.106095767994
 30
0.0
 11
3025.819163768375
 21
1587.106095767994
 31
0.0
  0
LINE
  5
2831
330
1023
100
AcDbEntity
  8
AM_5
100
AcDbLine
 10
3022.069163768375
 20
1471.106095783313
 30
0.0
 11
3022.069163768375
 21
1579.606095767994
 31
0.0
  0
SOLID
  5
2832
330
1023
100
AcDbEntity
  8
AM_5
100
AcDbTrace
 10
3020.819163768375
 20
1471.106095783313
 30
0.0
 11
3023.319163768375
 21
1471.106095783313
 31
0.0
 12
3022.069163768375
 22
1463.606095783313
 32
0.0
 13
3022.069163768375
 23
1463.606095783313
 33
0.0
  0
SOLID
  5
2833
330
1023
100
AcDbEntity
  8
AM_5
100
AcDbTrace
 10
3020.819163768375
 20
1579.606095767994
 30
0.0
 11
3023.319163768375
 21
1579.606095767994
 31
0.0
 12
3022.069163768375
 22
1587.106095767994
 32
0.0
 13
3022.069163768375
 23
1587.106095767994
 33
0.0
  0
MTEXT
  5
2834
330
1023
100
AcDbEntity
  8
AM_5
100
AcDbMText
 10
3015.818425579398
 20
1525.356095775654
 30
0.0
 40
7.5
 41
0.0
 71
     5
 72
     1
  1
123.5
 11
0.0000000000000001
 21
1.0
 31
0.0
 73
     1
 44
1.0
1001
ACAD
1000
MTEXTBEGIN
1070
    73
1070
     1
1070
    44
1040
1.0
1070
    74
1070
     0
1000
MTEXTEND
  0
POINT
  5
2835
330
1023
100
AcDbEntity
  8
Defpoints
 62
     0
100
AcDbPoint
 10
2986.543099279743
 20
1463.606095783313
 30
0.0
  0
POINT
  5
2836
330
1023
100
AcDbEntity
  8
Defpoints
 62
     0
100
AcDbPoint
 10
2947.950948689516
 20
1587.106095767994
 30
0.0
  0
POINT
  5
2837
330
1023
100
AcDbEntity
  8
Defpoints
 62
     0
100
AcDbPoint
 10
3022.069163768375
 20
1587.106095767994
 30
0.0
  0
ENDBLK
  5
102E
330
1023
100
AcDbEntity
  8
0
100
AcDbBlockEnd
  0
BLOCK
  5
12D7
330
12D4
100
AcDbEntity
  8
0
100
AcDbBlockBegin
  2
GENDOT
 70
     0
 10
0.0
 20
0.0
 30
0.0
  3
GENDOT
  1

  0
LINE
  5
12D5
330
12D4
100
AcDbEntity
  8
0
100
AcDbLine
 10
0.0
 20
0.0
 30
0.0
 11
-1.0
 21
0.0
 31
0.0
  0
LWPOLYLINE
  5
12D6
330
12D4
100
AcDbEntity
  8
0
100
AcDbPolyline
 90
        2
 70
     1
 43
0.25
 10
-0.125
 20
0.0
 42
1.0
 10
0.125
 20
0.0
 42
1.0
  0
ENDBLK
  5
12D8
330
12D4
100
AcDbEntity
  8
0
100
AcDbBlockEnd
  0
BLOCK
  5
28F6
330
28F1
100
AcDbEntity
  8
0
100
AcDbBlockBegin
  2
*S19
 70
     1
 10
0.0
 20
0.0
 30
0.0
  3
*S19
  1

  0
LINE
  5
28F2
330
28F1
100
AcDbEntity
  8
AM_5
 62
     5
100
AcDbLine
 10
3152.043599751895
 20
1431.046512540374
 30
0.0
 11
3043.004272611313
 21
1431.046512540374
 31
0.0
  0
LINE
  5
28F3
330
28F1
100
AcDbEntity
  8
AM_5
 62
     5
100
AcDbLine
 10
3043.004272611313
 20
1431.046512540374
 30
0.0
 11
2993.338399269926
 21
1466.822447366429
 31
0.0
  0
TRACE
  5
28F4
330
28F1
100
AcDbEntity
  8
AM_5
 62
     5
370
    35
100
AcDbTrace
 10
2994.011699130229
 20
1467.757154614335
 30
0.0
 11
2992.665099409624
 21
1465.887740118522
 31
0.0
 12
2986.238592815768
 22
1471.936667572236
 32
0.0
 13
2986.238592815768
 23
1471.936667572236
 33
0.0
  0
MTEXT
  5
28F5
330
28F1
100
AcDbEntity
  8
AM_5
 62
     5
100
AcDbMText
 10
3046.504272611314
 20
1432.796512540374
 30
0.0
 40
8.75
 41
0.0
 71
     7
 72
     5
  1
2-%%C11 thru\P2-%%C17.5x11 depth\P2-M12x1.75x22 depth
  7
ACISOTS
 73
     1
 44
1.0
1001
ACAD
1000
MTEXTBEGIN
1070
    73
1070
     1
1070
    44
1040
1.0
1070
    74
1070
     0
1000
MTEXTEND
  0
ENDBLK
  5
28F7
330
28F1
100
AcDbEntity
  8
0
100
AcDbBlockEnd
  0
BLOCK
  5
28FE
330
28F9
100
AcDbEntity
  8
0
100
AcDbBlockBegin
  2
*S20
 70
     1
 10
0.0
 20
0.0
 30
0.0
  3
*S20
  1

  0
LINE
  5
28FA
330
28F9
100
AcDbEntity
  8
AM_5
 62
     5
100
AcDbLine
 10
3013.709997132301
 20
1609.955802175399
 30
0.0
 11
2968.862802250411
 21
1609.955802175399
 31
0.0
  0
LINE
  5
28FB
330
28F9
100
AcDbEntity
  8
AM_5
 62
     5
100
AcDbLine
 10
2968.862802250411
 20
1609.955802175399
 30
0.0
 11
2946.125483743977
 21
1634.465874590036
 31
0.0
  0
TRACE
  5
28FC
330
28F9
100
AcDbEntity
  8
AM_5
 62
     5
370
    35
100
AcDbTrace
 10
2946.970010531853
 20
1635.24931880996
 30
0.0
 11
2945.2809569561
 21
1633.682430370112
 31
0.0
 12
2940.174634061849
 22
1640.880692440975
 32
0.0
 13
2940.174634061849
 23
1640.880692440975
 33
0.0
  0
MTEXT
  5
28FD
330
28F9
100
AcDbEntity
  8
AM_5
 62
     5
100
AcDbMText
 10
2972.362802250411
 20
1611.705802175399
 30
0.0
 40
8.75
 41
0.0
 71
     7
 72
     5
  1
2-PT1/4
  7
ACISOTS
 73
     1
 44
1.0
1001
ACAD
1000
MTEXTBEGIN
1070
    73
1070
     1
1070
    44
1040
1.0
1070
    74
1070
     0
1000
MTEXTEND
  0
ENDBLK
  5
28FF
330
28F9
100
AcDbEntity
  8
0
100
AcDbBlockEnd
  0
BLOCK
  5
2906
330
2901
100
AcDbEntity
  8
0
100
AcDbBlockBegin
  2
*S21
 70
     1
 10
0.0
 20
0.0
 30
0.0
  3
*S21
  1

  0
LINE
  5
2902
330
2901
100
AcDbEntity
  8
AM_5
 62
     5
100
AcDbLine
 10
3125.814848610037
 20
1828.375562317289
 30
0.0
 11
3047.939848610037
 21
1828.375562317289
 31
0.0
  0
LINE
  5
2903
330
2901
100
AcDbEntity
  8
AM_5
 62
     5
100
AcDbLine
 10
3047.939848610037
 20
1828.375562317289
 30
0.0
 11
2993.102041132246
 21
1860.143546734953
 31
0.0
  0
TRACE
  5
2904
330
2901
100
AcDbEntity
  8
AM_5
 62
     5
370
    35
100
AcDbTrace
 10
2993.679483809281
 20
1861.140326698592
 30
0.0
 11
2992.524598455211
 21
1859.146766771315
 31
0.0
 12
2985.530745590176
 22
1864.529659343475
 32
0.0
 13
2985.530745590176
 23
1864.529659343475
 33
0.0
  0
MTEXT
  5
2905
330
2901
100
AcDbEntity
  8
AM_5
 62
     5
100
AcDbMText
 10
3051.439848610036
 20
1830.125562317289
 30
0.0
 40
8.75
 41
0.0
 71
     7
 72
     5
  1
4-M10x1.5 thru
  7
ACISOTS
 73
     1
 44
1.0
1001
ACAD
1000
MTEXTBEGIN
1070
    73
1070
     1
1070
    44
1040
1.0
1070
    74
1070
     0
1000
MTEXTEND
  0
ENDBLK
  5
2907
330
2901
100
AcDbEntity
  8
0
100
AcDbBlockEnd
  0
ENDSEC
  0
SECTION
  2
ENTITIES
  0
DIMENSION
  5
E65
330
1F
100
AcDbEntity
  8
AM_5
100
AcDbDimension
  2
*D5
 10
2980.950948690868
 20
1781.366626478867
 30
0.0
 11
2934.950948690869
 21
1787.619177264167
 31
0.0
 70
    32
 71
     5
 42
92.0
  3
AM_ISO$0
100
AcDbAlignedDimension
 13
2888.950948690868
 23
1860.696631030473
 33
0.0
 14
2980.950948690868
 24
1860.696631030473
 34
0.0
100
AcDbRotatedDimension
1001
ACAD
1000
DSTYLE
1002
{
1070
    40
1040
2.5
1002
}
  0
DIMENSION
  5
E9D
330
1F
100
AcDbEntity
  8
AM_5
100
AcDbDimension
  2
*D6
 10
2994.950948690868
 20
1763.366626478867
 30
0.0
 11
2934.950948690869
 21
1769.617364667843
 31
0.0
 70
    32
 71
     5
 42
120.0
  3
AM_ISO$0
100
AcDbAlignedDimension
 13
2874.950948690868
 23
1809.696631030473
 33
0.0
 14
2994.950948690868
 24
1809.696631030473
 34
0.0
100
AcDbRotatedDimension
1001
ACAD
1000
DSTYLE
1002
{
1070
    40
1040
2.5
1002
}
  0
DIMENSION
  5
EC3
330
1F
100
AcDbEntity
  8
AM_5
100
AcDbDimension
  2
*D7
 10
3025.162981335812
 20
1916.696631030473
 30
0.0
 11
3018.912981335812
 21
1868.696631030474
 31
0.0
 70
    32
 71
     5
 42
96.0
  3
AM_ISO$0
100
AcDbAlignedDimension
 13
2942.950948690868
 23
1820.696631030473
 33
0.0
 14
2940.950948690868
 24
1916.696631030473
 34
0.0
 50
90.0
100
AcDbRotatedDimension
1001
ACAD
1000
DSTYLE
1002
{
1070
    40
1040
2.5
1002
}
  0
DIMENSION
  5
EE9
330
1F
100
AcDbEntity
  8
AM_5
100
AcDbDimension
  2
*D8
 10
3043.162981335812
 20
1932.696631030473
 30
0.0
 11
3036.912243146836
 21
1868.696631030474
 31
0.0
 70
    32
 71
     5
 42
127.9999999999998
  3
AM_ISO$0
100
AcDbAlignedDimension
 13
2989.950948690868
 23
1804.696631030473
 33
0.0
 14
2989.950948690868
 24
1932.696631030473
 34
0.0
 50
90.0
100
AcDbRotatedDimension
1001
ACAD
1000
DSTYLE
1002
{
1070
    40
1040
2.5
1002
}
  0
DIMENSION
  5
F0F
330
1F
100
AcDbEntity
  8
AM_5
100
AcDbDimension
  2
*D9
 10
3019.641620125498
 20
1690.032295400836
 30
0.0
 11
3013.391620125498
 21
1661.282295400836
 31
0.0
 70
    32
  1
<>+stroke
 71
     5
 42
57.5
  3
AM_ISO$0
100
AcDbAlignedDimension
 13
2991.950948724293
 23
1632.532295400836
 33
0.0
 14
2993.450948724293
 24
1690.032295400836
 34
0.0
 50
90.0
100
AcDbRotatedDimension
1001
ACAD
1000
DSTYLE
1002
{
1070
    40
1040
2.5
1002
}
  0
DIMENSION
  5
F35
330
1F
100
AcDbEntity
  8
AM_5
100
AcDbDimension
  2
*D10
 10
3019.641620125498
 20
1709.032295400836
 30
0.0
 11
3019.641620125498
 21
1699.532295400836
 31
0.0
 70
   160
 71
     5
 42
19.0
  3
AM_ISO$0
100
AcDbAlignedDimension
 13
2993.450948724293
 23
1690.032295400836
 33
0.0
 14
2994.950948690868
 24
1709.032295400836
 34
0.0
 50
90.0
100
AcDbRotatedDimension
1001
ACAD
1000
DSTYLE
1002
{
1070
    40
1040
2.5
1070
   173
1070
     1
1070
   174
1070
     1
1070
   344
1005
12D4
1002
}
  0
DIMENSION
  5
F5F
330
1F
100
AcDbEntity
  8
AM_5
100
AcDbDimension
  2
*D11
 10
3019.641620125498
 20
1727.032295400836
 30
0.0
 11
3013.391620125498
 21
1718.032295400836
 31
0.0
 70
    32
 71
     5
 42
18.0
  3
AM_ISO$0
100
AcDbAlignedDimension
 13
2994.950948690868
 23
1709.032295400836
 33
0.0
 14
2994.950948690868
 24
1727.032295400836
 34
0.0
 50
90.0
100
AcDbRotatedDimension
1001
ACAD
1000
DSTYLE
1002
{
1070
    40
1040
2.5
1070
   173
1070
     1
1070
   174
1070
     1
1070
   343
1005
12D4
1002
}
  0
DIMENSION
  5
F85
330
1F
100
AcDbEntity
  8
AM_5
100
AcDbDimension
  2
*D12
 10
3037.641620125498
 20
1727.032295400836
 30
0.0
 11
3031.391620125498
 21
1679.782295400836
 31
0.0
 70
    32
  1
<>+stroke
 71
     5
 42
94.50000000000001
  3
AM_ISO$0
100
AcDbAlignedDimension
 13
2991.950948724293
 23
1632.532295400836
 33
0.0
 14
2994.950948690868
 24
1727.032295400836
 34
0.0
 50
90.0
100
AcDbRotatedDimension
1001
ACAD
1000
DSTYLE
1002
{
1070
    40
1040
2.5
1002
}
  0
DIMENSION
  5
FD6
330
1F
100
AcDbEntity
  8
AM_5
100
AcDbDimension
  2
*D13
 10
2981.950948690868
 20
1428.44910131929
 30
0.0
 11
2934.950948690869
 21
1434.69910131929
 31
0.0
 70
    32
  1
{\Famgdt;o}<>
 71
     5
 42
94.0
  3
AM_ISO$0
100
AcDbAlignedDimension
 13
2887.950948690868
 23
1466.606095757994
 33
0.0
 14
2981.950948690868
 24
1464.356095757995
 34
0.0
100
AcDbRotatedDimension
1001
ACAD
1000
DSTYLE
1002
{
1070
    40
1040
2.5
1002
}
  0
DIMENSION
  5
FFC
330
1F
100
AcDbEntity
  8
AM_5
100
AcDbDimension
  2
*D14
 10
2993.450948724293
 20
1410.44910131929
 30
0.0
 11
2934.950948707582
 21
1416.69910131929
 31
0.0
 70
    32
 71
     5
 42
117.000000033423
  3
AM_ISO$0
100
AcDbAlignedDimension
 13
2876.45094869087
 23
1470.513945194439
 33
0.0
 14
2993.450948724293
 24
1470.513945235409
 34
0.0
100
AcDbRotatedDimension
1001
ACAD
1000
DSTYLE
1002
{
1070
    40
1040
2.5
1002
}
  0
DIMENSION
  5
1022
330
1F
100
AcDbEntity
  8
AM_5
100
AcDbDimension
  2
*D15
 10
3022.069163768375
 20
1587.106095767994
 30
0.0
 11
3015.818425579398
 21
1525.356095775654
 31
0.0
 70
    32
 71
     5
 42
123.4999999846818
  3
AM_ISO$0
100
AcDbAlignedDimension
 13
2986.543099279743
 23
1463.606095783313
 33
0.0
 14
2947.950948689516
 24
1587.106095767994
 34
0.0
 50
90.0
100
AcDbRotatedDimension
1001
ACAD
1000
DSTYLE
1002
{
1070
    40
1040
2.5
1002
}
  0
INSERT
  5
1266
330
1F
100
AcDbEntity
  8
AM_5
100
AcDbBlockReference
  2
*S19
 10
0.0
 20
0.0
 30
0.0
  0
INSERT
  5
14F5
330
1F
100
AcDbEntity
  8
AM_5
100
AcDbBlockReference
  2
*S20
 10
0.0
 20
0.0
 30
0.0
  0
INSERT
  5
1509
330
1F
100
AcDbEntity
  8
AM_5
100
AcDbBlockReference
  2
*S21
 10
0.0
 20
0.0
 30
0.0
  0
LINE
  5
15A2
330
1F
100
AcDbEntity
  8
LOGO
 62
     4
100
AcDbLine
 10
3285.635845912488
 20
1361.079321170473
 30
0.0
 11
2764.222645912488
 21
1361.079321170473
 31
0.0
  0
LWPOLYLINE
  5
15A3
330
1F
100
AcDbEntity
  8
LOGO
 62
     4
100
AcDbPolyline
 90
        4
 70
     1
 43
0.0
 10
2764.222645912488
 20
1361.079321170474
 10
3285.635845912489
 20
1361.079321170474
 10
3285.635845912489
 20
1979.333951044861
 10
2764.222645912488
 20
1979.333951044861
1001
GENIUS_GENREC_14
1002
{
1000
PYDIR
1011
2764.222645912488
1021
1979.333951044861
1031
0.0
1002
}
1002
{
1000
PXDIR
1011
3285.635845912489
1021
1361.079321170474
1031
0.0
1002
}
1002
{
1000
PORI
1011
2764.222645912488
1021
1361.079321170474
1031
0.0
1002
}
1002
{
1000
PINS
1011
2764.222645912488
1021
1361.079321170474
1031
0.0
1002
}
1002
{
1000
PINS2
1011
3285.635845912489
1021
1979.333951044861
1031
0.0
1002
}
1002
{
1000
C
1070
     1
1002
}
1001
GENIUS_GENODEF_13
1002
{
1000
HIER
1070
     0
1002
}
1002
{
1000
MANEDIT
1070
     0
1002
}
1002
{
1000
NOSEL
1070
     0
1002
}
1002
{
1000
BEHIND
1070
     0
1002
}
1002
{
1000
OTHER
1070
     0
1002
}
1002
{
1000
REACTOR
1002
}
1001
GENIUS_GENOBJ-N-REC_13
1002
{
1000
OWNER
1000
GEN
1002
}
  0
LWPOLYLINE
  5
15A4
330
1F
100
AcDbEntity
  8
LOGO
 62
     4
100
AcDbPolyline
 90
        4
 70
     1
 43
0.0
 10
2764.222645912488
 20
1361.079321170474
 10
3285.635845912489
 20
1361.079321170474
 10
3285.635845912489
 20
1308.945551044861
 10
2764.222645912488
 20
1308.945551044861
1001
GENIUS_GENREC_14
1002
{
1000
PYDIR
1011
2764.222645912488
1021
1308.945551044861
1031
0.0
1002
}
1002
{
1000
PXDIR
1011
3285.635845912489
1021
1361.079321170474
1031
0.0
1002
}
1002
{
1000
PORI
1011
2764.222645912488
1021
1361.079321170474
1031
0.0
1002
}
1002
{
1000
PINS
1011
2764.222645912488
1021
1361.079321170474
1031
0.0
1002
}
1002
{
1000
PINS2
1011
3285.635845912489
1021
1308.945551044861
1031
0.0
1002
}
1002
{
1000
C
1070
     1
1002
}
1001
GENIUS_GENOBJ-N-REC_13
1002
{
1000
OWNER
1000
GEN
1002
}
1001
GENIUS_GENODEF_13
1002
{
1000
HIER
1070
     0
1002
}
1002
{
1000
MANEDIT
1070
     0
1002
}
1002
{
1000
NOSEL
1070
     0
1002
}
1002
{
1000
BEHIND
1070
     0
1002
}
1002
{
1000
OTHER
1070
     0
1002
}
1002
{
1000
REACTOR
1002
}
  0
TEXT
  5
15A5
330
1F
100
AcDbEntity
  8
LOGO
 62
     7
100
AcDbText
 10
2881.937246848453
 20
1338.240403610347
 30
0.0
 40
6.951169350081448
  1
Order example:
 41
0.8
  7
CHINESET
100
AcDbText
  0
TEXT
  5
15A6
330
1F
100
AcDbEntity
  8
LOGO
 62
     7
100
AcDbText
 10
2883.18434411369
 20
1348.026210797283
 30
0.0
 40
10.42675402512217
  1
訂購代號：
  7
CHINESET
100
AcDbText
  0
LINE
  5
15A7
330
1F
100
AcDbEntity
  8
LOGO
 62
     4
100
AcDbLine
 10
2878.916940188832
 20
1308.945551044862
 30
0.0
 11
2878.916940188832
 21
1361.079321170473
 31
0.0
  0
TEXT
  5
15A8
330
1F
100
AcDbEntity
  8
LOGO
  6
Continuous
100
AcDbText
 10
2782.949330487438
 20
1319.18715150932
 30
0.0
 40
7.82006551884163
  1
金器工業股份有限公司
  7
CHINESET
100
AcDbText
  0
TEXT
  5
15A9
330
1F
100
AcDbEntity
  8
LOGO
  6
Continuous
100
AcDbText
 10
2768.585417252993
 20
1311.365553870753
 30
0.0
 40
5.213377012561085
  1
MINDMAN INDUSTRIAL CO., LTD.
 41
0.85
  7
CHINESET
100
AcDbText
  0
LINE
  5
15AA
330
1F
100
AcDbEntity
  8
LOGO
 62
     4
100
AcDbLine
 10
2878.916940188832
 20
1350.652567145351
 30
0.0
 11
2802.454077337935
 21
1350.652567145351
 31
0.0
  0
LINE
  5
15AB
330
1F
100
AcDbEntity
  8
LOGO
 62
     4
100
AcDbLine
 10
2878.916940188832
 20
1340.225813120229
 30
0.0
 11
2802.454077337935
 21
1340.225813120229
 31
0.0
  0
LINE
  5
15AC
330
1F
100
AcDbEntity
  8
LOGO
 62
     4
100
AcDbLine
 10
2878.916940188832
 20
1329.799059095108
 30
0.0
 11
2764.222645912488
 21
1329.799059095108
 31
0.0
  0
LINE
  5
15AD
330
1F
100
AcDbEntity
  8
LOGO
 62
     4
100
AcDbLine
 10
2802.454077337935
 20
1329.799059095108
 30
0.0
 11
2802.454077337935
 21
1361.079321170473
 31
0.0
  0
TEXT
  5
15AE
330
1F
100
AcDbEntity
  8
LOGO
100
AcDbText
 10
2854.712835104368
 20
1332.405747601387
 30
0.0
 40
5.213377012561085
  1
mm
  7
CHINESET
 72
     1
 11
2861.167492358015
 21
1335.012436107667
 31
0.0
100
AcDbText
 73
     2
  0
TEXT
  5
15AF
330
1F
100
AcDbEntity
  8
LOGO
100
AcDbText
 10
2851.982018573979
 20
1353.259255651631
 30
0.0
 40
5.213377012561085
  1
1 : 1
  7
CHINESET
 72
     1
 11
2861.167492358015
 21
1355.865944157911
 31
0.0
100
AcDbText
 73
     2
  0
LINE
  5
15B0
330
1F
100
AcDbEntity
  8
LOGO
 62
     4
100
AcDbLine
 10
2844.161093438425
 20
1329.799059095108
 30
0.0
 11
2844.161093438425
 21
1361.079321170473
 31
0.0
  0
CIRCLE
  5
15B1
330
1F
100
AcDbEntity
  8
LOGO
  6
Continuous
100
AcDbCircle
 10
2853.81431305607
 20
1345.450341584371
 30
0.0
 40
3.027009402555288
  0
CIRCLE
  5
15B2
330
1F
100
AcDbEntity
  8
LOGO
  6
Continuous
100
AcDbCircle
 10
2853.81431305607
 20
1345.450341584371
 30
0.0
 40
1.773559543916143
  0
LINE
  5
15B3
330
1F
100
AcDbEntity
  8
LOGO
100
AcDbLine
 10
2872.836391381044
 20
1342.423332181814
 30
0.0
 11
2872.836391381044
 21
1348.477350986926
 31
0.0
  0
LINE
  5
15B4
330
1F
100
AcDbEntity
  8
LOGO
100
AcDbLine
 10
2863.346890662665
 20
1343.676782040455
 30
0.0
 11
2863.346890662665
 21
1347.223901128287
 31
0.0
  0
LINE
  5
15B5
330
1F
100
AcDbEntity
  8
LOGO
  6
Continuous
100
AcDbLine
 10
2863.346890662665
 20
1347.223901128287
 30
0.0
 11
2872.836391381044
 21
1348.477350986926
 31
0.0
  0
LINE
  5
15B6
330
1F
100
AcDbEntity
  8
LOGO
  6
Continuous
100
AcDbLine
 10
2863.346890662665
 20
1343.676782040455
 30
0.0
 11
2872.836391381044
 21
1342.423332181814
 31
0.0
  0
TEXT
  5
15B7
330
1F
100
AcDbEntity
  8
LOGO
100
AcDbText
 10
2806.752785972845
 20
1353.261821289925
 30
341.67614086635
 40
5.213377012561085
  1
比例 Scale:
 41
0.9
  7
CHINESET
 72
     4
 11
2823.307585388178
 21
1355.865944157911
 31
341.67614086635
100
AcDbText
  0
TEXT
  5
15B8
330
1F
100
AcDbEntity
  8
LOGO
100
AcDbText
 10
2806.452551314533
 20
1342.905836121067
 30
341.67614086635
 40
5.213377012561085
  1
投影  View:
 41
0.9
  7
CHINESET
 72
     4
 11
2823.307585388178
 21
1345.43919013279
 31
341.67614086635
100
AcDbText
  0
TEXT
  5
15B9
330
1F
100
AcDbEntity
  8
LOGO
100
AcDbText
 10
2806.962252013529
 20
1332.405747601387
 30
341.67614086635
 40
5.213377012561085
  1
單位  Unit:
 41
0.9
  7
CHINESET
 72
     4
 11
2823.307585388178
 21
1335.012436107667
 31
341.67614086635
100
AcDbText
  0
SOLID
  5
15BA
330
1F
100
AcDbEntity
  8
LOGO
 62
     5
100
AcDbTrace
 10
2769.631608231356
 20
1338.465556312706
 30
0.0
 11
2771.885735652575
 21
1338.465556312706
 31
0.0
 12
2781.29088799628
 22
1359.8409025484
 32
0.0
 13
2783.545015417499
 23
1359.840902548399
 33
0.0
  0
SOLID
  5
15BB
330
1F
100
AcDbEntity
  8
LOGO
 62
     5
100
AcDbTrace
 10
2772.818478033772
 20
1338.465556312706
 30
0.0
 11
2775.07260545499
 21
1338.465556312706
 31
0.0
 12
2783.545015417499
 22
1358.130874849544
 32
0.0
 13
2781.29088799628
 23
1349.865740971742
 33
0.0
  0
SOLID
  5
15BC
330
1F
100
AcDbEntity
  8
LOGO
 62
     2
100
AcDbTrace
 10
2771.885735652575
 20
1338.465556312706
 30
0.0
 11
2772.818478033772
 21
1338.465556312706
 31
0.0
 12
2783.545015417499
 22
1359.840902548399
 32
0.0
 13
2784.477757798695
 23
1359.840902548399
 33
0.0
  0
SOLID
  5
15BD
330
1F
100
AcDbEntity
  8
LOGO
 62
     5
100
AcDbTrace
 10
2766.017689195387
 20
1330.69270313609
 30
0.0
 11
2766.79497451305
 21
1330.69270313609
 31
0.0
 12
2768.98387046664
 22
1334.579129724398
 32
0.0
 13
2769.7611557843
 23
1334.579129724398
 33
0.0
  0
SOLID
  5
15BE
330
1F
100
AcDbEntity
  8
LOGO
 62
     5
100
AcDbTrace
 10
2768.98387046664
 20
1334.579129724398
 30
0.0
 11
2769.7611557843
 21
1334.579129724398
 31
0.0
 12
2768.98387046664
 22
1330.69270313609
 32
0.0
 13
2769.7611557843
 23
1330.69270313609
 33
0.0
  0
SOLID
  5
15BF
330
1F
100
AcDbEntity
  8
LOGO
 62
     5
100
AcDbTrace
 10
2768.98387046664
 20
1330.69270313609
 30
0.0
 11
2769.7611557843
 21
1330.69270313609
 31
0.0
 12
2771.950051737892
 22
1334.579129724398
 32
0.0
 13
2772.727337055553
 23
1334.579129724398
 33
0.0
  0
SOLID
  5
15C0
330
1F
100
AcDbEntity
  8
LOGO
 62
     5
100
AcDbTrace
 10
2771.950051737892
 20
1334.579129724398
 30
0.0
 11
2772.727337055553
 21
1334.579129724398
 31
0.0
 12
2771.950051737892
 22
1330.69270313609
 32
0.0
 13
2772.727337055553
 23
1330.69270313609
 33
0.0
  0
POLYLINE
  5
15C1
330
1F
100
AcDbEntity
  8
LOGO
 62
     5
100
AcDb2dPolyline
 66
     1
 10
0.0
 20
0.0
 30
0.0
 40
0.7785309672091221
 41
0.7785309672091221
  0
VERTEX
  5
15C2
330
15C1
100
AcDbEntity
  8
LOGO
 62
     5
100
AcDbVertex
100
AcDb2dVertex
 10
2798.004390800327
 20
1333.024559089075
 30
0.0
 42
1.0
  0
VERTEX
  5
15C3
330
15C1
100
AcDbEntity
  8
LOGO
 62
     5
100
AcDbVertex
100
AcDb2dVertex
 10
2795.6687978987
 20
1333.024559089075
 30
0.0
 42
1.0
  0
SEQEND
  5
15C4
330
15C1
100
AcDbEntity
  8
LOGO
 62
     5
  0
POLYLINE
  5
15C5
330
1F
100
AcDbEntity
  8
LOGO
 62
     5
100
AcDb2dPolyline
 66
     1
 10
0.0
 20
0.0
 30
0.0
 70
     1
  0
VERTEX
  5
15C6
330
15C5
100
AcDbEntity
  8
LOGO
 62
     5
100
AcDbVertex
100
AcDb2dVertex
 10
2791.266101391958
 20
1332.635916430243
 30
0.0
 42
1.000000057330635
  0
VERTEX
  5
15C7
330
15C5
100
AcDbEntity
  8
LOGO
 62
     5
100
AcDbVertex
100
AcDb2dVertex
 10
2793.597957344942
 20
1332.635916430243
 30
0.0
 42
1.000000057330635
  0
SEQEND
  5
15C8
330
15C5
100
AcDbEntity
  8
LOGO
 62
     5
  0
CIRCLE
  5
15C9
330
1F
100
AcDbEntity
  8
LOGO
 62
     5
100
AcDbCircle
 10
2792.432029368453
 20
1332.635916430243
 30
0.0
 40
1.165927976492381
  0
POLYLINE
  5
15CA
330
1F
100
AcDbEntity
  8
LOGO
 62
     5
100
AcDb2dPolyline
 66
     1
 10
0.0
 20
0.0
 30
0.0
 70
     1
 40
0.7785309672091221
 41
0.7785309672091221
  0
VERTEX
  5
15CB
330
15CA
100
AcDbEntity
  8
LOGO
 62
     5
100
AcDbVertex
100
AcDb2dVertex
 10
2790.874967434033
 20
1332.635916430243
 30
0.0
 42
1.0
  0
VERTEX
  5
15CC
330
15CA
100
AcDbEntity
  8
LOGO
 62
     5
100
AcDbVertex
100
AcDb2dVertex
 10
2793.98909130287
 20
1332.635916430243
 30
0.0
 42
1.0
  0
SEQEND
  5
15CD
330
15CA
100
AcDbEntity
  8
LOGO
 62
     5
  0
LINE
  5
15CE
330
1F
100
AcDbEntity
  8
LOGO
100
AcDbLine
 10
2798.391164984835
 20
1330.69270313609
 30
0.0
 11
2798.391164984835
 21
1333.024559089075
 31
0.0
  0
SOLID
  5
15CF
330
1F
100
AcDbEntity
  8
LOGO
 62
     5
100
AcDbTrace
 10
2793.597879616415
 20
1334.579129724398
 30
0.0
 11
2794.375164934074
 21
1334.579129724398
 31
0.0
 12
2793.597879616415
 22
1330.69270313609
 32
0.0
 13
2794.375164934074
 23
1330.69270313609
 33
0.0
  0
SOLID
  5
15D0
330
1F
100
AcDbEntity
  8
LOGO
 62
     5
100
AcDbTrace
 10
2795.282023714189
 20
1330.69270313609
 30
0.0
 11
2796.059309031851
 21
1330.69270313609
 31
0.0
 12
2795.282023714189
 22
1334.579129724398
 32
0.0
 13
2796.059309031851
 23
1334.579129724398
 33
0.0
  0
SOLID
  5
15D1
330
1F
100
AcDbEntity
  8
LOGO
 62
     5
100
AcDbTrace
 10
2797.613879667176
 20
1333.024559089075
 30
0.0
 11
2798.391164984835
 21
1333.024559089075
 31
0.0
 12
2797.613879667176
 22
1330.69270313609
 32
0.0
 13
2798.391164984835
 23
1330.69270313609
 33
0.0
  0
SOLID
  5
15D2
330
1F
100
AcDbEntity
  8
LOGO
 62
     5
100
AcDbTrace
 10
2795.204295182422
 20
1358.130874849544
 30
0.0
 11
2792.950167761205
 21
1349.865740971742
 31
0.0
 12
2795.204295182422
 22
1338.465556312706
 32
0.0
 13
2792.950167761205
 23
1338.465556312706
 33
0.0
  0
SOLID
  5
15D3
330
1F
100
AcDbEntity
  8
LOGO
 62
     5
100
AcDbTrace
 10
2796.137037563618
 20
1338.465556312706
 30
0.0
 11
2798.391164984835
 21
1338.465556312706
 31
0.0
 12
2796.137037563618
 22
1359.840902548399
 32
0.0
 13
2798.391164984835
 23
1359.8409025484
 33
0.0
  0
SOLID
  5
15D4
330
1F
100
AcDbEntity
  8
LOGO
 62
     2
100
AcDbTrace
 10
2795.204295182422
 20
1359.8409025484
 30
0.0
 11
2796.137037563618
 21
1359.840902548399
 31
0.0
 12
2795.204295182422
 22
1338.465556312706
 32
0.0
 13
2796.137037563618
 23
1338.465556312706
 33
0.0
  0
POLYLINE
  5
15D5
330
1F
100
AcDbEntity
  8
LOGO
 62
     5
100
AcDb2dPolyline
 66
     1
 10
0.0
 20
0.0
 30
0.0
 40
0.7785309672091221
 41
0.7785309672091221
  0
VERTEX
  5
15D6
330
15D5
100
AcDbEntity
  8
LOGO
 62
     5
100
AcDbVertex
100
AcDb2dVertex
 10
2786.863249428157
 20
1333.024559089075
 30
0.0
 42
1.0
  0
VERTEX
  5
15D7
330
15D5
100
AcDbEntity
  8
LOGO
 62
     5
100
AcDbVertex
100
AcDb2dVertex
 10
2784.527656526529
 20
1333.024559089075
 30
0.0
 42
1.0
  0
SEQEND
  5
15D8
330
15D5
100
AcDbEntity
  8
LOGO
 62
     5
  0
POLYLINE
  5
15D9
330
1F
100
AcDbEntity
  8
LOGO
 62
     5
100
AcDb2dPolyline
 66
     1
 10
0.0
 20
0.0
 30
0.0
 40
0.7785309672091221
 41
0.7785309672091221
  0
VERTEX
  5
15DA
330
15D9
100
AcDbEntity
  8
LOGO
 62
     5
100
AcDbVertex
100
AcDb2dVertex
 10
2789.19510538114
 20
1333.024559089075
 30
0.0
 42
1.0
  0
VERTEX
  5
15DB
330
15D9
100
AcDbEntity
  8
LOGO
 62
     5
100
AcDbVertex
100
AcDb2dVertex
 10
2786.859512479513
 20
1333.024559089075
 30
0.0
 42
1.0
  0
SEQEND
  5
15DC
330
15D9
100
AcDbEntity
  8
LOGO
 62
     5
  0
POLYLINE
  5
15DD
330
1F
100
AcDbEntity
  8
LOGO
 62
     5
100
AcDb2dPolyline
 66
     1
 10
0.0
 20
0.0
 30
0.0
 40
0.7785309672091221
 41
0.7785309672091221
  0
VERTEX
  5
15DE
330
15DD
100
AcDbEntity
  8
LOGO
 62
     5
100
AcDbVertex
100
AcDb2dVertex
 10
2778.053964008968
 20
1333.024559089075
 30
0.0
 42
1.0
  0
VERTEX
  5
15DF
330
15DD
100
AcDbEntity
  8
LOGO
 62
     5
100
AcDbVertex
100
AcDb2dVertex
 10
2775.718371107342
 20
1333.024559089075
 30
0.0
 42
1.0
  0
SEQEND
  5
15E0
330
15DD
100
AcDbEntity
  8
LOGO
 62
     5
  0
SOLID
  5
15E1
330
1F
100
AcDbEntity
  8
LOGO
 62
     5
100
AcDbTrace
 10
2775.331596922833
 20
1334.579129724398
 30
0.0
 11
2776.108882240493
 21
1334.579129724398
 31
0.0
 12
2775.331596922833
 22
1330.69270313609
 32
0.0
 13
2776.108882240493
 23
1330.69270313609
 33
0.0
  0
SOLID
  5
15E2
330
1F
100
AcDbEntity
  8
LOGO
 62
     5
100
AcDbTrace
 10
2777.663452875819
 20
1333.024559089075
 30
0.0
 11
2778.440738193481
 21
1333.024559089075
 31
0.0
 12
2777.663452875819
 22
1330.69270313609
 32
0.0
 13
2778.440738193481
 23
1330.69270313609
 33
0.0
  0
POLYLINE
  5
15E3
330
1F
100
AcDbEntity
  8
LOGO
 62
     5
100
AcDb2dPolyline
 66
     1
 10
0.0
 20
0.0
 30
0.0
 70
     1
 40
0.7785309672091221
 41
0.7785309672091221
  0
VERTEX
  5
15E4
330
15E3
100
AcDbEntity
  8
LOGO
 62
     5
100
AcDbVertex
100
AcDb2dVertex
 10
2779.733826061862
 20
1332.635916430243
 30
0.0
 42
1.0
  0
VERTEX
  5
15E5
330
15E3
100
AcDbEntity
  8
LOGO
 62
     5
100
AcDbVertex
100
AcDb2dVertex
 10
2782.847949930699
 20
1332.635916430243
 30
0.0
 42
1.0
  0
SEQEND
  5
15E6
330
15E3
100
AcDbEntity
  8
LOGO
 62
     5
  0
SOLID
  5
15E7
330
1F
100
AcDbEntity
  8
LOGO
 62
     5
100
AcDbTrace
 10
2782.456738244242
 20
1335.745057700891
 30
0.0
 11
2783.234023561904
 21
1335.745057700891
 31
0.0
 12
2782.456738244242
 22
1330.69270313609
 32
0.0
 13
2783.234023561904
 23
1330.69270313609
 33
0.0
  0
SOLID
  5
15E8
330
1F
100
AcDbEntity
  8
LOGO
 62
     5
100
AcDbTrace
 10
2784.140882342021
 20
1334.579129724398
 30
0.0
 11
2784.918167659681
 21
1334.579129724398
 31
0.0
 12
2784.140882342021
 22
1330.69270313609
 32
0.0
 13
2784.918167659681
 23
1330.69270313609
 33
0.0
  0
SOLID
  5
15E9
330
1F
100
AcDbEntity
  8
LOGO
 62
     5
100
AcDbTrace
 10
2786.472738295004
 20
1333.024559089075
 30
0.0
 11
2787.250023612666
 21
1333.024559089075
 31
0.0
 12
2786.472738295004
 22
1330.69270313609
 32
0.0
 13
2787.250023612666
 23
1330.69270313609
 33
0.0
  0
SOLID
  5
15EA
330
1F
100
AcDbEntity
  8
LOGO
 62
     5
100
AcDbTrace
 10
2788.804594247988
 20
1333.024559089075
 30
0.0
 11
2789.581879565651
 21
1333.024559089075
 31
0.0
 12
2788.804594247988
 22
1330.692703136089
 32
0.0
 13
2789.581879565651
 23
1330.692703136089
 33
0.0
  0
SOLID
  5
15EB
330
1F
100
AcDbEntity
  8
LOGO
 62
     5
100
AcDbTrace
 10
2773.647452825056
 20
1335.123229446761
 30
0.0
 11
2774.424738142719
 21
1335.123229446761
 31
0.0
 12
2773.647452825056
 22
1335.745057700891
 32
0.0
 13
2774.424738142719
 23
1335.745057700891
 33
0.0
  0
SOLID
  5
15EC
330
1F
100
AcDbEntity
  8
LOGO
 62
     5
100
AcDbTrace
 10
2773.647452825056
 20
1334.579129724398
 30
0.0
 11
2774.424738142719
 21
1334.579129724398
 31
0.0
 12
2773.647452825056
 22
1330.692703136089
 32
0.0
 13
2774.424738142719
 23
1330.69270313609
 33
0.0
  0
SOLID
  5
15ED
330
1F
100
AcDbEntity
  8
LOGO
 62
     5
100
AcDbTrace
 10
2781.29088799628
 20
1338.465556312706
 30
0.0
 11
2783.545015417499
 21
1338.465556312706
 31
0.0
 12
2781.29088799628
 22
1349.865740971742
 32
0.0
 13
2783.545015417499
 23
1358.130874849544
 33
0.0
  0
SOLID
  5
15EE
330
1F
100
AcDbEntity
  8
LOGO
 62
     5
100
AcDbTrace
 10
2784.477757798695
 20
1359.840902548399
 30
0.0
 11
2786.731885219912
 21
1359.8409025484
 31
0.0
 12
2784.477757798695
 22
1340.175584011561
 32
0.0
 13
2786.731885219912
 23
1348.440717889363
 33
0.0
  0
SOLID
  5
15EF
330
1F
100
AcDbEntity
  8
LOGO
 62
     2
100
AcDbTrace
 10
2783.545015417499
 20
1359.840902548399
 30
0.0
 11
2784.477757798695
 21
1359.840902548399
 31
0.0
 12
2783.545015417499
 22
1338.465556312706
 32
0.0
 13
2784.477757798695
 23
1338.465556312706
 33
0.0
  0
SOLID
  5
15F0
330
1F
100
AcDbEntity
  8
LOGO
 62
     5
100
AcDbTrace
 10
2784.477757798695
 20
1340.175584011561
 30
0.0
 11
2786.731885219912
 21
1348.440717889363
 31
0.0
 12
2795.204295182422
 22
1359.8409025484
 32
0.0
 13
2792.950167761205
 23
1359.8409025484
 33
0.0
  0
SOLID
  5
15F1
330
1F
100
AcDbEntity
  8
LOGO
 62
     5
100
AcDbTrace
 10
2784.477757798695
 20
1338.465556312706
 30
0.0
 11
2786.731885219912
 21
1338.465556312706
 31
0.0
 12
2795.204295182422
 22
1358.130874849544
 32
0.0
 13
2792.950167761205
 23
1349.865740971742
 33
0.0
  0
SOLID
  5
15F2
330
1F
100
AcDbEntity
  8
LOGO
 62
     2
100
AcDbTrace
 10
2783.545015417499
 20
1338.465556312706
 30
0.0
 11
2784.477757798695
 21
1338.465556312706
 31
0.0
 12
2795.204295182422
 22
1359.8409025484
 32
0.0
 13
2796.137037563618
 23
1359.840902548399
 33
0.0
  0
LINE
  5
15F3
330
1F
100
AcDbEntity
  8
LOGO
 62
     4
100
AcDbLine
 10
2985.380473932838
 20
1332.405747601388
 30
0.0
 11
2985.380473932838
 21
1313.290031888663
 31
0.0
  0
LINE
  5
15F4
330
1F
100
AcDbEntity
  8
LOGO
 62
     4
100
AcDbLine
 10
2950.62462718243
 20
1332.405747601388
 30
0.0
 11
2950.62462718243
 21
1313.290031888663
 31
0.0
  0
LINE
  5
15F5
330
1F
100
AcDbEntity
  8
LOGO
 62
     4
100
AcDbLine
 10
2985.380473932838
 20
1313.290031888663
 30
0.0
 11
2950.62462718243
 21
1313.290031888663
 31
0.0
  0
LINE
  5
15F6
330
1F
100
AcDbEntity
  8
LOGO
 62
     4
100
AcDbLine
 10
2990.586787374883
 20
1355.865944157911
 30
0.0
 11
2950.62462718243
 21
1355.865944157911
 31
0.0
  0
LINE
  5
15F7
330
1F
100
AcDbEntity
  8
LOGO
 62
     4
100
AcDbLine
 10
2990.586787374883
 20
1340.225813120229
 30
0.0
 11
2950.62462718243
 21
1340.225813120229
 31
0.0
  0
LINE
  5
15F8
330
1F
100
AcDbEntity
  8
LOGO
 62
     4
100
AcDbLine
 10
2950.62462718243
 20
1355.865944157911
 30
0.0
 11
2950.62462718243
 21
1340.225813120229
 31
0.0
  0
LINE
  5
15F9
330
1F
100
AcDbEntity
  8
LOGO
 62
     4
100
AcDbLine
 10
2990.586787374883
 20
1355.865944157911
 30
0.0
 11
2990.586787374883
 21
1340.225813120229
 31
0.0
  0
LINE
  5
15FA
330
1F
100
AcDbEntity
  8
LOGO
 62
     4
100
AcDbLine
 10
2969.815932798944
 20
1340.225813120229
 30
0.0
 11
2969.815932798944
 21
1332.405747601388
 31
0.0
  0
TEXT
  5
15FB
330
1F
100
AcDbEntity
  8
LOGO
  6
Continuous
 62
     7
100
AcDbText
 10
2953.403633521411
 20
1343.490667608475
 30
0.0
 40
9.124730999999998
  1
MCGJ
  7
CHINESET
100
AcDbText
  0
LINE
  5
15FC
330
1F
100
AcDbEntity
  8
LOGO
 62
     4
100
AcDbLine
 10
2985.380473932838
 20
1332.405747601388
 30
0.0
 11
2950.62462718243
 21
1332.405747601388
 31
0.0
  0
TEXT
  5
15FD
330
1F
100
AcDbEntity
  8
LOGO
  6
Continuous
100
AcDbText
 10
2961.777668369299
 20
1315.988174625697
 30
341.67614086635
 40
3.910598999999999
  1
Model
 41
0.8
  7
CHINESET
100
AcDbText
  0
TEXT
  5
15FE
330
1F
100
AcDbEntity
  8
LOGO
100
AcDbText
 10
2960.736794041254
 20
1323.237582377461
 30
341.67614086635
 40
6.517665000000001
  1
型號
  7
CHINESET
100
AcDbText
  0
LINE
  5
15FF
330
1F
100
AcDbEntity
  8
LOGO
  6
Continuous
 62
     7
100
AcDbLine
 10
2992.249462568092
 20
1347.99047882321
 30
0.0
 11
2999.155573751309
 21
1347.99047882321
 31
0.0
  0
LINE
  5
1600
330
1F
100
AcDbEntity
  8
LOGO
 62
     4
100
AcDbLine
 10
3027.544398027636
 20
1332.405747601388
 30
0.0
 11
3027.544398027636
 21
1313.290031888663
 31
0.0
  0
LINE
  5
1601
330
1F
100
AcDbEntity
  8
LOGO
 62
     4
100
AcDbLine
 10
2991.548170175869
 20
1332.405747601388
 30
0.0
 11
2991.548170175869
 21
1313.290031888663
 31
0.0
  0
LINE
  5
1602
330
1F
100
AcDbEntity
  8
LOGO
 62
     4
100
AcDbLine
 10
3027.544398027636
 20
1313.290031888663
 30
0.0
 11
2991.548170175869
 21
1313.290031888663
 31
0.0
  0
LINE
  5
1603
330
1F
100
AcDbEntity
  8
LOGO
 62
     4
100
AcDbLine
 10
3021.47485593966
 20
1355.865944157911
 30
0.0
 11
3001.334087786768
 21
1355.865944157911
 31
0.0
  0
LINE
  5
1604
330
1F
100
AcDbEntity
  8
LOGO
 62
     4
100
AcDbLine
 10
3021.47485593966
 20
1340.225813120229
 30
0.0
 11
3001.334087786768
 21
1340.225813120229
 31
0.0
  0
LINE
  5
1605
330
1F
100
AcDbEntity
  8
LOGO
 62
     4
100
AcDbLine
 10
3001.334087786768
 20
1355.865944157911
 30
0.0
 11
3001.334087786768
 21
1340.225813120229
 31
0.0
  0
LINE
  5
1606
330
1F
100
AcDbEntity
  8
LOGO
 62
     4
100
AcDbLine
 10
3021.47485593966
 20
1355.865944157911
 30
0.0
 11
3021.47485593966
 21
1340.225813120229
 31
0.0
  0
LINE
  5
1607
330
1F
100
AcDbEntity
  8
LOGO
 62
     4
100
AcDbLine
 10
3011.404471863213
 20
1340.225813120229
 30
0.0
 11
3011.404471863213
 21
1332.405747601388
 31
0.0
  0
TEXT
  5
1608
330
1F
100
AcDbEntity
  8
LOGO
  6
Continuous
 62
     7
100
AcDbText
 10
3003.876497765978
 20
1343.490667608475
 30
0.0
 40
9.124730999999998
  1
12
  7
CHINESET
100
AcDbText
  0
LINE
  5
1609
330
1F
100
AcDbEntity
  8
LOGO
 62
     4
100
AcDbLine
 10
3027.544398027636
 20
1332.405747601388
 30
0.0
 11
2991.548170175869
 21
1332.405747601388
 31
0.0
  0
LINE
  5
160A
330
1F
100
AcDbEntity
  8
LOGO
  6
Continuous
 62
     7
100
AcDbLine
 10
3023.690818467783
 20
1347.99047882321
 30
0.0
 11
3030.596929650999
 21
1347.99047882321
 31
0.0
  0
LINE
  5
160B
330
1F
100
AcDbEntity
  8
LOGO
 62
     4
100
AcDbLine
 10
3066.902275330014
 20
1332.405747601388
 30
0.0
 11
3066.902275330014
 21
1313.290031888663
 31
0.0
  0
LINE
  5
160C
330
1F
100
AcDbEntity
  8
LOGO
 62
     4
100
AcDbLine
 10
3032.146428579607
 20
1332.405747601388
 30
0.0
 11
3032.146428579607
 21
1313.290031888663
 31
0.0
  0
LINE
  5
160D
330
1F
100
AcDbEntity
  8
LOGO
 62
     4
100
AcDbLine
 10
3066.902275330014
 20
1313.290031888663
 30
0.0
 11
3032.146428579607
 21
1313.290031888663
 31
0.0
  0
LINE
  5
160E
330
1F
100
AcDbEntity
  8
LOGO
 62
     4
100
AcDbLine
 10
3062.538857055749
 20
1355.865944157911
 30
0.0
 11
3032.775443686459
 21
1355.865944157911
 31
0.0
  0
LINE
  5
160F
330
1F
100
AcDbEntity
  8
LOGO
 62
     4
100
AcDbLine
 10
3062.538857055749
 20
1340.225813120229
 30
0.0
 11
3032.775443686459
 21
1340.225813120229
 31
0.0
  0
LINE
  5
1610
330
1F
100
AcDbEntity
  8
LOGO
 62
     4
100
AcDbLine
 10
3032.775443686459
 20
1355.865944157911
 30
0.0
 11
3032.775443686459
 21
1340.225813120229
 31
0.0
  0
LINE
  5
1611
330
1F
100
AcDbEntity
  8
LOGO
 62
     4
100
AcDbLine
 10
3062.538857055749
 20
1355.865944157911
 30
0.0
 11
3062.538857055749
 21
1340.225813120229
 31
0.0
  0
LINE
  5
1612
330
1F
100
AcDbEntity
  8
LOGO
 62
     4
100
AcDbLine
 10
3046.137953408585
 20
1340.225813120229
 30
0.0
 11
3046.137953408585
 21
1332.405747601388
 31
0.0
  0
TEXT
  5
1613
330
1F
100
AcDbEntity
  8
LOGO
  6
Continuous
 62
     7
100
AcDbText
 10
3036.475853941876
 20
1343.490667608475
 30
0.0
 40
9.124730999999998
  1
100
  7
CHINESET
100
AcDbText
  0
LINE
  5
1614
330
1F
100
AcDbEntity
  8
LOGO
 62
     4
100
AcDbLine
 10
3066.902275330014
 20
1332.405747601388
 30
0.0
 11
3032.146428579607
 21
1332.405747601388
 31
0.0
  0
LINE
  5
1615
330
1F
100
AcDbEntity
  8
LOGO
  6
Continuous
 62
     7
100
AcDbLine
 10
3064.67615056839
 20
1347.99047882321
 30
0.0
 11
3071.582261751609
 21
1347.99047882321
 31
0.0
  0
LINE
  5
1616
330
1F
100
AcDbEntity
  8
LOGO
 62
     4
100
AcDbLine
 10
3101.445938674326
 20
1332.405747601388
 30
0.0
 11
3101.445938674326
 21
1313.290031888663
 31
0.0
  0
LINE
  5
1617
330
1F
100
AcDbEntity
  8
LOGO
 62
     4
100
AcDbLine
 10
3073.131760680215
 20
1332.405747601388
 30
0.0
 11
3073.131760680215
 21
1313.290031888663
 31
0.0
  0
LINE
  5
1618
330
1F
100
AcDbEntity
  8
LOGO
 62
     4
100
AcDbLine
 10
3101.445938674326
 20
1313.290031888663
 30
0.0
 11
3073.131760680215
 21
1313.290031888663
 31
0.0
  0
LINE
  5
1619
330
1F
100
AcDbEntity
  8
LOGO
 62
     4
100
AcDbLine
 10
3090.401440887821
 20
1355.865944157911
 30
0.0
 11
3073.760775787067
 21
1355.865944157911
 31
0.0
  0
LINE
  5
161A
330
1F
100
AcDbEntity
  8
LOGO
 62
     4
100
AcDbLine
 10
3090.401440887821
 20
1340.225813120229
 30
0.0
 11
3073.760775787067
 21
1340.225813120229
 31
0.0
  0
LINE
  5
161B
330
1F
100
AcDbEntity
  8
LOGO
 62
     4
100
AcDbLine
 10
3073.760775787067
 20
1355.865944157911
 30
0.0
 11
3073.760775787067
 21
1340.225813120229
 31
0.0
  0
LINE
  5
161C
330
1F
100
AcDbEntity
  8
LOGO
 62
     4
100
AcDbLine
 10
3090.401440887821
 20
1355.865944157911
 30
0.0
 11
3090.401440887821
 21
1340.225813120229
 31
0.0
  0
LINE
  5
161D
330
1F
100
AcDbEntity
  8
LOGO
 62
     4
100
AcDbLine
 10
3082.081108337445
 20
1340.225813120229
 30
0.0
 11
3082.081108337445
 21
1332.405747601388
 31
0.0
  0
TEXT
  5
161E
330
1F
100
AcDbEntity
  8
LOGO
  6
Continuous
 62
     7
100
AcDbText
 10
3079.369474155595
 20
1343.490667608475
 30
0.0
 40
9.124730999999998
  1
0
  7
CHINESET
100
AcDbText
  0
LINE
  5
161F
330
1F
100
AcDbEntity
  8
LOGO
 62
     4
100
AcDbLine
 10
3101.445938674326
 20
1332.405747601388
 30
0.0
 11
3073.131760680215
 21
1332.405747601388
 31
0.0
  0
TEXT
  5
1620
330
1F
100
AcDbEntity
  8
LOGO
  6
Continuous
100
AcDbText
 10
2994.721086833073
 20
1315.988174625697
 30
341.67614086635
 40
3.910598999999999
  1
Bearing type
 41
0.8
  7
CHINESET
100
AcDbText
  0
TEXT
  5
1621
330
1F
100
AcDbEntity
  8
LOGO
100
AcDbText
 10
2994.684247636064
 20
1323.237582377461
 30
341.67614086635
 40
6.517665000000001
  1
軸承型式
  7
CHINESET
100
AcDbText
  0
TEXT
  5
1622
330
1F
100
AcDbEntity
  8
LOGO
  6
Continuous
100
AcDbText
 10
3039.426357964583
 20
1315.988174625697
 30
341.67614086635
 40
3.910598999999999
  1
Tube I.D.
 41
0.8
  7
CHINESET
100
AcDbText
  0
TEXT
  5
1623
330
1F
100
AcDbEntity
  8
LOGO
100
AcDbText
 10
3041.003153614113
 20
1323.237582377461
 30
341.67614086635
 40
6.517665000000001
  1
內徑
  7
CHINESET
100
AcDbText
  0
TEXT
  5
1624
330
1F
100
AcDbEntity
  8
LOGO
  6
Continuous
100
AcDbText
 10
3080.593984467105
 20
1315.988174625697
 30
341.67614086635
 40
3.910598999999999
  1
Stroke
 41
0.8
  7
CHINESET
100
AcDbText
  0
TEXT
  5
1625
330
1F
100
AcDbEntity
  8
LOGO
100
AcDbText
 10
3080.322836387661
 20
1323.237582377461
 30
341.67614086635
 40
6.517665000000001
  1
行程
  7
CHINESET
100
AcDbText
  0
TEXT
  5
1626
330
1F
100
AcDbEntity
  8
LOGO
100
AcDbText
 10
2882.114599426538
 20
1311.719047038676
 30
0.0
 40
5.214132
  1
10603141
 41
0.7
  7
CHINESET
 72
     1
 11
2894.020200826537
 21
1311.719047038676
 31
0.0
100
AcDbText
  0
LINE
  5
1627
330
1F
100
AcDbEntity
  8
LOGO
 62
     4
100
AcDbLine
 10
2910.201732188829
 20
1319.372305069986
 30
0.0
 11
2910.201732188831
 21
1308.945551044863
 31
0.0
  0
LINE
  5
1628
330
1F
100
AcDbEntity
  8
LOGO
 62
     4
100
AcDbLine
 10
2910.201732188829
 20
1319.372305069986
 30
0.0
 11
2878.916940188832
 21
1319.372305069986
 31
0.0
  0
LINE
  5
1629
330
1F
100
AcDbEntity
  8
LOGO
  6
AM_ISO08W050x2
 48
0.3
100
AcDbLine
 10
2849.64153526875
 20
1345.450341584371
 30
0.0
 11
2857.987090843389
 21
1345.450341584371
 31
0.0
1001
GENIUS_GENOREF_13
1005
162E
  0
LINE
  5
162A
330
1F
100
AcDbEntity
  8
LOGO
  6
AM_ISO08W050x2
 48
0.3
100
AcDbLine
 10
2853.81431305607
 20
1341.277563797051
 30
0.0
 11
2853.81431305607
 21
1349.62311937169
 31
0.0
1001
GENIUS_GENOREF_13
1005
162D
  0
LINE
  5
162B
330
1F
100
AcDbEntity
  8
LOGO
  6
CENTER
 48
0.5
100
AcDbLine
 10
2862.587994364633
 20
1345.450341584371
 30
0.0
 11
2873.791953384288
 21
1345.450341584371
 31
0.0
1001
GENIUS_GENOREF_13
1005
162C
  0
POINT
  5
162C
330
1F
100
AcDbEntity
  8
0
 60
     1
100
AcDbPoint
 10
717.7893463853256
 20
372.8627295737218
 30
0.0
1001
GENIUS_GENOBJ-N-CRS_13
1002
{
1000
OWNER
1000
GEN
1002
}
1001
GENIUS_GENOLIS_13
1002
{
1000
ENT
1005
0
1005
0
1005
0
1005
162B
1002
}
1001
GENIUS_GENOENT_13
1002
{
1000
MYREF
1005
162C
1002
}
1002
{
1000
GRP
1005
0
1002
}
1001
GENIUS_GENODEF_13
1002
{
1000
HIER
1070
    10
1002
}
1002
{
1000
MANEDIT
1070
     1
1002
}
1002
{
1000
NOSEL
1070
     0
1002
}
1002
{
1000
BEHIND
1070
     0
1002
}
1002
{
1000
OTHER
1070
     0
1002
}
1002
{
1000
REACTOR
1002
}
  0
POINT
  5
162D
330
1F
100
AcDbEntity
  8
0
 60
     1
100
AcDbPoint
 10
706.4647611624709
 20
381.7383160523581
 30
0.0
1001
GENIUS_GENOBJ-N-CRS_13
1002
{
1000
OWNER
1000
GEN
1002
}
1001
GENIUS_GENOLIS_13
1002
{
1000
ENT
1005
0
1005
0
1005
0
1005
162A
1002
}
1001
GENIUS_GENOENT_13
1002
{
1000
MYREF
1005
162D
1002
}
1002
{
1000
GRP
1005
0
1002
}
1001
GENIUS_GENODEF_13
1002
{
1000
HIER
1070
    10
1002
}
1002
{
1000
MANEDIT
1070
     1
1002
}
1002
{
1000
NOSEL
1070
     0
1002
}
1002
{
1000
BEHIND
1070
     0
1002
}
1002
{
1000
OTHER
1070
     0
1002
}
1002
{
1000
REACTOR
1002
}
  0
POINT
  5
162E
330
1F
100
AcDbEntity
  8
0
 60
     1
100
AcDbPoint
 10
712.8234348603077
 20
372.8627295737218
 30
0.0
1001
GENIUS_GENOBJ-N-CRS_13
1002
{
1000
OWNER
1000
GEN
1002
}
1001
GENIUS_GENOLIS_13
1002
{
1000
ENT
1005
0
1005
0
1005
0
1005
1629
1002
}
1001
GENIUS_GENOENT_13
1002
{
1000
MYREF
1005
162E
1002
}
1002
{
1000
GRP
1005
0
1002
}
1001
GENIUS_GENODEF_13
1002
{
1000
HIER
1070
    10
1002
}
1002
{
1000
MANEDIT
1070
     1
1002
}
1002
{
1000
NOSEL
1070
     0
1002
}
1002
{
1000
BEHIND
1070
     0
1002
}
1002
{
1000
OTHER
1070
     0
1002
}
1002
{
1000
REACTOR
1002
}
  0
ARC
  5
20DC
330
1F
100
AcDbEntity
  8
AM_VIS
100
AcDbCircle
 10
2986.753579900869
 20
1499.656095757994
 30
0.0
 40
1.7
100
AcDbArc
 50
180.0
 51
270.0
  0
ARC
  5
20DD
330
1F
100
AcDbEntity
  8
AM_VIS
100
AcDbCircle
 10
2990.153579900868
 20
1498.206095757994
 30
0.0
 40
0.2
100
AcDbArc
 50
0.0
 51
90.0
  0
ARC
  5
20DE
330
1F
100
AcDbEntity
  8
AM_VIS
100
AcDbCircle
 10
2934.950948689516
 20
1522.106095761734
 30
0.0
 40
78.0
100
AcDbArc
 50
311.4096221332303
 51
318.5903779293396
  0
ARC
  5
20DF
330
1F
100
AcDbEntity
  8
AM_VIS
100
AcDbCircle
 10
2958.850948657443
 20
1466.903464547995
 30
0.0
 40
0.2
100
AcDbArc
 50
180.0
 51
270.0
  0
ARC
  5
20E0
330
1F
100
AcDbEntity
  8
AM_VIS
100
AcDbCircle
 10
2957.400948657443
 20
1470.303464547994
 30
0.0
 40
1.7
100
AcDbArc
 50
0.0
 51
90.0
  0
ARC
  5
20E1
330
1F
100
AcDbEntity
  8
AM_VIS
100
AcDbCircle
 10
2956.500948657443
 20
1470.303464547994
 30
0.0
 40
1.7
100
AcDbArc
 50
90.0
 51
180.0
  0
ARC
  5
20E2
330
1F
100
AcDbEntity
  8
AM_VIS
100
AcDbCircle
 10
2955.050948657443
 20
1466.903464547995
 30
0.0
 40
0.2
100
AcDbArc
 50
270.0
 51
0.0
  0
ARC
  5
20E3
330
1F
100
AcDbEntity
  8
AM_VIS
100
AcDbCircle
 10
2943.550948690868
 20
1465.306095784132
 30
0.0
 40
0.2
100
AcDbArc
 50
180.0
 51
270.0
  0
ARC
  5
20E4
330
1F
100
AcDbEntity
  8
AM_VIS
100
AcDbCircle
 10
2943.550948690868
 20
1466.606095784132
 30
0.0
 40
0.2
100
AcDbArc
 50
90.0
 51
180.0
  0
ARC
  5
20E5
330
1F
100
AcDbEntity
  8
AM_VIS
100
AcDbCircle
 10
2944.850948690869
 20
1467.006095784132
 30
0.0
 40
0.2
100
AcDbArc
 50
270.0
 51
0.0
  0
ARC
  5
20E6
330
1F
100
AcDbEntity
  8
AM_VIS
100
AcDbCircle
 10
2944.850948690869
 20
1467.906095784132
 30
0.0
 40
0.2
100
AcDbArc
 50
0.0
 51
90.0
  0
ARC
  5
20E7
330
1F
100
AcDbEntity
  8
AM_VIS
100
AcDbCircle
 10
2936.250948690869
 20
1467.906095784132
 30
0.0
 40
0.2
100
AcDbArc
 50
90.0
 51
180.0
  0
ARC
  5
20E8
330
1F
100
AcDbEntity
  8
AM_VIS
100
AcDbCircle
 10
2935.850948690868
 20
1465.306095784132
 30
0.0
 40
0.2
100
AcDbArc
 50
270.0
 51
0.0
  0
ARC
  5
20E9
330
1F
100
AcDbEntity
  8
AM_VIS
100
AcDbCircle
 10
2934.05094866555
 20
1465.306095784132
 30
0.0
 40
0.2
100
AcDbArc
 50
180.0
 51
270.0
  0
ARC
  5
20EA
330
1F
100
AcDbEntity
  8
AM_VIS
100
AcDbCircle
 10
2933.650948665551
 20
1467.906095784131
 30
0.0
 40
0.2
100
AcDbArc
 50
0.0
 51
90.0
  0
ARC
  5
20EB
330
1F
100
AcDbEntity
  8
AM_VIS
100
AcDbCircle
 10
2925.05094866555
 20
1467.906095784131
 30
0.0
 40
0.2
100
AcDbArc
 50
90.0
 51
180.0
  0
ARC
  5
20EC
330
1F
100
AcDbEntity
  8
AM_VIS
100
AcDbCircle
 10
2925.05094866555
 20
1467.006095784132
 30
0.0
 40
0.2
100
AcDbArc
 50
180.0
 51
270.0
  0
ARC
  5
20ED
330
1F
100
AcDbEntity
  8
AM_VIS
100
AcDbCircle
 10
2926.350948665551
 20
1466.606095784131
 30
0.0
 40
0.2
100
AcDbArc
 50
0.0
 51
90.0
  0
ARC
  5
20EE
330
1F
100
AcDbEntity
  8
AM_VIS
100
AcDbCircle
 10
2926.350948665551
 20
1465.306095784132
 30
0.0
 40
0.2
100
AcDbArc
 50
270.0
 51
0.0
  0
ARC
  5
20EF
330
1F
100
AcDbEntity
  8
AM_VIS
100
AcDbCircle
 10
2914.850948690868
 20
1466.903464547995
 30
0.0
 40
0.2
100
AcDbArc
 50
180.0
 51
270.0
  0
ARC
  5
20F0
330
1F
100
AcDbEntity
  8
AM_VIS
100
AcDbCircle
 10
2913.400948690868
 20
1470.303464547994
 30
0.0
 40
1.7
100
AcDbArc
 50
0.0
 51
90.0
  0
ARC
  5
20F1
330
1F
100
AcDbEntity
  8
AM_VIS
100
AcDbCircle
 10
2912.500948690868
 20
1470.303464547994
 30
0.0
 40
1.7
100
AcDbArc
 50
90.0
 51
180.0
  0
ARC
  5
20F2
330
1F
100
AcDbEntity
  8
AM_VIS
100
AcDbCircle
 10
2911.050948690868
 20
1466.903464547995
 30
0.0
 40
0.2
100
AcDbArc
 50
270.0
 51
0.0
  0
ARC
  5
20F3
330
1F
100
AcDbEntity
  8
AM_VIS
100
AcDbCircle
 10
2934.950948689516
 20
1522.106095761734
 30
0.0
 40
78.0
100
AcDbArc
 50
221.4096221107747
 51
228.5903778667698
  0
ARC
  5
20F4
330
1F
100
AcDbEntity
  8
AM_VIS
100
AcDbCircle
 10
2879.748317480869
 20
1498.20609579142
 30
0.0
 40
0.2
100
AcDbArc
 50
90.0
 51
180.0
  0
ARC
  5
20F5
330
1F
100
AcDbEntity
  8
AM_VIS
100
AcDbCircle
 10
2883.148317480868
 20
1499.65609579142
 30
0.0
 40
1.7
100
AcDbArc
 50
270.0
 51
0.0
  0
ARC
  5
20F6
330
1F
100
AcDbEntity
  8
AM_VIS
100
AcDbCircle
 10
2883.148317480868
 20
1500.556095791419
 30
0.0
 40
1.7
100
AcDbArc
 50
0.0
 51
90.0
  0
ARC
  5
20F7
330
1F
100
AcDbEntity
  8
AM_VIS
100
AcDbCircle
 10
2879.748317480869
 20
1502.00609579142
 30
0.0
 40
0.2
100
AcDbArc
 50
180.0
 51
270.0
  0
ARC
  5
20F8
330
1F
100
AcDbEntity
  8
AM_VIS
100
AcDbCircle
 10
2878.150948717006
 20
1513.506095757994
 30
0.0
 40
0.2
100
AcDbArc
 50
90.0
 51
180.0
  0
ARC
  5
20F9
330
1F
100
AcDbEntity
  8
AM_VIS
100
AcDbCircle
 10
2879.450948717006
 20
1513.506095757994
 30
0.0
 40
0.2
100
AcDbArc
 50
0.0
 51
90.0
  0
ARC
  5
20FA
330
1F
100
AcDbEntity
  8
AM_VIS
100
AcDbCircle
 10
2879.850948717006
 20
1512.206095757994
 30
0.0
 40
0.2
100
AcDbArc
 50
180.0
 51
270.0
  0
ARC
  5
20FB
330
1F
100
AcDbEntity
  8
AM_VIS
100
AcDbCircle
 10
2880.750948717006
 20
1512.206095757994
 30
0.0
 40
0.2
100
AcDbArc
 50
270.0
 51
0.0
  0
ARC
  5
20FC
330
1F
100
AcDbEntity
  8
AM_VIS
100
AcDbCircle
 10
2880.750948717006
 20
1520.806095757994
 30
0.0
 40
0.2
100
AcDbArc
 50
0.0
 51
90.0
  0
ARC
  5
20FD
330
1F
100
AcDbEntity
  8
AM_VIS
100
AcDbCircle
 10
2878.150948717006
 20
1521.206095757994
 30
0.0
 40
0.2
100
AcDbArc
 50
180.0
 51
270.0
  0
ARC
  5
20FE
330
1F
100
AcDbEntity
  8
AM_VIS
100
AcDbCircle
 10
2878.150948717006
 20
1523.006095783312
 30
0.0
 40
0.2
100
AcDbArc
 50
90.0
 51
180.0
  0
ARC
  5
20FF
330
1F
100
AcDbEntity
  8
AM_VIS
100
AcDbCircle
 10
2880.750948717006
 20
1523.406095783312
 30
0.0
 40
0.2
100
AcDbArc
 50
270.0
 51
0.0
  0
ARC
  5
2100
330
1F
100
AcDbEntity
  8
AM_VIS
100
AcDbCircle
 10
2880.750948717006
 20
1532.006095783312
 30
0.0
 40
0.2
100
AcDbArc
 50
0.0
 51
90.0
  0
ARC
  5
2101
330
1F
100
AcDbEntity
  8
AM_VIS
100
AcDbCircle
 10
2879.850948717006
 20
1532.006095783312
 30
0.0
 40
0.2
100
AcDbArc
 50
90.0
 51
180.0
  0
ARC
  5
2102
330
1F
100
AcDbEntity
  8
AM_VIS
100
AcDbCircle
 10
2879.450948717006
 20
1530.706095783313
 30
0.0
 40
0.2
100
AcDbArc
 50
270.0
 51
0.0
  0
ARC
  5
2103
330
1F
100
AcDbEntity
  8
AM_VIS
100
AcDbCircle
 10
2878.150948717006
 20
1530.706095783313
 30
0.0
 40
0.2
100
AcDbArc
 50
180.0
 51
270.0
  0
ARC
  5
2104
330
1F
100
AcDbEntity
  8
AM_VIS
100
AcDbCircle
 10
2879.748317480869
 20
1542.206095757995
 30
0.0
 40
0.2
100
AcDbArc
 50
90.0
 51
180.0
  0
ARC
  5
2105
330
1F
100
AcDbEntity
  8
AM_VIS
100
AcDbCircle
 10
2883.148317480868
 20
1543.656095757994
 30
0.0
 40
1.7
100
AcDbArc
 50
270.0
 51
0.0
  0
ARC
  5
2106
330
1F
100
AcDbEntity
  8
AM_VIS
100
AcDbCircle
 10
2883.148317480868
 20
1544.556095757995
 30
0.0
 40
1.7
100
AcDbArc
 50
0.0
 51
90.0
  0
ARC
  5
2107
330
1F
100
AcDbEntity
  8
AM_VIS
100
AcDbCircle
 10
2879.748317480869
 20
1546.006095757995
 30
0.0
 40
0.2
100
AcDbArc
 50
180.0
 51
270.0
  0
ARC
  5
2108
330
1F
100
AcDbEntity
  8
AM_VIS
100
AcDbCircle
 10
2934.950948689516
 20
1522.106095761734
 30
0.0
 40
78.0
100
AcDbArc
 50
131.4096221134231
 51
138.5903778892253
  0
ARC
  5
2109
330
1F
100
AcDbEntity
  8
AM_VIS
100
AcDbCircle
 10
2911.050948724294
 20
1577.308726967994
 30
0.0
 40
0.2
100
AcDbArc
 50
0.0
 51
90.0
  0
ARC
  5
210A
330
1F
100
AcDbEntity
  8
AM_VIS
100
AcDbCircle
 10
2912.500948724293
 20
1573.908726967994
 30
0.0
 40
1.7
100
AcDbArc
 50
180.0
 51
270.0
  0
ARC
  5
210B
330
1F
100
AcDbEntity
  8
AM_VIS
100
AcDbCircle
 10
2913.400948724294
 20
1573.908726967994
 30
0.0
 40
1.7
100
AcDbArc
 50
270.0
 51
0.0
  0
ARC
  5
210C
330
1F
100
AcDbEntity
  8
AM_VIS
100
AcDbCircle
 10
2914.850948724294
 20
1577.308726967994
 30
0.0
 40
0.2
100
AcDbArc
 50
90.0
 51
180.0
  0
ARC
  5
210D
330
1F
100
AcDbEntity
  8
AM_VIS
100
AcDbCircle
 10
2955.050948690869
 20
1577.308726967994
 30
0.0
 40
0.2
100
AcDbArc
 50
0.0
 51
90.0
  0
ARC
  5
210E
330
1F
100
AcDbEntity
  8
AM_VIS
100
AcDbCircle
 10
2956.500948690869
 20
1573.908726967994
 30
0.0
 40
1.7
100
AcDbArc
 50
180.0
 51
270.0
  0
ARC
  5
210F
330
1F
100
AcDbEntity
  8
AM_VIS
100
AcDbCircle
 10
2957.400948690869
 20
1573.908726967994
 30
0.0
 40
1.7
100
AcDbArc
 50
270.0
 51
0.0
  0
ARC
  5
2110
330
1F
100
AcDbEntity
  8
AM_VIS
100
AcDbCircle
 10
2958.850948690869
 20
1577.308726967994
 30
0.0
 40
0.2
100
AcDbArc
 50
90.0
 51
180.0
  0
ARC
  5
2111
330
1F
100
AcDbEntity
  8
AM_VIS
100
AcDbCircle
 10
2934.950948689516
 20
1522.106095761734
 30
0.0
 40
78.0
100
AcDbArc
 50
41.4096220706604
 51
48.5903778865769
  0
ARC
  5
2112
330
1F
100
AcDbEntity
  8
AM_VIS
100
AcDbCircle
 10
2990.153579900868
 20
1546.006095724569
 30
0.0
 40
0.2
100
AcDbArc
 50
270.0
 51
0.0
  0
ARC
  5
2113
330
1F
100
AcDbEntity
  8
AM_VIS
100
AcDbCircle
 10
2986.753579900869
 20
1544.556095724569
 30
0.0
 40
1.7
100
AcDbArc
 50
90.0
 51
180.0
  0
ARC
  5
2114
330
1F
100
AcDbEntity
  8
AM_VIS
100
AcDbCircle
 10
2986.753579900869
 20
1543.656095724569
 30
0.0
 40
1.7
100
AcDbArc
 50
180.0
 51
270.0
  0
ARC
  5
2115
330
1F
100
AcDbEntity
  8
AM_VIS
100
AcDbCircle
 10
2990.153579900868
 20
1542.206095724569
 30
0.0
 40
0.2
100
AcDbArc
 50
0.0
 51
90.0
  0
ARC
  5
2116
330
1F
100
AcDbEntity
  8
AM_VIS
100
AcDbCircle
 10
2991.75094866473
 20
1530.706095757994
 30
0.0
 40
0.2
100
AcDbArc
 50
270.0
 51
0.0
  0
ARC
  5
2117
330
1F
100
AcDbEntity
  8
AM_VIS
100
AcDbCircle
 10
2990.450948664732
 20
1530.706095757994
 30
0.0
 40
0.2
100
AcDbArc
 50
180.0
 51
270.0
  0
ARC
  5
2118
330
1F
100
AcDbEntity
  8
AM_VIS
100
AcDbCircle
 10
2990.050948664731
 20
1532.006095757995
 30
0.0
 40
0.2
100
AcDbArc
 50
0.0
 51
90.0
  0
ARC
  5
2119
330
1F
100
AcDbEntity
  8
AM_VIS
100
AcDbCircle
 10
2989.150948664731
 20
1532.006095757995
 30
0.0
 40
0.2
100
AcDbArc
 50
90.0
 51
180.0
  0
ARC
  5
211A
330
1F
100
AcDbEntity
  8
AM_VIS
100
AcDbCircle
 10
2989.150948664731
 20
1523.406095757994
 30
0.0
 40
0.2
100
AcDbArc
 50
180.0
 51
270.0
  0
ARC
  5
211B
330
1F
100
AcDbEntity
  8
AM_VIS
100
AcDbCircle
 10
2991.75094866473
 20
1523.006095757994
 30
0.0
 40
0.2
100
AcDbArc
 50
0.0
 51
90.0
  0
ARC
  5
211C
330
1F
100
AcDbEntity
  8
AM_VIS
100
AcDbCircle
 10
2991.75094866473
 20
1521.206095732676
 30
0.0
 40
0.2
100
AcDbArc
 50
270.0
 51
0.0
  0
ARC
  5
211D
330
1F
100
AcDbEntity
  8
AM_VIS
100
AcDbCircle
 10
2989.150948664731
 20
1520.806095732676
 30
0.0
 40
0.2
100
AcDbArc
 50
90.0
 51
180.0
  0
ARC
  5
211E
330
1F
100
AcDbEntity
  8
AM_VIS
100
AcDbCircle
 10
2989.150948664731
 20
1512.206095732677
 30
0.0
 40
0.2
100
AcDbArc
 50
180.0
 51
270.0
  0
ARC
  5
211F
330
1F
100
AcDbEntity
  8
AM_VIS
100
AcDbCircle
 10
2990.050948664731
 20
1512.206095732677
 30
0.0
 40
0.2
100
AcDbArc
 50
270.0
 51
0.0
  0
ARC
  5
2120
330
1F
100
AcDbEntity
  8
AM_VIS
100
AcDbCircle
 10
2990.450948664732
 20
1513.506095732676
 30
0.0
 40
0.2
100
AcDbArc
 50
90.0
 51
180.0
  0
ARC
  5
2121
330
1F
100
AcDbEntity
  8
AM_VIS
100
AcDbCircle
 10
2991.75094866473
 20
1513.506095732676
 30
0.0
 40
0.2
100
AcDbArc
 50
0.0
 51
90.0
  0
CIRCLE
  5
2123
330
1F
100
AcDbEntity
  8
AM_VIS
100
AcDbCircle
 10
2934.950948690869
 20
1522.106095757994
 30
0.0
 40
48.0
  0
CIRCLE
  5
2126
330
1F
100
AcDbEntity
  8
AM_VIS
100
AcDbCircle
 10
2887.950948690868
 20
1569.106095757994
 30
0.0
 40
8.75
  0
CIRCLE
  5
2127
330
1F
100
AcDbEntity
  8
AM_VIS
100
AcDbCircle
 10
2981.950948690868
 20
1475.106095757994
 30
0.0
 40
8.75
  0
LINE
  5
2130
330
1F
100
AcDbEntity
  8
AM_VIS
100
AcDbLine
 10
2994.950948690868
 20
1581.106095757994
 30
0.0
 11
2994.950948690868
 21
1463.106095757994
 31
0.0
  0
LINE
  5
2131
330
1F
100
AcDbEntity
  8
AM_VIS
100
AcDbLine
 10
2994.950948690868
 20
1463.106095757995
 30
0.0
 11
2989.950948690868
 21
1458.106095757995
 31
0.0
  0
LINE
  5
2132
330
1F
100
AcDbEntity
  8
AM_VIS
100
AcDbLine
 10
2989.950948690868
 20
1458.106095757995
 30
0.0
 11
2879.950948690868
 21
1458.106095757995
 31
0.0
  0
LINE
  5
2133
330
1F
100
AcDbEntity
  8
AM_VIS
100
AcDbLine
 10
2879.950948690868
 20
1458.106095757994
 30
0.0
 11
2874.950948690868
 21
1463.106095757994
 31
0.0
  0
LINE
  5
2134
330
1F
100
AcDbEntity
  8
AM_VIS
100
AcDbLine
 10
2874.950948690868
 20
1463.106095757994
 30
0.0
 11
2874.950948690868
 21
1581.106095757994
 31
0.0
  0
LINE
  5
2135
330
1F
100
AcDbEntity
  8
AM_VIS
100
AcDbLine
 10
2874.950948690868
 20
1581.106095757994
 30
0.0
 11
2879.950948690868
 21
1586.106095757994
 31
0.0
  0
LINE
  5
2136
330
1F
100
AcDbEntity
  8
AM_VIS
100
AcDbLine
 10
2879.950948690868
 20
1586.106095757994
 30
0.0
 11
2921.794655850691
 21
1586.106095757994
 31
0.0
  0
LINE
  5
2137
330
1F
100
AcDbEntity
  8
AM_VIS
100
AcDbLine
 10
2948.107241528341
 20
1586.106095757994
 30
0.0
 11
2989.950948690868
 21
1586.106095757994
 31
0.0
  0
LINE
  5
2138
330
1F
100
AcDbEntity
  8
AM_VIS
100
AcDbLine
 10
2989.950948690868
 20
1586.106095757994
 30
0.0
 11
2994.950948690868
 21
1581.106095757994
 31
0.0
  0
LINE
  5
213E
330
1F
100
AcDbEntity
  8
AM_VIS
100
AcDbLine
 10
3098.999011647562
 20
1632.532295400836
 30
0.0
 11
3098.999011647562
 21
1690.032295400836
 31
0.0
  0
LINE
  5
213F
330
1F
100
AcDbEntity
  8
AM_VIS
100
AcDbLine
 10
3105.906861117496
 20
1632.532295400836
 30
0.0
 11
3105.906861117496
 21
1690.032295400836
 31
0.0
  0
LINE
  5
2140
330
1F
100
AcDbEntity
  8
AM_VIS
100
AcDbLine
 10
3118.401643197496
 20
1632.532295400836
 30
0.0
 11
3118.401643197496
 21
1690.032295400836
 31
0.0
  0
LINE
  5
2141
330
1F
100
AcDbEntity
  8
AM_VIS
100
AcDbLine
 10
3169.599011767496
 20
1632.532295400836
 30
0.0
 11
3169.599011767496
 21
1690.032295400836
 31
0.0
  0
LINE
  5
2142
330
1F
100
AcDbEntity
  8
AM_VIS
100
AcDbLine
 10
3193.499011732339
 20
1632.532295400836
 30
0.0
 11
3193.499011732339
 21
1690.032295400836
 31
0.0
  0
LINE
  5
2143
330
1F
100
AcDbEntity
  8
AM_VIS
100
AcDbLine
 10
3196.596380472339
 20
1632.532295400836
 30
0.0
 11
3196.596380472339
 21
1690.032295400836
 31
0.0
  0
LINE
  5
2144
330
1F
100
AcDbEntity
  8
AM_VIS
100
AcDbLine
 10
3209.091162170147
 20
1632.532295400836
 30
0.0
 11
3209.091162170147
 21
1690.032295400836
 31
0.0
  0
LINE
  5
2145
330
1F
100
AcDbEntity
  8
AM_VIS
100
AcDbLine
 10
3215.999011622243
 20
1632.532295400836
 30
0.0
 11
3215.999011622243
 21
1690.032295400836
 31
0.0
  0
LINE
  5
2146
330
1F
100
AcDbEntity
  8
AM_VIS
100
AcDbLine
 10
3143.801642947496
 20
1632.532295400836
 30
0.0
 11
3143.801642947496
 21
1690.032295400836
 31
0.0
  0
LINE
  5
2147
330
1F
100
AcDbEntity
  8
AM_VIS
100
AcDbLine
 10
3121.499011927496
 20
1632.532295400836
 30
0.0
 11
3121.499011927496
 21
1690.032295400836
 31
0.0
  0
LINE
  5
2148
330
1F
100
AcDbEntity
  8
AM_VIS
100
AcDbLine
 10
3137.199011680987
 20
1632.532295400836
 30
0.0
 11
3137.199011680987
 21
1690.032295400836
 31
0.0
  0
LINE
  5
2149
330
1F
100
AcDbEntity
  8
AM_VIS
100
AcDbLine
 10
3133.799011680987
 20
1632.532295400836
 30
0.0
 11
3133.799011680987
 21
1690.032295400836
 31
0.0
  0
LINE
  5
214A
330
1F
100
AcDbEntity
  8
AM_VIS
100
AcDbLine
 10
3171.196380562339
 20
1632.532295400836
 30
0.0
 11
3171.196380562339
 21
1690.032295400836
 31
0.0
  0
LINE
  5
214B
330
1F
100
AcDbEntity
  8
AM_VIS
100
AcDbLine
 10
3181.199011647562
 20
1632.532295400836
 30
0.0
 11
3181.199011647562
 21
1690.032295400836
 31
0.0
  0
LINE
  5
214C
330
1F
100
AcDbEntity
  8
AM_VIS
100
AcDbLine
 10
3177.799011647561
 20
1632.532295400836
 30
0.0
 11
3177.799011647561
 21
1690.032295400836
 31
0.0
  0
LINE
  5
214D
330
1F
100
AcDbEntity
  8
AM_VIS
100
AcDbLine
 10
3145.399011747496
 20
1632.532295400836
 30
0.0
 11
3145.399011747496
 21
1690.032295400836
 31
0.0
  0
LINE
  5
214E
330
1F
100
AcDbEntity
  8
AM_VIS
100
AcDbLine
 10
3156.399011647561
 20
1632.532295400836
 30
0.0
 11
3156.399011647561
 21
1690.032295400836
 31
0.0
  0
LINE
  5
214F
330
1F
100
AcDbEntity
  8
AM_VIS
100
AcDbLine
 10
3149.099011647562
 20
1632.532295400836
 30
0.0
 11
3149.099011647562
 21
1690.032295400836
 31
0.0
  0
LINE
  5
2150
330
1F
100
AcDbEntity
  8
AM_VIS
100
AcDbLine
 10
3165.89901167288
 20
1632.532295400836
 30
0.0
 11
3165.89901167288
 21
1690.032295400836
 31
0.0
  0
LINE
  5
2151
330
1F
100
AcDbEntity
  8
AM_VIS
100
AcDbLine
 10
3158.59901167288
 20
1632.532295400836
 30
0.0
 11
3158.59901167288
 21
1690.032295400836
 31
0.0
  0
LINE
  5
2152
330
1F
100
AcDbEntity
  8
AM_VIS
100
AcDbLine
 10
3169.599011767496
 20
1632.532295400836
 30
0.0
 11
3166.099011672879
 21
1632.532295400836
 31
0.0
  0
LINE
  5
2153
330
1F
100
AcDbEntity
  8
AM_VIS
100
AcDbLine
 10
3171.196380562339
 20
1632.532295400836
 30
0.0
 11
3169.599011767496
 21
1632.532295400836
 31
0.0
  0
LINE
  5
2154
330
1F
100
AcDbEntity
  8
AM_VIS
100
AcDbLine
 10
3177.599011647562
 20
1632.532295400836
 30
0.0
 11
3171.196380562339
 21
1632.532295400836
 31
0.0
  0
LINE
  5
2155
330
1F
100
AcDbEntity
  8
AM_VIS
100
AcDbLine
 10
3179.949011647562
 20
1632.532295400836
 30
0.0
 11
3179.049011647562
 21
1632.532295400836
 31
0.0
  0
LINE
  5
2156
330
1F
100
AcDbEntity
  8
AM_VIS
100
AcDbLine
 10
3193.499011732339
 20
1632.532295400836
 30
0.0
 11
3181.399011647562
 21
1632.532295400836
 31
0.0
  0
LINE
  5
2157
330
1F
100
AcDbEntity
  8
AM_VIS
100
AcDbLine
 10
3196.596380472339
 20
1632.532295400836
 30
0.0
 11
3193.499011732339
 21
1632.532295400836
 31
0.0
  0
LINE
  5
2158
330
1F
100
AcDbEntity
  8
AM_VIS
100
AcDbLine
 10
3209.091162170147
 20
1632.532295400836
 30
0.0
 11
3196.596380472339
 21
1632.532295400836
 31
0.0
  0
LINE
  5
2159
330
1F
100
AcDbEntity
  8
AM_VIS
100
AcDbLine
 10
3098.999011647562
 20
1632.532295400836
 30
0.0
 11
3092.499011637561
 21
1632.532295400836
 31
0.0
  0
LINE
  5
215A
330
1F
100
AcDbEntity
  8
AM_VIS
100
AcDbLine
 10
3118.401643197496
 20
1632.532295400836
 30
0.0
 11
3105.906861117496
 21
1632.532295400836
 31
0.0
  0
LINE
  5
215B
330
1F
100
AcDbEntity
  8
AM_VIS
100
AcDbLine
 10
3121.499011927496
 20
1632.532295400836
 30
0.0
 11
3118.401643197496
 21
1632.532295400836
 31
0.0
  0
LINE
  5
215C
330
1F
100
AcDbEntity
  8
AM_VIS
100
AcDbLine
 10
3133.599011680987
 20
1632.532295400836
 30
0.0
 11
3121.499011927496
 21
1632.532295400836
 31
0.0
  0
LINE
  5
215D
330
1F
100
AcDbEntity
  8
AM_VIS
100
AcDbLine
 10
3135.949011680987
 20
1632.532295400836
 30
0.0
 11
3135.049011680987
 21
1632.532295400836
 31
0.0
  0
LINE
  5
215E
330
1F
100
AcDbEntity
  8
AM_VIS
100
AcDbLine
 10
3143.801642947496
 20
1632.532295400836
 30
0.0
 11
3137.399011680987
 21
1632.532295400836
 31
0.0
  0
LINE
  5
215F
330
1F
100
AcDbEntity
  8
AM_VIS
100
AcDbLine
 10
3145.399011747496
 20
1632.532295400836
 30
0.0
 11
3143.801642947497
 21
1632.532295400836
 31
0.0
  0
LINE
  5
2160
330
1F
100
AcDbEntity
  8
AM_VIS
100
AcDbLine
 10
3148.899011647562
 20
1632.532295400836
 30
0.0
 11
3145.399011747496
 21
1632.532295400836
 31
0.0
  0
LINE
  5
2161
330
1F
100
AcDbEntity
  8
AM_VIS
100
AcDbLine
 10
3156.199011647562
 20
1632.532295400836
 30
0.0
 11
3149.099011647562
 21
1632.532295400836
 31
0.0
  0
LINE
  5
2162
330
1F
100
AcDbEntity
  8
AM_VIS
100
AcDbLine
 10
3158.399011672879
 20
1632.532295400836
 30
0.0
 11
3156.599011647561
 21
1632.532295400836
 31
0.0
  0
LINE
  5
2163
330
1F
100
AcDbEntity
  8
AM_VIS
100
AcDbLine
 10
3165.89901167288
 20
1632.532295400836
 30
0.0
 11
3158.79901167288
 21
1632.532295400836
 31
0.0
  0
LINE
  5
2164
330
1F
100
AcDbEntity
  8
AM_VIS
100
AcDbLine
 10
3092.499011637562
 20
1632.532295400836
 30
0.0
 11
3092.499011637562
 21
1690.032295400836
 31
0.0
  0
LINE
  5
2165
330
1F
100
AcDbEntity
  8
AM_VIS
100
AcDbLine
 10
3158.399011672879
 20
1690.032295400836
 30
0.0
 11
3156.599011647561
 21
1690.032295400836
 31
0.0
  0
LINE
  5
2166
330
1F
100
AcDbEntity
  8
AM_VIS
100
AcDbLine
 10
3149.099011647562
 20
1690.032295400836
 30
0.0
 11
3156.199011647562
 21
1690.032295400836
 31
0.0
  0
LINE
  5
2167
330
1F
100
AcDbEntity
  8
AM_VIS
100
AcDbLine
 10
3148.899011647562
 20
1690.032295400836
 30
0.0
 11
3145.399011747496
 21
1690.032295400836
 31
0.0
  0
LINE
  5
2168
330
1F
100
AcDbEntity
  8
AM_VIS
100
AcDbLine
 10
3145.399011747496
 20
1690.032295400836
 30
0.0
 11
3143.801642947497
 21
1690.032295400836
 31
0.0
  0
LINE
  5
2169
330
1F
100
AcDbEntity
  8
AM_VIS
100
AcDbLine
 10
3143.801642947496
 20
1690.032295400836
 30
0.0
 11
3137.399011680987
 21
1690.032295400836
 31
0.0
  0
LINE
  5
216A
330
1F
100
AcDbEntity
  8
AM_VIS
100
AcDbLine
 10
3135.049011680987
 20
1690.032295400836
 30
0.0
 11
3135.949011680987
 21
1690.032295400836
 31
0.0
  0
LINE
  5
216B
330
1F
100
AcDbEntity
  8
AM_VIS
100
AcDbLine
 10
3133.599011680987
 20
1690.032295400836
 30
0.0
 11
3121.499011927496
 21
1690.032295400836
 31
0.0
  0
LINE
  5
216C
330
1F
100
AcDbEntity
  8
AM_VIS
100
AcDbLine
 10
3121.499011927496
 20
1690.032295400836
 30
0.0
 11
3118.401643197496
 21
1690.032295400836
 31
0.0
  0
LINE
  5
216D
330
1F
100
AcDbEntity
  8
AM_VIS
100
AcDbLine
 10
3118.401643197496
 20
1690.032295400836
 30
0.0
 11
3105.906861117496
 21
1690.032295400836
 31
0.0
  0
LINE
  5
216E
330
1F
100
AcDbEntity
  8
AM_VIS
100
AcDbLine
 10
3098.999011647562
 20
1690.032295400836
 30
0.0
 11
3092.499011637561
 21
1690.032295400836
 31
0.0
  0
LINE
  5
216F
330
1F
100
AcDbEntity
  8
AM_VIS
100
AcDbLine
 10
3209.091162170147
 20
1690.032295400836
 30
0.0
 11
3196.596380472339
 21
1690.032295400836
 31
0.0
  0
LINE
  5
2170
330
1F
100
AcDbEntity
  8
AM_VIS
100
AcDbLine
 10
3196.596380472339
 20
1690.032295400836
 30
0.0
 11
3193.499011732339
 21
1690.032295400836
 31
0.0
  0
LINE
  5
2171
330
1F
100
AcDbEntity
  8
AM_VIS
100
AcDbLine
 10
3193.499011732339
 20
1690.032295400836
 30
0.0
 11
3181.399011647562
 21
1690.032295400836
 31
0.0
  0
LINE
  5
2172
330
1F
100
AcDbEntity
  8
AM_VIS
100
AcDbLine
 10
3179.049011647562
 20
1690.032295400836
 30
0.0
 11
3179.949011647562
 21
1690.032295400836
 31
0.0
  0
LINE
  5
2173
330
1F
100
AcDbEntity
  8
AM_VIS
100
AcDbLine
 10
3177.599011647562
 20
1690.032295400836
 30
0.0
 11
3171.196380562339
 21
1690.032295400836
 31
0.0
  0
LINE
  5
2174
330
1F
100
AcDbEntity
  8
AM_VIS
100
AcDbLine
 10
3171.196380562339
 20
1690.032295400836
 30
0.0
 11
3169.599011767496
 21
1690.032295400836
 31
0.0
  0
LINE
  5
2175
330
1F
100
AcDbEntity
  8
AM_VIS
100
AcDbLine
 10
3169.599011767496
 20
1690.032295400836
 30
0.0
 11
3166.099011672879
 21
1690.032295400836
 31
0.0
  0
LINE
  5
2176
330
1F
100
AcDbEntity
  8
AM_VIS
100
AcDbLine
 10
3158.79901167288
 20
1690.032295400836
 30
0.0
 11
3165.89901167288
 21
1690.032295400836
 31
0.0
  0
LINE
  5
2177
330
1F
100
AcDbEntity
  8
AM_VIS
100
AcDbLine
 10
3177.599011647562
 20
1632.532295400836
 30
0.0
 11
3177.799011647562
 21
1632.532295400836
 31
0.0
  0
LINE
  5
2178
330
1F
100
AcDbEntity
  8
AM_VIS
100
AcDbLine
 10
3179.049011647562
 20
1632.532295400836
 30
0.0
 11
3177.799011647561
 21
1632.532295400836
 31
0.0
  0
LINE
  5
2179
330
1F
100
AcDbEntity
  8
AM_VIS
100
AcDbLine
 10
3181.199011647562
 20
1632.532295400836
 30
0.0
 11
3179.949011647562
 21
1632.532295400836
 31
0.0
  0
LINE
  5
217A
330
1F
100
AcDbEntity
  8
AM_VIS
100
AcDbLine
 10
3181.199011647562
 20
1632.532295400836
 30
0.0
 11
3181.399011647562
 21
1632.532295400836
 31
0.0
  0
LINE
  5
217B
330
1F
100
AcDbEntity
  8
AM_VIS
100
AcDbLine
 10
3209.091162170148
 20
1632.532295400836
 30
0.0
 11
3215.999011622244
 21
1632.532295400836
 31
0.0
  0
LINE
  5
217C
330
1F
100
AcDbEntity
  8
AM_VIS
100
AcDbLine
 10
3098.999011647562
 20
1632.532295400836
 30
0.0
 11
3105.906861117496
 21
1632.532295400836
 31
0.0
  0
LINE
  5
217D
330
1F
100
AcDbEntity
  8
AM_VIS
100
AcDbLine
 10
3133.599011680987
 20
1632.532295400836
 30
0.0
 11
3133.799011680987
 21
1632.532295400836
 31
0.0
  0
LINE
  5
217E
330
1F
100
AcDbEntity
  8
AM_VIS
100
AcDbLine
 10
3135.049011680987
 20
1632.532295400836
 30
0.0
 11
3133.799011680987
 21
1632.532295400836
 31
0.0
  0
LINE
  5
217F
330
1F
100
AcDbEntity
  8
AM_VIS
100
AcDbLine
 10
3137.199011680987
 20
1632.532295400836
 30
0.0
 11
3135.949011680987
 21
1632.532295400836
 31
0.0
  0
LINE
  5
2180
330
1F
100
AcDbEntity
  8
AM_VIS
100
AcDbLine
 10
3137.199011680987
 20
1632.532295400836
 30
0.0
 11
3137.399011680987
 21
1632.532295400836
 31
0.0
  0
LINE
  5
2181
330
1F
100
AcDbEntity
  8
AM_VIS
100
AcDbLine
 10
3148.899011647562
 20
1632.532295400836
 30
0.0
 11
3149.099011647562
 21
1632.532295400836
 31
0.0
  0
LINE
  5
2182
330
1F
100
AcDbEntity
  8
AM_VIS
100
AcDbLine
 10
3156.399011647561
 20
1632.532295400836
 30
0.0
 11
3156.199011647562
 21
1632.532295400836
 31
0.0
  0
LINE
  5
2183
330
1F
100
AcDbEntity
  8
AM_VIS
100
AcDbLine
 10
3156.399011647561
 20
1632.532295400836
 30
0.0
 11
3156.599011647561
 21
1632.532295400836
 31
0.0
  0
LINE
  5
2184
330
1F
100
AcDbEntity
  8
AM_VIS
100
AcDbLine
 10
3158.399011672879
 20
1632.532295400836
 30
0.0
 11
3158.59901167288
 21
1632.532295400836
 31
0.0
  0
LINE
  5
2185
330
1F
100
AcDbEntity
  8
AM_VIS
100
AcDbLine
 10
3158.79901167288
 20
1632.532295400836
 30
0.0
 11
3158.59901167288
 21
1632.532295400836
 31
0.0
  0
LINE
  5
2186
330
1F
100
AcDbEntity
  8
AM_VIS
100
AcDbLine
 10
3165.899011672879
 20
1632.532295400836
 30
0.0
 11
3166.099011672879
 21
1632.532295400836
 31
0.0
  0
LINE
  5
2187
330
1F
100
AcDbEntity
  8
AM_VIS
100
AcDbLine
 10
3156.599011647561
 20
1690.032295400836
 30
0.0
 11
3156.399011647561
 21
1690.032295400836
 31
0.0
  0
LINE
  5
2188
330
1F
100
AcDbEntity
  8
AM_VIS
100
AcDbLine
 10
3156.199011647562
 20
1690.032295400836
 30
0.0
 11
3156.399011647561
 21
1690.032295400836
 31
0.0
  0
LINE
  5
2189
330
1F
100
AcDbEntity
  8
AM_VIS
100
AcDbLine
 10
3149.099011647562
 20
1690.032295400836
 30
0.0
 11
3148.899011647562
 21
1690.032295400836
 31
0.0
  0
LINE
  5
218A
330
1F
100
AcDbEntity
  8
AM_VIS
100
AcDbLine
 10
3137.399011680987
 20
1690.032295400836
 30
0.0
 11
3137.199011680987
 21
1690.032295400836
 31
0.0
  0
LINE
  5
218B
330
1F
100
AcDbEntity
  8
AM_VIS
100
AcDbLine
 10
3135.949011680987
 20
1690.032295400836
 30
0.0
 11
3137.199011680987
 21
1690.032295400836
 31
0.0
  0
LINE
  5
218C
330
1F
100
AcDbEntity
  8
AM_VIS
100
AcDbLine
 10
3133.799011680987
 20
1690.032295400836
 30
0.0
 11
3135.049011680987
 21
1690.032295400836
 31
0.0
  0
LINE
  5
218D
330
1F
100
AcDbEntity
  8
AM_VIS
100
AcDbLine
 10
3133.799011680987
 20
1690.032295400836
 30
0.0
 11
3133.599011680987
 21
1690.032295400836
 31
0.0
  0
LINE
  5
218E
330
1F
100
AcDbEntity
  8
AM_VIS
100
AcDbLine
 10
3098.999011647562
 20
1690.032295400836
 30
0.0
 11
3105.906861117496
 21
1690.032295400836
 31
0.0
  0
LINE
  5
218F
330
1F
100
AcDbEntity
  8
AM_VIS
100
AcDbLine
 10
3209.091162170148
 20
1690.032295400836
 30
0.0
 11
3215.999011622244
 21
1690.032295400836
 31
0.0
  0
LINE
  5
2190
330
1F
100
AcDbEntity
  8
AM_VIS
100
AcDbLine
 10
3181.399011647562
 20
1690.032295400836
 30
0.0
 11
3181.199011647562
 21
1690.032295400836
 31
0.0
  0
LINE
  5
2191
330
1F
100
AcDbEntity
  8
AM_VIS
100
AcDbLine
 10
3179.949011647562
 20
1690.032295400836
 30
0.0
 11
3181.199011647562
 21
1690.032295400836
 31
0.0
  0
LINE
  5
2192
330
1F
100
AcDbEntity
  8
AM_VIS
100
AcDbLine
 10
3177.799011647561
 20
1690.032295400836
 30
0.0
 11
3179.049011647562
 21
1690.032295400836
 31
0.0
  0
LINE
  5
2193
330
1F
100
AcDbEntity
  8
AM_VIS
100
AcDbLine
 10
3177.799011647562
 20
1690.032295400836
 30
0.0
 11
3177.599011647562
 21
1690.032295400836
 31
0.0
  0
LINE
  5
2194
330
1F
100
AcDbEntity
  8
AM_VIS
100
AcDbLine
 10
3166.099011672879
 20
1690.032295400836
 30
0.0
 11
3165.899011672879
 21
1690.032295400836
 31
0.0
  0
LINE
  5
2195
330
1F
100
AcDbEntity
  8
AM_VIS
100
AcDbLine
 10
3158.59901167288
 20
1690.032295400836
 30
0.0
 11
3158.79901167288
 21
1690.032295400836
 31
0.0
  0
LINE
  5
2196
330
1F
100
AcDbEntity
  8
AM_VIS
100
AcDbLine
 10
3158.59901167288
 20
1690.032295400836
 30
0.0
 11
3158.399011672879
 21
1690.032295400836
 31
0.0
  0
LINE
  5
2197
330
1F
100
AcDbEntity
  8
AM_VIS
100
AcDbLine
 10
3210.499011647562
 20
1690.032295400836
 30
0.0
 11
3210.499011647562
 21
1709.032295400836
 31
0.0
  0
LINE
  5
2198
330
1F
100
AcDbEntity
  8
AM_VIS
100
AcDbLine
 10
3198.499011647562
 20
1690.032295400836
 30
0.0
 11
3198.499011647562
 21
1709.032295400836
 31
0.0
  0
LINE
  5
2199
330
1F
100
AcDbEntity
  8
AM_VIS
100
AcDbLine
 10
3116.499011647562
 20
1690.032295400836
 30
0.0
 11
3116.499011647562
 21
1709.032295400836
 31
0.0
  0
LINE
  5
219A
330
1F
100
AcDbEntity
  8
AM_VIS
100
AcDbLine
 10
3104.499011647562
 20
1690.032295400836
 30
0.0
 11
3104.499011647562
 21
1709.032295400836
 31
0.0
  0
LINE
  5
219B
330
1F
100
AcDbEntity
  8
AM_VIS
100
AcDbLine
 10
3098.499011647561
 20
1709.032295400836
 30
0.0
 11
3216.499011647562
 21
1709.032295400836
 31
0.0
  0
LINE
  5
219C
330
1F
100
AcDbEntity
  8
AM_VIS
100
AcDbLine
 10
3216.499011647562
 20
1709.032295400836
 30
0.0
 11
3221.499011647562
 21
1709.032295400836
 31
0.0
  0
LINE
  5
219D
330
1F
100
AcDbEntity
  8
AM_VIS
100
AcDbLine
 10
3216.499011647562
 20
1727.032295400836
 30
0.0
 11
3216.499011647562
 21
1709.032295400836
 31
0.0
  0
LINE
  5
219E
330
1F
100
AcDbEntity
  8
AM_VIS
100
AcDbLine
 10
3221.499011647562
 20
1709.032295400836
 30
0.0
 11
3221.499011647562
 21
1727.032295400836
 31
0.0
  0
LINE
  5
219F
330
1F
100
AcDbEntity
  8
AM_VIS
100
AcDbLine
 10
3221.499011647562
 20
1727.032295400836
 30
0.0
 11
3216.499011647562
 21
1727.032295400836
 31
0.0
  0
LINE
  5
21A0
330
1F
100
AcDbEntity
  8
AM_VIS
100
AcDbLine
 10
3216.499011647562
 20
1727.032295400836
 30
0.0
 11
3098.499011647561
 21
1727.032295400836
 31
0.0
  0
LINE
  5
21A1
330
1F
100
AcDbEntity
  8
AM_VIS
100
AcDbLine
 10
3098.499011647561
 20
1709.032295400836
 30
0.0
 11
3098.499011647561
 21
1727.032295400836
 31
0.0
  0
LINE
  5
21A2
330
1F
100
AcDbEntity
  8
AM_VIS
100
AcDbLine
 10
3093.499011647562
 20
1709.032295400836
 30
0.0
 11
3098.499011647561
 21
1709.032295400836
 31
0.0
  0
LINE
  5
21A3
330
1F
100
AcDbEntity
  8
AM_VIS
100
AcDbLine
 10
3093.499011647562
 20
1727.032295400836
 30
0.0
 11
3093.499011647562
 21
1709.032295400836
 31
0.0
  0
LINE
  5
21A4
330
1F
100
AcDbEntity
  8
AM_VIS
100
AcDbLine
 10
3098.499011647561
 20
1727.032295400836
 30
0.0
 11
3093.499011647562
 21
1727.032295400836
 31
0.0
  0
LINE
  5
21AD
330
1F
100
AcDbEntity
  8
AM_VIS
100
AcDbLine
 10
2970.950948689516
 20
1632.532295400836
 30
0.0
 11
2970.950948689516
 21
1690.032295400836
 31
0.0
  0
LINE
  5
21AE
330
1F
100
AcDbEntity
  8
AM_VIS
100
AcDbLine
 10
2974.048317489516
 20
1632.532295400836
 30
0.0
 11
2974.048317489516
 21
1690.032295400836
 31
0.0
  0
LINE
  5
21AF
330
1F
100
AcDbEntity
  8
AM_VIS
100
AcDbLine
 10
2986.543099259516
 20
1632.532295400836
 30
0.0
 11
2986.543099259516
 21
1690.032295400836
 31
0.0
  0
LINE
  5
21B0
330
1F
100
AcDbEntity
  8
AM_VIS
100
AcDbLine
 10
2993.450948724293
 20
1632.532295400836
 30
0.0
 11
2993.450948724293
 21
1690.032295400836
 31
0.0
  0
LINE
  5
21B1
330
1F
100
AcDbEntity
  8
AM_VIS
100
AcDbLine
 10
2876.450948690868
 20
1632.532295400836
 30
0.0
 11
2876.450948690868
 21
1690.032295400836
 31
0.0
  0
LINE
  5
21B2
330
1F
100
AcDbEntity
  8
AM_VIS
100
AcDbLine
 10
2883.358798119516
 20
1632.532295400836
 30
0.0
 11
2883.358798119516
 21
1690.032295400836
 31
0.0
  0
LINE
  5
21B3
330
1F
100
AcDbEntity
  8
AM_VIS
100
AcDbLine
 10
2895.853579899517
 20
1632.532295400836
 30
0.0
 11
2895.853579899517
 21
1690.032295400836
 31
0.0
  0
LINE
  5
21B4
330
1F
100
AcDbEntity
  8
AM_VIS
100
AcDbLine
 10
2898.950948689524
 20
1632.532295400836
 30
0.0
 11
2898.950948689524
 21
1690.032295400836
 31
0.0
  0
LINE
  5
21B5
330
1F
100
AcDbEntity
  8
AM_VIS
100
AcDbLine
 10
2920.450948689516
 20
1632.532295400836
 30
0.0
 11
2920.450948689516
 21
1690.032295400836
 31
0.0
  0
LINE
  5
21B6
330
1F
100
AcDbEntity
  8
AM_VIS
100
AcDbLine
 10
2914.650948724294
 20
1632.532295400836
 30
0.0
 11
2914.650948724294
 21
1690.032295400836
 31
0.0
  0
LINE
  5
21B7
330
1F
100
AcDbEntity
  8
AM_VIS
100
AcDbLine
 10
2911.250948724293
 20
1632.532295400836
 30
0.0
 11
2911.250948724293
 21
1690.032295400836
 31
0.0
  0
LINE
  5
21B8
330
1F
100
AcDbEntity
  8
AM_VIS
100
AcDbLine
 10
2949.450948689517
 20
1632.532295400836
 30
0.0
 11
2949.450948689517
 21
1690.032295400836
 31
0.0
  0
LINE
  5
21B9
330
1F
100
AcDbEntity
  8
AM_VIS
100
AcDbLine
 10
2958.650948690868
 20
1632.532295400836
 30
0.0
 11
2958.650948690868
 21
1690.032295400836
 31
0.0
  0
LINE
  5
21BA
330
1F
100
AcDbEntity
  8
AM_VIS
100
AcDbLine
 10
2955.250948690868
 20
1632.532295400836
 30
0.0
 11
2955.250948690868
 21
1690.032295400836
 31
0.0
  0
LINE
  5
21BB
330
1F
100
AcDbEntity
  8
AM_VIS
100
AcDbLine
 10
2895.853579899517
 20
1632.532295400836
 30
0.0
 11
2883.358798119516
 21
1632.532295400836
 31
0.0
  0
LINE
  5
21BC
330
1F
100
AcDbEntity
  8
AM_VIS
100
AcDbLine
 10
2898.950948689521
 20
1632.532295400836
 30
0.0
 11
2895.853579899517
 21
1632.532295400836
 31
0.0
  0
LINE
  5
21BD
330
1F
100
AcDbEntity
  8
AM_VIS
100
AcDbLine
 10
2911.050948724294
 20
1632.532295400836
 30
0.0
 11
2898.950948689524
 21
1632.532295400836
 31
0.0
  0
LINE
  5
21BE
330
1F
100
AcDbEntity
  8
AM_VIS
100
AcDbLine
 10
2913.400948724294
 20
1632.532295400836
 30
0.0
 11
2912.500948724293
 21
1632.532295400836
 31
0.0
  0
LINE
  5
21BF
330
1F
100
AcDbEntity
  8
AM_VIS
100
AcDbLine
 10
2920.450948689516
 20
1632.532295400836
 30
0.0
 11
2914.850948724294
 21
1632.532295400836
 31
0.0
  0
LINE
  5
21C0
330
1F
100
AcDbEntity
  8
AM_VIS
100
AcDbLine
 10
2921.950948689516
 20
1632.532295400836
 30
0.0
 11
2920.450948689516
 21
1632.532295400836
 31
0.0
  0
LINE
  5
21C1
330
1F
100
AcDbEntity
  8
AM_VIS
100
AcDbLine
 10
2949.450948689516
 20
1632.532295400836
 30
0.0
 11
2947.950948689517
 21
1632.532295400836
 31
0.0
  0
LINE
  5
21C2
330
1F
100
AcDbEntity
  8
AM_VIS
100
AcDbLine
 10
2955.050948690869
 20
1632.532295400836
 30
0.0
 11
2949.450948689517
 21
1632.532295400836
 31
0.0
  0
LINE
  5
21C3
330
1F
100
AcDbEntity
  8
AM_VIS
100
AcDbLine
 10
2957.400948690869
 20
1632.532295400836
 30
0.0
 11
2956.500948690869
 21
1632.532295400836
 31
0.0
  0
LINE
  5
21C4
330
1F
100
AcDbEntity
  8
AM_VIS
100
AcDbLine
 10
2970.950948689516
 20
1632.532295400836
 30
0.0
 11
2958.850948690869
 21
1632.532295400836
 31
0.0
  0
LINE
  5
21C5
330
1F
100
AcDbEntity
  8
AM_VIS
100
AcDbLine
 10
2974.048317489516
 20
1632.532295400836
 30
0.0
 11
2970.950948689516
 21
1632.532295400836
 31
0.0
  0
LINE
  5
21C6
330
1F
100
AcDbEntity
  8
AM_VIS
100
AcDbLine
 10
2986.543099259516
 20
1632.532295400836
 30
0.0
 11
2974.048317489516
 21
1632.532295400836
 31
0.0
  0
LINE
  5
21C7
330
1F
100
AcDbEntity
  8
AM_VIS
100
AcDbLine
 10
2947.950948689516
 20
1632.532295400836
 30
0.0
 11
2947.950948689516
 21
1690.032295400836
 31
0.0
  0
LINE
  5
21C8
330
1F
100
AcDbEntity
  8
AM_VIS
100
AcDbLine
 10
2947.950948689516
 20
1632.532295400836
 30
0.0
 11
2921.950948689516
 21
1632.532295400836
 31
0.0
  0
LINE
  5
21C9
330
1F
100
AcDbEntity
  8
AM_VIS
100
AcDbLine
 10
2921.950948689516
 20
1632.532295400836
 30
0.0
 11
2921.950948689516
 21
1690.032295400836
 31
0.0
  0
LINE
  5
21CA
330
1F
100
AcDbEntity
  8
AM_VIS
100
AcDbLine
 10
2986.543099259516
 20
1690.032295400836
 30
0.0
 11
2974.048317489516
 21
1690.032295400836
 31
0.0
  0
LINE
  5
21CB
330
1F
100
AcDbEntity
  8
AM_VIS
100
AcDbLine
 10
2974.048317489516
 20
1690.032295400836
 30
0.0
 11
2970.950948689516
 21
1690.032295400836
 31
0.0
  0
LINE
  5
21CC
330
1F
100
AcDbEntity
  8
AM_VIS
100
AcDbLine
 10
2970.950948689516
 20
1690.032295400836
 30
0.0
 11
2958.850948690869
 21
1690.032295400836
 31
0.0
  0
LINE
  5
21CD
330
1F
100
AcDbEntity
  8
AM_VIS
100
AcDbLine
 10
2956.500948690869
 20
1690.032295400836
 30
0.0
 11
2957.400948690869
 21
1690.032295400836
 31
0.0
  0
LINE
  5
21CE
330
1F
100
AcDbEntity
  8
AM_VIS
100
AcDbLine
 10
2955.050948690869
 20
1690.032295400836
 30
0.0
 11
2949.450948689517
 21
1690.032295400836
 31
0.0
  0
LINE
  5
21CF
330
1F
100
AcDbEntity
  8
AM_VIS
100
AcDbLine
 10
2949.450948689516
 20
1690.032295400836
 30
0.0
 11
2947.950948689517
 21
1690.032295400836
 31
0.0
  0
LINE
  5
21D0
330
1F
100
AcDbEntity
  8
AM_VIS
100
AcDbLine
 10
2947.950948689516
 20
1690.032295400836
 30
0.0
 11
2921.950948689516
 21
1690.032295400836
 31
0.0
  0
LINE
  5
21D1
330
1F
100
AcDbEntity
  8
AM_VIS
100
AcDbLine
 10
2921.950948689516
 20
1690.032295400836
 30
0.0
 11
2920.450948689516
 21
1690.032295400836
 31
0.0
  0
LINE
  5
21D2
330
1F
100
AcDbEntity
  8
AM_VIS
100
AcDbLine
 10
2920.450948689516
 20
1690.032295400836
 30
0.0
 11
2914.850948724294
 21
1690.032295400836
 31
0.0
  0
LINE
  5
21D3
330
1F
100
AcDbEntity
  8
AM_VIS
100
AcDbLine
 10
2912.500948724293
 20
1690.032295400836
 30
0.0
 11
2913.400948724294
 21
1690.032295400836
 31
0.0
  0
LINE
  5
21D4
330
1F
100
AcDbEntity
  8
AM_VIS
100
AcDbLine
 10
2911.050948724294
 20
1690.032295400836
 30
0.0
 11
2898.950948689524
 21
1690.032295400836
 31
0.0
  0
LINE
  5
21D5
330
1F
100
AcDbEntity
  8
AM_VIS
100
AcDbLine
 10
2898.950948689521
 20
1690.032295400836
 30
0.0
 11
2895.853579899517
 21
1690.032295400836
 31
0.0
  0
LINE
  5
21D6
330
1F
100
AcDbEntity
  8
AM_VIS
100
AcDbLine
 10
2895.853579899517
 20
1690.032295400836
 30
0.0
 11
2883.358798119516
 21
1690.032295400836
 31
0.0
  0
LINE
  5
21D7
330
1F
100
AcDbEntity
  8
AM_VIS
100
AcDbLine
 10
2876.450948690868
 20
1632.532295400836
 30
0.0
 11
2883.358798119516
 21
1632.532295400836
 31
0.0
  0
LINE
  5
21D8
330
1F
100
AcDbEntity
  8
AM_VIS
100
AcDbLine
 10
2911.050948724294
 20
1632.532295400836
 30
0.0
 11
2911.250948724293
 21
1632.532295400836
 31
0.0
  0
LINE
  5
21D9
330
1F
100
AcDbEntity
  8
AM_VIS
100
AcDbLine
 10
2912.500948724293
 20
1632.532295400836
 30
0.0
 11
2911.250948724293
 21
1632.532295400836
 31
0.0
  0
LINE
  5
21DA
330
1F
100
AcDbEntity
  8
AM_VIS
100
AcDbLine
 10
2914.650948724294
 20
1632.532295400836
 30
0.0
 11
2913.400948724294
 21
1632.532295400836
 31
0.0
  0
LINE
  5
21DB
330
1F
100
AcDbEntity
  8
AM_VIS
100
AcDbLine
 10
2914.650948724294
 20
1632.532295400836
 30
0.0
 11
2914.850948724294
 21
1632.532295400836
 31
0.0
  0
LINE
  5
21DC
330
1F
100
AcDbEntity
  8
AM_VIS
100
AcDbLine
 10
2955.050948690869
 20
1632.532295400836
 30
0.0
 11
2955.250948690869
 21
1632.532295400836
 31
0.0
  0
LINE
  5
21DD
330
1F
100
AcDbEntity
  8
AM_VIS
100
AcDbLine
 10
2956.500948690869
 20
1632.532295400836
 30
0.0
 11
2955.250948690868
 21
1632.532295400836
 31
0.0
  0
LINE
  5
21DE
330
1F
100
AcDbEntity
  8
AM_VIS
100
AcDbLine
 10
2958.650948690868
 20
1632.532295400836
 30
0.0
 11
2957.400948690869
 21
1632.532295400836
 31
0.0
  0
LINE
  5
21DF
330
1F
100
AcDbEntity
  8
AM_VIS
100
AcDbLine
 10
2958.650948690868
 20
1632.532295400836
 30
0.0
 11
2958.850948690869
 21
1632.532295400836
 31
0.0
  0
LINE
  5
21E0
330
1F
100
AcDbEntity
  8
AM_VIS
100
AcDbLine
 10
2986.543099259516
 20
1632.532295400836
 30
0.0
 11
2993.450948724293
 21
1632.532295400836
 31
0.0
  0
CIRCLE
  5
21E3
330
1F
100
AcDbEntity
  8
AM_VIS
100
AcDbCircle
 10
2934.950948689516
 20
1668.032295400836
 30
0.0
 40
5.719999999999999
  0
CIRCLE
  5
21E6
330
1F
100
AcDbEntity
  8
AM_VIS
100
AcDbCircle
 10
2934.950948689516
 20
1645.532295400836
 30
0.0
 40
5.719999999999999
  0
LINE
  5
21E7
330
1F
100
AcDbEntity
  8
AM_VIS
100
AcDbLine
 10
2986.543099259516
 20
1690.032295400836
 30
0.0
 11
2993.450948724293
 21
1690.032295400836
 31
0.0
  0
LINE
  5
21E8
330
1F
100
AcDbEntity
  8
AM_VIS
100
AcDbLine
 10
2958.850948690869
 20
1690.032295400836
 30
0.0
 11
2958.650948690868
 21
1690.032295400836
 31
0.0
  0
LINE
  5
21E9
330
1F
100
AcDbEntity
  8
AM_VIS
100
AcDbLine
 10
2957.400948690869
 20
1690.032295400836
 30
0.0
 11
2958.650948690868
 21
1690.032295400836
 31
0.0
  0
LINE
  5
21EA
330
1F
100
AcDbEntity
  8
AM_VIS
100
AcDbLine
 10
2955.250948690868
 20
1690.032295400836
 30
0.0
 11
2956.500948690869
 21
1690.032295400836
 31
0.0
  0
LINE
  5
21EB
330
1F
100
AcDbEntity
  8
AM_VIS
100
AcDbLine
 10
2955.250948690869
 20
1690.032295400836
 30
0.0
 11
2955.050948690869
 21
1690.032295400836
 31
0.0
  0
LINE
  5
21EC
330
1F
100
AcDbEntity
  8
AM_VIS
100
AcDbLine
 10
2914.850948724294
 20
1690.032295400836
 30
0.0
 11
2914.650948724294
 21
1690.032295400836
 31
0.0
  0
LINE
  5
21ED
330
1F
100
AcDbEntity
  8
AM_VIS
100
AcDbLine
 10
2913.400948724294
 20
1690.032295400836
 30
0.0
 11
2914.650948724294
 21
1690.032295400836
 31
0.0
  0
LINE
  5
21EE
330
1F
100
AcDbEntity
  8
AM_VIS
100
AcDbLine
 10
2911.250948724293
 20
1690.032295400836
 30
0.0
 11
2912.500948724293
 21
1690.032295400836
 31
0.0
  0
LINE
  5
21EF
330
1F
100
AcDbEntity
  8
AM_VIS
100
AcDbLine
 10
2911.250948724293
 20
1690.032295400836
 30
0.0
 11
2911.050948724294
 21
1690.032295400836
 31
0.0
  0
LINE
  5
21F0
330
1F
100
AcDbEntity
  8
AM_VIS
100
AcDbLine
 10
2876.450948690868
 20
1690.032295400836
 30
0.0
 11
2883.358798119516
 21
1690.032295400836
 31
0.0
  0
LINE
  5
21F1
330
1F
100
AcDbEntity
  8
AM_VIS
100
AcDbLine
 10
2893.950948690868
 20
1690.032295400836
 30
0.0
 11
2893.950948690868
 21
1709.032295400836
 31
0.0
  0
LINE
  5
21F2
330
1F
100
AcDbEntity
  8
AM_VIS
100
AcDbLine
 10
2881.950948690868
 20
1690.032295400836
 30
0.0
 11
2881.950948690868
 21
1709.032295400836
 31
0.0
  0
LINE
  5
21F3
330
1F
100
AcDbEntity
  8
AM_VIS
100
AcDbLine
 10
2987.950948690869
 20
1690.032295400836
 30
0.0
 11
2987.950948690869
 21
1709.032295400836
 31
0.0
  0
LINE
  5
21F4
330
1F
100
AcDbEntity
  8
AM_VIS
100
AcDbLine
 10
2975.950948690869
 20
1690.032295400836
 30
0.0
 11
2975.950948690869
 21
1709.032295400836
 31
0.0
  0
LINE
  5
21F5
330
1F
100
AcDbEntity
  8
AM_VIS
100
AcDbLine
 10
2874.950948690868
 20
1709.032295400836
 30
0.0
 11
2879.950948690868
 21
1709.032295400836
 31
0.0
  0
LINE
  5
21F6
330
1F
100
AcDbEntity
  8
AM_VIS
100
AcDbLine
 10
2874.950948690868
 20
1727.032295400836
 30
0.0
 11
2874.950948690868
 21
1709.032295400836
 31
0.0
  0
LINE
  5
21F7
330
1F
100
AcDbEntity
  8
AM_VIS
100
AcDbLine
 10
2879.950948690868
 20
1727.032295400836
 30
0.0
 11
2874.950948690868
 21
1727.032295400836
 31
0.0
  0
LINE
  5
21F8
330
1F
100
AcDbEntity
  8
AM_VIS
100
AcDbLine
 10
2879.950948690868
 20
1709.032295400836
 30
0.0
 11
2989.950948690868
 21
1709.032295400836
 31
0.0
  0
LINE
  5
21F9
330
1F
100
AcDbEntity
  8
AM_VIS
100
AcDbLine
 10
2879.950948690868
 20
1709.032295400836
 30
0.0
 11
2879.950948690868
 21
1727.032295400836
 31
0.0
  0
LINE
  5
21FA
330
1F
100
AcDbEntity
  8
AM_VIS
100
AcDbLine
 10
2989.950948690868
 20
1727.032295400836
 30
0.0
 11
2879.950948690868
 21
1727.032295400836
 31
0.0
  0
LINE
  5
21FB
330
1F
100
AcDbEntity
  8
AM_VIS
100
AcDbLine
 10
2994.950948690868
 20
1709.032295400836
 30
0.0
 11
2994.950948690868
 21
1727.032295400836
 31
0.0
  0
LINE
  5
21FC
330
1F
100
AcDbEntity
  8
AM_VIS
100
AcDbLine
 10
2989.950948690868
 20
1709.032295400836
 30
0.0
 11
2994.950948690868
 21
1709.032295400836
 31
0.0
  0
LINE
  5
21FD
330
1F
100
AcDbEntity
  8
AM_VIS
100
AcDbLine
 10
2989.950948690868
 20
1727.032295400836
 30
0.0
 11
2989.950948690868
 21
1709.032295400836
 31
0.0
  0
LINE
  5
21FE
330
1F
100
AcDbEntity
  8
AM_VIS
100
AcDbLine
 10
2994.950948690868
 20
1727.032295400836
 30
0.0
 11
2989.950948690868
 21
1727.032295400836
 31
0.0
  0
LINE
  5
21FF
330
1F
100
AcDbEntity
  8
AM_VIS
100
AcDbLine
 10
2948.107241528341
 20
1804.696631030473
 30
0.0
 11
2947.950948689517
 21
1803.696631020473
 31
0.0
  0
LINE
  5
2200
330
1F
100
AcDbEntity
  8
AM_VIS
100
AcDbLine
 10
2947.950948689516
 20
1803.696631020473
 30
0.0
 11
2921.950948689516
 21
1803.696631020473
 31
0.0
  0
LINE
  5
2201
330
1F
100
AcDbEntity
  8
AM_VIS
100
AcDbLine
 10
2921.950948689516
 20
1803.696631020473
 30
0.0
 11
2921.794655850692
 21
1804.696631030473
 31
0.0
  0
LINE
  5
2210
330
1F
100
AcDbEntity
  8
AM_VIS
100
AcDbLine
 10
2879.950948690868
 20
1804.696631030473
 30
0.0
 11
2874.950948690868
 21
1809.696631030473
 31
0.0
  0
LINE
  5
2211
330
1F
100
AcDbEntity
  8
AM_VIS
100
AcDbLine
 10
2874.950948690868
 20
1809.696631030473
 30
0.0
 11
2874.950948690868
 21
1927.696631030473
 31
0.0
  0
LINE
  5
2212
330
1F
100
AcDbEntity
  8
AM_VIS
100
AcDbLine
 10
2874.950948690868
 20
1927.696631030473
 30
0.0
 11
2879.950948690868
 21
1932.696631030473
 31
0.0
  0
LINE
  5
2213
330
1F
100
AcDbEntity
  8
AM_VIS
100
AcDbLine
 10
2879.950948690868
 20
1932.696631030473
 30
0.0
 11
2989.950948690868
 21
1932.696631030473
 31
0.0
  0
LINE
  5
2214
330
1F
100
AcDbEntity
  8
AM_VIS
100
AcDbLine
 10
2989.950948690868
 20
1932.696631030473
 30
0.0
 11
2994.950948690868
 21
1927.696631030473
 31
0.0
  0
LINE
  5
2215
330
1F
100
AcDbEntity
  8
AM_VIS
100
AcDbLine
 10
2994.950948690868
 20
1927.696631030473
 30
0.0
 11
2994.950948690868
 21
1809.696631030473
 31
0.0
  0
LINE
  5
2216
330
1F
100
AcDbEntity
  8
AM_VIS
100
AcDbLine
 10
2989.950948690868
 20
1804.696631030473
 30
0.0
 11
2879.950948690868
 21
1804.696631030473
 31
0.0
  0
LINE
  5
2217
330
1F
100
AcDbEntity
  8
AM_VIS
100
AcDbLine
 10
2994.950948690868
 20
1809.696631030473
 30
0.0
 11
2989.950948690868
 21
1804.696631030473
 31
0.0
  0
LINE
  5
221C
330
1F
100
AcDbEntity
  8
AM_VIS
100
AcDbLine
 10
2991.950948784293
 20
1510.00609563806
 30
0.0
 11
2991.950948784293
 21
1513.506095732676
 31
0.0
  0
LINE
  5
221D
330
1F
100
AcDbEntity
  8
AM_VIS
100
AcDbLine
 10
2990.353579984294
 20
1508.408726843217
 30
0.0
 11
2991.950948784293
 21
1510.00609563806
 31
0.0
  0
LINE
  5
221E
330
1F
100
AcDbEntity
  8
AM_VIS
100
AcDbLine
 10
2990.353579984294
 20
1502.006095757994
 30
0.0
 11
2990.353579984294
 21
1508.408726843217
 31
0.0
  0
LINE
  5
221F
330
1F
100
AcDbEntity
  8
AM_VIS
100
AcDbLine
 10
2989.353579900868
 20
1501.806095757995
 30
0.0
 11
2990.153579900868
 21
1501.806095757995
 31
0.0
  0
LINE
  5
2220
330
1F
100
AcDbEntity
  8
AM_VIS
100
AcDbLine
 10
2988.853579900869
 20
1502.256095757994
 30
0.0
 11
2989.353579900868
 21
1501.806095757994
 31
0.0
  0
LINE
  5
2221
330
1F
100
AcDbEntity
  8
AM_VIS
100
AcDbLine
 10
2986.753579900869
 20
1502.256095757994
 30
0.0
 11
2988.853579900868
 21
1502.256095757994
 31
0.0
  0
LINE
  5
2222
330
1F
100
AcDbEntity
  8
AM_VIS
100
AcDbLine
 10
2985.053579900868
 20
1499.656095757994
 30
0.0
 11
2985.053579900868
 21
1500.556095757994
 31
0.0
  0
LINE
  5
2223
330
1F
100
AcDbEntity
  8
AM_VIS
100
AcDbLine
 10
2988.853579900868
 20
1497.956095757994
 30
0.0
 11
2986.753579900869
 21
1497.956095757994
 31
0.0
  0
LINE
  5
2224
330
1F
100
AcDbEntity
  8
AM_VIS
100
AcDbLine
 10
2989.353579900868
 20
1498.406095757994
 30
0.0
 11
2988.853579900868
 21
1497.956095757994
 31
0.0
  0
LINE
  5
2225
330
1F
100
AcDbEntity
  8
AM_VIS
100
AcDbLine
 10
2990.153579900868
 20
1498.406095757994
 30
0.0
 11
2989.353579900868
 21
1498.406095757994
 31
0.0
  0
LINE
  5
2226
330
1F
100
AcDbEntity
  8
AM_VIS
100
AcDbLine
 10
2990.353579984294
 20
1486.106095673217
 30
0.0
 11
2990.353579984294
 21
1498.206095757994
 31
0.0
  0
LINE
  5
2227
330
1F
100
AcDbEntity
  8
AM_VIS
100
AcDbLine
 10
2993.450948724293
 20
1483.008726933217
 30
0.0
 11
2990.353579984294
 21
1486.106095673217
 31
0.0
  0
LINE
  5
2228
330
1F
100
AcDbEntity
  8
AM_VIS
100
AcDbLine
 10
2993.450948724293
 20
1470.513945235409
 30
0.0
 11
2993.450948724293
 21
1483.008726933217
 31
0.0
  0
LINE
  5
2229
330
1F
100
AcDbEntity
  8
AM_VIS
100
AcDbLine
 10
2974.048317509744
 20
1463.606095783313
 30
0.0
 11
2986.543099279743
 21
1463.606095783313
 31
0.0
  0
LINE
  5
222A
330
1F
100
AcDbEntity
  8
AM_VIS
100
AcDbLine
 10
2970.950948749744
 20
1466.703464543313
 30
0.0
 11
2974.048317509744
 21
1463.606095783313
 31
0.0
  0
LINE
  5
222B
330
1F
100
AcDbEntity
  8
AM_VIS
100
AcDbLine
 10
2958.850948657443
 20
1466.703464543313
 30
0.0
 11
2970.950948749744
 21
1466.703464543313
 31
0.0
  0
LINE
  5
222C
330
1F
100
AcDbEntity
  8
AM_VIS
100
AcDbLine
 10
2958.650948657443
 20
1467.703464547995
 30
0.0
 11
2958.650948657443
 21
1466.903464547995
 31
0.0
  0
LINE
  5
222D
330
1F
100
AcDbEntity
  8
AM_VIS
100
AcDbLine
 10
2959.100948657443
 20
1468.203464547995
 30
0.0
 11
2958.650948657443
 21
1467.703464547995
 31
0.0
  0
LINE
  5
222E
330
1F
100
AcDbEntity
  8
AM_VIS
100
AcDbLine
 10
2959.100948657443
 20
1470.303464547995
 30
0.0
 11
2959.100948657443
 21
1468.203464547995
 31
0.0
  0
LINE
  5
222F
330
1F
100
AcDbEntity
  8
AM_VIS
100
AcDbLine
 10
2956.500948657443
 20
1472.003464547994
 30
0.0
 11
2957.400948657443
 21
1472.003464547994
 31
0.0
  0
LINE
  5
2230
330
1F
100
AcDbEntity
  8
AM_VIS
100
AcDbLine
 10
2954.800948657443
 20
1468.203464547995
 30
0.0
 11
2954.800948657443
 21
1470.303464547995
 31
0.0
  0
LINE
  5
2231
330
1F
100
AcDbEntity
  8
AM_VIS
100
AcDbLine
 10
2955.250948657443
 20
1467.703464547994
 30
0.0
 11
2954.800948657443
 21
1468.203464547994
 31
0.0
  0
LINE
  5
2232
330
1F
100
AcDbEntity
  8
AM_VIS
100
AcDbLine
 10
2955.250948657443
 20
1466.903464547995
 30
0.0
 11
2955.250948657443
 21
1467.703464547995
 31
0.0
  0
LINE
  5
2233
330
1F
100
AcDbEntity
  8
AM_VIS
100
AcDbLine
 10
2948.648317549743
 20
1466.703464543312
 30
0.0
 11
2955.050948657443
 21
1466.703464543312
 31
0.0
  0
LINE
  5
2234
330
1F
100
AcDbEntity
  8
AM_VIS
100
AcDbLine
 10
2947.050948754586
 20
1465.106095753313
 30
0.0
 11
2948.648317549743
 21
1466.703464543313
 31
0.0
  0
LINE
  5
2235
330
1F
100
AcDbEntity
  8
AM_VIS
100
AcDbLine
 10
2943.550948690868
 20
1465.106095753312
 30
0.0
 11
2947.050948754586
 21
1465.106095753312
 31
0.0
  0
LINE
  5
2236
330
1F
100
AcDbEntity
  8
AM_VIS
100
AcDbLine
 10
2943.350948690869
 20
1466.606095784132
 30
0.0
 11
2943.350948690869
 21
1465.306095784132
 31
0.0
  0
LINE
  5
2237
330
1F
100
AcDbEntity
  8
AM_VIS
100
AcDbLine
 10
2944.850948690869
 20
1466.806095784131
 30
0.0
 11
2943.550948690868
 21
1466.806095784131
 31
0.0
  0
LINE
  5
2238
330
1F
100
AcDbEntity
  8
AM_VIS
100
AcDbLine
 10
2945.050948690868
 20
1467.906095784132
 30
0.0
 11
2945.050948690868
 21
1467.006095784132
 31
0.0
  0
LINE
  5
2239
330
1F
100
AcDbEntity
  8
AM_VIS
100
AcDbLine
 10
2936.250948690869
 20
1468.106095784132
 30
0.0
 11
2944.850948690869
 21
1468.106095784132
 31
0.0
  0
LINE
  5
223A
330
1F
100
AcDbEntity
  8
AM_VIS
100
AcDbLine
 10
2936.050948690868
 20
1465.306095784132
 30
0.0
 11
2936.050948690868
 21
1467.906095784132
 31
0.0
  0
LINE
  5
223B
330
1F
100
AcDbEntity
  8
AM_VIS
100
AcDbLine
 10
2934.05094866555
 20
1465.106095753312
 30
0.0
 11
2935.850948690868
 21
1465.106095753312
 31
0.0
  0
LINE
  5
223C
330
1F
100
AcDbEntity
  8
AM_VIS
100
AcDbLine
 10
2933.850948665551
 20
1467.906095784131
 30
0.0
 11
2933.850948665551
 21
1465.306095784132
 31
0.0
  0
LINE
  5
223D
330
1F
100
AcDbEntity
  8
AM_VIS
100
AcDbLine
 10
2925.05094866555
 20
1468.106095784131
 30
0.0
 11
2933.650948665551
 21
1468.106095784131
 31
0.0
  0
LINE
  5
223E
330
1F
100
AcDbEntity
  8
AM_VIS
100
AcDbLine
 10
2924.850948665551
 20
1467.006095784132
 30
0.0
 11
2924.850948665551
 21
1467.906095784131
 31
0.0
  0
LINE
  5
223F
330
1F
100
AcDbEntity
  8
AM_VIS
100
AcDbLine
 10
2926.350948665551
 20
1466.806095784131
 30
0.0
 11
2925.05094866555
 21
1466.806095784131
 31
0.0
  0
LINE
  5
2240
330
1F
100
AcDbEntity
  8
AM_VIS
100
AcDbLine
 10
2926.55094866555
 20
1465.306095784132
 30
0.0
 11
2926.55094866555
 21
1466.606095784131
 31
0.0
  0
LINE
  5
2241
330
1F
100
AcDbEntity
  8
AM_VIS
100
AcDbLine
 10
2922.850948744586
 20
1465.106095753312
 30
0.0
 11
2926.350948665551
 21
1465.106095753312
 31
0.0
  0
LINE
  5
2242
330
1F
100
AcDbEntity
  8
AM_VIS
100
AcDbLine
 10
2921.253579954586
 20
1466.703464543312
 30
0.0
 11
2922.850948744586
 21
1465.106095753312
 31
0.0
  0
LINE
  5
2243
330
1F
100
AcDbEntity
  8
AM_VIS
100
AcDbLine
 10
2914.850948690868
 20
1466.703464543312
 30
0.0
 11
2921.253579954586
 21
1466.703464543312
 31
0.0
  0
LINE
  5
2244
330
1F
100
AcDbEntity
  8
AM_VIS
100
AcDbLine
 10
2914.650948690868
 20
1467.703464547994
 30
0.0
 11
2914.650948690868
 21
1466.903464547995
 31
0.0
  0
LINE
  5
2245
330
1F
100
AcDbEntity
  8
AM_VIS
100
AcDbLine
 10
2915.100948690869
 20
1468.203464547994
 30
0.0
 11
2914.650948690868
 21
1467.703464547994
 31
0.0
  0
LINE
  5
2246
330
1F
100
AcDbEntity
  8
AM_VIS
100
AcDbLine
 10
2915.100948690868
 20
1470.303464547995
 30
0.0
 11
2915.100948690868
 21
1468.203464547994
 31
0.0
  0
LINE
  5
2247
330
1F
100
AcDbEntity
  8
AM_VIS
100
AcDbLine
 10
2912.500948690868
 20
1472.003464547994
 30
0.0
 11
2913.400948690868
 21
1472.003464547994
 31
0.0
  0
LINE
  5
2248
330
1F
100
AcDbEntity
  8
AM_VIS
100
AcDbLine
 10
2910.800948690868
 20
1468.203464547994
 30
0.0
 11
2910.800948690868
 21
1470.303464547995
 31
0.0
  0
LINE
  5
2249
330
1F
100
AcDbEntity
  8
AM_VIS
100
AcDbLine
 10
2911.250948690868
 20
1467.703464547994
 30
0.0
 11
2910.800948690868
 21
1468.203464547994
 31
0.0
  0
LINE
  5
224A
330
1F
100
AcDbEntity
  8
AM_VIS
100
AcDbLine
 10
2911.250948690868
 20
1466.903464547995
 30
0.0
 11
2911.250948690868
 21
1467.703464547994
 31
0.0
  0
LINE
  5
224B
330
1F
100
AcDbEntity
  8
AM_VIS
100
AcDbLine
 10
2898.950948754452
 20
1466.703464543312
 30
0.0
 11
2911.050948690868
 21
1466.703464543312
 31
0.0
  0
LINE
  5
224C
330
1F
100
AcDbEntity
  8
AM_VIS
100
AcDbLine
 10
2895.853579984451
 20
1463.606095783312
 30
0.0
 11
2898.950948754452
 21
1466.703464543312
 31
0.0
  0
LINE
  5
224D
330
1F
100
AcDbEntity
  8
AM_VIS
100
AcDbLine
 10
2883.358798099289
 20
1463.606095783312
 30
0.0
 11
2895.853579984451
 21
1463.606095783312
 31
0.0
  0
LINE
  5
224E
330
1F
100
AcDbEntity
  8
AM_VIS
100
AcDbLine
 10
2876.450948690868
 20
1483.008727274441
 30
0.0
 11
2876.450948690868
 21
1470.513945194441
 31
0.0
  0
LINE
  5
224F
330
1F
100
AcDbEntity
  8
AM_VIS
100
AcDbLine
 10
2879.548317512163
 20
1486.106096085736
 30
0.0
 11
2876.450948690868
 21
1483.008727274441
 31
0.0
  0
LINE
  5
2250
330
1F
100
AcDbEntity
  8
AM_VIS
100
AcDbLine
 10
2879.548317512163
 20
1498.20609579142
 30
0.0
 11
2879.548317512163
 21
1486.106096085736
 31
0.0
  0
LINE
  5
2251
330
1F
100
AcDbEntity
  8
AM_VIS
100
AcDbLine
 10
2880.548317480868
 20
1498.40609579142
 30
0.0
 11
2879.748317480869
 21
1498.40609579142
 31
0.0
  0
LINE
  5
2252
330
1F
100
AcDbEntity
  8
AM_VIS
100
AcDbLine
 10
2881.048317480868
 20
1497.956095791419
 30
0.0
 11
2880.548317480868
 21
1498.40609579142
 31
0.0
  0
LINE
  5
2253
330
1F
100
AcDbEntity
  8
AM_VIS
100
AcDbLine
 10
2883.148317480868
 20
1497.95609579142
 30
0.0
 11
2881.048317480868
 21
1497.95609579142
 31
0.0
  0
LINE
  5
2254
330
1F
100
AcDbEntity
  8
AM_VIS
100
AcDbLine
 10
2884.848317480869
 20
1500.556095791419
 30
0.0
 11
2884.848317480869
 21
1499.65609579142
 31
0.0
  0
LINE
  5
2255
330
1F
100
AcDbEntity
  8
AM_VIS
100
AcDbLine
 10
2881.048317480868
 20
1502.25609579142
 30
0.0
 11
2883.148317480868
 21
1502.25609579142
 31
0.0
  0
LINE
  5
2256
330
1F
100
AcDbEntity
  8
AM_VIS
100
AcDbLine
 10
2880.548317480868
 20
1501.806095791419
 30
0.0
 11
2881.048317480868
 21
1502.25609579142
 31
0.0
  0
LINE
  5
2257
330
1F
100
AcDbEntity
  8
AM_VIS
100
AcDbLine
 10
2879.748317480869
 20
1501.806095791419
 30
0.0
 11
2880.548317480868
 21
1501.806095791419
 31
0.0
  0
LINE
  5
2258
330
1F
100
AcDbEntity
  8
AM_VIS
100
AcDbLine
 10
2879.548317512163
 20
1508.408726985735
 30
0.0
 11
2879.548317512163
 21
1502.00609579142
 31
0.0
  0
LINE
  5
2259
330
1F
100
AcDbEntity
  8
AM_VIS
100
AcDbLine
 10
2877.950948717005
 20
1510.006095780893
 30
0.0
 11
2879.548317512163
 21
1508.408726985735
 31
0.0
  0
LINE
  5
225A
330
1F
100
AcDbEntity
  8
AM_VIS
100
AcDbLine
 10
2877.950948717006
 20
1513.506095757994
 30
0.0
 11
2877.950948717006
 21
1510.006095780893
 31
0.0
  0
LINE
  5
225B
330
1F
100
AcDbEntity
  8
AM_VIS
100
AcDbLine
 10
2879.450948717006
 20
1513.706095757994
 30
0.0
 11
2878.150948717006
 21
1513.706095757994
 31
0.0
  0
LINE
  5
225C
330
1F
100
AcDbEntity
  8
AM_VIS
100
AcDbLine
 10
2879.650948717005
 20
1512.206095757994
 30
0.0
 11
2879.650948717005
 21
1513.506095757994
 31
0.0
  0
LINE
  5
225D
330
1F
100
AcDbEntity
  8
AM_VIS
100
AcDbLine
 10
2880.750948717006
 20
1512.006095757994
 30
0.0
 11
2879.850948717006
 21
1512.006095757994
 31
0.0
  0
LINE
  5
225E
330
1F
100
AcDbEntity
  8
AM_VIS
100
AcDbLine
 10
2880.950948717006
 20
1520.806095757994
 30
0.0
 11
2880.950948717006
 21
1512.206095757994
 31
0.0
  0
LINE
  5
225F
330
1F
100
AcDbEntity
  8
AM_VIS
100
AcDbLine
 10
2878.150948717006
 20
1521.006095757994
 30
0.0
 11
2880.750948717006
 21
1521.006095757994
 31
0.0
  0
LINE
  5
2260
330
1F
100
AcDbEntity
  8
AM_VIS
100
AcDbLine
 10
2877.950948717006
 20
1523.006095783312
 30
0.0
 11
2877.950948717006
 21
1521.206095757994
 31
0.0
  0
LINE
  5
2261
330
1F
100
AcDbEntity
  8
AM_VIS
100
AcDbLine
 10
2880.750948717006
 20
1523.206095783312
 30
0.0
 11
2878.150948717006
 21
1523.206095783312
 31
0.0
  0
LINE
  5
2262
330
1F
100
AcDbEntity
  8
AM_VIS
100
AcDbLine
 10
2880.950948717005
 20
1532.006095783312
 30
0.0
 11
2880.950948717005
 21
1523.406095783312
 31
0.0
  0
LINE
  5
2263
330
1F
100
AcDbEntity
  8
AM_VIS
100
AcDbLine
 10
2879.850948717006
 20
1532.206095783313
 30
0.0
 11
2880.750948717006
 21
1532.206095783313
 31
0.0
  0
LINE
  5
2264
330
1F
100
AcDbEntity
  8
AM_VIS
100
AcDbLine
 10
2879.650948717005
 20
1530.706095783313
 30
0.0
 11
2879.650948717005
 21
1532.006095783312
 31
0.0
  0
LINE
  5
2265
330
1F
100
AcDbEntity
  8
AM_VIS
100
AcDbLine
 10
2878.150948717006
 20
1530.506095783312
 30
0.0
 11
2879.450948717006
 21
1530.506095783312
 31
0.0
  0
LINE
  5
2266
330
1F
100
AcDbEntity
  8
AM_VIS
100
AcDbLine
 10
2877.950948717006
 20
1534.206095780893
 30
0.0
 11
2877.950948717006
 21
1530.706095783313
 31
0.0
  0
LINE
  5
2267
330
1F
100
AcDbEntity
  8
AM_VIS
100
AcDbLine
 10
2879.548317512163
 20
1535.803464570893
 30
0.0
 11
2877.950948717006
 21
1534.206095780893
 31
0.0
  0
LINE
  5
2268
330
1F
100
AcDbEntity
  8
AM_VIS
100
AcDbLine
 10
2879.548317512163
 20
1542.206095757995
 30
0.0
 11
2879.548317512163
 21
1535.803464570893
 31
0.0
  0
LINE
  5
2269
330
1F
100
AcDbEntity
  8
AM_VIS
100
AcDbLine
 10
2880.548317480868
 20
1542.406095757994
 30
0.0
 11
2879.748317480869
 21
1542.406095757994
 31
0.0
  0
LINE
  5
226A
330
1F
100
AcDbEntity
  8
AM_VIS
100
AcDbLine
 10
2881.048317480868
 20
1541.956095757994
 30
0.0
 11
2880.548317480868
 21
1542.406095757994
 31
0.0
  0
LINE
  5
226B
330
1F
100
AcDbEntity
  8
AM_VIS
100
AcDbLine
 10
2883.148317480868
 20
1541.956095757995
 30
0.0
 11
2881.048317480868
 21
1541.956095757995
 31
0.0
  0
LINE
  5
226C
330
1F
100
AcDbEntity
  8
AM_VIS
100
AcDbLine
 10
2884.848317480869
 20
1544.556095757995
 30
0.0
 11
2884.848317480869
 21
1543.656095757994
 31
0.0
  0
LINE
  5
226D
330
1F
100
AcDbEntity
  8
AM_VIS
100
AcDbLine
 10
2881.048317480868
 20
1546.256095757995
 30
0.0
 11
2883.148317480868
 21
1546.256095757995
 31
0.0
  0
LINE
  5
226E
330
1F
100
AcDbEntity
  8
AM_VIS
100
AcDbLine
 10
2880.548317480868
 20
1545.806095757995
 30
0.0
 11
2881.048317480868
 21
1546.256095757995
 31
0.0
  0
LINE
  5
226F
330
1F
100
AcDbEntity
  8
AM_VIS
100
AcDbLine
 10
2879.748317480869
 20
1545.806095757995
 30
0.0
 11
2880.548317480868
 21
1545.806095757995
 31
0.0
  0
LINE
  5
2270
330
1F
100
AcDbEntity
  8
AM_VIS
100
AcDbLine
 10
2879.548317512163
 20
1558.106095780893
 30
0.0
 11
2879.548317512163
 21
1546.006095757995
 31
0.0
  0
LINE
  5
2271
330
1F
100
AcDbEntity
  8
AM_VIS
100
AcDbLine
 10
2876.450948690868
 20
1561.203464602187
 30
0.0
 11
2879.548317512163
 21
1558.106095780893
 31
0.0
  0
LINE
  5
2272
330
1F
100
AcDbEntity
  8
AM_VIS
100
AcDbLine
 10
2876.450948690868
 20
1573.698246329027
 30
0.0
 11
2876.450948690868
 21
1561.203464602187
 31
0.0
  0
LINE
  5
2273
330
1F
100
AcDbEntity
  8
AM_VIS
100
AcDbLine
 10
2895.853579899517
 20
1580.606095757994
 30
0.0
 11
2883.358798119516
 21
1580.606095757994
 31
0.0
  0
LINE
  5
2274
330
1F
100
AcDbEntity
  8
AM_VIS
100
AcDbLine
 10
2898.950948689521
 20
1577.508726967991
 30
0.0
 11
2895.853579899517
 21
1580.606095757994
 31
0.0
  0
LINE
  5
2275
330
1F
100
AcDbEntity
  8
AM_VIS
100
AcDbLine
 10
2911.050948724294
 20
1577.508726967994
 30
0.0
 11
2898.950948689524
 21
1577.508726967994
 31
0.0
  0
LINE
  5
2276
330
1F
100
AcDbEntity
  8
AM_VIS
100
AcDbLine
 10
2911.250948724293
 20
1576.508726967994
 30
0.0
 11
2911.250948724293
 21
1577.308726967994
 31
0.0
  0
LINE
  5
2277
330
1F
100
AcDbEntity
  8
AM_VIS
100
AcDbLine
 10
2910.800948724294
 20
1576.008726967994
 30
0.0
 11
2911.250948724293
 21
1576.508726967994
 31
0.0
  0
LINE
  5
2278
330
1F
100
AcDbEntity
  8
AM_VIS
100
AcDbLine
 10
2910.800948724294
 20
1573.908726967994
 30
0.0
 11
2910.800948724294
 21
1576.008726967994
 31
0.0
  0
LINE
  5
2279
330
1F
100
AcDbEntity
  8
AM_VIS
100
AcDbLine
 10
2913.400948724294
 20
1572.208726967994
 30
0.0
 11
2912.500948724293
 21
1572.208726967994
 31
0.0
  0
LINE
  5
227A
330
1F
100
AcDbEntity
  8
AM_VIS
100
AcDbLine
 10
2915.100948724294
 20
1576.008726967994
 30
0.0
 11
2915.100948724294
 21
1573.908726967994
 31
0.0
  0
LINE
  5
227B
330
1F
100
AcDbEntity
  8
AM_VIS
100
AcDbLine
 10
2914.650948724294
 20
1576.508726967994
 30
0.0
 11
2915.100948724294
 21
1576.008726967994
 31
0.0
  0
LINE
  5
227C
330
1F
100
AcDbEntity
  8
AM_VIS
100
AcDbLine
 10
2914.650948724293
 20
1577.308726967994
 30
0.0
 11
2914.650948724293
 21
1576.508726967994
 31
0.0
  0
LINE
  5
227D
330
1F
100
AcDbEntity
  8
AM_VIS
100
AcDbLine
 10
2920.450948689516
 20
1577.508726967994
 30
0.0
 11
2914.850948724294
 21
1577.508726967994
 31
0.0
  0
LINE
  5
227E
330
1F
100
AcDbEntity
  8
AM_VIS
100
AcDbLine
 10
2921.950948689516
 20
1587.106095767994
 30
0.0
 11
2920.450948689516
 21
1577.508726967994
 31
0.0
  0
LINE
  5
227F
330
1F
100
AcDbEntity
  8
AM_VIS
100
AcDbLine
 10
2949.450948689516
 20
1577.508726967994
 30
0.0
 11
2947.950948689517
 21
1587.106095767994
 31
0.0
  0
LINE
  5
2280
330
1F
100
AcDbEntity
  8
AM_VIS
100
AcDbLine
 10
2955.050948690869
 20
1577.508726967994
 30
0.0
 11
2949.450948689517
 21
1577.508726967994
 31
0.0
  0
LINE
  5
2281
330
1F
100
AcDbEntity
  8
AM_VIS
100
AcDbLine
 10
2955.250948690868
 20
1576.508726967994
 30
0.0
 11
2955.250948690868
 21
1577.308726967994
 31
0.0
  0
LINE
  5
2282
330
1F
100
AcDbEntity
  8
AM_VIS
100
AcDbLine
 10
2954.800948690868
 20
1576.008726967995
 30
0.0
 11
2955.250948690869
 21
1576.508726967994
 31
0.0
  0
LINE
  5
2283
330
1F
100
AcDbEntity
  8
AM_VIS
100
AcDbLine
 10
2954.800948690868
 20
1573.908726967994
 30
0.0
 11
2954.800948690868
 21
1576.008726967995
 31
0.0
  0
LINE
  5
2284
330
1F
100
AcDbEntity
  8
AM_VIS
100
AcDbLine
 10
2957.400948690869
 20
1572.208726967994
 30
0.0
 11
2956.500948690869
 21
1572.208726967994
 31
0.0
  0
LINE
  5
2285
330
1F
100
AcDbEntity
  8
AM_VIS
100
AcDbLine
 10
2959.100948690869
 20
1576.008726967994
 30
0.0
 11
2959.100948690869
 21
1573.908726967994
 31
0.0
  0
LINE
  5
2286
330
1F
100
AcDbEntity
  8
AM_VIS
100
AcDbLine
 10
2958.650948690868
 20
1576.508726967994
 30
0.0
 11
2959.100948690869
 21
1576.008726967994
 31
0.0
  0
LINE
  5
2287
330
1F
100
AcDbEntity
  8
AM_VIS
100
AcDbLine
 10
2958.650948690868
 20
1577.308726967994
 30
0.0
 11
2958.650948690868
 21
1576.508726967994
 31
0.0
  0
LINE
  5
2288
330
1F
100
AcDbEntity
  8
AM_VIS
100
AcDbLine
 10
2970.950948689516
 20
1577.508726967994
 30
0.0
 11
2958.850948690869
 21
1577.508726967994
 31
0.0
  0
LINE
  5
2289
330
1F
100
AcDbEntity
  8
AM_VIS
100
AcDbLine
 10
2974.048317489516
 20
1580.606095757994
 30
0.0
 11
2970.950948689516
 21
1577.508726967994
 31
0.0
  0
LINE
  5
228A
330
1F
100
AcDbEntity
  8
AM_VIS
100
AcDbLine
 10
2986.543099259516
 20
1580.606095757994
 30
0.0
 11
2974.048317489516
 21
1580.606095757994
 31
0.0
  0
LINE
  5
228B
330
1F
100
AcDbEntity
  8
AM_VIS
100
AcDbLine
 10
2993.450948724293
 20
1561.20346420806
 30
0.0
 11
2993.450948724293
 21
1573.69824628806
 31
0.0
  0
LINE
  5
228C
330
1F
100
AcDbEntity
  8
AM_VIS
100
AcDbLine
 10
2990.353579984294
 20
1558.10609547806
 30
0.0
 11
2993.450948724293
 21
1561.20346420806
 31
0.0
  0
LINE
  5
228D
330
1F
100
AcDbEntity
  8
AM_VIS
100
AcDbLine
 10
2990.353579984294
 20
1546.006095724569
 30
0.0
 11
2990.353579984294
 21
1558.10609547806
 31
0.0
  0
LINE
  5
228E
330
1F
100
AcDbEntity
  8
AM_VIS
100
AcDbLine
 10
2989.353579900868
 20
1545.806095724569
 30
0.0
 11
2990.153579900868
 21
1545.806095724569
 31
0.0
  0
LINE
  5
228F
330
1F
100
AcDbEntity
  8
AM_VIS
100
AcDbLine
 10
2988.853579900868
 20
1546.256095724569
 30
0.0
 11
2989.353579900868
 21
1545.806095724569
 31
0.0
  0
LINE
  5
2290
330
1F
100
AcDbEntity
  8
AM_VIS
100
AcDbLine
 10
2986.753579900869
 20
1546.256095724569
 30
0.0
 11
2988.853579900868
 21
1546.256095724569
 31
0.0
  0
LINE
  5
2291
330
1F
100
AcDbEntity
  8
AM_VIS
100
AcDbLine
 10
2985.053579900868
 20
1543.656095724569
 30
0.0
 11
2985.053579900868
 21
1544.556095724569
 31
0.0
  0
LINE
  5
2292
330
1F
100
AcDbEntity
  8
AM_VIS
100
AcDbLine
 10
2988.853579900868
 20
1541.956095724569
 30
0.0
 11
2986.753579900869
 21
1541.956095724569
 31
0.0
  0
LINE
  5
2293
330
1F
100
AcDbEntity
  8
AM_VIS
100
AcDbLine
 10
2989.353579900868
 20
1542.40609572457
 30
0.0
 11
2988.853579900868
 21
1541.956095724569
 31
0.0
  0
LINE
  5
2294
330
1F
100
AcDbEntity
  8
AM_VIS
100
AcDbLine
 10
2990.153579900868
 20
1542.40609572457
 30
0.0
 11
2989.353579900868
 21
1542.40609572457
 31
0.0
  0
LINE
  5
2295
330
1F
100
AcDbEntity
  8
AM_VIS
100
AcDbLine
 10
2990.353579984294
 20
1535.80346445806
 30
0.0
 11
2990.353579984294
 21
1542.206095724569
 31
0.0
  0
LINE
  5
2296
330
1F
100
AcDbEntity
  8
AM_VIS
100
AcDbLine
 10
2991.950948784293
 20
1534.20609565806
 30
0.0
 11
2990.353579984294
 21
1535.80346445806
 31
0.0
  0
LINE
  5
2297
330
1F
100
AcDbEntity
  8
AM_VIS
100
AcDbLine
 10
2991.950948784293
 20
1530.706095757994
 30
0.0
 11
2991.950948784293
 21
1534.20609565806
 31
0.0
  0
LINE
  5
2298
330
1F
100
AcDbEntity
  8
AM_VIS
100
AcDbLine
 10
2990.450948664732
 20
1530.506095757995
 30
0.0
 11
2991.75094866473
 21
1530.506095757995
 31
0.0
  0
LINE
  5
2299
330
1F
100
AcDbEntity
  8
AM_VIS
100
AcDbLine
 10
2990.250948664732
 20
1532.006095757995
 30
0.0
 11
2990.250948664732
 21
1530.706095757994
 31
0.0
  0
LINE
  5
229A
330
1F
100
AcDbEntity
  8
AM_VIS
100
AcDbLine
 10
2989.150948664731
 20
1532.206095757995
 30
0.0
 11
2990.050948664731
 21
1532.206095757995
 31
0.0
  0
LINE
  5
229B
330
1F
100
AcDbEntity
  8
AM_VIS
100
AcDbLine
 10
2988.950948664732
 20
1523.406095757994
 30
0.0
 11
2988.950948664732
 21
1532.006095757995
 31
0.0
  0
LINE
  5
229C
330
1F
100
AcDbEntity
  8
AM_VIS
100
AcDbLine
 10
2991.75094866473
 20
1523.206095757994
 30
0.0
 11
2989.150948664731
 21
1523.206095757994
 31
0.0
  0
LINE
  5
229D
330
1F
100
AcDbEntity
  8
AM_VIS
100
AcDbLine
 10
2991.950948784293
 20
1521.206095732676
 30
0.0
 11
2991.950948784293
 21
1523.006095757994
 31
0.0
  0
LINE
  5
229E
330
1F
100
AcDbEntity
  8
AM_VIS
100
AcDbLine
 10
2989.150948664731
 20
1521.006095732676
 30
0.0
 11
2991.75094866473
 21
1521.006095732676
 31
0.0
  0
LINE
  5
229F
330
1F
100
AcDbEntity
  8
AM_VIS
100
AcDbLine
 10
2988.950948664732
 20
1512.206095732677
 30
0.0
 11
2988.950948664732
 21
1520.806095732676
 31
0.0
  0
LINE
  5
22A0
330
1F
100
AcDbEntity
  8
AM_VIS
100
AcDbLine
 10
2990.050948664731
 20
1512.006095732676
 30
0.0
 11
2989.150948664731
 21
1512.006095732676
 31
0.0
  0
LINE
  5
22A1
330
1F
100
AcDbEntity
  8
AM_VIS
100
AcDbLine
 10
2990.250948664732
 20
1513.506095732676
 30
0.0
 11
2990.250948664732
 21
1512.206095732677
 31
0.0
  0
LINE
  5
22A2
330
1F
100
AcDbEntity
  8
AM_VIS
100
AcDbLine
 10
2991.75094866473
 20
1513.706095732677
 30
0.0
 11
2990.450948664732
 21
1513.706095732677
 31
0.0
  0
LINE
  5
22A3
330
1F
100
AcDbEntity
  8
AM_VIS
100
AcDbLine
 10
2947.950948689516
 20
1587.106095767994
 30
0.0
 11
2921.950948689516
 21
1587.106095767994
 31
0.0
  0
ARC
  5
22A4
330
1F
100
AcDbEntity
  8
AM_VIS
100
AcDbCircle
 10
2990.153579900868
 20
1502.006095757994
 30
0.0
 40
0.2
100
AcDbArc
 50
270.0
 51
0.0
  0
ARC
  5
22A5
330
1F
100
AcDbEntity
  8
AM_VIS
100
AcDbCircle
 10
2986.753579900869
 20
1500.556095757994
 30
0.0
 40
1.7
100
AcDbArc
 50
90.0
 51
180.0
  0
ARC
  5
22A8
330
1F
100
AcDbEntity
  8
AM_4
100
AcDbCircle
 10
2934.950948689516
 20
1668.032295400836
 30
0.0
 40
6.575
100
AcDbArc
 50
259.9999999999961
 51
190.0000000000039
  0
ARC
  5
22A9
330
1F
100
AcDbEntity
  8
AM_4
100
AcDbCircle
 10
2934.950948689516
 20
1645.532295400836
 30
0.0
 40
6.575
100
AcDbArc
 50
259.9999999999961
 51
190.0000000000039
  0
LINE
  5
22AE
330
1F
100
AcDbEntity
  8
AM_7
100
AcDbLine
 10
2887.950948690868
 20
1712.032295400836
 30
0.0
 11
2887.950948690868
 21
1687.032295400836
 31
0.0
1001
GENIUS_GENODEF_13
1002
{
1000
HIER
1070
     0
1002
}
1002
{
1000
MANEDIT
1070
     0
1002
}
1002
{
1000
NOSEL
1070
     0
1002
}
1002
{
1000
BEHIND
1070
     0
1002
}
1002
{
1000
OTHER
1070
     0
1002
}
1002
{
1000
REACTOR
1002
}
1001
GENIUS_GENOBJ-N-CEN_13
1002
{
1000
OWNER
1000
GEN
1002
}
1001
GENIUS_GENCEN_19
1002
{
1040
3.0
1002
}
  0
LINE
  5
22BC
330
1F
100
AcDbEntity
  8
AM_7
100
AcDbLine
 10
2981.950948690868
 20
1711.032295400836
 30
0.0
 11
2981.950948690868
 21
1688.032295400836
 31
0.0
1001
GENIUS_GENOBJ-N-CEN_13
1002
{
1000
OWNER
1000
GEN
1002
}
1001
GENIUS_GENODEF_13
1002
{
1000
HIER
1070
     0
1002
}
1002
{
1000
MANEDIT
1070
     0
1002
}
1002
{
1000
NOSEL
1070
     0
1002
}
1002
{
1000
BEHIND
1070
     0
1002
}
1002
{
1000
OTHER
1070
     0
1002
}
1002
{
1000
REACTOR
1002
}
1001
GENIUS_GENCEN_19
1002
{
1040
2.0
1002
}
  0
LINE
  5
22C9
330
1F
100
AcDbEntity
  8
AM_7
100
AcDbLine
 10
3110.499011647562
 20
1711.032295400836
 30
0.0
 11
3110.499011647562
 21
1688.032295400836
 31
0.0
1001
GENIUS_GENODEF_13
1002
{
1000
HIER
1070
     0
1002
}
1002
{
1000
MANEDIT
1070
     0
1002
}
1002
{
1000
NOSEL
1070
     0
1002
}
1002
{
1000
BEHIND
1070
     0
1002
}
1002
{
1000
OTHER
1070
     0
1002
}
1002
{
1000
REACTOR
1002
}
1001
GENIUS_GENOBJ-N-CEN_13
1002
{
1000
OWNER
1000
GEN
1002
}
1001
GENIUS_GENCEN_19
1002
{
1040
2.0
1002
}
  0
LINE
  5
22D6
330
1F
100
AcDbEntity
  8
AM_7
100
AcDbLine
 10
3204.499011647562
 20
1711.032295400836
 30
0.0
 11
3204.499011647562
 21
1688.032295400836
 31
0.0
1001
GENIUS_GENOBJ-N-CEN_13
1002
{
1000
OWNER
1000
GEN
1002
}
1001
GENIUS_GENODEF_13
1002
{
1000
HIER
1070
     0
1002
}
1002
{
1000
MANEDIT
1070
     0
1002
}
1002
{
1000
NOSEL
1070
     0
1002
}
1002
{
1000
BEHIND
1070
     0
1002
}
1002
{
1000
OTHER
1070
     0
1002
}
1002
{
1000
REACTOR
1002
}
1001
GENIUS_GENCEN_19
1002
{
1040
2.0
1002
}
  0
ARC
  5
22DB
330
1F
100
AcDbEntity
  8
AM_4
100
AcDbCircle
 10
2934.950948690869
 20
1820.696631030473
 30
0.0
 40
6.0
100
AcDbArc
 50
260.0
 51
170.0
  0
CIRCLE
  5
22DC
330
1F
100
AcDbEntity
  8
AM_0
100
AcDbCircle
 10
2934.950948690869
 20
1820.696631030473
 30
0.0
 40
5.05278471461085
  0
LINE
  5
22DD
330
1F
100
AcDbEntity
  8
AM_7
  6
AM_ISO08W050x2
100
AcDbLine
 10
2926.950948690868
 20
1820.696631030473
 30
0.0
 11
2942.950948690868
 21
1820.696631030473
 31
0.0
  0
LINE
  5
22DE
330
1F
100
AcDbEntity
  8
AM_7
  6
AM_ISO08W050x2
100
AcDbLine
 10
2934.950948690869
 20
1812.696631030473
 30
0.0
 11
2934.950948690869
 21
1828.696631030473
 31
0.0
  0
ARC
  5
22DF
330
1F
100
AcDbEntity
  8
AM_4
100
AcDbCircle
 10
2888.950948690868
 20
1868.696631030473
 30
0.0
 40
6.0
100
AcDbArc
 50
260.0
 51
170.0
  0
CIRCLE
  5
22E0
330
1F
100
AcDbEntity
  8
AM_0
100
AcDbCircle
 10
2888.950948690868
 20
1868.696631030473
 30
0.0
 40
5.05278471461085
  0
LINE
  5
22E1
330
1F
100
AcDbEntity
  8
AM_7
  6
AM_ISO08W050x2
100
AcDbLine
 10
2880.950948690868
 20
1868.696631030473
 30
0.0
 11
2896.950948690868
 21
1868.696631030473
 31
0.0
  0
LINE
  5
22E2
330
1F
100
AcDbEntity
  8
AM_7
  6
AM_ISO08W050x2
100
AcDbLine
 10
2888.950948690868
 20
1860.696631030473
 30
0.0
 11
2888.950948690868
 21
1876.696631030473
 31
0.0
  0
ARC
  5
22E3
330
1F
100
AcDbEntity
  8
AM_4
100
AcDbCircle
 10
2980.950948690868
 20
1868.696631030473
 30
0.0
 40
6.0
100
AcDbArc
 50
260.0
 51
170.0
  0
CIRCLE
  5
22E4
330
1F
100
AcDbEntity
  8
AM_0
100
AcDbCircle
 10
2980.950948690868
 20
1868.696631030473
 30
0.0
 40
5.05278471461085
  0
LINE
  5
22E5
330
1F
100
AcDbEntity
  8
AM_7
  6
AM_ISO08W050x2
100
AcDbLine
 10
2972.950948690868
 20
1868.696631030473
 30
0.0
 11
2988.950948690868
 21
1868.696631030473
 31
0.0
  0
LINE
  5
22E6
330
1F
100
AcDbEntity
  8
AM_7
  6
AM_ISO08W050x2
100
AcDbLine
 10
2980.950948690868
 20
1860.696631030473
 30
0.0
 11
2980.950948690868
 21
1876.696631030473
 31
0.0
  0
ARC
  5
22E7
330
1F
100
AcDbEntity
  8
AM_4
100
AcDbCircle
 10
2934.950948690869
 20
1916.696631030473
 30
0.0
 40
6.0
100
AcDbArc
 50
260.0
 51
170.0
  0
CIRCLE
  5
22E8
330
1F
100
AcDbEntity
  8
AM_0
100
AcDbCircle
 10
2934.950948690869
 20
1916.696631030473
 30
0.0
 40
5.05278471461085
  0
LINE
  5
22E9
330
1F
100
AcDbEntity
  8
AM_7
  6
AM_ISO08W050x2
100
AcDbLine
 10
2926.950948690868
 20
1916.696631030473
 30
0.0
 11
2942.950948690868
 21
1916.696631030473
 31
0.0
  0
LINE
  5
22EA
330
1F
100
AcDbEntity
  8
AM_7
  6
AM_ISO08W050x2
100
AcDbLine
 10
2934.950948690869
 20
1908.696631030473
 30
0.0
 11
2934.950948690869
 21
1924.696631030473
 31
0.0
  0
LINE
  5
2311
330
1F
100
AcDbEntity
  8
AM_7
100
AcDbLine
 10
2934.950948690869
 20
1868.696631030473
 30
0.0
 11
3000.950948690868
 21
1868.696631030473
 31
0.0
1001
GENIUS_GENOREF_13
1005
2315
  0
LINE
  5
2312
330
1F
100
AcDbEntity
  8
AM_7
100
AcDbLine
 10
2934.950948690869
 20
1868.696631030473
 30
0.0
 11
2934.950948690869
 21
1934.696631030473
 31
0.0
1001
GENIUS_GENOREF_13
1005
2315
  0
LINE
  5
2313
330
1F
100
AcDbEntity
  8
AM_7
100
AcDbLine
 10
2934.950948690869
 20
1868.696631030473
 30
0.0
 11
2868.950948690868
 21
1868.696631030473
 31
0.0
1001
GENIUS_GENOREF_13
1005
2315
  0
LINE
  5
2314
330
1F
100
AcDbEntity
  8
AM_7
100
AcDbLine
 10
2934.950948690869
 20
1868.696631030473
 30
0.0
 11
2934.950948690869
 21
1802.696631030473
 31
0.0
1001
GENIUS_GENOREF_13
1005
2315
  0
POINT
  5
2315
330
1F
100
AcDbEntity
  8
0
 60
     1
100
AcDbPoint
 10
0.0
 20
0.0
 30
0.0
1001
GENIUS_GENOENT_13
1002
{
1000
MYREF
1005
2315
1002
}
1002
{
1000
GRP
1005
0
1002
}
1001
GENIUS_GENOBJ-N-CRS_13
1002
{
1000
OWNER
1000
GEN
1002
}
1001
GENIUS_GENODEF_13
1002
{
1000
HIER
1070
    10
1002
}
1002
{
1000
MANEDIT
1070
     0
1002
}
1002
{
1000
NOSEL
1070
     0
1002
}
1002
{
1000
BEHIND
1070
     0
1002
}
1002
{
1000
OTHER
1070
     0
1002
}
1002
{
1000
REACTOR
1002
}
1001
GENIUS_GENOLIS_13
1002
{
1000
ENT
1005
2314
1005
2313
1005
2312
1005
2311
1002
}
  0
LINE
  5
2323
330
1F
100
AcDbEntity
  8
AM_7
  6
AM_ISO08W050x2
100
AcDbLine
 10
2934.950948689516
 20
1668.032295400836
 30
0.0
 11
2942.670948689516
 21
1668.032295400836
 31
0.0
1001
GENIUS_GENOREF_13
1005
2327
  0
LINE
  5
2324
330
1F
100
AcDbEntity
  8
AM_7
  6
AM_ISO08W050x2
100
AcDbLine
 10
2934.950948689516
 20
1668.032295400836
 30
0.0
 11
2934.950948689516
 21
1675.752295400836
 31
0.0
1001
GENIUS_GENOREF_13
1005
2327
  0
LINE
  5
2325
330
1F
100
AcDbEntity
  8
AM_7
  6
AM_ISO08W050x2
100
AcDbLine
 10
2934.950948689516
 20
1668.032295400836
 30
0.0
 11
2927.230948689516
 21
1668.032295400836
 31
0.0
1001
GENIUS_GENOREF_13
1005
2327
  0
LINE
  5
2326
330
1F
100
AcDbEntity
  8
AM_7
  6
AM_ISO08W050x2
100
AcDbLine
 10
2934.950948689516
 20
1668.032295400836
 30
0.0
 11
2934.950948689516
 21
1660.312295400836
 31
0.0
1001
GENIUS_GENOREF_13
1005
2327
  0
POINT
  5
2327
330
1F
100
AcDbEntity
  8
0
 60
     1
100
AcDbPoint
 10
0.0
 20
0.0
 30
0.0
1001
GENIUS_GENOENT_13
1002
{
1000
MYREF
1005
2327
1002
}
1002
{
1000
GRP
1005
0
1002
}
1001
GENIUS_GENOBJ-N-CRS_13
1002
{
1000
OWNER
1000
GEN
1002
}
1001
GENIUS_GENODEF_13
1002
{
1000
HIER
1070
    10
1002
}
1002
{
1000
MANEDIT
1070
     0
1002
}
1002
{
1000
NOSEL
1070
     0
1002
}
1002
{
1000
BEHIND
1070
     0
1002
}
1002
{
1000
OTHER
1070
     0
1002
}
1002
{
1000
REACTOR
1002
}
1001
GENIUS_GENOLIS_13
1002
{
1000
ENT
1005
2326
1005
2325
1005
2324
1005
2323
1002
}
  0
LINE
  5
2335
330
1F
100
AcDbEntity
  8
AM_7
  6
AM_ISO08W050x2
100
AcDbLine
 10
2934.950948689516
 20
1645.532295400836
 30
0.0
 11
2942.670948689516
 21
1645.532295400836
 31
0.0
1001
GENIUS_GENOREF_13
1005
2339
  0
LINE
  5
2336
330
1F
100
AcDbEntity
  8
AM_7
  6
AM_ISO08W050x2
100
AcDbLine
 10
2934.950948689516
 20
1645.532295400836
 30
0.0
 11
2934.950948689516
 21
1653.252295400836
 31
0.0
1001
GENIUS_GENOREF_13
1005
2339
  0
LINE
  5
2337
330
1F
100
AcDbEntity
  8
AM_7
  6
AM_ISO08W050x2
100
AcDbLine
 10
2934.950948689516
 20
1645.532295400836
 30
0.0
 11
2927.230948689516
 21
1645.532295400836
 31
0.0
1001
GENIUS_GENOREF_13
1005
2339
  0
LINE
  5
2338
330
1F
100
AcDbEntity
  8
AM_7
  6
AM_ISO08W050x2
100
AcDbLine
 10
2934.950948689516
 20
1645.532295400836
 30
0.0
 11
2934.950948689516
 21
1637.812295400836
 31
0.0
1001
GENIUS_GENOREF_13
1005
2339
  0
POINT
  5
2339
330
1F
100
AcDbEntity
  8
0
 60
     1
100
AcDbPoint
 10
0.0
 20
0.0
 30
0.0
1001
GENIUS_GENODEF_13
1002
{
1000
HIER
1070
    10
1002
}
1002
{
1000
MANEDIT
1070
     0
1002
}
1002
{
1000
NOSEL
1070
     0
1002
}
1002
{
1000
BEHIND
1070
     0
1002
}
1002
{
1000
OTHER
1070
     0
1002
}
1002
{
1000
REACTOR
1002
}
1001
GENIUS_GENOENT_13
1002
{
1000
MYREF
1005
2339
1002
}
1002
{
1000
GRP
1005
0
1002
}
1001
GENIUS_GENOBJ-N-CRS_13
1002
{
1000
OWNER
1000
GEN
1002
}
1001
GENIUS_GENOLIS_13
1002
{
1000
ENT
1005
2338
1005
2337
1005
2336
1005
2335
1002
}
  0
CIRCLE
  5
234E
330
1F
100
AcDbEntity
  8
0
100
AcDbCircle
 10
2981.950948690868
 20
1569.106095757994
 30
0.0
 40
6.5
  0
CIRCLE
  5
2359
330
1F
100
AcDbEntity
  8
0
100
AcDbCircle
 10
2887.950948690868
 20
1475.106095757994
 30
0.0
 40
6.5
  0
CIRCLE
  5
235A
330
1F
100
AcDbEntity
  8
0
100
AcDbCircle
 10
2887.950948690868
 20
1569.106095757994
 30
0.0
 40
5.5
  0
ARC
  5
235B
330
1F
100
AcDbEntity
  8
AM_4
100
AcDbCircle
 10
2887.950948690868
 20
1569.106095757994
 30
0.0
 40
6.0
100
AcDbArc
 50
280.0
 51
190.0
  0
LINE
  5
2369
330
1F
100
AcDbEntity
  8
AM_7
100
AcDbLine
 10
2887.950948690868
 20
1569.106095757994
 30
0.0
 11
2898.700948690868
 21
1569.106095757994
 31
0.0
1001
GENIUS_GENOREF_13
1005
236D
  0
LINE
  5
236A
330
1F
100
AcDbEntity
  8
AM_7
100
AcDbLine
 10
2887.950948690868
 20
1569.106095757994
 30
0.0
 11
2887.950948690868
 21
1579.856095757994
 31
0.0
1001
GENIUS_GENOREF_13
1005
236D
  0
LINE
  5
236B
330
1F
100
AcDbEntity
  8
AM_7
100
AcDbLine
 10
2887.950948690868
 20
1569.106095757994
 30
0.0
 11
2877.200948690868
 21
1569.106095757994
 31
0.0
1001
GENIUS_GENOREF_13
1005
236D
  0
LINE
  5
236C
330
1F
100
AcDbEntity
  8
AM_7
100
AcDbLine
 10
2887.950948690868
 20
1569.106095757994
 30
0.0
 11
2887.950948690868
 21
1558.356095757994
 31
0.0
1001
GENIUS_GENOREF_13
1005
236D
  0
POINT
  5
236D
330
1F
100
AcDbEntity
  8
0
 60
     1
100
AcDbPoint
 10
0.0
 20
0.0
 30
0.0
1001
GENIUS_GENOLIS_13
1002
{
1000
ENT
1005
236C
1005
236B
1005
236A
1005
2369
1002
}
1001
GENIUS_GENOENT_13
1002
{
1000
MYREF
1005
236D
1002
}
1002
{
1000
GRP
1005
0
1002
}
1001
GENIUS_GENOBJ-N-CRS_13
1002
{
1000
OWNER
1000
GEN
1002
}
1001
GENIUS_GENODEF_13
1002
{
1000
HIER
1070
    10
1002
}
1002
{
1000
MANEDIT
1070
     0
1002
}
1002
{
1000
NOSEL
1070
     0
1002
}
1002
{
1000
BEHIND
1070
     0
1002
}
1002
{
1000
OTHER
1070
     0
1002
}
1002
{
1000
REACTOR
1002
}
  0
CIRCLE
  5
236E
330
1F
100
AcDbEntity
  8
0
100
AcDbCircle
 10
2981.950948690868
 20
1475.106095757994
 30
0.0
 40
5.5
  0
ARC
  5
236F
330
1F
100
AcDbEntity
  8
AM_4
100
AcDbCircle
 10
2981.950948690868
 20
1475.106095757994
 30
0.0
 40
6.0
100
AcDbArc
 50
280.0
 51
190.0
  0
LINE
  5
2370
330
1F
100
AcDbEntity
  8
AM_7
100
AcDbLine
 10
2981.950948690868
 20
1475.106095757994
 30
0.0
 11
2992.700948690869
 21
1475.106095757994
 31
0.0
1001
GENIUS_GENOREF_13
1005
2374
  0
LINE
  5
2371
330
1F
100
AcDbEntity
  8
AM_7
100
AcDbLine
 10
2981.950948690868
 20
1475.106095757994
 30
0.0
 11
2981.950948690868
 21
1485.856095757994
 31
0.0
1001
GENIUS_GENOREF_13
1005
2374
  0
LINE
  5
2372
330
1F
100
AcDbEntity
  8
AM_7
100
AcDbLine
 10
2981.950948690868
 20
1475.106095757994
 30
0.0
 11
2971.200948690869
 21
1475.106095757994
 31
0.0
1001
GENIUS_GENOREF_13
1005
2374
  0
LINE
  5
2373
330
1F
100
AcDbEntity
  8
AM_7
100
AcDbLine
 10
2981.950948690868
 20
1475.106095757994
 30
0.0
 11
2981.950948690868
 21
1464.356095757995
 31
0.0
1001
GENIUS_GENOREF_13
1005
2374
  0
POINT
  5
2374
330
1F
100
AcDbEntity
  8
0
 60
     1
100
AcDbPoint
 10
94.0
 20
-94.0
 30
0.0
1001
GENIUS_GENOLIS_13
1002
{
1000
ENT
1005
2373
1005
2372
1005
2371
1005
2370
1002
}
1001
GENIUS_GENOENT_13
1002
{
1000
MYREF
1005
2374
1002
}
1002
{
1000
GRP
1005
0
1002
}
1001
GENIUS_GENOBJ-N-CRS_13
1002
{
1000
OWNER
1000
GEN
1002
}
1001
GENIUS_GENODEF_13
1002
{
1000
HIER
1070
    10
1002
}
1002
{
1000
MANEDIT
1070
     0
1002
}
1002
{
1000
NOSEL
1070
     0
1002
}
1002
{
1000
BEHIND
1070
     0
1002
}
1002
{
1000
OTHER
1070
     0
1002
}
1002
{
1000
REACTOR
1002
}
  0
LINE
  5
2382
330
1F
100
AcDbEntity
  8
AM_7
100
AcDbLine
 10
2981.950948690868
 20
1569.106095757994
 30
0.0
 11
2990.450948690869
 21
1569.106095757994
 31
0.0
1001
GENIUS_GENOREF_13
1005
2386
  0
LINE
  5
2383
330
1F
100
AcDbEntity
  8
AM_7
100
AcDbLine
 10
2981.950948690868
 20
1569.106095757994
 30
0.0
 11
2981.950948690868
 21
1577.606095757994
 31
0.0
1001
GENIUS_GENOREF_13
1005
2386
  0
LINE
  5
2384
330
1F
100
AcDbEntity
  8
AM_7
100
AcDbLine
 10
2981.950948690868
 20
1569.106095757994
 30
0.0
 11
2973.450948690868
 21
1569.106095757994
 31
0.0
1001
GENIUS_GENOREF_13
1005
2386
  0
LINE
  5
2385
330
1F
100
AcDbEntity
  8
AM_7
100
AcDbLine
 10
2981.950948690868
 20
1569.106095757994
 30
0.0
 11
2981.950948690868
 21
1560.606095757994
 31
0.0
1001
GENIUS_GENOREF_13
1005
2386
  0
POINT
  5
2386
330
1F
100
AcDbEntity
  8
0
 60
     1
100
AcDbPoint
 10
0.0
 20
0.0
 30
0.0
1001
GENIUS_GENOENT_13
1002
{
1000
MYREF
1005
2386
1002
}
1002
{
1000
GRP
1005
0
1002
}
1001
GENIUS_GENODEF_13
1002
{
1000
HIER
1070
    10
1002
}
1002
{
1000
MANEDIT
1070
     0
1002
}
1002
{
1000
NOSEL
1070
     0
1002
}
1002
{
1000
BEHIND
1070
     0
1002
}
1002
{
1000
OTHER
1070
     0
1002
}
1002
{
1000
REACTOR
1002
}
1001
GENIUS_GENOBJ-N-CRS_13
1002
{
1000
OWNER
1000
GEN
1002
}
1001
GENIUS_GENOLIS_13
1002
{
1000
ENT
1005
2385
1005
2384
1005
2383
1005
2382
1002
}
  0
LINE
  5
2394
330
1F
100
AcDbEntity
  8
AM_7
100
AcDbLine
 10
2887.950948690868
 20
1475.106095757994
 30
0.0
 11
2896.450948690868
 21
1475.106095757994
 31
0.0
1001
GENIUS_GENOREF_13
1005
2398
  0
LINE
  5
2395
330
1F
100
AcDbEntity
  8
AM_7
100
AcDbLine
 10
2887.950948690868
 20
1475.106095757994
 30
0.0
 11
2887.950948690868
 21
1483.606095757994
 31
0.0
1001
GENIUS_GENOREF_13
1005
2398
  0
LINE
  5
2396
330
1F
100
AcDbEntity
  8
AM_7
100
AcDbLine
 10
2887.950948690868
 20
1475.106095757994
 30
0.0
 11
2879.450948690868
 21
1475.106095757994
 31
0.0
1001
GENIUS_GENOREF_13
1005
2398
  0
LINE
  5
2397
330
1F
100
AcDbEntity
  8
AM_7
100
AcDbLine
 10
2887.950948690868
 20
1475.106095757994
 30
0.0
 11
2887.950948690868
 21
1466.606095757994
 31
0.0
1001
GENIUS_GENOREF_13
1005
2398
  0
POINT
  5
2398
330
1F
100
AcDbEntity
  8
0
 60
     1
100
AcDbPoint
 10
0.0
 20
0.0
 30
0.0
1001
GENIUS_GENODEF_13
1002
{
1000
HIER
1070
    10
1002
}
1002
{
1000
MANEDIT
1070
     0
1002
}
1002
{
1000
NOSEL
1070
     0
1002
}
1002
{
1000
BEHIND
1070
     0
1002
}
1002
{
1000
OTHER
1070
     0
1002
}
1002
{
1000
REACTOR
1002
}
1001
GENIUS_GENOLIS_13
1002
{
1000
ENT
1005
2397
1005
2396
1005
2395
1005
2394
1002
}
1001
GENIUS_GENOBJ-N-CRS_13
1002
{
1000
OWNER
1000
GEN
1002
}
1001
GENIUS_GENOENT_13
1002
{
1000
MYREF
1005
2398
1002
}
1002
{
1000
GRP
1005
0
1002
}
  0
LINE
  5
23C5
330
1F
100
AcDbEntity
  8
0
100
AcDbLine
 10
2949.950948690868
 20
1690.032295400835
 30
0.0
 11
2949.950948690868
 21
1706.068193785698
 31
0.0
  0
LINE
  5
23CA
330
1F
100
AcDbEntity
  8
0
100
AcDbLine
 10
2949.950948690868
 20
1706.068193785698
 30
0.0
 11
2948.239623825463
 21
1709.032295400836
 31
0.0
  0
LINE
  5
23CB
330
1F
100
AcDbEntity
  8
0
100
AcDbLine
 10
2949.950948690868
 20
1706.068193785698
 30
0.0
 11
2941.450948690869
 21
1706.068193785698
 31
0.0
  0
LINE
  5
23CC
330
1F
100
AcDbEntity
  8
0
100
AcDbLine
 10
2934.950948690869
 20
1695.532295400836
 30
0.0
 11
2941.450948690869
 21
1695.532295400836
 31
0.0
  0
LINE
  5
23CD
330
1F
100
AcDbEntity
  8
0
100
AcDbLine
 10
2941.450948690869
 20
1695.532295400836
 30
0.0
 11
2941.450948690868
 21
1709.032295400836
 31
0.0
  0
LINE
  5
23CE
330
1F
100
AcDbEntity
  8
0
100
AcDbLine
 10
2934.950948690869
 20
1702.532295400836
 30
0.0
 11
2940.986662976583
 21
1709.032295400836
 31
0.0
  0
LINE
  5
23CF
330
1F
100
AcDbEntity
  8
0
100
AcDbLine
 10
2934.950948690869
 20
1702.532295400836
 30
0.0
 11
2941.450948690869
 21
1695.532295400836
 31
0.0
  0
ARC
  5
23D0
330
1F
100
AcDbEntity
  8
0
100
AcDbCircle
 10
2934.950948690868
 20
1708.865628734169
 30
0.0
 40
14.83333333333333
100
AcDbArc
 50
270.0
 51
295.9892335838301
  0
LINE
  5
23DF
330
1F
100
AcDbEntity
  8
0
100
AcDbLine
 10
2919.950948690868
 20
1690.032295400836
 30
0.0
 11
2919.950948690868
 21
1706.068193785698
 31
0.0
  0
LINE
  5
23E0
330
1F
100
AcDbEntity
  8
0
100
AcDbLine
 10
2919.950948690868
 20
1706.068193785698
 30
0.0
 11
2921.662273556273
 21
1709.032295400836
 31
0.0
  0
LINE
  5
23E1
330
1F
100
AcDbEntity
  8
0
100
AcDbLine
 10
2919.950948690868
 20
1706.068193785698
 30
0.0
 11
2928.450948690868
 21
1706.068193785698
 31
0.0
  0
LINE
  5
23E2
330
1F
100
AcDbEntity
  8
0
100
AcDbLine
 10
2934.950948690868
 20
1695.532295400836
 30
0.0
 11
2928.450948690868
 21
1695.532295400836
 31
0.0
  0
LINE
  5
23E3
330
1F
100
AcDbEntity
  8
0
100
AcDbLine
 10
2928.450948690868
 20
1695.532295400836
 30
0.0
 11
2928.450948690868
 21
1709.032295400836
 31
0.0
  0
LINE
  5
23E4
330
1F
100
AcDbEntity
  8
0
100
AcDbLine
 10
2934.950948690868
 20
1702.532295400836
 30
0.0
 11
2928.915234405153
 21
1709.032295400836
 31
0.0
  0
LINE
  5
23E5
330
1F
100
AcDbEntity
  8
0
100
AcDbLine
 10
2934.950948690868
 20
1702.532295400836
 30
0.0
 11
2928.450948690868
 21
1695.532295400836
 31
0.0
  0
ARC
  5
23E6
330
1F
100
AcDbEntity
  8
0
100
AcDbCircle
 10
2934.950948690869
 20
1708.865628734169
 30
0.0
 40
14.83333333333333
100
AcDbArc
 50
244.0107664161699
 51
270.0
  0
LINE
  5
2413
330
1F
100
AcDbEntity
  8
AM_7
100
AcDbLine
 10
2934.950948690869
 20
1729.032295400836
 30
0.0
 11
2934.950948690869
 21
1624.448008113256
 31
0.0
1001
GENIUS_GENOBJ-N-CEN_13
1002
{
1000
OWNER
1000
GEN
1002
}
1001
GENIUS_GENODEF_13
1002
{
1000
HIER
1070
     0
1002
}
1002
{
1000
MANEDIT
1070
     0
1002
}
1002
{
1000
NOSEL
1070
     0
1002
}
1002
{
1000
BEHIND
1070
     0
1002
}
1002
{
1000
OTHER
1070
     0
1002
}
1002
{
1000
REACTOR
1002
}
1001
GENIUS_GENCEN_19
1002
{
1040
2.0
1002
}
  0
LINE
  5
2420
330
1F
100
AcDbEntity
  8
AM_7
100
AcDbLine
 10
3157.499011647562
 20
1729.032295400836
 30
0.0
 11
3157.499011647562
 21
1629.057071217743
 31
0.0
1001
GENIUS_GENODEF_13
1002
{
1000
HIER
1070
     0
1002
}
1002
{
1000
MANEDIT
1070
     0
1002
}
1002
{
1000
NOSEL
1070
     0
1002
}
1002
{
1000
BEHIND
1070
     0
1002
}
1002
{
1000
OTHER
1070
     0
1002
}
1002
{
1000
REACTOR
1002
}
1001
GENIUS_GENOBJ-N-CEN_13
1002
{
1000
OWNER
1000
GEN
1002
}
1001
GENIUS_GENCEN_19
1002
{
1040
2.0
1002
}
  0
LINE
  5
2424
330
1F
100
AcDbEntity
  8
0
100
AcDbLine
 10
3142.499011647562
 20
1690.032295400835
 30
0.0
 11
3142.499011647562
 21
1694.032295400836
 31
0.0
  0
LINE
  5
2434
330
1F
100
AcDbEntity
  8
AM_7
100
AcDbLine
 10
2934.950948690869
 20
1522.106095757994
 30
0.0
 11
3001.950948700868
 21
1522.106095757994
 31
0.0
1001
GENIUS_GENOREF_13
1005
2438
  0
LINE
  5
2435
330
1F
100
AcDbEntity
  8
AM_7
100
AcDbLine
 10
2934.950948690869
 20
1522.106095757994
 30
0.0
 11
2934.950948690869
 21
1589.106095767994
 31
0.0
1001
GENIUS_GENOREF_13
1005
2438
  0
LINE
  5
2436
330
1F
100
AcDbEntity
  8
AM_7
100
AcDbLine
 10
2934.950948690869
 20
1522.106095757994
 30
0.0
 11
2867.950948680869
 21
1522.106095757994
 31
0.0
1001
GENIUS_GENOREF_13
1005
2438
  0
LINE
  5
2437
330
1F
100
AcDbEntity
  8
AM_7
100
AcDbLine
 10
2934.950948690869
 20
1522.106095757994
 30
0.0
 11
2934.950948690869
 21
1455.106095747994
 31
0.0
1001
GENIUS_GENOREF_13
1005
2438
  0
POINT
  5
2438
330
1F
100
AcDbEntity
  8
0
 60
     1
100
AcDbPoint
 10
0.0
 20
0.0
 30
0.0
1001
GENIUS_GENODEF_13
1002
{
1000
HIER
1070
    10
1002
}
1002
{
1000
MANEDIT
1070
     0
1002
}
1002
{
1000
NOSEL
1070
     0
1002
}
1002
{
1000
BEHIND
1070
     0
1002
}
1002
{
1000
OTHER
1070
     0
1002
}
1002
{
1000
REACTOR
1002
}
1001
GENIUS_GENOLIS_13
1002
{
1000
ENT
1005
2437
1005
2436
1005
2435
1005
2434
1002
}
1001
GENIUS_GENOENT_13
1002
{
1000
MYREF
1005
2438
1002
}
1002
{
1000
GRP
1005
0
1002
}
1001
GENIUS_GENOBJ-N-CRS_13
1002
{
1000
OWNER
1000
GEN
1002
}
  0
LINE
  5
27D5
330
1F
100
AcDbEntity
  8
0
100
AcDbLine
 10
3143.999011647562
 20
1695.532295400835
 30
0.0
 11
3142.499011647562
 21
1694.032295400836
 31
0.0
  0
LINE
  5
27D6
330
1F
100
AcDbEntity
  8
0
100
AcDbLine
 10
3143.999011647562
 20
1695.532295400835
 30
0.0
 11
3143.999011647562
 21
1709.032295400836
 31
0.0
  0
LINE
  5
27D7
330
1F
100
AcDbEntity
  8
0
100
AcDbLine
 10
3172.499011647562
 20
1690.032295400835
 30
0.0
 11
3172.499011647562
 21
1694.032295400836
 31
0.0
  0
LINE
  5
27D8
330
1F
100
AcDbEntity
  8
0
100
AcDbLine
 10
3170.999011647562
 20
1695.532295400835
 30
0.0
 11
3172.499011647562
 21
1694.032295400836
 31
0.0
  0
LINE
  5
27D9
330
1F
100
AcDbEntity
  8
0
100
AcDbLine
 10
3170.999011647562
 20
1695.532295400835
 30
0.0
 11
3170.999011647561
 21
1709.032295400836
 31
0.0
  0
LINE
  5
27E5
330
1F
100
AcDbEntity
  8
0
100
AcDbLine
 10
3143.999011647562
 20
1706.068193785698
 30
0.0
 11
3170.999011647561
 21
1706.068193785698
 31
0.0
  0
ENDSEC
  0
SECTION
  2
OBJECTS
  0
DICTIONARY
  5
C
330
0
100
AcDbDictionary
281
     1
  3
ACAD_COLOR
350
BE
  3
ACAD_GROUP
350
D
  3
ACAD_LAYOUT
350
1A
  3
ACAD_MATERIAL
350
BD
  3
ACAD_MLINESTYLE
350
17
  3
ACAD_PLOTSETTINGS
350
19
  3
ACAD_PLOTSTYLENAME
350
E
  3
ACAD_TABLESTYLE
350
11A
  3
ACDBHEADERROUNDTRIPXREC
350
290D
  3
AcDbVariableDictionary
350
94
  3
AcmDictionary
350
5B
  3
AMG
350
41
  3
AMGSNAPSETTINGS
350
1B8
  3
DWGPROPS
350
290C
  0
DICTIONARY
  5
3F9
330
2
100
AcDbDictionary
280
     1
281
     1
  3
ACAD_LAYERFILTERS
360
5B7
  3
ACAD_LAYERSTATES
360
814
  3
ACLYDICTIONARY
360
5B6
  3
AMLAYER_GROUPCOLORS
360
BD3
  0
DICTIONARY
  5
8F
330
1F
100
AcDbDictionary
280
     1
281
     1
  3
ACAD_SORTENTS
360
C06
  0
DICTIONARY
  5
BE
102
{ACAD_REACTORS
330
C
102
}
330
C
100
AcDbDictionary
281
     1
  0
DICTIONARY
  5
D
102
{ACAD_REACTORS
330
C
102
}
330
C
100
AcDbDictionary
281
     1
  0
DICTIONARY
  5
1A
102
{ACAD_REACTORS
330
C
102
}
330
C
100
AcDbDictionary
281
     1
  3
Model
350
22
  3
配置1
350
1E
  3
配置2
350
26
  0
DICTIONARY
  5
BD
102
{ACAD_REACTORS
330
C
102
}
330
C
100
AcDbDictionary
281
     1
  0
DICTIONARY
  5
17
102
{ACAD_REACTORS
330
C
102
}
330
C
100
AcDbDictionary
281
     1
  3
Standard
350
18
  0
DICTIONARY
  5
19
102
{ACAD_REACTORS
330
C
102
}
330
C
100
AcDbDictionary
281
     1
  0
ACDBDICTIONARYWDFLT
  5
E
102
{ACAD_REACTORS
330
C
102
}
330
C
100
AcDbDictionary
281
     1
  3
Normal
350
F
100
AcDbDictionaryWithDefault
340
F
  0
DICTIONARY
  5
11A
102
{ACAD_REACTORS
330
C
102
}
330
C
100
AcDbDictionary
281
     1
  3
Standard
350
11B
  0
DICTIONARY
  5
290D
102
{ACAD_REACTORS
330
C
102
}
330
C
100
AcDbDictionary
281
     1
  0
DICTIONARY
  5
94
102
{ACAD_REACTORS
330
C
102
}
330
C
100
AcDbDictionary
281
     1
  3
CTABLESTYLE
350
138
  3
DIMASSOC
350
96
  3
INDEXCTL
350
95
  3
PROJECTNAME
350
290A
  0
DICTIONARY
  5
5B
102
{ACAD_REACTORS
330
C
102
}
330
C
100
AcDbDictionary
281
     1
  3
AcmBOM
350
1B5
  3
AcmStdDictionary
350
61
  3
AMDTSECTSYM_ARROWCOLOR
350
123
  0
DICTIONARY
  5
41
102
{ACAD_REACTORS
330
C
102
}
330
C
100
AcDbDictionary
281
     1
  0
DICTIONARY
  5
1B8
102
{ACAD_REACTORS
330
C
102
}
330
C
100
AcDbDictionary
281
     1
  0
XRECORD
  5
290C
102
{ACAD_REACTORS
330
C
102
}
330
C
100
AcDbXrecord
280
     1
  1
DWGPROPS COOKIE
  2

  3

  4

  6

  7

  8

  9

300
AmdtFileType=84
301
=
302
=
303
=
304
=
305
=
306
=
307
=
308
=
309
=
 40
0.2160559837962963
 41
2453809.488480533
 42
2453815.443258634
  1

 90
        1
  0
DICTIONARY
  5
5B7
102
{ACAD_REACTORS
330
3F9
102
}
330
3F9
100
AcDbDictionary
281
     1
  0
DICTIONARY
  5
814
102
{ACAD_REACTORS
330
3F9
102
}
330
3F9
100
AcDbDictionary
281
     1
  0
DICTIONARY
  5
5B6
102
{ACAD_REACTORS
330
3F9
102
}
330
3F9
100
AcDbDictionary
281
     1
1001
ACAD
1000
<All
  0
DICTIONARY
  5
BD3
102
{ACAD_REACTORS
330
3F9
102
}
330
3F9
100
AcDbDictionary
280
     1
281
     1
  0
SORTENTSTABLE
  5
C06
102
{ACAD_REACTORS
330
8F
102
}
330
8F
100
AcDbSortentsTable
330
1F
331
EE9
  5
EE9
331
2119
  5
2119
331
20E2
  5
20E2
331
160C
  5
160C
331
2160
  5
2160
331
2121
  5
2121
331
20EA
  5
20EA
331
1614
  5
1614
331
15D5
  5
15D5
331
2168
  5
2168
331
2131
  5
2131
331
20F2
  5
20F2
331
161C
  5
161C
331
15DD
  5
15DD
331
15A6
  5
15A6
331
2170
  5
2170
331
20FA
  5
20FA
331
1624
  5
1624
331
15AE
  5
15AE
331
2178
  5
2178
331
219D
  5
219D
331
21DC
  5
21DC
331
21AD
  5
21AD
331
21EC
  5
21EC
331
21B5
  5
21B5
331
21F4
  5
21F4
331
2141
  5
2141
331
2102
  5
2102
331
15ED
  5
15ED
331
15B6
  5
15B6
331
2180
  5
2180
331
2149
  5
2149
331
210A
  5
210A
331
15F5
  5
15F5
331
15BE
  5
15BE
331
2188
  5
2188
331
2151
  5
2151
331
2112
  5
2112
331
15FD
  5
15FD
331
2190
  5
2190
331
2159
  5
2159
331
1605
  5
1605
331
21BD
  5
21BD
331
21C5
  5
21C5
331
21CD
  5
21CD
331
21D5
  5
21D5
331
211A
  5
211A
331
20E3
  5
20E3
331
160D
  5
160D
331
15CE
  5
15CE
331
2161
  5
2161
331
20EB
  5
20EB
331
1615
  5
1615
331
2169
  5
2169
331
2132
  5
2132
331
20F3
  5
20F3
331
161D
  5
161D
331
15A7
  5
15A7
331
2171
  5
2171
331
20FB
  5
20FB
331
1625
  5
1625
331
15AF
  5
15AF
331
2179
  5
2179
331
219E
  5
219E
331
21DD
  5
21DD
331
21AE
  5
21AE
331
21ED
  5
21ED
331
21B6
  5
21B6
331
21F5
  5
21F5
331
EC3
  5
EC3
331
2142
  5
2142
331
2103
  5
2103
331
15EE
  5
15EE
331
15B7
  5
15B7
331
2181
  5
2181
331
214A
  5
214A
331
210B
  5
210B
331
15F6
  5
15F6
331
15BF
  5
15BF
331
2189
  5
2189
331
2152
  5
2152
331
2113
  5
2113
331
15FE
  5
15FE
331
2191
  5
2191
331
20DC
  5
20DC
331
1606
  5
1606
331
215A
  5
215A
331
21BE
  5
21BE
331
21C6
  5
21C6
331
21CE
  5
21CE
331
21D6
  5
21D6
331
211B
  5
211B
331
20E4
  5
20E4
331
160E
  5
160E
331
15CF
  5
15CF
331
2162
  5
2162
331
2123
  5
2123
331
20EC
  5
20EC
331
1616
  5
1616
331
216A
  5
216A
331
2133
  5
2133
331
20F4
  5
20F4
331
161E
  5
161E
331
15A8
  5
15A8
331
2172
  5
2172
331
20FC
  5
20FC
331
1626
  5
1626
331
15E7
  5
15E7
331
217A
  5
217A
331
219F
  5
219F
331
21DE
  5
21DE
331
21E6
  5
21E6
331
21AF
  5
21AF
331
21EE
  5
21EE
331
21B7
  5
21B7
331
21F6
  5
21F6
331
15B0
  5
15B0
331
2143
  5
2143
331
2104
  5
2104
331
15EF
  5
15EF
331
15B8
  5
15B8
331
2182
  5
2182
331
214B
  5
214B
331
210C
  5
210C
331
15F7
  5
15F7
331
15C0
  5
15C0
331
218A
  5
218A
331
2153
  5
2153
331
2114
  5
2114
331
15FF
  5
15FF
331
2192
  5
2192
331
20DD
  5
20DD
331
1607
  5
1607
331
215B
  5
215B
331
21BF
  5
21BF
331
21C7
  5
21C7
331
21CF
  5
21CF
331
21D7
  5
21D7
331
E65
  5
E65
331
211C
  5
211C
331
20E5
  5
20E5
331
15D0
  5
15D0
331
1509
  5
1509
331
160F
  5
160F
331
2163
  5
2163
331
1617
  5
1617
331
20ED
  5
20ED
331
216B
  5
216B
331
2134
  5
2134
331
161F
  5
161F
331
15A9
  5
15A9
331
1022
  5
1022
331
20F5
  5
20F5
331
2173
  5
2173
331
1627
  5
1627
331
20FD
  5
20FD
331
217B
  5
217B
331
2198
  5
2198
331
21A0
  5
21A0
331
21DF
  5
21DF
331
21E7
  5
21E7
331
21B0
  5
21B0
331
21EF
  5
21EF
331
21F7
  5
21F7
331
E9D
  5
E9D
331
15E8
  5
15E8
331
15B1
  5
15B1
331
2144
  5
2144
331
15F0
  5
15F0
331
15B9
  5
15B9
331
2105
  5
2105
331
2183
  5
2183
331
214C
  5
214C
331
15F8
  5
15F8
331
15C1
  5
15C1
331
210D
  5
210D
331
218B
  5
218B
331
2154
  5
2154
331
1600
  5
1600
331
2115
  5
2115
331
2193
  5
2193
331
20DE
  5
20DE
331
215C
  5
215C
331
21B8
  5
21B8
331
21C0
  5
21C0
331
21C8
  5
21C8
331
21D0
  5
21D0
331
1608
  5
1608
331
15C9
  5
15C9
331
211D
  5
211D
331
1610
  5
1610
331
15D1
  5
15D1
331
20E6
  5
20E6
331
2164
  5
2164
331
1618
  5
1618
331
15D9
  5
15D9
331
15A2
  5
15A2
331
20EE
  5
20EE
331
216C
  5
216C
331
2135
  5
2135
331
1620
  5
1620
331
15E1
  5
15E1
331
15AA
  5
15AA
331
20F6
  5
20F6
331
2174
  5
2174
331
20FE
  5
20FE
331
217C
  5
217C
331
2199
  5
2199
331
21D8
  5
21D8
331
21A1
  5
21A1
331
21E0
  5
21E0
331
21E8
  5
21E8
331
21B1
  5
21B1
331
21F0
  5
21F0
331
15E9
  5
15E9
331
F35
  5
F35
331
15B2
  5
15B2
331
1628
  5
1628
331
2145
  5
2145
331
15F1
  5
15F1
331
15BA
  5
15BA
331
2106
  5
2106
331
2184
  5
2184
331
214D
  5
214D
331
15F9
  5
15F9
331
210E
  5
210E
331
218C
  5
218C
331
2155
  5
2155
331
1601
  5
1601
331
2116
  5
2116
331
2194
  5
2194
331
20DF
  5
20DF
331
215D
  5
215D
331
21B9
  5
21B9
331
21F8
  5
21F8
331
21C1
  5
21C1
331
21C9
  5
21C9
331
21D1
  5
21D1
331
1609
  5
1609
331
FFC
  5
FFC
331
15CA
  5
15CA
331
211E
  5
211E
331
1611
  5
1611
331
F85
  5
F85
331
15D2
  5
15D2
331
20E7
  5
20E7
331
2165
  5
2165
331
2126
  5
2126
331
1619
  5
1619
331
15A3
  5
15A3
331
20EF
  5
20EF
331
216D
  5
216D
331
2136
  5
2136
331
1621
  5
1621
331
15E2
  5
15E2
331
15AB
  5
15AB
331
20F7
  5
20F7
331
2175
  5
2175
331
213E
  5
213E
331
20FF
  5
20FF
331
217D
  5
217D
331
219A
  5
219A
331
21D9
  5
21D9
331
21A2
  5
21A2
331
21E9
  5
21E9
331
21B2
  5
21B2
331
21F1
  5
21F1
331
15EA
  5
15EA
331
15B3
  5
15B3
331
1629
  5
1629
331
2146
  5
2146
331
15F2
  5
15F2
331
15BB
  5
15BB
331
2107
  5
2107
331
2185
  5
2185
331
214E
  5
214E
331
15FA
  5
15FA
331
210F
  5
210F
331
218D
  5
218D
331
2156
  5
2156
331
1602
  5
1602
331
2117
  5
2117
331
2195
  5
2195
331
215E
  5
215E
331
21BA
  5
21BA
331
21C2
  5
21C2
331
21CA
  5
21CA
331
21D2
  5
21D2
331
160A
  5
160A
331
20E0
  5
20E0
331
211F
  5
211F
331
1612
  5
1612
331
F0F
  5
F0F
331
15D3
  5
15D3
331
20E8
  5
20E8
331
2166
  5
2166
331
2127
  5
2127
331
161A
  5
161A
331
15A4
  5
15A4
331
20F0
  5
20F0
331
216E
  5
216E
331
2137
  5
2137
331
1622
  5
1622
331
15E3
  5
15E3
331
15AC
  5
15AC
331
20F8
  5
20F8
331
2176
  5
2176
331
213F
  5
213F
331
217E
  5
217E
331
219B
  5
219B
331
21DA
  5
21DA
331
21A3
  5
21A3
331
21EA
  5
21EA
331
21B3
  5
21B3
331
21F2
  5
21F2
331
FD6
  5
FD6
331
15EB
  5
15EB
331
15B4
  5
15B4
331
162A
  5
162A
331
2100
  5
2100
331
2147
  5
2147
331
15F3
  5
15F3
331
15BC
  5
15BC
331
2108
  5
2108
331
2186
  5
2186
331
214F
  5
214F
331
15FB
  5
15FB
331
2110
  5
2110
331
218E
  5
218E
331
1603
  5
1603
331
2157
  5
2157
331
2196
  5
2196
331
215F
  5
215F
331
21BB
  5
21BB
331
21C3
  5
21C3
331
21CB
  5
21CB
331
21D3
  5
21D3
331
F5F
  5
F5F
331
20E1
  5
20E1
331
14F5
  5
14F5
331
160B
  5
160B
331
2118
  5
2118
331
2120
  5
2120
331
20E9
  5
20E9
331
1613
  5
1613
331
15D4
  5
15D4
331
2167
  5
2167
331
2130
  5
2130
331
20F1
  5
20F1
331
161B
  5
161B
331
15A5
  5
15A5
331
216F
  5
216F
331
2138
  5
2138
331
20F9
  5
20F9
331
1623
  5
1623
331
15AD
  5
15AD
331
2177
  5
2177
331
217F
  5
217F
331
219C
  5
219C
331
21DB
  5
21DB
331
21A4
  5
21A4
331
21E3
  5
21E3
331
21EB
  5
21EB
331
21B4
  5
21B4
331
21F3
  5
21F3
331
2140
  5
2140
331
2101
  5
2101
331
15EC
  5
15EC
331
15B5
  5
15B5
331
162B
  5
162B
331
2148
  5
2148
331
2109
  5
2109
331
15F4
  5
15F4
331
1266
  5
1266
331
15BD
  5
15BD
331
2187
  5
2187
331
2150
  5
2150
331
2111
  5
2111
331
15FC
  5
15FC
331
15C5
  5
15C5
331
218F
  5
218F
331
2197
  5
2197
331
2158
  5
2158
331
1604
  5
1604
331
21BC
  5
21BC
331
21C4
  5
21C4
331
21CC
  5
21CC
331
21D4
  5
21D4
  0
LAYOUT
  5
22
102
{ACAD_XDICTIONARY
360
2910
102
}
102
{ACAD_REACTORS
330
1A
102
}
330
1A
100
AcDbPlotSettings
  1

  2
\\RD\EPSON Stylus C63 Series單色
  4
A4
  6

 40
3.757083177566528
 41
3.757076978683471
 42
3.757080078125
 43
3.757080078125
 44
209.9733276367187
 45
296.9683227539062
 46
0.0
 47
0.0
 48
0.0
 49
0.0
140
0.0
141
0.0
142
1.0
143
0.3405120737814363
 70
 11952
 72
     1
 73
     0
 74
     0
  7
彩色出圖.ctb
 75
     0
147
2.936753428137963
148
-2047.07469463503
149
-1261.649717473083
100
AcDbLayout
  1
Model
 70
     1
 71
     0
 10
0.0
 20
0.0
 11
12.0
 21
9.0
 12
0.0
 22
0.0
 32
0.0
 14
0.0
 24
0.0
 34
0.0
 15
0.0
 25
0.0
 35
0.0
146
0.0
 13
0.0
 23
0.0
 33
0.0
 16
1.0
 26
0.0
 36
0.0
 17
0.0
 27
1.0
 37
0.0
 76
     0
330
1F
1001
ACAD_PSEXT
1000
\\RD\EPSON Stylus C63 Series單色
1000
EPSON Stylus C63 Series
1000
\\RD
1000

1070
     0
  0
LAYOUT
  5
1E
102
{ACAD_XDICTIONARY
360
290E
102
}
102
{ACAD_REACTORS
330
1A
102
}
330
1A
100
AcDbPlotSettings
  1

  2

  4

  6

 40
0.0
 41
0.0
 42
0.0
 43
0.0
 44
0.0
 45
0.0
 46
0.0
 47
0.0
 48
0.0
 49
0.0
140
0.0
141
0.0
142
1.0
143
1.0
 70
   688
 72
     0
 73
     0
 74
     5
  7
彩色出圖.ctb
 75
    16
147
1.0
148
0.0
149
0.0
100
AcDbLayout
  1
配置1
 70
     1
 71
     1
 10
0.0
 20
0.0
 11
420.0
 21
297.0
 12
0.0
 22
0.0
 32
0.0
 14
1.000000000000000E+20
 24
1.000000000000000E+20
 34
1.000000000000000E+20
 15
-1.000000000000000E+20
 25
-1.000000000000000E+20
 35
-1.000000000000000E+20
146
0.0
 13
0.0
 23
0.0
 33
0.0
 16
1.0
 26
0.0
 36
0.0
 17
0.0
 27
1.0
 37
0.0
 76
     0
330
1B
  0
LAYOUT
  5
26
102
{ACAD_XDICTIONARY
360
2912
102
}
102
{ACAD_REACTORS
330
1A
102
}
330
1A
100
AcDbPlotSettings
  1

  2

  4

  6

 40
0.0
 41
0.0
 42
0.0
 43
0.0
 44
0.0
 45
0.0
 46
0.0
 47
0.0
 48
0.0
 49
0.0
140
0.0
141
0.0
142
1.0
143
1.0
 70
   688
 72
     0
 73
     0
 74
     5
  7
彩色出圖.ctb
 75
    16
147
1.0
148
0.0
149
0.0
100
AcDbLayout
  1
配置2
 70
     1
 71
     2
 10
0.0
 20
0.0
 11
12.0
 21
9.0
 12
0.0
 22
0.0
 32
0.0
 14
0.0
 24
0.0
 34
0.0
 15
0.0
 25
0.0
 35
0.0
146
0.0
 13
0.0
 23
0.0
 33
0.0
 16
1.0
 26
0.0
 36
0.0
 17
0.0
 27
1.0
 37
0.0
 76
     0
330
23
  0
MLINESTYLE
  5
18
102
{ACAD_REACTORS
330
17
102
}
330
17
100
AcDbMlineStyle
  2
STANDARD
 70
     0
  3

 62
   256
 51
90.0
 52
90.0
 71
     2
 49
0.5
 62
   256
  6
BYLAYER
 49
-0.5
 62
   256
  6
BYLAYER
  0
ACDBPLACEHOLDER
  5
F
102
{ACAD_REACTORS
330
E
102
}
330
E
  0
TABLESTYLE
  5
11B
102
{ACAD_REACTORS
330
11A
102
}
330
11A
100
AcDbTableStyle
  3
Standard
 70
     0
 71
     0
 40
1.5
 41
1.5
280
     0
281
     0
  7
STANDARD
140
4.5
170
     2
 62
     0
 63
     7
283
     0
274
    -2
284
     1
 64
     0
275
    -2
285
     1
 65
     0
276
    -2
286
     1
 66
     0
277
    -2
287
     1
 67
     0
278
    -2
288
     1
 68
     0
279
    -2
289
     1
 69
     0
  7
STANDARD
140
6.0
170
     5
 62
     0
 63
     7
283
     0
274
    -2
284
     1
 64
     0
275
    -2
285
     1
 65
     0
276
    -2
286
     1
 66
     0
277
    -2
287
     1
 67
     0
278
    -2
288
     1
 68
     0
279
    -2
289
     1
 69
     0
  7
STANDARD
140
4.5
170
     5
 62
     0
 63
     7
283
     0
274
    -2
284
     1
 64
     0
275
    -2
285
     1
 65
     0
276
    -2
286
     1
 66
     0
277
    -2
287
     1
 67
     0
278
    -2
288
     1
 68
     0
279
    -2
289
     1
 69
     0
  0
DICTIONARYVAR
  5
138
102
{ACAD_REACTORS
330
94
102
}
330
94
100
DictionaryVariables
280
     0
  1
STANDARD
  0
DICTIONARYVAR
  5
96
102
{ACAD_REACTORS
330
94
102
}
330
94
100
DictionaryVariables
280
     0
  1
2
  0
DICTIONARYVAR
  5
95
102
{ACAD_REACTORS
330
94
102
}
330
94
100
DictionaryVariables
280
     0
  1
0
  0
DICTIONARYVAR
  5
290A
102
{ACAD_REACTORS
330
94
102
}
330
94
100
DictionaryVariables
280
     0
  1

  0
DICTIONARY
  5
1B5
102
{ACAD_REACTORS
330
5B
102
}
330
5B
100
AcDbDictionary
281
     1
  0
DICTIONARY
  5
61
102
{ACAD_REACTORS
330
5B
102
}
330
5B
100
AcDbDictionary
281
     1
  0
XRECORD
  5
123
102
{ACAD_REACTORS
330
5B
102
}
330
5B
100
AcDbXrecord
280
     1
 90
-1023410169
  0
DICTIONARY
  5
2910
330
22
100
AcDbDictionary
280
     1
281
     1
  3
ACAD_XREC_ROUNDTRIP
360
2911
  0
DICTIONARY
  5
290E
330
1E
100
AcDbDictionary
280
     1
281
     1
  3
ACAD_XREC_ROUNDTRIP
360
290F
  0
DICTIONARY
  5
2912
330
26
100
AcDbDictionary
280
     1
281
     1
  3
ACAD_XREC_ROUNDTRIP
360
2913
  0
XRECORD
  5
2911
102
{ACAD_REACTORS
330
2910
102
}
330
2910
100
AcDbXrecord
280
     1
102
SHADEPLOT
 70
     0
102
SHADEPLOTRESLEVEL
 70
     2
102
SHADEPLOTCUSTOMDPI
 70
   300
  0
XRECORD
  5
290F
102
{ACAD_REACTORS
330
290E
102
}
330
290E
100
AcDbXrecord
280
     1
102
SHADEPLOT
 70
     0
102
SHADEPLOTRESLEVEL
 70
     2
102
SHADEPLOTCUSTOMDPI
 70
   300
  0
XRECORD
  5
2913
102
{ACAD_REACTORS
330
2912
102
}
330
2912
100
AcDbXrecord
280
     1
102
SHADEPLOT
 70
     0
102
SHADEPLOTRESLEVEL
 70
     2
102
SHADEPLOTCUSTOMDPI
 70
   300
  0
ENDSEC
  0
EOF
