  0
SECTION
  2
HEADER
  9
$ACADVER
  1
AC1015
  9
$ACADMAINTVER
 70
    20
  9
$DWGCODEPAGE
  3
ANSI_950
  9
$INSBASE
 10
0.0
 20
0.0
 30
0.0
  9
$EXTMIN
 10
3055.524753575402
 20
1476.123517166634
 30
0.0
  9
$EXTMAX
 10
3195.146235575402
 20
1655.636851166634
 30
91.49236949083864
  9
$LIMMIN
 10
0.0
 20
0.0
  9
$LIMMAX
 10
420.0
 20
297.0
  9
$ORTHOMODE
 70
     0
  9
$REGENMODE
 70
     1
  9
$FILLMODE
 70
     1
  9
$QTEXTMODE
 70
     0
  9
$MIRRTEXT
 70
     1
  9
$LTSCALE
 40
1.0
  9
$ATTMODE
 70
     1
  9
$TEXTSIZE
 40
3.0
  9
$TRACEWID
 40
1.0
  9
$TEXTSTYLE
  7
CHINESET
  9
$CLAYER
  8
0
  9
$CELTYPE
  6
ByLayer
  9
$CECOLOR
 62
   256
  9
$CELTSCALE
 40
1.0
  9
$DISPSILH
 70
     0
  9
$DIMSCALE
 40
1.0
  9
$DIMASZ
 40
3.0
  9
$DIMEXO
 40
1.0
  9
$DIMDLI
 40
5.0
  9
$DIMRND
 40
0.0
  9
$DIMDLE
 40
0.0
  9
$DIMEXE
 40
1.5
  9
$DIMTP
 40
0.1
  9
$DIMTM
 40
0.1
  9
$DIMTXT
 40
3.0
  9
$DIMCEN
 40
0.0
  9
$DIMTSZ
 40
0.0
  9
$DIMTOL
 70
     0
  9
$DIMLIM
 70
     0
  9
$DIMTIH
 70
     0
  9
$DIMTOH
 70
     0
  9
$DIMSE1
 70
     0
  9
$DIMSE2
 70
     0
  9
$DIMTAD
 70
     1
  9
$DIMZIN
 70
     8
  9
$DIMBLK
  1

  9
$DIMASO
 70
     1
  9
$DIMSHO
 70
     1
  9
$DIMPOST
  1

  9
$DIMAPOST
  1
"
  9
$DIMALT
 70
     0
  9
$DIMALTD
 70
     2
  9
$DIMALTF
 40
0.0393701
  9
$DIMLFAC
 40
1.0
  9
$DIMTOFL
 70
     1
  9
$DIMTVP
 40
0.0
  9
$DIMTIX
 70
     0
  9
$DIMSOXD
 70
     0
  9
$DIMSAH
 70
     0
  9
$DIMBLK1
  1

  9
$DIMBLK2
  1

  9
$DIMSTYLE
  2
AM_ISO
  9
$DIMCLRD
 70
   256
  9
$DIMCLRE
 70
   256
  9
$DIMCLRT
 70
   256
  9
$DIMTFAC
 40
0.6
  9
$DIMGAP
 40
1.0
  9
$DIMJUST
 70
     0
  9
$DIMSD1
 70
     0
  9
$DIMSD2
 70
     0
  9
$DIMTOLJ
 70
     0
  9
$DIMTZIN
 70
     8
  9
$DIMALTZ
 70
     0
  9
$DIMALTTZ
 70
     0
  9
$DIMUPT
 70
     0
  9
$DIMDEC
 70
     2
  9
$DIMTDEC
 70
     8
  9
$DIMALTU
 70
     2
  9
$DIMALTTD
 70
     2
  9
$DIMTXSTY
  7
STANDARD
  9
$DIMAUNIT
 70
     0
  9
$DIMADEC
 70
     0
  9
$DIMALTRND
 40
0.0
  9
$DIMAZIN
 70
     2
  9
$DIMDSEP
 70
    46
  9
$DIMATFIT
 70
     3
  9
$DIMFRAC
 70
     0
  9
$DIMLDRBLK
  1

  9
$DIMLUNIT
 70
     2
  9
$DIMLWD
 70
    -1
  9
$DIMLWE
 70
    -1
  9
$DIMTMOVE
 70
     0
  9
$LUNITS
 70
     2
  9
$LUPREC
 70
     2
  9
$SKETCHINC
 40
1.0
  9
$FILLETRAD
 40
2.5
  9
$AUNITS
 70
     0
  9
$AUPREC
 70
     0
  9
$MENU
  1
.
  9
$ELEVATION
 40
0.0
  9
$PELEVATION
 40
0.0
  9
$THICKNESS
 40
0.0
  9
$LIMCHECK
 70
     0
  9
$CHAMFERA
 40
3.0
  9
$CHAMFERB
 40
3.0
  9
$CHAMFERC
 40
20.0
  9
$CHAMFERD
 40
0.0
  9
$SKPOLY
 70
     0
  9
$TDCREATE
 40
2453809.488480533
  9
$TDUCREATE
 40
2453809.155147199
  9
$TDUPDATE
 40
2453815.443768982
  9
$TDUUPDATE
 40
2453815.110435648
  9
$TDINDWG
 40
0.2843290741
  9
$TDUSRTIMER
 40
0.2843290741
  9
$USRTIMER
 70
     1
  9
$ANGBASE
 50
0.0
  9
$ANGDIR
 70
     0
  9
$PDMODE
 70
     0
  9
$PDSIZE
 40
0.0
  9
$PLINEWID
 40
0.0
  9
$SPLFRAME
 70
     0
  9
$SPLINETYPE
 70
     6
  9
$SPLINESEGS
 70
     8
  9
$HANDSEED
  5
336D
  9
$SURFTAB1
 70
     6
  9
$SURFTAB2
 70
     6
  9
$SURFTYPE
 70
     6
  9
$SURFU
 70
     6
  9
$SURFV
 70
     6
  9
$UCSBASE
  2

  9
$UCSNAME
  2

  9
$UCSORG
 10
0.0
 20
0.0
 30
0.0
  9
$UCSXDIR
 10
1.0
 20
0.0
 30
0.0
  9
$UCSYDIR
 10
0.0
 20
1.0
 30
0.0
  9
$UCSORTHOREF
  2

  9
$UCSORTHOVIEW
 70
     0
  9
$UCSORGTOP
 10
0.0
 20
0.0
 30
0.0
  9
$UCSORGBOTTOM
 10
0.0
 20
0.0
 30
0.0
  9
$UCSORGLEFT
 10
0.0
 20
0.0
 30
0.0
  9
$UCSORGRIGHT
 10
0.0
 20
0.0
 30
0.0
  9
$UCSORGFRONT
 10
0.0
 20
0.0
 30
0.0
  9
$UCSORGBACK
 10
0.0
 20
0.0
 30
0.0
  9
$PUCSBASE
  2

  9
$PUCSNAME
  2

  9
$PUCSORG
 10
0.0
 20
0.0
 30
0.0
  9
$PUCSXDIR
 10
1.0
 20
0.0
 30
0.0
  9
$PUCSYDIR
 10
0.0
 20
1.0
 30
0.0
  9
$PUCSORTHOREF
  2

  9
$PUCSORTHOVIEW
 70
     0
  9
$PUCSORGTOP
 10
0.0
 20
0.0
 30
0.0
  9
$PUCSORGBOTTOM
 10
0.0
 20
0.0
 30
0.0
  9
$PUCSORGLEFT
 10
0.0
 20
0.0
 30
0.0
  9
$PUCSORGRIGHT
 10
0.0
 20
0.0
 30
0.0
  9
$PUCSORGFRONT
 10
0.0
 20
0.0
 30
0.0
  9
$PUCSORGBACK
 10
0.0
 20
0.0
 30
0.0
  9
$USERI1
 70
     0
  9
$USERI2
 70
     0
  9
$USERI3
 70
     0
  9
$USERI4
 70
     0
  9
$USERI5
 70
     0
  9
$USERR1
 40
0.0
  9
$USERR2
 40
0.0
  9
$USERR3
 40
0.0
  9
$USERR4
 40
0.0
  9
$USERR5
 40
0.0
  9
$WORLDVIEW
 70
     1
  9
$SHADEDGE
 70
     3
  9
$SHADEDIF
 70
    70
  9
$TILEMODE
 70
     1
  9
$MAXACTVP
 70
    64
  9
$PINSBASE
 10
0.0
 20
0.0
 30
0.0
  9
$PLIMCHECK
 70
     0
  9
$PEXTMIN
 10
1.000000000000000E+20
 20
1.000000000000000E+20
 30
1.000000000000000E+20
  9
$PEXTMAX
 10
-1.000000000000000E+20
 20
-1.000000000000000E+20
 30
-1.000000000000000E+20
  9
$PLIMMIN
 10
0.0
 20
0.0
  9
$PLIMMAX
 10
420.0
 20
297.0
  9
$UNITMODE
 70
     0
  9
$VISRETAIN
 70
     1
  9
$PLINEGEN
 70
     0
  9
$PSLTSCALE
 70
     1
  9
$TREEDEPTH
 70
  3020
  9
$CMLSTYLE
  2
Standard
  9
$CMLJUST
 70
     0
  9
$CMLSCALE
 40
20.0
  9
$PROXYGRAPHICS
 70
     1
  9
$MEASUREMENT
 70
     1
  9
$CELWEIGHT
370
    -1
  9
$ENDCAPS
280
     0
  9
$JOINSTYLE
280
     0
  9
$LWDISPLAY
290
     0
  9
$INSUNITS
 70
     4
  9
$HYPERLINKBASE
  1

  9
$STYLESHEET
  1
彩色出圖.ctb
  9
$XEDIT
290
     1
  9
$CEPSNTYPE
380
     0
  9
$PSTYLEMODE
290
     1
  9
$FINGERPRINTGUID
  2
{5D7CF7E5-09B4-4001-B38A-9C16224019A8}
  9
$VERSIONGUID
  2
{BD611755-CD30-4851-92D9-2EAD68A3E45F}
  9
$EXTNAMES
290
     1
  9
$PSVPSCALE
 40
0.0
  9
$OLESTARTUP
290
     0
  0
ENDSEC
  0
SECTION
  2
CLASSES
  0
CLASS
  1
ACDBDICTIONARYWDFLT
  2
AcDbDictionaryWithDefault
  3
ObjectDBX Classes
 90
        0
280
     0
281
     0
  0
CLASS
  1
ACDBPLACEHOLDER
  2
AcDbPlaceHolder
  3
ObjectDBX Classes
 90
        0
280
     0
281
     0
  0
CLASS
  1
LAYOUT
  2
AcDbLayout
  3
ObjectDBX Classes
 90
        0
280
     0
281
     0
  0
CLASS
  1
ACME_DOCUMENT
  2
AcMeDbDoc
  3
AcMeServices
 90
        0
280
     0
281
     0
  0
CLASS
  1
AMGSETTINGSOBJ
  2
AmgSettingsObj
  3
"AcadM|Product Description: AutoCAD Mechanical 2000|Company: Autodesk"
 90
        0
280
     0
281
     0
  0
CLASS
  1
ACMESCOPE
  2
AcMeScope
  3
AcMeServices
 90
        0
280
     0
281
     0
  0
CLASS
  1
ACMECOMMANDHISTORY
  2
AcMeCommandHistory
  3
AcMeServices
 90
        0
280
     0
281
     0
  0
CLASS
  1
ACIMSYSVARMAN
  2
AcImSysVarManager
  3
AcMeServices
 90
        0
280
     0
281
     0
  0
CLASS
  1
ACIMREALSYSVAR
  2
AcImRealSysVar
  3
AcMeServices
 90
        0
280
     0
281
     0
  0
CLASS
  1
ACIMINTSYSVAR
  2
AcImIntSysVar
  3
AcMeServices
 90
        0
280
     0
281
     0
  0
CLASS
  1
ACMEDRAWINGMAN
  2
AcMeDrawingMan
  3
AcMeServices
 90
        0
280
     0
281
     0
  0
CLASS
  1
ACMEVIEW
  2
AcMeView
  3
AcMeServices
 90
        0
280
     0
281
     0
  0
CLASS
  1
ACDBENTITYCACHE
  2
AcMeEntityCache
  3
AcMeServices
 90
        0
280
     0
281
     0
  0
CLASS
  1
GSMANAGER
  2
AcMeGSManager
  3
AcMeServices
 90
        0
280
     0
281
     0
  0
CLASS
  1
AMDTINTERNALREACTOR
  2
AmdtInternalReactor
  3
AcMeServices
 90
        0
280
     0
281
     0
  0
CLASS
  1
ACMESTATEMGR
  2
AcMeStateMgr
  3
AcMeServices
 90
        0
280
     0
281
     0
  0
CLASS
  1
ACGREFMASTER
  2
AcGrefMaster
  3
AcAttribServices
 90
        0
280
     0
281
     0
  0
CLASS
  1
ACME_DATABASE
  2
AcMeDbDatabase
  3
AcMeServices
 90
        0
280
     0
281
     0
  0
CLASS
  1
ACRFINSADJUSTERMGR
  2
AcRfInsAdjusterMgr
  3
AcMeServices
 90
        0
280
     0
281
     0
  0
CLASS
  1
ACGREFACADMASTER
  2
AcGrefacadMaster
  3
AcGrefServices
 90
        0
280
     0
281
     0
  0
CLASS
  1
AMIMASTER
  2
AmiMaster
  3
AmiServices
 90
        0
280
     0
281
     0
  0
CLASS
  1
ACMDATADICTIONARY
  2
AcmDataDictionary
  3
"AcmSymBB|Product Description: AutoCAD Mechanical 2004 DX|Company: Autodesk"
 90
        0
280
     0
281
     0
  0
CLASS
  1
ACMDATAENTRYBLOCK
  2
AcmDataEntryBlock
  3
"AcmSymBB|Product Description: AutoCAD Mechanical 2004 DX|Company: Autodesk"
 90
        0
280
     0
281
     0
  0
CLASS
  1
ACIMSTRSYSVAR
  2
AcImStrSysVar
  3
AcMeServices
 90
        0
280
     0
281
     0
  0
CLASS
  1
ACMSTANDARDISO
  2
AcmStandardISO
  3
"Amdt_StdImp|Product Description: AutoCAD Mechanical 2004 DX|Company: Autodesk"
 90
        0
280
     0
281
     0
  0
CLASS
  1
AMGOBJPROPCFG
  2
AmgObjPropCfg
  3
"AmgLay|Product Description: AutoCAD Mechanical 2000|Company: Autodesk"
 90
        1
280
     0
281
     0
  0
CLASS
  1
AMDTEDGESTANDARDISO
  2
AmdtEdgeStdISO
  3
"Amdt_StdImp|Product Description: AutoCAD Mechanical 2004 DX|Company: Autodesk"
 90
        0
280
     0
281
     0
  0
CLASS
  1
ACMSURFSTANDARDISO
  2
AcmSurfTextStdISO
  3
"Amdt_StdImp|Product Description: AutoCAD Mechanical 2004 DX|Company: Autodesk"
 90
        0
280
     0
281
     0
  0
CLASS
  1
ACMFCFSTANDARDISO
  2
AcmFCFStdISO
  3
"Amdt_StdImp|Product Description: AutoCAD Mechanical 2004 DX|Company: Autodesk"
 90
        0
280
     0
281
     0
  0
CLASS
  1
ACMWELDSTANDARDISO
  2
AcmWeldingStdISO
  3
"Amdt_StdImp|Product Description: AutoCAD Mechanical 2004 DX|Company: Autodesk"
 90
        0
280
     0
281
     0
  0
CLASS
  1
ACMIDSTANDARDISO
  2
AcmIdStdISO
  3
"Amdt_StdImp|Product Description: AutoCAD Mechanical 2004 DX|Company: Autodesk"
 90
        0
280
     0
281
     0
  0
CLASS
  1
ACMDATUMSTANDARDISO
  2
AcmDatumStdISO
  3
"Amdt_StdImp|Product Description: AutoCAD Mechanical 2004 DX|Company: Autodesk"
 90
        0
280
     0
281
     0
  0
CLASS
  1
ACMBOMSTANDARDISO
  2
AcmBOMStdISO
  3
"Amdt_StdImp|Product Description: AutoCAD Mechanical 2004 DX|Company: Autodesk"
 90
        0
280
     0
281
     0
  0
CLASS
  1
ACMDETAILSTANDARDISO
  2
AmdtDetailSymStdISO
  3
"Amdt_StdImp|Product Description: AutoCAD Mechanical 2004 DX|Company: Autodesk"
 90
        0
280
     0
281
     0
  0
CLASS
  1
ACMSECTIONSTANDARDISO
  2
AmdtSectionSymStdISO
  3
"Amdt_StdImp|Product Description: AutoCAD Mechanical 2004 DX|Company: Autodesk"
 90
        0
280
     0
281
     0
  0
CLASS
  1
ACMCENTERLINESTANDARDISO
  2
AmdtCenterLineStdISO
  3
"Amdt_StdImp|Product Description: AutoCAD Mechanical 2004 DX|Company: Autodesk"
 90
        0
280
     0
281
     0
  0
CLASS
  1
ACMNOTESTANDARDISO
  2
AmdtNoteStdISO
  3
"Amdt_StdImp|Product Description: AutoCAD Mechanical 2004 DX|Company: Autodesk"
 90
        0
280
     0
281
     0
  0
CLASS
  1
ACAMGLAYSTD
  2
AcAmgLayStd
  3
"AcAmgLayStd|Product Description: AutoCAD Mechanical 2000|Company: Autodesk"
 90
        0
280
     0
281
     0
  0
CLASS
  1
ACAMGDIMSTD
  2
AcAmgDimStd
  3
"AcAmgDimStd|Product Description: AutoCAD Mechanical 2000|Company: Autodesk"
 90
        0
280
     0
281
     0
  0
CLASS
  1
ACAMGHOLECHARTSTDISO
  2
AcAmgHoleChartStdISO
  3
ACMSYMBB_MODULE_NAME
 90
        0
280
     0
281
     0
  0
CLASS
  1
ACAMGTITLESTD
  2
AcAmgTitleStd
  3
"TITLEAPP"
 90
        0
280
     0
281
     0
  0
CLASS
  1
LAYER_INDEX
  2
AcDbLayerIndex
  3
ObjectDBX Classes
 90
    32768
280
     0
281
     0
  0
CLASS
  1
IDBUFFER
  2
AcDbIdBuffer
  3
ObjectDBX Classes
 90
    32768
280
     0
281
     0
  0
CLASS
  1
DICTIONARYVAR
  2
AcDbDictionaryVar
  3
ObjectDBX Classes
 90
        0
280
     0
281
     0
  0
CLASS
  1
AM_DRAWING_MGR
  2
AcDmDwgMgr
  3
AcMechDwgViewMgmt
 90
        0
280
     0
281
     0
  0
CLASS
  1
AM_DWG_DOCUMENT
  2
AcDmDwgDocument
  3
AcMechDwgViewMgmt
 90
        0
280
     0
281
     0
  0
CLASS
  1
AM_DWG_SHEET
  2
AcDmSheet
  3
AcMechDwgViewMgmt
 90
        0
280
     0
281
     0
  0
CLASS
  1
AM_VIEWDIMPARMAP
  2
AcDmViewDimParMap
  3
AcMechDwgViewMgmt
 90
        0
280
     0
281
     0
  0
CLASS
  1
AM_DWGMGR_NAME
  2
AcDmDwgMgrName
  3
AcMechDwgViewMgmt
 90
        0
280
     0
281
     0
  0
CLASS
  1
AMDTMENUSTATEMGR
  2
AmdtMenuStateMgr
  3
McadcomServices
 90
        0
280
     0
281
     0
  0
CLASS
  1
AMDTMCOMMENUSTATE
  2
AmdtMcomMenuState
  3
McadcomServices
 90
        0
280
     0
281
     0
  0
CLASS
  1
MAPIAMMOUDLE
  2
MApiAmModule
  3
MApiAmServices
 90
        0
280
     0
281
     0
  0
CLASS
  1
AMDTADMENUSTATE
  2
AmdtAdMenuState
  3
DesignerServices
 90
        0
280
     0
281
     0
  0
CLASS
  1
ADAPPL
  2
AcAdAppl
  3
DesignerServices
 90
        0
280
     0
281
     0
  0
CLASS
  1
DEPMGR
  2
AcAdDepMgr
  3
DesignerServices
 90
        0
280
     0
281
     0
  0
CLASS
  1
PARAMMGR
  2
AcAdParamMgr
  3
DesignerServices
 90
        0
280
     0
281
     0
  0
CLASS
  1
PARAMSCOPE
  2
AcAdParamScope
  3
DesignerServices
 90
        0
280
     0
281
     0
  0
CLASS
  1
NAMEDAPPL
  2
AcAdNamedAppl
  3
DesignerServices
 90
        0
280
     0
281
     0
  0
CLASS
  1
AMDTDMMENUSTATE
  2
AmdtDmMenuState
  3
AcMechDwgViewMgmt
 90
        0
280
     0
281
     0
  0
CLASS
  1
AMDTAMMENUSTATE
  2
AmdtAmMenuState
  3
DesignerAssemblies
 90
        0
280
     0
281
     0
  0
CLASS
  1
ACAMPROJECT
  2
AcAmProject
  3
DesignerAssemblies
 90
        0
280
     0
281
     0
  0
CLASS
  1
ACAMGRCOMPDEF
  2
AcAmGrCompDef
  3
DesignerAssemblies
 90
        0
280
     0
281
     0
  0
CLASS
  1
ACCMCONTEXT
  2
AcCmContext
  3
DesignerAssemblies
 90
        0
280
     0
281
     0
  0
CLASS
  1
ACAMCOMPDEF
  2
AcAmCompDef
  3
DesignerAssemblies
 90
        0
280
     0
281
     0
  0
CLASS
  1
ACAMCOMPDEFMGR
  2
AcAmCompDefMgr
  3
DesignerAssemblies
 90
        0
280
     0
281
     0
  0
CLASS
  1
AMCONTEXTMGR
  2
AcAmContextMgr
  3
DesignerAssemblies
 90
        0
280
     0
281
     0
  0
CLASS
  1
ACAMCONTEXTMODELER
  2
AcAmContextModeler
  3
DesignerAssemblies
 90
        0
280
     0
281
     0
  0
CLASS
  1
ACMTHREADLINESTANDARDISO
  2
AmdtThreadLineStdISO
  3
"Amdt_StdImp|Product Description: AutoCAD Mechanical 2004 DX|Company: Autodesk"
 90
        0
280
     0
281
     0
  0
CLASS
  1
CATALOGSTATE
  2
AcAmCatalogState
  3
DesignerAssemblies
 90
        0
280
     0
281
     0
  0
CLASS
  1
ACAMGRCOMPDEFSET
  2
AcAmGrCompDefSet
  3
DesignerAssemblies
 90
        0
280
     0
281
     0
  0
CLASS
  1
AMDTBROWSERDBTAB
  2
AmdtBrowserDbTab
  3
McadcomServices
 90
        0
280
     0
281
     0
  0
CLASS
  1
CBROWSERAPPOBJECT
  2
CBrowserAppObject
  3
McadcomServices
 90
        0
280
     0
281
     0
  0
CLASS
  1
DM_PLACEHOLDER
  2
AcDmSelsetPlaceholder
  3
AcMechDwgViewMgmt
 90
        0
280
     0
281
     0
  0
CLASS
  1
TABLESTYLE
  2
AcDbTableStyle
  3
ObjectDBX Classes
 90
     2047
280
     0
281
     0
  0
CLASS
  1
VAACXREFPANELOBJECT
  2
VaAcXREFPanelObject
  3
VAAC_ADDIN
 90
    32768
280
     0
281
     0
  0
CLASS
  1
VAACIMAGEINVENTORY
  2
VaAcImageInventory
  3
VAAC_ADDIN
 90
    32768
280
     0
281
     0
  0
CLASS
  1
AMDTNOTETEMPLATEDB
  2
AmdtNoteTemplateDB
  3
AMDT_STDIMP_MODULE_NAME
 90
        0
280
     0
281
     0
  0
CLASS
  1
ACMBOM
  2
AcmBom
  3
"AcmSymBB|Product Description: AutoCAD Mechanical 2004 DX|Company: Autodesk"
 90
    32768
280
     0
281
     0
  0
CLASS
  1
AMDTFORMULAUPDATEDISPATCHER
  2
AmdtFormulaUpdateDispatcher
  3
AcMeServices
 90
    32768
280
     0
281
     0
  0
CLASS
  1
ACMPARTLIST
  2
AcmPartList
  3
"AcmSymBB|Product Description: AutoCAD Mechanical 2004 DX|Company: Autodesk"
 90
    33791
280
     0
281
     1
  0
CLASS
  1
ACAMGFILTERDAT
  2
AcAmgFilterDat
  3
"AcadM|Product Description: AutoCAD Mechanical 2000|Company: Autodesk"
 90
        0
280
     0
281
     0
  0
CLASS
  1
DIMASSOC
  2
AcDbDimAssoc
  3
"AcDbDimAssoc|Product Desc:     AcDim ARX App For Dimension|Company:          Autodesk, Inc.|WEB Address:      www.autodesk.com"
 90
    32768
280
     0
281
     0
  0
CLASS
  1
STDPART2D
  2
AmgStdPart
  3
"AmgStdPart|Product Description: AutoCAD Mechanical 2000|Company: Autodesk"
 90
    33791
280
     0
281
     1
  0
CLASS
  1
ACAMSTDPCOMPDEF
  2
AcAmStdpCompDef
  3
DesignerAssemblies
 90
    32768
280
     0
281
     0
  0
CLASS
  1
ACRFATTGENMGR
  2
AcRfAttGeneralMgr
  3
AcAttribServices
 90
        0
280
     0
281
     0
  0
CLASS
  1
ACRFOBJATTMGR
  2
AcRfObjAttGroupMgr
  3
AcAttribServices
 90
    32768
280
     0
281
     0
  0
CLASS
  1
ACRFMCADAPIATTHOLDER
  2
AcRfMCADAPIAttHolder
  3
AcAttribServices
 90
    32768
280
     0
281
     0
  0
CLASS
  1
AMDTSYSATTR
  2
AmdtSystemAttribute
  3
AcAttribServices
 90
    32768
280
     0
281
     0
  0
CLASS
  1
ACAMCOMP
  2
AcAmComp
  3
DesignerAssemblies
 90
    32768
280
     0
281
     0
  0
CLASS
  1
AC_AM_STDP_VIEW_DEF
  2
AcAmStdpViewDef
  3
DesignerAssemblies
 90
    32768
280
     0
281
     0
  0
CLASS
  1
AC_AM_MVD_DEP_MGR
  2
AcAmMVDdepMgr
  3
DesignerAssemblies
 90
        0
280
     0
281
     0
  0
CLASS
  1
AC_AM_MASTER_VIEW_DEF
  2
AcAmMasterViewDef
  3
DesignerAssemblies
 90
        0
280
     0
281
     0
  0
CLASS
  1
AC_AM_DIRTY_NODES
  2
AcAmDirtyNodes
  3
DesignerAssemblies
 90
        0
280
     0
281
     0
  0
CLASS
  1
AC_AM_MAPPER_CACHE
  2
AcAmMapperCache
  3
DesignerAssemblies
 90
        0
280
     0
281
     0
  0
CLASS
  1
ACAMMVDBACKUPOBJECT
  2
AcAmMVDBackupObject
  3
DesignerAssemblies
 90
        0
280
     0
281
     0
  0
CLASS
  1
AC_AM_COMP_VIEW_INST
  2
AcAmCompView
  3
DesignerAssemblies
 90
    32768
280
     0
281
     0
  0
CLASS
  1
AC_AM_2D_XREF_MGR
  2
AcAmXrefMgr2d
  3
DesignerAssemblies
 90
        0
280
     0
281
     0
  0
CLASS
  1
SORTENTSTABLE
  2
AcDbSortentsTable
  3
ObjectDBX Classes
 90
        0
280
     0
281
     0
  0
CLASS
  1
AMDTNOTE
  2
AmdtNote
  3
"AcmSymBB|Product Description: AutoCAD Mechanical 2004 DX|Company: Autodesk"
 90
     1023
280
     0
281
     1
  0
ENDSEC
  0
SECTION
  2
TABLES
  0
TABLE
  2
VPORT
  5
8
330
0
100
AcDbSymbolTable
 70
     3
  0
VPORT
  5
3364
330
8
100
AcDbSymbolTableRecord
100
AcDbViewportTableRecord
  2
*Active
 70
     0
 10
0.0
 20
0.0
 11
1.0
 21
1.0
 12
3125.343375699872
 22
1565.862621410159
 13
0.0
 23
0.0
 14
2.5
 24
2.5
 15
10.0
 25
10.0
 16
0.0
 26
0.0
 36
1.0
 17
0.0
 27
0.0
 37
0.0
 40
181.6810110833708
 41
1.81766917293233
 42
50.0
 43
0.0
 44
0.0
 50
0.0
 51
0.0
 71
     0
 72
   100
 73
     1
 74
     3
 75
     0
 76
     0
 77
     0
 78
     0
281
     0
 65
     1
110
0.0
120
0.0
130
0.0
111
1.0
121
0.0
131
0.0
112
0.0
122
1.0
132
0.0
 79
     0
146
0.0
  0
ENDTAB
  0
TABLE
  2
LTYPE
  5
5
330
0
100
AcDbSymbolTable
 70
    14
  0
LTYPE
  5
14
330
5
100
AcDbSymbolTableRecord
100
AcDbLinetypeTableRecord
  2
ByBlock
 70
     0
  3

 72
    65
 73
     0
 40
0.0
  0
LTYPE
  5
15
330
5
100
AcDbSymbolTableRecord
100
AcDbLinetypeTableRecord
  2
ByLayer
 70
     0
  3

 72
    65
 73
     0
 40
0.0
  0
LTYPE
  5
16
330
5
100
AcDbSymbolTableRecord
100
AcDbLinetypeTableRecord
  2
Continuous
 70
     0
  3
Solid line
 72
    65
 73
     0
 40
0.0
  0
LTYPE
  5
64
330
5
100
AcDbSymbolTableRecord
100
AcDbLinetypeTableRecord
  2
AM_ISO02W050
 70
     0
  3
__ __ __ __ __ __ __ __ __ __ __ __ __ __ __
 72
    65
 73
     2
 40
7.5
 49
6.0
 74
     0
 49
-1.5
 74
     0
  0
LTYPE
  5
65
330
5
100
AcDbSymbolTableRecord
100
AcDbLinetypeTableRecord
  2
AM_ISO08W050
 70
     0
  3
____ . ____ . ____ . ____ . ____ . ____ . ____
 72
    65
 73
     4
 40
18.0
 49
12.0
 74
     0
 49
-1.5
 74
     0
 49
3.0
 74
     0
 49
-1.5
 74
     0
  0
LTYPE
  5
66
330
5
100
AcDbSymbolTableRecord
100
AcDbLinetypeTableRecord
  2
AM_ISO09W050
 70
     0
  3
_____ . . _____ . . _____ . . ____ .. ____
 72
    65
 73
     6
 40
22.5
 49
12.0
 74
     0
 49
-1.5
 74
     0
 49
3.0
 74
     0
 49
-1.5
 74
     0
 49
3.0
 74
     0
 49
-1.5
 74
     0
  0
LTYPE
  5
67
330
5
100
AcDbSymbolTableRecord
100
AcDbLinetypeTableRecord
  2
Amconstr
 70
     0
  3
_______________________
 72
    65
 73
     2
 40
9999.0
 49
9999.0
 74
     0
 49
0.0
 74
     0
  0
LTYPE
  5
68
330
5
100
AcDbSymbolTableRecord
100
AcDbLinetypeTableRecord
  2
AM_ISO08W050x2
 70
     0
  3
__ . __ . __ . __ . __ . __
 72
    65
 73
     4
 40
9.0
 49
6.0
 74
     0
 49
-0.75
 74
     0
 49
1.5
 74
     0
 49
-0.75
 74
     0
  0
LTYPE
  5
69
330
5
100
AcDbSymbolTableRecord
100
AcDbLinetypeTableRecord
  2
AM_ISO02W050x2
 70
     0
  3
 _ _ _ _ _ _ _ _ _ _ _ _
 72
    65
 73
     2
 40
3.75
 49
3.0
 74
     0
 49
-0.75
 74
     0
  0
LTYPE
  5
6C
330
5
100
AcDbSymbolTableRecord
100
AcDbLinetypeTableRecord
  2
Amzigzag
 70
     0
  3
/\/-/\/-/\/-/\/-/\/-/\/
 72
    65
 73
     2
 40
11.0001
 49
0.0001
 74
     4
 75
   135
340
6B
 46
0.04
 50
0.0
 44
0.0
 45
0.0
 49
-11.0
 74
     0
  0
LTYPE
  5
7A
330
5
100
AcDbSymbolTableRecord
100
AcDbLinetypeTableRecord
  2
ACISOWELD
 70
     0
  3
_ _ _ _ _
 72
    65
 73
     2
 40
2.0
 49
2.0
 74
     0
 49
-1.0
 74
     0
  0
LTYPE
  5
7B
330
5
100
AcDbSymbolTableRecord
100
AcDbLinetypeTableRecord
  2
ACISOTGB
 70
     0
  3
__ . . __ . .
 72
    65
 73
     6
 40
9.0
 49
4.0
 74
     0
 49
-1.0
 74
     0
 49
1.0
 74
     0
 49
-1.0
 74
     0
 49
1.0
 74
     0
 49
-1.0
 74
     0
  0
LTYPE
  5
7C
330
5
100
AcDbSymbolTableRecord
100
AcDbLinetypeTableRecord
  2
ACISOTGL
 70
     0
  3
_ _ _ _ _
 72
    65
 73
     2
 40
3.0
 49
2.0
 74
     0
 49
-1.0
 74
     0
  0
LTYPE
  5
7E
330
5
100
AcDbSymbolTableRecord
100
AcDbLinetypeTableRecord
  2
CENTER
 70
     0
  3
__ . __
 72
    65
 73
     4
 40
7.0
 49
4.0
 74
     0
 49
-1.0
 74
     0
 49
1.0
 74
     0
 49
-1.0
 74
     0
  0
LTYPE
  5
D8
330
5
100
AcDbSymbolTableRecord
100
AcDbLinetypeTableRecord
  2
HIDDEN
 70
     0
  3
Hidden __ __ __ __ __ __ __ __ __ __ __ __ __ _
 72
    65
 73
     2
 40
9.524999999999998
 49
6.349999999999999
 74
     0
 49
-3.174999999999999
 74
     0
  0
LTYPE
  5
D9
330
5
100
AcDbSymbolTableRecord
100
AcDbLinetypeTableRecord
  2
PHANTOM2
 70
     0
  3
Phantom (.5x) ___ _ _ ___ _ _ ___ _ _ ___ _ _
 72
    65
 73
     6
 40
31.75
 49
15.875
 74
     0
 49
-3.174999999999999
 74
     0
 49
3.174999999999999
 74
     0
 49
-3.174999999999999
 74
     0
 49
3.174999999999999
 74
     0
 49
-3.174999999999999
 74
     0
  0
ENDTAB
  0
TABLE
  2
LAYER
  5
2
102
{ACAD_XDICTIONARY
360
3F9
102
}
330
0
100
AcDbSymbolTable
 70
     8
  0
LAYER
  5
10
330
2
100
AcDbSymbolTableRecord
100
AcDbLayerTableRecord
  2
0
 70
     0
 62
     7
  6
Continuous
370
    -3
390
F
  0
LAYER
  5
812
330
2
100
AcDbSymbolTableRecord
100
AcDbLayerTableRecord
  2
AM_VIS
 70
     0
 62
     7
  6
Continuous
370
    50
390
F
  0
LAYER
  5
813
330
2
100
AcDbSymbolTableRecord
100
AcDbLayerTableRecord
  2
AM_4
 70
     0
 62
     3
  6
Continuous
370
    25
390
F
  0
LAYER
  5
BD2
330
2
100
AcDbSymbolTableRecord
100
AcDbLayerTableRecord
  2
AM_0
 70
     0
 62
     7
  6
Continuous
370
    50
390
F
  0
LAYER
  5
BF8
330
2
100
AcDbSymbolTableRecord
100
AcDbLayerTableRecord
  2
AM_7
 70
     0
 62
     1
  6
CENTER
370
    25
390
F
  0
LAYER
  5
C53
330
2
100
AcDbSymbolTableRecord
100
AcDbLayerTableRecord
  2
AM_5
 70
     0
 62
     5
  6
Continuous
370
    50
390
F
  0
LAYER
  5
D49
330
2
100
AcDbSymbolTableRecord
100
AcDbLayerTableRecord
  2
Defpoints
 70
     0
 62
     7
  6
Continuous
290
     0
370
    -3
390
F
  0
LAYER
  5
150C
330
2
100
AcDbSymbolTableRecord
100
AcDbLayerTableRecord
  2
LOGO
 70
     0
 62
     7
  6
Continuous
370
    -3
390
F
  0
ENDTAB
  0
TABLE
  2
STYLE
  5
3
330
0
100
AcDbSymbolTable
 70
     7
  0
STYLE
  5
11
330
3
100
AcDbSymbolTableRecord
100
AcDbTextStyleTableRecord
  2
STANDARD
 70
     0
 40
0.0
 41
1.0
 50
0.0
 71
     0
 42
3.0
  3
ISOCP.SHX
  4
CHINESET.SHX
  0
STYLE
  5
6B
330
3
100
AcDbSymbolTableRecord
100
AcDbTextStyleTableRecord
  2

 70
     1
 40
0.0
 41
1.0
 50
0.0
 71
     0
 42
2.5
  3
ltypeshp.shx
  4

  0
STYLE
  5
6D
330
3
100
AcDbSymbolTableRecord
100
AcDbTextStyleTableRecord
  2
ACISOTS
 70
     0
 40
1.0
 41
1.0
 50
0.0
 71
     0
 42
1.0
  3
isocp.shx
  4
chineset.shx
  0
STYLE
  5
79
330
3
100
AcDbSymbolTableRecord
100
AcDbTextStyleTableRecord
  2
ACISOGDT
 70
     0
 40
0.0
 41
1.0
 50
0.0
 71
     0
 42
2.5
  3
amgdt.shx
  4
chineset.shx
  0
STYLE
  5
60C
330
3
100
AcDbSymbolTableRecord
100
AcDbTextStyleTableRecord
  2
CHINESET
 70
     0
 40
0.0
 41
1.0
 50
0.0
 71
     0
 42
3.0
  3
simplex.shx
  4
CHINESET.SHX
  0
ENDTAB
  0
TABLE
  2
VIEW
  5
6
330
0
100
AcDbSymbolTable
 70
     0
  0
ENDTAB
  0
TABLE
  2
UCS
  5
7
330
0
100
AcDbSymbolTable
 70
     0
  0
ENDTAB
  0
TABLE
  2
APPID
  5
9
330
0
100
AcDbSymbolTable
 70
    34
  0
APPID
  5
12
330
9
100
AcDbSymbolTableRecord
100
AcDbRegAppTableRecord
  2
ACAD
 70
     0
  0
APPID
  5
46
330
9
100
AcDbSymbolTableRecord
100
AcDbRegAppTableRecord
  2
MCAD_NO_VIS
 70
     0
  0
APPID
  5
47
330
9
100
AcDbSymbolTableRecord
100
AcDbRegAppTableRecord
  2
ACAD_TEMP_GRAPHIC
 70
     0
  0
APPID
  5
58
330
9
100
AcDbSymbolTableRecord
100
AcDbRegAppTableRecord
  2
ACATTRIBSERVICES
 70
     0
  0
APPID
  5
EE
330
9
100
AcDbSymbolTableRecord
100
AcDbRegAppTableRecord
  2
AD_DRAW
 70
     0
  0
APPID
  5
10C
330
9
100
AcDbSymbolTableRecord
100
AcDbRegAppTableRecord
  2
DESIGNERASSEMBLIES
 70
     0
  0
APPID
  5
111
330
9
100
AcDbSymbolTableRecord
100
AcDbRegAppTableRecord
  2
ACADM_DIM_EDIT
 70
     0
  0
APPID
  5
112
330
9
100
AcDbSymbolTableRecord
100
AcDbRegAppTableRecord
  2
AMDT_DM_ADJ
 70
     0
  0
APPID
  5
22C
330
9
100
AcDbSymbolTableRecord
100
AcDbRegAppTableRecord
  2
ACAD_DSTYLE_DIMTEXT_FILL
 70
     0
  0
APPID
  5
452
330
9
100
AcDbSymbolTableRecord
100
AcDbRegAppTableRecord
  2
GENIUS_GENOENT_13
 70
     0
  0
APPID
  5
453
330
9
100
AcDbSymbolTableRecord
100
AcDbRegAppTableRecord
  2
GENIUS_GENOBJ-N-CRS_13
 70
     0
  0
APPID
  5
454
330
9
100
AcDbSymbolTableRecord
100
AcDbRegAppTableRecord
  2
GENIUS_GENOLIS_13
 70
     0
  0
APPID
  5
455
330
9
100
AcDbSymbolTableRecord
100
AcDbRegAppTableRecord
  2
GENIUS_GENODEF_13
 70
     0
  0
APPID
  5
456
330
9
100
AcDbSymbolTableRecord
100
AcDbRegAppTableRecord
  2
GENIUS_GENOREF_13
 70
     0
  0
APPID
  5
6F3
330
9
100
AcDbSymbolTableRecord
100
AcDbRegAppTableRecord
  2
ACAD_PSEXT
 70
     0
  0
APPID
  5
782
330
9
100
AcDbSymbolTableRecord
100
AcDbRegAppTableRecord
  2
GENIUS_GENDTOL_13
 70
     0
  0
APPID
  5
BD9
330
9
100
AcDbSymbolTableRecord
100
AcDbRegAppTableRecord
  2
GEVID1142294916
 70
     0
  0
APPID
  5
BDA
330
9
100
AcDbSymbolTableRecord
100
AcDbRegAppTableRecord
  2
GEVDC
 70
     0
  0
APPID
  5
BDB
330
9
100
AcDbSymbolTableRecord
100
AcDbRegAppTableRecord
  2
GEVRADREF
 70
     0
  0
APPID
  5
BE4
330
9
100
AcDbSymbolTableRecord
100
AcDbRegAppTableRecord
  2
AMG_2DHIDE
 70
     0
  0
APPID
  5
BE5
330
9
100
AcDbSymbolTableRecord
100
AcDbRegAppTableRecord
  2
AMG_2DSTRUCT_BTR
 70
     0
  0
APPID
  5
BF6
330
9
100
AcDbSymbolTableRecord
100
AcDbRegAppTableRecord
  2
ACADM_2DVIEW_IGN_NOTIFY
 70
     0
  0
APPID
  5
CAE
330
9
100
AcDbSymbolTableRecord
100
AcDbRegAppTableRecord
  2
GEVID1142294917
 70
     0
  0
APPID
  5
12D3
330
9
100
AcDbSymbolTableRecord
100
AcDbRegAppTableRecord
  2
GENIUS_GENDIMSH_14
 70
     0
  0
APPID
  5
150D
330
9
100
AcDbSymbolTableRecord
100
AcDbRegAppTableRecord
  2
GENIUS_GENREC_14
 70
     0
  0
APPID
  5
150E
330
9
100
AcDbSymbolTableRecord
100
AcDbRegAppTableRecord
  2
GENIUS_GENOBJ-N-REC_13
 70
     0
  0
APPID
  5
1A06
330
9
100
AcDbSymbolTableRecord
100
AcDbRegAppTableRecord
  2
GEVID1142658490
 70
     0
  0
APPID
  5
1A55
330
9
100
AcDbSymbolTableRecord
100
AcDbRegAppTableRecord
  2
GENIUS_GENOBJ-N-CEN_13
 70
     0
  0
APPID
  5
1A56
330
9
100
AcDbSymbolTableRecord
100
AcDbRegAppTableRecord
  2
GENIUS_GENCEN_19
 70
     0
  0
APPID
  5
2311
330
9
100
AcDbSymbolTableRecord
100
AcDbRegAppTableRecord
  2
GEVID1142658491
 70
     0
  0
APPID
  5
2817
330
9
100
AcDbSymbolTableRecord
100
AcDbRegAppTableRecord
  2
GEVID1142813190
 70
     0
  0
APPID
  5
28E5
330
9
100
AcDbSymbolTableRecord
100
AcDbRegAppTableRecord
  2
GEVID1142813191
 70
     0
  0
APPID
  5
2B97
330
9
100
AcDbSymbolTableRecord
100
AcDbRegAppTableRecord
  2
GEVID1142813192
 70
     0
  0
APPID
  5
2C01
330
9
100
AcDbSymbolTableRecord
100
AcDbRegAppTableRecord
  2
GEVID1142813193
 70
     0
  0
ENDTAB
  0
TABLE
  2
DIMSTYLE
  5
A
330
0
100
AcDbSymbolTable
 70
    10
100
AcDbDimStyleTable
 71
     3
340
81
340
8B
340
86
  0
DIMSTYLE
105
81
330
A
100
AcDbSymbolTableRecord
100
AcDbDimStyleTableRecord
  2
AM_ISO
 70
     0
  4
"
 41
3.0
 42
1.0
 43
5.0
 44
1.5
 47
0.1
 48
0.1
 73
     0
 74
     0
 77
     1
 78
     8
 79
     2
140
3.0
141
0.0
143
0.0393701
146
0.6
147
1.0
172
     1
176
   256
177
   256
178
   256
271
     2
272
     2
283
     0
284
     8
340
11
371
    -1
372
    -1
  0
DIMSTYLE
105
82
330
A
100
AcDbSymbolTableRecord
100
AcDbDimStyleTableRecord
  2
AM_ISO$3
 70
     0
  4
"
 41
3.0
 42
1.0
 43
5.0
 44
1.5
 47
0.1
 48
0.1
 73
     0
 77
     1
 78
     8
 79
     2
140
3.0
141
0.0
143
0.0393701
146
0.6
147
1.0
176
   256
177
   256
178
   256
271
     2
272
     2
283
     0
284
     8
288
     1
289
     0
340
11
371
    -1
372
    -1
  0
DIMSTYLE
105
83
330
A
100
AcDbSymbolTableRecord
100
AcDbDimStyleTableRecord
  2
AM_ISO$4
 70
     0
  4
"
 41
3.0
 42
1.0
 43
5.0
 44
1.5
 47
0.1
 48
0.1
 73
     0
 77
     1
 78
     8
 79
     2
140
3.0
141
0.0
143
0.0393701
146
0.6
147
1.0
176
   256
177
   256
178
   256
271
     2
272
     2
283
     0
284
     8
288
     1
289
     0
340
11
371
    -1
372
    -1
  0
DIMSTYLE
105
84
330
A
100
AcDbSymbolTableRecord
100
AcDbDimStyleTableRecord
  2
AM_ISO$6
 70
     0
  4
"
 41
3.0
 42
1.0
 43
5.0
 44
1.5
 47
0.1
 48
0.1
 73
     0
 74
     0
 78
     8
 79
     2
140
3.0
141
0.0
143
0.0393701
146
0.6
147
1.0
172
     1
176
   256
177
   256
178
   256
271
     2
272
     2
283
     0
284
     8
340
11
371
    -1
372
    -1
  0
DIMSTYLE
105
85
330
A
100
AcDbSymbolTableRecord
100
AcDbDimStyleTableRecord
  2
AM_ISO$7
 70
     0
  4
"
 41
3.0
 42
1.0
 43
5.0
 44
1.5
 47
0.1
 48
0.1
 73
     0
 74
     0
 77
     1
 78
     8
 79
     2
140
5.0
141
0.0
143
0.0393701
146
0.6
147
1.0
172
     1
176
   256
177
   256
178
   256
271
     2
272
     2
283
     0
284
     8
340
11
371
    -1
372
    -1
  0
DIMSTYLE
105
86
330
A
100
AcDbSymbolTableRecord
100
AcDbDimStyleTableRecord
  2
AM_ISO$SF
 70
     0
  4
"
 41
2.5
 42
1.0
 43
10.0
 44
1.0
 47
0.1
 48
0.1
 73
     0
 74
     0
 75
     1
 76
     1
 77
     1
 78
     8
 79
     2
140
3.5
141
0.0
143
0.0393701
146
0.71
147
1.5
172
     1
176
   256
177
   256
178
     2
271
     2
272
     3
274
     4
283
     0
284
     8
340
11
371
    -1
372
    -1
  0
DIMSTYLE
105
8B
330
A
100
AcDbSymbolTableRecord
100
AcDbDimStyleTableRecord
  2
AM_ISO$SH
 70
     0
  4
"
 41
2.5
 42
1.0
 43
10.0
 44
1.0
 47
0.1
 48
0.1
 73
     0
 74
     0
 75
     1
 76
     1
 77
     1
 78
     8
 79
     2
140
3.5
141
0.0
143
0.0393701
144
2.0
146
0.71
147
1.5
172
     1
173
     1
176
   256
177
   256
178
     2
271
     2
272
     3
274
     4
283
     0
284
     8
340
11
343
87
371
    -1
372
    -1
  0
DIMSTYLE
105
40B
102
{ACAD_REACTORS
330
1F2F
330
1FA8
330
EC3
330
EE9
330
E9D
330
E65
330
F85
330
F0F
330
FFC
330
FD6
102
}
330
A
100
AcDbSymbolTableRecord
100
AcDbDimStyleTableRecord
  2
AM_ISO$0
 70
     0
  4
"
 41
3.0
 42
1.0
 43
5.0
 44
1.5
 47
0.1
 48
0.1
 73
     0
 74
     0
 77
     1
 78
     8
 79
     2
140
3.0
141
0.0
143
0.0393701
146
0.6
147
1.0
172
     1
176
   256
177
   256
178
   256
271
     2
272
     2
283
     0
284
     8
340
11
371
    -1
372
    -1
  0
ENDTAB
  0
TABLE
  2
BLOCK_RECORD
  5
1
330
0
100
AcDbSymbolTable
 70
    21
  0
BLOCK_RECORD
  5
1F
102
{ACAD_XDICTIONARY
360
8F
102
}
330
1
100
AcDbSymbolTableRecord
100
AcDbBlockTableRecord
  2
*Model_Space
340
22
  0
BLOCK_RECORD
  5
1B
330
1
100
AcDbSymbolTableRecord
100
AcDbBlockTableRecord
  2
*Paper_Space
340
1E
  0
BLOCK_RECORD
  5
23
330
1
100
AcDbSymbolTableRecord
100
AcDbBlockTableRecord
  2
*Paper_Space0
340
26
  0
BLOCK_RECORD
  5
87
330
1
100
AcDbSymbolTableRecord
100
AcDbBlockTableRecord
  2
GENAXEH
340
0
  0
BLOCK_RECORD
  5
BFB
330
1
100
AcDbSymbolTableRecord
100
AcDbBlockTableRecord
  2
*U4
340
0
  0
BLOCK_RECORD
  5
E66
330
1
100
AcDbSymbolTableRecord
100
AcDbBlockTableRecord
  2
*D5
340
0
  0
BLOCK_RECORD
  5
E9E
330
1
100
AcDbSymbolTableRecord
100
AcDbBlockTableRecord
  2
*D6
340
0
  0
BLOCK_RECORD
  5
EC4
330
1
100
AcDbSymbolTableRecord
100
AcDbBlockTableRecord
  2
*D7
340
0
  0
BLOCK_RECORD
  5
EEA
330
1
100
AcDbSymbolTableRecord
100
AcDbBlockTableRecord
  2
*D8
340
0
  0
BLOCK_RECORD
  5
F10
330
1
100
AcDbSymbolTableRecord
100
AcDbBlockTableRecord
  2
*D9
340
0
  0
BLOCK_RECORD
  5
F86
330
1
100
AcDbSymbolTableRecord
100
AcDbBlockTableRecord
  2
*D10
340
0
  0
BLOCK_RECORD
  5
FD7
330
1
100
AcDbSymbolTableRecord
100
AcDbBlockTableRecord
  2
*D11
340
0
  0
BLOCK_RECORD
  5
FFD
330
1
100
AcDbSymbolTableRecord
100
AcDbBlockTableRecord
  2
*D12
340
0
  0
BLOCK_RECORD
  5
1DB0
330
1
100
AcDbSymbolTableRecord
100
AcDbBlockTableRecord
  2
GENDOT
340
0
102
{BLKREFS
331
323E
331
3252
102
}
  0
BLOCK_RECORD
  5
1F30
330
1
100
AcDbSymbolTableRecord
100
AcDbBlockTableRecord
  2
*D14
340
0
  0
BLOCK_RECORD
  5
1FA9
330
1
100
AcDbSymbolTableRecord
100
AcDbBlockTableRecord
  2
*D15
340
0
  0
BLOCK_RECORD
  5
334A
330
1
100
AcDbSymbolTableRecord
100
AcDbBlockTableRecord
  2
*S18
340
0
  0
BLOCK_RECORD
  5
3352
330
1
100
AcDbSymbolTableRecord
100
AcDbBlockTableRecord
  2
*S19
340
0
  0
BLOCK_RECORD
  5
335A
330
1
100
AcDbSymbolTableRecord
100
AcDbBlockTableRecord
  2
*S20
340
0
  0
ENDTAB
  0
ENDSEC
  0
SECTION
  2
BLOCKS
  0
BLOCK
  5
20
330
1F
100
AcDbEntity
  8
0
100
AcDbBlockBegin
  2
*Model_Space
 70
     0
 10
0.0
 20
0.0
 30
0.0
  3
*Model_Space
  1

  0
ENDBLK
  5
21
330
1F
100
AcDbEntity
  8
0
100
AcDbBlockEnd
  0
BLOCK
  5
1C
330
1B
100
AcDbEntity
 67
     1
  8
0
100
AcDbBlockBegin
  2
*Paper_Space
 70
     0
 10
0.0
 20
0.0
 30
0.0
  3
*Paper_Space
  1

  0
ENDBLK
  5
1D
330
1B
100
AcDbEntity
 67
     1
  8
0
100
AcDbBlockEnd
  0
BLOCK
  5
24
330
23
100
AcDbEntity
  8
0
100
AcDbBlockBegin
  2
*Paper_Space0
 70
     0
 10
0.0
 20
0.0
 30
0.0
  3
*Paper_Space0
  1

  0
ENDBLK
  5
25
330
23
100
AcDbEntity
  8
0
100
AcDbBlockEnd
  0
BLOCK
  5
89
330
87
100
AcDbEntity
  8
0
100
AcDbBlockBegin
  2
GENAXEH
 70
     0
 10
0.0
 20
0.0
 30
0.0
  3
GENAXEH
  1

  0
LINE
  5
88
330
87
100
AcDbEntity
  8
0
100
AcDbLine
 10
-1.0
 20
0.0
 30
0.0
 11
1.0
 21
0.0
 31
0.0
  0
ENDBLK
  5
8A
330
87
100
AcDbEntity
  8
0
100
AcDbBlockEnd
  0
BLOCK
  5
BFC
330
BFB
100
AcDbEntity
  8
0
100
AcDbBlockBegin
  2
*U4
 70
     1
 10
0.0
 20
0.0
 30
0.0
  3
*U4
  1

  0
ENDBLK
  5
BFD
330
BFB
100
AcDbEntity
  8
0
100
AcDbBlockEnd
  0
BLOCK
  5
E70
330
E66
100
AcDbEntity
  8
0
100
AcDbBlockBegin
  2
*D5
 70
     1
 10
0.0
 20
0.0
 30
0.0
  3
*D5
  1

  0
LINE
  5
3273
330
E66
100
AcDbEntity
  8
AM_5
100
AcDbLine
 10
3091.217848187886
 20
1622.071754389543
 30
0.0
 11
3091.217848187886
 21
1601.611707699882
 31
0.0
  0
LINE
  5
3274
330
E66
100
AcDbEntity
  8
AM_5
100
AcDbLine
 10
3109.217848187885
 20
1622.071754389543
 30
0.0
 11
3109.217848187885
 21
1601.611707699882
 31
0.0
  0
LINE
  5
3275
330
E66
100
AcDbEntity
  8
AM_5
100
AcDbLine
 10
3093.617848187886
 20
1602.811707699881
 30
0.0
 11
3106.817848187886
 21
1602.811707699881
 31
0.0
  0
SOLID
  5
3276
330
E66
100
AcDbEntity
  8
AM_5
100
AcDbTrace
 10
3093.617848187886
 20
1603.211707699882
 30
0.0
 11
3093.617848187886
 21
1602.411707699882
 31
0.0
 12
3091.217848187886
 22
1602.811707699881
 32
0.0
 13
3091.217848187886
 23
1602.811707699881
 33
0.0
  0
SOLID
  5
3277
330
E66
100
AcDbEntity
  8
AM_5
100
AcDbTrace
 10
3106.817848187886
 20
1603.211707699882
 30
0.0
 11
3106.817848187886
 21
1602.411707699882
 31
0.0
 12
3109.217848187885
 22
1602.811707699881
 32
0.0
 13
3109.217848187885
 23
1602.811707699881
 33
0.0
  0
MTEXT
  5
3278
330
E66
100
AcDbEntity
  8
AM_5
100
AcDbMText
 10
3100.217848187885
 20
1604.811707699882
 30
0.0
 40
2.4
 41
0.0
 71
     5
 72
     1
  1
18
 73
     1
 44
1.0
1001
ACAD
1000
MTEXTBEGIN
1070
    73
1070
     1
1070
    44
1040
1.0
1070
    74
1070
     0
1000
MTEXTEND
  0
POINT
  5
3279
330
E66
100
AcDbEntity
  8
Defpoints
 62
     0
100
AcDbPoint
 10
3091.217848187886
 20
1622.871754389543
 30
0.0
  0
POINT
  5
327A
330
E66
100
AcDbEntity
  8
Defpoints
 62
     0
100
AcDbPoint
 10
3109.217848187885
 20
1622.871754389543
 30
0.0
  0
POINT
  5
327B
330
E66
100
AcDbEntity
  8
Defpoints
 62
     0
100
AcDbPoint
 10
3109.217848187885
 20
1602.811707699881
 30
0.0
  0
ENDBLK
  5
E71
330
E66
100
AcDbEntity
  8
0
100
AcDbBlockEnd
  0
BLOCK
  5
EA8
330
E9E
100
AcDbEntity
  8
0
100
AcDbBlockBegin
  2
*D6
 70
     1
 10
0.0
 20
0.0
 30
0.0
  3
*D6
  1

  0
LINE
  5
327C
330
E9E
100
AcDbEntity
  8
AM_5
100
AcDbLine
 10
3086.717848187886
 20
1614.468645498219
 30
0.0
 11
3086.717848187886
 21
1596.611707699882
 31
0.0
  0
LINE
  5
327D
330
E9E
100
AcDbEntity
  8
AM_5
100
AcDbLine
 10
3113.717848187885
 20
1614.468645498219
 30
0.0
 11
3113.717848187885
 21
1596.611707699882
 31
0.0
  0
LINE
  5
327E
330
E9E
100
AcDbEntity
  8
AM_5
100
AcDbLine
 10
3089.117848187886
 20
1597.811707699882
 30
0.0
 11
3111.317848187886
 21
1597.811707699882
 31
0.0
  0
SOLID
  5
327F
330
E9E
100
AcDbEntity
  8
AM_5
100
AcDbTrace
 10
3089.117848187886
 20
1598.211707699882
 30
0.0
 11
3089.117848187886
 21
1597.411707699882
 31
0.0
 12
3086.717848187886
 22
1597.811707699882
 32
0.0
 13
3086.717848187886
 23
1597.811707699882
 33
0.0
  0
SOLID
  5
3280
330
E9E
100
AcDbEntity
  8
AM_5
100
AcDbTrace
 10
3111.317848187886
 20
1598.211707699882
 30
0.0
 11
3111.317848187886
 21
1597.411707699882
 31
0.0
 12
3113.717848187885
 22
1597.811707699882
 32
0.0
 13
3113.717848187885
 23
1597.811707699882
 33
0.0
  0
MTEXT
  5
3281
330
E9E
100
AcDbEntity
  8
AM_5
100
AcDbMText
 10
3100.217848187885
 20
1599.811943920354
 30
0.0
 40
2.4
 41
0.0
 71
     5
 72
     1
  1
27
 73
     1
 44
1.0
1001
ACAD
1000
MTEXTBEGIN
1070
    73
1070
     1
1070
    44
1040
1.0
1070
    74
1070
     0
1000
MTEXTEND
  0
POINT
  5
3282
330
E9E
100
AcDbEntity
  8
Defpoints
 62
     0
100
AcDbPoint
 10
3086.717848187886
 20
1615.268645498219
 30
0.0
  0
POINT
  5
3283
330
E9E
100
AcDbEntity
  8
Defpoints
 62
     0
100
AcDbPoint
 10
3113.717848187885
 20
1615.268645498219
 30
0.0
  0
POINT
  5
3284
330
E9E
100
AcDbEntity
  8
Defpoints
 62
     0
100
AcDbPoint
 10
3113.717848187885
 20
1597.811707699882
 30
0.0
  0
ENDBLK
  5
EA9
330
E9E
100
AcDbEntity
  8
0
100
AcDbBlockEnd
  0
BLOCK
  5
ECE
330
EC4
100
AcDbEntity
  8
0
100
AcDbBlockBegin
  2
*D7
 70
     1
 10
0.0
 20
0.0
 30
0.0
  3
*D7
  1

  0
LINE
  5
3285
330
EC4
100
AcDbEntity
  8
AM_5
100
AcDbLine
 10
3103.914739296561
 20
1616.768645498219
 30
0.0
 11
3125.0857730051
 21
1616.768645498219
 31
0.0
  0
LINE
  5
3286
330
EC4
100
AcDbEntity
  8
AM_5
100
AcDbLine
 10
3103.914739296561
 20
1634.768645498219
 30
0.0
 11
3125.0857730051
 21
1634.768645498219
 31
0.0
  0
LINE
  5
3287
330
EC4
100
AcDbEntity
  8
AM_5
100
AcDbLine
 10
3123.885773005101
 20
1619.168645498219
 30
0.0
 11
3123.885773005101
 21
1632.368645498219
 31
0.0
  0
SOLID
  5
3288
330
EC4
100
AcDbEntity
  8
AM_5
100
AcDbTrace
 10
3123.4857730051
 20
1619.168645498219
 30
0.0
 11
3124.285773005101
 21
1619.168645498219
 31
0.0
 12
3123.885773005101
 22
1616.768645498219
 32
0.0
 13
3123.885773005101
 23
1616.768645498219
 33
0.0
  0
SOLID
  5
3289
330
EC4
100
AcDbEntity
  8
AM_5
100
AcDbTrace
 10
3123.4857730051
 20
1632.368645498219
 30
0.0
 11
3124.285773005101
 21
1632.368645498219
 31
0.0
 12
3123.885773005101
 22
1634.768645498219
 32
0.0
 13
3123.885773005101
 23
1634.768645498219
 33
0.0
  0
MTEXT
  5
328A
330
EC4
100
AcDbEntity
  8
AM_5
100
AcDbMText
 10
3121.8857730051
 20
1625.768645498219
 30
0.0
 40
2.4
 41
0.0
 71
     5
 72
     1
  1
18
 11
0.0000000000000001
 21
1.0
 31
0.0
 73
     1
 44
1.0
1001
ACAD
1000
MTEXTBEGIN
1070
    73
1070
     1
1070
    44
1040
1.0
1070
    74
1070
     0
1000
MTEXTEND
  0
POINT
  5
328B
330
EC4
100
AcDbEntity
  8
Defpoints
 62
     0
100
AcDbPoint
 10
3103.114739296561
 20
1616.768645498219
 30
0.0
  0
POINT
  5
328C
330
EC4
100
AcDbEntity
  8
Defpoints
 62
     0
100
AcDbPoint
 10
3103.114739296561
 20
1634.768645498219
 30
0.0
  0
POINT
  5
328D
330
EC4
100
AcDbEntity
  8
Defpoints
 62
     0
100
AcDbPoint
 10
3123.885773005101
 20
1634.768645498219
 30
0.0
  0
ENDBLK
  5
ECF
330
EC4
100
AcDbEntity
  8
0
100
AcDbBlockEnd
  0
BLOCK
  5
EF4
330
EEA
100
AcDbEntity
  8
0
100
AcDbBlockBegin
  2
*D8
 70
     1
 10
0.0
 20
0.0
 30
0.0
  3
*D8
  1

  0
LINE
  5
328E
330
EEA
100
AcDbEntity
  8
AM_5
100
AcDbLine
 10
3111.517848187886
 20
1612.268645498219
 30
0.0
 11
3130.085773005101
 21
1612.268645498219
 31
0.0
  0
LINE
  5
328F
330
EEA
100
AcDbEntity
  8
AM_5
100
AcDbLine
 10
3111.517848187886
 20
1639.268645498219
 30
0.0
 11
3130.085773005101
 21
1639.268645498219
 31
0.0
  0
LINE
  5
3290
330
EEA
100
AcDbEntity
  8
AM_5
100
AcDbLine
 10
3128.885773005101
 20
1614.668645498219
 30
0.0
 11
3128.885773005101
 21
1636.868645498219
 31
0.0
  0
SOLID
  5
3291
330
EEA
100
AcDbEntity
  8
AM_5
100
AcDbTrace
 10
3128.485773005101
 20
1614.668645498219
 30
0.0
 11
3129.285773005101
 21
1614.668645498219
 31
0.0
 12
3128.885773005101
 22
1612.268645498219
 32
0.0
 13
3128.885773005101
 23
1612.268645498219
 33
0.0
  0
SOLID
  5
3292
330
EEA
100
AcDbEntity
  8
AM_5
100
AcDbTrace
 10
3128.485773005101
 20
1636.868645498219
 30
0.0
 11
3129.285773005101
 21
1636.868645498219
 31
0.0
 12
3128.885773005101
 22
1639.268645498219
 32
0.0
 13
3128.885773005101
 23
1639.268645498219
 33
0.0
  0
MTEXT
  5
3293
330
EEA
100
AcDbEntity
  8
AM_5
100
AcDbMText
 10
3126.885536784628
 20
1625.768645498219
 30
0.0
 40
2.4
 41
0.0
 71
     5
 72
     1
  1
27
 11
0.0000000000000001
 21
1.0
 31
0.0
 73
     1
 44
1.0
1001
ACAD
1000
MTEXTBEGIN
1070
    73
1070
     1
1070
    44
1040
1.0
1070
    74
1070
     0
1000
MTEXTEND
  0
POINT
  5
3294
330
EEA
100
AcDbEntity
  8
Defpoints
 62
     0
100
AcDbPoint
 10
3110.717848187885
 20
1612.268645498219
 30
0.0
  0
POINT
  5
3295
330
EEA
100
AcDbEntity
  8
Defpoints
 62
     0
100
AcDbPoint
 10
3110.717848187885
 20
1639.268645498219
 30
0.0
  0
POINT
  5
3296
330
EEA
100
AcDbEntity
  8
Defpoints
 62
     0
100
AcDbPoint
 10
3128.885773005101
 20
1639.268645498219
 30
0.0
  0
ENDBLK
  5
EF5
330
EEA
100
AcDbEntity
  8
0
100
AcDbBlockEnd
  0
BLOCK
  5
F1A
330
F10
100
AcDbEntity
  8
0
100
AcDbBlockBegin
  2
*D9
 70
     1
 10
0.0
 20
0.0
 30
0.0
  3
*D9
  1

  0
LINE
  5
326A
330
F10
100
AcDbEntity
  8
AM_5
100
AcDbLine
 10
3113.517848184241
 20
1556.420826562769
 30
0.0
 11
3129.139819026097
 21
1556.420826562769
 31
0.0
  0
LINE
  5
326B
330
F10
100
AcDbEntity
  8
AM_5
100
AcDbLine
 10
3112.261594275152
 20
1578.420826562769
 30
0.0
 11
3129.139819026097
 21
1578.420826562769
 31
0.0
  0
LINE
  5
326C
330
F10
100
AcDbEntity
  8
AM_5
100
AcDbLine
 10
3127.939819026096
 20
1558.820826562769
 30
0.0
 11
3127.939819026096
 21
1576.020826562769
 31
0.0
  0
SOLID
  5
326D
330
F10
100
AcDbEntity
  8
AM_5
100
AcDbTrace
 10
3127.539819026096
 20
1558.820826562769
 30
0.0
 11
3128.339819026097
 21
1558.820826562769
 31
0.0
 12
3127.939819026096
 22
1556.420826562769
 32
0.0
 13
3127.939819026096
 23
1556.420826562769
 33
0.0
  0
SOLID
  5
326E
330
F10
100
AcDbEntity
  8
AM_5
100
AcDbTrace
 10
3127.539819026096
 20
1576.020826562769
 30
0.0
 11
3128.339819026097
 21
1576.020826562769
 31
0.0
 12
3127.939819026096
 22
1578.420826562769
 32
0.0
 13
3127.939819026096
 23
1578.420826562769
 33
0.0
  0
MTEXT
  5
326F
330
F10
100
AcDbEntity
  8
AM_5
100
AcDbMText
 10
3125.939582805624
 20
1567.420826562769
 30
0.0
 40
2.4
 41
0.0
 71
     5
 72
     1
  1
22+stroke
 11
0.0000000000000001
 21
1.0
 31
0.0
 73
     1
 44
1.0
1001
ACAD
1000
MTEXTBEGIN
1070
    73
1070
     1
1070
    44
1040
1.0
1070
    74
1070
     0
1000
MTEXTEND
  0
POINT
  5
3270
330
F10
100
AcDbEntity
  8
Defpoints
 62
     0
100
AcDbPoint
 10
3112.717848184241
 20
1556.420826562769
 30
0.0
  0
POINT
  5
3271
330
F10
100
AcDbEntity
  8
Defpoints
 62
     0
100
AcDbPoint
 10
3111.461594275152
 20
1578.420826562769
 30
0.0
  0
POINT
  5
3272
330
F10
100
AcDbEntity
  8
Defpoints
 62
     0
100
AcDbPoint
 10
3127.939819026096
 20
1578.420826562769
 30
0.0
  0
ENDBLK
  5
F1B
330
F10
100
AcDbEntity
  8
0
100
AcDbBlockEnd
  0
BLOCK
  5
F90
330
F86
100
AcDbEntity
  8
0
100
AcDbBlockBegin
  2
*D10
 70
     1
 10
0.0
 20
0.0
 30
0.0
  3
*D10
  1

  0
LINE
  5
3261
330
F86
100
AcDbEntity
  8
AM_5
100
AcDbLine
 10
3113.517848184241
 20
1556.420826562769
 30
0.0
 11
3134.139819026096
 21
1556.420826562769
 31
0.0
  0
LINE
  5
3262
330
F86
100
AcDbEntity
  8
AM_5
100
AcDbLine
 10
3114.517848187886
 20
1588.920826562769
 30
0.0
 11
3134.139819026096
 21
1588.920826562769
 31
0.0
  0
LINE
  5
3263
330
F86
100
AcDbEntity
  8
AM_5
100
AcDbLine
 10
3132.939819026097
 20
1558.820826562769
 30
0.0
 11
3132.939819026097
 21
1586.520826562769
 31
0.0
  0
SOLID
  5
3264
330
F86
100
AcDbEntity
  8
AM_5
100
AcDbTrace
 10
3132.539819026096
 20
1558.820826562769
 30
0.0
 11
3133.339819026097
 21
1558.820826562769
 31
0.0
 12
3132.939819026097
 22
1556.420826562769
 32
0.0
 13
3132.939819026097
 23
1556.420826562769
 33
0.0
  0
SOLID
  5
3265
330
F86
100
AcDbEntity
  8
AM_5
100
AcDbTrace
 10
3132.539819026096
 20
1586.520826562769
 30
0.0
 11
3133.339819026097
 21
1586.520826562769
 31
0.0
 12
3132.939819026097
 22
1588.920826562769
 32
0.0
 13
3132.939819026097
 23
1588.920826562769
 33
0.0
  0
MTEXT
  5
3266
330
F86
100
AcDbEntity
  8
AM_5
100
AcDbMText
 10
3130.939582805624
 20
1572.670826562769
 30
0.0
 40
2.4
 41
0.0
 71
     5
 72
     1
  1
32.5+stroke
 11
0.0000000000000001
 21
1.0
 31
0.0
 73
     1
 44
1.0
1001
ACAD
1000
MTEXTBEGIN
1070
    73
1070
     1
1070
    44
1040
1.0
1070
    74
1070
     0
1000
MTEXTEND
  0
POINT
  5
3267
330
F86
100
AcDbEntity
  8
Defpoints
 62
     0
100
AcDbPoint
 10
3112.717848184241
 20
1556.420826562769
 30
0.0
  0
POINT
  5
3268
330
F86
100
AcDbEntity
  8
Defpoints
 62
     0
100
AcDbPoint
 10
3113.717848187885
 20
1588.920826562769
 30
0.0
  0
POINT
  5
3269
330
F86
100
AcDbEntity
  8
Defpoints
 62
     0
100
AcDbPoint
 10
3132.939819026097
 20
1588.920826562769
 30
0.0
  0
ENDBLK
  5
F91
330
F86
100
AcDbEntity
  8
0
100
AcDbBlockEnd
  0
BLOCK
  5
FE1
330
FD7
100
AcDbEntity
  8
0
100
AcDbBlockBegin
  2
*D11
 70
     1
 10
0.0
 20
0.0
 30
0.0
  3
*D11
  1

  0
LINE
  5
32BB
330
FD7
100
AcDbEntity
  8
AM_5
100
AcDbLine
 10
3092.46784819153
 20
1517.832626382778
 30
0.0
 11
3092.46784819153
 21
1505.679330719869
 31
0.0
  0
LINE
  5
32BC
330
FD7
100
AcDbEntity
  8
AM_5
100
AcDbLine
 10
3107.967848187886
 20
1517.832626386423
 30
0.0
 11
3107.967848187886
 21
1505.679330719869
 31
0.0
  0
LINE
  5
32BD
330
FD7
100
AcDbEntity
  8
AM_5
100
AcDbLine
 10
3094.867848191531
 20
1506.879330719869
 30
0.0
 11
3105.567848187885
 21
1506.879330719869
 31
0.0
  0
SOLID
  5
32BE
330
FD7
100
AcDbEntity
  8
AM_5
100
AcDbTrace
 10
3094.867848191531
 20
1507.279330719869
 30
0.0
 11
3094.867848191531
 21
1506.479330719869
 31
0.0
 12
3092.46784819153
 22
1506.879330719869
 32
0.0
 13
3092.46784819153
 23
1506.879330719869
 33
0.0
  0
SOLID
  5
32BF
330
FD7
100
AcDbEntity
  8
AM_5
100
AcDbTrace
 10
3105.567848187885
 20
1507.279330719869
 30
0.0
 11
3105.567848187885
 21
1506.479330719869
 31
0.0
 12
3107.967848187886
 22
1506.879330719869
 32
0.0
 13
3107.967848187886
 23
1506.879330719869
 33
0.0
  0
MTEXT
  5
32C0
330
FD7
100
AcDbEntity
  8
AM_5
100
AcDbMText
 10
3100.217848189708
 20
1508.879330719869
 30
0.0
 40
2.4
 41
0.0
 71
     5
 72
     1
  1
{\Famgdt|c136;o}15.5
 73
     1
 44
1.0
1001
ACAD
1000
MTEXTBEGIN
1070
    73
1070
     1
1070
    44
1040
1.0
1070
    74
1070
     0
1000
MTEXTEND
  0
POINT
  5
32C1
330
FD7
100
AcDbEntity
  8
Defpoints
 62
     0
100
AcDbPoint
 10
3092.46784819153
 20
1518.632626382778
 30
0.0
  0
POINT
  5
32C2
330
FD7
100
AcDbEntity
  8
Defpoints
 62
     0
100
AcDbPoint
 10
3107.967848187886
 20
1518.632626386423
 30
0.0
  0
POINT
  5
32C3
330
FD7
100
AcDbEntity
  8
Defpoints
 62
     0
100
AcDbPoint
 10
3107.967848187886
 20
1506.879330719869
 30
0.0
  0
ENDBLK
  5
FE2
330
FD7
100
AcDbEntity
  8
0
100
AcDbBlockEnd
  0
BLOCK
  5
1007
330
FFD
100
AcDbEntity
  8
0
100
AcDbBlockBegin
  2
*D12
 70
     1
 10
0.0
 20
0.0
 30
0.0
  3
*D12
  1

  0
LINE
  5
32CE
330
FFD
100
AcDbEntity
  8
AM_5
100
AcDbLine
 10
3087.717848187884
 20
1518.745134200958
 30
0.0
 11
3087.717848187884
 21
1500.679330719869
 31
0.0
  0
LINE
  5
32CF
330
FFD
100
AcDbEntity
  8
AM_5
100
AcDbLine
 10
3112.717848184242
 20
1518.745134200958
 30
0.0
 11
3112.717848184242
 21
1500.679330719869
 31
0.0
  0
LINE
  5
32D0
330
FFD
100
AcDbEntity
  8
AM_5
100
AcDbLine
 10
3090.117848187885
 20
1501.879330719869
 30
0.0
 11
3110.317848184242
 21
1501.879330719869
 31
0.0
  0
SOLID
  5
32D1
330
FFD
100
AcDbEntity
  8
AM_5
100
AcDbTrace
 10
3090.117848187885
 20
1502.27933071987
 30
0.0
 11
3090.117848187885
 21
1501.479330719869
 31
0.0
 12
3087.717848187884
 22
1501.879330719869
 32
0.0
 13
3087.717848187884
 23
1501.879330719869
 33
0.0
  0
SOLID
  5
32D2
330
FFD
100
AcDbEntity
  8
AM_5
100
AcDbTrace
 10
3110.317848184242
 20
1502.27933071987
 30
0.0
 11
3110.317848184242
 21
1501.479330719869
 31
0.0
 12
3112.717848184242
 22
1501.879330719869
 32
0.0
 13
3112.717848184242
 23
1501.879330719869
 33
0.0
  0
MTEXT
  5
32D3
330
FFD
100
AcDbEntity
  8
AM_5
100
AcDbMText
 10
3100.217848186063
 20
1503.879566940342
 30
0.0
 40
2.4
 41
0.0
 71
     5
 72
     1
  1
{\Famgdt|c136;o}25
 73
     1
 44
1.0
1001
ACAD
1000
MTEXTBEGIN
1070
    73
1070
     1
1070
    44
1040
1.0
1070
    74
1070
     0
1000
MTEXTEND
  0
POINT
  5
32D4
330
FFD
100
AcDbEntity
  8
Defpoints
 62
     0
100
AcDbPoint
 10
3087.717848187884
 20
1519.545134200958
 30
0.0
  0
POINT
  5
32D5
330
FFD
100
AcDbEntity
  8
Defpoints
 62
     0
100
AcDbPoint
 10
3112.717848184242
 20
1519.545134200958
 30
0.0
  0
POINT
  5
32D6
330
FFD
100
AcDbEntity
  8
Defpoints
 62
     0
100
AcDbPoint
 10
3112.717848184242
 20
1501.879330719869
 30
0.0
  0
ENDBLK
  5
1008
330
FFD
100
AcDbEntity
  8
0
100
AcDbBlockEnd
  0
BLOCK
  5
1DB3
330
1DB0
100
AcDbEntity
  8
0
100
AcDbBlockBegin
  2
GENDOT
 70
     0
 10
0.0
 20
0.0
 30
0.0
  3
GENDOT
  1

  0
LINE
  5
1DB1
330
1DB0
100
AcDbEntity
  8
0
100
AcDbLine
 10
0.0
 20
0.0
 30
0.0
 11
-1.0
 21
0.0
 31
0.0
  0
LWPOLYLINE
  5
1DB2
330
1DB0
100
AcDbEntity
  8
0
100
AcDbPolyline
 90
        2
 70
     1
 43
0.25
 10
-0.125
 20
0.0
 42
1.0
 10
0.125
 20
0.0
 42
1.0
  0
ENDBLK
  5
1DB4
330
1DB0
100
AcDbEntity
  8
0
100
AcDbBlockEnd
  0
BLOCK
  5
1F3A
330
1F30
100
AcDbEntity
  8
0
100
AcDbBlockBegin
  2
*D14
 70
     1
 10
0.0
 20
0.0
 30
0.0
  3
*D14
  1

  0
LINE
  5
3238
330
1F30
100
AcDbEntity
  8
AM_5
100
AcDbLine
 10
3115.317848187886
 20
1588.920826562769
 30
0.0
 11
3129.139819026097
 21
1588.920826562769
 31
0.0
  0
LINE
  5
3239
330
1F30
100
AcDbEntity
  8
AM_5
100
AcDbLine
 10
3114.517848187886
 20
1582.920826562769
 30
0.0
 11
3129.139819026097
 21
1582.920826562769
 31
0.0
  0
LINE
  5
323A
330
1F30
100
AcDbEntity
  8
AM_5
100
AcDbLine
 10
3127.939819026096
 20
1591.320826562769
 30
0.0
 11
3127.939819026096
 21
1593.720826562768
 31
0.0
  0
LINE
  5
323B
330
1F30
100
AcDbEntity
  8
AM_5
100
AcDbLine
 10
3127.939819026096
 20
1580.520826562769
 30
0.0
 11
3127.939819026096
 21
1578.120826562769
 31
0.0
  0
LINE
  5
323C
330
1F30
100
AcDbEntity
  8
AM_5
100
AcDbLine
 10
3127.939819026096
 20
1588.920826562769
 30
0.0
 11
3127.939819026096
 21
1582.920826562769
 31
0.0
  0
SOLID
  5
323D
330
1F30
100
AcDbEntity
  8
AM_5
100
AcDbTrace
 10
3127.539819026096
 20
1591.320826562769
 30
0.0
 11
3128.339819026097
 21
1591.320826562769
 31
0.0
 12
3127.939819026096
 22
1588.920826562769
 32
0.0
 13
3127.939819026096
 23
1588.920826562769
 33
0.0
  0
INSERT
  5
323E
330
1F30
100
AcDbEntity
  8
AM_5
100
AcDbBlockReference
  2
GENDOT
 10
3127.939819026096
 20
1582.920826562769
 30
0.0
 41
2.4
 42
2.4
 43
2.4
 50
90.0
  0
MTEXT
  5
323F
330
1F30
100
AcDbEntity
  8
AM_5
100
AcDbMText
 10
3125.939819026096
 20
1585.920826562769
 30
0.0
 40
2.4
 41
0.0
 71
     5
 72
     1
  1
6
 11
0.0000000000000001
 21
1.0
 31
0.0
 73
     1
 44
1.0
1001
ACAD
1000
MTEXTBEGIN
1070
    73
1070
     1
1070
    44
1040
1.0
1070
    74
1070
     0
1000
MTEXTEND
  0
POINT
  5
3240
330
1F30
100
AcDbEntity
  8
Defpoints
 62
     0
100
AcDbPoint
 10
3114.517848187886
 20
1588.920826562769
 30
0.0
  0
POINT
  5
3241
330
1F30
100
AcDbEntity
  8
Defpoints
 62
     0
100
AcDbPoint
 10
3113.717848187885
 20
1582.920826562769
 30
0.0
  0
POINT
  5
3242
330
1F30
100
AcDbEntity
  8
Defpoints
 62
     0
100
AcDbPoint
 10
3127.939819026096
 20
1582.920826562769
 30
0.0
  0
ENDBLK
  5
1F3B
330
1F30
100
AcDbEntity
  8
0
100
AcDbBlockEnd
  0
BLOCK
  5
1FB5
330
1FA9
100
AcDbEntity
  8
0
100
AcDbBlockBegin
  2
*D15
 70
     1
 10
0.0
 20
0.0
 30
0.0
  3
*D15
  1

  0
LINE
  5
324C
330
1FA9
100
AcDbEntity
  8
AM_5
100
AcDbLine
 10
3113.517848184241
 20
1578.420826562769
 30
0.0
 11
3129.139819026097
 21
1578.420826562769
 31
0.0
  0
LINE
  5
324D
330
1FA9
100
AcDbEntity
  8
AM_5
100
AcDbLine
 10
3115.317848187886
 20
1582.920826562769
 30
0.0
 11
3129.139819026097
 21
1582.920826562769
 31
0.0
  0
LINE
  5
324E
330
1FA9
100
AcDbEntity
  8
AM_5
100
AcDbLine
 10
3127.939819026096
 20
1576.020826562769
 30
0.0
 11
3127.939819026096
 21
1573.620826562769
 31
0.0
  0
LINE
  5
324F
330
1FA9
100
AcDbEntity
  8
AM_5
100
AcDbLine
 10
3127.939819026096
 20
1585.320826562769
 30
0.0
 11
3127.939819026096
 21
1587.720826562769
 31
0.0
  0
LINE
  5
3250
330
1FA9
100
AcDbEntity
  8
AM_5
100
AcDbLine
 10
3127.939819026096
 20
1578.420826562769
 30
0.0
 11
3127.939819026096
 21
1582.920826562769
 31
0.0
  0
SOLID
  5
3251
330
1FA9
100
AcDbEntity
  8
AM_5
100
AcDbTrace
 10
3127.539819026096
 20
1576.020826562769
 30
0.0
 11
3128.339819026097
 21
1576.020826562769
 31
0.0
 12
3127.939819026096
 22
1578.420826562769
 32
0.0
 13
3127.939819026096
 23
1578.420826562769
 33
0.0
  0
INSERT
  5
3252
330
1FA9
100
AcDbEntity
  8
AM_5
100
AcDbBlockReference
  2
GENDOT
 10
3127.939819026096
 20
1582.920826562769
 30
0.0
 41
2.4
 42
2.4
 43
2.4
 50
270.0
  0
MTEXT
  5
3253
330
1FA9
100
AcDbEntity
  8
AM_5
100
AcDbMText
 10
3125.939819026096
 20
1580.670826562769
 30
0.0
 40
2.4
 41
0.0
 71
     5
 72
     1
  1
4.5
 11
0.0000000000000001
 21
1.0
 31
0.0
 73
     1
 44
1.0
1001
ACAD
1000
MTEXTBEGIN
1070
    73
1070
     1
1070
    44
1040
1.0
1070
    74
1070
     0
1000
MTEXTEND
  0
POINT
  5
3254
330
1FA9
100
AcDbEntity
  8
Defpoints
 62
     0
100
AcDbPoint
 10
3112.717848184241
 20
1578.420826562769
 30
0.0
  0
POINT
  5
3255
330
1FA9
100
AcDbEntity
  8
Defpoints
 62
     0
100
AcDbPoint
 10
3114.517848187886
 20
1582.920826562769
 30
0.0
  0
POINT
  5
3256
330
1FA9
100
AcDbEntity
  8
Defpoints
 62
     0
100
AcDbPoint
 10
3127.939819026096
 20
1582.920826562769
 30
0.0
  0
ENDBLK
  5
1FB6
330
1FA9
100
AcDbEntity
  8
0
100
AcDbBlockEnd
  0
BLOCK
  5
334F
330
334A
100
AcDbEntity
  8
0
100
AcDbBlockBegin
  2
*S18
 70
     1
 10
0.0
 20
0.0
 30
0.0
  3
*S18
  1

  0
LINE
  5
334B
330
334A
100
AcDbEntity
  8
AM_5
 62
     5
100
AcDbLine
 10
3151.825048689268
 20
1509.526843992638
 30
0.0
 11
3120.112124092214
 21
1509.526843992638
 31
0.0
  0
LINE
  5
334C
330
334A
100
AcDbEntity
  8
AM_5
 62
     5
100
AcDbLine
 10
3120.112124092214
 20
1509.526843992638
 30
0.0
 11
3111.442218859858
 21
1518.707776972107
 31
0.0
  0
TRACE
  5
334D
330
334A
100
AcDbEntity
  8
AM_5
 62
     5
370
    35
100
AcDbTrace
 10
3111.710229751988
 20
1518.960869881205
 30
0.0
 11
3111.174207967728
 21
1518.454684063009
 31
0.0
 12
3109.519787346098
 22
1520.743521817343
 32
0.0
 13
3109.519787346098
 23
1520.743521817343
 33
0.0
  0
MTEXT
  5
334E
330
334A
100
AcDbEntity
  8
AM_5
 62
     5
100
AcDbMText
 10
3120.923566366487
 20
1510.072578846189
 30
0.0
 40
2.8
 41
0.0
 71
     7
 72
     5
  1
4-M4x0.7x10 detph
  7
ACISOTS
 73
     1
 44
1.0
1001
ACAD
1000
MTEXTBEGIN
1070
    73
1070
     1
1070
    44
1040
1.0
1070
    74
1070
     0
1000
MTEXTEND
  0
ENDBLK
  5
3350
330
334A
100
AcDbEntity
  8
0
100
AcDbBlockEnd
  0
BLOCK
  5
3357
330
3352
100
AcDbEntity
  8
0
100
AcDbBlockBegin
  2
*S19
 70
     1
 10
0.0
 20
0.0
 30
0.0
  3
*S19
  1

  0
LINE
  5
3353
330
3352
100
AcDbEntity
  8
AM_5
 62
     5
100
AcDbLine
 10
3135.691176384216
 20
1547.506523430714
 30
0.0
 11
3120.172813961731
 21
1547.506523430714
 31
0.0
  0
LINE
  5
3354
330
3352
100
AcDbEntity
  8
AM_5
 62
     5
100
AcDbLine
 10
3120.172813961731
 20
1547.506523430714
 30
0.0
 11
3104.438675369379
 21
1560.294635512884
 31
0.0
  0
TRACE
  5
3355
330
3352
100
AcDbEntity
  8
AM_5
 62
     5
370
    35
100
AcDbTrace
 10
3104.671173997097
 20
1560.580695379075
 30
0.0
 11
3104.206176741661
 21
1560.008575646693
 31
0.0
 12
3102.265834954581
 22
1562.06063792846
 32
0.0
 13
3102.265834954581
 23
1562.06063792846
 33
0.0
  0
MTEXT
  5
3356
330
3352
100
AcDbEntity
  8
AM_5
 62
     5
100
AcDbMText
 10
3121.340074022012
 20
1548.50570494111
 30
0.0
 40
2.8
 41
0.0
 71
     7
 72
     5
  1
2-M5x0.8
  7
ACISOTS
 73
     1
 44
1.0
1001
ACAD
1000
MTEXTBEGIN
1070
    73
1070
     1
1070
    44
1040
1.0
1070
    74
1070
     0
1000
MTEXTEND
  0
ENDBLK
  5
3358
330
3352
100
AcDbEntity
  8
0
100
AcDbBlockEnd
  0
BLOCK
  5
335F
330
335A
100
AcDbEntity
  8
0
100
AcDbBlockBegin
  2
*S20
 70
     1
 10
0.0
 20
0.0
 30
0.0
  3
*S20
  1

  0
LINE
  5
335B
330
335A
100
AcDbEntity
  8
AM_5
 62
     5
100
AcDbLine
 10
3143.681028086595
 20
1603.876287455326
 30
0.0
 11
3116.941028086595
 21
1603.876287455326
 31
0.0
  0
LINE
  5
335C
330
335A
100
AcDbEntity
  8
AM_5
 62
     5
100
AcDbLine
 10
3116.941028086595
 20
1603.876287455326
 30
0.0
 11
3102.162362231338
 21
1614.984948057622
 31
0.0
  0
TRACE
  5
335D
330
335A
100
AcDbEntity
  8
AM_5
 62
     5
370
    35
100
AcDbTrace
 10
3102.383852994243
 20
1615.279613462587
 30
0.0
 11
3101.940871468433
 21
1614.690282652656
 31
0.0
 12
3099.924156259705
 22
1616.667337438397
 32
0.0
 13
3099.924156259705
 23
1616.667337438397
 33
0.0
  0
MTEXT
  5
335E
330
335A
100
AcDbEntity
  8
AM_5
 62
     5
100
AcDbMText
 10
3120.441028086595
 20
1605.626287455326
 30
0.0
 40
2.8
 41
0.0
 71
     7
 72
     5
  1
4-M4x0.7 thru
  7
ACISOTS
 73
     1
 44
1.0
1001
ACAD
1000
MTEXTBEGIN
1070
    73
1070
     1
1070
    44
1040
1.0
1070
    74
1070
     0
1000
MTEXTEND
  0
ENDBLK
  5
3360
330
335A
100
AcDbEntity
  8
0
100
AcDbBlockEnd
  0
ENDSEC
  0
SECTION
  2
ENTITIES
  0
DIMENSION
  5
E65
330
1F
100
AcDbEntity
  8
AM_5
100
AcDbDimension
  2
*D5
 10
3109.217848187885
 20
1602.811707699881
 30
0.0
 11
3100.217848187885
 21
1604.811707699882
 31
0.0
 70
    32
 71
     5
 42
18.0
  3
AM_ISO$0
100
AcDbAlignedDimension
 13
3091.217848187886
 23
1622.871754389543
 33
0.0
 14
3109.217848187885
 24
1622.871754389543
 34
0.0
100
AcDbRotatedDimension
1001
ACAD
1000
DSTYLE
1002
{
1070
    40
1040
0.8
1002
}
  0
DIMENSION
  5
E9D
330
1F
100
AcDbEntity
  8
AM_5
100
AcDbDimension
  2
*D6
 10
3113.717848187885
 20
1597.811707699882
 30
0.0
 11
3100.217848187885
 21
1599.811943920354
 31
0.0
 70
    32
 71
     5
 42
27.0
  3
AM_ISO$0
100
AcDbAlignedDimension
 13
3086.717848187886
 23
1615.268645498219
 33
0.0
 14
3113.717848187885
 24
1615.268645498219
 34
0.0
100
AcDbRotatedDimension
1001
ACAD
1000
DSTYLE
1002
{
1070
    40
1040
0.8
1002
}
  0
DIMENSION
  5
EC3
330
1F
100
AcDbEntity
  8
AM_5
100
AcDbDimension
  2
*D7
 10
3123.885773005101
 20
1634.768645498219
 30
0.0
 11
3121.8857730051
 21
1625.768645498219
 31
0.0
 70
    32
 71
     5
 42
18.0
  3
AM_ISO$0
100
AcDbAlignedDimension
 13
3103.114739296561
 23
1616.768645498219
 33
0.0
 14
3103.114739296561
 24
1634.768645498219
 34
0.0
 50
90.0
100
AcDbRotatedDimension
1001
ACAD
1000
DSTYLE
1002
{
1070
    40
1040
0.8
1002
}
  0
DIMENSION
  5
EE9
330
1F
100
AcDbEntity
  8
AM_5
100
AcDbDimension
  2
*D8
 10
3128.885773005101
 20
1639.268645498219
 30
0.0
 11
3126.885536784628
 21
1625.768645498219
 31
0.0
 70
    32
 71
     5
 42
27.0
  3
AM_ISO$0
100
AcDbAlignedDimension
 13
3110.717848187885
 23
1612.268645498219
 33
0.0
 14
3110.717848187885
 24
1639.268645498219
 34
0.0
 50
90.0
100
AcDbRotatedDimension
1001
ACAD
1000
DSTYLE
1002
{
1070
    40
1040
0.8
1002
}
  0
DIMENSION
  5
F0F
330
1F
100
AcDbEntity
  8
AM_5
100
AcDbDimension
  2
*D9
 10
3127.939819026096
 20
1578.420826562769
 30
0.0
 11
3125.939582805624
 21
1567.420826562769
 31
0.0
 70
    32
  1
<>+stroke
 71
     5
 42
22.0
  3
AM_ISO$0
100
AcDbAlignedDimension
 13
3112.717848184241
 23
1556.420826562769
 33
0.0
 14
3111.461594275152
 24
1578.420826562769
 34
0.0
 50
90.0
100
AcDbRotatedDimension
1001
ACAD
1000
DSTYLE
1002
{
1070
    40
1040
0.8
1002
}
  0
DIMENSION
  5
F85
330
1F
100
AcDbEntity
  8
AM_5
100
AcDbDimension
  2
*D10
 10
3132.939819026097
 20
1588.920826562769
 30
0.0
 11
3130.939582805624
 21
1572.670826562769
 31
0.0
 70
    32
  1
<>+stroke
 71
     5
 42
32.5
  3
AM_ISO$0
100
AcDbAlignedDimension
 13
3112.717848184241
 23
1556.420826562769
 33
0.0
 14
3113.717848187885
 24
1588.920826562769
 34
0.0
 50
90.0
100
AcDbRotatedDimension
1001
ACAD
1000
DSTYLE
1002
{
1070
    40
1040
0.8
1002
}
  0
DIMENSION
  5
FD6
330
1F
100
AcDbEntity
  8
AM_5
100
AcDbDimension
  2
*D11
 10
3107.967848187886
 20
1506.879330719869
 30
0.0
 11
3100.217848189708
 21
1508.879330719869
 31
0.0
 70
    32
  1
{\Famgdt;o}<>
 71
     5
 42
15.4999999963552
  3
AM_ISO$0
100
AcDbAlignedDimension
 13
3092.46784819153
 23
1518.632626382778
 33
0.0
 14
3107.967848187886
 24
1518.632626386423
 34
0.0
100
AcDbRotatedDimension
1001
ACAD
1000
DSTYLE
1002
{
1070
    40
1040
0.8
1002
}
  0
DIMENSION
  5
FFC
330
1F
100
AcDbEntity
  8
AM_5
100
AcDbDimension
  2
*D12
 10
3112.717848184242
 20
1501.879330719869
 30
0.0
 11
3100.217848186063
 21
1503.879566940342
 31
0.0
 70
    32
  1
{\Famgdt;o}<>
 71
     5
 42
24.99999999635747
  3
AM_ISO$0
100
AcDbAlignedDimension
 13
3087.717848187884
 23
1519.545134200958
 33
0.0
 14
3112.717848184242
 24
1519.545134200958
 34
0.0
100
AcDbRotatedDimension
1001
ACAD
1000
DSTYLE
1002
{
1070
    40
1040
0.8
1002
}
  0
INSERT
  5
1266
330
1F
100
AcDbEntity
  8
AM_5
100
AcDbBlockReference
  2
*S18
 10
0.0
 20
0.0
 30
0.0
  0
INSERT
  5
14F5
330
1F
100
AcDbEntity
  8
AM_5
100
AcDbBlockReference
  2
*S19
 10
0.0
 20
0.0
 30
0.0
  0
INSERT
  5
1509
330
1F
100
AcDbEntity
  8
AM_5
100
AcDbBlockReference
  2
*S20
 10
0.0
 20
0.0
 30
0.0
  0
LINE
  5
15A2
330
1F
100
AcDbEntity
  8
LOGO
 62
     4
100
AcDbLine
 10
3195.146235575402
 20
1490.083643698116
 30
0.0
 11
3055.524753575402
 21
1490.083643698116
 31
0.0
  0
LWPOLYLINE
  5
15A3
330
1F
100
AcDbEntity
  8
LOGO
 62
     4
100
AcDbPolyline
 90
        4
 70
     1
 43
0.0
 10
3055.524753575402
 20
1490.083643698116
 10
3195.146235575402
 20
1490.083643698116
 10
3195.146235575402
 20
1655.636851166634
 10
3055.524753575402
 20
1655.636851166634
1001
GENIUS_GENREC_14
1002
{
1000
PYDIR
1011
3055.524753575402
1021
1655.636851166634
1031
0.0
1002
}
1002
{
1000
PXDIR
1011
3195.146235575402
1021
1490.083643698116
1031
0.0
1002
}
1002
{
1000
PORI
1011
3055.524753575402
1021
1490.083643698116
1031
0.0
1002
}
1002
{
1000
PINS
1011
3055.524753575402
1021
1490.083643698116
1031
0.0
1002
}
1002
{
1000
PINS2
1011
3195.146235575402
1021
1655.636851166634
1031
0.0
1002
}
1002
{
1000
C
1070
     1
1002
}
1001
GENIUS_GENODEF_13
1002
{
1000
HIER
1070
     0
1002
}
1002
{
1000
MANEDIT
1070
     0
1002
}
1002
{
1000
NOSEL
1070
     0
1002
}
1002
{
1000
BEHIND
1070
     0
1002
}
1002
{
1000
OTHER
1070
     0
1002
}
1002
{
1000
REACTOR
1002
}
1001
GENIUS_GENOBJ-N-REC_13
1002
{
1000
OWNER
1000
GEN
1002
}
  0
LWPOLYLINE
  5
15A4
330
1F
100
AcDbEntity
  8
LOGO
 62
     4
100
AcDbPolyline
 90
        4
 70
     1
 43
0.0
 10
3055.524753575402
 20
1490.083643698116
 10
3195.146235575402
 20
1490.083643698116
 10
3195.146235575402
 20
1476.123517166634
 10
3055.524753575402
 20
1476.123517166634
1001
GENIUS_GENREC_14
1002
{
1000
PYDIR
1011
3055.524753575402
1021
1476.123517166634
1031
0.0
1002
}
1002
{
1000
PXDIR
1011
3195.146235575402
1021
1490.083643698116
1031
0.0
1002
}
1002
{
1000
PORI
1011
3055.524753575402
1021
1490.083643698116
1031
0.0
1002
}
1002
{
1000
PINS
1011
3055.524753575402
1021
1490.083643698116
1031
0.0
1002
}
1002
{
1000
PINS2
1011
3195.146235575402
1021
1476.123517166634
1031
0.0
1002
}
1002
{
1000
C
1070
     1
1002
}
1001
GENIUS_GENOBJ-N-REC_13
1002
{
1000
OWNER
1000
GEN
1002
}
1001
GENIUS_GENODEF_13
1002
{
1000
HIER
1070
     0
1002
}
1002
{
1000
MANEDIT
1070
     0
1002
}
1002
{
1000
NOSEL
1070
     0
1002
}
1002
{
1000
BEHIND
1070
     0
1002
}
1002
{
1000
OTHER
1070
     0
1002
}
1002
{
1000
REACTOR
1002
}
  0
TEXT
  5
15A5
330
1F
100
AcDbEntity
  8
LOGO
 62
     7
100
AcDbText
 10
3087.045794921724
 20
1483.967949816525
 30
0.0
 40
1.861350204197646
  1
Order example:
 41
0.8
  7
CHINESET
100
AcDbText
  0
TEXT
  5
15A6
330
1F
100
AcDbEntity
  8
LOGO
 62
     7
100
AcDbText
 10
3087.379736541097
 20
1486.588345506558
 30
0.0
 40
2.79202530629647
  1
訂購代號：
  7
CHINESET
100
AcDbText
  0
LINE
  5
15A7
330
1F
100
AcDbEntity
  8
LOGO
 62
     4
100
AcDbLine
 10
3086.237031944663
 20
1476.123517166634
 30
0.0
 11
3086.237031944663
 21
1490.083643698116
 31
0.0
  0
TEXT
  5
15A8
330
1F
100
AcDbEntity
  8
LOGO
  6
Continuous
100
AcDbText
 10
3060.539293777493
 20
1478.865962956075
 30
0.0
 40
2.094018979722353
  1
金器工業股份有限公司
  7
CHINESET
100
AcDbText
  0
TEXT
  5
15A9
330
1F
100
AcDbEntity
  8
LOGO
  6
Continuous
100
AcDbText
 10
3056.692995192968
 20
1476.771533712811
 30
0.0
 40
1.396012653148235
  1
MINDMAN INDUSTRIAL CO., LTD.
 41
0.85
  7
CHINESET
100
AcDbText
  0
LINE
  5
15AA
330
1F
100
AcDbEntity
  8
LOGO
 62
     4
100
AcDbLine
 10
3086.237031944663
 20
1487.291618391819
 30
0.0
 11
3065.762179698488
 21
1487.291618391819
 31
0.0
  0
LINE
  5
15AB
330
1F
100
AcDbEntity
  8
LOGO
 62
     4
100
AcDbLine
 10
3086.237031944663
 20
1484.499593085523
 30
0.0
 11
3065.762179698488
 21
1484.499593085523
 31
0.0
  0
LINE
  5
15AC
330
1F
100
AcDbEntity
  8
LOGO
 62
     4
100
AcDbLine
 10
3086.237031944663
 20
1481.707567779227
 30
0.0
 11
3055.524753575402
 21
1481.707567779227
 31
0.0
  0
LINE
  5
15AD
330
1F
100
AcDbEntity
  8
LOGO
 62
     4
100
AcDbLine
 10
3065.762179698488
 20
1481.707567779227
 30
0.0
 11
3065.762179698488
 21
1490.083643698116
 31
0.0
  0
TEXT
  5
15AE
330
1F
100
AcDbEntity
  8
LOGO
100
AcDbText
 10
3079.755774810443
 20
1482.405574105801
 30
0.0
 40
1.396012653148235
  1
mm
  7
CHINESET
 72
     1
 11
3081.484171428626
 21
1483.103580432375
 31
0.0
100
AcDbText
 73
     2
  0
TEXT
  5
15AF
330
1F
100
AcDbEntity
  8
LOGO
100
AcDbText
 10
3079.024530087365
 20
1487.989624718394
 30
0.0
 40
1.396012653148235
  1
1 : 1
  7
CHINESET
 72
     1
 11
3081.484171428626
 21
1488.687631044968
 31
0.0
100
AcDbText
 73
     2
  0
LINE
  5
15B0
330
1F
100
AcDbEntity
  8
LOGO
 62
     4
100
AcDbLine
 10
3076.930280923675
 20
1481.707567779227
 30
0.0
 11
3076.930280923675
 21
1490.083643698116
 31
0.0
  0
CIRCLE
  5
15B1
330
1F
100
AcDbEntity
  8
LOGO
  6
Continuous
100
AcDbCircle
 10
3079.515172961481
 20
1485.898591819952
 30
0.0
 40
0.8105578048517065
  0
CIRCLE
  5
15B2
330
1F
100
AcDbEntity
  8
LOGO
  6
Continuous
100
AcDbCircle
 10
3079.515172961481
 20
1485.898591819952
 30
0.0
 40
0.4749151190204162
  0
LINE
  5
15B3
330
1F
100
AcDbEntity
  8
LOGO
100
AcDbLine
 10
3084.60881226032
 20
1485.0880340151
 30
0.0
 11
3084.60881226032
 21
1486.709149624804
 31
0.0
  0
LINE
  5
15B4
330
1F
100
AcDbEntity
  8
LOGO
100
AcDbLine
 10
3082.067760070347
 20
1485.423676700932
 30
0.0
 11
3082.067760070347
 21
1486.373506938973
 31
0.0
  0
LINE
  5
15B5
330
1F
100
AcDbEntity
  8
LOGO
  6
Continuous
100
AcDbLine
 10
3082.067760070347
 20
1486.373506938973
 30
0.0
 11
3084.60881226032
 21
1486.709149624804
 31
0.0
  0
LINE
  5
15B6
330
1F
100
AcDbEntity
  8
LOGO
  6
Continuous
100
AcDbLine
 10
3082.067760070347
 20
1485.423676700932
 30
0.0
 11
3084.60881226032
 21
1485.0880340151
 31
0.0
  0
TEXT
  5
15B7
330
1F
100
AcDbEntity
  8
LOGO
100
AcDbText
 10
3066.913266917401
 20
1487.990311732495
 30
91.49236949083864
 40
1.396012653148235
  1
比例 Scale:
 41
0.9
  7
CHINESET
 72
     4
 11
3071.346230311082
 21
1488.687631044968
 31
91.49236949083864
100
AcDbText
  0
TEXT
  5
15B8
330
1F
100
AcDbEntity
  8
LOGO
100
AcDbText
 10
3066.832871545859
 20
1485.217236565149
 30
91.49236949083864
 40
1.396012653148235
  1
投影  View:
 41
0.9
  7
CHINESET
 72
     4
 11
3071.346230311082
 21
1485.895605738671
 31
91.49236949083864
100
AcDbText
  0
TEXT
  5
15B9
330
1F
100
AcDbEntity
  8
LOGO
100
AcDbText
 10
3066.969356711501
 20
1482.405574105801
 30
91.49236949083864
 40
1.396012653148235
  1
單位  Unit:
 41
0.9
  7
CHINESET
 72
     4
 11
3071.346230311082
 21
1483.103580432375
 31
91.49236949083864
100
AcDbText
  0
SOLID
  5
15BA
330
1F
100
AcDbEntity
  8
LOGO
 62
     5
100
AcDbTrace
 10
3056.973139107342
 20
1484.028240108331
 30
0.0
 11
3057.576738347191
 21
1484.028240108331
 31
0.0
 12
3060.095204141045
 22
1489.752026003454
 32
0.0
 13
3060.698803380895
 23
1489.752026003454
 33
0.0
  0
SOLID
  5
15BB
330
1F
100
AcDbEntity
  8
LOGO
 62
     5
100
AcDbTrace
 10
3057.826503549888
 20
1484.028240108331
 30
0.0
 11
3058.430102789737
 21
1484.028240108331
 31
0.0
 12
3060.698803380895
 22
1489.294123131844
 32
0.0
 13
3060.095204141045
 23
1487.080925919063
 33
0.0
  0
SOLID
  5
15BC
330
1F
100
AcDbEntity
  8
LOGO
 62
     2
100
AcDbTrace
 10
3057.576738347191
 20
1484.028240108331
 30
0.0
 11
3057.826503549888
 21
1484.028240108331
 31
0.0
 12
3060.698803380895
 22
1489.752026003454
 32
0.0
 13
3060.948568583591
 23
1489.752026003454
 33
0.0
  0
SOLID
  5
15BD
330
1F
100
AcDbEntity
  8
LOGO
 62
     5
100
AcDbTrace
 10
3056.005421505199
 20
1481.946863419196
 30
0.0
 11
3056.213559174113
 21
1481.946863419196
 31
0.0
 12
3056.799691049914
 22
1482.987551763764
 32
0.0
 13
3057.007828718827
 23
1482.987551763764
 33
0.0
  0
SOLID
  5
15BE
330
1F
100
AcDbEntity
  8
LOGO
 62
     5
100
AcDbTrace
 10
3056.799691049914
 20
1482.987551763764
 30
0.0
 11
3057.007828718827
 21
1482.987551763764
 31
0.0
 12
3056.799691049914
 22
1481.946863419196
 32
0.0
 13
3057.007828718827
 23
1481.946863419196
 33
0.0
  0
SOLID
  5
15BF
330
1F
100
AcDbEntity
  8
LOGO
 62
     5
100
AcDbTrace
 10
3056.799691049914
 20
1481.946863419196
 30
0.0
 11
3057.007828718827
 21
1481.946863419196
 31
0.0
 12
3057.59396059463
 22
1482.987551763764
 32
0.0
 13
3057.802098263544
 23
1482.987551763764
 33
0.0
  0
SOLID
  5
15C0
330
1F
100
AcDbEntity
  8
LOGO
 62
     5
100
AcDbTrace
 10
3057.59396059463
 20
1482.987551763764
 30
0.0
 11
3057.802098263544
 21
1482.987551763764
 31
0.0
 12
3057.59396059463
 22
1481.946863419196
 32
0.0
 13
3057.802098263544
 23
1481.946863419196
 33
0.0
  0
POLYLINE
  5
15C1
330
1F
100
AcDbEntity
  8
LOGO
 62
     5
100
AcDb2dPolyline
 66
     1
 10
0.0
 20
0.0
 30
0.0
 40
0.2084712228701364
 41
0.2084712228701364
  0
VERTEX
  5
15C2
330
15C1
100
AcDbEntity
  8
LOGO
 62
     5
100
AcDbVertex
100
AcDb2dVertex
 10
3064.570664353622
 20
1482.571276425937
 30
0.0
 42
1.0
  0
VERTEX
  5
15C3
330
15C1
100
AcDbEntity
  8
LOGO
 62
     5
100
AcDbVertex
100
AcDb2dVertex
 10
3063.945250685011
 20
1482.571276425937
 30
0.0
 42
1.0
  0
SEQEND
  5
15C4
330
15C1
100
AcDbEntity
  8
LOGO
 62
     5
  0
POLYLINE
  5
15C5
330
1F
100
AcDbEntity
  8
LOGO
 62
     5
100
AcDb2dPolyline
 66
     1
 10
0.0
 20
0.0
 30
0.0
 70
     1
  0
VERTEX
  5
15C6
330
15C5
100
AcDbEntity
  8
LOGO
 62
     5
100
AcDbVertex
100
AcDb2dVertex
 10
3062.76631810128
 20
1482.46720759148
 30
0.0
 42
1.000000057330635
  0
VERTEX
  5
15C7
330
15C5
100
AcDbEntity
  8
LOGO
 62
     5
100
AcDbVertex
100
AcDb2dVertex
 10
3063.39073110802
 20
1482.46720759148
 30
0.0
 42
1.000000057330635
  0
SEQEND
  5
15C8
330
15C5
100
AcDbEntity
  8
LOGO
 62
     5
  0
CIRCLE
  5
15C9
330
1F
100
AcDbEntity
  8
LOGO
 62
     5
100
AcDbCircle
 10
3063.07852460465
 20
1482.46720759148
 30
0.0
 40
0.3122065033703164
  0
POLYLINE
  5
15CA
330
1F
100
AcDbEntity
  8
LOGO
 62
     5
100
AcDb2dPolyline
 66
     1
 10
0.0
 20
0.0
 30
0.0
 70
     1
 40
0.2084712228701364
 41
0.2084712228701364
  0
VERTEX
  5
15CB
330
15CA
100
AcDbEntity
  8
LOGO
 62
     5
100
AcDbVertex
100
AcDb2dVertex
 10
3062.661582158911
 20
1482.46720759148
 30
0.0
 42
1.0
  0
VERTEX
  5
15CC
330
15CA
100
AcDbEntity
  8
LOGO
 62
     5
100
AcDbVertex
100
AcDb2dVertex
 10
3063.495467050391
 20
1482.46720759148
 30
0.0
 42
1.0
  0
SEQEND
  5
15CD
330
15CA
100
AcDbEntity
  8
LOGO
 62
     5
  0
LINE
  5
15CE
330
1F
100
AcDbEntity
  8
LOGO
100
AcDbLine
 10
3064.674232857143
 20
1481.946863419196
 30
0.0
 11
3064.674232857143
 21
1482.571276425937
 31
0.0
  0
SOLID
  5
15CF
330
1F
100
AcDbEntity
  8
LOGO
 62
     5
100
AcDbTrace
 10
3063.390710294255
 20
1482.987551763764
 30
0.0
 11
3063.598847963168
 21
1482.987551763764
 31
0.0
 12
3063.390710294255
 22
1481.946863419196
 32
0.0
 13
3063.598847963168
 23
1481.946863419196
 33
0.0
  0
SOLID
  5
15D0
330
1F
100
AcDbEntity
  8
LOGO
 62
     5
100
AcDbTrace
 10
3063.841682181489
 20
1481.946863419196
 30
0.0
 11
3064.049819850402
 21
1481.946863419196
 31
0.0
 12
3063.841682181489
 22
1482.987551763764
 32
0.0
 13
3064.049819850402
 23
1482.987551763764
 33
0.0
  0
SOLID
  5
15D1
330
1F
100
AcDbEntity
  8
LOGO
 62
     5
100
AcDbTrace
 10
3064.46609518823
 20
1482.571276425937
 30
0.0
 11
3064.674232857143
 21
1482.571276425937
 31
0.0
 12
3064.46609518823
 22
1481.946863419196
 32
0.0
 13
3064.674232857143
 23
1481.946863419196
 33
0.0
  0
SOLID
  5
15D2
330
1F
100
AcDbEntity
  8
LOGO
 62
     5
100
AcDbTrace
 10
3063.820868414598
 20
1489.294123131844
 30
0.0
 11
3063.217269174749
 21
1487.080925919063
 31
0.0
 12
3063.820868414598
 22
1484.028240108331
 32
0.0
 13
3063.217269174749
 23
1484.028240108331
 33
0.0
  0
SOLID
  5
15D3
330
1F
100
AcDbEntity
  8
LOGO
 62
     5
100
AcDbTrace
 10
3064.070633617294
 20
1484.028240108331
 30
0.0
 11
3064.674232857143
 21
1484.028240108331
 31
0.0
 12
3064.070633617294
 22
1489.752026003454
 32
0.0
 13
3064.674232857143
 23
1489.752026003454
 33
0.0
  0
SOLID
  5
15D4
330
1F
100
AcDbEntity
  8
LOGO
 62
     2
100
AcDbTrace
 10
3063.820868414598
 20
1489.752026003454
 30
0.0
 11
3064.070633617294
 21
1489.752026003454
 31
0.0
 12
3063.820868414598
 22
1484.028240108331
 32
0.0
 13
3064.070633617294
 23
1484.028240108331
 33
0.0
  0
POLYLINE
  5
15D5
330
1F
100
AcDbEntity
  8
LOGO
 62
     5
100
AcDb2dPolyline
 66
     1
 10
0.0
 20
0.0
 30
0.0
 40
0.2084712228701364
 41
0.2084712228701364
  0
VERTEX
  5
15D6
330
15D5
100
AcDbEntity
  8
LOGO
 62
     5
100
AcDbVertex
100
AcDb2dVertex
 10
3061.587343890017
 20
1482.571276425937
 30
0.0
 42
1.0
  0
VERTEX
  5
15D7
330
15D5
100
AcDbEntity
  8
LOGO
 62
     5
100
AcDbVertex
100
AcDb2dVertex
 10
3060.961930221406
 20
1482.571276425937
 30
0.0
 42
1.0
  0
SEQEND
  5
15D8
330
15D5
100
AcDbEntity
  8
LOGO
 62
     5
  0
POLYLINE
  5
15D9
330
1F
100
AcDbEntity
  8
LOGO
 62
     5
100
AcDb2dPolyline
 66
     1
 10
0.0
 20
0.0
 30
0.0
 40
0.2084712228701364
 41
0.2084712228701364
  0
VERTEX
  5
15DA
330
15D9
100
AcDbEntity
  8
LOGO
 62
     5
100
AcDbVertex
100
AcDb2dVertex
 10
3062.211756896757
 20
1482.571276425937
 30
0.0
 42
1.0
  0
VERTEX
  5
15DB
330
15D9
100
AcDbEntity
  8
LOGO
 62
     5
100
AcDbVertex
100
AcDb2dVertex
 10
3061.586343228146
 20
1482.571276425937
 30
0.0
 42
1.0
  0
SEQEND
  5
15DC
330
15D9
100
AcDbEntity
  8
LOGO
 62
     5
  0
POLYLINE
  5
15DD
330
1F
100
AcDbEntity
  8
LOGO
 62
     5
100
AcDb2dPolyline
 66
     1
 10
0.0
 20
0.0
 30
0.0
 40
0.2084712228701364
 41
0.2084712228701364
  0
VERTEX
  5
15DE
330
15DD
100
AcDbEntity
  8
LOGO
 62
     5
100
AcDbVertex
100
AcDb2dVertex
 10
3059.228436433151
 20
1482.571276425937
 30
0.0
 42
1.0
  0
VERTEX
  5
15DF
330
15DD
100
AcDbEntity
  8
LOGO
 62
     5
100
AcDbVertex
100
AcDb2dVertex
 10
3058.603022764541
 20
1482.571276425937
 30
0.0
 42
1.0
  0
SEQEND
  5
15E0
330
15DD
100
AcDbEntity
  8
LOGO
 62
     5
  0
SOLID
  5
15E1
330
1F
100
AcDbEntity
  8
LOGO
 62
     5
100
AcDbTrace
 10
3058.499454261019
 20
1482.987551763764
 30
0.0
 11
3058.707591929933
 21
1482.987551763764
 31
0.0
 12
3058.499454261019
 22
1481.946863419196
 32
0.0
 13
3058.707591929933
 23
1481.946863419196
 33
0.0
  0
SOLID
  5
15E2
330
1F
100
AcDbEntity
  8
LOGO
 62
     5
100
AcDbTrace
 10
3059.12386726776
 20
1482.571276425937
 30
0.0
 11
3059.332004936674
 21
1482.571276425937
 31
0.0
 12
3059.12386726776
 22
1481.946863419196
 32
0.0
 13
3059.332004936674
 23
1481.946863419196
 33
0.0
  0
POLYLINE
  5
15E3
330
1F
100
AcDbEntity
  8
LOGO
 62
     5
100
AcDb2dPolyline
 66
     1
 10
0.0
 20
0.0
 30
0.0
 70
     1
 40
0.2084712228701364
 41
0.2084712228701364
  0
VERTEX
  5
15E4
330
15E3
100
AcDbEntity
  8
LOGO
 62
     5
100
AcDbVertex
100
AcDb2dVertex
 10
3059.678261695305
 20
1482.46720759148
 30
0.0
 42
1.0
  0
VERTEX
  5
15E5
330
15E3
100
AcDbEntity
  8
LOGO
 62
     5
100
AcDbVertex
100
AcDb2dVertex
 10
3060.512146586786
 20
1482.46720759148
 30
0.0
 42
1.0
  0
SEQEND
  5
15E6
330
15E3
100
AcDbEntity
  8
LOGO
 62
     5
  0
SOLID
  5
15E7
330
1F
100
AcDbEntity
  8
LOGO
 62
     5
100
AcDbTrace
 10
3060.407389830649
 20
1483.299758267134
 30
0.0
 11
3060.615527499563
 21
1483.299758267134
 31
0.0
 12
3060.407389830649
 22
1481.946863419196
 32
0.0
 13
3060.615527499563
 23
1481.946863419196
 33
0.0
  0
SOLID
  5
15E8
330
1F
100
AcDbEntity
  8
LOGO
 62
     5
100
AcDbTrace
 10
3060.858361717885
 20
1482.987551763764
 30
0.0
 11
3061.066499386798
 21
1482.987551763764
 31
0.0
 12
3060.858361717885
 22
1481.946863419196
 32
0.0
 13
3061.066499386798
 23
1481.946863419196
 33
0.0
  0
SOLID
  5
15E9
330
1F
100
AcDbEntity
  8
LOGO
 62
     5
100
AcDbTrace
 10
3061.482774724625
 20
1482.571276425937
 30
0.0
 11
3061.690912393538
 21
1482.571276425937
 31
0.0
 12
3061.482774724625
 22
1481.946863419196
 32
0.0
 13
3061.690912393538
 23
1481.946863419196
 33
0.0
  0
SOLID
  5
15EA
330
1F
100
AcDbEntity
  8
LOGO
 62
     5
100
AcDbTrace
 10
3062.107187731364
 20
1482.571276425937
 30
0.0
 11
3062.315325400279
 21
1482.571276425937
 31
0.0
 12
3062.107187731364
 22
1481.946863419196
 32
0.0
 13
3062.315325400279
 23
1481.946863419196
 33
0.0
  0
SOLID
  5
15EB
330
1F
100
AcDbEntity
  8
LOGO
 62
     5
100
AcDbTrace
 10
3058.048482373784
 20
1483.133248132003
 30
0.0
 11
3058.256620042698
 21
1483.133248132003
 31
0.0
 12
3058.048482373784
 22
1483.299758267134
 32
0.0
 13
3058.256620042698
 23
1483.299758267134
 33
0.0
  0
SOLID
  5
15EC
330
1F
100
AcDbEntity
  8
LOGO
 62
     5
100
AcDbTrace
 10
3058.048482373784
 20
1482.987551763764
 30
0.0
 11
3058.256620042698
 21
1482.987551763764
 31
0.0
 12
3058.048482373784
 22
1481.946863419196
 32
0.0
 13
3058.256620042698
 23
1481.946863419196
 33
0.0
  0
SOLID
  5
15ED
330
1F
100
AcDbEntity
  8
LOGO
 62
     5
100
AcDbTrace
 10
3060.095204141045
 20
1484.028240108331
 30
0.0
 11
3060.698803380895
 21
1484.028240108331
 31
0.0
 12
3060.095204141045
 22
1487.080925919063
 32
0.0
 13
3060.698803380895
 23
1489.294123131844
 33
0.0
  0
SOLID
  5
15EE
330
1F
100
AcDbEntity
  8
LOGO
 62
     5
100
AcDbTrace
 10
3060.948568583591
 20
1489.752026003454
 30
0.0
 11
3061.55216782344
 21
1489.752026003454
 31
0.0
 12
3060.948568583591
 22
1484.486142979942
 32
0.0
 13
3061.55216782344
 23
1486.699340192722
 33
0.0
  0
SOLID
  5
15EF
330
1F
100
AcDbEntity
  8
LOGO
 62
     2
100
AcDbTrace
 10
3060.698803380895
 20
1489.752026003454
 30
0.0
 11
3060.948568583591
 21
1489.752026003454
 31
0.0
 12
3060.698803380895
 22
1484.028240108331
 32
0.0
 13
3060.948568583591
 23
1484.028240108331
 33
0.0
  0
SOLID
  5
15F0
330
1F
100
AcDbEntity
  8
LOGO
 62
     5
100
AcDbTrace
 10
3060.948568583591
 20
1484.486142979942
 30
0.0
 11
3061.55216782344
 21
1486.699340192722
 31
0.0
 12
3063.820868414598
 22
1489.752026003454
 32
0.0
 13
3063.217269174749
 23
1489.752026003454
 33
0.0
  0
SOLID
  5
15F1
330
1F
100
AcDbEntity
  8
LOGO
 62
     5
100
AcDbTrace
 10
3060.948568583591
 20
1484.028240108331
 30
0.0
 11
3061.55216782344
 21
1484.028240108331
 31
0.0
 12
3063.820868414598
 22
1489.294123131844
 32
0.0
 13
3063.217269174749
 23
1487.080925919063
 33
0.0
  0
SOLID
  5
15F2
330
1F
100
AcDbEntity
  8
LOGO
 62
     2
100
AcDbTrace
 10
3060.698803380895
 20
1484.028240108331
 30
0.0
 11
3060.948568583591
 21
1484.028240108331
 31
0.0
 12
3063.820868414598
 22
1489.752026003454
 32
0.0
 13
3064.070633617294
 23
1489.752026003454
 33
0.0
  0
LINE
  5
15F3
330
1F
100
AcDbEntity
  8
LOGO
 62
     4
100
AcDbLine
 10
3114.745317427836
 20
1482.405574105801
 30
0.0
 11
3114.745317427836
 21
1477.286861044257
 31
0.0
  0
LINE
  5
15F4
330
1F
100
AcDbEntity
  8
LOGO
 62
     4
100
AcDbLine
 10
3105.438566406848
 20
1482.405574105801
 30
0.0
 11
3105.438566406848
 21
1477.286861044257
 31
0.0
  0
LINE
  5
15F5
330
1F
100
AcDbEntity
  8
LOGO
 62
     4
100
AcDbLine
 10
3114.745317427836
 20
1477.286861044257
 30
0.0
 11
3105.438566406848
 21
1477.286861044257
 31
0.0
  0
LINE
  5
15F6
330
1F
100
AcDbEntity
  8
LOGO
 62
     4
100
AcDbLine
 10
3116.139438632545
 20
1488.687631044968
 30
0.0
 11
3105.438566406848
 21
1488.687631044968
 31
0.0
  0
LINE
  5
15F7
330
1F
100
AcDbEntity
  8
LOGO
 62
     4
100
AcDbLine
 10
3116.139438632545
 20
1484.499593085523
 30
0.0
 11
3105.438566406848
 21
1484.499593085523
 31
0.0
  0
LINE
  5
15F8
330
1F
100
AcDbEntity
  8
LOGO
 62
     4
100
AcDbLine
 10
3105.438566406848
 20
1488.687631044968
 30
0.0
 11
3105.438566406848
 21
1484.499593085523
 31
0.0
  0
LINE
  5
15F9
330
1F
100
AcDbEntity
  8
LOGO
 62
     4
100
AcDbLine
 10
3116.139438632545
 20
1488.687631044968
 30
0.0
 11
3116.139438632545
 21
1484.499593085523
 31
0.0
  0
LINE
  5
15FA
330
1F
100
AcDbEntity
  8
LOGO
 62
     4
100
AcDbLine
 10
3110.577520563922
 20
1484.499593085523
 30
0.0
 11
3110.577520563922
 21
1482.405574105801
 31
0.0
  0
TEXT
  5
15FB
330
1F
100
AcDbEntity
  8
LOGO
  6
Continuous
 62
     7
100
AcDbText
 10
3106.182715161687
 20
1485.373839886646
 30
0.0
 40
2.443375934999999
  1
MCGJ
  7
CHINESET
100
AcDbText
  0
LINE
  5
15FC
330
1F
100
AcDbEntity
  8
LOGO
 62
     4
100
AcDbLine
 10
3114.745317427836
 20
1482.405574105801
 30
0.0
 11
3105.438566406848
 21
1482.405574105801
 31
0.0
  0
TEXT
  5
15FD
330
1F
100
AcDbEntity
  8
LOGO
  6
Continuous
100
AcDbText
 10
3108.425073344758
 20
1478.009356538411
 30
91.49236949083864
 40
1.047161114999999
  1
Model
 41
0.8
  7
CHINESET
100
AcDbText
  0
TEXT
  5
15FE
330
1F
100
AcDbEntity
  8
LOGO
100
AcDbText
 10
3108.146353097059
 20
1479.950567566293
 30
91.49236949083864
 40
1.745268525
  1
型號
  7
CHINESET
100
AcDbText
  0
LINE
  5
15FF
330
1F
100
AcDbEntity
  8
LOGO
  6
Continuous
 62
     7
100
AcDbLine
 10
3116.584661681292
 20
1486.578777372927
 30
0.0
 11
3118.433946429467
 21
1486.578777372927
 31
0.0
  0
LINE
  5
1600
330
1F
100
AcDbEntity
  8
LOGO
 62
     4
100
AcDbLine
 10
3126.035767245853
 20
1482.405574105801
 30
0.0
 11
3126.035767245853
 21
1477.286861044257
 31
0.0
  0
LINE
  5
1601
330
1F
100
AcDbEntity
  8
LOGO
 62
     4
100
AcDbLine
 10
3116.396873027077
 20
1482.405574105801
 30
0.0
 11
3116.396873027077
 21
1477.286861044257
 31
0.0
  0
LINE
  5
1602
330
1F
100
AcDbEntity
  8
LOGO
 62
     4
100
AcDbLine
 10
3126.035767245853
 20
1477.286861044257
 30
0.0
 11
3116.396873027077
 21
1477.286861044257
 31
0.0
  0
LINE
  5
1603
330
1F
100
AcDbEntity
  8
LOGO
 62
     4
100
AcDbLine
 10
3124.410494887224
 20
1488.687631044968
 30
0.0
 11
3119.0172982859
 21
1488.687631044968
 31
0.0
  0
LINE
  5
1604
330
1F
100
AcDbEntity
  8
LOGO
 62
     4
100
AcDbLine
 10
3124.410494887224
 20
1484.499593085523
 30
0.0
 11
3119.0172982859
 21
1484.499593085523
 31
0.0
  0
LINE
  5
1605
330
1F
100
AcDbEntity
  8
LOGO
 62
     4
100
AcDbLine
 10
3119.0172982859
 20
1488.687631044968
 30
0.0
 11
3119.0172982859
 21
1484.499593085523
 31
0.0
  0
LINE
  5
1606
330
1F
100
AcDbEntity
  8
LOGO
 62
     4
100
AcDbLine
 10
3124.410494887224
 20
1488.687631044968
 30
0.0
 11
3124.410494887224
 21
1484.499593085523
 31
0.0
  0
LINE
  5
1607
330
1F
100
AcDbEntity
  8
LOGO
 62
     4
100
AcDbLine
 10
3121.713896586562
 20
1484.499593085523
 30
0.0
 11
3121.713896586562
 21
1482.405574105801
 31
0.0
  0
TEXT
  5
1608
330
1F
100
AcDbEntity
  8
LOGO
  6
Continuous
 62
     7
100
AcDbText
 10
3119.698092422199
 20
1485.373839886646
 30
0.0
 40
2.443375934999999
  1
12
  7
CHINESET
100
AcDbText
  0
LINE
  5
1609
330
1F
100
AcDbEntity
  8
LOGO
 62
     4
100
AcDbLine
 10
3126.035767245853
 20
1482.405574105801
 30
0.0
 11
3116.396873027077
 21
1482.405574105801
 31
0.0
  0
LINE
  5
160A
330
1F
100
AcDbEntity
  8
LOGO
  6
Continuous
 62
     7
100
AcDbLine
 10
3125.003874518258
 20
1486.578777372927
 30
0.0
 11
3126.853159266435
 21
1486.578777372927
 31
0.0
  0
LINE
  5
160B
330
1F
100
AcDbEntity
  8
LOGO
 62
     4
100
AcDbLine
 10
3136.574827548378
 20
1482.405574105801
 30
0.0
 11
3136.574827548378
 21
1477.286861044257
 31
0.0
  0
LINE
  5
160C
330
1F
100
AcDbEntity
  8
LOGO
 62
     4
100
AcDbLine
 10
3127.268076527389
 20
1482.405574105801
 30
0.0
 11
3127.268076527389
 21
1477.286861044257
 31
0.0
  0
LINE
  5
160D
330
1F
100
AcDbEntity
  8
LOGO
 62
     4
100
AcDbLine
 10
3136.574827548378
 20
1477.286861044257
 30
0.0
 11
3127.268076527389
 21
1477.286861044257
 31
0.0
  0
LINE
  5
160E
330
1F
100
AcDbEntity
  8
LOGO
 62
     4
100
AcDbLine
 10
3134.592806401325
 20
1488.687631044968
 30
0.0
 11
3127.436511122867
 21
1488.687631044968
 31
0.0
  0
LINE
  5
160F
330
1F
100
AcDbEntity
  8
LOGO
 62
     4
100
AcDbLine
 10
3134.592806401325
 20
1484.499593085523
 30
0.0
 11
3127.436511122867
 21
1484.499593085523
 31
0.0
  0
LINE
  5
1610
330
1F
100
AcDbEntity
  8
LOGO
 62
     4
100
AcDbLine
 10
3127.436511122867
 20
1488.687631044968
 30
0.0
 11
3127.436511122867
 21
1484.499593085523
 31
0.0
  0
LINE
  5
1611
330
1F
100
AcDbEntity
  8
LOGO
 62
     4
100
AcDbLine
 10
3134.592806401325
 20
1488.687631044968
 30
0.0
 11
3134.592806401325
 21
1484.499593085523
 31
0.0
  0
LINE
  5
1612
330
1F
100
AcDbEntity
  8
LOGO
 62
     4
100
AcDbLine
 10
3131.014658762096
 20
1484.499593085523
 30
0.0
 11
3131.014658762096
 21
1482.405574105801
 31
0.0
  0
TEXT
  5
1613
330
1F
100
AcDbEntity
  8
LOGO
  6
Continuous
 62
     7
100
AcDbText
 10
3128.962487377926
 20
1485.373839886646
 30
0.0
 40
2.443375934999999
  1
12
  7
CHINESET
100
AcDbText
  0
LINE
  5
1614
330
1F
100
AcDbEntity
  8
LOGO
 62
     4
100
AcDbLine
 10
3136.574827548378
 20
1482.405574105801
 30
0.0
 11
3127.268076527389
 21
1482.405574105801
 31
0.0
  0
LINE
  5
1615
330
1F
100
AcDbEntity
  8
LOGO
  6
Continuous
 62
     7
100
AcDbLine
 10
3135.188529823039
 20
1486.578777372927
 30
0.0
 11
3137.037814571215
 21
1486.578777372927
 31
0.0
  0
LINE
  5
1616
330
1F
100
AcDbEntity
  8
LOGO
 62
     4
100
AcDbLine
 10
3145.034564231405
 20
1482.405574105801
 30
0.0
 11
3145.034564231405
 21
1477.286861044257
 31
0.0
  0
LINE
  5
1617
330
1F
100
AcDbEntity
  8
LOGO
 62
     4
100
AcDbLine
 10
3137.452731832169
 20
1482.405574105801
 30
0.0
 11
3137.452731832169
 21
1477.286861044257
 31
0.0
  0
LINE
  5
1618
330
1F
100
AcDbEntity
  8
LOGO
 62
     4
100
AcDbLine
 10
3145.034564231405
 20
1477.286861044257
 30
0.0
 11
3137.452731832169
 21
1477.286861044257
 31
0.0
  0
LINE
  5
1619
330
1F
100
AcDbEntity
  8
LOGO
 62
     4
100
AcDbLine
 10
3142.077122515512
 20
1488.687631044968
 30
0.0
 11
3137.621166427648
 21
1488.687631044968
 31
0.0
  0
LINE
  5
161A
330
1F
100
AcDbEntity
  8
LOGO
 62
     4
100
AcDbLine
 10
3142.077122515512
 20
1484.499593085523
 30
0.0
 11
3137.621166427648
 21
1484.499593085523
 31
0.0
  0
LINE
  5
161B
330
1F
100
AcDbEntity
  8
LOGO
 62
     4
100
AcDbLine
 10
3137.621166427648
 20
1488.687631044968
 30
0.0
 11
3137.621166427648
 21
1484.499593085523
 31
0.0
  0
LINE
  5
161C
330
1F
100
AcDbEntity
  8
LOGO
 62
     4
100
AcDbLine
 10
3142.077122515512
 20
1488.687631044968
 30
0.0
 11
3142.077122515512
 21
1484.499593085523
 31
0.0
  0
LINE
  5
161D
330
1F
100
AcDbEntity
  8
LOGO
 62
     4
100
AcDbLine
 10
3139.84914447158
 20
1484.499593085523
 30
0.0
 11
3139.84914447158
 21
1482.405574105801
 31
0.0
  0
TEXT
  5
161E
330
1F
100
AcDbEntity
  8
LOGO
  6
Continuous
 62
     7
100
AcDbText
 10
3139.123036304177
 20
1485.373839886646
 30
0.0
 40
2.443375934999999
  1
0
  7
CHINESET
100
AcDbText
  0
LINE
  5
161F
330
1F
100
AcDbEntity
  8
LOGO
 62
     4
100
AcDbLine
 10
3145.034564231405
 20
1482.405574105801
 30
0.0
 11
3137.452731832169
 21
1482.405574105801
 31
0.0
  0
TEXT
  5
1620
330
1F
100
AcDbEntity
  8
LOGO
  6
Continuous
100
AcDbText
 10
3117.246501164496
 20
1478.009356538411
 30
91.49236949083864
 40
1.047161114999999
  1
Bearing type
 41
0.8
  7
CHINESET
100
AcDbText
  0
TEXT
  5
1621
330
1F
100
AcDbEntity
  8
LOGO
100
AcDbText
 10
3117.23663654411
 20
1479.950567566293
 30
91.49236949083864
 40
1.745268525
  1
軸承型式
  7
CHINESET
100
AcDbText
  0
TEXT
  5
1622
330
1F
100
AcDbEntity
  8
LOGO
  6
Continuous
100
AcDbText
 10
3129.217460489256
 20
1478.009356538411
 30
91.49236949083864
 40
1.047161114999999
  1
Tube I.D.
 41
0.8
  7
CHINESET
100
AcDbText
  0
TEXT
  5
1623
330
1F
100
AcDbEntity
  8
LOGO
100
AcDbText
 10
3129.639687132921
 20
1479.950567566293
 30
91.49236949083864
 40
1.745268525
  1
內徑
  7
CHINESET
100
AcDbText
  0
TEXT
  5
1624
330
1F
100
AcDbEntity
  8
LOGO
  6
Continuous
100
AcDbText
 10
3139.450929699314
 20
1478.009356538411
 30
91.49236949083864
 40
1.047161114999999
  1
Stroke
 41
0.8
  7
CHINESET
100
AcDbText
  0
TEXT
  5
1625
330
1F
100
AcDbEntity
  8
LOGO
100
AcDbText
 10
3139.378322989907
 20
1479.950567566293
 30
91.49236949083864
 40
1.745268525
  1
行程
  7
CHINESET
100
AcDbText
  0
TEXT
  5
1626
330
1F
100
AcDbEntity
  8
LOGO
100
AcDbText
 10
3087.093285529535
 20
1476.866190388135
 30
0.0
 40
1.39621482
  1
10603141
 41
0.7
  7
CHINESET
 72
     1
 11
3090.281309368535
 21
1476.866190388135
 31
0.0
100
AcDbText
  0
LINE
  5
1627
330
1F
100
AcDbEntity
  8
LOGO
 62
     4
100
AcDbLine
 10
3094.614320864662
 20
1478.91554247293
 30
0.0
 11
3094.614320864663
 21
1476.123517166634
 31
0.0
  0
LINE
  5
1628
330
1F
100
AcDbEntity
  8
LOGO
 62
     4
100
AcDbLine
 10
3094.614320864662
 20
1478.91554247293
 30
0.0
 11
3086.237031944663
 21
1478.91554247293
 31
0.0
  0
LINE
  5
1629
330
1F
100
AcDbEntity
  8
LOGO
  6
AM_ISO08W050x2
 48
0.3
100
AcDbLine
 10
3078.397806890345
 20
1485.898591819952
 30
0.0
 11
3080.632539032617
 21
1485.898591819952
 31
0.0
1001
GENIUS_GENOREF_13
1005
162E
  0
LINE
  5
162A
330
1F
100
AcDbEntity
  8
LOGO
  6
AM_ISO08W050x2
 48
0.3
100
AcDbLine
 10
3079.515172961481
 20
1484.781225748817
 30
0.0
 11
3079.515172961481
 21
1487.015957891087
 31
0.0
1001
GENIUS_GENOREF_13
1005
162D
  0
LINE
  5
162B
330
1F
100
AcDbEntity
  8
LOGO
  6
CENTER
 48
0.5
100
AcDbLine
 10
3081.864546523365
 20
1485.898591819952
 30
0.0
 11
3084.86468799004
 21
1485.898591819952
 31
0.0
1001
GENIUS_GENOREF_13
1005
162C
  0
POINT
  5
162C
330
1F
100
AcDbEntity
  8
0
 60
     1
100
AcDbPoint
 10
717.7893463853256
 20
372.8627295737218
 30
0.0
1001
GENIUS_GENOBJ-N-CRS_13
1002
{
1000
OWNER
1000
GEN
1002
}
1001
GENIUS_GENOLIS_13
1002
{
1000
ENT
1005
0
1005
0
1005
0
1005
162B
1002
}
1001
GENIUS_GENOENT_13
1002
{
1000
MYREF
1005
162C
1002
}
1002
{
1000
GRP
1005
0
1002
}
1001
GENIUS_GENODEF_13
1002
{
1000
HIER
1070
    10
1002
}
1002
{
1000
MANEDIT
1070
     1
1002
}
1002
{
1000
NOSEL
1070
     0
1002
}
1002
{
1000
BEHIND
1070
     0
1002
}
1002
{
1000
OTHER
1070
     0
1002
}
1002
{
1000
REACTOR
1002
}
  0
POINT
  5
162D
330
1F
100
AcDbEntity
  8
0
 60
     1
100
AcDbPoint
 10
706.4647611624709
 20
381.7383160523581
 30
0.0
1001
GENIUS_GENOBJ-N-CRS_13
1002
{
1000
OWNER
1000
GEN
1002
}
1001
GENIUS_GENOLIS_13
1002
{
1000
ENT
1005
0
1005
0
1005
0
1005
162A
1002
}
1001
GENIUS_GENOENT_13
1002
{
1000
MYREF
1005
162D
1002
}
1002
{
1000
GRP
1005
0
1002
}
1001
GENIUS_GENODEF_13
1002
{
1000
HIER
1070
    10
1002
}
1002
{
1000
MANEDIT
1070
     1
1002
}
1002
{
1000
NOSEL
1070
     0
1002
}
1002
{
1000
BEHIND
1070
     0
1002
}
1002
{
1000
OTHER
1070
     0
1002
}
1002
{
1000
REACTOR
1002
}
  0
POINT
  5
162E
330
1F
100
AcDbEntity
  8
0
 60
     1
100
AcDbPoint
 10
712.8234348603077
 20
372.8627295737218
 30
0.0
1001
GENIUS_GENOBJ-N-CRS_13
1002
{
1000
OWNER
1000
GEN
1002
}
1001
GENIUS_GENOLIS_13
1002
{
1000
ENT
1005
0
1005
0
1005
0
1005
1629
1002
}
1001
GENIUS_GENOENT_13
1002
{
1000
MYREF
1005
162E
1002
}
1002
{
1000
GRP
1005
0
1002
}
1001
GENIUS_GENODEF_13
1002
{
1000
HIER
1070
    10
1002
}
1002
{
1000
MANEDIT
1070
     1
1002
}
1002
{
1000
NOSEL
1070
     0
1002
}
1002
{
1000
BEHIND
1070
     0
1002
}
1002
{
1000
OTHER
1070
     0
1002
}
1002
{
1000
REACTOR
1002
}
  0
DIMENSION
  5
1F2F
330
1F
100
AcDbEntity
  8
AM_5
100
AcDbDimension
  2
*D14
 10
3127.939819026096
 20
1582.920826562769
 30
0.0
 11
3125.939819026096
 21
1585.920826562769
 31
0.0
 70
    32
 71
     5
 42
6.0
  3
AM_ISO$0
100
AcDbAlignedDimension
 13
3114.517848187886
 23
1588.920826562769
 33
0.0
 14
3113.717848187885
 24
1582.920826562769
 34
0.0
 50
90.0
100
AcDbRotatedDimension
1001
ACAD
1000
DSTYLE
1002
{
1070
    40
1040
0.8
1070
   173
1070
     1
1070
   174
1070
     1
1070
   272
1070
     8
1070
   344
1005
1DB0
1002
}
  0
DIMENSION
  5
1FA8
330
1F
100
AcDbEntity
  8
AM_5
100
AcDbDimension
  2
*D15
 10
3127.939819026096
 20
1582.920826562769
 30
0.0
 11
3125.939819026096
 21
1580.670826562769
 31
0.0
 70
    32
 71
     5
 42
4.5
  3
AM_ISO$0
100
AcDbAlignedDimension
 13
3112.717848184241
 23
1578.420826562769
 33
0.0
 14
3114.517848187886
 24
1582.920826562769
 34
0.0
 50
90.0
100
AcDbRotatedDimension
1001
ACAD
1000
DSTYLE
1002
{
1070
    40
1040
0.8
1070
   173
1070
     1
1070
   174
1070
     1
1070
   272
1070
     8
1070
   344
1005
1DB0
1002
}
  0
LINE
  5
306C
330
1F
100
AcDbEntity
  8
AM_7
100
AcDbLine
 10
3092.46784819153
 20
1577.111986623543
 30
0.0
 11
3092.46784819153
 21
1584.539206847982
 31
0.0
  0
LINE
  5
306D
330
1F
100
AcDbEntity
  8
AM_7
100
AcDbLine
 10
3107.967848184241
 20
1577.111986623543
 30
0.0
 11
3107.967848184241
 21
1584.539206847982
 31
0.0
  0
LINE
  5
306E
330
1F
100
AcDbEntity
  8
AM_7
100
AcDbLine
 10
3172.815536570068
 20
1577.111986623543
 30
0.0
 11
3172.815536570068
 21
1584.539206847982
 31
0.0
  0
LINE
  5
306F
330
1F
100
AcDbEntity
  8
AM_7
100
AcDbLine
 10
3157.315536570069
 20
1577.111986623543
 30
0.0
 11
3157.315536570069
 21
1584.539206847982
 31
0.0
  0
LINE
  5
3070
330
1F
100
AcDbEntity
  8
AM_VIS
100
AcDbLine
 10
3087.717848187886
 20
1556.420826562769
 30
0.0
 11
3087.717848187886
 21
1578.420826562769
 31
0.0
  0
LINE
  5
3071
330
1F
100
AcDbEntity
  8
AM_VIS
100
AcDbLine
 10
3112.717848184241
 20
1556.420826562769
 30
0.0
 11
3112.717848184241
 21
1578.420826562769
 31
0.0
  0
LINE
  5
3072
330
1F
100
AcDbEntity
  8
AM_VIS
100
AcDbLine
 10
3110.205340366063
 20
1556.420826562769
 30
0.0
 11
3110.205340366063
 21
1578.420826562769
 31
0.0
  0
LINE
  5
3073
330
1F
100
AcDbEntity
  8
AM_VIS
100
AcDbLine
 10
3090.230356006064
 20
1556.420826562769
 30
0.0
 11
3090.230356006064
 21
1578.420826562769
 31
0.0
  0
LINE
  5
3074
330
1F
100
AcDbEntity
  8
AM_VIS
100
AcDbLine
 10
3110.205340366063
 20
1578.420826562769
 30
0.0
 11
3090.230356006064
 21
1578.420826562769
 31
0.0
  0
LINE
  5
3075
330
1F
100
AcDbEntity
  8
AM_VIS
100
AcDbLine
 10
3110.205340366063
 20
1556.420826562769
 30
0.0
 11
3090.230356006064
 21
1556.420826562769
 31
0.0
  0
LINE
  5
307D
330
1F
100
AcDbEntity
  8
AM_VIS
100
AcDbLine
 10
3110.205340366063
 20
1578.420826562769
 30
0.0
 11
3112.717848184241
 21
1578.420826562769
 31
0.0
  0
LINE
  5
307E
330
1F
100
AcDbEntity
  8
AM_VIS
100
AcDbLine
 10
3087.717848187886
 20
1578.420826562769
 30
0.0
 11
3090.230356006064
 21
1578.420826562769
 31
0.0
  0
LINE
  5
307F
330
1F
100
AcDbEntity
  8
AM_VIS
100
AcDbLine
 10
3087.717848187886
 20
1556.420826562769
 30
0.0
 11
3090.230356006064
 21
1556.420826562769
 31
0.0
  0
LINE
  5
3080
330
1F
100
AcDbEntity
  8
AM_VIS
100
AcDbLine
 10
3110.205340366063
 20
1556.420826562769
 30
0.0
 11
3112.717848184241
 21
1556.420826562769
 31
0.0
  0
LINE
  5
3081
330
1F
100
AcDbEntity
  8
AM_VIS
100
AcDbLine
 10
3094.467848191531
 20
1578.420826562769
 30
0.0
 11
3094.467848191531
 21
1582.920826562769
 31
0.0
  0
LINE
  5
3082
330
1F
100
AcDbEntity
  8
AM_VIS
100
AcDbLine
 10
3090.467848191531
 20
1578.420826562769
 30
0.0
 11
3090.467848191531
 21
1582.920826562769
 31
0.0
  0
LINE
  5
3083
330
1F
100
AcDbEntity
  8
AM_VIS
100
AcDbLine
 10
3109.967848184241
 20
1578.420826562769
 30
0.0
 11
3109.967848184241
 21
1582.920826562769
 31
0.0
  0
LINE
  5
3084
330
1F
100
AcDbEntity
  8
AM_VIS
100
AcDbLine
 10
3105.967848184241
 20
1578.420826562769
 30
0.0
 11
3105.967848184241
 21
1582.920826562769
 31
0.0
  0
ELLIPSE
  5
3085
330
1F
100
AcDbEntity
  8
AM_VIS
100
AcDbEllipse
 10
3100.217848187885
 20
1585.420826562769
 30
0.0
 11
0.0000000000000007
 21
5.999999999999994
 31
0.0
210
0.0
220
0.0
230
1.0
 40
0.5000000000000005
 41
2.555907110132642
 42
3.727278197046944
  0
SPLINE
  5
3086
330
1F
100
AcDbEntity
  8
AM_VIS
100
AcDbSpline
210
0.0
220
0.0
230
1.0
 70
    12
 71
     2
 72
     6
 73
     3
 74
     0
 42
0.0000000001
 43
0.0000000001
 40
3.365675232497586
 40
3.365675232497586
 40
3.365675232497586
 40
3.810674992710596
 40
3.810674992710596
 40
3.810674992710596
 10
3101.453448854083
 20
1582.920826562769
 30
0.0
 41
1.01747422046812
 10
3101.657088833923
 20
1582.764546390155
 30
0.0
 41
1.011399516239798
 10
3101.876160583064
 20
1582.554801158984
 30
0.0
 41
1.0
  0
LINE
  5
3087
330
1F
100
AcDbEntity
  8
AM_VIS
100
AcDbLine
 10
3101.876160583064
 20
1582.554801158984
 30
0.0
 11
3101.876160583064
 21
1580.420826562769
 31
0.0
  0
LINE
  5
3088
330
1F
100
AcDbEntity
  8
AM_VIS
100
AcDbLine
 10
3101.876160583064
 20
1580.420826562769
 30
0.0
 11
3098.559535792708
 21
1580.420826562769
 31
0.0
  0
LINE
  5
3089
330
1F
100
AcDbEntity
  8
AM_VIS
100
AcDbLine
 10
3098.559535792708
 20
1580.420826562769
 30
0.0
 11
3098.559535792708
 21
1582.554801158984
 31
0.0
  0
SPLINE
  5
308A
330
1F
100
AcDbEntity
  8
AM_VIS
100
AcDbSpline
210
0.0000000000065569
220
-0.0000000000075623
230
1.0
 70
    12
 71
     2
 72
     6
 73
     3
 74
     0
 42
0.0000000001
 43
0.0000000001
 40
0.0
 40
0.0
 40
0.0
 40
0.4449997602130054
 40
0.4449997602130054
 40
0.4449997602130054
 10
3098.559535792708
 20
1582.554801158984
 30
0.0
 41
1.0
 10
3098.778607541846
 20
1582.764546390155
 30
0.0000000000001137
 41
1.011399516239798
 10
3098.982247521688
 20
1582.920826562769
 30
0.0
 41
1.01747422046812
  0
LINE
  5
308B
330
1F
100
AcDbEntity
  8
AM_VIS
100
AcDbLine
 10
3103.006523322481
 20
1582.920826562769
 30
0.0
 11
3103.217848187886
 21
1582.554801158984
 31
0.0
  0
LINE
  5
308C
330
1F
100
AcDbEntity
  8
AM_VIS
100
AcDbLine
 10
3103.217848187886
 20
1578.420826562769
 30
0.0
 11
3103.217848187886
 21
1582.554801158984
 31
0.0
  0
LINE
  5
308D
330
1F
100
AcDbEntity
  8
AM_VIS
100
AcDbLine
 10
3097.217848187886
 20
1578.420826562769
 30
0.0
 11
3097.217848187886
 21
1582.554801158984
 31
0.0
  0
LINE
  5
308E
330
1F
100
AcDbEntity
  8
AM_VIS
100
AcDbLine
 10
3097.429173053291
 20
1582.920826562769
 30
0.0
 11
3097.217848187886
 21
1582.554801158984
 31
0.0
  0
LINE
  5
308F
330
1F
100
AcDbEntity
  8
AM_VIS
100
AcDbLine
 10
3103.217848187886
 20
1582.554801158984
 30
0.0
 11
3101.876160583064
 21
1582.554801158984
 31
0.0
  0
LINE
  5
3090
330
1F
100
AcDbEntity
  8
AM_VIS
100
AcDbLine
 10
3098.559535792708
 20
1582.554801158984
 30
0.0
 11
3097.217848187886
 21
1582.554801158984
 31
0.0
  0
LINE
  5
3091
330
1F
100
AcDbEntity
  8
AM_VIS
100
AcDbLine
 10
3086.717848187886
 20
1582.920826562769
 30
0.0
 11
3089.717848187886
 21
1582.920826562769
 31
0.0
  0
LINE
  5
3092
330
1F
100
AcDbEntity
  8
AM_VIS
100
AcDbLine
 10
3086.717848187886
 20
1588.920826562769
 30
0.0
 11
3086.717848187886
 21
1582.920826562769
 31
0.0
  0
LINE
  5
3093
330
1F
100
AcDbEntity
  8
AM_VIS
100
AcDbLine
 10
3089.717848187886
 20
1582.920826562769
 30
0.0
 11
3110.717848187885
 21
1582.920826562769
 31
0.0
  0
LINE
  5
3094
330
1F
100
AcDbEntity
  8
AM_VIS
100
AcDbLine
 10
3089.717848187886
 20
1582.920826562769
 30
0.0
 11
3089.717848187886
 21
1588.920826562769
 31
0.0
  0
LINE
  5
3095
330
1F
100
AcDbEntity
  8
AM_VIS
100
AcDbLine
 10
3110.717848187885
 20
1582.920826562769
 30
0.0
 11
3113.717848187885
 21
1582.920826562769
 31
0.0
  0
LINE
  5
3096
330
1F
100
AcDbEntity
  8
AM_VIS
100
AcDbLine
 10
3110.717848187885
 20
1588.920826562769
 30
0.0
 11
3110.717848187885
 21
1582.920826562769
 31
0.0
  0
LINE
  5
3097
330
1F
100
AcDbEntity
  8
AM_VIS
100
AcDbLine
 10
3113.717848187885
 20
1588.920826562769
 30
0.0
 11
3110.717848187885
 21
1588.920826562769
 31
0.0
  0
LINE
  5
3098
330
1F
100
AcDbEntity
  8
AM_VIS
100
AcDbLine
 10
3110.717848187885
 20
1588.920826562769
 30
0.0
 11
3089.717848187886
 21
1588.920826562769
 31
0.0
  0
LINE
  5
3099
330
1F
100
AcDbEntity
  8
AM_VIS
100
AcDbLine
 10
3089.717848187886
 20
1588.920826562769
 30
0.0
 11
3086.717848187886
 21
1588.920826562769
 31
0.0
  0
LINE
  5
309A
330
1F
100
AcDbEntity
  8
AM_VIS
100
AcDbLine
 10
3113.717848187885
 20
1582.920826562769
 30
0.0
 11
3113.717848187885
 21
1588.920826562769
 31
0.0
  0
LINE
  5
30A8
330
1F
100
AcDbEntity
  8
AM_VIS
100
AcDbLine
 10
3113.717848187885
 20
1615.268645498219
 30
0.0
 11
3110.717848187885
 21
1612.268645498219
 31
0.0
  0
LINE
  5
30A9
330
1F
100
AcDbEntity
  8
AM_VIS
100
AcDbLine
 10
3110.717848187885
 20
1612.268645498219
 30
0.0
 11
3089.717848187886
 21
1612.268645498219
 31
0.0
  0
LINE
  5
30AA
330
1F
100
AcDbEntity
  8
AM_VIS
100
AcDbLine
 10
3089.717848187886
 20
1612.268645498219
 30
0.0
 11
3086.717848187886
 21
1615.268645498219
 31
0.0
  0
LINE
  5
30AB
330
1F
100
AcDbEntity
  8
AM_VIS
100
AcDbLine
 10
3086.717848187886
 20
1615.268645498219
 30
0.0
 11
3086.717848187886
 21
1636.268645498219
 31
0.0
  0
LINE
  5
30AC
330
1F
100
AcDbEntity
  8
AM_VIS
100
AcDbLine
 10
3086.717848187886
 20
1636.268645498219
 30
0.0
 11
3089.717848187886
 21
1639.268645498219
 31
0.0
  0
LINE
  5
30AD
330
1F
100
AcDbEntity
  8
AM_VIS
100
AcDbLine
 10
3089.717848187886
 20
1639.268645498219
 30
0.0
 11
3110.717848187885
 21
1639.268645498219
 31
0.0
  0
LINE
  5
30AE
330
1F
100
AcDbEntity
  8
AM_VIS
100
AcDbLine
 10
3113.717848187885
 20
1636.268645498219
 30
0.0
 11
3113.717848187885
 21
1615.268645498219
 31
0.0
  0
LINE
  5
30AF
330
1F
100
AcDbEntity
  8
AM_VIS
100
AcDbLine
 10
3110.717848187885
 20
1639.268645498219
 30
0.0
 11
3113.717848187885
 21
1636.268645498219
 31
0.0
  0
LINE
  5
30B5
330
1F
100
AcDbEntity
  8
AM_VIS
100
AcDbLine
 10
3112.317848187886
 20
1531.232626382778
 30
0.0
 11
3112.617848187886
 21
1531.232626382778
 31
0.0
  0
LINE
  5
30B6
330
1F
100
AcDbEntity
  8
AM_VIS
100
AcDbLine
 10
3111.817848187886
 20
1531.682626382778
 30
0.0
 11
3112.317848187886
 21
1531.232626382778
 31
0.0
  0
LINE
  5
30B7
330
1F
100
AcDbEntity
  8
AM_VIS
100
AcDbLine
 10
3109.717848187886
 20
1531.682626382778
 30
0.0
 11
3111.817848187886
 21
1531.682626382778
 31
0.0
  0
LINE
  5
30B8
330
1F
100
AcDbEntity
  8
AM_VIS
100
AcDbLine
 10
3108.017848187886
 20
1529.082626382778
 30
0.0
 11
3108.017848187886
 21
1529.982626382778
 31
0.0
  0
LINE
  5
30B9
330
1F
100
AcDbEntity
  8
AM_VIS
100
AcDbLine
 10
3111.817848187885
 20
1527.382626382778
 30
0.0
 11
3109.717848187886
 21
1527.382626382778
 31
0.0
  0
LINE
  5
30BA
330
1F
100
AcDbEntity
  8
AM_VIS
100
AcDbLine
 10
3112.317848187886
 20
1527.832626382778
 30
0.0
 11
3111.817848187885
 21
1527.382626382778
 31
0.0
  0
LINE
  5
30BB
330
1F
100
AcDbEntity
  8
AM_VIS
100
AcDbLine
 10
3112.617848187886
 20
1527.832626382778
 30
0.0
 11
3112.317848187886
 21
1527.832626382778
 31
0.0
  0
LINE
  5
30BC
330
1F
100
AcDbEntity
  8
AM_VIS
100
AcDbLine
 10
3112.717848184241
 20
1519.545134200956
 30
0.0
 11
3112.717848184241
 21
1527.732626382779
 31
0.0
  0
LINE
  5
30BD
330
1F
100
AcDbEntity
  8
AM_VIS
100
AcDbLine
 10
3102.017848187886
 20
1517.032626382778
 30
0.0
 11
3110.205340366063
 21
1517.032626382778
 31
0.0
  0
LINE
  5
30BE
330
1F
100
AcDbEntity
  8
AM_VIS
100
AcDbLine
 10
3101.917848187885
 20
1517.432626382778
 30
0.0
 11
3101.917848187885
 21
1517.132626382778
 31
0.0
  0
LINE
  5
30BF
330
1F
100
AcDbEntity
  8
AM_VIS
100
AcDbLine
 10
3102.367848187886
 20
1517.932626382778
 30
0.0
 11
3101.917848187885
 21
1517.432626382778
 31
0.0
  0
LINE
  5
30C0
330
1F
100
AcDbEntity
  8
AM_VIS
100
AcDbLine
 10
3102.367848187886
 20
1520.032626382778
 30
0.0
 11
3102.367848187886
 21
1517.932626382778
 31
0.0
  0
LINE
  5
30C1
330
1F
100
AcDbEntity
  8
AM_VIS
100
AcDbLine
 10
3099.767848187886
 20
1521.732626382778
 30
0.0
 11
3100.667848187886
 21
1521.732626382778
 31
0.0
  0
LINE
  5
30C2
330
1F
100
AcDbEntity
  8
AM_VIS
100
AcDbLine
 10
3098.067848187886
 20
1517.932626382778
 30
0.0
 11
3098.067848187886
 21
1520.032626382778
 31
0.0
  0
LINE
  5
30C3
330
1F
100
AcDbEntity
  8
AM_VIS
100
AcDbLine
 10
3098.517848187886
 20
1517.432626382778
 30
0.0
 11
3098.067848187886
 21
1517.932626382778
 31
0.0
  0
LINE
  5
30C4
330
1F
100
AcDbEntity
  8
AM_VIS
100
AcDbLine
 10
3098.517848187886
 20
1517.132626382778
 30
0.0
 11
3098.517848187886
 21
1517.432626382778
 31
0.0
  0
LINE
  5
30C5
330
1F
100
AcDbEntity
  8
AM_VIS
100
AcDbLine
 10
3090.230356006064
 20
1517.032626382778
 30
0.0
 11
3098.417848187886
 21
1517.032626382778
 31
0.0
  0
LINE
  5
30C6
330
1F
100
AcDbEntity
  8
AM_VIS
100
AcDbLine
 10
3087.717848187886
 20
1527.732626382778
 30
0.0
 11
3087.717848187886
 21
1519.545134200956
 31
0.0
  0
LINE
  5
30C7
330
1F
100
AcDbEntity
  8
AM_VIS
100
AcDbLine
 10
3088.117848187886
 20
1527.832626382778
 30
0.0
 11
3087.817848187885
 21
1527.832626382778
 31
0.0
  0
LINE
  5
30C8
330
1F
100
AcDbEntity
  8
AM_VIS
100
AcDbLine
 10
3088.617848187886
 20
1527.382626382778
 30
0.0
 11
3088.117848187886
 21
1527.832626382778
 31
0.0
  0
LINE
  5
30C9
330
1F
100
AcDbEntity
  8
AM_VIS
100
AcDbLine
 10
3090.717848187886
 20
1527.382626382778
 30
0.0
 11
3088.617848187886
 21
1527.382626382778
 31
0.0
  0
LINE
  5
30CA
330
1F
100
AcDbEntity
  8
AM_VIS
100
AcDbLine
 10
3092.417848187885
 20
1529.982626382778
 30
0.0
 11
3092.417848187885
 21
1529.082626382778
 31
0.0
  0
LINE
  5
30CB
330
1F
100
AcDbEntity
  8
AM_VIS
100
AcDbLine
 10
3088.617848187886
 20
1531.682626382778
 30
0.0
 11
3090.717848187886
 21
1531.682626382778
 31
0.0
  0
LINE
  5
30CC
330
1F
100
AcDbEntity
  8
AM_VIS
100
AcDbLine
 10
3088.117848187886
 20
1531.232626382778
 30
0.0
 11
3088.617848187886
 21
1531.682626382778
 31
0.0
  0
LINE
  5
30CD
330
1F
100
AcDbEntity
  8
AM_VIS
100
AcDbLine
 10
3087.817848187885
 20
1531.232626382778
 30
0.0
 11
3088.117848187886
 21
1531.232626382778
 31
0.0
  0
LINE
  5
30CE
330
1F
100
AcDbEntity
  8
AM_VIS
100
AcDbLine
 10
3087.717848187886
 20
1539.520118560956
 30
0.0
 11
3087.717848187886
 21
1531.332626382778
 31
0.0
  0
LINE
  5
30CF
330
1F
100
AcDbEntity
  8
AM_VIS
100
AcDbLine
 10
3110.205340366063
 20
1542.032626379133
 30
0.0
 11
3090.230356006064
 21
1542.032626379133
 31
0.0
  0
LINE
  5
30D0
330
1F
100
AcDbEntity
  8
AM_VIS
100
AcDbLine
 10
3112.717848184241
 20
1531.332626382778
 30
0.0
 11
3112.717848184241
 21
1539.520118560956
 31
0.0
  0
ARC
  5
30DA
330
1F
100
AcDbEntity
  8
AM_VIS
100
AcDbCircle
 10
3109.717848187886
 20
1529.982626382778
 30
0.0
 40
1.7
100
AcDbArc
 50
90.0
 51
180.0
  0
ARC
  5
30DB
330
1F
100
AcDbEntity
  8
AM_VIS
100
AcDbCircle
 10
3109.717848187886
 20
1529.082626382778
 30
0.0
 40
1.7
100
AcDbArc
 50
180.0
 51
270.0
  0
ARC
  5
30DC
330
1F
100
AcDbEntity
  8
AM_VIS
100
AcDbCircle
 10
3112.617848187886
 20
1527.732626382778
 30
0.0
 40
0.1
100
AcDbArc
 50
0.0
 51
90.0
  0
ARC
  5
30DD
330
1F
100
AcDbEntity
  8
AM_VIS
100
AcDbCircle
 10
3100.217848186063
 20
1529.532626380956
 30
0.0
 40
16.0
100
AcDbArc
 50
308.6248328835087
 51
321.3751671164995
  0
ARC
  5
30DE
330
1F
100
AcDbEntity
  8
AM_VIS
100
AcDbCircle
 10
3102.017848187886
 20
1517.132626382778
 30
0.0
 40
0.1
100
AcDbArc
 50
180.0
 51
270.0
  0
ARC
  5
30DF
330
1F
100
AcDbEntity
  8
AM_VIS
100
AcDbCircle
 10
3100.667848187886
 20
1520.032626382778
 30
0.0
 40
1.7
100
AcDbArc
 50
0.0
 51
90.0
  0
ARC
  5
30E0
330
1F
100
AcDbEntity
  8
AM_VIS
100
AcDbCircle
 10
3099.767848187886
 20
1520.032626382778
 30
0.0
 40
1.7
100
AcDbArc
 50
90.0
 51
180.0
  0
ARC
  5
30E1
330
1F
100
AcDbEntity
  8
AM_VIS
100
AcDbCircle
 10
3098.417848187886
 20
1517.132626382778
 30
0.0
 40
0.1
100
AcDbArc
 50
270.0
 51
0.0
  0
ARC
  5
30E2
330
1F
100
AcDbEntity
  8
AM_VIS
100
AcDbCircle
 10
3100.217848186063
 20
1529.532626380956
 30
0.0
 40
16.0
100
AcDbArc
 50
218.6248328835005
 51
231.3751671164914
  0
ARC
  5
30E3
330
1F
100
AcDbEntity
  8
AM_VIS
100
AcDbCircle
 10
3087.817848187885
 20
1527.732626382778
 30
0.0
 40
0.1
100
AcDbArc
 50
90.0
 51
180.0
  0
ARC
  5
30E4
330
1F
100
AcDbEntity
  8
AM_VIS
100
AcDbCircle
 10
3090.717848187886
 20
1529.082626382778
 30
0.0
 40
1.7
100
AcDbArc
 50
270.0
 51
0.0
  0
ARC
  5
30E5
330
1F
100
AcDbEntity
  8
AM_VIS
100
AcDbCircle
 10
3090.717848187886
 20
1529.982626382778
 30
0.0
 40
1.7
100
AcDbArc
 50
0.0
 51
90.0
  0
ARC
  5
30E6
330
1F
100
AcDbEntity
  8
AM_VIS
100
AcDbCircle
 10
3087.817848187885
 20
1531.332626382778
 30
0.0
 40
0.1
100
AcDbArc
 50
180.0
 51
270.0
  0
ARC
  5
30E7
330
1F
100
AcDbEntity
  8
AM_VIS
100
AcDbCircle
 10
3100.217848186063
 20
1529.532626380956
 30
0.0
 40
16.0
100
AcDbArc
 50
128.6248328835086
 51
141.3751671164995
  0
ARC
  5
30E8
330
1F
100
AcDbEntity
  8
AM_VIS
100
AcDbCircle
 10
3100.217848186063
 20
1529.532626380956
 30
0.0
 40
16.0
100
AcDbArc
 50
38.62483288350049
 51
51.37516711649138
  0
ARC
  5
30E9
330
1F
100
AcDbEntity
  8
AM_VIS
100
AcDbCircle
 10
3112.617848187886
 20
1531.332626382778
 30
0.0
 40
0.1
100
AcDbArc
 50
270.0
 51
0.0
  0
LINE
  5
30F6
330
1F
100
AcDbEntity
  8
AM_VIS
100
AcDbLine
 10
3110.717848187885
 20
1516.032626382778
 30
0.0
 11
3089.717848187886
 21
1516.032626382778
 31
0.0
  0
LINE
  5
30F7
330
1F
100
AcDbEntity
  8
AM_VIS
100
AcDbLine
 10
3089.717848187886
 20
1516.032626382778
 30
0.0
 11
3086.717848187886
 21
1519.032626382778
 31
0.0
  0
LINE
  5
30F8
330
1F
100
AcDbEntity
  8
AM_VIS
100
AcDbLine
 10
3086.717848187886
 20
1519.032626382778
 30
0.0
 11
3086.717848187886
 21
1540.032626382778
 31
0.0
  0
LINE
  5
30F9
330
1F
100
AcDbEntity
  8
AM_VIS
100
AcDbLine
 10
3086.717848187886
 20
1540.032626382778
 30
0.0
 11
3089.717848187886
 21
1543.032626382778
 31
0.0
  0
LINE
  5
30FA
330
1F
100
AcDbEntity
  8
AM_VIS
100
AcDbLine
 10
3089.717848187886
 20
1543.032626382778
 30
0.0
 11
3110.717848187885
 21
1543.032626382778
 31
0.0
  0
LINE
  5
30FB
330
1F
100
AcDbEntity
  8
AM_VIS
100
AcDbLine
 10
3110.717848187885
 20
1543.032626382778
 30
0.0
 11
3113.717848187885
 21
1540.032626382778
 31
0.0
  0
LINE
  5
30FC
330
1F
100
AcDbEntity
  8
AM_VIS
100
AcDbLine
 10
3113.717848187885
 20
1540.032626382778
 30
0.0
 11
3113.717848187885
 21
1519.032626382778
 31
0.0
  0
LINE
  5
30FD
330
1F
100
AcDbEntity
  8
AM_VIS
100
AcDbLine
 10
3113.717848187885
 20
1519.032626382778
 30
0.0
 11
3110.717848187885
 21
1516.032626382778
 31
0.0
  0
LINE
  5
3102
330
1F
100
AcDbEntity
  8
AM_VIS
100
AcDbLine
 10
3177.565536570069
 20
1556.420826562769
 30
0.0
 11
3177.565536570069
 21
1578.420826562769
 31
0.0
  0
LINE
  5
3103
330
1F
100
AcDbEntity
  8
AM_VIS
100
AcDbLine
 10
3155.078044391891
 20
1556.420826562769
 30
0.0
 11
3155.078044391891
 21
1578.420826562769
 31
0.0
  0
LINE
  5
3104
330
1F
100
AcDbEntity
  8
AM_VIS
100
AcDbLine
 10
3175.053028751891
 20
1556.420826562769
 30
0.0
 11
3175.053028751891
 21
1578.420826562769
 31
0.0
  0
LINE
  5
3105
330
1F
100
AcDbEntity
  8
AM_VIS
100
AcDbLine
 10
3163.365536570069
 20
1556.420826562769
 30
0.0
 11
3163.365536570069
 21
1578.420826562769
 31
0.0
  0
LINE
  5
3106
330
1F
100
AcDbEntity
  8
AM_VIS
100
AcDbLine
 10
3166.765536570069
 20
1556.420826562769
 30
0.0
 11
3166.765536570069
 21
1578.420826562769
 31
0.0
  0
LINE
  5
3107
330
1F
100
AcDbEntity
  8
AM_VIS
100
AcDbLine
 10
3152.565536573713
 20
1556.420826562769
 30
0.0
 11
3152.565536573713
 21
1578.420826562769
 31
0.0
  0
LINE
  5
3108
330
1F
100
AcDbEntity
  8
AM_VIS
100
AcDbLine
 10
3163.265536570069
 20
1578.420826562769
 30
0.0
 11
3155.078044391891
 21
1578.420826562769
 31
0.0
  0
LINE
  5
3109
330
1F
100
AcDbEntity
  8
AM_VIS
100
AcDbLine
 10
3175.053028751891
 20
1578.420826562769
 30
0.0
 11
3166.865536570068
 21
1578.420826562769
 31
0.0
  0
LINE
  5
310A
330
1F
100
AcDbEntity
  8
AM_VIS
100
AcDbLine
 10
3164.615536570068
 20
1578.420826562769
 30
0.0
 11
3165.515536570069
 21
1578.420826562769
 31
0.0
  0
LINE
  5
310B
330
1F
100
AcDbEntity
  8
AM_VIS
100
AcDbLine
 10
3165.515536570069
 20
1556.420826562769
 30
0.0
 11
3164.615536570068
 21
1556.420826562769
 31
0.0
  0
LINE
  5
310C
330
1F
100
AcDbEntity
  8
AM_VIS
100
AcDbLine
 10
3175.053028751891
 20
1556.420826562769
 30
0.0
 11
3166.865536570068
 21
1556.420826562769
 31
0.0
  0
LINE
  5
310D
330
1F
100
AcDbEntity
  8
AM_VIS
100
AcDbLine
 10
3163.265536570069
 20
1556.420826562769
 30
0.0
 11
3155.078044391891
 21
1556.420826562769
 31
0.0
  0
LINE
  5
310E
330
1F
100
AcDbEntity
  8
AM_VIS
100
AcDbLine
 10
3152.565536573713
 20
1578.420826562769
 30
0.0
 11
3155.078044391891
 21
1578.420826562769
 31
0.0
  0
LINE
  5
310F
330
1F
100
AcDbEntity
  8
AM_VIS
100
AcDbLine
 10
3175.053028751891
 20
1578.420826562769
 30
0.0
 11
3177.565536570069
 21
1578.420826562769
 31
0.0
  0
LINE
  5
3110
330
1F
100
AcDbEntity
  8
AM_VIS
100
AcDbLine
 10
3166.865536570068
 20
1578.420826562769
 30
0.0
 11
3166.765536570069
 21
1578.420826562769
 31
0.0
  0
LINE
  5
3111
330
1F
100
AcDbEntity
  8
AM_VIS
100
AcDbLine
 10
3165.515536570069
 20
1578.420826562769
 30
0.0
 11
3166.765536570069
 21
1578.420826562769
 31
0.0
  0
LINE
  5
3112
330
1F
100
AcDbEntity
  8
AM_VIS
100
AcDbLine
 10
3163.365536570069
 20
1578.420826562769
 30
0.0
 11
3164.615536570068
 21
1578.420826562769
 31
0.0
  0
LINE
  5
3113
330
1F
100
AcDbEntity
  8
AM_VIS
100
AcDbLine
 10
3163.365536570069
 20
1578.420826562769
 30
0.0
 11
3163.265536570069
 21
1578.420826562769
 31
0.0
  0
LINE
  5
3114
330
1F
100
AcDbEntity
  8
AM_VIS
100
AcDbLine
 10
3164.615536570068
 20
1556.420826562769
 30
0.0
 11
3163.365536570069
 21
1556.420826562769
 31
0.0
  0
LINE
  5
3115
330
1F
100
AcDbEntity
  8
AM_VIS
100
AcDbLine
 10
3166.765536570069
 20
1556.420826562769
 30
0.0
 11
3165.515536570069
 21
1556.420826562769
 31
0.0
  0
LINE
  5
3116
330
1F
100
AcDbEntity
  8
AM_VIS
100
AcDbLine
 10
3166.765536570069
 20
1556.420826562769
 30
0.0
 11
3166.865536570068
 21
1556.420826562769
 31
0.0
  0
LINE
  5
3117
330
1F
100
AcDbEntity
  8
AM_VIS
100
AcDbLine
 10
3175.053028751891
 20
1556.420826562769
 30
0.0
 11
3177.565536570069
 21
1556.420826562769
 31
0.0
  0
LINE
  5
3118
330
1F
100
AcDbEntity
  8
AM_VIS
100
AcDbLine
 10
3152.565536573713
 20
1556.420826562769
 30
0.0
 11
3155.078044391891
 21
1556.420826562769
 31
0.0
  0
LINE
  5
3119
330
1F
100
AcDbEntity
  8
AM_VIS
100
AcDbLine
 10
3163.265536570069
 20
1556.420826562769
 30
0.0
 11
3163.365536570069
 21
1556.420826562769
 31
0.0
  0
LINE
  5
311A
330
1F
100
AcDbEntity
  8
AM_VIS
100
AcDbLine
 10
3174.815536570068
 20
1578.420826562769
 30
0.0
 11
3174.815536570068
 21
1582.920826562769
 31
0.0
  0
LINE
  5
311B
330
1F
100
AcDbEntity
  8
AM_VIS
100
AcDbLine
 10
3170.815536570068
 20
1578.420826562769
 30
0.0
 11
3170.815536570068
 21
1582.920826562769
 31
0.0
  0
LINE
  5
311C
330
1F
100
AcDbEntity
  8
AM_VIS
100
AcDbLine
 10
3159.315536570069
 20
1578.420826562769
 30
0.0
 11
3159.315536570069
 21
1582.920826562769
 31
0.0
  0
LINE
  5
311D
330
1F
100
AcDbEntity
  8
AM_VIS
100
AcDbLine
 10
3155.315536570069
 20
1578.420826562769
 30
0.0
 11
3155.315536570069
 21
1582.920826562769
 31
0.0
  0
LINE
  5
311E
330
1F
100
AcDbEntity
  8
AM_VIS
100
AcDbLine
 10
3162.065536570069
 20
1579.420826562769
 30
0.0
 11
3162.565536570069
 21
1580.420826562769
 31
0.0
  0
LINE
  5
311F
330
1F
100
AcDbEntity
  8
AM_VIS
100
AcDbLine
 10
3162.565536570069
 20
1582.920826562769
 30
0.0
 11
3162.565536570069
 21
1582.554801158984
 31
0.0
  0
LINE
  5
3120
330
1F
100
AcDbEntity
  8
AM_VIS
100
AcDbLine
 10
3162.565536570069
 20
1582.554801158984
 30
0.0
 11
3162.565536570069
 21
1580.420826562769
 31
0.0
  0
LINE
  5
3121
330
1F
100
AcDbEntity
  8
AM_VIS
100
AcDbLine
 10
3167.565536570069
 20
1580.420826562769
 30
0.0
 11
3168.065536570069
 21
1579.420826562769
 31
0.0
  0
LINE
  5
3122
330
1F
100
AcDbEntity
  8
AM_VIS
100
AcDbLine
 10
3167.565536570069
 20
1582.920826562769
 30
0.0
 11
3167.565536570069
 21
1582.554801158984
 31
0.0
  0
LINE
  5
3123
330
1F
100
AcDbEntity
  8
AM_VIS
100
AcDbLine
 10
3167.565536570069
 20
1580.420826562769
 30
0.0
 11
3167.565536570069
 21
1582.554801158984
 31
0.0
  0
LINE
  5
3124
330
1F
100
AcDbEntity
  8
AM_VIS
100
AcDbLine
 10
3168.065536570069
 20
1578.420826562769
 30
0.0
 11
3168.065536570069
 21
1579.420826562769
 31
0.0
  0
LINE
  5
3125
330
1F
100
AcDbEntity
  8
AM_VIS
100
AcDbLine
 10
3162.065536570069
 20
1578.420826562769
 30
0.0
 11
3162.065536570069
 21
1579.420826562769
 31
0.0
  0
LINE
  5
3126
330
1F
100
AcDbEntity
  8
AM_VIS
100
AcDbLine
 10
3167.565536570069
 20
1582.554801158984
 30
0.0
 11
3162.565536570069
 21
1582.554801158984
 31
0.0
  0
LINE
  5
3127
330
1F
100
AcDbEntity
  8
AM_VIS
100
AcDbLine
 10
3151.565536570069
 20
1582.920826562769
 30
0.0
 11
3154.565536570069
 21
1582.920826562769
 31
0.0
  0
LINE
  5
3128
330
1F
100
AcDbEntity
  8
AM_VIS
100
AcDbLine
 10
3151.565536570069
 20
1588.920826562769
 30
0.0
 11
3151.565536570069
 21
1582.920826562769
 31
0.0
  0
LINE
  5
3129
330
1F
100
AcDbEntity
  8
AM_VIS
100
AcDbLine
 10
3154.565536570069
 20
1588.920826562769
 30
0.0
 11
3151.565536570069
 21
1588.920826562769
 31
0.0
  0
LINE
  5
312A
330
1F
100
AcDbEntity
  8
AM_VIS
100
AcDbLine
 10
3154.565536570069
 20
1582.920826562769
 30
0.0
 11
3175.565536570069
 21
1582.920826562769
 31
0.0
  0
LINE
  5
312B
330
1F
100
AcDbEntity
  8
AM_VIS
100
AcDbLine
 10
3154.565536570069
 20
1582.920826562769
 30
0.0
 11
3154.565536570069
 21
1588.920826562769
 31
0.0
  0
LINE
  5
312C
330
1F
100
AcDbEntity
  8
AM_VIS
100
AcDbLine
 10
3175.565536570069
 20
1588.920826562769
 30
0.0
 11
3154.565536570069
 21
1588.920826562769
 31
0.0
  0
LINE
  5
312D
330
1F
100
AcDbEntity
  8
AM_VIS
100
AcDbLine
 10
3178.565536570069
 20
1582.920826562769
 30
0.0
 11
3178.565536570069
 21
1588.920826562769
 31
0.0
  0
LINE
  5
312E
330
1F
100
AcDbEntity
  8
AM_VIS
100
AcDbLine
 10
3175.565536570069
 20
1582.920826562769
 30
0.0
 11
3178.565536570069
 21
1582.920826562769
 31
0.0
  0
LINE
  5
312F
330
1F
100
AcDbEntity
  8
AM_VIS
100
AcDbLine
 10
3175.565536570069
 20
1588.920826562769
 30
0.0
 11
3175.565536570069
 21
1582.920826562769
 31
0.0
  0
LINE
  5
3130
330
1F
100
AcDbEntity
  8
AM_VIS
100
AcDbLine
 10
3178.565536570069
 20
1588.920826562769
 30
0.0
 11
3175.565536570069
 21
1588.920826562769
 31
0.0
  0
LINE
  5
3131
330
1F
100
AcDbEntity
  8
AM_7
100
AcDbLine
 10
3100.217848188
 20
1591.920826562769
 30
0.0
 11
3100.217848185948
 21
1553.420826562769
 31
0.0
1001
GENIUS_GENODEF_13
1002
{
1000
HIER
1070
     0
1002
}
1002
{
1000
MANEDIT
1070
     0
1002
}
1002
{
1000
NOSEL
1070
     0
1002
}
1002
{
1000
BEHIND
1070
     0
1002
}
1002
{
1000
OTHER
1070
     0
1002
}
1002
{
1000
REACTOR
1002
}
1001
GENIUS_GENOBJ-N-CEN_13
1002
{
1000
OWNER
1000
GEN
1002
}
1001
GENIUS_GENCEN_19
1002
{
1040
3.0
1002
}
  0
LINE
  5
3132
330
1F
100
AcDbEntity
  8
AM_7
100
AcDbLine
 10
3165.037116792756
 20
1591.920691945791
 30
0.0
 11
3165.543956347381
 21
1553.420961179746
 31
0.0
1001
GENIUS_GENOBJ-N-CEN_13
1002
{
1000
OWNER
1000
GEN
1002
}
1001
GENIUS_GENODEF_13
1002
{
1000
HIER
1070
     0
1002
}
1002
{
1000
MANEDIT
1070
     0
1002
}
1002
{
1000
NOSEL
1070
     0
1002
}
1002
{
1000
BEHIND
1070
     0
1002
}
1002
{
1000
OTHER
1070
     0
1002
}
1002
{
1000
REACTOR
1002
}
1001
GENIUS_GENCEN_19
1002
{
1040
3.0
1002
}
  0
ARC
  5
3135
330
1F
100
AcDbEntity
  8
AM_4
100
AcDbCircle
 10
3100.217848186313
 20
1562.920826562768
 30
0.0
 40
2.5
100
AcDbArc
 50
260.0
 51
170.0
  0
CIRCLE
  5
3136
330
1F
100
AcDbEntity
  8
AM_0
100
AcDbCircle
 10
3100.217848186313
 20
1562.920826562768
 30
0.0
 40
2.066987298107819
  0
LINE
  5
3137
330
1F
100
AcDbEntity
  8
AM_7
  6
AM_ISO08W050x2
100
AcDbLine
 10
3100.217848186313
 20
1562.920826562768
 30
0.0
 11
3103.717848186313
 21
1562.920826562768
 31
0.0
1001
GENIUS_GENOREF_13
1005
313B
  0
LINE
  5
3138
330
1F
100
AcDbEntity
  8
AM_7
  6
AM_ISO08W050x2
100
AcDbLine
 10
3100.217848186313
 20
1562.920826562768
 30
0.0
 11
3100.217848186313
 21
1566.420826562769
 31
0.0
1001
GENIUS_GENOREF_13
1005
313B
  0
LINE
  5
3139
330
1F
100
AcDbEntity
  8
AM_7
  6
AM_ISO08W050x2
100
AcDbLine
 10
3100.217848186313
 20
1562.920826562768
 30
0.0
 11
3096.717848186313
 21
1562.920826562768
 31
0.0
1001
GENIUS_GENOREF_13
1005
313B
  0
LINE
  5
313A
330
1F
100
AcDbEntity
  8
AM_7
  6
AM_ISO08W050x2
100
AcDbLine
 10
3100.217848186313
 20
1562.920826562768
 30
0.0
 11
3100.217848186313
 21
1559.420826562768
 31
0.0
1001
GENIUS_GENOREF_13
1005
313B
  0
POINT
  5
313B
330
1F
100
AcDbEntity
  8
0
 60
     1
100
AcDbPoint
 10
168.7902658512598
 20
-7.921767863567538
 30
0.0
1001
GENIUS_GENOBJ-N-CRS_13
1002
{
1000
OWNER
1000
GEN
1002
}
1001
GENIUS_GENODEF_13
1002
{
1000
HIER
1070
    10
1002
}
1002
{
1000
MANEDIT
1070
     0
1002
}
1002
{
1000
NOSEL
1070
     0
1002
}
1002
{
1000
BEHIND
1070
     0
1002
}
1002
{
1000
OTHER
1070
     0
1002
}
1002
{
1000
REACTOR
1002
}
1001
GENIUS_GENOLIS_13
1002
{
1000
ENT
1005
313A
1005
3139
1005
3138
1005
3137
1002
}
1001
GENIUS_GENOENT_13
1002
{
1000
MYREF
1005
313B
1002
}
1002
{
1000
GRP
1005
0
1002
}
  0
ARC
  5
313C
330
1F
100
AcDbEntity
  8
AM_4
100
AcDbCircle
 10
3100.217848186063
 20
1571.920826562769
 30
0.0
 40
2.5
100
AcDbArc
 50
260.0
 51
170.0
  0
CIRCLE
  5
313D
330
1F
100
AcDbEntity
  8
AM_0
100
AcDbCircle
 10
3100.217848186063
 20
1571.920826562769
 30
0.0
 40
2.066987298107819
  0
LINE
  5
313E
330
1F
100
AcDbEntity
  8
AM_7
  6
AM_ISO08W050x2
100
AcDbLine
 10
3100.217848186063
 20
1571.920826562769
 30
0.0
 11
3103.717848186063
 21
1571.920826562769
 31
0.0
1001
GENIUS_GENOREF_13
1005
3142
  0
LINE
  5
313F
330
1F
100
AcDbEntity
  8
AM_7
  6
AM_ISO08W050x2
100
AcDbLine
 10
3100.217848186063
 20
1571.920826562769
 30
0.0
 11
3100.217848186063
 21
1575.420826562768
 31
0.0
1001
GENIUS_GENOREF_13
1005
3142
  0
LINE
  5
3140
330
1F
100
AcDbEntity
  8
AM_7
  6
AM_ISO08W050x2
100
AcDbLine
 10
3100.217848186063
 20
1571.920826562769
 30
0.0
 11
3096.717848186063
 21
1571.920826562769
 31
0.0
1001
GENIUS_GENOREF_13
1005
3142
  0
LINE
  5
3141
330
1F
100
AcDbEntity
  8
AM_7
  6
AM_ISO08W050x2
100
AcDbLine
 10
3100.217848186063
 20
1571.920826562769
 30
0.0
 11
3100.217848186063
 21
1568.420826562769
 31
0.0
1001
GENIUS_GENOREF_13
1005
3142
  0
POINT
  5
3142
330
1F
100
AcDbEntity
  8
0
 60
     1
100
AcDbPoint
 10
168.7902658510102
 20
16.07823213643246
 30
0.0
1001
GENIUS_GENOBJ-N-CRS_13
1002
{
1000
OWNER
1000
GEN
1002
}
1001
GENIUS_GENODEF_13
1002
{
1000
HIER
1070
    10
1002
}
1002
{
1000
MANEDIT
1070
     0
1002
}
1002
{
1000
NOSEL
1070
     0
1002
}
1002
{
1000
BEHIND
1070
     0
1002
}
1002
{
1000
OTHER
1070
     0
1002
}
1002
{
1000
REACTOR
1002
}
1001
GENIUS_GENOLIS_13
1002
{
1000
ENT
1005
3141
1005
3140
1005
313F
1005
313E
1002
}
1001
GENIUS_GENOENT_13
1002
{
1000
MYREF
1005
3142
1002
}
1002
{
1000
GRP
1005
0
1002
}
  0
ARC
  5
3147
330
1F
100
AcDbEntity
  8
AM_4
100
AcDbCircle
 10
3092.46784819153
 20
1521.782626382778
 30
0.0
 40
2.5
100
AcDbArc
 50
260.0
 51
170.0
  0
CIRCLE
  5
3148
330
1F
100
AcDbEntity
  8
AM_0
100
AcDbCircle
 10
3092.46784819153
 20
1521.782626382778
 30
0.0
 40
2.066987298107819
  0
LINE
  5
3149
330
1F
100
AcDbEntity
  8
AM_7
  6
AM_ISO08W050x2
100
AcDbLine
 10
3089.317848191531
 20
1521.782626382778
 30
0.0
 11
3095.617848191531
 21
1521.782626382778
 31
0.0
  0
LINE
  5
314A
330
1F
100
AcDbEntity
  8
AM_7
  6
AM_ISO08W050x2
100
AcDbLine
 10
3092.46784819153
 20
1518.632626382778
 30
0.0
 11
3092.46784819153
 21
1524.932626382778
 31
0.0
  0
ARC
  5
314B
330
1F
100
AcDbEntity
  8
AM_4
100
AcDbCircle
 10
3107.967848187886
 20
1521.782626386423
 30
0.0
 40
2.5
100
AcDbArc
 50
260.0
 51
170.0
  0
CIRCLE
  5
314C
330
1F
100
AcDbEntity
  8
AM_0
100
AcDbCircle
 10
3107.967848187886
 20
1521.782626386423
 30
0.0
 40
2.066987298107819
  0
LINE
  5
314D
330
1F
100
AcDbEntity
  8
AM_7
  6
AM_ISO08W050x2
100
AcDbLine
 10
3104.817848187885
 20
1521.782626386423
 30
0.0
 11
3111.117848187886
 21
1521.782626386423
 31
0.0
  0
LINE
  5
314E
330
1F
100
AcDbEntity
  8
AM_7
  6
AM_ISO08W050x2
100
AcDbLine
 10
3107.967848187886
 20
1518.632626386423
 30
0.0
 11
3107.967848187886
 21
1524.932626386423
 31
0.0
  0
ARC
  5
314F
330
1F
100
AcDbEntity
  8
AM_4
100
AcDbCircle
 10
3107.967848184241
 20
1537.282626382778
 30
0.0
 40
2.5
100
AcDbArc
 50
260.0
 51
170.0
  0
CIRCLE
  5
3150
330
1F
100
AcDbEntity
  8
AM_0
100
AcDbCircle
 10
3107.967848184241
 20
1537.282626382778
 30
0.0
 40
2.066987298107819
  0
LINE
  5
3151
330
1F
100
AcDbEntity
  8
AM_7
  6
AM_ISO08W050x2
100
AcDbLine
 10
3104.817848184241
 20
1537.282626382778
 30
0.0
 11
3111.117848184241
 21
1537.282626382778
 31
0.0
  0
LINE
  5
3152
330
1F
100
AcDbEntity
  8
AM_7
  6
AM_ISO08W050x2
100
AcDbLine
 10
3107.967848184241
 20
1534.132626382778
 30
0.0
 11
3107.967848184241
 21
1540.432626382778
 31
0.0
  0
ARC
  5
3153
330
1F
100
AcDbEntity
  8
AM_4
100
AcDbCircle
 10
3092.467848187886
 20
1537.282626379133
 30
0.0
 40
2.5
100
AcDbArc
 50
260.0
 51
170.0
  0
CIRCLE
  5
3154
330
1F
100
AcDbEntity
  8
AM_0
100
AcDbCircle
 10
3092.467848187886
 20
1537.282626379133
 30
0.0
 40
2.066987298107819
  0
LINE
  5
3155
330
1F
100
AcDbEntity
  8
AM_7
  6
AM_ISO08W050x2
100
AcDbLine
 10
3089.317848187886
 20
1537.282626379133
 30
0.0
 11
3095.617848187885
 21
1537.282626379133
 31
0.0
  0
LINE
  5
3156
330
1F
100
AcDbEntity
  8
AM_7
  6
AM_ISO08W050x2
100
AcDbLine
 10
3092.467848187886
 20
1534.132626379133
 30
0.0
 11
3092.467848187886
 21
1540.432626379133
 31
0.0
  0
CIRCLE
  5
3157
330
1F
100
AcDbEntity
  8
0
100
AcDbCircle
 10
3100.217848187885
 20
1529.532626382778
 30
0.0
 40
7.0
  0
ARC
  5
315C
330
1F
100
AcDbEntity
  8
AM_4
100
AcDbCircle
 10
3091.217848187886
 20
1625.768645498219
 30
0.0
 40
2.0
100
AcDbArc
 50
260.0
 51
170.0
  0
CIRCLE
  5
315D
330
1F
100
AcDbEntity
  8
AM_0
100
AcDbCircle
 10
3091.217848187886
 20
1625.768645498219
 30
0.0
 40
1.621113885844339
  0
LINE
  5
315E
330
1F
100
AcDbEntity
  8
AM_7
  6
AM_ISO08W050x2
100
AcDbLine
 10
3091.217848187886
 20
1625.768645498219
 30
0.0
 11
3094.114739296561
 21
1625.768645498219
 31
0.0
1001
GENIUS_GENOREF_13
1005
3162
  0
LINE
  5
315F
330
1F
100
AcDbEntity
  8
AM_7
  6
AM_ISO08W050x2
100
AcDbLine
 10
3091.217848187886
 20
1625.768645498219
 30
0.0
 11
3091.217848187886
 21
1628.665536606894
 31
0.0
1001
GENIUS_GENOREF_13
1005
3162
  0
LINE
  5
3160
330
1F
100
AcDbEntity
  8
AM_7
  6
AM_ISO08W050x2
100
AcDbLine
 10
3091.217848187886
 20
1625.768645498219
 30
0.0
 11
3088.32095707921
 21
1625.768645498219
 31
0.0
1001
GENIUS_GENOREF_13
1005
3162
  0
LINE
  5
3161
330
1F
100
AcDbEntity
  8
AM_7
  6
AM_ISO08W050x2
100
AcDbLine
 10
3091.217848187886
 20
1625.768645498219
 30
0.0
 11
3091.217848187886
 21
1622.871754389543
 31
0.0
1001
GENIUS_GENOREF_13
1005
3162
  0
POINT
  5
3162
330
1F
100
AcDbEntity
  8
0
 60
     1
100
AcDbPoint
 10
191.8910600284812
 20
45.33546785279873
 30
0.0
1001
GENIUS_GENOLIS_13
1002
{
1000
ENT
1005
3161
1005
3160
1005
315F
1005
315E
1002
}
1001
GENIUS_GENOENT_13
1002
{
1000
MYREF
1005
3162
1002
}
1002
{
1000
GRP
1005
0
1002
}
1001
GENIUS_GENOBJ-N-CRS_13
1002
{
1000
OWNER
1000
GEN
1002
}
1001
GENIUS_GENODEF_13
1002
{
1000
HIER
1070
    10
1002
}
1002
{
1000
MANEDIT
1070
     0
1002
}
1002
{
1000
NOSEL
1070
     0
1002
}
1002
{
1000
BEHIND
1070
     0
1002
}
1002
{
1000
OTHER
1070
     0
1002
}
1002
{
1000
REACTOR
1002
}
  0
ARC
  5
3163
330
1F
100
AcDbEntity
  8
AM_4
100
AcDbCircle
 10
3100.217848187885
 20
1616.768645498219
 30
0.0
 40
2.0
100
AcDbArc
 50
260.0
 51
170.0
  0
CIRCLE
  5
3164
330
1F
100
AcDbEntity
  8
AM_0
100
AcDbCircle
 10
3100.217848187885
 20
1616.768645498219
 30
0.0
 40
1.621113885844339
  0
LINE
  5
3165
330
1F
100
AcDbEntity
  8
AM_7
  6
AM_ISO08W050x2
100
AcDbLine
 10
3100.217848187885
 20
1616.768645498219
 30
0.0
 11
3103.114739296561
 21
1616.768645498219
 31
0.0
1001
GENIUS_GENOREF_13
1005
3169
  0
LINE
  5
3166
330
1F
100
AcDbEntity
  8
AM_7
  6
AM_ISO08W050x2
100
AcDbLine
 10
3100.217848187885
 20
1616.768645498219
 30
0.0
 11
3100.217848187885
 21
1619.665536606894
 31
0.0
1001
GENIUS_GENOREF_13
1005
3169
  0
LINE
  5
3167
330
1F
100
AcDbEntity
  8
AM_7
  6
AM_ISO08W050x2
100
AcDbLine
 10
3100.217848187885
 20
1616.768645498219
 30
0.0
 11
3097.32095707921
 21
1616.768645498219
 31
0.0
1001
GENIUS_GENOREF_13
1005
3169
  0
LINE
  5
3168
330
1F
100
AcDbEntity
  8
AM_7
  6
AM_ISO08W050x2
100
AcDbLine
 10
3100.217848187885
 20
1616.768645498219
 30
0.0
 11
3100.217848187885
 21
1613.871754389543
 31
0.0
1001
GENIUS_GENOREF_13
1005
3169
  0
POINT
  5
3169
330
1F
100
AcDbEntity
  8
0
 60
     1
100
AcDbPoint
 10
200.8910600284812
 20
36.33546785279873
 30
0.0
1001
GENIUS_GENOLIS_13
1002
{
1000
ENT
1005
3168
1005
3167
1005
3166
1005
3165
1002
}
1001
GENIUS_GENOENT_13
1002
{
1000
MYREF
1005
3169
1002
}
1002
{
1000
GRP
1005
0
1002
}
1001
GENIUS_GENOBJ-N-CRS_13
1002
{
1000
OWNER
1000
GEN
1002
}
1001
GENIUS_GENODEF_13
1002
{
1000
HIER
1070
    10
1002
}
1002
{
1000
MANEDIT
1070
     0
1002
}
1002
{
1000
NOSEL
1070
     0
1002
}
1002
{
1000
BEHIND
1070
     0
1002
}
1002
{
1000
OTHER
1070
     0
1002
}
1002
{
1000
REACTOR
1002
}
  0
ARC
  5
316A
330
1F
100
AcDbEntity
  8
AM_4
100
AcDbCircle
 10
3109.217848187885
 20
1625.768645498219
 30
0.0
 40
2.0
100
AcDbArc
 50
260.0
 51
170.0
  0
CIRCLE
  5
316B
330
1F
100
AcDbEntity
  8
AM_0
100
AcDbCircle
 10
3109.217848187885
 20
1625.768645498219
 30
0.0
 40
1.621113885844339
  0
LINE
  5
316C
330
1F
100
AcDbEntity
  8
AM_7
  6
AM_ISO08W050x2
100
AcDbLine
 10
3109.217848187885
 20
1625.768645498219
 30
0.0
 11
3112.114739296561
 21
1625.768645498219
 31
0.0
1001
GENIUS_GENOREF_13
1005
3170
  0
LINE
  5
316D
330
1F
100
AcDbEntity
  8
AM_7
  6
AM_ISO08W050x2
100
AcDbLine
 10
3109.217848187885
 20
1625.768645498219
 30
0.0
 11
3109.217848187885
 21
1628.665536606894
 31
0.0
1001
GENIUS_GENOREF_13
1005
3170
  0
LINE
  5
316E
330
1F
100
AcDbEntity
  8
AM_7
  6
AM_ISO08W050x2
100
AcDbLine
 10
3109.217848187885
 20
1625.768645498219
 30
0.0
 11
3106.32095707921
 21
1625.768645498219
 31
0.0
1001
GENIUS_GENOREF_13
1005
3170
  0
LINE
  5
316F
330
1F
100
AcDbEntity
  8
AM_7
  6
AM_ISO08W050x2
100
AcDbLine
 10
3109.217848187885
 20
1625.768645498219
 30
0.0
 11
3109.217848187885
 21
1622.871754389543
 31
0.0
1001
GENIUS_GENOREF_13
1005
3170
  0
POINT
  5
3170
330
1F
100
AcDbEntity
  8
0
 60
     1
100
AcDbPoint
 10
209.8910600284812
 20
45.33546785279873
 30
0.0
1001
GENIUS_GENOLIS_13
1002
{
1000
ENT
1005
316F
1005
316E
1005
316D
1005
316C
1002
}
1001
GENIUS_GENOENT_13
1002
{
1000
MYREF
1005
3170
1002
}
1002
{
1000
GRP
1005
0
1002
}
1001
GENIUS_GENOBJ-N-CRS_13
1002
{
1000
OWNER
1000
GEN
1002
}
1001
GENIUS_GENODEF_13
1002
{
1000
HIER
1070
    10
1002
}
1002
{
1000
MANEDIT
1070
     0
1002
}
1002
{
1000
NOSEL
1070
     0
1002
}
1002
{
1000
BEHIND
1070
     0
1002
}
1002
{
1000
OTHER
1070
     0
1002
}
1002
{
1000
REACTOR
1002
}
  0
ARC
  5
3171
330
1F
100
AcDbEntity
  8
AM_4
100
AcDbCircle
 10
3100.217848187885
 20
1634.768645498219
 30
0.0
 40
2.0
100
AcDbArc
 50
260.0
 51
170.0
  0
CIRCLE
  5
3172
330
1F
100
AcDbEntity
  8
AM_0
100
AcDbCircle
 10
3100.217848187885
 20
1634.768645498219
 30
0.0
 40
1.621113885844339
  0
LINE
  5
3173
330
1F
100
AcDbEntity
  8
AM_7
  6
AM_ISO08W050x2
100
AcDbLine
 10
3100.217848187885
 20
1634.768645498219
 30
0.0
 11
3103.114739296561
 21
1634.768645498219
 31
0.0
1001
GENIUS_GENOREF_13
1005
3177
  0
LINE
  5
3174
330
1F
100
AcDbEntity
  8
AM_7
  6
AM_ISO08W050x2
100
AcDbLine
 10
3100.217848187885
 20
1634.768645498219
 30
0.0
 11
3100.217848187885
 21
1637.665536606894
 31
0.0
1001
GENIUS_GENOREF_13
1005
3177
  0
LINE
  5
3175
330
1F
100
AcDbEntity
  8
AM_7
  6
AM_ISO08W050x2
100
AcDbLine
 10
3100.217848187885
 20
1634.768645498219
 30
0.0
 11
3097.32095707921
 21
1634.768645498219
 31
0.0
1001
GENIUS_GENOREF_13
1005
3177
  0
LINE
  5
3176
330
1F
100
AcDbEntity
  8
AM_7
  6
AM_ISO08W050x2
100
AcDbLine
 10
3100.217848187885
 20
1634.768645498219
 30
0.0
 11
3100.217848187885
 21
1631.871754389543
 31
0.0
1001
GENIUS_GENOREF_13
1005
3177
  0
POINT
  5
3177
330
1F
100
AcDbEntity
  8
0
 60
     1
100
AcDbPoint
 10
200.8910600284812
 20
54.33546785279872
 30
0.0
1001
GENIUS_GENOLIS_13
1002
{
1000
ENT
1005
3176
1005
3175
1005
3174
1005
3173
1002
}
1001
GENIUS_GENOENT_13
1002
{
1000
MYREF
1005
3177
1002
}
1002
{
1000
GRP
1005
0
1002
}
1001
GENIUS_GENOBJ-N-CRS_13
1002
{
1000
OWNER
1000
GEN
1002
}
1001
GENIUS_GENODEF_13
1002
{
1000
HIER
1070
    10
1002
}
1002
{
1000
MANEDIT
1070
     0
1002
}
1002
{
1000
NOSEL
1070
     0
1002
}
1002
{
1000
BEHIND
1070
     0
1002
}
1002
{
1000
OTHER
1070
     0
1002
}
1002
{
1000
REACTOR
1002
}
  0
LINE
  5
3184
330
1F
100
AcDbEntity
  8
AM_7
100
AcDbLine
 10
3100.217848187885
 20
1640.268645498219
 30
0.0
 11
3100.217848187885
 21
1611.268645498219
 31
0.0
1001
GENIUS_GENOBJ-N-CEN_13
1002
{
1000
OWNER
1000
GEN
1002
}
1001
GENIUS_GENODEF_13
1002
{
1000
HIER
1070
     0
1002
}
1002
{
1000
MANEDIT
1070
     0
1002
}
1002
{
1000
NOSEL
1070
     0
1002
}
1002
{
1000
BEHIND
1070
     0
1002
}
1002
{
1000
OTHER
1070
     0
1002
}
1002
{
1000
REACTOR
1002
}
1001
GENIUS_GENCEN_19
1002
{
1040
1.0
1002
}
  0
LINE
  5
3191
330
1F
100
AcDbEntity
  8
AM_7
100
AcDbLine
 10
3085.717848187885
 20
1625.768645498219
 30
0.0
 11
3114.717848187886
 21
1625.768645498219
 31
0.0
1001
GENIUS_GENODEF_13
1002
{
1000
HIER
1070
     0
1002
}
1002
{
1000
MANEDIT
1070
     0
1002
}
1002
{
1000
NOSEL
1070
     0
1002
}
1002
{
1000
BEHIND
1070
     0
1002
}
1002
{
1000
OTHER
1070
     0
1002
}
1002
{
1000
REACTOR
1002
}
1001
GENIUS_GENOBJ-N-CEN_13
1002
{
1000
OWNER
1000
GEN
1002
}
1001
GENIUS_GENCEN_19
1002
{
1040
1.0
1002
}
  0
ENDSEC
  0
SECTION
  2
OBJECTS
  0
DICTIONARY
  5
C
330
0
100
AcDbDictionary
281
     1
  3
ACAD_COLOR
350
BE
  3
ACAD_GROUP
350
D
  3
ACAD_LAYOUT
350
1A
  3
ACAD_MATERIAL
350
BD
  3
ACAD_MLINESTYLE
350
17
  3
ACAD_PLOTSETTINGS
350
19
  3
ACAD_PLOTSTYLENAME
350
E
  3
ACAD_TABLESTYLE
350
11A
  3
ACDBHEADERROUNDTRIPXREC
350
3366
  3
AcDbVariableDictionary
350
94
  3
AcmDictionary
350
5B
  3
AMG
350
41
  3
AMGSNAPSETTINGS
350
1B8
  3
DWGPROPS
350
3365
  0
DICTIONARY
  5
3F9
330
2
100
AcDbDictionary
280
     1
281
     1
  3
ACAD_LAYERFILTERS
360
5B7
  3
ACAD_LAYERSTATES
360
814
  3
ACLYDICTIONARY
360
5B6
  3
AMLAYER_GROUPCOLORS
360
BD3
  0
DICTIONARY
  5
8F
330
1F
100
AcDbDictionary
280
     1
281
     1
  3
ACAD_SORTENTS
360
C06
  0
DICTIONARY
  5
BE
102
{ACAD_REACTORS
330
C
102
}
330
C
100
AcDbDictionary
281
     1
  0
DICTIONARY
  5
D
102
{ACAD_REACTORS
330
C
102
}
330
C
100
AcDbDictionary
281
     1
  0
DICTIONARY
  5
1A
102
{ACAD_REACTORS
330
C
102
}
330
C
100
AcDbDictionary
281
     1
  3
Model
350
22
  3
配置1
350
1E
  3
配置2
350
26
  0
DICTIONARY
  5
BD
102
{ACAD_REACTORS
330
C
102
}
330
C
100
AcDbDictionary
281
     1
  0
DICTIONARY
  5
17
102
{ACAD_REACTORS
330
C
102
}
330
C
100
AcDbDictionary
281
     1
  3
Standard
350
18
  0
DICTIONARY
  5
19
102
{ACAD_REACTORS
330
C
102
}
330
C
100
AcDbDictionary
281
     1
  0
ACDBDICTIONARYWDFLT
  5
E
102
{ACAD_REACTORS
330
C
102
}
330
C
100
AcDbDictionary
281
     1
  3
Normal
350
F
100
AcDbDictionaryWithDefault
340
F
  0
DICTIONARY
  5
11A
102
{ACAD_REACTORS
330
C
102
}
330
C
100
AcDbDictionary
281
     1
  3
Standard
350
11B
  0
DICTIONARY
  5
3366
102
{ACAD_REACTORS
330
C
102
}
330
C
100
AcDbDictionary
281
     1
  0
DICTIONARY
  5
94
102
{ACAD_REACTORS
330
C
102
}
330
C
100
AcDbDictionary
281
     1
  3
CTABLESTYLE
350
138
  3
DIMASSOC
350
96
  3
INDEXCTL
350
95
  3
PROJECTNAME
350
3363
  0
DICTIONARY
  5
5B
102
{ACAD_REACTORS
330
C
102
}
330
C
100
AcDbDictionary
281
     1
  3
AcmBOM
350
1B5
  3
AcmStdDictionary
350
61
  3
AMDTSECTSYM_ARROWCOLOR
350
123
  0
DICTIONARY
  5
41
102
{ACAD_REACTORS
330
C
102
}
330
C
100
AcDbDictionary
281
     1
  0
DICTIONARY
  5
1B8
102
{ACAD_REACTORS
330
C
102
}
330
C
100
AcDbDictionary
281
     1
  0
XRECORD
  5
3365
102
{ACAD_REACTORS
330
C
102
}
330
C
100
AcDbXrecord
280
     1
  1
DWGPROPS COOKIE
  2

  3

  4

  6

  7

  8

  9

300
AmdtFileType=84
301
=
302
=
303
=
304
=
305
=
306
=
307
=
308
=
309
=
 40
0.2843288888888889
 41
2453809.488480533
 42
2453815.443768982
  1

 90
        1
  0
DICTIONARY
  5
5B7
102
{ACAD_REACTORS
330
3F9
102
}
330
3F9
100
AcDbDictionary
281
     1
  0
DICTIONARY
  5
814
102
{ACAD_REACTORS
330
3F9
102
}
330
3F9
100
AcDbDictionary
281
     1
  0
DICTIONARY
  5
5B6
102
{ACAD_REACTORS
330
3F9
102
}
330
3F9
100
AcDbDictionary
281
     1
1001
ACAD
1000
<All
  0
DICTIONARY
  5
BD3
102
{ACAD_REACTORS
330
3F9
102
}
330
3F9
100
AcDbDictionary
280
     1
281
     1
  0
SORTENTSTABLE
  5
C06
102
{ACAD_REACTORS
330
8F
102
}
330
8F
100
AcDbSortentsTable
330
1F
331
1628
  5
1628
331
15F1
  5
15F1
331
15B2
  5
15B2
331
15BA
  5
15BA
331
15F9
  5
15F9
331
1601
  5
1601
331
15CA
  5
15CA
331
EE9
  5
EE9
331
1609
  5
1609
331
15D2
  5
15D2
331
1611
  5
1611
331
1619
  5
1619
331
15A3
  5
15A3
331
15E2
  5
15E2
331
1621
  5
1621
331
15AB
  5
15AB
331
15EA
  5
15EA
331
1FA8
  5
1FA8
331
1629
  5
1629
331
15F2
  5
15F2
331
15B3
  5
15B3
331
15BB
  5
15BB
331
15FA
  5
15FA
331
1602
  5
1602
331
160A
  5
160A
331
15D3
  5
15D3
331
1612
  5
1612
331
161A
  5
161A
331
15A4
  5
15A4
331
15E3
  5
15E3
331
1622
  5
1622
331
15AC
  5
15AC
331
15EB
  5
15EB
331
EC3
  5
EC3
331
162A
  5
162A
331
15F3
  5
15F3
331
15B4
  5
15B4
331
15BC
  5
15BC
331
15FB
  5
15FB
331
1603
  5
1603
331
160B
  5
160B
331
14F5
  5
14F5
331
15D4
  5
15D4
331
1613
  5
1613
331
161B
  5
161B
331
15A5
  5
15A5
331
1623
  5
1623
331
15AD
  5
15AD
331
15EC
  5
15EC
331
162B
  5
162B
331
15F4
  5
15F4
331
15B5
  5
15B5
331
15BD
  5
15BD
331
15FC
  5
15FC
331
15C5
  5
15C5
331
1604
  5
1604
331
E65
  5
E65
331
160C
  5
160C
331
15D5
  5
15D5
331
1614
  5
1614
331
15DD
  5
15DD
331
161C
  5
161C
331
15A6
  5
15A6
331
1624
  5
1624
331
15AE
  5
15AE
331
15ED
  5
15ED
331
E9D
  5
E9D
331
15F5
  5
15F5
331
15B6
  5
15B6
331
15BE
  5
15BE
331
15FD
  5
15FD
331
1605
  5
1605
331
15CE
  5
15CE
331
FFC
  5
FFC
331
160D
  5
160D
331
1615
  5
1615
331
161D
  5
161D
331
15A7
  5
15A7
331
1625
  5
1625
331
15AF
  5
15AF
331
15EE
  5
15EE
331
F85
  5
F85
331
15F6
  5
15F6
331
15B7
  5
15B7
331
15BF
  5
15BF
331
15FE
  5
15FE
331
1606
  5
1606
331
15CF
  5
15CF
331
160E
  5
160E
331
1616
  5
1616
331
161E
  5
161E
331
15A8
  5
15A8
331
15E7
  5
15E7
331
1626
  5
1626
331
15EF
  5
15EF
331
15B0
  5
15B0
331
15F7
  5
15F7
331
15B8
  5
15B8
331
15C0
  5
15C0
331
15FF
  5
15FF
331
1607
  5
1607
331
FD6
  5
FD6
331
F0F
  5
F0F
331
15D0
  5
15D0
331
160F
  5
160F
331
1509
  5
1509
331
1617
  5
1617
331
161F
  5
161F
331
15A9
  5
15A9
331
15E8
  5
15E8
331
1627
  5
1627
331
1266
  5
1266
331
15F0
  5
15F0
331
15B1
  5
15B1
331
15B9
  5
15B9
331
15F8
  5
15F8
331
15C1
  5
15C1
331
1600
  5
1600
331
15C9
  5
15C9
331
1608
  5
1608
331
15D1
  5
15D1
331
1F2F
  5
1F2F
331
1610
  5
1610
331
15D9
  5
15D9
331
1618
  5
1618
331
15A2
  5
15A2
331
15E1
  5
15E1
331
1620
  5
1620
331
15AA
  5
15AA
331
15E9
  5
15E9
  0
LAYOUT
  5
22
102
{ACAD_XDICTIONARY
360
3369
102
}
102
{ACAD_REACTORS
330
1A
102
}
330
1A
100
AcDbPlotSettings
  1

  2
\\RD\EPSON Stylus C63 Series單色
  4
A4
  6

 40
3.757083177566528
 41
3.757076978683471
 42
3.757080078125
 43
3.757080078125
 44
209.9733276367187
 45
296.9683227539062
 46
0.0
 47
0.0
 48
0.0
 49
0.0
140
0.0
141
0.0
142
1.0
143
0.3405120737814363
 70
 11952
 72
     1
 73
     0
 74
     0
  7
單色出圖.ctb
 75
     0
147
2.936753428137963
148
-2047.07469463503
149
-1261.649717473083
100
AcDbLayout
  1
Model
 70
     1
 71
     0
 10
0.0
 20
0.0
 11
12.0
 21
9.0
 12
0.0
 22
0.0
 32
0.0
 14
0.0
 24
0.0
 34
0.0
 15
0.0
 25
0.0
 35
0.0
146
0.0
 13
0.0
 23
0.0
 33
0.0
 16
1.0
 26
0.0
 36
0.0
 17
0.0
 27
1.0
 37
0.0
 76
     0
330
1F
1001
ACAD_PSEXT
1000
\\RD\EPSON Stylus C63 Series單色
1000
EPSON Stylus C63 Series
1000
\\RD
1000

1070
     0
  0
LAYOUT
  5
1E
102
{ACAD_XDICTIONARY
360
3367
102
}
102
{ACAD_REACTORS
330
1A
102
}
330
1A
100
AcDbPlotSettings
  1

  2

  4

  6

 40
0.0
 41
0.0
 42
0.0
 43
0.0
 44
0.0
 45
0.0
 46
0.0
 47
0.0
 48
0.0
 49
0.0
140
0.0
141
0.0
142
1.0
143
1.0
 70
   688
 72
     0
 73
     0
 74
     5
  7
單色出圖.ctb
 75
    16
147
1.0
148
0.0
149
0.0
100
AcDbLayout
  1
配置1
 70
     1
 71
     1
 10
0.0
 20
0.0
 11
420.0
 21
297.0
 12
0.0
 22
0.0
 32
0.0
 14
1.000000000000000E+20
 24
1.000000000000000E+20
 34
1.000000000000000E+20
 15
-1.000000000000000E+20
 25
-1.000000000000000E+20
 35
-1.000000000000000E+20
146
0.0
 13
0.0
 23
0.0
 33
0.0
 16
1.0
 26
0.0
 36
0.0
 17
0.0
 27
1.0
 37
0.0
 76
     0
330
1B
  0
LAYOUT
  5
26
102
{ACAD_XDICTIONARY
360
336B
102
}
102
{ACAD_REACTORS
330
1A
102
}
330
1A
100
AcDbPlotSettings
  1

  2

  4

  6

 40
0.0
 41
0.0
 42
0.0
 43
0.0
 44
0.0
 45
0.0
 46
0.0
 47
0.0
 48
0.0
 49
0.0
140
0.0
141
0.0
142
1.0
143
1.0
 70
   688
 72
     0
 73
     0
 74
     5
  7
單色出圖.ctb
 75
    16
147
1.0
148
0.0
149
0.0
100
AcDbLayout
  1
配置2
 70
     1
 71
     2
 10
0.0
 20
0.0
 11
12.0
 21
9.0
 12
0.0
 22
0.0
 32
0.0
 14
0.0
 24
0.0
 34
0.0
 15
0.0
 25
0.0
 35
0.0
146
0.0
 13
0.0
 23
0.0
 33
0.0
 16
1.0
 26
0.0
 36
0.0
 17
0.0
 27
1.0
 37
0.0
 76
     0
330
23
  0
MLINESTYLE
  5
18
102
{ACAD_REACTORS
330
17
102
}
330
17
100
AcDbMlineStyle
  2
STANDARD
 70
     0
  3

 62
   256
 51
90.0
 52
90.0
 71
     2
 49
0.5
 62
   256
  6
BYLAYER
 49
-0.5
 62
   256
  6
BYLAYER
  0
ACDBPLACEHOLDER
  5
F
102
{ACAD_REACTORS
330
E
102
}
330
E
  0
TABLESTYLE
  5
11B
102
{ACAD_REACTORS
330
11A
102
}
330
11A
100
AcDbTableStyle
  3
Standard
 70
     0
 71
     0
 40
1.5
 41
1.5
280
     0
281
     0
  7
STANDARD
140
4.5
170
     2
 62
     0
 63
     7
283
     0
274
    -2
284
     1
 64
     0
275
    -2
285
     1
 65
     0
276
    -2
286
     1
 66
     0
277
    -2
287
     1
 67
     0
278
    -2
288
     1
 68
     0
279
    -2
289
     1
 69
     0
  7
STANDARD
140
6.0
170
     5
 62
     0
 63
     7
283
     0
274
    -2
284
     1
 64
     0
275
    -2
285
     1
 65
     0
276
    -2
286
     1
 66
     0
277
    -2
287
     1
 67
     0
278
    -2
288
     1
 68
     0
279
    -2
289
     1
 69
     0
  7
STANDARD
140
4.5
170
     5
 62
     0
 63
     7
283
     0
274
    -2
284
     1
 64
     0
275
    -2
285
     1
 65
     0
276
    -2
286
     1
 66
     0
277
    -2
287
     1
 67
     0
278
    -2
288
     1
 68
     0
279
    -2
289
     1
 69
     0
  0
DICTIONARYVAR
  5
138
102
{ACAD_REACTORS
330
94
102
}
330
94
100
DictionaryVariables
280
     0
  1
STANDARD
  0
DICTIONARYVAR
  5
96
102
{ACAD_REACTORS
330
94
102
}
330
94
100
DictionaryVariables
280
     0
  1
2
  0
DICTIONARYVAR
  5
95
102
{ACAD_REACTORS
330
94
102
}
330
94
100
DictionaryVariables
280
     0
  1
0
  0
DICTIONARYVAR
  5
3363
102
{ACAD_REACTORS
330
94
102
}
330
94
100
DictionaryVariables
280
     0
  1

  0
DICTIONARY
  5
1B5
102
{ACAD_REACTORS
330
5B
102
}
330
5B
100
AcDbDictionary
281
     1
  0
DICTIONARY
  5
61
102
{ACAD_REACTORS
330
5B
102
}
330
5B
100
AcDbDictionary
281
     1
  0
XRECORD
  5
123
102
{ACAD_REACTORS
330
5B
102
}
330
5B
100
AcDbXrecord
280
     1
 90
-1023410169
  0
DICTIONARY
  5
3369
330
22
100
AcDbDictionary
280
     1
281
     1
  3
ACAD_XREC_ROUNDTRIP
360
336A
  0
DICTIONARY
  5
3367
330
1E
100
AcDbDictionary
280
     1
281
     1
  3
ACAD_XREC_ROUNDTRIP
360
3368
  0
DICTIONARY
  5
336B
330
26
100
AcDbDictionary
280
     1
281
     1
  3
ACAD_XREC_ROUNDTRIP
360
336C
  0
XRECORD
  5
336A
102
{ACAD_REACTORS
330
3369
102
}
330
3369
100
AcDbXrecord
280
     1
102
SHADEPLOT
 70
     0
102
SHADEPLOTRESLEVEL
 70
     2
102
SHADEPLOTCUSTOMDPI
 70
   300
  0
XRECORD
  5
3368
102
{ACAD_REACTORS
330
3367
102
}
330
3367
100
AcDbXrecord
280
     1
102
SHADEPLOT
 70
     0
102
SHADEPLOTRESLEVEL
 70
     2
102
SHADEPLOTCUSTOMDPI
 70
   300
  0
XRECORD
  5
336C
102
{ACAD_REACTORS
330
336B
102
}
330
336B
100
AcDbXrecord
280
     1
102
SHADEPLOT
 70
     0
102
SHADEPLOTRESLEVEL
 70
     2
102
SHADEPLOTCUSTOMDPI
 70
   300
  0
ENDSEC
  0
EOF
