  0
SECTION
  2
HEADER
  9
$ACADVER
  1
AC1015
  9
$ACADMAINTVER
 70
    20
  9
$DWGCODEPAGE
  3
ANSI_950
  9
$INSBASE
 10
0.0
 20
0.0
 30
0.0
  9
$EXTMIN
 10
2877.903041201547
 20
1443.993351159273
 30
-0.0063085765260666
  9
$EXTMAX
 10
3032.945013200342
 20
1643.06801418534
 30
101.4375445655401
  9
$LIMMIN
 10
0.0
 20
0.0
  9
$LIMMAX
 10
420.0
 20
297.0
  9
$ORTHOMODE
 70
     1
  9
$REGENMODE
 70
     1
  9
$FILLMODE
 70
     1
  9
$QTEXTMODE
 70
     0
  9
$MIRRTEXT
 70
     1
  9
$LTSCALE
 40
1.0
  9
$ATTMODE
 70
     1
  9
$TEXTSIZE
 40
3.0
  9
$TRACEWID
 40
1.0
  9
$TEXTSTYLE
  7
CHINESET
  9
$CLAYER
  8
0
  9
$CELTYPE
  6
ByLayer
  9
$CECOLOR
 62
   256
  9
$CELTSCALE
 40
1.0
  9
$DISPSILH
 70
     0
  9
$DIMSCALE
 40
1.0
  9
$DIMASZ
 40
3.0
  9
$DIMEXO
 40
1.0
  9
$DIMDLI
 40
5.0
  9
$DIMRND
 40
0.0
  9
$DIMDLE
 40
0.0
  9
$DIMEXE
 40
1.5
  9
$DIMTP
 40
0.1
  9
$DIMTM
 40
0.1
  9
$DIMTXT
 40
3.0
  9
$DIMCEN
 40
0.0
  9
$DIMTSZ
 40
0.0
  9
$DIMTOL
 70
     0
  9
$DIMLIM
 70
     0
  9
$DIMTIH
 70
     0
  9
$DIMTOH
 70
     0
  9
$DIMSE1
 70
     0
  9
$DIMSE2
 70
     0
  9
$DIMTAD
 70
     1
  9
$DIMZIN
 70
     8
  9
$DIMBLK
  1

  9
$DIMASO
 70
     1
  9
$DIMSHO
 70
     1
  9
$DIMPOST
  1

  9
$DIMAPOST
  1
"
  9
$DIMALT
 70
     0
  9
$DIMALTD
 70
     2
  9
$DIMALTF
 40
0.0393701
  9
$DIMLFAC
 40
1.0
  9
$DIMTOFL
 70
     1
  9
$DIMTVP
 40
0.0
  9
$DIMTIX
 70
     0
  9
$DIMSOXD
 70
     0
  9
$DIMSAH
 70
     0
  9
$DIMBLK1
  1

  9
$DIMBLK2
  1

  9
$DIMSTYLE
  2
AM_ISO
  9
$DIMCLRD
 70
   256
  9
$DIMCLRE
 70
   256
  9
$DIMCLRT
 70
   256
  9
$DIMTFAC
 40
0.6
  9
$DIMGAP
 40
1.0
  9
$DIMJUST
 70
     0
  9
$DIMSD1
 70
     0
  9
$DIMSD2
 70
     0
  9
$DIMTOLJ
 70
     0
  9
$DIMTZIN
 70
     8
  9
$DIMALTZ
 70
     0
  9
$DIMALTTZ
 70
     0
  9
$DIMUPT
 70
     0
  9
$DIMDEC
 70
     2
  9
$DIMTDEC
 70
     8
  9
$DIMALTU
 70
     2
  9
$DIMALTTD
 70
     2
  9
$DIMTXSTY
  7
STANDARD
  9
$DIMAUNIT
 70
     0
  9
$DIMADEC
 70
     0
  9
$DIMALTRND
 40
0.0
  9
$DIMAZIN
 70
     2
  9
$DIMDSEP
 70
    46
  9
$DIMATFIT
 70
     3
  9
$DIMFRAC
 70
     0
  9
$DIMLDRBLK
  1

  9
$DIMLUNIT
 70
     2
  9
$DIMLWD
 70
    -1
  9
$DIMLWE
 70
    -1
  9
$DIMTMOVE
 70
     0
  9
$LUNITS
 70
     2
  9
$LUPREC
 70
     2
  9
$SKETCHINC
 40
1.0
  9
$FILLETRAD
 40
2.5
  9
$AUNITS
 70
     0
  9
$AUPREC
 70
     0
  9
$MENU
  1
.
  9
$ELEVATION
 40
0.0
  9
$PELEVATION
 40
0.0
  9
$THICKNESS
 40
0.0
  9
$LIMCHECK
 70
     0
  9
$CHAMFERA
 40
3.0
  9
$CHAMFERB
 40
3.0
  9
$CHAMFERC
 40
20.0
  9
$CHAMFERD
 40
0.0
  9
$SKPOLY
 70
     0
  9
$TDCREATE
 40
2453809.488480533
  9
$TDUCREATE
 40
2453809.155147199
  9
$TDUPDATE
 40
2453815.447158380
  9
$TDUUPDATE
 40
2453815.113825047
  9
$TDINDWG
 40
0.2836572222
  9
$TDUSRTIMER
 40
0.2836572222
  9
$USRTIMER
 70
     1
  9
$ANGBASE
 50
0.0
  9
$ANGDIR
 70
     0
  9
$PDMODE
 70
     0
  9
$PDSIZE
 40
0.0
  9
$PLINEWID
 40
0.0
  9
$SPLFRAME
 70
     0
  9
$SPLINETYPE
 70
     6
  9
$SPLINESEGS
 70
     8
  9
$HANDSEED
  5
3030
  9
$SURFTAB1
 70
     6
  9
$SURFTAB2
 70
     6
  9
$SURFTYPE
 70
     6
  9
$SURFU
 70
     6
  9
$SURFV
 70
     6
  9
$UCSBASE
  2

  9
$UCSNAME
  2

  9
$UCSORG
 10
0.0
 20
0.0
 30
0.0
  9
$UCSXDIR
 10
1.0
 20
0.0
 30
0.0
  9
$UCSYDIR
 10
0.0
 20
1.0
 30
0.0
  9
$UCSORTHOREF
  2

  9
$UCSORTHOVIEW
 70
     0
  9
$UCSORGTOP
 10
0.0
 20
0.0
 30
0.0
  9
$UCSORGBOTTOM
 10
0.0
 20
0.0
 30
0.0
  9
$UCSORGLEFT
 10
0.0
 20
0.0
 30
0.0
  9
$UCSORGRIGHT
 10
0.0
 20
0.0
 30
0.0
  9
$UCSORGFRONT
 10
0.0
 20
0.0
 30
0.0
  9
$UCSORGBACK
 10
0.0
 20
0.0
 30
0.0
  9
$PUCSBASE
  2

  9
$PUCSNAME
  2

  9
$PUCSORG
 10
0.0
 20
0.0
 30
0.0
  9
$PUCSXDIR
 10
1.0
 20
0.0
 30
0.0
  9
$PUCSYDIR
 10
0.0
 20
1.0
 30
0.0
  9
$PUCSORTHOREF
  2

  9
$PUCSORTHOVIEW
 70
     0
  9
$PUCSORGTOP
 10
0.0
 20
0.0
 30
0.0
  9
$PUCSORGBOTTOM
 10
0.0
 20
0.0
 30
0.0
  9
$PUCSORGLEFT
 10
0.0
 20
0.0
 30
0.0
  9
$PUCSORGRIGHT
 10
0.0
 20
0.0
 30
0.0
  9
$PUCSORGFRONT
 10
0.0
 20
0.0
 30
0.0
  9
$PUCSORGBACK
 10
0.0
 20
0.0
 30
0.0
  9
$USERI1
 70
     0
  9
$USERI2
 70
     0
  9
$USERI3
 70
     0
  9
$USERI4
 70
     0
  9
$USERI5
 70
     0
  9
$USERR1
 40
0.0
  9
$USERR2
 40
0.0
  9
$USERR3
 40
0.0
  9
$USERR4
 40
0.0
  9
$USERR5
 40
0.0
  9
$WORLDVIEW
 70
     1
  9
$SHADEDGE
 70
     3
  9
$SHADEDIF
 70
    70
  9
$TILEMODE
 70
     1
  9
$MAXACTVP
 70
    64
  9
$PINSBASE
 10
0.0
 20
0.0
 30
0.0
  9
$PLIMCHECK
 70
     0
  9
$PEXTMIN
 10
1.000000000000000E+20
 20
1.000000000000000E+20
 30
1.000000000000000E+20
  9
$PEXTMAX
 10
-1.000000000000000E+20
 20
-1.000000000000000E+20
 30
-1.000000000000000E+20
  9
$PLIMMIN
 10
0.0
 20
0.0
  9
$PLIMMAX
 10
420.0
 20
297.0
  9
$UNITMODE
 70
     0
  9
$VISRETAIN
 70
     1
  9
$PLINEGEN
 70
     0
  9
$PSLTSCALE
 70
     1
  9
$TREEDEPTH
 70
  3020
  9
$CMLSTYLE
  2
Standard
  9
$CMLJUST
 70
     0
  9
$CMLSCALE
 40
20.0
  9
$PROXYGRAPHICS
 70
     1
  9
$MEASUREMENT
 70
     1
  9
$CELWEIGHT
370
    -1
  9
$ENDCAPS
280
     0
  9
$JOINSTYLE
280
     0
  9
$LWDISPLAY
290
     0
  9
$INSUNITS
 70
     4
  9
$HYPERLINKBASE
  1

  9
$STYLESHEET
  1
彩色出圖.ctb
  9
$XEDIT
290
     1
  9
$CEPSNTYPE
380
     0
  9
$PSTYLEMODE
290
     1
  9
$FINGERPRINTGUID
  2
{5D7CF7E5-09B4-4001-B38A-9C16224019A8}
  9
$VERSIONGUID
  2
{6A0FB531-66E2-412E-885B-1434F535E405}
  9
$EXTNAMES
290
     1
  9
$PSVPSCALE
 40
0.0
  9
$OLESTARTUP
290
     0
  0
ENDSEC
  0
SECTION
  2
CLASSES
  0
CLASS
  1
ACDBDICTIONARYWDFLT
  2
AcDbDictionaryWithDefault
  3
ObjectDBX Classes
 90
        0
280
     0
281
     0
  0
CLASS
  1
ACDBPLACEHOLDER
  2
AcDbPlaceHolder
  3
ObjectDBX Classes
 90
        0
280
     0
281
     0
  0
CLASS
  1
LAYOUT
  2
AcDbLayout
  3
ObjectDBX Classes
 90
        0
280
     0
281
     0
  0
CLASS
  1
ACME_DOCUMENT
  2
AcMeDbDoc
  3
AcMeServices
 90
        0
280
     0
281
     0
  0
CLASS
  1
AMGSETTINGSOBJ
  2
AmgSettingsObj
  3
"AcadM|Product Description: AutoCAD Mechanical 2000|Company: Autodesk"
 90
        0
280
     0
281
     0
  0
CLASS
  1
ACMESCOPE
  2
AcMeScope
  3
AcMeServices
 90
        0
280
     0
281
     0
  0
CLASS
  1
ACMECOMMANDHISTORY
  2
AcMeCommandHistory
  3
AcMeServices
 90
        0
280
     0
281
     0
  0
CLASS
  1
ACIMSYSVARMAN
  2
AcImSysVarManager
  3
AcMeServices
 90
        0
280
     0
281
     0
  0
CLASS
  1
ACIMREALSYSVAR
  2
AcImRealSysVar
  3
AcMeServices
 90
        0
280
     0
281
     0
  0
CLASS
  1
ACIMINTSYSVAR
  2
AcImIntSysVar
  3
AcMeServices
 90
        0
280
     0
281
     0
  0
CLASS
  1
ACMEDRAWINGMAN
  2
AcMeDrawingMan
  3
AcMeServices
 90
        0
280
     0
281
     0
  0
CLASS
  1
ACMEVIEW
  2
AcMeView
  3
AcMeServices
 90
        0
280
     0
281
     0
  0
CLASS
  1
ACDBENTITYCACHE
  2
AcMeEntityCache
  3
AcMeServices
 90
        0
280
     0
281
     0
  0
CLASS
  1
GSMANAGER
  2
AcMeGSManager
  3
AcMeServices
 90
        0
280
     0
281
     0
  0
CLASS
  1
AMDTINTERNALREACTOR
  2
AmdtInternalReactor
  3
AcMeServices
 90
        0
280
     0
281
     0
  0
CLASS
  1
ACMESTATEMGR
  2
AcMeStateMgr
  3
AcMeServices
 90
        0
280
     0
281
     0
  0
CLASS
  1
ACGREFMASTER
  2
AcGrefMaster
  3
AcAttribServices
 90
        0
280
     0
281
     0
  0
CLASS
  1
ACME_DATABASE
  2
AcMeDbDatabase
  3
AcMeServices
 90
        0
280
     0
281
     0
  0
CLASS
  1
ACRFINSADJUSTERMGR
  2
AcRfInsAdjusterMgr
  3
AcMeServices
 90
        0
280
     0
281
     0
  0
CLASS
  1
ACGREFACADMASTER
  2
AcGrefacadMaster
  3
AcGrefServices
 90
        0
280
     0
281
     0
  0
CLASS
  1
AMIMASTER
  2
AmiMaster
  3
AmiServices
 90
        0
280
     0
281
     0
  0
CLASS
  1
ACMDATADICTIONARY
  2
AcmDataDictionary
  3
"AcmSymBB|Product Description: AutoCAD Mechanical 2004 DX|Company: Autodesk"
 90
        0
280
     0
281
     0
  0
CLASS
  1
ACMDATAENTRYBLOCK
  2
AcmDataEntryBlock
  3
"AcmSymBB|Product Description: AutoCAD Mechanical 2004 DX|Company: Autodesk"
 90
        0
280
     0
281
     0
  0
CLASS
  1
ACIMSTRSYSVAR
  2
AcImStrSysVar
  3
AcMeServices
 90
        0
280
     0
281
     0
  0
CLASS
  1
ACMSTANDARDISO
  2
AcmStandardISO
  3
"Amdt_StdImp|Product Description: AutoCAD Mechanical 2004 DX|Company: Autodesk"
 90
        0
280
     0
281
     0
  0
CLASS
  1
AMGOBJPROPCFG
  2
AmgObjPropCfg
  3
"AmgLay|Product Description: AutoCAD Mechanical 2000|Company: Autodesk"
 90
        1
280
     0
281
     0
  0
CLASS
  1
AMDTEDGESTANDARDISO
  2
AmdtEdgeStdISO
  3
"Amdt_StdImp|Product Description: AutoCAD Mechanical 2004 DX|Company: Autodesk"
 90
        0
280
     0
281
     0
  0
CLASS
  1
ACMSURFSTANDARDISO
  2
AcmSurfTextStdISO
  3
"Amdt_StdImp|Product Description: AutoCAD Mechanical 2004 DX|Company: Autodesk"
 90
        0
280
     0
281
     0
  0
CLASS
  1
ACMFCFSTANDARDISO
  2
AcmFCFStdISO
  3
"Amdt_StdImp|Product Description: AutoCAD Mechanical 2004 DX|Company: Autodesk"
 90
        0
280
     0
281
     0
  0
CLASS
  1
ACMWELDSTANDARDISO
  2
AcmWeldingStdISO
  3
"Amdt_StdImp|Product Description: AutoCAD Mechanical 2004 DX|Company: Autodesk"
 90
        0
280
     0
281
     0
  0
CLASS
  1
ACMIDSTANDARDISO
  2
AcmIdStdISO
  3
"Amdt_StdImp|Product Description: AutoCAD Mechanical 2004 DX|Company: Autodesk"
 90
        0
280
     0
281
     0
  0
CLASS
  1
ACMDATUMSTANDARDISO
  2
AcmDatumStdISO
  3
"Amdt_StdImp|Product Description: AutoCAD Mechanical 2004 DX|Company: Autodesk"
 90
        0
280
     0
281
     0
  0
CLASS
  1
ACMBOMSTANDARDISO
  2
AcmBOMStdISO
  3
"Amdt_StdImp|Product Description: AutoCAD Mechanical 2004 DX|Company: Autodesk"
 90
        0
280
     0
281
     0
  0
CLASS
  1
ACMDETAILSTANDARDISO
  2
AmdtDetailSymStdISO
  3
"Amdt_StdImp|Product Description: AutoCAD Mechanical 2004 DX|Company: Autodesk"
 90
        0
280
     0
281
     0
  0
CLASS
  1
ACMSECTIONSTANDARDISO
  2
AmdtSectionSymStdISO
  3
"Amdt_StdImp|Product Description: AutoCAD Mechanical 2004 DX|Company: Autodesk"
 90
        0
280
     0
281
     0
  0
CLASS
  1
ACMCENTERLINESTANDARDISO
  2
AmdtCenterLineStdISO
  3
"Amdt_StdImp|Product Description: AutoCAD Mechanical 2004 DX|Company: Autodesk"
 90
        0
280
     0
281
     0
  0
CLASS
  1
ACMNOTESTANDARDISO
  2
AmdtNoteStdISO
  3
"Amdt_StdImp|Product Description: AutoCAD Mechanical 2004 DX|Company: Autodesk"
 90
        0
280
     0
281
     0
  0
CLASS
  1
ACAMGLAYSTD
  2
AcAmgLayStd
  3
"AcAmgLayStd|Product Description: AutoCAD Mechanical 2000|Company: Autodesk"
 90
        0
280
     0
281
     0
  0
CLASS
  1
ACAMGDIMSTD
  2
AcAmgDimStd
  3
"AcAmgDimStd|Product Description: AutoCAD Mechanical 2000|Company: Autodesk"
 90
        0
280
     0
281
     0
  0
CLASS
  1
ACAMGHOLECHARTSTDISO
  2
AcAmgHoleChartStdISO
  3
ACMSYMBB_MODULE_NAME
 90
        0
280
     0
281
     0
  0
CLASS
  1
ACAMGTITLESTD
  2
AcAmgTitleStd
  3
"TITLEAPP"
 90
        0
280
     0
281
     0
  0
CLASS
  1
LAYER_INDEX
  2
AcDbLayerIndex
  3
ObjectDBX Classes
 90
    32768
280
     0
281
     0
  0
CLASS
  1
IDBUFFER
  2
AcDbIdBuffer
  3
ObjectDBX Classes
 90
    32768
280
     0
281
     0
  0
CLASS
  1
DICTIONARYVAR
  2
AcDbDictionaryVar
  3
ObjectDBX Classes
 90
        0
280
     0
281
     0
  0
CLASS
  1
AM_DRAWING_MGR
  2
AcDmDwgMgr
  3
AcMechDwgViewMgmt
 90
        0
280
     0
281
     0
  0
CLASS
  1
AM_DWG_DOCUMENT
  2
AcDmDwgDocument
  3
AcMechDwgViewMgmt
 90
        0
280
     0
281
     0
  0
CLASS
  1
AM_DWG_SHEET
  2
AcDmSheet
  3
AcMechDwgViewMgmt
 90
        0
280
     0
281
     0
  0
CLASS
  1
AM_VIEWDIMPARMAP
  2
AcDmViewDimParMap
  3
AcMechDwgViewMgmt
 90
        0
280
     0
281
     0
  0
CLASS
  1
AM_DWGMGR_NAME
  2
AcDmDwgMgrName
  3
AcMechDwgViewMgmt
 90
        0
280
     0
281
     0
  0
CLASS
  1
AMDTMENUSTATEMGR
  2
AmdtMenuStateMgr
  3
McadcomServices
 90
        0
280
     0
281
     0
  0
CLASS
  1
AMDTMCOMMENUSTATE
  2
AmdtMcomMenuState
  3
McadcomServices
 90
        0
280
     0
281
     0
  0
CLASS
  1
MAPIAMMOUDLE
  2
MApiAmModule
  3
MApiAmServices
 90
        0
280
     0
281
     0
  0
CLASS
  1
AMDTADMENUSTATE
  2
AmdtAdMenuState
  3
DesignerServices
 90
        0
280
     0
281
     0
  0
CLASS
  1
ADAPPL
  2
AcAdAppl
  3
DesignerServices
 90
        0
280
     0
281
     0
  0
CLASS
  1
DEPMGR
  2
AcAdDepMgr
  3
DesignerServices
 90
        0
280
     0
281
     0
  0
CLASS
  1
PARAMMGR
  2
AcAdParamMgr
  3
DesignerServices
 90
        0
280
     0
281
     0
  0
CLASS
  1
PARAMSCOPE
  2
AcAdParamScope
  3
DesignerServices
 90
        0
280
     0
281
     0
  0
CLASS
  1
NAMEDAPPL
  2
AcAdNamedAppl
  3
DesignerServices
 90
        0
280
     0
281
     0
  0
CLASS
  1
AMDTDMMENUSTATE
  2
AmdtDmMenuState
  3
AcMechDwgViewMgmt
 90
        0
280
     0
281
     0
  0
CLASS
  1
AMDTAMMENUSTATE
  2
AmdtAmMenuState
  3
DesignerAssemblies
 90
        0
280
     0
281
     0
  0
CLASS
  1
ACAMPROJECT
  2
AcAmProject
  3
DesignerAssemblies
 90
        0
280
     0
281
     0
  0
CLASS
  1
ACAMGRCOMPDEF
  2
AcAmGrCompDef
  3
DesignerAssemblies
 90
        0
280
     0
281
     0
  0
CLASS
  1
ACCMCONTEXT
  2
AcCmContext
  3
DesignerAssemblies
 90
        0
280
     0
281
     0
  0
CLASS
  1
ACAMCOMPDEF
  2
AcAmCompDef
  3
DesignerAssemblies
 90
        0
280
     0
281
     0
  0
CLASS
  1
ACAMCOMPDEFMGR
  2
AcAmCompDefMgr
  3
DesignerAssemblies
 90
        0
280
     0
281
     0
  0
CLASS
  1
AMCONTEXTMGR
  2
AcAmContextMgr
  3
DesignerAssemblies
 90
        0
280
     0
281
     0
  0
CLASS
  1
ACAMCONTEXTMODELER
  2
AcAmContextModeler
  3
DesignerAssemblies
 90
        0
280
     0
281
     0
  0
CLASS
  1
ACMTHREADLINESTANDARDISO
  2
AmdtThreadLineStdISO
  3
"Amdt_StdImp|Product Description: AutoCAD Mechanical 2004 DX|Company: Autodesk"
 90
        0
280
     0
281
     0
  0
CLASS
  1
CATALOGSTATE
  2
AcAmCatalogState
  3
DesignerAssemblies
 90
        0
280
     0
281
     0
  0
CLASS
  1
ACAMGRCOMPDEFSET
  2
AcAmGrCompDefSet
  3
DesignerAssemblies
 90
        0
280
     0
281
     0
  0
CLASS
  1
AMDTBROWSERDBTAB
  2
AmdtBrowserDbTab
  3
McadcomServices
 90
        0
280
     0
281
     0
  0
CLASS
  1
CBROWSERAPPOBJECT
  2
CBrowserAppObject
  3
McadcomServices
 90
        0
280
     0
281
     0
  0
CLASS
  1
DM_PLACEHOLDER
  2
AcDmSelsetPlaceholder
  3
AcMechDwgViewMgmt
 90
        0
280
     0
281
     0
  0
CLASS
  1
TABLESTYLE
  2
AcDbTableStyle
  3
ObjectDBX Classes
 90
     2047
280
     0
281
     0
  0
CLASS
  1
VAACXREFPANELOBJECT
  2
VaAcXREFPanelObject
  3
VAAC_ADDIN
 90
    32768
280
     0
281
     0
  0
CLASS
  1
VAACIMAGEINVENTORY
  2
VaAcImageInventory
  3
VAAC_ADDIN
 90
    32768
280
     0
281
     0
  0
CLASS
  1
AMDTNOTETEMPLATEDB
  2
AmdtNoteTemplateDB
  3
AMDT_STDIMP_MODULE_NAME
 90
        0
280
     0
281
     0
  0
CLASS
  1
ACMBOM
  2
AcmBom
  3
"AcmSymBB|Product Description: AutoCAD Mechanical 2004 DX|Company: Autodesk"
 90
    32768
280
     0
281
     0
  0
CLASS
  1
AMDTFORMULAUPDATEDISPATCHER
  2
AmdtFormulaUpdateDispatcher
  3
AcMeServices
 90
    32768
280
     0
281
     0
  0
CLASS
  1
ACMPARTLIST
  2
AcmPartList
  3
"AcmSymBB|Product Description: AutoCAD Mechanical 2004 DX|Company: Autodesk"
 90
    33791
280
     0
281
     1
  0
CLASS
  1
ACAMGFILTERDAT
  2
AcAmgFilterDat
  3
"AcadM|Product Description: AutoCAD Mechanical 2000|Company: Autodesk"
 90
        0
280
     0
281
     0
  0
CLASS
  1
DIMASSOC
  2
AcDbDimAssoc
  3
"AcDbDimAssoc|Product Desc:     AcDim ARX App For Dimension|Company:          Autodesk, Inc.|WEB Address:      www.autodesk.com"
 90
    32768
280
     0
281
     0
  0
CLASS
  1
STDPART2D
  2
AmgStdPart
  3
"AmgStdPart|Product Description: AutoCAD Mechanical 2000|Company: Autodesk"
 90
    33791
280
     0
281
     1
  0
CLASS
  1
ACAMSTDPCOMPDEF
  2
AcAmStdpCompDef
  3
DesignerAssemblies
 90
    32768
280
     0
281
     0
  0
CLASS
  1
ACRFATTGENMGR
  2
AcRfAttGeneralMgr
  3
AcAttribServices
 90
        0
280
     0
281
     0
  0
CLASS
  1
ACRFOBJATTMGR
  2
AcRfObjAttGroupMgr
  3
AcAttribServices
 90
    32768
280
     0
281
     0
  0
CLASS
  1
ACRFMCADAPIATTHOLDER
  2
AcRfMCADAPIAttHolder
  3
AcAttribServices
 90
    32768
280
     0
281
     0
  0
CLASS
  1
AMDTSYSATTR
  2
AmdtSystemAttribute
  3
AcAttribServices
 90
    32768
280
     0
281
     0
  0
CLASS
  1
ACAMCOMP
  2
AcAmComp
  3
DesignerAssemblies
 90
    32768
280
     0
281
     0
  0
CLASS
  1
AC_AM_STDP_VIEW_DEF
  2
AcAmStdpViewDef
  3
DesignerAssemblies
 90
    32768
280
     0
281
     0
  0
CLASS
  1
AC_AM_MVD_DEP_MGR
  2
AcAmMVDdepMgr
  3
DesignerAssemblies
 90
        0
280
     0
281
     0
  0
CLASS
  1
AC_AM_MASTER_VIEW_DEF
  2
AcAmMasterViewDef
  3
DesignerAssemblies
 90
        0
280
     0
281
     0
  0
CLASS
  1
AC_AM_DIRTY_NODES
  2
AcAmDirtyNodes
  3
DesignerAssemblies
 90
        0
280
     0
281
     0
  0
CLASS
  1
AC_AM_MAPPER_CACHE
  2
AcAmMapperCache
  3
DesignerAssemblies
 90
        0
280
     0
281
     0
  0
CLASS
  1
ACAMMVDBACKUPOBJECT
  2
AcAmMVDBackupObject
  3
DesignerAssemblies
 90
        0
280
     0
281
     0
  0
CLASS
  1
AC_AM_COMP_VIEW_INST
  2
AcAmCompView
  3
DesignerAssemblies
 90
    32768
280
     0
281
     0
  0
CLASS
  1
AC_AM_2D_XREF_MGR
  2
AcAmXrefMgr2d
  3
DesignerAssemblies
 90
        0
280
     0
281
     0
  0
CLASS
  1
SORTENTSTABLE
  2
AcDbSortentsTable
  3
ObjectDBX Classes
 90
        0
280
     0
281
     0
  0
CLASS
  1
AMDTNOTE
  2
AmdtNote
  3
"AcmSymBB|Product Description: AutoCAD Mechanical 2004 DX|Company: Autodesk"
 90
     1023
280
     0
281
     1
  0
ENDSEC
  0
SECTION
  2
TABLES
  0
TABLE
  2
VPORT
  5
8
330
0
100
AcDbSymbolTable
 70
     3
  0
VPORT
  5
3027
330
8
100
AcDbSymbolTableRecord
100
AcDbViewportTableRecord
  2
*Active
 70
     0
 10
0.0
 20
0.0
 11
1.0
 21
1.0
 12
2955.565229560208
 22
1543.546254724826
 13
0.0
 23
0.0
 14
2.5
 24
2.5
 15
10.0
 25
10.0
 16
0.0
 26
0.0
 36
1.0
 17
0.0
 27
0.0
 37
0.0
 40
201.4651712242851
 41
1.81766917293233
 42
50.0
 43
0.0
 44
0.0
 50
0.0
 51
0.0
 71
     0
 72
   100
 73
     1
 74
     3
 75
     0
 76
     0
 77
     0
 78
     0
281
     0
 65
     1
110
0.0
120
0.0
130
0.0
111
1.0
121
0.0
131
0.0
112
0.0
122
1.0
132
0.0
 79
     0
146
0.0
  0
ENDTAB
  0
TABLE
  2
LTYPE
  5
5
330
0
100
AcDbSymbolTable
 70
    14
  0
LTYPE
  5
14
330
5
100
AcDbSymbolTableRecord
100
AcDbLinetypeTableRecord
  2
ByBlock
 70
     0
  3

 72
    65
 73
     0
 40
0.0
  0
LTYPE
  5
15
330
5
100
AcDbSymbolTableRecord
100
AcDbLinetypeTableRecord
  2
ByLayer
 70
     0
  3

 72
    65
 73
     0
 40
0.0
  0
LTYPE
  5
16
330
5
100
AcDbSymbolTableRecord
100
AcDbLinetypeTableRecord
  2
Continuous
 70
     0
  3
Solid line
 72
    65
 73
     0
 40
0.0
  0
LTYPE
  5
64
330
5
100
AcDbSymbolTableRecord
100
AcDbLinetypeTableRecord
  2
AM_ISO02W050
 70
     0
  3
__ __ __ __ __ __ __ __ __ __ __ __ __ __ __
 72
    65
 73
     2
 40
7.5
 49
6.0
 74
     0
 49
-1.5
 74
     0
  0
LTYPE
  5
65
330
5
100
AcDbSymbolTableRecord
100
AcDbLinetypeTableRecord
  2
AM_ISO08W050
 70
     0
  3
____ . ____ . ____ . ____ . ____ . ____ . ____
 72
    65
 73
     4
 40
18.0
 49
12.0
 74
     0
 49
-1.5
 74
     0
 49
3.0
 74
     0
 49
-1.5
 74
     0
  0
LTYPE
  5
66
330
5
100
AcDbSymbolTableRecord
100
AcDbLinetypeTableRecord
  2
AM_ISO09W050
 70
     0
  3
_____ . . _____ . . _____ . . ____ .. ____
 72
    65
 73
     6
 40
22.5
 49
12.0
 74
     0
 49
-1.5
 74
     0
 49
3.0
 74
     0
 49
-1.5
 74
     0
 49
3.0
 74
     0
 49
-1.5
 74
     0
  0
LTYPE
  5
67
330
5
100
AcDbSymbolTableRecord
100
AcDbLinetypeTableRecord
  2
Amconstr
 70
     0
  3
_______________________
 72
    65
 73
     2
 40
9999.0
 49
9999.0
 74
     0
 49
0.0
 74
     0
  0
LTYPE
  5
68
330
5
100
AcDbSymbolTableRecord
100
AcDbLinetypeTableRecord
  2
AM_ISO08W050x2
 70
     0
  3
__ . __ . __ . __ . __ . __
 72
    65
 73
     4
 40
9.0
 49
6.0
 74
     0
 49
-0.75
 74
     0
 49
1.5
 74
     0
 49
-0.75
 74
     0
  0
LTYPE
  5
69
330
5
100
AcDbSymbolTableRecord
100
AcDbLinetypeTableRecord
  2
AM_ISO02W050x2
 70
     0
  3
 _ _ _ _ _ _ _ _ _ _ _ _
 72
    65
 73
     2
 40
3.75
 49
3.0
 74
     0
 49
-0.75
 74
     0
  0
LTYPE
  5
6C
330
5
100
AcDbSymbolTableRecord
100
AcDbLinetypeTableRecord
  2
Amzigzag
 70
     0
  3
/\/-/\/-/\/-/\/-/\/-/\/
 72
    65
 73
     2
 40
11.0001
 49
0.0001
 74
     4
 75
   135
340
6B
 46
0.04
 50
0.0
 44
0.0
 45
0.0
 49
-11.0
 74
     0
  0
LTYPE
  5
7A
330
5
100
AcDbSymbolTableRecord
100
AcDbLinetypeTableRecord
  2
ACISOWELD
 70
     0
  3
_ _ _ _ _
 72
    65
 73
     2
 40
2.0
 49
2.0
 74
     0
 49
-1.0
 74
     0
  0
LTYPE
  5
7B
330
5
100
AcDbSymbolTableRecord
100
AcDbLinetypeTableRecord
  2
ACISOTGB
 70
     0
  3
__ . . __ . .
 72
    65
 73
     6
 40
9.0
 49
4.0
 74
     0
 49
-1.0
 74
     0
 49
1.0
 74
     0
 49
-1.0
 74
     0
 49
1.0
 74
     0
 49
-1.0
 74
     0
  0
LTYPE
  5
7C
330
5
100
AcDbSymbolTableRecord
100
AcDbLinetypeTableRecord
  2
ACISOTGL
 70
     0
  3
_ _ _ _ _
 72
    65
 73
     2
 40
3.0
 49
2.0
 74
     0
 49
-1.0
 74
     0
  0
LTYPE
  5
7E
330
5
100
AcDbSymbolTableRecord
100
AcDbLinetypeTableRecord
  2
CENTER
 70
     0
  3
__ . __
 72
    65
 73
     4
 40
7.0
 49
4.0
 74
     0
 49
-1.0
 74
     0
 49
1.0
 74
     0
 49
-1.0
 74
     0
  0
LTYPE
  5
D8
330
5
100
AcDbSymbolTableRecord
100
AcDbLinetypeTableRecord
  2
HIDDEN
 70
     0
  3
Hidden __ __ __ __ __ __ __ __ __ __ __ __ __ _
 72
    65
 73
     2
 40
9.524999999999998
 49
6.349999999999999
 74
     0
 49
-3.174999999999999
 74
     0
  0
LTYPE
  5
D9
330
5
100
AcDbSymbolTableRecord
100
AcDbLinetypeTableRecord
  2
PHANTOM2
 70
     0
  3
Phantom (.5x) ___ _ _ ___ _ _ ___ _ _ ___ _ _
 72
    65
 73
     6
 40
31.75
 49
15.875
 74
     0
 49
-3.174999999999999
 74
     0
 49
3.174999999999999
 74
     0
 49
-3.174999999999999
 74
     0
 49
3.174999999999999
 74
     0
 49
-3.174999999999999
 74
     0
  0
ENDTAB
  0
TABLE
  2
LAYER
  5
2
102
{ACAD_XDICTIONARY
360
3F9
102
}
330
0
100
AcDbSymbolTable
 70
     8
  0
LAYER
  5
10
330
2
100
AcDbSymbolTableRecord
100
AcDbLayerTableRecord
  2
0
 70
     0
 62
     7
  6
Continuous
370
    -3
390
F
  0
LAYER
  5
812
330
2
100
AcDbSymbolTableRecord
100
AcDbLayerTableRecord
  2
AM_VIS
 70
     0
 62
     7
  6
Continuous
370
    50
390
F
  0
LAYER
  5
813
330
2
100
AcDbSymbolTableRecord
100
AcDbLayerTableRecord
  2
AM_4
 70
     0
 62
     3
  6
Continuous
370
    25
390
F
  0
LAYER
  5
BD2
330
2
100
AcDbSymbolTableRecord
100
AcDbLayerTableRecord
  2
AM_0
 70
     0
 62
     7
  6
Continuous
370
    50
390
F
  0
LAYER
  5
BF8
330
2
100
AcDbSymbolTableRecord
100
AcDbLayerTableRecord
  2
AM_7
 70
     0
 62
     1
  6
CENTER
370
    25
390
F
  0
LAYER
  5
C53
330
2
100
AcDbSymbolTableRecord
100
AcDbLayerTableRecord
  2
AM_5
 70
     0
 62
     5
  6
Continuous
370
    50
390
F
  0
LAYER
  5
D49
330
2
100
AcDbSymbolTableRecord
100
AcDbLayerTableRecord
  2
Defpoints
 70
     0
 62
     7
  6
Continuous
290
     0
370
    -3
390
F
  0
LAYER
  5
150C
330
2
100
AcDbSymbolTableRecord
100
AcDbLayerTableRecord
  2
LOGO
 70
     0
 62
     7
  6
Continuous
370
    -3
390
F
  0
ENDTAB
  0
TABLE
  2
STYLE
  5
3
330
0
100
AcDbSymbolTable
 70
     6
  0
STYLE
  5
11
330
3
100
AcDbSymbolTableRecord
100
AcDbTextStyleTableRecord
  2
STANDARD
 70
     0
 40
0.0
 41
1.0
 50
0.0
 71
     0
 42
3.0
  3
ISOCP.SHX
  4
CHINESET.SHX
  0
STYLE
  5
6B
330
3
100
AcDbSymbolTableRecord
100
AcDbTextStyleTableRecord
  2

 70
     1
 40
0.0
 41
1.0
 50
0.0
 71
     0
 42
2.5
  3
ltypeshp.shx
  4

  0
STYLE
  5
6D
330
3
100
AcDbSymbolTableRecord
100
AcDbTextStyleTableRecord
  2
ACISOTS
 70
     0
 40
1.0
 41
1.0
 50
0.0
 71
     0
 42
1.0
  3
isocp.shx
  4
chineset.shx
  0
STYLE
  5
79
330
3
100
AcDbSymbolTableRecord
100
AcDbTextStyleTableRecord
  2
ACISOGDT
 70
     0
 40
0.0
 41
1.0
 50
0.0
 71
     0
 42
2.5
  3
amgdt.shx
  4
chineset.shx
  0
STYLE
  5
60C
330
3
100
AcDbSymbolTableRecord
100
AcDbTextStyleTableRecord
  2
CHINESET
 70
     0
 40
0.0
 41
1.0
 50
0.0
 71
     0
 42
3.0
  3
simplex.shx
  4
CHINESET.SHX
  0
ENDTAB
  0
TABLE
  2
VIEW
  5
6
330
0
100
AcDbSymbolTable
 70
     0
  0
ENDTAB
  0
TABLE
  2
UCS
  5
7
330
0
100
AcDbSymbolTable
 70
     0
  0
ENDTAB
  0
TABLE
  2
APPID
  5
9
330
0
100
AcDbSymbolTable
 70
    34
  0
APPID
  5
12
330
9
100
AcDbSymbolTableRecord
100
AcDbRegAppTableRecord
  2
ACAD
 70
     0
  0
APPID
  5
46
330
9
100
AcDbSymbolTableRecord
100
AcDbRegAppTableRecord
  2
MCAD_NO_VIS
 70
     0
  0
APPID
  5
47
330
9
100
AcDbSymbolTableRecord
100
AcDbRegAppTableRecord
  2
ACAD_TEMP_GRAPHIC
 70
     0
  0
APPID
  5
58
330
9
100
AcDbSymbolTableRecord
100
AcDbRegAppTableRecord
  2
ACATTRIBSERVICES
 70
     0
  0
APPID
  5
EE
330
9
100
AcDbSymbolTableRecord
100
AcDbRegAppTableRecord
  2
AD_DRAW
 70
     0
  0
APPID
  5
10C
330
9
100
AcDbSymbolTableRecord
100
AcDbRegAppTableRecord
  2
DESIGNERASSEMBLIES
 70
     0
  0
APPID
  5
111
330
9
100
AcDbSymbolTableRecord
100
AcDbRegAppTableRecord
  2
ACADM_DIM_EDIT
 70
     0
  0
APPID
  5
112
330
9
100
AcDbSymbolTableRecord
100
AcDbRegAppTableRecord
  2
AMDT_DM_ADJ
 70
     0
  0
APPID
  5
22C
330
9
100
AcDbSymbolTableRecord
100
AcDbRegAppTableRecord
  2
ACAD_DSTYLE_DIMTEXT_FILL
 70
     0
  0
APPID
  5
452
330
9
100
AcDbSymbolTableRecord
100
AcDbRegAppTableRecord
  2
GENIUS_GENOENT_13
 70
     0
  0
APPID
  5
453
330
9
100
AcDbSymbolTableRecord
100
AcDbRegAppTableRecord
  2
GENIUS_GENOBJ-N-CRS_13
 70
     0
  0
APPID
  5
454
330
9
100
AcDbSymbolTableRecord
100
AcDbRegAppTableRecord
  2
GENIUS_GENOLIS_13
 70
     0
  0
APPID
  5
455
330
9
100
AcDbSymbolTableRecord
100
AcDbRegAppTableRecord
  2
GENIUS_GENODEF_13
 70
     0
  0
APPID
  5
456
330
9
100
AcDbSymbolTableRecord
100
AcDbRegAppTableRecord
  2
GENIUS_GENOREF_13
 70
     0
  0
APPID
  5
6F3
330
9
100
AcDbSymbolTableRecord
100
AcDbRegAppTableRecord
  2
ACAD_PSEXT
 70
     0
  0
APPID
  5
782
330
9
100
AcDbSymbolTableRecord
100
AcDbRegAppTableRecord
  2
GENIUS_GENDTOL_13
 70
     0
  0
APPID
  5
BD9
330
9
100
AcDbSymbolTableRecord
100
AcDbRegAppTableRecord
  2
GEVID1142294916
 70
     0
  0
APPID
  5
BDA
330
9
100
AcDbSymbolTableRecord
100
AcDbRegAppTableRecord
  2
GEVDC
 70
     0
  0
APPID
  5
BDB
330
9
100
AcDbSymbolTableRecord
100
AcDbRegAppTableRecord
  2
GEVRADREF
 70
     0
  0
APPID
  5
BE4
330
9
100
AcDbSymbolTableRecord
100
AcDbRegAppTableRecord
  2
AMG_2DHIDE
 70
     0
  0
APPID
  5
BE5
330
9
100
AcDbSymbolTableRecord
100
AcDbRegAppTableRecord
  2
AMG_2DSTRUCT_BTR
 70
     0
  0
APPID
  5
BF6
330
9
100
AcDbSymbolTableRecord
100
AcDbRegAppTableRecord
  2
ACADM_2DVIEW_IGN_NOTIFY
 70
     0
  0
APPID
  5
CAE
330
9
100
AcDbSymbolTableRecord
100
AcDbRegAppTableRecord
  2
GEVID1142294917
 70
     0
  0
APPID
  5
12D3
330
9
100
AcDbSymbolTableRecord
100
AcDbRegAppTableRecord
  2
GENIUS_GENDIMSH_14
 70
     0
  0
APPID
  5
150D
330
9
100
AcDbSymbolTableRecord
100
AcDbRegAppTableRecord
  2
GENIUS_GENREC_14
 70
     0
  0
APPID
  5
150E
330
9
100
AcDbSymbolTableRecord
100
AcDbRegAppTableRecord
  2
GENIUS_GENOBJ-N-REC_13
 70
     0
  0
APPID
  5
1A06
330
9
100
AcDbSymbolTableRecord
100
AcDbRegAppTableRecord
  2
GEVID1142658490
 70
     0
  0
APPID
  5
1A55
330
9
100
AcDbSymbolTableRecord
100
AcDbRegAppTableRecord
  2
GENIUS_GENOBJ-N-CEN_13
 70
     0
  0
APPID
  5
1A56
330
9
100
AcDbSymbolTableRecord
100
AcDbRegAppTableRecord
  2
GENIUS_GENCEN_19
 70
     0
  0
APPID
  5
2311
330
9
100
AcDbSymbolTableRecord
100
AcDbRegAppTableRecord
  2
GEVID1142658491
 70
     0
  0
APPID
  5
2817
330
9
100
AcDbSymbolTableRecord
100
AcDbRegAppTableRecord
  2
GEVID1142813190
 70
     0
  0
APPID
  5
28E5
330
9
100
AcDbSymbolTableRecord
100
AcDbRegAppTableRecord
  2
GEVID1142813191
 70
     0
  0
APPID
  5
2B97
330
9
100
AcDbSymbolTableRecord
100
AcDbRegAppTableRecord
  2
GEVID1142813192
 70
     0
  0
APPID
  5
2C01
330
9
100
AcDbSymbolTableRecord
100
AcDbRegAppTableRecord
  2
GEVID1142813193
 70
     0
  0
ENDTAB
  0
TABLE
  2
DIMSTYLE
  5
A
330
0
100
AcDbSymbolTable
 70
     9
100
AcDbDimStyleTable
 71
     3
340
81
340
8B
340
86
  0
DIMSTYLE
105
81
330
A
100
AcDbSymbolTableRecord
100
AcDbDimStyleTableRecord
  2
AM_ISO
 70
     0
  4
"
 41
3.0
 42
1.0
 43
5.0
 44
1.5
 47
0.1
 48
0.1
 73
     0
 74
     0
 77
     1
 78
     8
 79
     2
140
3.0
141
0.0
143
0.0393701
146
0.6
147
1.0
172
     1
176
   256
177
   256
178
   256
271
     2
272
     2
283
     0
284
     8
340
11
371
    -1
372
    -1
  0
DIMSTYLE
105
82
330
A
100
AcDbSymbolTableRecord
100
AcDbDimStyleTableRecord
  2
AM_ISO$3
 70
     0
  4
"
 41
3.0
 42
1.0
 43
5.0
 44
1.5
 47
0.1
 48
0.1
 73
     0
 77
     1
 78
     8
 79
     2
140
3.0
141
0.0
143
0.0393701
146
0.6
147
1.0
176
   256
177
   256
178
   256
271
     2
272
     2
283
     0
284
     8
288
     1
289
     0
340
11
371
    -1
372
    -1
  0
DIMSTYLE
105
83
330
A
100
AcDbSymbolTableRecord
100
AcDbDimStyleTableRecord
  2
AM_ISO$4
 70
     0
  4
"
 41
3.0
 42
1.0
 43
5.0
 44
1.5
 47
0.1
 48
0.1
 73
     0
 77
     1
 78
     8
 79
     2
140
3.0
141
0.0
143
0.0393701
146
0.6
147
1.0
176
   256
177
   256
178
   256
271
     2
272
     2
283
     0
284
     8
288
     1
289
     0
340
11
371
    -1
372
    -1
  0
DIMSTYLE
105
84
330
A
100
AcDbSymbolTableRecord
100
AcDbDimStyleTableRecord
  2
AM_ISO$6
 70
     0
  4
"
 41
3.0
 42
1.0
 43
5.0
 44
1.5
 47
0.1
 48
0.1
 73
     0
 74
     0
 78
     8
 79
     2
140
3.0
141
0.0
143
0.0393701
146
0.6
147
1.0
172
     1
176
   256
177
   256
178
   256
271
     2
272
     2
283
     0
284
     8
340
11
371
    -1
372
    -1
  0
DIMSTYLE
105
85
330
A
100
AcDbSymbolTableRecord
100
AcDbDimStyleTableRecord
  2
AM_ISO$7
 70
     0
  4
"
 41
3.0
 42
1.0
 43
5.0
 44
1.5
 47
0.1
 48
0.1
 73
     0
 74
     0
 77
     1
 78
     8
 79
     2
140
5.0
141
0.0
143
0.0393701
146
0.6
147
1.0
172
     1
176
   256
177
   256
178
   256
271
     2
272
     2
283
     0
284
     8
340
11
371
    -1
372
    -1
  0
DIMSTYLE
105
86
330
A
100
AcDbSymbolTableRecord
100
AcDbDimStyleTableRecord
  2
AM_ISO$SF
 70
     0
  4
"
 41
2.5
 42
1.0
 43
10.0
 44
1.0
 47
0.1
 48
0.1
 73
     0
 74
     0
 75
     1
 76
     1
 77
     1
 78
     8
 79
     2
140
3.5
141
0.0
143
0.0393701
146
0.71
147
1.5
172
     1
176
   256
177
   256
178
     2
271
     2
272
     3
274
     4
283
     0
284
     8
340
11
371
    -1
372
    -1
  0
DIMSTYLE
105
8B
330
A
100
AcDbSymbolTableRecord
100
AcDbDimStyleTableRecord
  2
AM_ISO$SH
 70
     0
  4
"
 41
2.5
 42
1.0
 43
10.0
 44
1.0
 47
0.1
 48
0.1
 73
     0
 74
     0
 75
     1
 76
     1
 77
     1
 78
     8
 79
     2
140
3.5
141
0.0
143
0.0393701
144
2.0
146
0.71
147
1.5
172
     1
173
     1
176
   256
177
   256
178
     2
271
     2
272
     3
274
     4
283
     0
284
     8
340
11
343
87
371
    -1
372
    -1
  0
DIMSTYLE
105
40B
102
{ACAD_REACTORS
330
1F2F
330
1FA8
330
EC3
330
EE9
330
E9D
330
E65
330
F85
330
F0F
330
FFC
330
FD6
102
}
330
A
100
AcDbSymbolTableRecord
100
AcDbDimStyleTableRecord
  2
AM_ISO$0
 70
     0
  4
"
 41
3.0
 42
1.0
 43
5.0
 44
1.5
 47
0.1
 48
0.1
 73
     0
 74
     0
 77
     1
 78
     8
 79
     2
140
3.0
141
0.0
143
0.0393701
146
0.6
147
1.0
172
     1
176
   256
177
   256
178
   256
271
     2
272
     2
283
     0
284
     8
340
11
371
    -1
372
    -1
  0
ENDTAB
  0
TABLE
  2
BLOCK_RECORD
  5
1
330
0
100
AcDbSymbolTable
 70
    20
  0
BLOCK_RECORD
  5
1F
102
{ACAD_XDICTIONARY
360
8F
102
}
330
1
100
AcDbSymbolTableRecord
100
AcDbBlockTableRecord
  2
*Model_Space
340
22
  0
BLOCK_RECORD
  5
1B
330
1
100
AcDbSymbolTableRecord
100
AcDbBlockTableRecord
  2
*Paper_Space
340
1E
  0
BLOCK_RECORD
  5
23
330
1
100
AcDbSymbolTableRecord
100
AcDbBlockTableRecord
  2
*Paper_Space0
340
26
  0
BLOCK_RECORD
  5
87
330
1
100
AcDbSymbolTableRecord
100
AcDbBlockTableRecord
  2
GENAXEH
340
0
  0
BLOCK_RECORD
  5
BFB
330
1
100
AcDbSymbolTableRecord
100
AcDbBlockTableRecord
  2
*U4
340
0
  0
BLOCK_RECORD
  5
E66
330
1
100
AcDbSymbolTableRecord
100
AcDbBlockTableRecord
  2
*D5
340
0
  0
BLOCK_RECORD
  5
E9E
330
1
100
AcDbSymbolTableRecord
100
AcDbBlockTableRecord
  2
*D6
340
0
  0
BLOCK_RECORD
  5
EC4
330
1
100
AcDbSymbolTableRecord
100
AcDbBlockTableRecord
  2
*D7
340
0
  0
BLOCK_RECORD
  5
EEA
330
1
100
AcDbSymbolTableRecord
100
AcDbBlockTableRecord
  2
*D8
340
0
  0
BLOCK_RECORD
  5
F10
330
1
100
AcDbSymbolTableRecord
100
AcDbBlockTableRecord
  2
*D9
340
0
  0
BLOCK_RECORD
  5
F86
330
1
100
AcDbSymbolTableRecord
100
AcDbBlockTableRecord
  2
*D10
340
0
  0
BLOCK_RECORD
  5
FD7
330
1
100
AcDbSymbolTableRecord
100
AcDbBlockTableRecord
  2
*D11
340
0
  0
BLOCK_RECORD
  5
FFD
330
1
100
AcDbSymbolTableRecord
100
AcDbBlockTableRecord
  2
*D12
340
0
  0
BLOCK_RECORD
  5
1DB0
330
1
100
AcDbSymbolTableRecord
100
AcDbBlockTableRecord
  2
GENDOT
340
0
102
{BLKREFS
331
2E3A
331
2E45
102
}
  0
BLOCK_RECORD
  5
1F30
330
1
100
AcDbSymbolTableRecord
100
AcDbBlockTableRecord
  2
*D14
340
0
  0
BLOCK_RECORD
  5
1FA9
330
1
100
AcDbSymbolTableRecord
100
AcDbBlockTableRecord
  2
*D15
340
0
  0
BLOCK_RECORD
  5
300D
330
1
100
AcDbSymbolTableRecord
100
AcDbBlockTableRecord
  2
*S17
340
0
  0
BLOCK_RECORD
  5
3015
330
1
100
AcDbSymbolTableRecord
100
AcDbBlockTableRecord
  2
*S18
340
0
  0
BLOCK_RECORD
  5
301D
330
1
100
AcDbSymbolTableRecord
100
AcDbBlockTableRecord
  2
*S19
340
0
  0
ENDTAB
  0
ENDSEC
  0
SECTION
  2
BLOCKS
  0
BLOCK
  5
20
330
1F
100
AcDbEntity
  8
0
100
AcDbBlockBegin
  2
*Model_Space
 70
     0
 10
0.0
 20
0.0
 30
0.0
  3
*Model_Space
  1

  0
ENDBLK
  5
21
330
1F
100
AcDbEntity
  8
0
100
AcDbBlockEnd
  0
BLOCK
  5
1C
330
1B
100
AcDbEntity
 67
     1
  8
0
100
AcDbBlockBegin
  2
*Paper_Space
 70
     0
 10
0.0
 20
0.0
 30
0.0
  3
*Paper_Space
  1

  0
ENDBLK
  5
1D
330
1B
100
AcDbEntity
 67
     1
  8
0
100
AcDbBlockEnd
  0
BLOCK
  5
24
330
23
100
AcDbEntity
  8
0
100
AcDbBlockBegin
  2
*Paper_Space0
 70
     0
 10
0.0
 20
0.0
 30
0.0
  3
*Paper_Space0
  1

  0
ENDBLK
  5
25
330
23
100
AcDbEntity
  8
0
100
AcDbBlockEnd
  0
BLOCK
  5
89
330
87
100
AcDbEntity
  8
0
100
AcDbBlockBegin
  2
GENAXEH
 70
     0
 10
0.0
 20
0.0
 30
0.0
  3
GENAXEH
  1

  0
LINE
  5
88
330
87
100
AcDbEntity
  8
0
100
AcDbLine
 10
-1.0
 20
0.0
 30
0.0
 11
1.0
 21
0.0
 31
0.0
  0
ENDBLK
  5
8A
330
87
100
AcDbEntity
  8
0
100
AcDbBlockEnd
  0
BLOCK
  5
BFC
330
BFB
100
AcDbEntity
  8
0
100
AcDbBlockBegin
  2
*U4
 70
     1
 10
0.0
 20
0.0
 30
0.0
  3
*U4
  1

  0
ENDBLK
  5
BFD
330
BFB
100
AcDbEntity
  8
0
100
AcDbBlockEnd
  0
BLOCK
  5
E70
330
E66
100
AcDbEntity
  8
0
100
AcDbBlockBegin
  2
*D5
 70
     1
 10
0.0
 20
0.0
 30
0.0
  3
*D5
  1

  0
LINE
  5
2F07
330
E66
100
AcDbEntity
  8
AM_5
100
AcDbLine
 10
2921.427582336908
 20
1609.077900754274
 30
0.0
 11
2921.427582336908
 21
1586.617854064613
 31
0.0
  0
LINE
  5
2F08
330
E66
100
AcDbEntity
  8
AM_5
100
AcDbLine
 10
2941.427582336908
 20
1609.077900754274
 30
0.0
 11
2941.427582336908
 21
1586.617854064613
 31
0.0
  0
LINE
  5
2F09
330
E66
100
AcDbEntity
  8
AM_5
100
AcDbLine
 10
2923.827582336909
 20
1587.817854064613
 30
0.0
 11
2939.027582336908
 21
1587.817854064613
 31
0.0
  0
SOLID
  5
2F0A
330
E66
100
AcDbEntity
  8
AM_5
100
AcDbTrace
 10
2923.827582336909
 20
1588.217854064613
 30
0.0
 11
2923.827582336909
 21
1587.417854064613
 31
0.0
 12
2921.427582336908
 22
1587.817854064613
 32
0.0
 13
2921.427582336908
 23
1587.817854064613
 33
0.0
  0
SOLID
  5
2F0B
330
E66
100
AcDbEntity
  8
AM_5
100
AcDbTrace
 10
2939.027582336908
 20
1588.217854064613
 30
0.0
 11
2939.027582336908
 21
1587.417854064613
 31
0.0
 12
2941.427582336908
 22
1587.817854064613
 32
0.0
 13
2941.427582336908
 23
1587.817854064613
 33
0.0
  0
MTEXT
  5
2F0C
330
E66
100
AcDbEntity
  8
AM_5
100
AcDbMText
 10
2931.427582336908
 20
1589.818090285086
 30
0.0
 40
2.4
 41
0.0
 71
     5
 72
     1
  1
20
 73
     1
 44
1.0
1001
ACAD
1000
MTEXTBEGIN
1070
    73
1070
     1
1070
    44
1040
1.0
1070
    74
1070
     0
1000
MTEXTEND
  0
POINT
  5
2F0D
330
E66
100
AcDbEntity
  8
Defpoints
 62
     0
100
AcDbPoint
 10
2921.427582336908
 20
1609.877900754274
 30
0.0
  0
POINT
  5
2F0E
330
E66
100
AcDbEntity
  8
Defpoints
 62
     0
100
AcDbPoint
 10
2941.427582336908
 20
1609.877900754274
 30
0.0
  0
POINT
  5
2F0F
330
E66
100
AcDbEntity
  8
Defpoints
 62
     0
100
AcDbPoint
 10
2941.427582336908
 20
1587.817854064613
 30
0.0
  0
ENDBLK
  5
E71
330
E66
100
AcDbEntity
  8
0
100
AcDbBlockEnd
  0
BLOCK
  5
EA8
330
E9E
100
AcDbEntity
  8
0
100
AcDbBlockBegin
  2
*D6
 70
     1
 10
0.0
 20
0.0
 30
0.0
  3
*D6
  1

  0
LINE
  5
2F10
330
E9E
100
AcDbEntity
  8
AM_5
100
AcDbLine
 10
2915.927582336908
 20
1599.47479186295
 30
0.0
 11
2915.927582336908
 21
1581.617854064613
 31
0.0
  0
LINE
  5
2F11
330
E9E
100
AcDbEntity
  8
AM_5
100
AcDbLine
 10
2946.927582336908
 20
1599.47479186295
 30
0.0
 11
2946.927582336908
 21
1581.617854064613
 31
0.0
  0
LINE
  5
2F12
330
E9E
100
AcDbEntity
  8
AM_5
100
AcDbLine
 10
2918.327582336909
 20
1582.817854064613
 30
0.0
 11
2944.527582336908
 21
1582.817854064613
 31
0.0
  0
SOLID
  5
2F13
330
E9E
100
AcDbEntity
  8
AM_5
100
AcDbTrace
 10
2918.327582336909
 20
1583.217854064613
 30
0.0
 11
2918.327582336909
 21
1582.417854064613
 31
0.0
 12
2915.927582336908
 22
1582.817854064613
 32
0.0
 13
2915.927582336908
 23
1582.817854064613
 33
0.0
  0
SOLID
  5
2F14
330
E9E
100
AcDbEntity
  8
AM_5
100
AcDbTrace
 10
2944.527582336908
 20
1583.217854064613
 30
0.0
 11
2944.527582336908
 21
1582.417854064613
 31
0.0
 12
2946.927582336908
 22
1582.817854064613
 32
0.0
 13
2946.927582336908
 23
1582.817854064613
 33
0.0
  0
MTEXT
  5
2F15
330
E9E
100
AcDbEntity
  8
AM_5
100
AcDbMText
 10
2931.427582336908
 20
1584.817854064613
 30
0.0
 40
2.4
 41
0.0
 71
     5
 72
     1
  1
31
 73
     1
 44
1.0
1001
ACAD
1000
MTEXTBEGIN
1070
    73
1070
     1
1070
    44
1040
1.0
1070
    74
1070
     0
1000
MTEXTEND
  0
POINT
  5
2F16
330
E9E
100
AcDbEntity
  8
Defpoints
 62
     0
100
AcDbPoint
 10
2915.927582336908
 20
1600.27479186295
 30
0.0
  0
POINT
  5
2F17
330
E9E
100
AcDbEntity
  8
Defpoints
 62
     0
100
AcDbPoint
 10
2946.927582336908
 20
1600.27479186295
 30
0.0
  0
POINT
  5
2F18
330
E9E
100
AcDbEntity
  8
Defpoints
 62
     0
100
AcDbPoint
 10
2946.927582336908
 20
1582.817854064613
 30
0.0
  0
ENDBLK
  5
EA9
330
E9E
100
AcDbEntity
  8
0
100
AcDbBlockEnd
  0
BLOCK
  5
ECE
330
EC4
100
AcDbEntity
  8
0
100
AcDbBlockBegin
  2
*D7
 70
     1
 10
0.0
 20
0.0
 30
0.0
  3
*D7
  1

  0
LINE
  5
2FBB
330
EC4
100
AcDbEntity
  8
AM_5
100
AcDbLine
 10
2935.124473445584
 20
1602.77479186295
 30
0.0
 11
2958.295507154123
 21
1602.77479186295
 31
0.0
  0
LINE
  5
2FBC
330
EC4
100
AcDbEntity
  8
AM_5
100
AcDbLine
 10
2935.124473445584
 20
1622.77479186295
 30
0.0
 11
2958.295507154123
 21
1622.77479186295
 31
0.0
  0
LINE
  5
2FBD
330
EC4
100
AcDbEntity
  8
AM_5
100
AcDbLine
 10
2957.095507154123
 20
1605.17479186295
 30
0.0
 11
2957.095507154123
 21
1620.37479186295
 31
0.0
  0
SOLID
  5
2FBE
330
EC4
100
AcDbEntity
  8
AM_5
100
AcDbTrace
 10
2956.695507154123
 20
1605.17479186295
 30
0.0
 11
2957.495507154123
 21
1605.17479186295
 31
0.0
 12
2957.095507154123
 22
1602.77479186295
 32
0.0
 13
2957.095507154123
 23
1602.77479186295
 33
0.0
  0
SOLID
  5
2FBF
330
EC4
100
AcDbEntity
  8
AM_5
100
AcDbTrace
 10
2956.695507154123
 20
1620.37479186295
 30
0.0
 11
2957.495507154123
 21
1620.37479186295
 31
0.0
 12
2957.095507154123
 22
1622.77479186295
 32
0.0
 13
2957.095507154123
 23
1622.77479186295
 33
0.0
  0
MTEXT
  5
2FC0
330
EC4
100
AcDbEntity
  8
AM_5
100
AcDbMText
 10
2955.095270933651
 20
1612.77479186295
 30
0.0
 40
2.4
 41
0.0
 71
     5
 72
     1
  1
20
 11
0.0000000000000001
 21
1.0
 31
0.0
 73
     1
 44
1.0
1001
ACAD
1000
MTEXTBEGIN
1070
    73
1070
     1
1070
    44
1040
1.0
1070
    74
1070
     0
1000
MTEXTEND
  0
POINT
  5
2FC1
330
EC4
100
AcDbEntity
  8
Defpoints
 62
     0
100
AcDbPoint
 10
2934.324473445583
 20
1602.77479186295
 30
0.0
  0
POINT
  5
2FC2
330
EC4
100
AcDbEntity
  8
Defpoints
 62
     0
100
AcDbPoint
 10
2934.324473445583
 20
1622.77479186295
 30
0.0
  0
POINT
  5
2FC3
330
EC4
100
AcDbEntity
  8
Defpoints
 62
     0
100
AcDbPoint
 10
2957.095507154123
 20
1622.77479186295
 30
0.0
  0
ENDBLK
  5
ECF
330
EC4
100
AcDbEntity
  8
0
100
AcDbBlockEnd
  0
BLOCK
  5
EF4
330
EEA
100
AcDbEntity
  8
0
100
AcDbBlockBegin
  2
*D8
 70
     1
 10
0.0
 20
0.0
 30
0.0
  3
*D8
  1

  0
LINE
  5
2F22
330
EEA
100
AcDbEntity
  8
AM_5
100
AcDbLine
 10
2944.727582336908
 20
1597.27479186295
 30
0.0
 11
2963.295507154123
 21
1597.27479186295
 31
0.0
  0
LINE
  5
2F23
330
EEA
100
AcDbEntity
  8
AM_5
100
AcDbLine
 10
2944.727582336908
 20
1628.27479186295
 30
0.0
 11
2963.295507154123
 21
1628.27479186295
 31
0.0
  0
LINE
  5
2F24
330
EEA
100
AcDbEntity
  8
AM_5
100
AcDbLine
 10
2962.095507154123
 20
1599.67479186295
 30
0.0
 11
2962.095507154123
 21
1625.87479186295
 31
0.0
  0
SOLID
  5
2F25
330
EEA
100
AcDbEntity
  8
AM_5
100
AcDbTrace
 10
2961.695507154123
 20
1599.67479186295
 30
0.0
 11
2962.495507154123
 21
1599.67479186295
 31
0.0
 12
2962.095507154123
 22
1597.27479186295
 32
0.0
 13
2962.095507154123
 23
1597.27479186295
 33
0.0
  0
SOLID
  5
2F26
330
EEA
100
AcDbEntity
  8
AM_5
100
AcDbTrace
 10
2961.695507154123
 20
1625.87479186295
 30
0.0
 11
2962.495507154123
 21
1625.87479186295
 31
0.0
 12
2962.095507154123
 22
1628.27479186295
 32
0.0
 13
2962.095507154123
 23
1628.27479186295
 33
0.0
  0
MTEXT
  5
2F27
330
EEA
100
AcDbEntity
  8
AM_5
100
AcDbMText
 10
2960.095507154123
 20
1612.77479186295
 30
0.0
 40
2.4
 41
0.0
 71
     5
 72
     1
  1
31
 11
0.0000000000000001
 21
1.0
 31
0.0
 73
     1
 44
1.0
1001
ACAD
1000
MTEXTBEGIN
1070
    73
1070
     1
1070
    44
1040
1.0
1070
    74
1070
     0
1000
MTEXTEND
  0
POINT
  5
2F28
330
EEA
100
AcDbEntity
  8
Defpoints
 62
     0
100
AcDbPoint
 10
2943.927582336908
 20
1597.27479186295
 30
0.0
  0
POINT
  5
2F29
330
EEA
100
AcDbEntity
  8
Defpoints
 62
     0
100
AcDbPoint
 10
2943.927582336908
 20
1628.27479186295
 30
0.0
  0
POINT
  5
2F2A
330
EEA
100
AcDbEntity
  8
Defpoints
 62
     0
100
AcDbPoint
 10
2962.095507154123
 20
1628.27479186295
 30
0.0
  0
ENDBLK
  5
EF5
330
EEA
100
AcDbEntity
  8
0
100
AcDbBlockEnd
  0
BLOCK
  5
F1A
330
F10
100
AcDbEntity
  8
0
100
AcDbBlockBegin
  2
*D9
 70
     1
 10
0.0
 20
0.0
 30
0.0
  3
*D9
  1

  0
LINE
  5
2EA1
330
F10
100
AcDbEntity
  8
AM_5
100
AcDbLine
 10
2944.505611495053
 20
1534.542594426336
 30
0.0
 11
2960.127582336908
 21
1534.542594426336
 31
0.0
  0
LINE
  5
2EA2
330
F10
100
AcDbEntity
  8
AM_5
100
AcDbLine
 10
2944.505611495053
 20
1563.042594426336
 30
0.0
 11
2960.127582336908
 21
1563.042594426336
 31
0.0
  0
LINE
  5
2EA3
330
F10
100
AcDbEntity
  8
AM_5
100
AcDbLine
 10
2958.927582336908
 20
1536.942594426336
 30
0.0
 11
2958.927582336908
 21
1560.642594426336
 31
0.0
  0
SOLID
  5
2EA4
330
F10
100
AcDbEntity
  8
AM_5
100
AcDbTrace
 10
2958.527582336908
 20
1536.942594426336
 30
0.0
 11
2959.327582336909
 21
1536.942594426336
 31
0.0
 12
2958.927582336908
 22
1534.542594426336
 32
0.0
 13
2958.927582336908
 23
1534.542594426336
 33
0.0
  0
SOLID
  5
2EA5
330
F10
100
AcDbEntity
  8
AM_5
100
AcDbTrace
 10
2958.527582336908
 20
1560.642594426336
 30
0.0
 11
2959.327582336909
 21
1560.642594426336
 31
0.0
 12
2958.927582336908
 22
1563.042594426336
 32
0.0
 13
2958.927582336908
 23
1563.042594426336
 33
0.0
  0
MTEXT
  5
2EA6
330
F10
100
AcDbEntity
  8
AM_5
100
AcDbMText
 10
2956.927346116435
 20
1548.792594426337
 30
0.0
 40
2.4
 41
0.0
 71
     5
 72
     1
  1
28.5+stroke
 11
0.0000000000000001
 21
1.0
 31
0.0
 73
     1
 44
1.0
1001
ACAD
1000
MTEXTBEGIN
1070
    73
1070
     1
1070
    44
1040
1.0
1070
    74
1070
     0
1000
MTEXTEND
  0
POINT
  5
2EA7
330
F10
100
AcDbEntity
  8
Defpoints
 62
     0
100
AcDbPoint
 10
2943.705611495053
 20
1534.542594426336
 30
0.0
  0
POINT
  5
2EA8
330
F10
100
AcDbEntity
  8
Defpoints
 62
     0
100
AcDbPoint
 10
2943.705611495053
 20
1563.042594426336
 30
0.0
  0
POINT
  5
2EA9
330
F10
100
AcDbEntity
  8
Defpoints
 62
     0
100
AcDbPoint
 10
2958.927582336908
 20
1563.042594426336
 30
0.0
  0
ENDBLK
  5
F1B
330
F10
100
AcDbEntity
  8
0
100
AcDbBlockEnd
  0
BLOCK
  5
F90
330
F86
100
AcDbEntity
  8
0
100
AcDbBlockBegin
  2
*D10
 70
     1
 10
0.0
 20
0.0
 30
0.0
  3
*D10
  1

  0
LINE
  5
2E98
330
F86
100
AcDbEntity
  8
AM_5
100
AcDbLine
 10
2944.505611495053
 20
1534.542594426336
 30
0.0
 11
2965.127582336908
 21
1534.542594426336
 31
0.0
  0
LINE
  5
2E99
330
F86
100
AcDbEntity
  8
AM_5
100
AcDbLine
 10
2945.505611495053
 20
1574.042594426336
 30
0.0
 11
2965.127582336908
 21
1574.042594426336
 31
0.0
  0
LINE
  5
2E9A
330
F86
100
AcDbEntity
  8
AM_5
100
AcDbLine
 10
2963.927582336908
 20
1536.942594426336
 30
0.0
 11
2963.927582336908
 21
1571.642594426336
 31
0.0
  0
SOLID
  5
2E9B
330
F86
100
AcDbEntity
  8
AM_5
100
AcDbTrace
 10
2963.527582336908
 20
1536.942594426336
 30
0.0
 11
2964.327582336908
 21
1536.942594426336
 31
0.0
 12
2963.927582336908
 22
1534.542594426336
 32
0.0
 13
2963.927582336908
 23
1534.542594426336
 33
0.0
  0
SOLID
  5
2E9C
330
F86
100
AcDbEntity
  8
AM_5
100
AcDbTrace
 10
2963.527582336908
 20
1571.642594426336
 30
0.0
 11
2964.327582336908
 21
1571.642594426336
 31
0.0
 12
2963.927582336908
 22
1574.042594426336
 32
0.0
 13
2963.927582336908
 23
1574.042594426336
 33
0.0
  0
MTEXT
  5
2E9D
330
F86
100
AcDbEntity
  8
AM_5
100
AcDbMText
 10
2961.927582336908
 20
1554.292594426337
 30
0.0
 40
2.4
 41
0.0
 71
     5
 72
     1
  1
39.5+stroke
 11
0.0000000000000001
 21
1.0
 31
0.0
 73
     1
 44
1.0
1001
ACAD
1000
MTEXTBEGIN
1070
    73
1070
     1
1070
    44
1040
1.0
1070
    74
1070
     0
1000
MTEXTEND
  0
POINT
  5
2E9E
330
F86
100
AcDbEntity
  8
Defpoints
 62
     0
100
AcDbPoint
 10
2943.705611495053
 20
1534.542594426336
 30
0.0
  0
POINT
  5
2E9F
330
F86
100
AcDbEntity
  8
Defpoints
 62
     0
100
AcDbPoint
 10
2944.705611495053
 20
1574.042594426336
 30
0.0
  0
POINT
  5
2EA0
330
F86
100
AcDbEntity
  8
Defpoints
 62
     0
100
AcDbPoint
 10
2963.927582336908
 20
1574.042594426336
 30
0.0
  0
ENDBLK
  5
F91
330
F86
100
AcDbEntity
  8
0
100
AcDbBlockEnd
  0
BLOCK
  5
FE1
330
FD7
100
AcDbEntity
  8
0
100
AcDbBlockBegin
  2
*D11
 70
     1
 10
0.0
 20
0.0
 30
0.0
  3
*D11
  1

  0
LINE
  5
2F47
330
FD7
100
AcDbEntity
  8
AM_5
100
AcDbLine
 10
2921.427582340619
 20
1493.034653316423
 30
0.0
 11
2921.427582340619
 21
1480.131357653515
 31
0.0
  0
LINE
  5
2F48
330
FD7
100
AcDbEntity
  8
AM_5
100
AcDbLine
 10
2941.427582333353
 20
1495.184653319978
 30
0.0
 11
2941.427582333353
 21
1480.131357653515
 31
0.0
  0
LINE
  5
2F49
330
FD7
100
AcDbEntity
  8
AM_5
100
AcDbLine
 10
2923.827582340619
 20
1481.331357653514
 30
0.0
 11
2939.027582333352
 21
1481.331357653514
 31
0.0
  0
SOLID
  5
2F4A
330
FD7
100
AcDbEntity
  8
AM_5
100
AcDbTrace
 10
2923.827582340619
 20
1481.731357653515
 30
0.0
 11
2923.827582340619
 21
1480.931357653514
 31
0.0
 12
2921.427582340619
 22
1481.331357653514
 32
0.0
 13
2921.427582340619
 23
1481.331357653514
 33
0.0
  0
SOLID
  5
2F4B
330
FD7
100
AcDbEntity
  8
AM_5
100
AcDbTrace
 10
2939.027582333352
 20
1481.731357653515
 30
0.0
 11
2939.027582333352
 21
1480.931357653514
 31
0.0
 12
2941.427582333353
 22
1481.331357653514
 32
0.0
 13
2941.427582333353
 23
1481.331357653514
 33
0.0
  0
MTEXT
  5
2F4C
330
FD7
100
AcDbEntity
  8
AM_5
100
AcDbMText
 10
2931.427582336985
 20
1483.331593873987
 30
0.0
 40
2.4
 41
0.0
 71
     5
 72
     1
  1
{\Famgdt|c136;o}20
 73
     1
 44
1.0
1001
ACAD
1000
MTEXTBEGIN
1070
    73
1070
     1
1070
    44
1040
1.0
1070
    74
1070
     0
1000
MTEXTEND
  0
POINT
  5
2F4D
330
FD7
100
AcDbEntity
  8
Defpoints
 62
     0
100
AcDbPoint
 10
2921.427582340619
 20
1493.834653316423
 30
0.0
  0
POINT
  5
2F4E
330
FD7
100
AcDbEntity
  8
Defpoints
 62
     0
100
AcDbPoint
 10
2941.427582333353
 20
1495.984653319978
 30
0.0
  0
POINT
  5
2F4F
330
FD7
100
AcDbEntity
  8
Defpoints
 62
     0
100
AcDbPoint
 10
2941.427582333353
 20
1481.331357653514
 30
0.0
  0
ENDBLK
  5
FE2
330
FD7
100
AcDbEntity
  8
0
100
AcDbBlockEnd
  0
BLOCK
  5
1007
330
FFD
100
AcDbEntity
  8
0
100
AcDbBlockBegin
  2
*D12
 70
     1
 10
0.0
 20
0.0
 30
0.0
  3
*D12
  1

  0
LINE
  5
2F3E
330
FFD
100
AcDbEntity
  8
AM_5
100
AcDbLine
 10
2916.927582336908
 20
1493.906624154568
 30
0.0
 11
2916.927582336908
 21
1475.131357653514
 31
0.0
  0
LINE
  5
2F3F
330
FFD
100
AcDbEntity
  8
AM_5
100
AcDbLine
 10
2945.927582333198
 20
1493.906624154569
 30
0.0
 11
2945.927582333198
 21
1475.131357653514
 31
0.0
  0
LINE
  5
2F40
330
FFD
100
AcDbEntity
  8
AM_5
100
AcDbLine
 10
2919.327582336908
 20
1476.331357653515
 30
0.0
 11
2943.527582333198
 21
1476.331357653515
 31
0.0
  0
SOLID
  5
2F41
330
FFD
100
AcDbEntity
  8
AM_5
100
AcDbTrace
 10
2919.327582336908
 20
1476.731357653514
 30
0.0
 11
2919.327582336908
 21
1475.931357653515
 31
0.0
 12
2916.927582336908
 22
1476.331357653515
 32
0.0
 13
2916.927582336908
 23
1476.331357653515
 33
0.0
  0
SOLID
  5
2F42
330
FFD
100
AcDbEntity
  8
AM_5
100
AcDbTrace
 10
2943.527582333198
 20
1476.731357653514
 30
0.0
 11
2943.527582333198
 21
1475.931357653515
 31
0.0
 12
2945.927582333198
 22
1476.331357653515
 32
0.0
 13
2945.927582333198
 23
1476.331357653515
 33
0.0
  0
MTEXT
  5
2F43
330
FFD
100
AcDbEntity
  8
AM_5
100
AcDbMText
 10
2931.427582335053
 20
1478.331593873987
 30
0.0
 40
2.4
 41
0.0
 71
     5
 72
     1
  1
29
 73
     1
 44
1.0
1001
ACAD
1000
MTEXTBEGIN
1070
    73
1070
     1
1070
    44
1040
1.0
1070
    74
1070
     0
1000
MTEXTEND
  0
POINT
  5
2F44
330
FFD
100
AcDbEntity
  8
Defpoints
 62
     0
100
AcDbPoint
 10
2916.927582336908
 20
1494.706624154568
 30
0.0
  0
POINT
  5
2F45
330
FFD
100
AcDbEntity
  8
Defpoints
 62
     0
100
AcDbPoint
 10
2945.927582333198
 20
1494.706624154568
 30
0.0
  0
POINT
  5
2F46
330
FFD
100
AcDbEntity
  8
Defpoints
 62
     0
100
AcDbPoint
 10
2945.927582333198
 20
1476.331357653515
 30
0.0
  0
ENDBLK
  5
1008
330
FFD
100
AcDbEntity
  8
0
100
AcDbBlockEnd
  0
BLOCK
  5
1DB3
330
1DB0
100
AcDbEntity
  8
0
100
AcDbBlockBegin
  2
GENDOT
 70
     0
 10
0.0
 20
0.0
 30
0.0
  3
GENDOT
  1

  0
LINE
  5
1DB1
330
1DB0
100
AcDbEntity
  8
0
100
AcDbLine
 10
0.0
 20
0.0
 30
0.0
 11
-1.0
 21
0.0
 31
0.0
  0
LWPOLYLINE
  5
1DB2
330
1DB0
100
AcDbEntity
  8
0
100
AcDbPolyline
 90
        2
 70
     1
 43
0.25
 10
-0.125
 20
0.0
 42
1.0
 10
0.125
 20
0.0
 42
1.0
  0
ENDBLK
  5
1DB4
330
1DB0
100
AcDbEntity
  8
0
100
AcDbBlockEnd
  0
BLOCK
  5
1F3A
330
1F30
100
AcDbEntity
  8
0
100
AcDbBlockBegin
  2
*D14
 70
     1
 10
0.0
 20
0.0
 30
0.0
  3
*D14
  1

  0
LINE
  5
2E3F
330
1F30
100
AcDbEntity
  8
AM_5
100
AcDbLine
 10
2945.505611495053
 20
1574.042594426336
 30
0.0
 11
2960.127582336908
 21
1574.042594426336
 31
0.0
  0
LINE
  5
2E40
330
1F30
100
AcDbEntity
  8
AM_5
100
AcDbLine
 10
2947.727582336908
 20
1568.042594426336
 30
0.0
 11
2960.127582336908
 21
1568.042594426336
 31
0.0
  0
LINE
  5
2E41
330
1F30
100
AcDbEntity
  8
AM_5
100
AcDbLine
 10
2958.927582336908
 20
1576.442594426336
 30
0.0
 11
2958.927582336908
 21
1578.842594426336
 31
0.0
  0
LINE
  5
2E42
330
1F30
100
AcDbEntity
  8
AM_5
100
AcDbLine
 10
2958.927582336908
 20
1565.642594426336
 30
0.0
 11
2958.927582336908
 21
1563.242594426336
 31
0.0
  0
LINE
  5
2E43
330
1F30
100
AcDbEntity
  8
AM_5
100
AcDbLine
 10
2958.927582336908
 20
1574.042594426336
 30
0.0
 11
2958.927582336908
 21
1568.042594426336
 31
0.0
  0
SOLID
  5
2E44
330
1F30
100
AcDbEntity
  8
AM_5
100
AcDbTrace
 10
2958.527582336908
 20
1576.442594426336
 30
0.0
 11
2959.327582336909
 21
1576.442594426336
 31
0.0
 12
2958.927582336908
 22
1574.042594426336
 32
0.0
 13
2958.927582336908
 23
1574.042594426336
 33
0.0
  0
INSERT
  5
2E45
330
1F30
100
AcDbEntity
  8
AM_5
100
AcDbBlockReference
  2
GENDOT
 10
2958.927582336908
 20
1568.042594426336
 30
0.0
 41
2.4
 42
2.4
 43
2.4
 50
90.0
  0
MTEXT
  5
2E46
330
1F30
100
AcDbEntity
  8
AM_5
100
AcDbMText
 10
2956.927582336908
 20
1571.042594426336
 30
0.0
 40
2.4
 41
0.0
 71
     5
 72
     1
  1
6
 11
0.0000000000000001
 21
1.0
 31
0.0
 73
     1
 44
1.0
1001
ACAD
1000
MTEXTBEGIN
1070
    73
1070
     1
1070
    44
1040
1.0
1070
    74
1070
     0
1000
MTEXTEND
  0
POINT
  5
2E47
330
1F30
100
AcDbEntity
  8
Defpoints
 62
     0
100
AcDbPoint
 10
2944.705611495053
 20
1574.042594426336
 30
0.0
  0
POINT
  5
2E48
330
1F30
100
AcDbEntity
  8
Defpoints
 62
     0
100
AcDbPoint
 10
2946.927582336908
 20
1568.042594426336
 30
0.0
  0
POINT
  5
2E49
330
1F30
100
AcDbEntity
  8
Defpoints
 62
     0
100
AcDbPoint
 10
2958.927582336908
 20
1568.042594426336
 30
0.0
  0
ENDBLK
  5
1F3B
330
1F30
100
AcDbEntity
  8
0
100
AcDbBlockEnd
  0
BLOCK
  5
1FB5
330
1FA9
100
AcDbEntity
  8
0
100
AcDbBlockBegin
  2
*D15
 70
     1
 10
0.0
 20
0.0
 30
0.0
  3
*D15
  1

  0
LINE
  5
2E34
330
1FA9
100
AcDbEntity
  8
AM_5
100
AcDbLine
 10
2944.505611495053
 20
1563.042594426336
 30
0.0
 11
2960.127582336908
 21
1563.042594426336
 31
0.0
  0
LINE
  5
2E35
330
1FA9
100
AcDbEntity
  8
AM_5
100
AcDbLine
 10
2947.727582336908
 20
1568.042594426336
 30
0.0
 11
2960.127582336908
 21
1568.042594426336
 31
0.0
  0
LINE
  5
2E36
330
1FA9
100
AcDbEntity
  8
AM_5
100
AcDbLine
 10
2958.927582336908
 20
1560.642594426336
 30
0.0
 11
2958.927582336908
 21
1558.242594426336
 31
0.0
  0
LINE
  5
2E37
330
1FA9
100
AcDbEntity
  8
AM_5
100
AcDbLine
 10
2958.927582336908
 20
1570.442594426336
 30
0.0
 11
2958.927582336908
 21
1572.842594426336
 31
0.0
  0
LINE
  5
2E38
330
1FA9
100
AcDbEntity
  8
AM_5
100
AcDbLine
 10
2958.927582336908
 20
1563.042594426336
 30
0.0
 11
2958.927582336908
 21
1568.042594426336
 31
0.0
  0
SOLID
  5
2E39
330
1FA9
100
AcDbEntity
  8
AM_5
100
AcDbTrace
 10
2958.527582336908
 20
1560.642594426336
 30
0.0
 11
2959.327582336909
 21
1560.642594426336
 31
0.0
 12
2958.927582336908
 22
1563.042594426336
 32
0.0
 13
2958.927582336908
 23
1563.042594426336
 33
0.0
  0
INSERT
  5
2E3A
330
1FA9
100
AcDbEntity
  8
AM_5
100
AcDbBlockReference
  2
GENDOT
 10
2958.927582336908
 20
1568.042594426336
 30
0.0
 41
2.4
 42
2.4
 43
2.4
 50
270.0
  0
MTEXT
  5
2E3B
330
1FA9
100
AcDbEntity
  8
AM_5
100
AcDbMText
 10
2956.927582336908
 20
1565.542594426336
 30
0.0
 40
2.4
 41
0.0
 71
     5
 72
     1
  1
5
 11
0.0000000000000001
 21
1.0
 31
0.0
 73
     1
 44
1.0
1001
ACAD
1000
MTEXTBEGIN
1070
    73
1070
     1
1070
    44
1040
1.0
1070
    74
1070
     0
1000
MTEXTEND
  0
POINT
  5
2E3C
330
1FA9
100
AcDbEntity
  8
Defpoints
 62
     0
100
AcDbPoint
 10
2943.705611495053
 20
1563.042594426336
 30
0.0
  0
POINT
  5
2E3D
330
1FA9
100
AcDbEntity
  8
Defpoints
 62
     0
100
AcDbPoint
 10
2946.927582336908
 20
1568.042594426336
 30
0.0
  0
POINT
  5
2E3E
330
1FA9
100
AcDbEntity
  8
Defpoints
 62
     0
100
AcDbPoint
 10
2958.927582336908
 20
1568.042594426336
 30
0.0
  0
ENDBLK
  5
1FB6
330
1FA9
100
AcDbEntity
  8
0
100
AcDbBlockEnd
  0
BLOCK
  5
3012
330
300D
100
AcDbEntity
  8
0
100
AcDbBlockBegin
  2
*S17
 70
     1
 10
0.0
 20
0.0
 30
0.0
  3
*S17
  1

  0
LINE
  5
300E
330
300D
100
AcDbEntity
  8
AM_5
 62
     5
100
AcDbLine
 10
2985.547290660113
 20
1483.978870926283
 30
0.0
 11
2953.834366063059
 21
1483.978870926283
 31
0.0
  0
LINE
  5
300F
330
300D
100
AcDbEntity
  8
AM_5
 62
     5
100
AcDbLine
 10
2953.834366063059
 20
1483.978870926283
 30
0.0
 11
2945.164460830703
 21
1493.159803905752
 31
0.0
  0
TRACE
  5
3010
330
300D
100
AcDbEntity
  8
AM_5
 62
     5
370
    35
100
AcDbTrace
 10
2945.432471722833
 20
1493.412896814851
 30
0.0
 11
2944.896449938573
 21
1492.906710996655
 31
0.0
 12
2943.242029316943
 22
1495.195548750988
 32
0.0
 13
2943.242029316943
 23
1495.195548750988
 33
0.0
  0
MTEXT
  5
3011
330
300D
100
AcDbEntity
  8
AM_5
 62
     5
100
AcDbMText
 10
2954.645808337332
 20
1484.524605779834
 30
0.0
 40
2.8
 41
0.0
 71
     7
 72
     5
  1
4-M4x0.7x10 detph
  7
ACISOTS
 73
     1
 44
1.0
1001
ACAD
1000
MTEXTBEGIN
1070
    73
1070
     1
1070
    44
1040
1.0
1070
    74
1070
     0
1000
MTEXTEND
  0
ENDBLK
  5
3013
330
300D
100
AcDbEntity
  8
0
100
AcDbBlockEnd
  0
BLOCK
  5
301A
330
3015
100
AcDbEntity
  8
0
100
AcDbBlockBegin
  2
*S18
 70
     1
 10
0.0
 20
0.0
 30
0.0
  3
*S18
  1

  0
LINE
  5
3016
330
3015
100
AcDbEntity
  8
AM_5
 62
     5
100
AcDbLine
 10
2962.630853193909
 20
1525.628291294282
 30
0.0
 11
2947.112490771425
 21
1525.628291294282
 31
0.0
  0
LINE
  5
3017
330
3015
100
AcDbEntity
  8
AM_5
 62
     5
100
AcDbLine
 10
2947.112490771425
 20
1525.628291294282
 30
0.0
 11
2935.184474285021
 21
1538.154668679672
 31
0.0
  0
TRACE
  5
3018
330
3015
100
AcDbEntity
  8
AM_5
 62
     5
370
    35
100
AcDbTrace
 10
2935.451430939123
 20
1538.408873329054
 30
0.0
 11
2934.91751763092
 21
1537.900464030291
 31
0.0
 12
2933.253598265393
 22
1540.182405792028
 32
0.0
 13
2933.253598265393
 23
1540.182405792028
 33
0.0
  0
MTEXT
  5
3019
330
3015
100
AcDbEntity
  8
AM_5
 62
     5
100
AcDbMText
 10
2948.279750831705
 20
1526.627472804678
 30
0.0
 40
2.8
 41
0.0
 71
     7
 72
     5
  1
2-M5x0.8
  7
ACISOTS
 73
     1
 44
1.0
1001
ACAD
1000
MTEXTBEGIN
1070
    73
1070
     1
1070
    44
1040
1.0
1070
    74
1070
     0
1000
MTEXTEND
  0
ENDBLK
  5
301B
330
3015
100
AcDbEntity
  8
0
100
AcDbBlockEnd
  0
BLOCK
  5
3022
330
301D
100
AcDbEntity
  8
0
100
AcDbBlockBegin
  2
*S19
 70
     1
 10
0.0
 20
0.0
 30
0.0
  3
*S19
  1

  0
LINE
  5
301E
330
301D
100
AcDbEntity
  8
AM_5
 62
     5
100
AcDbLine
 10
2976.890762235618
 20
1588.882433820058
 30
0.0
 11
2950.150762235617
 21
1588.882433820058
 31
0.0
  0
LINE
  5
301F
330
301D
100
AcDbEntity
  8
AM_5
 62
     5
100
AcDbLine
 10
2950.150762235617
 20
1588.882433820058
 30
0.0
 11
2935.372096380361
 21
1599.991094422353
 31
0.0
  0
TRACE
  5
3020
330
301D
100
AcDbEntity
  8
AM_5
 62
     5
370
    35
100
AcDbTrace
 10
2935.593587143266
 20
1600.285759827319
 30
0.0
 11
2935.150605617455
 21
1599.696429017387
 31
0.0
 12
2933.133890408727
 22
1601.673483803128
 32
0.0
 13
2933.133890408727
 23
1601.673483803128
 33
0.0
  0
MTEXT
  5
3021
330
301D
100
AcDbEntity
  8
AM_5
 62
     5
100
AcDbMText
 10
2953.650762235618
 20
1590.632433820058
 30
0.0
 40
2.8
 41
0.0
 71
     7
 72
     5
  1
4-M4x0.7 thru
  7
ACISOTS
 73
     1
 44
1.0
1001
ACAD
1000
MTEXTBEGIN
1070
    73
1070
     1
1070
    44
1040
1.0
1070
    74
1070
     0
1000
MTEXTEND
  0
ENDBLK
  5
3023
330
301D
100
AcDbEntity
  8
0
100
AcDbBlockEnd
  0
ENDSEC
  0
SECTION
  2
ENTITIES
  0
DIMENSION
  5
E65
330
1F
100
AcDbEntity
  8
AM_5
100
AcDbDimension
  2
*D5
 10
2941.427582336908
 20
1587.817854064613
 30
0.0
 11
2931.427582336908
 21
1589.818090285086
 31
0.0
 70
    32
 71
     5
 42
20.0
  3
AM_ISO$0
100
AcDbAlignedDimension
 13
2921.427582336908
 23
1609.877900754274
 33
0.0
 14
2941.427582336908
 24
1609.877900754274
 34
0.0
100
AcDbRotatedDimension
1001
ACAD
1000
DSTYLE
1002
{
1070
    40
1040
0.8
1002
}
  0
DIMENSION
  5
E9D
330
1F
100
AcDbEntity
  8
AM_5
100
AcDbDimension
  2
*D6
 10
2946.927582336908
 20
1582.817854064613
 30
0.0
 11
2931.427582336908
 21
1584.817854064613
 31
0.0
 70
    32
 71
     5
 42
31.0
  3
AM_ISO$0
100
AcDbAlignedDimension
 13
2915.927582336908
 23
1600.27479186295
 33
0.0
 14
2946.927582336908
 24
1600.27479186295
 34
0.0
100
AcDbRotatedDimension
1001
ACAD
1000
DSTYLE
1002
{
1070
    40
1040
0.8
1002
}
  0
DIMENSION
  5
EC3
330
1F
100
AcDbEntity
  8
AM_5
100
AcDbDimension
  2
*D7
 10
2957.095507154123
 20
1622.77479186295
 30
0.0
 11
2955.095270933651
 21
1612.77479186295
 31
0.0
 70
    32
 71
     5
 42
20.0
  3
AM_ISO$0
100
AcDbAlignedDimension
 13
2934.324473445583
 23
1602.77479186295
 33
0.0
 14
2934.324473445583
 24
1622.77479186295
 34
0.0
 50
90.0
100
AcDbRotatedDimension
1001
ACAD
1000
DSTYLE
1002
{
1070
    40
1040
0.8
1002
}
  0
DIMENSION
  5
EE9
330
1F
100
AcDbEntity
  8
AM_5
100
AcDbDimension
  2
*D8
 10
2962.095507154123
 20
1628.27479186295
 30
0.0
 11
2960.095507154123
 21
1612.77479186295
 31
0.0
 70
    32
 71
     5
 42
31.0
  3
AM_ISO$0
100
AcDbAlignedDimension
 13
2943.927582336908
 23
1597.27479186295
 33
0.0
 14
2943.927582336908
 24
1628.27479186295
 34
0.0
 50
90.0
100
AcDbRotatedDimension
1001
ACAD
1000
DSTYLE
1002
{
1070
    40
1040
0.8
1002
}
  0
DIMENSION
  5
F0F
330
1F
100
AcDbEntity
  8
AM_5
100
AcDbDimension
  2
*D9
 10
2958.927582336908
 20
1563.042594426336
 30
0.0
 11
2956.927346116435
 21
1548.792594426337
 31
0.0
 70
    32
  1
<>+stroke
 71
     5
 42
28.5
  3
AM_ISO$0
100
AcDbAlignedDimension
 13
2943.705611495053
 23
1534.542594426336
 33
0.0
 14
2943.705611495053
 24
1563.042594426336
 34
0.0
 50
90.0
100
AcDbRotatedDimension
1001
ACAD
1000
DSTYLE
1002
{
1070
    40
1040
0.8
1002
}
  0
DIMENSION
  5
F85
330
1F
100
AcDbEntity
  8
AM_5
100
AcDbDimension
  2
*D10
 10
2963.927582336908
 20
1574.042594426336
 30
0.0
 11
2961.927582336908
 21
1554.292594426337
 31
0.0
 70
    32
  1
<>+stroke
 71
     5
 42
39.5
  3
AM_ISO$0
100
AcDbAlignedDimension
 13
2943.705611495053
 23
1534.542594426336
 33
0.0
 14
2944.705611495053
 24
1574.042594426336
 34
0.0
 50
90.0
100
AcDbRotatedDimension
1001
ACAD
1000
DSTYLE
1002
{
1070
    40
1040
0.8
1002
}
  0
DIMENSION
  5
FD6
330
1F
100
AcDbEntity
  8
AM_5
100
AcDbDimension
  2
*D11
 10
2941.427582333353
 20
1481.331357653514
 30
0.0
 11
2931.427582336985
 21
1483.331593873987
 31
0.0
 70
    32
  1
{\Famgdt;o}<>
 71
     5
 42
19.99999999273359
  3
AM_ISO$0
100
AcDbAlignedDimension
 13
2921.427582340619
 23
1493.834653316423
 33
0.0
 14
2941.427582333353
 24
1495.984653319978
 34
0.0
100
AcDbRotatedDimension
1001
ACAD
1000
DSTYLE
1002
{
1070
    40
1040
0.8
1002
}
  0
DIMENSION
  5
FFC
330
1F
100
AcDbEntity
  8
AM_5
100
AcDbDimension
  2
*D12
 10
2945.927582333198
 20
1476.331357653515
 30
0.0
 11
2931.427582335053
 21
1478.331593873987
 31
0.0
 70
    32
 71
     5
 42
28.99999999629017
  3
AM_ISO$0
100
AcDbAlignedDimension
 13
2916.927582336908
 23
1494.706624154568
 33
0.0
 14
2945.927582333198
 24
1494.706624154568
 34
0.0
100
AcDbRotatedDimension
1001
ACAD
1000
DSTYLE
1002
{
1070
    40
1040
0.8
1002
}
  0
INSERT
  5
1266
330
1F
100
AcDbEntity
  8
AM_5
100
AcDbBlockReference
  2
*S17
 10
0.0
 20
0.0
 30
0.0
  0
INSERT
  5
14F5
330
1F
100
AcDbEntity
  8
AM_5
100
AcDbBlockReference
  2
*S18
 10
0.0
 20
0.0
 30
0.0
  0
INSERT
  5
1509
330
1F
100
AcDbEntity
  8
AM_5
100
AcDbBlockReference
  2
*S19
 10
0.0
 20
0.0
 30
0.0
  0
LINE
  5
15A2
330
1F
100
AcDbEntity
  8
LOGO
 62
     4
100
AcDbLine
 10
3032.909916278605
 20
1459.513293504841
 30
0.0
 11
2878.118916278605
 21
1459.513293504841
 31
0.0
  0
LWPOLYLINE
  5
15A3
330
1F
100
AcDbEntity
  8
LOGO
 62
     4
100
AcDbPolyline
 90
        4
 70
     1
 43
0.0
 10
2878.118916278605
 20
1459.513293504841
 10
3032.909916278605
 20
1459.513293504841
 10
3032.909916278605
 20
1643.053434822487
 10
2878.118916278605
 20
1643.053434822487
1001
GENIUS_GENREC_14
1002
{
1000
PYDIR
1011
2878.118916278605
1021
1643.053434822487
1031
0.0
1002
}
1002
{
1000
PXDIR
1011
3032.909916278605
1021
1459.513293504841
1031
0.0
1002
}
1002
{
1000
PORI
1011
2878.118916278605
1021
1459.513293504841
1031
0.0
1002
}
1002
{
1000
PINS
1011
2878.118916278605
1021
1459.513293504841
1031
0.0
1002
}
1002
{
1000
PINS2
1011
3032.909916278605
1021
1643.053434822487
1031
0.0
1002
}
1002
{
1000
C
1070
     1
1002
}
1001
GENIUS_GENODEF_13
1002
{
1000
HIER
1070
     0
1002
}
1002
{
1000
MANEDIT
1070
     0
1002
}
1002
{
1000
NOSEL
1070
     0
1002
}
1002
{
1000
BEHIND
1070
     0
1002
}
1002
{
1000
OTHER
1070
     0
1002
}
1002
{
1000
REACTOR
1002
}
1001
GENIUS_GENOBJ-N-REC_13
1002
{
1000
OWNER
1000
GEN
1002
}
  0
LWPOLYLINE
  5
15A4
330
1F
100
AcDbEntity
  8
LOGO
 62
     4
100
AcDbPolyline
 90
        4
 70
     1
 43
0.0
 10
2878.118916278605
 20
1459.513293504841
 10
3032.909916278605
 20
1459.513293504841
 10
3032.909916278605
 20
1444.036434822488
 10
2878.118916278605
 20
1444.036434822488
1001
GENIUS_GENREC_14
1002
{
1000
PYDIR
1011
2878.118916278605
1021
1444.036434822488
1031
0.0
1002
}
1002
{
1000
PXDIR
1011
3032.909916278605
1021
1459.513293504841
1031
0.0
1002
}
1002
{
1000
PORI
1011
2878.118916278605
1021
1459.513293504841
1031
0.0
1002
}
1002
{
1000
PINS
1011
2878.118916278605
1021
1459.513293504841
1031
0.0
1002
}
1002
{
1000
PINS2
1011
3032.909916278605
1021
1444.036434822488
1031
0.0
1002
}
1002
{
1000
C
1070
     1
1002
}
1001
GENIUS_GENOBJ-N-REC_13
1002
{
1000
OWNER
1000
GEN
1002
}
1001
GENIUS_GENODEF_13
1002
{
1000
HIER
1070
     0
1002
}
1002
{
1000
MANEDIT
1070
     0
1002
}
1002
{
1000
NOSEL
1070
     0
1002
}
1002
{
1000
BEHIND
1070
     0
1002
}
1002
{
1000
OTHER
1070
     0
1002
}
1002
{
1000
REACTOR
1002
}
  0
TEXT
  5
15A5
330
1F
100
AcDbEntity
  8
LOGO
 62
     7
100
AcDbText
 10
2913.064638392044
 20
1452.733145077356
 30
0.0
 40
2.063581157647058
  1
Order example:
 41
0.8
  7
CHINESET
100
AcDbText
  0
TEXT
  5
15A6
330
1F
100
AcDbEntity
  8
LOGO
 62
     7
100
AcDbText
 10
2913.434861916848
 20
1455.638240077393
 30
0.0
 40
3.095371736470587
  1
訂購代號：
  7
CHINESET
100
AcDbText
  0
LINE
  5
15A7
330
1F
100
AcDbEntity
  8
LOGO
 62
     4
100
AcDbLine
 10
2912.168005379781
 20
1444.036434822488
 30
0.0
 11
2912.168005379781
 21
1459.513293504841
 31
0.0
  0
TEXT
  5
15A8
330
1F
100
AcDbEntity
  8
LOGO
  6
Continuous
100
AcDbText
 10
2883.678273487132
 20
1447.07684035402
 30
0.0
 40
2.321528802352941
  1
金器工業股份有限公司
  7
CHINESET
100
AcDbText
  0
TEXT
  5
15A9
330
1F
100
AcDbEntity
  8
LOGO
  6
Continuous
100
AcDbText
 10
2879.414084369033
 20
1444.754856714036
 30
0.0
 40
1.547685868235293
  1
MINDMAN INDUSTRIAL CO., LTD.
 41
0.85
  7
CHINESET
100
AcDbText
  0
LINE
  5
15AA
330
1F
100
AcDbEntity
  8
LOGO
 62
     4
100
AcDbLine
 10
2912.168005379781
 20
1456.41792176837
 30
0.0
 11
2889.468612645663
 21
1456.41792176837
 31
0.0
  0
LINE
  5
15AB
330
1F
100
AcDbEntity
  8
LOGO
 62
     4
100
AcDbLine
 10
2912.168005379781
 20
1453.3225500319
 30
0.0
 11
2889.468612645663
 21
1453.3225500319
 31
0.0
  0
LINE
  5
15AC
330
1F
100
AcDbEntity
  8
LOGO
 62
     4
100
AcDbLine
 10
2912.168005379781
 20
1450.227178295429
 30
0.0
 11
2878.118916278605
 21
1450.227178295429
 31
0.0
  0
LINE
  5
15AD
330
1F
100
AcDbEntity
  8
LOGO
 62
     4
100
AcDbLine
 10
2889.468612645663
 20
1450.227178295429
 30
0.0
 11
2889.468612645663
 21
1459.513293504841
 31
0.0
  0
TEXT
  5
15AE
330
1F
100
AcDbEntity
  8
LOGO
100
AcDbText
 10
2904.982576184416
 20
1451.001021229546
 30
0.0
 40
1.547685868235293
  1
mm
  7
CHINESET
 72
     1
 11
2906.898758687945
 21
1451.774864163664
 31
0.0
100
AcDbText
 73
     2
  0
TEXT
  5
15AF
330
1F
100
AcDbEntity
  8
LOGO
100
AcDbText
 10
2904.171883586768
 20
1457.191764702488
 30
0.0
 40
1.547685868235293
  1
1 : 1
  7
CHINESET
 72
     1
 11
2906.898758687945
 21
1457.965607636605
 31
0.0
100
AcDbText
 73
     2
  0
LINE
  5
15B0
330
1F
100
AcDbEntity
  8
LOGO
 62
     4
100
AcDbLine
 10
2901.850099591547
 20
1450.227178295429
 30
0.0
 11
2901.850099591547
 21
1459.513293504841
 31
0.0
  0
CIRCLE
  5
15B1
330
1F
100
AcDbEntity
  8
LOGO
  6
Continuous
100
AcDbCircle
 10
2904.715833558072
 20
1454.873546411533
 30
0.0
 40
0.8986228435163043
  0
CIRCLE
  5
15B2
330
1F
100
AcDbEntity
  8
LOGO
  6
Continuous
100
AcDbCircle
 10
2904.715833558072
 20
1454.873546411533
 30
0.0
 40
0.5265134357210823
  0
LINE
  5
15B3
330
1F
100
AcDbEntity
  8
LOGO
100
AcDbLine
 10
2910.362883778514
 20
1453.974923568016
 30
0.0
 11
2910.362883778514
 21
1455.772169255049
 31
0.0
  0
LINE
  5
15B4
330
1F
100
AcDbEntity
  8
LOGO
100
AcDbLine
 10
2907.545752747502
 20
1454.347032975811
 30
0.0
 11
2907.545752747502
 21
1455.400059847254
 31
0.0
  0
LINE
  5
15B5
330
1F
100
AcDbEntity
  8
LOGO
  6
Continuous
100
AcDbLine
 10
2907.545752747502
 20
1455.400059847254
 30
0.0
 11
2910.362883778514
 21
1455.772169255049
 31
0.0
  0
LINE
  5
15B6
330
1F
100
AcDbEntity
  8
LOGO
  6
Continuous
100
AcDbLine
 10
2907.545752747502
 20
1454.347032975811
 30
0.0
 11
2910.362883778514
 21
1453.974923568016
 31
0.0
  0
TEXT
  5
15B7
330
1F
100
AcDbEntity
  8
LOGO
100
AcDbText
 10
2890.744762555767
 20
1457.192526358919
 30
101.4327821406193
 40
1.547685868235293
  1
比例 Scale:
 41
0.9
  7
CHINESET
 72
     4
 11
2895.659356118605
 21
1457.965607636605
 31
101.4327821406193
100
AcDbText
  0
TEXT
  5
15B8
330
1F
100
AcDbEntity
  8
LOGO
100
AcDbText
 10
2890.655632432105
 20
1454.118163645676
 30
101.4327821406193
 40
1.547685868235293
  1
投影  View:
 41
0.9
  7
CHINESET
 72
     4
 11
2895.659356118605
 21
1454.870235900135
 31
101.4327821406193
100
AcDbText
  0
TEXT
  5
15B9
330
1F
100
AcDbEntity
  8
LOGO
100
AcDbText
 10
2890.806946362972
 20
1451.001021229546
 30
101.4327821406193
 40
1.547685868235293
  1
單位  Unit:
 41
0.9
  7
CHINESET
 72
     4
 11
2895.659356118605
 21
1451.774864163664
 31
101.4327821406193
100
AcDbText
  0
SOLID
  5
15BA
330
1F
100
AcDbEntity
  8
LOGO
 62
     5
100
AcDbTrace
 10
2879.724665205367
 20
1452.799985755634
 30
0.0
 11
2880.393843963516
 21
1452.799985755634
 31
0.0
 12
2883.185934644063
 22
1459.145646393242
 32
0.0
 13
2883.855113402211
 23
1459.145646393242
 33
0.0
  0
SOLID
  5
15BB
330
1F
100
AcDbEntity
  8
LOGO
 62
     5
100
AcDbTrace
 10
2880.670745518612
 20
1452.799985755634
 30
0.0
 11
2881.33992427676
 21
1452.799985755634
 31
0.0
 12
2883.855113402211
 22
1458.637993542233
 32
0.0
 13
2883.185934644063
 23
1456.184338095691
 33
0.0
  0
SOLID
  5
15BC
330
1F
100
AcDbEntity
  8
LOGO
 62
     2
100
AcDbTrace
 10
2880.393843963516
 20
1452.799985755634
 30
0.0
 11
2880.670745518612
 21
1452.799985755634
 31
0.0
 12
2883.855113402211
 22
1459.145646393242
 32
0.0
 13
2884.132014957307
 23
1459.145646393242
 33
0.0
  0
SOLID
  5
15BD
330
1F
100
AcDbEntity
  8
LOGO
 62
     5
100
AcDbTrace
 10
2878.651807553324
 20
1450.492472796504
 30
0.0
 11
2878.882558849237
 21
1450.492472796504
 31
0.0
 12
2879.532372458774
 22
1451.646229276069
 32
0.0
 13
2879.763123754687
 23
1451.646229276069
 33
0.0
  0
SOLID
  5
15BE
330
1F
100
AcDbEntity
  8
LOGO
 62
     5
100
AcDbTrace
 10
2879.532372458774
 20
1451.646229276069
 30
0.0
 11
2879.763123754687
 21
1451.646229276069
 31
0.0
 12
2879.532372458774
 22
1450.492472796504
 32
0.0
 13
2879.763123754687
 23
1450.492472796504
 33
0.0
  0
SOLID
  5
15BF
330
1F
100
AcDbEntity
  8
LOGO
 62
     5
100
AcDbTrace
 10
2879.532372458774
 20
1450.492472796504
 30
0.0
 11
2879.763123754687
 21
1450.492472796504
 31
0.0
 12
2880.412937364224
 22
1451.646229276069
 32
0.0
 13
2880.643688660137
 23
1451.646229276069
 33
0.0
  0
SOLID
  5
15C0
330
1F
100
AcDbEntity
  8
LOGO
 62
     5
100
AcDbTrace
 10
2880.412937364224
 20
1451.646229276069
 30
0.0
 11
2880.643688660137
 21
1451.646229276069
 31
0.0
 12
2880.412937364224
 22
1450.492472796504
 32
0.0
 13
2880.643688660137
 23
1450.492472796504
 33
0.0
  0
POLYLINE
  5
15C1
330
1F
100
AcDbEntity
  8
LOGO
 62
     5
100
AcDb2dPolyline
 66
     1
 10
0.0
 20
0.0
 30
0.0
 40
0.2311210896564705
 41
0.2311210896564705
  0
VERTEX
  5
15C2
330
15C1
100
AcDbEntity
  8
LOGO
 62
     5
100
AcDbVertex
100
AcDb2dVertex
 10
2888.147642196808
 20
1451.184726684243
 30
0.0
 42
1.0
  0
VERTEX
  5
15C3
330
15C1
100
AcDbEntity
  8
LOGO
 62
     5
100
AcDbVertex
100
AcDb2dVertex
 10
2887.454278927839
 20
1451.184726684243
 30
0.0
 42
1.0
  0
SEQEND
  5
15C4
330
15C1
100
AcDbEntity
  8
LOGO
 62
     5
  0
POLYLINE
  5
15C5
330
1F
100
AcDbEntity
  8
LOGO
 62
     5
100
AcDb2dPolyline
 66
     1
 10
0.0
 20
0.0
 30
0.0
 70
     1
  0
VERTEX
  5
15C6
330
15C5
100
AcDbEntity
  8
LOGO
 62
     5
100
AcDbVertex
100
AcDb2dVertex
 10
2886.147258325033
 20
1451.069351036286
 30
0.0
 42
1.000000057330635
  0
VERTEX
  5
15C7
330
15C5
100
AcDbEntity
  8
LOGO
 62
     5
100
AcDbVertex
100
AcDb2dVertex
 10
2886.839512212772
 20
1451.069351036286
 30
0.0
 42
1.000000057330635
  0
SEQEND
  5
15C8
330
15C5
100
AcDbEntity
  8
LOGO
 62
     5
  0
CIRCLE
  5
15C9
330
1F
100
AcDbEntity
  8
LOGO
 62
     5
100
AcDbCircle
 10
2886.493385268903
 20
1451.069351036286
 30
0.0
 40
0.3461269438695304
  0
POLYLINE
  5
15CA
330
1F
100
AcDbEntity
  8
LOGO
 62
     5
100
AcDb2dPolyline
 66
     1
 10
0.0
 20
0.0
 30
0.0
 70
     1
 40
0.2311210896564705
 41
0.2311210896564705
  0
VERTEX
  5
15CB
330
15CA
100
AcDbEntity
  8
LOGO
 62
     5
100
AcDbVertex
100
AcDb2dVertex
 10
2886.03114308959
 20
1451.069351036286
 30
0.0
 42
1.0
  0
VERTEX
  5
15CC
330
15CA
100
AcDbEntity
  8
LOGO
 62
     5
100
AcDbVertex
100
AcDb2dVertex
 10
2886.955627448216
 20
1451.069351036286
 30
0.0
 42
1.0
  0
SEQEND
  5
15CD
330
15CA
100
AcDbEntity
  8
LOGO
 62
     5
  0
LINE
  5
15CE
330
1F
100
AcDbEntity
  8
LOGO
100
AcDbLine
 10
2888.262463154149
 20
1450.492472796504
 30
0.0
 11
2888.262463154149
 21
1451.184726684243
 31
0.0
  0
SOLID
  5
15CF
330
1F
100
AcDbEntity
  8
LOGO
 62
     5
100
AcDbTrace
 10
2886.839489137643
 20
1451.646229276069
 30
0.0
 11
2887.070240433556
 21
1451.646229276069
 31
0.0
 12
2886.839489137643
 22
1450.492472796504
 32
0.0
 13
2887.070240433556
 23
1450.492472796504
 33
0.0
  0
SOLID
  5
15D0
330
1F
100
AcDbEntity
  8
LOGO
 62
     5
100
AcDbTrace
 10
2887.339457970498
 20
1450.492472796504
 30
0.0
 11
2887.57020926641
 21
1450.492472796504
 31
0.0
 12
2887.339457970498
 22
1451.646229276069
 32
0.0
 13
2887.57020926641
 23
1451.646229276069
 33
0.0
  0
SOLID
  5
15D1
330
1F
100
AcDbEntity
  8
LOGO
 62
     5
100
AcDbTrace
 10
2888.031711858237
 20
1451.184726684243
 30
0.0
 11
2888.262463154149
 21
1451.184726684243
 31
0.0
 12
2888.031711858237
 22
1450.492472796504
 32
0.0
 13
2888.262463154149
 23
1450.492472796504
 33
0.0
  0
SOLID
  5
15D2
330
1F
100
AcDbEntity
  8
LOGO
 62
     5
100
AcDbTrace
 10
2887.316382840906
 20
1458.637993542233
 30
0.0
 11
2886.647204082759
 21
1456.184338095691
 31
0.0
 12
2887.316382840906
 22
1452.799985755634
 32
0.0
 13
2886.647204082759
 23
1452.799985755634
 33
0.0
  0
SOLID
  5
15D3
330
1F
100
AcDbEntity
  8
LOGO
 62
     5
100
AcDbTrace
 10
2887.593284396002
 20
1452.799985755634
 30
0.0
 11
2888.262463154149
 21
1452.799985755634
 31
0.0
 12
2887.593284396002
 22
1459.145646393242
 32
0.0
 13
2888.262463154149
 23
1459.145646393242
 33
0.0
  0
SOLID
  5
15D4
330
1F
100
AcDbEntity
  8
LOGO
 62
     2
100
AcDbTrace
 10
2887.316382840906
 20
1459.145646393242
 30
0.0
 11
2887.593284396002
 21
1459.145646393242
 31
0.0
 12
2887.316382840906
 22
1452.799985755634
 32
0.0
 13
2887.593284396002
 23
1452.799985755634
 33
0.0
  0
POLYLINE
  5
15D5
330
1F
100
AcDbEntity
  8
LOGO
 62
     5
100
AcDb2dPolyline
 66
     1
 10
0.0
 20
0.0
 30
0.0
 40
0.2311210896564705
 41
0.2311210896564705
  0
VERTEX
  5
15D6
330
15D5
100
AcDbEntity
  8
LOGO
 62
     5
100
AcDbVertex
100
AcDb2dVertex
 10
2884.840191571969
 20
1451.184726684243
 30
0.0
 42
1.0
  0
VERTEX
  5
15D7
330
15D5
100
AcDbEntity
  8
LOGO
 62
     5
100
AcDbVertex
100
AcDb2dVertex
 10
2884.146828303
 20
1451.184726684243
 30
0.0
 42
1.0
  0
SEQEND
  5
15D8
330
15D5
100
AcDbEntity
  8
LOGO
 62
     5
  0
POLYLINE
  5
15D9
330
1F
100
AcDbEntity
  8
LOGO
 62
     5
100
AcDb2dPolyline
 66
     1
 10
0.0
 20
0.0
 30
0.0
 40
0.2311210896564705
 41
0.2311210896564705
  0
VERTEX
  5
15DA
330
15D9
100
AcDbEntity
  8
LOGO
 62
     5
100
AcDbVertex
100
AcDb2dVertex
 10
2885.532445459708
 20
1451.184726684243
 30
0.0
 42
1.0
  0
VERTEX
  5
15DB
330
15D9
100
AcDbEntity
  8
LOGO
 62
     5
100
AcDbVertex
100
AcDb2dVertex
 10
2884.839082190738
 20
1451.184726684243
 30
0.0
 42
1.0
  0
SEQEND
  5
15DC
330
15D9
100
AcDbEntity
  8
LOGO
 62
     5
  0
POLYLINE
  5
15DD
330
1F
100
AcDbEntity
  8
LOGO
 62
     5
100
AcDb2dPolyline
 66
     1
 10
0.0
 20
0.0
 30
0.0
 40
0.2311210896564705
 41
0.2311210896564705
  0
VERTEX
  5
15DE
330
15DD
100
AcDbEntity
  8
LOGO
 62
     5
100
AcDbVertex
100
AcDb2dVertex
 10
2882.224994834868
 20
1451.184726684243
 30
0.0
 42
1.0
  0
VERTEX
  5
15DF
330
15DD
100
AcDbEntity
  8
LOGO
 62
     5
100
AcDbVertex
100
AcDb2dVertex
 10
2881.531631565898
 20
1451.184726684243
 30
0.0
 42
1.0
  0
SEQEND
  5
15E0
330
15DD
100
AcDbEntity
  8
LOGO
 62
     5
  0
SOLID
  5
15E1
330
1F
100
AcDbEntity
  8
LOGO
 62
     5
100
AcDbTrace
 10
2881.416810608557
 20
1451.646229276069
 30
0.0
 11
2881.64756190447
 21
1451.646229276069
 31
0.0
 12
2881.416810608557
 22
1450.492472796504
 32
0.0
 13
2881.64756190447
 23
1450.492472796504
 33
0.0
  0
SOLID
  5
15E2
330
1F
100
AcDbEntity
  8
LOGO
 62
     5
100
AcDbTrace
 10
2882.109064496297
 20
1451.184726684243
 30
0.0
 11
2882.33981579221
 21
1451.184726684243
 31
0.0
 12
2882.109064496297
 22
1450.492472796504
 32
0.0
 13
2882.33981579221
 23
1450.492472796504
 33
0.0
  0
POLYLINE
  5
15E3
330
1F
100
AcDbEntity
  8
LOGO
 62
     5
100
AcDb2dPolyline
 66
     1
 10
0.0
 20
0.0
 30
0.0
 70
     1
 40
0.2311210896564705
 41
0.2311210896564705
  0
VERTEX
  5
15E4
330
15E3
100
AcDbEntity
  8
LOGO
 62
     5
100
AcDbVertex
100
AcDb2dVertex
 10
2882.72369246475
 20
1451.069351036286
 30
0.0
 42
1.0
  0
VERTEX
  5
15E5
330
15E3
100
AcDbEntity
  8
LOGO
 62
     5
100
AcDbVertex
100
AcDb2dVertex
 10
2883.648176823376
 20
1451.069351036286
 30
0.0
 42
1.0
  0
SEQEND
  5
15E6
330
15E3
100
AcDbEntity
  8
LOGO
 62
     5
  0
SOLID
  5
15E7
330
1F
100
AcDbEntity
  8
LOGO
 62
     5
100
AcDbTrace
 10
2883.532038512803
 20
1451.992356219939
 30
0.0
 11
2883.762789808717
 21
1451.992356219939
 31
0.0
 12
2883.532038512803
 22
1450.492472796504
 32
0.0
 13
2883.762789808717
 23
1450.492472796504
 33
0.0
  0
SOLID
  5
15E8
330
1F
100
AcDbEntity
  8
LOGO
 62
     5
100
AcDbTrace
 10
2884.032007345658
 20
1451.646229276069
 30
0.0
 11
2884.262758641571
 21
1451.646229276069
 31
0.0
 12
2884.032007345658
 22
1450.492472796504
 32
0.0
 13
2884.262758641571
 23
1450.492472796504
 33
0.0
  0
SOLID
  5
15E9
330
1F
100
AcDbEntity
  8
LOGO
 62
     5
100
AcDbTrace
 10
2884.724261233397
 20
1451.184726684243
 30
0.0
 11
2884.95501252931
 21
1451.184726684243
 31
0.0
 12
2884.724261233397
 22
1450.492472796504
 32
0.0
 13
2884.95501252931
 23
1450.492472796504
 33
0.0
  0
SOLID
  5
15EA
330
1F
100
AcDbEntity
  8
LOGO
 62
     5
100
AcDbTrace
 10
2885.416515121136
 20
1451.184726684243
 30
0.0
 11
2885.647266417049
 21
1451.184726684243
 31
0.0
 12
2885.416515121136
 22
1450.492472796504
 32
0.0
 13
2885.647266417049
 23
1450.492472796504
 33
0.0
  0
SOLID
  5
15EB
330
1F
100
AcDbEntity
  8
LOGO
 62
     5
100
AcDbTrace
 10
2880.916841775702
 20
1451.807755183208
 30
0.0
 11
2881.147593071616
 21
1451.807755183208
 31
0.0
 12
2880.916841775702
 22
1451.992356219939
 32
0.0
 13
2881.147593071616
 23
1451.992356219939
 33
0.0
  0
SOLID
  5
15EC
330
1F
100
AcDbEntity
  8
LOGO
 62
     5
100
AcDbTrace
 10
2880.916841775702
 20
1451.646229276069
 30
0.0
 11
2881.147593071616
 21
1451.646229276069
 31
0.0
 12
2880.916841775702
 22
1450.492472796504
 32
0.0
 13
2881.147593071616
 23
1450.492472796504
 33
0.0
  0
SOLID
  5
15ED
330
1F
100
AcDbEntity
  8
LOGO
 62
     5
100
AcDbTrace
 10
2883.185934644063
 20
1452.799985755634
 30
0.0
 11
2883.855113402211
 21
1452.799985755634
 31
0.0
 12
2883.185934644063
 22
1456.184338095691
 32
0.0
 13
2883.855113402211
 23
1458.637993542233
 33
0.0
  0
SOLID
  5
15EE
330
1F
100
AcDbEntity
  8
LOGO
 62
     5
100
AcDbTrace
 10
2884.132014957307
 20
1459.145646393242
 30
0.0
 11
2884.801193715454
 21
1459.145646393242
 31
0.0
 12
2884.132014957307
 22
1453.307638606643
 32
0.0
 13
2884.801193715454
 23
1455.761294053185
 33
0.0
  0
SOLID
  5
15EF
330
1F
100
AcDbEntity
  8
LOGO
 62
     2
100
AcDbTrace
 10
2883.855113402211
 20
1459.145646393242
 30
0.0
 11
2884.132014957307
 21
1459.145646393242
 31
0.0
 12
2883.855113402211
 22
1452.799985755634
 32
0.0
 13
2884.132014957307
 23
1452.799985755634
 33
0.0
  0
SOLID
  5
15F0
330
1F
100
AcDbEntity
  8
LOGO
 62
     5
100
AcDbTrace
 10
2884.132014957307
 20
1453.307638606643
 30
0.0
 11
2884.801193715454
 21
1455.761294053185
 31
0.0
 12
2887.316382840906
 22
1459.145646393242
 32
0.0
 13
2886.647204082759
 23
1459.145646393242
 33
0.0
  0
SOLID
  5
15F1
330
1F
100
AcDbEntity
  8
LOGO
 62
     5
100
AcDbTrace
 10
2884.132014957307
 20
1452.799985755634
 30
0.0
 11
2884.801193715454
 21
1452.799985755634
 31
0.0
 12
2887.316382840906
 22
1458.637993542233
 32
0.0
 13
2886.647204082759
 23
1456.184338095691
 33
0.0
  0
SOLID
  5
15F2
330
1F
100
AcDbEntity
  8
LOGO
 62
     2
100
AcDbTrace
 10
2883.855113402211
 20
1452.799985755634
 30
0.0
 11
2884.132014957307
 21
1452.799985755634
 31
0.0
 12
2887.316382840906
 22
1459.145646393242
 32
0.0
 13
2887.593284396002
 23
1459.145646393242
 33
0.0
  0
LINE
  5
15F3
330
1F
100
AcDbEntity
  8
LOGO
 62
     4
100
AcDbLine
 10
2943.773643387734
 20
1451.001021229546
 30
0.0
 11
2943.773643387734
 21
1445.326173046017
 31
0.0
  0
LINE
  5
15F4
330
1F
100
AcDbEntity
  8
LOGO
 62
     4
100
AcDbLine
 10
2933.455737599499
 20
1451.001021229546
 30
0.0
 11
2933.455737599499
 21
1445.326173046017
 31
0.0
  0
LINE
  5
15F5
330
1F
100
AcDbEntity
  8
LOGO
 62
     4
100
AcDbLine
 10
2943.773643387734
 20
1445.326173046017
 30
0.0
 11
2933.455737599499
 21
1445.326173046017
 31
0.0
  0
LINE
  5
15F6
330
1F
100
AcDbEntity
  8
LOGO
 62
     4
100
AcDbLine
 10
2945.31923230648
 20
1457.965607636605
 30
0.0
 11
2933.455737599499
 21
1457.965607636605
 31
0.0
  0
LINE
  5
15F7
330
1F
100
AcDbEntity
  8
LOGO
 62
     4
100
AcDbLine
 10
2945.31923230648
 20
1453.3225500319
 30
0.0
 11
2933.455737599499
 21
1453.3225500319
 31
0.0
  0
LINE
  5
15F8
330
1F
100
AcDbEntity
  8
LOGO
 62
     4
100
AcDbLine
 10
2933.455737599499
 20
1457.965607636605
 30
0.0
 11
2933.455737599499
 21
1453.3225500319
 31
0.0
  0
LINE
  5
15F9
330
1F
100
AcDbEntity
  8
LOGO
 62
     4
100
AcDbLine
 10
2945.31923230648
 20
1457.965607636605
 30
0.0
 11
2945.31923230648
 21
1453.3225500319
 31
0.0
  0
LINE
  5
15FA
330
1F
100
AcDbEntity
  8
LOGO
 62
     4
100
AcDbLine
 10
2939.153026021975
 20
1453.3225500319
 30
0.0
 11
2939.153026021975
 21
1451.001021229546
 31
0.0
  0
TEXT
  5
15FB
330
1F
100
AcDbEntity
  8
LOGO
  6
Continuous
 62
     7
100
AcDbText
 10
2934.280736219053
 20
1454.291781518732
 30
0.0
 40
2.708842499999999
  1
MCGJ
  7
CHINESET
100
AcDbText
  0
LINE
  5
15FC
330
1F
100
AcDbEntity
  8
LOGO
 62
     4
100
AcDbLine
 10
2943.773643387734
 20
1451.001021229546
 30
0.0
 11
2933.455737599499
 21
1451.001021229546
 31
0.0
  0
TEXT
  5
15FD
330
1F
100
AcDbEntity
  8
LOGO
  6
Continuous
100
AcDbText
 10
2936.766720900951
 20
1446.127165833327
 30
101.4327821406193
 40
1.160932499999999
  1
Model
 41
0.8
  7
CHINESET
100
AcDbText
  0
TEXT
  5
15FE
330
1F
100
AcDbEntity
  8
LOGO
100
AcDbText
 10
2936.457718409045
 20
1448.279284489516
 30
101.4327821406193
 40
1.9348875
  1
型號
  7
CHINESET
100
AcDbText
  0
LINE
  5
15FF
330
1F
100
AcDbEntity
  8
LOGO
  6
Continuous
 62
     7
100
AcDbLine
 10
2945.812827704203
 20
1455.62763239044
 30
0.0
 11
2947.863032524797
 21
1455.62763239044
 31
0.0
  0
LINE
  5
1600
330
1F
100
AcDbEntity
  8
LOGO
 62
     4
100
AcDbLine
 10
2956.290771789083
 20
1451.001021229546
 30
0.0
 11
2956.290771789083
 21
1445.326173046017
 31
0.0
  0
LINE
  5
1601
330
1F
100
AcDbEntity
  8
LOGO
 62
     4
100
AcDbLine
 10
2945.604636291549
 20
1451.001021229546
 30
0.0
 11
2945.604636291549
 21
1445.326173046017
 31
0.0
  0
LINE
  5
1602
330
1F
100
AcDbEntity
  8
LOGO
 62
     4
100
AcDbLine
 10
2956.290771789083
 20
1445.326173046017
 30
0.0
 11
2945.604636291549
 21
1445.326173046017
 31
0.0
  0
LINE
  5
1603
330
1F
100
AcDbEntity
  8
LOGO
 62
     4
100
AcDbLine
 10
2954.488917732952
 20
1457.965607636605
 30
0.0
 11
2948.509764072949
 21
1457.965607636605
 31
0.0
  0
LINE
  5
1604
330
1F
100
AcDbEntity
  8
LOGO
 62
     4
100
AcDbLine
 10
2954.488917732952
 20
1453.3225500319
 30
0.0
 11
2948.509764072949
 21
1453.3225500319
 31
0.0
  0
LINE
  5
1605
330
1F
100
AcDbEntity
  8
LOGO
 62
     4
100
AcDbLine
 10
2948.509764072949
 20
1457.965607636605
 30
0.0
 11
2948.509764072949
 21
1453.3225500319
 31
0.0
  0
LINE
  5
1606
330
1F
100
AcDbEntity
  8
LOGO
 62
     4
100
AcDbLine
 10
2954.488917732952
 20
1457.965607636605
 30
0.0
 11
2954.488917732952
 21
1453.3225500319
 31
0.0
  0
LINE
  5
1607
330
1F
100
AcDbEntity
  8
LOGO
 62
     4
100
AcDbLine
 10
2951.49934090295
 20
1453.3225500319
 30
0.0
 11
2951.49934090295
 21
1451.001021229546
 31
0.0
  0
TEXT
  5
1608
330
1F
100
AcDbEntity
  8
LOGO
  6
Continuous
 62
     7
100
AcDbText
 10
2949.264524756207
 20
1454.291781518732
 30
0.0
 40
2.708842499999999
  1
12
  7
CHINESET
100
AcDbText
  0
LINE
  5
1609
330
1F
100
AcDbEntity
  8
LOGO
 62
     4
100
AcDbLine
 10
2956.290771789083
 20
1451.001021229546
 30
0.0
 11
2945.604636291549
 21
1451.001021229546
 31
0.0
  0
LINE
  5
160A
330
1F
100
AcDbEntity
  8
LOGO
  6
Continuous
 62
     7
100
AcDbLine
 10
2955.146766547847
 20
1455.62763239044
 30
0.0
 11
2957.196971368441
 21
1455.62763239044
 31
0.0
  0
LINE
  5
160B
330
1F
100
AcDbEntity
  8
LOGO
 62
     4
100
AcDbLine
 10
2967.974874120041
 20
1451.001021229546
 30
0.0
 11
2967.974874120041
 21
1445.326173046017
 31
0.0
  0
LINE
  5
160C
330
1F
100
AcDbEntity
  8
LOGO
 62
     4
100
AcDbLine
 10
2957.656968331806
 20
1451.001021229546
 30
0.0
 11
2957.656968331806
 21
1445.326173046017
 31
0.0
  0
LINE
  5
160D
330
1F
100
AcDbEntity
  8
LOGO
 62
     4
100
AcDbLine
 10
2967.974874120041
 20
1445.326173046017
 30
0.0
 11
2957.656968331806
 21
1445.326173046017
 31
0.0
  0
LINE
  5
160E
330
1F
100
AcDbEntity
  8
LOGO
 62
     4
100
AcDbLine
 10
2965.777511429295
 20
1457.965607636605
 30
0.0
 11
2957.843702916593
 21
1457.965607636605
 31
0.0
  0
LINE
  5
160F
330
1F
100
AcDbEntity
  8
LOGO
 62
     4
100
AcDbLine
 10
2965.777511429295
 20
1453.3225500319
 30
0.0
 11
2957.843702916593
 21
1453.3225500319
 31
0.0
  0
LINE
  5
1610
330
1F
100
AcDbEntity
  8
LOGO
 62
     4
100
AcDbLine
 10
2957.843702916593
 20
1457.965607636605
 30
0.0
 11
2957.843702916593
 21
1453.3225500319
 31
0.0
  0
LINE
  5
1611
330
1F
100
AcDbEntity
  8
LOGO
 62
     4
100
AcDbLine
 10
2965.777511429295
 20
1457.965607636605
 30
0.0
 11
2965.777511429295
 21
1453.3225500319
 31
0.0
  0
LINE
  5
1612
330
1F
100
AcDbEntity
  8
LOGO
 62
     4
100
AcDbLine
 10
2961.810607172944
 20
1453.3225500319
 30
0.0
 11
2961.810607172944
 21
1451.001021229546
 31
0.0
  0
TEXT
  5
1613
330
1F
100
AcDbEntity
  8
LOGO
  6
Continuous
 62
     7
100
AcDbText
 10
2959.535472600693
 20
1454.291781518732
 30
0.0
 40
2.708842499999999
  1
16
  7
CHINESET
100
AcDbText
  0
LINE
  5
1614
330
1F
100
AcDbEntity
  8
LOGO
 62
     4
100
AcDbLine
 10
2967.974874120041
 20
1451.001021229546
 30
0.0
 11
2957.656968331806
 21
1451.001021229546
 31
0.0
  0
LINE
  5
1615
330
1F
100
AcDbEntity
  8
LOGO
  6
Continuous
 62
     7
100
AcDbLine
 10
2966.43795868175
 20
1455.62763239044
 30
0.0
 11
2968.488163502345
 21
1455.62763239044
 31
0.0
  0
LINE
  5
1616
330
1F
100
AcDbEntity
  8
LOGO
 62
     4
100
AcDbLine
 10
2977.353739622289
 20
1451.001021229546
 30
0.0
 11
2977.353739622289
 21
1445.326173046017
 31
0.0
  0
LINE
  5
1617
330
1F
100
AcDbEntity
  8
LOGO
 62
     4
100
AcDbLine
 10
2968.948160465708
 20
1451.001021229546
 30
0.0
 11
2968.948160465708
 21
1445.326173046017
 31
0.0
  0
LINE
  5
1618
330
1F
100
AcDbEntity
  8
LOGO
 62
     4
100
AcDbLine
 10
2977.353739622289
 20
1445.326173046017
 30
0.0
 11
2968.948160465708
 21
1445.326173046017
 31
0.0
  0
LINE
  5
1619
330
1F
100
AcDbEntity
  8
LOGO
 62
     4
100
AcDbLine
 10
2974.074979405113
 20
1457.965607636605
 30
0.0
 11
2969.134895050496
 21
1457.965607636605
 31
0.0
  0
LINE
  5
161A
330
1F
100
AcDbEntity
  8
LOGO
 62
     4
100
AcDbLine
 10
2974.074979405113
 20
1453.3225500319
 30
0.0
 11
2969.134895050496
 21
1453.3225500319
 31
0.0
  0
LINE
  5
161B
330
1F
100
AcDbEntity
  8
LOGO
 62
     4
100
AcDbLine
 10
2969.134895050496
 20
1457.965607636605
 30
0.0
 11
2969.134895050496
 21
1453.3225500319
 31
0.0
  0
LINE
  5
161C
330
1F
100
AcDbEntity
  8
LOGO
 62
     4
100
AcDbLine
 10
2974.074979405113
 20
1457.965607636605
 30
0.0
 11
2974.074979405113
 21
1453.3225500319
 31
0.0
  0
LINE
  5
161D
330
1F
100
AcDbEntity
  8
LOGO
 62
     4
100
AcDbLine
 10
2971.604937227804
 20
1453.3225500319
 30
0.0
 11
2971.604937227804
 21
1451.001021229546
 31
0.0
  0
TEXT
  5
161E
330
1F
100
AcDbEntity
  8
LOGO
  6
Continuous
 62
     7
100
AcDbText
 10
2970.799939259509
 20
1454.291781518732
 30
0.0
 40
2.708842499999999
  1
0
  7
CHINESET
100
AcDbText
  0
LINE
  5
161F
330
1F
100
AcDbEntity
  8
LOGO
 62
     4
100
AcDbLine
 10
2977.353739622289
 20
1451.001021229546
 30
0.0
 11
2968.948160465708
 21
1451.001021229546
 31
0.0
  0
TEXT
  5
1620
330
1F
100
AcDbEntity
  8
LOGO
  6
Continuous
100
AcDbText
 10
2946.54657435964
 20
1446.127165833327
 30
101.4327821406193
 40
1.160932499999999
  1
Bearing type
 41
0.8
  7
CHINESET
100
AcDbText
  0
TEXT
  5
1621
330
1F
100
AcDbEntity
  8
LOGO
100
AcDbText
 10
2946.535637973403
 20
1448.279284489516
 30
101.4327821406193
 40
1.9348875
  1
軸承型式
  7
CHINESET
100
AcDbText
  0
TEXT
  5
1622
330
1F
100
AcDbEntity
  8
LOGO
  6
Continuous
100
AcDbText
 10
2959.818147890416
 20
1446.127165833327
 30
101.4327821406193
 40
1.160932499999999
  1
Tube I.D.
 41
0.8
  7
CHINESET
100
AcDbText
  0
TEXT
  5
1623
330
1F
100
AcDbEntity
  8
LOGO
100
AcDbText
 10
2960.286248382285
 20
1448.279284489516
 30
101.4327821406193
 40
1.9348875
  1
內徑
  7
CHINESET
100
AcDbText
  0
TEXT
  5
1624
330
1F
100
AcDbEntity
  8
LOGO
  6
Continuous
100
AcDbText
 10
2971.163457435936
 20
1446.127165833327
 30
101.4327821406193
 40
1.160932499999999
  1
Stroke
 41
0.8
  7
CHINESET
100
AcDbText
  0
TEXT
  5
1625
330
1F
100
AcDbEntity
  8
LOGO
100
AcDbText
 10
2971.082962192691
 20
1448.279284489516
 30
101.4327821406193
 40
1.9348875
  1
行程
  7
CHINESET
100
AcDbText
  0
TEXT
  5
1626
330
1F
100
AcDbEntity
  8
LOGO
100
AcDbText
 10
2913.117288733298
 20
1444.859797595771
 30
0.0
 40
1.54791
  1
10603141
 41
0.7
  7
CHINESET
 72
     1
 11
2916.651683233298
 21
1444.859797595771
 31
0.0
100
AcDbText
  0
LINE
  5
1627
330
1F
100
AcDbEntity
  8
LOGO
 62
     4
100
AcDbLine
 10
2921.455465379781
 20
1447.131806558958
 30
0.0
 11
2921.455465379781
 21
1444.036434822488
 31
0.0
  0
LINE
  5
1628
330
1F
100
AcDbEntity
  8
LOGO
 62
     4
100
AcDbLine
 10
2921.455465379781
 20
1447.131806558958
 30
0.0
 11
2912.168005379781
 21
1447.131806558958
 31
0.0
  0
LINE
  5
1629
330
1F
100
AcDbEntity
  8
LOGO
  6
AM_ISO08W050x2
 48
0.3
100
AcDbLine
 10
2903.477068512467
 20
1454.873546411533
 30
0.0
 11
2905.954598603677
 21
1454.873546411533
 31
0.0
1001
GENIUS_GENOREF_13
1005
162E
  0
LINE
  5
162A
330
1F
100
AcDbEntity
  8
LOGO
  6
AM_ISO08W050x2
 48
0.3
100
AcDbLine
 10
2904.715833558072
 20
1453.634781365928
 30
0.0
 11
2904.715833558072
 21
1456.112311457137
 31
0.0
1001
GENIUS_GENOREF_13
1005
162D
  0
LINE
  5
162B
330
1F
100
AcDbEntity
  8
LOGO
  6
CENTER
 48
0.5
100
AcDbLine
 10
2907.320460566812
 20
1454.873546411533
 30
0.0
 11
2910.646559753813
 21
1454.873546411533
 31
0.0
1001
GENIUS_GENOREF_13
1005
162C
  0
POINT
  5
162C
330
1F
100
AcDbEntity
  8
0
 60
     1
100
AcDbPoint
 10
717.7893463853256
 20
372.8627295737218
 30
0.0
1001
GENIUS_GENOBJ-N-CRS_13
1002
{
1000
OWNER
1000
GEN
1002
}
1001
GENIUS_GENOLIS_13
1002
{
1000
ENT
1005
0
1005
0
1005
0
1005
162B
1002
}
1001
GENIUS_GENOENT_13
1002
{
1000
MYREF
1005
162C
1002
}
1002
{
1000
GRP
1005
0
1002
}
1001
GENIUS_GENODEF_13
1002
{
1000
HIER
1070
    10
1002
}
1002
{
1000
MANEDIT
1070
     1
1002
}
1002
{
1000
NOSEL
1070
     0
1002
}
1002
{
1000
BEHIND
1070
     0
1002
}
1002
{
1000
OTHER
1070
     0
1002
}
1002
{
1000
REACTOR
1002
}
  0
POINT
  5
162D
330
1F
100
AcDbEntity
  8
0
 60
     1
100
AcDbPoint
 10
706.4647611624709
 20
381.7383160523581
 30
0.0
1001
GENIUS_GENOBJ-N-CRS_13
1002
{
1000
OWNER
1000
GEN
1002
}
1001
GENIUS_GENOLIS_13
1002
{
1000
ENT
1005
0
1005
0
1005
0
1005
162A
1002
}
1001
GENIUS_GENOENT_13
1002
{
1000
MYREF
1005
162D
1002
}
1002
{
1000
GRP
1005
0
1002
}
1001
GENIUS_GENODEF_13
1002
{
1000
HIER
1070
    10
1002
}
1002
{
1000
MANEDIT
1070
     1
1002
}
1002
{
1000
NOSEL
1070
     0
1002
}
1002
{
1000
BEHIND
1070
     0
1002
}
1002
{
1000
OTHER
1070
     0
1002
}
1002
{
1000
REACTOR
1002
}
  0
POINT
  5
162E
330
1F
100
AcDbEntity
  8
0
 60
     1
100
AcDbPoint
 10
712.8234348603077
 20
372.8627295737218
 30
0.0
1001
GENIUS_GENOBJ-N-CRS_13
1002
{
1000
OWNER
1000
GEN
1002
}
1001
GENIUS_GENOLIS_13
1002
{
1000
ENT
1005
0
1005
0
1005
0
1005
1629
1002
}
1001
GENIUS_GENOENT_13
1002
{
1000
MYREF
1005
162E
1002
}
1002
{
1000
GRP
1005
0
1002
}
1001
GENIUS_GENODEF_13
1002
{
1000
HIER
1070
    10
1002
}
1002
{
1000
MANEDIT
1070
     1
1002
}
1002
{
1000
NOSEL
1070
     0
1002
}
1002
{
1000
BEHIND
1070
     0
1002
}
1002
{
1000
OTHER
1070
     0
1002
}
1002
{
1000
REACTOR
1002
}
  0
DIMENSION
  5
1F2F
330
1F
100
AcDbEntity
  8
AM_5
100
AcDbDimension
  2
*D14
 10
2958.927582336908
 20
1568.042594426336
 30
0.0
 11
2956.927582336908
 21
1571.042594426336
 31
0.0
 70
    32
 71
     5
 42
6.0
  3
AM_ISO$0
100
AcDbAlignedDimension
 13
2944.705611495053
 23
1574.042594426336
 33
0.0
 14
2946.927582336908
 24
1568.042594426336
 34
0.0
 50
90.0
100
AcDbRotatedDimension
1001
ACAD
1000
DSTYLE
1002
{
1070
    40
1040
0.8
1070
   173
1070
     1
1070
   174
1070
     1
1070
   272
1070
     8
1070
   344
1005
1DB0
1002
}
  0
DIMENSION
  5
1FA8
330
1F
100
AcDbEntity
  8
AM_5
100
AcDbDimension
  2
*D15
 10
2958.927582336908
 20
1568.042594426336
 30
0.0
 11
2956.927582336908
 21
1565.542594426336
 31
0.0
 70
    32
 71
     5
 42
5.0
  3
AM_ISO$0
100
AcDbAlignedDimension
 13
2943.705611495053
 23
1563.042594426336
 33
0.0
 14
2946.927582336908
 24
1568.042594426336
 34
0.0
 50
90.0
100
AcDbRotatedDimension
1001
ACAD
1000
DSTYLE
1002
{
1070
    40
1040
0.8
1070
   173
1070
     1
1070
   174
1070
     1
1070
   272
1070
     8
1070
   344
1005
1DB0
1002
}
  0
LINE
  5
2A40
330
1F
100
AcDbEntity
  8
AM_7
100
AcDbLine
 10
3005.093194673597
 20
1560.734821761673
 30
0.0
 11
3005.093194673597
 21
1570.212594426336
 31
0.0
  0
LINE
  5
2A41
330
1F
100
AcDbEntity
  8
AM_7
100
AcDbLine
 10
2985.093194673598
 20
1560.734821761673
 30
0.0
 11
2985.093194673598
 21
1570.212594426336
 31
0.0
  0
LINE
  5
2A43
330
1F
100
AcDbEntity
  8
AM_VIS
100
AcDbLine
 10
2916.927582336908
 20
1534.542594426336
 30
0.0
 11
2916.927582336908
 21
1563.042594426336
 31
0.0
  0
LINE
  5
2A44
330
1F
100
AcDbEntity
  8
AM_VIS
100
AcDbLine
 10
2943.705611495053
 20
1534.542594426336
 30
0.0
 11
2943.705611495053
 21
1563.042594426336
 31
0.0
  0
LINE
  5
2A45
330
1F
100
AcDbEntity
  8
AM_VIS
100
AcDbLine
 10
2919.149553175053
 20
1534.542594426336
 30
0.0
 11
2919.149553175053
 21
1563.042594426336
 31
0.0
  0
LINE
  5
2A46
330
1F
100
AcDbEntity
  8
AM_VIS
100
AcDbLine
 10
2943.705611495053
 20
1563.042594426336
 30
0.0
 11
2919.149553175053
 21
1563.042594426336
 31
0.0
  0
LINE
  5
2A47
330
1F
100
AcDbEntity
  8
AM_VIS
100
AcDbLine
 10
2919.149553175053
 20
1534.542594426336
 30
0.0
 11
2943.705611495053
 21
1534.542594426336
 31
0.0
  0
LINE
  5
2A4C
330
1F
100
AcDbEntity
  8
AM_VIS
100
AcDbLine
 10
2916.927582336908
 20
1563.042594426336
 30
0.0
 11
2919.149553175053
 21
1563.042594426336
 31
0.0
  0
LINE
  5
2A51
330
1F
100
AcDbEntity
  8
AM_VIS
100
AcDbLine
 10
2919.149553175053
 20
1534.542594426336
 30
0.0
 11
2916.927582336908
 21
1534.542594426336
 31
0.0
  0
LINE
  5
2A53
330
1F
100
AcDbEntity
  8
AM_VIS
100
AcDbLine
 10
2923.427582340619
 20
1563.042594426336
 30
0.0
 11
2923.427582340619
 21
1568.042594426336
 31
0.0
  0
LINE
  5
2A54
330
1F
100
AcDbEntity
  8
AM_VIS
100
AcDbLine
 10
2919.427582340619
 20
1563.042594426336
 30
0.0
 11
2919.427582340619
 21
1568.042594426336
 31
0.0
  0
LINE
  5
2A55
330
1F
100
AcDbEntity
  8
AM_VIS
100
AcDbLine
 10
2943.427582333197
 20
1563.042594426336
 30
0.0
 11
2943.427582333197
 21
1568.042594426336
 31
0.0
  0
LINE
  5
2A56
330
1F
100
AcDbEntity
  8
AM_VIS
100
AcDbLine
 10
2939.427582333197
 20
1563.042594426336
 30
0.0
 11
2939.427582333197
 21
1568.042594426336
 31
0.0
  0
ELLIPSE
  5
2A57
330
1F
100
AcDbEntity
  8
AM_VIS
100
AcDbEllipse
 10
2931.427582336908
 20
1570.542594426336
 30
0.0
 11
0.0000000000000007
 21
6.0
 31
0.0
210
0.0
220
0.0
230
1.0
 40
0.5
 41
2.555907110132643
 42
3.727278197046943
  0
SPLINE
  5
2A58
330
1F
100
AcDbEntity
  8
AM_VIS
100
AcDbSpline
210
0.0
220
0.0
230
1.0
 70
    12
 71
     2
 72
     6
 73
     3
 74
     0
 42
0.0000000001
 43
0.0000000001
 40
3.365675232497595
 40
3.365675232497595
 40
3.365675232497595
 40
3.810674992710596
 40
3.810674992710596
 40
3.810674992710596
 10
2932.663183003106
 20
1568.042594426336
 30
0.0
 41
1.01747422046812
 10
2932.866822982945
 20
1567.886314253721
 30
0.0
 41
1.011399516239798
 10
2933.085894732086
 20
1567.676569022552
 30
0.0
 41
1.0
  0
LINE
  5
2A59
330
1F
100
AcDbEntity
  8
AM_VIS
100
AcDbLine
 10
2933.085894732086
 20
1567.676569022552
 30
0.0
 11
2933.085894732086
 21
1565.542594426336
 31
0.0
  0
LINE
  5
2A5A
330
1F
100
AcDbEntity
  8
AM_VIS
100
AcDbLine
 10
2933.085894732086
 20
1565.542594426336
 30
0.0
 11
2929.769269941731
 21
1565.542594426336
 31
0.0
  0
LINE
  5
2A5B
330
1F
100
AcDbEntity
  8
AM_VIS
100
AcDbLine
 10
2929.769269941731
 20
1565.542594426336
 30
0.0
 11
2929.769269941731
 21
1567.676569022552
 31
0.0
  0
SPLINE
  5
2A5C
330
1F
100
AcDbEntity
  8
AM_VIS
100
AcDbSpline
210
0.0
220
0.0
230
1.0
 70
    12
 71
     2
 72
     6
 73
     3
 74
     0
 42
0.0000000001
 43
0.0000000001
 40
0.0
 40
0.0
 40
0.0
 40
0.4449997602130048
 40
0.4449997602130048
 40
0.4449997602130048
 10
2929.769269941731
 20
1567.676569022552
 30
0.0
 41
1.0
 10
2929.988341690871
 20
1567.886314253721
 30
0.0
 41
1.011399516239798
 10
2930.191981670713
 20
1568.042594426336
 30
0.0
 41
1.01747422046812
  0
LINE
  5
2A5D
330
1F
100
AcDbEntity
  8
AM_VIS
100
AcDbLine
 10
2934.216257471503
 20
1568.042594426336
 30
0.0
 11
2934.427582336908
 21
1567.676569022552
 31
0.0
  0
LINE
  5
2A5E
330
1F
100
AcDbEntity
  8
AM_VIS
100
AcDbLine
 10
2934.427582336908
 20
1563.042594426336
 30
0.0
 11
2934.427582336908
 21
1567.676569022552
 31
0.0
  0
LINE
  5
2A5F
330
1F
100
AcDbEntity
  8
AM_VIS
100
AcDbLine
 10
2928.427582336908
 20
1563.042594426336
 30
0.0
 11
2928.427582336908
 21
1567.676569022552
 31
0.0
  0
LINE
  5
2A60
330
1F
100
AcDbEntity
  8
AM_VIS
100
AcDbLine
 10
2928.638907202313
 20
1568.042594426336
 30
0.0
 11
2928.427582336908
 21
1567.676569022552
 31
0.0
  0
LINE
  5
2A61
330
1F
100
AcDbEntity
  8
AM_VIS
100
AcDbLine
 10
2934.427582336908
 20
1567.676569022552
 30
0.0
 11
2933.085894732086
 21
1567.676569022552
 31
0.0
  0
LINE
  5
2A62
330
1F
100
AcDbEntity
  8
AM_VIS
100
AcDbLine
 10
2929.769269941731
 20
1567.676569022552
 30
0.0
 11
2928.427582336908
 21
1567.676569022552
 31
0.0
  0
LINE
  5
2A63
330
1F
100
AcDbEntity
  8
AM_VIS
100
AcDbLine
 10
2915.927582336908
 20
1568.042594426336
 30
0.0
 11
2918.927582336908
 21
1568.042594426336
 31
0.0
  0
LINE
  5
2A64
330
1F
100
AcDbEntity
  8
AM_VIS
100
AcDbLine
 10
2915.927582336908
 20
1574.042594426336
 30
0.0
 11
2915.927582336908
 21
1568.042594426336
 31
0.0
  0
LINE
  5
2A65
330
1F
100
AcDbEntity
  8
AM_VIS
100
AcDbLine
 10
2918.927582336908
 20
1568.042594426336
 30
0.0
 11
2943.927582336908
 21
1568.042594426336
 31
0.0
  0
LINE
  5
2A66
330
1F
100
AcDbEntity
  8
AM_VIS
100
AcDbLine
 10
2918.927582336908
 20
1568.042594426336
 30
0.0
 11
2918.927582336908
 21
1574.042594426336
 31
0.0
  0
LINE
  5
2A67
330
1F
100
AcDbEntity
  8
AM_VIS
100
AcDbLine
 10
2943.927582336908
 20
1568.042594426336
 30
0.0
 11
2946.927582336908
 21
1568.042594426336
 31
0.0
  0
LINE
  5
2A68
330
1F
100
AcDbEntity
  8
AM_VIS
100
AcDbLine
 10
2943.927582336908
 20
1574.042594426336
 30
0.0
 11
2943.927582336908
 21
1568.042594426336
 31
0.0
  0
LINE
  5
2A69
330
1F
100
AcDbEntity
  8
AM_VIS
100
AcDbLine
 10
2946.927582336908
 20
1574.042594426336
 30
0.0
 11
2943.927582336908
 21
1574.042594426336
 31
0.0
  0
LINE
  5
2A6A
330
1F
100
AcDbEntity
  8
AM_VIS
100
AcDbLine
 10
2943.927582336908
 20
1574.042594426336
 30
0.0
 11
2918.927582336908
 21
1574.042594426336
 31
0.0
  0
LINE
  5
2A6B
330
1F
100
AcDbEntity
  8
AM_VIS
100
AcDbLine
 10
2918.927582336908
 20
1574.042594426336
 30
0.0
 11
2915.927582336908
 21
1574.042594426336
 31
0.0
  0
LINE
  5
2A6C
330
1F
100
AcDbEntity
  8
AM_VIS
100
AcDbLine
 10
2946.927582336908
 20
1568.042594426336
 30
0.0
 11
2946.927582336908
 21
1574.042594426336
 31
0.0
  0
LINE
  5
2A83
330
1F
100
AcDbEntity
  8
AM_VIS
100
AcDbLine
 10
2946.927582336908
 20
1600.27479186295
 30
0.0
 11
2943.927582336908
 21
1597.27479186295
 31
0.0
  0
LINE
  5
2A84
330
1F
100
AcDbEntity
  8
AM_VIS
100
AcDbLine
 10
2943.927582336908
 20
1597.27479186295
 30
0.0
 11
2918.927582336908
 21
1597.27479186295
 31
0.0
  0
LINE
  5
2A85
330
1F
100
AcDbEntity
  8
AM_VIS
100
AcDbLine
 10
2918.927582336908
 20
1597.27479186295
 30
0.0
 11
2915.927582336908
 21
1600.27479186295
 31
0.0
  0
LINE
  5
2A86
330
1F
100
AcDbEntity
  8
AM_VIS
100
AcDbLine
 10
2915.927582336908
 20
1600.27479186295
 30
0.0
 11
2915.927582336908
 21
1625.27479186295
 31
0.0
  0
LINE
  5
2A87
330
1F
100
AcDbEntity
  8
AM_VIS
100
AcDbLine
 10
2915.927582336908
 20
1625.27479186295
 30
0.0
 11
2918.927582336908
 21
1628.27479186295
 31
0.0
  0
LINE
  5
2A88
330
1F
100
AcDbEntity
  8
AM_VIS
100
AcDbLine
 10
2918.927582336908
 20
1628.27479186295
 30
0.0
 11
2943.927582336908
 21
1628.27479186295
 31
0.0
  0
LINE
  5
2A89
330
1F
100
AcDbEntity
  8
AM_VIS
100
AcDbLine
 10
2946.927582336908
 20
1625.27479186295
 30
0.0
 11
2946.927582336908
 21
1600.27479186295
 31
0.0
  0
LINE
  5
2A8A
330
1F
100
AcDbEntity
  8
AM_VIS
100
AcDbLine
 10
2943.927582336908
 20
1628.27479186295
 30
0.0
 11
2946.927582336908
 21
1625.27479186295
 31
0.0
  0
LINE
  5
2A92
330
1F
100
AcDbEntity
  8
AM_VIS
100
AcDbLine
 10
2944.927582336908
 20
1512.184653320134
 30
0.0
 11
2945.727582336909
 21
1512.184653320134
 31
0.0
  0
LINE
  5
2A93
330
1F
100
AcDbEntity
  8
AM_VIS
100
AcDbLine
 10
2944.427582336908
 20
1512.634653320134
 30
0.0
 11
2944.927582336908
 21
1512.184653320134
 31
0.0
  0
LINE
  5
2A94
330
1F
100
AcDbEntity
  8
AM_VIS
100
AcDbLine
 10
2942.327582336908
 20
1512.634653320134
 30
0.0
 11
2944.427582336908
 21
1512.634653320134
 31
0.0
  0
LINE
  5
2A95
330
1F
100
AcDbEntity
  8
AM_VIS
100
AcDbLine
 10
2940.627582336908
 20
1510.034653320134
 30
0.0
 11
2940.627582336908
 21
1510.934653320134
 31
0.0
  0
LINE
  5
2A96
330
1F
100
AcDbEntity
  8
AM_VIS
100
AcDbLine
 10
2944.427582336908
 20
1508.334653320134
 30
0.0
 11
2942.327582336908
 21
1508.334653320134
 31
0.0
  0
LINE
  5
2A97
330
1F
100
AcDbEntity
  8
AM_VIS
100
AcDbLine
 10
2944.927582336908
 20
1508.784653320134
 30
0.0
 11
2944.427582336908
 21
1508.334653320134
 31
0.0
  0
LINE
  5
2A98
330
1F
100
AcDbEntity
  8
AM_VIS
100
AcDbLine
 10
2945.727582336909
 20
1508.784653320134
 30
0.0
 11
2944.927582336908
 21
1508.784653320134
 31
0.0
  0
LINE
  5
2A99
330
1F
100
AcDbEntity
  8
AM_VIS
100
AcDbLine
 10
2945.927582333197
 20
1508.584653320134
 30
0.0
 11
2945.927582333197
 21
1505.384653316423
 31
0.0
  0
LINE
  5
2A9A
330
1F
100
AcDbEntity
  8
AM_VIS
100
AcDbLine
 10
2944.927582336908
 20
1505.184653316423
 30
0.0
 11
2945.727582336909
 21
1505.184653316423
 31
0.0
  0
LINE
  5
2A9B
330
1F
100
AcDbEntity
  8
AM_VIS
100
AcDbLine
 10
2944.427582336908
 20
1505.634653316423
 30
0.0
 11
2944.927582336908
 21
1505.184653316423
 31
0.0
  0
LINE
  5
2A9C
330
1F
100
AcDbEntity
  8
AM_VIS
100
AcDbLine
 10
2942.327582336908
 20
1505.634653316423
 30
0.0
 11
2944.427582336908
 21
1505.634653316423
 31
0.0
  0
LINE
  5
2A9D
330
1F
100
AcDbEntity
  8
AM_VIS
100
AcDbLine
 10
2940.627582336908
 20
1503.034653316423
 30
0.0
 11
2940.627582336908
 21
1503.934653316423
 31
0.0
  0
LINE
  5
2A9E
330
1F
100
AcDbEntity
  8
AM_VIS
100
AcDbLine
 10
2944.427582336908
 20
1501.334653316424
 30
0.0
 11
2942.327582336908
 21
1501.334653316424
 31
0.0
  0
LINE
  5
2A9F
330
1F
100
AcDbEntity
  8
AM_VIS
100
AcDbLine
 10
2944.927582336908
 20
1501.784653316423
 30
0.0
 11
2944.427582336908
 21
1501.334653316424
 31
0.0
  0
LINE
  5
2AA0
330
1F
100
AcDbEntity
  8
AM_VIS
100
AcDbLine
 10
2945.727582336909
 20
1501.784653316423
 30
0.0
 11
2944.927582336908
 21
1501.784653316423
 31
0.0
  0
LINE
  5
2AA1
330
1F
100
AcDbEntity
  8
AM_VIS
100
AcDbLine
 10
2945.927582333197
 20
1501.584653316423
 30
0.0
 11
2945.927582333197
 21
1494.706624154568
 31
0.0
  0
LINE
  5
2AA2
330
1F
100
AcDbEntity
  8
AM_VIS
100
AcDbLine
 10
2943.705611495053
 20
1492.484653316423
 30
0.0
 11
2936.827582340619
 21
1492.484653316423
 31
0.0
  0
LINE
  5
2AA3
330
1F
100
AcDbEntity
  8
AM_VIS
100
AcDbLine
 10
2936.627582340619
 20
1493.484653316423
 30
0.0
 11
2936.627582340619
 21
1492.684653316423
 31
0.0
  0
LINE
  5
2AA4
330
1F
100
AcDbEntity
  8
AM_VIS
100
AcDbLine
 10
2937.077582340619
 20
1493.984653316423
 30
0.0
 11
2936.627582340619
 21
1493.484653316423
 31
0.0
  0
LINE
  5
2AA5
330
1F
100
AcDbEntity
  8
AM_VIS
100
AcDbLine
 10
2937.077582340619
 20
1496.084653316423
 30
0.0
 11
2937.077582340619
 21
1493.984653316423
 31
0.0
  0
LINE
  5
2AA6
330
1F
100
AcDbEntity
  8
AM_VIS
100
AcDbLine
 10
2934.477582340619
 20
1497.784653316423
 30
0.0
 11
2935.377582340619
 21
1497.784653316423
 31
0.0
  0
LINE
  5
2AA7
330
1F
100
AcDbEntity
  8
AM_VIS
100
AcDbLine
 10
2932.777582340619
 20
1493.984653316423
 30
0.0
 11
2932.777582340619
 21
1496.084653316423
 31
0.0
  0
LINE
  5
2AA8
330
1F
100
AcDbEntity
  8
AM_VIS
100
AcDbLine
 10
2933.227582340619
 20
1493.484653316423
 30
0.0
 11
2932.777582340619
 21
1493.984653316423
 31
0.0
  0
LINE
  5
2AA9
330
1F
100
AcDbEntity
  8
AM_VIS
100
AcDbLine
 10
2933.227582340619
 20
1492.684653316423
 30
0.0
 11
2933.227582340619
 21
1493.484653316423
 31
0.0
  0
LINE
  5
2AAA
330
1F
100
AcDbEntity
  8
AM_VIS
100
AcDbLine
 10
2933.027582340619
 20
1492.484653316423
 30
0.0
 11
2929.827582336908
 21
1492.484653316423
 31
0.0
  0
LINE
  5
2AAB
330
1F
100
AcDbEntity
  8
AM_VIS
100
AcDbLine
 10
2929.627582336908
 20
1493.484653316423
 30
0.0
 11
2929.627582336908
 21
1492.684653316423
 31
0.0
  0
LINE
  5
2AAC
330
1F
100
AcDbEntity
  8
AM_VIS
100
AcDbLine
 10
2930.077582336908
 20
1493.984653316424
 30
0.0
 11
2929.627582336908
 21
1493.484653316423
 31
0.0
  0
LINE
  5
2AAD
330
1F
100
AcDbEntity
  8
AM_VIS
100
AcDbLine
 10
2930.077582336908
 20
1496.084653316423
 30
0.0
 11
2930.077582336908
 21
1493.984653316424
 31
0.0
  0
LINE
  5
2AAE
330
1F
100
AcDbEntity
  8
AM_VIS
100
AcDbLine
 10
2927.477582336909
 20
1497.784653316423
 30
0.0
 11
2928.377582336908
 21
1497.784653316423
 31
0.0
  0
LINE
  5
2AAF
330
1F
100
AcDbEntity
  8
AM_VIS
100
AcDbLine
 10
2925.777582336908
 20
1493.984653316423
 30
0.0
 11
2925.777582336908
 21
1496.084653316423
 31
0.0
  0
LINE
  5
2AB0
330
1F
100
AcDbEntity
  8
AM_VIS
100
AcDbLine
 10
2926.227582336908
 20
1493.484653316423
 30
0.0
 11
2925.777582336908
 21
1493.984653316423
 31
0.0
  0
LINE
  5
2AB1
330
1F
100
AcDbEntity
  8
AM_VIS
100
AcDbLine
 10
2926.227582336908
 20
1492.684653316423
 30
0.0
 11
2926.227582336908
 21
1493.484653316423
 31
0.0
  0
LINE
  5
2AB2
330
1F
100
AcDbEntity
  8
AM_VIS
100
AcDbLine
 10
2926.027582336908
 20
1492.484653316423
 30
0.0
 11
2919.149553175053
 21
1492.484653316423
 31
0.0
  0
LINE
  5
2AB3
330
1F
100
AcDbEntity
  8
AM_VIS
100
AcDbLine
 10
2916.927582336908
 20
1494.706624154568
 30
0.0
 11
2916.927582336908
 21
1501.584653312712
 31
0.0
  0
LINE
  5
2AB4
330
1F
100
AcDbEntity
  8
AM_VIS
100
AcDbLine
 10
2917.927582336908
 20
1501.784653312712
 30
0.0
 11
2917.127582336908
 21
1501.784653312712
 31
0.0
  0
LINE
  5
2AB5
330
1F
100
AcDbEntity
  8
AM_VIS
100
AcDbLine
 10
2918.427582336908
 20
1501.334653312712
 30
0.0
 11
2917.927582336908
 21
1501.784653312712
 31
0.0
  0
LINE
  5
2AB6
330
1F
100
AcDbEntity
  8
AM_VIS
100
AcDbLine
 10
2920.527582336908
 20
1501.334653312712
 30
0.0
 11
2918.427582336908
 21
1501.334653312712
 31
0.0
  0
LINE
  5
2AB7
330
1F
100
AcDbEntity
  8
AM_VIS
100
AcDbLine
 10
2922.227582336908
 20
1503.934653312712
 30
0.0
 11
2922.227582336908
 21
1503.034653312712
 31
0.0
  0
LINE
  5
2AB8
330
1F
100
AcDbEntity
  8
AM_VIS
100
AcDbLine
 10
2918.427582336908
 20
1505.634653312712
 30
0.0
 11
2920.527582336908
 21
1505.634653312712
 31
0.0
  0
LINE
  5
2AB9
330
1F
100
AcDbEntity
  8
AM_VIS
100
AcDbLine
 10
2917.927582336908
 20
1505.184653312712
 30
0.0
 11
2918.427582336908
 21
1505.634653312712
 31
0.0
  0
LINE
  5
2ABA
330
1F
100
AcDbEntity
  8
AM_VIS
100
AcDbLine
 10
2917.127582336908
 20
1505.184653312712
 30
0.0
 11
2917.927582336908
 21
1505.184653312712
 31
0.0
  0
LINE
  5
2ABB
330
1F
100
AcDbEntity
  8
AM_VIS
100
AcDbLine
 10
2916.927582336908
 20
1505.384653312712
 30
0.0
 11
2916.927582336908
 21
1508.584653316423
 31
0.0
  0
LINE
  5
2ABC
330
1F
100
AcDbEntity
  8
AM_VIS
100
AcDbLine
 10
2917.927582336908
 20
1508.784653316423
 30
0.0
 11
2917.127582336908
 21
1508.784653316423
 31
0.0
  0
LINE
  5
2ABD
330
1F
100
AcDbEntity
  8
AM_VIS
100
AcDbLine
 10
2918.427582336908
 20
1508.334653316423
 30
0.0
 11
2917.927582336908
 21
1508.784653316423
 31
0.0
  0
LINE
  5
2ABE
330
1F
100
AcDbEntity
  8
AM_VIS
100
AcDbLine
 10
2920.527582336908
 20
1508.334653316423
 30
0.0
 11
2918.427582336908
 21
1508.334653316423
 31
0.0
  0
LINE
  5
2ABF
330
1F
100
AcDbEntity
  8
AM_VIS
100
AcDbLine
 10
2922.227582336908
 20
1510.934653316423
 30
0.0
 11
2922.227582336908
 21
1510.034653316423
 31
0.0
  0
LINE
  5
2AC0
330
1F
100
AcDbEntity
  8
AM_VIS
100
AcDbLine
 10
2918.427582336908
 20
1512.634653316423
 30
0.0
 11
2920.527582336908
 21
1512.634653316423
 31
0.0
  0
LINE
  5
2AC1
330
1F
100
AcDbEntity
  8
AM_VIS
100
AcDbLine
 10
2917.927582336908
 20
1512.184653316423
 30
0.0
 11
2918.427582336908
 21
1512.634653316423
 31
0.0
  0
LINE
  5
2AC2
330
1F
100
AcDbEntity
  8
AM_VIS
100
AcDbLine
 10
2917.127582336908
 20
1512.184653316423
 30
0.0
 11
2917.927582336908
 21
1512.184653316423
 31
0.0
  0
LINE
  5
2AC3
330
1F
100
AcDbEntity
  8
AM_VIS
100
AcDbLine
 10
2916.927582336908
 20
1512.384653316423
 30
0.0
 11
2916.927582336908
 21
1519.262682474568
 31
0.0
  0
LINE
  5
2AC4
330
1F
100
AcDbEntity
  8
AM_VIS
100
AcDbLine
 10
2919.149553175053
 20
1521.484653312712
 30
0.0
 11
2943.705611495053
 21
1521.484653312712
 31
0.0
  0
LINE
  5
2AC5
330
1F
100
AcDbEntity
  8
AM_VIS
100
AcDbLine
 10
2945.927582333197
 20
1519.262682474568
 30
0.0
 11
2945.927582333197
 21
1512.384653320134
 31
0.0
  0
ARC
  5
2ACF
330
1F
100
AcDbEntity
  8
AM_VIS
100
AcDbCircle
 10
2942.327582336908
 20
1510.934653320134
 30
0.0
 40
1.7
100
AcDbArc
 50
90.0
 51
180.0
  0
ARC
  5
2AD0
330
1F
100
AcDbEntity
  8
AM_VIS
100
AcDbCircle
 10
2942.327582336908
 20
1510.034653320134
 30
0.0
 40
1.7
100
AcDbArc
 50
180.0
 51
270.0
  0
ARC
  5
2AD1
330
1F
100
AcDbEntity
  8
AM_VIS
100
AcDbCircle
 10
2945.727582336909
 20
1508.584653320134
 30
0.0
 40
0.2
100
AcDbArc
 50
0.0
 51
90.0
  0
ARC
  5
2AD2
330
1F
100
AcDbEntity
  8
AM_VIS
100
AcDbCircle
 10
2945.727582336909
 20
1505.384653316423
 30
0.0
 40
0.2
100
AcDbArc
 50
270.0
 51
0.0
  0
ARC
  5
2AD3
330
1F
100
AcDbEntity
  8
AM_VIS
100
AcDbCircle
 10
2942.327582336908
 20
1503.934653316423
 30
0.0
 40
1.7
100
AcDbArc
 50
90.0
 51
180.0
  0
ARC
  5
2AD4
330
1F
100
AcDbEntity
  8
AM_VIS
100
AcDbCircle
 10
2942.327582336908
 20
1503.034653316423
 30
0.0
 40
1.7
100
AcDbArc
 50
180.0
 51
270.0
  0
ARC
  5
2AD5
330
1F
100
AcDbEntity
  8
AM_VIS
100
AcDbCircle
 10
2945.727582336909
 20
1501.584653316423
 30
0.0
 40
0.2
100
AcDbArc
 50
0.0
 51
90.0
  0
ARC
  5
2AD6
330
1F
100
AcDbEntity
  8
AM_VIS
100
AcDbCircle
 10
2931.427582335053
 20
1506.984653314568
 30
0.0
 40
19.0
100
AcDbArc
 50
310.2566125850147
 51
319.7433874149937
  0
ARC
  5
2AD7
330
1F
100
AcDbEntity
  8
AM_VIS
100
AcDbCircle
 10
2936.827582340619
 20
1492.684653316423
 30
0.0
 40
0.2
100
AcDbArc
 50
180.0
 51
270.0
  0
ARC
  5
2AD8
330
1F
100
AcDbEntity
  8
AM_VIS
100
AcDbCircle
 10
2935.377582340619
 20
1496.084653316423
 30
0.0
 40
1.7
100
AcDbArc
 50
0.0
 51
90.0
  0
ARC
  5
2AD9
330
1F
100
AcDbEntity
  8
AM_VIS
100
AcDbCircle
 10
2934.477582340619
 20
1496.084653316423
 30
0.0
 40
1.7
100
AcDbArc
 50
90.0
 51
180.0
  0
ARC
  5
2ADA
330
1F
100
AcDbEntity
  8
AM_VIS
100
AcDbCircle
 10
2933.027582340619
 20
1492.684653316423
 30
0.0
 40
0.2
100
AcDbArc
 50
270.0
 51
0.0
  0
ARC
  5
2ADB
330
1F
100
AcDbEntity
  8
AM_VIS
100
AcDbCircle
 10
2929.827582336908
 20
1492.684653316423
 30
0.0
 40
0.2
100
AcDbArc
 50
180.0
 51
270.0
  0
ARC
  5
2ADC
330
1F
100
AcDbEntity
  8
AM_VIS
100
AcDbCircle
 10
2928.377582336908
 20
1496.084653316423
 30
0.0
 40
1.7
100
AcDbArc
 50
0.0
 51
90.0
  0
ARC
  5
2ADD
330
1F
100
AcDbEntity
  8
AM_VIS
100
AcDbCircle
 10
2927.477582336909
 20
1496.084653316423
 30
0.0
 40
1.7
100
AcDbArc
 50
90.0
 51
180.0
  0
ARC
  5
2ADE
330
1F
100
AcDbEntity
  8
AM_VIS
100
AcDbCircle
 10
2926.027582336908
 20
1492.684653316423
 30
0.0
 40
0.2
100
AcDbArc
 50
270.0
 51
0.0
  0
ARC
  5
2ADF
330
1F
100
AcDbEntity
  8
AM_VIS
100
AcDbCircle
 10
2931.427582335053
 20
1506.984653314568
 30
0.0
 40
19.0
100
AcDbArc
 50
220.2566125850063
 51
229.7433874149853
  0
ARC
  5
2AE0
330
1F
100
AcDbEntity
  8
AM_VIS
100
AcDbCircle
 10
2917.127582336908
 20
1501.584653312712
 30
0.0
 40
0.2
100
AcDbArc
 50
90.0
 51
180.0
  0
ARC
  5
2AE1
330
1F
100
AcDbEntity
  8
AM_VIS
100
AcDbCircle
 10
2920.527582336908
 20
1503.034653312712
 30
0.0
 40
1.7
100
AcDbArc
 50
270.0
 51
0.0
  0
ARC
  5
2AE2
330
1F
100
AcDbEntity
  8
AM_VIS
100
AcDbCircle
 10
2920.527582336908
 20
1503.934653312712
 30
0.0
 40
1.7
100
AcDbArc
 50
0.0
 51
90.0
  0
ARC
  5
2AE3
330
1F
100
AcDbEntity
  8
AM_VIS
100
AcDbCircle
 10
2917.127582336908
 20
1505.384653312712
 30
0.0
 40
0.2
100
AcDbArc
 50
180.0
 51
270.0
  0
ARC
  5
2AE4
330
1F
100
AcDbEntity
  8
AM_VIS
100
AcDbCircle
 10
2917.127582336908
 20
1508.584653316423
 30
0.0
 40
0.2
100
AcDbArc
 50
90.0
 51
180.0
  0
ARC
  5
2AE5
330
1F
100
AcDbEntity
  8
AM_VIS
100
AcDbCircle
 10
2920.527582336908
 20
1510.034653316423
 30
0.0
 40
1.7
100
AcDbArc
 50
270.0
 51
0.0
  0
ARC
  5
2AE6
330
1F
100
AcDbEntity
  8
AM_VIS
100
AcDbCircle
 10
2920.527582336908
 20
1510.934653316423
 30
0.0
 40
1.7
100
AcDbArc
 50
0.0
 51
90.0
  0
ARC
  5
2AE7
330
1F
100
AcDbEntity
  8
AM_VIS
100
AcDbCircle
 10
2917.127582336908
 20
1512.384653316423
 30
0.0
 40
0.2
100
AcDbArc
 50
180.0
 51
270.0
  0
ARC
  5
2AE8
330
1F
100
AcDbEntity
  8
AM_VIS
100
AcDbCircle
 10
2931.427582335053
 20
1506.984653314568
 30
0.0
 40
19.0
100
AcDbArc
 50
130.2566125850147
 51
139.7433874149937
  0
ARC
  5
2AE9
330
1F
100
AcDbEntity
  8
AM_VIS
100
AcDbCircle
 10
2931.427582335053
 20
1506.984653314568
 30
0.0
 40
19.0
100
AcDbArc
 50
40.25661258500628
 51
49.7433874149853
  0
ARC
  5
2AEA
330
1F
100
AcDbEntity
  8
AM_VIS
100
AcDbCircle
 10
2945.727582336909
 20
1512.384653320134
 30
0.0
 40
0.2
100
AcDbArc
 50
270.0
 51
0.0
  0
LINE
  5
2AF7
330
1F
100
AcDbEntity
  8
AM_VIS
100
AcDbLine
 10
2943.927582336908
 20
1491.484653316423
 30
0.0
 11
2918.927582336908
 21
1491.484653316423
 31
0.0
  0
LINE
  5
2AF8
330
1F
100
AcDbEntity
  8
AM_VIS
100
AcDbLine
 10
2918.927582336908
 20
1491.484653316423
 30
0.0
 11
2915.927582336908
 21
1494.484653316423
 31
0.0
  0
LINE
  5
2AF9
330
1F
100
AcDbEntity
  8
AM_VIS
100
AcDbLine
 10
2915.927582336908
 20
1494.484653316423
 30
0.0
 11
2915.927582336908
 21
1519.484653316423
 31
0.0
  0
LINE
  5
2AFA
330
1F
100
AcDbEntity
  8
AM_VIS
100
AcDbLine
 10
2915.927582336908
 20
1519.484653316423
 30
0.0
 11
2918.927582336908
 21
1522.484653316423
 31
0.0
  0
LINE
  5
2AFB
330
1F
100
AcDbEntity
  8
AM_VIS
100
AcDbLine
 10
2918.927582336908
 20
1522.484653316423
 30
0.0
 11
2943.927582336908
 21
1522.484653316423
 31
0.0
  0
LINE
  5
2AFC
330
1F
100
AcDbEntity
  8
AM_VIS
100
AcDbLine
 10
2943.927582336908
 20
1522.484653316423
 30
0.0
 11
2946.927582336908
 21
1519.484653316423
 31
0.0
  0
LINE
  5
2AFD
330
1F
100
AcDbEntity
  8
AM_VIS
100
AcDbLine
 10
2946.927582336908
 20
1519.484653316423
 30
0.0
 11
2946.927582336908
 21
1494.484653316423
 31
0.0
  0
LINE
  5
2AFE
330
1F
100
AcDbEntity
  8
AM_VIS
100
AcDbLine
 10
2946.927582336908
 20
1494.484653316423
 30
0.0
 11
2943.927582336908
 21
1491.484653316423
 31
0.0
  0
ARC
  5
2B00
330
1F
100
AcDbEntity
  8
AM_VIS
100
AcDbCircle
 10
2921.427582336908
 20
1506.984653316423
 30
0.0
 40
1.711
100
AcDbArc
 50
85.30541905623925
 51
127.9066975016375
  0
ARC
  5
2B01
330
1F
100
AcDbEntity
  8
AM_VIS
100
AcDbCircle
 10
2921.427582336908
 20
1506.984653316423
 30
0.0
 40
1.711
100
AcDbArc
 50
232.0933027006355
 51
274.6945807980153
  0
ARC
  5
2B02
330
1F
100
AcDbEntity
  8
AM_VIS
100
AcDbCircle
 10
2941.427582336908
 20
1506.984653316423
 30
0.0
 40
1.711
100
AcDbArc
 50
52.09330270062753
 51
94.69458079804125
  0
ARC
  5
2B03
330
1F
100
AcDbEntity
  8
AM_VIS
100
AcDbCircle
 10
2941.427582336908
 20
1506.984653316423
 30
0.0
 40
1.711
100
AcDbArc
 50
265.3054190562392
 51
307.9066975016295
  0
ARC
  5
2B04
330
1F
100
AcDbEntity
  8
AM_VIS
100
AcDbCircle
 10
2931.427582336908
 20
1496.984653316423
 30
0.0
 40
1.711
100
AcDbArc
 50
322.0933027006275
 51
4.694580798027188
  0
ARC
  5
2B05
330
1F
100
AcDbEntity
  8
AM_VIS
100
AcDbCircle
 10
2931.427582336908
 20
1496.984653316423
 30
0.0
 40
1.711
100
AcDbArc
 50
175.3054190562262
 51
217.9066975016398
  0
LINE
  5
2B06
330
1F
100
AcDbEntity
  8
AM_VIS
100
AcDbLine
 10
2982.815165515454
 20
1534.542594426336
 30
0.0
 11
2982.815165515454
 21
1563.042594426336
 31
0.0
  0
LINE
  5
2B07
330
1F
100
AcDbEntity
  8
AM_VIS
100
AcDbLine
 10
3009.593194673598
 20
1534.542594426336
 30
0.0
 11
3009.593194673598
 21
1563.042594426336
 31
0.0
  0
LINE
  5
2B08
330
1F
100
AcDbEntity
  8
AM_VIS
100
AcDbLine
 10
3007.371223835453
 20
1534.542594426336
 30
0.0
 11
3007.371223835453
 21
1563.042594426336
 31
0.0
  0
LINE
  5
2B09
330
1F
100
AcDbEntity
  8
AM_VIS
100
AcDbLine
 10
2996.893194673598
 20
1534.542594426336
 30
0.0
 11
2996.893194673598
 21
1563.042594426336
 31
0.0
  0
LINE
  5
2B0A
330
1F
100
AcDbEntity
  8
AM_VIS
100
AcDbLine
 10
3000.293194673598
 20
1534.542594426336
 30
0.0
 11
3000.293194673598
 21
1563.042594426336
 31
0.0
  0
LINE
  5
2B0B
330
1F
100
AcDbEntity
  8
AM_VIS
100
AcDbLine
 10
2989.893194669887
 20
1534.542594426336
 30
0.0
 11
2989.893194669887
 21
1563.042594426336
 31
0.0
  0
LINE
  5
2B0C
330
1F
100
AcDbEntity
  8
AM_VIS
100
AcDbLine
 10
2993.293194669887
 20
1534.542594426336
 30
0.0
 11
2993.293194669887
 21
1563.042594426336
 31
0.0
  0
LINE
  5
2B0D
330
1F
100
AcDbEntity
  8
AM_VIS
100
AcDbLine
 10
2989.693194669886
 20
1563.042594426336
 30
0.0
 11
2982.815165515453
 21
1563.042594426336
 31
0.0
  0
LINE
  5
2B0E
330
1F
100
AcDbEntity
  8
AM_VIS
100
AcDbLine
 10
3007.371223835453
 20
1563.042594426336
 30
0.0
 11
3000.493194673598
 21
1563.042594426336
 31
0.0
  0
LINE
  5
2B0F
330
1F
100
AcDbEntity
  8
AM_VIS
100
AcDbLine
 10
2998.143194673597
 20
1563.042594426336
 30
0.0
 11
2999.043194673598
 21
1563.042594426336
 31
0.0
  0
LINE
  5
2B10
330
1F
100
AcDbEntity
  8
AM_VIS
100
AcDbLine
 10
2996.693194673598
 20
1563.042594426336
 30
0.0
 11
2993.493194669887
 21
1563.042594426336
 31
0.0
  0
LINE
  5
2B11
330
1F
100
AcDbEntity
  8
AM_VIS
100
AcDbLine
 10
2991.143194669887
 20
1563.042594426336
 30
0.0
 11
2992.043194669887
 21
1563.042594426336
 31
0.0
  0
LINE
  5
2B12
330
1F
100
AcDbEntity
  8
AM_VIS
100
AcDbLine
 10
2980.593194677309
 20
1534.542594426336
 30
0.0
 11
2980.593194677309
 21
1563.042594426336
 31
0.0
  0
LINE
  5
2B13
330
1F
100
AcDbEntity
  8
AM_VIS
100
AcDbLine
 10
2992.043194669887
 20
1534.542594426336
 30
0.0
 11
2991.143194669887
 21
1534.542594426336
 31
0.0
  0
LINE
  5
2B14
330
1F
100
AcDbEntity
  8
AM_VIS
100
AcDbLine
 10
2993.493194669887
 20
1534.542594426336
 30
0.0
 11
2996.693194673598
 21
1534.542594426336
 31
0.0
  0
LINE
  5
2B15
330
1F
100
AcDbEntity
  8
AM_VIS
100
AcDbLine
 10
2999.043194673598
 20
1534.542594426336
 30
0.0
 11
2998.143194673597
 21
1534.542594426336
 31
0.0
  0
LINE
  5
2B16
330
1F
100
AcDbEntity
  8
AM_VIS
100
AcDbLine
 10
3000.493194673598
 20
1534.542594426336
 30
0.0
 11
3007.371223835453
 21
1534.542594426336
 31
0.0
  0
LINE
  5
2B17
330
1F
100
AcDbEntity
  8
AM_VIS
100
AcDbLine
 10
2982.815165515453
 20
1534.542594426336
 30
0.0
 11
2989.693194669886
 21
1534.542594426336
 31
0.0
  0
LINE
  5
2B18
330
1F
100
AcDbEntity
  8
AM_VIS
100
AcDbLine
 10
2980.593194677309
 20
1563.042594426336
 30
0.0
 11
2982.815165515454
 21
1563.042594426336
 31
0.0
  0
LINE
  5
2B19
330
1F
100
AcDbEntity
  8
AM_VIS
100
AcDbLine
 10
3007.371223835453
 20
1563.042594426336
 30
0.0
 11
3009.593194673598
 21
1563.042594426336
 31
0.0
  0
LINE
  5
2B1A
330
1F
100
AcDbEntity
  8
AM_VIS
100
AcDbLine
 10
3000.493194673598
 20
1563.042594426336
 30
0.0
 11
3000.293194673598
 21
1563.042594426336
 31
0.0
  0
LINE
  5
2B1B
330
1F
100
AcDbEntity
  8
AM_VIS
100
AcDbLine
 10
2999.043194673598
 20
1563.042594426336
 30
0.0
 11
3000.293194673598
 21
1563.042594426336
 31
0.0
  0
LINE
  5
2B1C
330
1F
100
AcDbEntity
  8
AM_VIS
100
AcDbLine
 10
2996.893194673598
 20
1563.042594426336
 30
0.0
 11
2998.143194673597
 21
1563.042594426336
 31
0.0
  0
LINE
  5
2B1D
330
1F
100
AcDbEntity
  8
AM_VIS
100
AcDbLine
 10
2996.893194673598
 20
1563.042594426336
 30
0.0
 11
2996.693194673598
 21
1563.042594426336
 31
0.0
  0
LINE
  5
2B1E
330
1F
100
AcDbEntity
  8
AM_VIS
100
AcDbLine
 10
2993.493194669887
 20
1563.042594426336
 30
0.0
 11
2993.293194669887
 21
1563.042594426336
 31
0.0
  0
LINE
  5
2B1F
330
1F
100
AcDbEntity
  8
AM_VIS
100
AcDbLine
 10
2992.043194669887
 20
1563.042594426336
 30
0.0
 11
2993.293194669887
 21
1563.042594426336
 31
0.0
  0
LINE
  5
2B20
330
1F
100
AcDbEntity
  8
AM_VIS
100
AcDbLine
 10
2989.893194669887
 20
1563.042594426336
 30
0.0
 11
2991.143194669887
 21
1563.042594426336
 31
0.0
  0
LINE
  5
2B21
330
1F
100
AcDbEntity
  8
AM_VIS
100
AcDbLine
 10
2989.893194669887
 20
1563.042594426336
 30
0.0
 11
2989.693194669886
 21
1563.042594426336
 31
0.0
  0
LINE
  5
2B22
330
1F
100
AcDbEntity
  8
AM_VIS
100
AcDbLine
 10
2991.143194669887
 20
1534.542594426336
 30
0.0
 11
2989.893194669887
 21
1534.542594426336
 31
0.0
  0
LINE
  5
2B23
330
1F
100
AcDbEntity
  8
AM_VIS
100
AcDbLine
 10
2993.293194669887
 20
1534.542594426336
 30
0.0
 11
2992.043194669887
 21
1534.542594426336
 31
0.0
  0
LINE
  5
2B24
330
1F
100
AcDbEntity
  8
AM_VIS
100
AcDbLine
 10
2993.293194669887
 20
1534.542594426336
 30
0.0
 11
2993.493194669887
 21
1534.542594426336
 31
0.0
  0
LINE
  5
2B25
330
1F
100
AcDbEntity
  8
AM_VIS
100
AcDbLine
 10
2996.693194673598
 20
1534.542594426336
 30
0.0
 11
2996.893194673598
 21
1534.542594426336
 31
0.0
  0
LINE
  5
2B26
330
1F
100
AcDbEntity
  8
AM_VIS
100
AcDbLine
 10
2998.143194673597
 20
1534.542594426336
 30
0.0
 11
2996.893194673598
 21
1534.542594426336
 31
0.0
  0
LINE
  5
2B27
330
1F
100
AcDbEntity
  8
AM_VIS
100
AcDbLine
 10
3000.293194673598
 20
1534.542594426336
 30
0.0
 11
2999.043194673598
 21
1534.542594426336
 31
0.0
  0
LINE
  5
2B28
330
1F
100
AcDbEntity
  8
AM_VIS
100
AcDbLine
 10
3000.293194673598
 20
1534.542594426336
 30
0.0
 11
3000.493194673598
 21
1534.542594426336
 31
0.0
  0
LINE
  5
2B29
330
1F
100
AcDbEntity
  8
AM_VIS
100
AcDbLine
 10
3009.593194673598
 20
1534.542594426336
 30
0.0
 11
3007.371223835453
 21
1534.542594426336
 31
0.0
  0
LINE
  5
2B2A
330
1F
100
AcDbEntity
  8
AM_VIS
100
AcDbLine
 10
2982.815165515453
 20
1534.542594426336
 30
0.0
 11
2980.593194677309
 21
1534.542594426336
 31
0.0
  0
LINE
  5
2B2B
330
1F
100
AcDbEntity
  8
AM_VIS
100
AcDbLine
 10
2989.693194669886
 20
1534.542594426336
 30
0.0
 11
2989.893194669887
 21
1534.542594426336
 31
0.0
  0
LINE
  5
2B2C
330
1F
100
AcDbEntity
  8
AM_VIS
100
AcDbLine
 10
3007.093194673597
 20
1563.042594426336
 30
0.0
 11
3007.093194673597
 21
1568.042594426336
 31
0.0
  0
LINE
  5
2B2D
330
1F
100
AcDbEntity
  8
AM_VIS
100
AcDbLine
 10
3003.093194673597
 20
1563.042594426336
 30
0.0
 11
3003.093194673597
 21
1568.042594426336
 31
0.0
  0
LINE
  5
2B2E
330
1F
100
AcDbEntity
  8
AM_VIS
100
AcDbLine
 10
2987.093194673598
 20
1563.042594426336
 30
0.0
 11
2987.093194673598
 21
1568.042594426336
 31
0.0
  0
LINE
  5
2B2F
330
1F
100
AcDbEntity
  8
AM_VIS
100
AcDbLine
 10
2983.093194673598
 20
1563.042594426336
 30
0.0
 11
2983.093194673598
 21
1568.042594426336
 31
0.0
  0
LINE
  5
2B30
330
1F
100
AcDbEntity
  8
AM_VIS
100
AcDbLine
 10
2992.093194673598
 20
1564.542594426336
 30
0.0
 11
2992.593194673598
 21
1565.542594426336
 31
0.0
  0
LINE
  5
2B31
330
1F
100
AcDbEntity
  8
AM_VIS
100
AcDbLine
 10
2992.593194673597
 20
1568.042594426336
 30
0.0
 11
2992.593194673597
 21
1567.676569022552
 31
0.0
  0
LINE
  5
2B32
330
1F
100
AcDbEntity
  8
AM_VIS
100
AcDbLine
 10
2992.593194673598
 20
1567.676569022552
 30
0.0
 11
2992.593194673598
 21
1565.542594426336
 31
0.0
  0
LINE
  5
2B33
330
1F
100
AcDbEntity
  8
AM_VIS
100
AcDbLine
 10
2997.593194673598
 20
1565.542594426336
 30
0.0
 11
2998.093194673598
 21
1564.542594426336
 31
0.0
  0
LINE
  5
2B34
330
1F
100
AcDbEntity
  8
AM_VIS
100
AcDbLine
 10
2997.593194673597
 20
1568.042594426336
 30
0.0
 11
2997.593194673597
 21
1567.676569022552
 31
0.0
  0
LINE
  5
2B35
330
1F
100
AcDbEntity
  8
AM_VIS
100
AcDbLine
 10
2997.593194673598
 20
1565.542594426336
 30
0.0
 11
2997.593194673598
 21
1567.676569022552
 31
0.0
  0
LINE
  5
2B36
330
1F
100
AcDbEntity
  8
AM_VIS
100
AcDbLine
 10
2998.093194673598
 20
1563.042594426336
 30
0.0
 11
2998.093194673598
 21
1564.542594426336
 31
0.0
  0
LINE
  5
2B37
330
1F
100
AcDbEntity
  8
AM_VIS
100
AcDbLine
 10
2992.093194673598
 20
1563.042594426336
 30
0.0
 11
2992.093194673598
 21
1564.542594426336
 31
0.0
  0
LINE
  5
2B38
330
1F
100
AcDbEntity
  8
AM_VIS
100
AcDbLine
 10
2997.593194673598
 20
1567.676569022552
 30
0.0
 11
2992.593194673598
 21
1567.676569022552
 31
0.0
  0
LINE
  5
2B39
330
1F
100
AcDbEntity
  8
AM_VIS
100
AcDbLine
 10
2979.593194673597
 20
1568.042594426336
 30
0.0
 11
2982.593194673598
 21
1568.042594426336
 31
0.0
  0
LINE
  5
2B3A
330
1F
100
AcDbEntity
  8
AM_VIS
100
AcDbLine
 10
2979.593194673597
 20
1574.042594426336
 30
0.0
 11
2979.593194673597
 21
1568.042594426336
 31
0.0
  0
LINE
  5
2B3B
330
1F
100
AcDbEntity
  8
AM_VIS
100
AcDbLine
 10
2982.593194673598
 20
1574.042594426336
 30
0.0
 11
2979.593194673597
 21
1574.042594426336
 31
0.0
  0
LINE
  5
2B3C
330
1F
100
AcDbEntity
  8
AM_VIS
100
AcDbLine
 10
2982.593194673598
 20
1568.042594426336
 30
0.0
 11
3007.593194673598
 21
1568.042594426336
 31
0.0
  0
LINE
  5
2B3D
330
1F
100
AcDbEntity
  8
AM_VIS
100
AcDbLine
 10
2982.593194673598
 20
1568.042594426336
 30
0.0
 11
2982.593194673598
 21
1574.042594426336
 31
0.0
  0
LINE
  5
2B3E
330
1F
100
AcDbEntity
  8
AM_VIS
100
AcDbLine
 10
3007.593194673598
 20
1574.042594426336
 30
0.0
 11
2982.593194673598
 21
1574.042594426336
 31
0.0
  0
LINE
  5
2B3F
330
1F
100
AcDbEntity
  8
AM_VIS
100
AcDbLine
 10
3010.593194673598
 20
1568.042594426336
 30
0.0
 11
3010.593194673598
 21
1574.042594426336
 31
0.0
  0
LINE
  5
2B40
330
1F
100
AcDbEntity
  8
AM_VIS
100
AcDbLine
 10
3007.593194673598
 20
1568.042594426336
 30
0.0
 11
3010.593194673598
 21
1568.042594426336
 31
0.0
  0
LINE
  5
2B41
330
1F
100
AcDbEntity
  8
AM_VIS
100
AcDbLine
 10
3007.593194673598
 20
1574.042594426336
 30
0.0
 11
3007.593194673598
 21
1568.042594426336
 31
0.0
  0
LINE
  5
2B42
330
1F
100
AcDbEntity
  8
AM_VIS
100
AcDbLine
 10
3010.593194673598
 20
1574.042594426336
 30
0.0
 11
3007.593194673598
 21
1574.042594426336
 31
0.0
  0
LINE
  5
2B43
330
1F
100
AcDbEntity
  8
AM_7
100
AcDbLine
 10
2921.427582340619
 20
1560.734821761673
 30
0.0
 11
2921.427582340619
 21
1570.212594426336
 31
0.0
  0
LINE
  5
2B44
330
1F
100
AcDbEntity
  8
AM_7
100
AcDbLine
 10
2941.427582333197
 20
1560.734821761673
 30
0.0
 11
2941.427582333197
 21
1570.212594426336
 31
0.0
  0
LINE
  5
2B51
330
1F
100
AcDbEntity
  8
AM_7
100
AcDbLine
 10
2931.427582336983
 20
1576.042594426336
 30
0.0
 11
2931.427582334978
 21
1532.542594426336
 31
0.0
1001
GENIUS_GENOBJ-N-CEN_13
1002
{
1000
OWNER
1000
GEN
1002
}
1001
GENIUS_GENODEF_13
1002
{
1000
HIER
1070
     0
1002
}
1002
{
1000
MANEDIT
1070
     0
1002
}
1002
{
1000
NOSEL
1070
     0
1002
}
1002
{
1000
BEHIND
1070
     0
1002
}
1002
{
1000
OTHER
1070
     0
1002
}
1002
{
1000
REACTOR
1002
}
1001
GENIUS_GENCEN_19
1002
{
1040
2.0
1002
}
  0
LINE
  5
2B5E
330
1F
100
AcDbEntity
  8
AM_7
100
AcDbLine
 10
2995.093194673673
 20
1576.042594426336
 30
0.0
 11
2995.093194671667
 21
1532.542594426336
 31
0.0
1001
GENIUS_GENODEF_13
1002
{
1000
HIER
1070
     0
1002
}
1002
{
1000
MANEDIT
1070
     0
1002
}
1002
{
1000
NOSEL
1070
     0
1002
}
1002
{
1000
BEHIND
1070
     0
1002
}
1002
{
1000
OTHER
1070
     0
1002
}
1002
{
1000
REACTOR
1002
}
1001
GENIUS_GENOBJ-N-CEN_13
1002
{
1000
OWNER
1000
GEN
1002
}
1001
GENIUS_GENCEN_19
1002
{
1040
2.0
1002
}
  0
CIRCLE
  5
2B5F
330
1F
100
AcDbEntity
  8
0
100
AcDbCircle
 10
2931.427582336908
 20
1506.984653316423
 30
0.0
 40
8.5
  0
LINE
  5
2B6D
330
1F
100
AcDbEntity
  8
AM_7
100
AcDbLine
 10
2931.427582336908
 20
1506.984653316423
 30
0.0
 11
2948.927582336908
 21
1506.984653316423
 31
0.0
1001
GENIUS_GENOREF_13
1005
2B71
  0
LINE
  5
2B6E
330
1F
100
AcDbEntity
  8
AM_7
100
AcDbLine
 10
2931.427582336908
 20
1506.984653316423
 30
0.0
 11
2931.427582336908
 21
1524.484653316423
 31
0.0
1001
GENIUS_GENOREF_13
1005
2B71
  0
LINE
  5
2B6F
330
1F
100
AcDbEntity
  8
AM_7
100
AcDbLine
 10
2931.427582336908
 20
1506.984653316423
 30
0.0
 11
2913.927582336908
 21
1506.984653316423
 31
0.0
1001
GENIUS_GENOREF_13
1005
2B71
  0
LINE
  5
2B70
330
1F
100
AcDbEntity
  8
AM_7
100
AcDbLine
 10
2931.427582336908
 20
1506.984653316423
 30
0.0
 11
2931.427582336908
 21
1489.484653316424
 31
0.0
1001
GENIUS_GENOREF_13
1005
2B71
  0
POINT
  5
2B71
330
1F
100
AcDbEntity
  8
0
 60
     1
100
AcDbPoint
 10
0.0
 20
0.0
 30
0.0
1001
GENIUS_GENOLIS_13
1002
{
1000
ENT
1005
2B70
1005
2B6F
1005
2B6E
1005
2B6D
1002
}
1001
GENIUS_GENOENT_13
1002
{
1000
MYREF
1005
2B71
1002
}
1002
{
1000
GRP
1005
0
1002
}
1001
GENIUS_GENOBJ-N-CRS_13
1002
{
1000
OWNER
1000
GEN
1002
}
1001
GENIUS_GENODEF_13
1002
{
1000
HIER
1070
    10
1002
}
1002
{
1000
MANEDIT
1070
     0
1002
}
1002
{
1000
NOSEL
1070
     0
1002
}
1002
{
1000
BEHIND
1070
     0
1002
}
1002
{
1000
OTHER
1070
     0
1002
}
1002
{
1000
REACTOR
1002
}
  0
ARC
  5
2BB7
330
1F
100
AcDbEntity
  8
AM_4
100
AcDbCircle
 10
2921.427582336908
 20
1516.984653312712
 30
0.0
 40
2.5
100
AcDbArc
 50
260.0
 51
170.0
  0
CIRCLE
  5
2BB8
330
1F
100
AcDbEntity
  8
AM_0
100
AcDbCircle
 10
2921.427582336908
 20
1516.984653312712
 30
0.0
 40
2.066987298107819
  0
LINE
  5
2BB9
330
1F
100
AcDbEntity
  8
AM_7
  6
AM_ISO08W050x2
100
AcDbLine
 10
2918.277582336908
 20
1516.984653312712
 30
0.0
 11
2924.577582336909
 21
1516.984653312712
 31
0.0
  0
LINE
  5
2BBA
330
1F
100
AcDbEntity
  8
AM_7
  6
AM_ISO08W050x2
100
AcDbLine
 10
2921.427582336908
 20
1513.834653312712
 30
0.0
 11
2921.427582336908
 21
1520.134653312712
 31
0.0
  0
ARC
  5
2BBB
330
1F
100
AcDbEntity
  8
AM_4
100
AcDbCircle
 10
2941.427582333197
 20
1516.984653316423
 30
0.0
 40
2.5
100
AcDbArc
 50
260.0
 51
170.0
  0
CIRCLE
  5
2BBC
330
1F
100
AcDbEntity
  8
AM_0
100
AcDbCircle
 10
2941.427582333197
 20
1516.984653316423
 30
0.0
 40
2.066987298107819
  0
ARC
  5
2BBF
330
1F
100
AcDbEntity
  8
AM_4
100
AcDbCircle
 10
2921.427582340619
 20
1496.984653316423
 30
0.0
 40
2.5
100
AcDbArc
 50
260.0
 51
170.0
  0
CIRCLE
  5
2BC0
330
1F
100
AcDbEntity
  8
AM_0
100
AcDbCircle
 10
2921.427582340619
 20
1496.984653316423
 30
0.0
 40
2.066987298107819
  0
ARC
  5
2BC3
330
1F
100
AcDbEntity
  8
AM_4
100
AcDbCircle
 10
2941.427582333197
 20
1496.984653316423
 30
0.0
 40
2.5
100
AcDbArc
 50
260.0
 51
170.0
  0
CIRCLE
  5
2BC4
330
1F
100
AcDbEntity
  8
AM_0
100
AcDbCircle
 10
2941.427582333197
 20
1496.984653316423
 30
0.0
 40
2.066987298107819
  0
ARC
  5
2BC9
330
1F
100
AcDbEntity
  8
AM_4
100
AcDbCircle
 10
2931.427582335322
 20
1541.742594426336
 30
0.0
 40
2.5
100
AcDbArc
 50
260.0
 51
170.0
  0
CIRCLE
  5
2BCA
330
1F
100
AcDbEntity
  8
AM_0
100
AcDbCircle
 10
2931.427582335322
 20
1541.742594426336
 30
0.0
 40
2.066987298107819
  0
ARC
  5
2BCB
330
1F
100
AcDbEntity
  8
AM_4
100
AcDbCircle
 10
2931.427582335053
 20
1555.842594426336
 30
0.0
 40
2.5
100
AcDbArc
 50
260.0
 51
170.0
  0
CIRCLE
  5
2BCC
330
1F
100
AcDbEntity
  8
AM_0
100
AcDbCircle
 10
2931.427582335053
 20
1555.842594426336
 30
0.0
 40
2.066987298107819
  0
LINE
  5
2BCD
330
1F
100
AcDbEntity
  8
AM_7
  6
AM_ISO08W050x2
100
AcDbLine
 10
2938.277582333197
 20
1516.984653316423
 30
0.0
 11
2944.577582333197
 21
1516.984653316423
 31
0.0
  0
LINE
  5
2BCE
330
1F
100
AcDbEntity
  8
AM_7
  6
AM_ISO08W050x2
100
AcDbLine
 10
2941.427582333197
 20
1513.834653316423
 30
0.0
 11
2941.427582333197
 21
1520.134653316423
 31
0.0
  0
LINE
  5
2BCF
330
1F
100
AcDbEntity
  8
AM_7
  6
AM_ISO08W050x2
100
AcDbLine
 10
2938.277582333197
 20
1496.984653316423
 30
0.0
 11
2944.577582333197
 21
1496.984653316423
 31
0.0
  0
LINE
  5
2BD0
330
1F
100
AcDbEntity
  8
AM_7
  6
AM_ISO08W050x2
100
AcDbLine
 10
2941.427582333197
 20
1493.834653316423
 30
0.0
 11
2941.427582333197
 21
1500.134653316423
 31
0.0
  0
LINE
  5
2BD1
330
1F
100
AcDbEntity
  8
AM_7
  6
AM_ISO08W050x2
100
AcDbLine
 10
2918.277582340619
 20
1496.984653316423
 30
0.0
 11
2924.577582340619
 21
1496.984653316423
 31
0.0
  0
LINE
  5
2BD2
330
1F
100
AcDbEntity
  8
AM_7
  6
AM_ISO08W050x2
100
AcDbLine
 10
2921.427582340619
 20
1493.834653316423
 30
0.0
 11
2921.427582340619
 21
1500.134653316423
 31
0.0
  0
ARC
  5
2C30
330
1F
100
AcDbEntity
  8
AM_4
100
AcDbCircle
 10
2921.427582336908
 20
1612.77479186295
 30
0.0
 40
2.0
100
AcDbArc
 50
260.0
 51
170.0
  0
CIRCLE
  5
2C31
330
1F
100
AcDbEntity
  8
AM_0
100
AcDbCircle
 10
2921.427582336908
 20
1612.77479186295
 30
0.0
 40
1.621113885844339
  0
LINE
  5
2C32
330
1F
100
AcDbEntity
  8
AM_7
  6
AM_ISO08W050x2
100
AcDbLine
 10
2921.427582336908
 20
1612.77479186295
 30
0.0
 11
2924.324473445583
 21
1612.77479186295
 31
0.0
1001
GENIUS_GENOREF_13
1005
2C36
  0
LINE
  5
2C33
330
1F
100
AcDbEntity
  8
AM_7
  6
AM_ISO08W050x2
100
AcDbLine
 10
2921.427582336908
 20
1612.77479186295
 30
0.0
 11
2921.427582336908
 21
1615.671682971625
 31
0.0
1001
GENIUS_GENOREF_13
1005
2C36
  0
LINE
  5
2C34
330
1F
100
AcDbEntity
  8
AM_7
  6
AM_ISO08W050x2
100
AcDbLine
 10
2921.427582336908
 20
1612.77479186295
 30
0.0
 11
2918.530691228233
 21
1612.77479186295
 31
0.0
1001
GENIUS_GENOREF_13
1005
2C36
  0
LINE
  5
2C35
330
1F
100
AcDbEntity
  8
AM_7
  6
AM_ISO08W050x2
100
AcDbLine
 10
2921.427582336908
 20
1612.77479186295
 30
0.0
 11
2921.427582336908
 21
1609.877900754274
 31
0.0
1001
GENIUS_GENOREF_13
1005
2C36
  0
POINT
  5
2C36
330
1F
100
AcDbEntity
  8
0
 60
     1
100
AcDbPoint
 10
22.10079417750376
 20
9.607343884636975
 30
0.0
1001
GENIUS_GENOLIS_13
1002
{
1000
ENT
1005
2C35
1005
2C34
1005
2C33
1005
2C32
1002
}
1001
GENIUS_GENOENT_13
1002
{
1000
MYREF
1005
2C36
1002
}
1002
{
1000
GRP
1005
0
1002
}
1001
GENIUS_GENOBJ-N-CRS_13
1002
{
1000
OWNER
1000
GEN
1002
}
1001
GENIUS_GENODEF_13
1002
{
1000
HIER
1070
    10
1002
}
1002
{
1000
MANEDIT
1070
     0
1002
}
1002
{
1000
NOSEL
1070
     0
1002
}
1002
{
1000
BEHIND
1070
     0
1002
}
1002
{
1000
OTHER
1070
     0
1002
}
1002
{
1000
REACTOR
1002
}
  0
ARC
  5
2C37
330
1F
100
AcDbEntity
  8
AM_4
100
AcDbCircle
 10
2941.427582336908
 20
1612.77479186295
 30
0.0
 40
2.0
100
AcDbArc
 50
260.0
 51
170.0
  0
CIRCLE
  5
2C38
330
1F
100
AcDbEntity
  8
AM_0
100
AcDbCircle
 10
2941.427582336908
 20
1612.77479186295
 30
0.0
 40
1.621113885844339
  0
LINE
  5
2C39
330
1F
100
AcDbEntity
  8
AM_7
  6
AM_ISO08W050x2
100
AcDbLine
 10
2941.427582336908
 20
1612.77479186295
 30
0.0
 11
2944.324473445584
 21
1612.77479186295
 31
0.0
1001
GENIUS_GENOREF_13
1005
2C3D
  0
LINE
  5
2C3A
330
1F
100
AcDbEntity
  8
AM_7
  6
AM_ISO08W050x2
100
AcDbLine
 10
2941.427582336908
 20
1612.77479186295
 30
0.0
 11
2941.427582336908
 21
1615.671682971625
 31
0.0
1001
GENIUS_GENOREF_13
1005
2C3D
  0
LINE
  5
2C3B
330
1F
100
AcDbEntity
  8
AM_7
  6
AM_ISO08W050x2
100
AcDbLine
 10
2941.427582336908
 20
1612.77479186295
 30
0.0
 11
2938.530691228233
 21
1612.77479186295
 31
0.0
1001
GENIUS_GENOREF_13
1005
2C3D
  0
LINE
  5
2C3C
330
1F
100
AcDbEntity
  8
AM_7
  6
AM_ISO08W050x2
100
AcDbLine
 10
2941.427582336908
 20
1612.77479186295
 30
0.0
 11
2941.427582336908
 21
1609.877900754274
 31
0.0
1001
GENIUS_GENOREF_13
1005
2C3D
  0
POINT
  5
2C3D
330
1F
100
AcDbEntity
  8
0
 60
     1
100
AcDbPoint
 10
42.10079417750375
 20
9.607343884636975
 30
0.0
1001
GENIUS_GENOLIS_13
1002
{
1000
ENT
1005
2C3C
1005
2C3B
1005
2C3A
1005
2C39
1002
}
1001
GENIUS_GENOENT_13
1002
{
1000
MYREF
1005
2C3D
1002
}
1002
{
1000
GRP
1005
0
1002
}
1001
GENIUS_GENOBJ-N-CRS_13
1002
{
1000
OWNER
1000
GEN
1002
}
1001
GENIUS_GENODEF_13
1002
{
1000
HIER
1070
    10
1002
}
1002
{
1000
MANEDIT
1070
     0
1002
}
1002
{
1000
NOSEL
1070
     0
1002
}
1002
{
1000
BEHIND
1070
     0
1002
}
1002
{
1000
OTHER
1070
     0
1002
}
1002
{
1000
REACTOR
1002
}
  0
ARC
  5
2C3E
330
1F
100
AcDbEntity
  8
AM_4
100
AcDbCircle
 10
2931.427582336908
 20
1622.77479186295
 30
0.0
 40
2.0
100
AcDbArc
 50
260.0
 51
170.0
  0
CIRCLE
  5
2C3F
330
1F
100
AcDbEntity
  8
AM_0
100
AcDbCircle
 10
2931.427582336908
 20
1622.77479186295
 30
0.0
 40
1.621113885844339
  0
LINE
  5
2C40
330
1F
100
AcDbEntity
  8
AM_7
  6
AM_ISO08W050x2
100
AcDbLine
 10
2931.427582336908
 20
1622.77479186295
 30
0.0
 11
2934.324473445583
 21
1622.77479186295
 31
0.0
1001
GENIUS_GENOREF_13
1005
2C44
  0
LINE
  5
2C41
330
1F
100
AcDbEntity
  8
AM_7
  6
AM_ISO08W050x2
100
AcDbLine
 10
2931.427582336908
 20
1622.77479186295
 30
0.0
 11
2931.427582336908
 21
1625.671682971625
 31
0.0
1001
GENIUS_GENOREF_13
1005
2C44
  0
LINE
  5
2C42
330
1F
100
AcDbEntity
  8
AM_7
  6
AM_ISO08W050x2
100
AcDbLine
 10
2931.427582336908
 20
1622.77479186295
 30
0.0
 11
2928.530691228233
 21
1622.77479186295
 31
0.0
1001
GENIUS_GENOREF_13
1005
2C44
  0
LINE
  5
2C43
330
1F
100
AcDbEntity
  8
AM_7
  6
AM_ISO08W050x2
100
AcDbLine
 10
2931.427582336908
 20
1622.77479186295
 30
0.0
 11
2931.427582336908
 21
1619.877900754274
 31
0.0
1001
GENIUS_GENOREF_13
1005
2C44
  0
POINT
  5
2C44
330
1F
100
AcDbEntity
  8
0
 60
     1
100
AcDbPoint
 10
32.10079417750376
 20
19.60734388463697
 30
0.0
1001
GENIUS_GENOLIS_13
1002
{
1000
ENT
1005
2C43
1005
2C42
1005
2C41
1005
2C40
1002
}
1001
GENIUS_GENOENT_13
1002
{
1000
MYREF
1005
2C44
1002
}
1002
{
1000
GRP
1005
0
1002
}
1001
GENIUS_GENOBJ-N-CRS_13
1002
{
1000
OWNER
1000
GEN
1002
}
1001
GENIUS_GENODEF_13
1002
{
1000
HIER
1070
    10
1002
}
1002
{
1000
MANEDIT
1070
     0
1002
}
1002
{
1000
NOSEL
1070
     0
1002
}
1002
{
1000
BEHIND
1070
     0
1002
}
1002
{
1000
OTHER
1070
     0
1002
}
1002
{
1000
REACTOR
1002
}
  0
ARC
  5
2C45
330
1F
100
AcDbEntity
  8
AM_4
100
AcDbCircle
 10
2931.427582336908
 20
1602.77479186295
 30
0.0
 40
2.0
100
AcDbArc
 50
260.0
 51
170.0
  0
CIRCLE
  5
2C46
330
1F
100
AcDbEntity
  8
AM_0
100
AcDbCircle
 10
2931.427582336908
 20
1602.77479186295
 30
0.0
 40
1.621113885844339
  0
LINE
  5
2C47
330
1F
100
AcDbEntity
  8
AM_7
  6
AM_ISO08W050x2
100
AcDbLine
 10
2931.427582336908
 20
1602.77479186295
 30
0.0
 11
2934.324473445583
 21
1602.77479186295
 31
0.0
1001
GENIUS_GENOREF_13
1005
2C4B
  0
LINE
  5
2C48
330
1F
100
AcDbEntity
  8
AM_7
  6
AM_ISO08W050x2
100
AcDbLine
 10
2931.427582336908
 20
1602.77479186295
 30
0.0
 11
2931.427582336908
 21
1605.671682971625
 31
0.0
1001
GENIUS_GENOREF_13
1005
2C4B
  0
LINE
  5
2C49
330
1F
100
AcDbEntity
  8
AM_7
  6
AM_ISO08W050x2
100
AcDbLine
 10
2931.427582336908
 20
1602.77479186295
 30
0.0
 11
2928.530691228233
 21
1602.77479186295
 31
0.0
1001
GENIUS_GENOREF_13
1005
2C4B
  0
LINE
  5
2C4A
330
1F
100
AcDbEntity
  8
AM_7
  6
AM_ISO08W050x2
100
AcDbLine
 10
2931.427582336908
 20
1602.77479186295
 30
0.0
 11
2931.427582336908
 21
1599.877900754274
 31
0.0
1001
GENIUS_GENOREF_13
1005
2C4B
  0
POINT
  5
2C4B
330
1F
100
AcDbEntity
  8
0
 60
     1
100
AcDbPoint
 10
32.10079417750376
 20
-0.3926561153630246
 30
0.0
1001
GENIUS_GENOLIS_13
1002
{
1000
ENT
1005
2C4A
1005
2C49
1005
2C48
1005
2C47
1002
}
1001
GENIUS_GENOENT_13
1002
{
1000
MYREF
1005
2C4B
1002
}
1002
{
1000
GRP
1005
0
1002
}
1001
GENIUS_GENOBJ-N-CRS_13
1002
{
1000
OWNER
1000
GEN
1002
}
1001
GENIUS_GENODEF_13
1002
{
1000
HIER
1070
    10
1002
}
1002
{
1000
MANEDIT
1070
     0
1002
}
1002
{
1000
NOSEL
1070
     0
1002
}
1002
{
1000
BEHIND
1070
     0
1002
}
1002
{
1000
OTHER
1070
     0
1002
}
1002
{
1000
REACTOR
1002
}
  0
LINE
  5
2C59
330
1F
100
AcDbEntity
  8
AM_7
100
AcDbLine
 10
2931.427582336908
 20
1612.77479186295
 30
0.0
 11
2948.927582336908
 21
1612.77479186295
 31
0.0
1001
GENIUS_GENOREF_13
1005
2C5D
  0
LINE
  5
2C5A
330
1F
100
AcDbEntity
  8
AM_7
100
AcDbLine
 10
2931.427582336908
 20
1612.77479186295
 30
0.0
 11
2931.427582336908
 21
1630.27479186295
 31
0.0
1001
GENIUS_GENOREF_13
1005
2C5D
  0
LINE
  5
2C5B
330
1F
100
AcDbEntity
  8
AM_7
100
AcDbLine
 10
2931.427582336908
 20
1612.77479186295
 30
0.0
 11
2913.927582336908
 21
1612.77479186295
 31
0.0
1001
GENIUS_GENOREF_13
1005
2C5D
  0
LINE
  5
2C5C
330
1F
100
AcDbEntity
  8
AM_7
100
AcDbLine
 10
2931.427582336908
 20
1612.77479186295
 30
0.0
 11
2931.427582336908
 21
1595.27479186295
 31
0.0
1001
GENIUS_GENOREF_13
1005
2C5D
  0
POINT
  5
2C5D
330
1F
100
AcDbEntity
  8
0
 60
     1
100
AcDbPoint
 10
0.0
 20
0.0
 30
0.0
1001
GENIUS_GENODEF_13
1002
{
1000
HIER
1070
    10
1002
}
1002
{
1000
MANEDIT
1070
     0
1002
}
1002
{
1000
NOSEL
1070
     0
1002
}
1002
{
1000
BEHIND
1070
     0
1002
}
1002
{
1000
OTHER
1070
     0
1002
}
1002
{
1000
REACTOR
1002
}
1001
GENIUS_GENOLIS_13
1002
{
1000
ENT
1005
2C5C
1005
2C5B
1005
2C5A
1005
2C59
1002
}
1001
GENIUS_GENOBJ-N-CRS_13
1002
{
1000
OWNER
1000
GEN
1002
}
1001
GENIUS_GENOENT_13
1002
{
1000
MYREF
1005
2C5D
1002
}
1002
{
1000
GRP
1005
0
1002
}
  0
LINE
  5
2F82
330
1F
100
AcDbEntity
  8
AM_7
  6
AM_ISO08W050x2
100
AcDbLine
 10
2931.427582335322
 20
1541.742594426336
 30
0.0
 11
2934.494569633431
 21
1541.742594426336
 31
0.0
1001
GENIUS_GENOREF_13
1005
2F86
  0
LINE
  5
2F83
330
1F
100
AcDbEntity
  8
AM_7
  6
AM_ISO08W050x2
100
AcDbLine
 10
2931.427582335322
 20
1541.742594426336
 30
0.0
 11
2931.427582335322
 21
1544.809581724444
 31
0.0
1001
GENIUS_GENOREF_13
1005
2F86
  0
LINE
  5
2F84
330
1F
100
AcDbEntity
  8
AM_7
  6
AM_ISO08W050x2
100
AcDbLine
 10
2931.427582335322
 20
1541.742594426336
 30
0.0
 11
2928.360595037215
 21
1541.742594426336
 31
0.0
1001
GENIUS_GENOREF_13
1005
2F86
  0
LINE
  5
2F85
330
1F
100
AcDbEntity
  8
AM_7
  6
AM_ISO08W050x2
100
AcDbLine
 10
2931.427582335322
 20
1541.742594426336
 30
0.0
 11
2931.427582335322
 21
1538.675607128228
 31
0.0
1001
GENIUS_GENOREF_13
1005
2F86
  0
POINT
  5
2F86
330
1F
100
AcDbEntity
  8
0
 60
     1
100
AcDbPoint
 10
0.0
 20
0.0
 30
0.0
1001
GENIUS_GENOLIS_13
1002
{
1000
ENT
1005
2F85
1005
2F84
1005
2F83
1005
2F82
1002
}
1001
GENIUS_GENODEF_13
1002
{
1000
HIER
1070
    10
1002
}
1002
{
1000
MANEDIT
1070
     0
1002
}
1002
{
1000
NOSEL
1070
     0
1002
}
1002
{
1000
BEHIND
1070
     0
1002
}
1002
{
1000
OTHER
1070
     0
1002
}
1002
{
1000
REACTOR
1002
}
1001
GENIUS_GENOENT_13
1002
{
1000
MYREF
1005
2F86
1002
}
1002
{
1000
GRP
1005
0
1002
}
1001
GENIUS_GENOBJ-N-CRS_13
1002
{
1000
OWNER
1000
GEN
1002
}
  0
LINE
  5
2F94
330
1F
100
AcDbEntity
  8
AM_7
  6
AM_ISO08W050x2
100
AcDbLine
 10
2931.427582335053
 20
1555.842594426336
 30
0.0
 11
2934.927582335053
 21
1555.842594426336
 31
0.0
1001
GENIUS_GENOREF_13
1005
2F98
  0
LINE
  5
2F95
330
1F
100
AcDbEntity
  8
AM_7
  6
AM_ISO08W050x2
100
AcDbLine
 10
2931.427582335053
 20
1555.842594426336
 30
0.0
 11
2931.427582335053
 21
1559.342594426336
 31
0.0
1001
GENIUS_GENOREF_13
1005
2F98
  0
LINE
  5
2F96
330
1F
100
AcDbEntity
  8
AM_7
  6
AM_ISO08W050x2
100
AcDbLine
 10
2931.427582335053
 20
1555.842594426336
 30
0.0
 11
2927.927582335053
 21
1555.842594426336
 31
0.0
1001
GENIUS_GENOREF_13
1005
2F98
  0
LINE
  5
2F97
330
1F
100
AcDbEntity
  8
AM_7
  6
AM_ISO08W050x2
100
AcDbLine
 10
2931.427582335053
 20
1555.842594426336
 30
0.0
 11
2931.427582335053
 21
1552.342594426336
 31
0.0
1001
GENIUS_GENOREF_13
1005
2F98
  0
POINT
  5
2F98
330
1F
100
AcDbEntity
  8
0
 60
     1
100
AcDbPoint
 10
0.0
 20
0.0
 30
0.0
1001
GENIUS_GENOBJ-N-CRS_13
1002
{
1000
OWNER
1000
GEN
1002
}
1001
GENIUS_GENODEF_13
1002
{
1000
HIER
1070
    10
1002
}
1002
{
1000
MANEDIT
1070
     0
1002
}
1002
{
1000
NOSEL
1070
     0
1002
}
1002
{
1000
BEHIND
1070
     0
1002
}
1002
{
1000
OTHER
1070
     0
1002
}
1002
{
1000
REACTOR
1002
}
1001
GENIUS_GENOLIS_13
1002
{
1000
ENT
1005
2F97
1005
2F96
1005
2F95
1005
2F94
1002
}
1001
GENIUS_GENOENT_13
1002
{
1000
MYREF
1005
2F98
1002
}
1002
{
1000
GRP
1005
0
1002
}
  0
ENDSEC
  0
SECTION
  2
OBJECTS
  0
DICTIONARY
  5
C
330
0
100
AcDbDictionary
281
     1
  3
ACAD_COLOR
350
BE
  3
ACAD_GROUP
350
D
  3
ACAD_LAYOUT
350
1A
  3
ACAD_MATERIAL
350
BD
  3
ACAD_MLINESTYLE
350
17
  3
ACAD_PLOTSETTINGS
350
19
  3
ACAD_PLOTSTYLENAME
350
E
  3
ACAD_TABLESTYLE
350
11A
  3
ACDBHEADERROUNDTRIPXREC
350
3029
  3
AcDbVariableDictionary
350
94
  3
AcmDictionary
350
5B
  3
AMG
350
41
  3
AMGSNAPSETTINGS
350
1B8
  3
DWGPROPS
350
3028
  0
DICTIONARY
  5
3F9
330
2
100
AcDbDictionary
280
     1
281
     1
  3
ACAD_LAYERFILTERS
360
5B7
  3
ACAD_LAYERSTATES
360
814
  3
ACLYDICTIONARY
360
5B6
  3
AMLAYER_GROUPCOLORS
360
BD3
  0
DICTIONARY
  5
8F
330
1F
100
AcDbDictionary
280
     1
281
     1
  3
ACAD_SORTENTS
360
C06
  0
DICTIONARY
  5
BE
102
{ACAD_REACTORS
330
C
102
}
330
C
100
AcDbDictionary
281
     1
  0
DICTIONARY
  5
D
102
{ACAD_REACTORS
330
C
102
}
330
C
100
AcDbDictionary
281
     1
  0
DICTIONARY
  5
1A
102
{ACAD_REACTORS
330
C
102
}
330
C
100
AcDbDictionary
281
     1
  3
Model
350
22
  3
配置1
350
1E
  3
配置2
350
26
  0
DICTIONARY
  5
BD
102
{ACAD_REACTORS
330
C
102
}
330
C
100
AcDbDictionary
281
     1
  0
DICTIONARY
  5
17
102
{ACAD_REACTORS
330
C
102
}
330
C
100
AcDbDictionary
281
     1
  3
Standard
350
18
  0
DICTIONARY
  5
19
102
{ACAD_REACTORS
330
C
102
}
330
C
100
AcDbDictionary
281
     1
  0
ACDBDICTIONARYWDFLT
  5
E
102
{ACAD_REACTORS
330
C
102
}
330
C
100
AcDbDictionary
281
     1
  3
Normal
350
F
100
AcDbDictionaryWithDefault
340
F
  0
DICTIONARY
  5
11A
102
{ACAD_REACTORS
330
C
102
}
330
C
100
AcDbDictionary
281
     1
  3
Standard
350
11B
  0
DICTIONARY
  5
3029
102
{ACAD_REACTORS
330
C
102
}
330
C
100
AcDbDictionary
281
     1
  0
DICTIONARY
  5
94
102
{ACAD_REACTORS
330
C
102
}
330
C
100
AcDbDictionary
281
     1
  3
CTABLESTYLE
350
138
  3
DIMASSOC
350
96
  3
INDEXCTL
350
95
  3
PROJECTNAME
350
3026
  0
DICTIONARY
  5
5B
102
{ACAD_REACTORS
330
C
102
}
330
C
100
AcDbDictionary
281
     1
  3
AcmBOM
350
1B5
  3
AcmStdDictionary
350
61
  3
AMDTSECTSYM_ARROWCOLOR
350
123
  0
DICTIONARY
  5
41
102
{ACAD_REACTORS
330
C
102
}
330
C
100
AcDbDictionary
281
     1
  0
DICTIONARY
  5
1B8
102
{ACAD_REACTORS
330
C
102
}
330
C
100
AcDbDictionary
281
     1
  0
XRECORD
  5
3028
102
{ACAD_REACTORS
330
C
102
}
330
C
100
AcDbXrecord
280
     1
  1
DWGPROPS COOKIE
  2

  3

  4

  6

  7

  8

  9

300
AmdtFileType=84
301
=
302
=
303
=
304
=
305
=
306
=
307
=
308
=
309
=
 40
0.283657037037037
 41
2453809.488480533
 42
2453815.44715838
  1

 90
        1
  0
DICTIONARY
  5
5B7
102
{ACAD_REACTORS
330
3F9
102
}
330
3F9
100
AcDbDictionary
281
     1
  0
DICTIONARY
  5
814
102
{ACAD_REACTORS
330
3F9
102
}
330
3F9
100
AcDbDictionary
281
     1
  0
DICTIONARY
  5
5B6
102
{ACAD_REACTORS
330
3F9
102
}
330
3F9
100
AcDbDictionary
281
     1
1001
ACAD
1000
<All
  0
DICTIONARY
  5
BD3
102
{ACAD_REACTORS
330
3F9
102
}
330
3F9
100
AcDbDictionary
280
     1
281
     1
  0
SORTENTSTABLE
  5
C06
102
{ACAD_REACTORS
330
8F
102
}
330
8F
100
AcDbSortentsTable
330
1F
331
2A58
  5
2A58
331
162A
  5
162A
331
15F3
  5
15F3
331
15B4
  5
15B4
331
2B25
  5
2B25
331
2AE6
  5
2AE6
331
2A60
  5
2A60
331
15BC
  5
15BC
331
15FB
  5
15FB
331
2AAF
  5
2AAF
331
2B2D
  5
2B2D
331
2A68
  5
2A68
331
1603
  5
1603
331
2AB7
  5
2AB7
331
2B35
  5
2B35
331
2ABF
  5
2ABF
331
2AFE
  5
2AFE
331
E9D
  5
E9D
331
2A88
  5
2A88
331
160B
  5
160B
331
14F5
  5
14F5
331
15D4
  5
15D4
331
2A41
  5
2A41
331
1613
  5
1613
331
2B06
  5
2B06
331
2ACF
  5
2ACF
331
2A98
  5
2A98
331
161B
  5
161B
331
15A5
  5
15A5
331
2B0E
  5
2B0E
331
2AD7
  5
2AD7
331
2A51
  5
2A51
331
1623
  5
1623
331
15AD
  5
15AD
331
15EC
  5
15EC
331
2AA0
  5
2AA0
331
2B16
  5
2B16
331
2B1E
  5
2B1E
331
2ADF
  5
2ADF
331
2BBA
  5
2BBA
331
2B3B
  5
2B3B
331
2B43
  5
2B43
331
2BCA
  5
2BCA
331
FFC
  5
FFC
331
2BD2
  5
2BD2
331
2A59
  5
2A59
331
162B
  5
162B
331
15F4
  5
15F4
331
15B5
  5
15B5
331
2AA8
  5
2AA8
331
2B26
  5
2B26
331
2AE7
  5
2AE7
331
2A61
  5
2A61
331
15BD
  5
15BD
331
15FC
  5
15FC
331
2AB0
  5
2AB0
331
2B2E
  5
2B2E
331
2A69
  5
2A69
331
15C5
  5
15C5
331
1604
  5
1604
331
2AB8
  5
2AB8
331
2B36
  5
2B36
331
2AF7
  5
2AF7
331
F85
  5
F85
331
2AC0
  5
2AC0
331
2A89
  5
2A89
331
160C
  5
160C
331
15D5
  5
15D5
331
2B07
  5
2B07
331
1614
  5
1614
331
15DD
  5
15DD
331
2AD0
  5
2AD0
331
161C
  5
161C
331
15A6
  5
15A6
331
2A99
  5
2A99
331
2B0F
  5
2B0F
331
2B17
  5
2B17
331
2AD8
  5
2AD8
331
1624
  5
1624
331
15AE
  5
15AE
331
15ED
  5
15ED
331
2AA1
  5
2AA1
331
2B1F
  5
2B1F
331
2B3C
  5
2B3C
331
2BBB
  5
2BBB
331
2B44
  5
2B44
331
2BC3
  5
2BC3
331
2BCB
  5
2BCB
331
2AE0
  5
2AE0
331
15F5
  5
15F5
331
15B6
  5
15B6
331
2A5A
  5
2A5A
331
2AA9
  5
2AA9
331
2B27
  5
2B27
331
2AE8
  5
2AE8
331
15BE
  5
15BE
331
15FD
  5
15FD
331
2A62
  5
2A62
331
2AB1
  5
2AB1
331
2B2F
  5
2B2F
331
1605
  5
1605
331
2A6A
  5
2A6A
331
2AB9
  5
2AB9
331
2B37
  5
2B37
331
15CE
  5
15CE
331
2AF8
  5
2AF8
331
2AC1
  5
2AC1
331
160D
  5
160D
331
2A8A
  5
2A8A
331
2B00
  5
2B00
331
2B08
  5
2B08
331
1615
  5
1615
331
2A43
  5
2A43
331
2A92
  5
2A92
331
2AD1
  5
2AD1
331
161D
  5
161D
331
15A7
  5
15A7
331
2A9A
  5
2A9A
331
2B10
  5
2B10
331
2B18
  5
2B18
331
2AD9
  5
2AD9
331
1625
  5
1625
331
15AF
  5
15AF
331
15EE
  5
15EE
331
2A53
  5
2A53
331
2AA2
  5
2AA2
331
2B3D
  5
2B3D
331
2BBC
  5
2BBC
331
FD6
  5
FD6
331
2BC4
  5
2BC4
331
2BCC
  5
2BCC
331
F0F
  5
F0F
331
2B20
  5
2B20
331
2AE1
  5
2AE1
331
15F6
  5
15F6
331
15B7
  5
15B7
331
2A5B
  5
2A5B
331
2AAA
  5
2AAA
331
2B28
  5
2B28
331
2AE9
  5
2AE9
331
15BF
  5
15BF
331
15FE
  5
15FE
331
2A63
  5
2A63
331
2AB2
  5
2AB2
331
2B30
  5
2B30
331
1606
  5
1606
331
2A6B
  5
2A6B
331
2ABA
  5
2ABA
331
2AF9
  5
2AF9
331
15CF
  5
15CF
331
2A83
  5
2A83
331
2B6D
  5
2B6D
331
1266
  5
1266
331
160E
  5
160E
331
2AC2
  5
2AC2
331
2B01
  5
2B01
331
2B09
  5
2B09
331
1616
  5
1616
331
2A44
  5
2A44
331
2A93
  5
2A93
331
2AD2
  5
2AD2
331
161E
  5
161E
331
15A8
  5
15A8
331
15E7
  5
15E7
331
2A4C
  5
2A4C
331
2A9B
  5
2A9B
331
2B11
  5
2B11
331
2B19
  5
2B19
331
2ADA
  5
2ADA
331
1626
  5
1626
331
15EF
  5
15EF
331
2A54
  5
2A54
331
2AA3
  5
2AA3
331
2B3E
  5
2B3E
331
2BCD
  5
2BCD
331
2B5E
  5
2B5E
331
15B0
  5
15B0
331
2B21
  5
2B21
331
2AE2
  5
2AE2
331
15F7
  5
15F7
331
15B8
  5
15B8
331
2A5C
  5
2A5C
331
2AAB
  5
2AAB
331
2B29
  5
2B29
331
2AEA
  5
2AEA
331
15C0
  5
15C0
331
15FF
  5
15FF
331
2A64
  5
2A64
331
2AB3
  5
2AB3
331
2B31
  5
2B31
331
1607
  5
1607
331
2A6C
  5
2A6C
331
2ABB
  5
2ABB
331
2AFA
  5
2AFA
331
2A84
  5
2A84
331
2B6E
  5
2B6E
331
15D0
  5
15D0
331
160F
  5
160F
331
1509
  5
1509
331
2AC3
  5
2AC3
331
2B02
  5
2B02
331
2B0A
  5
2B0A
331
1617
  5
1617
331
2A45
  5
2A45
331
2A94
  5
2A94
331
2AD3
  5
2AD3
331
161F
  5
161F
331
15A9
  5
15A9
331
15E8
  5
15E8
331
2A9C
  5
2A9C
331
2B12
  5
2B12
331
2B1A
  5
2B1A
331
2ADB
  5
2ADB
331
1627
  5
1627
331
2A55
  5
2A55
331
2AA4
  5
2AA4
331
2B3F
  5
2B3F
331
EE9
  5
EE9
331
2BCE
  5
2BCE
331
2B5F
  5
2B5F
331
15F0
  5
15F0
331
15B1
  5
15B1
331
2B22
  5
2B22
331
2AE3
  5
2AE3
331
15B9
  5
15B9
331
15F8
  5
15F8
331
2A5D
  5
2A5D
331
2AAC
  5
2AAC
331
2B2A
  5
2B2A
331
15C1
  5
15C1
331
1600
  5
1600
331
2A65
  5
2A65
331
2AB4
  5
2AB4
331
2B32
  5
2B32
331
15C9
  5
15C9
331
2ABC
  5
2ABC
331
2AFB
  5
2AFB
331
2A85
  5
2A85
331
2B6F
  5
2B6F
331
2BB7
  5
2BB7
331
1608
  5
1608
331
15D1
  5
15D1
331
1F2F
  5
1F2F
331
1610
  5
1610
331
15D9
  5
15D9
331
2AC4
  5
2AC4
331
2B03
  5
2B03
331
2B0B
  5
2B0B
331
1618
  5
1618
331
15A2
  5
15A2
331
15E1
  5
15E1
331
2A46
  5
2A46
331
2A95
  5
2A95
331
2AD4
  5
2AD4
331
1620
  5
1620
331
15AA
  5
15AA
331
15E9
  5
15E9
331
2A9D
  5
2A9D
331
2B13
  5
2B13
331
2B1B
  5
2B1B
331
2ADC
  5
2ADC
331
2A56
  5
2A56
331
2AA5
  5
2AA5
331
2B38
  5
2B38
331
2B40
  5
2B40
331
2BBF
  5
2BBF
331
2BCF
  5
2BCF
331
1628
  5
1628
331
15F1
  5
15F1
331
15B2
  5
15B2
331
2B23
  5
2B23
331
2AE4
  5
2AE4
331
15BA
  5
15BA
331
15F9
  5
15F9
331
2A5E
  5
2A5E
331
2AAD
  5
2AAD
331
2B2B
  5
2B2B
331
1601
  5
1601
331
2A66
  5
2A66
331
2AB5
  5
2AB5
331
2B33
  5
2B33
331
15CA
  5
15CA
331
2ABD
  5
2ABD
331
2AFC
  5
2AFC
331
2A86
  5
2A86
331
2B70
  5
2B70
331
EC3
  5
EC3
331
1609
  5
1609
331
15D2
  5
15D2
331
1611
  5
1611
331
2AC5
  5
2AC5
331
2B04
  5
2B04
331
2B0C
  5
2B0C
331
1619
  5
1619
331
15A3
  5
15A3
331
15E2
  5
15E2
331
2A47
  5
2A47
331
2A96
  5
2A96
331
2AD5
  5
2AD5
331
1621
  5
1621
331
15AB
  5
15AB
331
15EA
  5
15EA
331
1FA8
  5
1FA8
331
2A9E
  5
2A9E
331
2B14
  5
2B14
331
2B1C
  5
2B1C
331
2ADD
  5
2ADD
331
2AA6
  5
2AA6
331
2A57
  5
2A57
331
2B39
  5
2B39
331
2BB8
  5
2BB8
331
2B41
  5
2B41
331
2BC0
  5
2BC0
331
2B51
  5
2B51
331
2BD0
  5
2BD0
331
1629
  5
1629
331
15F2
  5
15F2
331
15B3
  5
15B3
331
2B24
  5
2B24
331
2AE5
  5
2AE5
331
2AAE
  5
2AAE
331
15BB
  5
15BB
331
15FA
  5
15FA
331
2A5F
  5
2A5F
331
2B2C
  5
2B2C
331
2A67
  5
2A67
331
1602
  5
1602
331
2AB6
  5
2AB6
331
2B34
  5
2B34
331
2ABE
  5
2ABE
331
2AFD
  5
2AFD
331
2A87
  5
2A87
331
160A
  5
160A
331
15D3
  5
15D3
331
2A40
  5
2A40
331
1612
  5
1612
331
2B05
  5
2B05
331
2B0D
  5
2B0D
331
2A97
  5
2A97
331
161A
  5
161A
331
15A4
  5
15A4
331
15E3
  5
15E3
331
2AD6
  5
2AD6
331
2A9F
  5
2A9F
331
1622
  5
1622
331
15AC
  5
15AC
331
15EB
  5
15EB
331
2B15
  5
2B15
331
2B1D
  5
2B1D
331
2ADE
  5
2ADE
331
2AA7
  5
2AA7
331
2B3A
  5
2B3A
331
2BB9
  5
2BB9
331
2B42
  5
2B42
331
2BC9
  5
2BC9
331
E65
  5
E65
331
2BD1
  5
2BD1
  0
LAYOUT
  5
22
102
{ACAD_XDICTIONARY
360
302C
102
}
102
{ACAD_REACTORS
330
1A
102
}
330
1A
100
AcDbPlotSettings
  1

  2
\\RD\EPSON Stylus C63 Series單色
  4
A4
  6

 40
3.757083177566528
 41
3.757076978683471
 42
3.757080078125
 43
3.757080078125
 44
209.9733276367187
 45
296.9683227539062
 46
0.0
 47
0.0
 48
0.0
 49
0.0
140
0.0
141
0.0
142
1.0
143
0.3405120737814363
 70
 11952
 72
     1
 73
     0
 74
     0
  7
單色出圖.ctb
 75
     0
147
2.936753428137963
148
-2047.07469463503
149
-1261.649717473083
100
AcDbLayout
  1
Model
 70
     1
 71
     0
 10
0.0
 20
0.0
 11
12.0
 21
9.0
 12
0.0
 22
0.0
 32
0.0
 14
0.0
 24
0.0
 34
0.0
 15
0.0
 25
0.0
 35
0.0
146
0.0
 13
0.0
 23
0.0
 33
0.0
 16
1.0
 26
0.0
 36
0.0
 17
0.0
 27
1.0
 37
0.0
 76
     0
330
1F
1001
ACAD_PSEXT
1000
\\RD\EPSON Stylus C63 Series單色
1000
EPSON Stylus C63 Series
1000
\\RD
1000

1070
     0
  0
LAYOUT
  5
1E
102
{ACAD_XDICTIONARY
360
302A
102
}
102
{ACAD_REACTORS
330
1A
102
}
330
1A
100
AcDbPlotSettings
  1

  2

  4

  6

 40
0.0
 41
0.0
 42
0.0
 43
0.0
 44
0.0
 45
0.0
 46
0.0
 47
0.0
 48
0.0
 49
0.0
140
0.0
141
0.0
142
1.0
143
1.0
 70
   688
 72
     0
 73
     0
 74
     5
  7
單色出圖.ctb
 75
    16
147
1.0
148
0.0
149
0.0
100
AcDbLayout
  1
配置1
 70
     1
 71
     1
 10
0.0
 20
0.0
 11
420.0
 21
297.0
 12
0.0
 22
0.0
 32
0.0
 14
1.000000000000000E+20
 24
1.000000000000000E+20
 34
1.000000000000000E+20
 15
-1.000000000000000E+20
 25
-1.000000000000000E+20
 35
-1.000000000000000E+20
146
0.0
 13
0.0
 23
0.0
 33
0.0
 16
1.0
 26
0.0
 36
0.0
 17
0.0
 27
1.0
 37
0.0
 76
     0
330
1B
  0
LAYOUT
  5
26
102
{ACAD_XDICTIONARY
360
302E
102
}
102
{ACAD_REACTORS
330
1A
102
}
330
1A
100
AcDbPlotSettings
  1

  2

  4

  6

 40
0.0
 41
0.0
 42
0.0
 43
0.0
 44
0.0
 45
0.0
 46
0.0
 47
0.0
 48
0.0
 49
0.0
140
0.0
141
0.0
142
1.0
143
1.0
 70
   688
 72
     0
 73
     0
 74
     5
  7
單色出圖.ctb
 75
    16
147
1.0
148
0.0
149
0.0
100
AcDbLayout
  1
配置2
 70
     1
 71
     2
 10
0.0
 20
0.0
 11
12.0
 21
9.0
 12
0.0
 22
0.0
 32
0.0
 14
0.0
 24
0.0
 34
0.0
 15
0.0
 25
0.0
 35
0.0
146
0.0
 13
0.0
 23
0.0
 33
0.0
 16
1.0
 26
0.0
 36
0.0
 17
0.0
 27
1.0
 37
0.0
 76
     0
330
23
  0
MLINESTYLE
  5
18
102
{ACAD_REACTORS
330
17
102
}
330
17
100
AcDbMlineStyle
  2
STANDARD
 70
     0
  3

 62
   256
 51
90.0
 52
90.0
 71
     2
 49
0.5
 62
   256
  6
BYLAYER
 49
-0.5
 62
   256
  6
BYLAYER
  0
ACDBPLACEHOLDER
  5
F
102
{ACAD_REACTORS
330
E
102
}
330
E
  0
TABLESTYLE
  5
11B
102
{ACAD_REACTORS
330
11A
102
}
330
11A
100
AcDbTableStyle
  3
Standard
 70
     0
 71
     0
 40
1.5
 41
1.5
280
     0
281
     0
  7
STANDARD
140
4.5
170
     2
 62
     0
 63
     7
283
     0
274
    -2
284
     1
 64
     0
275
    -2
285
     1
 65
     0
276
    -2
286
     1
 66
     0
277
    -2
287
     1
 67
     0
278
    -2
288
     1
 68
     0
279
    -2
289
     1
 69
     0
  7
STANDARD
140
6.0
170
     5
 62
     0
 63
     7
283
     0
274
    -2
284
     1
 64
     0
275
    -2
285
     1
 65
     0
276
    -2
286
     1
 66
     0
277
    -2
287
     1
 67
     0
278
    -2
288
     1
 68
     0
279
    -2
289
     1
 69
     0
  7
STANDARD
140
4.5
170
     5
 62
     0
 63
     7
283
     0
274
    -2
284
     1
 64
     0
275
    -2
285
     1
 65
     0
276
    -2
286
     1
 66
     0
277
    -2
287
     1
 67
     0
278
    -2
288
     1
 68
     0
279
    -2
289
     1
 69
     0
  0
DICTIONARYVAR
  5
138
102
{ACAD_REACTORS
330
94
102
}
330
94
100
DictionaryVariables
280
     0
  1
STANDARD
  0
DICTIONARYVAR
  5
96
102
{ACAD_REACTORS
330
94
102
}
330
94
100
DictionaryVariables
280
     0
  1
2
  0
DICTIONARYVAR
  5
95
102
{ACAD_REACTORS
330
94
102
}
330
94
100
DictionaryVariables
280
     0
  1
0
  0
DICTIONARYVAR
  5
3026
102
{ACAD_REACTORS
330
94
102
}
330
94
100
DictionaryVariables
280
     0
  1

  0
DICTIONARY
  5
1B5
102
{ACAD_REACTORS
330
5B
102
}
330
5B
100
AcDbDictionary
281
     1
  0
DICTIONARY
  5
61
102
{ACAD_REACTORS
330
5B
102
}
330
5B
100
AcDbDictionary
281
     1
  0
XRECORD
  5
123
102
{ACAD_REACTORS
330
5B
102
}
330
5B
100
AcDbXrecord
280
     1
 90
-1023410169
  0
DICTIONARY
  5
302C
330
22
100
AcDbDictionary
280
     1
281
     1
  3
ACAD_XREC_ROUNDTRIP
360
302D
  0
DICTIONARY
  5
302A
330
1E
100
AcDbDictionary
280
     1
281
     1
  3
ACAD_XREC_ROUNDTRIP
360
302B
  0
DICTIONARY
  5
302E
330
26
100
AcDbDictionary
280
     1
281
     1
  3
ACAD_XREC_ROUNDTRIP
360
302F
  0
XRECORD
  5
302D
102
{ACAD_REACTORS
330
302C
102
}
330
302C
100
AcDbXrecord
280
     1
102
SHADEPLOT
 70
     0
102
SHADEPLOTRESLEVEL
 70
     2
102
SHADEPLOTCUSTOMDPI
 70
   300
  0
XRECORD
  5
302B
102
{ACAD_REACTORS
330
302A
102
}
330
302A
100
AcDbXrecord
280
     1
102
SHADEPLOT
 70
     0
102
SHADEPLOTRESLEVEL
 70
     2
102
SHADEPLOTCUSTOMDPI
 70
   300
  0
XRECORD
  5
302F
102
{ACAD_REACTORS
330
302E
102
}
330
302E
100
AcDbXrecord
280
     1
102
SHADEPLOT
 70
     0
102
SHADEPLOTRESLEVEL
 70
     2
102
SHADEPLOTCUSTOMDPI
 70
   300
  0
ENDSEC
  0
EOF
