  0
SECTION
  2
HEADER
  9
$ACADVER
  1
AC1012
  9
$DWGCODEPAGE
  3
big5
  9
$INSBASE
 10
0.0
 20
0.0
 30
0.0
  9
$EXTMIN
 10
200.235718928552
 20
-46.05760240554945
 30
-0.0015183963984668
  9
$EXTMAX
 10
344.2884530102467
 20
65.25571323023917
 30
128.1139392277926
  9
$LIMMIN
 10
0.0
 20
0.0
  9
$LIMMAX
 10
396.0
 20
273.0
  9
$ORTHOMODE
 70
     0
  9
$REGENMODE
 70
     1
  9
$FILLMODE
 70
     1
  9
$QTEXTMODE
 70
     0
  9
$MIRRTEXT
 70
     1
  9
$DRAGMODE
 70
     2
  9
$LTSCALE
 40
5.0
  9
$OSMODE
 70
    55
  9
$ATTMODE
 70
     1
  9
$TEXTSIZE
 40
3.0
  9
$TRACEWID
 40
0.05
  9
$TEXTSTYLE
  7
DAYUS
  9
$CLAYER
  8
0
  9
$CELTYPE
  6
BYLAYER
  9
$CECOLOR
 62
   256
  9
$CELTSCALE
 40
1.0
  9
$DELOBJ
 70
     1
  9
$DISPSILH
 70
     0
  9
$DIMSCALE
 40
1.0
  9
$DIMASZ
 40
2.0
  9
$DIMEXO
 40
1.0
  9
$DIMDLI
 40
5.0
  9
$DIMRND
 40
0.0
  9
$DIMDLE
 40
0.0
  9
$DIMEXE
 40
1.5
  9
$DIMTP
 40
0.1
  9
$DIMTM
 40
0.1
  9
$DIMTXT
 40
2.0
  9
$DIMCEN
 40
3.0
  9
$DIMTSZ
 40
0.0
  9
$DIMTOL
 70
     0
  9
$DIMLIM
 70
     0
  9
$DIMTIH
 70
     0
  9
$DIMTOH
 70
     0
  9
$DIMSE1
 70
     0
  9
$DIMSE2
 70
     0
  9
$DIMTAD
 70
     1
  9
$DIMZIN
 70
     8
  9
$DIMBLK
  1

  9
$DIMASO
 70
     1
  9
$DIMSHO
 70
     0
  9
$DIMPOST
  1

  9
$DIMAPOST
  1
"
  9
$DIMALT
 70
     0
  9
$DIMALTD
 70
     2
  9
$DIMALTF
 40
0.0393701
  9
$DIMLFAC
 40
1.0
  9
$DIMTOFL
 70
     1
  9
$DIMTVP
 40
0.0
  9
$DIMTIX
 70
     0
  9
$DIMSOXD
 70
     0
  9
$DIMSAH
 70
     0
  9
$DIMBLK1
  1

  9
$DIMBLK2
  1

  9
$DIMSTYLE
  2
AM_ISO
  9
$DIMCLRD
 70
   256
  9
$DIMCLRE
 70
   256
  9
$DIMCLRT
 70
   256
  9
$DIMTFAC
 40
0.71
  9
$DIMGAP
 40
0.6
  9
$DIMJUST
 70
     0
  9
$DIMSD1
 70
     0
  9
$DIMSD2
 70
     0
  9
$DIMTOLJ
 70
     0
  9
$DIMTZIN
 70
     8
  9
$DIMALTZ
 70
     0
  9
$DIMALTTZ
 70
     0
  9
$DIMFIT
 70
     3
  9
$DIMUPT
 70
     0
  9
$DIMUNIT
 70
     2
  9
$DIMDEC
 70
     2
  9
$DIMTDEC
 70
     2
  9
$DIMALTU
 70
     2
  9
$DIMALTTD
 70
     2
  9
$DIMTXSTY
  7
STANDARD
  9
$DIMAUNIT
 70
     0
  9
$LUNITS
 70
     2
  9
$LUPREC
 70
     2
  9
$SKETCHINC
 40
0.1
  9
$FILLETRAD
 40
2.5
  9
$AUNITS
 70
     0
  9
$AUPREC
 70
     0
  9
$MENU
  1
C:\CACAD\ACAD
  9
$ELEVATION
 40
0.0
  9
$PELEVATION
 40
0.0
  9
$THICKNESS
 40
0.0
  9
$LIMCHECK
 70
     0
  9
$BLIPMODE
 70
     0
  9
$CHAMFERA
 40
3.0
  9
$CHAMFERB
 40
3.0
  9
$CHAMFERC
 40
0.0
  9
$CHAMFERD
 40
0.0
  9
$SKPOLY
 70
     0
  9
$TDCREATE
 40
2450294.602131481
  9
$TDUPDATE
 40
2453119.491357164
  9
$TDINDWG
 40
0.4091362037
  9
$TDUSRTIMER
 40
0.4091329514
  9
$USRTIMER
 70
     1
  9
$ANGBASE
 50
0.0
  9
$ANGDIR
 70
     0
  9
$PDMODE
 70
    65
  9
$PDSIZE
 40
8.3
  9
$PLINEWID
 40
0.0
  9
$COORDS
 70
     1
  9
$SPLFRAME
 70
     0
  9
$SPLINETYPE
 70
     6
  9
$SPLINESEGS
 70
     8
  9
$ATTDIA
 70
     1
  9
$ATTREQ
 70
     1
  9
$HANDLING
 70
 22529
  9
$HANDSEED
  5
4EEA
  9
$SURFTAB1
 70
     6
  9
$SURFTAB2
 70
     6
  9
$SURFTYPE
 70
     6
  9
$SURFU
 70
     6
  9
$SURFV
 70
     6
  9
$UCSNAME
  2

  9
$UCSORG
 10
0.0
 20
0.0
 30
0.0
  9
$UCSXDIR
 10
1.0
 20
0.0
 30
0.0
  9
$UCSYDIR
 10
0.0
 20
1.0
 30
0.0
  9
$PUCSNAME
  2

  9
$PUCSORG
 10
0.0
 20
0.0
 30
0.0
  9
$PUCSXDIR
 10
1.0
 20
0.0
 30
0.0
  9
$PUCSYDIR
 10
0.0
 20
1.0
 30
0.0
  9
$USERI1
 70
     0
  9
$USERI2
 70
     0
  9
$USERI3
 70
     0
  9
$USERI4
 70
     0
  9
$USERI5
 70
     0
  9
$USERR1
 40
0.0
  9
$USERR2
 40
0.0
  9
$USERR3
 40
0.0
  9
$USERR4
 40
0.0
  9
$USERR5
 40
0.0
  9
$WORLDVIEW
 70
     1
  9
$SHADEDGE
 70
     3
  9
$SHADEDIF
 70
    70
  9
$TILEMODE
 70
     1
  9
$MAXACTVP
 70
    16
  9
$PINSBASE
 10
101.9887994410415
 20
50.0
 30
155.412184630939
  9
$PLIMCHECK
 70
     0
  9
$PEXTMIN
 10
1.000000000000000E+20
 20
1.000000000000000E+20
 30
1.000000000000000E+20
  9
$PEXTMAX
 10
-1.000000000000000E+20
 20
-1.000000000000000E+20
 30
-1.000000000000000E+20
  9
$PLIMMIN
 10
0.0
 20
0.0
  9
$PLIMMAX
 10
12.0
 20
9.0
  9
$UNITMODE
 70
     0
  9
$VISRETAIN
 70
     0
  9
$PLINEGEN
 70
     0
  9
$PSLTSCALE
 70
     0
  9
$TREEDEPTH
 70
  3020
  9
$PICKSTYLE
 70
     1
  9
$CMLSTYLE
  2
STANDARD
  9
$CMLJUST
 70
     0
  9
$CMLSCALE
 40
1.0
  9
$SAVEIMAGES
 70
     1
  0
ENDSEC
  0
SECTION
  2
CLASSES
  0
CLASS
  1
ACDBDICTIONARYWDFLT
  2
AcDbDictionaryWithDefault
  3
AutoCAD 2000
 90
    32768
280
     0
281
     0
  0
CLASS
  1
ACDBPLACEHOLDER
  2
AcDbPlaceHolder
  3
AutoCAD 2000
 90
    32768
280
     0
281
     0
  0
CLASS
  1
LAYOUT
  2
AcDbLayout
  3
AutoCAD 2000
 90
    32768
280
     0
281
     0
  0
CLASS
  1
IMAGEDEF
  2
AcDbRasterImageDef
  3
ISM
 90
    32768
280
     0
281
     0
  0
CLASS
  1
LONG_TRANSACTION
  2
AcDbLongTransaction
  3
AutoCAD 2000
 90
    32768
280
     0
281
     0
  0
CLASS
  1
LWPOLYLINE
  2
AcDbPolyline
  3
AutoCAD 2000
 90
    32768
280
     0
281
     1
  0
CLASS
  1
HATCH
  2
AcDbHatch
  3
AutoCAD 2000
 90
    32768
280
     0
281
     1
  0
CLASS
  1
XRECORD
  2
AcDbXrecord
  3
AutoCAD 2000
 90
    32768
280
     0
281
     0
  0
CLASS
  1
ACME_DOCUMENT
  2
AcMeDbDoc
  3
AcMeServices
 90
    32768
280
     0
281
     0
  0
CLASS
  1
AMGSETTINGSOBJ
  2
AmgSettingsObj
  3
"AcadM|Product Description: AutoCAD Mechanical 2000|Company: Autodesk"
 90
    32768
280
     0
281
     0
  0
CLASS
  1
ACMESCOPE
  2
AcMeScope
  3
AcMeServices
 90
    32768
280
     0
281
     0
  0
CLASS
  1
ACMECOMMANDHISTORY
  2
AcMeCommandHistory
  3
AcMeServices
 90
    32768
280
     0
281
     0
  0
CLASS
  1
ACIMSYSVARMAN
  2
AcImSysVarManager
  3
AcMeServices
 90
    32768
280
     0
281
     0
  0
CLASS
  1
ACIMREALSYSVAR
  2
AcImRealSysVar
  3
AcMeServices
 90
    32768
280
     0
281
     0
  0
CLASS
  1
ACIMINTSYSVAR
  2
AcImIntSysVar
  3
AcMeServices
 90
    32768
280
     0
281
     0
  0
CLASS
  1
ACMEDRAWINGMAN
  2
AcMeDrawingMan
  3
AcMeServices
 90
    32768
280
     0
281
     0
  0
CLASS
  1
ACMEVIEW
  2
AcMeView
  3
AcMeServices
 90
    32768
280
     0
281
     0
  0
CLASS
  1
ACDBENTITYCACHE
  2
AcMeEntityCache
  3
AcMeServices
 90
    32768
280
     0
281
     0
  0
CLASS
  1
GSMANAGER
  2
AcMeGSManager
  3
AcMeServices
 90
    32768
280
     0
281
     0
  0
CLASS
  1
AMDTINTERNALREACTOR
  2
AmdtInternalReactor
  3
AcMeServices
 90
    32768
280
     0
281
     0
  0
CLASS
  1
ACMESTATEMGR
  2
AcMeStateMgr
  3
AcMeServices
 90
    32768
280
     0
281
     0
  0
CLASS
  1
ACGREFMASTER
  2
AcGrefMaster
  3
AcAttribServices
 90
    32768
280
     0
281
     0
  0
CLASS
  1
ACME_DATABASE
  2
AcMeDbDatabase
  3
AcMeServices
 90
    32768
280
     0
281
     0
  0
CLASS
  1
ACRFINSADJUSTERMGR
  2
AcRfInsAdjusterMgr
  3
AcMeServices
 90
    32768
280
     0
281
     0
  0
CLASS
  1
ACGREFACADMASTER
  2
AcGrefacadMaster
  3
AcGrefServices
 90
    32768
280
     0
281
     0
  0
CLASS
  1
AMIMASTER
  2
AmiMaster
  3
AmiServices
 90
    32768
280
     0
281
     0
  0
CLASS
  1
ACMDATADICTIONARY
  2
AcmDataDictionary
  3
"AcmSymBB|Product Description: AutoCAD Mechanical 2000|Company: Autodesk"
 90
    32768
280
     0
281
     0
  0
CLASS
  1
ACMDATAENTRYBLOCK
  2
AcmDataEntryBlock
  3
"AcmSymBB|Product Description: AutoCAD Mechanical 2000|Company: Autodesk"
 90
    32768
280
     0
281
     0
  0
CLASS
  1
ACIMSTRSYSVAR
  2
AcImStrSysVar
  3
AcMeServices
 90
    32768
280
     0
281
     0
  0
CLASS
  1
ACMSTANDARDANSI
  2
AcmStandardANSI
  3
"Amdt_StdImp|Product Description: AutoCAD Mechanical 2000|Company: Autodesk"
 90
    32768
280
     0
281
     0
  0
CLASS
  1
AMGOBJPROPCFG
  2
AmgObjPropCfg
  3
"AmgLay|Product Description: AutoCAD Mechanical 2000|Company: Autodesk"
 90
    32769
280
     0
281
     0
  0
CLASS
  1
ACMSURFSTANDARDANSI
  2
AcmSurfTextStdANSI
  3
"Amdt_StdImp|Product Description: AutoCAD Mechanical 2000|Company: Autodesk"
 90
    32768
280
     0
281
     0
  0
CLASS
  1
ACMFCFSTANDARDANSI
  2
AcmFCFStdANSI
  3
"Amdt_StdImp|Product Description: AutoCAD Mechanical 2000|Company: Autodesk"
 90
    32768
280
     0
281
     0
  0
CLASS
  1
ACMWELDSTANDARDANSI
  2
AcmWeldingStdANSI
  3
"Amdt_StdImp|Product Description: AutoCAD Mechanical 2000|Company: Autodesk"
 90
    32768
280
     0
281
     0
  0
CLASS
  1
ACMIDSTANDARDANSI
  2
AcmIdStdANSI
  3
"Amdt_StdImp|Product Description: AutoCAD Mechanical 2000|Company: Autodesk"
 90
    32768
280
     0
281
     0
  0
CLASS
  1
ACMDATUMSTANDARDANSI
  2
AcmDatumStdANSI
  3
"Amdt_StdImp|Product Description: AutoCAD Mechanical 2000|Company: Autodesk"
 90
    32768
280
     0
281
     0
  0
CLASS
  1
ACMBOMSTANDARDANSI
  2
AcmBOMStdANSI
  3
"Amdt_StdImp|Product Description: AutoCAD Mechanical 2000|Company: Autodesk"
 90
    32768
280
     0
281
     0
  0
CLASS
  1
ACMDETAILSTANDARDANSI
  2
AmdtDetailSymStdANSI
  3
"Amdt_StdImp|Product Description: AutoCAD Mechanical 2000|Company: Autodesk"
 90
    32768
280
     0
281
     0
  0
CLASS
  1
ACMSECTIONSTANDARDANSI
  2
AmdtSectionSymStdANSI
  3
"Amdt_StdImp|Product Description: AutoCAD Mechanical 2000|Company: Autodesk"
 90
    32768
280
     0
281
     0
  0
CLASS
  1
ACMCENTERLINESTANDARDANSI
  2
AmdtCenterLineStdANSI
  3
"Amdt_StdImp|Product Description: AutoCAD Mechanical 2000|Company: Autodesk"
 90
    32768
280
     0
281
     0
  0
CLASS
  1
ACMNOTESTANDARDANSI
  2
AmdtNoteStdANSI
  3
"Amdt_StdImp|Product Description: AutoCAD Mechanical 2000|Company: Autodesk"
 90
    32768
280
     0
281
     0
  0
CLASS
  1
ACAMGLAYSTD
  2
AcAmgLayStd
  3
"AcAmgLayStd|Product Description: AutoCAD Mechanical 2000|Company: Autodesk"
 90
    32768
280
     0
281
     0
  0
CLASS
  1
ACAMGDIMSTD
  2
AcAmgDimStd
  3
"AcAmgDimStd|Product Description: AutoCAD Mechanical 2000|Company: Autodesk"
 90
    32768
280
     0
281
     0
  0
CLASS
  1
ACAMGHOLECHARTSTDANSI
  2
AcAmgHoleChartStdANSI
  3
ACMSYMBB_MODULE_NAME
 90
    32768
280
     0
281
     0
  0
CLASS
  1
ACAMGTITLESTD
  2
AcAmgTitleStd
  3
"TITLEAPP"
 90
    32768
280
     0
281
     0
  0
CLASS
  1
ACAMGFILTERDAT
  2
AcAmgFilterDat
  3
"AcadM|Product Description: AutoCAD Mechanical 2000|Company: Autodesk"
 90
    32768
280
     0
281
     0
  0
CLASS
  1
AMDTFORMULAUPDATEDISPATCHER
  2
AmdtFormulaUpdateDispatcher
  3
AcMeServices
 90
    32768
280
     0
281
     0
  0
CLASS
  1
LAYER_INDEX
  2
AcDbLayerIndex
  3
AutoCAD 2000
 90
    32768
280
     0
281
     0
  0
CLASS
  1
IDBUFFER
  2
AcDbIdBuffer
  3
AutoCAD 2000
 90
    32768
280
     0
281
     0
  0
CLASS
  1
DICTIONARYVAR
  2
AcDbDictionaryVar
  3
AutoCAD 2000
 90
    32768
280
     0
281
     0
  0
CLASS
  1
LONG_TRANSACTION
  2
AcDbLongTransaction
  3
AutoCAD 2000
 90
    32768
280
     0
281
     0
  0
CLASS
  1
LWPOLYLINE
  2
AcDbPolyline
  3
AutoCAD 2000
 90
    32768
280
     0
281
     1
  0
CLASS
  1
HATCH
  2
AcDbHatch
  3
AutoCAD 2000
 90
    32768
280
     0
281
     1
  0
CLASS
  1
XRECORD
  2
AcDbXrecord
  3
AutoCAD 2000
 90
    32768
280
     0
281
     0
  0
CLASS
  1
LONG_TRANSACTION
  2
AcDbLongTransaction
  3
AutoCAD 2000
 90
    32768
280
     0
281
     0
  0
CLASS
  1
LWPOLYLINE
  2
AcDbPolyline
  3
AutoCAD 2000
 90
    32768
280
     0
281
     1
  0
CLASS
  1
HATCH
  2
AcDbHatch
  3
AutoCAD 2000
 90
    32768
280
     0
281
     1
  0
CLASS
  1
XRECORD
  2
AcDbXrecord
  3
AutoCAD 2000
 90
    32768
280
     0
281
     0
  0
CLASS
  1
ACMSTANDARDISO
  2
AcmStandardISO
  3
"Amdt_StdImp|Product Description: AutoCAD Mechanical 2000|Company: Autodesk"
 90
    32768
280
     0
281
     0
  0
CLASS
  1
AMDTEDGESTANDARDISO
  2
AmdtEdgeStdISO
  3
"Amdt_StdImp|Product Description: AutoCAD Mechanical 2000|Company: Autodesk"
 90
    32768
280
     0
281
     0
  0
CLASS
  1
ACMSURFSTANDARDISO
  2
AcmSurfTextStdISO
  3
"Amdt_StdImp|Product Description: AutoCAD Mechanical 2000|Company: Autodesk"
 90
    32768
280
     0
281
     0
  0
CLASS
  1
ACMFCFSTANDARDISO
  2
AcmFCFStdISO
  3
"Amdt_StdImp|Product Description: AutoCAD Mechanical 2000|Company: Autodesk"
 90
    32768
280
     0
281
     0
  0
CLASS
  1
ACMWELDSTANDARDISO
  2
AcmWeldingStdISO
  3
"Amdt_StdImp|Product Description: AutoCAD Mechanical 2000|Company: Autodesk"
 90
    32768
280
     0
281
     0
  0
CLASS
  1
ACMIDSTANDARDISO
  2
AcmIdStdISO
  3
"Amdt_StdImp|Product Description: AutoCAD Mechanical 2000|Company: Autodesk"
 90
    32768
280
     0
281
     0
  0
CLASS
  1
ACMDATUMSTANDARDISO
  2
AcmDatumStdISO
  3
"Amdt_StdImp|Product Description: AutoCAD Mechanical 2000|Company: Autodesk"
 90
    32768
280
     0
281
     0
  0
CLASS
  1
ACMBOMSTANDARDISO
  2
AcmBOMStdISO
  3
"Amdt_StdImp|Product Description: AutoCAD Mechanical 2000|Company: Autodesk"
 90
    32768
280
     0
281
     0
  0
CLASS
  1
ACMDETAILSTANDARDISO
  2
AmdtDetailSymStdISO
  3
"Amdt_StdImp|Product Description: AutoCAD Mechanical 2000|Company: Autodesk"
 90
    32768
280
     0
281
     0
  0
CLASS
  1
ACMSECTIONSTANDARDISO
  2
AmdtSectionSymStdISO
  3
"Amdt_StdImp|Product Description: AutoCAD Mechanical 2000|Company: Autodesk"
 90
    32768
280
     0
281
     0
  0
CLASS
  1
ACMCENTERLINESTANDARDISO
  2
AmdtCenterLineStdISO
  3
"Amdt_StdImp|Product Description: AutoCAD Mechanical 2000|Company: Autodesk"
 90
    32768
280
     0
281
     0
  0
CLASS
  1
ACMNOTESTANDARDISO
  2
AmdtNoteStdISO
  3
"Amdt_StdImp|Product Description: AutoCAD Mechanical 2000|Company: Autodesk"
 90
    32768
280
     0
281
     0
  0
CLASS
  1
ACAMGHOLECHARTSTDISO
  2
AcAmgHoleChartStdISO
  3
ACMSYMBB_MODULE_NAME
 90
    32768
280
     0
281
     0
  0
CLASS
  1
AMDTNOTE
  2
AmdtNote
  3
"AcmSymBB|Product Description: AutoCAD Mechanical 2000|Company: Autodesk"
 90
    33791
280
     0
281
     1
  0
CLASS
  1
LONG_TRANSACTION
  2
AcDbLongTransaction
  3
AutoCAD 2000
 90
    32768
280
     0
281
     0
  0
CLASS
  1
LWPOLYLINE
  2
AcDbPolyline
  3
AutoCAD 2000
 90
    32768
280
     0
281
     1
  0
CLASS
  1
HATCH
  2
AcDbHatch
  3
AutoCAD 2000
 90
    32768
280
     0
281
     1
  0
CLASS
  1
XRECORD
  2
AcDbXrecord
  3
AutoCAD 2000
 90
    32768
280
     0
281
     0
  0
CLASS
  1
STDPART2D
  2
AmgStdPart
  3
"AmgStdPart|Product Description: AutoCAD Mechanical 2000|Company: Autodesk"
 90
    33791
280
     0
281
     1
  0
CLASS
  1
LONG_TRANSACTION
  2
AcDbLongTransaction
  3
AutoCAD 2000
 90
    32768
280
     0
281
     0
  0
CLASS
  1
LWPOLYLINE
  2
AcDbPolyline
  3
AutoCAD 2000
 90
    32768
280
     0
281
     1
  0
CLASS
  1
HATCH
  2
AcDbHatch
  3
AutoCAD 2000
 90
    32768
280
     0
281
     1
  0
CLASS
  1
XRECORD
  2
AcDbXrecord
  3
AutoCAD 2000
 90
    32768
280
     0
281
     0
  0
ENDSEC
  0
SECTION
  2
TABLES
  0
TABLE
  2
VPORT
  5
8
330
0
100
AcDbSymbolTable
 70
     5
  0
VPORT
  5
4EB6
330
8
100
AcDbSymbolTableRecord
100
AcDbViewportTableRecord
  2
*ACTIVE
 70
     0
 10
0.0
 20
0.0
 11
1.0
 21
1.0
 12
272.2620859693993
 22
9.607092912714513
 13
0.0
 23
0.0
 14
2.5
 24
2.5
 15
10.0
 25
10.0
 16
0.0
 26
0.0
 36
1.0
 17
0.0
 27
0.0
 37
0.0
 40
112.5103456204837
 41
1.717081850533807
 42
50.0
 43
0.0
 44
0.0
 50
0.0
 51
0.0
 71
     0
 72
   100
 73
     1
 74
     1
 75
     0
 76
     0
 77
     0
 78
     0
  0
ENDTAB
  0
TABLE
  2
LTYPE
  5
5
330
0
100
AcDbSymbolTable
 70
    17
  0
LTYPE
  5
13
330
5
100
AcDbSymbolTableRecord
100
AcDbLinetypeTableRecord
  2
BYBLOCK
 70
     0
  3

 72
    65
 73
     0
 40
0.0
  0
LTYPE
  5
14
330
5
100
AcDbSymbolTableRecord
100
AcDbLinetypeTableRecord
  2
BYLAYER
 70
     0
  3

 72
    65
 73
     0
 40
0.0
  0
LTYPE
  5
15
330
5
100
AcDbSymbolTableRecord
100
AcDbLinetypeTableRecord
  2
CONTINUOUS
 70
     0
  3
Solid line
 72
    65
 73
     0
 40
0.0
  0
LTYPE
  5
23
330
5
100
AcDbSymbolTableRecord
100
AcDbLinetypeTableRecord
  2
HIDDEN
 70
     0
  3
_ _ _ _ _ _ _ _ _ _ _ _ _ _ _ _ _ _ _ _ _ _ _
 72
    65
 73
     2
 40
0.375
 49
0.25
 74
     0
 49
-0.125
 74
     0
  0
LTYPE
  5
24
330
5
100
AcDbSymbolTableRecord
100
AcDbLinetypeTableRecord
  2
CENTER
 70
     0
  3
____ _ ____ _ ____ _ ____ _ ____ _ ____ _ ____
 72
    65
 73
     4
 40
2.0
 49
1.25
 74
     0
 49
-0.25
 74
     0
 49
0.25
 74
     0
 49
-0.25
 74
     0
  0
LTYPE
  5
7CE
330
5
100
AcDbSymbolTableRecord
100
AcDbLinetypeTableRecord
  2
AMCONSTR
 70
     0
  3
_______________________
 72
    65
 73
     2
 40
9999.0
 49
9999.0
 74
     0
 49
0.0
 74
     0
  0
LTYPE
  5
7CF
330
5
100
AcDbSymbolTableRecord
100
AcDbLinetypeTableRecord
  2
AM_ISO08W050X2
 70
     0
  3
__ . __ . __ . __ . __ . __
 72
    65
 73
     4
 40
9.0
 49
6.0
 74
     0
 49
-0.75
 74
     0
 49
1.5
 74
     0
 49
-0.75
 74
     0
  0
LTYPE
  5
7D4
330
5
100
AcDbSymbolTableRecord
100
AcDbLinetypeTableRecord
  2
PHANTOM2
 70
     0
  3
Phantom (.5x) ___ _ _ ___ _ _ ___ _ _ ___ _ _
 72
    65
 73
     6
 40
1.25
 49
0.625
 74
     0
 49
-0.125
 74
     0
 49
0.125
 74
     0
 49
-0.125
 74
     0
 49
0.125
 74
     0
 49
-0.125
 74
     0
  0
LTYPE
  5
7E3
330
5
100
AcDbSymbolTableRecord
100
AcDbLinetypeTableRecord
  2
ACANSTGB
 70
     0
  3
__ . . __ . .
 72
    65
 73
     6
 40
0.35433070866
 49
0.15748031496
 74
     0
 49
-0.03937007874
 74
     0
 49
0.03937007874
 74
     0
 49
-0.03937007874
 74
     0
 49
0.03937007874
 74
     0
 49
-0.03937007874
 74
     0
  0
LTYPE
  5
7E4
330
5
100
AcDbSymbolTableRecord
100
AcDbLinetypeTableRecord
  2
ACANSTGL
 70
     0
  3
_ _ _ _ _
 72
    65
 73
     2
 40
0.11811023622
 49
0.07874015748
 74
     0
 49
-0.03937007874
 74
     0
  0
LTYPE
  5
C13
330
5
100
AcDbSymbolTableRecord
100
AcDbLinetypeTableRecord
  2
ACISOWELD
 70
     0
  3
_ _ _ _ _
 72
    65
 73
     2
 40
2.0
 49
2.0
 74
     0
 49
-1.0
 74
     0
  0
LTYPE
  5
C14
330
5
100
AcDbSymbolTableRecord
100
AcDbLinetypeTableRecord
  2
ACISOTGB
 70
     0
  3
__ . . __ . .
 72
    65
 73
     6
 40
9.0
 49
4.0
 74
     0
 49
-1.0
 74
     0
 49
1.0
 74
     0
 49
-1.0
 74
     0
 49
1.0
 74
     0
 49
-1.0
 74
     0
  0
LTYPE
  5
C15
330
5
100
AcDbSymbolTableRecord
100
AcDbLinetypeTableRecord
  2
ACISOTGL
 70
     0
  3
_ _ _ _ _
 72
    65
 73
     2
 40
3.0
 49
2.0
 74
     0
 49
-1.0
 74
     0
  0
LTYPE
  5
16FD
330
5
100
AcDbSymbolTableRecord
100
AcDbLinetypeTableRecord
  2
AM_ISO02W050
 70
     0
  3
__ __ __ __ __ __ __ __ __ __ __ __ __ __ __
 72
    65
 73
     2
 40
7.5
 49
6.0
 74
     0
 49
-1.5
 74
     0
  0
LTYPE
  5
16FE
330
5
100
AcDbSymbolTableRecord
100
AcDbLinetypeTableRecord
  2
AM_ISO08W050
 70
     0
  3
____ . ____ . ____ . ____ . ____ . ____ . ____
 72
    65
 73
     4
 40
18.0
 49
12.0
 74
     0
 49
-1.5
 74
     0
 49
3.0
 74
     0
 49
-1.5
 74
     0
  0
LTYPE
  5
16FF
330
5
100
AcDbSymbolTableRecord
100
AcDbLinetypeTableRecord
  2
AM_ISO09W050
 70
     0
  3
_____ . . _____ . . _____ . . ____ .. ____
 72
    65
 73
     6
 40
22.5
 49
12.0
 74
     0
 49
-1.5
 74
     0
 49
3.0
 74
     0
 49
-1.5
 74
     0
 49
3.0
 74
     0
 49
-1.5
 74
     0
  0
LTYPE
  5
1700
330
5
100
AcDbSymbolTableRecord
100
AcDbLinetypeTableRecord
  2
AM_ISO02W050X2
 70
     0
  3
 _ _ _ _ _ _ _ _ _ _ _ _
 72
    65
 73
     2
 40
3.75
 49
3.0
 74
     0
 49
-0.75
 74
     0
  0
LTYPE
  5
1701
330
5
100
AcDbSymbolTableRecord
100
AcDbLinetypeTableRecord
  2
AMZIGZAG
 70
     0
  3
/\/-/\/-/\/-/\/-/\/-/\/
 72
    65
 73
     2
 40
11.00009999999999
 49
0.0001
 74
     4
 75
   135
340
7D2
 46
0.04
 50
0.0
 44
0.0
 45
0.0
 49
-11.0
 74
     0
  0
LTYPE
  5
2E01
330
5
100
AcDbSymbolTableRecord
100
AcDbLinetypeTableRecord
  2
DASHED
 70
     0
  3
__ __ __ __ __ __ __ __ __ __ __ __ __ __ __ __
 72
    65
 73
     2
 40
0.75
 49
0.5
 74
     0
 49
-0.25
 74
     0
  0
ENDTAB
  0
TABLE
  2
LAYER
  5
2
330
0
100
AcDbSymbolTable
 70
     7
  0
LAYER
  5
10
330
2
100
AcDbSymbolTableRecord
100
AcDbLayerTableRecord
  2
0
 70
     0
 62
     7
  6
CONTINUOUS
  0
LAYER
  5
26
330
2
100
AcDbSymbolTableRecord
100
AcDbLayerTableRecord
  2
DEFPOINTS
 70
     0
 62
     7
  6
CONTINUOUS
  0
LAYER
  5
516
330
2
100
AcDbSymbolTableRecord
100
AcDbLayerTableRecord
  2
ASHADE
 70
     0
 62
     7
  6
CONTINUOUS
  0
LAYER
  5
7F7
330
2
100
AcDbSymbolTableRecord
100
AcDbLayerTableRecord
  2
LOGO
 70
     0
 62
     7
  6
CONTINUOUS
  0
LAYER
  5
11C1
330
2
100
AcDbSymbolTableRecord
100
AcDbLayerTableRecord
  2
AM_5
 70
     0
 62
     5
  6
CONTINUOUS
  0
LAYER
  5
2E05
330
2
100
AcDbSymbolTableRecord
100
AcDbLayerTableRecord
  2
CENTER
 70
     0
 62
     1
  6
CENTER
  0
LAYER
  5
2E06
330
2
100
AcDbSymbolTableRecord
100
AcDbLayerTableRecord
  2
DASHED
 70
     0
 62
     6
  6
HIDDEN
  0
ENDTAB
  0
TABLE
  2
STYLE
  5
3
330
0
100
AcDbSymbolTable
 70
     9
  0
STYLE
  5
11
330
3
100
AcDbSymbolTableRecord
100
AcDbTextStyleTableRecord
  2
STANDARD
 70
     0
 40
0.0
 41
1.0
 50
0.0
 71
     0
 42
3.5
  3
ISOCP.SHX
  4

  0
STYLE
  5
22
330
3
100
AcDbSymbolTableRecord
100
AcDbTextStyleTableRecord
  2
DAYUS
 70
     0
 40
0.0
 41
1.0
 50
0.0
 71
     0
 42
3.0
  3
simplex
  4
dayus
  0
STYLE
  5
27B
330
3
100
AcDbSymbolTableRecord
100
AcDbTextStyleTableRecord
  2
CHINESET
 70
     0
 40
0.0
 41
1.0
 50
0.0
 71
     0
 42
4.0
  3
simplex.shx
  4
chineset.shx
  0
STYLE
  5
7D2
330
3
100
AcDbSymbolTableRecord
100
AcDbTextStyleTableRecord
  2

 70
     1
 40
0.0
 41
1.0
 50
0.0
 71
     0
 42
4.0
  3
ltypeshp.shx
  4

  0
STYLE
  5
7D7
330
3
100
AcDbSymbolTableRecord
100
AcDbTextStyleTableRecord
  2
ACANSTS
 70
     0
 40
1.0
 41
1.0
 50
0.0
 71
     0
 42
4.0
  3
romans.shx
  4
chineset.shx
  0
STYLE
  5
7E2
330
3
100
AcDbSymbolTableRecord
100
AcDbTextStyleTableRecord
  2
ACANSGDT
 70
     0
 40
0.0
 41
1.0
 50
0.0
 71
     0
 42
4.0
  3
amgdtans.shx
  4

  0
STYLE
  5
7F8
330
3
100
AcDbSymbolTableRecord
100
AcDbTextStyleTableRecord
  2
LOGO
 70
     0
 40
0.0
 41
1.0
 50
0.0
 71
     0
 42
5.0
  3
LEI00DP.TTF
  4

1001
ACAD
1000
文鼎中粗隸
1071
    34865
  0
STYLE
  5
C19
330
3
100
AcDbSymbolTableRecord
100
AcDbTextStyleTableRecord
  2
ACISOTS
 70
     0
 40
1.0
 41
1.0
 50
0.0
 71
     0
 42
2.5
  3
isocp.shx
  4
chineset.shx
  0
STYLE
  5
C1A
330
3
100
AcDbSymbolTableRecord
100
AcDbTextStyleTableRecord
  2
ACISOGDT
 70
     0
 40
0.0
 41
1.0
 50
0.0
 71
     0
 42
2.5
  3
amgdt.shx
  4

  0
ENDTAB
  0
TABLE
  2
VIEW
  5
6
330
0
100
AcDbSymbolTable
 70
     0
  0
ENDTAB
  0
TABLE
  2
UCS
  5
7
330
0
100
AcDbSymbolTable
 70
     0
  0
ENDTAB
  0
TABLE
  2
APPID
  5
9
330
0
100
AcDbSymbolTable
 70
    21
  0
APPID
  5
12
330
9
100
AcDbSymbolTableRecord
100
AcDbRegAppTableRecord
  2
ACAD
 70
     0
  0
APPID
  5
514
330
9
100
AcDbSymbolTableRecord
100
AcDbRegAppTableRecord
  2
AVE_RENDER
 70
     0
  0
APPID
  5
515
330
9
100
AcDbSymbolTableRecord
100
AcDbRegAppTableRecord
  2
AVE_ENTITY_MATERIAL
 70
     0
  0
APPID
  5
522
330
9
100
AcDbSymbolTableRecord
100
AcDbRegAppTableRecord
  2
AVE_FINISH
 70
     0
  0
APPID
  5
523
330
9
100
AcDbSymbolTableRecord
100
AcDbRegAppTableRecord
  2
AVE_MATERIAL
 70
     0
  0
APPID
  5
524
330
9
100
AcDbSymbolTableRecord
100
AcDbRegAppTableRecord
  2
AVE_GLOBAL
 70
     0
  0
APPID
  5
7AD
330
9
100
AcDbSymbolTableRecord
100
AcDbRegAppTableRecord
  2
MCAD_NO_VIS
 70
     0
  0
APPID
  5
7AE
330
9
100
AcDbSymbolTableRecord
100
AcDbRegAppTableRecord
  2
ACAD_TEMP_GRAPHIC
 70
     0
  0
APPID
  5
7BF
330
9
100
AcDbSymbolTableRecord
100
AcDbRegAppTableRecord
  2
ACATTRIBSERVICES
 70
     0
  0
APPID
  5
C22
330
9
100
AcDbSymbolTableRecord
100
AcDbRegAppTableRecord
  2
GENIUS_GENODEF_13
 70
     0
  0
APPID
  5
C23
330
9
100
AcDbSymbolTableRecord
100
AcDbRegAppTableRecord
  2
GENIUS_GENOREF_13
 70
     0
  0
APPID
  5
C24
330
9
100
AcDbSymbolTableRecord
100
AcDbRegAppTableRecord
  2
GENIUS_GENOBJ-N-CEN_13
 70
     0
  0
APPID
  5
16D2
330
9
100
AcDbSymbolTableRecord
100
AcDbRegAppTableRecord
  2
GENIUS_GENDTOL_13
 70
     0
  0
APPID
  5
353F
330
9
100
AcDbSymbolTableRecord
100
AcDbRegAppTableRecord
  2
GENIUS_GENDIMSH_14
 70
     0
  0
APPID
  5
4D84
330
9
100
AcDbSymbolTableRecord
100
AcDbRegAppTableRecord
  2
GEVID1082602174
 70
     0
  0
APPID
  5
4D85
330
9
100
AcDbSymbolTableRecord
100
AcDbRegAppTableRecord
  2
GEVDC
 70
     0
  0
APPID
  5
4D88
330
9
100
AcDbSymbolTableRecord
100
AcDbRegAppTableRecord
  2
GENIUS_GENBH_13
 70
     0
  0
APPID
  5
4D8E
330
9
100
AcDbSymbolTableRecord
100
AcDbRegAppTableRecord
  2
GENIUS_GENOLIS_13
 70
     0
  0
APPID
  5
4D8F
330
9
100
AcDbSymbolTableRecord
100
AcDbRegAppTableRecord
  2
GENIUS_GENOENT_13
 70
     0
  0
APPID
  5
4D90
330
9
100
AcDbSymbolTableRecord
100
AcDbRegAppTableRecord
  2
GENIUS_GENOBJ-NBEHI-BHF_13
 70
     0
  0
APPID
  5
4D92
330
9
100
AcDbSymbolTableRecord
100
AcDbRegAppTableRecord
  2
GENIUS_GENOBJ-NBEHI-BHB_13
 70
     0
  0
ENDTAB
  0
TABLE
  2
DIMSTYLE
  5
A
330
0
100
AcDbSymbolTable
 70
    13
  0
DIMSTYLE
105
7E8
330
A
100
AcDbSymbolTableRecord
100
AcDbDimStyleTableRecord
  2
AM_ANSI
 70
     0
  3

  4
mm
  5

  6

  7

 40
1.0
 41
0.1
 42
0.05
 43
0.5
 44
0.1
 45
0.0
 46
0.0
 47
0.1
 48
0.1
140
0.12
141
0.0
142
0.0
143
25.4
144
1.0
145
0.0
146
0.71
147
0.06
 71
     0
 72
     0
 73
     1
 74
     1
 75
     0
 76
     0
 77
     0
 78
     7
170
     0
171
     2
172
     0
173
     0
174
     0
175
     0
176
   256
177
   256
178
     2
270
     2
271
     4
272
     4
273
     2
274
     4
340
11
275
     0
280
     0
281
     0
282
     0
283
     1
284
     7
285
     0
286
     0
287
     3
288
     0
  0
DIMSTYLE
105
7E9
330
A
100
AcDbSymbolTableRecord
100
AcDbDimStyleTableRecord
  2
AM_ANSI$3
 70
     0
  3

  4
mm
  5

  6

  7

 40
1.0
 41
0.1
 42
0.05
 43
0.5
 44
0.1
 45
0.0
 46
0.0
 47
0.1
 48
0.1
140
0.12
141
0.0
142
0.0
143
25.4
144
1.0
145
0.0
146
0.71
147
0.06
 71
     0
 72
     0
 73
     1
 74
     1
 75
     0
 76
     0
 77
     0
 78
     7
170
     0
171
     2
172
     0
173
     0
174
     0
175
     0
176
   256
177
   256
178
     2
270
     2
271
     4
272
     4
273
     2
274
     4
340
11
275
     0
280
     0
281
     0
282
     0
283
     1
284
     7
285
     0
286
     0
287
     3
288
     1
  0
DIMSTYLE
105
7EA
330
A
100
AcDbSymbolTableRecord
100
AcDbDimStyleTableRecord
  2
AM_ANSI$4
 70
     0
  3

  4
mm
  5

  6

  7

 40
1.0
 41
0.1
 42
0.05
 43
0.5
 44
0.1
 45
0.0
 46
0.0
 47
0.1
 48
0.1
140
0.12
141
0.0
142
0.0
143
25.4
144
1.0
145
0.0
146
0.71
147
0.06
 71
     0
 72
     0
 73
     1
 74
     1
 75
     0
 76
     0
 77
     0
 78
     7
170
     0
171
     2
172
     0
173
     0
174
     0
175
     0
176
   256
177
   256
178
     2
270
     2
271
     4
272
     4
273
     2
274
     4
340
11
275
     0
280
     0
281
     0
282
     0
283
     1
284
     7
285
     0
286
     0
287
     3
288
     1
  0
DIMSTYLE
105
7EB
330
A
100
AcDbSymbolTableRecord
100
AcDbDimStyleTableRecord
  2
AM_ANSI$7
 70
     0
  3

  4
mm
  5

  6

  7

 40
1.0
 41
0.1
 42
0.05
 43
0.5
 44
0.1
 45
0.0
 46
0.0
 47
0.1
 48
0.1
140
0.24
141
0.0
142
0.0
143
25.4
144
1.0
145
0.0
146
0.71
147
0.06
 71
     0
 72
     0
 73
     1
 74
     1
 75
     0
 76
     0
 77
     0
 78
     7
170
     0
171
     2
172
     0
173
     0
174
     0
175
     0
176
   256
177
   256
178
     2
270
     2
271
     4
272
     4
273
     2
274
     4
340
11
275
     0
280
     0
281
     0
282
     0
283
     1
284
     7
285
     0
286
     0
287
     3
288
     0
  0
DIMSTYLE
105
7EC
330
A
100
AcDbSymbolTableRecord
100
AcDbDimStyleTableRecord
  2
AM_ANSI$SF
 70
     0
  3

  4
mm
  5

  6

  7

 40
1.0
 41
0.1
 42
0.05
 43
0.5
 44
0.1
 45
0.0
 46
0.0
 47
0.1
 48
0.1
140
0.12
141
0.0
142
0.0
143
25.4
144
1.0
145
0.0
146
0.71
147
0.06
 71
     0
 72
     0
 73
     1
 74
     1
 75
     1
 76
     1
 77
     0
 78
     7
170
     0
171
     2
172
     0
173
     0
174
     0
175
     0
176
   256
177
   256
178
     2
270
     2
271
     4
272
     4
273
     2
274
     4
340
11
275
     0
280
     0
281
     0
282
     0
283
     1
284
     7
285
     0
286
     0
287
     3
288
     0
  0
DIMSTYLE
105
7F1
330
A
100
AcDbSymbolTableRecord
100
AcDbDimStyleTableRecord
  2
AM_ANSI$SH
 70
     0
  3

  4
mm
  5

  6
GENAXEH
  7

 40
1.0
 41
0.1
 42
0.05
 43
0.5
 44
0.1
 45
0.0
 46
0.0
 47
0.1
 48
0.1
140
0.12
141
0.0
142
0.0
143
25.4
144
1.0
145
0.0
146
0.71
147
0.06
 71
     0
 72
     0
 73
     1
 74
     1
 75
     1
 76
     1
 77
     0
 78
     7
170
     0
171
     2
172
     0
173
     1
174
     0
175
     0
176
   256
177
   256
178
     2
270
     2
271
     4
272
     4
273
     2
274
     4
340
11
275
     0
280
     0
281
     0
282
     0
283
     1
284
     7
285
     0
286
     0
287
     3
288
     0
  0
DIMSTYLE
105
C1B
102
{ACAD_REACTORS
330
4882
330
48A6
330
48CA
330
48F2
330
4926
330
496C
330
4990
330
49B4
330
49D8
330
49FC
330
4A20
330
4A44
330
4A68
102
}
330
A
100
AcDbSymbolTableRecord
100
AcDbDimStyleTableRecord
  2
AM_ISO
 70
     0
  3

  4
"
  5

  6

  7

 40
1.0
 41
2.0
 42
1.0
 43
5.0
 44
1.5
 45
0.0
 46
0.0
 47
0.1
 48
0.1
140
2.0
141
3.0
142
0.0
143
0.0393701
144
1.0
145
0.0
146
0.71
147
0.6
 71
     0
 72
     0
 73
     0
 74
     0
 75
     0
 76
     0
 77
     1
 78
     8
170
     0
171
     2
172
     1
173
     0
174
     0
175
     0
176
   256
177
   256
178
   256
270
     2
271
     2
272
     2
273
     2
274
     2
340
11
275
     0
280
     0
281
     0
282
     0
283
     0
284
     8
285
     0
286
     0
287
     3
288
     0
  0
DIMSTYLE
105
C1C
330
A
100
AcDbSymbolTableRecord
100
AcDbDimStyleTableRecord
  2
AM_ISO$3
 70
     0
  3

  4
"
  5

  6

  7

 40
1.0
 41
2.0
 42
1.0
 43
5.0
 44
1.5
 45
0.0
 46
0.0
 47
0.1
 48
0.1
140
2.0
141
3.0
142
0.0
143
0.0393701
144
1.0
145
0.0
146
0.71
147
0.6
 71
     0
 72
     0
 73
     0
 74
     1
 75
     0
 76
     0
 77
     1
 78
     8
170
     0
171
     2
172
     0
173
     0
174
     0
175
     0
176
   256
177
   256
178
   256
270
     2
271
     2
272
     2
273
     2
274
     2
340
11
275
     0
280
     0
281
     0
282
     0
283
     0
284
     8
285
     0
286
     0
287
     0
288
     1
  0
DIMSTYLE
105
C1D
330
A
100
AcDbSymbolTableRecord
100
AcDbDimStyleTableRecord
  2
AM_ISO$4
 70
     0
  3

  4
"
  5

  6

  7

 40
1.0
 41
2.0
 42
1.0
 43
5.0
 44
1.5
 45
0.0
 46
0.0
 47
0.1
 48
0.1
140
2.0
141
3.0
142
0.0
143
0.0393701
144
1.0
145
0.0
146
0.71
147
0.6
 71
     0
 72
     0
 73
     0
 74
     1
 75
     0
 76
     0
 77
     1
 78
     8
170
     0
171
     2
172
     0
173
     0
174
     0
175
     0
176
   256
177
   256
178
   256
270
     2
271
     2
272
     2
273
     2
274
     2
340
11
275
     0
280
     0
281
     0
282
     0
283
     0
284
     8
285
     0
286
     0
287
     0
288
     1
  0
DIMSTYLE
105
C1E
330
A
100
AcDbSymbolTableRecord
100
AcDbDimStyleTableRecord
  2
AM_ISO$6
 70
     0
  3

  4
"
  5

  6

  7

 40
1.0
 41
2.0
 42
1.0
 43
5.0
 44
1.5
 45
0.0
 46
0.0
 47
0.1
 48
0.1
140
2.0
141
3.0
142
0.0
143
0.0393701
144
1.0
145
0.0
146
0.71
147
0.6
 71
     0
 72
     0
 73
     0
 74
     0
 75
     0
 76
     0
 77
     0
 78
     8
170
     0
171
     2
172
     1
173
     0
174
     0
175
     0
176
   256
177
   256
178
   256
270
     2
271
     2
272
     2
273
     2
274
     2
340
11
275
     0
280
     0
281
     0
282
     0
283
     0
284
     8
285
     0
286
     0
287
     3
288
     0
  0
DIMSTYLE
105
C1F
330
A
100
AcDbSymbolTableRecord
100
AcDbDimStyleTableRecord
  2
AM_ISO$7
 70
     0
  3

  4
"
  5

  6

  7

 40
1.0
 41
2.0
 42
1.0
 43
5.0
 44
1.5
 45
0.0
 46
0.0
 47
0.1
 48
0.1
140
5.0
141
3.0
142
0.0
143
0.0393701
144
1.0
145
0.0
146
0.71
147
0.6
 71
     0
 72
     0
 73
     0
 74
     0
 75
     0
 76
     0
 77
     1
 78
     8
170
     0
171
     2
172
     1
173
     0
174
     0
175
     0
176
   256
177
   256
178
   256
270
     2
271
     2
272
     2
273
     2
274
     2
340
11
275
     0
280
     0
281
     0
282
     0
283
     0
284
     8
285
     0
286
     0
287
     3
288
     0
  0
DIMSTYLE
105
C20
330
A
100
AcDbSymbolTableRecord
100
AcDbDimStyleTableRecord
  2
AM_ISO$SF
 70
     0
  3

  4
"
  5

  6

  7

 40
1.0
 41
2.5
 42
1.0
 43
10.0
 44
1.0
 45
0.0
 46
0.0
 47
0.1
 48
0.1
140
3.5
141
0.0
142
0.0
143
0.0393701
144
1.0
145
0.0
146
0.71
147
1.5
 71
     0
 72
     0
 73
     0
 74
     0
 75
     1
 76
     1
 77
     1
 78
     8
170
     0
171
     2
172
     1
173
     0
174
     0
175
     0
176
   256
177
   256
178
     2
270
     2
271
     2
272
     3
273
     2
274
     4
340
11
275
     0
280
     0
281
     0
282
     0
283
     0
284
     8
285
     0
286
     0
287
     3
288
     0
  0
DIMSTYLE
105
C21
330
A
100
AcDbSymbolTableRecord
100
AcDbDimStyleTableRecord
  2
AM_ISO$SH
 70
     0
  3

  4
"
  5

  6
GENAXEH
  7

 40
1.0
 41
2.5
 42
1.0
 43
10.0
 44
1.0
 45
0.0
 46
0.0
 47
0.1
 48
0.1
140
3.5
141
0.0
142
0.0
143
0.0393701
144
2.0
145
0.0
146
0.71
147
1.5
 71
     0
 72
     0
 73
     0
 74
     0
 75
     1
 76
     1
 77
     1
 78
     8
170
     0
171
     2
172
     1
173
     1
174
     0
175
     0
176
   256
177
   256
178
     2
270
     2
271
     2
272
     3
273
     2
274
     4
340
11
275
     0
280
     0
281
     0
282
     0
283
     0
284
     8
285
     0
286
     0
287
     3
288
     0
  0
ENDTAB
  0
TABLE
  2
BLOCK_RECORD
  5
1
330
0
100
AcDbSymbolTable
 70
    19
  0
BLOCK_RECORD
  5
1E
102
{ACAD_XDICTIONARY
360
708
102
}
330
1
100
AcDbSymbolTableRecord
100
AcDbBlockTableRecord
  2
*MODEL_SPACE
  0
BLOCK_RECORD
  5
1A
102
{ACAD_XDICTIONARY
360
70A
102
}
330
1
100
AcDbSymbolTableRecord
100
AcDbBlockTableRecord
  2
*PAPER_SPACE
  0
BLOCK_RECORD
  5
517
330
1
100
AcDbSymbolTableRecord
100
AcDbBlockTableRecord
  2
AVE_RENDER
  0
BLOCK_RECORD
  5
525
330
1
100
AcDbSymbolTableRecord
100
AcDbBlockTableRecord
  2
AVE_GLOBAL
  0
BLOCK_RECORD
  5
7ED
330
1
100
AcDbSymbolTableRecord
100
AcDbBlockTableRecord
  2
GENAXEH
  0
BLOCK_RECORD
  5
18E9
330
1
100
AcDbSymbolTableRecord
100
AcDbBlockTableRecord
  2
GENDOT
  0
BLOCK_RECORD
  5
4883
330
1
100
AcDbSymbolTableRecord
100
AcDbBlockTableRecord
  2
*D4
  0
BLOCK_RECORD
  5
48A7
330
1
100
AcDbSymbolTableRecord
100
AcDbBlockTableRecord
  2
*D5
  0
BLOCK_RECORD
  5
48CB
330
1
100
AcDbSymbolTableRecord
100
AcDbBlockTableRecord
  2
*D6
  0
BLOCK_RECORD
  5
48F3
330
1
100
AcDbSymbolTableRecord
100
AcDbBlockTableRecord
  2
*D7
  0
BLOCK_RECORD
  5
4927
330
1
100
AcDbSymbolTableRecord
100
AcDbBlockTableRecord
  2
*D8
  0
BLOCK_RECORD
  5
496D
330
1
100
AcDbSymbolTableRecord
100
AcDbBlockTableRecord
  2
*D9
  0
BLOCK_RECORD
  5
4991
330
1
100
AcDbSymbolTableRecord
100
AcDbBlockTableRecord
  2
*D10
  0
BLOCK_RECORD
  5
49B5
330
1
100
AcDbSymbolTableRecord
100
AcDbBlockTableRecord
  2
*D11
  0
BLOCK_RECORD
  5
49D9
330
1
100
AcDbSymbolTableRecord
100
AcDbBlockTableRecord
  2
*D12
  0
BLOCK_RECORD
  5
49FD
330
1
100
AcDbSymbolTableRecord
100
AcDbBlockTableRecord
  2
*D13
  0
BLOCK_RECORD
  5
4A21
330
1
100
AcDbSymbolTableRecord
100
AcDbBlockTableRecord
  2
*D14
  0
BLOCK_RECORD
  5
4A45
330
1
100
AcDbSymbolTableRecord
100
AcDbBlockTableRecord
  2
*D15
  0
BLOCK_RECORD
  5
4A69
330
1
100
AcDbSymbolTableRecord
100
AcDbBlockTableRecord
  2
*D16
  0
BLOCK_RECORD
  5
4ED9
330
1
100
AcDbSymbolTableRecord
100
AcDbBlockTableRecord
  2
*S17
  0
BLOCK_RECORD
  5
4EE2
330
1
100
AcDbSymbolTableRecord
100
AcDbBlockTableRecord
  2
*S18
  0
ENDTAB
  0
ENDSEC
  0
SECTION
  2
BLOCKS
  0
BLOCK
  5
29
330
1E
100
AcDbEntity
  8
0
100
AcDbBlockBegin
  2
*MODEL_SPACE
 70
     0
 10
0.0
 20
0.0
 30
0.0
  3
*MODEL_SPACE
  1

  0
ENDBLK
  5
2A
330
1E
100
AcDbEntity
  8
0
100
AcDbBlockEnd
  0
BLOCK
  5
27
330
1A
100
AcDbEntity
 67
     1
  8
0
100
AcDbBlockBegin
  2
*PAPER_SPACE
 70
     0
 10
0.0
 20
0.0
 30
0.0
  3
*PAPER_SPACE
  1

  0
ENDBLK
  5
28
330
1A
100
AcDbEntity
 67
     1
  8
0
100
AcDbBlockEnd
  0
BLOCK
  5
518
330
517
100
AcDbEntity
  8
0
100
AcDbBlockBegin
  2
AVE_RENDER
 70
     0
 10
0.0
 20
0.0
 30
0.0
  3
AVE_RENDER
  1
AVE_RENDER
  0
ENDBLK
  5
519
330
517
100
AcDbEntity
  8
0
100
AcDbBlockEnd
  0
BLOCK
  5
526
330
525
100
AcDbEntity
  8
0
100
AcDbBlockBegin
  2
AVE_GLOBAL
 70
     0
 10
0.0
 20
0.0
 30
0.0
  3
AVE_GLOBAL
  1
AVE_GLOBAL
  0
ENDBLK
  5
527
330
525
100
AcDbEntity
  8
0
100
AcDbBlockEnd
  0
BLOCK
  5
7EF
330
7ED
100
AcDbEntity
  8
0
100
AcDbBlockBegin
  2
GENAXEH
 70
     0
 10
0.0
 20
0.0
 30
0.0
  3
GENAXEH
  1

  0
LINE
  5
7EE
330
7ED
100
AcDbEntity
  8
0
100
AcDbLine
 10
-1.0
 20
0.0
 30
0.0
 11
1.0
 21
0.0
 31
0.0
  0
ENDBLK
  5
7F0
330
7ED
100
AcDbEntity
  8
0
100
AcDbBlockEnd
  0
BLOCK
  5
18EC
330
18E9
100
AcDbEntity
  8
0
100
AcDbBlockBegin
  2
GENDOT
 70
     0
 10
0.0
 20
0.0
 30
0.0
  3
GENDOT
  1

  0
LINE
  5
18EA
330
18E9
100
AcDbEntity
  8
0
100
AcDbLine
 10
0.0
 20
0.0
 30
0.0
 11
-1.0
 21
0.0
 31
0.0
  0
POLYLINE
  5
18EB
330
18E9
100
AcDbEntity
  8
0
100
AcDb2dPolyline
 66
     1
 10
0.0
 20
0.0
 30
0.0
 70
     1
 40
0.25
 41
0.25
  0
VERTEX
  5
4EB9
330
18EB
100
AcDbEntity
  8
0
100
AcDbVertex
100
AcDb2dVertex
 10
-0.125
 20
0.0
 30
0.0
 42
1.0
  0
VERTEX
  5
4EBA
330
18EB
100
AcDbEntity
  8
0
100
AcDbVertex
100
AcDb2dVertex
 10
0.125
 20
0.0
 30
0.0
 42
1.0
  0
SEQEND
  5
4EBB
330
18EB
100
AcDbEntity
  8
0
  0
ENDBLK
  5
18ED
330
18E9
100
AcDbEntity
  8
0
100
AcDbBlockEnd
  0
BLOCK
  5
488D
330
4883
100
AcDbEntity
  8
0
100
AcDbBlockBegin
  2
*D4
 70
     1
 10
0.0
 20
0.0
 30
0.0
  3
*D4
  1

  0
LINE
  5
4D17
330
4883
100
AcDbEntity
  8
AM_5
100
AcDbLine
 10
212.6667814982416
 20
27.30864552062655
 30
0.0
 11
212.6667814982416
 21
31.36824576950323
 31
0.0
  0
LINE
  5
4D18
330
4883
100
AcDbEntity
  8
AM_5
100
AcDbLine
 10
218.1667814982416
 20
24.60825718705109
 30
0.0
 11
218.1667814982416
 21
31.36824576950323
 31
0.0
  0
LINE
  5
4D19
330
4883
100
AcDbEntity
  8
AM_5
100
AcDbLine
 10
214.6667814982416
 20
29.86824576950323
 30
0.0
 11
216.1667814982416
 21
29.86824576950323
 31
0.0
  0
SOLID
  5
4D1A
330
4883
100
AcDbEntity
  8
AM_5
100
AcDbTrace
 10
214.6667814982416
 20
30.20157910283656
 30
0.0
 11
214.6667814982416
 21
29.5349124361699
 31
0.0
 12
212.6667814982416
 22
29.86824576950323
 32
0.0
 13
212.6667814982416
 23
29.86824576950323
 33
0.0
  0
SOLID
  5
4D1B
330
4883
100
AcDbEntity
  8
AM_5
100
AcDbTrace
 10
216.1667814982416
 20
30.20157910283656
 30
0.0
 11
216.1667814982416
 21
29.5349124361699
 31
0.0
 12
218.1667814982416
 22
29.86824576950323
 32
0.0
 13
218.1667814982416
 23
29.86824576950323
 33
0.0
  0
MTEXT
  5
4D1C
330
4883
100
AcDbEntity
  8
AM_5
100
AcDbMText
 10
215.4167814982416
 20
31.46824576950323
 30
0.0
 40
2.0
 41
0.0
 71
     5
 72
     1
  1
5.5
1001
ACAD
1000
MTEXTBEGIN
1070
    73
1070
     1
1070
    44
1040
1.0
1070
    74
1070
     0
1000
MTEXTEND
  0
POINT
  5
4D1D
330
4883
100
AcDbEntity
  8
DEFPOINTS
 62
     0
100
AcDbPoint
 10
212.6667814982416
 20
26.30864552062655
 30
0.0
  0
POINT
  5
4D1E
330
4883
100
AcDbEntity
  8
DEFPOINTS
 62
     0
100
AcDbPoint
 10
218.1667814982416
 20
23.60825718705109
 30
0.0
  0
POINT
  5
4D1F
330
4883
100
AcDbEntity
  8
DEFPOINTS
 62
     0
100
AcDbPoint
 10
218.1667814982416
 20
29.86824576950323
 30
0.0
  0
ENDBLK
  5
488E
330
4883
100
AcDbEntity
  8
0
100
AcDbBlockEnd
  0
BLOCK
  5
48B1
330
48A7
100
AcDbEntity
  8
0
100
AcDbBlockBegin
  2
*D5
 70
     1
 10
0.0
 20
0.0
 30
0.0
  3
*D5
  1

  0
LINE
  5
4D0E
330
48A7
100
AcDbEntity
  8
AM_5
100
AcDbLine
 10
242.1667814982416
 20
27.30864552062655
 30
0.0
 11
242.1667814982416
 21
31.36824576950323
 31
0.0
  0
LINE
  5
4D0F
330
48A7
100
AcDbEntity
  8
AM_5
100
AcDbLine
 10
234.1667814982416
 20
24.60825718705109
 30
0.0
 11
234.1667814982416
 21
31.36824576950323
 31
0.0
  0
LINE
  5
4D10
330
48A7
100
AcDbEntity
  8
AM_5
100
AcDbLine
 10
240.1667814982416
 20
29.86824576950323
 30
0.0
 11
236.1667814982416
 21
29.86824576950323
 31
0.0
  0
SOLID
  5
4D11
330
48A7
100
AcDbEntity
  8
AM_5
100
AcDbTrace
 10
240.1667814982416
 20
30.20157910283656
 30
0.0
 11
240.1667814982416
 21
29.5349124361699
 31
0.0
 12
242.1667814982416
 22
29.86824576950323
 32
0.0
 13
242.1667814982416
 23
29.86824576950323
 33
0.0
  0
SOLID
  5
4D12
330
48A7
100
AcDbEntity
  8
AM_5
100
AcDbTrace
 10
236.1667814982416
 20
30.20157910283656
 30
0.0
 11
236.1667814982416
 21
29.5349124361699
 31
0.0
 12
234.1667814982416
 22
29.86824576950323
 32
0.0
 13
234.1667814982416
 23
29.86824576950323
 33
0.0
  0
MTEXT
  5
4D13
330
48A7
100
AcDbEntity
  8
AM_5
100
AcDbMText
 10
238.1667814982416
 20
31.46824576950323
 30
0.0
 40
2.0
 41
0.0
 71
     5
 72
     1
  1
8
1001
ACAD
1000
MTEXTBEGIN
1070
    73
1070
     1
1070
    44
1040
1.0
1070
    74
1070
     0
1000
MTEXTEND
  0
POINT
  5
4D14
330
48A7
100
AcDbEntity
  8
DEFPOINTS
 62
     0
100
AcDbPoint
 10
242.1667814982416
 20
26.30864552062655
 30
0.0
  0
POINT
  5
4D15
330
48A7
100
AcDbEntity
  8
DEFPOINTS
 62
     0
100
AcDbPoint
 10
234.1667814982416
 20
23.60825718705109
 30
0.0
  0
POINT
  5
4D16
330
48A7
100
AcDbEntity
  8
DEFPOINTS
 62
     0
100
AcDbPoint
 10
234.1667814982416
 20
29.86824576950323
 30
0.0
  0
ENDBLK
  5
48B2
330
48A7
100
AcDbEntity
  8
0
100
AcDbBlockEnd
  0
BLOCK
  5
48D5
330
48CB
100
AcDbEntity
  8
0
100
AcDbBlockBegin
  2
*D6
 70
     1
 10
0.0
 20
0.0
 30
0.0
  3
*D6
  1

  0
LINE
  5
4EBC
330
48CB
100
AcDbEntity
  8
AM_5
100
AcDbLine
 10
212.6667814982416
 20
-4.688354479373401
 30
0.0
 11
212.6667814982416
 21
-12.93099125392427
 31
0.0
  0
LINE
  5
4EBD
330
48CB
100
AcDbEntity
  8
AM_5
100
AcDbLine
 10
242.1667814982416
 20
-4.688354479373401
 30
0.0
 11
242.1667814982416
 21
-12.93099125392427
 31
0.0
  0
LINE
  5
4EBE
330
48CB
100
AcDbEntity
  8
AM_5
100
AcDbLine
 10
214.6667814982416
 20
-11.43099125392427
 30
0.0
 11
240.1667814982416
 21
-11.43099125392427
 31
0.0
  0
SOLID
  5
4EBF
330
48CB
100
AcDbEntity
  8
AM_5
100
AcDbTrace
 10
214.6667814982416
 20
-11.09765792059094
 30
0.0
 11
214.6667814982416
 21
-11.76432458725761
 31
0.0
 12
212.6667814982416
 22
-11.43099125392427
 32
0.0
 13
212.6667814982416
 23
-11.43099125392427
 33
0.0
  0
INSERT
  5
4EC0
330
48CB
100
AcDbEntity
  8
AM_5
100
AcDbBlockReference
  2
GENDOT
 10
242.1667814982416
 20
-11.43099125392427
 30
0.0
 41
2.0
 42
2.0
 43
2.0
  0
MTEXT
  5
4EC1
330
48CB
100
AcDbEntity
  8
AM_5
100
AcDbMText
 10
227.4167814982416
 20
-9.830794403530575
 30
0.0
 40
2.0
 41
0.0
 71
     5
 72
     1
  1
29.5+stroke
  0
POINT
  5
4EC2
330
48CB
100
AcDbEntity
  8
DEFPOINTS
 62
     0
100
AcDbPoint
 10
212.6667814982416
 20
-3.688354479373401
 30
0.0
  0
POINT
  5
4EC3
330
48CB
100
AcDbEntity
  8
DEFPOINTS
 62
     0
100
AcDbPoint
 10
242.1667814982416
 20
-3.688354479373401
 30
0.0
  0
POINT
  5
4EC4
330
48CB
100
AcDbEntity
  8
DEFPOINTS
 62
     0
100
AcDbPoint
 10
242.1667814982416
 20
-11.43099125392427
 30
0.0
  0
ENDBLK
  5
48D6
330
48CB
100
AcDbEntity
  8
0
100
AcDbBlockEnd
  0
BLOCK
  5
48FF
330
48F3
100
AcDbEntity
  8
0
100
AcDbBlockBegin
  2
*D7
 70
     1
 10
0.0
 20
0.0
 30
0.0
  3
*D7
  1

  0
LINE
  5
4EC5
330
48F3
100
AcDbEntity
  8
AM_5
100
AcDbLine
 10
242.1667814982416
 20
-4.688354479373401
 30
0.0
 11
242.1667814982416
 21
-12.93099125392427
 31
0.0
  0
LINE
  5
4EC6
330
48F3
100
AcDbEntity
  8
AM_5
100
AcDbLine
 10
246.1667814982416
 20
-5.689854479373478
 30
0.0
 11
246.1667814982416
 21
-12.93099125392427
 31
0.0
  0
LINE
  5
4EC7
330
48F3
100
AcDbEntity
  8
AM_5
100
AcDbLine
 10
240.1667814982416
 20
-11.43099125392427
 30
0.0
 11
238.1667814982416
 21
-11.43099125392427
 31
0.0
  0
LINE
  5
4EC8
330
48F3
100
AcDbEntity
  8
AM_5
100
AcDbLine
 10
248.1667814982416
 20
-11.43099125392427
 30
0.0
 11
250.1667814982416
 21
-11.43099125392427
 31
0.0
  0
LINE
  5
4EC9
330
48F3
100
AcDbEntity
  8
AM_5
100
AcDbLine
 10
242.1667814982416
 20
-11.43099125392427
 30
0.0
 11
246.1667814982416
 21
-11.43099125392427
 31
0.0
  0
INSERT
  5
4ECA
330
48F3
100
AcDbEntity
  8
AM_5
100
AcDbBlockReference
  2
GENDOT
 10
242.1667814982416
 20
-11.43099125392427
 30
0.0
 41
2.0
 42
2.0
 43
2.0
  0
INSERT
  5
4ECB
330
48F3
100
AcDbEntity
  8
AM_5
100
AcDbBlockReference
  2
GENDOT
 10
246.1667814982416
 20
-11.43099125392427
 30
0.0
 41
2.0
 42
2.0
 43
2.0
 50
180.0
  0
MTEXT
  5
4ECC
330
48F3
100
AcDbEntity
  8
AM_5
100
AcDbMText
 10
244.1667814982416
 20
-9.83099125392427
 30
0.0
 40
2.0
 41
0.0
 71
     5
 72
     1
  1
4
  0
POINT
  5
4ECD
330
48F3
100
AcDbEntity
  8
DEFPOINTS
 62
     0
100
AcDbPoint
 10
242.1667814982416
 20
-3.688354479373401
 30
0.0
  0
POINT
  5
4ECE
330
48F3
100
AcDbEntity
  8
DEFPOINTS
 62
     0
100
AcDbPoint
 10
246.1667814982416
 20
-4.689854479373478
 30
0.0
  0
POINT
  5
4ECF
330
48F3
100
AcDbEntity
  8
DEFPOINTS
 62
     0
100
AcDbPoint
 10
246.1667814982416
 20
-11.43099125392427
 30
0.0
  0
ENDBLK
  5
4900
330
48F3
100
AcDbEntity
  8
0
100
AcDbBlockEnd
  0
BLOCK
  5
4931
330
4927
100
AcDbEntity
  8
0
100
AcDbBlockBegin
  2
*D8
 70
     1
 10
0.0
 20
0.0
 30
0.0
  3
*D8
  1

  0
LINE
  5
4ED0
330
4927
100
AcDbEntity
  8
AM_5
100
AcDbLine
 10
246.1667814982416
 20
-5.689854479373478
 30
0.0
 11
246.1667814982416
 21
-12.93099125392425
 31
0.0
  0
LINE
  5
4ED1
330
4927
100
AcDbEntity
  8
AM_5
100
AcDbLine
 10
254.1667814982417
 20
-5.689854479373478
 30
0.0
 11
254.1667814982417
 21
-12.93099125392425
 31
0.0
  0
LINE
  5
4ED2
330
4927
100
AcDbEntity
  8
AM_5
100
AcDbLine
 10
248.1667814982416
 20
-11.43099125392425
 30
0.0
 11
252.1667814982416
 21
-11.43099125392425
 31
0.0
  0
INSERT
  5
4ED3
330
4927
100
AcDbEntity
  8
AM_5
100
AcDbBlockReference
  2
GENDOT
 10
246.1667814982416
 20
-11.43099125392425
 30
0.0
 41
2.0
 42
2.0
 43
2.0
 50
180.0
  0
SOLID
  5
4ED4
330
4927
100
AcDbEntity
  8
AM_5
100
AcDbTrace
 10
252.1667814982416
 20
-11.09765792059092
 30
0.0
 11
252.1667814982416
 21
-11.76432458725758
 31
0.0
 12
254.1667814982417
 22
-11.43099125392425
 32
0.0
 13
254.1667814982417
 23
-11.43099125392425
 33
0.0
  0
MTEXT
  5
4ED5
330
4927
100
AcDbEntity
  8
AM_5
100
AcDbMText
 10
250.1667814982416
 20
-9.830991253924254
 30
0.0
 40
2.0
 41
0.0
 71
     5
 72
     1
  1
8
  0
POINT
  5
4ED6
330
4927
100
AcDbEntity
  8
DEFPOINTS
 62
     0
100
AcDbPoint
 10
246.1667814982416
 20
-4.689854479373478
 30
0.0
  0
POINT
  5
4ED7
330
4927
100
AcDbEntity
  8
DEFPOINTS
 62
     0
100
AcDbPoint
 10
254.1667814982417
 20
-4.689854479373478
 30
0.0
  0
POINT
  5
4ED8
330
4927
100
AcDbEntity
  8
DEFPOINTS
 62
     0
100
AcDbPoint
 10
254.1667814982417
 20
-11.43099125392425
 30
0.0
  0
ENDBLK
  5
4932
330
4927
100
AcDbEntity
  8
0
100
AcDbBlockEnd
  0
BLOCK
  5
4977
330
496D
100
AcDbEntity
  8
0
100
AcDbBlockBegin
  2
*D9
 70
     1
 10
0.0
 20
0.0
 30
0.0
  3
*D9
  1

  0
LINE
  5
4D29
330
496D
100
AcDbEntity
  8
AM_5
100
AcDbLine
 10
212.6667814982416
 20
-4.688354479373401
 30
0.0
 11
212.6667814982416
 21
-18.1898544793735
 31
0.0
  0
LINE
  5
4D2A
330
496D
100
AcDbEntity
  8
AM_5
100
AcDbLine
 10
254.1667814982417
 20
-5.689854479373478
 30
0.0
 11
254.1667814982417
 21
-18.1898544793735
 31
0.0
  0
LINE
  5
4D2B
330
496D
100
AcDbEntity
  8
AM_5
100
AcDbLine
 10
214.6667814982416
 20
-16.6898544793735
 30
0.0
 11
252.1667814982416
 21
-16.6898544793735
 31
0.0
  0
SOLID
  5
4D2C
330
496D
100
AcDbEntity
  8
AM_5
100
AcDbTrace
 10
214.6667814982416
 20
-16.35652114604017
 30
0.0
 11
214.6667814982416
 21
-17.02318781270683
 31
0.0
 12
212.6667814982416
 22
-16.6898544793735
 32
0.0
 13
212.6667814982416
 23
-16.6898544793735
 33
0.0
  0
SOLID
  5
4D2D
330
496D
100
AcDbEntity
  8
AM_5
100
AcDbTrace
 10
252.1667814982416
 20
-16.35652114604017
 30
0.0
 11
252.1667814982416
 21
-17.02318781270683
 31
0.0
 12
254.1667814982417
 22
-16.6898544793735
 32
0.0
 13
254.1667814982417
 23
-16.6898544793735
 33
0.0
  0
MTEXT
  5
4D2E
330
496D
100
AcDbEntity
  8
AM_5
100
AcDbMText
 10
233.4167814982416
 20
-15.0898544793735
 30
0.0
 40
2.0
 41
0.0
 71
     5
 72
     1
  1
41.5+stroke
1001
ACAD
1000
MTEXTBEGIN
1070
    73
1070
     1
1070
    44
1040
1.0
1070
    74
1070
     0
1000
MTEXTEND
  0
POINT
  5
4D2F
330
496D
100
AcDbEntity
  8
DEFPOINTS
 62
     0
100
AcDbPoint
 10
212.6667814982416
 20
-3.688354479373401
 30
0.0
  0
POINT
  5
4D30
330
496D
100
AcDbEntity
  8
DEFPOINTS
 62
     0
100
AcDbPoint
 10
254.1667814982417
 20
-4.689854479373478
 30
0.0
  0
POINT
  5
4D31
330
496D
100
AcDbEntity
  8
DEFPOINTS
 62
     0
100
AcDbPoint
 10
254.1667814982417
 20
-16.6898544793735
 30
0.0
  0
ENDBLK
  5
4978
330
496D
100
AcDbEntity
  8
0
100
AcDbBlockEnd
  0
BLOCK
  5
499B
330
4991
100
AcDbEntity
  8
0
100
AcDbBlockBegin
  2
*D10
 70
     1
 10
0.0
 20
0.0
 30
0.0
  3
*D10
  1

  0
LINE
  5
4D20
330
4991
100
AcDbEntity
  8
AM_5
100
AcDbLine
 10
255.1667814982416
 20
-4.689854479373478
 30
0.0
 11
263.5899561965051
 21
-4.68985447937348
 31
0.0
  0
LINE
  5
4D21
330
4991
100
AcDbEntity
  8
AM_5
100
AcDbLine
 10
255.1667814982416
 20
27.31014552062652
 30
0.0
 11
263.5899561965051
 21
27.31014552062652
 31
0.0
  0
LINE
  5
4D22
330
4991
100
AcDbEntity
  8
AM_5
100
AcDbLine
 10
262.0899561965051
 20
-2.68985447937348
 30
0.0
 11
262.0899561965051
 21
25.31014552062652
 31
0.0
  0
SOLID
  5
4D23
330
4991
100
AcDbEntity
  8
AM_5
100
AcDbTrace
 10
261.7566228631718
 20
-2.68985447937348
 30
0.0
 11
262.4232895298384
 21
-2.68985447937348
 31
0.0
 12
262.0899561965051
 22
-4.68985447937348
 32
0.0
 13
262.0899561965051
 23
-4.68985447937348
 33
0.0
  0
SOLID
  5
4D24
330
4991
100
AcDbEntity
  8
AM_5
100
AcDbTrace
 10
261.7566228631718
 20
25.31014552062652
 30
0.0
 11
262.4232895298384
 21
25.31014552062652
 31
0.0
 12
262.0899561965051
 22
27.31014552062652
 32
0.0
 13
262.0899561965051
 23
27.31014552062652
 33
0.0
  0
MTEXT
  5
4D25
330
4991
100
AcDbEntity
  8
AM_5
100
AcDbMText
 10
260.4897593461114
 20
11.31014552062656
 30
0.0
 40
2.0
 41
0.0
 71
     5
 72
     1
  1
32
 11
0.0000000000000001
 21
1.0
 31
0.0
1001
ACAD
1000
MTEXTBEGIN
1070
    73
1070
     1
1070
    44
1040
1.0
1070
    74
1070
     0
1000
MTEXTEND
  0
POINT
  5
4D26
330
4991
100
AcDbEntity
  8
DEFPOINTS
 62
     0
100
AcDbPoint
 10
254.1667814982417
 20
-4.689854479373478
 30
0.0
  0
POINT
  5
4D27
330
4991
100
AcDbEntity
  8
DEFPOINTS
 62
     0
100
AcDbPoint
 10
254.1667814982417
 20
27.31014552062652
 30
0.0
  0
POINT
  5
4D28
330
4991
100
AcDbEntity
  8
DEFPOINTS
 62
     0
100
AcDbPoint
 10
262.0899561965051
 20
27.31014552062652
 30
0.0
  0
ENDBLK
  5
499C
330
4991
100
AcDbEntity
  8
0
100
AcDbBlockEnd
  0
BLOCK
  5
49BF
330
49B5
100
AcDbEntity
  8
0
100
AcDbBlockBegin
  2
*D11
 70
     1
 10
0.0
 20
0.0
 30
0.0
  3
*D11
  1

  0
LINE
  5
4D4F
330
49B5
100
AcDbEntity
  8
AM_5
100
AcDbLine
 10
280.1586258907565
 20
-3.189854479373479
 30
0.0
 11
280.1586258907565
 21
-13.19954522900985
 31
0.0
  0
LINE
  5
4D50
330
49B5
100
AcDbEntity
  8
AM_5
100
AcDbLine
 10
298.1586258907565
 20
-6.592516285346391
 30
0.0
 11
298.1586258907565
 21
-13.19954522900985
 31
0.0
  0
LINE
  5
4D51
330
49B5
100
AcDbEntity
  8
AM_5
100
AcDbLine
 10
282.1586258907565
 20
-11.69954522900985
 30
0.0
 11
296.1586258907565
 21
-11.69954522900985
 31
0.0
  0
SOLID
  5
4D52
330
49B5
100
AcDbEntity
  8
AM_5
100
AcDbTrace
 10
282.1586258907565
 20
-11.36621189567652
 30
0.0
 11
282.1586258907565
 21
-12.03287856234319
 31
0.0
 12
280.1586258907565
 22
-11.69954522900985
 32
0.0
 13
280.1586258907565
 23
-11.69954522900985
 33
0.0
  0
SOLID
  5
4D53
330
49B5
100
AcDbEntity
  8
AM_5
100
AcDbTrace
 10
296.1586258907565
 20
-11.36621189567652
 30
0.0
 11
296.1586258907565
 21
-12.03287856234319
 31
0.0
 12
298.1586258907565
 22
-11.69954522900985
 32
0.0
 13
298.1586258907565
 23
-11.69954522900985
 33
0.0
  0
MTEXT
  5
4D54
330
49B5
100
AcDbEntity
  8
AM_5
100
AcDbMText
 10
289.1586258907565
 20
-10.09954522900985
 30
0.0
 40
2.0
 41
0.0
 71
     5
 72
     1
  1
18
1001
ACAD
1000
MTEXTBEGIN
1070
    73
1070
     1
1070
    44
1040
1.0
1070
    74
1070
     0
1000
MTEXTEND
  0
POINT
  5
4D55
330
49B5
100
AcDbEntity
  8
DEFPOINTS
 62
     0
100
AcDbPoint
 10
280.1586258907565
 20
-2.189854479373479
 30
0.0
  0
POINT
  5
4D56
330
49B5
100
AcDbEntity
  8
DEFPOINTS
 62
     0
100
AcDbPoint
 10
298.1586258907565
 20
-5.592516285346391
 30
0.0
  0
POINT
  5
4D57
330
49B5
100
AcDbEntity
  8
DEFPOINTS
 62
     0
100
AcDbPoint
 10
298.1586258907565
 20
-11.69954522900985
 30
0.0
  0
ENDBLK
  5
49C0
330
49B5
100
AcDbEntity
  8
0
100
AcDbBlockEnd
  0
BLOCK
  5
49E3
330
49D9
100
AcDbEntity
  8
0
100
AcDbBlockBegin
  2
*D12
 70
     1
 10
0.0
 20
0.0
 30
0.0
  3
*D12
  1

  0
LINE
  5
4D58
330
49D9
100
AcDbEntity
  8
AM_5
100
AcDbLine
 10
298.1586258907565
 20
-6.592516285346391
 30
0.0
 11
298.1586258907565
 21
-13.19954522900985
 31
0.0
  0
LINE
  5
4D59
330
49D9
100
AcDbEntity
  8
AM_5
100
AcDbLine
 10
316.1586258907565
 20
-3.189854479373479
 30
0.0
 11
316.1586258907565
 21
-13.19954522900985
 31
0.0
  0
LINE
  5
4D5A
330
49D9
100
AcDbEntity
  8
AM_5
100
AcDbLine
 10
300.1586258907565
 20
-11.69954522900985
 30
0.0
 11
314.1586258907565
 21
-11.69954522900985
 31
0.0
  0
SOLID
  5
4D5B
330
49D9
100
AcDbEntity
  8
AM_5
100
AcDbTrace
 10
300.1586258907565
 20
-11.36621189567652
 30
0.0
 11
300.1586258907565
 21
-12.03287856234319
 31
0.0
 12
298.1586258907565
 22
-11.69954522900985
 32
0.0
 13
298.1586258907565
 23
-11.69954522900985
 33
0.0
  0
SOLID
  5
4D5C
330
49D9
100
AcDbEntity
  8
AM_5
100
AcDbTrace
 10
314.1586258907565
 20
-11.36621189567652
 30
0.0
 11
314.1586258907565
 21
-12.03287856234319
 31
0.0
 12
316.1586258907565
 22
-11.69954522900985
 32
0.0
 13
316.1586258907565
 23
-11.69954522900985
 33
0.0
  0
MTEXT
  5
4D5D
330
49D9
100
AcDbEntity
  8
AM_5
100
AcDbMText
 10
307.1586258907565
 20
-10.09954522900985
 30
0.0
 40
2.0
 41
0.0
 71
     5
 72
     1
  1
18
1001
ACAD
1000
MTEXTBEGIN
1070
    73
1070
     1
1070
    44
1040
1.0
1070
    74
1070
     0
1000
MTEXTEND
  0
POINT
  5
4D5E
330
49D9
100
AcDbEntity
  8
DEFPOINTS
 62
     0
100
AcDbPoint
 10
298.1586258907565
 20
-5.592516285346391
 30
0.0
  0
POINT
  5
4D5F
330
49D9
100
AcDbEntity
  8
DEFPOINTS
 62
     0
100
AcDbPoint
 10
316.1586258907565
 20
-2.189854479373479
 30
0.0
  0
POINT
  5
4D60
330
49D9
100
AcDbEntity
  8
DEFPOINTS
 62
     0
100
AcDbPoint
 10
316.1586258907565
 20
-11.69954522900985
 30
0.0
  0
ENDBLK
  5
49E4
330
49D9
100
AcDbEntity
  8
0
100
AcDbBlockEnd
  0
BLOCK
  5
4A07
330
49FD
100
AcDbEntity
  8
0
100
AcDbBlockBegin
  2
*D13
 70
     1
 10
0.0
 20
0.0
 30
0.0
  3
*D13
  1

  0
LINE
  5
4DE7
330
49FD
100
AcDbEntity
  8
AM_5
100
AcDbLine
 10
273.1586258907565
 20
-2.689854479373479
 30
0.0
 11
273.1586258907565
 21
-18.19954522901021
 31
0.0
  0
LINE
  5
4DE8
330
49FD
100
AcDbEntity
  8
AM_5
100
AcDbLine
 10
323.1586258907565
 20
-2.689854479373479
 30
0.0
 11
323.1586258907565
 21
-18.19954522901021
 31
0.0
  0
LINE
  5
4DE9
330
49FD
100
AcDbEntity
  8
AM_5
100
AcDbLine
 10
275.1586258907565
 20
-16.6995452290102
 30
0.0
 11
321.1586258907565
 21
-16.6995452290102
 31
0.0
  0
SOLID
  5
4DEA
330
49FD
100
AcDbEntity
  8
AM_5
100
AcDbTrace
 10
275.1586258907565
 20
-16.36621189567687
 30
0.0
 11
275.1586258907565
 21
-17.03287856234354
 31
0.0
 12
273.1586258907565
 22
-16.6995452290102
 32
0.0
 13
273.1586258907565
 23
-16.6995452290102
 33
0.0
  0
SOLID
  5
4DEB
330
49FD
100
AcDbEntity
  8
AM_5
100
AcDbTrace
 10
321.1586258907565
 20
-16.36621189567687
 30
0.0
 11
321.1586258907565
 21
-17.03287856234354
 31
0.0
 12
323.1586258907565
 22
-16.6995452290102
 32
0.0
 13
323.1586258907565
 23
-16.6995452290102
 33
0.0
  0
MTEXT
  5
4DEC
330
49FD
100
AcDbEntity
  8
AM_5
100
AcDbMText
 10
298.1586258907565
 20
-15.0995452290102
 30
0.0
 40
2.0
 41
0.0
 71
     5
 72
     1
  1
50
1001
ACAD
1000
MTEXTBEGIN
1070
    73
1070
     1
1070
    44
1040
1.0
1070
    74
1070
     0
1000
MTEXTEND
  0
POINT
  5
4DED
330
49FD
100
AcDbEntity
  8
DEFPOINTS
 62
     0
100
AcDbPoint
 10
273.1586258907565
 20
-1.689854479373479
 30
0.0
  0
POINT
  5
4DEE
330
49FD
100
AcDbEntity
  8
DEFPOINTS
 62
     0
100
AcDbPoint
 10
323.1586258907565
 20
-1.689854479373479
 30
0.0
  0
POINT
  5
4DEF
330
49FD
100
AcDbEntity
  8
DEFPOINTS
 62
     0
100
AcDbPoint
 10
323.1586258907565
 20
-16.6995452290102
 30
0.0
  0
ENDBLK
  5
4A08
330
49FD
100
AcDbEntity
  8
0
100
AcDbBlockEnd
  0
BLOCK
  5
4A2B
330
4A21
100
AcDbEntity
  8
0
100
AcDbBlockBegin
  2
*D14
 70
     1
 10
0.0
 20
0.0
 30
0.0
  3
*D14
  1

  0
LINE
  5
4DF0
330
4A21
100
AcDbEntity
  8
AM_5
100
AcDbLine
 10
321.1586258907565
 20
-4.689854479373479
 30
0.0
 11
336.8853428535062
 21
-4.689854479373484
 31
0.0
  0
LINE
  5
4DF1
330
4A21
100
AcDbEntity
  8
AM_5
100
AcDbLine
 10
321.1586258907565
 20
27.31014552062652
 30
0.0
 11
336.8853428535062
 21
27.31014552062652
 31
0.0
  0
LINE
  5
4DF2
330
4A21
100
AcDbEntity
  8
AM_5
100
AcDbLine
 10
335.3853428535062
 20
-2.689854479373484
 30
0.0
 11
335.3853428535062
 21
25.31014552062652
 31
0.0
  0
SOLID
  5
4DF3
330
4A21
100
AcDbEntity
  8
AM_5
100
AcDbTrace
 10
335.0520095201729
 20
-2.689854479373484
 30
0.0
 11
335.7186761868395
 21
-2.689854479373484
 31
0.0
 12
335.3853428535062
 22
-4.689854479373484
 32
0.0
 13
335.3853428535062
 23
-4.689854479373484
 33
0.0
  0
SOLID
  5
4DF4
330
4A21
100
AcDbEntity
  8
AM_5
100
AcDbTrace
 10
335.0520095201729
 20
25.31014552062652
 30
0.0
 11
335.7186761868395
 21
25.31014552062652
 31
0.0
 12
335.3853428535062
 22
27.31014552062652
 32
0.0
 13
335.3853428535062
 23
27.31014552062652
 33
0.0
  0
MTEXT
  5
4DF5
330
4A21
100
AcDbEntity
  8
AM_5
100
AcDbMText
 10
333.7851460031125
 20
11.31014552062657
 30
0.0
 40
2.0
 41
0.0
 71
     5
 72
     1
  1
32
 11
0.0000000000000001
 21
1.0
 31
0.0
1001
ACAD
1000
MTEXTBEGIN
1070
    73
1070
     1
1070
    44
1040
1.0
1070
    74
1070
     0
1000
MTEXTEND
  0
POINT
  5
4DF6
330
4A21
100
AcDbEntity
  8
DEFPOINTS
 62
     0
100
AcDbPoint
 10
320.1586258907565
 20
-4.689854479373479
 30
0.0
  0
POINT
  5
4DF7
330
4A21
100
AcDbEntity
  8
DEFPOINTS
 62
     0
100
AcDbPoint
 10
320.1586258907565
 20
27.31014552062652
 30
0.0
  0
POINT
  5
4DF8
330
4A21
100
AcDbEntity
  8
DEFPOINTS
 62
     0
100
AcDbPoint
 10
335.3853428535062
 20
27.31014552062652
 30
0.0
  0
ENDBLK
  5
4A2C
330
4A21
100
AcDbEntity
  8
0
100
AcDbBlockEnd
  0
BLOCK
  5
4A4F
330
4A45
100
AcDbEntity
  8
0
100
AcDbBlockBegin
  2
*D15
 70
     1
 10
0.0
 20
0.0
 30
0.0
  3
*D15
  1

  0
LINE
  5
4CFC
330
4A45
100
AcDbEntity
  8
AM_5
100
AcDbLine
 10
320.6568258907565
 20
1.310145520626519
 30
0.0
 11
331.8853428535062
 21
1.310145520626516
 31
0.0
  0
LINE
  5
4CFD
330
4A45
100
AcDbEntity
  8
AM_5
100
AcDbLine
 10
325.8449561342668
 20
11.31014552062652
 30
0.0
 11
331.8853428535062
 21
11.31014552062652
 31
0.0
  0
LINE
  5
4CFE
330
4A45
100
AcDbEntity
  8
AM_5
100
AcDbLine
 10
330.3853428535062
 20
3.310145520626516
 30
0.0
 11
330.3853428535062
 21
9.31014552062652
 31
0.0
  0
SOLID
  5
4CFF
330
4A45
100
AcDbEntity
  8
AM_5
100
AcDbTrace
 10
330.0520095201729
 20
3.310145520626516
 30
0.0
 11
330.7186761868395
 21
3.310145520626516
 31
0.0
 12
330.3853428535062
 22
1.310145520626517
 32
0.0
 13
330.3853428535062
 23
1.310145520626517
 33
0.0
  0
SOLID
  5
4D00
330
4A45
100
AcDbEntity
  8
AM_5
100
AcDbTrace
 10
330.0520095201729
 20
9.31014552062652
 30
0.0
 11
330.7186761868395
 21
9.31014552062652
 31
0.0
 12
330.3853428535062
 22
11.31014552062652
 32
0.0
 13
330.3853428535062
 23
11.31014552062652
 33
0.0
  0
MTEXT
  5
4D01
330
4A45
100
AcDbEntity
  8
AM_5
100
AcDbMText
 10
328.7853428535062
 20
6.31014552062657
 30
0.0
 40
2.0
 41
0.0
 71
     5
 72
     1
  1
10
 11
0.0000000000000001
 21
1.0
 31
0.0
1001
ACAD
1000
MTEXTBEGIN
1070
    73
1070
     1
1070
    44
1040
1.0
1070
    74
1070
     0
1000
MTEXTEND
  0
POINT
  5
4D02
330
4A45
100
AcDbEntity
  8
DEFPOINTS
 62
     0
100
AcDbPoint
 10
319.6568258907565
 20
1.31014552062652
 30
0.0
  0
POINT
  5
4D03
330
4A45
100
AcDbEntity
  8
DEFPOINTS
 62
     0
100
AcDbPoint
 10
324.8449561342669
 20
11.31014552062652
 30
0.0
  0
POINT
  5
4D04
330
4A45
100
AcDbEntity
  8
DEFPOINTS
 62
     0
100
AcDbPoint
 10
330.3853428535062
 20
11.31014552062652
 30
0.0
  0
ENDBLK
  5
4A50
330
4A45
100
AcDbEntity
  8
0
100
AcDbBlockEnd
  0
BLOCK
  5
4A73
330
4A69
100
AcDbEntity
  8
0
100
AcDbBlockBegin
  2
*D16
 70
     1
 10
0.0
 20
0.0
 30
0.0
  3
*D16
  1

  0
LINE
  5
4CF3
330
4A69
100
AcDbEntity
  8
AM_5
100
AcDbLine
 10
325.8449561342668
 20
11.31014552062652
 30
0.0
 11
331.8853428535062
 21
11.31014552062652
 31
0.0
  0
LINE
  5
4CF4
330
4A69
100
AcDbEntity
  8
AM_5
100
AcDbLine
 10
320.6568258907565
 20
21.31014552062652
 30
0.0
 11
331.8853428535062
 21
21.31014552062651
 31
0.0
  0
LINE
  5
4CF5
330
4A69
100
AcDbEntity
  8
AM_5
100
AcDbLine
 10
330.3853428535062
 20
13.31014552062652
 30
0.0
 11
330.3853428535062
 21
19.31014552062651
 31
0.0
  0
SOLID
  5
4CF6
330
4A69
100
AcDbEntity
  8
AM_5
100
AcDbTrace
 10
330.0520095201729
 20
13.31014552062652
 30
0.0
 11
330.7186761868395
 21
13.31014552062652
 31
0.0
 12
330.3853428535062
 22
11.31014552062652
 32
0.0
 13
330.3853428535062
 23
11.31014552062652
 33
0.0
  0
SOLID
  5
4CF7
330
4A69
100
AcDbEntity
  8
AM_5
100
AcDbTrace
 10
330.0520095201729
 20
19.31014552062651
 30
0.0
 11
330.7186761868395
 21
19.31014552062651
 31
0.0
 12
330.3853428535062
 22
21.31014552062651
 32
0.0
 13
330.3853428535062
 23
21.31014552062651
 33
0.0
  0
MTEXT
  5
4CF8
330
4A69
100
AcDbEntity
  8
AM_5
100
AcDbMText
 10
328.7853428535062
 20
16.31014552062657
 30
0.0
 40
2.0
 41
0.0
 71
     5
 72
     1
  1
10
 11
0.0000000000000001
 21
1.0
 31
0.0
1001
ACAD
1000
MTEXTBEGIN
1070
    73
1070
     1
1070
    44
1040
1.0
1070
    74
1070
     0
1000
MTEXTEND
  0
POINT
  5
4CF9
330
4A69
100
AcDbEntity
  8
DEFPOINTS
 62
     0
100
AcDbPoint
 10
324.8449561342669
 20
11.31014552062652
 30
0.0
  0
POINT
  5
4CFA
330
4A69
100
AcDbEntity
  8
DEFPOINTS
 62
     0
100
AcDbPoint
 10
319.6568258907565
 20
21.31014552062652
 30
0.0
  0
POINT
  5
4CFB
330
4A69
100
AcDbEntity
  8
DEFPOINTS
 62
     0
100
AcDbPoint
 10
330.3853428535062
 20
21.31014552062651
 30
0.0
  0
ENDBLK
  5
4A74
330
4A69
100
AcDbEntity
  8
0
100
AcDbBlockEnd
  0
BLOCK
  5
4EDE
330
4ED9
100
AcDbEntity
  8
0
100
AcDbBlockBegin
  2
*S17
 70
     1
 10
0.0
 20
0.0
 30
0.0
  3
*S17
  1

  0
LINE
  5
4EDA
330
4ED9
100
AcDbEntity
  8
AM_5
100
AcDbLine
 10
337.3385942425094
 20
31.94533062215896
 30
0.0
 11
325.1031017789515
 21
31.94533062215896
 31
0.0
  0
LINE
  5
4EDB
330
4ED9
100
AcDbEntity
  8
AM_5
100
AcDbLine
 10
325.1031017789515
 20
31.94533062215896
 30
0.0
 11
319.8757746302606
 21
24.94881919924567
 31
0.0
  0
TRACE
  5
4EDC
330
4ED9
100
AcDbEntity
  8
AM_5
100
AcDbTrace
 10
319.6542940550472
 20
25.11429472751096
 30
0.0
 11
320.097255205474
 21
24.78334367098038
 31
0.0
 12
318.6188632002761
 22
23.26650720167373
 32
0.0
 13
318.6188632002761
 23
23.26650720167373
 33
0.0
  0
MTEXT
  5
4EDD
330
4ED9
100
AcDbEntity
  8
AM_5
 62
     2
100
AcDbMText
 10
337.3385942425094
 20
30.36943536800822
 30
0.0
 40
2.1
 41
0.0
 71
     7
 72
     1
  1

  7
ACISOTS
  0
ENDBLK
  5
4EDF
330
4ED9
100
AcDbEntity
  8
0
100
AcDbBlockEnd
  0
BLOCK
  5
4EE7
330
4EE2
100
AcDbEntity
  8
0
100
AcDbBlockBegin
  2
*S18
 70
     1
 10
0.0
 20
0.0
 30
0.0
  3
*S18
  1

  0
LINE
  5
4EE3
330
4EE2
100
AcDbEntity
  8
AM_5
100
AcDbLine
 10
235.8302218142668
 20
34.00792366770042
 30
0.0
 11
223.594729350709
 21
34.00792366770042
 31
0.0
  0
LINE
  5
4EE4
330
4EE2
100
AcDbEntity
  8
AM_5
100
AcDbLine
 10
223.594729350709
 20
34.00792366770042
 30
0.0
 11
220.3998362345263
 21
24.95622144937213
 31
0.0
  0
TRACE
  5
4EE5
330
4EE2
100
AcDbEntity
  8
AM_5
100
AcDbTrace
 10
220.1391290462904
 20
25.0482407824151
 30
0.0
 11
220.6605434227622
 21
24.86420211632915
 31
0.0
 12
219.7008800039964
 22
22.97595374327697
 32
0.0
 13
219.7008800039964
 23
22.97595374327697
 33
0.0
  0
MTEXT
  5
4EE6
330
4EE2
100
AcDbEntity
  8
AM_5
 62
     2
100
AcDbMText
 10
235.8302218142668
 20
32.43202841354968
 30
0.0
 40
2.1
 41
0.0
 71
     7
 72
     1
  1

  7
ACISOTS
  0
ENDBLK
  5
4EE8
330
4EE2
100
AcDbEntity
  8
0
100
AcDbBlockEnd
  0
ENDSEC
  0
SECTION
  2
ENTITIES
  0
INSERT
  5
51A
330
1E
100
AcDbEntity
  8
ASHADE
 62
     1
100
AcDbBlockReference
  2
AVE_RENDER
 10
0.0
 20
0.0
 30
0.0
1001
AVE_RENDER
1002
{
1070
     7
1000
Pref
1070
    30
1070
    20
1070
     1
1070
     0
1000

1070
    10
1070
     1
1070
    10
1040
1.0
1070
     1
1040
0.3
1040
0.7
1040
0.0
1040
10.0
1010
-1.0
1020
-1.0
1030
-1.0
1040
0.3
1070
    49
1070
     0
1070
     0
1010
1.0
1020
1.0
1030
1.0
1040
45.0
1070
     1
1070
     0
1000
WCS
1040
0.0
1070
     0
1040
10.0
1002
}
  0
INSERT
  5
51B
330
1E
100
AcDbEntity
  8
ASHADE
 62
     3
100
AcDbBlockReference
  2
AVE_RENDER
 10
0.0
 20
0.0
 30
0.0
1001
AVE_RENDER
1002
{
1070
     0
1000
Full Opt
1070
     0
1070
     1
1070
     1
1070
     1
1070
     0
1070
     0
1070
     0
1070
     1
1070
     1
1040
0.0001
1040
0.0001
1002
}
  0
INSERT
  5
51C
330
1E
100
AcDbEntity
  8
ASHADE
 62
     4
100
AcDbBlockReference
  2
AVE_RENDER
 10
0.0
 20
0.0
 30
0.0
1001
AVE_RENDER
1002
{
1070
     0
1000
Quick Opt
1070
     0
1070
     1
1070
     1
1070
     1
1070
     0
1070
     0
1070
     1
1002
}
  0
INSERT
  5
51D
330
1E
100
AcDbEntity
  8
ASHADE
 62
     5
100
AcDbBlockReference
  2
AVE_RENDER
 10
0.0
 20
0.0
 30
0.0
1001
AVE_RENDER
1002
{
1070
     1
1000
Scanl Opt
1070
     2
1070
     0
1070
     2
1040
2.0
1040
4.0
1070
     0
1070
     1
1070
     0
1040
0.03
1002
}
  0
INSERT
  5
51E
330
1E
100
AcDbEntity
  8
ASHADE
 62
     6
100
AcDbBlockReference
  2
AVE_RENDER
 10
0.0
 20
0.0
 30
0.0
1001
AVE_RENDER
1002
{
1070
     2
1000
Raytr Opt
1070
     2
1070
     0
1070
     2
1040
2.0
1040
4.0
1070
     0
1070
     1
1070
     1
1040
0.03
1070
     3
1040
0.03
1002
}
  0
INSERT
  5
51F
330
1E
100
AcDbEntity
  8
ASHADE
 62
     7
100
AcDbBlockReference
  2
AVE_RENDER
 10
0.0
 20
0.0
 30
0.0
1001
AVE_RENDER
1002
{
1070
     0
1000
RFile Opt
1070
     1
1070
   640
1070
   480
1070
 10000
1070
     1
1070
     8
1070
     8
1070
     0
1070
     0
1070
     0
1070
     0
1070
     0
1070
     0
1070
     0
1002
}
  0
INSERT
  5
520
330
1E
100
AcDbEntity
  8
ASHADE
 62
     8
100
AcDbBlockReference
  2
AVE_RENDER
 10
0.0
 20
0.0
 30
0.0
1001
AVE_RENDER
1002
{
1070
     0
1000
Fog Opt
1070
     0
1070
     0
1040
0.0
1040
1.0
1040
0.0
1040
1.0
1010
0.5
1020
0.5
1030
0.5
1002
}
  0
INSERT
  5
521
330
1E
100
AcDbEntity
  8
ASHADE
 62
     9
100
AcDbBlockReference
  2
AVE_RENDER
 10
0.0
 20
0.0
 30
0.0
1001
AVE_RENDER
1002
{
1070
     0
1000
BG Opt
1070
     0
1070
     1
1010
0.0
1020
0.0
1030
0.0
1010
1.0
1020
0.0
1030
0.0
1010
0.0
1020
1.0
1030
0.0
1010
0.0
1020
0.0
1030
1.0
1040
0.5
1040
0.33
1040
0.0
1000

1070
     1
1000

1070
     1
1070
     1
1040
1.0
1040
1.0
1040
0.0
1040
0.0
1070
     0
1002
}
  0
INSERT
  5
528
330
1E
100
AcDbEntity
  8
ASHADE
 62
     1
100
AcDbBlockReference
  2
AVE_GLOBAL
 10
0.0
 20
0.0
 30
0.0
1001
AVE_MATERIAL
1002
{
1000
*整體*
1000
2
1000
整體修飾.
1002
{
1002
}
1002
{
1070
    63
1002
{
1002
{
1010
-1.0
1020
-1.0
1030
-1.0
1002
}
1040
0.1000000014901161
1000

1040
0.0
1002
{
1002
}
1040
0.0
1002
{
1002
}
1040
0.0
1002
}
1002
{
1002
{
1010
-1.0
1020
-1.0
1030
-1.0
1002
}
1040
0.6999999880790711
1000

1040
0.0
1002
{
1002
}
1040
0.0
1002
{
1002
}
1040
0.0
1002
}
1002
{
1002
{
1010
-1.0
1020
-1.0
1030
-1.0
1002
}
1040
0.2000000029802322
1000

1040
0.0
1002
{
1002
}
1040
0.0
1002
{
1002
}
1040
0.0
1002
}
1002
{
1070
     0
1002
{
1070
     1
1002
{
1040
1.0
1040
1.0
1000

1040
0.0
1002
{
1002
}
1040
0.0
1002
{
1002
}
1040
0.0
1002
}
1002
}
1040
1.0
1040
0.0
1040
0.0
1002
}
1002
{
1040
1.0
1040
1.0
1000

1040
0.0
1002
{
1002
}
1040
0.0
1002
{
1002
}
1040
0.0
1002
}
1002
{
1040
0.5
1040
1.0
1000

1040
0.0
1002
{
1002
}
1040
0.0
1002
{
1002
}
1040
0.0
1002
}
1002
{
1070
     0
1040
0.0
1002
{
1002
}
1040
1.0
1002
{
1002
}
1040
0.0
1002
}
1002
{
1040
0.0
1002
{
1002
{
1010
0.0
1020
0.0
1030
0.0
1002
}
1040
1.0
1000

1040
0.0
1002
{
1002
}
1040
0.0
1002
{
1002
}
1040
0.0
1002
}
1002
}
1002
{
1002
{
1070
     1
1002
{
1040
0.0
1040
1.0
1000

1040
0.0
1002
{
1002
}
1040
0.0
1002
{
1002
}
1040
0.0
1002
}
1002
}
1040
0.0
1002
{
1002
}
1010
1.0
1020
0.0
1030
0.0
1010
0.0
1020
1.0
1030
0.0
1010
0.0
1020
0.0
1030
1.0
1070
     0
1002
}
1002
{
1002
{
1040
1.0
1040
1.0
1002
{
1070
     1
1002
{
1040
1.0
1040
1.0
1000

1040
0.0
1002
{
1002
}
1040
0.0
1002
{
1002
}
1040
0.0
1002
}
1002
}
1002
}
1070
     0
1040
0.0
1002
{
1002
}
1002
}
1002
{
1002
}
1002
}
1002
{
1071
        3
1070
     3
1070
     0
1002
{
1070
     2
1070
     0
1070
     0
1040
0.0
1002
}
1070
     0
1070
     2
1002
{
1002
}
1002
}
1002
{
1040
8030.0
1040
190.3000030517578
1040
0.3050000071525574
1040
228.0
1040
545.0
1040
14.0
1040
17.39999961853027
1040
0.4560000002384186
1002
}
1002
}
  0
TEXT
  5
2F4E
330
1E
100
AcDbEntity
  8
LOGO
 62
     7
100
AcDbText
 10
244.3963874234335
 20
-35.04922997617807
 30
0.0
 40
2.606334841628958
  1
Order example:
 41
0.8
  7
CHINESET
100
AcDbText
  0
TEXT
  5
2F4F
330
1E
100
AcDbEntity
  8
LOGO
 62
     7
100
AcDbText
 10
244.8639854475338
 20
-31.38005016767932
 30
0.0
 40
3.909502262443438
  1
訂購代號:
  7
CHINESET
100
AcDbText
  0
LINE
  5
2F50
330
1E
100
AcDbEntity
  8
LOGO
 62
     1
100
AcDbLine
 10
344.2594012076883
 20
-26.48579789962392
 30
0.0
 11
200.2594012076881
 21
-26.48579789962392
 31
0.0
  0
LINE
  5
2F51
330
1E
100
AcDbEntity
  8
LOGO
 62
     1
100
AcDbLine
 10
344.2594012076883
 20
-46.03330921184116
 30
0.0
 11
200.2594012076881
 21
-46.03330921184116
 31
0.0
  0
TEXT
  5
2F5E
330
1E
100
AcDbEntity
  8
0
100
AcDbText
 10
206.6303224245429
 20
57.15480378290182
 30
0.0
 40
3.455999999999999
  1
MCGJ-12-%%C20
  7
CHINESET
100
AcDbText
  0
TEXT
  5
2F5F
330
1E
100
AcDbEntity
  8
0
100
AcDbText
 10
206.8752489386104
 20
49.99316415856935
 30
0.0
 40
4.319999999999999
  1
stroke=0mm
  7
CHINESET
100
AcDbText
  0
LINE
  5
2F61
330
1E
100
AcDbEntity
  8
0
 62
     4
100
AcDbLine
 10
200.2594012076882
 20
65.2555784191116
 30
0.0
 11
344.2594012076883
 21
65.2555784191116
 31
0.0
  0
LINE
  5
2F62
330
1E
100
AcDbEntity
  8
0
 62
     4
100
AcDbLine
 10
344.259401207688
 20
-26.48579789962392
 30
0.0
 11
200.2594012076882
 21
-26.48579789962392
 31
0.0
  0
LINE
  5
2F63
330
1E
100
AcDbEntity
  8
0
 62
     4
100
AcDbLine
 10
200.2594012076881
 20
-26.48579789962392
 30
0.0
 11
200.2594012076882
 21
65.2555784191116
 31
0.0
  0
LINE
  5
2F64
330
1E
100
AcDbEntity
  8
LOGO
 62
     1
100
AcDbLine
 10
243.2639260945659
 20
-46.03330921184116
 30
0.0
 11
243.2639260945659
 21
-26.48579789962392
 31
0.0
  0
LINE
  5
2F65
330
1E
100
AcDbEntity
  8
LOGO
 62
     1
100
AcDbLine
 10
200.2594012076881
 20
-46.03330921184116
 30
0.0
 11
200.2594012076881
 21
-26.48579789962392
 31
0.0
  0
TEXT
  5
2F66
330
1E
100
AcDbEntity
  8
LOGO
  6
CONTINUOUS
 62
     5
100
AcDbText
 10
200.8992242571626
 20
-42.19323011432279
 30
0.0
 40
2.932126696832579
  1
金器工業股份有限公司
 41
0.8
  7
LOGO
100
AcDbText
  0
TEXT
  5
2F67
330
1E
100
AcDbEntity
  8
LOGO
  6
CONTINUOUS
 62
     5
100
AcDbText
 10
201.7388084941152
 20
-45.12593127810027
 30
0.0
 40
1.954751131221719
  1
MINDMAN INDUSTRIAL CO.,LTD
 41
0.85
  7
CHINESET
100
AcDbText
  0
LINE
  5
2F68
330
1E
100
AcDbEntity
  8
LOGO
 62
     1
100
AcDbLine
 10
243.2639260945659
 20
-30.3953001620673
 30
0.0
 11
214.5942428366474
 21
-30.3953001620673
 31
0.0
  0
LINE
  5
2F69
330
1E
100
AcDbEntity
  8
LOGO
 62
     1
100
AcDbLine
 10
243.2639260945659
 20
-34.30480242451085
 30
0.0
 11
214.5942428366474
 21
-34.30480242451085
 31
0.0
  0
LINE
  5
2F6A
330
1E
100
AcDbEntity
  8
LOGO
 62
     1
100
AcDbLine
 10
243.2639260945659
 20
-38.21430468695423
 30
0.0
 11
200.2594012076881
 21
-38.21430468695423
 31
0.0
  0
SOLID
  5
2F6B
330
1E
100
AcDbEntity
  8
LOGO
 62
     5
100
AcDbTrace
 10
202.2874868777003
 20
-34.9648091682117
 30
0.0
 11
203.1326699741708
 21
-34.96480916821202
 31
0.0
 12
206.6591235835829
 22
-26.95014187409384
 32
0.0
 13
207.5043066800534
 23
-26.95014187409449
 33
0.0
  0
SOLID
  5
2F6C
330
1E
100
AcDbEntity
  8
LOGO
 62
     5
100
AcDbTrace
 10
203.482400910642
 20
-34.9648091682117
 30
0.0
 11
204.3275840071124
 21
-34.9648091682117
 31
0.0
 12
207.5043066800534
 22
-27.59131525762366
 32
0.0
 13
206.6591235835829
 23
-30.69031994468266
 33
0.0
  0
SOLID
  5
2F6D
330
1E
100
AcDbEntity
  8
LOGO
 62
     2
100
AcDbTrace
 10
203.1326699741708
 20
-34.96480916821202
 30
0.0
 11
203.482400910642
 21
-34.9648091682117
 31
0.0
 12
207.5043066800534
 22
-26.95014187409449
 32
0.0
 13
207.8540376165242
 23
-26.95014187409449
 33
0.0
  0
SOLID
  5
2F6E
330
1E
100
AcDbEntity
  8
LOGO
 62
     5
100
AcDbTrace
 10
200.9324511097743
 20
-37.8792336387997
 30
0.0
 11
201.2238935568336
 21
-37.8792336387997
 31
0.0
 12
202.0446181718181
 22
-36.42202140350594
 32
0.0
 13
202.3360606188768
 23
-36.42202140350594
 33
0.0
  0
SOLID
  5
2F6F
330
1E
100
AcDbEntity
  8
LOGO
 62
     5
100
AcDbTrace
 10
202.0446181718181
 20
-36.42202140350594
 30
0.0
 11
202.3360606188768
 21
-36.42202140350594
 31
0.0
 12
202.0446181718181
 22
-37.8792336387997
 32
0.0
 13
202.3360606188768
 23
-37.8792336387997
 33
0.0
  0
SOLID
  5
2F70
330
1E
100
AcDbEntity
  8
LOGO
 62
     5
100
AcDbTrace
 10
202.0446181718181
 20
-37.8792336387997
 30
0.0
 11
202.3360606188768
 21
-37.8792336387997
 31
0.0
 12
203.1567852338624
 22
-36.42202140350594
 32
0.0
 13
203.4482276809209
 23
-36.42202140350594
 33
0.0
  0
SOLID
  5
2F71
330
1E
100
AcDbEntity
  8
LOGO
 62
     5
100
AcDbTrace
 10
203.1567852338624
 20
-36.42202140350594
 30
0.0
 11
203.4482276809209
 21
-36.42202140350594
 31
0.0
 12
203.1567852338624
 22
-37.8792336387997
 32
0.0
 13
203.4482276809209
 23
-37.8792336387997
 33
0.0
  0
POLYLINE
  5
2F72
330
1E
100
AcDbEntity
  8
LOGO
 62
     5
100
AcDb2dPolyline
 66
     1
 10
0.0
 20
0.0
 30
0.0
 40
0.2919095022624434
 41
0.2919095022624434
  0
VERTEX
  5
2F73
330
2F72
100
AcDbEntity
  8
LOGO
 62
     5
100
AcDbVertex
100
AcDb2dVertex
 10
212.9258367781533
 20
-37.00490629762358
 30
0.0
 42
1.0
  0
VERTEX
  5
2F74
330
2F72
100
AcDbEntity
  8
LOGO
 62
     5
100
AcDbVertex
100
AcDb2dVertex
 10
212.0501082713658
 20
-37.00490629762358
 30
0.0
 42
1.0
  0
SEQEND
  5
2F75
330
2F72
100
AcDbEntity
  8
LOGO
 62
     5
  0
POLYLINE
  5
2F76
330
1E
100
AcDbEntity
  8
LOGO
 62
     5
100
AcDb2dPolyline
 66
     1
 10
0.0
 20
0.0
 30
0.0
 70
     1
  0
VERTEX
  5
2F77
330
2F76
100
AcDbEntity
  8
LOGO
 62
     5
100
AcDbVertex
100
AcDb2dVertex
 10
210.3993210836674
 20
-37.1506275211529
 30
0.0
 42
1.000000057330635
  0
VERTEX
  5
2F78
330
2F76
100
AcDbEntity
  8
LOGO
 62
     5
100
AcDbVertex
100
AcDb2dVertex
 10
211.273648424844
 20
-37.1506275211529
 30
0.0
 42
1.000000057330635
  0
SEQEND
  5
2F79
330
2F76
100
AcDbEntity
  8
LOGO
 62
     5
  0
CIRCLE
  5
2F7A
330
1E
100
AcDbEntity
  8
LOGO
 62
     5
100
AcDbCircle
 10
210.8364847542558
 20
-37.1506275211529
 30
0.0
 40
0.4371636705882354
  0
POLYLINE
  5
2F7B
330
1E
100
AcDbEntity
  8
LOGO
 62
     5
100
AcDb2dPolyline
 66
     1
 10
0.0
 20
0.0
 30
0.0
 70
     1
 40
0.2919095022624434
 41
0.2919095022624434
  0
VERTEX
  5
2F7C
330
2F7B
100
AcDbEntity
  8
LOGO
 62
     5
100
AcDbVertex
100
AcDb2dVertex
 10
210.2526657497308
 20
-37.1506275211529
 30
0.0
 42
1.0
  0
VERTEX
  5
2F7D
330
2F7B
100
AcDbEntity
  8
LOGO
 62
     5
100
AcDbVertex
100
AcDb2dVertex
 10
211.4203037587806
 20
-37.1506275211529
 30
0.0
 42
1.0
  0
SEQEND
  5
2F7E
330
2F7B
100
AcDbEntity
  8
LOGO
 62
     5
  0
LINE
  5
2F7F
330
1E
100
AcDbEntity
  8
LOGO
 62
     5
100
AcDbLine
 10
213.0708574188771
 20
-37.8792336387997
 30
0.0
 11
213.0708574188771
 21
-37.00490629762358
 31
0.0
  0
SOLID
  5
2F80
330
1E
100
AcDbEntity
  8
LOGO
 62
     5
100
AcDbTrace
 10
211.2736192805999
 20
-36.42202140350594
 30
0.0
 11
211.5650617276584
 21
-36.42202140350594
 31
0.0
 12
211.2736192805999
 22
-37.8792336387997
 32
0.0
 13
211.5650617276584
 23
-37.8792336387997
 33
0.0
  0
SOLID
  5
2F81
330
1E
100
AcDbEntity
  8
LOGO
 62
     5
100
AcDbTrace
 10
211.9050876306416
 20
-37.8792336387997
 30
0.0
 11
212.1965300777008
 21
-37.8792336387997
 31
0.0
 12
211.9050876306416
 22
-36.42202140350594
 32
0.0
 13
212.1965300777008
 23
-36.42202140350594
 33
0.0
  0
SOLID
  5
2F82
330
1E
100
AcDbEntity
  8
LOGO
 62
     5
100
AcDbTrace
 10
212.7794149718184
 20
-37.00490629762358
 30
0.0
 11
213.0708574188771
 21
-37.00490629762358
 31
0.0
 12
212.7794149718184
 22
-37.8792336387997
 32
0.0
 13
213.0708574188771
 23
-37.8792336387997
 33
0.0
  0
LINE
  5
2F83
330
1E
100
AcDbEntity
  8
LOGO
 62
     1
100
AcDbLine
 10
214.5942428366474
 20
-38.21430468695423
 30
0.0
 11
214.5942428366474
 21
-26.48579789962392
 31
0.0
  0
SOLID
  5
2F84
330
1E
100
AcDbEntity
  8
LOGO
 62
     5
100
AcDbTrace
 10
211.8759433859357
 20
-27.59131525762366
 30
0.0
 11
211.0307602894652
 21
-30.69031994468266
 31
0.0
 12
211.8759433859357
 22
-34.96480916821202
 32
0.0
 13
211.0307602894652
 23
-34.96480916821202
 33
0.0
  0
SOLID
  5
2F85
330
1E
100
AcDbEntity
  8
LOGO
 62
     5
100
AcDbTrace
 10
212.2256743224065
 20
-34.96480916821202
 30
0.0
 11
213.0708574188771
 21
-34.96480916821202
 31
0.0
 12
212.2256743224065
 22
-26.95014187409449
 32
0.0
 13
213.0708574188771
 23
-26.95014187409384
 33
0.0
  0
SOLID
  5
2F86
330
1E
100
AcDbEntity
  8
LOGO
 62
     2
100
AcDbTrace
 10
211.8759433859357
 20
-26.95014187409384
 30
0.0
 11
212.2256743224065
 21
-26.95014187409449
 31
0.0
 12
211.8759433859357
 22
-34.96480916821202
 32
0.0
 13
212.2256743224065
 23
-34.96480916821202
 33
0.0
  0
POLYLINE
  5
2F87
330
1E
100
AcDbEntity
  8
LOGO
 62
     5
100
AcDb2dPolyline
 66
     1
 10
0.0
 20
0.0
 30
0.0
 40
0.2919095022624434
 41
0.2919095022624434
  0
VERTEX
  5
2F88
330
2F87
100
AcDbEntity
  8
LOGO
 62
     5
100
AcDbVertex
100
AcDb2dVertex
 10
208.7484756074802
 20
-37.00490629762358
 30
0.0
 42
1.0
  0
VERTEX
  5
2F89
330
2F87
100
AcDbEntity
  8
LOGO
 62
     5
100
AcDbVertex
100
AcDb2dVertex
 10
207.8727471006927
 20
-37.00490629762358
 30
0.0
 42
1.0
  0
SEQEND
  5
2F8A
330
2F87
100
AcDbEntity
  8
LOGO
 62
     5
  0
POLYLINE
  5
2F8B
330
1E
100
AcDbEntity
  8
LOGO
 62
     5
100
AcDb2dPolyline
 66
     1
 10
0.0
 20
0.0
 30
0.0
 40
0.2919095022624434
 41
0.2919095022624434
  0
VERTEX
  5
2F8C
330
2F8B
100
AcDbEntity
  8
LOGO
 62
     5
100
AcDbVertex
100
AcDb2dVertex
 10
209.6228029486565
 20
-37.00490629762358
 30
0.0
 42
1.0
  0
VERTEX
  5
2F8D
330
2F8B
100
AcDbEntity
  8
LOGO
 62
     5
100
AcDbVertex
100
AcDb2dVertex
 10
208.747074441869
 20
-37.00490629762358
 30
0.0
 42
1.0
  0
SEQEND
  5
2F8E
330
2F8B
100
AcDbEntity
  8
LOGO
 62
     5
  0
POLYLINE
  5
2F8F
330
1E
100
AcDbEntity
  8
LOGO
 62
     5
100
AcDb2dPolyline
 66
     1
 10
0.0
 20
0.0
 30
0.0
 40
0.2919095022624434
 41
0.2919095022624434
  0
VERTEX
  5
2F90
330
2F8F
100
AcDbEntity
  8
LOGO
 62
     5
100
AcDbVertex
100
AcDb2dVertex
 10
205.4454417779836
 20
-37.00490629762358
 30
0.0
 42
1.0
  0
VERTEX
  5
2F91
330
2F8F
100
AcDbEntity
  8
LOGO
 62
     5
100
AcDbVertex
100
AcDb2dVertex
 10
204.5697132711962
 20
-37.00490629762358
 30
0.0
 42
1.0
  0
SEQEND
  5
2F92
330
2F8F
100
AcDbEntity
  8
LOGO
 62
     5
  0
SOLID
  5
2F93
330
1E
100
AcDbEntity
  8
LOGO
 62
     5
100
AcDbTrace
 10
204.4246926304725
 20
-36.42202140350594
 30
0.0
 11
204.716135077531
 21
-36.42202140350594
 31
0.0
 12
204.4246926304725
 22
-37.8792336387997
 32
0.0
 13
204.716135077531
 23
-37.8792336387997
 33
0.0
  0
SOLID
  5
2F94
330
1E
100
AcDbEntity
  8
LOGO
 62
     5
100
AcDbTrace
 10
205.2990199716488
 20
-37.00490629762358
 30
0.0
 11
205.5904624187078
 21
-37.00490629762358
 31
0.0
 12
205.2990199716488
 22
-37.8792336387997
 32
0.0
 13
205.5904624187078
 23
-37.8792336387997
 33
0.0
  0
POLYLINE
  5
2F95
330
1E
100
AcDbEntity
  8
LOGO
 62
     5
100
AcDb2dPolyline
 66
     1
 10
0.0
 20
0.0
 30
0.0
 70
     1
 40
0.2919095022624434
 41
0.2919095022624434
  0
VERTEX
  5
2F96
330
2F95
100
AcDbEntity
  8
LOGO
 62
     5
100
AcDbVertex
100
AcDb2dVertex
 10
206.0753045790577
 20
-37.1506275211529
 30
0.0
 42
1.0
  0
VERTEX
  5
2F97
330
2F95
100
AcDbEntity
  8
LOGO
 62
     5
100
AcDbVertex
100
AcDb2dVertex
 10
207.2429425881074
 20
-37.1506275211529
 30
0.0
 42
1.0
  0
SEQEND
  5
2F98
330
2F95
100
AcDbEntity
  8
LOGO
 62
     5
  0
SOLID
  5
2F99
330
1E
100
AcDbEntity
  8
LOGO
 62
     5
100
AcDbTrace
 10
207.0962581099267
 20
-35.98485773291747
 30
0.0
 11
207.3877005569852
 21
-35.98485773291747
 31
0.0
 12
207.0962581099267
 22
-37.8792336387997
 32
0.0
 13
207.3877005569852
 23
-37.8792336387997
 33
0.0
  0
SOLID
  5
2F9A
330
1E
100
AcDbEntity
  8
LOGO
 62
     5
100
AcDbTrace
 10
207.7277264599691
 20
-36.42202140350594
 30
0.0
 11
208.0191689070278
 21
-36.42202140350594
 31
0.0
 12
207.7277264599691
 22
-37.8792336387997
 32
0.0
 13
208.0191689070278
 23
-37.8792336387997
 33
0.0
  0
SOLID
  5
2F9B
330
1E
100
AcDbEntity
  8
LOGO
 62
     5
100
AcDbTrace
 10
208.6020538011454
 20
-37.00490629762358
 30
0.0
 11
208.8934962482041
 21
-37.00490629762358
 31
0.0
 12
208.6020538011454
 22
-37.8792336387997
 32
0.0
 13
208.8934962482041
 23
-37.8792336387997
 33
0.0
  0
SOLID
  5
2F9C
330
1E
100
AcDbEntity
  8
LOGO
 62
     5
100
AcDbTrace
 10
209.4763811423217
 20
-37.00490629762358
 30
0.0
 11
209.7678235893802
 21
-37.00490629762358
 31
0.0
 12
209.4763811423217
 22
-37.87923363880036
 32
0.0
 13
209.7678235893802
 23
-37.87923363880036
 33
0.0
  0
SOLID
  5
2F9D
330
1E
100
AcDbEntity
  8
LOGO
 62
     5
100
AcDbTrace
 10
203.7932242804298
 20
-36.21801169056492
 30
0.0
 11
204.0846667274893
 21
-36.21801169056492
 31
0.0
 12
203.7932242804298
 22
-35.98485773291747
 32
0.0
 13
204.0846667274893
 23
-35.98485773291747
 33
0.0
  0
SOLID
  5
2F9E
330
1E
100
AcDbEntity
  8
LOGO
 62
     5
100
AcDbTrace
 10
203.7932242804298
 20
-36.42202140350594
 30
0.0
 11
204.0846667274893
 21
-36.42202140350594
 31
0.0
 12
203.7932242804298
 22
-37.87923363880036
 32
0.0
 13
204.0846667274893
 23
-37.8792336387997
 33
0.0
  0
SOLID
  5
2F9F
330
1E
100
AcDbEntity
  8
LOGO
 62
     5
100
AcDbTrace
 10
206.6591235835829
 20
-34.9648091682117
 30
0.0
 11
207.5043066800534
 21
-34.9648091682117
 31
0.0
 12
206.6591235835829
 22
-30.69031994468266
 32
0.0
 13
207.5043066800534
 23
-27.59131525762366
 33
0.0
  0
SOLID
  5
2FA0
330
1E
100
AcDbEntity
  8
LOGO
 62
     5
100
AcDbTrace
 10
207.8540376165242
 20
-26.95014187409449
 30
0.0
 11
208.6992207129948
 21
-26.95014187409384
 31
0.0
 12
207.8540376165242
 22
-34.32363578468253
 32
0.0
 13
208.6992207129948
 23
-31.22463109762353
 33
0.0
  0
SOLID
  5
2FA1
330
1E
100
AcDbEntity
  8
LOGO
 62
     2
100
AcDbTrace
 10
207.5043066800534
 20
-26.95014187409449
 30
0.0
 11
207.8540376165242
 21
-26.95014187409449
 31
0.0
 12
207.5043066800534
 22
-34.9648091682117
 32
0.0
 13
207.8540376165242
 23
-34.9648091682117
 33
0.0
  0
SOLID
  5
2FA2
330
1E
100
AcDbEntity
  8
LOGO
 62
     5
100
AcDbTrace
 10
207.8540376165242
 20
-34.32363578468253
 30
0.0
 11
208.6992207129948
 21
-31.22463109762353
 31
0.0
 12
211.8759433859357
 22
-26.95014187409384
 32
0.0
 13
211.0307602894652
 23
-26.95014187409384
 33
0.0
  0
SOLID
  5
2FA3
330
1E
100
AcDbEntity
  8
LOGO
 62
     5
100
AcDbTrace
 10
207.8540376165242
 20
-34.9648091682117
 30
0.0
 11
208.6992207129948
 21
-34.9648091682117
 31
0.0
 12
211.8759433859357
 22
-27.59131525762366
 32
0.0
 13
211.0307602894652
 23
-30.69031994468266
 33
0.0
  0
SOLID
  5
2FA4
330
1E
100
AcDbEntity
  8
LOGO
 62
     2
100
AcDbTrace
 10
207.5043066800534
 20
-34.9648091682117
 30
0.0
 11
207.8540376165242
 21
-34.9648091682117
 31
0.0
 12
211.8759433859357
 22
-26.95014187409384
 32
0.0
 13
212.2256743224065
 23
-26.95014187409449
 33
0.0
  0
TEXT
  5
2FA5
330
1E
100
AcDbEntity
  8
LOGO
 62
     6
100
AcDbText
 10
233.1647008957859
 20
-37.23692912134339
 30
0.0
 40
1.954751131221719
  1
m/m
  7
CHINESET
 72
     1
 11
236.6087862222241
 21
-36.25955355573253
 31
0.0
100
AcDbText
 73
     2
  0
TEXT
  5
2FA6
330
1E
100
AcDbEntity
  8
LOGO
 62
     6
100
AcDbText
 10
233.1647008957859
 20
-29.41792459645647
 30
0.0
 40
1.954751131221719
  1
1 : 1
  7
CHINESET
 72
     1
 11
236.6087862222241
 21
-28.44054903084561
 31
0.0
100
AcDbText
 73
     2
  0
LINE
  5
2FA7
330
1E
100
AcDbEntity
  8
LOGO
 62
     1
100
AcDbLine
 10
230.2322518864211
 20
-38.21430468695423
 30
0.0
 11
230.2322518864211
 21
-26.48579789962392
 31
0.0
  0
CIRCLE
  5
2FA8
330
1E
100
AcDbEntity
  8
LOGO
  6
CONTINUOUS
 62
     6
100
AcDbCircle
 10
233.8517181022847
 20
-32.34587006631493
 30
0.0
 40
1.134974516442455
  0
CIRCLE
  5
2FA9
330
1E
100
AcDbEntity
  8
LOGO
  6
CONTINUOUS
 62
     6
100
AcDbCircle
 10
233.8517181022847
 20
-32.34587006631493
 30
0.0
 40
0.6649945930259992
  0
LINE
  5
2FAA
330
1E
100
AcDbEntity
  8
LOGO
 62
     6
100
AcDbLine
 10
240.984029660483
 20
-33.48084458275743
 30
0.0
 11
240.984029660483
 21
-31.21089554987241
 31
0.0
  0
LINE
  5
2FAB
330
1E
100
AcDbEntity
  8
LOGO
 62
     6
100
AcDbLine
 10
237.4259497020816
 20
-33.01086465934087
 30
0.0
 11
237.4259497020816
 21
-31.6808754732888
 31
0.0
  0
LINE
  5
2FAC
330
1E
100
AcDbEntity
  8
LOGO
  6
CONTINUOUS
 62
     6
100
AcDbLine
 10
237.4259497020816
 20
-31.6808754732888
 30
0.0
 11
240.984029660483
 21
-31.21089554987241
 31
0.0
  0
LINE
  5
2FAD
330
1E
100
AcDbEntity
  8
LOGO
  6
CONTINUOUS
 62
     6
100
AcDbLine
 10
237.4259497020816
 20
-33.01086465934087
 30
0.0
 11
240.984029660483
 21
-33.48084458275743
 31
0.0
  0
LINE
  5
2FDF
330
1E
100
AcDbEntity
  8
0
 62
     4
100
AcDbLine
 10
344.259401207688
 20
-26.48579789962392
 30
0.0
 11
344.2594012076883
 21
65.2555784191116
 31
0.0
  0
LINE
  5
2FE0
330
1E
100
AcDbEntity
  8
LOGO
 62
     6
100
AcDbLine
 10
322.4551761477437
 20
-28.44054903084561
 30
0.0
 11
311.9937364261746
 21
-28.44054903084561
 31
0.0
  0
LINE
  5
2FE1
330
1E
100
AcDbEntity
  8
LOGO
 62
     6
100
AcDbLine
 10
322.4551761477437
 20
-37.2369291213433
 30
0.0
 11
311.9937364261746
 21
-37.2369291213433
 31
0.0
  0
LINE
  5
2FE2
330
1E
100
AcDbEntity
  8
LOGO
 62
     6
100
AcDbLine
 10
322.4551761477437
 20
-34.30480242451085
 30
0.0
 11
311.9937364261746
 21
-34.30480242451085
 31
0.0
  0
LINE
  5
2FE3
330
1E
100
AcDbEntity
  8
LOGO
 62
     6
100
AcDbLine
 10
322.4551761477437
 20
-44.40434993582289
 30
0.0
 11
311.9937364261746
 21
-44.40434993582306
 31
0.0
  0
LINE
  5
2FE4
330
1E
100
AcDbEntity
  8
LOGO
 62
     6
100
AcDbLine
 10
311.9937364261746
 20
-37.2369291213433
 30
0.0
 11
311.9937364261746
 21
-44.40434993582289
 31
0.0
  0
LINE
  5
2FE5
330
1E
100
AcDbEntity
  8
LOGO
 62
     6
100
AcDbLine
 10
307.3798413217584
 20
-37.2369291213433
 30
0.0
 11
307.3798413217584
 21
-44.40434993582306
 31
0.0
  0
LINE
  5
2FE6
330
1E
100
AcDbEntity
  8
LOGO
 62
     6
100
AcDbLine
 10
290.4025644961169
 20
-37.2369291213433
 30
0.0
 11
290.4025644961169
 21
-44.40434993582306
 31
0.0
  0
LINE
  5
2FE7
330
1E
100
AcDbEntity
  8
LOGO
 62
     6
100
AcDbLine
 10
284.4855019708861
 20
-37.2369291213433
 30
0.0
 11
284.4855019708861
 21
-44.40434993582306
 31
0.0
  0
LINE
  5
2FE8
330
1E
100
AcDbEntity
  8
LOGO
 62
     6
100
AcDbLine
 10
271.4538277627414
 20
-37.2369291213433
 30
0.0
 11
271.4538277627414
 21
-44.40434993582306
 31
0.0
  0
LINE
  5
2FE9
330
1E
100
AcDbEntity
  8
LOGO
 62
     6
100
AcDbLine
 10
284.4855019708861
 20
-44.40434993582306
 30
0.0
 11
271.4538277627414
 21
-44.40434993582306
 31
0.0
  0
LINE
  5
2FEA
330
1E
100
AcDbEntity
  8
LOGO
 62
     6
100
AcDbLine
 10
307.3798413217584
 20
-44.40434993582306
 30
0.0
 11
290.4025644961169
 21
-44.40434993582306
 31
0.0
  0
LINE
  5
2FEB
330
1E
100
AcDbEntity
  8
LOGO
  6
CONTINUOUS
 62
     7
100
AcDbLine
 10
286.7989921205301
 20
-31.39344783996964
 30
0.0
 11
289.3884324420745
 21
-31.39344783996964
 31
0.0
  0
LINE
  5
2FEC
330
1E
100
AcDbEntity
  8
LOGO
 62
     6
100
AcDbLine
 10
285.7886693917005
 20
-28.44054903084561
 30
0.0
 11
270.1506603419268
 21
-28.44054903084561
 31
0.0
  0
LINE
  5
2FED
330
1E
100
AcDbEntity
  8
LOGO
 62
     6
100
AcDbLine
 10
285.7886693917005
 20
-34.30480242451085
 30
0.0
 11
270.1506603419268
 21
-34.30480242451085
 31
0.0
  0
LINE
  5
2FEE
330
1E
100
AcDbEntity
  8
LOGO
 62
     6
100
AcDbLine
 10
270.1506603419268
 20
-28.44054903084561
 30
0.0
 11
270.1506603419268
 21
-34.30480242451085
 31
0.0
  0
LINE
  5
2FEF
330
1E
100
AcDbEntity
  8
LOGO
 62
     6
100
AcDbLine
 10
285.7886693917005
 20
-28.44054903084561
 30
0.0
 11
285.7886693917005
 21
-34.30480242451085
 31
0.0
  0
LINE
  5
2FF0
330
1E
100
AcDbEntity
  8
LOGO
 62
     6
100
AcDbLine
 10
277.9696648668136
 20
-34.30480242451085
 30
0.0
 11
277.9696648668136
 21
-37.2369291213433
 31
0.0
  0
TEXT
  5
2FF1
330
1E
100
AcDbEntity
  8
LOGO
  6
CONTINUOUS
 62
     7
100
AcDbText
 10
272.0743836774148
 20
-33.00163500369633
 30
0.0
 40
3.257918552036198
  1
MCGJ
  7
CHINESET
 72
     1
 11
277.9696648668136
 21
-31.37267572767823
 31
0.0
100
AcDbText
 73
     2
  0
LINE
  5
2FF2
330
1E
100
AcDbEntity
  8
LOGO
 62
     6
100
AcDbLine
 10
284.4855019708861
 20
-37.2369291213433
 30
0.0
 11
271.4538277627414
 21
-37.2369291213433
 31
0.0
  0
LINE
  5
2FF3
330
1E
100
AcDbEntity
  8
LOGO
 62
     6
100
AcDbLine
 10
307.3798413217584
 20
-28.44054903084561
 30
0.0
 11
290.4025644961169
 21
-28.44054903084561
 31
0.0
  0
LINE
  5
2FF4
330
1E
100
AcDbEntity
  8
LOGO
 62
     6
100
AcDbLine
 10
307.3798413217584
 20
-37.2369291213433
 30
0.0
 11
290.4025644961169
 21
-37.2369291213433
 31
0.0
  0
LINE
  5
2FF5
330
1E
100
AcDbEntity
  8
LOGO
 62
     6
100
AcDbLine
 10
307.3798413217584
 20
-34.30480242451085
 30
0.0
 11
290.4025644961169
 21
-34.30480242451085
 31
0.0
  0
TEXT
  5
2FF6
330
1E
100
AcDbEntity
  8
LOGO
  6
CONTINUOUS
 62
     7
100
AcDbText
 10
296.5641182289119
 20
-33.03858000536681
 30
0.0
 40
3.257918552036198
  1
12
  7
CHINESET
 72
     1
 11
298.8912029089377
 21
-31.40962072934871
 31
0.0
100
AcDbText
 73
     2
  0
LINE
  5
2FF7
330
1E
100
AcDbEntity
  8
LOGO
 62
     6
100
AcDbLine
 10
298.8912029089377
 20
-34.30480242451085
 30
0.0
 11
298.8912029089377
 21
-37.2369291213433
 31
0.0
  0
LINE
  5
2FF8
330
1E
100
AcDbEntity
  8
LOGO
 62
     6
100
AcDbLine
 10
290.4025644961169
 20
-28.44054903084561
 30
0.0
 11
290.4025644961169
 21
-34.30480242451085
 31
0.0
  0
TEXT
  5
2FF9
330
1E
100
AcDbEntity
  8
LOGO
  6
CONTINUOUS
 62
     7
100
AcDbText
 10
314.8911661317045
 20
-33.03858000536681
 30
0.0
 40
3.257918552036198
  1
20
  7
CHINESET
 72
     1
 11
317.5285287690671
 21
-31.40962072934871
 31
0.0
100
AcDbText
 73
     2
  0
LINE
  5
2FFA
330
1E
100
AcDbEntity
  8
LOGO
  6
CONTINUOUS
 62
     7
100
AcDbLine
 10
308.3901640505878
 20
-31.39344783996964
 30
0.0
 11
310.9796043721321
 21
-31.39344783996964
 31
0.0
  0
LINE
  5
2FFB
330
1E
100
AcDbEntity
  8
LOGO
 62
     6
100
AcDbLine
 10
317.2244561367142
 20
-34.30480242451085
 30
0.0
 11
317.2244561367142
 21
-37.2369291213433
 31
0.0
  0
LINE
  5
2FFC
330
1E
100
AcDbEntity
  8
LOGO
 62
     6
100
AcDbLine
 10
311.9937364261746
 20
-28.44054903084561
 30
0.0
 11
311.9937364261746
 21
-34.30480242451085
 31
0.0
  0
LINE
  5
2FFD
330
1E
100
AcDbEntity
  8
LOGO
 62
     6
100
AcDbLine
 10
307.3798413217584
 20
-28.44054903084561
 30
0.0
 11
307.3798413217584
 21
-34.30480242451085
 31
0.0
  0
LINE
  5
2FFE
330
1E
100
AcDbEntity
  8
LOGO
 62
     1
100
AcDbLine
 10
344.2594012076883
 20
-46.03330921184116
 30
0.0
 11
344.2594012076883
 21
-26.48579789962392
 31
0.0
  0
LINE
  5
2FFF
330
1E
100
AcDbEntity
  8
LOGO
 62
     6
100
AcDbLine
 10
337.2718414557715
 20
-37.2369291213433
 30
0.0
 11
337.2718414557715
 21
-44.43137586485295
 31
0.0
  0
LINE
  5
3000
330
1E
100
AcDbEntity
  8
LOGO
 62
     6
100
AcDbLine
 10
327.7206549625673
 20
-37.2369291213433
 30
0.0
 11
327.7206549625673
 21
-44.40434993582306
 31
0.0
  0
LINE
  5
3001
330
1E
100
AcDbEntity
  8
LOGO
 62
     6
100
AcDbLine
 10
322.4551761477437
 20
-37.2369291213433
 30
0.0
 11
322.4551761477437
 21
-44.40434993582289
 31
0.0
  0
LINE
  5
3002
330
1E
100
AcDbEntity
  8
LOGO
 62
     6
100
AcDbLine
 10
337.2718414557715
 20
-44.40434993582306
 30
0.0
 11
327.7206549625673
 21
-44.40434993582306
 31
0.0
  0
LINE
  5
3003
330
1E
100
AcDbEntity
  8
LOGO
 62
     6
100
AcDbLine
 10
337.2718414557715
 20
-37.2369291213433
 30
0.0
 11
327.7206549625673
 21
-37.2369291213433
 31
0.0
  0
LINE
  5
3004
330
1E
100
AcDbEntity
  8
LOGO
 62
     6
100
AcDbLine
 10
337.9234251661786
 20
-34.30480242451085
 30
0.0
 11
327.06907125216
 21
-34.30480242451085
 31
0.0
  0
LINE
  5
3005
330
1E
100
AcDbEntity
  8
LOGO
 62
     6
100
AcDbLine
 10
337.9234251661786
 20
-28.44054903084561
 30
0.0
 11
327.06907125216
 21
-28.44054903084561
 31
0.0
  0
LINE
  5
3006
330
1E
100
AcDbEntity
  8
LOGO
 62
     6
100
AcDbLine
 10
332.6342477227481
 20
-34.30480242451085
 30
0.0
 11
332.6342477227481
 21
-37.2369291213433
 31
0.0
  0
LINE
  5
3007
330
1E
100
AcDbEntity
  8
LOGO
  6
CONTINUOUS
 62
     7
100
AcDbLine
 10
323.4654988765733
 20
-31.39344783996964
 30
0.0
 11
326.0549391981174
 21
-31.39344783996964
 31
0.0
  0
LINE
  5
3008
330
1E
100
AcDbEntity
  8
LOGO
 62
     6
100
AcDbLine
 10
327.06907125216
 20
-28.44054903084561
 30
0.0
 11
327.06907125216
 21
-34.30480242451085
 31
0.0
  0
LINE
  5
3009
330
1E
100
AcDbEntity
  8
LOGO
 62
     6
100
AcDbLine
 10
322.4551761477437
 20
-28.44054903084561
 30
0.0
 11
322.4551761477437
 21
-34.30480242451085
 31
0.0
  0
TEXT
  5
300A
330
1E
100
AcDbEntity
  8
LOGO
  6
CONTINUOUS
 62
     7
100
AcDbText
 10
331.7143478405985
 20
-33.03858000536681
 30
0.0
 40
3.257918552036198
  1
0
  7
CHINESET
 72
     1
 11
332.8003206912772
 21
-31.40962072934871
 31
0.0
100
AcDbText
 73
     2
  0
LINE
  5
300B
330
1E
100
AcDbEntity
  8
LOGO
 62
     6
100
AcDbLine
 10
337.9234251661786
 20
-28.44054903084561
 30
0.0
 11
337.9234251661786
 21
-34.30480242451085
 31
0.0
  0
TEXT
  5
3075
330
1E
100
AcDbEntity
  8
LOGO
 62
     6
100
AcDbText
 10
216.2060398631504
 20
-29.41696261263205
 30
128.111168875904
 40
1.954751131221719
  1
比例 Scale:
 41
0.9
  7
CHINESET
 72
     4
 11
222.4132473615343
 21
-28.44054903084561
 31
128.111168875904
100
AcDbText
  0
TEXT
  5
3076
330
1E
100
AcDbEntity
  8
LOGO
 62
     6
100
AcDbText
 10
216.889330102323
 20
-33.29993015458533
 30
128.111168875904
 40
1.954751131221719
  1
投影 View:
 41
0.9
  7
CHINESET
 72
     4
 11
222.4132473615343
 21
-32.35005129328915
 31
128.111168875904
100
AcDbText
  0
TEXT
  5
3077
330
1E
100
AcDbEntity
  8
LOGO
 62
     6
100
AcDbText
 10
217.0804419316701
 20
-37.23692912134339
 30
128.111168875904
 40
1.954751131221719
  1
單位 Unit:
 41
0.9
  7
CHINESET
 72
     4
 11
222.4132473615343
 21
-36.25955355573253
 31
128.111168875904
100
AcDbText
  0
TEXT
  5
3078
330
1E
100
AcDbEntity
  8
LOGO
  6
CONTINUOUS
 62
     6
100
AcDbText
 10
274.8668852934458
 20
-43.589870297814
 30
128.111168875904
 40
1.628959276018099
  1
Model
  7
CHINESET
 72
     4
 11
277.9696648668136
 21
-42.77539065980495
 31
128.111168875904
100
AcDbText
  0
TEXT
  5
3079
330
1E
100
AcDbEntity
  8
LOGO
  6
CONTINUOUS
 62
     6
100
AcDbText
 10
291.2506082095195
 20
-43.31837708514432
 30
128.111168875904
 40
1.628959276018099
  1
Bearing type
  7
CHINESET
 72
     4
 11
298.8912029089377
 21
-42.77539065980495
 31
128.111168875904
100
AcDbText
  0
TEXT
  5
307A
330
1E
100
AcDbEntity
  8
LOGO
  6
CONTINUOUS
 62
     6
100
AcDbText
 10
315.2076495642702
 20
-43.589870297814
 30
128.111168875904
 40
1.628959276018099
  1
Bore
 41
0.8
  7
CHINESET
 72
     4
 11
317.2244562869592
 21
-42.77539065980495
 31
128.111168875904
100
AcDbText
  0
TEXT
  5
307B
330
1E
100
AcDbEntity
  8
LOGO
 62
     6
100
AcDbText
 10
275.3633300251847
 20
-40.75394198342343
 30
128.111168875904
 40
2.606334841628958
  1
型式
  7
CHINESET
 72
     4
 11
277.9696648668136
 21
-39.51747210776875
 31
128.111168875904
100
AcDbText
  0
TEXT
  5
307C
330
1E
100
AcDbEntity
  8
LOGO
 62
     6
100
AcDbText
 10
293.7056825469468
 20
-40.75394198342343
 30
128.111168875904
 40
2.606334841628958
  1
軸承型式
  7
CHINESET
 72
     4
 11
298.8912029089377
 21
-39.51747210776875
 31
128.111168875904
100
AcDbText
  0
TEXT
  5
307D
330
1E
100
AcDbEntity
  8
LOGO
 62
     6
100
AcDbText
 10
314.7321485946515
 20
-40.82063952858323
 30
128.111168875904
 40
2.606334841628958
  1
內徑
 41
0.9
  7
CHINESET
 72
     4
 11
317.2244562869592
 21
-39.51747210776875
 31
128.111168875904
100
AcDbText
  0
TEXT
  5
307E
330
1E
100
AcDbEntity
  8
LOGO
  6
CONTINUOUS
 62
     6
100
AcDbText
 10
329.5486076144699
 20
-43.589870297814
 30
128.111168875904
 40
1.628959276018099
  1
Stroke
 41
0.8
  7
CHINESET
 72
     4
 11
332.4962482091693
 21
-42.77539065980495
 31
128.111168875904
100
AcDbText
  0
TEXT
  5
307F
330
1E
100
AcDbEntity
  8
LOGO
 62
     6
100
AcDbText
 10
330.1505468517033
 20
-40.82063952858323
 30
128.111168875904
 40
2.606334841628958
  1
行程
 41
0.9
  7
CHINESET
 72
     4
 11
332.4962482091693
 21
-39.51747210776875
 31
128.111168875904
100
AcDbText
  0
LINE
  5
479F
330
1E
100
AcDbEntity
  8
0
100
AcDbLine
 10
242.1667814982416
 20
26.30864552062655
 30
0.0
 11
212.6667814982416
 21
26.30864552062655
 31
0.0
  0
POLYLINE
  5
47A0
330
1E
100
AcDbEntity
  8
0
100
AcDb2dPolyline
 66
     1
 10
0.0
 20
0.0
 30
0.0
 70
     1
  0
VERTEX
  5
47A1
330
47A0
100
AcDbEntity
  8
0
100
AcDbVertex
100
AcDb2dVertex
 10
234.1667814982416
 20
23.30344170058367
 30
0.0
 42
0.0713517487530936
  0
VERTEX
  5
47A2
330
47A0
100
AcDbEntity
  8
0
100
AcDbVertex
100
AcDb2dVertex
 10
233.0773594091706
 20
23.14718182794263
 30
0.0
 42
0.0828275296409858
  0
VERTEX
  5
47A3
330
47A0
100
AcDbEntity
  8
0
100
AcDbVertex
100
AcDb2dVertex
 10
232.2222378499787
 20
22.73389805232068
 30
0.0
 42
0.1067562697216299
  0
VERTEX
  5
47A4
330
47A0
100
AcDbEntity
  8
0
100
AcDbVertex
100
AcDb2dVertex
 10
231.6084116363973
 20
22.06515934531705
 30
0.0
 42
0.1332561510788792
  0
VERTEX
  5
47A5
330
47A0
100
AcDbEntity
  8
0
100
AcDbVertex
100
AcDb2dVertex
 10
231.4167814982416
 20
21.35889805232068
 30
0.0
 42
0.1332561510788601
  0
VERTEX
  5
47A6
330
47A0
100
AcDbEntity
  8
0
100
AcDbVertex
100
AcDb2dVertex
 10
231.6084116363973
 20
20.65263675932442
 30
0.0
 42
0.1067562697216182
  0
VERTEX
  5
47A7
330
47A0
100
AcDbEntity
  8
0
100
AcDbVertex
100
AcDb2dVertex
 10
232.2222378499787
 20
19.98389805232068
 30
0.0
 42
0.0828275296410204
  0
VERTEX
  5
47A8
330
47A0
100
AcDbEntity
  8
0
100
AcDbVertex
100
AcDb2dVertex
 10
233.0773594091705
 20
19.57061427669896
 30
0.0
 42
0.0713517487531395
  0
VERTEX
  5
47A9
330
47A0
100
AcDbEntity
  8
0
100
AcDbVertex
100
AcDb2dVertex
 10
234.1667814982416
 20
19.41435440405768
 30
0.0
 42
0.0713517487531285
  0
VERTEX
  5
47AA
330
47A0
100
AcDbEntity
  8
0
100
AcDbVertex
100
AcDb2dVertex
 10
235.2562035873128
 20
19.57061427669896
 30
0.0
 42
0.0828275296410134
  0
VERTEX
  5
47AB
330
47A0
100
AcDbEntity
  8
0
100
AcDbVertex
100
AcDb2dVertex
 10
236.1113251465046
 20
19.98389805232068
 30
0.0
 42
0.1067562697216192
  0
VERTEX
  5
47AC
330
47A0
100
AcDbEntity
  8
0
100
AcDbVertex
100
AcDb2dVertex
 10
236.725151360086
 20
20.65263675932431
 30
0.0
 42
0.133256151078874
  0
VERTEX
  5
47AD
330
47A0
100
AcDbEntity
  8
0
100
AcDbVertex
100
AcDb2dVertex
 10
236.9167814982416
 20
21.35889805232068
 30
0.0
 42
0.1332561510788705
  0
VERTEX
  5
47AE
330
47A0
100
AcDbEntity
  8
0
100
AcDbVertex
100
AcDb2dVertex
 10
236.725151360086
 20
22.06515934531694
 30
0.0
 42
0.106756269721639
  0
VERTEX
  5
47AF
330
47A0
100
AcDbEntity
  8
0
100
AcDbVertex
100
AcDb2dVertex
 10
236.1113251465046
 20
22.73389805232068
 30
0.0
 42
0.0828275296410061
  0
VERTEX
  5
47B0
330
47A0
100
AcDbEntity
  8
0
100
AcDbVertex
100
AcDb2dVertex
 10
235.2562035873126
 20
23.14718182794263
 30
0.0
 42
0.0713517487530992
  0
SEQEND
  5
47B1
330
47A0
100
AcDbEntity
  8
0
  0
LINE
  5
47B2
330
1E
100
AcDbEntity
  8
0
100
AcDbLine
 10
242.1667814982416
 20
5.810695520626495
 30
0.0
 11
212.6667814982416
 21
5.810695520626495
 31
0.0
  0
LINE
  5
47B3
330
1E
100
AcDbEntity
  8
0
100
AcDbLine
 10
242.1667814982416
 20
8.692878320667432
 30
0.0
 11
212.6667814982416
 21
8.692878320667432
 31
0.0
  0
LINE
  5
47B4
330
1E
100
AcDbEntity
  8
0
100
AcDbLine
 10
242.1667814982416
 20
3.970677515473653
 30
0.0
 11
212.6667814982416
 21
3.970677515473653
 31
0.0
  0
LINE
  5
47B5
330
1E
100
AcDbEntity
  8
0
100
AcDbLine
 10
242.1667814982416
 20
-3.688354479373401
 30
0.0
 11
212.6667814982416
 21
-3.688354479373401
 31
0.0
  0
LINE
  5
47B6
330
1E
100
AcDbEntity
  8
0
100
AcDbLine
 10
242.1667814982416
 20
-0.8200121944355487
 30
0.0
 11
212.6667814982416
 21
-0.8200121944355487
 31
0.0
  0
LINE
  5
47B7
330
1E
100
AcDbEntity
  8
0
100
AcDbLine
 10
242.1667814982416
 20
-1.527048260571291
 30
0.0
 11
212.6667814982416
 21
-1.527048260571291
 31
0.0
  0
LINE
  5
47B8
330
1E
100
AcDbEntity
  8
CENTER
  6
CENTER
100
AcDbLine
 10
237.3013189679918
 20
21.35889805232068
 30
0.0
 11
230.1724427845591
 21
21.35889805232068
 31
0.0
  0
LINE
  5
47B9
330
1E
100
AcDbEntity
  8
0
100
AcDbLine
 10
242.1667814982416
 20
13.9274127205856
 30
0.0
 11
212.6667814982416
 21
13.9274127205856
 31
0.0
  0
LINE
  5
47BA
330
1E
100
AcDbEntity
  8
CENTER
  6
CENTER
100
AcDbLine
 10
255.3930725103524
 20
11.31014552062652
 30
0.0
 11
210.4180609488293
 21
11.31014552062652
 31
0.0
  0
LINE
  5
47BB
330
1E
100
AcDbEntity
  8
0
100
AcDbLine
 10
212.6667814982416
 20
26.30864552062655
 30
0.0
 11
212.6667814982416
 21
-3.688354479373401
 31
0.0
  0
LINE
  5
47BC
330
1E
100
AcDbEntity
  8
CENTER
  6
CENTER
100
AcDbLine
 10
222.0437009496333
 20
21.35889805232068
 30
0.0
 11
215.0322440284915
 21
21.35889805232068
 31
0.0
  0
LINE
  5
47BD
330
1E
100
AcDbEntity
  8
CENTER
  6
CENTER
100
AcDbLine
 10
218.1667814982416
 20
23.60825718705109
 30
0.0
 11
218.1667814982416
 21
19.10953891759027
 31
0.0
  0
POLYLINE
  5
47BE
330
1E
100
AcDbEntity
  8
0
100
AcDb2dPolyline
 66
     1
 10
0.0
 20
0.0
 30
0.0
 70
     1
  0
VERTEX
  5
47BF
330
47BE
100
AcDbEntity
  8
0
100
AcDbVertex
100
AcDb2dVertex
 10
218.1667814982416
 20
23.30344170058367
 30
0.0
 42
0.0713517487530936
  0
VERTEX
  5
47C0
330
47BE
100
AcDbEntity
  8
0
100
AcDbVertex
100
AcDb2dVertex
 10
217.0773594091705
 20
23.14718182794263
 30
0.0
 42
0.0828275296409858
  0
VERTEX
  5
47C1
330
47BE
100
AcDbEntity
  8
0
100
AcDbVertex
100
AcDb2dVertex
 10
216.2222378499786
 20
22.73389805232068
 30
0.0
 42
0.1067562697216299
  0
VERTEX
  5
47C2
330
47BE
100
AcDbEntity
  8
0
100
AcDbVertex
100
AcDb2dVertex
 10
215.6084116363973
 20
22.06515934531705
 30
0.0
 42
0.1332561510788792
  0
VERTEX
  5
47C3
330
47BE
100
AcDbEntity
  8
0
100
AcDbVertex
100
AcDb2dVertex
 10
215.4167814982416
 20
21.35889805232068
 30
0.0
 42
0.1332561510788601
  0
VERTEX
  5
47C4
330
47BE
100
AcDbEntity
  8
0
100
AcDbVertex
100
AcDb2dVertex
 10
215.6084116363972
 20
20.65263675932442
 30
0.0
 42
0.1067562697216182
  0
VERTEX
  5
47C5
330
47BE
100
AcDbEntity
  8
0
100
AcDbVertex
100
AcDb2dVertex
 10
216.2222378499786
 20
19.98389805232068
 30
0.0
 42
0.0828275296410204
  0
VERTEX
  5
47C6
330
47BE
100
AcDbEntity
  8
0
100
AcDbVertex
100
AcDb2dVertex
 10
217.0773594091705
 20
19.57061427669896
 30
0.0
 42
0.0713517487531395
  0
VERTEX
  5
47C7
330
47BE
100
AcDbEntity
  8
0
100
AcDbVertex
100
AcDb2dVertex
 10
218.1667814982416
 20
19.41435440405768
 30
0.0
 42
0.0713517487531285
  0
VERTEX
  5
47C8
330
47BE
100
AcDbEntity
  8
0
100
AcDbVertex
100
AcDb2dVertex
 10
219.2562035873128
 20
19.57061427669896
 30
0.0
 42
0.0828275296410134
  0
VERTEX
  5
47C9
330
47BE
100
AcDbEntity
  8
0
100
AcDbVertex
100
AcDb2dVertex
 10
220.1113251465046
 20
19.98389805232068
 30
0.0
 42
0.1067562697216192
  0
VERTEX
  5
47CA
330
47BE
100
AcDbEntity
  8
0
100
AcDbVertex
100
AcDb2dVertex
 10
220.7251513600859
 20
20.65263675932431
 30
0.0
 42
0.133256151078874
  0
VERTEX
  5
47CB
330
47BE
100
AcDbEntity
  8
0
100
AcDbVertex
100
AcDb2dVertex
 10
220.9167814982416
 20
21.35889805232068
 30
0.0
 42
0.1332561510788705
  0
VERTEX
  5
47CC
330
47BE
100
AcDbEntity
  8
0
100
AcDbVertex
100
AcDb2dVertex
 10
220.7251513600861
 20
22.06515934531694
 30
0.0
 42
0.106756269721639
  0
VERTEX
  5
47CD
330
47BE
100
AcDbEntity
  8
0
100
AcDbVertex
100
AcDb2dVertex
 10
220.1113251465046
 20
22.73389805232068
 30
0.0
 42
0.0828275296410061
  0
VERTEX
  5
47CE
330
47BE
100
AcDbEntity
  8
0
100
AcDbVertex
100
AcDb2dVertex
 10
219.2562035873127
 20
23.14718182794263
 30
0.0
 42
0.0713517487530992
  0
SEQEND
  5
47CF
330
47BE
100
AcDbEntity
  8
0
  0
POLYLINE
  5
47D0
330
1E
100
AcDbEntity
  8
0
100
AcDb2dPolyline
 66
     1
 10
0.0
 20
0.0
 30
0.0
 70
     1
  0
VERTEX
  5
47D1
330
47D0
100
AcDbEntity
  8
0
100
AcDbVertex
100
AcDb2dVertex
 10
218.1667814982416
 20
22.80344170058367
 30
0.0
 42
0.0650709695338066
  0
VERTEX
  5
47D2
330
47D0
100
AcDbEntity
  8
0
100
AcDbVertex
100
AcDb2dVertex
 10
217.2692166492939
 20
22.68613416348364
 30
0.0
 42
0.0778635455769887
  0
VERTEX
  5
47D3
330
47D0
100
AcDbEntity
  8
0
100
AcDbVertex
100
AcDb2dVertex
 10
216.5757912405719
 20
22.38034466172734
 30
0.0
 42
0.1071769351089095
  0
VERTEX
  5
47D4
330
47D0
100
AcDbEntity
  8
0
100
AcDbVertex
100
AcDb2dVertex
 10
216.0686132994396
 20
21.87429642131019
 30
0.0
 42
0.1442314313114619
  0
VERTEX
  5
47D5
330
47D0
100
AcDbEntity
  8
0
100
AcDbVertex
100
AcDb2dVertex
 10
215.9167814982416
 20
21.35889805232068
 30
0.0
 42
0.1442314313114101
  0
VERTEX
  5
47D6
330
47D0
100
AcDbEntity
  8
0
100
AcDbVertex
100
AcDb2dVertex
 10
216.0686132994395
 20
20.84349968333117
 30
0.0
 42
0.1071769351088812
  0
VERTEX
  5
47D7
330
47D0
100
AcDbEntity
  8
0
100
AcDbVertex
100
AcDb2dVertex
 10
216.5757912405719
 20
20.33745144291401
 30
0.0
 42
0.077863545576979
  0
VERTEX
  5
47D8
330
47D0
100
AcDbEntity
  8
0
100
AcDbVertex
100
AcDb2dVertex
 10
217.2692166492939
 20
20.03166194115772
 30
0.0
 42
0.065070969533793
  0
VERTEX
  5
47D9
330
47D0
100
AcDbEntity
  8
0
100
AcDbVertex
100
AcDb2dVertex
 10
218.1667814982416
 20
19.91435440405768
 30
0.0
 42
0.0650709695338025
  0
VERTEX
  5
47DA
330
47D0
100
AcDbEntity
  8
0
100
AcDbVertex
100
AcDb2dVertex
 10
219.0643463471894
 20
20.03166194115772
 30
0.0
 42
0.0778635455769734
  0
VERTEX
  5
47DB
330
47D0
100
AcDbEntity
  8
0
100
AcDbVertex
100
AcDb2dVertex
 10
219.7577717559114
 20
20.33745144291401
 30
0.0
 42
0.1071769351088954
  0
VERTEX
  5
47DC
330
47D0
100
AcDbEntity
  8
0
100
AcDbVertex
100
AcDb2dVertex
 10
220.2649496970437
 20
20.84349968333117
 30
0.0
 42
0.1442314313114359
  0
VERTEX
  5
47DD
330
47D0
100
AcDbEntity
  8
0
100
AcDbVertex
100
AcDb2dVertex
 10
220.4167814982416
 20
21.35889805232068
 30
0.0
 42
0.1442314313114877
  0
VERTEX
  5
47DE
330
47D0
100
AcDbEntity
  8
0
100
AcDbVertex
100
AcDb2dVertex
 10
220.2649496970436
 20
21.87429642131019
 30
0.0
 42
0.1071769351089231
  0
VERTEX
  5
47DF
330
47D0
100
AcDbEntity
  8
0
100
AcDbVertex
100
AcDb2dVertex
 10
219.7577717559114
 20
22.38034466172734
 30
0.0
 42
0.0778635455769208
  0
VERTEX
  5
47E0
330
47D0
100
AcDbEntity
  8
0
100
AcDbVertex
100
AcDb2dVertex
 10
219.0643463471896
 20
22.68613416348364
 30
0.0
 42
0.0650709695337882
  0
SEQEND
  5
47E1
330
47D0
100
AcDbEntity
  8
0
  0
LINE
  5
47E2
330
1E
100
AcDbEntity
  8
CENTER
  6
CENTER
100
AcDbLine
 10
234.1667814982416
 20
23.60825718705109
 30
0.0
 11
234.1667814982416
 21
19.10953891759027
 31
0.0
  0
POLYLINE
  5
47E3
330
1E
100
AcDbEntity
  8
0
100
AcDb2dPolyline
 66
     1
 10
0.0
 20
0.0
 30
0.0
 70
     1
  0
VERTEX
  5
47E4
330
47E3
100
AcDbEntity
  8
0
100
AcDbVertex
100
AcDb2dVertex
 10
234.1667814982416
 20
22.80344170058367
 30
0.0
 42
0.0650709695338066
  0
VERTEX
  5
47E5
330
47E3
100
AcDbEntity
  8
0
100
AcDbVertex
100
AcDb2dVertex
 10
233.2692166492939
 20
22.68613416348364
 30
0.0
 42
0.0778635455769887
  0
VERTEX
  5
47E6
330
47E3
100
AcDbEntity
  8
0
100
AcDbVertex
100
AcDb2dVertex
 10
232.5757912405719
 20
22.38034466172734
 30
0.0
 42
0.1071769351089095
  0
VERTEX
  5
47E7
330
47E3
100
AcDbEntity
  8
0
100
AcDbVertex
100
AcDb2dVertex
 10
232.0686132994396
 20
21.87429642131019
 30
0.0
 42
0.1442314313114619
  0
VERTEX
  5
47E8
330
47E3
100
AcDbEntity
  8
0
100
AcDbVertex
100
AcDb2dVertex
 10
231.9167814982416
 20
21.35889805232068
 30
0.0
 42
0.1442314313114101
  0
VERTEX
  5
47E9
330
47E3
100
AcDbEntity
  8
0
100
AcDbVertex
100
AcDb2dVertex
 10
232.0686132994395
 20
20.84349968333117
 30
0.0
 42
0.1071769351088812
  0
VERTEX
  5
47EA
330
47E3
100
AcDbEntity
  8
0
100
AcDbVertex
100
AcDb2dVertex
 10
232.5757912405719
 20
20.33745144291401
 30
0.0
 42
0.077863545576979
  0
VERTEX
  5
47EB
330
47E3
100
AcDbEntity
  8
0
100
AcDbVertex
100
AcDb2dVertex
 10
233.2692166492939
 20
20.03166194115772
 30
0.0
 42
0.065070969533793
  0
VERTEX
  5
47EC
330
47E3
100
AcDbEntity
  8
0
100
AcDbVertex
100
AcDb2dVertex
 10
234.1667814982416
 20
19.91435440405768
 30
0.0
 42
0.0650709695338025
  0
VERTEX
  5
47ED
330
47E3
100
AcDbEntity
  8
0
100
AcDbVertex
100
AcDb2dVertex
 10
235.0643463471894
 20
20.03166194115772
 30
0.0
 42
0.0778635455769734
  0
VERTEX
  5
47EE
330
47E3
100
AcDbEntity
  8
0
100
AcDbVertex
100
AcDb2dVertex
 10
235.7577717559114
 20
20.33745144291401
 30
0.0
 42
0.1071769351088954
  0
VERTEX
  5
47EF
330
47E3
100
AcDbEntity
  8
0
100
AcDbVertex
100
AcDb2dVertex
 10
236.2649496970437
 20
20.84349968333117
 30
0.0
 42
0.1442314313114359
  0
VERTEX
  5
47F0
330
47E3
100
AcDbEntity
  8
0
100
AcDbVertex
100
AcDb2dVertex
 10
236.4167814982416
 20
21.35889805232068
 30
0.0
 42
0.1442314313114877
  0
VERTEX
  5
47F1
330
47E3
100
AcDbEntity
  8
0
100
AcDbVertex
100
AcDb2dVertex
 10
236.2649496970437
 20
21.87429642131019
 30
0.0
 42
0.1071769351089231
  0
VERTEX
  5
47F2
330
47E3
100
AcDbEntity
  8
0
100
AcDbVertex
100
AcDb2dVertex
 10
235.7577717559114
 20
22.38034466172734
 30
0.0
 42
0.0778635455769208
  0
VERTEX
  5
47F3
330
47E3
100
AcDbEntity
  8
0
100
AcDbVertex
100
AcDb2dVertex
 10
235.0643463471897
 20
22.68613416348364
 30
0.0
 42
0.0650709695337882
  0
SEQEND
  5
47F4
330
47E3
100
AcDbEntity
  8
0
  0
ARC
  5
47F5
330
1E
100
AcDbEntity
  8
DASHED
  6
HIDDEN
100
AcDbCircle
 10
320.5492687476283
 20
13.50283052273789
 30
0.0
 40
0.9999
100
AcDbArc
 50
5.593063553389113
 51
44.99999999999976
  0
ARC
  5
47F6
330
1E
100
AcDbEntity
  8
DASHED
  6
DASHED
100
AcDbCircle
 10
320.5492687476288
 20
9.117460518515599
 30
0.0
 40
0.9999
100
AcDbArc
 50
315.0000000000002
 51
354.4069364466173
  0
LINE
  5
47F7
330
1E
100
AcDbEntity
  8
0
  6
CONTINUOUS
100
AcDbLine
 10
276.1586258907565
 20
27.31014552062652
 30
0.0
 11
320.1586258907565
 21
27.31014552062652
 31
0.0
  0
LINE
  5
47F8
330
1E
100
AcDbEntity
  8
0
  6
CONTINUOUS
100
AcDbLine
 10
276.1586258907565
 20
-4.689854479373479
 30
0.0
 11
320.1586258907565
 21
-4.689854479373479
 31
0.0
  0
LINE
  5
47F9
330
1E
100
AcDbEntity
  8
CENTER
  6
CENTER
100
AcDbLine
 10
272.2322767538522
 20
11.31014552062652
 30
0.0
 11
324.8449561342669
 21
11.31014552062652
 31
0.0
  0
LINE
  5
47FA
330
1E
100
AcDbEntity
  8
DASHED
  6
HIDDEN
100
AcDbLine
 10
304.2080316180204
 20
-0.0456430626472866
 30
0.0
 11
309.8678675075638
 21
5.614192826601765
 31
0.0
  0
LINE
  5
47FC
330
1E
100
AcDbEntity
  8
DASHED
  6
HIDDEN
100
AcDbLine
 10
292.1054253490614
 20
-0.0422725095650094
 30
0.0
 11
286.4491367848449
 21
5.614016049737529
 31
0.0
  0
LINE
  5
47FD
330
1E
100
AcDbEntity
  8
CENTER
  6
CENTER
100
AcDbLine
 10
298.1586258907565
 20
-5.592516285346391
 30
0.0
 11
298.1586258907565
 21
13.30994552062657
 31
0.0
  0
LINE
  5
47FE
330
1E
100
AcDbEntity
  8
CENTER
  6
CENTER
100
AcDbLine
 10
298.1586258907565
 20
-5.496774508626344
 30
0.0
 11
298.1586258907565
 21
28.03645038698596
 31
0.0
  0
LINE
  5
47FF
330
1E
100
AcDbEntity
  8
CENTER
  6
CENTER
100
AcDbLine
 10
280.1586258907565
 20
-2.189854479373479
 30
0.0
 11
280.1586258907565
 21
4.81014552062652
 31
0.0
  0
CIRCLE
  5
4800
330
1E
100
AcDbEntity
  8
0
100
AcDbCircle
 10
280.1586258907565
 20
1.31014552062652
 30
0.0
 40
2.5
  0
LINE
  5
4801
330
1E
100
AcDbEntity
  8
0
  6
CONTINUOUS
100
AcDbLine
 10
273.1586258907565
 20
-1.689854479373479
 30
0.0
 11
273.1586258907565
 21
24.31014552062652
 31
0.0
  0
LINE
  5
4802
330
1E
100
AcDbEntity
  8
0
100
AcDbLine
 10
254.1667814982417
 20
-4.689854479373479
 30
0.0
 11
254.1667814982417
 21
27.31014552062652
 31
0.0
1001
GENIUS_GENOREF_13
1005
4D91
  0
ARC
  5
4803
330
1E
100
AcDbEntity
  8
0
 62
     3
100
AcDbCircle
 10
280.1586258907565
 20
1.31014552062652
 30
0.0
 40
3.0
100
AcDbArc
 50
280.0
 51
190.0
  0
LINE
  5
4804
330
1E
100
AcDbEntity
  8
0
100
AcDbLine
 10
246.1667814982416
 20
-4.689854479373479
 30
0.0
 11
246.1667814982416
 21
11.31014552062652
 31
0.0
  0
LINE
  5
4805
330
1E
100
AcDbEntity
  8
0
100
AcDbLine
 10
242.1667814982416
 20
26.30864552062655
 30
0.0
 11
242.1667814982416
 21
-3.688354479373401
 31
0.0
  0
LINE
  5
4808
330
1E
100
AcDbEntity
  8
0
  6
CONTINUOUS
100
AcDbLine
 10
254.1667814982417
 20
-4.689854479373479
 30
0.0
 11
246.1667814982416
 21
-4.689854479373479
 31
0.0
  0
LINE
  5
480A
330
1E
100
AcDbEntity
  8
DASHED
  6
HIDDEN
100
AcDbLine
 10
291.5092908907565
 20
-3.688354479373515
 30
0.0
 11
304.8079608907564
 21
-3.688354479373515
 31
0.0
  0
LINE
  5
480B
330
1E
100
AcDbEntity
  8
DASHED
  6
HIDDEN
100
AcDbLine
 10
291.5092908935465
 20
-3.688354479373515
 30
0.0
 11
289.3479846741096
 21
-1.527048260571291
 31
0.0
  0
LINE
  5
480C
330
1E
100
AcDbEntity
  8
DASHED
  6
HIDDEN
100
AcDbLine
 10
289.3479846740784
 20
-1.102826618235098
 30
0.0
 11
289.6307990967684
 21
-0.8200121909895869
 31
0.0
  0
ARC
  5
480D
330
1E
100
AcDbEntity
  8
DASHED
  6
DASHED
100
AcDbCircle
 10
289.560095495231
 20
-1.314937439387676
 30
0.0
 40
0.29997
100
AcDbArc
 50
135.0000000000002
 51
224.9999999999997
  0
ARC
  5
480E
330
1E
100
AcDbEntity
  8
DASHED
  6
HIDDEN
100
AcDbCircle
 10
291.7519073138071
 20
-0.395790544819306
 30
0.0
 40
0.4999500000000001
100
AcDbArc
 50
315.0000000000002
 51
44.99999999999976
  0
ARC
  5
480F
330
1E
100
AcDbEntity
  8
DASHED
  6
HIDDEN
100
AcDbCircle
 10
289.9843171314239
 20
-1.173530226842444
 30
0.0
 40
0.4999500000000001
100
AcDbArc
 50
44.99999999999976
 51
134.9999999029716
  0
ARC
  5
4810
330
1E
100
AcDbEntity
  8
DASHED
  6
HIDDEN
100
AcDbCircle
 10
291.1862784574004
 20
-1.244233834491978
 30
0.0
 40
0.29997
100
AcDbArc
 50
224.9999999999997
 51
315.0000000000002
  0
LINE
  5
4811
330
1E
100
AcDbEntity
  8
DASHED
  6
HIDDEN
100
AcDbLine
 10
291.3983892785529
 20
-1.456344655644556
 30
0.0
 11
292.1054253490614
 21
-0.7493085800734889
 31
0.0
  0
LINE
  5
4812
330
1E
100
AcDbEntity
  8
DASHED
  6
HIDDEN
100
AcDbLine
 10
290.9741676362478
 20
-1.456344655644556
 30
0.0
 11
290.3378351666781
 21
-0.8200121915882618
 31
0.0
  0
ARC
  5
4813
330
1E
100
AcDbEntity
  8
DASHED
  6
HIDDEN
100
AcDbCircle
 10
306.3329346500892
 20
-1.173530226842444
 30
0.0
 40
0.4999500000000001
100
AcDbArc
 50
45.00000009702839
 51
135.0000000000002
  0
ARC
  5
4814
330
1E
100
AcDbEntity
  8
DASHED
  6
HIDDEN
100
AcDbCircle
 10
304.565344467706
 20
-0.395790544819306
 30
0.0
 40
0.4999500000000001
100
AcDbArc
 50
135.0000000000002
 51
224.9999999999997
  0
ARC
  5
4815
330
1E
100
AcDbEntity
  8
DASHED
  6
HIDDEN
100
AcDbCircle
 10
305.1309733241126
 20
-1.244233834491978
 30
0.0
 40
0.29997
100
AcDbArc
 50
224.9999999999997
 51
315.0000000000002
  0
ARC
  5
4816
330
1E
100
AcDbEntity
  8
DASHED
  6
HIDDEN
100
AcDbCircle
 10
306.7571562862821
 20
-1.314937439387676
 30
0.0
 40
0.29997
100
AcDbArc
 50
315.0000000000002
 51
44.99999999999976
  0
LINE
  5
4817
330
1E
100
AcDbEntity
  8
DASHED
  6
HIDDEN
100
AcDbLine
 10
304.8079608879666
 20
-3.688354479373515
 30
0.0
 11
306.9692671074035
 21
-1.527048260571291
 31
0.0
  0
LINE
  5
4818
330
1E
100
AcDbEntity
  8
DASHED
  6
HIDDEN
100
AcDbLine
 10
304.9188625029602
 20
-1.456344655644556
 30
0.0
 11
304.2118264324518
 21
-0.7493085800734889
 31
0.0
  0
LINE
  5
4819
330
1E
100
AcDbEntity
  8
DASHED
  6
HIDDEN
100
AcDbLine
 10
305.3430841452652
 20
-1.456344655644556
 30
0.0
 11
305.9794166163665
 21
-0.8200121900567864
 31
0.0
  0
LINE
  5
481A
330
1E
100
AcDbEntity
  8
DASHED
  6
HIDDEN
100
AcDbLine
 10
306.9692671074347
 20
-1.102826618235098
 30
0.0
 11
306.6864526881906
 21
-0.8200121944355487
 31
0.0
  0
LINE
  5
481C
330
1E
100
AcDbEntity
  8
DASHED
  6
DASHED
100
AcDbLine
 10
277.6606758907565
 20
5.810695520626495
 30
0.0
 11
282.0102408907565
 21
5.810695520626495
 31
0.0
  0
LINE
  5
481F
330
1E
100
AcDbEntity
  8
DASHED
  6
HIDDEN
100
AcDbLine
 10
286.866861961265
 20
26.015781591135
 30
0.0
 11
275.0609469633761
 21
14.20986659324614
 31
0.0
  0
LINE
  5
4820
330
1E
100
AcDbEntity
  8
CENTER
  6
CENTER
100
AcDbLine
 10
276.6586258907565
 20
1.31014552062652
 30
0.0
 11
283.6586258907565
 21
1.31014552062652
 31
0.0
  0
CIRCLE
  5
4821
330
1E
100
AcDbEntity
  8
0
100
AcDbCircle
 10
280.1604258907565
 20
11.31014552062652
 30
0.0
 40
3.0
  0
LINE
  5
4822
330
1E
100
AcDbEntity
  8
0
100
AcDbLine
 10
246.1667814982416
 20
11.31014552062652
 30
0.0
 11
246.1667814982416
 21
27.31014552062652
 31
0.0
1001
GENIUS_GENOREF_13
1005
4D91
  0
LINE
  5
4823
330
1E
100
AcDbEntity
  8
0
100
AcDbLine
 10
246.1667814982416
 20
6.521470390531703
 30
0.0
 11
245.8007560953233
 21
6.310145525626467
 31
0.0
  0
LINE
  5
4824
330
1E
100
AcDbEntity
  8
0
100
AcDbLine
 10
245.8007560953232
 20
6.310145525626467
 30
0.0
 11
245.8007560953232
 21
8.81014552062652
 31
0.0
  0
LINE
  5
4825
330
1E
100
AcDbEntity
  8
0
100
AcDbLine
 10
242.1667814982416
 20
6.310145525626467
 30
0.0
 11
245.8007560953233
 21
6.310145525626467
 31
0.0
  0
LINE
  5
4826
330
1E
100
AcDbEntity
  8
0
  6
CONTINUOUS
100
AcDbLine
 10
246.1667814982416
 20
8.81014552062652
 30
0.0
 11
242.1667814982416
 21
8.81014552062652
 31
0.0
  0
LINE
  5
4827
330
1E
100
AcDbEntity
  8
0
100
AcDbLine
 10
246.1667814982416
 20
16.09882065072133
 30
0.0
 11
245.8007560953233
 21
16.31014551562657
 31
0.0
  0
LINE
  5
4828
330
1E
100
AcDbEntity
  8
0
100
AcDbLine
 10
245.8007560953232
 20
16.31014551562657
 30
0.0
 11
245.8007560953232
 21
13.81014552062652
 31
0.0
  0
LINE
  5
4829
330
1E
100
AcDbEntity
  8
0
100
AcDbLine
 10
242.1667814982416
 20
16.31014551562657
 30
0.0
 11
245.8007560953233
 21
16.31014551562657
 31
0.0
  0
LINE
  5
482A
330
1E
100
AcDbEntity
  8
0
  6
CONTINUOUS
100
AcDbLine
 10
246.1667814982416
 20
13.81014552062652
 30
0.0
 11
242.1667814982416
 21
13.81014552062652
 31
0.0
  0
ARC
  5
482B
330
1E
100
AcDbEntity
  8
DASHED
  6
DASHED
100
AcDbCircle
 10
298.1586258907565
 20
11.31014552062652
 30
0.0
 40
23.5
100
AcDbArc
 50
174.3880978091814
 51
185.6456775867842
  0
ARC
  5
482C
330
1E
100
AcDbEntity
  8
DASHED
  6
DASHED
100
AcDbCircle
 10
275.7679830338842
 20
9.117460518515713
 30
0.0
 40
0.9999
100
AcDbArc
 50
185.5930635533891
 51
224.9999999999997
  0
LINE
  5
482D
330
1E
100
AcDbEntity
  8
DASHED
  6
DASHED
100
AcDbLine
 10
277.6606758907565
 20
5.810695520626495
 30
0.0
 11
275.0609469633758
 21
8.410424448007347
 31
0.0
  0
ARC
  5
482E
330
1E
100
AcDbEntity
  8
DASHED
  6
DASHED
100
AcDbCircle
 10
275.7679830338846
 20
13.50283052273766
 30
0.0
 40
0.9999
100
AcDbArc
 50
135.0000000000002
 51
174.4069364466108
  0
LINE
  5
482F
330
1E
100
AcDbEntity
  8
0
  6
CONTINUOUS
100
AcDbLine
 10
254.1667814982417
 20
27.31014552062652
 30
0.0
 11
246.1667814982416
 21
27.31014552062652
 31
0.0
  0
LINE
  5
4834
330
1E
100
AcDbEntity
  8
DASHED
  6
HIDDEN
100
AcDbLine
 10
309.4503898202482
 20
26.01578159113489
 30
0.0
 11
321.2563048181368
 21
14.20986659324626
 31
0.0
  0
POLYLINE
  5
4835
330
1E
100
AcDbEntity
  8
0
100
AcDb2dPolyline
 66
     1
 10
0.0
 20
0.0
 30
0.0
 70
     1
  0
VERTEX
  5
4836
330
4835
100
AcDbEntity
  8
0
100
AcDbVertex
100
AcDb2dVertex
 10
298.1586258907565
 20
8.81014552062652
 30
0.0
  0
VERTEX
  5
4837
330
4835
100
AcDbEntity
  8
0
100
AcDbVertex
100
AcDb2dVertex
 10
300.3236894002176
 20
10.06014552062652
 30
0.0
  0
VERTEX
  5
4838
330
4835
100
AcDbEntity
  8
0
100
AcDbVertex
100
AcDb2dVertex
 10
300.3236894002176
 20
12.56014552062652
 30
0.0
  0
VERTEX
  5
4839
330
4835
100
AcDbEntity
  8
0
100
AcDbVertex
100
AcDb2dVertex
 10
298.1586258907565
 20
13.81014552062652
 30
0.0
  0
VERTEX
  5
483A
330
4835
100
AcDbEntity
  8
0
100
AcDbVertex
100
AcDb2dVertex
 10
295.9935623812954
 20
12.56014552062652
 30
0.0
  0
VERTEX
  5
483B
330
4835
100
AcDbEntity
  8
0
100
AcDbVertex
100
AcDb2dVertex
 10
295.9935623812954
 20
10.06014552062652
 30
0.0
  0
SEQEND
  5
483C
330
4835
100
AcDbEntity
  8
0
  0
CIRCLE
  5
483D
330
1E
100
AcDbEntity
  8
0
100
AcDbCircle
 10
298.1586258907565
 20
11.31014552062652
 30
0.0
 40
2.5
  0
CIRCLE
  5
483E
330
1E
100
AcDbEntity
  8
0
100
AcDbCircle
 10
298.1586258907565
 20
11.31014552062652
 30
0.0
 40
5.0
  0
LINE
  5
483F
330
1E
100
AcDbEntity
  8
CENTER
  6
CENTER
100
AcDbLine
 10
280.1604258907565
 20
7.371336226481162
 30
0.0
 11
280.1604258907565
 21
15.22476091935914
 31
0.0
  0
POLYLINE
  5
4840
330
1E
100
AcDbEntity
  8
0
100
AcDb2dPolyline
 66
     1
 10
0.0
 20
0.0
 30
0.0
 70
     1
  0
VERTEX
  5
4841
330
4840
100
AcDbEntity
  8
0
100
AcDbVertex
100
AcDb2dVertex
 10
280.1604258907565
 20
10.31014552062652
 30
0.0
  0
VERTEX
  5
4842
330
4840
100
AcDbEntity
  8
0
100
AcDbVertex
100
AcDb2dVertex
 10
281.0264512945409
 20
10.81014552062651
 30
0.0
  0
VERTEX
  5
4843
330
4840
100
AcDbEntity
  8
0
100
AcDbVertex
100
AcDb2dVertex
 10
281.0264512945409
 20
11.81014552062652
 30
0.0
  0
VERTEX
  5
4844
330
4840
100
AcDbEntity
  8
0
100
AcDbVertex
100
AcDb2dVertex
 10
280.1604258907565
 20
12.31014552062652
 30
0.0
  0
VERTEX
  5
4845
330
4840
100
AcDbEntity
  8
0
100
AcDbVertex
100
AcDb2dVertex
 10
279.294400486972
 20
11.81014552062652
 30
0.0
  0
VERTEX
  5
4846
330
4840
100
AcDbEntity
  8
0
100
AcDbVertex
100
AcDb2dVertex
 10
279.294400486972
 20
10.81014552062651
 30
0.0
  0
SEQEND
  5
4847
330
4840
100
AcDbEntity
  8
0
  0
CIRCLE
  5
4848
330
1E
100
AcDbEntity
  8
0
100
AcDbCircle
 10
280.1604258907565
 20
11.31014552062652
 30
0.0
 40
1.0
  0
ARC
  5
4849
330
1E
100
AcDbEntity
  8
DASHED
  6
DASHED
100
AcDbCircle
 10
286.0956187497397
 20
5.260498014334416
 30
0.0
 40
0.4999500000000001
100
AcDbArc
 50
45.00000002413488
 51
135.0000000000002
  0
ARC
  5
484A
330
1E
100
AcDbEntity
  8
DASHED
  6
DASHED
100
AcDbCircle
 10
283.9745105382144
 20
4.270647515473683
 30
0.0
 40
0.29997
100
AcDbArc
 50
224.9999999999997
 51
315.0000000000002
  0
LINE
  5
484B
330
1E
100
AcDbEntity
  8
DASHED
  6
DASHED
100
AcDbLine
 10
284.1866213593669
 20
4.058536694321219
 30
0.0
 11
285.7421007144855
 21
5.614016049588599
 31
0.0
  0
LINE
  5
484C
330
1E
100
AcDbEntity
  8
DASHED
  6
DASHED
100
AcDbLine
 10
283.7623997170619
 20
4.058536694321219
 30
0.0
 11
282.0102408907565
 21
5.810695520626495
 31
0.0
  0
LINE
  5
484D
330
1E
100
AcDbEntity
  8
DASHED
  6
HIDDEN
100
AcDbLine
 10
287.1374329515331
 20
19.21528476953756
 30
0.0
 11
283.6557189618188
 21
22.69699875925175
 31
0.0
  0
LINE
  5
484E
330
1E
100
AcDbEntity
  8
DASHED
  6
HIDDEN
100
AcDbLine
 10
287.4909863421263
 20
19.56883816013078
 30
0.0
 11
284.0092723524121
 21
23.05055214984509
 31
0.0
  0
LINE
  5
484F
330
1E
100
AcDbEntity
  8
DASHED
  6
HIDDEN
100
AcDbLine
 10
284.3090058267869
 20
16.38685764479146
 30
0.0
 11
280.8272918370727
 21
19.86857163450565
 31
0.0
  0
LINE
  5
4850
330
1E
100
AcDbEntity
  8
DASHED
  6
HIDDEN
100
AcDbLine
 10
283.9554524361937
 20
16.03330425419812
 30
0.0
 11
280.4737384464793
 21
19.51501824391243
 31
0.0
  0
LINE
  5
4851
330
1E
100
AcDbEntity
  8
CENTER
  6
CENTER
100
AcDbLine
 10
285.9780860572207
 20
17.54620453910376
 30
0.0
 11
281.4548451593894
 21
22.06944543693498
 31
0.0
  0
LINE
  5
4852
330
1E
100
AcDbEntity
  8
CENTER
  6
CENTER
100
AcDbLine
 10
316.1568258907565
 20
7.500080963087043
 30
0.0
 11
316.1568258907565
 21
15.4822500897078
 31
0.0
  0
POLYLINE
  5
4853
330
1E
100
AcDbEntity
  8
0
100
AcDb2dPolyline
 66
     1
 10
0.0
 20
0.0
 30
0.0
 70
     1
  0
VERTEX
  5
4854
330
4853
100
AcDbEntity
  8
0
100
AcDbVertex
100
AcDb2dVertex
 10
316.1568258907565
 20
10.31014552062652
 30
0.0
  0
VERTEX
  5
4855
330
4853
100
AcDbEntity
  8
0
100
AcDbVertex
100
AcDb2dVertex
 10
317.0228512945409
 20
10.81014552062651
 30
0.0
  0
VERTEX
  5
4856
330
4853
100
AcDbEntity
  8
0
100
AcDbVertex
100
AcDb2dVertex
 10
317.0228512945409
 20
11.81014552062652
 30
0.0
  0
VERTEX
  5
4857
330
4853
100
AcDbEntity
  8
0
100
AcDbVertex
100
AcDb2dVertex
 10
316.1568258907565
 20
12.31014552062652
 30
0.0
  0
VERTEX
  5
4858
330
4853
100
AcDbEntity
  8
0
100
AcDbVertex
100
AcDb2dVertex
 10
315.2908004869721
 20
11.81014552062652
 30
0.0
  0
VERTEX
  5
4859
330
4853
100
AcDbEntity
  8
0
100
AcDbVertex
100
AcDb2dVertex
 10
315.2908004869721
 20
10.81014552062651
 30
0.0
  0
SEQEND
  5
485A
330
4853
100
AcDbEntity
  8
0
  0
CIRCLE
  5
485B
330
1E
100
AcDbEntity
  8
0
100
AcDbCircle
 10
316.1568258907565
 20
11.31014552062652
 30
0.0
 40
1.0
  0
CIRCLE
  5
485C
330
1E
100
AcDbEntity
  8
0
100
AcDbCircle
 10
316.1568258907565
 20
11.31014552062652
 30
0.0
 40
3.0
  0
LINE
  5
485D
330
1E
100
AcDbEntity
  8
DASHED
  6
HIDDEN
100
AcDbLine
 10
312.1306092091089
 20
4.058557907441468
 30
0.0
 11
310.5749742887152
 21
5.614192826532985
 31
0.0
  0
ARC
  5
485E
330
1E
100
AcDbEntity
  8
DASHED
  6
DASHED
100
AcDbCircle
 10
310.2216330317734
 20
5.260498014334416
 30
0.0
 40
0.4999500000000001
100
AcDbArc
 50
44.99999999999976
 51
134.9999999758651
  0
ARC
  5
485F
330
1E
100
AcDbEntity
  8
DASHED
  6
HIDDEN
100
AcDbCircle
 10
318.2424037497397
 20
6.81059552062652
 30
0.0
 40
0.9999
100
AcDbArc
 50
270.0
 51
315.0000000000002
  0
LINE
  5
4860
330
1E
100
AcDbEntity
  8
DASHED
  6
HIDDEN
100
AcDbLine
 10
318.9494398202482
 20
6.103559450118154
 30
0.0
 11
321.2563048181373
 21
8.410424448007233
 31
0.0
  0
ARC
  5
4861
330
1E
100
AcDbEntity
  8
DASHED
  6
DASHED
100
AcDbCircle
 10
312.3427412433818
 20
4.270689941880618
 30
0.0
 40
0.3
100
AcDbArc
 50
225.0000000224491
 51
315.0000000000002
  0
LINE
  5
4862
330
1E
100
AcDbEntity
  8
DASHED
  6
HIDDEN
100
AcDbLine
 10
312.5548732777378
 20
4.058557907524573
 30
0.0
 11
314.3070108907565
 21
5.810695520626495
 31
0.0
  0
LINE
  5
4863
330
1E
100
AcDbEntity
  8
DASHED
  6
HIDDEN
100
AcDbLine
 10
314.3070108907564
 20
5.810695520626495
 30
0.0
 11
318.2424037497397
 21
5.810695520626495
 31
0.0
  0
LINE
  5
4864
330
1E
100
AcDbEntity
  8
CENTER
  6
CENTER
100
AcDbLine
 10
312.6568258907565
 20
1.31014552062652
 30
0.0
 11
319.6568258907565
 21
1.31014552062652
 31
0.0
  0
LINE
  5
4867
330
1E
100
AcDbEntity
  8
DASHED
  6
HIDDEN
100
AcDbLine
 10
287.5738980317734
 20
26.30864552062655
 30
0.0
 11
308.7433537497397
 21
26.30864552062644
 31
0.0
  0
ARC
  5
4868
330
1E
100
AcDbEntity
  8
DASHED
  6
HIDDEN
100
AcDbCircle
 10
287.5738980317734
 20
25.30874552062653
 30
0.0
 40
0.9999
100
AcDbArc
 50
90.0
 51
135.0000000000002
  0
ARC
  5
4869
330
1E
100
AcDbEntity
  8
DASHED
  6
HIDDEN
100
AcDbCircle
 10
308.7433537497397
 20
25.30874552062641
 30
0.0
 40
0.9999
100
AcDbArc
 50
44.99999999999976
 51
90.0
  0
LINE
  5
486A
330
1E
100
AcDbEntity
  8
0
  6
CONTINUOUS
100
AcDbLine
 10
323.1586258907565
 20
-1.689854479373479
 30
0.0
 11
323.1586258907565
 21
24.31014552062652
 31
0.0
  0
ARC
  5
486C
330
1E
100
AcDbEntity
  8
DASHED
  6
HIDDEN
100
AcDbCircle
 10
298.1586258907565
 20
11.31014552062652
 30
0.0
 40
23.5
100
AcDbArc
 50
354.249857722479
 51
5.573576304996029
  0
DIMENSION
  5
4882
330
1E
100
AcDbEntity
  8
AM_5
100
AcDbDimension
  2
*D4
 10
218.1667814982416
 20
29.86824576950323
 30
0.0
 11
215.4167814982416
 21
31.46824576950323
 31
0.0
 70
    32
  3
AM_ISO
100
AcDbAlignedDimension
 13
212.6667814982416
 23
26.30864552062655
 33
0.0
 14
218.1667814982416
 24
23.60825718705109
 34
0.0
100
AcDbRotatedDimension
  0
DIMENSION
  5
48A6
330
1E
100
AcDbEntity
  8
AM_5
100
AcDbDimension
  2
*D5
 10
234.1667814982416
 20
29.86824576950323
 30
0.0
 11
238.1667814982416
 21
31.46824576950323
 31
0.0
 70
    32
  3
AM_ISO
100
AcDbAlignedDimension
 13
242.1667814982416
 23
26.30864552062655
 33
0.0
 14
234.1667814982416
 24
23.60825718705109
 34
0.0
100
AcDbRotatedDimension
  0
DIMENSION
  5
48CA
330
1E
100
AcDbEntity
  8
AM_5
100
AcDbDimension
  2
*D6
 10
242.1667814982416
 20
-11.43099125392427
 30
0.0
 11
227.4167814982416
 21
-9.830794403530575
 31
0.0
 70
    32
  1
<>+stroke
  3
AM_ISO
100
AcDbAlignedDimension
 13
212.6667814982416
 23
-3.688354479373401
 33
0.0
 14
242.1667814982416
 24
-3.688354479373401
 34
0.0
 50
0.0000000000001018
100
AcDbRotatedDimension
1001
ACAD
1000
DSTYLE
1002
{
1070
   173
1070
     1
1070
   174
1070
     1
1070
     7
1000
GENDOT
1002
}
  0
DIMENSION
  5
48F2
330
1E
100
AcDbEntity
  8
AM_5
100
AcDbDimension
  2
*D7
 10
246.1667814982416
 20
-11.43099125392427
 30
0.0
 11
244.1667814982416
 21
-9.83099125392427
 31
0.0
 70
    32
  3
AM_ISO
100
AcDbAlignedDimension
 13
242.1667814982416
 23
-3.688354479373401
 33
0.0
 14
246.1667814982416
 24
-4.689854479373478
 34
0.0
 50
0.0000000000001527
100
AcDbRotatedDimension
1001
ACAD
1000
DSTYLE
1002
{
1070
   174
1070
     1
1070
     5
1000
GENDOT
1002
}
  0
DIMENSION
  5
4926
330
1E
100
AcDbEntity
  8
AM_5
100
AcDbDimension
  2
*D8
 10
254.1667814982417
 20
-11.43099125392425
 30
0.0
 11
250.1667814982416
 21
-9.830991253924254
 31
0.0
 70
    32
  3
AM_ISO
100
AcDbAlignedDimension
 13
246.1667814982416
 23
-4.689854479373478
 33
0.0
 14
254.1667814982417
 24
-4.689854479373478
 34
0.0
 50
0.0000000000001527
100
AcDbRotatedDimension
1001
ACAD
1000
DSTYLE
1002
{
1070
   173
1070
     1
1070
   174
1070
     1
1070
     6
1000
GENDOT
1002
}
  0
DIMENSION
  5
496C
330
1E
100
AcDbEntity
  8
AM_5
100
AcDbDimension
  2
*D9
 10
254.1667814982417
 20
-16.6898544793735
 30
0.0
 11
233.4167814982416
 21
-15.0898544793735
 31
0.0
 70
    32
  1
<>+stroke
  3
AM_ISO
100
AcDbAlignedDimension
 13
212.6667814982416
 23
-3.688354479373401
 33
0.0
 14
254.1667814982417
 24
-4.689854479373478
 34
0.0
 50
0.0000000000001018
100
AcDbRotatedDimension
  0
DIMENSION
  5
4990
330
1E
100
AcDbEntity
  8
AM_5
100
AcDbDimension
  2
*D10
 10
262.0899561965051
 20
27.31014552062652
 30
0.0
 11
260.4897593461114
 21
11.31014552062656
 31
0.0
 70
    32
  3
AM_ISO
100
AcDbAlignedDimension
 13
254.1667814982417
 23
-4.689854479373478
 33
0.0
 14
254.1667814982417
 24
27.31014552062652
 34
0.0
 50
90.0
100
AcDbRotatedDimension
  0
DIMENSION
  5
49B4
330
1E
100
AcDbEntity
  8
AM_5
100
AcDbDimension
  2
*D11
 10
298.1586258907565
 20
-11.69954522900985
 30
0.0
 11
289.1586258907565
 21
-10.09954522900985
 31
0.0
 70
    32
  3
AM_ISO
100
AcDbAlignedDimension
 13
280.1586258907565
 23
-2.189854479373479
 33
0.0
 14
298.1586258907565
 24
-5.592516285346391
 34
0.0
 50
0.0000000000001018
100
AcDbRotatedDimension
  0
DIMENSION
  5
49D8
330
1E
100
AcDbEntity
  8
AM_5
100
AcDbDimension
  2
*D12
 10
316.1586258907565
 20
-11.69954522900985
 30
0.0
 11
307.1586258907565
 21
-10.09954522900985
 31
0.0
 70
    32
  3
AM_ISO
100
AcDbAlignedDimension
 13
298.1586258907565
 23
-5.592516285346391
 33
0.0
 14
316.1586258907565
 24
-2.189854479373479
 34
0.0
 50
0.0000000000001018
100
AcDbRotatedDimension
  0
DIMENSION
  5
49FC
330
1E
100
AcDbEntity
  8
AM_5
100
AcDbDimension
  2
*D13
 10
323.1586258907565
 20
-16.6995452290102
 30
0.0
 11
298.1586258907565
 21
-15.0995452290102
 31
0.0
 70
    32
  3
AM_ISO
100
AcDbAlignedDimension
 13
273.1586258907565
 23
-1.689854479373479
 33
0.0
 14
323.1586258907565
 24
-1.689854479373479
 34
0.0
 50
0.0000000000001018
100
AcDbRotatedDimension
  0
DIMENSION
  5
4A20
330
1E
100
AcDbEntity
  8
AM_5
100
AcDbDimension
  2
*D14
 10
335.3853428535062
 20
27.31014552062652
 30
0.0
 11
333.7851460031125
 21
11.31014552062657
 31
0.0
 70
    32
  3
AM_ISO
100
AcDbAlignedDimension
 13
320.1586258907565
 23
-4.689854479373479
 33
0.0
 14
320.1586258907565
 24
27.31014552062652
 34
0.0
 50
90.0
100
AcDbRotatedDimension
  0
DIMENSION
  5
4A44
330
1E
100
AcDbEntity
  8
AM_5
100
AcDbDimension
  2
*D15
 10
330.3853428535062
 20
11.31014552062652
 30
0.0
 11
328.7853428535062
 21
6.31014552062657
 31
0.0
 70
    32
  3
AM_ISO
100
AcDbAlignedDimension
 13
319.6568258907565
 23
1.31014552062652
 33
0.0
 14
324.8449561342669
 24
11.31014552062652
 34
0.0
 50
90.0
100
AcDbRotatedDimension
  0
DIMENSION
  5
4A68
330
1E
100
AcDbEntity
  8
AM_5
100
AcDbDimension
  2
*D16
 10
330.3853428535062
 20
21.31014552062651
 30
0.0
 11
328.7853428535062
 21
16.31014552062657
 31
0.0
 70
    32
  3
AM_ISO
100
AcDbAlignedDimension
 13
324.8449561342669
 23
11.31014552062652
 33
0.0
 14
319.6568258907565
 24
21.31014552062652
 34
0.0
 50
90.0
100
AcDbRotatedDimension
  0
LINE
  5
4AF7
330
1E
100
AcDbEntity
  8
CENTER
  6
CENTER
100
AcDbLine
 10
316.1586258907565
 20
-2.189854479373479
 30
0.0
 11
316.1586258907565
 21
4.81014552062652
 31
0.0
  0
LINE
  5
4AF8
330
1E
100
AcDbEntity
  8
CENTER
  6
CENTER
100
AcDbLine
 10
319.6586258907565
 20
1.31014552062652
 30
0.0
 11
312.6586258907565
 21
1.31014552062652
 31
0.0
  0
CIRCLE
  5
4AF9
330
1E
100
AcDbEntity
  8
0
100
AcDbCircle
 10
316.1586258907565
 20
1.31014552062652
 30
0.0
 40
2.5
  0
ARC
  5
4AFA
330
1E
100
AcDbEntity
  8
0
 62
     3
100
AcDbCircle
 10
316.1586258907565
 20
1.31014552062652
 30
0.0
 40
3.0
100
AcDbArc
 50
350.0
 51
260.0
  0
CIRCLE
  5
4AFB
330
1E
100
AcDbEntity
  8
0
100
AcDbCircle
 10
280.1586258907565
 20
21.31014552062652
 30
0.0
 40
2.5
  0
ARC
  5
4AFC
330
1E
100
AcDbEntity
  8
0
 62
     3
100
AcDbCircle
 10
280.1586258907565
 20
21.31014552062652
 30
0.0
 40
3.0
100
AcDbArc
 50
169.9999999999999
 51
80.00000000000003
  0
LINE
  5
4AFD
330
1E
100
AcDbEntity
  8
CENTER
  6
CENTER
100
AcDbLine
 10
280.1586258907565
 20
24.81014552062652
 30
0.0
 11
280.1586258907565
 21
17.81014552062652
 31
0.0
  0
LINE
  5
4AFE
330
1E
100
AcDbEntity
  8
CENTER
  6
CENTER
100
AcDbLine
 10
276.6586258907565
 20
21.31014552062652
 30
0.0
 11
283.6586258907565
 21
21.31014552062652
 31
0.0
  0
LINE
  5
4AFF
330
1E
100
AcDbEntity
  8
CENTER
  6
CENTER
100
AcDbLine
 10
319.6586258907565
 20
21.31014552062652
 30
0.0
 11
312.6586258907565
 21
21.31014552062652
 31
0.0
  0
LINE
  5
4B00
330
1E
100
AcDbEntity
  8
CENTER
  6
CENTER
100
AcDbLine
 10
312.6568258907565
 20
21.31014552062652
 30
0.0
 11
319.6568258907565
 21
21.31014552062652
 31
0.0
  0
LINE
  5
4B01
330
1E
100
AcDbEntity
  8
CENTER
  6
CENTER
100
AcDbLine
 10
316.1586258907565
 20
24.81014552062652
 30
0.0
 11
316.1586258907565
 21
17.81014552062652
 31
0.0
  0
ARC
  5
4B02
330
1E
100
AcDbEntity
  8
0
 62
     3
100
AcDbCircle
 10
316.1586258907565
 20
21.31014552062652
 30
0.0
 40
3.0
100
AcDbArc
 50
280.0
 51
190.0
  0
CIRCLE
  5
4B03
330
1E
100
AcDbEntity
  8
0
100
AcDbCircle
 10
316.1586258907565
 20
21.31014552062652
 30
0.0
 40
2.5
  0
INSERT
  5
4B29
330
1E
100
AcDbEntity
  8
AM_5
100
AcDbBlockReference
  2
*S17
 10
0.0
 20
0.0
 30
0.0
  0
TEXT
  5
4B2A
330
1E
100
AcDbEntity
  8
AM_5
100
AcDbText
 10
325.7142182836456
 20
32.44172884141835
 30
0.0
 40
2.0
  1
4-M6x1.0
100
AcDbText
  0
POINT
  5
4D91
330
1E
100
AcDbEntity
  8
0
 60
     1
100
AcDbPoint
 10
0.0
 20
0.0
 30
0.0
1001
GENIUS_GENOLIS_13
1002
{
1000
ENT
1005
4822
1005
4802
1002
}
1001
GENIUS_GENOENT_13
1002
{
1000
MYREF
1005
4D91
1002
}
1002
{
1000
GRP
1005
0
1002
}
1001
GENIUS_GENOBJ-NBEHI-BHB_13
1002
{
1000
OWNER
1000
genbehi
1002
}
1001
GENIUS_GENODEF_13
1002
{
1000
HIER
1070
     1
1002
}
1002
{
1000
MANEDIT
1070
     0
1002
}
1002
{
1000
NOSEL
1070
     1
1002
}
1002
{
1000
BEHIND
1070
     0
1002
}
1002
{
1000
OTHER
1070
     1
1002
}
1002
{
1000
REACTOR
1002
}
1001
GENIUS_GENBH_13
1002
{
1000
FGO
1005
4D8D
1002
}
  0
LINE
  5
4D93
330
1E
100
AcDbEntity
  8
DASHED
  6
HIDDEN
100
AcDbLine
 10
254.1667814982417
 20
24.31014552062652
 30
0.0
 11
246.1667814982416
 21
24.31014552062652
 31
0.0
1001
GENIUS_GENOREF_13
1005
4D8D
  0
LINE
  5
4D94
330
1E
100
AcDbEntity
  8
DASHED
  6
HIDDEN
100
AcDbLine
 10
254.1667814982417
 20
18.31014552062652
 30
0.0
 11
246.1667814982416
 21
18.31014552062652
 31
0.0
1001
GENIUS_GENOREF_13
1005
4D8D
  0
LINE
  5
4D95
330
1E
100
AcDbEntity
  8
DASHED
  6
HIDDEN
100
AcDbLine
 10
254.1667814982417
 20
18.85141139799175
 30
0.0
 11
246.1667814982416
 21
18.85141139799175
 31
0.0
1001
GENIUS_GENOREF_13
1005
4D8D
  0
LINE
  5
4D96
330
1E
100
AcDbEntity
  8
DASHED
  6
HIDDEN
100
AcDbLine
 10
254.1667814982417
 20
23.76887964326129
 30
0.0
 11
246.1667814982416
 21
23.76887964326129
 31
0.0
1001
GENIUS_GENOREF_13
1005
4D8D
  0
LINE
  5
4D97
330
1E
100
AcDbEntity
  8
CENTER
  6
CENTER
100
AcDbLine
 10
255.1546255488437
 20
21.31014552062652
 30
0.0
 11
245.3772052306046
 21
21.31014552062652
 31
0.0
1001
GENIUS_GENOREF_13
1005
4D8D
  0
LINE
  5
4D98
330
1E
100
AcDbEntity
  8
DASHED
  6
HIDDEN
100
AcDbLine
 10
254.1667814982417
 20
3.768879643261289
 30
0.0
 11
246.1667814982416
 21
3.768879643261289
 31
0.0
  0
LINE
  5
4D99
330
1E
100
AcDbEntity
  8
DASHED
  6
HIDDEN
100
AcDbLine
 10
254.1667814982417
 20
4.31014552062652
 30
0.0
 11
246.1667814982416
 21
4.31014552062652
 31
0.0
  0
LINE
  5
4D9A
330
1E
100
AcDbEntity
  8
CENTER
  6
CENTER
100
AcDbLine
 10
255.1546255488437
 20
1.31014552062652
 30
0.0
 11
245.3772052306046
 21
1.31014552062652
 31
0.0
  0
LINE
  5
4D9B
330
1E
100
AcDbEntity
  8
DASHED
  6
HIDDEN
100
AcDbLine
 10
254.1667814982417
 20
-1.148588602008249
 30
0.0
 11
246.1667814982416
 21
-1.148588602008249
 31
0.0
  0
LINE
  5
4D9C
330
1E
100
AcDbEntity
  8
DASHED
  6
HIDDEN
100
AcDbLine
 10
254.1667814982417
 20
-1.689854479373479
 30
0.0
 11
246.1667814982416
 21
-1.689854479373479
 31
0.0
  0
INSERT
  5
4DB9
330
1E
100
AcDbEntity
  8
AM_5
100
AcDbBlockReference
  2
*S18
 10
0.0
 20
0.0
 30
0.0
  0
TEXT
  5
4DBA
330
1E
100
AcDbEntity
  8
AM_5
100
AcDbText
 10
224.2058458554031
 20
34.50432188695981
 30
0.0
 40
2.0
  1
2-M5x0.8
100
AcDbText
  0
LINE
  5
4DD1
330
1E
100
AcDbEntity
  8
0
  6
CONTINUOUS
100
AcDbLine
 10
273.1586258907565
 20
24.31014552062652
 30
0.0
 11
276.1586258907565
 21
27.31014552062652
 31
0.0
  0
LINE
  5
4DD2
330
1E
100
AcDbEntity
  8
0
  6
CONTINUOUS
100
AcDbLine
 10
273.1586258907565
 20
-1.689854479373479
 30
0.0
 11
276.1586258907565
 21
-4.689854479373479
 31
0.0
  0
LINE
  5
4DD3
330
1E
100
AcDbEntity
  8
0
  6
CONTINUOUS
100
AcDbLine
 10
320.1586258907565
 20
-4.689854479373479
 30
0.0
 11
323.1586258907565
 21
-1.689854479373479
 31
0.0
  0
LINE
  5
4DD4
330
1E
100
AcDbEntity
  8
0
  6
CONTINUOUS
100
AcDbLine
 10
323.1586258907565
 20
24.31014552062652
 30
0.0
 11
320.1586258907565
 21
27.31014552062652
 31
0.0
  0
ENDSEC
  0
SECTION
  2
OBJECTS
  0
DICTIONARY
  5
C
330
0
100
AcDbDictionary
  3
ACAD_GROUP
350
D
  3
ACAD_IMAGE_DICT
350
3CB
  3
ACAD_LAYOUT
350
19
  3
ACAD_MLINESTYLE
350
16
  3
ACAD_PLOTSETTINGS
350
18
  3
ACMDICTIONARY
350
7C2
  3
AMG
350
7A8
  3
AMGSNAPSETTINGS
350
895
  3
DWGPROPS
350
4E0C
1001
ACAD
1000
TREAT_AS_HARD
1070
     0
1000
TREAT_AS_HARD
1070
     0
  0
DICTIONARY
  5
708
330
1E
100
AcDbDictionary
  3
ACAD_INDEX
350
ADF
  3
ACAD_LAYOUTSELFREF
350
4EB8
1001
ACAD
1000
TREAT_AS_HARD
1070
     1
1000
TREAT_AS_HARD
1070
     1
  0
DICTIONARY
  5
70A
330
1A
100
AcDbDictionary
  3
ACAD_LAYOUTSELFREF
350
4EB7
1001
ACAD
1000
TREAT_AS_HARD
1070
     1
1000
TREAT_AS_HARD
1070
     1
  0
DICTIONARY
  5
D
102
{ACAD_REACTORS
330
C
102
}
330
C
100
AcDbDictionary
1001
ACAD
1000
TREAT_AS_HARD
1070
     0
1000
TREAT_AS_HARD
1070
     0
  0
DICTIONARY
  5
3CB
102
{ACAD_REACTORS
330
C
102
}
330
C
100
AcDbDictionary
  3
PLOT
350
3CC
1001
ACAD
1000
TREAT_AS_HARD
1070
     0
1000
TREAT_AS_HARD
1070
     0
  0
DICTIONARY
  5
19
102
{ACAD_REACTORS
330
C
102
}
330
C
100
AcDbDictionary
1001
ACAD
1000
TREAT_AS_HARD
1070
     0
1000
TREAT_AS_HARD
1070
     0
  0
DICTIONARY
  5
16
102
{ACAD_REACTORS
330
C
102
}
330
C
100
AcDbDictionary
  3
STANDARD
350
17
1001
ACAD
1000
TREAT_AS_HARD
1070
     0
1000
TREAT_AS_HARD
1070
     0
  0
DICTIONARY
  5
18
102
{ACAD_REACTORS
330
C
102
}
330
C
100
AcDbDictionary
1001
ACAD
1000
TREAT_AS_HARD
1070
     0
1000
TREAT_AS_HARD
1070
     0
  0
DICTIONARY
  5
7C2
102
{ACAD_REACTORS
330
C
102
}
330
C
100
AcDbDictionary
  3
ACMSTDDICTIONARY
350
7C8
1001
ACAD
1000
TREAT_AS_HARD
1070
     0
1000
TREAT_AS_HARD
1070
     0
  0
DICTIONARY
  5
7A8
102
{ACAD_REACTORS
330
C
102
}
330
C
100
AcDbDictionary
  3
ACMGSETTINGS
350
7A9
1001
ACAD
1000
TREAT_AS_HARD
1070
     0
1000
TREAT_AS_HARD
1070
     0
  0
DICTIONARY
  5
895
102
{ACAD_REACTORS
330
C
102
}
330
C
100
AcDbDictionary
1001
ACAD
1000
TREAT_AS_HARD
1070
     0
1000
TREAT_AS_HARD
1070
     0
  0
XRECORD
  5
4E0C
102
{ACAD_REACTORS
330
C
102
}
330
C
100
AcDbXrecord
  1
DWGPROPS COOKIE
  2

  3

  4

  6

  7

  8

  9

300
AmdtFileType=84
301
=
302
=
303
=
304
=
305
=
306
=
307
=
308
=
309
=
 40
0.4058690046296296
 41
2450294.602131481
 42
2453118.501602199
  1

 90
        1
  0
DICTIONARY
  5
ADF
102
{ACAD_REACTORS
330
708
102
}
330
708
100
AcDbDictionary
  3
*A1
350
AE0
1001
ACAD
1000
TREAT_AS_HARD
1070
     0
1000
TREAT_AS_HARD
1070
     0
  0
XRECORD
  5
4EB8
102
{ACAD_REACTORS
330
708
102
}
330
708
100
AcDbXrecord
340
1E
  0
XRECORD
  5
4EB7
102
{ACAD_REACTORS
330
70A
102
}
330
70A
100
AcDbXrecord
340
1A
  0
IMAGEDEF
  5
3CC
102
{ACAD_REACTORS
330
3CB
102
}
330
3CB
100
AcDbRasterImageDef
 90
        0
  1
D:\CHI\plot.bmp
 10
694.0
 20
470.0
 11
0.264550269889837
 21
0.264550269889837
280
     1
281
     2
  0
MLINESTYLE
  5
17
102
{ACAD_REACTORS
330
16
102
}
330
16
100
AcDbMlineStyle
  2
STANDARD
 70
     0
  3

 62
   256
 51
90.0
 52
90.0
 71
     2
 49
0.5
 62
   256
  6
BYLAYER
 49
-0.5
 62
   256
  6
BYLAYER
  0
DICTIONARY
  5
7C8
102
{ACAD_REACTORS
330
7C2
102
}
330
7C2
100
AcDbDictionary
1001
ACAD
1000
TREAT_AS_HARD
1070
     0
1000
TREAT_AS_HARD
1070
     0
  0
DICTIONARY
  5
7A9
102
{ACAD_REACTORS
330
7A8
102
}
330
7A8
100
AcDbDictionary
  3
DWGSETTINGS
350
2DD6
1001
ACAD
1000
TREAT_AS_HARD
1070
     0
1000
TREAT_AS_HARD
1070
     0
  0
LAYER_INDEX
  5
AE0
102
{ACAD_REACTORS
330
ADF
102
}
330
ADF
100
AcDbIndex
 40
2453119.491357164
100
AcDbLayerIndex
  8
0
360
AE1
 90
       59
  8
DEFPOINTS
360
AE2
 90
        0
  8
ASHADE
360
AE3
 90
        9
  8
LOGO
360
AE4
 90
      112
  8
AM_5
360
AE5
 90
       17
  8
CENTER
360
AE6
 90
       23
  8
DASHED
360
119F
 90
       55
  0
XRECORD
  5
2DD6
102
{ACAD_REACTORS
330
7A9
102
}
330
7A9
100
AcDbXrecord
  1
VERSION
140
15.0
  1
PRODUCT
  2
AutoCAD Mechanical 2000
  0
IDBUFFER
  5
AE1
330
0
100
AcDbIdBuffer
330
2F5E
330
2F5F
330
2F61
330
2F62
330
2F63
330
2FDF
330
479F
330
47A0
330
47B2
330
47B3
330
47B4
330
47B5
330
47B6
330
47B7
330
47B9
330
47BB
330
47BE
330
47D0
330
47E3
330
47F7
330
47F8
330
4800
330
4801
330
4802
330
4803
330
4804
330
4805
330
4808
330
4821
330
4822
330
4823
330
4824
330
4825
330
4826
330
4827
330
4828
330
4829
330
482A
330
482F
330
4835
330
483D
330
483E
330
4840
330
4848
330
4853
330
485B
330
485C
330
486A
330
4AF9
330
4AFA
330
4AFB
330
4AFC
330
4B02
330
4B03
330
4D91
330
4DD1
330
4DD2
330
4DD3
330
4DD4
  0
IDBUFFER
  5
AE2
330
0
100
AcDbIdBuffer
  0
IDBUFFER
  5
AE3
330
0
100
AcDbIdBuffer
330
51A
330
51B
330
51C
330
51D
330
51E
330
51F
330
520
330
521
330
528
  0
IDBUFFER
  5
AE4
330
0
100
AcDbIdBuffer
330
2F4E
330
2F4F
330
2F50
330
2F51
330
2F64
330
2F65
330
2F66
330
2F67
330
2F68
330
2F69
330
2F6A
330
2F6B
330
2F6C
330
2F6D
330
2F6E
330
2F6F
330
2F70
330
2F71
330
2F72
330
2F76
330
2F7A
330
2F7B
330
2F7F
330
2F80
330
2F81
330
2F82
330
2F83
330
2F84
330
2F85
330
2F86
330
2F87
330
2F8B
330
2F8F
330
2F93
330
2F94
330
2F95
330
2F99
330
2F9A
330
2F9B
330
2F9C
330
2F9D
330
2F9E
330
2F9F
330
2FA0
330
2FA1
330
2FA2
330
2FA3
330
2FA4
330
2FA5
330
2FA6
330
2FA7
330
2FA8
330
2FA9
330
2FAA
330
2FAB
330
2FAC
330
2FAD
330
2FE0
330
2FE1
330
2FE2
330
2FE3
330
2FE4
330
2FE5
330
2FE6
330
2FE7
330
2FE8
330
2FE9
330
2FEA
330
2FEB
330
2FEC
330
2FED
330
2FEE
330
2FEF
330
2FF0
330
2FF1
330
2FF2
330
2FF3
330
2FF4
330
2FF5
330
2FF6
330
2FF7
330
2FF8
330
2FF9
330
2FFA
330
2FFB
330
2FFC
330
2FFD
330
2FFE
330
2FFF
330
3000
330
3001
330
3002
330
3003
330
3004
330
3005
330
3006
330
3007
330
3008
330
3009
330
300A
330
300B
330
3075
330
3076
330
3077
330
3078
330
3079
330
307A
330
307B
330
307C
330
307D
330
307E
330
307F
  0
IDBUFFER
  5
AE5
330
0
100
AcDbIdBuffer
330
4882
330
48A6
330
48CA
330
48F2
330
4926
330
496C
330
4990
330
49B4
330
49D8
330
49FC
330
4A20
330
4A44
330
4A68
330
4B29
330
4B2A
330
4DB9
330
4DBA
  0
IDBUFFER
  5
AE6
330
0
100
AcDbIdBuffer
330
47B8
330
47BA
330
47BC
330
47BD
330
47E2
330
47F9
330
47FD
330
47FE
330
47FF
330
4820
330
483F
330
4851
330
4852
330
4864
330
4AF7
330
4AF8
330
4AFD
330
4AFE
330
4AFF
330
4B00
330
4B01
330
4D97
330
4D9A
  0
IDBUFFER
  5
119F
330
0
100
AcDbIdBuffer
330
47F5
330
47F6
330
47FA
330
47FC
330
480A
330
480B
330
480C
330
480D
330
480E
330
480F
330
4810
330
4811
330
4812
330
4813
330
4814
330
4815
330
4816
330
4817
330
4818
330
4819
330
481A
330
481C
330
481F
330
482B
330
482C
330
482D
330
482E
330
4834
330
4849
330
484A
330
484B
330
484C
330
484D
330
484E
330
484F
330
4850
330
485D
330
485E
330
485F
330
4860
330
4861
330
4862
330
4863
330
4867
330
4868
330
4869
330
486C
330
4D93
330
4D94
330
4D95
330
4D96
330
4D98
330
4D99
330
4D9B
330
4D9C
  0
ENDSEC
  0
EOF
