  0
SECTION
  2
HEADER
  9
$ACADVER
  1
AC1012
  9
$DWGCODEPAGE
  3
big5
  9
$INSBASE
 10
0.0
 20
0.0
 30
0.0
  9
$EXTMIN
 10
200.2594012076881
 20
-46.03330921184116
 30
0.0
  9
$EXTMAX
 10
344.2594012076883
 20
72.38510954831633
 30
128.111168875904
  9
$LIMMIN
 10
0.0
 20
0.0
  9
$LIMMAX
 10
396.0
 20
273.0
  9
$ORTHOMODE
 70
     1
  9
$REGENMODE
 70
     1
  9
$FILLMODE
 70
     1
  9
$QTEXTMODE
 70
     0
  9
$MIRRTEXT
 70
     1
  9
$DRAGMODE
 70
     2
  9
$LTSCALE
 40
5.0
  9
$OSMODE
 70
    55
  9
$ATTMODE
 70
     1
  9
$TEXTSIZE
 40
3.0
  9
$TRACEWID
 40
0.05
  9
$TEXTSTYLE
  7
DAYUS
  9
$CLAYER
  8
0
  9
$CELTYPE
  6
BYLAYER
  9
$CECOLOR
 62
   256
  9
$CELTSCALE
 40
1.0
  9
$DELOBJ
 70
     1
  9
$DISPSILH
 70
     0
  9
$DIMSCALE
 40
1.0
  9
$DIMASZ
 40
2.0
  9
$DIMEXO
 40
1.0
  9
$DIMDLI
 40
5.0
  9
$DIMRND
 40
0.0
  9
$DIMDLE
 40
0.0
  9
$DIMEXE
 40
1.5
  9
$DIMTP
 40
0.1
  9
$DIMTM
 40
0.1
  9
$DIMTXT
 40
2.0
  9
$DIMCEN
 40
3.0
  9
$DIMTSZ
 40
0.0
  9
$DIMTOL
 70
     0
  9
$DIMLIM
 70
     0
  9
$DIMTIH
 70
     0
  9
$DIMTOH
 70
     0
  9
$DIMSE1
 70
     0
  9
$DIMSE2
 70
     0
  9
$DIMTAD
 70
     1
  9
$DIMZIN
 70
     8
  9
$DIMBLK
  1

  9
$DIMASO
 70
     1
  9
$DIMSHO
 70
     0
  9
$DIMPOST
  1

  9
$DIMAPOST
  1
"
  9
$DIMALT
 70
     0
  9
$DIMALTD
 70
     2
  9
$DIMALTF
 40
0.0393701
  9
$DIMLFAC
 40
1.0
  9
$DIMTOFL
 70
     1
  9
$DIMTVP
 40
0.0
  9
$DIMTIX
 70
     0
  9
$DIMSOXD
 70
     0
  9
$DIMSAH
 70
     0
  9
$DIMBLK1
  1

  9
$DIMBLK2
  1

  9
$DIMSTYLE
  2
AM_ISO
  9
$DIMCLRD
 70
   256
  9
$DIMCLRE
 70
   256
  9
$DIMCLRT
 70
   256
  9
$DIMTFAC
 40
0.71
  9
$DIMGAP
 40
0.6
  9
$DIMJUST
 70
     0
  9
$DIMSD1
 70
     0
  9
$DIMSD2
 70
     0
  9
$DIMTOLJ
 70
     0
  9
$DIMTZIN
 70
     8
  9
$DIMALTZ
 70
     0
  9
$DIMALTTZ
 70
     0
  9
$DIMFIT
 70
     3
  9
$DIMUPT
 70
     0
  9
$DIMUNIT
 70
     2
  9
$DIMDEC
 70
     2
  9
$DIMTDEC
 70
     2
  9
$DIMALTU
 70
     2
  9
$DIMALTTD
 70
     2
  9
$DIMTXSTY
  7
STANDARD
  9
$DIMAUNIT
 70
     0
  9
$LUNITS
 70
     2
  9
$LUPREC
 70
     2
  9
$SKETCHINC
 40
0.1
  9
$FILLETRAD
 40
2.5
  9
$AUNITS
 70
     0
  9
$AUPREC
 70
     0
  9
$MENU
  1
C:\CACAD\ACAD
  9
$ELEVATION
 40
0.0
  9
$PELEVATION
 40
0.0
  9
$THICKNESS
 40
0.0
  9
$LIMCHECK
 70
     0
  9
$BLIPMODE
 70
     0
  9
$CHAMFERA
 40
4.0
  9
$CHAMFERB
 40
4.0
  9
$CHAMFERC
 40
0.0
  9
$CHAMFERD
 40
0.0
  9
$SKPOLY
 70
     0
  9
$TDCREATE
 40
2450294.602131481
  9
$TDUPDATE
 40
2453119.492204097
  9
$TDINDWG
 40
0.4235293519
  9
$TDUSRTIMER
 40
0.4235260995
  9
$USRTIMER
 70
     1
  9
$ANGBASE
 50
0.0
  9
$ANGDIR
 70
     0
  9
$PDMODE
 70
    65
  9
$PDSIZE
 40
8.3
  9
$PLINEWID
 40
0.0
  9
$COORDS
 70
     1
  9
$SPLFRAME
 70
     0
  9
$SPLINETYPE
 70
     6
  9
$SPLINESEGS
 70
     8
  9
$ATTDIA
 70
     1
  9
$ATTREQ
 70
     1
  9
$HANDLING
 70
 22529
  9
$HANDSEED
  5
54AA
  9
$SURFTAB1
 70
     6
  9
$SURFTAB2
 70
     6
  9
$SURFTYPE
 70
     6
  9
$SURFU
 70
     6
  9
$SURFV
 70
     6
  9
$UCSNAME
  2

  9
$UCSORG
 10
0.0
 20
0.0
 30
0.0
  9
$UCSXDIR
 10
1.0
 20
0.0
 30
0.0
  9
$UCSYDIR
 10
0.0
 20
1.0
 30
0.0
  9
$PUCSNAME
  2

  9
$PUCSORG
 10
0.0
 20
0.0
 30
0.0
  9
$PUCSXDIR
 10
1.0
 20
0.0
 30
0.0
  9
$PUCSYDIR
 10
0.0
 20
1.0
 30
0.0
  9
$USERI1
 70
     0
  9
$USERI2
 70
     0
  9
$USERI3
 70
     0
  9
$USERI4
 70
     0
  9
$USERI5
 70
     0
  9
$USERR1
 40
0.0
  9
$USERR2
 40
0.0
  9
$USERR3
 40
0.0
  9
$USERR4
 40
0.0
  9
$USERR5
 40
0.0
  9
$WORLDVIEW
 70
     1
  9
$SHADEDGE
 70
     3
  9
$SHADEDIF
 70
    70
  9
$TILEMODE
 70
     1
  9
$MAXACTVP
 70
    16
  9
$PINSBASE
 10
101.9887994410415
 20
50.0
 30
155.412184630939
  9
$PLIMCHECK
 70
     0
  9
$PEXTMIN
 10
1.000000000000000E+20
 20
1.000000000000000E+20
 30
1.000000000000000E+20
  9
$PEXTMAX
 10
-1.000000000000000E+20
 20
-1.000000000000000E+20
 30
-1.000000000000000E+20
  9
$PLIMMIN
 10
0.0
 20
0.0
  9
$PLIMMAX
 10
12.0
 20
9.0
  9
$UNITMODE
 70
     0
  9
$VISRETAIN
 70
     0
  9
$PLINEGEN
 70
     0
  9
$PSLTSCALE
 70
     0
  9
$TREEDEPTH
 70
  3020
  9
$PICKSTYLE
 70
     1
  9
$CMLSTYLE
  2
STANDARD
  9
$CMLJUST
 70
     0
  9
$CMLSCALE
 40
1.0
  9
$SAVEIMAGES
 70
     1
  0
ENDSEC
  0
SECTION
  2
CLASSES
  0
CLASS
  1
ACDBDICTIONARYWDFLT
  2
AcDbDictionaryWithDefault
  3
AutoCAD 2000
 90
    32768
280
     0
281
     0
  0
CLASS
  1
ACDBPLACEHOLDER
  2
AcDbPlaceHolder
  3
AutoCAD 2000
 90
    32768
280
     0
281
     0
  0
CLASS
  1
LAYOUT
  2
AcDbLayout
  3
AutoCAD 2000
 90
    32768
280
     0
281
     0
  0
CLASS
  1
IMAGEDEF
  2
AcDbRasterImageDef
  3
ISM
 90
    32768
280
     0
281
     0
  0
CLASS
  1
LONG_TRANSACTION
  2
AcDbLongTransaction
  3
AutoCAD 2000
 90
    32768
280
     0
281
     0
  0
CLASS
  1
LWPOLYLINE
  2
AcDbPolyline
  3
AutoCAD 2000
 90
    32768
280
     0
281
     1
  0
CLASS
  1
HATCH
  2
AcDbHatch
  3
AutoCAD 2000
 90
    32768
280
     0
281
     1
  0
CLASS
  1
XRECORD
  2
AcDbXrecord
  3
AutoCAD 2000
 90
    32768
280
     0
281
     0
  0
CLASS
  1
ACME_DOCUMENT
  2
AcMeDbDoc
  3
AcMeServices
 90
    32768
280
     0
281
     0
  0
CLASS
  1
AMGSETTINGSOBJ
  2
AmgSettingsObj
  3
"AcadM|Product Description: AutoCAD Mechanical 2000|Company: Autodesk"
 90
    32768
280
     0
281
     0
  0
CLASS
  1
ACMESCOPE
  2
AcMeScope
  3
AcMeServices
 90
    32768
280
     0
281
     0
  0
CLASS
  1
ACMECOMMANDHISTORY
  2
AcMeCommandHistory
  3
AcMeServices
 90
    32768
280
     0
281
     0
  0
CLASS
  1
ACIMSYSVARMAN
  2
AcImSysVarManager
  3
AcMeServices
 90
    32768
280
     0
281
     0
  0
CLASS
  1
ACIMREALSYSVAR
  2
AcImRealSysVar
  3
AcMeServices
 90
    32768
280
     0
281
     0
  0
CLASS
  1
ACIMINTSYSVAR
  2
AcImIntSysVar
  3
AcMeServices
 90
    32768
280
     0
281
     0
  0
CLASS
  1
ACMEDRAWINGMAN
  2
AcMeDrawingMan
  3
AcMeServices
 90
    32768
280
     0
281
     0
  0
CLASS
  1
ACMEVIEW
  2
AcMeView
  3
AcMeServices
 90
    32768
280
     0
281
     0
  0
CLASS
  1
ACDBENTITYCACHE
  2
AcMeEntityCache
  3
AcMeServices
 90
    32768
280
     0
281
     0
  0
CLASS
  1
GSMANAGER
  2
AcMeGSManager
  3
AcMeServices
 90
    32768
280
     0
281
     0
  0
CLASS
  1
AMDTINTERNALREACTOR
  2
AmdtInternalReactor
  3
AcMeServices
 90
    32768
280
     0
281
     0
  0
CLASS
  1
ACMESTATEMGR
  2
AcMeStateMgr
  3
AcMeServices
 90
    32768
280
     0
281
     0
  0
CLASS
  1
ACGREFMASTER
  2
AcGrefMaster
  3
AcAttribServices
 90
    32768
280
     0
281
     0
  0
CLASS
  1
ACME_DATABASE
  2
AcMeDbDatabase
  3
AcMeServices
 90
    32768
280
     0
281
     0
  0
CLASS
  1
ACRFINSADJUSTERMGR
  2
AcRfInsAdjusterMgr
  3
AcMeServices
 90
    32768
280
     0
281
     0
  0
CLASS
  1
ACGREFACADMASTER
  2
AcGrefacadMaster
  3
AcGrefServices
 90
    32768
280
     0
281
     0
  0
CLASS
  1
AMIMASTER
  2
AmiMaster
  3
AmiServices
 90
    32768
280
     0
281
     0
  0
CLASS
  1
ACMDATADICTIONARY
  2
AcmDataDictionary
  3
"AcmSymBB|Product Description: AutoCAD Mechanical 2000|Company: Autodesk"
 90
    32768
280
     0
281
     0
  0
CLASS
  1
ACMDATAENTRYBLOCK
  2
AcmDataEntryBlock
  3
"AcmSymBB|Product Description: AutoCAD Mechanical 2000|Company: Autodesk"
 90
    32768
280
     0
281
     0
  0
CLASS
  1
ACIMSTRSYSVAR
  2
AcImStrSysVar
  3
AcMeServices
 90
    32768
280
     0
281
     0
  0
CLASS
  1
ACMSTANDARDANSI
  2
AcmStandardANSI
  3
"Amdt_StdImp|Product Description: AutoCAD Mechanical 2000|Company: Autodesk"
 90
    32768
280
     0
281
     0
  0
CLASS
  1
AMGOBJPROPCFG
  2
AmgObjPropCfg
  3
"AmgLay|Product Description: AutoCAD Mechanical 2000|Company: Autodesk"
 90
    32769
280
     0
281
     0
  0
CLASS
  1
ACMSURFSTANDARDANSI
  2
AcmSurfTextStdANSI
  3
"Amdt_StdImp|Product Description: AutoCAD Mechanical 2000|Company: Autodesk"
 90
    32768
280
     0
281
     0
  0
CLASS
  1
ACMFCFSTANDARDANSI
  2
AcmFCFStdANSI
  3
"Amdt_StdImp|Product Description: AutoCAD Mechanical 2000|Company: Autodesk"
 90
    32768
280
     0
281
     0
  0
CLASS
  1
ACMWELDSTANDARDANSI
  2
AcmWeldingStdANSI
  3
"Amdt_StdImp|Product Description: AutoCAD Mechanical 2000|Company: Autodesk"
 90
    32768
280
     0
281
     0
  0
CLASS
  1
ACMIDSTANDARDANSI
  2
AcmIdStdANSI
  3
"Amdt_StdImp|Product Description: AutoCAD Mechanical 2000|Company: Autodesk"
 90
    32768
280
     0
281
     0
  0
CLASS
  1
ACMDATUMSTANDARDANSI
  2
AcmDatumStdANSI
  3
"Amdt_StdImp|Product Description: AutoCAD Mechanical 2000|Company: Autodesk"
 90
    32768
280
     0
281
     0
  0
CLASS
  1
ACMBOMSTANDARDANSI
  2
AcmBOMStdANSI
  3
"Amdt_StdImp|Product Description: AutoCAD Mechanical 2000|Company: Autodesk"
 90
    32768
280
     0
281
     0
  0
CLASS
  1
ACMDETAILSTANDARDANSI
  2
AmdtDetailSymStdANSI
  3
"Amdt_StdImp|Product Description: AutoCAD Mechanical 2000|Company: Autodesk"
 90
    32768
280
     0
281
     0
  0
CLASS
  1
ACMSECTIONSTANDARDANSI
  2
AmdtSectionSymStdANSI
  3
"Amdt_StdImp|Product Description: AutoCAD Mechanical 2000|Company: Autodesk"
 90
    32768
280
     0
281
     0
  0
CLASS
  1
ACMCENTERLINESTANDARDANSI
  2
AmdtCenterLineStdANSI
  3
"Amdt_StdImp|Product Description: AutoCAD Mechanical 2000|Company: Autodesk"
 90
    32768
280
     0
281
     0
  0
CLASS
  1
ACMNOTESTANDARDANSI
  2
AmdtNoteStdANSI
  3
"Amdt_StdImp|Product Description: AutoCAD Mechanical 2000|Company: Autodesk"
 90
    32768
280
     0
281
     0
  0
CLASS
  1
ACAMGLAYSTD
  2
AcAmgLayStd
  3
"AcAmgLayStd|Product Description: AutoCAD Mechanical 2000|Company: Autodesk"
 90
    32768
280
     0
281
     0
  0
CLASS
  1
ACAMGDIMSTD
  2
AcAmgDimStd
  3
"AcAmgDimStd|Product Description: AutoCAD Mechanical 2000|Company: Autodesk"
 90
    32768
280
     0
281
     0
  0
CLASS
  1
ACAMGHOLECHARTSTDANSI
  2
AcAmgHoleChartStdANSI
  3
ACMSYMBB_MODULE_NAME
 90
    32768
280
     0
281
     0
  0
CLASS
  1
ACAMGTITLESTD
  2
AcAmgTitleStd
  3
"TITLEAPP"
 90
    32768
280
     0
281
     0
  0
CLASS
  1
ACAMGFILTERDAT
  2
AcAmgFilterDat
  3
"AcadM|Product Description: AutoCAD Mechanical 2000|Company: Autodesk"
 90
    32768
280
     0
281
     0
  0
CLASS
  1
AMDTFORMULAUPDATEDISPATCHER
  2
AmdtFormulaUpdateDispatcher
  3
AcMeServices
 90
    32768
280
     0
281
     0
  0
CLASS
  1
LAYER_INDEX
  2
AcDbLayerIndex
  3
AutoCAD 2000
 90
    32768
280
     0
281
     0
  0
CLASS
  1
IDBUFFER
  2
AcDbIdBuffer
  3
AutoCAD 2000
 90
    32768
280
     0
281
     0
  0
CLASS
  1
DICTIONARYVAR
  2
AcDbDictionaryVar
  3
AutoCAD 2000
 90
    32768
280
     0
281
     0
  0
CLASS
  1
LONG_TRANSACTION
  2
AcDbLongTransaction
  3
AutoCAD 2000
 90
    32768
280
     0
281
     0
  0
CLASS
  1
LWPOLYLINE
  2
AcDbPolyline
  3
AutoCAD 2000
 90
    32768
280
     0
281
     1
  0
CLASS
  1
HATCH
  2
AcDbHatch
  3
AutoCAD 2000
 90
    32768
280
     0
281
     1
  0
CLASS
  1
XRECORD
  2
AcDbXrecord
  3
AutoCAD 2000
 90
    32768
280
     0
281
     0
  0
CLASS
  1
LONG_TRANSACTION
  2
AcDbLongTransaction
  3
AutoCAD 2000
 90
    32768
280
     0
281
     0
  0
CLASS
  1
LWPOLYLINE
  2
AcDbPolyline
  3
AutoCAD 2000
 90
    32768
280
     0
281
     1
  0
CLASS
  1
HATCH
  2
AcDbHatch
  3
AutoCAD 2000
 90
    32768
280
     0
281
     1
  0
CLASS
  1
XRECORD
  2
AcDbXrecord
  3
AutoCAD 2000
 90
    32768
280
     0
281
     0
  0
CLASS
  1
ACMSTANDARDISO
  2
AcmStandardISO
  3
"Amdt_StdImp|Product Description: AutoCAD Mechanical 2000|Company: Autodesk"
 90
    32768
280
     0
281
     0
  0
CLASS
  1
AMDTEDGESTANDARDISO
  2
AmdtEdgeStdISO
  3
"Amdt_StdImp|Product Description: AutoCAD Mechanical 2000|Company: Autodesk"
 90
    32768
280
     0
281
     0
  0
CLASS
  1
ACMSURFSTANDARDISO
  2
AcmSurfTextStdISO
  3
"Amdt_StdImp|Product Description: AutoCAD Mechanical 2000|Company: Autodesk"
 90
    32768
280
     0
281
     0
  0
CLASS
  1
ACMFCFSTANDARDISO
  2
AcmFCFStdISO
  3
"Amdt_StdImp|Product Description: AutoCAD Mechanical 2000|Company: Autodesk"
 90
    32768
280
     0
281
     0
  0
CLASS
  1
ACMWELDSTANDARDISO
  2
AcmWeldingStdISO
  3
"Amdt_StdImp|Product Description: AutoCAD Mechanical 2000|Company: Autodesk"
 90
    32768
280
     0
281
     0
  0
CLASS
  1
ACMIDSTANDARDISO
  2
AcmIdStdISO
  3
"Amdt_StdImp|Product Description: AutoCAD Mechanical 2000|Company: Autodesk"
 90
    32768
280
     0
281
     0
  0
CLASS
  1
ACMDATUMSTANDARDISO
  2
AcmDatumStdISO
  3
"Amdt_StdImp|Product Description: AutoCAD Mechanical 2000|Company: Autodesk"
 90
    32768
280
     0
281
     0
  0
CLASS
  1
ACMBOMSTANDARDISO
  2
AcmBOMStdISO
  3
"Amdt_StdImp|Product Description: AutoCAD Mechanical 2000|Company: Autodesk"
 90
    32768
280
     0
281
     0
  0
CLASS
  1
ACMDETAILSTANDARDISO
  2
AmdtDetailSymStdISO
  3
"Amdt_StdImp|Product Description: AutoCAD Mechanical 2000|Company: Autodesk"
 90
    32768
280
     0
281
     0
  0
CLASS
  1
ACMSECTIONSTANDARDISO
  2
AmdtSectionSymStdISO
  3
"Amdt_StdImp|Product Description: AutoCAD Mechanical 2000|Company: Autodesk"
 90
    32768
280
     0
281
     0
  0
CLASS
  1
ACMCENTERLINESTANDARDISO
  2
AmdtCenterLineStdISO
  3
"Amdt_StdImp|Product Description: AutoCAD Mechanical 2000|Company: Autodesk"
 90
    32768
280
     0
281
     0
  0
CLASS
  1
ACMNOTESTANDARDISO
  2
AmdtNoteStdISO
  3
"Amdt_StdImp|Product Description: AutoCAD Mechanical 2000|Company: Autodesk"
 90
    32768
280
     0
281
     0
  0
CLASS
  1
ACAMGHOLECHARTSTDISO
  2
AcAmgHoleChartStdISO
  3
ACMSYMBB_MODULE_NAME
 90
    32768
280
     0
281
     0
  0
CLASS
  1
AMDTNOTE
  2
AmdtNote
  3
"AcmSymBB|Product Description: AutoCAD Mechanical 2000|Company: Autodesk"
 90
    33791
280
     0
281
     1
  0
CLASS
  1
LONG_TRANSACTION
  2
AcDbLongTransaction
  3
AutoCAD 2000
 90
    32768
280
     0
281
     0
  0
CLASS
  1
LWPOLYLINE
  2
AcDbPolyline
  3
AutoCAD 2000
 90
    32768
280
     0
281
     1
  0
CLASS
  1
HATCH
  2
AcDbHatch
  3
AutoCAD 2000
 90
    32768
280
     0
281
     1
  0
CLASS
  1
XRECORD
  2
AcDbXrecord
  3
AutoCAD 2000
 90
    32768
280
     0
281
     0
  0
CLASS
  1
STDPART2D
  2
AmgStdPart
  3
"AmgStdPart|Product Description: AutoCAD Mechanical 2000|Company: Autodesk"
 90
    33791
280
     0
281
     1
  0
CLASS
  1
LONG_TRANSACTION
  2
AcDbLongTransaction
  3
AutoCAD 2000
 90
    32768
280
     0
281
     0
  0
CLASS
  1
LWPOLYLINE
  2
AcDbPolyline
  3
AutoCAD 2000
 90
    32768
280
     0
281
     1
  0
CLASS
  1
HATCH
  2
AcDbHatch
  3
AutoCAD 2000
 90
    32768
280
     0
281
     1
  0
CLASS
  1
XRECORD
  2
AcDbXrecord
  3
AutoCAD 2000
 90
    32768
280
     0
281
     0
  0
ENDSEC
  0
SECTION
  2
TABLES
  0
TABLE
  2
VPORT
  5
8
330
0
100
AcDbSymbolTable
 70
     4
  0
VPORT
  5
5476
330
8
100
AcDbSymbolTableRecord
100
AcDbViewportTableRecord
  2
*ACTIVE
 70
     0
 10
0.0
 20
0.0
 11
1.0
 21
1.0
 12
272.2620859693993
 22
13.1730022032964
 13
0.0
 23
0.0
 14
2.5
 24
2.5
 15
10.0
 25
10.0
 16
0.0
 26
0.0
 36
1.0
 17
0.0
 27
0.0
 37
0.0
 40
119.7039940952081
 41
1.717081850533807
 42
50.0
 43
0.0
 44
0.0
 50
0.0
 51
0.0
 71
     0
 72
   100
 73
     1
 74
     1
 75
     0
 76
     0
 77
     0
 78
     0
  0
ENDTAB
  0
TABLE
  2
LTYPE
  5
5
330
0
100
AcDbSymbolTable
 70
    17
  0
LTYPE
  5
13
330
5
100
AcDbSymbolTableRecord
100
AcDbLinetypeTableRecord
  2
BYBLOCK
 70
     0
  3

 72
    65
 73
     0
 40
0.0
  0
LTYPE
  5
14
330
5
100
AcDbSymbolTableRecord
100
AcDbLinetypeTableRecord
  2
BYLAYER
 70
     0
  3

 72
    65
 73
     0
 40
0.0
  0
LTYPE
  5
15
330
5
100
AcDbSymbolTableRecord
100
AcDbLinetypeTableRecord
  2
CONTINUOUS
 70
     0
  3
Solid line
 72
    65
 73
     0
 40
0.0
  0
LTYPE
  5
23
330
5
100
AcDbSymbolTableRecord
100
AcDbLinetypeTableRecord
  2
HIDDEN
 70
     0
  3
_ _ _ _ _ _ _ _ _ _ _ _ _ _ _ _ _ _ _ _ _ _ _
 72
    65
 73
     2
 40
0.375
 49
0.25
 74
     0
 49
-0.125
 74
     0
  0
LTYPE
  5
24
330
5
100
AcDbSymbolTableRecord
100
AcDbLinetypeTableRecord
  2
CENTER
 70
     0
  3
____ _ ____ _ ____ _ ____ _ ____ _ ____ _ ____
 72
    65
 73
     4
 40
2.0
 49
1.25
 74
     0
 49
-0.25
 74
     0
 49
0.25
 74
     0
 49
-0.25
 74
     0
  0
LTYPE
  5
7CE
330
5
100
AcDbSymbolTableRecord
100
AcDbLinetypeTableRecord
  2
AMCONSTR
 70
     0
  3
_______________________
 72
    65
 73
     2
 40
9999.0
 49
9999.0
 74
     0
 49
0.0
 74
     0
  0
LTYPE
  5
7CF
330
5
100
AcDbSymbolTableRecord
100
AcDbLinetypeTableRecord
  2
AM_ISO08W050X2
 70
     0
  3
__ . __ . __ . __ . __ . __
 72
    65
 73
     4
 40
9.0
 49
6.0
 74
     0
 49
-0.75
 74
     0
 49
1.5
 74
     0
 49
-0.75
 74
     0
  0
LTYPE
  5
7D4
330
5
100
AcDbSymbolTableRecord
100
AcDbLinetypeTableRecord
  2
PHANTOM2
 70
     0
  3
Phantom (.5x) ___ _ _ ___ _ _ ___ _ _ ___ _ _
 72
    65
 73
     6
 40
1.25
 49
0.625
 74
     0
 49
-0.125
 74
     0
 49
0.125
 74
     0
 49
-0.125
 74
     0
 49
0.125
 74
     0
 49
-0.125
 74
     0
  0
LTYPE
  5
7E3
330
5
100
AcDbSymbolTableRecord
100
AcDbLinetypeTableRecord
  2
ACANSTGB
 70
     0
  3
__ . . __ . .
 72
    65
 73
     6
 40
0.35433070866
 49
0.15748031496
 74
     0
 49
-0.03937007874
 74
     0
 49
0.03937007874
 74
     0
 49
-0.03937007874
 74
     0
 49
0.03937007874
 74
     0
 49
-0.03937007874
 74
     0
  0
LTYPE
  5
7E4
330
5
100
AcDbSymbolTableRecord
100
AcDbLinetypeTableRecord
  2
ACANSTGL
 70
     0
  3
_ _ _ _ _
 72
    65
 73
     2
 40
0.11811023622
 49
0.07874015748
 74
     0
 49
-0.03937007874
 74
     0
  0
LTYPE
  5
C13
330
5
100
AcDbSymbolTableRecord
100
AcDbLinetypeTableRecord
  2
ACISOWELD
 70
     0
  3
_ _ _ _ _
 72
    65
 73
     2
 40
2.0
 49
2.0
 74
     0
 49
-1.0
 74
     0
  0
LTYPE
  5
C14
330
5
100
AcDbSymbolTableRecord
100
AcDbLinetypeTableRecord
  2
ACISOTGB
 70
     0
  3
__ . . __ . .
 72
    65
 73
     6
 40
9.0
 49
4.0
 74
     0
 49
-1.0
 74
     0
 49
1.0
 74
     0
 49
-1.0
 74
     0
 49
1.0
 74
     0
 49
-1.0
 74
     0
  0
LTYPE
  5
C15
330
5
100
AcDbSymbolTableRecord
100
AcDbLinetypeTableRecord
  2
ACISOTGL
 70
     0
  3
_ _ _ _ _
 72
    65
 73
     2
 40
3.0
 49
2.0
 74
     0
 49
-1.0
 74
     0
  0
LTYPE
  5
16FD
330
5
100
AcDbSymbolTableRecord
100
AcDbLinetypeTableRecord
  2
AM_ISO02W050
 70
     0
  3
__ __ __ __ __ __ __ __ __ __ __ __ __ __ __
 72
    65
 73
     2
 40
7.5
 49
6.0
 74
     0
 49
-1.5
 74
     0
  0
LTYPE
  5
16FE
330
5
100
AcDbSymbolTableRecord
100
AcDbLinetypeTableRecord
  2
AM_ISO08W050
 70
     0
  3
____ . ____ . ____ . ____ . ____ . ____ . ____
 72
    65
 73
     4
 40
18.0
 49
12.0
 74
     0
 49
-1.5
 74
     0
 49
3.0
 74
     0
 49
-1.5
 74
     0
  0
LTYPE
  5
16FF
330
5
100
AcDbSymbolTableRecord
100
AcDbLinetypeTableRecord
  2
AM_ISO09W050
 70
     0
  3
_____ . . _____ . . _____ . . ____ .. ____
 72
    65
 73
     6
 40
22.5
 49
12.0
 74
     0
 49
-1.5
 74
     0
 49
3.0
 74
     0
 49
-1.5
 74
     0
 49
3.0
 74
     0
 49
-1.5
 74
     0
  0
LTYPE
  5
1700
330
5
100
AcDbSymbolTableRecord
100
AcDbLinetypeTableRecord
  2
AM_ISO02W050X2
 70
     0
  3
 _ _ _ _ _ _ _ _ _ _ _ _
 72
    65
 73
     2
 40
3.75
 49
3.0
 74
     0
 49
-0.75
 74
     0
  0
LTYPE
  5
1701
330
5
100
AcDbSymbolTableRecord
100
AcDbLinetypeTableRecord
  2
AMZIGZAG
 70
     0
  3
/\/-/\/-/\/-/\/-/\/-/\/
 72
    65
 73
     2
 40
11.00009999999999
 49
0.0001
 74
     4
 75
   135
340
7D2
 46
0.04
 50
0.0
 44
0.0
 45
0.0
 49
-11.0
 74
     0
  0
LTYPE
  5
2E01
330
5
100
AcDbSymbolTableRecord
100
AcDbLinetypeTableRecord
  2
DASHED
 70
     0
  3
__ __ __ __ __ __ __ __ __ __ __ __ __ __ __ __
 72
    65
 73
     2
 40
0.75
 49
0.5
 74
     0
 49
-0.25
 74
     0
  0
ENDTAB
  0
TABLE
  2
LAYER
  5
2
330
0
100
AcDbSymbolTable
 70
     7
  0
LAYER
  5
10
330
2
100
AcDbSymbolTableRecord
100
AcDbLayerTableRecord
  2
0
 70
     0
 62
     7
  6
CONTINUOUS
  0
LAYER
  5
26
330
2
100
AcDbSymbolTableRecord
100
AcDbLayerTableRecord
  2
DEFPOINTS
 70
     0
 62
     7
  6
CONTINUOUS
  0
LAYER
  5
516
330
2
100
AcDbSymbolTableRecord
100
AcDbLayerTableRecord
  2
ASHADE
 70
     0
 62
     7
  6
CONTINUOUS
  0
LAYER
  5
7F7
330
2
100
AcDbSymbolTableRecord
100
AcDbLayerTableRecord
  2
LOGO
 70
     0
 62
     7
  6
CONTINUOUS
  0
LAYER
  5
11C1
330
2
100
AcDbSymbolTableRecord
100
AcDbLayerTableRecord
  2
AM_5
 70
     0
 62
     5
  6
CONTINUOUS
  0
LAYER
  5
2E05
330
2
100
AcDbSymbolTableRecord
100
AcDbLayerTableRecord
  2
CENTER
 70
     0
 62
     1
  6
CENTER
  0
LAYER
  5
2E06
330
2
100
AcDbSymbolTableRecord
100
AcDbLayerTableRecord
  2
DASHED
 70
     0
 62
     6
  6
HIDDEN
  0
ENDTAB
  0
TABLE
  2
STYLE
  5
3
330
0
100
AcDbSymbolTable
 70
     9
  0
STYLE
  5
11
330
3
100
AcDbSymbolTableRecord
100
AcDbTextStyleTableRecord
  2
STANDARD
 70
     0
 40
0.0
 41
1.0
 50
0.0
 71
     0
 42
3.5
  3
ISOCP.SHX
  4

  0
STYLE
  5
22
330
3
100
AcDbSymbolTableRecord
100
AcDbTextStyleTableRecord
  2
DAYUS
 70
     0
 40
0.0
 41
1.0
 50
0.0
 71
     0
 42
3.0
  3
simplex
  4
dayus
  0
STYLE
  5
27B
330
3
100
AcDbSymbolTableRecord
100
AcDbTextStyleTableRecord
  2
CHINESET
 70
     0
 40
0.0
 41
1.0
 50
0.0
 71
     0
 42
4.0
  3
simplex.shx
  4
chineset.shx
  0
STYLE
  5
7D2
330
3
100
AcDbSymbolTableRecord
100
AcDbTextStyleTableRecord
  2

 70
     1
 40
0.0
 41
1.0
 50
0.0
 71
     0
 42
4.0
  3
ltypeshp.shx
  4

  0
STYLE
  5
7D7
330
3
100
AcDbSymbolTableRecord
100
AcDbTextStyleTableRecord
  2
ACANSTS
 70
     0
 40
1.0
 41
1.0
 50
0.0
 71
     0
 42
4.0
  3
romans.shx
  4
chineset.shx
  0
STYLE
  5
7E2
330
3
100
AcDbSymbolTableRecord
100
AcDbTextStyleTableRecord
  2
ACANSGDT
 70
     0
 40
0.0
 41
1.0
 50
0.0
 71
     0
 42
4.0
  3
amgdtans.shx
  4

  0
STYLE
  5
7F8
330
3
100
AcDbSymbolTableRecord
100
AcDbTextStyleTableRecord
  2
LOGO
 70
     0
 40
0.0
 41
1.0
 50
0.0
 71
     0
 42
5.0
  3
LEI00DP.TTF
  4

1001
ACAD
1000
文鼎中粗隸
1071
    34865
  0
STYLE
  5
C19
330
3
100
AcDbSymbolTableRecord
100
AcDbTextStyleTableRecord
  2
ACISOTS
 70
     0
 40
1.0
 41
1.0
 50
0.0
 71
     0
 42
2.5
  3
isocp.shx
  4
chineset.shx
  0
STYLE
  5
C1A
330
3
100
AcDbSymbolTableRecord
100
AcDbTextStyleTableRecord
  2
ACISOGDT
 70
     0
 40
0.0
 41
1.0
 50
0.0
 71
     0
 42
2.5
  3
amgdt.shx
  4

  0
ENDTAB
  0
TABLE
  2
VIEW
  5
6
330
0
100
AcDbSymbolTable
 70
     0
  0
ENDTAB
  0
TABLE
  2
UCS
  5
7
330
0
100
AcDbSymbolTable
 70
     0
  0
ENDTAB
  0
TABLE
  2
APPID
  5
9
330
0
100
AcDbSymbolTable
 70
    21
  0
APPID
  5
12
330
9
100
AcDbSymbolTableRecord
100
AcDbRegAppTableRecord
  2
ACAD
 70
     0
  0
APPID
  5
514
330
9
100
AcDbSymbolTableRecord
100
AcDbRegAppTableRecord
  2
AVE_RENDER
 70
     0
  0
APPID
  5
515
330
9
100
AcDbSymbolTableRecord
100
AcDbRegAppTableRecord
  2
AVE_ENTITY_MATERIAL
 70
     0
  0
APPID
  5
522
330
9
100
AcDbSymbolTableRecord
100
AcDbRegAppTableRecord
  2
AVE_FINISH
 70
     0
  0
APPID
  5
523
330
9
100
AcDbSymbolTableRecord
100
AcDbRegAppTableRecord
  2
AVE_MATERIAL
 70
     0
  0
APPID
  5
524
330
9
100
AcDbSymbolTableRecord
100
AcDbRegAppTableRecord
  2
AVE_GLOBAL
 70
     0
  0
APPID
  5
7AD
330
9
100
AcDbSymbolTableRecord
100
AcDbRegAppTableRecord
  2
MCAD_NO_VIS
 70
     0
  0
APPID
  5
7AE
330
9
100
AcDbSymbolTableRecord
100
AcDbRegAppTableRecord
  2
ACAD_TEMP_GRAPHIC
 70
     0
  0
APPID
  5
7BF
330
9
100
AcDbSymbolTableRecord
100
AcDbRegAppTableRecord
  2
ACATTRIBSERVICES
 70
     0
  0
APPID
  5
C22
330
9
100
AcDbSymbolTableRecord
100
AcDbRegAppTableRecord
  2
GENIUS_GENODEF_13
 70
     0
  0
APPID
  5
C23
330
9
100
AcDbSymbolTableRecord
100
AcDbRegAppTableRecord
  2
GENIUS_GENOREF_13
 70
     0
  0
APPID
  5
C24
330
9
100
AcDbSymbolTableRecord
100
AcDbRegAppTableRecord
  2
GENIUS_GENOBJ-N-CEN_13
 70
     0
  0
APPID
  5
16D2
330
9
100
AcDbSymbolTableRecord
100
AcDbRegAppTableRecord
  2
GENIUS_GENDTOL_13
 70
     0
  0
APPID
  5
353F
330
9
100
AcDbSymbolTableRecord
100
AcDbRegAppTableRecord
  2
GENIUS_GENDIMSH_14
 70
     0
  0
APPID
  5
4D84
330
9
100
AcDbSymbolTableRecord
100
AcDbRegAppTableRecord
  2
GEVID1082602174
 70
     0
  0
APPID
  5
4D85
330
9
100
AcDbSymbolTableRecord
100
AcDbRegAppTableRecord
  2
GEVDC
 70
     0
  0
APPID
  5
4D88
330
9
100
AcDbSymbolTableRecord
100
AcDbRegAppTableRecord
  2
GENIUS_GENBH_13
 70
     0
  0
APPID
  5
4D8E
330
9
100
AcDbSymbolTableRecord
100
AcDbRegAppTableRecord
  2
GENIUS_GENOLIS_13
 70
     0
  0
APPID
  5
4D8F
330
9
100
AcDbSymbolTableRecord
100
AcDbRegAppTableRecord
  2
GENIUS_GENOENT_13
 70
     0
  0
APPID
  5
4D90
330
9
100
AcDbSymbolTableRecord
100
AcDbRegAppTableRecord
  2
GENIUS_GENOBJ-NBEHI-BHF_13
 70
     0
  0
APPID
  5
4D92
330
9
100
AcDbSymbolTableRecord
100
AcDbRegAppTableRecord
  2
GENIUS_GENOBJ-NBEHI-BHB_13
 70
     0
  0
ENDTAB
  0
TABLE
  2
DIMSTYLE
  5
A
330
0
100
AcDbSymbolTable
 70
    13
  0
DIMSTYLE
105
7E8
330
A
100
AcDbSymbolTableRecord
100
AcDbDimStyleTableRecord
  2
AM_ANSI
 70
     0
  3

  4
mm
  5

  6

  7

 40
1.0
 41
0.1
 42
0.05
 43
0.5
 44
0.1
 45
0.0
 46
0.0
 47
0.1
 48
0.1
140
0.12
141
0.0
142
0.0
143
25.4
144
1.0
145
0.0
146
0.71
147
0.06
 71
     0
 72
     0
 73
     1
 74
     1
 75
     0
 76
     0
 77
     0
 78
     7
170
     0
171
     2
172
     0
173
     0
174
     0
175
     0
176
   256
177
   256
178
     2
270
     2
271
     4
272
     4
273
     2
274
     4
340
11
275
     0
280
     0
281
     0
282
     0
283
     1
284
     7
285
     0
286
     0
287
     3
288
     0
  0
DIMSTYLE
105
7E9
330
A
100
AcDbSymbolTableRecord
100
AcDbDimStyleTableRecord
  2
AM_ANSI$3
 70
     0
  3

  4
mm
  5

  6

  7

 40
1.0
 41
0.1
 42
0.05
 43
0.5
 44
0.1
 45
0.0
 46
0.0
 47
0.1
 48
0.1
140
0.12
141
0.0
142
0.0
143
25.4
144
1.0
145
0.0
146
0.71
147
0.06
 71
     0
 72
     0
 73
     1
 74
     1
 75
     0
 76
     0
 77
     0
 78
     7
170
     0
171
     2
172
     0
173
     0
174
     0
175
     0
176
   256
177
   256
178
     2
270
     2
271
     4
272
     4
273
     2
274
     4
340
11
275
     0
280
     0
281
     0
282
     0
283
     1
284
     7
285
     0
286
     0
287
     3
288
     1
  0
DIMSTYLE
105
7EA
330
A
100
AcDbSymbolTableRecord
100
AcDbDimStyleTableRecord
  2
AM_ANSI$4
 70
     0
  3

  4
mm
  5

  6

  7

 40
1.0
 41
0.1
 42
0.05
 43
0.5
 44
0.1
 45
0.0
 46
0.0
 47
0.1
 48
0.1
140
0.12
141
0.0
142
0.0
143
25.4
144
1.0
145
0.0
146
0.71
147
0.06
 71
     0
 72
     0
 73
     1
 74
     1
 75
     0
 76
     0
 77
     0
 78
     7
170
     0
171
     2
172
     0
173
     0
174
     0
175
     0
176
   256
177
   256
178
     2
270
     2
271
     4
272
     4
273
     2
274
     4
340
11
275
     0
280
     0
281
     0
282
     0
283
     1
284
     7
285
     0
286
     0
287
     3
288
     1
  0
DIMSTYLE
105
7EB
330
A
100
AcDbSymbolTableRecord
100
AcDbDimStyleTableRecord
  2
AM_ANSI$7
 70
     0
  3

  4
mm
  5

  6

  7

 40
1.0
 41
0.1
 42
0.05
 43
0.5
 44
0.1
 45
0.0
 46
0.0
 47
0.1
 48
0.1
140
0.24
141
0.0
142
0.0
143
25.4
144
1.0
145
0.0
146
0.71
147
0.06
 71
     0
 72
     0
 73
     1
 74
     1
 75
     0
 76
     0
 77
     0
 78
     7
170
     0
171
     2
172
     0
173
     0
174
     0
175
     0
176
   256
177
   256
178
     2
270
     2
271
     4
272
     4
273
     2
274
     4
340
11
275
     0
280
     0
281
     0
282
     0
283
     1
284
     7
285
     0
286
     0
287
     3
288
     0
  0
DIMSTYLE
105
7EC
330
A
100
AcDbSymbolTableRecord
100
AcDbDimStyleTableRecord
  2
AM_ANSI$SF
 70
     0
  3

  4
mm
  5

  6

  7

 40
1.0
 41
0.1
 42
0.05
 43
0.5
 44
0.1
 45
0.0
 46
0.0
 47
0.1
 48
0.1
140
0.12
141
0.0
142
0.0
143
25.4
144
1.0
145
0.0
146
0.71
147
0.06
 71
     0
 72
     0
 73
     1
 74
     1
 75
     1
 76
     1
 77
     0
 78
     7
170
     0
171
     2
172
     0
173
     0
174
     0
175
     0
176
   256
177
   256
178
     2
270
     2
271
     4
272
     4
273
     2
274
     4
340
11
275
     0
280
     0
281
     0
282
     0
283
     1
284
     7
285
     0
286
     0
287
     3
288
     0
  0
DIMSTYLE
105
7F1
330
A
100
AcDbSymbolTableRecord
100
AcDbDimStyleTableRecord
  2
AM_ANSI$SH
 70
     0
  3

  4
mm
  5

  6
GENAXEH
  7

 40
1.0
 41
0.1
 42
0.05
 43
0.5
 44
0.1
 45
0.0
 46
0.0
 47
0.1
 48
0.1
140
0.12
141
0.0
142
0.0
143
25.4
144
1.0
145
0.0
146
0.71
147
0.06
 71
     0
 72
     0
 73
     1
 74
     1
 75
     1
 76
     1
 77
     0
 78
     7
170
     0
171
     2
172
     0
173
     1
174
     0
175
     0
176
   256
177
   256
178
     2
270
     2
271
     4
272
     4
273
     2
274
     4
340
11
275
     0
280
     0
281
     0
282
     0
283
     1
284
     7
285
     0
286
     0
287
     3
288
     0
  0
DIMSTYLE
105
C1B
102
{ACAD_REACTORS
330
4F4F
330
4F73
330
4F97
330
4FBF
330
4FF3
330
502E
330
507B
330
509F
330
50C3
330
50E7
330
510B
330
512F
102
}
330
A
100
AcDbSymbolTableRecord
100
AcDbDimStyleTableRecord
  2
AM_ISO
 70
     0
  3

  4
"
  5

  6

  7

 40
1.0
 41
2.0
 42
1.0
 43
5.0
 44
1.5
 45
0.0
 46
0.0
 47
0.1
 48
0.1
140
2.0
141
3.0
142
0.0
143
0.0393701
144
1.0
145
0.0
146
0.71
147
0.6
 71
     0
 72
     0
 73
     0
 74
     0
 75
     0
 76
     0
 77
     1
 78
     8
170
     0
171
     2
172
     1
173
     0
174
     0
175
     0
176
   256
177
   256
178
   256
270
     2
271
     2
272
     2
273
     2
274
     2
340
11
275
     0
280
     0
281
     0
282
     0
283
     0
284
     8
285
     0
286
     0
287
     3
288
     0
  0
DIMSTYLE
105
C1C
330
A
100
AcDbSymbolTableRecord
100
AcDbDimStyleTableRecord
  2
AM_ISO$3
 70
     0
  3

  4
"
  5

  6

  7

 40
1.0
 41
2.0
 42
1.0
 43
5.0
 44
1.5
 45
0.0
 46
0.0
 47
0.1
 48
0.1
140
2.0
141
3.0
142
0.0
143
0.0393701
144
1.0
145
0.0
146
0.71
147
0.6
 71
     0
 72
     0
 73
     0
 74
     1
 75
     0
 76
     0
 77
     1
 78
     8
170
     0
171
     2
172
     0
173
     0
174
     0
175
     0
176
   256
177
   256
178
   256
270
     2
271
     2
272
     2
273
     2
274
     2
340
11
275
     0
280
     0
281
     0
282
     0
283
     0
284
     8
285
     0
286
     0
287
     0
288
     1
  0
DIMSTYLE
105
C1D
330
A
100
AcDbSymbolTableRecord
100
AcDbDimStyleTableRecord
  2
AM_ISO$4
 70
     0
  3

  4
"
  5

  6

  7

 40
1.0
 41
2.0
 42
1.0
 43
5.0
 44
1.5
 45
0.0
 46
0.0
 47
0.1
 48
0.1
140
2.0
141
3.0
142
0.0
143
0.0393701
144
1.0
145
0.0
146
0.71
147
0.6
 71
     0
 72
     0
 73
     0
 74
     1
 75
     0
 76
     0
 77
     1
 78
     8
170
     0
171
     2
172
     0
173
     0
174
     0
175
     0
176
   256
177
   256
178
   256
270
     2
271
     2
272
     2
273
     2
274
     2
340
11
275
     0
280
     0
281
     0
282
     0
283
     0
284
     8
285
     0
286
     0
287
     0
288
     1
  0
DIMSTYLE
105
C1E
330
A
100
AcDbSymbolTableRecord
100
AcDbDimStyleTableRecord
  2
AM_ISO$6
 70
     0
  3

  4
"
  5

  6

  7

 40
1.0
 41
2.0
 42
1.0
 43
5.0
 44
1.5
 45
0.0
 46
0.0
 47
0.1
 48
0.1
140
2.0
141
3.0
142
0.0
143
0.0393701
144
1.0
145
0.0
146
0.71
147
0.6
 71
     0
 72
     0
 73
     0
 74
     0
 75
     0
 76
     0
 77
     0
 78
     8
170
     0
171
     2
172
     1
173
     0
174
     0
175
     0
176
   256
177
   256
178
   256
270
     2
271
     2
272
     2
273
     2
274
     2
340
11
275
     0
280
     0
281
     0
282
     0
283
     0
284
     8
285
     0
286
     0
287
     3
288
     0
  0
DIMSTYLE
105
C1F
330
A
100
AcDbSymbolTableRecord
100
AcDbDimStyleTableRecord
  2
AM_ISO$7
 70
     0
  3

  4
"
  5

  6

  7

 40
1.0
 41
2.0
 42
1.0
 43
5.0
 44
1.5
 45
0.0
 46
0.0
 47
0.1
 48
0.1
140
5.0
141
3.0
142
0.0
143
0.0393701
144
1.0
145
0.0
146
0.71
147
0.6
 71
     0
 72
     0
 73
     0
 74
     0
 75
     0
 76
     0
 77
     1
 78
     8
170
     0
171
     2
172
     1
173
     0
174
     0
175
     0
176
   256
177
   256
178
   256
270
     2
271
     2
272
     2
273
     2
274
     2
340
11
275
     0
280
     0
281
     0
282
     0
283
     0
284
     8
285
     0
286
     0
287
     3
288
     0
  0
DIMSTYLE
105
C20
330
A
100
AcDbSymbolTableRecord
100
AcDbDimStyleTableRecord
  2
AM_ISO$SF
 70
     0
  3

  4
"
  5

  6

  7

 40
1.0
 41
2.5
 42
1.0
 43
10.0
 44
1.0
 45
0.0
 46
0.0
 47
0.1
 48
0.1
140
3.5
141
0.0
142
0.0
143
0.0393701
144
1.0
145
0.0
146
0.71
147
1.5
 71
     0
 72
     0
 73
     0
 74
     0
 75
     1
 76
     1
 77
     1
 78
     8
170
     0
171
     2
172
     1
173
     0
174
     0
175
     0
176
   256
177
   256
178
     2
270
     2
271
     2
272
     3
273
     2
274
     4
340
11
275
     0
280
     0
281
     0
282
     0
283
     0
284
     8
285
     0
286
     0
287
     3
288
     0
  0
DIMSTYLE
105
C21
330
A
100
AcDbSymbolTableRecord
100
AcDbDimStyleTableRecord
  2
AM_ISO$SH
 70
     0
  3

  4
"
  5

  6
GENAXEH
  7

 40
1.0
 41
2.5
 42
1.0
 43
10.0
 44
1.0
 45
0.0
 46
0.0
 47
0.1
 48
0.1
140
3.5
141
0.0
142
0.0
143
0.0393701
144
2.0
145
0.0
146
0.71
147
1.5
 71
     0
 72
     0
 73
     0
 74
     0
 75
     1
 76
     1
 77
     1
 78
     8
170
     0
171
     2
172
     1
173
     1
174
     0
175
     0
176
   256
177
   256
178
     2
270
     2
271
     2
272
     3
273
     2
274
     4
340
11
275
     0
280
     0
281
     0
282
     0
283
     0
284
     8
285
     0
286
     0
287
     3
288
     0
  0
ENDTAB
  0
TABLE
  2
BLOCK_RECORD
  5
1
330
0
100
AcDbSymbolTable
 70
    18
  0
BLOCK_RECORD
  5
1E
102
{ACAD_XDICTIONARY
360
708
102
}
330
1
100
AcDbSymbolTableRecord
100
AcDbBlockTableRecord
  2
*MODEL_SPACE
  0
BLOCK_RECORD
  5
1A
102
{ACAD_XDICTIONARY
360
70A
102
}
330
1
100
AcDbSymbolTableRecord
100
AcDbBlockTableRecord
  2
*PAPER_SPACE
  0
BLOCK_RECORD
  5
517
330
1
100
AcDbSymbolTableRecord
100
AcDbBlockTableRecord
  2
AVE_RENDER
  0
BLOCK_RECORD
  5
525
330
1
100
AcDbSymbolTableRecord
100
AcDbBlockTableRecord
  2
AVE_GLOBAL
  0
BLOCK_RECORD
  5
7ED
330
1
100
AcDbSymbolTableRecord
100
AcDbBlockTableRecord
  2
GENAXEH
  0
BLOCK_RECORD
  5
18E9
330
1
100
AcDbSymbolTableRecord
100
AcDbBlockTableRecord
  2
GENDOT
  0
BLOCK_RECORD
  5
4F50
330
1
100
AcDbSymbolTableRecord
100
AcDbBlockTableRecord
  2
*D4
  0
BLOCK_RECORD
  5
4F74
330
1
100
AcDbSymbolTableRecord
100
AcDbBlockTableRecord
  2
*D5
  0
BLOCK_RECORD
  5
4F98
330
1
100
AcDbSymbolTableRecord
100
AcDbBlockTableRecord
  2
*D6
  0
BLOCK_RECORD
  5
4FC0
330
1
100
AcDbSymbolTableRecord
100
AcDbBlockTableRecord
  2
*D7
  0
BLOCK_RECORD
  5
4FF4
330
1
100
AcDbSymbolTableRecord
100
AcDbBlockTableRecord
  2
*D8
  0
BLOCK_RECORD
  5
502F
330
1
100
AcDbSymbolTableRecord
100
AcDbBlockTableRecord
  2
*D9
  0
BLOCK_RECORD
  5
507C
330
1
100
AcDbSymbolTableRecord
100
AcDbBlockTableRecord
  2
*D10
  0
BLOCK_RECORD
  5
50A0
330
1
100
AcDbSymbolTableRecord
100
AcDbBlockTableRecord
  2
*D11
  0
BLOCK_RECORD
  5
50C4
330
1
100
AcDbSymbolTableRecord
100
AcDbBlockTableRecord
  2
*D12
  0
BLOCK_RECORD
  5
50E8
330
1
100
AcDbSymbolTableRecord
100
AcDbBlockTableRecord
  2
*D13
  0
BLOCK_RECORD
  5
510C
330
1
100
AcDbSymbolTableRecord
100
AcDbBlockTableRecord
  2
*D14
  0
BLOCK_RECORD
  5
5130
330
1
100
AcDbSymbolTableRecord
100
AcDbBlockTableRecord
  2
*D15
  0
BLOCK_RECORD
  5
5499
330
1
100
AcDbSymbolTableRecord
100
AcDbBlockTableRecord
  2
*S16
  0
BLOCK_RECORD
  5
54A2
330
1
100
AcDbSymbolTableRecord
100
AcDbBlockTableRecord
  2
*S17
  0
ENDTAB
  0
ENDSEC
  0
SECTION
  2
BLOCKS
  0
BLOCK
  5
29
330
1E
100
AcDbEntity
  8
0
100
AcDbBlockBegin
  2
*MODEL_SPACE
 70
     0
 10
0.0
 20
0.0
 30
0.0
  3
*MODEL_SPACE
  1

  0
ENDBLK
  5
2A
330
1E
100
AcDbEntity
  8
0
100
AcDbBlockEnd
  0
BLOCK
  5
27
330
1A
100
AcDbEntity
 67
     1
  8
0
100
AcDbBlockBegin
  2
*PAPER_SPACE
 70
     0
 10
0.0
 20
0.0
 30
0.0
  3
*PAPER_SPACE
  1

  0
ENDBLK
  5
28
330
1A
100
AcDbEntity
 67
     1
  8
0
100
AcDbBlockEnd
  0
BLOCK
  5
518
330
517
100
AcDbEntity
  8
0
100
AcDbBlockBegin
  2
AVE_RENDER
 70
     0
 10
0.0
 20
0.0
 30
0.0
  3
AVE_RENDER
  1
AVE_RENDER
  0
ENDBLK
  5
519
330
517
100
AcDbEntity
  8
0
100
AcDbBlockEnd
  0
BLOCK
  5
526
330
525
100
AcDbEntity
  8
0
100
AcDbBlockBegin
  2
AVE_GLOBAL
 70
     0
 10
0.0
 20
0.0
 30
0.0
  3
AVE_GLOBAL
  1
AVE_GLOBAL
  0
ENDBLK
  5
527
330
525
100
AcDbEntity
  8
0
100
AcDbBlockEnd
  0
BLOCK
  5
7EF
330
7ED
100
AcDbEntity
  8
0
100
AcDbBlockBegin
  2
GENAXEH
 70
     0
 10
0.0
 20
0.0
 30
0.0
  3
GENAXEH
  1

  0
LINE
  5
7EE
330
7ED
100
AcDbEntity
  8
0
100
AcDbLine
 10
-1.0
 20
0.0
 30
0.0
 11
1.0
 21
0.0
 31
0.0
  0
ENDBLK
  5
7F0
330
7ED
100
AcDbEntity
  8
0
100
AcDbBlockEnd
  0
BLOCK
  5
18EC
330
18E9
100
AcDbEntity
  8
0
100
AcDbBlockBegin
  2
GENDOT
 70
     0
 10
0.0
 20
0.0
 30
0.0
  3
GENDOT
  1

  0
LINE
  5
18EA
330
18E9
100
AcDbEntity
  8
0
100
AcDbLine
 10
0.0
 20
0.0
 30
0.0
 11
-1.0
 21
0.0
 31
0.0
  0
POLYLINE
  5
18EB
330
18E9
100
AcDbEntity
  8
0
100
AcDb2dPolyline
 66
     1
 10
0.0
 20
0.0
 30
0.0
 70
     1
 40
0.25
 41
0.25
  0
VERTEX
  5
5479
330
18EB
100
AcDbEntity
  8
0
100
AcDbVertex
100
AcDb2dVertex
 10
-0.125
 20
0.0
 30
0.0
 42
1.0
  0
VERTEX
  5
547A
330
18EB
100
AcDbEntity
  8
0
100
AcDbVertex
100
AcDb2dVertex
 10
0.125
 20
0.0
 30
0.0
 42
1.0
  0
SEQEND
  5
547B
330
18EB
100
AcDbEntity
  8
0
  0
ENDBLK
  5
18ED
330
18E9
100
AcDbEntity
  8
0
100
AcDbBlockEnd
  0
BLOCK
  5
4F5A
330
4F50
100
AcDbEntity
  8
0
100
AcDbBlockBegin
  2
*D4
 70
     1
 10
0.0
 20
0.0
 30
0.0
  3
*D4
  1

  0
LINE
  5
52F8
330
4F50
100
AcDbEntity
  8
AM_5
100
AcDbLine
 10
210.7958154372544
 20
33.92525577881889
 30
0.0
 11
210.7958154372544
 21
41.38703748366263
 31
0.0
  0
LINE
  5
52F9
330
4F50
100
AcDbEntity
  8
AM_5
100
AcDbLine
 10
216.2958154372544
 20
29.99439800298347
 30
0.0
 11
216.2958154372544
 21
41.38703748366263
 31
0.0
  0
LINE
  5
52FA
330
4F50
100
AcDbEntity
  8
AM_5
100
AcDbLine
 10
212.7958154372544
 20
39.88703748366264
 30
0.0
 11
214.2958154372544
 21
39.88703748366264
 31
0.0
  0
SOLID
  5
52FB
330
4F50
100
AcDbEntity
  8
AM_5
100
AcDbTrace
 10
212.7958154372544
 20
40.22037081699597
 30
0.0
 11
212.7958154372544
 21
39.5537041503293
 31
0.0
 12
210.7958154372544
 22
39.88703748366264
 32
0.0
 13
210.7958154372544
 23
39.88703748366264
 33
0.0
  0
SOLID
  5
52FC
330
4F50
100
AcDbEntity
  8
AM_5
100
AcDbTrace
 10
214.2958154372544
 20
40.22037081699597
 30
0.0
 11
214.2958154372544
 21
39.5537041503293
 31
0.0
 12
216.2958154372544
 22
39.88703748366264
 32
0.0
 13
216.2958154372544
 23
39.88703748366264
 33
0.0
  0
MTEXT
  5
52FD
330
4F50
100
AcDbEntity
  8
AM_5
100
AcDbMText
 10
213.5458154372544
 20
41.48703748366264
 30
0.0
 40
2.0
 41
0.0
 71
     5
 72
     1
  1
5.5
1001
ACAD
1000
MTEXTBEGIN
1070
    73
1070
     1
1070
    44
1040
1.0
1070
    74
1070
     0
1000
MTEXTEND
  0
POINT
  5
52FE
330
4F50
100
AcDbEntity
  8
DEFPOINTS
 62
     0
100
AcDbPoint
 10
210.7958154372544
 20
32.92525577881889
 30
0.0
  0
POINT
  5
52FF
330
4F50
100
AcDbEntity
  8
DEFPOINTS
 62
     0
100
AcDbPoint
 10
216.2958154372544
 20
28.99439800298347
 30
0.0
  0
POINT
  5
5300
330
4F50
100
AcDbEntity
  8
DEFPOINTS
 62
     0
100
AcDbPoint
 10
216.2958154372544
 20
39.88703748366264
 30
0.0
  0
ENDBLK
  5
4F5B
330
4F50
100
AcDbEntity
  8
0
100
AcDbBlockEnd
  0
BLOCK
  5
4F7E
330
4F74
100
AcDbEntity
  8
0
100
AcDbBlockBegin
  2
*D5
 70
     1
 10
0.0
 20
0.0
 30
0.0
  3
*D5
  1

  0
LINE
  5
5301
330
4F74
100
AcDbEntity
  8
AM_5
100
AcDbLine
 10
243.2958154372544
 20
33.92525577881889
 30
0.0
 11
243.2958154372544
 21
41.38703748366264
 31
0.0
  0
LINE
  5
5302
330
4F74
100
AcDbEntity
  8
AM_5
100
AcDbLine
 10
233.7958154372544
 20
29.99439800298347
 30
0.0
 11
233.7958154372544
 21
41.38703748366264
 31
0.0
  0
LINE
  5
5303
330
4F74
100
AcDbEntity
  8
AM_5
100
AcDbLine
 10
241.2958154372544
 20
39.88703748366264
 30
0.0
 11
235.7958154372544
 21
39.88703748366264
 31
0.0
  0
SOLID
  5
5304
330
4F74
100
AcDbEntity
  8
AM_5
100
AcDbTrace
 10
241.2958154372544
 20
40.22037081699598
 30
0.0
 11
241.2958154372544
 21
39.5537041503293
 31
0.0
 12
243.2958154372544
 22
39.88703748366264
 32
0.0
 13
243.2958154372544
 23
39.88703748366264
 33
0.0
  0
SOLID
  5
5305
330
4F74
100
AcDbEntity
  8
AM_5
100
AcDbTrace
 10
235.7958154372544
 20
40.22037081699598
 30
0.0
 11
235.7958154372544
 21
39.5537041503293
 31
0.0
 12
233.7958154372544
 22
39.88703748366264
 32
0.0
 13
233.7958154372544
 23
39.88703748366264
 33
0.0
  0
MTEXT
  5
5306
330
4F74
100
AcDbEntity
  8
AM_5
100
AcDbMText
 10
238.5458154372544
 20
41.48703748366265
 30
0.0
 40
2.0
 41
0.0
 71
     5
 72
     1
  1
9.5
1001
ACAD
1000
MTEXTBEGIN
1070
    73
1070
     1
1070
    44
1040
1.0
1070
    74
1070
     0
1000
MTEXTEND
  0
POINT
  5
5307
330
4F74
100
AcDbEntity
  8
DEFPOINTS
 62
     0
100
AcDbPoint
 10
243.2958154372544
 20
32.92525577881889
 30
0.0
  0
POINT
  5
5308
330
4F74
100
AcDbEntity
  8
DEFPOINTS
 62
     0
100
AcDbPoint
 10
233.7958154372544
 20
28.99439800298347
 30
0.0
  0
POINT
  5
5309
330
4F74
100
AcDbEntity
  8
DEFPOINTS
 62
     0
100
AcDbPoint
 10
233.7958154372544
 20
39.88703748366264
 30
0.0
  0
ENDBLK
  5
4F7F
330
4F74
100
AcDbEntity
  8
0
100
AcDbBlockEnd
  0
BLOCK
  5
4FA2
330
4F98
100
AcDbEntity
  8
0
100
AcDbBlockBegin
  2
*D6
 70
     1
 10
0.0
 20
0.0
 30
0.0
  3
*D6
  1

  0
LINE
  5
547C
330
4F98
100
AcDbEntity
  8
AM_5
100
AcDbLine
 10
210.7958154372544
 20
-3.074744221181049
 30
0.0
 11
210.7958154372544
 21
-12.47607480751608
 31
0.0
  0
LINE
  5
547D
330
4F98
100
AcDbEntity
  8
AM_5
100
AcDbLine
 10
243.2958154372544
 20
-3.074744221181049
 30
0.0
 11
243.2958154372544
 21
-12.47607480751608
 31
0.0
  0
LINE
  5
547E
330
4F98
100
AcDbEntity
  8
AM_5
100
AcDbLine
 10
212.7958154372544
 20
-10.97607480751608
 30
0.0
 11
241.2958154372544
 21
-10.97607480751608
 31
0.0
  0
SOLID
  5
547F
330
4F98
100
AcDbEntity
  8
AM_5
100
AcDbTrace
 10
212.7958154372544
 20
-10.64274147418274
 30
0.0
 11
212.7958154372544
 21
-11.30940814084941
 31
0.0
 12
210.7958154372544
 22
-10.97607480751608
 32
0.0
 13
210.7958154372544
 23
-10.97607480751608
 33
0.0
  0
INSERT
  5
5480
330
4F98
100
AcDbEntity
  8
AM_5
100
AcDbBlockReference
  2
GENDOT
 10
243.2958154372544
 20
-10.97607480751608
 30
0.0
 41
2.0
 42
2.0
 43
2.0
  0
MTEXT
  5
5481
330
4F98
100
AcDbEntity
  8
AM_5
100
AcDbMText
 10
227.0458154372544
 20
-9.37587795712238
 30
0.0
 40
2.0
 41
0.0
 71
     5
 72
     1
  1
32.5+stroke
  0
POINT
  5
5482
330
4F98
100
AcDbEntity
  8
DEFPOINTS
 62
     0
100
AcDbPoint
 10
210.7958154372544
 20
-2.074744221181049
 30
0.0
  0
POINT
  5
5483
330
4F98
100
AcDbEntity
  8
DEFPOINTS
 62
     0
100
AcDbPoint
 10
243.2958154372544
 20
-2.074744221181049
 30
0.0
  0
POINT
  5
5484
330
4F98
100
AcDbEntity
  8
DEFPOINTS
 62
     0
100
AcDbPoint
 10
243.2958154372544
 20
-10.97607480751608
 30
0.0
  0
ENDBLK
  5
4FA3
330
4F98
100
AcDbEntity
  8
0
100
AcDbBlockEnd
  0
BLOCK
  5
4FCC
330
4FC0
100
AcDbEntity
  8
0
100
AcDbBlockBegin
  2
*D7
 70
     1
 10
0.0
 20
0.0
 30
0.0
  3
*D7
  1

  0
LINE
  5
5485
330
4FC0
100
AcDbEntity
  8
AM_5
100
AcDbLine
 10
243.2958154372544
 20
-3.074744221181051
 30
0.0
 11
243.2958154372544
 21
-12.47607480751606
 31
0.0
  0
LINE
  5
5486
330
4FC0
100
AcDbEntity
  8
AM_5
100
AcDbLine
 10
247.7958154372544
 20
-4.074744221181051
 30
0.0
 11
247.7958154372544
 21
-12.47607480751606
 31
0.0
  0
LINE
  5
5487
330
4FC0
100
AcDbEntity
  8
AM_5
100
AcDbLine
 10
241.2958154372544
 20
-10.97607480751606
 30
0.0
 11
239.2958154372544
 21
-10.97607480751606
 31
0.0
  0
LINE
  5
5488
330
4FC0
100
AcDbEntity
  8
AM_5
100
AcDbLine
 10
249.7958154372544
 20
-10.97607480751606
 30
0.0
 11
251.7958154372544
 21
-10.97607480751606
 31
0.0
  0
LINE
  5
5489
330
4FC0
100
AcDbEntity
  8
AM_5
100
AcDbLine
 10
243.2958154372544
 20
-10.97607480751606
 30
0.0
 11
247.7958154372544
 21
-10.97607480751606
 31
0.0
  0
INSERT
  5
548A
330
4FC0
100
AcDbEntity
  8
AM_5
100
AcDbBlockReference
  2
GENDOT
 10
243.2958154372544
 20
-10.97607480751606
 30
0.0
 41
2.0
 42
2.0
 43
2.0
  0
INSERT
  5
548B
330
4FC0
100
AcDbEntity
  8
AM_5
100
AcDbBlockReference
  2
GENDOT
 10
247.7958154372544
 20
-10.97607480751606
 30
0.0
 41
2.0
 42
2.0
 43
2.0
 50
180.0
  0
MTEXT
  5
548C
330
4FC0
100
AcDbEntity
  8
AM_5
100
AcDbMText
 10
245.5458154372544
 20
-9.376074807516063
 30
0.0
 40
2.0
 41
0.0
 71
     5
 72
     1
  1
4.5
  0
POINT
  5
548D
330
4FC0
100
AcDbEntity
  8
DEFPOINTS
 62
     0
100
AcDbPoint
 10
243.2958154372544
 20
-2.074744221181051
 30
0.0
  0
POINT
  5
548E
330
4FC0
100
AcDbEntity
  8
DEFPOINTS
 62
     0
100
AcDbPoint
 10
247.7958154372544
 20
-3.074744221181051
 30
0.0
  0
POINT
  5
548F
330
4FC0
100
AcDbEntity
  8
DEFPOINTS
 62
     0
100
AcDbPoint
 10
247.7958154372544
 20
-10.97607480751606
 30
0.0
  0
ENDBLK
  5
4FCD
330
4FC0
100
AcDbEntity
  8
0
100
AcDbBlockEnd
  0
BLOCK
  5
4FFE
330
4FF4
100
AcDbEntity
  8
0
100
AcDbBlockBegin
  2
*D8
 70
     1
 10
0.0
 20
0.0
 30
0.0
  3
*D8
  1

  0
LINE
  5
5490
330
4FF4
100
AcDbEntity
  8
AM_5
100
AcDbLine
 10
247.7958154372544
 20
-4.074744221181051
 30
0.0
 11
247.7958154372544
 21
-12.47607480751604
 31
0.0
  0
LINE
  5
5491
330
4FF4
100
AcDbEntity
  8
AM_5
100
AcDbLine
 10
255.7958154372544
 20
-4.074744221181049
 30
0.0
 11
255.7958154372544
 21
-12.47607480751604
 31
0.0
  0
LINE
  5
5492
330
4FF4
100
AcDbEntity
  8
AM_5
100
AcDbLine
 10
249.7958154372544
 20
-10.97607480751604
 30
0.0
 11
253.7958154372544
 21
-10.97607480751604
 31
0.0
  0
INSERT
  5
5493
330
4FF4
100
AcDbEntity
  8
AM_5
100
AcDbBlockReference
  2
GENDOT
 10
247.7958154372544
 20
-10.97607480751604
 30
0.0
 41
2.0
 42
2.0
 43
2.0
 50
180.0
  0
SOLID
  5
5494
330
4FF4
100
AcDbEntity
  8
AM_5
100
AcDbTrace
 10
253.7958154372544
 20
-10.6427414741827
 30
0.0
 11
253.7958154372544
 21
-11.30940814084937
 31
0.0
 12
255.7958154372544
 22
-10.97607480751604
 32
0.0
 13
255.7958154372544
 23
-10.97607480751604
 33
0.0
  0
MTEXT
  5
5495
330
4FF4
100
AcDbEntity
  8
AM_5
100
AcDbMText
 10
251.7958154372544
 20
-9.376074807516042
 30
0.0
 40
2.0
 41
0.0
 71
     5
 72
     1
  1
8
  0
POINT
  5
5496
330
4FF4
100
AcDbEntity
  8
DEFPOINTS
 62
     0
100
AcDbPoint
 10
247.7958154372544
 20
-3.074744221181051
 30
0.0
  0
POINT
  5
5497
330
4FF4
100
AcDbEntity
  8
DEFPOINTS
 62
     0
100
AcDbPoint
 10
255.7958154372544
 20
-3.074744221181049
 30
0.0
  0
POINT
  5
5498
330
4FF4
100
AcDbEntity
  8
DEFPOINTS
 62
     0
100
AcDbPoint
 10
255.7958154372544
 20
-10.97607480751604
 30
0.0
  0
ENDBLK
  5
4FFF
330
4FF4
100
AcDbEntity
  8
0
100
AcDbBlockEnd
  0
BLOCK
  5
5039
330
502F
100
AcDbEntity
  8
0
100
AcDbBlockBegin
  2
*D9
 70
     1
 10
0.0
 20
0.0
 30
0.0
  3
*D9
  1

  0
LINE
  5
5327
330
502F
100
AcDbEntity
  8
AM_5
100
AcDbLine
 10
210.7958154372544
 20
-3.074744221181049
 30
0.0
 11
210.7958154372544
 21
-17.47607480751605
 31
0.0
  0
LINE
  5
5328
330
502F
100
AcDbEntity
  8
AM_5
100
AcDbLine
 10
255.7958154372544
 20
-4.074744221181049
 30
0.0
 11
255.7958154372544
 21
-17.47607480751605
 31
0.0
  0
LINE
  5
5329
330
502F
100
AcDbEntity
  8
AM_5
100
AcDbLine
 10
212.7958154372544
 20
-15.97607480751605
 30
0.0
 11
253.7958154372544
 21
-15.97607480751605
 31
0.0
  0
SOLID
  5
532A
330
502F
100
AcDbEntity
  8
AM_5
100
AcDbTrace
 10
212.7958154372544
 20
-15.64274147418272
 30
0.0
 11
212.7958154372544
 21
-16.30940814084938
 31
0.0
 12
210.7958154372544
 22
-15.97607480751605
 32
0.0
 13
210.7958154372544
 23
-15.97607480751605
 33
0.0
  0
SOLID
  5
532B
330
502F
100
AcDbEntity
  8
AM_5
100
AcDbTrace
 10
253.7958154372544
 20
-15.64274147418272
 30
0.0
 11
253.7958154372544
 21
-16.30940814084938
 31
0.0
 12
255.7958154372544
 22
-15.97607480751605
 32
0.0
 13
255.7958154372544
 23
-15.97607480751605
 33
0.0
  0
MTEXT
  5
532C
330
502F
100
AcDbEntity
  8
AM_5
100
AcDbMText
 10
233.2958154372544
 20
-14.37607480751605
 30
0.0
 40
2.0
 41
0.0
 71
     5
 72
     1
  1
45+stroke
1001
ACAD
1000
MTEXTBEGIN
1070
    73
1070
     1
1070
    44
1040
1.0
1070
    74
1070
     0
1000
MTEXTEND
  0
POINT
  5
532D
330
502F
100
AcDbEntity
  8
DEFPOINTS
 62
     0
100
AcDbPoint
 10
210.7958154372544
 20
-2.074744221181049
 30
0.0
  0
POINT
  5
532E
330
502F
100
AcDbEntity
  8
DEFPOINTS
 62
     0
100
AcDbPoint
 10
255.7958154372544
 20
-3.074744221181049
 30
0.0
  0
POINT
  5
532F
330
502F
100
AcDbEntity
  8
DEFPOINTS
 62
     0
100
AcDbPoint
 10
255.7958154372544
 20
-15.97607480751605
 30
0.0
  0
ENDBLK
  5
503A
330
502F
100
AcDbEntity
  8
0
100
AcDbBlockEnd
  0
BLOCK
  5
5086
330
507C
100
AcDbEntity
  8
0
100
AcDbBlockBegin
  2
*D10
 70
     1
 10
0.0
 20
0.0
 30
0.0
  3
*D10
  1

  0
LINE
  5
5366
330
507C
100
AcDbEntity
  8
AM_5
100
AcDbLine
 10
274.657131464651
 20
-1.076662840668802
 30
0.0
 11
274.657131464651
 21
-12.47607480751597
 31
0.0
  0
LINE
  5
5367
330
507C
100
AcDbEntity
  8
AM_5
100
AcDbLine
 10
294.657131464651
 20
-4.645703938170811
 30
0.0
 11
294.657131464651
 21
-12.47607480751597
 31
0.0
  0
LINE
  5
5368
330
507C
100
AcDbEntity
  8
AM_5
100
AcDbLine
 10
276.657131464651
 20
-10.97607480751597
 30
0.0
 11
292.657131464651
 21
-10.97607480751597
 31
0.0
  0
SOLID
  5
5369
330
507C
100
AcDbEntity
  8
AM_5
100
AcDbTrace
 10
276.657131464651
 20
-10.64274147418264
 30
0.0
 11
276.657131464651
 21
-11.3094081408493
 31
0.0
 12
274.657131464651
 22
-10.97607480751597
 32
0.0
 13
274.657131464651
 23
-10.97607480751597
 33
0.0
  0
SOLID
  5
536A
330
507C
100
AcDbEntity
  8
AM_5
100
AcDbTrace
 10
292.657131464651
 20
-10.64274147418264
 30
0.0
 11
292.657131464651
 21
-11.3094081408493
 31
0.0
 12
294.657131464651
 22
-10.97607480751597
 32
0.0
 13
294.657131464651
 23
-10.97607480751597
 33
0.0
  0
MTEXT
  5
536B
330
507C
100
AcDbEntity
  8
AM_5
100
AcDbMText
 10
284.657131464651
 20
-9.375877957122273
 30
0.0
 40
2.0
 41
0.0
 71
     5
 72
     1
  1
20
1001
ACAD
1000
MTEXTBEGIN
1070
    73
1070
     1
1070
    44
1040
1.0
1070
    74
1070
     0
1000
MTEXTEND
  0
POINT
  5
536C
330
507C
100
AcDbEntity
  8
DEFPOINTS
 62
     0
100
AcDbPoint
 10
274.657131464651
 20
-0.0766628406688028
 30
0.0
  0
POINT
  5
536D
330
507C
100
AcDbEntity
  8
DEFPOINTS
 62
     0
100
AcDbPoint
 10
294.657131464651
 20
-3.645703938170811
 30
0.0
  0
POINT
  5
536E
330
507C
100
AcDbEntity
  8
DEFPOINTS
 62
     0
100
AcDbPoint
 10
294.657131464651
 20
-10.97607480751597
 30
0.0
  0
ENDBLK
  5
5087
330
507C
100
AcDbEntity
  8
0
100
AcDbBlockEnd
  0
BLOCK
  5
50AA
330
50A0
100
AcDbEntity
  8
0
100
AcDbBlockBegin
  2
*D11
 70
     1
 10
0.0
 20
0.0
 30
0.0
  3
*D11
  1

  0
LINE
  5
536F
330
50A0
100
AcDbEntity
  8
AM_5
100
AcDbLine
 10
294.657131464651
 20
-4.645703938170811
 30
0.0
 11
294.657131464651
 21
-12.47607480751593
 31
0.0
  0
LINE
  5
5370
330
50A0
100
AcDbEntity
  8
AM_5
100
AcDbLine
 10
314.6571314646509
 20
-1.076662840668802
 30
0.0
 11
314.6571314646509
 21
-12.47607480751593
 31
0.0
  0
LINE
  5
5371
330
50A0
100
AcDbEntity
  8
AM_5
100
AcDbLine
 10
296.657131464651
 20
-10.97607480751593
 30
0.0
 11
312.6571314646509
 21
-10.97607480751593
 31
0.0
  0
SOLID
  5
5372
330
50A0
100
AcDbEntity
  8
AM_5
100
AcDbTrace
 10
296.657131464651
 20
-10.6427414741826
 30
0.0
 11
296.657131464651
 21
-11.30940814084927
 31
0.0
 12
294.657131464651
 22
-10.97607480751593
 32
0.0
 13
294.657131464651
 23
-10.97607480751593
 33
0.0
  0
SOLID
  5
5373
330
50A0
100
AcDbEntity
  8
AM_5
100
AcDbTrace
 10
312.6571314646509
 20
-10.6427414741826
 30
0.0
 11
312.6571314646509
 21
-11.30940814084927
 31
0.0
 12
314.6571314646509
 22
-10.97607480751593
 32
0.0
 13
314.6571314646509
 23
-10.97607480751593
 33
0.0
  0
MTEXT
  5
5374
330
50A0
100
AcDbEntity
  8
AM_5
100
AcDbMText
 10
304.6571314646509
 20
-9.375877957122234
 30
0.0
 40
2.0
 41
0.0
 71
     5
 72
     1
  1
20
1001
ACAD
1000
MTEXTBEGIN
1070
    73
1070
     1
1070
    44
1040
1.0
1070
    74
1070
     0
1000
MTEXTEND
  0
POINT
  5
5375
330
50A0
100
AcDbEntity
  8
DEFPOINTS
 62
     0
100
AcDbPoint
 10
294.657131464651
 20
-3.645703938170811
 30
0.0
  0
POINT
  5
5376
330
50A0
100
AcDbEntity
  8
DEFPOINTS
 62
     0
100
AcDbPoint
 10
314.6571314646509
 20
-0.0766628406688028
 30
0.0
  0
POINT
  5
5377
330
50A0
100
AcDbEntity
  8
DEFPOINTS
 62
     0
100
AcDbPoint
 10
314.6571314646509
 20
-10.97607480751593
 30
0.0
  0
ENDBLK
  5
50AB
330
50A0
100
AcDbEntity
  8
0
100
AcDbBlockEnd
  0
BLOCK
  5
50CE
330
50C4
100
AcDbEntity
  8
0
100
AcDbBlockBegin
  2
*D12
 70
     1
 10
0.0
 20
0.0
 30
0.0
  3
*D12
  1

  0
LINE
  5
53BE
330
50C4
100
AcDbEntity
  8
AM_5
100
AcDbLine
 10
267.657131464651
 20
-0.0766628406688028
 30
0.0
 11
267.657131464651
 21
-17.47607480751592
 31
0.0
  0
LINE
  5
53BF
330
50C4
100
AcDbEntity
  8
AM_5
100
AcDbLine
 10
321.6571314646509
 20
-0.0766628406688028
 30
0.0
 11
321.6571314646509
 21
-17.47607480751592
 31
0.0
  0
LINE
  5
53C0
330
50C4
100
AcDbEntity
  8
AM_5
100
AcDbLine
 10
269.657131464651
 20
-15.97607480751592
 30
0.0
 11
319.6571314646509
 21
-15.97607480751592
 31
0.0
  0
SOLID
  5
53C1
330
50C4
100
AcDbEntity
  8
AM_5
100
AcDbTrace
 10
269.657131464651
 20
-15.64274147418258
 30
0.0
 11
269.657131464651
 21
-16.30940814084925
 31
0.0
 12
267.657131464651
 22
-15.97607480751592
 32
0.0
 13
267.657131464651
 23
-15.97607480751592
 33
0.0
  0
SOLID
  5
53C2
330
50C4
100
AcDbEntity
  8
AM_5
100
AcDbTrace
 10
319.6571314646509
 20
-15.64274147418258
 30
0.0
 11
319.6571314646509
 21
-16.30940814084925
 31
0.0
 12
321.6571314646509
 22
-15.97607480751592
 32
0.0
 13
321.6571314646509
 23
-15.97607480751592
 33
0.0
  0
MTEXT
  5
53C3
330
50C4
100
AcDbEntity
  8
AM_5
100
AcDbMText
 10
294.657131464651
 20
-14.37607480751592
 30
0.0
 40
2.0
 41
0.0
 71
     5
 72
     1
  1
54
1001
ACAD
1000
MTEXTBEGIN
1070
    73
1070
     1
1070
    44
1040
1.0
1070
    74
1070
     0
1000
MTEXTEND
  0
POINT
  5
53C4
330
50C4
100
AcDbEntity
  8
DEFPOINTS
 62
     0
100
AcDbPoint
 10
267.657131464651
 20
0.9233371593311971
 30
0.0
  0
POINT
  5
53C5
330
50C4
100
AcDbEntity
  8
DEFPOINTS
 62
     0
100
AcDbPoint
 10
321.6571314646509
 20
0.9233371593311971
 30
0.0
  0
POINT
  5
53C6
330
50C4
100
AcDbEntity
  8
DEFPOINTS
 62
     0
100
AcDbPoint
 10
321.6571314646509
 20
-15.97607480751592
 30
0.0
  0
ENDBLK
  5
50CF
330
50C4
100
AcDbEntity
  8
0
100
AcDbBlockEnd
  0
BLOCK
  5
50F2
330
50E8
100
AcDbEntity
  8
0
100
AcDbBlockBegin
  2
*D13
 70
     1
 10
0.0
 20
0.0
 30
0.0
  3
*D13
  1

  0
LINE
  5
535D
330
50E8
100
AcDbEntity
  8
AM_5
100
AcDbLine
 10
323.5660494141342
 20
15.42333715933119
 30
0.0
 11
331.3117764225394
 21
15.42333715933119
 31
0.0
  0
LINE
  5
535E
330
50E8
100
AcDbEntity
  8
AM_5
100
AcDbLine
 10
319.1571314646509
 20
3.423337159331196
 30
0.0
 11
331.3117764225394
 21
3.423337159331193
 31
0.0
  0
LINE
  5
535F
330
50E8
100
AcDbEntity
  8
AM_5
100
AcDbLine
 10
329.8117764225394
 20
13.42333715933119
 30
0.0
 11
329.8117764225394
 21
5.423337159331193
 31
0.0
  0
SOLID
  5
5360
330
50E8
100
AcDbEntity
  8
AM_5
100
AcDbTrace
 10
329.4784430892061
 20
13.42333715933119
 30
0.0
 11
330.1451097558727
 21
13.42333715933119
 31
0.0
 12
329.8117764225394
 22
15.42333715933119
 32
0.0
 13
329.8117764225394
 23
15.42333715933119
 33
0.0
  0
SOLID
  5
5361
330
50E8
100
AcDbEntity
  8
AM_5
100
AcDbTrace
 10
329.4784430892061
 20
5.423337159331193
 30
0.0
 11
330.1451097558727
 21
5.423337159331192
 31
0.0
 12
329.8117764225394
 22
3.423337159331193
 32
0.0
 13
329.8117764225394
 23
3.423337159331193
 33
0.0
  0
MTEXT
  5
5362
330
50E8
100
AcDbEntity
  8
AM_5
100
AcDbMText
 10
328.2115795721457
 20
9.423337159331248
 30
0.0
 40
2.0
 41
0.0
 71
     5
 72
     1
  1
12
 11
0.0000000000000001
 21
1.0
 31
0.0
1001
ACAD
1000
MTEXTBEGIN
1070
    73
1070
     1
1070
    44
1040
1.0
1070
    74
1070
     0
1000
MTEXTEND
  0
POINT
  5
5363
330
50E8
100
AcDbEntity
  8
DEFPOINTS
 62
     0
100
AcDbPoint
 10
322.5660494141342
 20
15.42333715933119
 30
0.0
  0
POINT
  5
5364
330
50E8
100
AcDbEntity
  8
DEFPOINTS
 62
     0
100
AcDbPoint
 10
318.157131464651
 20
3.423337159331197
 30
0.0
  0
POINT
  5
5365
330
50E8
100
AcDbEntity
  8
DEFPOINTS
 62
     0
100
AcDbPoint
 10
329.8117764225394
 20
3.423337159331193
 30
0.0
  0
ENDBLK
  5
50F3
330
50E8
100
AcDbEntity
  8
0
100
AcDbBlockEnd
  0
BLOCK
  5
5116
330
510C
100
AcDbEntity
  8
0
100
AcDbBlockBegin
  2
*D14
 70
     1
 10
0.0
 20
0.0
 30
0.0
  3
*D14
  1

  0
LINE
  5
5354
330
510C
100
AcDbEntity
  8
AM_5
100
AcDbLine
 10
323.5660494141342
 20
15.42333715933119
 30
0.0
 11
331.3117764225394
 21
15.42333715933119
 31
0.0
  0
LINE
  5
5355
330
510C
100
AcDbEntity
  8
AM_5
100
AcDbLine
 10
319.1571314646509
 20
27.42333715933119
 30
0.0
 11
331.3117764225394
 21
27.42333715933119
 31
0.0
  0
LINE
  5
5356
330
510C
100
AcDbEntity
  8
AM_5
100
AcDbLine
 10
329.8117764225394
 20
17.42333715933119
 30
0.0
 11
329.8117764225394
 21
25.42333715933119
 31
0.0
  0
SOLID
  5
5357
330
510C
100
AcDbEntity
  8
AM_5
100
AcDbTrace
 10
329.4784430892061
 20
17.42333715933119
 30
0.0
 11
330.1451097558727
 21
17.42333715933119
 31
0.0
 12
329.8117764225394
 22
15.42333715933119
 32
0.0
 13
329.8117764225394
 23
15.42333715933119
 33
0.0
  0
SOLID
  5
5358
330
510C
100
AcDbEntity
  8
AM_5
100
AcDbTrace
 10
329.4784430892061
 20
25.42333715933119
 30
0.0
 11
330.1451097558727
 21
25.42333715933119
 31
0.0
 12
329.8117764225394
 22
27.42333715933119
 32
0.0
 13
329.8117764225394
 23
27.42333715933119
 33
0.0
  0
MTEXT
  5
5359
330
510C
100
AcDbEntity
  8
AM_5
100
AcDbMText
 10
328.2115795721457
 20
21.42333715933124
 30
0.0
 40
2.0
 41
0.0
 71
     5
 72
     1
  1
12
 11
0.0000000000000001
 21
1.0
 31
0.0
1001
ACAD
1000
MTEXTBEGIN
1070
    73
1070
     1
1070
    44
1040
1.0
1070
    74
1070
     0
1000
MTEXTEND
  0
POINT
  5
535A
330
510C
100
AcDbEntity
  8
DEFPOINTS
 62
     0
100
AcDbPoint
 10
322.5660494141342
 20
15.42333715933119
 30
0.0
  0
POINT
  5
535B
330
510C
100
AcDbEntity
  8
DEFPOINTS
 62
     0
100
AcDbPoint
 10
318.157131464651
 20
27.42333715933119
 30
0.0
  0
POINT
  5
535C
330
510C
100
AcDbEntity
  8
DEFPOINTS
 62
     0
100
AcDbPoint
 10
329.8117764225394
 20
27.42333715933119
 30
0.0
  0
ENDBLK
  5
5117
330
510C
100
AcDbEntity
  8
0
100
AcDbBlockEnd
  0
BLOCK
  5
513A
330
5130
100
AcDbEntity
  8
0
100
AcDbBlockBegin
  2
*D15
 70
     1
 10
0.0
 20
0.0
 30
0.0
  3
*D15
  1

  0
LINE
  5
53E2
330
5130
100
AcDbEntity
  8
AM_5
100
AcDbLine
 10
318.6571314646509
 20
33.92333715933119
 30
0.0
 11
336.3117764225394
 21
33.92333715933119
 31
0.0
  0
LINE
  5
53E3
330
5130
100
AcDbEntity
  8
AM_5
100
AcDbLine
 10
318.6571314646509
 20
-3.076662840668802
 30
0.0
 11
336.3117764225394
 21
-3.076662840668808
 31
0.0
  0
LINE
  5
53E4
330
5130
100
AcDbEntity
  8
AM_5
100
AcDbLine
 10
334.8117764225394
 20
31.92333715933119
 30
0.0
 11
334.8117764225394
 21
-1.076662840668807
 31
0.0
  0
SOLID
  5
53E5
330
5130
100
AcDbEntity
  8
AM_5
100
AcDbTrace
 10
334.4784430892061
 20
31.92333715933119
 30
0.0
 11
335.1451097558727
 21
31.92333715933119
 31
0.0
 12
334.8117764225394
 22
33.92333715933119
 32
0.0
 13
334.8117764225394
 23
33.92333715933119
 33
0.0
  0
SOLID
  5
53E6
330
5130
100
AcDbEntity
  8
AM_5
100
AcDbTrace
 10
334.4784430892061
 20
-1.076662840668807
 30
0.0
 11
335.1451097558727
 21
-1.076662840668807
 31
0.0
 12
334.8117764225394
 22
-3.076662840668807
 32
0.0
 13
334.8117764225394
 23
-3.076662840668807
 33
0.0
  0
MTEXT
  5
53E7
330
5130
100
AcDbEntity
  8
AM_5
100
AcDbMText
 10
333.2117764225394
 20
15.42333715933124
 30
0.0
 40
2.0
 41
0.0
 71
     5
 72
     1
  1
37
 11
0.0000000000000001
 21
1.0
 31
0.0
1001
ACAD
1000
MTEXTBEGIN
1070
    73
1070
     1
1070
    44
1040
1.0
1070
    74
1070
     0
1000
MTEXTEND
  0
POINT
  5
53E8
330
5130
100
AcDbEntity
  8
DEFPOINTS
 62
     0
100
AcDbPoint
 10
317.6571314646509
 20
33.92333715933119
 30
0.0
  0
POINT
  5
53E9
330
5130
100
AcDbEntity
  8
DEFPOINTS
 62
     0
100
AcDbPoint
 10
317.6571314646509
 20
-3.076662840668802
 30
0.0
  0
POINT
  5
53EA
330
5130
100
AcDbEntity
  8
DEFPOINTS
 62
     0
100
AcDbPoint
 10
334.8117764225394
 20
-3.076662840668807
 30
0.0
  0
ENDBLK
  5
513B
330
5130
100
AcDbEntity
  8
0
100
AcDbBlockEnd
  0
BLOCK
  5
549E
330
5499
100
AcDbEntity
  8
0
100
AcDbBlockBegin
  2
*S16
 70
     1
 10
0.0
 20
0.0
 30
0.0
  3
*S16
  1

  0
LINE
  5
549A
330
5499
100
AcDbEntity
  8
AM_5
100
AcDbLine
 10
335.5181485988921
 20
38.41496915004381
 30
0.0
 11
323.2826561353342
 21
38.41496915004381
 31
0.0
  0
LINE
  5
549B
330
5499
100
AcDbEntity
  8
AM_5
100
AcDbLine
 10
323.2826561353342
 20
38.41496915004381
 30
0.0
 11
317.5821788435935
 21
30.92822121629323
 31
0.0
  0
TRACE
  5
549C
330
5499
100
AcDbEntity
  8
AM_5
100
AcDbTrace
 10
317.3622130838108
 20
31.09570512648993
 30
0.0
 11
317.8021446033761
 21
30.76073730609654
 31
0.0
 12
316.3100122382256
 22
29.25741538431072
 32
0.0
 13
316.3100122382256
 23
29.25741538431072
 33
0.0
  0
MTEXT
  5
549D
330
5499
100
AcDbEntity
  8
AM_5
 62
     2
100
AcDbMText
 10
335.5181485988921
 20
36.83907389589307
 30
0.0
 40
2.1
 41
0.0
 71
     7
 72
     1
  1

  7
ACISOTS
  0
ENDBLK
  5
549F
330
5499
100
AcDbEntity
  8
0
100
AcDbBlockEnd
  0
BLOCK
  5
54A7
330
54A2
100
AcDbEntity
  8
0
100
AcDbBlockBegin
  2
*S17
 70
     1
 10
0.0
 20
0.0
 30
0.0
  3
*S17
  1

  0
LINE
  5
54A3
330
54A2
100
AcDbEntity
  8
AM_5
100
AcDbLine
 10
238.6292180303815
 20
44.68120659035321
 30
0.0
 11
226.3937255668237
 21
44.68120659035321
 31
0.0
  0
LINE
  5
54A4
330
54A2
100
AcDbEntity
  8
AM_5
100
AcDbLine
 10
226.3937255668237
 20
44.68120659035321
 30
0.0
 11
218.7971830272835
 21
30.04232214451642
 31
0.0
  0
TRACE
  5
54A5
330
54A2
100
AcDbEntity
  8
AM_5
100
AcDbTrace
 10
218.5517864979276
 20
30.16966553473205
 30
0.0
 11
219.0425795566394
 21
29.91497875430079
 31
0.0
 12
217.8299139430091
 22
28.17835043909626
 32
0.0
 13
217.8299139430091
 23
28.17835043909626
 33
0.0
  0
MTEXT
  5
54A6
330
54A2
100
AcDbEntity
  8
AM_5
 62
     2
100
AcDbMText
 10
238.6292180303815
 20
43.10531133620247
 30
0.0
 40
2.1
 41
0.0
 71
     7
 72
     1
  1

  7
ACISOTS
  0
ENDBLK
  5
54A8
330
54A2
100
AcDbEntity
  8
0
100
AcDbBlockEnd
  0
ENDSEC
  0
SECTION
  2
ENTITIES
  0
INSERT
  5
51A
330
1E
100
AcDbEntity
  8
ASHADE
 62
     1
100
AcDbBlockReference
  2
AVE_RENDER
 10
0.0
 20
0.0
 30
0.0
1001
AVE_RENDER
1002
{
1070
     7
1000
Pref
1070
    30
1070
    20
1070
     1
1070
     0
1000

1070
    10
1070
     1
1070
    10
1040
1.0
1070
     1
1040
0.3
1040
0.7
1040
0.0
1040
10.0
1010
-1.0
1020
-1.0
1030
-1.0
1040
0.3
1070
    49
1070
     0
1070
     0
1010
1.0
1020
1.0
1030
1.0
1040
45.0
1070
     1
1070
     0
1000
WCS
1040
0.0
1070
     0
1040
10.0
1002
}
  0
INSERT
  5
51B
330
1E
100
AcDbEntity
  8
ASHADE
 62
     3
100
AcDbBlockReference
  2
AVE_RENDER
 10
0.0
 20
0.0
 30
0.0
1001
AVE_RENDER
1002
{
1070
     0
1000
Full Opt
1070
     0
1070
     1
1070
     1
1070
     1
1070
     0
1070
     0
1070
     0
1070
     1
1070
     1
1040
0.0001
1040
0.0001
1002
}
  0
INSERT
  5
51C
330
1E
100
AcDbEntity
  8
ASHADE
 62
     4
100
AcDbBlockReference
  2
AVE_RENDER
 10
0.0
 20
0.0
 30
0.0
1001
AVE_RENDER
1002
{
1070
     0
1000
Quick Opt
1070
     0
1070
     1
1070
     1
1070
     1
1070
     0
1070
     0
1070
     1
1002
}
  0
INSERT
  5
51D
330
1E
100
AcDbEntity
  8
ASHADE
 62
     5
100
AcDbBlockReference
  2
AVE_RENDER
 10
0.0
 20
0.0
 30
0.0
1001
AVE_RENDER
1002
{
1070
     1
1000
Scanl Opt
1070
     2
1070
     0
1070
     2
1040
2.0
1040
4.0
1070
     0
1070
     1
1070
     0
1040
0.03
1002
}
  0
INSERT
  5
51E
330
1E
100
AcDbEntity
  8
ASHADE
 62
     6
100
AcDbBlockReference
  2
AVE_RENDER
 10
0.0
 20
0.0
 30
0.0
1001
AVE_RENDER
1002
{
1070
     2
1000
Raytr Opt
1070
     2
1070
     0
1070
     2
1040
2.0
1040
4.0
1070
     0
1070
     1
1070
     1
1040
0.03
1070
     3
1040
0.03
1002
}
  0
INSERT
  5
51F
330
1E
100
AcDbEntity
  8
ASHADE
 62
     7
100
AcDbBlockReference
  2
AVE_RENDER
 10
0.0
 20
0.0
 30
0.0
1001
AVE_RENDER
1002
{
1070
     0
1000
RFile Opt
1070
     1
1070
   640
1070
   480
1070
 10000
1070
     1
1070
     8
1070
     8
1070
     0
1070
     0
1070
     0
1070
     0
1070
     0
1070
     0
1070
     0
1002
}
  0
INSERT
  5
520
330
1E
100
AcDbEntity
  8
ASHADE
 62
     8
100
AcDbBlockReference
  2
AVE_RENDER
 10
0.0
 20
0.0
 30
0.0
1001
AVE_RENDER
1002
{
1070
     0
1000
Fog Opt
1070
     0
1070
     0
1040
0.0
1040
1.0
1040
0.0
1040
1.0
1010
0.5
1020
0.5
1030
0.5
1002
}
  0
INSERT
  5
521
330
1E
100
AcDbEntity
  8
ASHADE
 62
     9
100
AcDbBlockReference
  2
AVE_RENDER
 10
0.0
 20
0.0
 30
0.0
1001
AVE_RENDER
1002
{
1070
     0
1000
BG Opt
1070
     0
1070
     1
1010
0.0
1020
0.0
1030
0.0
1010
1.0
1020
0.0
1030
0.0
1010
0.0
1020
1.0
1030
0.0
1010
0.0
1020
0.0
1030
1.0
1040
0.5
1040
0.33
1040
0.0
1000

1070
     1
1000

1070
     1
1070
     1
1040
1.0
1040
1.0
1040
0.0
1040
0.0
1070
     0
1002
}
  0
INSERT
  5
528
330
1E
100
AcDbEntity
  8
ASHADE
 62
     1
100
AcDbBlockReference
  2
AVE_GLOBAL
 10
0.0
 20
0.0
 30
0.0
1001
AVE_MATERIAL
1002
{
1000
*整體*
1000
2
1000
整體修飾.
1002
{
1002
}
1002
{
1070
    63
1002
{
1002
{
1010
-1.0
1020
-1.0
1030
-1.0
1002
}
1040
0.1000000014901161
1000

1040
0.0
1002
{
1002
}
1040
0.0
1002
{
1002
}
1040
0.0
1002
}
1002
{
1002
{
1010
-1.0
1020
-1.0
1030
-1.0
1002
}
1040
0.6999999880790711
1000

1040
0.0
1002
{
1002
}
1040
0.0
1002
{
1002
}
1040
0.0
1002
}
1002
{
1002
{
1010
-1.0
1020
-1.0
1030
-1.0
1002
}
1040
0.2000000029802322
1000

1040
0.0
1002
{
1002
}
1040
0.0
1002
{
1002
}
1040
0.0
1002
}
1002
{
1070
     0
1002
{
1070
     1
1002
{
1040
1.0
1040
1.0
1000

1040
0.0
1002
{
1002
}
1040
0.0
1002
{
1002
}
1040
0.0
1002
}
1002
}
1040
1.0
1040
0.0
1040
0.0
1002
}
1002
{
1040
1.0
1040
1.0
1000

1040
0.0
1002
{
1002
}
1040
0.0
1002
{
1002
}
1040
0.0
1002
}
1002
{
1040
0.5
1040
1.0
1000

1040
0.0
1002
{
1002
}
1040
0.0
1002
{
1002
}
1040
0.0
1002
}
1002
{
1070
     0
1040
0.0
1002
{
1002
}
1040
1.0
1002
{
1002
}
1040
0.0
1002
}
1002
{
1040
0.0
1002
{
1002
{
1010
0.0
1020
0.0
1030
0.0
1002
}
1040
1.0
1000

1040
0.0
1002
{
1002
}
1040
0.0
1002
{
1002
}
1040
0.0
1002
}
1002
}
1002
{
1002
{
1070
     1
1002
{
1040
0.0
1040
1.0
1000

1040
0.0
1002
{
1002
}
1040
0.0
1002
{
1002
}
1040
0.0
1002
}
1002
}
1040
0.0
1002
{
1002
}
1010
1.0
1020
0.0
1030
0.0
1010
0.0
1020
1.0
1030
0.0
1010
0.0
1020
0.0
1030
1.0
1070
     0
1002
}
1002
{
1002
{
1040
1.0
1040
1.0
1002
{
1070
     1
1002
{
1040
1.0
1040
1.0
1000

1040
0.0
1002
{
1002
}
1040
0.0
1002
{
1002
}
1040
0.0
1002
}
1002
}
1002
}
1070
     0
1040
0.0
1002
{
1002
}
1002
}
1002
{
1002
}
1002
}
1002
{
1071
        3
1070
     3
1070
     0
1002
{
1070
     2
1070
     0
1070
     0
1040
0.0
1002
}
1070
     0
1070
     2
1002
{
1002
}
1002
}
1002
{
1040
8030.0
1040
190.3000030517578
1040
0.3050000071525574
1040
228.0
1040
545.0
1040
14.0
1040
17.39999961853027
1040
0.4560000002384186
1002
}
1002
}
  0
TEXT
  5
2F4E
330
1E
100
AcDbEntity
  8
LOGO
 62
     7
100
AcDbText
 10
244.3963874234335
 20
-35.04922997617807
 30
0.0
 40
2.606334841628958
  1
Order example:
 41
0.8
  7
CHINESET
100
AcDbText
  0
TEXT
  5
2F4F
330
1E
100
AcDbEntity
  8
LOGO
 62
     7
100
AcDbText
 10
244.8639854475338
 20
-31.38005016767932
 30
0.0
 40
3.909502262443438
  1
訂購代號:
  7
CHINESET
100
AcDbText
  0
LINE
  5
2F50
330
1E
100
AcDbEntity
  8
LOGO
 62
     1
100
AcDbLine
 10
344.2594012076883
 20
-26.48579789962392
 30
0.0
 11
200.2594012076881
 21
-26.48579789962392
 31
0.0
  0
LINE
  5
2F51
330
1E
100
AcDbEntity
  8
LOGO
 62
     1
100
AcDbLine
 10
344.2594012076883
 20
-46.03330921184116
 30
0.0
 11
200.2594012076881
 21
-46.03330921184116
 31
0.0
  0
TEXT
  5
2F5E
330
1E
100
AcDbEntity
  8
0
100
AcDbText
 10
206.6303224245429
 20
64.28433491210656
 30
0.0
 40
3.455999999999999
  1
MCGJ-12-%%C25
  7
CHINESET
100
AcDbText
  0
TEXT
  5
2F5F
330
1E
100
AcDbEntity
  8
0
100
AcDbText
 10
206.8752489386104
 20
57.12269528777409
 30
0.0
 40
4.319999999999999
  1
stroke=0mm
  7
CHINESET
100
AcDbText
  0
LINE
  5
2F61
330
1E
100
AcDbEntity
  8
0
 62
     4
100
AcDbLine
 10
200.2594012076882
 20
72.38510954831633
 30
0.0
 11
344.2594012076883
 21
72.38510954831633
 31
0.0
  0
LINE
  5
2F62
330
1E
100
AcDbEntity
  8
0
 62
     4
100
AcDbLine
 10
344.259401207688
 20
-26.48579789962392
 30
0.0
 11
200.2594012076882
 21
-26.48579789962392
 31
0.0
  0
LINE
  5
2F63
330
1E
100
AcDbEntity
  8
0
 62
     4
100
AcDbLine
 10
200.2594012076881
 20
-26.48579789962392
 30
0.0
 11
200.2594012076882
 21
72.38510954831633
 31
0.0
  0
LINE
  5
2F64
330
1E
100
AcDbEntity
  8
LOGO
 62
     1
100
AcDbLine
 10
243.2639260945659
 20
-46.03330921184116
 30
0.0
 11
243.2639260945659
 21
-26.48579789962392
 31
0.0
  0
LINE
  5
2F65
330
1E
100
AcDbEntity
  8
LOGO
 62
     1
100
AcDbLine
 10
200.2594012076881
 20
-46.03330921184116
 30
0.0
 11
200.2594012076881
 21
-26.48579789962392
 31
0.0
  0
TEXT
  5
2F66
330
1E
100
AcDbEntity
  8
LOGO
  6
CONTINUOUS
 62
     5
100
AcDbText
 10
200.8992242571626
 20
-42.19323011432279
 30
0.0
 40
2.932126696832579
  1
金器工業股份有限公司
 41
0.8
  7
LOGO
100
AcDbText
  0
TEXT
  5
2F67
330
1E
100
AcDbEntity
  8
LOGO
  6
CONTINUOUS
 62
     5
100
AcDbText
 10
201.7388084941152
 20
-45.12593127810027
 30
0.0
 40
1.954751131221719
  1
MINDMAN INDUSTRIAL CO.,LTD
 41
0.85
  7
CHINESET
100
AcDbText
  0
LINE
  5
2F68
330
1E
100
AcDbEntity
  8
LOGO
 62
     1
100
AcDbLine
 10
243.2639260945659
 20
-30.3953001620673
 30
0.0
 11
214.5942428366474
 21
-30.3953001620673
 31
0.0
  0
LINE
  5
2F69
330
1E
100
AcDbEntity
  8
LOGO
 62
     1
100
AcDbLine
 10
243.2639260945659
 20
-34.30480242451085
 30
0.0
 11
214.5942428366474
 21
-34.30480242451085
 31
0.0
  0
LINE
  5
2F6A
330
1E
100
AcDbEntity
  8
LOGO
 62
     1
100
AcDbLine
 10
243.2639260945659
 20
-38.21430468695423
 30
0.0
 11
200.2594012076881
 21
-38.21430468695423
 31
0.0
  0
SOLID
  5
2F6B
330
1E
100
AcDbEntity
  8
LOGO
 62
     5
100
AcDbTrace
 10
202.2874868777003
 20
-34.9648091682117
 30
0.0
 11
203.1326699741708
 21
-34.96480916821202
 31
0.0
 12
206.6591235835829
 22
-26.95014187409384
 32
0.0
 13
207.5043066800534
 23
-26.95014187409449
 33
0.0
  0
SOLID
  5
2F6C
330
1E
100
AcDbEntity
  8
LOGO
 62
     5
100
AcDbTrace
 10
203.482400910642
 20
-34.9648091682117
 30
0.0
 11
204.3275840071124
 21
-34.9648091682117
 31
0.0
 12
207.5043066800534
 22
-27.59131525762366
 32
0.0
 13
206.6591235835829
 23
-30.69031994468266
 33
0.0
  0
SOLID
  5
2F6D
330
1E
100
AcDbEntity
  8
LOGO
 62
     2
100
AcDbTrace
 10
203.1326699741708
 20
-34.96480916821202
 30
0.0
 11
203.482400910642
 21
-34.9648091682117
 31
0.0
 12
207.5043066800534
 22
-26.95014187409449
 32
0.0
 13
207.8540376165242
 23
-26.95014187409449
 33
0.0
  0
SOLID
  5
2F6E
330
1E
100
AcDbEntity
  8
LOGO
 62
     5
100
AcDbTrace
 10
200.9324511097743
 20
-37.8792336387997
 30
0.0
 11
201.2238935568336
 21
-37.8792336387997
 31
0.0
 12
202.0446181718181
 22
-36.42202140350594
 32
0.0
 13
202.3360606188768
 23
-36.42202140350594
 33
0.0
  0
SOLID
  5
2F6F
330
1E
100
AcDbEntity
  8
LOGO
 62
     5
100
AcDbTrace
 10
202.0446181718181
 20
-36.42202140350594
 30
0.0
 11
202.3360606188768
 21
-36.42202140350594
 31
0.0
 12
202.0446181718181
 22
-37.8792336387997
 32
0.0
 13
202.3360606188768
 23
-37.8792336387997
 33
0.0
  0
SOLID
  5
2F70
330
1E
100
AcDbEntity
  8
LOGO
 62
     5
100
AcDbTrace
 10
202.0446181718181
 20
-37.8792336387997
 30
0.0
 11
202.3360606188768
 21
-37.8792336387997
 31
0.0
 12
203.1567852338624
 22
-36.42202140350594
 32
0.0
 13
203.4482276809209
 23
-36.42202140350594
 33
0.0
  0
SOLID
  5
2F71
330
1E
100
AcDbEntity
  8
LOGO
 62
     5
100
AcDbTrace
 10
203.1567852338624
 20
-36.42202140350594
 30
0.0
 11
203.4482276809209
 21
-36.42202140350594
 31
0.0
 12
203.1567852338624
 22
-37.8792336387997
 32
0.0
 13
203.4482276809209
 23
-37.8792336387997
 33
0.0
  0
POLYLINE
  5
2F72
330
1E
100
AcDbEntity
  8
LOGO
 62
     5
100
AcDb2dPolyline
 66
     1
 10
0.0
 20
0.0
 30
0.0
 40
0.2919095022624434
 41
0.2919095022624434
  0
VERTEX
  5
2F73
330
2F72
100
AcDbEntity
  8
LOGO
 62
     5
100
AcDbVertex
100
AcDb2dVertex
 10
212.9258367781533
 20
-37.00490629762358
 30
0.0
 42
1.0
  0
VERTEX
  5
2F74
330
2F72
100
AcDbEntity
  8
LOGO
 62
     5
100
AcDbVertex
100
AcDb2dVertex
 10
212.0501082713658
 20
-37.00490629762358
 30
0.0
 42
1.0
  0
SEQEND
  5
2F75
330
2F72
100
AcDbEntity
  8
LOGO
 62
     5
  0
POLYLINE
  5
2F76
330
1E
100
AcDbEntity
  8
LOGO
 62
     5
100
AcDb2dPolyline
 66
     1
 10
0.0
 20
0.0
 30
0.0
 70
     1
  0
VERTEX
  5
2F77
330
2F76
100
AcDbEntity
  8
LOGO
 62
     5
100
AcDbVertex
100
AcDb2dVertex
 10
210.3993210836674
 20
-37.1506275211529
 30
0.0
 42
1.000000057330635
  0
VERTEX
  5
2F78
330
2F76
100
AcDbEntity
  8
LOGO
 62
     5
100
AcDbVertex
100
AcDb2dVertex
 10
211.273648424844
 20
-37.1506275211529
 30
0.0
 42
1.000000057330635
  0
SEQEND
  5
2F79
330
2F76
100
AcDbEntity
  8
LOGO
 62
     5
  0
CIRCLE
  5
2F7A
330
1E
100
AcDbEntity
  8
LOGO
 62
     5
100
AcDbCircle
 10
210.8364847542558
 20
-37.1506275211529
 30
0.0
 40
0.4371636705882354
  0
POLYLINE
  5
2F7B
330
1E
100
AcDbEntity
  8
LOGO
 62
     5
100
AcDb2dPolyline
 66
     1
 10
0.0
 20
0.0
 30
0.0
 70
     1
 40
0.2919095022624434
 41
0.2919095022624434
  0
VERTEX
  5
2F7C
330
2F7B
100
AcDbEntity
  8
LOGO
 62
     5
100
AcDbVertex
100
AcDb2dVertex
 10
210.2526657497308
 20
-37.1506275211529
 30
0.0
 42
1.0
  0
VERTEX
  5
2F7D
330
2F7B
100
AcDbEntity
  8
LOGO
 62
     5
100
AcDbVertex
100
AcDb2dVertex
 10
211.4203037587806
 20
-37.1506275211529
 30
0.0
 42
1.0
  0
SEQEND
  5
2F7E
330
2F7B
100
AcDbEntity
  8
LOGO
 62
     5
  0
LINE
  5
2F7F
330
1E
100
AcDbEntity
  8
LOGO
 62
     5
100
AcDbLine
 10
213.0708574188771
 20
-37.8792336387997
 30
0.0
 11
213.0708574188771
 21
-37.00490629762358
 31
0.0
  0
SOLID
  5
2F80
330
1E
100
AcDbEntity
  8
LOGO
 62
     5
100
AcDbTrace
 10
211.2736192805999
 20
-36.42202140350594
 30
0.0
 11
211.5650617276584
 21
-36.42202140350594
 31
0.0
 12
211.2736192805999
 22
-37.8792336387997
 32
0.0
 13
211.5650617276584
 23
-37.8792336387997
 33
0.0
  0
SOLID
  5
2F81
330
1E
100
AcDbEntity
  8
LOGO
 62
     5
100
AcDbTrace
 10
211.9050876306416
 20
-37.8792336387997
 30
0.0
 11
212.1965300777008
 21
-37.8792336387997
 31
0.0
 12
211.9050876306416
 22
-36.42202140350594
 32
0.0
 13
212.1965300777008
 23
-36.42202140350594
 33
0.0
  0
SOLID
  5
2F82
330
1E
100
AcDbEntity
  8
LOGO
 62
     5
100
AcDbTrace
 10
212.7794149718184
 20
-37.00490629762358
 30
0.0
 11
213.0708574188771
 21
-37.00490629762358
 31
0.0
 12
212.7794149718184
 22
-37.8792336387997
 32
0.0
 13
213.0708574188771
 23
-37.8792336387997
 33
0.0
  0
LINE
  5
2F83
330
1E
100
AcDbEntity
  8
LOGO
 62
     1
100
AcDbLine
 10
214.5942428366474
 20
-38.21430468695423
 30
0.0
 11
214.5942428366474
 21
-26.48579789962392
 31
0.0
  0
SOLID
  5
2F84
330
1E
100
AcDbEntity
  8
LOGO
 62
     5
100
AcDbTrace
 10
211.8759433859357
 20
-27.59131525762366
 30
0.0
 11
211.0307602894652
 21
-30.69031994468266
 31
0.0
 12
211.8759433859357
 22
-34.96480916821202
 32
0.0
 13
211.0307602894652
 23
-34.96480916821202
 33
0.0
  0
SOLID
  5
2F85
330
1E
100
AcDbEntity
  8
LOGO
 62
     5
100
AcDbTrace
 10
212.2256743224065
 20
-34.96480916821202
 30
0.0
 11
213.0708574188771
 21
-34.96480916821202
 31
0.0
 12
212.2256743224065
 22
-26.95014187409449
 32
0.0
 13
213.0708574188771
 23
-26.95014187409384
 33
0.0
  0
SOLID
  5
2F86
330
1E
100
AcDbEntity
  8
LOGO
 62
     2
100
AcDbTrace
 10
211.8759433859357
 20
-26.95014187409384
 30
0.0
 11
212.2256743224065
 21
-26.95014187409449
 31
0.0
 12
211.8759433859357
 22
-34.96480916821202
 32
0.0
 13
212.2256743224065
 23
-34.96480916821202
 33
0.0
  0
POLYLINE
  5
2F87
330
1E
100
AcDbEntity
  8
LOGO
 62
     5
100
AcDb2dPolyline
 66
     1
 10
0.0
 20
0.0
 30
0.0
 40
0.2919095022624434
 41
0.2919095022624434
  0
VERTEX
  5
2F88
330
2F87
100
AcDbEntity
  8
LOGO
 62
     5
100
AcDbVertex
100
AcDb2dVertex
 10
208.7484756074802
 20
-37.00490629762358
 30
0.0
 42
1.0
  0
VERTEX
  5
2F89
330
2F87
100
AcDbEntity
  8
LOGO
 62
     5
100
AcDbVertex
100
AcDb2dVertex
 10
207.8727471006927
 20
-37.00490629762358
 30
0.0
 42
1.0
  0
SEQEND
  5
2F8A
330
2F87
100
AcDbEntity
  8
LOGO
 62
     5
  0
POLYLINE
  5
2F8B
330
1E
100
AcDbEntity
  8
LOGO
 62
     5
100
AcDb2dPolyline
 66
     1
 10
0.0
 20
0.0
 30
0.0
 40
0.2919095022624434
 41
0.2919095022624434
  0
VERTEX
  5
2F8C
330
2F8B
100
AcDbEntity
  8
LOGO
 62
     5
100
AcDbVertex
100
AcDb2dVertex
 10
209.6228029486565
 20
-37.00490629762358
 30
0.0
 42
1.0
  0
VERTEX
  5
2F8D
330
2F8B
100
AcDbEntity
  8
LOGO
 62
     5
100
AcDbVertex
100
AcDb2dVertex
 10
208.747074441869
 20
-37.00490629762358
 30
0.0
 42
1.0
  0
SEQEND
  5
2F8E
330
2F8B
100
AcDbEntity
  8
LOGO
 62
     5
  0
POLYLINE
  5
2F8F
330
1E
100
AcDbEntity
  8
LOGO
 62
     5
100
AcDb2dPolyline
 66
     1
 10
0.0
 20
0.0
 30
0.0
 40
0.2919095022624434
 41
0.2919095022624434
  0
VERTEX
  5
2F90
330
2F8F
100
AcDbEntity
  8
LOGO
 62
     5
100
AcDbVertex
100
AcDb2dVertex
 10
205.4454417779836
 20
-37.00490629762358
 30
0.0
 42
1.0
  0
VERTEX
  5
2F91
330
2F8F
100
AcDbEntity
  8
LOGO
 62
     5
100
AcDbVertex
100
AcDb2dVertex
 10
204.5697132711962
 20
-37.00490629762358
 30
0.0
 42
1.0
  0
SEQEND
  5
2F92
330
2F8F
100
AcDbEntity
  8
LOGO
 62
     5
  0
SOLID
  5
2F93
330
1E
100
AcDbEntity
  8
LOGO
 62
     5
100
AcDbTrace
 10
204.4246926304725
 20
-36.42202140350594
 30
0.0
 11
204.716135077531
 21
-36.42202140350594
 31
0.0
 12
204.4246926304725
 22
-37.8792336387997
 32
0.0
 13
204.716135077531
 23
-37.8792336387997
 33
0.0
  0
SOLID
  5
2F94
330
1E
100
AcDbEntity
  8
LOGO
 62
     5
100
AcDbTrace
 10
205.2990199716488
 20
-37.00490629762358
 30
0.0
 11
205.5904624187078
 21
-37.00490629762358
 31
0.0
 12
205.2990199716488
 22
-37.8792336387997
 32
0.0
 13
205.5904624187078
 23
-37.8792336387997
 33
0.0
  0
POLYLINE
  5
2F95
330
1E
100
AcDbEntity
  8
LOGO
 62
     5
100
AcDb2dPolyline
 66
     1
 10
0.0
 20
0.0
 30
0.0
 70
     1
 40
0.2919095022624434
 41
0.2919095022624434
  0
VERTEX
  5
2F96
330
2F95
100
AcDbEntity
  8
LOGO
 62
     5
100
AcDbVertex
100
AcDb2dVertex
 10
206.0753045790577
 20
-37.1506275211529
 30
0.0
 42
1.0
  0
VERTEX
  5
2F97
330
2F95
100
AcDbEntity
  8
LOGO
 62
     5
100
AcDbVertex
100
AcDb2dVertex
 10
207.2429425881074
 20
-37.1506275211529
 30
0.0
 42
1.0
  0
SEQEND
  5
2F98
330
2F95
100
AcDbEntity
  8
LOGO
 62
     5
  0
SOLID
  5
2F99
330
1E
100
AcDbEntity
  8
LOGO
 62
     5
100
AcDbTrace
 10
207.0962581099267
 20
-35.98485773291747
 30
0.0
 11
207.3877005569852
 21
-35.98485773291747
 31
0.0
 12
207.0962581099267
 22
-37.8792336387997
 32
0.0
 13
207.3877005569852
 23
-37.8792336387997
 33
0.0
  0
SOLID
  5
2F9A
330
1E
100
AcDbEntity
  8
LOGO
 62
     5
100
AcDbTrace
 10
207.7277264599691
 20
-36.42202140350594
 30
0.0
 11
208.0191689070278
 21
-36.42202140350594
 31
0.0
 12
207.7277264599691
 22
-37.8792336387997
 32
0.0
 13
208.0191689070278
 23
-37.8792336387997
 33
0.0
  0
SOLID
  5
2F9B
330
1E
100
AcDbEntity
  8
LOGO
 62
     5
100
AcDbTrace
 10
208.6020538011454
 20
-37.00490629762358
 30
0.0
 11
208.8934962482041
 21
-37.00490629762358
 31
0.0
 12
208.6020538011454
 22
-37.8792336387997
 32
0.0
 13
208.8934962482041
 23
-37.8792336387997
 33
0.0
  0
SOLID
  5
2F9C
330
1E
100
AcDbEntity
  8
LOGO
 62
     5
100
AcDbTrace
 10
209.4763811423217
 20
-37.00490629762358
 30
0.0
 11
209.7678235893802
 21
-37.00490629762358
 31
0.0
 12
209.4763811423217
 22
-37.87923363880036
 32
0.0
 13
209.7678235893802
 23
-37.87923363880036
 33
0.0
  0
SOLID
  5
2F9D
330
1E
100
AcDbEntity
  8
LOGO
 62
     5
100
AcDbTrace
 10
203.7932242804298
 20
-36.21801169056492
 30
0.0
 11
204.0846667274893
 21
-36.21801169056492
 31
0.0
 12
203.7932242804298
 22
-35.98485773291747
 32
0.0
 13
204.0846667274893
 23
-35.98485773291747
 33
0.0
  0
SOLID
  5
2F9E
330
1E
100
AcDbEntity
  8
LOGO
 62
     5
100
AcDbTrace
 10
203.7932242804298
 20
-36.42202140350594
 30
0.0
 11
204.0846667274893
 21
-36.42202140350594
 31
0.0
 12
203.7932242804298
 22
-37.87923363880036
 32
0.0
 13
204.0846667274893
 23
-37.8792336387997
 33
0.0
  0
SOLID
  5
2F9F
330
1E
100
AcDbEntity
  8
LOGO
 62
     5
100
AcDbTrace
 10
206.6591235835829
 20
-34.9648091682117
 30
0.0
 11
207.5043066800534
 21
-34.9648091682117
 31
0.0
 12
206.6591235835829
 22
-30.69031994468266
 32
0.0
 13
207.5043066800534
 23
-27.59131525762366
 33
0.0
  0
SOLID
  5
2FA0
330
1E
100
AcDbEntity
  8
LOGO
 62
     5
100
AcDbTrace
 10
207.8540376165242
 20
-26.95014187409449
 30
0.0
 11
208.6992207129948
 21
-26.95014187409384
 31
0.0
 12
207.8540376165242
 22
-34.32363578468253
 32
0.0
 13
208.6992207129948
 23
-31.22463109762353
 33
0.0
  0
SOLID
  5
2FA1
330
1E
100
AcDbEntity
  8
LOGO
 62
     2
100
AcDbTrace
 10
207.5043066800534
 20
-26.95014187409449
 30
0.0
 11
207.8540376165242
 21
-26.95014187409449
 31
0.0
 12
207.5043066800534
 22
-34.9648091682117
 32
0.0
 13
207.8540376165242
 23
-34.9648091682117
 33
0.0
  0
SOLID
  5
2FA2
330
1E
100
AcDbEntity
  8
LOGO
 62
     5
100
AcDbTrace
 10
207.8540376165242
 20
-34.32363578468253
 30
0.0
 11
208.6992207129948
 21
-31.22463109762353
 31
0.0
 12
211.8759433859357
 22
-26.95014187409384
 32
0.0
 13
211.0307602894652
 23
-26.95014187409384
 33
0.0
  0
SOLID
  5
2FA3
330
1E
100
AcDbEntity
  8
LOGO
 62
     5
100
AcDbTrace
 10
207.8540376165242
 20
-34.9648091682117
 30
0.0
 11
208.6992207129948
 21
-34.9648091682117
 31
0.0
 12
211.8759433859357
 22
-27.59131525762366
 32
0.0
 13
211.0307602894652
 23
-30.69031994468266
 33
0.0
  0
SOLID
  5
2FA4
330
1E
100
AcDbEntity
  8
LOGO
 62
     2
100
AcDbTrace
 10
207.5043066800534
 20
-34.9648091682117
 30
0.0
 11
207.8540376165242
 21
-34.9648091682117
 31
0.0
 12
211.8759433859357
 22
-26.95014187409384
 32
0.0
 13
212.2256743224065
 23
-26.95014187409449
 33
0.0
  0
TEXT
  5
2FA5
330
1E
100
AcDbEntity
  8
LOGO
 62
     6
100
AcDbText
 10
233.1647008957859
 20
-37.23692912134339
 30
0.0
 40
1.954751131221719
  1
m/m
  7
CHINESET
 72
     1
 11
236.6087862222241
 21
-36.25955355573253
 31
0.0
100
AcDbText
 73
     2
  0
TEXT
  5
2FA6
330
1E
100
AcDbEntity
  8
LOGO
 62
     6
100
AcDbText
 10
233.1647008957859
 20
-29.41792459645647
 30
0.0
 40
1.954751131221719
  1
1 : 1
  7
CHINESET
 72
     1
 11
236.6087862222241
 21
-28.44054903084561
 31
0.0
100
AcDbText
 73
     2
  0
LINE
  5
2FA7
330
1E
100
AcDbEntity
  8
LOGO
 62
     1
100
AcDbLine
 10
230.2322518864211
 20
-38.21430468695423
 30
0.0
 11
230.2322518864211
 21
-26.48579789962392
 31
0.0
  0
CIRCLE
  5
2FA8
330
1E
100
AcDbEntity
  8
LOGO
  6
CONTINUOUS
 62
     6
100
AcDbCircle
 10
233.8517181022847
 20
-32.34587006631493
 30
0.0
 40
1.134974516442455
  0
CIRCLE
  5
2FA9
330
1E
100
AcDbEntity
  8
LOGO
  6
CONTINUOUS
 62
     6
100
AcDbCircle
 10
233.8517181022847
 20
-32.34587006631493
 30
0.0
 40
0.6649945930259992
  0
LINE
  5
2FAA
330
1E
100
AcDbEntity
  8
LOGO
 62
     6
100
AcDbLine
 10
240.984029660483
 20
-33.48084458275743
 30
0.0
 11
240.984029660483
 21
-31.21089554987241
 31
0.0
  0
LINE
  5
2FAB
330
1E
100
AcDbEntity
  8
LOGO
 62
     6
100
AcDbLine
 10
237.4259497020816
 20
-33.01086465934087
 30
0.0
 11
237.4259497020816
 21
-31.6808754732888
 31
0.0
  0
LINE
  5
2FAC
330
1E
100
AcDbEntity
  8
LOGO
  6
CONTINUOUS
 62
     6
100
AcDbLine
 10
237.4259497020816
 20
-31.6808754732888
 30
0.0
 11
240.984029660483
 21
-31.21089554987241
 31
0.0
  0
LINE
  5
2FAD
330
1E
100
AcDbEntity
  8
LOGO
  6
CONTINUOUS
 62
     6
100
AcDbLine
 10
237.4259497020816
 20
-33.01086465934087
 30
0.0
 11
240.984029660483
 21
-33.48084458275743
 31
0.0
  0
LINE
  5
2FDF
330
1E
100
AcDbEntity
  8
0
 62
     4
100
AcDbLine
 10
344.259401207688
 20
-26.48579789962392
 30
0.0
 11
344.2594012076883
 21
72.38510954831633
 31
0.0
  0
LINE
  5
2FE0
330
1E
100
AcDbEntity
  8
LOGO
 62
     6
100
AcDbLine
 10
322.4551761477437
 20
-28.44054903084561
 30
0.0
 11
311.9937364261746
 21
-28.44054903084561
 31
0.0
  0
LINE
  5
2FE1
330
1E
100
AcDbEntity
  8
LOGO
 62
     6
100
AcDbLine
 10
322.4551761477437
 20
-37.2369291213433
 30
0.0
 11
311.9937364261746
 21
-37.2369291213433
 31
0.0
  0
LINE
  5
2FE2
330
1E
100
AcDbEntity
  8
LOGO
 62
     6
100
AcDbLine
 10
322.4551761477437
 20
-34.30480242451085
 30
0.0
 11
311.9937364261746
 21
-34.30480242451085
 31
0.0
  0
LINE
  5
2FE3
330
1E
100
AcDbEntity
  8
LOGO
 62
     6
100
AcDbLine
 10
322.4551761477437
 20
-44.40434993582289
 30
0.0
 11
311.9937364261746
 21
-44.40434993582306
 31
0.0
  0
LINE
  5
2FE4
330
1E
100
AcDbEntity
  8
LOGO
 62
     6
100
AcDbLine
 10
311.9937364261746
 20
-37.2369291213433
 30
0.0
 11
311.9937364261746
 21
-44.40434993582289
 31
0.0
  0
LINE
  5
2FE5
330
1E
100
AcDbEntity
  8
LOGO
 62
     6
100
AcDbLine
 10
307.3798413217584
 20
-37.2369291213433
 30
0.0
 11
307.3798413217584
 21
-44.40434993582306
 31
0.0
  0
LINE
  5
2FE6
330
1E
100
AcDbEntity
  8
LOGO
 62
     6
100
AcDbLine
 10
290.4025644961169
 20
-37.2369291213433
 30
0.0
 11
290.4025644961169
 21
-44.40434993582306
 31
0.0
  0
LINE
  5
2FE7
330
1E
100
AcDbEntity
  8
LOGO
 62
     6
100
AcDbLine
 10
284.4855019708861
 20
-37.2369291213433
 30
0.0
 11
284.4855019708861
 21
-44.40434993582306
 31
0.0
  0
LINE
  5
2FE8
330
1E
100
AcDbEntity
  8
LOGO
 62
     6
100
AcDbLine
 10
271.4538277627414
 20
-37.2369291213433
 30
0.0
 11
271.4538277627414
 21
-44.40434993582306
 31
0.0
  0
LINE
  5
2FE9
330
1E
100
AcDbEntity
  8
LOGO
 62
     6
100
AcDbLine
 10
284.4855019708861
 20
-44.40434993582306
 30
0.0
 11
271.4538277627414
 21
-44.40434993582306
 31
0.0
  0
LINE
  5
2FEA
330
1E
100
AcDbEntity
  8
LOGO
 62
     6
100
AcDbLine
 10
307.3798413217584
 20
-44.40434993582306
 30
0.0
 11
290.4025644961169
 21
-44.40434993582306
 31
0.0
  0
LINE
  5
2FEB
330
1E
100
AcDbEntity
  8
LOGO
  6
CONTINUOUS
 62
     7
100
AcDbLine
 10
286.7989921205301
 20
-31.39344783996964
 30
0.0
 11
289.3884324420745
 21
-31.39344783996964
 31
0.0
  0
LINE
  5
2FEC
330
1E
100
AcDbEntity
  8
LOGO
 62
     6
100
AcDbLine
 10
285.7886693917005
 20
-28.44054903084561
 30
0.0
 11
270.1506603419268
 21
-28.44054903084561
 31
0.0
  0
LINE
  5
2FED
330
1E
100
AcDbEntity
  8
LOGO
 62
     6
100
AcDbLine
 10
285.7886693917005
 20
-34.30480242451085
 30
0.0
 11
270.1506603419268
 21
-34.30480242451085
 31
0.0
  0
LINE
  5
2FEE
330
1E
100
AcDbEntity
  8
LOGO
 62
     6
100
AcDbLine
 10
270.1506603419268
 20
-28.44054903084561
 30
0.0
 11
270.1506603419268
 21
-34.30480242451085
 31
0.0
  0
LINE
  5
2FEF
330
1E
100
AcDbEntity
  8
LOGO
 62
     6
100
AcDbLine
 10
285.7886693917005
 20
-28.44054903084561
 30
0.0
 11
285.7886693917005
 21
-34.30480242451085
 31
0.0
  0
LINE
  5
2FF0
330
1E
100
AcDbEntity
  8
LOGO
 62
     6
100
AcDbLine
 10
277.9696648668136
 20
-34.30480242451085
 30
0.0
 11
277.9696648668136
 21
-37.2369291213433
 31
0.0
  0
TEXT
  5
2FF1
330
1E
100
AcDbEntity
  8
LOGO
  6
CONTINUOUS
 62
     7
100
AcDbText
 10
272.0743836774148
 20
-33.00163500369633
 30
0.0
 40
3.257918552036198
  1
MCGJ
  7
CHINESET
 72
     1
 11
277.9696648668136
 21
-31.37267572767823
 31
0.0
100
AcDbText
 73
     2
  0
LINE
  5
2FF2
330
1E
100
AcDbEntity
  8
LOGO
 62
     6
100
AcDbLine
 10
284.4855019708861
 20
-37.2369291213433
 30
0.0
 11
271.4538277627414
 21
-37.2369291213433
 31
0.0
  0
LINE
  5
2FF3
330
1E
100
AcDbEntity
  8
LOGO
 62
     6
100
AcDbLine
 10
307.3798413217584
 20
-28.44054903084561
 30
0.0
 11
290.4025644961169
 21
-28.44054903084561
 31
0.0
  0
LINE
  5
2FF4
330
1E
100
AcDbEntity
  8
LOGO
 62
     6
100
AcDbLine
 10
307.3798413217584
 20
-37.2369291213433
 30
0.0
 11
290.4025644961169
 21
-37.2369291213433
 31
0.0
  0
LINE
  5
2FF5
330
1E
100
AcDbEntity
  8
LOGO
 62
     6
100
AcDbLine
 10
307.3798413217584
 20
-34.30480242451085
 30
0.0
 11
290.4025644961169
 21
-34.30480242451085
 31
0.0
  0
TEXT
  5
2FF6
330
1E
100
AcDbEntity
  8
LOGO
  6
CONTINUOUS
 62
     7
100
AcDbText
 10
296.5641182289119
 20
-33.03858000536681
 30
0.0
 40
3.257918552036198
  1
12
  7
CHINESET
 72
     1
 11
298.8912029089377
 21
-31.40962072934871
 31
0.0
100
AcDbText
 73
     2
  0
LINE
  5
2FF7
330
1E
100
AcDbEntity
  8
LOGO
 62
     6
100
AcDbLine
 10
298.8912029089377
 20
-34.30480242451085
 30
0.0
 11
298.8912029089377
 21
-37.2369291213433
 31
0.0
  0
LINE
  5
2FF8
330
1E
100
AcDbEntity
  8
LOGO
 62
     6
100
AcDbLine
 10
290.4025644961169
 20
-28.44054903084561
 30
0.0
 11
290.4025644961169
 21
-34.30480242451085
 31
0.0
  0
TEXT
  5
2FF9
330
1E
100
AcDbEntity
  8
LOGO
  6
CONTINUOUS
 62
     7
100
AcDbText
 10
314.8911661317045
 20
-33.03858000536681
 30
0.0
 40
3.257918552036198
  1
25
  7
CHINESET
 72
     1
 11
317.5285287690671
 21
-31.40962072934871
 31
0.0
100
AcDbText
 73
     2
  0
LINE
  5
2FFA
330
1E
100
AcDbEntity
  8
LOGO
  6
CONTINUOUS
 62
     7
100
AcDbLine
 10
308.3901640505878
 20
-31.39344783996964
 30
0.0
 11
310.9796043721321
 21
-31.39344783996964
 31
0.0
  0
LINE
  5
2FFB
330
1E
100
AcDbEntity
  8
LOGO
 62
     6
100
AcDbLine
 10
317.2244561367142
 20
-34.30480242451085
 30
0.0
 11
317.2244561367142
 21
-37.2369291213433
 31
0.0
  0
LINE
  5
2FFC
330
1E
100
AcDbEntity
  8
LOGO
 62
     6
100
AcDbLine
 10
311.9937364261746
 20
-28.44054903084561
 30
0.0
 11
311.9937364261746
 21
-34.30480242451085
 31
0.0
  0
LINE
  5
2FFD
330
1E
100
AcDbEntity
  8
LOGO
 62
     6
100
AcDbLine
 10
307.3798413217584
 20
-28.44054903084561
 30
0.0
 11
307.3798413217584
 21
-34.30480242451085
 31
0.0
  0
LINE
  5
2FFE
330
1E
100
AcDbEntity
  8
LOGO
 62
     1
100
AcDbLine
 10
344.2594012076883
 20
-46.03330921184116
 30
0.0
 11
344.2594012076883
 21
-26.48579789962392
 31
0.0
  0
LINE
  5
2FFF
330
1E
100
AcDbEntity
  8
LOGO
 62
     6
100
AcDbLine
 10
337.2718414557715
 20
-37.2369291213433
 30
0.0
 11
337.2718414557715
 21
-44.43137586485295
 31
0.0
  0
LINE
  5
3000
330
1E
100
AcDbEntity
  8
LOGO
 62
     6
100
AcDbLine
 10
327.7206549625673
 20
-37.2369291213433
 30
0.0
 11
327.7206549625673
 21
-44.40434993582306
 31
0.0
  0
LINE
  5
3001
330
1E
100
AcDbEntity
  8
LOGO
 62
     6
100
AcDbLine
 10
322.4551761477437
 20
-37.2369291213433
 30
0.0
 11
322.4551761477437
 21
-44.40434993582289
 31
0.0
  0
LINE
  5
3002
330
1E
100
AcDbEntity
  8
LOGO
 62
     6
100
AcDbLine
 10
337.2718414557715
 20
-44.40434993582306
 30
0.0
 11
327.7206549625673
 21
-44.40434993582306
 31
0.0
  0
LINE
  5
3003
330
1E
100
AcDbEntity
  8
LOGO
 62
     6
100
AcDbLine
 10
337.2718414557715
 20
-37.2369291213433
 30
0.0
 11
327.7206549625673
 21
-37.2369291213433
 31
0.0
  0
LINE
  5
3004
330
1E
100
AcDbEntity
  8
LOGO
 62
     6
100
AcDbLine
 10
337.9234251661786
 20
-34.30480242451085
 30
0.0
 11
327.06907125216
 21
-34.30480242451085
 31
0.0
  0
LINE
  5
3005
330
1E
100
AcDbEntity
  8
LOGO
 62
     6
100
AcDbLine
 10
337.9234251661786
 20
-28.44054903084561
 30
0.0
 11
327.06907125216
 21
-28.44054903084561
 31
0.0
  0
LINE
  5
3006
330
1E
100
AcDbEntity
  8
LOGO
 62
     6
100
AcDbLine
 10
332.6342477227481
 20
-34.30480242451085
 30
0.0
 11
332.6342477227481
 21
-37.2369291213433
 31
0.0
  0
LINE
  5
3007
330
1E
100
AcDbEntity
  8
LOGO
  6
CONTINUOUS
 62
     7
100
AcDbLine
 10
323.4654988765733
 20
-31.39344783996964
 30
0.0
 11
326.0549391981174
 21
-31.39344783996964
 31
0.0
  0
LINE
  5
3008
330
1E
100
AcDbEntity
  8
LOGO
 62
     6
100
AcDbLine
 10
327.06907125216
 20
-28.44054903084561
 30
0.0
 11
327.06907125216
 21
-34.30480242451085
 31
0.0
  0
LINE
  5
3009
330
1E
100
AcDbEntity
  8
LOGO
 62
     6
100
AcDbLine
 10
322.4551761477437
 20
-28.44054903084561
 30
0.0
 11
322.4551761477437
 21
-34.30480242451085
 31
0.0
  0
TEXT
  5
300A
330
1E
100
AcDbEntity
  8
LOGO
  6
CONTINUOUS
 62
     7
100
AcDbText
 10
331.7143478405985
 20
-33.03858000536681
 30
0.0
 40
3.257918552036198
  1
0
  7
CHINESET
 72
     1
 11
332.8003206912772
 21
-31.40962072934871
 31
0.0
100
AcDbText
 73
     2
  0
LINE
  5
300B
330
1E
100
AcDbEntity
  8
LOGO
 62
     6
100
AcDbLine
 10
337.9234251661786
 20
-28.44054903084561
 30
0.0
 11
337.9234251661786
 21
-34.30480242451085
 31
0.0
  0
TEXT
  5
3075
330
1E
100
AcDbEntity
  8
LOGO
 62
     6
100
AcDbText
 10
216.2060398631504
 20
-29.41696261263205
 30
128.111168875904
 40
1.954751131221719
  1
比例 Scale:
 41
0.9
  7
CHINESET
 72
     4
 11
222.4132473615343
 21
-28.44054903084561
 31
128.111168875904
100
AcDbText
  0
TEXT
  5
3076
330
1E
100
AcDbEntity
  8
LOGO
 62
     6
100
AcDbText
 10
216.889330102323
 20
-33.29993015458533
 30
128.111168875904
 40
1.954751131221719
  1
投影 View:
 41
0.9
  7
CHINESET
 72
     4
 11
222.4132473615343
 21
-32.35005129328915
 31
128.111168875904
100
AcDbText
  0
TEXT
  5
3077
330
1E
100
AcDbEntity
  8
LOGO
 62
     6
100
AcDbText
 10
217.0804419316701
 20
-37.23692912134339
 30
128.111168875904
 40
1.954751131221719
  1
單位 Unit:
 41
0.9
  7
CHINESET
 72
     4
 11
222.4132473615343
 21
-36.25955355573253
 31
128.111168875904
100
AcDbText
  0
TEXT
  5
3078
330
1E
100
AcDbEntity
  8
LOGO
  6
CONTINUOUS
 62
     6
100
AcDbText
 10
274.8668852934458
 20
-43.589870297814
 30
128.111168875904
 40
1.628959276018099
  1
Model
  7
CHINESET
 72
     4
 11
277.9696648668136
 21
-42.77539065980495
 31
128.111168875904
100
AcDbText
  0
TEXT
  5
3079
330
1E
100
AcDbEntity
  8
LOGO
  6
CONTINUOUS
 62
     6
100
AcDbText
 10
291.2506082095195
 20
-43.31837708514432
 30
128.111168875904
 40
1.628959276018099
  1
Bearing type
  7
CHINESET
 72
     4
 11
298.8912029089377
 21
-42.77539065980495
 31
128.111168875904
100
AcDbText
  0
TEXT
  5
307A
330
1E
100
AcDbEntity
  8
LOGO
  6
CONTINUOUS
 62
     6
100
AcDbText
 10
315.2076495642702
 20
-43.589870297814
 30
128.111168875904
 40
1.628959276018099
  1
Bore
 41
0.8
  7
CHINESET
 72
     4
 11
317.2244562869592
 21
-42.77539065980495
 31
128.111168875904
100
AcDbText
  0
TEXT
  5
307B
330
1E
100
AcDbEntity
  8
LOGO
 62
     6
100
AcDbText
 10
275.3633300251847
 20
-40.75394198342343
 30
128.111168875904
 40
2.606334841628958
  1
型式
  7
CHINESET
 72
     4
 11
277.9696648668136
 21
-39.51747210776875
 31
128.111168875904
100
AcDbText
  0
TEXT
  5
307C
330
1E
100
AcDbEntity
  8
LOGO
 62
     6
100
AcDbText
 10
293.7056825469468
 20
-40.75394198342343
 30
128.111168875904
 40
2.606334841628958
  1
軸承型式
  7
CHINESET
 72
     4
 11
298.8912029089377
 21
-39.51747210776875
 31
128.111168875904
100
AcDbText
  0
TEXT
  5
307D
330
1E
100
AcDbEntity
  8
LOGO
 62
     6
100
AcDbText
 10
314.7321485946515
 20
-40.82063952858323
 30
128.111168875904
 40
2.606334841628958
  1
內徑
 41
0.9
  7
CHINESET
 72
     4
 11
317.2244562869592
 21
-39.51747210776875
 31
128.111168875904
100
AcDbText
  0
TEXT
  5
307E
330
1E
100
AcDbEntity
  8
LOGO
  6
CONTINUOUS
 62
     6
100
AcDbText
 10
329.5486076144699
 20
-43.589870297814
 30
128.111168875904
 40
1.628959276018099
  1
Stroke
 41
0.8
  7
CHINESET
 72
     4
 11
332.4962482091693
 21
-42.77539065980495
 31
128.111168875904
100
AcDbText
  0
TEXT
  5
307F
330
1E
100
AcDbEntity
  8
LOGO
 62
     6
100
AcDbText
 10
330.1505468517033
 20
-40.82063952858323
 30
128.111168875904
 40
2.606334841628958
  1
行程
 41
0.9
  7
CHINESET
 72
     4
 11
332.4962482091693
 21
-39.51747210776875
 31
128.111168875904
100
AcDbText
  0
LINE
  5
4E78
330
1E
100
AcDbEntity
  8
CENTER
  6
CENTER
100
AcDbLine
 10
237.0751216187911
 20
26.56129474814003
 30
0.0
 11
230.4503322343564
 21
26.56129474814003
 31
0.0
  0
POLYLINE
  5
4E79
330
1E
100
AcDbEntity
  8
0
100
AcDb2dPolyline
 66
     1
 10
0.0
 20
0.0
 30
0.0
 70
     1
  0
VERTEX
  5
4E7A
330
4E79
100
AcDbEntity
  8
0
100
AcDbVertex
100
AcDb2dVertex
 10
233.7958154372544
 20
28.50583839640302
 30
0.0
 42
0.0713517487531129
  0
VERTEX
  5
4E7B
330
4E79
100
AcDbEntity
  8
0
100
AcDbVertex
100
AcDb2dVertex
 10
232.7063933481832
 20
28.34957852376186
 30
0.0
 42
0.0828275296410026
  0
VERTEX
  5
4E7C
330
4E79
100
AcDbEntity
  8
0
100
AcDbVertex
100
AcDb2dVertex
 10
231.8512717889914
 20
27.93629474814002
 30
0.0
 42
0.1067562697216227
  0
VERTEX
  5
4E7D
330
4E79
100
AcDbEntity
  8
0
100
AcDbVertex
100
AcDb2dVertex
 10
231.2374455754101
 20
27.2675560411364
 30
0.0
 42
0.1332561510788792
  0
VERTEX
  5
4E7E
330
4E79
100
AcDbEntity
  8
0
100
AcDbVertex
100
AcDb2dVertex
 10
231.0458154372544
 20
26.56129474814003
 30
0.0
 42
0.1332561510788905
  0
VERTEX
  5
4E7F
330
4E79
100
AcDbEntity
  8
0
100
AcDbVertex
100
AcDb2dVertex
 10
231.2374455754101
 20
25.85503345514365
 30
0.0
 42
0.1067562697216183
  0
VERTEX
  5
4E80
330
4E79
100
AcDbEntity
  8
0
100
AcDbVertex
100
AcDb2dVertex
 10
231.8512717889914
 20
25.18629474814003
 30
0.0
 42
0.0828275296410157
  0
VERTEX
  5
4E81
330
4E79
100
AcDbEntity
  8
0
100
AcDbVertex
100
AcDb2dVertex
 10
232.7063933481833
 20
24.77301097251819
 30
0.0
 42
0.0713517487531166
  0
VERTEX
  5
4E82
330
4E79
100
AcDbEntity
  8
0
100
AcDbVertex
100
AcDb2dVertex
 10
233.7958154372544
 20
24.61675109987714
 30
0.0
 42
0.0713517487531175
  0
VERTEX
  5
4E83
330
4E79
100
AcDbEntity
  8
0
100
AcDbVertex
100
AcDb2dVertex
 10
234.8852375263255
 20
24.7730109725183
 30
0.0
 42
0.0828275296410028
  0
VERTEX
  5
4E84
330
4E79
100
AcDbEntity
  8
0
100
AcDbVertex
100
AcDb2dVertex
 10
235.7403590855174
 20
25.18629474814003
 30
0.0
 42
0.1067562697216227
  0
VERTEX
  5
4E85
330
4E79
100
AcDbEntity
  8
0
100
AcDbVertex
100
AcDb2dVertex
 10
236.3541852990987
 20
25.85503345514377
 30
0.0
 42
0.1332561510788792
  0
VERTEX
  5
4E86
330
4E79
100
AcDbEntity
  8
0
100
AcDbVertex
100
AcDb2dVertex
 10
236.5458154372544
 20
26.56129474814003
 30
0.0
 42
0.1332561510788818
  0
VERTEX
  5
4E87
330
4E79
100
AcDbEntity
  8
0
100
AcDbVertex
100
AcDb2dVertex
 10
236.3541852990987
 20
27.2675560411364
 30
0.0
 42
0.1067562697216274
  0
VERTEX
  5
4E88
330
4E79
100
AcDbEntity
  8
0
100
AcDbVertex
100
AcDb2dVertex
 10
235.7403590855174
 20
27.93629474814002
 30
0.0
 42
0.0828275296410093
  0
VERTEX
  5
4E89
330
4E79
100
AcDbEntity
  8
0
100
AcDbVertex
100
AcDb2dVertex
 10
234.8852375263254
 20
28.34957852376186
 30
0.0
 42
0.0713517487531056
  0
SEQEND
  5
4E8A
330
4E79
100
AcDbEntity
  8
0
  0
POLYLINE
  5
4E8B
330
1E
100
AcDbEntity
  8
0
100
AcDb2dPolyline
 66
     1
 10
0.0
 20
0.0
 30
0.0
 70
     1
  0
VERTEX
  5
4E8C
330
4E8B
100
AcDbEntity
  8
0
100
AcDbVertex
100
AcDb2dVertex
 10
233.7958154372544
 20
28.1522850058098
 30
0.0
 42
0.0645245206975508
  0
VERTEX
  5
4E8D
330
4E8B
100
AcDbEntity
  8
0
100
AcDbVertex
100
AcDb2dVertex
 10
232.797939287221
 20
28.02297166025329
 30
0.0
 42
0.0774069348680528
  0
VERTEX
  5
4E8E
330
4E8B
100
AcDbEntity
  8
0
100
AcDbVertex
100
AcDb2dVertex
 10
232.0280484842879
 20
27.68629474814003
 30
0.0
 42
0.1071711914528156
  0
VERTEX
  5
4E8F
330
4E8B
100
AcDbEntity
  8
0
100
AcDbVertex
100
AcDb2dVertex
 10
231.4639946435717
 20
27.12798573477749
 30
0.0
 42
0.1452561775852626
  0
VERTEX
  5
4E90
330
4E8B
100
AcDbEntity
  8
0
100
AcDbVertex
100
AcDb2dVertex
 10
231.2958154372544
 20
26.56129474814003
 30
0.0
 42
0.1452561775852626
  0
VERTEX
  5
4E91
330
4E8B
100
AcDbEntity
  8
0
100
AcDbVertex
100
AcDb2dVertex
 10
231.4639946435717
 20
25.99460376150256
 30
0.0
 42
0.1071711914528156
  0
VERTEX
  5
4E92
330
4E8B
100
AcDbEntity
  8
0
100
AcDbVertex
100
AcDb2dVertex
 10
232.0280484842879
 20
25.43629474814002
 30
0.0
 42
0.0774069348680518
  0
VERTEX
  5
4E93
330
4E8B
100
AcDbEntity
  8
0
100
AcDbVertex
100
AcDb2dVertex
 10
232.7979392872212
 20
25.09961783602676
 30
0.0
 42
0.0645245206975456
  0
VERTEX
  5
4E94
330
4E8B
100
AcDbEntity
  8
0
100
AcDbVertex
100
AcDb2dVertex
 10
233.7958154372544
 20
24.97030449047025
 30
0.0
 42
0.0645245206975456
  0
VERTEX
  5
4E95
330
4E8B
100
AcDbEntity
  8
0
100
AcDbVertex
100
AcDb2dVertex
 10
234.7936915872876
 20
25.09961783602676
 30
0.0
 42
0.0774069348680516
  0
VERTEX
  5
4E96
330
4E8B
100
AcDbEntity
  8
0
100
AcDbVertex
100
AcDb2dVertex
 10
235.5635823902208
 20
25.43629474814002
 30
0.0
 42
0.1071711914528222
  0
VERTEX
  5
4E97
330
4E8B
100
AcDbEntity
  8
0
100
AcDbVertex
100
AcDb2dVertex
 10
236.1276362309371
 20
25.99460376150256
 30
0.0
 42
0.1452561775852661
  0
VERTEX
  5
4E98
330
4E8B
100
AcDbEntity
  8
0
100
AcDbVertex
100
AcDb2dVertex
 10
236.2958154372544
 20
26.56129474814003
 30
0.0
 42
0.1452561775852661
  0
VERTEX
  5
4E99
330
4E8B
100
AcDbEntity
  8
0
100
AcDbVertex
100
AcDb2dVertex
 10
236.1276362309371
 20
27.12798573477749
 30
0.0
 42
0.1071711914528222
  0
VERTEX
  5
4E9A
330
4E8B
100
AcDbEntity
  8
0
100
AcDbVertex
100
AcDb2dVertex
 10
235.5635823902208
 20
27.68629474814003
 30
0.0
 42
0.077406934868038
  0
VERTEX
  5
4E9B
330
4E8B
100
AcDbEntity
  8
0
100
AcDbVertex
100
AcDb2dVertex
 10
234.7936915872877
 20
28.02297166025329
 30
0.0
 42
0.064524520697542
  0
SEQEND
  5
4E9C
330
4E8B
100
AcDbEntity
  8
0
  0
LINE
  5
4E9D
330
1E
100
AcDbEntity
  8
0
100
AcDbLine
 10
243.2958154372544
 20
12.79151593430782
 30
0.0
 11
210.7958154372544
 21
12.79151593430782
 31
0.0
  0
LINE
  5
4E9E
330
1E
100
AcDbEntity
  8
0
100
AcDbLine
 10
243.2958154372544
 20
18.05899562332996
 30
0.0
 11
210.7958154372544
 21
18.05899562333007
 31
0.0
  0
LINE
  5
4E9F
330
1E
100
AcDbEntity
  8
0
100
AcDbLine
 10
243.2958154372544
 20
-2.074744221181049
 30
0.0
 11
210.7958154372544
 21
-2.074744221181049
 31
0.0
  0
LINE
  5
4EA0
330
1E
100
AcDbEntity
  8
0
100
AcDbLine
 10
243.2958154372544
 20
1.17794697227697
 30
0.0
 11
210.7958154372544
 21
1.177946972277027
 31
0.0
  0
LINE
  5
4EA1
330
1E
100
AcDbEntity
  8
0
100
AcDbLine
 10
243.2958154372544
 20
9.521806990278207
 30
0.0
 11
210.7958154372544
 21
9.521806990278321
 31
0.0
  0
LINE
  5
4EA2
330
1E
100
AcDbEntity
  8
0
100
AcDbLine
 10
243.2958154372544
 20
6.339826474938774
 30
0.0
 11
210.7958154372544
 21
6.339826474938774
 31
0.0
  0
LINE
  5
4EA3
330
1E
100
AcDbEntity
  8
0
100
AcDbLine
 10
243.2958154372544
 20
2.450739178412845
 30
0.0
 11
210.7958154372544
 21
2.450739178412788
 31
0.0
  0
LINE
  5
4EA4
330
1E
100
AcDbEntity
  8
0
100
AcDbLine
 10
243.2958154372544
 20
32.92525577881889
 30
0.0
 11
210.7958154372544
 21
32.92525577881889
 31
0.0
  0
LINE
  5
4EA5
330
1E
100
AcDbEntity
  8
CENTER
  6
CENTER
100
AcDbLine
 10
208.93359343404
 20
15.42525577881889
 30
0.0
 11
257.4513750451906
 21
15.42525577881889
 31
0.0
  0
LINE
  5
4EA6
330
1E
100
AcDbEntity
  8
0
100
AcDbLine
 10
210.7958154372544
 20
32.92525577881889
 30
0.0
 11
210.7958154372544
 21
-2.074744221181049
 31
0.0
  0
LINE
  5
4EA7
330
1E
100
AcDbEntity
  8
CENTER
  6
CENTER
100
AcDbLine
 10
233.7958154372544
 20
28.99439800298347
 30
0.0
 11
233.7958154372544
 21
24.1090494876301
 31
0.0
  0
POLYLINE
  5
4EA8
330
1E
100
AcDbEntity
  8
0
100
AcDb2dPolyline
 66
     1
 10
0.0
 20
0.0
 30
0.0
 70
     1
  0
VERTEX
  5
4EA9
330
4EA8
100
AcDbEntity
  8
0
100
AcDbVertex
100
AcDb2dVertex
 10
216.2958154372544
 20
28.50583839640302
 30
0.0
 42
0.0713517487531129
  0
VERTEX
  5
4EAA
330
4EA8
100
AcDbEntity
  8
0
100
AcDbVertex
100
AcDb2dVertex
 10
215.2063933481832
 20
28.34957852376186
 30
0.0
 42
0.0828275296410026
  0
VERTEX
  5
4EAB
330
4EA8
100
AcDbEntity
  8
0
100
AcDbVertex
100
AcDb2dVertex
 10
214.3512717889914
 20
27.93629474814002
 30
0.0
 42
0.1067562697216227
  0
VERTEX
  5
4EAC
330
4EA8
100
AcDbEntity
  8
0
100
AcDbVertex
100
AcDb2dVertex
 10
213.7374455754101
 20
27.2675560411364
 30
0.0
 42
0.1332561510788792
  0
VERTEX
  5
4EAD
330
4EA8
100
AcDbEntity
  8
0
100
AcDbVertex
100
AcDb2dVertex
 10
213.5458154372544
 20
26.56129474814003
 30
0.0
 42
0.1332561510788905
  0
VERTEX
  5
4EAE
330
4EA8
100
AcDbEntity
  8
0
100
AcDbVertex
100
AcDb2dVertex
 10
213.7374455754101
 20
25.85503345514365
 30
0.0
 42
0.1067562697216183
  0
VERTEX
  5
4EAF
330
4EA8
100
AcDbEntity
  8
0
100
AcDbVertex
100
AcDb2dVertex
 10
214.3512717889914
 20
25.18629474814003
 30
0.0
 42
0.0828275296410157
  0
VERTEX
  5
4EB0
330
4EA8
100
AcDbEntity
  8
0
100
AcDbVertex
100
AcDb2dVertex
 10
215.2063933481833
 20
24.77301097251819
 30
0.0
 42
0.0713517487531166
  0
VERTEX
  5
4EB1
330
4EA8
100
AcDbEntity
  8
0
100
AcDbVertex
100
AcDb2dVertex
 10
216.2958154372544
 20
24.61675109987714
 30
0.0
 42
0.0713517487531175
  0
VERTEX
  5
4EB2
330
4EA8
100
AcDbEntity
  8
0
100
AcDbVertex
100
AcDb2dVertex
 10
217.3852375263255
 20
24.7730109725183
 30
0.0
 42
0.0828275296410028
  0
VERTEX
  5
4EB3
330
4EA8
100
AcDbEntity
  8
0
100
AcDbVertex
100
AcDb2dVertex
 10
218.2403590855173
 20
25.18629474814003
 30
0.0
 42
0.1067562697216227
  0
VERTEX
  5
4EB4
330
4EA8
100
AcDbEntity
  8
0
100
AcDbVertex
100
AcDb2dVertex
 10
218.8541852990987
 20
25.85503345514377
 30
0.0
 42
0.1332561510788792
  0
VERTEX
  5
4EB5
330
4EA8
100
AcDbEntity
  8
0
100
AcDbVertex
100
AcDb2dVertex
 10
219.0458154372544
 20
26.56129474814003
 30
0.0
 42
0.1332561510788818
  0
VERTEX
  5
4EB6
330
4EA8
100
AcDbEntity
  8
0
100
AcDbVertex
100
AcDb2dVertex
 10
218.8541852990987
 20
27.2675560411364
 30
0.0
 42
0.1067562697216274
  0
VERTEX
  5
4EB7
330
4EA8
100
AcDbEntity
  8
0
100
AcDbVertex
100
AcDb2dVertex
 10
218.2403590855173
 20
27.93629474814002
 30
0.0
 42
0.0828275296410093
  0
VERTEX
  5
4EB8
330
4EA8
100
AcDbEntity
  8
0
100
AcDbVertex
100
AcDb2dVertex
 10
217.3852375263254
 20
28.34957852376186
 30
0.0
 42
0.0713517487531056
  0
SEQEND
  5
4EB9
330
4EA8
100
AcDbEntity
  8
0
  0
LINE
  5
4EBA
330
1E
100
AcDbEntity
  8
CENTER
  6
CENTER
100
AcDbLine
 10
216.2958154372544
 20
28.99439800298347
 30
0.0
 11
216.2958154372544
 21
24.1090494876301
 31
0.0
  0
POLYLINE
  5
4EBB
330
1E
100
AcDbEntity
  8
0
100
AcDb2dPolyline
 66
     1
 10
0.0
 20
0.0
 30
0.0
 70
     1
  0
VERTEX
  5
4EBC
330
4EBB
100
AcDbEntity
  8
0
100
AcDbVertex
100
AcDb2dVertex
 10
216.2958154372544
 20
28.1522850058098
 30
0.0
 42
0.0645245206975508
  0
VERTEX
  5
4EBD
330
4EBB
100
AcDbEntity
  8
0
100
AcDbVertex
100
AcDb2dVertex
 10
215.297939287221
 20
28.02297166025329
 30
0.0
 42
0.0774069348680528
  0
VERTEX
  5
4EBE
330
4EBB
100
AcDbEntity
  8
0
100
AcDbVertex
100
AcDb2dVertex
 10
214.5280484842879
 20
27.68629474814003
 30
0.0
 42
0.1071711914528156
  0
VERTEX
  5
4EBF
330
4EBB
100
AcDbEntity
  8
0
100
AcDbVertex
100
AcDb2dVertex
 10
213.9639946435717
 20
27.12798573477749
 30
0.0
 42
0.1452561775852626
  0
VERTEX
  5
4EC0
330
4EBB
100
AcDbEntity
  8
0
100
AcDbVertex
100
AcDb2dVertex
 10
213.7958154372544
 20
26.56129474814003
 30
0.0
 42
0.1452561775852626
  0
VERTEX
  5
4EC1
330
4EBB
100
AcDbEntity
  8
0
100
AcDbVertex
100
AcDb2dVertex
 10
213.9639946435717
 20
25.99460376150256
 30
0.0
 42
0.1071711914528156
  0
VERTEX
  5
4EC2
330
4EBB
100
AcDbEntity
  8
0
100
AcDbVertex
100
AcDb2dVertex
 10
214.5280484842879
 20
25.43629474814002
 30
0.0
 42
0.0774069348680518
  0
VERTEX
  5
4EC3
330
4EBB
100
AcDbEntity
  8
0
100
AcDbVertex
100
AcDb2dVertex
 10
215.2979392872211
 20
25.09961783602676
 30
0.0
 42
0.0645245206975456
  0
VERTEX
  5
4EC4
330
4EBB
100
AcDbEntity
  8
0
100
AcDbVertex
100
AcDb2dVertex
 10
216.2958154372544
 20
24.97030449047025
 30
0.0
 42
0.0645245206975456
  0
VERTEX
  5
4EC5
330
4EBB
100
AcDbEntity
  8
0
100
AcDbVertex
100
AcDb2dVertex
 10
217.2936915872876
 20
25.09961783602676
 30
0.0
 42
0.0774069348680516
  0
VERTEX
  5
4EC6
330
4EBB
100
AcDbEntity
  8
0
100
AcDbVertex
100
AcDb2dVertex
 10
218.0635823902208
 20
25.43629474814002
 30
0.0
 42
0.1071711914528222
  0
VERTEX
  5
4EC7
330
4EBB
100
AcDbEntity
  8
0
100
AcDbVertex
100
AcDb2dVertex
 10
218.6276362309371
 20
25.99460376150256
 30
0.0
 42
0.1452561775852661
  0
VERTEX
  5
4EC8
330
4EBB
100
AcDbEntity
  8
0
100
AcDbVertex
100
AcDb2dVertex
 10
218.7958154372544
 20
26.56129474814003
 30
0.0
 42
0.1452561775852661
  0
VERTEX
  5
4EC9
330
4EBB
100
AcDbEntity
  8
0
100
AcDbVertex
100
AcDb2dVertex
 10
218.6276362309371
 20
27.12798573477749
 30
0.0
 42
0.1071711914528222
  0
VERTEX
  5
4ECA
330
4EBB
100
AcDbEntity
  8
0
100
AcDbVertex
100
AcDb2dVertex
 10
218.0635823902208
 20
27.68629474814003
 30
0.0
 42
0.077406934868038
  0
VERTEX
  5
4ECB
330
4EBB
100
AcDbEntity
  8
0
100
AcDbVertex
100
AcDb2dVertex
 10
217.2936915872877
 20
28.02297166025329
 30
0.0
 42
0.064524520697542
  0
SEQEND
  5
4ECC
330
4EBB
100
AcDbEntity
  8
0
  0
LINE
  5
4ECD
330
1E
100
AcDbEntity
  8
CENTER
  6
CENTER
100
AcDbLine
 10
219.558533642163
 20
26.56129474814003
 30
0.0
 11
212.9337431547161
 21
26.56129474814003
 31
0.0
  0
LINE
  5
4ECE
330
1E
100
AcDbEntity
  8
DASHED
  6
HIDDEN
100
AcDbLine
 10
317.2536826761103
 20
9.519888370790511
 30
0.0
 11
320.5233916201408
 21
12.78959731482092
 31
0.0
  0
LINE
  5
4ECF
330
1E
100
AcDbEntity
  8
0
100
AcDbLine
 10
271.657131464651
 20
33.92333715933119
 30
0.0
 11
317.6571314646509
 21
33.92333715933119
 31
0.0
  0
LINE
  5
4ED0
330
1E
100
AcDbEntity
  8
CENTER
  6
CENTER
100
AcDbLine
 10
311.157131464651
 20
27.42333715933119
 30
0.0
 11
318.157131464651
 21
27.42333715933119
 31
0.0
  0
LINE
  5
4ED1
330
1E
100
AcDbEntity
  8
CENTER
  6
CENTER
100
AcDbLine
 10
311.157131464651
 20
3.423337159331197
 30
0.0
 11
318.157131464651
 21
3.423337159331197
 31
0.0
  0
LINE
  5
4ED2
330
1E
100
AcDbEntity
  8
0
100
AcDbLine
 10
271.657131464651
 20
-3.076662840668802
 30
0.0
 11
317.6571314646509
 21
-3.076662840668802
 31
0.0
  0
LINE
  5
4ED3
330
1E
100
AcDbEntity
  8
CENTER
  6
CENTER
100
AcDbLine
 10
296.657131464651
 20
15.42333715933119
 30
0.0
 11
322.5660494141342
 21
15.42333715933119
 31
0.0
  0
LINE
  5
4ED4
330
1E
100
AcDbEntity
  8
DASHED
  6
HIDDEN
100
AcDbLine
 10
305.657131464651
 20
32.92333715933108
 30
0.0
 11
320.5233916201395
 21
18.05707700384272
 31
0.0
  0
LINE
  5
4ED5
330
1E
100
AcDbEntity
  8
CENTER
  6
CENTER
100
AcDbLine
 10
314.6571314646509
 20
6.923337159331197
 30
0.0
 11
314.6571314646509
 21
-0.0766628406688028
 31
0.0
  0
LINE
  5
4ED6
330
1E
100
AcDbEntity
  8
DASHED
  6
HIDDEN
100
AcDbLine
 10
310.5717021607708
 20
6.337907855451078
 30
0.0
 11
313.7536826761103
 21
9.519888370790511
 31
0.0
  0
LINE
  5
4ED7
330
1E
100
AcDbEntity
  8
DASHED
  6
HIDDEN
100
AcDbLine
 10
308.4503818172112
 20
8.459228199010738
 30
0.0
 11
310.5717021607708
 21
6.337907855451078
 31
0.0
  0
LINE
  5
4ED8
330
1E
100
AcDbEntity
  8
DASHED
  6
HIDDEN
100
AcDbLine
 10
302.0864207865322
 20
2.095267168331758
 30
0.0
 11
308.4503818172112
 21
8.459228199010738
 31
0.0
  0
LINE
  5
4ED9
330
1E
100
AcDbEntity
  8
DASHED
  6
HIDDEN
100
AcDbLine
 10
287.2278421427697
 20
2.095267168331758
 30
0.0
 11
280.8638811120906
 21
8.459228199010738
 31
0.0
  0
LINE
  5
4EDA
330
1E
100
AcDbEntity
  8
CENTER
  6
CENTER
100
AcDbLine
 10
294.657131464651
 20
13.42333715933119
 30
0.0
 11
294.657131464651
 21
-3.645703938170811
 31
0.0
  0
LINE
  5
4EDB
330
1E
100
AcDbEntity
  8
DASHED
  6
HIDDEN
100
AcDbLine
 10
278.7425607685311
 20
6.337907855451078
 30
0.0
 11
275.5605802531915
 21
9.519888370790511
 31
0.0
  0
LINE
  5
4EDC
330
1E
100
AcDbEntity
  8
CENTER
  6
CENTER
100
AcDbLine
 10
274.657131464651
 20
6.923337159331197
 30
0.0
 11
274.657131464651
 21
-0.0766628406688028
 31
0.0
  0
LINE
  5
4EDD
330
1E
100
AcDbEntity
  8
0
100
AcDbLine
 10
267.657131464651
 20
29.92333715933119
 30
0.0
 11
267.657131464651
 21
0.9233371593311971
 31
0.0
  0
LINE
  5
4EDE
330
1E
100
AcDbEntity
  8
0
100
AcDbLine
 10
255.7958154372544
 20
33.92525577881889
 30
0.0
 11
255.7958154372544
 21
-3.074744221181049
 31
0.0
  0
LINE
  5
4EDF
330
1E
100
AcDbEntity
  8
0
100
AcDbLine
 10
247.7958154372544
 20
15.42525577881889
 30
0.0
 11
247.7958154372544
 21
-3.074744221181049
 31
0.0
  0
LINE
  5
4EE0
330
1E
100
AcDbEntity
  8
DASHED
  6
HIDDEN
100
AcDbLine
 10
280.8638811120906
 20
8.459228199010738
 30
0.0
 11
278.7425607685311
 21
6.337907855451078
 31
0.0
  0
LINE
  5
4EE1
330
1E
100
AcDbEntity
  8
0
100
AcDbLine
 10
243.2958154372544
 20
32.92525577881889
 30
0.0
 11
243.2958154372544
 21
-2.074744221181049
 31
0.0
  0
LINE
  5
4EE4
330
1E
100
AcDbEntity
  8
CENTER
  6
CENTER
100
AcDbLine
 10
271.1571314646509
 20
3.423337159331197
 30
0.0
 11
278.157131464651
 21
3.423337159331197
 31
0.0
  0
LINE
  5
4EE5
330
1E
100
AcDbEntity
  8
0
100
AcDbLine
 10
255.7958154372544
 20
-3.074744221181049
 30
0.0
 11
247.7958154372544
 21
-3.074744221181049
 31
0.0
  0
LINE
  5
4EE7
330
1E
100
AcDbEntity
  8
DASHED
  6
HIDDEN
100
AcDbLine
 10
287.157131464651
 20
-2.076662840668802
 30
0.0
 11
302.1571314646509
 21
-2.076662840668802
 31
0.0
  0
LINE
  5
4EE8
330
1E
100
AcDbEntity
  8
DASHED
  6
HIDDEN
100
AcDbLine
 10
286.3793140053457
 20
1.246739030907917
 30
0.0
 11
285.1772324773287
 21
2.448820558924978
 31
0.0
  0
LINE
  5
4EE9
330
1E
100
AcDbEntity
  8
DASHED
  6
HIDDEN
100
AcDbLine
 10
287.157131464651
 20
-2.076662840668802
 30
0.0
 11
283.9044402711929
 21
1.176028352789273
 31
0.0
  0
LINE
  5
4EEA
330
1E
100
AcDbEntity
  8
DASHED
  6
HIDDEN
100
AcDbLine
 10
285.1772324773286
 20
2.448820558924978
 30
0.0
 11
283.9044402711929
 21
1.176028352789273
 31
0.0
  0
LINE
  5
4EEB
330
1E
100
AcDbEntity
  8
DASHED
  6
HIDDEN
100
AcDbLine
 10
287.2278421427697
 20
2.095267168331758
 30
0.0
 11
286.3793140053457
 21
1.246739030907804
 31
0.0
  0
LINE
  5
4EEC
330
1E
100
AcDbEntity
  8
DASHED
  6
HIDDEN
100
AcDbLine
 10
304.1370304519734
 20
2.448820558924978
 30
0.0
 11
305.409822658109
 21
1.176028352789273
 31
0.0
  0
LINE
  5
4EED
330
1E
100
AcDbEntity
  8
DASHED
  6
HIDDEN
100
AcDbLine
 10
302.9349489239562
 20
1.246739030907917
 30
0.0
 11
304.1370304519732
 21
2.448820558924978
 31
0.0
  0
LINE
  5
4EEE
330
1E
100
AcDbEntity
  8
DASHED
  6
HIDDEN
100
AcDbLine
 10
302.0864207865322
 20
2.095267168331758
 30
0.0
 11
302.9349489239562
 21
1.246739030907804
 31
0.0
  0
LINE
  5
4EEF
330
1E
100
AcDbEntity
  8
DASHED
  6
HIDDEN
100
AcDbLine
 10
302.1571314646509
 20
-2.076662840668802
 30
0.0
 11
305.409822658109
 21
1.176028352789273
 31
0.0
  0
LINE
  5
4EF2
330
1E
100
AcDbEntity
  8
CENTER
  6
CENTER
100
AcDbLine
 10
271.1571314646509
 20
27.42333715933119
 30
0.0
 11
278.157131464651
 21
27.42333715933119
 31
0.0
  0
LINE
  5
4EF3
330
1E
100
AcDbEntity
  8
DASHED
  6
DASHED
100
AcDbLine
 10
275.348626785709
 20
24.61483248038922
 30
0.0
 11
276.4092869574887
 21
24.61483248038922
 31
0.0
  0
POLYLINE
  5
4EF4
330
1E
100
AcDbEntity
  8
0
100
AcDb2dPolyline
 66
     1
 10
0.0
 20
0.0
 30
0.0
 70
     1
  0
VERTEX
  5
4EF5
330
4EF4
100
AcDbEntity
  8
0
100
AcDbVertex
100
AcDb2dVertex
 10
274.657131464651
 20
17.17333715933119
 30
0.0
  0
VERTEX
  5
4EF6
330
4EF4
100
AcDbEntity
  8
0
100
AcDbVertex
100
AcDb2dVertex
 10
273.1415870080281
 20
16.29833715933119
 30
0.0
  0
VERTEX
  5
4EF7
330
4EF4
100
AcDbEntity
  8
0
100
AcDbVertex
100
AcDb2dVertex
 10
273.1415870080281
 20
14.54833715933119
 30
0.0
  0
VERTEX
  5
4EF8
330
4EF4
100
AcDbEntity
  8
0
100
AcDbVertex
100
AcDb2dVertex
 10
274.657131464651
 20
13.67333715933119
 30
0.0
  0
VERTEX
  5
4EF9
330
4EF4
100
AcDbEntity
  8
0
100
AcDbVertex
100
AcDb2dVertex
 10
276.1726759212738
 20
14.54833715933119
 30
0.0
  0
VERTEX
  5
4EFA
330
4EF4
100
AcDbEntity
  8
0
100
AcDbVertex
100
AcDb2dVertex
 10
276.1726759212738
 20
16.29833715933119
 30
0.0
  0
SEQEND
  5
4EFB
330
4EF4
100
AcDbEntity
  8
0
  0
CIRCLE
  5
4EFC
330
1E
100
AcDbEntity
  8
0
100
AcDbCircle
 10
274.657131464651
 20
15.42333715933119
 30
0.0
 40
1.75
  0
CIRCLE
  5
4EFD
330
1E
100
AcDbEntity
  8
0
100
AcDbCircle
 10
274.657131464651
 20
15.42333715933119
 30
0.0
 40
3.0
  0
LINE
  5
4EFE
330
1E
100
AcDbEntity
  8
DASHED
  6
HIDDEN
100
AcDbLine
 10
275.5605802531915
 20
9.519888370790511
 30
0.0
 11
272.0605802531916
 21
9.519888370790511
 31
0.0
  0
LINE
  5
4F01
330
1E
100
AcDbEntity
  8
DASHED
  6
HIDDEN
100
AcDbLine
 10
283.6571314646509
 20
32.92333715933108
 30
0.0
 11
268.7908713091621
 21
18.05707700384226
 31
0.0
  0
LINE
  5
4F02
330
1E
100
AcDbEntity
  8
CENTER
  6
CENTER
100
AcDbLine
 10
292.657131464651
 20
15.42333715933119
 30
0.0
 11
267.657131464651
 21
15.42333715933119
 31
0.0
  0
LINE
  5
4F03
330
1E
100
AcDbEntity
  8
CENTER
  6
CENTER
100
AcDbLine
 10
274.657131464651
 20
30.92333715933119
 30
0.0
 11
274.657131464651
 21
23.92333715933119
 31
0.0
  0
LINE
  5
4F04
330
1E
100
AcDbEntity
  8
0
100
AcDbLine
 10
247.7958154372544
 20
33.92525577881889
 30
0.0
 11
247.7958154372544
 21
15.42525577881889
 31
0.0
  0
LINE
  5
4F05
330
1E
100
AcDbEntity
  8
0
100
AcDbLine
 10
243.2958154372544
 20
9.425255778818893
 30
0.0
 11
247.4297900334698
 21
9.425255778818893
 31
0.0
  0
LINE
  5
4F06
330
1E
100
AcDbEntity
  8
0
100
AcDbLine
 10
247.7958154372544
 20
12.92525577881889
 30
0.0
 11
243.2958154372544
 21
12.92525577881889
 31
0.0
  0
LINE
  5
4F07
330
1E
100
AcDbEntity
  8
0
100
AcDbLine
 10
247.7958154372544
 20
9.636580644224125
 30
0.0
 11
247.4297900334698
 21
9.425255778818893
 31
0.0
  0
LINE
  5
4F08
330
1E
100
AcDbEntity
  8
0
100
AcDbLine
 10
247.4297900334698
 20
9.425255778818893
 30
0.0
 11
247.4297900334698
 21
12.92525577881889
 31
0.0
  0
LINE
  5
4F09
330
1E
100
AcDbEntity
  8
0
100
AcDbLine
 10
243.2958154372544
 20
21.42525577881889
 30
0.0
 11
247.4297900334698
 21
21.42525577881889
 31
0.0
  0
LINE
  5
4F0A
330
1E
100
AcDbEntity
  8
0
100
AcDbLine
 10
247.7958154372544
 20
17.92525577881889
 30
0.0
 11
243.2958154372544
 21
17.92525577881889
 31
0.0
  0
LINE
  5
4F0B
330
1E
100
AcDbEntity
  8
0
100
AcDbLine
 10
247.7958154372544
 20
21.21393091341377
 30
0.0
 11
247.4297900334698
 21
21.42525577881889
 31
0.0
  0
LINE
  5
4F0C
330
1E
100
AcDbEntity
  8
0
100
AcDbLine
 10
247.4297900334698
 20
21.42525577881889
 30
0.0
 11
247.4297900334698
 21
17.92525577881889
 31
0.0
  0
LINE
  5
4F0D
330
1E
100
AcDbEntity
  8
CENTER
  6
CENTER
100
AcDbLine
 10
274.657131464651
 20
18.92333715933119
 30
0.0
 11
274.657131464651
 21
11.92333715933119
 31
0.0
  0
ARC
  5
4F0E
330
1E
100
AcDbEntity
  8
DASHED
  6
HIDDEN
100
AcDbCircle
 10
294.657131464651
 20
15.42333715933119
 30
0.0
 40
26.0
100
AcDbArc
 50
174.1860980822685
 51
185.8139019177314
  0
LINE
  5
4F0F
330
1E
100
AcDbEntity
  8
DASHED
  6
HIDDEN
100
AcDbLine
 10
272.0605802531916
 20
9.519888370790511
 30
0.0
 11
268.7908713091611
 21
12.78959731482092
 31
0.0
  0
LINE
  5
4F10
330
1E
100
AcDbEntity
  8
0
  6
CONTINUOUS
100
AcDbLine
 10
247.7958154372544
 20
33.92525577881889
 30
0.0
 11
255.7958154372544
 21
33.92525577881889
 31
0.0
  0
LINE
  5
4F12
330
1E
100
AcDbEntity
  8
CENTER
  6
CENTER
100
AcDbLine
 10
314.6571314646509
 20
30.92333715933119
 30
0.0
 11
314.6571314646509
 21
23.92333715933119
 31
0.0
  0
LINE
  5
4F13
330
1E
100
AcDbEntity
  8
CENTER
  6
CENTER
100
AcDbLine
 10
294.657131464651
 20
17.42333715933119
 30
0.0
 11
294.657131464651
 21
35.33514986337996
 31
0.0
  0
LINE
  5
4F14
330
1E
100
AcDbEntity
  8
DASHED
  6
HIDDEN
100
AcDbLine
 10
276.4092869574887
 20
24.61483248038922
 30
0.0
 11
279.2377140822351
 21
27.44325960513544
 31
0.0
  0
LINE
  5
4F15
330
1E
100
AcDbEntity
  8
DASHED
  6
HIDDEN
100
AcDbLine
 10
282.5964712928712
 20
24.79160917568589
 30
0.0
 11
279.2377140822351
 21
28.15036638632188
 31
0.0
  0
LINE
  5
4F16
330
1E
100
AcDbEntity
  8
CENTER
  6
CENTER
100
AcDbLine
 10
282.6593252040718
 20
21.19322135855242
 30
0.0
 11
276.6705747797225
 21
27.18197178290182
 31
0.0
  0
LINE
  5
4F17
330
1E
100
AcDbEntity
  8
DASHED
  6
HIDDEN
100
AcDbLine
 10
282.9500246834645
 20
23.73094900390611
 30
0.0
 11
279.2377140822351
 21
27.44325960513544
 31
0.0
  0
POLYLINE
  5
4F1A
330
1E
100
AcDbEntity
  8
0
100
AcDb2dPolyline
 66
     1
 10
0.0
 20
0.0
 30
0.0
 70
     1
  0
VERTEX
  5
4F1B
330
4F1A
100
AcDbEntity
  8
0
100
AcDbVertex
100
AcDb2dVertex
 10
294.657131464651
 20
18.67333715933119
 30
0.0
  0
VERTEX
  5
4F1C
330
4F1A
100
AcDbEntity
  8
0
100
AcDbVertex
100
AcDb2dVertex
 10
291.8425489023515
 20
17.04833715933119
 30
0.0
  0
VERTEX
  5
4F1D
330
4F1A
100
AcDbEntity
  8
0
100
AcDbVertex
100
AcDb2dVertex
 10
291.8425489023515
 20
13.79833715933119
 30
0.0
  0
VERTEX
  5
4F1E
330
4F1A
100
AcDbEntity
  8
0
100
AcDbVertex
100
AcDb2dVertex
 10
294.657131464651
 20
12.17333715933119
 30
0.0
  0
VERTEX
  5
4F1F
330
4F1A
100
AcDbEntity
  8
0
100
AcDbVertex
100
AcDb2dVertex
 10
297.4717140269504
 20
13.79833715933119
 30
0.0
  0
VERTEX
  5
4F20
330
4F1A
100
AcDbEntity
  8
0
100
AcDbVertex
100
AcDb2dVertex
 10
297.4717140269504
 20
17.04833715933119
 30
0.0
  0
SEQEND
  5
4F21
330
4F1A
100
AcDbEntity
  8
0
  0
CIRCLE
  5
4F22
330
1E
100
AcDbEntity
  8
0
100
AcDbCircle
 10
294.657131464651
 20
15.42333715933119
 30
0.0
 40
3.25
  0
CIRCLE
  5
4F23
330
1E
100
AcDbEntity
  8
0
100
AcDbCircle
 10
294.657131464651
 20
15.42333715933119
 30
0.0
 40
5.5
  0
CIRCLE
  5
4F24
330
1E
100
AcDbEntity
  8
DASHED
  6
HIDDEN
100
AcDbCircle
 10
294.657131464651
 20
15.42333715933119
 30
0.0
 40
7.0
  0
LINE
  5
4F25
330
1E
100
AcDbEntity
  8
CENTER
  6
CENTER
100
AcDbLine
 10
294.657131464651
 20
14.42333715933119
 30
0.0
 11
294.657131464651
 21
16.42333715933119
 31
0.0
  0
LINE
  5
4F26
330
1E
100
AcDbEntity
  8
CENTER
  6
CENTER
100
AcDbLine
 10
293.657131464651
 20
15.42333715933119
 30
0.0
 11
295.657131464651
 21
15.42333715933119
 31
0.0
  0
LINE
  5
4F27
330
1E
100
AcDbEntity
  8
DASHED
  6
HIDDEN
100
AcDbLine
 10
282.5964712928712
 20
24.79160917568589
 30
0.0
 11
282.5964712928712
 21
24.08450239449922
 31
0.0
  0
LINE
  5
4F28
330
1E
100
AcDbEntity
  8
DASHED
  6
HIDDEN
100
AcDbLine
 10
279.0609373869383
 20
21.25607526975312
 30
0.0
 11
275.7021801763023
 21
24.61483248038922
 31
0.0
  0
LINE
  5
4F29
330
1E
100
AcDbEntity
  8
DASHED
  6
HIDDEN
100
AcDbLine
 10
280.1215975587182
 20
20.9025218791599
 30
0.0
 11
276.4092869574887
 21
24.61483248038922
 31
0.0
  0
LINE
  5
4F2A
330
1E
100
AcDbEntity
  8
DASHED
  6
HIDDEN
100
AcDbLine
 10
279.0609373869384
 20
21.25607526975312
 30
0.0
 11
279.768044168125
 21
21.25607526975312
 31
0.0
  0
LINE
  5
4F2B
330
1E
100
AcDbEntity
  8
DASHED
  6
HIDDEN
100
AcDbLine
 10
282.5964712928712
 20
24.79160917568589
 30
0.0
 11
279.0609373869383
 21
21.25607526975312
 31
0.0
  0
LINE
  5
4F2C
330
1E
100
AcDbEntity
  8
CENTER
  6
CENTER
100
AcDbLine
 10
314.6571314646509
 20
18.92333715933119
 30
0.0
 11
314.6571314646509
 21
11.92333715933119
 31
0.0
  0
CIRCLE
  5
4F2D
330
1E
100
AcDbEntity
  8
0
100
AcDbCircle
 10
314.6571314646509
 20
15.42333715933119
 30
0.0
 40
3.0
  0
POLYLINE
  5
4F2E
330
1E
100
AcDbEntity
  8
0
100
AcDb2dPolyline
 66
     1
 10
0.0
 20
0.0
 30
0.0
 70
     1
  0
VERTEX
  5
4F2F
330
4F2E
100
AcDbEntity
  8
0
100
AcDbVertex
100
AcDb2dVertex
 10
314.6571314646509
 20
17.17333715933119
 30
0.0
  0
VERTEX
  5
4F30
330
4F2E
100
AcDbEntity
  8
0
100
AcDbVertex
100
AcDb2dVertex
 10
313.1415870080282
 20
16.29833715933119
 30
0.0
  0
VERTEX
  5
4F31
330
4F2E
100
AcDbEntity
  8
0
100
AcDbVertex
100
AcDb2dVertex
 10
313.1415870080282
 20
14.54833715933119
 30
0.0
  0
VERTEX
  5
4F32
330
4F2E
100
AcDbEntity
  8
0
100
AcDbVertex
100
AcDb2dVertex
 10
314.6571314646509
 20
13.67333715933119
 30
0.0
  0
VERTEX
  5
4F33
330
4F2E
100
AcDbEntity
  8
0
100
AcDbVertex
100
AcDb2dVertex
 10
316.1726759212738
 20
14.54833715933119
 30
0.0
  0
VERTEX
  5
4F34
330
4F2E
100
AcDbEntity
  8
0
100
AcDbVertex
100
AcDb2dVertex
 10
316.1726759212738
 20
16.29833715933119
 30
0.0
  0
SEQEND
  5
4F35
330
4F2E
100
AcDbEntity
  8
0
  0
CIRCLE
  5
4F36
330
1E
100
AcDbEntity
  8
0
100
AcDbCircle
 10
314.6571314646509
 20
15.42333715933119
 30
0.0
 40
1.75
  0
LINE
  5
4F37
330
1E
100
AcDbEntity
  8
DASHED
  6
HIDDEN
100
AcDbLine
 10
313.7536826761104
 20
9.519888370790511
 30
0.0
 11
317.2536826761103
 21
9.519888370790511
 31
0.0
  0
LINE
  5
4F38
330
1E
100
AcDbEntity
  8
DASHED
  6
HIDDEN
100
AcDbLine
 10
283.6571314646509
 20
32.92333715933108
 30
0.0
 11
305.657131464651
 21
32.92333715933108
 31
0.0
  0
LINE
  5
4F39
330
1E
100
AcDbEntity
  8
DASHED
  6
HIDDEN
100
AcDbLine
 10
279.237714082235
 20
28.50391977691521
 30
0.0
 11
279.2377140822351
 21
27.44325960513544
 31
0.0
  0
LINE
  5
4F3A
330
1E
100
AcDbEntity
  8
0
100
AcDbLine
 10
321.6571314646509
 20
29.92333715933119
 30
0.0
 11
321.6571314646509
 21
0.9233371593311971
 31
0.0
  0
ARC
  5
4F3C
330
1E
100
AcDbEntity
  8
DASHED
  6
HIDDEN
100
AcDbCircle
 10
294.657131464651
 20
15.42333715933119
 30
0.0
 40
26.0
100
AcDbArc
 50
354.1860980822679
 51
5.813901917731433
  0
DIMENSION
  5
4F4F
330
1E
100
AcDbEntity
  8
AM_5
100
AcDbDimension
  2
*D4
 10
216.2958154372544
 20
39.88703748366264
 30
0.0
 11
213.5458154372544
 21
41.48703748366264
 31
0.0
 70
    32
  3
AM_ISO
100
AcDbAlignedDimension
 13
210.7958154372544
 23
32.92525577881889
 33
0.0
 14
216.2958154372544
 24
28.99439800298347
 34
0.0
100
AcDbRotatedDimension
  0
DIMENSION
  5
4F73
330
1E
100
AcDbEntity
  8
AM_5
100
AcDbDimension
  2
*D5
 10
233.7958154372544
 20
39.88703748366264
 30
0.0
 11
238.5458154372544
 21
41.48703748366265
 31
0.0
 70
    32
  3
AM_ISO
100
AcDbAlignedDimension
 13
243.2958154372544
 23
32.92525577881889
 33
0.0
 14
233.7958154372544
 24
28.99439800298347
 34
0.0
100
AcDbRotatedDimension
  0
DIMENSION
  5
4F97
330
1E
100
AcDbEntity
  8
AM_5
100
AcDbDimension
  2
*D6
 10
243.2958154372544
 20
-10.97607480751608
 30
0.0
 11
227.0458154372544
 21
-9.37587795712238
 31
0.0
 70
    32
  1
<>+stroke
  3
AM_ISO
100
AcDbAlignedDimension
 13
210.7958154372544
 23
-2.074744221181049
 33
0.0
 14
243.2958154372544
 24
-2.074744221181049
 34
0.0
 50
0.0000000000001018
100
AcDbRotatedDimension
1001
ACAD
1000
DSTYLE
1002
{
1070
   173
1070
     1
1070
   174
1070
     1
1070
     7
1000
GENDOT
1002
}
  0
DIMENSION
  5
4FBF
330
1E
100
AcDbEntity
  8
AM_5
100
AcDbDimension
  2
*D7
 10
247.7958154372544
 20
-10.97607480751606
 30
0.0
 11
245.5458154372544
 21
-9.376074807516063
 31
0.0
 70
    32
  3
AM_ISO
100
AcDbAlignedDimension
 13
243.2958154372544
 23
-2.074744221181051
 33
0.0
 14
247.7958154372544
 24
-3.074744221181051
 34
0.0
 50
0.0000000000002036
100
AcDbRotatedDimension
1001
ACAD
1000
DSTYLE
1002
{
1070
   174
1070
     1
1070
     5
1000
GENDOT
1002
}
  0
DIMENSION
  5
4FF3
330
1E
100
AcDbEntity
  8
AM_5
100
AcDbDimension
  2
*D8
 10
255.7958154372544
 20
-10.97607480751604
 30
0.0
 11
251.7958154372544
 21
-9.376074807516042
 31
0.0
 70
    32
  3
AM_ISO
100
AcDbAlignedDimension
 13
247.7958154372544
 23
-3.074744221181051
 33
0.0
 14
255.7958154372544
 24
-3.074744221181049
 34
0.0
 50
0.0000000000002036
100
AcDbRotatedDimension
1001
ACAD
1000
DSTYLE
1002
{
1070
   173
1070
     1
1070
   174
1070
     1
1070
     6
1000
GENDOT
1002
}
  0
DIMENSION
  5
502E
330
1E
100
AcDbEntity
  8
AM_5
100
AcDbDimension
  2
*D9
 10
255.7958154372544
 20
-15.97607480751605
 30
0.0
 11
233.2958154372544
 21
-14.37607480751605
 31
0.0
 70
    32
  1
<>+stroke
  3
AM_ISO
100
AcDbAlignedDimension
 13
210.7958154372544
 23
-2.074744221181049
 33
0.0
 14
255.7958154372544
 24
-3.074744221181049
 34
0.0
 50
0.0000000000001018
100
AcDbRotatedDimension
1001
ACAD
1000
DSTYLE
1002
{
1070
   174
1070
     1
1002
}
  0
DIMENSION
  5
507B
330
1E
100
AcDbEntity
  8
AM_5
100
AcDbDimension
  2
*D10
 10
294.657131464651
 20
-10.97607480751597
 30
0.0
 11
284.657131464651
 21
-9.375877957122273
 31
0.0
 70
    32
  3
AM_ISO
100
AcDbAlignedDimension
 13
274.657131464651
 23
-0.0766628406688028
 33
0.0
 14
294.657131464651
 24
-3.645703938170811
 34
0.0
 50
0.0000000000001018
100
AcDbRotatedDimension
  0
DIMENSION
  5
509F
330
1E
100
AcDbEntity
  8
AM_5
100
AcDbDimension
  2
*D11
 10
314.6571314646509
 20
-10.97607480751593
 30
0.0
 11
304.6571314646509
 21
-9.375877957122234
 31
0.0
 70
    32
  3
AM_ISO
100
AcDbAlignedDimension
 13
294.657131464651
 23
-3.645703938170811
 33
0.0
 14
314.6571314646509
 24
-0.0766628406688028
 34
0.0
 50
0.0000000000001018
100
AcDbRotatedDimension
  0
DIMENSION
  5
50C3
330
1E
100
AcDbEntity
  8
AM_5
100
AcDbDimension
  2
*D12
 10
321.6571314646509
 20
-15.97607480751592
 30
0.0
 11
294.657131464651
 21
-14.37607480751592
 31
0.0
 70
    32
  3
AM_ISO
100
AcDbAlignedDimension
 13
267.657131464651
 23
0.9233371593311971
 33
0.0
 14
321.6571314646509
 24
0.9233371593311971
 34
0.0
 50
0.0000000000001018
100
AcDbRotatedDimension
  0
DIMENSION
  5
50E7
330
1E
100
AcDbEntity
  8
AM_5
100
AcDbDimension
  2
*D13
 10
329.8117764225394
 20
3.423337159331193
 30
0.0
 11
328.2115795721457
 21
9.423337159331248
 31
0.0
 70
    32
  3
AM_ISO
100
AcDbAlignedDimension
 13
322.5660494141342
 23
15.42333715933119
 33
0.0
 14
318.157131464651
 24
3.423337159331197
 34
0.0
 50
90.0
100
AcDbRotatedDimension
  0
DIMENSION
  5
510B
330
1E
100
AcDbEntity
  8
AM_5
100
AcDbDimension
  2
*D14
 10
329.8117764225394
 20
27.42333715933119
 30
0.0
 11
328.2115795721457
 21
21.42333715933124
 31
0.0
 70
    32
  3
AM_ISO
100
AcDbAlignedDimension
 13
322.5660494141342
 23
15.42333715933119
 33
0.0
 14
318.157131464651
 24
27.42333715933119
 34
0.0
 50
90.0
100
AcDbRotatedDimension
  0
DIMENSION
  5
512F
330
1E
100
AcDbEntity
  8
AM_5
100
AcDbDimension
  2
*D15
 10
334.8117764225394
 20
-3.076662840668807
 30
0.0
 11
333.2117764225394
 21
15.42333715933124
 31
0.0
 70
    32
  3
AM_ISO
100
AcDbAlignedDimension
 13
317.6571314646509
 23
33.92333715933119
 33
0.0
 14
317.6571314646509
 24
-3.076662840668802
 34
0.0
 50
90.0
100
AcDbRotatedDimension
  0
ARC
  5
523F
330
1E
100
AcDbEntity
  8
0
 62
     3
100
AcDbCircle
 10
274.657131464651
 20
3.423337159331197
 30
0.0
 40
3.0
100
AcDbArc
 50
280.0
 51
190.0
  0
CIRCLE
  5
5240
330
1E
100
AcDbEntity
  8
0
100
AcDbCircle
 10
274.657131464651
 20
3.423337159331197
 30
0.0
 40
2.5
  0
CIRCLE
  5
5241
330
1E
100
AcDbEntity
  8
0
100
AcDbCircle
 10
314.6571314646509
 20
3.423337159331197
 30
0.0
 40
2.5
  0
ARC
  5
5242
330
1E
100
AcDbEntity
  8
0
 62
     3
100
AcDbCircle
 10
314.6571314646509
 20
3.423337159331197
 30
0.0
 40
3.0
100
AcDbArc
 50
350.0
 51
260.0
  0
CIRCLE
  5
5243
330
1E
100
AcDbEntity
  8
0
100
AcDbCircle
 10
274.657131464651
 20
27.42333715933119
 30
0.0
 40
2.5
  0
ARC
  5
5244
330
1E
100
AcDbEntity
  8
0
 62
     3
100
AcDbCircle
 10
274.657131464651
 20
27.42333715933119
 30
0.0
 40
3.0
100
AcDbArc
 50
169.9999999999999
 51
80.00000000000003
  0
ARC
  5
5245
330
1E
100
AcDbEntity
  8
0
 62
     3
100
AcDbCircle
 10
314.6571314646509
 20
27.42333715933119
 30
0.0
 40
3.0
100
AcDbArc
 50
100.0
 51
10.0
  0
CIRCLE
  5
5246
330
1E
100
AcDbEntity
  8
0
100
AcDbCircle
 10
314.6571314646509
 20
27.42333715933119
 30
0.0
 40
2.5
  0
INSERT
  5
526D
330
1E
100
AcDbEntity
  8
AM_5
100
AcDbBlockReference
  2
*S16
 10
0.0
 20
0.0
 30
0.0
  0
TEXT
  5
526E
330
1E
100
AcDbEntity
  8
AM_5
100
AcDbText
 10
323.8937726400283
 20
38.9113673693032
 30
0.0
 40
2.0
  1
4-M6x1.0
100
AcDbText
  0
INSERT
  5
5399
330
1E
100
AcDbEntity
  8
AM_5
100
AcDbBlockReference
  2
*S17
 10
0.0
 20
0.0
 30
0.0
  0
TEXT
  5
539A
330
1E
100
AcDbEntity
  8
AM_5
100
AcDbText
 10
227.0048420715178
 20
45.1776048096126
 30
0.0
 40
2.0
  1
2-M5x0.8
100
AcDbText
  0
LINE
  5
53B1
330
1E
100
AcDbEntity
  8
0
100
AcDbLine
 10
267.657131464651
 20
29.92333715933119
 30
0.0
 11
271.657131464651
 21
33.92333715933119
 31
0.0
  0
LINE
  5
53B2
330
1E
100
AcDbEntity
  8
0
100
AcDbLine
 10
317.6571314646509
 20
33.92333715933119
 30
0.0
 11
321.6571314646509
 21
29.92333715933119
 31
0.0
  0
LINE
  5
53B3
330
1E
100
AcDbEntity
  8
0
100
AcDbLine
 10
321.6571314646509
 20
0.9233371593311971
 30
0.0
 11
317.6571314646509
 21
-3.076662840668802
 31
0.0
  0
LINE
  5
53B4
330
1E
100
AcDbEntity
  8
0
100
AcDbLine
 10
271.657131464651
 20
-3.076662840668802
 30
0.0
 11
267.657131464651
 21
0.9233371593311971
 31
0.0
  0
LINE
  5
53EB
330
1E
100
AcDbEntity
  8
0
100
AcDbLine
 10
255.7958154372544
 20
29.92333715933119
 30
0.0
 11
247.7958154372543
 21
29.92333715933119
 31
0.0
  0
LINE
  5
53EC
330
1E
100
AcDbEntity
  8
0
100
AcDbLine
 10
255.7958154372544
 20
0.9271743983065903
 30
0.0
 11
247.7958154372543
 21
0.9271743983065903
 31
0.0
  0
ENDSEC
  0
SECTION
  2
OBJECTS
  0
DICTIONARY
  5
C
330
0
100
AcDbDictionary
  3
ACAD_GROUP
350
D
  3
ACAD_IMAGE_DICT
350
3CB
  3
ACAD_LAYOUT
350
19
  3
ACAD_MLINESTYLE
350
16
  3
ACAD_PLOTSETTINGS
350
18
  3
ACMDICTIONARY
350
7C2
  3
AMG
350
7A8
  3
AMGSNAPSETTINGS
350
895
  3
DWGPROPS
350
5400
1001
ACAD
1000
TREAT_AS_HARD
1070
     0
1000
TREAT_AS_HARD
1070
     0
  0
DICTIONARY
  5
708
330
1E
100
AcDbDictionary
  3
ACAD_INDEX
350
ADF
  3
ACAD_LAYOUTSELFREF
350
5478
1001
ACAD
1000
TREAT_AS_HARD
1070
     1
1000
TREAT_AS_HARD
1070
     1
  0
DICTIONARY
  5
70A
330
1A
100
AcDbDictionary
  3
ACAD_LAYOUTSELFREF
350
5477
1001
ACAD
1000
TREAT_AS_HARD
1070
     1
1000
TREAT_AS_HARD
1070
     1
  0
DICTIONARY
  5
D
102
{ACAD_REACTORS
330
C
102
}
330
C
100
AcDbDictionary
1001
ACAD
1000
TREAT_AS_HARD
1070
     0
1000
TREAT_AS_HARD
1070
     0
  0
DICTIONARY
  5
3CB
102
{ACAD_REACTORS
330
C
102
}
330
C
100
AcDbDictionary
  3
PLOT
350
3CC
1001
ACAD
1000
TREAT_AS_HARD
1070
     0
1000
TREAT_AS_HARD
1070
     0
  0
DICTIONARY
  5
19
102
{ACAD_REACTORS
330
C
102
}
330
C
100
AcDbDictionary
1001
ACAD
1000
TREAT_AS_HARD
1070
     0
1000
TREAT_AS_HARD
1070
     0
  0
DICTIONARY
  5
16
102
{ACAD_REACTORS
330
C
102
}
330
C
100
AcDbDictionary
  3
STANDARD
350
17
1001
ACAD
1000
TREAT_AS_HARD
1070
     0
1000
TREAT_AS_HARD
1070
     0
  0
DICTIONARY
  5
18
102
{ACAD_REACTORS
330
C
102
}
330
C
100
AcDbDictionary
1001
ACAD
1000
TREAT_AS_HARD
1070
     0
1000
TREAT_AS_HARD
1070
     0
  0
DICTIONARY
  5
7C2
102
{ACAD_REACTORS
330
C
102
}
330
C
100
AcDbDictionary
  3
ACMSTDDICTIONARY
350
7C8
1001
ACAD
1000
TREAT_AS_HARD
1070
     0
1000
TREAT_AS_HARD
1070
     0
  0
DICTIONARY
  5
7A8
102
{ACAD_REACTORS
330
C
102
}
330
C
100
AcDbDictionary
  3
ACMGSETTINGS
350
7A9
1001
ACAD
1000
TREAT_AS_HARD
1070
     0
1000
TREAT_AS_HARD
1070
     0
  0
DICTIONARY
  5
895
102
{ACAD_REACTORS
330
C
102
}
330
C
100
AcDbDictionary
1001
ACAD
1000
TREAT_AS_HARD
1070
     0
1000
TREAT_AS_HARD
1070
     0
  0
XRECORD
  5
5400
102
{ACAD_REACTORS
330
C
102
}
330
C
100
AcDbXrecord
  1
DWGPROPS COOKIE
  2

  3

  4

  6

  7

  8

  9

300
AmdtFileType=84
301
=
302
=
303
=
304
=
305
=
306
=
307
=
308
=
309
=
 40
0.4194395486111111
 41
2450294.602131481
 42
2453118.497714664
  1

 90
        1
  0
DICTIONARY
  5
ADF
102
{ACAD_REACTORS
330
708
102
}
330
708
100
AcDbDictionary
  3
*A1
350
AE0
1001
ACAD
1000
TREAT_AS_HARD
1070
     0
1000
TREAT_AS_HARD
1070
     0
  0
XRECORD
  5
5478
102
{ACAD_REACTORS
330
708
102
}
330
708
100
AcDbXrecord
340
1E
  0
XRECORD
  5
5477
102
{ACAD_REACTORS
330
70A
102
}
330
70A
100
AcDbXrecord
340
1A
  0
IMAGEDEF
  5
3CC
102
{ACAD_REACTORS
330
3CB
102
}
330
3CB
100
AcDbRasterImageDef
 90
        0
  1
D:\CHI\plot.bmp
 10
694.0
 20
470.0
 11
0.264550269889837
 21
0.264550269889837
280
     1
281
     2
  0
MLINESTYLE
  5
17
102
{ACAD_REACTORS
330
16
102
}
330
16
100
AcDbMlineStyle
  2
STANDARD
 70
     0
  3

 62
   256
 51
90.0
 52
90.0
 71
     2
 49
0.5
 62
   256
  6
BYLAYER
 49
-0.5
 62
   256
  6
BYLAYER
  0
DICTIONARY
  5
7C8
102
{ACAD_REACTORS
330
7C2
102
}
330
7C2
100
AcDbDictionary
1001
ACAD
1000
TREAT_AS_HARD
1070
     0
1000
TREAT_AS_HARD
1070
     0
  0
DICTIONARY
  5
7A9
102
{ACAD_REACTORS
330
7A8
102
}
330
7A8
100
AcDbDictionary
  3
DWGSETTINGS
350
2DD6
1001
ACAD
1000
TREAT_AS_HARD
1070
     0
1000
TREAT_AS_HARD
1070
     0
  0
LAYER_INDEX
  5
AE0
102
{ACAD_REACTORS
330
ADF
102
}
330
ADF
100
AcDbIndex
 40
2453119.492204097
100
AcDbLayerIndex
  8
0
360
AE1
 90
       60
  8
DEFPOINTS
360
AE2
 90
        0
  8
ASHADE
360
AE3
 90
        9
  8
LOGO
360
AE4
 90
      112
  8
AM_5
360
AE5
 90
       16
  8
CENTER
360
AE6
 90
       22
  8
DASHED
360
119F
 90
       35
  0
XRECORD
  5
2DD6
102
{ACAD_REACTORS
330
7A9
102
}
330
7A9
100
AcDbXrecord
  1
VERSION
140
15.0
  1
PRODUCT
  2
AutoCAD Mechanical 2000
  0
IDBUFFER
  5
AE1
330
0
100
AcDbIdBuffer
330
53B1
330
53B2
330
53B3
330
53B4
330
53EB
330
53EC
330
2F5E
330
2F5F
330
2F61
330
2F62
330
2F63
330
2FDF
330
5246
330
5245
330
5244
330
5243
330
5242
330
5241
330
5240
330
523F
330
4E79
330
4E8B
330
4F3A
330
4F36
330
4F2E
330
4F2D
330
4F23
330
4F22
330
4F1A
330
4E9D
330
4F10
330
4F0C
330
4F0B
330
4F0A
330
4F09
330
4F08
330
4F07
330
4F06
330
4F05
330
4F04
330
4EFD
330
4EFC
330
4EF4
330
4E9E
330
4EE5
330
4EE1
330
4EDF
330
4EDE
330
4EDD
330
4ED2
330
4ECF
330
4EBB
330
4EA8
330
4EA6
330
4EA4
330
4EA3
330
4EA2
330
4EA1
330
4EA0
330
4E9F
  0
IDBUFFER
  5
AE2
330
0
100
AcDbIdBuffer
  0
IDBUFFER
  5
AE3
330
0
100
AcDbIdBuffer
330
51A
330
51B
330
51C
330
51D
330
51E
330
51F
330
520
330
521
330
528
  0
IDBUFFER
  5
AE4
330
0
100
AcDbIdBuffer
330
2F4E
330
2F4F
330
2F50
330
2F51
330
2F64
330
2F65
330
2F66
330
2F67
330
2F68
330
2F69
330
2F6A
330
2F6B
330
2F6C
330
2F6D
330
2F6E
330
2F6F
330
2F70
330
2F71
330
2F72
330
2F76
330
2F7A
330
2F7B
330
2F7F
330
2F80
330
2F81
330
2F82
330
2F83
330
2F84
330
2F85
330
2F86
330
2F87
330
2F8B
330
2F8F
330
2F93
330
2F94
330
2F95
330
2F99
330
2F9A
330
2F9B
330
2F9C
330
2F9D
330
2F9E
330
2F9F
330
2FA0
330
2FA1
330
2FA2
330
2FA3
330
2FA4
330
2FA5
330
2FA6
330
2FA7
330
2FA8
330
2FA9
330
2FAA
330
2FAB
330
2FAC
330
2FAD
330
2FE0
330
2FE1
330
2FE2
330
2FE3
330
2FE4
330
2FE5
330
2FE6
330
2FE7
330
2FE8
330
2FE9
330
2FEA
330
2FEB
330
2FEC
330
2FED
330
2FEE
330
2FEF
330
2FF0
330
2FF1
330
2FF2
330
2FF3
330
2FF4
330
2FF5
330
2FF6
330
2FF7
330
2FF8
330
2FF9
330
2FFA
330
2FFB
330
2FFC
330
2FFD
330
2FFE
330
2FFF
330
3000
330
3001
330
3002
330
3003
330
3004
330
3005
330
3006
330
3007
330
3008
330
3009
330
300A
330
300B
330
3075
330
3076
330
3077
330
3078
330
3079
330
307A
330
307B
330
307C
330
307D
330
307E
330
307F
  0
IDBUFFER
  5
AE5
330
0
100
AcDbIdBuffer
330
5399
330
539A
330
4F73
330
4F4F
330
512F
330
510B
330
50E7
330
50C3
330
509F
330
507B
330
502E
330
4FF3
330
4FBF
330
4F97
330
526E
330
526D
  0
IDBUFFER
  5
AE6
330
0
100
AcDbIdBuffer
330
4F2C
330
4F26
330
4F25
330
4F16
330
4F13
330
4F12
330
4F0D
330
4F03
330
4F02
330
4EF2
330
4EE4
330
4EDC
330
4E78
330
4EA5
330
4EA7
330
4EBA
330
4ECD
330
4ED0
330
4ED1
330
4ED3
330
4ED5
330
4EDA
  0
IDBUFFER
  5
119F
330
0
100
AcDbIdBuffer
330
4F3C
330
4F39
330
4F38
330
4F37
330
4F2B
330
4F2A
330
4F29
330
4F28
330
4F27
330
4F24
330
4F17
330
4F15
330
4F14
330
4F0F
330
4F0E
330
4F01
330
4EFE
330
4EF3
330
4EEF
330
4EEE
330
4EED
330
4EEC
330
4EEB
330
4EEA
330
4EE9
330
4EE8
330
4EE7
330
4EE0
330
4EDB
330
4ED9
330
4ED8
330
4ED7
330
4ED6
330
4ED4
330
4ECE
  0
ENDSEC
  0
EOF
