  0
SECTION
  2
HEADER
  9
$ACADVER
  1
AC1015
  9
$ACADMAINTVER
 70
    20
  9
$DWGCODEPAGE
  3
ANSI_950
  9
$INSBASE
 10
0.0
 20
0.0
 30
0.0
  9
$EXTMIN
 10
2594.819065322383
 20
1419.960279655839
 30
-0.0030333007883314
  9
$EXTMAX
 10
2833.018635747236
 20
1726.29955949036
 30
156.0543917582041
  9
$LIMMIN
 10
0.0
 20
0.0
  9
$LIMMAX
 10
420.0
 20
297.0
  9
$ORTHOMODE
 70
     0
  9
$REGENMODE
 70
     1
  9
$FILLMODE
 70
     1
  9
$QTEXTMODE
 70
     0
  9
$MIRRTEXT
 70
     1
  9
$LTSCALE
 40
1.0
  9
$ATTMODE
 70
     1
  9
$TEXTSIZE
 40
3.0
  9
$TRACEWID
 40
1.0
  9
$TEXTSTYLE
  7
CHINESET
  9
$CLAYER
  8
0
  9
$CELTYPE
  6
ByLayer
  9
$CECOLOR
 62
   256
  9
$CELTSCALE
 40
1.0
  9
$DISPSILH
 70
     0
  9
$DIMSCALE
 40
1.0
  9
$DIMASZ
 40
3.0
  9
$DIMEXO
 40
1.0
  9
$DIMDLI
 40
7.0
  9
$DIMRND
 40
0.0
  9
$DIMDLE
 40
0.0
  9
$DIMEXE
 40
1.5
  9
$DIMTP
 40
0.1
  9
$DIMTM
 40
0.1
  9
$DIMTXT
 40
3.0
  9
$DIMCEN
 40
0.0
  9
$DIMTSZ
 40
0.0
  9
$DIMTOL
 70
     0
  9
$DIMLIM
 70
     0
  9
$DIMTIH
 70
     0
  9
$DIMTOH
 70
     0
  9
$DIMSE1
 70
     0
  9
$DIMSE2
 70
     0
  9
$DIMTAD
 70
     1
  9
$DIMZIN
 70
     8
  9
$DIMBLK
  1

  9
$DIMASO
 70
     1
  9
$DIMSHO
 70
     1
  9
$DIMPOST
  1

  9
$DIMAPOST
  1
"
  9
$DIMALT
 70
     0
  9
$DIMALTD
 70
     2
  9
$DIMALTF
 40
0.0393701
  9
$DIMLFAC
 40
1.0
  9
$DIMTOFL
 70
     1
  9
$DIMTVP
 40
0.0
  9
$DIMTIX
 70
     0
  9
$DIMSOXD
 70
     0
  9
$DIMSAH
 70
     0
  9
$DIMBLK1
  1

  9
$DIMBLK2
  1

  9
$DIMSTYLE
  2
AM_ISO
  9
$DIMCLRD
 70
   256
  9
$DIMCLRE
 70
   256
  9
$DIMCLRT
 70
   256
  9
$DIMTFAC
 40
0.6
  9
$DIMGAP
 40
1.0
  9
$DIMJUST
 70
     0
  9
$DIMSD1
 70
     0
  9
$DIMSD2
 70
     0
  9
$DIMTOLJ
 70
     0
  9
$DIMTZIN
 70
     8
  9
$DIMALTZ
 70
     0
  9
$DIMALTTZ
 70
     0
  9
$DIMUPT
 70
     0
  9
$DIMDEC
 70
     2
  9
$DIMTDEC
 70
     8
  9
$DIMALTU
 70
     2
  9
$DIMALTTD
 70
     2
  9
$DIMTXSTY
  7
STANDARD
  9
$DIMAUNIT
 70
     0
  9
$DIMADEC
 70
     0
  9
$DIMALTRND
 40
0.0
  9
$DIMAZIN
 70
     2
  9
$DIMDSEP
 70
    46
  9
$DIMATFIT
 70
     3
  9
$DIMFRAC
 70
     0
  9
$DIMLDRBLK
  1

  9
$DIMLUNIT
 70
     2
  9
$DIMLWD
 70
    -1
  9
$DIMLWE
 70
    -1
  9
$DIMTMOVE
 70
     0
  9
$LUNITS
 70
     2
  9
$LUPREC
 70
     2
  9
$SKETCHINC
 40
1.0
  9
$FILLETRAD
 40
2.5
  9
$AUNITS
 70
     0
  9
$AUPREC
 70
     0
  9
$MENU
  1
.
  9
$ELEVATION
 40
0.0
  9
$PELEVATION
 40
0.0
  9
$THICKNESS
 40
0.0
  9
$LIMCHECK
 70
     0
  9
$CHAMFERA
 40
2.5
  9
$CHAMFERB
 40
2.5
  9
$CHAMFERC
 40
20.0
  9
$CHAMFERD
 40
0.0
  9
$SKPOLY
 70
     0
  9
$TDCREATE
 40
2453809.488480533
  9
$TDUCREATE
 40
2453809.155147199
  9
$TDUPDATE
 40
2453815.446536632
  9
$TDUUPDATE
 40
2453815.113203299
  9
$TDINDWG
 40
0.2213120486
  9
$TDUSRTIMER
 40
0.2213120486
  9
$USRTIMER
 70
     1
  9
$ANGBASE
 50
0.0
  9
$ANGDIR
 70
     0
  9
$PDMODE
 70
     0
  9
$PDSIZE
 40
0.0
  9
$PLINEWID
 40
0.0
  9
$SPLFRAME
 70
     0
  9
$SPLINETYPE
 70
     6
  9
$SPLINESEGS
 70
     8
  9
$HANDSEED
  5
26BE
  9
$SURFTAB1
 70
     6
  9
$SURFTAB2
 70
     6
  9
$SURFTYPE
 70
     6
  9
$SURFU
 70
     6
  9
$SURFV
 70
     6
  9
$UCSBASE
  2

  9
$UCSNAME
  2

  9
$UCSORG
 10
0.0
 20
0.0
 30
0.0
  9
$UCSXDIR
 10
1.0
 20
0.0
 30
0.0
  9
$UCSYDIR
 10
0.0
 20
1.0
 30
0.0
  9
$UCSORTHOREF
  2

  9
$UCSORTHOVIEW
 70
     0
  9
$UCSORGTOP
 10
0.0
 20
0.0
 30
0.0
  9
$UCSORGBOTTOM
 10
0.0
 20
0.0
 30
0.0
  9
$UCSORGLEFT
 10
0.0
 20
0.0
 30
0.0
  9
$UCSORGRIGHT
 10
0.0
 20
0.0
 30
0.0
  9
$UCSORGFRONT
 10
0.0
 20
0.0
 30
0.0
  9
$UCSORGBACK
 10
0.0
 20
0.0
 30
0.0
  9
$PUCSBASE
  2

  9
$PUCSNAME
  2

  9
$PUCSORG
 10
0.0
 20
0.0
 30
0.0
  9
$PUCSXDIR
 10
1.0
 20
0.0
 30
0.0
  9
$PUCSYDIR
 10
0.0
 20
1.0
 30
0.0
  9
$PUCSORTHOREF
  2

  9
$PUCSORTHOVIEW
 70
     0
  9
$PUCSORGTOP
 10
0.0
 20
0.0
 30
0.0
  9
$PUCSORGBOTTOM
 10
0.0
 20
0.0
 30
0.0
  9
$PUCSORGLEFT
 10
0.0
 20
0.0
 30
0.0
  9
$PUCSORGRIGHT
 10
0.0
 20
0.0
 30
0.0
  9
$PUCSORGFRONT
 10
0.0
 20
0.0
 30
0.0
  9
$PUCSORGBACK
 10
0.0
 20
0.0
 30
0.0
  9
$USERI1
 70
     0
  9
$USERI2
 70
     0
  9
$USERI3
 70
     0
  9
$USERI4
 70
     0
  9
$USERI5
 70
     0
  9
$USERR1
 40
0.0
  9
$USERR2
 40
0.0
  9
$USERR3
 40
0.0
  9
$USERR4
 40
0.0
  9
$USERR5
 40
0.0
  9
$WORLDVIEW
 70
     1
  9
$SHADEDGE
 70
     3
  9
$SHADEDIF
 70
    70
  9
$TILEMODE
 70
     1
  9
$MAXACTVP
 70
    64
  9
$PINSBASE
 10
0.0
 20
0.0
 30
0.0
  9
$PLIMCHECK
 70
     0
  9
$PEXTMIN
 10
1.000000000000000E+20
 20
1.000000000000000E+20
 30
1.000000000000000E+20
  9
$PEXTMAX
 10
-1.000000000000000E+20
 20
-1.000000000000000E+20
 30
-1.000000000000000E+20
  9
$PLIMMIN
 10
0.0
 20
0.0
  9
$PLIMMAX
 10
420.0
 20
297.0
  9
$UNITMODE
 70
     0
  9
$VISRETAIN
 70
     1
  9
$PLINEGEN
 70
     0
  9
$PSLTSCALE
 70
     1
  9
$TREEDEPTH
 70
  3020
  9
$CMLSTYLE
  2
Standard
  9
$CMLJUST
 70
     0
  9
$CMLSCALE
 40
20.0
  9
$PROXYGRAPHICS
 70
     1
  9
$MEASUREMENT
 70
     1
  9
$CELWEIGHT
370
    -1
  9
$ENDCAPS
280
     0
  9
$JOINSTYLE
280
     0
  9
$LWDISPLAY
290
     0
  9
$INSUNITS
 70
     4
  9
$HYPERLINKBASE
  1

  9
$STYLESHEET
  1
彩色出圖.ctb
  9
$XEDIT
290
     1
  9
$CEPSNTYPE
380
     0
  9
$PSTYLEMODE
290
     1
  9
$FINGERPRINTGUID
  2
{5D7CF7E5-09B4-4001-B38A-9C16224019A8}
  9
$VERSIONGUID
  2
{AFA7FA6E-F639-4B55-9D8D-A8148DEEC252}
  9
$EXTNAMES
290
     1
  9
$PSVPSCALE
 40
0.0
  9
$OLESTARTUP
290
     0
  0
ENDSEC
  0
SECTION
  2
CLASSES
  0
CLASS
  1
ACDBDICTIONARYWDFLT
  2
AcDbDictionaryWithDefault
  3
ObjectDBX Classes
 90
        0
280
     0
281
     0
  0
CLASS
  1
ACDBPLACEHOLDER
  2
AcDbPlaceHolder
  3
ObjectDBX Classes
 90
        0
280
     0
281
     0
  0
CLASS
  1
LAYOUT
  2
AcDbLayout
  3
ObjectDBX Classes
 90
        0
280
     0
281
     0
  0
CLASS
  1
ACME_DOCUMENT
  2
AcMeDbDoc
  3
AcMeServices
 90
        0
280
     0
281
     0
  0
CLASS
  1
AMGSETTINGSOBJ
  2
AmgSettingsObj
  3
"AcadM|Product Description: AutoCAD Mechanical 2000|Company: Autodesk"
 90
        0
280
     0
281
     0
  0
CLASS
  1
ACMESCOPE
  2
AcMeScope
  3
AcMeServices
 90
        0
280
     0
281
     0
  0
CLASS
  1
ACMECOMMANDHISTORY
  2
AcMeCommandHistory
  3
AcMeServices
 90
        0
280
     0
281
     0
  0
CLASS
  1
ACIMSYSVARMAN
  2
AcImSysVarManager
  3
AcMeServices
 90
        0
280
     0
281
     0
  0
CLASS
  1
ACIMREALSYSVAR
  2
AcImRealSysVar
  3
AcMeServices
 90
        0
280
     0
281
     0
  0
CLASS
  1
ACIMINTSYSVAR
  2
AcImIntSysVar
  3
AcMeServices
 90
        0
280
     0
281
     0
  0
CLASS
  1
ACMEDRAWINGMAN
  2
AcMeDrawingMan
  3
AcMeServices
 90
        0
280
     0
281
     0
  0
CLASS
  1
ACMEVIEW
  2
AcMeView
  3
AcMeServices
 90
        0
280
     0
281
     0
  0
CLASS
  1
ACDBENTITYCACHE
  2
AcMeEntityCache
  3
AcMeServices
 90
        0
280
     0
281
     0
  0
CLASS
  1
GSMANAGER
  2
AcMeGSManager
  3
AcMeServices
 90
        0
280
     0
281
     0
  0
CLASS
  1
AMDTINTERNALREACTOR
  2
AmdtInternalReactor
  3
AcMeServices
 90
        0
280
     0
281
     0
  0
CLASS
  1
ACMESTATEMGR
  2
AcMeStateMgr
  3
AcMeServices
 90
        0
280
     0
281
     0
  0
CLASS
  1
ACGREFMASTER
  2
AcGrefMaster
  3
AcAttribServices
 90
        0
280
     0
281
     0
  0
CLASS
  1
ACME_DATABASE
  2
AcMeDbDatabase
  3
AcMeServices
 90
        0
280
     0
281
     0
  0
CLASS
  1
ACRFINSADJUSTERMGR
  2
AcRfInsAdjusterMgr
  3
AcMeServices
 90
        0
280
     0
281
     0
  0
CLASS
  1
ACGREFACADMASTER
  2
AcGrefacadMaster
  3
AcGrefServices
 90
        0
280
     0
281
     0
  0
CLASS
  1
AMIMASTER
  2
AmiMaster
  3
AmiServices
 90
        0
280
     0
281
     0
  0
CLASS
  1
ACMDATADICTIONARY
  2
AcmDataDictionary
  3
"AcmSymBB|Product Description: AutoCAD Mechanical 2004 DX|Company: Autodesk"
 90
        0
280
     0
281
     0
  0
CLASS
  1
ACMDATAENTRYBLOCK
  2
AcmDataEntryBlock
  3
"AcmSymBB|Product Description: AutoCAD Mechanical 2004 DX|Company: Autodesk"
 90
        0
280
     0
281
     0
  0
CLASS
  1
ACIMSTRSYSVAR
  2
AcImStrSysVar
  3
AcMeServices
 90
        0
280
     0
281
     0
  0
CLASS
  1
ACMSTANDARDISO
  2
AcmStandardISO
  3
"Amdt_StdImp|Product Description: AutoCAD Mechanical 2004 DX|Company: Autodesk"
 90
        0
280
     0
281
     0
  0
CLASS
  1
AMGOBJPROPCFG
  2
AmgObjPropCfg
  3
"AmgLay|Product Description: AutoCAD Mechanical 2000|Company: Autodesk"
 90
        1
280
     0
281
     0
  0
CLASS
  1
AMDTEDGESTANDARDISO
  2
AmdtEdgeStdISO
  3
"Amdt_StdImp|Product Description: AutoCAD Mechanical 2004 DX|Company: Autodesk"
 90
        0
280
     0
281
     0
  0
CLASS
  1
ACMSURFSTANDARDISO
  2
AcmSurfTextStdISO
  3
"Amdt_StdImp|Product Description: AutoCAD Mechanical 2004 DX|Company: Autodesk"
 90
        0
280
     0
281
     0
  0
CLASS
  1
ACMFCFSTANDARDISO
  2
AcmFCFStdISO
  3
"Amdt_StdImp|Product Description: AutoCAD Mechanical 2004 DX|Company: Autodesk"
 90
        0
280
     0
281
     0
  0
CLASS
  1
ACMWELDSTANDARDISO
  2
AcmWeldingStdISO
  3
"Amdt_StdImp|Product Description: AutoCAD Mechanical 2004 DX|Company: Autodesk"
 90
        0
280
     0
281
     0
  0
CLASS
  1
ACMIDSTANDARDISO
  2
AcmIdStdISO
  3
"Amdt_StdImp|Product Description: AutoCAD Mechanical 2004 DX|Company: Autodesk"
 90
        0
280
     0
281
     0
  0
CLASS
  1
ACMDATUMSTANDARDISO
  2
AcmDatumStdISO
  3
"Amdt_StdImp|Product Description: AutoCAD Mechanical 2004 DX|Company: Autodesk"
 90
        0
280
     0
281
     0
  0
CLASS
  1
ACMBOMSTANDARDISO
  2
AcmBOMStdISO
  3
"Amdt_StdImp|Product Description: AutoCAD Mechanical 2004 DX|Company: Autodesk"
 90
        0
280
     0
281
     0
  0
CLASS
  1
ACMDETAILSTANDARDISO
  2
AmdtDetailSymStdISO
  3
"Amdt_StdImp|Product Description: AutoCAD Mechanical 2004 DX|Company: Autodesk"
 90
        0
280
     0
281
     0
  0
CLASS
  1
ACMSECTIONSTANDARDISO
  2
AmdtSectionSymStdISO
  3
"Amdt_StdImp|Product Description: AutoCAD Mechanical 2004 DX|Company: Autodesk"
 90
        0
280
     0
281
     0
  0
CLASS
  1
ACMCENTERLINESTANDARDISO
  2
AmdtCenterLineStdISO
  3
"Amdt_StdImp|Product Description: AutoCAD Mechanical 2004 DX|Company: Autodesk"
 90
        0
280
     0
281
     0
  0
CLASS
  1
ACMNOTESTANDARDISO
  2
AmdtNoteStdISO
  3
"Amdt_StdImp|Product Description: AutoCAD Mechanical 2004 DX|Company: Autodesk"
 90
        0
280
     0
281
     0
  0
CLASS
  1
ACAMGLAYSTD
  2
AcAmgLayStd
  3
"AcAmgLayStd|Product Description: AutoCAD Mechanical 2000|Company: Autodesk"
 90
        0
280
     0
281
     0
  0
CLASS
  1
ACAMGDIMSTD
  2
AcAmgDimStd
  3
"AcAmgDimStd|Product Description: AutoCAD Mechanical 2000|Company: Autodesk"
 90
        0
280
     0
281
     0
  0
CLASS
  1
ACAMGHOLECHARTSTDISO
  2
AcAmgHoleChartStdISO
  3
ACMSYMBB_MODULE_NAME
 90
        0
280
     0
281
     0
  0
CLASS
  1
ACAMGTITLESTD
  2
AcAmgTitleStd
  3
"TITLEAPP"
 90
        0
280
     0
281
     0
  0
CLASS
  1
LAYER_INDEX
  2
AcDbLayerIndex
  3
ObjectDBX Classes
 90
    32768
280
     0
281
     0
  0
CLASS
  1
IDBUFFER
  2
AcDbIdBuffer
  3
ObjectDBX Classes
 90
    32768
280
     0
281
     0
  0
CLASS
  1
DICTIONARYVAR
  2
AcDbDictionaryVar
  3
ObjectDBX Classes
 90
        0
280
     0
281
     0
  0
CLASS
  1
AM_DRAWING_MGR
  2
AcDmDwgMgr
  3
AcMechDwgViewMgmt
 90
        0
280
     0
281
     0
  0
CLASS
  1
AM_DWG_DOCUMENT
  2
AcDmDwgDocument
  3
AcMechDwgViewMgmt
 90
        0
280
     0
281
     0
  0
CLASS
  1
AM_DWG_SHEET
  2
AcDmSheet
  3
AcMechDwgViewMgmt
 90
        0
280
     0
281
     0
  0
CLASS
  1
AM_VIEWDIMPARMAP
  2
AcDmViewDimParMap
  3
AcMechDwgViewMgmt
 90
        0
280
     0
281
     0
  0
CLASS
  1
AM_DWGMGR_NAME
  2
AcDmDwgMgrName
  3
AcMechDwgViewMgmt
 90
        0
280
     0
281
     0
  0
CLASS
  1
AMDTMENUSTATEMGR
  2
AmdtMenuStateMgr
  3
McadcomServices
 90
        0
280
     0
281
     0
  0
CLASS
  1
AMDTMCOMMENUSTATE
  2
AmdtMcomMenuState
  3
McadcomServices
 90
        0
280
     0
281
     0
  0
CLASS
  1
MAPIAMMOUDLE
  2
MApiAmModule
  3
MApiAmServices
 90
        0
280
     0
281
     0
  0
CLASS
  1
AMDTADMENUSTATE
  2
AmdtAdMenuState
  3
DesignerServices
 90
        0
280
     0
281
     0
  0
CLASS
  1
ADAPPL
  2
AcAdAppl
  3
DesignerServices
 90
        0
280
     0
281
     0
  0
CLASS
  1
DEPMGR
  2
AcAdDepMgr
  3
DesignerServices
 90
        0
280
     0
281
     0
  0
CLASS
  1
PARAMMGR
  2
AcAdParamMgr
  3
DesignerServices
 90
        0
280
     0
281
     0
  0
CLASS
  1
PARAMSCOPE
  2
AcAdParamScope
  3
DesignerServices
 90
        0
280
     0
281
     0
  0
CLASS
  1
NAMEDAPPL
  2
AcAdNamedAppl
  3
DesignerServices
 90
        0
280
     0
281
     0
  0
CLASS
  1
AMDTDMMENUSTATE
  2
AmdtDmMenuState
  3
AcMechDwgViewMgmt
 90
        0
280
     0
281
     0
  0
CLASS
  1
AMDTAMMENUSTATE
  2
AmdtAmMenuState
  3
DesignerAssemblies
 90
        0
280
     0
281
     0
  0
CLASS
  1
ACAMPROJECT
  2
AcAmProject
  3
DesignerAssemblies
 90
        0
280
     0
281
     0
  0
CLASS
  1
ACAMGRCOMPDEF
  2
AcAmGrCompDef
  3
DesignerAssemblies
 90
        0
280
     0
281
     0
  0
CLASS
  1
ACCMCONTEXT
  2
AcCmContext
  3
DesignerAssemblies
 90
        0
280
     0
281
     0
  0
CLASS
  1
ACAMCOMPDEF
  2
AcAmCompDef
  3
DesignerAssemblies
 90
        0
280
     0
281
     0
  0
CLASS
  1
ACAMCOMPDEFMGR
  2
AcAmCompDefMgr
  3
DesignerAssemblies
 90
        0
280
     0
281
     0
  0
CLASS
  1
AMCONTEXTMGR
  2
AcAmContextMgr
  3
DesignerAssemblies
 90
        0
280
     0
281
     0
  0
CLASS
  1
ACAMCONTEXTMODELER
  2
AcAmContextModeler
  3
DesignerAssemblies
 90
        0
280
     0
281
     0
  0
CLASS
  1
ACMTHREADLINESTANDARDISO
  2
AmdtThreadLineStdISO
  3
"Amdt_StdImp|Product Description: AutoCAD Mechanical 2004 DX|Company: Autodesk"
 90
        0
280
     0
281
     0
  0
CLASS
  1
CATALOGSTATE
  2
AcAmCatalogState
  3
DesignerAssemblies
 90
        0
280
     0
281
     0
  0
CLASS
  1
ACAMGRCOMPDEFSET
  2
AcAmGrCompDefSet
  3
DesignerAssemblies
 90
        0
280
     0
281
     0
  0
CLASS
  1
AMDTBROWSERDBTAB
  2
AmdtBrowserDbTab
  3
McadcomServices
 90
        0
280
     0
281
     0
  0
CLASS
  1
CBROWSERAPPOBJECT
  2
CBrowserAppObject
  3
McadcomServices
 90
        0
280
     0
281
     0
  0
CLASS
  1
DM_PLACEHOLDER
  2
AcDmSelsetPlaceholder
  3
AcMechDwgViewMgmt
 90
        0
280
     0
281
     0
  0
CLASS
  1
TABLESTYLE
  2
AcDbTableStyle
  3
ObjectDBX Classes
 90
     2047
280
     0
281
     0
  0
CLASS
  1
VAACXREFPANELOBJECT
  2
VaAcXREFPanelObject
  3
VAAC_ADDIN
 90
    32768
280
     0
281
     0
  0
CLASS
  1
VAACIMAGEINVENTORY
  2
VaAcImageInventory
  3
VAAC_ADDIN
 90
    32768
280
     0
281
     0
  0
CLASS
  1
AMDTNOTETEMPLATEDB
  2
AmdtNoteTemplateDB
  3
AMDT_STDIMP_MODULE_NAME
 90
        0
280
     0
281
     0
  0
CLASS
  1
ACMBOM
  2
AcmBom
  3
"AcmSymBB|Product Description: AutoCAD Mechanical 2004 DX|Company: Autodesk"
 90
    32768
280
     0
281
     0
  0
CLASS
  1
AMDTFORMULAUPDATEDISPATCHER
  2
AmdtFormulaUpdateDispatcher
  3
AcMeServices
 90
    32768
280
     0
281
     0
  0
CLASS
  1
ACMPARTLIST
  2
AcmPartList
  3
"AcmSymBB|Product Description: AutoCAD Mechanical 2004 DX|Company: Autodesk"
 90
    33791
280
     0
281
     1
  0
CLASS
  1
ACAMGFILTERDAT
  2
AcAmgFilterDat
  3
"AcadM|Product Description: AutoCAD Mechanical 2000|Company: Autodesk"
 90
        0
280
     0
281
     0
  0
CLASS
  1
DIMASSOC
  2
AcDbDimAssoc
  3
"AcDbDimAssoc|Product Desc:     AcDim ARX App For Dimension|Company:          Autodesk, Inc.|WEB Address:      www.autodesk.com"
 90
    32768
280
     0
281
     0
  0
CLASS
  1
STDPART2D
  2
AmgStdPart
  3
"AmgStdPart|Product Description: AutoCAD Mechanical 2000|Company: Autodesk"
 90
    33791
280
     0
281
     1
  0
CLASS
  1
ACAMSTDPCOMPDEF
  2
AcAmStdpCompDef
  3
DesignerAssemblies
 90
    32768
280
     0
281
     0
  0
CLASS
  1
ACRFATTGENMGR
  2
AcRfAttGeneralMgr
  3
AcAttribServices
 90
        0
280
     0
281
     0
  0
CLASS
  1
ACRFOBJATTMGR
  2
AcRfObjAttGroupMgr
  3
AcAttribServices
 90
    32768
280
     0
281
     0
  0
CLASS
  1
ACRFMCADAPIATTHOLDER
  2
AcRfMCADAPIAttHolder
  3
AcAttribServices
 90
    32768
280
     0
281
     0
  0
CLASS
  1
AMDTSYSATTR
  2
AmdtSystemAttribute
  3
AcAttribServices
 90
    32768
280
     0
281
     0
  0
CLASS
  1
ACAMCOMP
  2
AcAmComp
  3
DesignerAssemblies
 90
    32768
280
     0
281
     0
  0
CLASS
  1
AC_AM_STDP_VIEW_DEF
  2
AcAmStdpViewDef
  3
DesignerAssemblies
 90
    32768
280
     0
281
     0
  0
CLASS
  1
AC_AM_MVD_DEP_MGR
  2
AcAmMVDdepMgr
  3
DesignerAssemblies
 90
        0
280
     0
281
     0
  0
CLASS
  1
AC_AM_MASTER_VIEW_DEF
  2
AcAmMasterViewDef
  3
DesignerAssemblies
 90
        0
280
     0
281
     0
  0
CLASS
  1
AC_AM_DIRTY_NODES
  2
AcAmDirtyNodes
  3
DesignerAssemblies
 90
        0
280
     0
281
     0
  0
CLASS
  1
AC_AM_MAPPER_CACHE
  2
AcAmMapperCache
  3
DesignerAssemblies
 90
        0
280
     0
281
     0
  0
CLASS
  1
ACAMMVDBACKUPOBJECT
  2
AcAmMVDBackupObject
  3
DesignerAssemblies
 90
        0
280
     0
281
     0
  0
CLASS
  1
AC_AM_COMP_VIEW_INST
  2
AcAmCompView
  3
DesignerAssemblies
 90
    32768
280
     0
281
     0
  0
CLASS
  1
AC_AM_2D_XREF_MGR
  2
AcAmXrefMgr2d
  3
DesignerAssemblies
 90
        0
280
     0
281
     0
  0
CLASS
  1
SORTENTSTABLE
  2
AcDbSortentsTable
  3
ObjectDBX Classes
 90
        0
280
     0
281
     0
  0
CLASS
  1
AMDTNOTE
  2
AmdtNote
  3
"AcmSymBB|Product Description: AutoCAD Mechanical 2004 DX|Company: Autodesk"
 90
     1023
280
     0
281
     1
  0
ENDSEC
  0
SECTION
  2
TABLES
  0
TABLE
  2
VPORT
  5
8
330
0
100
AcDbSymbolTable
 70
     3
  0
VPORT
  5
26B5
330
8
100
AcDbSymbolTableRecord
100
AcDbViewportTableRecord
  2
*Active
 70
     0
 10
0.0
 20
0.0
 11
1.0
 21
1.0
 12
2713.94409724644
 22
1573.081909260365
 13
0.0
 23
0.0
 14
2.5
 24
2.5
 15
10.0
 25
10.0
 16
0.0
 26
0.0
 36
1.0
 17
0.0
 27
0.0
 37
0.0
 40
309.8525348896982
 41
1.81766917293233
 42
50.0
 43
0.0
 44
0.0
 50
0.0
 51
0.0
 71
     0
 72
   100
 73
     1
 74
     3
 75
     0
 76
     0
 77
     0
 78
     0
281
     0
 65
     1
110
0.0
120
0.0
130
0.0
111
1.0
121
0.0
131
0.0
112
0.0
122
1.0
132
0.0
 79
     0
146
0.0
  0
ENDTAB
  0
TABLE
  2
LTYPE
  5
5
330
0
100
AcDbSymbolTable
 70
    14
  0
LTYPE
  5
14
330
5
100
AcDbSymbolTableRecord
100
AcDbLinetypeTableRecord
  2
ByBlock
 70
     0
  3

 72
    65
 73
     0
 40
0.0
  0
LTYPE
  5
15
330
5
100
AcDbSymbolTableRecord
100
AcDbLinetypeTableRecord
  2
ByLayer
 70
     0
  3

 72
    65
 73
     0
 40
0.0
  0
LTYPE
  5
16
330
5
100
AcDbSymbolTableRecord
100
AcDbLinetypeTableRecord
  2
Continuous
 70
     0
  3
Solid line
 72
    65
 73
     0
 40
0.0
  0
LTYPE
  5
64
330
5
100
AcDbSymbolTableRecord
100
AcDbLinetypeTableRecord
  2
AM_ISO02W050
 70
     0
  3
__ __ __ __ __ __ __ __ __ __ __ __ __ __ __
 72
    65
 73
     2
 40
7.5
 49
6.0
 74
     0
 49
-1.5
 74
     0
  0
LTYPE
  5
65
330
5
100
AcDbSymbolTableRecord
100
AcDbLinetypeTableRecord
  2
AM_ISO08W050
 70
     0
  3
____ . ____ . ____ . ____ . ____ . ____ . ____
 72
    65
 73
     4
 40
18.0
 49
12.0
 74
     0
 49
-1.5
 74
     0
 49
3.0
 74
     0
 49
-1.5
 74
     0
  0
LTYPE
  5
66
330
5
100
AcDbSymbolTableRecord
100
AcDbLinetypeTableRecord
  2
AM_ISO09W050
 70
     0
  3
_____ . . _____ . . _____ . . ____ .. ____
 72
    65
 73
     6
 40
22.5
 49
12.0
 74
     0
 49
-1.5
 74
     0
 49
3.0
 74
     0
 49
-1.5
 74
     0
 49
3.0
 74
     0
 49
-1.5
 74
     0
  0
LTYPE
  5
67
330
5
100
AcDbSymbolTableRecord
100
AcDbLinetypeTableRecord
  2
Amconstr
 70
     0
  3
_______________________
 72
    65
 73
     2
 40
9999.0
 49
9999.0
 74
     0
 49
0.0
 74
     0
  0
LTYPE
  5
68
330
5
100
AcDbSymbolTableRecord
100
AcDbLinetypeTableRecord
  2
AM_ISO08W050x2
 70
     0
  3
__ . __ . __ . __ . __ . __
 72
    65
 73
     4
 40
9.0
 49
6.0
 74
     0
 49
-0.75
 74
     0
 49
1.5
 74
     0
 49
-0.75
 74
     0
  0
LTYPE
  5
69
330
5
100
AcDbSymbolTableRecord
100
AcDbLinetypeTableRecord
  2
AM_ISO02W050x2
 70
     0
  3
 _ _ _ _ _ _ _ _ _ _ _ _
 72
    65
 73
     2
 40
3.75
 49
3.0
 74
     0
 49
-0.75
 74
     0
  0
LTYPE
  5
6C
330
5
100
AcDbSymbolTableRecord
100
AcDbLinetypeTableRecord
  2
Amzigzag
 70
     0
  3
/\/-/\/-/\/-/\/-/\/-/\/
 72
    65
 73
     2
 40
11.0001
 49
0.0001
 74
     4
 75
   135
340
6B
 46
0.04
 50
0.0
 44
0.0
 45
0.0
 49
-11.0
 74
     0
  0
LTYPE
  5
7A
330
5
100
AcDbSymbolTableRecord
100
AcDbLinetypeTableRecord
  2
ACISOWELD
 70
     0
  3
_ _ _ _ _
 72
    65
 73
     2
 40
2.0
 49
2.0
 74
     0
 49
-1.0
 74
     0
  0
LTYPE
  5
7B
330
5
100
AcDbSymbolTableRecord
100
AcDbLinetypeTableRecord
  2
ACISOTGB
 70
     0
  3
__ . . __ . .
 72
    65
 73
     6
 40
9.0
 49
4.0
 74
     0
 49
-1.0
 74
     0
 49
1.0
 74
     0
 49
-1.0
 74
     0
 49
1.0
 74
     0
 49
-1.0
 74
     0
  0
LTYPE
  5
7C
330
5
100
AcDbSymbolTableRecord
100
AcDbLinetypeTableRecord
  2
ACISOTGL
 70
     0
  3
_ _ _ _ _
 72
    65
 73
     2
 40
3.0
 49
2.0
 74
     0
 49
-1.0
 74
     0
  0
LTYPE
  5
7E
330
5
100
AcDbSymbolTableRecord
100
AcDbLinetypeTableRecord
  2
CENTER
 70
     0
  3
__ . __
 72
    65
 73
     4
 40
7.0
 49
4.0
 74
     0
 49
-1.0
 74
     0
 49
1.0
 74
     0
 49
-1.0
 74
     0
  0
LTYPE
  5
D8
330
5
100
AcDbSymbolTableRecord
100
AcDbLinetypeTableRecord
  2
HIDDEN
 70
     0
  3
Hidden __ __ __ __ __ __ __ __ __ __ __ __ __ _
 72
    65
 73
     2
 40
9.524999999999998
 49
6.349999999999999
 74
     0
 49
-3.174999999999999
 74
     0
  0
LTYPE
  5
D9
330
5
100
AcDbSymbolTableRecord
100
AcDbLinetypeTableRecord
  2
PHANTOM2
 70
     0
  3
Phantom (.5x) ___ _ _ ___ _ _ ___ _ _ ___ _ _
 72
    65
 73
     6
 40
31.75
 49
15.875
 74
     0
 49
-3.174999999999999
 74
     0
 49
3.174999999999999
 74
     0
 49
-3.174999999999999
 74
     0
 49
3.174999999999999
 74
     0
 49
-3.174999999999999
 74
     0
  0
ENDTAB
  0
TABLE
  2
LAYER
  5
2
102
{ACAD_XDICTIONARY
360
3F9
102
}
330
0
100
AcDbSymbolTable
 70
     8
  0
LAYER
  5
10
330
2
100
AcDbSymbolTableRecord
100
AcDbLayerTableRecord
  2
0
 70
     0
 62
     7
  6
Continuous
370
    -3
390
F
  0
LAYER
  5
812
330
2
100
AcDbSymbolTableRecord
100
AcDbLayerTableRecord
  2
AM_VIS
 70
     0
 62
     7
  6
Continuous
370
    50
390
F
  0
LAYER
  5
813
330
2
100
AcDbSymbolTableRecord
100
AcDbLayerTableRecord
  2
AM_4
 70
     0
 62
     3
  6
Continuous
370
    25
390
F
  0
LAYER
  5
BD2
330
2
100
AcDbSymbolTableRecord
100
AcDbLayerTableRecord
  2
AM_0
 70
     0
 62
     7
  6
Continuous
370
    50
390
F
  0
LAYER
  5
BF8
330
2
100
AcDbSymbolTableRecord
100
AcDbLayerTableRecord
  2
AM_7
 70
     0
 62
     1
  6
CENTER
370
    25
390
F
  0
LAYER
  5
C53
330
2
100
AcDbSymbolTableRecord
100
AcDbLayerTableRecord
  2
AM_5
 70
     0
 62
     5
  6
Continuous
370
    50
390
F
  0
LAYER
  5
D49
330
2
100
AcDbSymbolTableRecord
100
AcDbLayerTableRecord
  2
Defpoints
 70
     0
 62
     7
  6
Continuous
290
     0
370
    -3
390
F
  0
LAYER
  5
150C
330
2
100
AcDbSymbolTableRecord
100
AcDbLayerTableRecord
  2
LOGO
 70
     0
 62
     7
  6
Continuous
370
    -3
390
F
  0
ENDTAB
  0
TABLE
  2
STYLE
  5
3
330
0
100
AcDbSymbolTable
 70
     6
  0
STYLE
  5
11
330
3
100
AcDbSymbolTableRecord
100
AcDbTextStyleTableRecord
  2
STANDARD
 70
     0
 40
0.0
 41
1.0
 50
0.0
 71
     0
 42
3.0
  3
ISOCP.SHX
  4
CHINESET.SHX
  0
STYLE
  5
6B
330
3
100
AcDbSymbolTableRecord
100
AcDbTextStyleTableRecord
  2

 70
     1
 40
0.0
 41
1.0
 50
0.0
 71
     0
 42
2.5
  3
ltypeshp.shx
  4

  0
STYLE
  5
6D
330
3
100
AcDbSymbolTableRecord
100
AcDbTextStyleTableRecord
  2
ACISOTS
 70
     0
 40
1.0
 41
1.0
 50
0.0
 71
     0
 42
1.0
  3
isocp.shx
  4
chineset.shx
  0
STYLE
  5
79
330
3
100
AcDbSymbolTableRecord
100
AcDbTextStyleTableRecord
  2
ACISOGDT
 70
     0
 40
0.0
 41
1.0
 50
0.0
 71
     0
 42
2.5
  3
amgdt.shx
  4
chineset.shx
  0
STYLE
  5
60C
330
3
100
AcDbSymbolTableRecord
100
AcDbTextStyleTableRecord
  2
CHINESET
 70
     0
 40
0.0
 41
1.0
 50
0.0
 71
     0
 42
3.0
  3
simplex.shx
  4
CHINESET.SHX
  0
ENDTAB
  0
TABLE
  2
VIEW
  5
6
330
0
100
AcDbSymbolTable
 70
     0
  0
ENDTAB
  0
TABLE
  2
UCS
  5
7
330
0
100
AcDbSymbolTable
 70
     0
  0
ENDTAB
  0
TABLE
  2
APPID
  5
9
330
0
100
AcDbSymbolTable
 70
    30
  0
APPID
  5
12
330
9
100
AcDbSymbolTableRecord
100
AcDbRegAppTableRecord
  2
ACAD
 70
     0
  0
APPID
  5
46
330
9
100
AcDbSymbolTableRecord
100
AcDbRegAppTableRecord
  2
MCAD_NO_VIS
 70
     0
  0
APPID
  5
47
330
9
100
AcDbSymbolTableRecord
100
AcDbRegAppTableRecord
  2
ACAD_TEMP_GRAPHIC
 70
     0
  0
APPID
  5
58
330
9
100
AcDbSymbolTableRecord
100
AcDbRegAppTableRecord
  2
ACATTRIBSERVICES
 70
     0
  0
APPID
  5
EE
330
9
100
AcDbSymbolTableRecord
100
AcDbRegAppTableRecord
  2
AD_DRAW
 70
     0
  0
APPID
  5
10C
330
9
100
AcDbSymbolTableRecord
100
AcDbRegAppTableRecord
  2
DESIGNERASSEMBLIES
 70
     0
  0
APPID
  5
111
330
9
100
AcDbSymbolTableRecord
100
AcDbRegAppTableRecord
  2
ACADM_DIM_EDIT
 70
     0
  0
APPID
  5
112
330
9
100
AcDbSymbolTableRecord
100
AcDbRegAppTableRecord
  2
AMDT_DM_ADJ
 70
     0
  0
APPID
  5
22C
330
9
100
AcDbSymbolTableRecord
100
AcDbRegAppTableRecord
  2
ACAD_DSTYLE_DIMTEXT_FILL
 70
     0
  0
APPID
  5
452
330
9
100
AcDbSymbolTableRecord
100
AcDbRegAppTableRecord
  2
GENIUS_GENOENT_13
 70
     0
  0
APPID
  5
453
330
9
100
AcDbSymbolTableRecord
100
AcDbRegAppTableRecord
  2
GENIUS_GENOBJ-N-CRS_13
 70
     0
  0
APPID
  5
454
330
9
100
AcDbSymbolTableRecord
100
AcDbRegAppTableRecord
  2
GENIUS_GENOLIS_13
 70
     0
  0
APPID
  5
455
330
9
100
AcDbSymbolTableRecord
100
AcDbRegAppTableRecord
  2
GENIUS_GENODEF_13
 70
     0
  0
APPID
  5
456
330
9
100
AcDbSymbolTableRecord
100
AcDbRegAppTableRecord
  2
GENIUS_GENOREF_13
 70
     0
  0
APPID
  5
6F3
330
9
100
AcDbSymbolTableRecord
100
AcDbRegAppTableRecord
  2
ACAD_PSEXT
 70
     0
  0
APPID
  5
782
330
9
100
AcDbSymbolTableRecord
100
AcDbRegAppTableRecord
  2
GENIUS_GENDTOL_13
 70
     0
  0
APPID
  5
BD9
330
9
100
AcDbSymbolTableRecord
100
AcDbRegAppTableRecord
  2
GEVID1142294916
 70
     0
  0
APPID
  5
BDA
330
9
100
AcDbSymbolTableRecord
100
AcDbRegAppTableRecord
  2
GEVDC
 70
     0
  0
APPID
  5
BDB
330
9
100
AcDbSymbolTableRecord
100
AcDbRegAppTableRecord
  2
GEVRADREF
 70
     0
  0
APPID
  5
BE4
330
9
100
AcDbSymbolTableRecord
100
AcDbRegAppTableRecord
  2
AMG_2DHIDE
 70
     0
  0
APPID
  5
BE5
330
9
100
AcDbSymbolTableRecord
100
AcDbRegAppTableRecord
  2
AMG_2DSTRUCT_BTR
 70
     0
  0
APPID
  5
BF6
330
9
100
AcDbSymbolTableRecord
100
AcDbRegAppTableRecord
  2
ACADM_2DVIEW_IGN_NOTIFY
 70
     0
  0
APPID
  5
CAE
330
9
100
AcDbSymbolTableRecord
100
AcDbRegAppTableRecord
  2
GEVID1142294917
 70
     0
  0
APPID
  5
12D3
330
9
100
AcDbSymbolTableRecord
100
AcDbRegAppTableRecord
  2
GENIUS_GENDIMSH_14
 70
     0
  0
APPID
  5
150D
330
9
100
AcDbSymbolTableRecord
100
AcDbRegAppTableRecord
  2
GENIUS_GENREC_14
 70
     0
  0
APPID
  5
150E
330
9
100
AcDbSymbolTableRecord
100
AcDbRegAppTableRecord
  2
GENIUS_GENOBJ-N-REC_13
 70
     0
  0
APPID
  5
1A06
330
9
100
AcDbSymbolTableRecord
100
AcDbRegAppTableRecord
  2
GEVID1142658490
 70
     0
  0
APPID
  5
1A55
330
9
100
AcDbSymbolTableRecord
100
AcDbRegAppTableRecord
  2
GENIUS_GENOBJ-N-CEN_13
 70
     0
  0
APPID
  5
1A56
330
9
100
AcDbSymbolTableRecord
100
AcDbRegAppTableRecord
  2
GENIUS_GENCEN_19
 70
     0
  0
APPID
  5
2311
330
9
100
AcDbSymbolTableRecord
100
AcDbRegAppTableRecord
  2
GEVID1142658491
 70
     0
  0
ENDTAB
  0
TABLE
  2
DIMSTYLE
  5
A
330
0
100
AcDbSymbolTable
 70
     9
100
AcDbDimStyleTable
 71
     3
340
81
340
8B
340
86
  0
DIMSTYLE
105
81
330
A
100
AcDbSymbolTableRecord
100
AcDbDimStyleTableRecord
  2
AM_ISO
 70
     0
  4
"
 41
3.0
 42
1.0
 43
7.0
 44
1.5
 47
0.1
 48
0.1
 73
     0
 74
     0
 77
     1
 78
     8
 79
     2
140
3.0
141
0.0
143
0.0393701
146
0.6
147
1.0
172
     1
176
   256
177
   256
178
   256
271
     2
272
     2
283
     0
284
     8
340
11
371
    -1
372
    -1
  0
DIMSTYLE
105
82
330
A
100
AcDbSymbolTableRecord
100
AcDbDimStyleTableRecord
  2
AM_ISO$3
 70
     0
  4
"
 41
3.0
 42
1.0
 43
7.0
 44
1.5
 47
0.1
 48
0.1
 73
     0
 77
     1
 78
     8
 79
     2
140
3.0
141
0.0
143
0.0393701
146
0.6
147
1.0
176
   256
177
   256
178
   256
271
     2
272
     2
283
     0
284
     8
288
     1
289
     0
340
11
371
    -1
372
    -1
  0
DIMSTYLE
105
83
330
A
100
AcDbSymbolTableRecord
100
AcDbDimStyleTableRecord
  2
AM_ISO$4
 70
     0
  4
"
 41
3.0
 42
1.0
 43
7.0
 44
1.5
 47
0.1
 48
0.1
 73
     0
 77
     1
 78
     8
 79
     2
140
3.0
141
0.0
143
0.0393701
146
0.6
147
1.0
176
   256
177
   256
178
   256
271
     2
272
     2
283
     0
284
     8
288
     1
289
     0
340
11
371
    -1
372
    -1
  0
DIMSTYLE
105
84
330
A
100
AcDbSymbolTableRecord
100
AcDbDimStyleTableRecord
  2
AM_ISO$6
 70
     0
  4
"
 41
3.0
 42
1.0
 43
7.0
 44
1.5
 47
0.1
 48
0.1
 73
     0
 74
     0
 78
     8
 79
     2
140
3.0
141
0.0
143
0.0393701
146
0.6
147
1.0
172
     1
176
   256
177
   256
178
   256
271
     2
272
     2
283
     0
284
     8
340
11
371
    -1
372
    -1
  0
DIMSTYLE
105
85
330
A
100
AcDbSymbolTableRecord
100
AcDbDimStyleTableRecord
  2
AM_ISO$7
 70
     0
  4
"
 41
3.0
 42
1.0
 43
7.0
 44
1.5
 47
0.1
 48
0.1
 73
     0
 74
     0
 77
     1
 78
     8
 79
     2
140
5.0
141
0.0
143
0.0393701
146
0.6
147
1.0
172
     1
176
   256
177
   256
178
   256
271
     2
272
     2
283
     0
284
     8
340
11
371
    -1
372
    -1
  0
DIMSTYLE
105
86
330
A
100
AcDbSymbolTableRecord
100
AcDbDimStyleTableRecord
  2
AM_ISO$SF
 70
     0
  4
"
 41
2.5
 42
1.0
 43
10.0
 44
1.0
 47
0.1
 48
0.1
 73
     0
 74
     0
 75
     1
 76
     1
 77
     1
 78
     8
 79
     2
140
3.5
141
0.0
143
0.0393701
146
0.71
147
1.5
172
     1
176
   256
177
   256
178
     2
271
     2
272
     3
274
     4
283
     0
284
     8
340
11
371
    -1
372
    -1
  0
DIMSTYLE
105
8B
330
A
100
AcDbSymbolTableRecord
100
AcDbDimStyleTableRecord
  2
AM_ISO$SH
 70
     0
  4
"
 41
2.5
 42
1.0
 43
10.0
 44
1.0
 47
0.1
 48
0.1
 73
     0
 74
     0
 75
     1
 76
     1
 77
     1
 78
     8
 79
     2
140
3.5
141
0.0
143
0.0393701
144
2.0
146
0.71
147
1.5
172
     1
173
     1
176
   256
177
   256
178
     2
271
     2
272
     3
274
     4
283
     0
284
     8
340
11
343
87
371
    -1
372
    -1
  0
DIMSTYLE
105
40B
102
{ACAD_REACTORS
330
F0F
330
E9D
330
1F2F
330
1FA8
330
E65
330
EE9
330
EC3
330
F85
330
1022
330
FFC
330
FD6
102
}
330
A
100
AcDbSymbolTableRecord
100
AcDbDimStyleTableRecord
  2
AM_ISO$0
 70
     0
  4
"
 41
3.0
 42
1.0
 43
7.0
 44
1.5
 47
0.1
 48
0.1
 73
     0
 74
     0
 77
     1
 78
     8
 79
     2
140
3.0
141
0.0
143
0.0393701
146
0.6
147
1.0
172
     1
176
   256
177
   256
178
   256
271
     2
272
     2
283
     0
284
     8
340
11
371
    -1
372
    -1
  0
ENDTAB
  0
TABLE
  2
BLOCK_RECORD
  5
1
330
0
100
AcDbSymbolTable
 70
    21
  0
BLOCK_RECORD
  5
1F
102
{ACAD_XDICTIONARY
360
8F
102
}
330
1
100
AcDbSymbolTableRecord
100
AcDbBlockTableRecord
  2
*Model_Space
340
22
  0
BLOCK_RECORD
  5
1B
330
1
100
AcDbSymbolTableRecord
100
AcDbBlockTableRecord
  2
*Paper_Space
340
1E
  0
BLOCK_RECORD
  5
23
330
1
100
AcDbSymbolTableRecord
100
AcDbBlockTableRecord
  2
*Paper_Space0
340
26
  0
BLOCK_RECORD
  5
87
330
1
100
AcDbSymbolTableRecord
100
AcDbBlockTableRecord
  2
GENAXEH
340
0
  0
BLOCK_RECORD
  5
BFB
330
1
100
AcDbSymbolTableRecord
100
AcDbBlockTableRecord
  2
*U4
340
0
  0
BLOCK_RECORD
  5
E66
330
1
100
AcDbSymbolTableRecord
100
AcDbBlockTableRecord
  2
*D5
340
0
  0
BLOCK_RECORD
  5
E9E
330
1
100
AcDbSymbolTableRecord
100
AcDbBlockTableRecord
  2
*D6
340
0
  0
BLOCK_RECORD
  5
EC4
330
1
100
AcDbSymbolTableRecord
100
AcDbBlockTableRecord
  2
*D7
340
0
  0
BLOCK_RECORD
  5
EEA
330
1
100
AcDbSymbolTableRecord
100
AcDbBlockTableRecord
  2
*D8
340
0
  0
BLOCK_RECORD
  5
F10
330
1
100
AcDbSymbolTableRecord
100
AcDbBlockTableRecord
  2
*D9
340
0
  0
BLOCK_RECORD
  5
F86
330
1
100
AcDbSymbolTableRecord
100
AcDbBlockTableRecord
  2
*D10
340
0
  0
BLOCK_RECORD
  5
FD7
330
1
100
AcDbSymbolTableRecord
100
AcDbBlockTableRecord
  2
*D11
340
0
  0
BLOCK_RECORD
  5
FFD
330
1
100
AcDbSymbolTableRecord
100
AcDbBlockTableRecord
  2
*D12
340
0
  0
BLOCK_RECORD
  5
1023
330
1
100
AcDbSymbolTableRecord
100
AcDbBlockTableRecord
  2
*D13
340
0
  0
BLOCK_RECORD
  5
1DB0
330
1
100
AcDbSymbolTableRecord
100
AcDbBlockTableRecord
  2
GENDOT
340
0
102
{BLKREFS
331
25CB
331
25D4
102
}
  0
BLOCK_RECORD
  5
1F30
330
1
100
AcDbSymbolTableRecord
100
AcDbBlockTableRecord
  2
*D15
340
0
  0
BLOCK_RECORD
  5
1FA9
330
1
100
AcDbSymbolTableRecord
100
AcDbBlockTableRecord
  2
*D16
340
0
  0
BLOCK_RECORD
  5
269B
330
1
100
AcDbSymbolTableRecord
100
AcDbBlockTableRecord
  2
*S18
340
0
  0
BLOCK_RECORD
  5
26A3
330
1
100
AcDbSymbolTableRecord
100
AcDbBlockTableRecord
  2
*S19
340
0
  0
BLOCK_RECORD
  5
26AB
330
1
100
AcDbSymbolTableRecord
100
AcDbBlockTableRecord
  2
*S20
340
0
  0
ENDTAB
  0
ENDSEC
  0
SECTION
  2
BLOCKS
  0
BLOCK
  5
20
330
1F
100
AcDbEntity
  8
0
100
AcDbBlockBegin
  2
*Model_Space
 70
     0
 10
0.0
 20
0.0
 30
0.0
  3
*Model_Space
  1

  0
ENDBLK
  5
21
330
1F
100
AcDbEntity
  8
0
100
AcDbBlockEnd
  0
BLOCK
  5
1C
330
1B
100
AcDbEntity
 67
     1
  8
0
100
AcDbBlockBegin
  2
*Paper_Space
 70
     0
 10
0.0
 20
0.0
 30
0.0
  3
*Paper_Space
  1

  0
ENDBLK
  5
1D
330
1B
100
AcDbEntity
 67
     1
  8
0
100
AcDbBlockEnd
  0
BLOCK
  5
24
330
23
100
AcDbEntity
  8
0
100
AcDbBlockBegin
  2
*Paper_Space0
 70
     0
 10
0.0
 20
0.0
 30
0.0
  3
*Paper_Space0
  1

  0
ENDBLK
  5
25
330
23
100
AcDbEntity
  8
0
100
AcDbBlockEnd
  0
BLOCK
  5
89
330
87
100
AcDbEntity
  8
0
100
AcDbBlockBegin
  2
GENAXEH
 70
     0
 10
0.0
 20
0.0
 30
0.0
  3
GENAXEH
  1

  0
LINE
  5
88
330
87
100
AcDbEntity
  8
0
100
AcDbLine
 10
-1.0
 20
0.0
 30
0.0
 11
1.0
 21
0.0
 31
0.0
  0
ENDBLK
  5
8A
330
87
100
AcDbEntity
  8
0
100
AcDbBlockEnd
  0
BLOCK
  5
BFC
330
BFB
100
AcDbEntity
  8
0
100
AcDbBlockBegin
  2
*U4
 70
     1
 10
0.0
 20
0.0
 30
0.0
  3
*U4
  1

  0
ENDBLK
  5
BFD
330
BFB
100
AcDbEntity
  8
0
100
AcDbBlockEnd
  0
BLOCK
  5
E70
330
E66
100
AcDbEntity
  8
0
100
AcDbBlockBegin
  2
*D5
 70
     1
 10
0.0
 20
0.0
 30
0.0
  3
*D5
  1

  0
LINE
  5
2561
330
E66
100
AcDbEntity
  8
AM_5
100
AcDbLine
 10
2670.318993779529
 20
1666.297872391242
 30
0.0
 11
2670.318993779529
 21
1630.797872391242
 31
0.0
  0
LINE
  5
2562
330
E66
100
AcDbEntity
  8
AM_5
100
AcDbLine
 10
2702.318993779529
 20
1666.297872391242
 30
0.0
 11
2702.318993779529
 21
1630.797872391242
 31
0.0
  0
LINE
  5
2563
330
E66
100
AcDbEntity
  8
AM_5
100
AcDbLine
 10
2673.318993779529
 20
1632.297872391242
 30
0.0
 11
2699.31899377953
 21
1632.297872391242
 31
0.0
  0
SOLID
  5
2564
330
E66
100
AcDbEntity
  8
AM_5
100
AcDbTrace
 10
2673.318993779529
 20
1632.797872391242
 30
0.0
 11
2673.318993779529
 21
1631.797872391242
 31
0.0
 12
2670.318993779529
 22
1632.297872391242
 32
0.0
 13
2670.318993779529
 23
1632.297872391242
 33
0.0
  0
SOLID
  5
2565
330
E66
100
AcDbEntity
  8
AM_5
100
AcDbTrace
 10
2699.31899377953
 20
1632.797872391242
 30
0.0
 11
2699.31899377953
 21
1631.797872391242
 31
0.0
 12
2702.318993779529
 22
1632.297872391242
 32
0.0
 13
2702.318993779529
 23
1632.297872391242
 33
0.0
  0
MTEXT
  5
2566
330
E66
100
AcDbEntity
  8
AM_5
100
AcDbMText
 10
2686.318993779529
 20
1634.798167666832
 30
0.0
 40
3.0
 41
0.0
 71
     5
 72
     1
  1
32
 73
     1
 44
1.0
1001
ACAD
1000
MTEXTBEGIN
1070
    73
1070
     1
1070
    44
1040
1.0
1070
    74
1070
     0
1000
MTEXTEND
  0
POINT
  5
2567
330
E66
100
AcDbEntity
  8
Defpoints
 62
     0
100
AcDbPoint
 10
2670.318993779529
 20
1667.297872391242
 30
0.0
  0
POINT
  5
2568
330
E66
100
AcDbEntity
  8
Defpoints
 62
     0
100
AcDbPoint
 10
2702.318993779529
 20
1667.297872391242
 30
0.0
  0
POINT
  5
2569
330
E66
100
AcDbEntity
  8
Defpoints
 62
     0
100
AcDbPoint
 10
2702.318993779529
 20
1632.297872391242
 30
0.0
  0
ENDBLK
  5
E71
330
E66
100
AcDbEntity
  8
0
100
AcDbBlockEnd
  0
BLOCK
  5
EA8
330
E9E
100
AcDbEntity
  8
0
100
AcDbBlockBegin
  2
*D6
 70
     1
 10
0.0
 20
0.0
 30
0.0
  3
*D6
  1

  0
LINE
  5
25F1
330
E9E
100
AcDbEntity
  8
AM_5
100
AcDbLine
 10
2662.818993779529
 20
1647.297872391242
 30
0.0
 11
2662.818993779529
 21
1623.797872391242
 31
0.0
  0
LINE
  5
25F2
330
E9E
100
AcDbEntity
  8
AM_5
100
AcDbLine
 10
2709.81899377953
 20
1647.297872391242
 30
0.0
 11
2709.81899377953
 21
1623.797872391242
 31
0.0
  0
LINE
  5
25F3
330
E9E
100
AcDbEntity
  8
AM_5
100
AcDbLine
 10
2665.818993779529
 20
1625.297872391242
 30
0.0
 11
2706.818993779529
 21
1625.297872391242
 31
0.0
  0
SOLID
  5
25F4
330
E9E
100
AcDbEntity
  8
AM_5
100
AcDbTrace
 10
2665.818993779529
 20
1625.797872391242
 30
0.0
 11
2665.818993779529
 21
1624.797872391242
 31
0.0
 12
2662.818993779529
 22
1625.297872391242
 32
0.0
 13
2662.818993779529
 23
1625.297872391242
 33
0.0
  0
SOLID
  5
25F5
330
E9E
100
AcDbEntity
  8
AM_5
100
AcDbTrace
 10
2706.818993779529
 20
1625.797872391242
 30
0.0
 11
2706.818993779529
 21
1624.797872391242
 31
0.0
 12
2709.81899377953
 22
1625.297872391242
 32
0.0
 13
2709.81899377953
 23
1625.297872391242
 33
0.0
  0
MTEXT
  5
25F6
330
E9E
100
AcDbEntity
  8
AM_5
100
AcDbMText
 10
2686.318993779529
 20
1627.797872391242
 30
0.0
 40
3.0
 41
0.0
 71
     5
 72
     1
  1
47
 73
     1
 44
1.0
1001
ACAD
1000
MTEXTBEGIN
1070
    73
1070
     1
1070
    44
1040
1.0
1070
    74
1070
     0
1000
MTEXTEND
  0
POINT
  5
25F7
330
E9E
100
AcDbEntity
  8
Defpoints
 62
     0
100
AcDbPoint
 10
2662.818993779529
 20
1648.297872391242
 30
0.0
  0
POINT
  5
25F8
330
E9E
100
AcDbEntity
  8
Defpoints
 62
     0
100
AcDbPoint
 10
2709.81899377953
 20
1648.297872391242
 30
0.0
  0
POINT
  5
25F9
330
E9E
100
AcDbEntity
  8
Defpoints
 62
     0
100
AcDbPoint
 10
2709.81899377953
 20
1625.297872391242
 30
0.0
  0
ENDBLK
  5
EA9
330
E9E
100
AcDbEntity
  8
0
100
AcDbBlockEnd
  0
BLOCK
  5
ECE
330
EC4
100
AcDbEntity
  8
0
100
AcDbBlockBegin
  2
*D7
 70
     1
 10
0.0
 20
0.0
 30
0.0
  3
*D7
  1

  0
LINE
  5
2609
330
EC4
100
AcDbEntity
  8
AM_5
100
AcDbLine
 10
2692.318993779529
 20
1652.297872391242
 30
0.0
 11
2723.318993779529
 21
1652.297872391242
 31
0.0
  0
LINE
  5
260A
330
EC4
100
AcDbEntity
  8
AM_5
100
AcDbLine
 10
2692.318993779529
 20
1692.297872391242
 30
0.0
 11
2723.318993779529
 21
1692.297872391242
 31
0.0
  0
LINE
  5
260B
330
EC4
100
AcDbEntity
  8
AM_5
100
AcDbLine
 10
2721.818993779529
 20
1655.297872391242
 30
0.0
 11
2721.818993779529
 21
1689.297872391242
 31
0.0
  0
SOLID
  5
260C
330
EC4
100
AcDbEntity
  8
AM_5
100
AcDbTrace
 10
2721.318993779529
 20
1655.297872391242
 30
0.0
 11
2722.318993779529
 21
1655.297872391242
 31
0.0
 12
2721.818993779529
 22
1652.297872391242
 32
0.0
 13
2721.818993779529
 23
1652.297872391242
 33
0.0
  0
SOLID
  5
260D
330
EC4
100
AcDbEntity
  8
AM_5
100
AcDbTrace
 10
2721.318993779529
 20
1689.297872391242
 30
0.0
 11
2722.318993779529
 21
1689.297872391242
 31
0.0
 12
2721.818993779529
 22
1692.297872391242
 32
0.0
 13
2721.818993779529
 23
1692.297872391242
 33
0.0
  0
MTEXT
  5
260E
330
EC4
100
AcDbEntity
  8
AM_5
100
AcDbMText
 10
2719.318993779529
 20
1672.297872391242
 30
0.0
 40
3.0
 41
0.0
 71
     5
 72
     1
  1
40
 11
0.0000000000000001
 21
1.0
 31
0.0
 73
     1
 44
1.0
1001
ACAD
1000
MTEXTBEGIN
1070
    73
1070
     1
1070
    44
1040
1.0
1070
    74
1070
     0
1000
MTEXTEND
  0
POINT
  5
260F
330
EC4
100
AcDbEntity
  8
Defpoints
 62
     0
100
AcDbPoint
 10
2691.318993779529
 20
1652.297872391242
 30
0.0
  0
POINT
  5
2610
330
EC4
100
AcDbEntity
  8
Defpoints
 62
     0
100
AcDbPoint
 10
2691.318993779529
 20
1692.297872391242
 30
0.0
  0
POINT
  5
2611
330
EC4
100
AcDbEntity
  8
Defpoints
 62
     0
100
AcDbPoint
 10
2721.818993779529
 20
1692.297872391242
 30
0.0
  0
ENDBLK
  5
ECF
330
EC4
100
AcDbEntity
  8
0
100
AcDbBlockEnd
  0
BLOCK
  5
EF4
330
EEA
100
AcDbEntity
  8
0
100
AcDbBlockBegin
  2
*D8
 70
     1
 10
0.0
 20
0.0
 30
0.0
  3
*D8
  1

  0
LINE
  5
2600
330
EEA
100
AcDbEntity
  8
AM_5
100
AcDbLine
 10
2706.818993779529
 20
1644.297872391242
 30
0.0
 11
2730.318993779529
 21
1644.297872391242
 31
0.0
  0
LINE
  5
2601
330
EEA
100
AcDbEntity
  8
AM_5
100
AcDbLine
 10
2706.818993779529
 20
1700.297872391242
 30
0.0
 11
2730.318993779529
 21
1700.297872391242
 31
0.0
  0
LINE
  5
2602
330
EEA
100
AcDbEntity
  8
AM_5
100
AcDbLine
 10
2728.818993779529
 20
1647.297872391242
 30
0.0
 11
2728.818993779529
 21
1697.297872391242
 31
0.0
  0
SOLID
  5
2603
330
EEA
100
AcDbEntity
  8
AM_5
100
AcDbTrace
 10
2728.31899377953
 20
1647.297872391242
 30
0.0
 11
2729.318993779529
 21
1647.297872391242
 31
0.0
 12
2728.818993779529
 22
1644.297872391242
 32
0.0
 13
2728.818993779529
 23
1644.297872391242
 33
0.0
  0
SOLID
  5
2604
330
EEA
100
AcDbEntity
  8
AM_5
100
AcDbTrace
 10
2728.31899377953
 20
1697.297872391242
 30
0.0
 11
2729.318993779529
 21
1697.297872391242
 31
0.0
 12
2728.818993779529
 22
1700.297872391242
 32
0.0
 13
2728.818993779529
 23
1700.297872391242
 33
0.0
  0
MTEXT
  5
2605
330
EEA
100
AcDbEntity
  8
AM_5
100
AcDbMText
 10
2726.318993779529
 20
1672.297872391242
 30
0.0
 40
3.0
 41
0.0
 71
     5
 72
     1
  1
56
 11
0.0000000000000001
 21
1.0
 31
0.0
 73
     1
 44
1.0
1001
ACAD
1000
MTEXTBEGIN
1070
    73
1070
     1
1070
    44
1040
1.0
1070
    74
1070
     0
1000
MTEXTEND
  0
POINT
  5
2606
330
EEA
100
AcDbEntity
  8
Defpoints
 62
     0
100
AcDbPoint
 10
2705.818993779529
 20
1644.297872391242
 30
0.0
  0
POINT
  5
2607
330
EEA
100
AcDbEntity
  8
Defpoints
 62
     0
100
AcDbPoint
 10
2705.818993779529
 20
1700.297872391242
 30
0.0
  0
POINT
  5
2608
330
EEA
100
AcDbEntity
  8
Defpoints
 62
     0
100
AcDbPoint
 10
2728.818993779529
 20
1700.297872391242
 30
0.0
  0
ENDBLK
  5
EF5
330
EEA
100
AcDbEntity
  8
0
100
AcDbBlockEnd
  0
BLOCK
  5
F1A
330
F10
100
AcDbEntity
  8
0
100
AcDbBlockBegin
  2
*D9
 70
     1
 10
0.0
 20
0.0
 30
0.0
  3
*D9
  1

  0
LINE
  5
25E2
330
F10
100
AcDbEntity
  8
AM_5
100
AcDbLine
 10
2709.818993779529
 20
1559.064494165018
 30
0.0
 11
2722.318993779529
 21
1559.064494165018
 31
0.0
  0
LINE
  5
25E3
330
F10
100
AcDbEntity
  8
AM_5
100
AcDbLine
 10
2709.818993779529
 20
1592.064494165018
 30
0.0
 11
2722.318993779529
 21
1592.064494165018
 31
0.0
  0
LINE
  5
25E4
330
F10
100
AcDbEntity
  8
AM_5
100
AcDbLine
 10
2720.818993779529
 20
1562.064494165018
 30
0.0
 11
2720.818993779529
 21
1589.064494165018
 31
0.0
  0
SOLID
  5
25E5
330
F10
100
AcDbEntity
  8
AM_5
100
AcDbTrace
 10
2720.318993779529
 20
1562.064494165018
 30
0.0
 11
2721.318993779529
 21
1562.064494165018
 31
0.0
 12
2720.818993779529
 22
1559.064494165018
 32
0.0
 13
2720.818993779529
 23
1559.064494165018
 33
0.0
  0
SOLID
  5
25E6
330
F10
100
AcDbEntity
  8
AM_5
100
AcDbTrace
 10
2720.318993779529
 20
1589.064494165018
 30
0.0
 11
2721.318993779529
 21
1589.064494165018
 31
0.0
 12
2720.818993779529
 22
1592.064494165018
 32
0.0
 13
2720.818993779529
 23
1592.064494165018
 33
0.0
  0
MTEXT
  5
25E7
330
F10
100
AcDbEntity
  8
AM_5
100
AcDbMText
 10
2718.318993779528
 20
1575.564494165019
 30
0.0
 40
3.0
 41
0.0
 71
     5
 72
     1
  1
33+stroke
 11
0.0000000000000001
 21
1.0
 31
0.0
 73
     1
 44
1.0
1001
ACAD
1000
MTEXTBEGIN
1070
    73
1070
     1
1070
    44
1040
1.0
1070
    74
1070
     0
1000
MTEXTEND
  0
POINT
  5
25E8
330
F10
100
AcDbEntity
  8
Defpoints
 62
     0
100
AcDbPoint
 10
2708.818993779529
 20
1559.064494165018
 30
0.0
  0
POINT
  5
25E9
330
F10
100
AcDbEntity
  8
Defpoints
 62
     0
100
AcDbPoint
 10
2708.818993779529
 20
1592.064494165018
 30
0.0
  0
POINT
  5
25EA
330
F10
100
AcDbEntity
  8
Defpoints
 62
     0
100
AcDbPoint
 10
2720.818993779529
 20
1592.064494165018
 30
0.0
  0
ENDBLK
  5
F1B
330
F10
100
AcDbEntity
  8
0
100
AcDbBlockEnd
  0
BLOCK
  5
F90
330
F86
100
AcDbEntity
  8
0
100
AcDbBlockBegin
  2
*D10
 70
     1
 10
0.0
 20
0.0
 30
0.0
  3
*D10
  1

  0
LINE
  5
25D9
330
F86
100
AcDbEntity
  8
AM_5
100
AcDbLine
 10
2709.818993779529
 20
1559.064494165018
 30
0.0
 11
2729.318993779529
 21
1559.064494165018
 31
0.0
  0
LINE
  5
25DA
330
F86
100
AcDbEntity
  8
AM_5
100
AcDbLine
 10
2710.818993779529
 20
1608.564494165018
 30
0.0
 11
2729.318993779529
 21
1608.564494165018
 31
0.0
  0
LINE
  5
25DB
330
F86
100
AcDbEntity
  8
AM_5
100
AcDbLine
 10
2727.818993779529
 20
1562.064494165018
 30
0.0
 11
2727.818993779529
 21
1605.564494165018
 31
0.0
  0
SOLID
  5
25DC
330
F86
100
AcDbEntity
  8
AM_5
100
AcDbTrace
 10
2727.318993779529
 20
1562.064494165018
 30
0.0
 11
2728.318993779529
 21
1562.064494165018
 31
0.0
 12
2727.818993779529
 22
1559.064494165018
 32
0.0
 13
2727.818993779529
 23
1559.064494165018
 33
0.0
  0
SOLID
  5
25DD
330
F86
100
AcDbEntity
  8
AM_5
100
AcDbTrace
 10
2727.318993779529
 20
1605.564494165018
 30
0.0
 11
2728.318993779529
 21
1605.564494165018
 31
0.0
 12
2727.818993779529
 22
1608.564494165018
 32
0.0
 13
2727.818993779529
 23
1608.564494165018
 33
0.0
  0
MTEXT
  5
25DE
330
F86
100
AcDbEntity
  8
AM_5
100
AcDbMText
 10
2725.318993779529
 20
1583.814494165018
 30
0.0
 40
3.0
 41
0.0
 71
     5
 72
     1
  1
49.5+stroke
 11
0.0000000000000001
 21
1.0
 31
0.0
 73
     1
 44
1.0
1001
ACAD
1000
MTEXTBEGIN
1070
    73
1070
     1
1070
    44
1040
1.0
1070
    74
1070
     0
1000
MTEXTEND
  0
POINT
  5
25DF
330
F86
100
AcDbEntity
  8
Defpoints
 62
     0
100
AcDbPoint
 10
2708.818993779529
 20
1559.064494165018
 30
0.0
  0
POINT
  5
25E0
330
F86
100
AcDbEntity
  8
Defpoints
 62
     0
100
AcDbPoint
 10
2709.81899377953
 20
1608.564494165018
 30
0.0
  0
POINT
  5
25E1
330
F86
100
AcDbEntity
  8
Defpoints
 62
     0
100
AcDbPoint
 10
2727.818993779529
 20
1608.564494165018
 30
0.0
  0
ENDBLK
  5
F91
330
F86
100
AcDbEntity
  8
0
100
AcDbBlockEnd
  0
BLOCK
  5
FE1
330
FD7
100
AcDbEntity
  8
0
100
AcDbBlockBegin
  2
*D11
 70
     1
 10
0.0
 20
0.0
 30
0.0
  3
*D11
  1

  0
LINE
  5
2597
330
FD7
100
AcDbEntity
  8
AM_5
100
AcDbLine
 10
2669.318993775974
 20
1484.457190073916
 30
0.0
 11
2669.318993775974
 21
1466.457190070361
 31
0.0
  0
LINE
  5
2598
330
FD7
100
AcDbEntity
  8
AM_5
100
AcDbLine
 10
2703.318993775974
 20
1483.457190073916
 30
0.0
 11
2703.318993775974
 21
1466.457190070361
 31
0.0
  0
LINE
  5
2599
330
FD7
100
AcDbEntity
  8
AM_5
100
AcDbLine
 10
2672.318993775974
 20
1467.957190070361
 30
0.0
 11
2700.318993775974
 21
1467.957190070361
 31
0.0
  0
SOLID
  5
259A
330
FD7
100
AcDbEntity
  8
AM_5
100
AcDbTrace
 10
2672.318993775974
 20
1468.457190070362
 30
0.0
 11
2672.318993775974
 21
1467.457190070361
 31
0.0
 12
2669.318993775974
 22
1467.957190070361
 32
0.0
 13
2669.318993775974
 23
1467.957190070361
 33
0.0
  0
SOLID
  5
259B
330
FD7
100
AcDbEntity
  8
AM_5
100
AcDbTrace
 10
2700.318993775974
 20
1468.457190070362
 30
0.0
 11
2700.318993775974
 21
1467.457190070361
 31
0.0
 12
2703.318993775974
 22
1467.957190070361
 32
0.0
 13
2703.318993775974
 23
1467.957190070361
 33
0.0
  0
MTEXT
  5
259C
330
FD7
100
AcDbEntity
  8
AM_5
100
AcDbMText
 10
2686.318993775973
 20
1470.457190070361
 30
0.0
 40
3.0
 41
0.0
 71
     5
 72
     1
  1
{\Famgdt|c136;o}34
 73
     1
 44
1.0
1001
ACAD
1000
MTEXTBEGIN
1070
    73
1070
     1
1070
    44
1040
1.0
1070
    74
1070
     0
1000
MTEXTEND
  0
POINT
  5
259D
330
FD7
100
AcDbEntity
  8
Defpoints
 62
     0
100
AcDbPoint
 10
2669.318993775974
 20
1485.457190073916
 30
0.0
  0
POINT
  5
259E
330
FD7
100
AcDbEntity
  8
Defpoints
 62
     0
100
AcDbPoint
 10
2703.318993775974
 20
1484.457190073916
 30
0.0
  0
POINT
  5
259F
330
FD7
100
AcDbEntity
  8
Defpoints
 62
     0
100
AcDbPoint
 10
2703.318993775974
 20
1467.957190070361
 30
0.0
  0
ENDBLK
  5
FE2
330
FD7
100
AcDbEntity
  8
0
100
AcDbBlockEnd
  0
BLOCK
  5
1007
330
FFD
100
AcDbEntity
  8
0
100
AcDbBlockBegin
  2
*D12
 70
     1
 10
0.0
 20
0.0
 30
0.0
  3
*D12
  1

  0
LINE
  5
263F
330
FFD
100
AcDbEntity
  8
AM_5
100
AcDbLine
 10
2663.818993783084
 20
1487.114055237139
 30
0.0
 11
2663.818993783084
 21
1459.457190070361
 31
0.0
  0
LINE
  5
2640
330
FFD
100
AcDbEntity
  8
AM_5
100
AcDbLine
 10
2708.818993779529
 20
1487.114055237139
 30
0.0
 11
2708.818993779529
 21
1459.457190070361
 31
0.0
  0
LINE
  5
2641
330
FFD
100
AcDbEntity
  8
AM_5
100
AcDbLine
 10
2666.818993783084
 20
1460.957190070361
 30
0.0
 11
2705.818993779529
 21
1460.957190070361
 31
0.0
  0
SOLID
  5
2642
330
FFD
100
AcDbEntity
  8
AM_5
100
AcDbTrace
 10
2666.818993783084
 20
1461.457190070361
 30
0.0
 11
2666.818993783084
 21
1460.457190070362
 31
0.0
 12
2663.818993783084
 22
1460.957190070361
 32
0.0
 13
2663.818993783084
 23
1460.957190070361
 33
0.0
  0
SOLID
  5
2643
330
FFD
100
AcDbEntity
  8
AM_5
100
AcDbTrace
 10
2705.818993779529
 20
1461.457190070361
 30
0.0
 11
2705.818993779529
 21
1460.457190070362
 31
0.0
 12
2708.818993779529
 22
1460.957190070361
 32
0.0
 13
2708.818993779529
 23
1460.957190070361
 33
0.0
  0
MTEXT
  5
2644
330
FFD
100
AcDbEntity
  8
AM_5
100
AcDbMText
 10
2686.318993781307
 20
1463.457190070361
 30
0.0
 40
3.0
 41
0.0
 71
     5
 72
     1
  1
45
 73
     1
 44
1.0
1001
ACAD
1000
MTEXTBEGIN
1070
    73
1070
     1
1070
    44
1040
1.0
1070
    74
1070
     0
1000
MTEXTEND
  0
POINT
  5
2645
330
FFD
100
AcDbEntity
  8
Defpoints
 62
     0
100
AcDbPoint
 10
2663.818993783084
 20
1488.114055237139
 30
0.0
  0
POINT
  5
2646
330
FFD
100
AcDbEntity
  8
Defpoints
 62
     0
100
AcDbPoint
 10
2708.818993779529
 20
1488.114055237139
 30
0.0
  0
POINT
  5
2647
330
FFD
100
AcDbEntity
  8
Defpoints
 62
     0
100
AcDbPoint
 10
2708.818993779529
 20
1460.957190070361
 30
0.0
  0
ENDBLK
  5
1008
330
FFD
100
AcDbEntity
  8
0
100
AcDbBlockEnd
  0
BLOCK
  5
102D
330
1023
100
AcDbEntity
  8
0
100
AcDbBlockBegin
  2
*D13
 70
     1
 10
0.0
 20
0.0
 30
0.0
  3
*D13
  1

  0
LINE
  5
2648
330
1023
100
AcDbEntity
  8
AM_5
100
AcDbLine
 10
2707.162128616305
 20
1485.457190073915
 30
0.0
 11
2723.318993779529
 21
1485.457190073915
 31
0.0
  0
LINE
  5
2649
330
1023
100
AcDbEntity
  8
AM_5
100
AcDbLine
 10
2694.318993786307
 20
1534.957190070361
 30
0.0
 11
2723.318993779529
 21
1534.957190070361
 31
0.0
  0
LINE
  5
264A
330
1023
100
AcDbEntity
  8
AM_5
100
AcDbLine
 10
2721.818993779529
 20
1488.457190073916
 30
0.0
 11
2721.818993779529
 21
1531.957190070361
 31
0.0
  0
SOLID
  5
264B
330
1023
100
AcDbEntity
  8
AM_5
100
AcDbTrace
 10
2721.318993779529
 20
1488.457190073916
 30
0.0
 11
2722.318993779529
 21
1488.457190073916
 31
0.0
 12
2721.818993779529
 22
1485.457190073915
 32
0.0
 13
2721.818993779529
 23
1485.457190073915
 33
0.0
  0
SOLID
  5
264C
330
1023
100
AcDbEntity
  8
AM_5
100
AcDbTrace
 10
2721.318993779529
 20
1531.957190070361
 30
0.0
 11
2722.318993779529
 21
1531.957190070361
 31
0.0
 12
2721.818993779529
 22
1534.957190070361
 32
0.0
 13
2721.818993779529
 23
1534.957190070361
 33
0.0
  0
MTEXT
  5
264D
330
1023
100
AcDbEntity
  8
AM_5
100
AcDbMText
 10
2719.318993779529
 20
1510.207190072139
 30
0.0
 40
3.0
 41
0.0
 71
     5
 72
     1
  1
49.5
 11
0.0000000000000001
 21
1.0
 31
0.0
 73
     1
 44
1.0
1001
ACAD
1000
MTEXTBEGIN
1070
    73
1070
     1
1070
    44
1040
1.0
1070
    74
1070
     0
1000
MTEXTEND
  0
POINT
  5
264E
330
1023
100
AcDbEntity
  8
Defpoints
 62
     0
100
AcDbPoint
 10
2706.162128616306
 20
1485.457190073915
 30
0.0
  0
POINT
  5
264F
330
1023
100
AcDbEntity
  8
Defpoints
 62
     0
100
AcDbPoint
 10
2693.318993786306
 20
1534.957190070361
 30
0.0
  0
POINT
  5
2650
330
1023
100
AcDbEntity
  8
Defpoints
 62
     0
100
AcDbPoint
 10
2721.818993779529
 20
1534.957190070361
 30
0.0
  0
ENDBLK
  5
102E
330
1023
100
AcDbEntity
  8
0
100
AcDbBlockEnd
  0
BLOCK
  5
1DB3
330
1DB0
100
AcDbEntity
  8
0
100
AcDbBlockBegin
  2
GENDOT
 70
     0
 10
0.0
 20
0.0
 30
0.0
  3
GENDOT
  1

  0
LINE
  5
1DB1
330
1DB0
100
AcDbEntity
  8
0
100
AcDbLine
 10
0.0
 20
0.0
 30
0.0
 11
-1.0
 21
0.0
 31
0.0
  0
LWPOLYLINE
  5
1DB2
330
1DB0
100
AcDbEntity
  8
0
100
AcDbPolyline
 90
        2
 70
     1
 43
0.25
 10
-0.125
 20
0.0
 42
1.0
 10
0.125
 20
0.0
 42
1.0
  0
ENDBLK
  5
1DB4
330
1DB0
100
AcDbEntity
  8
0
100
AcDbBlockEnd
  0
BLOCK
  5
1F3A
330
1F30
100
AcDbEntity
  8
0
100
AcDbBlockBegin
  2
*D15
 70
     1
 10
0.0
 20
0.0
 30
0.0
  3
*D15
  1

  0
LINE
  5
25D0
330
1F30
100
AcDbEntity
  8
AM_5
100
AcDbLine
 10
2710.818993779529
 20
1608.564494165018
 30
0.0
 11
2722.318993779529
 21
1608.564494165018
 31
0.0
  0
LINE
  5
25D1
330
1F30
100
AcDbEntity
  8
AM_5
100
AcDbLine
 10
2710.818993779529
 20
1598.564494165018
 30
0.0
 11
2722.318993779529
 21
1598.564494165018
 31
0.0
  0
LINE
  5
25D2
330
1F30
100
AcDbEntity
  8
AM_5
100
AcDbLine
 10
2720.818993779529
 20
1605.564494165018
 30
0.0
 11
2720.818993779529
 21
1601.564494165018
 31
0.0
  0
SOLID
  5
25D3
330
1F30
100
AcDbEntity
  8
AM_5
100
AcDbTrace
 10
2720.318993779529
 20
1605.564494165018
 30
0.0
 11
2721.318993779529
 21
1605.564494165018
 31
0.0
 12
2720.818993779529
 22
1608.564494165018
 32
0.0
 13
2720.818993779529
 23
1608.564494165018
 33
0.0
  0
INSERT
  5
25D4
330
1F30
100
AcDbEntity
  8
AM_5
100
AcDbBlockReference
  2
GENDOT
 10
2720.818993779529
 20
1598.564494165018
 30
0.0
 41
3.0
 42
3.0
 43
3.0
 50
270.0
  0
MTEXT
  5
25D5
330
1F30
100
AcDbEntity
  8
AM_5
100
AcDbMText
 10
2718.318993779528
 20
1603.564494165018
 30
0.0
 40
3.0
 41
0.0
 71
     5
 72
     1
  1
10
 11
0.0000000000000001
 21
1.0
 31
0.0
 73
     1
 44
1.0
1001
ACAD
1000
MTEXTBEGIN
1070
    73
1070
     1
1070
    44
1040
1.0
1070
    74
1070
     0
1000
MTEXTEND
  0
POINT
  5
25D6
330
1F30
100
AcDbEntity
  8
Defpoints
 62
     0
100
AcDbPoint
 10
2709.81899377953
 20
1608.564494165018
 30
0.0
  0
POINT
  5
25D7
330
1F30
100
AcDbEntity
  8
Defpoints
 62
     0
100
AcDbPoint
 10
2709.81899377953
 20
1598.564494165018
 30
0.0
  0
POINT
  5
25D8
330
1F30
100
AcDbEntity
  8
Defpoints
 62
     0
100
AcDbPoint
 10
2720.818993779529
 20
1598.564494165018
 30
0.0
  0
ENDBLK
  5
1F3B
330
1F30
100
AcDbEntity
  8
0
100
AcDbBlockEnd
  0
BLOCK
  5
1FB5
330
1FA9
100
AcDbEntity
  8
0
100
AcDbBlockBegin
  2
*D16
 70
     1
 10
0.0
 20
0.0
 30
0.0
  3
*D16
  1

  0
LINE
  5
25C5
330
1FA9
100
AcDbEntity
  8
AM_5
100
AcDbLine
 10
2709.818993779529
 20
1592.064494165018
 30
0.0
 11
2722.318993779529
 21
1592.064494165018
 31
0.0
  0
LINE
  5
25C6
330
1FA9
100
AcDbEntity
  8
AM_5
100
AcDbLine
 10
2710.818993779529
 20
1598.564494165018
 30
0.0
 11
2722.318993779529
 21
1598.564494165018
 31
0.0
  0
LINE
  5
25C7
330
1FA9
100
AcDbEntity
  8
AM_5
100
AcDbLine
 10
2720.818993779529
 20
1589.064494165018
 30
0.0
 11
2720.818993779529
 21
1586.064494165018
 31
0.0
  0
LINE
  5
25C8
330
1FA9
100
AcDbEntity
  8
AM_5
100
AcDbLine
 10
2720.818993779529
 20
1601.564494165018
 30
0.0
 11
2720.818993779529
 21
1604.564494165018
 31
0.0
  0
LINE
  5
25C9
330
1FA9
100
AcDbEntity
  8
AM_5
100
AcDbLine
 10
2720.818993779529
 20
1592.064494165018
 30
0.0
 11
2720.818993779529
 21
1598.564494165018
 31
0.0
  0
SOLID
  5
25CA
330
1FA9
100
AcDbEntity
  8
AM_5
100
AcDbTrace
 10
2720.318993779529
 20
1589.064494165018
 30
0.0
 11
2721.318993779529
 21
1589.064494165018
 31
0.0
 12
2720.818993779529
 22
1592.064494165018
 32
0.0
 13
2720.818993779529
 23
1592.064494165018
 33
0.0
  0
INSERT
  5
25CB
330
1FA9
100
AcDbEntity
  8
AM_5
100
AcDbBlockReference
  2
GENDOT
 10
2720.818993779529
 20
1598.564494165018
 30
0.0
 41
3.0
 42
3.0
 43
3.0
 50
270.0
  0
MTEXT
  5
25CC
330
1FA9
100
AcDbEntity
  8
AM_5
100
AcDbMText
 10
2718.318993779528
 20
1595.314494165019
 30
0.0
 40
3.0
 41
0.0
 71
     5
 72
     1
  1
6.5
 11
0.0000000000000001
 21
1.0
 31
0.0
 73
     1
 44
1.0
1001
ACAD
1000
MTEXTBEGIN
1070
    73
1070
     1
1070
    44
1040
1.0
1070
    74
1070
     0
1000
MTEXTEND
  0
POINT
  5
25CD
330
1FA9
100
AcDbEntity
  8
Defpoints
 62
     0
100
AcDbPoint
 10
2708.818993779529
 20
1592.064494165018
 30
0.0
  0
POINT
  5
25CE
330
1FA9
100
AcDbEntity
  8
Defpoints
 62
     0
100
AcDbPoint
 10
2709.81899377953
 20
1598.564494165018
 30
0.0
  0
POINT
  5
25CF
330
1FA9
100
AcDbEntity
  8
Defpoints
 62
     0
100
AcDbPoint
 10
2720.818993779529
 20
1598.564494165018
 30
0.0
  0
ENDBLK
  5
1FB6
330
1FA9
100
AcDbEntity
  8
0
100
AcDbBlockEnd
  0
BLOCK
  5
26A0
330
269B
100
AcDbEntity
  8
0
100
AcDbBlockBegin
  2
*S18
 70
     1
 10
0.0
 20
0.0
 30
0.0
  3
*S18
  1

  0
LINE
  5
269C
330
269B
100
AcDbEntity
  8
AM_5
 62
     5
100
AcDbLine
 10
2762.303541729846
 20
1462.405692580634
 30
0.0
 11
2721.487810873613
 21
1462.405692580634
 31
0.0
  0
LINE
  5
269D
330
269B
100
AcDbEntity
  8
AM_5
 62
     5
100
AcDbLine
 10
2721.487810873613
 20
1462.405692580634
 30
0.0
 11
2706.946016786823
 21
1487.139508603715
 31
0.0
  0
TRACE
  5
269E
330
269B
100
AcDbEntity
  8
AM_5
 62
     5
370
    35
100
AcDbTrace
 10
2707.343234751822
 20
1487.37304563048
 30
0.0
 11
2706.548798821825
 21
1486.90597157695
 31
0.0
 12
2705.172126947386
 22
1490.156678608462
 32
0.0
 13
2705.172126947386
 23
1490.156678608462
 33
0.0
  0
MTEXT
  5
269F
330
269B
100
AcDbEntity
  8
AM_5
 62
     5
100
AcDbMText
 10
2724.987810873613
 20
1464.155692580634
 30
0.0
 40
3.5
 41
0.0
 71
     7
 72
     5
  1
2-%%C5.5 thru\P2-%%C9x7 depth\P2-M6x1.0x10 depth
  7
ACISOTS
 73
     1
 44
1.0
1001
ACAD
1000
MTEXTBEGIN
1070
    73
1070
     1
1070
    44
1040
1.0
1070
    74
1070
     0
1000
MTEXTEND
  0
ENDBLK
  5
26A1
330
269B
100
AcDbEntity
  8
0
100
AcDbBlockEnd
  0
BLOCK
  5
26A8
330
26A3
100
AcDbEntity
  8
0
100
AcDbBlockBegin
  2
*S19
 70
     1
 10
0.0
 20
0.0
 30
0.0
  3
*S19
  1

  0
LINE
  5
26A4
330
26A3
100
AcDbEntity
  8
AM_5
 62
     5
100
AcDbLine
 10
2731.914751008657
 20
1544.90828535514
 30
0.0
 11
2712.225873055901
 21
1544.90828535514
 31
0.0
  0
LINE
  5
26A5
330
26A3
100
AcDbEntity
  8
AM_5
 62
     5
100
AcDbLine
 10
2712.225873055901
 20
1544.90828535514
 30
0.0
 11
2689.368097871951
 21
1561.488917788266
 31
0.0
  0
TRACE
  5
26A6
330
26A3
100
AcDbEntity
  8
AM_5
 62
     5
370
    35
100
AcDbTrace
 10
2689.638656515145
 20
1561.8619052883
 30
0.0
 11
2689.097539228757
 21
1561.115930288234
 31
0.0
 12
2686.534976521941
 22
1563.544014724208
 32
0.0
 13
2686.534976521941
 23
1563.544014724208
 33
0.0
  0
MTEXT
  5
26A7
330
26A3
100
AcDbEntity
  8
AM_5
 62
     5
100
AcDbMText
 10
2715.725873055901
 20
1546.65828535514
 30
0.0
 40
3.5
 41
0.0
 71
     7
 72
     5
  1
2-PT1/8
  7
ACISOTS
 73
     1
 44
1.0
1001
ACAD
1000
MTEXTBEGIN
1070
    73
1070
     1
1070
    44
1040
1.0
1070
    74
1070
     0
1000
MTEXTEND
  0
ENDBLK
  5
26A9
330
26A3
100
AcDbEntity
  8
0
100
AcDbBlockEnd
  0
BLOCK
  5
26B0
330
26AB
100
AcDbEntity
  8
0
100
AcDbBlockBegin
  2
*S20
 70
     1
 10
0.0
 20
0.0
 30
0.0
  3
*S20
  1

  0
LINE
  5
26AC
330
26AB
100
AcDbEntity
  8
AM_5
 62
     5
100
AcDbLine
 10
2749.698630573963
 20
1633.754724674345
 30
0.0
 11
2718.198630573962
 21
1633.754724674345
 31
0.0
  0
LINE
  5
26AD
330
26AB
100
AcDbEntity
  8
AM_5
 62
     5
100
AcDbLine
 10
2718.198630573962
 20
1633.754724674345
 30
0.0
 11
2705.89940985684
 21
1667.183420547299
 31
0.0
  0
TRACE
  5
26AE
330
26AB
100
AcDbEntity
  8
AM_5
 62
     5
370
    35
100
AcDbTrace
 10
2706.331852787296
 20
1667.342526695785
 30
0.0
 11
2705.466966926383
 21
1667.024314398814
 31
0.0
 12
2704.690878669728
 22
1670.468150729488
 32
0.0
 13
2704.690878669728
 23
1670.468150729488
 33
0.0
  0
MTEXT
  5
26AF
330
26AB
100
AcDbEntity
  8
AM_5
 62
     5
100
AcDbMText
 10
2721.698630573963
 20
1635.504724674345
 30
0.0
 40
3.5
 41
0.0
 71
     7
 72
     5
  1
4-M6x1.0 thru
  7
ACISOTS
 73
     1
 44
1.0
1001
ACAD
1000
MTEXTBEGIN
1070
    73
1070
     1
1070
    44
1040
1.0
1070
    74
1070
     0
1000
MTEXTEND
  0
ENDBLK
  5
26B1
330
26AB
100
AcDbEntity
  8
0
100
AcDbBlockEnd
  0
ENDSEC
  0
SECTION
  2
ENTITIES
  0
DIMENSION
  5
E65
330
1F
100
AcDbEntity
  8
AM_5
100
AcDbDimension
  2
*D5
 10
2702.318993779529
 20
1632.297872391242
 30
0.0
 11
2686.318993779529
 21
1634.798167666832
 31
0.0
 70
    32
 71
     5
 42
32.0
  3
AM_ISO$0
100
AcDbAlignedDimension
 13
2670.318993779529
 23
1667.297872391242
 33
0.0
 14
2702.318993779529
 24
1667.297872391242
 34
0.0
100
AcDbRotatedDimension
  0
DIMENSION
  5
E9D
330
1F
100
AcDbEntity
  8
AM_5
100
AcDbDimension
  2
*D6
 10
2709.81899377953
 20
1625.297872391242
 30
0.0
 11
2686.318993779529
 21
1627.797872391242
 31
0.0
 70
    32
 71
     5
 42
47.00000000000045
  3
AM_ISO$0
100
AcDbAlignedDimension
 13
2662.818993779529
 23
1648.297872391242
 33
0.0
 14
2709.81899377953
 24
1648.297872391242
 34
0.0
100
AcDbRotatedDimension
1001
ACAD
1000
DSTYLE
1002
{
1070
    40
1040
1.0
1002
}
  0
DIMENSION
  5
EC3
330
1F
100
AcDbEntity
  8
AM_5
100
AcDbDimension
  2
*D7
 10
2721.818993779529
 20
1692.297872391242
 30
0.0
 11
2719.318993779529
 21
1672.297872391242
 31
0.0
 70
    32
 71
     5
 42
40.0
  3
AM_ISO$0
100
AcDbAlignedDimension
 13
2691.318993779529
 23
1652.297872391242
 33
0.0
 14
2691.318993779529
 24
1692.297872391242
 34
0.0
 50
90.0
100
AcDbRotatedDimension
  0
DIMENSION
  5
EE9
330
1F
100
AcDbEntity
  8
AM_5
100
AcDbDimension
  2
*D8
 10
2728.818993779529
 20
1700.297872391242
 30
0.0
 11
2726.318993779529
 21
1672.297872391242
 31
0.0
 70
    32
 71
     5
 42
56.00000000000022
  3
AM_ISO$0
100
AcDbAlignedDimension
 13
2705.818993779529
 23
1644.297872391242
 33
0.0
 14
2705.818993779529
 24
1700.297872391242
 34
0.0
 50
90.0
100
AcDbRotatedDimension
  0
DIMENSION
  5
F0F
330
1F
100
AcDbEntity
  8
AM_5
100
AcDbDimension
  2
*D9
 10
2720.818993779529
 20
1592.064494165018
 30
0.0
 11
2718.318993779528
 21
1575.564494165019
 31
0.0
 70
    32
  1
<>+stroke
 71
     5
 42
33.0
  3
AM_ISO$0
100
AcDbAlignedDimension
 13
2708.818993779529
 23
1559.064494165018
 33
0.0
 14
2708.818993779529
 24
1592.064494165018
 34
0.0
 50
90.0
100
AcDbRotatedDimension
1001
ACAD
1000
DSTYLE
1002
{
1070
    40
1040
1.0
1002
}
  0
DIMENSION
  5
F85
330
1F
100
AcDbEntity
  8
AM_5
100
AcDbDimension
  2
*D10
 10
2727.818993779529
 20
1608.564494165018
 30
0.0
 11
2725.318993779529
 21
1583.814494165018
 31
0.0
 70
    32
  1
<>+stroke
 71
     5
 42
49.5
  3
AM_ISO$0
100
AcDbAlignedDimension
 13
2708.818993779529
 23
1559.064494165018
 33
0.0
 14
2709.81899377953
 24
1608.564494165018
 34
0.0
 50
90.0
100
AcDbRotatedDimension
  0
DIMENSION
  5
FD6
330
1F
100
AcDbEntity
  8
AM_5
100
AcDbDimension
  2
*D11
 10
2703.318993775974
 20
1467.957190070361
 30
0.0
 11
2686.318993775973
 21
1470.457190070361
 31
0.0
 70
    32
  1
{\Famgdt;o}<>
 71
     5
 42
34.0
  3
AM_ISO$0
100
AcDbAlignedDimension
 13
2669.318993775974
 23
1485.457190073916
 33
0.0
 14
2703.318993775974
 24
1484.457190073916
 34
0.0
100
AcDbRotatedDimension
  0
DIMENSION
  5
FFC
330
1F
100
AcDbEntity
  8
AM_5
100
AcDbDimension
  2
*D12
 10
2708.818993779529
 20
1460.957190070361
 30
0.0
 11
2686.318993781307
 21
1463.457190070361
 31
0.0
 70
    32
 71
     5
 42
44.99999999644524
  3
AM_ISO$0
100
AcDbAlignedDimension
 13
2663.818993783084
 23
1488.114055237139
 33
0.0
 14
2708.818993779529
 24
1488.114055237139
 34
0.0
100
AcDbRotatedDimension
  0
DIMENSION
  5
1022
330
1F
100
AcDbEntity
  8
AM_5
100
AcDbDimension
  2
*D13
 10
2721.818993779529
 20
1534.957190070361
 30
0.0
 11
2719.318993779529
 21
1510.207190072139
 31
0.0
 70
    32
 71
     5
 42
49.49999999644569
  3
AM_ISO$0
100
AcDbAlignedDimension
 13
2706.162128616306
 23
1485.457190073915
 33
0.0
 14
2693.318993786306
 24
1534.957190070361
 34
0.0
 50
90.0
100
AcDbRotatedDimension
  0
INSERT
  5
1266
330
1F
100
AcDbEntity
  8
AM_5
100
AcDbBlockReference
  2
*S18
 10
0.0
 20
0.0
 30
0.0
  0
INSERT
  5
14F5
330
1F
100
AcDbEntity
  8
AM_5
100
AcDbBlockReference
  2
*S19
 10
0.0
 20
0.0
 30
0.0
  0
INSERT
  5
1509
330
1F
100
AcDbEntity
  8
AM_5
100
AcDbBlockReference
  2
*S20
 10
0.0
 20
0.0
 30
0.0
  0
LINE
  5
15A2
330
1F
100
AcDbEntity
  8
LOGO
 62
     4
100
AcDbLine
 10
2832.986664702561
 20
1443.798881858434
 30
0.0
 11
2594.846664702561
 21
1443.798881858434
 31
0.0
  0
LWPOLYLINE
  5
15A3
330
1F
100
AcDbEntity
  8
LOGO
 62
     4
100
AcDbPolyline
 90
        4
 70
     1
 43
0.0
 10
2594.846664702561
 20
1443.798881858434
 10
2832.986664702561
 20
1443.798881858434
 10
2832.986664702561
 20
1726.168330039429
 10
2594.846664702561
 20
1726.168330039429
1001
GENIUS_GENREC_14
1002
{
1000
PYDIR
1011
2594.846664702561
1021
1726.168330039429
1031
0.0
1002
}
1002
{
1000
PXDIR
1011
2832.986664702561
1021
1443.798881858434
1031
0.0
1002
}
1002
{
1000
PORI
1011
2594.846664702561
1021
1443.798881858434
1031
0.0
1002
}
1002
{
1000
PINS
1011
2594.846664702561
1021
1443.798881858434
1031
0.0
1002
}
1002
{
1000
PINS2
1011
2832.986664702561
1021
1726.168330039429
1031
0.0
1002
}
1002
{
1000
C
1070
     1
1002
}
1001
GENIUS_GENODEF_13
1002
{
1000
HIER
1070
     0
1002
}
1002
{
1000
MANEDIT
1070
     0
1002
}
1002
{
1000
NOSEL
1070
     0
1002
}
1002
{
1000
BEHIND
1070
     0
1002
}
1002
{
1000
OTHER
1070
     0
1002
}
1002
{
1000
REACTOR
1002
}
1001
GENIUS_GENOBJ-N-REC_13
1002
{
1000
OWNER
1000
GEN
1002
}
  0
LWPOLYLINE
  5
15A4
330
1F
100
AcDbEntity
  8
LOGO
 62
     4
100
AcDbPolyline
 90
        4
 70
     1
 43
0.0
 10
2594.846664702561
 20
1443.798881858434
 10
2832.986664702561
 20
1443.798881858434
 10
2832.986664702561
 20
1419.988330039429
 10
2594.846664702561
 20
1419.988330039429
1001
GENIUS_GENREC_14
1002
{
1000
PYDIR
1011
2594.846664702561
1021
1419.988330039429
1031
0.0
1002
}
1002
{
1000
PXDIR
1011
2832.986664702561
1021
1443.798881858434
1031
0.0
1002
}
1002
{
1000
PORI
1011
2594.846664702561
1021
1443.798881858434
1031
0.0
1002
}
1002
{
1000
PINS
1011
2594.846664702561
1021
1443.798881858434
1031
0.0
1002
}
1002
{
1000
PINS2
1011
2832.986664702561
1021
1419.988330039429
1031
0.0
1002
}
1002
{
1000
C
1070
     1
1002
}
1001
GENIUS_GENOBJ-N-REC_13
1002
{
1000
OWNER
1000
GEN
1002
}
1001
GENIUS_GENODEF_13
1002
{
1000
HIER
1070
     0
1002
}
1002
{
1000
MANEDIT
1070
     0
1002
}
1002
{
1000
NOSEL
1070
     0
1002
}
1002
{
1000
BEHIND
1070
     0
1002
}
1002
{
1000
OTHER
1070
     0
1002
}
1002
{
1000
REACTOR
1002
}
  0
TEXT
  5
15A5
330
1F
100
AcDbEntity
  8
LOGO
 62
     7
100
AcDbText
 10
2648.609314107852
 20
1433.367884277689
 30
0.0
 40
3.174740242533936
  1
Order example:
 41
0.8
  7
CHINESET
100
AcDbText
  0
TEXT
  5
15A6
330
1F
100
AcDbEntity
  8
LOGO
 62
     7
100
AcDbText
 10
2649.178888761396
 20
1437.837261200822
 30
0.0
 40
4.762110363800903
  1
訂購代號：
  7
CHINESET
100
AcDbText
  0
LINE
  5
15A7
330
1F
100
AcDbEntity
  8
LOGO
 62
     4
100
AcDbLine
 10
2647.229878704371
 20
1419.988330039429
 30
0.0
 11
2647.229878704371
 21
1443.798881858434
 31
0.0
  0
TEXT
  5
15A8
330
1F
100
AcDbEntity
  8
LOGO
  6
Continuous
100
AcDbText
 10
2603.399521946449
 20
1424.665877011017
 30
0.0
 40
3.571582772850679
  1
金器工業股份有限公司
  7
CHINESET
100
AcDbText
  0
TEXT
  5
15A9
330
1F
100
AcDbEntity
  8
LOGO
  6
Continuous
100
AcDbText
 10
2596.839230995528
 20
1421.093594487966
 30
0.0
 40
2.381055181900451
  1
MINDMAN INDUSTRIAL CO., LTD.
 41
0.85
  7
CHINESET
100
AcDbText
  0
LINE
  5
15AA
330
1F
100
AcDbEntity
  8
LOGO
 62
     4
100
AcDbLine
 10
2647.229878704371
 20
1439.036771494633
 30
0.0
 11
2612.307736036497
 21
1439.036771494633
 31
0.0
  0
LINE
  5
15AB
330
1F
100
AcDbEntity
  8
LOGO
 62
     4
100
AcDbLine
 10
2647.229878704371
 20
1434.274661130833
 30
0.0
 11
2612.307736036497
 21
1434.274661130833
 31
0.0
  0
LINE
  5
15AC
330
1F
100
AcDbEntity
  8
LOGO
 62
     4
100
AcDbLine
 10
2647.229878704371
 20
1429.512550767032
 30
0.0
 11
2594.846664702561
 21
1429.512550767032
 31
0.0
  0
LINE
  5
15AD
330
1F
100
AcDbEntity
  8
LOGO
 62
     4
100
AcDbLine
 10
2612.307736036497
 20
1429.512550767032
 30
0.0
 11
2612.307736036497
 21
1443.798881858434
 31
0.0
  0
TEXT
  5
15AE
330
1F
100
AcDbEntity
  8
LOGO
100
AcDbText
 10
2636.175372249962
 20
1430.703078357981
 30
0.0
 40
2.381055181900451
  1
mm
  7
CHINESET
 72
     1
 11
2639.123345332315
 21
1431.893605948932
 31
0.0
100
AcDbText
 73
     2
  0
TEXT
  5
15AF
330
1F
100
AcDbEntity
  8
LOGO
100
AcDbText
 10
2634.928152868966
 20
1440.227299085583
 30
0.0
 40
2.381055181900451
  1
1 : 1
  7
CHINESET
 72
     1
 11
2639.123345332315
 21
1441.417826676534
 31
0.0
100
AcDbText
 73
     2
  0
LINE
  5
15B0
330
1F
100
AcDbEntity
  8
LOGO
 62
     4
100
AcDbLine
 10
2631.356177491702
 20
1429.512550767032
 30
0.0
 11
2631.356177491702
 21
1443.798881858434
 31
0.0
  0
CIRCLE
  5
15B1
330
1F
100
AcDbEntity
  8
LOGO
  6
Continuous
100
AcDbCircle
 10
2635.764998978664
 20
1436.660809407191
 30
0.0
 40
1.382496682332775
  0
CIRCLE
  5
15B2
330
1F
100
AcDbEntity
  8
LOGO
  6
Continuous
100
AcDbCircle
 10
2635.764998978664
 20
1436.660809407191
 30
0.0
 40
0.8100206703401264
  0
LINE
  5
15B3
330
1F
100
AcDbEntity
  8
LOGO
100
AcDbLine
 10
2644.452768548575
 20
1435.278312724858
 30
0.0
 11
2644.452768548575
 21
1438.043306089524
 31
0.0
  0
LINE
  5
15B4
330
1F
100
AcDbEntity
  8
LOGO
100
AcDbLine
 10
2640.118720808557
 20
1435.850788736851
 30
0.0
 11
2640.118720808557
 21
1437.470830077531
 31
0.0
  0
LINE
  5
15B5
330
1F
100
AcDbEntity
  8
LOGO
  6
Continuous
100
AcDbLine
 10
2640.118720808557
 20
1437.470830077531
 30
0.0
 11
2644.452768548575
 21
1438.043306089524
 31
0.0
  0
LINE
  5
15B6
330
1F
100
AcDbEntity
  8
LOGO
  6
Continuous
100
AcDbLine
 10
2640.118720808557
 20
1435.850788736851
 30
0.0
 11
2644.452768548575
 21
1435.278312724858
 31
0.0
  0
TEXT
  5
15B7
330
1F
100
AcDbEntity
  8
LOGO
100
AcDbText
 10
2614.271043590502
 20
1440.228470864708
 30
156.0504340624913
 40
2.381055181900451
  1
比例 Scale:
 41
0.9
  7
CHINESET
 72
     4
 11
2621.831956764099
 21
1441.417826676534
 31
156.0504340624913
100
AcDbText
  0
TEXT
  5
15B8
330
1F
100
AcDbEntity
  8
LOGO
100
AcDbText
 10
2614.13392032333
 20
1435.498682075104
 30
156.0504340624913
 40
2.381055181900451
  1
投影  View:
 41
0.9
  7
CHINESET
 72
     4
 11
2621.831956764099
 21
1436.655716312732
 31
156.0504340624913
100
AcDbText
  0
TEXT
  5
15B9
330
1F
100
AcDbEntity
  8
LOGO
100
AcDbText
 10
2614.366710986204
 20
1430.703078357981
 30
156.0504340624913
 40
2.381055181900451
  1
單位  Unit:
 41
0.9
  7
CHINESET
 72
     4
 11
2621.831956764099
 21
1431.893605948932
 31
156.0504340624913
100
AcDbText
  0
SOLID
  5
15BA
330
1F
100
AcDbEntity
  8
LOGO
 62
     5
100
AcDbTrace
 10
2597.317047666812
 20
1433.470716090424
 30
0.0
 11
2598.346553448577
 21
1433.470716090424
 31
0.0
 12
2602.642077572497
 22
1443.233270917513
 32
0.0
 13
2603.671583354263
 23
1443.233270917513
 33
0.0
  0
SOLID
  5
15BB
330
1F
100
AcDbEntity
  8
LOGO
 62
     5
100
AcDbTrace
 10
2598.772555841033
 20
1433.470716090424
 30
0.0
 11
2599.802061622799
 21
1433.470716090424
 31
0.0
 12
2603.671583354263
 22
1442.452266531346
 32
0.0
 13
2602.642077572497
 23
1438.677411998204
 33
0.0
  0
SOLID
  5
15BC
330
1F
100
AcDbEntity
  8
LOGO
 62
     2
100
AcDbTrace
 10
2598.346553448577
 20
1433.470716090424
 30
0.0
 11
2598.772555841033
 21
1433.470716090424
 31
0.0
 12
2603.671583354263
 22
1443.233270917513
 32
0.0
 13
2604.097585746719
 23
1443.233270917513
 33
0.0
  0
SOLID
  5
15BD
330
1F
100
AcDbEntity
  8
LOGO
 62
     5
100
AcDbTrace
 10
2595.666497432898
 20
1429.920696153301
 30
0.0
 11
2596.021499426611
 21
1429.920696153301
 31
0.0
 12
2597.021212672052
 22
1431.695706121862
 32
0.0
 13
2597.376214665763
 23
1431.695706121862
 33
0.0
  0
SOLID
  5
15BE
330
1F
100
AcDbEntity
  8
LOGO
 62
     5
100
AcDbTrace
 10
2597.021212672052
 20
1431.695706121862
 30
0.0
 11
2597.376214665763
 21
1431.695706121862
 31
0.0
 12
2597.021212672052
 22
1429.920696153301
 32
0.0
 13
2597.376214665763
 23
1429.920696153301
 33
0.0
  0
SOLID
  5
15BF
330
1F
100
AcDbEntity
  8
LOGO
 62
     5
100
AcDbTrace
 10
2597.021212672052
 20
1429.920696153301
 30
0.0
 11
2597.376214665763
 21
1429.920696153301
 31
0.0
 12
2598.375927911206
 22
1431.695706121862
 32
0.0
 13
2598.730929904919
 23
1431.695706121862
 33
0.0
  0
SOLID
  5
15C0
330
1F
100
AcDbEntity
  8
LOGO
 62
     5
100
AcDbTrace
 10
2598.375927911206
 20
1431.695706121862
 30
0.0
 11
2598.730929904919
 21
1431.695706121862
 31
0.0
 12
2598.375927911206
 22
1429.920696153301
 32
0.0
 13
2598.730929904919
 23
1429.920696153301
 33
0.0
  0
POLYLINE
  5
15C1
330
1F
100
AcDbEntity
  8
LOGO
 62
     5
100
AcDb2dPolyline
 66
     1
 10
0.0
 20
0.0
 30
0.0
 40
0.3555709071638008
 41
0.3555709071638008
  0
VERTEX
  5
15C2
330
15C1
100
AcDbEntity
  8
LOGO
 62
     5
100
AcDbVertex
100
AcDb2dVertex
 10
2610.27547380749
 20
1430.985702134438
 30
0.0
 42
1.0
  0
VERTEX
  5
15C3
330
15C1
100
AcDbEntity
  8
LOGO
 62
     5
100
AcDbVertex
100
AcDb2dVertex
 10
2609.208761085998
 20
1430.985702134438
 30
0.0
 42
1.0
  0
SEQEND
  5
15C4
330
15C1
100
AcDbEntity
  8
LOGO
 62
     5
  0
POLYLINE
  5
15C5
330
1F
100
AcDbEntity
  8
LOGO
 62
     5
100
AcDb2dPolyline
 66
     1
 10
0.0
 20
0.0
 30
0.0
 70
     1
  0
VERTEX
  5
15C6
330
15C5
100
AcDbEntity
  8
LOGO
 62
     5
100
AcDbVertex
100
AcDb2dVertex
 10
2607.197960158604
 20
1430.808201137581
 30
0.0
 42
1.000000057330635
  0
VERTEX
  5
15C7
330
15C5
100
AcDbEntity
  8
LOGO
 62
     5
100
AcDbVertex
100
AcDb2dVertex
 10
2608.262966139742
 20
1430.808201137581
 30
0.0
 42
1.000000057330635
  0
SEQEND
  5
15C8
330
15C5
100
AcDbEntity
  8
LOGO
 62
     5
  0
CIRCLE
  5
15C9
330
1F
100
AcDbEntity
  8
LOGO
 62
     5
100
AcDbCircle
 10
2607.730463149174
 20
1430.808201137581
 30
0.0
 40
0.5325029905685083
  0
POLYLINE
  5
15CA
330
1F
100
AcDbEntity
  8
LOGO
 62
     5
100
AcDb2dPolyline
 66
     1
 10
0.0
 20
0.0
 30
0.0
 70
     1
 40
0.3555709071638008
 41
0.3555709071638008
  0
VERTEX
  5
15CB
330
15CA
100
AcDbEntity
  8
LOGO
 62
     5
100
AcDbVertex
100
AcDb2dVertex
 10
2607.019321334846
 20
1430.808201137581
 30
0.0
 42
1.0
  0
VERTEX
  5
15CC
330
15CA
100
AcDbEntity
  8
LOGO
 62
     5
100
AcDbVertex
100
AcDb2dVertex
 10
2608.441604963501
 20
1430.808201137581
 30
0.0
 42
1.0
  0
SEQEND
  5
15CD
330
15CA
100
AcDbEntity
  8
LOGO
 62
     5
  0
LINE
  5
15CE
330
1F
100
AcDbEntity
  8
LOGO
100
AcDbLine
 10
2610.452121434168
 20
1429.920696153301
 30
0.0
 11
2610.452121434168
 21
1430.985702134438
 31
0.0
  0
SOLID
  5
15CF
330
1F
100
AcDbEntity
  8
LOGO
 62
     5
100
AcDbTrace
 10
2608.262930639544
 20
1431.695706121862
 30
0.0
 11
2608.617932633256
 21
1431.695706121862
 31
0.0
 12
2608.262930639544
 22
1429.920696153301
 32
0.0
 13
2608.617932633256
 23
1429.920696153301
 33
0.0
  0
SOLID
  5
15D0
330
1F
100
AcDbEntity
  8
LOGO
 62
     5
100
AcDbTrace
 10
2609.032113459319
 20
1429.920696153301
 30
0.0
 11
2609.387115453032
 21
1429.920696153301
 31
0.0
 12
2609.032113459319
 22
1431.695706121862
 32
0.0
 13
2609.387115453032
 23
1431.695706121862
 33
0.0
  0
SOLID
  5
15D1
330
1F
100
AcDbEntity
  8
LOGO
 62
     5
100
AcDbTrace
 10
2610.097119440457
 20
1430.985702134438
 30
0.0
 11
2610.452121434168
 21
1430.985702134438
 31
0.0
 12
2610.097119440457
 22
1429.920696153301
 32
0.0
 13
2610.452121434168
 23
1429.920696153301
 33
0.0
  0
SOLID
  5
15D2
330
1F
100
AcDbEntity
  8
LOGO
 62
     5
100
AcDbTrace
 10
2608.996613259948
 20
1442.452266531346
 30
0.0
 11
2607.967107478183
 21
1438.677411998204
 31
0.0
 12
2608.996613259948
 22
1433.470716090424
 32
0.0
 13
2607.967107478183
 23
1433.470716090424
 33
0.0
  0
SOLID
  5
15D3
330
1F
100
AcDbEntity
  8
LOGO
 62
     5
100
AcDbTrace
 10
2609.422615652403
 20
1433.470716090424
 30
0.0
 11
2610.452121434168
 21
1433.470716090424
 31
0.0
 12
2609.422615652403
 22
1443.233270917513
 32
0.0
 13
2610.452121434168
 23
1443.233270917513
 33
0.0
  0
SOLID
  5
15D4
330
1F
100
AcDbEntity
  8
LOGO
 62
     2
100
AcDbTrace
 10
2608.996613259948
 20
1443.233270917513
 30
0.0
 11
2609.422615652403
 21
1443.233270917513
 31
0.0
 12
2608.996613259948
 22
1433.470716090424
 32
0.0
 13
2609.422615652403
 23
1433.470716090424
 33
0.0
  0
POLYLINE
  5
15D5
330
1F
100
AcDbEntity
  8
LOGO
 62
     5
100
AcDb2dPolyline
 66
     1
 10
0.0
 20
0.0
 30
0.0
 40
0.3555709071638008
 41
0.3555709071638008
  0
VERTEX
  5
15D6
330
15D5
100
AcDbEntity
  8
LOGO
 62
     5
100
AcDbVertex
100
AcDb2dVertex
 10
2605.187088230814
 20
1430.985702134438
 30
0.0
 42
1.0
  0
VERTEX
  5
15D7
330
15D5
100
AcDbEntity
  8
LOGO
 62
     5
100
AcDbVertex
100
AcDb2dVertex
 10
2604.120375509322
 20
1430.985702134438
 30
0.0
 42
1.0
  0
SEQEND
  5
15D8
330
15D5
100
AcDbEntity
  8
LOGO
 62
     5
  0
POLYLINE
  5
15D9
330
1F
100
AcDbEntity
  8
LOGO
 62
     5
100
AcDb2dPolyline
 66
     1
 10
0.0
 20
0.0
 30
0.0
 40
0.3555709071638008
 41
0.3555709071638008
  0
VERTEX
  5
15DA
330
15D9
100
AcDbEntity
  8
LOGO
 62
     5
100
AcDbVertex
100
AcDb2dVertex
 10
2606.25209421195
 20
1430.985702134438
 30
0.0
 42
1.0
  0
VERTEX
  5
15DB
330
15D9
100
AcDbEntity
  8
LOGO
 62
     5
100
AcDbVertex
100
AcDb2dVertex
 10
2605.185381490459
 20
1430.985702134438
 30
0.0
 42
1.0
  0
SEQEND
  5
15DC
330
15D9
100
AcDbEntity
  8
LOGO
 62
     5
  0
POLYLINE
  5
15DD
330
1F
100
AcDbEntity
  8
LOGO
 62
     5
100
AcDb2dPolyline
 66
     1
 10
0.0
 20
0.0
 30
0.0
 40
0.3555709071638008
 41
0.3555709071638008
  0
VERTEX
  5
15DE
330
15DD
100
AcDbEntity
  8
LOGO
 62
     5
100
AcDbVertex
100
AcDb2dVertex
 10
2601.163708635273
 20
1430.985702134438
 30
0.0
 42
1.0
  0
VERTEX
  5
15DF
330
15DD
100
AcDbEntity
  8
LOGO
 62
     5
100
AcDbVertex
100
AcDb2dVertex
 10
2600.096995913782
 20
1430.985702134438
 30
0.0
 42
1.0
  0
SEQEND
  5
15E0
330
15DD
100
AcDbEntity
  8
LOGO
 62
     5
  0
SOLID
  5
15E1
330
1F
100
AcDbEntity
  8
LOGO
 62
     5
100
AcDbTrace
 10
2599.920348287103
 20
1431.695706121862
 30
0.0
 11
2600.275350280815
 21
1431.695706121862
 31
0.0
 12
2599.920348287103
 22
1429.920696153301
 32
0.0
 13
2600.275350280815
 23
1429.920696153301
 33
0.0
  0
SOLID
  5
15E2
330
1F
100
AcDbEntity
  8
LOGO
 62
     5
100
AcDbTrace
 10
2600.985354268241
 20
1430.985702134438
 30
0.0
 11
2601.340356261954
 21
1430.985702134438
 31
0.0
 12
2600.985354268241
 22
1429.920696153301
 32
0.0
 13
2601.340356261954
 23
1429.920696153301
 33
0.0
  0
POLYLINE
  5
15E3
330
1F
100
AcDbEntity
  8
LOGO
 62
     5
100
AcDb2dPolyline
 66
     1
 10
0.0
 20
0.0
 30
0.0
 70
     1
 40
0.3555709071638008
 41
0.3555709071638008
  0
VERTEX
  5
15E4
330
15E3
100
AcDbEntity
  8
LOGO
 62
     5
100
AcDbVertex
100
AcDb2dVertex
 10
2601.930935758169
 20
1430.808201137581
 30
0.0
 42
1.0
  0
VERTEX
  5
15E5
330
15E3
100
AcDbEntity
  8
LOGO
 62
     5
100
AcDbVertex
100
AcDb2dVertex
 10
2603.353219386825
 20
1430.808201137581
 30
0.0
 42
1.0
  0
SEQEND
  5
15E6
330
15E3
100
AcDbEntity
  8
LOGO
 62
     5
  0
SOLID
  5
15E7
330
1F
100
AcDbEntity
  8
LOGO
 62
     5
100
AcDbTrace
 10
2603.174545062867
 20
1432.228209112431
 30
0.0
 11
2603.529547056579
 21
1432.228209112431
 31
0.0
 12
2603.174545062867
 22
1429.920696153301
 32
0.0
 13
2603.529547056579
 23
1429.920696153301
 33
0.0
  0
SOLID
  5
15E8
330
1F
100
AcDbEntity
  8
LOGO
 62
     5
100
AcDbTrace
 10
2603.943727882644
 20
1431.695706121862
 30
0.0
 11
2604.298729876356
 21
1431.695706121862
 31
0.0
 12
2603.943727882644
 22
1429.920696153301
 32
0.0
 13
2604.298729876356
 23
1429.920696153301
 33
0.0
  0
SOLID
  5
15E9
330
1F
100
AcDbEntity
  8
LOGO
 62
     5
100
AcDbTrace
 10
2605.00873386378
 20
1430.985702134438
 30
0.0
 11
2605.363735857493
 21
1430.985702134438
 31
0.0
 12
2605.00873386378
 22
1429.920696153301
 32
0.0
 13
2605.363735857493
 23
1429.920696153301
 33
0.0
  0
SOLID
  5
15EA
330
1F
100
AcDbEntity
  8
LOGO
 62
     5
100
AcDbTrace
 10
2606.073739844916
 20
1430.985702134438
 30
0.0
 11
2606.428741838629
 21
1430.985702134438
 31
0.0
 12
2606.073739844916
 22
1429.9206961533
 32
0.0
 13
2606.428741838629
 23
1429.9206961533
 33
0.0
  0
SOLID
  5
15EB
330
1F
100
AcDbEntity
  8
LOGO
 62
     5
100
AcDbTrace
 10
2599.151165467327
 20
1431.944207517461
 30
0.0
 11
2599.50616746104
 21
1431.944207517461
 31
0.0
 12
2599.151165467327
 22
1432.228209112431
 32
0.0
 13
2599.50616746104
 23
1432.228209112431
 33
0.0
  0
SOLID
  5
15EC
330
1F
100
AcDbEntity
  8
LOGO
 62
     5
100
AcDbTrace
 10
2599.151165467327
 20
1431.695706121862
 30
0.0
 11
2599.50616746104
 21
1431.695706121862
 31
0.0
 12
2599.151165467327
 22
1429.9206961533
 32
0.0
 13
2599.50616746104
 23
1429.920696153301
 33
0.0
  0
SOLID
  5
15ED
330
1F
100
AcDbEntity
  8
LOGO
 62
     5
100
AcDbTrace
 10
2602.642077572497
 20
1433.470716090424
 30
0.0
 11
2603.671583354263
 21
1433.470716090424
 31
0.0
 12
2602.642077572497
 22
1438.677411998204
 32
0.0
 13
2603.671583354263
 23
1442.452266531346
 33
0.0
  0
SOLID
  5
15EE
330
1F
100
AcDbEntity
  8
LOGO
 62
     5
100
AcDbTrace
 10
2604.097585746719
 20
1443.233270917513
 30
0.0
 11
2605.127091528484
 21
1443.233270917513
 31
0.0
 12
2604.097585746719
 22
1434.251720476591
 32
0.0
 13
2605.127091528484
 23
1438.026575009732
 33
0.0
  0
SOLID
  5
15EF
330
1F
100
AcDbEntity
  8
LOGO
 62
     2
100
AcDbTrace
 10
2603.671583354263
 20
1443.233270917513
 30
0.0
 11
2604.097585746719
 21
1443.233270917513
 31
0.0
 12
2603.671583354263
 22
1433.470716090424
 32
0.0
 13
2604.097585746719
 23
1433.470716090424
 33
0.0
  0
SOLID
  5
15F0
330
1F
100
AcDbEntity
  8
LOGO
 62
     5
100
AcDbTrace
 10
2604.097585746719
 20
1434.251720476591
 30
0.0
 11
2605.127091528484
 21
1438.026575009732
 31
0.0
 12
2608.996613259948
 22
1443.233270917513
 32
0.0
 13
2607.967107478183
 23
1443.233270917513
 33
0.0
  0
SOLID
  5
15F1
330
1F
100
AcDbEntity
  8
LOGO
 62
     5
100
AcDbTrace
 10
2604.097585746719
 20
1433.470716090424
 30
0.0
 11
2605.127091528484
 21
1433.470716090424
 31
0.0
 12
2608.996613259948
 22
1442.452266531346
 32
0.0
 13
2607.967107478183
 23
1438.677411998204
 33
0.0
  0
SOLID
  5
15F2
330
1F
100
AcDbEntity
  8
LOGO
 62
     2
100
AcDbTrace
 10
2603.671583354263
 20
1433.470716090424
 30
0.0
 11
2604.097585746719
 21
1433.470716090424
 31
0.0
 12
2608.996613259948
 22
1443.233270917513
 32
0.0
 13
2609.422615652403
 23
1443.233270917513
 33
0.0
  0
LINE
  5
15F3
330
1F
100
AcDbEntity
  8
LOGO
 62
     4
100
AcDbLine
 10
2695.853937178145
 20
1430.703078357982
 30
0.0
 11
2695.853937178145
 21
1421.972542691013
 31
0.0
  0
LINE
  5
15F4
330
1F
100
AcDbEntity
  8
LOGO
 62
     4
100
AcDbLine
 10
2679.980235965475
 20
1430.703078357982
 30
0.0
 11
2679.980235965475
 21
1421.972542691013
 31
0.0
  0
LINE
  5
15F5
330
1F
100
AcDbEntity
  8
LOGO
 62
     4
100
AcDbLine
 10
2695.853937178145
 20
1421.972542691013
 30
0.0
 11
2679.980235965475
 21
1421.972542691013
 31
0.0
  0
LINE
  5
15F6
330
1F
100
AcDbEntity
  8
LOGO
 62
     4
100
AcDbLine
 10
2698.231766283907
 20
1441.417826676534
 30
0.0
 11
2679.980235965475
 21
1441.417826676534
 31
0.0
  0
LINE
  5
15F7
330
1F
100
AcDbEntity
  8
LOGO
 62
     4
100
AcDbLine
 10
2698.231766283907
 20
1434.274661130833
 30
0.0
 11
2679.980235965475
 21
1434.274661130833
 31
0.0
  0
LINE
  5
15F8
330
1F
100
AcDbEntity
  8
LOGO
 62
     4
100
AcDbLine
 10
2679.980235965475
 20
1441.417826676534
 30
0.0
 11
2679.980235965475
 21
1434.274661130833
 31
0.0
  0
LINE
  5
15F9
330
1F
100
AcDbEntity
  8
LOGO
 62
     4
100
AcDbLine
 10
2698.231766283907
 20
1441.417826676534
 30
0.0
 11
2698.231766283907
 21
1434.274661130833
 31
0.0
  0
LINE
  5
15FA
330
1F
100
AcDbEntity
  8
LOGO
 62
     4
100
AcDbLine
 10
2688.745295076977
 20
1434.274661130833
 30
0.0
 11
2688.745295076977
 21
1430.703078357982
 31
0.0
  0
TEXT
  5
15FB
330
1F
100
AcDbEntity
  8
LOGO
  6
Continuous
 62
     7
100
AcDbText
 10
2681.249464610943
 20
1435.76578649519
 30
0.0
 40
4.167449999999999
  1
MCGJ
  7
CHINESET
100
AcDbText
  0
LINE
  5
15FC
330
1F
100
AcDbEntity
  8
LOGO
 62
     4
100
AcDbLine
 10
2695.853937178145
 20
1430.703078357982
 30
0.0
 11
2679.980235965475
 21
1430.703078357982
 31
0.0
  0
TEXT
  5
15FD
330
1F
100
AcDbEntity
  8
LOGO
  6
Continuous
100
AcDbText
 10
2685.074056429247
 20
1423.204839286875
 30
156.0504340624913
 40
1.786049999999999
  1
Model
 41
0.8
  7
CHINESET
100
AcDbText
  0
TEXT
  5
15FE
330
1F
100
AcDbEntity
  8
LOGO
100
AcDbText
 10
2684.598667980162
 20
1426.515791065627
 30
156.0504340624913
 40
2.97675
  1
型號
  7
CHINESET
100
AcDbText
  0
LINE
  5
15FF
330
1F
100
AcDbEntity
  8
LOGO
  6
Continuous
 62
     7
100
AcDbLine
 10
2698.991143818866
 20
1437.820941682433
 30
0.0
 11
2702.145305081318
 21
1437.820941682433
 31
0.0
  0
LINE
  5
1600
330
1F
100
AcDbEntity
  8
LOGO
 62
     4
100
AcDbLine
 10
2715.111057795604
 20
1430.703078357982
 30
0.0
 11
2715.111057795604
 21
1421.972542691013
 31
0.0
  0
LINE
  5
1601
330
1F
100
AcDbEntity
  8
LOGO
 62
     4
100
AcDbLine
 10
2698.670849337859
 20
1430.703078357982
 30
0.0
 11
2698.670849337859
 21
1421.972542691013
 31
0.0
  0
LINE
  5
1602
330
1F
100
AcDbEntity
  8
LOGO
 62
     4
100
AcDbLine
 10
2715.111057795604
 20
1421.972542691013
 30
0.0
 11
2698.670849337859
 21
1421.972542691013
 31
0.0
  0
LINE
  5
1603
330
1F
100
AcDbEntity
  8
LOGO
 62
     4
100
AcDbLine
 10
2712.338974632327
 20
1441.417826676534
 30
0.0
 11
2703.14027669386
 21
1441.417826676534
 31
0.0
  0
LINE
  5
1604
330
1F
100
AcDbEntity
  8
LOGO
 62
     4
100
AcDbLine
 10
2712.338974632327
 20
1434.274661130833
 30
0.0
 11
2703.14027669386
 21
1434.274661130833
 31
0.0
  0
LINE
  5
1605
330
1F
100
AcDbEntity
  8
LOGO
 62
     4
100
AcDbLine
 10
2703.14027669386
 20
1441.417826676534
 30
0.0
 11
2703.14027669386
 21
1434.274661130833
 31
0.0
  0
LINE
  5
1606
330
1F
100
AcDbEntity
  8
LOGO
 62
     4
100
AcDbLine
 10
2712.338974632327
 20
1441.417826676534
 30
0.0
 11
2712.338974632327
 21
1434.274661130833
 31
0.0
  0
LINE
  5
1607
330
1F
100
AcDbEntity
  8
LOGO
 62
     4
100
AcDbLine
 10
2707.739625663093
 20
1434.274661130833
 30
0.0
 11
2707.739625663093
 21
1430.703078357982
 31
0.0
  0
TEXT
  5
1608
330
1F
100
AcDbEntity
  8
LOGO
  6
Continuous
 62
     7
100
AcDbText
 10
2704.301446975796
 20
1435.76578649519
 30
0.0
 40
4.167449999999999
  1
12
  7
CHINESET
100
AcDbText
  0
LINE
  5
1609
330
1F
100
AcDbEntity
  8
LOGO
 62
     4
100
AcDbLine
 10
2715.111057795604
 20
1430.703078357982
 30
0.0
 11
2698.670849337859
 21
1430.703078357982
 31
0.0
  0
LINE
  5
160A
330
1F
100
AcDbEntity
  8
LOGO
  6
Continuous
 62
     7
100
AcDbLine
 10
2713.351049732164
 20
1437.820941682433
 30
0.0
 11
2716.505210994617
 21
1437.820941682433
 31
0.0
  0
LINE
  5
160B
330
1F
100
AcDbEntity
  8
LOGO
 62
     4
100
AcDbLine
 10
2733.086599843232
 20
1430.703078357982
 30
0.0
 11
2733.086599843232
 21
1421.972542691013
 31
0.0
  0
LINE
  5
160C
330
1F
100
AcDbEntity
  8
LOGO
 62
     4
100
AcDbLine
 10
2717.212898630563
 20
1430.703078357982
 30
0.0
 11
2717.212898630563
 21
1421.972542691013
 31
0.0
  0
LINE
  5
160D
330
1F
100
AcDbEntity
  8
LOGO
 62
     4
100
AcDbLine
 10
2733.086599843232
 20
1421.972542691013
 30
0.0
 11
2717.212898630563
 21
1421.972542691013
 31
0.0
  0
LINE
  5
160E
330
1F
100
AcDbEntity
  8
LOGO
 62
     4
100
AcDbLine
 10
2729.706041857469
 20
1441.417826676534
 30
0.0
 11
2717.500182607159
 21
1441.417826676534
 31
0.0
  0
LINE
  5
160F
330
1F
100
AcDbEntity
  8
LOGO
 62
     4
100
AcDbLine
 10
2729.706041857469
 20
1434.274661130833
 30
0.0
 11
2717.500182607159
 21
1434.274661130833
 31
0.0
  0
LINE
  5
1610
330
1F
100
AcDbEntity
  8
LOGO
 62
     4
100
AcDbLine
 10
2717.500182607159
 20
1441.417826676534
 30
0.0
 11
2717.500182607159
 21
1434.274661130833
 31
0.0
  0
LINE
  5
1611
330
1F
100
AcDbEntity
  8
LOGO
 62
     4
100
AcDbLine
 10
2729.706041857469
 20
1441.417826676534
 30
0.0
 11
2729.706041857469
 21
1434.274661130833
 31
0.0
  0
LINE
  5
1612
330
1F
100
AcDbEntity
  8
LOGO
 62
     4
100
AcDbLine
 10
2723.603112232314
 20
1434.274661130833
 30
0.0
 11
2723.603112232314
 21
1430.703078357982
 31
0.0
  0
TEXT
  5
1613
330
1F
100
AcDbEntity
  8
LOGO
  6
Continuous
 62
     7
100
AcDbText
 10
2720.102905198081
 20
1435.76578649519
 30
0.0
 40
4.167449999999999
  1
32
  7
CHINESET
100
AcDbText
  0
LINE
  5
1614
330
1F
100
AcDbEntity
  8
LOGO
 62
     4
100
AcDbLine
 10
2733.086599843232
 20
1430.703078357982
 30
0.0
 11
2717.212898630563
 21
1430.703078357982
 31
0.0
  0
LINE
  5
1615
330
1F
100
AcDbEntity
  8
LOGO
  6
Continuous
 62
     7
100
AcDbLine
 10
2730.722114553554
 20
1437.820941682433
 30
0.0
 11
2733.876275816007
 21
1437.820941682433
 31
0.0
  0
LINE
  5
1616
330
1F
100
AcDbEntity
  8
LOGO
 62
     4
100
AcDbLine
 10
2747.515623692846
 20
1430.703078357982
 30
0.0
 11
2747.515623692846
 21
1421.972542691013
 31
0.0
  0
LINE
  5
1617
330
1F
100
AcDbEntity
  8
LOGO
 62
     4
100
AcDbLine
 10
2734.583963451951
 20
1430.703078357982
 30
0.0
 11
2734.583963451951
 21
1421.972542691013
 31
0.0
  0
LINE
  5
1618
330
1F
100
AcDbEntity
  8
LOGO
 62
     4
100
AcDbLine
 10
2747.515623692846
 20
1421.972542691013
 30
0.0
 11
2734.583963451951
 21
1421.972542691013
 31
0.0
  0
LINE
  5
1619
330
1F
100
AcDbEntity
  8
LOGO
 62
     4
100
AcDbLine
 10
2742.471377204881
 20
1441.417826676534
 30
0.0
 11
2734.871247428547
 21
1441.417826676534
 31
0.0
  0
LINE
  5
161A
330
1F
100
AcDbEntity
  8
LOGO
 62
     4
100
AcDbLine
 10
2742.471377204881
 20
1434.274661130833
 30
0.0
 11
2734.871247428547
 21
1434.274661130833
 31
0.0
  0
LINE
  5
161B
330
1F
100
AcDbEntity
  8
LOGO
 62
     4
100
AcDbLine
 10
2734.871247428547
 20
1441.417826676534
 30
0.0
 11
2734.871247428547
 21
1434.274661130833
 31
0.0
  0
LINE
  5
161C
330
1F
100
AcDbEntity
  8
LOGO
 62
     4
100
AcDbLine
 10
2742.471377204881
 20
1441.417826676534
 30
0.0
 11
2742.471377204881
 21
1434.274661130833
 31
0.0
  0
LINE
  5
161D
330
1F
100
AcDbEntity
  8
LOGO
 62
     4
100
AcDbLine
 10
2738.671312316715
 20
1434.274661130833
 30
0.0
 11
2738.671312316715
 21
1430.703078357982
 31
0.0
  0
TEXT
  5
161E
330
1F
100
AcDbEntity
  8
LOGO
  6
Continuous
 62
     7
100
AcDbText
 10
2737.432853903952
 20
1435.76578649519
 30
0.0
 40
4.167449999999999
  1
0
  7
CHINESET
100
AcDbText
  0
LINE
  5
161F
330
1F
100
AcDbEntity
  8
LOGO
 62
     4
100
AcDbLine
 10
2747.515623692846
 20
1430.703078357982
 30
0.0
 11
2734.583963451951
 21
1430.703078357982
 31
0.0
  0
TEXT
  5
1620
330
1F
100
AcDbEntity
  8
LOGO
  6
Continuous
100
AcDbText
 10
2700.11998482723
 20
1423.204839286875
 30
156.0504340624913
 40
1.786049999999999
  1
Bearing type
 41
0.8
  7
CHINESET
100
AcDbText
  0
TEXT
  5
1621
330
1F
100
AcDbEntity
  8
LOGO
100
AcDbText
 10
2700.103159617635
 20
1426.515791065627
 30
156.0504340624913
 40
2.97675
  1
軸承型式
  7
CHINESET
100
AcDbText
  0
TEXT
  5
1622
330
1F
100
AcDbEntity
  8
LOGO
  6
Continuous
100
AcDbText
 10
2720.537790259195
 20
1423.204839286875
 30
156.0504340624913
 40
1.786049999999999
  1
Tube I.D.
 41
0.8
  7
CHINESET
100
AcDbText
  0
TEXT
  5
1623
330
1F
100
AcDbEntity
  8
LOGO
100
AcDbText
 10
2721.257944862069
 20
1426.515791065627
 30
156.0504340624913
 40
2.97675
  1
內徑
  7
CHINESET
100
AcDbText
  0
TEXT
  5
1624
330
1F
100
AcDbEntity
  8
LOGO
  6
Continuous
100
AcDbText
 10
2737.992112636916
 20
1423.204839286875
 30
156.0504340624913
 40
1.786049999999999
  1
Stroke
 41
0.8
  7
CHINESET
100
AcDbText
  0
TEXT
  5
1625
330
1F
100
AcDbEntity
  8
LOGO
100
AcDbText
 10
2737.868273801155
 20
1426.515791065627
 30
156.0504340624913
 40
2.97675
  1
行程
  7
CHINESET
100
AcDbText
  0
TEXT
  5
1626
330
1F
100
AcDbEntity
  8
LOGO
100
AcDbText
 10
2648.690314632858
 20
1421.255041998327
 30
0.0
 40
2.3814
  1
10603141
 41
0.7
  7
CHINESET
 72
     1
 11
2654.127844632858
 21
1421.255041998327
 31
0.0
100
AcDbText
  0
LINE
  5
1627
330
1F
100
AcDbEntity
  8
LOGO
 62
     4
100
AcDbLine
 10
2661.51827870437
 20
1424.750440403231
 30
0.0
 11
2661.518278704371
 21
1419.98833003943
 31
0.0
  0
LINE
  5
1628
330
1F
100
AcDbEntity
  8
LOGO
 62
     4
100
AcDbLine
 10
2661.51827870437
 20
1424.750440403231
 30
0.0
 11
2647.229878704371
 21
1424.750440403231
 31
0.0
  0
LINE
  5
1629
330
1F
100
AcDbEntity
  8
LOGO
  6
AM_ISO08W050x2
 48
0.3
100
AcDbLine
 10
2633.85920660081
 20
1436.660809407191
 30
0.0
 11
2637.670791356518
 21
1436.660809407191
 31
0.0
1001
GENIUS_GENOREF_13
1005
162E
  0
LINE
  5
162A
330
1F
100
AcDbEntity
  8
LOGO
  6
AM_ISO08W050x2
 48
0.3
100
AcDbLine
 10
2635.764998978664
 20
1434.755017029338
 30
0.0
 11
2635.764998978664
 21
1438.566601785044
 31
0.0
1001
GENIUS_GENOREF_13
1005
162D
  0
LINE
  5
162B
330
1F
100
AcDbEntity
  8
LOGO
  6
CENTER
 48
0.5
100
AcDbLine
 10
2639.772117453649
 20
1436.660809407191
 30
0.0
 11
2644.889193125958
 21
1436.660809407191
 31
0.0
1001
GENIUS_GENOREF_13
1005
162C
  0
POINT
  5
162C
330
1F
100
AcDbEntity
  8
0
 60
     1
100
AcDbPoint
 10
717.7893463853256
 20
372.8627295737218
 30
0.0
1001
GENIUS_GENOBJ-N-CRS_13
1002
{
1000
OWNER
1000
GEN
1002
}
1001
GENIUS_GENOLIS_13
1002
{
1000
ENT
1005
0
1005
0
1005
0
1005
162B
1002
}
1001
GENIUS_GENOENT_13
1002
{
1000
MYREF
1005
162C
1002
}
1002
{
1000
GRP
1005
0
1002
}
1001
GENIUS_GENODEF_13
1002
{
1000
HIER
1070
    10
1002
}
1002
{
1000
MANEDIT
1070
     1
1002
}
1002
{
1000
NOSEL
1070
     0
1002
}
1002
{
1000
BEHIND
1070
     0
1002
}
1002
{
1000
OTHER
1070
     0
1002
}
1002
{
1000
REACTOR
1002
}
  0
POINT
  5
162D
330
1F
100
AcDbEntity
  8
0
 60
     1
100
AcDbPoint
 10
706.4647611624709
 20
381.7383160523581
 30
0.0
1001
GENIUS_GENOBJ-N-CRS_13
1002
{
1000
OWNER
1000
GEN
1002
}
1001
GENIUS_GENOLIS_13
1002
{
1000
ENT
1005
0
1005
0
1005
0
1005
162A
1002
}
1001
GENIUS_GENOENT_13
1002
{
1000
MYREF
1005
162D
1002
}
1002
{
1000
GRP
1005
0
1002
}
1001
GENIUS_GENODEF_13
1002
{
1000
HIER
1070
    10
1002
}
1002
{
1000
MANEDIT
1070
     1
1002
}
1002
{
1000
NOSEL
1070
     0
1002
}
1002
{
1000
BEHIND
1070
     0
1002
}
1002
{
1000
OTHER
1070
     0
1002
}
1002
{
1000
REACTOR
1002
}
  0
POINT
  5
162E
330
1F
100
AcDbEntity
  8
0
 60
     1
100
AcDbPoint
 10
712.8234348603077
 20
372.8627295737218
 30
0.0
1001
GENIUS_GENOBJ-N-CRS_13
1002
{
1000
OWNER
1000
GEN
1002
}
1001
GENIUS_GENOLIS_13
1002
{
1000
ENT
1005
0
1005
0
1005
0
1005
1629
1002
}
1001
GENIUS_GENOENT_13
1002
{
1000
MYREF
1005
162E
1002
}
1002
{
1000
GRP
1005
0
1002
}
1001
GENIUS_GENODEF_13
1002
{
1000
HIER
1070
    10
1002
}
1002
{
1000
MANEDIT
1070
     1
1002
}
1002
{
1000
NOSEL
1070
     0
1002
}
1002
{
1000
BEHIND
1070
     0
1002
}
1002
{
1000
OTHER
1070
     0
1002
}
1002
{
1000
REACTOR
1002
}
  0
DIMENSION
  5
1F2F
330
1F
100
AcDbEntity
  8
AM_5
100
AcDbDimension
  2
*D15
 10
2720.818993779529
 20
1598.564494165018
 30
0.0
 11
2718.318993779528
 21
1603.564494165018
 31
0.0
 70
    32
 71
     5
 42
10.0
  3
AM_ISO$0
100
AcDbAlignedDimension
 13
2709.81899377953
 23
1608.564494165018
 33
0.0
 14
2709.81899377953
 24
1598.564494165018
 34
0.0
 50
90.0
100
AcDbRotatedDimension
1001
ACAD
1000
DSTYLE
1002
{
1070
    40
1040
1.0
1070
   173
1070
     1
1070
   174
1070
     1
1070
   272
1070
     8
1070
   344
1005
1DB0
1002
}
  0
DIMENSION
  5
1FA8
330
1F
100
AcDbEntity
  8
AM_5
100
AcDbDimension
  2
*D16
 10
2720.818993779529
 20
1598.564494165018
 30
0.0
 11
2718.318993779528
 21
1595.314494165019
 31
0.0
 70
    32
 71
     5
 42
6.5
  3
AM_ISO$0
100
AcDbAlignedDimension
 13
2708.818993779529
 23
1592.064494165018
 33
0.0
 14
2709.81899377953
 24
1598.564494165018
 34
0.0
 50
90.0
100
AcDbRotatedDimension
1001
ACAD
1000
DSTYLE
1002
{
1070
    40
1040
1.0
1070
   173
1070
     1
1070
   174
1070
     1
1070
   272
1070
     8
1070
   344
1005
1DB0
1002
}
  0
LINE
  5
214D
330
1F
100
AcDbEntity
  8
AM_VIS
100
AcDbLine
 10
2755.694593954967
 20
1592.064494165018
 30
0.0
 11
2755.694593954967
 21
1598.564494165018
 31
0.0
  0
LINE
  5
214E
330
1F
100
AcDbEntity
  8
AM_VIS
100
AcDbLine
 10
2749.694593954968
 20
1592.064494165018
 30
0.0
 11
2749.694593954968
 21
1598.564494165018
 31
0.0
  0
LINE
  5
214F
330
1F
100
AcDbEntity
  8
AM_VIS
100
AcDbLine
 10
2789.694593954968
 20
1592.064494165018
 30
0.0
 11
2789.694593954968
 21
1598.564494165018
 31
0.0
  0
LINE
  5
2150
330
1F
100
AcDbEntity
  8
AM_VIS
100
AcDbLine
 10
2783.694593954967
 20
1592.064494165018
 30
0.0
 11
2783.694593954967
 21
1598.564494165018
 31
0.0
  0
SPLINE
  5
2151
330
1F
100
AcDbEntity
  8
AM_VIS
100
AcDbSpline
210
0.0
220
0.0
230
1.0
 70
    12
 71
     2
 72
     6
 73
     3
 74
     0
 42
0.0000000001
 43
0.0000000001
 40
0.0
 40
0.0
 40
0.0
 40
1.973912376436887
 40
1.973912376436887
 40
1.973912376436887
 10
2765.821610608761
 20
1597.332443357449
 30
0.0
 41
1.0
 10
2766.785475223726
 20
1598.140668407513
 30
0.0
 41
1.016076933846263
 10
2767.663637230253
 20
1598.564494165018
 30
0.0
 41
1.017425660651305
  0
LINE
  5
2152
330
1F
100
AcDbEntity
  8
AM_VIS
100
AcDbLine
 10
2765.821610608761
 20
1594.064494165018
 30
0.0
 11
2773.567577301175
 21
1594.064494165018
 31
0.0
  0
SPLINE
  5
2153
330
1F
100
AcDbEntity
  8
AM_VIS
100
AcDbSpline
210
0.0
220
0.0
230
1.0
 70
    12
 71
     2
 72
     6
 73
     3
 74
     0
 42
0.0000000001
 43
0.0000000001
 40
6.644776539458257
 40
6.644776539458257
 40
6.644776539458257
 40
8.618688915895145
 40
8.618688915895145
 40
8.618688915895145
 10
2771.725550679682
 20
1598.564494165018
 30
0.0
 41
1.017425660651305
 10
2772.603712686209
 20
1598.140668407513
 30
0.0
 41
1.016076933846263
 10
2773.567577301175
 20
1597.332443357449
 30
0.0
 41
1.0
  0
LINE
  5
2154
330
1F
100
AcDbEntity
  8
AM_VIS
100
AcDbLine
 10
2765.821610608761
 20
1594.064494165018
 30
0.0
 11
2765.821610608761
 21
1597.332443357449
 31
0.0
  0
ARC
  5
2155
330
1F
100
AcDbEntity
  8
AM_VIS
100
AcDbCircle
 10
2769.694593954968
 20
1601.064494165018
 30
0.0
 40
8.0
100
AcDbArc
 50
241.0449756281507
 51
298.9550243718493
  0
LINE
  5
2156
330
1F
100
AcDbEntity
  8
AM_VIS
100
AcDbLine
 10
2773.567577301175
 20
1597.332443357449
 30
0.0
 11
2773.567577301175
 21
1594.064494165018
 31
0.0
  0
LINE
  5
2157
330
1F
100
AcDbEntity
  8
AM_VIS
100
AcDbLine
 10
2762.405918820373
 20
1598.564494165018
 30
0.0
 11
2761.694593954967
 21
1597.332443357449
 31
0.0
  0
LINE
  5
2158
330
1F
100
AcDbEntity
  8
AM_VIS
100
AcDbLine
 10
2776.983269089563
 20
1598.564494165018
 30
0.0
 11
2777.694593954967
 21
1597.332443357449
 31
0.0
  0
LINE
  5
2159
330
1F
100
AcDbEntity
  8
AM_VIS
100
AcDbLine
 10
2777.694593954967
 20
1592.064494165018
 30
0.0
 11
2777.694593954967
 21
1597.332443357449
 31
0.0
  0
LINE
  5
215A
330
1F
100
AcDbEntity
  8
AM_VIS
100
AcDbLine
 10
2761.694593954967
 20
1592.064494165018
 30
0.0
 11
2761.694593954967
 21
1597.332443357449
 31
0.0
  0
LINE
  5
215B
330
1F
100
AcDbEntity
  8
AM_VIS
100
AcDbLine
 10
2765.821610608761
 20
1597.332443357449
 30
0.0
 11
2761.694593954967
 21
1597.332443357449
 31
0.0
  0
LINE
  5
215C
330
1F
100
AcDbEntity
  8
AM_VIS
100
AcDbLine
 10
2777.694593954967
 20
1597.332443357449
 30
0.0
 11
2773.567577301175
 21
1597.332443357449
 31
0.0
  0
LINE
  5
215D
330
1F
100
AcDbEntity
  8
AM_VIS
100
AcDbLine
 10
2745.694593954967
 20
1598.564494165018
 30
0.0
 11
2793.694593954967
 21
1598.564494165018
 31
0.0
  0
LINE
  5
215E
330
1F
100
AcDbEntity
  8
AM_VIS
100
AcDbLine
 10
2793.694593954967
 20
1598.564494165018
 30
0.0
 11
2797.694593954967
 21
1598.564494165018
 31
0.0
  0
LINE
  5
215F
330
1F
100
AcDbEntity
  8
AM_VIS
100
AcDbLine
 10
2793.694593954967
 20
1608.564494165018
 30
0.0
 11
2793.694593954967
 21
1598.564494165018
 31
0.0
  0
LINE
  5
2160
330
1F
100
AcDbEntity
  8
AM_VIS
100
AcDbLine
 10
2797.694593954967
 20
1598.564494165018
 30
0.0
 11
2797.694593954967
 21
1608.564494165018
 31
0.0
  0
LINE
  5
2161
330
1F
100
AcDbEntity
  8
AM_VIS
100
AcDbLine
 10
2797.694593954967
 20
1608.564494165018
 30
0.0
 11
2793.694593954967
 21
1608.564494165018
 31
0.0
  0
LINE
  5
2162
330
1F
100
AcDbEntity
  8
AM_VIS
100
AcDbLine
 10
2793.694593954967
 20
1608.564494165018
 30
0.0
 11
2745.694593954967
 21
1608.564494165018
 31
0.0
  0
LINE
  5
2163
330
1F
100
AcDbEntity
  8
AM_VIS
100
AcDbLine
 10
2745.694593954967
 20
1598.564494165018
 30
0.0
 11
2745.694593954967
 21
1608.564494165018
 31
0.0
  0
LINE
  5
2164
330
1F
100
AcDbEntity
  8
AM_VIS
100
AcDbLine
 10
2741.694593954968
 20
1598.564494165018
 30
0.0
 11
2745.694593954967
 21
1598.564494165018
 31
0.0
  0
LINE
  5
2165
330
1F
100
AcDbEntity
  8
AM_VIS
100
AcDbLine
 10
2741.694593954968
 20
1608.564494165018
 30
0.0
 11
2741.694593954968
 21
1598.564494165018
 31
0.0
  0
LINE
  5
2166
330
1F
100
AcDbEntity
  8
AM_VIS
100
AcDbLine
 10
2745.694593954967
 20
1608.564494165018
 30
0.0
 11
2741.694593954968
 21
1608.564494165018
 31
0.0
  0
LINE
  5
2167
330
1F
100
AcDbEntity
  8
AM_7
100
AcDbLine
 10
2686.318993781307
 20
1556.151096705396
 30
0.0
 11
2686.318993781307
 21
1600.245840817071
 31
0.0
  0
LINE
  5
216B
330
1F
100
AcDbEntity
  8
AM_7
100
AcDbLine
 10
2681.588993786307
 20
1581.564494165018
 30
0.0
 11
2686.318993786307
 21
1581.564494165018
 31
0.0
  0
LINE
  5
216C
330
1F
100
AcDbEntity
  8
AM_7
100
AcDbLine
 10
2686.318993786307
 20
1581.564494165018
 30
0.0
 11
2691.048993786306
 21
1581.564494165018
 31
0.0
  0
LINE
  5
216D
330
1F
100
AcDbEntity
  8
AM_7
100
AcDbLine
 10
2686.318993786307
 20
1576.834494165018
 30
0.0
 11
2686.318993786307
 21
1581.564494165018
 31
0.0
  0
LINE
  5
216E
330
1F
100
AcDbEntity
  8
AM_7
100
AcDbLine
 10
2686.318993786307
 20
1581.564494165018
 30
0.0
 11
2686.318993786307
 21
1586.294494165018
 31
0.0
  0
LINE
  5
216F
330
1F
100
AcDbEntity
  8
AM_7
100
AcDbLine
 10
2686.318993786307
 20
1567.064494165018
 30
0.0
 11
2686.318993786307
 21
1567.064494165018
 31
0.0
  0
LINE
  5
2170
330
1F
100
AcDbEntity
  8
AM_7
100
AcDbLine
 10
2686.318993786307
 20
1567.064494165018
 30
0.0
 11
2686.318993786307
 21
1567.064494165018
 31
0.0
  0
LINE
  5
2171
330
1F
100
AcDbEntity
  8
AM_7
100
AcDbLine
 10
2681.588993786307
 20
1567.064494165018
 30
0.0
 11
2686.318993786307
 21
1567.064494165018
 31
0.0
  0
LINE
  5
2172
330
1F
100
AcDbEntity
  8
AM_7
100
AcDbLine
 10
2686.318993786307
 20
1567.064494165018
 30
0.0
 11
2691.048993786306
 21
1567.064494165018
 31
0.0
  0
LINE
  5
2173
330
1F
100
AcDbEntity
  8
AM_7
100
AcDbLine
 10
2686.318993786307
 20
1562.334494165018
 30
0.0
 11
2686.318993786307
 21
1567.064494165018
 31
0.0
  0
LINE
  5
2174
330
1F
100
AcDbEntity
  8
AM_7
100
AcDbLine
 10
2686.318993786307
 20
1567.064494165018
 30
0.0
 11
2686.318993786307
 21
1571.794494165018
 31
0.0
  0
LINE
  5
2175
330
1F
100
AcDbEntity
  8
AM_7
100
AcDbLine
 10
2703.318993775974
 20
1589.830468522938
 30
0.0
 11
2703.318993775974
 21
1601.344494165018
 31
0.0
  0
LINE
  5
2176
330
1F
100
AcDbEntity
  8
AM_7
100
AcDbLine
 10
2669.318993783084
 20
1589.830468522938
 30
0.0
 11
2669.318993783084
 21
1601.344494165018
 31
0.0
  0
ARC
  5
2177
330
1F
100
AcDbEntity
  8
AM_4
100
AcDbCircle
 10
2686.318993786307
 20
1581.564494165018
 30
0.0
 40
4.849999999999999
100
AcDbArc
 50
259.9999999999961
 51
190.0000000000039
  0
ARC
  5
2178
330
1F
100
AcDbEntity
  8
AM_4
100
AcDbCircle
 10
2686.318993786307
 20
1567.064494165018
 30
0.0
 40
4.849999999999999
100
AcDbArc
 50
259.9999999999961
 51
190.0000000000039
  0
LINE
  5
2179
330
1F
100
AcDbEntity
  8
AM_7
100
AcDbLine
 10
2769.69459395319
 20
1556.151096705396
 30
0.0
 11
2769.69459395319
 21
1600.245840817071
 31
0.0
  0
LINE
  5
217A
330
1F
100
AcDbEntity
  8
AM_7
100
AcDbLine
 10
2752.694593954968
 20
1590.542199997778
 30
0.0
 11
2752.694593954968
 21
1601.344494165018
 31
0.0
  0
LINE
  5
217B
330
1F
100
AcDbEntity
  8
AM_7
100
AcDbLine
 10
2786.694593954968
 20
1590.542199997778
 30
0.0
 11
2786.694593954968
 21
1601.344494165018
 31
0.0
  0
LINE
  5
217C
330
1F
100
AcDbEntity
  8
AM_VIS
100
AcDbLine
 10
2693.818993786306
 20
1559.064494165018
 30
0.0
 11
2693.818993786306
 21
1592.064494165018
 31
0.0
  0
LINE
  5
217D
330
1F
100
AcDbEntity
  8
AM_VIS
100
AcDbLine
 10
2678.818993786306
 20
1559.064494165018
 30
0.0
 11
2679.318993786306
 21
1559.064494165018
 31
0.0
  0
LINE
  5
217E
330
1F
100
AcDbEntity
  8
AM_VIS
100
AcDbLine
 10
2693.318993786306
 20
1559.064494165018
 30
0.0
 11
2693.818993786306
 21
1559.064494165018
 31
0.0
  0
LINE
  5
217F
330
1F
100
AcDbEntity
  8
AM_VIS
100
AcDbLine
 10
2693.818993786306
 20
1559.064494165018
 30
0.0
 11
2694.418993779529
 21
1559.064494165018
 31
0.0
  0
LINE
  5
2180
330
1F
100
AcDbEntity
  8
AM_VIS
100
AcDbLine
 10
2708.818993779529
 20
1559.064494165018
 30
0.0
 11
2708.818993779529
 21
1592.064494165018
 31
0.0
  0
LINE
  5
2181
330
1F
100
AcDbEntity
  8
AM_VIS
100
AcDbLine
 10
2678.818993786306
 20
1559.064494165018
 30
0.0
 11
2678.818993786306
 21
1592.064494165018
 31
0.0
  0
LINE
  5
2182
330
1F
100
AcDbEntity
  8
AM_VIS
100
AcDbLine
 10
2678.218993775974
 20
1559.064494165018
 30
0.0
 11
2678.818993786306
 21
1559.064494165018
 31
0.0
  0
LINE
  5
2183
330
1F
100
AcDbEntity
  8
AM_VIS
100
AcDbLine
 10
2666.475858946306
 20
1559.064494165018
 30
0.0
 11
2674.418993775974
 21
1559.064494165018
 31
0.0
  0
LINE
  5
2184
330
1F
100
AcDbEntity
  8
AM_VIS
100
AcDbLine
 10
2666.475858946306
 20
1559.064494165018
 30
0.0
 11
2666.475858946306
 21
1592.064494165018
 31
0.0
  0
LINE
  5
2185
330
1F
100
AcDbEntity
  8
AM_VIS
100
AcDbLine
 10
2678.018993775974
 20
1559.064494165018
 30
0.0
 11
2678.018993775974
 21
1592.064494165018
 31
0.0
  0
LINE
  5
2186
330
1F
100
AcDbEntity
  8
AM_VIS
100
AcDbLine
 10
2676.768993775974
 20
1559.064494165018
 30
0.0
 11
2675.868993775974
 21
1559.064494165018
 31
0.0
  0
LINE
  5
2187
330
1F
100
AcDbEntity
  8
AM_VIS
100
AcDbLine
 10
2674.618993775974
 20
1559.064494165018
 30
0.0
 11
2674.618993775974
 21
1592.064494165018
 31
0.0
  0
LINE
  5
2188
330
1F
100
AcDbEntity
  8
AM_VIS
100
AcDbLine
 10
2706.162128616306
 20
1559.064494165018
 30
0.0
 11
2706.162128616306
 21
1592.064494165018
 31
0.0
  0
LINE
  5
2189
330
1F
100
AcDbEntity
  8
AM_VIS
100
AcDbLine
 10
2698.218993779529
 20
1559.064494165018
 30
0.0
 11
2706.162128616306
 21
1559.064494165018
 31
0.0
  0
LINE
  5
218A
330
1F
100
AcDbEntity
  8
AM_VIS
100
AcDbLine
 10
2663.818993783084
 20
1559.064494165018
 30
0.0
 11
2663.818993783084
 21
1592.064494165018
 31
0.0
  0
LINE
  5
218B
330
1F
100
AcDbEntity
  8
AM_VIS
100
AcDbLine
 10
2696.768993779529
 20
1559.064494165018
 30
0.0
 11
2695.868993779529
 21
1559.064494165018
 31
0.0
  0
LINE
  5
218C
330
1F
100
AcDbEntity
  8
AM_VIS
100
AcDbLine
 10
2694.618993779529
 20
1559.064494165018
 30
0.0
 11
2694.618993779529
 21
1592.064494165018
 31
0.0
  0
LINE
  5
218D
330
1F
100
AcDbEntity
  8
AM_VIS
100
AcDbLine
 10
2698.018993779529
 20
1559.064494165018
 30
0.0
 11
2698.018993779529
 21
1592.064494165018
 31
0.0
  0
LINE
  5
218E
330
1F
100
AcDbEntity
  8
AM_VIS
100
AcDbLine
 10
2693.318993786306
 20
1559.064494165018
 30
0.0
 11
2693.318993786306
 21
1592.064494165018
 31
0.0
  0
LINE
  5
218F
330
1F
100
AcDbEntity
  8
AM_VIS
100
AcDbLine
 10
2679.318993786306
 20
1559.064494165018
 30
0.0
 11
2693.318993786306
 21
1559.064494165018
 31
0.0
  0
LINE
  5
2190
330
1F
100
AcDbEntity
  8
AM_VIS
100
AcDbLine
 10
2679.318993786306
 20
1559.064494165018
 30
0.0
 11
2679.318993786306
 21
1592.064494165018
 31
0.0
  0
LINE
  5
2191
330
1F
100
AcDbEntity
  8
AM_VIS
100
AcDbLine
 10
2706.162128616306
 20
1592.064494165018
 30
0.0
 11
2698.218993779529
 21
1592.064494165018
 31
0.0
  0
LINE
  5
2192
330
1F
100
AcDbEntity
  8
AM_VIS
100
AcDbLine
 10
2695.868993779529
 20
1592.064494165018
 30
0.0
 11
2696.768993779529
 21
1592.064494165018
 31
0.0
  0
LINE
  5
2193
330
1F
100
AcDbEntity
  8
AM_VIS
100
AcDbLine
 10
2694.418993779529
 20
1592.064494165018
 30
0.0
 11
2693.818993786306
 21
1592.064494165018
 31
0.0
  0
LINE
  5
2194
330
1F
100
AcDbEntity
  8
AM_VIS
100
AcDbLine
 10
2693.818993786306
 20
1592.064494165018
 30
0.0
 11
2693.318993786306
 21
1592.064494165018
 31
0.0
  0
LINE
  5
2195
330
1F
100
AcDbEntity
  8
AM_VIS
100
AcDbLine
 10
2693.318993786306
 20
1592.064494165018
 30
0.0
 11
2679.318993786306
 21
1592.064494165018
 31
0.0
  0
LINE
  5
2196
330
1F
100
AcDbEntity
  8
AM_VIS
100
AcDbLine
 10
2679.318993786306
 20
1592.064494165018
 30
0.0
 11
2678.818993786306
 21
1592.064494165018
 31
0.0
  0
LINE
  5
2197
330
1F
100
AcDbEntity
  8
AM_VIS
100
AcDbLine
 10
2678.818993786306
 20
1592.064494165018
 30
0.0
 11
2678.218993775974
 21
1592.064494165018
 31
0.0
  0
LINE
  5
2198
330
1F
100
AcDbEntity
  8
AM_VIS
100
AcDbLine
 10
2675.868993775974
 20
1592.064494165018
 30
0.0
 11
2676.768993775974
 21
1592.064494165018
 31
0.0
  0
LINE
  5
2199
330
1F
100
AcDbEntity
  8
AM_VIS
100
AcDbLine
 10
2674.418993775974
 20
1592.064494165018
 30
0.0
 11
2666.475858946306
 21
1592.064494165018
 31
0.0
  0
LINE
  5
219A
330
1F
100
AcDbEntity
  8
AM_VIS
100
AcDbLine
 10
2666.475858946306
 20
1559.064494165018
 30
0.0
 11
2663.818993783084
 21
1559.064494165018
 31
0.0
  0
LINE
  5
219B
330
1F
100
AcDbEntity
  8
AM_VIS
100
AcDbLine
 10
2708.818993779529
 20
1559.064494165018
 30
0.0
 11
2706.162128616306
 21
1559.064494165018
 31
0.0
  0
LINE
  5
219C
330
1F
100
AcDbEntity
  8
AM_VIS
100
AcDbLine
 10
2678.018993775974
 20
1559.064494165018
 30
0.0
 11
2678.218993775974
 21
1559.064494165018
 31
0.0
  0
LINE
  5
219D
330
1F
100
AcDbEntity
  8
AM_VIS
100
AcDbLine
 10
2678.018993775974
 20
1559.064494165018
 30
0.0
 11
2676.768993775974
 21
1559.064494165018
 31
0.0
  0
LINE
  5
219E
330
1F
100
AcDbEntity
  8
AM_VIS
100
AcDbLine
 10
2675.868993775974
 20
1559.064494165018
 30
0.0
 11
2674.618993775974
 21
1559.064494165018
 31
0.0
  0
LINE
  5
219F
330
1F
100
AcDbEntity
  8
AM_VIS
100
AcDbLine
 10
2674.418993775974
 20
1559.064494165018
 30
0.0
 11
2674.618993775974
 21
1559.064494165018
 31
0.0
  0
LINE
  5
21A0
330
1F
100
AcDbEntity
  8
AM_VIS
100
AcDbLine
 10
2698.018993779529
 20
1559.064494165018
 30
0.0
 11
2696.768993779528
 21
1559.064494165018
 31
0.0
  0
LINE
  5
21A1
330
1F
100
AcDbEntity
  8
AM_VIS
100
AcDbLine
 10
2695.868993779529
 20
1559.064494165018
 30
0.0
 11
2694.618993779529
 21
1559.064494165018
 31
0.0
  0
LINE
  5
21A2
330
1F
100
AcDbEntity
  8
AM_VIS
100
AcDbLine
 10
2694.418993779529
 20
1559.064494165018
 30
0.0
 11
2694.618993779529
 21
1559.064494165018
 31
0.0
  0
LINE
  5
21A3
330
1F
100
AcDbEntity
  8
AM_VIS
100
AcDbLine
 10
2698.018993779529
 20
1559.064494165018
 30
0.0
 11
2698.218993779529
 21
1559.064494165018
 31
0.0
  0
CIRCLE
  5
21A6
330
1F
100
AcDbEntity
  8
AM_VIS
100
AcDbCircle
 10
2686.318993786307
 20
1581.564494165018
 30
0.0
 40
4.299999999999999
  0
CIRCLE
  5
21A9
330
1F
100
AcDbEntity
  8
AM_VIS
100
AcDbCircle
 10
2686.318993786307
 20
1567.064494165018
 30
0.0
 40
4.299999999999999
  0
LINE
  5
21AC
330
1F
100
AcDbEntity
  8
AM_VIS
100
AcDbLine
 10
2706.162128616306
 20
1592.064494165018
 30
0.0
 11
2708.818993779529
 21
1592.064494165018
 31
0.0
  0
LINE
  5
21AD
330
1F
100
AcDbEntity
  8
AM_VIS
100
AcDbLine
 10
2698.218993779529
 20
1592.064494165018
 30
0.0
 11
2698.018993779529
 21
1592.064494165018
 31
0.0
  0
LINE
  5
21AE
330
1F
100
AcDbEntity
  8
AM_VIS
100
AcDbLine
 10
2696.768993779528
 20
1592.064494165018
 30
0.0
 11
2698.018993779529
 21
1592.064494165018
 31
0.0
  0
LINE
  5
21AF
330
1F
100
AcDbEntity
  8
AM_VIS
100
AcDbLine
 10
2694.618993779529
 20
1592.064494165018
 30
0.0
 11
2695.868993779529
 21
1592.064494165018
 31
0.0
  0
LINE
  5
21B0
330
1F
100
AcDbEntity
  8
AM_VIS
100
AcDbLine
 10
2694.618993779529
 20
1592.064494165018
 30
0.0
 11
2694.418993779529
 21
1592.064494165018
 31
0.0
  0
LINE
  5
21B1
330
1F
100
AcDbEntity
  8
AM_VIS
100
AcDbLine
 10
2678.218993775974
 20
1592.064494165018
 30
0.0
 11
2678.018993775974
 21
1592.064494165018
 31
0.0
  0
LINE
  5
21B2
330
1F
100
AcDbEntity
  8
AM_VIS
100
AcDbLine
 10
2676.768993775974
 20
1592.064494165018
 30
0.0
 11
2678.018993775974
 21
1592.064494165018
 31
0.0
  0
LINE
  5
21B3
330
1F
100
AcDbEntity
  8
AM_VIS
100
AcDbLine
 10
2674.618993775974
 20
1592.064494165018
 30
0.0
 11
2675.868993775974
 21
1592.064494165018
 31
0.0
  0
LINE
  5
21B4
330
1F
100
AcDbEntity
  8
AM_VIS
100
AcDbLine
 10
2674.618993775974
 20
1592.064494165018
 30
0.0
 11
2674.418993775974
 21
1592.064494165018
 31
0.0
  0
LINE
  5
21B5
330
1F
100
AcDbEntity
  8
AM_VIS
100
AcDbLine
 10
2663.818993783084
 20
1592.064494165018
 30
0.0
 11
2666.475858946306
 21
1592.064494165018
 31
0.0
  0
LINE
  5
21B6
330
1F
100
AcDbEntity
  8
AM_VIS
100
AcDbLine
 10
2706.318993775973
 20
1592.064494165018
 30
0.0
 11
2706.318993775973
 21
1598.564494165018
 31
0.0
  0
LINE
  5
21B7
330
1F
100
AcDbEntity
  8
AM_VIS
100
AcDbLine
 10
2700.318993775974
 20
1592.064494165018
 30
0.0
 11
2700.318993775974
 21
1598.564494165018
 31
0.0
  0
LINE
  5
21B8
330
1F
100
AcDbEntity
  8
AM_VIS
100
AcDbLine
 10
2672.318993783084
 20
1592.064494165018
 30
0.0
 11
2672.318993783084
 21
1598.564494165018
 31
0.0
  0
LINE
  5
21B9
330
1F
100
AcDbEntity
  8
AM_VIS
100
AcDbLine
 10
2666.318993783084
 20
1592.064494165018
 30
0.0
 11
2666.318993783084
 21
1598.564494165018
 31
0.0
  0
LINE
  5
21BA
330
1F
100
AcDbEntity
  8
AM_VIS
100
AcDbLine
 10
2693.318993779529
 20
1598.564494165018
 30
0.0
 11
2693.318993779529
 21
1597.332443357449
 31
0.0
  0
LINE
  5
21BB
330
1F
100
AcDbEntity
  8
AM_VIS
100
AcDbLine
 10
2693.318993779529
 20
1594.064494165018
 30
0.0
 11
2693.318993779529
 21
1597.332443357449
 31
0.0
  0
LINE
  5
21BC
330
1F
100
AcDbEntity
  8
AM_VIS
100
AcDbLine
 10
2693.318993779529
 20
1594.064494165018
 30
0.0
 11
2694.318993779529
 21
1593.064494165018
 31
0.0
  0
LINE
  5
21BD
330
1F
100
AcDbEntity
  8
AM_VIS
100
AcDbLine
 10
2679.318993779529
 20
1598.564494165018
 30
0.0
 11
2679.318993779529
 21
1597.332443357449
 31
0.0
  0
LINE
  5
21BE
330
1F
100
AcDbEntity
  8
AM_VIS
100
AcDbLine
 10
2679.31899377953
 20
1597.332443357449
 30
0.0
 11
2679.31899377953
 21
1594.064494165018
 31
0.0
  0
LINE
  5
21BF
330
1F
100
AcDbEntity
  8
AM_VIS
100
AcDbLine
 10
2678.318993779529
 20
1593.064494165018
 30
0.0
 11
2679.318993779529
 21
1594.064494165018
 31
0.0
  0
LINE
  5
21C0
330
1F
100
AcDbEntity
  8
AM_VIS
100
AcDbLine
 10
2694.318993779529
 20
1592.064494165018
 30
0.0
 11
2694.318993779529
 21
1593.064494165018
 31
0.0
  0
LINE
  5
21C1
330
1F
100
AcDbEntity
  8
AM_VIS
100
AcDbLine
 10
2678.318993779529
 20
1592.064494165018
 30
0.0
 11
2678.318993779529
 21
1593.064494165018
 31
0.0
  0
LINE
  5
21C2
330
1F
100
AcDbEntity
  8
AM_VIS
100
AcDbLine
 10
2693.318993779529
 20
1597.332443357449
 30
0.0
 11
2679.318993779529
 21
1597.332443357449
 31
0.0
  0
LINE
  5
21C3
330
1F
100
AcDbEntity
  8
AM_VIS
100
AcDbLine
 10
2662.818993779529
 20
1598.564494165018
 30
0.0
 11
2666.818993779529
 21
1598.564494165018
 31
0.0
  0
LINE
  5
21C4
330
1F
100
AcDbEntity
  8
AM_VIS
100
AcDbLine
 10
2662.818993779529
 20
1608.564494165018
 30
0.0
 11
2662.818993779529
 21
1598.564494165018
 31
0.0
  0
LINE
  5
21C5
330
1F
100
AcDbEntity
  8
AM_VIS
100
AcDbLine
 10
2666.818993779529
 20
1608.564494165018
 30
0.0
 11
2662.818993779529
 21
1608.564494165018
 31
0.0
  0
LINE
  5
21C6
330
1F
100
AcDbEntity
  8
AM_VIS
100
AcDbLine
 10
2666.818993779529
 20
1598.564494165018
 30
0.0
 11
2705.818993779529
 21
1598.564494165018
 31
0.0
  0
LINE
  5
21C7
330
1F
100
AcDbEntity
  8
AM_VIS
100
AcDbLine
 10
2666.818993779529
 20
1598.564494165018
 30
0.0
 11
2666.818993779529
 21
1608.564494165018
 31
0.0
  0
LINE
  5
21C8
330
1F
100
AcDbEntity
  8
AM_VIS
100
AcDbLine
 10
2705.818993779529
 20
1608.564494165018
 30
0.0
 11
2666.818993779529
 21
1608.564494165018
 31
0.0
  0
LINE
  5
21C9
330
1F
100
AcDbEntity
  8
AM_VIS
100
AcDbLine
 10
2709.81899377953
 20
1598.564494165018
 30
0.0
 11
2709.81899377953
 21
1608.564494165018
 31
0.0
  0
LINE
  5
21CA
330
1F
100
AcDbEntity
  8
AM_VIS
100
AcDbLine
 10
2705.818993779529
 20
1598.564494165018
 30
0.0
 11
2709.81899377953
 21
1598.564494165018
 31
0.0
  0
LINE
  5
21CB
330
1F
100
AcDbEntity
  8
AM_VIS
100
AcDbLine
 10
2705.818993779529
 20
1608.564494165018
 30
0.0
 11
2705.818993779529
 21
1598.564494165018
 31
0.0
  0
LINE
  5
21CC
330
1F
100
AcDbEntity
  8
AM_VIS
100
AcDbLine
 10
2709.81899377953
 20
1608.564494165018
 30
0.0
 11
2705.818993779529
 21
1608.564494165018
 31
0.0
  0
LINE
  5
21DF
330
1F
100
AcDbEntity
  8
AM_VIS
100
AcDbLine
 10
2666.818993779529
 20
1644.297872391242
 30
0.0
 11
2662.818993779529
 21
1648.297872391242
 31
0.0
  0
LINE
  5
21E0
330
1F
100
AcDbEntity
  8
AM_VIS
100
AcDbLine
 10
2662.818993779529
 20
1648.297872391242
 30
0.0
 11
2662.818993779529
 21
1696.297872391242
 31
0.0
  0
LINE
  5
21E1
330
1F
100
AcDbEntity
  8
AM_VIS
100
AcDbLine
 10
2662.818993779529
 20
1696.297872391242
 30
0.0
 11
2666.818993779529
 21
1700.297872391242
 31
0.0
  0
LINE
  5
21E2
330
1F
100
AcDbEntity
  8
AM_VIS
100
AcDbLine
 10
2666.818993779529
 20
1700.297872391242
 30
0.0
 11
2705.818993779529
 21
1700.297872391242
 31
0.0
  0
LINE
  5
21E3
330
1F
100
AcDbEntity
  8
AM_VIS
100
AcDbLine
 10
2705.818993779529
 20
1700.297872391242
 30
0.0
 11
2709.81899377953
 21
1696.297872391242
 31
0.0
  0
LINE
  5
21E4
330
1F
100
AcDbEntity
  8
AM_VIS
100
AcDbLine
 10
2709.81899377953
 20
1696.297872391242
 30
0.0
 11
2709.81899377953
 21
1648.297872391242
 31
0.0
  0
LINE
  5
21E5
330
1F
100
AcDbEntity
  8
AM_VIS
100
AcDbLine
 10
2705.818993779529
 20
1644.297872391242
 30
0.0
 11
2666.818993779529
 21
1644.297872391242
 31
0.0
  0
LINE
  5
21E6
330
1F
100
AcDbEntity
  8
AM_VIS
100
AcDbLine
 10
2709.81899377953
 20
1648.297872391242
 30
0.0
 11
2705.818993779529
 21
1644.297872391242
 31
0.0
  0
LINE
  5
21EB
330
1F
100
AcDbEntity
  8
AM_VIS
100
AcDbLine
 10
2678.818993786306
 20
1530.457190070361
 30
0.0
 11
2679.318993786306
 21
1534.957190070361
 31
0.0
  0
LINE
  5
21EC
330
1F
100
AcDbEntity
  8
AM_VIS
100
AcDbLine
 10
2693.318993786306
 20
1534.957190070361
 30
0.0
 11
2693.818993786306
 21
1530.457190070361
 31
0.0
  0
LINE
  5
21ED
330
1F
100
AcDbEntity
  8
AM_VIS
100
AcDbLine
 10
2693.818993786306
 20
1530.457190070361
 30
0.0
 11
2694.418993779529
 21
1530.457190070361
 31
0.0
  0
LINE
  5
21EE
330
1F
100
AcDbEntity
  8
AM_VIS
100
AcDbLine
 10
2706.162128616306
 20
1485.457190073916
 30
0.0
 11
2698.218993783084
 21
1485.457190073916
 31
0.0
  0
LINE
  5
21EF
330
1F
100
AcDbEntity
  8
AM_VIS
100
AcDbLine
 10
2698.018993783084
 20
1486.957190073916
 30
0.0
 11
2698.018993783084
 21
1485.657190073916
 31
0.0
  0
LINE
  5
21F0
330
1F
100
AcDbEntity
  8
AM_VIS
100
AcDbLine
 10
2698.468993783084
 20
1487.457190073916
 30
0.0
 11
2698.018993783084
 21
1486.957190073916
 31
0.0
  0
LINE
  5
21F1
330
1F
100
AcDbEntity
  8
AM_VIS
100
AcDbLine
 10
2698.468993783084
 20
1489.557190073916
 30
0.0
 11
2698.468993783084
 21
1487.457190073916
 31
0.0
  0
LINE
  5
21F2
330
1F
100
AcDbEntity
  8
AM_VIS
100
AcDbLine
 10
2695.868993783084
 20
1491.257190073916
 30
0.0
 11
2696.768993783084
 21
1491.257190073916
 31
0.0
  0
LINE
  5
21F3
330
1F
100
AcDbEntity
  8
AM_VIS
100
AcDbLine
 10
2694.168993783084
 20
1487.457190073916
 30
0.0
 11
2694.168993783084
 21
1489.557190073916
 31
0.0
  0
LINE
  5
21F4
330
1F
100
AcDbEntity
  8
AM_VIS
100
AcDbLine
 10
2694.618993783084
 20
1486.957190073916
 30
0.0
 11
2694.168993783084
 21
1487.457190073916
 31
0.0
  0
LINE
  5
21F5
330
1F
100
AcDbEntity
  8
AM_VIS
100
AcDbLine
 10
2694.618993783084
 20
1485.657190073916
 30
0.0
 11
2694.618993783084
 21
1486.957190073916
 31
0.0
  0
LINE
  5
21F6
330
1F
100
AcDbEntity
  8
AM_VIS
100
AcDbLine
 10
2708.818993779529
 20
1516.057190073916
 30
0.0
 11
2708.818993779529
 21
1499.857190070361
 31
0.0
  0
LINE
  5
21F7
330
1F
100
AcDbEntity
  8
AM_VIS
100
AcDbLine
 10
2708.818993779529
 20
1527.800324907139
 30
0.0
 11
2708.818993779529
 21
1519.857190073916
 31
0.0
  0
LINE
  5
21F8
330
1F
100
AcDbEntity
  8
AM_VIS
100
AcDbLine
 10
2678.218993775974
 20
1530.457190070361
 30
0.0
 11
2678.818993786306
 21
1530.457190070361
 31
0.0
  0
LINE
  5
21F9
330
1F
100
AcDbEntity
  8
AM_VIS
100
AcDbLine
 10
2666.475858946306
 20
1530.457190070361
 30
0.0
 11
2674.418993775974
 21
1530.457190070361
 31
0.0
  0
LINE
  5
21FA
330
1F
100
AcDbEntity
  8
AM_VIS
100
AcDbLine
 10
2663.818993783084
 20
1499.857190066806
 30
0.0
 11
2663.818993783084
 21
1516.057190070361
 31
0.0
  0
LINE
  5
21FB
330
1F
100
AcDbEntity
  8
AM_VIS
100
AcDbLine
 10
2663.818993783084
 20
1488.114055237139
 30
0.0
 11
2663.818993783084
 21
1496.057190066806
 31
0.0
  0
LINE
  5
21FC
330
1F
100
AcDbEntity
  8
AM_VIS
100
AcDbLine
 10
2708.618993775974
 20
1516.257190073916
 30
0.0
 11
2707.318993775974
 21
1516.257190073916
 31
0.0
  0
LINE
  5
21FD
330
1F
100
AcDbEntity
  8
AM_VIS
100
AcDbLine
 10
2707.318993775974
 20
1516.257190073916
 30
0.0
 11
2706.818993775974
 21
1515.807190073916
 31
0.0
  0
LINE
  5
21FE
330
1F
100
AcDbEntity
  8
AM_VIS
100
AcDbLine
 10
2706.818993775974
 20
1515.807190073916
 30
0.0
 11
2704.718993775974
 21
1515.807190073916
 31
0.0
  0
LINE
  5
21FF
330
1F
100
AcDbEntity
  8
AM_VIS
100
AcDbLine
 10
2703.018993775974
 20
1517.507190073916
 30
0.0
 11
2703.018993775974
 21
1518.407190073916
 31
0.0
  0
LINE
  5
2200
330
1F
100
AcDbEntity
  8
AM_VIS
100
AcDbLine
 10
2704.718993775974
 20
1520.107190073916
 30
0.0
 11
2706.818993775974
 21
1520.107190073916
 31
0.0
  0
LINE
  5
2201
330
1F
100
AcDbEntity
  8
AM_VIS
100
AcDbLine
 10
2706.818993775974
 20
1520.107190073916
 30
0.0
 11
2707.318993775974
 21
1519.657190073916
 31
0.0
  0
LINE
  5
2202
330
1F
100
AcDbEntity
  8
AM_VIS
100
AcDbLine
 10
2707.318993775974
 20
1519.657190073916
 30
0.0
 11
2708.618993775974
 21
1519.657190073916
 31
0.0
  0
LINE
  5
2203
330
1F
100
AcDbEntity
  8
AM_VIS
100
AcDbLine
 10
2678.018993775974
 20
1530.257190066806
 30
0.0
 11
2678.018993775974
 21
1528.957190066806
 31
0.0
  0
LINE
  5
2204
330
1F
100
AcDbEntity
  8
AM_VIS
100
AcDbLine
 10
2678.018993775974
 20
1528.957190066806
 30
0.0
 11
2678.468993775974
 21
1528.457190066806
 31
0.0
  0
LINE
  5
2205
330
1F
100
AcDbEntity
  8
AM_VIS
100
AcDbLine
 10
2678.468993775974
 20
1528.457190066806
 30
0.0
 11
2678.468993775974
 21
1526.357190066806
 31
0.0
  0
LINE
  5
2206
330
1F
100
AcDbEntity
  8
AM_VIS
100
AcDbLine
 10
2676.768993775974
 20
1524.657190066806
 30
0.0
 11
2675.868993775974
 21
1524.657190066806
 31
0.0
  0
LINE
  5
2207
330
1F
100
AcDbEntity
  8
AM_VIS
100
AcDbLine
 10
2674.168993775974
 20
1526.357190066806
 30
0.0
 11
2674.168993775974
 21
1528.457190066806
 31
0.0
  0
LINE
  5
2208
330
1F
100
AcDbEntity
  8
AM_VIS
100
AcDbLine
 10
2674.168993775974
 20
1528.457190066806
 30
0.0
 11
2674.618993775974
 21
1528.957190066806
 31
0.0
  0
LINE
  5
2209
330
1F
100
AcDbEntity
  8
AM_VIS
100
AcDbLine
 10
2674.618993775974
 20
1528.957190066806
 30
0.0
 11
2674.618993775974
 21
1530.257190066806
 31
0.0
  0
LINE
  5
220A
330
1F
100
AcDbEntity
  8
AM_VIS
100
AcDbLine
 10
2664.018993783084
 20
1499.657190066806
 30
0.0
 11
2665.318993783084
 21
1499.657190066806
 31
0.0
  0
LINE
  5
220B
330
1F
100
AcDbEntity
  8
AM_VIS
100
AcDbLine
 10
2665.318993783084
 20
1499.657190066806
 30
0.0
 11
2665.818993783084
 21
1500.107190066806
 31
0.0
  0
LINE
  5
220C
330
1F
100
AcDbEntity
  8
AM_VIS
100
AcDbLine
 10
2665.818993783084
 20
1500.107190066806
 30
0.0
 11
2667.918993783084
 21
1500.107190066806
 31
0.0
  0
LINE
  5
220D
330
1F
100
AcDbEntity
  8
AM_VIS
100
AcDbLine
 10
2669.618993783084
 20
1498.407190066806
 30
0.0
 11
2669.618993783084
 21
1497.507190066806
 31
0.0
  0
LINE
  5
220E
330
1F
100
AcDbEntity
  8
AM_VIS
100
AcDbLine
 10
2667.918993783084
 20
1495.807190066806
 30
0.0
 11
2665.818993783084
 21
1495.807190066806
 31
0.0
  0
LINE
  5
220F
330
1F
100
AcDbEntity
  8
AM_VIS
100
AcDbLine
 10
2665.818993783084
 20
1495.807190066806
 30
0.0
 11
2665.318993783084
 21
1496.257190066806
 31
0.0
  0
LINE
  5
2210
330
1F
100
AcDbEntity
  8
AM_VIS
100
AcDbLine
 10
2665.318993783084
 20
1496.257190066806
 30
0.0
 11
2664.018993783084
 21
1496.257190066806
 31
0.0
  0
LINE
  5
2211
330
1F
100
AcDbEntity
  8
AM_VIS
100
AcDbLine
 10
2694.418993783084
 20
1485.457190073916
 30
0.0
 11
2678.218993779529
 21
1485.457190073916
 31
0.0
  0
LINE
  5
2212
330
1F
100
AcDbEntity
  8
AM_VIS
100
AcDbLine
 10
2674.418993779529
 20
1485.457190073916
 30
0.0
 11
2666.475858946306
 21
1485.457190073916
 31
0.0
  0
LINE
  5
2213
330
1F
100
AcDbEntity
  8
AM_VIS
100
AcDbLine
 10
2674.618993779529
 20
1486.957190073916
 30
0.0
 11
2674.168993779529
 21
1487.457190073916
 31
0.0
  0
LINE
  5
2214
330
1F
100
AcDbEntity
  8
AM_VIS
100
AcDbLine
 10
2674.168993779529
 20
1487.457190073916
 30
0.0
 11
2674.168993779529
 21
1489.557190073916
 31
0.0
  0
LINE
  5
2215
330
1F
100
AcDbEntity
  8
AM_VIS
100
AcDbLine
 10
2675.868993779529
 20
1491.257190073916
 30
0.0
 11
2676.768993779529
 21
1491.257190073916
 31
0.0
  0
LINE
  5
2216
330
1F
100
AcDbEntity
  8
AM_VIS
100
AcDbLine
 10
2678.468993779529
 20
1489.557190073916
 30
0.0
 11
2678.468993779529
 21
1487.457190073916
 31
0.0
  0
LINE
  5
2217
330
1F
100
AcDbEntity
  8
AM_VIS
100
AcDbLine
 10
2678.468993779529
 20
1487.457190073916
 30
0.0
 11
2678.018993779529
 21
1486.957190073916
 31
0.0
  0
LINE
  5
2218
330
1F
100
AcDbEntity
  8
AM_VIS
100
AcDbLine
 10
2678.018993779529
 20
1486.957190073916
 30
0.0
 11
2678.018993779529
 21
1485.657190073916
 31
0.0
  0
LINE
  5
2219
330
1F
100
AcDbEntity
  8
AM_VIS
100
AcDbLine
 10
2674.618993779529
 20
1485.657190073916
 30
0.0
 11
2674.618993779529
 21
1486.957190073916
 31
0.0
  0
LINE
  5
221A
330
1F
100
AcDbEntity
  8
AM_VIS
100
AcDbLine
 10
2708.818993779529
 20
1496.057190070361
 30
0.0
 11
2708.818993779529
 21
1488.114055237139
 31
0.0
  0
LINE
  5
221B
330
1F
100
AcDbEntity
  8
AM_VIS
100
AcDbLine
 10
2698.218993779529
 20
1530.457190070361
 30
0.0
 11
2706.162128616306
 21
1530.457190070361
 31
0.0
  0
LINE
  5
221C
330
1F
100
AcDbEntity
  8
AM_VIS
100
AcDbLine
 10
2663.818993783084
 20
1519.857190070361
 30
0.0
 11
2663.818993783084
 21
1527.800324907139
 31
0.0
  0
LINE
  5
221D
330
1F
100
AcDbEntity
  8
AM_VIS
100
AcDbLine
 10
2707.318993775974
 20
1496.257190070361
 30
0.0
 11
2706.818993775974
 21
1495.807190070361
 31
0.0
  0
LINE
  5
221E
330
1F
100
AcDbEntity
  8
AM_VIS
100
AcDbLine
 10
2706.818993775974
 20
1495.807190070361
 30
0.0
 11
2704.718993775974
 21
1495.807190070361
 31
0.0
  0
LINE
  5
221F
330
1F
100
AcDbEntity
  8
AM_VIS
100
AcDbLine
 10
2703.018993775974
 20
1497.507190070361
 30
0.0
 11
2703.018993775974
 21
1498.407190070361
 31
0.0
  0
LINE
  5
2220
330
1F
100
AcDbEntity
  8
AM_VIS
100
AcDbLine
 10
2704.718993775974
 20
1500.107190070361
 30
0.0
 11
2706.818993775974
 21
1500.107190070361
 31
0.0
  0
LINE
  5
2221
330
1F
100
AcDbEntity
  8
AM_VIS
100
AcDbLine
 10
2706.818993775974
 20
1500.107190070361
 30
0.0
 11
2707.318993775974
 21
1499.657190070361
 31
0.0
  0
LINE
  5
2222
330
1F
100
AcDbEntity
  8
AM_VIS
100
AcDbLine
 10
2707.318993775974
 20
1499.657190070361
 30
0.0
 11
2708.618993775974
 21
1499.657190070361
 31
0.0
  0
LINE
  5
2223
330
1F
100
AcDbEntity
  8
AM_VIS
100
AcDbLine
 10
2708.618993775974
 20
1496.257190070361
 30
0.0
 11
2707.318993775974
 21
1496.257190070361
 31
0.0
  0
LINE
  5
2224
330
1F
100
AcDbEntity
  8
AM_VIS
100
AcDbLine
 10
2698.018993779529
 20
1528.957190066806
 30
0.0
 11
2698.468993779529
 21
1528.457190066806
 31
0.0
  0
LINE
  5
2225
330
1F
100
AcDbEntity
  8
AM_VIS
100
AcDbLine
 10
2698.468993779529
 20
1528.457190066806
 30
0.0
 11
2698.468993779529
 21
1526.357190066806
 31
0.0
  0
LINE
  5
2226
330
1F
100
AcDbEntity
  8
AM_VIS
100
AcDbLine
 10
2696.768993779529
 20
1524.657190066806
 30
0.0
 11
2695.868993779529
 21
1524.657190066806
 31
0.0
  0
LINE
  5
2227
330
1F
100
AcDbEntity
  8
AM_VIS
100
AcDbLine
 10
2694.168993779529
 20
1526.357190066806
 30
0.0
 11
2694.168993779529
 21
1528.457190066806
 31
0.0
  0
LINE
  5
2228
330
1F
100
AcDbEntity
  8
AM_VIS
100
AcDbLine
 10
2694.168993779529
 20
1528.457190066806
 30
0.0
 11
2694.618993779529
 21
1528.957190066806
 31
0.0
  0
LINE
  5
2229
330
1F
100
AcDbEntity
  8
AM_VIS
100
AcDbLine
 10
2694.618993779529
 20
1528.957190066806
 30
0.0
 11
2694.618993779529
 21
1530.257190066806
 31
0.0
  0
LINE
  5
222A
330
1F
100
AcDbEntity
  8
AM_VIS
100
AcDbLine
 10
2698.018993779529
 20
1530.257190066806
 30
0.0
 11
2698.018993779529
 21
1528.957190066806
 31
0.0
  0
LINE
  5
222B
330
1F
100
AcDbEntity
  8
AM_VIS
100
AcDbLine
 10
2665.318993783084
 20
1519.657190070361
 30
0.0
 11
2665.818993783084
 21
1520.107190070361
 31
0.0
  0
LINE
  5
222C
330
1F
100
AcDbEntity
  8
AM_VIS
100
AcDbLine
 10
2665.818993783084
 20
1520.107190070361
 30
0.0
 11
2667.918993783084
 21
1520.107190070361
 31
0.0
  0
LINE
  5
222D
330
1F
100
AcDbEntity
  8
AM_VIS
100
AcDbLine
 10
2669.618993783084
 20
1518.407190070361
 30
0.0
 11
2669.618993783084
 21
1517.507190070361
 31
0.0
  0
LINE
  5
222E
330
1F
100
AcDbEntity
  8
AM_VIS
100
AcDbLine
 10
2667.918993783084
 20
1515.807190070361
 30
0.0
 11
2665.818993783084
 21
1515.807190070361
 31
0.0
  0
LINE
  5
222F
330
1F
100
AcDbEntity
  8
AM_VIS
100
AcDbLine
 10
2665.818993783084
 20
1515.807190070361
 30
0.0
 11
2665.318993783084
 21
1516.257190070361
 31
0.0
  0
LINE
  5
2230
330
1F
100
AcDbEntity
  8
AM_VIS
100
AcDbLine
 10
2665.318993783084
 20
1516.257190070361
 30
0.0
 11
2664.018993783085
 21
1516.257190070361
 31
0.0
  0
LINE
  5
2231
330
1F
100
AcDbEntity
  8
AM_VIS
100
AcDbLine
 10
2664.018993783084
 20
1519.657190070361
 30
0.0
 11
2665.318993783084
 21
1519.657190070361
 31
0.0
  0
LINE
  5
2232
330
1F
100
AcDbEntity
  8
AM_VIS
100
AcDbLine
 10
2679.318993786306
 20
1534.957190070361
 30
0.0
 11
2693.318993786306
 21
1534.957190070361
 31
0.0
  0
ARC
  5
2233
330
1F
100
AcDbEntity
  8
AM_VIS
100
AcDbCircle
 10
2686.318993781307
 20
1507.957190072139
 30
0.0
 40
30.0
100
AcDbArc
 50
131.4096221144011
 51
138.5903778855977
  0
ARC
  5
2234
330
1F
100
AcDbEntity
  8
AM_VIS
100
AcDbCircle
 10
2686.318993781307
 20
1507.957190072139
 30
0.0
 40
30.0
100
AcDbArc
 50
41.40962211440225
 51
48.5903778855989
  0
ARC
  5
2235
330
1F
100
AcDbEntity
  8
AM_VIS
100
AcDbCircle
 10
2686.318993781307
 20
1507.957190072139
 30
0.0
 40
30.0
100
AcDbArc
 50
311.4096221144011
 51
318.5903778855977
  0
ARC
  5
2236
330
1F
100
AcDbEntity
  8
AM_VIS
100
AcDbCircle
 10
2698.218993783084
 20
1485.657190073916
 30
0.0
 40
0.2
100
AcDbArc
 50
180.0
 51
270.0
  0
ARC
  5
2237
330
1F
100
AcDbEntity
  8
AM_VIS
100
AcDbCircle
 10
2696.768993783084
 20
1489.557190073916
 30
0.0
 40
1.7
100
AcDbArc
 50
0.0
 51
90.0
  0
ARC
  5
2238
330
1F
100
AcDbEntity
  8
AM_VIS
100
AcDbCircle
 10
2695.868993783084
 20
1489.557190073916
 30
0.0
 40
1.7
100
AcDbArc
 50
90.0
 51
180.0
  0
ARC
  5
2239
330
1F
100
AcDbEntity
  8
AM_VIS
100
AcDbCircle
 10
2694.418993783084
 20
1485.657190073916
 30
0.0
 40
0.200000000000017
100
AcDbArc
 50
270.0
 51
0.0
  0
ARC
  5
223A
330
1F
100
AcDbEntity
  8
AM_VIS
100
AcDbCircle
 10
2686.318993781307
 20
1507.957190072139
 30
0.0
 40
30.0
100
AcDbArc
 50
221.4096221144023
 51
228.5903778855989
  0
ARC
  5
223B
330
1F
100
AcDbEntity
  8
AM_VIS
100
AcDbCircle
 10
2708.618993775974
 20
1516.057190073916
 30
0.0
 40
0.200000000000017
100
AcDbArc
 50
0.0
 51
90.0
  0
ARC
  5
223C
330
1F
100
AcDbEntity
  8
AM_VIS
100
AcDbCircle
 10
2704.718993775974
 20
1517.507190073916
 30
0.0
 40
1.7
100
AcDbArc
 50
180.0
 51
270.0
  0
ARC
  5
223D
330
1F
100
AcDbEntity
  8
AM_VIS
100
AcDbCircle
 10
2704.718993775974
 20
1518.407190073916
 30
0.0
 40
1.7
100
AcDbArc
 50
90.0
 51
180.0
  0
ARC
  5
223E
330
1F
100
AcDbEntity
  8
AM_VIS
100
AcDbCircle
 10
2708.618993775974
 20
1519.857190073916
 30
0.0
 40
0.2
100
AcDbArc
 50
270.0
 51
0.0
  0
ARC
  5
223F
330
1F
100
AcDbEntity
  8
AM_VIS
100
AcDbCircle
 10
2678.218993775974
 20
1530.257190066806
 30
0.0
 40
0.200000000000017
100
AcDbArc
 50
90.0
 51
180.0
  0
ARC
  5
2240
330
1F
100
AcDbEntity
  8
AM_VIS
100
AcDbCircle
 10
2676.768993775974
 20
1526.357190066806
 30
0.0
 40
1.7
100
AcDbArc
 50
270.0
 51
0.0
  0
ARC
  5
2241
330
1F
100
AcDbEntity
  8
AM_VIS
100
AcDbCircle
 10
2675.868993775974
 20
1526.357190066806
 30
0.0
 40
1.7
100
AcDbArc
 50
180.0
 51
270.0
  0
ARC
  5
2242
330
1F
100
AcDbEntity
  8
AM_VIS
100
AcDbCircle
 10
2674.418993775974
 20
1530.257190066806
 30
0.0
 40
0.2
100
AcDbArc
 50
0.0
 51
90.0
  0
ARC
  5
2243
330
1F
100
AcDbEntity
  8
AM_VIS
100
AcDbCircle
 10
2664.018993783084
 20
1499.857190066806
 30
0.0
 40
0.200000000000017
100
AcDbArc
 50
180.0
 51
270.0
  0
ARC
  5
2244
330
1F
100
AcDbEntity
  8
AM_VIS
100
AcDbCircle
 10
2667.918993783084
 20
1498.407190066806
 30
0.0
 40
1.7
100
AcDbArc
 50
0.0
 51
90.0
  0
ARC
  5
2245
330
1F
100
AcDbEntity
  8
AM_VIS
100
AcDbCircle
 10
2667.918993783084
 20
1497.507190066806
 30
0.0
 40
1.7
100
AcDbArc
 50
270.0
 51
0.0
  0
ARC
  5
2246
330
1F
100
AcDbEntity
  8
AM_VIS
100
AcDbCircle
 10
2664.018993783084
 20
1496.057190066806
 30
0.0
 40
0.2
100
AcDbArc
 50
90.0
 51
180.0
  0
ARC
  5
2247
330
1F
100
AcDbEntity
  8
AM_VIS
100
AcDbCircle
 10
2675.868993779529
 20
1489.557190073916
 30
0.0
 40
1.7
100
AcDbArc
 50
90.0
 51
180.0
  0
ARC
  5
2248
330
1F
100
AcDbEntity
  8
AM_VIS
100
AcDbCircle
 10
2676.768993779529
 20
1489.557190073916
 30
0.0
 40
1.7
100
AcDbArc
 50
0.0
 51
90.0
  0
ARC
  5
2249
330
1F
100
AcDbEntity
  8
AM_VIS
100
AcDbCircle
 10
2678.218993779529
 20
1485.657190073916
 30
0.0
 40
0.200000000000017
100
AcDbArc
 50
180.0
 51
270.0
  0
ARC
  5
224A
330
1F
100
AcDbEntity
  8
AM_VIS
100
AcDbCircle
 10
2674.418993779529
 20
1485.657190073916
 30
0.0
 40
0.2
100
AcDbArc
 50
270.0
 51
0.0
  0
ARC
  5
224B
330
1F
100
AcDbEntity
  8
AM_VIS
100
AcDbCircle
 10
2704.718993775974
 20
1497.507190070361
 30
0.0
 40
1.7
100
AcDbArc
 50
180.0
 51
270.0
  0
ARC
  5
224C
330
1F
100
AcDbEntity
  8
AM_VIS
100
AcDbCircle
 10
2704.718993775974
 20
1498.407190070361
 30
0.0
 40
1.7
100
AcDbArc
 50
90.0
 51
180.0
  0
ARC
  5
224D
330
1F
100
AcDbEntity
  8
AM_VIS
100
AcDbCircle
 10
2708.618993775974
 20
1499.857190070361
 30
0.0
 40
0.200000000000017
100
AcDbArc
 50
270.0
 51
0.0
  0
ARC
  5
224E
330
1F
100
AcDbEntity
  8
AM_VIS
100
AcDbCircle
 10
2708.618993775974
 20
1496.057190070361
 30
0.0
 40
0.2
100
AcDbArc
 50
0.0
 51
90.0
  0
ARC
  5
224F
330
1F
100
AcDbEntity
  8
AM_VIS
100
AcDbCircle
 10
2696.768993779528
 20
1526.357190066806
 30
0.0
 40
1.7
100
AcDbArc
 50
270.0
 51
0.0
  0
ARC
  5
2250
330
1F
100
AcDbEntity
  8
AM_VIS
100
AcDbCircle
 10
2695.868993779529
 20
1526.357190066806
 30
0.0
 40
1.7
100
AcDbArc
 50
180.0
 51
270.0
  0
ARC
  5
2251
330
1F
100
AcDbEntity
  8
AM_VIS
100
AcDbCircle
 10
2694.418993779529
 20
1530.257190066806
 30
0.0
 40
0.200000000000017
100
AcDbArc
 50
0.0
 51
90.0
  0
ARC
  5
2252
330
1F
100
AcDbEntity
  8
AM_VIS
100
AcDbCircle
 10
2698.218993779529
 20
1530.257190066806
 30
0.0
 40
0.2
100
AcDbArc
 50
90.0
 51
180.0
  0
ARC
  5
2253
330
1F
100
AcDbEntity
  8
AM_VIS
100
AcDbCircle
 10
2667.918993783084
 20
1518.407190070361
 30
0.0
 40
1.7
100
AcDbArc
 50
0.0
 51
90.0
  0
ARC
  5
2254
330
1F
100
AcDbEntity
  8
AM_VIS
100
AcDbCircle
 10
2667.918993783084
 20
1517.507190070361
 30
0.0
 40
1.7
100
AcDbArc
 50
270.0
 51
0.0
  0
ARC
  5
2255
330
1F
100
AcDbEntity
  8
AM_VIS
100
AcDbCircle
 10
2664.018993783085
 20
1516.057190070361
 30
0.0
 40
0.200000000000017
100
AcDbArc
 50
90.0
 51
180.0
  0
ARC
  5
2256
330
1F
100
AcDbEntity
  8
AM_VIS
100
AcDbCircle
 10
2664.018993783084
 20
1519.857190070361
 30
0.0
 40
0.2
100
AcDbArc
 50
180.0
 51
270.0
  0
CIRCLE
  5
2257
330
1F
100
AcDbEntity
  8
AM_VIS
100
AcDbCircle
 10
2686.318993779529
 20
1507.957190070361
 30
0.0
 40
14.9
  0
CIRCLE
  5
2258
330
1F
100
AcDbEntity
  8
AM_VIS
100
AcDbCircle
 10
2669.318993779529
 20
1524.957190066806
 30
0.0
 40
4.5
  0
LINE
  5
2268
330
1F
100
AcDbEntity
  8
AM_VIS
100
AcDbLine
 10
2709.81899377953
 20
1531.957190070361
 30
0.0
 11
2709.81899377953
 21
1483.957190070361
 31
0.0
  0
LINE
  5
2269
330
1F
100
AcDbEntity
  8
AM_VIS
100
AcDbLine
 10
2709.81899377953
 20
1483.957190070361
 30
0.0
 11
2705.818993779529
 21
1479.957190070361
 31
0.0
  0
LINE
  5
226A
330
1F
100
AcDbEntity
  8
AM_VIS
100
AcDbLine
 10
2705.818993779529
 20
1479.957190070361
 30
0.0
 11
2666.818993779529
 21
1479.957190070361
 31
0.0
  0
LINE
  5
226B
330
1F
100
AcDbEntity
  8
AM_VIS
100
AcDbLine
 10
2666.818993779529
 20
1479.957190070361
 30
0.0
 11
2662.818993779529
 21
1483.957190070361
 31
0.0
  0
LINE
  5
226C
330
1F
100
AcDbEntity
  8
AM_VIS
100
AcDbLine
 10
2662.818993779529
 20
1483.957190070361
 30
0.0
 11
2662.818993779529
 21
1531.957190070361
 31
0.0
  0
LINE
  5
226D
330
1F
100
AcDbEntity
  8
AM_VIS
100
AcDbLine
 10
2662.818993779529
 20
1531.957190070361
 30
0.0
 11
2666.818993779529
 21
1535.957190070361
 31
0.0
  0
LINE
  5
226E
330
1F
100
AcDbEntity
  8
AM_VIS
100
AcDbLine
 10
2666.818993779529
 20
1535.957190070361
 30
0.0
 11
2705.818993779529
 21
1535.957190070361
 31
0.0
  0
LINE
  5
226F
330
1F
100
AcDbEntity
  8
AM_VIS
100
AcDbLine
 10
2705.818993779529
 20
1535.957190070361
 30
0.0
 11
2709.81899377953
 21
1531.957190070361
 31
0.0
  0
LINE
  5
2274
330
1F
100
AcDbEntity
  8
AM_VIS
100
AcDbLine
 10
2792.194593951412
 20
1559.064494165018
 30
0.0
 11
2792.194593951412
 21
1592.064494165018
 31
0.0
  0
LINE
  5
2275
330
1F
100
AcDbEntity
  8
AM_VIS
100
AcDbLine
 10
2742.694593954968
 20
1559.064494165018
 30
0.0
 11
2747.194593954967
 21
1559.064494165018
 31
0.0
  0
LINE
  5
2276
330
1F
100
AcDbEntity
  8
AM_VIS
100
AcDbLine
 10
2761.594593951413
 20
1559.064494165018
 30
0.0
 11
2777.794593954967
 21
1559.064494165018
 31
0.0
  0
LINE
  5
2277
330
1F
100
AcDbEntity
  8
AM_VIS
100
AcDbLine
 10
2749.85145911819
 20
1559.064494165018
 30
0.0
 11
2757.794593951412
 21
1559.064494165018
 31
0.0
  0
LINE
  5
2278
330
1F
100
AcDbEntity
  8
AM_VIS
100
AcDbLine
 10
2749.85145911819
 20
1559.064494165018
 30
0.0
 11
2749.85145911819
 21
1592.064494165018
 31
0.0
  0
LINE
  5
2279
330
1F
100
AcDbEntity
  8
AM_VIS
100
AcDbLine
 10
2761.394593951413
 20
1559.064494165018
 30
0.0
 11
2761.394593951413
 21
1592.064494165018
 31
0.0
  0
LINE
  5
227A
330
1F
100
AcDbEntity
  8
AM_VIS
100
AcDbLine
 10
2760.144593951413
 20
1559.064494165018
 30
0.0
 11
2759.244593951413
 21
1559.064494165018
 31
0.0
  0
LINE
  5
227B
330
1F
100
AcDbEntity
  8
AM_VIS
100
AcDbLine
 10
2757.994593951412
 20
1559.064494165018
 30
0.0
 11
2757.994593951412
 21
1592.064494165018
 31
0.0
  0
LINE
  5
227C
330
1F
100
AcDbEntity
  8
AM_VIS
100
AcDbLine
 10
2789.53772878819
 20
1559.064494165018
 30
0.0
 11
2789.53772878819
 21
1592.064494165018
 31
0.0
  0
LINE
  5
227D
330
1F
100
AcDbEntity
  8
AM_VIS
100
AcDbLine
 10
2781.594593954967
 20
1559.064494165018
 30
0.0
 11
2789.53772878819
 21
1559.064494165018
 31
0.0
  0
LINE
  5
227E
330
1F
100
AcDbEntity
  8
AM_VIS
100
AcDbLine
 10
2747.194593954967
 20
1559.064494165018
 30
0.0
 11
2747.194593954967
 21
1592.064494165018
 31
0.0
  0
LINE
  5
227F
330
1F
100
AcDbEntity
  8
AM_VIS
100
AcDbLine
 10
2780.144593954967
 20
1559.064494165018
 30
0.0
 11
2779.244593954967
 21
1559.064494165018
 31
0.0
  0
LINE
  5
2280
330
1F
100
AcDbEntity
  8
AM_VIS
100
AcDbLine
 10
2777.994593954967
 20
1559.064494165018
 30
0.0
 11
2777.994593954967
 21
1592.064494165018
 31
0.0
  0
LINE
  5
2281
330
1F
100
AcDbEntity
  8
AM_VIS
100
AcDbLine
 10
2781.394593954968
 20
1559.064494165018
 30
0.0
 11
2781.394593954968
 21
1592.064494165018
 31
0.0
  0
LINE
  5
2282
330
1F
100
AcDbEntity
  8
AM_VIS
100
AcDbLine
 10
2742.694593954968
 20
1559.064494165018
 30
0.0
 11
2742.694593954968
 21
1592.064494165018
 31
0.0
  0
LINE
  5
2283
330
1F
100
AcDbEntity
  8
AM_VIS
100
AcDbLine
 10
2789.53772878819
 20
1592.064494165018
 30
0.0
 11
2781.594593954967
 21
1592.064494165018
 31
0.0
  0
LINE
  5
2284
330
1F
100
AcDbEntity
  8
AM_VIS
100
AcDbLine
 10
2779.244593954967
 20
1592.064494165018
 30
0.0
 11
2780.144593954967
 21
1592.064494165018
 31
0.0
  0
LINE
  5
2285
330
1F
100
AcDbEntity
  8
AM_VIS
100
AcDbLine
 10
2777.794593954967
 20
1592.064494165018
 30
0.0
 11
2761.594593951413
 21
1592.064494165018
 31
0.0
  0
LINE
  5
2286
330
1F
100
AcDbEntity
  8
AM_VIS
100
AcDbLine
 10
2759.244593951413
 20
1592.064494165018
 30
0.0
 11
2760.144593951413
 21
1592.064494165018
 31
0.0
  0
LINE
  5
2287
330
1F
100
AcDbEntity
  8
AM_VIS
100
AcDbLine
 10
2757.794593951412
 20
1592.064494165018
 30
0.0
 11
2749.85145911819
 21
1592.064494165018
 31
0.0
  0
LINE
  5
2288
330
1F
100
AcDbEntity
  8
AM_VIS
100
AcDbLine
 10
2747.194593954967
 20
1592.064494165018
 30
0.0
 11
2742.694593954968
 21
1592.064494165018
 31
0.0
  0
LINE
  5
2289
330
1F
100
AcDbEntity
  8
AM_VIS
100
AcDbLine
 10
2749.85145911819
 20
1559.064494165018
 30
0.0
 11
2747.194593954967
 21
1559.064494165018
 31
0.0
  0
LINE
  5
228A
330
1F
100
AcDbEntity
  8
AM_VIS
100
AcDbLine
 10
2792.194593951412
 20
1559.064494165018
 30
0.0
 11
2789.53772878819
 21
1559.064494165018
 31
0.0
  0
LINE
  5
228B
330
1F
100
AcDbEntity
  8
AM_VIS
100
AcDbLine
 10
2761.394593951413
 20
1559.064494165018
 30
0.0
 11
2761.594593951413
 21
1559.064494165018
 31
0.0
  0
LINE
  5
228C
330
1F
100
AcDbEntity
  8
AM_VIS
100
AcDbLine
 10
2761.394593951413
 20
1559.064494165018
 30
0.0
 11
2760.144593951413
 21
1559.064494165018
 31
0.0
  0
LINE
  5
228D
330
1F
100
AcDbEntity
  8
AM_VIS
100
AcDbLine
 10
2759.244593951413
 20
1559.064494165018
 30
0.0
 11
2757.994593951412
 21
1559.064494165018
 31
0.0
  0
LINE
  5
228E
330
1F
100
AcDbEntity
  8
AM_VIS
100
AcDbLine
 10
2757.794593951412
 20
1559.064494165018
 30
0.0
 11
2757.994593951412
 21
1559.064494165018
 31
0.0
  0
LINE
  5
228F
330
1F
100
AcDbEntity
  8
AM_VIS
100
AcDbLine
 10
2781.394593954968
 20
1559.064494165018
 30
0.0
 11
2780.144593954967
 21
1559.064494165018
 31
0.0
  0
LINE
  5
2290
330
1F
100
AcDbEntity
  8
AM_VIS
100
AcDbLine
 10
2779.244593954967
 20
1559.064494165018
 30
0.0
 11
2777.994593954967
 21
1559.064494165018
 31
0.0
  0
LINE
  5
2291
330
1F
100
AcDbEntity
  8
AM_VIS
100
AcDbLine
 10
2777.794593954967
 20
1559.064494165018
 30
0.0
 11
2777.994593954967
 21
1559.064494165018
 31
0.0
  0
LINE
  5
2292
330
1F
100
AcDbEntity
  8
AM_VIS
100
AcDbLine
 10
2781.394593954968
 20
1559.064494165018
 30
0.0
 11
2781.594593954967
 21
1559.064494165018
 31
0.0
  0
LINE
  5
2293
330
1F
100
AcDbEntity
  8
AM_VIS
100
AcDbLine
 10
2789.53772878819
 20
1592.064494165018
 30
0.0
 11
2792.194593951412
 21
1592.064494165018
 31
0.0
  0
LINE
  5
2294
330
1F
100
AcDbEntity
  8
AM_VIS
100
AcDbLine
 10
2781.594593954967
 20
1592.064494165018
 30
0.0
 11
2781.394593954968
 21
1592.064494165018
 31
0.0
  0
LINE
  5
2295
330
1F
100
AcDbEntity
  8
AM_VIS
100
AcDbLine
 10
2780.144593954967
 20
1592.064494165018
 30
0.0
 11
2781.394593954968
 21
1592.064494165018
 31
0.0
  0
LINE
  5
2296
330
1F
100
AcDbEntity
  8
AM_VIS
100
AcDbLine
 10
2777.994593954967
 20
1592.064494165018
 30
0.0
 11
2779.244593954967
 21
1592.064494165018
 31
0.0
  0
LINE
  5
2297
330
1F
100
AcDbEntity
  8
AM_VIS
100
AcDbLine
 10
2777.994593954967
 20
1592.064494165018
 30
0.0
 11
2777.794593954967
 21
1592.064494165018
 31
0.0
  0
LINE
  5
2298
330
1F
100
AcDbEntity
  8
AM_VIS
100
AcDbLine
 10
2761.594593951413
 20
1592.064494165018
 30
0.0
 11
2761.394593951413
 21
1592.064494165018
 31
0.0
  0
LINE
  5
2299
330
1F
100
AcDbEntity
  8
AM_VIS
100
AcDbLine
 10
2760.144593951413
 20
1592.064494165018
 30
0.0
 11
2761.394593951413
 21
1592.064494165018
 31
0.0
  0
LINE
  5
229A
330
1F
100
AcDbEntity
  8
AM_VIS
100
AcDbLine
 10
2757.994593951412
 20
1592.064494165018
 30
0.0
 11
2759.244593951413
 21
1592.064494165018
 31
0.0
  0
LINE
  5
229B
330
1F
100
AcDbEntity
  8
AM_VIS
100
AcDbLine
 10
2757.994593951412
 20
1592.064494165018
 30
0.0
 11
2757.794593951412
 21
1592.064494165018
 31
0.0
  0
LINE
  5
229C
330
1F
100
AcDbEntity
  8
AM_VIS
100
AcDbLine
 10
2747.194593954967
 20
1592.064494165018
 30
0.0
 11
2749.85145911819
 21
1592.064494165018
 31
0.0
  0
LINE
  5
22AC
330
1F
100
AcDbEntity
  8
AM_7
100
AcDbLine
 10
2686.318993779529
 20
1507.957190070361
 30
0.0
 11
2716.318993779529
 21
1507.957190070361
 31
0.0
1001
GENIUS_GENOREF_13
1005
22B0
  0
LINE
  5
22AD
330
1F
100
AcDbEntity
  8
AM_7
100
AcDbLine
 10
2686.318993779529
 20
1507.957190070361
 30
0.0
 11
2686.318993779529
 21
1537.957190070361
 31
0.0
1001
GENIUS_GENOREF_13
1005
22B0
  0
LINE
  5
22AE
330
1F
100
AcDbEntity
  8
AM_7
100
AcDbLine
 10
2686.318993779529
 20
1507.957190070361
 30
0.0
 11
2656.318993779529
 21
1507.957190070361
 31
0.0
1001
GENIUS_GENOREF_13
1005
22B0
  0
LINE
  5
22AF
330
1F
100
AcDbEntity
  8
AM_7
100
AcDbLine
 10
2686.318993779529
 20
1507.957190070361
 30
0.0
 11
2686.318993779529
 21
1477.957190070361
 31
0.0
1001
GENIUS_GENOREF_13
1005
22B0
  0
POINT
  5
22B0
330
1F
100
AcDbEntity
  8
0
 60
     1
100
AcDbPoint
 10
0.0
 20
0.0
 30
0.0
1001
GENIUS_GENOBJ-N-CRS_13
1002
{
1000
OWNER
1000
GEN
1002
}
1001
GENIUS_GENOLIS_13
1002
{
1000
ENT
1005
22AF
1005
22AE
1005
22AD
1005
22AC
1002
}
1001
GENIUS_GENOENT_13
1002
{
1000
MYREF
1005
22B0
1002
}
1002
{
1000
GRP
1005
0
1002
}
1001
GENIUS_GENODEF_13
1002
{
1000
HIER
1070
    10
1002
}
1002
{
1000
MANEDIT
1070
     0
1002
}
1002
{
1000
NOSEL
1070
     0
1002
}
1002
{
1000
BEHIND
1070
     0
1002
}
1002
{
1000
OTHER
1070
     0
1002
}
1002
{
1000
REACTOR
1002
}
  0
LINE
  5
22E6
330
1F
100
AcDbEntity
  8
AM_7
100
AcDbLine
 10
2686.318993779529
 20
1672.297872391242
 30
0.0
 11
2712.350195840289
 21
1672.297872391242
 31
0.0
1001
GENIUS_GENOREF_13
1005
22EA
  0
LINE
  5
22E7
330
1F
100
AcDbEntity
  8
AM_7
100
AcDbLine
 10
2686.318993779529
 20
1672.297872391242
 30
0.0
 11
2686.318993779529
 21
1702.297872391242
 31
0.0
1001
GENIUS_GENOREF_13
1005
22EA
  0
LINE
  5
22E8
330
1F
100
AcDbEntity
  8
AM_7
100
AcDbLine
 10
2686.318993779529
 20
1672.297872391242
 30
0.0
 11
2659.992936523252
 21
1672.297872391242
 31
0.0
1001
GENIUS_GENOREF_13
1005
22EA
  0
LINE
  5
22E9
330
1F
100
AcDbEntity
  8
AM_7
100
AcDbLine
 10
2686.318993779529
 20
1672.297872391242
 30
0.0
 11
2686.318993779529
 21
1642.297872391242
 31
0.0
1001
GENIUS_GENOREF_13
1005
22EA
  0
POINT
  5
22EA
330
1F
100
AcDbEntity
  8
0
 60
     1
100
AcDbPoint
 10
0.0
 20
0.0
 30
0.0
1001
GENIUS_GENOLIS_13
1002
{
1000
ENT
1005
22E9
1005
22E8
1005
22E7
1005
22E6
1002
}
1001
GENIUS_GENOBJ-N-CRS_13
1002
{
1000
OWNER
1000
GEN
1002
}
1001
GENIUS_GENOENT_13
1002
{
1000
MYREF
1005
22EA
1002
}
1002
{
1000
GRP
1005
0
1002
}
1001
GENIUS_GENODEF_13
1002
{
1000
HIER
1070
    10
1002
}
1002
{
1000
MANEDIT
1070
     0
1002
}
1002
{
1000
NOSEL
1070
     0
1002
}
1002
{
1000
BEHIND
1070
     0
1002
}
1002
{
1000
OTHER
1070
     0
1002
}
1002
{
1000
REACTOR
1002
}
  0
ARC
  5
232F
330
1F
100
AcDbEntity
  8
AM_4
100
AcDbCircle
 10
2686.318993779529
 20
1692.297872391242
 30
0.0
 40
3.0
100
AcDbArc
 50
260.0
 51
170.0
  0
CIRCLE
  5
2330
330
1F
100
AcDbEntity
  8
AM_0
100
AcDbCircle
 10
2686.318993779529
 20
1692.297872391242
 30
0.0
 40
2.45873412263477
  0
LINE
  5
2331
330
1F
100
AcDbEntity
  8
AM_7
  6
AM_ISO08W050x2
100
AcDbLine
 10
2681.318993779529
 20
1692.297872391242
 30
0.0
 11
2691.318993779529
 21
1692.297872391242
 31
0.0
  0
LINE
  5
2332
330
1F
100
AcDbEntity
  8
AM_7
  6
AM_ISO08W050x2
100
AcDbLine
 10
2686.318993779529
 20
1687.297872391242
 30
0.0
 11
2686.318993779529
 21
1697.297872391242
 31
0.0
  0
ARC
  5
2333
330
1F
100
AcDbEntity
  8
AM_4
100
AcDbCircle
 10
2670.318993779529
 20
1672.297872391242
 30
0.0
 40
3.0
100
AcDbArc
 50
260.0
 51
170.0
  0
CIRCLE
  5
2334
330
1F
100
AcDbEntity
  8
AM_0
100
AcDbCircle
 10
2670.318993779529
 20
1672.297872391242
 30
0.0
 40
2.45873412263477
  0
LINE
  5
2335
330
1F
100
AcDbEntity
  8
AM_7
  6
AM_ISO08W050x2
100
AcDbLine
 10
2665.318993779529
 20
1672.297872391242
 30
0.0
 11
2675.318993779529
 21
1672.297872391242
 31
0.0
  0
LINE
  5
2336
330
1F
100
AcDbEntity
  8
AM_7
  6
AM_ISO08W050x2
100
AcDbLine
 10
2670.318993779529
 20
1667.297872391242
 30
0.0
 11
2670.318993779529
 21
1677.297872391242
 31
0.0
  0
ARC
  5
2337
330
1F
100
AcDbEntity
  8
AM_4
100
AcDbCircle
 10
2702.318993779529
 20
1672.297872391242
 30
0.0
 40
3.0
100
AcDbArc
 50
260.0
 51
170.0
  0
CIRCLE
  5
2338
330
1F
100
AcDbEntity
  8
AM_0
100
AcDbCircle
 10
2702.318993779529
 20
1672.297872391242
 30
0.0
 40
2.45873412263477
  0
LINE
  5
2339
330
1F
100
AcDbEntity
  8
AM_7
  6
AM_ISO08W050x2
100
AcDbLine
 10
2697.318993779529
 20
1672.297872391242
 30
0.0
 11
2707.318993779529
 21
1672.297872391242
 31
0.0
  0
LINE
  5
233A
330
1F
100
AcDbEntity
  8
AM_7
  6
AM_ISO08W050x2
100
AcDbLine
 10
2702.318993779529
 20
1667.297872391242
 30
0.0
 11
2702.318993779529
 21
1677.297872391242
 31
0.0
  0
ARC
  5
233B
330
1F
100
AcDbEntity
  8
AM_4
100
AcDbCircle
 10
2686.318993779529
 20
1652.297872391242
 30
0.0
 40
3.0
100
AcDbArc
 50
260.0
 51
170.0
  0
CIRCLE
  5
233C
330
1F
100
AcDbEntity
  8
AM_0
100
AcDbCircle
 10
2686.318993779529
 20
1652.297872391242
 30
0.0
 40
2.45873412263477
  0
LINE
  5
233D
330
1F
100
AcDbEntity
  8
AM_7
  6
AM_ISO08W050x2
100
AcDbLine
 10
2681.318993779529
 20
1652.297872391242
 30
0.0
 11
2691.318993779529
 21
1652.297872391242
 31
0.0
  0
LINE
  5
233E
330
1F
100
AcDbEntity
  8
AM_7
  6
AM_ISO08W050x2
100
AcDbLine
 10
2686.318993779529
 20
1647.297872391242
 30
0.0
 11
2686.318993779529
 21
1657.297872391242
 31
0.0
  0
CIRCLE
  5
235C
330
1F
100
AcDbEntity
  8
0
100
AcDbCircle
 10
2703.318993775974
 20
1524.957190070361
 30
0.0
 40
3.5
  0
CIRCLE
  5
235D
330
1F
100
AcDbEntity
  8
0
100
AcDbCircle
 10
2669.318993779529
 20
1524.957190066806
 30
0.0
 40
2.75
  0
ARC
  5
235E
330
1F
100
AcDbEntity
  8
AM_4
100
AcDbCircle
 10
2669.318993779529
 20
1524.957190066806
 30
0.0
 40
3.0
100
AcDbArc
 50
260.0
 51
170.0
  0
CIRCLE
  5
235F
330
1F
100
AcDbEntity
  8
AM_VIS
100
AcDbCircle
 10
2703.318993775974
 20
1490.957190073916
 30
0.0
 40
4.5
  0
CIRCLE
  5
2360
330
1F
100
AcDbEntity
  8
0
100
AcDbCircle
 10
2703.318993775974
 20
1490.957190073916
 30
0.0
 40
2.75
  0
ARC
  5
2361
330
1F
100
AcDbEntity
  8
AM_4
100
AcDbCircle
 10
2703.318993775974
 20
1490.957190073916
 30
0.0
 40
3.0
100
AcDbArc
 50
260.0
 51
170.0
  0
CIRCLE
  5
2362
330
1F
100
AcDbEntity
  8
0
100
AcDbCircle
 10
2669.318993775974
 20
1490.957190073916
 30
0.0
 40
3.5
  0
LINE
  5
2370
330
1F
100
AcDbEntity
  8
AM_7
  6
AM_ISO08W050x2
100
AcDbLine
 10
2669.318993779529
 20
1524.957190066806
 30
0.0
 11
2675.818993779529
 21
1524.957190066806
 31
0.0
1001
GENIUS_GENOREF_13
1005
2374
  0
LINE
  5
2371
330
1F
100
AcDbEntity
  8
AM_7
  6
AM_ISO08W050x2
100
AcDbLine
 10
2669.318993779529
 20
1524.957190066806
 30
0.0
 11
2669.318993779529
 21
1531.457190066806
 31
0.0
1001
GENIUS_GENOREF_13
1005
2374
  0
LINE
  5
2372
330
1F
100
AcDbEntity
  8
AM_7
  6
AM_ISO08W050x2
100
AcDbLine
 10
2669.318993779529
 20
1524.957190066806
 30
0.0
 11
2662.818993779529
 21
1524.957190066806
 31
0.0
1001
GENIUS_GENOREF_13
1005
2374
  0
LINE
  5
2373
330
1F
100
AcDbEntity
  8
AM_7
  6
AM_ISO08W050x2
100
AcDbLine
 10
2669.318993779529
 20
1524.957190066806
 30
0.0
 11
2669.318993779529
 21
1518.457190066806
 31
0.0
1001
GENIUS_GENOREF_13
1005
2374
  0
POINT
  5
2374
330
1F
100
AcDbEntity
  8
0
 60
     1
100
AcDbPoint
 10
0.0
 20
0.0
 30
0.0
1001
GENIUS_GENOBJ-N-CRS_13
1002
{
1000
OWNER
1000
GEN
1002
}
1001
GENIUS_GENODEF_13
1002
{
1000
HIER
1070
    10
1002
}
1002
{
1000
MANEDIT
1070
     0
1002
}
1002
{
1000
NOSEL
1070
     0
1002
}
1002
{
1000
BEHIND
1070
     0
1002
}
1002
{
1000
OTHER
1070
     0
1002
}
1002
{
1000
REACTOR
1002
}
1001
GENIUS_GENOENT_13
1002
{
1000
MYREF
1005
2374
1002
}
1002
{
1000
GRP
1005
0
1002
}
1001
GENIUS_GENOLIS_13
1002
{
1000
ENT
1005
2373
1005
2372
1005
2371
1005
2370
1002
}
  0
LINE
  5
2382
330
1F
100
AcDbEntity
  8
AM_7
  6
AM_ISO08W050x2
100
AcDbLine
 10
2703.318993775974
 20
1524.957190070361
 30
0.0
 11
2708.818993775974
 21
1524.957190070361
 31
0.0
1001
GENIUS_GENOREF_13
1005
2386
  0
LINE
  5
2383
330
1F
100
AcDbEntity
  8
AM_7
  6
AM_ISO08W050x2
100
AcDbLine
 10
2703.318993775974
 20
1524.957190070361
 30
0.0
 11
2703.318993775974
 21
1530.457190070361
 31
0.0
1001
GENIUS_GENOREF_13
1005
2386
  0
LINE
  5
2384
330
1F
100
AcDbEntity
  8
AM_7
  6
AM_ISO08W050x2
100
AcDbLine
 10
2703.318993775974
 20
1524.957190070361
 30
0.0
 11
2697.818993775974
 21
1524.957190070361
 31
0.0
1001
GENIUS_GENOREF_13
1005
2386
  0
LINE
  5
2385
330
1F
100
AcDbEntity
  8
AM_7
  6
AM_ISO08W050x2
100
AcDbLine
 10
2703.318993775974
 20
1524.957190070361
 30
0.0
 11
2703.318993775974
 21
1519.457190070361
 31
0.0
1001
GENIUS_GENOREF_13
1005
2386
  0
POINT
  5
2386
330
1F
100
AcDbEntity
  8
0
 60
     1
100
AcDbPoint
 10
0.0
 20
0.0
 30
0.0
1001
GENIUS_GENOENT_13
1002
{
1000
MYREF
1005
2386
1002
}
1002
{
1000
GRP
1005
0
1002
}
1001
GENIUS_GENOBJ-N-CRS_13
1002
{
1000
OWNER
1000
GEN
1002
}
1001
GENIUS_GENODEF_13
1002
{
1000
HIER
1070
    10
1002
}
1002
{
1000
MANEDIT
1070
     0
1002
}
1002
{
1000
NOSEL
1070
     0
1002
}
1002
{
1000
BEHIND
1070
     0
1002
}
1002
{
1000
OTHER
1070
     0
1002
}
1002
{
1000
REACTOR
1002
}
1001
GENIUS_GENOLIS_13
1002
{
1000
ENT
1005
2385
1005
2384
1005
2383
1005
2382
1002
}
  0
LINE
  5
2394
330
1F
100
AcDbEntity
  8
AM_7
  6
AM_ISO08W050x2
100
AcDbLine
 10
2703.318993775974
 20
1490.957190073916
 30
0.0
 11
2709.818993775974
 21
1490.957190073916
 31
0.0
1001
GENIUS_GENOREF_13
1005
2398
  0
LINE
  5
2395
330
1F
100
AcDbEntity
  8
AM_7
  6
AM_ISO08W050x2
100
AcDbLine
 10
2703.318993775974
 20
1490.957190073916
 30
0.0
 11
2703.318993775974
 21
1497.457190073916
 31
0.0
1001
GENIUS_GENOREF_13
1005
2398
  0
LINE
  5
2396
330
1F
100
AcDbEntity
  8
AM_7
  6
AM_ISO08W050x2
100
AcDbLine
 10
2703.318993775974
 20
1490.957190073916
 30
0.0
 11
2696.818993775974
 21
1490.957190073916
 31
0.0
1001
GENIUS_GENOREF_13
1005
2398
  0
LINE
  5
2397
330
1F
100
AcDbEntity
  8
AM_7
  6
AM_ISO08W050x2
100
AcDbLine
 10
2703.318993775974
 20
1490.957190073916
 30
0.0
 11
2703.318993775974
 21
1484.457190073916
 31
0.0
1001
GENIUS_GENOREF_13
1005
2398
  0
POINT
  5
2398
330
1F
100
AcDbEntity
  8
0
 60
     1
100
AcDbPoint
 10
0.0
 20
0.0
 30
0.0
1001
GENIUS_GENOENT_13
1002
{
1000
MYREF
1005
2398
1002
}
1002
{
1000
GRP
1005
0
1002
}
1001
GENIUS_GENOBJ-N-CRS_13
1002
{
1000
OWNER
1000
GEN
1002
}
1001
GENIUS_GENODEF_13
1002
{
1000
HIER
1070
    10
1002
}
1002
{
1000
MANEDIT
1070
     0
1002
}
1002
{
1000
NOSEL
1070
     0
1002
}
1002
{
1000
BEHIND
1070
     0
1002
}
1002
{
1000
OTHER
1070
     0
1002
}
1002
{
1000
REACTOR
1002
}
1001
GENIUS_GENOLIS_13
1002
{
1000
ENT
1005
2397
1005
2396
1005
2395
1005
2394
1002
}
  0
LINE
  5
23A6
330
1F
100
AcDbEntity
  8
AM_7
  6
AM_ISO08W050x2
100
AcDbLine
 10
2669.318993775974
 20
1490.957190073916
 30
0.0
 11
2674.818993775974
 21
1490.957190073916
 31
0.0
1001
GENIUS_GENOREF_13
1005
23AA
  0
LINE
  5
23A7
330
1F
100
AcDbEntity
  8
AM_7
  6
AM_ISO08W050x2
100
AcDbLine
 10
2669.318993775974
 20
1490.957190073916
 30
0.0
 11
2669.318993775974
 21
1496.457190073916
 31
0.0
1001
GENIUS_GENOREF_13
1005
23AA
  0
LINE
  5
23A8
330
1F
100
AcDbEntity
  8
AM_7
  6
AM_ISO08W050x2
100
AcDbLine
 10
2669.318993775974
 20
1490.957190073916
 30
0.0
 11
2663.818993775973
 21
1490.957190073916
 31
0.0
1001
GENIUS_GENOREF_13
1005
23AA
  0
LINE
  5
23A9
330
1F
100
AcDbEntity
  8
AM_7
  6
AM_ISO08W050x2
100
AcDbLine
 10
2669.318993775974
 20
1490.957190073916
 30
0.0
 11
2669.318993775974
 21
1485.457190073916
 31
0.0
1001
GENIUS_GENOREF_13
1005
23AA
  0
POINT
  5
23AA
330
1F
100
AcDbEntity
  8
0
 60
     1
100
AcDbPoint
 10
0.0
 20
0.0
 30
0.0
1001
GENIUS_GENODEF_13
1002
{
1000
HIER
1070
    10
1002
}
1002
{
1000
MANEDIT
1070
     0
1002
}
1002
{
1000
NOSEL
1070
     0
1002
}
1002
{
1000
BEHIND
1070
     0
1002
}
1002
{
1000
OTHER
1070
     0
1002
}
1002
{
1000
REACTOR
1002
}
1001
GENIUS_GENOENT_13
1002
{
1000
MYREF
1005
23AA
1002
}
1002
{
1000
GRP
1005
0
1002
}
1001
GENIUS_GENOBJ-N-CRS_13
1002
{
1000
OWNER
1000
GEN
1002
}
1001
GENIUS_GENOLIS_13
1002
{
1000
ENT
1005
23A9
1005
23A8
1005
23A7
1005
23A6
1002
}
  0
ENDSEC
  0
SECTION
  2
OBJECTS
  0
DICTIONARY
  5
C
330
0
100
AcDbDictionary
281
     1
  3
ACAD_COLOR
350
BE
  3
ACAD_GROUP
350
D
  3
ACAD_LAYOUT
350
1A
  3
ACAD_MATERIAL
350
BD
  3
ACAD_MLINESTYLE
350
17
  3
ACAD_PLOTSETTINGS
350
19
  3
ACAD_PLOTSTYLENAME
350
E
  3
ACAD_TABLESTYLE
350
11A
  3
ACDBHEADERROUNDTRIPXREC
350
26B7
  3
AcDbVariableDictionary
350
94
  3
AcmDictionary
350
5B
  3
AMG
350
41
  3
AMGSNAPSETTINGS
350
1B8
  3
DWGPROPS
350
26B6
  0
DICTIONARY
  5
3F9
330
2
100
AcDbDictionary
280
     1
281
     1
  3
ACAD_LAYERFILTERS
360
5B7
  3
ACAD_LAYERSTATES
360
814
  3
ACLYDICTIONARY
360
5B6
  3
AMLAYER_GROUPCOLORS
360
BD3
  0
DICTIONARY
  5
8F
330
1F
100
AcDbDictionary
280
     1
281
     1
  3
ACAD_SORTENTS
360
C06
  0
DICTIONARY
  5
BE
102
{ACAD_REACTORS
330
C
102
}
330
C
100
AcDbDictionary
281
     1
  0
DICTIONARY
  5
D
102
{ACAD_REACTORS
330
C
102
}
330
C
100
AcDbDictionary
281
     1
  0
DICTIONARY
  5
1A
102
{ACAD_REACTORS
330
C
102
}
330
C
100
AcDbDictionary
281
     1
  3
Model
350
22
  3
配置1
350
1E
  3
配置2
350
26
  0
DICTIONARY
  5
BD
102
{ACAD_REACTORS
330
C
102
}
330
C
100
AcDbDictionary
281
     1
  0
DICTIONARY
  5
17
102
{ACAD_REACTORS
330
C
102
}
330
C
100
AcDbDictionary
281
     1
  3
Standard
350
18
  0
DICTIONARY
  5
19
102
{ACAD_REACTORS
330
C
102
}
330
C
100
AcDbDictionary
281
     1
  0
ACDBDICTIONARYWDFLT
  5
E
102
{ACAD_REACTORS
330
C
102
}
330
C
100
AcDbDictionary
281
     1
  3
Normal
350
F
100
AcDbDictionaryWithDefault
340
F
  0
DICTIONARY
  5
11A
102
{ACAD_REACTORS
330
C
102
}
330
C
100
AcDbDictionary
281
     1
  3
Standard
350
11B
  0
DICTIONARY
  5
26B7
102
{ACAD_REACTORS
330
C
102
}
330
C
100
AcDbDictionary
281
     1
  0
DICTIONARY
  5
94
102
{ACAD_REACTORS
330
C
102
}
330
C
100
AcDbDictionary
281
     1
  3
CTABLESTYLE
350
138
  3
DIMASSOC
350
96
  3
INDEXCTL
350
95
  3
PROJECTNAME
350
26B4
  0
DICTIONARY
  5
5B
102
{ACAD_REACTORS
330
C
102
}
330
C
100
AcDbDictionary
281
     1
  3
AcmBOM
350
1B5
  3
AcmStdDictionary
350
61
  3
AMDTSECTSYM_ARROWCOLOR
350
123
  0
DICTIONARY
  5
41
102
{ACAD_REACTORS
330
C
102
}
330
C
100
AcDbDictionary
281
     1
  0
DICTIONARY
  5
1B8
102
{ACAD_REACTORS
330
C
102
}
330
C
100
AcDbDictionary
281
     1
  0
XRECORD
  5
26B6
102
{ACAD_REACTORS
330
C
102
}
330
C
100
AcDbXrecord
280
     1
  1
DWGPROPS COOKIE
  2

  3

  4

  6

  7

  8

  9

300
AmdtFileType=84
301
=
302
=
303
=
304
=
305
=
306
=
307
=
308
=
309
=
 40
0.2213118634259259
 41
2453809.488480533
 42
2453815.446536632
  1

 90
        1
  0
DICTIONARY
  5
5B7
102
{ACAD_REACTORS
330
3F9
102
}
330
3F9
100
AcDbDictionary
281
     1
  0
DICTIONARY
  5
814
102
{ACAD_REACTORS
330
3F9
102
}
330
3F9
100
AcDbDictionary
281
     1
  0
DICTIONARY
  5
5B6
102
{ACAD_REACTORS
330
3F9
102
}
330
3F9
100
AcDbDictionary
281
     1
1001
ACAD
1000
<All
  0
DICTIONARY
  5
BD3
102
{ACAD_REACTORS
330
3F9
102
}
330
3F9
100
AcDbDictionary
280
     1
281
     1
  0
SORTENTSTABLE
  5
C06
102
{ACAD_REACTORS
330
8F
102
}
330
8F
100
AcDbSortentsTable
330
1F
331
15F9
  5
15F9
331
21C5
  5
21C5
331
15CA
  5
15CA
331
1601
  5
1601
331
214F
  5
214F
331
218E
  5
218E
331
220C
  5
220C
331
15D2
  5
15D2
331
1609
  5
1609
331
2157
  5
2157
331
2196
  5
2196
331
2214
  5
2214
331
2245
  5
2245
331
228C
  5
228C
331
215F
  5
215F
331
1611
  5
1611
331
219E
  5
219E
331
221C
  5
221C
331
224D
  5
224D
331
2294
  5
2294
331
21E5
  5
21E5
331
2167
  5
2167
331
21A6
  5
21A6
331
2224
  5
2224
331
2255
  5
2255
331
229C
  5
229C
331
22AC
  5
22AC
331
EE9
  5
EE9
331
15A3
  5
15A3
331
15E2
  5
15E2
331
1619
  5
1619
331
222C
  5
222C
331
216F
  5
216F
331
1621
  5
1621
331
15AB
  5
15AB
331
15EA
  5
15EA
331
1FA8
  5
1FA8
331
21AE
  5
21AE
331
21ED
  5
21ED
331
2234
  5
2234
331
21B6
  5
21B6
331
15F2
  5
15F2
331
15B3
  5
15B3
331
1629
  5
1629
331
2177
  5
2177
331
21F5
  5
21F5
331
226D
  5
226D
331
223C
  5
223C
331
21BE
  5
21BE
331
15BB
  5
15BB
331
217F
  5
217F
331
21FD
  5
21FD
331
2275
  5
2275
331
2187
  5
2187
331
2205
  5
2205
331
227D
  5
227D
331
2285
  5
2285
331
15FA
  5
15FA
331
21C6
  5
21C6
331
1602
  5
1602
331
2150
  5
2150
331
218F
  5
218F
331
220D
  5
220D
331
15D3
  5
15D3
331
160A
  5
160A
331
2158
  5
2158
331
2197
  5
2197
331
2215
  5
2215
331
2246
  5
2246
331
228D
  5
228D
331
2160
  5
2160
331
1612
  5
1612
331
219F
  5
219F
331
221D
  5
221D
331
224E
  5
224E
331
2295
  5
2295
331
21E6
  5
21E6
331
2225
  5
2225
331
2256
  5
2256
331
22AD
  5
22AD
331
15A4
  5
15A4
331
15E3
  5
15E3
331
161A
  5
161A
331
222D
  5
222D
331
21AF
  5
21AF
331
1622
  5
1622
331
15AC
  5
15AC
331
15EB
  5
15EB
331
2170
  5
2170
331
21EE
  5
21EE
331
2235
  5
2235
331
21B7
  5
21B7
331
15F3
  5
15F3
331
15B4
  5
15B4
331
162A
  5
162A
331
2178
  5
2178
331
21F6
  5
21F6
331
226E
  5
226E
331
223D
  5
223D
331
21BF
  5
21BF
331
15BC
  5
15BC
331
2180
  5
2180
331
21FE
  5
21FE
331
2276
  5
2276
331
2206
  5
2206
331
227E
  5
227E
331
2286
  5
2286
331
EC3
  5
EC3
331
15FB
  5
15FB
331
2188
  5
2188
331
21C7
  5
21C7
331
1603
  5
1603
331
2151
  5
2151
331
2190
  5
2190
331
220E
  5
220E
331
14F5
  5
14F5
331
15D4
  5
15D4
331
160B
  5
160B
331
2159
  5
2159
331
2198
  5
2198
331
2216
  5
2216
331
2247
  5
2247
331
228E
  5
228E
331
21DF
  5
21DF
331
2161
  5
2161
331
1613
  5
1613
331
21A0
  5
21A0
331
221E
  5
221E
331
224F
  5
224F
331
2296
  5
2296
331
2226
  5
2226
331
2257
  5
2257
331
22AE
  5
22AE
331
15A5
  5
15A5
331
161B
  5
161B
331
222E
  5
222E
331
21B0
  5
21B0
331
2171
  5
2171
331
1623
  5
1623
331
15AD
  5
15AD
331
15EC
  5
15EC
331
21EF
  5
21EF
331
2236
  5
2236
331
21B8
  5
21B8
331
2179
  5
2179
331
162B
  5
162B
331
15F4
  5
15F4
331
15B5
  5
15B5
331
21F7
  5
21F7
331
226F
  5
226F
331
223E
  5
223E
331
2181
  5
2181
331
15BD
  5
15BD
331
21FF
  5
21FF
331
2277
  5
2277
331
22E6
  5
22E6
331
2207
  5
2207
331
227F
  5
227F
331
2287
  5
2287
331
1022
  5
1022
331
21C0
  5
21C0
331
2189
  5
2189
331
15FC
  5
15FC
331
15C5
  5
15C5
331
1266
  5
1266
331
21C8
  5
21C8
331
2152
  5
2152
331
1604
  5
1604
331
2191
  5
2191
331
220F
  5
220F
331
2240
  5
2240
331
160C
  5
160C
331
15D5
  5
15D5
331
215A
  5
215A
331
2199
  5
2199
331
2217
  5
2217
331
2248
  5
2248
331
228F
  5
228F
331
21E0
  5
21E0
331
2162
  5
2162
331
1614
  5
1614
331
15DD
  5
15DD
331
21A1
  5
21A1
331
221F
  5
221F
331
2250
  5
2250
331
2297
  5
2297
331
2227
  5
2227
331
2258
  5
2258
331
22AF
  5
22AF
331
E65
  5
E65
331
21A9
  5
21A9
331
161C
  5
161C
331
15A6
  5
15A6
331
222F
  5
222F
331
21B1
  5
21B1
331
1624
  5
1624
331
15AE
  5
15AE
331
15ED
  5
15ED
331
2172
  5
2172
331
21F0
  5
21F0
331
2268
  5
2268
331
2237
  5
2237
331
21B9
  5
21B9
331
217A
  5
217A
331
15F5
  5
15F5
331
15B6
  5
15B6
331
21F8
  5
21F8
331
223F
  5
223F
331
2182
  5
2182
331
15BE
  5
15BE
331
2200
  5
2200
331
2278
  5
2278
331
22E7
  5
22E7
331
2280
  5
2280
331
E9D
  5
E9D
331
21C1
  5
21C1
331
218A
  5
218A
331
15FD
  5
15FD
331
2208
  5
2208
331
2241
  5
2241
331
2288
  5
2288
331
21C9
  5
21C9
331
2153
  5
2153
331
1605
  5
1605
331
15CE
  5
15CE
331
2192
  5
2192
331
2210
  5
2210
331
2249
  5
2249
331
2290
  5
2290
331
160D
  5
160D
331
215B
  5
215B
331
219A
  5
219A
331
2218
  5
2218
331
2251
  5
2251
331
2298
  5
2298
331
21E1
  5
21E1
331
1615
  5
1615
331
2163
  5
2163
331
21A2
  5
21A2
331
2220
  5
2220
331
FFC
  5
FFC
331
216B
  5
216B
331
15A7
  5
15A7
331
161D
  5
161D
331
2228
  5
2228
331
2269
  5
2269
331
2230
  5
2230
331
21B2
  5
21B2
331
15AF
  5
15AF
331
15EE
  5
15EE
331
1625
  5
1625
331
2173
  5
2173
331
21F1
  5
21F1
331
2238
  5
2238
331
21BA
  5
21BA
331
15F6
  5
15F6
331
15B7
  5
15B7
331
217B
  5
217B
331
21F9
  5
21F9
331
2279
  5
2279
331
22E8
  5
22E8
331
15BF
  5
15BF
331
2183
  5
2183
331
2201
  5
2201
331
2281
  5
2281
331
F85
  5
F85
331
21C2
  5
21C2
331
15FE
  5
15FE
331
218B
  5
218B
331
2209
  5
2209
331
2242
  5
2242
331
2289
  5
2289
331
21CA
  5
21CA
331
15CF
  5
15CF
331
1606
  5
1606
331
2154
  5
2154
331
2193
  5
2193
331
2211
  5
2211
331
224A
  5
224A
331
2291
  5
2291
331
160E
  5
160E
331
215C
  5
215C
331
219B
  5
219B
331
2219
  5
2219
331
2252
  5
2252
331
2299
  5
2299
331
21E2
  5
21E2
331
1616
  5
1616
331
2164
  5
2164
331
21A3
  5
21A3
331
2221
  5
2221
331
216C
  5
216C
331
15A8
  5
15A8
331
15E7
  5
15E7
331
161E
  5
161E
331
2229
  5
2229
331
226A
  5
226A
331
2231
  5
2231
331
21B3
  5
21B3
331
15EF
  5
15EF
331
15B0
  5
15B0
331
1626
  5
1626
331
2174
  5
2174
331
21F2
  5
21F2
331
2239
  5
2239
331
21BB
  5
21BB
331
15F7
  5
15F7
331
15B8
  5
15B8
331
217C
  5
217C
331
21FA
  5
21FA
331
227A
  5
227A
331
22E9
  5
22E9
331
2184
  5
2184
331
2202
  5
2202
331
2282
  5
2282
331
15C0
  5
15C0
331
21C3
  5
21C3
331
15FF
  5
15FF
331
214D
  5
214D
331
218C
  5
218C
331
220A
  5
220A
331
2243
  5
2243
331
228A
  5
228A
331
21CB
  5
21CB
331
15D0
  5
15D0
331
1607
  5
1607
331
2155
  5
2155
331
2194
  5
2194
331
2212
  5
2212
331
224B
  5
224B
331
2292
  5
2292
331
1509
  5
1509
331
160F
  5
160F
331
215D
  5
215D
331
219C
  5
219C
331
221A
  5
221A
331
2253
  5
2253
331
229A
  5
229A
331
1617
  5
1617
331
2165
  5
2165
331
21E3
  5
21E3
331
2222
  5
2222
331
FD6
  5
FD6
331
F0F
  5
F0F
331
222A
  5
222A
331
216D
  5
216D
331
15A9
  5
15A9
331
15E8
  5
15E8
331
161F
  5
161F
331
21AC
  5
21AC
331
21EB
  5
21EB
331
226B
  5
226B
331
2232
  5
2232
331
21B4
  5
21B4
331
15F0
  5
15F0
331
15B1
  5
15B1
331
1627
  5
1627
331
2175
  5
2175
331
21F3
  5
21F3
331
223A
  5
223A
331
21BC
  5
21BC
331
15B9
  5
15B9
331
217D
  5
217D
331
21FB
  5
21FB
331
227B
  5
227B
331
2185
  5
2185
331
2203
  5
2203
331
2283
  5
2283
331
15C1
  5
15C1
331
15F8
  5
15F8
331
21C4
  5
21C4
331
15C9
  5
15C9
331
1600
  5
1600
331
214E
  5
214E
331
218D
  5
218D
331
220B
  5
220B
331
2244
  5
2244
331
228B
  5
228B
331
21CC
  5
21CC
331
15D1
  5
15D1
331
1608
  5
1608
331
2156
  5
2156
331
2195
  5
2195
331
2213
  5
2213
331
224C
  5
224C
331
2293
  5
2293
331
1F2F
  5
1F2F
331
15D9
  5
15D9
331
1610
  5
1610
331
215E
  5
215E
331
219D
  5
219D
331
221B
  5
221B
331
2254
  5
2254
331
229B
  5
229B
331
2166
  5
2166
331
21E4
  5
21E4
331
2223
  5
2223
331
15A2
  5
15A2
331
15E1
  5
15E1
331
1618
  5
1618
331
222B
  5
222B
331
216E
  5
216E
331
1620
  5
1620
331
15AA
  5
15AA
331
15E9
  5
15E9
331
21AD
  5
21AD
331
21EC
  5
21EC
331
226C
  5
226C
331
2233
  5
2233
331
21B5
  5
21B5
331
15F1
  5
15F1
331
15B2
  5
15B2
331
1628
  5
1628
331
2176
  5
2176
331
21F4
  5
21F4
331
2274
  5
2274
331
223B
  5
223B
331
21BD
  5
21BD
331
15BA
  5
15BA
331
217E
  5
217E
331
21FC
  5
21FC
331
227C
  5
227C
331
2186
  5
2186
331
2204
  5
2204
331
2284
  5
2284
  0
LAYOUT
  5
22
102
{ACAD_XDICTIONARY
360
26BA
102
}
102
{ACAD_REACTORS
330
1A
102
}
330
1A
100
AcDbPlotSettings
  1

  2
\\RD\EPSON Stylus C63 Series單色
  4
A4
  6

 40
3.757083177566528
 41
3.757076978683471
 42
3.757080078125
 43
3.757080078125
 44
209.9733276367187
 45
296.9683227539062
 46
0.0
 47
0.0
 48
0.0
 49
0.0
140
0.0
141
0.0
142
1.0
143
0.3405120737814363
 70
 11952
 72
     1
 73
     0
 74
     0
  7
單色出圖.ctb
 75
     0
147
2.936753428137963
148
-2047.07469463503
149
-1261.649717473083
100
AcDbLayout
  1
Model
 70
     1
 71
     0
 10
0.0
 20
0.0
 11
12.0
 21
9.0
 12
0.0
 22
0.0
 32
0.0
 14
0.0
 24
0.0
 34
0.0
 15
0.0
 25
0.0
 35
0.0
146
0.0
 13
0.0
 23
0.0
 33
0.0
 16
1.0
 26
0.0
 36
0.0
 17
0.0
 27
1.0
 37
0.0
 76
     0
330
1F
1001
ACAD_PSEXT
1000
\\RD\EPSON Stylus C63 Series單色
1000
EPSON Stylus C63 Series
1000
\\RD
1000

1070
     0
  0
LAYOUT
  5
1E
102
{ACAD_XDICTIONARY
360
26B8
102
}
102
{ACAD_REACTORS
330
1A
102
}
330
1A
100
AcDbPlotSettings
  1

  2

  4

  6

 40
0.0
 41
0.0
 42
0.0
 43
0.0
 44
0.0
 45
0.0
 46
0.0
 47
0.0
 48
0.0
 49
0.0
140
0.0
141
0.0
142
1.0
143
1.0
 70
   688
 72
     0
 73
     0
 74
     5
  7
單色出圖.ctb
 75
    16
147
1.0
148
0.0
149
0.0
100
AcDbLayout
  1
配置1
 70
     1
 71
     1
 10
0.0
 20
0.0
 11
420.0
 21
297.0
 12
0.0
 22
0.0
 32
0.0
 14
1.000000000000000E+20
 24
1.000000000000000E+20
 34
1.000000000000000E+20
 15
-1.000000000000000E+20
 25
-1.000000000000000E+20
 35
-1.000000000000000E+20
146
0.0
 13
0.0
 23
0.0
 33
0.0
 16
1.0
 26
0.0
 36
0.0
 17
0.0
 27
1.0
 37
0.0
 76
     0
330
1B
  0
LAYOUT
  5
26
102
{ACAD_XDICTIONARY
360
26BC
102
}
102
{ACAD_REACTORS
330
1A
102
}
330
1A
100
AcDbPlotSettings
  1

  2

  4

  6

 40
0.0
 41
0.0
 42
0.0
 43
0.0
 44
0.0
 45
0.0
 46
0.0
 47
0.0
 48
0.0
 49
0.0
140
0.0
141
0.0
142
1.0
143
1.0
 70
   688
 72
     0
 73
     0
 74
     5
  7
單色出圖.ctb
 75
    16
147
1.0
148
0.0
149
0.0
100
AcDbLayout
  1
配置2
 70
     1
 71
     2
 10
0.0
 20
0.0
 11
12.0
 21
9.0
 12
0.0
 22
0.0
 32
0.0
 14
0.0
 24
0.0
 34
0.0
 15
0.0
 25
0.0
 35
0.0
146
0.0
 13
0.0
 23
0.0
 33
0.0
 16
1.0
 26
0.0
 36
0.0
 17
0.0
 27
1.0
 37
0.0
 76
     0
330
23
  0
MLINESTYLE
  5
18
102
{ACAD_REACTORS
330
17
102
}
330
17
100
AcDbMlineStyle
  2
STANDARD
 70
     0
  3

 62
   256
 51
90.0
 52
90.0
 71
     2
 49
0.5
 62
   256
  6
BYLAYER
 49
-0.5
 62
   256
  6
BYLAYER
  0
ACDBPLACEHOLDER
  5
F
102
{ACAD_REACTORS
330
E
102
}
330
E
  0
TABLESTYLE
  5
11B
102
{ACAD_REACTORS
330
11A
102
}
330
11A
100
AcDbTableStyle
  3
Standard
 70
     0
 71
     0
 40
1.5
 41
1.5
280
     0
281
     0
  7
STANDARD
140
4.5
170
     2
 62
     0
 63
     7
283
     0
274
    -2
284
     1
 64
     0
275
    -2
285
     1
 65
     0
276
    -2
286
     1
 66
     0
277
    -2
287
     1
 67
     0
278
    -2
288
     1
 68
     0
279
    -2
289
     1
 69
     0
  7
STANDARD
140
6.0
170
     5
 62
     0
 63
     7
283
     0
274
    -2
284
     1
 64
     0
275
    -2
285
     1
 65
     0
276
    -2
286
     1
 66
     0
277
    -2
287
     1
 67
     0
278
    -2
288
     1
 68
     0
279
    -2
289
     1
 69
     0
  7
STANDARD
140
4.5
170
     5
 62
     0
 63
     7
283
     0
274
    -2
284
     1
 64
     0
275
    -2
285
     1
 65
     0
276
    -2
286
     1
 66
     0
277
    -2
287
     1
 67
     0
278
    -2
288
     1
 68
     0
279
    -2
289
     1
 69
     0
  0
DICTIONARYVAR
  5
138
102
{ACAD_REACTORS
330
94
102
}
330
94
100
DictionaryVariables
280
     0
  1
STANDARD
  0
DICTIONARYVAR
  5
96
102
{ACAD_REACTORS
330
94
102
}
330
94
100
DictionaryVariables
280
     0
  1
2
  0
DICTIONARYVAR
  5
95
102
{ACAD_REACTORS
330
94
102
}
330
94
100
DictionaryVariables
280
     0
  1
0
  0
DICTIONARYVAR
  5
26B4
102
{ACAD_REACTORS
330
94
102
}
330
94
100
DictionaryVariables
280
     0
  1

  0
DICTIONARY
  5
1B5
102
{ACAD_REACTORS
330
5B
102
}
330
5B
100
AcDbDictionary
281
     1
  0
DICTIONARY
  5
61
102
{ACAD_REACTORS
330
5B
102
}
330
5B
100
AcDbDictionary
281
     1
  0
XRECORD
  5
123
102
{ACAD_REACTORS
330
5B
102
}
330
5B
100
AcDbXrecord
280
     1
 90
-1023410169
  0
DICTIONARY
  5
26BA
330
22
100
AcDbDictionary
280
     1
281
     1
  3
ACAD_XREC_ROUNDTRIP
360
26BB
  0
DICTIONARY
  5
26B8
330
1E
100
AcDbDictionary
280
     1
281
     1
  3
ACAD_XREC_ROUNDTRIP
360
26B9
  0
DICTIONARY
  5
26BC
330
26
100
AcDbDictionary
280
     1
281
     1
  3
ACAD_XREC_ROUNDTRIP
360
26BD
  0
XRECORD
  5
26BB
102
{ACAD_REACTORS
330
26BA
102
}
330
26BA
100
AcDbXrecord
280
     1
102
SHADEPLOT
 70
     0
102
SHADEPLOTRESLEVEL
 70
     2
102
SHADEPLOTCUSTOMDPI
 70
   300
  0
XRECORD
  5
26B9
102
{ACAD_REACTORS
330
26B8
102
}
330
26B8
100
AcDbXrecord
280
     1
102
SHADEPLOT
 70
     0
102
SHADEPLOTRESLEVEL
 70
     2
102
SHADEPLOTCUSTOMDPI
 70
   300
  0
XRECORD
  5
26BD
102
{ACAD_REACTORS
330
26BC
102
}
330
26BC
100
AcDbXrecord
280
     1
102
SHADEPLOT
 70
     0
102
SHADEPLOTRESLEVEL
 70
     2
102
SHADEPLOTCUSTOMDPI
 70
   300
  0
ENDSEC
  0
EOF
