  0
SECTION
  2
HEADER
  9
$ACADVER
  1
AC1015
  9
$ACADMAINTVER
 70
    20
  9
$DWGCODEPAGE
  3
ANSI_950
  9
$INSBASE
 10
0.0
 20
0.0
 30
0.0
  9
$EXTMIN
 10
2372.840141778626
 20
1357.712481276152
 30
-0.0107072918218592
  9
$EXTMAX
 10
2637.660656576645
 20
1698.027983939148
 30
173.392018291949
  9
$LIMMIN
 10
0.0
 20
0.0
  9
$LIMMAX
 10
420.0
 20
297.0
  9
$ORTHOMODE
 70
     0
  9
$REGENMODE
 70
     1
  9
$FILLMODE
 70
     1
  9
$QTEXTMODE
 70
     0
  9
$MIRRTEXT
 70
     1
  9
$LTSCALE
 40
1.0
  9
$ATTMODE
 70
     1
  9
$TEXTSIZE
 40
3.0
  9
$TRACEWID
 40
1.0
  9
$TEXTSTYLE
  7
CHINESET
  9
$CLAYER
  8
0
  9
$CELTYPE
  6
ByLayer
  9
$CECOLOR
 62
   256
  9
$CELTSCALE
 40
1.0
  9
$DISPSILH
 70
     0
  9
$DIMSCALE
 40
1.0
  9
$DIMASZ
 40
3.0
  9
$DIMEXO
 40
1.0
  9
$DIMDLI
 40
10.0
  9
$DIMRND
 40
0.0
  9
$DIMDLE
 40
0.0
  9
$DIMEXE
 40
1.5
  9
$DIMTP
 40
0.1
  9
$DIMTM
 40
0.1
  9
$DIMTXT
 40
3.0
  9
$DIMCEN
 40
0.0
  9
$DIMTSZ
 40
0.0
  9
$DIMTOL
 70
     0
  9
$DIMLIM
 70
     0
  9
$DIMTIH
 70
     0
  9
$DIMTOH
 70
     0
  9
$DIMSE1
 70
     0
  9
$DIMSE2
 70
     0
  9
$DIMTAD
 70
     1
  9
$DIMZIN
 70
     8
  9
$DIMBLK
  1

  9
$DIMASO
 70
     1
  9
$DIMSHO
 70
     1
  9
$DIMPOST
  1

  9
$DIMAPOST
  1
"
  9
$DIMALT
 70
     0
  9
$DIMALTD
 70
     2
  9
$DIMALTF
 40
0.0393701
  9
$DIMLFAC
 40
1.0
  9
$DIMTOFL
 70
     1
  9
$DIMTVP
 40
0.0
  9
$DIMTIX
 70
     0
  9
$DIMSOXD
 70
     0
  9
$DIMSAH
 70
     0
  9
$DIMBLK1
  1

  9
$DIMBLK2
  1

  9
$DIMSTYLE
  2
AM_ISO
  9
$DIMCLRD
 70
   256
  9
$DIMCLRE
 70
   256
  9
$DIMCLRT
 70
   256
  9
$DIMTFAC
 40
0.6
  9
$DIMGAP
 40
1.0
  9
$DIMJUST
 70
     0
  9
$DIMSD1
 70
     0
  9
$DIMSD2
 70
     0
  9
$DIMTOLJ
 70
     0
  9
$DIMTZIN
 70
     8
  9
$DIMALTZ
 70
     0
  9
$DIMALTTZ
 70
     0
  9
$DIMUPT
 70
     0
  9
$DIMDEC
 70
     2
  9
$DIMTDEC
 70
     8
  9
$DIMALTU
 70
     2
  9
$DIMALTTD
 70
     2
  9
$DIMTXSTY
  7
STANDARD
  9
$DIMAUNIT
 70
     0
  9
$DIMADEC
 70
     0
  9
$DIMALTRND
 40
0.0
  9
$DIMAZIN
 70
     2
  9
$DIMDSEP
 70
    46
  9
$DIMATFIT
 70
     3
  9
$DIMFRAC
 70
     0
  9
$DIMLDRBLK
  1

  9
$DIMLUNIT
 70
     2
  9
$DIMLWD
 70
    -1
  9
$DIMLWE
 70
    -1
  9
$DIMTMOVE
 70
     0
  9
$LUNITS
 70
     2
  9
$LUPREC
 70
     2
  9
$SKETCHINC
 40
1.0
  9
$FILLETRAD
 40
2.5
  9
$AUNITS
 70
     0
  9
$AUPREC
 70
     0
  9
$MENU
  1
.
  9
$ELEVATION
 40
0.0
  9
$PELEVATION
 40
0.0
  9
$THICKNESS
 40
0.0
  9
$LIMCHECK
 70
     0
  9
$CHAMFERA
 40
2.5
  9
$CHAMFERB
 40
2.5
  9
$CHAMFERC
 40
20.0
  9
$CHAMFERD
 40
0.0
  9
$SKPOLY
 70
     0
  9
$TDCREATE
 40
2453809.488480533
  9
$TDUCREATE
 40
2453809.155147199
  9
$TDUPDATE
 40
2453815.446119063
  9
$TDUUPDATE
 40
2453815.112785729
  9
$TDINDWG
 40
0.1756533912
  9
$TDUSRTIMER
 40
0.1756533912
  9
$USRTIMER
 70
     1
  9
$ANGBASE
 50
0.0
  9
$ANGDIR
 70
     0
  9
$PDMODE
 70
     0
  9
$PDSIZE
 40
0.0
  9
$PLINEWID
 40
0.0
  9
$SPLFRAME
 70
     0
  9
$SPLINETYPE
 70
     6
  9
$SPLINESEGS
 70
     8
  9
$HANDSEED
  5
2093
  9
$SURFTAB1
 70
     6
  9
$SURFTAB2
 70
     6
  9
$SURFTYPE
 70
     6
  9
$SURFU
 70
     6
  9
$SURFV
 70
     6
  9
$UCSBASE
  2

  9
$UCSNAME
  2

  9
$UCSORG
 10
0.0
 20
0.0
 30
0.0
  9
$UCSXDIR
 10
1.0
 20
0.0
 30
0.0
  9
$UCSYDIR
 10
0.0
 20
1.0
 30
0.0
  9
$UCSORTHOREF
  2

  9
$UCSORTHOVIEW
 70
     0
  9
$UCSORGTOP
 10
0.0
 20
0.0
 30
0.0
  9
$UCSORGBOTTOM
 10
0.0
 20
0.0
 30
0.0
  9
$UCSORGLEFT
 10
0.0
 20
0.0
 30
0.0
  9
$UCSORGRIGHT
 10
0.0
 20
0.0
 30
0.0
  9
$UCSORGFRONT
 10
0.0
 20
0.0
 30
0.0
  9
$UCSORGBACK
 10
0.0
 20
0.0
 30
0.0
  9
$PUCSBASE
  2

  9
$PUCSNAME
  2

  9
$PUCSORG
 10
0.0
 20
0.0
 30
0.0
  9
$PUCSXDIR
 10
1.0
 20
0.0
 30
0.0
  9
$PUCSYDIR
 10
0.0
 20
1.0
 30
0.0
  9
$PUCSORTHOREF
  2

  9
$PUCSORTHOVIEW
 70
     0
  9
$PUCSORGTOP
 10
0.0
 20
0.0
 30
0.0
  9
$PUCSORGBOTTOM
 10
0.0
 20
0.0
 30
0.0
  9
$PUCSORGLEFT
 10
0.0
 20
0.0
 30
0.0
  9
$PUCSORGRIGHT
 10
0.0
 20
0.0
 30
0.0
  9
$PUCSORGFRONT
 10
0.0
 20
0.0
 30
0.0
  9
$PUCSORGBACK
 10
0.0
 20
0.0
 30
0.0
  9
$USERI1
 70
     0
  9
$USERI2
 70
     0
  9
$USERI3
 70
     0
  9
$USERI4
 70
     0
  9
$USERI5
 70
     0
  9
$USERR1
 40
0.0
  9
$USERR2
 40
0.0
  9
$USERR3
 40
0.0
  9
$USERR4
 40
0.0
  9
$USERR5
 40
0.0
  9
$WORLDVIEW
 70
     1
  9
$SHADEDGE
 70
     3
  9
$SHADEDIF
 70
    70
  9
$TILEMODE
 70
     1
  9
$MAXACTVP
 70
    64
  9
$PINSBASE
 10
0.0
 20
0.0
 30
0.0
  9
$PLIMCHECK
 70
     0
  9
$PEXTMIN
 10
1.000000000000000E+20
 20
1.000000000000000E+20
 30
1.000000000000000E+20
  9
$PEXTMAX
 10
-1.000000000000000E+20
 20
-1.000000000000000E+20
 30
-1.000000000000000E+20
  9
$PLIMMIN
 10
0.0
 20
0.0
  9
$PLIMMAX
 10
420.0
 20
297.0
  9
$UNITMODE
 70
     0
  9
$VISRETAIN
 70
     1
  9
$PLINEGEN
 70
     0
  9
$PSLTSCALE
 70
     1
  9
$TREEDEPTH
 70
  3020
  9
$CMLSTYLE
  2
Standard
  9
$CMLJUST
 70
     0
  9
$CMLSCALE
 40
20.0
  9
$PROXYGRAPHICS
 70
     1
  9
$MEASUREMENT
 70
     1
  9
$CELWEIGHT
370
    -1
  9
$ENDCAPS
280
     0
  9
$JOINSTYLE
280
     0
  9
$LWDISPLAY
290
     0
  9
$INSUNITS
 70
     4
  9
$HYPERLINKBASE
  1

  9
$STYLESHEET
  1
彩色出圖.ctb
  9
$XEDIT
290
     1
  9
$CEPSNTYPE
380
     0
  9
$PSTYLEMODE
290
     1
  9
$FINGERPRINTGUID
  2
{5D7CF7E5-09B4-4001-B38A-9C16224019A8}
  9
$VERSIONGUID
  2
{0BF92E88-2871-4B85-A507-13774F2611C7}
  9
$EXTNAMES
290
     1
  9
$PSVPSCALE
 40
0.0
  9
$OLESTARTUP
290
     0
  0
ENDSEC
  0
SECTION
  2
CLASSES
  0
CLASS
  1
ACDBDICTIONARYWDFLT
  2
AcDbDictionaryWithDefault
  3
ObjectDBX Classes
 90
        0
280
     0
281
     0
  0
CLASS
  1
ACDBPLACEHOLDER
  2
AcDbPlaceHolder
  3
ObjectDBX Classes
 90
        0
280
     0
281
     0
  0
CLASS
  1
LAYOUT
  2
AcDbLayout
  3
ObjectDBX Classes
 90
        0
280
     0
281
     0
  0
CLASS
  1
ACME_DOCUMENT
  2
AcMeDbDoc
  3
AcMeServices
 90
        0
280
     0
281
     0
  0
CLASS
  1
AMGSETTINGSOBJ
  2
AmgSettingsObj
  3
"AcadM|Product Description: AutoCAD Mechanical 2000|Company: Autodesk"
 90
        0
280
     0
281
     0
  0
CLASS
  1
ACMESCOPE
  2
AcMeScope
  3
AcMeServices
 90
        0
280
     0
281
     0
  0
CLASS
  1
ACMECOMMANDHISTORY
  2
AcMeCommandHistory
  3
AcMeServices
 90
        0
280
     0
281
     0
  0
CLASS
  1
ACIMSYSVARMAN
  2
AcImSysVarManager
  3
AcMeServices
 90
        0
280
     0
281
     0
  0
CLASS
  1
ACIMREALSYSVAR
  2
AcImRealSysVar
  3
AcMeServices
 90
        0
280
     0
281
     0
  0
CLASS
  1
ACIMINTSYSVAR
  2
AcImIntSysVar
  3
AcMeServices
 90
        0
280
     0
281
     0
  0
CLASS
  1
ACMEDRAWINGMAN
  2
AcMeDrawingMan
  3
AcMeServices
 90
        0
280
     0
281
     0
  0
CLASS
  1
ACMEVIEW
  2
AcMeView
  3
AcMeServices
 90
        0
280
     0
281
     0
  0
CLASS
  1
ACDBENTITYCACHE
  2
AcMeEntityCache
  3
AcMeServices
 90
        0
280
     0
281
     0
  0
CLASS
  1
GSMANAGER
  2
AcMeGSManager
  3
AcMeServices
 90
        0
280
     0
281
     0
  0
CLASS
  1
AMDTINTERNALREACTOR
  2
AmdtInternalReactor
  3
AcMeServices
 90
        0
280
     0
281
     0
  0
CLASS
  1
ACMESTATEMGR
  2
AcMeStateMgr
  3
AcMeServices
 90
        0
280
     0
281
     0
  0
CLASS
  1
ACGREFMASTER
  2
AcGrefMaster
  3
AcAttribServices
 90
        0
280
     0
281
     0
  0
CLASS
  1
ACME_DATABASE
  2
AcMeDbDatabase
  3
AcMeServices
 90
        0
280
     0
281
     0
  0
CLASS
  1
ACRFINSADJUSTERMGR
  2
AcRfInsAdjusterMgr
  3
AcMeServices
 90
        0
280
     0
281
     0
  0
CLASS
  1
ACGREFACADMASTER
  2
AcGrefacadMaster
  3
AcGrefServices
 90
        0
280
     0
281
     0
  0
CLASS
  1
AMIMASTER
  2
AmiMaster
  3
AmiServices
 90
        0
280
     0
281
     0
  0
CLASS
  1
ACMDATADICTIONARY
  2
AcmDataDictionary
  3
"AcmSymBB|Product Description: AutoCAD Mechanical 2004 DX|Company: Autodesk"
 90
        0
280
     0
281
     0
  0
CLASS
  1
ACMDATAENTRYBLOCK
  2
AcmDataEntryBlock
  3
"AcmSymBB|Product Description: AutoCAD Mechanical 2004 DX|Company: Autodesk"
 90
        0
280
     0
281
     0
  0
CLASS
  1
ACIMSTRSYSVAR
  2
AcImStrSysVar
  3
AcMeServices
 90
        0
280
     0
281
     0
  0
CLASS
  1
ACMSTANDARDISO
  2
AcmStandardISO
  3
"Amdt_StdImp|Product Description: AutoCAD Mechanical 2004 DX|Company: Autodesk"
 90
        0
280
     0
281
     0
  0
CLASS
  1
AMGOBJPROPCFG
  2
AmgObjPropCfg
  3
"AmgLay|Product Description: AutoCAD Mechanical 2000|Company: Autodesk"
 90
        1
280
     0
281
     0
  0
CLASS
  1
AMDTEDGESTANDARDISO
  2
AmdtEdgeStdISO
  3
"Amdt_StdImp|Product Description: AutoCAD Mechanical 2004 DX|Company: Autodesk"
 90
        0
280
     0
281
     0
  0
CLASS
  1
ACMSURFSTANDARDISO
  2
AcmSurfTextStdISO
  3
"Amdt_StdImp|Product Description: AutoCAD Mechanical 2004 DX|Company: Autodesk"
 90
        0
280
     0
281
     0
  0
CLASS
  1
ACMFCFSTANDARDISO
  2
AcmFCFStdISO
  3
"Amdt_StdImp|Product Description: AutoCAD Mechanical 2004 DX|Company: Autodesk"
 90
        0
280
     0
281
     0
  0
CLASS
  1
ACMWELDSTANDARDISO
  2
AcmWeldingStdISO
  3
"Amdt_StdImp|Product Description: AutoCAD Mechanical 2004 DX|Company: Autodesk"
 90
        0
280
     0
281
     0
  0
CLASS
  1
ACMIDSTANDARDISO
  2
AcmIdStdISO
  3
"Amdt_StdImp|Product Description: AutoCAD Mechanical 2004 DX|Company: Autodesk"
 90
        0
280
     0
281
     0
  0
CLASS
  1
ACMDATUMSTANDARDISO
  2
AcmDatumStdISO
  3
"Amdt_StdImp|Product Description: AutoCAD Mechanical 2004 DX|Company: Autodesk"
 90
        0
280
     0
281
     0
  0
CLASS
  1
ACMBOMSTANDARDISO
  2
AcmBOMStdISO
  3
"Amdt_StdImp|Product Description: AutoCAD Mechanical 2004 DX|Company: Autodesk"
 90
        0
280
     0
281
     0
  0
CLASS
  1
ACMDETAILSTANDARDISO
  2
AmdtDetailSymStdISO
  3
"Amdt_StdImp|Product Description: AutoCAD Mechanical 2004 DX|Company: Autodesk"
 90
        0
280
     0
281
     0
  0
CLASS
  1
ACMSECTIONSTANDARDISO
  2
AmdtSectionSymStdISO
  3
"Amdt_StdImp|Product Description: AutoCAD Mechanical 2004 DX|Company: Autodesk"
 90
        0
280
     0
281
     0
  0
CLASS
  1
ACMCENTERLINESTANDARDISO
  2
AmdtCenterLineStdISO
  3
"Amdt_StdImp|Product Description: AutoCAD Mechanical 2004 DX|Company: Autodesk"
 90
        0
280
     0
281
     0
  0
CLASS
  1
ACMNOTESTANDARDISO
  2
AmdtNoteStdISO
  3
"Amdt_StdImp|Product Description: AutoCAD Mechanical 2004 DX|Company: Autodesk"
 90
        0
280
     0
281
     0
  0
CLASS
  1
ACAMGLAYSTD
  2
AcAmgLayStd
  3
"AcAmgLayStd|Product Description: AutoCAD Mechanical 2000|Company: Autodesk"
 90
        0
280
     0
281
     0
  0
CLASS
  1
ACAMGDIMSTD
  2
AcAmgDimStd
  3
"AcAmgDimStd|Product Description: AutoCAD Mechanical 2000|Company: Autodesk"
 90
        0
280
     0
281
     0
  0
CLASS
  1
ACAMGHOLECHARTSTDISO
  2
AcAmgHoleChartStdISO
  3
ACMSYMBB_MODULE_NAME
 90
        0
280
     0
281
     0
  0
CLASS
  1
ACAMGTITLESTD
  2
AcAmgTitleStd
  3
"TITLEAPP"
 90
        0
280
     0
281
     0
  0
CLASS
  1
LAYER_INDEX
  2
AcDbLayerIndex
  3
ObjectDBX Classes
 90
    32768
280
     0
281
     0
  0
CLASS
  1
IDBUFFER
  2
AcDbIdBuffer
  3
ObjectDBX Classes
 90
    32768
280
     0
281
     0
  0
CLASS
  1
DICTIONARYVAR
  2
AcDbDictionaryVar
  3
ObjectDBX Classes
 90
        0
280
     0
281
     0
  0
CLASS
  1
AM_DRAWING_MGR
  2
AcDmDwgMgr
  3
AcMechDwgViewMgmt
 90
        0
280
     0
281
     0
  0
CLASS
  1
AM_DWG_DOCUMENT
  2
AcDmDwgDocument
  3
AcMechDwgViewMgmt
 90
        0
280
     0
281
     0
  0
CLASS
  1
AM_DWG_SHEET
  2
AcDmSheet
  3
AcMechDwgViewMgmt
 90
        0
280
     0
281
     0
  0
CLASS
  1
AM_VIEWDIMPARMAP
  2
AcDmViewDimParMap
  3
AcMechDwgViewMgmt
 90
        0
280
     0
281
     0
  0
CLASS
  1
AM_DWGMGR_NAME
  2
AcDmDwgMgrName
  3
AcMechDwgViewMgmt
 90
        0
280
     0
281
     0
  0
CLASS
  1
AMDTMENUSTATEMGR
  2
AmdtMenuStateMgr
  3
McadcomServices
 90
        0
280
     0
281
     0
  0
CLASS
  1
AMDTMCOMMENUSTATE
  2
AmdtMcomMenuState
  3
McadcomServices
 90
        0
280
     0
281
     0
  0
CLASS
  1
MAPIAMMOUDLE
  2
MApiAmModule
  3
MApiAmServices
 90
        0
280
     0
281
     0
  0
CLASS
  1
AMDTADMENUSTATE
  2
AmdtAdMenuState
  3
DesignerServices
 90
        0
280
     0
281
     0
  0
CLASS
  1
ADAPPL
  2
AcAdAppl
  3
DesignerServices
 90
        0
280
     0
281
     0
  0
CLASS
  1
DEPMGR
  2
AcAdDepMgr
  3
DesignerServices
 90
        0
280
     0
281
     0
  0
CLASS
  1
PARAMMGR
  2
AcAdParamMgr
  3
DesignerServices
 90
        0
280
     0
281
     0
  0
CLASS
  1
PARAMSCOPE
  2
AcAdParamScope
  3
DesignerServices
 90
        0
280
     0
281
     0
  0
CLASS
  1
NAMEDAPPL
  2
AcAdNamedAppl
  3
DesignerServices
 90
        0
280
     0
281
     0
  0
CLASS
  1
AMDTDMMENUSTATE
  2
AmdtDmMenuState
  3
AcMechDwgViewMgmt
 90
        0
280
     0
281
     0
  0
CLASS
  1
AMDTAMMENUSTATE
  2
AmdtAmMenuState
  3
DesignerAssemblies
 90
        0
280
     0
281
     0
  0
CLASS
  1
ACAMPROJECT
  2
AcAmProject
  3
DesignerAssemblies
 90
        0
280
     0
281
     0
  0
CLASS
  1
ACAMGRCOMPDEF
  2
AcAmGrCompDef
  3
DesignerAssemblies
 90
        0
280
     0
281
     0
  0
CLASS
  1
ACCMCONTEXT
  2
AcCmContext
  3
DesignerAssemblies
 90
        0
280
     0
281
     0
  0
CLASS
  1
ACAMCOMPDEF
  2
AcAmCompDef
  3
DesignerAssemblies
 90
        0
280
     0
281
     0
  0
CLASS
  1
ACAMCOMPDEFMGR
  2
AcAmCompDefMgr
  3
DesignerAssemblies
 90
        0
280
     0
281
     0
  0
CLASS
  1
AMCONTEXTMGR
  2
AcAmContextMgr
  3
DesignerAssemblies
 90
        0
280
     0
281
     0
  0
CLASS
  1
ACAMCONTEXTMODELER
  2
AcAmContextModeler
  3
DesignerAssemblies
 90
        0
280
     0
281
     0
  0
CLASS
  1
ACMTHREADLINESTANDARDISO
  2
AmdtThreadLineStdISO
  3
"Amdt_StdImp|Product Description: AutoCAD Mechanical 2004 DX|Company: Autodesk"
 90
        0
280
     0
281
     0
  0
CLASS
  1
CATALOGSTATE
  2
AcAmCatalogState
  3
DesignerAssemblies
 90
        0
280
     0
281
     0
  0
CLASS
  1
ACAMGRCOMPDEFSET
  2
AcAmGrCompDefSet
  3
DesignerAssemblies
 90
        0
280
     0
281
     0
  0
CLASS
  1
AMDTBROWSERDBTAB
  2
AmdtBrowserDbTab
  3
McadcomServices
 90
        0
280
     0
281
     0
  0
CLASS
  1
CBROWSERAPPOBJECT
  2
CBrowserAppObject
  3
McadcomServices
 90
        0
280
     0
281
     0
  0
CLASS
  1
DM_PLACEHOLDER
  2
AcDmSelsetPlaceholder
  3
AcMechDwgViewMgmt
 90
        0
280
     0
281
     0
  0
CLASS
  1
TABLESTYLE
  2
AcDbTableStyle
  3
ObjectDBX Classes
 90
     2047
280
     0
281
     0
  0
CLASS
  1
VAACXREFPANELOBJECT
  2
VaAcXREFPanelObject
  3
VAAC_ADDIN
 90
    32768
280
     0
281
     0
  0
CLASS
  1
VAACIMAGEINVENTORY
  2
VaAcImageInventory
  3
VAAC_ADDIN
 90
    32768
280
     0
281
     0
  0
CLASS
  1
AMDTNOTETEMPLATEDB
  2
AmdtNoteTemplateDB
  3
AMDT_STDIMP_MODULE_NAME
 90
        0
280
     0
281
     0
  0
CLASS
  1
ACMBOM
  2
AcmBom
  3
"AcmSymBB|Product Description: AutoCAD Mechanical 2004 DX|Company: Autodesk"
 90
    32768
280
     0
281
     0
  0
CLASS
  1
AMDTFORMULAUPDATEDISPATCHER
  2
AmdtFormulaUpdateDispatcher
  3
AcMeServices
 90
    32768
280
     0
281
     0
  0
CLASS
  1
ACMPARTLIST
  2
AcmPartList
  3
"AcmSymBB|Product Description: AutoCAD Mechanical 2004 DX|Company: Autodesk"
 90
    33791
280
     0
281
     1
  0
CLASS
  1
ACAMGFILTERDAT
  2
AcAmgFilterDat
  3
"AcadM|Product Description: AutoCAD Mechanical 2000|Company: Autodesk"
 90
        0
280
     0
281
     0
  0
CLASS
  1
DIMASSOC
  2
AcDbDimAssoc
  3
"AcDbDimAssoc|Product Desc:     AcDim ARX App For Dimension|Company:          Autodesk, Inc.|WEB Address:      www.autodesk.com"
 90
        0
280
     0
281
     0
  0
CLASS
  1
STDPART2D
  2
AmgStdPart
  3
"AmgStdPart|Product Description: AutoCAD Mechanical 2000|Company: Autodesk"
 90
    33791
280
     0
281
     1
  0
CLASS
  1
ACAMSTDPCOMPDEF
  2
AcAmStdpCompDef
  3
DesignerAssemblies
 90
    32768
280
     0
281
     0
  0
CLASS
  1
ACRFATTGENMGR
  2
AcRfAttGeneralMgr
  3
AcAttribServices
 90
        0
280
     0
281
     0
  0
CLASS
  1
ACRFOBJATTMGR
  2
AcRfObjAttGroupMgr
  3
AcAttribServices
 90
    32768
280
     0
281
     0
  0
CLASS
  1
ACRFMCADAPIATTHOLDER
  2
AcRfMCADAPIAttHolder
  3
AcAttribServices
 90
    32768
280
     0
281
     0
  0
CLASS
  1
AMDTSYSATTR
  2
AmdtSystemAttribute
  3
AcAttribServices
 90
    32768
280
     0
281
     0
  0
CLASS
  1
ACAMCOMP
  2
AcAmComp
  3
DesignerAssemblies
 90
    32768
280
     0
281
     0
  0
CLASS
  1
AC_AM_STDP_VIEW_DEF
  2
AcAmStdpViewDef
  3
DesignerAssemblies
 90
    32768
280
     0
281
     0
  0
CLASS
  1
AC_AM_MVD_DEP_MGR
  2
AcAmMVDdepMgr
  3
DesignerAssemblies
 90
        0
280
     0
281
     0
  0
CLASS
  1
AC_AM_MASTER_VIEW_DEF
  2
AcAmMasterViewDef
  3
DesignerAssemblies
 90
        0
280
     0
281
     0
  0
CLASS
  1
AC_AM_DIRTY_NODES
  2
AcAmDirtyNodes
  3
DesignerAssemblies
 90
        0
280
     0
281
     0
  0
CLASS
  1
AC_AM_MAPPER_CACHE
  2
AcAmMapperCache
  3
DesignerAssemblies
 90
        0
280
     0
281
     0
  0
CLASS
  1
ACAMMVDBACKUPOBJECT
  2
AcAmMVDBackupObject
  3
DesignerAssemblies
 90
        0
280
     0
281
     0
  0
CLASS
  1
AC_AM_COMP_VIEW_INST
  2
AcAmCompView
  3
DesignerAssemblies
 90
    32768
280
     0
281
     0
  0
CLASS
  1
AC_AM_2D_XREF_MGR
  2
AcAmXrefMgr2d
  3
DesignerAssemblies
 90
        0
280
     0
281
     0
  0
CLASS
  1
SORTENTSTABLE
  2
AcDbSortentsTable
  3
ObjectDBX Classes
 90
        0
280
     0
281
     0
  0
CLASS
  1
AMDTNOTE
  2
AmdtNote
  3
"AcmSymBB|Product Description: AutoCAD Mechanical 2004 DX|Company: Autodesk"
 90
     1023
280
     0
281
     1
  0
ENDSEC
  0
SECTION
  2
TABLES
  0
TABLE
  2
VPORT
  5
8
330
0
100
AcDbSymbolTable
 70
     3
  0
VPORT
  5
208A
330
8
100
AcDbSymbolTableRecord
100
AcDbViewportTableRecord
  2
*Active
 70
     0
 10
0.0
 20
0.0
 11
1.0
 21
1.0
 12
2505.163839248194
 22
1527.81062136993
 13
0.0
 23
0.0
 14
2.5
 24
2.5
 15
10.0
 25
10.0
 16
0.0
 26
0.0
 36
1.0
 17
0.0
 27
0.0
 37
0.0
 40
344.2853112633061
 41
1.817669172932331
 42
50.0
 43
0.0
 44
0.0
 50
0.0
 51
0.0
 71
     0
 72
   100
 73
     1
 74
     3
 75
     0
 76
     0
 77
     0
 78
     0
281
     0
 65
     1
110
0.0
120
0.0
130
0.0
111
1.0
121
0.0
131
0.0
112
0.0
122
1.0
132
0.0
 79
     0
146
0.0
  0
ENDTAB
  0
TABLE
  2
LTYPE
  5
5
330
0
100
AcDbSymbolTable
 70
    14
  0
LTYPE
  5
14
330
5
100
AcDbSymbolTableRecord
100
AcDbLinetypeTableRecord
  2
ByBlock
 70
     0
  3

 72
    65
 73
     0
 40
0.0
  0
LTYPE
  5
15
330
5
100
AcDbSymbolTableRecord
100
AcDbLinetypeTableRecord
  2
ByLayer
 70
     0
  3

 72
    65
 73
     0
 40
0.0
  0
LTYPE
  5
16
330
5
100
AcDbSymbolTableRecord
100
AcDbLinetypeTableRecord
  2
Continuous
 70
     0
  3
Solid line
 72
    65
 73
     0
 40
0.0
  0
LTYPE
  5
64
330
5
100
AcDbSymbolTableRecord
100
AcDbLinetypeTableRecord
  2
AM_ISO02W050
 70
     0
  3
__ __ __ __ __ __ __ __ __ __ __ __ __ __ __
 72
    65
 73
     2
 40
7.5
 49
6.0
 74
     0
 49
-1.5
 74
     0
  0
LTYPE
  5
65
330
5
100
AcDbSymbolTableRecord
100
AcDbLinetypeTableRecord
  2
AM_ISO08W050
 70
     0
  3
____ . ____ . ____ . ____ . ____ . ____ . ____
 72
    65
 73
     4
 40
18.0
 49
12.0
 74
     0
 49
-1.5
 74
     0
 49
3.0
 74
     0
 49
-1.5
 74
     0
  0
LTYPE
  5
66
330
5
100
AcDbSymbolTableRecord
100
AcDbLinetypeTableRecord
  2
AM_ISO09W050
 70
     0
  3
_____ . . _____ . . _____ . . ____ .. ____
 72
    65
 73
     6
 40
22.5
 49
12.0
 74
     0
 49
-1.5
 74
     0
 49
3.0
 74
     0
 49
-1.5
 74
     0
 49
3.0
 74
     0
 49
-1.5
 74
     0
  0
LTYPE
  5
67
330
5
100
AcDbSymbolTableRecord
100
AcDbLinetypeTableRecord
  2
Amconstr
 70
     0
  3
_______________________
 72
    65
 73
     2
 40
9999.0
 49
9999.0
 74
     0
 49
0.0
 74
     0
  0
LTYPE
  5
68
330
5
100
AcDbSymbolTableRecord
100
AcDbLinetypeTableRecord
  2
AM_ISO08W050x2
 70
     0
  3
__ . __ . __ . __ . __ . __
 72
    65
 73
     4
 40
9.0
 49
6.0
 74
     0
 49
-0.75
 74
     0
 49
1.5
 74
     0
 49
-0.75
 74
     0
  0
LTYPE
  5
69
330
5
100
AcDbSymbolTableRecord
100
AcDbLinetypeTableRecord
  2
AM_ISO02W050x2
 70
     0
  3
 _ _ _ _ _ _ _ _ _ _ _ _
 72
    65
 73
     2
 40
3.75
 49
3.0
 74
     0
 49
-0.75
 74
     0
  0
LTYPE
  5
6C
330
5
100
AcDbSymbolTableRecord
100
AcDbLinetypeTableRecord
  2
Amzigzag
 70
     0
  3
/\/-/\/-/\/-/\/-/\/-/\/
 72
    65
 73
     2
 40
11.0001
 49
0.0001
 74
     4
 75
   135
340
6B
 46
0.04
 50
0.0
 44
0.0
 45
0.0
 49
-11.0
 74
     0
  0
LTYPE
  5
7A
330
5
100
AcDbSymbolTableRecord
100
AcDbLinetypeTableRecord
  2
ACISOWELD
 70
     0
  3
_ _ _ _ _
 72
    65
 73
     2
 40
2.0
 49
2.0
 74
     0
 49
-1.0
 74
     0
  0
LTYPE
  5
7B
330
5
100
AcDbSymbolTableRecord
100
AcDbLinetypeTableRecord
  2
ACISOTGB
 70
     0
  3
__ . . __ . .
 72
    65
 73
     6
 40
9.0
 49
4.0
 74
     0
 49
-1.0
 74
     0
 49
1.0
 74
     0
 49
-1.0
 74
     0
 49
1.0
 74
     0
 49
-1.0
 74
     0
  0
LTYPE
  5
7C
330
5
100
AcDbSymbolTableRecord
100
AcDbLinetypeTableRecord
  2
ACISOTGL
 70
     0
  3
_ _ _ _ _
 72
    65
 73
     2
 40
3.0
 49
2.0
 74
     0
 49
-1.0
 74
     0
  0
LTYPE
  5
7E
330
5
100
AcDbSymbolTableRecord
100
AcDbLinetypeTableRecord
  2
CENTER
 70
     0
  3
__ . __
 72
    65
 73
     4
 40
7.0
 49
4.0
 74
     0
 49
-1.0
 74
     0
 49
1.0
 74
     0
 49
-1.0
 74
     0
  0
LTYPE
  5
D8
330
5
100
AcDbSymbolTableRecord
100
AcDbLinetypeTableRecord
  2
HIDDEN
 70
     0
  3
Hidden __ __ __ __ __ __ __ __ __ __ __ __ __ _
 72
    65
 73
     2
 40
9.524999999999998
 49
6.349999999999999
 74
     0
 49
-3.174999999999999
 74
     0
  0
LTYPE
  5
D9
330
5
100
AcDbSymbolTableRecord
100
AcDbLinetypeTableRecord
  2
PHANTOM2
 70
     0
  3
Phantom (.5x) ___ _ _ ___ _ _ ___ _ _ ___ _ _
 72
    65
 73
     6
 40
31.75
 49
15.875
 74
     0
 49
-3.174999999999999
 74
     0
 49
3.174999999999999
 74
     0
 49
-3.174999999999999
 74
     0
 49
3.174999999999999
 74
     0
 49
-3.174999999999999
 74
     0
  0
ENDTAB
  0
TABLE
  2
LAYER
  5
2
102
{ACAD_XDICTIONARY
360
3F9
102
}
330
0
100
AcDbSymbolTable
 70
     8
  0
LAYER
  5
10
330
2
100
AcDbSymbolTableRecord
100
AcDbLayerTableRecord
  2
0
 70
     0
 62
     7
  6
Continuous
370
    -3
390
F
  0
LAYER
  5
812
330
2
100
AcDbSymbolTableRecord
100
AcDbLayerTableRecord
  2
AM_VIS
 70
     0
 62
     7
  6
Continuous
370
    50
390
F
  0
LAYER
  5
813
330
2
100
AcDbSymbolTableRecord
100
AcDbLayerTableRecord
  2
AM_4
 70
     0
 62
     3
  6
Continuous
370
    25
390
F
  0
LAYER
  5
BD2
330
2
100
AcDbSymbolTableRecord
100
AcDbLayerTableRecord
  2
AM_0
 70
     0
 62
     7
  6
Continuous
370
    50
390
F
  0
LAYER
  5
BF8
330
2
100
AcDbSymbolTableRecord
100
AcDbLayerTableRecord
  2
AM_7
 70
     0
 62
     1
  6
CENTER
370
    25
390
F
  0
LAYER
  5
C53
330
2
100
AcDbSymbolTableRecord
100
AcDbLayerTableRecord
  2
AM_5
 70
     0
 62
     5
  6
Continuous
370
    50
390
F
  0
LAYER
  5
D49
330
2
100
AcDbSymbolTableRecord
100
AcDbLayerTableRecord
  2
Defpoints
 70
     0
 62
     7
  6
Continuous
290
     0
370
    -3
390
F
  0
LAYER
  5
150C
330
2
100
AcDbSymbolTableRecord
100
AcDbLayerTableRecord
  2
LOGO
 70
     0
 62
     7
  6
Continuous
370
    -3
390
F
  0
ENDTAB
  0
TABLE
  2
STYLE
  5
3
330
0
100
AcDbSymbolTable
 70
     6
  0
STYLE
  5
11
330
3
100
AcDbSymbolTableRecord
100
AcDbTextStyleTableRecord
  2
STANDARD
 70
     0
 40
0.0
 41
1.0
 50
0.0
 71
     0
 42
3.0
  3
ISOCP.SHX
  4
CHINESET.SHX
  0
STYLE
  5
6B
330
3
100
AcDbSymbolTableRecord
100
AcDbTextStyleTableRecord
  2

 70
     1
 40
0.0
 41
1.0
 50
0.0
 71
     0
 42
2.5
  3
ltypeshp.shx
  4

  0
STYLE
  5
6D
330
3
100
AcDbSymbolTableRecord
100
AcDbTextStyleTableRecord
  2
ACISOTS
 70
     0
 40
1.0
 41
1.0
 50
0.0
 71
     0
 42
1.0
  3
isocp.shx
  4
chineset.shx
  0
STYLE
  5
79
330
3
100
AcDbSymbolTableRecord
100
AcDbTextStyleTableRecord
  2
ACISOGDT
 70
     0
 40
0.0
 41
1.0
 50
0.0
 71
     0
 42
2.5
  3
amgdt.shx
  4
chineset.shx
  0
STYLE
  5
60C
330
3
100
AcDbSymbolTableRecord
100
AcDbTextStyleTableRecord
  2
CHINESET
 70
     0
 40
0.0
 41
1.0
 50
0.0
 71
     0
 42
3.0
  3
simplex.shx
  4
CHINESET.SHX
  0
ENDTAB
  0
TABLE
  2
VIEW
  5
6
330
0
100
AcDbSymbolTable
 70
     0
  0
ENDTAB
  0
TABLE
  2
UCS
  5
7
330
0
100
AcDbSymbolTable
 70
     0
  0
ENDTAB
  0
TABLE
  2
APPID
  5
9
330
0
100
AcDbSymbolTable
 70
    29
  0
APPID
  5
12
330
9
100
AcDbSymbolTableRecord
100
AcDbRegAppTableRecord
  2
ACAD
 70
     0
  0
APPID
  5
46
330
9
100
AcDbSymbolTableRecord
100
AcDbRegAppTableRecord
  2
MCAD_NO_VIS
 70
     0
  0
APPID
  5
47
330
9
100
AcDbSymbolTableRecord
100
AcDbRegAppTableRecord
  2
ACAD_TEMP_GRAPHIC
 70
     0
  0
APPID
  5
58
330
9
100
AcDbSymbolTableRecord
100
AcDbRegAppTableRecord
  2
ACATTRIBSERVICES
 70
     0
  0
APPID
  5
EE
330
9
100
AcDbSymbolTableRecord
100
AcDbRegAppTableRecord
  2
AD_DRAW
 70
     0
  0
APPID
  5
10C
330
9
100
AcDbSymbolTableRecord
100
AcDbRegAppTableRecord
  2
DESIGNERASSEMBLIES
 70
     0
  0
APPID
  5
111
330
9
100
AcDbSymbolTableRecord
100
AcDbRegAppTableRecord
  2
ACADM_DIM_EDIT
 70
     0
  0
APPID
  5
112
330
9
100
AcDbSymbolTableRecord
100
AcDbRegAppTableRecord
  2
AMDT_DM_ADJ
 70
     0
  0
APPID
  5
22C
330
9
100
AcDbSymbolTableRecord
100
AcDbRegAppTableRecord
  2
ACAD_DSTYLE_DIMTEXT_FILL
 70
     0
  0
APPID
  5
452
330
9
100
AcDbSymbolTableRecord
100
AcDbRegAppTableRecord
  2
GENIUS_GENOENT_13
 70
     0
  0
APPID
  5
453
330
9
100
AcDbSymbolTableRecord
100
AcDbRegAppTableRecord
  2
GENIUS_GENOBJ-N-CRS_13
 70
     0
  0
APPID
  5
454
330
9
100
AcDbSymbolTableRecord
100
AcDbRegAppTableRecord
  2
GENIUS_GENOLIS_13
 70
     0
  0
APPID
  5
455
330
9
100
AcDbSymbolTableRecord
100
AcDbRegAppTableRecord
  2
GENIUS_GENODEF_13
 70
     0
  0
APPID
  5
456
330
9
100
AcDbSymbolTableRecord
100
AcDbRegAppTableRecord
  2
GENIUS_GENOREF_13
 70
     0
  0
APPID
  5
6F3
330
9
100
AcDbSymbolTableRecord
100
AcDbRegAppTableRecord
  2
ACAD_PSEXT
 70
     0
  0
APPID
  5
782
330
9
100
AcDbSymbolTableRecord
100
AcDbRegAppTableRecord
  2
GENIUS_GENDTOL_13
 70
     0
  0
APPID
  5
BD9
330
9
100
AcDbSymbolTableRecord
100
AcDbRegAppTableRecord
  2
GEVID1142294916
 70
     0
  0
APPID
  5
BDA
330
9
100
AcDbSymbolTableRecord
100
AcDbRegAppTableRecord
  2
GEVDC
 70
     0
  0
APPID
  5
BDB
330
9
100
AcDbSymbolTableRecord
100
AcDbRegAppTableRecord
  2
GEVRADREF
 70
     0
  0
APPID
  5
BE4
330
9
100
AcDbSymbolTableRecord
100
AcDbRegAppTableRecord
  2
AMG_2DHIDE
 70
     0
  0
APPID
  5
BE5
330
9
100
AcDbSymbolTableRecord
100
AcDbRegAppTableRecord
  2
AMG_2DSTRUCT_BTR
 70
     0
  0
APPID
  5
BF6
330
9
100
AcDbSymbolTableRecord
100
AcDbRegAppTableRecord
  2
ACADM_2DVIEW_IGN_NOTIFY
 70
     0
  0
APPID
  5
CAE
330
9
100
AcDbSymbolTableRecord
100
AcDbRegAppTableRecord
  2
GEVID1142294917
 70
     0
  0
APPID
  5
12D3
330
9
100
AcDbSymbolTableRecord
100
AcDbRegAppTableRecord
  2
GENIUS_GENDIMSH_14
 70
     0
  0
APPID
  5
150D
330
9
100
AcDbSymbolTableRecord
100
AcDbRegAppTableRecord
  2
GENIUS_GENREC_14
 70
     0
  0
APPID
  5
150E
330
9
100
AcDbSymbolTableRecord
100
AcDbRegAppTableRecord
  2
GENIUS_GENOBJ-N-REC_13
 70
     0
  0
APPID
  5
1A06
330
9
100
AcDbSymbolTableRecord
100
AcDbRegAppTableRecord
  2
GEVID1142658490
 70
     0
  0
APPID
  5
1A55
330
9
100
AcDbSymbolTableRecord
100
AcDbRegAppTableRecord
  2
GENIUS_GENOBJ-N-CEN_13
 70
     0
  0
APPID
  5
1A56
330
9
100
AcDbSymbolTableRecord
100
AcDbRegAppTableRecord
  2
GENIUS_GENCEN_19
 70
     0
  0
ENDTAB
  0
TABLE
  2
DIMSTYLE
  5
A
330
0
100
AcDbSymbolTable
 70
     9
100
AcDbDimStyleTable
 71
     3
340
81
340
8B
340
86
  0
DIMSTYLE
105
81
330
A
100
AcDbSymbolTableRecord
100
AcDbDimStyleTableRecord
  2
AM_ISO
 70
     0
  4
"
 41
3.0
 42
1.0
 43
10.0
 44
1.5
 47
0.1
 48
0.1
 73
     0
 74
     0
 77
     1
 78
     8
 79
     2
140
3.0
141
0.0
143
0.0393701
146
0.6
147
1.0
172
     1
176
   256
177
   256
178
   256
271
     2
272
     2
283
     0
284
     8
340
11
371
    -1
372
    -1
  0
DIMSTYLE
105
82
330
A
100
AcDbSymbolTableRecord
100
AcDbDimStyleTableRecord
  2
AM_ISO$3
 70
     0
  4
"
 41
3.0
 42
1.0
 43
10.0
 44
1.5
 47
0.1
 48
0.1
 73
     0
 77
     1
 78
     8
 79
     2
140
3.0
141
0.0
143
0.0393701
146
0.6
147
1.0
176
   256
177
   256
178
   256
271
     2
272
     2
283
     0
284
     8
288
     1
289
     0
340
11
371
    -1
372
    -1
  0
DIMSTYLE
105
83
330
A
100
AcDbSymbolTableRecord
100
AcDbDimStyleTableRecord
  2
AM_ISO$4
 70
     0
  4
"
 41
3.0
 42
1.0
 43
10.0
 44
1.5
 47
0.1
 48
0.1
 73
     0
 77
     1
 78
     8
 79
     2
140
3.0
141
0.0
143
0.0393701
146
0.6
147
1.0
176
   256
177
   256
178
   256
271
     2
272
     2
283
     0
284
     8
288
     1
289
     0
340
11
371
    -1
372
    -1
  0
DIMSTYLE
105
84
330
A
100
AcDbSymbolTableRecord
100
AcDbDimStyleTableRecord
  2
AM_ISO$6
 70
     0
  4
"
 41
3.0
 42
1.0
 43
10.0
 44
1.5
 47
0.1
 48
0.1
 73
     0
 74
     0
 78
     8
 79
     2
140
3.0
141
0.0
143
0.0393701
146
0.6
147
1.0
172
     1
176
   256
177
   256
178
   256
271
     2
272
     2
283
     0
284
     8
340
11
371
    -1
372
    -1
  0
DIMSTYLE
105
85
330
A
100
AcDbSymbolTableRecord
100
AcDbDimStyleTableRecord
  2
AM_ISO$7
 70
     0
  4
"
 41
3.0
 42
1.0
 43
10.0
 44
1.5
 47
0.1
 48
0.1
 73
     0
 74
     0
 77
     1
 78
     8
 79
     2
140
5.0
141
0.0
143
0.0393701
146
0.6
147
1.0
172
     1
176
   256
177
   256
178
   256
271
     2
272
     2
283
     0
284
     8
340
11
371
    -1
372
    -1
  0
DIMSTYLE
105
86
330
A
100
AcDbSymbolTableRecord
100
AcDbDimStyleTableRecord
  2
AM_ISO$SF
 70
     0
  4
"
 41
2.5
 42
1.0
 43
10.0
 44
1.0
 47
0.1
 48
0.1
 73
     0
 74
     0
 75
     1
 76
     1
 77
     1
 78
     8
 79
     2
140
3.5
141
0.0
143
0.0393701
146
0.71
147
1.5
172
     1
176
   256
177
   256
178
     2
271
     2
272
     3
274
     4
283
     0
284
     8
340
11
371
    -1
372
    -1
  0
DIMSTYLE
105
8B
330
A
100
AcDbSymbolTableRecord
100
AcDbDimStyleTableRecord
  2
AM_ISO$SH
 70
     0
  4
"
 41
2.5
 42
1.0
 43
10.0
 44
1.0
 47
0.1
 48
0.1
 73
     0
 74
     0
 75
     1
 76
     1
 77
     1
 78
     8
 79
     2
140
3.5
141
0.0
143
0.0393701
144
2.0
146
0.71
147
1.5
172
     1
173
     1
176
   256
177
   256
178
     2
271
     2
272
     3
274
     4
283
     0
284
     8
340
11
343
87
371
    -1
372
    -1
  0
DIMSTYLE
105
40B
102
{ACAD_REACTORS
330
EC3
330
EE9
330
F85
330
F0F
330
1022
330
FFC
330
FD6
330
E9D
330
E65
330
1F2F
330
1FA8
102
}
330
A
100
AcDbSymbolTableRecord
100
AcDbDimStyleTableRecord
  2
AM_ISO$0
 70
     0
  4
"
 41
3.0
 42
1.0
 43
10.0
 44
1.5
 47
0.1
 48
0.1
 73
     0
 74
     0
 77
     1
 78
     8
 79
     2
140
3.0
141
0.0
143
0.0393701
146
0.6
147
1.0
172
     1
176
   256
177
   256
178
   256
271
     2
272
     2
283
     0
284
     8
340
11
371
    -1
372
    -1
  0
ENDTAB
  0
TABLE
  2
BLOCK_RECORD
  5
1
330
0
100
AcDbSymbolTable
 70
    21
  0
BLOCK_RECORD
  5
1F
102
{ACAD_XDICTIONARY
360
8F
102
}
330
1
100
AcDbSymbolTableRecord
100
AcDbBlockTableRecord
  2
*Model_Space
340
22
  0
BLOCK_RECORD
  5
1B
330
1
100
AcDbSymbolTableRecord
100
AcDbBlockTableRecord
  2
*Paper_Space
340
1E
  0
BLOCK_RECORD
  5
23
330
1
100
AcDbSymbolTableRecord
100
AcDbBlockTableRecord
  2
*Paper_Space0
340
26
  0
BLOCK_RECORD
  5
87
330
1
100
AcDbSymbolTableRecord
100
AcDbBlockTableRecord
  2
GENAXEH
340
0
  0
BLOCK_RECORD
  5
BFB
330
1
100
AcDbSymbolTableRecord
100
AcDbBlockTableRecord
  2
*U4
340
0
  0
BLOCK_RECORD
  5
E66
330
1
100
AcDbSymbolTableRecord
100
AcDbBlockTableRecord
  2
*D5
340
0
  0
BLOCK_RECORD
  5
E9E
330
1
100
AcDbSymbolTableRecord
100
AcDbBlockTableRecord
  2
*D6
340
0
  0
BLOCK_RECORD
  5
EC4
330
1
100
AcDbSymbolTableRecord
100
AcDbBlockTableRecord
  2
*D7
340
0
  0
BLOCK_RECORD
  5
EEA
330
1
100
AcDbSymbolTableRecord
100
AcDbBlockTableRecord
  2
*D8
340
0
  0
BLOCK_RECORD
  5
F10
330
1
100
AcDbSymbolTableRecord
100
AcDbBlockTableRecord
  2
*D9
340
0
  0
BLOCK_RECORD
  5
F86
330
1
100
AcDbSymbolTableRecord
100
AcDbBlockTableRecord
  2
*D10
340
0
  0
BLOCK_RECORD
  5
FD7
330
1
100
AcDbSymbolTableRecord
100
AcDbBlockTableRecord
  2
*D11
340
0
  0
BLOCK_RECORD
  5
FFD
330
1
100
AcDbSymbolTableRecord
100
AcDbBlockTableRecord
  2
*D12
340
0
  0
BLOCK_RECORD
  5
1023
330
1
100
AcDbSymbolTableRecord
100
AcDbBlockTableRecord
  2
*D13
340
0
  0
BLOCK_RECORD
  5
1DB0
330
1
100
AcDbSymbolTableRecord
100
AcDbBlockTableRecord
  2
GENDOT
340
0
102
{BLKREFS
331
1FD8
331
1FE3
102
}
  0
BLOCK_RECORD
  5
1F30
330
1
100
AcDbSymbolTableRecord
100
AcDbBlockTableRecord
  2
*D15
340
0
  0
BLOCK_RECORD
  5
1FA9
330
1
100
AcDbSymbolTableRecord
100
AcDbBlockTableRecord
  2
*D16
340
0
  0
BLOCK_RECORD
  5
2070
330
1
100
AcDbSymbolTableRecord
100
AcDbBlockTableRecord
  2
*S18
340
0
  0
BLOCK_RECORD
  5
2078
330
1
100
AcDbSymbolTableRecord
100
AcDbBlockTableRecord
  2
*S19
340
0
  0
BLOCK_RECORD
  5
2080
330
1
100
AcDbSymbolTableRecord
100
AcDbBlockTableRecord
  2
*S20
340
0
  0
ENDTAB
  0
ENDSEC
  0
SECTION
  2
BLOCKS
  0
BLOCK
  5
20
330
1F
100
AcDbEntity
  8
0
100
AcDbBlockBegin
  2
*Model_Space
 70
     0
 10
0.0
 20
0.0
 30
0.0
  3
*Model_Space
  1

  0
ENDBLK
  5
21
330
1F
100
AcDbEntity
  8
0
100
AcDbBlockEnd
  0
BLOCK
  5
1C
330
1B
100
AcDbEntity
 67
     1
  8
0
100
AcDbBlockBegin
  2
*Paper_Space
 70
     0
 10
0.0
 20
0.0
 30
0.0
  3
*Paper_Space
  1

  0
ENDBLK
  5
1D
330
1B
100
AcDbEntity
 67
     1
  8
0
100
AcDbBlockEnd
  0
BLOCK
  5
24
330
23
100
AcDbEntity
  8
0
100
AcDbBlockBegin
  2
*Paper_Space0
 70
     0
 10
0.0
 20
0.0
 30
0.0
  3
*Paper_Space0
  1

  0
ENDBLK
  5
25
330
23
100
AcDbEntity
  8
0
100
AcDbBlockEnd
  0
BLOCK
  5
89
330
87
100
AcDbEntity
  8
0
100
AcDbBlockBegin
  2
GENAXEH
 70
     0
 10
0.0
 20
0.0
 30
0.0
  3
GENAXEH
  1

  0
LINE
  5
88
330
87
100
AcDbEntity
  8
0
100
AcDbLine
 10
-1.0
 20
0.0
 30
0.0
 11
1.0
 21
0.0
 31
0.0
  0
ENDBLK
  5
8A
330
87
100
AcDbEntity
  8
0
100
AcDbBlockEnd
  0
BLOCK
  5
BFC
330
BFB
100
AcDbEntity
  8
0
100
AcDbBlockBegin
  2
*U4
 70
     1
 10
0.0
 20
0.0
 30
0.0
  3
*U4
  1

  0
ENDBLK
  5
BFD
330
BFB
100
AcDbEntity
  8
0
100
AcDbBlockEnd
  0
BLOCK
  5
E70
330
E66
100
AcDbEntity
  8
0
100
AcDbBlockBegin
  2
*D5
 70
     1
 10
0.0
 20
0.0
 30
0.0
  3
*D5
  1

  0
LINE
  5
1CF8
330
E66
100
AcDbEntity
  8
AM_5
100
AcDbLine
 10
2451.699187695753
 20
1631.03814677832
 30
0.0
 11
2451.699187695753
 21
1592.38814677832
 31
0.0
  0
LINE
  5
1CF9
330
E66
100
AcDbEntity
  8
AM_5
100
AcDbLine
 10
2489.699187695753
 20
1631.03814677832
 30
0.0
 11
2489.699187695753
 21
1592.38814677832
 31
0.0
  0
LINE
  5
1CFA
330
E66
100
AcDbEntity
  8
AM_5
100
AcDbLine
 10
2455.599187695753
 20
1594.33814677832
 30
0.0
 11
2485.799187695753
 21
1594.33814677832
 31
0.0
  0
SOLID
  5
1CFB
330
E66
100
AcDbEntity
  8
AM_5
100
AcDbTrace
 10
2455.599187695753
 20
1594.988146778321
 30
0.0
 11
2455.599187695753
 21
1593.68814677832
 31
0.0
 12
2451.699187695753
 22
1594.33814677832
 32
0.0
 13
2451.699187695753
 23
1594.33814677832
 33
0.0
  0
SOLID
  5
1CFC
330
E66
100
AcDbEntity
  8
AM_5
100
AcDbTrace
 10
2485.799187695753
 20
1594.988146778321
 30
0.0
 11
2485.799187695753
 21
1593.68814677832
 31
0.0
 12
2489.699187695753
 22
1594.33814677832
 32
0.0
 13
2489.699187695753
 23
1594.33814677832
 33
0.0
  0
MTEXT
  5
1CFD
330
E66
100
AcDbEntity
  8
AM_5
100
AcDbMText
 10
2470.699187695753
 20
1597.588146778321
 30
0.0
 40
3.9
 41
0.0
 71
     5
 72
     1
  1
38
 73
     1
 44
1.0
1001
ACAD
1000
MTEXTBEGIN
1070
    73
1070
     1
1070
    44
1040
1.0
1070
    74
1070
     0
1000
MTEXTEND
  0
POINT
  5
1CFE
330
E66
100
AcDbEntity
  8
Defpoints
 62
     0
100
AcDbPoint
 10
2451.699187695753
 20
1632.338146778321
 30
0.0
  0
POINT
  5
1CFF
330
E66
100
AcDbEntity
  8
Defpoints
 62
     0
100
AcDbPoint
 10
2489.699187695753
 20
1632.338146778321
 30
0.0
  0
POINT
  5
1D00
330
E66
100
AcDbEntity
  8
Defpoints
 62
     0
100
AcDbPoint
 10
2489.699187695753
 20
1594.33814677832
 30
0.0
  0
ENDBLK
  5
E71
330
E66
100
AcDbEntity
  8
0
100
AcDbBlockEnd
  0
BLOCK
  5
EA8
330
E9E
100
AcDbEntity
  8
0
100
AcDbBlockBegin
  2
*D6
 70
     1
 10
0.0
 20
0.0
 30
0.0
  3
*D6
  1

  0
LINE
  5
2014
330
E9E
100
AcDbEntity
  8
AM_5
100
AcDbLine
 10
2443.699187695753
 20
1609.038146778321
 30
0.0
 11
2443.699187695753
 21
1582.38814677832
 31
0.0
  0
LINE
  5
2015
330
E9E
100
AcDbEntity
  8
AM_5
100
AcDbLine
 10
2497.699187695753
 20
1609.038146778321
 30
0.0
 11
2497.699187695753
 21
1582.38814677832
 31
0.0
  0
LINE
  5
2016
330
E9E
100
AcDbEntity
  8
AM_5
100
AcDbLine
 10
2447.599187695753
 20
1584.338146778321
 30
0.0
 11
2493.799187695753
 21
1584.338146778321
 31
0.0
  0
SOLID
  5
2017
330
E9E
100
AcDbEntity
  8
AM_5
100
AcDbTrace
 10
2447.599187695753
 20
1584.988146778321
 30
0.0
 11
2447.599187695753
 21
1583.68814677832
 31
0.0
 12
2443.699187695753
 22
1584.338146778321
 32
0.0
 13
2443.699187695753
 23
1584.338146778321
 33
0.0
  0
SOLID
  5
2018
330
E9E
100
AcDbEntity
  8
AM_5
100
AcDbTrace
 10
2493.799187695753
 20
1584.988146778321
 30
0.0
 11
2493.799187695753
 21
1583.68814677832
 31
0.0
 12
2497.699187695753
 22
1584.338146778321
 32
0.0
 13
2497.699187695753
 23
1584.338146778321
 33
0.0
  0
MTEXT
  5
2019
330
E9E
100
AcDbEntity
  8
AM_5
100
AcDbMText
 10
2470.699187695753
 20
1587.58814677832
 30
0.0
 40
3.9
 41
0.0
 71
     5
 72
     1
  1
54
 73
     1
 44
1.0
1001
ACAD
1000
MTEXTBEGIN
1070
    73
1070
     1
1070
    44
1040
1.0
1070
    74
1070
     0
1000
MTEXTEND
  0
POINT
  5
201A
330
E9E
100
AcDbEntity
  8
Defpoints
 62
     0
100
AcDbPoint
 10
2443.699187695753
 20
1610.33814677832
 30
0.0
  0
POINT
  5
201B
330
E9E
100
AcDbEntity
  8
Defpoints
 62
     0
100
AcDbPoint
 10
2497.699187695753
 20
1610.33814677832
 30
0.0
  0
POINT
  5
201C
330
E9E
100
AcDbEntity
  8
Defpoints
 62
     0
100
AcDbPoint
 10
2497.699187695753
 20
1584.338146778321
 30
0.0
  0
ENDBLK
  5
EA9
330
E9E
100
AcDbEntity
  8
0
100
AcDbBlockEnd
  0
BLOCK
  5
ECE
330
EC4
100
AcDbEntity
  8
0
100
AcDbBlockBegin
  2
*D7
 70
     1
 10
0.0
 20
0.0
 30
0.0
  3
*D7
  1

  0
LINE
  5
1C27
330
EC4
100
AcDbEntity
  8
AM_5
100
AcDbLine
 10
2477.999187695753
 20
1613.33814677832
 30
0.0
 11
2518.861220340697
 21
1613.33814677832
 31
0.0
  0
LINE
  5
1C28
330
EC4
100
AcDbEntity
  8
AM_5
100
AcDbLine
 10
2477.999187695753
 20
1663.33814677832
 30
0.0
 11
2518.861220340697
 21
1663.33814677832
 31
0.0
  0
LINE
  5
1C29
330
EC4
100
AcDbEntity
  8
AM_5
100
AcDbLine
 10
2516.911220340697
 20
1617.238146778321
 30
0.0
 11
2516.911220340697
 21
1659.43814677832
 31
0.0
  0
SOLID
  5
1C2A
330
EC4
100
AcDbEntity
  8
AM_5
100
AcDbTrace
 10
2516.261220340697
 20
1617.238146778321
 30
0.0
 11
2517.561220340697
 21
1617.238146778321
 31
0.0
 12
2516.911220340697
 22
1613.33814677832
 32
0.0
 13
2516.911220340697
 23
1613.33814677832
 33
0.0
  0
SOLID
  5
1C2B
330
EC4
100
AcDbEntity
  8
AM_5
100
AcDbTrace
 10
2516.261220340697
 20
1659.43814677832
 30
0.0
 11
2517.561220340697
 21
1659.43814677832
 31
0.0
 12
2516.911220340697
 22
1663.33814677832
 32
0.0
 13
2516.911220340697
 23
1663.33814677832
 33
0.0
  0
MTEXT
  5
1C2C
330
EC4
100
AcDbEntity
  8
AM_5
100
AcDbMText
 10
2513.661220340696
 20
1638.338146778321
 30
0.0
 40
3.9
 41
0.0
 71
     5
 72
     1
  1
50
 11
0.0000000000000001
 21
1.0
 31
0.0
 73
     1
 44
1.0
1001
ACAD
1000
MTEXTBEGIN
1070
    73
1070
     1
1070
    44
1040
1.0
1070
    74
1070
     0
1000
MTEXTEND
  0
POINT
  5
1C2D
330
EC4
100
AcDbEntity
  8
Defpoints
 62
     0
100
AcDbPoint
 10
2476.699187695753
 20
1613.33814677832
 30
0.0
  0
POINT
  5
1C2E
330
EC4
100
AcDbEntity
  8
Defpoints
 62
     0
100
AcDbPoint
 10
2476.699187695753
 20
1663.33814677832
 30
0.0
  0
POINT
  5
1C2F
330
EC4
100
AcDbEntity
  8
Defpoints
 62
     0
100
AcDbPoint
 10
2516.911220340697
 20
1663.33814677832
 30
0.0
  0
ENDBLK
  5
ECF
330
EC4
100
AcDbEntity
  8
0
100
AcDbBlockEnd
  0
BLOCK
  5
EF4
330
EEA
100
AcDbEntity
  8
0
100
AcDbBlockBegin
  2
*D8
 70
     1
 10
0.0
 20
0.0
 30
0.0
  3
*D8
  1

  0
LINE
  5
1C30
330
EEA
100
AcDbEntity
  8
AM_5
100
AcDbLine
 10
2494.999187695753
 20
1606.33814677832
 30
0.0
 11
2528.861220340697
 21
1606.33814677832
 31
0.0
  0
LINE
  5
1C31
330
EEA
100
AcDbEntity
  8
AM_5
100
AcDbLine
 10
2494.999187695753
 20
1670.33814677832
 30
0.0
 11
2528.861220340697
 21
1670.33814677832
 31
0.0
  0
LINE
  5
1C32
330
EEA
100
AcDbEntity
  8
AM_5
100
AcDbLine
 10
2526.911220340697
 20
1610.238146778321
 30
0.0
 11
2526.911220340697
 21
1666.43814677832
 31
0.0
  0
SOLID
  5
1C33
330
EEA
100
AcDbEntity
  8
AM_5
100
AcDbTrace
 10
2526.261220340697
 20
1610.238146778321
 30
0.0
 11
2527.561220340697
 21
1610.238146778321
 31
0.0
 12
2526.911220340697
 22
1606.33814677832
 32
0.0
 13
2526.911220340697
 23
1606.33814677832
 33
0.0
  0
SOLID
  5
1C34
330
EEA
100
AcDbEntity
  8
AM_5
100
AcDbTrace
 10
2526.261220340697
 20
1666.43814677832
 30
0.0
 11
2527.561220340697
 21
1666.43814677832
 31
0.0
 12
2526.911220340697
 22
1670.33814677832
 32
0.0
 13
2526.911220340697
 23
1670.33814677832
 33
0.0
  0
MTEXT
  5
1C35
330
EEA
100
AcDbEntity
  8
AM_5
100
AcDbMText
 10
2523.661220340696
 20
1638.338146778321
 30
0.0
 40
3.9
 41
0.0
 71
     5
 72
     1
  1
64
 11
0.0000000000000001
 21
1.0
 31
0.0
 73
     1
 44
1.0
1001
ACAD
1000
MTEXTBEGIN
1070
    73
1070
     1
1070
    44
1040
1.0
1070
    74
1070
     0
1000
MTEXTEND
  0
POINT
  5
1C36
330
EEA
100
AcDbEntity
  8
Defpoints
 62
     0
100
AcDbPoint
 10
2493.699187695753
 20
1606.33814677832
 30
0.0
  0
POINT
  5
1C37
330
EEA
100
AcDbEntity
  8
Defpoints
 62
     0
100
AcDbPoint
 10
2493.699187695753
 20
1670.33814677832
 30
0.0
  0
POINT
  5
1C38
330
EEA
100
AcDbEntity
  8
Defpoints
 62
     0
100
AcDbPoint
 10
2526.911220340697
 20
1670.33814677832
 30
0.0
  0
ENDBLK
  5
EF5
330
EEA
100
AcDbEntity
  8
0
100
AcDbBlockEnd
  0
BLOCK
  5
F1A
330
F10
100
AcDbEntity
  8
0
100
AcDbBlockBegin
  2
*D9
 70
     1
 10
0.0
 20
0.0
 30
0.0
  3
*D9
  1

  0
LINE
  5
1D01
330
F10
100
AcDbEntity
  8
AM_5
100
AcDbLine
 10
2497.999187695753
 20
1513.437385797718
 30
0.0
 11
2514.339859096957
 21
1513.437385797718
 31
0.0
  0
LINE
  5
1D02
330
F10
100
AcDbEntity
  8
AM_5
100
AcDbLine
 10
2497.999187695753
 20
1552.937385797718
 30
0.0
 11
2514.339859096957
 21
1552.937385797718
 31
0.0
  0
LINE
  5
1D03
330
F10
100
AcDbEntity
  8
AM_5
100
AcDbLine
 10
2512.389859096957
 20
1517.337385797718
 30
0.0
 11
2512.389859096957
 21
1549.037385797718
 31
0.0
  0
SOLID
  5
1D04
330
F10
100
AcDbEntity
  8
AM_5
100
AcDbTrace
 10
2511.739859096957
 20
1517.337385797718
 30
0.0
 11
2513.039859096957
 21
1517.337385797718
 31
0.0
 12
2512.389859096957
 22
1513.437385797718
 32
0.0
 13
2512.389859096957
 23
1513.437385797718
 33
0.0
  0
SOLID
  5
1D05
330
F10
100
AcDbEntity
  8
AM_5
100
AcDbTrace
 10
2511.739859096957
 20
1549.037385797718
 30
0.0
 11
2513.039859096957
 21
1549.037385797718
 31
0.0
 12
2512.389859096957
 22
1552.937385797718
 32
0.0
 13
2512.389859096957
 23
1552.937385797718
 33
0.0
  0
MTEXT
  5
1D06
330
F10
100
AcDbEntity
  8
AM_5
100
AcDbMText
 10
2509.139859096956
 20
1533.187385797718
 30
0.0
 40
3.9
 41
0.0
 71
     5
 72
     1
  1
39.5+stroke
 11
0.0000000000000001
 21
1.0
 31
0.0
 73
     1
 44
1.0
1001
ACAD
1000
MTEXTBEGIN
1070
    73
1070
     1
1070
    44
1040
1.0
1070
    74
1070
     0
1000
MTEXTEND
  0
POINT
  5
1D07
330
F10
100
AcDbEntity
  8
Defpoints
 62
     0
100
AcDbPoint
 10
2496.699187695753
 20
1513.437385797718
 30
0.0
  0
POINT
  5
1D08
330
F10
100
AcDbEntity
  8
Defpoints
 62
     0
100
AcDbPoint
 10
2496.699187695753
 20
1552.937385797718
 30
0.0
  0
POINT
  5
1D09
330
F10
100
AcDbEntity
  8
Defpoints
 62
     0
100
AcDbPoint
 10
2512.389859096957
 20
1552.937385797718
 30
0.0
  0
ENDBLK
  5
F1B
330
F10
100
AcDbEntity
  8
0
100
AcDbBlockEnd
  0
BLOCK
  5
F90
330
F86
100
AcDbEntity
  8
0
100
AcDbBlockBegin
  2
*D10
 70
     1
 10
0.0
 20
0.0
 30
0.0
  3
*D10
  1

  0
LINE
  5
1D32
330
F86
100
AcDbEntity
  8
AM_5
100
AcDbLine
 10
2497.999187695753
 20
1513.437385797718
 30
0.0
 11
2524.339859096957
 21
1513.437385797718
 31
0.0
  0
LINE
  5
1D33
330
F86
100
AcDbEntity
  8
AM_5
100
AcDbLine
 10
2498.999187695753
 20
1569.437385797718
 30
0.0
 11
2524.339859096957
 21
1569.437385797718
 31
0.0
  0
LINE
  5
1D34
330
F86
100
AcDbEntity
  8
AM_5
100
AcDbLine
 10
2522.389859096957
 20
1517.337385797718
 30
0.0
 11
2522.389859096957
 21
1565.537385797718
 31
0.0
  0
SOLID
  5
1D35
330
F86
100
AcDbEntity
  8
AM_5
100
AcDbTrace
 10
2521.739859096957
 20
1517.337385797718
 30
0.0
 11
2523.039859096957
 21
1517.337385797718
 31
0.0
 12
2522.389859096957
 22
1513.437385797718
 32
0.0
 13
2522.389859096957
 23
1513.437385797718
 33
0.0
  0
SOLID
  5
1D36
330
F86
100
AcDbEntity
  8
AM_5
100
AcDbTrace
 10
2521.739859096957
 20
1565.537385797718
 30
0.0
 11
2523.039859096957
 21
1565.537385797718
 31
0.0
 12
2522.389859096957
 22
1569.437385797718
 32
0.0
 13
2522.389859096957
 23
1569.437385797718
 33
0.0
  0
MTEXT
  5
1D37
330
F86
100
AcDbEntity
  8
AM_5
100
AcDbMText
 10
2519.139859096956
 20
1541.437385797719
 30
0.0
 40
3.9
 41
0.0
 71
     5
 72
     1
  1
56+stroke
 11
0.0000000000000001
 21
1.0
 31
0.0
 73
     1
 44
1.0
1001
ACAD
1000
MTEXTBEGIN
1070
    73
1070
     1
1070
    44
1040
1.0
1070
    74
1070
     0
1000
MTEXTEND
  0
POINT
  5
1D38
330
F86
100
AcDbEntity
  8
Defpoints
 62
     0
100
AcDbPoint
 10
2496.699187695753
 20
1513.437385797718
 30
0.0
  0
POINT
  5
1D39
330
F86
100
AcDbEntity
  8
Defpoints
 62
     0
100
AcDbPoint
 10
2497.699187695753
 20
1569.437385797718
 30
0.0
  0
POINT
  5
1D3A
330
F86
100
AcDbEntity
  8
Defpoints
 62
     0
100
AcDbPoint
 10
2522.389859096957
 20
1569.437385797718
 30
0.0
  0
ENDBLK
  5
F91
330
F86
100
AcDbEntity
  8
0
100
AcDbBlockEnd
  0
BLOCK
  5
FE1
330
FD7
100
AcDbEntity
  8
0
100
AcDbBlockBegin
  2
*D11
 70
     1
 10
0.0
 20
0.0
 30
0.0
  3
*D11
  1

  0
LINE
  5
1FEB
330
FD7
100
AcDbEntity
  8
AM_5
100
AcDbLine
 10
2450.699187695753
 20
1427.83748412237
 30
0.0
 11
2450.699187695753
 21
1408.68748412237
 31
0.0
  0
LINE
  5
1FEC
330
FD7
100
AcDbEntity
  8
AM_5
100
AcDbLine
 10
2490.699187695753
 20
1426.83748412237
 30
0.0
 11
2490.699187695753
 21
1408.68748412237
 31
0.0
  0
LINE
  5
1FED
330
FD7
100
AcDbEntity
  8
AM_5
100
AcDbLine
 10
2454.599187695753
 20
1410.63748412237
 30
0.0
 11
2486.799187695753
 21
1410.63748412237
 31
0.0
  0
SOLID
  5
1FEE
330
FD7
100
AcDbEntity
  8
AM_5
100
AcDbTrace
 10
2454.599187695753
 20
1411.28748412237
 30
0.0
 11
2454.599187695753
 21
1409.98748412237
 31
0.0
 12
2450.699187695753
 22
1410.63748412237
 32
0.0
 13
2450.699187695753
 23
1410.63748412237
 33
0.0
  0
SOLID
  5
1FEF
330
FD7
100
AcDbEntity
  8
AM_5
100
AcDbTrace
 10
2486.799187695753
 20
1411.28748412237
 30
0.0
 11
2486.799187695753
 21
1409.98748412237
 31
0.0
 12
2490.699187695753
 22
1410.63748412237
 32
0.0
 13
2490.699187695753
 23
1410.63748412237
 33
0.0
  0
MTEXT
  5
1FF0
330
FD7
100
AcDbEntity
  8
AM_5
100
AcDbMText
 10
2470.699187695753
 20
1413.88748412237
 30
0.0
 40
3.9
 41
0.0
 71
     5
 72
     1
  1
{\Famgdt|c136;o}40
 73
     1
 44
1.0
1001
ACAD
1000
MTEXTBEGIN
1070
    73
1070
     1
1070
    44
1040
1.0
1070
    74
1070
     0
1000
MTEXTEND
  0
POINT
  5
1FF1
330
FD7
100
AcDbEntity
  8
Defpoints
 62
     0
100
AcDbPoint
 10
2450.699187695753
 20
1429.13748412237
 30
0.0
  0
POINT
  5
1FF2
330
FD7
100
AcDbEntity
  8
Defpoints
 62
     0
100
AcDbPoint
 10
2490.699187695753
 20
1428.13748412237
 30
0.0
  0
POINT
  5
1FF3
330
FD7
100
AcDbEntity
  8
Defpoints
 62
     0
100
AcDbPoint
 10
2490.699187695753
 20
1410.63748412237
 30
0.0
  0
ENDBLK
  5
FE2
330
FD7
100
AcDbEntity
  8
0
100
AcDbBlockEnd
  0
BLOCK
  5
1007
330
FFD
100
AcDbEntity
  8
0
100
AcDbBlockBegin
  2
*D12
 70
     1
 10
0.0
 20
0.0
 30
0.0
  3
*D12
  1

  0
LINE
  5
201E
330
FFD
100
AcDbEntity
  8
AM_5
100
AcDbLine
 10
2444.69918769575
 20
1429.906735094653
 30
0.0
 11
2444.69918769575
 21
1398.68748412237
 31
0.0
  0
LINE
  5
201F
330
FFD
100
AcDbEntity
  8
AM_5
100
AcDbLine
 10
2496.699187695753
 20
1429.90673509465
 30
0.0
 11
2496.699187695753
 21
1398.68748412237
 31
0.0
  0
LINE
  5
2020
330
FFD
100
AcDbEntity
  8
AM_5
100
AcDbLine
 10
2448.59918769575
 20
1400.63748412237
 30
0.0
 11
2492.799187695753
 21
1400.63748412237
 31
0.0
  0
SOLID
  5
2021
330
FFD
100
AcDbEntity
  8
AM_5
100
AcDbTrace
 10
2448.59918769575
 20
1401.28748412237
 30
0.0
 11
2448.59918769575
 21
1399.98748412237
 31
0.0
 12
2444.69918769575
 22
1400.63748412237
 32
0.0
 13
2444.69918769575
 23
1400.63748412237
 33
0.0
  0
SOLID
  5
2022
330
FFD
100
AcDbEntity
  8
AM_5
100
AcDbTrace
 10
2492.799187695753
 20
1401.28748412237
 30
0.0
 11
2492.799187695753
 21
1399.98748412237
 31
0.0
 12
2496.699187695753
 22
1400.63748412237
 32
0.0
 13
2496.699187695753
 23
1400.63748412237
 33
0.0
  0
MTEXT
  5
2023
330
FFD
100
AcDbEntity
  8
AM_5
100
AcDbMText
 10
2470.699187695751
 20
1403.887867980638
 30
0.0
 40
3.9
 41
0.0
 71
     5
 72
     1
  1
52
 73
     1
 44
1.0
1001
ACAD
1000
MTEXTBEGIN
1070
    73
1070
     1
1070
    44
1040
1.0
1070
    74
1070
     0
1000
MTEXTEND
  0
POINT
  5
2024
330
FFD
100
AcDbEntity
  8
Defpoints
 62
     0
100
AcDbPoint
 10
2444.69918769575
 20
1431.206735094653
 30
0.0
  0
POINT
  5
2025
330
FFD
100
AcDbEntity
  8
Defpoints
 62
     0
100
AcDbPoint
 10
2496.699187695753
 20
1431.20673509465
 30
0.0
  0
POINT
  5
2026
330
FFD
100
AcDbEntity
  8
Defpoints
 62
     0
100
AcDbPoint
 10
2496.699187695753
 20
1400.63748412237
 30
0.0
  0
ENDBLK
  5
1008
330
FFD
100
AcDbEntity
  8
0
100
AcDbBlockEnd
  0
BLOCK
  5
102D
330
1023
100
AcDbEntity
  8
0
100
AcDbBlockBegin
  2
*D13
 70
     1
 10
0.0
 20
0.0
 30
0.0
  3
*D13
  1

  0
LINE
  5
1CD4
330
1023
100
AcDbEntity
  8
AM_5
100
AcDbLine
 10
2495.429936723473
 20
1428.63748412237
 30
0.0
 11
2512.649187695753
 21
1428.63748412237
 31
0.0
  0
LINE
  5
1CD5
330
1023
100
AcDbEntity
  8
AM_5
100
AcDbLine
 10
2478.999187695753
 20
1485.63748412237
 30
0.0
 11
2512.649187695753
 21
1485.63748412237
 31
0.0
  0
LINE
  5
1CD6
330
1023
100
AcDbEntity
  8
AM_5
100
AcDbLine
 10
2510.699187695753
 20
1432.53748412237
 30
0.0
 11
2510.699187695753
 21
1481.73748412237
 31
0.0
  0
SOLID
  5
1CD7
330
1023
100
AcDbEntity
  8
AM_5
100
AcDbTrace
 10
2510.049187695753
 20
1432.53748412237
 30
0.0
 11
2511.349187695753
 21
1432.53748412237
 31
0.0
 12
2510.699187695753
 22
1428.63748412237
 32
0.0
 13
2510.699187695753
 23
1428.63748412237
 33
0.0
  0
SOLID
  5
1CD8
330
1023
100
AcDbEntity
  8
AM_5
100
AcDbTrace
 10
2510.049187695753
 20
1481.73748412237
 30
0.0
 11
2511.349187695753
 21
1481.73748412237
 31
0.0
 12
2510.699187695753
 22
1485.63748412237
 32
0.0
 13
2510.699187695753
 23
1485.63748412237
 33
0.0
  0
MTEXT
  5
1CD9
330
1023
100
AcDbEntity
  8
AM_5
100
AcDbMText
 10
2507.449187695752
 20
1457.13748412237
 30
0.0
 40
3.9
 41
0.0
 71
     5
 72
     1
  1
57
 11
0.0000000000000001
 21
1.0
 31
0.0
 73
     1
 44
1.0
1001
ACAD
1000
MTEXTBEGIN
1070
    73
1070
     1
1070
    44
1040
1.0
1070
    74
1070
     0
1000
MTEXTEND
  0
POINT
  5
1CDA
330
1023
100
AcDbEntity
  8
Defpoints
 62
     0
100
AcDbPoint
 10
2494.129936723473
 20
1428.63748412237
 30
0.0
  0
POINT
  5
1CDB
330
1023
100
AcDbEntity
  8
Defpoints
 62
     0
100
AcDbPoint
 10
2477.699187695753
 20
1485.63748412237
 30
0.0
  0
POINT
  5
1CDC
330
1023
100
AcDbEntity
  8
Defpoints
 62
     0
100
AcDbPoint
 10
2510.699187695753
 20
1485.63748412237
 30
0.0
  0
ENDBLK
  5
102E
330
1023
100
AcDbEntity
  8
0
100
AcDbBlockEnd
  0
BLOCK
  5
1DB3
330
1DB0
100
AcDbEntity
  8
0
100
AcDbBlockBegin
  2
GENDOT
 70
     0
 10
0.0
 20
0.0
 30
0.0
  3
GENDOT
  1

  0
LINE
  5
1DB1
330
1DB0
100
AcDbEntity
  8
0
100
AcDbLine
 10
0.0
 20
0.0
 30
0.0
 11
-1.0
 21
0.0
 31
0.0
  0
LWPOLYLINE
  5
1DB2
330
1DB0
100
AcDbEntity
  8
0
100
AcDbPolyline
 90
        2
 70
     1
 43
0.25
 10
-0.125
 20
0.0
 42
1.0
 10
0.125
 20
0.0
 42
1.0
  0
ENDBLK
  5
1DB4
330
1DB0
100
AcDbEntity
  8
0
100
AcDbBlockEnd
  0
BLOCK
  5
1F3A
330
1F30
100
AcDbEntity
  8
0
100
AcDbBlockBegin
  2
*D15
 70
     1
 10
0.0
 20
0.0
 30
0.0
  3
*D15
  1

  0
LINE
  5
1FDD
330
1F30
100
AcDbEntity
  8
AM_5
100
AcDbLine
 10
2498.999187695753
 20
1569.437385797718
 30
0.0
 11
2514.339859096957
 21
1569.437385797718
 31
0.0
  0
LINE
  5
1FDE
330
1F30
100
AcDbEntity
  8
AM_5
100
AcDbLine
 10
2498.999187695753
 20
1559.437385797718
 30
0.0
 11
2514.339859096957
 21
1559.437385797718
 31
0.0
  0
LINE
  5
1FDF
330
1F30
100
AcDbEntity
  8
AM_5
100
AcDbLine
 10
2512.389859096957
 20
1573.337385797718
 30
0.0
 11
2512.389859096957
 21
1577.237385797718
 31
0.0
  0
LINE
  5
1FE0
330
1F30
100
AcDbEntity
  8
AM_5
100
AcDbLine
 10
2512.389859096957
 20
1555.537385797718
 30
0.0
 11
2512.389859096957
 21
1551.637385797718
 31
0.0
  0
LINE
  5
1FE1
330
1F30
100
AcDbEntity
  8
AM_5
100
AcDbLine
 10
2512.389859096957
 20
1569.437385797718
 30
0.0
 11
2512.389859096957
 21
1559.437385797718
 31
0.0
  0
SOLID
  5
1FE2
330
1F30
100
AcDbEntity
  8
AM_5
100
AcDbTrace
 10
2511.739859096957
 20
1573.337385797718
 30
0.0
 11
2513.039859096957
 21
1573.337385797718
 31
0.0
 12
2512.389859096957
 22
1569.437385797718
 32
0.0
 13
2512.389859096957
 23
1569.437385797718
 33
0.0
  0
INSERT
  5
1FE3
330
1F30
100
AcDbEntity
  8
AM_5
100
AcDbBlockReference
  2
GENDOT
 10
2512.389859096957
 20
1559.437385797718
 30
0.0
 41
3.9
 42
3.9
 43
3.9
 50
90.0
  0
MTEXT
  5
1FE4
330
1F30
100
AcDbEntity
  8
AM_5
100
AcDbMText
 10
2509.139859096956
 20
1564.437385797719
 30
0.0
 40
3.9
 41
0.0
 71
     5
 72
     1
  1
10
 11
0.0000000000000001
 21
1.0
 31
0.0
 73
     1
 44
1.0
1001
ACAD
1000
MTEXTBEGIN
1070
    73
1070
     1
1070
    44
1040
1.0
1070
    74
1070
     0
1000
MTEXTEND
  0
POINT
  5
1FE5
330
1F30
100
AcDbEntity
  8
Defpoints
 62
     0
100
AcDbPoint
 10
2497.699187695753
 20
1569.437385797718
 30
0.0
  0
POINT
  5
1FE6
330
1F30
100
AcDbEntity
  8
Defpoints
 62
     0
100
AcDbPoint
 10
2497.699187695753
 20
1559.437385797718
 30
0.0
  0
POINT
  5
1FE7
330
1F30
100
AcDbEntity
  8
Defpoints
 62
     0
100
AcDbPoint
 10
2512.389859096957
 20
1559.437385797718
 30
0.0
  0
ENDBLK
  5
1F3B
330
1F30
100
AcDbEntity
  8
0
100
AcDbBlockEnd
  0
BLOCK
  5
1FB5
330
1FA9
100
AcDbEntity
  8
0
100
AcDbBlockBegin
  2
*D16
 70
     1
 10
0.0
 20
0.0
 30
0.0
  3
*D16
  1

  0
LINE
  5
1FD2
330
1FA9
100
AcDbEntity
  8
AM_5
100
AcDbLine
 10
2497.999187695753
 20
1552.937385797718
 30
0.0
 11
2514.339859096957
 21
1552.937385797718
 31
0.0
  0
LINE
  5
1FD3
330
1FA9
100
AcDbEntity
  8
AM_5
100
AcDbLine
 10
2498.999187695753
 20
1559.437385797718
 30
0.0
 11
2514.339859096957
 21
1559.437385797718
 31
0.0
  0
LINE
  5
1FD4
330
1FA9
100
AcDbEntity
  8
AM_5
100
AcDbLine
 10
2512.389859096957
 20
1549.037385797718
 30
0.0
 11
2512.389859096957
 21
1545.137385797718
 31
0.0
  0
LINE
  5
1FD5
330
1FA9
100
AcDbEntity
  8
AM_5
100
AcDbLine
 10
2512.389859096957
 20
1563.337385797718
 30
0.0
 11
2512.389859096957
 21
1567.237385797718
 31
0.0
  0
LINE
  5
1FD6
330
1FA9
100
AcDbEntity
  8
AM_5
100
AcDbLine
 10
2512.389859096957
 20
1552.937385797718
 30
0.0
 11
2512.389859096957
 21
1559.437385797718
 31
0.0
  0
SOLID
  5
1FD7
330
1FA9
100
AcDbEntity
  8
AM_5
100
AcDbTrace
 10
2511.739859096957
 20
1549.037385797718
 30
0.0
 11
2513.039859096957
 21
1549.037385797718
 31
0.0
 12
2512.389859096957
 22
1552.937385797718
 32
0.0
 13
2512.389859096957
 23
1552.937385797718
 33
0.0
  0
INSERT
  5
1FD8
330
1FA9
100
AcDbEntity
  8
AM_5
100
AcDbBlockReference
  2
GENDOT
 10
2512.389859096957
 20
1559.437385797718
 30
0.0
 41
3.9
 42
3.9
 43
3.9
 50
270.0
  0
MTEXT
  5
1FD9
330
1FA9
100
AcDbEntity
  8
AM_5
100
AcDbMText
 10
2509.139859096956
 20
1556.187385797718
 30
0.0
 40
3.9
 41
0.0
 71
     5
 72
     1
  1
6.5
 11
0.0000000000000001
 21
1.0
 31
0.0
 73
     1
 44
1.0
1001
ACAD
1000
MTEXTBEGIN
1070
    73
1070
     1
1070
    44
1040
1.0
1070
    74
1070
     0
1000
MTEXTEND
  0
POINT
  5
1FDA
330
1FA9
100
AcDbEntity
  8
Defpoints
 62
     0
100
AcDbPoint
 10
2496.699187695753
 20
1552.937385797718
 30
0.0
  0
POINT
  5
1FDB
330
1FA9
100
AcDbEntity
  8
Defpoints
 62
     0
100
AcDbPoint
 10
2497.699187695753
 20
1559.437385797718
 30
0.0
  0
POINT
  5
1FDC
330
1FA9
100
AcDbEntity
  8
Defpoints
 62
     0
100
AcDbPoint
 10
2512.389859096957
 20
1559.437385797718
 30
0.0
  0
ENDBLK
  5
1FB6
330
1FA9
100
AcDbEntity
  8
0
100
AcDbBlockEnd
  0
BLOCK
  5
2075
330
2070
100
AcDbEntity
  8
0
100
AcDbBlockBegin
  2
*S18
 70
     1
 10
0.0
 20
0.0
 30
0.0
  3
*S18
  1

  0
LINE
  5
2071
330
2070
100
AcDbEntity
  8
AM_5
 62
     5
100
AcDbLine
 10
2574.670676569951
 20
1414.159434510545
 30
0.0
 11
2522.660226456848
 21
1414.159434510545
 31
0.0
  0
LINE
  5
2072
330
2070
100
AcDbEntity
  8
AM_5
 62
     5
100
AcDbLine
 10
2522.660226456848
 20
1414.159434510545
 30
0.0
 11
2496.900597064419
 21
1430.409366785893
 31
0.0
  0
TRACE
  5
2073
330
2070
100
AcDbEntity
  8
AM_5
 62
     5
370
    35
100
AcDbTrace
 10
2497.220197439539
 20
1430.916001956875
 30
0.0
 11
2496.5809966893
 21
1429.902731614911
 31
0.0
 12
2493.05232086361
 22
1432.83697266047
 32
0.0
 13
2493.05232086361
 23
1432.83697266047
 33
0.0
  0
MTEXT
  5
2074
330
2070
100
AcDbEntity
  8
AM_5
 62
     5
100
AcDbMText
 10
2526.160226456849
 20
1415.909434510545
 30
0.0
 40
4.549999999999999
 41
0.0
 71
     7
 72
     5
  1
2-%%C5.5 thru\P2-%%C9x7 depth\P2-M6x1.0x10 depth
  7
ACISOTS
 73
     1
 44
1.0
1001
ACAD
1000
MTEXTBEGIN
1070
    73
1070
     1
1070
    44
1040
1.0
1070
    74
1070
     0
1000
MTEXTEND
  0
ENDBLK
  5
2076
330
2070
100
AcDbEntity
  8
0
100
AcDbBlockEnd
  0
BLOCK
  5
207D
330
2078
100
AcDbEntity
  8
0
100
AcDbBlockBegin
  2
*S19
 70
     1
 10
0.0
 20
0.0
 30
0.0
  3
*S19
  1

  0
LINE
  5
2079
330
2078
100
AcDbEntity
  8
AM_5
 62
     5
100
AcDbLine
 10
2524.651608310707
 20
1499.281176987841
 30
0.0
 11
2500.106066972125
 21
1499.281176987841
 31
0.0
  0
LINE
  5
207A
330
2078
100
AcDbEntity
  8
AM_5
 62
     5
100
AcDbLine
 10
2500.106066972125
 20
1499.281176987841
 30
0.0
 11
2478.098228193179
 21
1515.245280340184
 31
0.0
  0
TRACE
  5
207B
330
2078
100
AcDbEntity
  8
AM_5
 62
     5
370
    35
100
AcDbTrace
 10
2478.449954429331
 20
1515.730164090227
 30
0.0
 11
2477.746501957027
 21
1514.760396590142
 31
0.0
 12
2474.415170438165
 22
1517.916906356908
 32
0.0
 13
2474.415170438165
 23
1517.916906356908
 33
0.0
  0
MTEXT
  5
207C
330
2078
100
AcDbEntity
  8
AM_5
 62
     5
100
AcDbMText
 10
2503.606066972125
 20
1501.031176987841
 30
0.0
 40
4.549999999999999
 41
0.0
 71
     7
 72
     5
  1
2-PT1/8
  7
ACISOTS
 73
     1
 44
1.0
1001
ACAD
1000
MTEXTBEGIN
1070
    73
1070
     1
1070
    44
1040
1.0
1070
    74
1070
     0
1000
MTEXTEND
  0
ENDBLK
  5
207E
330
2078
100
AcDbEntity
  8
0
100
AcDbBlockEnd
  0
BLOCK
  5
2085
330
2080
100
AcDbEntity
  8
0
100
AcDbBlockBegin
  2
*S20
 70
     1
 10
0.0
 20
0.0
 30
0.0
  3
*S20
  1

  0
LINE
  5
2081
330
2080
100
AcDbEntity
  8
AM_5
 62
     5
100
AcDbLine
 10
2577.617598266205
 20
1616.276652759436
 30
0.0
 11
2534.532598266205
 21
1616.276652759436
 31
0.0
  0
LINE
  5
2082
330
2080
100
AcDbEntity
  8
AM_5
 62
     5
100
AcDbLine
 10
2534.532598266205
 20
1616.276652759436
 30
0.0
 11
2496.896198464612
 21
1633.658125656838
 31
0.0
  0
TRACE
  5
2083
330
2080
100
AcDbEntity
  8
AM_5
 62
     5
370
    35
100
AcDbTrace
 10
2497.147351178957
 20
1634.201950914003
 30
0.0
 11
2496.645045750268
 21
1633.114300399673
 31
0.0
 12
2492.765435512469
 22
1635.565819928256
 32
0.0
 13
2492.765435512469
 23
1635.565819928256
 33
0.0
  0
MTEXT
  5
2084
330
2080
100
AcDbEntity
  8
AM_5
 62
     5
100
AcDbMText
 10
2538.032598266206
 20
1618.026652759436
 30
0.0
 40
4.549999999999999
 41
0.0
 71
     7
 72
     5
  1
4-M8x1.25 thru
  7
ACISOTS
 73
     1
 44
1.0
1001
ACAD
1000
MTEXTBEGIN
1070
    73
1070
     1
1070
    44
1040
1.0
1070
    74
1070
     0
1000
MTEXTEND
  0
ENDBLK
  5
2086
330
2080
100
AcDbEntity
  8
0
100
AcDbBlockEnd
  0
ENDSEC
  0
SECTION
  2
ENTITIES
  0
DIMENSION
  5
E65
330
1F
100
AcDbEntity
  8
AM_5
100
AcDbDimension
  2
*D5
 10
2489.699187695753
 20
1594.33814677832
 30
0.0
 11
2470.699187695753
 21
1597.588146778321
 31
0.0
 70
    32
 71
     5
 42
38.0
  3
AM_ISO$0
100
AcDbAlignedDimension
 13
2451.699187695753
 23
1632.338146778321
 33
0.0
 14
2489.699187695753
 24
1632.338146778321
 34
0.0
100
AcDbRotatedDimension
1001
ACAD
1000
DSTYLE
1002
{
1070
    40
1040
1.3
1002
}
  0
DIMENSION
  5
E9D
330
1F
100
AcDbEntity
  8
AM_5
100
AcDbDimension
  2
*D6
 10
2497.699187695753
 20
1584.338146778321
 30
0.0
 11
2470.699187695753
 21
1587.58814677832
 31
0.0
 70
    32
 71
     5
 42
54.0
  3
AM_ISO$0
100
AcDbAlignedDimension
 13
2443.699187695753
 23
1610.33814677832
 33
0.0
 14
2497.699187695753
 24
1610.33814677832
 34
0.0
100
AcDbRotatedDimension
1001
ACAD
1000
DSTYLE
1002
{
1070
    40
1040
1.3
1002
}
  0
DIMENSION
  5
EC3
330
1F
100
AcDbEntity
  8
AM_5
100
AcDbDimension
  2
*D7
 10
2516.911220340697
 20
1663.33814677832
 30
0.0
 11
2513.661220340696
 21
1638.338146778321
 31
0.0
 70
    32
 71
     5
 42
50.0
  3
AM_ISO$0
100
AcDbAlignedDimension
 13
2476.699187695753
 23
1613.33814677832
 33
0.0
 14
2476.699187695753
 24
1663.33814677832
 34
0.0
 50
90.0
100
AcDbRotatedDimension
1001
ACAD
1000
DSTYLE
1002
{
1070
    40
1040
1.3
1002
}
  0
DIMENSION
  5
EE9
330
1F
100
AcDbEntity
  8
AM_5
100
AcDbDimension
  2
*D8
 10
2526.911220340697
 20
1670.33814677832
 30
0.0
 11
2523.661220340696
 21
1638.338146778321
 31
0.0
 70
    32
 71
     5
 42
64.0
  3
AM_ISO$0
100
AcDbAlignedDimension
 13
2493.699187695753
 23
1606.33814677832
 33
0.0
 14
2493.699187695753
 24
1670.33814677832
 34
0.0
 50
90.0
100
AcDbRotatedDimension
1001
ACAD
1000
DSTYLE
1002
{
1070
    40
1040
1.3
1002
}
  0
DIMENSION
  5
F0F
330
1F
100
AcDbEntity
  8
AM_5
100
AcDbDimension
  2
*D9
 10
2512.389859096957
 20
1552.937385797718
 30
0.0
 11
2509.139859096956
 21
1533.187385797718
 31
0.0
 70
    32
  1
<>+stroke
 71
     5
 42
39.5
  3
AM_ISO$0
100
AcDbAlignedDimension
 13
2496.699187695753
 23
1513.437385797718
 33
0.0
 14
2496.699187695753
 24
1552.937385797718
 34
0.0
 50
90.0
100
AcDbRotatedDimension
1001
ACAD
1000
DSTYLE
1002
{
1070
    40
1040
1.3
1002
}
  0
DIMENSION
  5
F85
330
1F
100
AcDbEntity
  8
AM_5
100
AcDbDimension
  2
*D10
 10
2522.389859096957
 20
1569.437385797718
 30
0.0
 11
2519.139859096956
 21
1541.437385797719
 31
0.0
 70
    32
  1
<>+stroke
 71
     5
 42
56.0
  3
AM_ISO$0
100
AcDbAlignedDimension
 13
2496.699187695753
 23
1513.437385797718
 33
0.0
 14
2497.699187695753
 24
1569.437385797718
 34
0.0
 50
90.0
100
AcDbRotatedDimension
1001
ACAD
1000
DSTYLE
1002
{
1070
    40
1040
1.3
1002
}
  0
DIMENSION
  5
FD6
330
1F
100
AcDbEntity
  8
AM_5
100
AcDbDimension
  2
*D11
 10
2490.699187695753
 20
1410.63748412237
 30
0.0
 11
2470.699187695753
 21
1413.88748412237
 31
0.0
 70
    32
  1
{\Famgdt;o}<>
 71
     5
 42
40.0
  3
AM_ISO$0
100
AcDbAlignedDimension
 13
2450.699187695753
 23
1429.13748412237
 33
0.0
 14
2490.699187695753
 24
1428.13748412237
 34
0.0
100
AcDbRotatedDimension
1001
ACAD
1000
DSTYLE
1002
{
1070
    40
1040
1.3
1002
}
  0
DIMENSION
  5
FFC
330
1F
100
AcDbEntity
  8
AM_5
100
AcDbDimension
  2
*D12
 10
2496.699187695753
 20
1400.63748412237
 30
0.0
 11
2470.699187695751
 21
1403.887867980638
 31
0.0
 70
    32
 71
     5
 42
52.00000000000319
  3
AM_ISO$0
100
AcDbAlignedDimension
 13
2444.69918769575
 23
1431.206735094653
 33
0.0
 14
2496.699187695753
 24
1431.20673509465
 34
0.0
100
AcDbRotatedDimension
1001
ACAD
1000
DSTYLE
1002
{
1070
    40
1040
1.3
1002
}
  0
DIMENSION
  5
1022
330
1F
100
AcDbEntity
  8
AM_5
100
AcDbDimension
  2
*D13
 10
2510.699187695753
 20
1485.63748412237
 30
0.0
 11
2507.449187695752
 21
1457.13748412237
 31
0.0
 70
    32
 71
     5
 42
57.00000000000023
  3
AM_ISO$0
100
AcDbAlignedDimension
 13
2494.129936723473
 23
1428.63748412237
 33
0.0
 14
2477.699187695753
 24
1485.63748412237
 34
0.0
 50
90.0
100
AcDbRotatedDimension
1001
ACAD
1000
DSTYLE
1002
{
1070
    40
1040
1.3
1002
}
  0
INSERT
  5
1266
330
1F
100
AcDbEntity
  8
AM_5
100
AcDbBlockReference
  2
*S18
 10
0.0
 20
0.0
 30
0.0
  0
INSERT
  5
14F5
330
1F
100
AcDbEntity
  8
AM_5
100
AcDbBlockReference
  2
*S19
 10
0.0
 20
0.0
 30
0.0
  0
INSERT
  5
1509
330
1F
100
AcDbEntity
  8
AM_5
100
AcDbBlockReference
  2
*S20
 10
0.0
 20
0.0
 30
0.0
  0
LINE
  5
15A2
330
1F
100
AcDbEntity
  8
LOGO
 62
     4
100
AcDbLine
 10
2637.536397665198
 20
1384.184679748515
 30
0.0
 11
2372.936397665198
 21
1384.184679748515
 31
0.0
  0
LWPOLYLINE
  5
15A3
330
1F
100
AcDbEntity
  8
LOGO
 62
     4
100
AcDbPolyline
 90
        4
 70
     1
 43
0.0
 10
2372.936397665198
 20
1384.184679748515
 10
2637.536397665198
 20
1384.184679748515
 10
2637.536397665198
 20
1697.928511060731
 10
2372.936397665198
 20
1697.928511060731
1001
GENIUS_GENREC_14
1002
{
1000
PYDIR
1011
2372.936397665198
1021
1697.928511060731
1031
0.0
1002
}
1002
{
1000
PXDIR
1011
2637.536397665198
1021
1384.184679748515
1031
0.0
1002
}
1002
{
1000
PORI
1011
2372.936397665198
1021
1384.184679748515
1031
0.0
1002
}
1002
{
1000
PINS
1011
2372.936397665198
1021
1384.184679748515
1031
0.0
1002
}
1002
{
1000
PINS2
1011
2637.536397665198
1021
1697.928511060731
1031
0.0
1002
}
1002
{
1000
C
1070
     1
1002
}
1001
GENIUS_GENODEF_13
1002
{
1000
HIER
1070
     0
1002
}
1002
{
1000
MANEDIT
1070
     0
1002
}
1002
{
1000
NOSEL
1070
     0
1002
}
1002
{
1000
BEHIND
1070
     0
1002
}
1002
{
1000
OTHER
1070
     0
1002
}
1002
{
1000
REACTOR
1002
}
1001
GENIUS_GENOBJ-N-REC_13
1002
{
1000
OWNER
1000
GEN
1002
}
  0
LWPOLYLINE
  5
15A4
330
1F
100
AcDbEntity
  8
LOGO
 62
     4
100
AcDbPolyline
 90
        4
 70
     1
 43
0.0
 10
2372.936397665198
 20
1384.184679748515
 10
2637.536397665198
 20
1384.184679748515
 10
2637.536397665198
 20
1357.728511060731
 10
2372.936397665198
 20
1357.728511060731
1001
GENIUS_GENREC_14
1002
{
1000
PYDIR
1011
2372.936397665198
1021
1357.728511060731
1031
0.0
1002
}
1002
{
1000
PXDIR
1011
2637.536397665198
1021
1384.184679748515
1031
0.0
1002
}
1002
{
1000
PORI
1011
2372.936397665198
1021
1384.184679748515
1031
0.0
1002
}
1002
{
1000
PINS
1011
2372.936397665198
1021
1384.184679748515
1031
0.0
1002
}
1002
{
1000
PINS2
1011
2637.536397665198
1021
1357.728511060731
1031
0.0
1002
}
1002
{
1000
C
1070
     1
1002
}
1001
GENIUS_GENOBJ-N-REC_13
1002
{
1000
OWNER
1000
GEN
1002
}
1001
GENIUS_GENODEF_13
1002
{
1000
HIER
1070
     0
1002
}
1002
{
1000
MANEDIT
1070
     0
1002
}
1002
{
1000
NOSEL
1070
     0
1002
}
1002
{
1000
BEHIND
1070
     0
1002
}
1002
{
1000
OTHER
1070
     0
1002
}
1002
{
1000
REACTOR
1002
}
  0
TEXT
  5
15A5
330
1F
100
AcDbEntity
  8
LOGO
 62
     7
100
AcDbText
 10
2432.672674782188
 20
1372.594682436576
 30
0.0
 40
3.52748915837104
  1
Order example:
 41
0.8
  7
CHINESET
100
AcDbText
  0
TEXT
  5
15A6
330
1F
100
AcDbEntity
  8
LOGO
 62
     7
100
AcDbText
 10
2433.305535508348
 20
1377.560656795613
 30
0.0
 40
5.291233737556559
  1
訂購代號：
  7
CHINESET
100
AcDbText
  0
LINE
  5
15A7
330
1F
100
AcDbEntity
  8
LOGO
 62
     4
100
AcDbLine
 10
2431.13996877832
 20
1357.728511060732
 30
0.0
 11
2431.13996877832
 21
1384.184679748515
 31
0.0
  0
TEXT
  5
15A8
330
1F
100
AcDbEntity
  8
LOGO
  6
Continuous
100
AcDbText
 10
2382.439572380629
 20
1362.925785473607
 30
0.0
 40
3.968425303167421
  1
金器工業股份有限公司
  7
CHINESET
100
AcDbText
  0
TEXT
  5
15A9
330
1F
100
AcDbEntity
  8
LOGO
  6
Continuous
100
AcDbText
 10
2375.150360212939
 20
1358.956582670217
 30
0.0
 40
2.645616868778279
  1
MINDMAN INDUSTRIAL CO., LTD.
 41
0.85
  7
CHINESET
100
AcDbText
  0
LINE
  5
15AA
330
1F
100
AcDbEntity
  8
LOGO
 62
     4
100
AcDbLine
 10
2431.13996877832
 20
1378.893446010958
 30
0.0
 11
2392.337588036238
 21
1378.893446010958
 31
0.0
  0
LINE
  5
15AB
330
1F
100
AcDbEntity
  8
LOGO
 62
     4
100
AcDbLine
 10
2431.13996877832
 20
1373.602212273402
 30
0.0
 11
2392.337588036238
 21
1373.602212273402
 31
0.0
  0
LINE
  5
15AC
330
1F
100
AcDbEntity
  8
LOGO
 62
     4
100
AcDbLine
 10
2431.13996877832
 20
1368.310978535845
 30
0.0
 11
2372.936397665198
 21
1368.310978535845
 31
0.0
  0
LINE
  5
15AD
330
1F
100
AcDbEntity
  8
LOGO
 62
     4
100
AcDbLine
 10
2392.337588036238
 20
1368.310978535845
 30
0.0
 11
2392.337588036238
 21
1384.184679748515
 31
0.0
  0
TEXT
  5
15AE
330
1F
100
AcDbEntity
  8
LOGO
100
AcDbText
 10
2418.857183828977
 20
1369.633786970234
 30
0.0
 40
2.645616868778279
  1
mm
  7
CHINESET
 72
     1
 11
2422.132709476036
 21
1370.956595404623
 31
0.0
100
AcDbText
 73
     2
  0
TEXT
  5
15AF
330
1F
100
AcDbEntity
  8
LOGO
100
AcDbText
 10
2417.47138451676
 20
1380.216254445347
 30
0.0
 40
2.645616868778279
  1
1 : 1
  7
CHINESET
 72
     1
 11
2422.132709476036
 21
1381.539062879736
 31
0.0
100
AcDbText
 73
     2
  0
LINE
  5
15B0
330
1F
100
AcDbEntity
  8
LOGO
 62
     4
100
AcDbLine
 10
2413.502522986466
 20
1368.310978535845
 30
0.0
 11
2413.502522986466
 21
1384.184679748515
 31
0.0
  0
CIRCLE
  5
15B1
330
1F
100
AcDbEntity
  8
LOGO
  6
Continuous
100
AcDbCircle
 10
2418.401213527535
 20
1376.253488136022
 30
0.0
 40
1.536107424814195
  0
CIRCLE
  5
15B2
330
1F
100
AcDbEntity
  8
LOGO
  6
Continuous
100
AcDbCircle
 10
2418.401213527535
 20
1376.253488136022
 30
0.0
 40
0.9000229670445849
  0
LINE
  5
15B3
330
1F
100
AcDbEntity
  8
LOGO
100
AcDbLine
 10
2428.054290827435
 20
1374.717380711208
 30
0.0
 11
2428.054290827435
 21
1377.789595560837
 31
0.0
  0
LINE
  5
15B4
330
1F
100
AcDbEntity
  8
LOGO
100
AcDbLine
 10
2423.238682227416
 20
1375.353465168978
 30
0.0
 11
2423.238682227416
 21
1377.153511103067
 31
0.0
  0
LINE
  5
15B5
330
1F
100
AcDbEntity
  8
LOGO
  6
Continuous
100
AcDbLine
 10
2423.238682227416
 20
1377.153511103067
 30
0.0
 11
2428.054290827435
 21
1377.789595560837
 31
0.0
  0
LINE
  5
15B6
330
1F
100
AcDbEntity
  8
LOGO
  6
Continuous
100
AcDbLine
 10
2423.238682227416
 20
1375.353465168978
 30
0.0
 11
2428.054290827435
 21
1374.717380711208
 31
0.0
  0
TEXT
  5
15B7
330
1F
100
AcDbEntity
  8
LOGO
100
AcDbText
 10
2394.519040874021
 20
1380.217556422153
 30
173.3893711805459
 40
2.645616868778279
  1
比例 Scale:
 41
0.9
  7
CHINESET
 72
     4
 11
2402.920055511351
 21
1381.539062879736
 31
173.3893711805459
100
AcDbText
  0
TEXT
  5
15B8
330
1F
100
AcDbEntity
  8
LOGO
100
AcDbText
 10
2394.366681688274
 20
1374.962235544815
 30
173.3893711805459
 40
2.645616868778279
  1
投影  View:
 41
0.9
  7
CHINESET
 72
     4
 11
2402.920055511351
 21
1376.24782914218
 31
173.3893711805459
100
AcDbText
  0
TEXT
  5
15B9
330
1F
100
AcDbEntity
  8
LOGO
100
AcDbText
 10
2394.625337980356
 20
1369.633786970234
 30
173.3893711805459
 40
2.645616868778279
  1
單位  Unit:
 41
0.9
  7
CHINESET
 72
     4
 11
2402.920055511351
 21
1370.956595404623
 31
173.3893711805459
100
AcDbText
  0
SOLID
  5
15BA
330
1F
100
AcDbEntity
  8
LOGO
 62
     5
100
AcDbTrace
 10
2375.681267625477
 20
1372.708940006281
 30
0.0
 11
2376.825162938549
 21
1372.708940006281
 31
0.0
 12
2381.597967520682
 22
1383.556223147492
 32
0.0
 13
2382.741862833755
 23
1383.556223147491
 33
0.0
  0
SOLID
  5
15BB
330
1F
100
AcDbEntity
  8
LOGO
 62
     5
100
AcDbTrace
 10
2377.298498930167
 20
1372.708940006281
 30
0.0
 11
2378.44239424324
 21
1372.708940006281
 31
0.0
 12
2382.741862833755
 22
1382.688440496194
 32
0.0
 13
2381.597967520682
 23
1378.494157681593
 33
0.0
  0
SOLID
  5
15BC
330
1F
100
AcDbEntity
  8
LOGO
 62
     2
100
AcDbTrace
 10
2376.825162938549
 20
1372.708940006281
 30
0.0
 11
2377.298498930167
 21
1372.708940006281
 31
0.0
 12
2382.741862833755
 22
1383.556223147491
 32
0.0
 13
2383.215198825373
 23
1383.556223147491
 33
0.0
  0
SOLID
  5
15BD
330
1F
100
AcDbEntity
  8
LOGO
 62
     5
100
AcDbTrace
 10
2373.847322921128
 20
1368.764473409477
 30
0.0
 11
2374.241769580809
 21
1368.764473409477
 31
0.0
 12
2375.352562075743
 22
1370.736706707879
 32
0.0
 13
2375.747008735423
 23
1370.736706707879
 33
0.0
  0
SOLID
  5
15BE
330
1F
100
AcDbEntity
  8
LOGO
 62
     5
100
AcDbTrace
 10
2375.352562075743
 20
1370.736706707879
 30
0.0
 11
2375.747008735423
 21
1370.736706707879
 31
0.0
 12
2375.352562075743
 22
1368.764473409477
 32
0.0
 13
2375.747008735423
 23
1368.764473409477
 33
0.0
  0
SOLID
  5
15BF
330
1F
100
AcDbEntity
  8
LOGO
 62
     5
100
AcDbTrace
 10
2375.352562075743
 20
1368.764473409477
 30
0.0
 11
2375.747008735423
 21
1368.764473409477
 31
0.0
 12
2376.857801230359
 22
1370.736706707879
 32
0.0
 13
2377.252247890039
 23
1370.736706707879
 33
0.0
  0
SOLID
  5
15C0
330
1F
100
AcDbEntity
  8
LOGO
 62
     5
100
AcDbTrace
 10
2376.857801230359
 20
1370.736706707879
 30
0.0
 11
2377.252247890039
 21
1370.736706707879
 31
0.0
 12
2376.857801230359
 22
1368.764473409477
 32
0.0
 13
2377.252247890039
 23
1368.764473409477
 33
0.0
  0
POLYLINE
  5
15C1
330
1F
100
AcDbEntity
  8
LOGO
 62
     5
100
AcDb2dPolyline
 66
     1
 10
0.0
 20
0.0
 30
0.0
 40
0.3950787857375564
 41
0.3950787857375564
  0
VERTEX
  5
15C2
330
15C1
100
AcDbEntity
  8
LOGO
 62
     5
100
AcDbVertex
100
AcDb2dVertex
 10
2390.079518892896
 20
1369.947813388519
 30
0.0
 42
1.0
  0
VERTEX
  5
15C3
330
15C1
100
AcDbEntity
  8
LOGO
 62
     5
100
AcDbVertex
100
AcDb2dVertex
 10
2388.894282535684
 20
1369.947813388519
 30
0.0
 42
1.0
  0
SEQEND
  5
15C4
330
15C1
100
AcDbEntity
  8
LOGO
 62
     5
  0
POLYLINE
  5
15C5
330
1F
100
AcDbEntity
  8
LOGO
 62
     5
100
AcDb2dPolyline
 66
     1
 10
0.0
 20
0.0
 30
0.0
 70
     1
  0
VERTEX
  5
15C6
330
15C5
100
AcDbEntity
  8
LOGO
 62
     5
100
AcDbVertex
100
AcDb2dVertex
 10
2386.660059283024
 20
1369.750590058678
 30
0.0
 42
1.000000057330635
  0
VERTEX
  5
15C7
330
15C5
100
AcDbEntity
  8
LOGO
 62
     5
100
AcDbVertex
100
AcDb2dVertex
 10
2387.843399262065
 20
1369.750590058678
 30
0.0
 42
1.000000057330635
  0
SEQEND
  5
15C8
330
15C5
100
AcDbEntity
  8
LOGO
 62
     5
  0
CIRCLE
  5
15C9
330
1F
100
AcDbEntity
  8
LOGO
 62
     5
100
AcDbCircle
 10
2387.251729272546
 20
1369.750590058678
 30
0.0
 40
0.5916699895205647
  0
POLYLINE
  5
15CA
330
1F
100
AcDbEntity
  8
LOGO
 62
     5
100
AcDb2dPolyline
 66
     1
 10
0.0
 20
0.0
 30
0.0
 70
     1
 40
0.3950787857375564
 41
0.3950787857375564
  0
VERTEX
  5
15CB
330
15CA
100
AcDbEntity
  8
LOGO
 62
     5
100
AcDbVertex
100
AcDb2dVertex
 10
2386.46157170107
 20
1369.750590058678
 30
0.0
 42
1.0
  0
VERTEX
  5
15CC
330
15CA
100
AcDbEntity
  8
LOGO
 62
     5
100
AcDbVertex
100
AcDb2dVertex
 10
2388.04188684402
 20
1369.750590058678
 30
0.0
 42
1.0
  0
SEQEND
  5
15CD
330
15CA
100
AcDbEntity
  8
LOGO
 62
     5
  0
LINE
  5
15CE
330
1F
100
AcDbEntity
  8
LOGO
100
AcDbLine
 10
2390.27579403365
 20
1368.764473409477
 30
0.0
 11
2390.27579403365
 21
1369.947813388519
 31
0.0
  0
SOLID
  5
15CF
330
1F
100
AcDbEntity
  8
LOGO
 62
     5
100
AcDbTrace
 10
2387.843359817401
 20
1370.736706707879
 30
0.0
 11
2388.23780647708
 21
1370.736706707879
 31
0.0
 12
2387.843359817401
 22
1368.764473409477
 32
0.0
 13
2388.23780647708
 23
1368.764473409477
 33
0.0
  0
SOLID
  5
15D0
330
1F
100
AcDbEntity
  8
LOGO
 62
     5
100
AcDbTrace
 10
2388.698007394929
 20
1368.764473409477
 30
0.0
 11
2389.09245405461
 21
1368.764473409477
 31
0.0
 12
2388.698007394929
 22
1370.736706707879
 32
0.0
 13
2389.09245405461
 23
1370.736706707879
 33
0.0
  0
SOLID
  5
15D1
330
1F
100
AcDbEntity
  8
LOGO
 62
     5
100
AcDbTrace
 10
2389.881347373971
 20
1369.947813388519
 30
0.0
 11
2390.27579403365
 21
1369.947813388519
 31
0.0
 12
2389.881347373971
 22
1368.764473409477
 32
0.0
 13
2390.27579403365
 23
1368.764473409477
 33
0.0
  0
SOLID
  5
15D2
330
1F
100
AcDbEntity
  8
LOGO
 62
     5
100
AcDbTrace
 10
2388.658562728961
 20
1382.688440496194
 30
0.0
 11
2387.514667415888
 21
1378.494157681593
 31
0.0
 12
2388.658562728961
 22
1372.708940006281
 32
0.0
 13
2387.514667415888
 23
1372.708940006281
 33
0.0
  0
SOLID
  5
15D3
330
1F
100
AcDbEntity
  8
LOGO
 62
     5
100
AcDbTrace
 10
2389.131898720578
 20
1372.708940006281
 30
0.0
 11
2390.27579403365
 21
1372.708940006281
 31
0.0
 12
2389.131898720578
 22
1383.556223147491
 32
0.0
 13
2390.27579403365
 23
1383.556223147492
 33
0.0
  0
SOLID
  5
15D4
330
1F
100
AcDbEntity
  8
LOGO
 62
     2
100
AcDbTrace
 10
2388.658562728961
 20
1383.556223147492
 30
0.0
 11
2389.131898720578
 21
1383.556223147491
 31
0.0
 12
2388.658562728961
 22
1372.708940006281
 32
0.0
 13
2389.131898720578
 23
1372.708940006281
 33
0.0
  0
POLYLINE
  5
15D5
330
1F
100
AcDbEntity
  8
LOGO
 62
     5
100
AcDb2dPolyline
 66
     1
 10
0.0
 20
0.0
 30
0.0
 40
0.3950787857375564
 41
0.3950787857375564
  0
VERTEX
  5
15D6
330
15D5
100
AcDbEntity
  8
LOGO
 62
     5
100
AcDbVertex
100
AcDb2dVertex
 10
2384.425757141034
 20
1369.947813388519
 30
0.0
 42
1.0
  0
VERTEX
  5
15D7
330
15D5
100
AcDbEntity
  8
LOGO
 62
     5
100
AcDbVertex
100
AcDb2dVertex
 10
2383.240520783821
 20
1369.947813388519
 30
0.0
 42
1.0
  0
SEQEND
  5
15D8
330
15D5
100
AcDbEntity
  8
LOGO
 62
     5
  0
POLYLINE
  5
15D9
330
1F
100
AcDbEntity
  8
LOGO
 62
     5
100
AcDb2dPolyline
 66
     1
 10
0.0
 20
0.0
 30
0.0
 40
0.3950787857375564
 41
0.3950787857375564
  0
VERTEX
  5
15DA
330
15D9
100
AcDbEntity
  8
LOGO
 62
     5
100
AcDbVertex
100
AcDb2dVertex
 10
2385.609097120074
 20
1369.947813388519
 30
0.0
 42
1.0
  0
VERTEX
  5
15DB
330
15D9
100
AcDbEntity
  8
LOGO
 62
     5
100
AcDbVertex
100
AcDb2dVertex
 10
2384.423860762862
 20
1369.947813388519
 30
0.0
 42
1.0
  0
SEQEND
  5
15DC
330
15D9
100
AcDbEntity
  8
LOGO
 62
     5
  0
POLYLINE
  5
15DD
330
1F
100
AcDbEntity
  8
LOGO
 62
     5
100
AcDb2dPolyline
 66
     1
 10
0.0
 20
0.0
 30
0.0
 40
0.3950787857375564
 41
0.3950787857375564
  0
VERTEX
  5
15DE
330
15DD
100
AcDbEntity
  8
LOGO
 62
     5
100
AcDbVertex
100
AcDb2dVertex
 10
2379.955335368211
 20
1369.947813388519
 30
0.0
 42
1.0
  0
VERTEX
  5
15DF
330
15DD
100
AcDbEntity
  8
LOGO
 62
     5
100
AcDbVertex
100
AcDb2dVertex
 10
2378.770099010999
 20
1369.947813388519
 30
0.0
 42
1.0
  0
SEQEND
  5
15E0
330
15DD
100
AcDbEntity
  8
LOGO
 62
     5
  0
SOLID
  5
15E1
330
1F
100
AcDbEntity
  8
LOGO
 62
     5
100
AcDbTrace
 10
2378.573823870245
 20
1370.736706707879
 30
0.0
 11
2378.968270529925
 21
1370.736706707879
 31
0.0
 12
2378.573823870245
 22
1368.764473409477
 32
0.0
 13
2378.968270529925
 23
1368.764473409477
 33
0.0
  0
SOLID
  5
15E2
330
1F
100
AcDbEntity
  8
LOGO
 62
     5
100
AcDbTrace
 10
2379.757163849287
 20
1369.947813388519
 30
0.0
 11
2380.151610508967
 21
1369.947813388519
 31
0.0
 12
2379.757163849287
 22
1368.764473409477
 32
0.0
 13
2380.151610508967
 23
1368.764473409477
 33
0.0
  0
POLYLINE
  5
15E3
330
1F
100
AcDbEntity
  8
LOGO
 62
     5
100
AcDb2dPolyline
 66
     1
 10
0.0
 20
0.0
 30
0.0
 70
     1
 40
0.3950787857375564
 41
0.3950787857375564
  0
VERTEX
  5
15E4
330
15E3
100
AcDbEntity
  8
LOGO
 62
     5
100
AcDbVertex
100
AcDb2dVertex
 10
2380.807809949207
 20
1369.750590058678
 30
0.0
 42
1.0
  0
VERTEX
  5
15E5
330
15E3
100
AcDbEntity
  8
LOGO
 62
     5
100
AcDbVertex
100
AcDb2dVertex
 10
2382.388125092158
 20
1369.750590058678
 30
0.0
 42
1.0
  0
SEQEND
  5
15E6
330
15E3
100
AcDbEntity
  8
LOGO
 62
     5
  0
SOLID
  5
15E7
330
1F
100
AcDbEntity
  8
LOGO
 62
     5
100
AcDbTrace
 10
2382.189598065537
 20
1371.3283766974
 30
0.0
 11
2382.584044725218
 21
1371.3283766974
 31
0.0
 12
2382.189598065537
 22
1368.764473409477
 32
0.0
 13
2382.584044725218
 23
1368.764473409477
 33
0.0
  0
SOLID
  5
15E8
330
1F
100
AcDbEntity
  8
LOGO
 62
     5
100
AcDbTrace
 10
2383.044245643068
 20
1370.736706707879
 30
0.0
 11
2383.438692302747
 21
1370.736706707879
 31
0.0
 12
2383.044245643068
 22
1368.764473409477
 32
0.0
 13
2383.438692302747
 23
1368.764473409477
 33
0.0
  0
SOLID
  5
15E9
330
1F
100
AcDbEntity
  8
LOGO
 62
     5
100
AcDbTrace
 10
2384.227585622108
 20
1369.947813388519
 30
0.0
 11
2384.622032281789
 21
1369.947813388519
 31
0.0
 12
2384.227585622108
 22
1368.764473409477
 32
0.0
 13
2384.622032281789
 23
1368.764473409477
 33
0.0
  0
SOLID
  5
15EA
330
1F
100
AcDbEntity
  8
LOGO
 62
     5
100
AcDbTrace
 10
2385.410925601148
 20
1369.947813388519
 30
0.0
 11
2385.805372260829
 21
1369.947813388519
 31
0.0
 12
2385.410925601148
 22
1368.764473409477
 32
0.0
 13
2385.805372260829
 23
1368.764473409477
 33
0.0
  0
SOLID
  5
15EB
330
1F
100
AcDbEntity
  8
LOGO
 62
     5
100
AcDbTrace
 10
2377.719176292716
 20
1371.012819369655
 30
0.0
 11
2378.113622952397
 21
1371.012819369655
 31
0.0
 12
2377.719176292716
 22
1371.3283766974
 32
0.0
 13
2378.113622952397
 23
1371.3283766974
 33
0.0
  0
SOLID
  5
15EC
330
1F
100
AcDbEntity
  8
LOGO
 62
     5
100
AcDbTrace
 10
2377.719176292716
 20
1370.736706707879
 30
0.0
 11
2378.113622952397
 21
1370.736706707879
 31
0.0
 12
2377.719176292716
 22
1368.764473409477
 32
0.0
 13
2378.113622952397
 23
1368.764473409477
 33
0.0
  0
SOLID
  5
15ED
330
1F
100
AcDbEntity
  8
LOGO
 62
     5
100
AcDbTrace
 10
2381.597967520682
 20
1372.708940006281
 30
0.0
 11
2382.741862833755
 21
1372.708940006281
 31
0.0
 12
2381.597967520682
 22
1378.494157681593
 32
0.0
 13
2382.741862833755
 23
1382.688440496194
 33
0.0
  0
SOLID
  5
15EE
330
1F
100
AcDbEntity
  8
LOGO
 62
     5
100
AcDbTrace
 10
2383.215198825373
 20
1383.556223147491
 30
0.0
 11
2384.359094138445
 21
1383.556223147492
 31
0.0
 12
2383.215198825373
 22
1373.576722657578
 32
0.0
 13
2384.359094138445
 23
1377.771005472179
 33
0.0
  0
SOLID
  5
15EF
330
1F
100
AcDbEntity
  8
LOGO
 62
     2
100
AcDbTrace
 10
2382.741862833755
 20
1383.556223147491
 30
0.0
 11
2383.215198825373
 21
1383.556223147491
 31
0.0
 12
2382.741862833755
 22
1372.708940006281
 32
0.0
 13
2383.215198825373
 23
1372.708940006281
 33
0.0
  0
SOLID
  5
15F0
330
1F
100
AcDbEntity
  8
LOGO
 62
     5
100
AcDbTrace
 10
2383.215198825373
 20
1373.576722657578
 30
0.0
 11
2384.359094138445
 21
1377.771005472179
 31
0.0
 12
2388.658562728961
 22
1383.556223147492
 32
0.0
 13
2387.514667415888
 23
1383.556223147492
 33
0.0
  0
SOLID
  5
15F1
330
1F
100
AcDbEntity
  8
LOGO
 62
     5
100
AcDbTrace
 10
2383.215198825373
 20
1372.708940006281
 30
0.0
 11
2384.359094138445
 21
1372.708940006281
 31
0.0
 12
2388.658562728961
 22
1382.688440496194
 32
0.0
 13
2387.514667415888
 23
1378.494157681593
 33
0.0
  0
SOLID
  5
15F2
330
1F
100
AcDbEntity
  8
LOGO
 62
     2
100
AcDbTrace
 10
2382.741862833755
 20
1372.708940006281
 30
0.0
 11
2383.215198825373
 21
1372.708940006281
 31
0.0
 12
2388.658562728961
 22
1383.556223147492
 32
0.0
 13
2389.131898720578
 23
1383.556223147491
 33
0.0
  0
LINE
  5
15F3
330
1F
100
AcDbEntity
  8
LOGO
 62
     4
100
AcDbLine
 10
2485.166700415847
 20
1369.633786970234
 30
0.0
 11
2485.166700415847
 21
1359.933191784714
 31
0.0
  0
LINE
  5
15F4
330
1F
100
AcDbEntity
  8
LOGO
 62
     4
100
AcDbLine
 10
2467.529254623991
 20
1369.633786970234
 30
0.0
 11
2467.529254623991
 21
1359.933191784714
 31
0.0
  0
LINE
  5
15F5
330
1F
100
AcDbEntity
  8
LOGO
 62
     4
100
AcDbLine
 10
2485.166700415847
 20
1359.933191784714
 30
0.0
 11
2467.529254623991
 21
1359.933191784714
 31
0.0
  0
LINE
  5
15F6
330
1F
100
AcDbEntity
  8
LOGO
 62
     4
100
AcDbLine
 10
2487.808732755582
 20
1381.539062879736
 30
0.0
 11
2467.529254623991
 21
1381.539062879736
 31
0.0
  0
LINE
  5
15F7
330
1F
100
AcDbEntity
  8
LOGO
 62
     4
100
AcDbLine
 10
2487.808732755582
 20
1373.602212273402
 30
0.0
 11
2467.529254623991
 21
1373.602212273402
 31
0.0
  0
LINE
  5
15F8
330
1F
100
AcDbEntity
  8
LOGO
 62
     4
100
AcDbLine
 10
2467.529254623991
 20
1381.539062879736
 30
0.0
 11
2467.529254623991
 21
1373.602212273402
 31
0.0
  0
LINE
  5
15F9
330
1F
100
AcDbEntity
  8
LOGO
 62
     4
100
AcDbLine
 10
2487.808732755582
 20
1381.539062879736
 30
0.0
 11
2487.808732755582
 21
1373.602212273402
 31
0.0
  0
LINE
  5
15FA
330
1F
100
AcDbEntity
  8
LOGO
 62
     4
100
AcDbLine
 10
2477.268209192326
 20
1373.602212273402
 30
0.0
 11
2477.268209192326
 21
1369.633786970234
 31
0.0
  0
TEXT
  5
15FB
330
1F
100
AcDbEntity
  8
LOGO
  6
Continuous
 62
     7
100
AcDbText
 10
2468.939508674511
 20
1375.259018233799
 30
0.0
 40
4.630499999999999
  1
MCGJ
  7
CHINESET
100
AcDbText
  0
LINE
  5
15FC
330
1F
100
AcDbEntity
  8
LOGO
 62
     4
100
AcDbLine
 10
2485.166700415847
 20
1369.633786970234
 30
0.0
 11
2467.529254623991
 21
1369.633786970234
 31
0.0
  0
TEXT
  5
15FD
330
1F
100
AcDbEntity
  8
LOGO
  6
Continuous
100
AcDbText
 10
2473.189055139294
 20
1361.30241022456
 30
173.3893711805459
 40
1.984499999999999
  1
Model
 41
0.8
  7
CHINESET
100
AcDbText
  0
TEXT
  5
15FE
330
1F
100
AcDbEntity
  8
LOGO
100
AcDbText
 10
2472.660845751421
 20
1364.981245534285
 30
173.3893711805459
 40
3.3075
  1
型號
  7
CHINESET
100
AcDbText
  0
LINE
  5
15FF
330
1F
100
AcDbEntity
  8
LOGO
  6
Continuous
 62
     7
100
AcDbLine
 10
2488.652485572203
 20
1377.542523997403
 30
0.0
 11
2492.15710919715
 21
1377.542523997403
 31
0.0
  0
LINE
  5
1600
330
1F
100
AcDbEntity
  8
LOGO
 62
     4
100
AcDbLine
 10
2506.563501101912
 20
1369.633786970234
 30
0.0
 11
2506.563501101912
 21
1359.933191784714
 31
0.0
  0
LINE
  5
1601
330
1F
100
AcDbEntity
  8
LOGO
 62
     4
100
AcDbLine
 10
2488.29660281553
 20
1369.633786970234
 30
0.0
 11
2488.29660281553
 21
1359.933191784714
 31
0.0
  0
LINE
  5
1602
330
1F
100
AcDbEntity
  8
LOGO
 62
     4
100
AcDbLine
 10
2506.563501101912
 20
1359.933191784714
 30
0.0
 11
2488.29660281553
 21
1359.933191784714
 31
0.0
  0
LINE
  5
1603
330
1F
100
AcDbEntity
  8
LOGO
 62
     4
100
AcDbLine
 10
2503.483408698271
 20
1381.539062879736
 30
0.0
 11
2493.262633211085
 21
1381.539062879736
 31
0.0
  0
LINE
  5
1604
330
1F
100
AcDbEntity
  8
LOGO
 62
     4
100
AcDbLine
 10
2503.483408698271
 20
1373.602212273402
 30
0.0
 11
2493.262633211085
 21
1373.602212273402
 31
0.0
  0
LINE
  5
1605
330
1F
100
AcDbEntity
  8
LOGO
 62
     4
100
AcDbLine
 10
2493.262633211085
 20
1381.539062879736
 30
0.0
 11
2493.262633211085
 21
1373.602212273402
 31
0.0
  0
LINE
  5
1606
330
1F
100
AcDbEntity
  8
LOGO
 62
     4
100
AcDbLine
 10
2503.483408698271
 20
1381.539062879736
 30
0.0
 11
2503.483408698271
 21
1373.602212273402
 31
0.0
  0
LINE
  5
1607
330
1F
100
AcDbEntity
  8
LOGO
 62
     4
100
AcDbLine
 10
2498.373020954677
 20
1373.602212273402
 30
0.0
 11
2498.373020954677
 21
1369.633786970234
 31
0.0
  0
TEXT
  5
1608
330
1F
100
AcDbEntity
  8
LOGO
  6
Continuous
 62
     7
100
AcDbText
 10
2494.552822413236
 20
1375.259018233799
 30
0.0
 40
4.630499999999999
  1
12
  7
CHINESET
100
AcDbText
  0
LINE
  5
1609
330
1F
100
AcDbEntity
  8
LOGO
 62
     4
100
AcDbLine
 10
2506.563501101912
 20
1369.633786970234
 30
0.0
 11
2488.29660281553
 21
1369.633786970234
 31
0.0
  0
LINE
  5
160A
330
1F
100
AcDbEntity
  8
LOGO
  6
Continuous
 62
     7
100
AcDbLine
 10
2504.60793658698
 20
1377.542523997403
 30
0.0
 11
2508.112560211927
 21
1377.542523997403
 31
0.0
  0
LINE
  5
160B
330
1F
100
AcDbEntity
  8
LOGO
 62
     4
100
AcDbLine
 10
2526.536325599277
 20
1369.633786970234
 30
0.0
 11
2526.536325599277
 21
1359.933191784714
 31
0.0
  0
LINE
  5
160C
330
1F
100
AcDbEntity
  8
LOGO
 62
     4
100
AcDbLine
 10
2508.898879807422
 20
1369.633786970234
 30
0.0
 11
2508.898879807422
 21
1359.933191784714
 31
0.0
  0
LINE
  5
160D
330
1F
100
AcDbEntity
  8
LOGO
 62
     4
100
AcDbLine
 10
2526.536325599277
 20
1359.933191784714
 30
0.0
 11
2508.898879807422
 21
1359.933191784714
 31
0.0
  0
LINE
  5
160E
330
1F
100
AcDbEntity
  8
LOGO
 62
     4
100
AcDbLine
 10
2522.780150059541
 20
1381.539062879736
 30
0.0
 11
2509.218084225862
 21
1381.539062879736
 31
0.0
  0
LINE
  5
160F
330
1F
100
AcDbEntity
  8
LOGO
 62
     4
100
AcDbLine
 10
2522.780150059541
 20
1373.602212273402
 30
0.0
 11
2509.218084225862
 21
1373.602212273402
 31
0.0
  0
LINE
  5
1610
330
1F
100
AcDbEntity
  8
LOGO
 62
     4
100
AcDbLine
 10
2509.218084225862
 20
1381.539062879736
 30
0.0
 11
2509.218084225862
 21
1373.602212273402
 31
0.0
  0
LINE
  5
1611
330
1F
100
AcDbEntity
  8
LOGO
 62
     4
100
AcDbLine
 10
2522.780150059541
 20
1381.539062879736
 30
0.0
 11
2522.780150059541
 21
1373.602212273402
 31
0.0
  0
LINE
  5
1612
330
1F
100
AcDbEntity
  8
LOGO
 62
     4
100
AcDbLine
 10
2515.999117142701
 20
1373.602212273402
 30
0.0
 11
2515.999117142701
 21
1369.633786970234
 31
0.0
  0
TEXT
  5
1613
330
1F
100
AcDbEntity
  8
LOGO
  6
Continuous
 62
     7
100
AcDbText
 10
2512.109998215775
 20
1375.259018233799
 30
0.0
 40
4.630499999999999
  1
40
  7
CHINESET
100
AcDbText
  0
LINE
  5
1614
330
1F
100
AcDbEntity
  8
LOGO
 62
     4
100
AcDbLine
 10
2526.536325599277
 20
1369.633786970234
 30
0.0
 11
2508.898879807422
 21
1369.633786970234
 31
0.0
  0
LINE
  5
1615
330
1F
100
AcDbEntity
  8
LOGO
  6
Continuous
 62
     7
100
AcDbLine
 10
2523.909119721857
 20
1377.542523997403
 30
0.0
 11
2527.413743346804
 21
1377.542523997403
 31
0.0
  0
LINE
  5
1616
330
1F
100
AcDbEntity
  8
LOGO
 62
     4
100
AcDbLine
 10
2542.56857432107
 20
1369.633786970234
 30
0.0
 11
2542.56857432107
 21
1359.933191784714
 31
0.0
  0
LINE
  5
1617
330
1F
100
AcDbEntity
  8
LOGO
 62
     4
100
AcDbLine
 10
2528.200062942298
 20
1369.633786970234
 30
0.0
 11
2528.200062942298
 21
1359.933191784714
 31
0.0
  0
LINE
  5
1618
330
1F
100
AcDbEntity
  8
LOGO
 62
     4
100
AcDbLine
 10
2542.56857432107
 20
1359.933191784714
 30
0.0
 11
2528.200062942298
 21
1359.933191784714
 31
0.0
  0
LINE
  5
1619
330
1F
100
AcDbEntity
  8
LOGO
 62
     4
100
AcDbLine
 10
2536.963856001109
 20
1381.539062879736
 30
0.0
 11
2528.519267360738
 21
1381.539062879736
 31
0.0
  0
LINE
  5
161A
330
1F
100
AcDbEntity
  8
LOGO
 62
     4
100
AcDbLine
 10
2536.963856001109
 20
1373.602212273402
 30
0.0
 11
2528.519267360738
 21
1373.602212273402
 31
0.0
  0
LINE
  5
161B
330
1F
100
AcDbEntity
  8
LOGO
 62
     4
100
AcDbLine
 10
2528.519267360738
 20
1381.539062879736
 30
0.0
 11
2528.519267360738
 21
1373.602212273402
 31
0.0
  0
LINE
  5
161C
330
1F
100
AcDbEntity
  8
LOGO
 62
     4
100
AcDbLine
 10
2536.963856001109
 20
1381.539062879736
 30
0.0
 11
2536.963856001109
 21
1373.602212273402
 31
0.0
  0
LINE
  5
161D
330
1F
100
AcDbEntity
  8
LOGO
 62
     4
100
AcDbLine
 10
2532.741561680924
 20
1373.602212273402
 30
0.0
 11
2532.741561680924
 21
1369.633786970234
 31
0.0
  0
TEXT
  5
161E
330
1F
100
AcDbEntity
  8
LOGO
  6
Continuous
 62
     7
100
AcDbText
 10
2531.365496777854
 20
1375.259018233799
 30
0.0
 40
4.630499999999999
  1
0
  7
CHINESET
100
AcDbText
  0
LINE
  5
161F
330
1F
100
AcDbEntity
  8
LOGO
 62
     4
100
AcDbLine
 10
2542.56857432107
 20
1369.633786970234
 30
0.0
 11
2528.200062942298
 21
1369.633786970234
 31
0.0
  0
TEXT
  5
1620
330
1F
100
AcDbEntity
  8
LOGO
  6
Continuous
100
AcDbText
 10
2489.906753359275
 20
1361.30241022456
 30
173.3893711805459
 40
1.984499999999999
  1
Bearing type
 41
0.8
  7
CHINESET
100
AcDbText
  0
TEXT
  5
1621
330
1F
100
AcDbEntity
  8
LOGO
100
AcDbText
 10
2489.888058681947
 20
1364.981245534285
 30
173.3893711805459
 40
3.3075
  1
軸承型式
  7
CHINESET
100
AcDbText
  0
TEXT
  5
1622
330
1F
100
AcDbEntity
  8
LOGO
  6
Continuous
100
AcDbText
 10
2512.593203839235
 20
1361.30241022456
 30
173.3893711805459
 40
1.984499999999999
  1
Tube I.D.
 41
0.8
  7
CHINESET
100
AcDbText
  0
TEXT
  5
1623
330
1F
100
AcDbEntity
  8
LOGO
100
AcDbText
 10
2513.393375620206
 20
1364.981245534285
 30
173.3893711805459
 40
3.3075
  1
內徑
  7
CHINESET
100
AcDbText
  0
TEXT
  5
1624
330
1F
100
AcDbEntity
  8
LOGO
  6
Continuous
100
AcDbText
 10
2531.986895370037
 20
1361.30241022456
 30
173.3893711805459
 40
1.984499999999999
  1
Stroke
 41
0.8
  7
CHINESET
100
AcDbText
  0
TEXT
  5
1625
330
1F
100
AcDbEntity
  8
LOGO
100
AcDbText
 10
2531.849296663635
 20
1364.981245534285
 30
173.3893711805459
 40
3.3075
  1
行程
  7
CHINESET
100
AcDbText
  0
TEXT
  5
1626
330
1F
100
AcDbEntity
  8
LOGO
100
AcDbText
 10
2432.762675365527
 20
1359.13596879284
 30
0.0
 40
2.646
  1
10603141
 41
0.7
  7
CHINESET
 72
     1
 11
2438.804375365528
 21
1359.13596879284
 31
0.0
100
AcDbText
  0
LINE
  5
1627
330
1F
100
AcDbEntity
  8
LOGO
 62
     4
100
AcDbLine
 10
2447.015968778318
 20
1363.019744798289
 30
0.0
 11
2447.01596877832
 21
1357.728511060732
 31
0.0
  0
LINE
  5
1628
330
1F
100
AcDbEntity
  8
LOGO
 62
     4
100
AcDbLine
 10
2447.015968778318
 20
1363.019744798289
 30
0.0
 11
2431.13996877832
 21
1363.019744798289
 31
0.0
  0
LINE
  5
1629
330
1F
100
AcDbEntity
  8
LOGO
  6
AM_ISO08W050x2
 48
0.3
100
AcDbLine
 10
2416.283666441031
 20
1376.253488136022
 30
0.0
 11
2420.518760614039
 21
1376.253488136022
 31
0.0
1001
GENIUS_GENOREF_13
1005
162E
  0
LINE
  5
162A
330
1F
100
AcDbEntity
  8
LOGO
  6
AM_ISO08W050x2
 48
0.3
100
AcDbLine
 10
2418.401213527535
 20
1374.135941049519
 30
0.0
 11
2418.401213527535
 21
1378.371035222526
 31
0.0
1001
GENIUS_GENOREF_13
1005
162D
  0
LINE
  5
162B
330
1F
100
AcDbEntity
  8
LOGO
  6
CENTER
 48
0.5
100
AcDbLine
 10
2422.853567388629
 20
1376.253488136022
 30
0.0
 11
2428.539207024528
 21
1376.253488136022
 31
0.0
1001
GENIUS_GENOREF_13
1005
162C
  0
POINT
  5
162C
330
1F
100
AcDbEntity
  8
0
 60
     1
100
AcDbPoint
 10
717.7893463853256
 20
372.8627295737218
 30
0.0
1001
GENIUS_GENOBJ-N-CRS_13
1002
{
1000
OWNER
1000
GEN
1002
}
1001
GENIUS_GENOLIS_13
1002
{
1000
ENT
1005
0
1005
0
1005
0
1005
162B
1002
}
1001
GENIUS_GENOENT_13
1002
{
1000
MYREF
1005
162C
1002
}
1002
{
1000
GRP
1005
0
1002
}
1001
GENIUS_GENODEF_13
1002
{
1000
HIER
1070
    10
1002
}
1002
{
1000
MANEDIT
1070
     1
1002
}
1002
{
1000
NOSEL
1070
     0
1002
}
1002
{
1000
BEHIND
1070
     0
1002
}
1002
{
1000
OTHER
1070
     0
1002
}
1002
{
1000
REACTOR
1002
}
  0
POINT
  5
162D
330
1F
100
AcDbEntity
  8
0
 60
     1
100
AcDbPoint
 10
706.4647611624709
 20
381.7383160523581
 30
0.0
1001
GENIUS_GENOBJ-N-CRS_13
1002
{
1000
OWNER
1000
GEN
1002
}
1001
GENIUS_GENOLIS_13
1002
{
1000
ENT
1005
0
1005
0
1005
0
1005
162A
1002
}
1001
GENIUS_GENOENT_13
1002
{
1000
MYREF
1005
162D
1002
}
1002
{
1000
GRP
1005
0
1002
}
1001
GENIUS_GENODEF_13
1002
{
1000
HIER
1070
    10
1002
}
1002
{
1000
MANEDIT
1070
     1
1002
}
1002
{
1000
NOSEL
1070
     0
1002
}
1002
{
1000
BEHIND
1070
     0
1002
}
1002
{
1000
OTHER
1070
     0
1002
}
1002
{
1000
REACTOR
1002
}
  0
POINT
  5
162E
330
1F
100
AcDbEntity
  8
0
 60
     1
100
AcDbPoint
 10
712.8234348603077
 20
372.8627295737218
 30
0.0
1001
GENIUS_GENOBJ-N-CRS_13
1002
{
1000
OWNER
1000
GEN
1002
}
1001
GENIUS_GENOLIS_13
1002
{
1000
ENT
1005
0
1005
0
1005
0
1005
1629
1002
}
1001
GENIUS_GENOENT_13
1002
{
1000
MYREF
1005
162E
1002
}
1002
{
1000
GRP
1005
0
1002
}
1001
GENIUS_GENODEF_13
1002
{
1000
HIER
1070
    10
1002
}
1002
{
1000
MANEDIT
1070
     1
1002
}
1002
{
1000
NOSEL
1070
     0
1002
}
1002
{
1000
BEHIND
1070
     0
1002
}
1002
{
1000
OTHER
1070
     0
1002
}
1002
{
1000
REACTOR
1002
}
  0
LINE
  5
18A0
330
1F
100
AcDbEntity
  8
AM_7
100
AcDbLine
 10
2490.699187695753
 20
1551.098398853983
 30
0.0
 11
2490.699187695753
 21
1561.043342459742
 31
0.0
  0
LINE
  5
18A1
330
1F
100
AcDbEntity
  8
AM_7
100
AcDbLine
 10
2450.699187695753
 20
1551.098398853983
 30
0.0
 11
2450.699187695753
 21
1561.043342459742
 31
0.0
  0
ARC
  5
18A2
330
1F
100
AcDbEntity
  8
AM_4
100
AcDbCircle
 10
2470.699187695753
 20
1541.937385797718
 30
0.0
 40
4.849999999999999
100
AcDbArc
 50
259.9999999999961
 51
190.0000000000039
  0
ARC
  5
18A3
330
1F
100
AcDbEntity
  8
AM_4
100
AcDbCircle
 10
2470.699187695753
 20
1521.437385797718
 30
0.0
 40
4.849999999999999
100
AcDbArc
 50
259.9999999999961
 51
190.0000000000039
  0
LINE
  5
18A4
330
1F
100
AcDbEntity
  8
AM_7
100
AcDbLine
 10
2556.665169060957
 20
1550.619089443679
 30
0.0
 11
2556.665169060957
 21
1560.831367145821
 31
0.0
  0
LINE
  5
18A5
330
1F
100
AcDbEntity
  8
AM_7
100
AcDbLine
 10
2596.665169060957
 20
1550.619089443679
 30
0.0
 11
2596.665169060957
 21
1560.831367145821
 31
0.0
  0
LINE
  5
18A6
330
1F
100
AcDbEntity
  8
AM_VIS
100
AcDbLine
 10
2478.199187695753
 20
1513.437385797718
 30
0.0
 11
2478.199187695753
 21
1552.937385797718
 31
0.0
  0
LINE
  5
18A7
330
1F
100
AcDbEntity
  8
AM_VIS
100
AcDbLine
 10
2494.129936723473
 20
1513.437385797718
 30
0.0
 11
2494.129936723473
 21
1552.937385797718
 31
0.0
  0
LINE
  5
18A8
330
1F
100
AcDbEntity
  8
AM_VIS
100
AcDbLine
 10
2483.399187695753
 20
1552.937385797718
 30
0.0
 11
2483.399187695753
 21
1513.437385797718
 31
0.0
  0
LINE
  5
18A9
330
1F
100
AcDbEntity
  8
AM_VIS
100
AcDbLine
 10
2479.999187695753
 20
1513.437385797718
 30
0.0
 11
2479.999187695753
 21
1552.937385797718
 31
0.0
  0
LINE
  5
18AA
330
1F
100
AcDbEntity
  8
AM_VIS
100
AcDbLine
 10
2463.199187695753
 20
1513.437385797718
 30
0.0
 11
2463.199187695753
 21
1552.937385797718
 31
0.0
  0
LINE
  5
18AB
330
1F
100
AcDbEntity
  8
AM_VIS
100
AcDbLine
 10
2447.268438668033
 20
1513.437385797718
 30
0.0
 11
2447.268438668033
 21
1552.937385797718
 31
0.0
  0
LINE
  5
18AC
330
1F
100
AcDbEntity
  8
AM_VIS
100
AcDbLine
 10
2461.399187695753
 20
1552.937385797718
 30
0.0
 11
2461.399187695753
 21
1513.437385797718
 31
0.0
  0
LINE
  5
18AD
330
1F
100
AcDbEntity
  8
AM_VIS
100
AcDbLine
 10
2457.999187695753
 20
1513.437385797718
 30
0.0
 11
2457.999187695753
 21
1552.937385797718
 31
0.0
  0
LINE
  5
18AE
330
1F
100
AcDbEntity
  8
AM_VIS
100
AcDbLine
 10
2496.699187695753
 20
1513.437385797718
 30
0.0
 11
2496.699187695753
 21
1552.937385797718
 31
0.0
  0
LINE
  5
18AF
330
1F
100
AcDbEntity
  8
AM_VIS
100
AcDbLine
 10
2444.699187695753
 20
1513.437385797718
 30
0.0
 11
2444.699187695753
 21
1552.937385797718
 31
0.0
  0
LINE
  5
18B0
330
1F
100
AcDbEntity
  8
AM_VIS
100
AcDbLine
 10
2457.999187695753
 20
1513.437385797718
 30
0.0
 11
2447.268438668033
 21
1513.437385797718
 31
0.0
  0
LINE
  5
18B1
330
1F
100
AcDbEntity
  8
AM_VIS
100
AcDbLine
 10
2460.149187695753
 20
1513.437385797718
 30
0.0
 11
2459.249187695753
 21
1513.437385797718
 31
0.0
  0
LINE
  5
18B2
330
1F
100
AcDbEntity
  8
AM_VIS
100
AcDbLine
 10
2463.199187695753
 20
1513.437385797718
 30
0.0
 11
2461.399187695753
 21
1513.437385797718
 31
0.0
  0
LINE
  5
18B3
330
1F
100
AcDbEntity
  8
AM_VIS
100
AcDbLine
 10
2463.699187695753
 20
1513.437385797718
 30
0.0
 11
2463.199187695753
 21
1513.437385797718
 31
0.0
  0
LINE
  5
18B4
330
1F
100
AcDbEntity
  8
AM_VIS
100
AcDbLine
 10
2478.199187695753
 20
1513.437385797718
 30
0.0
 11
2477.699187695753
 21
1513.437385797718
 31
0.0
  0
LINE
  5
18B5
330
1F
100
AcDbEntity
  8
AM_VIS
100
AcDbLine
 10
2479.999187695753
 20
1513.437385797718
 30
0.0
 11
2478.199187695753
 21
1513.437385797718
 31
0.0
  0
LINE
  5
18B6
330
1F
100
AcDbEntity
  8
AM_VIS
100
AcDbLine
 10
2482.149187695753
 20
1513.437385797718
 30
0.0
 11
2481.249187695753
 21
1513.437385797718
 31
0.0
  0
LINE
  5
18B7
330
1F
100
AcDbEntity
  8
AM_VIS
100
AcDbLine
 10
2494.129936723473
 20
1513.437385797718
 30
0.0
 11
2483.399187695753
 21
1513.437385797718
 31
0.0
  0
LINE
  5
18B8
330
1F
100
AcDbEntity
  8
AM_VIS
100
AcDbLine
 10
2477.699187695753
 20
1513.437385797718
 30
0.0
 11
2477.699187695753
 21
1552.937385797718
 31
0.0
  0
LINE
  5
18B9
330
1F
100
AcDbEntity
  8
AM_VIS
100
AcDbLine
 10
2477.699187695753
 20
1513.437385797718
 30
0.0
 11
2463.699187695753
 21
1513.437385797718
 31
0.0
  0
LINE
  5
18BA
330
1F
100
AcDbEntity
  8
AM_VIS
100
AcDbLine
 10
2463.699187695753
 20
1513.437385797718
 30
0.0
 11
2463.699187695753
 21
1552.937385797718
 31
0.0
  0
LINE
  5
18BB
330
1F
100
AcDbEntity
  8
AM_VIS
100
AcDbLine
 10
2494.129936723473
 20
1552.937385797718
 30
0.0
 11
2483.399187695753
 21
1552.937385797718
 31
0.0
  0
LINE
  5
18BC
330
1F
100
AcDbEntity
  8
AM_VIS
100
AcDbLine
 10
2481.249187695753
 20
1552.937385797718
 30
0.0
 11
2482.149187695753
 21
1552.937385797718
 31
0.0
  0
LINE
  5
18BD
330
1F
100
AcDbEntity
  8
AM_VIS
100
AcDbLine
 10
2479.999187695753
 20
1552.937385797718
 30
0.0
 11
2478.199187695753
 21
1552.937385797718
 31
0.0
  0
LINE
  5
18BE
330
1F
100
AcDbEntity
  8
AM_VIS
100
AcDbLine
 10
2478.199187695753
 20
1552.937385797718
 30
0.0
 11
2477.699187695753
 21
1552.937385797718
 31
0.0
  0
LINE
  5
18BF
330
1F
100
AcDbEntity
  8
AM_VIS
100
AcDbLine
 10
2477.699187695753
 20
1552.937385797718
 30
0.0
 11
2463.699187695753
 21
1552.937385797718
 31
0.0
  0
LINE
  5
18C0
330
1F
100
AcDbEntity
  8
AM_VIS
100
AcDbLine
 10
2463.699187695753
 20
1552.937385797718
 30
0.0
 11
2463.199187695753
 21
1552.937385797718
 31
0.0
  0
LINE
  5
18C1
330
1F
100
AcDbEntity
  8
AM_VIS
100
AcDbLine
 10
2463.199187695753
 20
1552.937385797718
 30
0.0
 11
2461.399187695753
 21
1552.937385797718
 31
0.0
  0
LINE
  5
18C2
330
1F
100
AcDbEntity
  8
AM_VIS
100
AcDbLine
 10
2459.249187695753
 20
1552.937385797718
 30
0.0
 11
2460.149187695753
 21
1552.937385797718
 31
0.0
  0
LINE
  5
18C3
330
1F
100
AcDbEntity
  8
AM_VIS
100
AcDbLine
 10
2457.999187695753
 20
1552.937385797718
 30
0.0
 11
2447.268438668033
 21
1552.937385797718
 31
0.0
  0
LINE
  5
18C4
330
1F
100
AcDbEntity
  8
AM_VIS
100
AcDbLine
 10
2444.699187695753
 20
1513.437385797718
 30
0.0
 11
2447.268438668033
 21
1513.437385797718
 31
0.0
  0
LINE
  5
18C5
330
1F
100
AcDbEntity
  8
AM_VIS
100
AcDbLine
 10
2457.999187695753
 20
1513.437385797718
 30
0.0
 11
2459.249187695753
 21
1513.437385797718
 31
0.0
  0
LINE
  5
18C6
330
1F
100
AcDbEntity
  8
AM_VIS
100
AcDbLine
 10
2460.149187695753
 20
1513.437385797718
 30
0.0
 11
2461.399187695753
 21
1513.437385797718
 31
0.0
  0
LINE
  5
18C7
330
1F
100
AcDbEntity
  8
AM_VIS
100
AcDbLine
 10
2479.999187695753
 20
1513.437385797718
 30
0.0
 11
2481.249187695753
 21
1513.437385797718
 31
0.0
  0
LINE
  5
18C8
330
1F
100
AcDbEntity
  8
AM_VIS
100
AcDbLine
 10
2482.149187695753
 20
1513.437385797718
 30
0.0
 11
2483.399187695753
 21
1513.437385797718
 31
0.0
  0
LINE
  5
18C9
330
1F
100
AcDbEntity
  8
AM_VIS
100
AcDbLine
 10
2494.129936723473
 20
1513.437385797718
 30
0.0
 11
2496.699187695753
 21
1513.437385797718
 31
0.0
  0
CIRCLE
  5
18CD
330
1F
100
AcDbEntity
  8
AM_VIS
100
AcDbCircle
 10
2470.699187695753
 20
1541.937385797718
 30
0.0
 40
4.299999999999999
  0
CIRCLE
  5
18D0
330
1F
100
AcDbEntity
  8
AM_VIS
100
AcDbCircle
 10
2470.699187695753
 20
1521.437385797718
 30
0.0
 40
4.299999999999999
  0
LINE
  5
18D1
102
{ACAD_REACTORS
330
1FB8
102
}
330
1F
100
AcDbEntity
  8
AM_VIS
100
AcDbLine
 10
2494.129936723473
 20
1552.937385797718
 30
0.0
 11
2496.699187695753
 21
1552.937385797718
 31
0.0
  0
LINE
  5
18D2
330
1F
100
AcDbEntity
  8
AM_VIS
100
AcDbLine
 10
2483.399187695753
 20
1552.937385797718
 30
0.0
 11
2482.149187695753
 21
1552.937385797718
 31
0.0
  0
LINE
  5
18D3
330
1F
100
AcDbEntity
  8
AM_VIS
100
AcDbLine
 10
2481.249187695753
 20
1552.937385797718
 30
0.0
 11
2479.999187695753
 21
1552.937385797718
 31
0.0
  0
LINE
  5
18D4
330
1F
100
AcDbEntity
  8
AM_VIS
100
AcDbLine
 10
2461.399187695753
 20
1552.937385797718
 30
0.0
 11
2460.149187695753
 21
1552.937385797718
 31
0.0
  0
LINE
  5
18D5
330
1F
100
AcDbEntity
  8
AM_VIS
100
AcDbLine
 10
2459.249187695753
 20
1552.937385797718
 30
0.0
 11
2457.999187695753
 21
1552.937385797718
 31
0.0
  0
LINE
  5
18D6
330
1F
100
AcDbEntity
  8
AM_VIS
100
AcDbLine
 10
2444.699187695753
 20
1552.937385797718
 30
0.0
 11
2447.268438668033
 21
1552.937385797718
 31
0.0
  0
LINE
  5
18D7
330
1F
100
AcDbEntity
  8
AM_VIS
100
AcDbLine
 10
2466.826204349545
 20
1552.937385797718
 30
0.0
 11
2466.826204349545
 21
1558.205334990149
 31
0.0
  0
SPLINE
  5
18D8
330
1F
100
AcDbEntity
  8
AM_VIS
100
AcDbSpline
210
-0.0000000000005491
220
0.0000000000008176
230
1.0
 70
    12
 71
     2
 72
     6
 73
     3
 74
     0
 42
0.0000000001
 43
0.0000000001
 40
0.0
 40
0.0
 40
0.0
 40
1.973912376437061
 40
1.973912376437061
 40
1.973912376437061
 10
2466.826204349546
 20
1558.205334990149
 30
0.0
 41
1.0
 10
2467.790068964512
 20
1559.013560040213
 30
-0.0000000000001137
 41
1.016076933846079
 10
2468.66823097104
 20
1559.437385797719
 30
0.0
 41
1.017425660651103
  0
SPLINE
  5
18D9
330
1F
100
AcDbEntity
  8
AM_VIS
100
AcDbSpline
210
0.0000000000005491
220
0.0000000000008176
230
1.0
 70
    12
 71
     2
 72
     6
 73
     3
 74
     0
 42
0.0000000001
 43
0.0000000001
 40
6.644776539457739
 40
6.644776539457739
 40
6.644776539457739
 40
8.6186889158948
 40
8.6186889158948
 40
8.6186889158948
 10
2472.730144420467
 20
1559.437385797719
 30
0.0
 41
1.017425660651103
 10
2473.608306426994
 20
1559.013560040213
 30
-0.0000000000001137
 41
1.016076933846079
 10
2474.57217104196
 20
1558.205334990149
 30
0.0
 41
1.0
  0
LINE
  5
18DA
330
1F
100
AcDbEntity
  8
AM_VIS
100
AcDbLine
 10
2474.572171041961
 20
1558.205334990149
 30
0.0
 11
2474.572171041961
 21
1552.937385797718
 31
0.0
  0
LINE
  5
18DB
330
1F
100
AcDbEntity
  8
AM_VIS
100
AcDbLine
 10
2477.987862830348
 20
1559.437385797718
 30
0.0
 11
2478.699187695753
 21
1558.205334990149
 31
0.0
  0
LINE
  5
18DC
330
1F
100
AcDbEntity
  8
AM_VIS
100
AcDbLine
 10
2463.410512561158
 20
1559.437385797718
 30
0.0
 11
2462.699187695753
 21
1558.205334990149
 31
0.0
  0
LINE
  5
18DD
330
1F
100
AcDbEntity
  8
AM_VIS
100
AcDbLine
 10
2478.699187695753
 20
1552.937385797718
 30
0.0
 11
2478.699187695753
 21
1558.205334990149
 31
0.0
  0
LINE
  5
18DE
330
1F
100
AcDbEntity
  8
AM_VIS
100
AcDbLine
 10
2462.699187695753
 20
1552.937385797718
 30
0.0
 11
2462.699187695753
 21
1558.205334990149
 31
0.0
  0
LINE
  5
18DF
330
1F
100
AcDbEntity
  8
AM_VIS
100
AcDbLine
 10
2478.699187695753
 20
1558.205334990149
 30
0.0
 11
2474.57217104196
 21
1558.205334990149
 31
0.0
  0
LINE
  5
18E0
330
1F
100
AcDbEntity
  8
AM_VIS
100
AcDbLine
 10
2466.826204349546
 20
1558.205334990149
 30
0.0
 11
2462.699187695753
 21
1558.205334990149
 31
0.0
  0
LINE
  5
18E1
330
1F
100
AcDbEntity
  8
AM_VIS
100
AcDbLine
 10
2493.699187695753
 20
1552.937385797718
 30
0.0
 11
2493.699187695753
 21
1559.437385797718
 31
0.0
  0
LINE
  5
18E2
330
1F
100
AcDbEntity
  8
AM_VIS
100
AcDbLine
 10
2487.699187695753
 20
1552.937385797718
 30
0.0
 11
2487.699187695753
 21
1559.437385797718
 31
0.0
  0
LINE
  5
18E3
330
1F
100
AcDbEntity
  8
AM_VIS
100
AcDbLine
 10
2453.699187695753
 20
1552.937385797718
 30
0.0
 11
2453.699187695753
 21
1559.437385797718
 31
0.0
  0
LINE
  5
18E4
330
1F
100
AcDbEntity
  8
AM_VIS
100
AcDbLine
 10
2447.699187695753
 20
1552.937385797718
 30
0.0
 11
2447.699187695753
 21
1559.437385797718
 31
0.0
  0
LINE
  5
18E5
330
1F
100
AcDbEntity
  8
AM_VIS
100
AcDbLine
 10
2443.699187695753
 20
1559.437385797718
 30
0.0
 11
2447.699187695753
 21
1559.437385797718
 31
0.0
  0
LINE
  5
18E6
330
1F
100
AcDbEntity
  8
AM_VIS
100
AcDbLine
 10
2443.699187695753
 20
1569.437385797718
 30
0.0
 11
2443.699187695753
 21
1559.437385797718
 31
0.0
  0
LINE
  5
18E7
330
1F
100
AcDbEntity
  8
AM_VIS
100
AcDbLine
 10
2447.699187695753
 20
1569.437385797718
 30
0.0
 11
2443.699187695753
 21
1569.437385797718
 31
0.0
  0
LINE
  5
18E8
330
1F
100
AcDbEntity
  8
AM_VIS
100
AcDbLine
 10
2447.699187695753
 20
1559.437385797718
 30
0.0
 11
2493.699187695753
 21
1559.437385797718
 31
0.0
  0
LINE
  5
18E9
330
1F
100
AcDbEntity
  8
AM_VIS
100
AcDbLine
 10
2447.699187695753
 20
1559.437385797718
 30
0.0
 11
2447.699187695753
 21
1569.437385797718
 31
0.0
  0
LINE
  5
18EA
330
1F
100
AcDbEntity
  8
AM_VIS
100
AcDbLine
 10
2493.699187695753
 20
1569.437385797718
 30
0.0
 11
2447.699187695753
 21
1569.437385797718
 31
0.0
  0
LINE
  5
18EB
330
1F
100
AcDbEntity
  8
AM_VIS
100
AcDbLine
 10
2497.699187695753
 20
1559.437385797718
 30
0.0
 11
2497.699187695753
 21
1569.437385797718
 31
0.0
  0
LINE
  5
18EC
102
{ACAD_REACTORS
330
1F3D
330
1FB8
102
}
330
1F
100
AcDbEntity
  8
AM_VIS
100
AcDbLine
 10
2493.699187695753
 20
1559.437385797718
 30
0.0
 11
2497.699187695753
 21
1559.437385797718
 31
0.0
  0
LINE
  5
18ED
330
1F
100
AcDbEntity
  8
AM_VIS
100
AcDbLine
 10
2493.699187695753
 20
1569.437385797718
 30
0.0
 11
2493.699187695753
 21
1559.437385797718
 31
0.0
  0
LINE
  5
18EE
102
{ACAD_REACTORS
330
1F3D
102
}
330
1F
100
AcDbEntity
  8
AM_VIS
100
AcDbLine
 10
2497.699187695753
 20
1569.437385797718
 30
0.0
 11
2493.699187695753
 21
1569.437385797718
 31
0.0
  0
LINE
  5
18FC
330
1F
100
AcDbEntity
  8
AM_VIS
100
AcDbLine
 10
2447.699187695753
 20
1606.33814677832
 30
0.0
 11
2443.699187695753
 21
1610.33814677832
 31
0.0
  0
LINE
  5
18FD
330
1F
100
AcDbEntity
  8
AM_VIS
100
AcDbLine
 10
2443.699187695753
 20
1610.33814677832
 30
0.0
 11
2443.699187695753
 21
1666.33814677832
 31
0.0
  0
LINE
  5
18FE
330
1F
100
AcDbEntity
  8
AM_VIS
100
AcDbLine
 10
2443.699187695753
 20
1666.33814677832
 30
0.0
 11
2447.699187695753
 21
1670.33814677832
 31
0.0
  0
LINE
  5
18FF
330
1F
100
AcDbEntity
  8
AM_VIS
100
AcDbLine
 10
2447.699187695753
 20
1670.33814677832
 30
0.0
 11
2493.699187695753
 21
1670.33814677832
 31
0.0
  0
LINE
  5
1900
330
1F
100
AcDbEntity
  8
AM_VIS
100
AcDbLine
 10
2493.699187695753
 20
1670.33814677832
 30
0.0
 11
2497.699187695753
 21
1666.33814677832
 31
0.0
  0
LINE
  5
1901
330
1F
100
AcDbEntity
  8
AM_VIS
100
AcDbLine
 10
2497.699187695753
 20
1666.33814677832
 30
0.0
 11
2497.699187695753
 21
1610.33814677832
 31
0.0
  0
LINE
  5
1902
330
1F
100
AcDbEntity
  8
AM_VIS
100
AcDbLine
 10
2493.699187695753
 20
1606.33814677832
 30
0.0
 11
2447.699187695753
 21
1606.33814677832
 31
0.0
  0
LINE
  5
1903
330
1F
100
AcDbEntity
  8
AM_VIS
100
AcDbLine
 10
2497.699187695753
 20
1610.33814677832
 30
0.0
 11
2493.699187695753
 21
1606.33814677832
 31
0.0
  0
LINE
  5
1908
330
1F
100
AcDbEntity
  8
AM_VIS
100
AcDbLine
 10
2495.699187695753
 20
1445.33748412237
 30
0.0
 11
2496.699187695753
 21
1445.33748412237
 31
0.0
  0
LINE
  5
1909
330
1F
100
AcDbEntity
  8
AM_VIS
100
AcDbLine
 10
2495.699187695753
 20
1445.33748412237
 30
0.0
 11
2495.199187695753
 21
1445.78748412237
 31
0.0
  0
LINE
  5
190A
330
1F
100
AcDbEntity
  8
AM_VIS
100
AcDbLine
 10
2493.099187695753
 20
1445.78748412237
 30
0.0
 11
2495.199187695753
 21
1445.78748412237
 31
0.0
  0
LINE
  5
190B
330
1F
100
AcDbEntity
  8
AM_VIS
100
AcDbLine
 10
2491.399187695753
 20
1443.18748412237
 30
0.0
 11
2491.399187695753
 21
1444.08748412237
 31
0.0
  0
LINE
  5
190C
330
1F
100
AcDbEntity
  8
AM_VIS
100
AcDbLine
 10
2495.199187695753
 20
1441.48748412237
 30
0.0
 11
2493.099187695753
 21
1441.48748412237
 31
0.0
  0
LINE
  5
190D
330
1F
100
AcDbEntity
  8
AM_VIS
100
AcDbLine
 10
2495.199187695753
 20
1441.48748412237
 30
0.0
 11
2495.699187695753
 21
1441.93748412237
 31
0.0
  0
LINE
  5
190E
330
1F
100
AcDbEntity
  8
AM_VIS
100
AcDbLine
 10
2496.699187695753
 20
1441.93748412237
 30
0.0
 11
2495.699187695753
 21
1441.93748412237
 31
0.0
  0
LINE
  5
190F
330
1F
100
AcDbEntity
  8
AM_VIS
100
AcDbLine
 10
2496.699187695753
 20
1431.20673509465
 30
0.0
 11
2496.699187695753
 21
1441.93748412237
 31
0.0
  0
LINE
  5
1910
330
1F
100
AcDbEntity
  8
AM_VIS
100
AcDbLine
 10
2483.399187695753
 20
1428.63748412237
 30
0.0
 11
2494.129936723473
 21
1428.63748412237
 31
0.0
  0
LINE
  5
1911
330
1F
100
AcDbEntity
  8
AM_VIS
100
AcDbLine
 10
2483.399187695753
 20
1429.63748412237
 30
0.0
 11
2483.399187695753
 21
1428.63748412237
 31
0.0
  0
LINE
  5
1912
330
1F
100
AcDbEntity
  8
AM_VIS
100
AcDbLine
 10
2483.399187695753
 20
1429.63748412237
 30
0.0
 11
2483.849187695753
 21
1430.13748412237
 31
0.0
  0
LINE
  5
1913
330
1F
100
AcDbEntity
  8
AM_VIS
100
AcDbLine
 10
2483.849187695753
 20
1432.23748412237
 30
0.0
 11
2483.849187695753
 21
1430.13748412237
 31
0.0
  0
LINE
  5
1914
330
1F
100
AcDbEntity
  8
AM_VIS
100
AcDbLine
 10
2481.249187695753
 20
1433.93748412237
 30
0.0
 11
2482.149187695753
 21
1433.93748412237
 31
0.0
  0
LINE
  5
1915
330
1F
100
AcDbEntity
  8
AM_VIS
100
AcDbLine
 10
2479.549187695753
 20
1430.13748412237
 30
0.0
 11
2479.549187695753
 21
1432.23748412237
 31
0.0
  0
LINE
  5
1916
330
1F
100
AcDbEntity
  8
AM_VIS
100
AcDbLine
 10
2479.549187695753
 20
1430.13748412237
 30
0.0
 11
2479.999187695753
 21
1429.63748412237
 31
0.0
  0
LINE
  5
1917
330
1F
100
AcDbEntity
  8
AM_VIS
100
AcDbLine
 10
2479.999187695753
 20
1428.63748412237
 30
0.0
 11
2479.999187695753
 21
1429.63748412237
 31
0.0
  0
LINE
  5
1918
330
1F
100
AcDbEntity
  8
AM_VIS
100
AcDbLine
 10
2461.399187695753
 20
1429.63748412237
 30
0.0
 11
2461.399187695753
 21
1428.63748412237
 31
0.0
  0
LINE
  5
1919
330
1F
100
AcDbEntity
  8
AM_VIS
100
AcDbLine
 10
2461.399187695753
 20
1429.63748412237
 30
0.0
 11
2461.849187695753
 21
1430.13748412237
 31
0.0
  0
LINE
  5
191A
330
1F
100
AcDbEntity
  8
AM_VIS
100
AcDbLine
 10
2461.849187695753
 20
1432.23748412237
 30
0.0
 11
2461.849187695753
 21
1430.13748412237
 31
0.0
  0
LINE
  5
191B
330
1F
100
AcDbEntity
  8
AM_VIS
100
AcDbLine
 10
2459.249187695753
 20
1433.93748412237
 30
0.0
 11
2460.149187695753
 21
1433.93748412237
 31
0.0
  0
LINE
  5
191C
330
1F
100
AcDbEntity
  8
AM_VIS
100
AcDbLine
 10
2457.549187695753
 20
1430.13748412237
 30
0.0
 11
2457.549187695753
 21
1432.23748412237
 31
0.0
  0
LINE
  5
191D
330
1F
100
AcDbEntity
  8
AM_VIS
100
AcDbLine
 10
2457.549187695753
 20
1430.13748412237
 30
0.0
 11
2457.999187695753
 21
1429.63748412237
 31
0.0
  0
LINE
  5
191E
330
1F
100
AcDbEntity
  8
AM_VIS
100
AcDbLine
 10
2457.999187695753
 20
1428.63748412237
 30
0.0
 11
2457.999187695753
 21
1429.63748412237
 31
0.0
  0
LINE
  5
191F
330
1F
100
AcDbEntity
  8
AM_VIS
100
AcDbLine
 10
2447.268438668033
 20
1428.63748412237
 30
0.0
 11
2457.999187695753
 21
1428.63748412237
 31
0.0
  0
LINE
  5
1920
330
1F
100
AcDbEntity
  8
AM_VIS
100
AcDbLine
 10
2444.699187695753
 20
1441.93748412237
 30
0.0
 11
2444.699187695753
 21
1431.20673509465
 31
0.0
  0
LINE
  5
1921
330
1F
100
AcDbEntity
  8
AM_VIS
100
AcDbLine
 10
2445.699187695753
 20
1441.93748412237
 30
0.0
 11
2444.699187695753
 21
1441.93748412237
 31
0.0
  0
LINE
  5
1922
330
1F
100
AcDbEntity
  8
AM_VIS
100
AcDbLine
 10
2445.699187695753
 20
1441.93748412237
 30
0.0
 11
2446.199187695753
 21
1441.48748412237
 31
0.0
  0
LINE
  5
1923
330
1F
100
AcDbEntity
  8
AM_VIS
100
AcDbLine
 10
2448.299187695753
 20
1441.48748412237
 30
0.0
 11
2446.199187695753
 21
1441.48748412237
 31
0.0
  0
LINE
  5
1924
330
1F
100
AcDbEntity
  8
AM_VIS
100
AcDbLine
 10
2449.999187695753
 20
1444.08748412237
 30
0.0
 11
2449.999187695753
 21
1443.18748412237
 31
0.0
  0
LINE
  5
1925
330
1F
100
AcDbEntity
  8
AM_VIS
100
AcDbLine
 10
2446.199187695753
 20
1445.78748412237
 30
0.0
 11
2448.299187695753
 21
1445.78748412237
 31
0.0
  0
LINE
  5
1926
330
1F
100
AcDbEntity
  8
AM_VIS
100
AcDbLine
 10
2446.199187695753
 20
1445.78748412237
 30
0.0
 11
2445.699187695753
 21
1445.33748412237
 31
0.0
  0
LINE
  5
1927
330
1F
100
AcDbEntity
  8
AM_VIS
100
AcDbLine
 10
2444.699187695753
 20
1445.33748412237
 30
0.0
 11
2445.699187695753
 21
1445.33748412237
 31
0.0
  0
LINE
  5
1928
330
1F
100
AcDbEntity
  8
AM_VIS
100
AcDbLine
 10
2444.699187695753
 20
1447.13748412237
 30
0.0
 11
2444.699187695753
 21
1445.33748412237
 31
0.0
  0
LINE
  5
1929
330
1F
100
AcDbEntity
  8
AM_VIS
100
AcDbLine
 10
2447.199187695753
 20
1449.63748412237
 30
0.0
 11
2444.699187695753
 21
1447.13748412237
 31
0.0
  0
LINE
  5
192A
330
1F
100
AcDbEntity
  8
AM_VIS
100
AcDbLine
 10
2447.199187695753
 20
1459.63748412237
 30
0.0
 11
2447.199187695753
 21
1449.63748412237
 31
0.0
  0
LINE
  5
192B
330
1F
100
AcDbEntity
  8
AM_VIS
100
AcDbLine
 10
2444.699187695753
 20
1462.13748412237
 30
0.0
 11
2447.199187695753
 21
1459.63748412237
 31
0.0
  0
LINE
  5
192C
330
1F
100
AcDbEntity
  8
AM_VIS
100
AcDbLine
 10
2444.699187695753
 20
1463.93748412237
 30
0.0
 11
2444.699187695753
 21
1462.13748412237
 31
0.0
  0
LINE
  5
192D
330
1F
100
AcDbEntity
  8
AM_VIS
100
AcDbLine
 10
2445.699187695753
 20
1463.93748412237
 30
0.0
 11
2444.699187695753
 21
1463.93748412237
 31
0.0
  0
LINE
  5
192E
330
1F
100
AcDbEntity
  8
AM_VIS
100
AcDbLine
 10
2445.699187695753
 20
1463.93748412237
 30
0.0
 11
2446.199187695753
 21
1463.48748412237
 31
0.0
  0
LINE
  5
192F
330
1F
100
AcDbEntity
  8
AM_VIS
100
AcDbLine
 10
2448.299187695753
 20
1463.48748412237
 30
0.0
 11
2446.199187695753
 21
1463.48748412237
 31
0.0
  0
LINE
  5
1930
330
1F
100
AcDbEntity
  8
AM_VIS
100
AcDbLine
 10
2449.999187695753
 20
1466.08748412237
 30
0.0
 11
2449.999187695753
 21
1465.18748412237
 31
0.0
  0
LINE
  5
1931
330
1F
100
AcDbEntity
  8
AM_VIS
100
AcDbLine
 10
2446.199187695753
 20
1467.78748412237
 30
0.0
 11
2448.299187695753
 21
1467.78748412237
 31
0.0
  0
LINE
  5
1932
330
1F
100
AcDbEntity
  8
AM_VIS
100
AcDbLine
 10
2446.199187695753
 20
1467.78748412237
 30
0.0
 11
2445.699187695753
 21
1467.33748412237
 31
0.0
  0
LINE
  5
1933
330
1F
100
AcDbEntity
  8
AM_VIS
100
AcDbLine
 10
2444.699187695753
 20
1467.33748412237
 30
0.0
 11
2445.699187695753
 21
1467.33748412237
 31
0.0
  0
LINE
  5
1934
330
1F
100
AcDbEntity
  8
AM_VIS
100
AcDbLine
 10
2444.699187695753
 20
1478.06823315009
 30
0.0
 11
2444.699187695753
 21
1467.33748412237
 31
0.0
  0
LINE
  5
1935
330
1F
100
AcDbEntity
  8
AM_VIS
100
AcDbLine
 10
2457.999187695753
 20
1480.63748412237
 30
0.0
 11
2447.268438668033
 21
1480.63748412237
 31
0.0
  0
LINE
  5
1936
330
1F
100
AcDbEntity
  8
AM_VIS
100
AcDbLine
 10
2457.999187695753
 20
1479.63748412237
 30
0.0
 11
2457.999187695753
 21
1480.63748412237
 31
0.0
  0
LINE
  5
1937
330
1F
100
AcDbEntity
  8
AM_VIS
100
AcDbLine
 10
2457.999187695753
 20
1479.63748412237
 30
0.0
 11
2457.549187695753
 21
1479.13748412237
 31
0.0
  0
LINE
  5
1938
330
1F
100
AcDbEntity
  8
AM_VIS
100
AcDbLine
 10
2457.549187695753
 20
1477.03748412237
 30
0.0
 11
2457.549187695753
 21
1479.13748412237
 31
0.0
  0
LINE
  5
1939
330
1F
100
AcDbEntity
  8
AM_VIS
100
AcDbLine
 10
2460.149187695753
 20
1475.33748412237
 30
0.0
 11
2459.249187695753
 21
1475.33748412237
 31
0.0
  0
LINE
  5
193A
330
1F
100
AcDbEntity
  8
AM_VIS
100
AcDbLine
 10
2461.849187695753
 20
1479.13748412237
 30
0.0
 11
2461.849187695753
 21
1477.03748412237
 31
0.0
  0
LINE
  5
193B
330
1F
100
AcDbEntity
  8
AM_VIS
100
AcDbLine
 10
2461.849187695753
 20
1479.13748412237
 30
0.0
 11
2461.399187695753
 21
1479.63748412237
 31
0.0
  0
LINE
  5
193C
330
1F
100
AcDbEntity
  8
AM_VIS
100
AcDbLine
 10
2461.399187695753
 20
1480.63748412237
 30
0.0
 11
2461.399187695753
 21
1479.63748412237
 31
0.0
  0
LINE
  5
193D
330
1F
100
AcDbEntity
  8
AM_VIS
100
AcDbLine
 10
2463.199187695753
 20
1480.63748412237
 30
0.0
 11
2461.399187695753
 21
1480.63748412237
 31
0.0
  0
LINE
  5
193E
330
1F
100
AcDbEntity
  8
AM_VIS
100
AcDbLine
 10
2463.699187695753
 20
1485.63748412237
 30
0.0
 11
2463.199187695753
 21
1480.63748412237
 31
0.0
  0
LINE
  5
193F
330
1F
100
AcDbEntity
  8
AM_VIS
100
AcDbLine
 10
2478.199187695753
 20
1480.63748412237
 30
0.0
 11
2477.699187695753
 21
1485.63748412237
 31
0.0
  0
LINE
  5
1940
330
1F
100
AcDbEntity
  8
AM_VIS
100
AcDbLine
 10
2479.999187695753
 20
1480.63748412237
 30
0.0
 11
2478.199187695753
 21
1480.63748412237
 31
0.0
  0
LINE
  5
1941
330
1F
100
AcDbEntity
  8
AM_VIS
100
AcDbLine
 10
2479.999187695753
 20
1479.63748412237
 30
0.0
 11
2479.999187695753
 21
1480.63748412237
 31
0.0
  0
LINE
  5
1942
330
1F
100
AcDbEntity
  8
AM_VIS
100
AcDbLine
 10
2479.999187695753
 20
1479.63748412237
 30
0.0
 11
2479.549187695753
 21
1479.13748412237
 31
0.0
  0
LINE
  5
1943
330
1F
100
AcDbEntity
  8
AM_VIS
100
AcDbLine
 10
2479.549187695753
 20
1477.03748412237
 30
0.0
 11
2479.549187695753
 21
1479.13748412237
 31
0.0
  0
LINE
  5
1944
330
1F
100
AcDbEntity
  8
AM_VIS
100
AcDbLine
 10
2482.149187695753
 20
1475.33748412237
 30
0.0
 11
2481.249187695753
 21
1475.33748412237
 31
0.0
  0
LINE
  5
1945
330
1F
100
AcDbEntity
  8
AM_VIS
100
AcDbLine
 10
2483.849187695753
 20
1479.13748412237
 30
0.0
 11
2483.849187695753
 21
1477.03748412237
 31
0.0
  0
LINE
  5
1946
330
1F
100
AcDbEntity
  8
AM_VIS
100
AcDbLine
 10
2483.849187695753
 20
1479.13748412237
 30
0.0
 11
2483.399187695753
 21
1479.63748412237
 31
0.0
  0
LINE
  5
1947
330
1F
100
AcDbEntity
  8
AM_VIS
100
AcDbLine
 10
2483.399187695753
 20
1480.63748412237
 30
0.0
 11
2483.399187695753
 21
1479.63748412237
 31
0.0
  0
LINE
  5
1948
330
1F
100
AcDbEntity
  8
AM_VIS
100
AcDbLine
 10
2494.129936723473
 20
1480.63748412237
 30
0.0
 11
2483.399187695753
 21
1480.63748412237
 31
0.0
  0
LINE
  5
1949
330
1F
100
AcDbEntity
  8
AM_VIS
100
AcDbLine
 10
2496.699187695753
 20
1467.33748412237
 30
0.0
 11
2496.699187695753
 21
1478.06823315009
 31
0.0
  0
LINE
  5
194A
330
1F
100
AcDbEntity
  8
AM_VIS
100
AcDbLine
 10
2495.699187695753
 20
1467.33748412237
 30
0.0
 11
2496.699187695753
 21
1467.33748412237
 31
0.0
  0
LINE
  5
194B
330
1F
100
AcDbEntity
  8
AM_VIS
100
AcDbLine
 10
2495.699187695753
 20
1467.33748412237
 30
0.0
 11
2495.199187695753
 21
1467.78748412237
 31
0.0
  0
LINE
  5
194C
330
1F
100
AcDbEntity
  8
AM_VIS
100
AcDbLine
 10
2493.099187695753
 20
1467.78748412237
 30
0.0
 11
2495.199187695753
 21
1467.78748412237
 31
0.0
  0
LINE
  5
194D
330
1F
100
AcDbEntity
  8
AM_VIS
100
AcDbLine
 10
2491.399187695753
 20
1465.18748412237
 30
0.0
 11
2491.399187695753
 21
1466.08748412237
 31
0.0
  0
LINE
  5
194E
330
1F
100
AcDbEntity
  8
AM_VIS
100
AcDbLine
 10
2495.199187695753
 20
1463.48748412237
 30
0.0
 11
2493.099187695753
 21
1463.48748412237
 31
0.0
  0
LINE
  5
194F
330
1F
100
AcDbEntity
  8
AM_VIS
100
AcDbLine
 10
2495.199187695753
 20
1463.48748412237
 30
0.0
 11
2495.699187695753
 21
1463.93748412237
 31
0.0
  0
LINE
  5
1950
330
1F
100
AcDbEntity
  8
AM_VIS
100
AcDbLine
 10
2496.699187695753
 20
1463.93748412237
 30
0.0
 11
2495.699187695753
 21
1463.93748412237
 31
0.0
  0
LINE
  5
1951
330
1F
100
AcDbEntity
  8
AM_VIS
100
AcDbLine
 10
2461.399187695753
 20
1428.63748412237
 30
0.0
 11
2463.199187695753
 21
1428.63748412237
 31
0.0
  0
LINE
  5
1952
330
1F
100
AcDbEntity
  8
AM_VIS
100
AcDbLine
 10
2478.199187695753
 20
1428.63748412237
 30
0.0
 11
2479.999187695753
 21
1428.63748412237
 31
0.0
  0
LINE
  5
1953
330
1F
100
AcDbEntity
  8
AM_VIS
100
AcDbLine
 10
2496.699187695753
 20
1445.33748412237
 30
0.0
 11
2496.699187695753
 21
1447.13748412237
 31
0.0
  0
LINE
  5
1954
330
1F
100
AcDbEntity
  8
AM_VIS
100
AcDbLine
 10
2496.699187695753
 20
1462.13748412237
 30
0.0
 11
2496.699187695753
 21
1463.93748412237
 31
0.0
  0
LINE
  5
1955
330
1F
100
AcDbEntity
  8
AM_VIS
100
AcDbLine
 10
2465.699187695753
 20
1431.137484122371
 30
0.0
 11
2475.699187695753
 21
1431.137484122371
 31
0.0
  0
LINE
  5
1956
330
1F
100
AcDbEntity
  8
AM_VIS
100
AcDbLine
 10
2475.699187695753
 20
1431.137484122371
 30
0.0
 11
2478.199187695753
 21
1428.63748412237
 31
0.0
  0
LINE
  5
1957
330
1F
100
AcDbEntity
  8
AM_VIS
100
AcDbLine
 10
2463.199187695753
 20
1428.63748412237
 30
0.0
 11
2465.699187695753
 21
1431.137484122371
 31
0.0
  0
LINE
  5
1958
330
1F
100
AcDbEntity
  8
AM_VIS
100
AcDbLine
 10
2494.199187695753
 20
1449.63748412237
 30
0.0
 11
2494.199187695753
 21
1459.63748412237
 31
0.0
  0
LINE
  5
1959
330
1F
100
AcDbEntity
  8
AM_VIS
100
AcDbLine
 10
2494.199187695753
 20
1459.63748412237
 30
0.0
 11
2496.699187695753
 21
1462.13748412237
 31
0.0
  0
LINE
  5
195A
330
1F
100
AcDbEntity
  8
AM_VIS
100
AcDbLine
 10
2496.699187695753
 20
1447.13748412237
 30
0.0
 11
2494.199187695753
 21
1449.63748412237
 31
0.0
  0
LINE
  5
195B
330
1F
100
AcDbEntity
  8
AM_VIS
100
AcDbLine
 10
2477.699187695753
 20
1485.63748412237
 30
0.0
 11
2463.699187695753
 21
1485.63748412237
 31
0.0
  0
ARC
  5
195C
330
1F
100
AcDbEntity
  8
AM_VIS
100
AcDbCircle
 10
2493.099187695753
 20
1444.08748412237
 30
0.0
 40
1.7
100
AcDbArc
 50
90.0
 51
180.0
  0
ARC
  5
195D
330
1F
100
AcDbEntity
  8
AM_VIS
100
AcDbCircle
 10
2493.099187695753
 20
1443.18748412237
 30
0.0
 40
1.7
100
AcDbArc
 50
180.0
 51
270.0
  0
ARC
  5
195E
330
1F
100
AcDbEntity
  8
AM_VIS
100
AcDbCircle
 10
2470.699187695753
 20
1454.63748412237
 30
0.0
 40
35.0
100
AcDbArc
 50
312.0246275793796
 51
317.9753724206301
  0
ARC
  5
195F
330
1F
100
AcDbEntity
  8
AM_VIS
100
AcDbCircle
 10
2482.149187695753
 20
1432.23748412237
 30
0.0
 40
1.7
100
AcDbArc
 50
0.0
 51
90.0
  0
ARC
  5
1960
330
1F
100
AcDbEntity
  8
AM_VIS
100
AcDbCircle
 10
2481.249187695753
 20
1432.23748412237
 30
0.0
 40
1.7
100
AcDbArc
 50
90.0
 51
180.0
  0
ARC
  5
1961
330
1F
100
AcDbEntity
  8
AM_VIS
100
AcDbCircle
 10
2460.149187695753
 20
1432.23748412237
 30
0.0
 40
1.7
100
AcDbArc
 50
0.0
 51
90.0
  0
ARC
  5
1962
330
1F
100
AcDbEntity
  8
AM_VIS
100
AcDbCircle
 10
2459.249187695753
 20
1432.23748412237
 30
0.0
 40
1.7
100
AcDbArc
 50
90.0
 51
180.0
  0
ARC
  5
1963
330
1F
100
AcDbEntity
  8
AM_VIS
100
AcDbCircle
 10
2470.699187695753
 20
1454.63748412237
 30
0.0
 40
35.0
100
AcDbArc
 50
222.0246275793699
 51
227.9753724206205
  0
ARC
  5
1964
330
1F
100
AcDbEntity
  8
AM_VIS
100
AcDbCircle
 10
2448.299187695753
 20
1443.18748412237
 30
0.0
 40
1.7
100
AcDbArc
 50
270.0
 51
0.0
  0
ARC
  5
1965
330
1F
100
AcDbEntity
  8
AM_VIS
100
AcDbCircle
 10
2448.299187695753
 20
1444.08748412237
 30
0.0
 40
1.7
100
AcDbArc
 50
0.0
 51
90.0
  0
ARC
  5
1966
330
1F
100
AcDbEntity
  8
AM_VIS
100
AcDbCircle
 10
2448.299187695753
 20
1465.18748412237
 30
0.0
 40
1.7
100
AcDbArc
 50
270.0
 51
0.0
  0
ARC
  5
1967
330
1F
100
AcDbEntity
  8
AM_VIS
100
AcDbCircle
 10
2448.299187695753
 20
1466.08748412237
 30
0.0
 40
1.7
100
AcDbArc
 50
0.0
 51
90.0
  0
ARC
  5
1968
330
1F
100
AcDbEntity
  8
AM_VIS
100
AcDbCircle
 10
2470.699187695753
 20
1454.63748412237
 30
0.0
 40
35.0
100
AcDbArc
 50
132.0246275793795
 51
137.9753724206301
  0
ARC
  5
1969
330
1F
100
AcDbEntity
  8
AM_VIS
100
AcDbCircle
 10
2459.249187695753
 20
1477.03748412237
 30
0.0
 40
1.7
100
AcDbArc
 50
180.0
 51
270.0
  0
ARC
  5
196A
330
1F
100
AcDbEntity
  8
AM_VIS
100
AcDbCircle
 10
2460.149187695753
 20
1477.03748412237
 30
0.0
 40
1.7
100
AcDbArc
 50
270.0
 51
0.0
  0
ARC
  5
196B
330
1F
100
AcDbEntity
  8
AM_VIS
100
AcDbCircle
 10
2481.249187695753
 20
1477.03748412237
 30
0.0
 40
1.7
100
AcDbArc
 50
180.0
 51
270.0
  0
ARC
  5
196C
330
1F
100
AcDbEntity
  8
AM_VIS
100
AcDbCircle
 10
2482.149187695753
 20
1477.03748412237
 30
0.0
 40
1.7
100
AcDbArc
 50
270.0
 51
0.0
  0
ARC
  5
196D
330
1F
100
AcDbEntity
  8
AM_VIS
100
AcDbCircle
 10
2470.699187695753
 20
1454.63748412237
 30
0.0
 40
35.0
100
AcDbArc
 50
42.02462757936986
 51
47.97537242062047
  0
ARC
  5
196E
330
1F
100
AcDbEntity
  8
AM_VIS
100
AcDbCircle
 10
2493.099187695753
 20
1466.08748412237
 30
0.0
 40
1.7
100
AcDbArc
 50
90.0
 51
180.0
  0
ARC
  5
196F
330
1F
100
AcDbEntity
  8
AM_VIS
100
AcDbCircle
 10
2493.099187695753
 20
1465.18748412237
 30
0.0
 40
1.7
100
AcDbArc
 50
180.0
 51
270.0
  0
CIRCLE
  5
1978
330
1F
100
AcDbEntity
  8
AM_VIS
100
AcDbCircle
 10
2470.699187695753
 20
1454.63748412237
 30
0.0
 40
18.64999999999999
  0
LINE
  5
1981
330
1F
100
AcDbEntity
  8
AM_VIS
100
AcDbLine
 10
2497.699187695753
 20
1482.63748412237
 30
0.0
 11
2497.699187695753
 21
1426.63748412237
 31
0.0
  0
LINE
  5
1982
330
1F
100
AcDbEntity
  8
AM_VIS
100
AcDbLine
 10
2497.699187695753
 20
1426.63748412237
 30
0.0
 11
2493.699187695753
 21
1422.63748412237
 31
0.0
  0
LINE
  5
1983
330
1F
100
AcDbEntity
  8
AM_VIS
100
AcDbLine
 10
2493.699187695753
 20
1422.63748412237
 30
0.0
 11
2447.699187695753
 21
1422.63748412237
 31
0.0
  0
LINE
  5
1984
330
1F
100
AcDbEntity
  8
AM_VIS
100
AcDbLine
 10
2447.699187695753
 20
1422.63748412237
 30
0.0
 11
2443.699187695753
 21
1426.63748412237
 31
0.0
  0
LINE
  5
1985
330
1F
100
AcDbEntity
  8
AM_VIS
100
AcDbLine
 10
2443.699187695753
 20
1426.63748412237
 30
0.0
 11
2443.699187695753
 21
1482.63748412237
 31
0.0
  0
LINE
  5
1986
330
1F
100
AcDbEntity
  8
AM_VIS
100
AcDbLine
 10
2443.699187695753
 20
1482.63748412237
 30
0.0
 11
2447.699187695753
 21
1486.63748412237
 31
0.0
  0
LINE
  5
1987
330
1F
100
AcDbEntity
  8
AM_VIS
100
AcDbLine
 10
2447.699187695753
 20
1486.63748412237
 30
0.0
 11
2493.699187695753
 21
1486.63748412237
 31
0.0
  0
LINE
  5
1988
330
1F
100
AcDbEntity
  8
AM_VIS
100
AcDbLine
 10
2493.699187695753
 20
1486.63748412237
 30
0.0
 11
2497.699187695753
 21
1482.63748412237
 31
0.0
  0
LINE
  5
198D
330
1F
100
AcDbEntity
  8
AM_VIS
100
AcDbLine
 10
2550.665169060957
 20
1513.437385797718
 30
0.0
 11
2550.665169060957
 21
1552.937385797718
 31
0.0
  0
LINE
  5
198E
330
1F
100
AcDbEntity
  8
AM_VIS
100
AcDbLine
 10
2553.234420033237
 20
1513.437385797718
 30
0.0
 11
2553.234420033237
 21
1552.937385797718
 31
0.0
  0
LINE
  5
198F
330
1F
100
AcDbEntity
  8
AM_VIS
100
AcDbLine
 10
2600.095918088677
 20
1513.437385797718
 30
0.0
 11
2600.095918088677
 21
1552.937385797718
 31
0.0
  0
LINE
  5
1990
330
1F
100
AcDbEntity
  8
AM_VIS
100
AcDbLine
 10
2602.665169060957
 20
1513.437385797718
 30
0.0
 11
2602.665169060957
 21
1552.937385797718
 31
0.0
  0
LINE
  5
1991
330
1F
100
AcDbEntity
  8
AM_VIS
100
AcDbLine
 10
2589.365169060957
 20
1552.937385797718
 30
0.0
 11
2589.365169060957
 21
1513.437385797718
 31
0.0
  0
LINE
  5
1992
330
1F
100
AcDbEntity
  8
AM_VIS
100
AcDbLine
 10
2563.965169060957
 20
1513.437385797718
 30
0.0
 11
2563.965169060957
 21
1552.937385797718
 31
0.0
  0
LINE
  5
1993
330
1F
100
AcDbEntity
  8
AM_VIS
100
AcDbLine
 10
2588.115169060957
 20
1513.437385797718
 30
0.0
 11
2587.215169060957
 21
1513.437385797718
 31
0.0
  0
LINE
  5
1994
330
1F
100
AcDbEntity
  8
AM_VIS
100
AcDbLine
 10
2600.095918088677
 20
1513.437385797718
 30
0.0
 11
2589.365169060957
 21
1513.437385797718
 31
0.0
  0
LINE
  5
1995
330
1F
100
AcDbEntity
  8
AM_VIS
100
AcDbLine
 10
2550.665169060957
 20
1513.437385797718
 30
0.0
 11
2545.665169060957
 21
1513.437385797718
 31
0.0
  0
LINE
  5
1996
330
1F
100
AcDbEntity
  8
AM_VIS
100
AcDbLine
 10
2563.965169060957
 20
1513.437385797718
 30
0.0
 11
2553.234420033237
 21
1513.437385797718
 31
0.0
  0
LINE
  5
1997
330
1F
100
AcDbEntity
  8
AM_VIS
100
AcDbLine
 10
2566.115169060957
 20
1513.437385797718
 30
0.0
 11
2565.215169060957
 21
1513.437385797718
 31
0.0
  0
LINE
  5
1998
330
1F
100
AcDbEntity
  8
AM_VIS
100
AcDbLine
 10
2585.965169060957
 20
1513.437385797718
 30
0.0
 11
2585.965169060957
 21
1552.937385797718
 31
0.0
  0
LINE
  5
1999
330
1F
100
AcDbEntity
  8
AM_VIS
100
AcDbLine
 10
2585.965169060957
 20
1513.437385797718
 30
0.0
 11
2584.165169060957
 21
1513.437385797718
 31
0.0
  0
LINE
  5
199A
330
1F
100
AcDbEntity
  8
AM_VIS
100
AcDbLine
 10
2569.165169060957
 20
1513.437385797718
 30
0.0
 11
2567.365169060957
 21
1513.437385797718
 31
0.0
  0
LINE
  5
199B
330
1F
100
AcDbEntity
  8
AM_VIS
100
AcDbLine
 10
2567.365169060957
 20
1552.937385797718
 30
0.0
 11
2567.365169060957
 21
1513.437385797718
 31
0.0
  0
LINE
  5
199C
330
1F
100
AcDbEntity
  8
AM_VIS
100
AcDbLine
 10
2581.665169060957
 20
1513.437385797718
 30
0.0
 11
2571.665169060957
 21
1513.437385797718
 31
0.0
  0
LINE
  5
199D
330
1F
100
AcDbEntity
  8
AM_VIS
100
AcDbLine
 10
2571.665169060957
 20
1513.437385797718
 30
0.0
 11
2571.665169060957
 21
1552.937385797718
 31
0.0
  0
LINE
  5
199E
330
1F
100
AcDbEntity
  8
AM_VIS
100
AcDbLine
 10
2571.665169060957
 20
1513.437385797718
 30
0.0
 11
2569.165169060957
 21
1513.437385797718
 31
0.0
  0
LINE
  5
199F
330
1F
100
AcDbEntity
  8
AM_VIS
100
AcDbLine
 10
2569.165169060957
 20
1513.437385797718
 30
0.0
 11
2569.165169060957
 21
1552.937385797718
 31
0.0
  0
LINE
  5
19A0
330
1F
100
AcDbEntity
  8
AM_VIS
100
AcDbLine
 10
2584.165169060957
 20
1552.937385797718
 30
0.0
 11
2584.165169060957
 21
1513.437385797718
 31
0.0
  0
LINE
  5
19A1
330
1F
100
AcDbEntity
  8
AM_VIS
100
AcDbLine
 10
2584.165169060957
 20
1513.437385797718
 30
0.0
 11
2581.665169060957
 21
1513.437385797718
 31
0.0
  0
LINE
  5
19A2
330
1F
100
AcDbEntity
  8
AM_VIS
100
AcDbLine
 10
2581.665169060957
 20
1513.437385797718
 30
0.0
 11
2581.665169060957
 21
1552.937385797718
 31
0.0
  0
LINE
  5
19A3
330
1F
100
AcDbEntity
  8
AM_VIS
100
AcDbLine
 10
2545.665169060957
 20
1513.437385797718
 30
0.0
 11
2545.665169060957
 21
1552.937385797718
 31
0.0
  0
LINE
  5
19A4
330
1F
100
AcDbEntity
  8
AM_VIS
100
AcDbLine
 10
2571.665169060957
 20
1552.937385797718
 30
0.0
 11
2581.665169060957
 21
1552.937385797718
 31
0.0
  0
LINE
  5
19A5
330
1F
100
AcDbEntity
  8
AM_VIS
100
AcDbLine
 10
2569.165169060957
 20
1552.937385797718
 30
0.0
 11
2571.665169060957
 21
1552.937385797718
 31
0.0
  0
LINE
  5
19A6
330
1F
100
AcDbEntity
  8
AM_VIS
100
AcDbLine
 10
2569.165169060957
 20
1552.937385797718
 30
0.0
 11
2567.365169060957
 21
1552.937385797718
 31
0.0
  0
LINE
  5
19A7
330
1F
100
AcDbEntity
  8
AM_VIS
100
AcDbLine
 10
2565.215169060957
 20
1552.937385797718
 30
0.0
 11
2566.115169060957
 21
1552.937385797718
 31
0.0
  0
LINE
  5
19A8
330
1F
100
AcDbEntity
  8
AM_VIS
100
AcDbLine
 10
2563.965169060957
 20
1552.937385797718
 30
0.0
 11
2553.234420033237
 21
1552.937385797718
 31
0.0
  0
LINE
  5
19A9
330
1F
100
AcDbEntity
  8
AM_VIS
100
AcDbLine
 10
2550.665169060957
 20
1552.937385797718
 30
0.0
 11
2545.665169060957
 21
1552.937385797718
 31
0.0
  0
LINE
  5
19AA
330
1F
100
AcDbEntity
  8
AM_VIS
100
AcDbLine
 10
2600.095918088677
 20
1552.937385797718
 30
0.0
 11
2589.365169060957
 21
1552.937385797718
 31
0.0
  0
LINE
  5
19AB
330
1F
100
AcDbEntity
  8
AM_VIS
100
AcDbLine
 10
2587.215169060957
 20
1552.937385797718
 30
0.0
 11
2588.115169060957
 21
1552.937385797718
 31
0.0
  0
LINE
  5
19AC
330
1F
100
AcDbEntity
  8
AM_VIS
100
AcDbLine
 10
2585.965169060957
 20
1552.937385797718
 30
0.0
 11
2584.165169060957
 21
1552.937385797718
 31
0.0
  0
LINE
  5
19AD
330
1F
100
AcDbEntity
  8
AM_VIS
100
AcDbLine
 10
2581.665169060957
 20
1552.937385797718
 30
0.0
 11
2584.165169060957
 21
1552.937385797718
 31
0.0
  0
LINE
  5
19AE
330
1F
100
AcDbEntity
  8
AM_VIS
100
AcDbLine
 10
2585.965169060957
 20
1513.437385797718
 30
0.0
 11
2587.215169060957
 21
1513.437385797718
 31
0.0
  0
LINE
  5
19AF
330
1F
100
AcDbEntity
  8
AM_VIS
100
AcDbLine
 10
2588.115169060957
 20
1513.437385797718
 30
0.0
 11
2589.365169060957
 21
1513.437385797718
 31
0.0
  0
LINE
  5
19B0
330
1F
100
AcDbEntity
  8
AM_VIS
100
AcDbLine
 10
2600.095918088677
 20
1513.437385797718
 30
0.0
 11
2602.665169060957
 21
1513.437385797718
 31
0.0
  0
LINE
  5
19B1
330
1F
100
AcDbEntity
  8
AM_VIS
100
AcDbLine
 10
2550.665169060957
 20
1513.437385797718
 30
0.0
 11
2553.234420033237
 21
1513.437385797718
 31
0.0
  0
LINE
  5
19B2
330
1F
100
AcDbEntity
  8
AM_VIS
100
AcDbLine
 10
2563.965169060957
 20
1513.437385797718
 30
0.0
 11
2565.215169060957
 21
1513.437385797718
 31
0.0
  0
LINE
  5
19B3
330
1F
100
AcDbEntity
  8
AM_VIS
100
AcDbLine
 10
2566.115169060957
 20
1513.437385797718
 30
0.0
 11
2567.365169060957
 21
1513.437385797718
 31
0.0
  0
LINE
  5
19B4
330
1F
100
AcDbEntity
  8
AM_VIS
100
AcDbLine
 10
2567.365169060957
 20
1552.937385797718
 30
0.0
 11
2566.115169060957
 21
1552.937385797718
 31
0.0
  0
LINE
  5
19B5
330
1F
100
AcDbEntity
  8
AM_VIS
100
AcDbLine
 10
2565.215169060957
 20
1552.937385797718
 30
0.0
 11
2563.965169060957
 21
1552.937385797718
 31
0.0
  0
LINE
  5
19B6
330
1F
100
AcDbEntity
  8
AM_VIS
100
AcDbLine
 10
2550.665169060957
 20
1552.937385797718
 30
0.0
 11
2553.234420033237
 21
1552.937385797718
 31
0.0
  0
LINE
  5
19B7
330
1F
100
AcDbEntity
  8
AM_VIS
100
AcDbLine
 10
2600.095918088677
 20
1552.937385797718
 30
0.0
 11
2602.665169060957
 21
1552.937385797718
 31
0.0
  0
LINE
  5
19B8
330
1F
100
AcDbEntity
  8
AM_VIS
100
AcDbLine
 10
2589.365169060957
 20
1552.937385797718
 30
0.0
 11
2588.115169060957
 21
1552.937385797718
 31
0.0
  0
LINE
  5
19B9
330
1F
100
AcDbEntity
  8
AM_VIS
100
AcDbLine
 10
2587.215169060957
 20
1552.937385797718
 30
0.0
 11
2585.965169060957
 21
1552.937385797718
 31
0.0
  0
LINE
  5
19BA
330
1F
100
AcDbEntity
  8
AM_VIS
100
AcDbLine
 10
2583.665169060957
 20
1559.437385797718
 30
0.0
 11
2583.665169060957
 21
1558.205334990149
 31
0.0
  0
LINE
  5
19BB
330
1F
100
AcDbEntity
  8
AM_VIS
100
AcDbLine
 10
2583.665169060957
 20
1552.937385797718
 30
0.0
 11
2583.665169060957
 21
1558.205334990149
 31
0.0
  0
LINE
  5
19BC
330
1F
100
AcDbEntity
  8
AM_VIS
100
AcDbLine
 10
2569.665169060957
 20
1559.437385797718
 30
0.0
 11
2569.665169060957
 21
1558.205334990149
 31
0.0
  0
LINE
  5
19BD
330
1F
100
AcDbEntity
  8
AM_VIS
100
AcDbLine
 10
2569.665169060958
 20
1558.205334990149
 30
0.0
 11
2569.665169060958
 21
1552.937385797718
 31
0.0
  0
LINE
  5
19BE
330
1F
100
AcDbEntity
  8
AM_VIS
100
AcDbLine
 10
2583.665169060957
 20
1558.205334990149
 30
0.0
 11
2569.665169060957
 21
1558.205334990149
 31
0.0
  0
LINE
  5
19BF
330
1F
100
AcDbEntity
  8
AM_VIS
100
AcDbLine
 10
2559.665169060957
 20
1552.937385797718
 30
0.0
 11
2559.665169060957
 21
1559.437385797718
 31
0.0
  0
LINE
  5
19C0
330
1F
100
AcDbEntity
  8
AM_VIS
100
AcDbLine
 10
2553.665169060957
 20
1552.937385797718
 30
0.0
 11
2553.665169060957
 21
1559.437385797718
 31
0.0
  0
LINE
  5
19C1
330
1F
100
AcDbEntity
  8
AM_VIS
100
AcDbLine
 10
2599.665169060957
 20
1552.937385797718
 30
0.0
 11
2599.665169060957
 21
1559.437385797718
 31
0.0
  0
LINE
  5
19C2
330
1F
100
AcDbEntity
  8
AM_VIS
100
AcDbLine
 10
2593.665169060957
 20
1552.937385797718
 30
0.0
 11
2593.665169060957
 21
1559.437385797718
 31
0.0
  0
LINE
  5
19C3
330
1F
100
AcDbEntity
  8
AM_VIS
100
AcDbLine
 10
2548.665169060957
 20
1559.437385797718
 30
0.0
 11
2604.665169060957
 21
1559.437385797718
 31
0.0
  0
LINE
  5
19C4
330
1F
100
AcDbEntity
  8
AM_VIS
100
AcDbLine
 10
2604.665169060957
 20
1559.437385797718
 30
0.0
 11
2608.665169060957
 21
1559.437385797718
 31
0.0
  0
LINE
  5
19C5
330
1F
100
AcDbEntity
  8
AM_VIS
100
AcDbLine
 10
2604.665169060957
 20
1569.437385797718
 30
0.0
 11
2604.665169060957
 21
1559.437385797718
 31
0.0
  0
LINE
  5
19C6
330
1F
100
AcDbEntity
  8
AM_VIS
100
AcDbLine
 10
2608.665169060957
 20
1559.437385797718
 30
0.0
 11
2608.665169060957
 21
1569.437385797718
 31
0.0
  0
LINE
  5
19C7
330
1F
100
AcDbEntity
  8
AM_VIS
100
AcDbLine
 10
2608.665169060957
 20
1569.437385797718
 30
0.0
 11
2604.665169060957
 21
1569.437385797718
 31
0.0
  0
LINE
  5
19C8
330
1F
100
AcDbEntity
  8
AM_VIS
100
AcDbLine
 10
2604.665169060957
 20
1569.437385797718
 30
0.0
 11
2548.665169060957
 21
1569.437385797718
 31
0.0
  0
LINE
  5
19C9
330
1F
100
AcDbEntity
  8
AM_VIS
100
AcDbLine
 10
2548.665169060957
 20
1559.437385797718
 30
0.0
 11
2548.665169060957
 21
1569.437385797718
 31
0.0
  0
LINE
  5
19CA
330
1F
100
AcDbEntity
  8
AM_VIS
100
AcDbLine
 10
2544.665169060957
 20
1559.437385797718
 30
0.0
 11
2548.665169060957
 21
1559.437385797718
 31
0.0
  0
LINE
  5
19CB
330
1F
100
AcDbEntity
  8
AM_VIS
100
AcDbLine
 10
2544.665169060957
 20
1569.437385797718
 30
0.0
 11
2544.665169060957
 21
1559.437385797718
 31
0.0
  0
LINE
  5
19CC
330
1F
100
AcDbEntity
  8
AM_VIS
100
AcDbLine
 10
2548.665169060957
 20
1569.437385797718
 30
0.0
 11
2544.665169060957
 21
1569.437385797718
 31
0.0
  0
ARC
  5
1A26
330
1F
100
AcDbEntity
  8
AM_4
100
AcDbCircle
 10
2470.699187695753
 20
1613.33814677832
 30
0.0
 40
4.0
100
AcDbArc
 50
260.0
 51
170.0
  0
CIRCLE
  5
1A27
330
1F
100
AcDbEntity
  8
AM_0
100
AcDbCircle
 10
2470.699187695753
 20
1613.33814677832
 30
0.0
 40
3.323417653293459
  0
LINE
  5
1A28
330
1F
100
AcDbEntity
  8
AM_7
  6
AM_ISO08W050x2
100
AcDbLine
 10
2464.699187695753
 20
1613.33814677832
 30
0.0
 11
2476.699187695753
 21
1613.33814677832
 31
0.0
  0
LINE
  5
1A29
330
1F
100
AcDbEntity
  8
AM_7
  6
AM_ISO08W050x2
100
AcDbLine
 10
2470.699187695753
 20
1607.33814677832
 30
0.0
 11
2470.699187695753
 21
1619.33814677832
 31
0.0
  0
ARC
  5
1A2A
330
1F
100
AcDbEntity
  8
AM_4
100
AcDbCircle
 10
2451.699187695753
 20
1638.33814677832
 30
0.0
 40
4.0
100
AcDbArc
 50
260.0
 51
170.0
  0
CIRCLE
  5
1A2B
330
1F
100
AcDbEntity
  8
AM_0
100
AcDbCircle
 10
2451.699187695753
 20
1638.33814677832
 30
0.0
 40
3.323417653293459
  0
LINE
  5
1A2C
330
1F
100
AcDbEntity
  8
AM_7
  6
AM_ISO08W050x2
100
AcDbLine
 10
2445.699187695753
 20
1638.33814677832
 30
0.0
 11
2457.699187695753
 21
1638.33814677832
 31
0.0
  0
LINE
  5
1A2D
330
1F
100
AcDbEntity
  8
AM_7
  6
AM_ISO08W050x2
100
AcDbLine
 10
2451.699187695753
 20
1632.338146778321
 30
0.0
 11
2451.699187695753
 21
1644.33814677832
 31
0.0
  0
ARC
  5
1A2E
330
1F
100
AcDbEntity
  8
AM_4
100
AcDbCircle
 10
2489.699187695753
 20
1638.33814677832
 30
0.0
 40
4.0
100
AcDbArc
 50
260.0
 51
170.0
  0
CIRCLE
  5
1A2F
330
1F
100
AcDbEntity
  8
AM_0
100
AcDbCircle
 10
2489.699187695753
 20
1638.33814677832
 30
0.0
 40
3.323417653293459
  0
LINE
  5
1A30
330
1F
100
AcDbEntity
  8
AM_7
  6
AM_ISO08W050x2
100
AcDbLine
 10
2483.699187695753
 20
1638.33814677832
 30
0.0
 11
2495.699187695753
 21
1638.33814677832
 31
0.0
  0
LINE
  5
1A31
330
1F
100
AcDbEntity
  8
AM_7
  6
AM_ISO08W050x2
100
AcDbLine
 10
2489.699187695753
 20
1632.338146778321
 30
0.0
 11
2489.699187695753
 21
1644.33814677832
 31
0.0
  0
ARC
  5
1A32
330
1F
100
AcDbEntity
  8
AM_4
100
AcDbCircle
 10
2470.699187695753
 20
1663.33814677832
 30
0.0
 40
4.0
100
AcDbArc
 50
260.0
 51
170.0
  0
CIRCLE
  5
1A33
330
1F
100
AcDbEntity
  8
AM_0
100
AcDbCircle
 10
2470.699187695753
 20
1663.33814677832
 30
0.0
 40
3.323417653293459
  0
LINE
  5
1A34
330
1F
100
AcDbEntity
  8
AM_7
  6
AM_ISO08W050x2
100
AcDbLine
 10
2464.699187695753
 20
1663.33814677832
 30
0.0
 11
2476.699187695753
 21
1663.33814677832
 31
0.0
  0
LINE
  5
1A35
330
1F
100
AcDbEntity
  8
AM_7
  6
AM_ISO08W050x2
100
AcDbLine
 10
2470.699187695753
 20
1657.338146778321
 30
0.0
 11
2470.699187695753
 21
1669.33814677832
 31
0.0
  0
LINE
  5
1A43
330
1F
100
AcDbEntity
  8
AM_7
100
AcDbLine
 10
2470.699187695753
 20
1638.33814677832
 30
0.0
 11
2504.699187695753
 21
1638.33814677832
 31
0.0
1001
GENIUS_GENOREF_13
1005
1A47
  0
LINE
  5
1A44
330
1F
100
AcDbEntity
  8
AM_7
100
AcDbLine
 10
2470.699187695753
 20
1638.33814677832
 30
0.0
 11
2470.699187695753
 21
1672.33814677832
 31
0.0
1001
GENIUS_GENOREF_13
1005
1A47
  0
LINE
  5
1A45
330
1F
100
AcDbEntity
  8
AM_7
100
AcDbLine
 10
2470.699187695753
 20
1638.33814677832
 30
0.0
 11
2436.699187695753
 21
1638.33814677832
 31
0.0
1001
GENIUS_GENOREF_13
1005
1A47
  0
LINE
  5
1A46
330
1F
100
AcDbEntity
  8
AM_7
100
AcDbLine
 10
2470.699187695753
 20
1638.33814677832
 30
0.0
 11
2470.699187695753
 21
1604.33814677832
 31
0.0
1001
GENIUS_GENOREF_13
1005
1A47
  0
POINT
  5
1A47
330
1F
100
AcDbEntity
  8
0
 60
     1
100
AcDbPoint
 10
0.0
 20
0.0
 30
0.0
1001
GENIUS_GENOBJ-N-CRS_13
1002
{
1000
OWNER
1000
GEN
1002
}
1001
GENIUS_GENOLIS_13
1002
{
1000
ENT
1005
1A46
1005
1A45
1005
1A44
1005
1A43
1002
}
1001
GENIUS_GENODEF_13
1002
{
1000
HIER
1070
    10
1002
}
1002
{
1000
MANEDIT
1070
     0
1002
}
1002
{
1000
NOSEL
1070
     0
1002
}
1002
{
1000
BEHIND
1070
     0
1002
}
1002
{
1000
OTHER
1070
     0
1002
}
1002
{
1000
REACTOR
1002
}
1001
GENIUS_GENOENT_13
1002
{
1000
MYREF
1005
1A47
1002
}
1002
{
1000
GRP
1005
0
1002
}
  0
LINE
  5
1A54
330
1F
100
AcDbEntity
  8
AM_7
100
AcDbLine
 10
2470.699187695753
 20
1571.437385797718
 30
0.0
 11
2470.699187695753
 21
1511.437385797718
 31
0.0
1001
GENIUS_GENODEF_13
1002
{
1000
HIER
1070
     0
1002
}
1002
{
1000
MANEDIT
1070
     0
1002
}
1002
{
1000
NOSEL
1070
     0
1002
}
1002
{
1000
BEHIND
1070
     0
1002
}
1002
{
1000
OTHER
1070
     0
1002
}
1002
{
1000
REACTOR
1002
}
1001
GENIUS_GENOBJ-N-CEN_13
1002
{
1000
OWNER
1000
GEN
1002
}
1001
GENIUS_GENCEN_19
1002
{
1040
2.0
1002
}
  0
LINE
  5
1A63
330
1F
100
AcDbEntity
  8
AM_7
100
AcDbLine
 10
2576.665169060957
 20
1571.437385797718
 30
0.0
 11
2576.665169060957
 21
1511.437385797718
 31
0.0
1001
GENIUS_GENOBJ-N-CEN_13
1002
{
1000
OWNER
1000
GEN
1002
}
1001
GENIUS_GENODEF_13
1002
{
1000
HIER
1070
     0
1002
}
1002
{
1000
MANEDIT
1070
     0
1002
}
1002
{
1000
NOSEL
1070
     0
1002
}
1002
{
1000
BEHIND
1070
     0
1002
}
1002
{
1000
OTHER
1070
     0
1002
}
1002
{
1000
REACTOR
1002
}
1001
GENIUS_GENCEN_19
1002
{
1040
2.0
1002
}
  0
LINE
  5
1A71
330
1F
100
AcDbEntity
  8
AM_7
  6
AM_ISO08W050x2
100
AcDbLine
 10
2470.699187695753
 20
1541.937385797718
 30
0.0
 11
2476.999187695753
 21
1541.937385797718
 31
0.0
1001
GENIUS_GENOREF_13
1005
1A75
  0
LINE
  5
1A72
330
1F
100
AcDbEntity
  8
AM_7
  6
AM_ISO08W050x2
100
AcDbLine
 10
2470.699187695753
 20
1541.937385797718
 30
0.0
 11
2470.699187695753
 21
1548.237385797718
 31
0.0
1001
GENIUS_GENOREF_13
1005
1A75
  0
LINE
  5
1A73
330
1F
100
AcDbEntity
  8
AM_7
  6
AM_ISO08W050x2
100
AcDbLine
 10
2470.699187695753
 20
1541.937385797718
 30
0.0
 11
2464.399187695752
 21
1541.937385797718
 31
0.0
1001
GENIUS_GENOREF_13
1005
1A75
  0
LINE
  5
1A74
330
1F
100
AcDbEntity
  8
AM_7
  6
AM_ISO08W050x2
100
AcDbLine
 10
2470.699187695753
 20
1541.937385797718
 30
0.0
 11
2470.699187695753
 21
1535.637385797718
 31
0.0
1001
GENIUS_GENOREF_13
1005
1A75
  0
POINT
  5
1A75
330
1F
100
AcDbEntity
  8
0
 60
     1
100
AcDbPoint
 10
0.0
 20
0.0
 30
0.0
1001
GENIUS_GENOBJ-N-CRS_13
1002
{
1000
OWNER
1000
GEN
1002
}
1001
GENIUS_GENODEF_13
1002
{
1000
HIER
1070
    10
1002
}
1002
{
1000
MANEDIT
1070
     0
1002
}
1002
{
1000
NOSEL
1070
     0
1002
}
1002
{
1000
BEHIND
1070
     0
1002
}
1002
{
1000
OTHER
1070
     0
1002
}
1002
{
1000
REACTOR
1002
}
1001
GENIUS_GENOENT_13
1002
{
1000
MYREF
1005
1A75
1002
}
1002
{
1000
GRP
1005
0
1002
}
1001
GENIUS_GENOLIS_13
1002
{
1000
ENT
1005
1A74
1005
1A73
1005
1A72
1005
1A71
1002
}
  0
LINE
  5
1A83
330
1F
100
AcDbEntity
  8
AM_7
  6
AM_ISO08W050x2
100
AcDbLine
 10
2470.699187695753
 20
1521.437385797718
 30
0.0
 11
2477.549187695753
 21
1521.437385797718
 31
0.0
1001
GENIUS_GENOREF_13
1005
1A87
  0
LINE
  5
1A84
330
1F
100
AcDbEntity
  8
AM_7
  6
AM_ISO08W050x2
100
AcDbLine
 10
2470.699187695753
 20
1521.437385797718
 30
0.0
 11
2470.699187695753
 21
1528.287385797718
 31
0.0
1001
GENIUS_GENOREF_13
1005
1A87
  0
LINE
  5
1A85
330
1F
100
AcDbEntity
  8
AM_7
  6
AM_ISO08W050x2
100
AcDbLine
 10
2470.699187695753
 20
1521.437385797718
 30
0.0
 11
2463.849187695753
 21
1521.437385797718
 31
0.0
1001
GENIUS_GENOREF_13
1005
1A87
  0
LINE
  5
1A86
330
1F
100
AcDbEntity
  8
AM_7
  6
AM_ISO08W050x2
100
AcDbLine
 10
2470.699187695753
 20
1521.437385797718
 30
0.0
 11
2470.699187695753
 21
1514.587385797718
 31
0.0
1001
GENIUS_GENOREF_13
1005
1A87
  0
POINT
  5
1A87
330
1F
100
AcDbEntity
  8
0
 60
     1
100
AcDbPoint
 10
0.0
 20
0.0
 30
0.0
1001
GENIUS_GENOLIS_13
1002
{
1000
ENT
1005
1A86
1005
1A85
1005
1A84
1005
1A83
1002
}
1001
GENIUS_GENOENT_13
1002
{
1000
MYREF
1005
1A87
1002
}
1002
{
1000
GRP
1005
0
1002
}
1001
GENIUS_GENOBJ-N-CRS_13
1002
{
1000
OWNER
1000
GEN
1002
}
1001
GENIUS_GENODEF_13
1002
{
1000
HIER
1070
    10
1002
}
1002
{
1000
MANEDIT
1070
     0
1002
}
1002
{
1000
NOSEL
1070
     0
1002
}
1002
{
1000
BEHIND
1070
     0
1002
}
1002
{
1000
OTHER
1070
     0
1002
}
1002
{
1000
REACTOR
1002
}
  0
LINE
  5
1A95
330
1F
100
AcDbEntity
  8
AM_7
100
AcDbLine
 10
2470.699187695753
 20
1454.63748412237
 30
0.0
 11
2500.284423821436
 21
1454.63748412237
 31
0.0
1001
GENIUS_GENOREF_13
1005
1A99
  0
LINE
  5
1A96
330
1F
100
AcDbEntity
  8
AM_7
100
AcDbLine
 10
2470.699187695753
 20
1454.63748412237
 30
0.0
 11
2470.699187695753
 21
1488.63748412237
 31
0.0
1001
GENIUS_GENOREF_13
1005
1A99
  0
LINE
  5
1A97
330
1F
100
AcDbEntity
  8
AM_7
100
AcDbLine
 10
2470.699187695753
 20
1454.63748412237
 30
0.0
 11
2441.907589073066
 21
1454.63748412237
 31
0.0
1001
GENIUS_GENOREF_13
1005
1A99
  0
LINE
  5
1A98
330
1F
100
AcDbEntity
  8
AM_7
100
AcDbLine
 10
2470.699187695753
 20
1454.63748412237
 30
0.0
 11
2470.699187695753
 21
1420.63748412237
 31
0.0
1001
GENIUS_GENOREF_13
1005
1A99
  0
POINT
  5
1A99
330
1F
100
AcDbEntity
  8
0
 60
     1
100
AcDbPoint
 10
0.0
 20
0.0
 30
0.0
1001
GENIUS_GENOBJ-N-CRS_13
1002
{
1000
OWNER
1000
GEN
1002
}
1001
GENIUS_GENODEF_13
1002
{
1000
HIER
1070
    10
1002
}
1002
{
1000
MANEDIT
1070
     0
1002
}
1002
{
1000
NOSEL
1070
     0
1002
}
1002
{
1000
BEHIND
1070
     0
1002
}
1002
{
1000
OTHER
1070
     0
1002
}
1002
{
1000
REACTOR
1002
}
1001
GENIUS_GENOENT_13
1002
{
1000
MYREF
1005
1A99
1002
}
1002
{
1000
GRP
1005
0
1002
}
1001
GENIUS_GENOLIS_13
1002
{
1000
ENT
1005
1A98
1005
1A97
1005
1A96
1005
1A95
1002
}
  0
CIRCLE
  5
1AB4
330
1F
100
AcDbEntity
  8
0
100
AcDbCircle
 10
2490.699187695753
 20
1474.63748412237
 30
0.0
 40
3.5
  0
CIRCLE
  5
1AB5
330
1F
100
AcDbEntity
  8
0
100
AcDbCircle
 10
2450.699187695753
 20
1434.63748412237
 30
0.0
 40
3.5
  0
CIRCLE
  5
1AB6
330
1F
100
AcDbEntity
  8
0
100
AcDbCircle
 10
2450.699187695753
 20
1474.63748412237
 30
0.0
 40
2.75
  0
CIRCLE
  5
1AB7
330
1F
100
AcDbEntity
  8
0
100
AcDbCircle
 10
2450.699187695753
 20
1474.63748412237
 30
0.0
 40
4.5
  0
ARC
  5
1AB8
330
1F
100
AcDbEntity
  8
AM_4
100
AcDbCircle
 10
2450.699187695753
 20
1474.63748412237
 30
0.0
 40
3.0
100
AcDbArc
 50
280.0
 51
190.0
  0
CIRCLE
  5
1AB9
330
1F
100
AcDbEntity
  8
0
100
AcDbCircle
 10
2490.699187695753
 20
1434.63748412237
 30
0.0
 40
2.75
  0
CIRCLE
  5
1ABA
330
1F
100
AcDbEntity
  8
0
100
AcDbCircle
 10
2490.699187695753
 20
1434.63748412237
 30
0.0
 40
4.5
  0
ARC
  5
1ABB
330
1F
100
AcDbEntity
  8
AM_4
100
AcDbCircle
 10
2490.699187695753
 20
1434.63748412237
 30
0.0
 40
3.0
100
AcDbArc
 50
280.0
 51
190.0
  0
LINE
  5
1AC9
330
1F
100
AcDbEntity
  8
AM_7
  6
AM_ISO08W050x2
100
AcDbLine
 10
2450.699187695753
 20
1474.63748412237
 30
0.0
 11
2457.199187695753
 21
1474.63748412237
 31
0.0
1001
GENIUS_GENOREF_13
1005
1ACD
  0
LINE
  5
1ACA
330
1F
100
AcDbEntity
  8
AM_7
  6
AM_ISO08W050x2
100
AcDbLine
 10
2450.699187695753
 20
1474.63748412237
 30
0.0
 11
2450.699187695753
 21
1481.13748412237
 31
0.0
1001
GENIUS_GENOREF_13
1005
1ACD
  0
LINE
  5
1ACB
330
1F
100
AcDbEntity
  8
AM_7
  6
AM_ISO08W050x2
100
AcDbLine
 10
2450.699187695753
 20
1474.63748412237
 30
0.0
 11
2444.199187695753
 21
1474.63748412237
 31
0.0
1001
GENIUS_GENOREF_13
1005
1ACD
  0
LINE
  5
1ACC
330
1F
100
AcDbEntity
  8
AM_7
  6
AM_ISO08W050x2
100
AcDbLine
 10
2450.699187695753
 20
1474.63748412237
 30
0.0
 11
2450.699187695753
 21
1468.13748412237
 31
0.0
1001
GENIUS_GENOREF_13
1005
1ACD
  0
POINT
  5
1ACD
330
1F
100
AcDbEntity
  8
0
 60
     1
100
AcDbPoint
 10
0.0
 20
0.0
 30
0.0
1001
GENIUS_GENOENT_13
1002
{
1000
MYREF
1005
1ACD
1002
}
1002
{
1000
GRP
1005
0
1002
}
1001
GENIUS_GENOBJ-N-CRS_13
1002
{
1000
OWNER
1000
GEN
1002
}
1001
GENIUS_GENODEF_13
1002
{
1000
HIER
1070
    10
1002
}
1002
{
1000
MANEDIT
1070
     0
1002
}
1002
{
1000
NOSEL
1070
     0
1002
}
1002
{
1000
BEHIND
1070
     0
1002
}
1002
{
1000
OTHER
1070
     0
1002
}
1002
{
1000
REACTOR
1002
}
1001
GENIUS_GENOLIS_13
1002
{
1000
ENT
1005
1ACC
1005
1ACB
1005
1ACA
1005
1AC9
1002
}
  0
LINE
  5
1ADB
330
1F
100
AcDbEntity
  8
AM_7
  6
AM_ISO08W050x2
100
AcDbLine
 10
2490.699187695753
 20
1474.63748412237
 30
0.0
 11
2496.199187695753
 21
1474.63748412237
 31
0.0
1001
GENIUS_GENOREF_13
1005
1ADF
  0
LINE
  5
1ADC
330
1F
100
AcDbEntity
  8
AM_7
  6
AM_ISO08W050x2
100
AcDbLine
 10
2490.699187695753
 20
1474.63748412237
 30
0.0
 11
2490.699187695753
 21
1480.13748412237
 31
0.0
1001
GENIUS_GENOREF_13
1005
1ADF
  0
LINE
  5
1ADD
330
1F
100
AcDbEntity
  8
AM_7
  6
AM_ISO08W050x2
100
AcDbLine
 10
2490.699187695753
 20
1474.63748412237
 30
0.0
 11
2485.199187695753
 21
1474.63748412237
 31
0.0
1001
GENIUS_GENOREF_13
1005
1ADF
  0
LINE
  5
1ADE
330
1F
100
AcDbEntity
  8
AM_7
  6
AM_ISO08W050x2
100
AcDbLine
 10
2490.699187695753
 20
1474.63748412237
 30
0.0
 11
2490.699187695753
 21
1469.13748412237
 31
0.0
1001
GENIUS_GENOREF_13
1005
1ADF
  0
POINT
  5
1ADF
330
1F
100
AcDbEntity
  8
0
 60
     1
100
AcDbPoint
 10
0.0
 20
0.0
 30
0.0
1001
GENIUS_GENOBJ-N-CRS_13
1002
{
1000
OWNER
1000
GEN
1002
}
1001
GENIUS_GENOENT_13
1002
{
1000
MYREF
1005
1ADF
1002
}
1002
{
1000
GRP
1005
0
1002
}
1001
GENIUS_GENOLIS_13
1002
{
1000
ENT
1005
1ADE
1005
1ADD
1005
1ADC
1005
1ADB
1002
}
1001
GENIUS_GENODEF_13
1002
{
1000
HIER
1070
    10
1002
}
1002
{
1000
MANEDIT
1070
     0
1002
}
1002
{
1000
NOSEL
1070
     0
1002
}
1002
{
1000
BEHIND
1070
     0
1002
}
1002
{
1000
OTHER
1070
     0
1002
}
1002
{
1000
REACTOR
1002
}
  0
LINE
  5
1AED
330
1F
100
AcDbEntity
  8
AM_7
  6
AM_ISO08W050x2
100
AcDbLine
 10
2490.699187695753
 20
1434.63748412237
 30
0.0
 11
2497.199187695753
 21
1434.63748412237
 31
0.0
1001
GENIUS_GENOREF_13
1005
1AF1
  0
LINE
  5
1AEE
330
1F
100
AcDbEntity
  8
AM_7
  6
AM_ISO08W050x2
100
AcDbLine
 10
2490.699187695753
 20
1434.63748412237
 30
0.0
 11
2490.699187695753
 21
1441.13748412237
 31
0.0
1001
GENIUS_GENOREF_13
1005
1AF1
  0
LINE
  5
1AEF
330
1F
100
AcDbEntity
  8
AM_7
  6
AM_ISO08W050x2
100
AcDbLine
 10
2490.699187695753
 20
1434.63748412237
 30
0.0
 11
2484.199187695753
 21
1434.63748412237
 31
0.0
1001
GENIUS_GENOREF_13
1005
1AF1
  0
LINE
  5
1AF0
330
1F
100
AcDbEntity
  8
AM_7
  6
AM_ISO08W050x2
100
AcDbLine
 10
2490.699187695753
 20
1434.63748412237
 30
0.0
 11
2490.699187695753
 21
1428.13748412237
 31
0.0
1001
GENIUS_GENOREF_13
1005
1AF1
  0
POINT
  5
1AF1
330
1F
100
AcDbEntity
  8
0
 60
     1
100
AcDbPoint
 10
0.0
 20
0.0
 30
0.0
1001
GENIUS_GENOBJ-N-CRS_13
1002
{
1000
OWNER
1000
GEN
1002
}
1001
GENIUS_GENOLIS_13
1002
{
1000
ENT
1005
1AF0
1005
1AEF
1005
1AEE
1005
1AED
1002
}
1001
GENIUS_GENODEF_13
1002
{
1000
HIER
1070
    10
1002
}
1002
{
1000
MANEDIT
1070
     0
1002
}
1002
{
1000
NOSEL
1070
     0
1002
}
1002
{
1000
BEHIND
1070
     0
1002
}
1002
{
1000
OTHER
1070
     0
1002
}
1002
{
1000
REACTOR
1002
}
1001
GENIUS_GENOENT_13
1002
{
1000
MYREF
1005
1AF1
1002
}
1002
{
1000
GRP
1005
0
1002
}
  0
LINE
  5
1AFF
330
1F
100
AcDbEntity
  8
AM_7
  6
AM_ISO08W050x2
100
AcDbLine
 10
2450.699187695753
 20
1434.63748412237
 30
0.0
 11
2456.199187695753
 21
1434.63748412237
 31
0.0
1001
GENIUS_GENOREF_13
1005
1B03
  0
LINE
  5
1B00
330
1F
100
AcDbEntity
  8
AM_7
  6
AM_ISO08W050x2
100
AcDbLine
 10
2450.699187695753
 20
1434.63748412237
 30
0.0
 11
2450.699187695753
 21
1440.13748412237
 31
0.0
1001
GENIUS_GENOREF_13
1005
1B03
  0
LINE
  5
1B01
330
1F
100
AcDbEntity
  8
AM_7
  6
AM_ISO08W050x2
100
AcDbLine
 10
2450.699187695753
 20
1434.63748412237
 30
0.0
 11
2445.199187695753
 21
1434.63748412237
 31
0.0
1001
GENIUS_GENOREF_13
1005
1B03
  0
LINE
  5
1B02
330
1F
100
AcDbEntity
  8
AM_7
  6
AM_ISO08W050x2
100
AcDbLine
 10
2450.699187695753
 20
1434.63748412237
 30
0.0
 11
2450.699187695753
 21
1429.13748412237
 31
0.0
1001
GENIUS_GENOREF_13
1005
1B03
  0
POINT
  5
1B03
330
1F
100
AcDbEntity
  8
0
 60
     1
100
AcDbPoint
 10
0.0
 20
0.0
 30
0.0
1001
GENIUS_GENOENT_13
1002
{
1000
MYREF
1005
1B03
1002
}
1002
{
1000
GRP
1005
0
1002
}
1001
GENIUS_GENOBJ-N-CRS_13
1002
{
1000
OWNER
1000
GEN
1002
}
1001
GENIUS_GENODEF_13
1002
{
1000
HIER
1070
    10
1002
}
1002
{
1000
MANEDIT
1070
     0
1002
}
1002
{
1000
NOSEL
1070
     0
1002
}
1002
{
1000
BEHIND
1070
     0
1002
}
1002
{
1000
OTHER
1070
     0
1002
}
1002
{
1000
REACTOR
1002
}
1001
GENIUS_GENOLIS_13
1002
{
1000
ENT
1005
1B02
1005
1B01
1005
1B00
1005
1AFF
1002
}
  0
DIMENSION
  5
1F2F
102
{ACAD_XDICTIONARY
360
1F3C
102
}
102
{ACAD_REACTORS
330
1F3D
102
}
330
1F
100
AcDbEntity
  8
AM_5
100
AcDbDimension
  2
*D15
 10
2512.389859096957
 20
1559.437385797718
 30
0.0
 11
2509.139859096956
 21
1564.437385797719
 31
0.0
 70
    32
 71
     5
 42
10.0
  3
AM_ISO$0
100
AcDbAlignedDimension
 13
2497.699187695753
 23
1569.437385797718
 33
0.0
 14
2497.699187695753
 24
1559.437385797718
 34
0.0
 50
90.00000000000003
100
AcDbRotatedDimension
1001
ACAD
1000
DSTYLE
1002
{
1070
    40
1040
1.3
1070
   173
1070
     1
1070
   174
1070
     1
1070
   272
1070
     8
1070
   344
1005
1DB0
1002
}
  0
DIMENSION
  5
1FA8
102
{ACAD_XDICTIONARY
360
1FB7
102
}
102
{ACAD_REACTORS
330
1FB8
102
}
330
1F
100
AcDbEntity
  8
AM_5
100
AcDbDimension
  2
*D16
 10
2512.389859096957
 20
1559.437385797718
 30
0.0
 11
2509.139859096956
 21
1556.187385797718
 31
0.0
 70
    32
 71
     5
 42
6.5
  3
AM_ISO$0
100
AcDbAlignedDimension
 13
2496.699187695753
 23
1552.937385797718
 33
0.0
 14
2497.699187695753
 24
1559.437385797718
 34
0.0
 50
90.00000000000003
100
AcDbRotatedDimension
1001
ACAD
1000
DSTYLE
1002
{
1070
    40
1040
1.3
1070
   173
1070
     1
1070
   174
1070
     1
1070
   272
1070
     8
1070
   344
1005
1DB0
1002
}
  0
ENDSEC
  0
SECTION
  2
OBJECTS
  0
DICTIONARY
  5
C
330
0
100
AcDbDictionary
281
     1
  3
ACAD_COLOR
350
BE
  3
ACAD_GROUP
350
D
  3
ACAD_LAYOUT
350
1A
  3
ACAD_MATERIAL
350
BD
  3
ACAD_MLINESTYLE
350
17
  3
ACAD_PLOTSETTINGS
350
19
  3
ACAD_PLOTSTYLENAME
350
E
  3
ACAD_TABLESTYLE
350
11A
  3
ACDBHEADERROUNDTRIPXREC
350
208C
  3
AcDbVariableDictionary
350
94
  3
AcmDictionary
350
5B
  3
AMG
350
41
  3
AMGSNAPSETTINGS
350
1B8
  3
DWGPROPS
350
208B
  0
DICTIONARY
  5
3F9
330
2
100
AcDbDictionary
280
     1
281
     1
  3
ACAD_LAYERFILTERS
360
5B7
  3
ACAD_LAYERSTATES
360
814
  3
ACLYDICTIONARY
360
5B6
  3
AMLAYER_GROUPCOLORS
360
BD3
  0
DICTIONARY
  5
8F
330
1F
100
AcDbDictionary
280
     1
281
     1
  3
ACAD_SORTENTS
360
C06
  0
DICTIONARY
  5
1F3C
330
1F2F
100
AcDbDictionary
280
     1
281
     1
  3
ACAD_DIMASSOC
360
1F3D
  0
DICTIONARY
  5
1FB7
330
1FA8
100
AcDbDictionary
280
     1
281
     1
  3
ACAD_DIMASSOC
360
1FB8
  0
DICTIONARY
  5
BE
102
{ACAD_REACTORS
330
C
102
}
330
C
100
AcDbDictionary
281
     1
  0
DICTIONARY
  5
D
102
{ACAD_REACTORS
330
C
102
}
330
C
100
AcDbDictionary
281
     1
  0
DICTIONARY
  5
1A
102
{ACAD_REACTORS
330
C
102
}
330
C
100
AcDbDictionary
281
     1
  3
Model
350
22
  3
配置1
350
1E
  3
配置2
350
26
  0
DICTIONARY
  5
BD
102
{ACAD_REACTORS
330
C
102
}
330
C
100
AcDbDictionary
281
     1
  0
DICTIONARY
  5
17
102
{ACAD_REACTORS
330
C
102
}
330
C
100
AcDbDictionary
281
     1
  3
Standard
350
18
  0
DICTIONARY
  5
19
102
{ACAD_REACTORS
330
C
102
}
330
C
100
AcDbDictionary
281
     1
  0
ACDBDICTIONARYWDFLT
  5
E
102
{ACAD_REACTORS
330
C
102
}
330
C
100
AcDbDictionary
281
     1
  3
Normal
350
F
100
AcDbDictionaryWithDefault
340
F
  0
DICTIONARY
  5
11A
102
{ACAD_REACTORS
330
C
102
}
330
C
100
AcDbDictionary
281
     1
  3
Standard
350
11B
  0
DICTIONARY
  5
208C
102
{ACAD_REACTORS
330
C
102
}
330
C
100
AcDbDictionary
281
     1
  0
DICTIONARY
  5
94
102
{ACAD_REACTORS
330
C
102
}
330
C
100
AcDbDictionary
281
     1
  3
CTABLESTYLE
350
138
  3
DIMASSOC
350
96
  3
INDEXCTL
350
95
  3
PROJECTNAME
350
2089
  0
DICTIONARY
  5
5B
102
{ACAD_REACTORS
330
C
102
}
330
C
100
AcDbDictionary
281
     1
  3
AcmBOM
350
1B5
  3
AcmStdDictionary
350
61
  3
AMDTSECTSYM_ARROWCOLOR
350
123
  0
DICTIONARY
  5
41
102
{ACAD_REACTORS
330
C
102
}
330
C
100
AcDbDictionary
281
     1
  0
DICTIONARY
  5
1B8
102
{ACAD_REACTORS
330
C
102
}
330
C
100
AcDbDictionary
281
     1
  0
XRECORD
  5
208B
102
{ACAD_REACTORS
330
C
102
}
330
C
100
AcDbXrecord
280
     1
  1
DWGPROPS COOKIE
  2

  3

  4

  6

  7

  8

  9

300
AmdtFileType=84
301
=
302
=
303
=
304
=
305
=
306
=
307
=
308
=
309
=
 40
0.1756532060185185
 41
2453809.488480533
 42
2453815.446119063
  1

 90
        1
  0
DICTIONARY
  5
5B7
102
{ACAD_REACTORS
330
3F9
102
}
330
3F9
100
AcDbDictionary
281
     1
  0
DICTIONARY
  5
814
102
{ACAD_REACTORS
330
3F9
102
}
330
3F9
100
AcDbDictionary
281
     1
  0
DICTIONARY
  5
5B6
102
{ACAD_REACTORS
330
3F9
102
}
330
3F9
100
AcDbDictionary
281
     1
1001
ACAD
1000
<All
  0
DICTIONARY
  5
BD3
102
{ACAD_REACTORS
330
3F9
102
}
330
3F9
100
AcDbDictionary
280
     1
281
     1
  0
SORTENTSTABLE
  5
C06
102
{ACAD_REACTORS
330
8F
102
}
330
8F
100
AcDbSortentsTable
330
1F
331
1928
  5
1928
331
18E1
  5
18E1
331
18AA
  5
18AA
331
FD6
  5
FD6
331
15FB
  5
15FB
331
1967
  5
1967
331
1930
  5
1930
331
18E9
  5
18E9
331
18B2
  5
18B2
331
1603
  5
1603
331
19AE
  5
19AE
331
196F
  5
196F
331
1938
  5
1938
331
18BA
  5
18BA
331
160B
  5
160B
331
14F5
  5
14F5
331
15D4
  5
15D4
331
19B6
  5
19B6
331
1940
  5
1940
331
1901
  5
1901
331
18C2
  5
18C2
331
F0F
  5
F0F
331
1613
  5
1613
331
19BE
  5
19BE
331
19C6
  5
19C6
331
1987
  5
1987
331
1948
  5
1948
331
1909
  5
1909
331
161B
  5
161B
331
15A5
  5
15A5
331
1950
  5
1950
331
1911
  5
1911
331
18D2
  5
18D2
331
1623
  5
1623
331
15AD
  5
15AD
331
15EC
  5
15EC
331
198F
  5
198F
331
1958
  5
1958
331
1919
  5
1919
331
162B
  5
162B
331
15F4
  5
15F4
331
15B5
  5
15B5
331
18DA
  5
18DA
331
1997
  5
1997
331
1921
  5
1921
331
15BD
  5
15BD
331
18A3
  5
18A3
331
199F
  5
199F
331
19A7
  5
19A7
331
1960
  5
1960
331
1929
  5
1929
331
18E2
  5
18E2
331
15FC
  5
15FC
331
15C5
  5
15C5
331
1266
  5
1266
331
18AB
  5
18AB
331
1968
  5
1968
331
1931
  5
1931
331
18EA
  5
18EA
331
1604
  5
1604
331
18B3
  5
18B3
331
19AF
  5
19AF
331
19B7
  5
19B7
331
1939
  5
1939
331
160C
  5
160C
331
15D5
  5
15D5
331
18BB
  5
18BB
331
1978
  5
1978
331
1941
  5
1941
331
1902
  5
1902
331
1614
  5
1614
331
15DD
  5
15DD
331
18C3
  5
18C3
331
19BF
  5
19BF
331
19C7
  5
19C7
331
1949
  5
1949
331
161C
  5
161C
331
15A6
  5
15A6
331
190A
  5
190A
331
1988
  5
1988
331
1951
  5
1951
331
1912
  5
1912
331
1624
  5
1624
331
15AE
  5
15AE
331
15ED
  5
15ED
331
18D3
  5
18D3
331
1990
  5
1990
331
1959
  5
1959
331
191A
  5
191A
331
15F5
  5
15F5
331
15B6
  5
15B6
331
18DB
  5
18DB
331
1998
  5
1998
331
1922
  5
1922
331
15BE
  5
15BE
331
18A4
  5
18A4
331
19A0
  5
19A0
331
1961
  5
1961
331
192A
  5
192A
331
18E3
  5
18E3
331
15FD
  5
15FD
331
EE9
  5
EE9
331
18AC
  5
18AC
331
19A8
  5
19A8
331
1969
  5
1969
331
1932
  5
1932
331
18EB
  5
18EB
331
1605
  5
1605
331
15CE
  5
15CE
331
18B4
  5
18B4
331
19B0
  5
19B0
331
193A
  5
193A
331
160D
  5
160D
331
18BC
  5
18BC
331
19B8
  5
19B8
331
19C0
  5
19C0
331
1942
  5
1942
331
1903
  5
1903
331
1615
  5
1615
331
18C4
  5
18C4
331
1981
  5
1981
331
194A
  5
194A
331
161D
  5
161D
331
15A7
  5
15A7
331
190B
  5
190B
331
19C8
  5
19C8
331
1952
  5
1952
331
18D4
  5
18D4
331
1625
  5
1625
331
15AF
  5
15AF
331
15EE
  5
15EE
331
1913
  5
1913
331
1991
  5
1991
331
195A
  5
195A
331
18DC
  5
18DC
331
15F6
  5
15F6
331
15B7
  5
15B7
331
191B
  5
191B
331
1999
  5
1999
331
18A5
  5
18A5
331
15BF
  5
15BF
331
1923
  5
1923
331
19A1
  5
19A1
331
1962
  5
1962
331
18E4
  5
18E4
331
18AD
  5
18AD
331
15FE
  5
15FE
331
192B
  5
192B
331
19A9
  5
19A9
331
196A
  5
196A
331
18EC
  5
18EC
331
18B5
  5
18B5
331
1606
  5
1606
331
15CF
  5
15CF
331
1933
  5
1933
331
19B1
  5
19B1
331
18FC
  5
18FC
331
18BD
  5
18BD
331
160E
  5
160E
331
193B
  5
193B
331
19B9
  5
19B9
331
19C1
  5
19C1
331
18C5
  5
18C5
331
1616
  5
1616
331
1943
  5
1943
331
1982
  5
1982
331
194B
  5
194B
331
18CD
  5
18CD
331
161E
  5
161E
331
15A8
  5
15A8
331
15E7
  5
15E7
331
190C
  5
190C
331
19C9
  5
19C9
331
1953
  5
1953
331
18D5
  5
18D5
331
1626
  5
1626
331
15EF
  5
15EF
331
EC3
  5
EC3
331
15B0
  5
15B0
331
1914
  5
1914
331
1992
  5
1992
331
195B
  5
195B
331
18DD
  5
18DD
331
15F7
  5
15F7
331
15B8
  5
15B8
331
191C
  5
191C
331
199A
  5
199A
331
18A6
  5
18A6
331
1924
  5
1924
331
19A2
  5
19A2
331
15C0
  5
15C0
331
1963
  5
1963
331
18E5
  5
18E5
331
18AE
  5
18AE
331
15FF
  5
15FF
331
192C
  5
192C
331
19AA
  5
19AA
331
196B
  5
196B
331
18ED
  5
18ED
331
18B6
  5
18B6
331
1607
  5
1607
331
15D0
  5
15D0
331
1934
  5
1934
331
19B2
  5
19B2
331
18FD
  5
18FD
331
18BE
  5
18BE
331
160F
  5
160F
331
1509
  5
1509
331
193C
  5
193C
331
19BA
  5
19BA
331
19C2
  5
19C2
331
18C6
  5
18C6
331
1617
  5
1617
331
1944
  5
1944
331
1983
  5
1983
331
194C
  5
194C
331
161F
  5
161F
331
1022
  5
1022
331
15A9
  5
15A9
331
15E8
  5
15E8
331
190D
  5
190D
331
19CA
  5
19CA
331
1954
  5
1954
331
18D6
  5
18D6
331
1627
  5
1627
331
15F0
  5
15F0
331
15B1
  5
15B1
331
1915
  5
1915
331
1993
  5
1993
331
195C
  5
195C
331
18DE
  5
18DE
331
15B9
  5
15B9
331
191D
  5
191D
331
199B
  5
199B
331
18A7
  5
18A7
331
1925
  5
1925
331
19A3
  5
19A3
331
15F8
  5
15F8
331
15C1
  5
15C1
331
1964
  5
1964
331
18E6
  5
18E6
331
18AF
  5
18AF
331
1600
  5
1600
331
15C9
  5
15C9
331
192D
  5
192D
331
19AB
  5
19AB
331
196C
  5
196C
331
18EE
  5
18EE
331
18B7
  5
18B7
331
1608
  5
1608
331
E65
  5
E65
331
15D1
  5
15D1
331
1935
  5
1935
331
19B3
  5
19B3
331
18FE
  5
18FE
331
18BF
  5
18BF
331
1610
  5
1610
331
15D9
  5
15D9
331
193D
  5
193D
331
19BB
  5
19BB
331
19C3
  5
19C3
331
18C7
  5
18C7
331
1945
  5
1945
331
1984
  5
1984
331
1618
  5
1618
331
E9D
  5
E9D
331
15A2
  5
15A2
331
15E1
  5
15E1
331
194D
  5
194D
331
1620
  5
1620
331
15AA
  5
15AA
331
15E9
  5
15E9
331
190E
  5
190E
331
19CB
  5
19CB
331
1955
  5
1955
331
18D7
  5
18D7
331
1628
  5
1628
331
15F1
  5
15F1
331
15B2
  5
15B2
331
1916
  5
1916
331
1994
  5
1994
331
199C
  5
199C
331
195D
  5
195D
331
18DF
  5
18DF
331
18A0
  5
18A0
331
15BA
  5
15BA
331
191E
  5
191E
331
1926
  5
1926
331
19A4
  5
19A4
331
18A8
  5
18A8
331
15F9
  5
15F9
331
1965
  5
1965
331
192E
  5
192E
331
18E7
  5
18E7
331
18B0
  5
18B0
331
1601
  5
1601
331
15CA
  5
15CA
331
19AC
  5
19AC
331
196D
  5
196D
331
1936
  5
1936
331
18B8
  5
18B8
331
1609
  5
1609
331
FFC
  5
FFC
331
15D2
  5
15D2
331
19B4
  5
19B4
331
193E
  5
193E
331
18FF
  5
18FF
331
18C0
  5
18C0
331
1611
  5
1611
331
19BC
  5
19BC
331
19C4
  5
19C4
331
1946
  5
1946
331
1985
  5
1985
331
18C8
  5
18C8
331
1619
  5
1619
331
15A3
  5
15A3
331
15E2
  5
15E2
331
19CC
  5
19CC
331
194E
  5
194E
331
190F
  5
190F
331
18D0
  5
18D0
331
1621
  5
1621
331
15AB
  5
15AB
331
15EA
  5
15EA
331
198D
  5
198D
331
1956
  5
1956
331
1917
  5
1917
331
18D8
  5
18D8
331
1629
  5
1629
331
15F2
  5
15F2
331
F85
  5
F85
331
15B3
  5
15B3
331
1995
  5
1995
331
195E
  5
195E
331
191F
  5
191F
331
18A1
  5
18A1
331
15BB
  5
15BB
331
199D
  5
199D
331
1927
  5
1927
331
19A5
  5
19A5
331
18E0
  5
18E0
331
18A9
  5
18A9
331
15FA
  5
15FA
331
1966
  5
1966
331
192F
  5
192F
331
18E8
  5
18E8
331
18B1
  5
18B1
331
1602
  5
1602
331
19AD
  5
19AD
331
196E
  5
196E
331
1937
  5
1937
331
18B9
  5
18B9
331
160A
  5
160A
331
15D3
  5
15D3
331
19B5
  5
19B5
331
193F
  5
193F
331
1900
  5
1900
331
18C1
  5
18C1
331
1612
  5
1612
331
19BD
  5
19BD
331
19C5
  5
19C5
331
1947
  5
1947
331
1986
  5
1986
331
1908
  5
1908
331
18C9
  5
18C9
331
161A
  5
161A
331
15A4
  5
15A4
331
15E3
  5
15E3
331
194F
  5
194F
331
1910
  5
1910
331
18D1
  5
18D1
331
1622
  5
1622
331
15AC
  5
15AC
331
15EB
  5
15EB
331
198E
  5
198E
331
1957
  5
1957
331
1918
  5
1918
331
18D9
  5
18D9
331
162A
  5
162A
331
15F3
  5
15F3
331
15B4
  5
15B4
331
1996
  5
1996
331
195F
  5
195F
331
1920
  5
1920
331
18A2
  5
18A2
331
15BC
  5
15BC
331
199E
  5
199E
331
19A6
  5
19A6
  0
DIMASSOC
  5
1F3D
102
{ACAD_REACTORS
330
1F3C
102
}
330
1F3C
100
AcDbDimAssoc
330
1F2F
 90
        3
 70
     0
 71
     0
  1
AcDbOsnapPointRef
 72
    13
331
18EE
 73
     0
 91
        0
 40
0.0
 10
0.0
 20
0.0
 30
2.000000000000000E+50
 75
     0
  1
AcDbOsnapPointRef
 72
     1
331
18EC
 73
     0
 91
        0
 40
0.0
 10
0.0
 20
0.0
 30
2.000000000000000E+50
 75
     0
  0
DIMASSOC
  5
1FB8
102
{ACAD_REACTORS
330
1FB7
102
}
330
1FB7
100
AcDbDimAssoc
330
1FA8
 90
        3
 70
     0
 71
     0
  1
AcDbOsnapPointRef
 72
     1
331
18D1
 73
     0
 91
        0
 40
0.0
 10
0.0
 20
0.0
 30
2.000000000000000E+50
 75
     0
  1
AcDbOsnapPointRef
 72
     1
331
18EC
 73
     0
 91
        0
 40
0.0
 10
0.0
 20
0.0
 30
2.000000000000000E+50
 75
     0
  0
LAYOUT
  5
22
102
{ACAD_XDICTIONARY
360
208F
102
}
102
{ACAD_REACTORS
330
1A
102
}
330
1A
100
AcDbPlotSettings
  1

  2
\\RD\EPSON Stylus C63 Series單色
  4
A4
  6

 40
3.757083177566528
 41
3.757076978683471
 42
3.757080078125
 43
3.757080078125
 44
209.9733276367187
 45
296.9683227539062
 46
0.0
 47
0.0
 48
0.0
 49
0.0
140
0.0
141
0.0
142
1.0
143
0.3405120737814363
 70
 11952
 72
     1
 73
     0
 74
     0
  7
單色出圖.ctb
 75
     0
147
2.936753428137963
148
-2047.07469463503
149
-1261.649717473083
100
AcDbLayout
  1
Model
 70
     1
 71
     0
 10
0.0
 20
0.0
 11
12.0
 21
9.0
 12
0.0
 22
0.0
 32
0.0
 14
0.0
 24
0.0
 34
0.0
 15
0.0
 25
0.0
 35
0.0
146
0.0
 13
0.0
 23
0.0
 33
0.0
 16
1.0
 26
0.0
 36
0.0
 17
0.0
 27
1.0
 37
0.0
 76
     0
330
1F
1001
ACAD_PSEXT
1000
\\RD\EPSON Stylus C63 Series單色
1000
EPSON Stylus C63 Series
1000
\\RD
1000

1070
     0
  0
LAYOUT
  5
1E
102
{ACAD_XDICTIONARY
360
208D
102
}
102
{ACAD_REACTORS
330
1A
102
}
330
1A
100
AcDbPlotSettings
  1

  2

  4

  6

 40
0.0
 41
0.0
 42
0.0
 43
0.0
 44
0.0
 45
0.0
 46
0.0
 47
0.0
 48
0.0
 49
0.0
140
0.0
141
0.0
142
1.0
143
1.0
 70
   688
 72
     0
 73
     0
 74
     5
  7
單色出圖.ctb
 75
    16
147
1.0
148
0.0
149
0.0
100
AcDbLayout
  1
配置1
 70
     1
 71
     1
 10
0.0
 20
0.0
 11
420.0
 21
297.0
 12
0.0
 22
0.0
 32
0.0
 14
1.000000000000000E+20
 24
1.000000000000000E+20
 34
1.000000000000000E+20
 15
-1.000000000000000E+20
 25
-1.000000000000000E+20
 35
-1.000000000000000E+20
146
0.0
 13
0.0
 23
0.0
 33
0.0
 16
1.0
 26
0.0
 36
0.0
 17
0.0
 27
1.0
 37
0.0
 76
     0
330
1B
  0
LAYOUT
  5
26
102
{ACAD_XDICTIONARY
360
2091
102
}
102
{ACAD_REACTORS
330
1A
102
}
330
1A
100
AcDbPlotSettings
  1

  2

  4

  6

 40
0.0
 41
0.0
 42
0.0
 43
0.0
 44
0.0
 45
0.0
 46
0.0
 47
0.0
 48
0.0
 49
0.0
140
0.0
141
0.0
142
1.0
143
1.0
 70
   688
 72
     0
 73
     0
 74
     5
  7
單色出圖.ctb
 75
    16
147
1.0
148
0.0
149
0.0
100
AcDbLayout
  1
配置2
 70
     1
 71
     2
 10
0.0
 20
0.0
 11
12.0
 21
9.0
 12
0.0
 22
0.0
 32
0.0
 14
0.0
 24
0.0
 34
0.0
 15
0.0
 25
0.0
 35
0.0
146
0.0
 13
0.0
 23
0.0
 33
0.0
 16
1.0
 26
0.0
 36
0.0
 17
0.0
 27
1.0
 37
0.0
 76
     0
330
23
  0
MLINESTYLE
  5
18
102
{ACAD_REACTORS
330
17
102
}
330
17
100
AcDbMlineStyle
  2
STANDARD
 70
     0
  3

 62
   256
 51
90.0
 52
90.0
 71
     2
 49
0.5
 62
   256
  6
BYLAYER
 49
-0.5
 62
   256
  6
BYLAYER
  0
ACDBPLACEHOLDER
  5
F
102
{ACAD_REACTORS
330
E
102
}
330
E
  0
TABLESTYLE
  5
11B
102
{ACAD_REACTORS
330
11A
102
}
330
11A
100
AcDbTableStyle
  3
Standard
 70
     0
 71
     0
 40
1.5
 41
1.5
280
     0
281
     0
  7
STANDARD
140
4.5
170
     2
 62
     0
 63
     7
283
     0
274
    -2
284
     1
 64
     0
275
    -2
285
     1
 65
     0
276
    -2
286
     1
 66
     0
277
    -2
287
     1
 67
     0
278
    -2
288
     1
 68
     0
279
    -2
289
     1
 69
     0
  7
STANDARD
140
6.0
170
     5
 62
     0
 63
     7
283
     0
274
    -2
284
     1
 64
     0
275
    -2
285
     1
 65
     0
276
    -2
286
     1
 66
     0
277
    -2
287
     1
 67
     0
278
    -2
288
     1
 68
     0
279
    -2
289
     1
 69
     0
  7
STANDARD
140
4.5
170
     5
 62
     0
 63
     7
283
     0
274
    -2
284
     1
 64
     0
275
    -2
285
     1
 65
     0
276
    -2
286
     1
 66
     0
277
    -2
287
     1
 67
     0
278
    -2
288
     1
 68
     0
279
    -2
289
     1
 69
     0
  0
DICTIONARYVAR
  5
138
102
{ACAD_REACTORS
330
94
102
}
330
94
100
DictionaryVariables
280
     0
  1
STANDARD
  0
DICTIONARYVAR
  5
96
102
{ACAD_REACTORS
330
94
102
}
330
94
100
DictionaryVariables
280
     0
  1
2
  0
DICTIONARYVAR
  5
95
102
{ACAD_REACTORS
330
94
102
}
330
94
100
DictionaryVariables
280
     0
  1
0
  0
DICTIONARYVAR
  5
2089
102
{ACAD_REACTORS
330
94
102
}
330
94
100
DictionaryVariables
280
     0
  1

  0
DICTIONARY
  5
1B5
102
{ACAD_REACTORS
330
5B
102
}
330
5B
100
AcDbDictionary
281
     1
  0
DICTIONARY
  5
61
102
{ACAD_REACTORS
330
5B
102
}
330
5B
100
AcDbDictionary
281
     1
  0
XRECORD
  5
123
102
{ACAD_REACTORS
330
5B
102
}
330
5B
100
AcDbXrecord
280
     1
 90
-1023410169
  0
DICTIONARY
  5
208F
330
22
100
AcDbDictionary
280
     1
281
     1
  3
ACAD_XREC_ROUNDTRIP
360
2090
  0
DICTIONARY
  5
208D
330
1E
100
AcDbDictionary
280
     1
281
     1
  3
ACAD_XREC_ROUNDTRIP
360
208E
  0
DICTIONARY
  5
2091
330
26
100
AcDbDictionary
280
     1
281
     1
  3
ACAD_XREC_ROUNDTRIP
360
2092
  0
XRECORD
  5
2090
102
{ACAD_REACTORS
330
208F
102
}
330
208F
100
AcDbXrecord
280
     1
102
SHADEPLOT
 70
     0
102
SHADEPLOTRESLEVEL
 70
     2
102
SHADEPLOTCUSTOMDPI
 70
   300
  0
XRECORD
  5
208E
102
{ACAD_REACTORS
330
208D
102
}
330
208D
100
AcDbXrecord
280
     1
102
SHADEPLOT
 70
     0
102
SHADEPLOTRESLEVEL
 70
     2
102
SHADEPLOTCUSTOMDPI
 70
   300
  0
XRECORD
  5
2092
102
{ACAD_REACTORS
330
2091
102
}
330
2091
100
AcDbXrecord
280
     1
102
SHADEPLOT
 70
     0
102
SHADEPLOTRESLEVEL
 70
     2
102
SHADEPLOTCUSTOMDPI
 70
   300
  0
ENDSEC
  0
EOF
