  0
SECTION
  2
HEADER
  9
$ACADVER
  1
AC1015
  9
$ACADMAINTVER
 70
    20
  9
$DWGCODEPAGE
  3
ANSI_950
  9
$INSBASE
 10
0.0
 20
0.0
 30
0.0
  9
$EXTMIN
 10
2018.010292480721
 20
1244.823463086775
 30
-0.0111982676248772
  9
$EXTMAX
 10
2298.192089245276
 20
1629.937066110821
 30
183.4920160405448
  9
$LIMMIN
 10
0.0
 20
0.0
  9
$LIMMAX
 10
420.0
 20
297.0
  9
$ORTHOMODE
 70
     1
  9
$REGENMODE
 70
     1
  9
$FILLMODE
 70
     1
  9
$QTEXTMODE
 70
     0
  9
$MIRRTEXT
 70
     1
  9
$LTSCALE
 40
1.0
  9
$ATTMODE
 70
     1
  9
$TEXTSIZE
 40
3.0
  9
$TRACEWID
 40
1.0
  9
$TEXTSTYLE
  7
CHINESET
  9
$CLAYER
  8
0
  9
$CELTYPE
  6
ByLayer
  9
$CECOLOR
 62
   256
  9
$CELTSCALE
 40
1.0
  9
$DISPSILH
 70
     0
  9
$DIMSCALE
 40
1.0
  9
$DIMASZ
 40
3.0
  9
$DIMEXO
 40
1.0
  9
$DIMDLI
 40
10.0
  9
$DIMRND
 40
0.0
  9
$DIMDLE
 40
0.0
  9
$DIMEXE
 40
1.5
  9
$DIMTP
 40
0.1
  9
$DIMTM
 40
0.1
  9
$DIMTXT
 40
3.0
  9
$DIMCEN
 40
0.0
  9
$DIMTSZ
 40
0.0
  9
$DIMTOL
 70
     0
  9
$DIMLIM
 70
     0
  9
$DIMTIH
 70
     0
  9
$DIMTOH
 70
     0
  9
$DIMSE1
 70
     0
  9
$DIMSE2
 70
     0
  9
$DIMTAD
 70
     1
  9
$DIMZIN
 70
     8
  9
$DIMBLK
  1

  9
$DIMASO
 70
     1
  9
$DIMSHO
 70
     1
  9
$DIMPOST
  1

  9
$DIMAPOST
  1
"
  9
$DIMALT
 70
     0
  9
$DIMALTD
 70
     2
  9
$DIMALTF
 40
0.0393701
  9
$DIMLFAC
 40
1.0
  9
$DIMTOFL
 70
     1
  9
$DIMTVP
 40
0.0
  9
$DIMTIX
 70
     0
  9
$DIMSOXD
 70
     0
  9
$DIMSAH
 70
     0
  9
$DIMBLK1
  1

  9
$DIMBLK2
  1

  9
$DIMSTYLE
  2
AM_ISO
  9
$DIMCLRD
 70
   256
  9
$DIMCLRE
 70
   256
  9
$DIMCLRT
 70
   256
  9
$DIMTFAC
 40
0.71
  9
$DIMGAP
 40
1.0
  9
$DIMJUST
 70
     0
  9
$DIMSD1
 70
     0
  9
$DIMSD2
 70
     0
  9
$DIMTOLJ
 70
     0
  9
$DIMTZIN
 70
     8
  9
$DIMALTZ
 70
     0
  9
$DIMALTTZ
 70
     0
  9
$DIMUPT
 70
     0
  9
$DIMDEC
 70
     2
  9
$DIMTDEC
 70
     8
  9
$DIMALTU
 70
     2
  9
$DIMALTTD
 70
     2
  9
$DIMTXSTY
  7
STANDARD
  9
$DIMAUNIT
 70
     0
  9
$DIMADEC
 70
     0
  9
$DIMALTRND
 40
0.0
  9
$DIMAZIN
 70
     2
  9
$DIMDSEP
 70
    46
  9
$DIMATFIT
 70
     3
  9
$DIMFRAC
 70
     0
  9
$DIMLDRBLK
  1

  9
$DIMLUNIT
 70
     2
  9
$DIMLWD
 70
    -1
  9
$DIMLWE
 70
    -1
  9
$DIMTMOVE
 70
     0
  9
$LUNITS
 70
     2
  9
$LUPREC
 70
     2
  9
$SKETCHINC
 40
1.0
  9
$FILLETRAD
 40
2.5
  9
$AUNITS
 70
     0
  9
$AUPREC
 70
     0
  9
$MENU
  1
.
  9
$ELEVATION
 40
0.0
  9
$PELEVATION
 40
0.0
  9
$THICKNESS
 40
0.0
  9
$LIMCHECK
 70
     0
  9
$CHAMFERA
 40
2.5
  9
$CHAMFERB
 40
2.5
  9
$CHAMFERC
 40
20.0
  9
$CHAMFERD
 40
0.0
  9
$SKPOLY
 70
     0
  9
$TDCREATE
 40
2453808.715631146
  9
$TDUCREATE
 40
2453808.382297812
  9
$TDUPDATE
 40
2453815.445732419
  9
$TDUUPDATE
 40
2453815.112399086
  9
$TDINDWG
 40
0.1827501042
  9
$TDUSRTIMER
 40
0.1827499190
  9
$USRTIMER
 70
     1
  9
$ANGBASE
 50
0.0
  9
$ANGDIR
 70
     0
  9
$PDMODE
 70
     0
  9
$PDSIZE
 40
0.0
  9
$PLINEWID
 40
0.0
  9
$SPLFRAME
 70
     0
  9
$SPLINETYPE
 70
     6
  9
$SPLINESEGS
 70
     8
  9
$HANDSEED
  5
13B2
  9
$SURFTAB1
 70
     6
  9
$SURFTAB2
 70
     6
  9
$SURFTYPE
 70
     6
  9
$SURFU
 70
     6
  9
$SURFV
 70
     6
  9
$UCSBASE
  2

  9
$UCSNAME
  2

  9
$UCSORG
 10
0.0
 20
0.0
 30
0.0
  9
$UCSXDIR
 10
1.0
 20
0.0
 30
0.0
  9
$UCSYDIR
 10
0.0
 20
1.0
 30
0.0
  9
$UCSORTHOREF
  2

  9
$UCSORTHOVIEW
 70
     0
  9
$UCSORGTOP
 10
0.0
 20
0.0
 30
0.0
  9
$UCSORGBOTTOM
 10
0.0
 20
0.0
 30
0.0
  9
$UCSORGLEFT
 10
0.0
 20
0.0
 30
0.0
  9
$UCSORGRIGHT
 10
0.0
 20
0.0
 30
0.0
  9
$UCSORGFRONT
 10
0.0
 20
0.0
 30
0.0
  9
$UCSORGBACK
 10
0.0
 20
0.0
 30
0.0
  9
$PUCSBASE
  2

  9
$PUCSNAME
  2

  9
$PUCSORG
 10
0.0
 20
0.0
 30
0.0
  9
$PUCSXDIR
 10
1.0
 20
0.0
 30
0.0
  9
$PUCSYDIR
 10
0.0
 20
1.0
 30
0.0
  9
$PUCSORTHOREF
  2

  9
$PUCSORTHOVIEW
 70
     0
  9
$PUCSORGTOP
 10
0.0
 20
0.0
 30
0.0
  9
$PUCSORGBOTTOM
 10
0.0
 20
0.0
 30
0.0
  9
$PUCSORGLEFT
 10
0.0
 20
0.0
 30
0.0
  9
$PUCSORGRIGHT
 10
0.0
 20
0.0
 30
0.0
  9
$PUCSORGFRONT
 10
0.0
 20
0.0
 30
0.0
  9
$PUCSORGBACK
 10
0.0
 20
0.0
 30
0.0
  9
$USERI1
 70
     0
  9
$USERI2
 70
     0
  9
$USERI3
 70
     0
  9
$USERI4
 70
     0
  9
$USERI5
 70
     0
  9
$USERR1
 40
0.0
  9
$USERR2
 40
0.0
  9
$USERR3
 40
0.0
  9
$USERR4
 40
0.0
  9
$USERR5
 40
0.0
  9
$WORLDVIEW
 70
     1
  9
$SHADEDGE
 70
     3
  9
$SHADEDIF
 70
    70
  9
$TILEMODE
 70
     1
  9
$MAXACTVP
 70
    64
  9
$PINSBASE
 10
0.0
 20
0.0
 30
0.0
  9
$PLIMCHECK
 70
     0
  9
$PEXTMIN
 10
1.000000000000000E+20
 20
1.000000000000000E+20
 30
1.000000000000000E+20
  9
$PEXTMAX
 10
-1.000000000000000E+20
 20
-1.000000000000000E+20
 30
-1.000000000000000E+20
  9
$PLIMMIN
 10
0.0
 20
0.0
  9
$PLIMMAX
 10
420.0
 20
297.0
  9
$UNITMODE
 70
     0
  9
$VISRETAIN
 70
     1
  9
$PLINEGEN
 70
     0
  9
$PSLTSCALE
 70
     1
  9
$TREEDEPTH
 70
  3020
  9
$CMLSTYLE
  2
Standard
  9
$CMLJUST
 70
     0
  9
$CMLSCALE
 40
20.0
  9
$PROXYGRAPHICS
 70
     1
  9
$MEASUREMENT
 70
     1
  9
$CELWEIGHT
370
    -1
  9
$ENDCAPS
280
     0
  9
$JOINSTYLE
280
     0
  9
$LWDISPLAY
290
     0
  9
$INSUNITS
 70
     4
  9
$HYPERLINKBASE
  1

  9
$STYLESHEET
  1
彩色出圖.ctb
  9
$XEDIT
290
     1
  9
$CEPSNTYPE
380
     0
  9
$PSTYLEMODE
290
     1
  9
$FINGERPRINTGUID
  2
{B71253F3-081C-4ACB-B98A-38E9B687A626}
  9
$VERSIONGUID
  2
{0517EF6C-3678-4CEA-87FF-135BCA72D1E5}
  9
$EXTNAMES
290
     1
  9
$PSVPSCALE
 40
0.0
  9
$OLESTARTUP
290
     0
  0
ENDSEC
  0
SECTION
  2
CLASSES
  0
CLASS
  1
ACDBDICTIONARYWDFLT
  2
AcDbDictionaryWithDefault
  3
ObjectDBX Classes
 90
        0
280
     0
281
     0
  0
CLASS
  1
ACDBPLACEHOLDER
  2
AcDbPlaceHolder
  3
ObjectDBX Classes
 90
        0
280
     0
281
     0
  0
CLASS
  1
LAYOUT
  2
AcDbLayout
  3
ObjectDBX Classes
 90
        0
280
     0
281
     0
  0
CLASS
  1
ACME_DOCUMENT
  2
AcMeDbDoc
  3
AcMeServices
 90
        0
280
     0
281
     0
  0
CLASS
  1
AMGSETTINGSOBJ
  2
AmgSettingsObj
  3
"AcadM|Product Description: AutoCAD Mechanical 2000|Company: Autodesk"
 90
        0
280
     0
281
     0
  0
CLASS
  1
ACMESCOPE
  2
AcMeScope
  3
AcMeServices
 90
        0
280
     0
281
     0
  0
CLASS
  1
ACMECOMMANDHISTORY
  2
AcMeCommandHistory
  3
AcMeServices
 90
        0
280
     0
281
     0
  0
CLASS
  1
ACIMSYSVARMAN
  2
AcImSysVarManager
  3
AcMeServices
 90
        0
280
     0
281
     0
  0
CLASS
  1
ACIMREALSYSVAR
  2
AcImRealSysVar
  3
AcMeServices
 90
        0
280
     0
281
     0
  0
CLASS
  1
ACIMINTSYSVAR
  2
AcImIntSysVar
  3
AcMeServices
 90
        0
280
     0
281
     0
  0
CLASS
  1
ACMEDRAWINGMAN
  2
AcMeDrawingMan
  3
AcMeServices
 90
        0
280
     0
281
     0
  0
CLASS
  1
ACMEVIEW
  2
AcMeView
  3
AcMeServices
 90
        0
280
     0
281
     0
  0
CLASS
  1
ACDBENTITYCACHE
  2
AcMeEntityCache
  3
AcMeServices
 90
        0
280
     0
281
     0
  0
CLASS
  1
GSMANAGER
  2
AcMeGSManager
  3
AcMeServices
 90
        0
280
     0
281
     0
  0
CLASS
  1
AMDTINTERNALREACTOR
  2
AmdtInternalReactor
  3
AcMeServices
 90
        0
280
     0
281
     0
  0
CLASS
  1
ACMESTATEMGR
  2
AcMeStateMgr
  3
AcMeServices
 90
        0
280
     0
281
     0
  0
CLASS
  1
ACGREFMASTER
  2
AcGrefMaster
  3
AcAttribServices
 90
        0
280
     0
281
     0
  0
CLASS
  1
ACME_DATABASE
  2
AcMeDbDatabase
  3
AcMeServices
 90
        0
280
     0
281
     0
  0
CLASS
  1
ACRFINSADJUSTERMGR
  2
AcRfInsAdjusterMgr
  3
AcMeServices
 90
        0
280
     0
281
     0
  0
CLASS
  1
ACGREFACADMASTER
  2
AcGrefacadMaster
  3
AcGrefServices
 90
        0
280
     0
281
     0
  0
CLASS
  1
AMIMASTER
  2
AmiMaster
  3
AmiServices
 90
        0
280
     0
281
     0
  0
CLASS
  1
ACMDATADICTIONARY
  2
AcmDataDictionary
  3
"AcmSymBB|Product Description: AutoCAD Mechanical 2004 DX|Company: Autodesk"
 90
        0
280
     0
281
     0
  0
CLASS
  1
ACMDATAENTRYBLOCK
  2
AcmDataEntryBlock
  3
"AcmSymBB|Product Description: AutoCAD Mechanical 2004 DX|Company: Autodesk"
 90
        0
280
     0
281
     0
  0
CLASS
  1
ACIMSTRSYSVAR
  2
AcImStrSysVar
  3
AcMeServices
 90
        0
280
     0
281
     0
  0
CLASS
  1
ACMSTANDARDISO
  2
AcmStandardISO
  3
"Amdt_StdImp|Product Description: AutoCAD Mechanical 2004 DX|Company: Autodesk"
 90
        0
280
     0
281
     0
  0
CLASS
  1
AMGOBJPROPCFG
  2
AmgObjPropCfg
  3
"AmgLay|Product Description: AutoCAD Mechanical 2000|Company: Autodesk"
 90
        1
280
     0
281
     0
  0
CLASS
  1
AMDTEDGESTANDARDISO
  2
AmdtEdgeStdISO
  3
"Amdt_StdImp|Product Description: AutoCAD Mechanical 2004 DX|Company: Autodesk"
 90
        0
280
     0
281
     0
  0
CLASS
  1
ACMSURFSTANDARDISO
  2
AcmSurfTextStdISO
  3
"Amdt_StdImp|Product Description: AutoCAD Mechanical 2004 DX|Company: Autodesk"
 90
        0
280
     0
281
     0
  0
CLASS
  1
ACMFCFSTANDARDISO
  2
AcmFCFStdISO
  3
"Amdt_StdImp|Product Description: AutoCAD Mechanical 2004 DX|Company: Autodesk"
 90
        0
280
     0
281
     0
  0
CLASS
  1
ACMWELDSTANDARDISO
  2
AcmWeldingStdISO
  3
"Amdt_StdImp|Product Description: AutoCAD Mechanical 2004 DX|Company: Autodesk"
 90
        0
280
     0
281
     0
  0
CLASS
  1
ACMIDSTANDARDISO
  2
AcmIdStdISO
  3
"Amdt_StdImp|Product Description: AutoCAD Mechanical 2004 DX|Company: Autodesk"
 90
        0
280
     0
281
     0
  0
CLASS
  1
ACMDATUMSTANDARDISO
  2
AcmDatumStdISO
  3
"Amdt_StdImp|Product Description: AutoCAD Mechanical 2004 DX|Company: Autodesk"
 90
        0
280
     0
281
     0
  0
CLASS
  1
ACMBOMSTANDARDISO
  2
AcmBOMStdISO
  3
"Amdt_StdImp|Product Description: AutoCAD Mechanical 2004 DX|Company: Autodesk"
 90
        0
280
     0
281
     0
  0
CLASS
  1
ACMDETAILSTANDARDISO
  2
AmdtDetailSymStdISO
  3
"Amdt_StdImp|Product Description: AutoCAD Mechanical 2004 DX|Company: Autodesk"
 90
        0
280
     0
281
     0
  0
CLASS
  1
ACMSECTIONSTANDARDISO
  2
AmdtSectionSymStdISO
  3
"Amdt_StdImp|Product Description: AutoCAD Mechanical 2004 DX|Company: Autodesk"
 90
        0
280
     0
281
     0
  0
CLASS
  1
ACMCENTERLINESTANDARDISO
  2
AmdtCenterLineStdISO
  3
"Amdt_StdImp|Product Description: AutoCAD Mechanical 2004 DX|Company: Autodesk"
 90
        0
280
     0
281
     0
  0
CLASS
  1
ACMNOTESTANDARDISO
  2
AmdtNoteStdISO
  3
"Amdt_StdImp|Product Description: AutoCAD Mechanical 2004 DX|Company: Autodesk"
 90
        0
280
     0
281
     0
  0
CLASS
  1
ACAMGLAYSTD
  2
AcAmgLayStd
  3
"AcAmgLayStd|Product Description: AutoCAD Mechanical 2000|Company: Autodesk"
 90
        0
280
     0
281
     0
  0
CLASS
  1
ACAMGDIMSTD
  2
AcAmgDimStd
  3
"AcAmgDimStd|Product Description: AutoCAD Mechanical 2000|Company: Autodesk"
 90
        0
280
     0
281
     0
  0
CLASS
  1
ACAMGHOLECHARTSTDISO
  2
AcAmgHoleChartStdISO
  3
ACMSYMBB_MODULE_NAME
 90
        0
280
     0
281
     0
  0
CLASS
  1
ACAMGTITLESTD
  2
AcAmgTitleStd
  3
"TITLEAPP"
 90
        0
280
     0
281
     0
  0
CLASS
  1
LAYER_INDEX
  2
AcDbLayerIndex
  3
ObjectDBX Classes
 90
    32768
280
     0
281
     0
  0
CLASS
  1
IDBUFFER
  2
AcDbIdBuffer
  3
ObjectDBX Classes
 90
    32768
280
     0
281
     0
  0
CLASS
  1
DICTIONARYVAR
  2
AcDbDictionaryVar
  3
ObjectDBX Classes
 90
        0
280
     0
281
     0
  0
CLASS
  1
AM_DRAWING_MGR
  2
AcDmDwgMgr
  3
AcMechDwgViewMgmt
 90
        0
280
     0
281
     0
  0
CLASS
  1
AM_DWG_DOCUMENT
  2
AcDmDwgDocument
  3
AcMechDwgViewMgmt
 90
        0
280
     0
281
     0
  0
CLASS
  1
AM_DWG_SHEET
  2
AcDmSheet
  3
AcMechDwgViewMgmt
 90
        0
280
     0
281
     0
  0
CLASS
  1
AM_VIEWDIMPARMAP
  2
AcDmViewDimParMap
  3
AcMechDwgViewMgmt
 90
        0
280
     0
281
     0
  0
CLASS
  1
AM_DWGMGR_NAME
  2
AcDmDwgMgrName
  3
AcMechDwgViewMgmt
 90
        0
280
     0
281
     0
  0
CLASS
  1
AMDTMENUSTATEMGR
  2
AmdtMenuStateMgr
  3
McadcomServices
 90
        0
280
     0
281
     0
  0
CLASS
  1
AMDTMCOMMENUSTATE
  2
AmdtMcomMenuState
  3
McadcomServices
 90
        0
280
     0
281
     0
  0
CLASS
  1
MAPIAMMOUDLE
  2
MApiAmModule
  3
MApiAmServices
 90
        0
280
     0
281
     0
  0
CLASS
  1
AMDTADMENUSTATE
  2
AmdtAdMenuState
  3
DesignerServices
 90
        0
280
     0
281
     0
  0
CLASS
  1
ADAPPL
  2
AcAdAppl
  3
DesignerServices
 90
        0
280
     0
281
     0
  0
CLASS
  1
DEPMGR
  2
AcAdDepMgr
  3
DesignerServices
 90
        0
280
     0
281
     0
  0
CLASS
  1
PARAMMGR
  2
AcAdParamMgr
  3
DesignerServices
 90
        0
280
     0
281
     0
  0
CLASS
  1
PARAMSCOPE
  2
AcAdParamScope
  3
DesignerServices
 90
        0
280
     0
281
     0
  0
CLASS
  1
NAMEDAPPL
  2
AcAdNamedAppl
  3
DesignerServices
 90
        0
280
     0
281
     0
  0
CLASS
  1
AMDTDMMENUSTATE
  2
AmdtDmMenuState
  3
AcMechDwgViewMgmt
 90
        0
280
     0
281
     0
  0
CLASS
  1
AMDTAMMENUSTATE
  2
AmdtAmMenuState
  3
DesignerAssemblies
 90
        0
280
     0
281
     0
  0
CLASS
  1
ACAMPROJECT
  2
AcAmProject
  3
DesignerAssemblies
 90
        0
280
     0
281
     0
  0
CLASS
  1
ACAMGRCOMPDEF
  2
AcAmGrCompDef
  3
DesignerAssemblies
 90
        0
280
     0
281
     0
  0
CLASS
  1
ACCMCONTEXT
  2
AcCmContext
  3
DesignerAssemblies
 90
        0
280
     0
281
     0
  0
CLASS
  1
ACAMCOMPDEF
  2
AcAmCompDef
  3
DesignerAssemblies
 90
        0
280
     0
281
     0
  0
CLASS
  1
ACAMCOMPDEFMGR
  2
AcAmCompDefMgr
  3
DesignerAssemblies
 90
        0
280
     0
281
     0
  0
CLASS
  1
AMCONTEXTMGR
  2
AcAmContextMgr
  3
DesignerAssemblies
 90
        0
280
     0
281
     0
  0
CLASS
  1
ACAMCONTEXTMODELER
  2
AcAmContextModeler
  3
DesignerAssemblies
 90
        0
280
     0
281
     0
  0
CLASS
  1
ACMTHREADLINESTANDARDISO
  2
AmdtThreadLineStdISO
  3
"Amdt_StdImp|Product Description: AutoCAD Mechanical 2004 DX|Company: Autodesk"
 90
        0
280
     0
281
     0
  0
CLASS
  1
CATALOGSTATE
  2
AcAmCatalogState
  3
DesignerAssemblies
 90
        0
280
     0
281
     0
  0
CLASS
  1
ACAMGRCOMPDEFSET
  2
AcAmGrCompDefSet
  3
DesignerAssemblies
 90
        0
280
     0
281
     0
  0
CLASS
  1
AMDTBROWSERDBTAB
  2
AmdtBrowserDbTab
  3
McadcomServices
 90
        0
280
     0
281
     0
  0
CLASS
  1
CBROWSERAPPOBJECT
  2
CBrowserAppObject
  3
McadcomServices
 90
        0
280
     0
281
     0
  0
CLASS
  1
DM_PLACEHOLDER
  2
AcDmSelsetPlaceholder
  3
AcMechDwgViewMgmt
 90
        0
280
     0
281
     0
  0
CLASS
  1
TABLESTYLE
  2
AcDbTableStyle
  3
ObjectDBX Classes
 90
     2047
280
     0
281
     0
  0
CLASS
  1
VAACXREFPANELOBJECT
  2
VaAcXREFPanelObject
  3
VAAC_ADDIN
 90
    32768
280
     0
281
     0
  0
CLASS
  1
VAACIMAGEINVENTORY
  2
VaAcImageInventory
  3
VAAC_ADDIN
 90
    32768
280
     0
281
     0
  0
CLASS
  1
AMDTNOTETEMPLATEDB
  2
AmdtNoteTemplateDB
  3
AMDT_STDIMP_MODULE_NAME
 90
        0
280
     0
281
     0
  0
CLASS
  1
ACMBOM
  2
AcmBom
  3
"AcmSymBB|Product Description: AutoCAD Mechanical 2004 DX|Company: Autodesk"
 90
    32768
280
     0
281
     0
  0
CLASS
  1
AMDTFORMULAUPDATEDISPATCHER
  2
AmdtFormulaUpdateDispatcher
  3
AcMeServices
 90
        0
280
     0
281
     0
  0
CLASS
  1
ACMPARTLIST
  2
AcmPartList
  3
"AcmSymBB|Product Description: AutoCAD Mechanical 2004 DX|Company: Autodesk"
 90
    33791
280
     0
281
     1
  0
CLASS
  1
ACAMGFILTERDAT
  2
AcAmgFilterDat
  3
"AcadM|Product Description: AutoCAD Mechanical 2000|Company: Autodesk"
 90
        0
280
     0
281
     0
  0
CLASS
  1
DIMASSOC
  2
AcDbDimAssoc
  3
"AcDbDimAssoc|Product Desc:     AcDim ARX App For Dimension|Company:          Autodesk, Inc.|WEB Address:      www.autodesk.com"
 90
        0
280
     0
281
     0
  0
CLASS
  1
SORTENTSTABLE
  2
AcDbSortentsTable
  3
ObjectDBX Classes
 90
        0
280
     0
281
     0
  0
CLASS
  1
STDPART2D
  2
AmgStdPart
  3
"AmgStdPart|Product Description: AutoCAD Mechanical 2000|Company: Autodesk"
 90
    33791
280
     0
281
     1
  0
CLASS
  1
ACAMSTDPCOMPDEF
  2
AcAmStdpCompDef
  3
DesignerAssemblies
 90
    32768
280
     0
281
     0
  0
CLASS
  1
ACRFATTGENMGR
  2
AcRfAttGeneralMgr
  3
AcAttribServices
 90
        0
280
     0
281
     0
  0
CLASS
  1
ACRFOBJATTMGR
  2
AcRfObjAttGroupMgr
  3
AcAttribServices
 90
    32768
280
     0
281
     0
  0
CLASS
  1
ACRFMCADAPIATTHOLDER
  2
AcRfMCADAPIAttHolder
  3
AcAttribServices
 90
    32768
280
     0
281
     0
  0
CLASS
  1
AMDTSYSATTR
  2
AmdtSystemAttribute
  3
AcAttribServices
 90
    32768
280
     0
281
     0
  0
CLASS
  1
ACAMCOMP
  2
AcAmComp
  3
DesignerAssemblies
 90
    32768
280
     0
281
     0
  0
CLASS
  1
AC_AM_STDP_VIEW_DEF
  2
AcAmStdpViewDef
  3
DesignerAssemblies
 90
    32768
280
     0
281
     0
  0
CLASS
  1
AC_AM_MVD_DEP_MGR
  2
AcAmMVDdepMgr
  3
DesignerAssemblies
 90
        0
280
     0
281
     0
  0
CLASS
  1
AC_AM_MASTER_VIEW_DEF
  2
AcAmMasterViewDef
  3
DesignerAssemblies
 90
        0
280
     0
281
     0
  0
CLASS
  1
AC_AM_DIRTY_NODES
  2
AcAmDirtyNodes
  3
DesignerAssemblies
 90
        0
280
     0
281
     0
  0
CLASS
  1
AC_AM_MAPPER_CACHE
  2
AcAmMapperCache
  3
DesignerAssemblies
 90
        0
280
     0
281
     0
  0
CLASS
  1
ACAMMVDBACKUPOBJECT
  2
AcAmMVDBackupObject
  3
DesignerAssemblies
 90
        0
280
     0
281
     0
  0
CLASS
  1
AC_AM_COMP_VIEW_INST
  2
AcAmCompView
  3
DesignerAssemblies
 90
    32768
280
     0
281
     0
  0
CLASS
  1
AC_AM_2D_XREF_MGR
  2
AcAmXrefMgr2d
  3
DesignerAssemblies
 90
        0
280
     0
281
     0
  0
CLASS
  1
AMDTNOTE
  2
AmdtNote
  3
"AcmSymBB|Product Description: AutoCAD Mechanical 2004 DX|Company: Autodesk"
 90
     1023
280
     0
281
     1
  0
ENDSEC
  0
SECTION
  2
TABLES
  0
TABLE
  2
VPORT
  5
8
330
0
100
AcDbSymbolTable
 70
     3
  0
VPORT
  5
13A9
330
8
100
AcDbSymbolTableRecord
100
AcDbViewportTableRecord
  2
*Active
 70
     0
 10
0.0
 20
0.0
 11
1.0
 21
1.0
 12
2158.03532782664
 22
1437.336397226393
 13
0.0
 23
0.0
 14
2.5
 24
2.5
 15
10.0
 25
10.0
 16
0.0
 26
0.0
 36
1.0
 17
0.0
 27
0.0
 37
0.0
 40
389.6297696542917
 41
1.81766917293233
 42
50.0
 43
0.0
 44
0.0
 50
0.0
 51
0.0
 71
     0
 72
   100
 73
     1
 74
     3
 75
     0
 76
     0
 77
     0
 78
     0
281
     0
 65
     1
110
0.0
120
0.0
130
0.0
111
1.0
121
0.0
131
0.0
112
0.0
122
1.0
132
0.0
 79
     0
146
0.0
  0
ENDTAB
  0
TABLE
  2
LTYPE
  5
5
330
0
100
AcDbSymbolTable
 70
    14
  0
LTYPE
  5
14
330
5
100
AcDbSymbolTableRecord
100
AcDbLinetypeTableRecord
  2
ByBlock
 70
     0
  3

 72
    65
 73
     0
 40
0.0
  0
LTYPE
  5
15
330
5
100
AcDbSymbolTableRecord
100
AcDbLinetypeTableRecord
  2
ByLayer
 70
     0
  3

 72
    65
 73
     0
 40
0.0
  0
LTYPE
  5
16
330
5
100
AcDbSymbolTableRecord
100
AcDbLinetypeTableRecord
  2
Continuous
 70
     0
  3
Solid line
 72
    65
 73
     0
 40
0.0
  0
LTYPE
  5
64
330
5
100
AcDbSymbolTableRecord
100
AcDbLinetypeTableRecord
  2
AM_ISO02W050
 70
     0
  3
__ __ __ __ __ __ __ __ __ __ __ __ __ __ __
 72
    65
 73
     2
 40
7.5
 49
6.0
 74
     0
 49
-1.5
 74
     0
  0
LTYPE
  5
65
330
5
100
AcDbSymbolTableRecord
100
AcDbLinetypeTableRecord
  2
AM_ISO08W050
 70
     0
  3
____ . ____ . ____ . ____ . ____ . ____ . ____
 72
    65
 73
     4
 40
18.0
 49
12.0
 74
     0
 49
-1.5
 74
     0
 49
3.0
 74
     0
 49
-1.5
 74
     0
  0
LTYPE
  5
66
330
5
100
AcDbSymbolTableRecord
100
AcDbLinetypeTableRecord
  2
AM_ISO09W050
 70
     0
  3
_____ . . _____ . . _____ . . ____ .. ____
 72
    65
 73
     6
 40
22.5
 49
12.0
 74
     0
 49
-1.5
 74
     0
 49
3.0
 74
     0
 49
-1.5
 74
     0
 49
3.0
 74
     0
 49
-1.5
 74
     0
  0
LTYPE
  5
67
330
5
100
AcDbSymbolTableRecord
100
AcDbLinetypeTableRecord
  2
Amconstr
 70
     0
  3
_______________________
 72
    65
 73
     2
 40
9999.0
 49
9999.0
 74
     0
 49
0.0
 74
     0
  0
LTYPE
  5
68
330
5
100
AcDbSymbolTableRecord
100
AcDbLinetypeTableRecord
  2
AM_ISO08W050x2
 70
     0
  3
__ . __ . __ . __ . __ . __
 72
    65
 73
     4
 40
9.0
 49
6.0
 74
     0
 49
-0.75
 74
     0
 49
1.5
 74
     0
 49
-0.75
 74
     0
  0
LTYPE
  5
69
330
5
100
AcDbSymbolTableRecord
100
AcDbLinetypeTableRecord
  2
AM_ISO02W050x2
 70
     0
  3
 _ _ _ _ _ _ _ _ _ _ _ _
 72
    65
 73
     2
 40
3.75
 49
3.0
 74
     0
 49
-0.75
 74
     0
  0
LTYPE
  5
6C
330
5
100
AcDbSymbolTableRecord
100
AcDbLinetypeTableRecord
  2
Amzigzag
 70
     0
  3
/\/-/\/-/\/-/\/-/\/-/\/
 72
    65
 73
     2
 40
11.0001
 49
0.0001
 74
     4
 75
   135
340
6B
 46
0.04
 50
0.0
 44
0.0
 45
0.0
 49
-11.0
 74
     0
  0
LTYPE
  5
7A
330
5
100
AcDbSymbolTableRecord
100
AcDbLinetypeTableRecord
  2
ACISOWELD
 70
     0
  3
_ _ _ _ _
 72
    65
 73
     2
 40
2.0
 49
2.0
 74
     0
 49
-1.0
 74
     0
  0
LTYPE
  5
7B
330
5
100
AcDbSymbolTableRecord
100
AcDbLinetypeTableRecord
  2
ACISOTGB
 70
     0
  3
__ . . __ . .
 72
    65
 73
     6
 40
9.0
 49
4.0
 74
     0
 49
-1.0
 74
     0
 49
1.0
 74
     0
 49
-1.0
 74
     0
 49
1.0
 74
     0
 49
-1.0
 74
     0
  0
LTYPE
  5
7C
330
5
100
AcDbSymbolTableRecord
100
AcDbLinetypeTableRecord
  2
ACISOTGL
 70
     0
  3
_ _ _ _ _
 72
    65
 73
     2
 40
3.0
 49
2.0
 74
     0
 49
-1.0
 74
     0
  0
LTYPE
  5
7E
330
5
100
AcDbSymbolTableRecord
100
AcDbLinetypeTableRecord
  2
CENTER
 70
     0
  3
__ . __
 72
    65
 73
     4
 40
7.0
 49
4.0
 74
     0
 49
-1.0
 74
     0
 49
1.0
 74
     0
 49
-1.0
 74
     0
  0
LTYPE
  5
D8
330
5
100
AcDbSymbolTableRecord
100
AcDbLinetypeTableRecord
  2
HIDDEN
 70
     0
  3
Hidden __ __ __ __ __ __ __ __ __ __ __ __ __ _
 72
    65
 73
     2
 40
9.524999999999998
 49
6.349999999999999
 74
     0
 49
-3.174999999999999
 74
     0
  0
LTYPE
  5
D9
330
5
100
AcDbSymbolTableRecord
100
AcDbLinetypeTableRecord
  2
PHANTOM2
 70
     0
  3
Phantom (.5x) ___ _ _ ___ _ _ ___ _ _ ___ _ _
 72
    65
 73
     6
 40
31.75
 49
15.875
 74
     0
 49
-3.174999999999999
 74
     0
 49
3.174999999999999
 74
     0
 49
-3.174999999999999
 74
     0
 49
3.174999999999999
 74
     0
 49
-3.174999999999999
 74
     0
  0
ENDTAB
  0
TABLE
  2
LAYER
  5
2
102
{ACAD_XDICTIONARY
360
3F9
102
}
330
0
100
AcDbSymbolTable
 70
     8
  0
LAYER
  5
10
330
2
100
AcDbSymbolTableRecord
100
AcDbLayerTableRecord
  2
0
 70
     0
 62
     7
  6
Continuous
370
    -3
390
F
  0
LAYER
  5
206
330
2
100
AcDbSymbolTableRecord
100
AcDbLayerTableRecord
  2
Defpoints
 70
     0
 62
     7
  6
Continuous
290
     0
370
    -3
390
F
  0
LAYER
  5
5AE
330
2
100
AcDbSymbolTableRecord
100
AcDbLayerTableRecord
  2
AM_7
 70
     0
 62
     1
  6
CENTER
370
    25
390
F
  0
LAYER
  5
75D
330
2
100
AcDbSymbolTableRecord
100
AcDbLayerTableRecord
  2
AM_VIS
 70
     0
 62
     7
  6
Continuous
370
    50
390
F
  0
LAYER
  5
75E
330
2
100
AcDbSymbolTableRecord
100
AcDbLayerTableRecord
  2
AM_4
 70
     0
 62
     3
  6
Continuous
370
    25
390
F
  0
LAYER
  5
75F
330
2
100
AcDbSymbolTableRecord
100
AcDbLayerTableRecord
  2
AM_0
 70
     0
 62
     7
  6
Continuous
370
    50
390
F
  0
LAYER
  5
AE8
330
2
100
AcDbSymbolTableRecord
100
AcDbLayerTableRecord
  2
AM_5
 70
     0
 62
     5
  6
Continuous
370
    50
390
F
  0
LAYER
  5
1089
330
2
100
AcDbSymbolTableRecord
100
AcDbLayerTableRecord
  2
LOGO
 70
     0
 62
     7
  6
Continuous
370
    -3
390
F
  0
ENDTAB
  0
TABLE
  2
STYLE
  5
3
330
0
100
AcDbSymbolTable
 70
     6
  0
STYLE
  5
11
330
3
100
AcDbSymbolTableRecord
100
AcDbTextStyleTableRecord
  2
STANDARD
 70
     0
 40
0.0
 41
1.0
 50
0.0
 71
     0
 42
3.0
  3
ISOCP.SHX
  4
CHINESET.SHX
  0
STYLE
  5
6B
330
3
100
AcDbSymbolTableRecord
100
AcDbTextStyleTableRecord
  2

 70
     1
 40
0.0
 41
1.0
 50
0.0
 71
     0
 42
2.5
  3
ltypeshp.shx
  4

  0
STYLE
  5
6D
330
3
100
AcDbSymbolTableRecord
100
AcDbTextStyleTableRecord
  2
ACISOTS
 70
     0
 40
1.0
 41
1.0
 50
0.0
 71
     0
 42
1.0
  3
isocp.shx
  4
chineset.shx
  0
STYLE
  5
79
330
3
100
AcDbSymbolTableRecord
100
AcDbTextStyleTableRecord
  2
ACISOGDT
 70
     0
 40
0.0
 41
1.0
 50
0.0
 71
     0
 42
2.5
  3
amgdt.shx
  4
chineset.shx
  0
STYLE
  5
60C
330
3
100
AcDbSymbolTableRecord
100
AcDbTextStyleTableRecord
  2
CHINESET
 70
     0
 40
0.0
 41
1.0
 50
0.0
 71
     0
 42
3.0
  3
simplex.shx
  4
CHINESET.SHX
  0
ENDTAB
  0
TABLE
  2
VIEW
  5
6
330
0
100
AcDbSymbolTable
 70
     0
  0
ENDTAB
  0
TABLE
  2
UCS
  5
7
330
0
100
AcDbSymbolTable
 70
     0
  0
ENDTAB
  0
TABLE
  2
APPID
  5
9
330
0
100
AcDbSymbolTable
 70
    27
  0
APPID
  5
12
330
9
100
AcDbSymbolTableRecord
100
AcDbRegAppTableRecord
  2
ACAD
 70
     0
  0
APPID
  5
46
330
9
100
AcDbSymbolTableRecord
100
AcDbRegAppTableRecord
  2
MCAD_NO_VIS
 70
     0
  0
APPID
  5
47
330
9
100
AcDbSymbolTableRecord
100
AcDbRegAppTableRecord
  2
ACAD_TEMP_GRAPHIC
 70
     0
  0
APPID
  5
58
330
9
100
AcDbSymbolTableRecord
100
AcDbRegAppTableRecord
  2
ACATTRIBSERVICES
 70
     0
  0
APPID
  5
EE
330
9
100
AcDbSymbolTableRecord
100
AcDbRegAppTableRecord
  2
AD_DRAW
 70
     0
  0
APPID
  5
10C
330
9
100
AcDbSymbolTableRecord
100
AcDbRegAppTableRecord
  2
DESIGNERASSEMBLIES
 70
     0
  0
APPID
  5
111
330
9
100
AcDbSymbolTableRecord
100
AcDbRegAppTableRecord
  2
ACADM_DIM_EDIT
 70
     0
  0
APPID
  5
112
330
9
100
AcDbSymbolTableRecord
100
AcDbRegAppTableRecord
  2
AMDT_DM_ADJ
 70
     0
  0
APPID
  5
22C
330
9
100
AcDbSymbolTableRecord
100
AcDbRegAppTableRecord
  2
ACAD_DSTYLE_DIMTEXT_FILL
 70
     0
  0
APPID
  5
452
330
9
100
AcDbSymbolTableRecord
100
AcDbRegAppTableRecord
  2
GENIUS_GENOENT_13
 70
     0
  0
APPID
  5
453
330
9
100
AcDbSymbolTableRecord
100
AcDbRegAppTableRecord
  2
GENIUS_GENOBJ-N-CRS_13
 70
     0
  0
APPID
  5
454
330
9
100
AcDbSymbolTableRecord
100
AcDbRegAppTableRecord
  2
GENIUS_GENOLIS_13
 70
     0
  0
APPID
  5
455
330
9
100
AcDbSymbolTableRecord
100
AcDbRegAppTableRecord
  2
GENIUS_GENODEF_13
 70
     0
  0
APPID
  5
456
330
9
100
AcDbSymbolTableRecord
100
AcDbRegAppTableRecord
  2
GENIUS_GENOREF_13
 70
     0
  0
APPID
  5
6F3
330
9
100
AcDbSymbolTableRecord
100
AcDbRegAppTableRecord
  2
ACAD_PSEXT
 70
     0
  0
APPID
  5
AC6
330
9
100
AcDbSymbolTableRecord
100
AcDbRegAppTableRecord
  2
GENIUS_GENOBJ-N-CEN_13
 70
     0
  0
APPID
  5
AC7
330
9
100
AcDbSymbolTableRecord
100
AcDbRegAppTableRecord
  2
GENIUS_GENCEN_19
 70
     0
  0
APPID
  5
B10
330
9
100
AcDbSymbolTableRecord
100
AcDbRegAppTableRecord
  2
GEVID1142240970
 70
     0
  0
APPID
  5
B11
330
9
100
AcDbSymbolTableRecord
100
AcDbRegAppTableRecord
  2
GEVDC
 70
     0
  0
APPID
  5
B12
330
9
100
AcDbSymbolTableRecord
100
AcDbRegAppTableRecord
  2
GEVRADREF
 70
     0
  0
APPID
  5
B1B
330
9
100
AcDbSymbolTableRecord
100
AcDbRegAppTableRecord
  2
AMG_2DHIDE
 70
     0
  0
APPID
  5
B1C
330
9
100
AcDbSymbolTableRecord
100
AcDbRegAppTableRecord
  2
AMG_2DSTRUCT_BTR
 70
     0
  0
APPID
  5
B2D
330
9
100
AcDbSymbolTableRecord
100
AcDbRegAppTableRecord
  2
ACADM_2DVIEW_IGN_NOTIFY
 70
     0
  0
APPID
  5
CB8
330
9
100
AcDbSymbolTableRecord
100
AcDbRegAppTableRecord
  2
GEVID1142294914
 70
     0
  0
APPID
  5
CF1
330
9
100
AcDbSymbolTableRecord
100
AcDbRegAppTableRecord
  2
GEVID1142294915
 70
     0
  0
APPID
  5
108A
330
9
100
AcDbSymbolTableRecord
100
AcDbRegAppTableRecord
  2
GENIUS_GENREC_14
 70
     0
  0
APPID
  5
108B
330
9
100
AcDbSymbolTableRecord
100
AcDbRegAppTableRecord
  2
GENIUS_GENOBJ-N-REC_13
 70
     0
  0
ENDTAB
  0
TABLE
  2
DIMSTYLE
  5
A
330
0
100
AcDbSymbolTable
 70
     9
100
AcDbDimStyleTable
 71
     3
340
81
340
8B
340
86
  0
DIMSTYLE
105
81
330
A
100
AcDbSymbolTableRecord
100
AcDbDimStyleTableRecord
  2
AM_ISO
 70
     0
  4
"
 41
3.0
 42
1.0
 43
10.0
 44
1.5
 47
0.1
 48
0.1
 73
     0
 74
     0
 77
     1
 78
     8
 79
     2
140
3.0
141
0.0
143
0.0393701
146
0.71
147
1.0
172
     1
176
   256
177
   256
178
   256
271
     2
272
     2
283
     0
284
     8
340
11
371
    -1
372
    -1
  0
DIMSTYLE
105
82
330
A
100
AcDbSymbolTableRecord
100
AcDbDimStyleTableRecord
  2
AM_ISO$3
 70
     0
  4
"
 41
3.0
 42
1.0
 43
10.0
 44
1.5
 47
0.1
 48
0.1
 73
     0
 77
     1
 78
     8
 79
     2
140
3.0
141
0.0
143
0.0393701
146
0.71
147
1.0
176
   256
177
   256
178
   256
271
     2
272
     2
283
     0
284
     8
288
     1
289
     0
340
11
371
    -1
372
    -1
  0
DIMSTYLE
105
83
330
A
100
AcDbSymbolTableRecord
100
AcDbDimStyleTableRecord
  2
AM_ISO$4
 70
     0
  4
"
 41
3.0
 42
1.0
 43
10.0
 44
1.5
 47
0.1
 48
0.1
 73
     0
 77
     1
 78
     8
 79
     2
140
3.0
141
0.0
143
0.0393701
146
0.71
147
1.0
176
   256
177
   256
178
   256
271
     2
272
     2
283
     0
284
     8
288
     1
289
     0
340
11
371
    -1
372
    -1
  0
DIMSTYLE
105
84
330
A
100
AcDbSymbolTableRecord
100
AcDbDimStyleTableRecord
  2
AM_ISO$6
 70
     0
  4
"
 41
3.0
 42
1.0
 43
10.0
 44
1.5
 47
0.1
 48
0.1
 73
     0
 74
     0
 78
     8
 79
     2
140
3.0
141
0.0
143
0.0393701
146
0.71
147
1.0
172
     1
176
   256
177
   256
178
   256
271
     2
272
     2
283
     0
284
     8
340
11
371
    -1
372
    -1
  0
DIMSTYLE
105
85
330
A
100
AcDbSymbolTableRecord
100
AcDbDimStyleTableRecord
  2
AM_ISO$7
 70
     0
  4
"
 41
3.0
 42
1.0
 43
10.0
 44
1.5
 47
0.1
 48
0.1
 73
     0
 74
     0
 77
     1
 78
     8
 79
     2
140
5.0
141
0.0
143
0.0393701
146
0.71
147
1.0
172
     1
176
   256
177
   256
178
   256
271
     2
272
     2
283
     0
284
     8
340
11
371
    -1
372
    -1
  0
DIMSTYLE
105
86
330
A
100
AcDbSymbolTableRecord
100
AcDbDimStyleTableRecord
  2
AM_ISO$SF
 70
     0
  4
"
 41
2.5
 42
1.0
 43
10.0
 44
1.0
 47
0.1
 48
0.1
 73
     0
 74
     0
 75
     1
 76
     1
 77
     1
 78
     8
 79
     2
140
3.5
141
0.0
143
0.0393701
146
0.71
147
1.5
172
     1
176
   256
177
   256
178
     2
271
     2
272
     3
274
     4
283
     0
284
     8
340
11
371
    -1
372
    -1
  0
DIMSTYLE
105
8B
330
A
100
AcDbSymbolTableRecord
100
AcDbDimStyleTableRecord
  2
AM_ISO$SH
 70
     0
  4
"
 41
2.5
 42
1.0
 43
10.0
 44
1.0
 47
0.1
 48
0.1
 73
     0
 74
     0
 75
     1
 76
     1
 77
     1
 78
     8
 79
     2
140
3.5
141
0.0
143
0.0393701
144
2.0
146
0.71
147
1.5
172
     1
173
     1
176
   256
177
   256
178
     2
271
     2
272
     3
274
     4
283
     0
284
     8
340
11
343
87
371
    -1
372
    -1
  0
DIMSTYLE
105
40B
102
{ACAD_REACTORS
330
D7C
330
D56
330
DC8
330
D21
330
FBD
330
E64
330
E3E
330
E18
330
F47
330
EDA
330
EB4
102
}
330
A
100
AcDbSymbolTableRecord
100
AcDbDimStyleTableRecord
  2
AM_ISO$0
 70
     0
  4
"
 41
3.0
 42
1.0
 43
10.0
 44
1.5
 47
0.1
 48
0.1
 73
     0
 74
     0
 77
     1
 78
     8
 79
     2
140
3.0
141
0.0
143
0.0393701
146
0.71
147
1.0
172
     1
176
   256
177
   256
178
   256
271
     2
272
     2
283
     0
284
     8
340
11
371
    -1
372
    -1
  0
ENDTAB
  0
TABLE
  2
BLOCK_RECORD
  5
1
330
0
100
AcDbSymbolTable
 70
    20
  0
BLOCK_RECORD
  5
1F
102
{ACAD_XDICTIONARY
360
8F
102
}
330
1
100
AcDbSymbolTableRecord
100
AcDbBlockTableRecord
  2
*Model_Space
340
22
  0
BLOCK_RECORD
  5
1B
330
1
100
AcDbSymbolTableRecord
100
AcDbBlockTableRecord
  2
*Paper_Space
340
1E
  0
BLOCK_RECORD
  5
23
330
1
100
AcDbSymbolTableRecord
100
AcDbBlockTableRecord
  2
*Paper_Space0
340
26
  0
BLOCK_RECORD
  5
87
330
1
100
AcDbSymbolTableRecord
100
AcDbBlockTableRecord
  2
GENAXEH
340
0
  0
BLOCK_RECORD
  5
B31
330
1
100
AcDbSymbolTableRecord
100
AcDbBlockTableRecord
  2
*U4
340
0
  0
BLOCK_RECORD
  5
D22
330
1
100
AcDbSymbolTableRecord
100
AcDbBlockTableRecord
  2
*D5
340
0
  0
BLOCK_RECORD
  5
D57
330
1
100
AcDbSymbolTableRecord
100
AcDbBlockTableRecord
  2
*D6
340
0
  0
BLOCK_RECORD
  5
D7D
330
1
100
AcDbSymbolTableRecord
100
AcDbBlockTableRecord
  2
*D7
340
0
  0
BLOCK_RECORD
  5
DC9
330
1
100
AcDbSymbolTableRecord
100
AcDbBlockTableRecord
  2
*D8
340
0
  0
BLOCK_RECORD
  5
E19
330
1
100
AcDbSymbolTableRecord
100
AcDbBlockTableRecord
  2
*D9
340
0
  0
BLOCK_RECORD
  5
E3F
330
1
100
AcDbSymbolTableRecord
100
AcDbBlockTableRecord
  2
*D10
340
0
  0
BLOCK_RECORD
  5
E65
330
1
100
AcDbSymbolTableRecord
100
AcDbBlockTableRecord
  2
*D11
340
0
  0
BLOCK_RECORD
  5
EB5
330
1
100
AcDbSymbolTableRecord
100
AcDbBlockTableRecord
  2
*D12
340
0
  0
BLOCK_RECORD
  5
EDB
330
1
100
AcDbSymbolTableRecord
100
AcDbBlockTableRecord
  2
*D13
340
0
  0
BLOCK_RECORD
  5
F48
330
1
100
AcDbSymbolTableRecord
100
AcDbBlockTableRecord
  2
*D14
340
0
  0
BLOCK_RECORD
  5
FBE
330
1
100
AcDbSymbolTableRecord
100
AcDbBlockTableRecord
  2
*D15
340
0
  0
BLOCK_RECORD
  5
138F
330
1
100
AcDbSymbolTableRecord
100
AcDbBlockTableRecord
  2
*S17
340
0
  0
BLOCK_RECORD
  5
1397
330
1
100
AcDbSymbolTableRecord
100
AcDbBlockTableRecord
  2
*S18
340
0
  0
BLOCK_RECORD
  5
139F
330
1
100
AcDbSymbolTableRecord
100
AcDbBlockTableRecord
  2
*S19
340
0
  0
ENDTAB
  0
ENDSEC
  0
SECTION
  2
BLOCKS
  0
BLOCK
  5
20
330
1F
100
AcDbEntity
  8
0
100
AcDbBlockBegin
  2
*Model_Space
 70
     0
 10
0.0
 20
0.0
 30
0.0
  3
*Model_Space
  1

  0
ENDBLK
  5
21
330
1F
100
AcDbEntity
  8
0
100
AcDbBlockEnd
  0
BLOCK
  5
1C
330
1B
100
AcDbEntity
 67
     1
  8
0
100
AcDbBlockBegin
  2
*Paper_Space
 70
     0
 10
0.0
 20
0.0
 30
0.0
  3
*Paper_Space
  1

  0
ENDBLK
  5
1D
330
1B
100
AcDbEntity
 67
     1
  8
0
100
AcDbBlockEnd
  0
BLOCK
  5
24
330
23
100
AcDbEntity
  8
0
100
AcDbBlockBegin
  2
*Paper_Space0
 70
     0
 10
0.0
 20
0.0
 30
0.0
  3
*Paper_Space0
  1

  0
ENDBLK
  5
25
330
23
100
AcDbEntity
  8
0
100
AcDbBlockEnd
  0
BLOCK
  5
89
330
87
100
AcDbEntity
  8
0
100
AcDbBlockBegin
  2
GENAXEH
 70
     0
 10
0.0
 20
0.0
 30
0.0
  3
GENAXEH
  1

  0
LINE
  5
88
330
87
100
AcDbEntity
  8
0
100
AcDbLine
 10
-1.0
 20
0.0
 30
0.0
 11
1.0
 21
0.0
 31
0.0
  0
ENDBLK
  5
8A
330
87
100
AcDbEntity
  8
0
100
AcDbBlockEnd
  0
BLOCK
  5
B32
330
B31
100
AcDbEntity
  8
0
100
AcDbBlockBegin
  2
*U4
 70
     1
 10
0.0
 20
0.0
 30
0.0
  3
*U4
  1

  0
ENDBLK
  5
B33
330
B31
100
AcDbEntity
  8
0
100
AcDbBlockEnd
  0
BLOCK
  5
D2C
330
D22
100
AcDbEntity
  8
0
100
AcDbBlockBegin
  2
*D5
 70
     1
 10
0.0
 20
0.0
 30
0.0
  3
*D5
  1

  0
LINE
  5
1253
330
D22
100
AcDbEntity
  8
AM_5
100
AcDbLine
 10
2136.573443415257
 20
1598.679007985001
 30
0.0
 11
2164.273443415257
 21
1598.679007985001
 31
0.0
  0
LINE
  5
1254
330
D22
100
AcDbEntity
  8
AM_5
100
AcDbLine
 10
2136.573443415257
 20
1518.679007985001
 30
0.0
 11
2164.273443415257
 21
1518.679007985001
 31
0.0
  0
LINE
  5
1255
330
D22
100
AcDbEntity
  8
AM_5
100
AcDbLine
 10
2162.173443415257
 20
1594.479007985001
 30
0.0
 11
2162.173443415257
 21
1522.879007985001
 31
0.0
  0
SOLID
  5
1256
330
D22
100
AcDbEntity
  8
AM_5
100
AcDbTrace
 10
2161.473443415257
 20
1594.479007985001
 30
0.0
 11
2162.873443415257
 21
1594.479007985001
 31
0.0
 12
2162.173443415257
 22
1598.679007985001
 32
0.0
 13
2162.173443415257
 23
1598.679007985001
 33
0.0
  0
SOLID
  5
1257
330
D22
100
AcDbEntity
  8
AM_5
100
AcDbTrace
 10
2161.473443415257
 20
1522.879007985001
 30
0.0
 11
2162.873443415257
 21
1522.879007985001
 31
0.0
 12
2162.173443415257
 22
1518.679007985001
 32
0.0
 13
2162.173443415257
 23
1518.679007985001
 33
0.0
  0
MTEXT
  5
1258
330
D22
100
AcDbEntity
  8
AM_5
100
AcDbMText
 10
2158.673443415256
 20
1558.679007985002
 30
0.0
 40
4.199999999999999
 41
0.0
 71
     5
 72
     1
  1
80
 11
0.0000000000000001
 21
1.0
 31
0.0
 73
     1
 44
1.0
1001
ACAD
1000
MTEXTBEGIN
1070
    73
1070
     1
1070
    44
1040
1.0
1070
    74
1070
     0
1000
MTEXTEND
  0
POINT
  5
1259
330
D22
100
AcDbEntity
  8
Defpoints
 62
     0
100
AcDbPoint
 10
2135.173443415257
 20
1598.679007985001
 30
0.0
  0
POINT
  5
125A
330
D22
100
AcDbEntity
  8
Defpoints
 62
     0
100
AcDbPoint
 10
2135.173443415257
 20
1518.679007985001
 30
0.0
  0
POINT
  5
125B
330
D22
100
AcDbEntity
  8
Defpoints
 62
     0
100
AcDbPoint
 10
2162.173443415257
 20
1518.679007985001
 30
0.0
  0
ENDBLK
  5
D2D
330
D22
100
AcDbEntity
  8
0
100
AcDbBlockEnd
  0
BLOCK
  5
D61
330
D57
100
AcDbEntity
  8
0
100
AcDbBlockBegin
  2
*D6
 70
     1
 10
0.0
 20
0.0
 30
0.0
  3
*D6
  1

  0
LINE
  5
1241
330
D57
100
AcDbEntity
  8
AM_5
100
AcDbLine
 10
2074.173443415257
 20
1522.279007985001
 30
0.0
 11
2074.173443415257
 21
1494.579007985002
 31
0.0
  0
LINE
  5
1242
330
D57
100
AcDbEntity
  8
AM_5
100
AcDbLine
 10
2140.173443415257
 20
1522.279007985001
 30
0.0
 11
2140.173443415257
 21
1494.579007985002
 31
0.0
  0
LINE
  5
1243
330
D57
100
AcDbEntity
  8
AM_5
100
AcDbLine
 10
2078.373443415257
 20
1496.679007985002
 30
0.0
 11
2135.973443415257
 21
1496.679007985002
 31
0.0
  0
SOLID
  5
1244
330
D57
100
AcDbEntity
  8
AM_5
100
AcDbTrace
 10
2078.373443415257
 20
1497.379007985002
 30
0.0
 11
2078.373443415257
 21
1495.979007985002
 31
0.0
 12
2074.173443415257
 22
1496.679007985002
 32
0.0
 13
2074.173443415257
 23
1496.679007985002
 33
0.0
  0
SOLID
  5
1245
330
D57
100
AcDbEntity
  8
AM_5
100
AcDbTrace
 10
2135.973443415257
 20
1497.379007985002
 30
0.0
 11
2135.973443415257
 21
1495.979007985002
 31
0.0
 12
2140.173443415257
 22
1496.679007985002
 32
0.0
 13
2140.173443415257
 23
1496.679007985002
 33
0.0
  0
MTEXT
  5
1246
330
D57
100
AcDbEntity
  8
AM_5
100
AcDbMText
 10
2107.173443415257
 20
1500.179007985002
 30
0.0
 40
4.199999999999999
 41
0.0
 71
     5
 72
     1
  1
66
 73
     1
 44
1.0
1001
ACAD
1000
MTEXTBEGIN
1070
    73
1070
     1
1070
    44
1040
1.0
1070
    74
1070
     0
1000
MTEXTEND
  0
POINT
  5
1247
330
D57
100
AcDbEntity
  8
Defpoints
 62
     0
100
AcDbPoint
 10
2074.173443415257
 20
1523.679007985001
 30
0.0
  0
POINT
  5
1248
330
D57
100
AcDbEntity
  8
Defpoints
 62
     0
100
AcDbPoint
 10
2140.173443415257
 20
1523.679007985001
 30
0.0
  0
POINT
  5
1249
330
D57
100
AcDbEntity
  8
Defpoints
 62
     0
100
AcDbPoint
 10
2140.173443415257
 20
1496.679007985002
 30
0.0
  0
ENDBLK
  5
D62
330
D57
100
AcDbEntity
  8
0
100
AcDbBlockEnd
  0
BLOCK
  5
D87
330
D7D
100
AcDbEntity
  8
0
100
AcDbBlockBegin
  2
*D7
 70
     1
 10
0.0
 20
0.0
 30
0.0
  3
*D7
  1

  0
LINE
  5
1238
330
D7D
100
AcDbEntity
  8
AM_5
100
AcDbLine
 10
2131.173443415257
 20
1551.279007985001
 30
0.0
 11
2131.173443415257
 21
1504.579007985001
 31
0.0
  0
LINE
  5
1239
330
D7D
100
AcDbEntity
  8
AM_5
100
AcDbLine
 10
2083.173443415257
 20
1551.279007985001
 30
0.0
 11
2083.173443415257
 21
1504.579007985001
 31
0.0
  0
LINE
  5
123A
330
D7D
100
AcDbEntity
  8
AM_5
100
AcDbLine
 10
2126.973443415257
 20
1506.679007985001
 30
0.0
 11
2087.373443415257
 21
1506.679007985001
 31
0.0
  0
SOLID
  5
123B
330
D7D
100
AcDbEntity
  8
AM_5
100
AcDbTrace
 10
2126.973443415257
 20
1507.379007985002
 30
0.0
 11
2126.973443415257
 21
1505.979007985001
 31
0.0
 12
2131.173443415257
 22
1506.679007985001
 32
0.0
 13
2131.173443415257
 23
1506.679007985001
 33
0.0
  0
SOLID
  5
123C
330
D7D
100
AcDbEntity
  8
AM_5
100
AcDbTrace
 10
2087.373443415257
 20
1507.379007985002
 30
0.0
 11
2087.373443415257
 21
1505.979007985001
 31
0.0
 12
2083.173443415257
 22
1506.679007985001
 32
0.0
 13
2083.173443415257
 23
1506.679007985001
 33
0.0
  0
MTEXT
  5
123D
330
D7D
100
AcDbEntity
  8
AM_5
100
AcDbMText
 10
2107.173443415257
 20
1510.179007985001
 30
0.0
 40
4.199999999999999
 41
0.0
 71
     5
 72
     1
  1
48
 73
     1
 44
1.0
1001
ACAD
1000
MTEXTBEGIN
1070
    73
1070
     1
1070
    44
1040
1.0
1070
    74
1070
     0
1000
MTEXTEND
  0
POINT
  5
123E
330
D7D
100
AcDbEntity
  8
Defpoints
 62
     0
100
AcDbPoint
 10
2131.173443415257
 20
1552.679007985001
 30
0.0
  0
POINT
  5
123F
330
D7D
100
AcDbEntity
  8
Defpoints
 62
     0
100
AcDbPoint
 10
2083.173443415257
 20
1552.679007985001
 30
0.0
  0
POINT
  5
1240
330
D7D
100
AcDbEntity
  8
Defpoints
 62
     0
100
AcDbPoint
 10
2083.173443415257
 20
1506.679007985001
 30
0.0
  0
ENDBLK
  5
D88
330
D7D
100
AcDbEntity
  8
0
100
AcDbBlockEnd
  0
BLOCK
  5
DD3
330
DC9
100
AcDbEntity
  8
0
100
AcDbBlockBegin
  2
*D8
 70
     1
 10
0.0
 20
0.0
 30
0.0
  3
*D8
  1

  0
LINE
  5
124A
330
DC9
100
AcDbEntity
  8
AM_5
100
AcDbLine
 10
2114.573443415257
 20
1528.679007985001
 30
0.0
 11
2154.273443415257
 21
1528.679007985001
 31
0.0
  0
LINE
  5
124B
330
DC9
100
AcDbEntity
  8
AM_5
100
AcDbLine
 10
2114.573443415257
 20
1588.679007985001
 30
0.0
 11
2154.273443415257
 21
1588.679007985001
 31
0.0
  0
LINE
  5
124C
330
DC9
100
AcDbEntity
  8
AM_5
100
AcDbLine
 10
2152.173443415257
 20
1532.879007985001
 30
0.0
 11
2152.173443415257
 21
1584.479007985001
 31
0.0
  0
SOLID
  5
124D
330
DC9
100
AcDbEntity
  8
AM_5
100
AcDbTrace
 10
2151.473443415257
 20
1532.879007985001
 30
0.0
 11
2152.873443415256
 21
1532.879007985001
 31
0.0
 12
2152.173443415257
 22
1528.679007985001
 32
0.0
 13
2152.173443415257
 23
1528.679007985001
 33
0.0
  0
SOLID
  5
124E
330
DC9
100
AcDbEntity
  8
AM_5
100
AcDbTrace
 10
2151.473443415257
 20
1584.479007985001
 30
0.0
 11
2152.873443415256
 21
1584.479007985001
 31
0.0
 12
2152.173443415257
 22
1588.679007985001
 32
0.0
 13
2152.173443415257
 23
1588.679007985001
 33
0.0
  0
MTEXT
  5
124F
330
DC9
100
AcDbEntity
  8
AM_5
100
AcDbMText
 10
2148.673443415257
 20
1558.679007985002
 30
0.0
 40
4.199999999999999
 41
0.0
 71
     5
 72
     1
  1
60
 11
0.0000000000000001
 21
1.0
 31
0.0
 73
     1
 44
1.0
1001
ACAD
1000
MTEXTBEGIN
1070
    73
1070
     1
1070
    44
1040
1.0
1070
    74
1070
     0
1000
MTEXTEND
  0
POINT
  5
1250
330
DC9
100
AcDbEntity
  8
Defpoints
 62
     0
100
AcDbPoint
 10
2113.173443415257
 20
1528.679007985001
 30
0.0
  0
POINT
  5
1251
330
DC9
100
AcDbEntity
  8
Defpoints
 62
     0
100
AcDbPoint
 10
2113.173443415257
 20
1588.679007985001
 30
0.0
  0
POINT
  5
1252
330
DC9
100
AcDbEntity
  8
Defpoints
 62
     0
100
AcDbPoint
 10
2152.173443415257
 20
1588.679007985001
 30
0.0
  0
ENDBLK
  5
DD4
330
DC9
100
AcDbEntity
  8
0
100
AcDbBlockEnd
  0
BLOCK
  5
E23
330
E19
100
AcDbEntity
  8
0
100
AcDbBlockBegin
  2
*D9
 70
     1
 10
0.0
 20
0.0
 30
0.0
  3
*D9
  1

  0
LINE
  5
1279
330
E19
100
AcDbEntity
  8
AM_5
100
AcDbLine
 10
2140.573443441315
 20
1421.901377303683
 30
0.0
 11
2153.273443441315
 21
1421.901377303683
 31
0.0
  0
LINE
  5
127A
330
E19
100
AcDbEntity
  8
AM_5
100
AcDbLine
 10
2140.573443441315
 20
1462.401377303683
 30
0.0
 11
2153.273443441315
 21
1462.401377303683
 31
0.0
  0
LINE
  5
127B
330
E19
100
AcDbEntity
  8
AM_5
100
AcDbLine
 10
2151.173443441315
 20
1426.101377303683
 30
0.0
 11
2151.173443441315
 21
1458.201377303683
 31
0.0
  0
SOLID
  5
127C
330
E19
100
AcDbEntity
  8
AM_5
100
AcDbTrace
 10
2150.473443441315
 20
1426.101377303683
 30
0.0
 11
2151.873443441314
 21
1426.101377303683
 31
0.0
 12
2151.173443441315
 22
1421.901377303683
 32
0.0
 13
2151.173443441315
 23
1421.901377303683
 33
0.0
  0
SOLID
  5
127D
330
E19
100
AcDbEntity
  8
AM_5
100
AcDbTrace
 10
2150.473443441315
 20
1458.201377303683
 30
0.0
 11
2151.873443441314
 21
1458.201377303683
 31
0.0
 12
2151.173443441315
 22
1462.401377303683
 32
0.0
 13
2151.173443441315
 23
1462.401377303683
 33
0.0
  0
MTEXT
  5
127E
330
E19
100
AcDbEntity
  8
AM_5
100
AcDbMText
 10
2147.673443441314
 20
1442.151377303683
 30
0.0
 40
4.199999999999999
 41
0.0
 71
     5
 72
     1
  1
40.5+stroke
 11
0.0000000000000001
 21
1.0
 31
0.0
 73
     1
 44
1.0
1001
ACAD
1000
MTEXTBEGIN
1070
    73
1070
     1
1070
    44
1040
1.0
1070
    74
1070
     0
1000
MTEXTEND
  0
POINT
  5
127F
330
E19
100
AcDbEntity
  8
Defpoints
 62
     0
100
AcDbPoint
 10
2139.173443441315
 20
1421.901377303683
 30
0.0
  0
POINT
  5
1280
330
E19
100
AcDbEntity
  8
Defpoints
 62
     0
100
AcDbPoint
 10
2139.173443441315
 20
1462.401377303683
 30
0.0
  0
POINT
  5
1281
330
E19
100
AcDbEntity
  8
Defpoints
 62
     0
100
AcDbPoint
 10
2151.173443441315
 20
1462.401377303683
 30
0.0
  0
ENDBLK
  5
E24
330
E19
100
AcDbEntity
  8
0
100
AcDbBlockEnd
  0
BLOCK
  5
E49
330
E3F
100
AcDbEntity
  8
0
100
AcDbBlockBegin
  2
*D10
 70
     1
 10
0.0
 20
0.0
 30
0.0
  3
*D10
  1

  0
LINE
  5
1270
330
E3F
100
AcDbEntity
  8
AM_5
100
AcDbLine
 10
2140.573443441315
 20
1421.901377303683
 30
0.0
 11
2163.273443441315
 21
1421.901377303683
 31
0.0
  0
LINE
  5
1271
330
E3F
100
AcDbEntity
  8
AM_5
100
AcDbLine
 10
2141.573443415257
 20
1481.901377303683
 30
0.0
 11
2163.273443441315
 21
1481.901377303683
 31
0.0
  0
LINE
  5
1272
330
E3F
100
AcDbEntity
  8
AM_5
100
AcDbLine
 10
2161.173443441316
 20
1426.101377303683
 30
0.0
 11
2161.173443441316
 21
1477.701377303683
 31
0.0
  0
SOLID
  5
1273
330
E3F
100
AcDbEntity
  8
AM_5
100
AcDbTrace
 10
2160.473443441316
 20
1426.101377303683
 30
0.0
 11
2161.873443441316
 21
1426.101377303683
 31
0.0
 12
2161.173443441316
 22
1421.901377303683
 32
0.0
 13
2161.173443441316
 23
1421.901377303683
 33
0.0
  0
SOLID
  5
1274
330
E3F
100
AcDbEntity
  8
AM_5
100
AcDbTrace
 10
2160.473443441316
 20
1477.701377303683
 30
0.0
 11
2161.873443441316
 21
1477.701377303683
 31
0.0
 12
2161.173443441316
 22
1481.901377303683
 32
0.0
 13
2161.173443441316
 23
1481.901377303683
 33
0.0
  0
MTEXT
  5
1275
330
E3F
100
AcDbEntity
  8
AM_5
100
AcDbMText
 10
2157.673443441315
 20
1451.901377303683
 30
0.0
 40
4.199999999999999
 41
0.0
 71
     5
 72
     1
  1
60+stroke
 11
0.0000000000000001
 21
1.0
 31
0.0
 73
     1
 44
1.0
1001
ACAD
1000
MTEXTBEGIN
1070
    73
1070
     1
1070
    44
1040
1.0
1070
    74
1070
     0
1000
MTEXTEND
  0
POINT
  5
1276
330
E3F
100
AcDbEntity
  8
Defpoints
 62
     0
100
AcDbPoint
 10
2139.173443441315
 20
1421.901377303683
 30
0.0
  0
POINT
  5
1277
330
E3F
100
AcDbEntity
  8
Defpoints
 62
     0
100
AcDbPoint
 10
2140.173443415257
 20
1481.901377303683
 30
0.0
  0
POINT
  5
1278
330
E3F
100
AcDbEntity
  8
Defpoints
 62
     0
100
AcDbPoint
 10
2161.173443441316
 20
1481.901377303683
 30
0.0
  0
ENDBLK
  5
E4A
330
E3F
100
AcDbEntity
  8
0
100
AcDbBlockEnd
  0
BLOCK
  5
E6F
330
E65
100
AcDbEntity
  8
0
100
AcDbBlockBegin
  2
*D11
 70
     1
 10
0.0
 20
0.0
 30
0.0
  3
*D11
  1

  0
LINE
  5
1267
330
E65
100
AcDbEntity
  8
AM_5
100
AcDbLine
 10
2141.573443415257
 20
1481.901377303683
 30
0.0
 11
2153.273443441315
 21
1481.901377303683
 31
0.0
  0
LINE
  5
1268
330
E65
100
AcDbEntity
  8
AM_5
100
AcDbLine
 10
2141.573443415257
 20
1469.901377303683
 30
0.0
 11
2153.273443441315
 21
1469.901377303683
 31
0.0
  0
LINE
  5
1269
330
E65
100
AcDbEntity
  8
AM_5
100
AcDbLine
 10
2151.173443441315
 20
1477.701377303683
 30
0.0
 11
2151.173443441315
 21
1474.101377303683
 31
0.0
  0
SOLID
  5
126A
330
E65
100
AcDbEntity
  8
AM_5
100
AcDbTrace
 10
2150.473443441315
 20
1477.701377303683
 30
0.0
 11
2151.873443441314
 21
1477.701377303683
 31
0.0
 12
2151.173443441315
 22
1481.901377303683
 32
0.0
 13
2151.173443441315
 23
1481.901377303683
 33
0.0
  0
SOLID
  5
126B
330
E65
100
AcDbEntity
  8
AM_5
100
AcDbTrace
 10
2150.473443441315
 20
1474.101377303683
 30
0.0
 11
2151.873443441314
 21
1474.101377303683
 31
0.0
 12
2151.173443441315
 22
1469.901377303683
 32
0.0
 13
2151.173443441315
 23
1469.901377303683
 33
0.0
  0
MTEXT
  5
126C
330
E65
100
AcDbEntity
  8
AM_5
100
AcDbMText
 10
2147.673030055488
 20
1475.901377303683
 30
0.0
 40
4.199999999999999
 41
0.0
 71
     5
 72
     1
  1
12
 11
0.0000000000000001
 21
1.0
 31
0.0
 73
     1
 44
1.0
1001
ACAD
1000
MTEXTBEGIN
1070
    73
1070
     1
1070
    44
1040
1.0
1070
    74
1070
     0
1000
MTEXTEND
  0
POINT
  5
126D
330
E65
100
AcDbEntity
  8
Defpoints
 62
     0
100
AcDbPoint
 10
2140.173443415257
 20
1481.901377303683
 30
0.0
  0
POINT
  5
126E
330
E65
100
AcDbEntity
  8
Defpoints
 62
     0
100
AcDbPoint
 10
2140.173443415257
 20
1469.901377303683
 30
0.0
  0
POINT
  5
126F
330
E65
100
AcDbEntity
  8
Defpoints
 62
     0
100
AcDbPoint
 10
2151.173443441315
 20
1469.901377303683
 30
0.0
  0
ENDBLK
  5
E70
330
E65
100
AcDbEntity
  8
0
100
AcDbBlockEnd
  0
BLOCK
  5
EBF
330
EB5
100
AcDbEntity
  8
0
100
AcDbBlockBegin
  2
*D12
 70
     1
 10
0.0
 20
0.0
 30
0.0
  3
*D12
  1

  0
LINE
  5
129F
330
EB5
100
AcDbEntity
  8
AM_5
100
AcDbLine
 10
2082.173443415257
 20
1324.034389508816
 30
0.0
 11
2082.173443415257
 21
1302.334388513546
 31
0.0
  0
LINE
  5
12A0
330
EB5
100
AcDbEntity
  8
AM_5
100
AcDbLine
 10
2132.173443417663
 20
1324.034389508816
 30
0.0
 11
2132.173443417663
 21
1302.334388513546
 31
0.0
  0
LINE
  5
12A1
330
EB5
100
AcDbEntity
  8
AM_5
100
AcDbLine
 10
2086.373443415256
 20
1304.434388513545
 30
0.0
 11
2127.973443417664
 21
1304.434388513545
 31
0.0
  0
SOLID
  5
12A2
330
EB5
100
AcDbEntity
  8
AM_5
100
AcDbTrace
 10
2086.373443415256
 20
1305.134388513546
 30
0.0
 11
2086.373443415256
 21
1303.734388513545
 31
0.0
 12
2082.173443415257
 22
1304.434388513545
 32
0.0
 13
2082.173443415257
 23
1304.434388513545
 33
0.0
  0
SOLID
  5
12A3
330
EB5
100
AcDbEntity
  8
AM_5
100
AcDbTrace
 10
2127.973443417664
 20
1305.134388513546
 30
0.0
 11
2127.973443417664
 21
1303.734388513545
 31
0.0
 12
2132.173443417663
 22
1304.434388513545
 32
0.0
 13
2132.173443417663
 23
1304.434388513545
 33
0.0
  0
MTEXT
  5
12A4
330
EB5
100
AcDbEntity
  8
AM_5
100
AcDbMText
 10
2107.17344341646
 20
1307.934388513545
 30
0.0
 40
4.199999999999999
 41
0.0
 71
     5
 72
     1
  1
{\Famgdt|c136;o}50
 73
     1
 44
1.0
1001
ACAD
1000
MTEXTBEGIN
1070
    73
1070
     1
1070
    44
1040
1.0
1070
    74
1070
     0
1000
MTEXTEND
  0
POINT
  5
12A5
330
EB5
100
AcDbEntity
  8
Defpoints
 62
     0
100
AcDbPoint
 10
2082.173443415257
 20
1325.434389508816
 30
0.0
  0
POINT
  5
12A6
330
EB5
100
AcDbEntity
  8
Defpoints
 62
     0
100
AcDbPoint
 10
2132.173443417663
 20
1325.434389508816
 30
0.0
  0
POINT
  5
12A7
330
EB5
100
AcDbEntity
  8
Defpoints
 62
     0
100
AcDbPoint
 10
2132.173443417663
 20
1304.434388513545
 30
0.0
  0
ENDBLK
  5
EC0
330
EB5
100
AcDbEntity
  8
0
100
AcDbBlockEnd
  0
BLOCK
  5
EE5
330
EDB
100
AcDbEntity
  8
0
100
AcDbBlockBegin
  2
*D13
 70
     1
 10
0.0
 20
0.0
 30
0.0
  3
*D13
  1

  0
LINE
  5
1296
330
EDB
100
AcDbEntity
  8
AM_5
100
AcDbLine
 10
2075.173443415255
 20
1326.311576280125
 30
0.0
 11
2075.173443415255
 21
1292.334388513544
 31
0.0
  0
LINE
  5
1297
330
EDB
100
AcDbEntity
  8
AM_5
100
AcDbLine
 10
2139.173443441312
 20
1326.311576306469
 30
0.0
 11
2139.173443441312
 21
1292.334388513544
 31
0.0
  0
LINE
  5
1298
330
EDB
100
AcDbEntity
  8
AM_5
100
AcDbLine
 10
2079.373443415255
 20
1294.434388513544
 30
0.0
 11
2134.973443441312
 21
1294.434388513544
 31
0.0
  0
SOLID
  5
1299
330
EDB
100
AcDbEntity
  8
AM_5
100
AcDbTrace
 10
2079.373443415255
 20
1295.134388513544
 30
0.0
 11
2079.373443415255
 21
1293.734388513544
 31
0.0
 12
2075.173443415255
 22
1294.434388513544
 32
0.0
 13
2075.173443415255
 23
1294.434388513544
 33
0.0
  0
SOLID
  5
129A
330
EDB
100
AcDbEntity
  8
AM_5
100
AcDbTrace
 10
2134.973443441312
 20
1295.134388513544
 30
0.0
 11
2134.973443441312
 21
1293.734388513544
 31
0.0
 12
2139.173443441312
 22
1294.434388513544
 32
0.0
 13
2139.173443441312
 23
1294.434388513544
 33
0.0
  0
MTEXT
  5
129B
330
EDB
100
AcDbEntity
  8
AM_5
100
AcDbMText
 10
2107.173443428283
 20
1297.934388513544
 30
0.0
 40
4.199999999999999
 41
0.0
 71
     5
 72
     1
  1
64
 73
     1
 44
1.0
1001
ACAD
1000
MTEXTBEGIN
1070
    73
1070
     1
1070
    44
1040
1.0
1070
    74
1070
     0
1000
MTEXTEND
  0
POINT
  5
129C
330
EDB
100
AcDbEntity
  8
Defpoints
 62
     0
100
AcDbPoint
 10
2075.173443415255
 20
1327.711576280125
 30
0.0
  0
POINT
  5
129D
330
EDB
100
AcDbEntity
  8
Defpoints
 62
     0
100
AcDbPoint
 10
2139.173443441312
 20
1327.711576306469
 30
0.0
  0
POINT
  5
129E
330
EDB
100
AcDbEntity
  8
Defpoints
 62
     0
100
AcDbPoint
 10
2139.173443441312
 20
1294.434388513544
 30
0.0
  0
ENDBLK
  5
EE6
330
EDB
100
AcDbEntity
  8
0
100
AcDbBlockEnd
  0
BLOCK
  5
F52
330
F48
100
AcDbEntity
  8
0
100
AcDbBlockBegin
  2
*D14
 70
     1
 10
0.0
 20
0.0
 30
0.0
  3
*D14
  1

  0
LINE
  5
12BB
330
F48
100
AcDbEntity
  8
AM_5
100
AcDbLine
 10
2137.29625665146
 20
1324.434389513546
 30
0.0
 11
2159.541824848
 21
1324.434389513546
 31
0.0
  0
LINE
  5
12BC
330
F48
100
AcDbEntity
  8
AM_5
100
AcDbLine
 10
2117.866970676576
 20
1395.434389514133
 30
0.0
 11
2159.541824848
 21
1395.434389514133
 31
0.0
  0
LINE
  5
12BD
330
F48
100
AcDbEntity
  8
AM_5
100
AcDbLine
 10
2157.441824848
 20
1328.634389513546
 30
0.0
 11
2157.441824848
 21
1391.234389514133
 31
0.0
  0
SOLID
  5
12BE
330
F48
100
AcDbEntity
  8
AM_5
100
AcDbTrace
 10
2156.741824848
 20
1328.634389513546
 30
0.0
 11
2158.141824848
 21
1328.634389513546
 31
0.0
 12
2157.441824848
 22
1324.434389513546
 32
0.0
 13
2157.441824848
 23
1324.434389513546
 33
0.0
  0
SOLID
  5
12BF
330
F48
100
AcDbEntity
  8
AM_5
100
AcDbTrace
 10
2156.741824848
 20
1391.234389514133
 30
0.0
 11
2158.141824848
 21
1391.234389514133
 31
0.0
 12
2157.441824848
 22
1395.434389514133
 32
0.0
 13
2157.441824848
 23
1395.434389514133
 33
0.0
  0
MTEXT
  5
12C0
330
F48
100
AcDbEntity
  8
AM_5
100
AcDbMText
 10
2153.941824848
 20
1359.93438951384
 30
0.0
 40
4.199999999999999
 41
0.0
 71
     5
 72
     1
  1
71
 11
0.0000000000000001
 21
1.0
 31
0.0
 73
     1
 44
1.0
1001
ACAD
1000
MTEXTBEGIN
1070
    73
1070
     1
1070
    44
1040
1.0
1070
    74
1070
     0
1000
MTEXTEND
  0
POINT
  5
12C1
330
F48
100
AcDbEntity
  8
Defpoints
 62
     0
100
AcDbPoint
 10
2135.89625665146
 20
1324.434389513546
 30
0.0
  0
POINT
  5
12C2
330
F48
100
AcDbEntity
  8
Defpoints
 62
     0
100
AcDbPoint
 10
2116.466970676576
 20
1395.434389514133
 30
0.0
  0
POINT
  5
12C3
330
F48
100
AcDbEntity
  8
Defpoints
 62
     0
100
AcDbPoint
 10
2157.441824848
 20
1395.434389514133
 30
0.0
  0
ENDBLK
  5
F53
330
F48
100
AcDbEntity
  8
0
100
AcDbBlockEnd
  0
BLOCK
  5
FCA
330
FBE
100
AcDbEntity
  8
0
100
AcDbBlockBegin
  2
*D15
 70
     1
 10
0.0
 20
0.0
 30
0.0
  3
*D15
  1

  0
LINE
  5
1282
330
FBE
100
AcDbEntity
  8
AM_5
100
AcDbLine
 10
2141.573443415257
 20
1469.901377303683
 30
0.0
 11
2153.273443441316
 21
1469.901377303683
 31
0.0
  0
LINE
  5
1283
330
FBE
100
AcDbEntity
  8
AM_5
100
AcDbLine
 10
2140.573443441315
 20
1462.401377303683
 30
0.0
 11
2153.273443441316
 21
1462.401377303683
 31
0.0
  0
LINE
  5
1284
330
FBE
100
AcDbEntity
  8
AM_5
100
AcDbLine
 10
2151.173443441316
 20
1474.101377303683
 30
0.0
 11
2151.173443441316
 21
1478.301377303683
 31
0.0
  0
LINE
  5
1285
330
FBE
100
AcDbEntity
  8
AM_5
100
AcDbLine
 10
2151.173443441316
 20
1458.201377303683
 30
0.0
 11
2151.173443441316
 21
1454.001377303683
 31
0.0
  0
LINE
  5
1286
330
FBE
100
AcDbEntity
  8
AM_5
100
AcDbLine
 10
2151.173443441316
 20
1469.901377303683
 30
0.0
 11
2151.173443441316
 21
1462.401377303683
 31
0.0
  0
SOLID
  5
1287
330
FBE
100
AcDbEntity
  8
AM_5
100
AcDbTrace
 10
2150.473443441316
 20
1474.101377303683
 30
0.0
 11
2151.873443441316
 21
1474.101377303683
 31
0.0
 12
2151.173443441316
 22
1469.901377303683
 32
0.0
 13
2151.173443441316
 23
1469.901377303683
 33
0.0
  0
SOLID
  5
1288
330
FBE
100
AcDbEntity
  8
AM_5
100
AcDbTrace
 10
2150.473443441316
 20
1458.201377303683
 30
0.0
 11
2151.873443441316
 21
1458.201377303683
 31
0.0
 12
2151.173443441316
 22
1462.401377303683
 32
0.0
 13
2151.173443441316
 23
1462.401377303683
 33
0.0
  0
MTEXT
  5
1289
330
FBE
100
AcDbEntity
  8
AM_5
100
AcDbMText
 10
2147.673443441316
 20
1466.151377303683
 30
0.0
 40
4.199999999999999
 41
0.0
 71
     5
 72
     1
  1
7.5
 11
0.0000000000000001
 21
1.0
 31
0.0
 73
     1
 44
1.0
1001
ACAD
1000
MTEXTBEGIN
1070
    73
1070
     1
1070
    44
1040
1.0
1070
    74
1070
     0
1000
MTEXTEND
  0
POINT
  5
128A
330
FBE
100
AcDbEntity
  8
Defpoints
 62
     0
100
AcDbPoint
 10
2140.173443415257
 20
1469.901377303683
 30
0.0
  0
POINT
  5
128B
330
FBE
100
AcDbEntity
  8
Defpoints
 62
     0
100
AcDbPoint
 10
2139.173443441315
 20
1462.401377303683
 30
0.0
  0
POINT
  5
128C
330
FBE
100
AcDbEntity
  8
Defpoints
 62
     0
100
AcDbPoint
 10
2151.173443441316
 20
1462.401377303683
 30
0.0
  0
ENDBLK
  5
FCB
330
FBE
100
AcDbEntity
  8
0
100
AcDbBlockEnd
  0
BLOCK
  5
1394
330
138F
100
AcDbEntity
  8
0
100
AcDbBlockBegin
  2
*S17
 70
     1
 10
0.0
 20
0.0
 30
0.0
  3
*S17
  1

  0
LINE
  5
1390
330
138F
100
AcDbEntity
  8
AM_5
 62
     5
100
AcDbLine
 10
2157.135062273711
 20
1409.230947729721
 30
0.0
 11
2130.480633139853
 21
1409.230947729721
 31
0.0
  0
LINE
  5
1391
330
138F
100
AcDbEntity
  8
AM_5
 62
     5
100
AcDbLine
 10
2130.480633139853
 20
1409.230947729721
 30
0.0
 11
2115.433625179941
 21
1424.478797869827
 31
0.0
  0
TRACE
  5
1392
330
138F
100
AcDbEntity
  8
AM_5
 62
     5
370
    35
100
AcDbTrace
 10
2115.892791819439
 20
1424.931916441688
 30
0.0
 11
2114.974458540444
 21
1424.025679297966
 31
0.0
 12
2111.991847908822
 22
1427.966514775771
 32
0.0
 13
2111.991847908822
 23
1427.966514775771
 33
0.0
  0
MTEXT
  5
1393
330
138F
100
AcDbEntity
  8
AM_5
 62
     5
100
AcDbMText
 10
2133.980633139853
 20
1410.980947729721
 30
0.0
 40
4.899999999999999
 41
0.0
 71
     7
 72
     5
  1
2-PT1/4
  7
ACISOTS
 73
     1
 44
1.0
1001
ACAD
1000
MTEXTBEGIN
1070
    73
1070
     1
1070
    44
1040
1.0
1070
    74
1070
     0
1000
MTEXTEND
  0
ENDBLK
  5
1395
330
138F
100
AcDbEntity
  8
0
100
AcDbBlockEnd
  0
BLOCK
  5
139C
330
1397
100
AcDbEntity
  8
0
100
AcDbBlockBegin
  2
*S18
 70
     1
 10
0.0
 20
0.0
 30
0.0
  3
*S18
  1

  0
LINE
  5
1398
330
1397
100
AcDbEntity
  8
AM_5
 62
     5
100
AcDbLine
 10
2220.825121138051
 20
1533.424490570193
 30
0.0
 11
2174.69512113805
 21
1533.424490570193
 31
0.0
  0
LINE
  5
1399
330
1397
100
AcDbEntity
  8
AM_5
 62
     5
100
AcDbLine
 10
2174.69512113805
 20
1533.424490570193
 30
0.0
 11
2138.777949030863
 21
1553.395394078342
 31
0.0
  0
TRACE
  5
139A
330
1397
100
AcDbEntity
  8
AM_5
 62
     5
370
    35
100
AcDbTrace
 10
2139.091438868451
 20
1553.959197736294
 30
0.0
 11
2138.464459193275
 21
1552.83159042039
 31
0.0
 12
2134.495435058093
 22
1555.776585812125
 32
0.0
 13
2134.495435058093
 23
1555.776585812125
 33
0.0
  0
MTEXT
  5
139B
330
1397
100
AcDbEntity
  8
AM_5
 62
     5
100
AcDbMText
 10
2178.195121138051
 20
1535.174490570193
 30
0.0
 40
4.899999999999999
 41
0.0
 71
     7
 72
     5
  1
4-M8x1.25 thru
  7
ACISOTS
 73
     1
 44
1.0
1001
ACAD
1000
MTEXTBEGIN
1070
    73
1070
     1
1070
    44
1040
1.0
1070
    74
1070
     0
1000
MTEXTEND
  0
ENDBLK
  5
139D
330
1397
100
AcDbEntity
  8
0
100
AcDbBlockEnd
  0
BLOCK
  5
13A4
330
139F
100
AcDbEntity
  8
0
100
AcDbBlockBegin
  2
*S19
 70
     1
 10
0.0
 20
0.0
 30
0.0
  3
*S19
  1

  0
LINE
  5
13A0
330
139F
100
AcDbEntity
  8
AM_5
 62
     5
100
AcDbLine
 10
2217.017440544688
 20
1294.117134267343
 30
0.0
 11
2157.355417345962
 21
1294.117134267343
 31
0.0
  0
LINE
  5
13A1
330
139F
100
AcDbEntity
  8
AM_5
 62
     5
100
AcDbLine
 10
2157.355417345962
 20
1294.117134267343
 30
0.0
 11
2138.140287508216
 21
1324.825132579926
 31
0.0
  0
TRACE
  5
13A2
330
139F
100
AcDbEntity
  8
AM_5
 62
     5
370
    35
100
AcDbTrace
 10
2138.687147660378
 20
1325.167323194889
 30
0.0
 11
2137.593427356054
 21
1324.482941964962
 31
0.0
 12
2135.541091725674
 22
1328.978947848328
 32
0.0
 13
2135.541091725674
 23
1328.978947848328
 33
0.0
  0
MTEXT
  5
13A3
330
139F
100
AcDbEntity
  8
AM_5
 62
     5
100
AcDbMText
 10
2160.855417345961
 20
1295.867134267343
 30
0.0
 40
4.899999999999999
 41
0.0
 71
     7
 72
     5
  1
2-%%C6.6 thru\P2-%%C10.5x8 depth\P2-M8x1.25x14 depth
  7
ACISOTS
 73
     1
 44
1.0
1001
ACAD
1000
MTEXTBEGIN
1070
    73
1070
     1
1070
    44
1040
1.0
1070
    74
1070
     0
1000
MTEXTEND
  0
ENDBLK
  5
13A5
330
139F
100
AcDbEntity
  8
0
100
AcDbBlockEnd
  0
ENDSEC
  0
SECTION
  2
ENTITIES
  0
LINE
  5
910
330
1F
100
AcDbEntity
  8
AM_VIS
100
AcDbLine
 10
2138.173443431372
 20
1343.334389513545
 30
0.0
 11
2138.173443431372
 21
1347.834389513546
 31
0.0
  0
LINE
  5
911
330
1F
100
AcDbEntity
  8
AM_VIS
100
AcDbLine
 10
2137.173443445783
 20
1343.134389513545
 30
0.0
 11
2137.973443445783
 21
1343.134389513545
 31
0.0
  0
LINE
  5
912
330
1F
100
AcDbEntity
  8
AM_VIS
100
AcDbLine
 10
2136.673443445783
 20
1343.584389513546
 30
0.0
 11
2137.173443445783
 21
1343.134389513545
 31
0.0
  0
LINE
  5
913
330
1F
100
AcDbEntity
  8
AM_VIS
100
AcDbLine
 10
2134.573443445783
 20
1343.584389513546
 30
0.0
 11
2136.673443445783
 21
1343.584389513546
 31
0.0
  0
LINE
  5
914
330
1F
100
AcDbEntity
  8
AM_VIS
100
AcDbLine
 10
2132.873443445783
 20
1340.984389513546
 30
0.0
 11
2132.873443445783
 21
1341.884389513545
 31
0.0
  0
LINE
  5
915
330
1F
100
AcDbEntity
  8
AM_VIS
100
AcDbLine
 10
2136.673443445783
 20
1339.284389513546
 30
0.0
 11
2134.573443445783
 21
1339.284389513546
 31
0.0
  0
LINE
  5
916
330
1F
100
AcDbEntity
  8
AM_VIS
100
AcDbLine
 10
2137.173443445783
 20
1339.734389513546
 30
0.0
 11
2136.673443445783
 21
1339.284389513546
 31
0.0
  0
LINE
  5
917
330
1F
100
AcDbEntity
  8
AM_VIS
100
AcDbLine
 10
2137.973443445783
 20
1339.734389513546
 30
0.0
 11
2137.173443445783
 21
1339.734389513546
 31
0.0
  0
LINE
  5
918
330
1F
100
AcDbEntity
  8
AM_VIS
100
AcDbLine
 10
2138.173443431372
 20
1335.934389546472
 30
0.0
 11
2138.173443431372
 21
1339.534389513545
 31
0.0
  0
LINE
  5
919
330
1F
100
AcDbEntity
  8
AM_VIS
100
AcDbLine
 10
2139.173443441314
 20
1334.934389536472
 30
0.0
 11
2138.173443431372
 21
1335.934389546472
 31
0.0
  0
LINE
  5
91A
330
1F
100
AcDbEntity
  8
AM_VIS
100
AcDbLine
 10
2139.173443441315
 20
1327.711576306472
 30
0.0
 11
2139.173443441315
 21
1334.934389536472
 31
0.0
  0
LINE
  5
91B
102
{ACAD_REACTORS
330
F55
102
}
330
1F
100
AcDbEntity
  8
AM_VIS
100
AcDbLine
 10
2128.67344341146
 20
1324.434389513546
 30
0.0
 11
2135.89625665146
 21
1324.434389513546
 31
0.0
  0
LINE
  5
91C
330
1F
100
AcDbEntity
  8
AM_VIS
100
AcDbLine
 10
2127.67344341146
 20
1325.434389513603
 30
0.0
 11
2128.67344341146
 21
1324.434389513546
 31
0.0
  0
LINE
  5
91D
330
1F
100
AcDbEntity
  8
AM_VIS
100
AcDbLine
 10
2124.073443389198
 20
1325.434389513603
 30
0.0
 11
2127.67344341146
 21
1325.434389513603
 31
0.0
  0
LINE
  5
91E
330
1F
100
AcDbEntity
  8
AM_VIS
100
AcDbLine
 10
2123.873443389199
 20
1326.43438948302
 30
0.0
 11
2123.873443389199
 21
1325.63438948302
 31
0.0
  0
LINE
  5
91F
330
1F
100
AcDbEntity
  8
AM_VIS
100
AcDbLine
 10
2124.323443389199
 20
1326.934389483019
 30
0.0
 11
2123.873443389199
 21
1326.43438948302
 31
0.0
  0
LINE
  5
920
330
1F
100
AcDbEntity
  8
AM_VIS
100
AcDbLine
 10
2124.323443389199
 20
1329.034389483019
 30
0.0
 11
2124.323443389199
 21
1326.934389483019
 31
0.0
  0
LINE
  5
921
330
1F
100
AcDbEntity
  8
AM_VIS
100
AcDbLine
 10
2121.723443389199
 20
1330.734389483019
 30
0.0
 11
2122.623443389199
 21
1330.734389483019
 31
0.0
  0
LINE
  5
922
330
1F
100
AcDbEntity
  8
AM_VIS
100
AcDbLine
 10
2120.023443389199
 20
1326.934389483019
 30
0.0
 11
2120.023443389199
 21
1329.03438948302
 31
0.0
  0
LINE
  5
923
330
1F
100
AcDbEntity
  8
AM_VIS
100
AcDbLine
 10
2120.473443389199
 20
1326.434389483019
 30
0.0
 11
2120.023443389199
 21
1326.934389483019
 31
0.0
  0
LINE
  5
924
330
1F
100
AcDbEntity
  8
AM_VIS
100
AcDbLine
 10
2120.473443389199
 20
1325.63438948302
 30
0.0
 11
2120.473443389199
 21
1326.434389483019
 31
0.0
  0
LINE
  5
925
330
1F
100
AcDbEntity
  8
AM_VIS
100
AcDbLine
 10
2115.773443414673
 20
1325.434389513603
 30
0.0
 11
2120.273443389199
 21
1325.434389513603
 31
0.0
  0
LINE
  5
926
330
1F
100
AcDbEntity
  8
AM_VIS
100
AcDbLine
 10
2094.073443415256
 20
1325.434389513603
 30
0.0
 11
2098.573443415256
 21
1325.434389513603
 31
0.0
  0
LINE
  5
927
330
1F
100
AcDbEntity
  8
AM_VIS
100
AcDbLine
 10
2093.873443415256
 20
1326.434389483019
 30
0.0
 11
2093.873443415256
 21
1325.63438948302
 31
0.0
  0
LINE
  5
928
330
1F
100
AcDbEntity
  8
AM_VIS
100
AcDbLine
 10
2094.323443415257
 20
1326.934389483019
 30
0.0
 11
2093.873443415256
 21
1326.43438948302
 31
0.0
  0
LINE
  5
929
330
1F
100
AcDbEntity
  8
AM_VIS
100
AcDbLine
 10
2094.323443415257
 20
1329.034389483019
 30
0.0
 11
2094.323443415257
 21
1326.934389483019
 31
0.0
  0
LINE
  5
92A
330
1F
100
AcDbEntity
  8
AM_VIS
100
AcDbLine
 10
2091.723443415256
 20
1330.734389483019
 30
0.0
 11
2092.623443415257
 21
1330.734389483019
 31
0.0
  0
LINE
  5
92B
330
1F
100
AcDbEntity
  8
AM_VIS
100
AcDbLine
 10
2090.023443415256
 20
1326.934389483019
 30
0.0
 11
2090.023443415256
 21
1329.03438948302
 31
0.0
  0
LINE
  5
92C
330
1F
100
AcDbEntity
  8
AM_VIS
100
AcDbLine
 10
2090.473443415257
 20
1326.434389483019
 30
0.0
 11
2090.023443415256
 21
1326.934389483019
 31
0.0
  0
LINE
  5
92D
330
1F
100
AcDbEntity
  8
AM_VIS
100
AcDbLine
 10
2090.473443415257
 20
1325.63438948302
 30
0.0
 11
2090.473443415257
 21
1326.434389483019
 31
0.0
  0
LINE
  5
92E
330
1F
100
AcDbEntity
  8
AM_VIS
100
AcDbLine
 10
2086.67344341146
 20
1325.434389513603
 30
0.0
 11
2090.273443415256
 21
1325.434389513603
 31
0.0
  0
LINE
  5
92F
330
1F
100
AcDbEntity
  8
AM_VIS
100
AcDbLine
 10
2085.67344341146
 20
1324.434389513546
 30
0.0
 11
2086.67344341146
 21
1325.434389513603
 31
0.0
  0
LINE
  5
930
330
1F
100
AcDbEntity
  8
AM_VIS
100
AcDbLine
 10
2078.45063018146
 20
1324.434389513546
 30
0.0
 11
2085.67344341146
 21
1324.434389513546
 31
0.0
  0
LINE
  5
931
330
1F
100
AcDbEntity
  8
AM_VIS
100
AcDbLine
 10
2075.173443415257
 20
1334.934389520123
 30
0.0
 11
2075.173443415257
 21
1327.711576280123
 31
0.0
  0
LINE
  5
932
330
1F
100
AcDbEntity
  8
AM_VIS
100
AcDbLine
 10
2076.173443416548
 20
1335.934389521472
 30
0.0
 11
2075.173443415257
 21
1334.934389520123
 31
0.0
  0
LINE
  5
933
330
1F
100
AcDbEntity
  8
AM_VIS
100
AcDbLine
 10
2076.173443416548
 20
1339.534389539603
 30
0.0
 11
2076.173443416548
 21
1335.934389521472
 31
0.0
  0
LINE
  5
934
330
1F
100
AcDbEntity
  8
AM_VIS
100
AcDbLine
 10
2077.173443384731
 20
1339.734389539603
 30
0.0
 11
2076.37344338473
 21
1339.734389539603
 31
0.0
  0
LINE
  5
935
330
1F
100
AcDbEntity
  8
AM_VIS
100
AcDbLine
 10
2077.673443384731
 20
1339.284389539603
 30
0.0
 11
2077.173443384731
 21
1339.734389539603
 31
0.0
  0
LINE
  5
936
330
1F
100
AcDbEntity
  8
AM_VIS
100
AcDbLine
 10
2079.773443384731
 20
1339.284389539603
 30
0.0
 11
2077.673443384731
 21
1339.284389539603
 31
0.0
  0
LINE
  5
937
330
1F
100
AcDbEntity
  8
AM_VIS
100
AcDbLine
 10
2081.473443384731
 20
1341.884389539603
 30
0.0
 11
2081.473443384731
 21
1340.984389539604
 31
0.0
  0
LINE
  5
938
330
1F
100
AcDbEntity
  8
AM_VIS
100
AcDbLine
 10
2077.673443384731
 20
1343.584389539604
 30
0.0
 11
2079.773443384731
 21
1343.584389539604
 31
0.0
  0
LINE
  5
939
330
1F
100
AcDbEntity
  8
AM_VIS
100
AcDbLine
 10
2077.173443384731
 20
1343.134389539604
 30
0.0
 11
2077.673443384731
 21
1343.584389539604
 31
0.0
  0
LINE
  5
93A
330
1F
100
AcDbEntity
  8
AM_VIS
100
AcDbLine
 10
2076.37344338473
 20
1343.134389539604
 30
0.0
 11
2077.173443384731
 21
1343.134389539604
 31
0.0
  0
LINE
  5
93B
330
1F
100
AcDbEntity
  8
AM_VIS
100
AcDbLine
 10
2078.473443384731
 20
1357.534389513546
 30
0.0
 11
2076.37344338473
 21
1357.534389513546
 31
0.0
  0
LINE
  5
93C
330
1F
100
AcDbEntity
  8
AM_VIS
100
AcDbLine
 10
2078.67344338473
 20
1366.334389513546
 30
0.0
 11
2078.67344338473
 21
1357.734389513546
 31
0.0
  0
LINE
  5
93D
330
1F
100
AcDbEntity
  8
AM_VIS
100
AcDbLine
 10
2077.57344338473
 20
1366.534389513546
 30
0.0
 11
2078.473443384731
 21
1366.534389513546
 31
0.0
  0
LINE
  5
93E
330
1F
100
AcDbEntity
  8
AM_VIS
100
AcDbLine
 10
2077.37344338473
 20
1365.034389513545
 30
0.0
 11
2077.37344338473
 21
1366.334389513545
 31
0.0
  0
LINE
  5
93F
330
1F
100
AcDbEntity
  8
AM_VIS
100
AcDbLine
 10
2076.37344338473
 20
1364.834389513546
 30
0.0
 11
2077.173443384731
 21
1364.834389513546
 31
0.0
  0
LINE
  5
940
330
1F
100
AcDbEntity
  8
AM_VIS
100
AcDbLine
 10
2076.173443416548
 20
1369.534389513546
 30
0.0
 11
2076.173443416548
 21
1365.034389513545
 31
0.0
  0
LINE
  5
941
330
1F
100
AcDbEntity
  8
AM_VIS
100
AcDbLine
 10
2077.173443384731
 20
1369.734389513546
 30
0.0
 11
2076.37344338473
 21
1369.734389513546
 31
0.0
  0
LINE
  5
942
330
1F
100
AcDbEntity
  8
AM_VIS
100
AcDbLine
 10
2077.673443384731
 20
1369.284389513546
 30
0.0
 11
2077.173443384731
 21
1369.734389513546
 31
0.0
  0
LINE
  5
943
330
1F
100
AcDbEntity
  8
AM_VIS
100
AcDbLine
 10
2079.773443384731
 20
1369.284389513546
 30
0.0
 11
2077.673443384731
 21
1369.284389513546
 31
0.0
  0
LINE
  5
944
330
1F
100
AcDbEntity
  8
AM_VIS
100
AcDbLine
 10
2081.473443384731
 20
1371.884389513546
 30
0.0
 11
2081.473443384731
 21
1370.984389513546
 31
0.0
  0
LINE
  5
945
330
1F
100
AcDbEntity
  8
AM_VIS
100
AcDbLine
 10
2077.673443384731
 20
1373.584389513546
 30
0.0
 11
2079.773443384731
 21
1373.584389513546
 31
0.0
  0
LINE
  5
946
330
1F
100
AcDbEntity
  8
AM_VIS
100
AcDbLine
 10
2077.173443384731
 20
1373.134389513546
 30
0.0
 11
2077.673443384731
 21
1373.584389513546
 31
0.0
  0
LINE
  5
947
330
1F
100
AcDbEntity
  8
AM_VIS
100
AcDbLine
 10
2076.37344338473
 20
1373.134389513546
 30
0.0
 11
2077.173443384731
 21
1373.134389513546
 31
0.0
  0
LINE
  5
948
330
1F
100
AcDbEntity
  8
AM_VIS
100
AcDbLine
 10
2076.173443416548
 20
1376.934389511472
 30
0.0
 11
2076.173443416548
 21
1373.334389513546
 31
0.0
  0
LINE
  5
949
330
1F
100
AcDbEntity
  8
AM_VIS
100
AcDbLine
 10
2075.173443415257
 20
1377.934389512821
 30
0.0
 11
2076.173443416548
 21
1376.934389511472
 31
0.0
  0
LINE
  5
94A
330
1F
100
AcDbEntity
  8
AM_VIS
100
AcDbLine
 10
2075.173443415257
 20
1385.157202742822
 30
0.0
 11
2075.173443415257
 21
1377.934389512821
 31
0.0
  0
LINE
  5
94B
330
1F
100
AcDbEntity
  8
AM_VIS
100
AcDbLine
 10
2085.67344346673
 20
1388.434389514129
 30
0.0
 11
2078.45063018673
 21
1388.434389514129
 31
0.0
  0
LINE
  5
94C
330
1F
100
AcDbEntity
  8
AM_VIS
100
AcDbLine
 10
2086.67344343673
 20
1387.434389544072
 30
0.0
 11
2085.67344346673
 21
1388.434389514129
 31
0.0
  0
LINE
  5
94D
330
1F
100
AcDbEntity
  8
AM_VIS
100
AcDbLine
 10
2090.273443441315
 20
1387.434389544072
 30
0.0
 11
2086.67344343673
 21
1387.434389544072
 31
0.0
  0
LINE
  5
94E
330
1F
100
AcDbEntity
  8
AM_VIS
100
AcDbLine
 10
2090.473443441315
 20
1386.434389544072
 30
0.0
 11
2090.473443441315
 21
1387.234389544072
 31
0.0
  0
LINE
  5
94F
330
1F
100
AcDbEntity
  8
AM_VIS
100
AcDbLine
 10
2090.023443441315
 20
1385.934389544072
 30
0.0
 11
2090.473443441315
 21
1386.434389544072
 31
0.0
  0
LINE
  5
950
330
1F
100
AcDbEntity
  8
AM_VIS
100
AcDbLine
 10
2090.023443441315
 20
1383.834389544072
 30
0.0
 11
2090.023443441315
 21
1385.934389544072
 31
0.0
  0
LINE
  5
951
330
1F
100
AcDbEntity
  8
AM_VIS
100
AcDbLine
 10
2092.623443441315
 20
1382.134389544072
 30
0.0
 11
2091.723443441315
 21
1382.134389544072
 31
0.0
  0
LINE
  5
952
330
1F
100
AcDbEntity
  8
AM_VIS
100
AcDbLine
 10
2094.323443441314
 20
1385.934389544072
 30
0.0
 11
2094.323443441314
 21
1383.834389544072
 31
0.0
  0
LINE
  5
953
330
1F
100
AcDbEntity
  8
AM_VIS
100
AcDbLine
 10
2093.873443441315
 20
1386.434389544072
 30
0.0
 11
2094.323443441314
 21
1385.934389544072
 31
0.0
  0
LINE
  5
954
330
1F
100
AcDbEntity
  8
AM_VIS
100
AcDbLine
 10
2093.873443441315
 20
1387.234389544072
 30
0.0
 11
2093.873443441315
 21
1386.434389544072
 31
0.0
  0
LINE
  5
955
330
1F
100
AcDbEntity
  8
AM_VIS
100
AcDbLine
 10
2096.17344343673
 20
1387.434389544072
 30
0.0
 11
2094.073443441315
 21
1387.434389544072
 31
0.0
  0
LINE
  5
956
330
1F
100
AcDbEntity
  8
AM_VIS
100
AcDbLine
 10
2097.68352791673
 20
1395.272226841321
 30
0.0
 11
2096.17344343673
 21
1387.434389544072
 31
0.0
  0
LINE
  5
957
330
1F
100
AcDbEntity
  8
AM_VIS
100
AcDbLine
 10
2118.17344343619
 20
1387.434389544072
 30
0.0
 11
2116.66335890619
 21
1395.272226842523
 31
0.0
  0
LINE
  5
958
330
1F
100
AcDbEntity
  8
AM_VIS
100
AcDbLine
 10
2120.273443415257
 20
1387.434389544072
 30
0.0
 11
2118.17344343619
 21
1387.434389544072
 31
0.0
  0
LINE
  5
959
330
1F
100
AcDbEntity
  8
AM_VIS
100
AcDbLine
 10
2120.473443415257
 20
1386.434389544072
 30
0.0
 11
2120.473443415257
 21
1387.234389544072
 31
0.0
  0
LINE
  5
95A
330
1F
100
AcDbEntity
  8
AM_VIS
100
AcDbLine
 10
2120.023443415257
 20
1385.934389544072
 30
0.0
 11
2120.473443415257
 21
1386.434389544072
 31
0.0
  0
LINE
  5
95B
330
1F
100
AcDbEntity
  8
AM_VIS
100
AcDbLine
 10
2120.023443415257
 20
1383.834389544072
 30
0.0
 11
2120.023443415257
 21
1385.934389544072
 31
0.0
  0
LINE
  5
95C
330
1F
100
AcDbEntity
  8
AM_VIS
100
AcDbLine
 10
2122.623443415257
 20
1382.134389544072
 30
0.0
 11
2121.723443415257
 21
1382.134389544072
 31
0.0
  0
LINE
  5
95D
330
1F
100
AcDbEntity
  8
AM_VIS
100
AcDbLine
 10
2124.323443415256
 20
1385.934389544072
 30
0.0
 11
2124.323443415256
 21
1383.834389544072
 31
0.0
  0
LINE
  5
95E
330
1F
100
AcDbEntity
  8
AM_VIS
100
AcDbLine
 10
2123.873443415257
 20
1386.434389544072
 30
0.0
 11
2124.323443415256
 21
1385.934389544072
 31
0.0
  0
LINE
  5
95F
330
1F
100
AcDbEntity
  8
AM_VIS
100
AcDbLine
 10
2123.873443415257
 20
1387.234389544072
 30
0.0
 11
2123.873443415257
 21
1386.434389544072
 31
0.0
  0
LINE
  5
960
330
1F
100
AcDbEntity
  8
AM_VIS
100
AcDbLine
 10
2127.67344343619
 20
1387.434389544072
 30
0.0
 11
2124.073443415257
 21
1387.434389544072
 31
0.0
  0
LINE
  5
961
330
1F
100
AcDbEntity
  8
AM_VIS
100
AcDbLine
 10
2128.67344340619
 20
1388.434389514129
 30
0.0
 11
2127.67344343619
 21
1387.434389544072
 31
0.0
  0
LINE
  5
962
330
1F
100
AcDbEntity
  8
AM_VIS
100
AcDbLine
 10
2135.896256646191
 20
1388.434389514129
 30
0.0
 11
2128.67344340619
 21
1388.434389514129
 31
0.0
  0
LINE
  5
963
330
1F
100
AcDbEntity
  8
AM_VIS
100
AcDbLine
 10
2139.173443441315
 20
1377.934389546472
 30
0.0
 11
2139.173443441315
 21
1385.157202716472
 31
0.0
  0
LINE
  5
964
330
1F
100
AcDbEntity
  8
AM_VIS
100
AcDbLine
 10
2138.173443431372
 20
1376.934389536472
 30
0.0
 11
2139.173443441314
 21
1377.934389546473
 31
0.0
  0
LINE
  5
965
330
1F
100
AcDbEntity
  8
AM_VIS
100
AcDbLine
 10
2138.173443431372
 20
1373.334389487488
 30
0.0
 11
2138.173443431372
 21
1376.934389536472
 31
0.0
  0
LINE
  5
966
330
1F
100
AcDbEntity
  8
AM_VIS
100
AcDbLine
 10
2137.173443445783
 20
1373.134389487488
 30
0.0
 11
2137.973443445783
 21
1373.134389487488
 31
0.0
  0
LINE
  5
967
330
1F
100
AcDbEntity
  8
AM_VIS
100
AcDbLine
 10
2136.673443445783
 20
1373.584389487488
 30
0.0
 11
2137.173443445783
 21
1373.134389487488
 31
0.0
  0
LINE
  5
968
330
1F
100
AcDbEntity
  8
AM_VIS
100
AcDbLine
 10
2134.573443445783
 20
1373.584389487488
 30
0.0
 11
2136.673443445783
 21
1373.584389487488
 31
0.0
  0
LINE
  5
969
330
1F
100
AcDbEntity
  8
AM_VIS
100
AcDbLine
 10
2132.873443445783
 20
1370.984389487488
 30
0.0
 11
2132.873443445783
 21
1371.884389487488
 31
0.0
  0
LINE
  5
96A
330
1F
100
AcDbEntity
  8
AM_VIS
100
AcDbLine
 10
2136.673443445783
 20
1369.284389487488
 30
0.0
 11
2134.573443445783
 21
1369.284389487488
 31
0.0
  0
LINE
  5
96B
330
1F
100
AcDbEntity
  8
AM_VIS
100
AcDbLine
 10
2137.173443445783
 20
1369.734389487488
 30
0.0
 11
2136.673443445783
 21
1369.284389487488
 31
0.0
  0
LINE
  5
96C
330
1F
100
AcDbEntity
  8
AM_VIS
100
AcDbLine
 10
2137.973443445783
 20
1369.734389487488
 30
0.0
 11
2137.173443445783
 21
1369.734389487488
 31
0.0
  0
LINE
  5
96D
330
1F
100
AcDbEntity
  8
AM_VIS
100
AcDbLine
 10
2138.173443431372
 20
1365.034389512962
 30
0.0
 11
2138.173443431372
 21
1369.534389487488
 31
0.0
  0
LINE
  5
96E
330
1F
100
AcDbEntity
  8
AM_VIS
100
AcDbLine
 10
2098.773443415256
 20
1325.63438948302
 30
0.0
 11
2098.773443415256
 21
1326.43438948302
 31
0.0
  0
LINE
  5
96F
330
1F
100
AcDbEntity
  8
AM_VIS
100
AcDbLine
 10
2098.573443415256
 20
1326.63438948302
 30
0.0
 11
2097.273443415257
 21
1326.63438948302
 31
0.0
  0
LINE
  5
970
330
1F
100
AcDbEntity
  8
AM_VIS
100
AcDbLine
 10
2097.073443415256
 20
1326.83438948302
 30
0.0
 11
2097.073443415256
 21
1327.734389483019
 31
0.0
  0
LINE
  5
971
330
1F
100
AcDbEntity
  8
AM_VIS
100
AcDbLine
 10
2097.273443415257
 20
1327.93438948302
 30
0.0
 11
2105.873443415257
 21
1327.93438948302
 31
0.0
  0
LINE
  5
972
330
1F
100
AcDbEntity
  8
AM_VIS
100
AcDbLine
 10
2106.073443415256
 20
1327.734389483019
 30
0.0
 11
2106.073443415256
 21
1325.63438948302
 31
0.0
  0
LINE
  5
973
330
1F
100
AcDbEntity
  8
AM_VIS
100
AcDbLine
 10
2137.973443445783
 20
1348.034389513546
 30
0.0
 11
2137.173443445783
 21
1348.034389513546
 31
0.0
  0
LINE
  5
974
330
1F
100
AcDbEntity
  8
AM_VIS
100
AcDbLine
 10
2136.973443445782
 20
1347.834389513546
 30
0.0
 11
2136.973443445782
 21
1346.534389513546
 31
0.0
  0
LINE
  5
975
330
1F
100
AcDbEntity
  8
AM_VIS
100
AcDbLine
 10
2136.773443445783
 20
1346.334389513545
 30
0.0
 11
2135.873443445783
 21
1346.334389513545
 31
0.0
  0
LINE
  5
976
330
1F
100
AcDbEntity
  8
AM_VIS
100
AcDbLine
 10
2135.673443445783
 20
1346.534389513546
 30
0.0
 11
2135.673443445783
 21
1355.134389513546
 31
0.0
  0
LINE
  5
977
330
1F
100
AcDbEntity
  8
AM_VIS
100
AcDbLine
 10
2135.873443445783
 20
1355.334389513546
 30
0.0
 11
2137.973443445783
 21
1355.334389513546
 31
0.0
  0
LINE
  5
978
330
1F
100
AcDbEntity
  8
AM_VIS
100
AcDbLine
 10
2076.173443416548
 20
1347.834389514129
 30
0.0
 11
2076.173443416548
 21
1343.334389539603
 31
0.0
  0
LINE
  5
979
330
1F
100
AcDbEntity
  8
AM_VIS
100
AcDbLine
 10
2076.173443416548
 20
1357.334389513546
 30
0.0
 11
2076.173443416548
 21
1355.534389514129
 31
0.0
  0
LINE
  5
97A
330
1F
100
AcDbEntity
  8
AM_VIS
100
AcDbLine
 10
2078.67344338473
 20
1355.134389514129
 30
0.0
 11
2078.67344338473
 21
1346.534389514129
 31
0.0
  0
LINE
  5
97B
330
1F
100
AcDbEntity
  8
AM_VIS
100
AcDbLine
 10
2078.473443384731
 20
1346.334389514129
 30
0.0
 11
2077.57344338473
 21
1346.334389514129
 31
0.0
  0
LINE
  5
97C
330
1F
100
AcDbEntity
  8
AM_VIS
100
AcDbLine
 10
2077.37344338473
 20
1346.534389514129
 30
0.0
 11
2077.37344338473
 21
1347.834389514129
 31
0.0
  0
LINE
  5
97D
330
1F
100
AcDbEntity
  8
AM_VIS
100
AcDbLine
 10
2077.173443384731
 20
1348.034389514129
 30
0.0
 11
2076.37344338473
 21
1348.034389514129
 31
0.0
  0
LINE
  5
97E
330
1F
100
AcDbEntity
  8
AM_VIS
100
AcDbLine
 10
2076.37344338473
 20
1355.334389514129
 30
0.0
 11
2078.47344338473
 21
1355.334389514129
 31
0.0
  0
LINE
  5
97F
330
1F
100
AcDbEntity
  8
AM_VIS
100
AcDbLine
 10
2106.273443415257
 20
1325.434389513603
 30
0.0
 11
2108.073443414673
 21
1325.434389513603
 31
0.0
  0
LINE
  5
980
330
1F
100
AcDbEntity
  8
AM_VIS
100
AcDbLine
 10
2138.173443431372
 20
1355.534389513545
 30
0.0
 11
2138.173443431372
 21
1357.334389512962
 31
0.0
  0
LINE
  5
981
330
1F
100
AcDbEntity
  8
AM_VIS
100
AcDbLine
 10
2108.473443414673
 20
1327.934389483019
 30
0.0
 11
2117.073443414673
 21
1327.934389483019
 31
0.0
  0
LINE
  5
982
330
1F
100
AcDbEntity
  8
AM_VIS
100
AcDbLine
 10
2117.273443414673
 20
1327.734389483019
 30
0.0
 11
2117.273443414673
 21
1326.834389483019
 31
0.0
  0
LINE
  5
983
330
1F
100
AcDbEntity
  8
AM_VIS
100
AcDbLine
 10
2117.073443414673
 20
1326.634389483019
 30
0.0
 11
2115.773443414673
 21
1326.634389483019
 31
0.0
  0
LINE
  5
984
330
1F
100
AcDbEntity
  8
AM_VIS
100
AcDbLine
 10
2115.573443414673
 20
1326.434389483019
 30
0.0
 11
2115.573443414673
 21
1325.63438948302
 31
0.0
  0
LINE
  5
985
330
1F
100
AcDbEntity
  8
AM_VIS
100
AcDbLine
 10
2108.273443414673
 20
1325.63438948302
 30
0.0
 11
2108.273443414673
 21
1327.734389483019
 31
0.0
  0
LINE
  5
986
330
1F
100
AcDbEntity
  8
AM_VIS
100
AcDbLine
 10
2135.673443445783
 20
1357.734389512962
 30
0.0
 11
2135.673443445783
 21
1366.334389512962
 31
0.0
  0
LINE
  5
987
330
1F
100
AcDbEntity
  8
AM_VIS
100
AcDbLine
 10
2135.873443445783
 20
1366.534389512962
 30
0.0
 11
2136.773443445783
 21
1366.534389512962
 31
0.0
  0
LINE
  5
988
330
1F
100
AcDbEntity
  8
AM_VIS
100
AcDbLine
 10
2136.973443445783
 20
1366.334389512962
 30
0.0
 11
2136.973443445783
 21
1365.034389512962
 31
0.0
  0
LINE
  5
989
330
1F
100
AcDbEntity
  8
AM_VIS
100
AcDbLine
 10
2137.173443445783
 20
1364.834389512962
 30
0.0
 11
2137.973443445783
 21
1364.834389512962
 31
0.0
  0
LINE
  5
98A
330
1F
100
AcDbEntity
  8
AM_VIS
100
AcDbLine
 10
2137.973443445783
 20
1357.534389512962
 30
0.0
 11
2135.873443445783
 21
1357.534389512962
 31
0.0
  0
LINE
  5
98B
330
1F
100
AcDbEntity
  8
AM_VIS
100
AcDbLine
 10
2116.466970676576
 20
1395.434389514129
 30
0.0
 11
2097.879916146576
 21
1395.434389514129
 31
0.0
  0
ARC
  5
98C
330
1F
100
AcDbEntity
  8
AM_VIS
100
AcDbCircle
 10
2137.973443445783
 20
1343.334389513546
 30
0.0
 40
0.1999999999999886
100
AcDbArc
 50
270.0
 51
0.0
  0
ARC
  5
98D
330
1F
100
AcDbEntity
  8
AM_VIS
100
AcDbCircle
 10
2134.573443445783
 20
1341.884389513545
 30
0.0
 40
1.7
100
AcDbArc
 50
90.0
 51
180.0
  0
ARC
  5
98E
330
1F
100
AcDbEntity
  8
AM_VIS
100
AcDbCircle
 10
2134.573443445783
 20
1340.984389513546
 30
0.0
 40
1.7
100
AcDbArc
 50
180.0
 51
270.0
  0
ARC
  5
98F
330
1F
100
AcDbEntity
  8
AM_VIS
100
AcDbCircle
 10
2137.973443445783
 20
1339.534389513545
 30
0.0
 40
0.2
100
AcDbArc
 50
0.0
 51
90.0
  0
ARC
  5
990
102
{ACAD_REACTORS
330
EE8
102
}
330
1F
100
AcDbEntity
  8
AM_VIS
100
AcDbCircle
 10
2107.17344341646
 20
1356.434389511472
 30
0.0
 40
43.0
100
AcDbArc
 50
311.9107659534687
 51
318.0892341002417
  0
ARC
  5
991
330
1F
100
AcDbEntity
  8
AM_VIS
100
AcDbCircle
 10
2124.073443389198
 20
1325.63438948302
 30
0.0
 40
0.2
100
AcDbArc
 50
180.0
 51
270.0
  0
ARC
  5
992
330
1F
100
AcDbEntity
  8
AM_VIS
100
AcDbCircle
 10
2122.623443389199
 20
1329.034389483019
 30
0.0
 40
1.7
100
AcDbArc
 50
0.0
 51
90.0
  0
ARC
  5
993
330
1F
100
AcDbEntity
  8
AM_VIS
100
AcDbCircle
 10
2121.723443389198
 20
1329.034389483019
 30
0.0
 40
1.7
100
AcDbArc
 50
90.0
 51
180.0
  0
ARC
  5
994
330
1F
100
AcDbEntity
  8
AM_VIS
100
AcDbCircle
 10
2120.273443389199
 20
1325.63438948302
 30
0.0
 40
0.1999999999999886
100
AcDbArc
 50
270.0
 51
0.0
  0
ARC
  5
995
330
1F
100
AcDbEntity
  8
AM_VIS
100
AcDbCircle
 10
2094.073443415256
 20
1325.63438948302
 30
0.0
 40
0.1999999999999886
100
AcDbArc
 50
180.0
 51
270.0
  0
ARC
  5
996
330
1F
100
AcDbEntity
  8
AM_VIS
100
AcDbCircle
 10
2092.623443415257
 20
1329.034389483019
 30
0.0
 40
1.7
100
AcDbArc
 50
0.0
 51
90.0
  0
ARC
  5
997
330
1F
100
AcDbEntity
  8
AM_VIS
100
AcDbCircle
 10
2091.723443415256
 20
1329.034389483019
 30
0.0
 40
1.7
100
AcDbArc
 50
90.0
 51
180.0
  0
ARC
  5
998
330
1F
100
AcDbEntity
  8
AM_VIS
100
AcDbCircle
 10
2090.273443415256
 20
1325.63438948302
 30
0.0
 40
0.2
100
AcDbArc
 50
270.0
 51
0.0
  0
ARC
  5
999
102
{ACAD_REACTORS
330
EE8
102
}
330
1F
100
AcDbEntity
  8
AM_VIS
100
AcDbCircle
 10
2107.17344341646
 20
1356.434389511472
 30
0.0
 40
43.0
100
AcDbArc
 50
221.9107659469276
 51
228.0892340465313
  0
ARC
  5
99A
330
1F
100
AcDbEntity
  8
AM_VIS
100
AcDbCircle
 10
2076.37344338473
 20
1339.534389539603
 30
0.0
 40
0.2
100
AcDbArc
 50
90.0
 51
180.0
  0
ARC
  5
99B
330
1F
100
AcDbEntity
  8
AM_VIS
100
AcDbCircle
 10
2079.773443384731
 20
1340.984389539604
 30
0.0
 40
1.7
100
AcDbArc
 50
270.0
 51
0.0
  0
ARC
  5
99C
330
1F
100
AcDbEntity
  8
AM_VIS
100
AcDbCircle
 10
2079.773443384731
 20
1341.884389539603
 30
0.0
 40
1.7
100
AcDbArc
 50
0.0
 51
90.0
  0
ARC
  5
99D
330
1F
100
AcDbEntity
  8
AM_VIS
100
AcDbCircle
 10
2076.37344338473
 20
1343.334389539603
 30
0.0
 40
0.1999999999999886
100
AcDbArc
 50
180.0
 51
270.0
  0
ARC
  5
99E
330
1F
100
AcDbEntity
  8
AM_VIS
100
AcDbCircle
 10
2076.37344338473
 20
1357.334389513546
 30
0.0
 40
0.2
100
AcDbArc
 50
90.0
 51
180.0
  0
ARC
  5
99F
330
1F
100
AcDbEntity
  8
AM_VIS
100
AcDbCircle
 10
2078.473443384731
 20
1357.734389513546
 30
0.0
 40
0.2
100
AcDbArc
 50
270.0
 51
0.0
  0
ARC
  5
9A0
330
1F
100
AcDbEntity
  8
AM_VIS
100
AcDbCircle
 10
2078.473443384731
 20
1366.334389513545
 30
0.0
 40
0.2
100
AcDbArc
 50
0.0
 51
90.0
  0
ARC
  5
9A1
330
1F
100
AcDbEntity
  8
AM_VIS
100
AcDbCircle
 10
2077.57344338473
 20
1366.334389513545
 30
0.0
 40
0.2
100
AcDbArc
 50
90.0
 51
180.0
  0
ARC
  5
9A2
330
1F
100
AcDbEntity
  8
AM_VIS
100
AcDbCircle
 10
2077.173443384731
 20
1365.034389513545
 30
0.0
 40
0.2
100
AcDbArc
 50
270.0
 51
0.0
  0
ARC
  5
9A3
330
1F
100
AcDbEntity
  8
AM_VIS
100
AcDbCircle
 10
2076.37344338473
 20
1365.034389513545
 30
0.0
 40
0.2
100
AcDbArc
 50
180.0
 51
270.0
  0
ARC
  5
9A4
330
1F
100
AcDbEntity
  8
AM_VIS
100
AcDbCircle
 10
2076.37344338473
 20
1369.534389513546
 30
0.0
 40
0.1999999999999886
100
AcDbArc
 50
90.0
 51
180.0
  0
ARC
  5
9A5
330
1F
100
AcDbEntity
  8
AM_VIS
100
AcDbCircle
 10
2079.773443384731
 20
1370.984389513546
 30
0.0
 40
1.7
100
AcDbArc
 50
270.0
 51
0.0
  0
ARC
  5
9A6
330
1F
100
AcDbEntity
  8
AM_VIS
100
AcDbCircle
 10
2079.773443384731
 20
1371.884389513546
 30
0.0
 40
1.7
100
AcDbArc
 50
0.0
 51
90.0
  0
ARC
  5
9A7
330
1F
100
AcDbEntity
  8
AM_VIS
100
AcDbCircle
 10
2076.37344338473
 20
1373.334389513546
 30
0.0
 40
0.2
100
AcDbArc
 50
180.0
 51
270.0
  0
ARC
  5
9A8
330
1F
100
AcDbEntity
  8
AM_VIS
100
AcDbCircle
 10
2107.17344341646
 20
1356.434389511472
 30
0.0
 40
43.0
100
AcDbArc
 50
131.9107659440303
 51
138.0892340530724
  0
ARC
  5
9A9
330
1F
100
AcDbEntity
  8
AM_VIS
100
AcDbCircle
 10
2090.273443441315
 20
1387.234389544072
 30
0.0
 40
0.2
100
AcDbArc
 50
0.0
 51
90.0
  0
ARC
  5
9AA
330
1F
100
AcDbEntity
  8
AM_VIS
100
AcDbCircle
 10
2091.723443441315
 20
1383.834389544072
 30
0.0
 40
1.7
100
AcDbArc
 50
180.0
 51
270.0
  0
ARC
  5
9AB
330
1F
100
AcDbEntity
  8
AM_VIS
100
AcDbCircle
 10
2092.623443441315
 20
1383.834389544072
 30
0.0
 40
1.7
100
AcDbArc
 50
270.0
 51
0.0
  0
ARC
  5
9AC
330
1F
100
AcDbEntity
  8
AM_VIS
100
AcDbCircle
 10
2094.073443441315
 20
1387.234389544072
 30
0.0
 40
0.1999999999999886
100
AcDbArc
 50
90.0
 51
180.0
  0
ARC
  5
9AD
330
1F
100
AcDbEntity
  8
AM_VIS
100
AcDbCircle
 10
2097.879916146576
 20
1395.234389513667
 30
0.0
 40
0.200000000465813
100
AcDbArc
 50
90.0
 51
169.0946788737935
  0
ARC
  5
9AE
102
{ACAD_REACTORS
330
F55
102
}
330
1F
100
AcDbEntity
  8
AM_VIS
100
AcDbCircle
 10
2116.466970676576
 20
1395.234389513667
 30
0.0
 40
0.200000000465813
100
AcDbArc
 50
10.90532147698948
 51
90.0
  0
ARC
  5
9AF
330
1F
100
AcDbEntity
  8
AM_VIS
100
AcDbCircle
 10
2120.273443415257
 20
1387.234389544072
 30
0.0
 40
0.1999999999999886
100
AcDbArc
 50
0.0
 51
90.0
  0
ARC
  5
9B0
330
1F
100
AcDbEntity
  8
AM_VIS
100
AcDbCircle
 10
2121.723443415257
 20
1383.834389544072
 30
0.0
 40
1.7
100
AcDbArc
 50
180.0
 51
270.0
  0
ARC
  5
9B1
330
1F
100
AcDbEntity
  8
AM_VIS
100
AcDbCircle
 10
2122.623443415257
 20
1383.834389544072
 30
0.0
 40
1.7
100
AcDbArc
 50
270.0
 51
0.0
  0
ARC
  5
9B2
330
1F
100
AcDbEntity
  8
AM_VIS
100
AcDbCircle
 10
2124.073443415257
 20
1387.234389544072
 30
0.0
 40
0.2
100
AcDbArc
 50
90.0
 51
180.0
  0
ARC
  5
9B3
330
1F
100
AcDbEntity
  8
AM_VIS
100
AcDbCircle
 10
2107.17344341646
 20
1356.434389511472
 30
0.0
 40
43.0
100
AcDbArc
 50
41.91076589975826
 51
48.08923405596964
  0
ARC
  5
9B4
330
1F
100
AcDbEntity
  8
AM_VIS
100
AcDbCircle
 10
2137.973443445783
 20
1373.334389487488
 30
0.0
 40
0.2
100
AcDbArc
 50
270.0
 51
0.0
  0
ARC
  5
9B5
330
1F
100
AcDbEntity
  8
AM_VIS
100
AcDbCircle
 10
2134.573443445783
 20
1371.884389487488
 30
0.0
 40
1.7
100
AcDbArc
 50
90.0
 51
180.0
  0
ARC
  5
9B6
330
1F
100
AcDbEntity
  8
AM_VIS
100
AcDbCircle
 10
2134.573443445783
 20
1370.984389487488
 30
0.0
 40
1.7
100
AcDbArc
 50
180.0
 51
270.0
  0
ARC
  5
9B7
330
1F
100
AcDbEntity
  8
AM_VIS
100
AcDbCircle
 10
2137.973443445783
 20
1369.534389487488
 30
0.0
 40
0.1999999999999886
100
AcDbArc
 50
0.0
 51
90.0
  0
ARC
  5
9B8
330
1F
100
AcDbEntity
  8
AM_VIS
100
AcDbCircle
 10
2106.273443415257
 20
1325.63438948302
 30
0.0
 40
0.2
100
AcDbArc
 50
180.0
 51
270.0
  0
ARC
  5
9B9
330
1F
100
AcDbEntity
  8
AM_VIS
100
AcDbCircle
 10
2098.573443415256
 20
1325.63438948302
 30
0.0
 40
0.2
100
AcDbArc
 50
270.0
 51
0.0
  0
ARC
  5
9BA
330
1F
100
AcDbEntity
  8
AM_VIS
100
AcDbCircle
 10
2098.573443415256
 20
1326.43438948302
 30
0.0
 40
0.2
100
AcDbArc
 50
0.0
 51
90.0
  0
ARC
  5
9BB
330
1F
100
AcDbEntity
  8
AM_VIS
100
AcDbCircle
 10
2097.273443415257
 20
1326.83438948302
 30
0.0
 40
0.2
100
AcDbArc
 50
180.0
 51
270.0
  0
ARC
  5
9BC
330
1F
100
AcDbEntity
  8
AM_VIS
100
AcDbCircle
 10
2097.273443415257
 20
1327.734389483019
 30
0.0
 40
0.2
100
AcDbArc
 50
90.0
 51
180.0
  0
ARC
  5
9BD
330
1F
100
AcDbEntity
  8
AM_VIS
100
AcDbCircle
 10
2105.873443415257
 20
1327.734389483019
 30
0.0
 40
0.2
100
AcDbArc
 50
0.0
 51
90.0
  0
ARC
  5
9BE
330
1F
100
AcDbEntity
  8
AM_VIS
100
AcDbCircle
 10
2137.973443445783
 20
1355.534389513545
 30
0.0
 40
0.2
100
AcDbArc
 50
270.0
 51
0.0
  0
ARC
  5
9BF
330
1F
100
AcDbEntity
  8
AM_VIS
100
AcDbCircle
 10
2137.973443445783
 20
1347.834389513546
 30
0.0
 40
0.2
100
AcDbArc
 50
0.0
 51
90.0
  0
ARC
  5
9C0
330
1F
100
AcDbEntity
  8
AM_VIS
100
AcDbCircle
 10
2137.173443445783
 20
1347.834389513546
 30
0.0
 40
0.2
100
AcDbArc
 50
90.0
 51
180.0
  0
ARC
  5
9C1
330
1F
100
AcDbEntity
  8
AM_VIS
100
AcDbCircle
 10
2136.773443445783
 20
1346.534389513546
 30
0.0
 40
0.2
100
AcDbArc
 50
270.0
 51
0.0
  0
ARC
  5
9C2
330
1F
100
AcDbEntity
  8
AM_VIS
100
AcDbCircle
 10
2135.873443445783
 20
1346.534389513546
 30
0.0
 40
0.2
100
AcDbArc
 50
180.0
 51
270.0
  0
ARC
  5
9C3
330
1F
100
AcDbEntity
  8
AM_VIS
100
AcDbCircle
 10
2135.873443445783
 20
1355.134389513546
 30
0.0
 40
0.2
100
AcDbArc
 50
90.0
 51
180.0
  0
ARC
  5
9C4
330
1F
100
AcDbEntity
  8
AM_VIS
100
AcDbCircle
 10
2078.47344338473
 20
1355.134389514129
 30
0.0
 40
0.2
100
AcDbArc
 50
0.0
 51
90.0
  0
ARC
  5
9C5
330
1F
100
AcDbEntity
  8
AM_VIS
100
AcDbCircle
 10
2078.473443384731
 20
1346.534389514129
 30
0.0
 40
0.2
100
AcDbArc
 50
270.0
 51
0.0
  0
ARC
  5
9C6
330
1F
100
AcDbEntity
  8
AM_VIS
100
AcDbCircle
 10
2077.57344338473
 20
1346.534389514129
 30
0.0
 40
0.2
100
AcDbArc
 50
180.0
 51
270.0
  0
ARC
  5
9C7
330
1F
100
AcDbEntity
  8
AM_VIS
100
AcDbCircle
 10
2077.173443384731
 20
1347.834389514129
 30
0.0
 40
0.2
100
AcDbArc
 50
0.0
 51
90.0
  0
ARC
  5
9C8
330
1F
100
AcDbEntity
  8
AM_VIS
100
AcDbCircle
 10
2076.37344338473
 20
1347.834389514129
 30
0.0
 40
0.2
100
AcDbArc
 50
90.0
 51
180.0
  0
ARC
  5
9C9
330
1F
100
AcDbEntity
  8
AM_VIS
100
AcDbCircle
 10
2076.37344338473
 20
1355.534389514129
 30
0.0
 40
0.2
100
AcDbArc
 50
180.0
 51
270.0
  0
ARC
  5
9CA
330
1F
100
AcDbEntity
  8
AM_VIS
100
AcDbCircle
 10
2108.473443414673
 20
1327.734389483019
 30
0.0
 40
0.2
100
AcDbArc
 50
90.0
 51
180.0
  0
ARC
  5
9CB
330
1F
100
AcDbEntity
  8
AM_VIS
100
AcDbCircle
 10
2117.073443414673
 20
1327.734389483019
 30
0.0
 40
0.2
100
AcDbArc
 50
0.0
 51
90.0
  0
ARC
  5
9CC
330
1F
100
AcDbEntity
  8
AM_VIS
100
AcDbCircle
 10
2117.073443414673
 20
1326.834389483019
 30
0.0
 40
0.2
100
AcDbArc
 50
270.0
 51
0.0
  0
ARC
  5
9CD
330
1F
100
AcDbEntity
  8
AM_VIS
100
AcDbCircle
 10
2115.773443414673
 20
1326.434389483019
 30
0.0
 40
0.2
100
AcDbArc
 50
90.0
 51
180.0
  0
ARC
  5
9CE
330
1F
100
AcDbEntity
  8
AM_VIS
100
AcDbCircle
 10
2115.773443414673
 20
1325.63438948302
 30
0.0
 40
0.2
100
AcDbArc
 50
180.0
 51
270.0
  0
ARC
  5
9CF
330
1F
100
AcDbEntity
  8
AM_VIS
100
AcDbCircle
 10
2108.073443414673
 20
1325.63438948302
 30
0.0
 40
0.2
100
AcDbArc
 50
270.0
 51
0.0
  0
ARC
  5
9D0
330
1F
100
AcDbEntity
  8
AM_VIS
100
AcDbCircle
 10
2135.873443445783
 20
1357.734389512962
 30
0.0
 40
0.2
100
AcDbArc
 50
180.0
 51
270.0
  0
ARC
  5
9D1
330
1F
100
AcDbEntity
  8
AM_VIS
100
AcDbCircle
 10
2135.873443445783
 20
1366.334389512962
 30
0.0
 40
0.2
100
AcDbArc
 50
90.0
 51
180.0
  0
ARC
  5
9D2
330
1F
100
AcDbEntity
  8
AM_VIS
100
AcDbCircle
 10
2136.773443445783
 20
1366.334389512962
 30
0.0
 40
0.2
100
AcDbArc
 50
0.0
 51
90.0
  0
ARC
  5
9D3
330
1F
100
AcDbEntity
  8
AM_VIS
100
AcDbCircle
 10
2137.173443445783
 20
1365.034389512962
 30
0.0
 40
0.2
100
AcDbArc
 50
180.0
 51
270.0
  0
ARC
  5
9D4
330
1F
100
AcDbEntity
  8
AM_VIS
100
AcDbCircle
 10
2137.973443445783
 20
1365.034389512962
 30
0.0
 40
0.2
100
AcDbArc
 50
270.0
 51
0.0
  0
ARC
  5
9D5
330
1F
100
AcDbEntity
  8
AM_VIS
100
AcDbCircle
 10
2137.973443445783
 20
1357.334389512962
 30
0.0
 40
0.2
100
AcDbArc
 50
0.0
 51
90.0
  0
CIRCLE
  5
9DF
330
1F
100
AcDbEntity
  8
AM_VIS
100
AcDbCircle
 10
2107.173443415257
 20
1356.434389513546
 30
0.0
 40
23.1
  0
LINE
  5
9E4
330
1F
100
AcDbEntity
  8
AM_VIS
100
AcDbLine
 10
2079.173443415257
 20
1316.434389513546
 30
0.0
 11
2074.173443415257
 21
1321.434389513546
 31
0.0
  0
LINE
  5
9E5
330
1F
100
AcDbEntity
  8
AM_VIS
100
AcDbLine
 10
2074.173443415257
 20
1391.434389513546
 30
0.0
 11
2074.173443415257
 21
1321.434389513546
 31
0.0
  0
LINE
  5
9E6
330
1F
100
AcDbEntity
  8
AM_VIS
100
AcDbLine
 10
2074.173443415257
 20
1391.434389513546
 30
0.0
 11
2079.173443415257
 21
1396.434389513546
 31
0.0
  0
LINE
  5
9E7
330
1F
100
AcDbEntity
  8
AM_VIS
100
AcDbLine
 10
2135.173443415257
 20
1396.434389513546
 30
0.0
 11
2079.173443415257
 21
1396.434389513546
 31
0.0
  0
LINE
  5
9E8
330
1F
100
AcDbEntity
  8
AM_VIS
100
AcDbLine
 10
2135.173443415257
 20
1396.434389513546
 30
0.0
 11
2140.173443415257
 21
1391.434389513546
 31
0.0
  0
LINE
  5
9E9
330
1F
100
AcDbEntity
  8
AM_VIS
100
AcDbLine
 10
2140.173443415257
 20
1321.434389513546
 30
0.0
 11
2140.173443415257
 21
1391.434389513546
 31
0.0
  0
LINE
  5
9EA
330
1F
100
AcDbEntity
  8
AM_VIS
100
AcDbLine
 10
2079.173443415257
 20
1316.434389513546
 30
0.0
 11
2135.173443415257
 21
1316.434389513546
 31
0.0
  0
LINE
  5
9EB
330
1F
100
AcDbEntity
  8
AM_VIS
100
AcDbLine
 10
2140.173443415257
 20
1321.434389513546
 30
0.0
 11
2135.173443415257
 21
1316.434389513546
 31
0.0
  0
LINE
  5
9EE
330
1F
100
AcDbEntity
  8
AM_VIS
100
AcDbLine
 10
2118.17344343619
 20
1421.901377303683
 30
0.0
 11
2118.17344343619
 21
1462.401377303683
 31
0.0
  0
LINE
  5
9EF
330
1F
100
AcDbEntity
  8
AM_VIS
100
AcDbLine
 10
2128.67344340619
 20
1421.901377303683
 30
0.0
 11
2128.67344340619
 21
1462.401377303683
 31
0.0
  0
LINE
  5
9F0
330
1F
100
AcDbEntity
  8
AM_VIS
100
AcDbLine
 10
2135.896256646191
 20
1421.901377303683
 30
0.0
 11
2135.896256646191
 21
1462.401377303683
 31
0.0
  0
LINE
  5
9F1
330
1F
100
AcDbEntity
  8
AM_VIS
100
AcDbLine
 10
2139.173443441315
 20
1421.901377303683
 30
0.0
 11
2139.173443441315
 21
1462.401377303683
 31
0.0
  0
LINE
  5
9F2
330
1F
100
AcDbEntity
  8
AM_VIS
100
AcDbLine
 10
2075.173443415257
 20
1421.901377303683
 30
0.0
 11
2075.173443415257
 21
1462.401377303683
 31
0.0
  0
LINE
  5
9F3
330
1F
100
AcDbEntity
  8
AM_VIS
100
AcDbLine
 10
2078.45063018673
 20
1421.901377303683
 30
0.0
 11
2078.45063018673
 21
1462.401377303683
 31
0.0
  0
LINE
  5
9F4
330
1F
100
AcDbEntity
  8
AM_VIS
100
AcDbLine
 10
2085.67344346673
 20
1421.901377303683
 30
0.0
 11
2085.67344346673
 21
1462.401377303683
 31
0.0
  0
LINE
  5
9F5
330
1F
100
AcDbEntity
  8
AM_VIS
100
AcDbLine
 10
2086.67344343673
 20
1421.901377303683
 30
0.0
 11
2086.67344343673
 21
1462.401377303683
 31
0.0
  0
LINE
  5
9F6
330
1F
100
AcDbEntity
  8
AM_VIS
100
AcDbLine
 10
2096.17344343673
 20
1421.901377303683
 30
0.0
 11
2096.17344343673
 21
1462.401377303683
 31
0.0
  0
LINE
  5
9F7
330
1F
100
AcDbEntity
  8
AM_VIS
100
AcDbLine
 10
2090.473443441315
 20
1421.901377303683
 30
0.0
 11
2090.473443441315
 21
1462.401377303683
 31
0.0
  0
LINE
  5
9F8
330
1F
100
AcDbEntity
  8
AM_VIS
100
AcDbLine
 10
2093.873443441315
 20
1421.901377303683
 30
0.0
 11
2093.873443441315
 21
1462.401377303683
 31
0.0
  0
LINE
  5
9F9
330
1F
100
AcDbEntity
  8
AM_VIS
100
AcDbLine
 10
2127.67344343619
 20
1421.901377303683
 30
0.0
 11
2127.67344343619
 21
1462.401377303683
 31
0.0
  0
LINE
  5
9FA
330
1F
100
AcDbEntity
  8
AM_VIS
100
AcDbLine
 10
2120.473443415257
 20
1421.901377303683
 30
0.0
 11
2120.473443415257
 21
1462.401377303683
 31
0.0
  0
LINE
  5
9FB
330
1F
100
AcDbEntity
  8
AM_VIS
100
AcDbLine
 10
2123.873443415257
 20
1421.901377303683
 30
0.0
 11
2123.873443415257
 21
1462.401377303683
 31
0.0
  0
LINE
  5
9FC
330
1F
100
AcDbEntity
  8
AM_VIS
100
AcDbLine
 10
2085.67344346673
 20
1421.901377303683
 30
0.0
 11
2078.45063018673
 21
1421.901377303683
 31
0.0
  0
LINE
  5
9FD
330
1F
100
AcDbEntity
  8
AM_VIS
100
AcDbLine
 10
2086.67344343673
 20
1421.901377303683
 30
0.0
 11
2085.67344346673
 21
1421.901377303683
 31
0.0
  0
LINE
  5
9FE
330
1F
100
AcDbEntity
  8
AM_VIS
100
AcDbLine
 10
2090.273443441315
 20
1421.901377303683
 30
0.0
 11
2086.67344343673
 21
1421.901377303683
 31
0.0
  0
LINE
  5
9FF
330
1F
100
AcDbEntity
  8
AM_VIS
100
AcDbLine
 10
2092.623443441315
 20
1421.901377303683
 30
0.0
 11
2091.723443441315
 21
1421.901377303683
 31
0.0
  0
LINE
  5
A00
330
1F
100
AcDbEntity
  8
AM_VIS
100
AcDbLine
 10
2096.17344343673
 20
1421.901377303683
 30
0.0
 11
2094.073443441315
 21
1421.901377303683
 31
0.0
  0
LINE
  5
A01
330
1F
100
AcDbEntity
  8
AM_VIS
100
AcDbLine
 10
2097.68352791673
 20
1421.901377303683
 30
0.0
 11
2096.17344343673
 21
1421.901377303683
 31
0.0
  0
LINE
  5
A02
330
1F
100
AcDbEntity
  8
AM_VIS
100
AcDbLine
 10
2118.17344343619
 20
1421.901377303683
 30
0.0
 11
2116.66335890619
 21
1421.901377303683
 31
0.0
  0
LINE
  5
A03
330
1F
100
AcDbEntity
  8
AM_VIS
100
AcDbLine
 10
2120.273443415257
 20
1421.901377303683
 30
0.0
 11
2118.17344343619
 21
1421.901377303683
 31
0.0
  0
LINE
  5
A04
330
1F
100
AcDbEntity
  8
AM_VIS
100
AcDbLine
 10
2122.623443415257
 20
1421.901377303683
 30
0.0
 11
2121.723443415257
 21
1421.901377303683
 31
0.0
  0
LINE
  5
A05
330
1F
100
AcDbEntity
  8
AM_VIS
100
AcDbLine
 10
2127.67344343619
 20
1421.901377303683
 30
0.0
 11
2124.073443415257
 21
1421.901377303683
 31
0.0
  0
LINE
  5
A06
330
1F
100
AcDbEntity
  8
AM_VIS
100
AcDbLine
 10
2128.67344340619
 20
1421.901377303683
 30
0.0
 11
2127.67344343619
 21
1421.901377303683
 31
0.0
  0
LINE
  5
A07
330
1F
100
AcDbEntity
  8
AM_VIS
100
AcDbLine
 10
2135.896256646191
 20
1421.901377303683
 30
0.0
 11
2128.67344340619
 21
1421.901377303683
 31
0.0
  0
LINE
  5
A08
330
1F
100
AcDbEntity
  8
AM_VIS
100
AcDbLine
 10
2116.466970676576
 20
1421.901377303683
 30
0.0
 11
2097.879916146576
 21
1421.901377303683
 31
0.0
  0
LINE
  5
A09
330
1F
100
AcDbEntity
  8
AM_VIS
100
AcDbLine
 10
2135.896256646191
 20
1462.401377303683
 30
0.0
 11
2128.67344340619
 21
1462.401377303683
 31
0.0
  0
LINE
  5
A0A
330
1F
100
AcDbEntity
  8
AM_VIS
100
AcDbLine
 10
2128.67344340619
 20
1462.401377303683
 30
0.0
 11
2127.67344343619
 21
1462.401377303683
 31
0.0
  0
LINE
  5
A0B
330
1F
100
AcDbEntity
  8
AM_VIS
100
AcDbLine
 10
2127.67344343619
 20
1462.401377303683
 30
0.0
 11
2124.073443415257
 21
1462.401377303683
 31
0.0
  0
LINE
  5
A0C
330
1F
100
AcDbEntity
  8
AM_VIS
100
AcDbLine
 10
2121.723443415257
 20
1462.401377303683
 30
0.0
 11
2122.623443415257
 21
1462.401377303683
 31
0.0
  0
LINE
  5
A0D
330
1F
100
AcDbEntity
  8
AM_VIS
100
AcDbLine
 10
2120.273443415257
 20
1462.401377303683
 30
0.0
 11
2118.17344343619
 21
1462.401377303683
 31
0.0
  0
LINE
  5
A0E
330
1F
100
AcDbEntity
  8
AM_VIS
100
AcDbLine
 10
2118.17344343619
 20
1462.401377303683
 30
0.0
 11
2116.66335890619
 21
1462.401377303683
 31
0.0
  0
LINE
  5
A0F
330
1F
100
AcDbEntity
  8
AM_VIS
100
AcDbLine
 10
2116.466970676576
 20
1462.401377303683
 30
0.0
 11
2097.879916146576
 21
1462.401377303683
 31
0.0
  0
LINE
  5
A10
330
1F
100
AcDbEntity
  8
AM_VIS
100
AcDbLine
 10
2097.68352791673
 20
1462.401377303683
 30
0.0
 11
2096.17344343673
 21
1462.401377303683
 31
0.0
  0
LINE
  5
A11
330
1F
100
AcDbEntity
  8
AM_VIS
100
AcDbLine
 10
2096.17344343673
 20
1462.401377303683
 30
0.0
 11
2094.073443441315
 21
1462.401377303683
 31
0.0
  0
LINE
  5
A12
330
1F
100
AcDbEntity
  8
AM_VIS
100
AcDbLine
 10
2091.723443441315
 20
1462.401377303683
 30
0.0
 11
2092.623443441315
 21
1462.401377303683
 31
0.0
  0
LINE
  5
A13
330
1F
100
AcDbEntity
  8
AM_VIS
100
AcDbLine
 10
2090.273443441315
 20
1462.401377303683
 30
0.0
 11
2086.67344343673
 21
1462.401377303683
 31
0.0
  0
LINE
  5
A14
330
1F
100
AcDbEntity
  8
AM_VIS
100
AcDbLine
 10
2086.67344343673
 20
1462.401377303683
 30
0.0
 11
2085.67344346673
 21
1462.401377303683
 31
0.0
  0
LINE
  5
A15
330
1F
100
AcDbEntity
  8
AM_VIS
100
AcDbLine
 10
2085.67344346673
 20
1462.401377303683
 30
0.0
 11
2078.45063018673
 21
1462.401377303683
 31
0.0
  0
LINE
  5
A16
330
1F
100
AcDbEntity
  8
AM_VIS
100
AcDbLine
 10
2075.173443415257
 20
1421.901377303683
 30
0.0
 11
2078.45063018673
 21
1421.901377303683
 31
0.0
  0
LINE
  5
A17
330
1F
100
AcDbEntity
  8
AM_VIS
100
AcDbLine
 10
2090.273443441315
 20
1421.901377303683
 30
0.0
 11
2090.473443441315
 21
1421.901377303683
 31
0.0
  0
LINE
  5
A18
330
1F
100
AcDbEntity
  8
AM_VIS
100
AcDbLine
 10
2091.723443441315
 20
1421.901377303683
 30
0.0
 11
2090.473443441315
 21
1421.901377303683
 31
0.0
  0
LINE
  5
A19
330
1F
100
AcDbEntity
  8
AM_VIS
100
AcDbLine
 10
2093.873443441315
 20
1421.901377303683
 30
0.0
 11
2092.623443441315
 21
1421.901377303683
 31
0.0
  0
LINE
  5
A1A
330
1F
100
AcDbEntity
  8
AM_VIS
100
AcDbLine
 10
2093.873443441315
 20
1421.901377303683
 30
0.0
 11
2094.073443441315
 21
1421.901377303683
 31
0.0
  0
LINE
  5
A1B
330
1F
100
AcDbEntity
  8
AM_VIS
100
AcDbLine
 10
2097.683527916729
 20
1421.901377303683
 30
0.0
 11
2097.879916146576
 21
1421.901377303683
 31
0.0
  0
LINE
  5
A1C
330
1F
100
AcDbEntity
  8
AM_VIS
100
AcDbLine
 10
2116.466970676576
 20
1421.901377303683
 30
0.0
 11
2116.663358906191
 21
1421.901377303683
 31
0.0
  0
LINE
  5
A1D
330
1F
100
AcDbEntity
  8
AM_VIS
100
AcDbLine
 10
2120.273443415257
 20
1421.901377303683
 30
0.0
 11
2120.473443415257
 21
1421.901377303683
 31
0.0
  0
LINE
  5
A1E
330
1F
100
AcDbEntity
  8
AM_VIS
100
AcDbLine
 10
2121.723443415257
 20
1421.901377303683
 30
0.0
 11
2120.473443415257
 21
1421.901377303683
 31
0.0
  0
LINE
  5
A1F
330
1F
100
AcDbEntity
  8
AM_VIS
100
AcDbLine
 10
2123.873443415257
 20
1421.901377303683
 30
0.0
 11
2122.623443415257
 21
1421.901377303683
 31
0.0
  0
LINE
  5
A20
330
1F
100
AcDbEntity
  8
AM_VIS
100
AcDbLine
 10
2123.873443415257
 20
1421.901377303683
 30
0.0
 11
2124.073443415257
 21
1421.901377303683
 31
0.0
  0
LINE
  5
A21
102
{ACAD_REACTORS
330
E26
330
E4C
102
}
330
1F
100
AcDbEntity
  8
AM_VIS
100
AcDbLine
 10
2135.896256646191
 20
1421.901377303683
 30
0.0
 11
2139.173443441315
 21
1421.901377303683
 31
0.0
  0
LINE
  5
A22
102
{ACAD_REACTORS
330
E26
330
FCD
102
}
330
1F
100
AcDbEntity
  8
AM_VIS
100
AcDbLine
 10
2135.896256646191
 20
1462.401377303683
 30
0.0
 11
2139.173443441315
 21
1462.401377303683
 31
0.0
  0
LINE
  5
A23
330
1F
100
AcDbEntity
  8
AM_VIS
100
AcDbLine
 10
2124.073443415257
 20
1462.401377303683
 30
0.0
 11
2123.873443415257
 21
1462.401377303683
 31
0.0
  0
LINE
  5
A24
330
1F
100
AcDbEntity
  8
AM_VIS
100
AcDbLine
 10
2122.623443415257
 20
1462.401377303683
 30
0.0
 11
2123.873443415257
 21
1462.401377303683
 31
0.0
  0
LINE
  5
A25
330
1F
100
AcDbEntity
  8
AM_VIS
100
AcDbLine
 10
2120.473443415257
 20
1462.401377303683
 30
0.0
 11
2121.723443415257
 21
1462.401377303683
 31
0.0
  0
LINE
  5
A26
330
1F
100
AcDbEntity
  8
AM_VIS
100
AcDbLine
 10
2120.473443415257
 20
1462.401377303683
 30
0.0
 11
2120.273443415257
 21
1462.401377303683
 31
0.0
  0
LINE
  5
A27
330
1F
100
AcDbEntity
  8
AM_VIS
100
AcDbLine
 10
2116.466970676576
 20
1462.401377303683
 30
0.0
 11
2116.663358906191
 21
1462.401377303683
 31
0.0
  0
LINE
  5
A28
330
1F
100
AcDbEntity
  8
AM_VIS
100
AcDbLine
 10
2097.683527916729
 20
1462.401377303683
 30
0.0
 11
2097.879916146576
 21
1462.401377303683
 31
0.0
  0
LINE
  5
A29
330
1F
100
AcDbEntity
  8
AM_VIS
100
AcDbLine
 10
2094.073443441315
 20
1462.401377303683
 30
0.0
 11
2093.873443441315
 21
1462.401377303683
 31
0.0
  0
LINE
  5
A2A
330
1F
100
AcDbEntity
  8
AM_VIS
100
AcDbLine
 10
2092.623443441315
 20
1462.401377303683
 30
0.0
 11
2093.873443441315
 21
1462.401377303683
 31
0.0
  0
LINE
  5
A2B
330
1F
100
AcDbEntity
  8
AM_VIS
100
AcDbLine
 10
2090.473443441315
 20
1462.401377303683
 30
0.0
 11
2091.723443441315
 21
1462.401377303683
 31
0.0
  0
LINE
  5
A2C
330
1F
100
AcDbEntity
  8
AM_VIS
100
AcDbLine
 10
2090.473443441315
 20
1462.401377303683
 30
0.0
 11
2090.273443441315
 21
1462.401377303683
 31
0.0
  0
LINE
  5
A2D
330
1F
100
AcDbEntity
  8
AM_VIS
100
AcDbLine
 10
2075.173443415257
 20
1462.401377303683
 30
0.0
 11
2078.45063018673
 21
1462.401377303683
 31
0.0
  0
LINE
  5
A2E
330
1F
100
AcDbEntity
  8
AM_VIS
100
AcDbLine
 10
2086.173443414673
 20
1462.401377303683
 30
0.0
 11
2086.173443414673
 21
1469.901377303683
 31
0.0
  0
LINE
  5
A2F
330
1F
100
AcDbEntity
  8
AM_VIS
100
AcDbLine
 10
2078.173443414673
 20
1462.401377303683
 30
0.0
 11
2078.173443414673
 21
1469.901377303683
 31
0.0
  0
LINE
  5
A30
330
1F
100
AcDbEntity
  8
AM_VIS
100
AcDbLine
 10
2136.17344341584
 20
1462.401377303683
 30
0.0
 11
2136.17344341584
 21
1469.901377303683
 31
0.0
  0
LINE
  5
A31
330
1F
100
AcDbEntity
  8
AM_VIS
100
AcDbLine
 10
2128.17344341584
 20
1462.401377303683
 30
0.0
 11
2128.17344341584
 21
1469.901377303683
 31
0.0
  0
SPLINE
  5
A32
330
1F
100
AcDbEntity
  8
AM_VIS
100
AcDbSpline
210
0.0
220
0.0
230
1.0
 70
    12
 71
     2
 72
     6
 73
     3
 74
     0
 42
0.0000000001
 43
0.0000000001
 40
0.0
 40
0.0
 40
0.0
 40
1.872132962589759
 40
1.872132962589759
 40
1.872132962589759
 10
2112.441270291683
 20
1468.669326496114
 30
0.0
 41
1.0
 10
2111.652086300767
 20
1469.389389317531
 30
0.0
 41
1.004838115647506
 10
2110.919038929463
 20
1469.901377303683
 30
0.0
 41
1.003411114490268
  0
LINE
  5
A33
330
1F
100
AcDbEntity
  8
AM_VIS
100
AcDbLine
 10
2115.673443415257
 20
1469.901377303683
 30
0.0
 11
2115.673443415257
 21
1468.669326496114
 31
0.0
  0
LINE
  5
A34
330
1F
100
AcDbEntity
  8
AM_VIS
100
AcDbLine
 10
2098.673443415257
 20
1469.901377303683
 30
0.0
 11
2098.673443415257
 21
1468.669326496114
 31
0.0
  0
SPLINE
  5
A35
330
1F
100
AcDbEntity
  8
AM_VIS
100
AcDbSpline
210
0.0
220
0.0
230
1.0
 70
    12
 71
     2
 72
     6
 73
     3
 74
     0
 42
0.0000000001
 43
0.0000000001
 40
1.019304200611736
 40
1.019304200611736
 40
1.019304200611736
 40
2.891437163201479
 40
2.891437163201479
 40
2.891437163201479
 10
2103.427847901051
 20
1469.901377303683
 30
0.0
 41
1.003411114490239
 10
2102.694800529746
 20
1469.389389317533
 30
0.0
 41
1.004838115647465
 10
2101.905616538831
 20
1468.669326496114
 30
0.0
 41
1.0
  0
LINE
  5
A36
330
1F
100
AcDbEntity
  8
AM_VIS
100
AcDbLine
 10
2098.673443415257
 20
1468.669326496114
 30
0.0
 11
2098.673443415257
 21
1462.401377303683
 31
0.0
  0
LINE
  5
A37
330
1F
100
AcDbEntity
  8
AM_VIS
100
AcDbLine
 10
2101.905616538831
 20
1462.401377303683
 30
0.0
 11
2101.905616538831
 21
1468.669326496114
 31
0.0
  0
LINE
  5
A38
330
1F
100
AcDbEntity
  8
AM_VIS
100
AcDbLine
 10
2112.441270291683
 20
1468.669326496114
 30
0.0
 11
2112.441270291683
 21
1462.401377303683
 31
0.0
  0
LINE
  5
A39
330
1F
100
AcDbEntity
  8
AM_VIS
100
AcDbLine
 10
2115.673443415257
 20
1462.401377303683
 30
0.0
 11
2115.673443415257
 21
1468.669326496114
 31
0.0
  0
LINE
  5
A3A
330
1F
100
AcDbEntity
  8
AM_VIS
100
AcDbLine
 10
2098.673443415257
 20
1468.669326496114
 30
0.0
 11
2101.905616538831
 21
1468.669326496114
 31
0.0
  0
LINE
  5
A3B
330
1F
100
AcDbEntity
  8
AM_VIS
100
AcDbLine
 10
2112.441270291683
 20
1468.669326496114
 30
0.0
 11
2115.673443415257
 21
1468.669326496114
 31
0.0
  0
LINE
  5
A3C
330
1F
100
AcDbEntity
  8
AM_VIS
100
AcDbLine
 10
2074.173443415257
 20
1481.901377303683
 30
0.0
 11
2074.173443415257
 21
1469.901377303683
 31
0.0
  0
LINE
  5
A3D
330
1F
100
AcDbEntity
  8
AM_VIS
100
AcDbLine
 10
2079.173443415257
 20
1481.901377303683
 30
0.0
 11
2074.173443415257
 21
1481.901377303683
 31
0.0
  0
LINE
  5
A3E
330
1F
100
AcDbEntity
  8
AM_VIS
100
AcDbLine
 10
2079.173443415257
 20
1469.901377303683
 30
0.0
 11
2079.173443415257
 21
1481.901377303683
 31
0.0
  0
LINE
  5
A3F
330
1F
100
AcDbEntity
  8
AM_VIS
100
AcDbLine
 10
2135.173443415257
 20
1481.901377303683
 30
0.0
 11
2079.173443415257
 21
1481.901377303683
 31
0.0
  0
LINE
  5
A40
330
1F
100
AcDbEntity
  8
AM_VIS
100
AcDbLine
 10
2140.173443415257
 20
1469.901377303683
 30
0.0
 11
2140.173443415257
 21
1481.901377303683
 31
0.0
  0
LINE
  5
A41
330
1F
100
AcDbEntity
  8
AM_VIS
100
AcDbLine
 10
2135.173443415257
 20
1481.901377303683
 30
0.0
 11
2135.173443415257
 21
1469.901377303683
 31
0.0
  0
LINE
  5
A42
102
{ACAD_REACTORS
330
E4C
330
E72
102
}
330
1F
100
AcDbEntity
  8
AM_VIS
100
AcDbLine
 10
2140.173443415257
 20
1481.901377303683
 30
0.0
 11
2135.173443415257
 21
1481.901377303683
 31
0.0
  0
LINE
  5
A43
330
1F
100
AcDbEntity
  8
AM_VIS
100
AcDbLine
 10
2074.173443415257
 20
1469.901377303683
 30
0.0
 11
2079.173443415257
 21
1469.901377303683
 31
0.0
  0
LINE
  5
A44
330
1F
100
AcDbEntity
  8
AM_VIS
100
AcDbLine
 10
2135.173443415257
 20
1469.901377303683
 30
0.0
 11
2079.173443415257
 21
1469.901377303683
 31
0.0
  0
LINE
  5
A45
102
{ACAD_REACTORS
330
E72
330
FCD
102
}
330
1F
100
AcDbEntity
  8
AM_VIS
100
AcDbLine
 10
2135.173443415257
 20
1469.901377303683
 30
0.0
 11
2140.173443415257
 21
1469.901377303683
 31
0.0
  0
LINE
  5
A46
330
1F
100
AcDbEntity
  8
AM_VIS
100
AcDbLine
 10
2135.173443415257
 20
1598.679007985001
 30
0.0
 11
2140.173443415257
 21
1593.679007985002
 31
0.0
  0
LINE
  5
A47
102
{ACAD_REACTORS
330
D2F
102
}
330
1F
100
AcDbEntity
  8
AM_VIS
100
AcDbLine
 10
2079.173443415257
 20
1598.679007985001
 30
0.0
 11
2135.173443415257
 21
1598.679007985001
 31
0.0
  0
LINE
  5
A48
330
1F
100
AcDbEntity
  8
AM_VIS
100
AcDbLine
 10
2140.173443415257
 20
1523.679007985001
 30
0.0
 11
2135.173443415257
 21
1518.679007985001
 31
0.0
  0
LINE
  5
A49
102
{ACAD_REACTORS
330
D2F
102
}
330
1F
100
AcDbEntity
  8
AM_VIS
100
AcDbLine
 10
2135.173443415257
 20
1518.679007985001
 30
0.0
 11
2079.173443415257
 21
1518.679007985001
 31
0.0
  0
LINE
  5
A4A
330
1F
100
AcDbEntity
  8
AM_VIS
100
AcDbLine
 10
2079.173443415257
 20
1518.679007985001
 30
0.0
 11
2074.173443415257
 21
1523.679007985001
 31
0.0
  0
LINE
  5
A4B
330
1F
100
AcDbEntity
  8
AM_VIS
100
AcDbLine
 10
2074.173443415257
 20
1593.679007985002
 30
0.0
 11
2079.173443415257
 21
1598.679007985001
 31
0.0
  0
LINE
  5
A4C
102
{ACAD_REACTORS
330
D64
102
}
330
1F
100
AcDbEntity
  8
AM_VIS
100
AcDbLine
 10
2074.173443415257
 20
1523.679007985001
 30
0.0
 11
2074.173443415257
 21
1593.679007985002
 31
0.0
  0
LINE
  5
A4D
102
{ACAD_REACTORS
330
D64
102
}
330
1F
100
AcDbEntity
  8
AM_VIS
100
AcDbLine
 10
2140.173443415257
 20
1593.679007985002
 30
0.0
 11
2140.173443415257
 21
1523.679007985001
 31
0.0
  0
LINE
  5
A4E
330
1F
100
AcDbEntity
  8
AM_VIS
100
AcDbLine
 10
2200.343472580746
 20
1421.901377303683
 30
0.0
 11
2200.343472580746
 21
1462.401377303683
 31
0.0
  0
LINE
  5
A4F
330
1F
100
AcDbEntity
  8
AM_VIS
100
AcDbLine
 10
2203.620659378403
 20
1421.901377303683
 30
0.0
 11
2203.620659378403
 21
1462.401377303683
 31
0.0
  0
LINE
  5
A50
330
1F
100
AcDbEntity
  8
AM_VIS
100
AcDbLine
 10
2210.843472548403
 20
1421.901377303683
 30
0.0
 11
2210.843472548403
 21
1462.401377303683
 31
0.0
  0
LINE
  5
A51
330
1F
100
AcDbEntity
  8
AM_VIS
100
AcDbLine
 10
2211.843472558403
 20
1421.901377303683
 30
0.0
 11
2211.843472558403
 21
1462.401377303683
 31
0.0
  0
LINE
  5
A52
330
1F
100
AcDbEntity
  8
AM_VIS
100
AcDbLine
 10
2253.843472558402
 20
1421.901377303683
 30
0.0
 11
2253.843472558402
 21
1462.401377303683
 31
0.0
  0
LINE
  5
A53
330
1F
100
AcDbEntity
  8
AM_VIS
100
AcDbLine
 10
2261.066285788403
 20
1421.901377303683
 30
0.0
 11
2261.066285788403
 21
1462.401377303683
 31
0.0
  0
LINE
  5
A54
330
1F
100
AcDbEntity
  8
AM_VIS
100
AcDbLine
 10
2264.34347258133
 20
1421.901377303683
 30
0.0
 11
2264.34347258133
 21
1462.401377303683
 31
0.0
  0
LINE
  5
A55
330
1F
100
AcDbEntity
  8
AM_VIS
100
AcDbLine
 10
2215.643472607387
 20
1421.901377303683
 30
0.0
 11
2215.643472607387
 21
1462.401377303683
 31
0.0
  0
LINE
  5
A56
330
1F
100
AcDbEntity
  8
AM_VIS
100
AcDbLine
 10
2219.043472607387
 20
1421.901377303683
 30
0.0
 11
2219.043472607387
 21
1462.401377303683
 31
0.0
  0
LINE
  5
A57
330
1F
100
AcDbEntity
  8
AM_VIS
100
AcDbLine
 10
2252.843472548403
 20
1421.901377303683
 30
0.0
 11
2252.843472548403
 21
1462.401377303683
 31
0.0
  0
LINE
  5
A58
330
1F
100
AcDbEntity
  8
AM_VIS
100
AcDbLine
 10
2245.643472581329
 20
1421.901377303683
 30
0.0
 11
2245.643472581329
 21
1462.401377303683
 31
0.0
  0
LINE
  5
A59
330
1F
100
AcDbEntity
  8
AM_VIS
100
AcDbLine
 10
2249.043472581329
 20
1421.901377303683
 30
0.0
 11
2249.043472581329
 21
1462.401377303683
 31
0.0
  0
LINE
  5
A5A
330
1F
100
AcDbEntity
  8
AM_VIS
100
AcDbLine
 10
2245.443472581329
 20
1421.901377303683
 30
0.0
 11
2240.94347258133
 21
1421.901377303683
 31
0.0
  0
LINE
  5
A5B
330
1F
100
AcDbEntity
  8
AM_VIS
100
AcDbLine
 10
2247.79347258133
 20
1421.901377303683
 30
0.0
 11
2246.89347258133
 21
1421.901377303683
 31
0.0
  0
LINE
  5
A5C
330
1F
100
AcDbEntity
  8
AM_VIS
100
AcDbLine
 10
2252.843472548403
 20
1421.901377303683
 30
0.0
 11
2249.24347258133
 21
1421.901377303683
 31
0.0
  0
LINE
  5
A5D
330
1F
100
AcDbEntity
  8
AM_VIS
100
AcDbLine
 10
2253.843472558403
 20
1421.901377303683
 30
0.0
 11
2252.843472548403
 21
1421.901377303683
 31
0.0
  0
LINE
  5
A5E
330
1F
100
AcDbEntity
  8
AM_VIS
100
AcDbLine
 10
2261.066285788403
 20
1421.901377303683
 30
0.0
 11
2253.843472558403
 21
1421.901377303683
 31
0.0
  0
LINE
  5
A5F
330
1F
100
AcDbEntity
  8
AM_VIS
100
AcDbLine
 10
2200.343472580746
 20
1421.901377303683
 30
0.0
 11
2193.505635252352
 21
1421.901377303683
 31
0.0
  0
LINE
  5
A60
330
1F
100
AcDbEntity
  8
AM_VIS
100
AcDbLine
 10
2210.843472548403
 20
1421.901377303683
 30
0.0
 11
2203.620659378403
 21
1421.901377303683
 31
0.0
  0
LINE
  5
A61
330
1F
100
AcDbEntity
  8
AM_VIS
100
AcDbLine
 10
2211.843472558403
 20
1421.901377303683
 30
0.0
 11
2210.843472548403
 21
1421.901377303683
 31
0.0
  0
LINE
  5
A62
330
1F
100
AcDbEntity
  8
AM_VIS
100
AcDbLine
 10
2215.443472607387
 20
1421.901377303683
 30
0.0
 11
2211.843472558403
 21
1421.901377303683
 31
0.0
  0
LINE
  5
A63
330
1F
100
AcDbEntity
  8
AM_VIS
100
AcDbLine
 10
2217.793472607387
 20
1421.901377303683
 30
0.0
 11
2216.893472607387
 21
1421.901377303683
 31
0.0
  0
LINE
  5
A64
330
1F
100
AcDbEntity
  8
AM_VIS
100
AcDbLine
 10
2223.743472581913
 20
1421.901377303683
 30
0.0
 11
2219.243472607387
 21
1421.901377303683
 31
0.0
  0
LINE
  5
A65
330
1F
100
AcDbEntity
  8
AM_VIS
100
AcDbLine
 10
2240.74347258133
 20
1421.901377303683
 30
0.0
 11
2240.74347258133
 21
1462.401377303683
 31
0.0
  0
LINE
  5
A66
330
1F
100
AcDbEntity
  8
AM_VIS
100
AcDbLine
 10
2240.74347258133
 20
1421.901377303683
 30
0.0
 11
2233.643472581329
 21
1421.901377303683
 31
0.0
  0
LINE
  5
A67
330
1F
100
AcDbEntity
  8
AM_VIS
100
AcDbLine
 10
2233.443472581329
 20
1421.901377303683
 30
0.0
 11
2233.443472581329
 21
1462.401377303683
 31
0.0
  0
LINE
  5
A68
330
1F
100
AcDbEntity
  8
AM_VIS
100
AcDbLine
 10
2233.243472581329
 20
1421.901377303683
 30
0.0
 11
2231.443472581913
 21
1421.901377303683
 31
0.0
  0
LINE
  5
A69
330
1F
100
AcDbEntity
  8
AM_VIS
100
AcDbLine
 10
2231.043472581913
 20
1421.901377303683
 30
0.0
 11
2223.943472581913
 21
1421.901377303683
 31
0.0
  0
LINE
  5
A6A
330
1F
100
AcDbEntity
  8
AM_VIS
100
AcDbLine
 10
2223.943472581913
 20
1421.901377303683
 30
0.0
 11
2223.943472581913
 21
1462.401377303683
 31
0.0
  0
LINE
  5
A6B
330
1F
100
AcDbEntity
  8
AM_VIS
100
AcDbLine
 10
2231.243472581913
 20
1421.901377303683
 30
0.0
 11
2231.243472581913
 21
1462.401377303683
 31
0.0
  0
LINE
  5
A6C
330
1F
100
AcDbEntity
  8
AM_VIS
100
AcDbLine
 10
2193.343472580746
 20
1421.901377303683
 30
0.0
 11
2193.343472580746
 21
1462.401377303683
 31
0.0
  0
LINE
  5
A6D
330
1F
100
AcDbEntity
  8
AM_VIS
100
AcDbLine
 10
2223.743472581913
 20
1462.401377303683
 30
0.0
 11
2219.243472607387
 21
1462.401377303683
 31
0.0
  0
LINE
  5
A6E
330
1F
100
AcDbEntity
  8
AM_VIS
100
AcDbLine
 10
2216.893472607387
 20
1462.401377303683
 30
0.0
 11
2217.793472607387
 21
1462.401377303683
 31
0.0
  0
LINE
  5
A6F
330
1F
100
AcDbEntity
  8
AM_VIS
100
AcDbLine
 10
2215.443472607387
 20
1462.401377303683
 30
0.0
 11
2211.843472558403
 21
1462.401377303683
 31
0.0
  0
LINE
  5
A70
330
1F
100
AcDbEntity
  8
AM_VIS
100
AcDbLine
 10
2211.843472558403
 20
1462.401377303683
 30
0.0
 11
2210.843472548403
 21
1462.401377303683
 31
0.0
  0
LINE
  5
A71
330
1F
100
AcDbEntity
  8
AM_VIS
100
AcDbLine
 10
2210.843472548403
 20
1462.401377303683
 30
0.0
 11
2203.620659378403
 21
1462.401377303683
 31
0.0
  0
LINE
  5
A72
330
1F
100
AcDbEntity
  8
AM_VIS
100
AcDbLine
 10
2200.343472580746
 20
1462.401377303683
 30
0.0
 11
2193.505635252352
 21
1462.401377303683
 31
0.0
  0
LINE
  5
A73
330
1F
100
AcDbEntity
  8
AM_VIS
100
AcDbLine
 10
2261.066285788403
 20
1462.401377303683
 30
0.0
 11
2253.843472558403
 21
1462.401377303683
 31
0.0
  0
LINE
  5
A74
330
1F
100
AcDbEntity
  8
AM_VIS
100
AcDbLine
 10
2253.843472558403
 20
1462.401377303683
 30
0.0
 11
2252.843472548403
 21
1462.401377303683
 31
0.0
  0
LINE
  5
A75
330
1F
100
AcDbEntity
  8
AM_VIS
100
AcDbLine
 10
2252.843472548403
 20
1462.401377303683
 30
0.0
 11
2249.24347258133
 21
1462.401377303683
 31
0.0
  0
LINE
  5
A76
330
1F
100
AcDbEntity
  8
AM_VIS
100
AcDbLine
 10
2246.89347258133
 20
1462.401377303683
 30
0.0
 11
2247.79347258133
 21
1462.401377303683
 31
0.0
  0
LINE
  5
A77
330
1F
100
AcDbEntity
  8
AM_VIS
100
AcDbLine
 10
2245.443472581329
 20
1462.401377303683
 30
0.0
 11
2240.94347258133
 21
1462.401377303683
 31
0.0
  0
LINE
  5
A78
330
1F
100
AcDbEntity
  8
AM_VIS
100
AcDbLine
 10
2233.643472581329
 20
1462.401377303683
 30
0.0
 11
2240.74347258133
 21
1462.401377303683
 31
0.0
  0
LINE
  5
A79
330
1F
100
AcDbEntity
  8
AM_VIS
100
AcDbLine
 10
2233.243472581329
 20
1462.401377303683
 30
0.0
 11
2231.443472581913
 21
1462.401377303683
 31
0.0
  0
LINE
  5
A7A
330
1F
100
AcDbEntity
  8
AM_VIS
100
AcDbLine
 10
2223.943472581913
 20
1462.401377303683
 30
0.0
 11
2231.043472581913
 21
1462.401377303683
 31
0.0
  0
LINE
  5
A7B
330
1F
100
AcDbEntity
  8
AM_VIS
100
AcDbLine
 10
2245.443472581329
 20
1421.901377303683
 30
0.0
 11
2245.643472581329
 21
1421.901377303683
 31
0.0
  0
LINE
  5
A7C
330
1F
100
AcDbEntity
  8
AM_VIS
100
AcDbLine
 10
2246.89347258133
 20
1421.901377303683
 30
0.0
 11
2245.643472581329
 21
1421.901377303683
 31
0.0
  0
LINE
  5
A7D
330
1F
100
AcDbEntity
  8
AM_VIS
100
AcDbLine
 10
2249.043472581329
 20
1421.901377303683
 30
0.0
 11
2247.79347258133
 21
1421.901377303683
 31
0.0
  0
LINE
  5
A7E
330
1F
100
AcDbEntity
  8
AM_VIS
100
AcDbLine
 10
2249.043472581329
 20
1421.901377303683
 30
0.0
 11
2249.24347258133
 21
1421.901377303683
 31
0.0
  0
LINE
  5
A7F
330
1F
100
AcDbEntity
  8
AM_VIS
100
AcDbLine
 10
2261.066285788403
 20
1421.901377303683
 30
0.0
 11
2264.34347258133
 21
1421.901377303683
 31
0.0
  0
LINE
  5
A80
330
1F
100
AcDbEntity
  8
AM_VIS
100
AcDbLine
 10
2193.343472580742
 20
1421.901377303683
 30
0.0
 11
2193.505635252351
 21
1421.901377303683
 31
0.0
  0
LINE
  5
A81
330
1F
100
AcDbEntity
  8
AM_VIS
100
AcDbLine
 10
2200.343472580746
 20
1421.901377303683
 30
0.0
 11
2203.620659378403
 21
1421.901377303683
 31
0.0
  0
LINE
  5
A82
330
1F
100
AcDbEntity
  8
AM_VIS
100
AcDbLine
 10
2215.443472607387
 20
1421.901377303683
 30
0.0
 11
2215.643472607387
 21
1421.901377303683
 31
0.0
  0
LINE
  5
A83
330
1F
100
AcDbEntity
  8
AM_VIS
100
AcDbLine
 10
2216.893472607387
 20
1421.901377303683
 30
0.0
 11
2215.643472607387
 21
1421.901377303683
 31
0.0
  0
LINE
  5
A84
330
1F
100
AcDbEntity
  8
AM_VIS
100
AcDbLine
 10
2219.043472607387
 20
1421.901377303683
 30
0.0
 11
2217.793472607387
 21
1421.901377303683
 31
0.0
  0
LINE
  5
A85
330
1F
100
AcDbEntity
  8
AM_VIS
100
AcDbLine
 10
2219.043472607387
 20
1421.901377303683
 30
0.0
 11
2219.243472607387
 21
1421.901377303683
 31
0.0
  0
LINE
  5
A86
330
1F
100
AcDbEntity
  8
AM_VIS
100
AcDbLine
 10
2233.243472581329
 20
1421.901377303683
 30
0.0
 11
2233.443472581329
 21
1421.901377303683
 31
0.0
  0
LINE
  5
A87
330
1F
100
AcDbEntity
  8
AM_VIS
100
AcDbLine
 10
2240.743472581329
 20
1421.901377303683
 30
0.0
 11
2240.94347258133
 21
1421.901377303683
 31
0.0
  0
LINE
  5
A88
330
1F
100
AcDbEntity
  8
AM_VIS
100
AcDbLine
 10
2233.643472581329
 20
1421.901377303683
 30
0.0
 11
2233.443472581329
 21
1421.901377303683
 31
0.0
  0
LINE
  5
A89
330
1F
100
AcDbEntity
  8
AM_VIS
100
AcDbLine
 10
2231.243472581913
 20
1421.901377303683
 30
0.0
 11
2231.043472581913
 21
1421.901377303683
 31
0.0
  0
LINE
  5
A8A
330
1F
100
AcDbEntity
  8
AM_VIS
100
AcDbLine
 10
2223.743472581913
 20
1421.901377303683
 30
0.0
 11
2223.943472581913
 21
1421.901377303683
 31
0.0
  0
LINE
  5
A8B
330
1F
100
AcDbEntity
  8
AM_VIS
100
AcDbLine
 10
2231.243472581913
 20
1421.901377303683
 30
0.0
 11
2231.443472581913
 21
1421.901377303683
 31
0.0
  0
LINE
  5
A8C
330
1F
100
AcDbEntity
  8
AM_VIS
100
AcDbLine
 10
2219.243472607387
 20
1462.401377303683
 30
0.0
 11
2219.043472607387
 21
1462.401377303683
 31
0.0
  0
LINE
  5
A8D
330
1F
100
AcDbEntity
  8
AM_VIS
100
AcDbLine
 10
2217.793472607387
 20
1462.401377303683
 30
0.0
 11
2219.043472607387
 21
1462.401377303683
 31
0.0
  0
LINE
  5
A8E
330
1F
100
AcDbEntity
  8
AM_VIS
100
AcDbLine
 10
2215.643472607387
 20
1462.401377303683
 30
0.0
 11
2216.893472607387
 21
1462.401377303683
 31
0.0
  0
LINE
  5
A8F
330
1F
100
AcDbEntity
  8
AM_VIS
100
AcDbLine
 10
2215.643472607387
 20
1462.401377303683
 30
0.0
 11
2215.443472607387
 21
1462.401377303683
 31
0.0
  0
LINE
  5
A90
330
1F
100
AcDbEntity
  8
AM_VIS
100
AcDbLine
 10
2200.343472580746
 20
1462.401377303683
 30
0.0
 11
2203.620659378403
 21
1462.401377303683
 31
0.0
  0
LINE
  5
A91
330
1F
100
AcDbEntity
  8
AM_VIS
100
AcDbLine
 10
2193.343472580742
 20
1462.401377303683
 30
0.0
 11
2193.505635252351
 21
1462.401377303683
 31
0.0
  0
LINE
  5
A92
330
1F
100
AcDbEntity
  8
AM_VIS
100
AcDbLine
 10
2261.066285788403
 20
1462.401377303683
 30
0.0
 11
2264.34347258133
 21
1462.401377303683
 31
0.0
  0
LINE
  5
A93
330
1F
100
AcDbEntity
  8
AM_VIS
100
AcDbLine
 10
2249.24347258133
 20
1462.401377303683
 30
0.0
 11
2249.043472581329
 21
1462.401377303683
 31
0.0
  0
LINE
  5
A94
330
1F
100
AcDbEntity
  8
AM_VIS
100
AcDbLine
 10
2247.79347258133
 20
1462.401377303683
 30
0.0
 11
2249.043472581329
 21
1462.401377303683
 31
0.0
  0
LINE
  5
A95
330
1F
100
AcDbEntity
  8
AM_VIS
100
AcDbLine
 10
2245.643472581329
 20
1462.401377303683
 30
0.0
 11
2246.89347258133
 21
1462.401377303683
 31
0.0
  0
LINE
  5
A96
330
1F
100
AcDbEntity
  8
AM_VIS
100
AcDbLine
 10
2245.643472581329
 20
1462.401377303683
 30
0.0
 11
2245.443472581329
 21
1462.401377303683
 31
0.0
  0
LINE
  5
A97
330
1F
100
AcDbEntity
  8
AM_VIS
100
AcDbLine
 10
2240.94347258133
 20
1462.401377303683
 30
0.0
 11
2240.743472581329
 21
1462.401377303683
 31
0.0
  0
LINE
  5
A98
330
1F
100
AcDbEntity
  8
AM_VIS
100
AcDbLine
 10
2233.443472581329
 20
1462.401377303683
 30
0.0
 11
2233.643472581329
 21
1462.401377303683
 31
0.0
  0
LINE
  5
A99
330
1F
100
AcDbEntity
  8
AM_VIS
100
AcDbLine
 10
2233.443472581329
 20
1462.401377303683
 30
0.0
 11
2233.243472581329
 21
1462.401377303683
 31
0.0
  0
LINE
  5
A9A
330
1F
100
AcDbEntity
  8
AM_VIS
100
AcDbLine
 10
2231.443472581913
 20
1462.401377303683
 30
0.0
 11
2231.243472581913
 21
1462.401377303683
 31
0.0
  0
LINE
  5
A9B
330
1F
100
AcDbEntity
  8
AM_VIS
100
AcDbLine
 10
2231.043472581913
 20
1462.401377303683
 30
0.0
 11
2231.243472581913
 21
1462.401377303683
 31
0.0
  0
LINE
  5
A9C
330
1F
100
AcDbEntity
  8
AM_VIS
100
AcDbLine
 10
2223.943472581913
 20
1462.401377303683
 30
0.0
 11
2223.743472581913
 21
1462.401377303683
 31
0.0
  0
LINE
  5
A9D
330
1F
100
AcDbEntity
  8
AM_VIS
100
AcDbLine
 10
2261.34347258133
 20
1462.401377303683
 30
0.0
 11
2261.34347258133
 21
1469.901377303683
 31
0.0
  0
LINE
  5
A9E
330
1F
100
AcDbEntity
  8
AM_VIS
100
AcDbLine
 10
2253.343472581329
 20
1462.401377303683
 30
0.0
 11
2253.343472581329
 21
1469.901377303683
 31
0.0
  0
LINE
  5
A9F
330
1F
100
AcDbEntity
  8
AM_VIS
100
AcDbLine
 10
2211.343472581329
 20
1462.401377303683
 30
0.0
 11
2211.343472581329
 21
1469.901377303683
 31
0.0
  0
LINE
  5
AA0
330
1F
100
AcDbEntity
  8
AM_VIS
100
AcDbLine
 10
2203.343472581329
 20
1462.401377303683
 30
0.0
 11
2203.343472581329
 21
1469.901377303683
 31
0.0
  0
SPLINE
  5
AA1
330
1F
100
AcDbEntity
  8
AM_VIS
100
AcDbSpline
210
0.0
220
0.0
230
1.0
 70
    12
 71
     2
 72
     6
 73
     3
 74
     0
 42
0.0000000001
 43
0.0000000001
 40
0.0
 40
0.0
 40
0.0
 40
1.872132962589759
 40
1.872132962589759
 40
1.872132962589759
 10
2237.611299457756
 20
1468.669326496114
 30
0.0
 41
1.0
 10
2236.822115466839
 20
1469.389389317533
 30
0.0
 41
1.004838115647504
 10
2236.089068095536
 20
1469.901377303683
 30
0.0
 41
1.003411114490267
  0
LINE
  5
AA2
330
1F
100
AcDbEntity
  8
AM_VIS
100
AcDbLine
 10
2240.843472581329
 20
1469.901377303683
 30
0.0
 11
2240.843472581329
 21
1468.669326496114
 31
0.0
  0
LINE
  5
AA3
330
1F
100
AcDbEntity
  8
AM_VIS
100
AcDbLine
 10
2223.84347258133
 20
1469.901377303683
 30
0.0
 11
2223.84347258133
 21
1468.669326496114
 31
0.0
  0
SPLINE
  5
AA4
330
1F
100
AcDbEntity
  8
AM_VIS
100
AcDbSpline
210
-0.0000000000014506
220
0.0000000000017894
230
-1.0
 70
    12
 71
     2
 72
     6
 73
     3
 74
     0
 42
0.0000000001
 43
0.0000000001
 40
1.019304200611732
 40
1.019304200611732
 40
1.019304200611732
 40
2.891437163201479
 40
2.891437163201479
 40
2.891437163201479
 10
2228.597877067123
 20
1469.901377303683
 30
0.0
 41
1.003411114490253
 10
2227.864829695823
 20
1469.389389317533
 30
0.0000000000001137
 41
1.004838115647485
 10
2227.075645704903
 20
1468.669326496114
 30
0.0
 41
1.0
  0
LINE
  5
AA5
330
1F
100
AcDbEntity
  8
AM_VIS
100
AcDbLine
 10
2240.843472581329
 20
1462.401377303683
 30
0.0
 11
2240.843472581329
 21
1468.669326496114
 31
0.0
  0
LINE
  5
AA6
330
1F
100
AcDbEntity
  8
AM_VIS
100
AcDbLine
 10
2223.84347258133
 20
1468.669326496114
 30
0.0
 11
2223.84347258133
 21
1462.401377303683
 31
0.0
  0
LINE
  5
AA7
330
1F
100
AcDbEntity
  8
AM_VIS
100
AcDbLine
 10
2227.075645704903
 20
1462.401377303683
 30
0.0
 11
2227.075645704903
 21
1468.669326496114
 31
0.0
  0
LINE
  5
AA8
330
1F
100
AcDbEntity
  8
AM_VIS
100
AcDbLine
 10
2237.611299457756
 20
1468.669326496114
 30
0.0
 11
2237.611299457756
 21
1462.401377303683
 31
0.0
  0
LINE
  5
AA9
330
1F
100
AcDbEntity
  8
AM_VIS
100
AcDbLine
 10
2223.84347258133
 20
1468.669326496114
 30
0.0
 11
2227.075645704903
 21
1468.669326496114
 31
0.0
  0
LINE
  5
AAA
330
1F
100
AcDbEntity
  8
AM_VIS
100
AcDbLine
 10
2237.611299457756
 20
1468.669326496114
 30
0.0
 11
2240.843472581329
 21
1468.669326496114
 31
0.0
  0
LINE
  5
AAB
330
1F
100
AcDbEntity
  8
AM_VIS
100
AcDbLine
 10
2267.343472581329
 20
1481.901377303683
 30
0.0
 11
2197.34347258133
 21
1481.901377303683
 31
0.0
  0
LINE
  5
AAC
330
1F
100
AcDbEntity
  8
AM_VIS
100
AcDbLine
 10
2197.34347258133
 20
1469.901377303683
 30
0.0
 11
2197.34347258133
 21
1481.901377303683
 31
0.0
  0
LINE
  5
AAD
330
1F
100
AcDbEntity
  8
AM_VIS
100
AcDbLine
 10
2192.343472581329
 20
1481.901377303683
 30
0.0
 11
2192.343472581329
 21
1469.901377303683
 31
0.0
  0
LINE
  5
AAE
330
1F
100
AcDbEntity
  8
AM_VIS
100
AcDbLine
 10
2197.34347258133
 20
1481.901377303683
 30
0.0
 11
2192.343472581329
 21
1481.901377303683
 31
0.0
  0
LINE
  5
AAF
330
1F
100
AcDbEntity
  8
AM_VIS
100
AcDbLine
 10
2192.343472581329
 20
1469.901377303683
 30
0.0
 11
2197.34347258133
 21
1469.901377303683
 31
0.0
  0
LINE
  5
AB0
330
1F
100
AcDbEntity
  8
AM_VIS
100
AcDbLine
 10
2267.343472581329
 20
1469.901377303683
 30
0.0
 11
2197.34347258133
 21
1469.901377303683
 31
0.0
  0
LINE
  5
AB1
330
1F
100
AcDbEntity
  8
AM_VIS
100
AcDbLine
 10
2272.343472581329
 20
1469.901377303683
 30
0.0
 11
2272.343472581329
 21
1481.901377303683
 31
0.0
  0
LINE
  5
AB2
330
1F
100
AcDbEntity
  8
AM_VIS
100
AcDbLine
 10
2267.343472581329
 20
1469.901377303683
 30
0.0
 11
2272.343472581329
 21
1469.901377303683
 31
0.0
  0
LINE
  5
AB3
330
1F
100
AcDbEntity
  8
AM_VIS
100
AcDbLine
 10
2267.343472581329
 20
1481.901377303683
 30
0.0
 11
2267.343472581329
 21
1469.901377303683
 31
0.0
  0
LINE
  5
AB4
330
1F
100
AcDbEntity
  8
AM_VIS
100
AcDbLine
 10
2272.343472581329
 20
1481.901377303683
 30
0.0
 11
2267.343472581329
 21
1481.901377303683
 31
0.0
  0
LINE
  5
AC5
330
1F
100
AcDbEntity
  8
AM_7
100
AcDbLine
 10
2107.173443415257
 20
1483.901377303683
 30
0.0
 11
2107.173443415257
 21
1417.663904828067
 31
0.0
1001
GENIUS_GENODEF_13
1002
{
1000
HIER
1070
     0
1002
}
1002
{
1000
MANEDIT
1070
     0
1002
}
1002
{
1000
NOSEL
1070
     0
1002
}
1002
{
1000
BEHIND
1070
     0
1002
}
1002
{
1000
OTHER
1070
     0
1002
}
1002
{
1000
REACTOR
1002
}
1001
GENIUS_GENOBJ-N-CEN_13
1002
{
1000
OWNER
1000
GEN
1002
}
1001
GENIUS_GENCEN_19
1002
{
1040
2.0
1002
}
  0
LINE
  5
AD5
330
1F
100
AcDbEntity
  8
AM_7
100
AcDbLine
 10
2107.17344341646
 20
1356.434389511472
 30
0.0
 11
2145.687658097574
 21
1356.434389511472
 31
0.0
1001
GENIUS_GENOREF_13
1005
AD9
  0
LINE
  5
AD6
330
1F
100
AcDbEntity
  8
AM_7
100
AcDbLine
 10
2107.17344341646
 20
1356.434389511472
 30
0.0
 11
2107.17344341646
 21
1398.434389513546
 31
0.0
1001
GENIUS_GENOREF_13
1005
AD9
  0
LINE
  5
AD7
330
1F
100
AcDbEntity
  8
AM_7
100
AcDbLine
 10
2107.17344341646
 20
1356.434389511472
 30
0.0
 11
2070.027949005161
 21
1356.434389511472
 31
0.0
1001
GENIUS_GENOREF_13
1005
AD9
  0
LINE
  5
AD8
330
1F
100
AcDbEntity
  8
AM_7
100
AcDbLine
 10
2107.17344341646
 20
1356.434389511472
 30
0.0
 11
2107.17344341646
 21
1314.434389509399
 31
0.0
1001
GENIUS_GENOREF_13
1005
AD9
  0
POINT
  5
AD9
330
1F
100
AcDbEntity
  8
0
 60
     1
100
AcDbPoint
 10
0.0
 20
0.0
 30
0.0
1001
GENIUS_GENOENT_13
1002
{
1000
MYREF
1005
AD9
1002
}
1002
{
1000
GRP
1005
0
1002
}
1001
GENIUS_GENODEF_13
1002
{
1000
HIER
1070
    10
1002
}
1002
{
1000
MANEDIT
1070
     0
1002
}
1002
{
1000
NOSEL
1070
     0
1002
}
1002
{
1000
BEHIND
1070
     0
1002
}
1002
{
1000
OTHER
1070
     0
1002
}
1002
{
1000
REACTOR
1002
}
1001
GENIUS_GENOLIS_13
1002
{
1000
ENT
1005
AD8
1005
AD7
1005
AD6
1005
AD5
1002
}
1001
GENIUS_GENOBJ-N-CRS_13
1002
{
1000
OWNER
1000
GEN
1002
}
  0
LINE
  5
ADA
330
1F
100
AcDbEntity
  8
AM_7
100
AcDbLine
 10
2232.34347258501
 20
1484.029151801268
 30
0.0
 11
2232.34347258501
 21
1416.81100797672
 31
0.0
1001
GENIUS_GENODEF_13
1002
{
1000
HIER
1070
     0
1002
}
1002
{
1000
MANEDIT
1070
     0
1002
}
1002
{
1000
NOSEL
1070
     0
1002
}
1002
{
1000
BEHIND
1070
     0
1002
}
1002
{
1000
OTHER
1070
     0
1002
}
1002
{
1000
REACTOR
1002
}
1001
GENIUS_GENOBJ-N-CEN_13
1002
{
1000
OWNER
1000
GEN
1002
}
1001
GENIUS_GENCEN_19
1002
{
1040
2.0
1002
}
  0
LINE
  5
B40
330
1F
100
AcDbEntity
  8
AM_7
  6
AM_ISO08W050x2
100
AcDbLine
 10
2076.173443415257
 20
1381.434389514129
 30
0.0
 11
2088.173443415257
 21
1381.434389514129
 31
0.0
  0
LINE
  5
B41
330
1F
100
AcDbEntity
  8
AM_7
  6
AM_ISO08W050x2
100
AcDbLine
 10
2082.173443415257
 20
1375.434389514129
 30
0.0
 11
2082.173443415257
 21
1387.434389514129
 31
0.0
  0
LINE
  5
B62
330
1F
100
AcDbEntity
  8
AM_7
  6
AM_ISO08W050x2
100
AcDbLine
 10
2138.173443417663
 20
1381.434389514129
 30
0.0
 11
2126.173443417664
 21
1381.434389514129
 31
0.0
  0
LINE
  5
B63
330
1F
100
AcDbEntity
  8
AM_7
  6
AM_ISO08W050x2
100
AcDbLine
 10
2132.173443417663
 20
1375.434389514129
 30
0.0
 11
2132.173443417663
 21
1387.434389514129
 31
0.0
  0
CIRCLE
  5
B7F
330
1F
100
AcDbEntity
  8
0
100
AcDbCircle
 10
2082.173443415257
 20
1381.434389514129
 30
0.0
 40
5.0
  0
ARC
  5
B80
330
1F
100
AcDbEntity
  8
AM_4
100
AcDbCircle
 10
2082.173443415257
 20
1381.434389514129
 30
0.0
 40
4.0
100
AcDbArc
 50
260.0
 51
170.0
  0
CIRCLE
  5
B81
330
1F
100
AcDbEntity
  8
0
100
AcDbCircle
 10
2082.173443415257
 20
1381.434389514129
 30
0.0
 40
3.299999999999999
  0
CIRCLE
  5
B82
330
1F
100
AcDbEntity
  8
0
100
AcDbCircle
 10
2132.173443417663
 20
1381.434389514129
 30
0.0
 40
5.0
  0
CIRCLE
  5
B83
330
1F
100
AcDbEntity
  8
0
100
AcDbCircle
 10
2132.173443417663
 20
1381.434389514129
 30
0.0
 40
4.5
  0
LINE
  5
B84
330
1F
100
AcDbEntity
  8
AM_7
  6
AM_ISO08W050x2
100
AcDbLine
 10
2076.173443415257
 20
1331.434389508816
 30
0.0
 11
2088.173443415257
 21
1331.434389508816
 31
0.0
  0
LINE
  5
B85
102
{ACAD_REACTORS
330
EC2
102
}
330
1F
100
AcDbEntity
  8
AM_7
  6
AM_ISO08W050x2
100
AcDbLine
 10
2082.173443415257
 20
1337.434389508816
 30
0.0
 11
2082.173443415257
 21
1325.434389508816
 31
0.0
  0
LINE
  5
B86
330
1F
100
AcDbEntity
  8
AM_7
  6
AM_ISO08W050x2
100
AcDbLine
 10
2138.173443417663
 20
1331.434389508816
 30
0.0
 11
2126.173443417664
 21
1331.434389508816
 31
0.0
  0
LINE
  5
B87
102
{ACAD_REACTORS
330
EC2
102
}
330
1F
100
AcDbEntity
  8
AM_7
  6
AM_ISO08W050x2
100
AcDbLine
 10
2132.173443417663
 20
1337.434389508816
 30
0.0
 11
2132.173443417663
 21
1325.434389508816
 31
0.0
  0
CIRCLE
  5
C8D
330
1F
100
AcDbEntity
  8
0
100
AcDbCircle
 10
2132.173443417664
 20
1331.434389508816
 30
0.0
 40
5.0
  0
ARC
  5
C8E
330
1F
100
AcDbEntity
  8
AM_4
100
AcDbCircle
 10
2132.173443417664
 20
1331.434389508816
 30
0.0
 40
4.0
100
AcDbArc
 50
260.0
 51
170.0
  0
CIRCLE
  5
C8F
330
1F
100
AcDbEntity
  8
0
100
AcDbCircle
 10
2132.173443417664
 20
1331.434389508816
 30
0.0
 40
3.299999999999999
  0
CIRCLE
  5
C90
330
1F
100
AcDbEntity
  8
0
100
AcDbCircle
 10
2082.173443415257
 20
1331.434389508816
 30
0.0
 40
5.0
  0
CIRCLE
  5
C91
330
1F
100
AcDbEntity
  8
0
100
AcDbCircle
 10
2082.173443415257
 20
1331.434389508816
 30
0.0
 40
4.5
  0
LINE
  5
CA6
330
1F
100
AcDbEntity
  8
AM_7
100
AcDbLine
 10
2107.173443415257
 20
1558.679007985001
 30
0.0
 11
2142.173443415257
 21
1558.679007985001
 31
0.0
1001
GENIUS_GENOREF_13
1005
CAA
  0
LINE
  5
CA7
330
1F
100
AcDbEntity
  8
AM_7
100
AcDbLine
 10
2107.173443415257
 20
1558.679007985001
 30
0.0
 11
2107.173443415257
 21
1602.556659949598
 31
0.0
1001
GENIUS_GENOREF_13
1005
CAA
  0
LINE
  5
CA8
330
1F
100
AcDbEntity
  8
AM_7
100
AcDbLine
 10
2107.173443415257
 20
1558.679007985001
 30
0.0
 11
2072.173443415257
 21
1558.679007985001
 31
0.0
1001
GENIUS_GENOREF_13
1005
CAA
  0
LINE
  5
CA9
330
1F
100
AcDbEntity
  8
AM_7
100
AcDbLine
 10
2107.173443415257
 20
1558.679007985001
 30
0.0
 11
2107.173443415257
 21
1516.145755236751
 31
0.0
1001
GENIUS_GENOREF_13
1005
CAA
  0
POINT
  5
CAA
330
1F
100
AcDbEntity
  8
0
 60
     1
100
AcDbPoint
 10
0.0
 20
0.0
 30
0.0
1001
GENIUS_GENODEF_13
1002
{
1000
HIER
1070
    10
1002
}
1002
{
1000
MANEDIT
1070
     0
1002
}
1002
{
1000
NOSEL
1070
     0
1002
}
1002
{
1000
BEHIND
1070
     0
1002
}
1002
{
1000
OTHER
1070
     0
1002
}
1002
{
1000
REACTOR
1002
}
1001
GENIUS_GENOENT_13
1002
{
1000
MYREF
1005
CAA
1002
}
1002
{
1000
GRP
1005
0
1002
}
1001
GENIUS_GENOBJ-N-CRS_13
1002
{
1000
OWNER
1000
GEN
1002
}
1001
GENIUS_GENOLIS_13
1002
{
1000
ENT
1005
CA9
1005
CA8
1005
CA7
1005
CA6
1002
}
  0
ARC
  5
CD3
330
1F
100
AcDbEntity
  8
AM_4
100
AcDbCircle
 10
2107.173443415257
 20
1588.679007985001
 30
0.0
 40
4.0
100
AcDbArc
 50
260.0
 51
170.0
  0
CIRCLE
  5
CD4
330
1F
100
AcDbEntity
  8
AM_0
100
AcDbCircle
 10
2107.173443415257
 20
1588.679007985001
 30
0.0
 40
3.323417653293459
  0
LINE
  5
CD5
330
1F
100
AcDbEntity
  8
AM_7
  6
AM_ISO08W050x2
100
AcDbLine
 10
2101.173443415257
 20
1588.679007985001
 30
0.0
 11
2113.173443415257
 21
1588.679007985001
 31
0.0
  0
LINE
  5
CD6
330
1F
100
AcDbEntity
  8
AM_7
  6
AM_ISO08W050x2
100
AcDbLine
 10
2107.173443415257
 20
1582.679007985001
 30
0.0
 11
2107.173443415257
 21
1594.679007985001
 31
0.0
  0
ARC
  5
CD7
330
1F
100
AcDbEntity
  8
AM_4
100
AcDbCircle
 10
2107.173443415257
 20
1528.679007985001
 30
0.0
 40
4.0
100
AcDbArc
 50
260.0
 51
170.0
  0
CIRCLE
  5
CD8
330
1F
100
AcDbEntity
  8
AM_0
100
AcDbCircle
 10
2107.173443415257
 20
1528.679007985001
 30
0.0
 40
3.323417653293459
  0
LINE
  5
CD9
102
{ACAD_REACTORS
330
DD6
102
}
330
1F
100
AcDbEntity
  8
AM_7
  6
AM_ISO08W050x2
100
AcDbLine
 10
2101.173443415257
 20
1528.679007985001
 30
0.0
 11
2113.173443415257
 21
1528.679007985001
 31
0.0
  0
LINE
  5
CDA
330
1F
100
AcDbEntity
  8
AM_7
  6
AM_ISO08W050x2
100
AcDbLine
 10
2107.173443415257
 20
1522.679007985001
 30
0.0
 11
2107.173443415257
 21
1534.679007985001
 31
0.0
  0
ARC
  5
CDC
330
1F
100
AcDbEntity
  8
AM_4
100
AcDbCircle
 10
2131.173443415257
 20
1558.679007985001
 30
0.0
 40
4.0
100
AcDbArc
 50
260.0
 51
170.0
  0
CIRCLE
  5
CDD
330
1F
100
AcDbEntity
  8
AM_0
100
AcDbCircle
 10
2131.173443415257
 20
1558.679007985001
 30
0.0
 40
3.323417653293459
  0
LINE
  5
CDE
330
1F
100
AcDbEntity
  8
AM_7
  6
AM_ISO08W050x2
100
AcDbLine
 10
2125.173443415257
 20
1558.679007985001
 30
0.0
 11
2137.173443415257
 21
1558.679007985001
 31
0.0
  0
LINE
  5
CDF
330
1F
100
AcDbEntity
  8
AM_7
  6
AM_ISO08W050x2
100
AcDbLine
 10
2131.173443415257
 20
1552.679007985001
 30
0.0
 11
2131.173443415257
 21
1564.679007985001
 31
0.0
  0
ARC
  5
CE0
330
1F
100
AcDbEntity
  8
AM_4
100
AcDbCircle
 10
2083.173443415257
 20
1558.679007985001
 30
0.0
 40
4.0
100
AcDbArc
 50
260.0
 51
170.0
  0
CIRCLE
  5
CE1
330
1F
100
AcDbEntity
  8
AM_0
100
AcDbCircle
 10
2083.173443415257
 20
1558.679007985001
 30
0.0
 40
3.323417653293459
  0
LINE
  5
CE2
330
1F
100
AcDbEntity
  8
AM_7
  6
AM_ISO08W050x2
100
AcDbLine
 10
2077.173443415257
 20
1558.679007985001
 30
0.0
 11
2089.173443415257
 21
1558.679007985001
 31
0.0
  0
LINE
  5
CE3
102
{ACAD_REACTORS
330
D8A
102
}
330
1F
100
AcDbEntity
  8
AM_7
  6
AM_ISO08W050x2
100
AcDbLine
 10
2083.173443415257
 20
1552.679007985001
 30
0.0
 11
2083.173443415257
 21
1564.679007985001
 31
0.0
  0
ARC
  5
D0B
330
1F
100
AcDbEntity
  8
AM_4
100
AcDbCircle
 10
2107.173443415257
 20
1451.901377303683
 30
0.0
 40
6.5785
100
AcDbArc
 50
260.0
 51
170.0
  0
CIRCLE
  5
D0C
330
1F
100
AcDbEntity
  8
AM_0
100
AcDbCircle
 10
2107.173443415257
 20
1451.901377303683
 30
0.0
 40
5.722385
  0
LINE
  5
D0D
330
1F
100
AcDbEntity
  8
AM_7
  6
AM_ISO08W050x2
100
AcDbLine
 10
2098.594943415257
 20
1451.901377303683
 30
0.0
 11
2115.751943415257
 21
1451.901377303683
 31
0.0
  0
LINE
  5
D0E
330
1F
100
AcDbEntity
  8
AM_7
  6
AM_ISO08W050x2
100
AcDbLine
 10
2107.173443415257
 20
1443.322877303683
 30
0.0
 11
2107.173443415257
 21
1460.479877303683
 31
0.0
  0
ARC
  5
D0F
330
1F
100
AcDbEntity
  8
AM_4
100
AcDbCircle
 10
2107.173443415257
 20
1432.401377303683
 30
0.0
 40
6.5785
100
AcDbArc
 50
260.0
 51
170.0
  0
CIRCLE
  5
D10
330
1F
100
AcDbEntity
  8
AM_0
100
AcDbCircle
 10
2107.173443415257
 20
1432.401377303683
 30
0.0
 40
5.722385
  0
LINE
  5
D11
330
1F
100
AcDbEntity
  8
AM_7
  6
AM_ISO08W050x2
100
AcDbLine
 10
2098.594943415257
 20
1432.401377303683
 30
0.0
 11
2115.751943415257
 21
1432.401377303683
 31
0.0
  0
DIMENSION
  5
D21
102
{ACAD_XDICTIONARY
360
D2E
102
}
102
{ACAD_REACTORS
330
D2F
102
}
330
1F
100
AcDbEntity
  8
AM_5
100
AcDbDimension
  2
*D5
 10
2162.173443415257
 20
1518.679007985001
 30
0.0
 11
2158.673443415256
 21
1558.679007985002
 31
0.0
 70
    32
 71
     5
 42
80.0
  3
AM_ISO$0
100
AcDbAlignedDimension
 13
2135.173443415257
 23
1598.679007985001
 33
0.0
 14
2135.173443415257
 24
1518.679007985001
 34
0.0
 50
90.00000000000003
100
AcDbRotatedDimension
1001
ACAD
1000
DSTYLE
1002
{
1070
    40
1040
1.399999999999999
1070
   272
1070
     8
1002
}
  0
DIMENSION
  5
D56
102
{ACAD_XDICTIONARY
360
D63
102
}
102
{ACAD_REACTORS
330
D64
102
}
330
1F
100
AcDbEntity
  8
AM_5
100
AcDbDimension
  2
*D6
 10
2140.173443415257
 20
1496.679007985002
 30
0.0
 11
2107.173443415257
 21
1500.179007985002
 31
0.0
 70
    32
 71
     5
 42
66.0
  3
AM_ISO$0
100
AcDbAlignedDimension
 13
2074.173443415257
 23
1523.679007985001
 33
0.0
 14
2140.173443415257
 24
1523.679007985001
 34
0.0
 50
0.0000000000002036
100
AcDbRotatedDimension
1001
ACAD
1000
DSTYLE
1002
{
1070
    40
1040
1.399999999999999
1070
   272
1070
     8
1002
}
  0
DIMENSION
  5
D7C
102
{ACAD_XDICTIONARY
360
D89
102
}
102
{ACAD_REACTORS
330
D8A
102
}
330
1F
100
AcDbEntity
  8
AM_5
100
AcDbDimension
  2
*D7
 10
2083.173443415257
 20
1506.679007985001
 30
0.0
 11
2107.173443415257
 21
1510.179007985001
 31
0.0
 70
    32
 71
     5
 42
48.0
  3
AM_ISO$0
100
AcDbAlignedDimension
 13
2131.173443415257
 23
1552.679007985001
 33
0.0
 14
2083.173443415257
 24
1552.679007985001
 34
0.0
 50
0.0000000000002036
100
AcDbRotatedDimension
1001
ACAD
1000
DSTYLE
1002
{
1070
    40
1040
1.399999999999999
1070
   144
1040
1.0
1070
   272
1070
     8
1002
}
  0
DIMENSION
  5
DC8
102
{ACAD_XDICTIONARY
360
DD5
102
}
102
{ACAD_REACTORS
330
DD6
102
}
330
1F
100
AcDbEntity
  8
AM_5
100
AcDbDimension
  2
*D8
 10
2152.173443415257
 20
1588.679007985001
 30
0.0
 11
2148.673443415257
 21
1558.679007985002
 31
0.0
 70
    32
 71
     5
 42
60.0
  3
AM_ISO$0
100
AcDbAlignedDimension
 13
2113.173443415257
 23
1528.679007985001
 33
0.0
 14
2113.173443415257
 24
1588.679007985001
 34
0.0
 50
90.00000000000003
100
AcDbRotatedDimension
1001
ACAD
1000
DSTYLE
1002
{
1070
    40
1040
1.399999999999999
1070
   272
1070
     8
1002
}
  0
DIMENSION
  5
E18
102
{ACAD_XDICTIONARY
360
E25
102
}
102
{ACAD_REACTORS
330
E26
102
}
330
1F
100
AcDbEntity
  8
AM_5
100
AcDbDimension
  2
*D9
 10
2151.173443441315
 20
1462.401377303683
 30
0.0
 11
2147.673443441314
 21
1442.151377303683
 31
0.0
 70
    32
  1
<>+stroke
 71
     5
 42
40.49999999999999
  3
AM_ISO$0
100
AcDbAlignedDimension
 13
2139.173443441315
 23
1421.901377303683
 33
0.0
 14
2139.173443441315
 24
1462.401377303683
 34
0.0
 50
90.00000000000003
100
AcDbRotatedDimension
1001
ACAD
1000
DSTYLE
1002
{
1070
    40
1040
1.399999999999999
1070
   272
1070
     8
1002
}
  0
DIMENSION
  5
E3E
102
{ACAD_XDICTIONARY
360
E4B
102
}
102
{ACAD_REACTORS
330
E4C
102
}
330
1F
100
AcDbEntity
  8
AM_5
100
AcDbDimension
  2
*D10
 10
2161.173443441316
 20
1481.901377303683
 30
0.0
 11
2157.673443441315
 21
1451.901377303683
 31
0.0
 70
    32
  1
<>+stroke
 71
     5
 42
60.0
  3
AM_ISO$0
100
AcDbAlignedDimension
 13
2139.173443441315
 23
1421.901377303683
 33
0.0
 14
2140.173443415257
 24
1481.901377303683
 34
0.0
 50
90.00000000000003
100
AcDbRotatedDimension
1001
ACAD
1000
DSTYLE
1002
{
1070
    40
1040
1.399999999999999
1070
   272
1070
     8
1002
}
  0
DIMENSION
  5
E64
102
{ACAD_XDICTIONARY
360
E71
102
}
102
{ACAD_REACTORS
330
E72
102
}
330
1F
100
AcDbEntity
  8
AM_5
100
AcDbDimension
  2
*D11
 10
2151.173443441315
 20
1469.901377303683
 30
0.0
 11
2147.673030055488
 21
1475.901377303683
 31
0.0
 70
    32
 71
     5
 42
12.0
  3
AM_ISO$0
100
AcDbAlignedDimension
 13
2140.173443415257
 23
1481.901377303683
 33
0.0
 14
2140.173443415257
 24
1469.901377303683
 34
0.0
 50
90.00000000000003
100
AcDbRotatedDimension
1001
ACAD
1000
DSTYLE
1002
{
1070
    40
1040
1.399999999999999
1070
   272
1070
     8
1002
}
  0
DIMENSION
  5
EB4
102
{ACAD_XDICTIONARY
360
EC1
102
}
102
{ACAD_REACTORS
330
EC2
102
}
330
1F
100
AcDbEntity
  8
AM_5
100
AcDbDimension
  2
*D12
 10
2132.173443417663
 20
1304.434388513545
 30
0.0
 11
2107.17344341646
 21
1307.934388513545
 31
0.0
 70
    32
  1
{\Famgdt;o}<>
 71
     5
 42
50.00000000240652
  3
AM_ISO$0
100
AcDbAlignedDimension
 13
2082.173443415257
 23
1325.434389508816
 33
0.0
 14
2132.173443417663
 24
1325.434389508816
 34
0.0
100
AcDbRotatedDimension
1001
ACAD
1000
DSTYLE
1002
{
1070
    40
1040
1.399999999999999
1070
   272
1070
     8
1002
}
  0
DIMENSION
  5
EDA
102
{ACAD_XDICTIONARY
360
EE7
102
}
102
{ACAD_REACTORS
330
EE8
102
}
330
1F
100
AcDbEntity
  8
AM_5
100
AcDbDimension
  2
*D13
 10
2139.173443441312
 20
1294.434388513544
 30
0.0
 11
2107.173443428283
 21
1297.934388513544
 31
0.0
 70
    32
 71
     5
 42
64.00000002605657
  3
AM_ISO$0
100
AcDbAlignedDimension
 13
2075.173443415255
 23
1327.711576280125
 33
0.0
 14
2139.173443441312
 24
1327.711576306469
 34
0.0
100
AcDbRotatedDimension
1001
ACAD
1000
DSTYLE
1002
{
1070
    40
1040
1.399999999999999
1070
   272
1070
     8
1002
}
  0
DIMENSION
  5
F47
102
{ACAD_XDICTIONARY
360
F54
102
}
102
{ACAD_REACTORS
330
F55
102
}
330
1F
100
AcDbEntity
  8
AM_5
100
AcDbDimension
  2
*D14
 10
2157.441824848
 20
1395.434389514133
 30
0.0
 11
2153.941824848
 21
1359.93438951384
 31
0.0
 70
    32
 71
     5
 42
71.00000000058731
  3
AM_ISO$0
100
AcDbAlignedDimension
 13
2135.89625665146
 23
1324.434389513546
 33
0.0
 14
2116.466970676576
 24
1395.434389514133
 34
0.0
 50
90.00000000000003
100
AcDbRotatedDimension
1001
ACAD
1000
DSTYLE
1002
{
1070
    40
1040
1.399999999999999
1070
   272
1070
     8
1002
}
  0
INSERT
  5
F62
330
1F
100
AcDbEntity
  8
AM_5
100
AcDbBlockReference
  2
*S17
 10
0.0
 20
0.0
 30
0.0
  0
DIMENSION
  5
FBD
102
{ACAD_XDICTIONARY
360
FCC
102
}
102
{ACAD_REACTORS
330
FCD
102
}
330
1F
100
AcDbEntity
  8
AM_5
100
AcDbDimension
  2
*D15
 10
2151.173443441316
 20
1462.401377303683
 30
0.0
 11
2151.173443441316
 21
1466.151377303683
 31
0.0
 70
   160
 71
     5
 42
7.5
  3
AM_ISO$0
100
AcDbAlignedDimension
 13
2140.173443415257
 23
1469.901377303683
 33
0.0
 14
2139.173443441315
 24
1462.401377303683
 34
0.0
 50
90.00000000000003
100
AcDbRotatedDimension
1001
ACAD
1000
DSTYLE
1002
{
1070
    40
1040
1.399999999999999
1070
   272
1070
     8
1002
}
  0
INSERT
  5
102C
330
1F
100
AcDbEntity
  8
AM_5
100
AcDbBlockReference
  2
*S18
 10
0.0
 20
0.0
 30
0.0
  0
INSERT
  5
107A
330
1F
100
AcDbEntity
  8
AM_5
100
AcDbBlockReference
  2
*S19
 10
0.0
 20
0.0
 30
0.0
  0
LINE
  5
1081
330
1F
100
AcDbEntity
  8
AM_7
100
AcDbLine
 10
2207.34347258133
 20
1461.063346014886
 30
0.0
 11
2207.34347258133
 21
1470.877479249441
 31
0.0
  0
LINE
  5
1082
330
1F
100
AcDbEntity
  8
AM_7
100
AcDbLine
 10
2257.34347258133
 20
1461.063346014886
 30
0.0
 11
2257.34347258133
 21
1470.877479249441
 31
0.0
  0
LINE
  5
1085
330
1F
100
AcDbEntity
  8
AM_7
100
AcDbLine
 10
2082.173443414673
 20
1461.063346014886
 30
0.0
 11
2082.173443414673
 21
1470.877479249441
 31
0.0
  0
LINE
  5
1086
330
1F
100
AcDbEntity
  8
AM_7
100
AcDbLine
 10
2132.173443415841
 20
1461.063346014886
 30
0.0
 11
2132.173443415841
 21
1470.877479249441
 31
0.0
  0
LINE
  5
112A
330
1F
100
AcDbEntity
  8
LOGO
 62
     4
100
AcDbLine
 10
2298.051814451854
 20
1272.83352531307
 30
0.0
 11
2018.051814451854
 21
1272.83352531307
 31
0.0
  0
LWPOLYLINE
  5
112B
330
1F
100
AcDbEntity
  8
LOGO
 62
     4
100
AcDbPolyline
 90
        4
 70
     1
 43
0.0
 10
2018.051814451854
 20
1272.83352531307
 10
2298.051814451854
 20
1272.83352531307
 10
2298.051814451854
 20
1629.837579611712
 10
2018.051814451854
 20
1629.837579611712
1001
GENIUS_GENREC_14
1002
{
1000
PYDIR
1011
2018.051814451854
1021
1629.837579611712
1031
0.0
1002
}
1002
{
1000
PXDIR
1011
2298.051814451854
1021
1272.83352531307
1031
0.0
1002
}
1002
{
1000
PORI
1011
2018.051814451854
1021
1272.83352531307
1031
0.0
1002
}
1002
{
1000
PINS
1011
2018.051814451854
1021
1272.83352531307
1031
0.0
1002
}
1002
{
1000
PINS2
1011
2298.051814451854
1021
1629.837579611712
1031
0.0
1002
}
1002
{
1000
C
1070
     1
1002
}
1001
GENIUS_GENODEF_13
1002
{
1000
HIER
1070
     0
1002
}
1002
{
1000
MANEDIT
1070
     0
1002
}
1002
{
1000
NOSEL
1070
     0
1002
}
1002
{
1000
BEHIND
1070
     0
1002
}
1002
{
1000
OTHER
1070
     0
1002
}
1002
{
1000
REACTOR
1002
}
1001
GENIUS_GENOBJ-N-REC_13
1002
{
1000
OWNER
1000
GEN
1002
}
  0
LWPOLYLINE
  5
112C
330
1F
100
AcDbEntity
  8
LOGO
 62
     4
100
AcDbPolyline
 90
        4
 70
     1
 43
0.0
 10
2018.051814451854
 20
1272.83352531307
 10
2298.051814451854
 20
1272.83352531307
 10
2298.051814451854
 20
1244.837579611712
 10
2018.051814451854
 20
1244.837579611712
1001
GENIUS_GENREC_14
1002
{
1000
PYDIR
1011
2018.051814451854
1021
1244.837579611712
1031
0.0
1002
}
1002
{
1000
PXDIR
1011
2298.051814451854
1021
1272.83352531307
1031
0.0
1002
}
1002
{
1000
PORI
1011
2018.051814451854
1021
1272.83352531307
1031
0.0
1002
}
1002
{
1000
PINS
1011
2018.051814451854
1021
1272.83352531307
1031
0.0
1002
}
1002
{
1000
PINS2
1011
2298.051814451854
1021
1244.837579611712
1031
0.0
1002
}
1002
{
1000
C
1070
     1
1002
}
1001
GENIUS_GENOBJ-N-REC_13
1002
{
1000
OWNER
1000
GEN
1002
}
1001
GENIUS_GENODEF_13
1002
{
1000
HIER
1070
     0
1002
}
1002
{
1000
MANEDIT
1070
     0
1002
}
1002
{
1000
NOSEL
1070
     0
1002
}
1002
{
1000
BEHIND
1070
     0
1002
}
1002
{
1000
OTHER
1070
     0
1002
}
1002
{
1000
REACTOR
1002
}
  0
TEXT
  5
112D
330
1F
100
AcDbEntity
  8
LOGO
 62
     7
100
AcDbText
 10
2081.264806110044
 20
1260.568977893029
 30
0.0
 40
3.732792760180994
  1
Order example:
 41
0.8
  7
CHINESET
100
AcDbText
  0
TEXT
  5
112E
330
1F
100
AcDbEntity
  8
LOGO
 62
     7
100
AcDbText
 10
2081.934500000162
 20
1265.823977214761
 30
0.0
 40
5.599189140271492
  1
訂購代號：
  7
CHINESET
100
AcDbText
  0
LINE
  5
112F
330
1F
100
AcDbEntity
  8
LOGO
 62
     4
100
AcDbLine
 10
2079.642894994841
 20
1244.837579611712
 30
0.0
 11
2079.642894994841
 21
1272.83352531307
 31
0.0
  0
TEXT
  5
1130
330
1F
100
AcDbEntity
  8
LOGO
  6
Continuous
100
AcDbText
 10
2028.108083991993
 20
1250.337340895178
 30
0.0
 40
4.19939185520362
  1
金器工業股份有限公司
  7
CHINESET
100
AcDbText
  0
TEXT
  5
1131
330
1F
100
AcDbEntity
  8
LOGO
  6
Continuous
100
AcDbText
 10
2020.394631962691
 20
1246.137126288416
 30
0.0
 40
2.799594570135746
  1
MINDMAN INDUSTRIAL CO., LTD.
 41
0.85
  7
CHINESET
100
AcDbText
  0
LINE
  5
1132
330
1F
100
AcDbEntity
  8
LOGO
 62
     4
100
AcDbLine
 10
2079.642894994841
 20
1267.234336172799
 30
0.0
 11
2038.582174632849
 21
1267.234336172799
 31
0.0
  0
LINE
  5
1133
330
1F
100
AcDbEntity
  8
LOGO
 62
     4
100
AcDbLine
 10
2079.642894994841
 20
1261.635147032527
 30
0.0
 11
2038.582174632849
 21
1261.635147032527
 31
0.0
  0
LINE
  5
1134
330
1F
100
AcDbEntity
  8
LOGO
 62
     4
100
AcDbLine
 10
2079.642894994841
 20
1256.035957892256
 30
0.0
 11
2018.051814451854
 21
1256.035957892256
 31
0.0
  0
LINE
  5
1135
330
1F
100
AcDbEntity
  8
LOGO
 62
     4
100
AcDbLine
 10
2038.582174632849
 20
1256.035957892256
 30
0.0
 11
2038.582174632849
 21
1272.83352531307
 31
0.0
  0
TEXT
  5
1136
330
1F
100
AcDbEntity
  8
LOGO
100
AcDbText
 10
2066.645238963789
 20
1257.435755177323
 30
0.0
 40
2.799594570135746
  1
mm
  7
CHINESET
 72
     1
 11
2070.111403669672
 21
1258.835552462391
 31
0.0
100
AcDbText
 73
     2
  0
TEXT
  5
1137
330
1F
100
AcDbEntity
  8
LOGO
100
AcDbText
 10
2065.178784665147
 20
1268.634133457866
 30
0.0
 40
2.799594570135746
  1
1 : 1
  7
CHINESET
 72
     1
 11
2070.111403669672
 21
1270.033930742934
 31
0.0
100
AcDbText
 73
     2
  0
LINE
  5
1138
330
1F
100
AcDbEntity
  8
LOGO
 62
     4
100
AcDbLine
 10
2060.978931193936
 20
1256.035957892256
 30
0.0
 11
2060.978931193936
 21
1272.83352531307
 31
0.0
  0
CIRCLE
  5
1139
330
1F
100
AcDbEntity
  8
LOGO
  6
Continuous
100
AcDbCircle
 10
2066.162730708295
 20
1264.440729955935
 30
0.0
 40
1.625510502448884
  0
CIRCLE
  5
113A
330
1F
100
AcDbEntity
  8
LOGO
  6
Continuous
100
AcDbCircle
 10
2066.162730708295
 20
1264.440729955935
 30
0.0
 40
0.9524052561318359
  0
LINE
  5
113B
330
1F
100
AcDbEntity
  8
LOGO
100
AcDbLine
 10
2076.377627321946
 20
1262.815219453486
 30
0.0
 11
2076.377627321946
 21
1266.066240458384
 31
0.0
  0
LINE
  5
113C
330
1F
100
AcDbEntity
  8
LOGO
100
AcDbLine
 10
2071.281745205524
 20
1263.488324699804
 30
0.0
 11
2071.281745205524
 21
1265.393135212067
 31
0.0
  0
LINE
  5
113D
330
1F
100
AcDbEntity
  8
LOGO
  6
Continuous
100
AcDbLine
 10
2071.281745205524
 20
1265.393135212067
 30
0.0
 11
2076.377627321946
 21
1266.066240458384
 31
0.0
  0
LINE
  5
113E
330
1F
100
AcDbEntity
  8
LOGO
  6
Continuous
100
AcDbLine
 10
2071.281745205524
 20
1263.488324699804
 30
0.0
 11
2076.377627321946
 21
1262.815219453486
 31
0.0
  0
TEXT
  5
113F
330
1F
100
AcDbEntity
  8
LOGO
100
AcDbText
 10
2040.890590334207
 20
1268.6355112111
 30
183.4808160640697
 40
2.799594570135746
  1
比例 Scale:
 41
0.9
  7
CHINESET
 72
     4
 11
2049.780552913393
 21
1270.033930742934
 31
183.4808160640697
100
AcDbText
  0
TEXT
  5
1140
330
1F
100
AcDbEntity
  8
LOGO
100
AcDbText
 10
2040.729363682623
 20
1263.074325097514
 30
183.4808160640697
 40
2.799594570135746
  1
投影  View:
 41
0.9
  7
CHINESET
 72
     4
 11
2049.780552913393
 21
1264.434741602663
 31
183.4808160640697
100
AcDbText
  0
TEXT
  5
1141
330
1F
100
AcDbEntity
  8
LOGO
100
AcDbText
 10
2041.003074044614
 20
1257.435755177323
 30
183.4808160640697
 40
2.799594570135746
  1
單位  Unit:
 41
0.9
  7
CHINESET
 72
     4
 11
2049.780552913393
 21
1258.835552462391
 31
183.4808160640697
100
AcDbText
  0
SOLID
  5
1142
330
1F
100
AcDbEntity
  8
LOGO
 62
     5
100
AcDbTrace
 10
2020.956438748445
 20
1260.689885374199
 30
0.0
 11
2022.16690997921
 21
1260.689885374198
 31
0.0
 12
2027.21749683861
 22
1272.168491872834
 32
0.0
 13
2028.427968069375
 23
1272.168491872833
 33
0.0
  0
SOLID
  5
1143
330
1F
100
AcDbEntity
  8
LOGO
 62
     5
100
AcDbTrace
 10
2022.667794626425
 20
1260.689885374199
 30
0.0
 11
2023.87826585719
 21
1260.689885374199
 31
0.0
 12
2028.427968069375
 22
1271.250203352943
 32
0.0
 13
2027.21749683861
 23
1266.811808840137
 33
0.0
  0
SOLID
  5
1144
330
1F
100
AcDbEntity
  8
LOGO
 62
     2
100
AcDbTrace
 10
2022.16690997921
 20
1260.689885374198
 30
0.0
 11
2022.667794626425
 21
1260.689885374199
 31
0.0
 12
2028.427968069375
 22
1272.168491872833
 32
0.0
 13
2028.928852716589
 23
1272.168491872833
 33
0.0
  0
SOLID
  5
1145
330
1F
100
AcDbEntity
  8
LOGO
 62
     5
100
AcDbTrace
 10
2019.015756521621
 20
1256.515846647422
 30
0.0
 11
2019.433160394299
 21
1256.515846647422
 31
0.0
 12
2020.608602187881
 22
1258.60286601081
 32
0.0
 13
2021.026006060558
 23
1258.60286601081
 33
0.0
  0
SOLID
  5
1146
330
1F
100
AcDbEntity
  8
LOGO
 62
     5
100
AcDbTrace
 10
2020.608602187881
 20
1258.60286601081
 30
0.0
 11
2021.026006060558
 21
1258.60286601081
 31
0.0
 12
2020.608602187881
 22
1256.515846647422
 32
0.0
 13
2021.026006060558
 23
1256.515846647422
 33
0.0
  0
SOLID
  5
1147
330
1F
100
AcDbEntity
  8
LOGO
 62
     5
100
AcDbTrace
 10
2020.608602187881
 20
1256.515846647422
 30
0.0
 11
2021.026006060558
 21
1256.515846647422
 31
0.0
 12
2022.201447854141
 22
1258.60286601081
 32
0.0
 13
2022.618851726818
 23
1258.60286601081
 33
0.0
  0
SOLID
  5
1148
330
1F
100
AcDbEntity
  8
LOGO
 62
     5
100
AcDbTrace
 10
2022.201447854141
 20
1258.60286601081
 30
0.0
 11
2022.618851726818
 21
1258.60286601081
 31
0.0
 12
2022.201447854141
 22
1256.515846647422
 32
0.0
 13
2022.618851726818
 23
1256.515846647422
 33
0.0
  0
POLYLINE
  5
1149
330
1F
100
AcDbEntity
  8
LOGO
 62
     5
100
AcDb2dPolyline
 66
     1
 10
0.0
 20
0.0
 30
0.0
 40
0.4180727891402714
 41
0.4180727891402714
  0
VERTEX
  5
114A
330
1149
100
AcDbEntity
  8
LOGO
 62
     5
100
AcDbVertex
100
AcDb2dVertex
 10
2036.192683475874
 20
1257.768058265455
 30
0.0
 42
1.0
  0
VERTEX
  5
114B
330
1149
100
AcDbEntity
  8
LOGO
 62
     5
100
AcDbVertex
100
AcDb2dVertex
 10
2034.938465108453
 20
1257.768058265455
 30
0.0
 42
1.0
  0
SEQEND
  5
114C
330
1149
100
AcDbEntity
  8
LOGO
 62
     5
  0
POLYLINE
  5
114D
330
1F
100
AcDbEntity
  8
LOGO
 62
     5
100
AcDb2dPolyline
 66
     1
 10
0.0
 20
0.0
 30
0.0
 70
     1
  0
VERTEX
  5
114E
330
114D
100
AcDbEntity
  8
LOGO
 62
     5
100
AcDbVertex
100
AcDb2dVertex
 10
2032.574207698231
 20
1257.559356329116
 30
0.0
 42
1.000000057330635
  0
VERTEX
  5
114F
330
114D
100
AcDbEntity
  8
LOGO
 62
     5
100
AcDbVertex
100
AcDb2dVertex
 10
2033.826419316264
 20
1257.559356329116
 30
0.0
 42
1.000000057330635
  0
SEQEND
  5
1150
330
114D
100
AcDbEntity
  8
LOGO
 62
     5
  0
CIRCLE
  5
1151
330
1F
100
AcDbEntity
  8
LOGO
 62
     5
100
AcDbCircle
 10
2033.200313507249
 20
1257.559356329116
 30
0.0
 40
0.6261058090164707
  0
POLYLINE
  5
1152
330
1F
100
AcDbEntity
  8
LOGO
 62
     5
100
AcDb2dPolyline
 66
     1
 10
0.0
 20
0.0
 30
0.0
 70
     1
 40
0.4180727891402714
 41
0.4180727891402714
  0
VERTEX
  5
1153
330
1152
100
AcDbEntity
  8
LOGO
 62
     5
100
AcDbVertex
100
AcDb2dVertex
 10
2032.364167928967
 20
1257.559356329116
 30
0.0
 42
1.0
  0
VERTEX
  5
1154
330
1152
100
AcDbEntity
  8
LOGO
 62
     5
100
AcDbVertex
100
AcDb2dVertex
 10
2034.036459085529
 20
1257.559356329116
 30
0.0
 42
1.0
  0
SEQEND
  5
1155
330
1152
100
AcDbEntity
  8
LOGO
 62
     5
  0
LINE
  5
1156
330
1F
100
AcDbEntity
  8
LOGO
100
AcDbLine
 10
2036.400382037518
 20
1256.515846647422
 30
0.0
 11
2036.400382037518
 21
1257.768058265455
 31
0.0
  0
SOLID
  5
1157
330
1F
100
AcDbEntity
  8
LOGO
 62
     5
100
AcDbTrace
 10
2033.826377575879
 20
1258.60286601081
 30
0.0
 11
2034.243781448556
 21
1258.60286601081
 31
0.0
 12
2033.826377575879
 22
1256.515846647422
 32
0.0
 13
2034.243781448556
 23
1256.515846647422
 33
0.0
  0
SOLID
  5
1158
330
1F
100
AcDbEntity
  8
LOGO
 62
     5
100
AcDbTrace
 10
2034.730766546808
 20
1256.515846647422
 30
0.0
 11
2035.148170419486
 21
1256.515846647422
 31
0.0
 12
2034.730766546808
 22
1258.60286601081
 32
0.0
 13
2035.148170419486
 23
1258.60286601081
 33
0.0
  0
SOLID
  5
1159
330
1F
100
AcDbEntity
  8
LOGO
 62
     5
100
AcDbTrace
 10
2035.982978164842
 20
1257.768058265455
 30
0.0
 11
2036.400382037518
 21
1257.768058265455
 31
0.0
 12
2035.982978164842
 22
1256.515846647422
 32
0.0
 13
2036.400382037518
 23
1256.515846647422
 33
0.0
  0
SOLID
  5
115A
330
1F
100
AcDbEntity
  8
LOGO
 62
     5
100
AcDbTrace
 10
2034.68902615954
 20
1271.250203352943
 30
0.0
 11
2033.478554928775
 21
1266.811808840137
 31
0.0
 12
2034.68902615954
 22
1260.689885374198
 32
0.0
 13
2033.478554928775
 23
1260.689885374198
 33
0.0
  0
SOLID
  5
115B
330
1F
100
AcDbEntity
  8
LOGO
 62
     5
100
AcDbTrace
 10
2035.189910806754
 20
1260.689885374198
 30
0.0
 11
2036.400382037518
 21
1260.689885374198
 31
0.0
 12
2035.189910806754
 22
1272.168491872833
 32
0.0
 13
2036.400382037518
 23
1272.168491872834
 33
0.0
  0
SOLID
  5
115C
330
1F
100
AcDbEntity
  8
LOGO
 62
     2
100
AcDbTrace
 10
2034.68902615954
 20
1272.168491872834
 30
0.0
 11
2035.189910806754
 21
1272.168491872833
 31
0.0
 12
2034.68902615954
 22
1260.689885374198
 32
0.0
 13
2035.189910806754
 23
1260.689885374198
 33
0.0
  0
POLYLINE
  5
115D
330
1F
100
AcDbEntity
  8
LOGO
 62
     5
100
AcDb2dPolyline
 66
     1
 10
0.0
 20
0.0
 30
0.0
 40
0.4180727891402714
 41
0.4180727891402714
  0
VERTEX
  5
115E
330
115D
100
AcDbEntity
  8
LOGO
 62
     5
100
AcDbVertex
100
AcDb2dVertex
 10
2030.209866807237
 20
1257.768058265455
 30
0.0
 42
1.0
  0
VERTEX
  5
115F
330
115D
100
AcDbEntity
  8
LOGO
 62
     5
100
AcDbVertex
100
AcDb2dVertex
 10
2028.955648439815
 20
1257.768058265455
 30
0.0
 42
1.0
  0
SEQEND
  5
1160
330
115D
100
AcDbEntity
  8
LOGO
 62
     5
  0
POLYLINE
  5
1161
330
1F
100
AcDbEntity
  8
LOGO
 62
     5
100
AcDb2dPolyline
 66
     1
 10
0.0
 20
0.0
 30
0.0
 40
0.4180727891402714
 41
0.4180727891402714
  0
VERTEX
  5
1162
330
1161
100
AcDbEntity
  8
LOGO
 62
     5
100
AcDbVertex
100
AcDb2dVertex
 10
2031.462078425269
 20
1257.768058265455
 30
0.0
 42
1.0
  0
VERTEX
  5
1163
330
1161
100
AcDbEntity
  8
LOGO
 62
     5
100
AcDbVertex
100
AcDb2dVertex
 10
2030.207860057848
 20
1257.768058265455
 30
0.0
 42
1.0
  0
SEQEND
  5
1164
330
1161
100
AcDbEntity
  8
LOGO
 62
     5
  0
POLYLINE
  5
1165
330
1F
100
AcDbEntity
  8
LOGO
 62
     5
100
AcDb2dPolyline
 66
     1
 10
0.0
 20
0.0
 30
0.0
 40
0.4180727891402714
 41
0.4180727891402714
  0
VERTEX
  5
1166
330
1165
100
AcDbEntity
  8
LOGO
 62
     5
100
AcDbVertex
100
AcDb2dVertex
 10
2025.479261756631
 20
1257.768058265455
 30
0.0
 42
1.0
  0
VERTEX
  5
1167
330
1165
100
AcDbEntity
  8
LOGO
 62
     5
100
AcDbVertex
100
AcDb2dVertex
 10
2024.22504338921
 20
1257.768058265455
 30
0.0
 42
1.0
  0
SEQEND
  5
1168
330
1165
100
AcDbEntity
  8
LOGO
 62
     5
  0
SOLID
  5
1169
330
1F
100
AcDbEntity
  8
LOGO
 62
     5
100
AcDbTrace
 10
2024.017344827566
 20
1258.60286601081
 30
0.0
 11
2024.434748700242
 21
1258.60286601081
 31
0.0
 12
2024.017344827566
 22
1256.515846647422
 32
0.0
 13
2024.434748700242
 23
1256.515846647422
 33
0.0
  0
SOLID
  5
116A
330
1F
100
AcDbEntity
  8
LOGO
 62
     5
100
AcDbTrace
 10
2025.269556445599
 20
1257.768058265455
 30
0.0
 11
2025.686960318277
 21
1257.768058265455
 31
0.0
 12
2025.269556445599
 22
1256.515846647422
 32
0.0
 13
2025.686960318277
 23
1256.515846647422
 33
0.0
  0
POLYLINE
  5
116B
330
1F
100
AcDbEntity
  8
LOGO
 62
     5
100
AcDb2dPolyline
 66
     1
 10
0.0
 20
0.0
 30
0.0
 70
     1
 40
0.4180727891402714
 41
0.4180727891402714
  0
VERTEX
  5
116C
330
116B
100
AcDbEntity
  8
LOGO
 62
     5
100
AcDbVertex
100
AcDb2dVertex
 10
2026.381351260329
 20
1257.559356329116
 30
0.0
 42
1.0
  0
VERTEX
  5
116D
330
116B
100
AcDbEntity
  8
LOGO
 62
     5
100
AcDbVertex
100
AcDb2dVertex
 10
2028.053642416891
 20
1257.559356329116
 30
0.0
 42
1.0
  0
SEQEND
  5
116E
330
116B
100
AcDbEntity
  8
LOGO
 62
     5
  0
SOLID
  5
116F
330
1F
100
AcDbEntity
  8
LOGO
 62
     5
100
AcDbTrace
 10
2027.84356090724
 20
1259.228971819827
 30
0.0
 11
2028.260964779917
 21
1259.228971819827
 31
0.0
 12
2027.84356090724
 22
1256.515846647422
 32
0.0
 13
2028.260964779917
 23
1256.515846647422
 33
0.0
  0
SOLID
  5
1170
330
1F
100
AcDbEntity
  8
LOGO
 62
     5
100
AcDbTrace
 10
2028.747949878171
 20
1258.60286601081
 30
0.0
 11
2029.165353750848
 21
1258.60286601081
 31
0.0
 12
2028.747949878171
 22
1256.515846647422
 32
0.0
 13
2029.165353750848
 23
1256.515846647422
 33
0.0
  0
SOLID
  5
1171
330
1F
100
AcDbEntity
  8
LOGO
 62
     5
100
AcDbTrace
 10
2030.000161496203
 20
1257.768058265455
 30
0.0
 11
2030.417565368881
 21
1257.768058265455
 31
0.0
 12
2030.000161496203
 22
1256.515846647422
 32
0.0
 13
2030.417565368881
 23
1256.515846647422
 33
0.0
  0
SOLID
  5
1172
330
1F
100
AcDbEntity
  8
LOGO
 62
     5
100
AcDbTrace
 10
2031.252373114236
 20
1257.768058265455
 30
0.0
 11
2031.669776986914
 21
1257.768058265455
 31
0.0
 12
2031.252373114236
 22
1256.515846647421
 32
0.0
 13
2031.669776986914
 23
1256.515846647421
 33
0.0
  0
SOLID
  5
1173
330
1F
100
AcDbEntity
  8
LOGO
 62
     5
100
AcDbTrace
 10
2023.112955856634
 20
1258.895048721685
 30
0.0
 11
2023.530359729313
 21
1258.895048721685
 31
0.0
 12
2023.112955856634
 22
1259.228971819827
 32
0.0
 13
2023.530359729313
 23
1259.228971819827
 33
0.0
  0
SOLID
  5
1174
330
1F
100
AcDbEntity
  8
LOGO
 62
     5
100
AcDbTrace
 10
2023.112955856634
 20
1258.60286601081
 30
0.0
 11
2023.530359729313
 21
1258.60286601081
 31
0.0
 12
2023.112955856634
 22
1256.515846647421
 32
0.0
 13
2023.530359729313
 23
1256.515846647422
 33
0.0
  0
SOLID
  5
1175
330
1F
100
AcDbEntity
  8
LOGO
 62
     5
100
AcDbTrace
 10
2027.21749683861
 20
1260.689885374199
 30
0.0
 11
2028.427968069375
 21
1260.689885374199
 31
0.0
 12
2027.21749683861
 22
1266.811808840137
 32
0.0
 13
2028.427968069375
 23
1271.250203352943
 33
0.0
  0
SOLID
  5
1176
330
1F
100
AcDbEntity
  8
LOGO
 62
     5
100
AcDbTrace
 10
2028.928852716589
 20
1272.168491872833
 30
0.0
 11
2030.139323947354
 21
1272.168491872834
 31
0.0
 12
2028.928852716589
 22
1261.608173894089
 32
0.0
 13
2030.139323947354
 23
1266.046568406895
 33
0.0
  0
SOLID
  5
1177
330
1F
100
AcDbEntity
  8
LOGO
 62
     2
100
AcDbTrace
 10
2028.427968069375
 20
1272.168491872833
 30
0.0
 11
2028.928852716589
 21
1272.168491872833
 31
0.0
 12
2028.427968069375
 22
1260.689885374199
 32
0.0
 13
2028.928852716589
 23
1260.689885374199
 33
0.0
  0
SOLID
  5
1178
330
1F
100
AcDbEntity
  8
LOGO
 62
     5
100
AcDbTrace
 10
2028.928852716589
 20
1261.608173894089
 30
0.0
 11
2030.139323947354
 21
1266.046568406895
 31
0.0
 12
2034.68902615954
 22
1272.168491872834
 32
0.0
 13
2033.478554928775
 23
1272.168491872834
 33
0.0
  0
SOLID
  5
1179
330
1F
100
AcDbEntity
  8
LOGO
 62
     5
100
AcDbTrace
 10
2028.928852716589
 20
1260.689885374199
 30
0.0
 11
2030.139323947354
 21
1260.689885374199
 31
0.0
 12
2034.68902615954
 22
1271.250203352943
 32
0.0
 13
2033.478554928775
 23
1266.811808840137
 33
0.0
  0
SOLID
  5
117A
330
1F
100
AcDbEntity
  8
LOGO
 62
     2
100
AcDbTrace
 10
2028.427968069375
 20
1260.689885374199
 30
0.0
 11
2028.928852716589
 21
1260.689885374199
 31
0.0
 12
2034.68902615954
 22
1272.168491872834
 32
0.0
 13
2035.189910806754
 23
1272.168491872833
 33
0.0
  0
LINE
  5
117B
330
1F
100
AcDbEntity
  8
LOGO
 62
     4
100
AcDbLine
 10
2136.814039584816
 20
1257.435755177324
 30
0.0
 11
2136.814039584816
 21
1247.170575086826
 31
0.0
  0
LINE
  5
117C
330
1F
100
AcDbEntity
  8
LOGO
 62
     4
100
AcDbLine
 10
2118.150075783911
 20
1257.435755177324
 30
0.0
 11
2118.150075783911
 21
1247.170575086826
 31
0.0
  0
LINE
  5
117D
330
1F
100
AcDbEntity
  8
LOGO
 62
     4
100
AcDbLine
 10
2136.814039584816
 20
1247.170575086826
 30
0.0
 11
2118.150075783911
 21
1247.170575086826
 31
0.0
  0
LINE
  5
117E
330
1F
100
AcDbEntity
  8
LOGO
 62
     4
100
AcDbLine
 10
2139.609841002526
 20
1270.033930742934
 30
0.0
 11
2118.150075783911
 21
1270.033930742934
 31
0.0
  0
LINE
  5
117F
330
1F
100
AcDbEntity
  8
LOGO
 62
     4
100
AcDbLine
 10
2139.609841002526
 20
1261.635147032527
 30
0.0
 11
2118.150075783911
 21
1261.635147032527
 31
0.0
  0
LINE
  5
1180
330
1F
100
AcDbEntity
  8
LOGO
 62
     4
100
AcDbLine
 10
2118.150075783911
 20
1270.033930742934
 30
0.0
 11
2118.150075783911
 21
1261.635147032527
 31
0.0
  0
LINE
  5
1181
330
1F
100
AcDbEntity
  8
LOGO
 62
     4
100
AcDbLine
 10
2139.609841002526
 20
1270.033930742934
 30
0.0
 11
2139.609841002526
 21
1261.635147032527
 31
0.0
  0
LINE
  5
1182
330
1F
100
AcDbEntity
  8
LOGO
 62
     4
100
AcDbLine
 10
2128.455847813894
 20
1261.635147032527
 30
0.0
 11
2128.455847813894
 21
1257.435755177324
 31
0.0
  0
TEXT
  5
1183
330
1F
100
AcDbEntity
  8
LOGO
  6
Continuous
 62
     7
100
AcDbText
 10
2119.642408112503
 20
1263.388380853054
 30
0.0
 40
4.899999999999999
  1
MCGJ
  7
CHINESET
100
AcDbText
  0
LINE
  5
1184
330
1F
100
AcDbEntity
  8
LOGO
 62
     4
100
AcDbLine
 10
2136.814039584816
 20
1257.435755177324
 30
0.0
 11
2118.150075783911
 21
1257.435755177324
 31
0.0
  0
TEXT
  5
1185
330
1F
100
AcDbEntity
  8
LOGO
  6
Continuous
100
AcDbText
 10
2124.139282678411
 20
1248.619483488779
 30
183.4808160640697
 40
2.099999999999999
  1
Model
 41
0.8
  7
CHINESET
100
AcDbText
  0
TEXT
  5
1186
330
1F
100
AcDbEntity
  8
LOGO
100
AcDbText
 10
2123.580330945213
 20
1252.512430906478
 30
183.4808160640697
 40
3.5
  1
型號
  7
CHINESET
100
AcDbText
  0
LINE
  5
1187
330
1F
100
AcDbEntity
  8
LOGO
  6
Continuous
 62
     7
100
AcDbLine
 10
2140.502701125934
 20
1265.804789068507
 30
0.0
 11
2144.211297554449
 21
1265.804789068507
 31
0.0
  0
LINE
  5
1188
330
1F
100
AcDbEntity
  8
LOGO
 62
     4
100
AcDbLine
 10
2159.456156712928
 20
1257.435755177324
 30
0.0
 11
2159.456156712928
 21
1247.170575086826
 31
0.0
  0
LINE
  5
1189
330
1F
100
AcDbEntity
  8
LOGO
 62
     4
100
AcDbLine
 10
2140.126105616226
 20
1257.435755177324
 30
0.0
 11
2140.126105616226
 21
1247.170575086826
 31
0.0
  0
LINE
  5
118A
330
1F
100
AcDbEntity
  8
LOGO
 62
     4
100
AcDbLine
 10
2159.456156712928
 20
1247.170575086826
 30
0.0
 11
2140.126105616226
 21
1247.170575086826
 31
0.0
  0
LINE
  5
118B
330
1F
100
AcDbEntity
  8
LOGO
 62
     4
100
AcDbLine
 10
2156.196799672037
 20
1270.033930742934
 30
0.0
 11
2145.381164235862
 21
1270.033930742934
 31
0.0
  0
LINE
  5
118C
330
1F
100
AcDbEntity
  8
LOGO
 62
     4
100
AcDbLine
 10
2156.196799672037
 20
1261.635147032527
 30
0.0
 11
2145.381164235862
 21
1261.635147032527
 31
0.0
  0
LINE
  5
118D
330
1F
100
AcDbEntity
  8
LOGO
 62
     4
100
AcDbLine
 10
2145.381164235862
 20
1270.033930742934
 30
0.0
 11
2145.381164235862
 21
1261.635147032527
 31
0.0
  0
LINE
  5
118E
330
1F
100
AcDbEntity
  8
LOGO
 62
     4
100
AcDbLine
 10
2156.196799672037
 20
1270.033930742934
 30
0.0
 11
2156.196799672037
 21
1261.635147032527
 31
0.0
  0
LINE
  5
118F
330
1F
100
AcDbEntity
  8
LOGO
 62
     4
100
AcDbLine
 10
2150.788981953949
 20
1261.635147032527
 30
0.0
 11
2150.788981953949
 21
1257.435755177324
 31
0.0
  0
TEXT
  5
1190
330
1F
100
AcDbEntity
  8
LOGO
  6
Continuous
 62
     7
100
AcDbText
 10
2146.746443814857
 20
1263.388380853054
 30
0.0
 40
4.899999999999999
  1
12
  7
CHINESET
100
AcDbText
  0
LINE
  5
1191
330
1F
100
AcDbEntity
  8
LOGO
 62
     4
100
AcDbLine
 10
2159.456156712928
 20
1257.435755177324
 30
0.0
 11
2140.126105616226
 21
1257.435755177324
 31
0.0
  0
LINE
  5
1192
330
1F
100
AcDbEntity
  8
LOGO
  6
Continuous
 62
     7
100
AcDbLine
 10
2157.386776273846
 20
1265.804789068507
 30
0.0
 11
2161.095372702361
 21
1265.804789068507
 31
0.0
  0
LINE
  5
1193
330
1F
100
AcDbEntity
  8
LOGO
 62
     4
100
AcDbLine
 10
2180.591420731303
 20
1257.435755177324
 30
0.0
 11
2180.591420731303
 21
1247.170575086826
 31
0.0
  0
LINE
  5
1194
330
1F
100
AcDbEntity
  8
LOGO
 62
     4
100
AcDbLine
 10
2161.927456930398
 20
1257.435755177324
 30
0.0
 11
2161.927456930398
 21
1247.170575086826
 31
0.0
  0
LINE
  5
1195
330
1F
100
AcDbEntity
  8
LOGO
 62
     4
100
AcDbLine
 10
2180.591420731303
 20
1247.170575086826
 30
0.0
 11
2161.927456930398
 21
1247.170575086826
 31
0.0
  0
LINE
  5
1196
330
1F
100
AcDbEntity
  8
LOGO
 62
     4
100
AcDbLine
 10
2176.616631800365
 20
1270.033930742934
 30
0.0
 11
2162.265239383774
 21
1270.033930742934
 31
0.0
  0
LINE
  5
1197
330
1F
100
AcDbEntity
  8
LOGO
 62
     4
100
AcDbLine
 10
2176.616631800365
 20
1261.635147032527
 30
0.0
 11
2162.265239383774
 21
1261.635147032527
 31
0.0
  0
LINE
  5
1198
330
1F
100
AcDbEntity
  8
LOGO
 62
     4
100
AcDbLine
 10
2162.265239383774
 20
1270.033930742934
 30
0.0
 11
2162.265239383774
 21
1261.635147032527
 31
0.0
  0
LINE
  5
1199
330
1F
100
AcDbEntity
  8
LOGO
 62
     4
100
AcDbLine
 10
2176.616631800365
 20
1270.033930742934
 30
0.0
 11
2176.616631800365
 21
1261.635147032527
 31
0.0
  0
LINE
  5
119A
330
1F
100
AcDbEntity
  8
LOGO
 62
     4
100
AcDbLine
 10
2169.440935592069
 20
1261.635147032527
 30
0.0
 11
2169.440935592069
 21
1257.435755177324
 31
0.0
  0
TEXT
  5
119B
330
1F
100
AcDbEntity
  8
LOGO
  6
Continuous
 62
     7
100
AcDbText
 10
2165.325465828127
 20
1263.388380853054
 30
0.0
 40
4.899999999999999
  1
50
  7
CHINESET
100
AcDbText
  0
LINE
  5
119C
330
1F
100
AcDbEntity
  8
LOGO
 62
     4
100
AcDbLine
 10
2180.591420731303
 20
1257.435755177324
 30
0.0
 11
2161.927456930398
 21
1257.435755177324
 31
0.0
  0
LINE
  5
119D
330
1F
100
AcDbEntity
  8
LOGO
  6
Continuous
 62
     7
100
AcDbLine
 10
2177.811308691705
 20
1265.804789068507
 30
0.0
 11
2181.519905120221
 21
1265.804789068507
 31
0.0
  0
LINE
  5
119E
330
1F
100
AcDbEntity
  8
LOGO
 62
     4
100
AcDbLine
 10
2197.556763294047
 20
1257.435755177324
 30
0.0
 11
2197.556763294047
 21
1247.170575086826
 31
0.0
  0
LINE
  5
119F
330
1F
100
AcDbEntity
  8
LOGO
 62
     4
100
AcDbLine
 10
2182.351989348257
 20
1257.435755177324
 30
0.0
 11
2182.351989348257
 21
1247.170575086826
 31
0.0
  0
LINE
  5
11A0
330
1F
100
AcDbEntity
  8
LOGO
 62
     4
100
AcDbLine
 10
2197.556763294047
 20
1247.170575086826
 30
0.0
 11
2182.351989348257
 21
1247.170575086826
 31
0.0
  0
LINE
  5
11A1
330
1F
100
AcDbEntity
  8
LOGO
 62
     4
100
AcDbLine
 10
2191.625844436946
 20
1270.033930742934
 30
0.0
 11
2182.689771801633
 21
1270.033930742934
 31
0.0
  0
LINE
  5
11A2
330
1F
100
AcDbEntity
  8
LOGO
 62
     4
100
AcDbLine
 10
2191.625844436946
 20
1261.635147032527
 30
0.0
 11
2182.689771801633
 21
1261.635147032527
 31
0.0
  0
LINE
  5
11A3
330
1F
100
AcDbEntity
  8
LOGO
 62
     4
100
AcDbLine
 10
2182.689771801633
 20
1270.033930742934
 30
0.0
 11
2182.689771801633
 21
1261.635147032527
 31
0.0
  0
LINE
  5
11A4
330
1F
100
AcDbEntity
  8
LOGO
 62
     4
100
AcDbLine
 10
2191.625844436946
 20
1270.033930742934
 30
0.0
 11
2191.625844436946
 21
1261.635147032527
 31
0.0
  0
LINE
  5
11A5
330
1F
100
AcDbEntity
  8
LOGO
 62
     4
100
AcDbLine
 10
2187.157808119289
 20
1261.635147032527
 30
0.0
 11
2187.157808119289
 21
1257.435755177324
 31
0.0
  0
TEXT
  5
11A6
330
1F
100
AcDbEntity
  8
LOGO
  6
Continuous
 62
     7
100
AcDbText
 10
2185.701654782707
 20
1263.388380853054
 30
0.0
 40
4.899999999999999
  1
0
  7
CHINESET
100
AcDbText
  0
LINE
  5
11A7
330
1F
100
AcDbEntity
  8
LOGO
 62
     4
100
AcDbLine
 10
2197.556763294047
 20
1257.435755177324
 30
0.0
 11
2182.351989348257
 21
1257.435755177324
 31
0.0
  0
TEXT
  5
11A8
330
1F
100
AcDbEntity
  8
LOGO
  6
Continuous
100
AcDbText
 10
2141.829968625481
 20
1248.619483488779
 30
183.4808160640697
 40
2.099999999999999
  1
Bearing type
 41
0.8
  7
CHINESET
100
AcDbText
  0
TEXT
  5
11A9
330
1F
100
AcDbEntity
  8
LOGO
100
AcDbText
 10
2141.810185898149
 20
1252.512430906478
 30
183.4808160640697
 40
3.5
  1
軸承型式
  7
CHINESET
100
AcDbText
  0
TEXT
  5
11AA
330
1F
100
AcDbEntity
  8
LOGO
  6
Continuous
100
AcDbText
 10
2165.8367945302
 20
1248.619483488779
 30
183.4808160640697
 40
2.099999999999999
  1
Tube I.D.
 41
0.8
  7
CHINESET
100
AcDbText
  0
TEXT
  5
11AB
330
1F
100
AcDbEntity
  8
LOGO
100
AcDbText
 10
2166.683537155567
 20
1252.512430906478
 30
183.4808160640697
 40
3.5
  1
內徑
  7
CHINESET
100
AcDbText
  0
TEXT
  5
11AC
330
1F
100
AcDbEntity
  8
LOGO
  6
Continuous
100
AcDbText
 10
2186.35921943052
 20
1248.619483488779
 30
183.4808160640697
 40
2.099999999999999
  1
Stroke
 41
0.8
  7
CHINESET
100
AcDbText
  0
TEXT
  5
11AD
330
1F
100
AcDbEntity
  8
LOGO
100
AcDbText
 10
2186.213612333799
 20
1252.512430906478
 30
183.4808160640697
 40
3.5
  1
行程
  7
CHINESET
100
AcDbText
  0
TEXT
  5
11BA
330
1F
100
AcDbEntity
  8
LOGO
100
AcDbText
 10
2081.360044822574
 20
1246.326952873202
 30
0.0
 40
2.799999999999999
  1
10603141
 41
0.7
  7
CHINESET
 72
     1
 11
2087.753378155907
 21
1246.326952873202
 31
0.0
100
AcDbText
  0
LINE
  5
11BB
330
1F
100
AcDbEntity
  8
LOGO
 62
     4
100
AcDbLine
 10
2096.442894994839
 20
1250.436768751985
 30
0.0
 11
2096.442894994841
 21
1244.837579611713
 31
0.0
  0
LINE
  5
11BC
330
1F
100
AcDbEntity
  8
LOGO
 62
     4
100
AcDbLine
 10
2096.442894994839
 20
1250.436768751985
 30
0.0
 11
2079.642894994841
 21
1250.436768751985
 31
0.0
  0
LINE
  5
11BD
330
1F
100
AcDbEntity
  8
LOGO
  6
AM_ISO08W050x2
 48
0.3
100
AcDbLine
 10
2063.921940140566
 20
1264.440729955935
 30
0.0
 11
2068.403521276025
 21
1264.440729955935
 31
0.0
1001
GENIUS_GENOREF_13
1005
11C2
  0
LINE
  5
11BE
330
1F
100
AcDbEntity
  8
LOGO
  6
AM_ISO08W050x2
 48
0.3
100
AcDbLine
 10
2066.162730708295
 20
1262.199939388206
 30
0.0
 11
2066.162730708295
 21
1266.681520523664
 31
0.0
1001
GENIUS_GENOREF_13
1005
11C1
  0
LINE
  5
11BF
330
1F
100
AcDbEntity
  8
LOGO
  6
CENTER
 48
0.5
100
AcDbLine
 10
2070.874216275591
 20
1264.440729955935
 30
0.0
 11
2076.890766154849
 21
1264.440729955935
 31
0.0
1001
GENIUS_GENOREF_13
1005
11C0
  0
POINT
  5
11C0
330
1F
100
AcDbEntity
  8
0
 60
     1
100
AcDbPoint
 10
359.5269031599705
 20
386.0297909574864
 30
0.0
1001
GENIUS_GENOBJ-N-CRS_13
1002
{
1000
OWNER
1000
GEN
1002
}
1001
GENIUS_GENOLIS_13
1002
{
1000
ENT
1005
0
1005
0
1005
0
1005
11BF
1002
}
1001
GENIUS_GENOENT_13
1002
{
1000
MYREF
1005
11C0
1002
}
1002
{
1000
GRP
1005
0
1002
}
1001
GENIUS_GENODEF_13
1002
{
1000
HIER
1070
    10
1002
}
1002
{
1000
MANEDIT
1070
     1
1002
}
1002
{
1000
NOSEL
1070
     0
1002
}
1002
{
1000
BEHIND
1070
     0
1002
}
1002
{
1000
OTHER
1070
     0
1002
}
1002
{
1000
REACTOR
1002
}
  0
POINT
  5
11C1
330
1F
100
AcDbEntity
  8
0
 60
     1
100
AcDbPoint
 10
348.2023179371158
 20
394.9053774361226
 30
0.0
1001
GENIUS_GENOBJ-N-CRS_13
1002
{
1000
OWNER
1000
GEN
1002
}
1001
GENIUS_GENOLIS_13
1002
{
1000
ENT
1005
0
1005
0
1005
0
1005
11BE
1002
}
1001
GENIUS_GENOENT_13
1002
{
1000
MYREF
1005
11C1
1002
}
1002
{
1000
GRP
1005
0
1002
}
1001
GENIUS_GENODEF_13
1002
{
1000
HIER
1070
    10
1002
}
1002
{
1000
MANEDIT
1070
     1
1002
}
1002
{
1000
NOSEL
1070
     0
1002
}
1002
{
1000
BEHIND
1070
     0
1002
}
1002
{
1000
OTHER
1070
     0
1002
}
1002
{
1000
REACTOR
1002
}
  0
POINT
  5
11C2
330
1F
100
AcDbEntity
  8
0
 60
     1
100
AcDbPoint
 10
354.5609916349527
 20
386.0297909574864
 30
0.0
1001
GENIUS_GENOBJ-N-CRS_13
1002
{
1000
OWNER
1000
GEN
1002
}
1001
GENIUS_GENOLIS_13
1002
{
1000
ENT
1005
0
1005
0
1005
0
1005
11BD
1002
}
1001
GENIUS_GENOENT_13
1002
{
1000
MYREF
1005
11C2
1002
}
1002
{
1000
GRP
1005
0
1002
}
1001
GENIUS_GENODEF_13
1002
{
1000
HIER
1070
    10
1002
}
1002
{
1000
MANEDIT
1070
     1
1002
}
1002
{
1000
NOSEL
1070
     0
1002
}
1002
{
1000
BEHIND
1070
     0
1002
}
1002
{
1000
OTHER
1070
     0
1002
}
1002
{
1000
REACTOR
1002
}
  0
ENDSEC
  0
SECTION
  2
OBJECTS
  0
DICTIONARY
  5
C
330
0
100
AcDbDictionary
281
     1
  3
ACAD_COLOR
350
BE
  3
ACAD_GROUP
350
D
  3
ACAD_LAYOUT
350
1A
  3
ACAD_MATERIAL
350
BD
  3
ACAD_MLINESTYLE
350
17
  3
ACAD_PLOTSETTINGS
350
19
  3
ACAD_PLOTSTYLENAME
350
E
  3
ACAD_TABLESTYLE
350
11A
  3
ACDBHEADERROUNDTRIPXREC
350
13AB
  3
AcDbVariableDictionary
350
94
  3
AcmDictionary
350
5B
  3
AMG
350
41
  3
AMGSNAPSETTINGS
350
1B8
  3
DWGPROPS
350
13AA
  0
DICTIONARY
  5
3F9
330
2
100
AcDbDictionary
280
     1
281
     1
  3
ACAD_LAYERFILTERS
360
5B7
  3
ACAD_LAYERSTATES
360
760
  3
ACLYDICTIONARY
360
5B6
  0
DICTIONARY
  5
8F
330
1F
100
AcDbDictionary
280
     1
281
     1
  3
ACAD_SORTENTS
360
B3C
  0
DICTIONARY
  5
D2E
330
D21
100
AcDbDictionary
280
     1
281
     1
  3
ACAD_DIMASSOC
360
D2F
  0
DICTIONARY
  5
D63
330
D56
100
AcDbDictionary
280
     1
281
     1
  3
ACAD_DIMASSOC
360
D64
  0
DICTIONARY
  5
D89
330
D7C
100
AcDbDictionary
280
     1
281
     1
  3
ACAD_DIMASSOC
360
D8A
  0
DICTIONARY
  5
DD5
330
DC8
100
AcDbDictionary
280
     1
281
     1
  3
ACAD_DIMASSOC
360
DD6
  0
DICTIONARY
  5
E25
330
E18
100
AcDbDictionary
280
     1
281
     1
  3
ACAD_DIMASSOC
360
E26
  0
DICTIONARY
  5
E4B
330
E3E
100
AcDbDictionary
280
     1
281
     1
  3
ACAD_DIMASSOC
360
E4C
  0
DICTIONARY
  5
E71
330
E64
100
AcDbDictionary
280
     1
281
     1
  3
ACAD_DIMASSOC
360
E72
  0
DICTIONARY
  5
EC1
330
EB4
100
AcDbDictionary
280
     1
281
     1
  3
ACAD_DIMASSOC
360
EC2
  0
DICTIONARY
  5
EE7
330
EDA
100
AcDbDictionary
280
     1
281
     1
  3
ACAD_DIMASSOC
360
EE8
  0
DICTIONARY
  5
F54
330
F47
100
AcDbDictionary
280
     1
281
     1
  3
ACAD_DIMASSOC
360
F55
  0
DICTIONARY
  5
FCC
330
FBD
100
AcDbDictionary
280
     1
281
     1
  3
ACAD_DIMASSOC
360
FCD
  0
DICTIONARY
  5
BE
102
{ACAD_REACTORS
330
C
102
}
330
C
100
AcDbDictionary
281
     1
  0
DICTIONARY
  5
D
102
{ACAD_REACTORS
330
C
102
}
330
C
100
AcDbDictionary
281
     1
  0
DICTIONARY
  5
1A
102
{ACAD_REACTORS
330
C
102
}
330
C
100
AcDbDictionary
281
     1
  3
Model
350
22
  3
配置1
350
1E
  3
配置2
350
26
  0
DICTIONARY
  5
BD
102
{ACAD_REACTORS
330
C
102
}
330
C
100
AcDbDictionary
281
     1
  0
DICTIONARY
  5
17
102
{ACAD_REACTORS
330
C
102
}
330
C
100
AcDbDictionary
281
     1
  3
Standard
350
18
  0
DICTIONARY
  5
19
102
{ACAD_REACTORS
330
C
102
}
330
C
100
AcDbDictionary
281
     1
  0
ACDBDICTIONARYWDFLT
  5
E
102
{ACAD_REACTORS
330
C
102
}
330
C
100
AcDbDictionary
281
     1
  3
Normal
350
F
100
AcDbDictionaryWithDefault
340
F
  0
DICTIONARY
  5
11A
102
{ACAD_REACTORS
330
C
102
}
330
C
100
AcDbDictionary
281
     1
  3
Standard
350
11B
  0
DICTIONARY
  5
13AB
102
{ACAD_REACTORS
330
C
102
}
330
C
100
AcDbDictionary
281
     1
  0
DICTIONARY
  5
94
102
{ACAD_REACTORS
330
C
102
}
330
C
100
AcDbDictionary
281
     1
  3
CTABLESTYLE
350
138
  3
DIMASSOC
350
96
  3
INDEXCTL
350
95
  3
PROJECTNAME
350
13A8
  0
DICTIONARY
  5
5B
102
{ACAD_REACTORS
330
C
102
}
330
C
100
AcDbDictionary
281
     1
  3
AcmBOM
350
1B5
  3
AcmStdDictionary
350
61
  3
AMDTSECTSYM_ARROWCOLOR
350
123
  0
DICTIONARY
  5
41
102
{ACAD_REACTORS
330
C
102
}
330
C
100
AcDbDictionary
281
     1
  0
DICTIONARY
  5
1B8
102
{ACAD_REACTORS
330
C
102
}
330
C
100
AcDbDictionary
281
     1
  0
XRECORD
  5
13AA
102
{ACAD_REACTORS
330
C
102
}
330
C
100
AcDbXrecord
280
     1
  1
DWGPROPS COOKIE
  2

  3

  4

  6

  7

  8

  9

300
AmdtFileType=84
301
=
302
=
303
=
304
=
305
=
306
=
307
=
308
=
309
=
 40
0.1827497453703704
 41
2453808.715631146
 42
2453815.445732419
  1

 90
        1
  0
DICTIONARY
  5
5B7
102
{ACAD_REACTORS
330
3F9
102
}
330
3F9
100
AcDbDictionary
281
     1
  0
DICTIONARY
  5
760
102
{ACAD_REACTORS
330
3F9
102
}
330
3F9
100
AcDbDictionary
281
     1
  0
DICTIONARY
  5
5B6
102
{ACAD_REACTORS
330
3F9
102
}
330
3F9
100
AcDbDictionary
281
     1
1001
ACAD
1000
<All
  0
SORTENTSTABLE
  5
B3C
102
{ACAD_REACTORS
330
8F
102
}
330
8F
100
AcDbSortentsTable
330
1F
331
9B8
  5
9B8
331
942
  5
942
331
979
  5
979
331
CD9
  5
CD9
331
B82
  5
B82
331
AAC
  5
AAC
331
A36
  5
A36
331
9C0
  5
9C0
331
94A
  5
94A
331
981
  5
981
331
9F7
  5
9F7
331
A6D
  5
A6D
331
CE1
  5
CE1
331
AB4
  5
AB4
331
A3E
  5
A3E
331
989
  5
989
331
913
  5
913
331
952
  5
952
331
9C8
  5
9C8
331
9FF
  5
9FF
331
A75
  5
A75
331
A46
  5
A46
331
95A
  5
95A
331
91B
  5
91B
331
991
  5
991
331
9D0
  5
9D0
331
A07
  5
A07
331
A7D
  5
A7D
331
A4E
  5
A4E
331
A0F
  5
A0F
331
A85
  5
A85
331
923
  5
923
331
962
  5
962
331
999
  5
999
331
A56
  5
A56
331
92B
  5
92B
331
96A
  5
96A
331
9A1
  5
9A1
331
A17
  5
A17
331
A8D
  5
A8D
331
9A9
  5
9A9
331
933
  5
933
331
972
  5
972
331
9E8
  5
9E8
331
A1F
  5
A1F
331
A5E
  5
A5E
331
A95
  5
A95
331
B63
  5
B63
331
A9D
  5
A9D
331
9B1
  5
9B1
331
93B
  5
93B
331
A27
  5
A27
331
A66
  5
A66
331
AA5
  5
AA5
331
A2F
  5
A2F
331
97A
  5
97A
331
943
  5
943
331
9B9
  5
9B9
331
9F0
  5
9F0
331
B83
  5
B83
331
AAD
  5
AAD
331
94B
  5
94B
331
982
  5
982
331
9C1
  5
9C1
331
9F8
  5
9F8
331
A37
  5
A37
331
A6E
  5
A6E
331
CDA
  5
CDA
331
CE2
  5
CE2
331
A3F
  5
A3F
331
9C9
  5
9C9
331
953
  5
953
331
914
  5
914
331
98A
  5
98A
331
A00
  5
A00
331
A76
  5
A76
331
A47
  5
A47
331
9D1
  5
9D1
331
91C
  5
91C
331
95B
  5
95B
331
992
  5
992
331
A08
  5
A08
331
A7E
  5
A7E
331
AC5
  5
AC5
331
AD5
  5
AD5
331
A4F
  5
A4F
331
A86
  5
A86
331
99A
  5
99A
331
924
  5
924
331
963
  5
963
331
A10
  5
A10
331
A8E
  5
A8E
331
96B
  5
96B
331
92C
  5
92C
331
9A2
  5
9A2
331
A18
  5
A18
331
A57
  5
A57
331
A5F
  5
A5F
331
9E9
  5
9E9
331
934
  5
934
331
973
  5
973
331
9AA
  5
9AA
331
A20
  5
A20
331
A96
  5
A96
331
CD3
  5
CD3
331
A67
  5
A67
331
93C
  5
93C
331
9B2
  5
9B2
331
A28
  5
A28
331
A9E
  5
A9E
331
AA6
  5
AA6
331
A30
  5
A30
331
9BA
  5
9BA
331
944
  5
944
331
97B
  5
97B
331
9F1
  5
9F1
331
B84
  5
B84
331
AAE
  5
AAE
331
A38
  5
A38
331
9C2
  5
9C2
331
94C
  5
94C
331
983
  5
983
331
9F9
  5
9F9
331
A6F
  5
A6F
331
CE3
  5
CE3
331
A40
  5
A40
331
98B
  5
98B
331
915
  5
915
331
954
  5
954
331
9CA
  5
9CA
331
A01
  5
A01
331
A77
  5
A77
331
95C
  5
95C
331
91D
  5
91D
331
993
  5
993
331
9D2
  5
9D2
331
A09
  5
A09
331
A48
  5
A48
331
A7F
  5
A7F
331
D0B
  5
D0B
331
A87
  5
A87
331
AD6
  5
AD6
331
A50
  5
A50
331
925
  5
925
331
964
  5
964
331
99B
  5
99B
331
A11
  5
A11
331
A58
  5
A58
331
9A3
  5
9A3
331
92D
  5
92D
331
96C
  5
96C
331
A19
  5
A19
331
A8F
  5
A8F
331
9AB
  5
9AB
331
935
  5
935
331
974
  5
974
331
9EA
  5
9EA
331
A21
  5
A21
331
A60
  5
A60
331
A97
  5
A97
331
CD4
  5
CD4
331
A9F
  5
A9F
331
9B3
  5
9B3
331
93D
  5
93D
331
A29
  5
A29
331
AA7
  5
AA7
331
A31
  5
A31
331
945
  5
945
331
97C
  5
97C
331
9BB
  5
9BB
331
9F2
  5
9F2
331
A68
  5
A68
331
B85
  5
B85
331
A70
  5
A70
331
94D
  5
94D
331
984
  5
984
331
9C3
  5
9C3
331
9FA
  5
9FA
331
A39
  5
A39
331
AAF
  5
AAF
331
CDC
  5
CDC
331
C8D
  5
C8D
331
A41
  5
A41
331
9CB
  5
9CB
331
955
  5
955
331
916
  5
916
331
98C
  5
98C
331
A02
  5
A02
331
A78
  5
A78
331
A49
  5
A49
331
9D3
  5
9D3
331
91E
  5
91E
331
95D
  5
95D
331
994
  5
994
331
A0A
  5
A0A
331
A80
  5
A80
331
AD7
  5
AD7
331
D0C
  5
D0C
331
99C
  5
99C
331
926
  5
926
331
965
  5
965
331
A12
  5
A12
331
A51
  5
A51
331
A88
  5
A88
331
A90
  5
A90
331
96D
  5
96D
331
92E
  5
92E
331
9A4
  5
9A4
331
A1A
  5
A1A
331
A59
  5
A59
331
A61
  5
A61
331
9EB
  5
9EB
331
936
  5
936
331
975
  5
975
331
9AC
  5
9AC
331
A22
  5
A22
331
A98
  5
A98
331
CD5
  5
CD5
331
AA0
  5
AA0
331
9B4
  5
9B4
331
93E
  5
93E
331
A2A
  5
A2A
331
A32
  5
A32
331
9BC
  5
9BC
331
946
  5
946
331
97D
  5
97D
331
9F3
  5
9F3
331
A69
  5
A69
331
AA8
  5
AA8
331
B86
  5
B86
331
AB0
  5
AB0
331
A3A
  5
A3A
331
9C4
  5
9C4
331
94E
  5
94E
331
985
  5
985
331
9FB
  5
9FB
331
A71
  5
A71
331
CDD
  5
CDD
331
C8E
  5
C8E
331
A42
  5
A42
331
956
  5
956
331
917
  5
917
331
98D
  5
98D
331
9CC
  5
9CC
331
A03
  5
A03
331
A79
  5
A79
331
A81
  5
A81
331
95E
  5
95E
331
91F
  5
91F
331
995
  5
995
331
9D4
  5
9D4
331
A0B
  5
A0B
331
A4A
  5
A4A
331
D0D
  5
D0D
331
CA6
  5
CA6
331
A52
  5
A52
331
927
  5
927
331
966
  5
966
331
99D
  5
99D
331
A13
  5
A13
331
A89
  5
A89
331
AD8
  5
AD8
331
9A5
  5
9A5
331
92F
  5
92F
331
96E
  5
96E
331
9E4
  5
9E4
331
A1B
  5
A1B
331
A5A
  5
A5A
331
A91
  5
A91
331
9AD
  5
9AD
331
937
  5
937
331
976
  5
976
331
A23
  5
A23
331
A62
  5
A62
331
A99
  5
A99
331
CD6
  5
CD6
331
AA1
  5
AA1
331
9B5
  5
9B5
331
93F
  5
93F
331
A2B
  5
A2B
331
B7F
  5
B7F
331
AA9
  5
AA9
331
A33
  5
A33
331
947
  5
947
331
97E
  5
97E
331
9BD
  5
9BD
331
9F4
  5
9F4
331
A6A
  5
A6A
331
CDE
  5
CDE
331
B87
  5
B87
331
A72
  5
A72
331
9C5
  5
9C5
331
94F
  5
94F
331
910
  5
910
331
986
  5
986
331
9FC
  5
9FC
331
A3B
  5
A3B
331
AB1
  5
AB1
331
C8F
  5
C8F
331
A43
  5
A43
331
9CD
  5
9CD
331
957
  5
957
331
918
  5
918
331
98E
  5
98E
331
A04
  5
A04
331
A7A
  5
A7A
331
A4B
  5
A4B
331
9D5
  5
9D5
331
95F
  5
95F
331
996
  5
996
331
A0C
  5
A0C
331
A82
  5
A82
331
CA7
  5
CA7
331
D0E
  5
D0E
331
920
  5
920
331
A8A
  5
A8A
331
967
  5
967
331
928
  5
928
331
99E
  5
99E
331
A14
  5
A14
331
A53
  5
A53
331
B40
  5
B40
331
A92
  5
A92
331
96F
  5
96F
331
930
  5
930
331
9A6
  5
9A6
331
9E5
  5
9E5
331
A1C
  5
A1C
331
A5B
  5
A5B
331
A63
  5
A63
331
938
  5
938
331
977
  5
977
331
9AE
  5
9AE
331
A24
  5
A24
331
A9A
  5
A9A
331
CD7
  5
CD7
331
9B6
  5
9B6
331
A2C
  5
A2C
331
AA2
  5
AA2
331
940
  5
940
331
B80
  5
B80
331
A34
  5
A34
331
9BE
  5
9BE
331
948
  5
948
331
97F
  5
97F
331
9F5
  5
9F5
331
A6B
  5
A6B
331
AAA
  5
AAA
331
CDF
  5
CDF
331
AB2
  5
AB2
331
A3C
  5
A3C
331
9C6
  5
9C6
331
911
  5
911
331
950
  5
950
331
987
  5
987
331
9FD
  5
9FD
331
A73
  5
A73
331
C90
  5
C90
331
A44
  5
A44
331
958
  5
958
331
919
  5
919
331
98F
  5
98F
331
9CE
  5
9CE
331
A05
  5
A05
331
A7B
  5
A7B
331
A83
  5
A83
331
997
  5
997
331
A0D
  5
A0D
331
A4C
  5
A4C
331
960
  5
960
331
921
  5
921
331
CA8
  5
CA8
331
A54
  5
A54
331
929
  5
929
331
968
  5
968
331
99F
  5
99F
331
A15
  5
A15
331
A8B
  5
A8B
331
ADA
  5
ADA
331
B41
  5
B41
331
9A7
  5
9A7
331
931
  5
931
331
970
  5
970
331
9E6
  5
9E6
331
A1D
  5
A1D
331
A5C
  5
A5C
331
A93
  5
A93
331
A9B
  5
A9B
331
9AF
  5
9AF
331
939
  5
939
331
9EE
  5
9EE
331
A25
  5
A25
331
A64
  5
A64
331
AA3
  5
AA3
331
9B7
  5
9B7
331
A2D
  5
A2D
331
978
  5
978
331
941
  5
941
331
CD8
  5
CD8
331
B81
  5
B81
331
AAB
  5
AAB
331
A35
  5
A35
331
949
  5
949
331
980
  5
980
331
9BF
  5
9BF
331
9F6
  5
9F6
331
A6C
  5
A6C
331
CE0
  5
CE0
331
A3D
  5
A3D
331
9C7
  5
9C7
331
951
  5
951
331
912
  5
912
331
988
  5
988
331
9FE
  5
9FE
331
A74
  5
A74
331
AB3
  5
AB3
331
C91
  5
C91
331
A45
  5
A45
331
9CF
  5
9CF
331
91A
  5
91A
331
959
  5
959
331
990
  5
990
331
A06
  5
A06
331
A7C
  5
A7C
331
A4D
  5
A4D
331
A0E
  5
A0E
331
A84
  5
A84
331
998
  5
998
331
922
  5
922
331
961
  5
961
331
CA9
  5
CA9
331
A8C
  5
A8C
331
969
  5
969
331
92A
  5
92A
331
9A0
  5
9A0
331
9DF
  5
9DF
331
A16
  5
A16
331
A55
  5
A55
331
A94
  5
A94
331
9E7
  5
9E7
331
971
  5
971
331
932
  5
932
331
9A8
  5
9A8
331
A1E
  5
A1E
331
A5D
  5
A5D
331
B62
  5
B62
331
A65
  5
A65
331
9EF
  5
9EF
331
93A
  5
93A
331
9B0
  5
9B0
331
A26
  5
A26
331
A9C
  5
A9C
331
A2E
  5
A2E
331
AA4
  5
AA4
  0
DIMASSOC
  5
D2F
102
{ACAD_REACTORS
330
D2E
102
}
330
D2E
100
AcDbDimAssoc
330
D21
 90
        3
 70
     0
 71
     0
  1
AcDbOsnapPointRef
 72
     1
331
A47
 73
     0
 91
        0
 40
0.0
 10
0.0
 20
0.0
 30
2.000000000000000E+50
 75
     0
  1
AcDbOsnapPointRef
 72
    13
331
A49
 73
     0
 91
        0
 40
0.0
 10
0.0
 20
0.0
 30
2.000000000000000E+50
 75
     0
  0
DIMASSOC
  5
D64
102
{ACAD_REACTORS
330
D63
102
}
330
D63
100
AcDbDimAssoc
330
D56
 90
        3
 70
     0
 71
     0
  1
AcDbOsnapPointRef
 72
    13
331
A4C
 73
     0
 91
        0
 40
0.0
 10
0.0
 20
0.0
 30
2.000000000000000E+50
 75
     0
  1
AcDbOsnapPointRef
 72
     1
331
A4D
 73
     0
 91
        0
 40
0.0
 10
0.0
 20
0.0
 30
2.000000000000000E+50
 75
     0
  0
DIMASSOC
  5
D8A
102
{ACAD_REACTORS
330
D89
102
}
330
D89
100
AcDbDimAssoc
330
D7C
 90
        2
 70
     0
 71
     0
  1
AcDbOsnapPointRef
 72
    13
331
CE3
 73
     0
 91
        0
 40
0.0
 10
0.0
 20
0.0
 30
2.000000000000000E+50
 75
     0
  0
DIMASSOC
  5
DD6
102
{ACAD_REACTORS
330
DD5
102
}
330
DD5
100
AcDbDimAssoc
330
DC8
 90
        1
 70
     0
 71
     0
  1
AcDbOsnapPointRef
 72
     1
331
CD9
 73
     0
 91
        0
 40
0.0
 10
0.0
 20
0.0
 30
2.000000000000000E+50
 75
     0
  0
DIMASSOC
  5
E26
102
{ACAD_REACTORS
330
E25
102
}
330
E25
100
AcDbDimAssoc
330
E18
 90
        3
 70
     0
 71
     0
  1
AcDbOsnapPointRef
 72
     1
331
A21
 73
     0
 91
        0
 40
0.0
 10
0.0
 20
0.0
 30
2.000000000000000E+50
 75
     0
  1
AcDbOsnapPointRef
 72
     1
331
A22
 73
     0
 91
        0
 40
0.0
 10
0.0
 20
0.0
 30
2.000000000000000E+50
 75
     0
  0
DIMASSOC
  5
E4C
102
{ACAD_REACTORS
330
E4B
102
}
330
E4B
100
AcDbDimAssoc
330
E3E
 90
        3
 70
     0
 71
     0
  1
AcDbOsnapPointRef
 72
     1
331
A21
 73
     0
 91
        0
 40
0.0
 10
0.0
 20
0.0
 30
2.000000000000000E+50
 75
     0
  1
AcDbOsnapPointRef
 72
    13
331
A42
 73
     0
 91
        0
 40
0.0
 10
0.0
 20
0.0
 30
2.000000000000000E+50
 75
     0
  0
DIMASSOC
  5
E72
102
{ACAD_REACTORS
330
E71
102
}
330
E71
100
AcDbDimAssoc
330
E64
 90
        3
 70
     0
 71
     0
  1
AcDbOsnapPointRef
 72
    13
331
A42
 73
     0
 91
        0
 40
0.0
 10
0.0
 20
0.0
 30
2.000000000000000E+50
 75
     0
  1
AcDbOsnapPointRef
 72
     1
331
A45
 73
     0
 91
        0
 40
0.0
 10
0.0
 20
0.0
 30
2.000000000000000E+50
 75
     0
  0
DIMASSOC
  5
EC2
102
{ACAD_REACTORS
330
EC1
102
}
330
EC1
100
AcDbDimAssoc
330
EB4
 90
        3
 70
     0
 71
     0
  1
AcDbOsnapPointRef
 72
     1
331
B85
 73
     0
 91
        0
 40
0.0
 10
0.0
 20
0.0
 30
2.000000000000000E+50
 75
     0
  1
AcDbOsnapPointRef
 72
     1
331
B87
 73
     0
 91
        0
 40
0.0
 10
0.0
 20
0.0
 30
2.000000000000000E+50
 75
     0
  0
DIMASSOC
  5
EE8
102
{ACAD_REACTORS
330
EE7
102
}
330
EE7
100
AcDbDimAssoc
330
EDA
 90
        3
 70
     0
 71
     0
  1
AcDbOsnapPointRef
 72
    13
331
999
 73
     0
 91
        0
 40
0.0
 10
0.0
 20
0.0
 30
2.000000000000000E+50
 75
     0
  1
AcDbOsnapPointRef
 72
     1
331
990
 73
     0
 91
        0
 40
0.0
 10
0.0
 20
0.0
 30
2.000000000000000E+50
 75
     0
  0
DIMASSOC
  5
F55
102
{ACAD_REACTORS
330
F54
102
}
330
F54
100
AcDbDimAssoc
330
F47
 90
        3
 70
     0
 71
     0
  1
AcDbOsnapPointRef
 72
     1
331
91B
 73
     0
 91
        0
 40
0.0
 10
0.0
 20
0.0
 30
2.000000000000000E+50
 75
     0
  1
AcDbOsnapPointRef
 72
     1
331
9AE
 73
     0
 91
        0
 40
0.0
 10
0.0
 20
0.0
 30
2.000000000000000E+50
 75
     0
  0
DIMASSOC
  5
FCD
102
{ACAD_REACTORS
330
FCC
102
}
330
FCC
100
AcDbDimAssoc
330
FBD
 90
        3
 70
     0
 71
     0
  1
AcDbOsnapPointRef
 72
     1
331
A45
 73
     0
 91
        0
 40
0.0
 10
0.0
 20
0.0
 30
2.000000000000000E+50
 75
     0
  1
AcDbOsnapPointRef
 72
     1
331
A22
 73
     0
 91
        0
 40
0.0
 10
0.0
 20
0.0
 30
2.000000000000000E+50
 75
     0
  0
LAYOUT
  5
22
102
{ACAD_XDICTIONARY
360
13AE
102
}
102
{ACAD_REACTORS
330
1A
102
}
330
1A
100
AcDbPlotSettings
  1

  2
\\RD\EPSON Stylus C63 Series單色
  4
A4
  6

 40
3.757083177566528
 41
3.757076978683471
 42
3.757080078125
 43
3.757080078125
 44
209.9733276367187
 45
296.9683227539062
 46
0.0
 47
0.0
 48
0.0
 49
0.0
140
0.0
141
0.0
142
1.0
143
0.3405120737814363
 70
 11952
 72
     1
 73
     0
 74
     0
  7
單色出圖.ctb
 75
     0
147
2.936753428137963
148
-2047.07469463503
149
-1261.649717473083
100
AcDbLayout
  1
Model
 70
     1
 71
     0
 10
0.0
 20
0.0
 11
12.0
 21
9.0
 12
0.0
 22
0.0
 32
0.0
 14
0.0
 24
0.0
 34
0.0
 15
0.0
 25
0.0
 35
0.0
146
0.0
 13
0.0
 23
0.0
 33
0.0
 16
1.0
 26
0.0
 36
0.0
 17
0.0
 27
1.0
 37
0.0
 76
     0
330
1F
1001
ACAD_PSEXT
1000
\\RD\EPSON Stylus C63 Series單色
1000
EPSON Stylus C63 Series
1000
\\RD
1000

1070
     0
  0
LAYOUT
  5
1E
102
{ACAD_XDICTIONARY
360
13AC
102
}
102
{ACAD_REACTORS
330
1A
102
}
330
1A
100
AcDbPlotSettings
  1

  2

  4

  6

 40
0.0
 41
0.0
 42
0.0
 43
0.0
 44
0.0
 45
0.0
 46
0.0
 47
0.0
 48
0.0
 49
0.0
140
0.0
141
0.0
142
1.0
143
1.0
 70
   688
 72
     0
 73
     0
 74
     5
  7
單色出圖.ctb
 75
    16
147
1.0
148
0.0
149
0.0
100
AcDbLayout
  1
配置1
 70
     1
 71
     1
 10
0.0
 20
0.0
 11
420.0
 21
297.0
 12
0.0
 22
0.0
 32
0.0
 14
1.000000000000000E+20
 24
1.000000000000000E+20
 34
1.000000000000000E+20
 15
-1.000000000000000E+20
 25
-1.000000000000000E+20
 35
-1.000000000000000E+20
146
0.0
 13
0.0
 23
0.0
 33
0.0
 16
1.0
 26
0.0
 36
0.0
 17
0.0
 27
1.0
 37
0.0
 76
     0
330
1B
  0
LAYOUT
  5
26
102
{ACAD_XDICTIONARY
360
13B0
102
}
102
{ACAD_REACTORS
330
1A
102
}
330
1A
100
AcDbPlotSettings
  1

  2

  4

  6

 40
0.0
 41
0.0
 42
0.0
 43
0.0
 44
0.0
 45
0.0
 46
0.0
 47
0.0
 48
0.0
 49
0.0
140
0.0
141
0.0
142
1.0
143
1.0
 70
   688
 72
     0
 73
     0
 74
     5
  7
單色出圖.ctb
 75
    16
147
1.0
148
0.0
149
0.0
100
AcDbLayout
  1
配置2
 70
     1
 71
     2
 10
0.0
 20
0.0
 11
12.0
 21
9.0
 12
0.0
 22
0.0
 32
0.0
 14
0.0
 24
0.0
 34
0.0
 15
0.0
 25
0.0
 35
0.0
146
0.0
 13
0.0
 23
0.0
 33
0.0
 16
1.0
 26
0.0
 36
0.0
 17
0.0
 27
1.0
 37
0.0
 76
     0
330
23
  0
MLINESTYLE
  5
18
102
{ACAD_REACTORS
330
17
102
}
330
17
100
AcDbMlineStyle
  2
STANDARD
 70
     0
  3

 62
   256
 51
90.0
 52
90.0
 71
     2
 49
0.5
 62
   256
  6
BYLAYER
 49
-0.5
 62
   256
  6
BYLAYER
  0
ACDBPLACEHOLDER
  5
F
102
{ACAD_REACTORS
330
E
102
}
330
E
  0
TABLESTYLE
  5
11B
102
{ACAD_REACTORS
330
11A
102
}
330
11A
100
AcDbTableStyle
  3
Standard
 70
     0
 71
     0
 40
1.5
 41
1.5
280
     0
281
     0
  7
STANDARD
140
4.5
170
     2
 62
     0
 63
     7
283
     0
274
    -2
284
     1
 64
     0
275
    -2
285
     1
 65
     0
276
    -2
286
     1
 66
     0
277
    -2
287
     1
 67
     0
278
    -2
288
     1
 68
     0
279
    -2
289
     1
 69
     0
  7
STANDARD
140
6.0
170
     5
 62
     0
 63
     7
283
     0
274
    -2
284
     1
 64
     0
275
    -2
285
     1
 65
     0
276
    -2
286
     1
 66
     0
277
    -2
287
     1
 67
     0
278
    -2
288
     1
 68
     0
279
    -2
289
     1
 69
     0
  7
STANDARD
140
4.5
170
     5
 62
     0
 63
     7
283
     0
274
    -2
284
     1
 64
     0
275
    -2
285
     1
 65
     0
276
    -2
286
     1
 66
     0
277
    -2
287
     1
 67
     0
278
    -2
288
     1
 68
     0
279
    -2
289
     1
 69
     0
  0
DICTIONARYVAR
  5
138
102
{ACAD_REACTORS
330
94
102
}
330
94
100
DictionaryVariables
280
     0
  1
STANDARD
  0
DICTIONARYVAR
  5
96
102
{ACAD_REACTORS
330
94
102
}
330
94
100
DictionaryVariables
280
     0
  1
2
  0
DICTIONARYVAR
  5
95
102
{ACAD_REACTORS
330
94
102
}
330
94
100
DictionaryVariables
280
     0
  1
0
  0
DICTIONARYVAR
  5
13A8
102
{ACAD_REACTORS
330
94
102
}
330
94
100
DictionaryVariables
280
     0
  1

  0
DICTIONARY
  5
1B5
102
{ACAD_REACTORS
330
5B
102
}
330
5B
100
AcDbDictionary
281
     1
  0
DICTIONARY
  5
61
102
{ACAD_REACTORS
330
5B
102
}
330
5B
100
AcDbDictionary
281
     1
  0
XRECORD
  5
123
102
{ACAD_REACTORS
330
5B
102
}
330
5B
100
AcDbXrecord
280
     1
 90
-1023410169
  0
DICTIONARY
  5
13AE
330
22
100
AcDbDictionary
280
     1
281
     1
  3
ACAD_XREC_ROUNDTRIP
360
13AF
  0
DICTIONARY
  5
13AC
330
1E
100
AcDbDictionary
280
     1
281
     1
  3
ACAD_XREC_ROUNDTRIP
360
13AD
  0
DICTIONARY
  5
13B0
330
26
100
AcDbDictionary
280
     1
281
     1
  3
ACAD_XREC_ROUNDTRIP
360
13B1
  0
XRECORD
  5
13AF
102
{ACAD_REACTORS
330
13AE
102
}
330
13AE
100
AcDbXrecord
280
     1
102
SHADEPLOT
 70
     0
102
SHADEPLOTRESLEVEL
 70
     2
102
SHADEPLOTCUSTOMDPI
 70
   300
  0
XRECORD
  5
13AD
102
{ACAD_REACTORS
330
13AC
102
}
330
13AC
100
AcDbXrecord
280
     1
102
SHADEPLOT
 70
     0
102
SHADEPLOTRESLEVEL
 70
     2
102
SHADEPLOTCUSTOMDPI
 70
   300
  0
XRECORD
  5
13B1
102
{ACAD_REACTORS
330
13B0
102
}
330
13B0
100
AcDbXrecord
280
     1
102
SHADEPLOT
 70
     0
102
SHADEPLOTRESLEVEL
 70
     2
102
SHADEPLOTCUSTOMDPI
 70
   300
  0
ENDSEC
  0
EOF
