  0
SECTION
  2
HEADER
  9
$ACADVER
  1
AC1015
  9
$ACADMAINTVER
 70
    20
  9
$DWGCODEPAGE
  3
ANSI_950
  9
$INSBASE
 10
0.0
 20
0.0
 30
0.0
  9
$EXTMIN
 10
2006.400042104652
 20
1243.091083701725
 30
-0.0134345886880283
  9
$EXTMAX
 10
2342.569357687691
 20
1675.193865952536
 30
220.1904207866352
  9
$LIMMIN
 10
0.0
 20
0.0
  9
$LIMMAX
 10
420.0
 20
297.0
  9
$ORTHOMODE
 70
     1
  9
$REGENMODE
 70
     1
  9
$FILLMODE
 70
     1
  9
$QTEXTMODE
 70
     0
  9
$MIRRTEXT
 70
     1
  9
$LTSCALE
 40
1.0
  9
$ATTMODE
 70
     1
  9
$TEXTSIZE
 40
3.0
  9
$TRACEWID
 40
1.0
  9
$TEXTSTYLE
  7
CHINESET
  9
$CLAYER
  8
0
  9
$CELTYPE
  6
ByLayer
  9
$CECOLOR
 62
   256
  9
$CELTSCALE
 40
1.0
  9
$DISPSILH
 70
     0
  9
$DIMSCALE
 40
1.0
  9
$DIMASZ
 40
3.0
  9
$DIMEXO
 40
1.0
  9
$DIMDLI
 40
10.0
  9
$DIMRND
 40
0.0
  9
$DIMDLE
 40
0.0
  9
$DIMEXE
 40
1.5
  9
$DIMTP
 40
0.1
  9
$DIMTM
 40
0.1
  9
$DIMTXT
 40
3.0
  9
$DIMCEN
 40
0.0
  9
$DIMTSZ
 40
0.0
  9
$DIMTOL
 70
     0
  9
$DIMLIM
 70
     0
  9
$DIMTIH
 70
     0
  9
$DIMTOH
 70
     0
  9
$DIMSE1
 70
     0
  9
$DIMSE2
 70
     0
  9
$DIMTAD
 70
     1
  9
$DIMZIN
 70
     8
  9
$DIMBLK
  1

  9
$DIMASO
 70
     1
  9
$DIMSHO
 70
     1
  9
$DIMPOST
  1

  9
$DIMAPOST
  1
"
  9
$DIMALT
 70
     0
  9
$DIMALTD
 70
     2
  9
$DIMALTF
 40
0.0393701
  9
$DIMLFAC
 40
1.0
  9
$DIMTOFL
 70
     1
  9
$DIMTVP
 40
0.0
  9
$DIMTIX
 70
     0
  9
$DIMSOXD
 70
     0
  9
$DIMSAH
 70
     0
  9
$DIMBLK1
  1

  9
$DIMBLK2
  1

  9
$DIMSTYLE
  2
AM_ISO
  9
$DIMCLRD
 70
   256
  9
$DIMCLRE
 70
   256
  9
$DIMCLRT
 70
   256
  9
$DIMTFAC
 40
0.6
  9
$DIMGAP
 40
1.0
  9
$DIMJUST
 70
     0
  9
$DIMSD1
 70
     0
  9
$DIMSD2
 70
     0
  9
$DIMTOLJ
 70
     0
  9
$DIMTZIN
 70
     8
  9
$DIMALTZ
 70
     0
  9
$DIMALTTZ
 70
     0
  9
$DIMUPT
 70
     0
  9
$DIMDEC
 70
     2
  9
$DIMTDEC
 70
     8
  9
$DIMALTU
 70
     2
  9
$DIMALTTD
 70
     2
  9
$DIMTXSTY
  7
STANDARD
  9
$DIMAUNIT
 70
     0
  9
$DIMADEC
 70
     0
  9
$DIMALTRND
 40
0.0
  9
$DIMAZIN
 70
     2
  9
$DIMDSEP
 70
    46
  9
$DIMATFIT
 70
     3
  9
$DIMFRAC
 70
     0
  9
$DIMLDRBLK
  1

  9
$DIMLUNIT
 70
     2
  9
$DIMLWD
 70
    -1
  9
$DIMLWE
 70
    -1
  9
$DIMTMOVE
 70
     0
  9
$LUNITS
 70
     2
  9
$LUPREC
 70
     2
  9
$SKETCHINC
 40
1.0
  9
$FILLETRAD
 40
2.5
  9
$AUNITS
 70
     0
  9
$AUPREC
 70
     0
  9
$MENU
  1
.
  9
$ELEVATION
 40
0.0
  9
$PELEVATION
 40
0.0
  9
$THICKNESS
 40
0.0
  9
$LIMCHECK
 70
     0
  9
$CHAMFERA
 40
2.5
  9
$CHAMFERB
 40
2.5
  9
$CHAMFERC
 40
20.0
  9
$CHAMFERD
 40
0.0
  9
$SKPOLY
 70
     0
  9
$TDCREATE
 40
2453809.488480533
  9
$TDUCREATE
 40
2453809.155147199
  9
$TDUPDATE
 40
2453815.445120440
  9
$TDUUPDATE
 40
2453815.111787106
  9
$TDINDWG
 40
0.1190449884
  9
$TDUSRTIMER
 40
0.1190449884
  9
$USRTIMER
 70
     1
  9
$ANGBASE
 50
0.0
  9
$ANGDIR
 70
     0
  9
$PDMODE
 70
     0
  9
$PDSIZE
 40
0.0
  9
$PLINEWID
 40
0.0
  9
$SPLFRAME
 70
     0
  9
$SPLINETYPE
 70
     6
  9
$SPLINESEGS
 70
     8
  9
$HANDSEED
  5
1809
  9
$SURFTAB1
 70
     6
  9
$SURFTAB2
 70
     6
  9
$SURFTYPE
 70
     6
  9
$SURFU
 70
     6
  9
$SURFV
 70
     6
  9
$UCSBASE
  2

  9
$UCSNAME
  2

  9
$UCSORG
 10
0.0
 20
0.0
 30
0.0
  9
$UCSXDIR
 10
1.0
 20
0.0
 30
0.0
  9
$UCSYDIR
 10
0.0
 20
1.0
 30
0.0
  9
$UCSORTHOREF
  2

  9
$UCSORTHOVIEW
 70
     0
  9
$UCSORGTOP
 10
0.0
 20
0.0
 30
0.0
  9
$UCSORGBOTTOM
 10
0.0
 20
0.0
 30
0.0
  9
$UCSORGLEFT
 10
0.0
 20
0.0
 30
0.0
  9
$UCSORGRIGHT
 10
0.0
 20
0.0
 30
0.0
  9
$UCSORGFRONT
 10
0.0
 20
0.0
 30
0.0
  9
$UCSORGBACK
 10
0.0
 20
0.0
 30
0.0
  9
$PUCSBASE
  2

  9
$PUCSNAME
  2

  9
$PUCSORG
 10
0.0
 20
0.0
 30
0.0
  9
$PUCSXDIR
 10
1.0
 20
0.0
 30
0.0
  9
$PUCSYDIR
 10
0.0
 20
1.0
 30
0.0
  9
$PUCSORTHOREF
  2

  9
$PUCSORTHOVIEW
 70
     0
  9
$PUCSORGTOP
 10
0.0
 20
0.0
 30
0.0
  9
$PUCSORGBOTTOM
 10
0.0
 20
0.0
 30
0.0
  9
$PUCSORGLEFT
 10
0.0
 20
0.0
 30
0.0
  9
$PUCSORGRIGHT
 10
0.0
 20
0.0
 30
0.0
  9
$PUCSORGFRONT
 10
0.0
 20
0.0
 30
0.0
  9
$PUCSORGBACK
 10
0.0
 20
0.0
 30
0.0
  9
$USERI1
 70
     0
  9
$USERI2
 70
     0
  9
$USERI3
 70
     0
  9
$USERI4
 70
     0
  9
$USERI5
 70
     0
  9
$USERR1
 40
0.0
  9
$USERR2
 40
0.0
  9
$USERR3
 40
0.0
  9
$USERR4
 40
0.0
  9
$USERR5
 40
0.0
  9
$WORLDVIEW
 70
     1
  9
$SHADEDGE
 70
     3
  9
$SHADEDIF
 70
    70
  9
$TILEMODE
 70
     1
  9
$MAXACTVP
 70
    64
  9
$PINSBASE
 10
0.0
 20
0.0
 30
0.0
  9
$PLIMCHECK
 70
     0
  9
$PEXTMIN
 10
1.000000000000000E+20
 20
1.000000000000000E+20
 30
1.000000000000000E+20
  9
$PEXTMAX
 10
-1.000000000000000E+20
 20
-1.000000000000000E+20
 30
-1.000000000000000E+20
  9
$PLIMMIN
 10
0.0
 20
0.0
  9
$PLIMMAX
 10
420.0
 20
297.0
  9
$UNITMODE
 70
     0
  9
$VISRETAIN
 70
     1
  9
$PLINEGEN
 70
     0
  9
$PSLTSCALE
 70
     1
  9
$TREEDEPTH
 70
  3020
  9
$CMLSTYLE
  2
Standard
  9
$CMLJUST
 70
     0
  9
$CMLSCALE
 40
20.0
  9
$PROXYGRAPHICS
 70
     1
  9
$MEASUREMENT
 70
     1
  9
$CELWEIGHT
370
    -1
  9
$ENDCAPS
280
     0
  9
$JOINSTYLE
280
     0
  9
$LWDISPLAY
290
     0
  9
$INSUNITS
 70
     4
  9
$HYPERLINKBASE
  1

  9
$STYLESHEET
  1
彩色出圖.ctb
  9
$XEDIT
290
     1
  9
$CEPSNTYPE
380
     0
  9
$PSTYLEMODE
290
     1
  9
$FINGERPRINTGUID
  2
{5D7CF7E5-09B4-4001-B38A-9C16224019A8}
  9
$VERSIONGUID
  2
{C5DC12A9-53B8-417A-BD9A-F8BAB6D6D774}
  9
$EXTNAMES
290
     1
  9
$PSVPSCALE
 40
0.0
  9
$OLESTARTUP
290
     0
  0
ENDSEC
  0
SECTION
  2
CLASSES
  0
CLASS
  1
ACDBDICTIONARYWDFLT
  2
AcDbDictionaryWithDefault
  3
ObjectDBX Classes
 90
        0
280
     0
281
     0
  0
CLASS
  1
ACDBPLACEHOLDER
  2
AcDbPlaceHolder
  3
ObjectDBX Classes
 90
        0
280
     0
281
     0
  0
CLASS
  1
LAYOUT
  2
AcDbLayout
  3
ObjectDBX Classes
 90
        0
280
     0
281
     0
  0
CLASS
  1
ACME_DOCUMENT
  2
AcMeDbDoc
  3
AcMeServices
 90
        0
280
     0
281
     0
  0
CLASS
  1
AMGSETTINGSOBJ
  2
AmgSettingsObj
  3
"AcadM|Product Description: AutoCAD Mechanical 2000|Company: Autodesk"
 90
        0
280
     0
281
     0
  0
CLASS
  1
ACMESCOPE
  2
AcMeScope
  3
AcMeServices
 90
        0
280
     0
281
     0
  0
CLASS
  1
ACMECOMMANDHISTORY
  2
AcMeCommandHistory
  3
AcMeServices
 90
        0
280
     0
281
     0
  0
CLASS
  1
ACIMSYSVARMAN
  2
AcImSysVarManager
  3
AcMeServices
 90
        0
280
     0
281
     0
  0
CLASS
  1
ACIMREALSYSVAR
  2
AcImRealSysVar
  3
AcMeServices
 90
        0
280
     0
281
     0
  0
CLASS
  1
ACIMINTSYSVAR
  2
AcImIntSysVar
  3
AcMeServices
 90
        0
280
     0
281
     0
  0
CLASS
  1
ACMEDRAWINGMAN
  2
AcMeDrawingMan
  3
AcMeServices
 90
        0
280
     0
281
     0
  0
CLASS
  1
ACMEVIEW
  2
AcMeView
  3
AcMeServices
 90
        0
280
     0
281
     0
  0
CLASS
  1
ACDBENTITYCACHE
  2
AcMeEntityCache
  3
AcMeServices
 90
        0
280
     0
281
     0
  0
CLASS
  1
GSMANAGER
  2
AcMeGSManager
  3
AcMeServices
 90
        0
280
     0
281
     0
  0
CLASS
  1
AMDTINTERNALREACTOR
  2
AmdtInternalReactor
  3
AcMeServices
 90
        0
280
     0
281
     0
  0
CLASS
  1
ACMESTATEMGR
  2
AcMeStateMgr
  3
AcMeServices
 90
        0
280
     0
281
     0
  0
CLASS
  1
ACGREFMASTER
  2
AcGrefMaster
  3
AcAttribServices
 90
        0
280
     0
281
     0
  0
CLASS
  1
ACME_DATABASE
  2
AcMeDbDatabase
  3
AcMeServices
 90
        0
280
     0
281
     0
  0
CLASS
  1
ACRFINSADJUSTERMGR
  2
AcRfInsAdjusterMgr
  3
AcMeServices
 90
        0
280
     0
281
     0
  0
CLASS
  1
ACGREFACADMASTER
  2
AcGrefacadMaster
  3
AcGrefServices
 90
        0
280
     0
281
     0
  0
CLASS
  1
AMIMASTER
  2
AmiMaster
  3
AmiServices
 90
        0
280
     0
281
     0
  0
CLASS
  1
ACMDATADICTIONARY
  2
AcmDataDictionary
  3
"AcmSymBB|Product Description: AutoCAD Mechanical 2004 DX|Company: Autodesk"
 90
        0
280
     0
281
     0
  0
CLASS
  1
ACMDATAENTRYBLOCK
  2
AcmDataEntryBlock
  3
"AcmSymBB|Product Description: AutoCAD Mechanical 2004 DX|Company: Autodesk"
 90
        0
280
     0
281
     0
  0
CLASS
  1
ACIMSTRSYSVAR
  2
AcImStrSysVar
  3
AcMeServices
 90
        0
280
     0
281
     0
  0
CLASS
  1
ACMSTANDARDISO
  2
AcmStandardISO
  3
"Amdt_StdImp|Product Description: AutoCAD Mechanical 2004 DX|Company: Autodesk"
 90
        0
280
     0
281
     0
  0
CLASS
  1
AMGOBJPROPCFG
  2
AmgObjPropCfg
  3
"AmgLay|Product Description: AutoCAD Mechanical 2000|Company: Autodesk"
 90
        1
280
     0
281
     0
  0
CLASS
  1
AMDTEDGESTANDARDISO
  2
AmdtEdgeStdISO
  3
"Amdt_StdImp|Product Description: AutoCAD Mechanical 2004 DX|Company: Autodesk"
 90
        0
280
     0
281
     0
  0
CLASS
  1
ACMSURFSTANDARDISO
  2
AcmSurfTextStdISO
  3
"Amdt_StdImp|Product Description: AutoCAD Mechanical 2004 DX|Company: Autodesk"
 90
        0
280
     0
281
     0
  0
CLASS
  1
ACMFCFSTANDARDISO
  2
AcmFCFStdISO
  3
"Amdt_StdImp|Product Description: AutoCAD Mechanical 2004 DX|Company: Autodesk"
 90
        0
280
     0
281
     0
  0
CLASS
  1
ACMWELDSTANDARDISO
  2
AcmWeldingStdISO
  3
"Amdt_StdImp|Product Description: AutoCAD Mechanical 2004 DX|Company: Autodesk"
 90
        0
280
     0
281
     0
  0
CLASS
  1
ACMIDSTANDARDISO
  2
AcmIdStdISO
  3
"Amdt_StdImp|Product Description: AutoCAD Mechanical 2004 DX|Company: Autodesk"
 90
        0
280
     0
281
     0
  0
CLASS
  1
ACMDATUMSTANDARDISO
  2
AcmDatumStdISO
  3
"Amdt_StdImp|Product Description: AutoCAD Mechanical 2004 DX|Company: Autodesk"
 90
        0
280
     0
281
     0
  0
CLASS
  1
ACMBOMSTANDARDISO
  2
AcmBOMStdISO
  3
"Amdt_StdImp|Product Description: AutoCAD Mechanical 2004 DX|Company: Autodesk"
 90
        0
280
     0
281
     0
  0
CLASS
  1
ACMDETAILSTANDARDISO
  2
AmdtDetailSymStdISO
  3
"Amdt_StdImp|Product Description: AutoCAD Mechanical 2004 DX|Company: Autodesk"
 90
        0
280
     0
281
     0
  0
CLASS
  1
ACMSECTIONSTANDARDISO
  2
AmdtSectionSymStdISO
  3
"Amdt_StdImp|Product Description: AutoCAD Mechanical 2004 DX|Company: Autodesk"
 90
        0
280
     0
281
     0
  0
CLASS
  1
ACMCENTERLINESTANDARDISO
  2
AmdtCenterLineStdISO
  3
"Amdt_StdImp|Product Description: AutoCAD Mechanical 2004 DX|Company: Autodesk"
 90
        0
280
     0
281
     0
  0
CLASS
  1
ACMNOTESTANDARDISO
  2
AmdtNoteStdISO
  3
"Amdt_StdImp|Product Description: AutoCAD Mechanical 2004 DX|Company: Autodesk"
 90
        0
280
     0
281
     0
  0
CLASS
  1
ACAMGLAYSTD
  2
AcAmgLayStd
  3
"AcAmgLayStd|Product Description: AutoCAD Mechanical 2000|Company: Autodesk"
 90
        0
280
     0
281
     0
  0
CLASS
  1
ACAMGDIMSTD
  2
AcAmgDimStd
  3
"AcAmgDimStd|Product Description: AutoCAD Mechanical 2000|Company: Autodesk"
 90
        0
280
     0
281
     0
  0
CLASS
  1
ACAMGHOLECHARTSTDISO
  2
AcAmgHoleChartStdISO
  3
ACMSYMBB_MODULE_NAME
 90
        0
280
     0
281
     0
  0
CLASS
  1
ACAMGTITLESTD
  2
AcAmgTitleStd
  3
"TITLEAPP"
 90
        0
280
     0
281
     0
  0
CLASS
  1
LAYER_INDEX
  2
AcDbLayerIndex
  3
ObjectDBX Classes
 90
    32768
280
     0
281
     0
  0
CLASS
  1
IDBUFFER
  2
AcDbIdBuffer
  3
ObjectDBX Classes
 90
    32768
280
     0
281
     0
  0
CLASS
  1
DICTIONARYVAR
  2
AcDbDictionaryVar
  3
ObjectDBX Classes
 90
        0
280
     0
281
     0
  0
CLASS
  1
AM_DRAWING_MGR
  2
AcDmDwgMgr
  3
AcMechDwgViewMgmt
 90
        0
280
     0
281
     0
  0
CLASS
  1
AM_DWG_DOCUMENT
  2
AcDmDwgDocument
  3
AcMechDwgViewMgmt
 90
        0
280
     0
281
     0
  0
CLASS
  1
AM_DWG_SHEET
  2
AcDmSheet
  3
AcMechDwgViewMgmt
 90
        0
280
     0
281
     0
  0
CLASS
  1
AM_VIEWDIMPARMAP
  2
AcDmViewDimParMap
  3
AcMechDwgViewMgmt
 90
        0
280
     0
281
     0
  0
CLASS
  1
AM_DWGMGR_NAME
  2
AcDmDwgMgrName
  3
AcMechDwgViewMgmt
 90
        0
280
     0
281
     0
  0
CLASS
  1
AMDTMENUSTATEMGR
  2
AmdtMenuStateMgr
  3
McadcomServices
 90
        0
280
     0
281
     0
  0
CLASS
  1
AMDTMCOMMENUSTATE
  2
AmdtMcomMenuState
  3
McadcomServices
 90
        0
280
     0
281
     0
  0
CLASS
  1
MAPIAMMOUDLE
  2
MApiAmModule
  3
MApiAmServices
 90
        0
280
     0
281
     0
  0
CLASS
  1
AMDTADMENUSTATE
  2
AmdtAdMenuState
  3
DesignerServices
 90
        0
280
     0
281
     0
  0
CLASS
  1
ADAPPL
  2
AcAdAppl
  3
DesignerServices
 90
        0
280
     0
281
     0
  0
CLASS
  1
DEPMGR
  2
AcAdDepMgr
  3
DesignerServices
 90
        0
280
     0
281
     0
  0
CLASS
  1
PARAMMGR
  2
AcAdParamMgr
  3
DesignerServices
 90
        0
280
     0
281
     0
  0
CLASS
  1
PARAMSCOPE
  2
AcAdParamScope
  3
DesignerServices
 90
        0
280
     0
281
     0
  0
CLASS
  1
NAMEDAPPL
  2
AcAdNamedAppl
  3
DesignerServices
 90
        0
280
     0
281
     0
  0
CLASS
  1
AMDTDMMENUSTATE
  2
AmdtDmMenuState
  3
AcMechDwgViewMgmt
 90
        0
280
     0
281
     0
  0
CLASS
  1
AMDTAMMENUSTATE
  2
AmdtAmMenuState
  3
DesignerAssemblies
 90
        0
280
     0
281
     0
  0
CLASS
  1
ACAMPROJECT
  2
AcAmProject
  3
DesignerAssemblies
 90
        0
280
     0
281
     0
  0
CLASS
  1
ACAMGRCOMPDEF
  2
AcAmGrCompDef
  3
DesignerAssemblies
 90
        0
280
     0
281
     0
  0
CLASS
  1
ACCMCONTEXT
  2
AcCmContext
  3
DesignerAssemblies
 90
        0
280
     0
281
     0
  0
CLASS
  1
ACAMCOMPDEF
  2
AcAmCompDef
  3
DesignerAssemblies
 90
        0
280
     0
281
     0
  0
CLASS
  1
ACAMCOMPDEFMGR
  2
AcAmCompDefMgr
  3
DesignerAssemblies
 90
        0
280
     0
281
     0
  0
CLASS
  1
AMCONTEXTMGR
  2
AcAmContextMgr
  3
DesignerAssemblies
 90
        0
280
     0
281
     0
  0
CLASS
  1
ACAMCONTEXTMODELER
  2
AcAmContextModeler
  3
DesignerAssemblies
 90
        0
280
     0
281
     0
  0
CLASS
  1
ACMTHREADLINESTANDARDISO
  2
AmdtThreadLineStdISO
  3
"Amdt_StdImp|Product Description: AutoCAD Mechanical 2004 DX|Company: Autodesk"
 90
        0
280
     0
281
     0
  0
CLASS
  1
CATALOGSTATE
  2
AcAmCatalogState
  3
DesignerAssemblies
 90
        0
280
     0
281
     0
  0
CLASS
  1
ACAMGRCOMPDEFSET
  2
AcAmGrCompDefSet
  3
DesignerAssemblies
 90
        0
280
     0
281
     0
  0
CLASS
  1
AMDTBROWSERDBTAB
  2
AmdtBrowserDbTab
  3
McadcomServices
 90
        0
280
     0
281
     0
  0
CLASS
  1
CBROWSERAPPOBJECT
  2
CBrowserAppObject
  3
McadcomServices
 90
        0
280
     0
281
     0
  0
CLASS
  1
DM_PLACEHOLDER
  2
AcDmSelsetPlaceholder
  3
AcMechDwgViewMgmt
 90
        0
280
     0
281
     0
  0
CLASS
  1
TABLESTYLE
  2
AcDbTableStyle
  3
ObjectDBX Classes
 90
     2047
280
     0
281
     0
  0
CLASS
  1
VAACXREFPANELOBJECT
  2
VaAcXREFPanelObject
  3
VAAC_ADDIN
 90
    32768
280
     0
281
     0
  0
CLASS
  1
VAACIMAGEINVENTORY
  2
VaAcImageInventory
  3
VAAC_ADDIN
 90
    32768
280
     0
281
     0
  0
CLASS
  1
AMDTNOTETEMPLATEDB
  2
AmdtNoteTemplateDB
  3
AMDT_STDIMP_MODULE_NAME
 90
        0
280
     0
281
     0
  0
CLASS
  1
ACMBOM
  2
AcmBom
  3
"AcmSymBB|Product Description: AutoCAD Mechanical 2004 DX|Company: Autodesk"
 90
    32768
280
     0
281
     0
  0
CLASS
  1
AMDTFORMULAUPDATEDISPATCHER
  2
AmdtFormulaUpdateDispatcher
  3
AcMeServices
 90
    32768
280
     0
281
     0
  0
CLASS
  1
ACMPARTLIST
  2
AcmPartList
  3
"AcmSymBB|Product Description: AutoCAD Mechanical 2004 DX|Company: Autodesk"
 90
    33791
280
     0
281
     1
  0
CLASS
  1
ACAMGFILTERDAT
  2
AcAmgFilterDat
  3
"AcadM|Product Description: AutoCAD Mechanical 2000|Company: Autodesk"
 90
        0
280
     0
281
     0
  0
CLASS
  1
DIMASSOC
  2
AcDbDimAssoc
  3
"AcDbDimAssoc|Product Desc:     AcDim ARX App For Dimension|Company:          Autodesk, Inc.|WEB Address:      www.autodesk.com"
 90
        0
280
     0
281
     0
  0
CLASS
  1
STDPART2D
  2
AmgStdPart
  3
"AmgStdPart|Product Description: AutoCAD Mechanical 2000|Company: Autodesk"
 90
    33791
280
     0
281
     1
  0
CLASS
  1
ACAMSTDPCOMPDEF
  2
AcAmStdpCompDef
  3
DesignerAssemblies
 90
    32768
280
     0
281
     0
  0
CLASS
  1
ACRFATTGENMGR
  2
AcRfAttGeneralMgr
  3
AcAttribServices
 90
        0
280
     0
281
     0
  0
CLASS
  1
ACRFOBJATTMGR
  2
AcRfObjAttGroupMgr
  3
AcAttribServices
 90
    32768
280
     0
281
     0
  0
CLASS
  1
ACRFMCADAPIATTHOLDER
  2
AcRfMCADAPIAttHolder
  3
AcAttribServices
 90
    32768
280
     0
281
     0
  0
CLASS
  1
AMDTSYSATTR
  2
AmdtSystemAttribute
  3
AcAttribServices
 90
    32768
280
     0
281
     0
  0
CLASS
  1
ACAMCOMP
  2
AcAmComp
  3
DesignerAssemblies
 90
    32768
280
     0
281
     0
  0
CLASS
  1
AC_AM_STDP_VIEW_DEF
  2
AcAmStdpViewDef
  3
DesignerAssemblies
 90
    32768
280
     0
281
     0
  0
CLASS
  1
AC_AM_MVD_DEP_MGR
  2
AcAmMVDdepMgr
  3
DesignerAssemblies
 90
        0
280
     0
281
     0
  0
CLASS
  1
AC_AM_MASTER_VIEW_DEF
  2
AcAmMasterViewDef
  3
DesignerAssemblies
 90
        0
280
     0
281
     0
  0
CLASS
  1
AC_AM_DIRTY_NODES
  2
AcAmDirtyNodes
  3
DesignerAssemblies
 90
        0
280
     0
281
     0
  0
CLASS
  1
AC_AM_MAPPER_CACHE
  2
AcAmMapperCache
  3
DesignerAssemblies
 90
        0
280
     0
281
     0
  0
CLASS
  1
ACAMMVDBACKUPOBJECT
  2
AcAmMVDBackupObject
  3
DesignerAssemblies
 90
        0
280
     0
281
     0
  0
CLASS
  1
AC_AM_COMP_VIEW_INST
  2
AcAmCompView
  3
DesignerAssemblies
 90
    32768
280
     0
281
     0
  0
CLASS
  1
AC_AM_2D_XREF_MGR
  2
AcAmXrefMgr2d
  3
DesignerAssemblies
 90
        0
280
     0
281
     0
  0
CLASS
  1
SORTENTSTABLE
  2
AcDbSortentsTable
  3
ObjectDBX Classes
 90
        0
280
     0
281
     0
  0
CLASS
  1
AMDTNOTE
  2
AmdtNote
  3
"AcmSymBB|Product Description: AutoCAD Mechanical 2004 DX|Company: Autodesk"
 90
     1023
280
     0
281
     1
  0
ENDSEC
  0
SECTION
  2
TABLES
  0
TABLE
  2
VPORT
  5
8
330
0
100
AcDbSymbolTable
 70
     3
  0
VPORT
  5
1800
330
8
100
AcDbSymbolTableRecord
100
AcDbViewportTableRecord
  2
*Active
 70
     0
 10
0.0
 20
0.0
 11
1.0
 21
1.0
 12
2174.405512814569
 22
1459.097943294375
 13
0.0
 23
0.0
 14
2.5
 24
2.5
 15
10.0
 25
10.0
 16
0.0
 26
0.0
 36
1.0
 17
0.0
 27
0.0
 37
0.0
 40
437.2405094397622
 41
1.81766917293233
 42
50.0
 43
0.0
 44
0.0
 50
0.0
 51
0.0
 71
     0
 72
   100
 73
     1
 74
     3
 75
     0
 76
     0
 77
     0
 78
     0
281
     0
 65
     1
110
0.0
120
0.0
130
0.0
111
1.0
121
0.0
131
0.0
112
0.0
122
1.0
132
0.0
 79
     0
146
0.0
  0
ENDTAB
  0
TABLE
  2
LTYPE
  5
5
330
0
100
AcDbSymbolTable
 70
    14
  0
LTYPE
  5
14
330
5
100
AcDbSymbolTableRecord
100
AcDbLinetypeTableRecord
  2
ByBlock
 70
     0
  3

 72
    65
 73
     0
 40
0.0
  0
LTYPE
  5
15
330
5
100
AcDbSymbolTableRecord
100
AcDbLinetypeTableRecord
  2
ByLayer
 70
     0
  3

 72
    65
 73
     0
 40
0.0
  0
LTYPE
  5
16
330
5
100
AcDbSymbolTableRecord
100
AcDbLinetypeTableRecord
  2
Continuous
 70
     0
  3
Solid line
 72
    65
 73
     0
 40
0.0
  0
LTYPE
  5
64
330
5
100
AcDbSymbolTableRecord
100
AcDbLinetypeTableRecord
  2
AM_ISO02W050
 70
     0
  3
__ __ __ __ __ __ __ __ __ __ __ __ __ __ __
 72
    65
 73
     2
 40
7.5
 49
6.0
 74
     0
 49
-1.5
 74
     0
  0
LTYPE
  5
65
330
5
100
AcDbSymbolTableRecord
100
AcDbLinetypeTableRecord
  2
AM_ISO08W050
 70
     0
  3
____ . ____ . ____ . ____ . ____ . ____ . ____
 72
    65
 73
     4
 40
18.0
 49
12.0
 74
     0
 49
-1.5
 74
     0
 49
3.0
 74
     0
 49
-1.5
 74
     0
  0
LTYPE
  5
66
330
5
100
AcDbSymbolTableRecord
100
AcDbLinetypeTableRecord
  2
AM_ISO09W050
 70
     0
  3
_____ . . _____ . . _____ . . ____ .. ____
 72
    65
 73
     6
 40
22.5
 49
12.0
 74
     0
 49
-1.5
 74
     0
 49
3.0
 74
     0
 49
-1.5
 74
     0
 49
3.0
 74
     0
 49
-1.5
 74
     0
  0
LTYPE
  5
67
330
5
100
AcDbSymbolTableRecord
100
AcDbLinetypeTableRecord
  2
Amconstr
 70
     0
  3
_______________________
 72
    65
 73
     2
 40
9999.0
 49
9999.0
 74
     0
 49
0.0
 74
     0
  0
LTYPE
  5
68
330
5
100
AcDbSymbolTableRecord
100
AcDbLinetypeTableRecord
  2
AM_ISO08W050x2
 70
     0
  3
__ . __ . __ . __ . __ . __
 72
    65
 73
     4
 40
9.0
 49
6.0
 74
     0
 49
-0.75
 74
     0
 49
1.5
 74
     0
 49
-0.75
 74
     0
  0
LTYPE
  5
69
330
5
100
AcDbSymbolTableRecord
100
AcDbLinetypeTableRecord
  2
AM_ISO02W050x2
 70
     0
  3
 _ _ _ _ _ _ _ _ _ _ _ _
 72
    65
 73
     2
 40
3.75
 49
3.0
 74
     0
 49
-0.75
 74
     0
  0
LTYPE
  5
6C
330
5
100
AcDbSymbolTableRecord
100
AcDbLinetypeTableRecord
  2
Amzigzag
 70
     0
  3
/\/-/\/-/\/-/\/-/\/-/\/
 72
    65
 73
     2
 40
11.0001
 49
0.0001
 74
     4
 75
   135
340
6B
 46
0.04
 50
0.0
 44
0.0
 45
0.0
 49
-11.0
 74
     0
  0
LTYPE
  5
7A
330
5
100
AcDbSymbolTableRecord
100
AcDbLinetypeTableRecord
  2
ACISOWELD
 70
     0
  3
_ _ _ _ _
 72
    65
 73
     2
 40
2.0
 49
2.0
 74
     0
 49
-1.0
 74
     0
  0
LTYPE
  5
7B
330
5
100
AcDbSymbolTableRecord
100
AcDbLinetypeTableRecord
  2
ACISOTGB
 70
     0
  3
__ . . __ . .
 72
    65
 73
     6
 40
9.0
 49
4.0
 74
     0
 49
-1.0
 74
     0
 49
1.0
 74
     0
 49
-1.0
 74
     0
 49
1.0
 74
     0
 49
-1.0
 74
     0
  0
LTYPE
  5
7C
330
5
100
AcDbSymbolTableRecord
100
AcDbLinetypeTableRecord
  2
ACISOTGL
 70
     0
  3
_ _ _ _ _
 72
    65
 73
     2
 40
3.0
 49
2.0
 74
     0
 49
-1.0
 74
     0
  0
LTYPE
  5
7E
330
5
100
AcDbSymbolTableRecord
100
AcDbLinetypeTableRecord
  2
CENTER
 70
     0
  3
__ . __
 72
    65
 73
     4
 40
7.0
 49
4.0
 74
     0
 49
-1.0
 74
     0
 49
1.0
 74
     0
 49
-1.0
 74
     0
  0
LTYPE
  5
D8
330
5
100
AcDbSymbolTableRecord
100
AcDbLinetypeTableRecord
  2
HIDDEN
 70
     0
  3
Hidden __ __ __ __ __ __ __ __ __ __ __ __ __ _
 72
    65
 73
     2
 40
9.524999999999998
 49
6.349999999999999
 74
     0
 49
-3.174999999999999
 74
     0
  0
LTYPE
  5
D9
330
5
100
AcDbSymbolTableRecord
100
AcDbLinetypeTableRecord
  2
PHANTOM2
 70
     0
  3
Phantom (.5x) ___ _ _ ___ _ _ ___ _ _ ___ _ _
 72
    65
 73
     6
 40
31.75
 49
15.875
 74
     0
 49
-3.174999999999999
 74
     0
 49
3.174999999999999
 74
     0
 49
-3.174999999999999
 74
     0
 49
3.174999999999999
 74
     0
 49
-3.174999999999999
 74
     0
  0
ENDTAB
  0
TABLE
  2
LAYER
  5
2
102
{ACAD_XDICTIONARY
360
3F9
102
}
330
0
100
AcDbSymbolTable
 70
     8
  0
LAYER
  5
10
330
2
100
AcDbSymbolTableRecord
100
AcDbLayerTableRecord
  2
0
 70
     0
 62
     7
  6
Continuous
370
    -3
390
F
  0
LAYER
  5
812
330
2
100
AcDbSymbolTableRecord
100
AcDbLayerTableRecord
  2
AM_VIS
 70
     0
 62
     7
  6
Continuous
370
    50
390
F
  0
LAYER
  5
813
330
2
100
AcDbSymbolTableRecord
100
AcDbLayerTableRecord
  2
AM_4
 70
     0
 62
     3
  6
Continuous
370
    25
390
F
  0
LAYER
  5
BD2
330
2
100
AcDbSymbolTableRecord
100
AcDbLayerTableRecord
  2
AM_0
 70
     0
 62
     7
  6
Continuous
370
    50
390
F
  0
LAYER
  5
BF8
330
2
100
AcDbSymbolTableRecord
100
AcDbLayerTableRecord
  2
AM_7
 70
     0
 62
     1
  6
CENTER
370
    25
390
F
  0
LAYER
  5
C53
330
2
100
AcDbSymbolTableRecord
100
AcDbLayerTableRecord
  2
AM_5
 70
     0
 62
     5
  6
Continuous
370
    50
390
F
  0
LAYER
  5
D49
330
2
100
AcDbSymbolTableRecord
100
AcDbLayerTableRecord
  2
Defpoints
 70
     0
 62
     7
  6
Continuous
290
     0
370
    -3
390
F
  0
LAYER
  5
150C
330
2
100
AcDbSymbolTableRecord
100
AcDbLayerTableRecord
  2
LOGO
 70
     0
 62
     7
  6
Continuous
370
    -3
390
F
  0
ENDTAB
  0
TABLE
  2
STYLE
  5
3
330
0
100
AcDbSymbolTable
 70
     6
  0
STYLE
  5
11
330
3
100
AcDbSymbolTableRecord
100
AcDbTextStyleTableRecord
  2
STANDARD
 70
     0
 40
0.0
 41
1.0
 50
0.0
 71
     0
 42
3.0
  3
ISOCP.SHX
  4
CHINESET.SHX
  0
STYLE
  5
6B
330
3
100
AcDbSymbolTableRecord
100
AcDbTextStyleTableRecord
  2

 70
     1
 40
0.0
 41
1.0
 50
0.0
 71
     0
 42
2.5
  3
ltypeshp.shx
  4

  0
STYLE
  5
6D
330
3
100
AcDbSymbolTableRecord
100
AcDbTextStyleTableRecord
  2
ACISOTS
 70
     0
 40
1.0
 41
1.0
 50
0.0
 71
     0
 42
1.0
  3
isocp.shx
  4
chineset.shx
  0
STYLE
  5
79
330
3
100
AcDbSymbolTableRecord
100
AcDbTextStyleTableRecord
  2
ACISOGDT
 70
     0
 40
0.0
 41
1.0
 50
0.0
 71
     0
 42
2.5
  3
amgdt.shx
  4
chineset.shx
  0
STYLE
  5
60C
330
3
100
AcDbSymbolTableRecord
100
AcDbTextStyleTableRecord
  2
CHINESET
 70
     0
 40
0.0
 41
1.0
 50
0.0
 71
     0
 42
3.0
  3
simplex.shx
  4
CHINESET.SHX
  0
ENDTAB
  0
TABLE
  2
VIEW
  5
6
330
0
100
AcDbSymbolTable
 70
     0
  0
ENDTAB
  0
TABLE
  2
UCS
  5
7
330
0
100
AcDbSymbolTable
 70
     0
  0
ENDTAB
  0
TABLE
  2
APPID
  5
9
330
0
100
AcDbSymbolTable
 70
    26
  0
APPID
  5
12
330
9
100
AcDbSymbolTableRecord
100
AcDbRegAppTableRecord
  2
ACAD
 70
     0
  0
APPID
  5
46
330
9
100
AcDbSymbolTableRecord
100
AcDbRegAppTableRecord
  2
MCAD_NO_VIS
 70
     0
  0
APPID
  5
47
330
9
100
AcDbSymbolTableRecord
100
AcDbRegAppTableRecord
  2
ACAD_TEMP_GRAPHIC
 70
     0
  0
APPID
  5
58
330
9
100
AcDbSymbolTableRecord
100
AcDbRegAppTableRecord
  2
ACATTRIBSERVICES
 70
     0
  0
APPID
  5
EE
330
9
100
AcDbSymbolTableRecord
100
AcDbRegAppTableRecord
  2
AD_DRAW
 70
     0
  0
APPID
  5
10C
330
9
100
AcDbSymbolTableRecord
100
AcDbRegAppTableRecord
  2
DESIGNERASSEMBLIES
 70
     0
  0
APPID
  5
111
330
9
100
AcDbSymbolTableRecord
100
AcDbRegAppTableRecord
  2
ACADM_DIM_EDIT
 70
     0
  0
APPID
  5
112
330
9
100
AcDbSymbolTableRecord
100
AcDbRegAppTableRecord
  2
AMDT_DM_ADJ
 70
     0
  0
APPID
  5
22C
330
9
100
AcDbSymbolTableRecord
100
AcDbRegAppTableRecord
  2
ACAD_DSTYLE_DIMTEXT_FILL
 70
     0
  0
APPID
  5
452
330
9
100
AcDbSymbolTableRecord
100
AcDbRegAppTableRecord
  2
GENIUS_GENOENT_13
 70
     0
  0
APPID
  5
453
330
9
100
AcDbSymbolTableRecord
100
AcDbRegAppTableRecord
  2
GENIUS_GENOBJ-N-CRS_13
 70
     0
  0
APPID
  5
454
330
9
100
AcDbSymbolTableRecord
100
AcDbRegAppTableRecord
  2
GENIUS_GENOLIS_13
 70
     0
  0
APPID
  5
455
330
9
100
AcDbSymbolTableRecord
100
AcDbRegAppTableRecord
  2
GENIUS_GENODEF_13
 70
     0
  0
APPID
  5
456
330
9
100
AcDbSymbolTableRecord
100
AcDbRegAppTableRecord
  2
GENIUS_GENOREF_13
 70
     0
  0
APPID
  5
6F3
330
9
100
AcDbSymbolTableRecord
100
AcDbRegAppTableRecord
  2
ACAD_PSEXT
 70
     0
  0
APPID
  5
782
330
9
100
AcDbSymbolTableRecord
100
AcDbRegAppTableRecord
  2
GENIUS_GENDTOL_13
 70
     0
  0
APPID
  5
BD9
330
9
100
AcDbSymbolTableRecord
100
AcDbRegAppTableRecord
  2
GEVID1142294916
 70
     0
  0
APPID
  5
BDA
330
9
100
AcDbSymbolTableRecord
100
AcDbRegAppTableRecord
  2
GEVDC
 70
     0
  0
APPID
  5
BDB
330
9
100
AcDbSymbolTableRecord
100
AcDbRegAppTableRecord
  2
GEVRADREF
 70
     0
  0
APPID
  5
BE4
330
9
100
AcDbSymbolTableRecord
100
AcDbRegAppTableRecord
  2
AMG_2DHIDE
 70
     0
  0
APPID
  5
BE5
330
9
100
AcDbSymbolTableRecord
100
AcDbRegAppTableRecord
  2
AMG_2DSTRUCT_BTR
 70
     0
  0
APPID
  5
BF6
330
9
100
AcDbSymbolTableRecord
100
AcDbRegAppTableRecord
  2
ACADM_2DVIEW_IGN_NOTIFY
 70
     0
  0
APPID
  5
CAE
330
9
100
AcDbSymbolTableRecord
100
AcDbRegAppTableRecord
  2
GEVID1142294917
 70
     0
  0
APPID
  5
12D3
330
9
100
AcDbSymbolTableRecord
100
AcDbRegAppTableRecord
  2
GENIUS_GENDIMSH_14
 70
     0
  0
APPID
  5
150D
330
9
100
AcDbSymbolTableRecord
100
AcDbRegAppTableRecord
  2
GENIUS_GENREC_14
 70
     0
  0
APPID
  5
150E
330
9
100
AcDbSymbolTableRecord
100
AcDbRegAppTableRecord
  2
GENIUS_GENOBJ-N-REC_13
 70
     0
  0
ENDTAB
  0
TABLE
  2
DIMSTYLE
  5
A
330
0
100
AcDbSymbolTable
 70
     9
100
AcDbDimStyleTable
 71
     3
340
81
340
8B
340
86
  0
DIMSTYLE
105
81
330
A
100
AcDbSymbolTableRecord
100
AcDbDimStyleTableRecord
  2
AM_ISO
 70
     0
  4
"
 41
3.0
 42
1.0
 43
10.0
 44
1.5
 47
0.1
 48
0.1
 73
     0
 74
     0
 77
     1
 78
     8
 79
     2
140
3.0
141
0.0
143
0.0393701
146
0.6
147
1.0
172
     1
176
   256
177
   256
178
   256
271
     2
272
     2
283
     0
284
     8
340
11
371
    -1
372
    -1
  0
DIMSTYLE
105
82
330
A
100
AcDbSymbolTableRecord
100
AcDbDimStyleTableRecord
  2
AM_ISO$3
 70
     0
  4
"
 41
3.0
 42
1.0
 43
10.0
 44
1.5
 47
0.1
 48
0.1
 73
     0
 77
     1
 78
     8
 79
     2
140
3.0
141
0.0
143
0.0393701
146
0.6
147
1.0
176
   256
177
   256
178
   256
271
     2
272
     2
283
     0
284
     8
288
     1
289
     0
340
11
371
    -1
372
    -1
  0
DIMSTYLE
105
83
330
A
100
AcDbSymbolTableRecord
100
AcDbDimStyleTableRecord
  2
AM_ISO$4
 70
     0
  4
"
 41
3.0
 42
1.0
 43
10.0
 44
1.5
 47
0.1
 48
0.1
 73
     0
 77
     1
 78
     8
 79
     2
140
3.0
141
0.0
143
0.0393701
146
0.6
147
1.0
176
   256
177
   256
178
   256
271
     2
272
     2
283
     0
284
     8
288
     1
289
     0
340
11
371
    -1
372
    -1
  0
DIMSTYLE
105
84
330
A
100
AcDbSymbolTableRecord
100
AcDbDimStyleTableRecord
  2
AM_ISO$6
 70
     0
  4
"
 41
3.0
 42
1.0
 43
10.0
 44
1.5
 47
0.1
 48
0.1
 73
     0
 74
     0
 78
     8
 79
     2
140
3.0
141
0.0
143
0.0393701
146
0.6
147
1.0
172
     1
176
   256
177
   256
178
   256
271
     2
272
     2
283
     0
284
     8
340
11
371
    -1
372
    -1
  0
DIMSTYLE
105
85
330
A
100
AcDbSymbolTableRecord
100
AcDbDimStyleTableRecord
  2
AM_ISO$7
 70
     0
  4
"
 41
3.0
 42
1.0
 43
10.0
 44
1.5
 47
0.1
 48
0.1
 73
     0
 74
     0
 77
     1
 78
     8
 79
     2
140
5.0
141
0.0
143
0.0393701
146
0.6
147
1.0
172
     1
176
   256
177
   256
178
   256
271
     2
272
     2
283
     0
284
     8
340
11
371
    -1
372
    -1
  0
DIMSTYLE
105
86
330
A
100
AcDbSymbolTableRecord
100
AcDbDimStyleTableRecord
  2
AM_ISO$SF
 70
     0
  4
"
 41
2.5
 42
1.0
 43
10.0
 44
1.0
 47
0.1
 48
0.1
 73
     0
 74
     0
 75
     1
 76
     1
 77
     1
 78
     8
 79
     2
140
3.5
141
0.0
143
0.0393701
146
0.71
147
1.5
172
     1
176
   256
177
   256
178
     2
271
     2
272
     3
274
     4
283
     0
284
     8
340
11
371
    -1
372
    -1
  0
DIMSTYLE
105
8B
330
A
100
AcDbSymbolTableRecord
100
AcDbDimStyleTableRecord
  2
AM_ISO$SH
 70
     0
  4
"
 41
2.5
 42
1.0
 43
10.0
 44
1.0
 47
0.1
 48
0.1
 73
     0
 74
     0
 75
     1
 76
     1
 77
     1
 78
     8
 79
     2
140
3.5
141
0.0
143
0.0393701
144
2.0
146
0.71
147
1.5
172
     1
173
     1
176
   256
177
   256
178
     2
271
     2
272
     3
274
     4
283
     0
284
     8
340
11
343
87
371
    -1
372
    -1
  0
DIMSTYLE
105
40B
102
{ACAD_REACTORS
330
F85
330
F0F
330
EE9
330
EC3
330
E9D
330
E65
330
1022
330
FFC
330
FD6
330
F35
330
F5F
102
}
330
A
100
AcDbSymbolTableRecord
100
AcDbDimStyleTableRecord
  2
AM_ISO$0
 70
     0
  4
"
 41
3.0
 42
1.0
 43
10.0
 44
1.5
 47
0.1
 48
0.1
 73
     0
 74
     0
 77
     1
 78
     8
 79
     2
140
3.0
141
0.0
143
0.0393701
146
0.6
147
1.0
172
     1
176
   256
177
   256
178
   256
271
     2
272
     2
283
     0
284
     8
340
11
371
    -1
372
    -1
  0
ENDTAB
  0
TABLE
  2
BLOCK_RECORD
  5
1
330
0
100
AcDbSymbolTable
 70
    21
  0
BLOCK_RECORD
  5
1F
102
{ACAD_XDICTIONARY
360
8F
102
}
330
1
100
AcDbSymbolTableRecord
100
AcDbBlockTableRecord
  2
*Model_Space
340
22
  0
BLOCK_RECORD
  5
1B
330
1
100
AcDbSymbolTableRecord
100
AcDbBlockTableRecord
  2
*Paper_Space
340
1E
  0
BLOCK_RECORD
  5
23
330
1
100
AcDbSymbolTableRecord
100
AcDbBlockTableRecord
  2
*Paper_Space0
340
26
  0
BLOCK_RECORD
  5
87
330
1
100
AcDbSymbolTableRecord
100
AcDbBlockTableRecord
  2
GENAXEH
340
0
  0
BLOCK_RECORD
  5
BFB
330
1
100
AcDbSymbolTableRecord
100
AcDbBlockTableRecord
  2
*U4
340
0
  0
BLOCK_RECORD
  5
E66
330
1
100
AcDbSymbolTableRecord
100
AcDbBlockTableRecord
  2
*D5
340
0
  0
BLOCK_RECORD
  5
E9E
330
1
100
AcDbSymbolTableRecord
100
AcDbBlockTableRecord
  2
*D6
340
0
  0
BLOCK_RECORD
  5
EC4
330
1
100
AcDbSymbolTableRecord
100
AcDbBlockTableRecord
  2
*D7
340
0
  0
BLOCK_RECORD
  5
EEA
330
1
100
AcDbSymbolTableRecord
100
AcDbBlockTableRecord
  2
*D8
340
0
  0
BLOCK_RECORD
  5
F10
330
1
100
AcDbSymbolTableRecord
100
AcDbBlockTableRecord
  2
*D9
340
0
  0
BLOCK_RECORD
  5
F36
330
1
100
AcDbSymbolTableRecord
100
AcDbBlockTableRecord
  2
*D10
340
0
  0
BLOCK_RECORD
  5
F60
330
1
100
AcDbSymbolTableRecord
100
AcDbBlockTableRecord
  2
*D11
340
0
  0
BLOCK_RECORD
  5
F86
330
1
100
AcDbSymbolTableRecord
100
AcDbBlockTableRecord
  2
*D12
340
0
  0
BLOCK_RECORD
  5
FD7
330
1
100
AcDbSymbolTableRecord
100
AcDbBlockTableRecord
  2
*D13
340
0
  0
BLOCK_RECORD
  5
FFD
330
1
100
AcDbSymbolTableRecord
100
AcDbBlockTableRecord
  2
*D14
340
0
  0
BLOCK_RECORD
  5
1023
330
1
100
AcDbSymbolTableRecord
100
AcDbBlockTableRecord
  2
*D15
340
0
  0
BLOCK_RECORD
  5
12D4
330
1
100
AcDbSymbolTableRecord
100
AcDbBlockTableRecord
  2
GENDOT
340
0
102
{BLKREFS
331
1668
331
1674
102
}
  0
BLOCK_RECORD
  5
17E6
330
1
100
AcDbSymbolTableRecord
100
AcDbBlockTableRecord
  2
*S18
340
0
  0
BLOCK_RECORD
  5
17EE
330
1
100
AcDbSymbolTableRecord
100
AcDbBlockTableRecord
  2
*S19
340
0
  0
BLOCK_RECORD
  5
17F6
330
1
100
AcDbSymbolTableRecord
100
AcDbBlockTableRecord
  2
*S20
340
0
  0
ENDTAB
  0
ENDSEC
  0
SECTION
  2
BLOCKS
  0
BLOCK
  5
20
330
1F
100
AcDbEntity
  8
0
100
AcDbBlockBegin
  2
*Model_Space
 70
     0
 10
0.0
 20
0.0
 30
0.0
  3
*Model_Space
  1

  0
ENDBLK
  5
21
330
1F
100
AcDbEntity
  8
0
100
AcDbBlockEnd
  0
BLOCK
  5
1C
330
1B
100
AcDbEntity
 67
     1
  8
0
100
AcDbBlockBegin
  2
*Paper_Space
 70
     0
 10
0.0
 20
0.0
 30
0.0
  3
*Paper_Space
  1

  0
ENDBLK
  5
1D
330
1B
100
AcDbEntity
 67
     1
  8
0
100
AcDbBlockEnd
  0
BLOCK
  5
24
330
23
100
AcDbEntity
  8
0
100
AcDbBlockBegin
  2
*Paper_Space0
 70
     0
 10
0.0
 20
0.0
 30
0.0
  3
*Paper_Space0
  1

  0
ENDBLK
  5
25
330
23
100
AcDbEntity
  8
0
100
AcDbBlockEnd
  0
BLOCK
  5
89
330
87
100
AcDbEntity
  8
0
100
AcDbBlockBegin
  2
GENAXEH
 70
     0
 10
0.0
 20
0.0
 30
0.0
  3
GENAXEH
  1

  0
LINE
  5
88
330
87
100
AcDbEntity
  8
0
100
AcDbLine
 10
-1.0
 20
0.0
 30
0.0
 11
1.0
 21
0.0
 31
0.0
  0
ENDBLK
  5
8A
330
87
100
AcDbEntity
  8
0
100
AcDbBlockEnd
  0
BLOCK
  5
BFC
330
BFB
100
AcDbEntity
  8
0
100
AcDbBlockBegin
  2
*U4
 70
     1
 10
0.0
 20
0.0
 30
0.0
  3
*U4
  1

  0
ENDBLK
  5
BFD
330
BFB
100
AcDbEntity
  8
0
100
AcDbBlockEnd
  0
BLOCK
  5
E70
330
E66
100
AcDbEntity
  8
0
100
AcDbBlockBegin
  2
*D5
 70
     1
 10
0.0
 20
0.0
 30
0.0
  3
*D5
  1

  0
LINE
  5
123A
330
E66
100
AcDbEntity
  8
AM_5
100
AcDbLine
 10
2088.682271309304
 20
1585.632688618177
 30
0.0
 11
2088.682271309304
 21
1531.882688618177
 31
0.0
  0
LINE
  5
123B
330
E66
100
AcDbEntity
  8
AM_5
100
AcDbLine
 10
2150.682271309305
 20
1585.632688618177
 30
0.0
 11
2150.682271309305
 21
1531.882688618177
 31
0.0
  0
LINE
  5
123C
330
E66
100
AcDbEntity
  8
AM_5
100
AcDbLine
 10
2093.182271309304
 20
1534.132688618177
 30
0.0
 11
2146.182271309304
 21
1534.132688618177
 31
0.0
  0
SOLID
  5
123D
330
E66
100
AcDbEntity
  8
AM_5
100
AcDbTrace
 10
2093.182271309304
 20
1534.882688618177
 30
0.0
 11
2093.182271309304
 21
1533.382688618177
 31
0.0
 12
2088.682271309304
 22
1534.132688618177
 32
0.0
 13
2088.682271309304
 23
1534.132688618177
 33
0.0
  0
SOLID
  5
123E
330
E66
100
AcDbEntity
  8
AM_5
100
AcDbTrace
 10
2146.182271309304
 20
1534.882688618177
 30
0.0
 11
2146.182271309304
 21
1533.382688618177
 31
0.0
 12
2150.682271309305
 22
1534.132688618177
 32
0.0
 13
2150.682271309305
 23
1534.132688618177
 33
0.0
  0
MTEXT
  5
123F
330
E66
100
AcDbEntity
  8
AM_5
100
AcDbMText
 10
2119.682271309304
 20
1537.883131531562
 30
0.0
 40
4.5
 41
0.0
 71
     5
 72
     1
  1
62
 73
     1
 44
1.0
1001
ACAD
1000
MTEXTBEGIN
1070
    73
1070
     1
1070
    44
1040
1.0
1070
    74
1070
     0
1000
MTEXTEND
  0
POINT
  5
1240
330
E66
100
AcDbEntity
  8
Defpoints
 62
     0
100
AcDbPoint
 10
2088.682271309304
 20
1587.132688618177
 30
0.0
  0
POINT
  5
1241
330
E66
100
AcDbEntity
  8
Defpoints
 62
     0
100
AcDbPoint
 10
2150.682271309305
 20
1587.132688618177
 30
0.0
  0
POINT
  5
1242
330
E66
100
AcDbEntity
  8
Defpoints
 62
     0
100
AcDbPoint
 10
2150.682271309305
 20
1534.132688618177
 30
0.0
  0
ENDBLK
  5
E71
330
E66
100
AcDbEntity
  8
0
100
AcDbBlockEnd
  0
BLOCK
  5
EA8
330
E9E
100
AcDbEntity
  8
0
100
AcDbBlockBegin
  2
*D6
 70
     1
 10
0.0
 20
0.0
 30
0.0
  3
*D6
  1

  0
LINE
  5
1243
330
E9E
100
AcDbEntity
  8
AM_5
100
AcDbLine
 10
2079.682271309304
 20
1549.632688618177
 30
0.0
 11
2079.682271309304
 21
1521.882688618177
 31
0.0
  0
LINE
  5
1244
330
E9E
100
AcDbEntity
  8
AM_5
100
AcDbLine
 10
2159.682271309304
 20
1549.632688618177
 30
0.0
 11
2159.682271309304
 21
1521.882688618177
 31
0.0
  0
LINE
  5
1245
330
E9E
100
AcDbEntity
  8
AM_5
100
AcDbLine
 10
2084.182271309305
 20
1524.132688618177
 30
0.0
 11
2155.182271309304
 21
1524.132688618177
 31
0.0
  0
SOLID
  5
1246
330
E9E
100
AcDbEntity
  8
AM_5
100
AcDbTrace
 10
2084.182271309305
 20
1524.882688618177
 30
0.0
 11
2084.182271309305
 21
1523.382688618177
 31
0.0
 12
2079.682271309304
 22
1524.132688618177
 32
0.0
 13
2079.682271309304
 23
1524.132688618177
 33
0.0
  0
SOLID
  5
1247
330
E9E
100
AcDbEntity
  8
AM_5
100
AcDbTrace
 10
2155.182271309304
 20
1524.882688618177
 30
0.0
 11
2155.182271309304
 21
1523.382688618177
 31
0.0
 12
2159.682271309304
 22
1524.132688618177
 32
0.0
 13
2159.682271309304
 23
1524.132688618177
 33
0.0
  0
MTEXT
  5
1248
330
E9E
100
AcDbEntity
  8
AM_5
100
AcDbMText
 10
2119.682271309304
 20
1527.882688618177
 30
0.0
 40
4.5
 41
0.0
 71
     5
 72
     1
  1
80
 73
     1
 44
1.0
1001
ACAD
1000
MTEXTBEGIN
1070
    73
1070
     1
1070
    44
1040
1.0
1070
    74
1070
     0
1000
MTEXTEND
  0
POINT
  5
1249
330
E9E
100
AcDbEntity
  8
Defpoints
 62
     0
100
AcDbPoint
 10
2079.682271309304
 20
1551.132688618177
 30
0.0
  0
POINT
  5
124A
330
E9E
100
AcDbEntity
  8
Defpoints
 62
     0
100
AcDbPoint
 10
2159.682271309304
 20
1551.132688618177
 30
0.0
  0
POINT
  5
124B
330
E9E
100
AcDbEntity
  8
Defpoints
 62
     0
100
AcDbPoint
 10
2159.682271309304
 20
1524.132688618177
 30
0.0
  0
ENDBLK
  5
EA9
330
E9E
100
AcDbEntity
  8
0
100
AcDbBlockEnd
  0
BLOCK
  5
ECE
330
EC4
100
AcDbEntity
  8
0
100
AcDbBlockBegin
  2
*D7
 70
     1
 10
0.0
 20
0.0
 30
0.0
  3
*D7
  1

  0
LINE
  5
124C
330
EC4
100
AcDbEntity
  8
AM_5
100
AcDbLine
 10
2127.182271309305
 20
1555.132688618177
 30
0.0
 11
2180.144303954248
 21
1555.132688618177
 31
0.0
  0
LINE
  5
124D
330
EC4
100
AcDbEntity
  8
AM_5
100
AcDbLine
 10
2127.182271309305
 20
1631.132688618176
 30
0.0
 11
2180.144303954248
 21
1631.132688618176
 31
0.0
  0
LINE
  5
124E
330
EC4
100
AcDbEntity
  8
AM_5
100
AcDbLine
 10
2177.894303954248
 20
1559.632688618177
 30
0.0
 11
2177.894303954248
 21
1626.632688618177
 31
0.0
  0
SOLID
  5
124F
330
EC4
100
AcDbEntity
  8
AM_5
100
AcDbTrace
 10
2177.144303954248
 20
1559.632688618177
 30
0.0
 11
2178.644303954248
 21
1559.632688618177
 31
0.0
 12
2177.894303954248
 22
1555.132688618177
 32
0.0
 13
2177.894303954248
 23
1555.132688618177
 33
0.0
  0
SOLID
  5
1250
330
EC4
100
AcDbEntity
  8
AM_5
100
AcDbTrace
 10
2177.144303954248
 20
1626.632688618177
 30
0.0
 11
2178.644303954248
 21
1626.632688618177
 31
0.0
 12
2177.894303954248
 22
1631.132688618176
 32
0.0
 13
2177.894303954248
 23
1631.132688618176
 33
0.0
  0
MTEXT
  5
1251
330
EC4
100
AcDbEntity
  8
AM_5
100
AcDbMText
 10
2174.144303954248
 20
1593.132688618177
 30
0.0
 40
4.5
 41
0.0
 71
     5
 72
     1
  1
76
 11
0.0000000000000001
 21
1.0
 31
0.0
 73
     1
 44
1.0
1001
ACAD
1000
MTEXTBEGIN
1070
    73
1070
     1
1070
    44
1040
1.0
1070
    74
1070
     0
1000
MTEXTEND
  0
POINT
  5
1252
330
EC4
100
AcDbEntity
  8
Defpoints
 62
     0
100
AcDbPoint
 10
2125.682271309305
 20
1555.132688618177
 30
0.0
  0
POINT
  5
1253
330
EC4
100
AcDbEntity
  8
Defpoints
 62
     0
100
AcDbPoint
 10
2125.682271309305
 20
1631.132688618176
 30
0.0
  0
POINT
  5
1254
330
EC4
100
AcDbEntity
  8
Defpoints
 62
     0
100
AcDbPoint
 10
2177.894303954248
 20
1631.132688618176
 30
0.0
  0
ENDBLK
  5
ECF
330
EC4
100
AcDbEntity
  8
0
100
AcDbBlockEnd
  0
BLOCK
  5
EF4
330
EEA
100
AcDbEntity
  8
0
100
AcDbBlockBegin
  2
*D8
 70
     1
 10
0.0
 20
0.0
 30
0.0
  3
*D8
  1

  0
LINE
  5
1255
330
EEA
100
AcDbEntity
  8
AM_5
100
AcDbLine
 10
2156.182271309305
 20
1546.132688618177
 30
0.0
 11
2190.144303954248
 21
1546.132688618177
 31
0.0
  0
LINE
  5
1256
330
EEA
100
AcDbEntity
  8
AM_5
100
AcDbLine
 10
2156.182271309305
 20
1640.132688618177
 30
0.0
 11
2190.144303954248
 21
1640.132688618177
 31
0.0
  0
LINE
  5
1257
330
EEA
100
AcDbEntity
  8
AM_5
100
AcDbLine
 10
2187.894303954248
 20
1550.632688618177
 30
0.0
 11
2187.894303954248
 21
1635.632688618177
 31
0.0
  0
SOLID
  5
1258
330
EEA
100
AcDbEntity
  8
AM_5
100
AcDbTrace
 10
2187.144303954248
 20
1550.632688618177
 30
0.0
 11
2188.644303954248
 21
1550.632688618177
 31
0.0
 12
2187.894303954248
 22
1546.132688618177
 32
0.0
 13
2187.894303954248
 23
1546.132688618177
 33
0.0
  0
SOLID
  5
1259
330
EEA
100
AcDbEntity
  8
AM_5
100
AcDbTrace
 10
2187.144303954248
 20
1635.632688618177
 30
0.0
 11
2188.644303954248
 21
1635.632688618177
 31
0.0
 12
2187.894303954248
 22
1640.132688618177
 32
0.0
 13
2187.894303954248
 23
1640.132688618177
 33
0.0
  0
MTEXT
  5
125A
330
EEA
100
AcDbEntity
  8
AM_5
100
AcDbMText
 10
2184.144303954248
 20
1593.132688618177
 30
0.0
 40
4.5
 41
0.0
 71
     5
 72
     1
  1
94
 11
0.0000000000000001
 21
1.0
 31
0.0
 73
     1
 44
1.0
1001
ACAD
1000
MTEXTBEGIN
1070
    73
1070
     1
1070
    44
1040
1.0
1070
    74
1070
     0
1000
MTEXTEND
  0
POINT
  5
125B
330
EEA
100
AcDbEntity
  8
Defpoints
 62
     0
100
AcDbPoint
 10
2154.682271309305
 20
1546.132688618177
 30
0.0
  0
POINT
  5
125C
330
EEA
100
AcDbEntity
  8
Defpoints
 62
     0
100
AcDbPoint
 10
2154.682271309305
 20
1640.132688618177
 30
0.0
  0
POINT
  5
125D
330
EEA
100
AcDbEntity
  8
Defpoints
 62
     0
100
AcDbPoint
 10
2187.894303954248
 20
1640.132688618177
 30
0.0
  0
ENDBLK
  5
EF5
330
EEA
100
AcDbEntity
  8
0
100
AcDbBlockEnd
  0
BLOCK
  5
F1A
330
F10
100
AcDbEntity
  8
0
100
AcDbBlockBegin
  2
*D9
 70
     1
 10
0.0
 20
0.0
 30
0.0
  3
*D9
  1

  0
LINE
  5
16B0
330
F10
100
AcDbEntity
  8
AM_5
100
AcDbLine
 10
2159.682271305696
 20
1439.041901188795
 30
0.0
 11
2176.122942706899
 21
1439.041901188795
 31
0.0
  0
LINE
  5
16B1
330
F10
100
AcDbEntity
  8
AM_5
100
AcDbLine
 10
2159.682271305696
 20
1485.041901188795
 30
0.0
 11
2176.122942706899
 21
1485.041901188795
 31
0.0
  0
LINE
  5
16B2
330
F10
100
AcDbEntity
  8
AM_5
100
AcDbLine
 10
2173.872942706899
 20
1443.541901188795
 30
0.0
 11
2173.872942706899
 21
1480.541901188795
 31
0.0
  0
SOLID
  5
16B3
330
F10
100
AcDbEntity
  8
AM_5
100
AcDbTrace
 10
2173.122942706899
 20
1443.541901188795
 30
0.0
 11
2174.622942706899
 21
1443.541901188795
 31
0.0
 12
2173.872942706899
 22
1439.041901188795
 32
0.0
 13
2173.872942706899
 23
1439.041901188795
 33
0.0
  0
SOLID
  5
16B4
330
F10
100
AcDbEntity
  8
AM_5
100
AcDbTrace
 10
2173.122942706899
 20
1480.541901188795
 30
0.0
 11
2174.622942706899
 21
1480.541901188795
 31
0.0
 12
2173.872942706899
 22
1485.041901188795
 32
0.0
 13
2173.872942706899
 23
1485.041901188795
 33
0.0
  0
MTEXT
  5
16B5
330
F10
100
AcDbEntity
  8
AM_5
100
AcDbMText
 10
2170.122942706899
 20
1462.041901188795
 30
0.0
 40
4.5
 41
0.0
 71
     5
 72
     1
  1
46+stroke
 11
0.0000000000000001
 21
1.0
 31
0.0
 73
     1
 44
1.0
1001
ACAD
1000
MTEXTBEGIN
1070
    73
1070
     1
1070
    44
1040
1.0
1070
    74
1070
     0
1000
MTEXTEND
  0
POINT
  5
16B6
330
F10
100
AcDbEntity
  8
Defpoints
 62
     0
100
AcDbPoint
 10
2158.182271305696
 20
1439.041901188795
 30
0.0
  0
POINT
  5
16B7
330
F10
100
AcDbEntity
  8
Defpoints
 62
     0
100
AcDbPoint
 10
2158.182271305696
 20
1485.041901188795
 30
0.0
  0
POINT
  5
16B8
330
F10
100
AcDbEntity
  8
Defpoints
 62
     0
100
AcDbPoint
 10
2173.872942706899
 20
1485.041901188795
 30
0.0
  0
ENDBLK
  5
F1B
330
F10
100
AcDbEntity
  8
0
100
AcDbBlockEnd
  0
BLOCK
  5
F42
330
F36
100
AcDbEntity
  8
0
100
AcDbBlockBegin
  2
*D10
 70
     1
 10
0.0
 20
0.0
 30
0.0
  3
*D10
  1

  0
LINE
  5
166E
330
F36
100
AcDbEntity
  8
AM_5
100
AcDbLine
 10
2159.682271305696
 20
1485.041901188795
 30
0.0
 11
2176.1229427069
 21
1485.041901188795
 31
0.0
  0
LINE
  5
166F
330
F36
100
AcDbEntity
  8
AM_5
100
AcDbLine
 10
2161.182271309304
 20
1492.541901188795
 30
0.0
 11
2176.1229427069
 21
1492.541901188795
 31
0.0
  0
LINE
  5
1670
330
F36
100
AcDbEntity
  8
AM_5
100
AcDbLine
 10
2173.8729427069
 20
1480.541901188795
 30
0.0
 11
2173.8729427069
 21
1476.041901188795
 31
0.0
  0
LINE
  5
1671
330
F36
100
AcDbEntity
  8
AM_5
100
AcDbLine
 10
2173.8729427069
 20
1497.041901188795
 30
0.0
 11
2173.8729427069
 21
1501.541901188795
 31
0.0
  0
LINE
  5
1672
330
F36
100
AcDbEntity
  8
AM_5
100
AcDbLine
 10
2173.8729427069
 20
1485.041901188795
 30
0.0
 11
2173.8729427069
 21
1492.541901188795
 31
0.0
  0
SOLID
  5
1673
330
F36
100
AcDbEntity
  8
AM_5
100
AcDbTrace
 10
2173.1229427069
 20
1480.541901188795
 30
0.0
 11
2174.6229427069
 21
1480.541901188795
 31
0.0
 12
2173.8729427069
 22
1485.041901188795
 32
0.0
 13
2173.8729427069
 23
1485.041901188795
 33
0.0
  0
INSERT
  5
1674
330
F36
100
AcDbEntity
  8
AM_5
100
AcDbBlockReference
  2
GENDOT
 10
2173.8729427069
 20
1492.541901188795
 30
0.0
 41
4.5
 42
4.5
 43
4.5
 50
270.0
  0
MTEXT
  5
1675
330
F36
100
AcDbEntity
  8
AM_5
100
AcDbMText
 10
2170.122942706899
 20
1488.791901188795
 30
0.0
 40
4.5
 41
0.0
 71
     5
 72
     1
  1
7.5
 11
0.0000000000000001
 21
1.0
 31
0.0
 73
     1
 44
1.0
1001
ACAD
1000
MTEXTBEGIN
1070
    73
1070
     1
1070
    44
1040
1.0
1070
    74
1070
     0
1000
MTEXTEND
  0
POINT
  5
1676
330
F36
100
AcDbEntity
  8
Defpoints
 62
     0
100
AcDbPoint
 10
2158.182271305696
 20
1485.041901188795
 30
0.0
  0
POINT
  5
1677
330
F36
100
AcDbEntity
  8
Defpoints
 62
     0
100
AcDbPoint
 10
2159.682271309304
 20
1492.541901188795
 30
0.0
  0
POINT
  5
1678
330
F36
100
AcDbEntity
  8
Defpoints
 62
     0
100
AcDbPoint
 10
2173.8729427069
 20
1492.541901188795
 30
0.0
  0
ENDBLK
  5
F43
330
F36
100
AcDbEntity
  8
0
100
AcDbBlockEnd
  0
BLOCK
  5
F6A
330
F60
100
AcDbEntity
  8
0
100
AcDbBlockBegin
  2
*D11
 70
     1
 10
0.0
 20
0.0
 30
0.0
  3
*D11
  1

  0
LINE
  5
1663
330
F60
100
AcDbEntity
  8
AM_5
100
AcDbLine
 10
2161.182271309304
 20
1492.541901188795
 30
0.0
 11
2176.122942706899
 21
1492.541901188795
 31
0.0
  0
LINE
  5
1664
330
F60
100
AcDbEntity
  8
AM_5
100
AcDbLine
 10
2161.182271309304
 20
1504.541901188795
 30
0.0
 11
2176.122942706899
 21
1504.541901188795
 31
0.0
  0
LINE
  5
1665
330
F60
100
AcDbEntity
  8
AM_5
100
AcDbLine
 10
2173.872942706899
 20
1488.041901188795
 30
0.0
 11
2173.872942706899
 21
1483.541901188795
 31
0.0
  0
LINE
  5
1666
330
F60
100
AcDbEntity
  8
AM_5
100
AcDbLine
 10
2173.872942706899
 20
1509.041901188795
 30
0.0
 11
2173.872942706899
 21
1513.541901188795
 31
0.0
  0
LINE
  5
1667
330
F60
100
AcDbEntity
  8
AM_5
100
AcDbLine
 10
2173.872942706899
 20
1492.541901188795
 30
0.0
 11
2173.872942706899
 21
1504.541901188795
 31
0.0
  0
INSERT
  5
1668
330
F60
100
AcDbEntity
  8
AM_5
100
AcDbBlockReference
  2
GENDOT
 10
2173.872942706899
 20
1492.541901188795
 30
0.0
 41
4.5
 42
4.5
 43
4.5
 50
90.0
  0
SOLID
  5
1669
330
F60
100
AcDbEntity
  8
AM_5
100
AcDbTrace
 10
2173.122942706899
 20
1509.041901188795
 30
0.0
 11
2174.622942706899
 21
1509.041901188795
 31
0.0
 12
2173.872942706899
 22
1504.541901188795
 32
0.0
 13
2173.872942706899
 23
1504.541901188795
 33
0.0
  0
MTEXT
  5
166A
330
F60
100
AcDbEntity
  8
AM_5
100
AcDbMText
 10
2170.122499793513
 20
1498.541901188795
 30
0.0
 40
4.5
 41
0.0
 71
     5
 72
     1
  1
12
 11
0.0000000000000001
 21
1.0
 31
0.0
 73
     1
 44
1.0
1001
ACAD
1000
MTEXTBEGIN
1070
    73
1070
     1
1070
    44
1040
1.0
1070
    74
1070
     0
1000
MTEXTEND
  0
POINT
  5
166B
330
F60
100
AcDbEntity
  8
Defpoints
 62
     0
100
AcDbPoint
 10
2159.682271309304
 20
1492.541901188795
 30
0.0
  0
POINT
  5
166C
330
F60
100
AcDbEntity
  8
Defpoints
 62
     0
100
AcDbPoint
 10
2159.682271309304
 20
1504.541901188795
 30
0.0
  0
POINT
  5
166D
330
F60
100
AcDbEntity
  8
Defpoints
 62
     0
100
AcDbPoint
 10
2173.872942706899
 20
1504.541901188795
 30
0.0
  0
ENDBLK
  5
F6B
330
F60
100
AcDbEntity
  8
0
100
AcDbBlockEnd
  0
BLOCK
  5
F90
330
F86
100
AcDbEntity
  8
0
100
AcDbBlockBegin
  2
*D12
 70
     1
 10
0.0
 20
0.0
 30
0.0
  3
*D12
  1

  0
LINE
  5
16C3
330
F86
100
AcDbEntity
  8
AM_5
100
AcDbLine
 10
2159.682271305696
 20
1439.041901188795
 30
0.0
 11
2186.122942706899
 21
1439.041901188795
 31
0.0
  0
LINE
  5
16C4
330
F86
100
AcDbEntity
  8
AM_5
100
AcDbLine
 10
2161.182271309304
 20
1504.541901188795
 30
0.0
 11
2186.122942706899
 21
1504.541901188795
 31
0.0
  0
LINE
  5
16C5
330
F86
100
AcDbEntity
  8
AM_5
100
AcDbLine
 10
2183.8729427069
 20
1443.541901188795
 30
0.0
 11
2183.8729427069
 21
1500.041901188795
 31
0.0
  0
SOLID
  5
16C6
330
F86
100
AcDbEntity
  8
AM_5
100
AcDbTrace
 10
2183.1229427069
 20
1443.541901188795
 30
0.0
 11
2184.6229427069
 21
1443.541901188795
 31
0.0
 12
2183.8729427069
 22
1439.041901188795
 32
0.0
 13
2183.8729427069
 23
1439.041901188795
 33
0.0
  0
SOLID
  5
16C7
330
F86
100
AcDbEntity
  8
AM_5
100
AcDbTrace
 10
2183.1229427069
 20
1500.041901188795
 30
0.0
 11
2184.6229427069
 21
1500.041901188795
 31
0.0
 12
2183.8729427069
 22
1504.541901188795
 32
0.0
 13
2183.8729427069
 23
1504.541901188795
 33
0.0
  0
MTEXT
  5
16C8
330
F86
100
AcDbEntity
  8
AM_5
100
AcDbMText
 10
2180.122942706899
 20
1471.791901188795
 30
0.0
 40
4.5
 41
0.0
 71
     5
 72
     1
  1
65.5+stroke
 11
0.0000000000000001
 21
1.0
 31
0.0
 73
     1
 44
1.0
1001
ACAD
1000
MTEXTBEGIN
1070
    73
1070
     1
1070
    44
1040
1.0
1070
    74
1070
     0
1000
MTEXTEND
  0
POINT
  5
16C9
330
F86
100
AcDbEntity
  8
Defpoints
 62
     0
100
AcDbPoint
 10
2158.182271305696
 20
1439.041901188795
 30
0.0
  0
POINT
  5
16CA
330
F86
100
AcDbEntity
  8
Defpoints
 62
     0
100
AcDbPoint
 10
2159.682271309304
 20
1504.541901188795
 30
0.0
  0
POINT
  5
16CB
330
F86
100
AcDbEntity
  8
Defpoints
 62
     0
100
AcDbPoint
 10
2183.8729427069
 20
1504.541901188795
 30
0.0
  0
ENDBLK
  5
F91
330
F86
100
AcDbEntity
  8
0
100
AcDbBlockEnd
  0
BLOCK
  5
FE1
330
FD7
100
AcDbEntity
  8
0
100
AcDbBlockBegin
  2
*D13
 70
     1
 10
0.0
 20
0.0
 30
0.0
  3
*D13
  1

  0
LINE
  5
175C
330
FD7
100
AcDbEntity
  8
AM_5
100
AcDbLine
 10
2089.682271312728
 20
1327.056868411162
 30
0.0
 11
2089.682271312728
 21
1305.306868411162
 31
0.0
  0
LINE
  5
175D
330
FD7
100
AcDbEntity
  8
AM_5
100
AcDbLine
 10
2149.682271309305
 20
1326.056868414585
 30
0.0
 11
2149.682271309305
 21
1305.306868411162
 31
0.0
  0
LINE
  5
175E
330
FD7
100
AcDbEntity
  8
AM_5
100
AcDbLine
 10
2094.182271312728
 20
1307.556868411162
 30
0.0
 11
2145.182271309305
 21
1307.556868411162
 31
0.0
  0
SOLID
  5
175F
330
FD7
100
AcDbEntity
  8
AM_5
100
AcDbTrace
 10
2094.182271312728
 20
1308.306868411162
 30
0.0
 11
2094.182271312728
 21
1306.806868411162
 31
0.0
 12
2089.682271312728
 22
1307.556868411162
 32
0.0
 13
2089.682271312728
 23
1307.556868411162
 33
0.0
  0
SOLID
  5
1760
330
FD7
100
AcDbEntity
  8
AM_5
100
AcDbTrace
 10
2145.182271309305
 20
1308.306868411162
 30
0.0
 11
2145.182271309305
 21
1306.806868411162
 31
0.0
 12
2149.682271309305
 22
1307.556868411162
 32
0.0
 13
2149.682271309305
 23
1307.556868411162
 33
0.0
  0
MTEXT
  5
1761
330
FD7
100
AcDbEntity
  8
AM_5
100
AcDbMText
 10
2119.682271311016
 20
1311.306868411162
 30
0.0
 40
4.5
 41
0.0
 71
     5
 72
     1
  1
{\Famgdt|c136;o}60
 73
     1
 44
1.0
1001
ACAD
1000
MTEXTBEGIN
1070
    73
1070
     1
1070
    44
1040
1.0
1070
    74
1070
     0
1000
MTEXTEND
  0
POINT
  5
1762
330
FD7
100
AcDbEntity
  8
Defpoints
 62
     0
100
AcDbPoint
 10
2089.682271312728
 20
1328.556868411162
 30
0.0
  0
POINT
  5
1763
330
FD7
100
AcDbEntity
  8
Defpoints
 62
     0
100
AcDbPoint
 10
2149.682271309305
 20
1327.556868414585
 30
0.0
  0
POINT
  5
1764
330
FD7
100
AcDbEntity
  8
Defpoints
 62
     0
100
AcDbPoint
 10
2149.682271309305
 20
1307.556868411162
 30
0.0
  0
ENDBLK
  5
FE2
330
FD7
100
AcDbEntity
  8
0
100
AcDbBlockEnd
  0
BLOCK
  5
1007
330
FFD
100
AcDbEntity
  8
0
100
AcDbBlockBegin
  2
*D14
 70
     1
 10
0.0
 20
0.0
 30
0.0
  3
*D14
  1

  0
LINE
  5
168B
330
FFD
100
AcDbEntity
  8
AM_5
100
AcDbLine
 10
2081.182271309311
 20
1330.851605654519
 30
0.0
 11
2081.182271309311
 21
1295.306868411162
 31
0.0
  0
LINE
  5
168C
330
FFD
100
AcDbEntity
  8
AM_5
100
AcDbLine
 10
2158.182271305696
 20
1330.85160565454
 30
0.0
 11
2158.182271305696
 21
1295.306868411162
 31
0.0
  0
LINE
  5
168D
330
FFD
100
AcDbEntity
  8
AM_5
100
AcDbLine
 10
2085.682271309312
 20
1297.556868411162
 30
0.0
 11
2153.682271305696
 21
1297.556868411162
 31
0.0
  0
SOLID
  5
168E
330
FFD
100
AcDbEntity
  8
AM_5
100
AcDbTrace
 10
2085.682271309312
 20
1298.306868411162
 30
0.0
 11
2085.682271309312
 21
1296.806868411162
 31
0.0
 12
2081.182271309311
 22
1297.556868411162
 32
0.0
 13
2081.182271309311
 23
1297.556868411162
 33
0.0
  0
SOLID
  5
168F
330
FFD
100
AcDbEntity
  8
AM_5
100
AcDbTrace
 10
2153.682271305696
 20
1298.306868411162
 30
0.0
 11
2153.682271305696
 21
1296.806868411162
 31
0.0
 12
2158.182271305696
 22
1297.556868411162
 32
0.0
 13
2158.182271305696
 23
1297.556868411162
 33
0.0
  0
MTEXT
  5
1690
330
FFD
100
AcDbEntity
  8
AM_5
100
AcDbMText
 10
2119.682271307504
 20
1301.306868411162
 30
0.0
 40
4.5
 41
0.0
 71
     5
 72
     1
  1
77
 73
     1
 44
1.0
1001
ACAD
1000
MTEXTBEGIN
1070
    73
1070
     1
1070
    44
1040
1.0
1070
    74
1070
     0
1000
MTEXTEND
  0
POINT
  5
1691
330
FFD
100
AcDbEntity
  8
Defpoints
 62
     0
100
AcDbPoint
 10
2081.182271309311
 20
1332.351605654519
 30
0.0
  0
POINT
  5
1692
330
FFD
100
AcDbEntity
  8
Defpoints
 62
     0
100
AcDbPoint
 10
2158.182271305696
 20
1332.35160565454
 30
0.0
  0
POINT
  5
1693
330
FFD
100
AcDbEntity
  8
Defpoints
 62
     0
100
AcDbPoint
 10
2158.182271305696
 20
1297.556868411162
 30
0.0
  0
ENDBLK
  5
1008
330
FFD
100
AcDbEntity
  8
0
100
AcDbBlockEnd
  0
BLOCK
  5
102D
330
1023
100
AcDbEntity
  8
0
100
AcDbBlockBegin
  2
*D15
 70
     1
 10
0.0
 20
0.0
 30
0.0
  3
*D15
  1

  0
LINE
  5
1682
330
1023
100
AcDbEntity
  8
AM_5
100
AcDbLine
 10
2155.38753406229
 20
1328.056868411157
 30
0.0
 11
2173.932271309304
 21
1328.056868411157
 31
0.0
  0
LINE
  5
1683
330
1023
100
AcDbEntity
  8
AM_5
100
AcDbLine
 10
2130.682271312494
 20
1412.056868407739
 30
0.0
 11
2173.932271309304
 21
1412.056868407739
 31
0.0
  0
LINE
  5
1684
330
1023
100
AcDbEntity
  8
AM_5
100
AcDbLine
 10
2171.682271309304
 20
1332.556868411157
 30
0.0
 11
2171.682271309304
 21
1407.556868407739
 31
0.0
  0
SOLID
  5
1685
330
1023
100
AcDbEntity
  8
AM_5
100
AcDbTrace
 10
2170.932271309304
 20
1332.556868411157
 30
0.0
 11
2172.432271309304
 21
1332.556868411157
 31
0.0
 12
2171.682271309304
 22
1328.056868411157
 32
0.0
 13
2171.682271309304
 23
1328.056868411157
 33
0.0
  0
SOLID
  5
1686
330
1023
100
AcDbEntity
  8
AM_5
100
AcDbTrace
 10
2170.932271309304
 20
1407.556868407739
 30
0.0
 11
2172.432271309304
 21
1407.556868407739
 31
0.0
 12
2171.682271309304
 22
1412.056868407739
 32
0.0
 13
2171.682271309304
 23
1412.056868407739
 33
0.0
  0
MTEXT
  5
1687
330
1023
100
AcDbEntity
  8
AM_5
100
AcDbMText
 10
2167.932271309304
 20
1370.056868409448
 30
0.0
 40
4.5
 41
0.0
 71
     5
 72
     1
  1
84
 11
0.0000000000000001
 21
1.0
 31
0.0
 73
     1
 44
1.0
1001
ACAD
1000
MTEXTBEGIN
1070
    73
1070
     1
1070
    44
1040
1.0
1070
    74
1070
     0
1000
MTEXTEND
  0
POINT
  5
1688
330
1023
100
AcDbEntity
  8
Defpoints
 62
     0
100
AcDbPoint
 10
2153.88753406229
 20
1328.056868411157
 30
0.0
  0
POINT
  5
1689
330
1023
100
AcDbEntity
  8
Defpoints
 62
     0
100
AcDbPoint
 10
2129.182271312494
 20
1412.056868407739
 30
0.0
  0
POINT
  5
168A
330
1023
100
AcDbEntity
  8
Defpoints
 62
     0
100
AcDbPoint
 10
2171.682271309304
 20
1412.056868407739
 30
0.0
  0
ENDBLK
  5
102E
330
1023
100
AcDbEntity
  8
0
100
AcDbBlockEnd
  0
BLOCK
  5
12D7
330
12D4
100
AcDbEntity
  8
0
100
AcDbBlockBegin
  2
GENDOT
 70
     0
 10
0.0
 20
0.0
 30
0.0
  3
GENDOT
  1

  0
LINE
  5
12D5
330
12D4
100
AcDbEntity
  8
0
100
AcDbLine
 10
0.0
 20
0.0
 30
0.0
 11
-1.0
 21
0.0
 31
0.0
  0
LWPOLYLINE
  5
12D6
330
12D4
100
AcDbEntity
  8
0
100
AcDbPolyline
 90
        2
 70
     1
 43
0.25
 10
-0.125
 20
0.0
 42
1.0
 10
0.125
 20
0.0
 42
1.0
  0
ENDBLK
  5
12D8
330
12D4
100
AcDbEntity
  8
0
100
AcDbBlockEnd
  0
BLOCK
  5
17EB
330
17E6
100
AcDbEntity
  8
0
100
AcDbBlockBegin
  2
*S18
 70
     1
 10
0.0
 20
0.0
 30
0.0
  3
*S18
  1

  0
LINE
  5
17E7
330
17E6
100
AcDbEntity
  8
AM_5
 62
     5
100
AcDbLine
 10
2247.157614053751
 20
1298.913286547792
 30
0.0
 11
2185.059017769401
 21
1298.913286547792
 31
0.0
  0
LINE
  5
17E8
330
17E6
100
AcDbEntity
  8
AM_5
 62
     5
100
AcDbLine
 10
2185.059017769401
 20
1298.913286547792
 30
0.0
 11
2157.019396494317
 21
1329.391773910847
 31
0.0
  0
TRACE
  5
17E9
330
17E6
100
AcDbEntity
  8
AM_5
 62
     5
370
    35
100
AcDbTrace
 10
2157.528058941843
 20
1329.859733564342
 30
0.0
 11
2156.510734046791
 21
1328.923814257352
 31
0.0
 12
2153.464890015832
 22
1333.255448805867
 32
0.0
 13
2153.464890015832
 23
1333.255448805867
 33
0.0
  0
MTEXT
  5
17EA
330
17E6
100
AcDbEntity
  8
AM_5
 62
     5
100
AcDbMText
 10
2188.559017769401
 20
1300.663286547792
 30
0.0
 40
5.25
 41
0.0
 71
     7
 72
     5
  1
2-%%C9 thru\P2-%%C14x10.5 depth\P2-M10x1.5x18 depth
  7
ACISOTS
 73
     1
 44
1.0
1001
ACAD
1000
MTEXTBEGIN
1070
    73
1070
     1
1070
    44
1040
1.0
1070
    74
1070
     0
1000
MTEXTEND
  0
ENDBLK
  5
17EC
330
17E6
100
AcDbEntity
  8
0
100
AcDbBlockEnd
  0
BLOCK
  5
17F3
330
17EE
100
AcDbEntity
  8
0
100
AcDbBlockBegin
  2
*S19
 70
     1
 10
0.0
 20
0.0
 30
0.0
  3
*S19
  1

  0
LINE
  5
17EF
330
17EE
100
AcDbEntity
  8
AM_5
 62
     5
100
AcDbLine
 10
2189.897467511201
 20
1424.885692378917
 30
0.0
 11
2161.589150582067
 21
1424.885692378917
 31
0.0
  0
LINE
  5
17F0
330
17EE
100
AcDbEntity
  8
AM_5
 62
     5
100
AcDbLine
 10
2161.589150582067
 20
1424.885692378917
 30
0.0
 11
2129.882672499755
 21
1442.549998357472
 31
0.0
  0
TRACE
  5
17F1
330
17EE
100
AcDbEntity
  8
AM_5
 62
     5
370
    35
100
AcDbTrace
 10
2130.219058525535
 20
1443.153793160763
 30
0.0
 11
2129.546286473974
 21
1441.946203554181
 31
0.0
 12
2125.296395618949
 22
1445.105103907657
 32
0.0
 13
2125.296395618949
 23
1445.105103907657
 33
0.0
  0
MTEXT
  5
17F2
330
17EE
100
AcDbEntity
  8
AM_5
 62
     5
100
AcDbMText
 10
2165.089150582067
 20
1426.635692378918
 30
0.0
 40
5.25
 41
0.0
 71
     7
 72
     5
  1
2-PT1/4
  7
ACISOTS
 73
     1
 44
1.0
1001
ACAD
1000
MTEXTBEGIN
1070
    73
1070
     1
1070
    44
1040
1.0
1070
    74
1070
     0
1000
MTEXTEND
  0
ENDBLK
  5
17F4
330
17EE
100
AcDbEntity
  8
0
100
AcDbBlockEnd
  0
BLOCK
  5
17FB
330
17F6
100
AcDbEntity
  8
0
100
AcDbBlockBegin
  2
*S20
 70
     1
 10
0.0
 20
0.0
 30
0.0
  3
*S20
  1

  0
LINE
  5
17F7
330
17F6
100
AcDbEntity
  8
AM_5
 62
     5
100
AcDbLine
 10
2244.690681879757
 20
1556.006233176997
 30
0.0
 11
2195.515681879757
 21
1556.006233176997
 31
0.0
  0
LINE
  5
17F8
330
17F6
100
AcDbEntity
  8
AM_5
 62
     5
100
AcDbLine
 10
2195.515681879757
 20
1556.006233176997
 30
0.0
 11
2157.808832221562
 21
1586.913400914125
 31
0.0
  0
TRACE
  5
17F9
330
17F6
100
AcDbEntity
  8
AM_5
 62
     5
370
    35
100
AcDbTrace
 10
2158.246987032081
 20
1587.447951271754
 30
0.0
 11
2157.370677411044
 21
1586.378850556495
 31
0.0
 12
2153.74851912602
 22
1590.241517132974
 32
0.0
 13
2153.74851912602
 23
1590.241517132974
 33
0.0
  0
MTEXT
  5
17FA
330
17F6
100
AcDbEntity
  8
AM_5
 62
     5
100
AcDbMText
 10
2199.015681879757
 20
1557.756233176997
 30
0.0
 40
5.25
 41
0.0
 71
     7
 72
     5
  1
4-M8x1.25 thru
  7
ACISOTS
 73
     1
 44
1.0
1001
ACAD
1000
MTEXTBEGIN
1070
    73
1070
     1
1070
    44
1040
1.0
1070
    74
1070
     0
1000
MTEXTEND
  0
ENDBLK
  5
17FC
330
17F6
100
AcDbEntity
  8
0
100
AcDbBlockEnd
  0
ENDSEC
  0
SECTION
  2
ENTITIES
  0
LINE
  5
9E3
330
1F
100
AcDbEntity
  8
AM_VIS
100
AcDbLine
 10
2081.182271309303
 20
1439.041901188795
 30
0.0
 11
2081.182271309303
 21
1485.041901188795
 31
0.0
  0
LINE
  5
9E4
330
1F
100
AcDbEntity
  8
AM_VIS
100
AcDbLine
 10
2085.477008552494
 20
1439.041901188795
 30
0.0
 11
2085.477008552494
 21
1485.041901188795
 31
0.0
  0
LINE
  5
9E5
330
1F
100
AcDbEntity
  8
AM_VIS
100
AcDbLine
 10
2093.682271312494
 20
1439.041901188795
 30
0.0
 11
2093.682271312494
 21
1485.041901188795
 31
0.0
  0
LINE
  5
9E6
330
1F
100
AcDbEntity
  8
AM_VIS
100
AcDbLine
 10
2096.382271312494
 20
1439.041901188795
 30
0.0
 11
2096.382271312494
 21
1485.041901188795
 31
0.0
  0
LINE
  5
9E7
330
1F
100
AcDbEntity
  8
AM_VIS
100
AcDbLine
 10
2130.682271312494
 20
1439.041901188795
 30
0.0
 11
2130.682271312494
 21
1485.041901188795
 31
0.0
  0
LINE
  5
9E8
330
1F
100
AcDbEntity
  8
AM_VIS
100
AcDbLine
 10
2145.682271312495
 20
1439.041901188795
 30
0.0
 11
2145.682271312495
 21
1485.041901188795
 31
0.0
  0
LINE
  5
9E9
330
1F
100
AcDbEntity
  8
AM_VIS
100
AcDbLine
 10
2153.887534062494
 20
1439.041901188795
 30
0.0
 11
2153.887534062494
 21
1485.041901188795
 31
0.0
  0
LINE
  5
9EA
330
1F
100
AcDbEntity
  8
AM_VIS
100
AcDbLine
 10
2158.182271305696
 20
1439.041901188795
 30
0.0
 11
2158.182271305696
 21
1485.041901188795
 31
0.0
  0
LINE
  5
9EB
330
1F
100
AcDbEntity
  8
AM_VIS
100
AcDbLine
 10
2108.682271312494
 20
1439.041901188795
 30
0.0
 11
2108.682271312494
 21
1485.041901188795
 31
0.0
  0
LINE
  5
9EC
330
1F
100
AcDbEntity
  8
AM_VIS
100
AcDbLine
 10
2099.982271305696
 20
1439.041901188795
 30
0.0
 11
2099.982271305696
 21
1485.041901188795
 31
0.0
  0
LINE
  5
9ED
330
1F
100
AcDbEntity
  8
AM_VIS
100
AcDbLine
 10
2103.382271305695
 20
1439.041901188795
 30
0.0
 11
2103.382271305695
 21
1485.041901188795
 31
0.0
  0
LINE
  5
9EE
330
1F
100
AcDbEntity
  8
AM_VIS
100
AcDbLine
 10
2142.982271312494
 20
1439.041901188795
 30
0.0
 11
2142.982271312494
 21
1485.041901188795
 31
0.0
  0
LINE
  5
9EF
330
1F
100
AcDbEntity
  8
AM_VIS
100
AcDbLine
 10
2135.982271309305
 20
1439.041901188795
 30
0.0
 11
2135.982271309305
 21
1485.041901188795
 31
0.0
  0
LINE
  5
9F0
330
1F
100
AcDbEntity
  8
AM_VIS
100
AcDbLine
 10
2139.382271309305
 20
1439.041901188795
 30
0.0
 11
2139.382271309305
 21
1485.041901188795
 31
0.0
  0
LINE
  5
9F1
330
1F
100
AcDbEntity
  8
AM_VIS
100
AcDbLine
 10
2093.682271312494
 20
1439.041901188795
 30
0.0
 11
2085.477008552494
 21
1439.041901188795
 31
0.0
  0
LINE
  5
9F2
330
1F
100
AcDbEntity
  8
AM_VIS
100
AcDbLine
 10
2096.382271312494
 20
1439.041901188795
 30
0.0
 11
2093.682271312494
 21
1439.041901188795
 31
0.0
  0
LINE
  5
9F3
330
1F
100
AcDbEntity
  8
AM_VIS
100
AcDbLine
 10
2099.782271305695
 20
1439.041901188795
 30
0.0
 11
2096.382271312494
 21
1439.041901188795
 31
0.0
  0
LINE
  5
9F4
330
1F
100
AcDbEntity
  8
AM_VIS
100
AcDbLine
 10
2102.132271305695
 20
1439.041901188795
 30
0.0
 11
2101.232271305696
 21
1439.041901188795
 31
0.0
  0
LINE
  5
9F5
330
1F
100
AcDbEntity
  8
AM_VIS
100
AcDbLine
 10
2108.682271312494
 20
1439.041901188795
 30
0.0
 11
2103.582271305695
 21
1439.041901188795
 31
0.0
  0
LINE
  5
9F6
330
1F
100
AcDbEntity
  8
AM_VIS
100
AcDbLine
 10
2110.182271312494
 20
1439.041901188795
 30
0.0
 11
2108.682271312494
 21
1439.041901188795
 31
0.0
  0
LINE
  5
9F7
330
1F
100
AcDbEntity
  8
AM_VIS
100
AcDbLine
 10
2130.682271312494
 20
1439.041901188795
 30
0.0
 11
2129.182271312494
 21
1439.041901188795
 31
0.0
  0
LINE
  5
9F8
330
1F
100
AcDbEntity
  8
AM_VIS
100
AcDbLine
 10
2135.782271309305
 20
1439.041901188795
 30
0.0
 11
2130.682271312494
 21
1439.041901188795
 31
0.0
  0
LINE
  5
9F9
330
1F
100
AcDbEntity
  8
AM_VIS
100
AcDbLine
 10
2138.132271309304
 20
1439.041901188795
 30
0.0
 11
2137.232271309304
 21
1439.041901188795
 31
0.0
  0
LINE
  5
9FA
330
1F
100
AcDbEntity
  8
AM_VIS
100
AcDbLine
 10
2142.982271312494
 20
1439.041901188795
 30
0.0
 11
2139.582271309305
 21
1439.041901188795
 31
0.0
  0
LINE
  5
9FB
330
1F
100
AcDbEntity
  8
AM_VIS
100
AcDbLine
 10
2145.682271312495
 20
1439.041901188795
 30
0.0
 11
2142.982271312494
 21
1439.041901188795
 31
0.0
  0
LINE
  5
9FC
330
1F
100
AcDbEntity
  8
AM_VIS
100
AcDbLine
 10
2153.887534062494
 20
1439.041901188795
 30
0.0
 11
2145.682271312495
 21
1439.041901188795
 31
0.0
  0
LINE
  5
9FD
330
1F
100
AcDbEntity
  8
AM_VIS
100
AcDbLine
 10
2129.182271312494
 20
1439.041901188795
 30
0.0
 11
2129.182271312494
 21
1485.041901188795
 31
0.0
  0
LINE
  5
9FE
330
1F
100
AcDbEntity
  8
AM_VIS
100
AcDbLine
 10
2129.182271312494
 20
1439.041901188795
 30
0.0
 11
2110.182271312494
 21
1439.041901188795
 31
0.0
  0
LINE
  5
9FF
330
1F
100
AcDbEntity
  8
AM_VIS
100
AcDbLine
 10
2110.182271312494
 20
1439.041901188795
 30
0.0
 11
2110.182271312494
 21
1485.041901188795
 31
0.0
  0
LINE
  5
A00
330
1F
100
AcDbEntity
  8
AM_VIS
100
AcDbLine
 10
2153.887534062494
 20
1485.041901188795
 30
0.0
 11
2145.682271312495
 21
1485.041901188795
 31
0.0
  0
LINE
  5
A01
330
1F
100
AcDbEntity
  8
AM_VIS
100
AcDbLine
 10
2145.682271312495
 20
1485.041901188795
 30
0.0
 11
2142.982271312494
 21
1485.041901188795
 31
0.0
  0
LINE
  5
A02
330
1F
100
AcDbEntity
  8
AM_VIS
100
AcDbLine
 10
2142.982271312494
 20
1485.041901188795
 30
0.0
 11
2139.582271309305
 21
1485.041901188795
 31
0.0
  0
LINE
  5
A03
330
1F
100
AcDbEntity
  8
AM_VIS
100
AcDbLine
 10
2137.232271309304
 20
1485.041901188795
 30
0.0
 11
2138.132271309304
 21
1485.041901188795
 31
0.0
  0
LINE
  5
A04
330
1F
100
AcDbEntity
  8
AM_VIS
100
AcDbLine
 10
2135.782271309305
 20
1485.041901188795
 30
0.0
 11
2130.682271312494
 21
1485.041901188795
 31
0.0
  0
LINE
  5
A05
330
1F
100
AcDbEntity
  8
AM_VIS
100
AcDbLine
 10
2130.682271312494
 20
1485.041901188795
 30
0.0
 11
2129.182271312494
 21
1485.041901188795
 31
0.0
  0
LINE
  5
A06
330
1F
100
AcDbEntity
  8
AM_VIS
100
AcDbLine
 10
2129.182271312494
 20
1485.041901188795
 30
0.0
 11
2110.182271312494
 21
1485.041901188795
 31
0.0
  0
LINE
  5
A07
330
1F
100
AcDbEntity
  8
AM_VIS
100
AcDbLine
 10
2110.182271312494
 20
1485.041901188795
 30
0.0
 11
2108.682271312494
 21
1485.041901188795
 31
0.0
  0
LINE
  5
A08
330
1F
100
AcDbEntity
  8
AM_VIS
100
AcDbLine
 10
2108.682271312494
 20
1485.041901188795
 30
0.0
 11
2103.582271305695
 21
1485.041901188795
 31
0.0
  0
LINE
  5
A09
330
1F
100
AcDbEntity
  8
AM_VIS
100
AcDbLine
 10
2101.232271305696
 20
1485.041901188795
 30
0.0
 11
2102.132271305695
 21
1485.041901188795
 31
0.0
  0
LINE
  5
A0A
330
1F
100
AcDbEntity
  8
AM_VIS
100
AcDbLine
 10
2099.782271305695
 20
1485.041901188795
 30
0.0
 11
2096.382271312494
 21
1485.041901188795
 31
0.0
  0
LINE
  5
A0B
330
1F
100
AcDbEntity
  8
AM_VIS
100
AcDbLine
 10
2096.382271312494
 20
1485.041901188795
 30
0.0
 11
2093.682271312494
 21
1485.041901188795
 31
0.0
  0
LINE
  5
A0C
330
1F
100
AcDbEntity
  8
AM_VIS
100
AcDbLine
 10
2093.682271312494
 20
1485.041901188795
 30
0.0
 11
2085.477008552494
 21
1485.041901188795
 31
0.0
  0
LINE
  5
A0D
330
1F
100
AcDbEntity
  8
AM_VIS
100
AcDbLine
 10
2081.182271309303
 20
1439.041901188795
 30
0.0
 11
2085.477008552494
 21
1439.041901188795
 31
0.0
  0
LINE
  5
A0E
330
1F
100
AcDbEntity
  8
AM_VIS
100
AcDbLine
 10
2099.782271305695
 20
1439.041901188795
 30
0.0
 11
2099.982271305696
 21
1439.041901188795
 31
0.0
  0
LINE
  5
A0F
330
1F
100
AcDbEntity
  8
AM_VIS
100
AcDbLine
 10
2101.232271305695
 20
1439.041901188795
 30
0.0
 11
2099.982271305696
 21
1439.041901188795
 31
0.0
  0
LINE
  5
A10
330
1F
100
AcDbEntity
  8
AM_VIS
100
AcDbLine
 10
2103.382271305695
 20
1439.041901188795
 30
0.0
 11
2102.132271305695
 21
1439.041901188795
 31
0.0
  0
LINE
  5
A11
330
1F
100
AcDbEntity
  8
AM_VIS
100
AcDbLine
 10
2103.382271305695
 20
1439.041901188795
 30
0.0
 11
2103.582271305695
 21
1439.041901188795
 31
0.0
  0
LINE
  5
A12
330
1F
100
AcDbEntity
  8
AM_VIS
100
AcDbLine
 10
2135.782271309305
 20
1439.041901188795
 30
0.0
 11
2135.982271309305
 21
1439.041901188795
 31
0.0
  0
LINE
  5
A13
330
1F
100
AcDbEntity
  8
AM_VIS
100
AcDbLine
 10
2137.232271309304
 20
1439.041901188795
 30
0.0
 11
2135.982271309305
 21
1439.041901188795
 31
0.0
  0
LINE
  5
A14
330
1F
100
AcDbEntity
  8
AM_VIS
100
AcDbLine
 10
2139.382271309305
 20
1439.041901188795
 30
0.0
 11
2138.132271309304
 21
1439.041901188795
 31
0.0
  0
LINE
  5
A15
330
1F
100
AcDbEntity
  8
AM_VIS
100
AcDbLine
 10
2139.382271309305
 20
1439.041901188795
 30
0.0
 11
2139.582271309305
 21
1439.041901188795
 31
0.0
  0
LINE
  5
A16
102
{ACAD_REACTORS
330
F1D
330
F93
102
}
330
1F
100
AcDbEntity
  8
AM_VIS
100
AcDbLine
 10
2153.887534062494
 20
1439.041901188795
 30
0.0
 11
2158.182271305696
 21
1439.041901188795
 31
0.0
  0
CIRCLE
  5
A17
330
1F
100
AcDbEntity
  8
AM_VIS
100
AcDbCircle
 10
2119.682271312494
 20
1470.541901188795
 30
0.0
 40
5.719999999999999
  0
CIRCLE
  5
A18
330
1F
100
AcDbEntity
  8
AM_VIS
100
AcDbCircle
 10
2119.682271312494
 20
1449.541901188795
 30
0.0
 40
5.719999999999999
  0
LINE
  5
A19
102
{ACAD_REACTORS
330
F1D
330
F45
102
}
330
1F
100
AcDbEntity
  8
AM_VIS
100
AcDbLine
 10
2153.887534062494
 20
1485.041901188795
 30
0.0
 11
2158.182271305696
 21
1485.041901188795
 31
0.0
  0
LINE
  5
A1A
330
1F
100
AcDbEntity
  8
AM_VIS
100
AcDbLine
 10
2139.582271309305
 20
1485.041901188795
 30
0.0
 11
2139.382271309305
 21
1485.041901188795
 31
0.0
  0
LINE
  5
A1B
330
1F
100
AcDbEntity
  8
AM_VIS
100
AcDbLine
 10
2138.132271309304
 20
1485.041901188795
 30
0.0
 11
2139.382271309305
 21
1485.041901188795
 31
0.0
  0
LINE
  5
A1C
330
1F
100
AcDbEntity
  8
AM_VIS
100
AcDbLine
 10
2135.982271309305
 20
1485.041901188795
 30
0.0
 11
2137.232271309304
 21
1485.041901188795
 31
0.0
  0
LINE
  5
A1D
330
1F
100
AcDbEntity
  8
AM_VIS
100
AcDbLine
 10
2135.982271309305
 20
1485.041901188795
 30
0.0
 11
2135.782271309305
 21
1485.041901188795
 31
0.0
  0
LINE
  5
A1E
330
1F
100
AcDbEntity
  8
AM_VIS
100
AcDbLine
 10
2103.582271305695
 20
1485.041901188795
 30
0.0
 11
2103.382271305695
 21
1485.041901188795
 31
0.0
  0
LINE
  5
A1F
330
1F
100
AcDbEntity
  8
AM_VIS
100
AcDbLine
 10
2102.132271305695
 20
1485.041901188795
 30
0.0
 11
2103.382271305695
 21
1485.041901188795
 31
0.0
  0
LINE
  5
A20
330
1F
100
AcDbEntity
  8
AM_VIS
100
AcDbLine
 10
2099.982271305696
 20
1485.041901188795
 30
0.0
 11
2101.232271305695
 21
1485.041901188795
 31
0.0
  0
LINE
  5
A21
330
1F
100
AcDbEntity
  8
AM_VIS
100
AcDbLine
 10
2099.982271305696
 20
1485.041901188795
 30
0.0
 11
2099.782271305695
 21
1485.041901188795
 31
0.0
  0
LINE
  5
A22
330
1F
100
AcDbEntity
  8
AM_VIS
100
AcDbLine
 10
2081.182271309303
 20
1485.041901188795
 30
0.0
 11
2085.477008552494
 21
1485.041901188795
 31
0.0
  0
SPLINE
  5
A23
330
1F
100
AcDbEntity
  8
AM_VIS
100
AcDbSpline
210
0.0
220
0.0
230
1.0
 70
    12
 71
     2
 72
     6
 73
     3
 74
     0
 42
0.0000000001
 43
0.0000000001
 40
0.0
 40
0.0
 40
0.0
 40
1.872132962589758
 40
1.872132962589758
 40
1.872132962589758
 10
2114.414444432878
 20
1491.309850381226
 30
0.0
 41
1.0
 10
2115.203628423794
 20
1492.029913202644
 30
0.0
 41
1.004838115647484
 10
2115.936675795099
 20
1492.541901188795
 30
0.0
 41
1.003411114490252
  0
LINE
  5
A24
330
1F
100
AcDbEntity
  8
AM_VIS
100
AcDbLine
 10
2114.414444432878
 20
1487.041901188795
 30
0.0
 11
2124.950098185731
 21
1487.041901188795
 31
0.0
  0
ARC
  5
A25
330
1F
100
AcDbEntity
  8
AM_4
100
AcDbCircle
 10
2119.682271312494
 20
1470.541901188795
 30
0.0
 40
6.575
100
AcDbArc
 50
259.9999999999961
 51
190.0000000000039
  0
ARC
  5
A26
330
1F
100
AcDbEntity
  8
AM_4
100
AcDbCircle
 10
2119.682271312494
 20
1449.541901188795
 30
0.0
 40
6.575
100
AcDbArc
 50
259.9999999999961
 51
190.0000000000039
  0
SPLINE
  5
A2B
330
1F
100
AcDbEntity
  8
AM_VIS
100
AcDbSpline
210
0.0
220
0.0
230
1.0
 70
    12
 71
     2
 72
     6
 73
     3
 74
     0
 42
0.0000000001
 43
0.0000000001
 40
1.019304200611725
 40
1.019304200611725
 40
1.019304200611725
 40
2.891437163201476
 40
2.891437163201476
 40
2.891437163201476
 10
2123.42786682351
 20
1492.541901188795
 30
0.0
 41
1.003411114490252
 10
2124.160914194815
 20
1492.029913202644
 30
0.0
 41
1.004838115647484
 10
2124.950098185731
 20
1491.309850381226
 30
0.0
 41
1.0
  0
LINE
  5
A2C
330
1F
100
AcDbEntity
  8
AM_VIS
100
AcDbLine
 10
2114.414444432878
 20
1487.041901188795
 30
0.0
 11
2114.414444432878
 21
1491.309850381226
 31
0.0
  0
ARC
  5
A2D
330
1F
100
AcDbEntity
  8
AM_VIS
100
AcDbCircle
 10
2119.682271309304
 20
1495.541901188795
 30
0.0
 40
10.0
100
AcDbArc
 50
238.2116693829532
 51
301.7883306170468
  0
LINE
  5
A2E
330
1F
100
AcDbEntity
  8
AM_VIS
100
AcDbLine
 10
2124.950098185731
 20
1491.309850381226
 30
0.0
 11
2124.950098185731
 21
1487.041901188795
 31
0.0
  0
LINE
  5
A2F
330
1F
100
AcDbEntity
  8
AM_VIS
100
AcDbLine
 10
2110.393596174709
 20
1492.541901188795
 30
0.0
 11
2109.682271309305
 21
1491.309850381226
 31
0.0
  0
LINE
  5
A30
330
1F
100
AcDbEntity
  8
AM_VIS
100
AcDbLine
 10
2128.970946443899
 20
1492.541901188795
 30
0.0
 11
2129.682271309304
 21
1491.309850381226
 31
0.0
  0
LINE
  5
A31
330
1F
100
AcDbEntity
  8
AM_VIS
100
AcDbLine
 10
2129.682271309304
 20
1485.041901188795
 30
0.0
 11
2129.682271309304
 21
1491.309850381226
 31
0.0
  0
LINE
  5
A32
330
1F
100
AcDbEntity
  8
AM_VIS
100
AcDbLine
 10
2109.682271309305
 20
1485.041901188795
 30
0.0
 11
2109.682271309305
 21
1491.309850381226
 31
0.0
  0
LINE
  5
A33
330
1F
100
AcDbEntity
  8
AM_VIS
100
AcDbLine
 10
2109.682271309305
 20
1491.309850381226
 30
0.0
 11
2114.414444432878
 21
1491.309850381226
 31
0.0
  0
LINE
  5
A34
330
1F
100
AcDbEntity
  8
AM_VIS
100
AcDbLine
 10
2124.950098185731
 20
1491.309850381226
 30
0.0
 11
2129.682271309304
 21
1491.309850381226
 31
0.0
  0
LINE
  5
A35
330
1F
100
AcDbEntity
  8
AM_VIS
100
AcDbLine
 10
2094.682271312727
 20
1485.041901188795
 30
0.0
 11
2094.682271312727
 21
1492.541901188795
 31
0.0
  0
LINE
  5
A36
330
1F
100
AcDbEntity
  8
AM_VIS
100
AcDbLine
 10
2084.682271312728
 20
1485.041901188795
 30
0.0
 11
2084.682271312728
 21
1492.541901188795
 31
0.0
  0
LINE
  5
A37
330
1F
100
AcDbEntity
  8
AM_VIS
100
AcDbLine
 10
2154.682271305881
 20
1485.041901188795
 30
0.0
 11
2154.682271305881
 21
1492.541901188795
 31
0.0
  0
LINE
  5
A38
330
1F
100
AcDbEntity
  8
AM_VIS
100
AcDbLine
 10
2144.682271305882
 20
1485.041901188795
 30
0.0
 11
2144.682271305882
 21
1492.541901188795
 31
0.0
  0
LINE
  5
A39
330
1F
100
AcDbEntity
  8
AM_VIS
100
AcDbLine
 10
2079.682271309304
 20
1492.541901188795
 30
0.0
 11
2084.682271309304
 21
1492.541901188795
 31
0.0
  0
LINE
  5
A3A
330
1F
100
AcDbEntity
  8
AM_VIS
100
AcDbLine
 10
2079.682271309304
 20
1504.541901188795
 30
0.0
 11
2079.682271309304
 21
1492.541901188795
 31
0.0
  0
LINE
  5
A3B
330
1F
100
AcDbEntity
  8
AM_VIS
100
AcDbLine
 10
2084.682271309304
 20
1492.541901188795
 30
0.0
 11
2154.682271309305
 21
1492.541901188795
 31
0.0
  0
LINE
  5
A3C
330
1F
100
AcDbEntity
  8
AM_VIS
100
AcDbLine
 10
2084.682271309304
 20
1492.541901188795
 30
0.0
 11
2084.682271309304
 21
1504.541901188795
 31
0.0
  0
LINE
  5
A3D
330
1F
100
AcDbEntity
  8
AM_VIS
100
AcDbLine
 10
2154.682271309305
 20
1492.541901188795
 30
0.0
 11
2159.682271309304
 21
1492.541901188795
 31
0.0
  0
LINE
  5
A3E
330
1F
100
AcDbEntity
  8
AM_VIS
100
AcDbLine
 10
2154.682271309305
 20
1504.541901188795
 30
0.0
 11
2154.682271309305
 21
1492.541901188795
 31
0.0
  0
LINE
  5
A3F
102
{ACAD_REACTORS
330
F45
330
F6D
102
}
330
1F
100
AcDbEntity
  8
AM_VIS
100
AcDbLine
 10
2159.682271309304
 20
1492.541901188795
 30
0.0
 11
2159.682271309304
 21
1504.541901188795
 31
0.0
  0
LINE
  5
A40
102
{ACAD_REACTORS
330
F6D
330
F93
102
}
330
1F
100
AcDbEntity
  8
AM_VIS
100
AcDbLine
 10
2159.682271309304
 20
1504.541901188795
 30
0.0
 11
2154.682271309305
 21
1504.541901188795
 31
0.0
  0
LINE
  5
A41
330
1F
100
AcDbEntity
  8
AM_VIS
100
AcDbLine
 10
2154.682271309305
 20
1504.541901188795
 30
0.0
 11
2084.682271309304
 21
1504.541901188795
 31
0.0
  0
LINE
  5
A42
330
1F
100
AcDbEntity
  8
AM_VIS
100
AcDbLine
 10
2084.682271309304
 20
1504.541901188795
 30
0.0
 11
2079.682271309304
 21
1504.541901188795
 31
0.0
  0
LINE
  5
A43
330
1F
100
AcDbEntity
  8
AM_VIS
100
AcDbLine
 10
2154.682271309305
 20
1640.132688618177
 30
0.0
 11
2159.682271309304
 21
1635.132688618177
 31
0.0
  0
LINE
  5
A44
330
1F
100
AcDbEntity
  8
AM_VIS
100
AcDbLine
 10
2159.682271309304
 20
1635.132688618177
 30
0.0
 11
2159.682271309304
 21
1551.132688618177
 31
0.0
  0
LINE
  5
A45
102
{ACAD_REACTORS
330
EAB
102
}
330
1F
100
AcDbEntity
  8
AM_VIS
100
AcDbLine
 10
2159.682271309304
 20
1551.132688618177
 30
0.0
 11
2154.682271309305
 21
1546.132688618177
 31
0.0
  0
LINE
  5
A46
102
{ACAD_REACTORS
330
EF7
102
}
330
1F
100
AcDbEntity
  8
AM_VIS
100
AcDbLine
 10
2154.682271309305
 20
1546.132688618177
 30
0.0
 11
2084.682271309304
 21
1546.132688618177
 31
0.0
  0
LINE
  5
A47
330
1F
100
AcDbEntity
  8
AM_VIS
100
AcDbLine
 10
2084.682271309304
 20
1546.132688618177
 30
0.0
 11
2079.682271309304
 21
1551.132688618177
 31
0.0
  0
LINE
  5
A48
102
{ACAD_REACTORS
330
EAB
102
}
330
1F
100
AcDbEntity
  8
AM_VIS
100
AcDbLine
 10
2079.682271309304
 20
1551.132688618177
 30
0.0
 11
2079.682271309304
 21
1635.132688618177
 31
0.0
  0
LINE
  5
A49
102
{ACAD_REACTORS
330
EF7
102
}
330
1F
100
AcDbEntity
  8
AM_VIS
100
AcDbLine
 10
2084.682271309304
 20
1640.132688618177
 30
0.0
 11
2154.682271309305
 21
1640.132688618177
 31
0.0
  0
LINE
  5
A4A
330
1F
100
AcDbEntity
  8
AM_VIS
100
AcDbLine
 10
2079.682271309304
 20
1635.132688618177
 30
0.0
 11
2084.682271309304
 21
1640.132688618177
 31
0.0
  0
LINE
  5
A4F
330
1F
100
AcDbEntity
  8
AM_VIS
100
AcDbLine
 10
2157.182271309304
 20
1367.456868414585
 30
0.0
 11
2157.182271309304
 21
1365.656868411162
 31
0.0
  0
LINE
  5
A50
330
1F
100
AcDbEntity
  8
AM_VIS
100
AcDbLine
 10
2154.876587049304
 20
1365.456868411162
 30
0.0
 11
2156.982271309304
 21
1365.456868411162
 31
0.0
  0
LINE
  5
A51
330
1F
100
AcDbEntity
  8
AM_VIS
100
AcDbLine
 10
2154.676587049305
 20
1356.658602881162
 30
0.0
 11
2154.676587049305
 21
1365.256868411162
 31
0.0
  0
LINE
  5
A52
330
1F
100
AcDbEntity
  8
AM_VIS
100
AcDbLine
 10
2155.776594569305
 20
1356.458602881162
 30
0.0
 11
2154.876587049304
 21
1356.458602881162
 31
0.0
  0
LINE
  5
A53
330
1F
100
AcDbEntity
  8
AM_VIS
100
AcDbLine
 10
2155.976594569304
 20
1357.956707151162
 30
0.0
 11
2155.976594569304
 21
1356.658602881162
 31
0.0
  0
LINE
  5
A54
330
1F
100
AcDbEntity
  8
AM_VIS
100
AcDbLine
 10
2156.982271309304
 20
1358.156707151162
 30
0.0
 11
2156.176594569305
 21
1358.156707151162
 31
0.0
  0
LINE
  5
A55
330
1F
100
AcDbEntity
  8
AM_VIS
100
AcDbLine
 10
2157.182271309304
 20
1357.956707151162
 30
0.0
 11
2157.182271309304
 21
1354.456868411162
 31
0.0
  0
LINE
  5
A56
330
1F
100
AcDbEntity
  8
AM_VIS
100
AcDbLine
 10
2157.182271309304
 20
1354.456868411162
 30
0.0
 11
2155.482271309304
 21
1352.756868411162
 31
0.0
  0
LINE
  5
A57
330
1F
100
AcDbEntity
  8
AM_VIS
100
AcDbLine
 10
2155.482271300884
 20
1350.456868411162
 30
0.0
 11
2155.482271300884
 21
1352.756868411162
 31
0.0
  0
LINE
  5
A58
330
1F
100
AcDbEntity
  8
AM_VIS
100
AcDbLine
 10
2154.482271305881
 20
1350.256868411162
 30
0.0
 11
2155.282271305881
 21
1350.256868411162
 31
0.0
  0
LINE
  5
A59
330
1F
100
AcDbEntity
  8
AM_VIS
100
AcDbLine
 10
2153.982271305881
 20
1350.706868411162
 30
0.0
 11
2154.482271305881
 21
1350.256868411162
 31
0.0
  0
LINE
  5
A5A
330
1F
100
AcDbEntity
  8
AM_VIS
100
AcDbLine
 10
2151.882271305881
 20
1350.706868411162
 30
0.0
 11
2153.982271305881
 21
1350.706868411162
 31
0.0
  0
LINE
  5
A5B
330
1F
100
AcDbEntity
  8
AM_VIS
100
AcDbLine
 10
2150.182271305881
 20
1348.106868411162
 30
0.0
 11
2150.182271305881
 21
1349.006868411162
 31
0.0
  0
LINE
  5
A5C
330
1F
100
AcDbEntity
  8
AM_VIS
100
AcDbLine
 10
2153.982271305881
 20
1346.406868411162
 30
0.0
 11
2151.882271305881
 21
1346.406868411162
 31
0.0
  0
LINE
  5
A5D
330
1F
100
AcDbEntity
  8
AM_VIS
100
AcDbLine
 10
2154.482271305881
 20
1346.856868411162
 30
0.0
 11
2153.982271305881
 21
1346.406868411162
 31
0.0
  0
LINE
  5
A5E
330
1F
100
AcDbEntity
  8
AM_VIS
100
AcDbLine
 10
2155.282271305881
 20
1346.856868411162
 30
0.0
 11
2154.482271305881
 21
1346.856868411162
 31
0.0
  0
LINE
  5
A5F
330
1F
100
AcDbEntity
  8
AM_VIS
100
AcDbLine
 10
2155.482271300884
 20
1343.25686841935
 30
0.0
 11
2155.482271300884
 21
1346.656868411162
 31
0.0
  0
LINE
  5
A60
330
1F
100
AcDbEntity
  8
AM_VIS
100
AcDbLine
 10
2158.182271305696
 20
1340.556868414537
 30
0.0
 11
2155.482271300883
 21
1343.25686841935
 31
0.0
  0
LINE
  5
A61
102
{ACAD_REACTORS
330
100A
102
}
330
1F
100
AcDbEntity
  8
AM_VIS
100
AcDbLine
 10
2158.182271305696
 20
1332.351605654537
 30
0.0
 11
2158.182271305696
 21
1340.556868414537
 31
0.0
  0
LINE
  5
A62
330
1F
100
AcDbEntity
  8
AM_VIS
100
AcDbLine
 10
2145.682271382693
 20
1328.056868411162
 30
0.0
 11
2153.887534062295
 21
1328.056868411162
 31
0.0
  0
LINE
  5
A63
330
1F
100
AcDbEntity
  8
AM_VIS
100
AcDbLine
 10
2142.982271382693
 20
1330.756868411162
 30
0.0
 11
2145.682271382693
 21
1328.056868411162
 31
0.0
  0
LINE
  5
A64
330
1F
100
AcDbEntity
  8
AM_VIS
100
AcDbLine
 10
2139.582271312914
 20
1330.756868411162
 30
0.0
 11
2142.982271382693
 21
1330.756868411162
 31
0.0
  0
LINE
  5
A65
330
1F
100
AcDbEntity
  8
AM_VIS
100
AcDbLine
 10
2139.382271312914
 20
1331.760980834585
 30
0.0
 11
2139.382271312914
 21
1330.956868414585
 31
0.0
  0
LINE
  5
A66
330
1F
100
AcDbEntity
  8
AM_VIS
100
AcDbLine
 10
2139.832271312914
 20
1332.260980834585
 30
0.0
 11
2139.382271312914
 21
1331.760980834585
 31
0.0
  0
LINE
  5
A67
330
1F
100
AcDbEntity
  8
AM_VIS
100
AcDbLine
 10
2139.832271312914
 20
1334.360980834585
 30
0.0
 11
2139.832271312914
 21
1332.260980834585
 31
0.0
  0
LINE
  5
A68
330
1F
100
AcDbEntity
  8
AM_VIS
100
AcDbLine
 10
2137.232271312914
 20
1336.060980834585
 30
0.0
 11
2138.132271312914
 21
1336.060980834585
 31
0.0
  0
LINE
  5
A69
330
1F
100
AcDbEntity
  8
AM_VIS
100
AcDbLine
 10
2135.532271312914
 20
1332.260980834585
 30
0.0
 11
2135.532271312914
 21
1334.360980834585
 31
0.0
  0
LINE
  5
A6A
330
1F
100
AcDbEntity
  8
AM_VIS
100
AcDbLine
 10
2135.982271312914
 20
1331.760980834585
 30
0.0
 11
2135.532271312914
 21
1332.260980834585
 31
0.0
  0
LINE
  5
A6B
330
1F
100
AcDbEntity
  8
AM_VIS
100
AcDbLine
 10
2135.982271312914
 20
1330.956868414585
 30
0.0
 11
2135.982271312914
 21
1331.760980834585
 31
0.0
  0
LINE
  5
A6C
330
1F
100
AcDbEntity
  8
AM_VIS
100
AcDbLine
 10
2133.482271309304
 20
1330.756868411162
 30
0.0
 11
2135.782271312914
 21
1330.756868411162
 31
0.0
  0
LINE
  5
A6D
330
1F
100
AcDbEntity
  8
AM_VIS
100
AcDbLine
 10
2133.482271309304
 20
1330.756868411162
 30
0.0
 11
2131.782271309305
 21
1329.056868411162
 31
0.0
  0
LINE
  5
A6E
330
1F
100
AcDbEntity
  8
AM_VIS
100
AcDbLine
 10
2131.782271309305
 20
1329.056868411162
 30
0.0
 11
2128.282432572728
 21
1329.056868411162
 31
0.0
  0
LINE
  5
A6F
330
1F
100
AcDbEntity
  8
AM_VIS
100
AcDbLine
 10
2120.582271312728
 20
1329.056868411162
 30
0.0
 11
2118.782271309305
 21
1329.056868411162
 31
0.0
  0
LINE
  5
A70
330
1F
100
AcDbEntity
  8
AM_VIS
100
AcDbLine
 10
2118.582271309305
 20
1331.362552671162
 30
0.0
 11
2118.582271309305
 21
1329.256868411162
 31
0.0
  0
LINE
  5
A71
330
1F
100
AcDbEntity
  8
AM_VIS
100
AcDbLine
 10
2109.784005779305
 20
1331.562552671162
 30
0.0
 11
2118.382271309305
 21
1331.562552671162
 31
0.0
  0
LINE
  5
A72
330
1F
100
AcDbEntity
  8
AM_VIS
100
AcDbLine
 10
2109.584005779305
 20
1330.462545151162
 30
0.0
 11
2109.584005779305
 21
1331.362552671162
 31
0.0
  0
LINE
  5
A73
330
1F
100
AcDbEntity
  8
AM_VIS
100
AcDbLine
 10
2111.082110049305
 20
1330.262545151162
 30
0.0
 11
2109.784005779305
 21
1330.262545151162
 31
0.0
  0
LINE
  5
A74
330
1F
100
AcDbEntity
  8
AM_VIS
100
AcDbLine
 10
2111.282110049305
 20
1329.256868411162
 30
0.0
 11
2111.282110049305
 21
1330.062545151162
 31
0.0
  0
LINE
  5
A75
330
1F
100
AcDbEntity
  8
AM_VIS
100
AcDbLine
 10
2111.082110049305
 20
1329.056868411162
 30
0.0
 11
2107.582271309305
 21
1329.056868411162
 31
0.0
  0
LINE
  5
A76
330
1F
100
AcDbEntity
  8
AM_VIS
100
AcDbLine
 10
2107.582271309305
 20
1329.056868411162
 30
0.0
 11
2105.882271309305
 21
1330.756868411162
 31
0.0
  0
LINE
  5
A77
330
1F
100
AcDbEntity
  8
AM_VIS
100
AcDbLine
 10
2103.582271309305
 20
1330.756868411162
 30
0.0
 11
2105.882271309305
 21
1330.756868411162
 31
0.0
  0
LINE
  5
A78
330
1F
100
AcDbEntity
  8
AM_VIS
100
AcDbLine
 10
2103.382271309305
 20
1331.756868414585
 30
0.0
 11
2103.382271309305
 21
1330.956868414585
 31
0.0
  0
LINE
  5
A79
330
1F
100
AcDbEntity
  8
AM_VIS
100
AcDbLine
 10
2103.832271309305
 20
1332.256868414585
 30
0.0
 11
2103.382271309305
 21
1331.756868414585
 31
0.0
  0
LINE
  5
A7A
330
1F
100
AcDbEntity
  8
AM_VIS
100
AcDbLine
 10
2103.832271309305
 20
1334.356868414585
 30
0.0
 11
2103.832271309305
 21
1332.256868414585
 31
0.0
  0
LINE
  5
A7B
330
1F
100
AcDbEntity
  8
AM_VIS
100
AcDbLine
 10
2101.232271309305
 20
1336.056868414585
 30
0.0
 11
2102.132271309304
 21
1336.056868414585
 31
0.0
  0
LINE
  5
A7C
330
1F
100
AcDbEntity
  8
AM_VIS
100
AcDbLine
 10
2099.532271309305
 20
1332.256868414585
 30
0.0
 11
2099.532271309305
 21
1334.356868414585
 31
0.0
  0
LINE
  5
A7D
330
1F
100
AcDbEntity
  8
AM_VIS
100
AcDbLine
 10
2099.982271309305
 20
1331.756868414585
 30
0.0
 11
2099.532271309305
 21
1332.256868414585
 31
0.0
  0
LINE
  5
A7E
330
1F
100
AcDbEntity
  8
AM_VIS
100
AcDbLine
 10
2099.982271309305
 20
1330.956868414585
 30
0.0
 11
2099.982271309305
 21
1331.756868414585
 31
0.0
  0
LINE
  5
A7F
330
1F
100
AcDbEntity
  8
AM_VIS
100
AcDbLine
 10
2096.382271302693
 20
1330.756868411162
 30
0.0
 11
2099.782271309305
 21
1330.756868411162
 31
0.0
  0
LINE
  5
A80
330
1F
100
AcDbEntity
  8
AM_VIS
100
AcDbLine
 10
2093.682271302693
 20
1328.056868411162
 30
0.0
 11
2096.382271302693
 21
1330.756868411162
 31
0.0
  0
LINE
  5
A81
330
1F
100
AcDbEntity
  8
AM_VIS
100
AcDbLine
 10
2085.477008552693
 20
1328.056868411162
 30
0.0
 11
2093.682271302693
 21
1328.056868411162
 31
0.0
  0
LINE
  5
A82
330
1F
100
AcDbEntity
  8
AM_VIS
100
AcDbLine
 10
2081.182271309304
 20
1340.55686840455
 30
0.0
 11
2081.182271309304
 21
1332.351605654527
 31
0.0
  0
LINE
  5
A83
330
1F
100
AcDbEntity
  8
AM_VIS
100
AcDbLine
 10
2083.882271309304
 20
1343.256868404549
 30
0.0
 11
2081.182271309304
 21
1340.55686840455
 31
0.0
  0
LINE
  5
A84
330
1F
100
AcDbEntity
  8
AM_VIS
100
AcDbLine
 10
2083.882271309304
 20
1346.656868407553
 30
0.0
 11
2083.882271309304
 21
1343.256868404549
 31
0.0
  0
LINE
  5
A85
330
1F
100
AcDbEntity
  8
AM_VIS
100
AcDbLine
 10
2084.886383732728
 20
1346.856868407553
 30
0.0
 11
2084.082271312728
 21
1346.856868407553
 31
0.0
  0
LINE
  5
A86
330
1F
100
AcDbEntity
  8
AM_VIS
100
AcDbLine
 10
2085.386383732728
 20
1346.406868407553
 30
0.0
 11
2084.886383732728
 21
1346.856868407553
 31
0.0
  0
LINE
  5
A87
330
1F
100
AcDbEntity
  8
AM_VIS
100
AcDbLine
 10
2087.486383732727
 20
1346.406868407553
 30
0.0
 11
2085.386383732728
 21
1346.406868407553
 31
0.0
  0
LINE
  5
A88
330
1F
100
AcDbEntity
  8
AM_VIS
100
AcDbLine
 10
2089.186383732728
 20
1349.006868407553
 30
0.0
 11
2089.186383732728
 21
1348.106868407553
 31
0.0
  0
LINE
  5
A89
330
1F
100
AcDbEntity
  8
AM_VIS
100
AcDbLine
 10
2085.386383732728
 20
1350.706868407553
 30
0.0
 11
2087.486383732728
 21
1350.706868407553
 31
0.0
  0
LINE
  5
A8A
330
1F
100
AcDbEntity
  8
AM_VIS
100
AcDbLine
 10
2084.886383732728
 20
1350.256868407553
 30
0.0
 11
2085.386383732728
 21
1350.706868407553
 31
0.0
  0
LINE
  5
A8B
330
1F
100
AcDbEntity
  8
AM_VIS
100
AcDbLine
 10
2084.082271312728
 20
1350.256868407553
 30
0.0
 11
2084.886383732728
 21
1350.256868407553
 31
0.0
  0
LINE
  5
A8C
330
1F
100
AcDbEntity
  8
AM_VIS
100
AcDbLine
 10
2083.882271309304
 20
1352.756868411162
 30
0.0
 11
2083.882271309304
 21
1350.456868407553
 31
0.0
  0
LINE
  5
A8D
330
1F
100
AcDbEntity
  8
AM_VIS
100
AcDbLine
 10
2083.882271309304
 20
1352.756868411162
 30
0.0
 11
2082.182271309305
 21
1354.456868411162
 31
0.0
  0
LINE
  5
A8E
330
1F
100
AcDbEntity
  8
AM_VIS
100
AcDbLine
 10
2082.182271309305
 20
1354.456868411162
 30
0.0
 11
2082.182271309305
 21
1357.956707147739
 31
0.0
  0
LINE
  5
A8F
330
1F
100
AcDbEntity
  8
AM_VIS
100
AcDbLine
 10
2083.187948049304
 20
1358.156707147739
 30
0.0
 11
2082.382271309305
 21
1358.156707147739
 31
0.0
  0
LINE
  5
A90
330
1F
100
AcDbEntity
  8
AM_VIS
100
AcDbLine
 10
2083.387948049304
 20
1356.658602877739
 30
0.0
 11
2083.387948049304
 21
1357.956707147739
 31
0.0
  0
LINE
  5
A91
330
1F
100
AcDbEntity
  8
AM_VIS
100
AcDbLine
 10
2084.482271309305
 20
1356.458602877739
 30
0.0
 11
2083.587948049304
 21
1356.458602877739
 31
0.0
  0
LINE
  5
A92
330
1F
100
AcDbEntity
  8
AM_VIS
100
AcDbLine
 10
2084.682271309304
 20
1365.256868407739
 30
0.0
 11
2084.682271309304
 21
1356.658602877739
 31
0.0
  0
LINE
  5
A93
330
1F
100
AcDbEntity
  8
AM_VIS
100
AcDbLine
 10
2082.382271309305
 20
1365.456868407739
 30
0.0
 11
2084.482271309305
 21
1365.456868407739
 31
0.0
  0
LINE
  5
A94
330
1F
100
AcDbEntity
  8
AM_VIS
100
AcDbLine
 10
2082.182271309305
 20
1365.656868407739
 30
0.0
 11
2082.182271309305
 21
1367.456868411162
 31
0.0
  0
LINE
  5
A95
330
1F
100
AcDbEntity
  8
AM_VIS
100
AcDbLine
 10
2084.487955569305
 20
1367.656868411162
 30
0.0
 11
2082.382271309305
 21
1367.656868411162
 31
0.0
  0
LINE
  5
A96
330
1F
100
AcDbEntity
  8
AM_VIS
100
AcDbLine
 10
2084.687955569305
 20
1376.455133941162
 30
0.0
 11
2084.687955569305
 21
1367.856868411162
 31
0.0
  0
LINE
  5
A97
330
1F
100
AcDbEntity
  8
AM_VIS
100
AcDbLine
 10
2083.587948049304
 20
1376.655133941162
 30
0.0
 11
2084.487955569305
 21
1376.655133941162
 31
0.0
  0
LINE
  5
A98
330
1F
100
AcDbEntity
  8
AM_VIS
100
AcDbLine
 10
2083.387948049304
 20
1375.157029671162
 30
0.0
 11
2083.387948049304
 21
1376.455133941162
 31
0.0
  0
LINE
  5
A99
330
1F
100
AcDbEntity
  8
AM_VIS
100
AcDbLine
 10
2082.382271309305
 20
1374.957029671162
 30
0.0
 11
2083.187948049304
 21
1374.957029671162
 31
0.0
  0
LINE
  5
A9A
330
1F
100
AcDbEntity
  8
AM_VIS
100
AcDbLine
 10
2082.182271309305
 20
1375.157029671162
 30
0.0
 11
2082.182271309305
 21
1378.656868411162
 31
0.0
  0
LINE
  5
A9B
330
1F
100
AcDbEntity
  8
AM_VIS
100
AcDbLine
 10
2082.182271309305
 20
1378.656868411162
 30
0.0
 11
2083.882271309304
 21
1380.356868411162
 31
0.0
  0
LINE
  5
A9C
330
1F
100
AcDbEntity
  8
AM_VIS
100
AcDbLine
 10
2083.882271309304
 20
1382.656868411162
 30
0.0
 11
2083.882271309304
 21
1380.356868411162
 31
0.0
  0
LINE
  5
A9D
330
1F
100
AcDbEntity
  8
AM_VIS
100
AcDbLine
 10
2084.882271312728
 20
1382.856868411162
 30
0.0
 11
2084.082271312728
 21
1382.856868411162
 31
0.0
  0
LINE
  5
A9E
330
1F
100
AcDbEntity
  8
AM_VIS
100
AcDbLine
 10
2085.382271312728
 20
1382.406868411162
 30
0.0
 11
2084.882271312728
 21
1382.856868411162
 31
0.0
  0
LINE
  5
A9F
330
1F
100
AcDbEntity
  8
AM_VIS
100
AcDbLine
 10
2087.482271312728
 20
1382.406868411162
 30
0.0
 11
2085.382271312728
 21
1382.406868411162
 31
0.0
  0
LINE
  5
AA0
330
1F
100
AcDbEntity
  8
AM_VIS
100
AcDbLine
 10
2089.182271312727
 20
1385.006868411162
 30
0.0
 11
2089.182271312727
 21
1384.106868411162
 31
0.0
  0
LINE
  5
AA1
330
1F
100
AcDbEntity
  8
AM_VIS
100
AcDbLine
 10
2085.382271312728
 20
1386.706868411162
 30
0.0
 11
2087.482271312728
 21
1386.706868411162
 31
0.0
  0
LINE
  5
AA2
330
1F
100
AcDbEntity
  8
AM_VIS
100
AcDbLine
 10
2084.882271312728
 20
1386.256868411162
 30
0.0
 11
2085.382271312728
 21
1386.706868411162
 31
0.0
  0
LINE
  5
AA3
330
1F
100
AcDbEntity
  8
AM_VIS
100
AcDbLine
 10
2084.082271312728
 20
1386.256868411162
 30
0.0
 11
2084.882271312728
 21
1386.256868411162
 31
0.0
  0
LINE
  5
AA4
330
1F
100
AcDbEntity
  8
AM_VIS
100
AcDbLine
 10
2083.882271309304
 20
1389.856868484551
 30
0.0
 11
2083.882271309304
 21
1386.456868411162
 31
0.0
  0
LINE
  5
AA5
330
1F
100
AcDbEntity
  8
AM_VIS
100
AcDbLine
 10
2081.182271309305
 20
1392.556868484551
 30
0.0
 11
2083.882271309304
 21
1389.856868484551
 31
0.0
  0
LINE
  5
AA6
330
1F
100
AcDbEntity
  8
AM_VIS
100
AcDbLine
 10
2081.182271309304
 20
1400.762131164549
 30
0.0
 11
2081.182271309304
 21
1392.556868484551
 31
0.0
  0
LINE
  5
AA7
330
1F
100
AcDbEntity
  8
AM_VIS
100
AcDbLine
 10
2093.682271312494
 20
1405.056868407739
 30
0.0
 11
2085.477008552494
 21
1405.056868407739
 31
0.0
  0
LINE
  5
AA8
330
1F
100
AcDbEntity
  8
AM_VIS
100
AcDbLine
 10
2096.382271312494
 20
1402.356868407739
 30
0.0
 11
2093.682271312494
 21
1405.056868407739
 31
0.0
  0
LINE
  5
AA9
330
1F
100
AcDbEntity
  8
AM_VIS
100
AcDbLine
 10
2099.782271305695
 20
1402.356868407739
 30
0.0
 11
2096.382271312494
 21
1402.356868407739
 31
0.0
  0
LINE
  5
AAA
330
1F
100
AcDbEntity
  8
AM_VIS
100
AcDbLine
 10
2099.982271305696
 20
1401.352755987739
 30
0.0
 11
2099.982271305696
 21
1402.156868407739
 31
0.0
  0
LINE
  5
AAB
330
1F
100
AcDbEntity
  8
AM_VIS
100
AcDbLine
 10
2099.532271305696
 20
1400.852755987739
 30
0.0
 11
2099.982271305696
 21
1401.352755987739
 31
0.0
  0
LINE
  5
AAC
330
1F
100
AcDbEntity
  8
AM_VIS
100
AcDbLine
 10
2099.532271305696
 20
1398.752755987739
 30
0.0
 11
2099.532271305696
 21
1400.852755987739
 31
0.0
  0
LINE
  5
AAD
330
1F
100
AcDbEntity
  8
AM_VIS
100
AcDbLine
 10
2102.132271305695
 20
1397.052755987739
 30
0.0
 11
2101.232271305696
 21
1397.052755987739
 31
0.0
  0
LINE
  5
AAE
330
1F
100
AcDbEntity
  8
AM_VIS
100
AcDbLine
 10
2103.832271305695
 20
1400.852755987739
 30
0.0
 11
2103.832271305695
 21
1398.752755987739
 31
0.0
  0
LINE
  5
AAF
330
1F
100
AcDbEntity
  8
AM_VIS
100
AcDbLine
 10
2103.382271305695
 20
1401.352755987739
 30
0.0
 11
2103.832271305696
 21
1400.852755987739
 31
0.0
  0
LINE
  5
AB0
330
1F
100
AcDbEntity
  8
AM_VIS
100
AcDbLine
 10
2103.382271305695
 20
1402.156868407739
 30
0.0
 11
2103.382271305695
 21
1401.352755987739
 31
0.0
  0
LINE
  5
AB1
330
1F
100
AcDbEntity
  8
AM_VIS
100
AcDbLine
 10
2108.682271312494
 20
1402.356868407739
 30
0.0
 11
2103.582271305695
 21
1402.356868407739
 31
0.0
  0
LINE
  5
AB2
330
1F
100
AcDbEntity
  8
AM_VIS
100
AcDbLine
 10
2110.182271312494
 20
1412.056868407739
 30
0.0
 11
2108.682271312494
 21
1402.356868407739
 31
0.0
  0
LINE
  5
AB3
330
1F
100
AcDbEntity
  8
AM_VIS
100
AcDbLine
 10
2130.682271312494
 20
1402.356868407739
 30
0.0
 11
2129.182271312494
 21
1412.056868407739
 31
0.0
  0
LINE
  5
AB4
330
1F
100
AcDbEntity
  8
AM_VIS
100
AcDbLine
 10
2135.782271309305
 20
1402.356868407739
 30
0.0
 11
2130.682271312494
 21
1402.356868407739
 31
0.0
  0
LINE
  5
AB5
330
1F
100
AcDbEntity
  8
AM_VIS
100
AcDbLine
 10
2135.982271309305
 20
1401.356868407739
 30
0.0
 11
2135.982271309305
 21
1402.156868407739
 31
0.0
  0
LINE
  5
AB6
330
1F
100
AcDbEntity
  8
AM_VIS
100
AcDbLine
 10
2135.532271309305
 20
1400.856868407739
 30
0.0
 11
2135.982271309305
 21
1401.356868407739
 31
0.0
  0
LINE
  5
AB7
330
1F
100
AcDbEntity
  8
AM_VIS
100
AcDbLine
 10
2135.532271309305
 20
1398.756868407739
 30
0.0
 11
2135.532271309305
 21
1400.856868407739
 31
0.0
  0
LINE
  5
AB8
330
1F
100
AcDbEntity
  8
AM_VIS
100
AcDbLine
 10
2138.132271309304
 20
1397.056868407739
 30
0.0
 11
2137.232271309304
 21
1397.056868407739
 31
0.0
  0
LINE
  5
AB9
330
1F
100
AcDbEntity
  8
AM_VIS
100
AcDbLine
 10
2139.832271309305
 20
1400.856868407739
 30
0.0
 11
2139.832271309305
 21
1398.756868407739
 31
0.0
  0
LINE
  5
ABA
330
1F
100
AcDbEntity
  8
AM_VIS
100
AcDbLine
 10
2139.382271309305
 20
1401.356868407739
 30
0.0
 11
2139.832271309305
 21
1400.856868407739
 31
0.0
  0
LINE
  5
ABB
330
1F
100
AcDbEntity
  8
AM_VIS
100
AcDbLine
 10
2139.382271309305
 20
1402.156868407739
 30
0.0
 11
2139.382271309305
 21
1401.356868407739
 31
0.0
  0
LINE
  5
ABC
330
1F
100
AcDbEntity
  8
AM_VIS
100
AcDbLine
 10
2142.982271312494
 20
1402.356868407739
 30
0.0
 11
2139.582271309305
 21
1402.356868407739
 31
0.0
  0
LINE
  5
ABD
330
1F
100
AcDbEntity
  8
AM_VIS
100
AcDbLine
 10
2145.682271312495
 20
1405.056868407739
 30
0.0
 11
2142.982271312494
 21
1402.356868407739
 31
0.0
  0
LINE
  5
ABE
330
1F
100
AcDbEntity
  8
AM_VIS
100
AcDbLine
 10
2153.887534062494
 20
1405.056868407739
 30
0.0
 11
2145.682271312495
 21
1405.056868407739
 31
0.0
  0
LINE
  5
ABF
330
1F
100
AcDbEntity
  8
AM_VIS
100
AcDbLine
 10
2158.182271305696
 20
1392.556868414163
 30
0.0
 11
2158.182271305696
 21
1400.762131164538
 31
0.0
  0
LINE
  5
AC0
330
1F
100
AcDbEntity
  8
AM_VIS
100
AcDbLine
 10
2155.482271300883
 20
1389.85686840935
 30
0.0
 11
2158.182271305696
 21
1392.556868414163
 31
0.0
  0
LINE
  5
AC1
330
1F
100
AcDbEntity
  8
AM_VIS
100
AcDbLine
 10
2155.482271300884
 20
1386.456868414771
 30
0.0
 11
2155.482271300884
 21
1389.856868409349
 31
0.0
  0
LINE
  5
AC2
330
1F
100
AcDbEntity
  8
AM_VIS
100
AcDbLine
 10
2154.478158885881
 20
1386.256868414771
 30
0.0
 11
2155.282271305881
 21
1386.256868414771
 31
0.0
  0
LINE
  5
AC3
330
1F
100
AcDbEntity
  8
AM_VIS
100
AcDbLine
 10
2153.978158885882
 20
1386.706868414771
 30
0.0
 11
2154.478158885881
 21
1386.256868414771
 31
0.0
  0
LINE
  5
AC4
330
1F
100
AcDbEntity
  8
AM_VIS
100
AcDbLine
 10
2151.878158885882
 20
1386.706868414771
 30
0.0
 11
2153.978158885882
 21
1386.706868414771
 31
0.0
  0
LINE
  5
AC5
330
1F
100
AcDbEntity
  8
AM_VIS
100
AcDbLine
 10
2150.178158885881
 20
1384.106868414771
 30
0.0
 11
2150.178158885881
 21
1385.006868414771
 31
0.0
  0
LINE
  5
AC6
330
1F
100
AcDbEntity
  8
AM_VIS
100
AcDbLine
 10
2153.978158885882
 20
1382.406868414771
 30
0.0
 11
2151.878158885882
 21
1382.406868414771
 31
0.0
  0
LINE
  5
AC7
330
1F
100
AcDbEntity
  8
AM_VIS
100
AcDbLine
 10
2154.478158885881
 20
1382.856868414771
 30
0.0
 11
2153.978158885882
 21
1382.406868414771
 31
0.0
  0
LINE
  5
AC8
330
1F
100
AcDbEntity
  8
AM_VIS
100
AcDbLine
 10
2155.282271305881
 20
1382.856868414771
 30
0.0
 11
2154.478158885881
 21
1382.856868414771
 31
0.0
  0
LINE
  5
AC9
330
1F
100
AcDbEntity
  8
AM_VIS
100
AcDbLine
 10
2155.482271300884
 20
1380.356868411162
 30
0.0
 11
2155.482271300884
 21
1382.656868414771
 31
0.0
  0
LINE
  5
ACA
330
1F
100
AcDbEntity
  8
AM_VIS
100
AcDbLine
 10
2155.482271309304
 20
1380.356868411162
 30
0.0
 11
2157.182271309304
 21
1378.656868411162
 31
0.0
  0
LINE
  5
ACB
330
1F
100
AcDbEntity
  8
AM_VIS
100
AcDbLine
 10
2157.182271309304
 20
1378.656868411162
 30
0.0
 11
2157.182271309304
 21
1375.157029674585
 31
0.0
  0
LINE
  5
ACC
330
1F
100
AcDbEntity
  8
AM_VIS
100
AcDbLine
 10
2128.082432572728
 20
1330.062545151162
 30
0.0
 11
2128.082432572728
 21
1329.256868411162
 31
0.0
  0
LINE
  5
ACD
330
1F
100
AcDbEntity
  8
AM_VIS
100
AcDbLine
 10
2120.782271312728
 20
1329.256868411162
 30
0.0
 11
2120.782271312728
 21
1331.356868411162
 31
0.0
  0
LINE
  5
ACE
330
1F
100
AcDbEntity
  8
AM_VIS
100
AcDbLine
 10
2120.982271312728
 20
1331.556868411162
 30
0.0
 11
2129.580536842728
 21
1331.556868411162
 31
0.0
  0
LINE
  5
ACF
330
1F
100
AcDbEntity
  8
AM_VIS
100
AcDbLine
 10
2129.780536842728
 20
1331.356868411162
 30
0.0
 11
2129.780536842728
 21
1330.462545151162
 31
0.0
  0
LINE
  5
AD0
330
1F
100
AcDbEntity
  8
AM_VIS
100
AcDbLine
 10
2129.580536842728
 20
1330.262545151162
 30
0.0
 11
2128.282432572728
 21
1330.262545151162
 31
0.0
  0
LINE
  5
AD1
330
1F
100
AcDbEntity
  8
AM_VIS
100
AcDbLine
 10
2156.176594569305
 20
1374.957029674585
 30
0.0
 11
2156.982271309304
 21
1374.957029674585
 31
0.0
  0
LINE
  5
AD2
330
1F
100
AcDbEntity
  8
AM_VIS
100
AcDbLine
 10
2156.982271309304
 20
1367.656868414585
 30
0.0
 11
2154.882271309304
 21
1367.656868414585
 31
0.0
  0
LINE
  5
AD3
330
1F
100
AcDbEntity
  8
AM_VIS
100
AcDbLine
 10
2154.682271309305
 20
1367.856868414585
 30
0.0
 11
2154.682271309305
 21
1376.455133944585
 31
0.0
  0
LINE
  5
AD4
330
1F
100
AcDbEntity
  8
AM_VIS
100
AcDbLine
 10
2154.882271309304
 20
1376.655133944585
 30
0.0
 11
2155.776594569305
 21
1376.655133944585
 31
0.0
  0
LINE
  5
AD5
330
1F
100
AcDbEntity
  8
AM_VIS
100
AcDbLine
 10
2155.976594569304
 20
1376.455133944585
 30
0.0
 11
2155.976594569304
 21
1375.157029674585
 31
0.0
  0
LINE
  5
AD6
102
{ACAD_REACTORS
330
1030
102
}
330
1F
100
AcDbEntity
  8
AM_VIS
100
AcDbLine
 10
2129.182271312494
 20
1412.056868407739
 30
0.0
 11
2110.182271312494
 21
1412.056868407739
 31
0.0
  0
ARC
  5
AD7
330
1F
100
AcDbEntity
  8
AM_VIS
100
AcDbCircle
 10
2156.982271309304
 20
1365.656868411162
 30
0.0
 40
0.2
100
AcDbArc
 50
270.0
 51
0.0
  0
ARC
  5
AD8
330
1F
100
AcDbEntity
  8
AM_VIS
100
AcDbCircle
 10
2154.876587049304
 20
1365.256868411162
 30
0.0
 40
0.2000000000000001
100
AcDbArc
 50
90.0
 51
180.0
  0
ARC
  5
AD9
330
1F
100
AcDbEntity
  8
AM_VIS
100
AcDbCircle
 10
2154.876587049304
 20
1356.658602881162
 30
0.0
 40
0.2000000000000001
100
AcDbArc
 50
180.0
 51
270.0
  0
ARC
  5
ADA
330
1F
100
AcDbEntity
  8
AM_VIS
100
AcDbCircle
 10
2155.776594569305
 20
1356.658602881162
 30
0.0
 40
0.2000000000000001
100
AcDbArc
 50
270.0
 51
0.0
  0
ARC
  5
ADB
330
1F
100
AcDbEntity
  8
AM_VIS
100
AcDbCircle
 10
2156.176594569305
 20
1357.956707151162
 30
0.0
 40
0.2
100
AcDbArc
 50
90.0
 51
180.0
  0
ARC
  5
ADC
330
1F
100
AcDbEntity
  8
AM_VIS
100
AcDbCircle
 10
2156.982271309304
 20
1357.956707151162
 30
0.0
 40
0.2
100
AcDbArc
 50
0.0
 51
90.0
  0
ARC
  5
ADD
330
1F
100
AcDbEntity
  8
AM_VIS
100
AcDbCircle
 10
2155.282271305881
 20
1350.456868411162
 30
0.0
 40
0.2000000000000028
100
AcDbArc
 50
270.0
 51
0.0
  0
ARC
  5
ADE
330
1F
100
AcDbEntity
  8
AM_VIS
100
AcDbCircle
 10
2151.882271305881
 20
1349.006868411162
 30
0.0
 40
1.7
100
AcDbArc
 50
90.0
 51
180.0
  0
ARC
  5
ADF
330
1F
100
AcDbEntity
  8
AM_VIS
100
AcDbCircle
 10
2151.882271305881
 20
1348.106868411162
 30
0.0
 40
1.7
100
AcDbArc
 50
180.0
 51
270.0
  0
ARC
  5
AE0
330
1F
100
AcDbEntity
  8
AM_VIS
100
AcDbCircle
 10
2155.282271305881
 20
1346.656868411162
 30
0.0
 40
0.2
100
AcDbArc
 50
0.0
 51
90.0
  0
ARC
  5
AE1
102
{ACAD_REACTORS
330
100A
330
1030
102
}
330
1F
100
AcDbEntity
  8
AM_VIS
100
AcDbCircle
 10
2119.682271307494
 20
1366.556868409539
 30
0.0
 40
51.49999999999999
100
AcDbArc
 50
311.6194371619079
 51
318.3805628377871
  0
ARC
  5
AE2
330
1F
100
AcDbEntity
  8
AM_VIS
100
AcDbCircle
 10
2139.582271312914
 20
1330.956868414585
 30
0.0
 40
0.2
100
AcDbArc
 50
180.0
 51
270.0
  0
ARC
  5
AE3
330
1F
100
AcDbEntity
  8
AM_VIS
100
AcDbCircle
 10
2138.132271312914
 20
1334.360980834585
 30
0.0
 40
1.7
100
AcDbArc
 50
0.0
 51
90.0
  0
ARC
  5
AE4
330
1F
100
AcDbEntity
  8
AM_VIS
100
AcDbCircle
 10
2137.232271312914
 20
1334.360980834585
 30
0.0
 40
1.7
100
AcDbArc
 50
90.0
 51
180.0
  0
ARC
  5
AE5
330
1F
100
AcDbEntity
  8
AM_VIS
100
AcDbCircle
 10
2135.782271312914
 20
1330.956868414585
 30
0.0
 40
0.2000000000000028
100
AcDbArc
 50
270.0
 51
0.0
  0
ARC
  5
AE6
330
1F
100
AcDbEntity
  8
AM_VIS
100
AcDbCircle
 10
2118.782271309305
 20
1329.256868411162
 30
0.0
 40
0.2
100
AcDbArc
 50
180.0
 51
270.0
  0
ARC
  5
AE7
330
1F
100
AcDbEntity
  8
AM_VIS
100
AcDbCircle
 10
2118.382271309305
 20
1331.362552671162
 30
0.0
 40
0.2000000000000001
100
AcDbArc
 50
0.0
 51
90.0
  0
ARC
  5
AE8
330
1F
100
AcDbEntity
  8
AM_VIS
100
AcDbCircle
 10
2109.784005779305
 20
1331.362552671162
 30
0.0
 40
0.2000000000000001
100
AcDbArc
 50
90.0
 51
180.0
  0
ARC
  5
AE9
330
1F
100
AcDbEntity
  8
AM_VIS
100
AcDbCircle
 10
2109.784005779305
 20
1330.462545151162
 30
0.0
 40
0.2000000000000001
100
AcDbArc
 50
180.0
 51
270.0
  0
ARC
  5
AEA
330
1F
100
AcDbEntity
  8
AM_VIS
100
AcDbCircle
 10
2111.082110049305
 20
1330.062545151162
 30
0.0
 40
0.2
100
AcDbArc
 50
0.0
 51
90.0
  0
ARC
  5
AEB
330
1F
100
AcDbEntity
  8
AM_VIS
100
AcDbCircle
 10
2111.082110049305
 20
1329.256868411162
 30
0.0
 40
0.2
100
AcDbArc
 50
270.0
 51
0.0
  0
ARC
  5
AEC
330
1F
100
AcDbEntity
  8
AM_VIS
100
AcDbCircle
 10
2103.582271309305
 20
1330.956868414585
 30
0.0
 40
0.2000000000000028
100
AcDbArc
 50
180.0
 51
270.0
  0
ARC
  5
AED
330
1F
100
AcDbEntity
  8
AM_VIS
100
AcDbCircle
 10
2102.132271309304
 20
1334.356868414585
 30
0.0
 40
1.7
100
AcDbArc
 50
0.0
 51
90.0
  0
ARC
  5
AEE
330
1F
100
AcDbEntity
  8
AM_VIS
100
AcDbCircle
 10
2101.232271309305
 20
1334.356868414585
 30
0.0
 40
1.7
100
AcDbArc
 50
90.0
 51
180.0
  0
ARC
  5
AEF
330
1F
100
AcDbEntity
  8
AM_VIS
100
AcDbCircle
 10
2099.782271309305
 20
1330.956868414585
 30
0.0
 40
0.2
100
AcDbArc
 50
270.0
 51
0.0
  0
ARC
  5
AF0
102
{ACAD_REACTORS
330
100A
102
}
330
1F
100
AcDbEntity
  8
AM_VIS
100
AcDbCircle
 10
2119.682271307494
 20
1366.556868409539
 30
0.0
 40
51.49999999999999
100
AcDbArc
 50
221.61943716224
 51
228.3805628380922
  0
ARC
  5
AF1
330
1F
100
AcDbEntity
  8
AM_VIS
100
AcDbCircle
 10
2084.082271312728
 20
1346.656868407553
 30
0.0
 40
0.2
100
AcDbArc
 50
90.0
 51
180.0
  0
ARC
  5
AF2
330
1F
100
AcDbEntity
  8
AM_VIS
100
AcDbCircle
 10
2087.486383732727
 20
1348.106868407553
 30
0.0
 40
1.7
100
AcDbArc
 50
270.0
 51
0.0
  0
ARC
  5
AF3
330
1F
100
AcDbEntity
  8
AM_VIS
100
AcDbCircle
 10
2087.486383732727
 20
1349.006868407553
 30
0.0
 40
1.7
100
AcDbArc
 50
0.0
 51
90.0
  0
ARC
  5
AF4
330
1F
100
AcDbEntity
  8
AM_VIS
100
AcDbCircle
 10
2084.082271312728
 20
1350.456868407553
 30
0.0
 40
0.2000000000000028
100
AcDbArc
 50
180.0
 51
270.0
  0
ARC
  5
AF5
330
1F
100
AcDbEntity
  8
AM_VIS
100
AcDbCircle
 10
2082.382271309305
 20
1357.956707147739
 30
0.0
 40
0.2
100
AcDbArc
 50
90.0
 51
180.0
  0
ARC
  5
AF6
330
1F
100
AcDbEntity
  8
AM_VIS
100
AcDbCircle
 10
2083.187948049304
 20
1357.956707147739
 30
0.0
 40
0.2
100
AcDbArc
 50
0.0
 51
90.0
  0
ARC
  5
AF7
330
1F
100
AcDbEntity
  8
AM_VIS
100
AcDbCircle
 10
2083.587948049304
 20
1356.658602877739
 30
0.0
 40
0.2000000000000001
100
AcDbArc
 50
180.0
 51
270.0
  0
ARC
  5
AF8
330
1F
100
AcDbEntity
  8
AM_VIS
100
AcDbCircle
 10
2084.482271309305
 20
1356.658602877739
 30
0.0
 40
0.1999999999999886
100
AcDbArc
 50
270.0
 51
0.0
  0
ARC
  5
AF9
330
1F
100
AcDbEntity
  8
AM_VIS
100
AcDbCircle
 10
2084.482271309305
 20
1365.256868407739
 30
0.0
 40
0.2
100
AcDbArc
 50
0.0
 51
90.0
  0
ARC
  5
AFA
330
1F
100
AcDbEntity
  8
AM_VIS
100
AcDbCircle
 10
2082.382271309305
 20
1365.656868407739
 30
0.0
 40
0.2
100
AcDbArc
 50
180.0
 51
270.0
  0
ARC
  5
AFB
330
1F
100
AcDbEntity
  8
AM_VIS
100
AcDbCircle
 10
2082.382271309305
 20
1367.456868411162
 30
0.0
 40
0.2
100
AcDbArc
 50
90.0
 51
180.0
  0
ARC
  5
AFC
330
1F
100
AcDbEntity
  8
AM_VIS
100
AcDbCircle
 10
2084.487955569305
 20
1367.856868411162
 30
0.0
 40
0.2000000000000001
100
AcDbArc
 50
270.0
 51
0.0
  0
ARC
  5
AFD
330
1F
100
AcDbEntity
  8
AM_VIS
100
AcDbCircle
 10
2084.487955569305
 20
1376.455133941162
 30
0.0
 40
0.2000000000000001
100
AcDbArc
 50
0.0
 51
90.0
  0
ARC
  5
AFE
330
1F
100
AcDbEntity
  8
AM_VIS
100
AcDbCircle
 10
2083.587948049304
 20
1376.455133941162
 30
0.0
 40
0.2000000000000001
100
AcDbArc
 50
90.0
 51
180.0
  0
ARC
  5
AFF
330
1F
100
AcDbEntity
  8
AM_VIS
100
AcDbCircle
 10
2083.187948049304
 20
1375.157029671162
 30
0.0
 40
0.2
100
AcDbArc
 50
270.0
 51
0.0
  0
ARC
  5
B00
330
1F
100
AcDbEntity
  8
AM_VIS
100
AcDbCircle
 10
2082.382271309305
 20
1375.157029671162
 30
0.0
 40
0.2
100
AcDbArc
 50
180.0
 51
270.0
  0
ARC
  5
B01
330
1F
100
AcDbEntity
  8
AM_VIS
100
AcDbCircle
 10
2084.082271312728
 20
1382.656868411162
 30
0.0
 40
0.2000000000000028
100
AcDbArc
 50
90.0
 51
180.0
  0
ARC
  5
B02
330
1F
100
AcDbEntity
  8
AM_VIS
100
AcDbCircle
 10
2087.482271312728
 20
1384.106868411162
 30
0.0
 40
1.7
100
AcDbArc
 50
270.0
 51
0.0
  0
ARC
  5
B03
330
1F
100
AcDbEntity
  8
AM_VIS
100
AcDbCircle
 10
2087.482271312728
 20
1385.006868411162
 30
0.0
 40
1.7
100
AcDbArc
 50
0.0
 51
90.0
  0
ARC
  5
B04
330
1F
100
AcDbEntity
  8
AM_VIS
100
AcDbCircle
 10
2084.082271312728
 20
1386.456868411162
 30
0.0
 40
0.2
100
AcDbArc
 50
180.0
 51
270.0
  0
ARC
  5
B05
330
1F
100
AcDbEntity
  8
AM_VIS
100
AcDbCircle
 10
2119.682271307494
 20
1366.556868409539
 30
0.0
 40
51.49999999999999
100
AcDbArc
 50
131.6194371622129
 51
138.38056283776
  0
ARC
  5
B06
330
1F
100
AcDbEntity
  8
AM_VIS
100
AcDbCircle
 10
2099.782271305695
 20
1402.156868407739
 30
0.0
 40
0.2
100
AcDbArc
 50
0.0
 51
90.0
  0
ARC
  5
B07
330
1F
100
AcDbEntity
  8
AM_VIS
100
AcDbCircle
 10
2101.232271305696
 20
1398.752755987739
 30
0.0
 40
1.7
100
AcDbArc
 50
180.0
 51
270.0
  0
ARC
  5
B08
330
1F
100
AcDbEntity
  8
AM_VIS
100
AcDbCircle
 10
2102.132271305695
 20
1398.752755987739
 30
0.0
 40
1.7
100
AcDbArc
 50
270.0
 51
0.0
  0
ARC
  5
B09
330
1F
100
AcDbEntity
  8
AM_VIS
100
AcDbCircle
 10
2103.582271305695
 20
1402.156868407739
 30
0.0
 40
0.2000000000000028
100
AcDbArc
 50
90.0
 51
180.0
  0
ARC
  5
B0A
330
1F
100
AcDbEntity
  8
AM_VIS
100
AcDbCircle
 10
2135.782271309305
 20
1402.156868407739
 30
0.0
 40
0.2000000000000028
100
AcDbArc
 50
0.0
 51
90.0
  0
ARC
  5
B0B
330
1F
100
AcDbEntity
  8
AM_VIS
100
AcDbCircle
 10
2137.232271309304
 20
1398.756868407739
 30
0.0
 40
1.7
100
AcDbArc
 50
180.0
 51
270.0
  0
ARC
  5
B0C
330
1F
100
AcDbEntity
  8
AM_VIS
100
AcDbCircle
 10
2138.132271309304
 20
1398.756868407739
 30
0.0
 40
1.7
100
AcDbArc
 50
270.0
 51
0.0
  0
ARC
  5
B0D
330
1F
100
AcDbEntity
  8
AM_VIS
100
AcDbCircle
 10
2139.582271309305
 20
1402.156868407739
 30
0.0
 40
0.2
100
AcDbArc
 50
90.0
 51
180.0
  0
ARC
  5
B0E
330
1F
100
AcDbEntity
  8
AM_VIS
100
AcDbCircle
 10
2119.682271307494
 20
1366.556868409539
 30
0.0
 40
51.49999999999999
100
AcDbArc
 50
41.61943716220317
 51
48.38056283778708
  0
ARC
  5
B0F
330
1F
100
AcDbEntity
  8
AM_VIS
100
AcDbCircle
 10
2155.282271305881
 20
1386.456868414771
 30
0.0
 40
0.2
100
AcDbArc
 50
270.0
 51
0.0
  0
ARC
  5
B10
330
1F
100
AcDbEntity
  8
AM_VIS
100
AcDbCircle
 10
2151.878158885882
 20
1385.006868414771
 30
0.0
 40
1.7
100
AcDbArc
 50
90.0
 51
180.0
  0
ARC
  5
B11
330
1F
100
AcDbEntity
  8
AM_VIS
100
AcDbCircle
 10
2151.878158885882
 20
1384.106868414771
 30
0.0
 40
1.7
100
AcDbArc
 50
180.0
 51
270.0
  0
ARC
  5
B12
330
1F
100
AcDbEntity
  8
AM_VIS
100
AcDbCircle
 10
2155.282271305881
 20
1382.656868414771
 30
0.0
 40
0.2000000000000028
100
AcDbArc
 50
0.0
 51
90.0
  0
ARC
  5
B13
330
1F
100
AcDbEntity
  8
AM_VIS
100
AcDbCircle
 10
2128.282432572728
 20
1329.256868411162
 30
0.0
 40
0.2
100
AcDbArc
 50
180.0
 51
270.0
  0
ARC
  5
B14
330
1F
100
AcDbEntity
  8
AM_VIS
100
AcDbCircle
 10
2120.582271312728
 20
1329.256868411162
 30
0.0
 40
0.2
100
AcDbArc
 50
270.0
 51
0.0
  0
ARC
  5
B15
330
1F
100
AcDbEntity
  8
AM_VIS
100
AcDbCircle
 10
2120.982271312728
 20
1331.356868411162
 30
0.0
 40
0.2
100
AcDbArc
 50
90.0
 51
180.0
  0
ARC
  5
B16
330
1F
100
AcDbEntity
  8
AM_VIS
100
AcDbCircle
 10
2129.580536842728
 20
1331.356868411162
 30
0.0
 40
0.1999999999999886
100
AcDbArc
 50
0.0
 51
90.0
  0
ARC
  5
B17
330
1F
100
AcDbEntity
  8
AM_VIS
100
AcDbCircle
 10
2129.580536842728
 20
1330.462545151162
 30
0.0
 40
0.2000000000000001
100
AcDbArc
 50
270.0
 51
0.0
  0
ARC
  5
B18
330
1F
100
AcDbEntity
  8
AM_VIS
100
AcDbCircle
 10
2128.282432572728
 20
1330.062545151162
 30
0.0
 40
0.2
100
AcDbArc
 50
90.0
 51
180.0
  0
ARC
  5
B19
330
1F
100
AcDbEntity
  8
AM_VIS
100
AcDbCircle
 10
2156.982271309304
 20
1375.157029674585
 30
0.0
 40
0.2
100
AcDbArc
 50
270.0
 51
0.0
  0
ARC
  5
B1A
330
1F
100
AcDbEntity
  8
AM_VIS
100
AcDbCircle
 10
2156.982271309304
 20
1367.456868414585
 30
0.0
 40
0.2
100
AcDbArc
 50
0.0
 51
90.0
  0
ARC
  5
B1B
330
1F
100
AcDbEntity
  8
AM_VIS
100
AcDbCircle
 10
2154.882271309304
 20
1367.856868414585
 30
0.0
 40
0.2
100
AcDbArc
 50
180.0
 51
270.0
  0
ARC
  5
B1C
330
1F
100
AcDbEntity
  8
AM_VIS
100
AcDbCircle
 10
2154.882271309304
 20
1376.455133944585
 30
0.0
 40
0.1999999999999886
100
AcDbArc
 50
90.0
 51
180.0
  0
ARC
  5
B1D
330
1F
100
AcDbEntity
  8
AM_VIS
100
AcDbCircle
 10
2155.776594569305
 20
1376.455133944585
 30
0.0
 40
0.2000000000000001
100
AcDbArc
 50
0.0
 51
90.0
  0
ARC
  5
B1E
330
1F
100
AcDbEntity
  8
AM_VIS
100
AcDbCircle
 10
2156.176594569305
 20
1375.157029674585
 30
0.0
 40
0.2
100
AcDbArc
 50
180.0
 51
270.0
  0
CIRCLE
  5
B20
330
1F
100
AcDbEntity
  8
AM_VIS
100
AcDbCircle
 10
2089.682271309305
 20
1396.556868407739
 30
0.0
 40
7.0
  0
CIRCLE
  5
B2C
330
1F
100
AcDbEntity
  8
AM_VIS
100
AcDbCircle
 10
2119.682271309305
 20
1366.556868411162
 30
0.0
 40
29.6
  0
LINE
  5
B2D
330
1F
100
AcDbEntity
  8
AM_VIS
100
AcDbLine
 10
2079.682271309304
 20
1324.556868411162
 30
0.0
 11
2079.682271309304
 21
1408.556868411162
 31
0.0
  0
LINE
  5
B2E
330
1F
100
AcDbEntity
  8
AM_VIS
100
AcDbLine
 10
2079.682271309304
 20
1408.556868411162
 30
0.0
 11
2084.682271309304
 21
1413.556868411162
 31
0.0
  0
LINE
  5
B2F
330
1F
100
AcDbEntity
  8
AM_VIS
100
AcDbLine
 10
2084.682271309304
 20
1413.556868411162
 30
0.0
 11
2154.682271309305
 21
1413.556868411162
 31
0.0
  0
LINE
  5
B30
330
1F
100
AcDbEntity
  8
AM_VIS
100
AcDbLine
 10
2154.682271309305
 20
1413.556868411162
 30
0.0
 11
2159.682271309304
 21
1408.556868411162
 31
0.0
  0
LINE
  5
B31
330
1F
100
AcDbEntity
  8
AM_VIS
100
AcDbLine
 10
2159.682271309304
 20
1408.556868411162
 30
0.0
 11
2159.682271309305
 21
1324.556868411162
 31
0.0
  0
LINE
  5
B32
330
1F
100
AcDbEntity
  8
AM_VIS
100
AcDbLine
 10
2159.682271309304
 20
1324.556868411162
 30
0.0
 11
2154.682271309305
 21
1319.556868411162
 31
0.0
  0
LINE
  5
B33
330
1F
100
AcDbEntity
  8
AM_VIS
100
AcDbLine
 10
2154.682271309305
 20
1319.556868411162
 30
0.0
 11
2084.682271309304
 21
1319.556868411162
 31
0.0
  0
LINE
  5
B34
330
1F
100
AcDbEntity
  8
AM_VIS
100
AcDbLine
 10
2084.682271309304
 20
1319.556868411162
 30
0.0
 11
2079.682271309304
 21
1324.556868411162
 31
0.0
  0
LINE
  5
B36
330
1F
100
AcDbEntity
  8
AM_VIS
100
AcDbLine
 10
2284.189907679254
 20
1439.041901188795
 30
0.0
 11
2284.189907679254
 21
1485.041901188795
 31
0.0
  0
LINE
  5
B37
330
1F
100
AcDbEntity
  8
AM_VIS
100
AcDbLine
 10
2292.395170439254
 20
1439.041901188795
 30
0.0
 11
2292.395170439254
 21
1485.041901188795
 31
0.0
  0
LINE
  5
B38
330
1F
100
AcDbEntity
  8
AM_VIS
100
AcDbLine
 10
2296.689907682628
 20
1439.041901188795
 30
0.0
 11
2296.689907682628
 21
1485.041901188795
 31
0.0
  0
LINE
  5
B39
330
1F
100
AcDbEntity
  8
AM_VIS
100
AcDbLine
 10
2219.689907686052
 20
1439.041901188795
 30
0.0
 11
2219.689907686052
 21
1485.041901188795
 31
0.0
  0
LINE
  5
B3A
330
1F
100
AcDbEntity
  8
AM_VIS
100
AcDbLine
 10
2232.189907679628
 20
1439.041901188795
 30
0.0
 11
2232.189907679628
 21
1485.041901188795
 31
0.0
  0
LINE
  5
B3B
330
1F
100
AcDbEntity
  8
AM_VIS
100
AcDbLine
 10
2223.984644929253
 20
1439.041901188795
 30
0.0
 11
2223.984644929253
 21
1485.041901188795
 31
0.0
  0
LINE
  5
B3C
330
1F
100
AcDbEntity
  8
AM_VIS
100
AcDbLine
 10
2234.889907684442
 20
1439.041901188795
 30
0.0
 11
2234.889907684442
 21
1485.041901188795
 31
0.0
  0
LINE
  5
B3D
330
1F
100
AcDbEntity
  8
AM_VIS
100
AcDbLine
 10
2271.98990769105
 20
1485.041901188795
 30
0.0
 11
2271.98990769105
 21
1439.041901188795
 31
0.0
  0
LINE
  5
B3E
330
1F
100
AcDbEntity
  8
AM_VIS
100
AcDbLine
 10
2244.389907674206
 20
1439.041901188795
 30
0.0
 11
2244.389907674206
 21
1485.041901188795
 31
0.0
  0
LINE
  5
B3F
330
1F
100
AcDbEntity
  8
AM_VIS
100
AcDbLine
 10
2238.48990767902
 20
1439.041901188795
 30
0.0
 11
2238.48990767902
 21
1485.041901188795
 31
0.0
  0
LINE
  5
B40
330
1F
100
AcDbEntity
  8
AM_VIS
100
AcDbLine
 10
2241.889907679019
 20
1439.041901188795
 30
0.0
 11
2241.889907679019
 21
1485.041901188795
 31
0.0
  0
LINE
  5
B41
330
1F
100
AcDbEntity
  8
AM_VIS
100
AcDbLine
 10
2281.489907674441
 20
1439.041901188795
 30
0.0
 11
2281.489907674441
 21
1485.041901188795
 31
0.0
  0
LINE
  5
B42
330
1F
100
AcDbEntity
  8
AM_VIS
100
AcDbLine
 10
2274.489907682629
 20
1439.041901188795
 30
0.0
 11
2274.489907682629
 21
1485.041901188795
 31
0.0
  0
LINE
  5
B43
330
1F
100
AcDbEntity
  8
AM_VIS
100
AcDbLine
 10
2277.889907682629
 20
1439.041901188795
 30
0.0
 11
2277.889907682629
 21
1485.041901188795
 31
0.0
  0
LINE
  5
B44
330
1F
100
AcDbEntity
  8
AM_VIS
100
AcDbLine
 10
2270.289907682629
 20
1439.041901188795
 30
0.0
 11
2270.289907682629
 21
1485.041901188795
 31
0.0
  0
LINE
  5
B45
330
1F
100
AcDbEntity
  8
AM_VIS
100
AcDbLine
 10
2259.289907682629
 20
1439.041901188795
 30
0.0
 11
2259.289907682629
 21
1485.041901188795
 31
0.0
  0
LINE
  5
B46
330
1F
100
AcDbEntity
  8
AM_VIS
100
AcDbLine
 10
2266.590068942628
 20
1439.041901188795
 30
0.0
 11
2266.590068942628
 21
1485.041901188795
 31
0.0
  0
LINE
  5
B47
330
1F
100
AcDbEntity
  8
AM_VIS
100
AcDbLine
 10
2257.289907679206
 20
1439.041901188795
 30
0.0
 11
2259.089907682628
 21
1439.041901188795
 31
0.0
  0
LINE
  5
B48
330
1F
100
AcDbEntity
  8
AM_VIS
100
AcDbLine
 10
2266.590068942628
 20
1439.041901188795
 30
0.0
 11
2259.489907682629
 21
1439.041901188795
 31
0.0
  0
LINE
  5
B49
330
1F
100
AcDbEntity
  8
AM_VIS
100
AcDbLine
 10
2266.790068942629
 20
1439.041901188795
 30
0.0
 11
2270.289907682629
 21
1439.041901188795
 31
0.0
  0
LINE
  5
B4A
330
1F
100
AcDbEntity
  8
AM_VIS
100
AcDbLine
 10
2270.289907682629
 20
1439.041901188795
 30
0.0
 11
2271.989907682629
 21
1439.041901188795
 31
0.0
  0
LINE
  5
B4B
330
1F
100
AcDbEntity
  8
AM_VIS
100
AcDbLine
 10
2274.289907682629
 20
1439.041901188795
 30
0.0
 11
2271.989907682629
 21
1439.041901188795
 31
0.0
  0
LINE
  5
B4C
330
1F
100
AcDbEntity
  8
AM_VIS
100
AcDbLine
 10
2276.639907682629
 20
1439.041901188795
 30
0.0
 11
2275.739907682629
 21
1439.041901188795
 31
0.0
  0
LINE
  5
B4D
330
1F
100
AcDbEntity
  8
AM_VIS
100
AcDbLine
 10
2281.489907674441
 20
1439.041901188795
 30
0.0
 11
2278.089907682629
 21
1439.041901188795
 31
0.0
  0
LINE
  5
B4E
330
1F
100
AcDbEntity
  8
AM_VIS
100
AcDbLine
 10
2284.189907679254
 20
1439.041901188795
 30
0.0
 11
2281.489907674441
 21
1439.041901188795
 31
0.0
  0
LINE
  5
B4F
330
1F
100
AcDbEntity
  8
AM_VIS
100
AcDbLine
 10
2292.395170439254
 20
1439.041901188795
 30
0.0
 11
2284.189907679254
 21
1439.041901188795
 31
0.0
  0
LINE
  5
B50
330
1F
100
AcDbEntity
  8
AM_VIS
100
AcDbLine
 10
2219.689907686052
 20
1439.041901188795
 30
0.0
 11
2212.689907686052
 21
1439.041901188795
 31
0.0
  0
LINE
  5
B51
330
1F
100
AcDbEntity
  8
AM_VIS
100
AcDbLine
 10
2232.189907679628
 20
1439.041901188795
 30
0.0
 11
2223.984644929253
 21
1439.041901188795
 31
0.0
  0
LINE
  5
B52
330
1F
100
AcDbEntity
  8
AM_VIS
100
AcDbLine
 10
2234.88990768444
 20
1439.041901188795
 30
0.0
 11
2232.189907679628
 21
1439.041901188795
 31
0.0
  0
LINE
  5
B53
330
1F
100
AcDbEntity
  8
AM_VIS
100
AcDbLine
 10
2238.289907679019
 20
1439.041901188795
 30
0.0
 11
2234.889907684442
 21
1439.041901188795
 31
0.0
  0
LINE
  5
B54
330
1F
100
AcDbEntity
  8
AM_VIS
100
AcDbLine
 10
2240.639907679019
 20
1439.041901188795
 30
0.0
 11
2239.73990767902
 21
1439.041901188795
 31
0.0
  0
LINE
  5
B55
330
1F
100
AcDbEntity
  8
AM_VIS
100
AcDbLine
 10
2244.389907682629
 20
1439.041901188795
 30
0.0
 11
2242.089907679019
 21
1439.041901188795
 31
0.0
  0
LINE
  5
B56
330
1F
100
AcDbEntity
  8
AM_VIS
100
AcDbLine
 10
2244.389907682629
 20
1439.041901188795
 30
0.0
 11
2246.089907682629
 21
1439.041901188795
 31
0.0
  0
LINE
  5
B57
330
1F
100
AcDbEntity
  8
AM_VIS
100
AcDbLine
 10
2246.089907682629
 20
1439.041901188795
 30
0.0
 11
2249.589746419206
 21
1439.041901188795
 31
0.0
  0
LINE
  5
B58
330
1F
100
AcDbEntity
  8
AM_VIS
100
AcDbLine
 10
2246.089907682629
 20
1439.041901188795
 30
0.0
 11
2246.089907682629
 21
1485.041901188795
 31
0.0
  0
LINE
  5
B59
330
1F
100
AcDbEntity
  8
AM_VIS
100
AcDbLine
 10
2249.789746419206
 20
1439.041901188795
 30
0.0
 11
2249.789746419206
 21
1485.041901188795
 31
0.0
  0
LINE
  5
B5A
330
1F
100
AcDbEntity
  8
AM_VIS
100
AcDbLine
 10
2257.089907679206
 20
1439.041901188795
 30
0.0
 11
2257.089907679206
 21
1485.041901188795
 31
0.0
  0
LINE
  5
B5B
330
1F
100
AcDbEntity
  8
AM_VIS
100
AcDbLine
 10
2256.889907679205
 20
1439.041901188795
 30
0.0
 11
2249.789746419206
 21
1439.041901188795
 31
0.0
  0
LINE
  5
B5C
330
1F
100
AcDbEntity
  8
AM_VIS
100
AcDbLine
 10
2212.689907686052
 20
1439.041901188795
 30
0.0
 11
2212.689907686052
 21
1485.041901188795
 31
0.0
  0
LINE
  5
B5D
330
1F
100
AcDbEntity
  8
AM_VIS
100
AcDbLine
 10
2249.789746419206
 20
1485.041901188795
 30
0.0
 11
2256.889907679205
 21
1485.041901188795
 31
0.0
  0
LINE
  5
B5E
330
1F
100
AcDbEntity
  8
AM_VIS
100
AcDbLine
 10
2249.589746419206
 20
1485.041901188795
 30
0.0
 11
2246.089907682629
 21
1485.041901188795
 31
0.0
  0
LINE
  5
B5F
330
1F
100
AcDbEntity
  8
AM_VIS
100
AcDbLine
 10
2246.089907682629
 20
1485.041901188795
 30
0.0
 11
2244.389907682629
 21
1485.041901188795
 31
0.0
  0
LINE
  5
B60
330
1F
100
AcDbEntity
  8
AM_VIS
100
AcDbLine
 10
2244.389907682629
 20
1485.041901188795
 30
0.0
 11
2242.089907679019
 21
1485.041901188795
 31
0.0
  0
LINE
  5
B61
330
1F
100
AcDbEntity
  8
AM_VIS
100
AcDbLine
 10
2239.73990767902
 20
1485.041901188795
 30
0.0
 11
2240.639907679019
 21
1485.041901188795
 31
0.0
  0
LINE
  5
B62
330
1F
100
AcDbEntity
  8
AM_VIS
100
AcDbLine
 10
2238.289907679019
 20
1485.041901188795
 30
0.0
 11
2234.889907684442
 21
1485.041901188795
 31
0.0
  0
LINE
  5
B63
330
1F
100
AcDbEntity
  8
AM_VIS
100
AcDbLine
 10
2234.88990768444
 20
1485.041901188795
 30
0.0
 11
2232.189907679628
 21
1485.041901188795
 31
0.0
  0
LINE
  5
B64
330
1F
100
AcDbEntity
  8
AM_VIS
100
AcDbLine
 10
2232.189907679628
 20
1485.041901188795
 30
0.0
 11
2223.984644929253
 21
1485.041901188795
 31
0.0
  0
LINE
  5
B65
330
1F
100
AcDbEntity
  8
AM_VIS
100
AcDbLine
 10
2219.689907686052
 20
1485.041901188795
 30
0.0
 11
2212.689907686052
 21
1485.041901188795
 31
0.0
  0
LINE
  5
B66
330
1F
100
AcDbEntity
  8
AM_VIS
100
AcDbLine
 10
2292.395170439254
 20
1485.041901188795
 30
0.0
 11
2284.189907679254
 21
1485.041901188795
 31
0.0
  0
LINE
  5
B67
330
1F
100
AcDbEntity
  8
AM_VIS
100
AcDbLine
 10
2284.189907679254
 20
1485.041901188795
 30
0.0
 11
2281.489907674441
 21
1485.041901188795
 31
0.0
  0
LINE
  5
B68
330
1F
100
AcDbEntity
  8
AM_VIS
100
AcDbLine
 10
2281.489907674441
 20
1485.041901188795
 30
0.0
 11
2278.089907682629
 21
1485.041901188795
 31
0.0
  0
LINE
  5
B69
330
1F
100
AcDbEntity
  8
AM_VIS
100
AcDbLine
 10
2275.739907682629
 20
1485.041901188795
 30
0.0
 11
2276.639907682629
 21
1485.041901188795
 31
0.0
  0
LINE
  5
B6A
330
1F
100
AcDbEntity
  8
AM_VIS
100
AcDbLine
 10
2274.289907682629
 20
1485.041901188795
 30
0.0
 11
2271.989907682629
 21
1485.041901188795
 31
0.0
  0
LINE
  5
B6B
330
1F
100
AcDbEntity
  8
AM_VIS
100
AcDbLine
 10
2271.989907682629
 20
1485.041901188795
 30
0.0
 11
2270.289907682629
 21
1485.041901188795
 31
0.0
  0
LINE
  5
B6C
330
1F
100
AcDbEntity
  8
AM_VIS
100
AcDbLine
 10
2270.289907682629
 20
1485.041901188795
 30
0.0
 11
2266.790068942629
 21
1485.041901188795
 31
0.0
  0
LINE
  5
B6D
330
1F
100
AcDbEntity
  8
AM_VIS
100
AcDbLine
 10
2259.489907682629
 20
1485.041901188795
 30
0.0
 11
2266.590068942628
 21
1485.041901188795
 31
0.0
  0
LINE
  5
B6E
330
1F
100
AcDbEntity
  8
AM_VIS
100
AcDbLine
 10
2259.089907682628
 20
1485.041901188795
 30
0.0
 11
2257.289907679206
 21
1485.041901188795
 31
0.0
  0
LINE
  5
B6F
330
1F
100
AcDbEntity
  8
AM_VIS
100
AcDbLine
 10
2259.089907682628
 20
1439.041901188795
 30
0.0
 11
2259.289907682629
 21
1439.041901188795
 31
0.0
  0
LINE
  5
B70
330
1F
100
AcDbEntity
  8
AM_VIS
100
AcDbLine
 10
2259.489907682629
 20
1439.041901188795
 30
0.0
 11
2259.289907682629
 21
1439.041901188795
 31
0.0
  0
LINE
  5
B71
330
1F
100
AcDbEntity
  8
AM_VIS
100
AcDbLine
 10
2266.590068942628
 20
1439.041901188795
 30
0.0
 11
2266.790068942629
 21
1439.041901188795
 31
0.0
  0
LINE
  5
B72
330
1F
100
AcDbEntity
  8
AM_VIS
100
AcDbLine
 10
2274.289907682629
 20
1439.041901188795
 30
0.0
 11
2274.489907682629
 21
1439.041901188795
 31
0.0
  0
LINE
  5
B73
330
1F
100
AcDbEntity
  8
AM_VIS
100
AcDbLine
 10
2275.739907682629
 20
1439.041901188795
 30
0.0
 11
2274.489907682629
 21
1439.041901188795
 31
0.0
  0
LINE
  5
B74
330
1F
100
AcDbEntity
  8
AM_VIS
100
AcDbLine
 10
2277.889907682629
 20
1439.041901188795
 30
0.0
 11
2276.639907682629
 21
1439.041901188795
 31
0.0
  0
LINE
  5
B75
330
1F
100
AcDbEntity
  8
AM_VIS
100
AcDbLine
 10
2277.889907682629
 20
1439.041901188795
 30
0.0
 11
2278.089907682629
 21
1439.041901188795
 31
0.0
  0
LINE
  5
B76
330
1F
100
AcDbEntity
  8
AM_VIS
100
AcDbLine
 10
2292.395170439252
 20
1439.041901188795
 30
0.0
 11
2296.689907682628
 21
1439.041901188795
 31
0.0
  0
LINE
  5
B77
330
1F
100
AcDbEntity
  8
AM_VIS
100
AcDbLine
 10
2219.689907686052
 20
1439.041901188795
 30
0.0
 11
2223.984644929253
 21
1439.041901188795
 31
0.0
  0
LINE
  5
B78
330
1F
100
AcDbEntity
  8
AM_VIS
100
AcDbLine
 10
2238.289907679019
 20
1439.041901188795
 30
0.0
 11
2238.48990767902
 21
1439.041901188795
 31
0.0
  0
LINE
  5
B79
330
1F
100
AcDbEntity
  8
AM_VIS
100
AcDbLine
 10
2239.73990767902
 20
1439.041901188795
 30
0.0
 11
2238.48990767902
 21
1439.041901188795
 31
0.0
  0
LINE
  5
B7A
330
1F
100
AcDbEntity
  8
AM_VIS
100
AcDbLine
 10
2241.889907679019
 20
1439.041901188795
 30
0.0
 11
2240.639907679019
 21
1439.041901188795
 31
0.0
  0
LINE
  5
B7B
330
1F
100
AcDbEntity
  8
AM_VIS
100
AcDbLine
 10
2241.889907679019
 20
1439.041901188795
 30
0.0
 11
2242.089907679019
 21
1439.041901188795
 31
0.0
  0
LINE
  5
B7C
330
1F
100
AcDbEntity
  8
AM_VIS
100
AcDbLine
 10
2249.589746419206
 20
1439.041901188795
 30
0.0
 11
2249.789746419206
 21
1439.041901188795
 31
0.0
  0
LINE
  5
B7D
330
1F
100
AcDbEntity
  8
AM_VIS
100
AcDbLine
 10
2257.089907679206
 20
1439.041901188795
 30
0.0
 11
2257.289907679206
 21
1439.041901188795
 31
0.0
  0
LINE
  5
B7E
330
1F
100
AcDbEntity
  8
AM_VIS
100
AcDbLine
 10
2257.089907679206
 20
1439.041901188795
 30
0.0
 11
2256.889907679205
 21
1439.041901188795
 31
0.0
  0
LINE
  5
B7F
330
1F
100
AcDbEntity
  8
AM_VIS
100
AcDbLine
 10
2256.889907679205
 20
1485.041901188795
 30
0.0
 11
2257.089907679206
 21
1485.041901188795
 31
0.0
  0
LINE
  5
B80
330
1F
100
AcDbEntity
  8
AM_VIS
100
AcDbLine
 10
2249.789746419206
 20
1485.041901188795
 30
0.0
 11
2249.589746419206
 21
1485.041901188795
 31
0.0
  0
LINE
  5
B81
330
1F
100
AcDbEntity
  8
AM_VIS
100
AcDbLine
 10
2242.089907679019
 20
1485.041901188795
 30
0.0
 11
2241.889907679019
 21
1485.041901188795
 31
0.0
  0
LINE
  5
B82
330
1F
100
AcDbEntity
  8
AM_VIS
100
AcDbLine
 10
2240.639907679019
 20
1485.041901188795
 30
0.0
 11
2241.889907679019
 21
1485.041901188795
 31
0.0
  0
LINE
  5
B83
330
1F
100
AcDbEntity
  8
AM_VIS
100
AcDbLine
 10
2238.48990767902
 20
1485.041901188795
 30
0.0
 11
2239.73990767902
 21
1485.041901188795
 31
0.0
  0
LINE
  5
B84
330
1F
100
AcDbEntity
  8
AM_VIS
100
AcDbLine
 10
2238.48990767902
 20
1485.041901188795
 30
0.0
 11
2238.289907679019
 21
1485.041901188795
 31
0.0
  0
LINE
  5
B85
330
1F
100
AcDbEntity
  8
AM_VIS
100
AcDbLine
 10
2219.689907686052
 20
1485.041901188795
 30
0.0
 11
2223.984644929253
 21
1485.041901188795
 31
0.0
  0
LINE
  5
B86
330
1F
100
AcDbEntity
  8
AM_VIS
100
AcDbLine
 10
2292.395170439252
 20
1485.041901188795
 30
0.0
 11
2296.689907682628
 21
1485.041901188795
 31
0.0
  0
LINE
  5
B87
330
1F
100
AcDbEntity
  8
AM_VIS
100
AcDbLine
 10
2278.089907682629
 20
1485.041901188795
 30
0.0
 11
2277.889907682629
 21
1485.041901188795
 31
0.0
  0
LINE
  5
B88
330
1F
100
AcDbEntity
  8
AM_VIS
100
AcDbLine
 10
2276.639907682629
 20
1485.041901188795
 30
0.0
 11
2277.889907682629
 21
1485.041901188795
 31
0.0
  0
LINE
  5
B89
330
1F
100
AcDbEntity
  8
AM_VIS
100
AcDbLine
 10
2274.489907682629
 20
1485.041901188795
 30
0.0
 11
2275.739907682629
 21
1485.041901188795
 31
0.0
  0
LINE
  5
B8A
330
1F
100
AcDbEntity
  8
AM_VIS
100
AcDbLine
 10
2274.489907682629
 20
1485.041901188795
 30
0.0
 11
2274.289907682629
 21
1485.041901188795
 31
0.0
  0
LINE
  5
B8B
330
1F
100
AcDbEntity
  8
AM_VIS
100
AcDbLine
 10
2266.790068942629
 20
1485.041901188795
 30
0.0
 11
2266.590068942628
 21
1485.041901188795
 31
0.0
  0
LINE
  5
B8C
330
1F
100
AcDbEntity
  8
AM_VIS
100
AcDbLine
 10
2259.289907682629
 20
1485.041901188795
 30
0.0
 11
2259.489907682629
 21
1485.041901188795
 31
0.0
  0
LINE
  5
B8D
330
1F
100
AcDbEntity
  8
AM_VIS
100
AcDbLine
 10
2259.289907682629
 20
1485.041901188795
 30
0.0
 11
2259.089907682628
 21
1485.041901188795
 31
0.0
  0
LINE
  5
B8E
330
1F
100
AcDbEntity
  8
AM_VIS
100
AcDbLine
 10
2257.289907679206
 20
1485.041901188795
 30
0.0
 11
2257.089907679206
 21
1485.041901188795
 31
0.0
  0
LINE
  5
B8F
330
1F
100
AcDbEntity
  8
AM_VIS
100
AcDbLine
 10
2249.689907682629
 20
1492.541901188795
 30
0.0
 11
2249.689907682629
 21
1491.309850381226
 31
0.0
  0
LINE
  5
B90
330
1F
100
AcDbEntity
  8
AM_VIS
100
AcDbLine
 10
2266.689907682629
 20
1492.541901188795
 30
0.0
 11
2266.689907682629
 21
1491.309850381226
 31
0.0
  0
LINE
  5
B91
330
1F
100
AcDbEntity
  8
AM_VIS
100
AcDbLine
 10
2248.189907682629
 20
1485.541901188795
 30
0.0
 11
2249.689907682629
 21
1487.041901188795
 31
0.0
  0
LINE
  5
B92
330
1F
100
AcDbEntity
  8
AM_VIS
100
AcDbLine
 10
2249.689907682629
 20
1491.309850381226
 30
0.0
 11
2249.689907682629
 21
1487.041901188795
 31
0.0
  0
LINE
  5
B93
330
1F
100
AcDbEntity
  8
AM_VIS
100
AcDbLine
 10
2266.689907682629
 20
1487.041901188795
 30
0.0
 11
2266.689907682629
 21
1491.309850381226
 31
0.0
  0
LINE
  5
B94
330
1F
100
AcDbEntity
  8
AM_VIS
100
AcDbLine
 10
2266.689907682629
 20
1487.041901188795
 30
0.0
 11
2268.189907682629
 21
1485.541901188795
 31
0.0
  0
LINE
  5
B95
330
1F
100
AcDbEntity
  8
AM_VIS
100
AcDbLine
 10
2268.189907682629
 20
1485.041901188795
 30
0.0
 11
2268.189907682629
 21
1485.541901188795
 31
0.0
  0
LINE
  5
B96
330
1F
100
AcDbEntity
  8
AM_VIS
100
AcDbLine
 10
2248.189907682629
 20
1485.041901188795
 30
0.0
 11
2248.189907682629
 21
1485.541901188795
 31
0.0
  0
LINE
  5
B97
330
1F
100
AcDbEntity
  8
AM_VIS
100
AcDbLine
 10
2249.689907682629
 20
1491.309850381226
 30
0.0
 11
2266.689907682629
 21
1491.309850381226
 31
0.0
  0
LINE
  5
B98
330
1F
100
AcDbEntity
  8
AM_VIS
100
AcDbLine
 10
2293.189907682628
 20
1485.041901188795
 30
0.0
 11
2293.189907682628
 21
1492.541901188795
 31
0.0
  0
LINE
  5
B99
330
1F
100
AcDbEntity
  8
AM_VIS
100
AcDbLine
 10
2283.189907682629
 20
1485.041901188795
 30
0.0
 11
2283.189907682629
 21
1492.541901188795
 31
0.0
  0
LINE
  5
B9A
330
1F
100
AcDbEntity
  8
AM_VIS
100
AcDbLine
 10
2233.189907682628
 20
1485.041901188795
 30
0.0
 11
2233.189907682628
 21
1492.541901188795
 31
0.0
  0
LINE
  5
B9B
330
1F
100
AcDbEntity
  8
AM_VIS
100
AcDbLine
 10
2223.189907682629
 20
1485.041901188795
 30
0.0
 11
2223.189907682629
 21
1492.541901188795
 31
0.0
  0
LINE
  5
B9C
330
1F
100
AcDbEntity
  8
AM_VIS
100
AcDbLine
 10
2211.189907682629
 20
1492.541901188795
 30
0.0
 11
2216.189907682629
 21
1492.541901188795
 31
0.0
  0
LINE
  5
B9D
330
1F
100
AcDbEntity
  8
AM_VIS
100
AcDbLine
 10
2211.189907682629
 20
1504.541901188795
 30
0.0
 11
2211.189907682629
 21
1492.541901188795
 31
0.0
  0
LINE
  5
B9E
330
1F
100
AcDbEntity
  8
AM_VIS
100
AcDbLine
 10
2216.189907682629
 20
1492.541901188795
 30
0.0
 11
2300.189907682629
 21
1492.541901188795
 31
0.0
  0
LINE
  5
B9F
330
1F
100
AcDbEntity
  8
AM_VIS
100
AcDbLine
 10
2216.189907682629
 20
1492.541901188795
 30
0.0
 11
2216.189907682629
 21
1504.541901188795
 31
0.0
  0
LINE
  5
BA0
330
1F
100
AcDbEntity
  8
AM_VIS
100
AcDbLine
 10
2300.189907682629
 20
1492.541901188795
 30
0.0
 11
2305.189907682628
 21
1492.541901188795
 31
0.0
  0
LINE
  5
BA1
330
1F
100
AcDbEntity
  8
AM_VIS
100
AcDbLine
 10
2300.189907682629
 20
1504.541901188795
 30
0.0
 11
2300.189907682629
 21
1492.541901188795
 31
0.0
  0
LINE
  5
BA2
330
1F
100
AcDbEntity
  8
AM_VIS
100
AcDbLine
 10
2305.189907682628
 20
1504.541901188795
 30
0.0
 11
2300.189907682629
 21
1504.541901188795
 31
0.0
  0
LINE
  5
BA3
330
1F
100
AcDbEntity
  8
AM_VIS
100
AcDbLine
 10
2300.189907682629
 20
1504.541901188795
 30
0.0
 11
2216.189907682629
 21
1504.541901188795
 31
0.0
  0
LINE
  5
BA4
330
1F
100
AcDbEntity
  8
AM_VIS
100
AcDbLine
 10
2216.189907682629
 20
1504.541901188795
 30
0.0
 11
2211.189907682629
 21
1504.541901188795
 31
0.0
  0
LINE
  5
BA5
330
1F
100
AcDbEntity
  8
AM_VIS
100
AcDbLine
 10
2305.189907682628
 20
1492.541901188795
 30
0.0
 11
2305.189907682628
 21
1504.541901188795
 31
0.0
  0
ARC
  5
C08
330
1F
100
AcDbEntity
  8
AM_4
100
AcDbCircle
 10
2150.682271309305
 20
1593.132688618177
 30
0.0
 40
4.0
100
AcDbArc
 50
260.0
 51
170.0
  0
CIRCLE
  5
C09
330
1F
100
AcDbEntity
  8
AM_0
100
AcDbCircle
 10
2150.682271309305
 20
1593.132688618177
 30
0.0
 40
3.323417653293459
  0
LINE
  5
C0A
330
1F
100
AcDbEntity
  8
AM_7
  6
AM_ISO08W050x2
100
AcDbLine
 10
2144.682271309304
 20
1593.132688618177
 30
0.0
 11
2156.682271309304
 21
1593.132688618177
 31
0.0
  0
LINE
  5
C0B
102
{ACAD_REACTORS
330
E73
102
}
330
1F
100
AcDbEntity
  8
AM_7
  6
AM_ISO08W050x2
100
AcDbLine
 10
2150.682271309305
 20
1587.132688618177
 30
0.0
 11
2150.682271309305
 21
1599.132688618177
 31
0.0
  0
ARC
  5
C0C
330
1F
100
AcDbEntity
  8
AM_4
100
AcDbCircle
 10
2119.682271309304
 20
1631.132688618176
 30
0.0
 40
4.0
100
AcDbArc
 50
260.0
 51
170.0
  0
CIRCLE
  5
C0D
330
1F
100
AcDbEntity
  8
AM_0
100
AcDbCircle
 10
2119.682271309304
 20
1631.132688618176
 30
0.0
 40
3.323417653293459
  0
LINE
  5
C0E
102
{ACAD_REACTORS
330
ED1
102
}
330
1F
100
AcDbEntity
  8
AM_7
  6
AM_ISO08W050x2
100
AcDbLine
 10
2113.682271309304
 20
1631.132688618176
 30
0.0
 11
2125.682271309305
 21
1631.132688618176
 31
0.0
  0
LINE
  5
C0F
330
1F
100
AcDbEntity
  8
AM_7
  6
AM_ISO08W050x2
100
AcDbLine
 10
2119.682271309304
 20
1625.132688618177
 30
0.0
 11
2119.682271309304
 21
1637.132688618177
 31
0.0
  0
ARC
  5
C10
330
1F
100
AcDbEntity
  8
AM_4
100
AcDbCircle
 10
2088.682271309304
 20
1593.132688618177
 30
0.0
 40
4.0
100
AcDbArc
 50
260.0
 51
170.0
  0
CIRCLE
  5
C11
330
1F
100
AcDbEntity
  8
AM_0
100
AcDbCircle
 10
2088.682271309304
 20
1593.132688618177
 30
0.0
 40
3.323417653293459
  0
LINE
  5
C12
330
1F
100
AcDbEntity
  8
AM_7
  6
AM_ISO08W050x2
100
AcDbLine
 10
2082.682271309304
 20
1593.132688618177
 30
0.0
 11
2094.682271309304
 21
1593.132688618177
 31
0.0
  0
LINE
  5
C13
102
{ACAD_REACTORS
330
E73
102
}
330
1F
100
AcDbEntity
  8
AM_7
  6
AM_ISO08W050x2
100
AcDbLine
 10
2088.682271309304
 20
1587.132688618177
 30
0.0
 11
2088.682271309304
 21
1599.132688618177
 31
0.0
  0
ARC
  5
C14
330
1F
100
AcDbEntity
  8
AM_4
100
AcDbCircle
 10
2119.682271309304
 20
1555.132688618177
 30
0.0
 40
4.0
100
AcDbArc
 50
260.0
 51
170.0
  0
CIRCLE
  5
C15
330
1F
100
AcDbEntity
  8
AM_0
100
AcDbCircle
 10
2119.682271309304
 20
1555.132688618177
 30
0.0
 40
3.323417653293459
  0
LINE
  5
C16
102
{ACAD_REACTORS
330
ED1
102
}
330
1F
100
AcDbEntity
  8
AM_7
  6
AM_ISO08W050x2
100
AcDbLine
 10
2113.682271309304
 20
1555.132688618177
 30
0.0
 11
2125.682271309305
 21
1555.132688618177
 31
0.0
  0
LINE
  5
C17
330
1F
100
AcDbEntity
  8
AM_7
  6
AM_ISO08W050x2
100
AcDbLine
 10
2119.682271309304
 20
1549.132688618177
 30
0.0
 11
2119.682271309304
 21
1561.132688618177
 31
0.0
  0
LINE
  5
C25
330
1F
100
AcDbEntity
  8
AM_7
100
AcDbLine
 10
2119.682271309304
 20
1593.132688618177
 30
0.0
 11
2168.682271309304
 21
1593.132688618177
 31
0.0
1001
GENIUS_GENOREF_13
1005
C29
  0
LINE
  5
C26
330
1F
100
AcDbEntity
  8
AM_7
100
AcDbLine
 10
2119.682271309304
 20
1593.132688618177
 30
0.0
 11
2119.682271309304
 21
1642.132688618177
 31
0.0
1001
GENIUS_GENOREF_13
1005
C29
  0
LINE
  5
C27
330
1F
100
AcDbEntity
  8
AM_7
100
AcDbLine
 10
2119.682271309304
 20
1593.132688618177
 30
0.0
 11
2070.682271309304
 21
1593.132688618177
 31
0.0
1001
GENIUS_GENOREF_13
1005
C29
  0
LINE
  5
C28
330
1F
100
AcDbEntity
  8
AM_7
100
AcDbLine
 10
2119.682271309304
 20
1593.132688618177
 30
0.0
 11
2119.682271309304
 21
1544.132688618177
 31
0.0
1001
GENIUS_GENOREF_13
1005
C29
  0
POINT
  5
C29
330
1F
100
AcDbEntity
  8
0
 60
     1
100
AcDbPoint
 10
0.0
 20
0.0
 30
0.0
1001
GENIUS_GENODEF_13
1002
{
1000
HIER
1070
    10
1002
}
1002
{
1000
MANEDIT
1070
     0
1002
}
1002
{
1000
NOSEL
1070
     0
1002
}
1002
{
1000
BEHIND
1070
     0
1002
}
1002
{
1000
OTHER
1070
     0
1002
}
1002
{
1000
REACTOR
1002
}
1001
GENIUS_GENOENT_13
1002
{
1000
MYREF
1005
C29
1002
}
1002
{
1000
GRP
1005
0
1002
}
1001
GENIUS_GENOBJ-N-CRS_13
1002
{
1000
OWNER
1000
GEN
1002
}
1001
GENIUS_GENOLIS_13
1002
{
1000
ENT
1005
C28
1005
C27
1005
C26
1005
C25
1002
}
  0
LINE
  5
C2A
330
1F
100
AcDbEntity
  8
AM_7
100
AcDbLine
 10
2119.682271309304
 20
1509.557451230009
 30
0.0
 11
2119.682271309304
 21
1435.177359507471
 31
0.0
  0
LINE
  5
C2B
330
1F
100
AcDbEntity
  8
AM_7
100
AcDbLine
 10
2089.682271312728
 20
1483.041901188795
 30
0.0
 11
2089.682271312728
 21
1494.541901188795
 31
0.0
  0
LINE
  5
C2C
330
1F
100
AcDbEntity
  8
AM_7
100
AcDbLine
 10
2149.682271305881
 20
1483.041901188795
 30
0.0
 11
2149.682271305881
 21
1494.541901188795
 31
0.0
  0
LINE
  5
C3B
330
1F
100
AcDbEntity
  8
AM_7
100
AcDbLine
 10
2258.189907682629
 20
1509.557451230009
 30
0.0
 11
2258.189907682629
 21
1435.177359507471
 31
0.0
  0
LINE
  5
C3D
330
1F
100
AcDbEntity
  8
AM_7
100
AcDbLine
 10
2228.189907682629
 20
1483.041901188795
 30
0.0
 11
2228.189907682629
 21
1494.541901188795
 31
0.0
  0
LINE
  5
C3E
330
1F
100
AcDbEntity
  8
AM_7
100
AcDbLine
 10
2288.189907682629
 20
1483.041901188795
 30
0.0
 11
2288.189907682629
 21
1494.541901188795
 31
0.0
  0
LINE
  5
C4D
330
1F
100
AcDbEntity
  8
AM_7
100
AcDbLine
 10
2119.682271309305
 20
1366.556868411162
 30
0.0
 11
2162.357293465257
 21
1366.556868411162
 31
0.0
1001
GENIUS_GENOREF_13
1005
C51
  0
LINE
  5
C4E
330
1F
100
AcDbEntity
  8
AM_7
100
AcDbLine
 10
2119.682271309305
 20
1366.556868411162
 30
0.0
 11
2119.682271309305
 21
1415.556868411162
 31
0.0
1001
GENIUS_GENOREF_13
1005
C51
  0
LINE
  5
C4F
330
1F
100
AcDbEntity
  8
AM_7
100
AcDbLine
 10
2119.682271309305
 20
1366.556868411162
 30
0.0
 11
2077.588281741319
 21
1366.556868411162
 31
0.0
1001
GENIUS_GENOREF_13
1005
C51
  0
LINE
  5
C50
330
1F
100
AcDbEntity
  8
AM_7
100
AcDbLine
 10
2119.682271309305
 20
1366.556868411162
 30
0.0
 11
2119.682271309305
 21
1317.556868411162
 31
0.0
1001
GENIUS_GENOREF_13
1005
C51
  0
POINT
  5
C51
330
1F
100
AcDbEntity
  8
0
 60
     1
100
AcDbPoint
 10
0.0
 20
0.0
 30
0.0
1001
GENIUS_GENOLIS_13
1002
{
1000
ENT
1005
C50
1005
C4F
1005
C4E
1005
C4D
1002
}
1001
GENIUS_GENOENT_13
1002
{
1000
MYREF
1005
C51
1002
}
1002
{
1000
GRP
1005
0
1002
}
1001
GENIUS_GENOBJ-N-CRS_13
1002
{
1000
OWNER
1000
GEN
1002
}
1001
GENIUS_GENODEF_13
1002
{
1000
HIER
1070
    10
1002
}
1002
{
1000
MANEDIT
1070
     0
1002
}
1002
{
1000
NOSEL
1070
     0
1002
}
1002
{
1000
BEHIND
1070
     0
1002
}
1002
{
1000
OTHER
1070
     0
1002
}
1002
{
1000
REACTOR
1002
}
  0
CIRCLE
  5
C88
330
1F
100
AcDbEntity
  8
0
100
AcDbCircle
 10
2089.682271309305
 20
1396.556868407739
 30
0.0
 40
4.5
  0
ARC
  5
CC7
330
1F
100
AcDbEntity
  8
AM_4
100
AcDbCircle
 10
2089.682271309305
 20
1396.556868407739
 30
0.0
 40
5.0
100
AcDbArc
 50
260.0
 51
170.0
  0
LINE
  5
CD8
330
1F
100
AcDbEntity
  8
AM_7
100
AcDbLine
 10
2089.682271309305
 20
1396.556868407739
 30
0.0
 11
2098.682271309304
 21
1396.556868407739
 31
0.0
1001
GENIUS_GENOREF_13
1005
CDC
  0
LINE
  5
CD9
330
1F
100
AcDbEntity
  8
AM_7
100
AcDbLine
 10
2089.682271309305
 20
1396.556868407739
 30
0.0
 11
2089.682271309305
 21
1405.556868407739
 31
0.0
1001
GENIUS_GENOREF_13
1005
CDC
  0
LINE
  5
CDA
330
1F
100
AcDbEntity
  8
AM_7
100
AcDbLine
 10
2089.682271309305
 20
1396.556868407739
 30
0.0
 11
2080.682271309305
 21
1396.556868407739
 31
0.0
1001
GENIUS_GENOREF_13
1005
CDC
  0
LINE
  5
CDB
330
1F
100
AcDbEntity
  8
AM_7
100
AcDbLine
 10
2089.682271309305
 20
1396.556868407739
 30
0.0
 11
2089.682271309305
 21
1387.556868407739
 31
0.0
1001
GENIUS_GENOREF_13
1005
CDC
  0
POINT
  5
CDC
330
1F
100
AcDbEntity
  8
0
 60
     1
100
AcDbPoint
 10
0.0
 20
0.0
 30
0.0
1001
GENIUS_GENOLIS_13
1002
{
1000
ENT
1005
CDB
1005
CDA
1005
CD9
1005
CD8
1002
}
1001
GENIUS_GENOENT_13
1002
{
1000
MYREF
1005
CDC
1002
}
1002
{
1000
GRP
1005
0
1002
}
1001
GENIUS_GENOBJ-N-CRS_13
1002
{
1000
OWNER
1000
GEN
1002
}
1001
GENIUS_GENODEF_13
1002
{
1000
HIER
1070
    10
1002
}
1002
{
1000
MANEDIT
1070
     0
1002
}
1002
{
1000
NOSEL
1070
     0
1002
}
1002
{
1000
BEHIND
1070
     0
1002
}
1002
{
1000
OTHER
1070
     0
1002
}
1002
{
1000
REACTOR
1002
}
  0
CIRCLE
  5
CDE
330
1F
100
AcDbEntity
  8
0
100
AcDbCircle
 10
2149.682271305882
 20
1396.556868411162
 30
0.0
 40
5.5
  0
CIRCLE
  5
CDF
330
1F
100
AcDbEntity
  8
0
100
AcDbCircle
 10
2149.682271305882
 20
1396.556868411162
 30
0.0
 40
6.0
  0
LINE
  5
CED
330
1F
100
AcDbEntity
  8
AM_7
  6
AM_ISO08W050x2
100
AcDbLine
 10
2149.682271305882
 20
1396.556868411162
 30
0.0
 11
2157.682271305882
 21
1396.556868411162
 31
0.0
1001
GENIUS_GENOREF_13
1005
CF1
  0
LINE
  5
CEE
330
1F
100
AcDbEntity
  8
AM_7
  6
AM_ISO08W050x2
100
AcDbLine
 10
2149.682271305882
 20
1396.556868411162
 30
0.0
 11
2149.682271305882
 21
1404.556868411162
 31
0.0
1001
GENIUS_GENOREF_13
1005
CF1
  0
LINE
  5
CEF
330
1F
100
AcDbEntity
  8
AM_7
  6
AM_ISO08W050x2
100
AcDbLine
 10
2149.682271305882
 20
1396.556868411162
 30
0.0
 11
2141.682271305882
 21
1396.556868411162
 31
0.0
1001
GENIUS_GENOREF_13
1005
CF1
  0
LINE
  5
CF0
330
1F
100
AcDbEntity
  8
AM_7
  6
AM_ISO08W050x2
100
AcDbLine
 10
2149.682271305882
 20
1396.556868411162
 30
0.0
 11
2149.682271305882
 21
1388.556868411162
 31
0.0
1001
GENIUS_GENOREF_13
1005
CF1
  0
POINT
  5
CF1
330
1F
100
AcDbEntity
  8
0
 60
     1
100
AcDbPoint
 10
0.0
 20
0.0
 30
0.0
1001
GENIUS_GENOLIS_13
1002
{
1000
ENT
1005
CF0
1005
CEF
1005
CEE
1005
CED
1002
}
1001
GENIUS_GENOENT_13
1002
{
1000
MYREF
1005
CF1
1002
}
1002
{
1000
GRP
1005
0
1002
}
1001
GENIUS_GENOBJ-N-CRS_13
1002
{
1000
OWNER
1000
GEN
1002
}
1001
GENIUS_GENODEF_13
1002
{
1000
HIER
1070
    10
1002
}
1002
{
1000
MANEDIT
1070
     0
1002
}
1002
{
1000
NOSEL
1070
     0
1002
}
1002
{
1000
BEHIND
1070
     0
1002
}
1002
{
1000
OTHER
1070
     0
1002
}
1002
{
1000
REACTOR
1002
}
  0
CIRCLE
  5
CF4
330
1F
100
AcDbEntity
  8
AM_VIS
100
AcDbCircle
 10
2149.682271309305
 20
1336.556868414585
 30
0.0
 40
7.0
  0
CIRCLE
  5
CF5
330
1F
100
AcDbEntity
  8
0
100
AcDbCircle
 10
2149.682271309305
 20
1336.556868414585
 30
0.0
 40
4.5
  0
ARC
  5
CF6
330
1F
100
AcDbEntity
  8
AM_4
100
AcDbCircle
 10
2149.682271309305
 20
1336.556868414585
 30
0.0
 40
5.0
100
AcDbArc
 50
260.0
 51
170.0
  0
LINE
  5
CF7
330
1F
100
AcDbEntity
  8
AM_7
100
AcDbLine
 10
2149.682271309305
 20
1336.556868414585
 30
0.0
 11
2158.682271309305
 21
1336.556868414585
 31
0.0
1001
GENIUS_GENOREF_13
1005
CFB
  0
LINE
  5
CF8
330
1F
100
AcDbEntity
  8
AM_7
100
AcDbLine
 10
2149.682271309305
 20
1336.556868414585
 30
0.0
 11
2149.682271309305
 21
1345.556868414585
 31
0.0
1001
GENIUS_GENOREF_13
1005
CFB
  0
LINE
  5
CF9
330
1F
100
AcDbEntity
  8
AM_7
100
AcDbLine
 10
2149.682271309305
 20
1336.556868414585
 30
0.0
 11
2140.682271309305
 21
1336.556868414585
 31
0.0
1001
GENIUS_GENOREF_13
1005
CFB
  0
LINE
  5
CFA
102
{ACAD_REACTORS
330
FE4
102
}
330
1F
100
AcDbEntity
  8
AM_7
100
AcDbLine
 10
2149.682271309305
 20
1336.556868414585
 30
0.0
 11
2149.682271309305
 21
1327.556868414585
 31
0.0
1001
GENIUS_GENOREF_13
1005
CFB
  0
POINT
  5
CFB
330
1F
100
AcDbEntity
  8
0
 60
     1
100
AcDbPoint
 10
60.00000000000046
 20
-59.99999999315332
 30
0.0
1001
GENIUS_GENOLIS_13
1002
{
1000
ENT
1005
CFA
1005
CF9
1005
CF8
1005
CF7
1002
}
1001
GENIUS_GENOENT_13
1002
{
1000
MYREF
1005
CFB
1002
}
1002
{
1000
GRP
1005
0
1002
}
1001
GENIUS_GENOBJ-N-CRS_13
1002
{
1000
OWNER
1000
GEN
1002
}
1001
GENIUS_GENODEF_13
1002
{
1000
HIER
1070
    10
1002
}
1002
{
1000
MANEDIT
1070
     0
1002
}
1002
{
1000
NOSEL
1070
     0
1002
}
1002
{
1000
BEHIND
1070
     0
1002
}
1002
{
1000
OTHER
1070
     0
1002
}
1002
{
1000
REACTOR
1002
}
  0
CIRCLE
  5
CFC
330
1F
100
AcDbEntity
  8
0
100
AcDbCircle
 10
2089.682271312728
 20
1336.556868411162
 30
0.0
 40
5.5
  0
CIRCLE
  5
CFD
330
1F
100
AcDbEntity
  8
0
100
AcDbCircle
 10
2089.682271312728
 20
1336.556868411162
 30
0.0
 40
6.0
  0
LINE
  5
CFE
330
1F
100
AcDbEntity
  8
AM_7
  6
AM_ISO08W050x2
100
AcDbLine
 10
2089.682271312728
 20
1336.556868411162
 30
0.0
 11
2097.682271312728
 21
1336.556868411162
 31
0.0
1001
GENIUS_GENOREF_13
1005
D02
  0
LINE
  5
CFF
330
1F
100
AcDbEntity
  8
AM_7
  6
AM_ISO08W050x2
100
AcDbLine
 10
2089.682271312728
 20
1336.556868411162
 30
0.0
 11
2089.682271312728
 21
1344.556868411162
 31
0.0
1001
GENIUS_GENOREF_13
1005
D02
  0
LINE
  5
D00
330
1F
100
AcDbEntity
  8
AM_7
  6
AM_ISO08W050x2
100
AcDbLine
 10
2089.682271312728
 20
1336.556868411162
 30
0.0
 11
2081.682271312728
 21
1336.556868411162
 31
0.0
1001
GENIUS_GENOREF_13
1005
D02
  0
LINE
  5
D01
102
{ACAD_REACTORS
330
FE4
102
}
330
1F
100
AcDbEntity
  8
AM_7
  6
AM_ISO08W050x2
100
AcDbLine
 10
2089.682271312728
 20
1336.556868411162
 30
0.0
 11
2089.682271312728
 21
1328.556868411162
 31
0.0
1001
GENIUS_GENOREF_13
1005
D02
  0
POINT
  5
D02
330
1F
100
AcDbEntity
  8
0
 60
     1
100
AcDbPoint
 10
-59.99999999315377
 20
-60.0
 30
0.0
1001
GENIUS_GENOLIS_13
1002
{
1000
ENT
1005
D01
1005
D00
1005
CFF
1005
CFE
1002
}
1001
GENIUS_GENOENT_13
1002
{
1000
MYREF
1005
D02
1002
}
1002
{
1000
GRP
1005
0
1002
}
1001
GENIUS_GENOBJ-N-CRS_13
1002
{
1000
OWNER
1000
GEN
1002
}
1001
GENIUS_GENODEF_13
1002
{
1000
HIER
1070
    10
1002
}
1002
{
1000
MANEDIT
1070
     0
1002
}
1002
{
1000
NOSEL
1070
     0
1002
}
1002
{
1000
BEHIND
1070
     0
1002
}
1002
{
1000
OTHER
1070
     0
1002
}
1002
{
1000
REACTOR
1002
}
  0
DIMENSION
  5
E65
102
{ACAD_XDICTIONARY
360
E72
102
}
102
{ACAD_REACTORS
330
E73
102
}
330
1F
100
AcDbEntity
  8
AM_5
100
AcDbDimension
  2
*D5
 10
2150.682271309305
 20
1534.132688618177
 30
0.0
 11
2119.682271309304
 21
1537.883131531562
 31
0.0
 70
    32
 71
     5
 42
62.0
  3
AM_ISO$0
100
AcDbAlignedDimension
 13
2088.682271309304
 23
1587.132688618177
 33
0.0
 14
2150.682271309305
 24
1587.132688618177
 34
0.0
 50
0.0000000000001018
100
AcDbRotatedDimension
1001
ACAD
1000
DSTYLE
1002
{
1070
    40
1040
1.5
1002
}
  0
DIMENSION
  5
E9D
102
{ACAD_XDICTIONARY
360
EAA
102
}
102
{ACAD_REACTORS
330
EAB
102
}
330
1F
100
AcDbEntity
  8
AM_5
100
AcDbDimension
  2
*D6
 10
2159.682271309304
 20
1524.132688618177
 30
0.0
 11
2119.682271309304
 21
1527.882688618177
 31
0.0
 70
    32
 71
     5
 42
80.0
  3
AM_ISO$0
100
AcDbAlignedDimension
 13
2079.682271309304
 23
1551.132688618177
 33
0.0
 14
2159.682271309304
 24
1551.132688618177
 34
0.0
 50
0.0000000000001018
100
AcDbRotatedDimension
1001
ACAD
1000
DSTYLE
1002
{
1070
    40
1040
1.5
1002
}
  0
DIMENSION
  5
EC3
102
{ACAD_XDICTIONARY
360
ED0
102
}
102
{ACAD_REACTORS
330
ED1
102
}
330
1F
100
AcDbEntity
  8
AM_5
100
AcDbDimension
  2
*D7
 10
2177.894303954248
 20
1631.132688618176
 30
0.0
 11
2174.144303954248
 21
1593.132688618177
 31
0.0
 70
    32
 71
     5
 42
76.0
  3
AM_ISO$0
100
AcDbAlignedDimension
 13
2125.682271309305
 23
1555.132688618177
 33
0.0
 14
2125.682271309305
 24
1631.132688618176
 34
0.0
 50
90.00000000000003
100
AcDbRotatedDimension
1001
ACAD
1000
DSTYLE
1002
{
1070
    40
1040
1.5
1002
}
  0
DIMENSION
  5
EE9
102
{ACAD_XDICTIONARY
360
EF6
102
}
102
{ACAD_REACTORS
330
EF7
102
}
330
1F
100
AcDbEntity
  8
AM_5
100
AcDbDimension
  2
*D8
 10
2187.894303954248
 20
1640.132688618177
 30
0.0
 11
2184.144303954248
 21
1593.132688618177
 31
0.0
 70
    32
 71
     5
 42
94.0
  3
AM_ISO$0
100
AcDbAlignedDimension
 13
2154.682271309305
 23
1546.132688618177
 33
0.0
 14
2154.682271309305
 24
1640.132688618177
 34
0.0
 50
90.00000000000003
100
AcDbRotatedDimension
1001
ACAD
1000
DSTYLE
1002
{
1070
    40
1040
1.5
1002
}
  0
DIMENSION
  5
F0F
102
{ACAD_XDICTIONARY
360
F1C
102
}
102
{ACAD_REACTORS
330
F1D
102
}
330
1F
100
AcDbEntity
  8
AM_5
100
AcDbDimension
  2
*D9
 10
2173.872942706899
 20
1485.041901188795
 30
0.0
 11
2170.122942706899
 21
1462.041901188795
 31
0.0
 70
    32
  1
<>+stroke
 71
     5
 42
46.0
  3
AM_ISO$0
100
AcDbAlignedDimension
 13
2158.182271305696
 23
1439.041901188795
 33
0.0
 14
2158.182271305696
 24
1485.041901188795
 34
0.0
 50
90.00000000000003
100
AcDbRotatedDimension
1001
ACAD
1000
DSTYLE
1002
{
1070
    40
1040
1.5
1002
}
  0
DIMENSION
  5
F35
102
{ACAD_XDICTIONARY
360
F44
102
}
102
{ACAD_REACTORS
330
F45
102
}
330
1F
100
AcDbEntity
  8
AM_5
100
AcDbDimension
  2
*D10
 10
2173.8729427069
 20
1492.541901188795
 30
0.0
 11
2173.872942706899
 21
1488.791901188795
 31
0.0
 70
   160
 71
     5
 42
7.5
  3
AM_ISO$0
100
AcDbAlignedDimension
 13
2158.182271305696
 23
1485.041901188795
 33
0.0
 14
2159.682271309304
 24
1492.541901188795
 34
0.0
 50
90.00000000000003
100
AcDbRotatedDimension
1001
ACAD
1000
DSTYLE
1002
{
1070
    40
1040
1.5
1070
   173
1070
     1
1070
   174
1070
     1
1070
   344
1005
12D4
1002
}
  0
DIMENSION
  5
F5F
102
{ACAD_XDICTIONARY
360
F6C
102
}
102
{ACAD_REACTORS
330
F6D
102
}
330
1F
100
AcDbEntity
  8
AM_5
100
AcDbDimension
  2
*D11
 10
2173.872942706899
 20
1504.541901188795
 30
0.0
 11
2170.122499793513
 21
1498.541901188795
 31
0.0
 70
    32
 71
     5
 42
12.0
  3
AM_ISO$0
100
AcDbAlignedDimension
 13
2159.682271309304
 23
1492.541901188795
 33
0.0
 14
2159.682271309304
 24
1504.541901188795
 34
0.0
 50
90.0
100
AcDbRotatedDimension
1001
ACAD
1000
DSTYLE
1002
{
1070
    40
1040
1.5
1070
   173
1070
     1
1070
   174
1070
     1
1070
   343
1005
12D4
1002
}
  0
DIMENSION
  5
F85
102
{ACAD_XDICTIONARY
360
F92
102
}
102
{ACAD_REACTORS
330
F93
102
}
330
1F
100
AcDbEntity
  8
AM_5
100
AcDbDimension
  2
*D12
 10
2183.8729427069
 20
1504.541901188795
 30
0.0
 11
2180.122942706899
 21
1471.791901188795
 31
0.0
 70
    32
  1
<>+stroke
 71
     5
 42
65.5
  3
AM_ISO$0
100
AcDbAlignedDimension
 13
2158.182271305696
 23
1439.041901188795
 33
0.0
 14
2159.682271309304
 24
1504.541901188795
 34
0.0
 50
90.00000000000003
100
AcDbRotatedDimension
1001
ACAD
1000
DSTYLE
1002
{
1070
    40
1040
1.5
1002
}
  0
DIMENSION
  5
FD6
102
{ACAD_XDICTIONARY
360
FE3
102
}
102
{ACAD_REACTORS
330
FE4
102
}
330
1F
100
AcDbEntity
  8
AM_5
100
AcDbDimension
  2
*D13
 10
2149.682271309305
 20
1307.556868411162
 30
0.0
 11
2119.682271311016
 21
1311.306868411162
 31
0.0
 70
    32
  1
{\Famgdt;o}<>
 71
     5
 42
59.99999999657712
  3
AM_ISO$0
100
AcDbAlignedDimension
 13
2089.682271312728
 23
1328.556868411162
 33
0.0
 14
2149.682271309305
 24
1327.556868414585
 34
0.0
 50
0.0000000000001018
100
AcDbRotatedDimension
1001
ACAD
1000
DSTYLE
1002
{
1070
    40
1040
1.5
1002
}
  0
DIMENSION
  5
FFC
102
{ACAD_XDICTIONARY
360
1009
102
}
102
{ACAD_REACTORS
330
100A
102
}
330
1F
100
AcDbEntity
  8
AM_5
100
AcDbDimension
  2
*D14
 10
2158.182271305696
 20
1297.556868411162
 30
0.0
 11
2119.682271307504
 21
1301.306868411162
 31
0.0
 70
    32
 71
     5
 42
76.99999999638385
  3
AM_ISO$0
100
AcDbAlignedDimension
 13
2081.182271309311
 23
1332.351605654519
 33
0.0
 14
2158.182271305696
 24
1332.35160565454
 34
0.0
 50
0.0000000000001018
100
AcDbRotatedDimension
1001
ACAD
1000
DSTYLE
1002
{
1070
    40
1040
1.5
1002
}
  0
DIMENSION
  5
1022
102
{ACAD_XDICTIONARY
360
102F
102
}
102
{ACAD_REACTORS
330
1030
102
}
330
1F
100
AcDbEntity
  8
AM_5
100
AcDbDimension
  2
*D15
 10
2171.682271309304
 20
1412.056868407739
 30
0.0
 11
2167.932271309304
 21
1370.056868409448
 31
0.0
 70
    32
 71
     5
 42
83.99999999658144
  3
AM_ISO$0
100
AcDbAlignedDimension
 13
2153.88753406229
 23
1328.056868411157
 33
0.0
 14
2129.182271312494
 24
1412.056868407739
 34
0.0
 50
90.00000000000003
100
AcDbRotatedDimension
1001
ACAD
1000
DSTYLE
1002
{
1070
    40
1040
1.5
1002
}
  0
INSERT
  5
1266
330
1F
100
AcDbEntity
  8
AM_5
100
AcDbBlockReference
  2
*S18
 10
0.0
 20
0.0
 30
0.0
  0
INSERT
  5
14F5
330
1F
100
AcDbEntity
  8
AM_5
100
AcDbBlockReference
  2
*S19
 10
0.0
 20
0.0
 30
0.0
  0
LINE
  5
1504
330
1F
100
AcDbEntity
  8
AM_7
100
AcDbLine
 10
2119.682271312494
 20
1449.541901188795
 30
0.0
 11
2128.257271312494
 21
1449.541901188795
 31
0.0
1001
GENIUS_GENOREF_13
1005
1508
  0
LINE
  5
1505
330
1F
100
AcDbEntity
  8
AM_7
100
AcDbLine
 10
2119.682271312494
 20
1449.541901188795
 30
0.0
 11
2119.682271312494
 21
1458.116901188795
 31
0.0
1001
GENIUS_GENOREF_13
1005
1508
  0
LINE
  5
1506
330
1F
100
AcDbEntity
  8
AM_7
100
AcDbLine
 10
2119.682271312494
 20
1449.541901188795
 30
0.0
 11
2111.107271312494
 21
1449.541901188795
 31
0.0
1001
GENIUS_GENOREF_13
1005
1508
  0
LINE
  5
1507
330
1F
100
AcDbEntity
  8
AM_7
100
AcDbLine
 10
2119.682271312494
 20
1449.541901188795
 30
0.0
 11
2119.682271312494
 21
1440.966901188795
 31
0.0
1001
GENIUS_GENOREF_13
1005
1508
  0
POINT
  5
1508
330
1F
100
AcDbEntity
  8
0
 60
     1
100
AcDbPoint
 10
0.0
 20
0.0
 30
0.0
1001
GENIUS_GENOENT_13
1002
{
1000
MYREF
1005
1508
1002
}
1002
{
1000
GRP
1005
0
1002
}
1001
GENIUS_GENOLIS_13
1002
{
1000
ENT
1005
1507
1005
1506
1005
1505
1005
1504
1002
}
1001
GENIUS_GENODEF_13
1002
{
1000
HIER
1070
    10
1002
}
1002
{
1000
MANEDIT
1070
     0
1002
}
1002
{
1000
NOSEL
1070
     0
1002
}
1002
{
1000
BEHIND
1070
     0
1002
}
1002
{
1000
OTHER
1070
     0
1002
}
1002
{
1000
REACTOR
1002
}
1001
GENIUS_GENOBJ-N-CRS_13
1002
{
1000
OWNER
1000
GEN
1002
}
  0
INSERT
  5
1509
330
1F
100
AcDbEntity
  8
AM_5
100
AcDbBlockReference
  2
*S20
 10
0.0
 20
0.0
 30
0.0
  0
LINE
  5
15A2
330
1F
100
AcDbEntity
  8
LOGO
 62
     4
100
AcDbLine
 10
2342.477393078167
 20
1276.686738304537
 30
0.0
 11
2006.477393078167
 21
1276.686738304537
 31
0.0
  0
LWPOLYLINE
  5
15A3
330
1F
100
AcDbEntity
  8
LOGO
 62
     4
100
AcDbPolyline
 90
        4
 70
     1
 43
0.0
 10
2006.477393078167
 20
1276.686738304537
 10
2342.477393078167
 20
1276.686738304537
 10
2342.477393078167
 20
1675.091603462907
 10
2006.477393078167
 20
1675.091603462907
1001
GENIUS_GENREC_14
1002
{
1000
PYDIR
1011
2006.477393078167
1021
1675.091603462907
1031
0.0
1002
}
1002
{
1000
PXDIR
1011
2342.477393078167
1021
1276.686738304537
1031
0.0
1002
}
1002
{
1000
PORI
1011
2006.477393078167
1021
1276.686738304537
1031
0.0
1002
}
1002
{
1000
PINS
1011
2006.477393078167
1021
1276.686738304537
1031
0.0
1002
}
1002
{
1000
PINS2
1011
2342.477393078167
1021
1675.091603462907
1031
0.0
1002
}
1002
{
1000
C
1070
     1
1002
}
1001
GENIUS_GENODEF_13
1002
{
1000
HIER
1070
     0
1002
}
1002
{
1000
MANEDIT
1070
     0
1002
}
1002
{
1000
NOSEL
1070
     0
1002
}
1002
{
1000
BEHIND
1070
     0
1002
}
1002
{
1000
OTHER
1070
     0
1002
}
1002
{
1000
REACTOR
1002
}
1001
GENIUS_GENOBJ-N-REC_13
1002
{
1000
OWNER
1000
GEN
1002
}
  0
LWPOLYLINE
  5
15A4
330
1F
100
AcDbEntity
  8
LOGO
 62
     4
100
AcDbPolyline
 90
        4
 70
     1
 43
0.0
 10
2006.477393078167
 20
1276.686738304537
 10
2342.477393078167
 20
1276.686738304537
 10
2342.477393078167
 20
1243.091603462907
 10
2006.477393078167
 20
1243.091603462907
1001
GENIUS_GENREC_14
1002
{
1000
PYDIR
1011
2006.477393078167
1021
1243.091603462907
1031
0.0
1002
}
1002
{
1000
PXDIR
1011
2342.477393078167
1021
1276.686738304537
1031
0.0
1002
}
1002
{
1000
PORI
1011
2006.477393078167
1021
1276.686738304537
1031
0.0
1002
}
1002
{
1000
PINS
1011
2006.477393078167
1021
1276.686738304537
1031
0.0
1002
}
1002
{
1000
PINS2
1011
2342.477393078167
1021
1243.091603462907
1031
0.0
1002
}
1002
{
1000
C
1070
     1
1002
}
1001
GENIUS_GENOBJ-N-REC_13
1002
{
1000
OWNER
1000
GEN
1002
}
1001
GENIUS_GENODEF_13
1002
{
1000
HIER
1070
     0
1002
}
1002
{
1000
MANEDIT
1070
     0
1002
}
1002
{
1000
NOSEL
1070
     0
1002
}
1002
{
1000
BEHIND
1070
     0
1002
}
1002
{
1000
OTHER
1070
     0
1002
}
1002
{
1000
REACTOR
1002
}
  0
TEXT
  5
15A5
330
1F
100
AcDbEntity
  8
LOGO
 62
     7
100
AcDbText
 10
2082.332983067995
 20
1261.969281400487
 30
0.0
 40
4.479351312217193
  1
Order example:
 41
0.8
  7
CHINESET
100
AcDbText
  0
TEXT
  5
15A6
330
1F
100
AcDbEntity
  8
LOGO
 62
     7
100
AcDbText
 10
2083.136615736135
 20
1268.275280586566
 30
0.0
 40
6.71902696832579
  1
訂購代號：
  7
CHINESET
100
AcDbText
  0
LINE
  5
15A7
330
1F
100
AcDbEntity
  8
LOGO
 62
     4
100
AcDbLine
 10
2080.386689729751
 20
1243.091603462907
 30
0.0
 11
2080.386689729751
 21
1276.686738304537
 31
0.0
  0
TEXT
  5
15A8
330
1F
100
AcDbEntity
  8
LOGO
  6
Continuous
100
AcDbText
 10
2018.544916526333
 20
1249.691317003067
 30
0.0
 40
5.039270226244344
  1
金器工業股份有限公司
  7
CHINESET
100
AcDbText
  0
TEXT
  5
15A9
330
1F
100
AcDbEntity
  8
LOGO
  6
Continuous
100
AcDbText
 10
2009.288774091171
 20
1244.651059474952
 30
0.0
 40
3.359513484162895
  1
MINDMAN INDUSTRIAL CO., LTD.
 41
0.85
  7
CHINESET
100
AcDbText
  0
LINE
  5
15AA
330
1F
100
AcDbEntity
  8
LOGO
 62
     4
100
AcDbLine
 10
2080.386689729751
 20
1269.967711336211
 30
0.0
 11
2031.113825295361
 21
1269.967711336211
 31
0.0
  0
LINE
  5
15AB
330
1F
100
AcDbEntity
  8
LOGO
 62
     4
100
AcDbLine
 10
2080.386689729751
 20
1263.248684367885
 30
0.0
 11
2031.113825295361
 21
1263.248684367885
 31
0.0
  0
LINE
  5
15AC
330
1F
100
AcDbEntity
  8
LOGO
 62
     4
100
AcDbLine
 10
2080.386689729751
 20
1256.52965739956
 30
0.0
 11
2006.477393078167
 21
1256.52965739956
 31
0.0
  0
LINE
  5
15AD
330
1F
100
AcDbEntity
  8
LOGO
 62
     4
100
AcDbLine
 10
2031.113825295361
 20
1256.52965739956
 30
0.0
 11
2031.113825295361
 21
1276.686738304537
 31
0.0
  0
TEXT
  5
15AE
330
1F
100
AcDbEntity
  8
LOGO
100
AcDbText
 10
2064.789502492489
 20
1258.20941414164
 30
0.0
 40
3.359513484162895
  1
mm
  7
CHINESET
 72
     1
 11
2068.948900139548
 21
1259.889170883722
 31
0.0
100
AcDbText
 73
     2
  0
TEXT
  5
15AF
330
1F
100
AcDbEntity
  8
LOGO
100
AcDbText
 10
2063.029757334118
 20
1271.647468078292
 30
0.0
 40
3.359513484162895
  1
1 : 1
  7
CHINESET
 72
     1
 11
2068.948900139548
 21
1273.327224820373
 31
0.0
100
AcDbText
 73
     2
  0
LINE
  5
15B0
330
1F
100
AcDbEntity
  8
LOGO
 62
     4
100
AcDbLine
 10
2057.989933168665
 20
1256.52965739956
 30
0.0
 11
2057.989933168665
 21
1276.686738304537
 31
0.0
  0
CIRCLE
  5
15B1
330
1F
100
AcDbEntity
  8
LOGO
  6
Continuous
100
AcDbCircle
 10
2064.210492585896
 20
1266.615383875975
 30
0.0
 40
1.95061260293866
  0
CIRCLE
  5
15B2
330
1F
100
AcDbEntity
  8
LOGO
  6
Continuous
100
AcDbCircle
 10
2064.210492585896
 20
1266.615383875975
 30
0.0
 40
1.142886307358202
  0
LINE
  5
15B3
330
1F
100
AcDbEntity
  8
LOGO
100
AcDbLine
 10
2076.468368522277
 20
1264.664771273036
 30
0.0
 11
2076.468368522277
 21
1268.565996478914
 31
0.0
  0
LINE
  5
15B4
330
1F
100
AcDbEntity
  8
LOGO
100
AcDbLine
 10
2070.353309982571
 20
1265.472497568617
 30
0.0
 11
2070.353309982571
 21
1267.758270183333
 31
0.0
  0
LINE
  5
15B5
330
1F
100
AcDbEntity
  8
LOGO
  6
Continuous
100
AcDbLine
 10
2070.353309982571
 20
1267.758270183333
 30
0.0
 11
2076.468368522277
 21
1268.565996478914
 31
0.0
  0
LINE
  5
15B6
330
1F
100
AcDbEntity
  8
LOGO
  6
Continuous
100
AcDbLine
 10
2070.353309982571
 20
1265.472497568617
 30
0.0
 11
2076.468368522277
 21
1264.664771273036
 31
0.0
  0
TEXT
  5
15B7
330
1F
100
AcDbEntity
  8
LOGO
100
AcDbText
 10
2033.88392413699
 20
1271.649121382172
 30
220.1769792768836
 40
3.359513484162895
  1
比例 Scale:
 41
0.9
  7
CHINESET
 72
     4
 11
2044.551879232013
 21
1273.327224820373
 31
220.1769792768836
100
AcDbText
  0
TEXT
  5
15B8
330
1F
100
AcDbEntity
  8
LOGO
100
AcDbText
 10
2033.69045215509
 20
1264.97569804587
 30
220.1769792768836
 40
3.359513484162895
  1
投影  View:
 41
0.9
  7
CHINESET
 72
     4
 11
2044.551879232013
 21
1266.608197852048
 31
220.1769792768836
100
AcDbText
  0
TEXT
  5
15B9
330
1F
100
AcDbEntity
  8
LOGO
100
AcDbText
 10
2034.018904589479
 20
1258.20941414164
 30
220.1769792768836
 40
3.359513484162895
  1
單位  Unit:
 41
0.9
  7
CHINESET
 72
     4
 11
2044.551879232013
 21
1259.889170883722
 31
220.1769792768836
100
AcDbText
  0
SOLID
  5
15BA
330
1F
100
AcDbEntity
  8
LOGO
 62
     5
100
AcDbTrace
 10
2009.962942234076
 20
1262.11437037789
 30
0.0
 11
2011.415507710994
 21
1262.11437037789
 31
0.0
 12
2017.476211942273
 22
1275.888698176253
 32
0.0
 13
2018.928777419192
 23
1275.888698176253
 33
0.0
  0
SOLID
  5
15BB
330
1F
100
AcDbEntity
  8
LOGO
 62
     5
100
AcDbTrace
 10
2012.016569287652
 20
1262.11437037789
 30
0.0
 11
2013.469134764569
 21
1262.11437037789
 31
0.0
 12
2018.928777419192
 22
1274.786751952384
 32
0.0
 13
2017.476211942273
 23
1269.460678537017
 33
0.0
  0
SOLID
  5
15BC
330
1F
100
AcDbEntity
  8
LOGO
 62
     2
100
AcDbTrace
 10
2011.415507710994
 20
1262.11437037789
 30
0.0
 11
2012.016569287652
 21
1262.11437037789
 31
0.0
 12
2018.928777419192
 22
1275.888698176253
 32
0.0
 13
2019.529838995849
 23
1275.888698176253
 33
0.0
  0
SOLID
  5
15BD
330
1F
100
AcDbEntity
  8
LOGO
 62
     5
100
AcDbTrace
 10
2007.634123561887
 20
1257.105523905759
 30
0.0
 11
2008.135008209102
 21
1257.105523905759
 31
0.0
 12
2009.545538361399
 22
1259.609947141825
 32
0.0
 13
2010.046423008611
 23
1259.609947141825
 33
0.0
  0
SOLID
  5
15BE
330
1F
100
AcDbEntity
  8
LOGO
 62
     5
100
AcDbTrace
 10
2009.545538361399
 20
1259.609947141825
 30
0.0
 11
2010.046423008611
 21
1259.609947141825
 31
0.0
 12
2009.545538361399
 22
1257.105523905759
 32
0.0
 13
2010.046423008611
 23
1257.105523905759
 33
0.0
  0
SOLID
  5
15BF
330
1F
100
AcDbEntity
  8
LOGO
 62
     5
100
AcDbTrace
 10
2009.545538361399
 20
1257.105523905759
 30
0.0
 11
2010.046423008611
 21
1257.105523905759
 31
0.0
 12
2011.456953160911
 22
1259.609947141825
 32
0.0
 13
2011.957837808123
 23
1259.609947141825
 33
0.0
  0
SOLID
  5
15C0
330
1F
100
AcDbEntity
  8
LOGO
 62
     5
100
AcDbTrace
 10
2011.456953160911
 20
1259.609947141825
 30
0.0
 11
2011.957837808123
 21
1259.609947141825
 31
0.0
 12
2011.456953160911
 22
1257.105523905759
 32
0.0
 13
2011.957837808123
 23
1257.105523905759
 33
0.0
  0
POLYLINE
  5
15C1
330
1F
100
AcDbEntity
  8
LOGO
 62
     5
100
AcDb2dPolyline
 66
     1
 10
0.0
 20
0.0
 30
0.0
 40
0.5016873469683257
 41
0.5016873469683257
  0
VERTEX
  5
15C2
330
15C1
100
AcDbEntity
  8
LOGO
 62
     5
100
AcDbVertex
100
AcDb2dVertex
 10
2028.246435906991
 20
1258.608177847398
 30
0.0
 42
1.0
  0
VERTEX
  5
15C3
330
15C1
100
AcDbEntity
  8
LOGO
 62
     5
100
AcDbVertex
100
AcDb2dVertex
 10
2026.741373866085
 20
1258.608177847398
 30
0.0
 42
1.0
  0
SEQEND
  5
15C4
330
15C1
100
AcDbEntity
  8
LOGO
 62
     5
  0
POLYLINE
  5
15C5
330
1F
100
AcDbEntity
  8
LOGO
 62
     5
100
AcDb2dPolyline
 66
     1
 10
0.0
 20
0.0
 30
0.0
 70
     1
  0
VERTEX
  5
15C6
330
15C5
100
AcDbEntity
  8
LOGO
 62
     5
100
AcDbVertex
100
AcDb2dVertex
 10
2023.904264973819
 20
1258.357735523792
 30
0.0
 42
1.000000057330635
  0
VERTEX
  5
15C7
330
15C5
100
AcDbEntity
  8
LOGO
 62
     5
100
AcDbVertex
100
AcDb2dVertex
 10
2025.406918915459
 20
1258.357735523792
 30
0.0
 42
1.000000057330635
  0
SEQEND
  5
15C8
330
15C5
100
AcDbEntity
  8
LOGO
 62
     5
  0
CIRCLE
  5
15C9
330
1F
100
AcDbEntity
  8
LOGO
 62
     5
100
AcDbCircle
 10
2024.65559194464
 20
1258.357735523792
 30
0.0
 40
0.7513269708197648
  0
POLYLINE
  5
15CA
330
1F
100
AcDbEntity
  8
LOGO
 62
     5
100
AcDb2dPolyline
 66
     1
 10
0.0
 20
0.0
 30
0.0
 70
     1
 40
0.5016873469683257
 41
0.5016873469683257
  0
VERTEX
  5
15CB
330
15CA
100
AcDbEntity
  8
LOGO
 62
     5
100
AcDbVertex
100
AcDb2dVertex
 10
2023.652217250702
 20
1258.357735523792
 30
0.0
 42
1.0
  0
VERTEX
  5
15CC
330
15CA
100
AcDbEntity
  8
LOGO
 62
     5
100
AcDbVertex
100
AcDb2dVertex
 10
2025.658966638576
 20
1258.357735523792
 30
0.0
 42
1.0
  0
SEQEND
  5
15CD
330
15CA
100
AcDbEntity
  8
LOGO
 62
     5
  0
LINE
  5
15CE
330
1F
100
AcDbEntity
  8
LOGO
100
AcDbLine
 10
2028.495674180964
 20
1257.105523905759
 30
0.0
 11
2028.495674180964
 21
1258.608177847398
 31
0.0
  0
SOLID
  5
15CF
330
1F
100
AcDbEntity
  8
LOGO
 62
     5
100
AcDbTrace
 10
2025.406868826996
 20
1259.609947141825
 30
0.0
 11
2025.907753474209
 21
1259.609947141825
 31
0.0
 12
2025.406868826996
 22
1257.105523905759
 32
0.0
 13
2025.907753474209
 23
1257.105523905759
 33
0.0
  0
SOLID
  5
15D0
330
1F
100
AcDbEntity
  8
LOGO
 62
     5
100
AcDbTrace
 10
2026.492135592111
 20
1257.105523905759
 30
0.0
 11
2026.993020239325
 21
1257.105523905759
 31
0.0
 12
2026.492135592111
 22
1259.609947141825
 32
0.0
 13
2026.993020239325
 23
1259.609947141825
 33
0.0
  0
SOLID
  5
15D1
330
1F
100
AcDbEntity
  8
LOGO
 62
     5
100
AcDbTrace
 10
2027.994789533751
 20
1258.608177847398
 30
0.0
 11
2028.495674180964
 21
1258.608177847398
 31
0.0
 12
2027.994789533751
 22
1257.105523905759
 32
0.0
 13
2028.495674180964
 23
1257.105523905759
 33
0.0
  0
SOLID
  5
15D2
330
1F
100
AcDbEntity
  8
LOGO
 62
     5
100
AcDbTrace
 10
2026.442047127389
 20
1274.786751952384
 30
0.0
 11
2024.989481650472
 21
1269.460678537017
 31
0.0
 12
2026.442047127389
 22
1262.11437037789
 32
0.0
 13
2024.989481650472
 23
1262.11437037789
 33
0.0
  0
SOLID
  5
15D3
330
1F
100
AcDbEntity
  8
LOGO
 62
     5
100
AcDbTrace
 10
2027.043108704046
 20
1262.11437037789
 30
0.0
 11
2028.495674180964
 21
1262.11437037789
 31
0.0
 12
2027.043108704046
 22
1275.888698176253
 32
0.0
 13
2028.495674180964
 23
1275.888698176253
 33
0.0
  0
SOLID
  5
15D4
330
1F
100
AcDbEntity
  8
LOGO
 62
     2
100
AcDbTrace
 10
2026.442047127389
 20
1275.888698176253
 30
0.0
 11
2027.043108704046
 21
1275.888698176253
 31
0.0
 12
2026.442047127389
 22
1262.11437037789
 32
0.0
 13
2027.043108704046
 23
1262.11437037789
 33
0.0
  0
POLYLINE
  5
15D5
330
1F
100
AcDbEntity
  8
LOGO
 62
     5
100
AcDb2dPolyline
 66
     1
 10
0.0
 20
0.0
 30
0.0
 40
0.5016873469683257
 41
0.5016873469683257
  0
VERTEX
  5
15D6
330
15D5
100
AcDbEntity
  8
LOGO
 62
     5
100
AcDbVertex
100
AcDb2dVertex
 10
2021.067055904626
 20
1258.608177847398
 30
0.0
 42
1.0
  0
VERTEX
  5
15D7
330
15D5
100
AcDbEntity
  8
LOGO
 62
     5
100
AcDbVertex
100
AcDb2dVertex
 10
2019.56199386372
 20
1258.608177847398
 30
0.0
 42
1.0
  0
SEQEND
  5
15D8
330
15D5
100
AcDbEntity
  8
LOGO
 62
     5
  0
POLYLINE
  5
15D9
330
1F
100
AcDbEntity
  8
LOGO
 62
     5
100
AcDb2dPolyline
 66
     1
 10
0.0
 20
0.0
 30
0.0
 40
0.5016873469683257
 41
0.5016873469683257
  0
VERTEX
  5
15DA
330
15D9
100
AcDbEntity
  8
LOGO
 62
     5
100
AcDbVertex
100
AcDb2dVertex
 10
2022.569709846264
 20
1258.608177847398
 30
0.0
 42
1.0
  0
VERTEX
  5
15DB
330
15D9
100
AcDbEntity
  8
LOGO
 62
     5
100
AcDbVertex
100
AcDb2dVertex
 10
2021.064647805359
 20
1258.608177847398
 30
0.0
 42
1.0
  0
SEQEND
  5
15DC
330
15D9
100
AcDbEntity
  8
LOGO
 62
     5
  0
POLYLINE
  5
15DD
330
1F
100
AcDbEntity
  8
LOGO
 62
     5
100
AcDb2dPolyline
 66
     1
 10
0.0
 20
0.0
 30
0.0
 40
0.5016873469683257
 41
0.5016873469683257
  0
VERTEX
  5
15DE
330
15DD
100
AcDbEntity
  8
LOGO
 62
     5
100
AcDbVertex
100
AcDb2dVertex
 10
2015.390329843898
 20
1258.608177847398
 30
0.0
 42
1.0
  0
VERTEX
  5
15DF
330
15DD
100
AcDbEntity
  8
LOGO
 62
     5
100
AcDbVertex
100
AcDb2dVertex
 10
2013.885267802994
 20
1258.608177847398
 30
0.0
 42
1.0
  0
SEQEND
  5
15E0
330
15DD
100
AcDbEntity
  8
LOGO
 62
     5
  0
SOLID
  5
15E1
330
1F
100
AcDbEntity
  8
LOGO
 62
     5
100
AcDbTrace
 10
2013.63602952902
 20
1259.609947141825
 30
0.0
 11
2014.136914176233
 21
1259.609947141825
 31
0.0
 12
2013.63602952902
 22
1257.105523905759
 32
0.0
 13
2014.136914176233
 23
1257.105523905759
 33
0.0
  0
SOLID
  5
15E2
330
1F
100
AcDbEntity
  8
LOGO
 62
     5
100
AcDbTrace
 10
2015.13868347066
 20
1258.608177847398
 30
0.0
 11
2015.639568117874
 21
1258.608177847398
 31
0.0
 12
2015.13868347066
 22
1257.105523905759
 32
0.0
 13
2015.639568117874
 23
1257.105523905759
 33
0.0
  0
POLYLINE
  5
15E3
330
1F
100
AcDbEntity
  8
LOGO
 62
     5
100
AcDb2dPolyline
 66
     1
 10
0.0
 20
0.0
 30
0.0
 70
     1
 40
0.5016873469683257
 41
0.5016873469683257
  0
VERTEX
  5
15E4
330
15E3
100
AcDbEntity
  8
LOGO
 62
     5
100
AcDbVertex
100
AcDb2dVertex
 10
2016.472837248337
 20
1258.357735523792
 30
0.0
 42
1.0
  0
VERTEX
  5
15E5
330
15E3
100
AcDbEntity
  8
LOGO
 62
     5
100
AcDbVertex
100
AcDb2dVertex
 10
2018.47958663621
 20
1258.357735523792
 30
0.0
 42
1.0
  0
SEQEND
  5
15E6
330
15E3
100
AcDbEntity
  8
LOGO
 62
     5
  0
SOLID
  5
15E7
330
1F
100
AcDbEntity
  8
LOGO
 62
     5
100
AcDbTrace
 10
2018.22748882463
 20
1260.361274112645
 30
0.0
 11
2018.728373471843
 21
1260.361274112645
 31
0.0
 12
2018.22748882463
 22
1257.105523905759
 32
0.0
 13
2018.728373471843
 23
1257.105523905759
 33
0.0
  0
SOLID
  5
15E8
330
1F
100
AcDbEntity
  8
LOGO
 62
     5
100
AcDbTrace
 10
2019.312755589747
 20
1259.609947141825
 30
0.0
 11
2019.813640236959
 21
1259.609947141825
 31
0.0
 12
2019.312755589747
 22
1257.105523905759
 32
0.0
 13
2019.813640236959
 23
1257.105523905759
 33
0.0
  0
SOLID
  5
15E9
330
1F
100
AcDbEntity
  8
LOGO
 62
     5
100
AcDbTrace
 10
2020.815409531385
 20
1258.608177847398
 30
0.0
 11
2021.316294178599
 21
1258.608177847398
 31
0.0
 12
2020.815409531385
 22
1257.105523905759
 32
0.0
 13
2021.316294178599
 23
1257.105523905759
 33
0.0
  0
SOLID
  5
15EA
330
1F
100
AcDbEntity
  8
LOGO
 62
     5
100
AcDbTrace
 10
2022.318063473025
 20
1258.608177847398
 30
0.0
 11
2022.818948120238
 21
1258.608177847398
 31
0.0
 12
2022.318063473025
 22
1257.105523905759
 32
0.0
 13
2022.818948120238
 23
1257.105523905759
 33
0.0
  0
SOLID
  5
15EB
330
1F
100
AcDbEntity
  8
LOGO
 62
     5
100
AcDbTrace
 10
2012.550762763903
 20
1259.960566394874
 30
0.0
 11
2013.051647411117
 21
1259.960566394874
 31
0.0
 12
2012.550762763903
 22
1260.361274112645
 32
0.0
 13
2013.051647411117
 23
1260.361274112645
 33
0.0
  0
SOLID
  5
15EC
330
1F
100
AcDbEntity
  8
LOGO
 62
     5
100
AcDbTrace
 10
2012.550762763903
 20
1259.609947141825
 30
0.0
 11
2013.051647411117
 21
1259.609947141825
 31
0.0
 12
2012.550762763903
 22
1257.105523905759
 32
0.0
 13
2013.051647411117
 23
1257.105523905759
 33
0.0
  0
SOLID
  5
15ED
330
1F
100
AcDbEntity
  8
LOGO
 62
     5
100
AcDbTrace
 10
2017.476211942273
 20
1262.11437037789
 30
0.0
 11
2018.928777419192
 21
1262.11437037789
 31
0.0
 12
2017.476211942273
 22
1269.460678537017
 32
0.0
 13
2018.928777419192
 23
1274.786751952384
 33
0.0
  0
SOLID
  5
15EE
330
1F
100
AcDbEntity
  8
LOGO
 62
     5
100
AcDbTrace
 10
2019.529838995849
 20
1275.888698176253
 30
0.0
 11
2020.982404472766
 21
1275.888698176253
 31
0.0
 12
2019.529838995849
 22
1263.21631660176
 32
0.0
 13
2020.982404472766
 23
1268.542390017127
 33
0.0
  0
SOLID
  5
15EF
330
1F
100
AcDbEntity
  8
LOGO
 62
     2
100
AcDbTrace
 10
2018.928777419192
 20
1275.888698176253
 30
0.0
 11
2019.529838995849
 21
1275.888698176253
 31
0.0
 12
2018.928777419192
 22
1262.11437037789
 32
0.0
 13
2019.529838995849
 23
1262.11437037789
 33
0.0
  0
SOLID
  5
15F0
330
1F
100
AcDbEntity
  8
LOGO
 62
     5
100
AcDbTrace
 10
2019.529838995849
 20
1263.21631660176
 30
0.0
 11
2020.982404472766
 21
1268.542390017127
 31
0.0
 12
2026.442047127389
 22
1275.888698176253
 32
0.0
 13
2024.989481650472
 23
1275.888698176253
 33
0.0
  0
SOLID
  5
15F1
330
1F
100
AcDbEntity
  8
LOGO
 62
     5
100
AcDbTrace
 10
2019.529838995849
 20
1262.11437037789
 30
0.0
 11
2020.982404472766
 21
1262.11437037789
 31
0.0
 12
2026.442047127389
 22
1274.786751952384
 32
0.0
 13
2024.989481650472
 23
1269.460678537017
 33
0.0
  0
SOLID
  5
15F2
330
1F
100
AcDbEntity
  8
LOGO
 62
     2
100
AcDbTrace
 10
2018.928777419192
 20
1262.11437037789
 30
0.0
 11
2019.529838995849
 21
1262.11437037789
 31
0.0
 12
2026.442047127389
 22
1275.888698176253
 32
0.0
 13
2027.043108704046
 23
1275.888698176253
 33
0.0
  0
LINE
  5
15F3
330
1F
100
AcDbEntity
  8
LOGO
 62
     4
100
AcDbLine
 10
2148.992063237721
 20
1258.209414141641
 30
0.0
 11
2148.992063237721
 21
1245.891198033043
 31
0.0
  0
LINE
  5
15F4
330
1F
100
AcDbEntity
  8
LOGO
 62
     4
100
AcDbLine
 10
2126.595306676635
 20
1258.209414141641
 30
0.0
 11
2126.595306676635
 21
1245.891198033043
 31
0.0
  0
LINE
  5
15F5
330
1F
100
AcDbEntity
  8
LOGO
 62
     4
100
AcDbLine
 10
2148.992063237721
 20
1245.891198033043
 30
0.0
 11
2126.595306676635
 21
1245.891198033043
 31
0.0
  0
LINE
  5
15F6
330
1F
100
AcDbEntity
  8
LOGO
 62
     4
100
AcDbLine
 10
2152.347024938972
 20
1273.327224820373
 30
0.0
 11
2126.595306676635
 21
1273.327224820373
 31
0.0
  0
LINE
  5
15F7
330
1F
100
AcDbEntity
  8
LOGO
 62
     4
100
AcDbLine
 10
2152.347024938972
 20
1263.248684367885
 30
0.0
 11
2126.595306676635
 21
1263.248684367885
 31
0.0
  0
LINE
  5
15F8
330
1F
100
AcDbEntity
  8
LOGO
 62
     4
100
AcDbLine
 10
2126.595306676635
 20
1273.327224820373
 30
0.0
 11
2126.595306676635
 21
1263.248684367885
 31
0.0
  0
LINE
  5
15F9
330
1F
100
AcDbEntity
  8
LOGO
 62
     4
100
AcDbLine
 10
2152.347024938972
 20
1273.327224820373
 30
0.0
 11
2152.347024938972
 21
1263.248684367885
 31
0.0
  0
LINE
  5
15FA
330
1F
100
AcDbEntity
  8
LOGO
 62
     4
100
AcDbLine
 10
2138.962233112615
 20
1263.248684367885
 30
0.0
 11
2138.962233112615
 21
1258.209414141641
 31
0.0
  0
TEXT
  5
15FB
330
1F
100
AcDbEntity
  8
LOGO
  6
Continuous
 62
     7
100
AcDbText
 10
2128.386105470945
 20
1265.352564952517
 30
0.0
 40
5.879999999999999
  1
MCGJ
  7
CHINESET
100
AcDbText
  0
LINE
  5
15FC
330
1F
100
AcDbEntity
  8
LOGO
 62
     4
100
AcDbLine
 10
2148.992063237721
 20
1258.209414141641
 30
0.0
 11
2126.595306676635
 21
1258.209414141641
 31
0.0
  0
TEXT
  5
15FD
330
1F
100
AcDbEntity
  8
LOGO
  6
Continuous
100
AcDbText
 10
2133.782354950035
 20
1247.629888115388
 30
220.1769792768836
 40
2.519999999999999
  1
Model
 41
0.8
  7
CHINESET
100
AcDbText
  0
TEXT
  5
15FE
330
1F
100
AcDbEntity
  8
LOGO
100
AcDbText
 10
2133.111612870196
 20
1252.301425016626
 30
220.1769792768836
 40
4.2
  1
型號
  7
CHINESET
100
AcDbText
  0
LINE
  5
15FF
330
1F
100
AcDbEntity
  8
LOGO
  6
Continuous
 62
     7
100
AcDbLine
 10
2153.418457087063
 20
1268.252254811061
 30
0.0
 11
2157.868772801281
 21
1268.252254811061
 31
0.0
  0
LINE
  5
1600
330
1F
100
AcDbEntity
  8
LOGO
 62
     4
100
AcDbLine
 10
2176.162603791455
 20
1258.209414141641
 30
0.0
 11
2176.162603791455
 21
1245.891198033043
 31
0.0
  0
LINE
  5
1601
330
1F
100
AcDbEntity
  8
LOGO
 62
     4
100
AcDbLine
 10
2152.966542475413
 20
1258.209414141641
 30
0.0
 11
2152.966542475413
 21
1245.891198033043
 31
0.0
  0
LINE
  5
1602
330
1F
100
AcDbEntity
  8
LOGO
 62
     4
100
AcDbLine
 10
2176.162603791455
 20
1245.891198033043
 30
0.0
 11
2152.966542475413
 21
1245.891198033043
 31
0.0
  0
LINE
  5
1603
330
1F
100
AcDbEntity
  8
LOGO
 62
     4
100
AcDbLine
 10
2172.251375342386
 20
1273.327224820373
 30
0.0
 11
2159.272612818975
 21
1273.327224820373
 31
0.0
  0
LINE
  5
1604
330
1F
100
AcDbEntity
  8
LOGO
 62
     4
100
AcDbLine
 10
2172.251375342386
 20
1263.248684367885
 30
0.0
 11
2159.272612818975
 21
1263.248684367885
 31
0.0
  0
LINE
  5
1605
330
1F
100
AcDbEntity
  8
LOGO
 62
     4
100
AcDbLine
 10
2159.272612818975
 20
1273.327224820373
 30
0.0
 11
2159.272612818975
 21
1263.248684367885
 31
0.0
  0
LINE
  5
1606
330
1F
100
AcDbEntity
  8
LOGO
 62
     4
100
AcDbLine
 10
2172.251375342386
 20
1273.327224820373
 30
0.0
 11
2172.251375342386
 21
1263.248684367885
 31
0.0
  0
LINE
  5
1607
330
1F
100
AcDbEntity
  8
LOGO
 62
     4
100
AcDbLine
 10
2165.761994080681
 20
1263.248684367885
 30
0.0
 11
2165.761994080681
 21
1258.209414141641
 31
0.0
  0
TEXT
  5
1608
330
1F
100
AcDbEntity
  8
LOGO
  6
Continuous
 62
     7
100
AcDbText
 10
2160.91094831377
 20
1265.352564952517
 30
0.0
 40
5.879999999999999
  1
12
  7
CHINESET
100
AcDbText
  0
LINE
  5
1609
330
1F
100
AcDbEntity
  8
LOGO
 62
     4
100
AcDbLine
 10
2176.162603791455
 20
1258.209414141641
 30
0.0
 11
2152.966542475413
 21
1258.209414141641
 31
0.0
  0
LINE
  5
160A
330
1F
100
AcDbEntity
  8
LOGO
  6
Continuous
 62
     7
100
AcDbLine
 10
2173.679347264557
 20
1268.252254811061
 30
0.0
 11
2178.129662978775
 21
1268.252254811061
 31
0.0
  0
LINE
  5
160B
330
1F
100
AcDbEntity
  8
LOGO
 62
     4
100
AcDbLine
 10
2201.524920613505
 20
1258.209414141641
 30
0.0
 11
2201.524920613505
 21
1245.891198033043
 31
0.0
  0
LINE
  5
160C
330
1F
100
AcDbEntity
  8
LOGO
 62
     4
100
AcDbLine
 10
2179.12816405242
 20
1258.209414141641
 30
0.0
 11
2179.12816405242
 21
1245.891198033043
 31
0.0
  0
LINE
  5
160D
330
1F
100
AcDbEntity
  8
LOGO
 62
     4
100
AcDbLine
 10
2201.524920613505
 20
1245.891198033043
 30
0.0
 11
2179.12816405242
 21
1245.891198033043
 31
0.0
  0
LINE
  5
160E
330
1F
100
AcDbEntity
  8
LOGO
 62
     4
100
AcDbLine
 10
2196.75517389638
 20
1273.327224820373
 30
0.0
 11
2179.53350299647
 21
1273.327224820373
 31
0.0
  0
LINE
  5
160F
330
1F
100
AcDbEntity
  8
LOGO
 62
     4
100
AcDbLine
 10
2196.75517389638
 20
1263.248684367885
 30
0.0
 11
2179.53350299647
 21
1263.248684367885
 31
0.0
  0
LINE
  5
1610
330
1F
100
AcDbEntity
  8
LOGO
 62
     4
100
AcDbLine
 10
2179.53350299647
 20
1273.327224820373
 30
0.0
 11
2179.53350299647
 21
1263.248684367885
 31
0.0
  0
LINE
  5
1611
330
1F
100
AcDbEntity
  8
LOGO
 62
     4
100
AcDbLine
 10
2196.75517389638
 20
1273.327224820373
 30
0.0
 11
2196.75517389638
 21
1263.248684367885
 31
0.0
  0
LINE
  5
1612
330
1F
100
AcDbEntity
  8
LOGO
 62
     4
100
AcDbLine
 10
2188.144338446425
 20
1263.248684367885
 30
0.0
 11
2188.144338446425
 21
1258.209414141641
 31
0.0
  0
TEXT
  5
1613
330
1F
100
AcDbEntity
  8
LOGO
  6
Continuous
 62
     7
100
AcDbText
 10
2183.205774729694
 20
1265.352564952517
 30
0.0
 40
5.879999999999999
  1
63
  7
CHINESET
100
AcDbText
  0
LINE
  5
1614
330
1F
100
AcDbEntity
  8
LOGO
 62
     4
100
AcDbLine
 10
2201.524920613505
 20
1258.209414141641
 30
0.0
 11
2179.12816405242
 21
1258.209414141641
 31
0.0
  0
LINE
  5
1615
330
1F
100
AcDbEntity
  8
LOGO
  6
Continuous
 62
     7
100
AcDbLine
 10
2198.188786165987
 20
1268.252254811061
 30
0.0
 11
2202.639101880206
 21
1268.252254811061
 31
0.0
  0
LINE
  5
1616
330
1F
100
AcDbEntity
  8
LOGO
 62
     4
100
AcDbLine
 10
2221.883331688798
 20
1258.209414141641
 30
0.0
 11
2221.883331688798
 21
1245.891198033043
 31
0.0
  0
LINE
  5
1617
330
1F
100
AcDbEntity
  8
LOGO
 62
     4
100
AcDbLine
 10
2203.63760295385
 20
1258.209414141641
 30
0.0
 11
2203.63760295385
 21
1245.891198033043
 31
0.0
  0
LINE
  5
1618
330
1F
100
AcDbEntity
  8
LOGO
 62
     4
100
AcDbLine
 10
2221.883331688798
 20
1245.891198033043
 30
0.0
 11
2203.63760295385
 21
1245.891198033043
 31
0.0
  0
LINE
  5
1619
330
1F
100
AcDbEntity
  8
LOGO
 62
     4
100
AcDbLine
 10
2214.766229060277
 20
1273.327224820373
 30
0.0
 11
2204.042941897901
 21
1273.327224820373
 31
0.0
  0
LINE
  5
161A
330
1F
100
AcDbEntity
  8
LOGO
 62
     4
100
AcDbLine
 10
2214.766229060277
 20
1263.248684367885
 30
0.0
 11
2204.042941897901
 21
1263.248684367885
 31
0.0
  0
LINE
  5
161B
330
1F
100
AcDbEntity
  8
LOGO
 62
     4
100
AcDbLine
 10
2204.042941897901
 20
1273.327224820373
 30
0.0
 11
2204.042941897901
 21
1263.248684367885
 31
0.0
  0
LINE
  5
161C
330
1F
100
AcDbEntity
  8
LOGO
 62
     4
100
AcDbLine
 10
2214.766229060277
 20
1273.327224820373
 30
0.0
 11
2214.766229060277
 21
1263.248684367885
 31
0.0
  0
LINE
  5
161D
330
1F
100
AcDbEntity
  8
LOGO
 62
     4
100
AcDbLine
 10
2209.404585479089
 20
1263.248684367885
 30
0.0
 11
2209.404585479089
 21
1258.209414141641
 31
0.0
  0
TEXT
  5
161E
330
1F
100
AcDbEntity
  8
LOGO
  6
Continuous
 62
     7
100
AcDbText
 10
2207.65720147519
 20
1265.352564952517
 30
0.0
 40
5.879999999999999
  1
0
  7
CHINESET
100
AcDbText
  0
LINE
  5
161F
330
1F
100
AcDbEntity
  8
LOGO
 62
     4
100
AcDbLine
 10
2221.883331688798
 20
1258.209414141641
 30
0.0
 11
2203.63760295385
 21
1258.209414141641
 31
0.0
  0
TEXT
  5
1620
330
1F
100
AcDbEntity
  8
LOGO
  6
Continuous
100
AcDbText
 10
2155.011178086518
 20
1247.629888115388
 30
220.1769792768836
 40
2.519999999999999
  1
Bearing type
 41
0.8
  7
CHINESET
100
AcDbText
  0
TEXT
  5
1621
330
1F
100
AcDbEntity
  8
LOGO
100
AcDbText
 10
2154.987438813721
 20
1252.301425016626
 30
220.1769792768836
 40
4.2
  1
軸承型式
  7
CHINESET
100
AcDbText
  0
TEXT
  5
1622
330
1F
100
AcDbEntity
  8
LOGO
  6
Continuous
100
AcDbText
 10
2183.819369172182
 20
1247.629888115388
 30
220.1769792768836
 40
2.519999999999999
  1
Tube I.D.
 41
0.8
  7
CHINESET
100
AcDbText
  0
TEXT
  5
1623
330
1F
100
AcDbEntity
  8
LOGO
100
AcDbText
 10
2184.835460322621
 20
1252.301425016626
 30
220.1769792768836
 40
4.2
  1
內徑
  7
CHINESET
100
AcDbText
  0
TEXT
  5
1624
330
1F
100
AcDbEntity
  8
LOGO
  6
Continuous
100
AcDbText
 10
2208.446279052566
 20
1247.629888115388
 30
220.1769792768836
 40
2.519999999999999
  1
Stroke
 41
0.8
  7
CHINESET
100
AcDbText
  0
TEXT
  5
1625
330
1F
100
AcDbEntity
  8
LOGO
100
AcDbText
 10
2208.2715505365
 20
1252.301425016626
 30
220.1769792768836
 40
4.2
  1
行程
  7
CHINESET
100
AcDbText
  0
TEXT
  5
1626
330
1F
100
AcDbEntity
  8
LOGO
100
AcDbText
 10
2082.44726952303
 20
1244.878851376695
 30
0.0
 40
3.359999999999999
  1
10603141
 41
0.7
  7
CHINESET
 72
     1
 11
2090.11926952303
 21
1244.878851376695
 31
0.0
100
AcDbText
  0
LINE
  5
1627
330
1F
100
AcDbEntity
  8
LOGO
 62
     4
100
AcDbLine
 10
2100.546689729749
 20
1249.810630431234
 30
0.0
 11
2100.54668972975
 21
1243.091603462908
 31
0.0
  0
LINE
  5
1628
330
1F
100
AcDbEntity
  8
LOGO
 62
     4
100
AcDbLine
 10
2100.546689729749
 20
1249.810630431234
 30
0.0
 11
2080.386689729751
 21
1249.810630431234
 31
0.0
  0
LINE
  5
1629
330
1F
100
AcDbEntity
  8
LOGO
  6
AM_ISO08W050x2
 48
0.3
100
AcDbLine
 10
2061.521543904621
 20
1266.615383875975
 30
0.0
 11
2066.899441267171
 21
1266.615383875975
 31
0.0
1001
GENIUS_GENOREF_13
1005
162E
  0
LINE
  5
162A
330
1F
100
AcDbEntity
  8
LOGO
  6
AM_ISO08W050x2
 48
0.3
100
AcDbLine
 10
2064.210492585896
 20
1263.9264351947
 30
0.0
 11
2064.210492585896
 21
1269.30433255725
 31
0.0
1001
GENIUS_GENOREF_13
1005
162D
  0
LINE
  5
162B
330
1F
100
AcDbEntity
  8
LOGO
  6
CENTER
 48
0.5
100
AcDbLine
 10
2069.864275266651
 20
1266.615383875975
 30
0.0
 11
2077.084135121761
 21
1266.615383875975
 31
0.0
1001
GENIUS_GENOREF_13
1005
162C
  0
POINT
  5
162C
330
1F
100
AcDbEntity
  8
0
 60
     1
100
AcDbPoint
 10
717.7893463853256
 20
372.8627295737218
 30
0.0
1001
GENIUS_GENOBJ-N-CRS_13
1002
{
1000
OWNER
1000
GEN
1002
}
1001
GENIUS_GENOLIS_13
1002
{
1000
ENT
1005
0
1005
0
1005
0
1005
162B
1002
}
1001
GENIUS_GENOENT_13
1002
{
1000
MYREF
1005
162C
1002
}
1002
{
1000
GRP
1005
0
1002
}
1001
GENIUS_GENODEF_13
1002
{
1000
HIER
1070
    10
1002
}
1002
{
1000
MANEDIT
1070
     1
1002
}
1002
{
1000
NOSEL
1070
     0
1002
}
1002
{
1000
BEHIND
1070
     0
1002
}
1002
{
1000
OTHER
1070
     0
1002
}
1002
{
1000
REACTOR
1002
}
  0
POINT
  5
162D
330
1F
100
AcDbEntity
  8
0
 60
     1
100
AcDbPoint
 10
706.4647611624709
 20
381.7383160523581
 30
0.0
1001
GENIUS_GENOBJ-N-CRS_13
1002
{
1000
OWNER
1000
GEN
1002
}
1001
GENIUS_GENOLIS_13
1002
{
1000
ENT
1005
0
1005
0
1005
0
1005
162A
1002
}
1001
GENIUS_GENOENT_13
1002
{
1000
MYREF
1005
162D
1002
}
1002
{
1000
GRP
1005
0
1002
}
1001
GENIUS_GENODEF_13
1002
{
1000
HIER
1070
    10
1002
}
1002
{
1000
MANEDIT
1070
     1
1002
}
1002
{
1000
NOSEL
1070
     0
1002
}
1002
{
1000
BEHIND
1070
     0
1002
}
1002
{
1000
OTHER
1070
     0
1002
}
1002
{
1000
REACTOR
1002
}
  0
POINT
  5
162E
330
1F
100
AcDbEntity
  8
0
 60
     1
100
AcDbPoint
 10
712.8234348603077
 20
372.8627295737218
 30
0.0
1001
GENIUS_GENOBJ-N-CRS_13
1002
{
1000
OWNER
1000
GEN
1002
}
1001
GENIUS_GENOLIS_13
1002
{
1000
ENT
1005
0
1005
0
1005
0
1005
1629
1002
}
1001
GENIUS_GENOENT_13
1002
{
1000
MYREF
1005
162E
1002
}
1002
{
1000
GRP
1005
0
1002
}
1001
GENIUS_GENODEF_13
1002
{
1000
HIER
1070
    10
1002
}
1002
{
1000
MANEDIT
1070
     1
1002
}
1002
{
1000
NOSEL
1070
     0
1002
}
1002
{
1000
BEHIND
1070
     0
1002
}
1002
{
1000
OTHER
1070
     0
1002
}
1002
{
1000
REACTOR
1002
}
  0
LINE
  5
16DA
330
1F
100
AcDbEntity
  8
AM_7
100
AcDbLine
 10
2119.682271312494
 20
1470.541901188795
 30
0.0
 11
2128.257271312494
 21
1470.541901188795
 31
0.0
1001
GENIUS_GENOREF_13
1005
16DE
  0
LINE
  5
16DB
330
1F
100
AcDbEntity
  8
AM_7
100
AcDbLine
 10
2119.682271312494
 20
1470.541901188795
 30
0.0
 11
2119.682271312494
 21
1479.116901188795
 31
0.0
1001
GENIUS_GENOREF_13
1005
16DE
  0
LINE
  5
16DC
330
1F
100
AcDbEntity
  8
AM_7
100
AcDbLine
 10
2119.682271312494
 20
1470.541901188795
 30
0.0
 11
2111.107271312494
 21
1470.541901188795
 31
0.0
1001
GENIUS_GENOREF_13
1005
16DE
  0
LINE
  5
16DD
330
1F
100
AcDbEntity
  8
AM_7
100
AcDbLine
 10
2119.682271312494
 20
1470.541901188795
 30
0.0
 11
2119.682271312494
 21
1461.966901188795
 31
0.0
1001
GENIUS_GENOREF_13
1005
16DE
  0
POINT
  5
16DE
330
1F
100
AcDbEntity
  8
0
 60
     1
100
AcDbPoint
 10
0.0
 20
0.0
 30
0.0
1001
GENIUS_GENODEF_13
1002
{
1000
HIER
1070
    10
1002
}
1002
{
1000
MANEDIT
1070
     0
1002
}
1002
{
1000
NOSEL
1070
     0
1002
}
1002
{
1000
BEHIND
1070
     0
1002
}
1002
{
1000
OTHER
1070
     0
1002
}
1002
{
1000
REACTOR
1002
}
1001
GENIUS_GENOENT_13
1002
{
1000
MYREF
1005
16DE
1002
}
1002
{
1000
GRP
1005
0
1002
}
1001
GENIUS_GENOBJ-N-CRS_13
1002
{
1000
OWNER
1000
GEN
1002
}
1001
GENIUS_GENOLIS_13
1002
{
1000
ENT
1005
16DD
1005
16DC
1005
16DB
1005
16DA
1002
}
  0
ENDSEC
  0
SECTION
  2
OBJECTS
  0
DICTIONARY
  5
C
330
0
100
AcDbDictionary
281
     1
  3
ACAD_COLOR
350
BE
  3
ACAD_GROUP
350
D
  3
ACAD_LAYOUT
350
1A
  3
ACAD_MATERIAL
350
BD
  3
ACAD_MLINESTYLE
350
17
  3
ACAD_PLOTSETTINGS
350
19
  3
ACAD_PLOTSTYLENAME
350
E
  3
ACAD_TABLESTYLE
350
11A
  3
ACDBHEADERROUNDTRIPXREC
350
1802
  3
AcDbVariableDictionary
350
94
  3
AcmDictionary
350
5B
  3
AMG
350
41
  3
AMGSNAPSETTINGS
350
1B8
  3
DWGPROPS
350
1801
  0
DICTIONARY
  5
3F9
330
2
100
AcDbDictionary
280
     1
281
     1
  3
ACAD_LAYERFILTERS
360
5B7
  3
ACAD_LAYERSTATES
360
814
  3
ACLYDICTIONARY
360
5B6
  3
AMLAYER_GROUPCOLORS
360
BD3
  0
DICTIONARY
  5
8F
330
1F
100
AcDbDictionary
280
     1
281
     1
  3
ACAD_SORTENTS
360
C06
  0
DICTIONARY
  5
E72
330
E65
100
AcDbDictionary
280
     1
281
     1
  3
ACAD_DIMASSOC
360
E73
  0
DICTIONARY
  5
EAA
330
E9D
100
AcDbDictionary
280
     1
281
     1
  3
ACAD_DIMASSOC
360
EAB
  0
DICTIONARY
  5
ED0
330
EC3
100
AcDbDictionary
280
     1
281
     1
  3
ACAD_DIMASSOC
360
ED1
  0
DICTIONARY
  5
EF6
330
EE9
100
AcDbDictionary
280
     1
281
     1
  3
ACAD_DIMASSOC
360
EF7
  0
DICTIONARY
  5
F1C
330
F0F
100
AcDbDictionary
280
     1
281
     1
  3
ACAD_DIMASSOC
360
F1D
  0
DICTIONARY
  5
F44
330
F35
100
AcDbDictionary
280
     1
281
     1
  3
ACAD_DIMASSOC
360
F45
  0
DICTIONARY
  5
F6C
330
F5F
100
AcDbDictionary
280
     1
281
     1
  3
ACAD_DIMASSOC
360
F6D
  0
DICTIONARY
  5
F92
330
F85
100
AcDbDictionary
280
     1
281
     1
  3
ACAD_DIMASSOC
360
F93
  0
DICTIONARY
  5
FE3
330
FD6
100
AcDbDictionary
280
     1
281
     1
  3
ACAD_DIMASSOC
360
FE4
  0
DICTIONARY
  5
1009
330
FFC
100
AcDbDictionary
280
     1
281
     1
  3
ACAD_DIMASSOC
360
100A
  0
DICTIONARY
  5
102F
330
1022
100
AcDbDictionary
280
     1
281
     1
  3
ACAD_DIMASSOC
360
1030
  0
DICTIONARY
  5
BE
102
{ACAD_REACTORS
330
C
102
}
330
C
100
AcDbDictionary
281
     1
  0
DICTIONARY
  5
D
102
{ACAD_REACTORS
330
C
102
}
330
C
100
AcDbDictionary
281
     1
  0
DICTIONARY
  5
1A
102
{ACAD_REACTORS
330
C
102
}
330
C
100
AcDbDictionary
281
     1
  3
Model
350
22
  3
配置1
350
1E
  3
配置2
350
26
  0
DICTIONARY
  5
BD
102
{ACAD_REACTORS
330
C
102
}
330
C
100
AcDbDictionary
281
     1
  0
DICTIONARY
  5
17
102
{ACAD_REACTORS
330
C
102
}
330
C
100
AcDbDictionary
281
     1
  3
Standard
350
18
  0
DICTIONARY
  5
19
102
{ACAD_REACTORS
330
C
102
}
330
C
100
AcDbDictionary
281
     1
  0
ACDBDICTIONARYWDFLT
  5
E
102
{ACAD_REACTORS
330
C
102
}
330
C
100
AcDbDictionary
281
     1
  3
Normal
350
F
100
AcDbDictionaryWithDefault
340
F
  0
DICTIONARY
  5
11A
102
{ACAD_REACTORS
330
C
102
}
330
C
100
AcDbDictionary
281
     1
  3
Standard
350
11B
  0
DICTIONARY
  5
1802
102
{ACAD_REACTORS
330
C
102
}
330
C
100
AcDbDictionary
281
     1
  0
DICTIONARY
  5
94
102
{ACAD_REACTORS
330
C
102
}
330
C
100
AcDbDictionary
281
     1
  3
CTABLESTYLE
350
138
  3
DIMASSOC
350
96
  3
INDEXCTL
350
95
  3
PROJECTNAME
350
17FF
  0
DICTIONARY
  5
5B
102
{ACAD_REACTORS
330
C
102
}
330
C
100
AcDbDictionary
281
     1
  3
AcmBOM
350
1B5
  3
AcmStdDictionary
350
61
  3
AMDTSECTSYM_ARROWCOLOR
350
123
  0
DICTIONARY
  5
41
102
{ACAD_REACTORS
330
C
102
}
330
C
100
AcDbDictionary
281
     1
  0
DICTIONARY
  5
1B8
102
{ACAD_REACTORS
330
C
102
}
330
C
100
AcDbDictionary
281
     1
  0
XRECORD
  5
1801
102
{ACAD_REACTORS
330
C
102
}
330
C
100
AcDbXrecord
280
     1
  1
DWGPROPS COOKIE
  2

  3

  4

  6

  7

  8

  9

300
AmdtFileType=84
301
=
302
=
303
=
304
=
305
=
306
=
307
=
308
=
309
=
 40
0.1190448032407407
 41
2453809.488480533
 42
2453815.44512044
  1

 90
        1
  0
DICTIONARY
  5
5B7
102
{ACAD_REACTORS
330
3F9
102
}
330
3F9
100
AcDbDictionary
281
     1
  0
DICTIONARY
  5
814
102
{ACAD_REACTORS
330
3F9
102
}
330
3F9
100
AcDbDictionary
281
     1
  0
DICTIONARY
  5
5B6
102
{ACAD_REACTORS
330
3F9
102
}
330
3F9
100
AcDbDictionary
281
     1
1001
ACAD
1000
<All
  0
DICTIONARY
  5
BD3
102
{ACAD_REACTORS
330
3F9
102
}
330
3F9
100
AcDbDictionary
280
     1
281
     1
  0
SORTENTSTABLE
  5
C06
102
{ACAD_REACTORS
330
8F
102
}
330
8F
100
AcDbSortentsTable
330
1F
331
A59
  5
A59
331
A22
  5
A22
331
9E3
  5
9E3
331
A98
  5
A98
331
B4D
  5
B4D
331
B16
  5
B16
331
AD7
  5
AD7
331
B8C
  5
B8C
331
AA0
  5
AA0
331
9EB
  5
9EB
331
A61
  5
A61
331
B94
  5
B94
331
B1E
  5
B1E
331
ADF
  5
ADF
331
B55
  5
B55
331
AA8
  5
AA8
331
A69
  5
A69
331
9F3
  5
9F3
331
A32
  5
A32
331
B9C
  5
B9C
331
AE7
  5
AE7
331
B5D
  5
B5D
331
AB0
  5
AB0
331
A71
  5
A71
331
9FB
  5
9FB
331
A3A
  5
A3A
331
B65
  5
B65
331
AEF
  5
AEF
331
B2E
  5
B2E
331
BA4
  5
BA4
331
A79
  5
A79
331
A42
  5
A42
331
A03
  5
A03
331
AB8
  5
AB8
331
B6D
  5
B6D
331
B36
  5
B36
331
AF7
  5
AF7
331
C0B
  5
C0B
331
AC0
  5
AC0
331
A4A
  5
A4A
331
A0B
  5
A0B
331
A81
  5
A81
331
B3E
  5
B3E
331
AFF
  5
AFF
331
B75
  5
B75
331
C13
  5
C13
331
AC8
  5
AC8
331
A89
  5
A89
331
A13
  5
A13
331
A52
  5
A52
331
B7D
  5
B7D
331
B07
  5
B07
331
B46
  5
B46
331
A1B
  5
A1B
331
A91
  5
A91
331
C2B
  5
C2B
331
B0F
  5
B0F
331
B85
  5
B85
331
AD0
  5
AD0
331
A99
  5
A99
331
A5A
  5
A5A
331
9E4
  5
9E4
331
A23
  5
A23
331
B8D
  5
B8D
331
B4E
  5
B4E
331
AD8
  5
AD8
331
B17
  5
B17
331
C3B
  5
C3B
331
A62
  5
A62
331
9EC
  5
9EC
331
A2B
  5
A2B
331
AA1
  5
AA1
331
B56
  5
B56
331
AE0
  5
AE0
331
B95
  5
B95
331
A6A
  5
A6A
331
A33
  5
A33
331
9F4
  5
9F4
331
AA9
  5
AA9
331
B5E
  5
B5E
331
AE8
  5
AE8
331
B9D
  5
B9D
331
AB1
  5
AB1
331
A3B
  5
A3B
331
9FC
  5
9FC
331
A72
  5
A72
331
BA5
  5
BA5
331
B2F
  5
B2F
331
B66
  5
B66
331
AF0
  5
AF0
331
AB9
  5
AB9
331
A7A
  5
A7A
331
A04
  5
A04
331
A43
  5
A43
331
B6E
  5
B6E
331
AF8
  5
AF8
331
B37
  5
B37
331
C0C
  5
C0C
331
AC1
  5
AC1
331
A0C
  5
A0C
331
A82
  5
A82
331
B76
  5
B76
331
B00
  5
B00
331
B3F
  5
B3F
331
C14
  5
C14
331
AC9
  5
AC9
331
A8A
  5
A8A
331
A53
  5
A53
331
A14
  5
A14
331
B7E
  5
B7E
331
B47
  5
B47
331
B08
  5
B08
331
A1C
  5
A1C
331
A92
  5
A92
331
C2C
  5
C2C
331
B86
  5
B86
331
B10
  5
B10
331
AD1
  5
AD1
331
A5B
  5
A5B
331
A24
  5
A24
331
9E5
  5
9E5
331
A9A
  5
A9A
331
B8E
  5
B8E
331
B18
  5
B18
331
AD9
  5
AD9
331
B4F
  5
B4F
331
AA2
  5
AA2
331
A2C
  5
A2C
331
9ED
  5
9ED
331
A63
  5
A63
331
B96
  5
B96
331
B20
  5
B20
331
AE1
  5
AE1
331
B57
  5
B57
331
AAA
  5
AAA
331
A6B
  5
A6B
331
9F5
  5
9F5
331
A34
  5
A34
331
B9E
  5
B9E
331
AE9
  5
AE9
331
B5F
  5
B5F
331
A73
  5
A73
331
9FD
  5
9FD
331
A3C
  5
A3C
331
AB2
  5
AB2
331
B67
  5
B67
331
B30
  5
B30
331
AF1
  5
AF1
331
A7B
  5
A7B
331
A44
  5
A44
331
A05
  5
A05
331
ABA
  5
ABA
331
B6F
  5
B6F
331
B38
  5
B38
331
AF9
  5
AF9
331
C0D
  5
C0D
331
AC2
  5
AC2
331
A0D
  5
A0D
331
A83
  5
A83
331
B77
  5
B77
331
B01
  5
B01
331
B40
  5
B40
331
C15
  5
C15
331
ACA
  5
ACA
331
A8B
  5
A8B
331
A15
  5
A15
331
A54
  5
A54
331
C25
  5
C25
331
B09
  5
B09
331
B7F
  5
B7F
331
A1D
  5
A1D
331
A93
  5
A93
331
B87
  5
B87
331
B11
  5
B11
331
AD2
  5
AD2
331
B48
  5
B48
331
A9B
  5
A9B
331
A5C
  5
A5C
331
9E6
  5
9E6
331
A25
  5
A25
331
B8F
  5
B8F
331
B50
  5
B50
331
ADA
  5
ADA
331
B19
  5
B19
331
C3D
  5
C3D
331
A64
  5
A64
331
A2D
  5
A2D
331
9EE
  5
9EE
331
AA3
  5
AA3
331
C4D
  5
C4D
331
B58
  5
B58
331
AE2
  5
AE2
331
B97
  5
B97
331
A6C
  5
A6C
331
A35
  5
A35
331
9F6
  5
9F6
331
AAB
  5
AAB
331
B9F
  5
B9F
331
AEA
  5
AEA
331
B60
  5
B60
331
AB3
  5
AB3
331
A3D
  5
A3D
331
9FE
  5
9FE
331
A74
  5
A74
331
B31
  5
B31
331
AF2
  5
AF2
331
B68
  5
B68
331
ABB
  5
ABB
331
A7C
  5
A7C
331
A06
  5
A06
331
A45
  5
A45
331
B70
  5
B70
331
AFA
  5
AFA
331
B39
  5
B39
331
C0E
  5
C0E
331
A0E
  5
A0E
331
A84
  5
A84
331
AC3
  5
AC3
331
B78
  5
B78
331
B41
  5
B41
331
B02
  5
B02
331
C16
  5
C16
331
ACB
  5
ACB
331
A8C
  5
A8C
331
A55
  5
A55
331
A16
  5
A16
331
B80
  5
B80
331
B0A
  5
B0A
331
C26
  5
C26
331
A1E
  5
A1E
331
A94
  5
A94
331
B49
  5
B49
331
B12
  5
B12
331
AD3
  5
AD3
331
B88
  5
B88
331
A9C
  5
A9C
331
A26
  5
A26
331
9E7
  5
9E7
331
A5D
  5
A5D
331
B90
  5
B90
331
B1A
  5
B1A
331
ADB
  5
ADB
331
B51
  5
B51
331
C3E
  5
C3E
331
AA4
  5
AA4
331
A2E
  5
A2E
331
9EF
  5
9EF
331
A65
  5
A65
331
B98
  5
B98
331
AE3
  5
AE3
331
B59
  5
B59
331
C4E
  5
C4E
331
AAC
  5
AAC
331
A6D
  5
A6D
331
9F7
  5
9F7
331
A36
  5
A36
331
BA0
  5
BA0
331
AEB
  5
AEB
331
B61
  5
B61
331
A75
  5
A75
331
A3E
  5
A3E
331
9FF
  5
9FF
331
AB4
  5
AB4
331
B69
  5
B69
331
B32
  5
B32
331
AF3
  5
AF3
331
A7D
  5
A7D
331
A46
  5
A46
331
A07
  5
A07
331
ABC
  5
ABC
331
C0F
  5
C0F
331
B3A
  5
B3A
331
AFB
  5
AFB
331
B71
  5
B71
331
AC4
  5
AC4
331
A0F
  5
A0F
331
A85
  5
A85
331
B79
  5
B79
331
B03
  5
B03
331
B42
  5
B42
331
C17
  5
C17
331
ACC
  5
ACC
331
A8D
  5
A8D
331
A17
  5
A17
331
A56
  5
A56
331
C27
  5
C27
331
B0B
  5
B0B
331
B81
  5
B81
331
A1F
  5
A1F
331
A95
  5
A95
331
B89
  5
B89
331
B4A
  5
B4A
331
AD4
  5
AD4
331
B13
  5
B13
331
A9D
  5
A9D
331
9E8
  5
9E8
331
A5E
  5
A5E
331
B91
  5
B91
331
B52
  5
B52
331
ADC
  5
ADC
331
B1B
  5
B1B
331
A66
  5
A66
331
A2F
  5
A2F
331
9F0
  5
9F0
331
AA5
  5
AA5
331
B5A
  5
B5A
331
AE4
  5
AE4
331
B99
  5
B99
331
C4F
  5
C4F
331
AAD
  5
AAD
331
A37
  5
A37
331
9F8
  5
9F8
331
A6E
  5
A6E
331
BA1
  5
BA1
331
AEC
  5
AEC
331
B62
  5
B62
331
AB5
  5
AB5
331
A3F
  5
A3F
331
A76
  5
A76
331
A00
  5
A00
331
B33
  5
B33
331
ABD
  5
ABD
331
A7E
  5
A7E
331
A08
  5
A08
331
A47
  5
A47
331
AF4
  5
AF4
331
B6A
  5
B6A
331
C08
  5
C08
331
B72
  5
B72
331
A86
  5
A86
331
A4F
  5
A4F
331
A10
  5
A10
331
AC5
  5
AC5
331
AFC
  5
AFC
331
B3B
  5
B3B
331
C10
  5
C10
331
B7A
  5
B7A
331
B43
  5
B43
331
ACD
  5
ACD
331
A8E
  5
A8E
331
A57
  5
A57
331
A18
  5
A18
331
B04
  5
B04
331
CC7
  5
CC7
331
C28
  5
C28
331
A96
  5
A96
331
B0C
  5
B0C
331
B82
  5
B82
331
A20
  5
A20
331
B4B
  5
B4B
331
B14
  5
B14
331
AD5
  5
AD5
331
B8A
  5
B8A
331
A9E
  5
A9E
331
9E9
  5
9E9
331
A5F
  5
A5F
331
B92
  5
B92
331
B1C
  5
B1C
331
ADD
  5
ADD
331
B53
  5
B53
331
AA6
  5
AA6
331
A30
  5
A30
331
9F1
  5
9F1
331
A67
  5
A67
331
B9A
  5
B9A
331
AE5
  5
AE5
331
B5B
  5
B5B
331
C50
  5
C50
331
AAE
  5
AAE
331
A6F
  5
A6F
331
9F9
  5
9F9
331
A38
  5
A38
331
BA2
  5
BA2
331
B63
  5
B63
331
AED
  5
AED
331
B2C
  5
B2C
331
C88
  5
C88
331
A77
  5
A77
331
AB6
  5
AB6
331
A40
  5
A40
331
A01
  5
A01
331
B6B
  5
B6B
331
B34
  5
B34
331
AF5
  5
AF5
331
C09
  5
C09
331
ABE
  5
ABE
331
A48
  5
A48
331
A09
  5
A09
331
A7F
  5
A7F
331
C11
  5
C11
331
B3C
  5
B3C
331
AFD
  5
AFD
331
B73
  5
B73
331
AC6
  5
AC6
331
A87
  5
A87
331
A11
  5
A11
331
A50
  5
A50
331
B7B
  5
B7B
331
B05
  5
B05
331
B44
  5
B44
331
ACE
  5
ACE
331
A19
  5
A19
331
A8F
  5
A8F
331
B0D
  5
B0D
331
B83
  5
B83
331
A97
  5
A97
331
A58
  5
A58
331
A21
  5
A21
331
B8B
  5
B8B
331
B4C
  5
B4C
331
AD6
  5
AD6
331
B15
  5
B15
331
A9F
  5
A9F
331
9EA
  5
9EA
331
A60
  5
A60
331
B54
  5
B54
331
ADE
  5
ADE
331
B1D
  5
B1D
331
B93
  5
B93
331
A68
  5
A68
331
A31
  5
A31
331
9F2
  5
9F2
331
AA7
  5
AA7
331
B5C
  5
B5C
331
AE6
  5
AE6
331
B9B
  5
B9B
331
AAF
  5
AAF
331
A39
  5
A39
331
9FA
  5
9FA
331
A70
  5
A70
331
BA3
  5
BA3
331
B2D
  5
B2D
331
AEE
  5
AEE
331
B64
  5
B64
331
AB7
  5
AB7
331
A41
  5
A41
331
A02
  5
A02
331
A78
  5
A78
331
AF6
  5
AF6
331
B6C
  5
B6C
331
C0A
  5
C0A
331
ABF
  5
ABF
331
A80
  5
A80
331
A0A
  5
A0A
331
A49
  5
A49
331
B74
  5
B74
331
AFE
  5
AFE
331
B3D
  5
B3D
331
C12
  5
C12
331
A88
  5
A88
331
A51
  5
A51
331
A12
  5
A12
331
AC7
  5
AC7
331
B7C
  5
B7C
331
B45
  5
B45
331
B06
  5
B06
331
ACF
  5
ACF
331
A1A
  5
A1A
331
A90
  5
A90
331
C2A
  5
C2A
331
B0E
  5
B0E
331
B84
  5
B84
  0
DIMASSOC
  5
E73
102
{ACAD_REACTORS
330
E72
102
}
330
E72
100
AcDbDimAssoc
330
E65
 90
        3
 70
     0
 71
     0
  1
AcDbOsnapPointRef
 72
    13
331
C13
 73
     0
 91
        0
 40
0.0
 10
0.0
 20
0.0
 30
2.000000000000000E+50
 75
     0
  1
AcDbOsnapPointRef
 72
    13
331
C0B
 73
     0
 91
        0
 40
0.0
 10
0.0
 20
0.0
 30
2.000000000000000E+50
 75
     0
  0
DIMASSOC
  5
EAB
102
{ACAD_REACTORS
330
EAA
102
}
330
EAA
100
AcDbDimAssoc
330
E9D
 90
        3
 70
     0
 71
     0
  1
AcDbOsnapPointRef
 72
    13
331
A48
 73
     0
 91
        0
 40
0.0
 10
0.0
 20
0.0
 30
2.000000000000000E+50
 75
     0
  1
AcDbOsnapPointRef
 72
    13
331
A45
 73
     0
 91
        0
 40
0.0
 10
0.0
 20
0.0
 30
2.000000000000000E+50
 75
     0
  0
DIMASSOC
  5
ED1
102
{ACAD_REACTORS
330
ED0
102
}
330
ED0
100
AcDbDimAssoc
330
EC3
 90
        3
 70
     0
 71
     0
  1
AcDbOsnapPointRef
 72
     1
331
C16
 73
     0
 91
        0
 40
0.0
 10
0.0
 20
0.0
 30
2.000000000000000E+50
 75
     0
  1
AcDbOsnapPointRef
 72
     1
331
C0E
 73
     0
 91
        0
 40
0.0
 10
0.0
 20
0.0
 30
2.000000000000000E+50
 75
     0
  0
DIMASSOC
  5
EF7
102
{ACAD_REACTORS
330
EF6
102
}
330
EF6
100
AcDbDimAssoc
330
EE9
 90
        3
 70
     0
 71
     0
  1
AcDbOsnapPointRef
 72
    13
331
A46
 73
     0
 91
        0
 40
0.0
 10
0.0
 20
0.0
 30
2.000000000000000E+50
 75
     0
  1
AcDbOsnapPointRef
 72
     1
331
A49
 73
     0
 91
        0
 40
0.0
 10
0.0
 20
0.0
 30
2.000000000000000E+50
 75
     0
  0
DIMASSOC
  5
F1D
102
{ACAD_REACTORS
330
F1C
102
}
330
F1C
100
AcDbDimAssoc
330
F0F
 90
        3
 70
     0
 71
     0
  1
AcDbOsnapPointRef
 72
     1
331
A16
 73
     0
 91
        0
 40
0.0
 10
0.0
 20
0.0
 30
2.000000000000000E+50
 75
     0
  1
AcDbOsnapPointRef
 72
     1
331
A19
 73
     0
 91
        0
 40
0.0
 10
0.0
 20
0.0
 30
2.000000000000000E+50
 75
     0
  0
DIMASSOC
  5
F45
102
{ACAD_REACTORS
330
F44
102
}
330
F44
100
AcDbDimAssoc
330
F35
 90
        3
 70
     0
 71
     0
  1
AcDbOsnapPointRef
 72
     1
331
A19
 73
     0
 91
        0
 40
0.0
 10
0.0
 20
0.0
 30
2.000000000000000E+50
 75
     0
  1
AcDbOsnapPointRef
 72
    13
331
A3F
 73
     0
 91
        0
 40
0.0
 10
0.0
 20
0.0
 30
2.000000000000000E+50
 75
     0
  0
DIMASSOC
  5
F6D
102
{ACAD_REACTORS
330
F6C
102
}
330
F6C
100
AcDbDimAssoc
330
F5F
 90
        3
 70
     0
 71
     0
  1
AcDbOsnapPointRef
 72
    13
331
A3F
 73
     0
 91
        0
 40
0.0
 10
0.0
 20
0.0
 30
2.000000000000000E+50
 75
     0
  1
AcDbOsnapPointRef
 72
    13
331
A40
 73
     0
 91
        0
 40
0.0
 10
0.0
 20
0.0
 30
2.000000000000000E+50
 75
     0
  0
DIMASSOC
  5
F93
102
{ACAD_REACTORS
330
F92
102
}
330
F92
100
AcDbDimAssoc
330
F85
 90
        3
 70
     0
 71
     0
  1
AcDbOsnapPointRef
 72
     1
331
A16
 73
     0
 91
        0
 40
0.0
 10
0.0
 20
0.0
 30
2.000000000000000E+50
 75
     0
  1
AcDbOsnapPointRef
 72
    13
331
A40
 73
     0
 91
        0
 40
0.0
 10
0.0
 20
0.0
 30
2.000000000000000E+50
 75
     0
  0
DIMASSOC
  5
FE4
102
{ACAD_REACTORS
330
FE3
102
}
330
FE3
100
AcDbDimAssoc
330
FD6
 90
        3
 70
     0
 71
     0
  1
AcDbOsnapPointRef
 72
     1
331
D01
 73
     0
 91
        0
 40
0.0
 10
0.0
 20
0.0
 30
2.000000000000000E+50
 75
     0
  1
AcDbOsnapPointRef
 72
     1
331
CFA
 73
     0
 91
        0
 40
0.0
 10
0.0
 20
0.0
 30
2.000000000000000E+50
 75
     0
  0
DIMASSOC
  5
100A
102
{ACAD_REACTORS
330
1009
102
}
330
1009
100
AcDbDimAssoc
330
FFC
 90
        3
 70
     0
 71
     0
  1
AcDbOsnapPointRef
 72
    13
331
AF0
 73
     0
 91
        0
 40
0.0
 10
0.0
 20
0.0
 30
2.000000000000000E+50
 75
     0
  1
AcDbOsnapPointRef
 72
     6
331
A61
 73
     0
 91
        0
 40
0.0000000000003048
 10
0.0
 20
0.0
 30
0.0
332
AE1
 74
     0
 92
        0
 75
     0
  0
DIMASSOC
  5
1030
102
{ACAD_REACTORS
330
102F
102
}
330
102F
100
AcDbDimAssoc
330
1022
 90
        3
 70
     0
 71
     0
  1
AcDbOsnapPointRef
 72
    13
331
AE1
 73
     0
 91
        0
 40
0.0
 10
0.0
 20
0.0
 30
2.000000000000000E+50
 75
     0
  1
AcDbOsnapPointRef
 72
    13
331
AD6
 73
     0
 91
        0
 40
0.0
 10
0.0
 20
0.0
 30
2.000000000000000E+50
 75
     0
  0
LAYOUT
  5
22
102
{ACAD_XDICTIONARY
360
1805
102
}
102
{ACAD_REACTORS
330
1A
102
}
330
1A
100
AcDbPlotSettings
  1

  2
\\RD\EPSON Stylus C63 Series單色
  4
A4
  6

 40
3.757083177566528
 41
3.757076978683471
 42
3.757080078125
 43
3.757080078125
 44
209.9733276367187
 45
296.9683227539062
 46
0.0
 47
0.0
 48
0.0
 49
0.0
140
0.0
141
0.0
142
1.0
143
0.3405120737814363
 70
 11952
 72
     1
 73
     0
 74
     0
  7
單色出圖.ctb
 75
     0
147
2.936753428137963
148
-2047.07469463503
149
-1261.649717473083
100
AcDbLayout
  1
Model
 70
     1
 71
     0
 10
0.0
 20
0.0
 11
12.0
 21
9.0
 12
0.0
 22
0.0
 32
0.0
 14
0.0
 24
0.0
 34
0.0
 15
0.0
 25
0.0
 35
0.0
146
0.0
 13
0.0
 23
0.0
 33
0.0
 16
1.0
 26
0.0
 36
0.0
 17
0.0
 27
1.0
 37
0.0
 76
     0
330
1F
1001
ACAD_PSEXT
1000
\\RD\EPSON Stylus C63 Series單色
1000
EPSON Stylus C63 Series
1000
\\RD
1000

1070
     0
  0
LAYOUT
  5
1E
102
{ACAD_XDICTIONARY
360
1803
102
}
102
{ACAD_REACTORS
330
1A
102
}
330
1A
100
AcDbPlotSettings
  1

  2

  4

  6

 40
0.0
 41
0.0
 42
0.0
 43
0.0
 44
0.0
 45
0.0
 46
0.0
 47
0.0
 48
0.0
 49
0.0
140
0.0
141
0.0
142
1.0
143
1.0
 70
   688
 72
     0
 73
     0
 74
     5
  7
單色出圖.ctb
 75
    16
147
1.0
148
0.0
149
0.0
100
AcDbLayout
  1
配置1
 70
     1
 71
     1
 10
0.0
 20
0.0
 11
420.0
 21
297.0
 12
0.0
 22
0.0
 32
0.0
 14
1.000000000000000E+20
 24
1.000000000000000E+20
 34
1.000000000000000E+20
 15
-1.000000000000000E+20
 25
-1.000000000000000E+20
 35
-1.000000000000000E+20
146
0.0
 13
0.0
 23
0.0
 33
0.0
 16
1.0
 26
0.0
 36
0.0
 17
0.0
 27
1.0
 37
0.0
 76
     0
330
1B
  0
LAYOUT
  5
26
102
{ACAD_XDICTIONARY
360
1807
102
}
102
{ACAD_REACTORS
330
1A
102
}
330
1A
100
AcDbPlotSettings
  1

  2

  4

  6

 40
0.0
 41
0.0
 42
0.0
 43
0.0
 44
0.0
 45
0.0
 46
0.0
 47
0.0
 48
0.0
 49
0.0
140
0.0
141
0.0
142
1.0
143
1.0
 70
   688
 72
     0
 73
     0
 74
     5
  7
單色出圖.ctb
 75
    16
147
1.0
148
0.0
149
0.0
100
AcDbLayout
  1
配置2
 70
     1
 71
     2
 10
0.0
 20
0.0
 11
12.0
 21
9.0
 12
0.0
 22
0.0
 32
0.0
 14
0.0
 24
0.0
 34
0.0
 15
0.0
 25
0.0
 35
0.0
146
0.0
 13
0.0
 23
0.0
 33
0.0
 16
1.0
 26
0.0
 36
0.0
 17
0.0
 27
1.0
 37
0.0
 76
     0
330
23
  0
MLINESTYLE
  5
18
102
{ACAD_REACTORS
330
17
102
}
330
17
100
AcDbMlineStyle
  2
STANDARD
 70
     0
  3

 62
   256
 51
90.0
 52
90.0
 71
     2
 49
0.5
 62
   256
  6
BYLAYER
 49
-0.5
 62
   256
  6
BYLAYER
  0
ACDBPLACEHOLDER
  5
F
102
{ACAD_REACTORS
330
E
102
}
330
E
  0
TABLESTYLE
  5
11B
102
{ACAD_REACTORS
330
11A
102
}
330
11A
100
AcDbTableStyle
  3
Standard
 70
     0
 71
     0
 40
1.5
 41
1.5
280
     0
281
     0
  7
STANDARD
140
4.5
170
     2
 62
     0
 63
     7
283
     0
274
    -2
284
     1
 64
     0
275
    -2
285
     1
 65
     0
276
    -2
286
     1
 66
     0
277
    -2
287
     1
 67
     0
278
    -2
288
     1
 68
     0
279
    -2
289
     1
 69
     0
  7
STANDARD
140
6.0
170
     5
 62
     0
 63
     7
283
     0
274
    -2
284
     1
 64
     0
275
    -2
285
     1
 65
     0
276
    -2
286
     1
 66
     0
277
    -2
287
     1
 67
     0
278
    -2
288
     1
 68
     0
279
    -2
289
     1
 69
     0
  7
STANDARD
140
4.5
170
     5
 62
     0
 63
     7
283
     0
274
    -2
284
     1
 64
     0
275
    -2
285
     1
 65
     0
276
    -2
286
     1
 66
     0
277
    -2
287
     1
 67
     0
278
    -2
288
     1
 68
     0
279
    -2
289
     1
 69
     0
  0
DICTIONARYVAR
  5
138
102
{ACAD_REACTORS
330
94
102
}
330
94
100
DictionaryVariables
280
     0
  1
STANDARD
  0
DICTIONARYVAR
  5
96
102
{ACAD_REACTORS
330
94
102
}
330
94
100
DictionaryVariables
280
     0
  1
2
  0
DICTIONARYVAR
  5
95
102
{ACAD_REACTORS
330
94
102
}
330
94
100
DictionaryVariables
280
     0
  1
0
  0
DICTIONARYVAR
  5
17FF
102
{ACAD_REACTORS
330
94
102
}
330
94
100
DictionaryVariables
280
     0
  1

  0
DICTIONARY
  5
1B5
102
{ACAD_REACTORS
330
5B
102
}
330
5B
100
AcDbDictionary
281
     1
  0
DICTIONARY
  5
61
102
{ACAD_REACTORS
330
5B
102
}
330
5B
100
AcDbDictionary
281
     1
  0
XRECORD
  5
123
102
{ACAD_REACTORS
330
5B
102
}
330
5B
100
AcDbXrecord
280
     1
 90
-1023410169
  0
DICTIONARY
  5
1805
330
22
100
AcDbDictionary
280
     1
281
     1
  3
ACAD_XREC_ROUNDTRIP
360
1806
  0
DICTIONARY
  5
1803
330
1E
100
AcDbDictionary
280
     1
281
     1
  3
ACAD_XREC_ROUNDTRIP
360
1804
  0
DICTIONARY
  5
1807
330
26
100
AcDbDictionary
280
     1
281
     1
  3
ACAD_XREC_ROUNDTRIP
360
1808
  0
XRECORD
  5
1806
102
{ACAD_REACTORS
330
1805
102
}
330
1805
100
AcDbXrecord
280
     1
102
SHADEPLOT
 70
     0
102
SHADEPLOTRESLEVEL
 70
     2
102
SHADEPLOTCUSTOMDPI
 70
   300
  0
XRECORD
  5
1804
102
{ACAD_REACTORS
330
1803
102
}
330
1803
100
AcDbXrecord
280
     1
102
SHADEPLOT
 70
     0
102
SHADEPLOTRESLEVEL
 70
     2
102
SHADEPLOTCUSTOMDPI
 70
   300
  0
XRECORD
  5
1808
102
{ACAD_REACTORS
330
1807
102
}
330
1807
100
AcDbXrecord
280
     1
102
SHADEPLOT
 70
     0
102
SHADEPLOTRESLEVEL
 70
     2
102
SHADEPLOTCUSTOMDPI
 70
   300
  0
ENDSEC
  0
EOF
