  0
SECTION
  2
HEADER
  9
$ACADVER
  1
AC1015
  9
$ACADMAINTVER
 70
    20
  9
$DWGCODEPAGE
  3
ANSI_950
  9
$INSBASE
 10
0.0
 20
0.0
 30
0.0
  9
$EXTMIN
 10
2398.263576587042
 20
1371.465667427961
 30
-0.0100402714506345
  9
$EXTMAX
 10
2805.086253409818
 20
1894.349956320042
 30
266.4174077592819
  9
$LIMMIN
 10
0.0
 20
0.0
  9
$LIMMAX
 10
420.0
 20
297.0
  9
$ORTHOMODE
 70
     1
  9
$REGENMODE
 70
     1
  9
$FILLMODE
 70
     1
  9
$QTEXTMODE
 70
     0
  9
$MIRRTEXT
 70
     1
  9
$LTSCALE
 40
1.0
  9
$ATTMODE
 70
     1
  9
$TEXTSIZE
 40
3.0
  9
$TRACEWID
 40
1.0
  9
$TEXTSTYLE
  7
CHINESET
  9
$CLAYER
  8
0
  9
$CELTYPE
  6
ByLayer
  9
$CECOLOR
 62
   256
  9
$CELTSCALE
 40
1.0
  9
$DISPSILH
 70
     0
  9
$DIMSCALE
 40
1.0
  9
$DIMASZ
 40
3.0
  9
$DIMEXO
 40
1.0
  9
$DIMDLI
 40
10.0
  9
$DIMRND
 40
0.0
  9
$DIMDLE
 40
0.0
  9
$DIMEXE
 40
1.5
  9
$DIMTP
 40
0.1
  9
$DIMTM
 40
0.1
  9
$DIMTXT
 40
3.0
  9
$DIMCEN
 40
0.0
  9
$DIMTSZ
 40
0.0
  9
$DIMTOL
 70
     0
  9
$DIMLIM
 70
     0
  9
$DIMTIH
 70
     0
  9
$DIMTOH
 70
     0
  9
$DIMSE1
 70
     0
  9
$DIMSE2
 70
     0
  9
$DIMTAD
 70
     1
  9
$DIMZIN
 70
     8
  9
$DIMBLK
  1

  9
$DIMASO
 70
     1
  9
$DIMSHO
 70
     1
  9
$DIMPOST
  1

  9
$DIMAPOST
  1
"
  9
$DIMALT
 70
     0
  9
$DIMALTD
 70
     2
  9
$DIMALTF
 40
0.0393701
  9
$DIMLFAC
 40
1.0
  9
$DIMTOFL
 70
     1
  9
$DIMTVP
 40
0.0
  9
$DIMTIX
 70
     0
  9
$DIMSOXD
 70
     0
  9
$DIMSAH
 70
     0
  9
$DIMBLK1
  1

  9
$DIMBLK2
  1

  9
$DIMSTYLE
  2
AM_ISO
  9
$DIMCLRD
 70
   256
  9
$DIMCLRE
 70
   256
  9
$DIMCLRT
 70
   256
  9
$DIMTFAC
 40
0.6
  9
$DIMGAP
 40
1.0
  9
$DIMJUST
 70
     0
  9
$DIMSD1
 70
     0
  9
$DIMSD2
 70
     0
  9
$DIMTOLJ
 70
     0
  9
$DIMTZIN
 70
     8
  9
$DIMALTZ
 70
     0
  9
$DIMALTTZ
 70
     0
  9
$DIMUPT
 70
     0
  9
$DIMDEC
 70
     2
  9
$DIMTDEC
 70
     8
  9
$DIMALTU
 70
     2
  9
$DIMALTTD
 70
     2
  9
$DIMTXSTY
  7
STANDARD
  9
$DIMAUNIT
 70
     0
  9
$DIMADEC
 70
     0
  9
$DIMALTRND
 40
0.0
  9
$DIMAZIN
 70
     2
  9
$DIMDSEP
 70
    46
  9
$DIMATFIT
 70
     3
  9
$DIMFRAC
 70
     0
  9
$DIMLDRBLK
  1

  9
$DIMLUNIT
 70
     2
  9
$DIMLWD
 70
    -1
  9
$DIMLWE
 70
    -1
  9
$DIMTMOVE
 70
     0
  9
$LUNITS
 70
     2
  9
$LUPREC
 70
     2
  9
$SKETCHINC
 40
1.0
  9
$FILLETRAD
 40
2.5
  9
$AUNITS
 70
     0
  9
$AUPREC
 70
     0
  9
$MENU
  1
.
  9
$ELEVATION
 40
0.0
  9
$PELEVATION
 40
0.0
  9
$THICKNESS
 40
0.0
  9
$LIMCHECK
 70
     0
  9
$CHAMFERA
 40
2.5
  9
$CHAMFERB
 40
2.5
  9
$CHAMFERC
 40
20.0
  9
$CHAMFERD
 40
0.0
  9
$SKPOLY
 70
     0
  9
$TDCREATE
 40
2453809.488480533
  9
$TDUCREATE
 40
2453809.155147199
  9
$TDUPDATE
 40
2453815.444486030
  9
$TDUUPDATE
 40
2453815.111152697
  9
$TDINDWG
 40
0.1976935301
  9
$TDUSRTIMER
 40
0.1976935301
  9
$USRTIMER
 70
     1
  9
$ANGBASE
 50
0.0
  9
$ANGDIR
 70
     0
  9
$PDMODE
 70
     0
  9
$PDSIZE
 40
0.0
  9
$PLINEWID
 40
0.0
  9
$SPLFRAME
 70
     0
  9
$SPLINETYPE
 70
     6
  9
$SPLINESEGS
 70
     8
  9
$HANDSEED
  5
213D
  9
$SURFTAB1
 70
     6
  9
$SURFTAB2
 70
     6
  9
$SURFTYPE
 70
     6
  9
$SURFU
 70
     6
  9
$SURFV
 70
     6
  9
$UCSBASE
  2

  9
$UCSNAME
  2

  9
$UCSORG
 10
0.0
 20
0.0
 30
0.0
  9
$UCSXDIR
 10
1.0
 20
0.0
 30
0.0
  9
$UCSYDIR
 10
0.0
 20
1.0
 30
0.0
  9
$UCSORTHOREF
  2

  9
$UCSORTHOVIEW
 70
     0
  9
$UCSORGTOP
 10
0.0
 20
0.0
 30
0.0
  9
$UCSORGBOTTOM
 10
0.0
 20
0.0
 30
0.0
  9
$UCSORGLEFT
 10
0.0
 20
0.0
 30
0.0
  9
$UCSORGRIGHT
 10
0.0
 20
0.0
 30
0.0
  9
$UCSORGFRONT
 10
0.0
 20
0.0
 30
0.0
  9
$UCSORGBACK
 10
0.0
 20
0.0
 30
0.0
  9
$PUCSBASE
  2

  9
$PUCSNAME
  2

  9
$PUCSORG
 10
0.0
 20
0.0
 30
0.0
  9
$PUCSXDIR
 10
1.0
 20
0.0
 30
0.0
  9
$PUCSYDIR
 10
0.0
 20
1.0
 30
0.0
  9
$PUCSORTHOREF
  2

  9
$PUCSORTHOVIEW
 70
     0
  9
$PUCSORGTOP
 10
0.0
 20
0.0
 30
0.0
  9
$PUCSORGBOTTOM
 10
0.0
 20
0.0
 30
0.0
  9
$PUCSORGLEFT
 10
0.0
 20
0.0
 30
0.0
  9
$PUCSORGRIGHT
 10
0.0
 20
0.0
 30
0.0
  9
$PUCSORGFRONT
 10
0.0
 20
0.0
 30
0.0
  9
$PUCSORGBACK
 10
0.0
 20
0.0
 30
0.0
  9
$USERI1
 70
     0
  9
$USERI2
 70
     0
  9
$USERI3
 70
     0
  9
$USERI4
 70
     0
  9
$USERI5
 70
     0
  9
$USERR1
 40
0.0
  9
$USERR2
 40
0.0
  9
$USERR3
 40
0.0
  9
$USERR4
 40
0.0
  9
$USERR5
 40
0.0
  9
$WORLDVIEW
 70
     1
  9
$SHADEDGE
 70
     3
  9
$SHADEDIF
 70
    70
  9
$TILEMODE
 70
     1
  9
$MAXACTVP
 70
    64
  9
$PINSBASE
 10
0.0
 20
0.0
 30
0.0
  9
$PLIMCHECK
 70
     0
  9
$PEXTMIN
 10
1.000000000000000E+20
 20
1.000000000000000E+20
 30
1.000000000000000E+20
  9
$PEXTMAX
 10
-1.000000000000000E+20
 20
-1.000000000000000E+20
 30
-1.000000000000000E+20
  9
$PLIMMIN
 10
0.0
 20
0.0
  9
$PLIMMAX
 10
420.0
 20
297.0
  9
$UNITMODE
 70
     0
  9
$VISRETAIN
 70
     1
  9
$PLINEGEN
 70
     0
  9
$PSLTSCALE
 70
     1
  9
$TREEDEPTH
 70
  3020
  9
$CMLSTYLE
  2
Standard
  9
$CMLJUST
 70
     0
  9
$CMLSCALE
 40
20.0
  9
$PROXYGRAPHICS
 70
     1
  9
$MEASUREMENT
 70
     1
  9
$CELWEIGHT
370
    -1
  9
$ENDCAPS
280
     0
  9
$JOINSTYLE
280
     0
  9
$LWDISPLAY
290
     0
  9
$INSUNITS
 70
     4
  9
$HYPERLINKBASE
  1

  9
$STYLESHEET
  1
彩色出圖.ctb
  9
$XEDIT
290
     1
  9
$CEPSNTYPE
380
     0
  9
$PSTYLEMODE
290
     1
  9
$FINGERPRINTGUID
  2
{5D7CF7E5-09B4-4001-B38A-9C16224019A8}
  9
$VERSIONGUID
  2
{2AE6958D-D97E-432D-B30B-3ADD5DCACFDB}
  9
$EXTNAMES
290
     1
  9
$PSVPSCALE
 40
0.0
  9
$OLESTARTUP
290
     0
  0
ENDSEC
  0
SECTION
  2
CLASSES
  0
CLASS
  1
ACDBDICTIONARYWDFLT
  2
AcDbDictionaryWithDefault
  3
ObjectDBX Classes
 90
        0
280
     0
281
     0
  0
CLASS
  1
ACDBPLACEHOLDER
  2
AcDbPlaceHolder
  3
ObjectDBX Classes
 90
        0
280
     0
281
     0
  0
CLASS
  1
LAYOUT
  2
AcDbLayout
  3
ObjectDBX Classes
 90
        0
280
     0
281
     0
  0
CLASS
  1
ACME_DOCUMENT
  2
AcMeDbDoc
  3
AcMeServices
 90
        0
280
     0
281
     0
  0
CLASS
  1
AMGSETTINGSOBJ
  2
AmgSettingsObj
  3
"AcadM|Product Description: AutoCAD Mechanical 2000|Company: Autodesk"
 90
        0
280
     0
281
     0
  0
CLASS
  1
ACMESCOPE
  2
AcMeScope
  3
AcMeServices
 90
        0
280
     0
281
     0
  0
CLASS
  1
ACMECOMMANDHISTORY
  2
AcMeCommandHistory
  3
AcMeServices
 90
        0
280
     0
281
     0
  0
CLASS
  1
ACIMSYSVARMAN
  2
AcImSysVarManager
  3
AcMeServices
 90
        0
280
     0
281
     0
  0
CLASS
  1
ACIMREALSYSVAR
  2
AcImRealSysVar
  3
AcMeServices
 90
        0
280
     0
281
     0
  0
CLASS
  1
ACIMINTSYSVAR
  2
AcImIntSysVar
  3
AcMeServices
 90
        0
280
     0
281
     0
  0
CLASS
  1
ACMEDRAWINGMAN
  2
AcMeDrawingMan
  3
AcMeServices
 90
        0
280
     0
281
     0
  0
CLASS
  1
ACMEVIEW
  2
AcMeView
  3
AcMeServices
 90
        0
280
     0
281
     0
  0
CLASS
  1
ACDBENTITYCACHE
  2
AcMeEntityCache
  3
AcMeServices
 90
        0
280
     0
281
     0
  0
CLASS
  1
GSMANAGER
  2
AcMeGSManager
  3
AcMeServices
 90
        0
280
     0
281
     0
  0
CLASS
  1
AMDTINTERNALREACTOR
  2
AmdtInternalReactor
  3
AcMeServices
 90
        0
280
     0
281
     0
  0
CLASS
  1
ACMESTATEMGR
  2
AcMeStateMgr
  3
AcMeServices
 90
        0
280
     0
281
     0
  0
CLASS
  1
ACGREFMASTER
  2
AcGrefMaster
  3
AcAttribServices
 90
        0
280
     0
281
     0
  0
CLASS
  1
ACME_DATABASE
  2
AcMeDbDatabase
  3
AcMeServices
 90
        0
280
     0
281
     0
  0
CLASS
  1
ACRFINSADJUSTERMGR
  2
AcRfInsAdjusterMgr
  3
AcMeServices
 90
        0
280
     0
281
     0
  0
CLASS
  1
ACGREFACADMASTER
  2
AcGrefacadMaster
  3
AcGrefServices
 90
        0
280
     0
281
     0
  0
CLASS
  1
AMIMASTER
  2
AmiMaster
  3
AmiServices
 90
        0
280
     0
281
     0
  0
CLASS
  1
ACMDATADICTIONARY
  2
AcmDataDictionary
  3
"AcmSymBB|Product Description: AutoCAD Mechanical 2004 DX|Company: Autodesk"
 90
        0
280
     0
281
     0
  0
CLASS
  1
ACMDATAENTRYBLOCK
  2
AcmDataEntryBlock
  3
"AcmSymBB|Product Description: AutoCAD Mechanical 2004 DX|Company: Autodesk"
 90
        0
280
     0
281
     0
  0
CLASS
  1
ACIMSTRSYSVAR
  2
AcImStrSysVar
  3
AcMeServices
 90
        0
280
     0
281
     0
  0
CLASS
  1
ACMSTANDARDISO
  2
AcmStandardISO
  3
"Amdt_StdImp|Product Description: AutoCAD Mechanical 2004 DX|Company: Autodesk"
 90
        0
280
     0
281
     0
  0
CLASS
  1
AMGOBJPROPCFG
  2
AmgObjPropCfg
  3
"AmgLay|Product Description: AutoCAD Mechanical 2000|Company: Autodesk"
 90
        1
280
     0
281
     0
  0
CLASS
  1
AMDTEDGESTANDARDISO
  2
AmdtEdgeStdISO
  3
"Amdt_StdImp|Product Description: AutoCAD Mechanical 2004 DX|Company: Autodesk"
 90
        0
280
     0
281
     0
  0
CLASS
  1
ACMSURFSTANDARDISO
  2
AcmSurfTextStdISO
  3
"Amdt_StdImp|Product Description: AutoCAD Mechanical 2004 DX|Company: Autodesk"
 90
        0
280
     0
281
     0
  0
CLASS
  1
ACMFCFSTANDARDISO
  2
AcmFCFStdISO
  3
"Amdt_StdImp|Product Description: AutoCAD Mechanical 2004 DX|Company: Autodesk"
 90
        0
280
     0
281
     0
  0
CLASS
  1
ACMWELDSTANDARDISO
  2
AcmWeldingStdISO
  3
"Amdt_StdImp|Product Description: AutoCAD Mechanical 2004 DX|Company: Autodesk"
 90
        0
280
     0
281
     0
  0
CLASS
  1
ACMIDSTANDARDISO
  2
AcmIdStdISO
  3
"Amdt_StdImp|Product Description: AutoCAD Mechanical 2004 DX|Company: Autodesk"
 90
        0
280
     0
281
     0
  0
CLASS
  1
ACMDATUMSTANDARDISO
  2
AcmDatumStdISO
  3
"Amdt_StdImp|Product Description: AutoCAD Mechanical 2004 DX|Company: Autodesk"
 90
        0
280
     0
281
     0
  0
CLASS
  1
ACMBOMSTANDARDISO
  2
AcmBOMStdISO
  3
"Amdt_StdImp|Product Description: AutoCAD Mechanical 2004 DX|Company: Autodesk"
 90
        0
280
     0
281
     0
  0
CLASS
  1
ACMDETAILSTANDARDISO
  2
AmdtDetailSymStdISO
  3
"Amdt_StdImp|Product Description: AutoCAD Mechanical 2004 DX|Company: Autodesk"
 90
        0
280
     0
281
     0
  0
CLASS
  1
ACMSECTIONSTANDARDISO
  2
AmdtSectionSymStdISO
  3
"Amdt_StdImp|Product Description: AutoCAD Mechanical 2004 DX|Company: Autodesk"
 90
        0
280
     0
281
     0
  0
CLASS
  1
ACMCENTERLINESTANDARDISO
  2
AmdtCenterLineStdISO
  3
"Amdt_StdImp|Product Description: AutoCAD Mechanical 2004 DX|Company: Autodesk"
 90
        0
280
     0
281
     0
  0
CLASS
  1
ACMNOTESTANDARDISO
  2
AmdtNoteStdISO
  3
"Amdt_StdImp|Product Description: AutoCAD Mechanical 2004 DX|Company: Autodesk"
 90
        0
280
     0
281
     0
  0
CLASS
  1
ACAMGLAYSTD
  2
AcAmgLayStd
  3
"AcAmgLayStd|Product Description: AutoCAD Mechanical 2000|Company: Autodesk"
 90
        0
280
     0
281
     0
  0
CLASS
  1
ACAMGDIMSTD
  2
AcAmgDimStd
  3
"AcAmgDimStd|Product Description: AutoCAD Mechanical 2000|Company: Autodesk"
 90
        0
280
     0
281
     0
  0
CLASS
  1
ACAMGHOLECHARTSTDISO
  2
AcAmgHoleChartStdISO
  3
ACMSYMBB_MODULE_NAME
 90
        0
280
     0
281
     0
  0
CLASS
  1
ACAMGTITLESTD
  2
AcAmgTitleStd
  3
"TITLEAPP"
 90
        0
280
     0
281
     0
  0
CLASS
  1
LAYER_INDEX
  2
AcDbLayerIndex
  3
ObjectDBX Classes
 90
    32768
280
     0
281
     0
  0
CLASS
  1
IDBUFFER
  2
AcDbIdBuffer
  3
ObjectDBX Classes
 90
    32768
280
     0
281
     0
  0
CLASS
  1
DICTIONARYVAR
  2
AcDbDictionaryVar
  3
ObjectDBX Classes
 90
        0
280
     0
281
     0
  0
CLASS
  1
AM_DRAWING_MGR
  2
AcDmDwgMgr
  3
AcMechDwgViewMgmt
 90
        0
280
     0
281
     0
  0
CLASS
  1
AM_DWG_DOCUMENT
  2
AcDmDwgDocument
  3
AcMechDwgViewMgmt
 90
        0
280
     0
281
     0
  0
CLASS
  1
AM_DWG_SHEET
  2
AcDmSheet
  3
AcMechDwgViewMgmt
 90
        0
280
     0
281
     0
  0
CLASS
  1
AM_VIEWDIMPARMAP
  2
AcDmViewDimParMap
  3
AcMechDwgViewMgmt
 90
        0
280
     0
281
     0
  0
CLASS
  1
AM_DWGMGR_NAME
  2
AcDmDwgMgrName
  3
AcMechDwgViewMgmt
 90
        0
280
     0
281
     0
  0
CLASS
  1
AMDTMENUSTATEMGR
  2
AmdtMenuStateMgr
  3
McadcomServices
 90
        0
280
     0
281
     0
  0
CLASS
  1
AMDTMCOMMENUSTATE
  2
AmdtMcomMenuState
  3
McadcomServices
 90
        0
280
     0
281
     0
  0
CLASS
  1
MAPIAMMOUDLE
  2
MApiAmModule
  3
MApiAmServices
 90
        0
280
     0
281
     0
  0
CLASS
  1
AMDTADMENUSTATE
  2
AmdtAdMenuState
  3
DesignerServices
 90
        0
280
     0
281
     0
  0
CLASS
  1
ADAPPL
  2
AcAdAppl
  3
DesignerServices
 90
        0
280
     0
281
     0
  0
CLASS
  1
DEPMGR
  2
AcAdDepMgr
  3
DesignerServices
 90
        0
280
     0
281
     0
  0
CLASS
  1
PARAMMGR
  2
AcAdParamMgr
  3
DesignerServices
 90
        0
280
     0
281
     0
  0
CLASS
  1
PARAMSCOPE
  2
AcAdParamScope
  3
DesignerServices
 90
        0
280
     0
281
     0
  0
CLASS
  1
NAMEDAPPL
  2
AcAdNamedAppl
  3
DesignerServices
 90
        0
280
     0
281
     0
  0
CLASS
  1
AMDTDMMENUSTATE
  2
AmdtDmMenuState
  3
AcMechDwgViewMgmt
 90
        0
280
     0
281
     0
  0
CLASS
  1
AMDTAMMENUSTATE
  2
AmdtAmMenuState
  3
DesignerAssemblies
 90
        0
280
     0
281
     0
  0
CLASS
  1
ACAMPROJECT
  2
AcAmProject
  3
DesignerAssemblies
 90
        0
280
     0
281
     0
  0
CLASS
  1
ACAMGRCOMPDEF
  2
AcAmGrCompDef
  3
DesignerAssemblies
 90
        0
280
     0
281
     0
  0
CLASS
  1
ACCMCONTEXT
  2
AcCmContext
  3
DesignerAssemblies
 90
        0
280
     0
281
     0
  0
CLASS
  1
ACAMCOMPDEF
  2
AcAmCompDef
  3
DesignerAssemblies
 90
        0
280
     0
281
     0
  0
CLASS
  1
ACAMCOMPDEFMGR
  2
AcAmCompDefMgr
  3
DesignerAssemblies
 90
        0
280
     0
281
     0
  0
CLASS
  1
AMCONTEXTMGR
  2
AcAmContextMgr
  3
DesignerAssemblies
 90
        0
280
     0
281
     0
  0
CLASS
  1
ACAMCONTEXTMODELER
  2
AcAmContextModeler
  3
DesignerAssemblies
 90
        0
280
     0
281
     0
  0
CLASS
  1
ACMTHREADLINESTANDARDISO
  2
AmdtThreadLineStdISO
  3
"Amdt_StdImp|Product Description: AutoCAD Mechanical 2004 DX|Company: Autodesk"
 90
        0
280
     0
281
     0
  0
CLASS
  1
CATALOGSTATE
  2
AcAmCatalogState
  3
DesignerAssemblies
 90
        0
280
     0
281
     0
  0
CLASS
  1
ACAMGRCOMPDEFSET
  2
AcAmGrCompDefSet
  3
DesignerAssemblies
 90
        0
280
     0
281
     0
  0
CLASS
  1
AMDTBROWSERDBTAB
  2
AmdtBrowserDbTab
  3
McadcomServices
 90
        0
280
     0
281
     0
  0
CLASS
  1
CBROWSERAPPOBJECT
  2
CBrowserAppObject
  3
McadcomServices
 90
        0
280
     0
281
     0
  0
CLASS
  1
DM_PLACEHOLDER
  2
AcDmSelsetPlaceholder
  3
AcMechDwgViewMgmt
 90
        0
280
     0
281
     0
  0
CLASS
  1
TABLESTYLE
  2
AcDbTableStyle
  3
ObjectDBX Classes
 90
     2047
280
     0
281
     0
  0
CLASS
  1
VAACXREFPANELOBJECT
  2
VaAcXREFPanelObject
  3
VAAC_ADDIN
 90
    32768
280
     0
281
     0
  0
CLASS
  1
VAACIMAGEINVENTORY
  2
VaAcImageInventory
  3
VAAC_ADDIN
 90
    32768
280
     0
281
     0
  0
CLASS
  1
AMDTNOTETEMPLATEDB
  2
AmdtNoteTemplateDB
  3
AMDT_STDIMP_MODULE_NAME
 90
        0
280
     0
281
     0
  0
CLASS
  1
ACMBOM
  2
AcmBom
  3
"AcmSymBB|Product Description: AutoCAD Mechanical 2004 DX|Company: Autodesk"
 90
    32768
280
     0
281
     0
  0
CLASS
  1
AMDTFORMULAUPDATEDISPATCHER
  2
AmdtFormulaUpdateDispatcher
  3
AcMeServices
 90
    32768
280
     0
281
     0
  0
CLASS
  1
ACMPARTLIST
  2
AcmPartList
  3
"AcmSymBB|Product Description: AutoCAD Mechanical 2004 DX|Company: Autodesk"
 90
    33791
280
     0
281
     1
  0
CLASS
  1
ACAMGFILTERDAT
  2
AcAmgFilterDat
  3
"AcadM|Product Description: AutoCAD Mechanical 2000|Company: Autodesk"
 90
        0
280
     0
281
     0
  0
CLASS
  1
DIMASSOC
  2
AcDbDimAssoc
  3
"AcDbDimAssoc|Product Desc:     AcDim ARX App For Dimension|Company:          Autodesk, Inc.|WEB Address:      www.autodesk.com"
 90
    32768
280
     0
281
     0
  0
CLASS
  1
STDPART2D
  2
AmgStdPart
  3
"AmgStdPart|Product Description: AutoCAD Mechanical 2000|Company: Autodesk"
 90
    33791
280
     0
281
     1
  0
CLASS
  1
ACAMSTDPCOMPDEF
  2
AcAmStdpCompDef
  3
DesignerAssemblies
 90
    32768
280
     0
281
     0
  0
CLASS
  1
ACRFATTGENMGR
  2
AcRfAttGeneralMgr
  3
AcAttribServices
 90
        0
280
     0
281
     0
  0
CLASS
  1
ACRFOBJATTMGR
  2
AcRfObjAttGroupMgr
  3
AcAttribServices
 90
    32768
280
     0
281
     0
  0
CLASS
  1
ACRFMCADAPIATTHOLDER
  2
AcRfMCADAPIAttHolder
  3
AcAttribServices
 90
    32768
280
     0
281
     0
  0
CLASS
  1
AMDTSYSATTR
  2
AmdtSystemAttribute
  3
AcAttribServices
 90
    32768
280
     0
281
     0
  0
CLASS
  1
ACAMCOMP
  2
AcAmComp
  3
DesignerAssemblies
 90
    32768
280
     0
281
     0
  0
CLASS
  1
AC_AM_STDP_VIEW_DEF
  2
AcAmStdpViewDef
  3
DesignerAssemblies
 90
    32768
280
     0
281
     0
  0
CLASS
  1
AC_AM_MVD_DEP_MGR
  2
AcAmMVDdepMgr
  3
DesignerAssemblies
 90
        0
280
     0
281
     0
  0
CLASS
  1
AC_AM_MASTER_VIEW_DEF
  2
AcAmMasterViewDef
  3
DesignerAssemblies
 90
        0
280
     0
281
     0
  0
CLASS
  1
AC_AM_DIRTY_NODES
  2
AcAmDirtyNodes
  3
DesignerAssemblies
 90
        0
280
     0
281
     0
  0
CLASS
  1
AC_AM_MAPPER_CACHE
  2
AcAmMapperCache
  3
DesignerAssemblies
 90
        0
280
     0
281
     0
  0
CLASS
  1
ACAMMVDBACKUPOBJECT
  2
AcAmMVDBackupObject
  3
DesignerAssemblies
 90
        0
280
     0
281
     0
  0
CLASS
  1
AC_AM_COMP_VIEW_INST
  2
AcAmCompView
  3
DesignerAssemblies
 90
    32768
280
     0
281
     0
  0
CLASS
  1
AC_AM_2D_XREF_MGR
  2
AcAmXrefMgr2d
  3
DesignerAssemblies
 90
        0
280
     0
281
     0
  0
CLASS
  1
SORTENTSTABLE
  2
AcDbSortentsTable
  3
ObjectDBX Classes
 90
        0
280
     0
281
     0
  0
CLASS
  1
AMDTNOTE
  2
AmdtNote
  3
"AcmSymBB|Product Description: AutoCAD Mechanical 2004 DX|Company: Autodesk"
 90
     1023
280
     0
281
     1
  0
CLASS
  1
ACMSTANDARDANSI
  2
AcmStandardANSI
  3
"Amdt_StdImp|Product Description: AutoCAD Mechanical 2004 DX|Company: Autodesk"
 90
        0
280
     0
281
     0
  0
CLASS
  1
ACMSURFSTANDARDANSI
  2
AcmSurfTextStdANSI
  3
"Amdt_StdImp|Product Description: AutoCAD Mechanical 2004 DX|Company: Autodesk"
 90
        0
280
     0
281
     0
  0
CLASS
  1
ACMFCFSTANDARDANSI
  2
AcmFCFStdANSI
  3
"Amdt_StdImp|Product Description: AutoCAD Mechanical 2004 DX|Company: Autodesk"
 90
        0
280
     0
281
     0
  0
CLASS
  1
ACMWELDSTANDARDANSI
  2
AcmWeldingStdANSI
  3
"Amdt_StdImp|Product Description: AutoCAD Mechanical 2004 DX|Company: Autodesk"
 90
        0
280
     0
281
     0
  0
CLASS
  1
ACMIDSTANDARDANSI
  2
AcmIdStdANSI
  3
"Amdt_StdImp|Product Description: AutoCAD Mechanical 2004 DX|Company: Autodesk"
 90
        0
280
     0
281
     0
  0
CLASS
  1
ACMDATUMSTANDARDANSI
  2
AcmDatumStdANSI
  3
"Amdt_StdImp|Product Description: AutoCAD Mechanical 2004 DX|Company: Autodesk"
 90
        0
280
     0
281
     0
  0
CLASS
  1
ACMBOMSTANDARDANSI
  2
AcmBOMStdANSI
  3
"Amdt_StdImp|Product Description: AutoCAD Mechanical 2004 DX|Company: Autodesk"
 90
        0
280
     0
281
     0
  0
CLASS
  1
ACMDETAILSTANDARDANSI
  2
AmdtDetailSymStdANSI
  3
"Amdt_StdImp|Product Description: AutoCAD Mechanical 2004 DX|Company: Autodesk"
 90
        0
280
     0
281
     0
  0
CLASS
  1
ACMSECTIONSTANDARDANSI
  2
AmdtSectionSymStdANSI
  3
"Amdt_StdImp|Product Description: AutoCAD Mechanical 2004 DX|Company: Autodesk"
 90
        0
280
     0
281
     0
  0
CLASS
  1
ACMCENTERLINESTANDARDANSI
  2
AmdtCenterLineStdANSI
  3
"Amdt_StdImp|Product Description: AutoCAD Mechanical 2004 DX|Company: Autodesk"
 90
        0
280
     0
281
     0
  0
CLASS
  1
ACMTHREADLINESTANDARDANSI
  2
AmdtThreadLineStdANSI
  3
"Amdt_StdImp|Product Description: AutoCAD Mechanical 2004 DX|Company: Autodesk"
 90
        0
280
     0
281
     0
  0
CLASS
  1
ACMNOTESTANDARDANSI
  2
AmdtNoteStdANSI
  3
"Amdt_StdImp|Product Description: AutoCAD Mechanical 2004 DX|Company: Autodesk"
 90
        0
280
     0
281
     0
  0
CLASS
  1
ACAMGHOLECHARTSTDANSI
  2
AcAmgHoleChartStdANSI
  3
ACMSYMBB_MODULE_NAME
 90
        0
280
     0
281
     0
  0
ENDSEC
  0
SECTION
  2
TABLES
  0
TABLE
  2
VPORT
  5
8
330
0
100
AcDbSymbolTable
 70
     4
  0
VPORT
  5
2134
330
8
100
AcDbSymbolTableRecord
100
AcDbViewportTableRecord
  2
*Active
 70
     0
 10
0.0
 20
0.0
 11
1.0
 21
1.0
 12
2601.595514546663
 22
1632.910295262778
 13
0.0
 23
0.0
 14
2.5
 24
2.5
 15
10.0
 25
10.0
 16
0.0
 26
0.0
 36
1.0
 17
0.0
 27
0.0
 37
0.0
 40
529.0968533386314
 41
1.81766917293233
 42
50.0
 43
0.0
 44
0.0
 50
0.0
 51
0.0
 71
     0
 72
   100
 73
     1
 74
     3
 75
     0
 76
     0
 77
     0
 78
     0
281
     0
 65
     1
110
0.0
120
0.0
130
0.0
111
1.0
121
0.0
131
0.0
112
0.0
122
1.0
132
0.0
 79
     0
146
0.0
  0
ENDTAB
  0
TABLE
  2
LTYPE
  5
5
330
0
100
AcDbSymbolTable
 70
    16
  0
LTYPE
  5
14
330
5
100
AcDbSymbolTableRecord
100
AcDbLinetypeTableRecord
  2
ByBlock
 70
     0
  3

 72
    65
 73
     0
 40
0.0
  0
LTYPE
  5
15
330
5
100
AcDbSymbolTableRecord
100
AcDbLinetypeTableRecord
  2
ByLayer
 70
     0
  3

 72
    65
 73
     0
 40
0.0
  0
LTYPE
  5
16
330
5
100
AcDbSymbolTableRecord
100
AcDbLinetypeTableRecord
  2
Continuous
 70
     0
  3
Solid line
 72
    65
 73
     0
 40
0.0
  0
LTYPE
  5
64
330
5
100
AcDbSymbolTableRecord
100
AcDbLinetypeTableRecord
  2
AM_ISO02W050
 70
     0
  3
__ __ __ __ __ __ __ __ __ __ __ __ __ __ __
 72
    65
 73
     2
 40
7.5
 49
6.0
 74
     0
 49
-1.5
 74
     0
  0
LTYPE
  5
65
330
5
100
AcDbSymbolTableRecord
100
AcDbLinetypeTableRecord
  2
AM_ISO08W050
 70
     0
  3
____ . ____ . ____ . ____ . ____ . ____ . ____
 72
    65
 73
     4
 40
18.0
 49
12.0
 74
     0
 49
-1.5
 74
     0
 49
3.0
 74
     0
 49
-1.5
 74
     0
  0
LTYPE
  5
66
330
5
100
AcDbSymbolTableRecord
100
AcDbLinetypeTableRecord
  2
AM_ISO09W050
 70
     0
  3
_____ . . _____ . . _____ . . ____ .. ____
 72
    65
 73
     6
 40
22.5
 49
12.0
 74
     0
 49
-1.5
 74
     0
 49
3.0
 74
     0
 49
-1.5
 74
     0
 49
3.0
 74
     0
 49
-1.5
 74
     0
  0
LTYPE
  5
67
330
5
100
AcDbSymbolTableRecord
100
AcDbLinetypeTableRecord
  2
Amconstr
 70
     0
  3
_______________________
 72
    65
 73
     2
 40
9999.0
 49
9999.0
 74
     0
 49
0.0
 74
     0
  0
LTYPE
  5
68
330
5
100
AcDbSymbolTableRecord
100
AcDbLinetypeTableRecord
  2
AM_ISO08W050x2
 70
     0
  3
__ . __ . __ . __ . __ . __
 72
    65
 73
     4
 40
9.0
 49
6.0
 74
     0
 49
-0.75
 74
     0
 49
1.5
 74
     0
 49
-0.75
 74
     0
  0
LTYPE
  5
69
330
5
100
AcDbSymbolTableRecord
100
AcDbLinetypeTableRecord
  2
AM_ISO02W050x2
 70
     0
  3
 _ _ _ _ _ _ _ _ _ _ _ _
 72
    65
 73
     2
 40
3.75
 49
3.0
 74
     0
 49
-0.75
 74
     0
  0
LTYPE
  5
6C
330
5
100
AcDbSymbolTableRecord
100
AcDbLinetypeTableRecord
  2
Amzigzag
 70
     0
  3
/\/-/\/-/\/-/\/-/\/-/\/
 72
    65
 73
     2
 40
11.0001
 49
0.0001
 74
     4
 75
   135
340
6B
 46
0.04
 50
0.0
 44
0.0
 45
0.0
 49
-11.0
 74
     0
  0
LTYPE
  5
7A
330
5
100
AcDbSymbolTableRecord
100
AcDbLinetypeTableRecord
  2
ACISOWELD
 70
     0
  3
_ _ _ _ _
 72
    65
 73
     2
 40
2.0
 49
2.0
 74
     0
 49
-1.0
 74
     0
  0
LTYPE
  5
7B
330
5
100
AcDbSymbolTableRecord
100
AcDbLinetypeTableRecord
  2
ACISOTGB
 70
     0
  3
__ . . __ . .
 72
    65
 73
     6
 40
9.0
 49
4.0
 74
     0
 49
-1.0
 74
     0
 49
1.0
 74
     0
 49
-1.0
 74
     0
 49
1.0
 74
     0
 49
-1.0
 74
     0
  0
LTYPE
  5
7C
330
5
100
AcDbSymbolTableRecord
100
AcDbLinetypeTableRecord
  2
ACISOTGL
 70
     0
  3
_ _ _ _ _
 72
    65
 73
     2
 40
3.0
 49
2.0
 74
     0
 49
-1.0
 74
     0
  0
LTYPE
  5
7E
330
5
100
AcDbSymbolTableRecord
100
AcDbLinetypeTableRecord
  2
CENTER
 70
     0
  3
__ . __
 72
    65
 73
     4
 40
7.0
 49
4.0
 74
     0
 49
-1.0
 74
     0
 49
1.0
 74
     0
 49
-1.0
 74
     0
  0
LTYPE
  5
D8
330
5
100
AcDbSymbolTableRecord
100
AcDbLinetypeTableRecord
  2
HIDDEN
 70
     0
  3
Hidden __ __ __ __ __ __ __ __ __ __ __ __ __ _
 72
    65
 73
     2
 40
9.524999999999998
 49
6.349999999999999
 74
     0
 49
-3.174999999999999
 74
     0
  0
LTYPE
  5
D9
330
5
100
AcDbSymbolTableRecord
100
AcDbLinetypeTableRecord
  2
PHANTOM2
 70
     0
  3
Phantom (.5x) ___ _ _ ___ _ _ ___ _ _ ___ _ _
 72
    65
 73
     6
 40
31.75
 49
15.875
 74
     0
 49
-3.174999999999999
 74
     0
 49
3.174999999999999
 74
     0
 49
-3.174999999999999
 74
     0
 49
3.174999999999999
 74
     0
 49
-3.174999999999999
 74
     0
  0
LTYPE
  5
1DFD
330
5
100
AcDbSymbolTableRecord
100
AcDbLinetypeTableRecord
  2
ACANSTGB
 70
     0
  3
__ . . __ . .
 72
    65
 73
     6
 40
0.35433070866
 49
0.15748031496
 74
     0
 49
-0.03937007874
 74
     0
 49
0.03937007874
 74
     0
 49
-0.03937007874
 74
     0
 49
0.03937007874
 74
     0
 49
-0.03937007874
 74
     0
  0
LTYPE
  5
1DFE
330
5
100
AcDbSymbolTableRecord
100
AcDbLinetypeTableRecord
  2
ACANSTGL
 70
     0
  3
_ _ _ _ _
 72
    65
 73
     2
 40
0.11811023622
 49
0.07874015748
 74
     0
 49
-0.03937007874
 74
     0
  0
ENDTAB
  0
TABLE
  2
LAYER
  5
2
102
{ACAD_XDICTIONARY
360
3F9
102
}
330
0
100
AcDbSymbolTable
 70
     8
  0
LAYER
  5
10
330
2
100
AcDbSymbolTableRecord
100
AcDbLayerTableRecord
  2
0
 70
     0
 62
     7
  6
Continuous
370
    -3
390
F
  0
LAYER
  5
812
330
2
100
AcDbSymbolTableRecord
100
AcDbLayerTableRecord
  2
AM_VIS
 70
     0
 62
     7
  6
Continuous
370
    50
390
F
  0
LAYER
  5
813
330
2
100
AcDbSymbolTableRecord
100
AcDbLayerTableRecord
  2
AM_4
 70
     0
 62
     3
  6
Continuous
370
    25
390
F
  0
LAYER
  5
BD2
330
2
100
AcDbSymbolTableRecord
100
AcDbLayerTableRecord
  2
AM_0
 70
     0
 62
     7
  6
Continuous
370
    50
390
F
  0
LAYER
  5
BF8
330
2
100
AcDbSymbolTableRecord
100
AcDbLayerTableRecord
  2
AM_7
 70
     0
 62
     1
  6
CENTER
370
    25
390
F
  0
LAYER
  5
C53
330
2
100
AcDbSymbolTableRecord
100
AcDbLayerTableRecord
  2
AM_5
 70
     0
 62
     5
  6
Continuous
370
    50
390
F
  0
LAYER
  5
D49
330
2
100
AcDbSymbolTableRecord
100
AcDbLayerTableRecord
  2
Defpoints
 70
     0
 62
     7
  6
Continuous
290
     0
370
    -3
390
F
  0
LAYER
  5
150C
330
2
100
AcDbSymbolTableRecord
100
AcDbLayerTableRecord
  2
LOGO
 70
     0
 62
     7
  6
Continuous
370
    -3
390
F
  0
ENDTAB
  0
TABLE
  2
STYLE
  5
3
330
0
100
AcDbSymbolTable
 70
     8
  0
STYLE
  5
11
330
3
100
AcDbSymbolTableRecord
100
AcDbTextStyleTableRecord
  2
STANDARD
 70
     0
 40
0.0
 41
1.0
 50
0.0
 71
     0
 42
3.0
  3
ISOCP.SHX
  4
CHINESET.SHX
  0
STYLE
  5
6B
330
3
100
AcDbSymbolTableRecord
100
AcDbTextStyleTableRecord
  2

 70
     1
 40
0.0
 41
1.0
 50
0.0
 71
     0
 42
2.5
  3
ltypeshp.shx
  4

  0
STYLE
  5
6D
330
3
100
AcDbSymbolTableRecord
100
AcDbTextStyleTableRecord
  2
ACISOTS
 70
     0
 40
1.0
 41
1.0
 50
0.0
 71
     0
 42
1.0
  3
isocp.shx
  4
chineset.shx
  0
STYLE
  5
79
330
3
100
AcDbSymbolTableRecord
100
AcDbTextStyleTableRecord
  2
ACISOGDT
 70
     0
 40
0.0
 41
1.0
 50
0.0
 71
     0
 42
2.5
  3
amgdt.shx
  4
chineset.shx
  0
STYLE
  5
60C
330
3
100
AcDbSymbolTableRecord
100
AcDbTextStyleTableRecord
  2
CHINESET
 70
     0
 40
0.0
 41
1.0
 50
0.0
 71
     0
 42
3.0
  3
simplex.shx
  4
CHINESET.SHX
  0
STYLE
  5
1E01
330
3
100
AcDbSymbolTableRecord
100
AcDbTextStyleTableRecord
  2
ACANSTS
 70
     0
 40
1.0
 41
1.0
 50
0.0
 71
     0
 42
2.7
  3
romans.shx
  4
chineset.shx
  0
STYLE
  5
1E02
330
3
100
AcDbSymbolTableRecord
100
AcDbTextStyleTableRecord
  2
ACANSGDT
 70
     0
 40
0.0
 41
1.0
 50
0.0
 71
     0
 42
2.7
  3
amgdtans.shx
  4

  0
ENDTAB
  0
TABLE
  2
VIEW
  5
6
330
0
100
AcDbSymbolTable
 70
     0
  0
ENDTAB
  0
TABLE
  2
UCS
  5
7
330
0
100
AcDbSymbolTable
 70
     0
  0
ENDTAB
  0
TABLE
  2
APPID
  5
9
330
0
100
AcDbSymbolTable
 70
    29
  0
APPID
  5
12
330
9
100
AcDbSymbolTableRecord
100
AcDbRegAppTableRecord
  2
ACAD
 70
     0
  0
APPID
  5
46
330
9
100
AcDbSymbolTableRecord
100
AcDbRegAppTableRecord
  2
MCAD_NO_VIS
 70
     0
  0
APPID
  5
47
330
9
100
AcDbSymbolTableRecord
100
AcDbRegAppTableRecord
  2
ACAD_TEMP_GRAPHIC
 70
     0
  0
APPID
  5
58
330
9
100
AcDbSymbolTableRecord
100
AcDbRegAppTableRecord
  2
ACATTRIBSERVICES
 70
     0
  0
APPID
  5
EE
330
9
100
AcDbSymbolTableRecord
100
AcDbRegAppTableRecord
  2
AD_DRAW
 70
     0
  0
APPID
  5
10C
330
9
100
AcDbSymbolTableRecord
100
AcDbRegAppTableRecord
  2
DESIGNERASSEMBLIES
 70
     0
  0
APPID
  5
111
330
9
100
AcDbSymbolTableRecord
100
AcDbRegAppTableRecord
  2
ACADM_DIM_EDIT
 70
     0
  0
APPID
  5
112
330
9
100
AcDbSymbolTableRecord
100
AcDbRegAppTableRecord
  2
AMDT_DM_ADJ
 70
     0
  0
APPID
  5
22C
330
9
100
AcDbSymbolTableRecord
100
AcDbRegAppTableRecord
  2
ACAD_DSTYLE_DIMTEXT_FILL
 70
     0
  0
APPID
  5
452
330
9
100
AcDbSymbolTableRecord
100
AcDbRegAppTableRecord
  2
GENIUS_GENOENT_13
 70
     0
  0
APPID
  5
453
330
9
100
AcDbSymbolTableRecord
100
AcDbRegAppTableRecord
  2
GENIUS_GENOBJ-N-CRS_13
 70
     0
  0
APPID
  5
454
330
9
100
AcDbSymbolTableRecord
100
AcDbRegAppTableRecord
  2
GENIUS_GENOLIS_13
 70
     0
  0
APPID
  5
455
330
9
100
AcDbSymbolTableRecord
100
AcDbRegAppTableRecord
  2
GENIUS_GENODEF_13
 70
     0
  0
APPID
  5
456
330
9
100
AcDbSymbolTableRecord
100
AcDbRegAppTableRecord
  2
GENIUS_GENOREF_13
 70
     0
  0
APPID
  5
6F3
330
9
100
AcDbSymbolTableRecord
100
AcDbRegAppTableRecord
  2
ACAD_PSEXT
 70
     0
  0
APPID
  5
782
330
9
100
AcDbSymbolTableRecord
100
AcDbRegAppTableRecord
  2
GENIUS_GENDTOL_13
 70
     0
  0
APPID
  5
BD9
330
9
100
AcDbSymbolTableRecord
100
AcDbRegAppTableRecord
  2
GEVID1142294916
 70
     0
  0
APPID
  5
BDA
330
9
100
AcDbSymbolTableRecord
100
AcDbRegAppTableRecord
  2
GEVDC
 70
     0
  0
APPID
  5
BDB
330
9
100
AcDbSymbolTableRecord
100
AcDbRegAppTableRecord
  2
GEVRADREF
 70
     0
  0
APPID
  5
BE4
330
9
100
AcDbSymbolTableRecord
100
AcDbRegAppTableRecord
  2
AMG_2DHIDE
 70
     0
  0
APPID
  5
BE5
330
9
100
AcDbSymbolTableRecord
100
AcDbRegAppTableRecord
  2
AMG_2DSTRUCT_BTR
 70
     0
  0
APPID
  5
BF6
330
9
100
AcDbSymbolTableRecord
100
AcDbRegAppTableRecord
  2
ACADM_2DVIEW_IGN_NOTIFY
 70
     0
  0
APPID
  5
CAE
330
9
100
AcDbSymbolTableRecord
100
AcDbRegAppTableRecord
  2
GEVID1142294917
 70
     0
  0
APPID
  5
12D3
330
9
100
AcDbSymbolTableRecord
100
AcDbRegAppTableRecord
  2
GENIUS_GENDIMSH_14
 70
     0
  0
APPID
  5
150D
330
9
100
AcDbSymbolTableRecord
100
AcDbRegAppTableRecord
  2
GENIUS_GENREC_14
 70
     0
  0
APPID
  5
150E
330
9
100
AcDbSymbolTableRecord
100
AcDbRegAppTableRecord
  2
GENIUS_GENOBJ-N-REC_13
 70
     0
  0
APPID
  5
1B7E
330
9
100
AcDbSymbolTableRecord
100
AcDbRegAppTableRecord
  2
GEVID1142658489
 70
     0
  0
APPID
  5
1BED
330
9
100
AcDbSymbolTableRecord
100
AcDbRegAppTableRecord
  2
GENIUS_GENOBJ-N-CEN_13
 70
     0
  0
APPID
  5
1BEE
330
9
100
AcDbSymbolTableRecord
100
AcDbRegAppTableRecord
  2
GENIUS_GENCEN_19
 70
     0
  0
ENDTAB
  0
TABLE
  2
DIMSTYLE
  5
A
330
0
100
AcDbSymbolTable
 70
    15
100
AcDbDimStyleTable
 71
     3
340
81
340
8B
340
86
  0
DIMSTYLE
105
81
330
A
100
AcDbSymbolTableRecord
100
AcDbDimStyleTableRecord
  2
AM_ISO
 70
     0
  4
"
 41
3.0
 42
1.0
 43
10.0
 44
1.5
 47
0.1
 48
0.1
 73
     0
 74
     0
 77
     1
 78
     8
 79
     2
140
3.0
141
0.0
143
0.0393701
146
0.6
147
1.0
172
     1
176
   256
177
   256
178
   256
271
     2
272
     2
283
     0
284
     8
340
11
371
    -1
372
    -1
  0
DIMSTYLE
105
82
330
A
100
AcDbSymbolTableRecord
100
AcDbDimStyleTableRecord
  2
AM_ISO$3
 70
     0
  4
"
 41
3.0
 42
1.0
 43
10.0
 44
1.5
 47
0.1
 48
0.1
 73
     0
 77
     1
 78
     8
 79
     2
140
3.0
141
0.0
143
0.0393701
146
0.6
147
1.0
176
   256
177
   256
178
   256
271
     2
272
     2
283
     0
284
     8
288
     1
289
     0
340
11
371
    -1
372
    -1
  0
DIMSTYLE
105
83
330
A
100
AcDbSymbolTableRecord
100
AcDbDimStyleTableRecord
  2
AM_ISO$4
 70
     0
  4
"
 41
3.0
 42
1.0
 43
10.0
 44
1.5
 47
0.1
 48
0.1
 73
     0
 77
     1
 78
     8
 79
     2
140
3.0
141
0.0
143
0.0393701
146
0.6
147
1.0
176
   256
177
   256
178
   256
271
     2
272
     2
283
     0
284
     8
288
     1
289
     0
340
11
371
    -1
372
    -1
  0
DIMSTYLE
105
84
330
A
100
AcDbSymbolTableRecord
100
AcDbDimStyleTableRecord
  2
AM_ISO$6
 70
     0
  4
"
 41
3.0
 42
1.0
 43
10.0
 44
1.5
 47
0.1
 48
0.1
 73
     0
 74
     0
 78
     8
 79
     2
140
3.0
141
0.0
143
0.0393701
146
0.6
147
1.0
172
     1
176
   256
177
   256
178
   256
271
     2
272
     2
283
     0
284
     8
340
11
371
    -1
372
    -1
  0
DIMSTYLE
105
85
330
A
100
AcDbSymbolTableRecord
100
AcDbDimStyleTableRecord
  2
AM_ISO$7
 70
     0
  4
"
 41
3.0
 42
1.0
 43
10.0
 44
1.5
 47
0.1
 48
0.1
 73
     0
 74
     0
 77
     1
 78
     8
 79
     2
140
5.0
141
0.0
143
0.0393701
146
0.6
147
1.0
172
     1
176
   256
177
   256
178
   256
271
     2
272
     2
283
     0
284
     8
340
11
371
    -1
372
    -1
  0
DIMSTYLE
105
86
330
A
100
AcDbSymbolTableRecord
100
AcDbDimStyleTableRecord
  2
AM_ISO$SF
 70
     0
  4
"
 41
2.5
 42
1.0
 43
10.0
 44
1.0
 47
0.1
 48
0.1
 73
     0
 74
     0
 75
     1
 76
     1
 77
     1
 78
     8
 79
     2
140
3.5
141
0.0
143
0.0393701
146
0.71
147
1.5
172
     1
176
   256
177
   256
178
     2
271
     2
272
     3
274
     4
283
     0
284
     8
340
11
371
    -1
372
    -1
  0
DIMSTYLE
105
8B
330
A
100
AcDbSymbolTableRecord
100
AcDbDimStyleTableRecord
  2
AM_ISO$SH
 70
     0
  4
"
 41
2.5
 42
1.0
 43
10.0
 44
1.0
 47
0.1
 48
0.1
 73
     0
 74
     0
 75
     1
 76
     1
 77
     1
 78
     8
 79
     2
140
3.5
141
0.0
143
0.0393701
144
2.0
146
0.71
147
1.5
172
     1
173
     1
176
   256
177
   256
178
     2
271
     2
272
     3
274
     4
283
     0
284
     8
340
11
343
87
371
    -1
372
    -1
  0
DIMSTYLE
105
40B
102
{ACAD_REACTORS
330
F85
330
F0F
330
EE9
330
EC3
330
E9D
330
E65
330
1022
330
FFC
330
FD6
330
F35
330
F5F
102
}
330
A
100
AcDbSymbolTableRecord
100
AcDbDimStyleTableRecord
  2
AM_ISO$0
 70
     0
  4
"
 41
3.0
 42
1.0
 43
10.0
 44
1.5
 47
0.1
 48
0.1
 73
     0
 74
     0
 77
     1
 78
     8
 79
     2
140
3.0
141
0.0
143
0.0393701
146
0.6
147
1.0
172
     1
176
   256
177
   256
178
   256
271
     2
272
     2
283
     0
284
     8
340
11
371
    -1
372
    -1
  0
DIMSTYLE
105
1E05
330
A
100
AcDbSymbolTableRecord
100
AcDbDimStyleTableRecord
  2
AM_ANSI
 70
     0
  4
mm
 41
0.1
 42
0.05
 43
0.5
 44
0.1
 47
0.1
 48
0.1
 78
     7
 79
     2
140
0.12
141
0.0
146
0.71
147
0.06
176
   256
177
   256
178
     2
274
     4
284
     7
340
11
371
    -1
372
    -1
  0
DIMSTYLE
105
1E06
330
A
100
AcDbSymbolTableRecord
100
AcDbDimStyleTableRecord
  2
AM_ANSI$3
 70
     0
  4
mm
 41
0.1
 42
0.05
 43
0.5
 44
0.1
 47
0.1
 48
0.1
 78
     7
 79
     2
140
0.12
141
0.0
146
0.71
147
0.06
176
   256
177
   256
178
     2
274
     4
284
     7
288
     1
289
     0
340
11
371
    -1
372
    -1
  0
DIMSTYLE
105
1E07
330
A
100
AcDbSymbolTableRecord
100
AcDbDimStyleTableRecord
  2
AM_ANSI$4
 70
     0
  4
mm
 41
0.1
 42
0.05
 43
0.5
 44
0.1
 47
0.1
 48
0.1
 78
     7
 79
     2
140
0.12
141
0.0
146
0.71
147
0.06
176
   256
177
   256
178
     2
274
     4
284
     7
288
     1
289
     0
340
11
371
    -1
372
    -1
  0
DIMSTYLE
105
1E08
330
A
100
AcDbSymbolTableRecord
100
AcDbDimStyleTableRecord
  2
AM_ANSI$7
 70
     0
  4
mm
 41
0.1
 42
0.05
 43
0.5
 44
0.1
 47
0.1
 48
0.1
 78
     7
 79
     2
140
0.24
141
0.0
146
0.71
147
0.06
176
   256
177
   256
178
     2
274
     4
284
     7
340
11
371
    -1
372
    -1
  0
DIMSTYLE
105
1E09
330
A
100
AcDbSymbolTableRecord
100
AcDbDimStyleTableRecord
  2
AM_ANSI$SF
 70
     0
  4
mm
 41
0.1
 42
0.05
 43
0.5
 44
0.1
 47
0.1
 48
0.1
 75
     1
 76
     1
 78
     7
 79
     2
140
0.12
141
0.0
146
0.71
147
0.06
176
   256
177
   256
178
     2
274
     4
284
     7
340
11
371
    -1
372
    -1
  0
DIMSTYLE
105
1E0A
330
A
100
AcDbSymbolTableRecord
100
AcDbDimStyleTableRecord
  2
AM_ANSI$SH
 70
     0
  4
mm
 41
0.1
 42
0.05
 43
0.5
 44
0.1
 47
0.1
 48
0.1
 75
     1
 76
     1
 78
     7
 79
     2
140
0.12
141
0.0
146
0.71
147
0.06
173
     1
176
   256
177
   256
178
     2
274
     4
284
     7
340
11
343
87
371
    -1
372
    -1
  0
ENDTAB
  0
TABLE
  2
BLOCK_RECORD
  5
1
330
0
100
AcDbSymbolTable
 70
    21
  0
BLOCK_RECORD
  5
1F
102
{ACAD_XDICTIONARY
360
8F
102
}
330
1
100
AcDbSymbolTableRecord
100
AcDbBlockTableRecord
  2
*Model_Space
340
22
  0
BLOCK_RECORD
  5
1B
330
1
100
AcDbSymbolTableRecord
100
AcDbBlockTableRecord
  2
*Paper_Space
340
1E
  0
BLOCK_RECORD
  5
23
330
1
100
AcDbSymbolTableRecord
100
AcDbBlockTableRecord
  2
*Paper_Space0
340
26
  0
BLOCK_RECORD
  5
87
330
1
100
AcDbSymbolTableRecord
100
AcDbBlockTableRecord
  2
GENAXEH
340
0
  0
BLOCK_RECORD
  5
BFB
330
1
100
AcDbSymbolTableRecord
100
AcDbBlockTableRecord
  2
*U4
340
0
  0
BLOCK_RECORD
  5
E66
330
1
100
AcDbSymbolTableRecord
100
AcDbBlockTableRecord
  2
*D5
340
0
  0
BLOCK_RECORD
  5
E9E
330
1
100
AcDbSymbolTableRecord
100
AcDbBlockTableRecord
  2
*D6
340
0
  0
BLOCK_RECORD
  5
EC4
330
1
100
AcDbSymbolTableRecord
100
AcDbBlockTableRecord
  2
*D7
340
0
  0
BLOCK_RECORD
  5
EEA
330
1
100
AcDbSymbolTableRecord
100
AcDbBlockTableRecord
  2
*D8
340
0
  0
BLOCK_RECORD
  5
F10
330
1
100
AcDbSymbolTableRecord
100
AcDbBlockTableRecord
  2
*D9
340
0
  0
BLOCK_RECORD
  5
F36
330
1
100
AcDbSymbolTableRecord
100
AcDbBlockTableRecord
  2
*D10
340
0
  0
BLOCK_RECORD
  5
F60
330
1
100
AcDbSymbolTableRecord
100
AcDbBlockTableRecord
  2
*D11
340
0
  0
BLOCK_RECORD
  5
F86
330
1
100
AcDbSymbolTableRecord
100
AcDbBlockTableRecord
  2
*D12
340
0
  0
BLOCK_RECORD
  5
FD7
330
1
100
AcDbSymbolTableRecord
100
AcDbBlockTableRecord
  2
*D13
340
0
  0
BLOCK_RECORD
  5
FFD
330
1
100
AcDbSymbolTableRecord
100
AcDbBlockTableRecord
  2
*D14
340
0
  0
BLOCK_RECORD
  5
1023
330
1
100
AcDbSymbolTableRecord
100
AcDbBlockTableRecord
  2
*D15
340
0
  0
BLOCK_RECORD
  5
12D4
330
1
100
AcDbSymbolTableRecord
100
AcDbBlockTableRecord
  2
GENDOT
340
0
102
{BLKREFS
331
2085
331
208D
102
}
  0
BLOCK_RECORD
  5
211A
330
1
100
AcDbSymbolTableRecord
100
AcDbBlockTableRecord
  2
*S18
340
0
  0
BLOCK_RECORD
  5
2122
330
1
100
AcDbSymbolTableRecord
100
AcDbBlockTableRecord
  2
*S19
340
0
  0
BLOCK_RECORD
  5
212A
330
1
100
AcDbSymbolTableRecord
100
AcDbBlockTableRecord
  2
*S20
340
0
  0
ENDTAB
  0
ENDSEC
  0
SECTION
  2
BLOCKS
  0
BLOCK
  5
20
330
1F
100
AcDbEntity
  8
0
100
AcDbBlockBegin
  2
*Model_Space
 70
     0
 10
0.0
 20
0.0
 30
0.0
  3
*Model_Space
  1

  0
ENDBLK
  5
21
330
1F
100
AcDbEntity
  8
0
100
AcDbBlockEnd
  0
BLOCK
  5
1C
330
1B
100
AcDbEntity
 67
     1
  8
0
100
AcDbBlockBegin
  2
*Paper_Space
 70
     0
 10
0.0
 20
0.0
 30
0.0
  3
*Paper_Space
  1

  0
ENDBLK
  5
1D
330
1B
100
AcDbEntity
 67
     1
  8
0
100
AcDbBlockEnd
  0
BLOCK
  5
24
330
23
100
AcDbEntity
  8
0
100
AcDbBlockBegin
  2
*Paper_Space0
 70
     0
 10
0.0
 20
0.0
 30
0.0
  3
*Paper_Space0
  1

  0
ENDBLK
  5
25
330
23
100
AcDbEntity
  8
0
100
AcDbBlockEnd
  0
BLOCK
  5
89
330
87
100
AcDbEntity
  8
0
100
AcDbBlockBegin
  2
GENAXEH
 70
     0
 10
0.0
 20
0.0
 30
0.0
  3
GENAXEH
  1

  0
LINE
  5
88
330
87
100
AcDbEntity
  8
0
100
AcDbLine
 10
-1.0
 20
0.0
 30
0.0
 11
1.0
 21
0.0
 31
0.0
  0
ENDBLK
  5
8A
330
87
100
AcDbEntity
  8
0
100
AcDbBlockEnd
  0
BLOCK
  5
BFC
330
BFB
100
AcDbEntity
  8
0
100
AcDbBlockBegin
  2
*U4
 70
     1
 10
0.0
 20
0.0
 30
0.0
  3
*U4
  1

  0
ENDBLK
  5
BFD
330
BFB
100
AcDbEntity
  8
0
100
AcDbBlockEnd
  0
BLOCK
  5
E70
330
E66
100
AcDbEntity
  8
0
100
AcDbBlockBegin
  2
*D5
 70
     1
 10
0.0
 20
0.0
 30
0.0
  3
*D5
  1

  0
LINE
  5
204B
330
E66
100
AcDbEntity
  8
AM_5
100
AcDbLine
 10
2490.406942560784
 20
1781.148731076097
 30
0.0
 11
2490.406942560784
 21
1722.298731076097
 31
0.0
  0
LINE
  5
204C
330
E66
100
AcDbEntity
  8
AM_5
100
AcDbLine
 10
2566.406942560784
 20
1781.148731076097
 30
0.0
 11
2566.406942560784
 21
1722.298731076097
 31
0.0
  0
LINE
  5
204D
330
E66
100
AcDbEntity
  8
AM_5
100
AcDbLine
 10
2495.506942560784
 20
1724.848731076097
 30
0.0
 11
2561.306942560785
 21
1724.848731076097
 31
0.0
  0
SOLID
  5
204E
330
E66
100
AcDbEntity
  8
AM_5
100
AcDbTrace
 10
2495.506942560784
 20
1725.698731076097
 30
0.0
 11
2495.506942560784
 21
1723.998731076097
 31
0.0
 12
2490.406942560784
 22
1724.848731076097
 32
0.0
 13
2490.406942560784
 23
1724.848731076097
 33
0.0
  0
SOLID
  5
204F
330
E66
100
AcDbEntity
  8
AM_5
100
AcDbTrace
 10
2561.306942560785
 20
1725.698731076097
 30
0.0
 11
2561.306942560785
 21
1723.998731076097
 31
0.0
 12
2566.406942560784
 22
1724.848731076097
 32
0.0
 13
2566.406942560784
 23
1724.848731076097
 33
0.0
  0
MTEXT
  5
2050
330
E66
100
AcDbEntity
  8
AM_5
100
AcDbMText
 10
2528.406942560784
 20
1729.098731076097
 30
0.0
 40
5.099999999999999
 41
0.0
 71
     5
 72
     1
  1
76
 73
     1
 44
1.0
1001
ACAD
1000
MTEXTBEGIN
1070
    73
1070
     1
1070
    44
1040
1.0
1070
    74
1070
     0
1000
MTEXTEND
  0
POINT
  5
2051
330
E66
100
AcDbEntity
  8
Defpoints
 62
     0
100
AcDbPoint
 10
2490.406942560784
 20
1782.848731076097
 30
0.0
  0
POINT
  5
2052
330
E66
100
AcDbEntity
  8
Defpoints
 62
     0
100
AcDbPoint
 10
2566.406942560784
 20
1782.848731076097
 30
0.0
  0
POINT
  5
2053
330
E66
100
AcDbEntity
  8
Defpoints
 62
     0
100
AcDbPoint
 10
2566.406942560784
 20
1724.848731076097
 30
0.0
  0
ENDBLK
  5
E71
330
E66
100
AcDbEntity
  8
0
100
AcDbBlockEnd
  0
BLOCK
  5
EA8
330
E9E
100
AcDbEntity
  8
0
100
AcDbBlockBegin
  2
*D6
 70
     1
 10
0.0
 20
0.0
 30
0.0
  3
*D6
  1

  0
LINE
  5
2054
330
E9E
100
AcDbEntity
  8
AM_5
100
AcDbLine
 10
2478.406942560784
 20
1740.148731076097
 30
0.0
 11
2478.406942560784
 21
1712.298731076097
 31
0.0
  0
LINE
  5
2055
330
E9E
100
AcDbEntity
  8
AM_5
100
AcDbLine
 10
2578.406942560784
 20
1740.148731076097
 30
0.0
 11
2578.406942560784
 21
1712.298731076097
 31
0.0
  0
LINE
  5
2056
330
E9E
100
AcDbEntity
  8
AM_5
100
AcDbLine
 10
2483.506942560784
 20
1714.848731076097
 30
0.0
 11
2573.306942560784
 21
1714.848731076097
 31
0.0
  0
SOLID
  5
2057
330
E9E
100
AcDbEntity
  8
AM_5
100
AcDbTrace
 10
2483.506942560784
 20
1715.698731076097
 30
0.0
 11
2483.506942560784
 21
1713.998731076097
 31
0.0
 12
2478.406942560784
 22
1714.848731076097
 32
0.0
 13
2478.406942560784
 23
1714.848731076097
 33
0.0
  0
SOLID
  5
2058
330
E9E
100
AcDbEntity
  8
AM_5
100
AcDbTrace
 10
2573.306942560784
 20
1715.698731076097
 30
0.0
 11
2573.306942560784
 21
1713.998731076097
 31
0.0
 12
2578.406942560784
 22
1714.848731076097
 32
0.0
 13
2578.406942560784
 23
1714.848731076097
 33
0.0
  0
MTEXT
  5
2059
330
E9E
100
AcDbEntity
  8
AM_5
100
AcDbMText
 10
2528.406942560784
 20
1719.098731076097
 30
0.0
 40
5.099999999999999
 41
0.0
 71
     5
 72
     1
  1
100
 73
     1
 44
1.0
1001
ACAD
1000
MTEXTBEGIN
1070
    73
1070
     1
1070
    44
1040
1.0
1070
    74
1070
     0
1000
MTEXTEND
  0
POINT
  5
205A
330
E9E
100
AcDbEntity
  8
Defpoints
 62
     0
100
AcDbPoint
 10
2478.406942560784
 20
1741.848731076097
 30
0.0
  0
POINT
  5
205B
330
E9E
100
AcDbEntity
  8
Defpoints
 62
     0
100
AcDbPoint
 10
2578.406942560784
 20
1741.848731076097
 30
0.0
  0
POINT
  5
205C
330
E9E
100
AcDbEntity
  8
Defpoints
 62
     0
100
AcDbPoint
 10
2578.406942560784
 20
1714.848731076097
 30
0.0
  0
ENDBLK
  5
EA9
330
E9E
100
AcDbEntity
  8
0
100
AcDbBlockEnd
  0
BLOCK
  5
ECE
330
EC4
100
AcDbEntity
  8
0
100
AcDbBlockBegin
  2
*D7
 70
     1
 10
0.0
 20
0.0
 30
0.0
  3
*D7
  1

  0
LINE
  5
2066
330
EC4
100
AcDbEntity
  8
AM_5
100
AcDbLine
 10
2538.106942560784
 20
1750.848731076097
 30
0.0
 11
2599.168975205728
 21
1750.848731076097
 31
0.0
  0
LINE
  5
2067
330
EC4
100
AcDbEntity
  8
AM_5
100
AcDbLine
 10
2538.106942560784
 20
1830.848731076097
 30
0.0
 11
2599.168975205728
 21
1830.848731076097
 31
0.0
  0
LINE
  5
2068
330
EC4
100
AcDbEntity
  8
AM_5
100
AcDbLine
 10
2596.618975205728
 20
1755.948731076097
 30
0.0
 11
2596.618975205728
 21
1825.748731076097
 31
0.0
  0
SOLID
  5
2069
330
EC4
100
AcDbEntity
  8
AM_5
100
AcDbTrace
 10
2595.768975205728
 20
1755.948731076097
 30
0.0
 11
2597.468975205728
 21
1755.948731076097
 31
0.0
 12
2596.618975205728
 22
1750.848731076097
 32
0.0
 13
2596.618975205728
 23
1750.848731076097
 33
0.0
  0
SOLID
  5
206A
330
EC4
100
AcDbEntity
  8
AM_5
100
AcDbTrace
 10
2595.768975205728
 20
1825.748731076097
 30
0.0
 11
2597.468975205728
 21
1825.748731076097
 31
0.0
 12
2596.618975205728
 22
1830.848731076097
 32
0.0
 13
2596.618975205728
 23
1830.848731076097
 33
0.0
  0
MTEXT
  5
206B
330
EC4
100
AcDbEntity
  8
AM_5
100
AcDbMText
 10
2592.368975205728
 20
1790.848731076097
 30
0.0
 40
5.099999999999999
 41
0.0
 71
     5
 72
     1
  1
80
 11
0.0000000000000001
 21
1.0
 31
0.0
 73
     1
 44
1.0
1001
ACAD
1000
MTEXTBEGIN
1070
    73
1070
     1
1070
    44
1040
1.0
1070
    74
1070
     0
1000
MTEXTEND
  0
POINT
  5
206C
330
EC4
100
AcDbEntity
  8
Defpoints
 62
     0
100
AcDbPoint
 10
2536.406942560784
 20
1750.848731076097
 30
0.0
  0
POINT
  5
206D
330
EC4
100
AcDbEntity
  8
Defpoints
 62
     0
100
AcDbPoint
 10
2536.406942560784
 20
1830.848731076097
 30
0.0
  0
POINT
  5
206E
330
EC4
100
AcDbEntity
  8
Defpoints
 62
     0
100
AcDbPoint
 10
2596.618975205728
 20
1830.848731076097
 30
0.0
  0
ENDBLK
  5
ECF
330
EC4
100
AcDbEntity
  8
0
100
AcDbBlockEnd
  0
BLOCK
  5
EF4
330
EEA
100
AcDbEntity
  8
0
100
AcDbBlockBegin
  2
*D8
 70
     1
 10
0.0
 20
0.0
 30
0.0
  3
*D8
  1

  0
LINE
  5
206F
330
EEA
100
AcDbEntity
  8
AM_5
100
AcDbLine
 10
2575.106942560784
 20
1736.848731076097
 30
0.0
 11
2609.168975205728
 21
1736.848731076097
 31
0.0
  0
LINE
  5
2070
330
EEA
100
AcDbEntity
  8
AM_5
100
AcDbLine
 10
2575.106942560784
 20
1844.848731076097
 30
0.0
 11
2609.168975205728
 21
1844.848731076097
 31
0.0
  0
LINE
  5
2071
330
EEA
100
AcDbEntity
  8
AM_5
100
AcDbLine
 10
2606.618975205728
 20
1741.948731076097
 30
0.0
 11
2606.618975205728
 21
1839.748731076097
 31
0.0
  0
SOLID
  5
2072
330
EEA
100
AcDbEntity
  8
AM_5
100
AcDbTrace
 10
2605.768975205728
 20
1741.948731076097
 30
0.0
 11
2607.468975205728
 21
1741.948731076097
 31
0.0
 12
2606.618975205728
 22
1736.848731076097
 32
0.0
 13
2606.618975205728
 23
1736.848731076097
 33
0.0
  0
SOLID
  5
2073
330
EEA
100
AcDbEntity
  8
AM_5
100
AcDbTrace
 10
2605.768975205728
 20
1839.748731076097
 30
0.0
 11
2607.468975205728
 21
1839.748731076097
 31
0.0
 12
2606.618975205728
 22
1844.848731076097
 32
0.0
 13
2606.618975205728
 23
1844.848731076097
 33
0.0
  0
MTEXT
  5
2074
330
EEA
100
AcDbEntity
  8
AM_5
100
AcDbMText
 10
2602.368975205728
 20
1790.848731076097
 30
0.0
 40
5.099999999999999
 41
0.0
 71
     5
 72
     1
  1
108
 11
0.0000000000000001
 21
1.0
 31
0.0
 73
     1
 44
1.0
1001
ACAD
1000
MTEXTBEGIN
1070
    73
1070
     1
1070
    44
1040
1.0
1070
    74
1070
     0
1000
MTEXTEND
  0
POINT
  5
2075
330
EEA
100
AcDbEntity
  8
Defpoints
 62
     0
100
AcDbPoint
 10
2573.406942560784
 20
1736.848731076097
 30
0.0
  0
POINT
  5
2076
330
EEA
100
AcDbEntity
  8
Defpoints
 62
     0
100
AcDbPoint
 10
2573.406942560784
 20
1844.848731076097
 30
0.0
  0
POINT
  5
2077
330
EEA
100
AcDbEntity
  8
Defpoints
 62
     0
100
AcDbPoint
 10
2606.618975205728
 20
1844.848731076097
 30
0.0
  0
ENDBLK
  5
EF5
330
EEA
100
AcDbEntity
  8
0
100
AcDbBlockEnd
  0
BLOCK
  5
F1A
330
F10
100
AcDbEntity
  8
0
100
AcDbBlockBegin
  2
*D9
 70
     1
 10
0.0
 20
0.0
 30
0.0
  3
*D9
  1

  0
LINE
  5
2078
330
F10
100
AcDbEntity
  8
AM_5
100
AcDbLine
 10
2577.606942556761
 20
1610.581813918634
 30
0.0
 11
2594.147613957965
 21
1610.581813918634
 31
0.0
  0
LINE
  5
2079
330
F10
100
AcDbEntity
  8
AM_5
100
AcDbLine
 10
2579.106942556761
 20
1662.581813918634
 30
0.0
 11
2594.147613957965
 21
1662.581813918634
 31
0.0
  0
LINE
  5
207A
330
F10
100
AcDbEntity
  8
AM_5
100
AcDbLine
 10
2591.597613957965
 20
1615.681813918634
 30
0.0
 11
2591.597613957965
 21
1657.481813918634
 31
0.0
  0
SOLID
  5
207B
330
F10
100
AcDbEntity
  8
AM_5
100
AcDbTrace
 10
2590.747613957965
 20
1615.681813918634
 30
0.0
 11
2592.447613957965
 21
1615.681813918634
 31
0.0
 12
2591.597613957965
 22
1610.581813918634
 32
0.0
 13
2591.597613957965
 23
1610.581813918634
 33
0.0
  0
SOLID
  5
207C
330
F10
100
AcDbEntity
  8
AM_5
100
AcDbTrace
 10
2590.747613957965
 20
1657.481813918634
 30
0.0
 11
2592.447613957965
 21
1657.481813918634
 31
0.0
 12
2591.597613957965
 22
1662.581813918634
 32
0.0
 13
2591.597613957965
 23
1662.581813918634
 33
0.0
  0
MTEXT
  5
207D
330
F10
100
AcDbEntity
  8
AM_5
100
AcDbMText
 10
2587.347111989461
 20
1636.581813918634
 30
0.0
 40
5.099999999999999
 41
0.0
 71
     5
 72
     1
  1
52+stroke
 11
0.0000000000000001
 21
1.0
 31
0.0
 73
     1
 44
1.0
1001
ACAD
1000
MTEXTBEGIN
1070
    73
1070
     1
1070
    44
1040
1.0
1070
    74
1070
     0
1000
MTEXTEND
  0
POINT
  5
207E
330
F10
100
AcDbEntity
  8
Defpoints
 62
     0
100
AcDbPoint
 10
2575.906942556761
 20
1610.581813918634
 30
0.0
  0
POINT
  5
207F
330
F10
100
AcDbEntity
  8
Defpoints
 62
     0
100
AcDbPoint
 10
2577.406942556761
 20
1662.581813918634
 30
0.0
  0
POINT
  5
2080
330
F10
100
AcDbEntity
  8
Defpoints
 62
     0
100
AcDbPoint
 10
2591.597613957965
 20
1662.581813918634
 30
0.0
  0
ENDBLK
  5
F1B
330
F10
100
AcDbEntity
  8
0
100
AcDbBlockEnd
  0
BLOCK
  5
F42
330
F36
100
AcDbEntity
  8
0
100
AcDbBlockBegin
  2
*D10
 70
     1
 10
0.0
 20
0.0
 30
0.0
  3
*D10
  1

  0
LINE
  5
2081
330
F36
100
AcDbEntity
  8
AM_5
100
AcDbLine
 10
2579.106942556761
 20
1662.581813918634
 30
0.0
 11
2594.147613957967
 21
1662.581813918634
 31
0.0
  0
LINE
  5
2082
330
F36
100
AcDbEntity
  8
AM_5
100
AcDbLine
 10
2580.106942560784
 20
1677.581813918634
 30
0.0
 11
2594.147613957967
 21
1677.581813918634
 31
0.0
  0
LINE
  5
2083
330
F36
100
AcDbEntity
  8
AM_5
100
AcDbLine
 10
2591.597613957966
 20
1667.681813918633
 30
0.0
 11
2591.597613957966
 21
1672.481813918634
 31
0.0
  0
SOLID
  5
2084
330
F36
100
AcDbEntity
  8
AM_5
100
AcDbTrace
 10
2590.747613957967
 20
1667.681813918633
 30
0.0
 11
2592.447613957966
 21
1667.681813918633
 31
0.0
 12
2591.597613957966
 22
1662.581813918634
 32
0.0
 13
2591.597613957966
 23
1662.581813918634
 33
0.0
  0
INSERT
  5
2085
330
F36
100
AcDbEntity
  8
AM_5
100
AcDbBlockReference
  2
GENDOT
 10
2591.597613957966
 20
1677.581813918634
 30
0.0
 41
5.099999999999999
 42
5.099999999999999
 43
5.099999999999999
 50
90.0
  0
MTEXT
  5
2086
330
F36
100
AcDbEntity
  8
AM_5
100
AcDbMText
 10
2587.347613957966
 20
1670.081813918634
 30
0.0
 40
5.099999999999999
 41
0.0
 71
     5
 72
     1
  1
15
 11
0.0000000000000001
 21
1.0
 31
0.0
 73
     1
 44
1.0
1001
ACAD
1000
MTEXTBEGIN
1070
    73
1070
     1
1070
    44
1040
1.0
1070
    74
1070
     0
1000
MTEXTEND
  0
POINT
  5
2087
330
F36
100
AcDbEntity
  8
Defpoints
 62
     0
100
AcDbPoint
 10
2577.406942556761
 20
1662.581813918634
 30
0.0
  0
POINT
  5
2088
330
F36
100
AcDbEntity
  8
Defpoints
 62
     0
100
AcDbPoint
 10
2578.406942560784
 20
1677.581813918634
 30
0.0
  0
POINT
  5
2089
330
F36
100
AcDbEntity
  8
Defpoints
 62
     0
100
AcDbPoint
 10
2591.597613957966
 20
1677.581813918634
 30
0.0
  0
ENDBLK
  5
F43
330
F36
100
AcDbEntity
  8
0
100
AcDbBlockEnd
  0
BLOCK
  5
F6A
330
F60
100
AcDbEntity
  8
0
100
AcDbBlockBegin
  2
*D11
 70
     1
 10
0.0
 20
0.0
 30
0.0
  3
*D11
  1

  0
LINE
  5
208A
330
F60
100
AcDbEntity
  8
AM_5
100
AcDbLine
 10
2580.106942560784
 20
1677.581813918634
 30
0.0
 11
2594.147613957965
 21
1677.581813918634
 31
0.0
  0
LINE
  5
208B
330
F60
100
AcDbEntity
  8
AM_5
100
AcDbLine
 10
2580.106942560784
 20
1692.581813918634
 30
0.0
 11
2594.147613957965
 21
1692.581813918634
 31
0.0
  0
LINE
  5
208C
330
F60
100
AcDbEntity
  8
AM_5
100
AcDbLine
 10
2591.597613957965
 20
1682.681813918634
 30
0.0
 11
2591.597613957965
 21
1687.481813918634
 31
0.0
  0
INSERT
  5
208D
330
F60
100
AcDbEntity
  8
AM_5
100
AcDbBlockReference
  2
GENDOT
 10
2591.597613957965
 20
1677.581813918634
 30
0.0
 41
5.099999999999999
 42
5.099999999999999
 43
5.099999999999999
 50
270.0
  0
SOLID
  5
208E
330
F60
100
AcDbEntity
  8
AM_5
100
AcDbTrace
 10
2590.747613957965
 20
1687.481813918634
 30
0.0
 11
2592.447613957965
 21
1687.481813918634
 31
0.0
 12
2591.597613957965
 22
1692.581813918634
 32
0.0
 13
2591.597613957965
 23
1692.581813918634
 33
0.0
  0
MTEXT
  5
208F
330
F60
100
AcDbEntity
  8
AM_5
100
AcDbMText
 10
2587.347613957965
 20
1685.081813918634
 30
0.0
 40
5.099999999999999
 41
0.0
 71
     5
 72
     1
  1
15
 11
0.0000000000000001
 21
1.0
 31
0.0
 73
     1
 44
1.0
1001
ACAD
1000
MTEXTBEGIN
1070
    73
1070
     1
1070
    44
1040
1.0
1070
    74
1070
     0
1000
MTEXTEND
  0
POINT
  5
2090
330
F60
100
AcDbEntity
  8
Defpoints
 62
     0
100
AcDbPoint
 10
2578.406942560784
 20
1677.581813918634
 30
0.0
  0
POINT
  5
2091
330
F60
100
AcDbEntity
  8
Defpoints
 62
     0
100
AcDbPoint
 10
2578.406942560784
 20
1692.581813918634
 30
0.0
  0
POINT
  5
2092
330
F60
100
AcDbEntity
  8
Defpoints
 62
     0
100
AcDbPoint
 10
2591.597613957965
 20
1692.581813918634
 30
0.0
  0
ENDBLK
  5
F6B
330
F60
100
AcDbEntity
  8
0
100
AcDbBlockEnd
  0
BLOCK
  5
F90
330
F86
100
AcDbEntity
  8
0
100
AcDbBlockBegin
  2
*D12
 70
     1
 10
0.0
 20
0.0
 30
0.0
  3
*D12
  1

  0
LINE
  5
2093
330
F86
100
AcDbEntity
  8
AM_5
100
AcDbLine
 10
2577.606942556761
 20
1610.581813918634
 30
0.0
 11
2604.147613957965
 21
1610.581813918634
 31
0.0
  0
LINE
  5
2094
330
F86
100
AcDbEntity
  8
AM_5
100
AcDbLine
 10
2580.106942560784
 20
1692.581813918634
 30
0.0
 11
2604.147613957965
 21
1692.581813918634
 31
0.0
  0
LINE
  5
2095
330
F86
100
AcDbEntity
  8
AM_5
100
AcDbLine
 10
2601.597613957965
 20
1615.681813918634
 30
0.0
 11
2601.597613957965
 21
1687.481813918634
 31
0.0
  0
SOLID
  5
2096
330
F86
100
AcDbEntity
  8
AM_5
100
AcDbTrace
 10
2600.747613957965
 20
1615.681813918634
 30
0.0
 11
2602.447613957965
 21
1615.681813918634
 31
0.0
 12
2601.597613957965
 22
1610.581813918634
 32
0.0
 13
2601.597613957965
 23
1610.581813918634
 33
0.0
  0
SOLID
  5
2097
330
F86
100
AcDbEntity
  8
AM_5
100
AcDbTrace
 10
2600.747613957965
 20
1687.481813918634
 30
0.0
 11
2602.447613957965
 21
1687.481813918634
 31
0.0
 12
2601.597613957965
 22
1692.581813918634
 32
0.0
 13
2601.597613957965
 23
1692.581813918634
 33
0.0
  0
MTEXT
  5
2098
330
F86
100
AcDbEntity
  8
AM_5
100
AcDbMText
 10
2597.34711198946
 20
1651.581813918634
 30
0.0
 40
5.099999999999999
 41
0.0
 71
     5
 72
     1
  1
82+stroke
 11
0.0000000000000001
 21
1.0
 31
0.0
 73
     1
 44
1.0
1001
ACAD
1000
MTEXTBEGIN
1070
    73
1070
     1
1070
    44
1040
1.0
1070
    74
1070
     0
1000
MTEXTEND
  0
POINT
  5
2099
330
F86
100
AcDbEntity
  8
Defpoints
 62
     0
100
AcDbPoint
 10
2575.906942556761
 20
1610.581813918634
 30
0.0
  0
POINT
  5
209A
330
F86
100
AcDbEntity
  8
Defpoints
 62
     0
100
AcDbPoint
 10
2578.406942560784
 20
1692.581813918634
 30
0.0
  0
POINT
  5
209B
330
F86
100
AcDbEntity
  8
Defpoints
 62
     0
100
AcDbPoint
 10
2601.597613957965
 20
1692.581813918634
 30
0.0
  0
ENDBLK
  5
F91
330
F86
100
AcDbEntity
  8
0
100
AcDbBlockEnd
  0
BLOCK
  5
FE1
330
FD7
100
AcDbEntity
  8
0
100
AcDbBlockBegin
  2
*D13
 70
     1
 10
0.0
 20
0.0
 30
0.0
  3
*D13
  1

  0
LINE
  5
209C
330
FD7
100
AcDbEntity
  8
AM_5
100
AcDbLine
 10
2489.906942560784
 20
1468.592740160547
 30
0.0
 11
2489.906942560784
 21
1448.74274015857
 31
0.0
  0
LINE
  5
209D
330
FD7
100
AcDbEntity
  8
AM_5
100
AcDbLine
 10
2566.906942558807
 20
1466.59274015857
 30
0.0
 11
2566.906942558807
 21
1448.74274015857
 31
0.0
  0
LINE
  5
209E
330
FD7
100
AcDbEntity
  8
AM_5
100
AcDbLine
 10
2495.006942560784
 20
1451.29274015857
 30
0.0
 11
2561.806942558807
 21
1451.29274015857
 31
0.0
  0
SOLID
  5
209F
330
FD7
100
AcDbEntity
  8
AM_5
100
AcDbTrace
 10
2495.006942560784
 20
1452.14274015857
 30
0.0
 11
2495.006942560784
 21
1450.44274015857
 31
0.0
 12
2489.906942560784
 22
1451.29274015857
 32
0.0
 13
2489.906942560784
 23
1451.29274015857
 33
0.0
  0
SOLID
  5
20A0
330
FD7
100
AcDbEntity
  8
AM_5
100
AcDbTrace
 10
2561.806942558807
 20
1452.14274015857
 30
0.0
 11
2561.806942558807
 21
1450.44274015857
 31
0.0
 12
2566.906942558807
 22
1451.29274015857
 32
0.0
 13
2566.906942558807
 23
1451.29274015857
 33
0.0
  0
MTEXT
  5
20A1
330
FD7
100
AcDbEntity
  8
AM_5
100
AcDbMText
 10
2528.406942559796
 20
1455.54274015857
 30
0.0
 40
5.099999999999999
 41
0.0
 71
     5
 72
     1
  1
{\Famgdt|c136;o}77
 73
     1
 44
1.0
1001
ACAD
1000
MTEXTBEGIN
1070
    73
1070
     1
1070
    44
1040
1.0
1070
    74
1070
     0
1000
MTEXTEND
  0
POINT
  5
20A2
330
FD7
100
AcDbEntity
  8
Defpoints
 62
     0
100
AcDbPoint
 10
2489.906942560784
 20
1470.292740160547
 30
0.0
  0
POINT
  5
20A3
330
FD7
100
AcDbEntity
  8
Defpoints
 62
     0
100
AcDbPoint
 10
2566.906942558807
 20
1468.29274015857
 30
0.0
  0
POINT
  5
20A4
330
FD7
100
AcDbEntity
  8
Defpoints
 62
     0
100
AcDbPoint
 10
2566.906942558807
 20
1451.29274015857
 30
0.0
  0
ENDBLK
  5
FE2
330
FD7
100
AcDbEntity
  8
0
100
AcDbBlockEnd
  0
BLOCK
  5
1007
330
FFD
100
AcDbEntity
  8
0
100
AcDbBlockBegin
  2
*D14
 70
     1
 10
0.0
 20
0.0
 30
0.0
  3
*D14
  1

  0
LINE
  5
20A5
330
FFD
100
AcDbEntity
  8
AM_5
100
AcDbLine
 10
2479.406942558811
 20
1471.377358217605
 30
0.0
 11
2479.406942558811
 21
1438.74274015857
 31
0.0
  0
LINE
  5
20A6
330
FFD
100
AcDbEntity
  8
AM_5
100
AcDbLine
 10
2577.406942556761
 20
1471.377358217614
 30
0.0
 11
2577.406942556761
 21
1438.74274015857
 31
0.0
  0
LINE
  5
20A7
330
FFD
100
AcDbEntity
  8
AM_5
100
AcDbLine
 10
2484.506942558811
 20
1441.29274015857
 30
0.0
 11
2572.306942556761
 21
1441.29274015857
 31
0.0
  0
SOLID
  5
20A8
330
FFD
100
AcDbEntity
  8
AM_5
100
AcDbTrace
 10
2484.506942558811
 20
1442.14274015857
 30
0.0
 11
2484.506942558811
 21
1440.44274015857
 31
0.0
 12
2479.406942558811
 22
1441.29274015857
 32
0.0
 13
2479.406942558811
 23
1441.29274015857
 33
0.0
  0
SOLID
  5
20A9
330
FFD
100
AcDbEntity
  8
AM_5
100
AcDbTrace
 10
2572.306942556761
 20
1442.14274015857
 30
0.0
 11
2572.306942556761
 21
1440.44274015857
 31
0.0
 12
2577.406942556761
 22
1441.29274015857
 32
0.0
 13
2577.406942556761
 23
1441.29274015857
 33
0.0
  0
MTEXT
  5
20AA
330
FFD
100
AcDbEntity
  8
AM_5
100
AcDbMText
 10
2528.406942557785
 20
1445.54274015857
 30
0.0
 40
5.099999999999999
 41
0.0
 71
     5
 72
     1
  1
98
 73
     1
 44
1.0
1001
ACAD
1000
MTEXTBEGIN
1070
    73
1070
     1
1070
    44
1040
1.0
1070
    74
1070
     0
1000
MTEXTEND
  0
POINT
  5
20AB
330
FFD
100
AcDbEntity
  8
Defpoints
 62
     0
100
AcDbPoint
 10
2479.406942558811
 20
1473.077358217605
 30
0.0
  0
POINT
  5
20AC
330
FFD
100
AcDbEntity
  8
Defpoints
 62
     0
100
AcDbPoint
 10
2577.406942556761
 20
1473.077358217614
 30
0.0
  0
POINT
  5
20AD
330
FFD
100
AcDbEntity
  8
Defpoints
 62
     0
100
AcDbPoint
 10
2577.406942556761
 20
1441.29274015857
 30
0.0
  0
ENDBLK
  5
1008
330
FFD
100
AcDbEntity
  8
0
100
AcDbBlockEnd
  0
BLOCK
  5
102D
330
1023
100
AcDbEntity
  8
0
100
AcDbBlockBegin
  2
*D15
 70
     1
 10
0.0
 20
0.0
 30
0.0
  3
*D15
  1

  0
LINE
  5
205D
330
1023
100
AcDbEntity
  8
AM_5
100
AcDbLine
 10
2574.32232449771
 20
1468.29274015857
 30
0.0
 11
2599.485019762311
 21
1468.29274015857
 31
0.0
  0
LINE
  5
205E
330
1023
100
AcDbEntity
  8
AM_5
100
AcDbLine
 10
2543.106942557782
 20
1572.292740156592
 30
0.0
 11
2599.485019762311
 21
1572.292740156592
 31
0.0
  0
LINE
  5
205F
330
1023
100
AcDbEntity
  8
AM_5
100
AcDbLine
 10
2596.935019762311
 20
1473.39274015857
 30
0.0
 11
2596.935019762311
 21
1567.192740156592
 31
0.0
  0
SOLID
  5
2060
330
1023
100
AcDbEntity
  8
AM_5
100
AcDbTrace
 10
2596.085019762311
 20
1473.39274015857
 30
0.0
 11
2597.785019762311
 21
1473.39274015857
 31
0.0
 12
2596.935019762311
 22
1468.29274015857
 32
0.0
 13
2596.935019762311
 23
1468.29274015857
 33
0.0
  0
SOLID
  5
2061
330
1023
100
AcDbEntity
  8
AM_5
100
AcDbTrace
 10
2596.085019762311
 20
1567.192740156592
 30
0.0
 11
2597.785019762311
 21
1567.192740156592
 31
0.0
 12
2596.935019762311
 22
1572.292740156592
 32
0.0
 13
2596.935019762311
 23
1572.292740156592
 33
0.0
  0
MTEXT
  5
2062
330
1023
100
AcDbEntity
  8
AM_5
100
AcDbMText
 10
2592.68501976231
 20
1520.292740157581
 30
0.0
 40
5.099999999999999
 41
0.0
 71
     5
 72
     1
  1
104
 11
0.0000000000000001
 21
1.0
 31
0.0
 73
     1
 44
1.0
1001
ACAD
1000
MTEXTBEGIN
1070
    73
1070
     1
1070
    44
1040
1.0
1070
    74
1070
     0
1000
MTEXTEND
  0
POINT
  5
2063
330
1023
100
AcDbEntity
  8
Defpoints
 62
     0
100
AcDbPoint
 10
2572.622324497711
 20
1468.29274015857
 30
0.0
  0
POINT
  5
2064
330
1023
100
AcDbEntity
  8
Defpoints
 62
     0
100
AcDbPoint
 10
2541.406942557782
 20
1572.292740156592
 30
0.0
  0
POINT
  5
2065
330
1023
100
AcDbEntity
  8
Defpoints
 62
     0
100
AcDbPoint
 10
2596.935019762311
 20
1572.292740156592
 30
0.0
  0
ENDBLK
  5
102E
330
1023
100
AcDbEntity
  8
0
100
AcDbBlockEnd
  0
BLOCK
  5
12D7
330
12D4
100
AcDbEntity
  8
0
100
AcDbBlockBegin
  2
GENDOT
 70
     0
 10
0.0
 20
0.0
 30
0.0
  3
GENDOT
  1

  0
LINE
  5
12D5
330
12D4
100
AcDbEntity
  8
0
100
AcDbLine
 10
0.0
 20
0.0
 30
0.0
 11
-1.0
 21
0.0
 31
0.0
  0
LWPOLYLINE
  5
12D6
330
12D4
100
AcDbEntity
  8
0
100
AcDbPolyline
 90
        2
 70
     1
 43
0.25
 10
-0.125
 20
0.0
 42
1.0
 10
0.125
 20
0.0
 42
1.0
  0
ENDBLK
  5
12D8
330
12D4
100
AcDbEntity
  8
0
100
AcDbBlockEnd
  0
BLOCK
  5
211F
330
211A
100
AcDbEntity
  8
0
100
AcDbBlockBegin
  2
*S18
 70
     1
 10
0.0
 20
0.0
 30
0.0
  3
*S18
  1

  0
LINE
  5
211B
330
211A
100
AcDbEntity
  8
AM_5
 62
     5
100
AcDbLine
 10
2672.227386776937
 20
1446.514180805253
 30
0.0
 11
2605.403790492588
 21
1446.514180805253
 31
0.0
  0
LINE
  5
211C
330
211A
100
AcDbEntity
  8
AM_5
 62
     5
100
AcDbLine
 10
2605.403790492588
 20
1446.514180805253
 30
0.0
 11
2576.122528303296
 21
1471.676243293315
 31
0.0
  0
TRACE
  5
211D
330
211A
100
AcDbEntity
  8
AM_5
 62
     5
370
    35
100
AcDbTrace
 10
2576.572997903829
 20
1472.200457812207
 30
0.0
 11
2575.672058702763
 21
1471.152028774422
 31
0.0
 12
2572.140723697703
 22
1475.097899629489
 32
0.0
 13
2572.140723697703
 23
1475.097899629489
 33
0.0
  0
MTEXT
  5
211E
330
211A
100
AcDbEntity
  8
AM_5
 62
     5
100
AcDbMText
 10
2608.903790492588
 20
1448.264180805253
 30
0.0
 40
5.25
 41
0.0
 71
     7
 72
     5
  1
2-%%C11 thru\P2-%%C17.5x11 depth\P2-M12x1.75x22 depth
  7
ACISOTS
 73
     1
 44
1.0
1001
ACAD
1000
MTEXTBEGIN
1070
    73
1070
     1
1070
    44
1040
1.0
1070
    74
1070
     0
1000
MTEXTEND
  0
ENDBLK
  5
2120
330
211A
100
AcDbEntity
  8
0
100
AcDbBlockEnd
  0
BLOCK
  5
2127
330
2122
100
AcDbEntity
  8
0
100
AcDbBlockBegin
  2
*S19
 70
     1
 10
0.0
 20
0.0
 30
0.0
  3
*S19
  1

  0
LINE
  5
2123
330
2122
100
AcDbEntity
  8
AM_5
 62
     5
100
AcDbLine
 10
2586.227905525244
 20
1596.425605108756
 30
0.0
 11
2557.91958859611
 21
1596.425605108756
 31
0.0
  0
LINE
  5
2124
330
2122
100
AcDbEntity
  8
AM_5
 62
     5
100
AcDbLine
 10
2557.91958859611
 20
1596.425605108756
 30
0.0
 11
2537.37863161978
 21
1614.346143182486
 31
0.0
  0
TRACE
  5
2125
330
2122
100
AcDbEntity
  8
AM_5
 62
     5
370
    35
100
AcDbTrace
 10
2537.833015229447
 20
1614.866968736859
 30
0.0
 11
2536.924248010113
 21
1613.825317628113
 31
0.0
 12
2533.422568755486
 22
1617.797529369767
 32
0.0
 13
2533.422568755486
 23
1617.797529369767
 33
0.0
  0
MTEXT
  5
2126
330
2122
100
AcDbEntity
  8
AM_5
 62
     5
100
AcDbMText
 10
2561.41958859611
 20
1598.175605108756
 30
0.0
 40
5.25
 41
0.0
 71
     7
 72
     5
  1
2-PT1/4
  7
ACISOTS
 73
     1
 44
1.0
1001
ACAD
1000
MTEXTBEGIN
1070
    73
1070
     1
1070
    44
1040
1.0
1070
    74
1070
     0
1000
MTEXTEND
  0
ENDBLK
  5
2128
330
2122
100
AcDbEntity
  8
0
100
AcDbBlockEnd
  0
BLOCK
  5
212F
330
212A
100
AcDbEntity
  8
0
100
AcDbBlockBegin
  2
*S20
 70
     1
 10
0.0
 20
0.0
 30
0.0
  3
*S20
  1

  0
LINE
  5
212B
330
212A
100
AcDbEntity
  8
AM_5
 62
     5
100
AcDbLine
 10
2662.365353131237
 20
1753.352355205605
 30
0.0
 11
2614.240353131237
 21
1753.352355205605
 31
0.0
  0
LINE
  5
212C
330
212A
100
AcDbEntity
  8
AM_5
 62
     5
100
AcDbLine
 10
2614.240353131237
 20
1753.352355205605
 30
0.0
 11
2574.988545247629
 21
1783.524537405632
 31
0.0
  0
TRACE
  5
212D
330
212A
100
AcDbEntity
  8
AM_5
 62
     5
370
    35
100
AcDbTrace
 10
2575.409773712485
 20
1784.072524908426
 30
0.0
 11
2574.567316782774
 21
1782.976549902839
 31
0.0
 12
2570.826166900995
 22
1786.724085264231
 32
0.0
 13
2570.826166900995
 23
1786.724085264231
 33
0.0
  0
MTEXT
  5
212E
330
212A
100
AcDbEntity
  8
AM_5
 62
     5
100
AcDbMText
 10
2617.740353131237
 20
1755.102355205605
 30
0.0
 40
5.25
 41
0.0
 71
     7
 72
     5
  1
4-M10x1.5 thru
  7
ACISOTS
 73
     1
 44
1.0
1001
ACAD
1000
MTEXTBEGIN
1070
    73
1070
     1
1070
    44
1040
1.0
1070
    74
1070
     0
1000
MTEXTEND
  0
ENDBLK
  5
2130
330
212A
100
AcDbEntity
  8
0
100
AcDbBlockEnd
  0
ENDSEC
  0
SECTION
  2
ENTITIES
  0
DIMENSION
  5
E65
330
1F
100
AcDbEntity
  8
AM_5
100
AcDbDimension
  2
*D5
 10
2566.406942560784
 20
1724.848731076097
 30
0.0
 11
2528.406942560784
 21
1729.098731076097
 31
0.0
 70
    32
 71
     5
 42
76.0
  3
AM_ISO$0
100
AcDbAlignedDimension
 13
2490.406942560784
 23
1782.848731076097
 33
0.0
 14
2566.406942560784
 24
1782.848731076097
 34
0.0
100
AcDbRotatedDimension
1001
ACAD
1000
DSTYLE
1002
{
1070
    40
1040
1.7
1002
}
  0
DIMENSION
  5
E9D
330
1F
100
AcDbEntity
  8
AM_5
100
AcDbDimension
  2
*D6
 10
2578.406942560784
 20
1714.848731076097
 30
0.0
 11
2528.406942560784
 21
1719.098731076097
 31
0.0
 70
    32
 71
     5
 42
100.0
  3
AM_ISO$0
100
AcDbAlignedDimension
 13
2478.406942560784
 23
1741.848731076097
 33
0.0
 14
2578.406942560784
 24
1741.848731076097
 34
0.0
100
AcDbRotatedDimension
1001
ACAD
1000
DSTYLE
1002
{
1070
    40
1040
1.7
1002
}
  0
DIMENSION
  5
EC3
330
1F
100
AcDbEntity
  8
AM_5
100
AcDbDimension
  2
*D7
 10
2596.618975205728
 20
1830.848731076097
 30
0.0
 11
2592.368975205728
 21
1790.848731076097
 31
0.0
 70
    32
 71
     5
 42
80.0
  3
AM_ISO$0
100
AcDbAlignedDimension
 13
2536.406942560784
 23
1750.848731076097
 33
0.0
 14
2536.406942560784
 24
1830.848731076097
 34
0.0
 50
90.0
100
AcDbRotatedDimension
1001
ACAD
1000
DSTYLE
1002
{
1070
    40
1040
1.7
1002
}
  0
DIMENSION
  5
EE9
330
1F
100
AcDbEntity
  8
AM_5
100
AcDbDimension
  2
*D8
 10
2606.618975205728
 20
1844.848731076097
 30
0.0
 11
2602.368975205728
 21
1790.848731076097
 31
0.0
 70
    32
 71
     5
 42
108.0
  3
AM_ISO$0
100
AcDbAlignedDimension
 13
2573.406942560784
 23
1736.848731076097
 33
0.0
 14
2573.406942560784
 24
1844.848731076097
 34
0.0
 50
90.0
100
AcDbRotatedDimension
1001
ACAD
1000
DSTYLE
1002
{
1070
    40
1040
1.7
1002
}
  0
DIMENSION
  5
F0F
330
1F
100
AcDbEntity
  8
AM_5
100
AcDbDimension
  2
*D9
 10
2591.597613957965
 20
1662.581813918634
 30
0.0
 11
2587.347111989461
 21
1636.581813918634
 31
0.0
 70
    32
  1
<>+stroke
 71
     5
 42
52.0
  3
AM_ISO$0
100
AcDbAlignedDimension
 13
2575.906942556761
 23
1610.581813918634
 33
0.0
 14
2577.406942556761
 24
1662.581813918634
 34
0.0
 50
90.0
100
AcDbRotatedDimension
1001
ACAD
1000
DSTYLE
1002
{
1070
    40
1040
1.7
1002
}
  0
DIMENSION
  5
F35
330
1F
100
AcDbEntity
  8
AM_5
100
AcDbDimension
  2
*D10
 10
2591.597613957966
 20
1677.581813918634
 30
0.0
 11
2591.597613957966
 21
1670.081813918634
 31
0.0
 70
   160
 71
     5
 42
15.0
  3
AM_ISO$0
100
AcDbAlignedDimension
 13
2577.406942556761
 23
1662.581813918634
 33
0.0
 14
2578.406942560784
 24
1677.581813918634
 34
0.0
 50
90.0
100
AcDbRotatedDimension
1001
ACAD
1000
DSTYLE
1002
{
1070
    40
1040
1.7
1070
   173
1070
     1
1070
   174
1070
     1
1070
   344
1005
12D4
1002
}
  0
DIMENSION
  5
F5F
330
1F
100
AcDbEntity
  8
AM_5
100
AcDbDimension
  2
*D11
 10
2591.597613957965
 20
1692.581813918634
 30
0.0
 11
2587.347613957965
 21
1685.081813918634
 31
0.0
 70
    32
 71
     5
 42
15.0
  3
AM_ISO$0
100
AcDbAlignedDimension
 13
2578.406942560784
 23
1677.581813918634
 33
0.0
 14
2578.406942560784
 24
1692.581813918634
 34
0.0
 50
90.0
100
AcDbRotatedDimension
1001
ACAD
1000
DSTYLE
1002
{
1070
    40
1040
1.7
1070
   173
1070
     1
1070
   174
1070
     1
1070
   343
1005
12D4
1002
}
  0
DIMENSION
  5
F85
330
1F
100
AcDbEntity
  8
AM_5
100
AcDbDimension
  2
*D12
 10
2601.597613957965
 20
1692.581813918634
 30
0.0
 11
2597.34711198946
 21
1651.581813918634
 31
0.0
 70
    32
  1
<>+stroke
 71
     5
 42
82.0
  3
AM_ISO$0
100
AcDbAlignedDimension
 13
2575.906942556761
 23
1610.581813918634
 33
0.0
 14
2578.406942560784
 24
1692.581813918634
 34
0.0
 50
90.0
100
AcDbRotatedDimension
1001
ACAD
1000
DSTYLE
1002
{
1070
    40
1040
1.7
1002
}
  0
DIMENSION
  5
FD6
330
1F
100
AcDbEntity
  8
AM_5
100
AcDbDimension
  2
*D13
 10
2566.906942558807
 20
1451.29274015857
 30
0.0
 11
2528.406942559796
 21
1455.54274015857
 31
0.0
 70
    32
  1
{\Famgdt;o}<>
 71
     5
 42
76.99999999802276
  3
AM_ISO$0
100
AcDbAlignedDimension
 13
2489.906942560784
 23
1470.292740160547
 33
0.0
 14
2566.906942558807
 24
1468.29274015857
 34
0.0
100
AcDbRotatedDimension
1001
ACAD
1000
DSTYLE
1002
{
1070
    40
1040
1.7
1002
}
  0
DIMENSION
  5
FFC
330
1F
100
AcDbEntity
  8
AM_5
100
AcDbDimension
  2
*D14
 10
2577.406942556761
 20
1441.29274015857
 30
0.0
 11
2528.406942557785
 21
1445.54274015857
 31
0.0
 70
    32
 71
     5
 42
97.99999999795046
  3
AM_ISO$0
100
AcDbAlignedDimension
 13
2479.406942558811
 23
1473.077358217605
 33
0.0
 14
2577.406942556761
 24
1473.077358217614
 34
0.0
100
AcDbRotatedDimension
1001
ACAD
1000
DSTYLE
1002
{
1070
    40
1040
1.7
1002
}
  0
DIMENSION
  5
1022
330
1F
100
AcDbEntity
  8
AM_5
100
AcDbDimension
  2
*D15
 10
2596.935019762311
 20
1572.292740156592
 30
0.0
 11
2592.68501976231
 21
1520.292740157581
 31
0.0
 70
    32
 71
     5
 42
103.999999998022
  3
AM_ISO$0
100
AcDbAlignedDimension
 13
2572.622324497711
 23
1468.29274015857
 33
0.0
 14
2541.406942557782
 24
1572.292740156592
 34
0.0
 50
90.0
100
AcDbRotatedDimension
1001
ACAD
1000
DSTYLE
1002
{
1070
    40
1040
1.7
1002
}
  0
INSERT
  5
1266
330
1F
100
AcDbEntity
  8
AM_5
100
AcDbBlockReference
  2
*S18
 10
0.0
 20
0.0
 30
0.0
  0
INSERT
  5
14F5
330
1F
100
AcDbEntity
  8
AM_5
100
AcDbBlockReference
  2
*S19
 10
0.0
 20
0.0
 30
0.0
  0
INSERT
  5
1509
330
1F
100
AcDbEntity
  8
AM_5
100
AcDbBlockReference
  2
*S20
 10
0.0
 20
0.0
 30
0.0
  0
LINE
  5
15A2
330
1F
100
AcDbEntity
  8
LOGO
 62
     4
100
AcDbLine
 10
2804.891183086103
 20
1412.198806938786
 30
0.0
 11
2398.331183086103
 21
1412.198806938786
 31
0.0
  0
LWPOLYLINE
  5
15A3
330
1F
100
AcDbEntity
  8
LOGO
 62
     4
100
AcDbPolyline
 90
        4
 70
     1
 43
0.0
 10
2398.331183086103
 20
1412.198806938787
 10
2804.891183086103
 20
1412.198806938787
 10
2804.891183086103
 20
1894.268693780414
 10
2398.331183086103
 20
1894.268693780414
1001
GENIUS_GENREC_14
1002
{
1000
PYDIR
1011
2398.331183086103
1021
1894.268693780414
1031
0.0
1002
}
1002
{
1000
PXDIR
1011
2804.891183086103
1021
1412.198806938787
1031
0.0
1002
}
1002
{
1000
PORI
1011
2398.331183086103
1021
1412.198806938787
1031
0.0
1002
}
1002
{
1000
PINS
1011
2398.331183086103
1021
1412.198806938787
1031
0.0
1002
}
1002
{
1000
PINS2
1011
2804.891183086103
1021
1894.268693780414
1031
0.0
1002
}
1002
{
1000
C
1070
     1
1002
}
1001
GENIUS_GENODEF_13
1002
{
1000
HIER
1070
     0
1002
}
1002
{
1000
MANEDIT
1070
     0
1002
}
1002
{
1000
NOSEL
1070
     0
1002
}
1002
{
1000
BEHIND
1070
     0
1002
}
1002
{
1000
OTHER
1070
     0
1002
}
1002
{
1000
REACTOR
1002
}
1001
GENIUS_GENOBJ-N-REC_13
1002
{
1000
OWNER
1000
GEN
1002
}
  0
LWPOLYLINE
  5
15A4
330
1F
100
AcDbEntity
  8
LOGO
 62
     4
100
AcDbPolyline
 90
        4
 70
     1
 43
0.0
 10
2398.331183086103
 20
1412.198806938787
 10
2804.891183086103
 20
1412.198806938787
 10
2804.891183086103
 20
1371.548693780414
 10
2398.331183086103
 20
1371.548693780414
1001
GENIUS_GENREC_14
1002
{
1000
PYDIR
1011
2398.331183086103
1021
1371.548693780414
1031
0.0
1002
}
1002
{
1000
PXDIR
1011
2804.891183086103
1021
1412.198806938787
1031
0.0
1002
}
1002
{
1000
PORI
1011
2398.331183086103
1021
1412.198806938787
1031
0.0
1002
}
1002
{
1000
PINS
1011
2398.331183086103
1021
1412.198806938787
1031
0.0
1002
}
1002
{
1000
PINS2
1011
2804.891183086103
1021
1371.548693780414
1031
0.0
1002
}
1002
{
1000
C
1070
     1
1002
}
1001
GENIUS_GENOBJ-N-REC_13
1002
{
1000
OWNER
1000
GEN
1002
}
1001
GENIUS_GENODEF_13
1002
{
1000
HIER
1070
     0
1002
}
1002
{
1000
MANEDIT
1070
     0
1002
}
1002
{
1000
NOSEL
1070
     0
1002
}
1002
{
1000
BEHIND
1070
     0
1002
}
1002
{
1000
OTHER
1070
     0
1002
}
1002
{
1000
REACTOR
1002
}
  0
TEXT
  5
15A5
330
1F
100
AcDbEntity
  8
LOGO
 62
     7
100
AcDbText
 10
2490.116446973796
 20
1394.390684084887
 30
0.0
 40
5.420015087782805
  1
Order example:
 41
0.8
  7
CHINESET
100
AcDbText
  0
TEXT
  5
15A6
330
1F
100
AcDbEntity
  8
LOGO
 62
     7
100
AcDbText
 10
2491.088842502245
 20
1402.020943100042
 30
0.0
 40
8.130022631674208
  1
訂購代號：
  7
CHINESET
100
AcDbText
  0
LINE
  5
15A7
330
1F
100
AcDbEntity
  8
LOGO
 62
     4
100
AcDbLine
 10
2487.76143203452
 20
1371.548693780415
 30
0.0
 11
2487.76143203452
 21
1412.198806938786
 31
0.0
  0
TEXT
  5
15A8
330
1F
100
AcDbEntity
  8
LOGO
  6
Continuous
100
AcDbText
 10
2412.932886458384
 20
1379.534347164008
 30
0.0
 40
6.097516973755657
  1
金器工業股份有限公司
  7
CHINESET
100
AcDbText
  0
TEXT
  5
15A9
330
1F
100
AcDbEntity
  8
LOGO
  6
Continuous
100
AcDbText
 10
2401.732954111839
 20
1373.435635554989
 30
0.0
 40
4.065011315837104
  1
MINDMAN INDUSTRIAL CO., LTD.
 41
0.85
  7
CHINESET
100
AcDbText
  0
LINE
  5
15AA
330
1F
100
AcDbEntity
  8
LOGO
 62
     4
100
AcDbLine
 10
2487.76143203452
 20
1404.068784307112
 30
0.0
 11
2428.141266068907
 21
1404.068784307112
 31
0.0
  0
LINE
  5
15AB
330
1F
100
AcDbEntity
  8
LOGO
 62
     4
100
AcDbLine
 10
2487.76143203452
 20
1395.938761675438
 30
0.0
 11
2428.141266068907
 21
1395.938761675438
 31
0.0
  0
LINE
  5
15AC
330
1F
100
AcDbEntity
  8
LOGO
 62
     4
100
AcDbLine
 10
2487.76143203452
 20
1387.808739043764
 30
0.0
 11
2398.331183086103
 21
1387.808739043764
 31
0.0
  0
LINE
  5
15AD
330
1F
100
AcDbEntity
  8
LOGO
 62
     4
100
AcDbLine
 10
2428.141266068907
 20
1387.808739043764
 30
0.0
 11
2428.141266068907
 21
1412.198806938786
 31
0.0
  0
TEXT
  5
15AE
330
1F
100
AcDbEntity
  8
LOGO
100
AcDbText
 10
2468.888835477433
 20
1389.841244701682
 30
0.0
 40
4.065011315837104
  1
mm
  7
CHINESET
 72
     1
 11
2473.921706630374
 21
1391.8737503596
 31
0.0
100
AcDbText
 73
     2
  0
TEXT
  5
15AF
330
1F
100
AcDbEntity
  8
LOGO
100
AcDbText
 10
2466.759543835804
 20
1406.10128996503
 30
0.0
 40
4.065011315837104
  1
1 : 1
  7
CHINESET
 72
     1
 11
2473.921706630374
 21
1408.133795622949
 31
0.0
100
AcDbText
 73
     2
  0
LINE
  5
15B0
330
1F
100
AcDbEntity
  8
LOGO
 62
     4
100
AcDbLine
 10
2460.661356595605
 20
1387.808739043764
 30
0.0
 11
2460.661356595605
 21
1412.198806938786
 31
0.0
  0
CIRCLE
  5
15B1
330
1F
100
AcDbEntity
  8
LOGO
  6
Continuous
100
AcDbCircle
 10
2468.188233490456
 20
1400.012468080227
 30
0.0
 40
2.36024124955578
  0
CIRCLE
  5
15B2
330
1F
100
AcDbEntity
  8
LOGO
  6
Continuous
100
AcDbCircle
 10
2468.188233490456
 20
1400.012468080227
 30
0.0
 40
1.382892431903425
  0
LINE
  5
15B3
330
1F
100
AcDbEntity
  8
LOGO
100
AcDbLine
 10
2483.020263373476
 20
1397.65222683067
 30
0.0
 11
2483.020263373476
 21
1402.372709329783
 31
0.0
  0
LINE
  5
15B4
330
1F
100
AcDbEntity
  8
LOGO
100
AcDbLine
 10
2475.621042540432
 20
1398.629575648324
 30
0.0
 11
2475.621042540432
 21
1401.39536051213
 31
0.0
  0
LINE
  5
15B5
330
1F
100
AcDbEntity
  8
LOGO
  6
Continuous
100
AcDbLine
 10
2475.621042540432
 20
1401.39536051213
 30
0.0
 11
2483.020263373476
 21
1402.372709329783
 31
0.0
  0
LINE
  5
15B6
330
1F
100
AcDbEntity
  8
LOGO
  6
Continuous
100
AcDbLine
 10
2475.621042540432
 20
1398.629575648324
 30
0.0
 11
2483.020263373476
 21
1397.65222683067
 31
0.0
  0
TEXT
  5
15B7
330
1F
100
AcDbEntity
  8
LOGO
100
AcDbText
 10
2431.493085667279
 20
1406.103290462725
 30
266.4141449250292
 40
4.065011315837104
  1
比例 Scale:
 41
0.9
  7
CHINESET
 72
     4
 11
2444.401311332256
 21
1408.133795622949
 31
266.4141449250292
100
AcDbText
  0
TEXT
  5
15B8
330
1F
100
AcDbEntity
  8
LOGO
100
AcDbText
 10
2431.25898456918
 20
1398.028448225799
 30
266.4141449250292
 40
4.065011315837104
  1
投影  View:
 41
0.9
  7
CHINESET
 72
     4
 11
2444.401311332256
 21
1400.003772991275
 31
266.4141449250292
100
AcDbText
  0
TEXT
  5
15B9
330
1F
100
AcDbEntity
  8
LOGO
100
AcDbText
 10
2431.65641201479
 20
1389.841244701682
 30
266.4141449250292
 40
4.065011315837104
  1
單位  Unit:
 41
0.9
  7
CHINESET
 72
     4
 11
2444.401311332256
 21
1391.8737503596
 31
266.4141449250292
100
AcDbText
  0
SOLID
  5
15BA
330
1F
100
AcDbEntity
  8
LOGO
 62
     5
100
AcDbTrace
 10
2402.548697564753
 20
1394.566241747545
 30
0.0
 11
2404.306301791824
 21
1394.566241747545
 31
0.0
 12
2411.639753911672
 22
1411.233178383564
 32
0.0
 13
2413.397358138743
 23
1411.233178383563
 33
0.0
  0
SOLID
  5
15BB
330
1F
100
AcDbEntity
  8
LOGO
 62
     5
100
AcDbTrace
 10
2405.033586299579
 20
1394.566241747545
 30
0.0
 11
2406.791190526651
 21
1394.566241747545
 31
0.0
 12
2413.397358138743
 22
1409.899823452681
 32
0.0
 13
2411.639753911672
 23
1403.455274620087
 33
0.0
  0
SOLID
  5
15BC
330
1F
100
AcDbEntity
  8
LOGO
 62
     2
100
AcDbTrace
 10
2404.306301791824
 20
1394.566241747545
 30
0.0
 11
2405.033586299579
 21
1394.566241747545
 31
0.0
 12
2413.397358138743
 22
1411.233178383563
 32
0.0
 13
2414.124642646499
 23
1411.233178383563
 33
0.0
  0
SOLID
  5
15BD
330
1F
100
AcDbEntity
  8
LOGO
 62
     5
100
AcDbTrace
 10
2399.730826971405
 20
1388.505537516266
 30
0.0
 11
2400.336897394534
 21
1388.505537516266
 31
0.0
 12
2402.043638878814
 22
1391.535889631905
 32
0.0
 13
2402.649709301941
 23
1391.535889631905
 33
0.0
  0
SOLID
  5
15BE
330
1F
100
AcDbEntity
  8
LOGO
 62
     5
100
AcDbTrace
 10
2402.043638878814
 20
1391.535889631905
 30
0.0
 11
2402.649709301941
 21
1391.535889631905
 31
0.0
 12
2402.043638878814
 22
1388.505537516266
 32
0.0
 13
2402.649709301941
 23
1388.505537516266
 33
0.0
  0
SOLID
  5
15BF
330
1F
100
AcDbEntity
  8
LOGO
 62
     5
100
AcDbTrace
 10
2402.043638878814
 20
1388.505537516266
 30
0.0
 11
2402.649709301941
 21
1388.505537516266
 31
0.0
 12
2404.356450786224
 22
1391.535889631905
 32
0.0
 13
2404.962521209351
 23
1391.535889631905
 33
0.0
  0
SOLID
  5
15C0
330
1F
100
AcDbEntity
  8
LOGO
 62
     5
100
AcDbTrace
 10
2404.356450786224
 20
1391.535889631905
 30
0.0
 11
2404.962521209351
 21
1391.535889631905
 31
0.0
 12
2404.356450786224
 22
1388.505537516266
 32
0.0
 13
2404.962521209351
 23
1388.505537516266
 33
0.0
  0
POLYLINE
  5
15C1
330
1F
100
AcDbEntity
  8
LOGO
 62
     5
100
AcDb2dPolyline
 66
     1
 10
0.0
 20
0.0
 30
0.0
 40
0.6070416898316741
 41
0.6070416898316741
  0
VERTEX
  5
15C2
330
15C1
100
AcDbEntity
  8
LOGO
 62
     5
100
AcDbVertex
100
AcDb2dVertex
 10
2424.67172490898
 20
1390.323748785649
 30
0.0
 42
1.0
  0
VERTEX
  5
15C3
330
15C1
100
AcDbEntity
  8
LOGO
 62
     5
100
AcDbVertex
100
AcDb2dVertex
 10
2422.850599839485
 20
1390.323748785649
 30
0.0
 42
1.0
  0
SEQEND
  5
15C4
330
15C1
100
AcDbEntity
  8
LOGO
 62
     5
  0
POLYLINE
  5
15C5
330
1F
100
AcDbEntity
  8
LOGO
 62
     5
100
AcDb2dPolyline
 66
     1
 10
0.0
 20
0.0
 30
0.0
 70
     1
  0
VERTEX
  5
15C6
330
15C5
100
AcDbEntity
  8
LOGO
 62
     5
100
AcDbVertex
100
AcDb2dVertex
 10
2419.417698079842
 20
1390.020713574085
 30
0.0
 42
1.000000057330635
  0
VERTEX
  5
15C7
330
15C5
100
AcDbEntity
  8
LOGO
 62
     5
100
AcDbVertex
100
AcDb2dVertex
 10
2421.235909349226
 20
1390.020713574085
 30
0.0
 42
1.000000057330635
  0
SEQEND
  5
15C8
330
15C5
100
AcDbEntity
  8
LOGO
 62
     5
  0
CIRCLE
  5
15C9
330
1F
100
AcDbEntity
  8
LOGO
 62
     5
100
AcDbCircle
 10
2420.326803714536
 20
1390.020713574085
 30
0.0
 40
0.9091056346919154
  0
POLYLINE
  5
15CA
330
1F
100
AcDbEntity
  8
LOGO
 62
     5
100
AcDb2dPolyline
 66
     1
 10
0.0
 20
0.0
 30
0.0
 70
     1
 40
0.6070416898316741
 41
0.6070416898316741
  0
VERTEX
  5
15CB
330
15CA
100
AcDbEntity
  8
LOGO
 62
     5
100
AcDbVertex
100
AcDb2dVertex
 10
2419.112720334871
 20
1390.020713574085
 30
0.0
 42
1.0
  0
VERTEX
  5
15CC
330
15CA
100
AcDbEntity
  8
LOGO
 62
     5
100
AcDbVertex
100
AcDb2dVertex
 10
2421.540887094198
 20
1390.020713574085
 30
0.0
 42
1.0
  0
SEQEND
  5
15CD
330
15CA
100
AcDbEntity
  8
LOGO
 62
     5
  0
LINE
  5
15CE
330
1F
100
AcDbEntity
  8
LOGO
100
AcDbLine
 10
2424.973303220487
 20
1388.505537516266
 30
0.0
 11
2424.973303220487
 21
1390.323748785649
 31
0.0
  0
SOLID
  5
15CF
330
1F
100
AcDbEntity
  8
LOGO
 62
     5
100
AcDbTrace
 10
2421.235848742187
 20
1391.535889631905
 30
0.0
 11
2421.841919165313
 21
1391.535889631905
 31
0.0
 12
2421.235848742187
 22
1388.505537516266
 32
0.0
 13
2421.841919165313
 23
1388.505537516266
 33
0.0
  0
SOLID
  5
15D0
330
1F
100
AcDbEntity
  8
LOGO
 62
     5
100
AcDbTrace
 10
2422.549021527975
 20
1388.505537516266
 30
0.0
 11
2423.155091951104
 21
1388.505537516266
 31
0.0
 12
2422.549021527975
 22
1391.535889631905
 32
0.0
 13
2423.155091951104
 23
1391.535889631905
 33
0.0
  0
SOLID
  5
15D1
330
1F
100
AcDbEntity
  8
LOGO
 62
     5
100
AcDbTrace
 10
2424.367232797361
 20
1390.323748785649
 30
0.0
 11
2424.973303220487
 21
1390.323748785649
 31
0.0
 12
2424.367232797361
 22
1388.505537516266
 32
0.0
 13
2424.973303220487
 23
1388.505537516266
 33
0.0
  0
SOLID
  5
15D2
330
1F
100
AcDbEntity
  8
LOGO
 62
     5
100
AcDbTrace
 10
2422.488414485663
 20
1409.899823452681
 30
0.0
 11
2420.730810258592
 21
1403.455274620087
 31
0.0
 12
2422.488414485663
 22
1394.566241747545
 32
0.0
 13
2420.730810258592
 23
1394.566241747545
 33
0.0
  0
SOLID
  5
15D3
330
1F
100
AcDbEntity
  8
LOGO
 62
     5
100
AcDbTrace
 10
2423.215698993417
 20
1394.566241747545
 30
0.0
 11
2424.973303220487
 21
1394.566241747545
 31
0.0
 12
2423.215698993417
 22
1411.233178383563
 32
0.0
 13
2424.973303220487
 23
1411.233178383564
 33
0.0
  0
SOLID
  5
15D4
330
1F
100
AcDbEntity
  8
LOGO
 62
     2
100
AcDbTrace
 10
2422.488414485663
 20
1411.233178383564
 30
0.0
 11
2423.215698993417
 21
1411.233178383563
 31
0.0
 12
2422.488414485663
 22
1394.566241747545
 32
0.0
 13
2423.215698993417
 23
1394.566241747545
 33
0.0
  0
POLYLINE
  5
15D5
330
1F
100
AcDbEntity
  8
LOGO
 62
     5
100
AcDb2dPolyline
 66
     1
 10
0.0
 20
0.0
 30
0.0
 40
0.6070416898316741
 41
0.6070416898316741
  0
VERTEX
  5
15D6
330
15D5
100
AcDbEntity
  8
LOGO
 62
     5
100
AcDbVertex
100
AcDb2dVertex
 10
2415.984675106118
 20
1390.323748785649
 30
0.0
 42
1.0
  0
VERTEX
  5
15D7
330
15D5
100
AcDbEntity
  8
LOGO
 62
     5
100
AcDbVertex
100
AcDb2dVertex
 10
2414.163550036623
 20
1390.323748785649
 30
0.0
 42
1.0
  0
SEQEND
  5
15D8
330
15D5
100
AcDbEntity
  8
LOGO
 62
     5
  0
POLYLINE
  5
15D9
330
1F
100
AcDbEntity
  8
LOGO
 62
     5
100
AcDb2dPolyline
 66
     1
 10
0.0
 20
0.0
 30
0.0
 40
0.6070416898316741
 41
0.6070416898316741
  0
VERTEX
  5
15DA
330
15D9
100
AcDbEntity
  8
LOGO
 62
     5
100
AcDbVertex
100
AcDb2dVertex
 10
2417.802886375501
 20
1390.323748785649
 30
0.0
 42
1.0
  0
VERTEX
  5
15DB
330
15D9
100
AcDbEntity
  8
LOGO
 62
     5
100
AcDbVertex
100
AcDb2dVertex
 10
2415.981761306006
 20
1390.323748785649
 30
0.0
 42
1.0
  0
SEQEND
  5
15DC
330
15D9
100
AcDbEntity
  8
LOGO
 62
     5
  0
POLYLINE
  5
15DD
330
1F
100
AcDbEntity
  8
LOGO
 62
     5
100
AcDb2dPolyline
 66
     1
 10
0.0
 20
0.0
 30
0.0
 40
0.6070416898316741
 41
0.6070416898316741
  0
VERTEX
  5
15DE
330
15DD
100
AcDbEntity
  8
LOGO
 62
     5
100
AcDbVertex
100
AcDb2dVertex
 10
2409.115836572638
 20
1390.323748785649
 30
0.0
 42
1.0
  0
VERTEX
  5
15DF
330
15DD
100
AcDbEntity
  8
LOGO
 62
     5
100
AcDbVertex
100
AcDb2dVertex
 10
2407.294711503144
 20
1390.323748785649
 30
0.0
 42
1.0
  0
SEQEND
  5
15E0
330
15DD
100
AcDbEntity
  8
LOGO
 62
     5
  0
SOLID
  5
15E1
330
1F
100
AcDbEntity
  8
LOGO
 62
     5
100
AcDbTrace
 10
2406.993133191635
 20
1391.535889631905
 30
0.0
 11
2407.599203614763
 21
1391.535889631905
 31
0.0
 12
2406.993133191635
 22
1388.505537516266
 32
0.0
 13
2407.599203614763
 23
1388.505537516266
 33
0.0
  0
SOLID
  5
15E2
330
1F
100
AcDbEntity
  8
LOGO
 62
     5
100
AcDbTrace
 10
2408.81134446102
 20
1390.323748785649
 30
0.0
 11
2409.417414884149
 21
1390.323748785649
 31
0.0
 12
2408.81134446102
 22
1388.505537516266
 32
0.0
 13
2409.417414884149
 23
1388.505537516266
 33
0.0
  0
POLYLINE
  5
15E3
330
1F
100
AcDbEntity
  8
LOGO
 62
     5
100
AcDb2dPolyline
 66
     1
 10
0.0
 20
0.0
 30
0.0
 70
     1
 40
0.6070416898316741
 41
0.6070416898316741
  0
VERTEX
  5
15E4
330
15E3
100
AcDbEntity
  8
LOGO
 62
     5
100
AcDbVertex
100
AcDb2dVertex
 10
2410.425670532009
 20
1390.020713574085
 30
0.0
 42
1.0
  0
VERTEX
  5
15E5
330
15E3
100
AcDbEntity
  8
LOGO
 62
     5
100
AcDbVertex
100
AcDb2dVertex
 10
2412.853837291336
 20
1390.020713574085
 30
0.0
 42
1.0
  0
SEQEND
  5
15E6
330
15E3
100
AcDbEntity
  8
LOGO
 62
     5
  0
SOLID
  5
15E7
330
1F
100
AcDbEntity
  8
LOGO
 62
     5
100
AcDbTrace
 10
2412.548798939323
 20
1392.444995266598
 30
0.0
 11
2413.154869362451
 21
1392.444995266598
 31
0.0
 12
2412.548798939323
 22
1388.505537516266
 32
0.0
 13
2413.154869362451
 23
1388.505537516266
 33
0.0
  0
SOLID
  5
15E8
330
1F
100
AcDbEntity
  8
LOGO
 62
     5
100
AcDbTrace
 10
2413.861971725115
 20
1391.535889631905
 30
0.0
 11
2414.468042148242
 21
1391.535889631905
 31
0.0
 12
2413.861971725115
 22
1388.505537516266
 32
0.0
 13
2414.468042148242
 23
1388.505537516266
 33
0.0
  0
SOLID
  5
15E9
330
1F
100
AcDbEntity
  8
LOGO
 62
     5
100
AcDbTrace
 10
2415.680182994498
 20
1390.323748785649
 30
0.0
 11
2416.286253417626
 21
1390.323748785649
 31
0.0
 12
2415.680182994498
 22
1388.505537516266
 32
0.0
 13
2416.286253417626
 23
1388.505537516266
 33
0.0
  0
SOLID
  5
15EA
330
1F
100
AcDbEntity
  8
LOGO
 62
     5
100
AcDbTrace
 10
2417.498394263881
 20
1390.323748785649
 30
0.0
 11
2418.10446468701
 21
1390.323748785649
 31
0.0
 12
2417.498394263881
 22
1388.505537516265
 32
0.0
 13
2418.10446468701
 23
1388.505537516265
 33
0.0
  0
SOLID
  5
15EB
330
1F
100
AcDbEntity
  8
LOGO
 62
     5
100
AcDbTrace
 10
2405.679960405845
 20
1391.960138928095
 30
0.0
 11
2406.286030828973
 21
1391.960138928095
 31
0.0
 12
2405.679960405845
 22
1392.444995266598
 32
0.0
 13
2406.286030828973
 23
1392.444995266598
 33
0.0
  0
SOLID
  5
15EC
330
1F
100
AcDbEntity
  8
LOGO
 62
     5
100
AcDbTrace
 10
2405.679960405845
 20
1391.535889631905
 30
0.0
 11
2406.286030828973
 21
1391.535889631905
 31
0.0
 12
2405.679960405845
 22
1388.505537516265
 32
0.0
 13
2406.286030828973
 23
1388.505537516266
 33
0.0
  0
SOLID
  5
15ED
330
1F
100
AcDbEntity
  8
LOGO
 62
     5
100
AcDbTrace
 10
2411.639753911672
 20
1394.566241747545
 30
0.0
 11
2413.397358138743
 21
1394.566241747545
 31
0.0
 12
2411.639753911672
 22
1403.455274620087
 32
0.0
 13
2413.397358138743
 23
1409.899823452681
 33
0.0
  0
SOLID
  5
15EE
330
1F
100
AcDbEntity
  8
LOGO
 62
     5
100
AcDbTrace
 10
2414.124642646499
 20
1411.233178383563
 30
0.0
 11
2415.882246873568
 21
1411.233178383564
 31
0.0
 12
2414.124642646499
 22
1395.899596678426
 32
0.0
 13
2415.882246873568
 23
1402.34414551102
 33
0.0
  0
SOLID
  5
15EF
330
1F
100
AcDbEntity
  8
LOGO
 62
     2
100
AcDbTrace
 10
2413.397358138743
 20
1411.233178383563
 30
0.0
 11
2414.124642646499
 21
1411.233178383563
 31
0.0
 12
2413.397358138743
 22
1394.566241747545
 32
0.0
 13
2414.124642646499
 23
1394.566241747545
 33
0.0
  0
SOLID
  5
15F0
330
1F
100
AcDbEntity
  8
LOGO
 62
     5
100
AcDbTrace
 10
2414.124642646499
 20
1395.899596678426
 30
0.0
 11
2415.882246873568
 21
1402.34414551102
 31
0.0
 12
2422.488414485663
 22
1411.233178383564
 32
0.0
 13
2420.730810258592
 23
1411.233178383564
 33
0.0
  0
SOLID
  5
15F1
330
1F
100
AcDbEntity
  8
LOGO
 62
     5
100
AcDbTrace
 10
2414.124642646499
 20
1394.566241747545
 30
0.0
 11
2415.882246873568
 21
1394.566241747545
 31
0.0
 12
2422.488414485663
 22
1409.899823452681
 32
0.0
 13
2420.730810258592
 23
1403.455274620087
 33
0.0
  0
SOLID
  5
15F2
330
1F
100
AcDbEntity
  8
LOGO
 62
     2
100
AcDbTrace
 10
2413.397358138743
 20
1394.566241747545
 30
0.0
 11
2414.124642646499
 21
1394.566241747545
 31
0.0
 12
2422.488414485663
 22
1411.233178383564
 32
0.0
 13
2423.215698993417
 23
1411.233178383563
 33
0.0
  0
LINE
  5
15F3
330
1F
100
AcDbEntity
  8
LOGO
 62
     4
100
AcDbLine
 10
2570.773933979163
 20
1389.841244701683
 30
0.0
 11
2570.773933979163
 21
1374.936203210279
 31
0.0
  0
LINE
  5
15F4
330
1F
100
AcDbEntity
  8
LOGO
 62
     4
100
AcDbLine
 10
2543.673858540249
 20
1389.841244701683
 30
0.0
 11
2543.673858540249
 21
1374.936203210279
 31
0.0
  0
LINE
  5
15F5
330
1F
100
AcDbEntity
  8
LOGO
 62
     4
100
AcDbLine
 10
2570.773933979163
 20
1374.936203210279
 30
0.0
 11
2543.673858540249
 21
1374.936203210279
 31
0.0
  0
LINE
  5
15F6
330
1F
100
AcDbEntity
  8
LOGO
 62
     4
100
AcDbLine
 10
2574.833437637678
 20
1408.133795622949
 30
0.0
 11
2543.673858540249
 21
1408.133795622949
 31
0.0
  0
LINE
  5
15F7
330
1F
100
AcDbEntity
  8
LOGO
 62
     4
100
AcDbLine
 10
2574.833437637678
 20
1395.938761675438
 30
0.0
 11
2543.673858540249
 21
1395.938761675438
 31
0.0
  0
LINE
  5
15F8
330
1F
100
AcDbEntity
  8
LOGO
 62
     4
100
AcDbLine
 10
2543.673858540249
 20
1408.133795622949
 30
0.0
 11
2543.673858540249
 21
1395.938761675438
 31
0.0
  0
LINE
  5
15F9
330
1F
100
AcDbEntity
  8
LOGO
 62
     4
100
AcDbLine
 10
2574.833437637678
 20
1408.133795622949
 30
0.0
 11
2574.833437637678
 21
1395.938761675438
 31
0.0
  0
LINE
  5
15FA
330
1F
100
AcDbEntity
  8
LOGO
 62
     4
100
AcDbLine
 10
2558.637839527785
 20
1395.938761675438
 30
0.0
 11
2558.637839527785
 21
1389.841244701683
 31
0.0
  0
TEXT
  5
15FB
330
1F
100
AcDbEntity
  8
LOGO
  6
Continuous
 62
     7
100
AcDbText
 10
2545.840725081364
 20
1398.484457182843
 30
0.0
 40
7.114799999999999
  1
MCGJ
  7
CHINESET
100
AcDbText
  0
LINE
  5
15FC
330
1F
100
AcDbEntity
  8
LOGO
 62
     4
100
AcDbLine
 10
2570.773933979163
 20
1389.841244701683
 30
0.0
 11
2543.673858540249
 21
1389.841244701683
 31
0.0
  0
TEXT
  5
15FD
330
1F
100
AcDbEntity
  8
LOGO
  6
Continuous
100
AcDbText
 10
2552.370186951063
 20
1377.040018209916
 30
266.4141449250292
 40
3.049199999999999
  1
Model
 41
0.8
  7
CHINESET
100
AcDbText
  0
TEXT
  5
15FE
330
1F
100
AcDbEntity
  8
LOGO
100
AcDbText
 10
2551.558589034458
 20
1382.692577860414
 30
266.4141449250292
 40
5.082000000000001
  1
型號
  7
CHINESET
100
AcDbText
  0
LINE
  5
15FF
330
1F
100
AcDbEntity
  8
LOGO
  6
Continuous
 62
     7
100
AcDbLine
 10
2576.129870536867
 20
1401.993081911681
 30
0.0
 11
2581.514752551071
 21
1401.993081911681
 31
0.0
  0
LINE
  5
1600
330
1F
100
AcDbEntity
  8
LOGO
 62
     4
100
AcDbLine
 10
2603.650288049182
 20
1389.841244701683
 30
0.0
 11
2603.650288049182
 21
1374.936203210279
 31
0.0
  0
LINE
  5
1601
330
1F
100
AcDbEntity
  8
LOGO
 62
     4
100
AcDbLine
 10
2575.58305385677
 20
1389.841244701683
 30
0.0
 11
2575.58305385677
 21
1374.936203210279
 31
0.0
  0
LINE
  5
1602
330
1F
100
AcDbEntity
  8
LOGO
 62
     4
100
AcDbLine
 10
2603.650288049182
 20
1374.936203210279
 30
0.0
 11
2575.58305385677
 21
1374.936203210279
 31
0.0
  0
LINE
  5
1603
330
1F
100
AcDbEntity
  8
LOGO
 62
     4
100
AcDbLine
 10
2598.917701625808
 20
1408.133795622949
 30
0.0
 11
2583.213398972481
 21
1408.133795622949
 31
0.0
  0
LINE
  5
1604
330
1F
100
AcDbEntity
  8
LOGO
 62
     4
100
AcDbLine
 10
2598.917701625808
 20
1395.938761675438
 30
0.0
 11
2583.213398972481
 21
1395.938761675438
 31
0.0
  0
LINE
  5
1605
330
1F
100
AcDbEntity
  8
LOGO
 62
     4
100
AcDbLine
 10
2583.213398972481
 20
1408.133795622949
 30
0.0
 11
2583.213398972481
 21
1395.938761675438
 31
0.0
  0
LINE
  5
1606
330
1F
100
AcDbEntity
  8
LOGO
 62
     4
100
AcDbLine
 10
2598.917701625808
 20
1408.133795622949
 30
0.0
 11
2598.917701625808
 21
1395.938761675438
 31
0.0
  0
LINE
  5
1607
330
1F
100
AcDbEntity
  8
LOGO
 62
     4
100
AcDbLine
 10
2591.065550299145
 20
1395.938761675438
 30
0.0
 11
2591.065550299145
 21
1389.841244701683
 31
0.0
  0
TEXT
  5
1608
330
1F
100
AcDbEntity
  8
LOGO
  6
Continuous
 62
     7
100
AcDbText
 10
2585.195784921183
 20
1398.484457182843
 30
0.0
 40
7.114799999999999
  1
12
  7
CHINESET
100
AcDbText
  0
LINE
  5
1609
330
1F
100
AcDbEntity
  8
LOGO
 62
     4
100
AcDbLine
 10
2603.650288049182
 20
1389.841244701683
 30
0.0
 11
2575.58305385677
 21
1389.841244701683
 31
0.0
  0
LINE
  5
160A
330
1F
100
AcDbEntity
  8
LOGO
  6
Continuous
 62
     7
100
AcDbLine
 10
2600.645547651635
 20
1401.993081911681
 30
0.0
 11
2606.030429665839
 21
1401.993081911681
 31
0.0
  0
LINE
  5
160B
330
1F
100
AcDbEntity
  8
LOGO
 62
     4
100
AcDbLine
 10
2634.338691403863
 20
1389.841244701683
 30
0.0
 11
2634.338691403863
 21
1374.936203210279
 31
0.0
  0
LINE
  5
160C
330
1F
100
AcDbEntity
  8
LOGO
 62
     4
100
AcDbLine
 10
2607.238615964949
 20
1389.841244701683
 30
0.0
 11
2607.238615964949
 21
1374.936203210279
 31
0.0
  0
LINE
  5
160D
330
1F
100
AcDbEntity
  8
LOGO
 62
     4
100
AcDbLine
 10
2634.338691403863
 20
1374.936203210279
 30
0.0
 11
2607.238615964949
 21
1374.936203210279
 31
0.0
  0
LINE
  5
160E
330
1F
100
AcDbEntity
  8
LOGO
 62
     4
100
AcDbLine
 10
2628.567297876141
 20
1408.133795622949
 30
0.0
 11
2607.72907608725
 21
1408.133795622949
 31
0.0
  0
LINE
  5
160F
330
1F
100
AcDbEntity
  8
LOGO
 62
     4
100
AcDbLine
 10
2628.567297876141
 20
1395.938761675438
 30
0.0
 11
2607.72907608725
 21
1395.938761675438
 31
0.0
  0
LINE
  5
1610
330
1F
100
AcDbEntity
  8
LOGO
 62
     4
100
AcDbLine
 10
2607.72907608725
 20
1408.133795622949
 30
0.0
 11
2607.72907608725
 21
1395.938761675438
 31
0.0
  0
LINE
  5
1611
330
1F
100
AcDbEntity
  8
LOGO
 62
     4
100
AcDbLine
 10
2628.567297876141
 20
1408.133795622949
 30
0.0
 11
2628.567297876141
 21
1395.938761675438
 31
0.0
  0
LINE
  5
1612
330
1F
100
AcDbEntity
  8
LOGO
 62
     4
100
AcDbLine
 10
2618.148186981695
 20
1395.938761675438
 30
0.0
 11
2618.148186981695
 21
1389.841244701683
 31
0.0
  0
TEXT
  5
1613
330
1F
100
AcDbEntity
  8
LOGO
  6
Continuous
 62
     7
100
AcDbText
 10
2612.172524884451
 20
1398.484457182843
 30
0.0
 40
7.114799999999999
  1
80
  7
CHINESET
100
AcDbText
  0
LINE
  5
1614
330
1F
100
AcDbEntity
  8
LOGO
 62
     4
100
AcDbLine
 10
2634.338691403863
 20
1389.841244701683
 30
0.0
 11
2607.238615964949
 21
1389.841244701683
 31
0.0
  0
LINE
  5
1615
330
1F
100
AcDbEntity
  8
LOGO
  6
Continuous
 62
     7
100
AcDbLine
 10
2630.301968722366
 20
1401.993081911681
 30
0.0
 11
2635.686850736571
 21
1401.993081911681
 31
0.0
  0
LINE
  5
1616
330
1F
100
AcDbEntity
  8
LOGO
 62
     4
100
AcDbLine
 10
2658.972368804966
 20
1389.841244701683
 30
0.0
 11
2658.972368804966
 21
1374.936203210279
 31
0.0
  0
LINE
  5
1617
330
1F
100
AcDbEntity
  8
LOGO
 62
     4
100
AcDbLine
 10
2636.895037035679
 20
1389.841244701683
 30
0.0
 11
2636.895037035679
 21
1374.936203210279
 31
0.0
  0
LINE
  5
1618
330
1F
100
AcDbEntity
  8
LOGO
 62
     4
100
AcDbLine
 10
2658.972368804966
 20
1374.936203210279
 30
0.0
 11
2636.895037035679
 21
1374.936203210279
 31
0.0
  0
LINE
  5
1619
330
1F
100
AcDbEntity
  8
LOGO
 62
     4
100
AcDbLine
 10
2650.360674624456
 20
1408.133795622949
 30
0.0
 11
2637.385497157981
 21
1408.133795622949
 31
0.0
  0
LINE
  5
161A
330
1F
100
AcDbEntity
  8
LOGO
 62
     4
100
AcDbLine
 10
2650.360674624456
 20
1395.938761675438
 30
0.0
 11
2637.385497157981
 21
1395.938761675438
 31
0.0
  0
LINE
  5
161B
330
1F
100
AcDbEntity
  8
LOGO
 62
     4
100
AcDbLine
 10
2637.385497157981
 20
1408.133795622949
 30
0.0
 11
2637.385497157981
 21
1395.938761675438
 31
0.0
  0
LINE
  5
161C
330
1F
100
AcDbEntity
  8
LOGO
 62
     4
100
AcDbLine
 10
2650.360674624456
 20
1408.133795622949
 30
0.0
 11
2650.360674624456
 21
1395.938761675438
 31
0.0
  0
LINE
  5
161D
330
1F
100
AcDbEntity
  8
LOGO
 62
     4
100
AcDbLine
 10
2643.873085891219
 20
1395.938761675438
 30
0.0
 11
2643.873085891219
 21
1389.841244701683
 31
0.0
  0
TEXT
  5
161E
330
1F
100
AcDbEntity
  8
LOGO
  6
Continuous
 62
     7
100
AcDbText
 10
2641.758751246502
 20
1398.484457182843
 30
0.0
 40
7.114799999999999
  1
0
  7
CHINESET
100
AcDbText
  0
LINE
  5
161F
330
1F
100
AcDbEntity
  8
LOGO
 62
     4
100
AcDbLine
 10
2658.972368804966
 20
1389.841244701683
 30
0.0
 11
2636.895037035679
 21
1389.841244701683
 31
0.0
  0
TEXT
  5
1620
330
1F
100
AcDbEntity
  8
LOGO
  6
Continuous
100
AcDbText
 10
2578.057062946208
 20
1377.040018209916
 30
266.4141449250292
 40
3.049199999999999
  1
Bearing type
 41
0.8
  7
CHINESET
100
AcDbText
  0
TEXT
  5
1621
330
1F
100
AcDbEntity
  8
LOGO
100
AcDbText
 10
2578.028338426123
 20
1382.692577860414
 30
266.4141449250292
 40
5.082000000000001
  1
軸承型式
  7
CHINESET
100
AcDbText
  0
TEXT
  5
1622
330
1F
100
AcDbEntity
  8
LOGO
  6
Continuous
100
AcDbText
 10
2612.914974159862
 20
1377.040018209916
 30
266.4141449250292
 40
3.049199999999999
  1
Tube I.D.
 41
0.8
  7
CHINESET
100
AcDbText
  0
TEXT
  5
1623
330
1F
100
AcDbEntity
  8
LOGO
100
AcDbText
 10
2614.144444451893
 20
1382.692577860414
 30
266.4141449250292
 40
5.082000000000001
  1
內徑
  7
CHINESET
100
AcDbText
  0
TEXT
  5
1624
330
1F
100
AcDbEntity
  8
LOGO
  6
Continuous
100
AcDbText
 10
2642.713535115126
 20
1377.040018209916
 30
266.4141449250292
 40
3.049199999999999
  1
Stroke
 41
0.8
  7
CHINESET
100
AcDbText
  0
TEXT
  5
1625
330
1F
100
AcDbEntity
  8
LOGO
100
AcDbText
 10
2642.502113610686
 20
1382.692577860414
 30
266.4141449250292
 40
5.082000000000001
  1
行程
  7
CHINESET
100
AcDbText
  0
TEXT
  5
1626
330
1F
100
AcDbEntity
  8
LOGO
100
AcDbText
 10
2490.254733584388
 20
1373.711263756099
 30
0.0
 40
4.0656
  1
10603141
 41
0.7
  7
CHINESET
 72
     1
 11
2499.537853584388
 21
1373.711263756099
 31
0.0
100
AcDbText
  0
LINE
  5
1627
330
1F
100
AcDbEntity
  8
LOGO
 62
     4
100
AcDbLine
 10
2512.155032034517
 20
1379.67871641209
 30
0.0
 11
2512.155032034519
 21
1371.548693780416
 31
0.0
  0
LINE
  5
1628
330
1F
100
AcDbEntity
  8
LOGO
 62
     4
100
AcDbLine
 10
2512.155032034517
 20
1379.67871641209
 30
0.0
 11
2487.76143203452
 21
1379.67871641209
 31
0.0
  0
LINE
  5
1629
330
1F
100
AcDbEntity
  8
LOGO
  6
AM_ISO08W050x2
 48
0.3
100
AcDbLine
 10
2464.934605586112
 20
1400.012468080227
 30
0.0
 11
2471.441861394798
 21
1400.012468080227
 31
0.0
1001
GENIUS_GENOREF_13
1005
162E
  0
LINE
  5
162A
330
1F
100
AcDbEntity
  8
LOGO
  6
AM_ISO08W050x2
 48
0.3
100
AcDbLine
 10
2468.188233490456
 20
1396.758840175884
 30
0.0
 11
2468.188233490456
 21
1403.266095984569
 31
0.0
1001
GENIUS_GENOREF_13
1005
162D
  0
LINE
  5
162B
330
1F
100
AcDbEntity
  8
LOGO
  6
CENTER
 48
0.5
100
AcDbLine
 10
2475.029310534169
 20
1400.012468080227
 30
0.0
 11
2483.765340958852
 21
1400.012468080227
 31
0.0
1001
GENIUS_GENOREF_13
1005
162C
  0
POINT
  5
162C
330
1F
100
AcDbEntity
  8
0
 60
     1
100
AcDbPoint
 10
717.7893463853256
 20
372.8627295737218
 30
0.0
1001
GENIUS_GENOBJ-N-CRS_13
1002
{
1000
OWNER
1000
GEN
1002
}
1001
GENIUS_GENOLIS_13
1002
{
1000
ENT
1005
0
1005
0
1005
0
1005
162B
1002
}
1001
GENIUS_GENOENT_13
1002
{
1000
MYREF
1005
162C
1002
}
1002
{
1000
GRP
1005
0
1002
}
1001
GENIUS_GENODEF_13
1002
{
1000
HIER
1070
    10
1002
}
1002
{
1000
MANEDIT
1070
     1
1002
}
1002
{
1000
NOSEL
1070
     0
1002
}
1002
{
1000
BEHIND
1070
     0
1002
}
1002
{
1000
OTHER
1070
     0
1002
}
1002
{
1000
REACTOR
1002
}
  0
POINT
  5
162D
330
1F
100
AcDbEntity
  8
0
 60
     1
100
AcDbPoint
 10
706.4647611624709
 20
381.7383160523581
 30
0.0
1001
GENIUS_GENOBJ-N-CRS_13
1002
{
1000
OWNER
1000
GEN
1002
}
1001
GENIUS_GENOLIS_13
1002
{
1000
ENT
1005
0
1005
0
1005
0
1005
162A
1002
}
1001
GENIUS_GENOENT_13
1002
{
1000
MYREF
1005
162D
1002
}
1002
{
1000
GRP
1005
0
1002
}
1001
GENIUS_GENODEF_13
1002
{
1000
HIER
1070
    10
1002
}
1002
{
1000
MANEDIT
1070
     1
1002
}
1002
{
1000
NOSEL
1070
     0
1002
}
1002
{
1000
BEHIND
1070
     0
1002
}
1002
{
1000
OTHER
1070
     0
1002
}
1002
{
1000
REACTOR
1002
}
  0
POINT
  5
162E
330
1F
100
AcDbEntity
  8
0
 60
     1
100
AcDbPoint
 10
712.8234348603077
 20
372.8627295737218
 30
0.0
1001
GENIUS_GENOBJ-N-CRS_13
1002
{
1000
OWNER
1000
GEN
1002
}
1001
GENIUS_GENOLIS_13
1002
{
1000
ENT
1005
0
1005
0
1005
0
1005
1629
1002
}
1001
GENIUS_GENOENT_13
1002
{
1000
MYREF
1005
162E
1002
}
1002
{
1000
GRP
1005
0
1002
}
1001
GENIUS_GENODEF_13
1002
{
1000
HIER
1070
    10
1002
}
1002
{
1000
MANEDIT
1070
     1
1002
}
1002
{
1000
NOSEL
1070
     0
1002
}
1002
{
1000
BEHIND
1070
     0
1002
}
1002
{
1000
OTHER
1070
     0
1002
}
1002
{
1000
REACTOR
1002
}
  0
ARC
  5
1943
330
1F
100
AcDbEntity
  8
AM_4
100
AcDbCircle
 10
2528.406942560784
 20
1477.29274015857
 30
0.0
 40
5.198
100
AcDbArc
 50
247.2326621375207
 51
255.310459594068
  0
LINE
  5
1946
330
1F
100
AcDbEntity
  8
AM_VIS
100
AcDbLine
 10
2479.406942558807
 20
1610.581813918634
 30
0.0
 11
2479.406942558807
 21
1662.581813918634
 31
0.0
  0
LINE
  5
1947
330
1F
100
AcDbEntity
  8
AM_VIS
100
AcDbLine
 10
2484.191560617782
 20
1610.581813918634
 30
0.0
 11
2484.191560617782
 21
1662.581813918634
 31
0.0
  0
LINE
  5
1948
330
1F
100
AcDbEntity
  8
AM_VIS
100
AcDbLine
 10
2496.406942557782
 20
1610.581813918634
 30
0.0
 11
2496.406942557782
 21
1662.581813918634
 31
0.0
  0
LINE
  5
1949
330
1F
100
AcDbEntity
  8
AM_VIS
100
AcDbLine
 10
2500.906942557782
 20
1610.581813918634
 30
0.0
 11
2500.906942557782
 21
1662.581813918634
 31
0.0
  0
LINE
  5
194A
330
1F
100
AcDbEntity
  8
AM_VIS
100
AcDbLine
 10
2555.906942557782
 20
1610.581813918634
 30
0.0
 11
2555.906942557782
 21
1662.581813918634
 31
0.0
  0
LINE
  5
194B
330
1F
100
AcDbEntity
  8
AM_VIS
100
AcDbLine
 10
2560.406942557782
 20
1610.581813918634
 30
0.0
 11
2560.406942557782
 21
1662.581813918634
 31
0.0
  0
LINE
  5
194C
330
1F
100
AcDbEntity
  8
AM_VIS
100
AcDbLine
 10
2572.622324497782
 20
1610.581813918634
 30
0.0
 11
2572.622324497782
 21
1662.581813918634
 31
0.0
  0
LINE
  5
194D
330
1F
100
AcDbEntity
  8
AM_VIS
100
AcDbLine
 10
2577.406942556761
 20
1610.581813918634
 30
0.0
 11
2577.406942556761
 21
1662.581813918634
 31
0.0
  0
LINE
  5
194E
330
1F
100
AcDbEntity
  8
AM_VIS
100
AcDbLine
 10
2513.906942557782
 20
1610.581813918634
 30
0.0
 11
2513.906942557782
 21
1662.581813918634
 31
0.0
  0
LINE
  5
194F
330
1F
100
AcDbEntity
  8
AM_VIS
100
AcDbLine
 10
2508.106942556761
 20
1610.581813918634
 30
0.0
 11
2508.106942556761
 21
1662.581813918634
 31
0.0
  0
LINE
  5
1950
330
1F
100
AcDbEntity
  8
AM_VIS
100
AcDbLine
 10
2504.706942556761
 20
1610.581813918634
 30
0.0
 11
2504.706942556761
 21
1662.581813918634
 31
0.0
  0
LINE
  5
1951
330
1F
100
AcDbEntity
  8
AM_VIS
100
AcDbLine
 10
2542.906942557782
 20
1610.581813918634
 30
0.0
 11
2542.906942557782
 21
1662.581813918634
 31
0.0
  0
LINE
  5
1952
330
1F
100
AcDbEntity
  8
AM_VIS
100
AcDbLine
 10
2548.706942558807
 20
1610.581813918634
 30
0.0
 11
2548.706942558807
 21
1662.581813918634
 31
0.0
  0
LINE
  5
1953
330
1F
100
AcDbEntity
  8
AM_VIS
100
AcDbLine
 10
2552.106942558807
 20
1610.581813918634
 30
0.0
 11
2552.106942558807
 21
1662.581813918634
 31
0.0
  0
LINE
  5
1954
330
1F
100
AcDbEntity
  8
AM_VIS
100
AcDbLine
 10
2484.191560617782
 20
1610.581813918634
 30
0.0
 11
2496.406942557782
 21
1610.581813918634
 31
0.0
  0
LINE
  5
1955
330
1F
100
AcDbEntity
  8
AM_VIS
100
AcDbLine
 10
2496.406942557782
 20
1610.581813918634
 30
0.0
 11
2500.906942557782
 21
1610.581813918634
 31
0.0
  0
LINE
  5
1956
330
1F
100
AcDbEntity
  8
AM_VIS
100
AcDbLine
 10
2500.906942557782
 20
1610.581813918634
 30
0.0
 11
2504.506942556761
 21
1610.581813918634
 31
0.0
  0
LINE
  5
1957
330
1F
100
AcDbEntity
  8
AM_VIS
100
AcDbLine
 10
2506.856942556761
 20
1610.581813918634
 30
0.0
 11
2505.956942556761
 21
1610.581813918634
 31
0.0
  0
LINE
  5
1958
330
1F
100
AcDbEntity
  8
AM_VIS
100
AcDbLine
 10
2508.306942556761
 20
1610.581813918634
 30
0.0
 11
2513.906942557782
 21
1610.581813918634
 31
0.0
  0
LINE
  5
1959
330
1F
100
AcDbEntity
  8
AM_VIS
100
AcDbLine
 10
2513.906942557782
 20
1610.581813918634
 30
0.0
 11
2515.406942557782
 21
1610.581813918634
 31
0.0
  0
LINE
  5
195A
330
1F
100
AcDbEntity
  8
AM_VIS
100
AcDbLine
 10
2541.406942557782
 20
1610.581813918634
 30
0.0
 11
2542.906942557782
 21
1610.581813918634
 31
0.0
  0
LINE
  5
195B
330
1F
100
AcDbEntity
  8
AM_VIS
100
AcDbLine
 10
2542.906942557782
 20
1610.581813918634
 30
0.0
 11
2548.506942558807
 21
1610.581813918634
 31
0.0
  0
LINE
  5
195C
330
1F
100
AcDbEntity
  8
AM_VIS
100
AcDbLine
 10
2550.856942558807
 20
1610.581813918634
 30
0.0
 11
2549.956942558807
 21
1610.581813918634
 31
0.0
  0
LINE
  5
195D
330
1F
100
AcDbEntity
  8
AM_VIS
100
AcDbLine
 10
2552.306942558807
 20
1610.581813918634
 30
0.0
 11
2555.906942557782
 21
1610.581813918634
 31
0.0
  0
LINE
  5
195E
330
1F
100
AcDbEntity
  8
AM_VIS
100
AcDbLine
 10
2555.906942557782
 20
1610.581813918634
 30
0.0
 11
2560.406942557782
 21
1610.581813918634
 31
0.0
  0
LINE
  5
195F
330
1F
100
AcDbEntity
  8
AM_VIS
100
AcDbLine
 10
2560.406942557782
 20
1610.581813918634
 30
0.0
 11
2572.622324497782
 21
1610.581813918634
 31
0.0
  0
LINE
  5
1960
330
1F
100
AcDbEntity
  8
AM_VIS
100
AcDbLine
 10
2541.406942557782
 20
1610.581813918634
 30
0.0
 11
2541.406942557782
 21
1662.581813918634
 31
0.0
  0
LINE
  5
1961
330
1F
100
AcDbEntity
  8
AM_VIS
100
AcDbLine
 10
2515.406942557782
 20
1610.581813918634
 30
0.0
 11
2541.406942557782
 21
1610.581813918634
 31
0.0
  0
LINE
  5
1962
330
1F
100
AcDbEntity
  8
AM_VIS
100
AcDbLine
 10
2515.406942557782
 20
1610.581813918634
 30
0.0
 11
2515.406942557782
 21
1662.581813918634
 31
0.0
  0
LINE
  5
1963
330
1F
100
AcDbEntity
  8
AM_VIS
100
AcDbLine
 10
2572.622324497782
 20
1662.581813918634
 30
0.0
 11
2560.406942557782
 21
1662.581813918634
 31
0.0
  0
LINE
  5
1964
330
1F
100
AcDbEntity
  8
AM_VIS
100
AcDbLine
 10
2560.406942557782
 20
1662.581813918634
 30
0.0
 11
2555.906942557782
 21
1662.581813918634
 31
0.0
  0
LINE
  5
1965
330
1F
100
AcDbEntity
  8
AM_VIS
100
AcDbLine
 10
2555.906942557782
 20
1662.581813918634
 30
0.0
 11
2552.306942558807
 21
1662.581813918634
 31
0.0
  0
LINE
  5
1966
330
1F
100
AcDbEntity
  8
AM_VIS
100
AcDbLine
 10
2549.956942558807
 20
1662.581813918634
 30
0.0
 11
2550.856942558807
 21
1662.581813918634
 31
0.0
  0
LINE
  5
1967
330
1F
100
AcDbEntity
  8
AM_VIS
100
AcDbLine
 10
2548.506942558807
 20
1662.581813918634
 30
0.0
 11
2542.906942557782
 21
1662.581813918634
 31
0.0
  0
LINE
  5
1968
330
1F
100
AcDbEntity
  8
AM_VIS
100
AcDbLine
 10
2542.906942557782
 20
1662.581813918634
 30
0.0
 11
2541.406942557782
 21
1662.581813918634
 31
0.0
  0
LINE
  5
1969
330
1F
100
AcDbEntity
  8
AM_VIS
100
AcDbLine
 10
2541.406942557782
 20
1662.581813918634
 30
0.0
 11
2515.406942557782
 21
1662.581813918634
 31
0.0
  0
LINE
  5
196A
330
1F
100
AcDbEntity
  8
AM_VIS
100
AcDbLine
 10
2515.406942557782
 20
1662.581813918634
 30
0.0
 11
2513.906942557782
 21
1662.581813918634
 31
0.0
  0
LINE
  5
196B
330
1F
100
AcDbEntity
  8
AM_VIS
100
AcDbLine
 10
2513.906942557782
 20
1662.581813918634
 30
0.0
 11
2508.306942556761
 21
1662.581813918634
 31
0.0
  0
LINE
  5
196C
330
1F
100
AcDbEntity
  8
AM_VIS
100
AcDbLine
 10
2505.956942556761
 20
1662.581813918634
 30
0.0
 11
2506.856942556761
 21
1662.581813918634
 31
0.0
  0
LINE
  5
196D
330
1F
100
AcDbEntity
  8
AM_VIS
100
AcDbLine
 10
2504.506942556761
 20
1662.581813918634
 30
0.0
 11
2500.906942557782
 21
1662.581813918634
 31
0.0
  0
LINE
  5
196E
330
1F
100
AcDbEntity
  8
AM_VIS
100
AcDbLine
 10
2500.906942557782
 20
1662.581813918634
 30
0.0
 11
2496.406942557782
 21
1662.581813918634
 31
0.0
  0
LINE
  5
196F
330
1F
100
AcDbEntity
  8
AM_VIS
100
AcDbLine
 10
2496.406942557782
 20
1662.581813918634
 30
0.0
 11
2484.191560617782
 21
1662.581813918634
 31
0.0
  0
LINE
  5
1970
330
1F
100
AcDbEntity
  8
AM_VIS
100
AcDbLine
 10
2484.191560617782
 20
1610.581813918634
 30
0.0
 11
2479.406942558807
 21
1610.581813918634
 31
0.0
  0
LINE
  5
1971
330
1F
100
AcDbEntity
  8
AM_VIS
100
AcDbLine
 10
2504.506942556761
 20
1610.581813918634
 30
0.0
 11
2504.706942556761
 21
1610.581813918634
 31
0.0
  0
LINE
  5
1972
330
1F
100
AcDbEntity
  8
AM_VIS
100
AcDbLine
 10
2505.956942556761
 20
1610.581813918634
 30
0.0
 11
2504.706942556761
 21
1610.581813918634
 31
0.0
  0
LINE
  5
1973
330
1F
100
AcDbEntity
  8
AM_VIS
100
AcDbLine
 10
2508.106942556761
 20
1610.581813918634
 30
0.0
 11
2506.856942556761
 21
1610.581813918634
 31
0.0
  0
LINE
  5
1974
330
1F
100
AcDbEntity
  8
AM_VIS
100
AcDbLine
 10
2508.106942556761
 20
1610.581813918634
 30
0.0
 11
2508.306942556761
 21
1610.581813918634
 31
0.0
  0
LINE
  5
1975
330
1F
100
AcDbEntity
  8
AM_VIS
100
AcDbLine
 10
2548.506942558807
 20
1610.581813918634
 30
0.0
 11
2548.706942558807
 21
1610.581813918634
 31
0.0
  0
LINE
  5
1976
330
1F
100
AcDbEntity
  8
AM_VIS
100
AcDbLine
 10
2549.956942558807
 20
1610.581813918634
 30
0.0
 11
2548.706942558807
 21
1610.581813918634
 31
0.0
  0
LINE
  5
1977
330
1F
100
AcDbEntity
  8
AM_VIS
100
AcDbLine
 10
2552.106942558807
 20
1610.581813918634
 30
0.0
 11
2550.856942558807
 21
1610.581813918634
 31
0.0
  0
LINE
  5
1978
330
1F
100
AcDbEntity
  8
AM_VIS
100
AcDbLine
 10
2552.106942558807
 20
1610.581813918634
 30
0.0
 11
2552.306942558807
 21
1610.581813918634
 31
0.0
  0
LINE
  5
1979
330
1F
100
AcDbEntity
  8
AM_VIS
100
AcDbLine
 10
2577.406942556761
 20
1610.581813918634
 30
0.0
 11
2572.622324497782
 21
1610.581813918634
 31
0.0
  0
CIRCLE
  5
197A
330
1F
100
AcDbEntity
  8
AM_VIS
100
AcDbCircle
 10
2528.406942557782
 20
1642.581813918634
 30
0.0
 40
5.719999999999999
  0
CIRCLE
  5
197B
330
1F
100
AcDbEntity
  8
AM_VIS
100
AcDbCircle
 10
2528.406942557782
 20
1622.581813918634
 30
0.0
 40
5.719999999999999
  0
LINE
  5
197C
330
1F
100
AcDbEntity
  8
AM_VIS
100
AcDbLine
 10
2572.622324497782
 20
1662.581813918634
 30
0.0
 11
2577.406942556761
 21
1662.581813918634
 31
0.0
  0
LINE
  5
197D
330
1F
100
AcDbEntity
  8
AM_VIS
100
AcDbLine
 10
2552.306942558807
 20
1662.581813918634
 30
0.0
 11
2552.106942558807
 21
1662.581813918634
 31
0.0
  0
LINE
  5
197E
330
1F
100
AcDbEntity
  8
AM_VIS
100
AcDbLine
 10
2550.856942558807
 20
1662.581813918634
 30
0.0
 11
2552.106942558807
 21
1662.581813918634
 31
0.0
  0
LINE
  5
197F
330
1F
100
AcDbEntity
  8
AM_VIS
100
AcDbLine
 10
2548.706942558807
 20
1662.581813918634
 30
0.0
 11
2549.956942558807
 21
1662.581813918634
 31
0.0
  0
LINE
  5
1980
330
1F
100
AcDbEntity
  8
AM_VIS
100
AcDbLine
 10
2548.706942558807
 20
1662.581813918634
 30
0.0
 11
2548.506942558807
 21
1662.581813918634
 31
0.0
  0
LINE
  5
1981
330
1F
100
AcDbEntity
  8
AM_VIS
100
AcDbLine
 10
2508.306942556761
 20
1662.581813918634
 30
0.0
 11
2508.106942556761
 21
1662.581813918634
 31
0.0
  0
LINE
  5
1982
330
1F
100
AcDbEntity
  8
AM_VIS
100
AcDbLine
 10
2506.856942556761
 20
1662.581813918634
 30
0.0
 11
2508.106942556761
 21
1662.581813918634
 31
0.0
  0
LINE
  5
1983
330
1F
100
AcDbEntity
  8
AM_VIS
100
AcDbLine
 10
2504.706942556761
 20
1662.581813918634
 30
0.0
 11
2505.956942556761
 21
1662.581813918634
 31
0.0
  0
LINE
  5
1984
330
1F
100
AcDbEntity
  8
AM_VIS
100
AcDbLine
 10
2504.706942556761
 20
1662.581813918634
 30
0.0
 11
2504.506942556761
 21
1662.581813918634
 31
0.0
  0
LINE
  5
1985
330
1F
100
AcDbEntity
  8
AM_VIS
100
AcDbLine
 10
2479.406942558807
 20
1662.581813918634
 30
0.0
 11
2484.191560617782
 21
1662.581813918634
 31
0.0
  0
LINE
  5
1986
330
1F
100
AcDbEntity
  8
AM_VIS
100
AcDbLine
 10
2573.406942560784
 20
1692.581813918634
 30
0.0
 11
2483.406942560784
 21
1692.581813918634
 31
0.0
  0
LINE
  5
1987
330
1F
100
AcDbEntity
  8
AM_VIS
100
AcDbLine
 10
2483.406942560784
 20
1677.581813918634
 30
0.0
 11
2483.406942560784
 21
1692.581813918634
 31
0.0
  0
LINE
  5
1988
330
1F
100
AcDbEntity
  8
AM_VIS
100
AcDbLine
 10
2478.406942560784
 20
1692.581813918634
 30
0.0
 11
2478.406942560784
 21
1677.581813918634
 31
0.0
  0
LINE
  5
1989
330
1F
100
AcDbEntity
  8
AM_VIS
100
AcDbLine
 10
2483.406942560784
 20
1692.581813918634
 30
0.0
 11
2478.406942560784
 21
1692.581813918634
 31
0.0
  0
LINE
  5
198A
330
1F
100
AcDbEntity
  8
AM_VIS
100
AcDbLine
 10
2478.406942560784
 20
1677.581813918634
 30
0.0
 11
2483.406942560784
 21
1677.581813918634
 31
0.0
  0
LINE
  5
198B
330
1F
100
AcDbEntity
  8
AM_VIS
100
AcDbLine
 10
2483.406942560784
 20
1677.581813918634
 30
0.0
 11
2573.406942560784
 21
1677.581813918634
 31
0.0
  0
LINE
  5
198C
330
1F
100
AcDbEntity
  8
AM_VIS
100
AcDbLine
 10
2578.406942560784
 20
1677.581813918634
 30
0.0
 11
2578.406942560784
 21
1692.581813918634
 31
0.0
  0
LINE
  5
198D
330
1F
100
AcDbEntity
  8
AM_VIS
100
AcDbLine
 10
2573.406942560784
 20
1677.581813918634
 30
0.0
 11
2578.406942560784
 21
1677.581813918634
 31
0.0
  0
LINE
  5
198E
330
1F
100
AcDbEntity
  8
AM_VIS
100
AcDbLine
 10
2573.406942560784
 20
1692.581813918634
 30
0.0
 11
2573.406942560784
 21
1677.581813918634
 31
0.0
  0
LINE
  5
198F
330
1F
100
AcDbEntity
  8
AM_VIS
100
AcDbLine
 10
2578.406942560784
 20
1692.581813918634
 30
0.0
 11
2573.406942560784
 21
1692.581813918634
 31
0.0
  0
LINE
  5
1990
330
1F
100
AcDbEntity
  8
AM_VIS
100
AcDbLine
 10
2572.906942560784
 20
1662.581813918634
 30
0.0
 11
2572.906942560784
 21
1677.581813918634
 31
0.0
  0
LINE
  5
1991
330
1F
100
AcDbEntity
  8
AM_VIS
100
AcDbLine
 10
2560.906942560784
 20
1662.581813918634
 30
0.0
 11
2560.906942560784
 21
1677.581813918634
 31
0.0
  0
LINE
  5
1992
330
1F
100
AcDbEntity
  8
AM_VIS
100
AcDbLine
 10
2495.906942560784
 20
1662.581813918634
 30
0.0
 11
2495.906942560784
 21
1677.581813918634
 31
0.0
  0
LINE
  5
1993
330
1F
100
AcDbEntity
  8
AM_VIS
100
AcDbLine
 10
2483.906942560784
 20
1662.581813918634
 30
0.0
 11
2483.906942560784
 21
1677.581813918634
 31
0.0
  0
LINE
  5
19A7
330
1F
100
AcDbEntity
  8
AM_VIS
100
AcDbLine
 10
2541.549799700357
 20
1736.848731076097
 30
0.0
 11
2541.406942557782
 21
1735.848731078075
 31
0.0
  0
LINE
  5
19A8
330
1F
100
AcDbEntity
  8
AM_VIS
100
AcDbLine
 10
2541.406942557782
 20
1735.848731078075
 30
0.0
 11
2515.406942557782
 21
1735.848731078075
 31
0.0
  0
LINE
  5
19A9
330
1F
100
AcDbEntity
  8
AM_VIS
100
AcDbLine
 10
2515.406942557782
 20
1735.848731078075
 30
0.0
 11
2515.264085415207
 21
1736.848731076097
 31
0.0
  0
LINE
  5
19C7
330
1F
100
AcDbEntity
  8
AM_VIS
100
AcDbLine
 10
2573.406942560784
 20
1736.848731076097
 30
0.0
 11
2483.406942560784
 21
1736.848731076097
 31
0.0
  0
LINE
  5
19C8
330
1F
100
AcDbEntity
  8
AM_VIS
100
AcDbLine
 10
2483.406942560784
 20
1844.848731076097
 30
0.0
 11
2573.406942560784
 21
1844.848731076097
 31
0.0
  0
LINE
  5
19C9
330
1F
100
AcDbEntity
  8
AM_VIS
100
AcDbLine
 10
2573.406942560784
 20
1844.848731076097
 30
0.0
 11
2578.406942560784
 21
1839.848731076097
 31
0.0
  0
LINE
  5
19CA
330
1F
100
AcDbEntity
  8
AM_VIS
100
AcDbLine
 10
2478.406942560784
 20
1839.848731076097
 30
0.0
 11
2483.406942560784
 21
1844.848731076097
 31
0.0
  0
LINE
  5
19CB
330
1F
100
AcDbEntity
  8
AM_VIS
100
AcDbLine
 10
2478.406942560784
 20
1741.848731076097
 30
0.0
 11
2478.406942560784
 21
1839.848731076097
 31
0.0
  0
LINE
  5
19CC
330
1F
100
AcDbEntity
  8
AM_VIS
100
AcDbLine
 10
2483.406942560784
 20
1736.848731076097
 30
0.0
 11
2478.406942560784
 21
1741.848731076097
 31
0.0
  0
LINE
  5
19CD
330
1F
100
AcDbEntity
  8
AM_VIS
100
AcDbLine
 10
2578.406942560784
 20
1839.848731076097
 30
0.0
 11
2578.406942560784
 21
1741.848731076097
 31
0.0
  0
LINE
  5
19CE
330
1F
100
AcDbEntity
  8
AM_VIS
100
AcDbLine
 10
2578.406942560784
 20
1741.848731076097
 30
0.0
 11
2573.406942560784
 21
1736.848731076097
 31
0.0
  0
LINE
  5
19E1
330
1F
100
AcDbEntity
  8
AM_VIS
100
AcDbLine
 10
2575.406942556761
 20
1518.192740160547
 30
0.0
 11
2575.406942556761
 21
1516.39274015857
 31
0.0
  0
LINE
  5
19E2
330
1F
100
AcDbEntity
  8
AM_VIS
100
AcDbLine
 10
2572.606942558806
 20
1516.19274015857
 30
0.0
 11
2575.206942558807
 21
1516.19274015857
 31
0.0
  0
LINE
  5
19E3
330
1F
100
AcDbEntity
  8
AM_VIS
100
AcDbLine
 10
2572.406942558807
 20
1507.39274015857
 30
0.0
 11
2572.406942558807
 21
1515.99274015857
 31
0.0
  0
LINE
  5
19E4
330
1F
100
AcDbEntity
  8
AM_VIS
100
AcDbLine
 10
2573.506942558807
 20
1507.19274015857
 30
0.0
 11
2572.606942558806
 21
1507.19274015857
 31
0.0
  0
LINE
  5
19E5
330
1F
100
AcDbEntity
  8
AM_VIS
100
AcDbLine
 10
2573.706942558807
 20
1508.69274015857
 30
0.0
 11
2573.706942558807
 21
1507.39274015857
 31
0.0
  0
LINE
  5
19E6
330
1F
100
AcDbEntity
  8
AM_VIS
100
AcDbLine
 10
2575.206942558807
 20
1508.89274015857
 30
0.0
 11
2573.906942558807
 21
1508.89274015857
 31
0.0
  0
LINE
  5
19E7
330
1F
100
AcDbEntity
  8
AM_VIS
100
AcDbLine
 10
2575.406942556761
 20
1508.69274015857
 30
0.0
 11
2575.406942556761
 21
1505.192740177476
 31
0.0
  0
LINE
  5
19E8
330
1F
100
AcDbEntity
  8
AM_VIS
100
AcDbLine
 10
2575.406942556761
 20
1505.192740177476
 30
0.0
 11
2572.906942556761
 21
1502.692740177477
 31
0.0
  0
LINE
  5
19E9
330
1F
100
AcDbEntity
  8
AM_VIS
100
AcDbLine
 10
2572.906942556761
 20
1502.692740177477
 30
0.0
 11
2572.906942556761
 21
1497.19274015857
 31
0.0
  0
LINE
  5
19EA
330
1F
100
AcDbEntity
  8
AM_VIS
100
AcDbLine
 10
2571.906942556829
 20
1496.99274015857
 30
0.0
 11
2572.706942556829
 21
1496.99274015857
 31
0.0
  0
LINE
  5
19EB
330
1F
100
AcDbEntity
  8
AM_VIS
100
AcDbLine
 10
2571.406942556829
 20
1497.442740158569
 30
0.0
 11
2571.906942556829
 21
1496.99274015857
 31
0.0
  0
LINE
  5
19EC
330
1F
100
AcDbEntity
  8
AM_VIS
100
AcDbLine
 10
2569.30694255683
 20
1497.44274015857
 30
0.0
 11
2571.406942556829
 21
1497.44274015857
 31
0.0
  0
LINE
  5
19ED
330
1F
100
AcDbEntity
  8
AM_VIS
100
AcDbLine
 10
2567.606942556829
 20
1494.84274015857
 30
0.0
 11
2567.606942556829
 21
1495.74274015857
 31
0.0
  0
LINE
  5
19EE
330
1F
100
AcDbEntity
  8
AM_VIS
100
AcDbLine
 10
2571.406942556829
 20
1493.14274015857
 30
0.0
 11
2569.30694255683
 21
1493.14274015857
 31
0.0
  0
LINE
  5
19EF
330
1F
100
AcDbEntity
  8
AM_VIS
100
AcDbLine
 10
2571.906942556829
 20
1493.59274015857
 30
0.0
 11
2571.406942556829
 21
1493.14274015857
 31
0.0
  0
LINE
  5
19F0
330
1F
100
AcDbEntity
  8
AM_VIS
100
AcDbLine
 10
2572.706942556829
 20
1493.59274015857
 30
0.0
 11
2571.906942556829
 21
1493.59274015857
 31
0.0
  0
LINE
  5
19F1
330
1F
100
AcDbEntity
  8
AM_VIS
100
AcDbLine
 10
2572.906942556761
 20
1493.39274015857
 30
0.0
 11
2572.906942556761
 21
1489.792740157613
 31
0.0
  0
LINE
  5
19F2
330
1F
100
AcDbEntity
  8
AM_VIS
100
AcDbLine
 10
2572.906942556761
 20
1489.792740157613
 30
0.0
 11
2577.406942556761
 21
1485.292740157613
 31
0.0
  0
LINE
  5
19F3
330
1F
100
AcDbEntity
  8
AM_VIS
100
AcDbLine
 10
2577.406942556761
 20
1485.292740157613
 30
0.0
 11
2577.406942556761
 21
1473.077358217613
 31
0.0
  0
LINE
  5
19F4
330
1F
100
AcDbEntity
  8
AM_VIS
100
AcDbLine
 10
2572.62232449771
 20
1468.29274015857
 30
0.0
 11
2560.406942557854
 21
1468.29274015857
 31
0.0
  0
LINE
  5
19F5
330
1F
100
AcDbEntity
  8
AM_VIS
100
AcDbLine
 10
2560.406942557854
 20
1468.29274015857
 30
0.0
 11
2555.906942517854
 21
1472.79274019857
 31
0.0
  0
LINE
  5
19F6
330
1F
100
AcDbEntity
  8
AM_VIS
100
AcDbLine
 10
2555.906942517854
 20
1472.79274019857
 30
0.0
 11
2552.306942560853
 21
1472.79274019857
 31
0.0
  0
LINE
  5
19F7
330
1F
100
AcDbEntity
  8
AM_VIS
100
AcDbLine
 10
2552.106942560853
 20
1473.792740160547
 30
0.0
 11
2552.106942560853
 21
1472.992740160547
 31
0.0
  0
LINE
  5
19F8
330
1F
100
AcDbEntity
  8
AM_VIS
100
AcDbLine
 10
2552.556942560853
 20
1474.292740160547
 30
0.0
 11
2552.106942560853
 21
1473.792740160547
 31
0.0
  0
LINE
  5
19F9
330
1F
100
AcDbEntity
  8
AM_VIS
100
AcDbLine
 10
2552.556942560853
 20
1476.392740160547
 30
0.0
 11
2552.556942560853
 21
1474.292740160547
 31
0.0
  0
LINE
  5
19FA
330
1F
100
AcDbEntity
  8
AM_VIS
100
AcDbLine
 10
2549.956942560852
 20
1478.092740160547
 30
0.0
 11
2550.856942560853
 21
1478.092740160547
 31
0.0
  0
LINE
  5
19FB
330
1F
100
AcDbEntity
  8
AM_VIS
100
AcDbLine
 10
2548.256942560853
 20
1474.292740160547
 30
0.0
 11
2548.256942560853
 21
1476.392740160547
 31
0.0
  0
LINE
  5
19FC
330
1F
100
AcDbEntity
  8
AM_VIS
100
AcDbLine
 10
2548.706942560853
 20
1473.792740160547
 30
0.0
 11
2548.256942560853
 21
1474.292740160547
 31
0.0
  0
LINE
  5
19FD
330
1F
100
AcDbEntity
  8
AM_VIS
100
AcDbLine
 10
2548.706942560853
 20
1472.992740160547
 30
0.0
 11
2548.706942560853
 21
1473.792740160547
 31
0.0
  0
LINE
  5
19FE
330
1F
100
AcDbEntity
  8
AM_VIS
100
AcDbLine
 10
2548.506942560853
 20
1472.79274019857
 30
0.0
 11
2543.006942577854
 21
1472.79274019857
 31
0.0
  0
LINE
  5
19FF
330
1F
100
AcDbEntity
  8
AM_VIS
100
AcDbLine
 10
2543.006942577854
 20
1472.79274019857
 30
0.0
 11
2540.506942537854
 21
1470.29274015857
 31
0.0
  0
LINE
  5
1A00
330
1F
100
AcDbEntity
  8
AM_VIS
100
AcDbLine
 10
2540.506942537854
 20
1470.29274015857
 30
0.0
 11
2537.006942560785
 21
1470.29274015857
 31
0.0
  0
LINE
  5
1A01
330
1F
100
AcDbEntity
  8
AM_VIS
100
AcDbLine
 10
2536.806942560785
 20
1471.792740158569
 30
0.0
 11
2536.806942560785
 21
1470.49274015857
 31
0.0
  0
LINE
  5
1A02
330
1F
100
AcDbEntity
  8
AM_VIS
100
AcDbLine
 10
2538.306942560784
 20
1471.99274015857
 30
0.0
 11
2537.006942560785
 21
1471.99274015857
 31
0.0
  0
LINE
  5
1A03
330
1F
100
AcDbEntity
  8
AM_VIS
100
AcDbLine
 10
2538.506942560785
 20
1473.092740158569
 30
0.0
 11
2538.506942560785
 21
1472.192740158569
 31
0.0
  0
LINE
  5
1A04
330
1F
100
AcDbEntity
  8
AM_VIS
100
AcDbLine
 10
2529.706942560784
 20
1473.292740158569
 30
0.0
 11
2538.306942560784
 21
1473.292740158569
 31
0.0
  0
LINE
  5
1A05
330
1F
100
AcDbEntity
  8
AM_VIS
100
AcDbLine
 10
2529.506942560785
 20
1470.49274015857
 30
0.0
 11
2529.506942560785
 21
1473.09274015857
 31
0.0
  0
LINE
  5
1A06
330
1F
100
AcDbEntity
  8
AM_VIS
100
AcDbLine
 10
2529.306942560785
 20
1470.29274015857
 30
0.0
 11
2527.506942558807
 21
1470.29274015857
 31
0.0
  0
LINE
  5
1A07
330
1F
100
AcDbEntity
  8
AM_VIS
100
AcDbLine
 10
2527.306942558807
 20
1473.09274015857
 30
0.0
 11
2527.306942558807
 21
1470.49274015857
 31
0.0
  0
LINE
  5
1A08
330
1F
100
AcDbEntity
  8
AM_VIS
100
AcDbLine
 10
2518.506942558807
 20
1473.292740158569
 30
0.0
 11
2527.106942558807
 21
1473.292740158569
 31
0.0
  0
LINE
  5
1A09
330
1F
100
AcDbEntity
  8
AM_VIS
100
AcDbLine
 10
2518.306942558807
 20
1472.192740158569
 30
0.0
 11
2518.306942558807
 21
1473.09274015857
 31
0.0
  0
LINE
  5
1A0A
330
1F
100
AcDbEntity
  8
AM_VIS
100
AcDbLine
 10
2519.806942558807
 20
1471.99274015857
 30
0.0
 11
2518.506942558807
 21
1471.99274015857
 31
0.0
  0
LINE
  5
1A0B
330
1F
100
AcDbEntity
  8
AM_VIS
100
AcDbLine
 10
2520.006942558807
 20
1470.49274015857
 30
0.0
 11
2520.006942558807
 21
1471.792740158569
 31
0.0
  0
LINE
  5
1A0C
330
1F
100
AcDbEntity
  8
AM_VIS
100
AcDbLine
 10
2519.806942558807
 20
1470.29274015857
 30
0.0
 11
2516.306942557854
 21
1470.29274015857
 31
0.0
  0
LINE
  5
1A0D
330
1F
100
AcDbEntity
  8
AM_VIS
100
AcDbLine
 10
2516.306942557854
 20
1470.292740158569
 30
0.0
 11
2513.806942517854
 21
1472.792740198569
 31
0.0
  0
LINE
  5
1A0E
330
1F
100
AcDbEntity
  8
AM_VIS
100
AcDbLine
 10
2513.806942517854
 20
1472.79274019857
 30
0.0
 11
2508.306942558807
 21
1472.79274019857
 31
0.0
  0
LINE
  5
1A0F
330
1F
100
AcDbEntity
  8
AM_VIS
100
AcDbLine
 10
2508.106942558807
 20
1473.792740160547
 30
0.0
 11
2508.106942558807
 21
1472.992740160547
 31
0.0
  0
LINE
  5
1A10
330
1F
100
AcDbEntity
  8
AM_VIS
100
AcDbLine
 10
2508.556942558807
 20
1474.292740160547
 30
0.0
 11
2508.106942558807
 21
1473.792740160547
 31
0.0
  0
LINE
  5
1A11
330
1F
100
AcDbEntity
  8
AM_VIS
100
AcDbLine
 10
2508.556942558807
 20
1476.392740160547
 30
0.0
 11
2508.556942558807
 21
1474.292740160547
 31
0.0
  0
LINE
  5
1A12
330
1F
100
AcDbEntity
  8
AM_VIS
100
AcDbLine
 10
2505.956942558807
 20
1478.092740160547
 30
0.0
 11
2506.856942558807
 21
1478.092740160547
 31
0.0
  0
LINE
  5
1A13
330
1F
100
AcDbEntity
  8
AM_VIS
100
AcDbLine
 10
2504.256942558807
 20
1474.292740160547
 30
0.0
 11
2504.256942558807
 21
1476.392740160547
 31
0.0
  0
LINE
  5
1A14
330
1F
100
AcDbEntity
  8
AM_VIS
100
AcDbLine
 10
2504.706942558807
 20
1473.792740160547
 30
0.0
 11
2504.256942558807
 21
1474.292740160547
 31
0.0
  0
LINE
  5
1A15
330
1F
100
AcDbEntity
  8
AM_VIS
100
AcDbLine
 10
2504.706942558807
 20
1472.992740160547
 30
0.0
 11
2504.706942558807
 21
1473.792740160547
 31
0.0
  0
LINE
  5
1A16
330
1F
100
AcDbEntity
  8
AM_VIS
100
AcDbLine
 10
2504.506942558807
 20
1472.79274019857
 30
0.0
 11
2500.906942557854
 21
1472.79274019857
 31
0.0
  0
LINE
  5
1A17
330
1F
100
AcDbEntity
  8
AM_VIS
100
AcDbLine
 10
2500.906942557854
 20
1472.79274019857
 30
0.0
 11
2496.406942517854
 21
1468.29274015857
 31
0.0
  0
LINE
  5
1A18
330
1F
100
AcDbEntity
  8
AM_VIS
100
AcDbLine
 10
2496.406942517854
 20
1468.29274015857
 30
0.0
 11
2484.191560617853
 21
1468.29274015857
 31
0.0
  0
LINE
  5
1A19
330
1F
100
AcDbEntity
  8
AM_VIS
100
AcDbLine
 10
2479.406942558807
 20
1473.07735821761
 30
0.0
 11
2479.406942558807
 21
1485.292740157617
 31
0.0
  0
LINE
  5
1A1A
330
1F
100
AcDbEntity
  8
AM_VIS
100
AcDbLine
 10
2479.406942558807
 20
1485.292740157617
 30
0.0
 11
2483.906942558807
 21
1489.792740157617
 31
0.0
  0
LINE
  5
1A1B
330
1F
100
AcDbEntity
  8
AM_VIS
100
AcDbLine
 10
2483.906942558807
 20
1489.792740157617
 30
0.0
 11
2483.906942558807
 21
1493.392740156524
 31
0.0
  0
LINE
  5
1A1C
330
1F
100
AcDbEntity
  8
AM_VIS
100
AcDbLine
 10
2484.906942560784
 20
1493.592740156524
 30
0.0
 11
2484.106942560785
 21
1493.592740156524
 31
0.0
  0
LINE
  5
1A1D
330
1F
100
AcDbEntity
  8
AM_VIS
100
AcDbLine
 10
2485.406942560784
 20
1493.142740156524
 30
0.0
 11
2484.906942560784
 21
1493.592740156524
 31
0.0
  0
LINE
  5
1A1E
330
1F
100
AcDbEntity
  8
AM_VIS
100
AcDbLine
 10
2487.506942560785
 20
1493.142740156524
 30
0.0
 11
2485.406942560785
 21
1493.142740156524
 31
0.0
  0
ARC
  5
1A1F
330
1F
100
AcDbEntity
  8
AM_4
100
AcDbCircle
 10
2528.406942557782
 20
1642.581813918634
 30
0.0
 40
6.575
100
AcDbArc
 50
259.9999999999961
 51
190.0000000000039
  0
ARC
  5
1A20
330
1F
100
AcDbEntity
  8
AM_4
100
AcDbCircle
 10
2528.406942557782
 20
1622.581813918634
 30
0.0
 40
6.575
100
AcDbArc
 50
259.9999999999961
 51
190.0000000000039
  0
LINE
  5
1A27
330
1F
100
AcDbEntity
  8
AM_VIS
100
AcDbLine
 10
2489.206942560784
 20
1495.742740156524
 30
0.0
 11
2489.206942560784
 21
1494.842740156524
 31
0.0
  0
LINE
  5
1A28
330
1F
100
AcDbEntity
  8
AM_VIS
100
AcDbLine
 10
2485.406942560784
 20
1497.442740156524
 30
0.0
 11
2487.506942560785
 21
1497.442740156524
 31
0.0
  0
LINE
  5
1A29
330
1F
100
AcDbEntity
  8
AM_VIS
100
AcDbLine
 10
2484.906942560784
 20
1496.992740156524
 30
0.0
 11
2485.406942560784
 21
1497.442740156524
 31
0.0
  0
LINE
  5
1A2A
330
1F
100
AcDbEntity
  8
AM_VIS
100
AcDbLine
 10
2484.106942560785
 20
1496.992740156524
 30
0.0
 11
2484.906942560785
 21
1496.992740156524
 31
0.0
  0
LINE
  5
1A2B
330
1F
100
AcDbEntity
  8
AM_VIS
100
AcDbLine
 10
2483.906942558807
 20
1497.192740156524
 30
0.0
 11
2483.906942558807
 21
1502.692740157617
 31
0.0
  0
LINE
  5
1A2C
330
1F
100
AcDbEntity
  8
AM_VIS
100
AcDbLine
 10
2483.906942558807
 20
1502.692740157616
 30
0.0
 11
2481.406942558806
 21
1505.192740157616
 31
0.0
  0
LINE
  5
1A2D
330
1F
100
AcDbEntity
  8
AM_VIS
100
AcDbLine
 10
2481.406942558806
 20
1505.192740157617
 30
0.0
 11
2481.406942558806
 21
1508.692740156592
 31
0.0
  0
LINE
  5
1A2E
330
1F
100
AcDbEntity
  8
AM_VIS
100
AcDbLine
 10
2482.906942558806
 20
1508.892740156592
 30
0.0
 11
2481.606942558807
 21
1508.892740156592
 31
0.0
  0
LINE
  5
1A2F
330
1F
100
AcDbEntity
  8
AM_VIS
100
AcDbLine
 10
2483.106942558807
 20
1507.392740156592
 30
0.0
 11
2483.106942558807
 21
1508.692740156592
 31
0.0
  0
LINE
  5
1A30
330
1F
100
AcDbEntity
  8
AM_VIS
100
AcDbLine
 10
2484.206942558806
 20
1507.192740156592
 30
0.0
 11
2483.306942558807
 21
1507.192740156592
 31
0.0
  0
LINE
  5
1A31
330
1F
100
AcDbEntity
  8
AM_VIS
100
AcDbLine
 10
2484.406942558806
 20
1515.992740156592
 30
0.0
 11
2484.406942558806
 21
1507.392740156592
 31
0.0
  0
LINE
  5
1A32
330
1F
100
AcDbEntity
  8
AM_VIS
100
AcDbLine
 10
2481.606942558807
 20
1516.192740156592
 30
0.0
 11
2484.206942558806
 21
1516.192740156592
 31
0.0
  0
LINE
  5
1A33
330
1F
100
AcDbEntity
  8
AM_VIS
100
AcDbLine
 10
2481.406942558806
 20
1516.392740156592
 30
0.0
 11
2481.406942558806
 21
1518.19274015857
 31
0.0
  0
LINE
  5
1A34
330
1F
100
AcDbEntity
  8
AM_VIS
100
AcDbLine
 10
2484.206942558806
 20
1518.39274015857
 30
0.0
 11
2481.606942558807
 21
1518.39274015857
 31
0.0
  0
LINE
  5
1A35
330
1F
100
AcDbEntity
  8
AM_VIS
100
AcDbLine
 10
2484.406942558806
 20
1527.19274015857
 30
0.0
 11
2484.406942558806
 21
1518.59274015857
 31
0.0
  0
LINE
  5
1A36
330
1F
100
AcDbEntity
  8
AM_VIS
100
AcDbLine
 10
2483.306942558807
 20
1527.39274015857
 30
0.0
 11
2484.206942558806
 21
1527.39274015857
 31
0.0
  0
LINE
  5
1A37
330
1F
100
AcDbEntity
  8
AM_VIS
100
AcDbLine
 10
2483.106942558807
 20
1525.892740158569
 30
0.0
 11
2483.106942558807
 21
1527.19274015857
 31
0.0
  0
LINE
  5
1A38
330
1F
100
AcDbEntity
  8
AM_VIS
100
AcDbLine
 10
2481.606942558807
 20
1525.69274015857
 30
0.0
 11
2482.906942558806
 21
1525.69274015857
 31
0.0
  0
LINE
  5
1A39
330
1F
100
AcDbEntity
  8
AM_VIS
100
AcDbLine
 10
2481.406942558806
 20
1525.89274015857
 30
0.0
 11
2481.406942558806
 21
1529.392740157617
 31
0.0
  0
LINE
  5
1A3A
330
1F
100
AcDbEntity
  8
AM_VIS
100
AcDbLine
 10
2481.406942558806
 20
1529.392740157617
 30
0.0
 11
2483.906942558807
 21
1531.892740157617
 31
0.0
  0
LINE
  5
1A3B
330
1F
100
AcDbEntity
  8
AM_VIS
100
AcDbLine
 10
2483.906942558807
 20
1531.892740157617
 30
0.0
 11
2483.906942558807
 21
1537.39274015857
 31
0.0
  0
LINE
  5
1A3C
330
1F
100
AcDbEntity
  8
AM_VIS
100
AcDbLine
 10
2484.906942560785
 20
1537.59274015857
 30
0.0
 11
2484.106942560785
 21
1537.59274015857
 31
0.0
  0
LINE
  5
1A3D
330
1F
100
AcDbEntity
  8
AM_VIS
100
AcDbLine
 10
2485.406942560785
 20
1537.14274015857
 30
0.0
 11
2484.906942560785
 21
1537.59274015857
 31
0.0
  0
LINE
  5
1A3E
330
1F
100
AcDbEntity
  8
AM_VIS
100
AcDbLine
 10
2487.506942560785
 20
1537.14274015857
 30
0.0
 11
2485.406942560785
 21
1537.14274015857
 31
0.0
  0
LINE
  5
1A3F
330
1F
100
AcDbEntity
  8
AM_VIS
100
AcDbLine
 10
2489.206942560784
 20
1539.74274015857
 30
0.0
 11
2489.206942560784
 21
1538.842740158569
 31
0.0
  0
LINE
  5
1A40
330
1F
100
AcDbEntity
  8
AM_VIS
100
AcDbLine
 10
2485.406942560784
 20
1541.44274015857
 30
0.0
 11
2487.506942560785
 21
1541.44274015857
 31
0.0
  0
LINE
  5
1A41
330
1F
100
AcDbEntity
  8
AM_VIS
100
AcDbLine
 10
2484.906942560784
 20
1540.99274015857
 30
0.0
 11
2485.406942560784
 21
1541.44274015857
 31
0.0
  0
LINE
  5
1A42
330
1F
100
AcDbEntity
  8
AM_VIS
100
AcDbLine
 10
2484.106942560785
 20
1540.99274015857
 30
0.0
 11
2484.906942560785
 21
1540.99274015857
 31
0.0
  0
LINE
  5
1A43
330
1F
100
AcDbEntity
  8
AM_VIS
100
AcDbLine
 10
2483.906942558807
 20
1541.19274015857
 30
0.0
 11
2483.906942558807
 21
1544.792740157617
 31
0.0
  0
LINE
  5
1A44
330
1F
100
AcDbEntity
  8
AM_VIS
100
AcDbLine
 10
2483.906942558807
 20
1544.792740157617
 30
0.0
 11
2479.406942558807
 21
1549.292740157617
 31
0.0
  0
LINE
  5
1A45
330
1F
100
AcDbEntity
  8
AM_VIS
100
AcDbLine
 10
2479.406942558807
 20
1549.292740157617
 30
0.0
 11
2479.406942558807
 21
1561.508122097617
 31
0.0
  0
LINE
  5
1A46
330
1F
100
AcDbEntity
  8
AM_VIS
100
AcDbLine
 10
2484.191560617782
 20
1566.292740156592
 30
0.0
 11
2496.406942557782
 21
1566.292740156592
 31
0.0
  0
LINE
  5
1A47
330
1F
100
AcDbEntity
  8
AM_VIS
100
AcDbLine
 10
2496.406942557782
 20
1566.292740156592
 30
0.0
 11
2500.906942557782
 21
1561.792740156592
 31
0.0
  0
LINE
  5
1A48
330
1F
100
AcDbEntity
  8
AM_VIS
100
AcDbLine
 10
2500.906942557782
 20
1561.792740156592
 30
0.0
 11
2504.506942556761
 21
1561.792740156592
 31
0.0
  0
LINE
  5
1A49
330
1F
100
AcDbEntity
  8
AM_VIS
100
AcDbLine
 10
2504.706942556761
 20
1560.792740156592
 30
0.0
 11
2504.706942556761
 21
1561.592740156592
 31
0.0
  0
LINE
  5
1A4A
330
1F
100
AcDbEntity
  8
AM_VIS
100
AcDbLine
 10
2504.256942556761
 20
1560.292740156592
 30
0.0
 11
2504.706942556761
 21
1560.792740156592
 31
0.0
  0
LINE
  5
1A4B
330
1F
100
AcDbEntity
  8
AM_VIS
100
AcDbLine
 10
2504.256942556761
 20
1558.192740156592
 30
0.0
 11
2504.256942556761
 21
1560.292740156592
 31
0.0
  0
LINE
  5
1A4C
330
1F
100
AcDbEntity
  8
AM_VIS
100
AcDbLine
 10
2506.856942556761
 20
1556.492740156592
 30
0.0
 11
2505.956942556761
 21
1556.492740156592
 31
0.0
  0
LINE
  5
1A4D
330
1F
100
AcDbEntity
  8
AM_VIS
100
AcDbLine
 10
2508.556942556761
 20
1560.292740156592
 30
0.0
 11
2508.556942556761
 21
1558.192740156592
 31
0.0
  0
LINE
  5
1A4E
330
1F
100
AcDbEntity
  8
AM_VIS
100
AcDbLine
 10
2508.106942556761
 20
1560.792740156592
 30
0.0
 11
2508.556942556761
 21
1560.292740156592
 31
0.0
  0
LINE
  5
1A4F
330
1F
100
AcDbEntity
  8
AM_VIS
100
AcDbLine
 10
2508.106942556761
 20
1561.592740156592
 30
0.0
 11
2508.106942556761
 21
1560.792740156592
 31
0.0
  0
LINE
  5
1A50
330
1F
100
AcDbEntity
  8
AM_VIS
100
AcDbLine
 10
2508.306942556761
 20
1561.792740156592
 30
0.0
 11
2513.906942557782
 21
1561.792740156592
 31
0.0
  0
LINE
  5
1A51
330
1F
100
AcDbEntity
  8
AM_VIS
100
AcDbLine
 10
2513.906942557782
 20
1561.792740156592
 30
0.0
 11
2515.406942557782
 21
1572.292740156592
 31
0.0
  0
LINE
  5
1A52
330
1F
100
AcDbEntity
  8
AM_VIS
100
AcDbLine
 10
2541.406942557782
 20
1572.292740156592
 30
0.0
 11
2542.906942557782
 21
1561.792740156592
 31
0.0
  0
LINE
  5
1A53
330
1F
100
AcDbEntity
  8
AM_VIS
100
AcDbLine
 10
2542.906942557782
 20
1561.792740156592
 30
0.0
 11
2548.506942558807
 21
1561.792740156592
 31
0.0
  0
LINE
  5
1A54
330
1F
100
AcDbEntity
  8
AM_VIS
100
AcDbLine
 10
2548.706942558807
 20
1560.792740156592
 30
0.0
 11
2548.706942558807
 21
1561.592740156592
 31
0.0
  0
LINE
  5
1A55
330
1F
100
AcDbEntity
  8
AM_VIS
100
AcDbLine
 10
2548.256942558807
 20
1560.292740156592
 30
0.0
 11
2548.706942558807
 21
1560.792740156592
 31
0.0
  0
LINE
  5
1A56
330
1F
100
AcDbEntity
  8
AM_VIS
100
AcDbLine
 10
2548.256942558807
 20
1558.192740156592
 30
0.0
 11
2548.256942558807
 21
1560.292740156592
 31
0.0
  0
LINE
  5
1A57
330
1F
100
AcDbEntity
  8
AM_VIS
100
AcDbLine
 10
2550.856942558807
 20
1556.492740156592
 30
0.0
 11
2549.956942558807
 21
1556.492740156592
 31
0.0
  0
LINE
  5
1A58
330
1F
100
AcDbEntity
  8
AM_VIS
100
AcDbLine
 10
2552.556942558807
 20
1560.292740156592
 30
0.0
 11
2552.556942558807
 21
1558.192740156592
 31
0.0
  0
LINE
  5
1A59
330
1F
100
AcDbEntity
  8
AM_VIS
100
AcDbLine
 10
2552.106942558807
 20
1560.792740156592
 30
0.0
 11
2552.556942558807
 21
1560.292740156592
 31
0.0
  0
LINE
  5
1A5A
330
1F
100
AcDbEntity
  8
AM_VIS
100
AcDbLine
 10
2552.106942558807
 20
1561.592740156592
 30
0.0
 11
2552.106942558807
 21
1560.792740156592
 31
0.0
  0
LINE
  5
1A5B
330
1F
100
AcDbEntity
  8
AM_VIS
100
AcDbLine
 10
2552.306942558807
 20
1561.792740156592
 30
0.0
 11
2555.906942557782
 21
1561.792740156592
 31
0.0
  0
LINE
  5
1A5C
330
1F
100
AcDbEntity
  8
AM_VIS
100
AcDbLine
 10
2555.906942557782
 20
1561.792740156592
 30
0.0
 11
2560.406942557782
 21
1566.292740156592
 31
0.0
  0
LINE
  5
1A5D
330
1F
100
AcDbEntity
  8
AM_VIS
100
AcDbLine
 10
2560.406942557782
 20
1566.292740156592
 30
0.0
 11
2572.622324497782
 21
1566.292740156592
 31
0.0
  0
LINE
  5
1A5E
330
1F
100
AcDbEntity
  8
AM_VIS
100
AcDbLine
 10
2577.406942556761
 20
1561.508122097613
 30
0.0
 11
2577.406942556761
 21
1549.292740197477
 31
0.0
  0
LINE
  5
1A5F
330
1F
100
AcDbEntity
  8
AM_VIS
100
AcDbLine
 10
2577.406942556761
 20
1549.292740197477
 30
0.0
 11
2572.906942556761
 21
1544.792740197476
 31
0.0
  0
LINE
  5
1A60
330
1F
100
AcDbEntity
  8
AM_VIS
100
AcDbLine
 10
2572.906942556761
 20
1544.792740197476
 30
0.0
 11
2572.906942556761
 21
1541.192740160616
 31
0.0
  0
LINE
  5
1A61
330
1F
100
AcDbEntity
  8
AM_VIS
100
AcDbLine
 10
2571.906942556829
 20
1540.992740160616
 30
0.0
 11
2572.706942556829
 21
1540.992740160616
 31
0.0
  0
LINE
  5
1A62
330
1F
100
AcDbEntity
  8
AM_VIS
100
AcDbLine
 10
2571.406942556829
 20
1541.442740160615
 30
0.0
 11
2571.906942556829
 21
1540.992740160615
 31
0.0
  0
LINE
  5
1A63
330
1F
100
AcDbEntity
  8
AM_VIS
100
AcDbLine
 10
2569.30694255683
 20
1541.442740160616
 30
0.0
 11
2571.406942556829
 21
1541.442740160616
 31
0.0
  0
LINE
  5
1A64
330
1F
100
AcDbEntity
  8
AM_VIS
100
AcDbLine
 10
2567.606942556829
 20
1538.842740160615
 30
0.0
 11
2567.606942556829
 21
1539.742740160616
 31
0.0
  0
LINE
  5
1A65
330
1F
100
AcDbEntity
  8
AM_VIS
100
AcDbLine
 10
2571.406942556829
 20
1537.142740160616
 30
0.0
 11
2569.30694255683
 21
1537.142740160616
 31
0.0
  0
LINE
  5
1A66
330
1F
100
AcDbEntity
  8
AM_VIS
100
AcDbLine
 10
2571.906942556829
 20
1537.592740160615
 30
0.0
 11
2571.406942556829
 21
1537.142740160615
 31
0.0
  0
LINE
  5
1A67
330
1F
100
AcDbEntity
  8
AM_VIS
100
AcDbLine
 10
2572.706942556829
 20
1537.592740160615
 30
0.0
 11
2571.906942556829
 21
1537.592740160615
 31
0.0
  0
LINE
  5
1A68
330
1F
100
AcDbEntity
  8
AM_VIS
100
AcDbLine
 10
2572.906942556761
 20
1537.392740160616
 30
0.0
 11
2572.906942556761
 21
1531.892740197477
 31
0.0
  0
LINE
  5
1A69
330
1F
100
AcDbEntity
  8
AM_VIS
100
AcDbLine
 10
2572.906942556761
 20
1531.892740197477
 30
0.0
 11
2575.406942556761
 21
1529.392740197477
 31
0.0
  0
LINE
  5
1A6A
330
1F
100
AcDbEntity
  8
AM_VIS
100
AcDbLine
 10
2575.406942556761
 20
1529.392740197477
 30
0.0
 11
2575.406942556761
 21
1525.892740160547
 31
0.0
  0
LINE
  5
1A6B
330
1F
100
AcDbEntity
  8
AM_VIS
100
AcDbLine
 10
2573.906942558807
 20
1525.692740160548
 30
0.0
 11
2575.206942558807
 21
1525.692740160548
 31
0.0
  0
LINE
  5
1A6C
330
1F
100
AcDbEntity
  8
AM_VIS
100
AcDbLine
 10
2573.706942558807
 20
1527.192740160547
 30
0.0
 11
2573.706942558807
 21
1525.892740160547
 31
0.0
  0
LINE
  5
1A6D
330
1F
100
AcDbEntity
  8
AM_VIS
100
AcDbLine
 10
2572.606942558807
 20
1527.392740160548
 30
0.0
 11
2573.506942558807
 21
1527.392740160548
 31
0.0
  0
LINE
  5
1A6E
330
1F
100
AcDbEntity
  8
AM_VIS
100
AcDbLine
 10
2572.406942558807
 20
1518.592740160547
 30
0.0
 11
2572.406942558807
 21
1527.192740160547
 31
0.0
  0
LINE
  5
1A6F
330
1F
100
AcDbEntity
  8
AM_VIS
100
AcDbLine
 10
2575.206942558807
 20
1518.392740160547
 30
0.0
 11
2572.606942558807
 21
1518.392740160547
 31
0.0
  0
LINE
  5
1A70
330
1F
100
AcDbEntity
  8
AM_VIS
100
AcDbLine
 10
2515.406942557782
 20
1572.292740156592
 30
0.0
 11
2541.406942557782
 21
1572.292740156592
 31
0.0
  0
ARC
  5
1A71
330
1F
100
AcDbEntity
  8
AM_VIS
100
AcDbCircle
 10
2575.206942558807
 20
1516.39274015857
 30
0.0
 40
0.2
100
AcDbArc
 50
270.0
 51
0.0
  0
ARC
  5
1A72
330
1F
100
AcDbEntity
  8
AM_VIS
100
AcDbCircle
 10
2572.606942558806
 20
1515.99274015857
 30
0.0
 40
0.2
100
AcDbArc
 50
90.0
 51
180.0
  0
ARC
  5
1A73
330
1F
100
AcDbEntity
  8
AM_VIS
100
AcDbCircle
 10
2572.606942558806
 20
1507.39274015857
 30
0.0
 40
0.2
100
AcDbArc
 50
180.0
 51
270.0
  0
ARC
  5
1A74
330
1F
100
AcDbEntity
  8
AM_VIS
100
AcDbCircle
 10
2573.506942558807
 20
1507.39274015857
 30
0.0
 40
0.2
100
AcDbArc
 50
270.0
 51
0.0
  0
ARC
  5
1A75
330
1F
100
AcDbEntity
  8
AM_VIS
100
AcDbCircle
 10
2573.906942558807
 20
1508.69274015857
 30
0.0
 40
0.2
100
AcDbArc
 50
90.0
 51
180.0
  0
ARC
  5
1A76
330
1F
100
AcDbEntity
  8
AM_VIS
100
AcDbCircle
 10
2575.206942558807
 20
1508.69274015857
 30
0.0
 40
0.2
100
AcDbArc
 50
0.0
 51
90.0
  0
ARC
  5
1A77
330
1F
100
AcDbEntity
  8
AM_VIS
100
AcDbCircle
 10
2572.706942556829
 20
1497.19274015857
 30
0.0
 40
0.2
100
AcDbArc
 50
270.0
 51
0.0
  0
ARC
  5
1A78
330
1F
100
AcDbEntity
  8
AM_VIS
100
AcDbCircle
 10
2569.30694255683
 20
1495.74274015857
 30
0.0
 40
1.7
100
AcDbArc
 50
90.0
 51
180.0
  0
ARC
  5
1A79
330
1F
100
AcDbEntity
  8
AM_VIS
100
AcDbCircle
 10
2569.30694255683
 20
1494.84274015857
 30
0.0
 40
1.7
100
AcDbArc
 50
180.0
 51
270.0
  0
ARC
  5
1A7A
330
1F
100
AcDbEntity
  8
AM_VIS
100
AcDbCircle
 10
2572.706942556829
 20
1493.39274015857
 30
0.0
 40
0.2000000000000028
100
AcDbArc
 50
0.0
 51
90.0
  0
ARC
  5
1A7B
330
1F
100
AcDbEntity
  8
AM_VIS
100
AcDbCircle
 10
2528.406942557782
 20
1517.292740157613
 30
0.0
 40
66.0
100
AcDbArc
 50
312.06166466773
 51
317.9383353321877
  0
ARC
  5
1A7C
330
1F
100
AcDbEntity
  8
AM_VIS
100
AcDbCircle
 10
2552.306942560853
 20
1472.992740160547
 30
0.0
 40
0.2
100
AcDbArc
 50
180.0
 51
270.0
  0
ARC
  5
1A7D
330
1F
100
AcDbEntity
  8
AM_VIS
100
AcDbCircle
 10
2550.856942560853
 20
1476.392740160547
 30
0.0
 40
1.7
100
AcDbArc
 50
0.0
 51
90.0
  0
ARC
  5
1A7E
330
1F
100
AcDbEntity
  8
AM_VIS
100
AcDbCircle
 10
2549.956942560852
 20
1476.392740160547
 30
0.0
 40
1.7
100
AcDbArc
 50
90.0
 51
180.0
  0
ARC
  5
1A7F
330
1F
100
AcDbEntity
  8
AM_VIS
100
AcDbCircle
 10
2548.506942560853
 20
1472.992740160547
 30
0.0
 40
0.2000000000000028
100
AcDbArc
 50
270.0
 51
0.0
  0
ARC
  5
1A80
330
1F
100
AcDbEntity
  8
AM_VIS
100
AcDbCircle
 10
2537.006942560785
 20
1470.49274015857
 30
0.0
 40
0.2
100
AcDbArc
 50
180.0
 51
270.0
  0
ARC
  5
1A81
330
1F
100
AcDbEntity
  8
AM_VIS
100
AcDbCircle
 10
2537.006942560785
 20
1471.792740158569
 30
0.0
 40
0.2
100
AcDbArc
 50
90.0
 51
180.0
  0
ARC
  5
1A82
330
1F
100
AcDbEntity
  8
AM_VIS
100
AcDbCircle
 10
2538.306942560784
 20
1472.192740158569
 30
0.0
 40
0.2
100
AcDbArc
 50
270.0
 51
0.0
  0
ARC
  5
1A83
330
1F
100
AcDbEntity
  8
AM_VIS
100
AcDbCircle
 10
2538.306942560784
 20
1473.09274015857
 30
0.0
 40
0.2000000000000455
100
AcDbArc
 50
0.0
 51
90.0
  0
ARC
  5
1A84
330
1F
100
AcDbEntity
  8
AM_VIS
100
AcDbCircle
 10
2529.706942560784
 20
1473.09274015857
 30
0.0
 40
0.2
100
AcDbArc
 50
90.0
 51
180.0
  0
ARC
  5
1A85
330
1F
100
AcDbEntity
  8
AM_VIS
100
AcDbCircle
 10
2529.306942560785
 20
1470.49274015857
 30
0.0
 40
0.2
100
AcDbArc
 50
270.0
 51
0.0
  0
ARC
  5
1A86
330
1F
100
AcDbEntity
  8
AM_VIS
100
AcDbCircle
 10
2527.506942558807
 20
1470.49274015857
 30
0.0
 40
0.2
100
AcDbArc
 50
180.0
 51
270.0
  0
ARC
  5
1A87
330
1F
100
AcDbEntity
  8
AM_VIS
100
AcDbCircle
 10
2527.106942558807
 20
1473.09274015857
 30
0.0
 40
0.2
100
AcDbArc
 50
0.0
 51
90.0
  0
ARC
  5
1A88
330
1F
100
AcDbEntity
  8
AM_VIS
100
AcDbCircle
 10
2518.506942558807
 20
1473.09274015857
 30
0.0
 40
0.2
100
AcDbArc
 50
90.0
 51
180.0
  0
ARC
  5
1A89
330
1F
100
AcDbEntity
  8
AM_VIS
100
AcDbCircle
 10
2518.506942558807
 20
1472.192740158569
 30
0.0
 40
0.2
100
AcDbArc
 50
180.0
 51
270.0
  0
ARC
  5
1A8A
330
1F
100
AcDbEntity
  8
AM_VIS
100
AcDbCircle
 10
2519.806942558807
 20
1471.792740158569
 30
0.0
 40
0.2
100
AcDbArc
 50
0.0
 51
90.0
  0
ARC
  5
1A8B
330
1F
100
AcDbEntity
  8
AM_VIS
100
AcDbCircle
 10
2519.806942558807
 20
1470.49274015857
 30
0.0
 40
0.2
100
AcDbArc
 50
270.0
 51
0.0
  0
ARC
  5
1A8C
330
1F
100
AcDbEntity
  8
AM_VIS
100
AcDbCircle
 10
2508.306942558807
 20
1472.992740160547
 30
0.0
 40
0.2
100
AcDbArc
 50
180.0
 51
270.0
  0
ARC
  5
1A8D
330
1F
100
AcDbEntity
  8
AM_VIS
100
AcDbCircle
 10
2506.856942558807
 20
1476.392740160547
 30
0.0
 40
1.7
100
AcDbArc
 50
0.0
 51
90.0
  0
ARC
  5
1A8E
330
1F
100
AcDbEntity
  8
AM_VIS
100
AcDbCircle
 10
2505.956942558807
 20
1476.392740160547
 30
0.0
 40
1.7
100
AcDbArc
 50
90.0
 51
180.0
  0
ARC
  5
1A8F
330
1F
100
AcDbEntity
  8
AM_VIS
100
AcDbCircle
 10
2504.506942558807
 20
1472.992740160547
 30
0.0
 40
0.2000000000000028
100
AcDbArc
 50
270.0
 51
0.0
  0
ARC
  5
1A90
330
1F
100
AcDbEntity
  8
AM_VIS
100
AcDbCircle
 10
2528.406942557782
 20
1517.292740157613
 30
0.0
 40
66.0
100
AcDbArc
 50
222.0616646678123
 51
227.93833533227
  0
ARC
  5
1A91
330
1F
100
AcDbEntity
  8
AM_VIS
100
AcDbCircle
 10
2484.106942560785
 20
1493.392740156524
 30
0.0
 40
0.2
100
AcDbArc
 50
90.0
 51
180.0
  0
ARC
  5
1A92
330
1F
100
AcDbEntity
  8
AM_VIS
100
AcDbCircle
 10
2487.506942560785
 20
1494.842740156524
 30
0.0
 40
1.7
100
AcDbArc
 50
270.0
 51
0.0
  0
ARC
  5
1A93
330
1F
100
AcDbEntity
  8
AM_VIS
100
AcDbCircle
 10
2487.506942560785
 20
1495.742740156524
 30
0.0
 40
1.7
100
AcDbArc
 50
0.0
 51
90.0
  0
ARC
  5
1A94
330
1F
100
AcDbEntity
  8
AM_VIS
100
AcDbCircle
 10
2484.106942560785
 20
1497.192740156524
 30
0.0
 40
0.2000000000000028
100
AcDbArc
 50
180.0
 51
270.0
  0
ARC
  5
1A95
330
1F
100
AcDbEntity
  8
AM_VIS
100
AcDbCircle
 10
2481.606942558807
 20
1508.692740156592
 30
0.0
 40
0.2
100
AcDbArc
 50
90.0
 51
180.0
  0
ARC
  5
1A96
330
1F
100
AcDbEntity
  8
AM_VIS
100
AcDbCircle
 10
2482.906942558806
 20
1508.692740156592
 30
0.0
 40
0.2
100
AcDbArc
 50
0.0
 51
90.0
  0
ARC
  5
1A97
330
1F
100
AcDbEntity
  8
AM_VIS
100
AcDbCircle
 10
2483.306942558807
 20
1507.392740156592
 30
0.0
 40
0.2
100
AcDbArc
 50
180.0
 51
270.0
  0
ARC
  5
1A98
330
1F
100
AcDbEntity
  8
AM_VIS
100
AcDbCircle
 10
2484.206942558806
 20
1507.392740156592
 30
0.0
 40
0.2000000000000455
100
AcDbArc
 50
270.0
 51
0.0
  0
ARC
  5
1A99
330
1F
100
AcDbEntity
  8
AM_VIS
100
AcDbCircle
 10
2484.206942558806
 20
1515.992740156592
 30
0.0
 40
0.2
100
AcDbArc
 50
0.0
 51
90.0
  0
ARC
  5
1A9A
330
1F
100
AcDbEntity
  8
AM_VIS
100
AcDbCircle
 10
2481.606942558807
 20
1516.392740156592
 30
0.0
 40
0.2
100
AcDbArc
 50
180.0
 51
270.0
  0
ARC
  5
1A9B
330
1F
100
AcDbEntity
  8
AM_VIS
100
AcDbCircle
 10
2481.606942558807
 20
1518.192740158569
 30
0.0
 40
0.2
100
AcDbArc
 50
90.0
 51
180.0
  0
ARC
  5
1A9C
330
1F
100
AcDbEntity
  8
AM_VIS
100
AcDbCircle
 10
2484.206942558806
 20
1518.59274015857
 30
0.0
 40
0.2
100
AcDbArc
 50
270.0
 51
0.0
  0
ARC
  5
1A9D
330
1F
100
AcDbEntity
  8
AM_VIS
100
AcDbCircle
 10
2484.206942558806
 20
1527.19274015857
 30
0.0
 40
0.2
100
AcDbArc
 50
0.0
 51
90.0
  0
ARC
  5
1A9E
330
1F
100
AcDbEntity
  8
AM_VIS
100
AcDbCircle
 10
2483.306942558807
 20
1527.19274015857
 30
0.0
 40
0.2
100
AcDbArc
 50
90.0
 51
180.0
  0
ARC
  5
1A9F
330
1F
100
AcDbEntity
  8
AM_VIS
100
AcDbCircle
 10
2482.906942558806
 20
1525.892740158569
 30
0.0
 40
0.2
100
AcDbArc
 50
270.0
 51
0.0
  0
ARC
  5
1AA0
330
1F
100
AcDbEntity
  8
AM_VIS
100
AcDbCircle
 10
2481.606942558807
 20
1525.892740158569
 30
0.0
 40
0.2
100
AcDbArc
 50
180.0
 51
270.0
  0
ARC
  5
1AA1
330
1F
100
AcDbEntity
  8
AM_VIS
100
AcDbCircle
 10
2484.106942560785
 20
1537.39274015857
 30
0.0
 40
0.2
100
AcDbArc
 50
90.0
 51
180.0
  0
ARC
  5
1AA2
330
1F
100
AcDbEntity
  8
AM_VIS
100
AcDbCircle
 10
2487.506942560785
 20
1538.84274015857
 30
0.0
 40
1.7
100
AcDbArc
 50
270.0
 51
0.0
  0
ARC
  5
1AA3
330
1F
100
AcDbEntity
  8
AM_VIS
100
AcDbCircle
 10
2487.506942560785
 20
1539.74274015857
 30
0.0
 40
1.7
100
AcDbArc
 50
0.0
 51
90.0
  0
ARC
  5
1AA4
330
1F
100
AcDbEntity
  8
AM_VIS
100
AcDbCircle
 10
2484.106942560785
 20
1541.19274015857
 30
0.0
 40
0.2000000000000028
100
AcDbArc
 50
180.0
 51
270.0
  0
ARC
  5
1AA5
330
1F
100
AcDbEntity
  8
AM_VIS
100
AcDbCircle
 10
2528.406942557782
 20
1517.292740157613
 30
0.0
 40
66.0
100
AcDbArc
 50
132.0616646678036
 51
137.9383353321877
  0
ARC
  5
1AA6
330
1F
100
AcDbEntity
  8
AM_VIS
100
AcDbCircle
 10
2504.506942556761
 20
1561.592740156592
 30
0.0
 40
0.2
100
AcDbArc
 50
0.0
 51
90.0
  0
ARC
  5
1AA7
330
1F
100
AcDbEntity
  8
AM_VIS
100
AcDbCircle
 10
2505.956942556761
 20
1558.192740156592
 30
0.0
 40
1.7
100
AcDbArc
 50
180.0
 51
270.0
  0
ARC
  5
1AA8
330
1F
100
AcDbEntity
  8
AM_VIS
100
AcDbCircle
 10
2506.856942556761
 20
1558.192740156592
 30
0.0
 40
1.7
100
AcDbArc
 50
270.0
 51
0.0
  0
ARC
  5
1AA9
330
1F
100
AcDbEntity
  8
AM_VIS
100
AcDbCircle
 10
2508.306942556761
 20
1561.592740156592
 30
0.0
 40
0.2000000000000028
100
AcDbArc
 50
90.0
 51
180.0
  0
ARC
  5
1AAA
330
1F
100
AcDbEntity
  8
AM_VIS
100
AcDbCircle
 10
2548.506942558807
 20
1561.592740156592
 30
0.0
 40
0.2
100
AcDbArc
 50
0.0
 51
90.0
  0
ARC
  5
1AAB
330
1F
100
AcDbEntity
  8
AM_VIS
100
AcDbCircle
 10
2549.956942558807
 20
1558.192740156592
 30
0.0
 40
1.7
100
AcDbArc
 50
180.0
 51
270.0
  0
ARC
  5
1AAC
330
1F
100
AcDbEntity
  8
AM_VIS
100
AcDbCircle
 10
2550.856942558807
 20
1558.192740156592
 30
0.0
 40
1.7
100
AcDbArc
 50
270.0
 51
0.0
  0
ARC
  5
1AAD
330
1F
100
AcDbEntity
  8
AM_VIS
100
AcDbCircle
 10
2552.306942558807
 20
1561.592740156592
 30
0.0
 40
0.2000000000000028
100
AcDbArc
 50
90.0
 51
180.0
  0
ARC
  5
1AAE
330
1F
100
AcDbEntity
  8
AM_VIS
100
AcDbCircle
 10
2528.406942557782
 20
1517.292740157613
 30
0.0
 40
66.0
100
AcDbArc
 50
42.06166466781231
 51
47.93833533219642
  0
ARC
  5
1AAF
330
1F
100
AcDbEntity
  8
AM_VIS
100
AcDbCircle
 10
2572.706942556829
 20
1541.192740160616
 30
0.0
 40
0.2
100
AcDbArc
 50
270.0
 51
0.0
  0
ARC
  5
1AB0
330
1F
100
AcDbEntity
  8
AM_VIS
100
AcDbCircle
 10
2569.30694255683
 20
1539.742740160616
 30
0.0
 40
1.7
100
AcDbArc
 50
90.0
 51
180.0
  0
ARC
  5
1AB1
330
1F
100
AcDbEntity
  8
AM_VIS
100
AcDbCircle
 10
2569.30694255683
 20
1538.842740160615
 30
0.0
 40
1.7
100
AcDbArc
 50
180.0
 51
270.0
  0
ARC
  5
1AB2
330
1F
100
AcDbEntity
  8
AM_VIS
100
AcDbCircle
 10
2572.706942556829
 20
1537.392740160616
 30
0.0
 40
0.2000000000000028
100
AcDbArc
 50
0.0
 51
90.0
  0
ARC
  5
1AB3
330
1F
100
AcDbEntity
  8
AM_VIS
100
AcDbCircle
 10
2575.206942558807
 20
1525.892740160547
 30
0.0
 40
0.2
100
AcDbArc
 50
270.0
 51
0.0
  0
ARC
  5
1AB4
330
1F
100
AcDbEntity
  8
AM_VIS
100
AcDbCircle
 10
2573.906942558807
 20
1525.892740160547
 30
0.0
 40
0.2
100
AcDbArc
 50
180.0
 51
270.0
  0
ARC
  5
1AB5
330
1F
100
AcDbEntity
  8
AM_VIS
100
AcDbCircle
 10
2573.506942558807
 20
1527.192740160547
 30
0.0
 40
0.2
100
AcDbArc
 50
0.0
 51
90.0
  0
ARC
  5
1AB6
330
1F
100
AcDbEntity
  8
AM_VIS
100
AcDbCircle
 10
2572.606942558807
 20
1527.192740160547
 30
0.0
 40
0.2000000000000455
100
AcDbArc
 50
90.0
 51
180.0
  0
ARC
  5
1AB7
330
1F
100
AcDbEntity
  8
AM_VIS
100
AcDbCircle
 10
2572.606942558807
 20
1518.592740160547
 30
0.0
 40
0.2
100
AcDbArc
 50
180.0
 51
270.0
  0
ARC
  5
1AB8
330
1F
100
AcDbEntity
  8
AM_VIS
100
AcDbCircle
 10
2575.206942558807
 20
1518.192740160547
 30
0.0
 40
0.2
100
AcDbArc
 50
0.0
 51
90.0
  0
CIRCLE
  5
1ABA
330
1F
100
AcDbEntity
  8
AM_VIS
100
AcDbCircle
 10
2528.406942558807
 20
1517.29274015857
 30
0.0
 40
38.15
  0
CIRCLE
  5
1ABB
330
1F
100
AcDbEntity
  8
AM_VIS
100
AcDbCircle
 10
2489.906942558807
 20
1555.792740156592
 30
0.0
 40
8.75
  0
LINE
  5
1AC3
330
1F
100
AcDbEntity
  8
AM_VIS
100
AcDbLine
 10
2578.406942560784
 20
1468.29274015857
 30
0.0
 11
2573.406942560784
 21
1463.29274015857
 31
0.0
  0
LINE
  5
1AC4
330
1F
100
AcDbEntity
  8
AM_VIS
100
AcDbLine
 10
2573.406942560784
 20
1463.29274015857
 30
0.0
 11
2483.406942560784
 21
1463.29274015857
 31
0.0
  0
LINE
  5
1AC5
330
1F
100
AcDbEntity
  8
AM_VIS
100
AcDbLine
 10
2483.406942560784
 20
1463.29274015857
 30
0.0
 11
2478.406942560784
 21
1468.29274015857
 31
0.0
  0
LINE
  5
1AC6
330
1F
100
AcDbEntity
  8
AM_VIS
100
AcDbLine
 10
2478.406942560784
 20
1468.29274015857
 30
0.0
 11
2478.406942560784
 21
1566.29274015857
 31
0.0
  0
LINE
  5
1AC7
330
1F
100
AcDbEntity
  8
AM_VIS
100
AcDbLine
 10
2478.406942560784
 20
1566.29274015857
 30
0.0
 11
2483.406942560784
 21
1571.29274015857
 31
0.0
  0
LINE
  5
1AC8
330
1F
100
AcDbEntity
  8
AM_VIS
100
AcDbLine
 10
2483.406942560784
 20
1571.29274015857
 30
0.0
 11
2515.264085415207
 21
1571.29274015857
 31
0.0
  0
LINE
  5
1AC9
330
1F
100
AcDbEntity
  8
AM_VIS
100
AcDbLine
 10
2541.549799700357
 20
1571.29274015857
 30
0.0
 11
2573.406942560784
 21
1571.29274015857
 31
0.0
  0
LINE
  5
1ACA
330
1F
100
AcDbEntity
  8
AM_VIS
100
AcDbLine
 10
2578.406942560784
 20
1566.29274015857
 30
0.0
 11
2578.406942560784
 21
1468.29274015857
 31
0.0
  0
LINE
  5
1ACB
330
1F
100
AcDbEntity
  8
AM_VIS
100
AcDbLine
 10
2573.406942560784
 20
1571.29274015857
 30
0.0
 11
2578.406942560784
 21
1566.29274015857
 31
0.0
  0
ARC
  5
1ACE
330
1F
100
AcDbEntity
  8
AM_VIS
100
AcDbCircle
 10
2528.406942560784
 20
1477.29274015857
 30
0.0
 40
4.338
100
AcDbArc
 50
247.2326621375207
 51
255.310459594068
  0
ARC
  5
1AD0
330
1F
100
AcDbEntity
  8
AM_VIS
100
AcDbCircle
 10
2528.406942560784
 20
1477.29274015857
 30
0.0
 40
4.338
100
AcDbArc
 50
284.6895403787793
 51
292.7673378624793
  0
ARC
  5
1AD2
330
1F
100
AcDbEntity
  8
AM_VIS
100
AcDbCircle
 10
2528.406942560784
 20
1477.29274015857
 30
0.0
 40
5.338
100
AcDbArc
 50
281.8921247907169
 51
311.4663869309673
  0
ARC
  5
1AD4
330
1F
100
AcDbEntity
  8
AM_VIS
100
AcDbCircle
 10
2528.406942560784
 20
1477.29274015857
 30
0.0
 40
5.338
100
AcDbArc
 50
228.5336130690327
 51
258.1078751875832
  0
LINE
  5
1AE2
330
1F
100
AcDbEntity
  8
AM_VIS
100
AcDbLine
 10
2644.984071612763
 20
1610.581813918634
 30
0.0
 11
2644.984071612763
 21
1662.581813918634
 31
0.0
  0
LINE
  5
1AE3
330
1F
100
AcDbEntity
  8
AM_VIS
100
AcDbLine
 10
2649.768689671742
 20
1610.581813918634
 30
0.0
 11
2649.768689671742
 21
1662.581813918634
 31
0.0
  0
LINE
  5
1AE4
330
1F
100
AcDbEntity
  8
AM_VIS
100
AcDbLine
 10
2661.984071571878
 20
1610.581813918634
 30
0.0
 11
2661.984071571878
 21
1662.581813918634
 31
0.0
  0
LINE
  5
1AE5
330
1F
100
AcDbEntity
  8
AM_VIS
100
AcDbLine
 10
2706.084071591879
 20
1610.581813918634
 30
0.0
 11
2706.084071591879
 21
1662.581813918634
 31
0.0
  0
LINE
  5
1AE6
330
1F
100
AcDbEntity
  8
AM_VIS
100
AcDbLine
 10
2721.484071611742
 20
1610.581813918634
 30
0.0
 11
2721.484071611742
 21
1662.581813918634
 31
0.0
  0
LINE
  5
1AE7
330
1F
100
AcDbEntity
  8
AM_VIS
100
AcDbLine
 10
2725.984071611742
 20
1610.581813918634
 30
0.0
 11
2725.984071611742
 21
1662.581813918634
 31
0.0
  0
LINE
  5
1AE8
330
1F
100
AcDbEntity
  8
AM_VIS
100
AcDbLine
 10
2738.199453551742
 20
1610.581813918634
 30
0.0
 11
2738.199453551742
 21
1662.581813918634
 31
0.0
  0
LINE
  5
1AE9
330
1F
100
AcDbEntity
  8
AM_VIS
100
AcDbLine
 10
2742.984071610786
 20
1610.581813918634
 30
0.0
 11
2742.984071610786
 21
1662.581813918634
 31
0.0
  0
LINE
  5
1AEA
330
1F
100
AcDbEntity
  8
AM_VIS
100
AcDbLine
 10
2679.384071571878
 20
1610.581813918634
 30
0.0
 11
2679.384071571878
 21
1662.581813918634
 31
0.0
  0
LINE
  5
1AEB
330
1F
100
AcDbEntity
  8
AM_VIS
100
AcDbLine
 10
2666.484071571878
 20
1610.581813918634
 30
0.0
 11
2666.484071571878
 21
1662.581813918634
 31
0.0
  0
LINE
  5
1AEC
330
1F
100
AcDbEntity
  8
AM_VIS
100
AcDbLine
 10
2673.68407160874
 20
1610.581813918634
 30
0.0
 11
2673.68407160874
 21
1662.581813918634
 31
0.0
  0
LINE
  5
1AED
330
1F
100
AcDbEntity
  8
AM_VIS
100
AcDbLine
 10
2670.284071608739
 20
1610.581813918634
 30
0.0
 11
2670.284071608739
 21
1662.581813918634
 31
0.0
  0
LINE
  5
1AEE
330
1F
100
AcDbEntity
  8
AM_VIS
100
AcDbLine
 10
2708.584071591879
 20
1610.581813918634
 30
0.0
 11
2708.584071591879
 21
1662.581813918634
 31
0.0
  0
LINE
  5
1AEF
330
1F
100
AcDbEntity
  8
AM_VIS
100
AcDbLine
 10
2714.284071610786
 20
1610.581813918634
 30
0.0
 11
2714.284071610786
 21
1662.581813918634
 31
0.0
  0
LINE
  5
1AF0
330
1F
100
AcDbEntity
  8
AM_VIS
100
AcDbLine
 10
2717.684071610785
 20
1610.581813918634
 30
0.0
 11
2717.684071610785
 21
1662.581813918634
 31
0.0
  0
LINE
  5
1AF1
330
1F
100
AcDbEntity
  8
AM_VIS
100
AcDbLine
 10
2702.384071610785
 20
1610.581813918634
 30
0.0
 11
2702.384071610785
 21
1662.581813918634
 31
0.0
  0
LINE
  5
1AF2
330
1F
100
AcDbEntity
  8
AM_VIS
100
AcDbLine
 10
2695.084071610786
 20
1610.581813918634
 30
0.0
 11
2695.084071610786
 21
1662.581813918634
 31
0.0
  0
LINE
  5
1AF3
330
1F
100
AcDbEntity
  8
AM_VIS
100
AcDbLine
 10
2681.884071571879
 20
1610.581813918634
 30
0.0
 11
2681.884071571879
 21
1662.581813918634
 31
0.0
  0
LINE
  5
1AF4
330
1F
100
AcDbEntity
  8
AM_VIS
100
AcDbLine
 10
2692.884071608808
 20
1610.581813918634
 30
0.0
 11
2692.884071608808
 21
1662.581813918634
 31
0.0
  0
LINE
  5
1AF5
330
1F
100
AcDbEntity
  8
AM_VIS
100
AcDbLine
 10
2685.584071608808
 20
1610.581813918634
 30
0.0
 11
2685.584071608808
 21
1662.581813918634
 31
0.0
  0
LINE
  5
1AF6
330
1F
100
AcDbEntity
  8
AM_VIS
100
AcDbLine
 10
2693.084071608808
 20
1610.581813918634
 30
0.0
 11
2694.884071610785
 21
1610.581813918634
 31
0.0
  0
LINE
  5
1AF7
330
1F
100
AcDbEntity
  8
AM_VIS
100
AcDbLine
 10
2702.384071610785
 20
1610.581813918634
 30
0.0
 11
2695.284071610786
 21
1610.581813918634
 31
0.0
  0
LINE
  5
1AF8
330
1F
100
AcDbEntity
  8
AM_VIS
100
AcDbLine
 10
2702.584071610785
 20
1610.581813918634
 30
0.0
 11
2706.084071591879
 21
1610.581813918634
 31
0.0
  0
LINE
  5
1AF9
330
1F
100
AcDbEntity
  8
AM_VIS
100
AcDbLine
 10
2706.084071591879
 20
1610.581813918634
 30
0.0
 11
2708.584071591879
 21
1610.581813918634
 31
0.0
  0
LINE
  5
1AFA
330
1F
100
AcDbEntity
  8
AM_VIS
100
AcDbLine
 10
2708.584071591879
 20
1610.581813918634
 30
0.0
 11
2714.084071610786
 21
1610.581813918634
 31
0.0
  0
LINE
  5
1AFB
330
1F
100
AcDbEntity
  8
AM_VIS
100
AcDbLine
 10
2716.434071610786
 20
1610.581813918634
 30
0.0
 11
2715.534071610786
 21
1610.581813918634
 31
0.0
  0
LINE
  5
1AFC
330
1F
100
AcDbEntity
  8
AM_VIS
100
AcDbLine
 10
2717.884071610785
 20
1610.581813918634
 30
0.0
 11
2721.484071611742
 21
1610.581813918634
 31
0.0
  0
LINE
  5
1AFD
330
1F
100
AcDbEntity
  8
AM_VIS
100
AcDbLine
 10
2721.484071611742
 20
1610.581813918634
 30
0.0
 11
2725.984071611742
 21
1610.581813918634
 31
0.0
  0
LINE
  5
1AFE
330
1F
100
AcDbEntity
  8
AM_VIS
100
AcDbLine
 10
2725.984071611742
 20
1610.581813918634
 30
0.0
 11
2738.199453551742
 21
1610.581813918634
 31
0.0
  0
LINE
  5
1AFF
330
1F
100
AcDbEntity
  8
AM_VIS
100
AcDbLine
 10
2638.984071612763
 20
1610.581813918634
 30
0.0
 11
2644.984071612763
 21
1610.581813918634
 31
0.0
  0
LINE
  5
1B00
330
1F
100
AcDbEntity
  8
AM_VIS
100
AcDbLine
 10
2649.768689671742
 20
1610.581813918634
 30
0.0
 11
2661.984071571878
 21
1610.581813918634
 31
0.0
  0
LINE
  5
1B01
330
1F
100
AcDbEntity
  8
AM_VIS
100
AcDbLine
 10
2661.984071571878
 20
1610.581813918634
 30
0.0
 11
2666.484071571878
 21
1610.581813918634
 31
0.0
  0
LINE
  5
1B02
330
1F
100
AcDbEntity
  8
AM_VIS
100
AcDbLine
 10
2666.484071571878
 20
1610.581813918634
 30
0.0
 11
2670.084071608739
 21
1610.581813918634
 31
0.0
  0
LINE
  5
1B03
330
1F
100
AcDbEntity
  8
AM_VIS
100
AcDbLine
 10
2672.43407160874
 20
1610.581813918634
 30
0.0
 11
2671.53407160874
 21
1610.581813918634
 31
0.0
  0
LINE
  5
1B04
330
1F
100
AcDbEntity
  8
AM_VIS
100
AcDbLine
 10
2673.88407160874
 20
1610.581813918634
 30
0.0
 11
2679.384071571878
 21
1610.581813918634
 31
0.0
  0
LINE
  5
1B05
330
1F
100
AcDbEntity
  8
AM_VIS
100
AcDbLine
 10
2679.384071571878
 20
1610.581813918634
 30
0.0
 11
2681.884071571879
 21
1610.581813918634
 31
0.0
  0
LINE
  5
1B06
330
1F
100
AcDbEntity
  8
AM_VIS
100
AcDbLine
 10
2681.884071571879
 20
1610.581813918634
 30
0.0
 11
2685.384071608808
 21
1610.581813918634
 31
0.0
  0
LINE
  5
1B07
330
1F
100
AcDbEntity
  8
AM_VIS
100
AcDbLine
 10
2692.684071608808
 20
1610.581813918634
 30
0.0
 11
2685.584071608808
 21
1610.581813918634
 31
0.0
  0
LINE
  5
1B08
330
1F
100
AcDbEntity
  8
AM_VIS
100
AcDbLine
 10
2638.984071612763
 20
1610.581813918634
 30
0.0
 11
2638.984071612763
 21
1662.581813918634
 31
0.0
  0
LINE
  5
1B0C
330
1F
100
AcDbEntity
  8
AM_VIS
100
AcDbLine
 10
2693.984071610422
 20
1662.581813918634
 30
0.0
 11
2673.88407160874
 21
1662.581813918634
 31
0.0
  0
LINE
  5
1B0D
330
1F
100
AcDbEntity
  8
AM_VIS
100
AcDbLine
 10
2671.53407160874
 20
1662.581813918634
 30
0.0
 11
2672.43407160874
 21
1662.581813918634
 31
0.0
  0
LINE
  5
1B0E
330
1F
100
AcDbEntity
  8
AM_VIS
100
AcDbLine
 10
2670.084071608739
 20
1662.581813918634
 30
0.0
 11
2666.484071571878
 21
1662.581813918634
 31
0.0
  0
LINE
  5
1B0F
330
1F
100
AcDbEntity
  8
AM_VIS
100
AcDbLine
 10
2666.484071571878
 20
1662.581813918634
 30
0.0
 11
2661.984071571878
 21
1662.581813918634
 31
0.0
  0
LINE
  5
1B10
330
1F
100
AcDbEntity
  8
AM_VIS
100
AcDbLine
 10
2661.984071571878
 20
1662.581813918634
 30
0.0
 11
2649.768689671742
 21
1662.581813918634
 31
0.0
  0
LINE
  5
1B11
330
1F
100
AcDbEntity
  8
AM_VIS
100
AcDbLine
 10
2644.984071612763
 20
1662.581813918634
 30
0.0
 11
2638.984071612763
 21
1662.581813918634
 31
0.0
  0
LINE
  5
1B12
330
1F
100
AcDbEntity
  8
AM_VIS
100
AcDbLine
 10
2738.199453551742
 20
1662.581813918634
 30
0.0
 11
2725.984071611742
 21
1662.581813918634
 31
0.0
  0
LINE
  5
1B13
330
1F
100
AcDbEntity
  8
AM_VIS
100
AcDbLine
 10
2725.984071611742
 20
1662.581813918634
 30
0.0
 11
2721.484071611742
 21
1662.581813918634
 31
0.0
  0
LINE
  5
1B14
330
1F
100
AcDbEntity
  8
AM_VIS
100
AcDbLine
 10
2721.484071611742
 20
1662.581813918634
 30
0.0
 11
2717.884071610785
 21
1662.581813918634
 31
0.0
  0
LINE
  5
1B15
330
1F
100
AcDbEntity
  8
AM_VIS
100
AcDbLine
 10
2715.534071610786
 20
1662.581813918634
 30
0.0
 11
2716.434071610786
 21
1662.581813918634
 31
0.0
  0
LINE
  5
1B1B
330
1F
100
AcDbEntity
  8
AM_VIS
100
AcDbLine
 10
2694.884071610785
 20
1610.581813918634
 30
0.0
 11
2695.084071610786
 21
1610.581813918634
 31
0.0
  0
LINE
  5
1B1C
330
1F
100
AcDbEntity
  8
AM_VIS
100
AcDbLine
 10
2695.284071610786
 20
1610.581813918634
 30
0.0
 11
2695.084071610785
 21
1610.581813918634
 31
0.0
  0
LINE
  5
1B1D
330
1F
100
AcDbEntity
  8
AM_VIS
100
AcDbLine
 10
2702.384071610785
 20
1610.581813918634
 30
0.0
 11
2702.584071610785
 21
1610.581813918634
 31
0.0
  0
LINE
  5
1B1E
330
1F
100
AcDbEntity
  8
AM_VIS
100
AcDbLine
 10
2714.084071610786
 20
1610.581813918634
 30
0.0
 11
2714.284071610786
 21
1610.581813918634
 31
0.0
  0
LINE
  5
1B1F
330
1F
100
AcDbEntity
  8
AM_VIS
100
AcDbLine
 10
2715.534071610786
 20
1610.581813918634
 30
0.0
 11
2714.284071610786
 21
1610.581813918634
 31
0.0
  0
LINE
  5
1B20
330
1F
100
AcDbEntity
  8
AM_VIS
100
AcDbLine
 10
2717.684071610785
 20
1610.581813918634
 30
0.0
 11
2716.434071610786
 21
1610.581813918634
 31
0.0
  0
LINE
  5
1B21
330
1F
100
AcDbEntity
  8
AM_VIS
100
AcDbLine
 10
2717.684071610785
 20
1610.581813918634
 30
0.0
 11
2717.884071610785
 21
1610.581813918634
 31
0.0
  0
LINE
  5
1B22
330
1F
100
AcDbEntity
  8
AM_VIS
100
AcDbLine
 10
2742.984071610786
 20
1610.581813918634
 30
0.0
 11
2738.199453551742
 21
1610.581813918634
 31
0.0
  0
LINE
  5
1B23
330
1F
100
AcDbEntity
  8
AM_VIS
100
AcDbLine
 10
2649.768689671742
 20
1610.581813918634
 30
0.0
 11
2644.984071612763
 21
1610.581813918634
 31
0.0
  0
LINE
  5
1B24
330
1F
100
AcDbEntity
  8
AM_VIS
100
AcDbLine
 10
2670.084071608739
 20
1610.581813918634
 30
0.0
 11
2670.284071608739
 21
1610.581813918634
 31
0.0
  0
LINE
  5
1B25
330
1F
100
AcDbEntity
  8
AM_VIS
100
AcDbLine
 10
2671.53407160874
 20
1610.581813918634
 30
0.0
 11
2670.284071608739
 21
1610.581813918634
 31
0.0
  0
LINE
  5
1B26
330
1F
100
AcDbEntity
  8
AM_VIS
100
AcDbLine
 10
2673.68407160874
 20
1610.581813918634
 30
0.0
 11
2672.43407160874
 21
1610.581813918634
 31
0.0
  0
LINE
  5
1B27
330
1F
100
AcDbEntity
  8
AM_VIS
100
AcDbLine
 10
2673.68407160874
 20
1610.581813918634
 30
0.0
 11
2673.88407160874
 21
1610.581813918634
 31
0.0
  0
LINE
  5
1B28
330
1F
100
AcDbEntity
  8
AM_VIS
100
AcDbLine
 10
2685.384071608808
 20
1610.581813918634
 30
0.0
 11
2685.584071608808
 21
1610.581813918634
 31
0.0
  0
LINE
  5
1B29
330
1F
100
AcDbEntity
  8
AM_VIS
100
AcDbLine
 10
2692.884071608808
 20
1610.581813918634
 30
0.0
 11
2692.684071608808
 21
1610.581813918634
 31
0.0
  0
LINE
  5
1B2A
330
1F
100
AcDbEntity
  8
AM_VIS
100
AcDbLine
 10
2692.884071608808
 20
1610.581813918634
 30
0.0
 11
2693.084071608808
 21
1610.581813918634
 31
0.0
  0
LINE
  5
1B2D
330
1F
100
AcDbEntity
  8
AM_VIS
100
AcDbLine
 10
2673.88407160874
 20
1662.581813918634
 30
0.0
 11
2673.68407160874
 21
1662.581813918634
 31
0.0
  0
LINE
  5
1B2E
330
1F
100
AcDbEntity
  8
AM_VIS
100
AcDbLine
 10
2672.43407160874
 20
1662.581813918634
 30
0.0
 11
2673.68407160874
 21
1662.581813918634
 31
0.0
  0
LINE
  5
1B2F
330
1F
100
AcDbEntity
  8
AM_VIS
100
AcDbLine
 10
2670.284071608739
 20
1662.581813918634
 30
0.0
 11
2671.53407160874
 21
1662.581813918634
 31
0.0
  0
LINE
  5
1B30
330
1F
100
AcDbEntity
  8
AM_VIS
100
AcDbLine
 10
2670.284071608739
 20
1662.581813918634
 30
0.0
 11
2670.084071608739
 21
1662.581813918634
 31
0.0
  0
LINE
  5
1B31
330
1F
100
AcDbEntity
  8
AM_VIS
100
AcDbLine
 10
2644.984071612763
 20
1662.581813918634
 30
0.0
 11
2649.768689671742
 21
1662.581813918634
 31
0.0
  0
LINE
  5
1B32
330
1F
100
AcDbEntity
  8
AM_VIS
100
AcDbLine
 10
2738.199453551742
 20
1662.581813918634
 30
0.0
 11
2742.984071610786
 21
1662.581813918634
 31
0.0
  0
LINE
  5
1B33
330
1F
100
AcDbEntity
  8
AM_VIS
100
AcDbLine
 10
2717.884071610785
 20
1662.581813918634
 30
0.0
 11
2717.684071610785
 21
1662.581813918634
 31
0.0
  0
LINE
  5
1B34
330
1F
100
AcDbEntity
  8
AM_VIS
100
AcDbLine
 10
2693.984071610422
 20
1662.581813918634
 30
0.0
 11
2717.684071610785
 21
1662.581813918634
 31
0.0
  0
LINE
  5
1B3B
330
1F
100
AcDbEntity
  8
AM_VIS
100
AcDbLine
 10
2747.984071610785
 20
1677.581813918634
 30
0.0
 11
2747.984071610785
 21
1692.581813918634
 31
0.0
  0
LINE
  5
1B3C
330
1F
100
AcDbEntity
  8
AM_VIS
100
AcDbLine
 10
2747.984071610785
 20
1692.581813918634
 30
0.0
 11
2742.984071610786
 21
1692.581813918634
 31
0.0
  0
LINE
  5
1B3D
330
1F
100
AcDbEntity
  8
AM_VIS
100
AcDbLine
 10
2742.984071610786
 20
1677.581813918634
 30
0.0
 11
2747.984071610785
 21
1677.581813918634
 31
0.0
  0
LINE
  5
1B3E
330
1F
100
AcDbEntity
  8
AM_VIS
100
AcDbLine
 10
2742.984071610786
 20
1692.581813918634
 30
0.0
 11
2644.984071610786
 21
1692.581813918634
 31
0.0
  0
LINE
  5
1B3F
330
1F
100
AcDbEntity
  8
AM_VIS
100
AcDbLine
 10
2742.984071610786
 20
1692.581813918634
 30
0.0
 11
2742.984071610786
 21
1677.581813918634
 31
0.0
  0
LINE
  5
1B40
330
1F
100
AcDbEntity
  8
AM_VIS
100
AcDbLine
 10
2644.984071610786
 20
1677.581813918634
 30
0.0
 11
2742.984071610786
 21
1677.581813918634
 31
0.0
  0
LINE
  5
1B41
330
1F
100
AcDbEntity
  8
AM_VIS
100
AcDbLine
 10
2644.984071610786
 20
1677.581813918634
 30
0.0
 11
2644.984071610786
 21
1692.581813918634
 31
0.0
  0
LINE
  5
1B42
330
1F
100
AcDbEntity
  8
AM_VIS
100
AcDbLine
 10
2639.984071610786
 20
1677.581813918634
 30
0.0
 11
2644.984071610786
 21
1677.581813918634
 31
0.0
  0
LINE
  5
1B43
330
1F
100
AcDbEntity
  8
AM_VIS
100
AcDbLine
 10
2639.984071610786
 20
1692.581813918634
 30
0.0
 11
2639.984071610786
 21
1677.581813918634
 31
0.0
  0
LINE
  5
1B44
330
1F
100
AcDbEntity
  8
AM_VIS
100
AcDbLine
 10
2644.984071610786
 20
1692.581813918634
 30
0.0
 11
2639.984071610786
 21
1692.581813918634
 31
0.0
  0
LINE
  5
1B45
330
1F
100
AcDbEntity
  8
AM_VIS
100
AcDbLine
 10
2661.484071610786
 20
1662.581813918634
 30
0.0
 11
2661.484071610786
 21
1677.581813918634
 31
0.0
  0
LINE
  5
1B46
330
1F
100
AcDbEntity
  8
AM_VIS
100
AcDbLine
 10
2649.484071610786
 20
1662.581813918634
 30
0.0
 11
2649.484071610786
 21
1677.581813918634
 31
0.0
  0
LINE
  5
1B47
330
1F
100
AcDbEntity
  8
AM_VIS
100
AcDbLine
 10
2738.484071610786
 20
1662.581813918634
 30
0.0
 11
2738.484071610786
 21
1677.581813918634
 31
0.0
  0
LINE
  5
1B48
330
1F
100
AcDbEntity
  8
AM_VIS
100
AcDbLine
 10
2726.484071610786
 20
1662.581813918634
 30
0.0
 11
2726.484071610786
 21
1677.581813918634
 31
0.0
  0
ARC
  5
1B9A
330
1F
100
AcDbEntity
  8
AM_4
100
AcDbCircle
 10
2566.406942560784
 20
1790.848731076097
 30
0.0
 40
6.0
100
AcDbArc
 50
260.0
 51
170.0
  0
CIRCLE
  5
1B9B
330
1F
100
AcDbEntity
  8
AM_0
100
AcDbCircle
 10
2566.406942560784
 20
1790.848731076097
 30
0.0
 40
5.05278471461085
  0
LINE
  5
1B9C
330
1F
100
AcDbEntity
  8
AM_7
  6
AM_ISO08W050x2
100
AcDbLine
 10
2558.406942560784
 20
1790.848731076097
 30
0.0
 11
2574.406942560784
 21
1790.848731076097
 31
0.0
  0
LINE
  5
1B9D
330
1F
100
AcDbEntity
  8
AM_7
  6
AM_ISO08W050x2
100
AcDbLine
 10
2566.406942560784
 20
1782.848731076097
 30
0.0
 11
2566.406942560784
 21
1798.848731076097
 31
0.0
  0
ARC
  5
1B9E
330
1F
100
AcDbEntity
  8
AM_4
100
AcDbCircle
 10
2528.406942560784
 20
1750.848731076097
 30
0.0
 40
6.0
100
AcDbArc
 50
260.0
 51
170.0
  0
CIRCLE
  5
1B9F
330
1F
100
AcDbEntity
  8
AM_0
100
AcDbCircle
 10
2528.406942560784
 20
1750.848731076097
 30
0.0
 40
5.05278471461085
  0
LINE
  5
1BA0
330
1F
100
AcDbEntity
  8
AM_7
  6
AM_ISO08W050x2
100
AcDbLine
 10
2520.406942560784
 20
1750.848731076097
 30
0.0
 11
2536.406942560784
 21
1750.848731076097
 31
0.0
  0
LINE
  5
1BA1
330
1F
100
AcDbEntity
  8
AM_7
  6
AM_ISO08W050x2
100
AcDbLine
 10
2528.406942560784
 20
1742.848731076097
 30
0.0
 11
2528.406942560784
 21
1758.848731076097
 31
0.0
  0
LINE
  5
1BAF
330
1F
100
AcDbEntity
  8
AM_7
100
AcDbLine
 10
2528.406942560784
 20
1790.848731076097
 30
0.0
 11
2584.406942560784
 21
1790.848731076097
 31
0.0
1001
GENIUS_GENOREF_13
1005
1BB3
  0
LINE
  5
1BB0
330
1F
100
AcDbEntity
  8
AM_7
100
AcDbLine
 10
2528.406942560784
 20
1790.848731076097
 30
0.0
 11
2528.406942560784
 21
1846.848731076097
 31
0.0
1001
GENIUS_GENOREF_13
1005
1BB3
  0
LINE
  5
1BB1
330
1F
100
AcDbEntity
  8
AM_7
100
AcDbLine
 10
2528.406942560784
 20
1790.848731076097
 30
0.0
 11
2472.406942560784
 21
1790.848731076097
 31
0.0
1001
GENIUS_GENOREF_13
1005
1BB3
  0
LINE
  5
1BB2
330
1F
100
AcDbEntity
  8
AM_7
100
AcDbLine
 10
2528.406942560784
 20
1790.848731076097
 30
0.0
 11
2528.406942560784
 21
1734.848731076097
 31
0.0
1001
GENIUS_GENOREF_13
1005
1BB3
  0
POINT
  5
1BB3
330
1F
100
AcDbEntity
  8
0
 60
     1
100
AcDbPoint
 10
0.0
 20
0.0
 30
0.0
1001
GENIUS_GENOLIS_13
1002
{
1000
ENT
1005
1BB2
1005
1BB1
1005
1BB0
1005
1BAF
1002
}
1001
GENIUS_GENOENT_13
1002
{
1000
MYREF
1005
1BB3
1002
}
1002
{
1000
GRP
1005
0
1002
}
1001
GENIUS_GENOBJ-N-CRS_13
1002
{
1000
OWNER
1000
GEN
1002
}
1001
GENIUS_GENODEF_13
1002
{
1000
HIER
1070
    10
1002
}
1002
{
1000
MANEDIT
1070
     0
1002
}
1002
{
1000
NOSEL
1070
     0
1002
}
1002
{
1000
BEHIND
1070
     0
1002
}
1002
{
1000
OTHER
1070
     0
1002
}
1002
{
1000
REACTOR
1002
}
  0
LINE
  5
1BB4
330
1F
100
AcDbEntity
  8
AM_7
  6
AM_ISO08W050x2
100
AcDbLine
 10
2498.406942560784
 20
1790.848731076097
 30
0.0
 11
2482.406942560784
 21
1790.848731076097
 31
0.0
  0
LINE
  5
1BB5
330
1F
100
AcDbEntity
  8
AM_7
  6
AM_ISO08W050x2
100
AcDbLine
 10
2490.406942560784
 20
1782.848731076097
 30
0.0
 11
2490.406942560784
 21
1798.848731076097
 31
0.0
  0
LINE
  5
1BB6
330
1F
100
AcDbEntity
  8
AM_7
  6
AM_ISO08W050x2
100
AcDbLine
 10
2520.406942560784
 20
1830.848731076097
 30
0.0
 11
2536.406942560784
 21
1830.848731076097
 31
0.0
  0
LINE
  5
1BB7
330
1F
100
AcDbEntity
  8
AM_7
  6
AM_ISO08W050x2
100
AcDbLine
 10
2528.406942560784
 20
1838.848731076097
 30
0.0
 11
2528.406942560784
 21
1822.848731076097
 31
0.0
  0
ARC
  5
1BB8
330
1F
100
AcDbEntity
  8
AM_4
100
AcDbCircle
 10
2490.406942560784
 20
1790.848731076097
 30
0.0
 40
6.0
100
AcDbArc
 50
260.0
 51
170.0
  0
CIRCLE
  5
1BB9
330
1F
100
AcDbEntity
  8
AM_0
100
AcDbCircle
 10
2490.406942560784
 20
1790.848731076097
 30
0.0
 40
5.05278471461085
  0
ARC
  5
1BBA
330
1F
100
AcDbEntity
  8
AM_4
100
AcDbCircle
 10
2528.406942560784
 20
1830.848731076097
 30
0.0
 40
6.0
100
AcDbArc
 50
260.0
 51
170.0
  0
CIRCLE
  5
1BBB
330
1F
100
AcDbEntity
  8
AM_0
100
AcDbCircle
 10
2528.406942560784
 20
1830.848731076097
 30
0.0
 40
5.05278471461085
  0
LINE
  5
1BC9
330
1F
100
AcDbEntity
  8
AM_7
100
AcDbLine
 10
2528.406942557782
 20
1642.581813918634
 30
0.0
 11
2536.981942557782
 21
1642.581813918634
 31
0.0
1001
GENIUS_GENOREF_13
1005
1BCD
  0
LINE
  5
1BCA
330
1F
100
AcDbEntity
  8
AM_7
100
AcDbLine
 10
2528.406942557782
 20
1642.581813918634
 30
0.0
 11
2528.406942557782
 21
1651.156813918634
 31
0.0
1001
GENIUS_GENOREF_13
1005
1BCD
  0
LINE
  5
1BCB
330
1F
100
AcDbEntity
  8
AM_7
100
AcDbLine
 10
2528.406942557782
 20
1642.581813918634
 30
0.0
 11
2519.831942557782
 21
1642.581813918634
 31
0.0
1001
GENIUS_GENOREF_13
1005
1BCD
  0
LINE
  5
1BCC
330
1F
100
AcDbEntity
  8
AM_7
100
AcDbLine
 10
2528.406942557782
 20
1642.581813918634
 30
0.0
 11
2528.406942557782
 21
1634.006813918634
 31
0.0
1001
GENIUS_GENOREF_13
1005
1BCD
  0
POINT
  5
1BCD
330
1F
100
AcDbEntity
  8
0
 60
     1
100
AcDbPoint
 10
0.0
 20
0.0
 30
0.0
1001
GENIUS_GENOLIS_13
1002
{
1000
ENT
1005
1BCC
1005
1BCB
1005
1BCA
1005
1BC9
1002
}
1001
GENIUS_GENODEF_13
1002
{
1000
HIER
1070
    10
1002
}
1002
{
1000
MANEDIT
1070
     0
1002
}
1002
{
1000
NOSEL
1070
     0
1002
}
1002
{
1000
BEHIND
1070
     0
1002
}
1002
{
1000
OTHER
1070
     0
1002
}
1002
{
1000
REACTOR
1002
}
1001
GENIUS_GENOENT_13
1002
{
1000
MYREF
1005
1BCD
1002
}
1002
{
1000
GRP
1005
0
1002
}
1001
GENIUS_GENOBJ-N-CRS_13
1002
{
1000
OWNER
1000
GEN
1002
}
  0
LINE
  5
1BDB
330
1F
100
AcDbEntity
  8
AM_7
100
AcDbLine
 10
2528.406942557782
 20
1622.581813918634
 30
0.0
 11
2536.981942557782
 21
1622.581813918634
 31
0.0
1001
GENIUS_GENOREF_13
1005
1BDF
  0
LINE
  5
1BDC
330
1F
100
AcDbEntity
  8
AM_7
100
AcDbLine
 10
2528.406942557782
 20
1622.581813918634
 30
0.0
 11
2528.406942557782
 21
1631.156813918634
 31
0.0
1001
GENIUS_GENOREF_13
1005
1BDF
  0
LINE
  5
1BDD
330
1F
100
AcDbEntity
  8
AM_7
100
AcDbLine
 10
2528.406942557782
 20
1622.581813918634
 30
0.0
 11
2519.831942557782
 21
1622.581813918634
 31
0.0
1001
GENIUS_GENOREF_13
1005
1BDF
  0
LINE
  5
1BDE
330
1F
100
AcDbEntity
  8
AM_7
100
AcDbLine
 10
2528.406942557782
 20
1622.581813918634
 30
0.0
 11
2528.406942557782
 21
1614.006813918634
 31
0.0
1001
GENIUS_GENOREF_13
1005
1BDF
  0
POINT
  5
1BDF
330
1F
100
AcDbEntity
  8
0
 60
     1
100
AcDbPoint
 10
0.0
 20
0.0
 30
0.0
1001
GENIUS_GENODEF_13
1002
{
1000
HIER
1070
    10
1002
}
1002
{
1000
MANEDIT
1070
     0
1002
}
1002
{
1000
NOSEL
1070
     0
1002
}
1002
{
1000
BEHIND
1070
     0
1002
}
1002
{
1000
OTHER
1070
     0
1002
}
1002
{
1000
REACTOR
1002
}
1001
GENIUS_GENOBJ-N-CRS_13
1002
{
1000
OWNER
1000
GEN
1002
}
1001
GENIUS_GENOLIS_13
1002
{
1000
ENT
1005
1BDE
1005
1BDD
1005
1BDC
1005
1BDB
1002
}
1001
GENIUS_GENOENT_13
1002
{
1000
MYREF
1005
1BDF
1002
}
1002
{
1000
GRP
1005
0
1002
}
  0
LINE
  5
1BEC
330
1F
100
AcDbEntity
  8
AM_7
100
AcDbLine
 10
2528.406942560842
 20
1694.581813918634
 30
0.0
 11
2528.406942557724
 21
1605.468344214738
 31
0.0
1001
GENIUS_GENODEF_13
1002
{
1000
HIER
1070
     0
1002
}
1002
{
1000
MANEDIT
1070
     0
1002
}
1002
{
1000
NOSEL
1070
     0
1002
}
1002
{
1000
BEHIND
1070
     0
1002
}
1002
{
1000
OTHER
1070
     0
1002
}
1002
{
1000
REACTOR
1002
}
1001
GENIUS_GENOBJ-N-CEN_13
1002
{
1000
OWNER
1000
GEN
1002
}
1001
GENIUS_GENCEN_19
1002
{
1040
2.0
1002
}
  0
LINE
  5
1BF3
330
1F
100
AcDbEntity
  8
AM_7
100
AcDbLine
 10
2489.906942560784
 20
1659.563972775664
 30
0.0
 11
2489.906942560784
 21
1680.604506666362
 31
0.0
  0
LINE
  5
1BF4
330
1F
100
AcDbEntity
  8
AM_7
100
AcDbLine
 10
2566.906942560899
 20
1659.563972775664
 30
0.0
 11
2566.906942560899
 21
1680.604506666362
 31
0.0
  0
LINE
  5
1BF5
330
1F
100
AcDbEntity
  8
AM_7
100
AcDbLine
 10
2655.484071610901
 20
1659.563972775664
 30
0.0
 11
2655.484071610901
 21
1680.604506666362
 31
0.0
  0
LINE
  5
1C02
330
1F
100
AcDbEntity
  8
AM_7
100
AcDbLine
 10
2693.984071610805
 20
1694.581813918634
 30
0.0
 11
2693.984071609778
 21
1608.581813918634
 31
0.0
1001
GENIUS_GENODEF_13
1002
{
1000
HIER
1070
     0
1002
}
1002
{
1000
MANEDIT
1070
     0
1002
}
1002
{
1000
NOSEL
1070
     0
1002
}
1002
{
1000
BEHIND
1070
     0
1002
}
1002
{
1000
OTHER
1070
     0
1002
}
1002
{
1000
REACTOR
1002
}
1001
GENIUS_GENOBJ-N-CEN_13
1002
{
1000
OWNER
1000
GEN
1002
}
1001
GENIUS_GENCEN_19
1002
{
1040
2.0
1002
}
  0
LINE
  5
1C04
330
1F
100
AcDbEntity
  8
AM_7
100
AcDbLine
 10
2732.484071610708
 20
1659.563972775664
 30
0.0
 11
2732.484071610708
 21
1680.604506666362
 31
0.0
  0
CIRCLE
  5
1C1F
330
1F
100
AcDbEntity
  8
0
100
AcDbCircle
 10
2566.906942558807
 20
1555.79274015857
 30
0.0
 40
6.5
  0
CIRCLE
  5
1C20
330
1F
100
AcDbEntity
  8
0
100
AcDbCircle
 10
2489.906942560784
 20
1478.792740160547
 30
0.0
 40
6.5
  0
CIRCLE
  5
1C3B
330
1F
100
AcDbEntity
  8
0
100
AcDbCircle
 10
2489.906942560784
 20
1555.79274015857
 30
0.0
 40
5.5
  0
ARC
  5
1C3C
330
1F
100
AcDbEntity
  8
AM_4
100
AcDbCircle
 10
2489.906942560784
 20
1555.79274015857
 30
0.0
 40
6.0
100
AcDbArc
 50
280.0
 51
190.0
  0
CIRCLE
  5
1C3D
330
1F
100
AcDbEntity
  8
AM_VIS
100
AcDbCircle
 10
2566.90694255683
 20
1478.79274015857
 30
0.0
 40
8.75
  0
CIRCLE
  5
1C3E
330
1F
100
AcDbEntity
  8
0
100
AcDbCircle
 10
2566.906942558807
 20
1478.792740160547
 30
0.0
 40
5.5
  0
ARC
  5
1C3F
330
1F
100
AcDbEntity
  8
AM_4
100
AcDbCircle
 10
2566.906942558807
 20
1478.792740160547
 30
0.0
 40
6.0
100
AcDbArc
 50
280.0
 51
190.0
  0
LINE
  5
1C4D
330
1F
100
AcDbEntity
  8
AM_7
100
AcDbLine
 10
2489.906942560784
 20
1555.79274015857
 30
0.0
 11
2500.656942558807
 21
1555.79274015857
 31
0.0
1001
GENIUS_GENOREF_13
1005
1C51
  0
LINE
  5
1C4E
330
1F
100
AcDbEntity
  8
AM_7
100
AcDbLine
 10
2489.906942560784
 20
1555.79274015857
 30
0.0
 11
2489.906942560784
 21
1566.542740156593
 31
0.0
1001
GENIUS_GENOREF_13
1005
1C51
  0
LINE
  5
1C4F
330
1F
100
AcDbEntity
  8
AM_7
100
AcDbLine
 10
2489.906942560784
 20
1555.79274015857
 30
0.0
 11
2479.156942562762
 21
1555.79274015857
 31
0.0
1001
GENIUS_GENOREF_13
1005
1C51
  0
LINE
  5
1C50
330
1F
100
AcDbEntity
  8
AM_7
100
AcDbLine
 10
2489.906942560784
 20
1555.79274015857
 30
0.0
 11
2489.906942560784
 21
1545.042740160547
 31
0.0
1001
GENIUS_GENOREF_13
1005
1C51
  0
POINT
  5
1C51
330
1F
100
AcDbEntity
  8
0
 60
     1
100
AcDbPoint
 10
0.0
 20
0.0
 30
0.0
1001
GENIUS_GENOBJ-N-CRS_13
1002
{
1000
OWNER
1000
GEN
1002
}
1001
GENIUS_GENODEF_13
1002
{
1000
HIER
1070
    10
1002
}
1002
{
1000
MANEDIT
1070
     0
1002
}
1002
{
1000
NOSEL
1070
     0
1002
}
1002
{
1000
BEHIND
1070
     0
1002
}
1002
{
1000
OTHER
1070
     0
1002
}
1002
{
1000
REACTOR
1002
}
1001
GENIUS_GENOLIS_13
1002
{
1000
ENT
1005
1C50
1005
1C4F
1005
1C4E
1005
1C4D
1002
}
1001
GENIUS_GENOENT_13
1002
{
1000
MYREF
1005
1C51
1002
}
1002
{
1000
GRP
1005
0
1002
}
  0
LINE
  5
1C5F
330
1F
100
AcDbEntity
  8
AM_7
100
AcDbLine
 10
2566.906942558807
 20
1555.79274015857
 30
0.0
 11
2575.406942558807
 21
1555.79274015857
 31
0.0
1001
GENIUS_GENOREF_13
1005
1C63
  0
LINE
  5
1C60
330
1F
100
AcDbEntity
  8
AM_7
100
AcDbLine
 10
2566.906942558807
 20
1555.79274015857
 30
0.0
 11
2566.906942558807
 21
1564.29274015857
 31
0.0
1001
GENIUS_GENOREF_13
1005
1C63
  0
LINE
  5
1C61
330
1F
100
AcDbEntity
  8
AM_7
100
AcDbLine
 10
2566.906942558807
 20
1555.79274015857
 30
0.0
 11
2558.406942558807
 21
1555.79274015857
 31
0.0
1001
GENIUS_GENOREF_13
1005
1C63
  0
LINE
  5
1C62
330
1F
100
AcDbEntity
  8
AM_7
100
AcDbLine
 10
2566.906942558807
 20
1555.79274015857
 30
0.0
 11
2566.906942558807
 21
1547.29274015857
 31
0.0
1001
GENIUS_GENOREF_13
1005
1C63
  0
POINT
  5
1C63
330
1F
100
AcDbEntity
  8
0
 60
     1
100
AcDbPoint
 10
0.0
 20
0.0
 30
0.0
1001
GENIUS_GENODEF_13
1002
{
1000
HIER
1070
    10
1002
}
1002
{
1000
MANEDIT
1070
     0
1002
}
1002
{
1000
NOSEL
1070
     0
1002
}
1002
{
1000
BEHIND
1070
     0
1002
}
1002
{
1000
OTHER
1070
     0
1002
}
1002
{
1000
REACTOR
1002
}
1001
GENIUS_GENOLIS_13
1002
{
1000
ENT
1005
1C62
1005
1C61
1005
1C60
1005
1C5F
1002
}
1001
GENIUS_GENOENT_13
1002
{
1000
MYREF
1005
1C63
1002
}
1002
{
1000
GRP
1005
0
1002
}
1001
GENIUS_GENOBJ-N-CRS_13
1002
{
1000
OWNER
1000
GEN
1002
}
  0
LINE
  5
1C71
330
1F
100
AcDbEntity
  8
AM_7
100
AcDbLine
 10
2566.906942558807
 20
1478.792740160547
 30
0.0
 11
2577.65694255683
 21
1478.792740160547
 31
0.0
1001
GENIUS_GENOREF_13
1005
1C75
  0
LINE
  5
1C72
330
1F
100
AcDbEntity
  8
AM_7
100
AcDbLine
 10
2566.906942558807
 20
1478.792740160547
 30
0.0
 11
2566.906942558807
 21
1489.54274015857
 31
0.0
1001
GENIUS_GENOREF_13
1005
1C75
  0
LINE
  5
1C73
330
1F
100
AcDbEntity
  8
AM_7
100
AcDbLine
 10
2566.906942558807
 20
1478.792740160547
 30
0.0
 11
2556.156942560785
 21
1478.792740160547
 31
0.0
1001
GENIUS_GENOREF_13
1005
1C75
  0
LINE
  5
1C74
330
1F
100
AcDbEntity
  8
AM_7
100
AcDbLine
 10
2566.906942558807
 20
1478.792740160547
 30
0.0
 11
2566.906942558807
 21
1468.042740162525
 31
0.0
1001
GENIUS_GENOREF_13
1005
1C75
  0
POINT
  5
1C75
330
1F
100
AcDbEntity
  8
0
 60
     1
100
AcDbPoint
 10
0.0
 20
0.0
 30
0.0
1001
GENIUS_GENOENT_13
1002
{
1000
MYREF
1005
1C75
1002
}
1002
{
1000
GRP
1005
0
1002
}
1001
GENIUS_GENOBJ-N-CRS_13
1002
{
1000
OWNER
1000
GEN
1002
}
1001
GENIUS_GENOLIS_13
1002
{
1000
ENT
1005
1C74
1005
1C73
1005
1C72
1005
1C71
1002
}
1001
GENIUS_GENODEF_13
1002
{
1000
HIER
1070
    10
1002
}
1002
{
1000
MANEDIT
1070
     0
1002
}
1002
{
1000
NOSEL
1070
     0
1002
}
1002
{
1000
BEHIND
1070
     0
1002
}
1002
{
1000
OTHER
1070
     0
1002
}
1002
{
1000
REACTOR
1002
}
  0
LINE
  5
1C83
330
1F
100
AcDbEntity
  8
AM_7
100
AcDbLine
 10
2489.906942560784
 20
1478.792740160547
 30
0.0
 11
2498.406942560784
 21
1478.792740160547
 31
0.0
1001
GENIUS_GENOREF_13
1005
1C87
  0
LINE
  5
1C84
330
1F
100
AcDbEntity
  8
AM_7
100
AcDbLine
 10
2489.906942560784
 20
1478.792740160547
 30
0.0
 11
2489.906942560784
 21
1487.292740160547
 31
0.0
1001
GENIUS_GENOREF_13
1005
1C87
  0
LINE
  5
1C85
330
1F
100
AcDbEntity
  8
AM_7
100
AcDbLine
 10
2489.906942560784
 20
1478.792740160547
 30
0.0
 11
2481.406942560784
 21
1478.792740160547
 31
0.0
1001
GENIUS_GENOREF_13
1005
1C87
  0
LINE
  5
1C86
330
1F
100
AcDbEntity
  8
AM_7
100
AcDbLine
 10
2489.906942560784
 20
1478.792740160547
 30
0.0
 11
2489.906942560784
 21
1470.292740160547
 31
0.0
1001
GENIUS_GENOREF_13
1005
1C87
  0
POINT
  5
1C87
330
1F
100
AcDbEntity
  8
0
 60
     1
100
AcDbPoint
 10
0.0
 20
0.0
 30
0.0
1001
GENIUS_GENOENT_13
1002
{
1000
MYREF
1005
1C87
1002
}
1002
{
1000
GRP
1005
0
1002
}
1001
GENIUS_GENOBJ-N-CRS_13
1002
{
1000
OWNER
1000
GEN
1002
}
1001
GENIUS_GENODEF_13
1002
{
1000
HIER
1070
    10
1002
}
1002
{
1000
MANEDIT
1070
     0
1002
}
1002
{
1000
NOSEL
1070
     0
1002
}
1002
{
1000
BEHIND
1070
     0
1002
}
1002
{
1000
OTHER
1070
     0
1002
}
1002
{
1000
REACTOR
1002
}
1001
GENIUS_GENOLIS_13
1002
{
1000
ENT
1005
1C86
1005
1C85
1005
1C84
1005
1C83
1002
}
  0
LINE
  5
1C95
330
1F
100
AcDbEntity
  8
AM_7
100
AcDbLine
 10
2528.406942558807
 20
1517.29274015857
 30
0.0
 11
2585.406942556829
 21
1517.29274015857
 31
0.0
1001
GENIUS_GENOREF_13
1005
1C99
  0
LINE
  5
1C96
330
1F
100
AcDbEntity
  8
AM_7
100
AcDbLine
 10
2528.406942558807
 20
1517.29274015857
 30
0.0
 11
2528.406942558807
 21
1574.292740156592
 31
0.0
1001
GENIUS_GENOREF_13
1005
1C99
  0
LINE
  5
1C97
330
1F
100
AcDbEntity
  8
AM_7
100
AcDbLine
 10
2528.406942558807
 20
1517.29274015857
 30
0.0
 11
2471.406942560785
 21
1517.29274015857
 31
0.0
1001
GENIUS_GENOREF_13
1005
1C99
  0
LINE
  5
1C98
330
1F
100
AcDbEntity
  8
AM_7
100
AcDbLine
 10
2528.406942558807
 20
1517.29274015857
 30
0.0
 11
2528.406942558807
 21
1460.292740160548
 31
0.0
1001
GENIUS_GENOREF_13
1005
1C99
  0
POINT
  5
1C99
330
1F
100
AcDbEntity
  8
0
 60
     1
100
AcDbPoint
 10
0.0
 20
0.0
 30
0.0
1001
GENIUS_GENOLIS_13
1002
{
1000
ENT
1005
1C98
1005
1C97
1005
1C96
1005
1C95
1002
}
1001
GENIUS_GENOENT_13
1002
{
1000
MYREF
1005
1C99
1002
}
1002
{
1000
GRP
1005
0
1002
}
1001
GENIUS_GENOBJ-N-CRS_13
1002
{
1000
OWNER
1000
GEN
1002
}
1001
GENIUS_GENODEF_13
1002
{
1000
HIER
1070
    10
1002
}
1002
{
1000
MANEDIT
1070
     0
1002
}
1002
{
1000
NOSEL
1070
     0
1002
}
1002
{
1000
BEHIND
1070
     0
1002
}
1002
{
1000
OTHER
1070
     0
1002
}
1002
{
1000
REACTOR
1002
}
  0
LINE
  5
1E45
330
1F
100
AcDbEntity
  8
AM_VIS
100
AcDbLine
 10
2540.906942560248
 20
1662.581813918634
 30
0.0
 11
2540.906942560247
 21
1674.617712303496
 31
0.0
  0
LINE
  5
1E4A
330
1F
100
AcDbEntity
  8
AM_VIS
100
AcDbLine
 10
2540.906942560247
 20
1674.617712303496
 30
0.0
 11
2539.195617694842
 21
1677.581813918633
 31
0.0
  0
LINE
  5
1E4B
330
1F
100
AcDbEntity
  8
AM_VIS
100
AcDbLine
 10
2534.344113603765
 20
1677.581813918633
 30
0.0
 11
2534.344113603766
 21
1668.081813918634
 31
0.0
  0
LINE
  5
1E4C
330
1F
100
AcDbEntity
  8
AM_VIS
100
AcDbLine
 10
2528.406942560247
 20
1668.081813918634
 30
0.0
 11
2534.344113603766
 21
1668.081813918634
 31
0.0
  0
ARC
  5
1E4D
330
1F
100
AcDbEntity
  8
AM_VIS
100
AcDbCircle
 10
2528.406942560247
 20
1679.081813918633
 30
0.0
 40
12.49999999999971
100
AcDbArc
 50
270.0
 51
298.3576365763239
  0
LINE
  5
1E4E
330
1F
100
AcDbEntity
  8
AM_VIS
100
AcDbLine
 10
2534.344113603766
 20
1674.617712303496
 30
0.0
 11
2540.906942560247
 21
1674.617712303496
 31
0.0
  0
LINE
  5
1E63
330
1F
100
AcDbEntity
  8
AM_VIS
100
AcDbLine
 10
2515.906942560247
 20
1662.581813918634
 30
0.0
 11
2515.906942560247
 21
1674.617712303496
 31
0.0
  0
LINE
  5
1E64
330
1F
100
AcDbEntity
  8
AM_VIS
100
AcDbLine
 10
2515.906942560247
 20
1674.617712303496
 30
0.0
 11
2517.618267425652
 21
1677.581813918633
 31
0.0
  0
LINE
  5
1E65
330
1F
100
AcDbEntity
  8
AM_VIS
100
AcDbLine
 10
2522.469771516728
 20
1677.581813918633
 30
0.0
 11
2522.469771516728
 21
1668.081813918634
 31
0.0
  0
LINE
  5
1E66
330
1F
100
AcDbEntity
  8
AM_VIS
100
AcDbLine
 10
2528.406942560247
 20
1668.081813918634
 30
0.0
 11
2522.469771516728
 21
1668.081813918634
 31
0.0
  0
ARC
  5
1E67
330
1F
100
AcDbEntity
  8
AM_VIS
100
AcDbCircle
 10
2528.406942560247
 20
1679.081813918633
 30
0.0
 40
12.49999999999971
100
AcDbArc
 50
241.6423634236761
 51
270.0
  0
LINE
  5
1E68
330
1F
100
AcDbEntity
  8
AM_VIS
100
AcDbLine
 10
2522.469771516728
 20
1674.617712303496
 30
0.0
 11
2515.906942560247
 21
1674.617712303496
 31
0.0
  0
LINE
  5
1E71
330
1F
100
AcDbEntity
  8
AM_VIS
100
AcDbLine
 10
2681.484071610255
 20
1662.581813918634
 30
0.0
 11
2681.484071610256
 21
1666.581813918634
 31
0.0
  0
LINE
  5
1F5E
330
1F
100
AcDbEntity
  8
0
100
AcDbLine
 10
2681.484071610255
 20
1666.581813918634
 30
0.0
 11
2682.984071610566
 21
1668.081813918945
 31
0.0
  0
LINE
  5
1F5F
330
1F
100
AcDbEntity
  8
0
100
AcDbLine
 10
2682.984071610566
 20
1677.581813918633
 30
0.0
 11
2682.984071610566
 21
1668.081813918945
 31
0.0
  0
LINE
  5
1F60
330
1F
100
AcDbEntity
  8
AM_VIS
100
AcDbLine
 10
2706.484071610877
 20
1662.581813918634
 30
0.0
 11
2706.484071610877
 21
1666.581813918634
 31
0.0
  0
LINE
  5
1F61
330
1F
100
AcDbEntity
  8
0
100
AcDbLine
 10
2706.484071610877
 20
1666.581813918634
 30
0.0
 11
2704.984071610566
 21
1668.081813918945
 31
0.0
  0
LINE
  5
1F62
330
1F
100
AcDbEntity
  8
0
100
AcDbLine
 10
2704.984071610566
 20
1677.581813918633
 30
0.0
 11
2704.984071610566
 21
1668.081813918945
 31
0.0
  0
LINE
  5
1F8D
330
1F
100
AcDbEntity
  8
0
100
AcDbLine
 10
2682.984071610566
 20
1674.617712303496
 30
0.0
 11
2704.984071610566
 21
1674.617712303496
 31
0.0
  0
ENDSEC
  0
SECTION
  2
OBJECTS
  0
DICTIONARY
  5
C
330
0
100
AcDbDictionary
281
     1
  3
ACAD_COLOR
350
BE
  3
ACAD_GROUP
350
D
  3
ACAD_LAYOUT
350
1A
  3
ACAD_MATERIAL
350
BD
  3
ACAD_MLINESTYLE
350
17
  3
ACAD_PLOTSETTINGS
350
19
  3
ACAD_PLOTSTYLENAME
350
E
  3
ACAD_TABLESTYLE
350
11A
  3
ACDBHEADERROUNDTRIPXREC
350
2136
  3
AcDbVariableDictionary
350
94
  3
AcmDictionary
350
5B
  3
AMG
350
41
  3
AMGSNAPSETTINGS
350
1B8
  3
DWGPROPS
350
2135
  0
DICTIONARY
  5
3F9
330
2
100
AcDbDictionary
280
     1
281
     1
  3
ACAD_LAYERFILTERS
360
5B7
  3
ACAD_LAYERSTATES
360
814
  3
ACLYDICTIONARY
360
5B6
  3
AMLAYER_GROUPCOLORS
360
BD3
  0
DICTIONARY
  5
8F
330
1F
100
AcDbDictionary
280
     1
281
     1
  3
ACAD_SORTENTS
360
C06
  0
DICTIONARY
  5
BE
102
{ACAD_REACTORS
330
C
102
}
330
C
100
AcDbDictionary
281
     1
  0
DICTIONARY
  5
D
102
{ACAD_REACTORS
330
C
102
}
330
C
100
AcDbDictionary
281
     1
  0
DICTIONARY
  5
1A
102
{ACAD_REACTORS
330
C
102
}
330
C
100
AcDbDictionary
281
     1
  3
Model
350
22
  3
配置1
350
1E
  3
配置2
350
26
  0
DICTIONARY
  5
BD
102
{ACAD_REACTORS
330
C
102
}
330
C
100
AcDbDictionary
281
     1
  0
DICTIONARY
  5
17
102
{ACAD_REACTORS
330
C
102
}
330
C
100
AcDbDictionary
281
     1
  3
Standard
350
18
  0
DICTIONARY
  5
19
102
{ACAD_REACTORS
330
C
102
}
330
C
100
AcDbDictionary
281
     1
  0
ACDBDICTIONARYWDFLT
  5
E
102
{ACAD_REACTORS
330
C
102
}
330
C
100
AcDbDictionary
281
     1
  3
Normal
350
F
100
AcDbDictionaryWithDefault
340
F
  0
DICTIONARY
  5
11A
102
{ACAD_REACTORS
330
C
102
}
330
C
100
AcDbDictionary
281
     1
  3
Standard
350
11B
  0
DICTIONARY
  5
2136
102
{ACAD_REACTORS
330
C
102
}
330
C
100
AcDbDictionary
281
     1
  0
DICTIONARY
  5
94
102
{ACAD_REACTORS
330
C
102
}
330
C
100
AcDbDictionary
281
     1
  3
CTABLESTYLE
350
138
  3
DIMASSOC
350
96
  3
INDEXCTL
350
95
  3
PROJECTNAME
350
2133
  0
DICTIONARY
  5
5B
102
{ACAD_REACTORS
330
C
102
}
330
C
100
AcDbDictionary
281
     1
  3
AcmBOM
350
1B5
  3
AcmStdDictionary
350
61
  3
AMDTSECTSYM_ARROWCOLOR
350
123
  0
DICTIONARY
  5
41
102
{ACAD_REACTORS
330
C
102
}
330
C
100
AcDbDictionary
281
     1
  0
DICTIONARY
  5
1B8
102
{ACAD_REACTORS
330
C
102
}
330
C
100
AcDbDictionary
281
     1
  0
XRECORD
  5
2135
102
{ACAD_REACTORS
330
C
102
}
330
C
100
AcDbXrecord
280
     1
  1
DWGPROPS COOKIE
  2

  3

  4

  6

  7

  8

  9

300
AmdtFileType=84
301
=
302
=
303
=
304
=
305
=
306
=
307
=
308
=
309
=
 40
0.1976933564814815
 41
2453809.488480533
 42
2453815.44448603
  1

 90
        1
  0
DICTIONARY
  5
5B7
102
{ACAD_REACTORS
330
3F9
102
}
330
3F9
100
AcDbDictionary
281
     1
  0
DICTIONARY
  5
814
102
{ACAD_REACTORS
330
3F9
102
}
330
3F9
100
AcDbDictionary
281
     1
  0
DICTIONARY
  5
5B6
102
{ACAD_REACTORS
330
3F9
102
}
330
3F9
100
AcDbDictionary
281
     1
1001
ACAD
1000
<All
  0
DICTIONARY
  5
BD3
102
{ACAD_REACTORS
330
3F9
102
}
330
3F9
100
AcDbDictionary
280
     1
281
     1
  0
SORTENTSTABLE
  5
C06
102
{ACAD_REACTORS
330
8F
102
}
330
8F
100
AcDbSortentsTable
330
1F
331
1610
  5
1610
331
15D1
  5
15D1
331
1A3C
  5
1A3C
331
19FD
  5
19FD
331
195F
  5
195F
331
1618
  5
1618
331
15D9
  5
15D9
331
15A2
  5
15A2
331
1A44
  5
1A44
331
1A05
  5
1A05
331
1967
  5
1967
331
1620
  5
1620
331
15E1
  5
15E1
331
15AA
  5
15AA
331
1A4C
  5
1A4C
331
1A0D
  5
1A0D
331
196F
  5
196F
331
1628
  5
1628
331
15E9
  5
15E9
331
15B2
  5
15B2
331
1A54
  5
1A54
331
1A15
  5
1A15
331
19CE
  5
19CE
331
1977
  5
1977
331
1B30
  5
1B30
331
1AF1
  5
1AF1
331
1A73
  5
1A73
331
1AB2
  5
1AB2
331
1AF9
  5
1AF9
331
1ABA
  5
1ABA
331
1A7B
  5
1A7B
331
1B40
  5
1B40
331
1B01
  5
1B01
331
1A83
  5
1A83
331
1B48
  5
1B48
331
1ACA
  5
1ACA
331
1A8B
  5
1A8B
331
15F1
  5
15F1
331
15BA
  5
15BA
331
1A5C
  5
1A5C
331
1A1D
  5
1A1D
331
19E6
  5
19E6
331
197F
  5
197F
331
1948
  5
1948
331
15F9
  5
15F9
331
1A64
  5
1A64
331
19EE
  5
19EE
331
1987
  5
1987
331
1601
  5
1601
331
15CA
  5
15CA
331
1950
  5
1950
331
1A6C
  5
1A6C
331
1A2D
  5
1A2D
331
198F
  5
198F
331
1609
  5
1609
331
19F6
  5
19F6
331
1A35
  5
1A35
331
F35
  5
F35
331
FFC
  5
FFC
331
1B11
  5
1B11
331
1AD2
  5
1AD2
331
1A93
  5
1A93
331
1AE2
  5
1AE2
331
1A9B
  5
1A9B
331
1B21
  5
1B21
331
1AA3
  5
1AA3
331
1AEA
  5
1AEA
331
1B29
  5
1B29
331
1AAB
  5
1AAB
331
1958
  5
1958
331
1611
  5
1611
331
15D2
  5
15D2
331
1A3D
  5
1A3D
331
19FE
  5
19FE
331
19A7
  5
19A7
331
1960
  5
1960
331
1619
  5
1619
331
15A3
  5
15A3
331
1A45
  5
1A45
331
1A06
  5
1A06
331
1968
  5
1968
331
1621
  5
1621
331
15E2
  5
15E2
331
15AB
  5
15AB
331
1A4D
  5
1A4D
331
1A0E
  5
1A0E
331
19C7
  5
19C7
331
1970
  5
1970
331
1629
  5
1629
331
15EA
  5
15EA
331
15B3
  5
15B3
331
1A55
  5
1A55
331
1A16
  5
1A16
331
F85
  5
F85
331
1B31
  5
1B31
331
1AF2
  5
1AF2
331
1AB3
  5
1AB3
331
1A74
  5
1A74
331
1AFA
  5
1AFA
331
1ABB
  5
1ABB
331
1A7C
  5
1A7C
331
1B41
  5
1B41
331
1B02
  5
1B02
331
1AC3
  5
1AC3
331
1A84
  5
1A84
331
1ACB
  5
1ACB
331
1A8C
  5
1A8C
331
1978
  5
1978
331
15F2
  5
15F2
331
15BB
  5
15BB
331
1A5D
  5
1A5D
331
1A1E
  5
1A1E
331
19E7
  5
19E7
331
1980
  5
1980
331
1949
  5
1949
331
15FA
  5
15FA
331
1A65
  5
1A65
331
19EF
  5
19EF
331
1951
  5
1951
331
1602
  5
1602
331
1988
  5
1988
331
1A6D
  5
1A6D
331
1990
  5
1990
331
160A
  5
160A
331
19F7
  5
19F7
331
1A2E
  5
1A2E
331
1A36
  5
1A36
331
1B12
  5
1B12
331
1A94
  5
1A94
331
1AE3
  5
1AE3
331
1A9C
  5
1A9C
331
1B22
  5
1B22
331
1AA4
  5
1AA4
331
1AEB
  5
1AEB
331
1B2A
  5
1B2A
331
1AAC
  5
1AAC
331
1959
  5
1959
331
1612
  5
1612
331
15D3
  5
15D3
331
1A3E
  5
1A3E
331
19FF
  5
19FF
331
19A8
  5
19A8
331
1961
  5
1961
331
161A
  5
161A
331
15A4
  5
15A4
331
1A46
  5
1A46
331
1A07
  5
1A07
331
1969
  5
1969
331
1622
  5
1622
331
15E3
  5
15E3
331
15AC
  5
15AC
331
1A4E
  5
1A4E
331
1A0F
  5
1A0F
331
19C8
  5
19C8
331
1971
  5
1971
331
162A
  5
162A
331
15EB
  5
15EB
331
15B4
  5
15B4
331
1A56
  5
1A56
331
1A17
  5
1A17
331
F0F
  5
F0F
331
1B32
  5
1B32
331
1AF3
  5
1AF3
331
1AB4
  5
1AB4
331
1A75
  5
1A75
331
1AFB
  5
1AFB
331
1A7D
  5
1A7D
331
1B42
  5
1B42
331
1B03
  5
1B03
331
1AC4
  5
1AC4
331
1A85
  5
1A85
331
1A8D
  5
1A8D
331
1979
  5
1979
331
15F3
  5
15F3
331
15BC
  5
15BC
331
1A5E
  5
1A5E
331
1A1F
  5
1A1F
331
19E8
  5
19E8
331
1981
  5
1981
331
194A
  5
194A
331
15FB
  5
15FB
331
1A66
  5
1A66
331
1A27
  5
1A27
331
1989
  5
1989
331
1603
  5
1603
331
1952
  5
1952
331
19F0
  5
19F0
331
1A2F
  5
1A2F
331
1991
  5
1991
331
160B
  5
160B
331
14F5
  5
14F5
331
1A6E
  5
1A6E
331
1A37
  5
1A37
331
FD6
  5
FD6
331
1B13
  5
1B13
331
1AD4
  5
1AD4
331
1A95
  5
1A95
331
F5F
  5
F5F
331
1B9A
  5
1B9A
331
1B1B
  5
1B1B
331
1AE4
  5
1AE4
331
1A9D
  5
1A9D
331
1B23
  5
1B23
331
1AA5
  5
1AA5
331
1AEC
  5
1AEC
331
1AAD
  5
1AAD
331
19F8
  5
19F8
331
195A
  5
195A
331
1613
  5
1613
331
15D4
  5
15D4
331
1A3F
  5
1A3F
331
1A00
  5
1A00
331
19A9
  5
19A9
331
1962
  5
1962
331
161B
  5
161B
331
15A5
  5
15A5
331
1A47
  5
1A47
331
1A08
  5
1A08
331
196A
  5
196A
331
1623
  5
1623
331
15AD
  5
15AD
331
1A4F
  5
1A4F
331
1A10
  5
1A10
331
19C9
  5
19C9
331
1972
  5
1972
331
162B
  5
162B
331
15EC
  5
15EC
331
15B5
  5
15B5
331
1A57
  5
1A57
331
1B33
  5
1B33
331
1AF4
  5
1AF4
331
1AB5
  5
1AB5
331
1A76
  5
1A76
331
1B3B
  5
1B3B
331
1AFC
  5
1AFC
331
1A7E
  5
1A7E
331
1B43
  5
1B43
331
1B04
  5
1B04
331
1AC5
  5
1AC5
331
1A86
  5
1A86
331
1B0C
  5
1B0C
331
1A8E
  5
1A8E
331
1A18
  5
1A18
331
19E1
  5
19E1
331
197A
  5
197A
331
1943
  5
1943
331
15F4
  5
15F4
331
15BD
  5
15BD
331
1266
  5
1266
331
1A5F
  5
1A5F
331
1A20
  5
1A20
331
19E9
  5
19E9
331
1982
  5
1982
331
194B
  5
194B
331
15FC
  5
15FC
331
15C5
  5
15C5
331
1A67
  5
1A67
331
1A28
  5
1A28
331
198A
  5
198A
331
1604
  5
1604
331
1953
  5
1953
331
19F1
  5
19F1
331
1A30
  5
1A30
331
1992
  5
1992
331
160C
  5
160C
331
1A6F
  5
1A6F
331
1B14
  5
1B14
331
1A96
  5
1A96
331
1B9B
  5
1B9B
331
1B1C
  5
1B1C
331
1AE5
  5
1AE5
331
1A9E
  5
1A9E
331
1B24
  5
1B24
331
1AA6
  5
1AA6
331
1AED
  5
1AED
331
1AAE
  5
1AAE
331
1A38
  5
1A38
331
19F9
  5
19F9
331
195B
  5
195B
331
1614
  5
1614
331
15D5
  5
15D5
331
1A40
  5
1A40
331
1A01
  5
1A01
331
1963
  5
1963
331
161C
  5
161C
331
15DD
  5
15DD
331
15A6
  5
15A6
331
1A48
  5
1A48
331
1A09
  5
1A09
331
196B
  5
196B
331
1624
  5
1624
331
15AE
  5
15AE
331
1A50
  5
1A50
331
1A11
  5
1A11
331
19CA
  5
19CA
331
1973
  5
1973
331
15ED
  5
15ED
331
15B6
  5
15B6
331
EE9
  5
EE9
331
1B34
  5
1B34
331
1AF5
  5
1AF5
331
1AB6
  5
1AB6
331
1A77
  5
1A77
331
1B3C
  5
1B3C
331
1AFD
  5
1AFD
331
1A7F
  5
1A7F
331
1B44
  5
1B44
331
1B05
  5
1B05
331
1AC6
  5
1AC6
331
1A87
  5
1A87
331
1B0D
  5
1B0D
331
1ACE
  5
1ACE
331
1A8F
  5
1A8F
331
1A58
  5
1A58
331
1A19
  5
1A19
331
19E2
  5
19E2
331
197B
  5
197B
331
15F5
  5
15F5
331
15BE
  5
15BE
331
1A60
  5
1A60
331
19EA
  5
19EA
331
1983
  5
1983
331
194C
  5
194C
331
15FD
  5
15FD
331
1A29
  5
1A29
331
198B
  5
198B
331
1605
  5
1605
331
15CE
  5
15CE
331
1954
  5
1954
331
19F2
  5
19F2
331
1A68
  5
1A68
331
1A31
  5
1A31
331
1993
  5
1993
331
160D
  5
160D
331
1B15
  5
1B15
331
1A97
  5
1A97
331
1B9C
  5
1B9C
331
1B1D
  5
1B1D
331
1AE6
  5
1AE6
331
1A9F
  5
1A9F
331
1B25
  5
1B25
331
1AA7
  5
1AA7
331
1AEE
  5
1AEE
331
1B2D
  5
1B2D
331
1AAF
  5
1AAF
331
1A39
  5
1A39
331
19FA
  5
19FA
331
195C
  5
195C
331
1615
  5
1615
331
1A41
  5
1A41
331
1A02
  5
1A02
331
1964
  5
1964
331
161D
  5
161D
331
15A7
  5
15A7
331
1A49
  5
1A49
331
1A0A
  5
1A0A
331
196C
  5
196C
331
1625
  5
1625
331
15AF
  5
15AF
331
1A51
  5
1A51
331
1A12
  5
1A12
331
19CB
  5
19CB
331
1974
  5
1974
331
15EE
  5
15EE
331
15B7
  5
15B7
331
1A70
  5
1A70
331
1AF6
  5
1AF6
331
1AB7
  5
1AB7
331
1A78
  5
1A78
331
1B3D
  5
1B3D
331
1AFE
  5
1AFE
331
1A80
  5
1A80
331
1B45
  5
1B45
331
1B06
  5
1B06
331
1AC7
  5
1AC7
331
1A88
  5
1A88
331
1B0E
  5
1B0E
331
1A59
  5
1A59
331
1A1A
  5
1A1A
331
19E3
  5
19E3
331
197C
  5
197C
331
15F6
  5
15F6
331
15BF
  5
15BF
331
1A61
  5
1A61
331
19EB
  5
19EB
331
1984
  5
1984
331
194D
  5
194D
331
15FE
  5
15FE
331
1A2A
  5
1A2A
331
198C
  5
198C
331
1606
  5
1606
331
15CF
  5
15CF
331
1955
  5
1955
331
19F3
  5
19F3
331
1A69
  5
1A69
331
1A32
  5
1A32
331
160E
  5
160E
331
EC3
  5
EC3
331
1A90
  5
1A90
331
1A98
  5
1A98
331
1B9D
  5
1B9D
331
1B1E
  5
1B1E
331
1AE7
  5
1AE7
331
1AA0
  5
1AA0
331
1B26
  5
1B26
331
1AA8
  5
1AA8
331
1AEF
  5
1AEF
331
1B2E
  5
1B2E
331
1A3A
  5
1A3A
331
19FB
  5
19FB
331
195D
  5
195D
331
1616
  5
1616
331
1A42
  5
1A42
331
1A03
  5
1A03
331
1965
  5
1965
331
161E
  5
161E
331
15A8
  5
15A8
331
1A4A
  5
1A4A
331
1A0B
  5
1A0B
331
196D
  5
196D
331
1626
  5
1626
331
15E7
  5
15E7
331
15B0
  5
15B0
331
1A52
  5
1A52
331
1A13
  5
1A13
331
19CC
  5
19CC
331
1975
  5
1975
331
15EF
  5
15EF
331
1AB0
  5
1AB0
331
1A71
  5
1A71
331
1AF7
  5
1AF7
331
1AB8
  5
1AB8
331
1A79
  5
1A79
331
1B3E
  5
1B3E
331
1AFF
  5
1AFF
331
1A81
  5
1A81
331
1B46
  5
1B46
331
1B07
  5
1B07
331
1AC8
  5
1AC8
331
1A89
  5
1A89
331
1B0F
  5
1B0F
331
15B8
  5
15B8
331
1A5A
  5
1A5A
331
1A1B
  5
1A1B
331
19E4
  5
19E4
331
197D
  5
197D
331
1946
  5
1946
331
15F7
  5
15F7
331
15C0
  5
15C0
331
1A62
  5
1A62
331
19EC
  5
19EC
331
1985
  5
1985
331
194E
  5
194E
331
15FF
  5
15FF
331
1A2B
  5
1A2B
331
198D
  5
198D
331
1607
  5
1607
331
1956
  5
1956
331
19F4
  5
19F4
331
1A6A
  5
1A6A
331
1A33
  5
1A33
331
160F
  5
160F
331
1AD0
  5
1AD0
331
1A91
  5
1A91
331
1A99
  5
1A99
331
1B1F
  5
1B1F
331
1AA1
  5
1AA1
331
1AE8
  5
1AE8
331
1B27
  5
1B27
331
1AA9
  5
1AA9
331
1B2F
  5
1B2F
331
15D0
  5
15D0
331
1509
  5
1509
331
1A3B
  5
1A3B
331
19FC
  5
19FC
331
195E
  5
195E
331
1617
  5
1617
331
1A43
  5
1A43
331
1A04
  5
1A04
331
1966
  5
1966
331
161F
  5
161F
331
15A9
  5
15A9
331
1022
  5
1022
331
1A4B
  5
1A4B
331
1A0C
  5
1A0C
331
196E
  5
196E
331
1627
  5
1627
331
15E8
  5
15E8
331
15B1
  5
15B1
331
1A53
  5
1A53
331
1A14
  5
1A14
331
19CD
  5
19CD
331
1976
  5
1976
331
E65
  5
E65
331
1AB1
  5
1AB1
331
1A72
  5
1A72
331
1AF0
  5
1AF0
331
E9D
  5
E9D
331
1AF8
  5
1AF8
331
1A7A
  5
1A7A
331
1B3F
  5
1B3F
331
1B00
  5
1B00
331
1A82
  5
1A82
331
1B47
  5
1B47
331
1B08
  5
1B08
331
1AC9
  5
1AC9
331
1A8A
  5
1A8A
331
15F0
  5
15F0
331
15B9
  5
15B9
331
1A5B
  5
1A5B
331
1A1C
  5
1A1C
331
19E5
  5
19E5
331
197E
  5
197E
331
1947
  5
1947
331
15F8
  5
15F8
331
15C1
  5
15C1
331
1A63
  5
1A63
331
19ED
  5
19ED
331
1986
  5
1986
331
194F
  5
194F
331
1600
  5
1600
331
15C9
  5
15C9
331
1A6B
  5
1A6B
331
1A2C
  5
1A2C
331
198E
  5
198E
331
1608
  5
1608
331
1957
  5
1957
331
19F5
  5
19F5
331
1A34
  5
1A34
331
1A92
  5
1A92
331
1B10
  5
1B10
331
1A9A
  5
1A9A
331
1AE9
  5
1AE9
331
1AA2
  5
1AA2
331
1B20
  5
1B20
331
1B28
  5
1B28
331
1AAA
  5
1AAA
  0
LAYOUT
  5
22
102
{ACAD_XDICTIONARY
360
2139
102
}
102
{ACAD_REACTORS
330
1A
102
}
330
1A
100
AcDbPlotSettings
  1

  2
\\RD\EPSON Stylus C63 Series單色
  4
A4
  6

 40
3.757083177566528
 41
3.757076978683471
 42
3.757080078125
 43
3.757080078125
 44
209.9733276367187
 45
296.9683227539062
 46
0.0
 47
0.0
 48
0.0
 49
0.0
140
0.0
141
0.0
142
1.0
143
0.3405120737814363
 70
 11952
 72
     1
 73
     0
 74
     0
  7
單色出圖.ctb
 75
     0
147
2.936753428137963
148
-2047.07469463503
149
-1261.649717473083
100
AcDbLayout
  1
Model
 70
     1
 71
     0
 10
0.0
 20
0.0
 11
12.0
 21
9.0
 12
0.0
 22
0.0
 32
0.0
 14
0.0
 24
0.0
 34
0.0
 15
0.0
 25
0.0
 35
0.0
146
0.0
 13
0.0
 23
0.0
 33
0.0
 16
1.0
 26
0.0
 36
0.0
 17
0.0
 27
1.0
 37
0.0
 76
     0
330
1F
1001
ACAD_PSEXT
1000
\\RD\EPSON Stylus C63 Series單色
1000
EPSON Stylus C63 Series
1000
\\RD
1000

1070
     0
  0
LAYOUT
  5
1E
102
{ACAD_XDICTIONARY
360
2137
102
}
102
{ACAD_REACTORS
330
1A
102
}
330
1A
100
AcDbPlotSettings
  1

  2

  4

  6

 40
0.0
 41
0.0
 42
0.0
 43
0.0
 44
0.0
 45
0.0
 46
0.0
 47
0.0
 48
0.0
 49
0.0
140
0.0
141
0.0
142
1.0
143
1.0
 70
   688
 72
     0
 73
     0
 74
     5
  7
單色出圖.ctb
 75
    16
147
1.0
148
0.0
149
0.0
100
AcDbLayout
  1
配置1
 70
     1
 71
     1
 10
0.0
 20
0.0
 11
420.0
 21
297.0
 12
0.0
 22
0.0
 32
0.0
 14
1.000000000000000E+20
 24
1.000000000000000E+20
 34
1.000000000000000E+20
 15
-1.000000000000000E+20
 25
-1.000000000000000E+20
 35
-1.000000000000000E+20
146
0.0
 13
0.0
 23
0.0
 33
0.0
 16
1.0
 26
0.0
 36
0.0
 17
0.0
 27
1.0
 37
0.0
 76
     0
330
1B
  0
LAYOUT
  5
26
102
{ACAD_XDICTIONARY
360
213B
102
}
102
{ACAD_REACTORS
330
1A
102
}
330
1A
100
AcDbPlotSettings
  1

  2

  4

  6

 40
0.0
 41
0.0
 42
0.0
 43
0.0
 44
0.0
 45
0.0
 46
0.0
 47
0.0
 48
0.0
 49
0.0
140
0.0
141
0.0
142
1.0
143
1.0
 70
   688
 72
     0
 73
     0
 74
     5
  7
單色出圖.ctb
 75
    16
147
1.0
148
0.0
149
0.0
100
AcDbLayout
  1
配置2
 70
     1
 71
     2
 10
0.0
 20
0.0
 11
12.0
 21
9.0
 12
0.0
 22
0.0
 32
0.0
 14
0.0
 24
0.0
 34
0.0
 15
0.0
 25
0.0
 35
0.0
146
0.0
 13
0.0
 23
0.0
 33
0.0
 16
1.0
 26
0.0
 36
0.0
 17
0.0
 27
1.0
 37
0.0
 76
     0
330
23
  0
MLINESTYLE
  5
18
102
{ACAD_REACTORS
330
17
102
}
330
17
100
AcDbMlineStyle
  2
STANDARD
 70
     0
  3

 62
   256
 51
90.0
 52
90.0
 71
     2
 49
0.5
 62
   256
  6
BYLAYER
 49
-0.5
 62
   256
  6
BYLAYER
  0
ACDBPLACEHOLDER
  5
F
102
{ACAD_REACTORS
330
E
102
}
330
E
  0
TABLESTYLE
  5
11B
102
{ACAD_REACTORS
330
11A
102
}
330
11A
100
AcDbTableStyle
  3
Standard
 70
     0
 71
     0
 40
1.5
 41
1.5
280
     0
281
     0
  7
STANDARD
140
4.5
170
     2
 62
     0
 63
     7
283
     0
274
    -2
284
     1
 64
     0
275
    -2
285
     1
 65
     0
276
    -2
286
     1
 66
     0
277
    -2
287
     1
 67
     0
278
    -2
288
     1
 68
     0
279
    -2
289
     1
 69
     0
  7
STANDARD
140
6.0
170
     5
 62
     0
 63
     7
283
     0
274
    -2
284
     1
 64
     0
275
    -2
285
     1
 65
     0
276
    -2
286
     1
 66
     0
277
    -2
287
     1
 67
     0
278
    -2
288
     1
 68
     0
279
    -2
289
     1
 69
     0
  7
STANDARD
140
4.5
170
     5
 62
     0
 63
     7
283
     0
274
    -2
284
     1
 64
     0
275
    -2
285
     1
 65
     0
276
    -2
286
     1
 66
     0
277
    -2
287
     1
 67
     0
278
    -2
288
     1
 68
     0
279
    -2
289
     1
 69
     0
  0
DICTIONARYVAR
  5
138
102
{ACAD_REACTORS
330
94
102
}
330
94
100
DictionaryVariables
280
     0
  1
STANDARD
  0
DICTIONARYVAR
  5
96
102
{ACAD_REACTORS
330
94
102
}
330
94
100
DictionaryVariables
280
     0
  1
2
  0
DICTIONARYVAR
  5
95
102
{ACAD_REACTORS
330
94
102
}
330
94
100
DictionaryVariables
280
     0
  1
0
  0
DICTIONARYVAR
  5
2133
102
{ACAD_REACTORS
330
94
102
}
330
94
100
DictionaryVariables
280
     0
  1

  0
DICTIONARY
  5
1B5
102
{ACAD_REACTORS
330
5B
102
}
330
5B
100
AcDbDictionary
281
     1
  0
DICTIONARY
  5
61
102
{ACAD_REACTORS
330
5B
102
}
330
5B
100
AcDbDictionary
281
     1
  0
XRECORD
  5
123
102
{ACAD_REACTORS
330
5B
102
}
330
5B
100
AcDbXrecord
280
     1
 90
-1023410169
  0
DICTIONARY
  5
2139
330
22
100
AcDbDictionary
280
     1
281
     1
  3
ACAD_XREC_ROUNDTRIP
360
213A
  0
DICTIONARY
  5
2137
330
1E
100
AcDbDictionary
280
     1
281
     1
  3
ACAD_XREC_ROUNDTRIP
360
2138
  0
DICTIONARY
  5
213B
330
26
100
AcDbDictionary
280
     1
281
     1
  3
ACAD_XREC_ROUNDTRIP
360
213C
  0
XRECORD
  5
213A
102
{ACAD_REACTORS
330
2139
102
}
330
2139
100
AcDbXrecord
280
     1
102
SHADEPLOT
 70
     0
102
SHADEPLOTRESLEVEL
 70
     2
102
SHADEPLOTCUSTOMDPI
 70
   300
  0
XRECORD
  5
2138
102
{ACAD_REACTORS
330
2137
102
}
330
2137
100
AcDbXrecord
280
     1
102
SHADEPLOT
 70
     0
102
SHADEPLOTRESLEVEL
 70
     2
102
SHADEPLOTCUSTOMDPI
 70
   300
  0
XRECORD
  5
213C
102
{ACAD_REACTORS
330
213B
102
}
330
213B
100
AcDbXrecord
280
     1
102
SHADEPLOT
 70
     0
102
SHADEPLOTRESLEVEL
 70
     2
102
SHADEPLOTCUSTOMDPI
 70
   300
  0
ENDSEC
  0
EOF
