  0
SECTION
  2
HEADER
  9
$ACADVER
  1
AC1015
  9
$ACADMAINTVER
 70
    20
  9
$DWGCODEPAGE
  3
ANSI_950
  9
$INSBASE
 10
0.0
 20
0.0
 30
0.0
  9
$EXTMIN
 10
-113.5887967667872
 20
-36.19153141321632
 30
0.0
  9
$EXTMAX
 10
81.41120323321276
 20
248.8084685867838
 30
155.1560633774733
  9
$LIMMIN
 10
0.0
 20
0.0
  9
$LIMMAX
 10
12.0
 20
9.0
  9
$ORTHOMODE
 70
     0
  9
$REGENMODE
 70
     1
  9
$FILLMODE
 70
     1
  9
$QTEXTMODE
 70
     0
  9
$MIRRTEXT
 70
     1
  9
$LTSCALE
 40
5.0
  9
$ATTMODE
 70
     1
  9
$TEXTSIZE
 40
3.0
  9
$TRACEWID
 40
0.05
  9
$TEXTSTYLE
  7
DAYUS
  9
$CLAYER
  8
DIM
  9
$CELTYPE
  6
BYLAYER
  9
$CECOLOR
 62
   256
  9
$CELTSCALE
 40
1.0
  9
$DISPSILH
 70
     0
  9
$DIMSCALE
 40
1.0
  9
$DIMASZ
 40
3.0
  9
$DIMEXO
 40
1.5
  9
$DIMDLI
 40
8.0
  9
$DIMRND
 40
0.0
  9
$DIMDLE
 40
0.0
  9
$DIMEXE
 40
1.5
  9
$DIMTP
 40
0.01
  9
$DIMTM
 40
0.01
  9
$DIMTXT
 40
3.0
  9
$DIMCEN
 40
3.0
  9
$DIMTSZ
 40
0.0
  9
$DIMTOL
 70
     0
  9
$DIMLIM
 70
     0
  9
$DIMTIH
 70
     0
  9
$DIMTOH
 70
     0
  9
$DIMSE1
 70
     0
  9
$DIMSE2
 70
     0
  9
$DIMTAD
 70
     3
  9
$DIMZIN
 70
     8
  9
$DIMBLK
  1

  9
$DIMASO
 70
     1
  9
$DIMSHO
 70
     1
  9
$DIMPOST
  1

  9
$DIMAPOST
  1

  9
$DIMALT
 70
     0
  9
$DIMALTD
 70
     2
  9
$DIMALTF
 40
25.4
  9
$DIMLFAC
 40
1.0
  9
$DIMTOFL
 70
     1
  9
$DIMTVP
 40
0.0
  9
$DIMTIX
 70
     0
  9
$DIMSOXD
 70
     0
  9
$DIMSAH
 70
     0
  9
$DIMBLK1
  1

  9
$DIMBLK2
  1

  9
$DIMSTYLE
  2
STANDARD
  9
$DIMCLRD
 70
   256
  9
$DIMCLRE
 70
   256
  9
$DIMCLRT
 70
   256
  9
$DIMTFAC
 40
0.6
  9
$DIMGAP
 40
0.8
  9
$DIMJUST
 70
     0
  9
$DIMSD1
 70
     0
  9
$DIMSD2
 70
     0
  9
$DIMTOLJ
 70
     1
  9
$DIMTZIN
 70
     8
  9
$DIMALTZ
 70
     0
  9
$DIMALTTZ
 70
     0
  9
$DIMUPT
 70
     0
  9
$DIMDEC
 70
     2
  9
$DIMTDEC
 70
     8
  9
$DIMALTU
 70
     2
  9
$DIMALTTD
 70
     2
  9
$DIMTXSTY
  7
DAYUS
  9
$DIMAUNIT
 70
     0
  9
$DIMADEC
 70
     0
  9
$DIMALTRND
 40
0.0
  9
$DIMAZIN
 70
     2
  9
$DIMDSEP
 70
    46
  9
$DIMATFIT
 70
     3
  9
$DIMFRAC
 70
     0
  9
$DIMLDRBLK
  1

  9
$DIMLUNIT
 70
     2
  9
$DIMLWD
 70
    -1
  9
$DIMLWE
 70
    -1
  9
$DIMTMOVE
 70
     0
  9
$LUNITS
 70
     2
  9
$LUPREC
 70
     4
  9
$SKETCHINC
 40
0.1
  9
$FILLETRAD
 40
0.5
  9
$AUNITS
 70
     0
  9
$AUPREC
 70
     0
  9
$MENU
  1
.
  9
$ELEVATION
 40
0.0
  9
$PELEVATION
 40
0.0
  9
$THICKNESS
 40
0.0
  9
$LIMCHECK
 70
     0
  9
$CHAMFERA
 40
0.5
  9
$CHAMFERB
 40
0.5
  9
$CHAMFERC
 40
1.0
  9
$CHAMFERD
 40
0.0
  9
$SKPOLY
 70
     0
  9
$TDCREATE
 40
2451926.893824618
  9
$TDUCREATE
 40
2451926.560491285
  9
$TDUPDATE
 40
2456916.341469722
  9
$TDUUPDATE
 40
2456916.008136389
  9
$TDINDWG
 40
0.2159014699
  9
$TDUSRTIMER
 40
0.2159013542
  9
$USRTIMER
 70
     1
  9
$ANGBASE
 50
0.0
  9
$ANGDIR
 70
     0
  9
$PDMODE
 70
     0
  9
$PDSIZE
 40
0.0
  9
$PLINEWID
 40
0.0
  9
$SPLFRAME
 70
     0
  9
$SPLINETYPE
 70
     6
  9
$SPLINESEGS
 70
     8
  9
$HANDSEED
  5
9B0
  9
$SURFTAB1
 70
     6
  9
$SURFTAB2
 70
     6
  9
$SURFTYPE
 70
     6
  9
$SURFU
 70
     6
  9
$SURFV
 70
     6
  9
$UCSBASE
  2

  9
$UCSNAME
  2

  9
$UCSORG
 10
0.0
 20
0.0
 30
0.0
  9
$UCSXDIR
 10
1.0
 20
0.0
 30
0.0
  9
$UCSYDIR
 10
0.0
 20
1.0
 30
0.0
  9
$UCSORTHOREF
  2

  9
$UCSORTHOVIEW
 70
     0
  9
$UCSORGTOP
 10
0.0
 20
0.0
 30
0.0
  9
$UCSORGBOTTOM
 10
0.0
 20
0.0
 30
0.0
  9
$UCSORGLEFT
 10
0.0
 20
0.0
 30
0.0
  9
$UCSORGRIGHT
 10
0.0
 20
0.0
 30
0.0
  9
$UCSORGFRONT
 10
0.0
 20
0.0
 30
0.0
  9
$UCSORGBACK
 10
0.0
 20
0.0
 30
0.0
  9
$PUCSBASE
  2

  9
$PUCSNAME
  2

  9
$PUCSORG
 10
0.0
 20
0.0
 30
0.0
  9
$PUCSXDIR
 10
1.0
 20
0.0
 30
0.0
  9
$PUCSYDIR
 10
0.0
 20
1.0
 30
0.0
  9
$PUCSORTHOREF
  2

  9
$PUCSORTHOVIEW
 70
     0
  9
$PUCSORGTOP
 10
0.0
 20
0.0
 30
0.0
  9
$PUCSORGBOTTOM
 10
0.0
 20
0.0
 30
0.0
  9
$PUCSORGLEFT
 10
0.0
 20
0.0
 30
0.0
  9
$PUCSORGRIGHT
 10
0.0
 20
0.0
 30
0.0
  9
$PUCSORGFRONT
 10
0.0
 20
0.0
 30
0.0
  9
$PUCSORGBACK
 10
0.0
 20
0.0
 30
0.0
  9
$USERI1
 70
     0
  9
$USERI2
 70
     0
  9
$USERI3
 70
     0
  9
$USERI4
 70
     0
  9
$USERI5
 70
     0
  9
$USERR1
 40
0.0
  9
$USERR2
 40
0.0
  9
$USERR3
 40
0.0
  9
$USERR4
 40
0.0
  9
$USERR5
 40
0.0
  9
$WORLDVIEW
 70
     1
  9
$SHADEDGE
 70
     3
  9
$SHADEDIF
 70
    70
  9
$TILEMODE
 70
     1
  9
$MAXACTVP
 70
    48
  9
$PINSBASE
 10
0.0
 20
0.0
 30
0.0
  9
$PLIMCHECK
 70
     0
  9
$PEXTMIN
 10
1.000000000000000E+20
 20
1.000000000000000E+20
 30
1.000000000000000E+20
  9
$PEXTMAX
 10
-1.000000000000000E+20
 20
-1.000000000000000E+20
 30
-1.000000000000000E+20
  9
$PLIMMIN
 10
-26.66839684740902
 20
-14.50316558317441
  9
$PLIMMAX
 10
393.3488150666534
 20
282.4651571707319
  9
$UNITMODE
 70
     0
  9
$VISRETAIN
 70
     1
  9
$PLINEGEN
 70
     0
  9
$PSLTSCALE
 70
     1
  9
$TREEDEPTH
 70
  3020
  9
$CMLSTYLE
  2
STANDARD
  9
$CMLJUST
 70
     0
  9
$CMLSCALE
 40
1.0
  9
$PROXYGRAPHICS
 70
     1
  9
$MEASUREMENT
 70
     1
  9
$CELWEIGHT
370
    -1
  9
$ENDCAPS
280
     0
  9
$JOINSTYLE
280
     0
  9
$LWDISPLAY
290
     0
  9
$INSUNITS
 70
     0
  9
$HYPERLINKBASE
  1

  9
$STYLESHEET
  1
單色出圖.ctb
  9
$XEDIT
290
     1
  9
$CEPSNTYPE
380
     0
  9
$PSTYLEMODE
290
     1
  9
$FINGERPRINTGUID
  2
{07D7BE12-0192-11D3-8697-0060B085A428}
  9
$VERSIONGUID
  2
{97185317-EAFB-44C5-8B12-E0950C5EAE73}
  9
$EXTNAMES
290
     1
  9
$PSVPSCALE
 40
0.0
  9
$OLESTARTUP
290
     0
  0
ENDSEC
  0
SECTION
  2
CLASSES
  0
CLASS
  1
ACMESTATEMGR
  2
AcMeStateMgr
  3
AcMeServices
 90
        0
280
     0
281
     0
  0
CLASS
  1
ACMESCOPE
  2
AcMeScope
  3
AcMeServices
 90
        0
280
     0
281
     0
  0
CLASS
  1
ACMECOMMANDHISTORY
  2
AcMeCommandHistory
  3
AcMeServices
 90
        0
280
     0
281
     0
  0
CLASS
  1
ACRFINSADJUSTERMGR
  2
AcRfInsAdjusterMgr
  3
AcMeServices
 90
        0
280
     0
281
     0
  0
CLASS
  1
ACMEDRAWINGMAN
  2
AcMeDrawingMan
  3
AcMeServices
 90
        0
280
     0
281
     0
  0
CLASS
  1
AMATTR
  2
AcMeAttribute
  3
AcMeServices
 90
    32768
280
     0
281
     0
  0
CLASS
  1
ACMEBOMCOLUMN
  2
AcMeBOMColumn
  3
AcMeServices
 90
    32768
280
     0
281
     0
  0
CLASS
  1
ACMEBOMCONF
  2
AcMeBOMConf
  3
AcMeServices
 90
    32768
280
     0
281
     0
  0
CLASS
  1
ACMEBOMTABLE
  2
AcMeBOMTable
  3
AcMeServices
 90
    32768
280
     0
281
     0
  0
CLASS
  1
ACMEBOMENTRY
  2
AcMeBOMEntry
  3
AcMeServices
 90
    32768
280
     0
281
     0
  0
CLASS
  1
ACMEVIEW
  2
AcMeView
  3
AcMeServices
 90
        0
280
     0
281
     0
  0
CLASS
  1
ACGREFMASTER
  2
AcGrefMaster
  3
AcAttribServices
 90
        0
280
     0
281
     0
  0
CLASS
  1
AMIMASTER
  2
AmiMaster
  3
AmiServices
 90
        0
280
     0
281
     0
  0
CLASS
  1
ACASGREFMASTER
  2
AcAsGrefMaster
  3
AutoSurfResolverServices
 90
        0
280
     0
281
     0
  0
CLASS
  1
ADAPPL
  2
AcAdAppl
  3
DesignerServices
 90
        0
280
     0
281
     0
  0
CLASS
  1
DEPMGR
  2
AcAdDepMgr
  3
DesignerServices
 90
        0
280
     0
281
     0
  0
CLASS
  1
PARAMMGR
  2
AcAdParamMgr
  3
DesignerServices
 90
        0
280
     0
281
     0
  0
CLASS
  1
PARAMSCOPE
  2
AcAdParamScope
  3
DesignerServices
 90
        0
280
     0
281
     0
  0
CLASS
  1
ACIMSYSVARMAN
  2
AcImSysVarManager
  3
AcMeServices
 90
        0
280
     0
281
     0
  0
CLASS
  1
ACIMINTSYSVAR
  2
AcImIntSysVar
  3
AcMeServices
 90
        0
280
     0
281
     0
  0
CLASS
  1
ACIMREALSYSVAR
  2
AcImRealSysVar
  3
AcMeServices
 90
        0
280
     0
281
     0
  0
CLASS
  1
ACIMSTRSYSVAR
  2
AcImStrSysVar
  3
AcMeServices
 90
        0
280
     0
281
     0
  0
CLASS
  1
NAMEDAPPL
  2
AcAdNamedAppl
  3
DesignerServices
 90
        0
280
     0
281
     0
  0
CLASS
  1
ADHNTMPLT
  2
AdHoleNoteTemplateMgr
  3
DesignerServices
 90
    32768
280
     0
281
     0
  0
CLASS
  1
AM_HNTEMPLATE_MGR_NAME
  2
AdHoleNoteTemplateMgrName
  3
DesignerServices
 90
    32768
280
     0
281
     0
  0
CLASS
  1
ACADGREFMODULE
  2
AcAdGrefModule
  3
AdGrefServices
 90
        0
280
     0
281
     0
  0
CLASS
  1
AM_DRAWING_MGR
  2
AcDmDwgMgr
  3
AcMechDwgViewMgmt
 90
        0
280
     0
281
     0
  0
CLASS
  1
AM_DWG_DOCUMENT
  2
AcDmDwgDocument
  3
AcMechDwgViewMgmt
 90
        0
280
     0
281
     0
  0
CLASS
  1
AM_DWG_SHEET
  2
AcDmSheet
  3
AcMechDwgViewMgmt
 90
        0
280
     0
281
     0
  0
CLASS
  1
AM_VIEWDIMPARMAP
  2
AcDmViewDimParMap
  3
AcMechDwgViewMgmt
 90
        0
280
     0
281
     0
  0
CLASS
  1
AM_DWGMGR_NAME
  2
AcDmDwgMgrName
  3
AcMechDwgViewMgmt
 90
        0
280
     0
281
     0
  0
CLASS
  1
ACAMPROJECT
  2
AcAmProject
  3
DesignerAssemblies
 90
        0
280
     0
281
     0
  0
CLASS
  1
ACAMGRCOMPSET
  2
AcAmGrCompSet
  3
DesignerAssemblies
 90
    32768
280
     1
281
     0
  0
CLASS
  1
ACAMGRCOMPDEFSET
  2
AcAmGrCompDefSet
  3
DesignerAssemblies
 90
        0
280
     0
281
     0
  0
CLASS
  1
ACAMGRCOMPDEF
  2
AcAmGrCompDef
  3
DesignerAssemblies
 90
        0
280
     0
281
     0
  0
CLASS
  1
ACCMCONTEXT
  2
AcCmContext
  3
DesignerAssemblies
 90
        0
280
     0
281
     0
  0
CLASS
  1
ACAMCOMPDEF
  2
AcAmCompDef
  3
DesignerAssemblies
 90
        0
280
     0
281
     0
  0
CLASS
  1
ACAMCOMPDEFMGR
  2
AcAmCompDefMgr
  3
DesignerAssemblies
 90
        0
280
     0
281
     0
  0
CLASS
  1
AMCONTEXTMGR
  2
AcAmContextMgr
  3
DesignerAssemblies
 90
        0
280
     0
281
     0
  0
CLASS
  1
ACAMCONTEXTMODELER
  2
AcAmContextModeler
  3
DesignerAssemblies
 90
        0
280
     0
281
     0
  0
CLASS
  1
ACDMVIEWGEOM
  2
AcDmViewGeometry
  3
AcMechDwgViewMgmt
 90
    32768
280
     0
281
     1
  0
CLASS
  1
CBROWSERAPPOBJECT
  2
CBrowserAppObject
  3
McadcomServices
 90
        0
280
     0
281
     0
  0
CLASS
  1
IM_STATIC_MAN
  2
AcImStaticVarManager
  3
AcMeServices
 90
        0
280
     0
281
     0
  0
CLASS
  1
ASAPP
  2
AcAsAppObject
  3
AutoSurfServices
 90
        0
280
     0
281
     0
  0
CLASS
  1
ACIMDBLSTATICVAR
  2
AcImDblStaticVar
  3
AcMeServices
 90
        0
280
     0
281
     0
  0
CLASS
  1
ACIMSTRSTATICVAR
  2
AcImStrStaticVar
  3
AcMeServices
 90
        0
280
     0
281
     0
  0
CLASS
  1
ACIMINTSTATICVAR
  2
AcImIntStaticVar
  3
AcMeServices
 90
        0
280
     0
281
     0
  0
CLASS
  1
CATALOGSTATE
  2
AcAmCatalogState
  3
DesignerAssemblies
 90
        0
280
     0
281
     0
  0
CLASS
  1
DM_PLACEHOLDER
  2
AcDmSelsetPlaceholder
  3
AcMechDwgViewMgmt
 90
        0
280
     0
281
     0
  0
CLASS
  1
DICTIONARYVAR
  2
AcDbDictionaryVar
  3
ObjectDBX Classes
 90
        0
280
     0
281
     0
  0
CLASS
  1
ACMSTANDARDJIS
  2
AcmStandardJIS
  3
"Amdt_StdImp|Product Description: AutoCAD Mechanical 2004 DX|Company: Autodesk"
 90
    32768
280
     0
281
     0
  0
CLASS
  1
ACMSTANDARDANSI
  2
AcmStandardANSI
  3
"Amdt_StdImp|Product Description: AutoCAD Mechanical 2004 DX|Company: Autodesk"
 90
    32768
280
     0
281
     0
  0
CLASS
  1
ACMSTANDARDBSI
  2
AcmStandardBSI
  3
"Amdt_StdImp|Product Description: AutoCAD Mechanical 2004 DX|Company: Autodesk"
 90
    32768
280
     0
281
     0
  0
CLASS
  1
ACMSTANDARDDIN
  2
AcmStandardDIN
  3
"Amdt_StdImp|Product Description: AutoCAD Mechanical 2004 DX|Company: Autodesk"
 90
    32768
280
     0
281
     0
  0
CLASS
  1
ACMSTANDARDISO
  2
AcmStandardISO
  3
"Amdt_StdImp|Product Description: AutoCAD Mechanical 2004 DX|Company: Autodesk"
 90
        0
280
     0
281
     0
  0
CLASS
  1
LAYER_INDEX
  2
AcDbLayerIndex
  3
ObjectDBX Classes
 90
        0
280
     0
281
     0
  0
CLASS
  1
IDBUFFER
  2
AcDbIdBuffer
  3
ObjectDBX Classes
 90
        0
280
     0
281
     0
  0
CLASS
  1
ACDBDICTIONARYWDFLT
  2
AcDbDictionaryWithDefault
  3
ObjectDBX Classes
 90
        0
280
     0
281
     0
  0
CLASS
  1
ACDBPLACEHOLDER
  2
AcDbPlaceHolder
  3
ObjectDBX Classes
 90
        0
280
     0
281
     0
  0
CLASS
  1
LAYOUT
  2
AcDbLayout
  3
ObjectDBX Classes
 90
        0
280
     0
281
     0
  0
CLASS
  1
ACME_DOCUMENT
  2
AcMeDbDoc
  3
AcMeServices
 90
        0
280
     0
281
     0
  0
CLASS
  1
AMGSETTINGSOBJ
  2
AmgSettingsObj
  3
"AcadM|Product Description: AutoCAD Mechanical 2000|Company: Autodesk"
 90
        0
280
     0
281
     0
  0
CLASS
  1
AMGOBJPROPCFG
  2
AmgObjPropCfg
  3
"AmgLay|Product Description: AutoCAD Mechanical 2000|Company: Autodesk"
 90
        1
280
     0
281
     0
  0
CLASS
  1
ACDBENTITYCACHE
  2
AcMeEntityCache
  3
AcMeServices
 90
        0
280
     0
281
     0
  0
CLASS
  1
GSMANAGER
  2
AcMeGSManager
  3
AcMeServices
 90
        0
280
     0
281
     0
  0
CLASS
  1
AMDTINTERNALREACTOR
  2
AmdtInternalReactor
  3
AcMeServices
 90
        0
280
     0
281
     0
  0
CLASS
  1
ACME_DATABASE
  2
AcMeDbDatabase
  3
AcMeServices
 90
        0
280
     0
281
     0
  0
CLASS
  1
ACGREFACADMASTER
  2
AcGrefacadMaster
  3
AcGrefServices
 90
        0
280
     0
281
     0
  0
CLASS
  1
AMDTMENUSTATEMGR
  2
AmdtMenuStateMgr
  3
McadcomServices
 90
        0
280
     0
281
     0
  0
CLASS
  1
AMDTMCOMMENUSTATE
  2
AmdtMcomMenuState
  3
McadcomServices
 90
        0
280
     0
281
     0
  0
CLASS
  1
MAPIADMODULE
  2
MApiAdModule
  3
MApiAdServices
 90
        0
280
     0
281
     0
  0
CLASS
  1
AMDTDMMENUSTATE
  2
AmdtDmMenuState
  3
AcMechDwgViewMgmt
 90
        0
280
     0
281
     0
  0
CLASS
  1
AMDTADMENUSTATE
  2
AmdtAdMenuState
  3
DesignerServices
 90
        0
280
     0
281
     0
  0
CLASS
  1
AMDTAMMENUSTATE
  2
AmdtAmMenuState
  3
DesignerAssemblies
 90
        0
280
     0
281
     0
  0
CLASS
  1
ACMDATADICTIONARY
  2
AcmDataDictionary
  3
"AcmSymBB|Product Description: AutoCAD Mechanical 2004 DX|Company: Autodesk"
 90
        0
280
     0
281
     0
  0
CLASS
  1
ACMDATAENTRYBLOCK
  2
AcmDataEntryBlock
  3
"AcmSymBB|Product Description: AutoCAD Mechanical 2004 DX|Company: Autodesk"
 90
        0
280
     0
281
     0
  0
CLASS
  1
AMDTBROWSERDBTAB
  2
AmdtBrowserDbTab
  3
McadcomServices
 90
        0
280
     0
281
     0
  0
CLASS
  1
ACAMGFILTERDAT
  2
AcAmgFilterDat
  3
"AcadM|Product Description: AutoCAD Mechanical 2000|Company: Autodesk"
 90
        0
280
     0
281
     0
  0
CLASS
  1
MAPIAMMOUDLE
  2
MApiAmModule
  3
MApiAmServices
 90
        0
280
     0
281
     0
  0
CLASS
  1
ACAMEXTERNALCOMPDEF
  2
AcAmExternalCompDef
  3
DesignerAssemblies
 90
    32768
280
     0
281
     0
  0
CLASS
  1
ACCMBODY
  2
AcCmBody
  3
DesignerAssemblies
 90
    32768
280
     0
281
     0
  0
CLASS
  1
ACAMCOMPENT
  2
AcAmCompEnt
  3
DesignerAssemblies
 90
    32768
280
     0
281
     1
  0
CLASS
  1
ACAMCOMPFEEDBACK
  2
AcAmCompFeedback
  3
DesignerAssemblies
 90
    32768
280
     0
281
     0
  0
CLASS
  1
ACAMCOMP
  2
AcAmComp
  3
DesignerAssemblies
 90
    32768
280
     0
281
     0
  0
CLASS
  1
ACAMCOMPENTCLONE
  2
AcAmCompEntClone
  3
DesignerAssemblies
 90
    32768
280
     0
281
     1
  0
CLASS
  1
ACAMCLONEREACTOR
  2
AcAmGrCompCloneReactor
  3
DesignerAssemblies
 90
    32768
280
     0
281
     0
  0
CLASS
  1
EDGEID
  2
AcAdEdgeId
  3
DesignerServices
 90
    32768
280
     0
281
     0
  0
CLASS
  1
ACADPARTCIRCEDGRES
  2
AcAdPartCircEdgRes
  3
AdGrefServices
 90
    32768
280
     0
281
     0
  0
CLASS
  1
ACRFINSADJ
  2
AcRfInsAdjuster
  3
AcMeServices
 90
    32768
280
     0
281
     0
  0
CLASS
  1
FACEID
  2
AcAdFaceId
  3
DesignerServices
 90
    32768
280
     0
281
     0
  0
CLASS
  1
DEPEDGESECONDARYDEPID
  2
AcAdDepEdgeSecondaryDepId
  3
DesignerServices
 90
    32768
280
     0
281
     0
  0
CLASS
  1
ACADPARTPLANARFACERES
  2
AcAdPartPlanarFaceRes
  3
AdGrefServices
 90
    32768
280
     0
281
     0
  0
CLASS
  1
ACMELINEARARROW
  2
AcImLinearArrowDisplay
  3
AcMeServices
 90
    32768
280
     0
281
     1
  0
CLASS
  1
ACAMEXPR
  2
AcAmExpr
  3
DesignerAssemblies
 90
    32768
280
     0
281
     0
  0
CLASS
  1
ACCMINSERTPLPL
  2
AcCmInsertPlPl
  3
AcCmServices
 90
    32768
280
     0
281
     0
  0
CLASS
  1
ACCMCONSTREACTOR
  2
AcCmConstraintReactor
  3
DesignerAssemblies
 90
    32768
280
     0
281
     0
  0
CLASS
  1
ACADPARTLINEDGRES
  2
AcAdPartLinEdgRes
  3
AdGrefServices
 90
    32768
280
     0
281
     0
  0
CLASS
  1
STREFID
  2
AcAdStraightRefId
  3
DesignerServices
 90
    32768
280
     0
281
     0
  0
CLASS
  1
ACMEAXIS
  2
AcImAxisDisplay
  3
AcMeServices
 90
    32768
280
     0
281
     1
  0
CLASS
  1
ACMEPOINT
  2
AcImPointDisplay
  3
AcMeServices
 90
    32768
280
     0
281
     1
  0
CLASS
  1
ACCMANGVECVEC
  2
AcCmAngVecVec
  3
DesignerAssemblies
 90
    32768
280
     0
281
     0
  0
CLASS
  1
CIRREFID
  2
AcAdCircleRefId
  3
DesignerServices
 90
    32768
280
     0
281
     0
  0
CLASS
  1
ACADPARTCYLINDERFACERES
  2
AcAdPartCylinderFaceRes
  3
AdGrefServices
 90
    32768
280
     0
281
     0
  0
CLASS
  1
ACCMDISTLNLN
  2
AcCmDistLnLn
  3
DesignerAssemblies
 90
    32768
280
     0
281
     0
  0
CLASS
  1
ACADPARTCONICALFACERES
  2
AcAdPartConicalFaceRes
  3
AdGrefServices
 90
    32768
280
     0
281
     0
  0
CLASS
  1
ACCMDISTPLPL
  2
AcCmDistPlPl
  3
DesignerAssemblies
 90
    32768
280
     0
281
     0
  0
CLASS
  1
ACAMGRBLOCKRECORD
  2
AcAmGrBlockRecord
  3
DesignerAssemblies
 90
    32768
280
     0
281
     0
  0
CLASS
  1
ACAMVIEWREACTOR
  2
AcAmViewReactor
  3
DesignerAssemblies
 90
    32768
280
     0
281
     0
  0
CLASS
  1
AMVIEW
  2
AcAmView
  3
DesignerAssemblies
 90
    32768
280
     0
281
     0
  0
CLASS
  1
ACAMVIEWCONTEXT
  2
AcAmViewContext
  3
DesignerAssemblies
 90
    32768
280
     0
281
     0
  0
CLASS
  1
ACAMCOMPVIEWREACTOR
  2
AcAmGrCompViewReactor
  3
DesignerAssemblies
 90
    32768
280
     0
281
     0
  0
CLASS
  1
ACAMCOMPENTVIEW
  2
AcAmCompEntView
  3
DesignerAssemblies
 90
    32768
280
     0
281
     1
  0
CLASS
  1
ACAMVIEWENTITYFILTER
  2
AcAmViewEntityFilter
  3
DesignerAssemblies
 90
    32768
280
     0
281
     0
  0
CLASS
  1
AM_GREF_PLANE
  2
AcDmGrefPlnDef
  3
AcMechDwgViewMgmt
 90
    32768
280
     0
281
     0
  0
CLASS
  1
AM_ABS_AXIS
  2
AcDmAbsAxisDef
  3
AcMechDwgViewMgmt
 90
    32768
280
     0
281
     0
  0
CLASS
  1
AM_BASE_VIEW_ORIENT
  2
AcDmBaseViewOr
  3
AcMechDwgViewMgmt
 90
    32768
280
     0
281
     0
  0
CLASS
  1
AM_DWG_VIEWPORT
  2
AcDmViewport
  3
AcMechDwgViewMgmt
 90
    32768
280
     0
281
     0
  0
CLASS
  1
AM_VIEW_DISPLAY
  2
AcDmDwgViewDisplay
  3
AcMechDwgViewMgmt
 90
    32768
280
     0
281
     0
  0
CLASS
  1
AM_CLDFLTS
  2
AcDmClDflts
  3
AcMechDwgViewMgmt
 90
    32768
280
     0
281
     0
  0
CLASS
  1
AM_BASE_VIEW
  2
AcDmBaseView
  3
AcMechDwgViewMgmt
 90
    32768
280
     0
281
     0
  0
CLASS
  1
ACDMVWEDSPLINE
  2
AcDmViewEdgeSpline
  3
AcMechDwgViewMgmt
 90
    32768
280
     0
281
     1
  0
CLASS
  1
ACDMVWEDLINE
  2
AcDmViewEdgeLine
  3
AcMechDwgViewMgmt
 90
    32768
280
     0
281
     1
  0
CLASS
  1
ACDMVWEDARC
  2
AcDmViewEdgeArc
  3
AcMechDwgViewMgmt
 90
    32768
280
     0
281
     1
  0
CLASS
  1
ACDMVWEDCIRC
  2
AcDmViewEdgeCircle
  3
AcMechDwgViewMgmt
 90
    32768
280
     0
281
     1
  0
CLASS
  1
ACDMVWEDELLIPSE
  2
AcDmViewEdgeEllipse
  3
AcMechDwgViewMgmt
 90
    32768
280
     0
281
     1
  0
CLASS
  1
AM_ADCIRCTRLINE
  2
AcAdBullsEyeCl
  3
DesignerServices
 90
    32768
280
     0
281
     0
  0
CLASS
  1
AM_ADLINCTRLINE
  2
AcAdLineCl
  3
DesignerServices
 90
    32768
280
     0
281
     0
  0
CLASS
  1
AD_CIRCTAPH
  2
AcAdTapHoleCircDisp
  3
DesignerServices
 90
    32768
280
     0
281
     0
  0
CLASS
  1
AM_ORTHO_VIEW_ORIENT
  2
AcDmOrthoViewOr
  3
AcMechDwgViewMgmt
 90
    32768
280
     0
281
     0
  0
CLASS
  1
AM_ORTHO_VIEW
  2
AcDmOrthoView
  3
AcMechDwgViewMgmt
 90
    32768
280
     0
281
     0
  0
CLASS
  1
ACADPARTDATUMPLANERES
  2
AcAdPartDatumPlaneRes
  3
AdGrefServices
 90
    32768
280
     0
281
     0
  0
CLASS
  1
AM_FULLPLANESECTION
  2
AcDmFullPlaneSection
  3
AcMechDwgViewMgmt
 90
    32768
280
     0
281
     0
  0
CLASS
  1
AM_SECTIONSYMBOL
  2
AcDmSectionSymbol
  3
AcMechDwgViewMgmt
 90
    32768
280
     0
281
     0
  0
CLASS
  1
AM_VIEWLABEL
  2
AcDmViewLabel
  3
AcMechDwgViewMgmt
 90
    32768
280
     0
281
     0
  0
CLASS
  1
AD_LINETAPH
  2
AcAdTapHoleLineDisp
  3
DesignerServices
 90
    32768
280
     0
281
     0
  0
CLASS
  1
ACADPARTSPLINEEDGERES
  2
AcAdPartSplineEdgeRes
  3
AdGrefServices
 90
    32768
280
     0
281
     0
  0
CLASS
  1
ACDMGREFEDIT
  2
AcDmViewEntityGeomrefEdit
  3
AcMechDwgViewMgmt
 90
    32768
280
     0
281
     0
  0
CLASS
  1
ACDMVIEWLINEDGERES
  2
AcDmViewLinEdgeRes
  3
AcMechDwgViewMgmt
 90
    32768
280
     0
281
     0
  0
CLASS
  1
AM_VIEWDIMANGULAR
  2
AcDmViewDimAngular
  3
AcMechDwgViewMgmt
 90
    32768
280
     0
281
     0
  0
CLASS
  1
AM_VIEWDIMLINEAR
  2
AcDmViewDimLinear
  3
AcMechDwgViewMgmt
 90
    32768
280
     0
281
     0
  0
CLASS
  1
ACDBLINERES
  2
AcDbLineRes
  3
AcGrefServices
 90
    32768
280
     0
281
     0
  0
CLASS
  1
CNRREFID
  2
AcAdCornerId
  3
DesignerServices
 90
    32768
280
     0
281
     0
  0
CLASS
  1
ACADPARTPOINTRES
  2
AcAdPartPointRes
  3
AdGrefServices
 90
    32768
280
     0
281
     0
  0
CLASS
  1
ACDMVIEWARCEDGERES
  2
AcDmViewArcEdgeRes
  3
AcMechDwgViewMgmt
 90
    32768
280
     0
281
     0
  0
CLASS
  1
ADPART
  2
AcAdPart
  3
DesignerServices
 90
    32768
280
     0
281
     1
  0
CLASS
  1
ADBASE
  2
AcAdBase
  3
DesignerServices
 90
    32768
280
     0
281
     0
  0
CLASS
  1
BODYID
  2
AcAdBodyId
  3
DesignerServices
 90
    32768
280
     0
281
     0
  0
CLASS
  1
WORKPLANEDISPLAYMGR
  2
AcAdDisplayMgr
  3
DesignerServices
 90
    32768
280
     0
281
     0
  0
CLASS
  1
NEWSTDPARTPARLIST
  2
AmgNewParListFiler
  3
"AmgParList|Product Description: AutoCAD Mechanical 2000|Company: Autodesk"
 90
    33791
280
     0
281
     0
  0
CLASS
  1
ACMSURFSTANDARDANSI
  2
AcmSurfTextStdANSI
  3
"Amdt_StdImp|Product Description: AutoCAD Mechanical 2004 DX|Company: Autodesk"
 90
    32768
280
     0
281
     0
  0
CLASS
  1
ACMFCFSTANDARDANSI
  2
AcmFCFStdANSI
  3
"Amdt_StdImp|Product Description: AutoCAD Mechanical 2004 DX|Company: Autodesk"
 90
    32768
280
     0
281
     0
  0
CLASS
  1
ACMWELDSTANDARDANSI
  2
AcmWeldingStdANSI
  3
"Amdt_StdImp|Product Description: AutoCAD Mechanical 2004 DX|Company: Autodesk"
 90
    32768
280
     0
281
     0
  0
CLASS
  1
ACMIDSTANDARDANSI
  2
AcmIdStdANSI
  3
"Amdt_StdImp|Product Description: AutoCAD Mechanical 2004 DX|Company: Autodesk"
 90
    32768
280
     0
281
     0
  0
CLASS
  1
ACMDATUMSTANDARDANSI
  2
AcmDatumStdANSI
  3
"Amdt_StdImp|Product Description: AutoCAD Mechanical 2004 DX|Company: Autodesk"
 90
    32768
280
     0
281
     0
  0
CLASS
  1
ACMBOMSTANDARDANSI
  2
AcmBOMStdANSI
  3
"Amdt_StdImp|Product Description: AutoCAD Mechanical 2004 DX|Company: Autodesk"
 90
    32768
280
     0
281
     0
  0
CLASS
  1
ADDATUMPLANEABS
  2
AcAdDatumPlaneAbs
  3
DesignerServices
 90
    32768
280
     0
281
     0
  0
CLASS
  1
ADDATUMAXISABS
  2
AcAdDatumAxisAbs
  3
DesignerServices
 90
    32768
280
     0
281
     0
  0
CLASS
  1
ADDATUMORIENTEDPLANE
  2
AcAdDatumOrientedPlane
  3
DesignerServices
 90
    32768
280
     0
281
     0
  0
CLASS
  1
ACAD_CIRCLE
  2
AcAdCircle
  3
DesignerServices
 90
    32768
280
     0
281
     1
  0
CLASS
  1
ACADCIRCLEACAD
  2
AcAdVirtualCircleAcad
  3
DesignerServices
 90
    32768
280
     0
281
     0
  0
CLASS
  1
ACADREFLINEACAD
  2
AcAdVirtualReferenceLine
  3
DesignerServices
 90
    32768
280
     0
281
     0
  0
CLASS
  1
ACADCONSLINE
  2
AcAdConstrainedLine
  3
DesignerServices
 90
    32768
280
     0
281
     0
  0
CLASS
  1
ACADCONSGROUP
  2
AcAdConstraintGroup
  3
DesignerServices
 90
    32768
280
     0
281
     0
  0
CLASS
  1
ACADCONSCIRCLE
  2
AcAdConstrainedCircle
  3
DesignerServices
 90
    32768
280
     0
281
     0
  0
CLASS
  1
ACADCONSPOINT
  2
AcAdConstrainedPoint
  3
DesignerServices
 90
    32768
280
     0
281
     0
  0
CLASS
  1
ACADIMPPTACAD
  2
AcAdVirtualImplicitPoint
  3
DesignerServices
 90
    32768
280
     0
281
     0
  0
CLASS
  1
ADCTRPTCNS
  2
AcAdCenterPointConstr
  3
DesignerServices
 90
    32768
280
     0
281
     0
  0
CLASS
  1
ADCLPROF2D
  2
AcAdClosedProfile2d
  3
DesignerServices
 90
    32768
280
     0
281
     0
  0
CLASS
  1
ACAD_FIXCONSTRAINT
  2
AcAdFixedConstraint
  3
DesignerServices
 90
    32768
280
     0
281
     0
  0
CLASS
  1
ADCONSTDSP
  2
AcAdConstraintDisplayTag
  3
DesignerServices
 90
    32768
280
     0
281
     1
  0
CLASS
  1
ADCONSDISP
  2
AcAdConstraintDisplay
  3
DesignerServices
 90
    32768
280
     0
281
     1
  0
CLASS
  1
PARAM
  2
AcAdParam
  3
DesignerServices
 90
    32768
280
     0
281
     0
  0
CLASS
  1
ADACADDIACNS
  2
AcAdAcadDiameterConstr
  3
DesignerServices
 90
    32768
280
     0
281
     0
  0
CLASS
  1
ACADVOLFEATWITHTRIM
  2
AcAdVolFeatWithTrim
  3
DesignerServices
 90
    32768
280
     0
281
     0
  0
CLASS
  1
DEPEDGEFEATUREORDERING
  2
AcAdDepEdgeFeatureOrdering
  3
DesignerServices
 90
    32768
280
     0
281
     0
  0
CLASS
  1
ADPLANEID
  2
AcAdPlaneId
  3
DesignerServices
 90
    32768
280
     0
281
     0
  0
CLASS
  1
ADDATUMPLANEFACE
  2
AcAdDatumPlaneFace
  3
DesignerServices
 90
    32768
280
     0
281
     0
  0
CLASS
  1
ADSURFGEOMID
  2
AcAdSurfGeomId
  3
DesignerServices
 90
    32768
280
     0
281
     0
  0
CLASS
  1
ADDATUMAXISCENTER
  2
AcAdDatumAxisCenter
  3
DesignerServices
 90
    32768
280
     0
281
     0
  0
CLASS
  1
ADDATUMPOINTAXISPLANE
  2
AcAdDatumPointAxisPlane
  3
DesignerServices
 90
    32768
280
     0
281
     0
  0
CLASS
  1
ADHOLEFEAT
  2
AcAdHoleFeat
  3
DesignerServices
 90
    32768
280
     0
281
     0
  0
CLASS
  1
ACMEPLINE
  2
AcImPlineDisplay
  3
AcMeServices
 90
    32768
280
     0
281
     1
  0
CLASS
  1
ACMECIRCARC
  2
AcImCircArcDisplay
  3
AcMeServices
 90
    32768
280
     0
281
     1
  0
CLASS
  1
DATUMAXISDISPLAY
  2
AcAdDatumAxisDisplay
  3
DesignerServices
 90
    32768
280
     0
281
     1
  0
CLASS
  1
ACADPARTAXISRES
  2
AcAdPartAxisRes
  3
AdGrefServices
 90
    32768
280
     0
281
     0
  0
CLASS
  1
DATUMPLANEDISPLAY
  2
AcAdDatumPlaneDisplay
  3
DesignerServices
 90
    32768
280
     0
281
     1
  0
CLASS
  1
ADDATUMPLANEOFFSET
  2
AcAdDatumPlaneOffset
  3
DesignerServices
 90
    32768
280
     0
281
     0
  0
CLASS
  1
ADDATUMPLANEAXISPLANE
  2
AcAdDatumPlaneAxisPlane
  3
DesignerServices
 90
    32768
280
     0
281
     0
  0
CLASS
  1
ADDATUMPLANETANGENTPLANE
  2
AcAdDatumPlaneTangentPlane
  3
DesignerServices
 90
    32768
280
     0
281
     0
  0
CLASS
  1
ADWORKPOINTDISPLAY
  2
AcAdWorkPointDisplay
  3
DesignerServices
 90
    32768
280
     0
281
     1
  0
CLASS
  1
ADVIRTUALPOINTWORKPOINTFREE
  2
AcAdVirtualPointWorkPointFree
  3
DesignerServices
 90
    32768
280
     0
281
     0
  0
CLASS
  1
ADWORKPOINTSKETCH
  2
AcAdWorkPointSketch
  3
DesignerServices
 90
    32768
280
     0
281
     0
  0
CLASS
  1
ACADPARTDATUMPOINTRES
  2
AcAdPartDatumPointRes
  3
AdGrefServices
 90
    32768
280
     0
281
     0
  0
CLASS
  1
ACADBOUNDEDLINEDATUMID
  2
AcAdVirtualBoundedLineDatumId
  3
DesignerServices
 90
    32768
280
     0
281
     0
  0
CLASS
  1
ADPROJCNS
  2
AcAdProjectionConstr
  3
DesignerServices
 90
    32768
280
     0
281
     0
  0
CLASS
  1
ACADSKETCHPOINTRES
  2
AcAdSketchPointRes
  3
DesignerServices
 90
    32768
280
     0
281
     0
  0
CLASS
  1
ACADSKETCHLINERES
  2
AcAdSketchLineRes
  3
DesignerServices
 90
    32768
280
     0
281
     0
  0
CLASS
  1
ACAD_LINE
  2
AcAdLine
  3
DesignerServices
 90
    32768
280
     0
281
     1
  0
CLASS
  1
ACADLINEACAD
  2
AcAdVirtualBoundedLineAcad
  3
DesignerServices
 90
    32768
280
     0
281
     0
  0
CLASS
  1
ADPCURCNS
  2
AcAdPointCurveConstr
  3
DesignerServices
 90
    32768
280
     0
281
     0
  0
CLASS
  1
ADVDISTCNS
  2
AcAdVerticalDistanceConstr
  3
DesignerServices
 90
    32768
280
     0
281
     0
  0
CLASS
  1
ADHDISTCNS
  2
AcAdHorizontalDistanceConstr
  3
DesignerServices
 90
    32768
280
     0
281
     0
  0
CLASS
  1
ADHORCNS
  2
AcAdHorizontalConstr
  3
DesignerServices
 90
    32768
280
     0
281
     0
  0
CLASS
  1
ADVERCNS
  2
AcAdVerticalConstr
  3
DesignerServices
 90
    32768
280
     0
281
     0
  0
CLASS
  1
ADPERPCNS
  2
AcAdPerpendicularConstr
  3
DesignerServices
 90
    32768
280
     0
281
     0
  0
CLASS
  1
ADVIRTUALPOINTWORKPOINTFIXED
  2
AcAdVirtualPointWorkPointFixed
  3
DesignerServices
 90
    32768
280
     0
281
     0
  0
CLASS
  1
ACRFATTGENMGR
  2
AcRfAttGeneralMgr
  3
AcAttribServices
 90
    32768
280
     0
281
     0
  0
CLASS
  1
SILEDGEID
  2
AcAdSilhouetteEdgeId
  3
DesignerServices
 90
    32768
280
     0
281
     0
  0
CLASS
  1
AM_GREF_AXIS
  2
AcDmGrefAxisDef
  3
AcMechDwgViewMgmt
 90
    32768
280
     0
281
     0
  0
CLASS
  1
ACRFDMINSADJ
  2
AcRfDMInsAdjuster
  3
AcMechDwgViewMgmt
 90
    32768
280
     0
281
     0
  0
CLASS
  1
LONG_TRANSACTION
  2
AcDbLongTransaction
  3
ObjectDBX Classes
 90
    32768
280
     0
281
     0
  0
CLASS
  1
LWPOLYLINE
  2
AcDbPolyline
  3
ObjectDBX Classes
 90
        0
280
     0
281
     1
  0
CLASS
  1
HATCH
  2
AcDbHatch
  3
ObjectDBX Classes
 90
    32768
280
     0
281
     1
  0
CLASS
  1
XRECORD
  2
AcDbXrecord
  3
ObjectDBX Classes
 90
        0
280
     0
281
     0
  0
CLASS
  1
AMDTEDGESTANDARDISO
  2
AmdtEdgeStdISO
  3
"Amdt_StdImp|Product Description: AutoCAD Mechanical 2004 DX|Company: Autodesk"
 90
    32768
280
     0
281
     0
  0
CLASS
  1
ACMSURFSTANDARDISO
  2
AcmSurfTextStdISO
  3
"Amdt_StdImp|Product Description: AutoCAD Mechanical 2004 DX|Company: Autodesk"
 90
        0
280
     0
281
     0
  0
CLASS
  1
ACMFCFSTANDARDISO
  2
AcmFCFStdISO
  3
"Amdt_StdImp|Product Description: AutoCAD Mechanical 2004 DX|Company: Autodesk"
 90
        0
280
     0
281
     0
  0
CLASS
  1
ACMWELDSTANDARDISO
  2
AcmWeldingStdISO
  3
"Amdt_StdImp|Product Description: AutoCAD Mechanical 2004 DX|Company: Autodesk"
 90
        0
280
     0
281
     0
  0
CLASS
  1
ACMIDSTANDARDISO
  2
AcmIdStdISO
  3
"Amdt_StdImp|Product Description: AutoCAD Mechanical 2004 DX|Company: Autodesk"
 90
        0
280
     0
281
     0
  0
CLASS
  1
ACMDATUMSTANDARDISO
  2
AcmDatumStdISO
  3
"Amdt_StdImp|Product Description: AutoCAD Mechanical 2004 DX|Company: Autodesk"
 90
        0
280
     0
281
     0
  0
CLASS
  1
ACMBOMSTANDARDISO
  2
AcmBOMStdISO
  3
"Amdt_StdImp|Product Description: AutoCAD Mechanical 2004 DX|Company: Autodesk"
 90
        0
280
     0
281
     0
  0
CLASS
  1
ACMDETAILSTANDARDISO
  2
AmdtDetailSymStdISO
  3
"Amdt_StdImp|Product Description: AutoCAD Mechanical 2004 DX|Company: Autodesk"
 90
        0
280
     0
281
     0
  0
CLASS
  1
ACMSECTIONSTANDARDISO
  2
AmdtSectionSymStdISO
  3
"Amdt_StdImp|Product Description: AutoCAD Mechanical 2004 DX|Company: Autodesk"
 90
        0
280
     0
281
     0
  0
CLASS
  1
ACMCENTERLINESTANDARDISO
  2
AmdtCenterLineStdISO
  3
"Amdt_StdImp|Product Description: AutoCAD Mechanical 2004 DX|Company: Autodesk"
 90
        0
280
     0
281
     0
  0
CLASS
  1
ACMNOTESTANDARDISO
  2
AmdtNoteStdISO
  3
"Amdt_StdImp|Product Description: AutoCAD Mechanical 2004 DX|Company: Autodesk"
 90
        0
280
     0
281
     0
  0
CLASS
  1
ACAMGLAYSTD
  2
AcAmgLayStd
  3
"AcAmgLayStd|Product Description: AutoCAD Mechanical 2000|Company: Autodesk"
 90
        0
280
     0
281
     0
  0
CLASS
  1
ACAMGDIMSTD
  2
AcAmgDimStd
  3
"AcAmgDimStd|Product Description: AutoCAD Mechanical 2000|Company: Autodesk"
 90
        0
280
     0
281
     0
  0
CLASS
  1
ACAMGHOLECHARTSTDISO
  2
AcAmgHoleChartStdISO
  3
ACMSYMBB_MODULE_NAME
 90
        0
280
     0
281
     0
  0
CLASS
  1
ACAMGTITLESTD
  2
AcAmgTitleStd
  3
"TITLEAPP"
 90
        0
280
     0
281
     0
  0
CLASS
  1
LONG_TRANSACTION
  2
AcDbLongTransaction
  3
ObjectDBX Classes
 90
    32768
280
     0
281
     0
  0
CLASS
  1
LWPOLYLINE
  2
AcDbPolyline
  3
ObjectDBX Classes
 90
        0
280
     0
281
     1
  0
CLASS
  1
HATCH
  2
AcDbHatch
  3
ObjectDBX Classes
 90
    32768
280
     0
281
     1
  0
CLASS
  1
XRECORD
  2
AcDbXrecord
  3
ObjectDBX Classes
 90
        0
280
     0
281
     0
  0
CLASS
  1
TABLESTYLE
  2
AcDbTableStyle
  3
ObjectDBX Classes
 90
     2047
280
     0
281
     0
  0
CLASS
  1
SORTENTSTABLE
  2
AcDbSortentsTable
  3
ObjectDBX Classes
 90
        0
280
     0
281
     0
  0
CLASS
  1
AMDTMAPISURFMOUDULE
  2
AmdtMApiSurfModule
  3
MApiSurfServices
 90
        0
280
     0
281
     0
  0
CLASS
  1
AMDTEDGESTANDARDISO13715
  2
AmdtEdgeStdISO13715
  3
"Amdt_StdImp|Product Description: AutoCAD Mechanical 2004 DX|Company: Autodesk"
 90
        0
280
     0
281
     0
  0
CLASS
  1
ACMTHREADLINESTANDARDISO
  2
AmdtThreadLineStdISO
  3
"Amdt_StdImp|Product Description: AutoCAD Mechanical 2004 DX|Company: Autodesk"
 90
        0
280
     0
281
     0
  0
CLASS
  1
AMDTNOTETEMPLATEDB
  2
AmdtNoteTemplateDB
  3
AMDT_STDIMP_MODULE_NAME
 90
        0
280
     0
281
     0
  0
ENDSEC
  0
SECTION
  2
TABLES
  0
TABLE
  2
VPORT
  5
1A
330
0
100
AcDbSymbolTable
 70
     4
  0
VPORT
  5
9A8
330
1A
100
AcDbSymbolTableRecord
100
AcDbViewportTableRecord
  2
*Active
 70
     0
 10
0.0
 20
0.0
 11
1.0
 21
1.0
 12
-42.03181863754884
 22
18.15844503438677
 13
0.0
 23
0.0
 14
0.5
 24
0.5
 15
0.5
 25
0.5
 16
0.0
 26
0.0
 36
1.0
 17
-16.08879585871997
 27
114.0303798724655
 37
0.0
 40
418.1628333457402
 41
1.576441102756892
 42
50.0
 43
0.0
 44
0.0
 50
0.0
 51
0.0
 71
     0
 72
   100
 73
     1
 74
     1
 75
     0
 76
     0
 77
     0
 78
     0
281
     0
 65
     0
110
0.0
120
0.0
130
0.0
111
1.0
121
0.0
131
0.0
112
0.0
122
1.0
132
0.0
 79
     0
146
0.0
  0
ENDTAB
  0
TABLE
  2
LTYPE
  5
15
330
0
100
AcDbSymbolTable
 70
    16
  0
LTYPE
  5
16
330
15
100
AcDbSymbolTableRecord
100
AcDbLinetypeTableRecord
  2
BYBLOCK
 70
     0
  3

 72
    65
 73
     0
 40
0.0
  0
LTYPE
  5
17
330
15
100
AcDbSymbolTableRecord
100
AcDbLinetypeTableRecord
  2
BYLAYER
 70
     0
  3

 72
    65
 73
     0
 40
0.0
  0
LTYPE
  5
9
330
15
100
AcDbSymbolTableRecord
100
AcDbLinetypeTableRecord
  2
CONTINUOUS
 70
     0
  3
Solid line
 72
    65
 73
     0
 40
0.0
  0
LTYPE
  5
31
330
15
100
AcDbSymbolTableRecord
100
AcDbLinetypeTableRecord
  2
HIDDEN
 70
     0
  3
__ __ __ __ __ __ __ __ __ __ __ __ __ __ __ __
 72
    65
 73
     2
 40
0.375
 49
0.25
 74
     0
 49
-0.125
 74
     0
  0
LTYPE
  5
2A
330
15
100
AcDbSymbolTableRecord
100
AcDbLinetypeTableRecord
  2
CENTER
 70
     0
  3
____ _ ____ _ ____ _ ____ _ ____ _ ____ _ ____ 
 72
    65
 73
     4
 40
2.0
 49
1.25
 74
     0
 49
-0.25
 74
     0
 49
0.25
 74
     0
 49
-0.25
 74
     0
  0
LTYPE
  5
456
330
15
100
AcDbSymbolTableRecord
100
AcDbLinetypeTableRecord
  2
AM_ISO08W050x2
 70
     0
  3
__ . __ . __ . __ . __ . __
 72
    65
 73
     4
 40
9.0
 49
6.0
 74
     0
 49
-0.75
 74
     0
 49
1.5
 74
     0
 49
-0.75
 74
     0
  0
LTYPE
  5
8D2
330
15
100
AcDbSymbolTableRecord
100
AcDbLinetypeTableRecord
  2
PHANTOM2
 70
     0
  3
Phantom (.5x) ___ _ _ ___ _ _ ___ _ _ ___ _ _
 72
    65
 73
     6
 40
31.75
 49
15.875
 74
     0
 49
-3.174999999999999
 74
     0
 49
3.174999999999999
 74
     0
 49
-3.174999999999999
 74
     0
 49
3.174999999999999
 74
     0
 49
-3.174999999999999
 74
     0
  0
LTYPE
  5
91E
330
15
100
AcDbSymbolTableRecord
100
AcDbLinetypeTableRecord
  2
ASULTYPE
 70
     0
  3
實線
 72
    65
 73
     2
 40
3.0
 49
2.5
 74
     0
 49
0.5
 74
     0
  0
LTYPE
  5
91F
330
15
100
AcDbSymbolTableRecord
100
AcDbLinetypeTableRecord
  2
ASVLTYPE
 70
     0
  3
__ __ __ __ __ __ __ __ __ __ __ __ __ __ __ __ __ __ __ __ __
 72
    65
 73
     2
 40
0.75
 49
0.5
 74
     0
 49
-0.25
 74
     0
  0
LTYPE
  5
964
330
15
100
AcDbSymbolTableRecord
100
AcDbLinetypeTableRecord
  2
AM_ISO02W050
 70
     0
  3
__ __ __ __ __ __ __ __ __ __ __ __ __ __ __
 72
    65
 73
     2
 40
7.5
 49
6.0
 74
     0
 49
-1.5
 74
     0
  0
LTYPE
  5
965
330
15
100
AcDbSymbolTableRecord
100
AcDbLinetypeTableRecord
  2
AM_ISO08W050
 70
     0
  3
____ . ____ . ____ . ____ . ____ . ____ . ____
 72
    65
 73
     4
 40
18.0
 49
12.0
 74
     0
 49
-1.5
 74
     0
 49
3.0
 74
     0
 49
-1.5
 74
     0
  0
LTYPE
  5
966
330
15
100
AcDbSymbolTableRecord
100
AcDbLinetypeTableRecord
  2
AM_ISO09W050
 70
     0
  3
_____ . . _____ . . _____ . . ____ .. ____
 72
    65
 73
     6
 40
22.5
 49
12.0
 74
     0
 49
-1.5
 74
     0
 49
3.0
 74
     0
 49
-1.5
 74
     0
 49
3.0
 74
     0
 49
-1.5
 74
     0
  0
LTYPE
  5
967
330
15
100
AcDbSymbolTableRecord
100
AcDbLinetypeTableRecord
  2
Amconstr
 70
     0
  3
_______________________
 72
    65
 73
     2
 40
9999.0
 49
9999.0
 74
     0
 49
0.0
 74
     0
  0
LTYPE
  5
968
330
15
100
AcDbSymbolTableRecord
100
AcDbLinetypeTableRecord
  2
AM_ISO02W050x2
 70
     0
  3
 _ _ _ _ _ _ _ _ _ _ _ _
 72
    65
 73
     2
 40
3.75
 49
3.0
 74
     0
 49
-0.75
 74
     0
  0
LTYPE
  5
96B
330
15
100
AcDbSymbolTableRecord
100
AcDbLinetypeTableRecord
  2
Amzigzag
 70
     0
  3
/\/-/\/-/\/-/\/-/\/-/\/
 72
    65
 73
     2
 40
11.0001
 49
0.0001
 74
     4
 75
   135
340
96A
 46
0.04
 50
0.0
 44
0.0
 45
0.0
 49
-11.0
 74
     0
  0
LTYPE
  5
97A
330
15
100
AcDbSymbolTableRecord
100
AcDbLinetypeTableRecord
  2
ACISOWELD
 70
     0
  3
_ _ _ _ _
 72
    65
 73
     2
 40
2.0
 49
2.0
 74
     0
 49
-1.0
 74
     0
  0
LTYPE
  5
97B
330
15
100
AcDbSymbolTableRecord
100
AcDbLinetypeTableRecord
  2
ACISOTGB
 70
     0
  3
__ . . __ . .
 72
    65
 73
     6
 40
9.0
 49
4.0
 74
     0
 49
-1.0
 74
     0
 49
1.0
 74
     0
 49
-1.0
 74
     0
 49
1.0
 74
     0
 49
-1.0
 74
     0
  0
LTYPE
  5
97C
330
15
100
AcDbSymbolTableRecord
100
AcDbLinetypeTableRecord
  2
ACISOTGL
 70
     0
  3
_ _ _ _ _
 72
    65
 73
     2
 40
3.0
 49
2.0
 74
     0
 49
-1.0
 74
     0
  0
ENDTAB
  0
TABLE
  2
LAYER
  5
11
102
{ACAD_XDICTIONARY
360
4EB
102
}
330
0
100
AcDbSymbolTable
 70
     6
  0
LAYER
  5
5
330
11
100
AcDbSymbolTableRecord
100
AcDbLayerTableRecord
  2
0
 70
     0
 62
     7
  6
CONTINUOUS
370
    -3
390
6
  0
LAYER
  5
47
330
11
100
AcDbSymbolTableRecord
100
AcDbLayerTableRecord
  2
Defpoints
 70
     0
 62
     7
  6
CONTINUOUS
290
     0
370
    -3
390
6
  0
LAYER
  5
29
330
11
100
AcDbSymbolTableRecord
100
AcDbLayerTableRecord
  2
CENTER
 70
     0
 62
     1
  6
CENTER
370
    15
390
6
  0
LAYER
  5
30
330
11
100
AcDbSymbolTableRecord
100
AcDbLayerTableRecord
  2
HIDDEN
 70
     0
 62
     6
  6
HIDDEN
370
    30
390
6
  0
LAYER
  5
3E
330
11
100
AcDbSymbolTableRecord
100
AcDbLayerTableRecord
  2
DIM
 70
     0
 62
     5
  6
CONTINUOUS
370
    30
390
6
  0
LAYER
  5
34D
330
11
100
AcDbSymbolTableRecord
100
AcDbLayerTableRecord
  2
LOGO
 70
     0
 62
     7
  6
CONTINUOUS
370
    -3
390
6
  0
ENDTAB
  0
TABLE
  2
STYLE
  5
12
330
0
100
AcDbSymbolTable
 70
     6
  0
STYLE
  5
13
330
12
100
AcDbSymbolTableRecord
100
AcDbTextStyleTableRecord
  2
STANDARD
 70
     0
 40
0.0
 41
1.0
 50
0.0
 71
     0
 42
0.2
  3
txt
  4

  0
STYLE
  5
20
330
12
100
AcDbSymbolTableRecord
100
AcDbTextStyleTableRecord
  2
DAYUS
 70
     0
 40
0.0
 41
1.0
 50
0.0
 71
     0
 42
3.0
  3
simplex.shx
  4
dayus.shx
  0
STYLE
  5
34E
330
12
100
AcDbSymbolTableRecord
100
AcDbTextStyleTableRecord
  2
CHINESET
 70
     0
 40
0.0
 41
1.0
 50
0.0
 71
     0
 42
4.0
  3
C:\r13\com\fonts\simplex.shx
  4
C:\r13\com\fonts\chineset.shx
  0
STYLE
  5
96A
330
12
100
AcDbSymbolTableRecord
100
AcDbTextStyleTableRecord
  2

 70
     1
 40
0.0
 41
1.0
 50
0.0
 71
     0
 42
3.0
  3
ltypeshp.shx
  4

  0
STYLE
  5
96C
330
12
100
AcDbSymbolTableRecord
100
AcDbTextStyleTableRecord
  2
ACISOTS
 70
     0
 40
1.0
 41
1.0
 50
0.0
 71
     0
 42
3.0
  3
isocp.shx
  4
chineset.shx
  0
STYLE
  5
979
330
12
100
AcDbSymbolTableRecord
100
AcDbTextStyleTableRecord
  2
ACISOGDT
 70
     0
 40
0.0
 41
1.0
 50
0.0
 71
     0
 42
3.0
  3
amgdt.shx
  4

  0
ENDTAB
  0
TABLE
  2
VIEW
  5
18
330
0
100
AcDbSymbolTable
 70
     0
  0
ENDTAB
  0
TABLE
  2
UCS
  5
19
330
0
100
AcDbSymbolTable
 70
     0
  0
ENDTAB
  0
TABLE
  2
APPID
  5
1C
330
0
100
AcDbSymbolTable
 70
    20
  0
APPID
  5
1D
330
1C
100
AcDbSymbolTableRecord
100
AcDbRegAppTableRecord
  2
ACAD
 70
     0
  0
APPID
  5
4C
330
1C
100
AcDbSymbolTableRecord
100
AcDbRegAppTableRecord
  2
GENIUS_GENDTOL_13
 70
     0
  0
APPID
  5
434
330
1C
100
AcDbSymbolTableRecord
100
AcDbRegAppTableRecord
  2
MCAD_NO_VIS
 70
     0
  0
APPID
  5
435
330
1C
100
AcDbSymbolTableRecord
100
AcDbRegAppTableRecord
  2
ACAD_TEMP_GRAPHIC
 70
     0
  0
APPID
  5
446
330
1C
100
AcDbSymbolTableRecord
100
AcDbRegAppTableRecord
  2
ACATTRIBSERVICES
 70
     0
  0
APPID
  5
4F4
330
1C
100
AcDbSymbolTableRecord
100
AcDbRegAppTableRecord
  2
GENIUS_GENODEF_13
 70
     0
  0
APPID
  5
4F5
330
1C
100
AcDbSymbolTableRecord
100
AcDbRegAppTableRecord
  2
GENIUS_GENREC_14
 70
     0
  0
APPID
  5
4F6
330
1C
100
AcDbSymbolTableRecord
100
AcDbRegAppTableRecord
  2
GENIUS_GENOBJ-N-REC_13
 70
     0
  0
APPID
  5
4F7
330
1C
100
AcDbSymbolTableRecord
100
AcDbRegAppTableRecord
  2
GENIUS_GENOREF_13
 70
     0
  0
APPID
  5
6C6
330
1C
100
AcDbSymbolTableRecord
100
AcDbRegAppTableRecord
  2
ACAD_PSEXT
 70
     0
  0
APPID
  5
8A2
330
1C
100
AcDbSymbolTableRecord
100
AcDbRegAppTableRecord
  2
GENIUS_GENDIM_13
 70
     0
  0
APPID
  5
8A3
330
1C
100
AcDbSymbolTableRecord
100
AcDbRegAppTableRecord
  2
GENIUS_GE3DTOL_13
 70
     0
  0
APPID
  5
8D4
330
1C
100
AcDbSymbolTableRecord
100
AcDbRegAppTableRecord
  2
AD_DRAW
 70
     0
  0
APPID
  5
920
330
1C
100
AcDbSymbolTableRecord
100
AcDbRegAppTableRecord
  2
ASURF_PCURVE_APPNAME
 70
     0
  0
APPID
  5
925
330
1C
100
AcDbSymbolTableRecord
100
AcDbRegAppTableRecord
  2
AMG_3D2D_5.0
 70
     0
  0
APPID
  5
954
330
1C
100
AcDbSymbolTableRecord
100
AcDbRegAppTableRecord
  2
DESIGNERASSEMBLIES
 70
     0
  0
APPID
  5
95A
330
1C
100
AcDbSymbolTableRecord
100
AcDbRegAppTableRecord
  2
ACADM_DIM_EDIT
 70
     0
  0
APPID
  5
95B
330
1C
100
AcDbSymbolTableRecord
100
AcDbRegAppTableRecord
  2
AMDT_DM_ADJ
 70
     0
  0
APPID
  5
994
330
1C
100
AcDbSymbolTableRecord
100
AcDbRegAppTableRecord
  2
GENIUS_GENSCREG_15
 70
     0
  0
APPID
  5
995
330
1C
100
AcDbSymbolTableRecord
100
AcDbRegAppTableRecord
  2
GENIUS_GENOBJ-N-SDF_13
 70
     0
  0
ENDTAB
  0
TABLE
  2
DIMSTYLE
  5
1E
330
0
100
AcDbSymbolTable
 70
     8
100
AcDbDimStyleTable
 71
     1
340
1F
  0
DIMSTYLE
105
1F
102
{ACAD_REACTORS
330
3D
330
5C
330
D1
330
DE
330
EB
330
F8
330
105
330
112
330
11F
330
12C
330
139
330
148
330
7E5
330
7F4
102
}
330
1E
100
AcDbSymbolTableRecord
100
AcDbDimStyleTableRecord
  2
STANDARD
 70
     0
 41
3.0
 42
1.5
 43
8.0
 44
1.5
 47
0.01
 48
0.01
 73
     0
 74
     0
 77
     3
 78
     8
 79
     2
140
3.0
141
3.0
146
0.6
147
0.8
172
     1
176
   256
177
   256
178
   256
271
     2
272
     2
284
     8
340
20
371
    -1
372
    -1
  0
DIMSTYLE
105
987
330
1E
100
AcDbSymbolTableRecord
100
AcDbDimStyleTableRecord
  2
AM_ISO
 70
     0
  4
"
 41
2.5
 42
1.0
 43
10.0
 44
1.0
 47
0.1
 48
0.1
 73
     0
 74
     0
 77
     1
 78
     8
 79
     2
140
3.5
141
0.0
143
0.0393701
146
0.71
147
1.5
172
     1
176
   256
177
   256
178
     2
271
     2
272
     3
274
     4
283
     0
284
     8
340
13
371
    -1
372
    -1
  0
DIMSTYLE
105
988
330
1E
100
AcDbSymbolTableRecord
100
AcDbDimStyleTableRecord
  2
AM_ISO$3
 70
     0
  4
"
 41
2.5
 42
1.0
 43
10.0
 44
1.0
 47
0.1
 48
0.1
 73
     0
 77
     1
 78
     8
 79
     2
140
3.5
141
0.0
143
0.0393701
146
0.71
147
1.5
176
   256
177
   256
178
     2
271
     2
272
     3
274
     4
283
     0
284
     8
288
     1
289
     0
340
13
371
    -1
372
    -1
  0
DIMSTYLE
105
989
330
1E
100
AcDbSymbolTableRecord
100
AcDbDimStyleTableRecord
  2
AM_ISO$4
 70
     0
  4
"
 41
2.5
 42
1.0
 43
10.0
 44
1.0
 47
0.1
 48
0.1
 73
     0
 77
     1
 78
     8
 79
     2
140
3.5
141
0.0
143
0.0393701
146
0.71
147
1.5
176
   256
177
   256
178
     2
271
     2
272
     3
274
     4
283
     0
284
     8
288
     1
289
     0
340
13
371
    -1
372
    -1
  0
DIMSTYLE
105
98A
330
1E
100
AcDbSymbolTableRecord
100
AcDbDimStyleTableRecord
  2
AM_ISO$6
 70
     0
  4
"
 41
2.5
 42
1.0
 43
10.0
 44
1.0
 47
0.1
 48
0.1
 73
     0
 74
     0
 78
     8
 79
     2
140
3.5
141
0.0
143
0.0393701
146
0.71
147
1.5
172
     1
176
   256
177
   256
178
     2
271
     2
272
     3
274
     4
283
     0
284
     8
340
13
371
    -1
372
    -1
  0
DIMSTYLE
105
98B
330
1E
100
AcDbSymbolTableRecord
100
AcDbDimStyleTableRecord
  2
AM_ISO$7
 70
     0
  4
"
 41
2.5
 42
1.0
 43
10.0
 44
1.0
 47
0.1
 48
0.1
 73
     0
 74
     0
 77
     1
 78
     8
 79
     2
140
5.0
141
0.0
143
0.0393701
146
0.71
147
1.5
172
     1
176
   256
177
   256
178
     2
271
     2
272
     3
274
     4
283
     0
284
     8
340
13
371
    -1
372
    -1
  0
DIMSTYLE
105
98C
330
1E
100
AcDbSymbolTableRecord
100
AcDbDimStyleTableRecord
  2
AM_ISO$SF
 70
     0
  4
"
 41
2.5
 42
1.0
 43
10.0
 44
1.0
 47
0.1
 48
0.1
 73
     0
 74
     0
 75
     1
 76
     1
 77
     1
 78
     8
 79
     2
140
3.5
141
0.0
143
0.0393701
146
0.71
147
1.5
172
     1
176
   256
177
   256
178
     2
271
     2
272
     3
274
     4
283
     0
284
     8
340
13
371
    -1
372
    -1
  0
DIMSTYLE
105
991
330
1E
100
AcDbSymbolTableRecord
100
AcDbDimStyleTableRecord
  2
AM_ISO$SH
 70
     0
  4
"
 41
2.5
 42
1.0
 43
10.0
 44
1.0
 47
0.1
 48
0.1
 73
     0
 74
     0
 75
     1
 76
     1
 77
     1
 78
     8
 79
     2
140
3.5
141
0.0
143
0.0393701
144
2.0
146
0.71
147
1.5
172
     1
173
     1
176
   256
177
   256
178
     2
271
     2
272
     3
274
     4
283
     0
284
     8
340
13
343
98D
371
    -1
372
    -1
  0
ENDTAB
  0
TABLE
  2
BLOCK_RECORD
  5
1
330
0
100
AcDbSymbolTable
 70
    16
  0
BLOCK_RECORD
  5
2
102
{ACAD_XDICTIONARY
360
3
102
}
330
1
100
AcDbSymbolTableRecord
100
AcDbBlockTableRecord
  2
*MODEL_SPACE
340
B
  0
BLOCK_RECORD
  5
D
102
{ACAD_XDICTIONARY
360
403
102
}
330
1
100
AcDbSymbolTableRecord
100
AcDbBlockTableRecord
  2
*PAPER_SPACE
340
10
  0
BLOCK_RECORD
  5
272
330
1
100
AcDbSymbolTableRecord
100
AcDbBlockTableRecord
  2
*D0
340
0
  0
BLOCK_RECORD
  5
28A
330
1
100
AcDbSymbolTableRecord
100
AcDbBlockTableRecord
  2
*D1
340
0
  0
BLOCK_RECORD
  5
296
330
1
100
AcDbSymbolTableRecord
100
AcDbBlockTableRecord
  2
*D2
340
0
  0
BLOCK_RECORD
  5
2A2
330
1
100
AcDbSymbolTableRecord
100
AcDbBlockTableRecord
  2
*D3
340
0
  0
BLOCK_RECORD
  5
2AE
330
1
100
AcDbSymbolTableRecord
100
AcDbBlockTableRecord
  2
*D4
340
0
  0
BLOCK_RECORD
  5
2BA
330
1
100
AcDbSymbolTableRecord
100
AcDbBlockTableRecord
  2
*D5
340
0
  0
BLOCK_RECORD
  5
2C6
330
1
100
AcDbSymbolTableRecord
100
AcDbBlockTableRecord
  2
*D6
340
0
  0
BLOCK_RECORD
  5
2D2
330
1
100
AcDbSymbolTableRecord
100
AcDbBlockTableRecord
  2
*D7
340
0
  0
BLOCK_RECORD
  5
2DE
330
1
100
AcDbSymbolTableRecord
100
AcDbBlockTableRecord
  2
*D8
340
0
  0
BLOCK_RECORD
  5
2EA
330
1
100
AcDbSymbolTableRecord
100
AcDbBlockTableRecord
  2
*D9
340
0
  0
BLOCK_RECORD
  5
2F6
330
1
100
AcDbSymbolTableRecord
100
AcDbBlockTableRecord
  2
*D10
340
0
  0
BLOCK_RECORD
  5
304
330
1
100
AcDbSymbolTableRecord
100
AcDbBlockTableRecord
  2
*D11
340
0
  0
BLOCK_RECORD
  5
7E6
330
1
100
AcDbSymbolTableRecord
100
AcDbBlockTableRecord
  2
*D12
340
0
  0
BLOCK_RECORD
  5
7F5
330
1
100
AcDbSymbolTableRecord
100
AcDbBlockTableRecord
  2
*D13
340
0
  0
BLOCK_RECORD
  5
98D
330
1
100
AcDbSymbolTableRecord
100
AcDbBlockTableRecord
  2
GENAXEH
340
0
  0
ENDTAB
  0
ENDSEC
  0
SECTION
  2
BLOCKS
  0
BLOCK
  5
4
330
2
100
AcDbEntity
  8
0
100
AcDbBlockBegin
  2
*MODEL_SPACE
 70
     0
 10
0.0
 20
0.0
 30
0.0
  3
*MODEL_SPACE
  1

  0
ENDBLK
  5
A
330
2
100
AcDbEntity
  8
0
100
AcDbBlockEnd
  0
BLOCK
  5
E
330
D
100
AcDbEntity
 67
     1
  8
0
100
AcDbBlockBegin
  2
*PAPER_SPACE
 70
     0
 10
0.0
 20
0.0
 30
0.0
  3
*PAPER_SPACE
  1

  0
ENDBLK
  5
F
330
D
100
AcDbEntity
 67
     1
  8
0
100
AcDbBlockEnd
  0
BLOCK
  5
27C
330
272
100
AcDbEntity
  8
0
100
AcDbBlockBegin
  2
*D0
 70
     1
 10
0.0
 20
0.0
 30
0.0
  3
*D0
  1

  0
LINE
  5
707
330
272
100
AcDbEntity
  8
DIM
100
AcDbLine
 10
36.93789895990949
 20
126.7491081093684
 30
0.0
 11
36.93789895990949
 21
107.6457282091448
 31
0.0
  0
LINE
  5
708
330
272
100
AcDbEntity
  8
DIM
100
AcDbLine
 10
52.93789895990949
 20
126.7491081093684
 30
0.0
 11
52.93789895990949
 21
107.6457282091448
 31
0.0
  0
LINE
  5
709
330
272
100
AcDbEntity
  8
DIM
100
AcDbLine
 10
39.93789895990949
 20
109.1457282091448
 30
0.0
 11
49.93789895990949
 21
109.1457282091448
 31
0.0
  0
SOLID
  5
70A
330
272
100
AcDbEntity
  8
DIM
100
AcDbTrace
 10
39.93789895990949
 20
109.6457282091448
 30
0.0
 11
39.93789895990949
 21
108.6457282091448
 31
0.0
 12
36.93789895990949
 22
109.1457282091448
 32
0.0
 13
36.93789895990949
 23
109.1457282091448
 33
0.0
  0
SOLID
  5
70B
330
272
100
AcDbEntity
  8
DIM
100
AcDbTrace
 10
49.93789895990949
 20
109.6457282091448
 30
0.0
 11
49.93789895990949
 21
108.6457282091448
 31
0.0
 12
52.93789895990949
 22
109.1457282091448
 32
0.0
 13
52.93789895990949
 23
109.1457282091448
 33
0.0
  0
MTEXT
  5
70C
330
272
100
AcDbEntity
  8
DIM
100
AcDbMText
 10
44.93789895990949
 20
111.4457282091448
 30
0.0
 40
3.0
 41
0.0
 71
     5
 72
     1
  1
\A1;16
  7
DAYUS
 73
     1
 44
1.0
1001
ACAD
1000
MTEXTBEGIN
1070
    73
1070
     1
1070
    44
1040
1.0
1070
    74
1070
     0
1000
MTEXTEND
  0
POINT
  5
70D
330
272
100
AcDbEntity
  8
Defpoints
 62
     0
100
AcDbPoint
 10
36.93789895990949
 20
128.2491081093684
 30
0.0
  0
POINT
  5
70E
330
272
100
AcDbEntity
  8
Defpoints
 62
     0
100
AcDbPoint
 10
52.93789895990949
 20
128.2491081093684
 30
0.0
  0
POINT
  5
70F
330
272
100
AcDbEntity
  8
Defpoints
 62
     0
100
AcDbPoint
 10
52.93789895990949
 20
109.1457282091448
 30
0.0
  0
ENDBLK
  5
27D
330
272
100
AcDbEntity
  8
0
100
AcDbBlockEnd
  0
BLOCK
  5
294
330
28A
100
AcDbEntity
  8
0
100
AcDbBlockBegin
  2
*D1
 70
     1
 10
0.0
 20
0.0
 30
0.0
  3
*D1
  1

  0
LINE
  5
719
330
28A
100
AcDbEntity
  8
DIM
100
AcDbLine
 10
-14.24551503588989
 20
80.04875933294071
 30
0.0
 11
-14.24551503588989
 21
68.04875933294065
 31
0.0
  0
LINE
  5
71A
330
28A
100
AcDbEntity
  8
DIM
100
AcDbLine
 10
-53.24551503588989
 20
80.04875933294071
 30
0.0
 11
-53.24551503588989
 21
68.04875933294065
 31
0.0
  0
LINE
  5
71B
330
28A
100
AcDbEntity
  8
DIM
100
AcDbLine
 10
-17.24551503588989
 20
69.54875933294065
 30
0.0
 11
-50.24551503588989
 21
69.54875933294065
 31
0.0
  0
SOLID
  5
71C
330
28A
100
AcDbEntity
  8
DIM
100
AcDbTrace
 10
-17.24551503588989
 20
70.04875933294065
 30
0.0
 11
-17.24551503588989
 21
69.04875933294064
 31
0.0
 12
-14.24551503588989
 22
69.54875933294065
 32
0.0
 13
-14.24551503588989
 23
69.54875933294065
 33
0.0
  0
SOLID
  5
71D
330
28A
100
AcDbEntity
  8
DIM
100
AcDbTrace
 10
-50.24551503588989
 20
70.04875933294065
 30
0.0
 11
-50.24551503588989
 21
69.04875933294064
 31
0.0
 12
-53.24551503588989
 22
69.54875933294065
 32
0.0
 13
-53.24551503588989
 23
69.54875933294065
 33
0.0
  0
MTEXT
  5
71E
330
28A
100
AcDbEntity
  8
DIM
100
AcDbMText
 10
-33.74551503588989
 20
71.84875933294065
 30
0.0
 40
3.0
 41
0.0
 71
     5
 72
     1
  1
\A1;39
  7
DAYUS
 73
     1
 44
1.0
1001
ACAD
1000
MTEXTBEGIN
1070
    73
1070
     1
1070
    44
1040
1.0
1070
    74
1070
     0
1000
MTEXTEND
  0
POINT
  5
71F
330
28A
100
AcDbEntity
  8
Defpoints
 62
     0
100
AcDbPoint
 10
-14.24551503588989
 20
81.5487593329407
 30
0.0
  0
POINT
  5
720
330
28A
100
AcDbEntity
  8
Defpoints
 62
     0
100
AcDbPoint
 10
-53.24551503588989
 20
81.5487593329407
 30
0.0
  0
POINT
  5
721
330
28A
100
AcDbEntity
  8
Defpoints
 62
     0
100
AcDbPoint
 10
-53.24551503588989
 20
69.54875933294065
 30
0.0
  0
ENDBLK
  5
295
330
28A
100
AcDbEntity
  8
0
100
AcDbBlockEnd
  0
BLOCK
  5
2A0
330
296
100
AcDbEntity
  8
0
100
AcDbBlockBegin
  2
*D2
 70
     1
 10
0.0
 20
0.0
 30
0.0
  3
*D2
  1

  0
LINE
  5
722
330
296
100
AcDbEntity
  8
DIM
100
AcDbLine
 10
-29.99551503588989
 20
45.5041641635286
 30
0.0
 11
-3.987366243364128
 21
45.50416416352859
 31
0.0
  0
LINE
  5
723
330
296
100
AcDbEntity
  8
DIM
100
AcDbLine
 10
-29.99551503588989
 20
25.50416416352861
 30
0.0
 11
-3.987366243364137
 21
25.5041641635286
 31
0.0
  0
LINE
  5
724
330
296
100
AcDbEntity
  8
DIM
100
AcDbLine
 10
-5.487366243364131
 20
42.5041641635286
 30
0.0
 11
-5.487366243364134
 21
28.5041641635286
 31
0.0
  0
SOLID
  5
725
330
296
100
AcDbEntity
  8
DIM
100
AcDbTrace
 10
-5.987366243364131
 20
42.5041641635286
 30
0.0
 11
-4.987366243364131
 21
42.5041641635286
 31
0.0
 12
-5.487366243364131
 22
45.50416416352859
 32
0.0
 13
-5.487366243364131
 23
45.50416416352859
 33
0.0
  0
SOLID
  5
726
330
296
100
AcDbEntity
  8
DIM
100
AcDbTrace
 10
-5.987366243364134
 20
28.5041641635286
 30
0.0
 11
-4.987366243364134
 21
28.5041641635286
 31
0.0
 12
-5.487366243364135
 22
25.5041641635286
 32
0.0
 13
-5.487366243364135
 23
25.5041641635286
 33
0.0
  0
MTEXT
  5
727
330
296
100
AcDbEntity
  8
DIM
100
AcDbMText
 10
-7.787366243364139
 20
35.5041641635286
 30
0.0
 40
3.0
 41
0.0
 71
     5
 72
     1
  1
\A1;20
  7
DAYUS
 11
0.0000000000000001
 21
1.0
 31
0.0
 73
     1
 44
1.0
1001
ACAD
1000
MTEXTBEGIN
1070
    73
1070
     1
1070
    44
1040
1.0
1070
    74
1070
     0
1000
MTEXTEND
  0
POINT
  5
728
330
296
100
AcDbEntity
  8
Defpoints
 62
     0
100
AcDbPoint
 10
-31.4955150358899
 20
45.5041641635286
 30
0.0
  0
POINT
  5
729
330
296
100
AcDbEntity
  8
Defpoints
 62
     0
100
AcDbPoint
 10
-31.4955150358899
 20
25.50416416352861
 30
0.0
  0
POINT
  5
72A
330
296
100
AcDbEntity
  8
Defpoints
 62
     0
100
AcDbPoint
 10
-5.487366243364135
 20
25.5041641635286
 30
0.0
  0
ENDBLK
  5
2A1
330
296
100
AcDbEntity
  8
0
100
AcDbBlockEnd
  0
BLOCK
  5
2AC
330
2A2
100
AcDbEntity
  8
0
100
AcDbBlockBegin
  2
*D3
 70
     1
 10
0.0
 20
0.0
 30
0.0
  3
*D3
  1

  0
LINE
  5
72B
330
2A2
100
AcDbEntity
  8
DIM
100
AcDbLine
 10
-14.24551503588989
 20
51.00416416352859
 30
0.0
 11
-14.24551503588989
 21
57.50739192546128
 31
0.0
  0
LINE
  5
72C
330
2A2
100
AcDbEntity
  8
DIM
100
AcDbLine
 10
-34.2455150358899
 20
49.7541641635286
 30
0.0
 11
-34.2455150358899
 21
57.50739192546128
 31
0.0
  0
LINE
  5
72D
330
2A2
100
AcDbEntity
  8
DIM
100
AcDbLine
 10
-17.24551503588989
 20
56.00739192546129
 30
0.0
 11
-31.24551503588989
 21
56.00739192546129
 31
0.0
  0
SOLID
  5
72E
330
2A2
100
AcDbEntity
  8
DIM
100
AcDbTrace
 10
-17.24551503588989
 20
56.50739192546128
 30
0.0
 11
-17.24551503588989
 21
55.50739192546128
 31
0.0
 12
-14.24551503588989
 22
56.00739192546129
 32
0.0
 13
-14.24551503588989
 23
56.00739192546129
 33
0.0
  0
SOLID
  5
72F
330
2A2
100
AcDbEntity
  8
DIM
100
AcDbTrace
 10
-31.24551503588989
 20
56.50739192546128
 30
0.0
 11
-31.24551503588989
 21
55.50739192546128
 31
0.0
 12
-34.2455150358899
 22
56.00739192546129
 32
0.0
 13
-34.2455150358899
 23
56.00739192546129
 33
0.0
  0
MTEXT
  5
730
330
2A2
100
AcDbEntity
  8
DIM
100
AcDbMText
 10
-24.2455150358899
 20
58.30739192546128
 30
0.0
 40
3.0
 41
0.0
 71
     5
 72
     1
  1
\A1;20
  7
DAYUS
 73
     1
 44
1.0
1001
ACAD
1000
MTEXTBEGIN
1070
    73
1070
     1
1070
    44
1040
1.0
1070
    74
1070
     0
1000
MTEXTEND
  0
POINT
  5
731
330
2A2
100
AcDbEntity
  8
Defpoints
 62
     0
100
AcDbPoint
 10
-14.24551503588989
 20
49.50416416352859
 30
0.0
  0
POINT
  5
732
330
2A2
100
AcDbEntity
  8
Defpoints
 62
     0
100
AcDbPoint
 10
-34.2455150358899
 20
48.25416416352861
 30
0.0
  0
POINT
  5
733
330
2A2
100
AcDbEntity
  8
Defpoints
 62
     0
100
AcDbPoint
 10
-34.2455150358899
 20
56.00739192546129
 30
0.0
  0
ENDBLK
  5
2AD
330
2A2
100
AcDbEntity
  8
0
100
AcDbBlockEnd
  0
BLOCK
  5
2B8
330
2AE
100
AcDbEntity
  8
0
100
AcDbBlockBegin
  2
*D4
 70
     1
 10
0.0
 20
0.0
 30
0.0
  3
*D4
  1

  0
LINE
  5
734
330
2AE
100
AcDbEntity
  8
DIM
100
AcDbLine
 10
-14.24551503588989
 20
80.04875933294071
 30
0.0
 11
-14.24551503588989
 21
74.95431221335272
 31
0.0
  0
LINE
  5
735
330
2AE
100
AcDbEntity
  8
DIM
100
AcDbLine
 10
-30.2455150358899
 20
80.19875933294072
 30
0.0
 11
-30.2455150358899
 21
74.95431221335272
 31
0.0
  0
LINE
  5
736
330
2AE
100
AcDbEntity
  8
DIM
100
AcDbLine
 10
-17.24551503588989
 20
76.45431221335272
 30
0.0
 11
-27.2455150358899
 21
76.45431221335272
 31
0.0
  0
SOLID
  5
737
330
2AE
100
AcDbEntity
  8
DIM
100
AcDbTrace
 10
-17.24551503588989
 20
76.95431221335272
 30
0.0
 11
-17.24551503588989
 21
75.95431221335272
 31
0.0
 12
-14.24551503588989
 22
76.45431221335272
 32
0.0
 13
-14.24551503588989
 23
76.45431221335272
 33
0.0
  0
SOLID
  5
738
330
2AE
100
AcDbEntity
  8
DIM
100
AcDbTrace
 10
-27.2455150358899
 20
76.95431221335272
 30
0.0
 11
-27.2455150358899
 21
75.95431221335272
 31
0.0
 12
-30.2455150358899
 22
76.45431221335272
 32
0.0
 13
-30.2455150358899
 23
76.45431221335272
 33
0.0
  0
MTEXT
  5
739
330
2AE
100
AcDbEntity
  8
DIM
100
AcDbMText
 10
-22.2455150358899
 20
78.75431221335272
 30
0.0
 40
3.0
 41
0.0
 71
     5
 72
     1
  1
\A1;16
  7
DAYUS
 73
     1
 44
1.0
1001
ACAD
1000
MTEXTBEGIN
1070
    73
1070
     1
1070
    44
1040
1.0
1070
    74
1070
     0
1000
MTEXTEND
  0
POINT
  5
73A
330
2AE
100
AcDbEntity
  8
Defpoints
 62
     0
100
AcDbPoint
 10
-14.24551503588989
 20
81.5487593329407
 30
0.0
  0
POINT
  5
73B
330
2AE
100
AcDbEntity
  8
Defpoints
 62
     0
100
AcDbPoint
 10
-30.2455150358899
 20
81.6987593329407
 30
0.0
  0
POINT
  5
73C
330
2AE
100
AcDbEntity
  8
Defpoints
 62
     0
100
AcDbPoint
 10
-30.2455150358899
 20
76.45431221335272
 30
0.0
  0
ENDBLK
  5
2B9
330
2AE
100
AcDbEntity
  8
0
100
AcDbBlockEnd
  0
BLOCK
  5
2C4
330
2BA
100
AcDbEntity
  8
0
100
AcDbBlockBegin
  2
*D5
 70
     1
 10
0.0
 20
0.0
 30
0.0
  3
*D5
  1

  0
LINE
  5
73D
330
2BA
100
AcDbEntity
  8
DIM
100
AcDbLine
 10
-25.9955150358899
 20
94.6487593329407
 30
0.0
 11
-2.199886905275544
 21
94.6487593329407
 31
0.0
  0
LINE
  5
73E
330
2BA
100
AcDbEntity
  8
DIM
100
AcDbLine
 10
-25.9955150358899
 20
84.44875933294071
 30
0.0
 11
-2.199886905275547
 21
84.44875933294071
 31
0.0
  0
LINE
  5
73F
330
2BA
100
AcDbEntity
  8
DIM
100
AcDbLine
 10
-3.699886905275546
 20
91.64875933294069
 30
0.0
 11
-3.699886905275547
 21
87.44875933294071
 31
0.0
  0
SOLID
  5
740
330
2BA
100
AcDbEntity
  8
DIM
100
AcDbTrace
 10
-4.199886905275546
 20
91.64875933294069
 30
0.0
 11
-3.199886905275546
 21
91.64875933294069
 31
0.0
 12
-3.699886905275545
 22
94.6487593329407
 32
0.0
 13
-3.699886905275545
 23
94.6487593329407
 33
0.0
  0
SOLID
  5
741
330
2BA
100
AcDbEntity
  8
DIM
100
AcDbTrace
 10
-4.199886905275547
 20
87.44875933294071
 30
0.0
 11
-3.199886905275547
 21
87.44875933294071
 31
0.0
 12
-3.699886905275548
 22
84.44875933294071
 32
0.0
 13
-3.699886905275548
 23
84.44875933294071
 33
0.0
  0
MTEXT
  5
742
330
2BA
100
AcDbEntity
  8
DIM
100
AcDbMText
 10
-5.999886905275561
 20
89.5487593329407
 30
0.0
 40
3.0
 41
0.0
 71
     5
 72
     1
  1
\A1;10.2
  7
DAYUS
 11
0.0000000000000001
 21
1.0
 31
0.0
 73
     1
 44
1.0
1001
ACAD
1000
MTEXTBEGIN
1070
    73
1070
     1
1070
    44
1040
1.0
1070
    74
1070
     0
1000
MTEXTEND
  0
POINT
  5
743
330
2BA
100
AcDbEntity
  8
Defpoints
 62
     0
100
AcDbPoint
 10
-27.49551503588989
 20
94.6487593329407
 30
0.0
  0
POINT
  5
744
330
2BA
100
AcDbEntity
  8
Defpoints
 62
     0
100
AcDbPoint
 10
-27.49551503588989
 20
84.44875933294071
 30
0.0
  0
POINT
  5
745
330
2BA
100
AcDbEntity
  8
Defpoints
 62
     0
100
AcDbPoint
 10
-3.699886905275548
 20
84.44875933294071
 30
0.0
  0
ENDBLK
  5
2C5
330
2BA
100
AcDbEntity
  8
0
100
AcDbBlockEnd
  0
BLOCK
  5
2D0
330
2C6
100
AcDbEntity
  8
0
100
AcDbBlockBegin
  2
*D6
 70
     1
 10
0.0
 20
0.0
 30
0.0
  3
*D6
  1

  0
LINE
  5
746
330
2C6
100
AcDbEntity
  8
DIM
100
AcDbLine
 10
54.18789895990949
 20
130.7491081093684
 30
0.0
 11
66.18789895990949
 21
130.7491081093683
 31
0.0
  0
LINE
  5
747
330
2C6
100
AcDbEntity
  8
DIM
100
AcDbLine
 10
44.18789895990949
 20
152.7491081093684
 30
0.0
 11
66.18789895990949
 21
152.7491081093683
 31
0.0
  0
LINE
  5
748
330
2C6
100
AcDbEntity
  8
DIM
100
AcDbLine
 10
64.68789895990949
 20
133.7491081093683
 30
0.0
 11
64.68789895990949
 21
149.7491081093683
 31
0.0
  0
SOLID
  5
749
330
2C6
100
AcDbEntity
  8
DIM
100
AcDbTrace
 10
64.18789895990949
 20
133.7491081093683
 30
0.0
 11
65.18789895990948
 21
133.7491081093683
 31
0.0
 12
64.68789895990949
 22
130.7491081093683
 32
0.0
 13
64.68789895990949
 23
130.7491081093683
 33
0.0
  0
SOLID
  5
74A
330
2C6
100
AcDbEntity
  8
DIM
100
AcDbTrace
 10
64.18789895990949
 20
149.7491081093683
 30
0.0
 11
65.18789895990948
 21
149.7491081093683
 31
0.0
 12
64.68789895990949
 22
152.7491081093683
 32
0.0
 13
64.68789895990949
 23
152.7491081093683
 33
0.0
  0
MTEXT
  5
74B
330
2C6
100
AcDbEntity
  8
DIM
100
AcDbMText
 10
62.38789895990947
 20
141.7491081093684
 30
0.0
 40
3.0
 41
0.0
 71
     5
 72
     1
  1
\A1;22
  7
DAYUS
 11
0.0000000000000001
 21
1.0
 31
0.0
 73
     1
 44
1.0
1001
ACAD
1000
MTEXTBEGIN
1070
    73
1070
     1
1070
    44
1040
1.0
1070
    74
1070
     0
1000
MTEXTEND
  0
POINT
  5
74C
330
2C6
100
AcDbEntity
  8
Defpoints
 62
     0
100
AcDbPoint
 10
52.68789895990948
 20
130.7491081093684
 30
0.0
  0
POINT
  5
74D
330
2C6
100
AcDbEntity
  8
Defpoints
 62
     0
100
AcDbPoint
 10
42.68789895990948
 20
152.7491081093684
 30
0.0
  0
POINT
  5
74E
330
2C6
100
AcDbEntity
  8
Defpoints
 62
     0
100
AcDbPoint
 10
64.68789895990949
 20
152.7491081093683
 30
0.0
  0
ENDBLK
  5
2D1
330
2C6
100
AcDbEntity
  8
0
100
AcDbBlockEnd
  0
BLOCK
  5
2DC
330
2D2
100
AcDbEntity
  8
0
100
AcDbBlockBegin
  2
*D7
 70
     1
 10
0.0
 20
0.0
 30
0.0
  3
*D7
  1

  0
LINE
  5
74F
330
2D2
100
AcDbEntity
  8
DIM
100
AcDbLine
 10
49.93789895990949
 20
126.4991081093684
 30
0.0
 11
49.93789895990949
 21
114.4991081093684
 31
0.0
  0
LINE
  5
750
330
2D2
100
AcDbEntity
  8
DIM
100
AcDbLine
 10
39.93789895990949
 20
148.4991081093684
 30
0.0
 11
39.93789895990949
 21
114.4991081093684
 31
0.0
  0
LINE
  5
751
330
2D2
100
AcDbEntity
  8
DIM
100
AcDbLine
 10
46.93789895990948
 20
115.9991081093684
 30
0.0
 11
42.93789895990949
 21
115.9991081093684
 31
0.0
  0
SOLID
  5
752
330
2D2
100
AcDbEntity
  8
DIM
100
AcDbTrace
 10
46.93789895990948
 20
116.4991081093684
 30
0.0
 11
46.93789895990948
 21
115.4991081093684
 31
0.0
 12
49.93789895990949
 22
115.9991081093684
 32
0.0
 13
49.93789895990949
 23
115.9991081093684
 33
0.0
  0
SOLID
  5
753
330
2D2
100
AcDbEntity
  8
DIM
100
AcDbTrace
 10
42.93789895990949
 20
116.4991081093684
 30
0.0
 11
42.93789895990949
 21
115.4991081093684
 31
0.0
 12
39.93789895990949
 22
115.9991081093684
 32
0.0
 13
39.93789895990949
 23
115.9991081093684
 33
0.0
  0
MTEXT
  5
754
330
2D2
100
AcDbEntity
  8
DIM
100
AcDbMText
 10
44.93789895990949
 20
118.2991081093684
 30
0.0
 40
3.0
 41
0.0
 71
     5
 72
     1
  1
\A1;10
  7
DAYUS
 73
     1
 44
1.0
1001
ACAD
1000
MTEXTBEGIN
1070
    73
1070
     1
1070
    44
1040
1.0
1070
    74
1070
     0
1000
MTEXTEND
  0
POINT
  5
755
330
2D2
100
AcDbEntity
  8
Defpoints
 62
     0
100
AcDbPoint
 10
49.93789895990949
 20
127.9991081093684
 30
0.0
  0
POINT
  5
756
330
2D2
100
AcDbEntity
  8
Defpoints
 62
     0
100
AcDbPoint
 10
39.93789895990949
 20
149.9991081093684
 30
0.0
  0
POINT
  5
757
330
2D2
100
AcDbEntity
  8
Defpoints
 62
     0
100
AcDbPoint
 10
39.93789895990949
 20
115.9991081093684
 30
0.0
  0
ENDBLK
  5
2DD
330
2D2
100
AcDbEntity
  8
0
100
AcDbBlockEnd
  0
BLOCK
  5
2E8
330
2DE
100
AcDbEntity
  8
0
100
AcDbBlockBegin
  2
*D8
 70
     1
 10
0.0
 20
0.0
 30
0.0
  3
*D8
  1

  0
LINE
  5
758
330
2DE
100
AcDbEntity
  8
DIM
100
AcDbLine
 10
-12.74551503588989
 20
127.7491081093684
 30
0.0
 11
-0.745515035889902
 21
127.7491081093684
 31
0.0
  0
LINE
  5
759
330
2DE
100
AcDbEntity
  8
DIM
100
AcDbLine
 10
-12.74551503588989
 20
155.7491081093684
 30
0.0
 11
-0.745515035889894
 21
155.7491081093684
 31
0.0
  0
LINE
  5
75A
330
2DE
100
AcDbEntity
  8
DIM
100
AcDbLine
 10
-2.2455150358899
 20
130.7491081093684
 30
0.0
 11
-2.245515035889895
 21
152.7491081093684
 31
0.0
  0
SOLID
  5
75B
330
2DE
100
AcDbEntity
  8
DIM
100
AcDbTrace
 10
-2.7455150358899
 20
130.7491081093684
 30
0.0
 11
-1.7455150358899
 21
130.7491081093684
 31
0.0
 12
-2.2455150358899
 22
127.7491081093684
 32
0.0
 13
-2.2455150358899
 23
127.7491081093684
 33
0.0
  0
SOLID
  5
75C
330
2DE
100
AcDbEntity
  8
DIM
100
AcDbTrace
 10
-2.745515035889895
 20
152.7491081093684
 30
0.0
 11
-1.745515035889895
 21
152.7491081093684
 31
0.0
 12
-2.245515035889894
 22
155.7491081093684
 32
0.0
 13
-2.245515035889894
 23
155.7491081093684
 33
0.0
  0
MTEXT
  5
75D
330
2DE
100
AcDbEntity
  8
DIM
100
AcDbMText
 10
-4.54551503588992
 20
141.7491081093684
 30
0.0
 40
3.0
 41
0.0
 71
     5
 72
     1
  1
\A1;28
  7
DAYUS
 11
0.0000000000000001
 21
1.0
 31
0.0
 73
     1
 44
1.0
1001
ACAD
1000
MTEXTBEGIN
1070
    73
1070
     1
1070
    44
1040
1.0
1070
    74
1070
     0
1000
MTEXTEND
  0
POINT
  5
75E
330
2DE
100
AcDbEntity
  8
Defpoints
 62
     0
100
AcDbPoint
 10
-14.24551503588989
 20
127.7491081093684
 30
0.0
  0
POINT
  5
75F
330
2DE
100
AcDbEntity
  8
Defpoints
 62
     0
100
AcDbPoint
 10
-14.24551503588989
 20
155.7491081093684
 30
0.0
  0
POINT
  5
760
330
2DE
100
AcDbEntity
  8
Defpoints
 62
     0
100
AcDbPoint
 10
-2.245515035889894
 20
155.7491081093684
 30
0.0
  0
ENDBLK
  5
2E9
330
2DE
100
AcDbEntity
  8
0
100
AcDbBlockEnd
  0
BLOCK
  5
2F4
330
2EA
100
AcDbEntity
  8
0
100
AcDbBlockBegin
  2
*D9
 70
     1
 10
0.0
 20
0.0
 30
0.0
  3
*D9
  1

  0
LINE
  5
761
330
2EA
100
AcDbEntity
  8
DIM
100
AcDbLine
 10
-31.6455150358899
 20
196.269989564752
 30
0.0
 11
-3.645515035889903
 21
196.269989564752
 31
0.0
  0
LINE
  5
762
330
2EA
100
AcDbEntity
  8
DIM
100
AcDbLine
 10
-15.6455150358899
 20
206.469989564752
 30
0.0
 11
-3.6455150358899
 21
206.469989564752
 31
0.0
  0
LINE
  5
763
330
2EA
100
AcDbEntity
  8
DIM
100
AcDbLine
 10
-5.145515035889902
 20
199.269989564752
 30
0.0
 11
-5.145515035889901
 21
203.469989564752
 31
0.0
  0
SOLID
  5
764
330
2EA
100
AcDbEntity
  8
DIM
100
AcDbTrace
 10
-5.645515035889902
 20
199.269989564752
 30
0.0
 11
-4.645515035889902
 21
199.269989564752
 31
0.0
 12
-5.145515035889903
 22
196.269989564752
 32
0.0
 13
-5.145515035889903
 23
196.269989564752
 33
0.0
  0
SOLID
  5
765
330
2EA
100
AcDbEntity
  8
DIM
100
AcDbTrace
 10
-5.645515035889901
 20
203.469989564752
 30
0.0
 11
-4.645515035889901
 21
203.469989564752
 31
0.0
 12
-5.1455150358899
 22
206.469989564752
 32
0.0
 13
-5.1455150358899
 23
206.469989564752
 33
0.0
  0
MTEXT
  5
766
330
2EA
100
AcDbEntity
  8
DIM
100
AcDbMText
 10
-7.445515035889934
 20
201.369989564752
 30
0.0
 40
3.0
 41
0.0
 71
     5
 72
     1
  1
\A1;10.2
  7
DAYUS
 11
0.0000000000000001
 21
1.0
 31
0.0
 73
     1
 44
1.0
1001
ACAD
1000
MTEXTBEGIN
1070
    73
1070
     1
1070
    44
1040
1.0
1070
    74
1070
     0
1000
MTEXTEND
  0
POINT
  5
767
330
2EA
100
AcDbEntity
  8
Defpoints
 62
     0
100
AcDbPoint
 10
-33.1455150358899
 20
196.269989564752
 30
0.0
  0
POINT
  5
768
330
2EA
100
AcDbEntity
  8
Defpoints
 62
     0
100
AcDbPoint
 10
-17.1455150358899
 20
206.469989564752
 30
0.0
  0
POINT
  5
769
330
2EA
100
AcDbEntity
  8
Defpoints
 62
     0
100
AcDbPoint
 10
-5.1455150358899
 20
206.469989564752
 30
0.0
  0
ENDBLK
  5
2F5
330
2EA
100
AcDbEntity
  8
0
100
AcDbBlockEnd
  0
BLOCK
  5
302
330
2F6
100
AcDbEntity
  8
0
100
AcDbBlockBegin
  2
*D10
 70
     1
 10
0.0
 20
0.0
 30
0.0
  3
*D10
  1

  0
LINE
  5
76A
330
2F6
100
AcDbEntity
  8
DIM
100
AcDbLine
 10
-14.24551503588989
 20
210.869989564752
 30
0.0
 11
-14.24551503588989
 21
224.569989564752
 31
0.0
  0
LINE
  5
76B
330
2F6
100
AcDbEntity
  8
DIM
100
AcDbLine
 10
-21.7455150358899
 20
212.569989564752
 30
0.0
 11
-21.7455150358899
 21
224.569989564752
 31
0.0
  0
LINE
  5
76C
330
2F6
100
AcDbEntity
  8
DIM
100
AcDbLine
 10
-11.24551503588989
 20
223.069989564752
 30
0.0
 11
-8.245515035889894
 21
223.069989564752
 31
0.0
  0
LINE
  5
76D
330
2F6
100
AcDbEntity
  8
DIM
100
AcDbLine
 10
-24.7455150358899
 20
223.069989564752
 30
0.0
 11
-35.63122932160418
 21
223.069989564752
 31
0.0
  0
LINE
  5
76E
330
2F6
100
AcDbEntity
  8
DIM
100
AcDbLine
 10
-14.24551503588989
 20
223.069989564752
 30
0.0
 11
-21.7455150358899
 21
223.069989564752
 31
0.0
  0
SOLID
  5
76F
330
2F6
100
AcDbEntity
  8
DIM
100
AcDbTrace
 10
-11.24551503588989
 20
223.569989564752
 30
0.0
 11
-11.24551503588989
 21
222.569989564752
 31
0.0
 12
-14.24551503588989
 22
223.069989564752
 32
0.0
 13
-14.24551503588989
 23
223.069989564752
 33
0.0
  0
SOLID
  5
770
330
2F6
100
AcDbEntity
  8
DIM
100
AcDbTrace
 10
-24.7455150358899
 20
223.569989564752
 30
0.0
 11
-24.7455150358899
 21
222.569989564752
 31
0.0
 12
-21.7455150358899
 22
223.069989564752
 32
0.0
 13
-21.7455150358899
 23
223.069989564752
 33
0.0
  0
MTEXT
  5
771
330
2F6
100
AcDbEntity
  8
DIM
100
AcDbMText
 10
-31.68837217874704
 20
225.369989564752
 30
0.0
 40
3.0
 41
0.0
 71
     5
 72
     1
  1
\A1;7.5
  7
DAYUS
 73
     1
 44
1.0
1001
ACAD
1000
MTEXTBEGIN
1070
    73
1070
     1
1070
    44
1040
1.0
1070
    74
1070
     0
1000
MTEXTEND
  0
POINT
  5
772
330
2F6
100
AcDbEntity
  8
Defpoints
 62
     0
100
AcDbPoint
 10
-14.24551503588989
 20
209.369989564752
 30
0.0
  0
POINT
  5
773
330
2F6
100
AcDbEntity
  8
Defpoints
 62
     0
100
AcDbPoint
 10
-21.7455150358899
 20
211.069989564752
 30
0.0
  0
POINT
  5
774
330
2F6
100
AcDbEntity
  8
Defpoints
 62
     0
100
AcDbPoint
 10
-21.7455150358899
 20
223.069989564752
 30
0.0
  0
ENDBLK
  5
303
330
2F6
100
AcDbEntity
  8
0
100
AcDbBlockEnd
  0
BLOCK
  5
30E
330
304
100
AcDbEntity
  8
0
100
AcDbBlockBegin
  2
*D11
 70
     1
 10
0.0
 20
0.0
 30
0.0
  3
*D11
  1

  0
LINE
  5
99E
330
304
100
AcDbEntity
  8
DIM
100
AcDbLine
 10
-14.24551503588989
 20
191.869989564752
 30
0.0
 11
-14.2455150358899
 21
178.169989554752
 31
0.0
  0
LINE
  5
99F
330
304
100
AcDbEntity
  8
DIM
100
AcDbLine
 10
-37.2455150358899
 20
190.169989564752
 30
0.0
 11
-37.2455150358899
 21
178.169989554752
 31
0.0
  0
LINE
  5
9A0
330
304
100
AcDbEntity
  8
DIM
100
AcDbLine
 10
-17.24551503588989
 20
179.669989554752
 30
0.0
 11
-34.2455150358899
 21
179.669989554752
 31
0.0
  0
SOLID
  5
9A1
330
304
100
AcDbEntity
  8
DIM
100
AcDbTrace
 10
-17.24551503588989
 20
180.169989554752
 30
0.0
 11
-17.24551503588989
 21
179.169989554752
 31
0.0
 12
-14.24551503588989
 22
179.669989554752
 32
0.0
 13
-14.24551503588989
 23
179.669989554752
 33
0.0
  0
SOLID
  5
9A2
330
304
100
AcDbEntity
  8
DIM
100
AcDbTrace
 10
-34.2455150358899
 20
180.169989554752
 30
0.0
 11
-34.2455150358899
 21
179.169989554752
 31
0.0
 12
-37.2455150358899
 22
179.669989554752
 32
0.0
 13
-37.2455150358899
 23
179.669989554752
 33
0.0
  0
MTEXT
  5
9A3
330
304
100
AcDbEntity
  8
DIM
100
AcDbMText
 10
-25.7455150358899
 20
181.969989554752
 30
0.0
 40
3.0
 41
0.0
 71
     5
 72
     1
  1
\A1;23
  7
DAYUS
 73
     1
 44
1.0
1001
ACAD
1000
MTEXTBEGIN
1070
    73
1070
     1
1070
    44
1040
1.0
1070
    74
1070
     0
1000
MTEXTEND
  0
POINT
  5
9A4
330
304
100
AcDbEntity
  8
Defpoints
 62
     0
100
AcDbPoint
 10
-14.24551503588989
 20
193.369989564752
 30
0.0
  0
POINT
  5
9A5
330
304
100
AcDbEntity
  8
Defpoints
 62
     0
100
AcDbPoint
 10
-37.2455150358899
 20
191.669989564752
 30
0.0
  0
POINT
  5
9A6
330
304
100
AcDbEntity
  8
Defpoints
 62
     0
100
AcDbPoint
 10
-37.2455150358899
 20
179.669989554752
 30
0.0
  0
ENDBLK
  5
30F
330
304
100
AcDbEntity
  8
0
100
AcDbBlockEnd
  0
BLOCK
  5
7F2
330
7E6
100
AcDbEntity
  8
0
100
AcDbBlockBegin
  2
*D12
 70
     1
 10
0.0
 20
0.0
 30
0.0
  3
*D12
  1

  0
LINE
  5
886
330
7E6
100
AcDbEntity
  8
DIM
100
AcDbLine
 10
-69.36180904053845
 20
125.7962700720103
 30
0.0
 11
-82.8026808864411
 21
122.1947993153304
 31
0.0
  0
LINE
  5
887
330
7E6
100
AcDbEntity
  8
DIM
100
AcDbLine
 10
-70.00885665329474
 20
128.2110846377329
 30
0.0
 11
-83.4497284991974
 21
124.609613881053
 31
0.0
  0
LINE
  5
888
330
7E6
100
AcDbEntity
  8
DIM
100
AcDbLine
 10
-82.77729689507138
 20
127.895619927574
 30
0.0
 11
-83.55375403037895
 21
130.7933974064412
 31
0.0
  0
LINE
  5
889
330
7E6
100
AcDbEntity
  8
DIM
100
AcDbLine
 10
-80.57733501169991
 20
119.685250404117
 30
0.0
 11
-77.75990483501241
 21
109.1704578379417
 31
0.0
  0
LINE
  5
88A
330
7E6
100
AcDbEntity
  8
DIM
100
AcDbLine
 10
-82.00083975976379
 20
124.9978424487068
 30
0.0
 11
-81.35379214700749
 21
122.5830278829842
 31
0.0
  0
SOLID
  5
88B
330
7E6
100
AcDbEntity
  8
DIM
100
AcDbTrace
 10
-82.29433398192684
 20
128.0250294501252
 30
0.0
 11
-83.26025980821592
 21
127.7662104050227
 31
0.0
 12
-82.00083975976379
 22
124.9978424487068
 32
0.0
 13
-82.00083975976379
 23
124.9978424487068
 33
0.0
  0
SOLID
  5
88C
330
7E6
100
AcDbEntity
  8
DIM
100
AcDbTrace
 10
-80.09437209855539
 20
119.8146599266683
 30
0.0
 11
-81.06029792484447
 21
119.5558408815657
 31
0.0
 12
-81.35379214700749
 22
122.5830278829842
 32
0.0
 13
-81.35379214700749
 23
122.5830278829842
 33
0.0
  0
MTEXT
  5
88D
330
7E6
100
AcDbEntity
  8
DIM
100
AcDbMText
 10
-76.55876195523754
 20
113.5742491853316
 30
0.0
 40
3.0
 41
0.0
 71
     5
 72
     1
  1
\A1;2.5
  7
DAYUS
 11
0.2588190451025265
 21
-0.9659258262890666
 31
0.0
 73
     1
 44
1.0
1001
ACAD
1000
MTEXTBEGIN
1070
    73
1070
     1
1070
    44
1040
1.0
1070
    74
1070
     0
1000
MTEXTEND
  0
POINT
  5
88E
330
7E6
100
AcDbEntity
  8
Defpoints
 62
     0
100
AcDbPoint
 10
-67.91292030110483
 20
126.1844986396641
 30
0.0
  0
POINT
  5
88F
330
7E6
100
AcDbEntity
  8
Defpoints
 62
     0
100
AcDbPoint
 10
-68.55996791386115
 20
128.5993132053867
 30
0.0
  0
POINT
  5
890
330
7E6
100
AcDbEntity
  8
Defpoints
 62
     0
100
AcDbPoint
 10
-82.00083975976379
 20
124.9978424487068
 30
0.0
  0
ENDBLK
  5
7F3
330
7E6
100
AcDbEntity
  8
0
100
AcDbBlockEnd
  0
BLOCK
  5
801
330
7F5
100
AcDbEntity
  8
0
100
AcDbBlockBegin
  2
*D13
 70
     1
 10
0.0
 20
0.0
 30
0.0
  3
*D13
  1

  0
LINE
  5
87B
330
7F5
100
AcDbEntity
  8
DIM
100
AcDbLine
 10
-70.00885665329474
 20
128.2110846377329
 30
0.0
 11
-77.13967775768736
 21
126.3003868814401
 31
0.0
  0
LINE
  5
87C
330
7F5
100
AcDbEntity
  8
DIM
100
AcDbLine
 10
-68.71476142778212
 20
123.3814555062876
 30
0.0
 11
-75.84558253217474
 21
121.4707577499947
 31
0.0
  0
LINE
  5
87D
330
7F5
100
AcDbEntity
  8
DIM
100
AcDbLine
 10
-76.46724615356134
 20
129.5863929279611
 30
0.0
 11
-77.24370328886891
 21
132.4841704068283
 31
0.0
  0
LINE
  5
87E
330
7F5
100
AcDbEntity
  8
DIM
100
AcDbLine
 10
-73.62023665743357
 20
118.9612088387813
 30
0.0
 11
-71.91203095975692
 21
112.5860983852735
 31
0.0
  0
LINE
  5
87F
330
7F5
100
AcDbEntity
  8
DIM
100
AcDbLine
 10
-75.69078901825378
 20
126.6886154490938
 30
0.0
 11
-74.39669379274116
 21
121.8589863176485
 31
0.0
  0
SOLID
  5
880
330
7F5
100
AcDbEntity
  8
DIM
100
AcDbTrace
 10
-75.9842832404168
 20
129.7158024505123
 30
0.0
 11
-76.95020906670588
 21
129.4569834054098
 31
0.0
 12
-75.69078901825378
 22
126.6886154490938
 32
0.0
 13
-75.69078901825378
 23
126.6886154490938
 33
0.0
  0
SOLID
  5
881
330
7F5
100
AcDbEntity
  8
DIM
100
AcDbTrace
 10
-73.13727374428904
 20
119.0906183613326
 30
0.0
 11
-74.10319957057811
 21
118.83179931623
 31
0.0
 12
-74.39669379274116
 22
121.8589863176485
 32
0.0
 13
-74.39669379274116
 23
121.8589863176485
 33
0.0
  0
MTEXT
  5
882
330
7F5
100
AcDbEntity
  8
DIM
100
AcDbMText
 10
-70.15627584047661
 20
114.9200486763296
 30
0.0
 40
3.0
 41
0.0
 71
     5
 72
     1
  1
\A1;5
  7
DAYUS
 11
0.2588190451025239
 21
-0.9659258262890674
 31
0.0
 73
     1
 44
1.0
1001
ACAD
1000
MTEXTBEGIN
1070
    73
1070
     1
1070
    44
1040
1.0
1070
    74
1070
     0
1000
MTEXTEND
  0
POINT
  5
883
330
7F5
100
AcDbEntity
  8
Defpoints
 62
     0
100
AcDbPoint
 10
-68.55996791386115
 20
128.5993132053867
 30
0.0
  0
POINT
  5
884
330
7F5
100
AcDbEntity
  8
Defpoints
 62
     0
100
AcDbPoint
 10
-67.26587268834852
 20
123.7696840739413
 30
0.0
  0
POINT
  5
885
330
7F5
100
AcDbEntity
  8
Defpoints
 62
     0
100
AcDbPoint
 10
-74.39669379274116
 20
121.8589863176485
 30
0.0
  0
ENDBLK
  5
802
330
7F5
100
AcDbEntity
  8
0
100
AcDbBlockEnd
  0
BLOCK
  5
98F
330
98D
100
AcDbEntity
  8
0
100
AcDbBlockBegin
  2
GENAXEH
 70
     0
 10
0.0
 20
0.0
 30
0.0
  3
GENAXEH
  1

  0
LINE
  5
98E
330
98D
100
AcDbEntity
  8
0
100
AcDbLine
 10
-1.0
 20
0.0
 30
0.0
 11
1.0
 21
0.0
 31
0.0
  0
ENDBLK
  5
990
330
98D
100
AcDbEntity
  8
0
100
AcDbBlockEnd
  0
ENDSEC
  0
SECTION
  2
ENTITIES
  0
TEXT
  5
27
330
2
100
AcDbEntity
  8
0
100
AcDbText
 10
329.2668450545144
 20
46.83967199773195
 30
0.0
 40
2.94
  1

 41
0.8
  7
DAYUS
 72
     4
 11
329.2668450545144
 21
46.83967199773195
 31
0.0
100
AcDbText
  0
LINE
  5
28
330
2
100
AcDbEntity
  8
CENTER
100
AcDbLine
 10
-18.74551503588989
 20
201.369989564752
 30
0.0
 11
-23.0455150358899
 21
201.369989564752
 31
0.0
  0
LINE
  5
2B
330
2
100
AcDbEntity
  8
CENTER
100
AcDbLine
 10
-36.44551503588989
 20
201.369989564752
 30
0.0
 11
-47.49551503588988
 21
201.369989564752
 31
0.0
  0
LINE
  5
2C
330
2
100
AcDbEntity
  8
CENTER
100
AcDbLine
 10
-47.14551503588991
 20
192.169989564752
 30
0.0
 11
-47.14551503588991
 21
210.569989564752
 31
0.0
  0
LINE
  5
2D
330
2
100
AcDbEntity
  8
CENTER
100
AcDbLine
 10
-36.44551503588989
 20
89.5487593329407
 30
0.0
 11
-47.49551503588988
 21
89.5487593329407
 31
0.0
  0
LINE
  5
2E
330
2
100
AcDbEntity
  8
CENTER
100
AcDbLine
 10
-47.14551503588991
 20
98.7487593329407
 30
0.0
 11
-47.14551503588991
 21
80.34875933294069
 31
0.0
  0
CIRCLE
  5
2F
330
2
100
AcDbEntity
  8
HIDDEN
  6
HIDDEN
100
AcDbCircle
 10
-47.14551503588991
 20
95.2987593329407
 30
0.0
 40
1.25
  0
CIRCLE
  5
32
330
2
100
AcDbEntity
  8
HIDDEN
  6
HIDDEN
100
AcDbCircle
 10
-47.14551503588991
 20
83.79875933294071
 30
0.0
 40
1.25
  0
CIRCLE
  5
33
330
2
100
AcDbEntity
  8
HIDDEN
  6
HIDDEN
100
AcDbCircle
 10
-30.2455150358899
 20
94.6487593329407
 30
0.0
 40
1.5
  0
CIRCLE
  5
34
330
2
100
AcDbEntity
  8
HIDDEN
  6
HIDDEN
100
AcDbCircle
 10
-30.2455150358899
 20
84.44875933294071
 30
0.0
 40
1.5
  0
CIRCLE
  5
35
330
2
100
AcDbEntity
  8
HIDDEN
  6
HIDDEN
100
AcDbCircle
 10
49.93789895990949
 20
130.7491081093684
 30
0.0
 40
1.5
  0
CIRCLE
  5
36
330
2
100
AcDbEntity
  8
HIDDEN
  6
HIDDEN
100
AcDbCircle
 10
39.93789895990949
 20
152.7491081093684
 30
0.0
 40
1.5
  0
CIRCLE
  5
37
330
2
100
AcDbEntity
  8
HIDDEN
  6
HIDDEN
100
AcDbCircle
 10
-21.7455150358899
 20
206.469989564752
 30
0.0
 40
1.5
  0
CIRCLE
  5
38
330
2
100
AcDbEntity
  8
HIDDEN
  6
HIDDEN
100
AcDbCircle
 10
-37.2455150358899
 20
196.269989564752
 30
0.0
 40
1.5
  0
CIRCLE
  5
39
330
2
100
AcDbEntity
  8
HIDDEN
  6
HIDDEN
100
AcDbCircle
 10
-47.14551503588991
 20
195.619989564752
 30
0.0
 40
1.25
  0
CIRCLE
  5
3A
330
2
100
AcDbEntity
  8
HIDDEN
  6
HIDDEN
100
AcDbCircle
 10
-47.14551503588991
 20
207.119989564752
 30
0.0
 40
1.25
  0
CIRCLE
  5
3B
330
2
100
AcDbEntity
  8
HIDDEN
  6
HIDDEN
100
AcDbCircle
 10
-34.2455150358899
 20
45.50416416352859
 30
0.0
 40
1.5
  0
CIRCLE
  5
3C
330
2
100
AcDbEntity
  8
HIDDEN
  6
HIDDEN
100
AcDbCircle
 10
-34.2455150358899
 20
25.50416416352861
 30
0.0
 40
1.5
  0
DIMENSION
  5
3D
330
2
100
AcDbEntity
  8
DIM
100
AcDbDimension
  2
*D0
 10
52.93789895990949
 20
109.1457282091448
 30
0.0
 11
44.93789895990949
 21
111.4457282091448
 31
0.0
 70
    32
  1
<>
 71
     5
 42
16.0
  3
STANDARD
100
AcDbAlignedDimension
 13
36.93789895990949
 23
128.2491081093684
 33
0.0
 14
52.93789895990949
 24
128.2491081093684
 34
0.0
100
AcDbRotatedDimension
1001
GENIUS_GENDTOL_13
1000

1000
lc3
1000

1040
0.0
  0
LEADER
  5
5A
330
2
100
AcDbEntity
  8
DIM
100
AcDbLeader
  3
STANDARD
 73
     0
 74
     0
 75
     1
 40
3.0
 41
12.0
 76
     3
 10
-29.24221524731343
 20
95.21079984237255
 30
0.0
 10
-23.3986175597464
 20
103.8054220283976
 30
0.0
 10
-20.3986175597464
 20
103.8054220283976
 30
0.0
340
5B
1001
ACAD
1000
DSTYLE
1002
{
1070
     5
1000

1070
   342
1005
0
1002
}
  0
MTEXT
  5
5B
102
{ACAD_REACTORS
330
5A
102
}
330
2
100
AcDbEntity
  8
DIM
100
AcDbMText
 10
-19.5986175597464
 20
104.6054220283975
 30
0.0
 40
3.0
 41
0.0
 71
     7
 72
     5
  1
\A1;2-M3
  7
DAYUS
 73
     1
 44
1.0
1001
ACAD
1000
MTEXTBEGIN
1070
    73
1070
     1
1070
    44
1040
1.0
1070
    74
1070
     0
1000
MTEXTEND
  0
DIMENSION
  5
5C
330
2
100
AcDbEntity
  8
DIM
100
AcDbDimension
  2
*D1
 10
-53.24551503588989
 20
69.54875933294065
 30
0.0
 11
-33.74551503588989
 21
71.84875933294065
 31
0.0
 70
    32
  1
<>
 71
     5
 42
39.0
  3
STANDARD
100
AcDbAlignedDimension
 13
-14.24551503588989
 23
81.5487593329407
 33
0.0
 14
-53.24551503588989
 24
81.5487593329407
 34
0.0
100
AcDbRotatedDimension
1001
GENIUS_GENDTOL_13
1000

1000
lc3
1000

1040
0.0
  0
LINE
  5
69
330
2
100
AcDbEntity
  8
CENTER
100
AcDbLine
 10
-48.14551503588991
 20
151.7491081093684
 30
0.0
 11
-46.14551503588991
 21
151.7491081093684
 31
0.0
  0
LINE
  5
6A
330
2
100
AcDbEntity
  8
CENTER
100
AcDbLine
 10
-47.14551503588991
 20
150.7491081093684
 30
0.0
 11
-47.14551503588991
 21
152.7491081093684
 31
0.0
  0
LINE
  5
6B
330
2
100
AcDbEntity
  8
CENTER
100
AcDbLine
 10
-49.99551503588988
 20
151.7491081093684
 30
0.0
 11
-48.94551503588992
 21
151.7491081093684
 31
0.0
  0
LINE
  5
6C
330
2
100
AcDbEntity
  8
CENTER
100
AcDbLine
 10
-45.3455150358899
 20
151.7491081093684
 30
0.0
 11
-44.29551503588989
 21
151.7491081093684
 31
0.0
  0
LINE
  5
6D
330
2
100
AcDbEntity
  8
CENTER
100
AcDbLine
 10
-47.14551503588991
 20
148.8991081093684
 30
0.0
 11
-47.14551503588991
 21
149.9491081093684
 31
0.0
  0
LINE
  5
6E
330
2
100
AcDbEntity
  8
CENTER
100
AcDbLine
 10
-47.14551503588991
 20
153.5491081093684
 30
0.0
 11
-47.14551503588991
 21
154.5991081093684
 31
0.0
  0
LINE
  5
6F
330
2
100
AcDbEntity
  8
CENTER
100
AcDbLine
 10
-48.14551503588991
 20
131.7491081093684
 30
0.0
 11
-46.14551503588991
 21
131.7491081093684
 31
0.0
  0
LINE
  5
70
330
2
100
AcDbEntity
  8
CENTER
100
AcDbLine
 10
-47.14551503588991
 20
130.7491081093684
 30
0.0
 11
-47.14551503588991
 21
132.7491081093684
 31
0.0
  0
LINE
  5
71
330
2
100
AcDbEntity
  8
CENTER
100
AcDbLine
 10
-49.99551503588988
 20
131.7491081093684
 30
0.0
 11
-48.94551503588992
 21
131.7491081093684
 31
0.0
  0
LINE
  5
72
330
2
100
AcDbEntity
  8
CENTER
100
AcDbLine
 10
-45.3455150358899
 20
131.7491081093684
 30
0.0
 11
-44.29551503588989
 21
131.7491081093684
 31
0.0
  0
LINE
  5
73
330
2
100
AcDbEntity
  8
CENTER
100
AcDbLine
 10
-47.14551503588991
 20
128.8991081093684
 30
0.0
 11
-47.14551503588991
 21
129.9491081093684
 31
0.0
  0
LINE
  5
74
330
2
100
AcDbEntity
  8
CENTER
100
AcDbLine
 10
-47.14551503588991
 20
133.5491081093684
 30
0.0
 11
-47.14551503588991
 21
134.5991081093684
 31
0.0
  0
LINE
  5
75
330
2
100
AcDbEntity
  8
CENTER
100
AcDbLine
 10
-37.7455150358899
 20
157.3491081093683
 30
0.0
 11
-37.7455150358899
 21
153.9491081093684
 31
0.0
  0
LINE
  5
76
330
2
100
AcDbEntity
  8
CENTER
100
AcDbLine
 10
-48.14551503588991
 20
207.119989564752
 30
0.0
 11
-46.14551503588991
 21
207.119989564752
 31
0.0
  0
LINE
  5
77
330
2
100
AcDbEntity
  8
CENTER
100
AcDbLine
 10
-47.14551503588991
 20
206.119989564752
 30
0.0
 11
-47.14551503588991
 21
208.119989564752
 31
0.0
  0
LINE
  5
78
330
2
100
AcDbEntity
  8
CENTER
100
AcDbLine
 10
-49.77051503588992
 20
207.119989564752
 30
0.0
 11
-48.94551503588992
 21
207.119989564752
 31
0.0
  0
LINE
  5
79
330
2
100
AcDbEntity
  8
CENTER
100
AcDbLine
 10
-45.3455150358899
 20
207.119989564752
 30
0.0
 11
-44.52051503588991
 21
207.119989564752
 31
0.0
  0
LINE
  5
7A
330
2
100
AcDbEntity
  8
CENTER
100
AcDbLine
 10
-47.14551503588991
 20
204.494989564752
 30
0.0
 11
-47.14551503588991
 21
205.319989564752
 31
0.0
  0
LINE
  5
7B
330
2
100
AcDbEntity
  8
CENTER
100
AcDbLine
 10
-47.14551503588991
 20
208.919989564752
 30
0.0
 11
-47.14551503588991
 21
209.744989564752
 31
0.0
  0
LINE
  5
7C
330
2
100
AcDbEntity
  8
CENTER
100
AcDbLine
 10
-48.14551503588991
 20
195.619989564752
 30
0.0
 11
-46.14551503588991
 21
195.619989564752
 31
0.0
  0
LINE
  5
7D
330
2
100
AcDbEntity
  8
CENTER
100
AcDbLine
 10
-47.14551503588991
 20
194.619989564752
 30
0.0
 11
-47.14551503588991
 21
196.619989564752
 31
0.0
  0
LINE
  5
7E
330
2
100
AcDbEntity
  8
CENTER
100
AcDbLine
 10
-49.77051503588992
 20
195.619989564752
 30
0.0
 11
-48.94551503588992
 21
195.619989564752
 31
0.0
  0
LINE
  5
7F
330
2
100
AcDbEntity
  8
CENTER
100
AcDbLine
 10
-45.3455150358899
 20
195.619989564752
 30
0.0
 11
-44.52051503588991
 21
195.619989564752
 31
0.0
  0
LINE
  5
80
330
2
100
AcDbEntity
  8
CENTER
100
AcDbLine
 10
-47.14551503588991
 20
192.994989564752
 30
0.0
 11
-47.14551503588991
 21
193.819989564752
 31
0.0
  0
LINE
  5
81
330
2
100
AcDbEntity
  8
CENTER
100
AcDbLine
 10
-47.14551503588991
 20
197.419989564752
 30
0.0
 11
-47.14551503588991
 21
198.2449895647519
 31
0.0
  0
LINE
  5
82
330
2
100
AcDbEntity
  8
CENTER
100
AcDbLine
 10
-38.2455150358899
 20
196.269989564752
 30
0.0
 11
-36.24551503588989
 21
196.269989564752
 31
0.0
  0
LINE
  5
83
330
2
100
AcDbEntity
  8
CENTER
100
AcDbLine
 10
-37.2455150358899
 20
195.269989564752
 30
0.0
 11
-37.2455150358899
 21
197.269989564752
 31
0.0
  0
LINE
  5
84
330
2
100
AcDbEntity
  8
CENTER
100
AcDbLine
 10
-41.8455150358899
 20
196.269989564752
 30
0.0
 11
-39.0455150358899
 21
196.269989564752
 31
0.0
  0
LINE
  5
85
330
2
100
AcDbEntity
  8
CENTER
100
AcDbLine
 10
-35.44551503588988
 20
196.269989564752
 30
0.0
 11
-32.6455150358899
 21
196.269989564752
 31
0.0
  0
LINE
  5
86
330
2
100
AcDbEntity
  8
CENTER
100
AcDbLine
 10
-37.2455150358899
 20
191.669989564752
 30
0.0
 11
-37.2455150358899
 21
194.469989564752
 31
0.0
  0
LINE
  5
87
330
2
100
AcDbEntity
  8
CENTER
100
AcDbLine
 10
-37.2455150358899
 20
198.069989564752
 30
0.0
 11
-37.2455150358899
 21
200.869989564752
 31
0.0
  0
LINE
  5
88
330
2
100
AcDbEntity
  8
CENTER
100
AcDbLine
 10
-22.74551503588989
 20
206.469989564752
 30
0.0
 11
-20.7455150358899
 21
206.469989564752
 31
0.0
  0
LINE
  5
89
330
2
100
AcDbEntity
  8
CENTER
100
AcDbLine
 10
-21.7455150358899
 20
205.469989564752
 30
0.0
 11
-21.7455150358899
 21
207.469989564752
 31
0.0
  0
LINE
  5
8A
330
2
100
AcDbEntity
  8
CENTER
100
AcDbLine
 10
-26.34551503588989
 20
206.469989564752
 30
0.0
 11
-23.54551503588991
 21
206.469989564752
 31
0.0
  0
LINE
  5
8B
330
2
100
AcDbEntity
  8
CENTER
100
AcDbLine
 10
-19.94551503588988
 20
206.469989564752
 30
0.0
 11
-17.1455150358899
 21
206.469989564752
 31
0.0
  0
LINE
  5
8C
330
2
100
AcDbEntity
  8
CENTER
100
AcDbLine
 10
-21.7455150358899
 20
201.869989564752
 30
0.0
 11
-21.7455150358899
 21
204.669989564752
 31
0.0
  0
LINE
  5
8D
330
2
100
AcDbEntity
  8
CENTER
100
AcDbLine
 10
-21.7455150358899
 20
208.269989564752
 30
0.0
 11
-21.7455150358899
 21
211.069989564752
 31
0.0
  0
LINE
  5
8E
330
2
100
AcDbEntity
  8
CENTER
100
AcDbLine
 10
-48.14551503588991
 20
95.2987593329407
 30
0.0
 11
-46.14551503588991
 21
95.2987593329407
 31
0.0
  0
LINE
  5
8F
330
2
100
AcDbEntity
  8
CENTER
100
AcDbLine
 10
-47.14551503588991
 20
94.2987593329407
 30
0.0
 11
-47.14551503588991
 21
96.29875933294071
 31
0.0
  0
LINE
  5
90
330
2
100
AcDbEntity
  8
CENTER
100
AcDbLine
 10
-49.77051503588992
 20
95.2987593329407
 30
0.0
 11
-48.94551503588992
 21
95.2987593329407
 31
0.0
  0
LINE
  5
91
330
2
100
AcDbEntity
  8
CENTER
100
AcDbLine
 10
-45.3455150358899
 20
95.2987593329407
 30
0.0
 11
-44.52051503588991
 21
95.2987593329407
 31
0.0
  0
LINE
  5
92
330
2
100
AcDbEntity
  8
CENTER
100
AcDbLine
 10
-47.14551503588991
 20
92.6737593329407
 30
0.0
 11
-47.14551503588991
 21
93.4987593329407
 31
0.0
  0
LINE
  5
93
330
2
100
AcDbEntity
  8
CENTER
100
AcDbLine
 10
-47.14551503588991
 20
97.09875933294069
 30
0.0
 11
-47.14551503588991
 21
97.92375933294071
 31
0.0
  0
LINE
  5
94
330
2
100
AcDbEntity
  8
CENTER
100
AcDbLine
 10
-48.14551503588991
 20
83.79875933294071
 30
0.0
 11
-46.14551503588991
 21
83.79875933294071
 31
0.0
  0
LINE
  5
95
330
2
100
AcDbEntity
  8
CENTER
100
AcDbLine
 10
-47.14551503588991
 20
82.7987593329407
 30
0.0
 11
-47.14551503588991
 21
84.79875933294071
 31
0.0
  0
LINE
  5
96
330
2
100
AcDbEntity
  8
CENTER
100
AcDbLine
 10
-49.77051503588992
 20
83.79875933294071
 30
0.0
 11
-48.94551503588992
 21
83.79875933294071
 31
0.0
  0
LINE
  5
97
330
2
100
AcDbEntity
  8
CENTER
100
AcDbLine
 10
-45.3455150358899
 20
83.79875933294071
 30
0.0
 11
-44.52051503588991
 21
83.79875933294071
 31
0.0
  0
LINE
  5
98
330
2
100
AcDbEntity
  8
CENTER
100
AcDbLine
 10
-47.14551503588991
 20
81.1737593329407
 30
0.0
 11
-47.14551503588991
 21
81.9987593329407
 31
0.0
  0
LINE
  5
99
330
2
100
AcDbEntity
  8
CENTER
100
AcDbLine
 10
-47.14551503588991
 20
85.59875933294069
 30
0.0
 11
-47.14551503588991
 21
86.4237593329407
 31
0.0
  0
LINE
  5
9A
330
2
100
AcDbEntity
  8
CENTER
100
AcDbLine
 10
-31.24551503588989
 20
94.6487593329407
 30
0.0
 11
-29.2455150358899
 21
94.6487593329407
 31
0.0
  0
LINE
  5
9B
330
2
100
AcDbEntity
  8
CENTER
100
AcDbLine
 10
-30.2455150358899
 20
93.6487593329407
 30
0.0
 11
-30.2455150358899
 21
95.6487593329407
 31
0.0
  0
LINE
  5
9C
330
2
100
AcDbEntity
  8
CENTER
100
AcDbLine
 10
-32.9955150358899
 20
94.6487593329407
 30
0.0
 11
-32.04551503588991
 21
94.6487593329407
 31
0.0
  0
LINE
  5
9D
330
2
100
AcDbEntity
  8
CENTER
100
AcDbLine
 10
-28.44551503588988
 20
94.6487593329407
 30
0.0
 11
-27.49551503588989
 21
94.6487593329407
 31
0.0
  0
LINE
  5
9E
330
2
100
AcDbEntity
  8
CENTER
100
AcDbLine
 10
-30.2455150358899
 20
91.8987593329407
 30
0.0
 11
-30.2455150358899
 21
92.84875933294069
 31
0.0
  0
LINE
  5
9F
330
2
100
AcDbEntity
  8
CENTER
100
AcDbLine
 10
-30.2455150358899
 20
96.44875933294068
 30
0.0
 11
-30.2455150358899
 21
97.3987593329407
 31
0.0
  0
LINE
  5
A0
330
2
100
AcDbEntity
  8
CENTER
100
AcDbLine
 10
-31.24551503588989
 20
84.44875933294071
 30
0.0
 11
-29.2455150358899
 21
84.44875933294071
 31
0.0
  0
LINE
  5
A1
330
2
100
AcDbEntity
  8
CENTER
100
AcDbLine
 10
-30.2455150358899
 20
83.44875933294071
 30
0.0
 11
-30.2455150358899
 21
85.4487593329407
 31
0.0
  0
LINE
  5
A2
330
2
100
AcDbEntity
  8
CENTER
100
AcDbLine
 10
-32.9955150358899
 20
84.44875933294071
 30
0.0
 11
-32.04551503588991
 21
84.44875933294071
 31
0.0
  0
LINE
  5
A3
330
2
100
AcDbEntity
  8
CENTER
100
AcDbLine
 10
-28.44551503588988
 20
84.44875933294071
 30
0.0
 11
-27.49551503588989
 21
84.44875933294071
 31
0.0
  0
LINE
  5
A4
330
2
100
AcDbEntity
  8
CENTER
100
AcDbLine
 10
-30.2455150358899
 20
81.6987593329407
 30
0.0
 11
-30.2455150358899
 21
82.64875933294069
 31
0.0
  0
LINE
  5
A5
330
2
100
AcDbEntity
  8
CENTER
100
AcDbLine
 10
-30.2455150358899
 20
86.24875933294068
 30
0.0
 11
-30.2455150358899
 21
87.19875933294071
 31
0.0
  0
LINE
  5
A6
330
2
100
AcDbEntity
  8
CENTER
100
AcDbLine
 10
-35.2455150358899
 20
45.50416416352859
 30
0.0
 11
-33.2455150358899
 21
45.50416416352859
 31
0.0
  0
LINE
  5
A7
330
2
100
AcDbEntity
  8
CENTER
100
AcDbLine
 10
-34.2455150358899
 20
44.5041641635286
 30
0.0
 11
-34.2455150358899
 21
46.5041641635286
 31
0.0
  0
LINE
  5
A8
330
2
100
AcDbEntity
  8
CENTER
100
AcDbLine
 10
-36.9955150358899
 20
45.50416416352859
 30
0.0
 11
-36.04551503588991
 21
45.50416416352859
 31
0.0
  0
LINE
  5
A9
330
2
100
AcDbEntity
  8
CENTER
100
AcDbLine
 10
-32.44551503588989
 20
45.50416416352859
 30
0.0
 11
-31.4955150358899
 21
45.50416416352859
 31
0.0
  0
LINE
  5
AA
330
2
100
AcDbEntity
  8
CENTER
100
AcDbLine
 10
-34.2455150358899
 20
42.7541641635286
 30
0.0
 11
-34.2455150358899
 21
43.70416416352862
 31
0.0
  0
LINE
  5
AB
330
2
100
AcDbEntity
  8
CENTER
100
AcDbLine
 10
-34.2455150358899
 20
47.30416416352861
 30
0.0
 11
-34.2455150358899
 21
48.2541641635286
 31
0.0
  0
LINE
  5
AC
330
2
100
AcDbEntity
  8
CENTER
100
AcDbLine
 10
-35.2455150358899
 20
25.50416416352861
 30
0.0
 11
-33.2455150358899
 21
25.50416416352861
 31
0.0
  0
LINE
  5
AD
330
2
100
AcDbEntity
  8
CENTER
100
AcDbLine
 10
-34.2455150358899
 20
24.50416416352861
 30
0.0
 11
-34.2455150358899
 21
26.50416416352861
 31
0.0
  0
LINE
  5
AE
330
2
100
AcDbEntity
  8
CENTER
100
AcDbLine
 10
-36.9955150358899
 20
25.50416416352861
 30
0.0
 11
-36.04551503588991
 21
25.50416416352861
 31
0.0
  0
LINE
  5
AF
330
2
100
AcDbEntity
  8
CENTER
100
AcDbLine
 10
-32.44551503588989
 20
25.50416416352861
 30
0.0
 11
-31.4955150358899
 21
25.50416416352861
 31
0.0
  0
LINE
  5
B0
330
2
100
AcDbEntity
  8
CENTER
100
AcDbLine
 10
-34.2455150358899
 20
22.75416416352861
 30
0.0
 11
-34.2455150358899
 21
23.70416416352861
 31
0.0
  0
LINE
  5
B1
330
2
100
AcDbEntity
  8
CENTER
100
AcDbLine
 10
-34.2455150358899
 20
27.30416416352861
 30
0.0
 11
-34.2455150358899
 21
28.2541641635286
 31
0.0
  0
LINE
  5
B2
330
2
100
AcDbEntity
  8
CENTER
100
AcDbLine
 10
-48.14551503588991
 20
25.50416416352861
 30
0.0
 11
-46.14551503588991
 21
25.50416416352861
 31
0.0
  0
LINE
  5
B3
330
2
100
AcDbEntity
  8
CENTER
100
AcDbLine
 10
-47.14551503588991
 20
24.50416416352861
 30
0.0
 11
-47.14551503588991
 21
26.50416416352861
 31
0.0
  0
LINE
  5
B4
330
2
100
AcDbEntity
  8
CENTER
100
AcDbLine
 10
-49.99551503588988
 20
25.50416416352861
 30
0.0
 11
-48.94551503588992
 21
25.50416416352861
 31
0.0
  0
LINE
  5
B5
330
2
100
AcDbEntity
  8
CENTER
100
AcDbLine
 10
-45.3455150358899
 20
25.50416416352861
 30
0.0
 11
-44.29551503588989
 21
25.50416416352861
 31
0.0
  0
LINE
  5
B6
330
2
100
AcDbEntity
  8
CENTER
100
AcDbLine
 10
-47.14551503588991
 20
22.65416416352861
 30
0.0
 11
-47.14551503588991
 21
23.70416416352861
 31
0.0
  0
LINE
  5
B7
330
2
100
AcDbEntity
  8
CENTER
100
AcDbLine
 10
-47.14551503588991
 20
27.30416416352861
 30
0.0
 11
-47.14551503588991
 21
28.35416416352861
 31
0.0
  0
LINE
  5
B8
330
2
100
AcDbEntity
  8
CENTER
100
AcDbLine
 10
-48.14551503588991
 20
45.50416416352859
 30
0.0
 11
-46.14551503588991
 21
45.50416416352859
 31
0.0
  0
LINE
  5
B9
330
2
100
AcDbEntity
  8
CENTER
100
AcDbLine
 10
-47.14551503588991
 20
44.5041641635286
 30
0.0
 11
-47.14551503588991
 21
46.5041641635286
 31
0.0
  0
LINE
  5
BA
330
2
100
AcDbEntity
  8
CENTER
100
AcDbLine
 10
-49.99551503588988
 20
45.50416416352859
 30
0.0
 11
-48.94551503588992
 21
45.50416416352859
 31
0.0
  0
LINE
  5
BB
330
2
100
AcDbEntity
  8
CENTER
100
AcDbLine
 10
-45.3455150358899
 20
45.50416416352859
 30
0.0
 11
-44.29551503588989
 21
45.50416416352859
 31
0.0
  0
LINE
  5
BC
330
2
100
AcDbEntity
  8
CENTER
100
AcDbLine
 10
-47.14551503588991
 20
42.6541641635286
 30
0.0
 11
-47.14551503588991
 21
43.70416416352862
 31
0.0
  0
LINE
  5
BD
330
2
100
AcDbEntity
  8
CENTER
100
AcDbLine
 10
-47.14551503588991
 20
47.30416416352861
 30
0.0
 11
-47.14551503588991
 21
48.35416416352861
 31
0.0
  0
LINE
  5
BE
330
2
100
AcDbEntity
  8
CENTER
100
AcDbLine
 10
-21.7455150358899
 20
19.90416416352861
 30
0.0
 11
-21.7455150358899
 21
23.30416416352861
 31
0.0
  0
LINE
  5
BF
330
2
100
AcDbEntity
  8
CENTER
100
AcDbLine
 10
43.93789895990948
 20
141.7491081093684
 30
0.0
 11
45.93789895990949
 21
141.7491081093684
 31
0.0
  0
LINE
  5
C0
330
2
100
AcDbEntity
  8
CENTER
100
AcDbLine
 10
44.93789895990949
 20
140.7491081093684
 30
0.0
 11
44.93789895990949
 21
142.7491081093684
 31
0.0
  0
LINE
  5
C1
330
2
100
AcDbEntity
  8
CENTER
100
AcDbLine
 10
36.3378989599095
 20
141.7491081093684
 30
0.0
 11
43.13789895990947
 21
141.7491081093684
 31
0.0
  0
LINE
  5
C2
330
2
100
AcDbEntity
  8
CENTER
100
AcDbLine
 10
46.7378989599095
 20
141.7491081093684
 30
0.0
 11
53.53789895990948
 21
141.7491081093684
 31
0.0
  0
LINE
  5
C3
330
2
100
AcDbEntity
  8
CENTER
100
AcDbLine
 10
44.93789895990949
 20
133.1491081093684
 30
0.0
 11
44.93789895990949
 21
139.9491081093684
 31
0.0
  0
LINE
  5
C4
330
2
100
AcDbEntity
  8
CENTER
100
AcDbLine
 10
44.93789895990949
 20
143.5491081093684
 30
0.0
 11
44.93789895990949
 21
150.3491081093684
 31
0.0
  0
LINE
  5
C5
330
2
100
AcDbEntity
  8
CENTER
100
AcDbLine
 10
38.93789895990949
 20
152.7491081093684
 30
0.0
 11
40.93789895990949
 21
152.7491081093684
 31
0.0
  0
LINE
  5
C6
330
2
100
AcDbEntity
  8
CENTER
100
AcDbLine
 10
39.93789895990949
 20
151.7491081093684
 30
0.0
 11
39.93789895990949
 21
153.7491081093684
 31
0.0
  0
LINE
  5
C7
330
2
100
AcDbEntity
  8
CENTER
100
AcDbLine
 10
37.18789895990949
 20
152.7491081093684
 30
0.0
 11
38.13789895990948
 21
152.7491081093684
 31
0.0
  0
LINE
  5
C8
330
2
100
AcDbEntity
  8
CENTER
100
AcDbLine
 10
41.7378989599095
 20
152.7491081093684
 30
0.0
 11
42.68789895990948
 21
152.7491081093684
 31
0.0
  0
LINE
  5
C9
330
2
100
AcDbEntity
  8
CENTER
100
AcDbLine
 10
39.93789895990949
 20
149.9991081093684
 30
0.0
 11
39.93789895990949
 21
150.9491081093684
 31
0.0
  0
LINE
  5
CA
330
2
100
AcDbEntity
  8
CENTER
100
AcDbLine
 10
39.93789895990949
 20
154.5491081093684
 30
0.0
 11
39.93789895990949
 21
155.4991081093684
 31
0.0
  0
LINE
  5
CB
330
2
100
AcDbEntity
  8
CENTER
100
AcDbLine
 10
48.93789895990948
 20
130.7491081093684
 30
0.0
 11
50.93789895990949
 21
130.7491081093684
 31
0.0
  0
LINE
  5
CC
330
2
100
AcDbEntity
  8
CENTER
100
AcDbLine
 10
49.93789895990949
 20
129.7491081093684
 30
0.0
 11
49.93789895990949
 21
131.7491081093684
 31
0.0
  0
LINE
  5
CD
330
2
100
AcDbEntity
  8
CENTER
100
AcDbLine
 10
47.18789895990949
 20
130.7491081093684
 30
0.0
 11
48.13789895990947
 21
130.7491081093684
 31
0.0
  0
LINE
  5
CE
330
2
100
AcDbEntity
  8
CENTER
100
AcDbLine
 10
51.7378989599095
 20
130.7491081093684
 30
0.0
 11
52.68789895990948
 21
130.7491081093684
 31
0.0
  0
LINE
  5
CF
330
2
100
AcDbEntity
  8
CENTER
100
AcDbLine
 10
49.93789895990949
 20
127.9991081093684
 30
0.0
 11
49.93789895990949
 21
128.9491081093684
 31
0.0
  0
LINE
  5
D0
330
2
100
AcDbEntity
  8
CENTER
100
AcDbLine
 10
49.93789895990949
 20
132.5491081093684
 30
0.0
 11
49.93789895990949
 21
133.4991081093684
 31
0.0
  0
DIMENSION
  5
D1
330
2
100
AcDbEntity
  8
DIM
100
AcDbDimension
  2
*D2
 10
-5.487366243364135
 20
25.5041641635286
 30
0.0
 11
-7.787366243364139
 21
35.5041641635286
 31
0.0
 70
    32
  1
<>
 71
     5
 42
20.0
  3
STANDARD
100
AcDbAlignedDimension
 13
-31.4955150358899
 23
45.5041641635286
 33
0.0
 14
-31.4955150358899
 24
25.50416416352861
 34
0.0
 50
90.0
100
AcDbRotatedDimension
1001
GENIUS_GENDTOL_13
1000

1000
lc3
1000

1040
0.0
  0
DIMENSION
  5
DE
330
2
100
AcDbEntity
  8
DIM
100
AcDbDimension
  2
*D3
 10
-34.2455150358899
 20
56.00739192546129
 30
0.0
 11
-24.2455150358899
 21
58.30739192546128
 31
0.0
 70
    32
  1
<>
 71
     5
 42
20.0
  3
STANDARD
100
AcDbAlignedDimension
 13
-14.24551503588989
 23
49.50416416352859
 33
0.0
 14
-34.2455150358899
 24
48.25416416352861
 34
0.0
 50
180.0
100
AcDbRotatedDimension
1001
GENIUS_GENDTOL_13
1000

1000
lc3
1000

1040
0.0
  0
DIMENSION
  5
EB
330
2
100
AcDbEntity
  8
DIM
100
AcDbDimension
  2
*D4
 10
-30.2455150358899
 20
76.45431221335272
 30
0.0
 11
-22.2455150358899
 21
78.75431221335272
 31
0.0
 70
    32
  1
<>
 71
     5
 42
16.0
  3
STANDARD
100
AcDbAlignedDimension
 13
-14.24551503588989
 23
81.5487593329407
 33
0.0
 14
-30.2455150358899
 24
81.6987593329407
 34
0.0
 50
0.0000000000001018
100
AcDbRotatedDimension
1001
GENIUS_GENDTOL_13
1000

1000
lc3
1000

1040
0.0
  0
DIMENSION
  5
F8
330
2
100
AcDbEntity
  8
DIM
100
AcDbDimension
  2
*D5
 10
-3.699886905275548
 20
84.44875933294071
 30
0.0
 11
-5.999886905275561
 21
89.5487593329407
 31
0.0
 70
    32
  1
<>
 71
     5
 42
10.19999999999999
  3
STANDARD
100
AcDbAlignedDimension
 13
-27.49551503588989
 23
94.6487593329407
 33
0.0
 14
-27.49551503588989
 24
84.44875933294071
 34
0.0
 50
90.0
100
AcDbRotatedDimension
1001
GENIUS_GENDTOL_13
1000

1000
lc3
1000

1040
0.0
  0
DIMENSION
  5
105
330
2
100
AcDbEntity
  8
DIM
100
AcDbDimension
  2
*D6
 10
64.68789895990949
 20
152.7491081093683
 30
0.0
 11
62.38789895990947
 21
141.7491081093684
 31
0.0
 70
    32
  1
<>
 71
     5
 42
22.0
  3
STANDARD
100
AcDbAlignedDimension
 13
52.68789895990948
 23
130.7491081093684
 33
0.0
 14
42.68789895990948
 24
152.7491081093684
 34
0.0
 50
90.0
100
AcDbRotatedDimension
1001
GENIUS_GENDTOL_13
1000

1000
lc3
1000

1040
0.0
  0
DIMENSION
  5
112
330
2
100
AcDbEntity
  8
DIM
100
AcDbDimension
  2
*D7
 10
39.93789895990949
 20
115.9991081093684
 30
0.0
 11
44.93789895990949
 21
118.2991081093684
 31
0.0
 70
    32
  1
<>
 71
     5
 42
10.0
  3
STANDARD
100
AcDbAlignedDimension
 13
49.93789895990949
 23
127.9991081093684
 33
0.0
 14
39.93789895990949
 24
149.9991081093684
 34
0.0
 50
0.0000000000001018
100
AcDbRotatedDimension
1001
GENIUS_GENDTOL_13
1000

1000
lc3
1000

1040
0.0
  0
DIMENSION
  5
11F
330
2
100
AcDbEntity
  8
DIM
100
AcDbDimension
  2
*D8
 10
-2.245515035889894
 20
155.7491081093684
 30
0.0
 11
-4.54551503588992
 21
141.7491081093684
 31
0.0
 70
    32
  1
<>
 71
     5
 42
28.0
  3
STANDARD
100
AcDbAlignedDimension
 13
-14.24551503588989
 23
127.7491081093684
 33
0.0
 14
-14.24551503588989
 24
155.7491081093684
 34
0.0
 50
90.0
100
AcDbRotatedDimension
1001
GENIUS_GENDTOL_13
1000

1000
lc3
1000

1040
0.0
  0
DIMENSION
  5
12C
330
2
100
AcDbEntity
  8
DIM
100
AcDbDimension
  2
*D9
 10
-5.1455150358899
 20
206.469989564752
 30
0.0
 11
-7.445515035889934
 21
201.369989564752
 31
0.0
 70
    32
  1
<>
 71
     5
 42
10.19999999999999
  3
STANDARD
100
AcDbAlignedDimension
 13
-33.1455150358899
 23
196.269989564752
 33
0.0
 14
-17.1455150358899
 24
206.469989564752
 34
0.0
 50
90.0
100
AcDbRotatedDimension
1001
GENIUS_GENDTOL_13
1000

1000
lc3
1000

1040
0.0
  0
DIMENSION
  5
139
330
2
100
AcDbEntity
  8
DIM
100
AcDbDimension
  2
*D10
 10
-21.7455150358899
 20
223.069989564752
 30
0.0
 11
-31.68837217874704
 21
225.369989564752
 31
0.0
 70
    32
  1
<>
 71
     5
 42
7.5
  3
STANDARD
100
AcDbAlignedDimension
 13
-14.24551503588989
 23
209.369989564752
 33
0.0
 14
-21.7455150358899
 24
211.069989564752
 34
0.0
 50
180.0
100
AcDbRotatedDimension
1001
GENIUS_GENDTOL_13
1000

1000
lc3
1000

1040
0.0
  0
DIMENSION
  5
148
330
2
100
AcDbEntity
  8
DIM
100
AcDbDimension
  2
*D11
 10
-37.2455150358899
 20
179.669989554752
 30
0.0
 11
-25.7455150358899
 21
181.969989554752
 31
0.0
 70
    32
  1
<>
 71
     5
 42
23.0
  3
STANDARD
100
AcDbAlignedDimension
 13
-14.24551503588989
 23
193.369989564752
 33
0.0
 14
-37.2455150358899
 24
191.669989564752
 34
0.0
 50
0.0000000000001018
100
AcDbRotatedDimension
1001
GENIUS_GENDTOL_13
1000

1000
lc3
1000

1040
0.0
  0
LINE
  5
155
330
2
100
AcDbEntity
  8
0
100
AcDbLine
 10
-14.24551503588989
 20
155.2491081093683
 30
0.0
 11
-14.24551503588989
 21
155.7491081093683
 31
0.0
  0
LINE
  5
157
330
2
100
AcDbEntity
  8
0
100
AcDbLine
 10
-14.24551503588989
 20
128.2491081093683
 30
0.0
 11
-14.24551503588989
 21
155.2491081093683
 31
0.0
  0
LINE
  5
158
330
2
100
AcDbEntity
  8
0
100
AcDbLine
 10
-14.24551503588989
 20
127.7491081093683
 30
0.0
 11
-14.24551503588989
 21
128.2491081093683
 31
0.0
  0
CIRCLE
  5
159
330
2
100
AcDbEntity
  8
0
100
AcDbCircle
 10
-47.14551503588991
 20
151.7491081093683
 30
0.0
 40
1.25
  0
CIRCLE
  5
15A
330
2
100
AcDbEntity
  8
0
100
AcDbCircle
 10
-47.14551503588991
 20
131.7491081093683
 30
0.0
 40
1.25
  0
LINE
  5
15B
330
2
100
AcDbEntity
  8
0
100
AcDbLine
 10
-36.2488520811803
 20
155.5491081093683
 30
0.0
 11
-39.24217799059946
 21
155.5491081093683
 31
0.0
  0
ARC
  5
15C
330
2
100
AcDbEntity
  8
0
100
AcDbCircle
 10
-37.7455150358899
 20
158.1491081093683
 30
0.0
 40
3.0
100
AcDbArc
 50
233.1301023541559
 51
240.0735651333858
  0
ARC
  5
15D
330
2
100
AcDbEntity
  8
0
100
AcDbCircle
 10
-37.7455150358899
 20
158.1491081093683
 30
0.0
 40
3.0
100
AcDbArc
 50
299.9264348666143
 51
306.8698976458442
  0
LINE
  5
15E
330
2
100
AcDbEntity
  8
0
100
AcDbLine
 10
-39.54551503588988
 20
155.7491081093683
 30
0.0
 11
-35.94551503588986
 21
155.7491081093683
 31
0.0
  0
LINE
  5
15F
330
2
100
AcDbEntity
  8
0
100
AcDbLine
 10
-14.24551503588989
 20
155.7491081093683
 30
0.0
 11
-35.94551503588988
 21
155.7491081093683
 31
0.0
  0
LINE
  5
160
330
2
100
AcDbEntity
  8
0
100
AcDbLine
 10
-39.54551503588991
 20
155.7491081093683
 30
0.0
 11
-53.24551503588988
 21
155.7491081093683
 31
0.0
  0
LINE
  5
161
330
2
100
AcDbEntity
  8
0
100
AcDbLine
 10
-53.24551503588988
 20
155.7491081093683
 30
0.0
 11
-53.24551503588988
 21
155.2491081093683
 31
0.0
  0
LINE
  5
162
330
2
100
AcDbEntity
  8
0
100
AcDbLine
 10
-53.24551503588988
 20
155.2491081093683
 30
0.0
 11
-14.24551503588989
 21
155.2491081093683
 31
0.0
  0
LINE
  5
163
330
2
100
AcDbEntity
  8
0
100
AcDbLine
 10
-14.24551503588989
 20
128.2491081093683
 30
0.0
 11
-53.24551503588988
 21
128.2491081093683
 31
0.0
  0
LINE
  5
164
330
2
100
AcDbEntity
  8
0
100
AcDbLine
 10
-53.24551503588988
 20
128.2491081093683
 30
0.0
 11
-53.24551503588988
 21
127.7491081093683
 31
0.0
  0
LINE
  5
165
330
2
100
AcDbEntity
  8
0
100
AcDbLine
 10
-53.24551503588988
 20
127.7491081093683
 30
0.0
 11
-14.24551503588989
 21
127.7491081093683
 31
0.0
  0
LINE
  5
166
330
2
100
AcDbEntity
  8
0
100
AcDbLine
 10
-53.24551503588988
 20
128.2491081093683
 30
0.0
 11
-53.24551503588988
 21
155.2491081093683
 31
0.0
  0
CIRCLE
  5
167
330
2
100
AcDbEntity
  8
0
100
AcDbCircle
 10
-47.14551503588991
 20
151.7491081093683
 30
0.0
 40
0.9499999999999998
  0
CIRCLE
  5
168
330
2
100
AcDbEntity
  8
0
100
AcDbCircle
 10
-47.14551503588991
 20
131.7491081093684
 30
0.0
 40
0.9499999999999998
  0
LINE
  5
169
330
2
100
AcDbEntity
  8
0
100
AcDbLine
 10
-53.24551503588988
 20
150.7954077321729
 30
0.0
 11
-68.55996791386117
 21
154.8989030133498
 31
0.0
  0
LINE
  5
16A
330
2
100
AcDbEntity
  8
0
100
AcDbLine
 10
-68.55996791386115
 20
128.5993132053867
 30
0.0
 11
-53.24551503588988
 21
132.7028084865636
 31
0.0
  0
LINE
  5
16B
330
2
100
AcDbEntity
  8
0
100
AcDbLine
 10
-67.26587268834858
 20
159.7285321447951
 30
0.0
 11
-52.41446000327484
 21
155.7491081093683
 31
0.0
  0
LINE
  5
16C
330
2
100
AcDbEntity
  8
0
100
AcDbLine
 10
-68.55996791386117
 20
154.8989030133498
 30
0.0
 11
-67.26587268834858
 21
159.7285321447951
 31
0.0
  0
LINE
  5
16D
330
2
100
AcDbEntity
  8
0
100
AcDbLine
 10
-52.41446000327456
 20
127.7491081093683
 30
0.0
 11
-67.26587268834852
 21
123.7696840739414
 31
0.0
  0
LINE
  5
16E
330
2
100
AcDbEntity
  8
0
100
AcDbLine
 10
-67.26587268834852
 20
123.7696840739414
 30
0.0
 11
-68.55996791386115
 21
128.5993132053867
 31
0.0
  0
LINE
  5
16F
330
2
100
AcDbEntity
  8
0
100
AcDbLine
 10
-42.74551503588988
 20
199.419989564752
 30
0.0
 11
-42.74551503588988
 21
197.819989564752
 31
0.0
  0
LINE
  5
170
330
2
100
AcDbEntity
  8
0
100
AcDbLine
 10
-42.74551503588988
 20
199.419989564752
 30
0.0
 11
-42.74551503588988
 21
199.619989564752
 31
0.0
  0
LINE
  5
171
330
2
100
AcDbEntity
  8
0
100
AcDbLine
 10
-42.74551503588988
 20
203.119989564752
 30
0.0
 11
-42.74551503588988
 21
199.619989564752
 31
0.0
  0
LINE
  5
172
330
2
100
AcDbEntity
  8
0
100
AcDbLine
 10
-42.74551503588988
 20
203.119989564752
 30
0.0
 11
-42.74551503588988
 21
203.319989564752
 31
0.0
  0
LINE
  5
173
330
2
100
AcDbEntity
  8
0
100
AcDbLine
 10
-42.74551503588988
 20
204.919989564752
 30
0.0
 11
-42.74551503588988
 21
203.319989564752
 31
0.0
  0
LINE
  5
174
330
2
100
AcDbEntity
  8
0
100
AcDbLine
 10
-14.24551503588989
 20
193.369989564752
 30
0.0
 11
-14.24551503588989
 21
193.869989564752
 31
0.0
  0
LINE
  5
175
330
2
100
AcDbEntity
  8
0
100
AcDbLine
 10
-14.24551503588989
 20
208.869989564752
 30
0.0
 11
-14.24551503588989
 21
209.369989564752
 31
0.0
  0
LINE
  5
176
330
2
100
AcDbEntity
  8
0
100
AcDbLine
 10
-14.24551503588989
 20
203.319989564752
 30
0.0
 11
-14.24551503588989
 21
208.869989564752
 31
0.0
  0
LINE
  5
177
330
2
100
AcDbEntity
  8
0
100
AcDbLine
 10
-14.24551503588989
 20
203.319989564752
 30
0.0
 11
-14.24551503588989
 21
203.119989564752
 31
0.0
  0
LINE
  5
178
330
2
100
AcDbEntity
  8
0
100
AcDbLine
 10
-14.24551503588989
 20
203.119989564752
 30
0.0
 11
-14.24551503588989
 21
199.619989564752
 31
0.0
  0
LINE
  5
179
330
2
100
AcDbEntity
  8
0
100
AcDbLine
 10
-14.24551503588989
 20
199.619989564752
 30
0.0
 11
-14.24551503588989
 21
199.419989564752
 31
0.0
  0
LINE
  5
17A
330
2
100
AcDbEntity
  8
0
100
AcDbLine
 10
-14.24551503588989
 20
193.869989564752
 30
0.0
 11
-14.24551503588989
 21
199.419989564752
 31
0.0
  0
CIRCLE
  5
17B
330
2
100
AcDbEntity
  8
0
100
AcDbCircle
 10
-47.14551503588991
 20
207.119989564752
 30
0.0
 40
1.024999999999999
  0
CIRCLE
  5
17C
330
2
100
AcDbEntity
  8
0
100
AcDbCircle
 10
-47.14551503588991
 20
195.619989564752
 30
0.0
 40
1.024999999999999
  0
CIRCLE
  5
17D
330
2
100
AcDbEntity
  8
0
100
AcDbCircle
 10
-37.2455150358899
 20
196.269989564752
 30
0.0
 40
0.5
  0
LINE
  5
17E
330
2
100
AcDbEntity
  8
0
100
AcDbLine
 10
-35.7488520811803
 20
193.669989564752
 30
0.0
 11
-38.74217799059946
 21
193.669989564752
 31
0.0
  0
CIRCLE
  5
17F
330
2
100
AcDbEntity
  8
0
100
AcDbCircle
 10
-37.2455150358899
 20
196.269989564752
 30
0.0
 40
1.149999999999999
  0
ARC
  5
180
330
2
100
AcDbEntity
  8
0
100
AcDbCircle
 10
-37.2455150358899
 20
196.269989564752
 30
0.0
 40
3.0
100
AcDbArc
 50
233.1301023541559
 51
240.0735651333857
  0
ARC
  5
181
330
2
100
AcDbEntity
  8
0
100
AcDbCircle
 10
-37.2455150358899
 20
196.269989564752
 30
0.0
 40
3.0
100
AcDbArc
 50
299.9264348666143
 51
306.8698976458442
  0
ARC
  5
182
330
2
100
AcDbEntity
  8
0
100
AcDbCircle
 10
-37.2455150358899
 20
196.269989564752
 30
0.0
 40
3.0
100
AcDbArc
 50
306.8698976458433
 51
233.1301023541559
  0
LINE
  5
183
330
2
100
AcDbEntity
  8
0
100
AcDbLine
 10
-14.24551503588989
 20
193.869989564752
 30
0.0
 11
-35.44551503588989
 21
193.869989564752
 31
0.0
  0
LINE
  5
184
330
2
100
AcDbEntity
  8
0
100
AcDbLine
 10
-42.74551503588988
 20
197.819989564752
 30
0.0
 11
-52.41446000327484
 21
197.819989564752
 31
0.0
  0
LINE
  5
185
330
2
100
AcDbEntity
  8
0
100
AcDbLine
 10
-53.24551503588988
 20
193.869989564752
 30
0.0
 11
-53.24551503588988
 21
197.769989564752
 31
0.0
  0
LINE
  5
186
330
2
100
AcDbEntity
  8
0
100
AcDbLine
 10
-39.0455150358899
 20
193.869989564752
 30
0.0
 11
-53.24551503588988
 21
193.869989564752
 31
0.0
  0
CIRCLE
  5
187
330
2
100
AcDbEntity
  8
0
100
AcDbCircle
 10
-21.7455150358899
 20
206.469989564752
 30
0.0
 40
1.149999999999999
  0
LINE
  5
188
330
2
100
AcDbEntity
  8
0
100
AcDbLine
 10
-23.24217799059946
 20
209.069989564752
 30
0.0
 11
-20.24885208118033
 21
209.069989564752
 31
0.0
  0
CIRCLE
  5
189
330
2
100
AcDbEntity
  8
0
100
AcDbCircle
 10
-21.7455150358899
 20
206.469989564752
 30
0.0
 40
0.5
  0
ARC
  5
18A
330
2
100
AcDbEntity
  8
0
100
AcDbCircle
 10
-21.7455150358899
 20
206.469989564752
 30
0.0
 40
3.0
100
AcDbArc
 50
119.926434866614
 51
126.8698976458438
  0
ARC
  5
18B
330
2
100
AcDbEntity
  8
0
100
AcDbCircle
 10
-21.7455150358899
 20
206.469989564752
 30
0.0
 40
3.0
100
AcDbArc
 50
126.869897645843
 51
53.13010235415621
  0
ARC
  5
18C
330
2
100
AcDbEntity
  8
0
100
AcDbCircle
 10
-21.7455150358899
 20
206.469989564752
 30
0.0
 40
3.0
100
AcDbArc
 50
53.13010235415621
 51
60.07356513338608
  0
LINE
  5
18D
330
2
100
AcDbEntity
  8
0
100
AcDbLine
 10
-19.94551503588991
 20
208.869989564752
 30
0.0
 11
-14.24551503588989
 21
208.869989564752
 31
0.0
  0
LINE
  5
18E
330
2
100
AcDbEntity
  8
0
100
AcDbLine
 10
-14.24551503588989
 20
209.369989564752
 30
0.0
 11
-53.24551503588988
 21
209.369989564752
 31
0.0
  0
LINE
  5
18F
330
2
100
AcDbEntity
  8
0
100
AcDbLine
 10
-53.24551503588988
 20
209.369989564752
 30
0.0
 11
-53.24551503588988
 21
208.869989564752
 31
0.0
  0
LINE
  5
190
330
2
100
AcDbEntity
  8
0
100
AcDbLine
 10
-53.24551503588988
 20
208.869989564752
 30
0.0
 11
-23.54551503588988
 21
208.869989564752
 31
0.0
  0
LINE
  5
191
330
2
100
AcDbEntity
  8
0
100
AcDbLine
 10
-53.24551503588988
 20
204.919989564752
 30
0.0
 11
-42.74551503588988
 21
204.919989564752
 31
0.0
  0
LINE
  5
192
330
2
100
AcDbEntity
  8
0
100
AcDbLine
 10
-53.24551503588988
 20
204.919989564752
 30
0.0
 11
-53.24551503588988
 21
208.869989564752
 31
0.0
  0
LINE
  5
193
330
2
100
AcDbEntity
  8
0
100
AcDbLine
 10
-42.74551503588988
 20
203.119989564752
 30
0.0
 11
-14.24551503588989
 21
203.119989564752
 31
0.0
  0
LINE
  5
194
330
2
100
AcDbEntity
  8
0
100
AcDbLine
 10
-53.24551503588988
 20
193.869989564752
 30
0.0
 11
-53.24551503588988
 21
193.369989564752
 31
0.0
  0
LINE
  5
195
330
2
100
AcDbEntity
  8
0
100
AcDbLine
 10
-53.24551503588988
 20
193.369989564752
 30
0.0
 11
-14.24551503588989
 21
193.369989564752
 31
0.0
  0
LINE
  5
196
330
2
100
AcDbEntity
  8
0
100
AcDbLine
 10
-14.24551503588989
 20
199.619989564752
 30
0.0
 11
-42.74551503588988
 21
199.619989564752
 31
0.0
  0
LINE
  5
197
330
2
100
AcDbEntity
  8
0
100
AcDbLine
 10
-21.7455150358899
 20
205.969989564752
 30
0.0
 11
-21.7455150358899
 21
206.969989564752
 31
0.0
  0
LINE
  5
198
330
2
100
AcDbEntity
  8
0
100
AcDbLine
 10
-21.44551503588991
 20
206.869989564752
 30
0.0
 11
-21.44551503588991
 21
206.069989564752
 31
0.0
  0
ELLIPSE
  5
199
330
2
100
AcDbEntity
  8
0
100
AcDbEllipse
 10
-58.57254025174691
 20
201.319989564752
 30
0.0
 11
0.0
 21
1.149999999999999
 31
0.0
210
0.0
220
0.0
230
1.0
 40
0.965925826289067
 41
1.614288297584913
 42
2.519793828834442
  0
ELLIPSE
  5
19A
330
2
100
AcDbEntity
  8
0
100
AcDbEllipse
 10
-58.57254025174697
 20
201.269989564752
 30
0.0
 11
0.0
 21
-1.15
 31
0.0
210
0.0
220
0.0
230
1.0
 40
0.9659258262890693
 41
0.0000000000000002
 42
6.283185307179586
  0
ELLIPSE
  5
19B
330
2
100
AcDbEntity
  8
0
100
AcDbEllipse
 10
-59.86663547725953
 20
201.319989564752
 30
0.0
 11
0.0
 21
-1.149999999999999
 31
0.0
210
0.0
220
0.0
230
1.0
 40
0.965925826289067
 41
0.5849946118221278
 42
1.527304356004879
  0
ELLIPSE
  5
19C
330
2
100
AcDbEntity
  8
0
100
AcDbEllipse
 10
-59.86663547725957
 20
201.269989564752
 30
0.0
 11
0.0
 21
1.15
 31
0.0
210
0.0
220
0.0
230
1.0
 40
0.9659258262890693
 41
3.763391478345124
 42
5.661386482424261
  0
ELLIPSE
  5
19D
330
2
100
AcDbEntity
  8
0
100
AcDbEllipse
 10
-64.36809520948131
 20
201.319989564752
 30
0.0
 11
0.0
 21
1.149999999999999
 31
0.0
210
0.0
220
0.0
230
1.0
 40
0.965925826289067
 41
1.614288297584913
 42
2.519793828834442
  0
ELLIPSE
  5
19E
330
2
100
AcDbEntity
  8
0
100
AcDbEllipse
 10
-64.36809520948139
 20
201.269989564752
 30
0.0
 11
0.0
 21
-1.15
 31
0.0
210
0.0
220
0.0
230
1.0
 40
0.9659258262890693
 41
0.0000000000000002
 42
6.283185307179586
  0
ELLIPSE
  5
19F
330
2
100
AcDbEntity
  8
0
100
AcDbEllipse
 10
-65.66219043499394
 20
201.319989564752
 30
0.0
 11
0.0
 21
-1.149999999999999
 31
0.0
210
0.0
220
0.0
230
1.0
 40
0.965925826289067
 41
0.5849946118221131
 42
1.527304356004879
  0
ELLIPSE
  5
1A0
330
2
100
AcDbEntity
  8
0
100
AcDbEllipse
 10
-65.66219043499398
 20
201.269989564752
 30
0.0
 11
0.0
 21
1.15
 31
0.0
210
0.0
220
0.0
230
1.0
 40
0.9659258262890693
 41
3.763391478345124
 42
5.661386482424259
  0
LINE
  5
1A1
330
2
100
AcDbEntity
  8
0
100
AcDbLine
 10
-51.11324387222772
 20
204.819989564752
 30
0.0
 11
-51.65626595380247
 21
204.819989564752
 31
0.0
  0
LINE
  5
1A2
330
2
100
AcDbEntity
  8
0
100
AcDbLine
 10
-51.65626595380247
 20
204.819989564752
 30
0.0
 11
-68.55996791386111
 21
204.819989564752
 31
0.0
  0
LINE
  5
1A3
330
2
100
AcDbEntity
  8
0
100
AcDbLine
 10
-68.55996791386115
 20
204.819989564752
 30
0.0
 11
-68.55996791386115
 21
204.769989564752
 31
0.0
  0
LINE
  5
1A4
330
2
100
AcDbEntity
  8
0
100
AcDbLine
 10
-68.55996791386117
 20
197.769989564752
 30
0.0
 11
-68.55996791386117
 21
204.769989564752
 31
0.0
  0
LINE
  5
1A5
330
2
100
AcDbEntity
  8
0
100
AcDbLine
 10
-44.44599952055445
 20
204.769989564752
 30
0.0
 11
-45.43594901421563
 21
204.769989564752
 31
0.0
  0
LINE
  5
1A6
330
2
100
AcDbEntity
  8
0
100
AcDbLine
 10
-45.43594901421563
 20
204.769989564752
 30
0.0
 11
-45.43594901421563
 21
197.819989564752
 31
0.0
  0
LINE
  5
1A7
330
2
100
AcDbEntity
  8
0
100
AcDbLine
 10
-44.44599952055445
 20
204.819989564752
 30
0.0
 11
-44.44599952055445
 21
204.769989564752
 31
0.0
  0
LINE
  5
1A8
330
2
100
AcDbEntity
  8
0
100
AcDbLine
 10
-44.44599952055445
 20
197.819989564752
 30
0.0
 11
-44.44599952055445
 21
204.769989564752
 31
0.0
  0
LINE
  5
1A9
330
2
100
AcDbEntity
  8
0
100
AcDbLine
 10
-67.26587268834858
 20
197.769989564752
 30
0.0
 11
-52.41446000327484
 21
197.769989564752
 31
0.0
  0
LINE
  5
1AA
330
2
100
AcDbEntity
  8
0
100
AcDbLine
 10
-68.55996791386117
 20
197.769989564752
 30
0.0
 11
-67.26587268834858
 21
197.769989564752
 31
0.0
  0
LINE
  5
1AB
330
2
100
AcDbEntity
  8
0
100
AcDbLine
 10
-51.11324387222772
 20
204.819989564752
 30
0.0
 11
-48.39551503588991
 21
204.819989564752
 31
0.0
  0
LINE
  5
1AC
330
2
100
AcDbEntity
  8
0
100
AcDbLine
 10
-44.44599952055445
 20
204.819989564752
 30
0.0
 11
-45.89551503588991
 21
204.819989564752
 31
0.0
  0
LINE
  5
1AD
330
2
100
AcDbEntity
  8
0
100
AcDbLine
 10
-45.43594901421563
 20
204.769989564752
 30
0.0
 11
-67.26587268834858
 21
204.769989564752
 31
0.0
  0
LINE
  5
1AE
330
2
100
AcDbEntity
  8
0
100
AcDbLine
 10
-67.26587268834858
 20
197.769989564752
 30
0.0
 11
-67.26587268834858
 21
204.769989564752
 31
0.0
  0
LINE
  5
1AF
330
2
100
AcDbEntity
  8
0
100
AcDbLine
 10
-51.11324387222772
 20
204.769989564752
 30
0.0
 11
-51.11324387222772
 21
204.819989564752
 31
0.0
  0
LINE
  5
1B0
330
2
100
AcDbEntity
  8
0
100
AcDbLine
 10
-67.26587268834858
 20
204.769989564752
 30
0.0
 11
-68.55996791386117
 21
204.769989564752
 31
0.0
  0
LINE
  5
1B1
330
2
100
AcDbEntity
  8
0
100
AcDbLine
 10
-46.77014003588989
 20
196.2701581366431
 30
0.0
 11
-47.52089003588993
 21
196.2701581366431
 31
0.0
  0
LINE
  5
1B2
330
2
100
AcDbEntity
  8
0
100
AcDbLine
 10
-46.77014003588989
 20
207.7701581366432
 30
0.0
 11
-47.52089003588993
 21
207.7701581366432
 31
0.0
  0
LINE
  5
1B3
330
2
100
AcDbEntity
  8
0
100
AcDbLine
 10
-46.39476503588987
 20
195.619989564752
 30
0.0
 11
-46.77014003588989
 21
196.2701581366431
 31
0.0
  0
LINE
  5
1B4
330
2
100
AcDbEntity
  8
0
100
AcDbLine
 10
-46.39476503588987
 20
207.119989564752
 30
0.0
 11
-46.77014003588989
 21
207.7701581366432
 31
0.0
  0
LINE
  5
1B5
330
2
100
AcDbEntity
  8
0
100
AcDbLine
 10
-46.77014003588989
 20
194.9698209928607
 30
0.0
 11
-46.39476503588987
 21
195.619989564752
 31
0.0
  0
LINE
  5
1B6
330
2
100
AcDbEntity
  8
0
100
AcDbLine
 10
-46.77014003588989
 20
206.4698209928608
 30
0.0
 11
-46.39476503588987
 21
207.119989564752
 31
0.0
  0
LINE
  5
1B7
330
2
100
AcDbEntity
  8
0
100
AcDbLine
 10
-47.52089003588993
 20
194.9698209928607
 30
0.0
 11
-46.77014003588989
 21
194.9698209928607
 31
0.0
  0
LINE
  5
1B8
330
2
100
AcDbEntity
  8
0
100
AcDbLine
 10
-47.52089003588993
 20
206.4698209928608
 30
0.0
 11
-46.77014003588989
 21
206.4698209928608
 31
0.0
  0
LINE
  5
1B9
330
2
100
AcDbEntity
  8
0
100
AcDbLine
 10
-47.89626503588995
 20
195.619989564752
 30
0.0
 11
-47.52089003588993
 21
194.9698209928607
 31
0.0
  0
LINE
  5
1BA
330
2
100
AcDbEntity
  8
0
100
AcDbLine
 10
-47.89626503588995
 20
207.119989564752
 30
0.0
 11
-47.52089003588993
 21
206.4698209928607
 31
0.0
  0
LINE
  5
1BB
330
2
100
AcDbEntity
  8
0
100
AcDbLine
 10
-47.52089003588993
 20
196.2701581366431
 30
0.0
 11
-47.89626503588995
 21
195.619989564752
 31
0.0
  0
LINE
  5
1BC
330
2
100
AcDbEntity
  8
0
100
AcDbLine
 10
-47.52089003588993
 20
207.7701581366432
 30
0.0
 11
-47.89626503588995
 21
207.119989564752
 31
0.0
  0
CIRCLE
  5
1BD
330
2
100
AcDbEntity
  8
0
100
AcDbCircle
 10
-47.14551503588991
 20
195.619989564752
 30
0.0
 40
0.9740000000000605
  0
CIRCLE
  5
1BE
330
2
100
AcDbEntity
  8
0
100
AcDbCircle
 10
-47.14551503588991
 20
207.119989564752
 30
0.0
 40
0.9740000000000605
  0
LINE
  5
1BF
330
2
100
AcDbEntity
  8
0
100
AcDbLine
 10
-42.74551503588988
 20
198.369989564752
 30
0.0
 11
-44.44599952055445
 21
198.369989564752
 31
0.0
  0
LINE
  5
1C0
330
2
100
AcDbEntity
  8
0
100
AcDbLine
 10
-42.74551503588988
 20
204.369989564752
 30
0.0
 11
-44.44599952055445
 21
204.369989564752
 31
0.0
  0
LINE
  5
1C1
330
2
100
AcDbEntity
  8
0
100
AcDbLine
 10
-48.39551503588991
 20
204.769989564752
 30
0.0
 11
-48.39551503588991
 21
204.919989564752
 31
0.0
  0
LINE
  5
1C2
330
2
100
AcDbEntity
  8
0
100
AcDbLine
 10
-45.89551503588991
 20
204.769989564752
 30
0.0
 11
-45.89551503588991
 21
204.919989564752
 31
0.0
  0
LINE
  5
1C3
330
2
100
AcDbEntity
  8
0
100
AcDbLine
 10
-42.74551503588988
 20
91.29875933294078
 30
0.0
 11
-42.74551503588988
 21
91.49875933294078
 31
0.0
  0
LINE
  5
1C4
330
2
100
AcDbEntity
  8
0
100
AcDbLine
 10
-42.74551503588988
 20
93.09875933294069
 30
0.0
 11
-42.74551503588988
 21
91.49875933294078
 31
0.0
  0
LINE
  5
1C5
330
2
100
AcDbEntity
  8
0
100
AcDbLine
 10
-42.74551503588988
 20
87.59875933294077
 30
0.0
 11
-42.74551503588988
 21
85.9987593329407
 31
0.0
  0
LINE
  5
1C6
330
2
100
AcDbEntity
  8
0
100
AcDbLine
 10
-42.74551503588988
 20
87.59875933294077
 30
0.0
 11
-42.74551503588988
 21
87.79875933294079
 31
0.0
  0
LINE
  5
1C7
330
2
100
AcDbEntity
  8
0
100
AcDbLine
 10
-42.74551503588988
 20
91.29875933294078
 30
0.0
 11
-42.74551503588988
 21
87.79875933294079
 31
0.0
  0
LINE
  5
1C8
330
2
100
AcDbEntity
  8
0
100
AcDbLine
 10
-14.24551503588989
 20
97.0487593329407
 30
0.0
 11
-14.24551503588989
 21
97.54875933294071
 31
0.0
  0
LINE
  5
1C9
330
2
100
AcDbEntity
  8
0
100
AcDbLine
 10
-14.24551503588989
 20
91.49875933294078
 30
0.0
 11
-14.24551503588989
 21
97.04875933294069
 31
0.0
  0
LINE
  5
1CA
330
2
100
AcDbEntity
  8
0
100
AcDbLine
 10
-14.24551503588989
 20
91.49875933294078
 30
0.0
 11
-14.24551503588989
 21
91.29875933294078
 31
0.0
  0
LINE
  5
1CB
330
2
100
AcDbEntity
  8
0
100
AcDbLine
 10
-14.24551503588989
 20
91.29875933294078
 30
0.0
 11
-14.24551503588989
 21
87.79875933294079
 31
0.0
  0
LINE
  5
1CC
330
2
100
AcDbEntity
  8
0
100
AcDbLine
 10
-14.24551503588989
 20
87.79875933294079
 30
0.0
 11
-14.24551503588989
 21
87.59875933294077
 31
0.0
  0
LINE
  5
1CD
330
2
100
AcDbEntity
  8
0
100
AcDbLine
 10
-14.24551503588989
 20
82.0487593329407
 30
0.0
 11
-14.24551503588989
 21
87.59875933294081
 31
0.0
  0
LINE
  5
1CE
330
2
100
AcDbEntity
  8
0
100
AcDbLine
 10
-14.24551503588989
 20
81.5487593329407
 30
0.0
 11
-14.24551503588989
 21
82.0487593329407
 31
0.0
  0
CIRCLE
  5
1CF
330
2
100
AcDbEntity
  8
0
100
AcDbCircle
 10
-47.14551503588991
 20
95.2987593329407
 30
0.0
 40
1.024999999999999
  0
CIRCLE
  5
1D0
330
2
100
AcDbEntity
  8
0
100
AcDbCircle
 10
-47.14551503588991
 20
83.79875933294071
 30
0.0
 40
1.024999999999999
  0
CIRCLE
  5
1D1
330
2
100
AcDbEntity
  8
0
100
AcDbCircle
 10
-30.2455150358899
 20
94.6487593329407
 30
0.0
 40
1.149999999999999
  0
CIRCLE
  5
1D2
330
2
100
AcDbEntity
  8
0
100
AcDbCircle
 10
-30.2455150358899
 20
84.44875933294069
 30
0.0
 40
1.149999999999999
  0
LINE
  5
1D3
330
2
100
AcDbEntity
  8
0
100
AcDbLine
 10
-42.74551503588988
 20
85.9987593329407
 30
0.0
 11
-53.24551503588988
 21
85.9987593329407
 31
0.0
  0
LINE
  5
1D4
330
2
100
AcDbEntity
  8
0
100
AcDbLine
 10
-52.41446000327456
 20
93.09875933294069
 30
0.0
 11
-42.74551503588988
 21
93.09875933294069
 31
0.0
  0
LINE
  5
1D5
330
2
100
AcDbEntity
  8
0
100
AcDbLine
 10
-14.24551503588989
 20
87.79875933294079
 30
0.0
 11
-42.74551503588988
 21
87.79875933294079
 31
0.0
  0
LINE
  5
1D6
330
2
100
AcDbEntity
  8
0
100
AcDbLine
 10
-53.24551503588988
 20
82.0487593329407
 30
0.0
 11
-53.24551503588988
 21
85.9987593329407
 31
0.0
  0
LINE
  5
1D7
330
2
100
AcDbEntity
  8
0
100
AcDbLine
 10
-14.24551503588989
 20
82.0487593329407
 30
0.0
 11
-53.24551503588988
 21
82.0487593329407
 31
0.0
  0
LINE
  5
1D8
330
2
100
AcDbEntity
  8
0
100
AcDbLine
 10
-53.24551503588988
 20
82.0487593329407
 30
0.0
 11
-53.24551503588988
 21
81.5487593329407
 31
0.0
  0
LINE
  5
1D9
330
2
100
AcDbEntity
  8
0
100
AcDbLine
 10
-53.24551503588988
 20
81.5487593329407
 30
0.0
 11
-14.24551503588989
 21
81.5487593329407
 31
0.0
  0
LINE
  5
1DA
330
2
100
AcDbEntity
  8
0
100
AcDbLine
 10
-14.24551503588989
 20
97.54875933294071
 30
0.0
 11
-53.24551503588988
 21
97.54875933294071
 31
0.0
  0
LINE
  5
1DB
330
2
100
AcDbEntity
  8
0
100
AcDbLine
 10
-53.24551503588988
 20
97.54875933294071
 30
0.0
 11
-53.24551503588988
 21
97.0487593329407
 31
0.0
  0
LINE
  5
1DC
330
2
100
AcDbEntity
  8
0
100
AcDbLine
 10
-53.24551503588988
 20
97.0487593329407
 30
0.0
 11
-14.24551503588989
 21
97.0487593329407
 31
0.0
  0
LINE
  5
1DD
330
2
100
AcDbEntity
  8
0
100
AcDbLine
 10
-42.74551503588988
 20
91.29875933294078
 30
0.0
 11
-14.24551503588989
 21
91.29875933294078
 31
0.0
  0
LINE
  5
1DE
330
2
100
AcDbEntity
  8
0
100
AcDbLine
 10
-53.24551503588988
 20
93.09875933294069
 30
0.0
 11
-53.24551503588988
 21
97.0487593329407
 31
0.0
  0
ELLIPSE
  5
1DF
330
2
100
AcDbEntity
  8
0
100
AcDbEllipse
 10
-58.57254025174691
 20
89.59875933294069
 30
0.0
 11
0.0
 21
-1.149999999999999
 31
0.0
210
0.0
220
0.0
230
1.0
 40
0.965925826289067
 41
0.0000000000000002
 42
6.283185307179586
  0
ELLIPSE
  5
1E0
330
2
100
AcDbEntity
  8
0
100
AcDbEllipse
 10
-58.57254025174697
 20
89.6487593329407
 30
0.0
 11
0.0
 21
1.15
 31
0.0
210
0.0
220
0.0
230
1.0
 40
0.9659258262890693
 41
1.57079632679501
 42
2.519793828834461
  0
ELLIPSE
  5
1E1
330
2
100
AcDbEntity
  8
0
100
AcDbEllipse
 10
-59.86663547725953
 20
89.59875933294069
 30
0.0
 11
0.0
 21
1.149999999999999
 31
0.0
210
0.0
220
0.0
230
1.0
 40
0.965925826289067
 41
3.763391478345159
 42
5.661386482424226
  0
ELLIPSE
  5
1E2
330
2
100
AcDbEntity
  8
0
100
AcDbEllipse
 10
-59.86663547725957
 20
89.6487593329407
 30
0.0
 11
0.0
 21
-1.15
 31
0.0
210
0.0
220
0.0
230
1.0
 40
0.9659258262890693
 41
0.5849946118221644
 42
1.570796326794785
  0
ELLIPSE
  5
1E3
330
2
100
AcDbEntity
  8
0
100
AcDbEllipse
 10
-64.36809520948131
 20
89.59875933294069
 30
0.0
 11
0.0
 21
-1.149999999999999
 31
0.0
210
0.0
220
0.0
230
1.0
 40
0.965925826289067
 41
0.0000000000000002
 42
6.283185307179586
  0
ELLIPSE
  5
1E4
330
2
100
AcDbEntity
  8
0
100
AcDbEllipse
 10
-64.36809520948139
 20
89.6487593329407
 30
0.0
 11
0.0
 21
1.15
 31
0.0
210
0.0
220
0.0
230
1.0
 40
0.9659258262890693
 41
1.57079632679501
 42
2.519793828834468
  0
ELLIPSE
  5
1E5
330
2
100
AcDbEntity
  8
0
100
AcDbEllipse
 10
-65.66219043499394
 20
89.59875933294069
 30
0.0
 11
0.0
 21
1.149999999999999
 31
0.0
210
0.0
220
0.0
230
1.0
 40
0.965925826289067
 41
3.763391478345142
 42
5.661386482424235
  0
ELLIPSE
  5
1E6
330
2
100
AcDbEntity
  8
0
100
AcDbEllipse
 10
-65.66219043499398
 20
89.6487593329407
 30
0.0
 11
0.0
 21
-1.15
 31
0.0
210
0.0
220
0.0
230
1.0
 40
0.9659258262890693
 41
0.5849946118221716
 42
1.570796326794782
  0
LINE
  5
1E7
330
2
100
AcDbEntity
  8
0
100
AcDbLine
 10
-53.24551503588988
 20
93.1487593329407
 30
0.0
 11
-68.55996791386117
 21
93.1487593329407
 31
0.0
  0
LINE
  5
1E8
330
2
100
AcDbEntity
  8
0
100
AcDbLine
 10
-68.55996791386115
 20
86.09875933294068
 30
0.0
 11
-68.55996791386115
 21
93.09875933294069
 31
0.0
  0
LINE
  5
1E9
330
2
100
AcDbEntity
  8
0
100
AcDbLine
 10
-68.55996791386117
 20
93.1487593329407
 30
0.0
 11
-68.55996791386117
 21
93.09875933294069
 31
0.0
  0
LINE
  5
1EA
330
2
100
AcDbEntity
  8
0
100
AcDbLine
 10
-45.43594901421558
 20
93.09875933294069
 30
0.0
 11
-45.43594901421558
 21
86.09875933294068
 31
0.0
  0
LINE
  5
1EB
330
2
100
AcDbEntity
  8
0
100
AcDbLine
 10
-45.43594901421563
 20
86.09875933294068
 30
0.0
 11
-44.44599952055445
 21
86.09875933294068
 31
0.0
  0
LINE
  5
1EC
330
2
100
AcDbEntity
  8
0
100
AcDbLine
 10
-44.44599952055445
 20
86.09875933294068
 30
0.0
 11
-44.44599952055445
 21
93.09875933294069
 31
0.0
  0
LINE
  5
1ED
330
2
100
AcDbEntity
  8
0
100
AcDbLine
 10
-67.26587268834852
 20
86.09875933294068
 30
0.0
 11
-45.43594901421563
 21
86.09875933294068
 31
0.0
  0
LINE
  5
1EE
330
2
100
AcDbEntity
  8
0
100
AcDbLine
 10
-68.55996791386111
 20
86.09875933294068
 30
0.0
 11
-67.26587268834852
 21
86.09875933294068
 31
0.0
  0
LINE
  5
1EF
330
2
100
AcDbEntity
  8
0
100
AcDbLine
 10
-52.41446000327456
 20
93.09875933294069
 30
0.0
 11
-67.26587268834852
 21
93.09875933294069
 31
0.0
  0
LINE
  5
1F0
330
2
100
AcDbEntity
  8
0
100
AcDbLine
 10
-67.26587268834852
 20
86.09875933294068
 30
0.0
 11
-67.26587268834852
 21
93.09875933294069
 31
0.0
  0
LINE
  5
1F1
330
2
100
AcDbEntity
  8
0
100
AcDbLine
 10
-67.26587268834852
 20
93.09875933294069
 30
0.0
 11
-68.55996791386115
 21
93.09875933294069
 31
0.0
  0
LINE
  5
1F2
330
2
100
AcDbEntity
  8
0
100
AcDbLine
 10
-46.77014003588989
 20
95.94892790483186
 30
0.0
 11
-47.52089003588993
 21
95.94892790483186
 31
0.0
  0
LINE
  5
1F3
330
2
100
AcDbEntity
  8
0
100
AcDbLine
 10
-46.77014003588989
 20
84.44892790483185
 30
0.0
 11
-47.52089003588993
 21
84.44892790483185
 31
0.0
  0
LINE
  5
1F4
330
2
100
AcDbEntity
  8
0
100
AcDbLine
 10
-46.39476503588987
 20
95.29875933294068
 30
0.0
 11
-46.77014003588989
 21
95.94892790483186
 31
0.0
  0
LINE
  5
1F5
330
2
100
AcDbEntity
  8
0
100
AcDbLine
 10
-46.39476503588987
 20
83.79875933294067
 30
0.0
 11
-46.77014003588989
 21
84.44892790483185
 31
0.0
  0
LINE
  5
1F6
330
2
100
AcDbEntity
  8
0
100
AcDbLine
 10
-46.77014003588989
 20
94.64859076104946
 30
0.0
 11
-46.39476503588987
 21
95.29875933294068
 31
0.0
  0
LINE
  5
1F7
330
2
100
AcDbEntity
  8
0
100
AcDbLine
 10
-46.77014003588989
 20
83.14859076104946
 30
0.0
 11
-46.39476503588987
 21
83.79875933294064
 31
0.0
  0
LINE
  5
1F8
330
2
100
AcDbEntity
  8
0
100
AcDbLine
 10
-47.52089003588993
 20
94.64859076104946
 30
0.0
 11
-46.77014003588989
 21
94.64859076104946
 31
0.0
  0
LINE
  5
1F9
330
2
100
AcDbEntity
  8
0
100
AcDbLine
 10
-47.52089003588993
 20
83.14859076104946
 30
0.0
 11
-46.77014003588989
 21
83.14859076104946
 31
0.0
  0
LINE
  5
1FA
330
2
100
AcDbEntity
  8
0
100
AcDbLine
 10
-47.89626503588995
 20
95.29875933294068
 30
0.0
 11
-47.52089003588993
 21
94.64859076104946
 31
0.0
  0
LINE
  5
1FB
330
2
100
AcDbEntity
  8
0
100
AcDbLine
 10
-47.89626503588995
 20
83.79875933294067
 30
0.0
 11
-47.52089003588993
 21
83.14859076104946
 31
0.0
  0
LINE
  5
1FC
330
2
100
AcDbEntity
  8
0
100
AcDbLine
 10
-47.52089003588993
 20
95.94892790483186
 30
0.0
 11
-47.89626503588995
 21
95.29875933294068
 31
0.0
  0
LINE
  5
1FD
330
2
100
AcDbEntity
  8
0
100
AcDbLine
 10
-47.52089003588993
 20
84.44892790483185
 30
0.0
 11
-47.89626503588995
 21
83.79875933294067
 31
0.0
  0
CIRCLE
  5
1FE
330
2
100
AcDbEntity
  8
0
100
AcDbCircle
 10
-47.14551503588991
 20
95.2987593329407
 30
0.0
 40
0.9740000000000605
  0
CIRCLE
  5
1FF
330
2
100
AcDbEntity
  8
0
100
AcDbCircle
 10
-47.14551503588991
 20
83.79875933294071
 30
0.0
 40
0.9740000000000605
  0
LINE
  5
200
330
2
100
AcDbEntity
  8
0
100
AcDbLine
 10
-42.74551503588988
 20
86.5487593329407
 30
0.0
 11
-44.44599952055445
 21
86.5487593329407
 31
0.0
  0
LINE
  5
201
330
2
100
AcDbEntity
  8
0
100
AcDbLine
 10
-42.74551503588988
 20
92.54875933294071
 30
0.0
 11
-44.44599952055445
 21
92.54875933294071
 31
0.0
  0
LINE
  5
202
330
2
100
AcDbEntity
  8
0
100
AcDbLine
 10
-45.89551503588991
 20
86.09875933294068
 30
0.0
 11
-45.89551503588991
 21
85.9987593329407
 31
0.0
  0
LINE
  5
203
330
2
100
AcDbEntity
  8
0
100
AcDbLine
 10
-48.39551503588991
 20
86.09875933294068
 30
0.0
 11
-48.39551503588991
 21
85.9987593329407
 31
0.0
  0
CIRCLE
  5
204
330
2
100
AcDbEntity
  8
0
100
AcDbCircle
 10
44.93789895990949
 20
141.7491081093683
 30
0.0
 40
7.0
  0
CIRCLE
  5
205
330
2
100
AcDbEntity
  8
0
100
AcDbCircle
 10
44.93789895990949
 20
141.7491081093683
 30
0.0
 40
7.299999999999998
  0
LINE
  5
206
330
2
100
AcDbEntity
  8
0
100
AcDbLine
 10
36.93789895990949
 20
155.2491081093683
 30
0.0
 11
37.43789895990949
 21
155.7491081093683
 31
0.0
  0
LINE
  5
207
330
2
100
AcDbEntity
  8
0
100
AcDbLine
 10
36.93789895990949
 20
128.2491081093683
 30
0.0
 11
36.93789895990949
 21
155.2491081093683
 31
0.0
  0
LINE
  5
208
330
2
100
AcDbEntity
  8
0
100
AcDbLine
 10
37.43789895990949
 20
127.7491081093683
 30
0.0
 11
36.93789895990949
 21
128.2491081093683
 31
0.0
  0
LINE
  5
209
330
2
100
AcDbEntity
  8
0
100
AcDbLine
 10
42.98789895990942
 20
127.7491081093683
 30
0.0
 11
37.43789895990949
 21
127.7491081093683
 31
0.0
  0
ARC
  5
20A
330
2
100
AcDbEntity
  8
0
100
AcDbCircle
 10
42.98789895990942
 20
127.9491081093684
 30
0.0
 40
0.2
100
AcDbArc
 50
269.999999999999
 51
0.0
  0
LINE
  5
20B
330
2
100
AcDbEntity
  8
0
100
AcDbLine
 10
43.1878989599094
 20
127.9491081093684
 30
0.0
 11
43.1878989599094
 21
129.2491081093684
 31
0.0
  0
ARC
  5
20C
330
2
100
AcDbEntity
  8
0
100
AcDbCircle
 10
42.98789895990942
 20
129.2491081093684
 30
0.0
 40
0.2
100
AcDbArc
 50
0.0
 51
90.0
  0
LINE
  5
20D
330
2
100
AcDbEntity
  8
0
100
AcDbLine
 10
42.98789895990942
 20
129.4491081093684
 30
0.0
 11
42.78789895990942
 21
129.4491081093684
 31
0.0
  0
LINE
  5
20E
330
2
100
AcDbEntity
  8
0
100
AcDbLine
 10
42.78789895990939
 20
129.4491081093684
 30
0.0
 11
42.78789895990942
 21
133.7491081093684
 31
0.0
  0
LINE
  5
20F
330
2
100
AcDbEntity
  8
0
100
AcDbLine
 10
42.78789895990946
 20
133.7491081093684
 30
0.0
 11
47.08789895990946
 21
133.7491081093683
 31
0.0
  0
LINE
  5
210
330
2
100
AcDbEntity
  8
0
100
AcDbLine
 10
47.08789895990943
 20
133.7491081093683
 30
0.0
 11
47.08789895990941
 21
129.4491081093684
 31
0.0
  0
LINE
  5
211
330
2
100
AcDbEntity
  8
0
100
AcDbLine
 10
47.08789895990941
 20
129.4491081093683
 30
0.0
 11
46.88789895990942
 21
129.4491081093683
 31
0.0
  0
ARC
  5
212
330
2
100
AcDbEntity
  8
0
100
AcDbCircle
 10
46.88789895990942
 20
129.2491081093683
 30
0.0
 40
0.2
100
AcDbArc
 50
89.99999999999898
 51
180.0
  0
LINE
  5
213
330
2
100
AcDbEntity
  8
0
100
AcDbLine
 10
46.6878989599094
 20
129.2491081093683
 30
0.0
 11
46.6878989599094
 21
127.9491081093684
 31
0.0
  0
ARC
  5
214
330
2
100
AcDbEntity
  8
0
100
AcDbCircle
 10
46.88789895990939
 20
127.9491081093684
 30
0.0
 40
0.2
100
AcDbArc
 50
180.0
 51
270.000000000001
  0
LINE
  5
215
330
2
100
AcDbEntity
  8
0
100
AcDbLine
 10
52.43789895990949
 20
127.7491081093683
 30
0.0
 11
46.88789895990939
 21
127.7491081093683
 31
0.0
  0
LINE
  5
216
330
2
100
AcDbEntity
  8
0
100
AcDbLine
 10
52.93789895990949
 20
128.2491081093683
 30
0.0
 11
52.43789895990949
 21
127.7491081093683
 31
0.0
  0
LINE
  5
217
330
2
100
AcDbEntity
  8
0
100
AcDbLine
 10
52.93789895990949
 20
155.2491081093683
 30
0.0
 11
52.93789895990949
 21
128.2491081093683
 31
0.0
  0
LINE
  5
218
330
2
100
AcDbEntity
  8
0
100
AcDbLine
 10
52.43789895990949
 20
155.7491081093683
 30
0.0
 11
52.93789895990949
 21
155.2491081093683
 31
0.0
  0
LINE
  5
219
330
2
100
AcDbEntity
  8
0
100
AcDbLine
 10
46.8878989599095
 20
155.7491081093683
 30
0.0
 11
52.43789895990949
 21
155.7491081093683
 31
0.0
  0
ARC
  5
21A
330
2
100
AcDbEntity
  8
0
100
AcDbCircle
 10
46.8878989599095
 20
155.5491081093683
 30
0.0
 40
0.2
100
AcDbArc
 50
90.0
 51
180.000000000001
  0
LINE
  5
21B
330
2
100
AcDbEntity
  8
0
100
AcDbLine
 10
46.68789895990949
 20
155.5491081093683
 30
0.0
 11
46.68789895990949
 21
154.2491081093684
 31
0.0
  0
ARC
  5
21C
330
2
100
AcDbEntity
  8
0
100
AcDbCircle
 10
46.8878989599095
 20
154.2491081093683
 30
0.0
 40
0.2
100
AcDbArc
 50
180.0
 51
269.999999999999
  0
LINE
  5
21D
330
2
100
AcDbEntity
  8
0
100
AcDbLine
 10
46.8878989599095
 20
154.0491081093684
 30
0.0
 11
47.08789895990949
 21
154.0491081093684
 31
0.0
  0
LINE
  5
21E
330
2
100
AcDbEntity
  8
0
100
AcDbLine
 10
47.08789895990949
 20
154.0491081093684
 30
0.0
 11
47.08789895990949
 21
149.7491081093684
 31
0.0
  0
LINE
  5
21F
330
2
100
AcDbEntity
  8
0
100
AcDbLine
 10
47.08789895990949
 20
149.7491081093683
 30
0.0
 11
42.78789895990951
 21
149.7491081093683
 31
0.0
  0
LINE
  5
220
330
2
100
AcDbEntity
  8
0
100
AcDbLine
 10
42.78789895990951
 20
149.7491081093683
 30
0.0
 11
42.78789895990951
 21
154.0491081093683
 31
0.0
  0
LINE
  5
221
330
2
100
AcDbEntity
  8
0
100
AcDbLine
 10
42.78789895990951
 20
154.0491081093684
 30
0.0
 11
42.9878989599095
 21
154.0491081093684
 31
0.0
  0
ARC
  5
222
330
2
100
AcDbEntity
  8
0
100
AcDbCircle
 10
42.9878989599095
 20
154.2491081093683
 30
0.0
 40
0.2
100
AcDbArc
 50
270.000000000001
 51
0.0000000000010392
  0
LINE
  5
223
330
2
100
AcDbEntity
  8
0
100
AcDbLine
 10
43.18789895990948
 20
154.2491081093683
 30
0.0
 11
43.18789895990948
 21
155.5491081093683
 31
0.0
  0
ARC
  5
224
330
2
100
AcDbEntity
  8
0
100
AcDbCircle
 10
42.9878989599095
 20
155.5491081093683
 30
0.0
 40
0.2
100
AcDbArc
 50
359.999999999999
 51
89.99999999999896
  0
LINE
  5
225
330
2
100
AcDbEntity
  8
0
100
AcDbLine
 10
37.43789895990949
 20
155.7491081093683
 30
0.0
 11
42.9878989599095
 21
155.7491081093683
 31
0.0
  0
CIRCLE
  5
226
330
2
100
AcDbEntity
  8
0
100
AcDbCircle
 10
39.93789895990949
 20
152.7491081093683
 30
0.0
 40
1.149999999999999
  0
CIRCLE
  5
227
330
2
100
AcDbEntity
  8
0
100
AcDbCircle
 10
49.93789895990949
 20
130.7491081093683
 30
0.0
 40
1.149999999999999
  0
ARC
  5
228
330
2
100
AcDbEntity
  8
0
100
AcDbCircle
 10
44.93789895990949
 20
141.7491081093683
 30
0.0
 40
6.799999999999999
100
AcDbArc
 50
338.6905821923546
 51
0.000000000001199
  0
ARC
  5
229
330
2
100
AcDbEntity
  8
0
100
AcDbCircle
 10
44.93789895990949
 20
141.7491081093683
 30
0.0
 40
6.799999999999999
100
AcDbArc
 50
0.0000000000003997
 51
21.30941780764547
  0
ELLIPSE
  5
22A
330
2
100
AcDbEntity
  8
0
100
AcDbEllipse
 10
44.8878989599095
 20
126.0990554798641
 30
0.0
 11
1.149999999999999
 21
0.0000000000000003
 31
0.0
210
0.0
220
0.0
230
1.0
 40
0.258819045102526
 41
-0.0000000000000006
 42
6.283185307179585
  0
ELLIPSE
  5
22B
330
2
100
AcDbEntity
  8
0
100
AcDbEllipse
 10
44.83789895990949
 20
157.3991607388725
 30
0.0
 11
-1.15
 21
-0.0000000000000001
 31
0.0
210
0.0
220
0.0
230
1.0
 40
0.2588190451025174
 41
0.0000000000000002
 42
6.283185307179585
  0
ELLIPSE
  5
22C
330
2
100
AcDbEntity
  8
0
100
AcDbEllipse
 10
44.8878989599095
 20
124.546141209249
 30
0.0
 11
1.149999999999999
 21
0.0000000000000003
 31
0.0
210
0.0
220
0.0
230
1.0
 40
0.258819045102526
 41
-0.0000000000000006
 42
6.283185307179585
  0
ELLIPSE
  5
22D
330
2
100
AcDbEntity
  8
0
100
AcDbEllipse
 10
44.83789895990949
 20
158.9520750094876
 30
0.0
 11
-1.15
 21
-0.0000000000000001
 31
0.0
210
0.0
220
0.0
230
1.0
 40
0.2588190451025174
 41
0.0000000000000002
 42
6.283185307179585
  0
LINE
  5
22E
330
2
100
AcDbEntity
  8
0
100
AcDbLine
 10
42.78789895990942
 20
129.6189944932585
 30
0.0
 11
47.08789895990941
 21
129.6189944932585
 31
0.0
  0
LINE
  5
22F
330
2
100
AcDbEntity
  8
0
100
AcDbLine
 10
47.08789895990949
 20
153.8792217254782
 30
0.0
 11
42.78789895990948
 21
153.8792217254782
 31
0.0
  0
LINE
  5
230
330
2
100
AcDbEntity
  8
0
100
AcDbLine
 10
47.08789895990943
 20
131.3336373132067
 30
0.0
 11
42.78789895990942
 21
131.3336373132067
 31
0.0
  0
LINE
  5
231
330
2
100
AcDbEntity
  8
0
100
AcDbLine
 10
42.78789895990951
 20
152.16457890553
 30
0.0
 11
47.08789895990952
 21
152.16457890553
 31
0.0
  0
LINE
  5
232
330
2
100
AcDbEntity
  8
0
100
AcDbLine
 10
48.3878989599095
 20
123.7696840739414
 30
0.0
 11
48.3878989599095
 21
127.7491081093683
 31
0.0
  0
LINE
  5
233
330
2
100
AcDbEntity
  8
0
100
AcDbLine
 10
41.3378989599095
 20
159.7285321447951
 30
0.0
 11
41.3378989599095
 21
155.7491081093683
 31
0.0
  0
LINE
  5
234
330
2
100
AcDbEntity
  8
0
100
AcDbLine
 10
41.3878989599095
 20
127.7491081093683
 30
0.0
 11
41.3878989599095
 21
123.7696840739414
 31
0.0
  0
LINE
  5
235
330
2
100
AcDbEntity
  8
0
100
AcDbLine
 10
48.3378989599095
 20
155.7491081093683
 30
0.0
 11
48.3378989599095
 21
159.7285321447951
 31
0.0
  0
LINE
  5
236
330
2
100
AcDbEntity
  8
0
100
AcDbLine
 10
48.3878989599095
 20
123.7696840739414
 30
0.0
 11
41.3878989599095
 21
123.7696840739414
 31
0.0
  0
LINE
  5
237
330
2
100
AcDbEntity
  8
0
100
AcDbLine
 10
41.3378989599095
 20
159.7285321447951
 30
0.0
 11
48.3378989599095
 21
159.7285321447951
 31
0.0
  0
LINE
  5
238
330
2
100
AcDbEntity
  8
0
100
AcDbLine
 10
51.30300464008659
 20
144.2311081093683
 30
0.0
 11
49.35696228538112
 21
143.5275388783329
 31
0.0
  0
ARC
  5
239
330
2
100
AcDbEntity
  8
0
100
AcDbCircle
 10
48.77896228538111
 20
145.1262621189221
 30
0.0
 40
1.7
100
AcDbArc
 50
168.2779976523554
 51
289.8768740700798
  0
ARC
  5
23A
330
2
100
AcDbEntity
  8
0
100
AcDbCircle
 10
45.44986974308298
 20
145.8170173902123
 30
0.0
 40
1.7
100
AcDbArc
 50
348.2779976523549
 51
82.82669820456648
  0
ARC
  5
23B
330
2
100
AcDbEntity
  8
0
100
AcDbCircle
 10
44.93789895990949
 20
141.7491081093683
 30
0.0
 40
5.80000000000001
100
AcDbArc
 50
82.82669820456664
 51
277.1733017954346
  0
ARC
  5
23C
330
2
100
AcDbEntity
  8
0
100
AcDbCircle
 10
45.44986974308301
 20
137.6811988285243
 30
0.0
 40
1.7
100
AcDbArc
 50
277.173301795434
 51
11.72200234764413
  0
ARC
  5
23D
330
2
100
AcDbEntity
  8
0
100
AcDbCircle
 10
48.77896228538111
 20
138.3719540998145
 30
0.0
 40
1.7
100
AcDbArc
 50
70.12312592992114
 51
191.7220023476441
  0
LINE
  5
23E
330
2
100
AcDbEntity
  8
0
100
AcDbLine
 10
49.35696228538112
 20
139.9706773404037
 30
0.0
 11
51.30300464008661
 21
139.2671081093683
 31
0.0
  0
ARC
  5
23F
330
2
100
AcDbEntity
  8
0
100
AcDbCircle
 10
44.43789895990948
 20
141.7491081093683
 30
0.0
 40
7.299999999999998
100
AcDbArc
 50
308.4563186417005
 51
340.1231259299217
  0
ARC
  5
240
330
2
100
AcDbEntity
  8
0
100
AcDbCircle
 10
44.43789895990948
 20
141.7491081093683
 30
0.0
 40
7.299999999999998
100
AcDbArc
 50
19.87687407007887
 51
51.54368135830028
  0
CIRCLE
  5
241
330
2
100
AcDbEntity
  8
0
100
AcDbCircle
 10
48.77896228538111
 20
145.1262621189221
 30
0.0
 40
0.85
  0
CIRCLE
  5
242
330
2
100
AcDbEntity
  8
0
100
AcDbCircle
 10
48.77896228538111
 20
138.3719540998145
 30
0.0
 40
0.85
  0
LINE
  5
243
330
2
100
AcDbEntity
  8
0
100
AcDbLine
 10
-14.24551503588989
 20
49.0041641635286
 30
0.0
 11
-14.24551503588989
 21
49.5041641635286
 31
0.0
  0
LINE
  5
244
330
2
100
AcDbEntity
  8
0
100
AcDbLine
 10
-14.24551503588989
 20
22.00416416352861
 30
0.0
 11
-14.24551503588989
 21
49.0041641635286
 31
0.0
  0
LINE
  5
245
330
2
100
AcDbEntity
  8
0
100
AcDbLine
 10
-14.24551503588989
 20
21.50416416352861
 30
0.0
 11
-14.24551503588989
 21
22.00416416352861
 31
0.0
  0
CIRCLE
  5
246
330
2
100
AcDbEntity
  8
0
100
AcDbCircle
 10
-34.2455150358899
 20
45.50416416352859
 30
0.0
 40
1.149999999999999
  0
CIRCLE
  5
247
330
2
100
AcDbEntity
  8
0
100
AcDbCircle
 10
-34.2455150358899
 20
25.50416416352861
 30
0.0
 40
1.149999999999999
  0
CIRCLE
  5
248
330
2
100
AcDbEntity
  8
0
100
AcDbCircle
 10
-47.14551503588991
 20
25.50416416352861
 30
0.0
 40
1.25
  0
CIRCLE
  5
249
330
2
100
AcDbEntity
  8
0
100
AcDbCircle
 10
-47.14551503588991
 20
45.50416416352859
 30
0.0
 40
1.25
  0
LINE
  5
24A
330
2
100
AcDbEntity
  8
0
100
AcDbLine
 10
-23.24217799059946
 20
21.70416416352861
 30
0.0
 11
-20.24885208118033
 21
21.70416416352861
 31
0.0
  0
ARC
  5
24B
330
2
100
AcDbEntity
  8
0
100
AcDbCircle
 10
-21.7455150358899
 20
19.10416416352861
 30
0.0
 40
3.0
100
AcDbArc
 50
119.926434866614
 51
126.8698976458438
  0
LINE
  5
24C
330
2
100
AcDbEntity
  8
0
100
AcDbLine
 10
-19.94551503588991
 20
21.50416416352861
 30
0.0
 11
-23.54551503588991
 21
21.50416416352861
 31
0.0
  0
ARC
  5
24D
330
2
100
AcDbEntity
  8
0
100
AcDbCircle
 10
-21.7455150358899
 20
19.10416416352861
 30
0.0
 40
3.0
100
AcDbArc
 50
53.13010235415621
 51
60.07356513338608
  0
LINE
  5
24E
330
2
100
AcDbEntity
  8
0
100
AcDbLine
 10
-19.94551503588991
 20
21.50416416352861
 30
0.0
 11
-14.24551503588989
 21
21.50416416352861
 31
0.0
  0
LINE
  5
24F
330
2
100
AcDbEntity
  8
0
100
AcDbLine
 10
-14.24551503588989
 20
22.00416416352861
 30
0.0
 11
-53.24551503588988
 21
22.00416416352861
 31
0.0
  0
LINE
  5
250
330
2
100
AcDbEntity
  8
0
100
AcDbLine
 10
-53.24551503588988
 20
22.00416416352861
 30
0.0
 11
-53.24551503588988
 21
21.50416416352861
 31
0.0
  0
LINE
  5
251
330
2
100
AcDbEntity
  8
0
100
AcDbLine
 10
-53.24551503588988
 20
21.50416416352861
 30
0.0
 11
-23.54551503588988
 21
21.50416416352861
 31
0.0
  0
LINE
  5
252
330
2
100
AcDbEntity
  8
0
100
AcDbLine
 10
-14.24551503588989
 20
49.5041641635286
 30
0.0
 11
-53.24551503588988
 21
49.5041641635286
 31
0.0
  0
LINE
  5
253
330
2
100
AcDbEntity
  8
0
100
AcDbLine
 10
-53.24551503588988
 20
22.00416416352861
 30
0.0
 11
-53.24551503588988
 21
49.0041641635286
 31
0.0
  0
LINE
  5
254
330
2
100
AcDbEntity
  8
0
100
AcDbLine
 10
-53.24551503588988
 20
49.5041641635286
 30
0.0
 11
-53.24551503588988
 21
49.0041641635286
 31
0.0
  0
LINE
  5
255
330
2
100
AcDbEntity
  8
0
100
AcDbLine
 10
-53.24551503588988
 20
49.0041641635286
 30
0.0
 11
-14.24551503588989
 21
49.0041641635286
 31
0.0
  0
CIRCLE
  5
256
330
2
100
AcDbEntity
  8
0
100
AcDbCircle
 10
-47.14551503588991
 20
25.50416416352861
 30
0.0
 40
0.9499999999999998
  0
CIRCLE
  5
257
330
2
100
AcDbEntity
  8
0
100
AcDbCircle
 10
-47.14551503588991
 20
45.50416416352859
 30
0.0
 40
0.9499999999999998
  0
LINE
  5
258
330
2
100
AcDbEntity
  8
0
100
AcDbLine
 10
-53.24551503588988
 20
44.55046378633328
 30
0.0
 11
-68.55996791386111
 21
48.65395906751024
 31
0.0
  0
LINE
  5
259
330
2
100
AcDbEntity
  8
0
100
AcDbLine
 10
-68.55996791386117
 20
22.35436925954716
 30
0.0
 11
-53.24551503588988
 21
26.457864540724
 31
0.0
  0
LINE
  5
25A
330
2
100
AcDbEntity
  8
0
100
AcDbLine
 10
-67.26587268834852
 20
53.4835881989556
 30
0.0
 11
-52.41446000327456
 21
49.5041641635286
 31
0.0
  0
LINE
  5
25B
330
2
100
AcDbEntity
  8
0
100
AcDbLine
 10
-68.55996791386111
 20
48.65395906751024
 30
0.0
 11
-67.26587268834852
 21
53.4835881989556
 31
0.0
  0
LINE
  5
25C
330
2
100
AcDbEntity
  8
0
100
AcDbLine
 10
-52.41446000327484
 20
21.50416416352861
 30
0.0
 11
-67.26587268834858
 21
17.52474012810182
 31
0.0
  0
LINE
  5
25D
330
2
100
AcDbEntity
  8
0
100
AcDbLine
 10
-67.26587268834858
 20
17.52474012810182
 30
0.0
 11
-68.55996791386117
 21
22.35436925954717
 31
0.0
  0
LEADER
  5
3B6
330
2
100
AcDbEntity
  8
DIM
100
AcDbLeader
  3
STANDARD
 73
     0
 74
     0
 75
     1
 40
4.571428571428571
 41
27.57142857142857
 76
     3
 10
-20.63763993220681
 20
206.8646004345644
 30
0.0
 10
-10.69404224463979
 20
214.6592226205895
 30
0.0
 10
-7.694042244639791
 20
214.6592226205895
 30
0.0
340
3B7
1001
ACAD
1000
DSTYLE
1002
{
1070
     5
1000

1070
   342
1005
0
1002
}
  0
MTEXT
  5
3B7
102
{ACAD_REACTORS
330
3B6
102
}
330
2
100
AcDbEntity
  8
DIM
100
AcDbMText
 10
-6.894042244639791
 20
215.4592226205895
 30
0.0
 40
3.0
 41
0.0
 71
     7
 72
     5
  1
2-M3(PORT)
  7
DAYUS
 73
     1
 44
1.0
1001
ACAD
1000
MTEXTBEGIN
1070
    73
1070
     1
1070
    44
1040
1.0
1070
    74
1070
     0
1000
MTEXTEND
  0
LEADER
  5
3B8
330
2
100
AcDbEntity
  8
DIM
100
AcDbLeader
  3
STANDARD
 73
     0
 74
     0
 75
     1
 40
3.0
 41
12.0
 76
     3
 10
-33.21895148975284
 20
24.41046983432026
 30
0.0
 10
-23.3986175597464
 20
12.36991992848825
 30
0.0
 10
-20.3986175597464
 20
12.36991992848825
 30
0.0
340
3B9
1001
ACAD
1000
DSTYLE
1002
{
1070
     5
1000

1070
   342
1005
0
1002
}
  0
MTEXT
  5
3B9
102
{ACAD_REACTORS
330
3B8
102
}
330
2
100
AcDbEntity
  8
DIM
100
AcDbMText
 10
-19.5986175597464
 20
13.16991992848825
 30
0.0
 40
3.0
 41
0.0
 71
     7
 72
     5
  1
\A1;2-M3
  7
DAYUS
 73
     1
 44
1.0
1001
ACAD
1000
MTEXTBEGIN
1070
    73
1070
     1
1070
    44
1040
1.0
1070
    74
1070
     0
1000
MTEXTEND
  0
LEADER
  5
3BA
330
2
100
AcDbEntity
  8
DIM
100
AcDbLeader
  3
STANDARD
 73
     0
 74
     0
 75
     1
 40
3.0
 41
12.0
 76
     3
 10
50.83264133491488
 20
129.5451828283108
 30
0.0
 10
56.66156641437841
 20
119.4577953879069
 30
0.0
 10
59.66156641437841
 20
119.4577953879069
 30
0.0
340
3BB
1001
ACAD
1000
DSTYLE
1002
{
1070
     5
1000

1070
   342
1005
0
1002
}
  0
MTEXT
  5
3BB
102
{ACAD_REACTORS
330
3BA
102
}
330
2
100
AcDbEntity
  8
DIM
100
AcDbMText
 10
60.46156641437841
 20
120.2577953879069
 30
0.0
 40
3.0
 41
0.0
 71
     7
 72
     5
  1
\A1;2-M3
  7
DAYUS
 73
     1
 44
1.0
1001
ACAD
1000
MTEXTBEGIN
1070
    73
1070
     1
1070
    44
1040
1.0
1070
    74
1070
     0
1000
MTEXTEND
  0
LINE
  5
59E
330
2
100
AcDbEntity
  8
LOGO
 62
     4
100
AcDbLine
 10
-11.62577609555457
 20
-25.53262427209024
 30
0.0
 11
-27.40175117484286
 21
-25.53262427209024
 31
0.0
  0
TEXT
  5
59F
330
2
100
AcDbEntity
  8
LOGO
  6
Continuous
 62
     7
100
AcDbText
 10
-27.27707282634111
 20
-20.23343548641049
 30
0.0
 40
3.599999999999999
  1
MCHA
  7
CHINESET
 72
     4
 11
-20.1627871120554
 21
-18.43343548641049
 31
0.0
100
AcDbText
  0
LINE
  5
5A0
330
2
100
AcDbEntity
  8
LOGO
 62
     4
100
AcDbLine
 10
-11.62577609555457
 20
-34.20941056569882
 30
0.0
 11
-27.40175117484286
 21
-34.20941056569883
 31
0.0
  0
TEXT
  5
5A1
330
2
100
AcDbEntity
  8
LOGO
  6
Continuous
100
AcDbText
 10
-22.21976534948446
 20
-33.12532049328777
 30
0.0
 40
1.775813624999999
  1
Model
 41
0.8
  7
CHINESET
 72
     4
 11
-19.51376363519874
 21
-32.23741368078777
 31
0.0
100
AcDbText
  0
TEXT
  5
5A2
330
2
100
AcDbEntity
  8
LOGO
100
AcDbText
 10
-22.47345301019874
 20
-29.6975245160346
 30
0.0
 40
2.959689374999999
  1
型式
  7
CHINESET
 72
     4
 11
-19.51376363519874
 21
-28.29341991096569
 31
0.0
100
AcDbText
  0
LINE
  5
5A3
330
2
100
AcDbEntity
  8
LOGO
 62
     4
100
AcDbLine
 10
-10.04817858762567
 20
-21.98302987925039
 30
0.0
 11
-30.18269195074045
 21
-21.98302987925039
 31
0.0
  0
LINE
  5
5A4
330
2
100
AcDbEntity
  8
LOGO
 62
     4
100
AcDbLine
 10
-10.04817858762567
 20
-14.88384109357063
 30
0.0
 11
-30.18269195074045
 21
-14.88384109357065
 31
0.0
  0
LINE
  5
5A5
330
2
100
AcDbEntity
  8
LOGO
 62
     4
100
AcDbLine
 10
-19.51376363519874
 20
-21.98302987925039
 30
0.0
 11
-19.51376363519874
 21
-25.53262427209024
 31
0.0
  0
LINE
  5
5A6
330
2
100
AcDbEntity
  8
LOGO
 62
     4
100
AcDbLine
 10
-27.40175117484286
 20
-25.53262427209024
 30
0.0
 11
-27.40175117484286
 21
-34.20941056569883
 31
0.0
  0
LINE
  5
5A7
330
2
100
AcDbEntity
  8
LOGO
 62
     4
100
AcDbLine
 10
-30.18269195074045
 20
-14.88384109357063
 30
0.0
 11
-30.18269195074045
 21
-21.98302987925039
 31
0.0
  0
LINE
  5
5A8
330
2
100
AcDbEntity
  8
LOGO
 62
     4
100
AcDbLine
 10
-11.62577609555457
 20
-25.53262427209024
 30
0.0
 11
-11.62577609555457
 21
-34.20941056569882
 31
0.0
  0
LINE
  5
5AA
330
2
100
AcDbEntity
  8
LOGO
  6
Continuous
 62
     7
100
AcDbLine
 10
-8.82509504997165
 20
-18.45858193502641
 30
0.0
 11
-5.690352320103897
 21
-18.45858193502641
 31
0.0
  0
LINE
  5
5AB
330
2
100
AcDbEntity
  8
LOGO
 62
     4
100
AcDbLine
 10
-10.04817858762563
 20
-14.88384109357063
 30
0.0
 11
-10.04817858762563
 21
-21.98302987925039
 31
0.0
  0
LINE
  5
5B1
330
2
100
AcDbEntity
  8
LOGO
 62
     4
100
AcDbLine
 10
8.201825420150072
 20
-21.98302987925037
 30
0.0
 11
-4.462657262957407
 21
-21.98302987925037
 31
0.0
  0
LINE
  5
5B2
330
2
100
AcDbEntity
  8
LOGO
 62
     4
100
AcDbLine
 10
8.201825420150072
 20
-25.53262427209026
 30
0.0
 11
-4.462657262957407
 21
-25.53262427209026
 31
0.0
  0
LINE
  5
5B3
330
2
100
AcDbEntity
  8
LOGO
 62
     4
100
AcDbLine
 10
8.201825420150072
 20
-14.8838410935706
 30
0.0
 11
-4.462657262957407
 21
-14.88384109357063
 31
0.0
  0
TEXT
  5
5B4
330
2
100
AcDbEntity
  8
LOGO
  6
Continuous
 62
     7
100
AcDbText
 10
-0.3337383060588071
 20
-20.27816062428231
 30
0.0
 40
3.599999999999999
  1
12
  7
CHINESET
 72
     4
 11
2.237690265369764
 21
-18.4781606242823
 31
0.0
100
AcDbText
  0
LINE
  5
5B5
330
2
100
AcDbEntity
  8
LOGO
 62
     4
100
AcDbLine
 10
8.201825420150072
 20
-34.20941056569882
 30
0.0
 11
-4.462657262957407
 21
-34.20941056569885
 31
0.0
  0
TEXT
  5
5B6
330
2
100
AcDbEntity
  8
LOGO
  6
Continuous
100
AcDbText
 10
-0.3290423142607395
 20
-33.1253204932878
 30
0.0
 40
1.775813624999999
  1
Bore
 41
0.8
  7
CHINESET
 72
     4
 11
1.869584078596403
 21
-32.2374136807878
 31
0.0
100
AcDbText
  0
TEXT
  5
5B7
330
2
100
AcDbEntity
  8
LOGO
100
AcDbText
 10
-1.275085882341095
 20
-29.77326459846573
 30
0.0
 40
2.959689374999999
  1
內徑
  7
CHINESET
 72
     4
 11
1.869584078596403
 21
-28.29341991096573
 31
0.0
100
AcDbText
  0
LINE
  5
5B8
330
2
100
AcDbEntity
  8
LOGO
 62
     4
100
AcDbLine
 10
1.869583896711702
 20
-21.98302987925037
 30
0.0
 11
1.869583896711702
 21
-25.53262427209026
 31
0.0
  0
LINE
  5
5BB
330
2
100
AcDbEntity
  8
LOGO
 62
     4
100
AcDbLine
 10
-4.462657262957407
 20
-25.53262427209026
 30
0.0
 11
-4.462657262957407
 21
-34.20941056569882
 31
0.0
  0
LINE
  5
5BD
330
2
100
AcDbEntity
  8
LOGO
 62
     4
100
AcDbLine
 10
-4.462657262957407
 20
-14.88384109357063
 30
0.0
 11
-4.462657262957407
 21
-21.98302987925037
 31
0.0
  0
LINE
  5
5C0
330
2
100
AcDbEntity
  8
LOGO
 62
     4
100
AcDbLine
 10
8.201825420150072
 20
-25.53262427209026
 30
0.0
 11
8.201825420150072
 21
-34.20941056569882
 31
0.0
  0
LINE
  5
5C4
330
2
100
AcDbEntity
  8
LOGO
 62
     4
100
AcDbLine
 10
8.201825420150072
 20
-14.8838410935706
 30
0.0
 11
8.201825420150072
 21
-21.98302987925037
 31
0.0
  0
LWPOLYLINE
  5
5D6
330
2
100
AcDbEntity
  8
LOGO
 62
     4
100
AcDbPolyline
 90
        4
 70
     1
 43
0.0
 10
-113.5887967667872
 20
-12.51744483167739
 10
81.41120323321276
 20
-12.51744483167742
 10
81.41120323321276
 20
-36.19153141321632
 10
-113.5887967667872
 20
-36.19153141321625
1001
GENIUS_GENREC_14
1002
{
1000
PYDIR
1011
-113.5887967667872
1021
-36.19153141321625
1031
0.0
1002
}
1002
{
1000
PXDIR
1011
81.41120323321276
1021
-12.51744483167742
1031
0.0
1002
}
1002
{
1000
PORI
1011
-113.5887967667872
1021
-12.51744483167739
1031
0.0
1002
}
1002
{
1000
PINS
1011
-113.5887967667872
1021
-12.51744483167739
1031
0.0
1002
}
1002
{
1000
PINS2
1011
81.41120323321276
1021
-36.19153141321632
1031
0.0
1002
}
1002
{
1000
C
1070
     1
1002
}
1001
GENIUS_GENOBJ-N-REC_13
1002
{
1000
OWNER
1000
GEN
1002
}
1001
GENIUS_GENODEF_13
1002
{
1000
HIER
1070
     0
1002
}
1002
{
1000
MANEDIT
1070
     0
1002
}
1002
{
1000
NOSEL
1070
     0
1002
}
1002
{
1000
BEHIND
1070
     0
1002
}
1002
{
1000
OTHER
1070
     0
1002
}
1002
{
1000
REACTOR
1002
}
  0
TEXT
  5
5D7
330
2
100
AcDbEntity
  8
LOGO
 62
     7
100
AcDbText
 10
-60.13427683172739
 20
-22.88865931404286
 30
0.0
 40
3.156544877538461
  1
Order example:
 41
0.8
  7
CHINESET
100
AcDbText
  0
TEXT
  5
5D8
330
2
100
AcDbEntity
  8
LOGO
 62
     7
100
AcDbText
 10
-59.56796657713275
 20
-18.44489769742508
 30
0.0
 40
4.734817316307692
  1
訂購代號：
  7
CHINESET
100
AcDbText
  0
LINE
  5
5D9
330
2
100
AcDbEntity
  8
LOGO
 62
     4
100
AcDbLine
 10
-61.5058062874025
 20
-36.191531413216
 30
0.0
 11
-61.5058062874025
 21
-12.51744483167739
 31
0.0
  0
TEXT
  5
5DA
330
2
100
AcDbEntity
  8
LOGO
  6
Continuous
100
AcDbText
 10
-105.0849584496204
 20
-31.54079283158449
 30
0.0
 40
3.551112987230768
  1
金器工業股份有限公司
  7
CHINESET
100
AcDbText
  0
TEXT
  5
5DB
330
2
100
AcDbEntity
  8
LOGO
  6
Continuous
100
AcDbText
 10
-111.6076504541049
 20
-35.09260155854271
 30
0.0
 40
2.367408658153846
  1
MINDMAN INDUSTRIAL CO., LTD.
 41
0.85
  7
CHINESET
100
AcDbText
  0
LINE
  5
5DC
330
2
100
AcDbEntity
  8
LOGO
 62
     4
100
AcDbLine
 10
-61.5058062874025
 20
-17.25226214798512
 30
0.0
 11
-96.22779994032585
 21
-17.25226214798512
 31
0.0
  0
LINE
  5
5DD
330
2
100
AcDbEntity
  8
LOGO
 62
     4
100
AcDbLine
 10
-61.5058062874025
 20
-21.98707946429284
 30
0.0
 11
-96.22779994032585
 21
-21.98707946429284
 31
0.0
  0
LINE
  5
5DE
330
2
100
AcDbEntity
  8
LOGO
 62
     4
100
AcDbLine
 10
-61.5058062874025
 20
-26.7218967806003
 30
0.0
 11
-113.5887967667872
 21
-26.7218967806003
 31
0.0
  0
LINE
  5
5DF
330
2
100
AcDbEntity
  8
LOGO
 62
     4
100
AcDbLine
 10
-96.22779994032585
 20
-26.7218967806003
 30
0.0
 11
-96.22779994032585
 21
-12.51744483167739
 31
0.0
  0
TEXT
  5
5E0
330
2
100
AcDbEntity
  8
LOGO
100
AcDbText
 10
-72.49695613169041
 20
-25.53819245152376
 30
0.0
 40
2.367408658153846
  1
mm
  7
CHINESET
 72
     1
 11
-69.56587874540471
 21
-24.35448812244684
 31
0.0
100
AcDbText
 73
     2
  0
TEXT
  5
5E1
330
2
100
AcDbEntity
  8
LOGO
100
AcDbText
 10
-73.73702733358053
 20
-16.06855781890833
 30
0.0
 40
2.367408658153846
  1
1 : 1
  7
CHINESET
 72
     1
 11
-69.56587874540471
 21
-14.8848534898314
 31
0.0
100
AcDbText
 73
     2
  0
LINE
  5
5E2
330
2
100
AcDbEntity
  8
LOGO
 62
     4
100
AcDbLine
 10
-77.28853067509501
 20
-26.7218967806003
 30
0.0
 11
-77.28853067509501
 21
-12.51744483167739
 31
0.0
  0
CIRCLE
  5
5E3
330
2
100
AcDbEntity
  8
LOGO
  6
Continuous
100
AcDbCircle
 10
-72.90497743372914
 20
-19.61460690169485
 30
0.0
 40
1.374573189442535
  0
CIRCLE
  5
5E4
330
2
100
AcDbEntity
  8
LOGO
  6
Continuous
100
AcDbCircle
 10
-72.90497743372914
 20
-19.61460690169485
 30
0.0
 40
0.805378204933585
  0
LINE
  5
5E5
330
2
100
AcDbEntity
  8
LOGO
100
AcDbLine
 10
-64.26700001254438
 20
-20.98918009113766
 30
0.0
 11
-64.26700001254438
 21
-18.24003371225204
 31
0.0
  0
LINE
  5
5E6
330
2
100
AcDbEntity
  8
LOGO
100
AcDbLine
 10
-68.57620805718052
 20
-20.4199851066283
 30
0.0
 11
-68.57620805718052
 21
-18.80922869676114
 31
0.0
  0
LINE
  5
5E7
330
2
100
AcDbEntity
  8
LOGO
  6
Continuous
100
AcDbLine
 10
-68.57620805718052
 20
-18.80922869676114
 30
0.0
 11
-64.26700001254438
 21
-18.24003371225204
 31
0.0
  0
LINE
  5
5E8
330
2
100
AcDbEntity
  8
LOGO
  6
Continuous
100
AcDbLine
 10
-68.57620805718052
 20
-20.4199851066283
 30
0.0
 11
-64.26700001254438
 21
-20.98918009113766
 31
0.0
  0
TEXT
  5
5E9
330
2
100
AcDbEntity
  8
LOGO
100
AcDbText
 10
-94.27574467621413
 20
-16.0673927555923
 30
155.1560633774733
 40
2.367408658153846
  1
比例 Scale:
 41
0.9
  7
CHINESET
 72
     4
 11
-86.75816530771042
 21
-14.8848534898314
 31
155.1560633774733
100
AcDbText
  0
TEXT
  5
5EA
330
2
100
AcDbEntity
  8
LOGO
100
AcDbText
 10
-94.41208204983103
 20
-20.77007374209979
 30
155.1560633774733
 40
2.367408658153846
  1
投影  View:
 41
0.9
  7
CHINESET
 72
     4
 11
-86.75816530771042
 21
-19.61967080613912
 31
155.1560633774733
100
AcDbText
  0
TEXT
  5
5EB
330
2
100
AcDbEntity
  8
LOGO
100
AcDbText
 10
-94.18062557834188
 20
-25.53819245152376
 30
155.1560633774733
 40
2.367408658153846
  1
單位  Unit:
 41
0.9
  7
CHINESET
 72
     4
 11
-86.75816530771042
 21
-24.35448812244684
 31
155.1560633774733
100
AcDbText
  0
SOLID
  5
5EC
330
2
100
AcDbEntity
  8
LOGO
 62
     5
100
AcDbTrace
 10
-111.1325722899336
 20
-22.78641686050699
 30
0.0
 11
-110.1089669069511
 21
-22.78641686050726
 31
0.0
 12
-105.8380616883
 22
-13.07981409084483
 32
0.0
 13
-104.814456305317
 23
-13.07981409084536
 33
0.0
  0
SOLID
  5
5ED
330
2
100
AcDbEntity
  8
LOGO
 62
     5
100
AcDbTrace
 10
-109.6854060588193
 20
-22.78641686050699
 30
0.0
 11
-108.6618006758368
 21
-22.78641686050699
 31
0.0
 12
-104.814456305317
 22
-13.85634231241819
 32
0.0
 13
-105.8380616883
 23
-17.60956205002089
 33
0.0
  0
SOLID
  5
5EE
330
2
100
AcDbEntity
  8
LOGO
 62
     2
100
AcDbTrace
 10
-110.1089669069511
 20
-22.78641686050726
 30
0.0
 11
-109.6854060588193
 21
-22.78641686050699
 31
0.0
 12
-104.814456305317
 22
-13.07981409084536
 32
0.0
 13
-104.3908954571858
 23
-13.07981409084536
 33
0.0
  0
SOLID
  5
5EF
330
2
100
AcDbEntity
  8
LOGO
 62
     5
100
AcDbTrace
 10
-112.7736627376426
 20
-26.31609059492929
 30
0.0
 11
-112.4206953642
 21
-26.31609059492929
 31
0.0
 12
-111.4267117678019
 22
-24.55125372771827
 32
0.0
 13
-111.0737443943603
 23
-24.55125372771827
 33
0.0
  0
SOLID
  5
5F0
330
2
100
AcDbEntity
  8
LOGO
 62
     5
100
AcDbTrace
 10
-111.4267117678019
 20
-24.55125372771827
 30
0.0
 11
-111.0737443943603
 21
-24.55125372771827
 31
0.0
 12
-111.4267117678019
 22
-26.31609059492929
 32
0.0
 13
-111.0737443943603
 23
-26.31609059492929
 33
0.0
  0
SOLID
  5
5F1
330
2
100
AcDbEntity
  8
LOGO
 62
     5
100
AcDbTrace
 10
-111.4267117678019
 20
-26.31609059492929
 30
0.0
 11
-111.0737443943603
 21
-26.31609059492929
 31
0.0
 12
-110.0797607979605
 22
-24.55125372771827
 32
0.0
 13
-109.7267934245185
 23
-24.55125372771827
 33
0.0
  0
SOLID
  5
5F2
330
2
100
AcDbEntity
  8
LOGO
 62
     5
100
AcDbTrace
 10
-110.0797607979605
 20
-24.55125372771827
 30
0.0
 11
-109.7267934245185
 21
-24.55125372771827
 31
0.0
 12
-110.0797607979605
 22
-26.31609059492929
 32
0.0
 13
-109.7267934245185
 23
-26.31609059492929
 33
0.0
  0
POLYLINE
  5
5F3
330
2
100
AcDbEntity
  8
LOGO
 62
     5
100
AcDb2dPolyline
 66
     1
 10
0.0
 20
0.0
 30
0.0
 40
0.3535330262843075
 41
0.3535330262843075
  0
VERTEX
  5
5F4
330
5F3
100
AcDbEntity
  8
LOGO
 62
     5
100
AcDbVertex
100
AcDb2dVertex
 10
-98.24841468002752
 20
-25.25718847460273
 30
0.0
 42
1.0
  0
VERTEX
  5
5F5
330
5F3
100
AcDbEntity
  8
LOGO
 62
     5
100
AcDbVertex
100
AcDb2dVertex
 10
-99.30901375888071
 20
-25.25718847460273
 30
0.0
 42
1.0
  0
SEQEND
  5
5F6
330
5F3
100
AcDbEntity
  8
LOGO
 62
     5
  0
POLYLINE
  5
5F7
330
2
100
AcDbEntity
  8
LOGO
 62
     5
100
AcDb2dPolyline
 66
     1
 10
0.0
 20
0.0
 30
0.0
 70
     1
  0
VERTEX
  5
5F8
330
5F7
100
AcDbEntity
  8
LOGO
 62
     5
100
AcDbVertex
100
AcDb2dVertex
 10
-101.3082901979661
 20
-25.43367216132405
 30
0.0
 42
1.000000057330635
  0
VERTEX
  5
5F9
330
5F7
100
AcDbEntity
  8
LOGO
 62
     5
100
AcDbVertex
100
AcDb2dVertex
 10
-100.2493880776393
 20
-25.43367216132405
 30
0.0
 42
1.000000057330635
  0
SEQEND
  5
5FA
330
5F7
100
AcDbEntity
  8
LOGO
 62
     5
  0
CIRCLE
  5
5FB
330
2
100
AcDbEntity
  8
LOGO
 62
     5
100
AcDbCircle
 10
-100.7788391378019
 20
-25.43367216132405
 30
0.0
 40
0.5294510601633792
  0
POLYLINE
  5
5FC
330
2
100
AcDbEntity
  8
LOGO
 62
     5
100
AcDb2dPolyline
 66
     1
 10
0.0
 20
0.0
 30
0.0
 70
     1
 40
0.3535330262843075
 41
0.3535330262843075
  0
VERTEX
  5
5FD
330
5FC
100
AcDbEntity
  8
LOGO
 62
     5
100
AcDbVertex
100
AcDb2dVertex
 10
-101.485905190371
 20
-25.43367216132405
 30
0.0
 42
1.0
  0
VERTEX
  5
5FE
330
5FC
100
AcDbEntity
  8
LOGO
 62
     5
100
AcDbVertex
100
AcDb2dVertex
 10
-100.0717730852338
 20
-25.43367216132405
 30
0.0
 42
1.0
  0
SEQEND
  5
5FF
330
5FC
100
AcDbEntity
  8
LOGO
 62
     5
  0
LINE
  5
600
330
2
100
AcDbEntity
  8
LOGO
100
AcDbLine
 10
-98.0727794725702
 20
-26.31609059492929
 30
0.0
 11
-98.0727794725702
 21
-25.25718847460273
 31
0.0
  0
SOLID
  5
601
330
2
100
AcDbEntity
  8
LOGO
 62
     5
100
AcDbTrace
 10
-100.249423374375
 20
-24.55125372771827
 30
0.0
 11
-99.89645600093354
 21
-24.55125372771827
 31
0.0
 12
-100.249423374375
 22
-26.31609059492929
 32
0.0
 13
-99.89645600093354
 23
-26.31609059492929
 33
0.0
  0
SOLID
  5
602
330
2
100
AcDbEntity
  8
LOGO
 62
     5
100
AcDbTrace
 10
-99.48464896633909
 20
-26.31609059492929
 30
0.0
 11
-99.1316815928965
 21
-26.31609059492929
 31
0.0
 12
-99.48464896633909
 22
-24.55125372771827
 32
0.0
 13
-99.1316815928965
 23
-24.55125372771827
 33
0.0
  0
SOLID
  5
603
330
2
100
AcDbEntity
  8
LOGO
 62
     5
100
AcDbTrace
 10
-98.42574684601176
 20
-25.25718847460273
 30
0.0
 11
-98.0727794725702
 21
-25.25718847460273
 31
0.0
 12
-98.42574684601176
 22
-26.31609059492929
 32
0.0
 13
-98.0727794725702
 23
-26.31609059492929
 33
0.0
  0
SOLID
  5
604
330
2
100
AcDbEntity
  8
LOGO
 62
     5
100
AcDbTrace
 10
-99.51994570368341
 20
-13.85634231241819
 30
0.0
 11
-100.5435510866655
 21
-17.60956205002089
 31
0.0
 12
-99.51994570368341
 22
-22.78641686050726
 32
0.0
 13
-100.5435510866655
 23
-22.78641686050726
 33
0.0
  0
SOLID
  5
605
330
2
100
AcDbEntity
  8
LOGO
 62
     5
100
AcDbTrace
 10
-99.0963848555522
 20
-22.78641686050726
 30
0.0
 11
-98.0727794725702
 21
-22.78641686050726
 31
0.0
 12
-99.0963848555522
 22
-13.07981409084536
 32
0.0
 13
-98.0727794725702
 23
-13.07981409084483
 33
0.0
  0
SOLID
  5
606
330
2
100
AcDbEntity
  8
LOGO
 62
     2
100
AcDbTrace
 10
-99.51994570368341
 20
-13.07981409084483
 30
0.0
 11
-99.0963848555522
 21
-13.07981409084536
 31
0.0
 12
-99.51994570368341
 22
-22.78641686050726
 32
0.0
 13
-99.0963848555522
 23
-22.78641686050726
 33
0.0
  0
POLYLINE
  5
607
330
2
100
AcDbEntity
  8
LOGO
 62
     5
100
AcDb2dPolyline
 66
     1
 10
0.0
 20
0.0
 30
0.0
 40
0.3535330262843075
 41
0.3535330262843075
  0
VERTEX
  5
608
330
607
100
AcDbEntity
  8
LOGO
 62
     5
100
AcDbVertex
100
AcDb2dVertex
 10
-103.3076372305247
 20
-25.25718847460273
 30
0.0
 42
1.0
  0
VERTEX
  5
609
330
607
100
AcDbEntity
  8
LOGO
 62
     5
100
AcDbVertex
100
AcDb2dVertex
 10
-104.3682363093778
 20
-25.25718847460273
 30
0.0
 42
1.0
  0
SEQEND
  5
60A
330
607
100
AcDbEntity
  8
LOGO
 62
     5
  0
POLYLINE
  5
60B
330
2
100
AcDbEntity
  8
LOGO
 62
     5
100
AcDb2dPolyline
 66
     1
 10
0.0
 20
0.0
 30
0.0
 40
0.3535330262843075
 41
0.3535330262843075
  0
VERTEX
  5
60C
330
60B
100
AcDbEntity
  8
LOGO
 62
     5
100
AcDbVertex
100
AcDb2dVertex
 10
-102.2487351101989
 20
-25.25718847460273
 30
0.0
 42
1.0
  0
VERTEX
  5
60D
330
60B
100
AcDbEntity
  8
LOGO
 62
     5
100
AcDbVertex
100
AcDb2dVertex
 10
-103.3093341890515
 20
-25.25718847460273
 30
0.0
 42
1.0
  0
SEQEND
  5
60E
330
60B
100
AcDbEntity
  8
LOGO
 62
     5
  0
POLYLINE
  5
60F
330
2
100
AcDbEntity
  8
LOGO
 62
     5
100
AcDb2dPolyline
 66
     1
 10
0.0
 20
0.0
 30
0.0
 40
0.3535330262843075
 41
0.3535330262843075
  0
VERTEX
  5
610
330
60F
100
AcDbEntity
  8
LOGO
 62
     5
100
AcDbVertex
100
AcDb2dVertex
 10
-107.307957660696
 20
-25.25718847460273
 30
0.0
 42
1.0
  0
VERTEX
  5
611
330
60F
100
AcDbEntity
  8
LOGO
 62
     5
100
AcDbVertex
100
AcDb2dVertex
 10
-108.3685567395486
 20
-25.25718847460273
 30
0.0
 42
1.0
  0
SEQEND
  5
612
330
60F
100
AcDbEntity
  8
LOGO
 62
     5
  0
SOLID
  5
613
330
2
100
AcDbEntity
  8
LOGO
 62
     5
100
AcDbTrace
 10
-108.5441919470065
 20
-24.55125372771827
 30
0.0
 11
-108.191224573565
 21
-24.55125372771827
 31
0.0
 12
-108.5441919470065
 22
-26.31609059492929
 32
0.0
 13
-108.191224573565
 23
-26.31609059492929
 33
0.0
  0
SOLID
  5
614
330
2
100
AcDbEntity
  8
LOGO
 62
     5
100
AcDbTrace
 10
-107.4852898266797
 20
-25.25718847460273
 30
0.0
 11
-107.132322453237
 21
-25.25718847460273
 31
0.0
 12
-107.4852898266797
 22
-26.31609059492929
 32
0.0
 13
-107.132322453237
 23
-26.31609059492929
 33
0.0
  0
POLYLINE
  5
615
330
2
100
AcDbEntity
  8
LOGO
 62
     5
100
AcDb2dPolyline
 66
     1
 10
0.0
 20
0.0
 30
0.0
 70
     1
 40
0.3535330262843075
 41
0.3535330262843075
  0
VERTEX
  5
616
330
615
100
AcDbEntity
  8
LOGO
 62
     5
100
AcDbVertex
100
AcDb2dVertex
 10
-106.5451277408685
 20
-25.43367216132405
 30
0.0
 42
1.0
  0
VERTEX
  5
617
330
615
100
AcDbEntity
  8
LOGO
 62
     5
100
AcDbVertex
100
AcDb2dVertex
 10
-105.1309956357309
 20
-25.43367216132405
 30
0.0
 42
1.0
  0
SEQEND
  5
618
330
615
100
AcDbEntity
  8
LOGO
 62
     5
  0
SOLID
  5
619
330
2
100
AcDbEntity
  8
LOGO
 62
     5
100
AcDbTrace
 10
-105.3086459248732
 20
-24.0218026675546
 30
0.0
 11
-104.9556785514311
 21
-24.0218026675546
 31
0.0
 12
-105.3086459248732
 22
-26.31609059492929
 32
0.0
 13
-104.9556785514311
 23
-26.31609059492929
 33
0.0
  0
SOLID
  5
61A
330
2
100
AcDbEntity
  8
LOGO
 62
     5
100
AcDbTrace
 10
-104.5438715168352
 20
-24.55125372771827
 30
0.0
 11
-104.1909041433936
 21
-24.55125372771827
 31
0.0
 12
-104.5438715168352
 22
-26.31609059492929
 32
0.0
 13
-104.1909041433936
 23
-26.31609059492929
 33
0.0
  0
SOLID
  5
61B
330
2
100
AcDbEntity
  8
LOGO
 62
     5
100
AcDbTrace
 10
-103.4849693965094
 20
-25.25718847460273
 30
0.0
 11
-103.1320020230667
 21
-25.25718847460273
 31
0.0
 12
-103.4849693965094
 22
-26.31609059492929
 32
0.0
 13
-103.1320020230667
 23
-26.31609059492929
 33
0.0
  0
SOLID
  5
61C
330
2
100
AcDbEntity
  8
LOGO
 62
     5
100
AcDbTrace
 10
-102.4260672761826
 20
-25.25718847460273
 30
0.0
 11
-102.0730999027405
 21
-25.25718847460273
 31
0.0
 12
-102.4260672761826
 22
-26.31609059492984
 32
0.0
 13
-102.0730999027405
 23
-26.31609059492984
 33
0.0
  0
SOLID
  5
61D
330
2
100
AcDbEntity
  8
LOGO
 62
     5
100
AcDbTrace
 10
-109.308966355044
 20
-24.3041765663086
 30
0.0
 11
-108.9559989816008
 21
-24.3041765663086
 31
0.0
 12
-109.308966355044
 22
-24.0218026675546
 32
0.0
 13
-108.9559989816008
 23
-24.0218026675546
 33
0.0
  0
SOLID
  5
61E
330
2
100
AcDbEntity
  8
LOGO
 62
     5
100
AcDbTrace
 10
-109.308966355044
 20
-24.55125372771827
 30
0.0
 11
-108.9559989816008
 21
-24.55125372771827
 31
0.0
 12
-109.308966355044
 22
-26.31609059492984
 32
0.0
 13
-108.9559989816008
 23
-26.31609059492929
 33
0.0
  0
SOLID
  5
61F
330
2
100
AcDbEntity
  8
LOGO
 62
     5
100
AcDbTrace
 10
-105.8380616883
 20
-22.78641686050699
 30
0.0
 11
-104.814456305317
 21
-22.78641686050699
 31
0.0
 12
-105.8380616883
 22
-17.60956205002089
 32
0.0
 13
-104.814456305317
 23
-13.85634231241819
 33
0.0
  0
SOLID
  5
620
330
2
100
AcDbEntity
  8
LOGO
 62
     5
100
AcDbTrace
 10
-104.3908954571858
 20
-13.07981409084536
 30
0.0
 11
-103.3672900742038
 21
-13.07981409084483
 31
0.0
 12
-104.3908954571858
 22
-22.00988863893417
 32
0.0
 13
-103.3672900742038
 23
-18.25666890133148
 33
0.0
  0
SOLID
  5
621
330
2
100
AcDbEntity
  8
LOGO
 62
     2
100
AcDbTrace
 10
-104.814456305317
 20
-13.07981409084536
 30
0.0
 11
-104.3908954571858
 21
-13.07981409084536
 31
0.0
 12
-104.814456305317
 22
-22.78641686050699
 32
0.0
 13
-104.3908954571858
 23
-22.78641686050699
 33
0.0
  0
SOLID
  5
622
330
2
100
AcDbEntity
  8
LOGO
 62
     5
100
AcDbTrace
 10
-104.3908954571858
 20
-22.00988863893417
 30
0.0
 11
-103.3672900742038
 21
-18.25666890133148
 31
0.0
 12
-99.51994570368341
 22
-13.07981409084483
 32
0.0
 13
-100.5435510866655
 23
-13.07981409084483
 33
0.0
  0
SOLID
  5
623
330
2
100
AcDbEntity
  8
LOGO
 62
     5
100
AcDbTrace
 10
-104.3908954571858
 20
-22.78641686050699
 30
0.0
 11
-103.3672900742038
 21
-22.78641686050699
 31
0.0
 12
-99.51994570368341
 22
-13.85634231241819
 32
0.0
 13
-100.5435510866655
 23
-17.60956205002089
 33
0.0
  0
SOLID
  5
624
330
2
100
AcDbEntity
  8
LOGO
 62
     2
100
AcDbTrace
 10
-104.814456305317
 20
-22.78641686050699
 30
0.0
 11
-104.3908954571858
 21
-22.78641686050699
 31
0.0
 12
-99.51994570368341
 22
-13.07981409084483
 32
0.0
 13
-99.0963848555522
 23
-13.07981409084536
 33
0.0
  0
TEXT
  5
625
330
2
100
AcDbEntity
  8
LOGO
100
AcDbText
 10
-60.56675336942438
 20
-34.9320793510901
 30
0.0
 40
2.367751499999999
  1
00905210
 41
0.7
  7
CHINESET
 72
     1
 11
-54.64737461942438
 21
-34.9320793510901
 31
0.0
100
AcDbText
  0
LINE
  5
626
330
2
100
AcDbEntity
  8
LOGO
 62
     4
100
AcDbLine
 10
-47.29929728740366
 20
-31.45671409690774
 30
0.0
 11
-47.29929728740254
 21
-36.19153141321574
 31
0.0
  0
LINE
  5
627
330
2
100
AcDbEntity
  8
LOGO
 62
     4
100
AcDbLine
 10
-47.29929728740366
 20
-31.45671409690774
 30
0.0
 11
-61.5058062874025
 21
-31.45671409690774
 31
0.0
  0
LINE
  5
628
330
2
100
AcDbEntity
  8
LOGO
  6
AM_ISO08W050x2
 48
0.3
100
AcDbLine
 10
-74.79984715798834
 20
-19.61460690169485
 30
0.0
 11
-71.01010770946989
 21
-19.61460690169485
 31
0.0
1001
GENIUS_GENOREF_13
1005
0
  0
LINE
  5
629
330
2
100
AcDbEntity
  8
LOGO
  6
AM_ISO08W050x2
 48
0.3
100
AcDbLine
 10
-72.90497743372914
 20
-21.50947662595412
 30
0.0
 11
-72.90497743372914
 21
-17.71973717743557
 31
0.0
1001
GENIUS_GENOREF_13
1005
0
  0
LINE
  5
62A
330
2
100
AcDbEntity
  8
LOGO
  6
CENTER
 48
0.5
100
AcDbLine
 10
-68.92082492687423
 20
-19.61460690169485
 30
0.0
 11
-63.8330767120752
 21
-19.61460690169485
 31
0.0
1001
GENIUS_GENOREF_13
1005
0
  0
LWPOLYLINE
  5
77F
330
2
100
AcDbEntity
  8
0
 62
     4
100
AcDbPolyline
 90
        4
 70
     1
 43
0.0
 10
-113.5887967667872
 20
248.8084685867838
 10
81.41120323321276
 20
248.8084685867838
 10
81.41120323321276
 20
-12.51744483167742
 10
-113.5887967667872
 20
-12.51744483167741
  0
LINE
  5
7C1
330
2
100
AcDbEntity
  8
CENTER
100
AcDbLine
 10
-47.14551503588991
 20
151.7491081093683
 30
0.0
 11
-68.87884612739391
 21
157.572536624175
 31
0.0
  0
LINE
  5
7C2
330
2
100
AcDbEntity
  8
CENTER
100
AcDbLine
 10
-47.14551503588991
 20
131.7491081093684
 30
0.0
 11
-68.87884612739393
 21
125.9256795945616
 31
0.0
  0
LINE
  5
7C5
330
2
100
AcDbEntity
  8
CENTER
100
AcDbLine
 10
-47.14551503588985
 20
45.5041641635288
 30
0.0
 11
-68.87884612739386
 21
51.32759267833543
 31
0.0
  0
LINE
  5
7C6
330
2
100
AcDbEntity
  8
CENTER
100
AcDbLine
 10
-47.14551503588985
 20
25.50416416352883
 30
0.0
 11
-68.87884612739387
 21
19.68073564872203
 31
0.0
  0
DIMENSION
  5
7E5
330
2
100
AcDbEntity
  8
DIM
100
AcDbDimension
  2
*D12
 10
-82.00083975976379
 20
124.9978424487068
 30
0.0
 11
-78.78039135570239
 21
112.9789653815957
 31
0.0
 70
   161
 71
     5
 42
2.499999999999914
  3
STANDARD
100
AcDbAlignedDimension
 13
-67.91292030110485
 23
126.1844986396641
 33
0.0
 14
-68.55996791386115
 24
128.5993132053867
 34
0.0
  0
DIMENSION
  5
7F4
330
2
100
AcDbEntity
  8
DIM
100
AcDbDimension
  2
*D13
 10
-74.39669379274116
 20
121.8589863176485
 30
0.0
 11
-72.37790524094146
 21
114.3247648725938
 31
0.0
 70
   161
 71
     5
 42
5.0
  3
STANDARD
100
AcDbAlignedDimension
 13
-68.55996791386115
 23
128.5993132053867
 33
0.0
 14
-67.26587268834852
 24
123.7696840739414
 34
0.0
  0
VIEWPORT
  5
4E7
102
{ACAD_XDICTIONARY
360
9AE
102
}
330
D
100
AcDbEntity
 67
     1
  8
0
100
AcDbViewport
 10
210.8274899173197
 20
133.9809957937787
 30
0.0
 40
474.9917735294574
 41
296.9683227539062
 68
     1
 69
     1
 12
210.8274899173197
 22
133.9809957937787
 13
0.0
 23
0.0
 14
0.5
 24
0.5
 15
0.5
 25
0.5
 16
0.0
 26
0.0
 36
1.0
 17
0.0
 27
0.0
 37
0.0
 42
50.0
 43
0.0
 44
0.0
 45
296.9683227539062
 50
0.0
 51
0.0
 72
   100
 90
    32800
  1

281
     0
 71
     1
 74
     0
110
0.0
120
0.0
130
0.0
111
1.0
121
0.0
131
0.0
112
0.0
122
1.0
132
0.0
 79
     0
146
0.0
1001
GENIUS_GENSCREG_15
1000
PF
1040
1.0
1000
DF
1040
1.0
1000
MIN
1011
-26.66839684740904
1021
-14.50316558317445
1031
0.0
1000
MAX
1011
448.3233766820484
1021
282.4651571707318
1031
0.0
1000
FLAGS
1070
     4
1001
GENIUS_GENODEF_13
1002
{
1000
HIER
1070
     0
1002
}
1002
{
1000
MANEDIT
1070
     0
1002
}
1002
{
1000
NOSEL
1070
     0
1002
}
1002
{
1000
BEHIND
1070
     0
1002
}
1002
{
1000
OTHER
1070
     0
1002
}
1002
{
1000
REACTOR
1002
}
1001
GENIUS_GENOBJ-N-SDF_13
1002
{
1000
OWNER
1000
GEN
1002
}
  0
ENDSEC
  0
SECTION
  2
OBJECTS
  0
DICTIONARY
  5
8
330
0
100
AcDbDictionary
281
     1
  3
ACAD_COLOR
350
4D8
  3
ACAD_GROUP
350
22
  3
ACAD_LAYOUT
350
C
  3
ACAD_MATERIAL
350
4D7
  3
ACAD_MLINESTYLE
350
23
  3
ACAD_PLOTSETTINGS
350
24
  3
ACAD_PLOTSTYLENAME
350
7
  3
ACAD_TABLESTYLE
350
4D9
  3
ACDBHEADERROUNDTRIPXREC
350
9AA
  3
AcDbVariableDictionary
350
4D3
  3
AcmDictionary
350
449
  3
AMG
350
42F
  3
AMGSNAPSETTINGS
350
997
  3
DWGPROPS
350
9A9
  3
MAPISURF_MODULE
350
923
  0
DICTIONARY
  5
4EB
330
11
100
AcDbDictionary
280
     1
281
     1
  3
ACAD_LAYERSTATES
360
4EC
  0
DICTIONARY
  5
3
330
2
100
AcDbDictionary
280
     1
281
     1
  3
ACAD_INDEX
360
6D7
  3
ACAD_LAYOUTSELFREF
360
4B3
  3
ACAD_SORTENTS
360
703
  0
DICTIONARY
  5
403
330
D
100
AcDbDictionary
280
     1
281
     1
  3
ACAD_LAYOUTSELFREF
360
4B8
  0
DICTIONARY
  5
9AE
330
4E7
100
AcDbDictionary
280
     1
281
     1
  3
ACAD_XREC_ROUNDTRIP
360
9AF
  0
DICTIONARY
  5
4D8
102
{ACAD_REACTORS
330
8
102
}
330
8
100
AcDbDictionary
281
     1
  0
DICTIONARY
  5
22
102
{ACAD_REACTORS
330
8
102
}
330
8
100
AcDbDictionary
281
     1
  0
DICTIONARY
  5
C
102
{ACAD_REACTORS
330
8
102
}
330
8
100
AcDbDictionary
281
     1
  3
Layout1
350
10
  3
Model
350
B
  0
DICTIONARY
  5
4D7
102
{ACAD_REACTORS
330
8
102
}
330
8
100
AcDbDictionary
281
     1
  0
DICTIONARY
  5
23
102
{ACAD_REACTORS
330
8
102
}
330
8
100
AcDbDictionary
281
     1
  3
STANDARD
350
26
  0
DICTIONARY
  5
24
102
{ACAD_REACTORS
330
8
102
}
330
8
100
AcDbDictionary
281
     1
  0
ACDBDICTIONARYWDFLT
  5
7
102
{ACAD_REACTORS
330
8
102
}
330
8
100
AcDbDictionary
281
     1
  3
Normal
350
6
100
AcDbDictionaryWithDefault
340
6
1001
ACAD
1000
TREAT_AS_HARD
1070
     0
  0
DICTIONARY
  5
4D9
102
{ACAD_REACTORS
330
8
102
}
330
8
100
AcDbDictionary
281
     1
  3
Standard
350
4DA
  0
DICTIONARY
  5
9AA
102
{ACAD_REACTORS
330
8
102
}
330
8
100
AcDbDictionary
281
     1
  0
DICTIONARY
  5
4D3
102
{ACAD_REACTORS
330
8
102
}
330
8
100
AcDbDictionary
281
     1
  3
CTABLESTYLE
350
4F2
  3
DIMASSOC
350
4D5
  3
INDEXCTL
350
4D4
  3
PROJECTNAME
350
835
  0
DICTIONARY
  5
449
102
{ACAD_REACTORS
330
8
102
}
330
8
100
AcDbDictionary
281
     1
  3
AcmStdDictionary
350
44F
  3
AMDTSECTSYM_ARROWCOLOR
350
97F
  0
DICTIONARY
  5
42F
102
{ACAD_REACTORS
330
8
102
}
330
8
100
AcDbDictionary
281
     1
  3
AcMgSettings
350
430
  0
DICTIONARY
  5
997
102
{ACAD_REACTORS
330
8
102
}
330
8
100
AcDbDictionary
281
     1
  3
DIMENSION
350
99C
  3
FEA
350
99B
  3
HATCH (1)
350
998
  3
HATCH (2)
350
999
  3
SIMPLE WELD
350
99D
  3
SYMBOLS
350
99A
  0
XRECORD
  5
9A9
102
{ACAD_REACTORS
330
8
102
}
330
8
100
AcDbXrecord
280
     1
  1
DWGPROPS COOKIE
  2

  3

  4

  6

  7

  8

  9

300
AmdtFileType=84
301
=
302
=
303
=
304
=
305
=
306
=
307
=
308
=
309
=
 40
0.2159011111111111
 41
2451926.893824618
 42
2456916.341469722
  1

 90
        1
  0
DICTIONARY
  5
4EC
102
{ACAD_REACTORS
330
4EB
102
}
330
4EB
100
AcDbDictionary
281
     1
  0
DICTIONARY
  5
6D7
102
{ACAD_REACTORS
330
3
102
}
330
3
100
AcDbDictionary
281
     1
  3
*A1
350
6D8
  0
XRECORD
  5
4B3
102
{ACAD_REACTORS
330
3
102
}
330
3
100
AcDbXrecord
280
     1
340
2
  0
SORTENTSTABLE
  5
703
102
{ACAD_REACTORS
330
3
102
}
330
3
100
AcDbSortentsTable
330
2
331
75
  5
75
331
7D
  5
7D
331
2E
  5
2E
331
1C8
  5
1CA
331
AC
  5
AC
331
191
  5
193
331
85
  5
85
331
36
  5
36
331
246
  5
248
331
199
  5
19B
331
B4
  5
B4
331
15A
  5
15A
331
1D0
  5
1D2
331
20F
  5
211
331
600
  5
602
331
217
  5
219
331
162
  5
162
331
BC
  5
BC
331
1A1
  5
1A3
331
1D8
  5
1DA
331
24E
  5
250
331
1E0
  5
1E2
331
16A
  5
16A
331
C4
  5
C4
331
21F
  5
221
331
256
  5
258
331
1E8
  5
1EA
331
172
  5
174
331
8D
  5
8D
331
CC
  5
CC
331
1A9
  5
1AB
331
5D9
  5
5DB
331
1B1
  5
1B3
331
95
  5
95
331
17A
  5
17C
331
1F0
  5
1F2
331
227
  5
229
331
6E
  5
6E
331
5E1
  5
5E3
331
5A2
  5
5A4
331
620
  5
622
331
22F
  5
231
331
182
  5
184
331
9D
  5
9D
331
1B9
  5
1BB
331
1F8
  5
1FA
331
5E9
  5
5EB
331
5AA
  5
5B1
331
628
  5
62A
331
237
  5
239
331
A5
  5
A5
331
18A
  5
18C
331
1C1
  5
1C3
331
200
  5
202
331
5B2
  5
5B4
331
5F1
  5
5F3
331
23F
  5
241
331
76
  5
76
331
27
  5
27
331
7E
  5
7E
331
2F
  5
2F
331
208
  5
20A
331
AD
  5
AD
331
192
  5
194
331
1C9
  5
1CB
331
86
  5
86
331
37
  5
37
331
1D1
  5
1D3
331
15B
  5
15B
331
B5
  5
B5
331
19A
  5
19C
331
210
  5
212
331
247
  5
249
331
601
  5
603
331
24F
  5
251
331
1D9
  5
1DB
331
163
  5
163
331
BD
  5
BD
331
1A2
  5
1A4
331
218
  5
21A
331
257
  5
259
331
1E1
  5
1E3
331
C5
  5
C5
331
16B
  5
16B
331
220
  5
222
331
173
  5
175
331
8E
  5
8E
331
CD
  5
CD
331
1AA
  5
1AC
331
1E9
  5
1EB
331
5DA
  5
5DC
331
619
  5
61B
331
1F1
  5
1F3
331
17B
  5
17D
331
96
  5
96
331
12C
  5
12C
331
1B2
  5
1B4
331
228
  5
22A
331
6F
  5
6F
331
621
  5
623
331
5A3
  5
5A5
331
5E2
  5
5E4
331
1F9
  5
1FB
331
9E
  5
9E
331
183
  5
185
331
1BA
  5
1BC
331
230
  5
232
331
629
  5
62B
331
5AB
  5
5B2
331
5EA
  5
5EC
331
1C2
  5
1C4
331
A6
  5
A6
331
18B
  5
18D
331
201
  5
203
331
238
  5
23A
331
5F2
  5
5F7
331
5B3
  5
5B5
331
77
  5
77
331
28
  5
28
331
7F
  5
7F
331
240
  5
242
331
193
  5
195
331
AE
  5
AE
331
1CA
  5
1CC
331
209
  5
20B
331
87
  5
87
331
38
  5
38
331
5BB
  5
5C0
331
248
  5
24A
331
19B
  5
19D
331
B6
  5
B6
331
105
  5
105
331
15C
  5
15C
331
1D2
  5
1D4
331
211
  5
213
331
602
  5
604
331
219
  5
21B
331
164
  5
164
331
BE
  5
BE
331
1A3
  5
1A5
331
1DA
  5
1DC
331
250
  5
252
331
77F
  5
7C2
331
1E2
  5
1E4
331
16C
  5
16C
331
C6
  5
C6
331
258
  5
25A
331
1EA
  5
1EC
331
174
  5
176
331
8F
  5
8F
331
CE
  5
CE
331
1AB
  5
1AD
331
221
  5
223
331
5DB
  5
5DD
331
3B6
  5
3B8
331
61A
  5
61C
331
1B3
  5
1B5
331
97
  5
97
331
17C
  5
17E
331
1F2
  5
1F4
331
229
  5
22B
331
5E3
  5
5E5
331
5A4
  5
5A6
331
622
  5
624
331
231
  5
233
331
184
  5
186
331
9F
  5
9F
331
DE
  5
DE
331
1BB
  5
1BD
331
1FA
  5
1FC
331
5EB
  5
5ED
331
62A
  5
77F
331
202
  5
204
331
A7
  5
A7
331
18C
  5
18E
331
1C3
  5
1C5
331
239
  5
23B
331
5B4
  5
5B6
331
5F3
  5
5FB
331
70
  5
70
331
78
  5
78
331
80
  5
80
331
20A
  5
20C
331
155
  5
155
331
AF
  5
AF
331
194
  5
196
331
1CB
  5
1CD
331
241
  5
243
331
39
  5
39
331
5FB
  5
600
331
1D3
  5
1D5
331
15D
  5
15D
331
B7
  5
B7
331
19C
  5
19E
331
212
  5
214
331
249
  5
24B
331
603
  5
605
331
5C4
  5
5D7
331
251
  5
253
331
1A4
  5
1A6
331
165
  5
165
331
BF
  5
BF
331
1DB
  5
1DD
331
21A
  5
21C
331
60B
  5
613
331
259
  5
25B
331
1E3
  5
1E5
331
C7
  5
C7
331
16D
  5
16E
331
613
  5
615
331
88
  5
88
331
222
  5
224
331
175
  5
177
331
90
  5
90
331
CF
  5
CF
331
1AC
  5
1AE
331
1EB
  5
1ED
331
69
  5
69
331
3B7
  5
3B9
331
5DC
  5
5DE
331
61B
  5
61D
331
1F3
  5
1F5
331
98
  5
98
331
17D
  5
17F
331
1B4
  5
1B6
331
22A
  5
22C
331
623
  5
625
331
5A5
  5
5A7
331
5E4
  5
5E6
331
1FB
  5
1FD
331
A0
  5
A0
331
185
  5
187
331
1BC
  5
1BE
331
232
  5
234
331
5EC
  5
5EE
331
1C4
  5
1C6
331
18D
  5
18F
331
203
  5
205
331
23A
  5
23C
331
5B5
  5
5B7
331
71
  5
71
331
79
  5
79
331
A8
  5
A8
331
32
  5
32
331
81
  5
81
331
242
  5
244
331
B0
  5
B0
331
195
  5
197
331
1CC
  5
1CE
331
20B
  5
20D
331
3A
  5
3A
331
5FC
  5
601
331
5BD
  5
5C4
331
213
  5
215
331
19D
  5
19F
331
B8
  5
B8
331
15E
  5
15E
331
1D4
  5
1D6
331
24A
  5
24C
331
604
  5
606
331
252
  5
254
331
21B
  5
21D
331
166
  5
166
331
C0
  5
C0
331
1A5
  5
1A7
331
1DC
  5
1DE
331
7C1
  5
7C3
331
25A
  5
25C
331
1E4
  5
1E6
331
16E
  5
16F
331
614
  5
619
331
5A
  5
5A
331
89
  5
89
331
C8
  5
C8
331
1AD
  5
1AF
331
11F
  5
11F
331
6A
  5
6A
331
91
  5
91
331
D0
  5
D0
331
176
  5
178
331
1EC
  5
1EE
331
223
  5
225
331
5DD
  5
5DF
331
59E
  5
5A0
331
3B8
  5
3BA
331
61C
  5
61E
331
1B5
  5
1B7
331
99
  5
99
331
17E
  5
180
331
1F4
  5
1F6
331
22B
  5
22D
331
5E5
  5
5E7
331
5A6
  5
5A8
331
624
  5
626
331
233
  5
235
331
A1
  5
A1
331
186
  5
188
331
1BD
  5
1BF
331
1FC
  5
1FE
331
5ED
  5
5EF
331
204
  5
206
331
18E
  5
190
331
1C5
  5
1C7
331
23B
  5
23D
331
5B6
  5
5B8
331
72
  5
72
331
7A
  5
7A
331
2B
  5
2B
331
82
  5
82
331
33
  5
33
331
A9
  5
A9
331
F8
  5
F8
331
20C
  5
20E
331
157
  5
157
331
3B
  5
3B
331
B1
  5
B1
331
196
  5
198
331
1CD
  5
1CF
331
243
  5
245
331
1D5
  5
1D7
331
15F
  5
15F
331
B9
  5
B9
331
19E
  5
1A0
331
214
  5
216
331
24B
  5
24D
331
605
  5
607
331
253
  5
255
331
1A6
  5
1A8
331
C1
  5
C1
331
167
  5
167
331
1DD
  5
1DF
331
21C
  5
21E
331
7C2
  5
7C4
331
5D6
  5
5D8
331
25B
  5
25D
331
1E5
  5
1E7
331
16F
  5
171
331
615
  5
61A
331
C9
  5
C9
331
5B
  5
5B
331
8A
  5
8A
331
224
  5
226
331
177
  5
179
331
6B
  5
6B
331
92
  5
92
331
D1
  5
D1
331
1AE
  5
1B0
331
1ED
  5
1EF
331
59F
  5
5A1
331
3B9
  5
3BB
331
5DE
  5
5E0
331
61D
  5
61F
331
1F5
  5
1F7
331
9A
  5
9A
331
17F
  5
181
331
1B6
  5
1B8
331
22C
  5
22E
331
625
  5
627
331
5A7
  5
5AA
331
5E6
  5
5E8
331
1BE
  5
1C0
331
148
  5
148
331
A2
  5
A2
331
187
  5
189
331
1FD
  5
1FF
331
234
  5
236
331
5EE
  5
5F0
331
1C6
  5
1C8
331
18F
  5
191
331
205
  5
207
331
23C
  5
23E
331
5B7
  5
5BB
331
73
  5
73
331
7B
  5
7B
331
2C
  5
2C
331
83
  5
83
331
34
  5
34
331
AA
  5
AA
331
244
  5
246
331
197
  5
199
331
3C
  5
3C
331
B2
  5
B2
331
158
  5
158
331
1CE
  5
1D0
331
20D
  5
20F
331
215
  5
217
331
160
  5
160
331
BA
  5
BA
331
19F
  5
1A1
331
1D6
  5
1D8
331
24C
  5
24E
331
606
  5
60B
331
21D
  5
21F
331
168
  5
168
331
C2
  5
C2
331
1A7
  5
1A9
331
1DE
  5
1E0
331
254
  5
256
331
5D7
  5
5D9
331
1E6
  5
1E8
331
25C
  5
3B6
331
170
  5
172
331
8B
  5
8B
331
CA
  5
CA
331
5C
  5
5C
331
1AF
  5
1B1
331
93
  5
93
331
178
  5
17A
331
1EE
  5
1F0
331
225
  5
227
331
6C
  5
6C
331
5DF
  5
5E1
331
5A0
  5
5A2
331
3BA
  5
59E
331
61E
  5
620
331
22D
  5
22F
331
1B7
  5
1B9
331
139
  5
139
331
9B
  5
9B
331
180
  5
182
331
1F6
  5
1F8
331
5E7
  5
5E9
331
5A8
  5
5AB
331
626
  5
628
331
235
  5
237
331
A3
  5
A3
331
188
  5
18A
331
1BF
  5
1C1
331
1FE
  5
200
331
5EF
  5
5F1
331
206
  5
208
331
1C7
  5
1C9
331
23D
  5
23F
331
5F7
  5
5FC
331
74
  5
74
331
7C
  5
7C
331
2D
  5
2D
331
AB
  5
AB
331
190
  5
192
331
84
  5
84
331
35
  5
35
331
5B8
  5
5BD
331
1CF
  5
1D1
331
159
  5
159
331
B3
  5
B3
331
198
  5
19A
331
20E
  5
210
331
245
  5
247
331
3D
  5
3D
331
5C0
  5
5D6
331
1D7
  5
1D9
331
112
  5
112
331
BB
  5
BB
331
161
  5
161
331
1A0
  5
1A2
331
216
  5
218
331
24D
  5
24F
331
607
  5
60F
331
255
  5
257
331
1DF
  5
1E1
331
C3
  5
C3
331
169
  5
169
331
21E
  5
220
331
60F
  5
614
331
25D
  5
3B7
331
1E7
  5
1E9
331
171
  5
173
331
CB
  5
CB
331
8C
  5
8C
331
1A8
  5
1AA
331
5D8
  5
5DA
331
226
  5
228
331
94
  5
94
331
179
  5
17B
331
1B0
  5
1B2
331
1EF
  5
1F1
331
6D
  5
6D
331
61F
  5
621
331
5A1
  5
5A3
331
3BB
  5
59F
331
5E0
  5
5E2
331
1F7
  5
1F9
331
9C
  5
9C
331
181
  5
183
331
1B8
  5
1BA
331
22E
  5
230
331
627
  5
629
331
5E8
  5
5EA
331
1C0
  5
1C2
331
EB
  5
EB
331
A4
  5
A4
331
189
  5
18B
331
1FF
  5
201
331
236
  5
238
331
5F0
  5
5F2
331
5B1
  5
5B3
331
23E
  5
240
331
207
  5
209
  0
XRECORD
  5
4B8
102
{ACAD_REACTORS
330
403
102
}
330
403
100
AcDbXrecord
280
     1
340
D
  0
XRECORD
  5
9AF
102
{ACAD_REACTORS
330
9AE
102
}
330
9AE
100
AcDbXrecord
280
     1
102
SHADEPLOT
 70
     0
  0
LAYOUT
  5
10
102
{ACAD_XDICTIONARY
360
4EE
102
}
102
{ACAD_REACTORS
330
C
102
}
330
C
100
AcDbPlotSettings
  1

  2
\\WINNT\單色EPSON Stylus COLOR 1520
  4
A3
  6

 40
3.757083177566528
 41
14.76376056671142
 42
3.757080078125
 43
3.757080078125
 44
296.9683227539062
 45
420.0172119140624
 46
2.58
 47
0.7900000000000001
 48
0.0
 49
0.0
140
0.0
141
0.0
142
1.0
143
1.0
 70
   692
 72
     1
 73
     1
 74
     1
  7
單色出圖.ctb
 75
    16
147
1.0
148
22.12131676928402
149
8.16608240560788
100
AcDbLayout
  1
Layout1
 70
     1
 71
     1
 10
-26.66839684740902
 20
-14.50316558317441
 11
393.3488150666534
 21
282.4651571707319
 12
0.0
 22
0.0
 32
0.0
 14
1.000000000000000E+20
 24
1.000000000000000E+20
 34
1.000000000000000E+20
 15
-1.000000000000000E+20
 25
-1.000000000000000E+20
 35
-1.000000000000000E+20
146
0.0
 13
0.0
 23
0.0
 33
0.0
 16
1.0
 26
0.0
 36
0.0
 17
0.0
 27
1.0
 37
0.0
 76
     0
330
D
331
4E7
  0
LAYOUT
  5
B
102
{ACAD_XDICTIONARY
360
9AB
102
}
102
{ACAD_REACTORS
330
C
102
}
330
C
100
AcDbPlotSettings
  1

  2
\\RDS1\iR3300影印機
  4
A4
  6

 40
6.805083274841308
 41
5.619736671447753
 42
6.974411010742187
 43
5.027069091796875
 44
209.9733276367187
 45
296.9259948730469
 46
0.580289057043899
 47
0.6347959681247631
 48
0.0
 49
0.0
140
0.0
141
0.0
142
1.0
143
1.0
 70
 11956
 72
     1
 73
     0
 74
     1
  7
單色出圖.ctb
 75
    16
147
1.0
148
113.6004015496389
149
36.19482098245237
100
AcDbLayout
  1
Model
 70
     1
 71
     0
 10
0.0
 20
0.0
 11
12.0
 21
9.0
 12
0.0
 22
0.0
 32
0.0
 14
0.0
 24
0.0
 34
0.0
 15
0.0
 25
0.0
 35
0.0
146
0.0
 13
0.0
 23
0.0
 33
0.0
 16
1.0
 26
0.0
 36
0.0
 17
0.0
 27
1.0
 37
0.0
 76
     0
330
2
1001
ACAD_PSEXT
1000
\\RDS1\iR3300影印機
1000
Canon iR2200-3300 PCL5e
1000
\\RDS1
1000

1070
     0
  0
MLINESTYLE
  5
26
102
{ACAD_REACTORS
330
23
102
}
330
23
100
AcDbMlineStyle
  2
STANDARD
 70
     0
  3

 62
     0
 51
90.0
 52
90.0
 71
     2
 49
0.5
 62
   256
  6
BYLAYER
 49
-0.5
 62
   256
  6
BYLAYER
  0
ACDBPLACEHOLDER
  5
6
102
{ACAD_REACTORS
330
7
102
}
330
7
  0
TABLESTYLE
  5
4DA
102
{ACAD_REACTORS
330
4D9
102
}
330
4D9
100
AcDbTableStyle
  3
Standard
 70
     0
 71
     0
 40
1.5
 41
1.5
280
     0
281
     0
  7
STANDARD
140
4.5
170
     2
 62
     0
 63
     7
283
     0
274
    -2
284
     1
 64
     0
275
    -2
285
     1
 65
     0
276
    -2
286
     1
 66
     0
277
    -2
287
     1
 67
     0
278
    -2
288
     1
 68
     0
279
    -2
289
     1
 69
     0
  7
STANDARD
140
6.0
170
     5
 62
     0
 63
     7
283
     0
274
    -2
284
     1
 64
     0
275
    -2
285
     1
 65
     0
276
    -2
286
     1
 66
     0
277
    -2
287
     1
 67
     0
278
    -2
288
     1
 68
     0
279
    -2
289
     1
 69
     0
  7
STANDARD
140
4.5
170
     5
 62
     0
 63
     7
283
     0
274
    -2
284
     1
 64
     0
275
    -2
285
     1
 65
     0
276
    -2
286
     1
 66
     0
277
    -2
287
     1
 67
     0
278
    -2
288
     1
 68
     0
279
    -2
289
     1
 69
     0
  0
DICTIONARYVAR
  5
4F2
102
{ACAD_REACTORS
330
4D3
102
}
330
4D3
100
DictionaryVariables
280
     0
  1
STANDARD
  0
DICTIONARYVAR
  5
4D5
102
{ACAD_REACTORS
330
4D3
102
}
330
4D3
100
DictionaryVariables
280
     0
  1
1
  0
DICTIONARYVAR
  5
4D4
102
{ACAD_REACTORS
330
4D3
102
}
330
4D3
100
DictionaryVariables
280
     0
  1
1
  0
DICTIONARYVAR
  5
835
102
{ACAD_REACTORS
330
4D3
102
}
330
4D3
100
DictionaryVariables
280
     0
  1

  0
DICTIONARY
  5
44F
102
{ACAD_REACTORS
330
449
102
}
330
449
100
AcDbDictionary
281
     1
  0
XRECORD
  5
97F
102
{ACAD_REACTORS
330
449
102
}
330
449
100
AcDbXrecord
280
     1
 90
-1023410169
  0
DICTIONARY
  5
430
102
{ACAD_REACTORS
330
42F
102
}
330
42F
100
AcDbDictionary
281
     1
  3
DWGSETTINGS
350
8A1
  3
TRANSSETTINGS
350
8A4
  0
ACAMGFILTERDAT
  5
99C
102
{ACAD_REACTORS
330
997
102
}
330
997
100
AcAmgFilterDat
 70
    15
  1
DIMENSION,AMDT_*_DIM
  2
*
  3
*
  4
*
  5
*
290
     1
  0
ACAMGFILTERDAT
  5
99B
102
{ACAD_REACTORS
330
997
102
}
330
997
100
AcAmgFilterDat
 70
    15
  1
*
  2
AM_FEA-AM_*
  3
*
  4
*
  5
*
290
     1
  0
ACAMGFILTERDAT
  5
998
102
{ACAD_REACTORS
330
997
102
}
330
997
100
AcAmgFilterDat
 70
    15
  1
HATCH
  2
*
  3
*
  4
*
  5
*
290
     1
  0
ACAMGFILTERDAT
  5
999
102
{ACAD_REACTORS
330
997
102
}
330
997
100
AcAmgFilterDat
 70
    15
  1
LINE
  2
8,8N,*-8,*-8N,AM_8,AM_8N,*-AM_8,*-AM_8N
  3
*
  4
*
  5
INSERT,STDPART2D
290
     1
  0
ACAMGFILTERDAT
  5
99D
102
{ACAD_REACTORS
330
997
102
}
330
997
100
AcAmgFilterDat
 70
    15
  1
ARC
  2
AM_5
  3
*
  4
2
  5
INSERT
290
     0
  0
ACAMGFILTERDAT
  5
99A
102
{ACAD_REACTORS
330
997
102
}
330
997
100
AcAmgFilterDat
 70
    15
  1
ACMFCFRAME,ACMDATUMTARGET,ACMDATUMID,ACMWELDSYM,ACMSURFSYM,ACMFEATID,ACMPARTREF,ACMBALLOON,AMDTEDGESYM,AMGSCREWCALCTABLE
  2
*
  3
*
  4
*
  5
*
290
     1
  0
LAYER_INDEX
  5
6D8
102
{ACAD_REACTORS
330
6D7
102
}
330
6D7
100
AcDbIndex
 40
2456916.341469722
100
AcDbLayerIndex
  8
0
360
6D9
 90
      266
  8
Defpoints
360
6DA
 90
        0
  8
CENTER
360
6DB
 90
      113
  8
HIDDEN
360
6DC
 90
       12
  8
DIM
360
6DD
 90
       22
  8
LOGO
360
6DE
 90
       89
  0
DICTIONARY
  5
4EE
330
10
100
AcDbDictionary
280
     1
281
     1
  3
ACAD_XREC_ROUNDTRIP
360
9AD
  3
ADSK_XREC_LAYOUTTHUMBNAIL
360
4EF
  0
DICTIONARY
  5
9AB
330
B
100
AcDbDictionary
280
     1
281
     1
  3
ACAD_XREC_ROUNDTRIP
360
9AC
  0
IDBUFFER
  5
6D9
330
0
100
AcDbIdBuffer
330
27
330
155
330
157
330
158
330
159
330
15A
330
15B
330
15C
330
15D
330
15E
330
15F
330
160
330
161
330
162
330
163
330
164
330
165
330
166
330
167
330
168
330
169
330
16A
330
16B
330
16C
330
16D
330
16E
330
16F
330
170
330
171
330
172
330
173
330
174
330
175
330
176
330
177
330
178
330
179
330
17A
330
17B
330
17C
330
17D
330
17E
330
17F
330
180
330
181
330
182
330
183
330
184
330
185
330
186
330
187
330
188
330
189
330
18A
330
18B
330
18C
330
18D
330
18E
330
18F
330
190
330
191
330
192
330
193
330
194
330
195
330
196
330
197
330
198
330
199
330
19A
330
19B
330
19C
330
19D
330
19E
330
19F
330
1A0
330
1A1
330
1A2
330
1A3
330
1A4
330
1A5
330
1A6
330
1A7
330
1A8
330
1A9
330
1AA
330
1AB
330
1AC
330
1AD
330
1AE
330
1AF
330
1B0
330
1B1
330
1B2
330
1B3
330
1B4
330
1B5
330
1B6
330
1B7
330
1B8
330
1B9
330
1BA
330
1BB
330
1BC
330
1BD
330
1BE
330
1BF
330
1C0
330
1C1
330
1C2
330
1C3
330
1C4
330
1C5
330
1C6
330
1C7
330
1C8
330
1C9
330
1CA
330
1CB
330
1CC
330
1CD
330
1CE
330
1CF
330
1D0
330
1D1
330
1D2
330
1D3
330
1D4
330
1D5
330
1D6
330
1D7
330
1D8
330
1D9
330
1DA
330
1DB
330
1DC
330
1DD
330
1DE
330
1DF
330
1E0
330
1E1
330
1E2
330
1E3
330
1E4
330
1E5
330
1E6
330
1E7
330
1E8
330
1E9
330
1EA
330
1EB
330
1EC
330
1ED
330
1EE
330
1EF
330
1F0
330
1F1
330
1F2
330
1F3
330
1F4
330
1F5
330
1F6
330
1F7
330
1F8
330
1F9
330
1FA
330
1FB
330
1FC
330
1FD
330
1FE
330
1FF
330
200
330
201
330
202
330
203
330
204
330
205
330
206
330
207
330
208
330
209
330
20A
330
20B
330
20C
330
20D
330
20E
330
20F
330
210
330
211
330
212
330
213
330
214
330
215
330
216
330
217
330
218
330
219
330
21A
330
21B
330
21C
330
21D
330
21E
330
21F
330
220
330
221
330
222
330
223
330
224
330
225
330
226
330
227
330
228
330
229
330
22A
330
22B
330
22C
330
22D
330
22E
330
22F
330
230
330
231
330
232
330
233
330
234
330
235
330
236
330
237
330
238
330
239
330
23A
330
23B
330
23C
330
23D
330
23E
330
23F
330
240
330
241
330
242
330
243
330
244
330
245
330
246
330
247
330
248
330
249
330
24A
330
24B
330
24C
330
24D
330
24E
330
24F
330
250
330
251
330
252
330
253
330
254
330
255
330
256
330
257
330
258
330
259
330
25A
330
25B
330
25C
330
25D
330
77F
  0
IDBUFFER
  5
6DA
330
0
100
AcDbIdBuffer
  0
IDBUFFER
  5
6DB
330
0
100
AcDbIdBuffer
330
28
330
2B
330
2C
330
2D
330
2E
330
69
330
6A
330
6B
330
6C
330
6D
330
6E
330
6F
330
70
330
71
330
72
330
73
330
74
330
75
330
76
330
77
330
78
330
79
330
7A
330
7B
330
7C
330
7D
330
7E
330
7F
330
80
330
81
330
82
330
83
330
84
330
85
330
86
330
87
330
88
330
89
330
8A
330
8B
330
8C
330
8D
330
8E
330
8F
330
90
330
91
330
92
330
93
330
94
330
95
330
96
330
97
330
98
330
99
330
9A
330
9B
330
9C
330
9D
330
9E
330
9F
330
A0
330
A1
330
A2
330
A3
330
A4
330
A5
330
A6
330
A7
330
A8
330
A9
330
AA
330
AB
330
AC
330
AD
330
AE
330
AF
330
B0
330
B1
330
B2
330
B3
330
B4
330
B5
330
B6
330
B7
330
B8
330
B9
330
BA
330
BB
330
BC
330
BD
330
BE
330
BF
330
C0
330
C1
330
C2
330
C3
330
C4
330
C5
330
C6
330
C7
330
C8
330
C9
330
CA
330
CB
330
CC
330
CD
330
CE
330
CF
330
D0
330
7C1
330
7C2
330
7C5
330
7C6
  0
IDBUFFER
  5
6DC
330
0
100
AcDbIdBuffer
330
2F
330
32
330
33
330
34
330
35
330
36
330
37
330
38
330
39
330
3A
330
3B
330
3C
  0
IDBUFFER
  5
6DD
330
0
100
AcDbIdBuffer
330
3D
330
5A
330
5B
330
5C
330
D1
330
DE
330
EB
330
F8
330
105
330
112
330
11F
330
12C
330
139
330
148
330
3B6
330
3B7
330
3B8
330
3B9
330
3BA
330
3BB
330
7E5
330
7F4
  0
IDBUFFER
  5
6DE
330
0
100
AcDbIdBuffer
330
59E
330
59F
330
5A0
330
5A1
330
5A2
330
5A3
330
5A4
330
5A5
330
5A6
330
5A7
330
5A8
330
5AA
330
5AB
330
5B1
330
5B2
330
5B3
330
5B4
330
5B5
330
5B6
330
5B7
330
5B8
330
5BB
330
5BD
330
5C0
330
5C4
330
5D6
330
5D7
330
5D8
330
5D9
330
5DA
330
5DB
330
5DC
330
5DD
330
5DE
330
5DF
330
5E0
330
5E1
330
5E2
330
5E3
330
5E4
330
5E5
330
5E6
330
5E7
330
5E8
330
5E9
330
5EA
330
5EB
330
5EC
330
5ED
330
5EE
330
5EF
330
5F0
330
5F1
330
5F2
330
5F3
330
5F7
330
5FB
330
5FC
330
600
330
601
330
602
330
603
330
604
330
605
330
606
330
607
330
60B
330
60F
330
613
330
614
330
615
330
619
330
61A
330
61B
330
61C
330
61D
330
61E
330
61F
330
620
330
621
330
622
330
623
330
624
330
625
330
626
330
627
330
628
330
629
330
62A
  0
XRECORD
  5
9AD
102
{ACAD_REACTORS
330
4EE
102
}
330
4EE
100
AcDbXrecord
280
     1
102
SHADEPLOT
 70
     0
102
SHADEPLOTRESLEVEL
 70
     2
102
SHADEPLOTCUSTOMDPI
 70
   300
  0
XRECORD
  5
4EF
102
{ACAD_REACTORS
330
4EE
102
}
330
4EE
100
AcDbXrecord
280
     1
310
28000000B40000007F00000001000800000000004C59000000000000000000000001000000000000FFFFFF0000000000FFFFFF000000000000000000000000000000000000000000000000000000000000000000330000006600000099000000CC000000FF00000000330000333300006633000099330000CC330000FF3300
310
0000660000336600006666000099660000CC660000FF66000000990000339900006699000099990000CC990000FF99000000CC000033CC000066CC000099CC0000CCCC0000FFCC000000FF000033FF000066FF000099FF0000CCFF0000FFFF000000003300330033006600330099003300CC003300FF003300003333003333
310
33006633330099333300CC333300FF33330000663300336633006666330099663300CC663300FF66330000993300339933006699330099993300CC993300FF99330000CC330033CC330066CC330099CC3300CCCC3300FFCC330000FF330033FF330066FF330099FF3300CCFF3300FFFF330000006600330066006600660099
310
006600CC006600FF00660000336600333366006633660099336600CC336600FF33660000666600336666006666660099666600CC666600FF66660000996600339966006699660099996600CC996600FF99660000CC660033CC660066CC660099CC6600CCCC6600FFCC660000FF660033FF660066FF660099FF6600CCFF6600
310
FFFF660000009900330099006600990099009900CC009900FF00990000339900333399006633990099339900CC339900FF33990000669900336699006666990099669900CC669900FF66990000999900339999006699990099999900CC999900FF99990000CC990033CC990066CC990099CC9900CCCC9900FFCC990000FF99
310
0033FF990066FF990099FF9900CCFF9900FFFF99000000CC003300CC006600CC009900CC00CC00CC00FF00CC000033CC003333CC006633CC009933CC00CC33CC00FF33CC000066CC003366CC006666CC009966CC00CC66CC00FF66CC000099CC003399CC006699CC009999CC00CC99CC00FF99CC0000CCCC0033CCCC0066CC
310
CC0099CCCC00CCCCCC00FFCCCC0000FFCC0033FFCC0066FFCC0099FFCC00CCFFCC00FFFFCC000000FF003300FF006600FF009900FF00CC00FF00FF00FF000033FF003333FF006633FF009933FF00CC33FF00FF33FF000066FF003366FF006666FF009966FF00CC66FF00FF66FF000099FF003399FF006699FF009999FF00CC
310
99FF00FF99FF0000CCFF0033CCFF0066CCFF0099CCFF00CCCCFF00FFCCFF0000FFFF0033FFFF0066FFFF0099FFFF00CCFFFF00FFFFFF00000000000D0D0D001A1A1A00282828003535350043434300505050005D5D5D006B6B6B00787878008686860093939300A1A1A100AEAEAE00BBBBBB00C9C9C900D6D6D600E4E4E400
310
F1F1F100FFFFFF0000000000000000000000000000000000000000000000000000000000000000000000000000000000EFE2E2E2E2E2E2E2E2E2E2E2E2E2E2E2E2E2E2E2E2E2E2E2E2E2E2E2E2E2E2E2E2E2E2E2E2E2E2E2E2E2E2E2E2E2E2E2E2E2E2E2E2E2E2E2E2E2E2E2E2E2E2E2E2E2E2E2E2E2E2E2E2E2E2E2E2E2E2
310
E2E2E2E2E2E2E2E2E2E2E2E2E2E2E2E2E2E2E2E2E2E2E2E2E2E2E2E2E2E2E2E2E2E2E2E2E2E2E2E2E2E2E2E2E2E2E2E2E2E2E2E2E2E2E2E2E2E2E2E2E2E2E2E2E2E2E2E2E2E2E2E2E2E2E2E2E2E2E2E2E2E2E2E2E2E2E2E2E2E2E2E2E2E2E2E2E2E2E2E2E2EFE2F5F5F5F5F5F5F5F5F5F5F5F5F5F5F5F5F5F5F5F5F5F5F5F5
310
F5F5F5F5F5F5F5F5F5F5F5F5F5F5F5F5F5F5F5F5F5F5F5F5F5F5F5F5F5F5F5F5F5F5F5F5F5F5F5F5F5F5F5F5F5F5F5F5F5F5F5F5F5F5F5F5F5F5F5F5F5F5F5F5F5F5F5F5F5F5F5F5F5F5F5F5F5F5F5F5F5F5F5F5F5F5F5F5F5F5F5F5F5F5F5F5F5F5F5F5F5F5F5F5F5F5F5F5F5F5F5F5F5F5F5F5F5F5F5F5F5F5F5F5F5F5F5
310
F5F5F5F5F5F5F5F5F5F5F5F5F5F5F5F5F5F5F5F5F5F5F5F5F5E2E2EFE2E2E2E2E2E2E2E2E2F5F5F5F5F5F5F5F5F5E2E2E2E2E2E2E2E2E2E2E2E2E2E2E2E2F5F5F5F5F5F5F5F5E2E2E2E2E2E2E2E2E2E2E2E2E2E2E2E2F5F5F5F5F5F5F5F5F5E2E2E2E2E2E2E2E2E2E2E2E2E2E2E2F5F5F5F5F5F5F5F5F5E2E2E2E2E2E2E2E2
310
E2E2E2E2E2E2E2F5F5F5F5F5F5F5F5F5E2E2E2E2E2E2E2E2E2E2E2E2E2E2E2E2F5F5F5F5F5F5F5F5E2E2E2E2E2E2E2E2E2E2E2E2E2E2E2E2F5F5F5F5F5F5F5F5F5E2E2E2E2E2E2E2E2F5F5F5F5F5E2E2EFE2E2F5F5F5F5F5F5F5F5F5F5F5F5F5F5F5F5F5F5F5F5F5F5F5F5F5F5F5F5F5F5F5F5F5F5F5F5F5F5F5F5F5F5F5F5
310
F5F5F5F5F5F5F5F5F5F5F5F5F5F5F5F5F5F5F5F5F5F5F5F5F5F5F5F5F5F5F5F5F5F5F5F5F5F5F5F5F5F5F5F5F5F5F5F5F5F5F5F5F5F5F5F5F5F5F5F5F5F5F5F5F5F5F5F5F5F5F5F5F5F5F5F5F5F5F5F5F5F5F5F5F5F5F5F5F5F5F5F5F5F5F5F5F5F5F5F5F5F5F5F5F5F5F5F5F5F5F5F5F5F5F5F5F5F5F5F5F5F5F5F5F5E2F5
310
F5F5F5F5E2E2EFE2E2F5F5F5F5F5F5F5F5F5F5F5F5F5F5F5F5F5F5F5F5F5F5F5F5F5F5F5F5F5F5F5F5F5F5F5F5F5F5F5F5F5F5F5F5F5F5F5F5F5F5F5F5F5F5F5F5F5F5F5F5F5F5F5F5F5F5F5F5F5F5F5F5F5F5F5F5F5F5F5F5F5F5F5F5F5F5F5F5F5F5F5F5F5F5F5F5F5F5F5F5F5F5F5F5F5F5F5F5F5F5F5F5F5F5F5F5F5F5
310
F5F5F5F5F5F5F5F5F5F5F5F5F5F5F5F5F5F5F5F5F5F5F5F5F5F5F5F5F5F5F5F5F5F5F5F5F5F5F5F5F5F5F5F5F5F5F5F5F5F5F5E2F5F5F5F5F5E2E2EFE2E2F5F5F5F5F5F5F5F5F5F5F5F5F5F5F5F5F5F5F5F5F5F5F5F5F5F5F5F5F5F5F5F5F5F5F5F5F5F5F5F5F5F5F5F5F5F5F5F5F5F5F5F5F5F5F5F5F5F5F5F5F5F5F5F5F5
310
F5F5F5F5F5F5F5F5F5F5F5F5F5F5F5F5F5F5F5F5F5F5F5F5F5F5F5F5F5F5F5F5F5F5F5F5F5F5F5F5F5F5F5F5F5F5F5F5F5F5F5F5F5F5F5F5F5F5F5F5F5F5F5F5F5F5F5F5F5F5F5F5F5F5F5F5F5F5F5F5F5F5F5F5F5F5F5F5F5F5F5F5F5F5F5F5F5F5F5F5F5F5F5F5E2F5F5F5F5F5E2E2EFE2E2F5F5F5F5F5F5F5F5F5F5F5F5
310
F5F5F5F5F5F5F5F5F5F5F5F5F5F5F5F5F5F5F5F5F5F5F5F5F5F5F5F5F5F5F5F5F5F5F5F5F5F5F5F5F5F5F5F5F5F5F5F5F5F5F5F5F5F5F5F5F5F5F5F5F5F5F5F5F5F5F5F5F5F5F5F5F5F5F5F5F5F5F5F5F5F5F5F5F5F5F5F5F5F5F5F5F5F5F5F5F5F5F5F5F5F5F5F5F5F5F5F5F5F5F5F5F5F5F5F5F5F5F5F5F5F5F5F5F5F5F5
310
F5F5F5F5F5F5F5F5F5F5F5F5F5F5F5F5F5F5F5F5F5F5F5F5F5F5F5F5F5F5E2F5F5F5F5F5E2E2EFE2E2F5F5F5F5F5F5F5F5F5F5F5F5F5F5F5F5F5F5F5F5F5F5F5F5F5F5F5F5F5F5F5F5F5F5F5F5F5F5F5F5F5F5F5F5F5F5F5F5F5F5F5F5F5F5F5F5F5F5F5F5F5F5F5F5F5F5F5F5F5F5F5F5F5F5F5F5F5F5F5F5F5F5F5F5F5F5
310
F5F5F5F5F5F5F5F5F5F5F5F5F5F5F5F5F5F5F5F5F5F5F5F5F5F5F5F5F5F5F5F5F5F5F5F5F5F5F5F5F5F5F5F5F5F5F5F5F5F5F5F5F5F5F5F5F5F5F5F5F5F5F5F5F5F5F5F5F5F5F5F5F5F5F5F5F5F5F5F5F5F5F5E2F5F5F5F5F5E2E2EFE2E2F5F5F5F5F5F5F5F5F5F5F5F5F5F5F5F5F5F5F5F5F5F5F5F5F5F5F5F5F5F5F5F5F5
310
F5F5F5F5F5F5F5F5F5F5F5F5F5F5F5F5F5F5F5F5F5F5F5F5F5F5F5F5F5F5F5F5F5F5F5F5F5F5F5F5F5F5F5F5F5F5F5F5F5F5F5F5F5F5F5F5F5F5F5F5F5F5F5F5F5F5F5F5F5F5F5F5F5F5F5F5F5F5F5F5F5F5F5F5F5F5F5F5F5F5F5F5F5F5F5F5F5F5F5F5F5F5F5F5F5F5F5F5F5F5F5F5F5F5F5F5F5F5F5F5F5F5F5F5F5F5F5
310
F5F5F5F5F5F5F5F5F5E2F5F5F5F5F5E2E2EFE2E2F5F5F5F5F5F5F5F5F5F5F5F5F5F5F5F5F5F5F5F5F5F5F5F5F5F5F5F5F5F5F5F5F5F5F5F5F5F5F5F5F5F5F5F5F5F5F5F5F5F5F5F5F5F5F5F5F5F5F5F5F5F5F5F5F5F5F5F5F5F5F5F5F5F5F5F5F5F5F5F5F5F5F5F5F5F5F5F5F5F5F5F5F5F5F5F5F5F5F5F5F5F5F5F5F5F5F5
310
F5F5F5F5F5F5F5F5F5F5F5F5F5F5F5F5F5F5F5F5F5F5F5F5F5F5F5F5F5F5F5F5F5F5F5F5F5F5F5F5F5F5F5F5F5F5F5F5F5F5F5F5F5F5F5F5F5F5F5F5F5F5E2F5F5F5F5F5E2E2EFE2F5F5F5F5F5F5F5F5F5F5F5F5F5F5F5F5F5F5F5F5F5F5F5F5F5F5F5F5F5F5F5F5F5F5F5F5F5F5F5F5F5F5F5F5F5F5F5F5F5F5F5F5F5F5F5
310
F5F5F5F5F5F5F5F5F5F5F5F5F5F5F5F5F5F5F5F5F5F5F5F5F5F5F5F5F5F5F5F5F5F5F5F5F5F5F5F5F5F5F5F5F5F5F5F5F5F5F5F5F5F5F5F5F5F5F5F5F5F5F5F5F5F5F5F5F5F5F5F5F5F5F5F5F5F5F5F5F5F5F5F5F5F5F5F5F5F5F5F5F5F5F5F5F5F5F5F5F5F5F5F5F5F5F5F5F5F5F5F5F5F5F5F5F5F5F5F5F5E2E2EFE2F5F5
310
F5F5F5F5F5F5F5F5F5F5F5F5F5F5F5F5F5F5F5F5F5F5F5F5F5F5F5F5F5F5F5F5F5F5F5F5F5F5F5F5F5F5F5F5F5F5F5F5F5F5F5F5F5F5F5F5F5F5F5F5F5F5F5F5F5F5F5F5F5F5F5F5F5F5F5F5F5F5F5F5F5F5F5F5F5F5F5F5F5F5F5F5F5F5F5F5F5F5F5F5F5F5F5F5F5F5F5F5F5F5F5F5F5F5F5F5F5F5F5F5F5F5F5F5F5F5F5
310
F5F5F5F5F5F5F5F5F5F5F5F5F5F5F5F5F5F5F5F5F5F5F5F5F5F5F5F5F5F5F5F5F5F5F5F5F5F5F5F5F5F5F5F5F5F5F5E2E2EFE2F5F5F5F5F5F5F5F5F5F5F5F5F5F5F5F5F5F5F5F5F5F5F5F5F5F5F5F5F5F5F5F5F5F5F5F5F5F5F5F5F5F5F5F5F5F5F5F5F5F5F5F5F5F5F5F5F5F5F5F5F5F5F5F5F5F5F5F5F5F5F5F5F5F5F5F5
310
F5F5F5F5F5F5F5F5F5F5F5F5F5F5F5F5F5F5F5F5F5F5F5F5F5F5F5F5F5F5F5F5F5F5F5F5F5F5F5F5F5F5F5F5F5F5F5F5F5F5F5F5F5F5F5F5F5F5F5F5F5F5F5F5F5F5F5F5F5F5F5F5F5F5F5F5F5F5F5F5F5F5F5F5F5F5F5F5F5F5F5F5F5F5F5F5F5F5F5F5E2E2EFE2F5F5F5F5F5F5F5F5F5F5F5F5F5F5F5F5F5F5F5F5F5F5F5
310
F5F5F5F5F5F5F5F5F5F5F5F5F5F5F5F5F5F5F5F5F5F5F5F5F5F5F5F5F5F5F5F5F5F5F5F5F5F5F5F5F5F5F5F5F5F5F5F5F5F5F5F5F5F5F5F5F5F5F5F5F5F5F5F5F5F5F5F5F5F5F5F5F5F5F5F5F5F5F5F5F5F5F5F5F5F5F5F5F5F5F5F5F5F5F5F5F5F5F5F5F5F5F5F5F5F5F5F5F5F5F5F5F5F5F5F5F5F5F5F5F5F5F5F5F5F5F5
310
F5F5F5F5F5F5F5F5F5F5F5F5F5F5F5F5F5F5F5F5F5F5F5F5F5F5E2E2EFE2F5F5F5F5F5F5F5F5F5F5F5F5F5F5F5F5F5F5F5F5F5F5F5F5F5F5F5F5F5F5F5F5F5F5F5F5F5F5F5F5F5F5F5F5F5F5F5F5F5F5F5F5F5F5F5F5F5F5F5F5F5F5F5F5F5F5F5F5F5F5F5F5F5F5F5F5F5F5F5F5F5F5F5F5F5F5F5F5F5F5F5F5F5F5F5F5F5
310
F5F5F5F5F5F5F5F5F5F5F5F5F5F5F5F5F5F5F5F5F5F5F5F5F5F5F5F5F5F5F5F5F5F5F5F5F5F5F5F5F5F5F5F5F5F5F5F5F5F5F5F5F5F5F5F5F5F5F5F5F5F5F5F5F5F5F5F5F5F5F5F5F5F5F5F5F5F5F5E2E2EFE2F5F5F5F5F5F5F5F5F5F5F5F5F5F5F5F5F5F5F5F5F5F5F5F5F5F5F5F5F5F5F5F5F5F5F5F5F5F5F5F5F5F5F5F5
310
F5F5F5F5F5F5F5F5F5F5F5F5F5F5F5F5F5F5F5F5F5F5F5F5F5F5F5F5F5F5F5F5F5F5F5F5F5F5F5F5F5F5F5F5F5F5F5F5F5F5F5F5F5F5F5F5F5F5F5F5F5F5F5F5F5F5F5F5F5F5F5F5F5F5F5F5F5F5F5F5F5F5F5F5F5F5F5F5F5F5F5F5F5F5F5F5F5F5F5F5F5F5F5F5F5F5F5F5F5F5F5F5F5F5F5F5F5F5F5F5F5F5F5F5F5F5F5
310
F5F5F5F5F5E2E2EFE2F5F5F5F5F5F5F5F5F5F5F5F5F5F5F5F5F5F5F5F5F5F5F5F5F5F5F5F5F5F5F5F5F5F5F5F5F5F5F5F5F5F5F5F5F5F5F5F5F5F5F5F5F5F5F5F5F5F5F5F5F5F5F5F5F5F5F5F5F5F5F5F5F5F5F5F5F5F5F5F5F5F5F5F5F5F5F5F5F5F5F5F5F5F5F5F5F5F5F5F5F5F5F5F5F5F5F5F5F5F5F5F5F5F5F5F5F5F5
310
F5F5F5F5F5F5F5F5F5F5F5F5F5F5F5F5F5F5F5F5F5F5F5F5F5F5F5F5F5F5F5F5F5F5F5F5F5F5F5F5F5F5F5F5F5F5F5F5F5F5F5F5F5F5F5F5F5F5E2E2EFE2F5F5F5F5F5F5F5F5F5F5F5F5F5F5F5F5F5F5F5F5F5F5F5F5F5F5F5F5F5F5F5F5F5F5F5F5F5F5F5F5F5F5F5F5F5F5F5F5F5F5F5F5F5F5F5F5F5F5F5F5F5F5F5F5F5
310
F5F5F5F5F5F5F5F5F5F5F5F5F5F5F5F5F5F5F5F5F5F5F5F5F5F5F5F5F5F5F5F5F5F5F5F5F5F5F5F5F5F5F5F5F5F5F5F5F5F5F5F5F5F5F5F5F5F5F5F5F5F5F5F5F5F5F5F5F5F5F5F5F5F5F5F5F5F5F5F5F5F5F5F5F5F5F5F5F5F5F5F5F5F5F5F5F5F5F5F5F5F5F5F5F5F5F5F5F5F5F5E2E2EFE2F5F5F5F5F5F5F5F5F5F5F5F5
310
F5F5F5F5F5F5F5F5F5F5F5F5F5F5F5F5F5F5F5F5F5F5F5F5F5F5F5F5F5F5F5F5F5F5F5F5F5F5F5F5F5F5F5F5F5F5F5F5F5F5F5F5F5F5F5F5F5F5F5F5F5F5F5F5F5F5F5F5F5F5F5F5F5F5F5F5F5F5F5F5F5F5F5F5F5F5F5F5F5F5F5F5F5F5F5F5F5F5F5F5F5F5F5F5F5F5F5F5F5F5F5F5F5F5F5F5F5F5F5F5F5F5F5F5F5F5F5
310
F5F5F5F5F5F5F5F5F5F5F5F5F5F5F5F5F5F5F5F5F5F5F5F5F5F5F5F5F5F5F5F5F5F5F5F5F5E2E2EFE2E2F5F5F5F5F5F5F5F5F5F5F5F5F5F5F5F5F5F5F5F5F5F5F5F5F5F5F5F5F5F5F5F5F5F5F5F5F5F5F5F5F5F5F5F5F5F5F5F5F5F5F5F5F5F5F5F5F5F5F5F5F5F5F5F5F5F5F5F5F5F5F5F5F5F5F5F5F5F5F5F5F5F5F5F5F5
310
F5F5F5F5F5F5F5F5F5F5F5F5F5F5F5F5F5F5F5F5F5F5F5F5F5F5F5F5F5F5F5F5F5F5F5F5F5F5F5F5F5F5F5F5F5F5F5F5F5F5F5F5F5F5F5F5F5F5F5F5F5F5F5F5F5F5F5F5F5F5F5F5F5F5F5F5F5F5F5F5F5F5F5F5E2F5F5F5F5F5E2E2EFE2E2F5F5F5F5F5F5F5F5F5F5F5F5F5F5F5F5F5F5F5F5F5F5F5F5F5F5F5F5F5F5F5F5
310
F5F5F5F5F5F5F5F5F5F5F5F5F5F5F5F5F5F5F5F5F5F5F5F5F5F5F5F5F5F5F5F5F5F5F5F5F5F5F5F5F5F5F5F5F5F5F5F5F5F5F5F5F5F5F5F5F5F5F5F5F5F5F5F5F5F5F5F5F5F5F5F5F5F5F5F5F5F5F5F5F5F5F5F5F5F5F5F5F5F5F5F5F5F5F5F5F5F5F5F5F5F5F5F5F5F5F5F5F5F5F5F5F5F5F5F5F5F5F5F5F5F5F5F5F5F5F5
310
F5F5F5F5F5F5F5F5F5F5E2F5F5F5F5F5E2E2EFE2E2F5F5F5F5F5F5F5F5F5F5F5F5F5F5F5F5F5F5F5F5F5F5F5F5F5F5F5F5F5F5F5F5F5F5F5F5F5F5F5F5F5F5F5F5F5F5F5F5F5F5F5F5F5F5F5F5F5F5F5F5F5F5F5F5F5F5F5F5F5F5F5F5F5F5F5F5F5F5F5F5F5F5F5F5F5F5F5F5F5F5F5F5F5F5F5F5F5F5F5F5F5F5F5F5F5F5
310
F5F5F5F5F5F5F5F5F5F5F5F5F5F5F5F5F5F5F5F5F5F5F5F5F5F5F5F5F5F5F5F5F5F5F5F5F5F5F5F5F5F5F5F5F5F5F5F5F5F5F5F5F5F5F5F5F5F5F5F5F5F5F5E2F5F5F5F5F5E2E2EFE2E2F5F5F5F5F5F5F5F5F5F5F5F5F5F5F5F5F5F5F5F5F5F5F5F5F5F5F5F5F5F5F5F5F5F5F5F5F5F5F5F5F5F5F5F5F5F5F5F5F5F5F5F5F5
310
F5F5F5F5F5F5F5F5F5F5F5F5F5F5F5F5F5F5F5F5F5F5F5F5F5F5F5F5F5F5F5F5F5F5F5F5F5F5F5F5F5F5F5F5F5F5F5F5F5F5F5F5F5F5F5F5F5F5F5F5F5F5F5F5F5F5F5F5F5F5F5F5F5F5F5F5F5F5F5F5F5F5F5F5F5F5F5F5F5F5F5F5F5F5F5F5F5F5F5F5F5F5F5F5F5F5F5F5F5F5F5F5F5F5F5F5E2F5F5F5F5F5E2E2EFE2E2
310
F5F5F5F5F5F5F5F5F5F5F5F5F5F5F5F5F5F5F5F5F5F5F5F5F5F5F5F5F5F5F5F5F5F5F5F5F5F5F5F5F5F5F5F5F5F5F5F5F5F5F5F5F5F5F5F5F5F5F5F5F5F5F5F5F5F5F5F5F5F5F5F5F5F5F5F5F5F5F5F5F5F5F5F5F5F5F5F5F5F5F5F5F5F5F5F5F5F5F5F5F5F5F5F5F5F5F5F5F5F5F5F5F5F5F5F5F5F5F5F5F5F5F5F5F5F5F5
310
F5F5F5F5F5F5F5F5F5F5F5F5F5F5F5F5F5F5F5F5F5F5F5F5F5F5F5F5F5F5F5F5F5F5F5F5F5F5F5F5F5F5E2F5F5F5F5F5E2E2EFE2E2F5F5F5F5F5F5F5F5F5F5F5F5F5F5F5F5F5F5F5F5F5F5F5F5F5F5F5F5F5F5F5F5F5F5F5F5F5F5F5F5F5F5F5F5F5F5F5F5F5F5F5F5F5F5F5F5F5F5F5F5F5F5F5F5F5F5F5F5F5F5F5F5F5F5
310
F5F5F5F5F5F5F5F5F5F5F5F5F5F5F5F5F5F5F5F5F5F5F5F5F5F5F5F5F5F5F5F5F5F5F5F5F5F5F5F5F5F5F5F5F5F5F5F5F5F5F5F5F5F5F5F5F5F5F5F5F5F5F5F5F5F5F5F5F5F5F5F5F5F5F5F5F5F5F5F5F5F5F5F5F5F5F5F5F5F5F5F5F5F5F5E2F5F5F5F5F5E2E2EFE2E2F5F5F5F5F5F5F5F5F5F5F5F5F5F5F5F5F5F5F5F5F5
310
F5F5F5F5F5F5F5F5F5F5F5F5F5F5F5F5F5F5F5F5F5F5F5F5F5F5F5F5F5F5F5F5F5F5F5F5F5F5F5F5F5F5F5F5F5F5F5F5F5F5F5F5F5F5F5F5F5F5F5F5F5F5F5F5F5F5F5F5F5F5F5F5F5F5F5F5F5F5F5F5F5F5F5F5F5F5F5F5F5F5F5F5F5F5F5F5F5F5F5F5F5F5F5F5F5F5F5F5F5F5F5F5F5F5F5F5F5F5F5F5F5F5F5F5F5F5F5
310
F5F5F5F5F5F5F5F5F5F5F5F5F5F5F5F5F5F5F5F5F5E2F5F5F5F5F5E2E2EFE2E2F5F5F5F5F5F5F5F5F5F5F5F5F5F5F5F5F5F5F5F5F5F5F5F5F5F5F5F5F5F5F5F5F5F5F5F5F5F5F5F5F5F5F5F5F5F5F5F5F5F5F5F5F5F5F5F5F5F5F5F5F5F5F5F5F5F5F5F5F5F5F5F5F5F5F5F5F5F5F5F5F5F5F5F5F5F5F5F5F5F5F5F5F5F5F5
310
F5F5F5F5F5F5F5F5F5F5F5F5F5F5F5F5F5F5F5F5F5F5F5F5F5F5F5F5F5F5F5F5F5F5F5F5F5F5F5F5F5F5F5F5F5F5F5F5F5F5F5F5F5F5F5F5F5F5F5F5F5F5F5F5F5F5F5F5F5F5F5F5F5F5E2F5F5F5F5F5E2E2EFE2E2F5F5F5F5F5F5F5F5F5F5F5F5F5F5F5F5F5F5F5F5F5F5F5F5F5F5F5F5F5F5F5F5F5F5F5F5F5F5F5F5F5F5
310
F5F5F5F5F5F5F5F5F5F5F5F5F5F5F5F5F5F5F5F5F5F5F5F5F5F5F5F5F5F5F5F5F5F5F5F5F5F5F5F5F5F5F5F5F5F5F5F5F5F5F5F5F5F5F5F5F5F5F5F5F5F5F5F5F5F5F5F5F5F5F5F5F5F5F5F5F5F5F5F5F5F5F5F5F5F5F5F5F5F5F5F5F5F5F5F5F5F5F5F5F5F5F5F5F5F5F5F5F5F5F5F5F5F5F5F5F5F5F5F5F5F5F5F5F5F5F5
310
E2F5F5F5F5F5E2E2EFE2E2F5F5F5F5F5F5F5F5F5F5F5F5F5F5F5F5F5F5F5F5F5F5F5F5F5F5F5F5F5F5F5F5F5F5F5F5F5F5F5F5F5F5F5F5F5F5F5F5F5F5F5F5F5F5F5F5F5F5F5F5F5F5F5F5F5F5F5F5F5F5F5F5F5F5F5F5F5F5F5F5F5F5F5F5F5F5F5F5F5F5F5F5F5F5F5F5F5F5F5F5F5F5F5F5F5F5F5F5F5F5F5F5F5F5F5F5
310
F5F5F5F5F5F5F5F5F5F5F5F5F5F5F5F5F5F5F5F5F5F5F5F5F5F5F5F5F5F5F5F5F5F5F5F5F5F5F5F5F5F5F5F5F5F5F5F5F5F5F5F5F5E2F5F5F5F5F5E2E2EFE2E2F5F5F5F5F5F5F5F5F5F5F5F5F5F5F5F5F5F5F5F5F5F5F5F5F5F5F5F5F5F5F5F5F5F5F5F5F5F5F5F5F5F5F5F5F5F5F5F5F5F5F5F5F5F5F5F5F5F5F5F5F5F5F5
310
F5F5F5F5F5F5F5F5F5F5F5F5F5F5F5F5F5F5F5F5F5F5F5F5F5F5F5F5F5F5F5F5F5F5F5F5F5F5F5F5F5F5F5F5F5F5F5F5F5F5F5F5F5F5F5F5F5F5F5F5F5F5F5F5F5F5F5F5F5F5F5F5F5F5F5F5F5F5F5F5F5F5F5F5F5F5F5F5F5F5F5F5F5F5F5F5F5F5F5F5F5F5F5F5F5F5E2F5F5F5F5F5E2E2EFE2E2F5F5F5F5F5F5F5F5F5F5
310
F5F5F5F5F5F5F5F5F5F5F5F5F5F5F5F5F5F5F5F5F5F5F5F5F5F5F5F5F5F5F5F5F5F5F5F5F5F5F5F5F5F5F5F5F5F5F5F5F5F5F5F5F5F5F5F5F5F5F5F5F5F5F5F5F5F5F5F5F5F5F5F5F5F5F5F5F5F5F5F5F5F5F5F5F5F5F5F5F5F5F5F5F5F5F5F5F5F5F5F5F5F5F5F5F5F5F5F5F5F5F5F5F5F5F5F5F5F5F5F5F5F5F5F5F5F5F5
310
F5F5F5F5F5F5F5F5F5F5F5F5F5F5F5F5F5F5F5F5F5F5F5F5F5F5F5F5F5F5F5F5E2F5F5F5F5F5E2E2EFE2E2F5F5F5F5F5F5F5F5F5F5F5F5F5F5F5F5F5F5F5F5F5F5F5F5F5F5F5F5F5F5F5F5F5F5F5F5F5F5F5F5F5F5F5F5F5F5F5F5F5F5F5F5F5F5F5F5F5F5F5F5F5F5F5F5F5F5F5F5F5F5F5F5F5F5F5F5F5F5F5F5F5F5F5F5
310
F5F5F5F5F5F5F5F5F5F5F5F5F5F5F5F5F5F5F5F5F5F5F5F5F5F5F5F5F5F5F5F5F5F5F5F5F5F5F5F5F5F5F5F5F5F5F5F5F5F5F5F5F5F5F5F5F5F5F5F5F5F5F5F5F5F5F5F5F5F5F5F5F5F5F5F5F5F5F5F5F5F5F5F5F5E2F5F5F5F5F5E2E2EFE2E2F5F5F5F5F5F5F5F5F5F5F5F5F5F5F5F5F5F5F5F5F5F5F5F5F5F5F5F5F5F5F5
310
F5F5F5F5F5F5F5F5F5F5F5F5F5F5F5F5F5F5F5F5F5F5F5F5F5F5F5F5F5F5F5F5F5F5F5F5F5F5F5F5F5F5F5F5F5F5F5F5F5F5F5F5F5F5F5F5F5F5F5F5F5F5F5F5F5F5F5F5F5F5F5F5F5F5F5F5F5F5F5F5F5F5F5F5F5F5F5F5F5F5F5F5F5F5F5F5F5F5F5F5F5F5F5F5F5F5F5F5F5F5F5F5F5F5F5F5F5F5F5F5F5F5F5F5F5F5F5
310
F5F5F5F5F5F5F5F5F5F5F5E2F5F5F5F5F5E2E2EFE2E2F5F5F5F5F5F5F5F5F5F5F5F5F5F5F5F5F5F5F5F5F5F5F5F5F5F5F5F5F5F5F5F5F5F5F5F5F5F5F5F5F5F5F5F5F5F5F5F5F5F5F5F5F5F5F5F5F5F5F5F5F5F5F5F5F5F5F5F5F5F5F5F5F5F5F5F5F5F5F5F5F5F5F5F5F5F5F5F5F5F5F5F5F5F5F5F5F5F5F5F5F5F5F5F5F5
310
F5F5F5F5F5F5F5F5F5F5F5F5F5F5F5F5F5F5F5F5F5F5F5F5F5F5F5F5F5F5F5F5F5F5F5F5F5F5F5F5F5F5F5F5F5F5F5F5F5F5F5F5F5F5F5F5F5F5F5F5F5F5F5F5E2F5F5F5F5F5E2E2EFE2E2F5F5F5F5F5F5F5F5F5F5F5F5F5F5F5F5F5F5F5F5F5F5F5F5F5F5F5F5F5F5F5F5F5F5F5F5F5F5F5F5F5F5F5F5F5F5F5F5F5F5F5F5
310
F5F5F5F5F5F5F5F5F5F5F5F5F5F5F5F5F5F5F5F5F5F5F5F5F5F5F5F5F5F5F5F5F5F5F5F5F5F5F5F5F5F5F5F5F5F5F5F5F5F5F5F5F5F5F5F5F5F5F5F5F5F5F5F5F5F5F5F5F5F5F5F5F5F5F5F5F5F5F5F5F5F5F5F5F5F5F5F5F5F5F5F5F5F5F5F5F5F5F5F5F5F5F5F5F5F5F5F5F5F5F5F5F5F5F5F5F5E2F5F5F5F5F5E2E2EFE2
310
F5F5F5F5F5F5F5F5F5F5F5F5F5F5F5F5F5F5F5F5F5F5F5F5F5F5F5F5F5F5F5F5F5F5F5F5F5F5F5F5F5F5F5F5F5F5F5F5F5F5F5F5F5F5F5F5F5F5F5F5F5F5F5F5F5F5F5F5F5F5F5F5F5F5F5F5F5F5F5F5F5F5F5F5F5F5F5F5F5F5F5F5F5F5F5F5F5F5F5F5F5F5F5F5F5F5F5F5F5F5F5F5F5F5F5F5F5F5F5F5F5F5F5F5F5F5F5
310
F5F5F5F5F5F5F5F5F5F5F5F5F5F5F5F5F5F5F5F5F5F5F5F5F5F5F5F5F5F5F5F5F5F5F5F5F5F5F5F5F5F5F5F5F5F5F5F5F5E2E2EFE2F5F5F5F5F5F5F5F5F5F5F5F5F5F5F5F5F5F5F5F5F5F5F5F5F5F5F5F5F5F5F5F5F5F5F5F5F5F5F5F5F5F5F5F5F5F5F5F5F5F5F5F5F5F5F5F5F5F5F5F5F5F5F5F5F5F5F5F5F5F5F5F5F5F5
310
F5F5F5F5F5F5F5F5F5F5F5F5F5F5F5F5F5F5F5F5F5F5F5F5F5F5F5F5F5F5F5F5F5F5F5F5F5F5F5F5F5F5F5F5F5F5F5F5F5F5F5F5F5F5F5F5F5F5F5F5F5F5F5F5F5F5F5F5F5F5F5F5F5F5F5F5F5F5F5F5F5F5F5F5F5F5F5F5F5F5F5F5F5F5F5F5F5F5F5F5F5F5E2E2EFE2F5F5F5F5F5F5F5F5F5F5F5F5F5F5F5F5F5F5F5F5F5
310
F5F5F5F5F5F5F5F5F5F5F5F5F5F5F5F5F5F5F5F5F5F5F5F5F5F5F5F5F5F5F5F5F5F5F5F5F5F5F5F5F5F5F5F5F5F5F5F5F5F5F5F5F5F5F5F5F5F5F5F5F5F5F5F5F5F5F5F5F5F5F5F5F5F5F5F5F5F5F5F5F5F5F5F5F5F5F5F5F5F5F5F5F5F5F5F5F5F5F5F5F5F5F5F5F5F5F5F5F5F5F5F5F5F5F5F5F5F5F5F5F5F5F5F5F5F5F5
310
F5F5F5F5F5F5F5F5F5F5F5F5F5F5F5F5F5F5F5F5F5F5F5F5F5F5F5F5E2E2EFE2F5F5F5F5F5F5F5F5F5F5F5F5F5F5F5F5F5F5F5F5F5F5F5F5F5F5F5F5F5F5F5F5F5F5F5F5F5F5F5F5F5F5F5F5F5F5F5F5F5F5F5F5F5F5F5F5F5F5F5F5F5F5F5F5F5F5F5F5F5F5F5F5F5F5F5F5F5F5F5F5F5F5F5F5F5F5F5F5F5F5F5F5F5F5F5
310
F5F5F5F5F5F5F5F5F5F5F5F5F5F5F5F5F5F5F5F5F5F5F5F5F5F5F5F5F5F5F5F5F5F5F5F5F5F5F5F5F5F5F5F5F5F5F5F5F5F5F5F5F5F5F5F5F5F5F5F5F5F5F5F5F5F5F5F5F5F5F5F5F5F5F5F5F5F5F5F5F5E2E2EFE2F5F5F5F5F5F5F5F5F5F5F5F5F5F5F5F5F5F5F5F5F5F5F5F5F5F5F5F5F5F5F5F5F5F5F5F5F5F5F5F5F5F5
310
F5F5F5F5F5F5F5F5F5F5F5F5F5F5F5F5F5F5F5F5F5F5F5F5F5F5F5F5F5F5F5F5F5F5F5F5F5F5F5F5F5F5F5F5F5F5F5F5F5F5F5F5F5F5F5F5F5F5F5F5F5F5F5F5F5F5F5F5F5F5F5F5F5F5F5F5F5F5F5F5F5F5F5F5F5F5F5F5F5F5F5F5F5F5F5F5F5F5F5F5F5F5F5F5F5F5F5F5F5F5F5F5F5F5F5F5F5F5F5F5F5F5F5F5F5F5F5
310
F5F5F5F5F5F5F5E2E2EFE2F5F5F5F5F5F5F5F5F5F5F5F5F5F5F5F5F5F5F5F5F5F5F5F5F5F5F5F5F5F5F5F5F5F5F5F5F5F5F5F5F5F5F5F5F5F5F5F5F5F5F5F5F5F5F5F5F5F5F5F5F5F5F5F5F5F5F5F5F5F5F5F5F5F5F5F5F5F5F5F5F5F5F5F5F5F5F5F5F5F5F5F5F5F5F5F5F5F5F5F5F5F5F5F5F5F5F5F5F5F5F5F5F5F5F5F5
310
F5F5F5F5F5F5F5F5F5F5F5F5F5F5F5F5F5F5F5F5F5F5F5F5F5F5F5F5F5F5F5F5F5F5F5F5F5F5F5F5F5F5F5F5F5F5F5F5F5F5F5F5F5F5F5F5F5F5F5F5E2E2EFE2F5F5F5F5F5F5F5F5F5F5F5F5F5F5F5F5F5F5F5F5F5F5F5F5F5F5F5F5F5F5F5F5F5F5F5F5F5F5F5F5F5F5F5F5F5F5F5F5F5F5F5F5F5F5F5F5F5F5F5F5F5F5F5
310
F5F5F5F5F5F5F5F5F5F5F5F5F5F5F5F5F5F5F5F5F5F5F5F5F5F5F5F5F5F5F5F5F5F5F5F5F5F5F5F5F5F5F5F5F5F5F5F5F5F5F5F5F5F5F5F5F5F5F5F5F5F5F5F5F5F5F5F5F5F5F5F5F5F5F5F5F5F5F5F5F5F5F5F5F5F5F5F5F5F5F5F5F5F5F5F5F5F5F5F5F5F5F5F5F5F5F5F5F5F5F5F5F5E2E2EFE2F5F5F5F5F5F5F5F5F5F5
310
F5F5F5F5F5F5F5F5F5F5F5F5F5F5F5F5F5F5F5F5F5F5F5F5F5F5F5F5F5F5F5F5F5F5F5F5F5F5F5F5F5F5F5F5F5F5F5F5F5F5F5F5F5F5F5F5F5F5F5F5F5F5F5F5F5F5F5F5F5F5F5F5F5F5F5F5F5F5F5F5F5F5F5F5F5F5F5F5F5F5F5F5F5F5F5F5F5F5F5F5F5F5F5F5F5F5F5F5F5F5F5F5F5F5F5F5F5F5F5F5F5F5F5F5F5F5F5
310
F5F5F5F5F5F5F5F5F5F5F5F5F5F5F5F5F5F5F5F5F5F5F5F5F5F5F5F5F5F5F5F5F5F5F5F5F5F5F5E2E2EFE2E2F5F5F5F5F5F5F5F5F5F5F5F5F5F5F5F5F5F5F5F5F5F5F5F5F5F5F5F5F5F5F5F5F5F5F5F5F5F5F5F5F5F5F5F5F5F5F5F5F5F5F5F5F5F5F5F5F5F5F5F5F5F5F5F5F5F5F5F5F5F5F5F5F5F5F5F5F5F5F5F5F5F5F5
310
F5F5F5F5F5F5F5F5F5F5F5F5F5F5F5F5F5F5F5F5F5F5F5F5F5F5F5F5F5F5F5F5F5F5F5F5F5F5F5F5F5F5F5F5F5F5F5F5F5F5F5F5F5F5F5F5F5F5F5F5F5F5F5F5F5F5F5F5F5F5F5F5F5F5F5F5F5F5F5F5F5F5F5F5F5F5E2F5F5F5F5F5E2E2EFE2E2F5F5F5F5F5F5F5F5F5F5F5F5F5F5F5F5F5F5F5F5F5F5F5F5F5F5F5F5F5F5
310
F5F5F5F5F5F5F5F5F5F5F5F5F5F5F5F5F5F5F5F5F5F5F5F5F5F5F5F5F5F5F5F5F5F5F5F5F5F5F5F5F5F5F5F5F5F5F5F5F5F5F5F5F5F5F5F5F5F5F5F5F5F5F5F5F5F5F5F5F5F5F5F5F5F5F5F5F5F5F5F5F5F5F5F5F5F5F5F5F5F5F5F5F5F5F5F5F5F5F5F5F5F5F5F5F5F5F5F5F5F5F5F5F5F5F5F5F5F5F5F5F5F5F5F5F5F5F5
310
F5F5F5F5F5F5F5F5F5F5F5F5E2F5F5F5F5F5E2E2EFE2E2F5F5F5F5F5F5F5F5F5F5F5F5F5F5F5F5F5F5F5F5F5F5F5F5F5F5F5F5F5F5F5F5F5F5F5F5F5F5F5F5F5F5F5F5F5F5F5F5F5F5F5F5F5F5F5F5F5F5F5F5F5F5F5F5F5F5F5F5F5F5F5F5F5F5F5F5F5F5F5F5F5F5F5F5F5F5F5F5F5F5F5F5F5F5F5F5F5F5F5F5F5F5F5F5
310
F5F5F5F5F5F5F5F5F5F5F5F5F5F5F5F5F5F5F5F5F5F5F5F5F5F5F5F5F5F5F5F5F5F5F5F5F5F5F5F5F5F5F5F5F5F5F5F5F5F5F5F5F5F5F5F5F5F5F5F5F5F5F5F5F5E2F5F5F5F5F5E2E2EFE2E2F5F5F5F5F5F5F5F5F5F5F5F5F5F5F5F5F5F5F5F5F5F5F5F5F5F5F5F5F5F5F5F5F5F5F5F5F5F5F5F5F5F5F5F5F5F5F5F5F5F5F5
310
F5F5F5F5F5F5F5F5F5F5F5F5F5F5F5F5F5F5F5F5F5F5F5F5F5F5F5F5F5F5F5F5F5F5F5F5F5F5F5F5F5F5F5F5F5F5F5F5F5F5F5F5F5F5F5F5F5F5F5F5F5F5F5F5F5F5F5F5F5F5F5F5F5F5F5F5F5F5F5F5F5F5F5F5F5F5F5F5F5F5F5F5F5F5F5F5F5F5F5F5F5F5F5F5F5F5F5F5F5F5F5F5F5F5F5F5F5F5E2F5F5F5F5F5E2E2EF
310
E2E2F5F5F5F5F5F5F5F5F5F5F5F5F5F5F5F5F5F5F5F5F5F5F5F5F5F5F5F5F5F5F5F5F5F5F5F5F5F5F5F5F5F5F5F5F5F5F5F5F5F5F5F5F5F5F5F5F5F5F5F5F5F5F5F5F5F5F5F5F5F5F5F5F5F5F5F5F5F5F5F5F5F5F5F5F5F5F5F5F5F5F5F5F5F5F5F5F5F5F5F5F5F5F5F5F5F5F5F5F5F5F5F5F5F5F5F5F5F5F5F5F5F5F5F5F5
310
F5F5F5F5F5F5F5F5F5F5F5F5F5F5F5F5F5F5F5F5F5F5F5F5F5F5F5F5F5F5F5F5F5F5F5F5F5F5F5F5F5F5F5F5E2F5F5F5F5F5E2E2EFE2E2F5F5F5F5F5F5F5F5F5F5F5F5F5F5F5F5F5F5F5F5F5F5F5F5F5F5F5F5F5F5F5F5F5F5F5F5F5F5F5F5F5F5F5F5F5F5F5F5F5F5F5F5F5F5F5F5F5F5F5F5F5F5F5F5F5F5F5F5F5F5F5F5
310
F5F5F5F5F5F5F5F5F5F5F5F5F5F5F5F5F5F5F5F5F5F5F5F5F5F5F5F5F5F5F5F5F5F5F5F5F5F5F5F5F5F5F5F5F5F5F5F5F5F5F5F5F5F5F5F5F5F5F5F5F5F5F5F5F5F5F5F5F5F5F5F5F5F5F5F5F5F5F5F5F5F5F5F5F5F5F5F5F5F5F5F5F5F5F5F5F5E2F5F5F5F5F5E2E2EFE2E2F5F5F5F5F5F5F5F5F5F5F5F5F5F5F5F5F5F5F5
310
F5F5F5F5F5F5F5F5F5F5F5F5F5F5F5F5F5F5F5F5F5F5F5F5F5F5F5F5F5F5F5F5F5F5F5F5F5F5F5F5F5F5F5F5F5F5F5F5F5F5F5F5F5F5F5F5F5F5F5F5F5F5F5F5F5F5F5F5F5F5F5F5F5F5F5F5F5F5F5F5F5F5F5F5F5F5F5F5F5F5F5F5F5F5F5F5F5F5F5F5F5F5F5F5F5F5F5F5F5F5F5F5F5F5F5F5F5F5F5F5F5F5F5F5F5F5F5
310
F5F5F5F5F5F5F5F5F5F5F5F5F5F5F5F5F5F5F5F5F5F5F5E2F5F5F5F5F5E2E2EFE2E2F5F5F5F5F5F5F5F5F5F5F5F5F5F5F5F5F5F5F5F5F5F5F5F5F5F5F5F5F5F5F5F5F5F5F5F5F5F5F5F5F5F5F5F5F5F5F5F5F5F5F5F5F5F5F5F5F5F5F5F5F5F5F5F5F5F5F5F5F5F5F5F5F5F5F5F5F5F5F5F5F5F5F5F5F5F5F5F5F5F5F5F5F5
310
F5F5F5F5F5F5F5F5F5F5F5F5F5F5F5F5F5F5F5F5F5F5F5F5F5F5F5F5F5F5F5F5F5F5F5F5F5F5F5F5F5F5F5F5F5F5F5F5F5F5F5F5F5F5F5F5F5F5F5F5F5F5F5F5F5F5F5F5F5F5F5F5F5F5F5F5E2F5F5F5F5F5E2E2EFE2E2F5F5F5F5F5F5F5F5F5F5F5F5F5F5F5F5F5F5F5F5F5F5F5F5F5F5F5F5F5F5F5F5F5F5F5F5F5F5F5F5
310
F5F5F5F5F5F5F5F5F5F5F5F5F5F5F5F5F5F5F5F5F5F5F5F5F5F5F5F5F5F5F5F5F5F5F5F5F5F5F5F5F5F5F5F5F5F5F5F5F5F5F5F5F5F5F5F5F5F5F5F5F5F5F5F5F5F5F5F5F5F5F5F5F5F5F5F5F5F5F5F5F5F5F5F5F5F5F5F5F5F5F5F5F5F5F5F5F5F5F5F5F5F5F5F5F5F5F5F5F5F5F5F5F5F5F5F5F5F5F5F5F5F5F5F5F5F5F5
310
F5F5E2F5F5F5F5F5E2E2EFE2E2F5F5F5F5F5F5F5F5F5F5F5F5F5F5F5F5F5F5F5F5F5F5F5F5F5F5F5F5F5F5F5F5F5F5F5F5F5F5F5F5F5F5F5F5F5F5F5F5F5F5F5F5F5F5F5F5F5F5F5F5F5F5F5F5F5F5F5F5F5F5F5F5F5F5F5F5F5F5F5F5F5F5F5F5F5F5F5F5F5F5F5F5F5F5F5F5F5F5F5F5F5F5F5F5F5F5F5F5F5F5F5F5F5F5
310
F5F5F5F5F5F5F5F5F5F5F5F5F5F5F5F5F5F5F5F5F5F5F5F5F5F5F5F5F5F5F5F5F5F5F5F5F5F5F5F5F5F5F5F5F5F5F5F5F5F5F5F5F5F5F5E2F5F5F5F5F5E2E2EFE2E2F5F5F5F5F5F5F5F5F5F5F5F5F5F5F5F5F5F5F5F5F5F5F5F5F5F5F5F5F5F5F5F5F5F5F5F5F5F5F5F5F5F5F5F5F5F5F5F5F5F5F5F5F5F5F5F5F5F5F5F5F5
310
F5F5F5F5F5F5F5F5F5F5F5F5F5F5F5F5F5F5F5F5F5F5F5F5F5F5F5F5F5F5F5F5F5F5F5F5F5F5F5F5F5F5F5F5F5F5F5F5F5F5F5F5F5F5F5F5F5F5F5F5F5F5F5F5F5F5F5F5F5F5F5F5F5F5F5F5F5F5F5F5F5F5F5F5F5F5F5F5F5F5F5F5F5F5F5F5F5F5F5F5F5F5F5F5F5F5F5F5E2F5F5F5F5F5E2E2EFE2E2F5F5F5F5F5F5F5F5
310
F5F5F5F5F5F5F5F5F5F5F5F5F5F5F5F5F5F5F5F5F5F5F5F5F5F5F5F5F5F5F5F5F5F5F5F5F5F5F5F5F5F5F5F5F5F5F5F5F5F5F5F5F5F5F5F5F5F5F5F5F5F5F5F5F5F5F5F5F5F5F5F5F5F5F5F5F5F5F5F5F5F5F5F5F5F5F5F5F5F5F5F5F5F5F5F5F5F5F5F5F5F5F5F5F5F5F5F5F5F5F5F5F5F5F5F5F5F5F5F5F5F5F5F5F5F5F5
310
F5F5F5F5F5F5F5F5F5F5F5F5F5F5F5F5F5F5F5F5F5F5F5F5F5F5F5F5F5F5F5F5F5F5E2F5F5F5F5F5E2E2EFE2E2F5F5F5F5F5F5F5F5F5F5F5F5F5F5F5F5F5F5F5F5F5F5F5F5F5F5F5F5F5F5F5F5F5F5F5F5F5F5F5F5F5F5F5F5F5F5F5F5F5F5F5F5F5F5F5F5F5F5F5F5F5F5F5F5F5F5F5F5F5F5F5F5F5F5F5F5F5F5F5F5F5F5
310
F5F5F5F5F5F5F5F5F5F5F5F5F5F5F5F5F5F5F5F5F5F5F5F5F5F5F5F5F5F5F5F5F5F5F5F5F5F5F5F5F5F5F5F5F5F5F5F5F5F5F5F5F5F5F5F5F5F5F5F5F5F5F5F5F5F5F5F5F5F5F5F5F5F5F5F5F5F5F5F5F5F5F5F5F5F5F5E2F5F5F5F5F5E2E2EFE2E2F5F5F5F5F5F5F5F5F5F5F5F5F5F5F5F5F5F5F5F5F5F5F5F5F5F5F5F5F5
310
F5F5F5F5F5F5F5F5F5F5F5F5F5F5F5F5F5F5F5F5F5F5F5F5F5F5F5F5F5F5F5F5F5F5F5F5F5F5F5F5F5F5F5F5F5F5F5F5F5F5F5F5F5F5F5F5F5F5F5F5F5F5F5F5F5F5F5F5F5F5F5F5F5F5F5F5F5F5F5F5F5F5F5F5F5F5F5F5F5F5F5F5F5F5F5F5F5F5F5F5F5F5F5F5F5F5F5F5F5F5F5F5F5F5F5F5F5F5F5F5F5F5F5F5F5F5F5
310
F5F5F5F5F5F5F5F5F5F5F5F5F5E2F5F5F5F5F5E2E2EFE2E2F5F5F5F5F5F5F5F5F5F5F5F5F5F5F5F5F5F5F5F5F5F5F5F5F5F5F5F5F5F5F5F5F5F5F5F5F5F5F5F5F5F5F5F5F5F5F5F5F5F5F5F5F5F5F5F5F5F5F5F5F5F5F5F5F5F5F5F5F5F5F5F5F5F5F5F5F5F5F5F5F5F5F5F5F5F5F5F5F5F5F5F5F5F5F5F5F5F5F5F5F5F5F5
310
F5F5F5F5F5F5F5F5F5F5F5F5F5F5F5F5F5F5F5F5F5F5F5F5F5F5F5F5F5F5F5F5F5F5F5F5F5F5F5F5F5F5F5F5F5F5F5F5F5F5F5F5F5F5F5F5F5F5F5F5F5F5F5F5F5F5E2F5F5F5F5F5E2E2EFE2E2F5F5F5F5F5F5F5F5F5F5F5F5F5F5F5F5F5F5F5F5F5F5F5F5F5F5F5F5F5F5F5F5F5F5F5F5F5F5F5F5F5F5F5F5F5F5F5F5F5F5
310
F5F5F5F5F5F5F5F5F5F5F5F5F5F5F5F5F5F5F5F5F5F5F5F5F5F5F5F5F5F5F5F5F5F5F5F5F5F5F5F5F5F5F5F5F5F5F5F5F5F5F5F5F5F5F5F5F5F5F5F5F5F5F5F5F5F5F5F5F5F5F5F5F5F5F5F5F5F5F5F5F5F5F5F5F5F5F5F5F5F5F5F5F5F5F5F5F5F5F5F5F5F5F5F5F5F5F5F5F5F5F5F5F5F5F5F5F5F5F5E2F5F5F5F5F5E2E2
310
EFE2F5F5F5F5F5F5F5F5F5F5F5F5F5F5F5F5F5F5F5F5F5F5F5F5F5F5F5F5F5F5F5F5F5F5F5F5F5F5F5F5F5F5F5F5F5F5F5F5F5F5F5F5F5F5F5F5F5F5F5F5F5F5F5F5F5F5F5F5F5F5F5F5F5F5F5F5F5F5F5F5F5F5F5F5F5F5F5F5F5F5F5F5F5F5F5F5F5F5F5F5F5F5F5F5F5F5F5F5F5F5F5F5F5F5F5F5F5F5F5F5F5F5F5F5F5
310
F5F5F5F5F5F5F5F5F5F5F5F5F5F5F5F5F5F5F5F5F5F5F5F5F5F5F5F5F5F5F5F5F5F5F5F5F5F5F5F5F5F5F5F5F5F5F5F5F5F5F5E2E2EFE2F5F5F5F5F5F5F5F5F5F5F5F5F5F5F5F5F5F5F5F5F5F5F5F5F5F5F5F5F5F5F5F5F5F5F5F5F5F5F5F5F5F5F5F5F5F5F5F5F5F5F5F5F5F5F5F5F5F5F5F5F5F5F5F5F5F5F5F5F5F5F5F5
310
F5F5F5F5F5F5F5F5F5F5F5F5F5F5F5F5F5F5F5F5F5F5F5F5F5F5F5F5F5F5F5F5F5F5F5F5F5F5F5F5F5F5F5F5F5F5F5F5F5F5F5F5F5F5F5F5F5F5F5F5F5F5F5F5F5F5F5F5F5F5F5F5F5F5F5F5F5F5F5F5F5F5F5F5F5F5F5F5F5F5F5F5F5F5F5F5F5F5F5F5F5F5F5F5E2E2EFE2F5F5F5F5F5F5F5F5F5F5F5F5F5F5F5F5F5F5F5
310
F5F5F5F5F5F5F5F5F5F5F5F5F5F5F5F5F5F5F5F5F5F5F5F5F5F5F5F5F5F5F5F5F5F5F5F5F5F5F5F5F5F5F5F5F5F5F5F5F5F5F5F5F5F5F5F5F5F5F5F5F5F5F5F5F5F5F5F5F5F5F5F5F5F5F5F5F5F5F5F5F5F5F5F5F5F5F5F5F5F5F5F5F5F5F5F5F5F5F5F5F5F5F5F5F5F5F5F5F5F5F5F5F5F5F5F5F5F5F5F5F5F5F5F5F5F5F5
310
F5F5F5F5F5F5F5F5F5F5F5F5F5F5F5F5F5F5F5F5F5F5F5F5F5F5F5F5F5F5E2E2EFE2F5F5F5F5F5F5F5F5F5F5F5F5F5F5F5F5F5F5F5F5F5F5F5F5F5F5F5F5F5F5F5F5F5F5F5F5F5F5F5F5F5F5F5F5F5F5F5F5F5F5F5F5F5F5F5F5F5F5F5F5F5F5F5F5F5F5F5F5F5F5F5F5F5F5F5F5F5F5F5F5F5F5F5F5F5F5F5F5F5F5F5F5F5
310
F5F5F5F5F5F5F5F5F5F5F5F5F5F5F5F5F5F5F5F5F5F5F5F5F5F5F5F5F5F5F5F5F5F5F5F5F5F5F5F5F5F5F5F5F5F5F5F5F5F5F5F5F5F5F5F5F5F5F5F5F5F5F5F5F5F5F5F5F5F5F5F5F5F5F5F5F5F5F5F5F5F5F5E2E2EFE2F5F5F5F5F5F5F5F5F5F5F5F5F5F5F5F5F5F5F5F5F5F5F5F5F5F5F5F5F5F5F5F5F5F5F5F5F5F5F5F5
310
F5F5F5F5F5F5F5F5F5F5F5F5F5F5F5F5F5F5F5F5F5F5F5F5F5F5F5F5F5F5F5F5F5F5F5F5F5F5F5F5F5F5F5F5F5F5F5F5F5F5F5F5F5F5F5F5F5F5F5F5F5F5F5F5F5F5F5F5F5F5F5F5F5F5F5F5F5F5F5F5F5F5F5F5F5F5F5F5F5F5F5F5F5F5F5F5F5F5F5F5F5F5F5F5F5F5F5F5F5F5F5F5F5F5F5F5F5F5F5F5F5F5F5F5F5F5F5
310
F5F5F5F5F5F5F5F5F5E2E2EFE2F5F5F5F5F5F5F5F5F5F5F5F5F5F5F5F5F5F5F5F5F5F5F5F5F5F5F5F5F5F5F5F5F5F5F5F5F5F5F5F5F5F5F5F5F5F5F5F5F5F5F5F5F5F5F5F5F5F5F5F5F5F5F5F5F5F5F5F5F5F5F5F5F5F5F5F5F5F5F5F5F5F5F5F5F5F5F5F5F5F5F5F5F5F5F5F5F5F5F5F5F5F5F5F5F5F5F5F5F5F5F5F5F5F5
310
F5F5F5F5F5F5F5F5F5F5F5F5F5F5F5F5F5F5F5F5F5F5F5F5F5F5F5F5F5F5F5F5F5F5F5F5F5F5F5F5F5F5F5F5F5F5F5F5F5F5F5F5F5F5F5F5F5F5F5F5F5F5E2E2EFE2F5F5F5F5F5F5F5F5F5F5F5F5F5F5F5F5F5F5F5F5F5F5F5F5F5F5F5F5F5F5F5F5F5F5F5F5F5F5F5F5F5F5F5F5F5F5F5F5F5F5F5F5F5F5F5F5F5F5F5F5F5
310
F5F5F5F5F5F5F5F5F5F5F5F5F5F5F5F5F5F5F5F5F5F5F5F5F5F5F5F5F5F5F5F5F5F5F5F5F5F5F5F5F5F5F5F5F5F5F5F5F5F5F5F5F5F5F5F5F5F5F5F5F5F5F5F5F5F5F5F5F5F5F5F5F5F5F5F5F5F5F5F5F5F5F5F5F5F5F5F5F5F5F5F5F5F5F5F5F5F5F5F5F5F5F5F5F5F5F5F5F5F5F5F5F5F5F5E2E2EFE2F5F5F5F5F5F5F5F5
310
F5F5F5F5F5F5F5F5F5F5F5F5F5F5F5F5F5F5F5F5F5F5F5F5F5F5F5F5F5F5F5F5F5F5F5F5F5F5F5F5F5F5F5F5F5F5F5F5F5F5F5F5F5F5F5F5F5F5F5F5F5F5F5F5F5F5F5F5F5F5F5F5F5F5F5F5F5F5F5F5F5F5F5F5F5F5F5F5F5F5F5F5F5F5F5F5F5F5F5F5F5F5F5F5F5F5F5F5F5F5F5F5F5F5F5F5F5F5F5F5F5F5F5F5F5F5F5
310
F5F5F5F5F5F5F5F5F5F5F5F5F5F5F5F5F5F5F5F5F5F5F5F5F5F5F5F5F5F5F5F5F5F5F5F5F5F5F5F5F5E2E2EFE2F5F5F5F5F5F5F5F5F5F5F5F5F5F5F5F5F5F5F5F5F5F5F5F5F5F5F5F5F5F5F5F5F5F5F5F5F5F5F5F5F5F5F5F5F5F5F5F5F5F5F5F5F5F5F5F5F5F5F5F5F5F5F5F5F5F5F5F5F5F5F5F5F5F5F5F5F5F5F5F5F5F5
310
F5F5F5F5F5F5F5F5F5F5F5F5F5F5F5F5F5F5F5F5F5F5F5F5F5F5F5F5F5F5F5F5F5F5F5F5F5F5F5F5F5F5F5F5F5F5F5F5F5F5F5F5F5F5F5F5F5F5F5F5F5F5F5F5F5F5F5F5F5F5F5F5F5F5F5F5F5F5F5F5F5F5F5F5F5F5F5F5F5F5F5F5F5F5E2E2EFE2E2F5F5F5F5F5F5F5F5F5F5F5F5F5F5F5F5F5F5F5F5F5F5F5F5F5F5F5F5
310
F5F5F5F5F5F5F5F5F5F5F5F5F5F5F5F5F5F5F5F5F5F5F5F5F5F5F5F5F5F5F5F5F5F5F5F5F5F5F5F5F5F5F5F5F5F5F5F5F5F5F5F5F5F5F5F5F5F5F5F5F5F5F5F5F5F5F5F5F5F5F5F5F5F5F5F5F5F5F5F5F5F5F5F5F5F5F5F5F5F5F5F5F5F5F5F5F5F5F5F5F5F5F5F5F5F5F5F5F5F5F5F5F5F5F5F5F5F5F5F5F5F5F5F5F5F5F5
310
F5F5F5F5F5F5F5F5F5F5F5F5F5F5E2F5F5F5F5F5E2E2EFE2E2F5F5F5F5F5F5F5F5F5F5F5F5F5F5F5F5F5F5F5F5F5F5F5F5F5F5F5F5F5F5F5F5F5F5F5F5F5F5F5F5F5F5F5F5F5F5F5F5F5F5F5F5F5F5F5F5F5F5F5F5F5F5F5F5F5F5F5F5F5F5F5F5F5F5F5F5F5F5F5F5F5F5F5F5F5F5F5F5F5F5F5F5F5F5F5F5F5F5F5F5F5F5
310
F5F5F5F5F5F5F5F5F5F5F5F5F5F5F5F5F5F5F5F5F5F5F5F5F5F5F5F5F5F5F5F5F5F5F5F5F5F5F5F5F5F5F5F5F5F5F5F5F5F5F5F5F5F5F5F5F5F5F5F5F5F5F5F5F5F5F5E2F5F5F5F5F5E2E2EFE2E2F5F5F5F5F5F5F5F5F5F5F5F5F5F5F5F5F5F5F5F5F5F5F5F5F5F5F5F5F5F5F5F5F5F5F5F5F5F5F5F5F5F5F5F5F5F5F5F5F5
310
F5F5F5F5F5F5F5F5F5F5F5F5F5F5F5F5F5F5F5F5F5F5F5F5F5F5F5F5F5F5F5F5F5F5F5F5F5F5F5F5F5F5F5F5F5F5F5F5F5F5F5F5F5F5F5F5F5F5F5F5F5F5F5F5F5F5F5F5F5F5F5F5F5F5F5F5F5F5F5F5F5F5F5F5F5F5F5F5F5F5F5F5F5F5F5F5F5F5F5F5F5F5F5F5F5F5F5F5F5F5F5F5F5F5F5F5F5F5F5F5E2F5F5F5F5F5E2
310
E2EFE2E2F5F5F5F5F5F5F5F5F5F5F5F5F5F5F5F5F5F5F5F5F5F5F5F5F5F5F5F5F5F5F5F5F5F5F5F5F5F5F5F5F5F5F5F5F5F5F5F5F5F5F5F5F5F5F5F5F5F5F5F5F5F5F5F5F5F5F5F5F5F5F5F5F5F5F5F5F5F5F5F5F5F5F5F5F5F5F5F5F5F5F5F5F5F5F5F5F5F5F5F5F5F5F5F5F5F5F5F5F5F5F5F5F5F5F5F5F5F5F5F5F5F5F5
310
F5F5F5F5F5F5F5F5F5F5F5F5F5F5F5F5F5F5F5F5F5F5F5F5F5F5F5F5F5F5F5F5F5F5F5F5F5F5F5F5F5F5F5F5F5F5E2F5F5F5F5F5E2E2EFE2E2F5F5F5F5F5F5F5F5F5F5F5F5F5F5F5F5F5F5F5F5F5F5F5F5F5F5F5F5F5F5F5F5F5F5F5F5F5F5F5F5F5F5F5F5F5F5F5F5F5F5F5F5F5F5F5F5F5F5F5F5F5F5F5F5F5F5F5F5F5F5
310
F5F5F5F5F5F5F5F5F5F5F5F5F5F5F5F5F5F5F5F5F5F5F5F5F5F5F5F5F5F5F5F5F5F5F5F5F5F5F5F5F5F5F5F5F5F5F5F5F5F5F5F5F5F5F5F5F5F5F5F5F5F5F5F5F5F5F5F5F5F5F5F5F5F5F5F5F5F5F5F5F5F5F5F5F5F5F5F5F5F5F5F5F5F5F5F5F5F5F5E2F5F5F5F5F5E2E2EFE2E2F5F5F5F5F5F5F5F5F5F5F5F5F5F5F5F5F5
310
F5F5F5F5F5F5F5F5F5F5F5F5F5F5F5F5F5F5F5F5F5F5F5F5F5F5F5F5F5F5F5F5F5F5F5F5F5F5F5F5F5F5F5F5F5F5F5F5F5F5F5F5F5F5F5F5F5F5F5F5F5F5F5F5F5F5F5F5F5F5F5F5F5F5F5F5F5F5F5F5F5F5F5F5F5F5F5F5F5F5F5F5F5F5F5F5F5F5F5F5F5F5F5F5F5F5F5F5F5F5F5F5F5F5F5F5F5F5F5F5F5F5F5F5F5F5F5
310
F5F5F5F5F5F5F5F5F5F5F5F5F5F5F5F5F5F5F5F5F5F5F5F5F5E2F5F5F5F5F5E2E2EFE2E2F5F5F5F5F5F5F5F5F5F5F5F5F5F5F5F5F5F5F5F5F5F5F5F5F5F5F5F5F5F5F5F5F5F5F5F5F5F5F5F5F5F5F5F5F5F5F5F5F5F5F5F5F5F5F5F5F5F5F5F5F5F5F5F5F5F5F5F5F5F5F5F5F5F5F5F5F5F5F5F5F5F5F5F5F5F5F5F5F5F5F5
310
F5F5F5F5F5F5F5F5F5F5F5F5F5F5F5F5F5F5F5F5F5F5F5F5F5F5F5F5F5F5F5F5F5F5F5F5F5F5F5F5F5F5F5F5F5F5F5F5F5F5F5F5F5F5F5F5F5F5F5F5F5F5F5F5F5F5F5F5F5F5F5F5F5F5F5F5F5F5E2F5F5F5F5F5E2E2EFE2E2F5F5F5F5F5F5F5F5F5F5F5F5F5F5F5F5F5F5F5F5F5F5F5F5F5F5F5F5F5F5F5F5F5F5F5F5F5F5
310
F5F5F5F5F5F5F5F5F5F5F5F5F5F5F5F5F5F5F5F5F5F5F5F5F5F5F5F5F5F5F5F5F5F5F5F5F5F5F5F5F5F5F5F5F5F5F5F5F5F5F5F5F5F5F5F5F5F5F5F5F5F5F5F5F5F5F5F5F5F5F5F5F5F5F5F5F5F5F5F5F5F5F5F5F5F5F5F5F5F5F5F5F5F5F5F5F5F5F5F5F5F5F5F5F5F5F5F5F5F5F5F5F5F5F5F5F5F5F5F5F5F5F5F5F5F5F5
310
F5F5F5F5E2F5F5F5F5F5E2E2EFE2E2F5F5F5F5F5F5F5F5F5F5F5F5F5F5F5F5F5F5F5F5F5F5F5F5F5F5F5F5F5F5F5F5F5F5F5F5F5F5F5F5F5F5F5F5F5F5F5F5F5F5F5F5F5F5F5F5F5F5F5F5F5F5F5F5F5F5F5F5F5F5F5F5F5F5F5F5F5F5F5F5F5F5F5F5F5F5F5F5F5F5F5F5F5F5F5F5F5F5F5F5F5F5F5F5F5F5F5F5F5F5F5F5
310
F5F5F5F5F5F5F5F5F5F5F5F5F5F5F5F5F5F5F5F5F5F5F5F5F5F5F5F5F5F5F5F5F5F5F5F5F5F5F5F5F5F5F5F5F5F5F5F5F5F5F5F5F5F5F5F5F5E2F5F5F5F5F5E2E2EFE2E2F5F5F5F5F5F5F5F5F5F5F5F5F5F5F5F5F5F5F5F5F5F5F5F5F5F5F5F5F5F5F5F5F5F5F5F5F5F5F5F5F5F5F5F5F5F5F5F5F5F5F5F5F5F5F5F5F5F5F5
310
F5F5F5F5F5F5F5F5F5F5F5F5F5F5F5F5F5F5F5F5F5F5F5F5F5F5F5F5F5F5F5F5F5F5F5F5F5F5F5F5F5F5F5F5F5F5F5F5F5F5F5F5F5F5F5F5F5F5F5F5F5F5F5F5F5F5F5F5F5F5F5F5F5F5F5F5F5F5F5F5F5F5F5F5F5F5F5F5F5F5F5F5F5F5F5F5F5F5F5F5F5F5F5F5F5F5F5F5F5F5E2F5F5F5F5F5E2E2EFE2E2F5F5F5F5F5F5
310
F5F5F5F5F5F5F5F5F5F5F5F5F5F5F5F5F5F5F5F5F5F5F5F5F5F5F5F5F5F5F5F5F5F5F5F5F5F5F5F5F5F5F5F5F5F5F5F5F5F5F5F5F5F5F5F5F5F5F5F5F5F5F5F5F5F5F5F5F5F5F5F5F5F5F5F5F5F5F5F5F5F5F5F5F5F5F5F5F5F5F5F5F5F5F5F5F5F5F5F5F5F5F5F5F5F5F5F5F5F5F5F5F5F5F5F5F5F5F5F5F5F5F5F5F5F5F5
310
F5F5F5F5F5F5F5F5F5F5F5F5F5F5F5F5F5F5F5F5F5F5F5F5F5F5F5F5F5F5F5F5F5F5F5F5E2F5F5F5F5F5E2E2EFE2E2F5F5F5F5F5F5F5F5F5F5F5F5F5F5F5F5F5F5F5F5F5F5F5F5F5F5F5F5F5F5F5F5F5F5F5F5F5F5F5F5F5F5F5F5F5F5F5F5F5F5F5F5F5F5F5F5F5F5F5F5F5F5F5F5F5F5F5F5F5F5F5F5F5F5F5F5F5F5F5F5
310
F5F5F5F5F5F5F5F5F5F5F5F5F5F5F5F5F5F5F5F5F5F5F5F5F5F5F5F5F5F5F5F5F5F5F5F5F5F5F5F5F5F5F5F5F5F5F5F5F5F5F5F5F5F5F5F5F5F5F5F5F5F5F5F5F5F5F5F5F5F5F5F5F5F5F5F5F5F5F5F5F5F5F5F5F5F5F5F5F5E2F5F5F5F5F5E2E2EFE2E2F5F5F5F5F5F5F5F5F5F5F5F5F5F5F5F5F5F5F5F5F5F5F5F5F5F5F5
310
F5F5F5F5F5F5F5F5F5F5F5F5F5F5F5F5F5F5F5F5F5F5F5F5F5F5F5F5F5F5F5F5F5F5F5F5F5F5F5F5F5F5F5F5F5F5F5F5F5F5F5F5F5F5F5F5F5F5F5F5F5F5F5F5F5F5F5F5F5F5F5F5F5F5F5F5F5F5F5F5F5F5F5F5F5F5F5F5F5F5F5F5F5F5F5F5F5F5F5F5F5F5F5F5F5F5F5F5F5F5F5F5F5F5F5F5F5F5F5F5F5F5F5F5F5F5F5
310
F5F5F5F5F5F5F5F5F5F5F5F5F5F5F5E2F5F5F5F5F5E2E2EFE2E2F5F5F5F5F5F5F5F5F5F5F5F5F5F5F5F5F5F5F5F5F5F5F5F5F5F5F5F5F5F5F5F5F5F5F5F5F5F5F5F5F5F5F5F5F5F5F5F5F5F5F5F5F5F5F5F5F5F5F5F5F5F5F5F5F5F5F5F5F5F5F5F5F5F5F5F5F5F5F5F5F5F5F5F5F5F5F5F5F5F5F5F5F5F5F5F5F5F5F5F5F5
310
F5F5F5F5F5F5F5F5F5F5F5F5F5F5F5F5F5F5F5F5F5F5F5F5F5F5F5F5F5F5F5F5F5F5F5F5F5F5F5F5F5F5F5F5F5F5F5F5F5F5F5F5F5F5F5F5F5F5F5F5F5F5F5F5F5F5F5F5E2F5F5F5F5F5E2E2EFE2E2F5F5F5F5F5F5F5F5F5F5F5F5F5F5F5F5F5F5F5F5F5F5F5F5F5F5F5F5F5F5F5F5F5F5F5F5F5F5F5F5F5F5F5F5F5F5F5F5
310
F5F5F5F5F5F5F5F5F5F5F5F5F5F5F5F5F5F5F5F5F5F5F5F5F5F5F5F5F5F5F5F5F5F5F5F5F5F5F5F5F5F5F5F5F5F5F5F5F5F5F5F5F5F5F5F5F5F5F5F5F5F5F5F5F5F5F5F5F5F5F5F5F5F5F5F5F5F5F5F5F5F5F5F5F5F5F5F5F5F5F5F5F5F5F5F5F5F5F5F5F5F5F5F5F5F5F5F5F5F5F5F5F5F5F5F5F5F5F5F5F5E2F5F5F5F5F5
310
E2E2EFE2E2F5F5F5F5F5F5F5F5F5F5F5F5F5F5F5F5F5F5F5F5F5F5F5F5F5F5F5F5F5F5F5F5F5F5F5F5F5F5F5F5F5F5F5F5F5F5F5F5F5F5F5F5F5F5F5F5F5F5F5F5F5F5F5F5F5F5F5F5F5F5F5F5F5F5F5F5F5F5F5F5F5F5F5F5F5F5F5F5F5F5F5F5F5F5F5F5F5F5F5F5F5F5F5F5F5F5F5F5F5F5F5F5F5F5F5F5F5F5F5F5F5F5
310
F5F5F5F5F5F5F5F5F5F5F5F5F5F5F5F5F5F5F5F5F5F5F5F5F5F5F5F5F5F5F5F5F5F5F5F5F5F5F5F5F5F5F5F5F5F5F5E2F5F5F5F5F5E2E2EFE2F5F5F5F5F5F5F5F5F5F5F5F5F5F5F5F5F5F5F5F5F5F5F5F5F5F5F5F5F5F5F5F5F5F5F5F5F5F5F5F5F5F5F5F5F5F5F5F5F5F5F5F5F5F5F5F5F5F5F5F5F5F5F5F5F5F5F5F5F5F5
310
F5F5F5F5F5F5F5F5F5F5F5F5F5F5F5F5F5F5F5F5F5F5F5F5F5F5F5F5F5F5F5F5F5F5F5F5F5F5F5F5F5F5F5F5F5F5F5F5F5F5F5F5F5F5F5F5F5F5F5F5F5F5F5F5F5F5F5F5F5F5F5F5F5F5F5F5F5F5F5F5F5F5F5F5F5F5F5F5F5F5F5F5F5F5F5F5F5F5F5F5F5F5F5F5F5F5E2E2EFE2F5F5F5F5F5F5F5F5F5F5F5F5F5F5F5F5F5
310
F5F5F5F5F5F5F5F5F5F5F5F5F5F5F5F5F5F5F5F5F5F5F5F5F5F5F5F5F5F5F5F5F5F5F5F5F5F5F5F5F5F5F5F5F5F5F5F5F5F5F5F5F5F5F5F5F5F5F5F5F5F5F5F5F5F5F5F5F5F5F5F5F5F5F5F5F5F5F5F5F5F5F5F5F5F5F5F5F5F5F5F5F5F5F5F5F5F5F5F5F5F5F5F5F5F5F5F5F5F5F5F5F5F5F5F5F5F5F5F5F5F5F5F5F5F5F5
310
F5F5F5F5F5F5F5F5F5F5F5F5F5F5F5F5F5F5F5F5F5F5F5F5F5F5F5F5F5F5F5F5E2E2EFE2F5F5F5F5F5F5F5F5F5F5F5F5F5F5F5F5F5F5F5F5F5F5F5F5F5F5F5F5F5F5F5F5F5F5F5F5F5F5F5F5F5F5F5F5F5F5F5F5F5F5F5F5F5F5F5F5F5F5F5F5F5F5F5F5F5F5F5F5F5F5F5F5F5F5F5F5F5F5F5F5F5F5F5F5F5F5F5F5F5F5F5
310
F5F5F5F5F5F5F5F5F5F5F5F5F5F5F5F5F5F5F5F5F5F5F5F5F5F5F5F5F5F5F5F5F5F5F5F5F5F5F5F5F5F5F5F5F5F5F5F5F5F5F5F5F5F5F5F5F5F5F5F5F5F5F5F5F5F5F5F5F5F5F5F5F5F5F5F5F5F5F5F5F5F5F5F5F5E2E2EFE2F5F5F5F5F5F5F5F5F5F5F5F5F5F5F5F5F5F5F5F5F5F5F5F5F5F5F5F5F5F5F5F5F5F5F5F5F5F5
310
F5F5F5F5F5F5F5F5F5F5F5F5F5F5F5F5F5F5F5F5F5F5F5F5F5F5F5F5F5F5F5F5F5F5F5F5F5F5F5F5F5F5F5F5F5F5F5F5F5F5F5F5F5F5F5F5F5F5F5F5F5F5F5F5F5F5F5F5F5F5F5F5F5F5F5F5F5F5F5F5F5F5F5F5F5F5F5F5F5F5F5F5F5F5F5F5F5F5F5F5F5F5F5F5F5F5F5F5F5F5F5F5F5F5F5F5F5F5F5F5F5F5F5F5F5F5F5
310
F5F5F5F5F5F5F5F5F5F5F5E2E2EFE2F5F5F5F5F5F5F5F5F5F5F5F5F5F5F5F5F5F5F5F5F5F5F5F5F5F5F5F5F5F5F5F5F5F5F5F5F5F5F5F5F5F5F5F5F5F5F5F5F5F5F5F5F5F5F5F5F5F5F5F5F5F5F5F5F5F5F5F5F5F5F5F5F5F5F5F5F5F5F5F5F5F5F5F5F5F5F5F5F5F5F5F5F5F5F5F5F5F5F5F5F5F5F5F5F5F5F5F5F5F5F5F5
310
F5F5F5F5F5F5F5F5F5F5F5F5F5F5F5F5F5F5F5F5F5F5F5F5F5F5F5F5F5F5F5F5F5F5F5F5F5F5F5F5F5F5F5F5F5F5F5F5F5F5F5F5F5F5F5F5F5F5F5F5F5F5F5F5E2E2EFE2F5F5F5F5F5F5F5F5F5F5F5F5F5F5F5F5F5F5F5F5F5F5F5F5F5F5F5F5F5F5F5F5F5F5F5F5F5F5F5F5F5F5F5F5F5F5F5F5F5F5F5F5F5F5F5F5F5F5F5
310
F5F5F5F5F5F5F5F5F5F5F5F5F5F5F5F5F5F5F5F5F5F5F5F5F5F5F5F5F5F5F5F5F5F5F5F5F5F5F5F5F5F5F5F5F5F5F5F5F5F5F5F5F5F5F5F5F5F5F5F5F5F5F5F5F5F5F5F5F5F5F5F5F5F5F5F5F5F5F5F5F5F5F5F5F5F5F5F5F5F5F5F5F5F5F5F5F5F5F5F5F5F5F5F5F5F5F5F5F5F5F5F5F5F5F5F5F5E2E2EFE2F5F5F5F5F5F5
310
F5F5F5F5F5F5F5F5F5F5F5F5F5F5F5F5F5F5F5F5F5F5F5F5F5F5F5F5F5F5F5F5F5F5F5F5F5F5F5F5F5F5F5F5F5F5F5F5F5F5F5F5F5F5F5F5F5F5F5F5F5F5F5F5F5F5F5F5F5F5F5F5F5F5F5F5F5F5F5F5F5F5F5F5F5F5F5F5F5F5F5F5F5F5F5F5F5F5F5F5F5F5F5F5F5F5F5F5F5F5F5F5F5F5F5F5F5F5F5F5F5F5F5F5F5F5F5
310
F5F5F5F5F5F5F5F5F5F5F5F5F5F5F5F5F5F5F5F5F5F5F5F5F5F5F5F5F5F5F5F5F5F5F5F5F5F5F5F5F5F5F5E2E2EFE2F5F5F5F5F5F5F5F5F5F5F5F5F5F5F5F5F5F5F5F5F5F5F5F5F5F5F5F5F5F5F5F5F5F5F5F5F5F5F5F5F5F5F5F5F5F5F5F5F5F5F5F5F5F5F5F5F5F5F5F5F5F5F5F5F5F5F5F5F5F5F5F5F5F5F5F5F5F5F5F5
310
F5F5F5F5F5F5F5F5F5F5F5F5F5F5F5F5F5F5F5F5F5F5F5F5F5F5F5F5F5F5F5F5F5F5F5F5F5F5F5F5F5F5F5F5F5F5F5F5F5F5F5F5F5F5F5F5F5F5F5F5F5F5F5F5F5F5F5F5F5F5F5F5F5F5F5F5F5F5F5F5F5F5F5F5F5F5F5F5F5F5F5F5F5F5F5F5E2E2EFE2E2F5F5F5F5F5F5F5F5F5F5F5F5F5F5F5F5F5F5F5F5F5F5F5F5F5F5
310
F5F5F5F5F5F5F5F5F5F5F5F5F5F5F5F5F5F5F5F5F5F5F5F5F5F5F5F5F5F5F5F5F5F5F5F5F5F5F5F5F5F5F5F5F5F5F5F5F5F5F5F5F5F5F5F5F5F5F5F5F5F5F5F5F5F5F5F5F5F5F5F5F5F5F5F5F5F5F5F5F5F5F5F5F5F5F5F5F5F5F5F5F5F5F5F5F5F5F5F5F5F5F5F5F5F5F5F5F5F5F5F5F5F5F5F5F5F5F5F5F5F5F5F5F5F5F5
310
F5F5F5F5F5F5F5F5F5F5F5F5F5F5F5F5E2F5F5F5F5F5E2E2EFE2E2F5F5F5F5F5F5F5F5F5F5F5F5F5F5F5F5F5F5F5F5F5F5F5F5F5F5F5F5F5F5F5F5F5F5F5F5F5F5F5F5F5F5F5F5F5F5F5F5F5F5F5F5F5F5F5F5F5F5F5F5F5F5F5F5F5F5F5F5F5F5F5F5F5F5F5F5F5F5F5F5F5F5F5F5F5F5F5F5F5F5F5F5F5F5F5F5F5F5F5F5
310
F5F5F5F5F5F5F5F5F5F5F5F5F5F5F5F5F5F5F5F5F5F5F5F5F5F5F5F5F5F5F5F5F5F5F5F5F5F5F5F5F5F5F5F5F5F5F5F5F5F5F5F5F5F5F5F5F5F5F5F5F5F5F5F5F5F5F5F5F5E2F5F5F5F5F5E2E2EFE2E2F5F5F5F5F5F5F5F5F5F5F5F5F5F5F5F5F5F5F5F5F5F5F5F5F5F5F5F5F5F5F5F5F5F5F5F5F5F5F5F5F5F5F5F5F5F5F5
310
F5F5F5F5F5F5F5F5F5F5F5F5F5F5F5F5F5F5F5F5F5F5F5F5F5F5F5F5F5F5F5F5F5F5F5F5F5F5F5F5F5F5F5F5F5F5F5F5F5F5F5F5F5F5F5F5F5F5F5F5F5F5F5F5F5F5F5F5F5F5F5F5F5F5F5F5F5F5F5F5F5F5F5F5F5F5F5F5F5F5F5F5F5F5F5F5F5F5F5F5F5F5F5F5F5F5F5F5F5F5F5F5F5F5F5F5F5F5F5F5F5F5E2F5F5F5F5
310
F5E2E2EFE2E2F5F5F5F5F5F5F5F5F5F5F5F5F5F5F5F5F5F5F5F5F5F5F5F5F5F5F5F5F5F5F5F5F5F5F5F5F5F5F5F5F5F5F5F5F5F5F5F5F5F5F5F5F5F5F5F5F5F5F5F5F5F5F5F5F5F5F5F5F5F5F5F5F5F5F5F5F5F5F5F5F5F5F5F5F5F5F5F5F5F5F5F5F5F5F5F5F5F5F5F5F5F5F5F5F5F5F5F5F5F5F5F5F5F5F5F5F5F5F5F5F5
310
F5F5F5F5F5F5F5F5F5F5F5F5F5F5F5F5F5F5F5F5F5F5F5F5F5F5F5F5F5F5F5F5F5F5F5F5F5F5F5F5F5F5F5F5F5F5F5F5E2F5F5F5F5F5E2E2EFE2E2F5F5F5F5F5F5F5F5F5F5F5F5F5F5F5F5F5F5F5F5F5F5F5F5F5F5F5F5F5F5F5F5F5F5F5F5F5F5F5F5F5F5F5F5F5F5F5F5F5F5F5F5F5F5F5F5F5F5F5F5F5F5F5F5F5F5F5F5
310
F5F5F5F5F5F5F5F5F5F5F5F5F5F5F5F5F5F5F5F5F5F5F5F5F5F5F5F5F5F5F5F5F5F5F5F5F5F5F5F5F5F5F5F5F5F5F5F5F5F5F5F5F5F5F5F5F5F5F5F5F5F5F5F5F5F5F5F5F5F5F5F5F5F5F5F5F5F5F5F5F5F5F5F5F5F5F5F5F5F5F5F5F5F5F5F5F5F5F5F5F5E2F5F5F5F5F5E2E2EFE2E2F5F5F5F5F5F5F5F5F5F5F5F5F5F5F5
310
F5F5F5F5F5F5F5F5F5F5F5F5F5F5F5F5F5F5F5F5F5F5F5F5F5F5F5F5F5F5F5F5F5F5F5F5F5F5F5F5F5F5F5F5F5F5F5F5F5F5F5F5F5F5F5F5F5F5F5F5F5F5F5F5F5F5F5F5F5F5F5F5F5F5F5F5F5F5F5F5F5F5F5F5F5F5F5F5F5F5F5F5F5F5F5F5F5F5F5F5F5F5F5F5F5F5F5F5F5F5F5F5F5F5F5F5F5F5F5F5F5F5F5F5F5F5F5
310
F5F5F5F5F5F5F5F5F5F5F5F5F5F5F5F5F5F5F5F5F5F5F5F5F5F5F5E2F5F5F5F5F5E2E2EFE2E2F5F5F5F5F5F5F5F5F5F5F5F5F5F5F5F5F5F5F5F5F5F5F5F5F5F5F5F5F5F5F5F5F5F5F5F5F5F5F5F5F5F5F5F5F5F5F5F5F5F5F5F5F5F5F5F5F5F5F5F5F5F5F5F5F5F5F5F5F5F5F5F5F5F5F5F5F5F5F5F5F5F5F5F5F5F5F5F5F5
310
F5F5F5F5F5F5F5F5F5F5F5F5F5F5F5F5F5F5F5F5F5F5F5F5F5F5F5F5F5F5F5F5F5F5F5F5F5F5F5F5F5F5F5F5F5F5F5F5F5F5F5F5F5F5F5F5F5F5F5F5F5F5F5F5F5F5F5F5F5F5F5F5F5F5F5F5F5F5F5F5E2F5F5F5F5F5E2E2EFE2E2F5F5F5F5F5F5F5F5F5F5F5F5F5F5F5F5F5F5F5F5F5F5F5F5F5F5F5F5F5F5F5F5F5F5F5F5
310
F5F5F5F5F5F5F5F5F5F5F5F5F5F5F5F5F5F5F5F5F5F5F5F5F5F5F5F5F5F5F5F5F5F5F5F5F5F5F5F5F5F5F5F5F5F5F5F5F5F5F5F5F5F5F5F5F5F5F5F5F5F5F5F5F5F5F5F5F5F5F5F5F5F5F5F5F5F5F5F5F5F5F5F5F5F5F5F5F5F5F5F5F5F5F5F5F5F5F5F5F5F5F5F5F5F5F5F5F5F5F5F5F5F5F5F5F5F5F5F5F5F5F5F5F5F5F5
310
F5F5F5F5F5F5E2F5F5F5F5F5E2E2EFE2E2F5F5F5F5F5F5F5F5F5F5F5F5F5F5F5F5F5F5F5F5F5F5F5F5F5F5F5F5F5F5F5F5F5F5F5F5F5F5F5F5F5F5F5F5F5F5F5F5F5F5F5F5F5F5F5F5F5F5F5F5F5F5F5F5F5F5F5F5F5F5F5F5F5F5F5F5F5F5F5F5F5F5F5F5F5F5F5F5F5F5F5F5F5F5F5F5F5F5F5F5F5F5F5F5F5F5F5F5F5F5
310
F5F5F5F5F5F5F5F5F5F5F5F5F5F5F5F5F5F5F5F5F5F5F5F5F5F5F5F5F5F5F5F5F5F5F5F5F5F5F5F5F5F5F5F5F5F5F5F5F5F5F5F5F5F5F5F5F5F5F5E2F5F5F5F5F5E2E2EFE2E2F5F5F5F5F5F5F5F5F5F5F5F5F5F5F5F5F5F5F5F5F5F5F5F5F5F5F5F5F5F5F5F5F5F5F5F5F5F5F5F5F5F5F5F5F5F5F5F5F5F5F5F5F5F5F5F5F5
310
F5F5F5F5F5F5F5F5F5F5F5F5F5F5F5F5F5F5F5F5F5F5F5F5F5F5F5F5F5F5F5F5F5F5F5F5F5F5F5F5F5F5F5F5F5F5F5F5F5F5F5F5F5F5F5F5F5F5F5F5F5F5F5F5F5F5F5F5F5F5F5F5F5F5F5F5F5F5F5F5F5F5F5F5F5F5F5F5F5F5F5F5F5F5F5F5F5F5F5F5F5F5F5F5F5F5F5F5F5F5F5F5E2F5F5F5F5F5E2E2EFE2E2F5F5F5F5
310
F5F5F5F5F5F5F5F5F5F5F5F5F5F5F5F5F5F5F5F5F5F5F5F5F5F5F5F5F5F5F5F5F5F5F5F5F5F5F5F5F5F5F5F5F5F5F5F5F5F5F5F5F5F5F5F5F5F5F5F5F5F5F5F5F5F5F5F5F5F5F5F5F5F5F5F5F5F5F5F5F5F5F5F5F5F5F5F5F5F5F5F5F5F5F5F5F5F5F5F5F5F5F5F5F5F5F5F5F5F5F5F5F5F5F5F5F5F5F5F5F5F5F5F5F5F5F5
310
F5F5F5F5F5F5F5F5F5F5F5F5F5F5F5F5F5F5F5F5F5F5F5F5F5F5F5F5F5F5F5F5F5F5F5F5F5F5E2F5F5F5F5F5E2E2EFE2E2F5F5F5F5F5F5F5F5F5F5F5F5F5F5F5F5F5F5F5F5F5F5F5F5F5F5F5F5F5F5F5F5F5F5F5F5F5F5F5F5F5F5F5F5F5F5F5F5F5F5F5F5F5F5F5F5F5F5F5F5F5F5F5F5F5F5F5F5F5F5F5F5F5F5F5F5F5F5
310
F5F5F5F5F5F5F5F5F5F5F5F5F5F5F5F5F5F5F5F5F5F5F5F5F5F5F5F5F5F5F5F5F5F5F5F5F5F5F5F5F5F5F5F5F5F5F5F5F5F5F5F5F5F5F5F5F5F5F5F5F5F5F5F5F5F5F5F5F5F5F5F5F5F5F5F5F5F5F5F5F5F5F5F5F5F5F5F5F5F5F5E2F5F5F5F5F5E2E2EFE2E2F5F5F5F5F5F5F5F5F5F5F5F5F5F5F5F5F5F5F5F5F5F5F5F5F5
310
F5F5F5F5F5F5F5F5F5F5F5F5F5F5F5F5F5F5F5F5F5F5F5F5F5F5F5F5F5F5F5F5F5F5F5F5F5F5F5F5F5F5F5F5F5F5F5F5F5F5F5F5F5F5F5F5F5F5F5F5F5F5F5F5F5F5F5F5F5F5F5F5F5F5F5F5F5F5F5F5F5F5F5F5F5F5F5F5F5F5F5F5F5F5F5F5F5F5F5F5F5F5F5F5F5F5F5F5F5F5F5F5F5F5F5F5F5F5F5F5F5F5F5F5F5F5F5
310
F5F5F5F5F5F5F5F5F5F5F5F5F5F5F5F5F5E2F5F5F5F5F5E2E2EFE2E2F5F5F5F5F5F5F5F5F5F5F5F5F5F5F5F5F5F5F5F5F5F5F5F5F5F5F5F5F5F5F5F5F5F5F5F5F5F5F5F5F5F5F5F5F5F5F5F5F5F5F5F5F5F5F5F5F5F5F5F5F5F5F5F5F5F5F5F5F5F5F5F5F5F5F5F5F5F5F5F5F5F5F5F5F5F5F5F5F5F5F5F5F5F5F5F5F5F5F5
310
F5F5F5F5F5F5F5F5F5F5F5F5F5F5F5F5F5F5F5F5F5F5F5F5F5F5F5F5F5F5F5F5F5F5F5F5F5F5F5F5F5F5F5F5F5F5F5F5F5F5F5F5F5F5F5F5F5F5F5F5F5F5F5F5F5F5F5F5F5F5E2F5F5F5F5F5E2E2EFE2E2F5F5F5F5F5F5F5F5F5F5F5F5F5F5F5F5F5F5F5F5F5F5F5F5F5F5F5F5F5F5F5F5F5F5F5F5F5F5F5F5F5F5F5F5F5F5
310
F5F5F5F5F5F5F5F5F5F5F5F5F5F5F5F5F5F5F5F5F5F5F5F5F5F5F5F5F5F5F5F5F5F5F5F5F5F5F5F5F5F5F5F5F5F5F5F5F5F5F5F5F5F5F5F5F5F5F5F5F5F5F5F5F5F5F5F5F5F5F5F5F5F5F5F5F5F5F5F5F5F5F5F5F5F5F5F5F5F5F5F5F5F5F5F5F5F5F5F5F5F5F5F5F5F5F5F5F5F5F5F5F5F5F5F5F5F5F5F5F5F5F5E2F5F5F5
310
F5F5E2E2EFE2E2F5F5F5F5F5F5F5F5F5F5F5F5F5F5F5F5F5F5F5F5F5F5F5F5F5F5F5F5F5F5F5F5F5F5F5F5F5F5F5F5F5F5F5F5F5F5F5F5F5F5F5F5F5F5F5F5F5F5F5F5F5F5F5F5F5F5F5F5F5F5F5F5F5F5F5F5F5F5F5F5F5F5F5F5F5F5F5F5F5F5F5F5F5F5F5F5F5F5F5F5F5F5F5F5F5F5F5F5F5F5F5F5F5F5F5F5F5F5F5F5
310
F5F5F5F5F5F5F5F5F5F5F5F5F5F5F5F5F5F5F5F5F5F5F5F5F5F5F5F5F5F5F5F5F5F5F5F5F5F5F5F5F5F5F5F5F5F5F5F5F5E2F5F5F5F5F5E2E2EFE2F5F5F5F5F5F5F5F5F5F5F5F5F5F5F5F5F5F5F5F5F5F5F5F5F5F5F5F5F5F5F5F5F5F5F5F5F5F5F5F5F5F5F5F5F5F5F5F5F5F5F5F5F5F5F5F5F5F5F5F5F5F5F5F5F5F5F5F5
310
F5F5F5F5F5F5F5F5F5F5F5F5F5F5F5F5F5F5F5F5F5F5F5F5F5F5F5F5F5F5F5F5F5F5F5F5F5F5F5F5F5F5F5F5F5F5F5F5F5F5F5F5F5F5F5F5F5F5F5F5F5F5F5F5F5F5F5F5F5F5F5F5F5F5F5F5F5F5F5F5F5F5F5F5F5F5F5F5F5F5F5F5F5F5F5F5F5F5F5F5F5F5F5F5F5F5F5F5E2E2EFE2F5F5F5F5F5F5F5F5F5F5F5F5F5F5F5
310
F5F5F5F5F5F5F5F5F5F5F5F5F5F5F5F5F5F5F5F5F5F5F5F5F5F5F5F5F5F5F5F5F5F5F5F5F5F5F5F5F5F5F5F5F5F5F5F5F5F5F5F5F5F5F5F5F5F5F5F5F5F5F5F5F5F5F5F5F5F5F5F5F5F5F5F5F5F5F5F5F5F5F5F5F5F5F5F5F5F5F5F5F5F5F5F5F5F5F5F5F5F5F5F5F5F5F5F5F5F5F5F5F5F5F5F5F5F5F5F5F5F5F5F5F5F5F5
310
F5F5F5F5F5F5F5F5F5F5F5F5F5F5F5F5F5F5F5F5F5F5F5F5F5F5F5F5F5F5F5F5F5F5E2E2EFE2F5F5F5F5F5F5F5F5F5F5F5F5F5F5F5F5F5F5F5F5F5F5F5F5F5F5F5F5F5F5F5F5F5F5F5F5F5F5F5F5F5F5F5F5F5F5F5F5F5F5F5F5F5F5F5F5F5F5F5F5F5F5F5F5F5F5F5F5F5F5F5F5F5F5F5F5F5F5F5F5F5F5F5F5F5F5F5F5F5
310
F5F5F5F5F5F5F5F5F5F5F5F5F5F5F5F5F5F5F5F5F5F5F5F5F5F5F5F5F5F5F5F5F5F5F5F5F5F5F5F5F5F5F5F5F5F5F5F5F5F5F5F5F5F5F5F5F5F5F5F5F5F5F5F5F5F5F5F5F5F5F5F5F5F5F5F5F5F5F5F5F5F5F5F5F5F5F5E2E2EFE2F5F5F5F5F5F5F5F5F5F5F5F5F5F5F5F5F5F5F5F5F5F5F5F5F5F5F5F5F5F5F5F5F5F5F5F5
310
F5F5F5F5F5F5F5F5F5F5F5F5F5F5F5F5F5F5F5F5F5F5F5F5F5F5F5F5F5F5F5F5F5F5F5F5F5F5F5F5F5F5F5F5F5F5F5F5F5F5F5F5F5F5F5F5F5F5F5F5F5F5F5F5F5F5F5F5F5F5F5F5F5F5F5F5F5F5F5F5F5F5F5F5F5F5F5F5F5F5F5F5F5F5F5F5F5F5F5F5F5F5F5F5F5F5F5F5F5F5F5F5F5F5F5F5F5F5F5F5F5F5F5F5F5F5F5
310
F5F5F5F5F5F5F5F5F5F5F5F5F5E2E2EFE2F5F5F5F5F5F5F5F5F5F5F5F5F5F5F5F5F5F5F5F5F5F5F5F5F5F5F5F5F5F5F5F5F5F5F5F5F5F5F5F5F5F5F5F5F5F5F5F5F5F5F5F5F5F5F5F5F5F5F5F5F5F5F5F5F5F5F5F5F5F5F5F5F5F5F5F5F5F5F5F5F5F5F5F5F5F5F5F5F5F5F5F5F5F5F5F5F5F5F5F5F5F5F5F5F5F5F5F5F5F5
310
F5F5F5F5F5F5F5F5F5F5F5F5F5F5F5F5F5F5F5F5F5F5F5F5F5F5F5F5F5F5F5F5F5F5F5F5F5F5F5F5F5F5F5F5F5F5F5F5F5F5F5F5F5F5F5F5F5F5F5F5F5F5F5F5F5F5E2E2EFE2F5F5F5F5F5F5F5F5F5F5F5F5F5F5F5F5F5F5F5F5F5F5F5F5F5F5F5F5F5F5F5F5F5F5F5F5F5F5F5F5F5F5F5F5F5F5F5F5F5F5F5F5F5F5F5F5F5
310
F5F5F5F5F5F5F5F5F5F5F5F5F5F5F5F5F5F5F5F5F5F5F5F5F5F5F5F5F5F5F5F5F5F5F5F5F5F5F5F5F5F5F5F5F5F5F5F5F5F5F5F5F5F5F5F5F5F5F5F5F5F5F5F5F5F5F5F5F5F5F5F5F5F5F5F5F5F5F5F5F5F5F5F5F5F5F5F5F5F5F5F5F5F5F5F5F5F5F5F5F5F5F5F5F5F5F5F5F5F5F5F5F5F5F5F5F5F5F5E2E2EFE2F5F5F5F5
310
F5F5F5F5F5F5F5F5F5F5F5F5F5F5F5F5F5F5F5F5F5F5F5F5F5F5F5F5F5F5F5F5F5F5F5F5F5F5F5F5F5F5F5F5F5F5F5F5F5F5F5F5F5F5F5F5F5F5F5F5F5F5F5F5F5F5F5F5F5F5F5F5F5F5F5F5F5F5F5F5F5F5F5F5F5F5F5F5F5F5F5F5F5F5F5F5F5F5F5F5F5F5F5F5F5F5F5F5F5F5F5F5F5F5F5F5F5F5F5F5F5F5F5F5F5F5F5
310
F5F5F5F5F5F5F5F5F5F5F5F5F5F5F5F5F5F5F5F5F5F5F5F5F5F5F5F5F5F5F5F5F5F5F5F5F5F5F5F5F5F5F5F5F5E2E2EFE2F5F5F5F5F5F5F5F5F5F5F5F5F5F5F5F5F5F5F5F5F5F5F5F5F5F5F5F5F5F5F5F5F5F5F5F5F5F5F5F5F5F5F5F5F5F5F5F5F5F5F5F5F5F5F5F5F5F5F5F5F5F5F5F5F5F5F5F5F5F5F5F5F5F5F5F5F5F5
310
F5F5F5F5F5F5F5F5F5F5F5F5F5F5F5F5F5F5F5F5F5F5F5F5F5F5F5F5F5F5F5F5F5F5F5F5F5F5F5F5F5F5F5F5F5F5F5F5F5F5F5F5F5F5F5F5F5F5F5F5F5F5F5F5F5F5F5F5F5F5F5F5F5F5F5F5F5F5F5F5F5F5F5F5F5F5F5F5F5F5F5F5F5F5F5F5F5F5E2E2EFE2F5F5F5F5F5F5F5F5F5F5F5F5F5F5F5F5F5F5F5F5F5F5F5F5F5
310
F5F5F5F5F5F5F5F5F5F5F5F5F5F5F5F5F5F5F5F5F5F5F5F5F5F5F5F5F5F5F5F5F5F5F5F5F5F5F5F5F5F5F5F5F5F5F5F5F5F5F5F5F5F5F5F5F5F5F5F5F5F5F5F5F5F5F5F5F5F5F5F5F5F5F5F5F5F5F5F5F5F5F5F5F5F5F5F5F5F5F5F5F5F5F5F5F5F5F5F5F5F5F5F5F5F5F5F5F5F5F5F5F5F5F5F5F5F5F5F5F5F5F5F5F5F5F5
310
F5F5F5F5F5F5F5F5F5F5F5F5F5F5F5F5F5F5F5F5F5F5F5F5E2E2EFE2E2F5F5F5F5F5F5F5F5F5F5F5F5F5F5F5F5F5F5F5F5F5F5F5F5F5F5F5F5F5F5F5F5F5F5F5F5F5F5F5F5F5F5F5F5F5F5F5F5F5F5F5F5F5F5F5F5F5F5F5F5F5F5F5F5F5F5F5F5F5F5F5F5F5F5F5F5F5F5F5F5F5F5F5F5F5F5F5F5F5F5F5F5F5F5F5F5F5F5
310
F5F5F5F5F5F5F5F5F5F5F5F5F5F5F5F5F5F5F5F5F5F5F5F5F5F5F5F5F5F5F5F5F5F5F5F5F5F5F5F5F5F5F5F5F5F5F5F5F5F5F5F5F5F5F5F5F5F5F5F5F5F5F5F5F5F5F5F5F5F5F5E2F5F5F5F5F5E2E2EFE2E2F5F5F5F5F5F5F5F5F5F5F5F5F5F5F5F5F5F5F5F5F5F5F5F5F5F5F5F5F5F5F5F5F5F5F5F5F5F5F5F5F5F5F5F5F5
310
F5F5F5F5F5F5F5F5F5F5F5F5F5F5F5F5F5F5F5F5F5F5F5F5F5F5F5F5F5F5F5F5F5F5F5F5F5F5F5F5F5F5F5F5F5F5F5F5F5F5F5F5F5F5F5F5F5F5F5F5F5F5F5F5F5F5F5F5F5F5F5F5F5F5F5F5F5F5F5F5F5F5F5F5F5F5F5F5F5F5F5F5F5F5F5F5F5F5F5F5F5F5F5F5F5F5F5F5F5F5F5F5F5F5F5F5F5F5F5F5F5F5F5F5E2F5F5
310
F5F5F5E2E2EFE2E2F5F5F5F5F5F5F5F5F5F5F5F5F5F5F5F5F5F5F5F5F5F5F5F5F5F5F5F5F5F5F5F5F5F5F5F5F5F5F5F5F5F5F5F5F5F5F5F5F5F5F5F5F5F5F5F5F5F5F5F5F5F5F5F5F5F5F5F5F5F5F5F5F5F5F5F5F5F5F5F5F5F5F5F5F5F5F5F5F5F5F5F5F5F5F5F5F5F5F5F5F5F5F5F5F5F5F5F5F5F5F5F5F5F5F5F5F5F5F5
310
F5F5F5F5F5F5F5F5F5F5F5F5F5F5F5F5F5F5F5F5F5F5F5F5F5F5F5F5F5F5F5F5F5F5F5F5F5F5F5F5F5F5F5F5F5F5F5F5F5F5E2F5F5F5F5F5E2E2EFE2E2F5F5F5F5F5F5F5F5F5F5F5F5F5F5F5F5F5F5F5F5F5F5F5F5F5F5F5F5F5F5F5F5F5F5F5F5F5F5F5F5F5F5F5F5F5F5F5F5F5F5F5F5F5F5F5F5F5F5F5F5F5F5F5F5F5F5
310
F5F5F5F5F5F5F5F5F5F5F5F5F5F5F5F5F5F5F5F5F5F5F5F5F5F5F5F5F5F5F5F5F5F5F5F5F5F5F5F5F5F5F5F5F5F5F5F5F5F5F5F5F5F5F5F5F5F5F5F5F5F5F5F5F5F5F5F5F5F5F5F5F5F5F5F5F5F5F5F5F5F5F5F5F5F5F5F5F5F5F5F5F5F5F5F5F5F5F5F5F5F5F5E2F5F5F5F5F5E2E2EFE2E2F5F5F5F5F5F5F5F5F5F5F5F5F5
310
F5F5F5F5F5F5F5F5F5F5F5F5F5F5F5F5F5F5F5F5F5F5F5F5F5F5F5F5F5F5F5F5F5F5F5F5F5F5F5F5F5F5F5F5F5F5F5F5F5F5F5F5F5F5F5F5F5F5F5F5F5F5F5F5F5F5F5F5F5F5F5F5F5F5F5F5F5F5F5F5F5F5F5F5F5F5F5F5F5F5F5F5F5F5F5F5F5F5F5F5F5F5F5F5F5F5F5F5F5F5F5F5F5F5F5F5F5F5F5F5F5F5F5F5F5F5F5
310
F5F5F5F5F5F5F5F5F5F5F5F5F5F5F5F5F5F5F5F5F5F5F5F5F5F5F5F5F5E2F5F5F5F5F5E2E2EFE2E2F5F5F5F5F5F5F5F5F5F5F5F5F5F5F5F5F5F5F5F5F5F5F5F5F5F5F5F5F5F5F5F5F5F5F5F5F5F5F5F5F5F5F5F5F5F5F5F5F5F5F5F5F5F5F5F5F5F5F5F5F5F5F5F5F5F5F5F5F5F5F5F5F5F5F5F5F5F5F5F5F5F5F5F5F5F5F5
310
F5F5F5F5F5F5F5F5F5F5F5F5F5F5F5F5F5F5F5F5F5F5F5F5F5F5F5F5F5F5F5F5F5F5F5F5F5F5F5F5F5F5F5F5F5F5F5F5F5F5F5F5F5F5F5F5F5F5F5F5F5F5F5F5F5F5F5F5F5F5F5F5F5F5F5F5F5F5F5F5F5F5E2F5F5F5F5F5E2E2EFE2E2F5F5F5F5F5F5F5F5F5F5F5F5F5F5F5F5F5F5F5F5F5F5F5F5F5F5F5F5F5F5F5F5F5F5
310
F5F5F5F5F5F5F5F5F5F5F5F5F5F5F5F5F5F5F5F5F5F5F5F5F5F5F5F5F5F5F5F5F5F5F5F5F5F5F5F5F5F5F5F5F5F5F5F5F5F5F5F5F5F5F5F5F5F5F5F5F5F5F5F5F5F5F5F5F5F5F5F5F5F5F5F5F5F5F5F5F5F5F5F5F5F5F5F5F5F5F5F5F5F5F5F5F5F5F5F5F5F5F5F5F5F5F5F5F5F5F5F5F5F5F5F5F5F5F5F5F5F5F5F5F5F5F5
310
F5F5F5F5F5F5F5F5E2F5F5F5F5F5E2E2EFE2E2E2E2E2E2E2E2E2F5F5F5F5F5F5F5F5F5E2E2E2E2E2E2E2E2E2E2E2E2E2E2E2E2F5F5F5F5F5F5F5F5E2E2E2E2E2E2E2E2E2E2E2E2E2E2E2E2F5F5F5F5F5F5F5F5F5E2E2E2E2E2E2E2E2E2E2E2E2E2E2E2F5F5F5F5F5F5F5F5F5E2E2E2E2E2E2E2E2E2E2E2E2E2E2E2F5F5F5F5
310
F5F5F5F5F5E2E2E2E2E2E2E2E2E2E2E2E2E2E2E2E2F5F5F5F5F5F5F5F5E2E2E2E2E2E2E2E2E2E2E2E2E2E2E2E2F5F5F5F5F5F5F5F5F5E2E2E2E2E2E2E2E2F5F5F5F5F5E2E2EFE2F5F5F5F5F5F5F5F5F5F5F5F5F5F5F5F5F5F5F5F5F5F5F5F5F5F5F5F5F5F5F5F5F5F5F5F5F5F5F5F5F5F5F5F5F5F5F5F5F5F5F5F5F5F5F5F5
310
F5F5F5F5F5F5F5F5F5F5F5F5F5F5F5F5F5F5F5F5F5F5F5F5F5F5F5F5F5F5F5F5F5F5F5F5F5F5F5F5F5F5F5F5F5F5F5F5F5F5F5F5F5F5F5F5F5F5F5F5F5F5F5F5F5F5F5F5F5F5F5F5F5F5F5F5F5F5F5F5F5F5F5F5F5F5F5F5F5F5F5F5F5F5F5F5F5F5F5F5F5F5F5F5F5F5F5F5F5F5F5F5F5F5F5F5F5F5F5F5E2EFEFE2E2E2E2
310
E2E2E2E2E2E2E2E2E2E2E2E2E2E2E2E2E2E2E2E2E2E2E2E2E2E2E2E2E2E2E2E2E2E2E2E2E2E2E2E2E2E2E2E2E2E2E2E2E2E2E2E2E2E2E2E2E2E2E2E2E2E2E2E2E2E2E2E2E2E2E2E2E2E2E2E2E2E2E2E2E2E2E2E2E2E2E2E2E2E2E2E2E2E2E2E2E2E2E2E2E2E2E2E2E2E2E2E2E2E2E2E2E2E2E2E2E2E2E2E2E2E2E2E2E2E2E2
310
E2E2E2E2E2E2E2E2E2E2E2E2E2E2E2E2E2E2E2E2E2E2E2E2E2E2E2E2E2E2E2E2E2E2E2E2E2E2E2E2E2E2E2E2E2E2E2EF
  0
XRECORD
  5
9AC
102
{ACAD_REACTORS
330
9AB
102
}
330
9AB
100
AcDbXrecord
280
     1
102
SHADEPLOT
 70
     0
102
SHADEPLOTRESLEVEL
 70
     2
102
SHADEPLOTCUSTOMDPI
 70
   300
  0
ENDSEC
  0
EOF
