  0
SECTION
  2
HEADER
  9
$ACADVER
  1
AC1015
  9
$ACADMAINTVER
 70
    20
  9
$DWGCODEPAGE
  3
ANSI_950
  9
$INSBASE
 10
0.0
 20
0.0
 30
0.0
  9
$EXTMIN
 10
2047.158956673213
 20
1209.57378256233
 30
-0.0085607341196123
  9
$EXTMAX
 10
2271.220757724838
 20
1440.071327461773
 30
146.7867508017159
  9
$LIMMIN
 10
0.0
 20
0.0
  9
$LIMMAX
 10
420.0
 20
297.0
  9
$ORTHOMODE
 70
     1
  9
$REGENMODE
 70
     1
  9
$FILLMODE
 70
     1
  9
$QTEXTMODE
 70
     0
  9
$MIRRTEXT
 70
     1
  9
$LTSCALE
 40
1.0
  9
$ATTMODE
 70
     1
  9
$TEXTSIZE
 40
3.0
  9
$TRACEWID
 40
1.0
  9
$TEXTSTYLE
  7
CHINESET
  9
$CLAYER
  8
0
  9
$CELTYPE
  6
ByLayer
  9
$CECOLOR
 62
   256
  9
$CELTSCALE
 40
1.0
  9
$DISPSILH
 70
     0
  9
$DIMSCALE
 40
1.0
  9
$DIMASZ
 40
3.0
  9
$DIMEXO
 40
1.0
  9
$DIMDLI
 40
7.0
  9
$DIMRND
 40
0.0
  9
$DIMDLE
 40
0.0
  9
$DIMEXE
 40
1.5
  9
$DIMTP
 40
0.1
  9
$DIMTM
 40
0.1
  9
$DIMTXT
 40
3.0
  9
$DIMCEN
 40
0.0
  9
$DIMTSZ
 40
0.0
  9
$DIMTOL
 70
     0
  9
$DIMLIM
 70
     0
  9
$DIMTIH
 70
     0
  9
$DIMTOH
 70
     0
  9
$DIMSE1
 70
     0
  9
$DIMSE2
 70
     0
  9
$DIMTAD
 70
     1
  9
$DIMZIN
 70
     8
  9
$DIMBLK
  1

  9
$DIMASO
 70
     1
  9
$DIMSHO
 70
     1
  9
$DIMPOST
  1

  9
$DIMAPOST
  1
"
  9
$DIMALT
 70
     0
  9
$DIMALTD
 70
     2
  9
$DIMALTF
 40
0.0393701
  9
$DIMLFAC
 40
1.0
  9
$DIMTOFL
 70
     1
  9
$DIMTVP
 40
0.0
  9
$DIMTIX
 70
     0
  9
$DIMSOXD
 70
     0
  9
$DIMSAH
 70
     0
  9
$DIMBLK1
  1

  9
$DIMBLK2
  1

  9
$DIMSTYLE
  2
AM_ISO
  9
$DIMCLRD
 70
   256
  9
$DIMCLRE
 70
   256
  9
$DIMCLRT
 70
   256
  9
$DIMTFAC
 40
0.71
  9
$DIMGAP
 40
1.0
  9
$DIMJUST
 70
     0
  9
$DIMSD1
 70
     0
  9
$DIMSD2
 70
     0
  9
$DIMTOLJ
 70
     0
  9
$DIMTZIN
 70
     8
  9
$DIMALTZ
 70
     0
  9
$DIMALTTZ
 70
     0
  9
$DIMUPT
 70
     0
  9
$DIMDEC
 70
     2
  9
$DIMTDEC
 70
     8
  9
$DIMALTU
 70
     2
  9
$DIMALTTD
 70
     2
  9
$DIMTXSTY
  7
STANDARD
  9
$DIMAUNIT
 70
     0
  9
$DIMADEC
 70
     0
  9
$DIMALTRND
 40
0.0
  9
$DIMAZIN
 70
     2
  9
$DIMDSEP
 70
    46
  9
$DIMATFIT
 70
     3
  9
$DIMFRAC
 70
     0
  9
$DIMLDRBLK
  1

  9
$DIMLUNIT
 70
     2
  9
$DIMLWD
 70
    -1
  9
$DIMLWE
 70
    -1
  9
$DIMTMOVE
 70
     0
  9
$LUNITS
 70
     2
  9
$LUPREC
 70
     2
  9
$SKETCHINC
 40
1.0
  9
$FILLETRAD
 40
2.5
  9
$AUNITS
 70
     0
  9
$AUPREC
 70
     0
  9
$MENU
  1
.
  9
$ELEVATION
 40
0.0
  9
$PELEVATION
 40
0.0
  9
$THICKNESS
 40
0.0
  9
$LIMCHECK
 70
     0
  9
$CHAMFERA
 40
2.5
  9
$CHAMFERB
 40
2.5
  9
$CHAMFERC
 40
20.0
  9
$CHAMFERD
 40
0.0
  9
$SKPOLY
 70
     0
  9
$TDCREATE
 40
2453696.549700336
  9
$TDUCREATE
 40
2453696.216367002
  9
$TDUPDATE
 40
2453696.632228912
  9
$TDUUPDATE
 40
2453696.298895579
  9
$TDINDWG
 40
0.0757591782
  9
$TDUSRTIMER
 40
0.0757591782
  9
$USRTIMER
 70
     1
  9
$ANGBASE
 50
0.0
  9
$ANGDIR
 70
     0
  9
$PDMODE
 70
     0
  9
$PDSIZE
 40
0.0
  9
$PLINEWID
 40
0.0
  9
$SPLFRAME
 70
     0
  9
$SPLINETYPE
 70
     6
  9
$SPLINESEGS
 70
     8
  9
$HANDSEED
  5
1488
  9
$SURFTAB1
 70
     6
  9
$SURFTAB2
 70
     6
  9
$SURFTYPE
 70
     6
  9
$SURFU
 70
     6
  9
$SURFV
 70
     6
  9
$UCSBASE
  2

  9
$UCSNAME
  2

  9
$UCSORG
 10
0.0
 20
0.0
 30
0.0
  9
$UCSXDIR
 10
1.0
 20
0.0
 30
0.0
  9
$UCSYDIR
 10
0.0
 20
1.0
 30
0.0
  9
$UCSORTHOREF
  2

  9
$UCSORTHOVIEW
 70
     0
  9
$UCSORGTOP
 10
0.0
 20
0.0
 30
0.0
  9
$UCSORGBOTTOM
 10
0.0
 20
0.0
 30
0.0
  9
$UCSORGLEFT
 10
0.0
 20
0.0
 30
0.0
  9
$UCSORGRIGHT
 10
0.0
 20
0.0
 30
0.0
  9
$UCSORGFRONT
 10
0.0
 20
0.0
 30
0.0
  9
$UCSORGBACK
 10
0.0
 20
0.0
 30
0.0
  9
$PUCSBASE
  2

  9
$PUCSNAME
  2

  9
$PUCSORG
 10
0.0
 20
0.0
 30
0.0
  9
$PUCSXDIR
 10
1.0
 20
0.0
 30
0.0
  9
$PUCSYDIR
 10
0.0
 20
1.0
 30
0.0
  9
$PUCSORTHOREF
  2

  9
$PUCSORTHOVIEW
 70
     0
  9
$PUCSORGTOP
 10
0.0
 20
0.0
 30
0.0
  9
$PUCSORGBOTTOM
 10
0.0
 20
0.0
 30
0.0
  9
$PUCSORGLEFT
 10
0.0
 20
0.0
 30
0.0
  9
$PUCSORGRIGHT
 10
0.0
 20
0.0
 30
0.0
  9
$PUCSORGFRONT
 10
0.0
 20
0.0
 30
0.0
  9
$PUCSORGBACK
 10
0.0
 20
0.0
 30
0.0
  9
$USERI1
 70
     0
  9
$USERI2
 70
     0
  9
$USERI3
 70
     0
  9
$USERI4
 70
     0
  9
$USERI5
 70
     0
  9
$USERR1
 40
0.0
  9
$USERR2
 40
0.0
  9
$USERR3
 40
0.0
  9
$USERR4
 40
0.0
  9
$USERR5
 40
0.0
  9
$WORLDVIEW
 70
     1
  9
$SHADEDGE
 70
     3
  9
$SHADEDIF
 70
    70
  9
$TILEMODE
 70
     1
  9
$MAXACTVP
 70
    64
  9
$PINSBASE
 10
0.0
 20
0.0
 30
0.0
  9
$PLIMCHECK
 70
     0
  9
$PEXTMIN
 10
1.000000000000000E+20
 20
1.000000000000000E+20
 30
1.000000000000000E+20
  9
$PEXTMAX
 10
-1.000000000000000E+20
 20
-1.000000000000000E+20
 30
-1.000000000000000E+20
  9
$PLIMMIN
 10
0.0
 20
0.0
  9
$PLIMMAX
 10
420.0
 20
297.0
  9
$UNITMODE
 70
     0
  9
$VISRETAIN
 70
     1
  9
$PLINEGEN
 70
     0
  9
$PSLTSCALE
 70
     1
  9
$TREEDEPTH
 70
  3020
  9
$CMLSTYLE
  2
Standard
  9
$CMLJUST
 70
     0
  9
$CMLSCALE
 40
20.0
  9
$PROXYGRAPHICS
 70
     1
  9
$MEASUREMENT
 70
     1
  9
$CELWEIGHT
370
    -1
  9
$ENDCAPS
280
     0
  9
$JOINSTYLE
280
     0
  9
$LWDISPLAY
290
     0
  9
$INSUNITS
 70
     4
  9
$HYPERLINKBASE
  1

  9
$STYLESHEET
  1
彩色出圖.ctb
  9
$XEDIT
290
     1
  9
$CEPSNTYPE
380
     0
  9
$PSTYLEMODE
290
     1
  9
$FINGERPRINTGUID
  2
{E56C8895-30D3-4116-AE32-4553F16A924E}
  9
$VERSIONGUID
  2
{84DF04B3-AD5C-4152-9360-365BABB5565C}
  9
$EXTNAMES
290
     1
  9
$PSVPSCALE
 40
0.0
  9
$OLESTARTUP
290
     0
  0
ENDSEC
  0
SECTION
  2
CLASSES
  0
CLASS
  1
ACDBDICTIONARYWDFLT
  2
AcDbDictionaryWithDefault
  3
ObjectDBX Classes
 90
        0
280
     0
281
     0
  0
CLASS
  1
ACDBPLACEHOLDER
  2
AcDbPlaceHolder
  3
ObjectDBX Classes
 90
        0
280
     0
281
     0
  0
CLASS
  1
LAYOUT
  2
AcDbLayout
  3
ObjectDBX Classes
 90
        0
280
     0
281
     0
  0
CLASS
  1
ACME_DOCUMENT
  2
AcMeDbDoc
  3
AcMeServices
 90
        0
280
     0
281
     0
  0
CLASS
  1
AMGSETTINGSOBJ
  2
AmgSettingsObj
  3
"AcadM|Product Description: AutoCAD Mechanical 2000|Company: Autodesk"
 90
        0
280
     0
281
     0
  0
CLASS
  1
ACMESCOPE
  2
AcMeScope
  3
AcMeServices
 90
        0
280
     0
281
     0
  0
CLASS
  1
ACMECOMMANDHISTORY
  2
AcMeCommandHistory
  3
AcMeServices
 90
        0
280
     0
281
     0
  0
CLASS
  1
ACIMSYSVARMAN
  2
AcImSysVarManager
  3
AcMeServices
 90
        0
280
     0
281
     0
  0
CLASS
  1
ACIMREALSYSVAR
  2
AcImRealSysVar
  3
AcMeServices
 90
        0
280
     0
281
     0
  0
CLASS
  1
ACIMINTSYSVAR
  2
AcImIntSysVar
  3
AcMeServices
 90
        0
280
     0
281
     0
  0
CLASS
  1
ACMEDRAWINGMAN
  2
AcMeDrawingMan
  3
AcMeServices
 90
        0
280
     0
281
     0
  0
CLASS
  1
ACMEVIEW
  2
AcMeView
  3
AcMeServices
 90
        0
280
     0
281
     0
  0
CLASS
  1
ACDBENTITYCACHE
  2
AcMeEntityCache
  3
AcMeServices
 90
        0
280
     0
281
     0
  0
CLASS
  1
GSMANAGER
  2
AcMeGSManager
  3
AcMeServices
 90
        0
280
     0
281
     0
  0
CLASS
  1
AMDTINTERNALREACTOR
  2
AmdtInternalReactor
  3
AcMeServices
 90
        0
280
     0
281
     0
  0
CLASS
  1
ACMESTATEMGR
  2
AcMeStateMgr
  3
AcMeServices
 90
        0
280
     0
281
     0
  0
CLASS
  1
ACGREFMASTER
  2
AcGrefMaster
  3
AcAttribServices
 90
        0
280
     0
281
     0
  0
CLASS
  1
ACME_DATABASE
  2
AcMeDbDatabase
  3
AcMeServices
 90
        0
280
     0
281
     0
  0
CLASS
  1
ACRFINSADJUSTERMGR
  2
AcRfInsAdjusterMgr
  3
AcMeServices
 90
        0
280
     0
281
     0
  0
CLASS
  1
ACGREFACADMASTER
  2
AcGrefacadMaster
  3
AcGrefServices
 90
        0
280
     0
281
     0
  0
CLASS
  1
AMIMASTER
  2
AmiMaster
  3
AmiServices
 90
        0
280
     0
281
     0
  0
CLASS
  1
ACMDATADICTIONARY
  2
AcmDataDictionary
  3
"AcmSymBB|Product Description: AutoCAD Mechanical 2004 DX|Company: Autodesk"
 90
        0
280
     0
281
     0
  0
CLASS
  1
ACMDATAENTRYBLOCK
  2
AcmDataEntryBlock
  3
"AcmSymBB|Product Description: AutoCAD Mechanical 2004 DX|Company: Autodesk"
 90
        0
280
     0
281
     0
  0
CLASS
  1
ACIMSTRSYSVAR
  2
AcImStrSysVar
  3
AcMeServices
 90
        0
280
     0
281
     0
  0
CLASS
  1
ACMSTANDARDISO
  2
AcmStandardISO
  3
"Amdt_StdImp|Product Description: AutoCAD Mechanical 2004 DX|Company: Autodesk"
 90
        0
280
     0
281
     0
  0
CLASS
  1
AMGOBJPROPCFG
  2
AmgObjPropCfg
  3
"AmgLay|Product Description: AutoCAD Mechanical 2000|Company: Autodesk"
 90
        1
280
     0
281
     0
  0
CLASS
  1
AMDTEDGESTANDARDISO
  2
AmdtEdgeStdISO
  3
"Amdt_StdImp|Product Description: AutoCAD Mechanical 2004 DX|Company: Autodesk"
 90
        0
280
     0
281
     0
  0
CLASS
  1
ACMSURFSTANDARDISO
  2
AcmSurfTextStdISO
  3
"Amdt_StdImp|Product Description: AutoCAD Mechanical 2004 DX|Company: Autodesk"
 90
        0
280
     0
281
     0
  0
CLASS
  1
ACMFCFSTANDARDISO
  2
AcmFCFStdISO
  3
"Amdt_StdImp|Product Description: AutoCAD Mechanical 2004 DX|Company: Autodesk"
 90
        0
280
     0
281
     0
  0
CLASS
  1
ACMWELDSTANDARDISO
  2
AcmWeldingStdISO
  3
"Amdt_StdImp|Product Description: AutoCAD Mechanical 2004 DX|Company: Autodesk"
 90
        0
280
     0
281
     0
  0
CLASS
  1
ACMIDSTANDARDISO
  2
AcmIdStdISO
  3
"Amdt_StdImp|Product Description: AutoCAD Mechanical 2004 DX|Company: Autodesk"
 90
        0
280
     0
281
     0
  0
CLASS
  1
ACMDATUMSTANDARDISO
  2
AcmDatumStdISO
  3
"Amdt_StdImp|Product Description: AutoCAD Mechanical 2004 DX|Company: Autodesk"
 90
        0
280
     0
281
     0
  0
CLASS
  1
ACMBOMSTANDARDISO
  2
AcmBOMStdISO
  3
"Amdt_StdImp|Product Description: AutoCAD Mechanical 2004 DX|Company: Autodesk"
 90
        0
280
     0
281
     0
  0
CLASS
  1
ACMDETAILSTANDARDISO
  2
AmdtDetailSymStdISO
  3
"Amdt_StdImp|Product Description: AutoCAD Mechanical 2004 DX|Company: Autodesk"
 90
        0
280
     0
281
     0
  0
CLASS
  1
ACMSECTIONSTANDARDISO
  2
AmdtSectionSymStdISO
  3
"Amdt_StdImp|Product Description: AutoCAD Mechanical 2004 DX|Company: Autodesk"
 90
        0
280
     0
281
     0
  0
CLASS
  1
ACMCENTERLINESTANDARDISO
  2
AmdtCenterLineStdISO
  3
"Amdt_StdImp|Product Description: AutoCAD Mechanical 2004 DX|Company: Autodesk"
 90
        0
280
     0
281
     0
  0
CLASS
  1
ACMNOTESTANDARDISO
  2
AmdtNoteStdISO
  3
"Amdt_StdImp|Product Description: AutoCAD Mechanical 2004 DX|Company: Autodesk"
 90
        0
280
     0
281
     0
  0
CLASS
  1
ACAMGLAYSTD
  2
AcAmgLayStd
  3
"AcAmgLayStd|Product Description: AutoCAD Mechanical 2000|Company: Autodesk"
 90
        0
280
     0
281
     0
  0
CLASS
  1
ACAMGDIMSTD
  2
AcAmgDimStd
  3
"AcAmgDimStd|Product Description: AutoCAD Mechanical 2000|Company: Autodesk"
 90
        0
280
     0
281
     0
  0
CLASS
  1
ACAMGHOLECHARTSTDISO
  2
AcAmgHoleChartStdISO
  3
ACMSYMBB_MODULE_NAME
 90
        0
280
     0
281
     0
  0
CLASS
  1
ACAMGTITLESTD
  2
AcAmgTitleStd
  3
"TITLEAPP"
 90
        0
280
     0
281
     0
  0
CLASS
  1
LAYER_INDEX
  2
AcDbLayerIndex
  3
ObjectDBX Classes
 90
    32768
280
     0
281
     0
  0
CLASS
  1
IDBUFFER
  2
AcDbIdBuffer
  3
ObjectDBX Classes
 90
    32768
280
     0
281
     0
  0
CLASS
  1
DICTIONARYVAR
  2
AcDbDictionaryVar
  3
ObjectDBX Classes
 90
        0
280
     0
281
     0
  0
CLASS
  1
AM_DRAWING_MGR
  2
AcDmDwgMgr
  3
AcMechDwgViewMgmt
 90
        0
280
     0
281
     0
  0
CLASS
  1
AM_DWG_DOCUMENT
  2
AcDmDwgDocument
  3
AcMechDwgViewMgmt
 90
        0
280
     0
281
     0
  0
CLASS
  1
AM_DWG_SHEET
  2
AcDmSheet
  3
AcMechDwgViewMgmt
 90
        0
280
     0
281
     0
  0
CLASS
  1
AM_VIEWDIMPARMAP
  2
AcDmViewDimParMap
  3
AcMechDwgViewMgmt
 90
        0
280
     0
281
     0
  0
CLASS
  1
AM_DWGMGR_NAME
  2
AcDmDwgMgrName
  3
AcMechDwgViewMgmt
 90
        0
280
     0
281
     0
  0
CLASS
  1
AMDTMENUSTATEMGR
  2
AmdtMenuStateMgr
  3
McadcomServices
 90
        0
280
     0
281
     0
  0
CLASS
  1
AMDTMCOMMENUSTATE
  2
AmdtMcomMenuState
  3
McadcomServices
 90
        0
280
     0
281
     0
  0
CLASS
  1
MAPIAMMOUDLE
  2
MApiAmModule
  3
MApiAmServices
 90
        0
280
     0
281
     0
  0
CLASS
  1
AMDTADMENUSTATE
  2
AmdtAdMenuState
  3
DesignerServices
 90
        0
280
     0
281
     0
  0
CLASS
  1
ADAPPL
  2
AcAdAppl
  3
DesignerServices
 90
        0
280
     0
281
     0
  0
CLASS
  1
DEPMGR
  2
AcAdDepMgr
  3
DesignerServices
 90
        0
280
     0
281
     0
  0
CLASS
  1
PARAMMGR
  2
AcAdParamMgr
  3
DesignerServices
 90
        0
280
     0
281
     0
  0
CLASS
  1
PARAMSCOPE
  2
AcAdParamScope
  3
DesignerServices
 90
        0
280
     0
281
     0
  0
CLASS
  1
NAMEDAPPL
  2
AcAdNamedAppl
  3
DesignerServices
 90
        0
280
     0
281
     0
  0
CLASS
  1
AMDTDMMENUSTATE
  2
AmdtDmMenuState
  3
AcMechDwgViewMgmt
 90
        0
280
     0
281
     0
  0
CLASS
  1
AMDTAMMENUSTATE
  2
AmdtAmMenuState
  3
DesignerAssemblies
 90
        0
280
     0
281
     0
  0
CLASS
  1
ACAMPROJECT
  2
AcAmProject
  3
DesignerAssemblies
 90
        0
280
     0
281
     0
  0
CLASS
  1
ACAMGRCOMPDEF
  2
AcAmGrCompDef
  3
DesignerAssemblies
 90
        0
280
     0
281
     0
  0
CLASS
  1
ACCMCONTEXT
  2
AcCmContext
  3
DesignerAssemblies
 90
        0
280
     0
281
     0
  0
CLASS
  1
ACAMCOMPDEF
  2
AcAmCompDef
  3
DesignerAssemblies
 90
        0
280
     0
281
     0
  0
CLASS
  1
ACAMCOMPDEFMGR
  2
AcAmCompDefMgr
  3
DesignerAssemblies
 90
        0
280
     0
281
     0
  0
CLASS
  1
AMCONTEXTMGR
  2
AcAmContextMgr
  3
DesignerAssemblies
 90
        0
280
     0
281
     0
  0
CLASS
  1
ACAMCONTEXTMODELER
  2
AcAmContextModeler
  3
DesignerAssemblies
 90
        0
280
     0
281
     0
  0
CLASS
  1
ACMTHREADLINESTANDARDISO
  2
AmdtThreadLineStdISO
  3
"Amdt_StdImp|Product Description: AutoCAD Mechanical 2004 DX|Company: Autodesk"
 90
        0
280
     0
281
     0
  0
CLASS
  1
CATALOGSTATE
  2
AcAmCatalogState
  3
DesignerAssemblies
 90
        0
280
     0
281
     0
  0
CLASS
  1
ACAMGRCOMPDEFSET
  2
AcAmGrCompDefSet
  3
DesignerAssemblies
 90
        0
280
     0
281
     0
  0
CLASS
  1
AMDTBROWSERDBTAB
  2
AmdtBrowserDbTab
  3
McadcomServices
 90
        0
280
     0
281
     0
  0
CLASS
  1
CBROWSERAPPOBJECT
  2
CBrowserAppObject
  3
McadcomServices
 90
        0
280
     0
281
     0
  0
CLASS
  1
DM_PLACEHOLDER
  2
AcDmSelsetPlaceholder
  3
AcMechDwgViewMgmt
 90
        0
280
     0
281
     0
  0
CLASS
  1
TABLESTYLE
  2
AcDbTableStyle
  3
ObjectDBX Classes
 90
     2047
280
     0
281
     0
  0
CLASS
  1
VAACXREFPANELOBJECT
  2
VaAcXREFPanelObject
  3
VAAC_ADDIN
 90
    32768
280
     0
281
     0
  0
CLASS
  1
VAACIMAGEINVENTORY
  2
VaAcImageInventory
  3
VAAC_ADDIN
 90
    32768
280
     0
281
     0
  0
CLASS
  1
AMDTNOTETEMPLATEDB
  2
AmdtNoteTemplateDB
  3
AMDT_STDIMP_MODULE_NAME
 90
        0
280
     0
281
     0
  0
CLASS
  1
ACMBOM
  2
AcmBom
  3
"AcmSymBB|Product Description: AutoCAD Mechanical 2004 DX|Company: Autodesk"
 90
    32768
280
     0
281
     0
  0
CLASS
  1
AMDTFORMULAUPDATEDISPATCHER
  2
AmdtFormulaUpdateDispatcher
  3
AcMeServices
 90
    32768
280
     0
281
     0
  0
CLASS
  1
ACMPARTLIST
  2
AcmPartList
  3
"AcmSymBB|Product Description: AutoCAD Mechanical 2004 DX|Company: Autodesk"
 90
    33791
280
     0
281
     1
  0
CLASS
  1
ACAMGFILTERDAT
  2
AcAmgFilterDat
  3
"AcadM|Product Description: AutoCAD Mechanical 2000|Company: Autodesk"
 90
        0
280
     0
281
     0
  0
CLASS
  1
DIMASSOC
  2
AcDbDimAssoc
  3
"AcDbDimAssoc|Product Desc:     AcDim ARX App For Dimension|Company:          Autodesk, Inc.|WEB Address:      www.autodesk.com"
 90
        0
280
     0
281
     0
  0
CLASS
  1
STDPART2D
  2
AmgStdPart
  3
"AmgStdPart|Product Description: AutoCAD Mechanical 2000|Company: Autodesk"
 90
    33791
280
     0
281
     1
  0
CLASS
  1
ACAMSTDPCOMPDEF
  2
AcAmStdpCompDef
  3
DesignerAssemblies
 90
    32768
280
     0
281
     0
  0
CLASS
  1
ACRFATTGENMGR
  2
AcRfAttGeneralMgr
  3
AcAttribServices
 90
        0
280
     0
281
     0
  0
CLASS
  1
ACRFOBJATTMGR
  2
AcRfObjAttGroupMgr
  3
AcAttribServices
 90
    32768
280
     0
281
     0
  0
CLASS
  1
ACRFMCADAPIATTHOLDER
  2
AcRfMCADAPIAttHolder
  3
AcAttribServices
 90
    32768
280
     0
281
     0
  0
CLASS
  1
AMDTSYSATTR
  2
AmdtSystemAttribute
  3
AcAttribServices
 90
    32768
280
     0
281
     0
  0
CLASS
  1
ACAMCOMP
  2
AcAmComp
  3
DesignerAssemblies
 90
    32768
280
     0
281
     0
  0
CLASS
  1
AC_AM_STDP_VIEW_DEF
  2
AcAmStdpViewDef
  3
DesignerAssemblies
 90
    32768
280
     0
281
     0
  0
CLASS
  1
AC_AM_MVD_DEP_MGR
  2
AcAmMVDdepMgr
  3
DesignerAssemblies
 90
        0
280
     0
281
     0
  0
CLASS
  1
AC_AM_MASTER_VIEW_DEF
  2
AcAmMasterViewDef
  3
DesignerAssemblies
 90
        0
280
     0
281
     0
  0
CLASS
  1
AC_AM_DIRTY_NODES
  2
AcAmDirtyNodes
  3
DesignerAssemblies
 90
        0
280
     0
281
     0
  0
CLASS
  1
AC_AM_MAPPER_CACHE
  2
AcAmMapperCache
  3
DesignerAssemblies
 90
        0
280
     0
281
     0
  0
CLASS
  1
ACAMMVDBACKUPOBJECT
  2
AcAmMVDBackupObject
  3
DesignerAssemblies
 90
        0
280
     0
281
     0
  0
CLASS
  1
AC_AM_COMP_VIEW_INST
  2
AcAmCompView
  3
DesignerAssemblies
 90
    32768
280
     0
281
     0
  0
CLASS
  1
AC_AM_2D_XREF_MGR
  2
AcAmXrefMgr2d
  3
DesignerAssemblies
 90
        0
280
     0
281
     0
  0
CLASS
  1
SORTENTSTABLE
  2
AcDbSortentsTable
  3
ObjectDBX Classes
 90
        0
280
     0
281
     0
  0
CLASS
  1
AMDTNOTE
  2
AmdtNote
  3
"AcmSymBB|Product Description: AutoCAD Mechanical 2004 DX|Company: Autodesk"
 90
     1023
280
     0
281
     1
  0
ENDSEC
  0
SECTION
  2
TABLES
  0
TABLE
  2
VPORT
  5
8
330
0
100
AcDbSymbolTable
 70
     4
  0
VPORT
  5
147F
330
8
100
AcDbSymbolTableRecord
100
AcDbViewportTableRecord
  2
*Active
 70
     0
 10
0.0
 20
0.0
 11
1.0
 21
1.0
 12
2159.21060245569
 22
1324.782122785575
 13
0.0
 23
0.0
 14
2.5
 24
2.5
 15
10.0
 25
10.0
 16
0.0
 26
0.0
 36
1.0
 17
0.0
 27
0.0
 37
0.0
 40
233.1185820479432
 41
1.81766917293233
 42
50.0
 43
0.0
 44
0.0
 50
0.0
 51
0.0
 71
     0
 72
   100
 73
     1
 74
     3
 75
     0
 76
     0
 77
     0
 78
     0
281
     0
 65
     1
110
0.0
120
0.0
130
0.0
111
1.0
121
0.0
131
0.0
112
0.0
122
1.0
132
0.0
 79
     0
146
0.0
  0
ENDTAB
  0
TABLE
  2
LTYPE
  5
5
330
0
100
AcDbSymbolTable
 70
    14
  0
LTYPE
  5
14
330
5
100
AcDbSymbolTableRecord
100
AcDbLinetypeTableRecord
  2
ByBlock
 70
     0
  3

 72
    65
 73
     0
 40
0.0
  0
LTYPE
  5
15
330
5
100
AcDbSymbolTableRecord
100
AcDbLinetypeTableRecord
  2
ByLayer
 70
     0
  3

 72
    65
 73
     0
 40
0.0
  0
LTYPE
  5
16
330
5
100
AcDbSymbolTableRecord
100
AcDbLinetypeTableRecord
  2
Continuous
 70
     0
  3
Solid line
 72
    65
 73
     0
 40
0.0
  0
LTYPE
  5
64
330
5
100
AcDbSymbolTableRecord
100
AcDbLinetypeTableRecord
  2
AM_ISO02W050
 70
     0
  3
__ __ __ __ __ __ __ __ __ __ __ __ __ __ __
 72
    65
 73
     2
 40
7.5
 49
6.0
 74
     0
 49
-1.5
 74
     0
  0
LTYPE
  5
65
330
5
100
AcDbSymbolTableRecord
100
AcDbLinetypeTableRecord
  2
AM_ISO08W050
 70
     0
  3
____ . ____ . ____ . ____ . ____ . ____ . ____
 72
    65
 73
     4
 40
18.0
 49
12.0
 74
     0
 49
-1.5
 74
     0
 49
3.0
 74
     0
 49
-1.5
 74
     0
  0
LTYPE
  5
66
330
5
100
AcDbSymbolTableRecord
100
AcDbLinetypeTableRecord
  2
AM_ISO09W050
 70
     0
  3
_____ . . _____ . . _____ . . ____ .. ____
 72
    65
 73
     6
 40
22.5
 49
12.0
 74
     0
 49
-1.5
 74
     0
 49
3.0
 74
     0
 49
-1.5
 74
     0
 49
3.0
 74
     0
 49
-1.5
 74
     0
  0
LTYPE
  5
67
330
5
100
AcDbSymbolTableRecord
100
AcDbLinetypeTableRecord
  2
Amconstr
 70
     0
  3
_______________________
 72
    65
 73
     2
 40
9999.0
 49
9999.0
 74
     0
 49
0.0
 74
     0
  0
LTYPE
  5
68
330
5
100
AcDbSymbolTableRecord
100
AcDbLinetypeTableRecord
  2
AM_ISO08W050x2
 70
     0
  3
__ . __ . __ . __ . __ . __
 72
    65
 73
     4
 40
9.0
 49
6.0
 74
     0
 49
-0.75
 74
     0
 49
1.5
 74
     0
 49
-0.75
 74
     0
  0
LTYPE
  5
69
330
5
100
AcDbSymbolTableRecord
100
AcDbLinetypeTableRecord
  2
AM_ISO02W050x2
 70
     0
  3
 _ _ _ _ _ _ _ _ _ _ _ _
 72
    65
 73
     2
 40
3.75
 49
3.0
 74
     0
 49
-0.75
 74
     0
  0
LTYPE
  5
6C
330
5
100
AcDbSymbolTableRecord
100
AcDbLinetypeTableRecord
  2
Amzigzag
 70
     0
  3
/\/-/\/-/\/-/\/-/\/-/\/
 72
    65
 73
     2
 40
11.0001
 49
0.0001
 74
     4
 75
   135
340
6B
 46
0.04
 50
0.0
 44
0.0
 45
0.0
 49
-11.0
 74
     0
  0
LTYPE
  5
7A
330
5
100
AcDbSymbolTableRecord
100
AcDbLinetypeTableRecord
  2
ACISOWELD
 70
     0
  3
_ _ _ _ _
 72
    65
 73
     2
 40
2.0
 49
2.0
 74
     0
 49
-1.0
 74
     0
  0
LTYPE
  5
7B
330
5
100
AcDbSymbolTableRecord
100
AcDbLinetypeTableRecord
  2
ACISOTGB
 70
     0
  3
__ . . __ . .
 72
    65
 73
     6
 40
9.0
 49
4.0
 74
     0
 49
-1.0
 74
     0
 49
1.0
 74
     0
 49
-1.0
 74
     0
 49
1.0
 74
     0
 49
-1.0
 74
     0
  0
LTYPE
  5
7C
330
5
100
AcDbSymbolTableRecord
100
AcDbLinetypeTableRecord
  2
ACISOTGL
 70
     0
  3
_ _ _ _ _
 72
    65
 73
     2
 40
3.0
 49
2.0
 74
     0
 49
-1.0
 74
     0
  0
LTYPE
  5
7E
330
5
100
AcDbSymbolTableRecord
100
AcDbLinetypeTableRecord
  2
CENTER
 70
     0
  3
__ . __
 72
    65
 73
     4
 40
7.0
 49
4.0
 74
     0
 49
-1.0
 74
     0
 49
1.0
 74
     0
 49
-1.0
 74
     0
  0
LTYPE
  5
D8
330
5
100
AcDbSymbolTableRecord
100
AcDbLinetypeTableRecord
  2
HIDDEN
 70
     0
  3
Hidden __ __ __ __ __ __ __ __ __ __ __ __ __ _
 72
    65
 73
     2
 40
9.524999999999998
 49
6.349999999999999
 74
     0
 49
-3.174999999999999
 74
     0
  0
LTYPE
  5
D9
330
5
100
AcDbSymbolTableRecord
100
AcDbLinetypeTableRecord
  2
PHANTOM2
 70
     0
  3
Phantom (.5x) ___ _ _ ___ _ _ ___ _ _ ___ _ _
 72
    65
 73
     6
 40
31.75
 49
15.875
 74
     0
 49
-3.174999999999999
 74
     0
 49
3.174999999999999
 74
     0
 49
-3.174999999999999
 74
     0
 49
3.174999999999999
 74
     0
 49
-3.174999999999999
 74
     0
  0
ENDTAB
  0
TABLE
  2
LAYER
  5
2
102
{ACAD_XDICTIONARY
360
3F9
102
}
330
0
100
AcDbSymbolTable
 70
     8
  0
LAYER
  5
10
330
2
100
AcDbSymbolTableRecord
100
AcDbLayerTableRecord
  2
0
 70
     0
 62
     7
  6
Continuous
370
    -3
390
F
  0
LAYER
  5
206
330
2
100
AcDbSymbolTableRecord
100
AcDbLayerTableRecord
  2
Defpoints
 70
     0
 62
     7
  6
Continuous
290
     0
370
    -3
390
F
  0
LAYER
  5
5AE
330
2
100
AcDbSymbolTableRecord
100
AcDbLayerTableRecord
  2
AM_7
 70
     0
 62
     1
  6
CENTER
370
    25
390
F
  0
LAYER
  5
764
330
2
100
AcDbSymbolTableRecord
100
AcDbLayerTableRecord
  2
AM_VIS
 70
     0
 62
     7
  6
Continuous
370
    50
390
F
  0
LAYER
  5
765
330
2
100
AcDbSymbolTableRecord
100
AcDbLayerTableRecord
  2
AM_4
 70
     0
 62
     3
  6
Continuous
370
    25
390
F
  0
LAYER
  5
AD4
330
2
100
AcDbSymbolTableRecord
100
AcDbLayerTableRecord
  2
AM_5
 70
     0
 62
     5
  6
Continuous
370
    50
390
F
  0
LAYER
  5
B72
330
2
100
AcDbSymbolTableRecord
100
AcDbLayerTableRecord
  2
AM_0
 70
     0
 62
     7
  6
Continuous
370
    50
390
F
  0
LAYER
  5
1268
330
2
100
AcDbSymbolTableRecord
100
AcDbLayerTableRecord
  2
LOGO
 70
     0
 62
     7
  6
Continuous
370
    -3
390
F
  0
ENDTAB
  0
TABLE
  2
STYLE
  5
3
330
0
100
AcDbSymbolTable
 70
     6
  0
STYLE
  5
11
330
3
100
AcDbSymbolTableRecord
100
AcDbTextStyleTableRecord
  2
STANDARD
 70
     0
 40
0.0
 41
1.0
 50
0.0
 71
     0
 42
3.0
  3
ISOCP.SHX
  4
CHINESET.SHX
  0
STYLE
  5
6B
330
3
100
AcDbSymbolTableRecord
100
AcDbTextStyleTableRecord
  2

 70
     1
 40
0.0
 41
1.0
 50
0.0
 71
     0
 42
2.5
  3
ltypeshp.shx
  4

  0
STYLE
  5
6D
330
3
100
AcDbSymbolTableRecord
100
AcDbTextStyleTableRecord
  2
ACISOTS
 70
     0
 40
1.0
 41
1.0
 50
0.0
 71
     0
 42
1.0
  3
isocp.shx
  4
chineset.shx
  0
STYLE
  5
79
330
3
100
AcDbSymbolTableRecord
100
AcDbTextStyleTableRecord
  2
ACISOGDT
 70
     0
 40
0.0
 41
1.0
 50
0.0
 71
     0
 42
2.5
  3
amgdt.shx
  4
chineset.shx
  0
STYLE
  5
60C
330
3
100
AcDbSymbolTableRecord
100
AcDbTextStyleTableRecord
  2
CHINESET
 70
     0
 40
0.0
 41
1.0
 50
0.0
 71
     0
 42
3.0
  3
simplex.shx
  4
CHINESET.SHX
  0
ENDTAB
  0
TABLE
  2
VIEW
  5
6
330
0
100
AcDbSymbolTable
 70
     0
  0
ENDTAB
  0
TABLE
  2
UCS
  5
7
330
0
100
AcDbSymbolTable
 70
     0
  0
ENDTAB
  0
TABLE
  2
APPID
  5
9
330
0
100
AcDbSymbolTable
 70
    24
  0
APPID
  5
12
330
9
100
AcDbSymbolTableRecord
100
AcDbRegAppTableRecord
  2
ACAD
 70
     0
  0
APPID
  5
46
330
9
100
AcDbSymbolTableRecord
100
AcDbRegAppTableRecord
  2
MCAD_NO_VIS
 70
     0
  0
APPID
  5
47
330
9
100
AcDbSymbolTableRecord
100
AcDbRegAppTableRecord
  2
ACAD_TEMP_GRAPHIC
 70
     0
  0
APPID
  5
58
330
9
100
AcDbSymbolTableRecord
100
AcDbRegAppTableRecord
  2
ACATTRIBSERVICES
 70
     0
  0
APPID
  5
EE
330
9
100
AcDbSymbolTableRecord
100
AcDbRegAppTableRecord
  2
AD_DRAW
 70
     0
  0
APPID
  5
10C
330
9
100
AcDbSymbolTableRecord
100
AcDbRegAppTableRecord
  2
DESIGNERASSEMBLIES
 70
     0
  0
APPID
  5
111
330
9
100
AcDbSymbolTableRecord
100
AcDbRegAppTableRecord
  2
ACADM_DIM_EDIT
 70
     0
  0
APPID
  5
112
330
9
100
AcDbSymbolTableRecord
100
AcDbRegAppTableRecord
  2
AMDT_DM_ADJ
 70
     0
  0
APPID
  5
22C
330
9
100
AcDbSymbolTableRecord
100
AcDbRegAppTableRecord
  2
ACAD_DSTYLE_DIMTEXT_FILL
 70
     0
  0
APPID
  5
452
330
9
100
AcDbSymbolTableRecord
100
AcDbRegAppTableRecord
  2
GENIUS_GENOENT_13
 70
     0
  0
APPID
  5
453
330
9
100
AcDbSymbolTableRecord
100
AcDbRegAppTableRecord
  2
GENIUS_GENOBJ-N-CRS_13
 70
     0
  0
APPID
  5
454
330
9
100
AcDbSymbolTableRecord
100
AcDbRegAppTableRecord
  2
GENIUS_GENOLIS_13
 70
     0
  0
APPID
  5
455
330
9
100
AcDbSymbolTableRecord
100
AcDbRegAppTableRecord
  2
GENIUS_GENODEF_13
 70
     0
  0
APPID
  5
456
330
9
100
AcDbSymbolTableRecord
100
AcDbRegAppTableRecord
  2
GENIUS_GENOREF_13
 70
     0
  0
APPID
  5
6F3
330
9
100
AcDbSymbolTableRecord
100
AcDbRegAppTableRecord
  2
ACAD_PSEXT
 70
     0
  0
APPID
  5
B79
330
9
100
AcDbSymbolTableRecord
100
AcDbRegAppTableRecord
  2
GEVID1132550052
 70
     0
  0
APPID
  5
B7A
330
9
100
AcDbSymbolTableRecord
100
AcDbRegAppTableRecord
  2
GEVDC
 70
     0
  0
APPID
  5
B7B
330
9
100
AcDbSymbolTableRecord
100
AcDbRegAppTableRecord
  2
GEVRADREF
 70
     0
  0
APPID
  5
B84
330
9
100
AcDbSymbolTableRecord
100
AcDbRegAppTableRecord
  2
AMG_2DHIDE
 70
     0
  0
APPID
  5
B85
330
9
100
AcDbSymbolTableRecord
100
AcDbRegAppTableRecord
  2
AMG_2DSTRUCT_BTR
 70
     0
  0
APPID
  5
B96
330
9
100
AcDbSymbolTableRecord
100
AcDbRegAppTableRecord
  2
ACADM_2DVIEW_IGN_NOTIFY
 70
     0
  0
APPID
  5
F35
330
9
100
AcDbSymbolTableRecord
100
AcDbRegAppTableRecord
  2
GENIUS_GENDIMSH_14
 70
     0
  0
APPID
  5
1269
330
9
100
AcDbSymbolTableRecord
100
AcDbRegAppTableRecord
  2
GENIUS_GENREC_14
 70
     0
  0
APPID
  5
126A
330
9
100
AcDbSymbolTableRecord
100
AcDbRegAppTableRecord
  2
GENIUS_GENOBJ-N-REC_13
 70
     0
  0
ENDTAB
  0
TABLE
  2
DIMSTYLE
  5
A
330
0
100
AcDbSymbolTable
 70
     9
100
AcDbDimStyleTable
 71
     3
340
81
340
8B
340
86
  0
DIMSTYLE
105
81
330
A
100
AcDbSymbolTableRecord
100
AcDbDimStyleTableRecord
  2
AM_ISO
 70
     0
  4
"
 41
3.0
 42
1.0
 43
7.0
 44
1.5
 47
0.1
 48
0.1
 73
     0
 74
     0
 77
     1
 78
     8
 79
     2
140
3.0
141
0.0
143
0.0393701
146
0.71
147
1.0
172
     1
176
   256
177
   256
178
   256
271
     2
272
     2
283
     0
284
     8
340
11
371
    -1
372
    -1
  0
DIMSTYLE
105
82
330
A
100
AcDbSymbolTableRecord
100
AcDbDimStyleTableRecord
  2
AM_ISO$3
 70
     0
  4
"
 41
3.0
 42
1.0
 43
7.0
 44
1.5
 47
0.1
 48
0.1
 73
     0
 77
     1
 78
     8
 79
     2
140
3.0
141
0.0
143
0.0393701
146
0.71
147
1.0
176
   256
177
   256
178
   256
271
     2
272
     2
283
     0
284
     8
288
     1
289
     0
340
11
371
    -1
372
    -1
  0
DIMSTYLE
105
83
330
A
100
AcDbSymbolTableRecord
100
AcDbDimStyleTableRecord
  2
AM_ISO$4
 70
     0
  4
"
 41
3.0
 42
1.0
 43
7.0
 44
1.5
 47
0.1
 48
0.1
 73
     0
 77
     1
 78
     8
 79
     2
140
3.0
141
0.0
143
0.0393701
146
0.71
147
1.0
176
   256
177
   256
178
   256
271
     2
272
     2
283
     0
284
     8
288
     1
289
     0
340
11
371
    -1
372
    -1
  0
DIMSTYLE
105
84
330
A
100
AcDbSymbolTableRecord
100
AcDbDimStyleTableRecord
  2
AM_ISO$6
 70
     0
  4
"
 41
3.0
 42
1.0
 43
7.0
 44
1.5
 47
0.1
 48
0.1
 73
     0
 74
     0
 78
     8
 79
     2
140
3.0
141
0.0
143
0.0393701
146
0.71
147
1.0
172
     1
176
   256
177
   256
178
   256
271
     2
272
     2
283
     0
284
     8
340
11
371
    -1
372
    -1
  0
DIMSTYLE
105
85
330
A
100
AcDbSymbolTableRecord
100
AcDbDimStyleTableRecord
  2
AM_ISO$7
 70
     0
  4
"
 41
3.0
 42
1.0
 43
7.0
 44
1.5
 47
0.1
 48
0.1
 73
     0
 74
     0
 77
     1
 78
     8
 79
     2
140
5.0
141
0.0
143
0.0393701
146
0.71
147
1.0
172
     1
176
   256
177
   256
178
   256
271
     2
272
     2
283
     0
284
     8
340
11
371
    -1
372
    -1
  0
DIMSTYLE
105
86
330
A
100
AcDbSymbolTableRecord
100
AcDbDimStyleTableRecord
  2
AM_ISO$SF
 70
     0
  4
"
 41
2.5
 42
1.0
 43
10.0
 44
1.0
 47
0.1
 48
0.1
 73
     0
 74
     0
 75
     1
 76
     1
 77
     1
 78
     8
 79
     2
140
3.5
141
0.0
143
0.0393701
146
0.71
147
1.5
172
     1
176
   256
177
   256
178
     2
271
     2
272
     3
274
     4
283
     0
284
     8
340
11
371
    -1
372
    -1
  0
DIMSTYLE
105
8B
330
A
100
AcDbSymbolTableRecord
100
AcDbDimStyleTableRecord
  2
AM_ISO$SH
 70
     0
  4
"
 41
2.5
 42
1.0
 43
10.0
 44
1.0
 47
0.1
 48
0.1
 73
     0
 74
     0
 75
     1
 76
     1
 77
     1
 78
     8
 79
     2
140
3.5
141
0.0
143
0.0393701
144
2.0
146
0.71
147
1.5
172
     1
173
     1
176
   256
177
   256
178
     2
271
     2
272
     3
274
     4
283
     0
284
     8
340
11
343
87
371
    -1
372
    -1
  0
DIMSTYLE
105
40B
102
{ACAD_REACTORS
330
B2B
330
B51
330
C49
330
C6F
330
C95
330
CBB
330
CE1
330
D07
330
D2D
330
D53
330
D79
330
DBF
330
E1B
330
E45
330
E6F
330
E95
330
EBF
330
EE9
330
F19
330
F63
102
}
330
A
100
AcDbSymbolTableRecord
100
AcDbDimStyleTableRecord
  2
AM_ISO$0
 70
     0
  4
"
 41
3.0
 42
1.0
 43
7.0
 44
1.5
 47
0.1
 48
0.1
 73
     0
 74
     0
 77
     1
 78
     8
 79
     2
140
3.0
141
0.0
143
0.0393701
146
0.71
147
1.0
172
     1
176
   256
177
   256
178
   256
271
     2
272
     2
283
     0
284
     8
340
11
371
    -1
372
    -1
  0
ENDTAB
  0
TABLE
  2
BLOCK_RECORD
  5
1
330
0
100
AcDbSymbolTable
 70
    32
  0
BLOCK_RECORD
  5
1F
102
{ACAD_XDICTIONARY
360
8F
102
}
330
1
100
AcDbSymbolTableRecord
100
AcDbBlockTableRecord
  2
*Model_Space
340
22
  0
BLOCK_RECORD
  5
1B
330
1
100
AcDbSymbolTableRecord
100
AcDbBlockTableRecord
  2
*Paper_Space
340
1E
  0
BLOCK_RECORD
  5
23
330
1
100
AcDbSymbolTableRecord
100
AcDbBlockTableRecord
  2
*Paper_Space0
340
26
  0
BLOCK_RECORD
  5
87
330
1
100
AcDbSymbolTableRecord
100
AcDbBlockTableRecord
  2
GENAXEH
340
0
  0
BLOCK_RECORD
  5
B2C
330
1
100
AcDbSymbolTableRecord
100
AcDbBlockTableRecord
  2
*D3
340
0
  0
BLOCK_RECORD
  5
B52
330
1
100
AcDbSymbolTableRecord
100
AcDbBlockTableRecord
  2
*D4
340
0
  0
BLOCK_RECORD
  5
B9A
330
1
100
AcDbSymbolTableRecord
100
AcDbBlockTableRecord
  2
*U6
340
0
  0
BLOCK_RECORD
  5
C4A
330
1
100
AcDbSymbolTableRecord
100
AcDbBlockTableRecord
  2
*D7
340
0
  0
BLOCK_RECORD
  5
C70
330
1
100
AcDbSymbolTableRecord
100
AcDbBlockTableRecord
  2
*D8
340
0
  0
BLOCK_RECORD
  5
C96
330
1
100
AcDbSymbolTableRecord
100
AcDbBlockTableRecord
  2
*D9
340
0
  0
BLOCK_RECORD
  5
CBC
330
1
100
AcDbSymbolTableRecord
100
AcDbBlockTableRecord
  2
*D10
340
0
  0
BLOCK_RECORD
  5
CE2
330
1
100
AcDbSymbolTableRecord
100
AcDbBlockTableRecord
  2
*D11
340
0
  0
BLOCK_RECORD
  5
D08
330
1
100
AcDbSymbolTableRecord
100
AcDbBlockTableRecord
  2
*D12
340
0
  0
BLOCK_RECORD
  5
D2E
330
1
100
AcDbSymbolTableRecord
100
AcDbBlockTableRecord
  2
*D13
340
0
  0
BLOCK_RECORD
  5
D54
330
1
100
AcDbSymbolTableRecord
100
AcDbBlockTableRecord
  2
*D14
340
0
  0
BLOCK_RECORD
  5
D7A
330
1
100
AcDbSymbolTableRecord
100
AcDbBlockTableRecord
  2
*D15
340
0
  0
BLOCK_RECORD
  5
DC0
330
1
100
AcDbSymbolTableRecord
100
AcDbBlockTableRecord
  2
*D16
340
0
  0
BLOCK_RECORD
  5
E1C
330
1
100
AcDbSymbolTableRecord
100
AcDbBlockTableRecord
  2
*D17
340
0
  0
BLOCK_RECORD
  5
E46
330
1
100
AcDbSymbolTableRecord
100
AcDbBlockTableRecord
  2
*D18
340
0
  0
BLOCK_RECORD
  5
E70
330
1
100
AcDbSymbolTableRecord
100
AcDbBlockTableRecord
  2
*D19
340
0
  0
BLOCK_RECORD
  5
E96
330
1
100
AcDbSymbolTableRecord
100
AcDbBlockTableRecord
  2
*D20
340
0
  0
BLOCK_RECORD
  5
EC0
330
1
100
AcDbSymbolTableRecord
100
AcDbBlockTableRecord
  2
*D21
340
0
  0
BLOCK_RECORD
  5
EEA
330
1
100
AcDbSymbolTableRecord
100
AcDbBlockTableRecord
  2
*D22
340
0
  0
BLOCK_RECORD
  5
F1A
330
1
100
AcDbSymbolTableRecord
100
AcDbBlockTableRecord
  2
*D23
340
0
  0
BLOCK_RECORD
  5
F36
330
1
100
AcDbSymbolTableRecord
100
AcDbBlockTableRecord
  2
GENDOT
340
0
102
{BLKREFS
331
1225
331
1230
102
}
  0
BLOCK_RECORD
  5
F64
330
1
100
AcDbSymbolTableRecord
100
AcDbBlockTableRecord
  2
*D25
340
0
  0
BLOCK_RECORD
  5
1455
330
1
100
AcDbSymbolTableRecord
100
AcDbBlockTableRecord
  2
*S27
340
0
  0
BLOCK_RECORD
  5
145D
330
1
100
AcDbSymbolTableRecord
100
AcDbBlockTableRecord
  2
*S28
340
0
  0
BLOCK_RECORD
  5
1465
330
1
100
AcDbSymbolTableRecord
100
AcDbBlockTableRecord
  2
*S29
340
0
  0
BLOCK_RECORD
  5
146D
330
1
100
AcDbSymbolTableRecord
100
AcDbBlockTableRecord
  2
*S30
340
0
  0
BLOCK_RECORD
  5
1475
330
1
100
AcDbSymbolTableRecord
100
AcDbBlockTableRecord
  2
*S31
340
0
  0
ENDTAB
  0
ENDSEC
  0
SECTION
  2
BLOCKS
  0
BLOCK
  5
20
330
1F
100
AcDbEntity
  8
0
100
AcDbBlockBegin
  2
*Model_Space
 70
     0
 10
0.0
 20
0.0
 30
0.0
  3
*Model_Space
  1

  0
ENDBLK
  5
21
330
1F
100
AcDbEntity
  8
0
100
AcDbBlockEnd
  0
BLOCK
  5
1C
330
1B
100
AcDbEntity
 67
     1
  8
0
100
AcDbBlockBegin
  2
*Paper_Space
 70
     0
 10
0.0
 20
0.0
 30
0.0
  3
*Paper_Space
  1

  0
ENDBLK
  5
1D
330
1B
100
AcDbEntity
 67
     1
  8
0
100
AcDbBlockEnd
  0
BLOCK
  5
24
330
23
100
AcDbEntity
  8
0
100
AcDbBlockBegin
  2
*Paper_Space0
 70
     0
 10
0.0
 20
0.0
 30
0.0
  3
*Paper_Space0
  1

  0
ENDBLK
  5
25
330
23
100
AcDbEntity
  8
0
100
AcDbBlockEnd
  0
BLOCK
  5
89
330
87
100
AcDbEntity
  8
0
100
AcDbBlockBegin
  2
GENAXEH
 70
     0
 10
0.0
 20
0.0
 30
0.0
  3
GENAXEH
  1

  0
LINE
  5
88
330
87
100
AcDbEntity
  8
0
100
AcDbLine
 10
-1.0
 20
0.0
 30
0.0
 11
1.0
 21
0.0
 31
0.0
  0
ENDBLK
  5
8A
330
87
100
AcDbEntity
  8
0
100
AcDbBlockEnd
  0
BLOCK
  5
B36
330
B2C
100
AcDbEntity
  8
0
100
AcDbBlockBegin
  2
*D3
 70
     1
 10
0.0
 20
0.0
 30
0.0
  3
*D3
  1

  0
LINE
  5
1047
330
B2C
100
AcDbEntity
  8
AM_5
100
AcDbLine
 10
2170.072331309086
 20
1390.627648437132
 30
0.0
 11
2196.072332309086
 21
1390.627648437132
 31
0.0
  0
LINE
  5
1048
330
B2C
100
AcDbEntity
  8
AM_5
100
AcDbLine
 10
2170.072331309086
 20
1400.627648437132
 30
0.0
 11
2196.072332309086
 21
1400.627648437132
 31
0.0
  0
LINE
  5
1049
330
B2C
100
AcDbEntity
  8
AM_5
100
AcDbLine
 10
2194.572332309086
 20
1393.627648437133
 30
0.0
 11
2194.572332309086
 21
1397.627648437132
 31
0.0
  0
SOLID
  5
104A
330
B2C
100
AcDbEntity
  8
AM_5
100
AcDbTrace
 10
2194.072332309086
 20
1393.627648437133
 30
0.0
 11
2195.072332309086
 21
1393.627648437133
 31
0.0
 12
2194.572332309086
 22
1390.627648437132
 32
0.0
 13
2194.572332309086
 23
1390.627648437132
 33
0.0
  0
SOLID
  5
104B
330
B2C
100
AcDbEntity
  8
AM_5
100
AcDbTrace
 10
2194.072332309086
 20
1397.627648437132
 30
0.0
 11
2195.072332309086
 21
1397.627648437132
 31
0.0
 12
2194.572332309086
 22
1400.627648437132
 32
0.0
 13
2194.572332309086
 23
1400.627648437132
 33
0.0
  0
MTEXT
  5
104C
330
B2C
100
AcDbEntity
  8
AM_5
100
AcDbMText
 10
2192.072332309086
 20
1395.627648437133
 30
0.0
 40
3.0
 41
0.0
 71
     5
 72
     1
  1
10
 11
0.0000000000000001
 21
1.0
 31
0.0
 73
     1
 44
1.0
1001
ACAD
1000
MTEXTBEGIN
1070
    73
1070
     1
1070
    44
1040
1.0
1070
    74
1070
     0
1000
MTEXTEND
  0
POINT
  5
104D
330
B2C
100
AcDbEntity
  8
Defpoints
 62
     0
100
AcDbPoint
 10
2169.072331309086
 20
1390.627648437132
 30
0.0
  0
POINT
  5
104E
330
B2C
100
AcDbEntity
  8
Defpoints
 62
     0
100
AcDbPoint
 10
2169.072331309086
 20
1400.627648437132
 30
0.0
  0
POINT
  5
104F
330
B2C
100
AcDbEntity
  8
Defpoints
 62
     0
100
AcDbPoint
 10
2194.572332309086
 20
1400.627648437132
 30
0.0
  0
ENDBLK
  5
B37
330
B2C
100
AcDbEntity
  8
0
100
AcDbBlockEnd
  0
BLOCK
  5
B5C
330
B52
100
AcDbEntity
  8
0
100
AcDbBlockBegin
  2
*D4
 70
     1
 10
0.0
 20
0.0
 30
0.0
  3
*D4
  1

  0
LINE
  5
11CF
330
B52
100
AcDbEntity
  8
AM_5
100
AcDbLine
 10
2166.572331309086
 20
1387.127648437133
 30
0.0
 11
2166.572331309086
 21
1374.127648437132
 31
0.0
  0
LINE
  5
11D0
330
B52
100
AcDbEntity
  8
AM_5
100
AcDbLine
 10
2182.572331309086
 20
1386.627648437132
 30
0.0
 11
2182.572331309086
 21
1374.127648437132
 31
0.0
  0
LINE
  5
11D1
330
B52
100
AcDbEntity
  8
AM_5
100
AcDbLine
 10
2169.572331309086
 20
1375.627648437133
 30
0.0
 11
2179.572331309086
 21
1375.627648437133
 31
0.0
  0
SOLID
  5
11D2
330
B52
100
AcDbEntity
  8
AM_5
100
AcDbTrace
 10
2169.572331309086
 20
1376.127648437132
 30
0.0
 11
2169.572331309086
 21
1375.127648437132
 31
0.0
 12
2166.572331309086
 22
1375.627648437133
 32
0.0
 13
2166.572331309086
 23
1375.627648437133
 33
0.0
  0
SOLID
  5
11D3
330
B52
100
AcDbEntity
  8
AM_5
100
AcDbTrace
 10
2179.572331309086
 20
1376.127648437132
 30
0.0
 11
2179.572331309086
 21
1375.127648437132
 31
0.0
 12
2182.572331309086
 22
1375.627648437133
 32
0.0
 13
2182.572331309086
 23
1375.627648437133
 33
0.0
  0
MTEXT
  5
11D4
330
B52
100
AcDbEntity
  8
AM_5
100
AcDbMText
 10
2174.572331309086
 20
1378.127648437132
 30
0.0
 40
3.0
 41
0.0
 71
     5
 72
     1
  1
16
 73
     1
 44
1.0
1001
ACAD
1000
MTEXTBEGIN
1070
    73
1070
     1
1070
    44
1040
1.0
1070
    74
1070
     0
1000
MTEXTEND
  0
POINT
  5
11D5
330
B52
100
AcDbEntity
  8
Defpoints
 62
     0
100
AcDbPoint
 10
2166.572331309086
 20
1388.127648437132
 30
0.0
  0
POINT
  5
11D6
330
B52
100
AcDbEntity
  8
Defpoints
 62
     0
100
AcDbPoint
 10
2182.572331309086
 20
1387.627648437132
 30
0.0
  0
POINT
  5
11D7
330
B52
100
AcDbEntity
  8
Defpoints
 62
     0
100
AcDbPoint
 10
2182.572331309086
 20
1375.627648437133
 30
0.0
  0
ENDBLK
  5
B5D
330
B52
100
AcDbEntity
  8
0
100
AcDbBlockEnd
  0
BLOCK
  5
B9B
330
B9A
100
AcDbEntity
  8
0
100
AcDbBlockBegin
  2
*U6
 70
     1
 10
0.0
 20
0.0
 30
0.0
  3
*U6
  1

  0
ENDBLK
  5
B9C
330
B9A
100
AcDbEntity
  8
0
100
AcDbBlockEnd
  0
BLOCK
  5
C54
330
C4A
100
AcDbEntity
  8
0
100
AcDbBlockBegin
  2
*D7
 70
     1
 10
0.0
 20
0.0
 30
0.0
  3
*D7
  1

  0
LINE
  5
11C0
330
C4A
100
AcDbEntity
  8
AM_5
100
AcDbLine
 10
2182.572331309086
 20
1355.074497272913
 30
0.0
 11
2182.572331309086
 21
1367.574497272913
 31
0.0
  0
LINE
  5
11C1
330
C4A
100
AcDbEntity
  8
AM_5
100
AcDbLine
 10
2162.572331309086
 20
1352.574497272913
 30
0.0
 11
2162.572331309086
 21
1367.574497272913
 31
0.0
  0
LINE
  5
11C2
330
C4A
100
AcDbEntity
  8
AM_5
100
AcDbLine
 10
2179.572331309086
 20
1366.074497272913
 30
0.0
 11
2165.572331309086
 21
1366.074497272913
 31
0.0
  0
SOLID
  5
11C3
330
C4A
100
AcDbEntity
  8
AM_5
100
AcDbTrace
 10
2179.572331309086
 20
1366.574497272913
 30
0.0
 11
2179.572331309086
 21
1365.574497272913
 31
0.0
 12
2182.572331309086
 22
1366.074497272913
 32
0.0
 13
2182.572331309086
 23
1366.074497272913
 33
0.0
  0
SOLID
  5
11C4
330
C4A
100
AcDbEntity
  8
AM_5
100
AcDbTrace
 10
2165.572331309086
 20
1366.574497272913
 30
0.0
 11
2165.572331309086
 21
1365.574497272913
 31
0.0
 12
2162.572331309086
 22
1366.074497272913
 32
0.0
 13
2162.572331309086
 23
1366.074497272913
 33
0.0
  0
MTEXT
  5
11C5
330
C4A
100
AcDbEntity
  8
AM_5
100
AcDbMText
 10
2172.572331309087
 20
1368.574792548503
 30
0.0
 40
3.0
 41
0.0
 71
     5
 72
     1
  1
20
 73
     1
 44
1.0
1001
ACAD
1000
MTEXTBEGIN
1070
    73
1070
     1
1070
    44
1040
1.0
1070
    74
1070
     0
1000
MTEXTEND
  0
POINT
  5
11C6
330
C4A
100
AcDbEntity
  8
Defpoints
 62
     0
100
AcDbPoint
 10
2182.572331309086
 20
1354.074497272913
 30
0.0
  0
POINT
  5
11C7
330
C4A
100
AcDbEntity
  8
Defpoints
 62
     0
100
AcDbPoint
 10
2162.572331309086
 20
1351.574497272913
 30
0.0
  0
POINT
  5
11C8
330
C4A
100
AcDbEntity
  8
Defpoints
 62
     0
100
AcDbPoint
 10
2162.572331309086
 20
1366.074497272913
 30
0.0
  0
ENDBLK
  5
C55
330
C4A
100
AcDbEntity
  8
0
100
AcDbBlockEnd
  0
BLOCK
  5
C7A
330
C70
100
AcDbEntity
  8
0
100
AcDbBlockBegin
  2
*D8
 70
     1
 10
0.0
 20
0.0
 30
0.0
  3
*D8
  1

  0
LINE
  5
11B1
330
C70
100
AcDbEntity
  8
AM_5
100
AcDbLine
 10
2166.072331309086
 20
1331.074497272913
 30
0.0
 11
2196.072331309086
 21
1331.074497272913
 31
0.0
  0
LINE
  5
11B2
330
C70
100
AcDbEntity
  8
AM_5
100
AcDbLine
 10
2166.072331309086
 20
1349.074497272913
 30
0.0
 11
2196.072331309086
 21
1349.074497272913
 31
0.0
  0
LINE
  5
11B3
330
C70
100
AcDbEntity
  8
AM_5
100
AcDbLine
 10
2194.572331309086
 20
1334.074497272913
 30
0.0
 11
2194.572331309086
 21
1346.074497272913
 31
0.0
  0
SOLID
  5
11B4
330
C70
100
AcDbEntity
  8
AM_5
100
AcDbTrace
 10
2194.072331309087
 20
1334.074497272913
 30
0.0
 11
2195.072331309086
 21
1334.074497272913
 31
0.0
 12
2194.572331309086
 22
1331.074497272913
 32
0.0
 13
2194.572331309086
 23
1331.074497272913
 33
0.0
  0
SOLID
  5
11B5
330
C70
100
AcDbEntity
  8
AM_5
100
AcDbTrace
 10
2194.072331309087
 20
1346.074497272913
 30
0.0
 11
2195.072331309086
 21
1346.074497272913
 31
0.0
 12
2194.572331309086
 22
1349.074497272913
 32
0.0
 13
2194.572331309086
 23
1349.074497272913
 33
0.0
  0
MTEXT
  5
11B6
330
C70
100
AcDbEntity
  8
AM_5
100
AcDbMText
 10
2192.072331309086
 20
1340.074497272913
 30
0.0
 40
3.0
 41
0.0
 71
     5
 72
     1
  1
18
 11
0.0000000000000001
 21
1.0
 31
0.0
 73
     1
 44
1.0
1001
ACAD
1000
MTEXTBEGIN
1070
    73
1070
     1
1070
    44
1040
1.0
1070
    74
1070
     0
1000
MTEXTEND
  0
POINT
  5
11B7
330
C70
100
AcDbEntity
  8
Defpoints
 62
     0
100
AcDbPoint
 10
2165.072331309086
 20
1331.074497272913
 30
0.0
  0
POINT
  5
11B8
330
C70
100
AcDbEntity
  8
Defpoints
 62
     0
100
AcDbPoint
 10
2165.072331309086
 20
1349.074497272913
 30
0.0
  0
POINT
  5
11B9
330
C70
100
AcDbEntity
  8
Defpoints
 62
     0
100
AcDbPoint
 10
2194.572331309086
 20
1349.074497272913
 30
0.0
  0
ENDBLK
  5
C7B
330
C70
100
AcDbEntity
  8
0
100
AcDbBlockEnd
  0
BLOCK
  5
CA0
330
C96
100
AcDbEntity
  8
0
100
AcDbBlockBegin
  2
*D9
 70
     1
 10
0.0
 20
0.0
 30
0.0
  3
*D9
  1

  0
LINE
  5
106B
330
C96
100
AcDbEntity
  8
AM_5
100
AcDbLine
 10
2182.572331309086
 20
1325.074497272913
 30
0.0
 11
2182.572331309086
 21
1312.574497272913
 31
0.0
  0
LINE
  5
106C
330
C96
100
AcDbEntity
  8
AM_5
100
AcDbLine
 10
2132.072331309086
 20
1325.074497272913
 30
0.0
 11
2132.072331309086
 21
1312.574497272913
 31
0.0
  0
LINE
  5
106D
330
C96
100
AcDbEntity
  8
AM_5
100
AcDbLine
 10
2179.572331309086
 20
1314.074497272913
 30
0.0
 11
2135.072331309086
 21
1314.074497272913
 31
0.0
  0
SOLID
  5
106E
330
C96
100
AcDbEntity
  8
AM_5
100
AcDbTrace
 10
2179.572331309086
 20
1314.574497272913
 30
0.0
 11
2179.572331309086
 21
1313.574497272913
 31
0.0
 12
2182.572331309086
 22
1314.074497272913
 32
0.0
 13
2182.572331309086
 23
1314.074497272913
 33
0.0
  0
SOLID
  5
106F
330
C96
100
AcDbEntity
  8
AM_5
100
AcDbTrace
 10
2135.072331309086
 20
1314.574497272913
 30
0.0
 11
2135.072331309086
 21
1313.574497272913
 31
0.0
 12
2132.072331309086
 22
1314.074497272913
 32
0.0
 13
2132.072331309086
 23
1314.074497272913
 33
0.0
  0
MTEXT
  5
1070
330
C96
100
AcDbEntity
  8
AM_5
100
AcDbMText
 10
2157.322331309086
 20
1316.574497272913
 30
0.0
 40
3.0
 41
0.0
 71
     5
 72
     1
  1
50.5
 73
     1
 44
1.0
1001
ACAD
1000
MTEXTBEGIN
1070
    73
1070
     1
1070
    44
1040
1.0
1070
    74
1070
     0
1000
MTEXTEND
  0
POINT
  5
1071
330
C96
100
AcDbEntity
  8
Defpoints
 62
     0
100
AcDbPoint
 10
2182.572331309086
 20
1326.074497272913
 30
0.0
  0
POINT
  5
1072
330
C96
100
AcDbEntity
  8
Defpoints
 62
     0
100
AcDbPoint
 10
2132.072331309086
 20
1326.074497272913
 30
0.0
  0
POINT
  5
1073
330
C96
100
AcDbEntity
  8
Defpoints
 62
     0
100
AcDbPoint
 10
2132.072331309086
 20
1314.074497272913
 30
0.0
  0
ENDBLK
  5
CA1
330
C96
100
AcDbEntity
  8
0
100
AcDbBlockEnd
  0
BLOCK
  5
CC6
330
CBC
100
AcDbEntity
  8
0
100
AcDbBlockBegin
  2
*D10
 70
     1
 10
0.0
 20
0.0
 30
0.0
  3
*D10
  1

  0
LINE
  5
1074
330
CBC
100
AcDbEntity
  8
AM_5
100
AcDbLine
 10
2132.072331309086
 20
1325.074497272913
 30
0.0
 11
2132.072331309086
 21
1312.574497272912
 31
0.0
  0
LINE
  5
1075
330
CBC
100
AcDbEntity
  8
AM_5
100
AcDbLine
 10
2119.072331309086
 20
1325.574497272913
 30
0.0
 11
2119.072331309086
 21
1312.574497272912
 31
0.0
  0
LINE
  5
1076
330
CBC
100
AcDbEntity
  8
AM_5
100
AcDbLine
 10
2129.072331309086
 20
1314.074497272912
 30
0.0
 11
2122.072331309086
 21
1314.074497272912
 31
0.0
  0
SOLID
  5
1077
330
CBC
100
AcDbEntity
  8
AM_5
100
AcDbTrace
 10
2129.072331309086
 20
1314.574497272912
 30
0.0
 11
2129.072331309086
 21
1313.574497272912
 31
0.0
 12
2132.072331309086
 22
1314.074497272912
 32
0.0
 13
2132.072331309086
 23
1314.074497272912
 33
0.0
  0
SOLID
  5
1078
330
CBC
100
AcDbEntity
  8
AM_5
100
AcDbTrace
 10
2122.072331309086
 20
1314.574497272912
 30
0.0
 11
2122.072331309086
 21
1313.574497272912
 31
0.0
 12
2119.072331309086
 22
1314.074497272912
 32
0.0
 13
2119.072331309086
 23
1314.074497272912
 33
0.0
  0
MTEXT
  5
1079
330
CBC
100
AcDbEntity
  8
AM_5
100
AcDbMText
 10
2125.572331309086
 20
1316.574497272912
 30
0.0
 40
3.0
 41
0.0
 71
     5
 72
     1
  1
13
 73
     1
 44
1.0
1001
ACAD
1000
MTEXTBEGIN
1070
    73
1070
     1
1070
    44
1040
1.0
1070
    74
1070
     0
1000
MTEXTEND
  0
POINT
  5
107A
330
CBC
100
AcDbEntity
  8
Defpoints
 62
     0
100
AcDbPoint
 10
2132.072331309086
 20
1326.074497272913
 30
0.0
  0
POINT
  5
107B
330
CBC
100
AcDbEntity
  8
Defpoints
 62
     0
100
AcDbPoint
 10
2119.072331309086
 20
1326.574497272913
 30
0.0
  0
POINT
  5
107C
330
CBC
100
AcDbEntity
  8
Defpoints
 62
     0
100
AcDbPoint
 10
2119.072331309086
 20
1314.074497272912
 30
0.0
  0
ENDBLK
  5
CC7
330
CBC
100
AcDbEntity
  8
0
100
AcDbBlockEnd
  0
BLOCK
  5
CEC
330
CE2
100
AcDbEntity
  8
0
100
AcDbBlockBegin
  2
*D11
 70
     1
 10
0.0
 20
0.0
 30
0.0
  3
*D11
  1

  0
LINE
  5
1120
330
CE2
100
AcDbEntity
  8
AM_5
100
AcDbLine
 10
2182.572331309086
 20
1325.074497272913
 30
0.0
 11
2182.572331309086
 21
1305.574497272912
 31
0.0
  0
LINE
  5
1121
330
CE2
100
AcDbEntity
  8
AM_5
100
AcDbLine
 10
2119.072331309086
 20
1325.574497272913
 30
0.0
 11
2119.072331309086
 21
1305.574497272912
 31
0.0
  0
LINE
  5
1122
330
CE2
100
AcDbEntity
  8
AM_5
100
AcDbLine
 10
2179.572331309086
 20
1307.074497272912
 30
0.0
 11
2122.072331309086
 21
1307.074497272912
 31
0.0
  0
SOLID
  5
1123
330
CE2
100
AcDbEntity
  8
AM_5
100
AcDbTrace
 10
2179.572331309086
 20
1307.574497272912
 30
0.0
 11
2179.572331309086
 21
1306.574497272912
 31
0.0
 12
2182.572331309086
 22
1307.074497272912
 32
0.0
 13
2182.572331309086
 23
1307.074497272912
 33
0.0
  0
SOLID
  5
1124
330
CE2
100
AcDbEntity
  8
AM_5
100
AcDbTrace
 10
2122.072331309086
 20
1307.574497272912
 30
0.0
 11
2122.072331309086
 21
1306.574497272912
 31
0.0
 12
2119.072331309086
 22
1307.074497272912
 32
0.0
 13
2119.072331309086
 23
1307.074497272912
 33
0.0
  0
MTEXT
  5
1125
330
CE2
100
AcDbEntity
  8
AM_5
100
AcDbMText
 10
2150.822331309086
 20
1309.574497272912
 30
0.0
 40
3.0
 41
0.0
 71
     5
 72
     1
  1
63.5
 73
     1
 44
1.0
1001
ACAD
1000
MTEXTBEGIN
1070
    73
1070
     1
1070
    44
1040
1.0
1070
    74
1070
     0
1000
MTEXTEND
  0
POINT
  5
1126
330
CE2
100
AcDbEntity
  8
Defpoints
 62
     0
100
AcDbPoint
 10
2182.572331309086
 20
1326.074497272913
 30
0.0
  0
POINT
  5
1127
330
CE2
100
AcDbEntity
  8
Defpoints
 62
     0
100
AcDbPoint
 10
2119.072331309086
 20
1326.574497272913
 30
0.0
  0
POINT
  5
1128
330
CE2
100
AcDbEntity
  8
Defpoints
 62
     0
100
AcDbPoint
 10
2119.072331309086
 20
1307.074497272912
 30
0.0
  0
ENDBLK
  5
CED
330
CE2
100
AcDbEntity
  8
0
100
AcDbBlockEnd
  0
BLOCK
  5
D12
330
D08
100
AcDbEntity
  8
0
100
AcDbBlockBegin
  2
*D12
 70
     1
 10
0.0
 20
0.0
 30
0.0
  3
*D12
  1

  0
LINE
  5
1117
330
D08
100
AcDbEntity
  8
AM_5
100
AcDbLine
 10
2233.129763113865
 20
1345.074497272913
 30
0.0
 11
2233.129763113865
 21
1312.574497272913
 31
0.0
  0
LINE
  5
1118
330
D08
100
AcDbEntity
  8
AM_5
100
AcDbLine
 10
2243.129763113865
 20
1328.074497272913
 30
0.0
 11
2243.129763113865
 21
1312.574497272913
 31
0.0
  0
LINE
  5
1119
330
D08
100
AcDbEntity
  8
AM_5
100
AcDbLine
 10
2236.129763113865
 20
1314.074497272913
 30
0.0
 11
2240.129763113865
 21
1314.074497272913
 31
0.0
  0
SOLID
  5
111A
330
D08
100
AcDbEntity
  8
AM_5
100
AcDbTrace
 10
2236.129763113865
 20
1314.574497272913
 30
0.0
 11
2236.129763113865
 21
1313.574497272913
 31
0.0
 12
2233.129763113865
 22
1314.074497272913
 32
0.0
 13
2233.129763113865
 23
1314.074497272913
 33
0.0
  0
SOLID
  5
111B
330
D08
100
AcDbEntity
  8
AM_5
100
AcDbTrace
 10
2240.129763113865
 20
1314.574497272913
 30
0.0
 11
2240.129763113865
 21
1313.574497272913
 31
0.0
 12
2243.129763113865
 22
1314.074497272913
 32
0.0
 13
2243.129763113865
 23
1314.074497272913
 33
0.0
  0
MTEXT
  5
111C
330
D08
100
AcDbEntity
  8
AM_5
100
AcDbMText
 10
2238.129763113865
 20
1316.574497272913
 30
0.0
 40
3.0
 41
0.0
 71
     5
 72
     1
  1
10
 73
     1
 44
1.0
1001
ACAD
1000
MTEXTBEGIN
1070
    73
1070
     1
1070
    44
1040
1.0
1070
    74
1070
     0
1000
MTEXTEND
  0
POINT
  5
111D
330
D08
100
AcDbEntity
  8
Defpoints
 62
     0
100
AcDbPoint
 10
2233.129763113865
 20
1346.074497272913
 30
0.0
  0
POINT
  5
111E
330
D08
100
AcDbEntity
  8
Defpoints
 62
     0
100
AcDbPoint
 10
2243.129763113865
 20
1329.074497272913
 30
0.0
  0
POINT
  5
111F
330
D08
100
AcDbEntity
  8
Defpoints
 62
     0
100
AcDbPoint
 10
2243.129763113865
 20
1314.074497272913
 30
0.0
  0
ENDBLK
  5
D13
330
D08
100
AcDbEntity
  8
0
100
AcDbBlockEnd
  0
BLOCK
  5
D38
330
D2E
100
AcDbEntity
  8
0
100
AcDbBlockBegin
  2
*D13
 70
     1
 10
0.0
 20
0.0
 30
0.0
  3
*D13
  1

  0
LINE
  5
110E
330
D2E
100
AcDbEntity
  8
AM_5
100
AcDbLine
 10
2230.129763113865
 20
1325.574497272913
 30
0.0
 11
2230.129763113865
 21
1305.574497272913
 31
0.0
  0
LINE
  5
110F
330
D2E
100
AcDbEntity
  8
AM_5
100
AcDbLine
 10
2246.129763113865
 20
1325.574497272913
 30
0.0
 11
2246.129763113865
 21
1305.574497272913
 31
0.0
  0
LINE
  5
1110
330
D2E
100
AcDbEntity
  8
AM_5
100
AcDbLine
 10
2233.129763113865
 20
1307.074497272913
 30
0.0
 11
2243.129763113865
 21
1307.074497272913
 31
0.0
  0
SOLID
  5
1111
330
D2E
100
AcDbEntity
  8
AM_5
100
AcDbTrace
 10
2233.129763113865
 20
1307.574497272913
 30
0.0
 11
2233.129763113865
 21
1306.574497272913
 31
0.0
 12
2230.129763113865
 22
1307.074497272913
 32
0.0
 13
2230.129763113865
 23
1307.074497272913
 33
0.0
  0
SOLID
  5
1112
330
D2E
100
AcDbEntity
  8
AM_5
100
AcDbTrace
 10
2243.129763113865
 20
1307.574497272913
 30
0.0
 11
2243.129763113865
 21
1306.574497272913
 31
0.0
 12
2246.129763113865
 22
1307.074497272913
 32
0.0
 13
2246.129763113865
 23
1307.074497272913
 33
0.0
  0
MTEXT
  5
1113
330
D2E
100
AcDbEntity
  8
AM_5
100
AcDbMText
 10
2238.129763113865
 20
1309.574497272913
 30
0.0
 40
3.0
 41
0.0
 71
     5
 72
     1
  1
16
 73
     1
 44
1.0
1001
ACAD
1000
MTEXTBEGIN
1070
    73
1070
     1
1070
    44
1040
1.0
1070
    74
1070
     0
1000
MTEXTEND
  0
POINT
  5
1114
330
D2E
100
AcDbEntity
  8
Defpoints
 62
     0
100
AcDbPoint
 10
2230.129763113865
 20
1326.574497272913
 30
0.0
  0
POINT
  5
1115
330
D2E
100
AcDbEntity
  8
Defpoints
 62
     0
100
AcDbPoint
 10
2246.129763113865
 20
1326.574497272913
 30
0.0
  0
POINT
  5
1116
330
D2E
100
AcDbEntity
  8
Defpoints
 62
     0
100
AcDbPoint
 10
2246.129763113865
 20
1307.074497272913
 30
0.0
  0
ENDBLK
  5
D39
330
D2E
100
AcDbEntity
  8
0
100
AcDbBlockEnd
  0
BLOCK
  5
D5E
330
D54
100
AcDbEntity
  8
0
100
AcDbBlockBegin
  2
*D14
 70
     1
 10
0.0
 20
0.0
 30
0.0
  3
*D14
  1

  0
LINE
  5
1098
330
D54
100
AcDbEntity
  8
AM_5
100
AcDbLine
 10
2229.629763113865
 20
1348.574497272913
 30
0.0
 11
2216.629763113865
 21
1348.574497272913
 31
0.0
  0
LINE
  5
1099
330
D54
100
AcDbEntity
  8
AM_5
100
AcDbLine
 10
2239.629763113865
 20
1331.574497272913
 30
0.0
 11
2216.629763113865
 21
1331.574497272913
 31
0.0
  0
LINE
  5
109A
330
D54
100
AcDbEntity
  8
AM_5
100
AcDbLine
 10
2218.129763113865
 20
1345.574497272913
 30
0.0
 11
2218.129763113865
 21
1334.574497272913
 31
0.0
  0
SOLID
  5
109B
330
D54
100
AcDbEntity
  8
AM_5
100
AcDbTrace
 10
2217.629763113865
 20
1345.574497272913
 30
0.0
 11
2218.629763113865
 21
1345.574497272913
 31
0.0
 12
2218.129763113865
 22
1348.574497272913
 32
0.0
 13
2218.129763113865
 23
1348.574497272913
 33
0.0
  0
SOLID
  5
109C
330
D54
100
AcDbEntity
  8
AM_5
100
AcDbTrace
 10
2217.629763113865
 20
1334.574497272913
 30
0.0
 11
2218.629763113865
 21
1334.574497272913
 31
0.0
 12
2218.129763113865
 22
1331.574497272913
 32
0.0
 13
2218.129763113865
 23
1331.574497272913
 33
0.0
  0
MTEXT
  5
109D
330
D54
100
AcDbEntity
  8
AM_5
100
AcDbMText
 10
2215.629763113865
 20
1340.074497272913
 30
0.0
 40
3.0
 41
0.0
 71
     5
 72
     1
  1
17
 11
0.0000000000000001
 21
1.0
 31
0.0
 73
     1
 44
1.0
1001
ACAD
1000
MTEXTBEGIN
1070
    73
1070
     1
1070
    44
1040
1.0
1070
    74
1070
     0
1000
MTEXTEND
  0
POINT
  5
109E
330
D54
100
AcDbEntity
  8
Defpoints
 62
     0
100
AcDbPoint
 10
2230.629763113865
 20
1348.574497272913
 30
0.0
  0
POINT
  5
109F
330
D54
100
AcDbEntity
  8
Defpoints
 62
     0
100
AcDbPoint
 10
2240.629763113865
 20
1331.574497272913
 30
0.0
  0
POINT
  5
10A0
330
D54
100
AcDbEntity
  8
Defpoints
 62
     0
100
AcDbPoint
 10
2218.129763113865
 20
1331.574497272913
 30
0.0
  0
ENDBLK
  5
D5F
330
D54
100
AcDbEntity
  8
0
100
AcDbBlockEnd
  0
BLOCK
  5
D84
330
D7A
100
AcDbEntity
  8
0
100
AcDbBlockBegin
  2
*D15
 70
     1
 10
0.0
 20
0.0
 30
0.0
  3
*D15
  1

  0
LINE
  5
11A2
330
D7A
100
AcDbEntity
  8
AM_5
100
AcDbLine
 10
2229.629763113865
 20
1354.074497272913
 30
0.0
 11
2209.629763113865
 21
1354.074497272913
 31
0.0
  0
LINE
  5
11A3
330
D7A
100
AcDbEntity
  8
AM_5
100
AcDbLine
 10
2229.629763113865
 20
1326.074497272913
 30
0.0
 11
2209.629763113865
 21
1326.074497272913
 31
0.0
  0
LINE
  5
11A4
330
D7A
100
AcDbEntity
  8
AM_5
100
AcDbLine
 10
2211.129763113865
 20
1351.074497272913
 30
0.0
 11
2211.129763113865
 21
1329.074497272913
 31
0.0
  0
SOLID
  5
11A5
330
D7A
100
AcDbEntity
  8
AM_5
100
AcDbTrace
 10
2210.629763113865
 20
1351.074497272913
 30
0.0
 11
2211.629763113865
 21
1351.074497272913
 31
0.0
 12
2211.129763113865
 22
1354.074497272913
 32
0.0
 13
2211.129763113865
 23
1354.074497272913
 33
0.0
  0
SOLID
  5
11A6
330
D7A
100
AcDbEntity
  8
AM_5
100
AcDbTrace
 10
2210.629763113865
 20
1329.074497272913
 30
0.0
 11
2211.629763113865
 21
1329.074497272913
 31
0.0
 12
2211.129763113865
 22
1326.074497272913
 32
0.0
 13
2211.129763113865
 23
1326.074497272913
 33
0.0
  0
MTEXT
  5
11A7
330
D7A
100
AcDbEntity
  8
AM_5
100
AcDbMText
 10
2208.629467838274
 20
1340.074497272913
 30
0.0
 40
3.0
 41
0.0
 71
     5
 72
     1
  1
28
 11
0.0000000000000001
 21
1.0
 31
0.0
 73
     1
 44
1.0
1001
ACAD
1000
MTEXTBEGIN
1070
    73
1070
     1
1070
    44
1040
1.0
1070
    74
1070
     0
1000
MTEXTEND
  0
POINT
  5
11A8
330
D7A
100
AcDbEntity
  8
Defpoints
 62
     0
100
AcDbPoint
 10
2230.629763113865
 20
1354.074497272913
 30
0.0
  0
POINT
  5
11A9
330
D7A
100
AcDbEntity
  8
Defpoints
 62
     0
100
AcDbPoint
 10
2230.629763113865
 20
1326.074497272913
 30
0.0
  0
POINT
  5
11AA
330
D7A
100
AcDbEntity
  8
Defpoints
 62
     0
100
AcDbPoint
 10
2211.129763113865
 20
1326.074497272913
 30
0.0
  0
ENDBLK
  5
D85
330
D7A
100
AcDbEntity
  8
0
100
AcDbBlockEnd
  0
BLOCK
  5
DCA
330
DC0
100
AcDbEntity
  8
0
100
AcDbBlockBegin
  2
*D16
 70
     1
 10
0.0
 20
0.0
 30
0.0
  3
*D16
  1

  0
LINE
  5
124D
330
DC0
100
AcDbEntity
  8
AM_5
100
AcDbLine
 10
2118.072331309086
 20
1353.574497272913
 30
0.0
 11
2098.572331309086
 21
1353.574497272913
 31
0.0
  0
LINE
  5
124E
330
DC0
100
AcDbEntity
  8
AM_5
100
AcDbLine
 10
2118.072331309086
 20
1326.574497272913
 30
0.0
 11
2098.572331309086
 21
1326.574497272913
 31
0.0
  0
LINE
  5
124F
330
DC0
100
AcDbEntity
  8
AM_5
100
AcDbLine
 10
2100.072331309086
 20
1350.574497272913
 30
0.0
 11
2100.072331309086
 21
1329.574497272913
 31
0.0
  0
SOLID
  5
1250
330
DC0
100
AcDbEntity
  8
AM_5
100
AcDbTrace
 10
2099.572331309087
 20
1350.574497272913
 30
0.0
 11
2100.572331309086
 21
1350.574497272913
 31
0.0
 12
2100.072331309086
 22
1353.574497272913
 32
0.0
 13
2100.072331309086
 23
1353.574497272913
 33
0.0
  0
SOLID
  5
1251
330
DC0
100
AcDbEntity
  8
AM_5
100
AcDbTrace
 10
2099.572331309087
 20
1329.574497272913
 30
0.0
 11
2100.572331309086
 21
1329.574497272913
 31
0.0
 12
2100.072331309086
 22
1326.574497272913
 32
0.0
 13
2100.072331309086
 23
1326.574497272913
 33
0.0
  0
MTEXT
  5
1252
330
DC0
100
AcDbEntity
  8
AM_5
100
AcDbMText
 10
2097.122331309086
 20
1340.074497272913
 30
0.0
 40
3.0
 41
0.0
 71
     5
 72
     1
  1
27 (open)
 11
0.0000000000000001
 21
1.0
 31
0.0
 73
     1
 44
1.0
1001
ACAD
1000
MTEXTBEGIN
1070
    73
1070
     1
1070
    44
1040
1.0
1070
    74
1070
     0
1000
MTEXTEND
  0
POINT
  5
1253
330
DC0
100
AcDbEntity
  8
Defpoints
 62
     0
100
AcDbPoint
 10
2119.072331309086
 20
1353.574497272913
 30
0.0
  0
POINT
  5
1254
330
DC0
100
AcDbEntity
  8
Defpoints
 62
     0
100
AcDbPoint
 10
2119.072331309086
 20
1326.574497272913
 30
0.0
  0
POINT
  5
1255
330
DC0
100
AcDbEntity
  8
Defpoints
 62
     0
100
AcDbPoint
 10
2100.072331309086
 20
1326.574497272913
 30
0.0
  0
ENDBLK
  5
DCB
330
DC0
100
AcDbEntity
  8
0
100
AcDbBlockEnd
  0
BLOCK
  5
E28
330
E1C
100
AcDbEntity
  8
0
100
AcDbBlockBegin
  2
*D17
 70
     1
 10
0.0
 20
0.0
 30
0.0
  3
*D17
  1

  0
LINE
  5
11EF
330
E1C
100
AcDbEntity
  8
AM_5
100
AcDbLine
 10
2118.072331309086
 20
1326.574497272913
 30
0.0
 11
2105.572331309086
 21
1326.574497272913
 31
0.0
  0
LINE
  5
11F0
330
E1C
100
AcDbEntity
  8
AM_5
100
AcDbLine
 10
2118.072331309086
 20
1330.574497272913
 30
0.0
 11
2105.572331309086
 21
1330.574497272913
 31
0.0
  0
LINE
  5
11F1
330
E1C
100
AcDbEntity
  8
AM_5
100
AcDbLine
 10
2107.072331309086
 20
1323.574497272913
 30
0.0
 11
2107.072331309086
 21
1320.574497272913
 31
0.0
  0
LINE
  5
11F2
330
E1C
100
AcDbEntity
  8
AM_5
100
AcDbLine
 10
2107.072331309086
 20
1333.574497272913
 30
0.0
 11
2107.072331309086
 21
1336.574497272913
 31
0.0
  0
LINE
  5
11F3
330
E1C
100
AcDbEntity
  8
AM_5
100
AcDbLine
 10
2107.072331309086
 20
1326.574497272913
 30
0.0
 11
2107.072331309086
 21
1330.574497272913
 31
0.0
  0
SOLID
  5
11F4
330
E1C
100
AcDbEntity
  8
AM_5
100
AcDbTrace
 10
2106.572331309086
 20
1323.574497272913
 30
0.0
 11
2107.572331309086
 21
1323.574497272913
 31
0.0
 12
2107.072331309086
 22
1326.574497272913
 32
0.0
 13
2107.072331309086
 23
1326.574497272913
 33
0.0
  0
SOLID
  5
11F5
330
E1C
100
AcDbEntity
  8
AM_5
100
AcDbTrace
 10
2106.572331309086
 20
1333.574497272913
 30
0.0
 11
2107.572331309086
 21
1333.574497272913
 31
0.0
 12
2107.072331309086
 22
1330.574497272913
 32
0.0
 13
2107.072331309086
 23
1330.574497272913
 33
0.0
  0
MTEXT
  5
11F6
330
E1C
100
AcDbEntity
  8
AM_5
100
AcDbMText
 10
2104.572331309086
 20
1328.574497272913
 30
0.0
 40
3.0
 41
0.0
 71
     5
 72
     1
  1
4
 11
0.0000000000000001
 21
1.0
 31
0.0
 73
     1
 44
1.0
1001
ACAD
1000
MTEXTBEGIN
1070
    73
1070
     1
1070
    44
1040
1.0
1070
    74
1070
     0
1000
MTEXTEND
  0
POINT
  5
11F7
330
E1C
100
AcDbEntity
  8
Defpoints
 62
     0
100
AcDbPoint
 10
2119.072331309086
 20
1326.574497272913
 30
0.0
  0
POINT
  5
11F8
330
E1C
100
AcDbEntity
  8
Defpoints
 62
     0
100
AcDbPoint
 10
2119.072331309086
 20
1330.574497272913
 30
0.0
  0
POINT
  5
11F9
330
E1C
100
AcDbEntity
  8
Defpoints
 62
     0
100
AcDbPoint
 10
2107.072331309086
 20
1330.574497272913
 30
0.0
  0
ENDBLK
  5
E29
330
E1C
100
AcDbEntity
  8
0
100
AcDbBlockEnd
  0
BLOCK
  5
E52
330
E46
100
AcDbEntity
  8
0
100
AcDbBlockBegin
  2
*D18
 70
     1
 10
0.0
 20
0.0
 30
0.0
  3
*D18
  1

  0
LINE
  5
11E4
330
E46
100
AcDbEntity
  8
AM_5
100
AcDbLine
 10
2118.072331309086
 20
1349.574497272913
 30
0.0
 11
2105.572331309086
 21
1349.574497272913
 31
0.0
  0
LINE
  5
11E5
330
E46
100
AcDbEntity
  8
AM_5
100
AcDbLine
 10
2118.072331309086
 20
1353.574497272913
 30
0.0
 11
2105.572331309086
 21
1353.574497272913
 31
0.0
  0
LINE
  5
11E6
330
E46
100
AcDbEntity
  8
AM_5
100
AcDbLine
 10
2107.072331309086
 20
1346.574497272913
 30
0.0
 11
2107.072331309086
 21
1343.574497272913
 31
0.0
  0
LINE
  5
11E7
330
E46
100
AcDbEntity
  8
AM_5
100
AcDbLine
 10
2107.072331309086
 20
1356.574497272913
 30
0.0
 11
2107.072331309086
 21
1359.574497272913
 31
0.0
  0
LINE
  5
11E8
330
E46
100
AcDbEntity
  8
AM_5
100
AcDbLine
 10
2107.072331309086
 20
1349.574497272913
 30
0.0
 11
2107.072331309086
 21
1353.574497272913
 31
0.0
  0
SOLID
  5
11E9
330
E46
100
AcDbEntity
  8
AM_5
100
AcDbTrace
 10
2106.572331309086
 20
1346.574497272913
 30
0.0
 11
2107.572331309086
 21
1346.574497272913
 31
0.0
 12
2107.072331309086
 22
1349.574497272913
 32
0.0
 13
2107.072331309086
 23
1349.574497272913
 33
0.0
  0
SOLID
  5
11EA
330
E46
100
AcDbEntity
  8
AM_5
100
AcDbTrace
 10
2106.572331309086
 20
1356.574497272913
 30
0.0
 11
2107.572331309086
 21
1356.574497272913
 31
0.0
 12
2107.072331309086
 22
1353.574497272913
 32
0.0
 13
2107.072331309086
 23
1353.574497272913
 33
0.0
  0
MTEXT
  5
11EB
330
E46
100
AcDbEntity
  8
AM_5
100
AcDbMText
 10
2104.572331309086
 20
1351.574497272913
 30
0.0
 40
3.0
 41
0.0
 71
     5
 72
     1
  1
4
 11
0.0000000000000001
 21
1.0
 31
0.0
 73
     1
 44
1.0
1001
ACAD
1000
MTEXTBEGIN
1070
    73
1070
     1
1070
    44
1040
1.0
1070
    74
1070
     0
1000
MTEXTEND
  0
POINT
  5
11EC
330
E46
100
AcDbEntity
  8
Defpoints
 62
     0
100
AcDbPoint
 10
2119.072331309086
 20
1349.574497272913
 30
0.0
  0
POINT
  5
11ED
330
E46
100
AcDbEntity
  8
Defpoints
 62
     0
100
AcDbPoint
 10
2119.072331309086
 20
1353.574497272913
 30
0.0
  0
POINT
  5
11EE
330
E46
100
AcDbEntity
  8
Defpoints
 62
     0
100
AcDbPoint
 10
2107.072331309086
 20
1353.574497272913
 30
0.0
  0
ENDBLK
  5
E53
330
E46
100
AcDbEntity
  8
0
100
AcDbBlockEnd
  0
BLOCK
  5
E7A
330
E70
100
AcDbEntity
  8
0
100
AcDbBlockBegin
  2
*D19
 70
     1
 10
0.0
 20
0.0
 30
0.0
  3
*D19
  1

  0
LINE
  5
1203
330
E70
100
AcDbEntity
  8
AM_5
100
AcDbLine
 10
2163.072331309086
 20
1270.063124457154
 30
0.0
 11
2196.072331309086
 21
1270.063124457154
 31
0.0
  0
LINE
  5
1204
330
E70
100
AcDbEntity
  8
AM_5
100
AcDbLine
 10
2178.572331309086
 20
1280.263124457154
 30
0.0
 11
2196.072331309086
 21
1280.263124457154
 31
0.0
  0
LINE
  5
1205
330
E70
100
AcDbEntity
  8
AM_5
100
AcDbLine
 10
2194.572331309086
 20
1273.063124457154
 30
0.0
 11
2194.572331309086
 21
1277.263124457154
 31
0.0
  0
SOLID
  5
1206
330
E70
100
AcDbEntity
  8
AM_5
100
AcDbTrace
 10
2194.072331309087
 20
1273.063124457154
 30
0.0
 11
2195.072331309086
 21
1273.063124457154
 31
0.0
 12
2194.572331309086
 22
1270.063124457154
 32
0.0
 13
2194.572331309086
 23
1270.063124457154
 33
0.0
  0
SOLID
  5
1207
330
E70
100
AcDbEntity
  8
AM_5
100
AcDbTrace
 10
2194.072331309087
 20
1277.263124457154
 30
0.0
 11
2195.072331309086
 21
1277.263124457154
 31
0.0
 12
2194.572331309086
 22
1280.263124457154
 32
0.0
 13
2194.572331309086
 23
1280.263124457154
 33
0.0
  0
MTEXT
  5
1208
330
E70
100
AcDbEntity
  8
AM_5
100
AcDbMText
 10
2192.072036033495
 20
1275.163124457155
 30
0.0
 40
3.0
 41
0.0
 71
     5
 72
     1
  1
10.2
 11
0.0000000000000001
 21
1.0
 31
0.0
 73
     1
 44
1.0
1001
ACAD
1000
MTEXTBEGIN
1070
    73
1070
     1
1070
    44
1040
1.0
1070
    74
1070
     0
1000
MTEXTEND
  0
POINT
  5
1209
330
E70
100
AcDbEntity
  8
Defpoints
 62
     0
100
AcDbPoint
 10
2162.072331309087
 20
1270.063124457154
 30
0.0
  0
POINT
  5
120A
330
E70
100
AcDbEntity
  8
Defpoints
 62
     0
100
AcDbPoint
 10
2177.572331309086
 20
1280.263124457154
 30
0.0
  0
POINT
  5
120B
330
E70
100
AcDbEntity
  8
Defpoints
 62
     0
100
AcDbPoint
 10
2194.572331309086
 20
1280.263124457154
 30
0.0
  0
ENDBLK
  5
E7B
330
E70
100
AcDbEntity
  8
0
100
AcDbBlockEnd
  0
BLOCK
  5
EA2
330
E96
100
AcDbEntity
  8
0
100
AcDbBlockBegin
  2
*D20
 70
     1
 10
0.0
 20
0.0
 30
0.0
  3
*D20
  1

  0
LINE
  5
120C
330
E96
100
AcDbEntity
  8
AM_5
100
AcDbLine
 10
2182.572331309086
 20
1284.163124457154
 30
0.0
 11
2182.572331309086
 21
1296.663124457154
 31
0.0
  0
LINE
  5
120D
330
E96
100
AcDbEntity
  8
AM_5
100
AcDbLine
 10
2175.072331309086
 20
1283.763124457155
 30
0.0
 11
2175.072331309086
 21
1296.663124457154
 31
0.0
  0
LINE
  5
120E
330
E96
100
AcDbEntity
  8
AM_5
100
AcDbLine
 10
2185.572331309086
 20
1295.163124457154
 30
0.0
 11
2188.572331309086
 21
1295.163124457154
 31
0.0
  0
LINE
  5
120F
330
E96
100
AcDbEntity
  8
AM_5
100
AcDbLine
 10
2172.072331309086
 20
1295.163124457154
 30
0.0
 11
2169.072331309086
 21
1295.163124457154
 31
0.0
  0
LINE
  5
1210
330
E96
100
AcDbEntity
  8
AM_5
100
AcDbLine
 10
2182.572331309086
 20
1295.163124457154
 30
0.0
 11
2175.072331309086
 21
1295.163124457154
 31
0.0
  0
SOLID
  5
1211
330
E96
100
AcDbEntity
  8
AM_5
100
AcDbTrace
 10
2185.572331309086
 20
1295.663124457154
 30
0.0
 11
2185.572331309086
 21
1294.663124457154
 31
0.0
 12
2182.572331309086
 22
1295.163124457154
 32
0.0
 13
2182.572331309086
 23
1295.163124457154
 33
0.0
  0
SOLID
  5
1212
330
E96
100
AcDbEntity
  8
AM_5
100
AcDbTrace
 10
2172.072331309086
 20
1295.663124457154
 30
0.0
 11
2172.072331309086
 21
1294.663124457154
 31
0.0
 12
2175.072331309086
 22
1295.163124457154
 32
0.0
 13
2175.072331309086
 23
1295.163124457154
 33
0.0
  0
MTEXT
  5
1213
330
E96
100
AcDbEntity
  8
AM_5
100
AcDbMText
 10
2178.822331309087
 20
1297.663124457154
 30
0.0
 40
3.0
 41
0.0
 71
     5
 72
     1
  1
7.5
 73
     1
 44
1.0
1001
ACAD
1000
MTEXTBEGIN
1070
    73
1070
     1
1070
    44
1040
1.0
1070
    74
1070
     0
1000
MTEXTEND
  0
POINT
  5
1214
330
E96
100
AcDbEntity
  8
Defpoints
 62
     0
100
AcDbPoint
 10
2182.572331309086
 20
1283.163124457154
 30
0.0
  0
POINT
  5
1215
330
E96
100
AcDbEntity
  8
Defpoints
 62
     0
100
AcDbPoint
 10
2175.072331309086
 20
1282.763124457155
 30
0.0
  0
POINT
  5
1216
330
E96
100
AcDbEntity
  8
Defpoints
 62
     0
100
AcDbPoint
 10
2175.072331309086
 20
1295.163124457154
 30
0.0
  0
ENDBLK
  5
EA3
330
E96
100
AcDbEntity
  8
0
100
AcDbBlockEnd
  0
BLOCK
  5
ECA
330
EC0
100
AcDbEntity
  8
0
100
AcDbBlockBegin
  2
*D21
 70
     1
 10
0.0
 20
0.0
 30
0.0
  3
*D21
  1

  0
LINE
  5
1217
330
EC0
100
AcDbEntity
  8
AM_5
100
AcDbLine
 10
2182.572331309086
 20
1266.163124457154
 30
0.0
 11
2182.572331309086
 21
1253.663124457154
 31
0.0
  0
LINE
  5
1218
330
EC0
100
AcDbEntity
  8
AM_5
100
AcDbLine
 10
2159.572331309086
 20
1266.563124457154
 30
0.0
 11
2159.572331309086
 21
1253.663124457154
 31
0.0
  0
LINE
  5
1219
330
EC0
100
AcDbEntity
  8
AM_5
100
AcDbLine
 10
2179.572331309086
 20
1255.163124457154
 30
0.0
 11
2162.572331309086
 21
1255.163124457154
 31
0.0
  0
SOLID
  5
121A
330
EC0
100
AcDbEntity
  8
AM_5
100
AcDbTrace
 10
2179.572331309086
 20
1255.663124457154
 30
0.0
 11
2179.572331309086
 21
1254.663124457154
 31
0.0
 12
2182.572331309086
 22
1255.163124457154
 32
0.0
 13
2182.572331309086
 23
1255.163124457154
 33
0.0
  0
SOLID
  5
121B
330
EC0
100
AcDbEntity
  8
AM_5
100
AcDbTrace
 10
2162.572331309086
 20
1255.663124457154
 30
0.0
 11
2162.572331309086
 21
1254.663124457154
 31
0.0
 12
2159.572331309086
 22
1255.163124457154
 32
0.0
 13
2159.572331309086
 23
1255.163124457154
 33
0.0
  0
MTEXT
  5
121C
330
EC0
100
AcDbEntity
  8
AM_5
100
AcDbMText
 10
2171.072331309086
 20
1257.663419732745
 30
0.0
 40
3.0
 41
0.0
 71
     5
 72
     1
  1
23
 73
     1
 44
1.0
1001
ACAD
1000
MTEXTBEGIN
1070
    73
1070
     1
1070
    44
1040
1.0
1070
    74
1070
     0
1000
MTEXTEND
  0
POINT
  5
121D
330
EC0
100
AcDbEntity
  8
Defpoints
 62
     0
100
AcDbPoint
 10
2182.572331309086
 20
1267.163124457154
 30
0.0
  0
POINT
  5
121E
330
EC0
100
AcDbEntity
  8
Defpoints
 62
     0
100
AcDbPoint
 10
2159.572331309086
 20
1267.563124457155
 30
0.0
  0
POINT
  5
121F
330
EC0
100
AcDbEntity
  8
Defpoints
 62
     0
100
AcDbPoint
 10
2159.572331309086
 20
1255.163124457154
 30
0.0
  0
ENDBLK
  5
ECB
330
EC0
100
AcDbEntity
  8
0
100
AcDbBlockEnd
  0
BLOCK
  5
EF6
330
EEA
100
AcDbEntity
  8
0
100
AcDbBlockBegin
  2
*D22
 70
     1
 10
0.0
 20
0.0
 30
0.0
  3
*D22
  1

  0
LINE
  5
1220
330
EEA
100
AcDbEntity
  8
AM_5
100
AcDbLine
 10
2119.072331309086
 20
1270.663124457154
 30
0.0
 11
2119.072331309086
 21
1253.663124457154
 31
0.0
  0
LINE
  5
1221
330
EEA
100
AcDbEntity
  8
AM_5
100
AcDbLine
 10
2122.072331309086
 20
1271.663124457154
 30
0.0
 11
2122.072331309086
 21
1253.663124457154
 31
0.0
  0
LINE
  5
1222
330
EEA
100
AcDbEntity
  8
AM_5
100
AcDbLine
 10
2125.072331309086
 20
1255.163124457154
 30
0.0
 11
2128.072331309086
 21
1255.163124457154
 31
0.0
  0
LINE
  5
1223
330
EEA
100
AcDbEntity
  8
AM_5
100
AcDbLine
 10
2116.072331309086
 20
1255.163124457154
 30
0.0
 11
2109.748067240374
 21
1255.163124457154
 31
0.0
  0
LINE
  5
1224
330
EEA
100
AcDbEntity
  8
AM_5
100
AcDbLine
 10
2122.072331309086
 20
1255.163124457154
 30
0.0
 11
2119.072331309086
 21
1255.163124457154
 31
0.0
  0
INSERT
  5
1225
330
EEA
100
AcDbEntity
  8
AM_5
100
AcDbBlockReference
  2
GENDOT
 10
2122.072331309086
 20
1255.163124457154
 30
0.0
 41
3.0
 42
3.0
 43
3.0
 50
180.0
  0
SOLID
  5
1226
330
EEA
100
AcDbEntity
  8
AM_5
100
AcDbTrace
 10
2116.072331309086
 20
1255.663124457154
 30
0.0
 11
2116.072331309086
 21
1254.663124457154
 31
0.0
 12
2119.072331309086
 22
1255.163124457154
 32
0.0
 13
2119.072331309086
 23
1255.163124457154
 33
0.0
  0
MTEXT
  5
1227
330
EEA
100
AcDbEntity
  8
AM_5
100
AcDbMText
 10
2111.41019927473
 20
1257.663124457154
 30
0.0
 40
3.0
 41
0.0
 71
     5
 72
     1
  1
3
 73
     1
 44
1.0
1001
ACAD
1000
MTEXTBEGIN
1070
    73
1070
     1
1070
    44
1040
1.0
1070
    74
1070
     0
1000
MTEXTEND
  0
POINT
  5
1228
330
EEA
100
AcDbEntity
  8
Defpoints
 62
     0
100
AcDbPoint
 10
2119.072331309086
 20
1271.663124457154
 30
0.0
  0
POINT
  5
1229
330
EEA
100
AcDbEntity
  8
Defpoints
 62
     0
100
AcDbPoint
 10
2122.072331309086
 20
1272.663124457154
 30
0.0
  0
POINT
  5
122A
330
EEA
100
AcDbEntity
  8
Defpoints
 62
     0
100
AcDbPoint
 10
2122.072331309086
 20
1255.163124457154
 30
0.0
  0
ENDBLK
  5
EF7
330
EEA
100
AcDbEntity
  8
0
100
AcDbBlockEnd
  0
BLOCK
  5
F26
330
F1A
100
AcDbEntity
  8
0
100
AcDbBlockBegin
  2
*D23
 70
     1
 10
0.0
 20
0.0
 30
0.0
  3
*D23
  1

  0
LINE
  5
122B
330
F1A
100
AcDbEntity
  8
AM_5
100
AcDbLine
 10
2122.072331309086
 20
1271.663124457154
 30
0.0
 11
2122.072331309086
 21
1253.663124457154
 31
0.0
  0
LINE
  5
122C
330
F1A
100
AcDbEntity
  8
AM_5
100
AcDbLine
 10
2128.072331309086
 20
1271.663124457154
 30
0.0
 11
2128.072331309086
 21
1253.663124457154
 31
0.0
  0
LINE
  5
122D
330
F1A
100
AcDbEntity
  8
AM_5
100
AcDbLine
 10
2119.072331309086
 20
1255.163124457154
 30
0.0
 11
2116.072331309086
 21
1255.163124457154
 31
0.0
  0
LINE
  5
122E
330
F1A
100
AcDbEntity
  8
AM_5
100
AcDbLine
 10
2131.072331309086
 20
1255.163124457154
 30
0.0
 11
2134.072331309086
 21
1255.163124457154
 31
0.0
  0
LINE
  5
122F
330
F1A
100
AcDbEntity
  8
AM_5
100
AcDbLine
 10
2122.072331309086
 20
1255.163124457154
 30
0.0
 11
2128.072331309086
 21
1255.163124457154
 31
0.0
  0
INSERT
  5
1230
330
F1A
100
AcDbEntity
  8
AM_5
100
AcDbBlockReference
  2
GENDOT
 10
2122.072331309086
 20
1255.163124457154
 30
0.0
 41
3.0
 42
3.0
 43
3.0
  0
SOLID
  5
1231
330
F1A
100
AcDbEntity
  8
AM_5
100
AcDbTrace
 10
2131.072331309086
 20
1255.663124457154
 30
0.0
 11
2131.072331309086
 21
1254.663124457154
 31
0.0
 12
2128.072331309086
 22
1255.163124457154
 32
0.0
 13
2128.072331309086
 23
1255.163124457154
 33
0.0
  0
MTEXT
  5
1232
330
F1A
100
AcDbEntity
  8
AM_5
100
AcDbMText
 10
2125.072331309086
 20
1257.663124457154
 30
0.0
 40
3.0
 41
0.0
 71
     5
 72
     1
  1
6
 73
     1
 44
1.0
1001
ACAD
1000
MTEXTBEGIN
1070
    73
1070
     1
1070
    44
1040
1.0
1070
    74
1070
     0
1000
MTEXTEND
  0
POINT
  5
1233
330
F1A
100
AcDbEntity
  8
Defpoints
 62
     0
100
AcDbPoint
 10
2122.072331309086
 20
1272.663124457154
 30
0.0
  0
POINT
  5
1234
330
F1A
100
AcDbEntity
  8
Defpoints
 62
     0
100
AcDbPoint
 10
2128.072331309086
 20
1272.663124457154
 30
0.0
  0
POINT
  5
1235
330
F1A
100
AcDbEntity
  8
Defpoints
 62
     0
100
AcDbPoint
 10
2128.072331309086
 20
1255.163124457154
 30
0.0
  0
ENDBLK
  5
F27
330
F1A
100
AcDbEntity
  8
0
100
AcDbBlockEnd
  0
BLOCK
  5
F39
330
F36
100
AcDbEntity
  8
0
100
AcDbBlockBegin
  2
GENDOT
 70
     0
 10
0.0
 20
0.0
 30
0.0
  3
GENDOT
  1

  0
LINE
  5
F37
330
F36
100
AcDbEntity
  8
0
100
AcDbLine
 10
0.0
 20
0.0
 30
0.0
 11
-1.0
 21
0.0
 31
0.0
  0
LWPOLYLINE
  5
F38
330
F36
100
AcDbEntity
  8
0
100
AcDbPolyline
 90
        2
 70
     1
 43
0.25
 10
-0.125
 20
0.0
 42
1.0
 10
0.125
 20
0.0
 42
1.0
  0
ENDBLK
  5
F3A
330
F36
100
AcDbEntity
  8
0
100
AcDbBlockEnd
  0
BLOCK
  5
F70
330
F64
100
AcDbEntity
  8
0
100
AcDbBlockBegin
  2
*D25
 70
     1
 10
0.0
 20
0.0
 30
0.0
  3
*D25
  1

  0
LINE
  5
1236
330
F64
100
AcDbEntity
  8
AM_5
100
AcDbLine
 10
2118.072331309086
 20
1271.663124457154
 30
0.0
 11
2105.572331309086
 21
1271.663124457154
 31
0.0
  0
LINE
  5
1237
330
F64
100
AcDbEntity
  8
AM_5
100
AcDbLine
 10
2118.072331309086
 20
1278.663124457154
 30
0.0
 11
2105.572331309086
 21
1278.663124457154
 31
0.0
  0
LINE
  5
1238
330
F64
100
AcDbEntity
  8
AM_5
100
AcDbLine
 10
2107.072331309086
 20
1268.663124457154
 30
0.0
 11
2107.072331309086
 21
1265.663124457154
 31
0.0
  0
LINE
  5
1239
330
F64
100
AcDbEntity
  8
AM_5
100
AcDbLine
 10
2107.072331309086
 20
1281.663124457154
 30
0.0
 11
2107.072331309086
 21
1284.663124457154
 31
0.0
  0
LINE
  5
123A
330
F64
100
AcDbEntity
  8
AM_5
100
AcDbLine
 10
2107.072331309086
 20
1271.663124457154
 30
0.0
 11
2107.072331309086
 21
1278.663124457154
 31
0.0
  0
SOLID
  5
123B
330
F64
100
AcDbEntity
  8
AM_5
100
AcDbTrace
 10
2106.572331309086
 20
1268.663124457154
 30
0.0
 11
2107.572331309086
 21
1268.663124457154
 31
0.0
 12
2107.072331309086
 22
1271.663124457154
 32
0.0
 13
2107.072331309086
 23
1271.663124457154
 33
0.0
  0
SOLID
  5
123C
330
F64
100
AcDbEntity
  8
AM_5
100
AcDbTrace
 10
2106.572331309086
 20
1281.663124457154
 30
0.0
 11
2107.572331309086
 21
1281.663124457154
 31
0.0
 12
2107.072331309086
 22
1278.663124457154
 32
0.0
 13
2107.072331309086
 23
1278.663124457154
 33
0.0
  0
MTEXT
  5
123D
330
F64
100
AcDbEntity
  8
AM_5
100
AcDbMText
 10
2104.572331309086
 20
1275.163124457154
 30
0.0
 40
3.0
 41
0.0
 71
     5
 72
     1
  1
7
 11
0.0000000000000001
 21
1.0
 31
0.0
 73
     1
 44
1.0
1001
ACAD
1000
MTEXTBEGIN
1070
    73
1070
     1
1070
    44
1040
1.0
1070
    74
1070
     0
1000
MTEXTEND
  0
POINT
  5
123E
330
F64
100
AcDbEntity
  8
Defpoints
 62
     0
100
AcDbPoint
 10
2119.072331309086
 20
1271.663124457154
 30
0.0
  0
POINT
  5
123F
330
F64
100
AcDbEntity
  8
Defpoints
 62
     0
100
AcDbPoint
 10
2119.072331309086
 20
1278.663124457154
 30
0.0
  0
POINT
  5
1240
330
F64
100
AcDbEntity
  8
Defpoints
 62
     0
100
AcDbPoint
 10
2107.072331309086
 20
1278.663124457154
 30
0.0
  0
ENDBLK
  5
F71
330
F64
100
AcDbEntity
  8
0
100
AcDbBlockEnd
  0
BLOCK
  5
145A
330
1455
100
AcDbEntity
  8
0
100
AcDbBlockBegin
  2
*S27
 70
     1
 10
0.0
 20
0.0
 30
0.0
  3
*S27
  1

  0
LINE
  5
1456
330
1455
100
AcDbEntity
  8
AM_5
 62
     5
100
AcDbLine
 10
2129.116426585588
 20
1292.946411134309
 30
0.0
 11
2162.141690618371
 21
1292.946411134309
 31
0.0
  0
LINE
  5
1457
330
1455
100
AcDbEntity
  8
AM_5
 62
     5
100
AcDbLine
 10
2162.141690618371
 20
1292.946411134309
 30
0.0
 11
2171.638345768295
 21
1283.754212927156
 31
0.0
  0
TRACE
  5
1458
330
1455
100
AcDbEntity
  8
AM_5
 62
     5
370
    35
100
AcDbTrace
 10
2171.317872916217
 20
1283.423125618929
 30
0.0
 11
2171.958818620372
 21
1284.085300235382
 31
0.0
 12
2174.15320356265
 22
1281.319979932109
 32
0.0
 13
2174.15320356265
 23
1281.319979932109
 33
0.0
  0
MTEXT
  5
1459
330
1455
100
AcDbEntity
  8
AM_5
 62
     5
100
AcDbMText
 10
2129.116426585588
 20
1291.73547853307
 30
0.0
 40
3.5
 41
0.0
 71
     9
 72
     5
  1

  7
ACISOTS
 73
     1
 44
1.0
1001
ACAD
1000
MTEXTBEGIN
1070
    73
1070
     1
1070
    44
1040
1.0
1070
    74
1070
     0
1000
MTEXTEND
  0
ENDBLK
  5
145B
330
1455
100
AcDbEntity
  8
0
100
AcDbBlockEnd
  0
BLOCK
  5
1462
330
145D
100
AcDbEntity
  8
0
100
AcDbBlockBegin
  2
*S28
 70
     1
 10
0.0
 20
0.0
 30
0.0
  3
*S28
  1

  0
LINE
  5
145E
330
145D
100
AcDbEntity
  8
AM_5
 62
     5
100
AcDbLine
 10
2097.903543342955
 20
1289.991446186806
 30
0.0
 11
2116.431472654696
 21
1289.991446186806
 31
0.0
  0
LINE
  5
145F
330
145D
100
AcDbEntity
  8
AM_5
 62
     5
100
AcDbLine
 10
2116.431472654696
 20
1289.991446186806
 30
0.0
 11
2125.030566727211
 21
1279.149579197236
 31
0.0
  0
TRACE
  5
1460
330
145D
100
AcDbEntity
  8
AM_5
 62
     5
370
    35
100
AcDbTrace
 10
2124.669549767219
 20
1278.863243015125
 30
0.0
 11
2125.391583687203
 21
1279.435915379347
 31
0.0
 12
2127.205505969804
 22
1276.407383126378
 32
0.0
 13
2127.205505969804
 23
1276.407383126378
 33
0.0
  0
MTEXT
  5
1461
330
145D
100
AcDbEntity
  8
AM_5
 62
     5
100
AcDbMText
 10
2097.903543342955
 20
1288.780513585566
 30
0.0
 40
3.5
 41
0.0
 71
     9
 72
     5
  1

  7
ACISOTS
 73
     1
 44
1.0
1001
ACAD
1000
MTEXTBEGIN
1070
    73
1070
     1
1070
    44
1040
1.0
1070
    74
1070
     0
1000
MTEXTEND
  0
ENDBLK
  5
1463
330
145D
100
AcDbEntity
  8
0
100
AcDbBlockEnd
  0
BLOCK
  5
146A
330
1465
100
AcDbEntity
  8
0
100
AcDbBlockBegin
  2
*S29
 70
     1
 10
0.0
 20
0.0
 30
0.0
  3
*S29
  1

  0
LINE
  5
1466
330
1465
100
AcDbEntity
  8
AM_5
 62
     5
100
AcDbLine
 10
2207.092458186991
 20
1364.716528888578
 30
0.0
 11
2240.117722219775
 21
1364.716528888578
 31
0.0
  0
LINE
  5
1467
330
1465
100
AcDbEntity
  8
AM_5
 62
     5
100
AcDbLine
 10
2240.117722219775
 20
1364.716528888578
 30
0.0
 11
2235.465225768244
 21
1353.083384731061
 31
0.0
  0
TRACE
  5
1468
330
1465
100
AcDbEntity
  8
AM_5
 62
     5
370
    35
100
AcDbTrace
 10
2235.037389153685
 20
1353.254491381517
 30
0.0
 11
2235.893062382803
 21
1352.912278080604
 31
0.0
 12
2234.165541718526
 22
1349.833642991952
 32
0.0
 13
2234.165541718526
 23
1349.833642991952
 33
0.0
  0
MTEXT
  5
1469
330
1465
100
AcDbEntity
  8
AM_5
 62
     5
100
AcDbMText
 10
2207.092458186991
 20
1363.505596287338
 30
0.0
 40
3.5
 41
0.0
 71
     9
 72
     5
  1

  7
ACISOTS
 73
     1
 44
1.0
1001
ACAD
1000
MTEXTBEGIN
1070
    73
1070
     1
1070
    44
1040
1.0
1070
    74
1070
     0
1000
MTEXTEND
  0
ENDBLK
  5
146B
330
1465
100
AcDbEntity
  8
0
100
AcDbBlockEnd
  0
BLOCK
  5
1472
330
146D
100
AcDbEntity
  8
0
100
AcDbBlockBegin
  2
*S30
 70
     1
 10
0.0
 20
0.0
 30
0.0
  3
*S30
  1

  0
LINE
  5
146E
330
146D
100
AcDbEntity
  8
AM_5
 62
     5
100
AcDbLine
 10
2119.209345905158
 20
1365.294294028644
 30
0.0
 11
2152.234609937942
 21
1365.294294028644
 31
0.0
  0
LINE
  5
146F
330
146D
100
AcDbEntity
  8
AM_5
 62
     5
100
AcDbLine
 10
2152.234609937942
 20
1365.294294028644
 30
0.0
 11
2159.795144721334
 21
1353.298513189722
 31
0.0
  0
TRACE
  5
1470
330
146D
100
AcDbEntity
  8
AM_5
 62
     5
370
    35
100
AcDbTrace
 10
2159.40532630856
 20
1353.052823833726
 30
0.0
 11
2160.184963134108
 21
1353.544202545718
 31
0.0
 12
2161.661340665921
 22
1350.337548364466
 32
0.0
 13
2161.661340665921
 23
1350.337548364466
 33
0.0
  0
MTEXT
  5
1471
330
146D
100
AcDbEntity
  8
AM_5
 62
     5
100
AcDbMText
 10
2119.209345905158
 20
1364.083361427404
 30
0.0
 40
3.5
 41
0.0
 71
     9
 72
     5
  1

  7
ACISOTS
 73
     1
 44
1.0
1001
ACAD
1000
MTEXTBEGIN
1070
    73
1070
     1
1070
    44
1040
1.0
1070
    74
1070
     0
1000
MTEXTEND
  0
ENDBLK
  5
1473
330
146D
100
AcDbEntity
  8
0
100
AcDbBlockEnd
  0
BLOCK
  5
147A
330
1475
100
AcDbEntity
  8
0
100
AcDbBlockBegin
  2
*S31
 70
     1
 10
0.0
 20
0.0
 30
0.0
  3
*S31
  1

  0
LINE
  5
1476
330
1475
100
AcDbEntity
  8
AM_5
 62
     5
100
AcDbLine
 10
2124.357924971522
 20
1413.034098406305
 30
0.0
 11
2157.383189004306
 21
1413.034098406305
 31
0.0
  0
LINE
  5
1477
330
1475
100
AcDbEntity
  8
AM_5
 62
     5
100
AcDbLine
 10
2157.383189004306
 20
1413.034098406305
 30
0.0
 11
2163.635973344542
 21
1404.499987818433
 31
0.0
  0
TRACE
  5
1478
330
1475
100
AcDbEntity
  8
AM_5
 62
     5
370
    35
100
AcDbTrace
 10
2163.264279516506
 20
1404.22765465338
 30
0.0
 11
2164.007667172578
 21
1404.772320983486
 31
0.0
 12
2165.704549112252
 22
1401.676692882858
 32
0.0
 13
2165.704549112252
 23
1401.676692882858
 33
0.0
  0
MTEXT
  5
1479
330
1475
100
AcDbEntity
  8
AM_5
 62
     5
100
AcDbMText
 10
2124.357924971522
 20
1411.823165805065
 30
0.0
 40
3.5
 41
0.0
 71
     9
 72
     5
  1

  7
ACISOTS
 73
     1
 44
1.0
1001
ACAD
1000
MTEXTBEGIN
1070
    73
1070
     1
1070
    44
1040
1.0
1070
    74
1070
     0
1000
MTEXTEND
  0
ENDBLK
  5
147B
330
1475
100
AcDbEntity
  8
0
100
AcDbBlockEnd
  0
ENDSEC
  0
SECTION
  2
ENTITIES
  0
LINE
  5
923
330
1F
100
AcDbEntity
  8
AM_VIS
100
AcDbLine
 10
2132.072331309086
 20
1271.163124457154
 30
0.0
 11
2132.072331309086
 21
1267.663124457154
 31
0.0
  0
LINE
  5
924
330
1F
100
AcDbEntity
  8
AM_VIS
100
AcDbLine
 10
2144.072331309086
 20
1271.163124457154
 30
0.0
 11
2132.072331309086
 21
1271.163124457154
 31
0.0
  0
LINE
  5
925
330
1F
100
AcDbEntity
  8
AM_VIS
100
AcDbLine
 10
2154.072331309086
 20
1271.663124457154
 30
0.0
 11
2144.072331309086
 21
1271.663124457154
 31
0.0
  0
LINE
  5
926
330
1F
100
AcDbEntity
  8
AM_VIS
100
AcDbLine
 10
2154.072331309086
 20
1276.863124457154
 30
0.0
 11
2182.572331309086
 21
1276.863124457154
 31
0.0
  0
LINE
  5
927
330
1F
100
AcDbEntity
  8
AM_VIS
100
AcDbLine
 10
2182.572331309086
 20
1273.463124457155
 30
0.0
 11
2154.072331309086
 21
1273.463124457155
 31
0.0
  0
LINE
  5
92A
330
1F
100
AcDbEntity
  8
AM_VIS
100
AcDbLine
 10
2132.072331309086
 20
1283.163124457154
 30
0.0
 11
2132.072331309086
 21
1282.663124457154
 31
0.0
  0
LINE
  5
92B
330
1F
100
AcDbEntity
  8
AM_VIS
100
AcDbLine
 10
2182.572331309086
 20
1283.163124457154
 30
0.0
 11
2132.072331309086
 21
1283.163124457154
 31
0.0
  0
ARC
  5
92D
330
1F
100
AcDbEntity
  8
AM_VIS
100
AcDbCircle
 10
2175.072331309086
 20
1280.263124457154
 30
0.0
 40
3.0
100
AcDbArc
 50
53.13010235415858
 51
60.07356513337917
  0
ARC
  5
92E
330
1F
100
AcDbEntity
  8
AM_VIS
100
AcDbCircle
 10
2175.072331309086
 20
1280.263124457154
 30
0.0
 40
3.0
100
AcDbArc
 50
119.9264348666208
 51
126.8698976458414
  0
LINE
  5
92F
330
1F
100
AcDbEntity
  8
AM_VIS
100
AcDbLine
 10
2173.575668354377
 20
1282.863124457154
 30
0.0
 11
2176.568994263796
 21
1282.863124457154
 31
0.0
  0
LINE
  5
930
330
1F
100
AcDbEntity
  8
AM_VIS
100
AcDbLine
 10
2182.572331309086
 20
1275.613124457154
 30
0.0
 11
2182.572331309086
 21
1274.713124457154
 31
0.0
  0
LINE
  5
931
330
1F
100
AcDbEntity
  8
AM_VIS
100
AcDbLine
 10
2182.572331309086
 20
1282.663124457154
 30
0.0
 11
2182.572331309086
 21
1277.063124457155
 31
0.0
  0
LINE
  5
932
102
{ACAD_REACTORS
330
EA5
102
}
330
1F
100
AcDbEntity
  8
AM_VIS
100
AcDbLine
 10
2182.572331309086
 20
1282.663124457154
 30
0.0
 11
2182.572331309086
 21
1283.163124457154
 31
0.0
  0
LINE
  5
933
330
1F
100
AcDbEntity
  8
AM_VIS
100
AcDbLine
 10
2182.572331309086
 20
1267.163124457154
 30
0.0
 11
2182.572331309086
 21
1267.663124457154
 31
0.0
  0
LINE
  5
934
330
1F
100
AcDbEntity
  8
AM_VIS
100
AcDbLine
 10
2182.572331309086
 20
1273.263124457155
 30
0.0
 11
2182.572331309086
 21
1267.663124457154
 31
0.0
  0
LINE
  5
935
330
1F
100
AcDbEntity
  8
AM_VIS
100
AcDbLine
 10
2154.072331309086
 20
1278.663124457154
 30
0.0
 11
2154.072331309086
 21
1277.063124457155
 31
0.0
  0
LINE
  5
936
330
1F
100
AcDbEntity
  8
AM_VIS
100
AcDbLine
 10
2154.072331309086
 20
1274.713124457154
 30
0.0
 11
2154.072331309086
 21
1275.613124457154
 31
0.0
  0
LINE
  5
937
330
1F
100
AcDbEntity
  8
AM_VIS
100
AcDbLine
 10
2154.072331309086
 20
1273.263124457155
 30
0.0
 11
2154.072331309086
 21
1271.663124457154
 31
0.0
  0
LINE
  5
938
330
1F
100
AcDbEntity
  8
AM_VIS
100
AcDbLine
 10
2144.072331309086
 20
1278.663124457154
 30
0.0
 11
2154.072331309086
 21
1278.663124457154
 31
0.0
  0
LINE
  5
939
330
1F
100
AcDbEntity
  8
AM_VIS
100
AcDbLine
 10
2144.072331309086
 20
1279.163124457154
 30
0.0
 11
2144.072331309086
 21
1278.663124457154
 31
0.0
  0
LINE
  5
93A
330
1F
100
AcDbEntity
  8
AM_VIS
100
AcDbLine
 10
2144.072331309086
 20
1271.663124457154
 30
0.0
 11
2144.072331309086
 21
1271.163124457154
 31
0.0
  0
ARC
  5
93C
330
1F
100
AcDbEntity
  8
AM_VIS
100
AcDbCircle
 10
2159.572331309086
 20
1270.063124457154
 30
0.0
 40
3.0
100
AcDbArc
 50
306.8698976458414
 51
233.1301023541586
  0
ARC
  5
93F
330
1F
100
AcDbEntity
  8
AM_VIS
100
AcDbCircle
 10
2175.072331309086
 20
1280.263124457154
 30
0.0
 40
3.0
100
AcDbArc
 50
126.8698976458414
 51
53.13010235415858
  0
LINE
  5
943
330
1F
100
AcDbEntity
  8
AM_VIS
100
AcDbLine
 10
2182.572331309086
 20
1273.463124457155
 30
0.0
 11
2182.572331309086
 21
1274.713124457155
 31
0.0
  0
LINE
  5
944
330
1F
100
AcDbEntity
  8
AM_VIS
100
AcDbLine
 10
2182.572331309086
 20
1275.613124457154
 30
0.0
 11
2182.572331309086
 21
1276.863124457154
 31
0.0
  0
LINE
  5
945
330
1F
100
AcDbEntity
  8
AM_VIS
100
AcDbLine
 10
2182.572331309086
 20
1277.063124457155
 30
0.0
 11
2182.572331309086
 21
1276.863124457154
 31
0.0
  0
LINE
  5
946
330
1F
100
AcDbEntity
  8
AM_VIS
100
AcDbLine
 10
2182.572331309086
 20
1273.463124457154
 30
0.0
 11
2182.572331309086
 21
1273.263124457155
 31
0.0
  0
LINE
  5
947
330
1F
100
AcDbEntity
  8
AM_VIS
100
AcDbLine
 10
2154.072331309086
 20
1276.863124457154
 30
0.0
 11
2154.072331309086
 21
1277.063124457155
 31
0.0
  0
LINE
  5
948
330
1F
100
AcDbEntity
  8
AM_VIS
100
AcDbLine
 10
2154.072331309086
 20
1276.863124457154
 30
0.0
 11
2154.072331309086
 21
1275.613124457154
 31
0.0
  0
LINE
  5
949
330
1F
100
AcDbEntity
  8
AM_VIS
100
AcDbLine
 10
2154.072331309086
 20
1274.713124457155
 30
0.0
 11
2154.072331309086
 21
1273.463124457155
 31
0.0
  0
LINE
  5
94A
330
1F
100
AcDbEntity
  8
AM_VIS
100
AcDbLine
 10
2154.072331309086
 20
1273.263124457155
 30
0.0
 11
2154.072331309086
 21
1273.463124457154
 31
0.0
  0
LINE
  5
94B
330
1F
100
AcDbEntity
  8
AM_VIS
100
AcDbLine
 10
2154.072331309086
 20
1276.263124457154
 30
0.0
 11
2151.564074819342
 21
1276.263124457154
 31
0.0
  0
LINE
  5
94C
330
1F
100
AcDbEntity
  8
AM_VIS
100
AcDbLine
 10
2148.322331309086
 20
1274.063124457154
 30
0.0
 11
2149.072331309086
 21
1274.063124457154
 31
0.0
  0
LINE
  5
94D
330
1F
100
AcDbEntity
  8
AM_VIS
100
AcDbLine
 10
2149.072331309086
 20
1274.063124457154
 30
0.0
 11
2154.072331309086
 21
1274.063124457154
 31
0.0
  0
LINE
  5
94E
330
1F
100
AcDbEntity
  8
AM_VIS
100
AcDbLine
 10
2149.072331309086
 20
1274.163124457154
 30
0.0
 11
2149.072331309086
 21
1274.063124457154
 31
0.0
  0
LINE
  5
954
330
1F
100
AcDbEntity
  8
AM_VIS
100
AcDbLine
 10
2145.822331309086
 20
1272.163124457154
 30
0.0
 11
2143.572331309086
 21
1272.163124457154
 31
0.0
  0
LINE
  5
955
330
1F
100
AcDbEntity
  8
AM_VIS
100
AcDbLine
 10
2149.489136221053
 20
1272.163124457154
 30
0.0
 11
2148.322331309086
 21
1272.163124457154
 31
0.0
  0
LINE
  5
956
330
1F
100
AcDbEntity
  8
AM_VIS
100
AcDbLine
 10
2153.287650817464
 20
1272.163124457154
 30
0.0
 11
2153.287650817464
 21
1273.863124457155
 31
0.0
  0
LINE
  5
957
330
1F
100
AcDbEntity
  8
AM_VIS
100
AcDbLine
 10
2153.287650817464
 20
1272.163124457154
 30
0.0
 11
2151.86320784381
 21
1272.163124457154
 31
0.0
  0
LINE
  5
958
330
1F
100
AcDbEntity
  8
AM_VIS
100
AcDbLine
 10
2149.489136221053
 20
1273.863124457155
 30
0.0
 11
2148.322331309086
 21
1273.863124457155
 31
0.0
  0
LINE
  5
959
330
1F
100
AcDbEntity
  8
AM_VIS
100
AcDbLine
 10
2153.287650817464
 20
1273.863124457155
 30
0.0
 11
2151.86320784381
 21
1273.863124457155
 31
0.0
  0
LINE
  5
95A
330
1F
100
AcDbEntity
  8
AM_VIS
100
AcDbLine
 10
2149.489136221053
 20
1272.163124457154
 30
0.0
 11
2149.489136221053
 21
1273.863124457155
 31
0.0
  0
LINE
  5
95B
330
1F
100
AcDbEntity
  8
AM_VIS
100
AcDbLine
 10
2151.86320784381
 20
1273.863124457155
 30
0.0
 11
2151.86320784381
 21
1272.163124457154
 31
0.0
  0
LINE
  5
95C
330
1F
100
AcDbEntity
  8
AM_VIS
100
AcDbLine
 10
2151.86320784381
 20
1272.163124457154
 30
0.0
 11
2151.622331309086
 21
1272.163124457154
 31
0.0
  0
LINE
  5
95D
330
1F
100
AcDbEntity
  8
AM_VIS
100
AcDbLine
 10
2151.622331309086
 20
1273.863124457155
 30
0.0
 11
2151.86320784381
 21
1273.863124457155
 31
0.0
  0
LINE
  5
95E
330
1F
100
AcDbEntity
  8
AM_VIS
100
AcDbLine
 10
2149.213743912813
 20
1278.163124457154
 30
0.0
 11
2153.287650817464
 21
1278.163124457154
 31
0.0
  0
LINE
  5
95F
330
1F
100
AcDbEntity
  8
AM_VIS
100
AcDbLine
 10
2151.564074819342
 20
1274.163124457154
 30
0.0
 11
2151.564074819342
 21
1276.463124457154
 31
0.0
  0
LINE
  5
960
330
1F
100
AcDbEntity
  8
AM_VIS
100
AcDbLine
 10
2153.287650817464
 20
1278.163124457154
 30
0.0
 11
2153.287650817464
 21
1276.463124457154
 31
0.0
  0
LINE
  5
961
330
1F
100
AcDbEntity
  8
AM_VIS
100
AcDbLine
 10
2151.564074819342
 20
1276.463124457154
 30
0.0
 11
2153.287650817464
 21
1276.463124457154
 31
0.0
  0
LINE
  5
962
330
1F
100
AcDbEntity
  8
AM_VIS
100
AcDbLine
 10
2134.660684865313
 20
1276.163124457154
 30
0.0
 11
2134.660684865313
 21
1274.163124457154
 31
0.0
  0
LINE
  5
963
330
1F
100
AcDbEntity
  8
AM_VIS
100
AcDbLine
 10
2143.207342707238
 20
1276.163124457154
 30
0.0
 11
2142.056085073328
 21
1276.163124457154
 31
0.0
  0
LINE
  5
964
330
1F
100
AcDbEntity
  8
AM_VIS
100
AcDbLine
 10
2143.207342707238
 20
1278.163124457154
 30
0.0
 11
2143.207342707238
 21
1276.163124457154
 31
0.0
  0
LINE
  5
965
330
1F
100
AcDbEntity
  8
AM_VIS
100
AcDbLine
 10
2143.207342707238
 20
1278.163124457154
 30
0.0
 11
2146.056228654546
 21
1278.163124457154
 31
0.0
  0
LINE
  5
966
330
1F
100
AcDbEntity
  8
AM_VIS
100
AcDbLine
 10
2149.213743912813
 20
1274.163124457154
 30
0.0
 11
2151.564074819342
 21
1274.163124457154
 31
0.0
  0
LINE
  5
967
330
1F
100
AcDbEntity
  8
AM_VIS
100
AcDbLine
 10
2136.531819719019
 20
1274.163124457154
 30
0.0
 11
2146.056228654546
 21
1274.163124457154
 31
0.0
  0
LINE
  5
968
330
1F
100
AcDbEntity
  8
AM_VIS
100
AcDbLine
 10
2146.056228654546
 20
1278.163124457154
 30
0.0
 11
2146.056228654546
 21
1274.163124457154
 31
0.0
  0
LINE
  5
969
330
1F
100
AcDbEntity
  8
AM_VIS
100
AcDbLine
 10
2149.213743912813
 20
1278.163124457154
 30
0.0
 11
2146.056228654546
 21
1278.163124457154
 31
0.0
  0
LINE
  5
96A
330
1F
100
AcDbEntity
  8
AM_VIS
100
AcDbLine
 10
2149.213743912813
 20
1274.163124457154
 30
0.0
 11
2149.213743912813
 21
1278.163124457154
 31
0.0
  0
LINE
  5
96B
330
1F
100
AcDbEntity
  8
AM_VIS
100
AcDbLine
 10
2146.056228654546
 20
1274.163124457154
 30
0.0
 11
2149.213743912813
 21
1274.163124457154
 31
0.0
  0
LINE
  5
96C
330
1F
100
AcDbEntity
  8
AM_VIS
100
AcDbLine
 10
2148.322331309086
 20
1271.663124457154
 30
0.0
 11
2148.322331309086
 21
1274.163124457154
 31
0.0
  0
LINE
  5
96D
330
1F
100
AcDbEntity
  8
AM_VIS
100
AcDbLine
 10
2148.322331309086
 20
1278.163124457155
 30
0.0
 11
2148.322331309086
 21
1278.663124457154
 31
0.0
  0
LINE
  5
96E
330
1F
100
AcDbEntity
  8
AM_VIS
100
AcDbLine
 10
2145.822331309086
 20
1271.663124457154
 30
0.0
 11
2145.822331309086
 21
1274.163124457154
 31
0.0
  0
LINE
  5
96F
330
1F
100
AcDbEntity
  8
AM_VIS
100
AcDbLine
 10
2145.822331309086
 20
1278.163124457155
 30
0.0
 11
2145.822331309086
 21
1278.663124457154
 31
0.0
  0
LINE
  5
970
330
1F
100
AcDbEntity
  8
AM_VIS
100
AcDbLine
 10
2151.522331309086
 20
1271.763124457155
 30
0.0
 11
2151.622331309086
 21
1271.863124457154
 31
0.0
  0
LINE
  5
971
330
1F
100
AcDbEntity
  8
AM_VIS
100
AcDbLine
 10
2149.222331309086
 20
1271.763124457155
 30
0.0
 11
2149.122331309086
 21
1271.863124457154
 31
0.0
  0
LINE
  5
972
330
1F
100
AcDbEntity
  8
AM_VIS
100
AcDbLine
 10
2151.622331309086
 20
1271.863124457154
 30
0.0
 11
2151.622331309086
 21
1274.063124457154
 31
0.0
  0
LINE
  5
973
330
1F
100
AcDbEntity
  8
AM_VIS
100
AcDbLine
 10
2151.622331309086
 20
1276.263124457154
 30
0.0
 11
2151.622331309086
 21
1276.463124457154
 31
0.0
  0
LINE
  5
974
330
1F
100
AcDbEntity
  8
AM_VIS
100
AcDbLine
 10
2151.622331309086
 20
1278.163124457154
 30
0.0
 11
2151.622331309086
 21
1278.463124457154
 31
0.0
  0
LINE
  5
975
330
1F
100
AcDbEntity
  8
AM_VIS
100
AcDbLine
 10
2149.122331309086
 20
1271.863124457154
 30
0.0
 11
2149.122331309086
 21
1272.163124457154
 31
0.0
  0
LINE
  5
976
330
1F
100
AcDbEntity
  8
AM_VIS
100
AcDbLine
 10
2149.122331309086
 20
1273.863124457155
 30
0.0
 11
2149.122331309086
 21
1274.063124457154
 31
0.0
  0
LINE
  5
977
330
1F
100
AcDbEntity
  8
AM_VIS
100
AcDbLine
 10
2149.122331309086
 20
1278.163124457155
 30
0.0
 11
2149.122331309086
 21
1278.463124457154
 31
0.0
  0
LINE
  5
978
330
1F
100
AcDbEntity
  8
AM_VIS
100
AcDbLine
 10
2149.222331309086
 20
1278.563124457154
 30
0.0
 11
2149.122331309086
 21
1278.463124457154
 31
0.0
  0
LINE
  5
979
330
1F
100
AcDbEntity
  8
AM_VIS
100
AcDbLine
 10
2151.522331309086
 20
1278.563124457154
 30
0.0
 11
2151.622331309086
 21
1278.463124457154
 31
0.0
  0
LINE
  5
97A
330
1F
100
AcDbEntity
  8
AM_VIS
100
AcDbLine
 10
2151.522331309086
 20
1271.763124457155
 30
0.0
 11
2149.222331309086
 21
1271.763124457155
 31
0.0
  0
LINE
  5
97B
330
1F
100
AcDbEntity
  8
AM_VIS
100
AcDbLine
 10
2149.122331309086
 20
1271.863124457154
 30
0.0
 11
2151.622331309086
 21
1271.863124457154
 31
0.0
  0
LINE
  5
97C
330
1F
100
AcDbEntity
  8
AM_VIS
100
AcDbLine
 10
2151.622331309086
 20
1278.463124457154
 30
0.0
 11
2149.122331309086
 21
1278.463124457154
 31
0.0
  0
LINE
  5
97D
330
1F
100
AcDbEntity
  8
AM_VIS
100
AcDbLine
 10
2149.222331309086
 20
1278.563124457154
 30
0.0
 11
2151.522331309086
 21
1278.563124457154
 31
0.0
  0
LINE
  5
97E
330
1F
100
AcDbEntity
  8
AM_VIS
100
AcDbLine
 10
2132.172331309086
 20
1271.663124457155
 30
0.0
 11
2132.172331309086
 21
1271.163124457155
 31
0.0
  0
LINE
  5
97F
330
1F
100
AcDbEntity
  8
AM_VIS
100
AcDbLine
 10
2143.472331309086
 20
1271.663124457155
 30
0.0
 11
2132.672331309086
 21
1271.663124457155
 31
0.0
  0
LINE
  5
980
330
1F
100
AcDbEntity
  8
AM_VIS
100
AcDbLine
 10
2143.972331309086
 20
1271.163124457155
 30
0.0
 11
2143.972331309086
 21
1271.663124457155
 31
0.0
  0
LINE
  5
981
330
1F
100
AcDbEntity
  8
AM_VIS
100
AcDbLine
 10
2132.331889687344
 20
1271.663124457155
 30
0.0
 11
2132.672331309086
 21
1271.663124457155
 31
0.0
  0
LINE
  5
982
330
1F
100
AcDbEntity
  8
AM_VIS
100
AcDbLine
 10
2143.472331309086
 20
1271.663124457155
 30
0.0
 11
2143.972331309086
 21
1271.663124457155
 31
0.0
  0
LINE
  5
983
330
1F
100
AcDbEntity
  8
AM_VIS
100
AcDbLine
 10
2132.172331309086
 20
1279.163124457155
 30
0.0
 11
2132.172331309086
 21
1278.663124457154
 31
0.0
  0
LINE
  5
984
330
1F
100
AcDbEntity
  8
AM_VIS
100
AcDbLine
 10
2143.472331309086
 20
1278.663124457154
 30
0.0
 11
2132.672331309086
 21
1278.663124457154
 31
0.0
  0
LINE
  5
985
330
1F
100
AcDbEntity
  8
AM_VIS
100
AcDbLine
 10
2143.972331309086
 20
1278.663124457154
 30
0.0
 11
2143.972331309086
 21
1279.163124457155
 31
0.0
  0
LINE
  5
986
330
1F
100
AcDbEntity
  8
AM_VIS
100
AcDbLine
 10
2132.672331309086
 20
1278.663124457154
 30
0.0
 11
2132.331889687344
 21
1278.663124457154
 31
0.0
  0
LINE
  5
987
330
1F
100
AcDbEntity
  8
AM_VIS
100
AcDbLine
 10
2143.972331309086
 20
1278.663124457154
 30
0.0
 11
2143.472331309086
 21
1278.663124457154
 31
0.0
  0
LINE
  5
988
330
1F
100
AcDbEntity
  8
AM_VIS
100
AcDbLine
 10
2143.572331309086
 20
1278.163124457154
 30
0.0
 11
2143.572331309086
 21
1278.663124457154
 31
0.0
  0
LINE
  5
989
330
1F
100
AcDbEntity
  8
AM_VIS
100
AcDbLine
 10
2141.572331309086
 20
1276.163124457154
 30
0.0
 11
2142.056085073328
 21
1276.163124457154
 31
0.0
  0
LINE
  5
98A
330
1F
100
AcDbEntity
  8
AM_VIS
100
AcDbLine
 10
2134.372331309086
 20
1276.163124457154
 30
0.0
 11
2141.572331309086
 21
1276.163124457154
 31
0.0
  0
LINE
  5
98B
330
1F
100
AcDbEntity
  8
AM_VIS
100
AcDbLine
 10
2134.372331309086
 20
1276.163124457154
 30
0.0
 11
2134.372331309086
 21
1271.663124457154
 31
0.0
  0
LINE
  5
98C
330
1F
100
AcDbEntity
  8
AM_VIS
100
AcDbLine
 10
2132.331889687344
 20
1271.663124457154
 30
0.0
 11
2119.072331309086
 21
1271.663124457154
 31
0.0
  0
LINE
  5
98D
102
{ACAD_REACTORS
330
EF9
330
F73
102
}
330
1F
100
AcDbEntity
  8
AM_VIS
100
AcDbLine
 10
2119.072331309086
 20
1278.663124457154
 30
0.0
 11
2119.072331309086
 21
1271.663124457154
 31
0.0
  0
LINE
  5
98E
102
{ACAD_REACTORS
330
F73
102
}
330
1F
100
AcDbEntity
  8
AM_VIS
100
AcDbLine
 10
2119.072331309086
 20
1278.663124457154
 30
0.0
 11
2132.331889687344
 21
1278.663124457154
 31
0.0
  0
LINE
  5
98F
330
1F
100
AcDbEntity
  8
AM_VIS
100
AcDbLine
 10
2141.572331309086
 20
1278.663124457154
 30
0.0
 11
2141.572331309086
 21
1276.163124457154
 31
0.0
  0
LINE
  5
994
330
1F
100
AcDbEntity
  8
AM_VIS
100
AcDbLine
 10
2134.572331309086
 20
1274.163124457155
 30
0.0
 11
2134.572331309086
 21
1271.663124457155
 31
0.0
  0
LINE
  5
995
330
1F
100
AcDbEntity
  8
AM_VIS
100
AcDbLine
 10
2141.572331309086
 20
1274.163124457155
 30
0.0
 11
2141.572331309086
 21
1271.663124457155
 31
0.0
  0
LINE
  5
996
330
1F
100
AcDbEntity
  8
AM_VIS
100
AcDbLine
 10
2134.572331309086
 20
1274.163124457155
 30
0.0
 11
2136.531819719019
 21
1274.163124457155
 31
0.0
  0
LINE
  5
997
330
1F
100
AcDbEntity
  8
AM_VIS
100
AcDbLine
 10
2134.372331309086
 20
1274.163124457155
 30
0.0
 11
2134.572331309086
 21
1274.163124457155
 31
0.0
  0
LINE
  5
998
330
1F
100
AcDbEntity
  8
AM_VIS
100
AcDbLine
 10
2143.572331309086
 20
1271.663124457155
 30
0.0
 11
2143.572331309086
 21
1274.163124457155
 31
0.0
  0
LINE
  5
999
330
1F
100
AcDbEntity
  8
AM_VIS
100
AcDbLine
 10
2239.829763113865
 20
1327.374497272913
 30
0.0
 11
2239.829763113865
 21
1326.274497272913
 31
0.0
  0
LINE
  5
99A
330
1F
100
AcDbEntity
  8
AM_VIS
100
AcDbLine
 10
2240.279763113865
 20
1327.874497272913
 30
0.0
 11
2239.829763113865
 21
1327.374497272913
 31
0.0
  0
LINE
  5
99B
330
1F
100
AcDbEntity
  8
AM_VIS
100
AcDbLine
 10
2240.279763113865
 20
1329.974497272913
 30
0.0
 11
2240.279763113865
 21
1327.874497272913
 31
0.0
  0
LINE
  5
99C
330
1F
100
AcDbEntity
  8
AM_VIS
100
AcDbLine
 10
2237.679763113865
 20
1331.674497272913
 30
0.0
 11
2238.579763113865
 21
1331.674497272913
 31
0.0
  0
LINE
  5
99D
330
1F
100
AcDbEntity
  8
AM_VIS
100
AcDbLine
 10
2235.979763113865
 20
1327.874497272913
 30
0.0
 11
2235.979763113865
 21
1329.974497272913
 31
0.0
  0
LINE
  5
99E
330
1F
100
AcDbEntity
  8
AM_VIS
100
AcDbLine
 10
2236.429763113865
 20
1327.374497272913
 30
0.0
 11
2235.979763113865
 21
1327.874497272913
 31
0.0
  0
LINE
  5
99F
330
1F
100
AcDbEntity
  8
AM_VIS
100
AcDbLine
 10
2236.429763113865
 20
1326.274497272913
 30
0.0
 11
2236.429763113865
 21
1327.374497272913
 31
0.0
  0
LINE
  5
9A0
330
1F
100
AcDbEntity
  8
AM_VIS
100
AcDbLine
 10
2230.629763113865
 20
1326.074497272913
 30
0.0
 11
2236.229763113865
 21
1326.074497272913
 31
0.0
  0
LINE
  5
9A1
102
{ACAD_REACTORS
330
D87
102
}
330
1F
100
AcDbEntity
  8
AM_VIS
100
AcDbLine
 10
2230.629763113865
 20
1326.074497272913
 30
0.0
 11
2230.129763113865
 21
1326.574497272913
 31
0.0
  0
LINE
  5
9A2
102
{ACAD_REACTORS
330
D3B
102
}
330
1F
100
AcDbEntity
  8
AM_VIS
100
AcDbLine
 10
2230.129763113865
 20
1353.574497272913
 30
0.0
 11
2230.129763113865
 21
1326.574497272913
 31
0.0
  0
LINE
  5
9A3
330
1F
100
AcDbEntity
  8
AM_VIS
100
AcDbLine
 10
2230.129763113865
 20
1353.574497272913
 30
0.0
 11
2230.629763113865
 21
1354.074497272913
 31
0.0
  0
LINE
  5
9A4
102
{ACAD_REACTORS
330
D87
102
}
330
1F
100
AcDbEntity
  8
AM_VIS
100
AcDbLine
 10
2236.229763113865
 20
1354.074497272913
 30
0.0
 11
2230.629763113865
 21
1354.074497272913
 31
0.0
  0
LINE
  5
9A5
330
1F
100
AcDbEntity
  8
AM_VIS
100
AcDbLine
 10
2236.429763113865
 20
1352.774497272913
 30
0.0
 11
2236.429763113865
 21
1353.874497272913
 31
0.0
  0
LINE
  5
9A6
330
1F
100
AcDbEntity
  8
AM_VIS
100
AcDbLine
 10
2235.979763113865
 20
1352.274497272913
 30
0.0
 11
2236.429763113865
 21
1352.774497272913
 31
0.0
  0
LINE
  5
9A7
330
1F
100
AcDbEntity
  8
AM_VIS
100
AcDbLine
 10
2235.979763113865
 20
1350.174497272913
 30
0.0
 11
2235.979763113865
 21
1352.274497272913
 31
0.0
  0
LINE
  5
9A8
330
1F
100
AcDbEntity
  8
AM_VIS
100
AcDbLine
 10
2238.579763113865
 20
1348.474497272913
 30
0.0
 11
2237.679763113865
 21
1348.474497272913
 31
0.0
  0
LINE
  5
9A9
330
1F
100
AcDbEntity
  8
AM_VIS
100
AcDbLine
 10
2240.279763113865
 20
1352.274497272913
 30
0.0
 11
2240.279763113865
 21
1350.174497272913
 31
0.0
  0
LINE
  5
9AA
330
1F
100
AcDbEntity
  8
AM_VIS
100
AcDbLine
 10
2239.829763113865
 20
1352.774497272913
 30
0.0
 11
2240.279763113865
 21
1352.274497272913
 31
0.0
  0
LINE
  5
9AB
330
1F
100
AcDbEntity
  8
AM_VIS
100
AcDbLine
 10
2239.829763113865
 20
1353.874497272913
 30
0.0
 11
2239.829763113865
 21
1352.774497272913
 31
0.0
  0
LINE
  5
9AC
330
1F
100
AcDbEntity
  8
AM_VIS
100
AcDbLine
 10
2245.629763113865
 20
1354.074497272913
 30
0.0
 11
2240.029763113865
 21
1354.074497272913
 31
0.0
  0
LINE
  5
9AD
330
1F
100
AcDbEntity
  8
AM_VIS
100
AcDbLine
 10
2245.629763113865
 20
1354.074497272913
 30
0.0
 11
2246.129763113865
 21
1353.574497272913
 31
0.0
  0
LINE
  5
9AE
330
1F
100
AcDbEntity
  8
AM_VIS
100
AcDbLine
 10
2246.129763113865
 20
1326.574497272913
 30
0.0
 11
2246.129763113865
 21
1353.574497272913
 31
0.0
  0
LINE
  5
9AF
102
{ACAD_REACTORS
330
D3B
102
}
330
1F
100
AcDbEntity
  8
AM_VIS
100
AcDbLine
 10
2246.129763113865
 20
1326.574497272913
 30
0.0
 11
2245.629763113865
 21
1326.074497272913
 31
0.0
  0
LINE
  5
9B0
330
1F
100
AcDbEntity
  8
AM_VIS
100
AcDbLine
 10
2240.029763113865
 20
1326.074497272913
 30
0.0
 11
2245.629763113865
 21
1326.074497272913
 31
0.0
  0
ARC
  5
9B3
330
1F
100
AcDbEntity
  8
AM_VIS
100
AcDbCircle
 10
2238.579763113865
 20
1329.974497272913
 30
0.0
 40
1.7
100
AcDbArc
 50
0.0
 51
90.0
  0
ARC
  5
9B4
330
1F
100
AcDbEntity
  8
AM_VIS
100
AcDbCircle
 10
2237.679763113865
 20
1329.974497272913
 30
0.0
 40
1.7
100
AcDbArc
 50
90.0
 51
180.0
  0
ARC
  5
9B5
330
1F
100
AcDbEntity
  8
AM_VIS
100
AcDbCircle
 10
2236.229763113865
 20
1326.274497272913
 30
0.0
 40
0.2
100
AcDbArc
 50
270.0
 51
0.0
  0
ARC
  5
9B6
330
1F
100
AcDbEntity
  8
AM_VIS
100
AcDbCircle
 10
2236.229763113865
 20
1353.874497272913
 30
0.0
 40
0.2
100
AcDbArc
 50
0.0
 51
90.0
  0
ARC
  5
9B7
330
1F
100
AcDbEntity
  8
AM_VIS
100
AcDbCircle
 10
2237.679763113865
 20
1350.174497272913
 30
0.0
 40
1.7
100
AcDbArc
 50
180.0
 51
270.0
  0
ARC
  5
9B8
330
1F
100
AcDbEntity
  8
AM_VIS
100
AcDbCircle
 10
2238.579763113865
 20
1350.174497272913
 30
0.0
 40
1.7
100
AcDbArc
 50
270.0
 51
0.0
  0
ARC
  5
9B9
330
1F
100
AcDbEntity
  8
AM_VIS
100
AcDbCircle
 10
2240.029763113865
 20
1353.874497272913
 30
0.0
 40
0.2
100
AcDbArc
 50
90.0
 51
180.0
  0
ARC
  5
9BA
330
1F
100
AcDbEntity
  8
AM_VIS
100
AcDbCircle
 10
2240.029763113865
 20
1326.274497272913
 30
0.0
 40
0.2
100
AcDbArc
 50
180.0
 51
270.0
  0
CIRCLE
  5
9BC
330
1F
100
AcDbEntity
  8
AM_VIS
100
AcDbCircle
 10
2238.129763113865
 20
1340.074497272913
 30
0.0
 40
7.0
  0
LINE
  5
9BD
330
1F
100
AcDbEntity
  8
AM_VIS
100
AcDbLine
 10
2240.473531503497
 20
1346.670461928348
 30
0.0
 11
2239.879100419749
 21
1345.009388959613
 31
0.0
  0
LINE
  5
9BE
330
1F
100
AcDbEntity
  8
AM_VIS
100
AcDbLine
 10
2236.32717012307
 20
1344.990185981401
 30
0.0
 11
2235.714813628506
 21
1346.644734634162
 31
0.0
  0
ARC
  5
9BF
330
1F
100
AcDbEntity
  8
AM_VIS
100
AcDbCircle
 10
2242.191675965718
 20
1341.111981245436
 30
0.0
 40
1.7
100
AcDbArc
 50
7.53289783324187
 51
102.0875040239122
  0
ARC
  5
9C0
330
1F
100
AcDbEntity
  8
AM_VIS
100
AcDbCircle
 10
2241.479697920627
 20
1344.436599608994
 30
0.0
 40
1.7
100
AcDbArc
 50
160.3097580172868
 51
282.0875040239096
  0
ARC
  5
9C1
330
1F
100
AcDbEntity
  8
AM_VIS
100
AcDbCircle
 10
2234.732859404314
 20
1344.400123838861
 30
0.0
 40
1.7
100
AcDbArc
 50
258.5320120106633
 51
20.30975801728802
  0
ARC
  5
9C2
330
1F
100
AcDbEntity
  8
AM_VIS
100
AcDbCircle
 10
2234.056870028299
 20
1341.068001637693
 30
0.0
 40
1.7
100
AcDbArc
 50
78.53201201066326
 51
173.0866182013249
  0
ARC
  5
9C3
330
1F
100
AcDbEntity
  8
AM_VIS
100
AcDbCircle
 10
2238.12705997839
 20
1340.574489965917
 30
0.0
 40
5.799999999999999
100
AcDbArc
 50
173.0866182013249
 51
7.53289783324187
  0
CIRCLE
  5
9C4
330
1F
100
AcDbEntity
  8
AM_VIS
100
AcDbCircle
 10
2241.479697920627
 20
1344.436599608994
 30
0.0
 40
0.85
  0
CIRCLE
  5
9C5
330
1F
100
AcDbEntity
  8
AM_VIS
100
AcDbCircle
 10
2234.732859404314
 20
1344.400123838861
 30
0.0
 40
0.85
  0
ARC
  5
9C6
330
1F
100
AcDbEntity
  8
AM_VIS
100
AcDbCircle
 10
2238.129763113865
 20
1340.074497272913
 30
0.0
 40
6.799999999999999
100
AcDbArc
 50
70.44193733991228
 51
110.1775786946667
  0
LINE
  5
9C7
330
1F
100
AcDbEntity
  8
AM_VIS
100
AcDbLine
 10
2237.129763113865
 20
1352.360728245627
 30
0.0
 11
2237.129763113865
 21
1348.565926478698
 31
0.0
  0
LINE
  5
9C8
330
1F
100
AcDbEntity
  8
AM_VIS
100
AcDbLine
 10
2239.845121026914
 20
1353.951356232875
 30
0.0
 11
2237.129763113865
 21
1353.951356232875
 31
0.0
  0
LINE
  5
9C9
330
1F
100
AcDbEntity
  8
AM_VIS
100
AcDbLine
 10
2237.129763113865
 20
1352.360728245627
 30
0.0
 11
2240.202155238422
 21
1352.360728245627
 31
0.0
  0
LINE
  5
9CA
330
1F
100
AcDbEntity
  8
AM_VIS
100
AcDbLine
 10
2237.129763113865
 20
1353.951356232875
 30
0.0
 11
2237.129763113865
 21
1352.360728245627
 31
0.0
  0
LINE
  5
9CB
330
1F
100
AcDbEntity
  8
AM_VIS
100
AcDbLine
 10
2239.129763113865
 20
1327.788266300198
 30
0.0
 11
2239.129763113865
 21
1331.583068067127
 31
0.0
  0
LINE
  5
9CC
330
1F
100
AcDbEntity
  8
AM_VIS
100
AcDbLine
 10
2236.414405200816
 20
1326.197638312951
 30
0.0
 11
2239.129763113865
 21
1326.197638312951
 31
0.0
  0
LINE
  5
9CD
330
1F
100
AcDbEntity
  8
AM_VIS
100
AcDbLine
 10
2239.129763113865
 20
1327.788266300198
 30
0.0
 11
2236.057370989309
 21
1327.788266300198
 31
0.0
  0
LINE
  5
9CE
330
1F
100
AcDbEntity
  8
AM_VIS
100
AcDbLine
 10
2239.129763113865
 20
1326.197638312951
 30
0.0
 11
2239.129763113865
 21
1327.788266300198
 31
0.0
  0
LINE
  5
9CF
330
1F
100
AcDbEntity
  8
AM_VIS
100
AcDbLine
 10
2239.612962029854
 20
1331.324497272913
 30
0.0
 11
2239.129763113865
 21
1331.324497272913
 31
0.0
  0
LINE
  5
9D0
330
1F
100
AcDbEntity
  8
AM_VIS
100
AcDbLine
 10
2240.279763113865
 20
1328.824497272913
 30
0.0
 11
2239.129763113865
 21
1328.824497272913
 31
0.0
  0
LINE
  5
9D1
330
1F
100
AcDbEntity
  8
AM_VIS
100
AcDbLine
 10
2237.129763113865
 20
1351.324497272913
 30
0.0
 11
2235.979763113865
 21
1351.324497272913
 31
0.0
  0
LINE
  5
9D2
330
1F
100
AcDbEntity
  8
AM_VIS
100
AcDbLine
 10
2237.129763113865
 20
1348.824497272913
 30
0.0
 11
2236.646564197877
 21
1348.824497272913
 31
0.0
  0
LINE
  5
9D3
330
1F
100
AcDbEntity
  8
AM_VIS
100
AcDbLine
 10
2239.129763113865
 20
1326.30830128415
 30
0.0
 11
2239.829763113865
 21
1326.30830128415
 31
0.0
  0
LINE
  5
9D4
330
1F
100
AcDbEntity
  8
AM_VIS
100
AcDbLine
 10
2237.129763113865
 20
1353.840693261675
 30
0.0
 11
2236.429763113865
 21
1353.840693261675
 31
0.0
  0
LINE
  5
9D5
330
1F
100
AcDbEntity
  8
AM_VIS
100
AcDbLine
 10
2066.765175941029
 20
1326.074497272913
 30
0.0
 11
2066.265175941028
 21
1326.574497272913
 31
0.0
  0
LINE
  5
9D6
330
1F
100
AcDbEntity
  8
AM_VIS
100
AcDbLine
 10
2066.265175941028
 20
1326.574497272913
 30
0.0
 11
2066.265175941028
 21
1353.574497272913
 31
0.0
  0
LINE
  5
9D7
330
1F
100
AcDbEntity
  8
AM_VIS
100
AcDbLine
 10
2066.265175941028
 20
1353.574497272913
 30
0.0
 11
2066.765175941029
 21
1354.074497272913
 31
0.0
  0
LINE
  5
9D8
330
1F
100
AcDbEntity
  8
AM_VIS
100
AcDbLine
 10
2081.765175941028
 20
1354.074497272913
 30
0.0
 11
2082.265175941028
 21
1353.574497272913
 31
0.0
  0
LINE
  5
9D9
330
1F
100
AcDbEntity
  8
AM_VIS
100
AcDbLine
 10
2082.265175941028
 20
1353.574497272913
 30
0.0
 11
2082.265175941028
 21
1326.574497272913
 31
0.0
  0
LINE
  5
9DA
330
1F
100
AcDbEntity
  8
AM_VIS
100
AcDbLine
 10
2078.265175941028
 20
1354.074497272913
 30
0.0
 11
2078.265175941028
 21
1326.074497272913
 31
0.0
  0
LINE
  5
9DB
330
1F
100
AcDbEntity
  8
AM_VIS
100
AcDbLine
 10
2070.265175941028
 20
1326.074497272913
 30
0.0
 11
2070.265175941028
 21
1354.074497272913
 31
0.0
  0
LINE
  5
9DC
330
1F
100
AcDbEntity
  8
AM_VIS
100
AcDbLine
 10
2081.765175941028
 20
1326.074497272913
 30
0.0
 11
2078.265175941028
 21
1326.074497272913
 31
0.0
  0
LINE
  5
9DD
330
1F
100
AcDbEntity
  8
AM_VIS
100
AcDbLine
 10
2070.265175941028
 20
1326.074497272913
 30
0.0
 11
2066.765175941029
 21
1326.074497272913
 31
0.0
  0
LINE
  5
9DE
330
1F
100
AcDbEntity
  8
AM_VIS
100
AcDbLine
 10
2078.265175941028
 20
1354.074497272913
 30
0.0
 11
2081.765175941028
 21
1354.074497272913
 31
0.0
  0
LINE
  5
9DF
330
1F
100
AcDbEntity
  8
AM_VIS
100
AcDbLine
 10
2066.765175941029
 20
1354.074497272913
 30
0.0
 11
2070.265175941028
 21
1354.074497272913
 31
0.0
  0
LINE
  5
9E0
330
1F
100
AcDbEntity
  8
AM_VIS
100
AcDbLine
 10
2082.265175941028
 20
1326.574497272913
 30
0.0
 11
2081.765175941028
 21
1326.074497272913
 31
0.0
  0
LINE
  5
9E1
330
1F
100
AcDbEntity
  8
AM_VIS
100
AcDbLine
 10
2070.765175941028
 20
1354.074497272913
 30
0.0
 11
2072.365175941028
 21
1354.074497272913
 31
0.0
  0
LINE
  5
9E2
330
1F
100
AcDbEntity
  8
AM_VIS
100
AcDbLine
 10
2075.965175941028
 20
1353.840693261675
 30
0.0
 11
2075.965175941028
 21
1353.874497272913
 31
0.0
  0
LINE
  5
9E3
330
1F
100
AcDbEntity
  8
AM_VIS
100
AcDbLine
 10
2076.165175941028
 20
1354.074497272913
 30
0.0
 11
2077.765175941028
 21
1354.074497272913
 31
0.0
  0
LINE
  5
9E4
330
1F
100
AcDbEntity
  8
AM_VIS
100
AcDbLine
 10
2077.765175941028
 20
1326.074497272913
 30
0.0
 11
2076.165175941028
 21
1326.074497272913
 31
0.0
  0
LINE
  5
9E5
330
1F
100
AcDbEntity
  8
AM_VIS
100
AcDbLine
 10
2072.565175941028
 20
1326.274497272913
 30
0.0
 11
2072.565175941028
 21
1326.30830128415
 31
0.0
  0
LINE
  5
9E6
330
1F
100
AcDbEntity
  8
AM_VIS
100
AcDbLine
 10
2072.365175941028
 20
1326.074497272913
 30
0.0
 11
2070.765175941028
 21
1326.074497272913
 31
0.0
  0
LINE
  5
9E7
330
1F
100
AcDbEntity
  8
AM_VIS
100
AcDbLine
 10
2077.765175941028
 20
1353.974497272912
 30
0.0
 11
2077.765175941028
 21
1354.074497272913
 31
0.0
  0
LINE
  5
9E8
330
1F
100
AcDbEntity
  8
AM_VIS
100
AcDbLine
 10
2077.765175941028
 20
1354.074497272913
 30
0.0
 11
2078.265175941028
 21
1354.074497272913
 31
0.0
  0
LINE
  5
9E9
330
1F
100
AcDbEntity
  8
AM_VIS
100
AcDbLine
 10
2078.265175941028
 20
1326.074497272913
 30
0.0
 11
2077.765175941028
 21
1326.074497272913
 31
0.0
  0
LINE
  5
9EA
330
1F
100
AcDbEntity
  8
AM_VIS
100
AcDbLine
 10
2077.765175941028
 20
1326.074497272913
 30
0.0
 11
2077.765175941028
 21
1326.174497272913
 31
0.0
  0
LINE
  5
9EB
330
1F
100
AcDbEntity
  8
AM_VIS
100
AcDbLine
 10
2070.765175941028
 20
1326.174497272913
 30
0.0
 11
2070.765175941028
 21
1326.074497272913
 31
0.0
  0
LINE
  5
9EC
330
1F
100
AcDbEntity
  8
AM_VIS
100
AcDbLine
 10
2070.765175941028
 20
1326.074497272913
 30
0.0
 11
2070.265175941028
 21
1326.074497272913
 31
0.0
  0
LINE
  5
9ED
330
1F
100
AcDbEntity
  8
AM_VIS
100
AcDbLine
 10
2070.265175941028
 20
1354.074497272913
 30
0.0
 11
2070.765175941028
 21
1354.074497272913
 31
0.0
  0
LINE
  5
9EE
330
1F
100
AcDbEntity
  8
AM_VIS
100
AcDbLine
 10
2070.765175941028
 20
1354.074497272913
 30
0.0
 11
2070.765175941028
 21
1353.974497272912
 31
0.0
  0
ARC
  5
9F7
330
1F
100
AcDbEntity
  8
AM_VIS
100
AcDbCircle
 10
2072.365175941028
 20
1353.874497272913
 30
0.0
 40
0.2
100
AcDbArc
 50
22.59996755115411
 51
90.0
  0
ARC
  5
9F8
330
1F
100
AcDbEntity
  8
AM_VIS
100
AcDbCircle
 10
2076.165175941028
 20
1353.874497272913
 30
0.0
 40
0.2
100
AcDbArc
 50
90.0
 51
180.0
  0
ARC
  5
9F9
330
1F
100
AcDbEntity
  8
AM_VIS
100
AcDbCircle
 10
2076.165175941028
 20
1326.274497272913
 30
0.0
 40
0.2
100
AcDbArc
 50
202.5999675511421
 51
270.0
  0
ARC
  5
9FA
330
1F
100
AcDbEntity
  8
AM_VIS
100
AcDbCircle
 10
2072.365175941028
 20
1326.274497272913
 30
0.0
 40
0.2
100
AcDbArc
 50
270.0
 51
0.0
  0
ARC
  5
9FB
330
1F
100
AcDbEntity
  8
AM_VIS
100
AcDbCircle
 10
2074.265175941028
 20
1340.074497272913
 30
0.0
 40
3.3
100
AcDbArc
 50
252.3602986057812
 51
260.013448552812
  0
ARC
  5
9FC
330
1F
100
AcDbEntity
  8
AM_VIS
100
AcDbCircle
 10
2074.265175941028
 20
1340.074497272913
 30
0.0
 40
3.3
100
AcDbArc
 50
279.986551447188
 51
287.6397013942188
  0
ARC
  5
9FD
330
1F
100
AcDbEntity
  8
AM_VIS
100
AcDbCircle
 10
2074.265175941028
 20
1340.074497272913
 30
0.0
 40
3.3
100
AcDbArc
 50
72.36029860578118
 51
80.01344855281201
  0
ARC
  5
9FE
330
1F
100
AcDbEntity
  8
AM_VIS
100
AcDbCircle
 10
2074.265175941028
 20
1340.074497272913
 30
0.0
 40
3.3
100
AcDbArc
 50
99.98655144718799
 51
107.6397013942188
  0
ARC
  5
9FF
330
1F
100
AcDbEntity
  8
AM_VIS
100
AcDbCircle
 10
2074.265175941028
 20
1340.074497272913
 30
0.0
 40
1.25
100
AcDbArc
 50
216.8698976458701
 51
323.1301023541299
  0
ARC
  5
A00
330
1F
100
AcDbEntity
  8
AM_VIS
100
AcDbCircle
 10
2074.265175941028
 20
1340.074497272913
 30
0.0
 40
1.25
100
AcDbArc
 50
36.86989764587008
 51
143.1301023541299
  0
ARC
  5
A01
330
1F
100
AcDbEntity
  8
AM_VIS
100
AcDbCircle
 10
2074.265175941028
 20
1340.074497272913
 30
0.0
 40
2.75
100
AcDbArc
 50
68.67631373652098
 51
111.323686263479
  0
ARC
  5
A02
330
1F
100
AcDbEntity
  8
AM_VIS
100
AcDbCircle
 10
2074.265175941028
 20
1340.074497272913
 30
0.0
 40
2.75
100
AcDbArc
 50
248.676313736521
 51
291.323686263479
  0
ARC
  5
A03
330
1F
100
AcDbEntity
  8
AM_VIS
100
AcDbCircle
 10
2074.265175941028
 20
1340.074497272913
 30
0.0
 40
3.0
100
AcDbArc
 50
250.5287793655244
 51
289.4712206344713
  0
ARC
  5
A04
330
1F
100
AcDbEntity
  8
AM_VIS
100
AcDbCircle
 10
2074.265175941028
 20
1340.074497272913
 30
0.0
 40
3.0
100
AcDbArc
 50
70.52877936552873
 51
109.4712206344756
  0
LINE
  5
A05
330
1F
100
AcDbEntity
  8
AM_VIS
100
AcDbLine
 10
2071.265175941028
 20
1353.574497272913
 30
0.0
 11
2071.265175941028
 21
1353.951356232875
 31
0.0
  0
LINE
  5
A06
330
1F
100
AcDbEntity
  8
AM_VIS
100
AcDbLine
 10
2075.265175941028
 20
1353.574497272913
 30
0.0
 11
2075.265175941028
 21
1353.951356232875
 31
0.0
  0
LINE
  5
A07
330
1F
100
AcDbEntity
  8
AM_VIS
100
AcDbLine
 10
2071.265175941028
 20
1353.951356232875
 30
0.0
 11
2075.265175941028
 21
1353.951356232875
 31
0.0
  0
LINE
  5
A08
330
1F
100
AcDbEntity
  8
AM_VIS
100
AcDbLine
 10
2077.265175941028
 20
1326.574497272913
 30
0.0
 11
2077.265175941028
 21
1326.197638312951
 31
0.0
  0
LINE
  5
A09
330
1F
100
AcDbEntity
  8
AM_VIS
100
AcDbLine
 10
2073.265175941028
 20
1326.574497272913
 30
0.0
 11
2073.265175941028
 21
1326.197638312951
 31
0.0
  0
LINE
  5
A0A
330
1F
100
AcDbEntity
  8
AM_VIS
100
AcDbLine
 10
2077.265175941028
 20
1326.197638312951
 30
0.0
 11
2073.265175941028
 21
1326.197638312951
 31
0.0
  0
LINE
  5
A0B
330
1F
100
AcDbEntity
  8
AM_VIS
100
AcDbLine
 10
2070.765175941028
 20
1336.80830128415
 30
0.0
 11
2070.765175941028
 21
1343.340693261675
 31
0.0
  0
LINE
  5
A0C
330
1F
100
AcDbEntity
  8
AM_VIS
100
AcDbLine
 10
2070.765175941028
 20
1353.974497272912
 30
0.0
 11
2070.265175941028
 21
1353.974497272912
 31
0.0
  0
LINE
  5
A0D
330
1F
100
AcDbEntity
  8
AM_VIS
100
AcDbLine
 10
2070.265175941028
 20
1326.174497272913
 30
0.0
 11
2070.765175941028
 21
1326.174497272913
 31
0.0
  0
LINE
  5
A0E
330
1F
100
AcDbEntity
  8
AM_VIS
100
AcDbLine
 10
2070.765175941028
 20
1353.974497272912
 30
0.0
 11
2070.765175941028
 21
1353.840693261675
 31
0.0
  0
LINE
  5
A0F
330
1F
100
AcDbEntity
  8
AM_VIS
100
AcDbLine
 10
2070.765175941028
 20
1326.30830128415
 30
0.0
 11
2070.765175941028
 21
1326.174497272913
 31
0.0
  0
LINE
  5
A10
330
1F
100
AcDbEntity
  8
AM_VIS
100
AcDbLine
 10
2078.265175941028
 20
1353.974497272912
 30
0.0
 11
2077.765175941028
 21
1353.974497272912
 31
0.0
  0
LINE
  5
A11
330
1F
100
AcDbEntity
  8
AM_VIS
100
AcDbLine
 10
2077.765175941028
 20
1326.174497272913
 30
0.0
 11
2078.265175941028
 21
1326.174497272913
 31
0.0
  0
LINE
  5
A12
330
1F
100
AcDbEntity
  8
AM_VIS
100
AcDbLine
 10
2077.765175941028
 20
1336.80830128415
 30
0.0
 11
2077.765175941028
 21
1343.340693261675
 31
0.0
  0
LINE
  5
A13
330
1F
100
AcDbEntity
  8
AM_VIS
100
AcDbLine
 10
2077.765175941028
 20
1353.840693261675
 30
0.0
 11
2077.765175941028
 21
1353.974497272912
 31
0.0
  0
LINE
  5
A14
330
1F
100
AcDbEntity
  8
AM_VIS
100
AcDbLine
 10
2077.765175941028
 20
1326.174497272913
 30
0.0
 11
2077.765175941028
 21
1326.30830128415
 31
0.0
  0
LINE
  5
A15
330
1F
100
AcDbEntity
  8
AM_VIS
100
AcDbLine
 10
2073.265175941029
 20
1336.824497272913
 30
0.0
 11
2075.265175941028
 21
1336.824497272913
 31
0.0
  0
LINE
  5
A16
330
1F
100
AcDbEntity
  8
AM_VIS
100
AcDbLine
 10
2073.265175941029
 20
1343.324497272913
 30
0.0
 11
2075.265175941028
 21
1343.324497272913
 31
0.0
  0
LINE
  5
A17
330
1F
100
AcDbEntity
  8
AM_VIS
100
AcDbLine
 10
2077.765175941028
 20
1330.30830128415
 30
0.0
 11
2077.765175941028
 21
1326.30830128415
 31
0.0
  0
LINE
  5
A18
330
1F
100
AcDbEntity
  8
AM_VIS
100
AcDbLine
 10
2070.765175941028
 20
1326.30830128415
 30
0.0
 11
2070.765175941028
 21
1330.30830128415
 31
0.0
  0
LINE
  5
A19
330
1F
100
AcDbEntity
  8
AM_VIS
100
AcDbLine
 10
2077.765175941028
 20
1336.80830128415
 30
0.0
 11
2077.765175941028
 21
1330.30830128415
 31
0.0
  0
LINE
  5
A1A
330
1F
100
AcDbEntity
  8
AM_VIS
100
AcDbLine
 10
2070.765175941028
 20
1330.30830128415
 30
0.0
 11
2070.765175941028
 21
1336.80830128415
 31
0.0
  0
LINE
  5
A1B
330
1F
100
AcDbEntity
  8
AM_VIS
100
AcDbLine
 10
2077.765175941028
 20
1336.80830128415
 30
0.0
 11
2070.765175941028
 21
1336.80830128415
 31
0.0
  0
LINE
  5
A1C
330
1F
100
AcDbEntity
  8
AM_VIS
100
AcDbLine
 10
2075.265175941028
 20
1336.80830128415
 30
0.0
 11
2075.265175941028
 21
1343.340693261675
 31
0.0
  0
LINE
  5
A1D
330
1F
100
AcDbEntity
  8
AM_VIS
100
AcDbLine
 10
2077.765175941027
 20
1326.574497272913
 30
0.0
 11
2070.765175941028
 21
1326.574497272913
 31
0.0
  0
LINE
  5
A1E
330
1F
100
AcDbEntity
  8
AM_VIS
100
AcDbLine
 10
2070.765175941028
 20
1330.574497272913
 30
0.0
 11
2077.765175941027
 21
1330.574497272913
 31
0.0
  0
LINE
  5
A1F
330
1F
100
AcDbEntity
  8
AM_VIS
100
AcDbLine
 10
2070.765175941029
 20
1349.840693261675
 30
0.0
 11
2070.765175941029
 21
1353.840693261675
 31
0.0
  0
LINE
  5
A20
330
1F
100
AcDbEntity
  8
AM_VIS
100
AcDbLine
 10
2077.765175941029
 20
1353.840693261675
 30
0.0
 11
2077.765175941029
 21
1349.840693261675
 31
0.0
  0
LINE
  5
A21
330
1F
100
AcDbEntity
  8
AM_VIS
100
AcDbLine
 10
2070.765175941029
 20
1343.340693261675
 30
0.0
 11
2070.765175941029
 21
1349.840693261675
 31
0.0
  0
LINE
  5
A22
330
1F
100
AcDbEntity
  8
AM_VIS
100
AcDbLine
 10
2077.765175941029
 20
1349.840693261675
 30
0.0
 11
2077.765175941029
 21
1343.340693261675
 31
0.0
  0
LINE
  5
A23
330
1F
100
AcDbEntity
  8
AM_VIS
100
AcDbLine
 10
2070.765175941029
 20
1343.340693261675
 30
0.0
 11
2077.765175941029
 21
1343.340693261675
 31
0.0
  0
LINE
  5
A24
330
1F
100
AcDbEntity
  8
AM_VIS
100
AcDbLine
 10
2073.265175941029
 20
1343.340693261675
 30
0.0
 11
2073.265175941029
 21
1336.80830128415
 31
0.0
  0
LINE
  5
A25
330
1F
100
AcDbEntity
  8
AM_VIS
100
AcDbLine
 10
2070.765175941029
 20
1353.574497272913
 30
0.0
 11
2077.765175941029
 21
1353.574497272913
 31
0.0
  0
LINE
  5
A26
330
1F
100
AcDbEntity
  8
AM_VIS
100
AcDbLine
 10
2077.765175941029
 20
1349.574497272913
 30
0.0
 11
2070.765175941029
 21
1349.574497272913
 31
0.0
  0
LINE
  5
A3F
330
1F
100
AcDbEntity
  8
AM_VIS
100
AcDbLine
 10
2132.072331309086
 20
1354.074497272913
 30
0.0
 11
2132.072331309086
 21
1353.30830128415
 31
0.0
  0
LINE
  5
A40
330
1F
100
AcDbEntity
  8
AM_VIS
100
AcDbLine
 10
2132.072331309086
 20
1353.574497272913
 30
0.0
 11
2132.072331309086
 21
1326.574497272913
 31
0.0
  0
LINE
  5
A41
330
1F
100
AcDbEntity
  8
AM_VIS
100
AcDbLine
 10
2182.572331309086
 20
1354.074497272913
 30
0.0
 11
2132.072331309086
 21
1354.074497272913
 31
0.0
  0
LINE
  5
A42
330
1F
100
AcDbEntity
  8
AM_VIS
100
AcDbLine
 10
2132.072331309086
 20
1326.074497272913
 30
0.0
 11
2182.572331309086
 21
1326.074497272913
 31
0.0
  0
LINE
  5
A43
102
{ACAD_REACTORS
330
CA3
330
CC9
102
}
330
1F
100
AcDbEntity
  8
AM_VIS
100
AcDbLine
 10
2132.072331309086
 20
1326.574497272913
 30
0.0
 11
2132.072331309086
 21
1326.074497272913
 31
0.0
  0
LINE
  5
A49
102
{ACAD_REACTORS
330
CA3
330
CEF
102
}
330
1F
100
AcDbEntity
  8
AM_VIS
100
AcDbLine
 10
2182.572331309086
 20
1326.074497272913
 30
0.0
 11
2182.572331309086
 21
1326.574497272913
 31
0.0
  0
LINE
  5
A4A
330
1F
100
AcDbEntity
  8
AM_VIS
100
AcDbLine
 10
2182.572331309086
 20
1353.574497272913
 30
0.0
 11
2182.572331309086
 21
1326.574497272913
 31
0.0
  0
LINE
  5
A4B
102
{ACAD_REACTORS
330
C57
102
}
330
1F
100
AcDbEntity
  8
AM_VIS
100
AcDbLine
 10
2182.572331309086
 20
1353.574497272913
 30
0.0
 11
2182.572331309086
 21
1354.074497272913
 31
0.0
  0
LINE
  5
A57
330
1F
100
AcDbEntity
  8
AM_VIS
100
AcDbLine
 10
2119.072331309086
 20
1330.574497272913
 30
0.0
 11
2119.072331309086
 21
1326.574497272913
 31
0.0
  0
LINE
  5
A58
102
{ACAD_REACTORS
330
CC9
330
CEF
330
DCD
330
E2B
102
}
330
1F
100
AcDbEntity
  8
AM_VIS
100
AcDbLine
 10
2119.072331309086
 20
1326.574497272913
 30
0.0
 11
2132.072331309086
 21
1326.574497272913
 31
0.0
  0
LINE
  5
A59
102
{ACAD_REACTORS
330
E2B
102
}
330
1F
100
AcDbEntity
  8
AM_VIS
100
AcDbLine
 10
2132.072331309086
 20
1330.574497272913
 30
0.0
 11
2119.072331309086
 21
1330.574497272913
 31
0.0
  0
LINE
  5
A5A
330
1F
100
AcDbEntity
  8
AM_VIS
100
AcDbLine
 10
2119.072331309086
 20
1353.574497272913
 30
0.0
 11
2119.072331309086
 21
1349.574497272913
 31
0.0
  0
LINE
  5
A5B
102
{ACAD_REACTORS
330
DCD
330
E55
102
}
330
1F
100
AcDbEntity
  8
AM_VIS
100
AcDbLine
 10
2132.072331309086
 20
1353.574497272913
 30
0.0
 11
2119.072331309086
 21
1353.574497272913
 31
0.0
  0
LINE
  5
A5C
102
{ACAD_REACTORS
330
E55
102
}
330
1F
100
AcDbEntity
  8
AM_VIS
100
AcDbLine
 10
2132.072331309086
 20
1349.574497272913
 30
0.0
 11
2119.072331309086
 21
1349.574497272913
 31
0.0
  0
LINE
  5
A5D
330
1F
100
AcDbEntity
  8
AM_VIS
100
AcDbLine
 10
2132.072331309086
 20
1387.627648437132
 30
0.0
 11
2182.572331309086
 21
1387.627648437132
 31
0.0
  0
LINE
  5
A5E
330
1F
100
AcDbEntity
  8
AM_VIS
100
AcDbLine
 10
2182.572331309086
 20
1403.627648437132
 30
0.0
 11
2132.072331309086
 21
1403.627648437132
 31
0.0
  0
LINE
  5
A5F
330
1F
100
AcDbEntity
  8
AM_VIS
100
AcDbLine
 10
2132.072331309086
 20
1403.627648437132
 30
0.0
 11
2132.072331309086
 21
1403.127648437133
 31
0.0
  0
LINE
  5
A60
330
1F
100
AcDbEntity
  8
AM_VIS
100
AcDbLine
 10
2132.072331309086
 20
1388.127648437132
 30
0.0
 11
2132.072331309086
 21
1387.627648437132
 31
0.0
  0
LINE
  5
A62
330
1F
100
AcDbEntity
  8
AM_VIS
100
AcDbLine
 10
2132.072331309086
 20
1391.627648437133
 30
0.0
 11
2132.072331309086
 21
1388.127648437132
 31
0.0
  0
LINE
  5
A63
330
1F
100
AcDbEntity
  8
AM_VIS
100
AcDbLine
 10
2144.072331309086
 20
1391.627648437133
 30
0.0
 11
2132.072331309086
 21
1391.627648437133
 31
0.0
  0
LINE
  5
A64
330
1F
100
AcDbEntity
  8
AM_VIS
100
AcDbLine
 10
2154.072331309086
 20
1392.127648437132
 30
0.0
 11
2144.072331309086
 21
1392.127648437132
 31
0.0
  0
LINE
  5
A65
330
1F
100
AcDbEntity
  8
AM_VIS
100
AcDbLine
 10
2182.572331309086
 20
1393.927648437133
 30
0.0
 11
2154.072331309086
 21
1393.927648437133
 31
0.0
  0
LINE
  5
A66
330
1F
100
AcDbEntity
  8
AM_VIS
100
AcDbLine
 10
2132.072331309086
 20
1399.627648437133
 30
0.0
 11
2144.072331309086
 21
1399.627648437133
 31
0.0
  0
LINE
  5
A67
330
1F
100
AcDbEntity
  8
AM_VIS
100
AcDbLine
 10
2132.072331309086
 20
1403.127648437133
 30
0.0
 11
2132.072331309086
 21
1399.627648437133
 31
0.0
  0
LINE
  5
A69
330
1F
100
AcDbEntity
  8
AM_VIS
100
AcDbLine
 10
2154.072331309086
 20
1397.327648437133
 30
0.0
 11
2182.572331309086
 21
1397.327648437133
 31
0.0
  0
LINE
  5
A6B
102
{ACAD_REACTORS
330
B5F
102
}
330
1F
100
AcDbEntity
  8
AM_VIS
100
AcDbLine
 10
2182.572331309086
 20
1387.627648437132
 30
0.0
 11
2182.572331309086
 21
1388.127648437132
 31
0.0
  0
LINE
  5
A6C
330
1F
100
AcDbEntity
  8
AM_VIS
100
AcDbLine
 10
2182.572331309086
 20
1393.727648437132
 30
0.0
 11
2182.572331309086
 21
1388.127648437132
 31
0.0
  0
LINE
  5
A6D
330
1F
100
AcDbEntity
  8
AM_VIS
100
AcDbLine
 10
2182.572331309086
 20
1396.077648437132
 30
0.0
 11
2182.572331309086
 21
1395.177648437132
 31
0.0
  0
LINE
  5
A6E
330
1F
100
AcDbEntity
  8
AM_VIS
100
AcDbLine
 10
2182.572331309086
 20
1403.127648437133
 30
0.0
 11
2182.572331309086
 21
1397.527648437132
 31
0.0
  0
LINE
  5
A6F
330
1F
100
AcDbEntity
  8
AM_VIS
100
AcDbLine
 10
2182.572331309086
 20
1403.127648437133
 30
0.0
 11
2182.572331309086
 21
1403.627648437132
 31
0.0
  0
LINE
  5
A70
330
1F
100
AcDbEntity
  8
AM_VIS
100
AcDbLine
 10
2154.072331309086
 20
1399.127648437132
 30
0.0
 11
2154.072331309086
 21
1397.527648437132
 31
0.0
  0
LINE
  5
A71
330
1F
100
AcDbEntity
  8
AM_VIS
100
AcDbLine
 10
2154.072331309086
 20
1396.077648437132
 30
0.0
 11
2154.072331309086
 21
1395.177648437132
 31
0.0
  0
LINE
  5
A72
330
1F
100
AcDbEntity
  8
AM_VIS
100
AcDbLine
 10
2154.072331309086
 20
1393.727648437132
 30
0.0
 11
2154.072331309086
 21
1392.127648437132
 31
0.0
  0
LINE
  5
A73
330
1F
100
AcDbEntity
  8
AM_VIS
100
AcDbLine
 10
2144.072331309086
 20
1392.127648437132
 30
0.0
 11
2144.072331309086
 21
1391.627648437133
 31
0.0
  0
LINE
  5
A74
330
1F
100
AcDbEntity
  8
AM_VIS
100
AcDbLine
 10
2144.072331309086
 20
1399.127648437132
 30
0.0
 11
2154.072331309086
 21
1399.127648437132
 31
0.0
  0
LINE
  5
A75
330
1F
100
AcDbEntity
  8
AM_VIS
100
AcDbLine
 10
2144.072331309086
 20
1399.627648437133
 30
0.0
 11
2144.072331309086
 21
1399.127648437132
 31
0.0
  0
LINE
  5
A7A
330
1F
100
AcDbEntity
  8
AM_VIS
100
AcDbLine
 10
2182.572331309086
 20
1393.927648437133
 30
0.0
 11
2182.572331309086
 21
1393.727648437132
 31
0.0
  0
LINE
  5
A7B
330
1F
100
AcDbEntity
  8
AM_VIS
100
AcDbLine
 10
2182.572331309086
 20
1393.927648437133
 30
0.0
 11
2182.572331309086
 21
1395.177648437132
 31
0.0
  0
LINE
  5
A7C
330
1F
100
AcDbEntity
  8
AM_VIS
100
AcDbLine
 10
2182.572331309086
 20
1396.077648437132
 30
0.0
 11
2182.572331309086
 21
1397.327648437133
 31
0.0
  0
LINE
  5
A7D
330
1F
100
AcDbEntity
  8
AM_VIS
100
AcDbLine
 10
2182.572331309086
 20
1397.527648437132
 30
0.0
 11
2182.572331309086
 21
1397.327648437133
 31
0.0
  0
LINE
  5
A7E
330
1F
100
AcDbEntity
  8
AM_VIS
100
AcDbLine
 10
2154.072331309086
 20
1397.327648437133
 30
0.0
 11
2154.072331309086
 21
1397.527648437132
 31
0.0
  0
LINE
  5
A7F
330
1F
100
AcDbEntity
  8
AM_VIS
100
AcDbLine
 10
2154.072331309086
 20
1397.327648437133
 30
0.0
 11
2154.072331309086
 21
1396.077648437132
 31
0.0
  0
LINE
  5
A80
330
1F
100
AcDbEntity
  8
AM_VIS
100
AcDbLine
 10
2154.072331309086
 20
1395.177648437132
 30
0.0
 11
2154.072331309086
 21
1393.927648437133
 31
0.0
  0
LINE
  5
A81
330
1F
100
AcDbEntity
  8
AM_VIS
100
AcDbLine
 10
2154.072331309086
 20
1393.727648437132
 30
0.0
 11
2154.072331309086
 21
1393.927648437133
 31
0.0
  0
LINE
  5
A82
330
1F
100
AcDbEntity
  8
AM_VIS
100
AcDbLine
 10
2148.322331309086
 20
1394.527648437132
 30
0.0
 11
2149.072331309086
 21
1394.527648437132
 31
0.0
  0
LINE
  5
A83
330
1F
100
AcDbEntity
  8
AM_VIS
100
AcDbLine
 10
2149.072331309086
 20
1394.527648437132
 30
0.0
 11
2154.072331309086
 21
1394.527648437132
 31
0.0
  0
LINE
  5
A84
330
1F
100
AcDbEntity
  8
AM_VIS
100
AcDbLine
 10
2154.072331309086
 20
1396.727648437132
 30
0.0
 11
2151.564074819342
 21
1396.727648437132
 31
0.0
  0
LINE
  5
A85
330
1F
100
AcDbEntity
  8
AM_VIS
100
AcDbLine
 10
2149.072331309086
 20
1394.627648437132
 30
0.0
 11
2149.072331309086
 21
1394.527648437132
 31
0.0
  0
LINE
  5
A86
330
1F
100
AcDbEntity
  8
AM_VIS
100
AcDbLine
 10
2149.213743912813
 20
1398.627648437132
 30
0.0
 11
2153.287650817464
 21
1398.627648437132
 31
0.0
  0
LINE
  5
A87
330
1F
100
AcDbEntity
  8
AM_VIS
100
AcDbLine
 10
2151.564074819342
 20
1394.627648437132
 30
0.0
 11
2151.564074819342
 21
1396.927648437132
 31
0.0
  0
LINE
  5
A88
330
1F
100
AcDbEntity
  8
AM_VIS
100
AcDbLine
 10
2153.287650817464
 20
1398.627648437132
 30
0.0
 11
2153.287650817464
 21
1396.927648437132
 31
0.0
  0
LINE
  5
A89
330
1F
100
AcDbEntity
  8
AM_VIS
100
AcDbLine
 10
2151.564074819342
 20
1396.927648437132
 30
0.0
 11
2153.287650817464
 21
1396.927648437132
 31
0.0
  0
LINE
  5
A8A
330
1F
100
AcDbEntity
  8
AM_VIS
100
AcDbLine
 10
2134.660684865313
 20
1396.627648437132
 30
0.0
 11
2134.660684865313
 21
1394.627648437132
 31
0.0
  0
LINE
  5
A8B
330
1F
100
AcDbEntity
  8
AM_VIS
100
AcDbLine
 10
2143.207342707238
 20
1396.627648437132
 30
0.0
 11
2142.056085073328
 21
1396.627648437132
 31
0.0
  0
LINE
  5
A8C
330
1F
100
AcDbEntity
  8
AM_VIS
100
AcDbLine
 10
2143.207342707238
 20
1398.627648437132
 30
0.0
 11
2143.207342707238
 21
1396.627648437132
 31
0.0
  0
LINE
  5
A8D
330
1F
100
AcDbEntity
  8
AM_VIS
100
AcDbLine
 10
2143.207342707238
 20
1398.627648437132
 30
0.0
 11
2146.056228654546
 21
1398.627648437132
 31
0.0
  0
LINE
  5
A8E
330
1F
100
AcDbEntity
  8
AM_VIS
100
AcDbLine
 10
2149.213743912813
 20
1394.627648437132
 30
0.0
 11
2151.564074819342
 21
1394.627648437132
 31
0.0
  0
LINE
  5
A8F
330
1F
100
AcDbEntity
  8
AM_VIS
100
AcDbLine
 10
2136.531819719018
 20
1394.627648437132
 30
0.0
 11
2146.056228654546
 21
1394.627648437132
 31
0.0
  0
LINE
  5
A90
330
1F
100
AcDbEntity
  8
AM_VIS
100
AcDbLine
 10
2146.056228654546
 20
1398.627648437132
 30
0.0
 11
2146.056228654546
 21
1394.627648437132
 31
0.0
  0
LINE
  5
A91
330
1F
100
AcDbEntity
  8
AM_VIS
100
AcDbLine
 10
2149.213743912813
 20
1398.627648437132
 30
0.0
 11
2146.056228654546
 21
1398.627648437132
 31
0.0
  0
LINE
  5
A92
330
1F
100
AcDbEntity
  8
AM_VIS
100
AcDbLine
 10
2149.213743912813
 20
1394.627648437132
 30
0.0
 11
2149.213743912813
 21
1398.627648437132
 31
0.0
  0
LINE
  5
A93
330
1F
100
AcDbEntity
  8
AM_VIS
100
AcDbLine
 10
2146.056228654546
 20
1394.627648437132
 30
0.0
 11
2149.213743912813
 21
1394.627648437132
 31
0.0
  0
LINE
  5
A94
330
1F
100
AcDbEntity
  8
AM_VIS
100
AcDbLine
 10
2145.822331309086
 20
1392.627648437132
 30
0.0
 11
2143.572331309086
 21
1392.627648437132
 31
0.0
  0
LINE
  5
A95
330
1F
100
AcDbEntity
  8
AM_VIS
100
AcDbLine
 10
2149.489136221053
 20
1392.627648437132
 30
0.0
 11
2148.322331309086
 21
1392.627648437132
 31
0.0
  0
LINE
  5
A96
330
1F
100
AcDbEntity
  8
AM_VIS
100
AcDbLine
 10
2153.287650817464
 20
1392.627648437132
 30
0.0
 11
2153.287650817464
 21
1394.327648437132
 31
0.0
  0
LINE
  5
A97
330
1F
100
AcDbEntity
  8
AM_VIS
100
AcDbLine
 10
2153.287650817464
 20
1392.627648437132
 30
0.0
 11
2151.86320784381
 21
1392.627648437132
 31
0.0
  0
LINE
  5
A98
330
1F
100
AcDbEntity
  8
AM_VIS
100
AcDbLine
 10
2149.489136221053
 20
1394.327648437132
 30
0.0
 11
2148.322331309086
 21
1394.327648437132
 31
0.0
  0
LINE
  5
A99
330
1F
100
AcDbEntity
  8
AM_VIS
100
AcDbLine
 10
2153.287650817464
 20
1394.327648437132
 30
0.0
 11
2151.86320784381
 21
1394.327648437132
 31
0.0
  0
LINE
  5
A9A
330
1F
100
AcDbEntity
  8
AM_VIS
100
AcDbLine
 10
2149.489136221053
 20
1392.627648437132
 30
0.0
 11
2149.489136221053
 21
1394.327648437132
 31
0.0
  0
LINE
  5
A9B
330
1F
100
AcDbEntity
  8
AM_VIS
100
AcDbLine
 10
2151.86320784381
 20
1394.327648437132
 30
0.0
 11
2151.86320784381
 21
1392.627648437132
 31
0.0
  0
LINE
  5
A9C
330
1F
100
AcDbEntity
  8
AM_VIS
100
AcDbLine
 10
2151.86320784381
 20
1392.627648437132
 30
0.0
 11
2151.622331309086
 21
1392.627648437132
 31
0.0
  0
LINE
  5
A9D
330
1F
100
AcDbEntity
  8
AM_VIS
100
AcDbLine
 10
2151.622331309086
 20
1394.327648437132
 30
0.0
 11
2151.86320784381
 21
1394.327648437132
 31
0.0
  0
LINE
  5
A9E
330
1F
100
AcDbEntity
  8
AM_VIS
100
AcDbLine
 10
2145.822331309086
 20
1399.127648437132
 30
0.0
 11
2145.822331309086
 21
1398.627648437132
 31
0.0
  0
LINE
  5
A9F
330
1F
100
AcDbEntity
  8
AM_VIS
100
AcDbLine
 10
2145.822331309086
 20
1394.627648437132
 30
0.0
 11
2145.822331309086
 21
1392.127648437132
 31
0.0
  0
LINE
  5
AA0
330
1F
100
AcDbEntity
  8
AM_VIS
100
AcDbLine
 10
2148.322331309086
 20
1399.127648437132
 30
0.0
 11
2148.322331309086
 21
1398.627648437132
 31
0.0
  0
LINE
  5
AA1
330
1F
100
AcDbEntity
  8
AM_VIS
100
AcDbLine
 10
2148.322331309086
 20
1394.627648437132
 30
0.0
 11
2148.322331309086
 21
1392.127648437132
 31
0.0
  0
LINE
  5
AA2
330
1F
100
AcDbEntity
  8
AM_VIS
100
AcDbLine
 10
2149.222331309086
 20
1399.027648437132
 30
0.0
 11
2149.122331309086
 21
1398.927648437132
 31
0.0
  0
LINE
  5
AA3
330
1F
100
AcDbEntity
  8
AM_VIS
100
AcDbLine
 10
2151.522331309086
 20
1399.027648437132
 30
0.0
 11
2151.622331309086
 21
1398.927648437132
 31
0.0
  0
LINE
  5
AA4
330
1F
100
AcDbEntity
  8
AM_VIS
100
AcDbLine
 10
2149.122331309086
 20
1398.927648437132
 30
0.0
 11
2149.122331309086
 21
1398.627648437132
 31
0.0
  0
LINE
  5
AA5
330
1F
100
AcDbEntity
  8
AM_VIS
100
AcDbLine
 10
2149.122331309086
 20
1394.527648437132
 30
0.0
 11
2149.122331309086
 21
1394.327648437132
 31
0.0
  0
LINE
  5
AA6
330
1F
100
AcDbEntity
  8
AM_VIS
100
AcDbLine
 10
2149.122331309086
 20
1392.627648437132
 30
0.0
 11
2149.122331309086
 21
1392.327648437132
 31
0.0
  0
LINE
  5
AA7
330
1F
100
AcDbEntity
  8
AM_VIS
100
AcDbLine
 10
2151.622331309086
 20
1398.927648437132
 30
0.0
 11
2151.622331309086
 21
1398.627648437132
 31
0.0
  0
LINE
  5
AA8
330
1F
100
AcDbEntity
  8
AM_VIS
100
AcDbLine
 10
2151.622331309086
 20
1396.927648437132
 30
0.0
 11
2151.622331309086
 21
1396.727648437132
 31
0.0
  0
LINE
  5
AA9
330
1F
100
AcDbEntity
  8
AM_VIS
100
AcDbLine
 10
2151.622331309086
 20
1394.527648437132
 30
0.0
 11
2151.622331309086
 21
1392.327648437132
 31
0.0
  0
LINE
  5
AAA
330
1F
100
AcDbEntity
  8
AM_VIS
100
AcDbLine
 10
2151.522331309086
 20
1392.227648437132
 30
0.0
 11
2151.622331309086
 21
1392.327648437132
 31
0.0
  0
LINE
  5
AAB
330
1F
100
AcDbEntity
  8
AM_VIS
100
AcDbLine
 10
2149.222331309086
 20
1392.227648437132
 30
0.0
 11
2149.122331309086
 21
1392.327648437132
 31
0.0
  0
LINE
  5
AAC
330
1F
100
AcDbEntity
  8
AM_VIS
100
AcDbLine
 10
2149.222331309086
 20
1399.027648437132
 30
0.0
 11
2151.522331309086
 21
1399.027648437132
 31
0.0
  0
LINE
  5
AAD
330
1F
100
AcDbEntity
  8
AM_VIS
100
AcDbLine
 10
2151.622331309086
 20
1398.927648437132
 30
0.0
 11
2149.122331309086
 21
1398.927648437132
 31
0.0
  0
LINE
  5
AAE
330
1F
100
AcDbEntity
  8
AM_VIS
100
AcDbLine
 10
2149.122331309086
 20
1392.327648437132
 30
0.0
 11
2151.622331309086
 21
1392.327648437132
 31
0.0
  0
LINE
  5
AAF
330
1F
100
AcDbEntity
  8
AM_VIS
100
AcDbLine
 10
2151.522331309086
 20
1392.227648437132
 30
0.0
 11
2149.222331309086
 21
1392.227648437132
 31
0.0
  0
LINE
  5
AB0
330
1F
100
AcDbEntity
  8
AM_VIS
100
AcDbLine
 10
2132.172331309086
 20
1399.627648437133
 30
0.0
 11
2132.172331309086
 21
1399.127648437132
 31
0.0
  0
LINE
  5
AB1
330
1F
100
AcDbEntity
  8
AM_VIS
100
AcDbLine
 10
2132.672331309086
 20
1399.127648437132
 30
0.0
 11
2143.472331309086
 21
1399.127648437132
 31
0.0
  0
LINE
  5
AB2
330
1F
100
AcDbEntity
  8
AM_VIS
100
AcDbLine
 10
2143.972331309086
 20
1399.127648437132
 30
0.0
 11
2143.972331309086
 21
1399.627648437133
 31
0.0
  0
LINE
  5
AB3
330
1F
100
AcDbEntity
  8
AM_VIS
100
AcDbLine
 10
2132.672331309086
 20
1399.127648437132
 30
0.0
 11
2132.331889687344
 21
1399.127648437132
 31
0.0
  0
LINE
  5
AB4
330
1F
100
AcDbEntity
  8
AM_VIS
100
AcDbLine
 10
2143.972331309086
 20
1399.127648437132
 30
0.0
 11
2143.472331309086
 21
1399.127648437132
 31
0.0
  0
LINE
  5
AB5
330
1F
100
AcDbEntity
  8
AM_VIS
100
AcDbLine
 10
2132.172331309086
 20
1392.127648437132
 30
0.0
 11
2132.172331309086
 21
1391.627648437133
 31
0.0
  0
LINE
  5
AB6
330
1F
100
AcDbEntity
  8
AM_VIS
100
AcDbLine
 10
2143.972331309086
 20
1391.627648437133
 30
0.0
 11
2143.972331309086
 21
1392.127648437132
 31
0.0
  0
LINE
  5
AB7
330
1F
100
AcDbEntity
  8
AM_VIS
100
AcDbLine
 10
2132.672331309086
 20
1392.127648437132
 30
0.0
 11
2143.472331309086
 21
1392.127648437132
 31
0.0
  0
LINE
  5
AB8
330
1F
100
AcDbEntity
  8
AM_VIS
100
AcDbLine
 10
2143.472331309086
 20
1392.127648437132
 30
0.0
 11
2143.972331309086
 21
1392.127648437132
 31
0.0
  0
LINE
  5
AB9
330
1F
100
AcDbEntity
  8
AM_VIS
100
AcDbLine
 10
2132.331889687344
 20
1392.127648437132
 30
0.0
 11
2132.672331309086
 21
1392.127648437132
 31
0.0
  0
LINE
  5
ABA
330
1F
100
AcDbEntity
  8
AM_VIS
100
AcDbLine
 10
2134.572331309086
 20
1394.627648437133
 30
0.0
 11
2134.572331309086
 21
1392.127648437133
 31
0.0
  0
LINE
  5
ABB
330
1F
100
AcDbEntity
  8
AM_VIS
100
AcDbLine
 10
2141.572331309086
 20
1394.627648437133
 30
0.0
 11
2141.572331309086
 21
1392.127648437133
 31
0.0
  0
LINE
  5
ABC
330
1F
100
AcDbEntity
  8
AM_VIS
100
AcDbLine
 10
2134.572331309086
 20
1394.627648437133
 30
0.0
 11
2136.531819719018
 21
1394.627648437133
 31
0.0
  0
LINE
  5
ABD
330
1F
100
AcDbEntity
  8
AM_VIS
100
AcDbLine
 10
2134.372331309086
 20
1394.627648437133
 30
0.0
 11
2134.572331309086
 21
1394.627648437133
 31
0.0
  0
LINE
  5
ABE
330
1F
100
AcDbEntity
  8
AM_VIS
100
AcDbLine
 10
2143.572331309086
 20
1392.127648437133
 30
0.0
 11
2143.572331309086
 21
1394.627648437133
 31
0.0
  0
LINE
  5
ABF
330
1F
100
AcDbEntity
  8
AM_VIS
100
AcDbLine
 10
2143.572331309086
 20
1398.627648437132
 30
0.0
 11
2143.572331309086
 21
1399.127648437132
 31
0.0
  0
LINE
  5
AC0
330
1F
100
AcDbEntity
  8
AM_VIS
100
AcDbLine
 10
2141.572331309086
 20
1396.627648437132
 30
0.0
 11
2142.056085073328
 21
1396.627648437132
 31
0.0
  0
LINE
  5
AC1
330
1F
100
AcDbEntity
  8
AM_VIS
100
AcDbLine
 10
2134.372331309086
 20
1396.627648437132
 30
0.0
 11
2141.572331309086
 21
1396.627648437132
 31
0.0
  0
LINE
  5
AC2
330
1F
100
AcDbEntity
  8
AM_VIS
100
AcDbLine
 10
2134.372331309086
 20
1396.627648437132
 30
0.0
 11
2134.372331309086
 21
1392.127648437132
 31
0.0
  0
LINE
  5
AC3
330
1F
100
AcDbEntity
  8
AM_VIS
100
AcDbLine
 10
2132.331889687344
 20
1392.127648437132
 30
0.0
 11
2119.072331309086
 21
1392.127648437132
 31
0.0
  0
LINE
  5
AC4
330
1F
100
AcDbEntity
  8
AM_VIS
100
AcDbLine
 10
2119.072331309086
 20
1399.127648437132
 30
0.0
 11
2119.072331309086
 21
1392.127648437132
 31
0.0
  0
LINE
  5
AC5
330
1F
100
AcDbEntity
  8
AM_VIS
100
AcDbLine
 10
2119.072331309086
 20
1399.127648437132
 30
0.0
 11
2132.331889687344
 21
1399.127648437132
 31
0.0
  0
LINE
  5
AC6
330
1F
100
AcDbEntity
  8
AM_VIS
100
AcDbLine
 10
2141.572331309086
 20
1399.127648437132
 30
0.0
 11
2141.572331309086
 21
1396.627648437132
 31
0.0
  0
LINE
  5
ACA
102
{ACAD_REACTORS
330
ECD
102
}
330
1F
100
AcDbEntity
  8
AM_VIS
100
AcDbLine
 10
2132.072331309086
 20
1267.163124457154
 30
0.0
 11
2182.572331309086
 21
1267.163124457154
 31
0.0
  0
ARC
  5
ACB
330
1F
100
AcDbEntity
  8
AM_VIS
100
AcDbCircle
 10
2159.572331309086
 20
1270.063124457154
 30
0.0
 40
3.0
100
AcDbArc
 50
299.9264348666208
 51
306.8698976458414
  0
ARC
  5
ACC
330
1F
100
AcDbEntity
  8
AM_VIS
100
AcDbCircle
 10
2159.572331309086
 20
1270.063124457154
 30
0.0
 40
3.0
100
AcDbArc
 50
233.1301023541586
 51
240.0735651333792
  0
LINE
  5
ACD
330
1F
100
AcDbEntity
  8
AM_VIS
100
AcDbLine
 10
2161.068994263795
 20
1267.463124457154
 30
0.0
 11
2158.075668354376
 21
1267.463124457154
 31
0.0
  0
LINE
  5
ACE
330
1F
100
AcDbEntity
  8
AM_VIS
100
AcDbLine
 10
2132.072331309086
 20
1267.663124457154
 30
0.0
 11
2132.072331309086
 21
1267.163124457154
 31
0.0
  0
LINE
  5
ACF
330
1F
100
AcDbEntity
  8
AM_VIS
100
AcDbLine
 10
2132.072331309086
 20
1279.163124457154
 30
0.0
 11
2144.072331309086
 21
1279.163124457154
 31
0.0
  0
LINE
  5
AD0
330
1F
100
AcDbEntity
  8
AM_VIS
100
AcDbLine
 10
2132.072331309086
 20
1282.663124457154
 30
0.0
 11
2132.072331309086
 21
1279.163124457154
 31
0.0
  0
DIMENSION
  5
B2B
330
1F
100
AcDbEntity
  8
AM_5
100
AcDbDimension
  2
*D3
 10
2194.572332309086
 20
1400.627648437132
 30
0.0
 11
2192.072332309086
 21
1395.627648437133
 31
0.0
 70
    32
 71
     5
 42
10.0
  3
AM_ISO$0
100
AcDbAlignedDimension
 13
2169.072331309086
 23
1390.627648437132
 33
0.0
 14
2169.072331309086
 24
1400.627648437132
 34
0.0
 50
90.00000000000003
100
AcDbRotatedDimension
1001
ACAD
1000
DSTYLE
1002
{
1070
    40
1040
1.0
1070
   144
1040
1.0
1070
   272
1070
     8
1002
}
  0
DIMENSION
  5
B51
102
{ACAD_XDICTIONARY
360
B5E
102
}
102
{ACAD_REACTORS
330
B5F
102
}
330
1F
100
AcDbEntity
  8
AM_5
100
AcDbDimension
  2
*D4
 10
2182.572331309086
 20
1375.627648437133
 30
0.0
 11
2174.572331309086
 21
1378.127648437132
 31
0.0
 70
    32
 71
     5
 42
16.0
  3
AM_ISO$0
100
AcDbAlignedDimension
 13
2166.572331309086
 23
1388.127648437132
 33
0.0
 14
2182.572331309086
 24
1387.627648437132
 34
0.0
 50
0.0000000000001132
100
AcDbRotatedDimension
1001
ACAD
1000
DSTYLE
1002
{
1070
    40
1040
1.0
1070
   144
1040
1.0
1070
   272
1070
     8
1002
}
  0
ARC
  5
BB6
330
1F
100
AcDbEntity
  8
AM_4
100
AcDbCircle
 10
2166.572331309086
 20
1400.627648437132
 30
0.0
 40
1.5
100
AcDbArc
 50
260.0
 51
170.0
  0
CIRCLE
  5
BB7
330
1F
100
AcDbEntity
  8
AM_0
100
AcDbCircle
 10
2166.572331309086
 20
1400.627648437132
 30
0.0
 40
1.229367061317389
  0
LINE
  5
BB8
330
1F
100
AcDbEntity
  8
AM_7
  6
AM_ISO08W050x2
100
AcDbLine
 10
2164.072331309086
 20
1400.627648437132
 30
0.0
 11
2169.072331309086
 21
1400.627648437132
 31
0.0
  0
LINE
  5
BB9
330
1F
100
AcDbEntity
  8
AM_7
  6
AM_ISO08W050x2
100
AcDbLine
 10
2166.572331309086
 20
1398.127648437132
 30
0.0
 11
2166.572331309086
 21
1403.127648437133
 31
0.0
  0
ARC
  5
BBA
330
1F
100
AcDbEntity
  8
AM_4
100
AcDbCircle
 10
2166.572331309086
 20
1390.627648437132
 30
0.0
 40
1.5
100
AcDbArc
 50
260.0
 51
170.0
  0
CIRCLE
  5
BBB
330
1F
100
AcDbEntity
  8
AM_0
100
AcDbCircle
 10
2166.572331309086
 20
1390.627648437132
 30
0.0
 40
1.229367061317389
  0
LINE
  5
BBC
330
1F
100
AcDbEntity
  8
AM_7
  6
AM_ISO08W050x2
100
AcDbLine
 10
2164.072331309086
 20
1390.627648437132
 30
0.0
 11
2169.072331309086
 21
1390.627648437132
 31
0.0
  0
LINE
  5
BBD
330
1F
100
AcDbEntity
  8
AM_7
  6
AM_ISO08W050x2
100
AcDbLine
 10
2166.572331309086
 20
1388.127648437132
 30
0.0
 11
2166.572331309086
 21
1393.127648437132
 31
0.0
  0
ARC
  5
BD9
330
1F
100
AcDbEntity
  8
AM_4
100
AcDbCircle
 10
2122.072331309086
 20
1395.627648437132
 30
0.0
 40
1.5
100
AcDbArc
 50
260.0
 51
170.0
  0
CIRCLE
  5
BDA
330
1F
100
AcDbEntity
  8
AM_0
100
AcDbCircle
 10
2122.072331309086
 20
1395.627648437132
 30
0.0
 40
1.229367061317389
  0
LINE
  5
BDB
330
1F
100
AcDbEntity
  8
AM_7
  6
AM_ISO08W050x2
100
AcDbLine
 10
2119.572331309086
 20
1395.627648437132
 30
0.0
 11
2124.572331309086
 21
1395.627648437132
 31
0.0
  0
LINE
  5
BDC
330
1F
100
AcDbEntity
  8
AM_7
  6
AM_ISO08W050x2
100
AcDbLine
 10
2122.072331309086
 20
1393.127648437132
 30
0.0
 11
2122.072331309086
 21
1398.127648437132
 31
0.0
  0
ARC
  5
BDD
330
1F
100
AcDbEntity
  8
AM_4
100
AcDbCircle
 10
2128.072331309086
 20
1395.627648437132
 30
0.0
 40
1.5
100
AcDbArc
 50
260.0
 51
170.0
  0
CIRCLE
  5
BDE
330
1F
100
AcDbEntity
  8
AM_0
100
AcDbCircle
 10
2128.072331309086
 20
1395.627648437132
 30
0.0
 40
1.229367061317389
  0
LINE
  5
BDF
330
1F
100
AcDbEntity
  8
AM_7
  6
AM_ISO08W050x2
100
AcDbLine
 10
2125.572331309086
 20
1395.627648437132
 30
0.0
 11
2130.572331309086
 21
1395.627648437132
 31
0.0
  0
LINE
  5
BE0
330
1F
100
AcDbEntity
  8
AM_7
  6
AM_ISO08W050x2
100
AcDbLine
 10
2128.072331309086
 20
1393.127648437132
 30
0.0
 11
2128.072331309086
 21
1398.127648437132
 31
0.0
  0
ARC
  5
BF3
330
1F
100
AcDbEntity
  8
AM_4
100
AcDbCircle
 10
2233.129763113865
 20
1348.574497272913
 30
0.0
 40
1.5
100
AcDbArc
 50
260.0
 51
170.0
  0
CIRCLE
  5
BF4
330
1F
100
AcDbEntity
  8
AM_0
100
AcDbCircle
 10
2233.129763113865
 20
1348.574497272913
 30
0.0
 40
1.229367061317389
  0
LINE
  5
BF5
102
{ACAD_REACTORS
330
D61
102
}
330
1F
100
AcDbEntity
  8
AM_7
  6
AM_ISO08W050x2
100
AcDbLine
 10
2230.629763113865
 20
1348.574497272913
 30
0.0
 11
2235.629763113865
 21
1348.574497272913
 31
0.0
  0
LINE
  5
BF6
102
{ACAD_REACTORS
330
D15
102
}
330
1F
100
AcDbEntity
  8
AM_7
  6
AM_ISO08W050x2
100
AcDbLine
 10
2233.129763113865
 20
1346.074497272913
 30
0.0
 11
2233.129763113865
 21
1351.074497272913
 31
0.0
  0
ARC
  5
BF7
330
1F
100
AcDbEntity
  8
AM_4
100
AcDbCircle
 10
2243.129763113865
 20
1331.574497272913
 30
0.0
 40
1.5
100
AcDbArc
 50
260.0
 51
170.0
  0
CIRCLE
  5
BF8
330
1F
100
AcDbEntity
  8
AM_0
100
AcDbCircle
 10
2243.129763113865
 20
1331.574497272913
 30
0.0
 40
1.229367061317389
  0
LINE
  5
BF9
102
{ACAD_REACTORS
330
D61
102
}
330
1F
100
AcDbEntity
  8
AM_7
  6
AM_ISO08W050x2
100
AcDbLine
 10
2240.629763113865
 20
1331.574497272913
 30
0.0
 11
2245.629763113865
 21
1331.574497272913
 31
0.0
  0
LINE
  5
BFA
102
{ACAD_REACTORS
330
D15
102
}
330
1F
100
AcDbEntity
  8
AM_7
  6
AM_ISO08W050x2
100
AcDbLine
 10
2243.129763113865
 20
1329.074497272913
 30
0.0
 11
2243.129763113865
 21
1334.074497272913
 31
0.0
  0
ARC
  5
C05
330
1F
100
AcDbEntity
  8
AM_4
100
AcDbCircle
 10
2122.072331309086
 20
1275.163124457154
 30
0.0
 40
1.5
100
AcDbArc
 50
260.0
 51
170.0
  0
CIRCLE
  5
C06
330
1F
100
AcDbEntity
  8
AM_0
100
AcDbCircle
 10
2122.072331309086
 20
1275.163124457154
 30
0.0
 40
1.229367061317389
  0
LINE
  5
C07
330
1F
100
AcDbEntity
  8
AM_7
  6
AM_ISO08W050x2
100
AcDbLine
 10
2119.572331309086
 20
1275.163124457154
 30
0.0
 11
2124.572331309086
 21
1275.163124457154
 31
0.0
  0
LINE
  5
C08
102
{ACAD_REACTORS
330
EF9
330
F29
102
}
330
1F
100
AcDbEntity
  8
AM_7
  6
AM_ISO08W050x2
100
AcDbLine
 10
2122.072331309086
 20
1272.663124457154
 30
0.0
 11
2122.072331309086
 21
1277.663124457154
 31
0.0
  0
ARC
  5
C09
330
1F
100
AcDbEntity
  8
AM_4
100
AcDbCircle
 10
2128.072331309086
 20
1395.627648437132
 30
0.0
 40
1.5
100
AcDbArc
 50
260.0
 51
170.0
  0
CIRCLE
  5
C0A
330
1F
100
AcDbEntity
  8
AM_0
100
AcDbCircle
 10
2128.072331309086
 20
1395.627648437132
 30
0.0
 40
1.229367061317389
  0
LINE
  5
C0B
330
1F
100
AcDbEntity
  8
AM_7
  6
AM_ISO08W050x2
100
AcDbLine
 10
2125.572331309086
 20
1395.627648437132
 30
0.0
 11
2130.572331309086
 21
1395.627648437132
 31
0.0
  0
LINE
  5
C0C
330
1F
100
AcDbEntity
  8
AM_7
  6
AM_ISO08W050x2
100
AcDbLine
 10
2128.072331309086
 20
1393.127648437132
 30
0.0
 11
2128.072331309086
 21
1398.127648437132
 31
0.0
  0
ARC
  5
C0D
330
1F
100
AcDbEntity
  8
AM_4
100
AcDbCircle
 10
2128.072331309086
 20
1275.163124457154
 30
0.0
 40
1.5
100
AcDbArc
 50
260.0
 51
170.0
  0
CIRCLE
  5
C0E
330
1F
100
AcDbEntity
  8
AM_0
100
AcDbCircle
 10
2128.072331309086
 20
1275.163124457154
 30
0.0
 40
1.229367061317389
  0
LINE
  5
C0F
330
1F
100
AcDbEntity
  8
AM_7
  6
AM_ISO08W050x2
100
AcDbLine
 10
2125.572331309086
 20
1275.163124457154
 30
0.0
 11
2130.572331309086
 21
1275.163124457154
 31
0.0
  0
LINE
  5
C10
102
{ACAD_REACTORS
330
F29
102
}
330
1F
100
AcDbEntity
  8
AM_7
  6
AM_ISO08W050x2
100
AcDbLine
 10
2128.072331309086
 20
1272.663124457154
 30
0.0
 11
2128.072331309086
 21
1277.663124457154
 31
0.0
  0
ARC
  5
C26
330
1F
100
AcDbEntity
  8
AM_4
100
AcDbCircle
 10
2162.572331309086
 20
1349.074497272913
 30
0.0
 40
1.5
100
AcDbArc
 50
260.0
 51
170.0
  0
CIRCLE
  5
C27
330
1F
100
AcDbEntity
  8
AM_0
100
AcDbCircle
 10
2162.572331309086
 20
1349.074497272913
 30
0.0
 40
1.229367061317389
  0
LINE
  5
C28
102
{ACAD_REACTORS
330
C7D
102
}
330
1F
100
AcDbEntity
  8
AM_7
  6
AM_ISO08W050x2
100
AcDbLine
 10
2160.072331309086
 20
1349.074497272913
 30
0.0
 11
2165.072331309086
 21
1349.074497272913
 31
0.0
  0
LINE
  5
C29
102
{ACAD_REACTORS
330
C57
102
}
330
1F
100
AcDbEntity
  8
AM_7
  6
AM_ISO08W050x2
100
AcDbLine
 10
2162.572331309086
 20
1346.574497272913
 30
0.0
 11
2162.572331309086
 21
1351.574497272913
 31
0.0
  0
ARC
  5
C2A
330
1F
100
AcDbEntity
  8
AM_4
100
AcDbCircle
 10
2162.572331309086
 20
1331.074497272913
 30
0.0
 40
1.5
100
AcDbArc
 50
260.0
 51
170.0
  0
CIRCLE
  5
C2B
330
1F
100
AcDbEntity
  8
AM_0
100
AcDbCircle
 10
2162.572331309086
 20
1331.074497272913
 30
0.0
 40
1.229367061317389
  0
LINE
  5
C2C
102
{ACAD_REACTORS
330
C7D
102
}
330
1F
100
AcDbEntity
  8
AM_7
  6
AM_ISO08W050x2
100
AcDbLine
 10
2160.072331309086
 20
1331.074497272913
 30
0.0
 11
2165.072331309086
 21
1331.074497272913
 31
0.0
  0
LINE
  5
C2D
330
1F
100
AcDbEntity
  8
AM_7
  6
AM_ISO08W050x2
100
AcDbLine
 10
2162.572331309086
 20
1328.574497272913
 30
0.0
 11
2162.572331309086
 21
1333.574497272913
 31
0.0
  0
ARC
  5
C2E
330
1F
100
AcDbEntity
  8
AM_4
100
AcDbCircle
 10
2159.572331309086
 20
1270.063124457154
 30
0.0
 40
1.5
100
AcDbArc
 50
260.0
 51
170.0
  0
CIRCLE
  5
C2F
330
1F
100
AcDbEntity
  8
AM_0
100
AcDbCircle
 10
2159.572331309086
 20
1270.063124457154
 30
0.0
 40
1.229367061317389
  0
LINE
  5
C30
102
{ACAD_REACTORS
330
E7D
102
}
330
1F
100
AcDbEntity
  8
AM_7
  6
AM_ISO08W050x2
100
AcDbLine
 10
2157.072331309086
 20
1270.063124457154
 30
0.0
 11
2162.072331309087
 21
1270.063124457154
 31
0.0
  0
LINE
  5
C31
102
{ACAD_REACTORS
330
ECD
102
}
330
1F
100
AcDbEntity
  8
AM_7
  6
AM_ISO08W050x2
100
AcDbLine
 10
2159.572331309086
 20
1267.563124457155
 30
0.0
 11
2159.572331309086
 21
1272.563124457154
 31
0.0
  0
ARC
  5
C32
330
1F
100
AcDbEntity
  8
AM_4
100
AcDbCircle
 10
2175.072331309086
 20
1280.263124457154
 30
0.0
 40
1.5
100
AcDbArc
 50
260.0
 51
170.0
  0
CIRCLE
  5
C33
330
1F
100
AcDbEntity
  8
AM_0
100
AcDbCircle
 10
2175.072331309086
 20
1280.263124457154
 30
0.0
 40
1.229367061317389
  0
LINE
  5
C34
102
{ACAD_REACTORS
330
E7D
102
}
330
1F
100
AcDbEntity
  8
AM_7
  6
AM_ISO08W050x2
100
AcDbLine
 10
2172.572331309087
 20
1280.263124457154
 30
0.0
 11
2177.572331309086
 21
1280.263124457154
 31
0.0
  0
LINE
  5
C35
102
{ACAD_REACTORS
330
EA5
102
}
330
1F
100
AcDbEntity
  8
AM_7
  6
AM_ISO08W050x2
100
AcDbLine
 10
2175.072331309086
 20
1277.763124457155
 30
0.0
 11
2175.072331309086
 21
1282.763124457155
 31
0.0
  0
DIMENSION
  5
C49
102
{ACAD_XDICTIONARY
360
C56
102
}
102
{ACAD_REACTORS
330
C57
102
}
330
1F
100
AcDbEntity
  8
AM_5
100
AcDbDimension
  2
*D7
 10
2162.572331309086
 20
1366.074497272913
 30
0.0
 11
2172.572331309087
 21
1368.574792548503
 31
0.0
 70
    32
 71
     5
 42
20.0
  3
AM_ISO$0
100
AcDbAlignedDimension
 13
2182.572331309086
 23
1354.074497272913
 33
0.0
 14
2162.572331309086
 24
1351.574497272913
 34
0.0
100
AcDbRotatedDimension
1001
ACAD
1000
DSTYLE
1002
{
1070
    40
1040
1.0
1070
   144
1040
1.0
1070
   272
1070
     8
1002
}
  0
DIMENSION
  5
C6F
102
{ACAD_XDICTIONARY
360
C7C
102
}
102
{ACAD_REACTORS
330
C7D
102
}
330
1F
100
AcDbEntity
  8
AM_5
100
AcDbDimension
  2
*D8
 10
2194.572331309086
 20
1349.074497272913
 30
0.0
 11
2192.072331309086
 21
1340.074497272913
 31
0.0
 70
    32
 71
     5
 42
18.0
  3
AM_ISO$0
100
AcDbAlignedDimension
 13
2165.072331309086
 23
1331.074497272913
 33
0.0
 14
2165.072331309086
 24
1349.074497272913
 34
0.0
 50
90.00000000000003
100
AcDbRotatedDimension
1001
ACAD
1000
DSTYLE
1002
{
1070
    40
1040
1.0
1070
   144
1040
1.0
1070
   272
1070
     8
1002
}
  0
DIMENSION
  5
C95
102
{ACAD_XDICTIONARY
360
CA2
102
}
102
{ACAD_REACTORS
330
CA3
102
}
330
1F
100
AcDbEntity
  8
AM_5
100
AcDbDimension
  2
*D9
 10
2132.072331309086
 20
1314.074497272913
 30
0.0
 11
2157.322331309086
 21
1316.574497272913
 31
0.0
 70
    32
 71
     5
 42
50.5
  3
AM_ISO$0
100
AcDbAlignedDimension
 13
2182.572331309086
 23
1326.074497272913
 33
0.0
 14
2132.072331309086
 24
1326.074497272913
 34
0.0
 50
0.0000000000001132
100
AcDbRotatedDimension
1001
ACAD
1000
DSTYLE
1002
{
1070
    40
1040
1.0
1070
   144
1040
1.0
1070
   272
1070
     8
1002
}
  0
DIMENSION
  5
CBB
102
{ACAD_XDICTIONARY
360
CC8
102
}
102
{ACAD_REACTORS
330
CC9
102
}
330
1F
100
AcDbEntity
  8
AM_5
100
AcDbDimension
  2
*D10
 10
2119.072331309086
 20
1314.074497272912
 30
0.0
 11
2125.572331309086
 21
1316.574497272912
 31
0.0
 70
    32
 71
     5
 42
13.0
  3
AM_ISO$0
100
AcDbAlignedDimension
 13
2132.072331309086
 23
1326.074497272913
 33
0.0
 14
2119.072331309086
 24
1326.574497272913
 34
0.0
 50
0.0000000000001132
100
AcDbRotatedDimension
1001
ACAD
1000
DSTYLE
1002
{
1070
    40
1040
1.0
1070
   144
1040
1.0
1070
   272
1070
     8
1002
}
  0
DIMENSION
  5
CE1
102
{ACAD_XDICTIONARY
360
CEE
102
}
102
{ACAD_REACTORS
330
CEF
102
}
330
1F
100
AcDbEntity
  8
AM_5
100
AcDbDimension
  2
*D11
 10
2119.072331309086
 20
1307.074497272912
 30
0.0
 11
2150.822331309086
 21
1309.574497272912
 31
0.0
 70
    32
 71
     5
 42
63.5
  3
AM_ISO$0
100
AcDbAlignedDimension
 13
2182.572331309086
 23
1326.074497272913
 33
0.0
 14
2119.072331309086
 24
1326.574497272913
 34
0.0
 50
0.0000000000001132
100
AcDbRotatedDimension
1001
ACAD
1000
DSTYLE
1002
{
1070
    40
1040
1.0
1070
   144
1040
1.0
1070
   272
1070
     8
1002
}
  0
DIMENSION
  5
D07
102
{ACAD_XDICTIONARY
360
D14
102
}
102
{ACAD_REACTORS
330
D15
102
}
330
1F
100
AcDbEntity
  8
AM_5
100
AcDbDimension
  2
*D12
 10
2243.129763113865
 20
1314.074497272913
 30
0.0
 11
2238.129763113865
 21
1316.574497272913
 31
0.0
 70
    32
 71
     5
 42
10.0
  3
AM_ISO$0
100
AcDbAlignedDimension
 13
2233.129763113865
 23
1346.074497272913
 33
0.0
 14
2243.129763113865
 24
1329.074497272913
 34
0.0
 50
0.0000000000001132
100
AcDbRotatedDimension
1001
ACAD
1000
DSTYLE
1002
{
1070
    40
1040
1.0
1070
   144
1040
1.0
1070
   272
1070
     8
1002
}
  0
DIMENSION
  5
D2D
102
{ACAD_XDICTIONARY
360
D3A
102
}
102
{ACAD_REACTORS
330
D3B
102
}
330
1F
100
AcDbEntity
  8
AM_5
100
AcDbDimension
  2
*D13
 10
2246.129763113865
 20
1307.074497272913
 30
0.0
 11
2238.129763113865
 21
1309.574497272913
 31
0.0
 70
    32
 71
     5
 42
16.0
  3
AM_ISO$0
100
AcDbAlignedDimension
 13
2230.129763113865
 23
1326.574497272913
 33
0.0
 14
2246.129763113865
 24
1326.574497272913
 34
0.0
 50
0.0000000000001132
100
AcDbRotatedDimension
1001
ACAD
1000
DSTYLE
1002
{
1070
    40
1040
1.0
1070
   144
1040
1.0
1070
   272
1070
     8
1002
}
  0
DIMENSION
  5
D53
102
{ACAD_XDICTIONARY
360
D60
102
}
102
{ACAD_REACTORS
330
D61
102
}
330
1F
100
AcDbEntity
  8
AM_5
100
AcDbDimension
  2
*D14
 10
2218.129763113865
 20
1331.574497272913
 30
0.0
 11
2215.629763113865
 21
1340.074497272913
 31
0.0
 70
    32
 71
     5
 42
17.0
  3
AM_ISO$0
100
AcDbAlignedDimension
 13
2230.629763113865
 23
1348.574497272913
 33
0.0
 14
2240.629763113865
 24
1331.574497272913
 34
0.0
 50
90.0
100
AcDbRotatedDimension
1001
ACAD
1000
DSTYLE
1002
{
1070
    40
1040
1.0
1070
   144
1040
1.0
1070
   272
1070
     8
1002
}
  0
DIMENSION
  5
D79
102
{ACAD_XDICTIONARY
360
D86
102
}
102
{ACAD_REACTORS
330
D87
102
}
330
1F
100
AcDbEntity
  8
AM_5
100
AcDbDimension
  2
*D15
 10
2211.129763113865
 20
1326.074497272913
 30
0.0
 11
2208.629467838274
 21
1340.074497272913
 31
0.0
 70
    32
 71
     5
 42
28.0
  3
AM_ISO$0
100
AcDbAlignedDimension
 13
2230.629763113865
 23
1354.074497272913
 33
0.0
 14
2230.629763113865
 24
1326.074497272913
 34
0.0
 50
90.0
100
AcDbRotatedDimension
1001
ACAD
1000
DSTYLE
1002
{
1070
    40
1040
1.0
1070
   144
1040
1.0
1070
   272
1070
     8
1002
}
  0
DIMENSION
  5
DBF
102
{ACAD_XDICTIONARY
360
DCC
102
}
102
{ACAD_REACTORS
330
DCD
102
}
330
1F
100
AcDbEntity
  8
AM_5
100
AcDbDimension
  2
*D16
 10
2100.072331309086
 20
1326.574497272913
 30
0.0
 11
2097.122331309086
 21
1340.074497272913
 31
0.0
 70
    32
  1
<> (open)
 71
     5
 42
27.0
  3
AM_ISO$0
100
AcDbAlignedDimension
 13
2119.072331309086
 23
1353.574497272913
 33
0.0
 14
2119.072331309086
 24
1326.574497272913
 34
0.0
 50
90.00000000000003
100
AcDbRotatedDimension
1001
ACAD
1000
DSTYLE
1002
{
1070
    40
1040
1.0
1070
   144
1040
1.0
1070
   272
1070
     8
1002
}
  0
LINE
  5
E0A
330
1F
100
AcDbEntity
  8
AM_VIS
100
AcDbLine
 10
2075.965175941028
 20
1353.574497272913
 30
0.0
 11
2075.965175941028
 21
1353.840693261675
 31
0.0
  0
LINE
  5
E0B
330
1F
100
AcDbEntity
  8
0
100
AcDbLine
 10
2072.565175941028
 20
1326.291399278531
 30
0.0
 11
2072.565175941028
 21
1326.574497272913
 31
0.0
  0
DIMENSION
  5
E1B
102
{ACAD_XDICTIONARY
360
E2A
102
}
102
{ACAD_REACTORS
330
E2B
102
}
330
1F
100
AcDbEntity
  8
AM_5
100
AcDbDimension
  2
*D17
 10
2107.072331309086
 20
1330.574497272913
 30
0.0
 11
2104.572331309086
 21
1328.574497272913
 31
0.0
 70
    32
 71
     5
 42
4.0
  3
AM_ISO$0
100
AcDbAlignedDimension
 13
2119.072331309086
 23
1326.574497272913
 33
0.0
 14
2119.072331309086
 24
1330.574497272913
 34
0.0
 50
90.00000000000003
100
AcDbRotatedDimension
1001
ACAD
1000
DSTYLE
1002
{
1070
    40
1040
1.0
1070
   144
1040
1.0
1070
   272
1070
     8
1002
}
  0
DIMENSION
  5
E45
102
{ACAD_XDICTIONARY
360
E54
102
}
102
{ACAD_REACTORS
330
E55
102
}
330
1F
100
AcDbEntity
  8
AM_5
100
AcDbDimension
  2
*D18
 10
2107.072331309086
 20
1353.574497272913
 30
0.0
 11
2104.572331309086
 21
1351.574497272913
 31
0.0
 70
    32
 71
     5
 42
4.0
  3
AM_ISO$0
100
AcDbAlignedDimension
 13
2119.072331309086
 23
1349.574497272913
 33
0.0
 14
2119.072331309086
 24
1353.574497272913
 34
0.0
 50
90.00000000000003
100
AcDbRotatedDimension
1001
ACAD
1000
DSTYLE
1002
{
1070
    40
1040
1.0
1070
   144
1040
1.0
1070
   272
1070
     8
1002
}
  0
DIMENSION
  5
E6F
102
{ACAD_XDICTIONARY
360
E7C
102
}
102
{ACAD_REACTORS
330
E7D
102
}
330
1F
100
AcDbEntity
  8
AM_5
100
AcDbDimension
  2
*D19
 10
2194.572331309086
 20
1280.263124457154
 30
0.0
 11
2192.072036033495
 21
1275.163124457155
 31
0.0
 70
    32
 71
     5
 42
10.20000000000004
  3
AM_ISO$0
100
AcDbAlignedDimension
 13
2162.072331309087
 23
1270.063124457154
 33
0.0
 14
2177.572331309086
 24
1280.263124457154
 34
0.0
 50
90.00000000000003
100
AcDbRotatedDimension
1001
ACAD
1000
DSTYLE
1002
{
1070
    40
1040
1.0
1070
   144
1040
1.0
1070
   272
1070
     8
1002
}
  0
DIMENSION
  5
E95
102
{ACAD_XDICTIONARY
360
EA4
102
}
102
{ACAD_REACTORS
330
EA5
102
}
330
1F
100
AcDbEntity
  8
AM_5
100
AcDbDimension
  2
*D20
 10
2175.072331309086
 20
1295.163124457154
 30
0.0
 11
2178.822331309087
 21
1297.663124457154
 31
0.0
 70
    32
 71
     5
 42
7.5
  3
AM_ISO$0
100
AcDbAlignedDimension
 13
2182.572331309086
 23
1283.163124457154
 33
0.0
 14
2175.072331309086
 24
1282.763124457155
 34
0.0
100
AcDbRotatedDimension
1001
ACAD
1000
DSTYLE
1002
{
1070
    40
1040
1.0
1070
   144
1040
1.0
1070
   272
1070
     8
1002
}
  0
DIMENSION
  5
EBF
102
{ACAD_XDICTIONARY
360
ECC
102
}
102
{ACAD_REACTORS
330
ECD
102
}
330
1F
100
AcDbEntity
  8
AM_5
100
AcDbDimension
  2
*D21
 10
2159.572331309086
 20
1255.163124457154
 30
0.0
 11
2171.072331309086
 21
1257.663419732745
 31
0.0
 70
    32
 71
     5
 42
23.0
  3
AM_ISO$0
100
AcDbAlignedDimension
 13
2182.572331309086
 23
1267.163124457154
 33
0.0
 14
2159.572331309086
 24
1267.563124457155
 34
0.0
 50
0.0000000000001018
100
AcDbRotatedDimension
1001
ACAD
1000
DSTYLE
1002
{
1070
    40
1040
1.0
1070
   144
1040
1.0
1070
   272
1070
     8
1002
}
  0
DIMENSION
  5
EE9
102
{ACAD_XDICTIONARY
360
EF8
102
}
102
{ACAD_REACTORS
330
EF9
102
}
330
1F
100
AcDbEntity
  8
AM_5
100
AcDbDimension
  2
*D22
 10
2122.072331309086
 20
1255.163124457154
 30
0.0
 11
2111.41019927473
 21
1255.163124457154
 31
0.0
 70
   160
 71
     5
 42
3.0
  3
AM_ISO$0
100
AcDbAlignedDimension
 13
2119.072331309086
 23
1271.663124457154
 33
0.0
 14
2122.072331309086
 24
1272.663124457154
 34
0.0
 50
0.0000000000001018
100
AcDbRotatedDimension
1001
ACAD
1000
DSTYLE
1002
{
1070
   173
1070
     1
1070
   174
1070
     1
1070
   272
1070
     8
1070
   344
1005
F36
1002
}
  0
DIMENSION
  5
F19
102
{ACAD_XDICTIONARY
360
F28
102
}
102
{ACAD_REACTORS
330
F29
102
}
330
1F
100
AcDbEntity
  8
AM_5
100
AcDbDimension
  2
*D23
 10
2128.072331309086
 20
1255.163124457154
 30
0.0
 11
2125.072331309086
 21
1257.663124457154
 31
0.0
 70
    32
 71
     5
 42
6.0
  3
AM_ISO$0
100
AcDbAlignedDimension
 13
2122.072331309086
 23
1272.663124457154
 33
0.0
 14
2128.072331309086
 24
1272.663124457154
 34
0.0
100
AcDbRotatedDimension
1001
ACAD
1000
DSTYLE
1002
{
1070
   173
1070
     1
1070
   174
1070
     1
1070
   272
1070
     8
1070
   343
1005
F36
1002
}
  0
DIMENSION
  5
F63
102
{ACAD_XDICTIONARY
360
F72
102
}
102
{ACAD_REACTORS
330
F73
102
}
330
1F
100
AcDbEntity
  8
AM_5
100
AcDbDimension
  2
*D25
 10
2107.072331309086
 20
1278.663124457154
 30
0.0
 11
2104.572331309086
 21
1275.163124457154
 31
0.0
 70
    32
 71
     5
 42
7.0
  3
AM_ISO$0
100
AcDbAlignedDimension
 13
2119.072331309086
 23
1271.663124457154
 33
0.0
 14
2119.072331309086
 24
1278.663124457154
 34
0.0
 50
90.0
100
AcDbRotatedDimension
1001
ACAD
1000
DSTYLE
1002
{
1070
    40
1040
1.0
1070
   144
1040
1.0
1070
   272
1070
     8
1002
}
  0
INSERT
  5
1256
330
1F
100
AcDbEntity
  8
AM_5
100
AcDbBlockReference
  2
*S27
 10
0.0
 20
0.0
 30
0.0
  0
TEXT
  5
1257
330
1F
100
AcDbEntity
  8
AM_5
100
AcDbText
 10
2129.684533113926
 20
1293.909698249193
 30
0.0
 40
3.0
  1
2-M3x0.5x5depth
 41
0.8
  7
CHINESET
100
AcDbText
  0
INSERT
  5
1258
330
1F
100
AcDbEntity
  8
AM_5
100
AcDbBlockReference
  2
*S28
 10
0.0
 20
0.0
 30
0.0
  0
TEXT
  5
1259
330
1F
100
AcDbEntity
  8
AM_5
100
AcDbText
 10
2098.466900776702
 20
1290.954733301689
 30
0.0
 40
3.0
  1
2-M3x0.5
 41
0.8
  7
CHINESET
100
AcDbText
  0
INSERT
  5
125F
330
1F
100
AcDbEntity
  8
AM_5
100
AcDbBlockReference
  2
*S29
 10
0.0
 20
0.0
 30
0.0
  0
TEXT
  5
1260
330
1F
100
AcDbEntity
  8
AM_5
100
AcDbText
 10
2207.66056471533
 20
1365.679816003461
 30
0.0
 40
3.0
  1
2-M3x0.5x5depth
 41
0.8
  7
CHINESET
100
AcDbText
  0
INSERT
  5
1261
330
1F
100
AcDbEntity
  8
AM_5
100
AcDbBlockReference
  2
*S30
 10
0.0
 20
0.0
 30
0.0
  0
TEXT
  5
1262
330
1F
100
AcDbEntity
  8
AM_5
100
AcDbText
 10
2119.777452433497
 20
1366.257581143527
 30
0.0
 40
3.0
  1
2-M3x0.5x5depth
 41
0.8
  7
CHINESET
100
AcDbText
  0
INSERT
  5
1264
330
1F
100
AcDbEntity
  8
AM_5
100
AcDbBlockReference
  2
*S31
 10
0.0
 20
0.0
 30
0.0
  0
TEXT
  5
1265
330
1F
100
AcDbEntity
  8
AM_5
100
AcDbText
 10
2124.92603149986
 20
1413.997385521188
 30
0.0
 40
3.0
  1
2-M3x0.5x5depth
 41
0.8
  7
CHINESET
100
AcDbText
  0
TEXT
  5
12F8
330
1F
100
AcDbEntity
  8
LOGO
 62
     7
100
AcDbText
 10
2097.753375399464
 20
1222.217595835649
 30
0.0
 40
2.986234208144795
  1
Order example:
 41
0.8
  7
CHINESET
100
AcDbText
  0
TEXT
  5
12F9
330
1F
100
AcDbEntity
  8
LOGO
 62
     7
100
AcDbText
 10
2098.289130511557
 20
1226.421595293035
 30
0.0
 40
4.479351312217193
  1
訂購代號:
  7
CHINESET
100
AcDbText
  0
LINE
  5
12FA
330
1F
100
AcDbEntity
  8
LOGO
 62
     1
100
AcDbLine
 10
2271.182982072912
 20
1232.029233771682
 30
0.0
 11
2047.182982072912
 21
1232.029233771682
 31
0.0
  0
LINE
  5
12FB
330
1F
100
AcDbEntity
  8
LOGO
 62
     1
100
AcDbLine
 10
2096.4558465073
 20
1209.632477210595
 30
0.0
 11
2096.4558465073
 21
1232.029233771682
 31
0.0
  0
TEXT
  5
12FC
330
1F
100
AcDbEntity
  8
LOGO
  6
Continuous
 62
     5
100
AcDbText
 10
2055.227997705022
 20
1214.032286237368
 30
0.0
 40
3.359513484162895
  1
金器工業股份有限公司
  7
CHINESET
100
AcDbText
  0
TEXT
  5
12FD
330
1F
100
AcDbEntity
  8
LOGO
  6
Continuous
 62
     5
100
AcDbText
 10
2049.057236081581
 20
1210.672114551958
 30
0.0
 40
2.239675656108596
  1
MINDMAN INDUSTRIAL CO., LTD.
 41
0.85
  7
CHINESET
100
AcDbText
  0
LINE
  5
12FE
330
1F
100
AcDbEntity
  8
LOGO
 62
     1
100
AcDbLine
 10
2096.4558465073
 20
1227.549882459465
 30
0.0
 11
2063.607270217708
 21
1227.549882459465
 31
0.0
  0
LINE
  5
12FF
330
1F
100
AcDbEntity
  8
LOGO
 62
     1
100
AcDbLine
 10
2096.4558465073
 20
1223.070531147247
 30
0.0
 11
2063.607270217708
 21
1223.070531147247
 31
0.0
  0
LINE
  5
1300
330
1F
100
AcDbEntity
  8
LOGO
 62
     1
100
AcDbLine
 10
2096.4558465073
 20
1218.59117983503
 30
0.0
 11
2047.182982072912
 21
1218.59117983503
 31
0.0
  0
LINE
  5
1301
330
1F
100
AcDbEntity
  8
LOGO
 62
     1
100
AcDbLine
 10
2063.607270217708
 20
1218.59117983503
 30
0.0
 11
2063.607270217708
 21
1232.029233771682
 31
0.0
  0
TEXT
  5
1302
330
1F
100
AcDbEntity
  8
LOGO
 62
     6
100
AcDbText
 10
2084.884558243546
 20
1219.711017663084
 30
0.0
 40
2.239675656108596
  1
m/m
  7
CHINESET
 72
     1
 11
2088.830653447166
 21
1220.830855491139
 31
0.0
100
AcDbText
 73
     2
  0
TEXT
  5
1303
330
1F
100
AcDbEntity
  8
LOGO
 62
     6
100
AcDbText
 10
2084.884558243546
 20
1228.669720287519
 30
0.0
 40
2.239675656108596
  1
1 : 1
  7
CHINESET
 72
     1
 11
2088.830653447166
 21
1229.789558115573
 31
0.0
100
AcDbText
 73
     2
  0
LINE
  5
1304
330
1F
100
AcDbEntity
  8
LOGO
 62
     1
100
AcDbLine
 10
2081.524675466577
 20
1218.59117983503
 30
0.0
 11
2081.524675466577
 21
1232.029233771682
 31
0.0
  0
CIRCLE
  5
1305
330
1F
100
AcDbEntity
  8
LOGO
  6
Continuous
 62
     6
100
AcDbCircle
 10
2085.671715078064
 20
1225.314997485974
 30
0.0
 40
1.300408401959107
  0
CIRCLE
  5
1306
330
1F
100
AcDbEntity
  8
LOGO
  6
Continuous
 62
     6
100
AcDbCircle
 10
2085.671715078064
 20
1225.314997485974
 30
0.0
 40
0.7619242049054689
  0
LINE
  5
1307
330
1F
100
AcDbEntity
  8
LOGO
 62
     6
100
AcDbLine
 10
2093.843632368986
 20
1224.014589084015
 30
0.0
 11
2093.843632368986
 21
1226.615405887933
 31
0.0
  0
LINE
  5
1308
330
1F
100
AcDbEntity
  8
LOGO
 62
     6
100
AcDbLine
 10
2089.766926675848
 20
1224.553073281068
 30
0.0
 11
2089.766926675848
 21
1226.07692169088
 31
0.0
  0
LINE
  5
1309
330
1F
100
AcDbEntity
  8
LOGO
  6
Continuous
 62
     6
100
AcDbLine
 10
2089.766926675848
 20
1226.07692169088
 30
0.0
 11
2093.843632368986
 21
1226.615405887933
 31
0.0
  0
LINE
  5
130A
330
1F
100
AcDbEntity
  8
LOGO
  6
Continuous
 62
     6
100
AcDbLine
 10
2089.766926675848
 20
1224.553073281068
 30
0.0
 11
2093.843632368986
 21
1224.014589084015
 31
0.0
  0
LINE
  5
130B
330
1F
100
AcDbEntity
  8
LOGO
 62
     6
100
AcDbLine
 10
2142.192762179281
 20
1219.711017663084
 30
0.0
 11
2142.192762179281
 21
1211.498873590686
 31
0.0
  0
LINE
  5
130C
330
1F
100
AcDbEntity
  8
LOGO
 62
     6
100
AcDbLine
 10
2127.261591138557
 20
1219.711017663084
 30
0.0
 11
2127.261591138557
 21
1211.498873590686
 31
0.0
  0
LINE
  5
130D
330
1F
100
AcDbEntity
  8
LOGO
 62
     6
100
AcDbLine
 10
2142.192762179281
 20
1211.498873590686
 30
0.0
 11
2127.261591138557
 21
1211.498873590686
 31
0.0
  0
LINE
  5
130E
330
1F
100
AcDbEntity
  8
LOGO
 62
     6
100
AcDbLine
 10
2144.947771272799
 20
1229.789558115573
 30
0.0
 11
2127.261591138557
 21
1229.789558115573
 31
0.0
  0
LINE
  5
130F
330
1F
100
AcDbEntity
  8
LOGO
 62
     6
100
AcDbLine
 10
2144.947771272799
 20
1223.070531147247
 30
0.0
 11
2127.261591138557
 21
1223.070531147247
 31
0.0
  0
LINE
  5
1310
330
1F
100
AcDbEntity
  8
LOGO
 62
     6
100
AcDbLine
 10
2127.261591138557
 20
1229.789558115573
 30
0.0
 11
2127.261591138557
 21
1223.070531147247
 31
0.0
  0
LINE
  5
1311
330
1F
100
AcDbEntity
  8
LOGO
 62
     6
100
AcDbLine
 10
2144.947771272799
 20
1229.789558115573
 30
0.0
 11
2144.947771272799
 21
1223.070531147247
 31
0.0
  0
LINE
  5
1312
330
1F
100
AcDbEntity
  8
LOGO
 62
     6
100
AcDbLine
 10
2136.220293762991
 20
1223.070531147247
 30
0.0
 11
2136.220293762991
 21
1219.711017663084
 31
0.0
  0
TEXT
  5
1313
330
1F
100
AcDbEntity
  8
LOGO
  6
Continuous
 62
     7
100
AcDbText
 10
2128.77765605538
 20
1224.473118203668
 30
0.0
 40
3.732792760180994
  1
MCHB
  7
CHINESET
100
AcDbText
  0
LINE
  5
1314
330
1F
100
AcDbEntity
  8
LOGO
 62
     6
100
AcDbLine
 10
2142.192762179281
 20
1219.711017663084
 30
0.0
 11
2127.261591138557
 21
1219.711017663084
 31
0.0
  0
TEXT
  5
1315
330
1F
100
AcDbEntity
  8
LOGO
 62
     6
100
AcDbText
 10
2065.454002778794
 20
1228.670822490106
 30
146.7846528512557
 40
2.239675656108596
  1
比例 Scale:
 41
0.9
  7
CHINESET
 72
     4
 11
2072.565972842142
 21
1229.789558115573
 31
146.7846528512557
100
AcDbText
  0
TEXT
  5
1316
330
1F
100
AcDbEntity
  8
LOGO
 62
     6
100
AcDbText
 10
2066.236889403228
 20
1224.221873599237
 30
146.7846528512557
 40
2.239675656108596
  1
投影 View:
 41
0.9
  7
CHINESET
 72
     4
 11
2072.565972842142
 21
1225.310206803356
 31
146.7846528512557
100
AcDbText
  0
TEXT
  5
1317
330
1F
100
AcDbEntity
  8
LOGO
 62
     6
100
AcDbText
 10
2066.455857692821
 20
1219.711017663084
 30
146.7846528512557
 40
2.239675656108596
  1
單位 Unit:
 41
0.9
  7
CHINESET
 72
     4
 11
2072.565972842142
 21
1220.830855491139
 31
146.7846528512557
100
AcDbText
  0
TEXT
  5
1318
330
1F
100
AcDbEntity
  8
LOGO
  6
Continuous
 62
     6
100
AcDbText
 10
2131.210893390874
 20
1212.658000312249
 30
146.7846528512557
 40
1.866396380090497
  1
Model
  7
CHINESET
100
AcDbText
  0
TEXT
  5
1319
330
1F
100
AcDbEntity
  8
LOGO
 62
     6
100
AcDbText
 10
2131.605795267598
 20
1215.772358246408
 30
146.7846528512557
 40
2.986234208144795
  1
型號
  7
CHINESET
100
AcDbText
  0
LWPOLYLINE
  5
131A
330
1F
100
AcDbEntity
  8
0
 62
     4
100
AcDbPolyline
 90
        4
 70
     1
 43
0.0
 10
2047.182982072912
 20
1232.029233771682
 10
2271.182982072912
 20
1232.029233771682
 10
2271.182982072912
 20
1439.983283888964
 10
2047.182982072912
 20
1439.983283888964
1001
GENIUS_GENREC_14
1002
{
1000
PYDIR
1011
2047.182982072912
1021
1439.983283888964
1031
0.0
1002
}
1002
{
1000
PXDIR
1011
2271.182982072912
1021
1232.029233771682
1031
0.0
1002
}
1002
{
1000
PORI
1011
2047.182982072912
1021
1232.029233771682
1031
0.0
1002
}
1002
{
1000
PINS
1011
2047.182982072912
1021
1232.029233771682
1031
0.0
1002
}
1002
{
1000
PINS2
1011
2271.182982072912
1021
1439.983283888964
1031
0.0
1002
}
1002
{
1000
C
1070
     1
1002
}
1001
GENIUS_GENODEF_13
1002
{
1000
HIER
1070
     0
1002
}
1002
{
1000
MANEDIT
1070
     0
1002
}
1002
{
1000
NOSEL
1070
     0
1002
}
1002
{
1000
BEHIND
1070
     0
1002
}
1002
{
1000
OTHER
1070
     0
1002
}
1002
{
1000
REACTOR
1002
}
1001
GENIUS_GENOBJ-N-REC_13
1002
{
1000
OWNER
1000
GEN
1002
}
  0
SOLID
  5
131B
330
1F
100
AcDbEntity
  8
LOGO
 62
     5
100
AcDbTrace
 10
2049.506681510184
 20
1222.314321820584
 30
0.0
 11
2050.475058494797
 21
1222.314321820584
 31
0.0
 12
2054.515527982316
 22
1231.497207019493
 32
0.0
 13
2055.483904966929
 23
1231.497207019492
 33
0.0
  0
SOLID
  5
131C
330
1F
100
AcDbEntity
  8
LOGO
 62
     5
100
AcDbTrace
 10
2050.875766212568
 20
1222.314321820584
 30
0.0
 11
2051.84414319718
 21
1222.314321820584
 31
0.0
 12
2055.483904966929
 22
1230.76257620358
 32
0.0
 13
2054.515527982316
 23
1227.211860593335
 33
0.0
  0
SOLID
  5
131D
330
1F
100
AcDbEntity
  8
LOGO
 62
     2
100
AcDbTrace
 10
2050.475058494797
 20
1222.314321820584
 30
0.0
 11
2050.875766212568
 21
1222.314321820584
 31
0.0
 12
2055.483904966929
 22
1231.497207019492
 32
0.0
 13
2055.8846126847
 23
1231.497207019492
 33
0.0
  0
SOLID
  5
131E
330
1F
100
AcDbEntity
  8
LOGO
 62
     5
100
AcDbTrace
 10
2047.954135728726
 20
1218.975090839164
 30
0.0
 11
2048.288058826868
 21
1218.975090839164
 31
0.0
 12
2049.228412261733
 22
1220.644706329873
 32
0.0
 13
2049.562335359875
 23
1220.644706329873
 33
0.0
  0
SOLID
  5
131F
330
1F
100
AcDbEntity
  8
LOGO
 62
     5
100
AcDbTrace
 10
2049.228412261733
 20
1220.644706329873
 30
0.0
 11
2049.562335359875
 21
1220.644706329873
 31
0.0
 12
2049.228412261733
 22
1218.975090839164
 32
0.0
 13
2049.562335359875
 23
1218.975090839164
 33
0.0
  0
SOLID
  5
1320
330
1F
100
AcDbEntity
  8
LOGO
 62
     5
100
AcDbTrace
 10
2049.228412261733
 20
1218.975090839164
 30
0.0
 11
2049.562335359875
 21
1218.975090839164
 31
0.0
 12
2050.502688794741
 22
1220.644706329873
 32
0.0
 13
2050.836611892883
 23
1220.644706329873
 33
0.0
  0
SOLID
  5
1321
330
1F
100
AcDbEntity
  8
LOGO
 62
     5
100
AcDbTrace
 10
2050.502688794741
 20
1220.644706329873
 30
0.0
 11
2050.836611892883
 21
1220.644706329873
 31
0.0
 12
2050.502688794741
 22
1218.975090839164
 32
0.0
 13
2050.836611892883
 23
1218.975090839164
 33
0.0
  0
POLYLINE
  5
1322
330
1F
100
AcDbEntity
  8
LOGO
 62
     5
100
AcDb2dPolyline
 66
     1
 10
0.0
 20
0.0
 30
0.0
 40
0.3344582313122171
 41
0.3344582313122171
  0
VERTEX
  5
1323
330
1322
100
AcDbEntity
  8
LOGO
 62
     5
100
AcDbVertex
100
AcDb2dVertex
 10
2061.695677292128
 20
1219.97686013359
 30
0.0
 42
1.0
  0
VERTEX
  5
1324
330
1322
100
AcDbEntity
  8
LOGO
 62
     5
100
AcDbVertex
100
AcDb2dVertex
 10
2060.692302598191
 20
1219.97686013359
 30
0.0
 42
1.0
  0
SEQEND
  5
1325
330
1322
100
AcDbEntity
  8
LOGO
 62
     5
  0
POLYLINE
  5
1326
330
1F
100
AcDbEntity
  8
LOGO
 62
     5
100
AcDb2dPolyline
 66
     1
 10
0.0
 20
0.0
 30
0.0
 70
     1
  0
VERTEX
  5
1327
330
1326
100
AcDbEntity
  8
LOGO
 62
     5
100
AcDbVertex
100
AcDb2dVertex
 10
2058.800896670014
 20
1219.809898584519
 30
0.0
 42
1.000000057330635
  0
VERTEX
  5
1328
330
1326
100
AcDbEntity
  8
LOGO
 62
     5
100
AcDbVertex
100
AcDb2dVertex
 10
2059.80266596444
 20
1219.809898584519
 30
0.0
 42
1.000000057330635
  0
SEQEND
  5
1329
330
1326
100
AcDbEntity
  8
LOGO
 62
     5
  0
CIRCLE
  5
132A
330
1F
100
AcDbEntity
  8
LOGO
 62
     5
100
AcDbCircle
 10
2059.301781317227
 20
1219.809898584519
 30
0.0
 40
0.5008846472131765
  0
POLYLINE
  5
132B
330
1F
100
AcDbEntity
  8
LOGO
 62
     5
100
AcDb2dPolyline
 66
     1
 10
0.0
 20
0.0
 30
0.0
 70
     1
 40
0.3344582313122171
 41
0.3344582313122171
  0
VERTEX
  5
132C
330
132B
100
AcDbEntity
  8
LOGO
 62
     5
100
AcDbVertex
100
AcDb2dVertex
 10
2058.632864854603
 20
1219.809898584519
 30
0.0
 42
1.0
  0
VERTEX
  5
132D
330
132B
100
AcDbEntity
  8
LOGO
 62
     5
100
AcDbVertex
100
AcDb2dVertex
 10
2059.970697779851
 20
1219.809898584519
 30
0.0
 42
1.0
  0
SEQEND
  5
132E
330
132B
100
AcDbEntity
  8
LOGO
 62
     5
  0
LINE
  5
132F
330
1F
100
AcDbEntity
  8
LOGO
 62
     5
100
AcDbLine
 10
2061.861836141443
 20
1218.975090839164
 30
0.0
 11
2061.861836141443
 21
1219.97686013359
 31
0.0
  0
SOLID
  5
1330
330
1F
100
AcDbEntity
  8
LOGO
 62
     5
100
AcDbTrace
 10
2059.802632572131
 20
1220.644706329873
 30
0.0
 11
2060.136555670273
 21
1220.644706329873
 31
0.0
 12
2059.802632572131
 22
1218.975090839164
 32
0.0
 13
2060.136555670273
 23
1218.975090839164
 33
0.0
  0
SOLID
  5
1331
330
1F
100
AcDbEntity
  8
LOGO
 62
     5
100
AcDbTrace
 10
2060.526143748875
 20
1218.975090839164
 30
0.0
 11
2060.860066847017
 21
1218.975090839164
 31
0.0
 12
2060.526143748875
 22
1220.644706329873
 32
0.0
 13
2060.860066847017
 23
1220.644706329873
 33
0.0
  0
SOLID
  5
1332
330
1F
100
AcDbEntity
  8
LOGO
 62
     5
100
AcDbTrace
 10
2061.527913043301
 20
1219.97686013359
 30
0.0
 11
2061.861836141443
 21
1219.97686013359
 31
0.0
 12
2061.527913043301
 22
1218.975090839164
 32
0.0
 13
2061.861836141443
 23
1218.975090839164
 33
0.0
  0
SOLID
  5
1333
330
1F
100
AcDbEntity
  8
LOGO
 62
     5
100
AcDbTrace
 10
2060.49275143906
 20
1230.76257620358
 30
0.0
 11
2059.524374454448
 21
1227.211860593335
 31
0.0
 12
2060.49275143906
 22
1222.314321820584
 32
0.0
 13
2059.524374454448
 23
1222.314321820584
 33
0.0
  0
SOLID
  5
1334
330
1F
100
AcDbEntity
  8
LOGO
 62
     5
100
AcDbTrace
 10
2060.893459156831
 20
1222.314321820584
 30
0.0
 11
2061.861836141443
 21
1222.314321820584
 31
0.0
 12
2060.893459156831
 22
1231.497207019492
 32
0.0
 13
2061.861836141443
 23
1231.497207019493
 33
0.0
  0
SOLID
  5
1335
330
1F
100
AcDbEntity
  8
LOGO
 62
     2
100
AcDbTrace
 10
2060.49275143906
 20
1231.497207019493
 30
0.0
 11
2060.893459156831
 21
1231.497207019492
 31
0.0
 12
2060.49275143906
 22
1222.314321820584
 32
0.0
 13
2060.893459156831
 23
1222.314321820584
 33
0.0
  0
POLYLINE
  5
1336
330
1F
100
AcDbEntity
  8
LOGO
 62
     5
100
AcDb2dPolyline
 66
     1
 10
0.0
 20
0.0
 30
0.0
 40
0.3344582313122171
 41
0.3344582313122171
  0
VERTEX
  5
1337
330
1336
100
AcDbEntity
  8
LOGO
 62
     5
100
AcDbVertex
100
AcDb2dVertex
 10
2056.909423957217
 20
1219.97686013359
 30
0.0
 42
1.0
  0
VERTEX
  5
1338
330
1336
100
AcDbEntity
  8
LOGO
 62
     5
100
AcDbVertex
100
AcDb2dVertex
 10
2055.90604926328
 20
1219.97686013359
 30
0.0
 42
1.0
  0
SEQEND
  5
1339
330
1336
100
AcDbEntity
  8
LOGO
 62
     5
  0
POLYLINE
  5
133A
330
1F
100
AcDbEntity
  8
LOGO
 62
     5
100
AcDb2dPolyline
 66
     1
 10
0.0
 20
0.0
 30
0.0
 40
0.3344582313122171
 41
0.3344582313122171
  0
VERTEX
  5
133B
330
133A
100
AcDbEntity
  8
LOGO
 62
     5
100
AcDbVertex
100
AcDb2dVertex
 10
2057.911193251643
 20
1219.97686013359
 30
0.0
 42
1.0
  0
VERTEX
  5
133C
330
133A
100
AcDbEntity
  8
LOGO
 62
     5
100
AcDbVertex
100
AcDb2dVertex
 10
2056.907818557707
 20
1219.97686013359
 30
0.0
 42
1.0
  0
SEQEND
  5
133D
330
133A
100
AcDbEntity
  8
LOGO
 62
     5
  0
POLYLINE
  5
133E
330
1F
100
AcDbEntity
  8
LOGO
 62
     5
100
AcDb2dPolyline
 66
     1
 10
0.0
 20
0.0
 30
0.0
 40
0.3344582313122171
 41
0.3344582313122171
  0
VERTEX
  5
133F
330
133E
100
AcDbEntity
  8
LOGO
 62
     5
100
AcDbVertex
100
AcDb2dVertex
 10
2053.124939916733
 20
1219.97686013359
 30
0.0
 42
1.0
  0
VERTEX
  5
1340
330
133E
100
AcDbEntity
  8
LOGO
 62
     5
100
AcDbVertex
100
AcDb2dVertex
 10
2052.121565222797
 20
1219.97686013359
 30
0.0
 42
1.0
  0
SEQEND
  5
1341
330
133E
100
AcDbEntity
  8
LOGO
 62
     5
  0
SOLID
  5
1342
330
1F
100
AcDbEntity
  8
LOGO
 62
     5
100
AcDbTrace
 10
2051.955406373481
 20
1220.644706329873
 30
0.0
 11
2052.289329471622
 21
1220.644706329873
 31
0.0
 12
2051.955406373481
 22
1218.975090839164
 32
0.0
 13
2052.289329471622
 23
1218.975090839164
 33
0.0
  0
SOLID
  5
1343
330
1F
100
AcDbEntity
  8
LOGO
 62
     5
100
AcDbTrace
 10
2052.957175667907
 20
1219.97686013359
 30
0.0
 11
2053.291098766049
 21
1219.97686013359
 31
0.0
 12
2052.957175667907
 22
1218.975090839164
 32
0.0
 13
2053.291098766049
 23
1218.975090839164
 33
0.0
  0
POLYLINE
  5
1344
330
1F
100
AcDbEntity
  8
LOGO
 62
     5
100
AcDb2dPolyline
 66
     1
 10
0.0
 20
0.0
 30
0.0
 70
     1
 40
0.3344582313122171
 41
0.3344582313122171
  0
VERTEX
  5
1345
330
1344
100
AcDbEntity
  8
LOGO
 62
     5
100
AcDbVertex
100
AcDb2dVertex
 10
2053.846611519691
 20
1219.809898584519
 30
0.0
 42
1.0
  0
VERTEX
  5
1346
330
1344
100
AcDbEntity
  8
LOGO
 62
     5
100
AcDbVertex
100
AcDb2dVertex
 10
2055.184444444941
 20
1219.809898584519
 30
0.0
 42
1.0
  0
SEQEND
  5
1347
330
1344
100
AcDbEntity
  8
LOGO
 62
     5
  0
SOLID
  5
1348
330
1F
100
AcDbEntity
  8
LOGO
 62
     5
100
AcDbTrace
 10
2055.01637923722
 20
1221.145590977087
 30
0.0
 11
2055.350302335362
 21
1221.145590977087
 31
0.0
 12
2055.01637923722
 22
1218.975090839164
 32
0.0
 13
2055.350302335362
 23
1218.975090839164
 33
0.0
  0
SOLID
  5
1349
330
1F
100
AcDbEntity
  8
LOGO
 62
     5
100
AcDbTrace
 10
2055.739890413965
 20
1220.644706329873
 30
0.0
 11
2056.073813512107
 21
1220.644706329873
 31
0.0
 12
2055.739890413965
 22
1218.975090839164
 32
0.0
 13
2056.073813512107
 23
1218.975090839164
 33
0.0
  0
SOLID
  5
134A
330
1F
100
AcDbEntity
  8
LOGO
 62
     5
100
AcDbTrace
 10
2056.741659708391
 20
1219.97686013359
 30
0.0
 11
2057.075582806533
 21
1219.97686013359
 31
0.0
 12
2056.741659708391
 22
1218.975090839164
 32
0.0
 13
2057.075582806533
 23
1218.975090839164
 33
0.0
  0
SOLID
  5
134B
330
1F
100
AcDbEntity
  8
LOGO
 62
     5
100
AcDbTrace
 10
2057.743429002817
 20
1219.97686013359
 30
0.0
 11
2058.077352100959
 21
1219.97686013359
 31
0.0
 12
2057.743429002817
 22
1218.975090839163
 32
0.0
 13
2058.077352100959
 23
1218.975090839163
 33
0.0
  0
SOLID
  5
134C
330
1F
100
AcDbEntity
  8
LOGO
 62
     5
100
AcDbTrace
 10
2051.231895196736
 20
1220.878452498573
 30
0.0
 11
2051.565818294879
 21
1220.878452498573
 31
0.0
 12
2051.231895196736
 22
1221.145590977087
 32
0.0
 13
2051.565818294879
 23
1221.145590977087
 33
0.0
  0
SOLID
  5
134D
330
1F
100
AcDbEntity
  8
LOGO
 62
     5
100
AcDbTrace
 10
2051.231895196736
 20
1220.644706329873
 30
0.0
 11
2051.565818294879
 21
1220.644706329873
 31
0.0
 12
2051.231895196736
 22
1218.975090839163
 32
0.0
 13
2051.565818294879
 23
1218.975090839164
 33
0.0
  0
SOLID
  5
134E
330
1F
100
AcDbEntity
  8
LOGO
 62
     5
100
AcDbTrace
 10
2054.515527982316
 20
1222.314321820584
 30
0.0
 11
2055.483904966929
 21
1222.314321820584
 31
0.0
 12
2054.515527982316
 22
1227.211860593335
 32
0.0
 13
2055.483904966929
 23
1230.76257620358
 33
0.0
  0
SOLID
  5
134F
330
1F
100
AcDbEntity
  8
LOGO
 62
     5
100
AcDbTrace
 10
2055.8846126847
 20
1231.497207019492
 30
0.0
 11
2056.852989669312
 21
1231.497207019493
 31
0.0
 12
2055.8846126847
 22
1223.048952636497
 32
0.0
 13
2056.852989669312
 23
1226.599668246742
 33
0.0
  0
SOLID
  5
1350
330
1F
100
AcDbEntity
  8
LOGO
 62
     2
100
AcDbTrace
 10
2055.483904966929
 20
1231.497207019492
 30
0.0
 11
2055.8846126847
 21
1231.497207019492
 31
0.0
 12
2055.483904966929
 22
1222.314321820584
 32
0.0
 13
2055.8846126847
 23
1222.314321820584
 33
0.0
  0
SOLID
  5
1351
330
1F
100
AcDbEntity
  8
LOGO
 62
     5
100
AcDbTrace
 10
2055.8846126847
 20
1223.048952636497
 30
0.0
 11
2056.852989669312
 21
1226.599668246742
 31
0.0
 12
2060.49275143906
 22
1231.497207019493
 32
0.0
 13
2059.524374454448
 23
1231.497207019493
 33
0.0
  0
SOLID
  5
1352
330
1F
100
AcDbEntity
  8
LOGO
 62
     5
100
AcDbTrace
 10
2055.8846126847
 20
1222.314321820584
 30
0.0
 11
2056.852989669312
 21
1222.314321820584
 31
0.0
 12
2060.49275143906
 22
1230.76257620358
 32
0.0
 13
2059.524374454448
 23
1227.211860593335
 33
0.0
  0
SOLID
  5
1353
330
1F
100
AcDbEntity
  8
LOGO
 62
     2
100
AcDbTrace
 10
2055.483904966929
 20
1222.314321820584
 30
0.0
 11
2055.8846126847
 21
1222.314321820584
 31
0.0
 12
2060.49275143906
 22
1231.497207019493
 32
0.0
 13
2060.893459156831
 23
1231.497207019492
 33
0.0
  0
TEXT
  5
1354
330
1F
100
AcDbEntity
  8
0
100
AcDbText
 10
2097.44828157958
 20
1210.823975819788
 30
0.0
 40
1.867588799999999
  1
10511211
 41
0.8
  7
CHINESET
 72
     1
 11
2102.03721405958
 21
1210.823975819788
 31
0.0
100
AcDbText
  0
LINE
  5
1355
330
1F
100
AcDbEntity
  8
LOGO
 62
     1
100
AcDbLine
 10
2107.799496311269
 20
1214.111828522813
 30
0.0
 11
2107.799496311269
 21
1209.632477210595
 31
0.0
  0
LINE
  5
1356
330
1F
100
AcDbEntity
  8
LOGO
 62
     1
100
AcDbLine
 10
2107.799496311269
 20
1214.111828522813
 30
0.0
 11
2096.4558465073
 21
1214.111828522813
 31
0.0
  0
LWPOLYLINE
  5
1357
330
1F
100
AcDbEntity
  8
0
 62
     1
100
AcDbPolyline
 90
        4
 70
     1
 43
0.0
 10
2047.182982072912
 20
1232.029233771682
 10
2271.182982072912
 20
1232.029233771682
 10
2271.182982072912
 20
1209.632477210596
 10
2047.182982072912
 20
1209.632477210596
1001
GENIUS_GENREC_14
1002
{
1000
PYDIR
1011
2047.182982072912
1021
1209.632477210595
1031
0.0
1002
}
1002
{
1000
PXDIR
1011
2271.182982072912
1021
1232.029233771682
1031
0.0
1002
}
1002
{
1000
PORI
1011
2047.182982072912
1021
1232.029233771682
1031
0.0
1002
}
1002
{
1000
PINS
1011
2047.182982072912
1021
1232.029233771682
1031
0.0
1002
}
1002
{
1000
PINS2
1011
2271.182982072912
1021
1209.632477210596
1031
0.0
1002
}
1002
{
1000
C
1070
     1
1002
}
1001
GENIUS_GENOBJ-N-REC_13
1002
{
1000
OWNER
1000
GEN
1002
}
1001
GENIUS_GENODEF_13
1002
{
1000
HIER
1070
     0
1002
}
1002
{
1000
MANEDIT
1070
     0
1002
}
1002
{
1000
NOSEL
1070
     0
1002
}
1002
{
1000
BEHIND
1070
     0
1002
}
1002
{
1000
OTHER
1070
     0
1002
}
1002
{
1000
REACTOR
1002
}
  0
LINE
  5
1358
330
1F
100
AcDbEntity
  8
LOGO
  6
Continuous
 62
     7
100
AcDbLine
 10
2145.945000784857
 20
1226.406244776031
 30
0.0
 11
2148.91187792767
 21
1226.406244776031
 31
0.0
  0
LINE
  5
1364
330
1F
100
AcDbEntity
  8
LOGO
 62
     6
100
AcDbLine
 10
2161.613932961648
 20
1219.711017663084
 30
0.0
 11
2161.613932961648
 21
1211.498873590686
 31
0.0
  0
LINE
  5
1365
330
1F
100
AcDbEntity
  8
LOGO
 62
     6
100
AcDbLine
 10
2146.682761920924
 20
1219.711017663084
 30
0.0
 11
2146.682761920924
 21
1211.498873590686
 31
0.0
  0
LINE
  5
1366
330
1F
100
AcDbEntity
  8
LOGO
 62
     6
100
AcDbLine
 10
2161.613932961648
 20
1211.498873590686
 30
0.0
 11
2146.682761920924
 21
1211.498873590686
 31
0.0
  0
LINE
  5
1367
330
1F
100
AcDbEntity
  8
LOGO
 62
     6
100
AcDbLine
 10
2160.83347437038
 20
1229.789558115573
 30
0.0
 11
2150.104481831407
 21
1229.789558115573
 31
0.0
  0
LINE
  5
1368
330
1F
100
AcDbEntity
  8
LOGO
 62
     6
100
AcDbLine
 10
2160.83347437038
 20
1223.070531147247
 30
0.0
 11
2150.104481831407
 21
1223.070531147247
 31
0.0
  0
LINE
  5
1369
330
1F
100
AcDbEntity
  8
LOGO
 62
     6
100
AcDbLine
 10
2150.104481831407
 20
1229.789558115573
 30
0.0
 11
2150.104481831407
 21
1223.070531147247
 31
0.0
  0
LINE
  5
136A
330
1F
100
AcDbEntity
  8
LOGO
 62
     6
100
AcDbLine
 10
2160.83347437038
 20
1229.789558115573
 30
0.0
 11
2160.83347437038
 21
1223.070531147247
 31
0.0
  0
LINE
  5
136B
330
1F
100
AcDbEntity
  8
LOGO
 62
     6
100
AcDbLine
 10
2155.266834620209
 20
1223.070531147247
 30
0.0
 11
2155.266834620209
 21
1219.711017663084
 31
0.0
  0
TEXT
  5
136C
330
1F
100
AcDbEntity
  8
LOGO
  6
Continuous
 62
     7
100
AcDbText
 10
2152.956300101812
 20
1224.473118203668
 30
0.0
 40
3.732792760180994
  1
12
  7
CHINESET
100
AcDbText
  0
LINE
  5
136D
330
1F
100
AcDbEntity
  8
LOGO
 62
     6
100
AcDbLine
 10
2161.613932961648
 20
1219.711017663084
 30
0.0
 11
2146.682761920924
 21
1219.711017663084
 31
0.0
  0
TEXT
  5
137B
330
1F
100
AcDbEntity
  8
LOGO
  6
Continuous
 62
     6
100
AcDbText
 10
2147.707755543825
 20
1212.658000312249
 30
146.7846528512557
 40
1.866396380090497
  1
Tube I.D.
  7
CHINESET
100
AcDbText
  0
TEXT
  5
137C
330
1F
100
AcDbEntity
  8
LOGO
 62
     6
100
AcDbText
 10
2150.047543501406
 20
1215.772358246408
 30
146.7846528512557
 40
2.986234208144795
  1
內徑
  7
CHINESET
100
AcDbText
  0
LINE
  5
13A3
330
1F
100
AcDbEntity
  8
AM_7
  6
AM_ISO08W050x2
100
AcDbLine
 10
2122.072331309086
 20
1325.264688043634
 30
0.0
 11
2122.072331309086
 21
1331.680071120739
 31
0.0
  0
LINE
  5
13A4
330
1F
100
AcDbEntity
  8
AM_7
  6
AM_ISO08W050x2
100
AcDbLine
 10
2128.072331309086
 20
1325.264688043634
 30
0.0
 11
2128.072331309086
 21
1331.680071120739
 31
0.0
  0
LINE
  5
13A5
330
1F
100
AcDbEntity
  8
AM_7
  6
AM_ISO08W050x2
100
AcDbLine
 10
2122.072331309086
 20
1354.884306502192
 30
0.0
 11
2122.072331309086
 21
1348.468923425086
 31
0.0
  0
LINE
  5
13A6
330
1F
100
AcDbEntity
  8
AM_7
  6
AM_ISO08W050x2
100
AcDbLine
 10
2128.072331309086
 20
1354.884306502192
 30
0.0
 11
2128.072331309086
 21
1348.468923425086
 31
0.0
  0
ENDSEC
  0
SECTION
  2
OBJECTS
  0
DICTIONARY
  5
C
330
0
100
AcDbDictionary
281
     1
  3
ACAD_COLOR
350
BE
  3
ACAD_GROUP
350
D
  3
ACAD_LAYOUT
350
1A
  3
ACAD_MATERIAL
350
BD
  3
ACAD_MLINESTYLE
350
17
  3
ACAD_PLOTSETTINGS
350
19
  3
ACAD_PLOTSTYLENAME
350
E
  3
ACAD_TABLESTYLE
350
11A
  3
ACDBHEADERROUNDTRIPXREC
350
1481
  3
AcDbVariableDictionary
350
94
  3
AcmDictionary
350
5B
  3
AMG
350
41
  3
AMGSNAPSETTINGS
350
1B8
  3
DWGPROPS
350
1480
  0
DICTIONARY
  5
3F9
330
2
100
AcDbDictionary
280
     1
281
     1
  3
ACAD_LAYERFILTERS
360
5B7
  3
ACAD_LAYERSTATES
360
76B
  3
ACLYDICTIONARY
360
5B6
  3
AMLAYER_GROUPCOLORS
360
B73
  0
DICTIONARY
  5
8F
330
1F
100
AcDbDictionary
280
     1
281
     1
  3
ACAD_SORTENTS
360
BA5
  0
DICTIONARY
  5
B5E
330
B51
100
AcDbDictionary
280
     1
281
     1
  3
ACAD_DIMASSOC
360
B5F
  0
DICTIONARY
  5
C56
330
C49
100
AcDbDictionary
280
     1
281
     1
  3
ACAD_DIMASSOC
360
C57
  0
DICTIONARY
  5
C7C
330
C6F
100
AcDbDictionary
280
     1
281
     1
  3
ACAD_DIMASSOC
360
C7D
  0
DICTIONARY
  5
CA2
330
C95
100
AcDbDictionary
280
     1
281
     1
  3
ACAD_DIMASSOC
360
CA3
  0
DICTIONARY
  5
CC8
330
CBB
100
AcDbDictionary
280
     1
281
     1
  3
ACAD_DIMASSOC
360
CC9
  0
DICTIONARY
  5
CEE
330
CE1
100
AcDbDictionary
280
     1
281
     1
  3
ACAD_DIMASSOC
360
CEF
  0
DICTIONARY
  5
D14
330
D07
100
AcDbDictionary
280
     1
281
     1
  3
ACAD_DIMASSOC
360
D15
  0
DICTIONARY
  5
D3A
330
D2D
100
AcDbDictionary
280
     1
281
     1
  3
ACAD_DIMASSOC
360
D3B
  0
DICTIONARY
  5
D60
330
D53
100
AcDbDictionary
280
     1
281
     1
  3
ACAD_DIMASSOC
360
D61
  0
DICTIONARY
  5
D86
330
D79
100
AcDbDictionary
280
     1
281
     1
  3
ACAD_DIMASSOC
360
D87
  0
DICTIONARY
  5
DCC
330
DBF
100
AcDbDictionary
280
     1
281
     1
  3
ACAD_DIMASSOC
360
DCD
  0
DICTIONARY
  5
E2A
330
E1B
100
AcDbDictionary
280
     1
281
     1
  3
ACAD_DIMASSOC
360
E2B
  0
DICTIONARY
  5
E54
330
E45
100
AcDbDictionary
280
     1
281
     1
  3
ACAD_DIMASSOC
360
E55
  0
DICTIONARY
  5
E7C
330
E6F
100
AcDbDictionary
280
     1
281
     1
  3
ACAD_DIMASSOC
360
E7D
  0
DICTIONARY
  5
EA4
330
E95
100
AcDbDictionary
280
     1
281
     1
  3
ACAD_DIMASSOC
360
EA5
  0
DICTIONARY
  5
ECC
330
EBF
100
AcDbDictionary
280
     1
281
     1
  3
ACAD_DIMASSOC
360
ECD
  0
DICTIONARY
  5
EF8
330
EE9
100
AcDbDictionary
280
     1
281
     1
  3
ACAD_DIMASSOC
360
EF9
  0
DICTIONARY
  5
F28
330
F19
100
AcDbDictionary
280
     1
281
     1
  3
ACAD_DIMASSOC
360
F29
  0
DICTIONARY
  5
F72
330
F63
100
AcDbDictionary
280
     1
281
     1
  3
ACAD_DIMASSOC
360
F73
  0
DICTIONARY
  5
BE
102
{ACAD_REACTORS
330
C
102
}
330
C
100
AcDbDictionary
281
     1
  0
DICTIONARY
  5
D
102
{ACAD_REACTORS
330
C
102
}
330
C
100
AcDbDictionary
281
     1
  0
DICTIONARY
  5
1A
102
{ACAD_REACTORS
330
C
102
}
330
C
100
AcDbDictionary
281
     1
  3
Model
350
22
  3
配置1
350
1E
  3
配置2
350
26
  0
DICTIONARY
  5
BD
102
{ACAD_REACTORS
330
C
102
}
330
C
100
AcDbDictionary
281
     1
  0
DICTIONARY
  5
17
102
{ACAD_REACTORS
330
C
102
}
330
C
100
AcDbDictionary
281
     1
  3
Standard
350
18
  0
DICTIONARY
  5
19
102
{ACAD_REACTORS
330
C
102
}
330
C
100
AcDbDictionary
281
     1
  0
ACDBDICTIONARYWDFLT
  5
E
102
{ACAD_REACTORS
330
C
102
}
330
C
100
AcDbDictionary
281
     1
  3
Normal
350
F
100
AcDbDictionaryWithDefault
340
F
  0
DICTIONARY
  5
11A
102
{ACAD_REACTORS
330
C
102
}
330
C
100
AcDbDictionary
281
     1
  3
Standard
350
11B
  0
DICTIONARY
  5
1481
102
{ACAD_REACTORS
330
C
102
}
330
C
100
AcDbDictionary
281
     1
  0
DICTIONARY
  5
94
102
{ACAD_REACTORS
330
C
102
}
330
C
100
AcDbDictionary
281
     1
  3
CTABLESTYLE
350
138
  3
DIMASSOC
350
96
  3
INDEXCTL
350
95
  3
PROJECTNAME
350
147E
  0
DICTIONARY
  5
5B
102
{ACAD_REACTORS
330
C
102
}
330
C
100
AcDbDictionary
281
     1
  3
AcmBOM
350
1B5
  3
AcmStdDictionary
350
61
  3
AMDTSECTSYM_ARROWCOLOR
350
123
  0
DICTIONARY
  5
41
102
{ACAD_REACTORS
330
C
102
}
330
C
100
AcDbDictionary
281
     1
  0
DICTIONARY
  5
1B8
102
{ACAD_REACTORS
330
C
102
}
330
C
100
AcDbDictionary
281
     1
  0
XRECORD
  5
1480
102
{ACAD_REACTORS
330
C
102
}
330
C
100
AcDbXrecord
280
     1
  1
DWGPROPS COOKIE
  2

  3

  4

  6

  7

  8

  9

300
AmdtFileType=84
301
=
302
=
303
=
304
=
305
=
306
=
307
=
308
=
309
=
 40
0.0757588194444445
 41
2453696.549700336
 42
2453696.632228912
  1

 90
        1
  0
DICTIONARY
  5
5B7
102
{ACAD_REACTORS
330
3F9
102
}
330
3F9
100
AcDbDictionary
281
     1
  0
DICTIONARY
  5
76B
102
{ACAD_REACTORS
330
3F9
102
}
330
3F9
100
AcDbDictionary
281
     1
  0
DICTIONARY
  5
5B6
102
{ACAD_REACTORS
330
3F9
102
}
330
3F9
100
AcDbDictionary
281
     1
1001
ACAD
1000
<All
  0
DICTIONARY
  5
B73
102
{ACAD_REACTORS
330
3F9
102
}
330
3F9
100
AcDbDictionary
280
     1
281
     1
  0
SORTENTSTABLE
  5
BA5
102
{ACAD_REACTORS
330
8F
102
}
330
8F
100
AcDbSortentsTable
330
1F
331
930
  5
930
331
AAA
  5
AAA
331
A73
  5
A73
331
A24
  5
A24
331
B51
  5
B51
331
9ED
  5
9ED
331
977
  5
977
331
938
  5
938
331
9AE
  5
9AE
331
A7B
  5
A7B
331
AB2
  5
AB2
331
97F
  5
97F
331
9B6
  5
9B6
331
A83
  5
A83
331
ABA
  5
ABA
331
9BE
  5
9BE
331
948
  5
948
331
987
  5
987
331
9FD
  5
9FD
331
AC2
  5
AC2
331
9C6
  5
9C6
331
ACA
  5
ACA
331
A05
  5
A05
331
A8B
  5
A8B
331
98F
  5
98F
331
958
  5
958
331
9CE
  5
9CE
331
A5C
  5
A5C
331
A0D
  5
A0D
331
A93
  5
A93
331
960
  5
960
331
997
  5
997
331
9D6
  5
9D6
331
A9B
  5
A9B
331
A15
  5
A15
331
A64
  5
A64
331
9DE
  5
9DE
331
968
  5
968
331
99F
  5
99F
331
A6C
  5
A6C
331
A1D
  5
A1D
331
AA3
  5
AA3
331
9E6
  5
9E6
331
9A7
  5
9A7
331
931
  5
931
331
970
  5
970
331
A74
  5
A74
331
A25
  5
A25
331
AAB
  5
AAB
331
9AF
  5
9AF
331
939
  5
939
331
978
  5
978
331
9EE
  5
9EE
331
A7C
  5
A7C
331
AB3
  5
AB3
331
980
  5
980
331
9B7
  5
9B7
331
ABB
  5
ABB
331
A84
  5
A84
331
9FE
  5
9FE
331
9BF
  5
9BF
331
949
  5
949
331
AC3
  5
AC3
331
9C7
  5
9C7
331
988
  5
988
331
A06
  5
A06
331
A8C
  5
A8C
331
ACB
  5
ACB
331
9CF
  5
9CF
331
959
  5
959
331
A5D
  5
A5D
331
A0E
  5
A0E
331
A94
  5
A94
331
998
  5
998
331
961
  5
961
331
9D7
  5
9D7
331
B2B
  5
B2B
331
A65
  5
A65
331
A16
  5
A16
331
A9C
  5
A9C
331
9A0
  5
9A0
331
92A
  5
92A
331
969
  5
969
331
9DF
  5
9DF
331
A6D
  5
A6D
331
A1E
  5
A1E
331
AA4
  5
AA4
331
9E7
  5
9E7
331
971
  5
971
331
932
  5
932
331
9A8
  5
9A8
331
AAC
  5
AAC
331
A26
  5
A26
331
A75
  5
A75
331
93A
  5
93A
331
979
  5
979
331
9B0
  5
9B0
331
A7D
  5
A7D
331
AB4
  5
AB4
331
9F7
  5
9F7
331
981
  5
981
331
9B8
  5
9B8
331
A85
  5
A85
331
ABC
  5
ABC
331
9C0
  5
9C0
331
94A
  5
94A
331
9FF
  5
9FF
331
AC4
  5
AC4
331
9C8
  5
9C8
331
989
  5
989
331
ACC
  5
ACC
331
9D0
  5
9D0
331
95A
  5
95A
331
A07
  5
A07
331
A8D
  5
A8D
331
A95
  5
A95
331
962
  5
962
331
923
  5
923
331
999
  5
999
331
9D8
  5
9D8
331
A0F
  5
A0F
331
A5E
  5
A5E
331
A9D
  5
A9D
331
9E0
  5
9E0
331
92B
  5
92B
331
96A
  5
96A
331
9A1
  5
9A1
331
A17
  5
A17
331
A66
  5
A66
331
A6E
  5
A6E
331
A1F
  5
A1F
331
AA5
  5
AA5
331
9A9
  5
9A9
331
933
  5
933
331
972
  5
972
331
9E8
  5
9E8
331
97A
  5
97A
331
AAD
  5
AAD
331
982
  5
982
331
943
  5
943
331
9B9
  5
9B9
331
9F8
  5
9F8
331
A3F
  5
A3F
331
A7E
  5
A7E
331
AB5
  5
AB5
331
ABD
  5
ABD
331
94B
  5
94B
331
9C1
  5
9C1
331
A86
  5
A86
331
AC5
  5
AC5
331
98A
  5
98A
331
9C9
  5
9C9
331
A00
  5
A00
331
A8E
  5
A8E
331
9D1
  5
9D1
331
95B
  5
95B
331
A08
  5
A08
331
A57
  5
A57
331
ACD
  5
ACD
331
A5F
  5
A5F
331
99A
  5
99A
331
924
  5
924
331
963
  5
963
331
9D9
  5
9D9
331
A10
  5
A10
331
A96
  5
A96
331
A67
  5
A67
331
9A2
  5
9A2
331
96B
  5
96B
331
9E1
  5
9E1
331
A18
  5
A18
331
A9E
  5
A9E
331
AA6
  5
AA6
331
A6F
  5
A6F
331
A20
  5
A20
331
973
  5
973
331
934
  5
934
331
9AA
  5
9AA
331
9E9
  5
9E9
331
AAE
  5
AAE
331
93C
  5
93C
331
97B
  5
97B
331
A7F
  5
A7F
331
A40
  5
A40
331
AB6
  5
AB6
331
9BA
  5
9BA
331
944
  5
944
331
983
  5
983
331
9F9
  5
9F9
331
A87
  5
A87
331
ABE
  5
ABE
331
9C2
  5
9C2
331
94C
  5
94C
331
AC6
  5
AC6
331
A01
  5
A01
331
9CA
  5
9CA
331
954
  5
954
331
98B
  5
98B
331
ACE
  5
ACE
331
A58
  5
A58
331
A09
  5
A09
331
A8F
  5
A8F
331
95C
  5
95C
331
9D2
  5
9D2
331
A97
  5
A97
331
A60
  5
A60
331
A11
  5
A11
331
964
  5
964
331
925
  5
925
331
99B
  5
99B
331
9DA
  5
9DA
331
A19
  5
A19
331
A9F
  5
A9F
331
9E2
  5
9E2
331
92D
  5
92D
331
96C
  5
96C
331
9A3
  5
9A3
331
AA7
  5
AA7
331
A70
  5
A70
331
A21
  5
A21
331
9AB
  5
9AB
331
935
  5
935
331
974
  5
974
331
9EA
  5
9EA
331
AAF
  5
AAF
331
9B3
  5
9B3
331
97C
  5
97C
331
AB7
  5
AB7
331
A41
  5
A41
331
A80
  5
A80
331
984
  5
984
331
945
  5
945
331
9FA
  5
9FA
331
ABF
  5
ABF
331
A49
  5
A49
331
94D
  5
94D
331
9C3
  5
9C3
331
A02
  5
A02
331
A88
  5
A88
331
9CB
  5
9CB
331
955
  5
955
331
98C
  5
98C
331
A59
  5
A59
331
A0A
  5
A0A
331
A90
  5
A90
331
ACF
  5
ACF
331
9D3
  5
9D3
331
95D
  5
95D
331
994
  5
994
331
A12
  5
A12
331
A98
  5
A98
331
99C
  5
99C
331
926
  5
926
331
965
  5
965
331
9DB
  5
9DB
331
A69
  5
A69
331
A1A
  5
A1A
331
AA0
  5
AA0
331
96D
  5
96D
331
92E
  5
92E
331
9A4
  5
9A4
331
9E3
  5
9E3
331
AA8
  5
AA8
331
A71
  5
A71
331
A22
  5
A22
331
975
  5
975
331
936
  5
936
331
9AC
  5
9AC
331
9EB
  5
9EB
331
AB0
  5
AB0
331
97D
  5
97D
331
9B4
  5
9B4
331
A81
  5
A81
331
A42
  5
A42
331
AB8
  5
AB8
331
9BC
  5
9BC
331
946
  5
946
331
985
  5
985
331
9FB
  5
9FB
331
A4A
  5
A4A
331
AC0
  5
AC0
331
9C4
  5
9C4
331
94E
  5
94E
331
A03
  5
A03
331
A89
  5
A89
331
9CC
  5
9CC
331
956
  5
956
331
98D
  5
98D
331
AD0
  5
AD0
331
A5A
  5
A5A
331
A0B
  5
A0B
331
A91
  5
A91
331
95E
  5
95E
331
995
  5
995
331
9D4
  5
9D4
331
A99
  5
A99
331
A62
  5
A62
331
A13
  5
A13
331
9DC
  5
9DC
331
966
  5
966
331
927
  5
927
331
99D
  5
99D
331
A1B
  5
A1B
331
AA1
  5
AA1
331
9E4
  5
9E4
331
92F
  5
92F
331
96E
  5
96E
331
9A5
  5
9A5
331
A72
  5
A72
331
A23
  5
A23
331
AA9
  5
AA9
331
9AD
  5
9AD
331
937
  5
937
331
976
  5
976
331
9EC
  5
9EC
331
A7A
  5
A7A
331
AB1
  5
AB1
331
97E
  5
97E
331
93F
  5
93F
331
9B5
  5
9B5
331
AB9
  5
AB9
331
A43
  5
A43
331
A82
  5
A82
331
986
  5
986
331
947
  5
947
331
9BD
  5
9BD
331
9FC
  5
9FC
331
AC1
  5
AC1
331
A4B
  5
A4B
331
9C5
  5
9C5
331
A04
  5
A04
331
A8A
  5
A8A
331
9CD
  5
9CD
331
957
  5
957
331
98E
  5
98E
331
A5B
  5
A5B
331
A0C
  5
A0C
331
A92
  5
A92
331
9D5
  5
9D5
331
95F
  5
95F
331
996
  5
996
331
A63
  5
A63
331
A14
  5
A14
331
A9A
  5
A9A
331
99E
  5
99E
331
967
  5
967
331
9DD
  5
9DD
331
A6B
  5
A6B
331
A1C
  5
A1C
331
AA2
  5
AA2
331
96F
  5
96F
331
9A6
  5
9A6
331
9E5
  5
9E5
  0
DIMASSOC
  5
B5F
102
{ACAD_REACTORS
330
B5E
102
}
330
B5E
100
AcDbDimAssoc
330
B51
 90
        2
 70
     0
 71
     0
  1
AcDbOsnapPointRef
 72
    13
331
A6B
 73
     0
 91
        0
 40
0.0
 10
0.0
 20
0.0
 30
2.000000000000000E+50
 75
     0
  0
DIMASSOC
  5
C57
102
{ACAD_REACTORS
330
C56
102
}
330
C56
100
AcDbDimAssoc
330
C49
 90
        3
 70
     0
 71
     0
  1
AcDbOsnapPointRef
 72
     1
331
A4B
 73
     0
 91
        0
 40
0.0
 10
0.0
 20
0.0
 30
2.000000000000000E+50
 75
     0
  1
AcDbOsnapPointRef
 72
     1
331
C29
 73
     0
 91
        0
 40
0.0
 10
0.0
 20
0.0
 30
2.000000000000000E+50
 75
     0
  0
DIMASSOC
  5
C7D
102
{ACAD_REACTORS
330
C7C
102
}
330
C7C
100
AcDbDimAssoc
330
C6F
 90
        3
 70
     0
 71
     0
  1
AcDbOsnapPointRef
 72
     1
331
C2C
 73
     0
 91
        0
 40
0.0
 10
0.0
 20
0.0
 30
2.000000000000000E+50
 75
     0
  1
AcDbOsnapPointRef
 72
     1
331
C28
 73
     0
 91
        0
 40
0.0
 10
0.0
 20
0.0
 30
2.000000000000000E+50
 75
     0
  0
DIMASSOC
  5
CA3
102
{ACAD_REACTORS
330
CA2
102
}
330
CA2
100
AcDbDimAssoc
330
C95
 90
        3
 70
     0
 71
     0
  1
AcDbOsnapPointRef
 72
    13
331
A49
 73
     0
 91
        0
 40
0.0
 10
0.0
 20
0.0
 30
2.000000000000000E+50
 75
     0
  1
AcDbOsnapPointRef
 72
     1
331
A43
 73
     0
 91
        0
 40
0.0
 10
0.0
 20
0.0
 30
2.000000000000000E+50
 75
     0
  0
DIMASSOC
  5
CC9
102
{ACAD_REACTORS
330
CC8
102
}
330
CC8
100
AcDbDimAssoc
330
CBB
 90
        3
 70
     0
 71
     0
  1
AcDbOsnapPointRef
 72
     1
331
A43
 73
     0
 91
        0
 40
0.0
 10
0.0
 20
0.0
 30
2.000000000000000E+50
 75
     0
  1
AcDbOsnapPointRef
 72
    13
331
A58
 73
     0
 91
        0
 40
0.0
 10
0.0
 20
0.0
 30
2.000000000000000E+50
 75
     0
  0
DIMASSOC
  5
CEF
102
{ACAD_REACTORS
330
CEE
102
}
330
CEE
100
AcDbDimAssoc
330
CE1
 90
        3
 70
     0
 71
     0
  1
AcDbOsnapPointRef
 72
    13
331
A49
 73
     0
 91
        0
 40
0.0
 10
0.0
 20
0.0
 30
2.000000000000000E+50
 75
     0
  1
AcDbOsnapPointRef
 72
    13
331
A58
 73
     0
 91
        0
 40
0.0
 10
0.0
 20
0.0
 30
2.000000000000000E+50
 75
     0
  0
DIMASSOC
  5
D15
102
{ACAD_REACTORS
330
D14
102
}
330
D14
100
AcDbDimAssoc
330
D07
 90
        3
 70
     0
 71
     0
  1
AcDbOsnapPointRef
 72
    13
331
BF6
 73
     0
 91
        0
 40
0.0
 10
0.0
 20
0.0
 30
2.000000000000000E+50
 75
     0
  1
AcDbOsnapPointRef
 72
    13
331
BFA
 73
     0
 91
        0
 40
0.0
 10
0.0
 20
0.0
 30
2.000000000000000E+50
 75
     0
  0
DIMASSOC
  5
D3B
102
{ACAD_REACTORS
330
D3A
102
}
330
D3A
100
AcDbDimAssoc
330
D2D
 90
        3
 70
     0
 71
     0
  1
AcDbOsnapPointRef
 72
     1
331
9A2
 73
     0
 91
        0
 40
0.0
 10
0.0
 20
0.0
 30
2.000000000000000E+50
 75
     0
  1
AcDbOsnapPointRef
 72
    13
331
9AF
 73
     0
 91
        0
 40
0.0
 10
0.0
 20
0.0
 30
2.000000000000000E+50
 75
     0
  0
DIMASSOC
  5
D61
102
{ACAD_REACTORS
330
D60
102
}
330
D60
100
AcDbDimAssoc
330
D53
 90
        3
 70
     0
 71
     0
  1
AcDbOsnapPointRef
 72
    13
331
BF5
 73
     0
 91
        0
 40
0.0
 10
0.0
 20
0.0
 30
2.000000000000000E+50
 75
     0
  1
AcDbOsnapPointRef
 72
    13
331
BF9
 73
     0
 91
        0
 40
0.0
 10
0.0
 20
0.0
 30
2.000000000000000E+50
 75
     0
  0
DIMASSOC
  5
D87
102
{ACAD_REACTORS
330
D86
102
}
330
D86
100
AcDbDimAssoc
330
D79
 90
        3
 70
     0
 71
     0
  1
AcDbOsnapPointRef
 72
     1
331
9A4
 73
     0
 91
        0
 40
0.0
 10
0.0
 20
0.0
 30
2.000000000000000E+50
 75
     0
  1
AcDbOsnapPointRef
 72
    13
331
9A1
 73
     0
 91
        0
 40
0.0
 10
0.0
 20
0.0
 30
2.000000000000000E+50
 75
     0
  0
DIMASSOC
  5
DCD
102
{ACAD_REACTORS
330
DCC
102
}
330
DCC
100
AcDbDimAssoc
330
DBF
 90
        3
 70
     0
 71
     0
  1
AcDbOsnapPointRef
 72
     1
331
A5B
 73
     0
 91
        0
 40
0.0
 10
0.0
 20
0.0
 30
2.000000000000000E+50
 75
     0
  1
AcDbOsnapPointRef
 72
    13
331
A58
 73
     0
 91
        0
 40
0.0
 10
0.0
 20
0.0
 30
2.000000000000000E+50
 75
     0
  0
DIMASSOC
  5
E2B
102
{ACAD_REACTORS
330
E2A
102
}
330
E2A
100
AcDbDimAssoc
330
E1B
 90
        3
 70
     0
 71
     0
  1
AcDbOsnapPointRef
 72
    13
331
A58
 73
     0
 91
        0
 40
0.0
 10
0.0
 20
0.0
 30
2.000000000000000E+50
 75
     0
  1
AcDbOsnapPointRef
 72
     1
331
A59
 73
     0
 91
        0
 40
0.0
 10
0.0
 20
0.0
 30
2.000000000000000E+50
 75
     0
  0
DIMASSOC
  5
E55
102
{ACAD_REACTORS
330
E54
102
}
330
E54
100
AcDbDimAssoc
330
E45
 90
        3
 70
     0
 71
     0
  1
AcDbOsnapPointRef
 72
     1
331
A5C
 73
     0
 91
        0
 40
0.0
 10
0.0
 20
0.0
 30
2.000000000000000E+50
 75
     0
  1
AcDbOsnapPointRef
 72
     1
331
A5B
 73
     0
 91
        0
 40
0.0
 10
0.0
 20
0.0
 30
2.000000000000000E+50
 75
     0
  0
DIMASSOC
  5
E7D
102
{ACAD_REACTORS
330
E7C
102
}
330
E7C
100
AcDbDimAssoc
330
E6F
 90
        3
 70
     0
 71
     0
  1
AcDbOsnapPointRef
 72
     1
331
C30
 73
     0
 91
        0
 40
0.0
 10
0.0
 20
0.0
 30
2.000000000000000E+50
 75
     0
  1
AcDbOsnapPointRef
 72
     1
331
C34
 73
     0
 91
        0
 40
0.0
 10
0.0
 20
0.0
 30
2.000000000000000E+50
 75
     0
  0
DIMASSOC
  5
EA5
102
{ACAD_REACTORS
330
EA4
102
}
330
EA4
100
AcDbDimAssoc
330
E95
 90
        3
 70
     0
 71
     0
  1
AcDbOsnapPointRef
 72
     1
331
932
 73
     0
 91
        0
 40
0.0
 10
0.0
 20
0.0
 30
2.000000000000000E+50
 75
     0
  1
AcDbOsnapPointRef
 72
     1
331
C35
 73
     0
 91
        0
 40
0.0
 10
0.0
 20
0.0
 30
2.000000000000000E+50
 75
     0
  0
DIMASSOC
  5
ECD
102
{ACAD_REACTORS
330
ECC
102
}
330
ECC
100
AcDbDimAssoc
330
EBF
 90
        3
 70
     0
 71
     0
  1
AcDbOsnapPointRef
 72
     1
331
ACA
 73
     0
 91
        0
 40
0.0
 10
0.0
 20
0.0
 30
2.000000000000000E+50
 75
     0
  1
AcDbOsnapPointRef
 72
    13
331
C31
 73
     0
 91
        0
 40
0.0
 10
0.0
 20
0.0
 30
2.000000000000000E+50
 75
     0
  0
DIMASSOC
  5
EF9
102
{ACAD_REACTORS
330
EF8
102
}
330
EF8
100
AcDbDimAssoc
330
EE9
 90
        3
 70
     0
 71
     0
  1
AcDbOsnapPointRef
 72
     1
331
98D
 73
     0
 91
        0
 40
0.0
 10
0.0
 20
0.0
 30
2.000000000000000E+50
 75
     0
  1
AcDbOsnapPointRef
 72
    13
331
C08
 73
     0
 91
        0
 40
0.0
 10
0.0
 20
0.0
 30
2.000000000000000E+50
 75
     0
  0
DIMASSOC
  5
F29
102
{ACAD_REACTORS
330
F28
102
}
330
F28
100
AcDbDimAssoc
330
F19
 90
        3
 70
     0
 71
     0
  1
AcDbOsnapPointRef
 72
    13
331
C08
 73
     0
 91
        0
 40
0.0
 10
0.0
 20
0.0
 30
2.000000000000000E+50
 75
     0
  1
AcDbOsnapPointRef
 72
    13
331
C10
 73
     0
 91
        0
 40
0.0
 10
0.0
 20
0.0
 30
2.000000000000000E+50
 75
     0
  0
DIMASSOC
  5
F73
102
{ACAD_REACTORS
330
F72
102
}
330
F72
100
AcDbDimAssoc
330
F63
 90
        3
 70
     0
 71
     0
  1
AcDbOsnapPointRef
 72
     1
331
98D
 73
     0
 91
        0
 40
0.0
 10
0.0
 20
0.0
 30
2.000000000000000E+50
 75
     0
  1
AcDbOsnapPointRef
 72
    13
331
98E
 73
     0
 91
        0
 40
0.0
 10
0.0
 20
0.0
 30
2.000000000000000E+50
 75
     0
  0
LAYOUT
  5
22
102
{ACAD_XDICTIONARY
360
1484
102
}
102
{ACAD_REACTORS
330
1A
102
}
330
1A
100
AcDbPlotSettings
  1

  2
\\RD\EPSON Stylus C63 Series單色
  4
A4
  6

 40
3.757083177566528
 41
3.757076978683471
 42
3.757080078125
 43
3.757080078125
 44
209.9733276367187
 45
296.9683227539062
 46
0.0
 47
0.0
 48
0.0
 49
0.0
140
0.0
141
0.0
142
1.0
143
0.3405120737814363
 70
 11952
 72
     1
 73
     0
 74
     0
  7
單色出圖.ctb
 75
     0
147
2.936753428137963
148
-2047.07469463503
149
-1261.649717473083
100
AcDbLayout
  1
Model
 70
     1
 71
     0
 10
0.0
 20
0.0
 11
12.0
 21
9.0
 12
0.0
 22
0.0
 32
0.0
 14
0.0
 24
0.0
 34
0.0
 15
0.0
 25
0.0
 35
0.0
146
0.0
 13
0.0
 23
0.0
 33
0.0
 16
1.0
 26
0.0
 36
0.0
 17
0.0
 27
1.0
 37
0.0
 76
     0
330
1F
1001
ACAD_PSEXT
1000
\\RD\EPSON Stylus C63 Series單色
1000
EPSON Stylus C63 Series
1000
\\RD
1000

1070
     0
  0
LAYOUT
  5
1E
102
{ACAD_XDICTIONARY
360
1482
102
}
102
{ACAD_REACTORS
330
1A
102
}
330
1A
100
AcDbPlotSettings
  1

  2

  4

  6

 40
0.0
 41
0.0
 42
0.0
 43
0.0
 44
0.0
 45
0.0
 46
0.0
 47
0.0
 48
0.0
 49
0.0
140
0.0
141
0.0
142
1.0
143
1.0
 70
   688
 72
     0
 73
     0
 74
     5
  7
單色出圖.ctb
 75
    16
147
1.0
148
0.0
149
0.0
100
AcDbLayout
  1
配置1
 70
     1
 71
     1
 10
0.0
 20
0.0
 11
420.0
 21
297.0
 12
0.0
 22
0.0
 32
0.0
 14
1.000000000000000E+20
 24
1.000000000000000E+20
 34
1.000000000000000E+20
 15
-1.000000000000000E+20
 25
-1.000000000000000E+20
 35
-1.000000000000000E+20
146
0.0
 13
0.0
 23
0.0
 33
0.0
 16
1.0
 26
0.0
 36
0.0
 17
0.0
 27
1.0
 37
0.0
 76
     0
330
1B
  0
LAYOUT
  5
26
102
{ACAD_XDICTIONARY
360
1486
102
}
102
{ACAD_REACTORS
330
1A
102
}
330
1A
100
AcDbPlotSettings
  1

  2

  4

  6

 40
0.0
 41
0.0
 42
0.0
 43
0.0
 44
0.0
 45
0.0
 46
0.0
 47
0.0
 48
0.0
 49
0.0
140
0.0
141
0.0
142
1.0
143
1.0
 70
   688
 72
     0
 73
     0
 74
     5
  7
單色出圖.ctb
 75
    16
147
1.0
148
0.0
149
0.0
100
AcDbLayout
  1
配置2
 70
     1
 71
     2
 10
0.0
 20
0.0
 11
12.0
 21
9.0
 12
0.0
 22
0.0
 32
0.0
 14
0.0
 24
0.0
 34
0.0
 15
0.0
 25
0.0
 35
0.0
146
0.0
 13
0.0
 23
0.0
 33
0.0
 16
1.0
 26
0.0
 36
0.0
 17
0.0
 27
1.0
 37
0.0
 76
     0
330
23
  0
MLINESTYLE
  5
18
102
{ACAD_REACTORS
330
17
102
}
330
17
100
AcDbMlineStyle
  2
STANDARD
 70
     0
  3

 62
   256
 51
90.0
 52
90.0
 71
     2
 49
0.5
 62
   256
  6
BYLAYER
 49
-0.5
 62
   256
  6
BYLAYER
  0
ACDBPLACEHOLDER
  5
F
102
{ACAD_REACTORS
330
E
102
}
330
E
  0
TABLESTYLE
  5
11B
102
{ACAD_REACTORS
330
11A
102
}
330
11A
100
AcDbTableStyle
  3
Standard
 70
     0
 71
     0
 40
1.5
 41
1.5
280
     0
281
     0
  7
STANDARD
140
4.5
170
     2
 62
     0
 63
     7
283
     0
274
    -2
284
     1
 64
     0
275
    -2
285
     1
 65
     0
276
    -2
286
     1
 66
     0
277
    -2
287
     1
 67
     0
278
    -2
288
     1
 68
     0
279
    -2
289
     1
 69
     0
  7
STANDARD
140
6.0
170
     5
 62
     0
 63
     7
283
     0
274
    -2
284
     1
 64
     0
275
    -2
285
     1
 65
     0
276
    -2
286
     1
 66
     0
277
    -2
287
     1
 67
     0
278
    -2
288
     1
 68
     0
279
    -2
289
     1
 69
     0
  7
STANDARD
140
4.5
170
     5
 62
     0
 63
     7
283
     0
274
    -2
284
     1
 64
     0
275
    -2
285
     1
 65
     0
276
    -2
286
     1
 66
     0
277
    -2
287
     1
 67
     0
278
    -2
288
     1
 68
     0
279
    -2
289
     1
 69
     0
  0
DICTIONARYVAR
  5
138
102
{ACAD_REACTORS
330
94
102
}
330
94
100
DictionaryVariables
280
     0
  1
STANDARD
  0
DICTIONARYVAR
  5
96
102
{ACAD_REACTORS
330
94
102
}
330
94
100
DictionaryVariables
280
     0
  1
2
  0
DICTIONARYVAR
  5
95
102
{ACAD_REACTORS
330
94
102
}
330
94
100
DictionaryVariables
280
     0
  1
0
  0
DICTIONARYVAR
  5
147E
102
{ACAD_REACTORS
330
94
102
}
330
94
100
DictionaryVariables
280
     0
  1

  0
DICTIONARY
  5
1B5
102
{ACAD_REACTORS
330
5B
102
}
330
5B
100
AcDbDictionary
281
     1
  0
DICTIONARY
  5
61
102
{ACAD_REACTORS
330
5B
102
}
330
5B
100
AcDbDictionary
281
     1
  0
XRECORD
  5
123
102
{ACAD_REACTORS
330
5B
102
}
330
5B
100
AcDbXrecord
280
     1
 90
-1023410169
  0
DICTIONARY
  5
1484
330
22
100
AcDbDictionary
280
     1
281
     1
  3
ACAD_XREC_ROUNDTRIP
360
1485
  0
DICTIONARY
  5
1482
330
1E
100
AcDbDictionary
280
     1
281
     1
  3
ACAD_XREC_ROUNDTRIP
360
1483
  0
DICTIONARY
  5
1486
330
26
100
AcDbDictionary
280
     1
281
     1
  3
ACAD_XREC_ROUNDTRIP
360
1487
  0
XRECORD
  5
1485
102
{ACAD_REACTORS
330
1484
102
}
330
1484
100
AcDbXrecord
280
     1
102
SHADEPLOT
 70
     0
102
SHADEPLOTRESLEVEL
 70
     2
102
SHADEPLOTCUSTOMDPI
 70
   300
  0
XRECORD
  5
1483
102
{ACAD_REACTORS
330
1482
102
}
330
1482
100
AcDbXrecord
280
     1
102
SHADEPLOT
 70
     0
102
SHADEPLOTRESLEVEL
 70
     2
102
SHADEPLOTCUSTOMDPI
 70
   300
  0
XRECORD
  5
1487
102
{ACAD_REACTORS
330
1486
102
}
330
1486
100
AcDbXrecord
280
     1
102
SHADEPLOT
 70
     0
102
SHADEPLOTRESLEVEL
 70
     2
102
SHADEPLOTCUSTOMDPI
 70
   300
  0
ENDSEC
  0
EOF
