  0
SECTION
  2
HEADER
  9
$ACADVER
  1
AC1018
  9
$ACADMAINTVER
 70
    39
  9
$DWGCODEPAGE
  3
ANSI_950
  9
$CUSTOMPROPERTYTAG
  1
AmdtFileType
  9
$CUSTOMPROPERTY
  1
84
  9
$INSBASE
 10
278.96247
 20
14.63286
 30
0.0
  9
$EXTMIN
 10
439.2263818608681
 20
-153.8752586113886
 30
0.0
  9
$EXTMAX
 10
839.5126093327666
 20
131.3336665950917
 30
154.5009597124719
  9
$LIMMIN
 10
0.0
 20
0.0
  9
$LIMMAX
 10
297.0
 20
210.0
  9
$ORTHOMODE
 70
     0
  9
$REGENMODE
 70
     1
  9
$FILLMODE
 70
     1
  9
$QTEXTMODE
 70
     0
  9
$MIRRTEXT
 70
     1
  9
$LTSCALE
 40
8.0
  9
$ATTMODE
 70
     1
  9
$TEXTSIZE
 40
3.0
  9
$TRACEWID
 40
0.05
  9
$TEXTSTYLE
  7
CHINA
  9
$CLAYER
  8
1
  9
$CELTYPE
  6
BYLAYER
  9
$CECOLOR
 62
   256
  9
$CELTSCALE
 40
1.0
  9
$DISPSILH
 70
     0
  9
$DIMSCALE
 40
1.0
  9
$DIMASZ
 40
3.5
  9
$DIMEXO
 40
1.0
  9
$DIMDLI
 40
8.0
  9
$DIMRND
 40
0.0
  9
$DIMDLE
 40
0.0
  9
$DIMEXE
 40
1.0
  9
$DIMTP
 40
0.1
  9
$DIMTM
 40
0.1
  9
$DIMTXT
 40
3.5
  9
$DIMCEN
 40
0.0
  9
$DIMTSZ
 40
0.0
  9
$DIMTOL
 70
     0
  9
$DIMLIM
 70
     0
  9
$DIMTIH
 70
     0
  9
$DIMTOH
 70
     0
  9
$DIMSE1
 70
     0
  9
$DIMSE2
 70
     0
  9
$DIMTAD
 70
     1
  9
$DIMZIN
 70
     8
  9
$DIMBLK
  1

  9
$DIMASO
 70
     0
  9
$DIMSHO
 70
     1
  9
$DIMPOST
  1

  9
$DIMAPOST
  1
"
  9
$DIMALT
 70
     0
  9
$DIMALTD
 70
     2
  9
$DIMALTF
 40
0.0393701
  9
$DIMLFAC
 40
1.0
  9
$DIMTOFL
 70
     1
  9
$DIMTVP
 40
0.0
  9
$DIMTIX
 70
     0
  9
$DIMSOXD
 70
     0
  9
$DIMSAH
 70
     0
  9
$DIMBLK1
  1

  9
$DIMBLK2
  1

  9
$DIMSTYLE
  2
AM_ISO
  9
$DIMCLRD
 70
   256
  9
$DIMCLRE
 70
   256
  9
$DIMCLRT
 70
   256
  9
$DIMTFAC
 40
0.71
  9
$DIMGAP
 40
1.0
  9
$DIMJUST
 70
     0
  9
$DIMSD1
 70
     0
  9
$DIMSD2
 70
     0
  9
$DIMTOLJ
 70
     0
  9
$DIMTZIN
 70
     8
  9
$DIMALTZ
 70
     8
  9
$DIMALTTZ
 70
     0
  9
$DIMUPT
 70
     0
  9
$DIMDEC
 70
     0
  9
$DIMTDEC
 70
     8
  9
$DIMALTU
 70
     2
  9
$DIMALTTD
 70
     2
  9
$DIMTXSTY
  7
STANDARD
  9
$DIMAUNIT
 70
     0
  9
$DIMADEC
 70
     0
  9
$DIMALTRND
 40
0.0
  9
$DIMAZIN
 70
     2
  9
$DIMDSEP
 70
    46
  9
$DIMATFIT
 70
     3
  9
$DIMFRAC
 70
     0
  9
$DIMLDRBLK
  1

  9
$DIMLUNIT
 70
     2
  9
$DIMLWD
 70
    -1
  9
$DIMLWE
 70
    -1
  9
$DIMTMOVE
 70
     0
  9
$LUNITS
 70
     2
  9
$LUPREC
 70
     2
  9
$SKETCHINC
 40
0.1
  9
$FILLETRAD
 40
2.5
  9
$AUNITS
 70
     0
  9
$AUPREC
 70
     0
  9
$MENU
  1
acad
  9
$ELEVATION
 40
0.0
  9
$PELEVATION
 40
0.0
  9
$THICKNESS
 40
0.0
  9
$LIMCHECK
 70
     0
  9
$CHAMFERA
 40
2.5
  9
$CHAMFERB
 40
2.5
  9
$CHAMFERC
 40
0.0
  9
$CHAMFERD
 40
0.0
  9
$SKPOLY
 70
     0
  9
$TDCREATE
 40
2451401.689539931
  9
$TDUCREATE
 40
2451401.356206598
  9
$TDUPDATE
 40
2456360.611742072
  9
$TDUUPDATE
 40
2456360.278408738
  9
$TDINDWG
 40
0.1398333681
  9
$TDUSRTIMER
 40
0.1398333681
  9
$USRTIMER
 70
     1
  9
$ANGBASE
 50
0.0
  9
$ANGDIR
 70
     0
  9
$PDMODE
 70
     0
  9
$PDSIZE
 40
0.0
  9
$PLINEWID
 40
0.0
  9
$SPLFRAME
 70
     0
  9
$SPLINETYPE
 70
     6
  9
$SPLINESEGS
 70
     8
  9
$HANDSEED
  5
11EB
  9
$SURFTAB1
 70
     6
  9
$SURFTAB2
 70
     6
  9
$SURFTYPE
 70
     6
  9
$SURFU
 70
     6
  9
$SURFV
 70
     6
  9
$UCSBASE
  2

  9
$UCSNAME
  2

  9
$UCSORG
 10
0.0
 20
0.0
 30
0.0
  9
$UCSXDIR
 10
1.0
 20
0.0
 30
0.0
  9
$UCSYDIR
 10
0.0
 20
1.0
 30
0.0
  9
$UCSORTHOREF
  2

  9
$UCSORTHOVIEW
 70
     0
  9
$UCSORGTOP
 10
0.0
 20
0.0
 30
0.0
  9
$UCSORGBOTTOM
 10
0.0
 20
0.0
 30
0.0
  9
$UCSORGLEFT
 10
0.0
 20
0.0
 30
0.0
  9
$UCSORGRIGHT
 10
0.0
 20
0.0
 30
0.0
  9
$UCSORGFRONT
 10
0.0
 20
0.0
 30
0.0
  9
$UCSORGBACK
 10
0.0
 20
0.0
 30
0.0
  9
$PUCSBASE
  2

  9
$PUCSNAME
  2

  9
$PUCSORG
 10
0.0
 20
0.0
 30
0.0
  9
$PUCSXDIR
 10
1.0
 20
0.0
 30
0.0
  9
$PUCSYDIR
 10
0.0
 20
1.0
 30
0.0
  9
$PUCSORTHOREF
  2

  9
$PUCSORTHOVIEW
 70
     0
  9
$PUCSORGTOP
 10
0.0
 20
0.0
 30
0.0
  9
$PUCSORGBOTTOM
 10
0.0
 20
0.0
 30
0.0
  9
$PUCSORGLEFT
 10
0.0
 20
0.0
 30
0.0
  9
$PUCSORGRIGHT
 10
0.0
 20
0.0
 30
0.0
  9
$PUCSORGFRONT
 10
0.0
 20
0.0
 30
0.0
  9
$PUCSORGBACK
 10
0.0
 20
0.0
 30
0.0
  9
$USERI1
 70
     0
  9
$USERI2
 70
     0
  9
$USERI3
 70
     0
  9
$USERI4
 70
     0
  9
$USERI5
 70
     0
  9
$USERR1
 40
0.0
  9
$USERR2
 40
0.0
  9
$USERR3
 40
0.0
  9
$USERR4
 40
0.0
  9
$USERR5
 40
0.0
  9
$WORLDVIEW
 70
     1
  9
$SHADEDGE
 70
     3
  9
$SHADEDIF
 70
    70
  9
$TILEMODE
 70
     1
  9
$MAXACTVP
 70
    16
  9
$PINSBASE
 10
0.0
 20
0.0
 30
0.0
  9
$PLIMCHECK
 70
     0
  9
$PEXTMIN
 10
1.000000000000000E+20
 20
1.000000000000000E+20
 30
1.000000000000000E+20
  9
$PEXTMAX
 10
-1.000000000000000E+20
 20
-1.000000000000000E+20
 30
-1.000000000000000E+20
  9
$PLIMMIN
 10
0.0
 20
0.0
  9
$PLIMMAX
 10
12.0
 20
9.0
  9
$UNITMODE
 70
     0
  9
$VISRETAIN
 70
     0
  9
$PLINEGEN
 70
     0
  9
$PSLTSCALE
 70
     1
  9
$TREEDEPTH
 70
  3020
  9
$CMLSTYLE
  2
STANDARD
  9
$CMLJUST
 70
     0
  9
$CMLSCALE
 40
1.0
  9
$PROXYGRAPHICS
 70
     1
  9
$MEASUREMENT
 70
     1
  9
$CELWEIGHT
370
    -1
  9
$ENDCAPS
280
     0
  9
$JOINSTYLE
280
     0
  9
$LWDISPLAY
290
     0
  9
$INSUNITS
 70
     4
  9
$HYPERLINKBASE
  1

  9
$STYLESHEET
  1

  9
$XEDIT
290
     1
  9
$CEPSNTYPE
380
     0
  9
$PSTYLEMODE
290
     1
  9
$FINGERPRINTGUID
  2
{C3A3751C-7CBF-11D5-9E02-0050BAE3FAE1}
  9
$VERSIONGUID
  2
{A9E0CF03-6CA8-4FA5-8EC9-EB5BCA86C784}
  9
$EXTNAMES
290
     1
  9
$PSVPSCALE
 40
0.0
  9
$OLESTARTUP
290
     0
  9
$SORTENTS
280
   127
  9
$INDEXCTL
280
     1
  9
$HIDETEXT
280
     0
  9
$XCLIPFRAME
290
     0
  9
$HALOGAP
280
     0
  9
$OBSCOLOR
 70
   257
  9
$OBSLTYPE
280
     0
  9
$INTERSECTIONDISPLAY
280
     0
  9
$INTERSECTIONCOLOR
 70
   257
  9
$DIMASSOC
280
     0
  9
$PROJECTNAME
  1

  0
ENDSEC
  0
SECTION
  2
CLASSES
  0
CLASS
  1
DICTIONARYVAR
  2
AcDbDictionaryVar
  3
ObjectDBX Classes
 90
        0
 91
        3
280
     0
281
     0
  0
CLASS
  1
ACDBDICTIONARYWDFLT
  2
AcDbDictionaryWithDefault
  3
ObjectDBX Classes
 90
        0
 91
        1
280
     0
281
     0
  0
CLASS
  1
ACME_DOCUMENT
  2
AcMeDbDoc
  3
AcMeServices
 90
        0
 91
        2
280
     0
281
     0
  0
CLASS
  1
AMGSETTINGSOBJ
  2
AmgSettingsObj
  3
"AcadM|Product Description: AutoCAD Mechanical 2000|Company: Autodesk"
 90
        0
 91
        3
280
     0
281
     0
  0
CLASS
  1
ACMESCOPE
  2
AcMeScope
  3
AcMeServices
 90
        0
 91
        1
280
     0
281
     0
  0
CLASS
  1
ACMECOMMANDHISTORY
  2
AcMeCommandHistory
  3
AcMeServices
 90
        0
 91
        1
280
     0
281
     0
  0
CLASS
  1
ACIMSYSVARMAN
  2
AcImSysVarManager
  3
AcMeServices
 90
        0
 91
        6
280
     0
281
     0
  0
CLASS
  1
ACIMREALSYSVAR
  2
AcImRealSysVar
  3
AcMeServices
 90
        0
 91
       16
280
     0
281
     0
  0
CLASS
  1
ACIMINTSYSVAR
  2
AcImIntSysVar
  3
AcMeServices
 90
        0
 91
       45
280
     0
281
     0
  0
CLASS
  1
ACMEDRAWINGMAN
  2
AcMeDrawingMan
  3
AcMeServices
 90
        0
 91
        1
280
     0
281
     0
  0
CLASS
  1
ACMEVIEW
  2
AcMeView
  3
AcMeServices
 90
        0
 91
        1
280
     0
281
     0
  0
CLASS
  1
ACDBENTITYCACHE
  2
AcMeEntityCache
  3
AcMeServices
 90
        0
 91
        1
280
     0
281
     0
  0
CLASS
  1
GSMANAGER
  2
AcMeGSManager
  3
AcMeServices
 90
        0
 91
        1
280
     0
281
     0
  0
CLASS
  1
AMDTINTERNALREACTOR
  2
AmdtInternalReactor
  3
AcMeServices
 90
        0
 91
        2
280
     0
281
     0
  0
CLASS
  1
ACMESTATEMGR
  2
AcMeStateMgr
  3
AcMeServices
 90
        0
 91
        1
280
     0
281
     0
  0
CLASS
  1
ACGREFMASTER
  2
AcGrefMaster
  3
AcAttribServices
 90
        0
 91
        1
280
     0
281
     0
  0
CLASS
  1
ACME_DATABASE
  2
AcMeDbDatabase
  3
AcMeServices
 90
        0
 91
        2
280
     0
281
     0
  0
CLASS
  1
ACRFINSADJUSTERMGR
  2
AcRfInsAdjusterMgr
  3
AcMeServices
 90
        0
 91
        1
280
     0
281
     0
  0
CLASS
  1
ACGREFACADMASTER
  2
AcGrefacadMaster
  3
AcGrefServices
 90
        0
 91
        1
280
     0
281
     0
  0
CLASS
  1
AMIMASTER
  2
AmiMaster
  3
AmiServices
 90
        0
 91
        1
280
     0
281
     0
  0
CLASS
  1
ACMDATADICTIONARY
  2
AcmDataDictionary
  3
"AcmSymBB|Product Description: AutoCAD Mechanical 2004 DX|Company: Autodesk"
 90
        0
 91
        1
280
     0
281
     0
  0
CLASS
  1
ACMDATAENTRYBLOCK
  2
AcmDataEntryBlock
  3
"AcmSymBB|Product Description: AutoCAD Mechanical 2004 DX|Company: Autodesk"
 90
        0
 91
        6
280
     0
281
     0
  0
CLASS
  1
ACIMSTRSYSVAR
  2
AcImStrSysVar
  3
AcMeServices
 90
        0
 91
       11
280
     0
281
     0
  0
CLASS
  1
ACMSTANDARDANSI
  2
AcmStandardANSI
  3
"Amdt_StdImp|Product Description: AutoCAD Mechanical 2004 DX|Company: Autodesk"
 90
        0
 91
        1
280
     0
281
     0
  0
CLASS
  1
AMGOBJPROPCFG
  2
AmgObjPropCfg
  3
"AmgLay|Product Description: AutoCAD Mechanical 2000|Company: Autodesk"
 90
        1
 91
        1
280
     0
281
     0
  0
CLASS
  1
ACMSURFSTANDARDANSI
  2
AcmSurfTextStdANSI
  3
"Amdt_StdImp|Product Description: AutoCAD Mechanical 2004 DX|Company: Autodesk"
 90
        0
 91
        1
280
     0
281
     0
  0
CLASS
  1
ACMFCFSTANDARDANSI
  2
AcmFCFStdANSI
  3
"Amdt_StdImp|Product Description: AutoCAD Mechanical 2004 DX|Company: Autodesk"
 90
        0
 91
        1
280
     0
281
     0
  0
CLASS
  1
ACMWELDSTANDARDANSI
  2
AcmWeldingStdANSI
  3
"Amdt_StdImp|Product Description: AutoCAD Mechanical 2004 DX|Company: Autodesk"
 90
        0
 91
        1
280
     0
281
     0
  0
CLASS
  1
ACMIDSTANDARDANSI
  2
AcmIdStdANSI
  3
"Amdt_StdImp|Product Description: AutoCAD Mechanical 2004 DX|Company: Autodesk"
 90
        0
 91
        1
280
     0
281
     0
  0
CLASS
  1
ACMDATUMSTANDARDANSI
  2
AcmDatumStdANSI
  3
"Amdt_StdImp|Product Description: AutoCAD Mechanical 2004 DX|Company: Autodesk"
 90
        0
 91
        1
280
     0
281
     0
  0
CLASS
  1
ACMBOMSTANDARDANSI
  2
AcmBOMStdANSI
  3
"Amdt_StdImp|Product Description: AutoCAD Mechanical 2004 DX|Company: Autodesk"
 90
        0
 91
        1
280
     0
281
     0
  0
CLASS
  1
ACMDETAILSTANDARDANSI
  2
AmdtDetailSymStdANSI
  3
"Amdt_StdImp|Product Description: AutoCAD Mechanical 2004 DX|Company: Autodesk"
 90
        0
 91
        1
280
     0
281
     0
  0
CLASS
  1
ACMSECTIONSTANDARDANSI
  2
AmdtSectionSymStdANSI
  3
"Amdt_StdImp|Product Description: AutoCAD Mechanical 2004 DX|Company: Autodesk"
 90
        0
 91
        1
280
     0
281
     0
  0
CLASS
  1
ACMCENTERLINESTANDARDANSI
  2
AmdtCenterLineStdANSI
  3
"Amdt_StdImp|Product Description: AutoCAD Mechanical 2004 DX|Company: Autodesk"
 90
        0
 91
        1
280
     0
281
     0
  0
CLASS
  1
ACMNOTESTANDARDANSI
  2
AmdtNoteStdANSI
  3
"Amdt_StdImp|Product Description: AutoCAD Mechanical 2004 DX|Company: Autodesk"
 90
        0
 91
        1
280
     0
281
     0
  0
CLASS
  1
ACAMGLAYSTD
  2
AcAmgLayStd
  3
"AcAmgLayStd|Product Description: AutoCAD Mechanical 2000|Company: Autodesk"
 90
        0
 91
        2
280
     0
281
     0
  0
CLASS
  1
ACAMGDIMSTD
  2
AcAmgDimStd
  3
"AcAmgDimStd|Product Description: AutoCAD Mechanical 2000|Company: Autodesk"
 90
        0
 91
        2
280
     0
281
     0
  0
CLASS
  1
ACAMGHOLECHARTSTDANSI
  2
AcAmgHoleChartStdANSI
  3
ACMSYMBB_MODULE_NAME
 90
        0
 91
        1
280
     0
281
     0
  0
CLASS
  1
ACAMGTITLESTD
  2
AcAmgTitleStd
  3
"TITLEAPP"
 90
        0
 91
        2
280
     0
281
     0
  0
CLASS
  1
ACAMGFILTERDAT
  2
AcAmgFilterDat
  3
"AcadM|Product Description: AutoCAD Mechanical 2000|Company: Autodesk"
 90
        0
 91
        0
280
     0
281
     0
  0
CLASS
  1
LAYER_INDEX
  2
AcDbLayerIndex
  3
ObjectDBX Classes
 90
        0
 91
        1
280
     0
281
     0
  0
CLASS
  1
IDBUFFER
  2
AcDbIdBuffer
  3
ObjectDBX Classes
 90
        0
 91
        7
280
     0
281
     0
  0
CLASS
  1
TABLESTYLE
  2
AcDbTableStyle
  3
ObjectDBX Classes
 90
     2047
 91
        1
280
     0
281
     0
  0
CLASS
  1
AM_DRAWING_MGR
  2
AcDmDwgMgr
  3
AcMechDwgViewMgmt
 90
        0
 91
        1
280
     0
281
     0
  0
CLASS
  1
AM_DWG_DOCUMENT
  2
AcDmDwgDocument
  3
AcMechDwgViewMgmt
 90
        0
 91
        1
280
     0
281
     0
  0
CLASS
  1
AM_DWG_SHEET
  2
AcDmSheet
  3
AcMechDwgViewMgmt
 90
        0
 91
        1
280
     0
281
     0
  0
CLASS
  1
AM_VIEWDIMPARMAP
  2
AcDmViewDimParMap
  3
AcMechDwgViewMgmt
 90
        0
 91
        1
280
     0
281
     0
  0
CLASS
  1
AM_DWGMGR_NAME
  2
AcDmDwgMgrName
  3
AcMechDwgViewMgmt
 90
        0
 91
        1
280
     0
281
     0
  0
CLASS
  1
AMDTMENUSTATEMGR
  2
AmdtMenuStateMgr
  3
McadcomServices
 90
        0
 91
        1
280
     0
281
     0
  0
CLASS
  1
AMDTMCOMMENUSTATE
  2
AmdtMcomMenuState
  3
McadcomServices
 90
        0
 91
        1
280
     0
281
     0
  0
CLASS
  1
ASAPP
  2
AcAsAppObject
  3
AutoSurfServices
 90
        0
 91
        1
280
     0
281
     0
  0
CLASS
  1
IM_STATIC_MAN
  2
AcImStaticVarManager
  3
AcMeServices
 90
        0
 91
        1
280
     0
281
     0
  0
CLASS
  1
ACIMDBLSTATICVAR
  2
AcImDblStaticVar
  3
AcMeServices
 90
        0
 91
       20
280
     0
281
     0
  0
CLASS
  1
ACIMSTRSTATICVAR
  2
AcImStrStaticVar
  3
AcMeServices
 90
        0
 91
       12
280
     0
281
     0
  0
CLASS
  1
ACIMINTSTATICVAR
  2
AcImIntStaticVar
  3
AcMeServices
 90
        0
 91
       17
280
     0
281
     0
  0
CLASS
  1
ACASGREFMASTER
  2
AcAsGrefMaster
  3
AutoSurfResolverServices
 90
        0
 91
        1
280
     0
281
     0
  0
CLASS
  1
ACADGREFMODULE
  2
AcAdGrefModule
  3
AdGrefServices
 90
        0
 91
        1
280
     0
281
     0
  0
CLASS
  1
AMDTMAPISURFMOUDULE
  2
AmdtMApiSurfModule
  3
MApiSurfServices
 90
        0
 91
        1
280
     0
281
     0
  0
CLASS
  1
MAPIAMMOUDLE
  2
MApiAmModule
  3
MApiAmServices
 90
        0
 91
        1
280
     0
281
     0
  0
CLASS
  1
AMDTADMENUSTATE
  2
AmdtAdMenuState
  3
DesignerServices
 90
        0
 91
        1
280
     0
281
     0
  0
CLASS
  1
ADAPPL
  2
AcAdAppl
  3
DesignerServices
 90
        0
 91
        1
280
     0
281
     0
  0
CLASS
  1
DEPMGR
  2
AcAdDepMgr
  3
DesignerServices
 90
        0
 91
        1
280
     0
281
     0
  0
CLASS
  1
PARAMMGR
  2
AcAdParamMgr
  3
DesignerServices
 90
        0
 91
        1
280
     0
281
     0
  0
CLASS
  1
PARAMSCOPE
  2
AcAdParamScope
  3
DesignerServices
 90
        0
 91
        5
280
     0
281
     0
  0
CLASS
  1
NAMEDAPPL
  2
AcAdNamedAppl
  3
DesignerServices
 90
        0
 91
        1
280
     0
281
     0
  0
CLASS
  1
AMDTDMMENUSTATE
  2
AmdtDmMenuState
  3
AcMechDwgViewMgmt
 90
        0
 91
        1
280
     0
281
     0
  0
CLASS
  1
MAPIADMODULE
  2
MApiAdModule
  3
MApiAdServices
 90
        0
 91
        1
280
     0
281
     0
  0
CLASS
  1
AMDTAMMENUSTATE
  2
AmdtAmMenuState
  3
DesignerAssemblies
 90
        0
 91
        1
280
     0
281
     0
  0
CLASS
  1
ACAMPROJECT
  2
AcAmProject
  3
DesignerAssemblies
 90
        0
 91
        1
280
     0
281
     0
  0
CLASS
  1
ACAMGRCOMPDEF
  2
AcAmGrCompDef
  3
DesignerAssemblies
 90
        0
 91
        6
280
     0
281
     0
  0
CLASS
  1
ACCMCONTEXT
  2
AcCmContext
  3
DesignerAssemblies
 90
        0
 91
       12
280
     0
281
     0
  0
CLASS
  1
ACAMCOMPDEF
  2
AcAmCompDef
  3
DesignerAssemblies
 90
        0
 91
        6
280
     0
281
     0
  0
CLASS
  1
ACAMCOMPDEFMGR
  2
AcAmCompDefMgr
  3
DesignerAssemblies
 90
        0
 91
        1
280
     0
281
     0
  0
CLASS
  1
AMCONTEXTMGR
  2
AcAmContextMgr
  3
DesignerAssemblies
 90
        0
 91
        1
280
     0
281
     0
  0
CLASS
  1
ACAMCONTEXTMODELER
  2
AcAmContextModeler
  3
DesignerAssemblies
 90
        0
 91
        1
280
     0
281
     0
  0
CLASS
  1
CATALOGSTATE
  2
AcAmCatalogState
  3
DesignerAssemblies
 90
        0
 91
        1
280
     0
281
     0
  0
CLASS
  1
ACAMGRCOMPDEFSET
  2
AcAmGrCompDefSet
  3
DesignerAssemblies
 90
        0
 91
        1
280
     0
281
     0
  0
CLASS
  1
AMDTBROWSERDBTAB
  2
AmdtBrowserDbTab
  3
McadcomServices
 90
        0
 91
        1
280
     0
281
     0
  0
CLASS
  1
CBROWSERAPPOBJECT
  2
CBrowserAppObject
  3
McadcomServices
 90
        0
 91
        3
280
     0
281
     0
  0
CLASS
  1
DM_PLACEHOLDER
  2
AcDmSelsetPlaceholder
  3
AcMechDwgViewMgmt
 90
        0
 91
        1
280
     0
281
     0
  0
CLASS
  1
ACMTHREADLINESTANDARDANSI
  2
AmdtThreadLineStdANSI
  3
"Amdt_StdImp|Product Description: AutoCAD Mechanical 2004 DX|Company: Autodesk"
 90
        0
 91
        1
280
     0
281
     0
  0
CLASS
  1
AMDTNOTETEMPLATEDB
  2
AmdtNoteTemplateDB
  3
AMDT_STDIMP_MODULE_NAME
 90
        0
 91
       10
280
     0
281
     0
  0
CLASS
  1
ACMSTANDARDISO
  2
AcmStandardISO
  3
"Amdt_StdImp|Product Description: AutoCAD Mechanical 2004 DX|Company: Autodesk"
 90
        0
 91
        1
280
     0
281
     0
  0
CLASS
  1
AMDTEDGESTANDARDISO13715
  2
AmdtEdgeStdISO13715
  3
"Amdt_StdImp|Product Description: AutoCAD Mechanical 2004 DX|Company: Autodesk"
 90
        0
 91
        1
280
     0
281
     0
  0
CLASS
  1
ACMSURFSTANDARDISO
  2
AcmSurfTextStdISO
  3
"Amdt_StdImp|Product Description: AutoCAD Mechanical 2004 DX|Company: Autodesk"
 90
        0
 91
        1
280
     0
281
     0
  0
CLASS
  1
ACMFCFSTANDARDISO
  2
AcmFCFStdISO
  3
"Amdt_StdImp|Product Description: AutoCAD Mechanical 2004 DX|Company: Autodesk"
 90
        0
 91
        1
280
     0
281
     0
  0
CLASS
  1
ACMWELDSTANDARDISO
  2
AcmWeldingStdISO
  3
"Amdt_StdImp|Product Description: AutoCAD Mechanical 2004 DX|Company: Autodesk"
 90
        0
 91
        1
280
     0
281
     0
  0
CLASS
  1
ACMIDSTANDARDISO
  2
AcmIdStdISO
  3
"Amdt_StdImp|Product Description: AutoCAD Mechanical 2004 DX|Company: Autodesk"
 90
        0
 91
        1
280
     0
281
     0
  0
CLASS
  1
ACMDATUMSTANDARDISO
  2
AcmDatumStdISO
  3
"Amdt_StdImp|Product Description: AutoCAD Mechanical 2004 DX|Company: Autodesk"
 90
        0
 91
        1
280
     0
281
     0
  0
CLASS
  1
ACMBOMSTANDARDISO
  2
AcmBOMStdISO
  3
"Amdt_StdImp|Product Description: AutoCAD Mechanical 2004 DX|Company: Autodesk"
 90
        0
 91
        1
280
     0
281
     0
  0
CLASS
  1
ACMDETAILSTANDARDISO
  2
AmdtDetailSymStdISO
  3
"Amdt_StdImp|Product Description: AutoCAD Mechanical 2004 DX|Company: Autodesk"
 90
        0
 91
        1
280
     0
281
     0
  0
CLASS
  1
ACMSECTIONSTANDARDISO
  2
AmdtSectionSymStdISO
  3
"Amdt_StdImp|Product Description: AutoCAD Mechanical 2004 DX|Company: Autodesk"
 90
        0
 91
        1
280
     0
281
     0
  0
CLASS
  1
ACMCENTERLINESTANDARDISO
  2
AmdtCenterLineStdISO
  3
"Amdt_StdImp|Product Description: AutoCAD Mechanical 2004 DX|Company: Autodesk"
 90
        0
 91
        1
280
     0
281
     0
  0
CLASS
  1
ACMTHREADLINESTANDARDISO
  2
AmdtThreadLineStdISO
  3
"Amdt_StdImp|Product Description: AutoCAD Mechanical 2004 DX|Company: Autodesk"
 90
        0
 91
        1
280
     0
281
     0
  0
CLASS
  1
ACMNOTESTANDARDISO
  2
AmdtNoteStdISO
  3
"Amdt_StdImp|Product Description: AutoCAD Mechanical 2004 DX|Company: Autodesk"
 90
        0
 91
        1
280
     0
281
     0
  0
CLASS
  1
ACAMGHOLECHARTSTDISO
  2
AcAmgHoleChartStdISO
  3
ACMSYMBB_MODULE_NAME
 90
        0
 91
        1
280
     0
281
     0
  0
CLASS
  1
ADPART
  2
AcAdPart
  3
DesignerServices
 90
        0
 91
        4
280
     0
281
     1
  0
CLASS
  1
ACAMCOMPENT
  2
AcAmCompEnt
  3
DesignerAssemblies
 90
        0
 91
        6
280
     0
281
     1
  0
CLASS
  1
ACAMCOMPENTCLONE
  2
AcAmCompEntClone
  3
DesignerAssemblies
 90
        0
 91
        0
280
     0
281
     1
  0
CLASS
  1
WORKPLANEDISPLAYMGR
  2
AcAdDisplayMgr
  3
DesignerServices
 90
        0
 91
        4
280
     0
281
     0
  0
CLASS
  1
ADBASE
  2
AcAdBase
  3
DesignerServices
 90
        0
 91
        4
280
     0
281
     0
  0
CLASS
  1
BODYID
  2
AcAdBodyId
  3
DesignerServices
 90
        0
 91
        4
280
     0
281
     0
  0
CLASS
  1
ACAMCOMP
  2
AcAmComp
  3
DesignerAssemblies
 90
        0
 91
        6
280
     0
281
     0
  0
CLASS
  1
ACAMCOMPFEEDBACK
  2
AcAmCompFeedback
  3
DesignerAssemblies
 90
        0
 91
        6
280
     0
281
     0
  0
CLASS
  1
ACCMBODY
  2
AcCmBody
  3
DesignerAssemblies
 90
        0
 91
        6
280
     0
281
     0
  0
CLASS
  1
AMDTFORMULAUPDATEDISPATCHER
  2
AmdtFormulaUpdateDispatcher
  3
AcMeServices
 90
        0
 91
        1
280
     0
281
     0
  0
ENDSEC
  0
SECTION
  2
TABLES
  0
TABLE
  2
VPORT
  5
12
330
0
100
AcDbSymbolTable
 70
     5
  0
VPORT
  5
11EA
330
12
100
AcDbSymbolTableRecord
100
AcDbViewportTableRecord
  2
*Active
 70
     0
 10
0.0
 20
0.0
 11
1.0
 21
1.0
 12
454.3273234678268
 22
-196.7446150446219
 13
0.0
 23
0.0
 14
2.5
 24
2.5
 15
10.0
 25
10.0
 16
0.0
 26
0.0
 36
1.0
 17
138.6205451135996
 27
126.4334816348561
 37
0.0
 40
277.9380201866331
 41
1.312169312169312
 42
50.0
 43
0.0
 44
0.0
 50
0.0
 51
0.0
 71
     0
 72
 20000
 73
     1
 74
     1
 75
     0
 76
     0
 77
     0
 78
     0
281
     0
 65
     0
110
0.0
120
0.0
130
0.0
111
1.0
121
0.0
131
0.0
112
0.0
122
1.0
132
0.0
 79
     0
146
0.0
  0
ENDTAB
  0
TABLE
  2
LTYPE
  5
D
330
0
100
AcDbSymbolTable
 70
    22
  0
LTYPE
  5
E
330
D
100
AcDbSymbolTableRecord
100
AcDbLinetypeTableRecord
  2
BYBLOCK
 70
     0
  3

 72
    65
 73
     0
 40
0.0
  0
LTYPE
  5
F
330
D
100
AcDbSymbolTableRecord
100
AcDbLinetypeTableRecord
  2
BYLAYER
 70
     0
  3

 72
    65
 73
     0
 40
0.0
  0
LTYPE
  5
5
330
D
100
AcDbSymbolTableRecord
100
AcDbLinetypeTableRecord
  2
CONTINUOUS
 70
     0
  3
Solid line
 72
    65
 73
     0
 40
0.0
  0
LTYPE
  5
28
330
D
100
AcDbSymbolTableRecord
100
AcDbLinetypeTableRecord
  2
CENTER2
 70
     0
  3
___ _ ___ _ ___ _ ___ _ ___ _ ___ _ ___ _ ___ _
 72
    65
 73
     4
 40
1.125
 49
0.75
 74
     0
 49
-0.125
 74
     0
 49
0.125
 74
     0
 49
-0.125
 74
     0
  0
LTYPE
  5
272
330
D
100
AcDbSymbolTableRecord
100
AcDbLinetypeTableRecord
  2
AM_ISO02W050
 70
     0
  3
__ __ __ __ __ __ __ __ __ __ __ __ __ __ __
 72
    65
 73
     2
 40
7.5
 49
6.0
 74
     0
 49
-1.5
 74
     0
  0
LTYPE
  5
273
330
D
100
AcDbSymbolTableRecord
100
AcDbLinetypeTableRecord
  2
AM_ISO08W050
 70
     0
  3
____ . ____ . ____ . ____ . ____ . ____ . ____
 72
    65
 73
     4
 40
18.0
 49
12.0
 74
     0
 49
-1.5
 74
     0
 49
3.0
 74
     0
 49
-1.5
 74
     0
  0
LTYPE
  5
274
330
D
100
AcDbSymbolTableRecord
100
AcDbLinetypeTableRecord
  2
AM_ISO09W050
 70
     0
  3
_____ . . _____ . . _____ . . ____ .. ____
 72
    65
 73
     6
 40
22.5
 49
12.0
 74
     0
 49
-1.5
 74
     0
 49
3.0
 74
     0
 49
-1.5
 74
     0
 49
3.0
 74
     0
 49
-1.5
 74
     0
  0
LTYPE
  5
275
330
D
100
AcDbSymbolTableRecord
100
AcDbLinetypeTableRecord
  2
Amconstr
 70
     0
  3
_______________________
 72
    65
 73
     2
 40
9999.0
 49
9999.0
 74
     0
 49
0.0
 74
     0
  0
LTYPE
  5
276
330
D
100
AcDbSymbolTableRecord
100
AcDbLinetypeTableRecord
  2
AM_ISO08W050x2
 70
     0
  3
__ . __ . __ . __ . __ . __
 72
    65
 73
     4
 40
9.0
 49
6.0
 74
     0
 49
-0.75
 74
     0
 49
1.5
 74
     0
 49
-0.75
 74
     0
  0
LTYPE
  5
277
330
D
100
AcDbSymbolTableRecord
100
AcDbLinetypeTableRecord
  2
AM_ISO02W050x2
 70
     0
  3
 _ _ _ _ _ _ _ _ _ _ _ _
 72
    65
 73
     2
 40
3.75
 49
3.0
 74
     0
 49
-0.75
 74
     0
  0
LTYPE
  5
27A
330
D
100
AcDbSymbolTableRecord
100
AcDbLinetypeTableRecord
  2
Amzigzag
 70
     0
  3
/\/-/\/-/\/-/\/-/\/-/\/
 72
    65
 73
     2
 40
11.0001
 49
0.0001
 74
     4
 75
   135
340
279
 46
0.04
 50
0.0
 44
0.0
 45
0.0
 49
-11.0
 74
     0
  0
LTYPE
  5
27B
330
D
100
AcDbSymbolTableRecord
100
AcDbLinetypeTableRecord
  2
HIDDEN
 70
     0
  3
Hidden __ __ __ __ __ __ __ __ __ __ __ __ __ _
 72
    65
 73
     2
 40
0.375
 49
0.25
 74
     0
 49
-0.125
 74
     0
  0
LTYPE
  5
27C
330
D
100
AcDbSymbolTableRecord
100
AcDbLinetypeTableRecord
  2
CENTER
 70
     0
  3
Center ____ _ ____ _ ____ _ ____ _ ____ _ ____
 72
    65
 73
     4
 40
2.0
 49
1.25
 74
     0
 49
-0.25
 74
     0
 49
0.25
 74
     0
 49
-0.25
 74
     0
  0
LTYPE
  5
27D
330
D
100
AcDbSymbolTableRecord
100
AcDbLinetypeTableRecord
  2
PHANTOM2
 70
     0
  3
Phantom (.5x) ___ _ _ ___ _ _ ___ _ _ ___ _ _
 72
    65
 73
     6
 40
1.25
 49
0.625
 74
     0
 49
-0.125
 74
     0
 49
0.125
 74
     0
 49
-0.125
 74
     0
 49
0.125
 74
     0
 49
-0.125
 74
     0
  0
LTYPE
  5
27E
330
D
100
AcDbSymbolTableRecord
100
AcDbLinetypeTableRecord
  2
HIDDEN2
 70
     0
  3
Hidden (.5x) _ _ _ _ _ _ _ _ _ _ _ _ _ _ _ _ _
 72
    65
 73
     2
 40
0.1875
 49
0.125
 74
     0
 49
-0.0625
 74
     0
  0
LTYPE
  5
27F
330
D
100
AcDbSymbolTableRecord
100
AcDbLinetypeTableRecord
  2
Amzigzag2
 70
     0
  3
/\/-/\/-/\/-/\/-/\/-/\/
 72
    65
 73
     2
 40
0.4401
 49
0.0001
 74
     4
 75
   135
340
279
 46
0.0016
 50
0.0
 44
0.0
 45
0.0
 49
-0.4400000000000001
 74
     0
  0
LTYPE
  5
28C
330
D
100
AcDbSymbolTableRecord
100
AcDbLinetypeTableRecord
  2
ACANSTGB
 70
     0
  3
__ . . __ . .
 72
    65
 73
     6
 40
0.35433070866
 49
0.15748031496
 74
     0
 49
-0.03937007874
 74
     0
 49
0.03937007874
 74
     0
 49
-0.03937007874
 74
     0
 49
0.03937007874
 74
     0
 49
-0.03937007874
 74
     0
  0
LTYPE
  5
28D
330
D
100
AcDbSymbolTableRecord
100
AcDbLinetypeTableRecord
  2
ACANSTGL
 70
     0
  3
_ _ _ _ _
 72
    65
 73
     2
 40
0.11811023622
 49
0.07874015748
 74
     0
 49
-0.03937007874
 74
     0
  0
LTYPE
  5
3FE
330
D
100
AcDbSymbolTableRecord
100
AcDbLinetypeTableRecord
  2
ACISOWELD
 70
     0
  3
_ _ _ _ _
 72
    65
 73
     2
 40
2.0
 49
2.0
 74
     0
 49
-1.0
 74
     0
  0
LTYPE
  5
3FF
330
D
100
AcDbSymbolTableRecord
100
AcDbLinetypeTableRecord
  2
ACISOTGB
 70
     0
  3
__ . . __ . .
 72
    65
 73
     6
 40
9.0
 49
4.0
 74
     0
 49
-1.0
 74
     0
 49
1.0
 74
     0
 49
-1.0
 74
     0
 49
1.0
 74
     0
 49
-1.0
 74
     0
  0
LTYPE
  5
400
330
D
100
AcDbSymbolTableRecord
100
AcDbLinetypeTableRecord
  2
ACISOTGL
 70
     0
  3
_ _ _ _ _
 72
    65
 73
     2
 40
3.0
 49
2.0
 74
     0
 49
-1.0
 74
     0
  0
LTYPE
  5
BB7
330
D
100
AcDbSymbolTableRecord
100
AcDbLinetypeTableRecord
  2
DASHED
 70
     0
  3
__ __ __ __ __ __ __ __ __ __ __ __ __ __ __ __
 72
    65
 73
     2
 40
0.75
 49
0.5
 74
     0
 49
-0.25
 74
     0
  0
ENDTAB
  0
TABLE
  2
LAYER
  5
A
102
{ACAD_XDICTIONARY
360
40D
102
}
330
0
100
AcDbSymbolTable
 70
     8
  0
LAYER
  5
4
330
A
100
AcDbSymbolTableRecord
100
AcDbLayerTableRecord
  2
0
 70
     0
 62
     2
  6
CONTINUOUS
370
    -3
390
CB
  0
LAYER
  5
1B
330
A
100
AcDbSymbolTableRecord
100
AcDbLayerTableRecord
  2
1
 70
     0
 62
     7
  6
CONTINUOUS
370
    -3
390
CB
  0
LAYER
  5
D4
330
A
100
AcDbSymbolTableRecord
100
AcDbLayerTableRecord
  2
LOGO
 70
     0
 62
     7
  6
CONTINUOUS
370
    -3
390
CB
  0
LAYER
  5
7CE
330
A
100
AcDbSymbolTableRecord
100
AcDbLayerTableRecord
  2
AM_5
 70
     0
 62
     5
  6
CONTINUOUS
370
    50
390
CB
  0
LAYER
  5
7DF
330
A
100
AcDbSymbolTableRecord
100
AcDbLayerTableRecord
  2
Defpoints
 70
     0
 62
     7
  6
CONTINUOUS
290
     0
370
    -3
390
CB
  0
LAYER
  5
F1B
330
A
100
AcDbSymbolTableRecord
100
AcDbLayerTableRecord
  2
center
 70
     0
 62
     1
  6
CENTER2
370
    -3
390
CB
  0
ENDTAB
  0
TABLE
  2
STYLE
  5
B
330
0
100
AcDbSymbolTable
 70
     8
  0
STYLE
  5
C
330
B
100
AcDbSymbolTableRecord
100
AcDbTextStyleTableRecord
  2
STANDARD
 70
     0
 40
0.0
 41
1.0
 50
0.0
 71
     0
 42
3.5
  3
ISOCP.SHX
  4

  0
STYLE
  5
1C
330
B
100
AcDbSymbolTableRecord
100
AcDbTextStyleTableRecord
  2
CHINA
 70
     0
 40
0.0
 41
1.0
 50
0.0
 71
     0
 42
3.0
  3
/rubon/c2
  4
CHINA.SHX
  0
STYLE
  5
D5
330
B
100
AcDbSymbolTableRecord
100
AcDbTextStyleTableRecord
  2
chineset
 70
     0
 40
0.0
 41
1.0
 50
0.0
 71
     0
 42
5.0
  3
simplex.shx
  4
chineset.shx
  0
STYLE
  5
279
330
B
100
AcDbSymbolTableRecord
100
AcDbTextStyleTableRecord
  2

 70
     1
 40
0.0
 41
1.0
 50
0.0
 71
     0
 42
3.0
  3
ltypeshp.shx
  4

  0
STYLE
  5
280
330
B
100
AcDbSymbolTableRecord
100
AcDbTextStyleTableRecord
  2
ACANSTS
 70
     0
 40
1.0
 41
1.0
 50
0.0
 71
     0
 42
3.0
  3
romans.shx
  4
chineset.shx
  0
STYLE
  5
28B
330
B
100
AcDbSymbolTableRecord
100
AcDbTextStyleTableRecord
  2
ACANSGDT
 70
     0
 40
0.0
 41
1.0
 50
0.0
 71
     0
 42
3.0
  3
amgdtans.shx
  4

  0
STYLE
  5
402
330
B
100
AcDbSymbolTableRecord
100
AcDbTextStyleTableRecord
  2
ACISOTS
 70
     0
 40
1.0
 41
1.0
 50
0.0
 71
     0
 42
1.0
  3
isocp.shx
  4
chineset.shx
  0
STYLE
  5
403
330
B
100
AcDbSymbolTableRecord
100
AcDbTextStyleTableRecord
  2
ACISOGDT
 70
     0
 40
0.0
 41
1.0
 50
0.0
 71
     0
 42
1.0
  3
amgdt.shx
  4

  0
ENDTAB
  0
TABLE
  2
VIEW
  5
10
330
0
100
AcDbSymbolTable
 70
     0
  0
ENDTAB
  0
TABLE
  2
UCS
  5
11
330
0
100
AcDbSymbolTable
 70
     0
  0
ENDTAB
  0
TABLE
  2
APPID
  5
14
330
0
100
AcDbSymbolTable
 70
    23
  0
APPID
  5
15
330
14
100
AcDbSymbolTableRecord
100
AcDbRegAppTableRecord
  2
ACAD
 70
     0
  0
APPID
  5
254
330
14
100
AcDbSymbolTableRecord
100
AcDbRegAppTableRecord
  2
MCAD_NO_VIS
 70
     0
  0
APPID
  5
255
330
14
100
AcDbSymbolTableRecord
100
AcDbRegAppTableRecord
  2
ACAD_TEMP_GRAPHIC
 70
     0
  0
APPID
  5
266
330
14
100
AcDbSymbolTableRecord
100
AcDbRegAppTableRecord
  2
ACATTRIBSERVICES
 70
     0
  0
APPID
  5
31D
330
14
100
AcDbSymbolTableRecord
100
AcDbRegAppTableRecord
  2
GENIUS_GENDIM_13
 70
     0
  0
APPID
  5
31E
330
14
100
AcDbSymbolTableRecord
100
AcDbRegAppTableRecord
  2
GENIUS_GENDTOL_13
 70
     0
  0
APPID
  5
31F
330
14
100
AcDbSymbolTableRecord
100
AcDbRegAppTableRecord
  2
GENIUS_GE3DTOL_13
 70
     0
  0
APPID
  5
34F
330
14
100
AcDbSymbolTableRecord
100
AcDbRegAppTableRecord
  2
AD_DRAW
 70
     0
  0
APPID
  5
39B
330
14
100
AcDbSymbolTableRecord
100
AcDbRegAppTableRecord
  2
ASURF_PCURVE_APPNAME
 70
     0
  0
APPID
  5
3A0
330
14
100
AcDbSymbolTableRecord
100
AcDbRegAppTableRecord
  2
AMG_3D2D_5.0
 70
     0
  0
APPID
  5
3CF
330
14
100
AcDbSymbolTableRecord
100
AcDbRegAppTableRecord
  2
DESIGNERASSEMBLIES
 70
     0
  0
APPID
  5
3D5
330
14
100
AcDbSymbolTableRecord
100
AcDbRegAppTableRecord
  2
ACADM_DIM_EDIT
 70
     0
  0
APPID
  5
3D6
330
14
100
AcDbSymbolTableRecord
100
AcDbRegAppTableRecord
  2
AMDT_DM_ADJ
 70
     0
  0
APPID
  5
87B
330
14
100
AcDbSymbolTableRecord
100
AcDbRegAppTableRecord
  2
ACAD_PSEXT
 70
     0
  0
APPID
  5
87C
330
14
100
AcDbSymbolTableRecord
100
AcDbRegAppTableRecord
  2
GENIUS_GENOBJ-N-CRS_13
 70
     0
  0
APPID
  5
87D
330
14
100
AcDbSymbolTableRecord
100
AcDbRegAppTableRecord
  2
GENIUS_GENOLIS_13
 70
     0
  0
APPID
  5
87E
330
14
100
AcDbSymbolTableRecord
100
AcDbRegAppTableRecord
  2
GENIUS_GENOENT_13
 70
     0
  0
APPID
  5
87F
330
14
100
AcDbSymbolTableRecord
100
AcDbRegAppTableRecord
  2
GENIUS_GENODEF_13
 70
     0
  0
APPID
  5
880
330
14
100
AcDbSymbolTableRecord
100
AcDbRegAppTableRecord
  2
GENIUS_GENOREF_13
 70
     0
  0
APPID
  5
881
330
14
100
AcDbSymbolTableRecord
100
AcDbRegAppTableRecord
  2
GENIUS_GENREC_14
 70
     0
  0
APPID
  5
882
330
14
100
AcDbSymbolTableRecord
100
AcDbRegAppTableRecord
  2
GENIUS_GENOBJ-N-REC_13
 70
     0
  0
APPID
  5
9A5
330
14
100
AcDbSymbolTableRecord
100
AcDbRegAppTableRecord
  2
ACAD_DSTYLE_DIMTEXT_FILL
 70
     0
  0
APPID
  5
DC7
330
14
100
AcDbSymbolTableRecord
100
AcDbRegAppTableRecord
  2
GENIUS_GENDIMSH_14
 70
     0
  0
ENDTAB
  0
TABLE
  2
DIMSTYLE
  5
16
330
0
100
AcDbSymbolTable
 70
    20
100
AcDbDimStyleTable
 71
     2
340
406
340
1E
  0
DIMSTYLE
105
1E
330
16
100
AcDbSymbolTableRecord
100
AcDbDimStyleTableRecord
  2
STANDARD
 70
     0
271
     2
272
     2
279
     2
284
     8
285
     8
286
     8
340
1C
  0
DIMSTYLE
105
291
330
16
100
AcDbSymbolTableRecord
100
AcDbDimStyleTableRecord
  2
AM_ANSI
 70
     0
  4
mm
 41
0.1
 42
0.05
 43
0.5
 44
0.1
 47
0.1
 48
0.1
 78
     7
 79
     2
140
0.12
141
0.0
146
0.71
147
0.06
176
   256
177
   256
178
     2
274
     4
284
     7
340
C
371
    -1
372
    -1
  0
DIMSTYLE
105
292
330
16
100
AcDbSymbolTableRecord
100
AcDbDimStyleTableRecord
  2
AM_ANSI$3
 70
     0
  4
mm
 41
0.1
 42
0.05
 43
0.5
 44
0.1
 47
0.1
 48
0.1
 78
     7
 79
     2
140
0.12
141
0.0
146
0.71
147
0.06
176
   256
177
   256
178
     2
274
     4
284
     7
288
     1
289
     0
340
C
371
    -1
372
    -1
  0
DIMSTYLE
105
293
330
16
100
AcDbSymbolTableRecord
100
AcDbDimStyleTableRecord
  2
AM_ANSI$4
 70
     0
  4
mm
 41
0.1
 42
0.05
 43
0.5
 44
0.1
 47
0.1
 48
0.1
 78
     7
 79
     2
140
0.12
141
0.0
146
0.71
147
0.06
176
   256
177
   256
178
     2
274
     4
284
     7
288
     1
289
     0
340
C
371
    -1
372
    -1
  0
DIMSTYLE
105
294
330
16
100
AcDbSymbolTableRecord
100
AcDbDimStyleTableRecord
  2
AM_ANSI$7
 70
     0
  4
mm
 41
0.1
 42
0.05
 43
0.5
 44
0.1
 47
0.1
 48
0.1
 78
     7
 79
     2
140
0.24
141
0.0
146
0.71
147
0.06
176
   256
177
   256
178
     2
274
     4
284
     7
340
C
371
    -1
372
    -1
  0
DIMSTYLE
105
295
330
16
100
AcDbSymbolTableRecord
100
AcDbDimStyleTableRecord
  2
AM_ANSI$SF
 70
     0
  4
mm
 41
0.1
 42
0.05
 43
0.5
 44
0.1
 47
0.1
 48
0.1
 75
     1
 76
     1
 78
     7
 79
     2
140
0.12
141
0.0
146
0.71
147
0.06
176
   256
177
   256
178
     2
274
     4
284
     7
340
C
371
    -1
372
    -1
  0
DIMSTYLE
105
29A
330
16
100
AcDbSymbolTableRecord
100
AcDbDimStyleTableRecord
  2
AM_ANSI$SH
 70
     0
  4
mm
 41
0.1
 42
0.05
 43
0.5
 44
0.1
 47
0.1
 48
0.1
 75
     1
 76
     1
 78
     7
 79
     2
140
0.12
141
0.0
146
0.71
147
0.06
173
     1
176
   256
177
   256
178
     2
274
     4
284
     7
340
C
341
296
343
296
371
    -1
372
    -1
  0
DIMSTYLE
105
406
330
16
100
AcDbSymbolTableRecord
100
AcDbDimStyleTableRecord
  2
AM_ISO
 70
     0
  4
"
 41
3.5
 42
1.0
 43
8.0
 44
1.0
 47
0.1
 48
0.1
 73
     0
 74
     0
 77
     1
 78
     8
 79
     2
140
3.5
141
0.0
143
0.0393701
146
0.71
147
1.0
172
     1
176
   256
177
   256
178
   256
271
     2
272
     2
283
     0
284
     8
285
     8
340
C
371
    -1
372
    -1
  0
DIMSTYLE
105
407
330
16
100
AcDbSymbolTableRecord
100
AcDbDimStyleTableRecord
  2
AM_ISO$SF
 70
     0
  4
"
 41
2.5
 42
1.0
 43
10.0
 44
1.0
 47
0.1
 48
0.1
 73
     0
 74
     0
 75
     1
 76
     1
 77
     1
 78
     8
 79
     2
140
3.5
141
0.0
143
0.0393701
146
0.71
147
1.0
172
     1
176
   256
177
   256
178
   256
271
     2
272
     2
283
     0
284
     8
340
C
371
    -1
372
    -1
  0
DIMSTYLE
105
408
330
16
100
AcDbSymbolTableRecord
100
AcDbDimStyleTableRecord
  2
AM_ISO$SH
 70
     0
  4
"
 41
2.5
 42
1.0
 43
10.0
 44
1.0
 47
0.1
 48
0.1
 73
     0
 74
     0
 75
     1
 76
     1
 77
     1
 78
     8
 79
     2
140
3.5
141
0.0
143
0.0393701
144
2.0
146
0.71
147
1.0
172
     1
173
     1
176
   256
177
   256
178
   256
271
     2
272
     2
283
     0
284
     8
340
C
343
296
371
    -1
372
    -1
  0
DIMSTYLE
105
409
330
16
100
AcDbSymbolTableRecord
100
AcDbDimStyleTableRecord
  2
AM_ISO$3
 70
     0
  4
"
 41
3.5
 42
1.0
 43
8.0
 44
1.0
 47
0.1
 48
0.1
 73
     0
 77
     1
 78
     8
 79
     2
140
3.5
141
0.0
143
0.0393701
146
0.71
147
1.0
176
   256
177
   256
178
   256
271
     2
272
     2
283
     0
284
     8
285
     8
288
     1
289
     0
340
C
371
    -1
372
    -1
  0
DIMSTYLE
105
40A
330
16
100
AcDbSymbolTableRecord
100
AcDbDimStyleTableRecord
  2
AM_ISO$4
 70
     0
  4
"
 41
3.5
 42
1.0
 43
8.0
 44
1.0
 47
0.1
 48
0.1
 73
     0
 77
     1
 78
     8
 79
     2
140
3.5
141
0.0
143
0.0393701
146
0.71
147
1.0
176
   256
177
   256
178
   256
271
     2
272
     2
283
     0
284
     8
285
     8
288
     1
289
     0
340
C
371
    -1
372
    -1
  0
DIMSTYLE
105
40B
330
16
100
AcDbSymbolTableRecord
100
AcDbDimStyleTableRecord
  2
AM_ISO$6
 70
     0
  4
"
 41
3.5
 42
1.0
 43
8.0
 44
1.0
 47
0.1
 48
0.1
 73
     0
 74
     0
 78
     8
 79
     2
140
3.5
141
0.0
143
0.0393701
146
0.71
147
1.0
172
     1
176
   256
177
   256
178
   256
271
     2
272
     2
283
     0
284
     8
285
     8
340
C
371
    -1
372
    -1
  0
DIMSTYLE
105
40C
102
{ACAD_REACTORS
330
E42
102
}
330
16
100
AcDbSymbolTableRecord
100
AcDbDimStyleTableRecord
  2
AM_ISO$7
 70
     0
  4
"
 41
3.5
 42
1.0
 43
8.0
 44
1.0
 47
0.1
 48
0.1
 73
     0
 74
     0
 77
     1
 78
     8
 79
     2
140
5.0
141
0.0
143
0.0393701
146
0.71
147
1.5
172
     1
176
   256
177
   256
178
   256
271
     2
272
     2
283
     0
284
     8
285
     8
340
C
371
    -1
372
    -1
  0
DIMSTYLE
105
7DA
102
{ACAD_REACTORS
330
1076
330
1077
330
1078
330
1079
330
107A
330
107B
330
107C
330
107D
330
107E
330
107F
330
1080
330
1081
330
1086
102
}
330
16
100
AcDbSymbolTableRecord
100
AcDbDimStyleTableRecord
  2
STANDARD$0
 70
     0
271
     2
272
     2
279
     2
284
     8
285
     8
286
     8
340
1C
  0
DIMSTYLE
105
B8F
330
16
100
AcDbSymbolTableRecord
100
AcDbDimStyleTableRecord
  2
AM_ISO$0
 70
     0
  4
"
 41
3.5
 42
1.0
 43
8.0
 44
1.0
 47
0.1
 48
0.1
 73
     0
 74
     0
 77
     1
 78
     8
 79
     2
140
3.5
141
0.0
143
0.0393701
146
0.71
147
1.0
172
     1
176
   256
177
   256
178
   256
271
     2
272
     2
283
     0
284
     8
285
     8
340
C
371
    -1
372
    -1
  0
ENDTAB
  0
TABLE
  2
BLOCK_RECORD
  5
1
330
0
100
AcDbSymbolTable
 70
    53
  0
BLOCK_RECORD
  5
2
102
{ACAD_XDICTIONARY
360
226
102
}
330
1
100
AcDbSymbolTableRecord
100
AcDbBlockTableRecord
  2
*MODEL_SPACE
340
CE
  0
BLOCK_RECORD
  5
7
102
{ACAD_XDICTIONARY
360
228
102
}
330
1
100
AcDbSymbolTableRecord
100
AcDbBlockTableRecord
  2
*PAPER_SPACE
340
CF
  0
BLOCK_RECORD
  5
296
330
1
100
AcDbSymbolTableRecord
100
AcDbBlockTableRecord
  2
GENAXEH
340
0
  0
BLOCK_RECORD
  5
3C6
330
1
100
AcDbSymbolTableRecord
100
AcDbBlockTableRecord
  2
*U1
340
0
  0
BLOCK_RECORD
  5
9FC
330
1
100
AcDbSymbolTableRecord
100
AcDbBlockTableRecord
  2
*U6
340
0
102
{BLKREFS
331
A0E
331
A0F
331
A13
102
}
  0
BLOCK_RECORD
  5
A00
330
1
100
AcDbSymbolTableRecord
100
AcDbBlockTableRecord
  2
*U7
340
0
102
{BLKREFS
331
A10
102
}
  0
BLOCK_RECORD
  5
A04
330
1
100
AcDbSymbolTableRecord
100
AcDbBlockTableRecord
  2
*U8
340
0
102
{BLKREFS
331
A11
102
}
  0
BLOCK_RECORD
  5
A08
330
1
100
AcDbSymbolTableRecord
100
AcDbBlockTableRecord
  2
*U9
340
0
102
{BLKREFS
331
A12
102
}
  0
BLOCK_RECORD
  5
A0C
330
1
100
AcDbSymbolTableRecord
100
AcDbBlockTableRecord
  2
*U10
340
0
  0
BLOCK_RECORD
  5
1087
330
1
100
AcDbSymbolTableRecord
100
AcDbBlockTableRecord
  2
*D40
340
0
  0
BLOCK_RECORD
  5
1093
330
1
100
AcDbSymbolTableRecord
100
AcDbBlockTableRecord
  2
*D41
340
0
  0
BLOCK_RECORD
  5
109F
330
1
100
AcDbSymbolTableRecord
100
AcDbBlockTableRecord
  2
*D42
340
0
  0
BLOCK_RECORD
  5
10AB
330
1
100
AcDbSymbolTableRecord
100
AcDbBlockTableRecord
  2
*D43
340
0
  0
BLOCK_RECORD
  5
10B9
330
1
100
AcDbSymbolTableRecord
100
AcDbBlockTableRecord
  2
*D44
340
0
  0
BLOCK_RECORD
  5
10C7
330
1
100
AcDbSymbolTableRecord
100
AcDbBlockTableRecord
  2
*D45
340
0
  0
BLOCK_RECORD
  5
10D3
330
1
100
AcDbSymbolTableRecord
100
AcDbBlockTableRecord
  2
*D46
340
0
  0
BLOCK_RECORD
  5
10DF
330
1
100
AcDbSymbolTableRecord
100
AcDbBlockTableRecord
  2
*D47
340
0
  0
BLOCK_RECORD
  5
10EB
330
1
100
AcDbSymbolTableRecord
100
AcDbBlockTableRecord
  2
*D48
340
0
  0
BLOCK_RECORD
  5
10F9
330
1
100
AcDbSymbolTableRecord
100
AcDbBlockTableRecord
  2
*D49
340
0
  0
BLOCK_RECORD
  5
1107
330
1
100
AcDbSymbolTableRecord
100
AcDbBlockTableRecord
  2
*D50
340
0
  0
BLOCK_RECORD
  5
1113
330
1
100
AcDbSymbolTableRecord
100
AcDbBlockTableRecord
  2
*D51
340
0
  0
BLOCK_RECORD
  5
1121
330
1
100
AcDbSymbolTableRecord
100
AcDbBlockTableRecord
  2
*D52
340
0
  0
ENDTAB
  0
ENDSEC
  0
SECTION
  2
BLOCKS
  0
BLOCK
  5
3
330
2
100
AcDbEntity
  8
0
100
AcDbBlockBegin
  2
*MODEL_SPACE
 70
     0
 10
0.0
 20
0.0
 30
0.0
  3
*MODEL_SPACE
  1

  0
ENDBLK
  5
6
330
2
100
AcDbEntity
  8
0
100
AcDbBlockEnd
  0
BLOCK
  5
8
330
7
100
AcDbEntity
 67
     1
  8
0
100
AcDbBlockBegin
  2
*PAPER_SPACE
 70
     0
 10
0.0
 20
0.0
 30
0.0
  3
*PAPER_SPACE
  1

  0
ENDBLK
  5
9
330
7
100
AcDbEntity
 67
     1
  8
0
100
AcDbBlockEnd
  0
BLOCK
  5
298
330
296
100
AcDbEntity
  8
0
100
AcDbBlockBegin
  2
GENAXEH
 70
     0
 10
0.0
 20
0.0
 30
0.0
  3
GENAXEH
  1

  0
LINE
  5
297
330
296
100
AcDbEntity
  8
0
100
AcDbLine
 10
-1.0
 20
0.0
 30
0.0
 11
1.0
 21
0.0
 31
0.0
  0
ENDBLK
  5
299
330
296
100
AcDbEntity
  8
0
100
AcDbBlockEnd
  0
BLOCK
  5
3C7
330
3C6
100
AcDbEntity
  8
0
100
AcDbBlockBegin
  2
*U1
 70
     1
 10
0.0
 20
0.0
 30
0.0
  3
*U1
  1

  0
ENDBLK
  5
3C8
330
3C6
100
AcDbEntity
  8
0
100
AcDbBlockEnd
  0
BLOCK
  5
9FD
330
9FC
100
AcDbEntity
  8
0
100
AcDbBlockBegin
  2
*U6
 70
     1
 10
0.0
 20
0.0
 30
0.0
  3
*U6
  1

  0
ENDBLK
  5
9FF
330
9FC
100
AcDbEntity
  8
0
100
AcDbBlockEnd
  0
BLOCK
  5
A01
330
A00
100
AcDbEntity
  8
0
100
AcDbBlockBegin
  2
*U7
 70
     1
 10
0.0
 20
0.0
 30
0.0
  3
*U7
  1

  0
ENDBLK
  5
A03
330
A00
100
AcDbEntity
  8
0
100
AcDbBlockEnd
  0
BLOCK
  5
A05
330
A04
100
AcDbEntity
  8
0
100
AcDbBlockBegin
  2
*U8
 70
     1
 10
0.0
 20
0.0
 30
0.0
  3
*U8
  1

  0
ENDBLK
  5
A07
330
A04
100
AcDbEntity
  8
0
100
AcDbBlockEnd
  0
BLOCK
  5
A09
330
A08
100
AcDbEntity
  8
0
100
AcDbBlockBegin
  2
*U9
 70
     1
 10
0.0
 20
0.0
 30
0.0
  3
*U9
  1

  0
ENDBLK
  5
A0B
330
A08
100
AcDbEntity
  8
0
100
AcDbBlockEnd
  0
BLOCK
  5
A0D
330
A0C
100
AcDbEntity
  8
0
100
AcDbBlockBegin
  2
*U10
 70
     1
 10
0.0
 20
0.0
 30
0.0
  3
*U10
  1

  0
ENDBLK
  5
A14
330
A0C
100
AcDbEntity
  8
0
100
AcDbBlockEnd
  0
BLOCK
  5
1091
330
1087
100
AcDbEntity
  8
0
100
AcDbBlockBegin
  2
*D40
 70
     1
 10
0.0
 20
0.0
 30
0.0
  3
*D40
  1

  0
LINE
  5
112D
330
1087
100
AcDbEntity
  8
AM_5
 62
     5
370
    -2
100
AcDbLine
 10
506.5672641860973
 20
-86.79158062709754
 30
0.0
 11
506.5672641860973
 21
-103.4323357994723
 31
0.0
  0
LINE
  5
112E
330
1087
100
AcDbEntity
  8
AM_5
 62
     5
370
    -2
100
AcDbLine
 10
533.5672641860972
 20
-86.79158062709754
 30
0.0
 11
533.5672641860972
 21
-103.4323357994723
 31
0.0
  0
LINE
  5
112F
330
1087
100
AcDbEntity
  8
AM_5
 62
     0
370
    -2
100
AcDbLine
 10
509.5672641860972
 20
-102.4323357994724
 30
0.0
 11
530.5672641860971
 21
-102.4323357994724
 31
0.0
  0
SOLID
  5
1130
330
1087
100
AcDbEntity
  8
AM_5
 62
     0
100
AcDbTrace
 10
509.5672641860972
 20
-101.9323357994724
 30
0.0
 11
509.5672641860972
 21
-102.9323357994724
 31
0.0
 12
506.5672641860973
 22
-102.4323357994724
 32
0.0
 13
506.5672641860973
 23
-102.4323357994724
 33
0.0
  0
SOLID
  5
1131
330
1087
100
AcDbEntity
  8
AM_5
 62
     0
100
AcDbTrace
 10
530.5672641860971
 20
-101.9323357994724
 30
0.0
 11
530.5672641860971
 21
-102.9323357994724
 31
0.0
 12
533.5672641860972
 22
-102.4323357994724
 32
0.0
 13
533.5672641860972
 23
-102.4323357994724
 33
0.0
  0
MTEXT
  5
1132
330
1087
100
AcDbEntity
  8
AM_5
 62
     5
100
AcDbMText
 10
520.0672641860972
 20
-100.1820897364802
 30
0.0
 40
2.5
 41
0.0
 71
     5
 72
     1
  1
\A1;27 
 73
     1
 44
1.0
  0
POINT
  5
1133
330
1087
100
AcDbEntity
  8
Defpoints
 62
     0
100
AcDbPoint
 10
506.5672641860973
 20
-85.79158062709755
 30
0.0
  0
POINT
  5
1134
330
1087
100
AcDbEntity
  8
Defpoints
 62
     0
100
AcDbPoint
 10
533.5672641860972
 20
-85.79158062709755
 30
0.0
  0
POINT
  5
1135
330
1087
100
AcDbEntity
  8
Defpoints
 62
     0
100
AcDbPoint
 10
533.5672641860972
 20
-102.4323357994724
 30
0.0
  0
ENDBLK
  5
1092
330
1087
100
AcDbEntity
  8
0
100
AcDbBlockEnd
  0
BLOCK
  5
109D
330
1093
100
AcDbEntity
  8
0
100
AcDbBlockBegin
  2
*D41
 70
     1
 10
0.0
 20
0.0
 30
0.0
  3
*D41
  1

  0
LINE
  5
1136
330
1093
100
AcDbEntity
  8
AM_5
 62
     5
370
    -2
100
AcDbLine
 10
513.0672641860972
 20
-86.79158062709754
 30
0.0
 11
513.0672641860972
 21
-96.9101870393657
 31
0.0
  0
LINE
  5
1137
330
1093
100
AcDbEntity
  8
AM_5
 62
     5
370
    -2
100
AcDbLine
 10
527.0672641860971
 20
-86.79158062709754
 30
0.0
 11
527.0672641860971
 21
-96.9101870393657
 31
0.0
  0
LINE
  5
1138
330
1093
100
AcDbEntity
  8
AM_5
 62
     0
370
    -2
100
AcDbLine
 10
516.0672641860973
 20
-95.91018703936569
 30
0.0
 11
524.0672641860972
 21
-95.91018703936569
 31
0.0
  0
SOLID
  5
1139
330
1093
100
AcDbEntity
  8
AM_5
 62
     0
100
AcDbTrace
 10
516.0672641860973
 20
-95.4101870393657
 30
0.0
 11
516.0672641860973
 21
-96.4101870393657
 31
0.0
 12
513.0672641860972
 22
-95.91018703936569
 32
0.0
 13
513.0672641860972
 23
-95.91018703936569
 33
0.0
  0
SOLID
  5
113A
330
1093
100
AcDbEntity
  8
AM_5
 62
     0
100
AcDbTrace
 10
524.0672641860972
 20
-95.4101870393657
 30
0.0
 11
524.0672641860972
 21
-96.4101870393657
 31
0.0
 12
527.0672641860971
 22
-95.91018703936569
 32
0.0
 13
527.0672641860971
 23
-95.91018703936569
 33
0.0
  0
MTEXT
  5
113B
330
1093
100
AcDbEntity
  8
AM_5
 62
     5
100
AcDbMText
 10
520.0672641860972
 20
-93.65994097637358
 30
0.0
 40
2.5
 41
0.0
 71
     5
 72
     1
  1
\A1;14.2
 73
     1
 44
1.0
  0
POINT
  5
113C
330
1093
100
AcDbEntity
  8
Defpoints
 62
     0
100
AcDbPoint
 10
513.0672641860972
 20
-85.79158062709755
 30
0.0
  0
POINT
  5
113D
330
1093
100
AcDbEntity
  8
Defpoints
 62
     0
100
AcDbPoint
 10
527.0672641860971
 20
-85.79158062709755
 30
0.0
  0
POINT
  5
113E
330
1093
100
AcDbEntity
  8
Defpoints
 62
     0
100
AcDbPoint
 10
527.0672641860971
 20
-95.91018703936569
 30
0.0
  0
ENDBLK
  5
109E
330
1093
100
AcDbEntity
  8
0
100
AcDbBlockEnd
  0
BLOCK
  5
10A9
330
109F
100
AcDbEntity
  8
0
100
AcDbBlockBegin
  2
*D42
 70
     1
 10
0.0
 20
0.0
 30
0.0
  3
*D42
  1

  0
LINE
  5
113F
330
109F
100
AcDbEntity
  8
AM_5
 62
     5
370
    -2
100
AcDbLine
 10
512.0672641860972
 20
-53.79158062709755
 30
0.0
 11
463.9228891386102
 21
-53.79158062709753
 31
0.0
  0
LINE
  5
1140
330
109F
100
AcDbEntity
  8
AM_5
 62
     5
370
    -2
100
AcDbLine
 10
505.5672641860972
 20
-85.79158062709755
 30
0.0
 11
463.9228891386102
 21
-85.79158062709753
 31
0.0
  0
LINE
  5
1141
330
109F
100
AcDbEntity
  8
AM_5
 62
     0
370
    -2
100
AcDbLine
 10
464.9228891386102
 20
-56.79158062709753
 30
0.0
 11
464.9228891386102
 21
-82.79158062709752
 31
0.0
  0
SOLID
  5
1142
330
109F
100
AcDbEntity
  8
AM_5
 62
     0
100
AcDbTrace
 10
464.4228891386102
 20
-56.79158062709753
 30
0.0
 11
465.4228891386103
 21
-56.79158062709753
 31
0.0
 12
464.9228891386102
 22
-53.79158062709754
 32
0.0
 13
464.9228891386102
 23
-53.79158062709754
 33
0.0
  0
SOLID
  5
1143
330
109F
100
AcDbEntity
  8
AM_5
 62
     0
100
AcDbTrace
 10
464.4228891386102
 20
-82.79158062709752
 30
0.0
 11
465.4228891386103
 21
-82.79158062709752
 31
0.0
 12
464.9228891386102
 22
-85.79158062709753
 32
0.0
 13
464.9228891386102
 23
-85.79158062709753
 33
0.0
  0
MTEXT
  5
1144
330
109F
100
AcDbEntity
  8
AM_5
 62
     5
100
AcDbMText
 10
462.6726430756181
 20
-69.79158062709746
 30
0.0
 40
2.5
 41
0.0
 71
     5
 72
     1
  1
\A1;32 
 11
0.0000000000000001
 21
1.0
 31
0.0
 73
     1
 44
1.0
  0
POINT
  5
1145
330
109F
100
AcDbEntity
  8
Defpoints
 62
     0
100
AcDbPoint
 10
513.0672641860972
 20
-53.79158062709755
 30
0.0
  0
POINT
  5
1146
330
109F
100
AcDbEntity
  8
Defpoints
 62
     0
100
AcDbPoint
 10
506.5672641860973
 20
-85.79158062709755
 30
0.0
  0
POINT
  5
1147
330
109F
100
AcDbEntity
  8
Defpoints
 62
     0
100
AcDbPoint
 10
464.9228891386102
 20
-85.79158062709753
 30
0.0
  0
ENDBLK
  5
10AA
330
109F
100
AcDbEntity
  8
0
100
AcDbBlockEnd
  0
BLOCK
  5
10B7
330
10AB
100
AcDbEntity
  8
0
100
AcDbBlockBegin
  2
*D43
 70
     1
 10
0.0
 20
0.0
 30
0.0
  3
*D43
  1

  0
LINE
  5
1148
330
10AB
100
AcDbEntity
  8
AM_5
 62
     5
370
    -2
100
AcDbLine
 10
524.6768641860971
 20
-79.79158062709754
 30
0.0
 11
573.9862233326812
 21
-79.79158062709756
 31
0.0
  0
LINE
  5
1149
330
10AB
100
AcDbEntity
  8
AM_5
 62
     5
370
    -2
100
AcDbLine
 10
534.5672641860971
 20
-85.79158062709755
 30
0.0
 11
573.9862233326812
 21
-85.79158062709757
 31
0.0
  0
LINE
  5
114A
330
10AB
100
AcDbEntity
  8
AM_5
 62
     0
370
    -2
100
AcDbLine
 10
572.9862233326811
 20
-76.79158062709756
 30
0.0
 11
572.9862233326811
 21
-73.79158062709755
 31
0.0
  0
LINE
  5
114B
330
10AB
100
AcDbEntity
  8
AM_5
 62
     0
370
    -2
100
AcDbLine
 10
572.9862233326811
 20
-88.79158062709755
 30
0.0
 11
572.9862233326811
 21
-91.79158062709756
 31
0.0
  0
LINE
  5
114C
330
10AB
100
AcDbEntity
  8
AM_5
 62
     0
370
    -2
100
AcDbLine
 10
572.9862233326811
 20
-79.79158062709756
 30
0.0
 11
572.9862233326811
 21
-85.79158062709757
 31
0.0
  0
SOLID
  5
114D
330
10AB
100
AcDbEntity
  8
AM_5
 62
     0
100
AcDbTrace
 10
572.4862233326811
 20
-76.79158062709756
 30
0.0
 11
573.4862233326812
 21
-76.79158062709756
 31
0.0
 12
572.9862233326811
 22
-79.79158062709756
 32
0.0
 13
572.9862233326811
 23
-79.79158062709756
 33
0.0
  0
SOLID
  5
114E
330
10AB
100
AcDbEntity
  8
AM_5
 62
     0
100
AcDbTrace
 10
572.4862233326811
 20
-88.79158062709755
 30
0.0
 11
573.4862233326812
 21
-88.79158062709755
 31
0.0
 12
572.9862233326811
 22
-85.79158062709757
 32
0.0
 13
572.9862233326811
 23
-85.79158062709757
 33
0.0
  0
MTEXT
  5
114F
330
10AB
100
AcDbEntity
  8
AM_5
 62
     5
100
AcDbMText
 10
570.7362233326811
 20
-82.79158062709745
 30
0.0
 40
2.5
 41
0.0
 71
     5
 72
     1
  1
\A1;6 
 11
0.0000000000000001
 21
1.0
 31
0.0
 73
     1
 44
1.0
  0
POINT
  5
1150
330
10AB
100
AcDbEntity
  8
Defpoints
 62
     0
100
AcDbPoint
 10
523.6768641860972
 20
-79.79158062709754
 30
0.0
  0
POINT
  5
1151
330
10AB
100
AcDbEntity
  8
Defpoints
 62
     0
100
AcDbPoint
 10
533.5672641860972
 20
-85.79158062709755
 30
0.0
  0
POINT
  5
1152
330
10AB
100
AcDbEntity
  8
Defpoints
 62
     0
100
AcDbPoint
 10
572.9862233326811
 20
-85.79158062709757
 30
0.0
  0
ENDBLK
  5
10B8
330
10AB
100
AcDbEntity
  8
0
100
AcDbBlockEnd
  0
BLOCK
  5
10C5
330
10B9
100
AcDbEntity
  8
0
100
AcDbBlockBegin
  2
*D44
 70
     1
 10
0.0
 20
0.0
 30
0.0
  3
*D44
  1

  0
LINE
  5
1153
330
10B9
100
AcDbEntity
  8
AM_5
 62
     5
370
    -2
100
AcDbLine
 10
524.6768641860971
 20
-59.79158062709754
 30
0.0
 11
568.6465942757754
 21
-59.79158062709756
 31
0.0
  0
LINE
  5
1154
330
10B9
100
AcDbEntity
  8
AM_5
 62
     5
370
    -2
100
AcDbLine
 10
528.0672641860973
 20
-65.79158062709755
 30
0.0
 11
568.6465942757754
 21
-65.79158062709756
 31
0.0
  0
LINE
  5
1155
330
10B9
100
AcDbEntity
  8
AM_5
 62
     0
370
    -2
100
AcDbLine
 10
567.6465942757754
 20
-56.79158062709756
 30
0.0
 11
567.6465942757754
 21
-53.79158062709755
 31
0.0
  0
LINE
  5
1156
330
10B9
100
AcDbEntity
  8
AM_5
 62
     0
370
    -2
100
AcDbLine
 10
567.6465942757754
 20
-68.79158062709755
 30
0.0
 11
567.6465942757754
 21
-71.79158062709756
 31
0.0
  0
LINE
  5
1157
330
10B9
100
AcDbEntity
  8
AM_5
 62
     0
370
    -2
100
AcDbLine
 10
567.6465942757754
 20
-59.79158062709756
 30
0.0
 11
567.6465942757754
 21
-65.79158062709756
 31
0.0
  0
SOLID
  5
1158
330
10B9
100
AcDbEntity
  8
AM_5
 62
     0
100
AcDbTrace
 10
567.1465942757754
 20
-56.79158062709756
 30
0.0
 11
568.1465942757754
 21
-56.79158062709756
 31
0.0
 12
567.6465942757754
 22
-59.79158062709756
 32
0.0
 13
567.6465942757754
 23
-59.79158062709756
 33
0.0
  0
SOLID
  5
1159
330
10B9
100
AcDbEntity
  8
AM_5
 62
     0
100
AcDbTrace
 10
567.1465942757754
 20
-68.79158062709755
 30
0.0
 11
568.1465942757754
 21
-68.79158062709755
 31
0.0
 12
567.6465942757754
 22
-65.79158062709756
 32
0.0
 13
567.6465942757754
 23
-65.79158062709756
 33
0.0
  0
MTEXT
  5
115A
330
10B9
100
AcDbEntity
  8
AM_5
 62
     5
100
AcDbMText
 10
565.3965942757754
 20
-62.79158062709747
 30
0.0
 40
2.5
 41
0.0
 71
     5
 72
     1
  1
\A1;6 
 11
0.0000000000000001
 21
1.0
 31
0.0
 73
     1
 44
1.0
  0
POINT
  5
115B
330
10B9
100
AcDbEntity
  8
Defpoints
 62
     0
100
AcDbPoint
 10
523.6768641860972
 20
-59.79158062709754
 30
0.0
  0
POINT
  5
115C
330
10B9
100
AcDbEntity
  8
Defpoints
 62
     0
100
AcDbPoint
 10
527.0672641860973
 20
-65.79158062709755
 30
0.0
  0
POINT
  5
115D
330
10B9
100
AcDbEntity
  8
Defpoints
 62
     0
100
AcDbPoint
 10
567.6465942757754
 20
-65.79158062709756
 30
0.0
  0
ENDBLK
  5
10C6
330
10B9
100
AcDbEntity
  8
0
100
AcDbBlockEnd
  0
BLOCK
  5
10D1
330
10C7
100
AcDbEntity
  8
0
100
AcDbBlockBegin
  2
*D45
 70
     1
 10
0.0
 20
0.0
 30
0.0
  3
*D45
  1

  0
LINE
  5
115E
330
10C7
100
AcDbEntity
  8
AM_5
 62
     5
370
    -2
100
AcDbLine
 10
524.6768641860971
 20
-59.79158062709754
 30
0.0
 11
573.9862233326812
 21
-59.79158062709756
 31
0.0
  0
LINE
  5
115F
330
10C7
100
AcDbEntity
  8
AM_5
 62
     5
370
    -2
100
AcDbLine
 10
524.6768641860971
 20
-79.79158062709754
 30
0.0
 11
573.9862233326812
 21
-79.79158062709756
 31
0.0
  0
LINE
  5
1160
330
10C7
100
AcDbEntity
  8
AM_5
 62
     0
370
    -2
100
AcDbLine
 10
572.9862233326811
 20
-62.79158062709756
 30
0.0
 11
572.9862233326811
 21
-76.79158062709756
 31
0.0
  0
SOLID
  5
1161
330
10C7
100
AcDbEntity
  8
AM_5
 62
     0
100
AcDbTrace
 10
572.4862233326811
 20
-62.79158062709756
 30
0.0
 11
573.4862233326812
 21
-62.79158062709756
 31
0.0
 12
572.9862233326811
 22
-59.79158062709756
 32
0.0
 13
572.9862233326811
 23
-59.79158062709756
 33
0.0
  0
SOLID
  5
1162
330
10C7
100
AcDbEntity
  8
AM_5
 62
     0
100
AcDbTrace
 10
572.4862233326811
 20
-76.79158062709756
 30
0.0
 11
573.4862233326812
 21
-76.79158062709756
 31
0.0
 12
572.9862233326811
 22
-79.79158062709756
 32
0.0
 13
572.9862233326811
 23
-79.79158062709756
 33
0.0
  0
MTEXT
  5
1163
330
10C7
100
AcDbEntity
  8
AM_5
 62
     5
100
AcDbMText
 10
570.735977269689
 20
-69.79158062709746
 30
0.0
 40
2.5
 41
0.0
 71
     5
 72
     1
  1
\A1;20 
 11
0.0000000000000001
 21
1.0
 31
0.0
 73
     1
 44
1.0
  0
POINT
  5
1164
330
10C7
100
AcDbEntity
  8
Defpoints
 62
     0
100
AcDbPoint
 10
523.6768641860972
 20
-59.79158062709754
 30
0.0
  0
POINT
  5
1165
330
10C7
100
AcDbEntity
  8
Defpoints
 62
     0
100
AcDbPoint
 10
523.6768641860972
 20
-79.79158062709754
 30
0.0
  0
POINT
  5
1166
330
10C7
100
AcDbEntity
  8
Defpoints
 62
     0
100
AcDbPoint
 10
572.9862233326811
 20
-79.79158062709756
 30
0.0
  0
ENDBLK
  5
10D2
330
10C7
100
AcDbEntity
  8
0
100
AcDbBlockEnd
  0
BLOCK
  5
10DD
330
10D3
100
AcDbEntity
  8
0
100
AcDbBlockBegin
  2
*D46
 70
     1
 10
0.0
 20
0.0
 30
0.0
  3
*D46
  1

  0
LINE
  5
1167
330
10D3
100
AcDbEntity
  8
AM_5
 62
     5
370
    -2
100
AcDbLine
 10
576.7650241860973
 20
-33.79158062709755
 30
0.0
 11
582.6874122927853
 21
-33.79158062709755
 31
0.0
  0
LINE
  5
1168
330
10D3
100
AcDbEntity
  8
AM_5
 62
     5
370
    -2
100
AcDbLine
 10
534.5672641860971
 20
-85.79158062709755
 30
0.0
 11
582.6874122927853
 21
-85.79158062709757
 31
0.0
  0
LINE
  5
1169
330
10D3
100
AcDbEntity
  8
AM_5
 62
     0
370
    -2
100
AcDbLine
 10
581.6874122927853
 20
-36.79158062709755
 30
0.0
 11
581.6874122927853
 21
-82.79158062709756
 31
0.0
  0
SOLID
  5
116A
330
10D3
100
AcDbEntity
  8
AM_5
 62
     0
100
AcDbTrace
 10
581.1874122927853
 20
-36.79158062709755
 30
0.0
 11
582.1874122927853
 21
-36.79158062709755
 31
0.0
 12
581.6874122927853
 22
-33.79158062709755
 32
0.0
 13
581.6874122927853
 23
-33.79158062709755
 33
0.0
  0
SOLID
  5
116B
330
10D3
100
AcDbEntity
  8
AM_5
 62
     0
100
AcDbTrace
 10
581.1874122927853
 20
-82.79158062709756
 30
0.0
 11
582.1874122927853
 21
-82.79158062709756
 31
0.0
 12
581.6874122927853
 22
-85.79158062709757
 32
0.0
 13
581.6874122927853
 23
-85.79158062709757
 33
0.0
  0
MTEXT
  5
116C
330
10D3
100
AcDbEntity
  8
AM_5
 62
     5
100
AcDbMText
 10
579.4371662297931
 20
-59.79158062709746
 30
0.0
 40
2.5
 41
0.0
 71
     5
 72
     1
  1
\A1;52 
 11
0.0000000000000001
 21
1.0
 31
0.0
 73
     1
 44
1.0
  0
POINT
  5
116D
330
10D3
100
AcDbEntity
  8
Defpoints
 62
     0
100
AcDbPoint
 10
575.7650241860972
 20
-33.79158062709755
 30
0.0
  0
POINT
  5
116E
330
10D3
100
AcDbEntity
  8
Defpoints
 62
     0
100
AcDbPoint
 10
533.5672641860972
 20
-85.79158062709755
 30
0.0
  0
POINT
  5
116F
330
10D3
100
AcDbEntity
  8
Defpoints
 62
     0
100
AcDbPoint
 10
581.6874122927853
 20
-85.79158062709757
 30
0.0
  0
ENDBLK
  5
10DE
330
10D3
100
AcDbEntity
  8
0
100
AcDbBlockEnd
  0
BLOCK
  5
10E9
330
10DF
100
AcDbEntity
  8
0
100
AcDbBlockBegin
  2
*D47
 70
     1
 10
0.0
 20
0.0
 30
0.0
  3
*D47
  1

  0
LINE
  5
11AC
330
10DF
100
AcDbEntity
  8
AM_5
 62
     5
370
    -2
100
AcDbLine
 10
651.4038462580455
 20
-86.79158062709754
 30
0.0
 11
651.4038462580455
 21
-103.4323357994722
 31
0.0
  0
LINE
  5
11AD
330
10DF
100
AcDbEntity
  8
AM_5
 62
     5
370
    -2
100
AcDbLine
 10
697.4038462580456
 20
-84.7915806270976
 30
0.0
 11
697.4038462580456
 21
-103.4323357994722
 31
0.0
  0
LINE
  5
11AE
330
10DF
100
AcDbEntity
  8
AM_5
 62
     0
370
    -2
100
AcDbLine
 10
654.4038462580455
 20
-102.4323357994722
 30
0.0
 11
694.4038462580456
 21
-102.4323357994722
 31
0.0
  0
SOLID
  5
11AF
330
10DF
100
AcDbEntity
  8
AM_5
 62
     0
100
AcDbTrace
 10
654.4038462580455
 20
-101.9323357994722
 30
0.0
 11
654.4038462580455
 21
-102.9323357994722
 31
0.0
 12
651.4038462580455
 22
-102.4323357994722
 32
0.0
 13
651.4038462580455
 23
-102.4323357994722
 33
0.0
  0
SOLID
  5
11B0
330
10DF
100
AcDbEntity
  8
AM_5
 62
     0
100
AcDbTrace
 10
694.4038462580456
 20
-101.9323357994722
 30
0.0
 11
694.4038462580456
 21
-102.9323357994722
 31
0.0
 12
697.4038462580456
 22
-102.4323357994722
 32
0.0
 13
697.4038462580456
 23
-102.4323357994722
 33
0.0
  0
MTEXT
  5
11B1
330
10DF
100
AcDbEntity
  8
AM_5
 62
     5
100
AcDbMText
 10
674.4038462580456
 20
-100.1823357994722
 30
0.0
 40
2.5
 41
0.0
 71
     5
 72
     1
  1
\A1;46 
 73
     1
 44
1.0
  0
POINT
  5
11B2
330
10DF
100
AcDbEntity
  8
Defpoints
 62
     0
100
AcDbPoint
 10
651.4038462580455
 20
-85.79158062709755
 30
0.0
  0
POINT
  5
11B3
330
10DF
100
AcDbEntity
  8
Defpoints
 62
     0
100
AcDbPoint
 10
697.4038462580456
 20
-83.79158062709761
 30
0.0
  0
POINT
  5
11B4
330
10DF
100
AcDbEntity
  8
Defpoints
 62
     0
100
AcDbPoint
 10
697.4038462580456
 20
-102.4323357994722
 30
0.0
  0
ENDBLK
  5
10EA
330
10DF
100
AcDbEntity
  8
0
100
AcDbBlockEnd
  0
BLOCK
  5
10F7
330
10EB
100
AcDbEntity
  8
0
100
AcDbBlockBegin
  2
*D48
 70
     1
 10
0.0
 20
0.0
 30
0.0
  3
*D48
  1

  0
LINE
  5
11B5
330
10EB
100
AcDbEntity
  8
AM_5
 62
     5
370
    -2
100
AcDbLine
 10
635.4038462580456
 20
-86.79158062709754
 30
0.0
 11
635.4038462580456
 21
-103.0523357994725
 31
0.0
  0
LINE
  5
11B6
330
10EB
100
AcDbEntity
  8
AM_5
 62
     5
370
    -2
100
AcDbLine
 10
632.4038462580456
 20
-84.7915806270976
 30
0.0
 11
632.4038462580456
 21
-103.0523357994725
 31
0.0
  0
LINE
  5
11B7
330
10EB
100
AcDbEntity
  8
AM_5
 62
     0
370
    -2
100
AcDbLine
 10
638.4038462580456
 20
-102.0523357994725
 30
0.0
 11
641.4038462580456
 21
-102.0523357994725
 31
0.0
  0
LINE
  5
11B8
330
10EB
100
AcDbEntity
  8
AM_5
 62
     0
370
    -2
100
AcDbLine
 10
629.4038462580456
 20
-102.0523357994725
 30
0.0
 11
626.4038462580456
 21
-102.0523357994725
 31
0.0
  0
LINE
  5
11B9
330
10EB
100
AcDbEntity
  8
AM_5
 62
     0
370
    -2
100
AcDbLine
 10
635.4038462580456
 20
-102.0523357994725
 30
0.0
 11
632.4038462580456
 21
-102.0523357994725
 31
0.0
  0
SOLID
  5
11BA
330
10EB
100
AcDbEntity
  8
AM_5
 62
     0
100
AcDbTrace
 10
638.4038462580456
 20
-101.5523357994725
 30
0.0
 11
638.4038462580456
 21
-102.5523357994725
 31
0.0
 12
635.4038462580456
 22
-102.0523357994725
 32
0.0
 13
635.4038462580456
 23
-102.0523357994725
 33
0.0
  0
SOLID
  5
11BB
330
10EB
100
AcDbEntity
  8
AM_5
 62
     0
100
AcDbTrace
 10
629.4038462580456
 20
-101.5523357994725
 30
0.0
 11
629.4038462580456
 21
-102.5523357994725
 31
0.0
 12
632.4038462580456
 22
-102.0523357994725
 32
0.0
 13
632.4038462580456
 23
-102.0523357994725
 33
0.0
  0
MTEXT
  5
11BC
330
10EB
100
AcDbEntity
  8
AM_5
 62
     5
100
AcDbMText
 10
633.9038462580456
 20
-99.80233579947253
 30
0.0
 40
2.5
 41
0.0
 71
     5
 72
     1
  1
\A1;3 
 73
     1
 44
1.0
  0
POINT
  5
11BD
330
10EB
100
AcDbEntity
  8
Defpoints
 62
     0
100
AcDbPoint
 10
635.4038462580456
 20
-85.79158062709755
 30
0.0
  0
POINT
  5
11BE
330
10EB
100
AcDbEntity
  8
Defpoints
 62
     0
100
AcDbPoint
 10
632.4038462580456
 20
-83.79158062709761
 30
0.0
  0
POINT
  5
11BF
330
10EB
100
AcDbEntity
  8
Defpoints
 62
     0
100
AcDbPoint
 10
632.4038462580456
 20
-102.0523357994725
 30
0.0
  0
ENDBLK
  5
10F8
330
10EB
100
AcDbEntity
  8
0
100
AcDbBlockEnd
  0
BLOCK
  5
1105
330
10F9
100
AcDbEntity
  8
0
100
AcDbBlockBegin
  2
*D49
 70
     1
 10
0.0
 20
0.0
 30
0.0
  3
*D49
  1

  0
LINE
  5
11C0
330
10F9
100
AcDbEntity
  8
AM_5
 62
     5
370
    -2
100
AcDbLine
 10
630.9038462580456
 20
-15.79158062709754
 30
0.0
 11
630.9038462580456
 21
26.13851297993588
 31
0.0
  0
LINE
  5
11C1
330
10F9
100
AcDbEntity
  8
AM_5
 62
     5
370
    -2
100
AcDbLine
 10
632.4038462580456
 20
17.20841937290245
 30
0.0
 11
632.4038462580456
 21
26.13851297993588
 31
0.0
  0
LINE
  5
11C2
330
10F9
100
AcDbEntity
  8
AM_5
 62
     0
370
    -2
100
AcDbLine
 10
627.9038462580456
 20
25.13851297993588
 30
0.0
 11
624.9038462580456
 21
25.13851297993588
 31
0.0
  0
LINE
  5
11C3
330
10F9
100
AcDbEntity
  8
AM_5
 62
     0
370
    -2
100
AcDbLine
 10
635.4038462580456
 20
25.13851297993588
 30
0.0
 11
638.4038462580456
 21
25.13851297993588
 31
0.0
  0
LINE
  5
11C4
330
10F9
100
AcDbEntity
  8
AM_5
 62
     0
370
    -2
100
AcDbLine
 10
630.9038462580456
 20
25.13851297993588
 30
0.0
 11
632.4038462580456
 21
25.13851297993588
 31
0.0
  0
SOLID
  5
11C5
330
10F9
100
AcDbEntity
  8
AM_5
 62
     0
100
AcDbTrace
 10
627.9038462580456
 20
25.63851297993589
 30
0.0
 11
627.9038462580456
 21
24.63851297993588
 31
0.0
 12
630.9038462580456
 22
25.13851297993588
 32
0.0
 13
630.9038462580456
 23
25.13851297993588
 33
0.0
  0
SOLID
  5
11C6
330
10F9
100
AcDbEntity
  8
AM_5
 62
     0
100
AcDbTrace
 10
635.4038462580456
 20
25.63851297993589
 30
0.0
 11
635.4038462580456
 21
24.63851297993588
 31
0.0
 12
632.4038462580456
 22
25.13851297993588
 32
0.0
 13
632.4038462580456
 23
25.13851297993588
 33
0.0
  0
MTEXT
  5
11C7
330
10F9
100
AcDbEntity
  8
AM_5
 62
     5
100
AcDbMText
 10
631.6538462580456
 20
27.38875904292801
 30
0.0
 40
2.5
 41
0.0
 71
     5
 72
     1
  1
\A1;2 
 73
     1
 44
1.0
  0
POINT
  5
11C8
330
10F9
100
AcDbEntity
  8
Defpoints
 62
     0
100
AcDbPoint
 10
630.9038462580456
 20
-16.79158062709754
 30
0.0
  0
POINT
  5
11C9
330
10F9
100
AcDbEntity
  8
Defpoints
 62
     0
100
AcDbPoint
 10
632.4038462580456
 20
16.20841937290245
 30
0.0
  0
POINT
  5
11CA
330
10F9
100
AcDbEntity
  8
Defpoints
 62
     0
100
AcDbPoint
 10
632.4038462580456
 20
25.13851297993588
 30
0.0
  0
ENDBLK
  5
1106
330
10F9
100
AcDbEntity
  8
0
100
AcDbBlockEnd
  0
BLOCK
  5
1111
330
1107
100
AcDbEntity
  8
0
100
AcDbBlockBegin
  2
*D50
 70
     1
 10
0.0
 20
0.0
 30
0.0
  3
*D50
  1

  0
LINE
  5
11CB
330
1107
100
AcDbEntity
  8
AM_5
 62
     5
370
    -2
100
AcDbLine
 10
632.4038462580456
 20
17.20841937290245
 30
0.0
 11
632.4038462580456
 21
26.13851297993588
 31
0.0
  0
LINE
  5
11CC
330
1107
100
AcDbEntity
  8
AM_5
 62
     5
370
    -2
100
AcDbLine
 10
697.4038462580456
 20
17.20841937290245
 30
0.0
 11
697.4038462580456
 21
26.13851297993588
 31
0.0
  0
LINE
  5
11CD
330
1107
100
AcDbEntity
  8
AM_5
 62
     0
370
    -2
100
AcDbLine
 10
635.4038462580456
 20
25.13851297993588
 30
0.0
 11
694.4038462580456
 21
25.13851297993588
 31
0.0
  0
SOLID
  5
11CE
330
1107
100
AcDbEntity
  8
AM_5
 62
     0
100
AcDbTrace
 10
635.4038462580456
 20
25.63851297993589
 30
0.0
 11
635.4038462580456
 21
24.63851297993588
 31
0.0
 12
632.4038462580456
 22
25.13851297993588
 32
0.0
 13
632.4038462580456
 23
25.13851297993588
 33
0.0
  0
SOLID
  5
11CF
330
1107
100
AcDbEntity
  8
AM_5
 62
     0
100
AcDbTrace
 10
694.4038462580456
 20
25.63851297993589
 30
0.0
 11
694.4038462580456
 21
24.63851297993588
 31
0.0
 12
697.4038462580456
 22
25.13851297993588
 32
0.0
 13
697.4038462580456
 23
25.13851297993588
 33
0.0
  0
MTEXT
  5
11D0
330
1107
100
AcDbEntity
  8
AM_5
 62
     5
100
AcDbMText
 10
664.9038462580456
 20
27.38851297993588
 30
0.0
 40
2.5
 41
0.0
 71
     5
 72
     1
  1
\A1;65 
 73
     1
 44
1.0
  0
POINT
  5
11D1
330
1107
100
AcDbEntity
  8
Defpoints
 62
     0
100
AcDbPoint
 10
632.4038462580456
 20
16.20841937290245
 30
0.0
  0
POINT
  5
11D2
330
1107
100
AcDbEntity
  8
Defpoints
 62
     0
100
AcDbPoint
 10
697.4038462580456
 20
16.20841937290245
 30
0.0
  0
POINT
  5
11D3
330
1107
100
AcDbEntity
  8
Defpoints
 62
     0
100
AcDbPoint
 10
697.4038462580456
 20
25.13851297993588
 30
0.0
  0
ENDBLK
  5
1112
330
1107
100
AcDbEntity
  8
0
100
AcDbBlockEnd
  0
BLOCK
  5
111F
330
1113
100
AcDbEntity
  8
0
100
AcDbBlockBegin
  2
*D51
 70
     1
 10
0.0
 20
0.0
 30
0.0
  3
*D51
  1

  0
LINE
  5
11D4
330
1113
100
AcDbEntity
  8
AM_5
 62
     5
370
    -2
100
AcDbLine
 10
638.4038462580456
 20
-74.79158062709754
 30
0.0
 11
638.4038462580456
 21
-109.944841785115
 31
0.0
  0
LINE
  5
11D5
330
1113
100
AcDbEntity
  8
AM_5
 62
     5
370
    -2
100
AcDbLine
 10
635.4038462580456
 20
-86.79158062709754
 30
0.0
 11
635.4038462580456
 21
-109.944841785115
 31
0.0
  0
LINE
  5
11D6
330
1113
100
AcDbEntity
  8
AM_5
 62
     0
370
    -2
100
AcDbLine
 10
641.4038462580456
 20
-108.944841785115
 30
0.0
 11
644.4038462580456
 21
-108.944841785115
 31
0.0
  0
LINE
  5
11D7
330
1113
100
AcDbEntity
  8
AM_5
 62
     0
370
    -2
100
AcDbLine
 10
632.4038462580456
 20
-108.944841785115
 30
0.0
 11
629.4038462580456
 21
-108.944841785115
 31
0.0
  0
LINE
  5
11D8
330
1113
100
AcDbEntity
  8
AM_5
 62
     0
370
    -2
100
AcDbLine
 10
638.4038462580456
 20
-108.944841785115
 30
0.0
 11
635.4038462580456
 21
-108.944841785115
 31
0.0
  0
SOLID
  5
11D9
330
1113
100
AcDbEntity
  8
AM_5
 62
     0
100
AcDbTrace
 10
641.4038462580456
 20
-108.444841785115
 30
0.0
 11
641.4038462580456
 21
-109.444841785115
 31
0.0
 12
638.4038462580456
 22
-108.944841785115
 32
0.0
 13
638.4038462580456
 23
-108.944841785115
 33
0.0
  0
SOLID
  5
11DA
330
1113
100
AcDbEntity
  8
AM_5
 62
     0
100
AcDbTrace
 10
632.4038462580456
 20
-108.444841785115
 30
0.0
 11
632.4038462580456
 21
-109.444841785115
 31
0.0
 12
635.4038462580456
 22
-108.944841785115
 32
0.0
 13
635.4038462580456
 23
-108.944841785115
 33
0.0
  0
MTEXT
  5
11DB
330
1113
100
AcDbEntity
  8
AM_5
 62
     5
100
AcDbMText
 10
636.9038462580456
 20
-106.694841785115
 30
0.0
 40
2.5
 41
0.0
 71
     5
 72
     1
  1
\A1;3 
 73
     1
 44
1.0
  0
POINT
  5
11DC
330
1113
100
AcDbEntity
  8
Defpoints
 62
     0
100
AcDbPoint
 10
638.4038462580456
 20
-73.79158062709755
 30
0.0
  0
POINT
  5
11DD
330
1113
100
AcDbEntity
  8
Defpoints
 62
     0
100
AcDbPoint
 10
635.4038462580456
 20
-85.79158062709755
 30
0.0
  0
POINT
  5
11DE
330
1113
100
AcDbEntity
  8
Defpoints
 62
     0
100
AcDbPoint
 10
635.4038462580456
 20
-108.944841785115
 30
0.0
  0
ENDBLK
  5
1120
330
1113
100
AcDbEntity
  8
0
100
AcDbBlockEnd
  0
BLOCK
  5
112B
330
1121
100
AcDbEntity
  8
0
100
AcDbBlockBegin
  2
*D52
 70
     1
 10
0.0
 20
0.0
 30
0.0
  3
*D52
  1

  0
LINE
  5
11DF
330
1121
100
AcDbEntity
  8
AM_5
 62
     5
370
    -2
100
AcDbLine
 10
698.4038462580456
 20
16.20841937290245
 30
0.0
 11
706.8130886388559
 21
16.20841937290245
 31
0.0
  0
LINE
  5
11E0
330
1121
100
AcDbEntity
  8
AM_5
 62
     5
370
    -2
100
AcDbLine
 10
698.4038462580456
 20
-83.79158062709761
 30
0.0
 11
706.8130886388559
 21
-83.79158062709761
 31
0.0
  0
LINE
  5
11E1
330
1121
100
AcDbEntity
  8
AM_5
 62
     0
370
    -2
100
AcDbLine
 10
705.813088638856
 20
13.20841937290245
 30
0.0
 11
705.813088638856
 21
-80.7915806270976
 31
0.0
  0
SOLID
  5
11E2
330
1121
100
AcDbEntity
  8
AM_5
 62
     0
100
AcDbTrace
 10
705.313088638856
 20
13.20841937290245
 30
0.0
 11
706.313088638856
 21
13.20841937290245
 31
0.0
 12
705.813088638856
 22
16.20841937290245
 32
0.0
 13
705.813088638856
 23
16.20841937290245
 33
0.0
  0
SOLID
  5
11E3
330
1121
100
AcDbEntity
  8
AM_5
 62
     0
100
AcDbTrace
 10
705.313088638856
 20
-80.7915806270976
 30
0.0
 11
706.313088638856
 21
-80.7915806270976
 31
0.0
 12
705.813088638856
 22
-83.79158062709761
 32
0.0
 13
705.813088638856
 23
-83.79158062709761
 33
0.0
  0
MTEXT
  5
11E4
330
1121
100
AcDbEntity
  8
AM_5
 62
     5
100
AcDbMText
 10
703.563088638856
 20
-33.79158062709746
 30
0.0
 40
2.5
 41
0.0
 71
     5
 72
     1
  1
\A1;%%C100 
 11
0.0000000000000001
 21
1.0
 31
0.0
 73
     1
 44
1.0
  0
POINT
  5
11E5
330
1121
100
AcDbEntity
  8
Defpoints
 62
     0
100
AcDbPoint
 10
697.4038462580456
 20
16.20841937290245
 30
0.0
  0
POINT
  5
11E6
330
1121
100
AcDbEntity
  8
Defpoints
 62
     0
100
AcDbPoint
 10
697.4038462580456
 20
-83.79158062709761
 30
0.0
  0
POINT
  5
11E7
330
1121
100
AcDbEntity
  8
Defpoints
 62
     0
100
AcDbPoint
 10
705.813088638856
 20
-83.79158062709761
 30
0.0
  0
ENDBLK
  5
112C
330
1121
100
AcDbEntity
  8
0
100
AcDbBlockEnd
  0
ENDSEC
  0
SECTION
  2
ENTITIES
  0
TEXT
  5
194
330
2
100
AcDbEntity
  8
LOGO
  6
Continuous
 62
     7
100
AcDbText
 10
525.4784189971203
 20
-138.1163303786257
 30
0.0
 40
3.835670107182843
  1
MCHG
  7
chineset
 72
     1
 11
532.9671082540011
 21
-136.1984953250343
 31
0.0
100
AcDbText
 73
     2
  0
LINE
  5
195
330
2
100
AcDbEntity
  8
LOGO
 62
     4
100
AcDbLine
 10
542.1727165112399
 20
-132.7463922285697
 30
0.0
 11
523.7614999967624
 21
-132.7463922285697
 31
0.0
  0
LINE
  5
196
330
2
100
AcDbEntity
  8
LOGO
 62
     4
100
AcDbLine
 10
542.1727165112399
 20
-139.6505984214988
 30
0.0
 11
523.7614999967624
 21
-139.6505984214988
 31
0.0
  0
LINE
  5
197
330
2
100
AcDbEntity
  8
LOGO
 62
     4
100
AcDbLine
 10
540.6384484683668
 20
-143.1027015179634
 30
0.0
 11
525.2957680396355
 21
-143.1027015179634
 31
0.0
  0
LINE
  5
198
330
2
100
AcDbEntity
  8
LOGO
 62
     4
100
AcDbLine
 10
540.6384484683668
 20
-151.5411757537656
 30
0.0
 11
525.2957680396355
 21
-151.5411757537656
 31
0.0
  0
LINE
  5
19D
330
2
100
AcDbEntity
  8
LOGO
 62
     4
100
AcDbLine
 10
525.2957680396355
 20
-143.1027015179634
 30
0.0
 11
525.2957680396355
 21
-151.5411757537656
 31
0.0
  0
LINE
  5
19E
330
2
100
AcDbEntity
  8
LOGO
 62
     4
100
AcDbLine
 10
523.7614999967624
 20
-132.7463922285697
 30
0.0
 11
523.7614999967624
 21
-139.6505984214988
 31
0.0
  0
LINE
  5
19F
330
2
100
AcDbEntity
  8
LOGO
 62
     4
100
AcDbLine
 10
567.5928157029179
 20
-132.7463922285696
 30
0.0
 11
547.6048288391023
 21
-132.7463922285697
 31
0.0
  0
LINE
  5
1A0
330
2
100
AcDbEntity
  8
LOGO
 62
     4
100
AcDbLine
 10
567.5928157029179
 20
-151.5411757537656
 30
0.0
 11
547.6048288391023
 21
-151.5411757537656
 31
0.0
  0
LINE
  5
1A1
330
2
100
AcDbEntity
  8
LOGO
 62
     4
100
AcDbLine
 10
567.5928157029179
 20
-143.1027015179634
 30
0.0
 11
547.6048288391023
 21
-143.1027015179634
 31
0.0
  0
LINE
  5
1A2
330
2
100
AcDbEntity
  8
LOGO
 62
     4
100
AcDbLine
 10
567.5928157029179
 20
-139.6505984214988
 30
0.0
 11
547.6048288391023
 21
-139.6505984214988
 31
0.0
  0
LINE
  5
1A3
330
2
100
AcDbEntity
  8
LOGO
 62
     4
100
AcDbLine
 10
532.9671082540011
 20
-139.6505984214988
 30
0.0
 11
532.9671082540011
 21
-143.1027015179634
 31
0.0
  0
LINE
  5
1A4
330
2
100
AcDbEntity
  8
LOGO
 62
     4
100
AcDbLine
 10
540.6384484683668
 20
-143.1027015179634
 30
0.0
 11
540.6384484683668
 21
-151.5411757537656
 31
0.0
  0
LINE
  5
1A5
330
2
100
AcDbEntity
  8
LOGO
 62
     4
100
AcDbLine
 10
547.6048288391023
 20
-143.1027015179634
 30
0.0
 11
547.6048288391023
 21
-151.5411757537656
 31
0.0
  0
LINE
  5
1A6
330
2
100
AcDbEntity
  8
LOGO
 62
     4
100
AcDbLine
 10
547.6048288391023
 20
-132.7463922285697
 30
0.0
 11
547.6048288391023
 21
-139.6505984214988
 31
0.0
  0
LINE
  5
1A7
330
2
100
AcDbEntity
  8
LOGO
 62
     4
100
AcDbLine
 10
542.1727165112399
 20
-132.7463922285697
 30
0.0
 11
542.1727165112399
 21
-139.6505984214988
 31
0.0
  0
LINE
  5
1A8
330
2
100
AcDbEntity
  8
LOGO
 62
     4
100
AcDbLine
 10
543.362207478458
 20
-136.2229511144921
 30
0.0
 11
546.4108530099657
 21
-136.2229511144921
 31
0.0
  0
LINE
  5
1A9
330
2
100
AcDbEntity
  8
LOGO
 62
     4
100
AcDbLine
 10
557.5988222710102
 20
-139.6505984214988
 30
0.0
 11
557.5988222710102
 21
-143.1027015179634
 31
0.0
  0
LINE
  5
1AB
330
2
100
AcDbEntity
  8
LOGO
 62
     4
100
AcDbLine
 10
567.5928157029179
 20
-143.1027015179634
 30
0.0
 11
567.5928157029179
 21
-151.5411757537656
 31
0.0
  0
TEXT
  5
1AC
330
2
100
AcDbEntity
  8
LOGO
  6
Continuous
 62
     7
100
AcDbText
 10
553.0325483338877
 20
-138.1598271193373
 30
0.0
 40
3.835670107182843
  1
100
  7
chineset
 72
     1
 11
557.5988222710102
 21
-136.2419920657459
 31
0.0
100
AcDbText
 73
     2
  0
LINE
  5
1AD
330
2
100
AcDbEntity
  8
LOGO
 62
     4
100
AcDbLine
 10
567.5928157029179
 20
-132.7463922285696
 30
0.0
 11
567.5928157029179
 21
-139.6505984214988
 31
0.0
  0
TEXT
  5
1B1
330
2
100
AcDbEntity
  8
LOGO
100
AcDbText
 10
529.8985721682548
 20
-147.2434131061111
 30
150.8300999564393
 40
3.068536085746274
  1
型式
  7
chineset
 72
     4
 11
532.9671082540011
 21
-145.7876705929914
 31
150.8300999564393
100
AcDbText
  0
TEXT
  5
1B2
330
2
100
AcDbEntity
  8
LOGO
100
AcDbText
 10
527.1222776144845
 20
-151.1576087430473
 30
150.8300999564393
 40
3.068536085746274
  1
Model
  7
chineset
 72
     4
 11
532.9671082540011
 21
-149.6233407001742
 31
150.8300999564393
100
AcDbText
  0
TEXT
  5
1B3
330
2
100
AcDbEntity
  8
LOGO
100
AcDbText
 10
551.4617500995176
 20
-147.3219386358645
 30
150.8300999564393
 40
3.068536085746274
  1
缸體外徑
  7
chineset
 72
     4
 11
557.5988222710102
 21
-145.7876705929914
 31
150.8300999564393
100
AcDbText
  0
TEXT
  5
1B4
330
2
100
AcDbEntity
  8
LOGO
  6
Continuous
100
AcDbText
 10
550.840736844069
 20
-150.2626190513713
 30
150.8300999564393
 40
1.917835053591421
  1
Body size
  7
chineset
 72
     4
 11
557.5988222710102
 21
-149.6233407001742
 31
150.8300999564393
100
AcDbText
  0
TEXT
  5
8FB
330
2
100
AcDbEntity
  8
LOGO
 62
     7
100
AcDbText
 10
493.0191240011532
 20
-136.2035551595884
 30
0.0
 40
4.714825856679817
  1
訂購代號:
  7
chineset
100
AcDbText
  0
TEXT
  5
8FC
330
2
100
AcDbEntity
  8
LOGO
 62
     7
100
AcDbText
 10
492.4552048353453
 20
-140.6285542189585
 30
0.0
 40
3.143217237786544
  1
Order example:
 41
0.8
  7
chineset
100
AcDbText
  0
LINE
  5
916
330
2
100
AcDbEntity
  8
LOGO
 62
     4
100
AcDbLine
 10
491.0894662843471
 20
-153.8752586113884
 30
0.0
 11
491.0894662843471
 21
-130.3011293279888
 31
0.0
  0
TEXT
  5
917
330
2
100
AcDbEntity
  8
LOGO
  6
Continuous
100
AcDbText
 10
447.6943150672274
 20
-149.2441564901277
 30
0.0
 40
3.536119392509892
  1
金器工業股份有限公司
  7
chineset
100
AcDbText
  0
TEXT
  5
918
330
2
100
AcDbEntity
  8
LOGO
  6
Continuous
100
AcDbText
 10
441.1991633299085
 20
-152.7809686847961
 30
0.0
 40
2.357412928339928
  1
MINDMAN INDUSTRIAL CO., LTD.
 41
0.85
  7
chineset
100
AcDbText
  0
LINE
  5
919
330
2
100
AcDbEntity
  8
LOGO
 62
     4
100
AcDbLine
 10
491.0894662843471
 20
-135.0159551846688
 30
0.0
 11
456.514076668694
 21
-135.0159551846688
 31
0.0
  0
LINE
  5
91A
330
2
100
AcDbEntity
  8
LOGO
 62
     4
100
AcDbLine
 10
491.0894662843471
 20
-139.7307810413488
 30
0.0
 11
456.514076668694
 21
-139.7307810413488
 31
0.0
  0
LINE
  5
91B
330
2
100
AcDbEntity
  8
LOGO
 62
     4
100
AcDbLine
 10
491.0894662843471
 20
-144.4456068980285
 30
0.0
 11
439.2263818608681
 21
-144.4456068980285
 31
0.0
  0
LINE
  5
91C
330
2
100
AcDbEntity
  8
LOGO
 62
     4
100
AcDbLine
 10
456.514076668694
 20
-144.4456068980285
 30
0.0
 11
456.514076668694
 21
-130.3011293279888
 31
0.0
  0
TEXT
  5
91D
330
2
100
AcDbEntity
  8
LOGO
100
AcDbText
 10
480.1447235374603
 20
-143.2669004338587
 30
0.0
 40
2.357412928339928
  1
mm
  7
chineset
 72
     1
 11
483.0634252582622
 21
-142.0881939696887
 31
0.0
100
AcDbText
 73
     2
  0
TEXT
  5
91E
330
2
100
AcDbEntity
  8
LOGO
100
AcDbText
 10
478.9098881940442
 20
-133.837248720499
 30
0.0
 40
2.357412928339928
  1
1 : 1
  7
chineset
 72
     1
 11
483.0634252582622
 21
-132.658542256329
 31
0.0
100
AcDbText
 73
     2
  0
LINE
  5
91F
330
2
100
AcDbEntity
  8
LOGO
 62
     4
100
AcDbLine
 10
475.3733800954139
 20
-144.4456068980285
 30
0.0
 11
475.3733800954139
 21
-130.3011293279888
 31
0.0
  0
TEXT
  5
920
330
2
100
AcDbEntity
  8
LOGO
100
AcDbText
 10
458.4578899180892
 20
-133.8360885763413
 30
154.5009597124719
 40
2.357412928339928
  1
比例 Scale:
 41
0.9
  7
chineset
 72
     4
 11
465.9437283820543
 21
-132.658542256329
 31
154.5009597124719
100
AcDbText
  0
TEXT
  5
921
330
2
100
AcDbEntity
  8
LOGO
100
AcDbText
 10
458.3221281914124
 20
-138.518913790006
 30
154.5009597124719
 40
2.357412928339928
  1
投影  View:
 41
0.9
  7
chineset
 72
     4
 11
465.9437283820543
 21
-137.3733681130087
 31
154.5009597124719
100
AcDbText
  0
TEXT
  5
922
330
2
100
AcDbEntity
  8
LOGO
100
AcDbText
 10
458.5526074018171
 20
-143.2669004338587
 30
154.5009597124719
 40
2.357412928339928
  1
單位  Unit:
 41
0.9
  7
chineset
 72
     4
 11
465.9437283820543
 21
-142.0881939696887
 31
154.5009597124719
100
AcDbText
  0
SOLID
  5
923
330
2
100
AcDbEntity
  8
LOGO
 62
     5
100
AcDbTrace
 10
441.6722356076207
 20
-140.5267434559704
 30
0.0
 11
442.6915190993195
 21
-140.526743455971
 31
0.0
 12
446.944391599167
 22
-130.8611241381355
 32
0.0
 13
447.9636750908662
 23
-130.8611241381362
 33
0.0
  0
SOLID
  5
924
330
2
100
AcDbEntity
  8
LOGO
 62
     5
100
AcDbTrace
 10
443.1132915786442
 20
-140.5267434559704
 30
0.0
 11
444.1325750703431
 21
-140.5267434559704
 31
0.0
 12
447.9636750908662
 22
-131.6343736835626
 32
0.0
 13
446.944391599167
 23
-135.3717464864588
 33
0.0
  0
SOLID
  5
925
330
2
100
AcDbEntity
  8
LOGO
 62
     2
100
AcDbTrace
 10
442.6915190993195
 20
-140.526743455971
 30
0.0
 11
443.1132915786442
 21
-140.5267434559704
 31
0.0
 12
447.9636750908662
 22
-130.8611241381362
 32
0.0
 13
448.3854475701905
 23
-130.8611241381362
 33
0.0
  0
SOLID
  5
926
330
2
100
AcDbEntity
  8
LOGO
 62
     5
100
AcDbTrace
 10
440.0380742114967
 20
-144.0415141170013
 30
0.0
 11
440.3895512776003
 21
-144.0415141170013
 31
0.0
 12
441.3793380525349
 22
-142.2841287864859
 32
0.0
 13
441.7308151186378
 23
-142.2841287864859
 33
0.0
  0
SOLID
  5
927
330
2
100
AcDbEntity
  8
LOGO
 62
     5
100
AcDbTrace
 10
441.3793380525349
 20
-142.2841287864859
 30
0.0
 11
441.7308151186378
 21
-142.2841287864859
 31
0.0
 12
441.3793380525349
 22
-144.0415141170013
 32
0.0
 13
441.7308151186378
 23
-144.0415141170013
 33
0.0
  0
SOLID
  5
928
330
2
100
AcDbEntity
  8
LOGO
 62
     5
100
AcDbTrace
 10
441.3793380525349
 20
-144.0415141170013
 30
0.0
 11
441.7308151186378
 21
-144.0415141170013
 31
0.0
 12
442.7206018935741
 22
-142.2841287864859
 32
0.0
 13
443.0720789596769
 23
-142.2841287864859
 33
0.0
  0
SOLID
  5
929
330
2
100
AcDbEntity
  8
LOGO
 62
     5
100
AcDbTrace
 10
442.7206018935741
 20
-142.2841287864859
 30
0.0
 11
443.0720789596769
 21
-142.2841287864859
 31
0.0
 12
442.7206018935741
 22
-144.0415141170013
 32
0.0
 13
443.0720789596769
 23
-144.0415141170013
 33
0.0
  0
POLYLINE
  5
92A
330
2
100
AcDbEntity
  8
LOGO
 62
     5
100
AcDb2dPolyline
 66
     1
 10
0.0
 20
0.0
 30
0.0
 40
0.3520403306320958
 41
0.3520403306320958
  0
VERTEX
  5
92B
330
92A
100
AcDbEntity
  8
LOGO
 62
     5
100
AcDbVertex
100
AcDb2dVertex
 10
454.5019934171773
 20
-142.9870829186923
 30
0.0
 42
1.0
  0
VERTEX
  5
92C
330
92A
100
AcDbEntity
  8
LOGO
 62
     5
100
AcDbVertex
100
AcDb2dVertex
 10
453.4458724252814
 20
-142.9870829186923
 30
0.0
 42
1.0
  0
SEQEND
  5
92D
330
92A
100
AcDbEntity
  8
LOGO
 62
     5
  0
POLYLINE
  5
92E
330
2
100
AcDbEntity
  8
LOGO
 62
     5
100
AcDb2dPolyline
 66
     1
 10
0.0
 20
0.0
 30
0.0
 70
     1
  0
VERTEX
  5
92F
330
92E
100
AcDbEntity
  8
LOGO
 62
     5
100
AcDbVertex
100
AcDb2dVertex
 10
451.4550373792945
 20
-143.1628214517437
 30
0.0
 42
1.000000057330635
  0
VERTEX
  5
930
330
92E
100
AcDbEntity
  8
LOGO
 62
     5
100
AcDbVertex
100
AcDb2dVertex
 10
452.5094685776032
 20
-143.1628214517437
 30
0.0
 42
1.000000057330635
  0
SEQEND
  5
931
330
92E
100
AcDbEntity
  8
LOGO
 62
     5
  0
CIRCLE
  5
932
330
2
100
AcDbEntity
  8
LOGO
 62
     5
100
AcDbCircle
 10
451.9822529784495
 20
-143.1628214517437
 30
0.0
 40
0.5272155991546268
  0
POLYLINE
  5
933
330
2
100
AcDbEntity
  8
LOGO
 62
     5
100
AcDb2dPolyline
 66
     1
 10
0.0
 20
0.0
 30
0.0
 70
     1
 40
0.3520403306320958
 41
0.3520403306320958
  0
VERTEX
  5
934
330
933
100
AcDbEntity
  8
LOGO
 62
     5
100
AcDbVertex
100
AcDb2dVertex
 10
451.278172317185
 20
-143.1628214517437
 30
0.0
 42
1.0
  0
VERTEX
  5
935
330
933
100
AcDbEntity
  8
LOGO
 62
     5
100
AcDbVertex
100
AcDb2dVertex
 10
452.6863336397134
 20
-143.1628214517437
 30
0.0
 42
1.0
  0
SEQEND
  5
936
330
933
100
AcDbEntity
  8
LOGO
 62
     5
  0
LINE
  5
937
330
2
100
AcDbEntity
  8
LOGO
100
AcDbLine
 10
454.6768870534346
 20
-144.0415141170013
 30
0.0
 11
454.6768870534346
 21
-142.9870829186923
 31
0.0
  0
SOLID
  5
938
330
2
100
AcDbEntity
  8
LOGO
 62
     5
100
AcDbTrace
 10
452.5094334298982
 20
-142.2841287864859
 30
0.0
 11
452.8609104960008
 21
-142.2841287864859
 31
0.0
 12
452.5094334298982
 22
-144.0415141170013
 32
0.0
 13
452.8609104960008
 23
-144.0415141170013
 33
0.0
  0
SOLID
  5
939
330
2
100
AcDbEntity
  8
LOGO
 62
     5
100
AcDbTrace
 10
453.2709787890227
 20
-144.0415141170013
 30
0.0
 11
453.6224558551258
 21
-144.0415141170013
 31
0.0
 12
453.2709787890227
 22
-142.2841287864859
 32
0.0
 13
453.6224558551258
 23
-142.2841287864859
 33
0.0
  0
SOLID
  5
93A
330
2
100
AcDbEntity
  8
LOGO
 62
     5
100
AcDbTrace
 10
454.3254099873324
 20
-142.9870829186923
 30
0.0
 11
454.6768870534346
 21
-142.9870829186923
 31
0.0
 12
454.3254099873324
 22
-144.0415141170013
 32
0.0
 13
454.6768870534346
 23
-144.0415141170013
 33
0.0
  0
SOLID
  5
93B
330
2
100
AcDbEntity
  8
LOGO
 62
     5
100
AcDbTrace
 10
453.2358310824122
 20
-131.6343736835626
 30
0.0
 11
452.2165475907137
 21
-135.3717464864588
 31
0.0
 12
453.2358310824122
 22
-140.526743455971
 32
0.0
 13
452.2165475907137
 23
-140.526743455971
 33
0.0
  0
SOLID
  5
93C
330
2
100
AcDbEntity
  8
LOGO
 62
     5
100
AcDbTrace
 10
453.6576035617361
 20
-140.526743455971
 30
0.0
 11
454.6768870534346
 21
-140.526743455971
 31
0.0
 12
453.6576035617361
 22
-130.8611241381362
 32
0.0
 13
454.6768870534346
 23
-130.8611241381355
 33
0.0
  0
SOLID
  5
93D
330
2
100
AcDbEntity
  8
LOGO
 62
     2
100
AcDbTrace
 10
453.2358310824122
 20
-130.8611241381355
 30
0.0
 11
453.6576035617361
 21
-130.8611241381362
 31
0.0
 12
453.2358310824122
 22
-140.526743455971
 32
0.0
 13
453.6576035617361
 23
-140.526743455971
 33
0.0
  0
POLYLINE
  5
93E
330
2
100
AcDbEntity
  8
LOGO
 62
     5
100
AcDb2dPolyline
 66
     1
 10
0.0
 20
0.0
 30
0.0
 40
0.3520403306320958
 41
0.3520403306320958
  0
VERTEX
  5
93F
330
93E
100
AcDbEntity
  8
LOGO
 62
     5
100
AcDbVertex
100
AcDb2dVertex
 10
449.4641320378959
 20
-142.9870829186923
 30
0.0
 42
1.0
  0
VERTEX
  5
940
330
93E
100
AcDbEntity
  8
LOGO
 62
     5
100
AcDbVertex
100
AcDb2dVertex
 10
448.4080110459989
 20
-142.9870829186923
 30
0.0
 42
1.0
  0
SEQEND
  5
941
330
93E
100
AcDbEntity
  8
LOGO
 62
     5
  0
POLYLINE
  5
942
330
2
100
AcDbEntity
  8
LOGO
 62
     5
100
AcDb2dPolyline
 66
     1
 10
0.0
 20
0.0
 30
0.0
 40
0.3520403306320958
 41
0.3520403306320958
  0
VERTEX
  5
943
330
942
100
AcDbEntity
  8
LOGO
 62
     5
100
AcDbVertex
100
AcDb2dVertex
 10
450.5185632362047
 20
-142.9870829186923
 30
0.0
 42
1.0
  0
VERTEX
  5
944
330
942
100
AcDbEntity
  8
LOGO
 62
     5
100
AcDbVertex
100
AcDb2dVertex
 10
449.4624422443082
 20
-142.9870829186923
 30
0.0
 42
1.0
  0
SEQEND
  5
945
330
942
100
AcDbEntity
  8
LOGO
 62
     5
  0
POLYLINE
  5
946
330
2
100
AcDbEntity
  8
LOGO
 62
     5
100
AcDb2dPolyline
 66
     1
 10
0.0
 20
0.0
 30
0.0
 40
0.3520403306320958
 41
0.3520403306320958
  0
VERTEX
  5
947
330
946
100
AcDbEntity
  8
LOGO
 62
     5
100
AcDbVertex
100
AcDb2dVertex
 10
445.480701856922
 20
-142.9870829186923
 30
0.0
 42
1.0
  0
VERTEX
  5
948
330
946
100
AcDbEntity
  8
LOGO
 62
     5
100
AcDbVertex
100
AcDb2dVertex
 10
444.4245808650258
 20
-142.9870829186923
 30
0.0
 42
1.0
  0
SEQEND
  5
949
330
946
100
AcDbEntity
  8
LOGO
 62
     5
  0
SOLID
  5
94A
330
2
100
AcDbEntity
  8
LOGO
 62
     5
100
AcDbTrace
 10
444.2496872287679
 20
-142.2841287864859
 30
0.0
 11
444.6011642948705
 21
-142.2841287864859
 31
0.0
 12
444.2496872287679
 22
-144.0415141170013
 32
0.0
 13
444.6011642948705
 23
-144.0415141170013
 33
0.0
  0
SOLID
  5
94B
330
2
100
AcDbEntity
  8
LOGO
 62
     5
100
AcDbTrace
 10
445.3041184270777
 20
-142.9870829186923
 30
0.0
 11
445.6555954931814
 21
-142.9870829186923
 31
0.0
 12
445.3041184270777
 22
-144.0415141170013
 32
0.0
 13
445.6555954931814
 23
-144.0415141170013
 33
0.0
  0
POLYLINE
  5
94C
330
2
100
AcDbEntity
  8
LOGO
 62
     5
100
AcDb2dPolyline
 66
     1
 10
0.0
 20
0.0
 30
0.0
 70
     1
 40
0.3520403306320958
 41
0.3520403306320958
  0
VERTEX
  5
94D
330
94C
100
AcDbEntity
  8
LOGO
 62
     5
100
AcDbVertex
100
AcDb2dVertex
 10
446.2403109379027
 20
-143.1628214517437
 30
0.0
 42
1.0
  0
VERTEX
  5
94E
330
94C
100
AcDbEntity
  8
LOGO
 62
     5
100
AcDbVertex
100
AcDb2dVertex
 10
447.6484722604311
 20
-143.1628214517437
 30
0.0
 42
1.0
  0
SEQEND
  5
94F
330
94C
100
AcDbEntity
  8
LOGO
 62
     5
  0
SOLID
  5
950
330
2
100
AcDbEntity
  8
LOGO
 62
     5
100
AcDbTrace
 10
447.4715720506156
 20
-141.7569131873311
 30
0.0
 11
447.8230491167188
 21
-141.7569131873311
 31
0.0
 12
447.4715720506156
 22
-144.0415141170013
 32
0.0
 13
447.8230491167188
 23
-144.0415141170013
 33
0.0
  0
SOLID
  5
951
330
2
100
AcDbEntity
  8
LOGO
 62
     5
100
AcDbTrace
 10
448.2331174097419
 20
-142.2841287864859
 30
0.0
 11
448.5845944758446
 21
-142.2841287864859
 31
0.0
 12
448.2331174097419
 22
-144.0415141170013
 32
0.0
 13
448.5845944758446
 23
-144.0415141170013
 33
0.0
  0
SOLID
  5
952
330
2
100
AcDbEntity
  8
LOGO
 62
     5
100
AcDbTrace
 10
449.2875486080502
 20
-142.9870829186923
 30
0.0
 11
449.6390256741534
 21
-142.9870829186923
 31
0.0
 12
449.2875486080502
 22
-144.0415141170013
 32
0.0
 13
449.6390256741534
 23
-144.0415141170013
 33
0.0
  0
SOLID
  5
953
330
2
100
AcDbEntity
  8
LOGO
 62
     5
100
AcDbTrace
 10
450.341979806359
 20
-142.9870829186923
 30
0.0
 11
450.6934568724627
 21
-142.9870829186923
 31
0.0
 12
450.341979806359
 22
-144.0415141170016
 32
0.0
 13
450.6934568724627
 23
-144.0415141170016
 33
0.0
  0
SOLID
  5
954
330
2
100
AcDbEntity
  8
LOGO
 62
     5
100
AcDbTrace
 10
443.4881418696421
 20
-142.0380948402138
 30
0.0
 11
443.8396189357469
 21
-142.0380948402138
 31
0.0
 12
443.4881418696421
 22
-141.7569131873311
 32
0.0
 13
443.8396189357469
 23
-141.7569131873311
 33
0.0
  0
SOLID
  5
955
330
2
100
AcDbEntity
  8
LOGO
 62
     5
100
AcDbTrace
 10
443.4881418696421
 20
-142.2841287864859
 30
0.0
 11
443.8396189357469
 21
-142.2841287864859
 31
0.0
 12
443.4881418696421
 22
-144.0415141170016
 32
0.0
 13
443.8396189357469
 23
-144.0415141170013
 33
0.0
  0
SOLID
  5
956
330
2
100
AcDbEntity
  8
LOGO
 62
     5
100
AcDbTrace
 10
446.944391599167
 20
-140.5267434559704
 30
0.0
 11
447.9636750908662
 21
-140.5267434559704
 31
0.0
 12
446.944391599167
 22
-135.3717464864588
 32
0.0
 13
447.9636750908662
 23
-131.6343736835626
 33
0.0
  0
SOLID
  5
957
330
2
100
AcDbEntity
  8
LOGO
 62
     5
100
AcDbTrace
 10
448.3854475701905
 20
-130.8611241381362
 30
0.0
 11
449.4047310618894
 21
-130.8611241381355
 31
0.0
 12
448.3854475701905
 22
-139.7534939105442
 32
0.0
 13
449.4047310618894
 23
-136.0161211076478
 33
0.0
  0
SOLID
  5
958
330
2
100
AcDbEntity
  8
LOGO
 62
     2
100
AcDbTrace
 10
447.9636750908662
 20
-130.8611241381362
 30
0.0
 11
448.3854475701905
 21
-130.8611241381362
 31
0.0
 12
447.9636750908662
 22
-140.5267434559704
 32
0.0
 13
448.3854475701905
 23
-140.5267434559704
 33
0.0
  0
SOLID
  5
959
330
2
100
AcDbEntity
  8
LOGO
 62
     5
100
AcDbTrace
 10
448.3854475701905
 20
-139.7534939105442
 30
0.0
 11
449.4047310618894
 21
-136.0161211076478
 31
0.0
 12
453.2358310824122
 22
-130.8611241381355
 32
0.0
 13
452.2165475907137
 23
-130.8611241381355
 33
0.0
  0
SOLID
  5
95A
330
2
100
AcDbEntity
  8
LOGO
 62
     5
100
AcDbTrace
 10
448.3854475701905
 20
-140.5267434559704
 30
0.0
 11
449.4047310618894
 21
-140.5267434559704
 31
0.0
 12
453.2358310824122
 22
-131.6343736835626
 32
0.0
 13
452.2165475907137
 23
-135.3717464864588
 33
0.0
  0
SOLID
  5
95B
330
2
100
AcDbEntity
  8
LOGO
 62
     2
100
AcDbTrace
 10
447.9636750908662
 20
-140.5267434559704
 30
0.0
 11
448.3854475701905
 21
-140.5267434559704
 31
0.0
 12
453.2358310824122
 22
-130.8611241381355
 32
0.0
 13
453.6576035617361
 23
-130.8611241381362
 33
0.0
  0
LWPOLYLINE
  5
95C
330
2
100
AcDbEntity
  8
LOGO
 62
     4
100
AcDbPolyline
 90
        4
 70
     1
 43
0.0
 10
439.226381860869
 20
-130.3011293279892
 10
727.4324656406354
 20
-130.3011293279891
 10
727.4324656406358
 20
-153.8752586113885
 10
439.226381860869
 20
-153.8752586113886
1001
GENIUS_GENREC_14
1002
{
1000
PYDIR
1011
439.226381860869
1021
-153.8752586113886
1031
0.0
1002
}
1002
{
1000
PXDIR
1011
727.4324656406354
1021
-130.3011293279891
1031
0.0
1002
}
1002
{
1000
PORI
1011
439.226381860869
1021
-130.3011293279892
1031
0.0
1002
}
1002
{
1000
PINS
1011
439.226381860869
1021
-130.3011293279892
1031
0.0
1002
}
1002
{
1000
PINS2
1011
727.4324656406358
1021
-153.8752586113885
1031
0.0
1002
}
1002
{
1000
C
1070
     1
1002
}
1001
GENIUS_GENOBJ-N-REC_13
1002
{
1000
OWNER
1000
GEN
1002
}
1001
GENIUS_GENODEF_13
1002
{
1000
HIER
1070
     0
1002
}
1002
{
1000
MANEDIT
1070
     0
1002
}
1002
{
1000
NOSEL
1070
     0
1002
}
1002
{
1000
BEHIND
1070
     0
1002
}
1002
{
1000
OTHER
1070
     0
1002
}
1002
{
1000
REACTOR
1002
}
  0
TEXT
  5
95D
330
2
100
AcDbEntity
  8
LOGO
100
AcDbText
 10
492.0245543104946
 20
-152.6211242380712
 30
0.0
 40
2.357754322630987
  1
0130308B
 41
0.7
  7
chineset
 72
     1
 11
497.9189401170721
 21
-152.6211242380712
 31
0.0
100
AcDbText
  0
LINE
  5
95E
330
2
100
AcDbEntity
  8
LOGO
 62
     4
100
AcDbLine
 10
505.2359922201315
 20
-149.160432754708
 30
0.0
 11
505.2359922201331
 21
-153.8752586113882
 31
0.0
  0
LINE
  5
95F
330
2
100
AcDbEntity
  8
LOGO
 62
     4
100
AcDbLine
 10
505.2359922201315
 20
-149.160432754708
 30
0.0
 11
491.0894662843471
 21
-149.160432754708
 31
0.0
  0
CIRCLE
  5
960
330
2
100
AcDbEntity
  8
LOGO
  6
Continuous
100
AcDbCircle
 10
479.7384249927836
 20
-137.3683255895041
 30
0.0
 40
1.368769433439616
  0
CIRCLE
  5
961
330
2
100
AcDbEntity
  8
LOGO
  6
Continuous
100
AcDbCircle
 10
479.7384249927836
 20
-137.3683255895041
 30
0.0
 40
0.8019777176933247
  0
LINE
  5
962
330
2
100
AcDbEntity
  8
LOGO
100
AcDbLine
 10
488.3399309378063
 20
-138.7370950229438
 30
0.0
 11
488.3399309378063
 21
-135.9995561560642
 31
0.0
  0
LINE
  5
963
330
2
100
AcDbEntity
  8
LOGO
100
AcDbLine
 10
484.0489173350873
 20
-138.1703033071973
 30
0.0
 11
484.0489173350873
 21
-136.5663478718105
 31
0.0
  0
LINE
  5
964
330
2
100
AcDbEntity
  8
LOGO
  6
Continuous
100
AcDbLine
 10
484.0489173350873
 20
-136.5663478718105
 30
0.0
 11
488.3399309378063
 21
-135.9995561560642
 31
0.0
  0
LINE
  5
965
330
2
100
AcDbEntity
  8
LOGO
  6
Continuous
100
AcDbLine
 10
484.0489173350873
 20
-138.1703033071973
 30
0.0
 11
488.3399309378063
 21
-138.7370950229438
 31
0.0
  0
LINE
  5
966
330
2
100
AcDbEntity
  8
LOGO
  6
AM_ISO08W050x2
 48
0.3
100
AcDbLine
 10
477.8515558330781
 20
-137.3683255895041
 30
0.0
 11
481.6252941524878
 21
-137.3683255895041
 31
0.0
1001
GENIUS_GENOREF_13
1005
96C
  0
LINE
  5
967
330
2
100
AcDbEntity
  8
LOGO
  6
AM_ISO08W050x2
 48
0.3
100
AcDbLine
 10
479.7384249927836
 20
-139.2551947492086
 30
0.0
 11
479.7384249927836
 21
-135.481456429799
 31
0.0
1001
GENIUS_GENOREF_13
1005
96B
  0
LINE
  5
968
330
2
100
AcDbEntity
  8
LOGO
  6
CENTER
 48
0.5
100
AcDbLine
 10
483.7057555150351
 20
-137.3683255895041
 30
0.0
 11
488.7720221168723
 21
-137.3683255895041
 31
0.0
1001
GENIUS_GENOREF_13
1005
96A
  0
LWPOLYLINE
  5
969
330
2
100
AcDbEntity
  8
LOGO
 62
     4
100
AcDbPolyline
 90
        4
 70
     1
 43
0.0
 10
439.226381860869
 20
58.07592373662907
 10
727.4324656406354
 20
58.07592373662907
 10
727.4324656406354
 20
-130.3011293279892
 10
439.226381860869
 20
-130.3011293279892
  0
POINT
  5
96A
330
2
100
AcDbEntity
  8
0
 60
     1
100
AcDbPoint
 10
2451.108849283049
 20
-757.9063032409765
 30
0.0
1001
GENIUS_GENOBJ-N-CRS_13
1002
{
1000
OWNER
1000
GEN
1002
}
1001
GENIUS_GENOLIS_13
1002
{
1000
ENT
1005
0
1005
0
1005
0
1005
968
1002
}
1001
GENIUS_GENOENT_13
1002
{
1000
MYREF
1005
96A
1002
}
1002
{
1000
GRP
1005
0
1002
}
1001
GENIUS_GENODEF_13
1002
{
1000
HIER
1070
    10
1002
}
1002
{
1000
MANEDIT
1070
     1
1002
}
1002
{
1000
NOSEL
1070
     0
1002
}
1002
{
1000
BEHIND
1070
     0
1002
}
1002
{
1000
OTHER
1070
     0
1002
}
1002
{
1000
REACTOR
1002
}
  0
POINT
  5
96B
330
2
100
AcDbEntity
  8
0
 60
     1
100
AcDbPoint
 10
2439.784264060194
 20
-749.0307167623402
 30
0.0
1001
GENIUS_GENOBJ-N-CRS_13
1002
{
1000
OWNER
1000
GEN
1002
}
1001
GENIUS_GENOLIS_13
1002
{
1000
ENT
1005
0
1005
0
1005
0
1005
967
1002
}
1001
GENIUS_GENOENT_13
1002
{
1000
MYREF
1005
96B
1002
}
1002
{
1000
GRP
1005
0
1002
}
1001
GENIUS_GENODEF_13
1002
{
1000
HIER
1070
    10
1002
}
1002
{
1000
MANEDIT
1070
     1
1002
}
1002
{
1000
NOSEL
1070
     0
1002
}
1002
{
1000
BEHIND
1070
     0
1002
}
1002
{
1000
OTHER
1070
     0
1002
}
1002
{
1000
REACTOR
1002
}
  0
POINT
  5
96C
330
2
100
AcDbEntity
  8
0
 60
     1
100
AcDbPoint
 10
2446.142937758031
 20
-757.9063032409765
 30
0.0
1001
GENIUS_GENOBJ-N-CRS_13
1002
{
1000
OWNER
1000
GEN
1002
}
1001
GENIUS_GENOLIS_13
1002
{
1000
ENT
1005
0
1005
0
1005
0
1005
966
1002
}
1001
GENIUS_GENOENT_13
1002
{
1000
MYREF
1005
96C
1002
}
1002
{
1000
GRP
1005
0
1002
}
1001
GENIUS_GENODEF_13
1002
{
1000
HIER
1070
    10
1002
}
1002
{
1000
MANEDIT
1070
     1
1002
}
1002
{
1000
NOSEL
1070
     0
1002
}
1002
{
1000
BEHIND
1070
     0
1002
}
1002
{
1000
OTHER
1070
     0
1002
}
1002
{
1000
REACTOR
1002
}
  0
ARC
  5
FD4
330
2
100
AcDbEntity
  8
1
100
AcDbCircle
 10
520.0672641860972
 20
-33.79158062709755
 30
0.0
 40
50.0
100
AcDbArc
 50
278.0478462473108
 51
309.4695133989299
  0
ARC
  5
FD5
330
2
100
AcDbEntity
  8
1
100
AcDbCircle
 10
520.0672641860972
 20
-33.79158062709755
 30
0.0
 40
50.0
100
AcDbArc
 50
38.04784624731201
 51
141.952153752688
  0
LINE
  5
FD6
330
2
100
AcDbEntity
  8
1
100
AcDbLine
 10
549.7685110279455
 20
-63.56503249347665
 30
0.0
 11
552.5788595746528
 21
-66.68624076048186
 31
0.0
  0
LINE
  5
FD7
330
2
100
AcDbEntity
  8
1
100
AcDbLine
 10
549.8663809616602
 20
-69.12856747369156
 30
0.0
 11
551.204642174378
 21
-70.61485712464636
 31
0.0
  0
LINE
  5
FD8
330
2
100
AcDbEntity
  8
center
100
AcDbLine
 10
547.9490267501845
 20
-64.75741506626903
 30
0.0
 11
553.7874145164866
 21
-71.2416015859496
 31
0.0
  0
LINE
  5
FD9
330
2
100
AcDbEntity
  8
center
100
AcDbLine
 10
505.3448323217615
 20
-42.29158062709754
 30
0.0
 11
566.776252028062
 21
-6.824133922964136
 31
0.0
  0
CIRCLE
  5
FDA
330
2
100
AcDbEntity
  8
center
100
AcDbCircle
 10
520.0672641860972
 20
-33.79158062709755
 30
0.0
 40
45.0
  0
LINE
  5
FDB
330
2
100
AcDbEntity
  8
center
100
AcDbLine
 10
549.4727387223372
 20
-12.72335654453783
 30
0.0
 11
553.1267637223371
 21
-19.05231349666465
 31
0.0
  0
CIRCLE
  5
FDC
330
2
100
AcDbEntity
  8
1
100
AcDbCircle
 10
551.244178722337
 20
-15.79158062709754
 30
0.0
 40
3.0
  0
LINE
  5
FDD
330
2
100
AcDbEntity
  8
1
100
AcDbLine
 10
547.7800771071993
 20
-17.79158062709754
 30
0.0
 11
551.2800771071993
 21
-23.8537584535886
 31
0.0
  0
LINE
  5
FDE
330
2
100
AcDbEntity
  8
1
100
AcDbLine
 10
536.9836720510959
 20
-32.1077917611739
 30
0.0
 11
568.6005851828881
 21
-13.8537584535886
 31
0.0
  0
LINE
  5
FDF
330
2
100
AcDbEntity
  8
1
100
AcDbLine
 10
529.9836720510959
 20
-19.98343610819168
 30
0.0
 11
561.6005851828881
 21
-1.729402800606493
 31
0.0
  0
LINE
  5
FE0
330
2
100
AcDbEntity
  8
center
100
AcDbLine
 10
468.6761541860972
 20
-33.79158062709755
 30
0.0
 11
575.7650241860972
 21
-33.79158062709755
 31
0.0
  0
ARC
  5
FE1
330
2
100
AcDbEntity
  8
1
100
AcDbCircle
 10
520.0672641860972
 20
-33.79158062709755
 30
0.0
 40
50.0
100
AcDbArc
 50
230.53048660107
 51
261.9521537526892
  0
LINE
  5
FE2
330
2
100
AcDbEntity
  8
1
100
AcDbLine
 10
513.0672641860972
 20
-49.28351401192728
 30
0.0
 11
513.0672641860972
 21
-85.79158062709755
 31
0.0
  0
CIRCLE
  5
FE3
330
2
100
AcDbEntity
  8
1
100
AcDbCircle
 10
520.0672641860972
 20
-79.79158062709754
 30
0.0
 40
2.5
  0
ARC
  5
FE4
330
2
100
AcDbEntity
  8
0
 62
     3
100
AcDbCircle
 10
520.0672641860972
 20
-79.79158062709754
 30
0.0
 40
3.0
100
AcDbArc
 50
186.8760255863887
 51
94.74314076536613
  0
LINE
  5
FE5
330
2
100
AcDbEntity
  8
1
100
AcDbLine
 10
527.0672641860973
 20
-49.28351401192711
 30
0.0
 11
527.0672641860971
 21
-85.79158062709755
 31
0.0
  0
LINE
  5
FE6
330
2
100
AcDbEntity
  8
center
100
AcDbLine
 10
520.0672641860972
 20
20.90050937290246
 30
0.0
 11
520.0672641860972
 21
-88.64841062709755
 31
0.0
  0
LINE
  5
FE7
330
2
100
AcDbEntity
  8
1
100
AcDbLine
 10
520.0672641860972
 20
-85.79158062709755
 30
0.0
 11
533.5672641860972
 21
-85.79158062709755
 31
0.0
  0
LINE
  5
FE8
330
2
100
AcDbEntity
  8
1
100
AcDbLine
 10
520.0672641860973
 20
-85.79158062709755
 30
0.0
 11
506.5672641860973
 21
-85.79158062709755
 31
0.0
  0
LINE
  5
FE9
330
2
100
AcDbEntity
  8
center
100
AcDbLine
 10
516.6590941860971
 20
-79.79158062709754
 30
0.0
 11
523.6768641860972
 21
-79.79158062709754
 31
0.0
  0
LINE
  5
FEA
330
2
100
AcDbEntity
  8
1
100
AcDbLine
 10
506.5672641860973
 20
-81.93459673535565
 30
0.0
 11
506.5672641860973
 21
-85.79158062709755
 31
0.0
  0
LINE
  5
FEB
330
2
100
AcDbEntity
  8
1
100
AcDbLine
 10
533.5672641860972
 20
-81.93459673535565
 30
0.0
 11
533.5672641860972
 21
-85.79158062709755
 31
0.0
  0
ARC
  5
FEC
330
2
100
AcDbEntity
  8
1
100
AcDbCircle
 10
520.0672641860972
 20
-33.79158062709755
 30
0.0
 40
17.0
100
AcDbArc
 50
49.74992279564022
 51
130.2500772043562
  0
ARC
  5
FED
330
2
100
AcDbEntity
  8
1
100
AcDbCircle
 10
520.0672641860972
 20
-33.79158062709755
 30
0.0
 40
50.0
100
AcDbArc
 50
158.0478462473114
 51
189.4695133989292
  0
LINE
  5
FEE
330
2
100
AcDbEntity
  8
center
100
AcDbLine
 10
534.7896960504327
 20
-42.29158062709749
 30
0.0
 11
473.119974712945
 21
-6.686550412049797
 31
0.0
  0
LINE
  5
FEF
330
2
100
AcDbEntity
  8
1
100
AcDbLine
 10
537.387772261786
 20
-23.79158062709755
 30
0.0
 11
533.887772261786
 21
-17.72940280060649
 31
0.0
  0
CIRCLE
  5
FF0
330
2
100
AcDbEntity
  8
1
100
AcDbCircle
 10
542.5839246844926
 20
-20.79158062709755
 30
0.0
 40
2.5
  0
LINE
  5
FF1
330
2
100
AcDbEntity
  8
center
100
AcDbLine
 10
544.2880096844926
 20
-23.74314242751362
 30
0.0
 11
540.7791246844927
 21
-17.66557532959732
 31
0.0
  0
ARC
  5
FF2
330
2
100
AcDbEntity
  8
0
 62
     3
100
AcDbCircle
 10
542.5839246844926
 20
-20.79158062709755
 30
0.0
 40
3.0
100
AcDbArc
 50
306.8760255863879
 51
214.7431407653673
  0
LINE
  5
FF3
330
2
100
AcDbEntity
  8
1
100
AcDbLine
 10
510.1508563210983
 20
-19.98343610819162
 30
0.0
 11
478.5339431893063
 21
-1.729402800606493
 31
0.0
  0
LINE
  5
FF4
330
2
100
AcDbEntity
  8
1
100
AcDbLine
 10
492.3544512649952
 20
-17.79158062709754
 30
0.0
 11
488.8544512649952
 21
-23.8537584535886
 31
0.0
  0
LINE
  5
FF5
330
2
100
AcDbEntity
  8
1
100
AcDbLine
 10
485.4262480347196
 20
-13.79158062709754
 30
0.0
 11
481.9262480347196
 21
-19.85375845358859
 31
0.0
  0
LINE
  5
FF6
330
2
100
AcDbEntity
  8
1
100
AcDbLine
 10
475.0339431893064
 20
-7.791580627097545
 30
0.0
 11
468.2839431893064
 21
-19.48292357818744
 31
0.0
  0
LINE
  5
FF7
330
2
100
AcDbEntity
  8
1
100
AcDbLine
 10
503.1508563210984
 20
-32.10779176117367
 30
0.0
 11
471.5339431893064
 21
-13.8537584535886
 31
0.0
  0
ARC
  5
FF8
330
2
100
AcDbEntity
  8
0
 62
     3
100
AcDbCircle
 10
497.5506036877018
 20
-20.79158062709755
 30
0.0
 40
3.0
100
AcDbArc
 50
325.2568592346327
 51
233.1239744136121
  0
LINE
  5
FF9
330
2
100
AcDbEntity
  8
center
100
AcDbLine
 10
495.8465186877018
 20
-23.74314242751362
 30
0.0
 11
499.3554036877017
 21
-17.66557532959732
 31
0.0
  0
CIRCLE
  5
FFA
330
2
100
AcDbEntity
  8
1
100
AcDbCircle
 10
497.5506036877018
 20
-20.79158062709755
 30
0.0
 40
2.5
  0
LINE
  5
FFB
330
2
100
AcDbEntity
  8
1
100
AcDbLine
 10
502.7467561104084
 20
-23.79158062709755
 30
0.0
 11
506.2467561104084
 21
-17.72940280060649
 31
0.0
  0
CIRCLE
  5
FFC
330
2
100
AcDbEntity
  8
1
100
AcDbCircle
 10
488.8903496498574
 20
-15.79158062709754
 30
0.0
 40
3.0
  0
LINE
  5
FFD
330
2
100
AcDbEntity
  8
center
100
AcDbLine
 10
490.6617896498573
 20
-12.72335654453783
 30
0.0
 11
487.0077646498573
 21
-19.05231349666465
 31
0.0
  0
ARC
  5
FFE
330
2
100
AcDbEntity
  8
1
100
AcDbCircle
 10
520.0672641860972
 20
-33.79158062709755
 30
0.0
 40
17.0
100
AcDbArc
 50
169.7499227956418
 51
250.2500772043573
  0
LINE
  5
FFF
330
2
100
AcDbEntity
  8
1
100
AcDbLine
 10
509.0831390488153
 20
-20.81664344156408
 30
0.0
 11
503.3385764022771
 21
-30.76651781263061
 31
0.0
  0
ARC
  5
1000
330
2
100
AcDbEntity
  8
1
100
AcDbCircle
 10
520.0672641860972
 20
-33.79158062709755
 30
0.0
 40
50.0
100
AcDbArc
 50
194.5304866010704
 51
225.4695133989313
  0
LINE
  5
1001
330
2
100
AcDbEntity
  8
1
100
AcDbLine
 10
484.132061942396
 20
-60.87776233852181
 30
0.0
 11
479.7726398289363
 21
-63.39467586923902
 31
0.0
  0
CIRCLE
  5
1002
330
2
100
AcDbEntity
  8
1
100
AcDbCircle
 10
481.0961210157974
 20
-56.29158062709748
 30
0.0
 40
3.299999999999999
  0
ARC
  5
1003
330
2
100
AcDbEntity
  8
1
100
AcDbCircle
 10
481.0961210157974
 20
-56.29158062709748
 30
0.0
 40
5.5
100
AcDbArc
 50
303.5035917935311
 51
116.4964082064686
  0
LINE
  5
1004
330
2
100
AcDbEntity
  8
center
100
AcDbLine
 10
476.7659939968753
 20
-58.7915806270976
 30
0.0
 11
489.1865865242065
 21
-51.62054818794828
 31
0.0
  0
LINE
  5
1005
330
2
100
AcDbEntity
  8
1
100
AcDbLine
 10
478.6423416106317
 20
-51.36928780456199
 30
0.0
 11
474.282919497172
 21
-53.88620133527914
 31
0.0
  0
LINE
  5
1006
330
2
100
AcDbEntity
  8
center
100
AcDbLine
 10
492.1855016220099
 20
-64.75741506626903
 30
0.0
 11
486.347113855708
 21
-71.2416015859496
 31
0.0
  0
LINE
  5
1007
330
2
100
AcDbEntity
  8
1
100
AcDbLine
 10
490.2681474105342
 20
-69.12856747369156
 30
0.0
 11
488.9298861978165
 21
-70.61485712464636
 31
0.0
  0
LINE
  5
1008
330
2
100
AcDbEntity
  8
1
100
AcDbLine
 10
488.9298861978165
 20
-70.61485712464636
 30
0.0
 11
488.2838864200879
 21
-72.38972692692837
 31
0.0
  0
LINE
  5
1009
330
2
100
AcDbEntity
  8
1
100
AcDbLine
 10
490.3660173442489
 20
-63.56503249347665
 30
0.0
 11
487.5556687975417
 21
-66.68624076048186
 31
0.0
  0
LINE
  5
100A
330
2
100
AcDbEntity
  8
1
100
AcDbLine
 10
486.7004517213842
 20
-68.60746530556977
 30
0.0
 11
485.0028302056241
 21
-69.43545064185659
 31
0.0
  0
LINE
  5
100B
330
2
100
AcDbEntity
  8
1
100
AcDbLine
 10
488.0387129341019
 20
-67.12117565461508
 30
0.0
 11
487.5556687975417
 21
-66.68624076048186
 31
0.0
  0
LINE
  5
100C
330
2
100
AcDbEntity
  8
1
100
AcDbLine
 10
488.0387129341021
 20
-67.12117565461497
 30
0.0
 11
486.7004517213842
 21
-68.60746530556977
 31
0.0
  0
LINE
  5
100D
330
2
100
AcDbEntity
  8
1
100
AcDbLine
 10
491.9637787190253
 20
-65.00366329714816
 30
0.0
 11
490.3660173442489
 21
-63.56503249347665
 31
0.0
  0
LINE
  5
100E
330
2
100
AcDbEntity
  8
1
100
AcDbLine
 10
493.5615400938016
 20
-66.44229410081985
 30
0.0
 11
490.7511915470944
 21
-69.5635023678249
 31
0.0
  0
LINE
  5
100F
330
2
100
AcDbEntity
  8
1
100
AcDbLine
 10
490.2681474105341
 20
-69.12856747369167
 30
0.0
 11
490.7511915470944
 21
-69.5635023678249
 31
0.0
  0
LINE
  5
1010
330
2
100
AcDbEntity
  8
1
100
AcDbLine
 10
491.9637787190253
 20
-65.00366329714828
 30
0.0
 11
493.5615400938016
 21
-66.44229410081985
 31
0.0
  0
LINE
  5
1011
330
2
100
AcDbEntity
  8
1
100
AcDbLine
 10
472.6086822945011
 20
-42.34570272341275
 30
0.0
 11
470.7486000684508
 21
-42.01772004062386
 31
0.0
  0
LINE
  5
1012
330
2
100
AcDbEntity
  8
1
100
AcDbLine
 10
473.2324173669544
 20
-45.28014552561424
 30
0.0
 11
471.666550273889
 21
-46.33633621613021
 31
0.0
  0
LINE
  5
1013
330
2
100
AcDbEntity
  8
center
100
AcDbLine
 10
479.3474176442575
 20
-42.44685119976193
 30
0.0
 11
470.1255558517648
 21
-44.40701843457029
 31
0.0
  0
LINE
  5
1014
330
2
100
AcDbEntity
  8
1
100
AcDbLine
 10
478.9850649552773
 20
-42.52387164144332
 30
0.0
 11
478.5380548200191
 21
-40.42085429986568
 31
0.0
  0
LINE
  5
1015
330
2
100
AcDbEntity
  8
1
100
AcDbLine
 10
478.5380548200191
 20
-40.42085429986568
 30
0.0
 11
474.4298348969372
 21
-41.29408340130029
 31
0.0
  0
LINE
  5
1016
330
2
100
AcDbEntity
  8
1
100
AcDbLine
 10
479.4320750905355
 20
-44.62688898302118
 30
0.0
 11
475.3238551674535
 21
-45.50011808445574
 31
0.0
  0
LINE
  5
1017
330
2
100
AcDbEntity
  8
1
100
AcDbLine
 10
474.5649774959687
 20
-41.92987934177724
 30
0.0
 11
472.6086822945011
 21
-42.34570272341275
 31
0.0
  0
LINE
  5
1018
330
2
100
AcDbEntity
  8
1
100
AcDbLine
 10
474.5649774959686
 20
-41.92987934177719
 30
0.0
 11
474.4298348969372
 21
-41.29408340130029
 31
0.0
  0
LINE
  5
1019
330
2
100
AcDbEntity
  8
1
100
AcDbLine
 10
475.188712568422
 20
-44.86432214397874
 30
0.0
 11
473.2324173669544
 21
-45.28014552561424
 31
0.0
  0
LINE
  5
101A
330
2
100
AcDbEntity
  8
1
100
AcDbLine
 10
475.188712568422
 20
-44.86432214397874
 30
0.0
 11
475.3238551674535
 21
-45.50011808445574
 31
0.0
  0
LINE
  5
101B
330
2
100
AcDbEntity
  8
1
100
AcDbLine
 10
478.9850649552774
 20
-42.52387164144344
 30
0.0
 11
479.4320750905355
 21
-44.62688898302118
 31
0.0
  0
LINE
  5
101C
330
2
100
AcDbEntity
  8
1
100
AcDbLine
 10
471.6241892215422
 20
-21.41141552405835
 30
0.0
 11
468.2839431893064
 21
-19.48292357818744
 31
0.0
  0
LINE
  5
101D
330
2
100
AcDbEntity
  8
1
100
AcDbLine
 10
502.7467561104084
 20
-23.79158062709755
 30
0.0
 11
499.2467561104084
 21
-29.8537584535886
 31
0.0
  0
ARC
  5
101E
330
2
100
AcDbEntity
  8
1
100
AcDbCircle
 10
520.0672641860972
 20
-33.79158062709755
 30
0.0
 40
17.0
100
AcDbArc
 50
289.7499227956426
 51
10.25007720435972
  0
LINE
  5
101F
330
2
100
AcDbEntity
  8
center
100
AcDbLine
 10
523.6768641860972
 20
-69.79158062709754
 30
0.0
 11
516.3020941860971
 21
-69.79158062709754
 31
0.0
  0
LINE
  5
1020
330
2
100
AcDbEntity
  8
1
100
AcDbLine
 10
520.0672641860973
 20
-65.79158062709755
 30
0.0
 11
513.0672641860972
 21
-65.79158062709755
 31
0.0
  0
LINE
  5
1021
330
2
100
AcDbEntity
  8
1
100
AcDbLine
 10
520.0672641860973
 20
-73.7915806270976
 30
0.0
 11
513.0672641860972
 21
-73.79158062709755
 31
0.0
  0
CIRCLE
  5
1022
330
2
100
AcDbEntity
  8
1
100
AcDbCircle
 10
520.0672641860972
 20
-69.79158062709754
 30
0.0
 40
3.0
  0
LINE
  5
1023
330
2
100
AcDbEntity
  8
1
100
AcDbLine
 10
520.0672641860972
 20
-73.7915806270976
 30
0.0
 11
527.0672641860973
 21
-73.79158062709755
 31
0.0
  0
LINE
  5
1024
330
2
100
AcDbEntity
  8
1
100
AcDbLine
 10
520.0672641860972
 20
-65.79158062709755
 30
0.0
 11
527.0672641860973
 21
-65.79158062709755
 31
0.0
  0
LINE
  5
1025
330
2
100
AcDbEntity
  8
1
100
AcDbLine
 10
514.3227015395589
 20
-49.79158062709754
 30
0.0
 11
525.8118268326352
 21
-49.79158062709754
 31
0.0
  0
LINE
  5
1026
330
2
100
AcDbEntity
  8
1
100
AcDbLine
 10
520.0672641860973
 20
-53.79158062709755
 30
0.0
 11
513.0672641860972
 21
-53.79158062709755
 31
0.0
  0
LINE
  5
1027
330
2
100
AcDbEntity
  8
center
100
AcDbLine
 10
516.6590941860971
 20
-59.79158062709754
 30
0.0
 11
523.6768641860972
 21
-59.79158062709754
 31
0.0
  0
CIRCLE
  5
1028
330
2
100
AcDbEntity
  8
1
100
AcDbCircle
 10
520.0672641860972
 20
-59.79158062709754
 30
0.0
 40
2.5
  0
ARC
  5
1029
330
2
100
AcDbEntity
  8
0
 62
     3
100
AcDbCircle
 10
520.0672641860972
 20
-59.79158062709754
 30
0.0
 40
3.0
100
AcDbArc
 50
186.8760255863887
 51
94.74314076536613
  0
LINE
  5
102A
330
2
100
AcDbEntity
  8
1
100
AcDbLine
 10
520.0672641860972
 20
-53.79158062709755
 30
0.0
 11
527.0672641860973
 21
-53.79158062709755
 31
0.0
  0
LINE
  5
102B
330
2
100
AcDbEntity
  8
1
100
AcDbLine
 10
548.1707496531692
 20
-65.00366329714816
 30
0.0
 11
549.7685110279455
 21
-63.56503249347665
 31
0.0
  0
LINE
  5
102C
330
2
100
AcDbEntity
  8
1
100
AcDbLine
 10
546.5729882783929
 20
-66.44229410081985
 30
0.0
 11
549.3833368251
 21
-69.5635023678249
 31
0.0
  0
LINE
  5
102D
330
2
100
AcDbEntity
  8
1
100
AcDbLine
 10
549.8663809616602
 20
-69.12856747369167
 30
0.0
 11
549.3833368251
 21
-69.5635023678249
 31
0.0
  0
LINE
  5
102E
330
2
100
AcDbEntity
  8
1
100
AcDbLine
 10
548.1707496531692
 20
-65.00366329714828
 30
0.0
 11
546.5729882783929
 21
-66.44229410081985
 31
0.0
  0
LINE
  5
102F
330
2
100
AcDbEntity
  8
1
100
AcDbLine
 10
537.387772261786
 20
-23.79158062709755
 30
0.0
 11
540.887772261786
 21
-29.8537584535886
 31
0.0
  0
LINE
  5
1030
330
2
100
AcDbEntity
  8
1
100
AcDbLine
 10
536.7959519699175
 20
-30.76651781263072
 30
0.0
 11
531.0513893233796
 21
-20.81664344156493
 31
0.0
  0
LINE
  5
1031
330
2
100
AcDbEntity
  8
1
100
AcDbLine
 10
485.1241892215423
 20
1.971270378121431
 30
0.0
 11
481.7839431893063
 21
3.899762323992348
 31
0.0
  0
ARC
  5
1032
330
2
100
AcDbEntity
  8
0
 62
     3
100
AcDbCircle
 10
480.230095612013
 20
-10.79158062709754
 30
0.0
 40
3.0
100
AcDbArc
 50
325.2568592346327
 51
233.1239744136121
  0
LINE
  5
1033
330
2
100
AcDbEntity
  8
1
100
AcDbLine
 10
475.0339431893063
 20
-7.791580627097545
 30
0.0
 11
481.7839431893063
 21
3.899762323992348
 31
0.0
  0
CIRCLE
  5
1034
330
2
100
AcDbEntity
  8
1
100
AcDbCircle
 10
480.230095612013
 20
-10.79158062709754
 30
0.0
 40
2.5
  0
LINE
  5
1035
330
2
100
AcDbEntity
  8
center
100
AcDbLine
 10
478.526010612013
 20
-13.74314242751362
 30
0.0
 11
482.034895612013
 21
-7.665575329597317
 31
0.0
  0
LINE
  5
1036
330
2
100
AcDbEntity
  8
1
100
AcDbLine
 10
492.3544512649952
 20
-17.79158062709754
 30
0.0
 11
495.8544512649951
 21
-11.72940280060649
 31
0.0
  0
LINE
  5
1037
330
2
100
AcDbEntity
  8
1
100
AcDbLine
 10
485.4262480347196
 20
-13.79158062709754
 30
0.0
 11
488.9262480347197
 21
-7.729402800606493
 31
0.0
  0
LINE
  5
1038
330
2
100
AcDbEntity
  8
1
100
AcDbLine
 10
514.5775438543328
 20
10.87230826179134
 30
0.0
 11
514.5775438543328
 21
15.9061353232257
 31
0.0
  0
LINE
  5
1039
330
2
100
AcDbEntity
  8
1
100
AcDbLine
 10
525.5569845178617
 20
10.87230826179134
 30
0.0
 11
525.5569845178617
 21
15.9061353232257
 31
0.0
  0
CIRCLE
  5
103A
330
2
100
AcDbEntity
  8
1
100
AcDbCircle
 10
520.0672641860972
 20
11.20841937290245
 30
0.0
 40
3.299999999999999
  0
ARC
  5
103B
330
2
100
AcDbEntity
  8
1
100
AcDbCircle
 10
520.0672641860972
 20
11.20841937290245
 30
0.0
 40
5.5
100
AcDbArc
 50
183.5035917935307
 51
356.4964082064685
  0
LINE
  5
103C
330
2
100
AcDbEntity
  8
1
100
AcDbLine
 10
547.7800771071993
 20
-17.79158062709754
 30
0.0
 11
544.2800771071993
 21
-11.72940280060649
 31
0.0
  0
LINE
  5
103D
330
2
100
AcDbEntity
  8
1
100
AcDbLine
 10
697.4038462580456
 20
16.20841937290245
 30
0.0
 11
697.4038462580456
 21
-83.79158062709761
 31
0.0
  0
LINE
  5
103E
330
2
100
AcDbEntity
  8
1
100
AcDbLine
 10
632.4038462580456
 20
16.20841937290245
 30
0.0
 11
632.4038462580456
 21
-83.79158062709761
 31
0.0
  0
LINE
  5
103F
330
2
100
AcDbEntity
  8
1
100
AcDbLine
 10
632.4038462580456
 20
-83.79158062709761
 30
0.0
 11
697.4038462580456
 21
-83.79158062709761
 31
0.0
  0
LINE
  5
1040
330
2
100
AcDbEntity
  8
1
100
AcDbLine
 10
632.4038462580456
 20
16.20841937290245
 30
0.0
 11
697.4038462580456
 21
16.20841937290245
 31
0.0
  0
LINE
  5
1041
330
2
100
AcDbEntity
  8
center
100
AcDbLine
 10
630.0754262580455
 20
-33.79158062709755
 30
0.0
 11
698.3054362580455
 21
-33.79158062709755
 31
0.0
  0
LINE
  5
1042
330
2
100
AcDbEntity
  8
0
 62
     7
100
AcDbLine
 10
651.9038462580454
 20
3.899762323992376
 30
0.0
 11
651.9038462580454
 21
-19.48292357818744
 31
0.0
  0
LINE
  5
1043
330
2
100
AcDbEntity
  8
1
100
AcDbLine
 10
630.9038462580456
 20
-16.79158062709754
 30
0.0
 11
630.9038462580456
 21
-49.79158062709754
 31
0.0
  0
ARC
  5
1044
330
2
100
AcDbEntity
  8
1
100
AcDbCircle
 10
520.0672641860972
 20
-33.79158062709755
 30
0.0
 40
50.0
100
AcDbArc
 50
350.53048660107
 51
21.9521537526886
  0
LINE
  5
1045
330
2
100
AcDbEntity
  8
1
100
AcDbLine
 10
565.1005851828881
 20
-7.791580627097545
 30
0.0
 11
571.8505851828881
 21
-19.48292357818744
 31
0.0
  0
LINE
  5
1046
330
2
100
AcDbEntity
  8
1
100
AcDbLine
 10
554.7082803374748
 20
-13.79158062709754
 30
0.0
 11
558.2082803374748
 21
-19.85375845358859
 31
0.0
  0
ARC
  5
1047
330
2
100
AcDbEntity
  8
1
100
AcDbCircle
 10
520.0672641860972
 20
-33.79158062709755
 30
0.0
 40
50.0
100
AcDbArc
 50
314.5304866010687
 51
345.4695133989296
  0
LINE
  5
1048
330
2
100
AcDbEntity
  8
1
100
AcDbLine
 10
556.0024664297984
 20
-60.87776233852176
 30
0.0
 11
560.3618885432581
 21
-63.39467586923897
 31
0.0
  0
LINE
  5
1049
330
2
100
AcDbEntity
  8
1
100
AcDbLine
 10
551.204642174378
 20
-70.61485712464636
 30
0.0
 11
551.8506419521066
 21
-72.38972692692837
 31
0.0
  0
LINE
  5
104A
330
2
100
AcDbEntity
  8
1
100
AcDbLine
 10
552.0958154380926
 20
-67.12117565461508
 30
0.0
 11
552.5788595746528
 21
-66.68624076048186
 31
0.0
  0
LINE
  5
104B
330
2
100
AcDbEntity
  8
1
100
AcDbLine
 10
552.0958154380925
 20
-67.12117565461497
 30
0.0
 11
553.4340766508103
 21
-68.60746530556977
 31
0.0
  0
LINE
  5
104C
330
2
100
AcDbEntity
  8
1
100
AcDbLine
 10
553.4340766508103
 20
-68.60746530556977
 30
0.0
 11
555.1316981665705
 21
-69.43545064185659
 31
0.0
  0
LINE
  5
104D
330
2
100
AcDbEntity
  8
1
100
AcDbLine
 10
561.4921867615628
 20
-51.36928780456194
 30
0.0
 11
565.8516088750225
 21
-53.88620133527914
 31
0.0
  0
CIRCLE
  5
104E
330
2
100
AcDbEntity
  8
1
100
AcDbCircle
 10
559.0384073563971
 20
-56.29158062709743
 30
0.0
 40
3.299999999999999
  0
LINE
  5
104F
330
2
100
AcDbEntity
  8
center
100
AcDbLine
 10
563.3685343753191
 20
-58.7915806270976
 30
0.0
 11
550.9479418479879
 21
-51.62054818794828
 31
0.0
  0
ARC
  5
1050
330
2
100
AcDbEntity
  8
1
100
AcDbCircle
 10
559.0384073563971
 20
-56.29158062709743
 30
0.0
 40
5.5
100
AcDbArc
 50
63.50359179353137
 51
236.496408206469
  0
POLYLINE
  5
1051
330
2
100
AcDbEntity
  8
1
100
AcDb2dPolyline
 66
     1
 10
0.0
 20
0.0
 30
0.0
  0
VERTEX
  5
1052
330
1051
100
AcDbEntity
  8
1
100
AcDbVertex
100
AcDb2dVertex
 10
560.4153047796944
 20
-54.11726324204611
 30
0.0
  0
VERTEX
  5
1053
330
1051
100
AcDbEntity
  8
1
100
AcDbVertex
100
AcDb2dVertex
 10
560.4153047796944
 20
-54.11726324204611
 30
0.0
 42
0.0249251791076351
  0
SEQEND
  5
1054
330
1051
100
AcDbEntity
  8
1
  0
LINE
  5
1055
330
2
100
AcDbEntity
  8
1
100
AcDbLine
 10
561.1494634169172
 20
-42.52387164144332
 30
0.0
 11
561.5964735521754
 21
-40.42085429986568
 31
0.0
  0
LINE
  5
1056
330
2
100
AcDbEntity
  8
1
100
AcDbLine
 10
560.7024532816589
 20
-44.62688898302118
 30
0.0
 11
564.810673204741
 21
-45.50011808445574
 31
0.0
  0
LINE
  5
1057
330
2
100
AcDbEntity
  8
center
100
AcDbLine
 10
560.787110727937
 20
-42.44685119976193
 30
0.0
 11
570.0089725204297
 21
-44.40701843457029
 31
0.0
  0
LINE
  5
1058
330
2
100
AcDbEntity
  8
1
100
AcDbLine
 10
561.149463416917
 20
-42.52387164144344
 30
0.0
 11
560.7024532816589
 21
-44.62688898302118
 31
0.0
  0
LINE
  5
1059
330
2
100
AcDbEntity
  8
1
100
AcDbLine
 10
561.5964735521754
 20
-40.42085429986568
 30
0.0
 11
565.7046934752574
 21
-41.29408340130029
 31
0.0
  0
LINE
  5
105A
330
2
100
AcDbEntity
  8
1
100
AcDbLine
 10
565.5695508762257
 20
-41.92987934177724
 30
0.0
 11
567.5258460776935
 21
-42.34570272341275
 31
0.0
  0
LINE
  5
105B
330
2
100
AcDbEntity
  8
1
100
AcDbLine
 10
566.9021110052401
 20
-45.28014552561424
 30
0.0
 11
568.4679780983056
 21
-46.33633621613021
 31
0.0
  0
LINE
  5
105C
330
2
100
AcDbEntity
  8
1
100
AcDbLine
 10
565.5695508762258
 20
-41.92987934177719
 30
0.0
 11
565.7046934752574
 21
-41.29408340130029
 31
0.0
  0
LINE
  5
105D
330
2
100
AcDbEntity
  8
1
100
AcDbLine
 10
564.9458158037726
 20
-44.86432214397874
 30
0.0
 11
564.810673204741
 21
-45.50011808445574
 31
0.0
  0
LINE
  5
105E
330
2
100
AcDbEntity
  8
1
100
AcDbLine
 10
564.9458158037726
 20
-44.86432214397874
 30
0.0
 11
566.9021110052401
 21
-45.28014552561424
 31
0.0
  0
LINE
  5
105F
330
2
100
AcDbEntity
  8
1
100
AcDbLine
 10
567.5258460776935
 20
-42.34570272341275
 30
0.0
 11
569.3859283037436
 21
-42.01772004062386
 31
0.0
  0
LINE
  5
1060
330
2
100
AcDbEntity
  8
1
100
AcDbLine
 10
568.5103391506522
 20
-21.41141552405835
 30
0.0
 11
571.8505851828881
 21
-19.48292357818744
 31
0.0
  0
LINE
  5
1061
330
2
100
AcDbEntity
  8
1
100
AcDbLine
 10
630.9038462580456
 20
-49.79158062709754
 30
0.0
 11
632.4038462580456
 21
-49.79158062709754
 31
0.0
  0
LINE
  5
1062
330
2
100
AcDbEntity
  8
1
100
AcDbLine
 10
632.4038462580456
 20
-19.48292357818744
 30
0.0
 11
651.9038462580454
 21
-19.48292357818744
 31
0.0
  0
LINE
  5
1063
330
2
100
AcDbEntity
  8
1
100
AcDbLine
 10
565.1005851828881
 20
-7.791580627097545
 30
0.0
 11
558.3505851828881
 21
3.899762323992348
 31
0.0
  0
LINE
  5
1064
330
2
100
AcDbEntity
  8
center
100
AcDbLine
 10
561.6085177601815
 20
-13.74314242751362
 30
0.0
 11
558.0996327601815
 21
-7.665575329597317
 31
0.0
  0
ARC
  5
1065
330
2
100
AcDbEntity
  8
0
 62
     3
100
AcDbCircle
 10
559.9044327601815
 20
-10.79158062709754
 30
0.0
 40
3.0
100
AcDbArc
 50
306.8760255863879
 51
214.7431407653673
  0
CIRCLE
  5
1066
330
2
100
AcDbEntity
  8
1
100
AcDbCircle
 10
559.9044327601815
 20
-10.79158062709754
 30
0.0
 40
2.5
  0
LINE
  5
1067
330
2
100
AcDbEntity
  8
1
100
AcDbLine
 10
554.7082803374748
 20
-13.79158062709754
 30
0.0
 11
551.2082803374749
 21
-7.729402800606493
 31
0.0
  0
LINE
  5
1068
330
2
100
AcDbEntity
  8
1
100
AcDbLine
 10
555.0103391506523
 20
1.971270378121431
 30
0.0
 11
558.3505851828881
 21
3.899762323992348
 31
0.0
  0
LINE
  5
1069
330
2
100
AcDbEntity
  8
1
100
AcDbLine
 10
632.4038462580456
 20
-13.8537584535886
 30
0.0
 11
651.9038462580454
 21
-13.8537584535886
 31
0.0
  0
LINE
  5
106A
330
2
100
AcDbEntity
  8
1
100
AcDbLine
 10
632.4038462580456
 20
-1.729402800606493
 30
0.0
 11
651.9038462580454
 21
-1.729402800606493
 31
0.0
  0
LINE
  5
106B
330
2
100
AcDbEntity
  8
1
100
AcDbLine
 10
632.4038462580456
 20
3.899762323992348
 30
0.0
 11
651.9038462580454
 21
3.899762323992348
 31
0.0
  0
LINE
  5
106C
330
2
100
AcDbEntity
  8
1
100
AcDbLine
 10
630.9038462580456
 20
-16.79158062709754
 30
0.0
 11
632.4038462580456
 21
-16.79158062709754
 31
0.0
  0
LINE
  5
106D
330
2
100
AcDbEntity
  8
0
  6
DASHED
 62
     5
370
    15
100
AcDbLine
 10
635.4038462580456
 20
-40.79158062709754
 30
0.0
 11
647.7634525031923
 21
-40.79158062709754
 31
0.0
  0
LINE
  5
106E
330
2
100
AcDbEntity
  8
0
  6
DASHED
 62
     5
370
    15
100
AcDbLine
 10
651.4038462580455
 20
-43.84623368413497
 30
0.0
 11
647.7634525031923
 21
-40.79158062709754
 31
0.0
  0
LINE
  5
106F
330
2
100
AcDbEntity
  8
0
  6
DASHED
 62
     5
370
    15
100
AcDbLine
 10
651.4038462580455
 20
-85.79158062709755
 30
0.0
 11
651.4038462580455
 21
-43.84623368413497
 31
0.0
  0
LINE
  5
1070
330
2
100
AcDbEntity
  8
0
  6
DASHED
 62
     5
370
    15
100
AcDbLine
 10
638.4038462580456
 20
-73.79158062709755
 30
0.0
 11
635.4038462580456
 21
-73.79158062709755
 31
0.0
  0
LINE
  5
1071
330
2
100
AcDbEntity
  8
0
  6
DASHED
 62
     5
370
    15
100
AcDbLine
 10
635.4038462580456
 20
-65.79158062709755
 30
0.0
 11
635.4038462580456
 21
-40.79158062709754
 31
0.0
  0
LINE
  5
1072
330
2
100
AcDbEntity
  8
0
  6
DASHED
 62
     5
370
    15
100
AcDbLine
 10
635.4038462580456
 20
-85.79158062709755
 30
0.0
 11
635.4038462580456
 21
-73.79158062709755
 31
0.0
  0
LINE
  5
1073
330
2
100
AcDbEntity
  8
0
  6
DASHED
 62
     5
370
    15
100
AcDbLine
 10
635.4038462580456
 20
-65.79158062709755
 30
0.0
 11
638.4038462580456
 21
-65.79158062709755
 31
0.0
  0
LINE
  5
1074
330
2
100
AcDbEntity
  8
0
  6
DASHED
 62
     5
370
    15
100
AcDbLine
 10
638.4038462580456
 20
-73.79158062709755
 30
0.0
 11
638.4038462580456
 21
-65.79158062709755
 31
0.0
  0
LINE
  5
1075
330
2
100
AcDbEntity
  8
0
  6
DASHED
 62
     5
370
    15
100
AcDbLine
 10
635.4038462580456
 20
-85.79158062709755
 30
0.0
 11
651.4038462580455
 21
-85.79158062709755
 31
0.0
  0
DIMENSION
  5
1076
330
2
100
AcDbEntity
  8
AM_5
100
AcDbDimension
  2
*D40
 10
533.5672641860972
 20
-102.4323357994724
 30
0.0
 11
520.0672641860972
 21
-100.1820897364802
 31
0.0
 70
    32
 71
     5
 42
26.99999999999989
  3
STANDARD$0
100
AcDbAlignedDimension
 13
506.5672641860973
 23
-85.79158062709755
 33
0.0
 14
533.5672641860972
 24
-85.79158062709755
 34
0.0
100
AcDbRotatedDimension
1001
ACAD
1000
DSTYLE
1002
{
1070
     3
1000
 
1070
    41
1040
3.0
1070
    42
1040
1.0
1070
    44
1040
1.0
1070
    47
1040
0.1
1070
    48
1040
0.1
1070
    73
1070
     0
1070
    77
1070
     1
1070
    78
1070
     8
1070
   140
1040
2.5
1070
   141
1040
1.0
1070
   145
1040
1.0
1070
   147
1040
1.0
1070
   172
1070
     1
1070
   174
1070
     1
1070
   177
1070
     5
1070
   178
1070
     5
1070
   271
1070
     0
1070
   272
1070
     8
1070
   340
1005
C
1002
}
  0
DIMENSION
  5
1077
330
2
100
AcDbEntity
  8
AM_5
100
AcDbDimension
  2
*D41
 10
527.0672641860971
 20
-95.91018703936569
 30
0.0
 11
520.0672641860972
 21
-93.65994097637358
 31
0.0
 70
    32
  1
14.2
 71
     5
 42
13.99999999999989
  3
STANDARD$0
100
AcDbAlignedDimension
 13
513.0672641860972
 23
-85.79158062709755
 33
0.0
 14
527.0672641860971
 24
-85.79158062709755
 34
0.0
100
AcDbRotatedDimension
1001
ACAD
1000
DSTYLE
1002
{
1070
     3
1000
 
1070
    41
1040
3.0
1070
    42
1040
1.0
1070
    44
1040
1.0
1070
    47
1040
0.1
1070
    48
1040
0.1
1070
    73
1070
     0
1070
    77
1070
     1
1070
    78
1070
     8
1070
   140
1040
2.5
1070
   141
1040
1.0
1070
   145
1040
1.0
1070
   147
1040
1.0
1070
   172
1070
     1
1070
   174
1070
     1
1070
   177
1070
     5
1070
   178
1070
     5
1070
   271
1070
     0
1070
   272
1070
     8
1070
   340
1005
C
1002
}
  0
DIMENSION
  5
1078
330
2
100
AcDbEntity
  8
AM_5
100
AcDbDimension
  2
*D42
 10
464.9228891386102
 20
-85.79158062709753
 30
0.0
 11
462.6726430756181
 21
-69.79158062709746
 31
0.0
 70
    32
 71
     5
 42
32.0
  3
STANDARD$0
100
AcDbAlignedDimension
 13
513.0672641860972
 23
-53.79158062709755
 33
0.0
 14
506.5672641860973
 24
-85.79158062709755
 34
0.0
 50
90.0
100
AcDbRotatedDimension
1001
ACAD
1000
DSTYLE
1002
{
1070
   340
1005
C
1070
   147
1040
1.0
1070
     3
1000
 
1070
    41
1040
3.0
1070
    42
1040
1.0
1070
    44
1040
1.0
1070
    47
1040
0.1
1070
    48
1040
0.1
1070
    73
1070
     0
1070
    77
1070
     1
1070
    78
1070
     8
1070
   140
1040
2.5
1070
   141
1040
1.0
1070
   145
1040
1.0
1070
   172
1070
     1
1070
   174
1070
     1
1070
   176
1070
     0
1070
   177
1070
     5
1070
   178
1070
     5
1070
   271
1070
     0
1070
   272
1070
     8
1002
}
  0
DIMENSION
  5
1079
330
2
100
AcDbEntity
  8
AM_5
100
AcDbDimension
  2
*D43
 10
572.9862233326811
 20
-85.79158062709757
 30
0.0
 11
570.7362233326811
 21
-82.79158062709745
 31
0.0
 70
    32
 71
     5
 42
6.0
  3
STANDARD$0
100
AcDbAlignedDimension
 13
523.6768641860972
 23
-79.79158062709754
 33
0.0
 14
533.5672641860972
 24
-85.79158062709755
 34
0.0
 50
90.0
100
AcDbRotatedDimension
1001
ACAD
1000
DSTYLE
1002
{
1070
     3
1000
 
1070
    41
1040
3.0
1070
    42
1040
1.0
1070
    44
1040
1.0
1070
    47
1040
0.1
1070
    48
1040
0.1
1070
    73
1070
     0
1070
    77
1070
     1
1070
    78
1070
     8
1070
   140
1040
2.5
1070
   141
1040
1.0
1070
   145
1040
1.0
1070
   147
1040
1.0
1070
   172
1070
     1
1070
   174
1070
     1
1070
   177
1070
     5
1070
   178
1070
     5
1070
   271
1070
     0
1070
   272
1070
     8
1070
   340
1005
C
1002
}
  0
DIMENSION
  5
107A
330
2
100
AcDbEntity
  8
AM_5
100
AcDbDimension
  2
*D44
 10
567.6465942757754
 20
-65.79158062709756
 30
0.0
 11
565.3965942757754
 21
-62.79158062709747
 31
0.0
 70
    32
 71
     5
 42
6.0
  3
STANDARD$0
100
AcDbAlignedDimension
 13
523.6768641860972
 23
-59.79158062709754
 33
0.0
 14
527.0672641860973
 24
-65.79158062709755
 34
0.0
 50
90.0
100
AcDbRotatedDimension
1001
ACAD
1000
DSTYLE
1002
{
1070
     3
1000
 
1070
    41
1040
3.0
1070
    42
1040
1.0
1070
    44
1040
1.0
1070
    47
1040
0.1
1070
    48
1040
0.1
1070
    73
1070
     0
1070
    77
1070
     1
1070
    78
1070
     8
1070
   140
1040
2.5
1070
   141
1040
1.0
1070
   145
1040
1.0
1070
   147
1040
1.0
1070
   172
1070
     1
1070
   174
1070
     1
1070
   177
1070
     5
1070
   178
1070
     5
1070
   271
1070
     0
1070
   272
1070
     8
1070
   340
1005
C
1002
}
  0
DIMENSION
  5
107B
330
2
100
AcDbEntity
  8
AM_5
100
AcDbDimension
  2
*D45
 10
572.9862233326811
 20
-79.79158062709756
 30
0.0
 11
570.735977269689
 21
-69.79158062709746
 31
0.0
 70
    32
 71
     5
 42
20.0
  3
STANDARD$0
100
AcDbAlignedDimension
 13
523.6768641860972
 23
-59.79158062709754
 33
0.0
 14
523.6768641860972
 24
-79.79158062709754
 34
0.0
 50
90.0
100
AcDbRotatedDimension
1001
ACAD
1000
DSTYLE
1002
{
1070
     3
1000
 
1070
    41
1040
3.0
1070
    42
1040
1.0
1070
    44
1040
1.0
1070
    47
1040
0.1
1070
    48
1040
0.1
1070
    73
1070
     0
1070
    77
1070
     1
1070
    78
1070
     8
1070
   140
1040
2.5
1070
   141
1040
1.0
1070
   145
1040
1.0
1070
   147
1040
1.0
1070
   172
1070
     1
1070
   174
1070
     1
1070
   177
1070
     5
1070
   178
1070
     5
1070
   271
1070
     0
1070
   272
1070
     8
1070
   340
1005
C
1002
}
  0
DIMENSION
  5
107C
330
2
100
AcDbEntity
  8
AM_5
100
AcDbDimension
  2
*D46
 10
581.6874122927853
 20
-85.79158062709757
 30
0.0
 11
579.4371662297931
 21
-59.79158062709746
 31
0.0
 70
    32
 71
     5
 42
52.00000000000001
  3
STANDARD$0
100
AcDbAlignedDimension
 13
575.7650241860972
 23
-33.79158062709755
 33
0.0
 14
533.5672641860972
 24
-85.79158062709755
 34
0.0
 50
90.0
100
AcDbRotatedDimension
1001
ACAD
1000
DSTYLE
1002
{
1070
     3
1000
 
1070
    41
1040
3.0
1070
    42
1040
1.0
1070
    44
1040
1.0
1070
    47
1040
0.1
1070
    48
1040
0.1
1070
    73
1070
     0
1070
    77
1070
     1
1070
    78
1070
     8
1070
   140
1040
2.5
1070
   141
1040
1.0
1070
   145
1040
1.0
1070
   147
1040
1.0
1070
   172
1070
     1
1070
   174
1070
     1
1070
   177
1070
     5
1070
   178
1070
     5
1070
   271
1070
     0
1070
   272
1070
     8
1070
   340
1005
C
1002
}
  0
DIMENSION
  5
107D
330
2
100
AcDbEntity
  8
AM_5
100
AcDbDimension
  2
*D47
 10
697.4038462580456
 20
-102.4323357994722
 30
0.0
 11
674.4038462580456
 21
-100.1823357994722
 31
0.0
 70
    32
 71
     5
 42
46.00000000000011
  3
STANDARD$0
100
AcDbAlignedDimension
 13
651.4038462580455
 23
-85.79158062709755
 33
0.0
 14
697.4038462580456
 24
-83.79158062709761
 34
0.0
100
AcDbRotatedDimension
1001
ACAD
1000
DSTYLE
1002
{
1070
     3
1000
 
1070
    41
1040
3.0
1070
    42
1040
1.0
1070
    44
1040
1.0
1070
    47
1040
0.1
1070
    48
1040
0.1
1070
    73
1070
     0
1070
    77
1070
     1
1070
    78
1070
     8
1070
   140
1040
2.5
1070
   141
1040
1.0
1070
   145
1040
1.0
1070
   147
1040
1.0
1070
   172
1070
     1
1070
   174
1070
     1
1070
   177
1070
     5
1070
   178
1070
     5
1070
   271
1070
     0
1070
   272
1070
     8
1070
   340
1005
C
1002
}
  0
DIMENSION
  5
107E
330
2
100
AcDbEntity
  8
AM_5
100
AcDbDimension
  2
*D48
 10
632.4038462580456
 20
-102.0523357994725
 30
0.0
 11
633.9038462580456
 21
-99.80233579947253
 31
0.0
 70
    32
 71
     5
 42
3.0
  3
STANDARD$0
100
AcDbAlignedDimension
 13
635.4038462580456
 23
-85.79158062709755
 33
0.0
 14
632.4038462580456
 24
-83.79158062709761
 34
0.0
100
AcDbRotatedDimension
1001
ACAD
1000
DSTYLE
1002
{
1070
     3
1000
 
1070
    41
1040
3.0
1070
    42
1040
1.0
1070
    44
1040
1.0
1070
    47
1040
0.1
1070
    48
1040
0.1
1070
    73
1070
     0
1070
    77
1070
     1
1070
    78
1070
     8
1070
   140
1040
2.5
1070
   141
1040
1.0
1070
   145
1040
1.0
1070
   147
1040
1.0
1070
   172
1070
     1
1070
   174
1070
     1
1070
   177
1070
     5
1070
   178
1070
     5
1070
   271
1070
     0
1070
   272
1070
     8
1070
   340
1005
C
1002
}
  0
DIMENSION
  5
107F
330
2
100
AcDbEntity
  8
AM_5
100
AcDbDimension
  2
*D49
 10
632.4038462580456
 20
25.13851297993588
 30
0.0
 11
631.6538462580456
 21
27.38875904292801
 31
0.0
 70
    32
 71
     5
 42
1.5
  3
STANDARD$0
100
AcDbAlignedDimension
 13
630.9038462580456
 23
-16.79158062709754
 33
0.0
 14
632.4038462580456
 24
16.20841937290245
 34
0.0
100
AcDbRotatedDimension
1001
ACAD
1000
DSTYLE
1002
{
1070
     3
1000
 
1070
    41
1040
3.0
1070
    42
1040
1.0
1070
    44
1040
1.0
1070
    47
1040
0.1
1070
    48
1040
0.1
1070
    73
1070
     0
1070
    77
1070
     1
1070
    78
1070
     8
1070
   140
1040
2.5
1070
   141
1040
1.0
1070
   145
1040
1.0
1070
   147
1040
1.0
1070
   172
1070
     1
1070
   174
1070
     1
1070
   177
1070
     5
1070
   178
1070
     5
1070
   271
1070
     0
1070
   272
1070
     8
1070
   340
1005
C
1002
}
  0
DIMENSION
  5
1080
330
2
100
AcDbEntity
  8
AM_5
100
AcDbDimension
  2
*D50
 10
697.4038462580456
 20
25.13851297993588
 30
0.0
 11
664.9038462580456
 21
27.38851297993588
 31
0.0
 70
    32
 71
     5
 42
65.0
  3
STANDARD$0
100
AcDbAlignedDimension
 13
632.4038462580456
 23
16.20841937290245
 33
0.0
 14
697.4038462580456
 24
16.20841937290245
 34
0.0
100
AcDbRotatedDimension
1001
ACAD
1000
DSTYLE
1002
{
1070
     3
1000
 
1070
    41
1040
3.0
1070
    42
1040
1.0
1070
    44
1040
1.0
1070
    47
1040
0.1
1070
    48
1040
0.1
1070
    73
1070
     0
1070
    77
1070
     1
1070
    78
1070
     8
1070
   140
1040
2.5
1070
   141
1040
1.0
1070
   145
1040
1.0
1070
   147
1040
1.0
1070
   172
1070
     1
1070
   174
1070
     1
1070
   177
1070
     5
1070
   178
1070
     5
1070
   271
1070
     0
1070
   272
1070
     8
1070
   340
1005
C
1002
}
  0
DIMENSION
  5
1081
330
2
100
AcDbEntity
  8
AM_5
100
AcDbDimension
  2
*D51
 10
635.4038462580456
 20
-108.944841785115
 30
0.0
 11
636.9038462580456
 21
-106.694841785115
 31
0.0
 70
    32
 71
     5
 42
3.0
  3
STANDARD$0
100
AcDbAlignedDimension
 13
638.4038462580456
 23
-73.79158062709755
 33
0.0
 14
635.4038462580456
 24
-85.79158062709755
 34
0.0
100
AcDbRotatedDimension
1001
ACAD
1000
DSTYLE
1002
{
1070
     3
1000
 
1070
    41
1040
3.0
1070
    42
1040
1.0
1070
    44
1040
1.0
1070
    47
1040
0.1
1070
    48
1040
0.1
1070
    73
1070
     0
1070
    77
1070
     1
1070
    78
1070
     8
1070
   140
1040
2.5
1070
   141
1040
1.0
1070
   145
1040
1.0
1070
   147
1040
1.0
1070
   172
1070
     1
1070
   174
1070
     1
1070
   177
1070
     5
1070
   178
1070
     5
1070
   271
1070
     0
1070
   272
1070
     8
1070
   340
1005
C
1002
}
  0
LEADER
  5
1082
330
2
100
AcDbEntity
  8
AM_5
100
AcDbLeader
  3
STANDARD
 76
     3
 10
517.5905524938245
 20
13.38922179250852
 30
0.0
 10
512.3618655279638
 20
22.18736411380783
 30
0.0
 10
489.105634566117
 20
22.18736411380783
 30
0.0
1001
ACAD
1000
DSTYLE
1002
{
1070
     3
1000
 
1070
    41
1040
3.0
1070
    42
1040
1.0
1070
    44
1040
1.0
1070
    47
1040
0.1
1070
    48
1040
0.1
1070
    73
1070
     0
1070
    77
1070
     1
1070
    78
1070
     8
1070
   140
1040
2.5
1070
   141
1040
1.0
1070
   145
1040
1.0
1070
   147
1040
1.0
1070
   172
1070
     1
1070
   174
1070
     1
1070
   177
1070
     5
1070
   178
1070
     5
1070
   271
1070
     0
1070
   272
1070
     8
1070
   340
1005
C
1002
}
  0
LEADER
  5
1083
330
2
100
AcDbEntity
  8
AM_5
100
AcDbLeader
  3
STANDARD
 76
     3
 10
560.3835809973212
 20
-7.830091649092423
 30
0.0
 10
567.0443998502419
 20
1.463585220453893
 30
0.0
 10
600.1316382072059
 20
1.463585220453893
 30
0.0
1001
ACAD
1000
DSTYLE
1002
{
1070
     3
1000
 
1070
    41
1040
3.0
1070
    42
1040
1.0
1070
    44
1040
1.0
1070
    47
1040
0.1
1070
    48
1040
0.1
1070
    73
1070
     0
1070
    77
1070
     1
1070
    78
1070
     8
1070
   140
1040
2.5
1070
   141
1040
1.0
1070
   145
1040
1.0
1070
   147
1040
1.0
1070
   172
1070
     1
1070
   174
1070
     1
1070
   177
1070
     5
1070
   178
1070
     5
1070
   271
1070
     0
1070
   272
1070
     8
1070
   340
1005
C
1002
}
  0
MTEXT
  5
1084
330
2
100
AcDbEntity
  8
AM_5
100
AcDbMText
 10
490.6446139039199
 20
26.69363789828267
 30
0.0
 40
3.0
 41
20.75463911795396
 71
     1
 72
     5
  1
3-%%C6.6thru
  7
CHINA
 73
     1
 44
1.0
  0
MTEXT
  5
1085
330
2
100
AcDbEntity
  8
AM_5
100
AcDbMText
 10
567.6268329190293
 20
5.750560694157826
 30
0.0
 40
3.0
 41
30.94666666666667
 71
     1
 72
     5
  1
3x2-M6x1.0x12dp
  7
CHINA
 73
     1
 44
1.0
  0
DIMENSION
  5
1086
330
2
100
AcDbEntity
  8
AM_5
100
AcDbDimension
  2
*D52
 10
705.813088638856
 20
-83.79158062709761
 30
0.0
 11
703.563088638856
 21
-33.79158062709746
 31
0.0
 70
    32
  1
%%C<>
 71
     5
 42
100.0
  3
STANDARD$0
100
AcDbAlignedDimension
 13
697.4038462580456
 23
16.20841937290245
 33
0.0
 14
697.4038462580456
 24
-83.79158062709761
 34
0.0
 50
90.0
100
AcDbRotatedDimension
1001
ACAD
1000
DSTYLE
1002
{
1070
     3
1000
 
1070
    41
1040
3.0
1070
    42
1040
1.0
1070
    44
1040
1.0
1070
    47
1040
0.1
1070
    48
1040
0.1
1070
    73
1070
     0
1070
    77
1070
     1
1070
    78
1070
     8
1070
   140
1040
2.5
1070
   141
1040
1.0
1070
   145
1040
1.0
1070
   147
1040
1.0
1070
   172
1070
     1
1070
   174
1070
     1
1070
   177
1070
     5
1070
   178
1070
     5
1070
   271
1070
     0
1070
   272
1070
     8
1070
   340
1005
C
1002
}
  0
ENDSEC
  0
SECTION
  2
OBJECTS
  0
DICTIONARY
  5
1A
330
0
100
AcDbDictionary
281
     1
  3
ACAD_COLOR
350
30F
  3
ACAD_GROUP
350
18
  3
ACAD_LAYOUT
350
CC
  3
ACAD_MATERIAL
350
30E
  3
ACAD_MLINESTYLE
350
19
  3
ACAD_PLOTSETTINGS
350
CD
  3
ACAD_PLOTSTYLENAME
350
CA
  3
ACAD_TABLESTYLE
350
310
  3
AcDbVariableDictionary
350
2AE
  3
AcmDictionary
350
269
  3
AMG
350
24F
  3
AMGSNAPSETTINGS
350
29E
  3
MAPISURF_MODULE
350
39E
  0
DICTIONARY
  5
40D
330
A
100
AcDbDictionary
280
     1
281
     1
  3
ACAD_LAYERSTATES
360
40E
  0
DICTIONARY
  5
226
330
2
100
AcDbDictionary
280
     1
281
     1
  3
ACAD_INDEX
360
2A5
  3
ACAD_LAYOUTSELFREF
360
2F3
  0
DICTIONARY
  5
228
330
7
100
AcDbDictionary
280
     1
281
     1
  3
ACAD_LAYOUTSELFREF
360
2F4
  0
DICTIONARY
  5
30F
102
{ACAD_REACTORS
330
1A
102
}
330
1A
100
AcDbDictionary
281
     1
  0
DICTIONARY
  5
18
102
{ACAD_REACTORS
330
1A
102
}
330
1A
100
AcDbDictionary
281
     1
  0
DICTIONARY
  5
CC
102
{ACAD_REACTORS
330
1A
102
}
330
1A
100
AcDbDictionary
281
     1
  3
Model
350
CE
  3
配置1
350
CF
  0
DICTIONARY
  5
30E
102
{ACAD_REACTORS
330
1A
102
}
330
1A
100
AcDbDictionary
281
     1
  0
DICTIONARY
  5
19
102
{ACAD_REACTORS
330
1A
102
}
330
1A
100
AcDbDictionary
281
     1
  3
STANDARD
350
1D
  0
DICTIONARY
  5
CD
102
{ACAD_REACTORS
330
1A
102
}
330
1A
100
AcDbDictionary
281
     1
  0
ACDBDICTIONARYWDFLT
  5
CA
102
{ACAD_REACTORS
330
1A
102
}
330
1A
100
AcDbDictionary
281
     1
  3
Normal
350
CB
100
AcDbDictionaryWithDefault
340
CB
1001
ACAD
1000
TREAT_AS_HARD
1070
     0
  0
DICTIONARY
  5
310
102
{ACAD_REACTORS
330
1A
102
}
330
1A
100
AcDbDictionary
281
     1
  3
Standard
350
311
  0
DICTIONARY
  5
2AE
102
{ACAD_REACTORS
330
1A
102
}
330
1A
100
AcDbDictionary
281
     1
  3
CTABLESTYLE
350
3F6
  3
DIMASSOC
350
2B0
  3
INDEXCTL
350
2AF
  0
DICTIONARY
  5
269
102
{ACAD_REACTORS
330
1A
102
}
330
1A
100
AcDbDictionary
281
     1
  3
AcmBOMDATA
350
3D0
  3
AcmStdDictionary
350
26F
  3
AMDTSECTSYM_ARROWCOLOR
350
3EA
  0
DICTIONARY
  5
24F
102
{ACAD_REACTORS
330
1A
102
}
330
1A
100
AcDbDictionary
281
     1
  3
AcMgSettings
350
250
  3
AMGLAYCFG
350
3DE
  0
DICTIONARY
  5
29E
102
{ACAD_REACTORS
330
1A
102
}
330
1A
100
AcDbDictionary
281
     1
  0
DICTIONARY
  5
40E
102
{ACAD_REACTORS
330
40D
102
}
330
40D
100
AcDbDictionary
281
     1
  0
DICTIONARY
  5
2A5
102
{ACAD_REACTORS
330
226
102
}
330
226
100
AcDbDictionary
281
     1
  3
*A1
350
2A6
  0
XRECORD
  5
2F3
102
{ACAD_REACTORS
330
226
102
}
330
226
100
AcDbXrecord
280
     1
340
2
  0
XRECORD
  5
2F4
102
{ACAD_REACTORS
330
228
102
}
330
228
100
AcDbXrecord
280
     1
340
7
  0
LAYOUT
  5
CE
102
{ACAD_REACTORS
330
CC
102
}
330
CC
100
AcDbPlotSettings
  1

  2
\\WINNT\EPSON Stylus Photo 750 單色
  4

  6

 40
0.0
 41
0.0
 42
0.0
 43
0.0
 44
0.0
 45
0.0
 46
0.0
 47
0.0
 48
0.0
 49
0.0
140
0.0
141
0.0
142
1.0
143
1.0
 70
 11952
 72
     0
 73
     1
 74
     0
  7

 75
     0
147
1.0
 76
     0
 77
     2
 78
   300
148
-1016.680816749764
149
103.0807414509828
100
AcDbLayout
  1
Model
 70
     1
 71
     0
 10
0.0
 20
0.0
 11
12.0
 21
9.0
 12
0.0
 22
0.0
 32
0.0
 14
0.0
 24
0.0
 34
0.0
 15
0.0
 25
0.0
 35
0.0
146
0.0
 13
0.0
 23
0.0
 33
0.0
 16
1.0
 26
0.0
 36
0.0
 17
0.0
 27
1.0
 37
0.0
 76
     0
330
2
  0
LAYOUT
  5
CF
102
{ACAD_REACTORS
330
CC
102
}
330
CC
100
AcDbPlotSettings
  1

  2
\\WINNT\EPSON Stylus Photo 750 單色
  4

  6

 40
0.0
 41
0.0
 42
0.0
 43
0.0
 44
0.0
 45
0.0
 46
0.0
 47
0.0
 48
0.0
 49
0.0
140
0.0
141
0.0
142
1.0
143
1.0
 70
   688
 72
     0
 73
     0
 74
     5
  7

 75
    16
147
1.0
 76
     0
 77
     2
 78
   300
148
0.0
149
0.0
100
AcDbLayout
  1
配置1
 70
     1
 71
     1
 10
0.0
 20
0.0
 11
12.0
 21
9.0
 12
0.0
 22
0.0
 32
0.0
 14
1.000000000000000E+20
 24
1.000000000000000E+20
 34
1.000000000000000E+20
 15
-1.000000000000000E+20
 25
-1.000000000000000E+20
 35
-1.000000000000000E+20
146
0.0
 13
0.0
 23
0.0
 33
0.0
 16
1.0
 26
0.0
 36
0.0
 17
0.0
 27
1.0
 37
0.0
 76
     0
330
7
  0
MLINESTYLE
  5
1D
102
{ACAD_REACTORS
330
19
102
}
330
19
100
AcDbMlineStyle
  2
STANDARD
 70
     0
  3

 62
   256
 51
90.0
 52
90.0
 71
     2
 49
0.5
 62
   256
  6
BYLAYER
 49
-0.5
 62
   256
  6
BYLAYER
  0
ACDBPLACEHOLDER
  5
CB
102
{ACAD_REACTORS
330
CA
102
}
330
CA
  0
TABLESTYLE
  5
311
102
{ACAD_REACTORS
330
310
102
}
330
310
100
AcDbTableStyle
  3
Standard
 70
     0
 71
     0
 40
0.06
 41
0.06
280
     0
281
     0
  7
STANDARD
140
0.18
170
     2
 62
     0
 63
     7
283
     0
274
    -2
284
     1
 64
     0
275
    -2
285
     1
 65
     0
276
    -2
286
     1
 66
     0
277
    -2
287
     1
 67
     0
278
    -2
288
     1
 68
     0
279
    -2
289
     1
 69
     0
  7
STANDARD
140
0.25
170
     5
 62
     0
 63
     7
283
     0
274
    -2
284
     1
 64
     0
275
    -2
285
     1
 65
     0
276
    -2
286
     1
 66
     0
277
    -2
287
     1
 67
     0
278
    -2
288
     1
 68
     0
279
    -2
289
     1
 69
     0
  7
STANDARD
140
0.18
170
     5
 62
     0
 63
     7
283
     0
274
    -2
284
     1
 64
     0
275
    -2
285
     1
 65
     0
276
    -2
286
     1
 66
     0
277
    -2
287
     1
 67
     0
278
    -2
288
     1
 68
     0
279
    -2
289
     1
 69
     0
  0
DICTIONARYVAR
  5
3F6
102
{ACAD_REACTORS
330
2AE
102
}
330
2AE
100
DictionaryVariables
280
     0
  1
STANDARD
  0
DICTIONARYVAR
  5
2B0
102
{ACAD_REACTORS
330
2AE
102
}
330
2AE
100
DictionaryVariables
280
     0
  1
0
  0
DICTIONARYVAR
  5
2AF
102
{ACAD_REACTORS
330
2AE
102
}
330
2AE
100
DictionaryVariables
280
     0
  1
1
  0
ACMDATADICTIONARY
  5
3D0
102
{ACAD_REACTORS
330
269
102
}
330
269
100
AcDbDictionary
281
     1
  3
*A1
350
3D1
  3
*A2
350
A32
  3
*A3
350
A33
  3
*A4
350
A34
  3
*A5
350
A35
  3
*A6
350
A36
100
AcmDataDictionary
  0
DICTIONARY
  5
26F
102
{ACAD_REACTORS
330
269
102
}
330
269
100
AcDbDictionary
281
     1
  3
ANSI
350
3DD
  3
ISO
350
5E3
  0
XRECORD
  5
3EA
102
{ACAD_REACTORS
330
269
102
}
330
269
100
AcDbXrecord
280
     1
 90
-1023410169
  0
DICTIONARY
  5
250
102
{ACAD_REACTORS
330
24F
102
}
330
24F
100
AcDbDictionary
281
     1
  3
DWGSETTINGS
350
31C
  3
Shaft
350
9A4
  3
TRANSSETTINGS
350
320
  0
LAYER_INDEX
  5
2A6
102
{ACAD_REACTORS
330
2A5
102
}
330
2A5
100
AcDbIndex
 40
2456360.611742072
100
AcDbLayerIndex
  8
0
360
2A7
 90
       19
  8
1
360
2A8
 90
      122
  8
LOGO
360
2A9
 90
       90
  8
AM_5
360
2AC
 90
       17
  8
Defpoints
360
9BB
 90
        0
  8
center
360
9BC
 90
       21
  0
ACMDATAENTRYBLOCK
  5
3D1
102
{ACAD_REACTORS
330
3D0
102
}
330
3D0
100
AcmDataEntry
100
AcmDataEntryBlock
  0
ACMDATAENTRYBLOCK
  5
A32
102
{ACAD_REACTORS
330
3D0
102
}
330
3D0
100
AcmDataEntry
100
AcmDataEntryBlock
  0
ACMDATAENTRYBLOCK
  5
A33
102
{ACAD_REACTORS
330
3D0
102
}
330
3D0
100
AcmDataEntry
100
AcmDataEntryBlock
  0
ACMDATAENTRYBLOCK
  5
A34
102
{ACAD_REACTORS
330
3D0
102
}
330
3D0
100
AcmDataEntry
100
AcmDataEntryBlock
  0
ACMDATAENTRYBLOCK
  5
A35
102
{ACAD_REACTORS
330
3D0
102
}
330
3D0
100
AcmDataEntry
100
AcmDataEntryBlock
  0
ACMDATAENTRYBLOCK
  5
A36
102
{ACAD_REACTORS
330
3D0
102
}
330
3D0
100
AcmDataEntry
100
AcmDataEntryBlock
  0
IDBUFFER
  5
2A7
330
0
100
AcDbIdBuffer
330
96A
330
96B
330
96C
330
FE4
330
FF2
330
FF8
330
1029
330
1032
330
1042
330
1065
330
106D
330
106E
330
106F
330
1070
330
1071
330
1072
330
1073
330
1074
330
1075
  0
IDBUFFER
  5
2A8
330
0
100
AcDbIdBuffer
330
1046
330
1047
330
1048
330
1049
330
104A
330
104B
330
104C
330
104D
330
104E
330
1050
330
1051
330
1055
330
1056
330
1058
330
1059
330
105A
330
105B
330
105C
330
105D
330
105E
330
105F
330
1060
330
1061
330
1062
330
1063
330
1066
330
1067
330
1068
330
1069
330
106A
330
106B
330
106C
330
FD4
330
FD5
330
FD6
330
FD7
330
FDC
330
FDD
330
FDE
330
FDF
330
FE1
330
FE2
330
FE3
330
FE5
330
FE7
330
FE8
330
FEA
330
FEB
330
FEC
330
FED
330
FEF
330
FF0
330
FF3
330
FF4
330
FF5
330
FF6
330
FF7
330
FFA
330
FFB
330
FFC
330
FFE
330
FFF
330
1000
330
1001
330
1002
330
1003
330
1005
330
1007
330
1008
330
1009
330
100A
330
100B
330
100C
330
100D
330
100E
330
100F
330
1010
330
1011
330
1012
330
1014
330
1015
330
1016
330
1017
330
1018
330
1019
330
101A
330
101B
330
101C
330
101D
330
101E
330
1020
330
1021
330
1022
330
1023
330
1024
330
1025
330
1026
330
1028
330
102A
330
102B
330
102C
330
102D
330
102E
330
102F
330
1030
330
1031
330
1033
330
1034
330
1036
330
1037
330
1038
330
1039
330
103A
330
103B
330
103C
330
103D
330
103E
330
103F
330
1040
330
1043
330
1044
330
1045
  0
IDBUFFER
  5
2A9
330
0
100
AcDbIdBuffer
330
925
330
926
330
927
330
928
330
929
330
92A
330
92E
330
932
330
933
330
937
330
938
330
939
330
93A
330
93B
330
93C
330
93D
330
93E
330
942
330
946
330
94A
330
94B
330
94C
330
950
330
951
330
952
330
953
330
954
330
955
330
956
330
957
330
958
330
959
330
95A
330
95B
330
95C
330
95D
330
95E
330
95F
330
960
330
961
330
962
330
963
330
964
330
965
330
966
330
967
330
968
330
969
330
194
330
195
330
196
330
197
330
198
330
19D
330
19E
330
19F
330
1A0
330
1A1
330
1A2
330
1A3
330
1A4
330
1A5
330
1A6
330
1A7
330
1A8
330
1A9
330
1AB
330
1AC
330
1AD
330
1B1
330
1B2
330
1B3
330
1B4
330
8FB
330
8FC
330
916
330
917
330
918
330
919
330
91A
330
91B
330
91C
330
91D
330
91E
330
91F
330
920
330
921
330
922
330
923
330
924
  0
IDBUFFER
  5
2AC
330
0
100
AcDbIdBuffer
330
1076
330
1077
330
1078
330
1079
330
107A
330
107B
330
107C
330
107D
330
107E
330
107F
330
1080
330
1081
330
1082
330
1083
330
1084
330
1085
330
1086
  0
IDBUFFER
  5
9BB
330
0
100
AcDbIdBuffer
  0
IDBUFFER
  5
9BC
330
0
100
AcDbIdBuffer
330
1041
330
104F
330
1057
330
1064
330
FD8
330
FD9
330
FDA
330
FDB
330
FE0
330
FE6
330
FE9
330
FEE
330
FF1
330
FF9
330
FFD
330
1004
330
1006
330
1013
330
101F
330
1027
330
1035
  0
ENDSEC
  0
EOF
