  0
SECTION
  2
HEADER
  9
$ACADVER
  1
AC1018
  9
$ACADMAINTVER
 70
    39
  9
$DWGCODEPAGE
  3
ANSI_950
  9
$CUSTOMPROPERTYTAG
  1
AmdtFileType
  9
$CUSTOMPROPERTY
  1
84
  9
$INSBASE
 10
278.96247
 20
14.63286
 30
0.0
  9
$EXTMIN
 10
439.2263818608681
 20
-153.8752586113886
 30
0.0
  9
$EXTMAX
 10
839.5126093327666
 20
131.3336665950917
 30
154.5009597124719
  9
$LIMMIN
 10
0.0
 20
0.0
  9
$LIMMAX
 10
297.0
 20
210.0
  9
$ORTHOMODE
 70
     0
  9
$REGENMODE
 70
     1
  9
$FILLMODE
 70
     1
  9
$QTEXTMODE
 70
     0
  9
$MIRRTEXT
 70
     1
  9
$LTSCALE
 40
8.0
  9
$ATTMODE
 70
     1
  9
$TEXTSIZE
 40
3.0
  9
$TRACEWID
 40
0.05
  9
$TEXTSTYLE
  7
CHINA
  9
$CLAYER
  8
1
  9
$CELTYPE
  6
BYLAYER
  9
$CECOLOR
 62
   256
  9
$CELTSCALE
 40
1.0
  9
$DISPSILH
 70
     0
  9
$DIMSCALE
 40
1.0
  9
$DIMASZ
 40
3.5
  9
$DIMEXO
 40
1.0
  9
$DIMDLI
 40
8.0
  9
$DIMRND
 40
0.0
  9
$DIMDLE
 40
0.0
  9
$DIMEXE
 40
1.0
  9
$DIMTP
 40
0.1
  9
$DIMTM
 40
0.1
  9
$DIMTXT
 40
3.5
  9
$DIMCEN
 40
0.0
  9
$DIMTSZ
 40
0.0
  9
$DIMTOL
 70
     0
  9
$DIMLIM
 70
     0
  9
$DIMTIH
 70
     0
  9
$DIMTOH
 70
     0
  9
$DIMSE1
 70
     0
  9
$DIMSE2
 70
     0
  9
$DIMTAD
 70
     1
  9
$DIMZIN
 70
     8
  9
$DIMBLK
  1

  9
$DIMASO
 70
     0
  9
$DIMSHO
 70
     1
  9
$DIMPOST
  1

  9
$DIMAPOST
  1
"
  9
$DIMALT
 70
     0
  9
$DIMALTD
 70
     2
  9
$DIMALTF
 40
0.0393701
  9
$DIMLFAC
 40
1.0
  9
$DIMTOFL
 70
     1
  9
$DIMTVP
 40
0.0
  9
$DIMTIX
 70
     0
  9
$DIMSOXD
 70
     0
  9
$DIMSAH
 70
     0
  9
$DIMBLK1
  1

  9
$DIMBLK2
  1

  9
$DIMSTYLE
  2
AM_ISO
  9
$DIMCLRD
 70
   256
  9
$DIMCLRE
 70
   256
  9
$DIMCLRT
 70
   256
  9
$DIMTFAC
 40
0.71
  9
$DIMGAP
 40
1.0
  9
$DIMJUST
 70
     0
  9
$DIMSD1
 70
     0
  9
$DIMSD2
 70
     0
  9
$DIMTOLJ
 70
     0
  9
$DIMTZIN
 70
     8
  9
$DIMALTZ
 70
     8
  9
$DIMALTTZ
 70
     0
  9
$DIMUPT
 70
     0
  9
$DIMDEC
 70
     0
  9
$DIMTDEC
 70
     8
  9
$DIMALTU
 70
     2
  9
$DIMALTTD
 70
     2
  9
$DIMTXSTY
  7
STANDARD
  9
$DIMAUNIT
 70
     0
  9
$DIMADEC
 70
     0
  9
$DIMALTRND
 40
0.0
  9
$DIMAZIN
 70
     2
  9
$DIMDSEP
 70
    46
  9
$DIMATFIT
 70
     3
  9
$DIMFRAC
 70
     0
  9
$DIMLDRBLK
  1

  9
$DIMLUNIT
 70
     2
  9
$DIMLWD
 70
    -1
  9
$DIMLWE
 70
    -1
  9
$DIMTMOVE
 70
     0
  9
$LUNITS
 70
     2
  9
$LUPREC
 70
     2
  9
$SKETCHINC
 40
0.1
  9
$FILLETRAD
 40
2.5
  9
$AUNITS
 70
     0
  9
$AUPREC
 70
     0
  9
$MENU
  1
acad
  9
$ELEVATION
 40
0.0
  9
$PELEVATION
 40
0.0
  9
$THICKNESS
 40
0.0
  9
$LIMCHECK
 70
     0
  9
$CHAMFERA
 40
2.5
  9
$CHAMFERB
 40
2.5
  9
$CHAMFERC
 40
0.0
  9
$CHAMFERD
 40
0.0
  9
$SKPOLY
 70
     0
  9
$TDCREATE
 40
2451401.689539931
  9
$TDUCREATE
 40
2451401.356206598
  9
$TDUPDATE
 40
2456360.614439017
  9
$TDUUPDATE
 40
2456360.281105683
  9
$TDINDWG
 40
0.1379173148
  9
$TDUSRTIMER
 40
0.1379173148
  9
$USRTIMER
 70
     1
  9
$ANGBASE
 50
0.0
  9
$ANGDIR
 70
     0
  9
$PDMODE
 70
     0
  9
$PDSIZE
 40
0.0
  9
$PLINEWID
 40
0.0
  9
$SPLFRAME
 70
     0
  9
$SPLINETYPE
 70
     6
  9
$SPLINESEGS
 70
     8
  9
$HANDSEED
  5
1163
  9
$SURFTAB1
 70
     6
  9
$SURFTAB2
 70
     6
  9
$SURFTYPE
 70
     6
  9
$SURFU
 70
     6
  9
$SURFV
 70
     6
  9
$UCSBASE
  2

  9
$UCSNAME
  2

  9
$UCSORG
 10
0.0
 20
0.0
 30
0.0
  9
$UCSXDIR
 10
1.0
 20
0.0
 30
0.0
  9
$UCSYDIR
 10
0.0
 20
1.0
 30
0.0
  9
$UCSORTHOREF
  2

  9
$UCSORTHOVIEW
 70
     0
  9
$UCSORGTOP
 10
0.0
 20
0.0
 30
0.0
  9
$UCSORGBOTTOM
 10
0.0
 20
0.0
 30
0.0
  9
$UCSORGLEFT
 10
0.0
 20
0.0
 30
0.0
  9
$UCSORGRIGHT
 10
0.0
 20
0.0
 30
0.0
  9
$UCSORGFRONT
 10
0.0
 20
0.0
 30
0.0
  9
$UCSORGBACK
 10
0.0
 20
0.0
 30
0.0
  9
$PUCSBASE
  2

  9
$PUCSNAME
  2

  9
$PUCSORG
 10
0.0
 20
0.0
 30
0.0
  9
$PUCSXDIR
 10
1.0
 20
0.0
 30
0.0
  9
$PUCSYDIR
 10
0.0
 20
1.0
 30
0.0
  9
$PUCSORTHOREF
  2

  9
$PUCSORTHOVIEW
 70
     0
  9
$PUCSORGTOP
 10
0.0
 20
0.0
 30
0.0
  9
$PUCSORGBOTTOM
 10
0.0
 20
0.0
 30
0.0
  9
$PUCSORGLEFT
 10
0.0
 20
0.0
 30
0.0
  9
$PUCSORGRIGHT
 10
0.0
 20
0.0
 30
0.0
  9
$PUCSORGFRONT
 10
0.0
 20
0.0
 30
0.0
  9
$PUCSORGBACK
 10
0.0
 20
0.0
 30
0.0
  9
$USERI1
 70
     0
  9
$USERI2
 70
     0
  9
$USERI3
 70
     0
  9
$USERI4
 70
     0
  9
$USERI5
 70
     0
  9
$USERR1
 40
0.0
  9
$USERR2
 40
0.0
  9
$USERR3
 40
0.0
  9
$USERR4
 40
0.0
  9
$USERR5
 40
0.0
  9
$WORLDVIEW
 70
     1
  9
$SHADEDGE
 70
     3
  9
$SHADEDIF
 70
    70
  9
$TILEMODE
 70
     1
  9
$MAXACTVP
 70
    16
  9
$PINSBASE
 10
0.0
 20
0.0
 30
0.0
  9
$PLIMCHECK
 70
     0
  9
$PEXTMIN
 10
1.000000000000000E+20
 20
1.000000000000000E+20
 30
1.000000000000000E+20
  9
$PEXTMAX
 10
-1.000000000000000E+20
 20
-1.000000000000000E+20
 30
-1.000000000000000E+20
  9
$PLIMMIN
 10
0.0
 20
0.0
  9
$PLIMMAX
 10
12.0
 20
9.0
  9
$UNITMODE
 70
     0
  9
$VISRETAIN
 70
     0
  9
$PLINEGEN
 70
     0
  9
$PSLTSCALE
 70
     1
  9
$TREEDEPTH
 70
  3020
  9
$CMLSTYLE
  2
STANDARD
  9
$CMLJUST
 70
     0
  9
$CMLSCALE
 40
1.0
  9
$PROXYGRAPHICS
 70
     1
  9
$MEASUREMENT
 70
     1
  9
$CELWEIGHT
370
    -1
  9
$ENDCAPS
280
     0
  9
$JOINSTYLE
280
     0
  9
$LWDISPLAY
290
     0
  9
$INSUNITS
 70
     4
  9
$HYPERLINKBASE
  1

  9
$STYLESHEET
  1

  9
$XEDIT
290
     1
  9
$CEPSNTYPE
380
     0
  9
$PSTYLEMODE
290
     1
  9
$FINGERPRINTGUID
  2
{C3A3751C-7CBF-11D5-9E02-0050BAE3FAE1}
  9
$VERSIONGUID
  2
{8CBC85D2-C8A2-4D53-9569-40A440A4BDBF}
  9
$EXTNAMES
290
     1
  9
$PSVPSCALE
 40
0.0
  9
$OLESTARTUP
290
     0
  9
$SORTENTS
280
   127
  9
$INDEXCTL
280
     1
  9
$HIDETEXT
280
     0
  9
$XCLIPFRAME
290
     0
  9
$HALOGAP
280
     0
  9
$OBSCOLOR
 70
   257
  9
$OBSLTYPE
280
     0
  9
$INTERSECTIONDISPLAY
280
     0
  9
$INTERSECTIONCOLOR
 70
   257
  9
$DIMASSOC
280
     0
  9
$PROJECTNAME
  1

  0
ENDSEC
  0
SECTION
  2
CLASSES
  0
CLASS
  1
DICTIONARYVAR
  2
AcDbDictionaryVar
  3
ObjectDBX Classes
 90
        0
 91
        3
280
     0
281
     0
  0
CLASS
  1
ACDBDICTIONARYWDFLT
  2
AcDbDictionaryWithDefault
  3
ObjectDBX Classes
 90
        0
 91
        1
280
     0
281
     0
  0
CLASS
  1
ACME_DOCUMENT
  2
AcMeDbDoc
  3
AcMeServices
 90
        0
 91
        2
280
     0
281
     0
  0
CLASS
  1
AMGSETTINGSOBJ
  2
AmgSettingsObj
  3
"AcadM|Product Description: AutoCAD Mechanical 2000|Company: Autodesk"
 90
        0
 91
        3
280
     0
281
     0
  0
CLASS
  1
ACMESCOPE
  2
AcMeScope
  3
AcMeServices
 90
        0
 91
        1
280
     0
281
     0
  0
CLASS
  1
ACMECOMMANDHISTORY
  2
AcMeCommandHistory
  3
AcMeServices
 90
        0
 91
        1
280
     0
281
     0
  0
CLASS
  1
ACIMSYSVARMAN
  2
AcImSysVarManager
  3
AcMeServices
 90
        0
 91
        6
280
     0
281
     0
  0
CLASS
  1
ACIMREALSYSVAR
  2
AcImRealSysVar
  3
AcMeServices
 90
        0
 91
       16
280
     0
281
     0
  0
CLASS
  1
ACIMINTSYSVAR
  2
AcImIntSysVar
  3
AcMeServices
 90
        0
 91
       45
280
     0
281
     0
  0
CLASS
  1
ACMEDRAWINGMAN
  2
AcMeDrawingMan
  3
AcMeServices
 90
        0
 91
        1
280
     0
281
     0
  0
CLASS
  1
ACMEVIEW
  2
AcMeView
  3
AcMeServices
 90
        0
 91
        1
280
     0
281
     0
  0
CLASS
  1
ACDBENTITYCACHE
  2
AcMeEntityCache
  3
AcMeServices
 90
        0
 91
        1
280
     0
281
     0
  0
CLASS
  1
GSMANAGER
  2
AcMeGSManager
  3
AcMeServices
 90
        0
 91
        1
280
     0
281
     0
  0
CLASS
  1
AMDTINTERNALREACTOR
  2
AmdtInternalReactor
  3
AcMeServices
 90
        0
 91
        2
280
     0
281
     0
  0
CLASS
  1
ACMESTATEMGR
  2
AcMeStateMgr
  3
AcMeServices
 90
        0
 91
        1
280
     0
281
     0
  0
CLASS
  1
ACGREFMASTER
  2
AcGrefMaster
  3
AcAttribServices
 90
        0
 91
        1
280
     0
281
     0
  0
CLASS
  1
ACME_DATABASE
  2
AcMeDbDatabase
  3
AcMeServices
 90
        0
 91
        2
280
     0
281
     0
  0
CLASS
  1
ACRFINSADJUSTERMGR
  2
AcRfInsAdjusterMgr
  3
AcMeServices
 90
        0
 91
        1
280
     0
281
     0
  0
CLASS
  1
ACGREFACADMASTER
  2
AcGrefacadMaster
  3
AcGrefServices
 90
        0
 91
        1
280
     0
281
     0
  0
CLASS
  1
AMIMASTER
  2
AmiMaster
  3
AmiServices
 90
        0
 91
        1
280
     0
281
     0
  0
CLASS
  1
ACMDATADICTIONARY
  2
AcmDataDictionary
  3
"AcmSymBB|Product Description: AutoCAD Mechanical 2004 DX|Company: Autodesk"
 90
        0
 91
        1
280
     0
281
     0
  0
CLASS
  1
ACMDATAENTRYBLOCK
  2
AcmDataEntryBlock
  3
"AcmSymBB|Product Description: AutoCAD Mechanical 2004 DX|Company: Autodesk"
 90
        0
 91
        6
280
     0
281
     0
  0
CLASS
  1
ACIMSTRSYSVAR
  2
AcImStrSysVar
  3
AcMeServices
 90
        0
 91
       11
280
     0
281
     0
  0
CLASS
  1
ACMSTANDARDANSI
  2
AcmStandardANSI
  3
"Amdt_StdImp|Product Description: AutoCAD Mechanical 2004 DX|Company: Autodesk"
 90
        0
 91
        1
280
     0
281
     0
  0
CLASS
  1
AMGOBJPROPCFG
  2
AmgObjPropCfg
  3
"AmgLay|Product Description: AutoCAD Mechanical 2000|Company: Autodesk"
 90
        1
 91
        1
280
     0
281
     0
  0
CLASS
  1
ACMSURFSTANDARDANSI
  2
AcmSurfTextStdANSI
  3
"Amdt_StdImp|Product Description: AutoCAD Mechanical 2004 DX|Company: Autodesk"
 90
        0
 91
        1
280
     0
281
     0
  0
CLASS
  1
ACMFCFSTANDARDANSI
  2
AcmFCFStdANSI
  3
"Amdt_StdImp|Product Description: AutoCAD Mechanical 2004 DX|Company: Autodesk"
 90
        0
 91
        1
280
     0
281
     0
  0
CLASS
  1
ACMWELDSTANDARDANSI
  2
AcmWeldingStdANSI
  3
"Amdt_StdImp|Product Description: AutoCAD Mechanical 2004 DX|Company: Autodesk"
 90
        0
 91
        1
280
     0
281
     0
  0
CLASS
  1
ACMIDSTANDARDANSI
  2
AcmIdStdANSI
  3
"Amdt_StdImp|Product Description: AutoCAD Mechanical 2004 DX|Company: Autodesk"
 90
        0
 91
        1
280
     0
281
     0
  0
CLASS
  1
ACMDATUMSTANDARDANSI
  2
AcmDatumStdANSI
  3
"Amdt_StdImp|Product Description: AutoCAD Mechanical 2004 DX|Company: Autodesk"
 90
        0
 91
        1
280
     0
281
     0
  0
CLASS
  1
ACMBOMSTANDARDANSI
  2
AcmBOMStdANSI
  3
"Amdt_StdImp|Product Description: AutoCAD Mechanical 2004 DX|Company: Autodesk"
 90
        0
 91
        1
280
     0
281
     0
  0
CLASS
  1
ACMDETAILSTANDARDANSI
  2
AmdtDetailSymStdANSI
  3
"Amdt_StdImp|Product Description: AutoCAD Mechanical 2004 DX|Company: Autodesk"
 90
        0
 91
        1
280
     0
281
     0
  0
CLASS
  1
ACMSECTIONSTANDARDANSI
  2
AmdtSectionSymStdANSI
  3
"Amdt_StdImp|Product Description: AutoCAD Mechanical 2004 DX|Company: Autodesk"
 90
        0
 91
        1
280
     0
281
     0
  0
CLASS
  1
ACMCENTERLINESTANDARDANSI
  2
AmdtCenterLineStdANSI
  3
"Amdt_StdImp|Product Description: AutoCAD Mechanical 2004 DX|Company: Autodesk"
 90
        0
 91
        1
280
     0
281
     0
  0
CLASS
  1
ACMNOTESTANDARDANSI
  2
AmdtNoteStdANSI
  3
"Amdt_StdImp|Product Description: AutoCAD Mechanical 2004 DX|Company: Autodesk"
 90
        0
 91
        1
280
     0
281
     0
  0
CLASS
  1
ACAMGLAYSTD
  2
AcAmgLayStd
  3
"AcAmgLayStd|Product Description: AutoCAD Mechanical 2000|Company: Autodesk"
 90
        0
 91
        2
280
     0
281
     0
  0
CLASS
  1
ACAMGDIMSTD
  2
AcAmgDimStd
  3
"AcAmgDimStd|Product Description: AutoCAD Mechanical 2000|Company: Autodesk"
 90
        0
 91
        2
280
     0
281
     0
  0
CLASS
  1
ACAMGHOLECHARTSTDANSI
  2
AcAmgHoleChartStdANSI
  3
ACMSYMBB_MODULE_NAME
 90
        0
 91
        1
280
     0
281
     0
  0
CLASS
  1
ACAMGTITLESTD
  2
AcAmgTitleStd
  3
"TITLEAPP"
 90
        0
 91
        2
280
     0
281
     0
  0
CLASS
  1
ACAMGFILTERDAT
  2
AcAmgFilterDat
  3
"AcadM|Product Description: AutoCAD Mechanical 2000|Company: Autodesk"
 90
        0
 91
        0
280
     0
281
     0
  0
CLASS
  1
LAYER_INDEX
  2
AcDbLayerIndex
  3
ObjectDBX Classes
 90
        0
 91
        1
280
     0
281
     0
  0
CLASS
  1
IDBUFFER
  2
AcDbIdBuffer
  3
ObjectDBX Classes
 90
        0
 91
        7
280
     0
281
     0
  0
CLASS
  1
TABLESTYLE
  2
AcDbTableStyle
  3
ObjectDBX Classes
 90
     2047
 91
        1
280
     0
281
     0
  0
CLASS
  1
AM_DRAWING_MGR
  2
AcDmDwgMgr
  3
AcMechDwgViewMgmt
 90
        0
 91
        1
280
     0
281
     0
  0
CLASS
  1
AM_DWG_DOCUMENT
  2
AcDmDwgDocument
  3
AcMechDwgViewMgmt
 90
        0
 91
        1
280
     0
281
     0
  0
CLASS
  1
AM_DWG_SHEET
  2
AcDmSheet
  3
AcMechDwgViewMgmt
 90
        0
 91
        1
280
     0
281
     0
  0
CLASS
  1
AM_VIEWDIMPARMAP
  2
AcDmViewDimParMap
  3
AcMechDwgViewMgmt
 90
        0
 91
        1
280
     0
281
     0
  0
CLASS
  1
AM_DWGMGR_NAME
  2
AcDmDwgMgrName
  3
AcMechDwgViewMgmt
 90
        0
 91
        1
280
     0
281
     0
  0
CLASS
  1
AMDTMENUSTATEMGR
  2
AmdtMenuStateMgr
  3
McadcomServices
 90
        0
 91
        1
280
     0
281
     0
  0
CLASS
  1
AMDTMCOMMENUSTATE
  2
AmdtMcomMenuState
  3
McadcomServices
 90
        0
 91
        1
280
     0
281
     0
  0
CLASS
  1
ASAPP
  2
AcAsAppObject
  3
AutoSurfServices
 90
        0
 91
        1
280
     0
281
     0
  0
CLASS
  1
IM_STATIC_MAN
  2
AcImStaticVarManager
  3
AcMeServices
 90
        0
 91
        1
280
     0
281
     0
  0
CLASS
  1
ACIMDBLSTATICVAR
  2
AcImDblStaticVar
  3
AcMeServices
 90
        0
 91
       20
280
     0
281
     0
  0
CLASS
  1
ACIMSTRSTATICVAR
  2
AcImStrStaticVar
  3
AcMeServices
 90
        0
 91
       12
280
     0
281
     0
  0
CLASS
  1
ACIMINTSTATICVAR
  2
AcImIntStaticVar
  3
AcMeServices
 90
        0
 91
       17
280
     0
281
     0
  0
CLASS
  1
ACASGREFMASTER
  2
AcAsGrefMaster
  3
AutoSurfResolverServices
 90
        0
 91
        1
280
     0
281
     0
  0
CLASS
  1
ACADGREFMODULE
  2
AcAdGrefModule
  3
AdGrefServices
 90
        0
 91
        1
280
     0
281
     0
  0
CLASS
  1
AMDTMAPISURFMOUDULE
  2
AmdtMApiSurfModule
  3
MApiSurfServices
 90
        0
 91
        1
280
     0
281
     0
  0
CLASS
  1
MAPIAMMOUDLE
  2
MApiAmModule
  3
MApiAmServices
 90
        0
 91
        1
280
     0
281
     0
  0
CLASS
  1
AMDTADMENUSTATE
  2
AmdtAdMenuState
  3
DesignerServices
 90
        0
 91
        1
280
     0
281
     0
  0
CLASS
  1
ADAPPL
  2
AcAdAppl
  3
DesignerServices
 90
        0
 91
        1
280
     0
281
     0
  0
CLASS
  1
DEPMGR
  2
AcAdDepMgr
  3
DesignerServices
 90
        0
 91
        1
280
     0
281
     0
  0
CLASS
  1
PARAMMGR
  2
AcAdParamMgr
  3
DesignerServices
 90
        0
 91
        1
280
     0
281
     0
  0
CLASS
  1
PARAMSCOPE
  2
AcAdParamScope
  3
DesignerServices
 90
        0
 91
        5
280
     0
281
     0
  0
CLASS
  1
NAMEDAPPL
  2
AcAdNamedAppl
  3
DesignerServices
 90
        0
 91
        1
280
     0
281
     0
  0
CLASS
  1
AMDTDMMENUSTATE
  2
AmdtDmMenuState
  3
AcMechDwgViewMgmt
 90
        0
 91
        1
280
     0
281
     0
  0
CLASS
  1
MAPIADMODULE
  2
MApiAdModule
  3
MApiAdServices
 90
        0
 91
        1
280
     0
281
     0
  0
CLASS
  1
AMDTAMMENUSTATE
  2
AmdtAmMenuState
  3
DesignerAssemblies
 90
        0
 91
        1
280
     0
281
     0
  0
CLASS
  1
ACAMPROJECT
  2
AcAmProject
  3
DesignerAssemblies
 90
        0
 91
        1
280
     0
281
     0
  0
CLASS
  1
ACAMGRCOMPDEF
  2
AcAmGrCompDef
  3
DesignerAssemblies
 90
        0
 91
        6
280
     0
281
     0
  0
CLASS
  1
ACCMCONTEXT
  2
AcCmContext
  3
DesignerAssemblies
 90
        0
 91
       12
280
     0
281
     0
  0
CLASS
  1
ACAMCOMPDEF
  2
AcAmCompDef
  3
DesignerAssemblies
 90
        0
 91
        6
280
     0
281
     0
  0
CLASS
  1
ACAMCOMPDEFMGR
  2
AcAmCompDefMgr
  3
DesignerAssemblies
 90
        0
 91
        1
280
     0
281
     0
  0
CLASS
  1
AMCONTEXTMGR
  2
AcAmContextMgr
  3
DesignerAssemblies
 90
        0
 91
        1
280
     0
281
     0
  0
CLASS
  1
ACAMCONTEXTMODELER
  2
AcAmContextModeler
  3
DesignerAssemblies
 90
        0
 91
        1
280
     0
281
     0
  0
CLASS
  1
CATALOGSTATE
  2
AcAmCatalogState
  3
DesignerAssemblies
 90
        0
 91
        1
280
     0
281
     0
  0
CLASS
  1
ACAMGRCOMPDEFSET
  2
AcAmGrCompDefSet
  3
DesignerAssemblies
 90
        0
 91
        1
280
     0
281
     0
  0
CLASS
  1
AMDTBROWSERDBTAB
  2
AmdtBrowserDbTab
  3
McadcomServices
 90
        0
 91
        1
280
     0
281
     0
  0
CLASS
  1
CBROWSERAPPOBJECT
  2
CBrowserAppObject
  3
McadcomServices
 90
        0
 91
        3
280
     0
281
     0
  0
CLASS
  1
DM_PLACEHOLDER
  2
AcDmSelsetPlaceholder
  3
AcMechDwgViewMgmt
 90
        0
 91
        1
280
     0
281
     0
  0
CLASS
  1
ACMTHREADLINESTANDARDANSI
  2
AmdtThreadLineStdANSI
  3
"Amdt_StdImp|Product Description: AutoCAD Mechanical 2004 DX|Company: Autodesk"
 90
        0
 91
        1
280
     0
281
     0
  0
CLASS
  1
AMDTNOTETEMPLATEDB
  2
AmdtNoteTemplateDB
  3
AMDT_STDIMP_MODULE_NAME
 90
        0
 91
       10
280
     0
281
     0
  0
CLASS
  1
ACMSTANDARDISO
  2
AcmStandardISO
  3
"Amdt_StdImp|Product Description: AutoCAD Mechanical 2004 DX|Company: Autodesk"
 90
        0
 91
        1
280
     0
281
     0
  0
CLASS
  1
AMDTEDGESTANDARDISO13715
  2
AmdtEdgeStdISO13715
  3
"Amdt_StdImp|Product Description: AutoCAD Mechanical 2004 DX|Company: Autodesk"
 90
        0
 91
        1
280
     0
281
     0
  0
CLASS
  1
ACMSURFSTANDARDISO
  2
AcmSurfTextStdISO
  3
"Amdt_StdImp|Product Description: AutoCAD Mechanical 2004 DX|Company: Autodesk"
 90
        0
 91
        1
280
     0
281
     0
  0
CLASS
  1
ACMFCFSTANDARDISO
  2
AcmFCFStdISO
  3
"Amdt_StdImp|Product Description: AutoCAD Mechanical 2004 DX|Company: Autodesk"
 90
        0
 91
        1
280
     0
281
     0
  0
CLASS
  1
ACMWELDSTANDARDISO
  2
AcmWeldingStdISO
  3
"Amdt_StdImp|Product Description: AutoCAD Mechanical 2004 DX|Company: Autodesk"
 90
        0
 91
        1
280
     0
281
     0
  0
CLASS
  1
ACMIDSTANDARDISO
  2
AcmIdStdISO
  3
"Amdt_StdImp|Product Description: AutoCAD Mechanical 2004 DX|Company: Autodesk"
 90
        0
 91
        1
280
     0
281
     0
  0
CLASS
  1
ACMDATUMSTANDARDISO
  2
AcmDatumStdISO
  3
"Amdt_StdImp|Product Description: AutoCAD Mechanical 2004 DX|Company: Autodesk"
 90
        0
 91
        1
280
     0
281
     0
  0
CLASS
  1
ACMBOMSTANDARDISO
  2
AcmBOMStdISO
  3
"Amdt_StdImp|Product Description: AutoCAD Mechanical 2004 DX|Company: Autodesk"
 90
        0
 91
        1
280
     0
281
     0
  0
CLASS
  1
ACMDETAILSTANDARDISO
  2
AmdtDetailSymStdISO
  3
"Amdt_StdImp|Product Description: AutoCAD Mechanical 2004 DX|Company: Autodesk"
 90
        0
 91
        1
280
     0
281
     0
  0
CLASS
  1
ACMSECTIONSTANDARDISO
  2
AmdtSectionSymStdISO
  3
"Amdt_StdImp|Product Description: AutoCAD Mechanical 2004 DX|Company: Autodesk"
 90
        0
 91
        1
280
     0
281
     0
  0
CLASS
  1
ACMCENTERLINESTANDARDISO
  2
AmdtCenterLineStdISO
  3
"Amdt_StdImp|Product Description: AutoCAD Mechanical 2004 DX|Company: Autodesk"
 90
        0
 91
        1
280
     0
281
     0
  0
CLASS
  1
ACMTHREADLINESTANDARDISO
  2
AmdtThreadLineStdISO
  3
"Amdt_StdImp|Product Description: AutoCAD Mechanical 2004 DX|Company: Autodesk"
 90
        0
 91
        1
280
     0
281
     0
  0
CLASS
  1
ACMNOTESTANDARDISO
  2
AmdtNoteStdISO
  3
"Amdt_StdImp|Product Description: AutoCAD Mechanical 2004 DX|Company: Autodesk"
 90
        0
 91
        1
280
     0
281
     0
  0
CLASS
  1
ACAMGHOLECHARTSTDISO
  2
AcAmgHoleChartStdISO
  3
ACMSYMBB_MODULE_NAME
 90
        0
 91
        1
280
     0
281
     0
  0
CLASS
  1
ADPART
  2
AcAdPart
  3
DesignerServices
 90
        0
 91
        4
280
     0
281
     1
  0
CLASS
  1
ACAMCOMPENT
  2
AcAmCompEnt
  3
DesignerAssemblies
 90
        0
 91
        6
280
     0
281
     1
  0
CLASS
  1
ACAMCOMPENTCLONE
  2
AcAmCompEntClone
  3
DesignerAssemblies
 90
        0
 91
        0
280
     0
281
     1
  0
CLASS
  1
WORKPLANEDISPLAYMGR
  2
AcAdDisplayMgr
  3
DesignerServices
 90
        0
 91
        4
280
     0
281
     0
  0
CLASS
  1
ADBASE
  2
AcAdBase
  3
DesignerServices
 90
        0
 91
        4
280
     0
281
     0
  0
CLASS
  1
BODYID
  2
AcAdBodyId
  3
DesignerServices
 90
        0
 91
        4
280
     0
281
     0
  0
CLASS
  1
ACAMCOMP
  2
AcAmComp
  3
DesignerAssemblies
 90
        0
 91
        6
280
     0
281
     0
  0
CLASS
  1
ACAMCOMPFEEDBACK
  2
AcAmCompFeedback
  3
DesignerAssemblies
 90
        0
 91
        6
280
     0
281
     0
  0
CLASS
  1
ACCMBODY
  2
AcCmBody
  3
DesignerAssemblies
 90
        0
 91
        6
280
     0
281
     0
  0
CLASS
  1
AMDTFORMULAUPDATEDISPATCHER
  2
AmdtFormulaUpdateDispatcher
  3
AcMeServices
 90
        0
 91
        1
280
     0
281
     0
  0
ENDSEC
  0
SECTION
  2
TABLES
  0
TABLE
  2
VPORT
  5
12
330
0
100
AcDbSymbolTable
 70
     5
  0
VPORT
  5
1162
330
12
100
AcDbSymbolTableRecord
100
AcDbViewportTableRecord
  2
*Active
 70
     0
 10
0.0
 20
0.0
 11
1.0
 21
1.0
 12
478.213946915324
 22
-166.5525522334612
 13
0.0
 23
0.0
 14
2.5
 24
2.5
 15
10.0
 25
10.0
 16
0.0
 26
0.0
 36
1.0
 17
138.6205451135996
 27
126.4334816348561
 37
0.0
 40
277.9380228997072
 41
1.312169312169312
 42
50.0
 43
0.0
 44
0.0
 50
0.0
 51
0.0
 71
     0
 72
 20000
 73
     1
 74
     1
 75
     0
 76
     0
 77
     0
 78
     0
281
     0
 65
     0
110
0.0
120
0.0
130
0.0
111
1.0
121
0.0
131
0.0
112
0.0
122
1.0
132
0.0
 79
     0
146
0.0
  0
ENDTAB
  0
TABLE
  2
LTYPE
  5
D
330
0
100
AcDbSymbolTable
 70
    22
  0
LTYPE
  5
E
330
D
100
AcDbSymbolTableRecord
100
AcDbLinetypeTableRecord
  2
BYBLOCK
 70
     0
  3

 72
    65
 73
     0
 40
0.0
  0
LTYPE
  5
F
330
D
100
AcDbSymbolTableRecord
100
AcDbLinetypeTableRecord
  2
BYLAYER
 70
     0
  3

 72
    65
 73
     0
 40
0.0
  0
LTYPE
  5
5
330
D
100
AcDbSymbolTableRecord
100
AcDbLinetypeTableRecord
  2
CONTINUOUS
 70
     0
  3
Solid line
 72
    65
 73
     0
 40
0.0
  0
LTYPE
  5
28
330
D
100
AcDbSymbolTableRecord
100
AcDbLinetypeTableRecord
  2
CENTER2
 70
     0
  3
___ _ ___ _ ___ _ ___ _ ___ _ ___ _ ___ _ ___ _
 72
    65
 73
     4
 40
1.125
 49
0.75
 74
     0
 49
-0.125
 74
     0
 49
0.125
 74
     0
 49
-0.125
 74
     0
  0
LTYPE
  5
272
330
D
100
AcDbSymbolTableRecord
100
AcDbLinetypeTableRecord
  2
AM_ISO02W050
 70
     0
  3
__ __ __ __ __ __ __ __ __ __ __ __ __ __ __
 72
    65
 73
     2
 40
7.5
 49
6.0
 74
     0
 49
-1.5
 74
     0
  0
LTYPE
  5
273
330
D
100
AcDbSymbolTableRecord
100
AcDbLinetypeTableRecord
  2
AM_ISO08W050
 70
     0
  3
____ . ____ . ____ . ____ . ____ . ____ . ____
 72
    65
 73
     4
 40
18.0
 49
12.0
 74
     0
 49
-1.5
 74
     0
 49
3.0
 74
     0
 49
-1.5
 74
     0
  0
LTYPE
  5
274
330
D
100
AcDbSymbolTableRecord
100
AcDbLinetypeTableRecord
  2
AM_ISO09W050
 70
     0
  3
_____ . . _____ . . _____ . . ____ .. ____
 72
    65
 73
     6
 40
22.5
 49
12.0
 74
     0
 49
-1.5
 74
     0
 49
3.0
 74
     0
 49
-1.5
 74
     0
 49
3.0
 74
     0
 49
-1.5
 74
     0
  0
LTYPE
  5
275
330
D
100
AcDbSymbolTableRecord
100
AcDbLinetypeTableRecord
  2
Amconstr
 70
     0
  3
_______________________
 72
    65
 73
     2
 40
9999.0
 49
9999.0
 74
     0
 49
0.0
 74
     0
  0
LTYPE
  5
276
330
D
100
AcDbSymbolTableRecord
100
AcDbLinetypeTableRecord
  2
AM_ISO08W050x2
 70
     0
  3
__ . __ . __ . __ . __ . __
 72
    65
 73
     4
 40
9.0
 49
6.0
 74
     0
 49
-0.75
 74
     0
 49
1.5
 74
     0
 49
-0.75
 74
     0
  0
LTYPE
  5
277
330
D
100
AcDbSymbolTableRecord
100
AcDbLinetypeTableRecord
  2
AM_ISO02W050x2
 70
     0
  3
 _ _ _ _ _ _ _ _ _ _ _ _
 72
    65
 73
     2
 40
3.75
 49
3.0
 74
     0
 49
-0.75
 74
     0
  0
LTYPE
  5
27A
330
D
100
AcDbSymbolTableRecord
100
AcDbLinetypeTableRecord
  2
Amzigzag
 70
     0
  3
/\/-/\/-/\/-/\/-/\/-/\/
 72
    65
 73
     2
 40
11.0001
 49
0.0001
 74
     4
 75
   135
340
279
 46
0.04
 50
0.0
 44
0.0
 45
0.0
 49
-11.0
 74
     0
  0
LTYPE
  5
27B
330
D
100
AcDbSymbolTableRecord
100
AcDbLinetypeTableRecord
  2
HIDDEN
 70
     0
  3
Hidden __ __ __ __ __ __ __ __ __ __ __ __ __ _
 72
    65
 73
     2
 40
0.375
 49
0.25
 74
     0
 49
-0.125
 74
     0
  0
LTYPE
  5
27C
330
D
100
AcDbSymbolTableRecord
100
AcDbLinetypeTableRecord
  2
CENTER
 70
     0
  3
Center ____ _ ____ _ ____ _ ____ _ ____ _ ____
 72
    65
 73
     4
 40
2.0
 49
1.25
 74
     0
 49
-0.25
 74
     0
 49
0.25
 74
     0
 49
-0.25
 74
     0
  0
LTYPE
  5
27D
330
D
100
AcDbSymbolTableRecord
100
AcDbLinetypeTableRecord
  2
PHANTOM2
 70
     0
  3
Phantom (.5x) ___ _ _ ___ _ _ ___ _ _ ___ _ _
 72
    65
 73
     6
 40
1.25
 49
0.625
 74
     0
 49
-0.125
 74
     0
 49
0.125
 74
     0
 49
-0.125
 74
     0
 49
0.125
 74
     0
 49
-0.125
 74
     0
  0
LTYPE
  5
27E
330
D
100
AcDbSymbolTableRecord
100
AcDbLinetypeTableRecord
  2
HIDDEN2
 70
     0
  3
Hidden (.5x) _ _ _ _ _ _ _ _ _ _ _ _ _ _ _ _ _
 72
    65
 73
     2
 40
0.1875
 49
0.125
 74
     0
 49
-0.0625
 74
     0
  0
LTYPE
  5
27F
330
D
100
AcDbSymbolTableRecord
100
AcDbLinetypeTableRecord
  2
Amzigzag2
 70
     0
  3
/\/-/\/-/\/-/\/-/\/-/\/
 72
    65
 73
     2
 40
0.4401
 49
0.0001
 74
     4
 75
   135
340
279
 46
0.0016
 50
0.0
 44
0.0
 45
0.0
 49
-0.4400000000000001
 74
     0
  0
LTYPE
  5
28C
330
D
100
AcDbSymbolTableRecord
100
AcDbLinetypeTableRecord
  2
ACANSTGB
 70
     0
  3
__ . . __ . .
 72
    65
 73
     6
 40
0.35433070866
 49
0.15748031496
 74
     0
 49
-0.03937007874
 74
     0
 49
0.03937007874
 74
     0
 49
-0.03937007874
 74
     0
 49
0.03937007874
 74
     0
 49
-0.03937007874
 74
     0
  0
LTYPE
  5
28D
330
D
100
AcDbSymbolTableRecord
100
AcDbLinetypeTableRecord
  2
ACANSTGL
 70
     0
  3
_ _ _ _ _
 72
    65
 73
     2
 40
0.11811023622
 49
0.07874015748
 74
     0
 49
-0.03937007874
 74
     0
  0
LTYPE
  5
3FE
330
D
100
AcDbSymbolTableRecord
100
AcDbLinetypeTableRecord
  2
ACISOWELD
 70
     0
  3
_ _ _ _ _
 72
    65
 73
     2
 40
2.0
 49
2.0
 74
     0
 49
-1.0
 74
     0
  0
LTYPE
  5
3FF
330
D
100
AcDbSymbolTableRecord
100
AcDbLinetypeTableRecord
  2
ACISOTGB
 70
     0
  3
__ . . __ . .
 72
    65
 73
     6
 40
9.0
 49
4.0
 74
     0
 49
-1.0
 74
     0
 49
1.0
 74
     0
 49
-1.0
 74
     0
 49
1.0
 74
     0
 49
-1.0
 74
     0
  0
LTYPE
  5
400
330
D
100
AcDbSymbolTableRecord
100
AcDbLinetypeTableRecord
  2
ACISOTGL
 70
     0
  3
_ _ _ _ _
 72
    65
 73
     2
 40
3.0
 49
2.0
 74
     0
 49
-1.0
 74
     0
  0
LTYPE
  5
BB7
330
D
100
AcDbSymbolTableRecord
100
AcDbLinetypeTableRecord
  2
DASHED
 70
     0
  3
__ __ __ __ __ __ __ __ __ __ __ __ __ __ __ __
 72
    65
 73
     2
 40
0.75
 49
0.5
 74
     0
 49
-0.25
 74
     0
  0
ENDTAB
  0
TABLE
  2
LAYER
  5
A
102
{ACAD_XDICTIONARY
360
40D
102
}
330
0
100
AcDbSymbolTable
 70
     7
  0
LAYER
  5
4
330
A
100
AcDbSymbolTableRecord
100
AcDbLayerTableRecord
  2
0
 70
     0
 62
     2
  6
CONTINUOUS
370
    -3
390
CB
  0
LAYER
  5
1B
330
A
100
AcDbSymbolTableRecord
100
AcDbLayerTableRecord
  2
1
 70
     0
 62
     7
  6
CONTINUOUS
370
    -3
390
CB
  0
LAYER
  5
27
330
A
100
AcDbSymbolTableRecord
100
AcDbLayerTableRecord
  2
3
 70
     0
 62
     1
  6
CENTER2
370
    -3
390
CB
  0
LAYER
  5
D4
330
A
100
AcDbSymbolTableRecord
100
AcDbLayerTableRecord
  2
LOGO
 70
     0
 62
     7
  6
CONTINUOUS
370
    -3
390
CB
  0
LAYER
  5
7CE
330
A
100
AcDbSymbolTableRecord
100
AcDbLayerTableRecord
  2
AM_5
 70
     0
 62
     5
  6
CONTINUOUS
370
    50
390
CB
  0
LAYER
  5
7DF
330
A
100
AcDbSymbolTableRecord
100
AcDbLayerTableRecord
  2
Defpoints
 70
     0
 62
     7
  6
CONTINUOUS
290
     0
370
    -3
390
CB
  0
ENDTAB
  0
TABLE
  2
STYLE
  5
B
330
0
100
AcDbSymbolTable
 70
     8
  0
STYLE
  5
C
330
B
100
AcDbSymbolTableRecord
100
AcDbTextStyleTableRecord
  2
STANDARD
 70
     0
 40
0.0
 41
1.0
 50
0.0
 71
     0
 42
3.5
  3
ISOCP.SHX
  4

  0
STYLE
  5
1C
330
B
100
AcDbSymbolTableRecord
100
AcDbTextStyleTableRecord
  2
CHINA
 70
     0
 40
0.0
 41
1.0
 50
0.0
 71
     0
 42
3.0
  3
/rubon/c2
  4
CHINA.SHX
  0
STYLE
  5
D5
330
B
100
AcDbSymbolTableRecord
100
AcDbTextStyleTableRecord
  2
chineset
 70
     0
 40
0.0
 41
1.0
 50
0.0
 71
     0
 42
5.0
  3
simplex.shx
  4
chineset.shx
  0
STYLE
  5
279
330
B
100
AcDbSymbolTableRecord
100
AcDbTextStyleTableRecord
  2

 70
     1
 40
0.0
 41
1.0
 50
0.0
 71
     0
 42
3.0
  3
ltypeshp.shx
  4

  0
STYLE
  5
280
330
B
100
AcDbSymbolTableRecord
100
AcDbTextStyleTableRecord
  2
ACANSTS
 70
     0
 40
1.0
 41
1.0
 50
0.0
 71
     0
 42
3.0
  3
romans.shx
  4
chineset.shx
  0
STYLE
  5
28B
330
B
100
AcDbSymbolTableRecord
100
AcDbTextStyleTableRecord
  2
ACANSGDT
 70
     0
 40
0.0
 41
1.0
 50
0.0
 71
     0
 42
3.0
  3
amgdtans.shx
  4

  0
STYLE
  5
402
330
B
100
AcDbSymbolTableRecord
100
AcDbTextStyleTableRecord
  2
ACISOTS
 70
     0
 40
1.0
 41
1.0
 50
0.0
 71
     0
 42
1.0
  3
isocp.shx
  4
chineset.shx
  0
STYLE
  5
403
330
B
100
AcDbSymbolTableRecord
100
AcDbTextStyleTableRecord
  2
ACISOGDT
 70
     0
 40
0.0
 41
1.0
 50
0.0
 71
     0
 42
1.0
  3
amgdt.shx
  4

  0
ENDTAB
  0
TABLE
  2
VIEW
  5
10
330
0
100
AcDbSymbolTable
 70
     0
  0
ENDTAB
  0
TABLE
  2
UCS
  5
11
330
0
100
AcDbSymbolTable
 70
     0
  0
ENDTAB
  0
TABLE
  2
APPID
  5
14
330
0
100
AcDbSymbolTable
 70
    23
  0
APPID
  5
15
330
14
100
AcDbSymbolTableRecord
100
AcDbRegAppTableRecord
  2
ACAD
 70
     0
  0
APPID
  5
254
330
14
100
AcDbSymbolTableRecord
100
AcDbRegAppTableRecord
  2
MCAD_NO_VIS
 70
     0
  0
APPID
  5
255
330
14
100
AcDbSymbolTableRecord
100
AcDbRegAppTableRecord
  2
ACAD_TEMP_GRAPHIC
 70
     0
  0
APPID
  5
266
330
14
100
AcDbSymbolTableRecord
100
AcDbRegAppTableRecord
  2
ACATTRIBSERVICES
 70
     0
  0
APPID
  5
31D
330
14
100
AcDbSymbolTableRecord
100
AcDbRegAppTableRecord
  2
GENIUS_GENDIM_13
 70
     0
  0
APPID
  5
31E
330
14
100
AcDbSymbolTableRecord
100
AcDbRegAppTableRecord
  2
GENIUS_GENDTOL_13
 70
     0
  0
APPID
  5
31F
330
14
100
AcDbSymbolTableRecord
100
AcDbRegAppTableRecord
  2
GENIUS_GE3DTOL_13
 70
     0
  0
APPID
  5
34F
330
14
100
AcDbSymbolTableRecord
100
AcDbRegAppTableRecord
  2
AD_DRAW
 70
     0
  0
APPID
  5
39B
330
14
100
AcDbSymbolTableRecord
100
AcDbRegAppTableRecord
  2
ASURF_PCURVE_APPNAME
 70
     0
  0
APPID
  5
3A0
330
14
100
AcDbSymbolTableRecord
100
AcDbRegAppTableRecord
  2
AMG_3D2D_5.0
 70
     0
  0
APPID
  5
3CF
330
14
100
AcDbSymbolTableRecord
100
AcDbRegAppTableRecord
  2
DESIGNERASSEMBLIES
 70
     0
  0
APPID
  5
3D5
330
14
100
AcDbSymbolTableRecord
100
AcDbRegAppTableRecord
  2
ACADM_DIM_EDIT
 70
     0
  0
APPID
  5
3D6
330
14
100
AcDbSymbolTableRecord
100
AcDbRegAppTableRecord
  2
AMDT_DM_ADJ
 70
     0
  0
APPID
  5
87B
330
14
100
AcDbSymbolTableRecord
100
AcDbRegAppTableRecord
  2
ACAD_PSEXT
 70
     0
  0
APPID
  5
87C
330
14
100
AcDbSymbolTableRecord
100
AcDbRegAppTableRecord
  2
GENIUS_GENOBJ-N-CRS_13
 70
     0
  0
APPID
  5
87D
330
14
100
AcDbSymbolTableRecord
100
AcDbRegAppTableRecord
  2
GENIUS_GENOLIS_13
 70
     0
  0
APPID
  5
87E
330
14
100
AcDbSymbolTableRecord
100
AcDbRegAppTableRecord
  2
GENIUS_GENOENT_13
 70
     0
  0
APPID
  5
87F
330
14
100
AcDbSymbolTableRecord
100
AcDbRegAppTableRecord
  2
GENIUS_GENODEF_13
 70
     0
  0
APPID
  5
880
330
14
100
AcDbSymbolTableRecord
100
AcDbRegAppTableRecord
  2
GENIUS_GENOREF_13
 70
     0
  0
APPID
  5
881
330
14
100
AcDbSymbolTableRecord
100
AcDbRegAppTableRecord
  2
GENIUS_GENREC_14
 70
     0
  0
APPID
  5
882
330
14
100
AcDbSymbolTableRecord
100
AcDbRegAppTableRecord
  2
GENIUS_GENOBJ-N-REC_13
 70
     0
  0
APPID
  5
9A5
330
14
100
AcDbSymbolTableRecord
100
AcDbRegAppTableRecord
  2
ACAD_DSTYLE_DIMTEXT_FILL
 70
     0
  0
APPID
  5
DC7
330
14
100
AcDbSymbolTableRecord
100
AcDbRegAppTableRecord
  2
GENIUS_GENDIMSH_14
 70
     0
  0
ENDTAB
  0
TABLE
  2
DIMSTYLE
  5
16
330
0
100
AcDbSymbolTable
 70
    20
100
AcDbDimStyleTable
 71
     2
340
406
340
1E
  0
DIMSTYLE
105
1E
330
16
100
AcDbSymbolTableRecord
100
AcDbDimStyleTableRecord
  2
STANDARD
 70
     0
271
     2
272
     2
279
     2
284
     8
285
     8
286
     8
340
1C
  0
DIMSTYLE
105
291
330
16
100
AcDbSymbolTableRecord
100
AcDbDimStyleTableRecord
  2
AM_ANSI
 70
     0
  4
mm
 41
0.1
 42
0.05
 43
0.5
 44
0.1
 47
0.1
 48
0.1
 78
     7
 79
     2
140
0.12
141
0.0
146
0.71
147
0.06
176
   256
177
   256
178
     2
274
     4
284
     7
340
C
371
    -1
372
    -1
  0
DIMSTYLE
105
292
330
16
100
AcDbSymbolTableRecord
100
AcDbDimStyleTableRecord
  2
AM_ANSI$3
 70
     0
  4
mm
 41
0.1
 42
0.05
 43
0.5
 44
0.1
 47
0.1
 48
0.1
 78
     7
 79
     2
140
0.12
141
0.0
146
0.71
147
0.06
176
   256
177
   256
178
     2
274
     4
284
     7
288
     1
289
     0
340
C
371
    -1
372
    -1
  0
DIMSTYLE
105
293
330
16
100
AcDbSymbolTableRecord
100
AcDbDimStyleTableRecord
  2
AM_ANSI$4
 70
     0
  4
mm
 41
0.1
 42
0.05
 43
0.5
 44
0.1
 47
0.1
 48
0.1
 78
     7
 79
     2
140
0.12
141
0.0
146
0.71
147
0.06
176
   256
177
   256
178
     2
274
     4
284
     7
288
     1
289
     0
340
C
371
    -1
372
    -1
  0
DIMSTYLE
105
294
330
16
100
AcDbSymbolTableRecord
100
AcDbDimStyleTableRecord
  2
AM_ANSI$7
 70
     0
  4
mm
 41
0.1
 42
0.05
 43
0.5
 44
0.1
 47
0.1
 48
0.1
 78
     7
 79
     2
140
0.24
141
0.0
146
0.71
147
0.06
176
   256
177
   256
178
     2
274
     4
284
     7
340
C
371
    -1
372
    -1
  0
DIMSTYLE
105
295
330
16
100
AcDbSymbolTableRecord
100
AcDbDimStyleTableRecord
  2
AM_ANSI$SF
 70
     0
  4
mm
 41
0.1
 42
0.05
 43
0.5
 44
0.1
 47
0.1
 48
0.1
 75
     1
 76
     1
 78
     7
 79
     2
140
0.12
141
0.0
146
0.71
147
0.06
176
   256
177
   256
178
     2
274
     4
284
     7
340
C
371
    -1
372
    -1
  0
DIMSTYLE
105
29A
330
16
100
AcDbSymbolTableRecord
100
AcDbDimStyleTableRecord
  2
AM_ANSI$SH
 70
     0
  4
mm
 41
0.1
 42
0.05
 43
0.5
 44
0.1
 47
0.1
 48
0.1
 75
     1
 76
     1
 78
     7
 79
     2
140
0.12
141
0.0
146
0.71
147
0.06
173
     1
176
   256
177
   256
178
     2
274
     4
284
     7
340
C
341
296
343
296
371
    -1
372
    -1
  0
DIMSTYLE
105
406
330
16
100
AcDbSymbolTableRecord
100
AcDbDimStyleTableRecord
  2
AM_ISO
 70
     0
  4
"
 41
3.5
 42
1.0
 43
8.0
 44
1.0
 47
0.1
 48
0.1
 73
     0
 74
     0
 77
     1
 78
     8
 79
     2
140
3.5
141
0.0
143
0.0393701
146
0.71
147
1.0
172
     1
176
   256
177
   256
178
   256
271
     2
272
     2
283
     0
284
     8
285
     8
340
C
371
    -1
372
    -1
  0
DIMSTYLE
105
407
330
16
100
AcDbSymbolTableRecord
100
AcDbDimStyleTableRecord
  2
AM_ISO$SF
 70
     0
  4
"
 41
2.5
 42
1.0
 43
10.0
 44
1.0
 47
0.1
 48
0.1
 73
     0
 74
     0
 75
     1
 76
     1
 77
     1
 78
     8
 79
     2
140
3.5
141
0.0
143
0.0393701
146
0.71
147
1.0
172
     1
176
   256
177
   256
178
   256
271
     2
272
     2
283
     0
284
     8
340
C
371
    -1
372
    -1
  0
DIMSTYLE
105
408
330
16
100
AcDbSymbolTableRecord
100
AcDbDimStyleTableRecord
  2
AM_ISO$SH
 70
     0
  4
"
 41
2.5
 42
1.0
 43
10.0
 44
1.0
 47
0.1
 48
0.1
 73
     0
 74
     0
 75
     1
 76
     1
 77
     1
 78
     8
 79
     2
140
3.5
141
0.0
143
0.0393701
144
2.0
146
0.71
147
1.0
172
     1
173
     1
176
   256
177
   256
178
   256
271
     2
272
     2
283
     0
284
     8
340
C
343
296
371
    -1
372
    -1
  0
DIMSTYLE
105
409
330
16
100
AcDbSymbolTableRecord
100
AcDbDimStyleTableRecord
  2
AM_ISO$3
 70
     0
  4
"
 41
3.5
 42
1.0
 43
8.0
 44
1.0
 47
0.1
 48
0.1
 73
     0
 77
     1
 78
     8
 79
     2
140
3.5
141
0.0
143
0.0393701
146
0.71
147
1.0
176
   256
177
   256
178
   256
271
     2
272
     2
283
     0
284
     8
285
     8
288
     1
289
     0
340
C
371
    -1
372
    -1
  0
DIMSTYLE
105
40A
330
16
100
AcDbSymbolTableRecord
100
AcDbDimStyleTableRecord
  2
AM_ISO$4
 70
     0
  4
"
 41
3.5
 42
1.0
 43
8.0
 44
1.0
 47
0.1
 48
0.1
 73
     0
 77
     1
 78
     8
 79
     2
140
3.5
141
0.0
143
0.0393701
146
0.71
147
1.0
176
   256
177
   256
178
   256
271
     2
272
     2
283
     0
284
     8
285
     8
288
     1
289
     0
340
C
371
    -1
372
    -1
  0
DIMSTYLE
105
40B
330
16
100
AcDbSymbolTableRecord
100
AcDbDimStyleTableRecord
  2
AM_ISO$6
 70
     0
  4
"
 41
3.5
 42
1.0
 43
8.0
 44
1.0
 47
0.1
 48
0.1
 73
     0
 74
     0
 78
     8
 79
     2
140
3.5
141
0.0
143
0.0393701
146
0.71
147
1.0
172
     1
176
   256
177
   256
178
   256
271
     2
272
     2
283
     0
284
     8
285
     8
340
C
371
    -1
372
    -1
  0
DIMSTYLE
105
40C
102
{ACAD_REACTORS
330
E42
102
}
330
16
100
AcDbSymbolTableRecord
100
AcDbDimStyleTableRecord
  2
AM_ISO$7
 70
     0
  4
"
 41
3.5
 42
1.0
 43
8.0
 44
1.0
 47
0.1
 48
0.1
 73
     0
 74
     0
 77
     1
 78
     8
 79
     2
140
5.0
141
0.0
143
0.0393701
146
0.71
147
1.5
172
     1
176
   256
177
   256
178
   256
271
     2
272
     2
283
     0
284
     8
285
     8
340
C
371
    -1
372
    -1
  0
DIMSTYLE
105
7DA
102
{ACAD_REACTORS
330
1040
330
1041
330
1042
330
1043
330
1044
330
1045
330
1046
330
1047
330
1048
330
1049
330
104A
330
104B
102
}
330
16
100
AcDbSymbolTableRecord
100
AcDbDimStyleTableRecord
  2
STANDARD$0
 70
     0
271
     2
272
     2
279
     2
284
     8
285
     8
286
     8
340
1C
  0
DIMSTYLE
105
B8F
330
16
100
AcDbSymbolTableRecord
100
AcDbDimStyleTableRecord
  2
AM_ISO$0
 70
     0
  4
"
 41
3.5
 42
1.0
 43
8.0
 44
1.0
 47
0.1
 48
0.1
 73
     0
 74
     0
 77
     1
 78
     8
 79
     2
140
3.5
141
0.0
143
0.0393701
146
0.71
147
1.0
172
     1
176
   256
177
   256
178
   256
271
     2
272
     2
283
     0
284
     8
285
     8
340
C
371
    -1
372
    -1
  0
ENDTAB
  0
TABLE
  2
BLOCK_RECORD
  5
1
330
0
100
AcDbSymbolTable
 70
    51
  0
BLOCK_RECORD
  5
2
102
{ACAD_XDICTIONARY
360
226
102
}
330
1
100
AcDbSymbolTableRecord
100
AcDbBlockTableRecord
  2
*MODEL_SPACE
340
CE
  0
BLOCK_RECORD
  5
7
102
{ACAD_XDICTIONARY
360
228
102
}
330
1
100
AcDbSymbolTableRecord
100
AcDbBlockTableRecord
  2
*PAPER_SPACE
340
CF
  0
BLOCK_RECORD
  5
296
330
1
100
AcDbSymbolTableRecord
100
AcDbBlockTableRecord
  2
GENAXEH
340
0
  0
BLOCK_RECORD
  5
3C6
330
1
100
AcDbSymbolTableRecord
100
AcDbBlockTableRecord
  2
*U1
340
0
  0
BLOCK_RECORD
  5
9FC
330
1
100
AcDbSymbolTableRecord
100
AcDbBlockTableRecord
  2
*U6
340
0
102
{BLKREFS
331
A0E
331
A0F
331
A13
102
}
  0
BLOCK_RECORD
  5
A00
330
1
100
AcDbSymbolTableRecord
100
AcDbBlockTableRecord
  2
*U7
340
0
102
{BLKREFS
331
A10
102
}
  0
BLOCK_RECORD
  5
A04
330
1
100
AcDbSymbolTableRecord
100
AcDbBlockTableRecord
  2
*U8
340
0
102
{BLKREFS
331
A11
102
}
  0
BLOCK_RECORD
  5
A08
330
1
100
AcDbSymbolTableRecord
100
AcDbBlockTableRecord
  2
*U9
340
0
102
{BLKREFS
331
A12
102
}
  0
BLOCK_RECORD
  5
A0C
330
1
100
AcDbSymbolTableRecord
100
AcDbBlockTableRecord
  2
*U10
340
0
  0
BLOCK_RECORD
  5
1050
330
1
100
AcDbSymbolTableRecord
100
AcDbBlockTableRecord
  2
*D39
340
0
  0
BLOCK_RECORD
  5
105C
330
1
100
AcDbSymbolTableRecord
100
AcDbBlockTableRecord
  2
*D40
340
0
  0
BLOCK_RECORD
  5
1068
330
1
100
AcDbSymbolTableRecord
100
AcDbBlockTableRecord
  2
*D41
340
0
  0
BLOCK_RECORD
  5
1076
330
1
100
AcDbSymbolTableRecord
100
AcDbBlockTableRecord
  2
*D42
340
0
  0
BLOCK_RECORD
  5
1082
330
1
100
AcDbSymbolTableRecord
100
AcDbBlockTableRecord
  2
*D43
340
0
  0
BLOCK_RECORD
  5
1090
330
1
100
AcDbSymbolTableRecord
100
AcDbBlockTableRecord
  2
*D44
340
0
  0
BLOCK_RECORD
  5
109C
330
1
100
AcDbSymbolTableRecord
100
AcDbBlockTableRecord
  2
*D45
340
0
  0
BLOCK_RECORD
  5
10AA
330
1
100
AcDbSymbolTableRecord
100
AcDbBlockTableRecord
  2
*D46
340
0
  0
BLOCK_RECORD
  5
10B6
330
1
100
AcDbSymbolTableRecord
100
AcDbBlockTableRecord
  2
*D47
340
0
  0
BLOCK_RECORD
  5
10C4
330
1
100
AcDbSymbolTableRecord
100
AcDbBlockTableRecord
  2
*D48
340
0
  0
BLOCK_RECORD
  5
10D2
330
1
100
AcDbSymbolTableRecord
100
AcDbBlockTableRecord
  2
*D49
340
0
  0
BLOCK_RECORD
  5
10DE
330
1
100
AcDbSymbolTableRecord
100
AcDbBlockTableRecord
  2
*D50
340
0
  0
ENDTAB
  0
ENDSEC
  0
SECTION
  2
BLOCKS
  0
BLOCK
  5
3
330
2
100
AcDbEntity
  8
0
100
AcDbBlockBegin
  2
*MODEL_SPACE
 70
     0
 10
0.0
 20
0.0
 30
0.0
  3
*MODEL_SPACE
  1

  0
ENDBLK
  5
6
330
2
100
AcDbEntity
  8
0
100
AcDbBlockEnd
  0
BLOCK
  5
8
330
7
100
AcDbEntity
 67
     1
  8
0
100
AcDbBlockBegin
  2
*PAPER_SPACE
 70
     0
 10
0.0
 20
0.0
 30
0.0
  3
*PAPER_SPACE
  1

  0
ENDBLK
  5
9
330
7
100
AcDbEntity
 67
     1
  8
0
100
AcDbBlockEnd
  0
BLOCK
  5
298
330
296
100
AcDbEntity
  8
0
100
AcDbBlockBegin
  2
GENAXEH
 70
     0
 10
0.0
 20
0.0
 30
0.0
  3
GENAXEH
  1

  0
LINE
  5
297
330
296
100
AcDbEntity
  8
0
100
AcDbLine
 10
-1.0
 20
0.0
 30
0.0
 11
1.0
 21
0.0
 31
0.0
  0
ENDBLK
  5
299
330
296
100
AcDbEntity
  8
0
100
AcDbBlockEnd
  0
BLOCK
  5
3C7
330
3C6
100
AcDbEntity
  8
0
100
AcDbBlockBegin
  2
*U1
 70
     1
 10
0.0
 20
0.0
 30
0.0
  3
*U1
  1

  0
ENDBLK
  5
3C8
330
3C6
100
AcDbEntity
  8
0
100
AcDbBlockEnd
  0
BLOCK
  5
9FD
330
9FC
100
AcDbEntity
  8
0
100
AcDbBlockBegin
  2
*U6
 70
     1
 10
0.0
 20
0.0
 30
0.0
  3
*U6
  1

  0
ENDBLK
  5
9FF
330
9FC
100
AcDbEntity
  8
0
100
AcDbBlockEnd
  0
BLOCK
  5
A01
330
A00
100
AcDbEntity
  8
0
100
AcDbBlockBegin
  2
*U7
 70
     1
 10
0.0
 20
0.0
 30
0.0
  3
*U7
  1

  0
ENDBLK
  5
A03
330
A00
100
AcDbEntity
  8
0
100
AcDbBlockEnd
  0
BLOCK
  5
A05
330
A04
100
AcDbEntity
  8
0
100
AcDbBlockBegin
  2
*U8
 70
     1
 10
0.0
 20
0.0
 30
0.0
  3
*U8
  1

  0
ENDBLK
  5
A07
330
A04
100
AcDbEntity
  8
0
100
AcDbBlockEnd
  0
BLOCK
  5
A09
330
A08
100
AcDbEntity
  8
0
100
AcDbBlockBegin
  2
*U9
 70
     1
 10
0.0
 20
0.0
 30
0.0
  3
*U9
  1

  0
ENDBLK
  5
A0B
330
A08
100
AcDbEntity
  8
0
100
AcDbBlockEnd
  0
BLOCK
  5
A0D
330
A0C
100
AcDbEntity
  8
0
100
AcDbBlockBegin
  2
*U10
 70
     1
 10
0.0
 20
0.0
 30
0.0
  3
*U10
  1

  0
ENDBLK
  5
A14
330
A0C
100
AcDbEntity
  8
0
100
AcDbBlockEnd
  0
BLOCK
  5
105A
330
1050
100
AcDbEntity
  8
0
100
AcDbBlockBegin
  2
*D39
 70
     1
 10
0.0
 20
0.0
 30
0.0
  3
*D39
  1

  0
LINE
  5
10EA
330
1050
100
AcDbEntity
  8
AM_5
 62
     0
370
    -2
100
AcDbLine
 10
512.9446595191366
 20
-89.37068760807539
 30
0.0
 11
512.9446595191366
 21
-112.6882447200981
 31
0.0
  0
LINE
  5
10EB
330
1050
100
AcDbEntity
  8
AM_5
 62
     0
370
    -2
100
AcDbLine
 10
542.9446595191365
 20
-89.37068760807539
 30
0.0
 11
542.9446595191365
 21
-112.6882447200981
 31
0.0
  0
LINE
  5
10EC
330
1050
100
AcDbEntity
  8
AM_5
 62
     0
370
    -2
100
AcDbLine
 10
515.9446595191366
 20
-111.6882447200981
 30
0.0
 11
539.9446595191366
 21
-111.6882447200981
 31
0.0
  0
SOLID
  5
10ED
330
1050
100
AcDbEntity
  8
AM_5
 62
     0
100
AcDbTrace
 10
515.9446595191366
 20
-111.1882447200981
 30
0.0
 11
515.9446595191366
 21
-112.1882447200981
 31
0.0
 12
512.9446595191366
 22
-111.6882447200981
 32
0.0
 13
512.9446595191366
 23
-111.6882447200981
 33
0.0
  0
SOLID
  5
10EE
330
1050
100
AcDbEntity
  8
AM_5
 62
     0
100
AcDbTrace
 10
539.9446595191366
 20
-111.1882447200981
 30
0.0
 11
539.9446595191366
 21
-112.1882447200981
 31
0.0
 12
542.9446595191365
 22
-111.6882447200981
 32
0.0
 13
542.9446595191365
 23
-111.6882447200981
 33
0.0
  0
MTEXT
  5
10EF
330
1050
100
AcDbEntity
  8
AM_5
 62
     0
100
AcDbMText
 10
527.9446595191366
 20
-108.6882447200981
 30
0.0
 40
3.0
 41
0.0
 71
     5
 72
     1
  1
\A1;30 
 73
     1
 44
1.0
  0
POINT
  5
10F0
330
1050
100
AcDbEntity
  8
Defpoints
 62
     0
100
AcDbPoint
 10
512.9446595191366
 20
-88.3706876080754
 30
0.0
  0
POINT
  5
10F1
330
1050
100
AcDbEntity
  8
Defpoints
 62
     0
100
AcDbPoint
 10
542.9446595191365
 20
-88.3706876080754
 30
0.0
  0
POINT
  5
10F2
330
1050
100
AcDbEntity
  8
Defpoints
 62
     0
100
AcDbPoint
 10
542.9446595191365
 20
-111.6882447200981
 30
0.0
  0
ENDBLK
  5
105B
330
1050
100
AcDbEntity
  8
0
100
AcDbBlockEnd
  0
BLOCK
  5
1066
330
105C
100
AcDbEntity
  8
0
100
AcDbBlockBegin
  2
*D40
 70
     1
 10
0.0
 20
0.0
 30
0.0
  3
*D40
  1

  0
LINE
  5
10F3
330
105C
100
AcDbEntity
  8
AM_5
 62
     0
370
    -2
100
AcDbLine
 10
519.8446595191365
 20
-89.37068760807539
 30
0.0
 11
519.8446595191365
 21
-103.1367712882236
 31
0.0
  0
LINE
  5
10F4
330
105C
100
AcDbEntity
  8
AM_5
 62
     0
370
    -2
100
AcDbLine
 10
536.0446595191365
 20
-89.37068760807539
 30
0.0
 11
536.0446595191365
 21
-103.1367712882236
 31
0.0
  0
LINE
  5
10F5
330
105C
100
AcDbEntity
  8
AM_5
 62
     0
370
    -2
100
AcDbLine
 10
522.8446595191364
 20
-102.1367712882236
 30
0.0
 11
533.0446595191365
 21
-102.1367712882236
 31
0.0
  0
SOLID
  5
10F6
330
105C
100
AcDbEntity
  8
AM_5
 62
     0
100
AcDbTrace
 10
522.8446595191364
 20
-101.6367712882235
 30
0.0
 11
522.8446595191364
 21
-102.6367712882235
 31
0.0
 12
519.8446595191365
 22
-102.1367712882236
 32
0.0
 13
519.8446595191365
 23
-102.1367712882236
 33
0.0
  0
SOLID
  5
10F7
330
105C
100
AcDbEntity
  8
AM_5
 62
     0
100
AcDbTrace
 10
533.0446595191365
 20
-101.6367712882235
 30
0.0
 11
533.0446595191365
 21
-102.6367712882235
 31
0.0
 12
536.0446595191365
 22
-102.1367712882236
 32
0.0
 13
536.0446595191365
 23
-102.1367712882236
 33
0.0
  0
MTEXT
  5
10F8
330
105C
100
AcDbEntity
  8
AM_5
 62
     0
100
AcDbMText
 10
527.9446595191365
 20
-99.13647601263303
 30
0.0
 40
3.0
 41
0.0
 71
     5
 72
     1
  1
\A1;16.2 
 73
     1
 44
1.0
  0
POINT
  5
10F9
330
105C
100
AcDbEntity
  8
Defpoints
 62
     0
100
AcDbPoint
 10
519.8446595191365
 20
-88.3706876080754
 30
0.0
  0
POINT
  5
10FA
330
105C
100
AcDbEntity
  8
Defpoints
 62
     0
100
AcDbPoint
 10
536.0446595191365
 20
-88.3706876080754
 30
0.0
  0
POINT
  5
10FB
330
105C
100
AcDbEntity
  8
Defpoints
 62
     0
100
AcDbPoint
 10
536.0446595191365
 20
-102.1367712882236
 30
0.0
  0
ENDBLK
  5
1067
330
105C
100
AcDbEntity
  8
0
100
AcDbBlockEnd
  0
BLOCK
  5
1074
330
1068
100
AcDbEntity
  8
0
100
AcDbBlockBegin
  2
*D41
 70
     1
 10
0.0
 20
0.0
 30
0.0
  3
*D41
  1

  0
LINE
  5
10FC
330
1068
100
AcDbEntity
  8
AM_5
 62
     0
370
    -2
100
AcDbLine
 10
533.1856195191364
 20
-55.8706876080754
 30
0.0
 11
588.9141845033866
 21
-55.8706876080754
 31
0.0
  0
LINE
  5
10FD
330
1068
100
AcDbEntity
  8
AM_5
 62
     0
370
    -2
100
AcDbLine
 10
537.0446595191365
 20
-63.8706876080754
 30
0.0
 11
588.9141845033866
 21
-63.8706876080754
 31
0.0
  0
LINE
  5
10FE
330
1068
100
AcDbEntity
  8
AM_5
 62
     0
370
    -2
100
AcDbLine
 10
587.9141845033866
 20
-52.87068760807541
 30
0.0
 11
587.9141845033866
 21
-49.87068760807541
 31
0.0
  0
LINE
  5
10FF
330
1068
100
AcDbEntity
  8
AM_5
 62
     0
370
    -2
100
AcDbLine
 10
587.9141845033866
 20
-66.87068760807541
 30
0.0
 11
587.9141845033866
 21
-69.87068760807542
 31
0.0
  0
LINE
  5
1100
330
1068
100
AcDbEntity
  8
AM_5
 62
     0
370
    -2
100
AcDbLine
 10
587.9141845033866
 20
-55.8706876080754
 30
0.0
 11
587.9141845033866
 21
-63.8706876080754
 31
0.0
  0
SOLID
  5
1101
330
1068
100
AcDbEntity
  8
AM_5
 62
     0
100
AcDbTrace
 10
587.4141845033866
 20
-52.87068760807541
 30
0.0
 11
588.4141845033866
 21
-52.87068760807541
 31
0.0
 12
587.9141845033866
 22
-55.8706876080754
 32
0.0
 13
587.9141845033866
 23
-55.8706876080754
 33
0.0
  0
SOLID
  5
1102
330
1068
100
AcDbEntity
  8
AM_5
 62
     0
100
AcDbTrace
 10
587.4141845033866
 20
-66.87068760807541
 30
0.0
 11
588.4141845033866
 21
-66.87068760807541
 31
0.0
 12
587.9141845033866
 22
-63.8706876080754
 32
0.0
 13
587.9141845033866
 23
-63.8706876080754
 33
0.0
  0
MTEXT
  5
1103
330
1068
100
AcDbEntity
  8
AM_5
 62
     0
100
AcDbMText
 10
584.9141845033866
 20
-59.87068760807531
 30
0.0
 40
3.0
 41
0.0
 71
     5
 72
     1
  1
\A1;8 
 11
0.0000000000000001
 21
1.0
 31
0.0
 73
     1
 44
1.0
  0
POINT
  5
1104
330
1068
100
AcDbEntity
  8
Defpoints
 62
     0
100
AcDbPoint
 10
532.1856195191364
 20
-55.8706876080754
 30
0.0
  0
POINT
  5
1105
330
1068
100
AcDbEntity
  8
Defpoints
 62
     0
100
AcDbPoint
 10
536.0446595191365
 20
-63.8706876080754
 30
0.0
  0
POINT
  5
1106
330
1068
100
AcDbEntity
  8
Defpoints
 62
     0
100
AcDbPoint
 10
587.9141845033866
 20
-63.8706876080754
 30
0.0
  0
ENDBLK
  5
1075
330
1068
100
AcDbEntity
  8
0
100
AcDbBlockEnd
  0
BLOCK
  5
1080
330
1076
100
AcDbEntity
  8
0
100
AcDbBlockBegin
  2
*D42
 70
     1
 10
0.0
 20
0.0
 30
0.0
  3
*D42
  1

  0
LINE
  5
1107
330
1076
100
AcDbEntity
  8
AM_5
 62
     0
370
    -2
100
AcDbLine
 10
533.1856195191364
 20
-55.8706876080754
 30
0.0
 11
597.1086079886858
 21
-55.87068760807542
 31
0.0
  0
LINE
  5
1108
330
1076
100
AcDbEntity
  8
AM_5
 62
     0
370
    -2
100
AcDbLine
 10
533.1856195191364
 20
-79.8706876080754
 30
0.0
 11
597.1086079886858
 21
-79.87068760807542
 31
0.0
  0
LINE
  5
1109
330
1076
100
AcDbEntity
  8
AM_5
 62
     0
370
    -2
100
AcDbLine
 10
596.1086079886858
 20
-58.87068760807542
 30
0.0
 11
596.1086079886858
 21
-76.87068760807541
 31
0.0
  0
SOLID
  5
110A
330
1076
100
AcDbEntity
  8
AM_5
 62
     0
100
AcDbTrace
 10
595.6086079886858
 20
-58.87068760807542
 30
0.0
 11
596.6086079886858
 21
-58.87068760807542
 31
0.0
 12
596.1086079886858
 22
-55.87068760807542
 32
0.0
 13
596.1086079886858
 23
-55.87068760807542
 33
0.0
  0
SOLID
  5
110B
330
1076
100
AcDbEntity
  8
AM_5
 62
     0
100
AcDbTrace
 10
595.6086079886858
 20
-76.87068760807541
 30
0.0
 11
596.6086079886858
 21
-76.87068760807541
 31
0.0
 12
596.1086079886858
 22
-79.87068760807542
 32
0.0
 13
596.1086079886858
 23
-79.87068760807542
 33
0.0
  0
MTEXT
  5
110C
330
1076
100
AcDbEntity
  8
AM_5
 62
     0
100
AcDbMText
 10
593.1083127130952
 20
-67.87068760807533
 30
0.0
 40
3.0
 41
0.0
 71
     5
 72
     1
  1
\A1;24 
 11
0.0000000000000001
 21
1.0
 31
0.0
 73
     1
 44
1.0
  0
POINT
  5
110D
330
1076
100
AcDbEntity
  8
Defpoints
 62
     0
100
AcDbPoint
 10
532.1856195191364
 20
-55.8706876080754
 30
0.0
  0
POINT
  5
110E
330
1076
100
AcDbEntity
  8
Defpoints
 62
     0
100
AcDbPoint
 10
532.1856195191364
 20
-79.8706876080754
 30
0.0
  0
POINT
  5
110F
330
1076
100
AcDbEntity
  8
Defpoints
 62
     0
100
AcDbPoint
 10
596.1086079886858
 20
-79.87068760807542
 30
0.0
  0
ENDBLK
  5
1081
330
1076
100
AcDbEntity
  8
0
100
AcDbBlockEnd
  0
BLOCK
  5
108E
330
1082
100
AcDbEntity
  8
0
100
AcDbBlockBegin
  2
*D43
 70
     1
 10
0.0
 20
0.0
 30
0.0
  3
*D43
  1

  0
LINE
  5
1110
330
1082
100
AcDbEntity
  8
AM_5
 62
     0
370
    -2
100
AcDbLine
 10
532.9566995191364
 20
-79.8706876080754
 30
0.0
 11
597.1086079886858
 21
-79.87068760807542
 31
0.0
  0
LINE
  5
1111
330
1082
100
AcDbEntity
  8
AM_5
 62
     0
370
    -2
100
AcDbLine
 10
543.9446595191366
 20
-88.3706876080754
 30
0.0
 11
597.1086079886858
 21
-88.37068760807541
 31
0.0
  0
LINE
  5
1112
330
1082
100
AcDbEntity
  8
AM_5
 62
     0
370
    -2
100
AcDbLine
 10
596.1086079886858
 20
-76.87068760807541
 30
0.0
 11
596.1086079886858
 21
-73.87068760807541
 31
0.0
  0
LINE
  5
1113
330
1082
100
AcDbEntity
  8
AM_5
 62
     0
370
    -2
100
AcDbLine
 10
596.1086079886858
 20
-91.37068760807542
 30
0.0
 11
596.1086079886858
 21
-94.37068760807541
 31
0.0
  0
LINE
  5
1114
330
1082
100
AcDbEntity
  8
AM_5
 62
     0
370
    -2
100
AcDbLine
 10
596.1086079886858
 20
-79.87068760807542
 30
0.0
 11
596.1086079886858
 21
-88.37068760807541
 31
0.0
  0
SOLID
  5
1115
330
1082
100
AcDbEntity
  8
AM_5
 62
     0
100
AcDbTrace
 10
595.6086079886858
 20
-76.87068760807541
 30
0.0
 11
596.6086079886858
 21
-76.87068760807541
 31
0.0
 12
596.1086079886858
 22
-79.87068760807542
 32
0.0
 13
596.1086079886858
 23
-79.87068760807542
 33
0.0
  0
SOLID
  5
1116
330
1082
100
AcDbEntity
  8
AM_5
 62
     0
100
AcDbTrace
 10
595.6086079886858
 20
-91.37068760807542
 30
0.0
 11
596.6086079886858
 21
-91.37068760807542
 31
0.0
 12
596.1086079886858
 22
-88.37068760807541
 32
0.0
 13
596.1086079886858
 23
-88.37068760807541
 33
0.0
  0
MTEXT
  5
1117
330
1082
100
AcDbEntity
  8
AM_5
 62
     0
100
AcDbMText
 10
593.1086079886859
 20
-84.12068760807533
 30
0.0
 40
3.0
 41
0.0
 71
     5
 72
     1
  1
\A1;8.5 
 11
0.0000000000000001
 21
1.0
 31
0.0
 73
     1
 44
1.0
  0
POINT
  5
1118
330
1082
100
AcDbEntity
  8
Defpoints
 62
     0
100
AcDbPoint
 10
531.9566995191364
 20
-79.8706876080754
 30
0.0
  0
POINT
  5
1119
330
1082
100
AcDbEntity
  8
Defpoints
 62
     0
100
AcDbPoint
 10
542.9446595191365
 20
-88.3706876080754
 30
0.0
  0
POINT
  5
111A
330
1082
100
AcDbEntity
  8
Defpoints
 62
     0
100
AcDbPoint
 10
596.1086079886858
 20
-88.37068760807541
 30
0.0
  0
ENDBLK
  5
108F
330
1082
100
AcDbEntity
  8
0
100
AcDbBlockEnd
  0
BLOCK
  5
109A
330
1090
100
AcDbEntity
  8
0
100
AcDbBlockBegin
  2
*D44
 70
     1
 10
0.0
 20
0.0
 30
0.0
  3
*D44
  1

  0
LINE
  5
111B
330
1090
100
AcDbEntity
  8
AM_5
 62
     0
370
    -2
100
AcDbLine
 10
593.1829795191364
 20
-22.87068760807534
 30
0.0
 11
609.479247891117
 21
-22.87068760807535
 31
0.0
  0
LINE
  5
111C
330
1090
100
AcDbEntity
  8
AM_5
 62
     0
370
    -2
100
AcDbLine
 10
543.9446595191366
 20
-88.3706876080754
 30
0.0
 11
609.479247891117
 21
-88.37068760807543
 31
0.0
  0
LINE
  5
111D
330
1090
100
AcDbEntity
  8
AM_5
 62
     0
370
    -2
100
AcDbLine
 10
608.4792478911169
 20
-25.87068760807535
 30
0.0
 11
608.4792478911169
 21
-85.37068760807542
 31
0.0
  0
SOLID
  5
111E
330
1090
100
AcDbEntity
  8
AM_5
 62
     0
100
AcDbTrace
 10
607.9792478911169
 20
-25.87068760807535
 30
0.0
 11
608.979247891117
 21
-25.87068760807535
 31
0.0
 12
608.4792478911169
 22
-22.87068760807535
 32
0.0
 13
608.4792478911169
 23
-22.87068760807535
 33
0.0
  0
SOLID
  5
111F
330
1090
100
AcDbEntity
  8
AM_5
 62
     0
100
AcDbTrace
 10
607.9792478911169
 20
-85.37068760807541
 30
0.0
 11
608.979247891117
 21
-85.37068760807542
 31
0.0
 12
608.4792478911169
 22
-88.37068760807543
 32
0.0
 13
608.4792478911169
 23
-88.37068760807543
 33
0.0
  0
MTEXT
  5
1120
330
1090
100
AcDbEntity
  8
AM_5
 62
     0
100
AcDbMText
 10
605.479247891117
 20
-55.62068760807528
 30
0.0
 40
3.0
 41
0.0
 71
     5
 72
     1
  1
\A1;65.5 
 11
0.0000000000000001
 21
1.0
 31
0.0
 73
     1
 44
1.0
  0
POINT
  5
1121
330
1090
100
AcDbEntity
  8
Defpoints
 62
     0
100
AcDbPoint
 10
592.1829795191364
 20
-22.87068760807534
 30
0.0
  0
POINT
  5
1122
330
1090
100
AcDbEntity
  8
Defpoints
 62
     0
100
AcDbPoint
 10
542.9446595191365
 20
-88.3706876080754
 30
0.0
  0
POINT
  5
1123
330
1090
100
AcDbEntity
  8
Defpoints
 62
     0
100
AcDbPoint
 10
608.4792478911169
 20
-88.37068760807543
 30
0.0
  0
ENDBLK
  5
109B
330
1090
100
AcDbEntity
  8
0
100
AcDbBlockEnd
  0
BLOCK
  5
10A8
330
109C
100
AcDbEntity
  8
0
100
AcDbBlockBegin
  2
*D45
 70
     1
 10
0.0
 20
0.0
 30
0.0
  3
*D45
  1

  0
LINE
  5
1124
330
109C
100
AcDbEntity
  8
AM_5
 62
     0
370
    -2
100
AcDbLine
 10
639.5067118706918
 20
-2.120687608075343
 30
0.0
 11
639.5067118706918
 21
51.87725500268143
 31
0.0
  0
LINE
  5
1125
330
109C
100
AcDbEntity
  8
AM_5
 62
     0
370
    -2
100
AcDbLine
 10
641.5067118706919
 20
40.62931239192463
 30
0.0
 11
641.5067118706919
 21
51.87725500268143
 31
0.0
  0
LINE
  5
1126
330
109C
100
AcDbEntity
  8
AM_5
 62
     0
370
    -2
100
AcDbLine
 10
636.5067118706917
 20
50.87725500268144
 30
0.0
 11
633.5067118706917
 21
50.87725500268144
 31
0.0
  0
LINE
  5
1127
330
109C
100
AcDbEntity
  8
AM_5
 62
     0
370
    -2
100
AcDbLine
 10
644.5067118706918
 20
50.87725500268144
 30
0.0
 11
647.5067118706919
 21
50.87725500268144
 31
0.0
  0
LINE
  5
1128
330
109C
100
AcDbEntity
  8
AM_5
 62
     0
370
    -2
100
AcDbLine
 10
639.5067118706918
 20
50.87725500268144
 30
0.0
 11
641.5067118706919
 21
50.87725500268144
 31
0.0
  0
SOLID
  5
1129
330
109C
100
AcDbEntity
  8
AM_5
 62
     0
100
AcDbTrace
 10
636.5067118706917
 20
51.37725500268143
 30
0.0
 11
636.5067118706917
 21
50.37725500268144
 31
0.0
 12
639.5067118706918
 22
50.87725500268144
 32
0.0
 13
639.5067118706918
 23
50.87725500268144
 33
0.0
  0
SOLID
  5
112A
330
109C
100
AcDbEntity
  8
AM_5
 62
     0
100
AcDbTrace
 10
644.5067118706918
 20
51.37725500268143
 30
0.0
 11
644.5067118706918
 21
50.37725500268144
 31
0.0
 12
641.5067118706919
 22
50.87725500268144
 32
0.0
 13
641.5067118706919
 23
50.87725500268144
 33
0.0
  0
MTEXT
  5
112B
330
109C
100
AcDbEntity
  8
AM_5
 62
     0
100
AcDbMText
 10
640.5067118706917
 20
53.87755027827199
 30
0.0
 40
3.0
 41
0.0
 71
     5
 72
     1
  1
\A1;2 
 73
     1
 44
1.0
  0
POINT
  5
112C
330
109C
100
AcDbEntity
  8
Defpoints
 62
     0
100
AcDbPoint
 10
639.5067118706918
 20
-3.120687608075343
 30
0.0
  0
POINT
  5
112D
330
109C
100
AcDbEntity
  8
Defpoints
 62
     0
100
AcDbPoint
 10
641.5067118706919
 20
39.62931239192463
 30
0.0
  0
POINT
  5
112E
330
109C
100
AcDbEntity
  8
Defpoints
 62
     0
100
AcDbPoint
 10
641.5067118706919
 20
50.87725500268144
 30
0.0
  0
ENDBLK
  5
10A9
330
109C
100
AcDbEntity
  8
0
100
AcDbBlockEnd
  0
BLOCK
  5
10B4
330
10AA
100
AcDbEntity
  8
0
100
AcDbBlockBegin
  2
*D46
 70
     1
 10
0.0
 20
0.0
 30
0.0
  3
*D46
  1

  0
LINE
  5
112F
330
10AA
100
AcDbEntity
  8
AM_5
 62
     0
370
    -2
100
AcDbLine
 10
641.5067118706919
 20
40.62931239192463
 30
0.0
 11
641.5067118706919
 21
51.87725500268729
 31
0.0
  0
LINE
  5
1130
330
10AA
100
AcDbEntity
  8
AM_5
 62
     0
370
    -2
100
AcDbLine
 10
717.5067118706918
 20
40.62931239192463
 30
0.0
 11
717.5067118706918
 21
51.87725500268729
 31
0.0
  0
LINE
  5
1131
330
10AA
100
AcDbEntity
  8
AM_5
 62
     0
370
    -2
100
AcDbLine
 10
644.5067118706918
 20
50.87725500268729
 30
0.0
 11
714.5067118706918
 21
50.87725500268729
 31
0.0
  0
SOLID
  5
1132
330
10AA
100
AcDbEntity
  8
AM_5
 62
     0
100
AcDbTrace
 10
644.5067118706918
 20
51.37725500268729
 30
0.0
 11
644.5067118706918
 21
50.37725500268729
 31
0.0
 12
641.5067118706919
 22
50.87725500268729
 32
0.0
 13
641.5067118706919
 23
50.87725500268729
 33
0.0
  0
SOLID
  5
1133
330
10AA
100
AcDbEntity
  8
AM_5
 62
     0
100
AcDbTrace
 10
714.5067118706918
 20
51.37725500268729
 30
0.0
 11
714.5067118706918
 21
50.37725500268729
 31
0.0
 12
717.5067118706918
 22
50.87725500268729
 32
0.0
 13
717.5067118706918
 23
50.87725500268729
 33
0.0
  0
MTEXT
  5
1134
330
10AA
100
AcDbEntity
  8
AM_5
 62
     0
100
AcDbMText
 10
679.5067118706917
 20
53.87725500268729
 30
0.0
 40
3.0
 41
0.0
 71
     5
 72
     1
  1
\A1;76 
 73
     1
 44
1.0
  0
POINT
  5
1135
330
10AA
100
AcDbEntity
  8
Defpoints
 62
     0
100
AcDbPoint
 10
641.5067118706919
 20
39.62931239192463
 30
0.0
  0
POINT
  5
1136
330
10AA
100
AcDbEntity
  8
Defpoints
 62
     0
100
AcDbPoint
 10
717.5067118706918
 20
39.62931239192463
 30
0.0
  0
POINT
  5
1137
330
10AA
100
AcDbEntity
  8
Defpoints
 62
     0
100
AcDbPoint
 10
717.5067118706918
 20
50.87725500268729
 30
0.0
  0
ENDBLK
  5
10B5
330
10AA
100
AcDbEntity
  8
0
100
AcDbBlockEnd
  0
BLOCK
  5
10C2
330
10B6
100
AcDbEntity
  8
0
100
AcDbBlockBegin
  2
*D47
 70
     1
 10
0.0
 20
0.0
 30
0.0
  3
*D47
  1

  0
LINE
  5
1138
330
10B6
100
AcDbEntity
  8
AM_5
 62
     0
370
    -2
100
AcDbLine
 10
641.5067118706916
 20
-86.37068760807535
 30
0.0
 11
641.5067118706916
 21
-99.07307250412337
 31
0.0
  0
LINE
  5
1139
330
10B6
100
AcDbEntity
  8
AM_5
 62
     0
370
    -2
100
AcDbLine
 10
644.5067118706917
 20
-89.37068760807539
 30
0.0
 11
644.5067118706917
 21
-99.07307250412337
 31
0.0
  0
LINE
  5
113A
330
10B6
100
AcDbEntity
  8
AM_5
 62
     0
370
    -2
100
AcDbLine
 10
638.5067118706916
 20
-98.07307250412335
 30
0.0
 11
635.5067118706917
 21
-98.07307250412335
 31
0.0
  0
LINE
  5
113B
330
10B6
100
AcDbEntity
  8
AM_5
 62
     0
370
    -2
100
AcDbLine
 10
647.5067118706918
 20
-98.07307250412335
 30
0.0
 11
650.5067118706918
 21
-98.07307250412335
 31
0.0
  0
LINE
  5
113C
330
10B6
100
AcDbEntity
  8
AM_5
 62
     0
370
    -2
100
AcDbLine
 10
641.5067118706916
 20
-98.07307250412335
 30
0.0
 11
644.5067118706917
 21
-98.07307250412335
 31
0.0
  0
SOLID
  5
113D
330
10B6
100
AcDbEntity
  8
AM_5
 62
     0
100
AcDbTrace
 10
638.5067118706916
 20
-97.57307250412337
 30
0.0
 11
638.5067118706916
 21
-98.57307250412336
 31
0.0
 12
641.5067118706916
 22
-98.07307250412335
 32
0.0
 13
641.5067118706916
 23
-98.07307250412335
 33
0.0
  0
SOLID
  5
113E
330
10B6
100
AcDbEntity
  8
AM_5
 62
     0
100
AcDbTrace
 10
647.5067118706918
 20
-97.57307250412337
 30
0.0
 11
647.5067118706918
 21
-98.57307250412336
 31
0.0
 12
644.5067118706917
 22
-98.07307250412335
 32
0.0
 13
644.5067118706917
 23
-98.07307250412335
 33
0.0
  0
MTEXT
  5
113F
330
10B6
100
AcDbEntity
  8
AM_5
 62
     0
100
AcDbMText
 10
643.0067118706918
 20
-95.07307250412337
 30
0.0
 40
3.0
 41
0.0
 71
     5
 72
     1
  1
\A1;3 
 73
     1
 44
1.0
  0
POINT
  5
1140
330
10B6
100
AcDbEntity
  8
Defpoints
 62
     0
100
AcDbPoint
 10
641.5067118706916
 20
-85.37068760807533
 30
0.0
  0
POINT
  5
1141
330
10B6
100
AcDbEntity
  8
Defpoints
 62
     0
100
AcDbPoint
 10
644.5067118706917
 20
-88.3706876080754
 30
0.0
  0
POINT
  5
1142
330
10B6
100
AcDbEntity
  8
Defpoints
 62
     0
100
AcDbPoint
 10
644.5067118706917
 20
-98.07307250412335
 30
0.0
  0
ENDBLK
  5
10C3
330
10B6
100
AcDbEntity
  8
0
100
AcDbBlockEnd
  0
BLOCK
  5
10D0
330
10C4
100
AcDbEntity
  8
0
100
AcDbBlockBegin
  2
*D48
 70
     1
 10
0.0
 20
0.0
 30
0.0
  3
*D48
  1

  0
LINE
  5
1143
330
10C4
100
AcDbEntity
  8
AM_5
 62
     0
370
    -2
100
AcDbLine
 10
647.5067118706918
 20
-72.87068760807534
 30
0.0
 11
647.5067118706918
 21
-107.5546533352393
 31
0.0
  0
LINE
  5
1144
330
10C4
100
AcDbEntity
  8
AM_5
 62
     0
370
    -2
100
AcDbLine
 10
644.5067118706917
 20
-89.37068760807539
 30
0.0
 11
644.5067118706917
 21
-107.5546533352393
 31
0.0
  0
LINE
  5
1145
330
10C4
100
AcDbEntity
  8
AM_5
 62
     0
370
    -2
100
AcDbLine
 10
650.5067118706918
 20
-106.5546533352393
 30
0.0
 11
653.5067118706917
 21
-106.5546533352393
 31
0.0
  0
LINE
  5
1146
330
10C4
100
AcDbEntity
  8
AM_5
 62
     0
370
    -2
100
AcDbLine
 10
641.5067118706917
 20
-106.5546533352393
 30
0.0
 11
638.5067118706918
 21
-106.5546533352393
 31
0.0
  0
LINE
  5
1147
330
10C4
100
AcDbEntity
  8
AM_5
 62
     0
370
    -2
100
AcDbLine
 10
647.5067118706918
 20
-106.5546533352393
 30
0.0
 11
644.5067118706917
 21
-106.5546533352393
 31
0.0
  0
SOLID
  5
1148
330
10C4
100
AcDbEntity
  8
AM_5
 62
     0
100
AcDbTrace
 10
650.5067118706918
 20
-106.0546533352393
 30
0.0
 11
650.5067118706918
 21
-107.0546533352393
 31
0.0
 12
647.5067118706918
 22
-106.5546533352393
 32
0.0
 13
647.5067118706918
 23
-106.5546533352393
 33
0.0
  0
SOLID
  5
1149
330
10C4
100
AcDbEntity
  8
AM_5
 62
     0
100
AcDbTrace
 10
641.5067118706917
 20
-106.0546533352393
 30
0.0
 11
641.5067118706917
 21
-107.0546533352393
 31
0.0
 12
644.5067118706917
 22
-106.5546533352393
 32
0.0
 13
644.5067118706917
 23
-106.5546533352393
 33
0.0
  0
MTEXT
  5
114A
330
10C4
100
AcDbEntity
  8
AM_5
 62
     0
100
AcDbMText
 10
646.0067118706917
 20
-103.5546533352393
 30
0.0
 40
3.0
 41
0.0
 71
     5
 72
     1
  1
\A1;3 
 73
     1
 44
1.0
  0
POINT
  5
114B
330
10C4
100
AcDbEntity
  8
Defpoints
 62
     0
100
AcDbPoint
 10
647.5067118706918
 20
-71.87068760807534
 30
0.0
  0
POINT
  5
114C
330
10C4
100
AcDbEntity
  8
Defpoints
 62
     0
100
AcDbPoint
 10
644.5067118706917
 20
-88.3706876080754
 30
0.0
  0
POINT
  5
114D
330
10C4
100
AcDbEntity
  8
Defpoints
 62
     0
100
AcDbPoint
 10
644.5067118706917
 20
-106.5546533352393
 30
0.0
  0
ENDBLK
  5
10D1
330
10C4
100
AcDbEntity
  8
0
100
AcDbBlockEnd
  0
BLOCK
  5
10DC
330
10D2
100
AcDbEntity
  8
0
100
AcDbBlockBegin
  2
*D49
 70
     1
 10
0.0
 20
0.0
 30
0.0
  3
*D49
  1

  0
LINE
  5
114E
330
10D2
100
AcDbEntity
  8
AM_5
 62
     0
370
    -2
100
AcDbLine
 10
664.0067118706918
 20
-89.37068760807539
 30
0.0
 11
664.0067118706918
 21
-99.07307250412344
 31
0.0
  0
LINE
  5
114F
330
10D2
100
AcDbEntity
  8
AM_5
 62
     0
370
    -2
100
AcDbLine
 10
717.5067118706918
 20
-86.37068760807535
 30
0.0
 11
717.5067118706918
 21
-99.07307250412344
 31
0.0
  0
LINE
  5
1150
330
10D2
100
AcDbEntity
  8
AM_5
 62
     0
370
    -2
100
AcDbLine
 10
667.0067118706917
 20
-98.07307250412344
 30
0.0
 11
714.5067118706918
 21
-98.07307250412344
 31
0.0
  0
SOLID
  5
1151
330
10D2
100
AcDbEntity
  8
AM_5
 62
     0
100
AcDbTrace
 10
667.0067118706917
 20
-97.57307250412345
 30
0.0
 11
667.0067118706917
 21
-98.57307250412345
 31
0.0
 12
664.0067118706918
 22
-98.07307250412344
 32
0.0
 13
664.0067118706918
 23
-98.07307250412344
 33
0.0
  0
SOLID
  5
1152
330
10D2
100
AcDbEntity
  8
AM_5
 62
     0
100
AcDbTrace
 10
714.5067118706918
 20
-97.57307250412345
 30
0.0
 11
714.5067118706918
 21
-98.57307250412345
 31
0.0
 12
717.5067118706918
 22
-98.07307250412344
 32
0.0
 13
717.5067118706918
 23
-98.07307250412344
 33
0.0
  0
MTEXT
  5
1153
330
10D2
100
AcDbEntity
  8
AM_5
 62
     0
100
AcDbMText
 10
690.7567118706918
 20
-95.07307250412344
 30
0.0
 40
3.0
 41
0.0
 71
     5
 72
     1
  1
\A1;53.5 
 73
     1
 44
1.0
  0
POINT
  5
1154
330
10D2
100
AcDbEntity
  8
Defpoints
 62
     0
100
AcDbPoint
 10
664.0067118706918
 20
-88.3706876080754
 30
0.0
  0
POINT
  5
1155
330
10D2
100
AcDbEntity
  8
Defpoints
 62
     0
100
AcDbPoint
 10
717.5067118706918
 20
-85.37068760807533
 30
0.0
  0
POINT
  5
1156
330
10D2
100
AcDbEntity
  8
Defpoints
 62
     0
100
AcDbPoint
 10
717.5067118706918
 20
-98.07307250412344
 30
0.0
  0
ENDBLK
  5
10DD
330
10D2
100
AcDbEntity
  8
0
100
AcDbBlockEnd
  0
BLOCK
  5
10E8
330
10DE
100
AcDbEntity
  8
0
100
AcDbBlockBegin
  2
*D50
 70
     1
 10
0.0
 20
0.0
 30
0.0
  3
*D50
  1

  0
LINE
  5
1157
330
10DE
100
AcDbEntity
  8
AM_5
 62
     0
370
    -2
100
AcDbLine
 10
718.5067118706918
 20
39.62931239192463
 30
0.0
 11
729.0776598197596
 21
39.62931239192462
 31
0.0
  0
LINE
  5
1158
330
10DE
100
AcDbEntity
  8
AM_5
 62
     0
370
    -2
100
AcDbLine
 10
718.5067118706918
 20
-85.37068760807533
 30
0.0
 11
729.0776598197596
 21
-85.37068760807533
 31
0.0
  0
LINE
  5
1159
330
10DE
100
AcDbEntity
  8
AM_5
 62
     0
370
    -2
100
AcDbLine
 10
728.0776598197596
 20
36.62931239192462
 30
0.0
 11
728.0776598197596
 21
-82.37068760807535
 31
0.0
  0
SOLID
  5
115A
330
10DE
100
AcDbEntity
  8
AM_5
 62
     0
100
AcDbTrace
 10
727.5776598197596
 20
36.62931239192462
 30
0.0
 11
728.5776598197596
 21
36.62931239192462
 31
0.0
 12
728.0776598197596
 22
39.62931239192462
 32
0.0
 13
728.0776598197596
 23
39.62931239192462
 33
0.0
  0
SOLID
  5
115B
330
10DE
100
AcDbEntity
  8
AM_5
 62
     0
100
AcDbTrace
 10
727.5776598197596
 20
-82.37068760807535
 30
0.0
 11
728.5776598197596
 21
-82.37068760807535
 31
0.0
 12
728.0776598197596
 22
-85.37068760807533
 32
0.0
 13
728.0776598197596
 23
-85.37068760807533
 33
0.0
  0
MTEXT
  5
115C
330
10DE
100
AcDbEntity
  8
AM_5
 62
     0
100
AcDbMText
 10
725.077364544169
 20
-22.87068760807525
 30
0.0
 40
3.0
 41
0.0
 71
     5
 72
     1
  1
\A1;%%C125 
 11
0.0000000000000001
 21
1.0
 31
0.0
 73
     1
 44
1.0
  0
POINT
  5
115D
330
10DE
100
AcDbEntity
  8
Defpoints
 62
     0
100
AcDbPoint
 10
717.5067118706918
 20
39.62931239192463
 30
0.0
  0
POINT
  5
115E
330
10DE
100
AcDbEntity
  8
Defpoints
 62
     0
100
AcDbPoint
 10
717.5067118706918
 20
-85.37068760807533
 30
0.0
  0
POINT
  5
115F
330
10DE
100
AcDbEntity
  8
Defpoints
 62
     0
100
AcDbPoint
 10
728.0776598197596
 20
-85.37068760807533
 30
0.0
  0
ENDBLK
  5
10E9
330
10DE
100
AcDbEntity
  8
0
100
AcDbBlockEnd
  0
ENDSEC
  0
SECTION
  2
ENTITIES
  0
TEXT
  5
194
330
2
100
AcDbEntity
  8
LOGO
  6
Continuous
 62
     7
100
AcDbText
 10
525.4784189971203
 20
-138.1163303786257
 30
0.0
 40
3.835670107182843
  1
MCHG
  7
chineset
 72
     1
 11
532.9671082540011
 21
-136.1984953250343
 31
0.0
100
AcDbText
 73
     2
  0
LINE
  5
195
330
2
100
AcDbEntity
  8
LOGO
 62
     4
100
AcDbLine
 10
542.1727165112399
 20
-132.7463922285697
 30
0.0
 11
523.7614999967624
 21
-132.7463922285697
 31
0.0
  0
LINE
  5
196
330
2
100
AcDbEntity
  8
LOGO
 62
     4
100
AcDbLine
 10
542.1727165112399
 20
-139.6505984214988
 30
0.0
 11
523.7614999967624
 21
-139.6505984214988
 31
0.0
  0
LINE
  5
197
330
2
100
AcDbEntity
  8
LOGO
 62
     4
100
AcDbLine
 10
540.6384484683668
 20
-143.1027015179634
 30
0.0
 11
525.2957680396355
 21
-143.1027015179634
 31
0.0
  0
LINE
  5
198
330
2
100
AcDbEntity
  8
LOGO
 62
     4
100
AcDbLine
 10
540.6384484683668
 20
-151.5411757537656
 30
0.0
 11
525.2957680396355
 21
-151.5411757537656
 31
0.0
  0
LINE
  5
19D
330
2
100
AcDbEntity
  8
LOGO
 62
     4
100
AcDbLine
 10
525.2957680396355
 20
-143.1027015179634
 30
0.0
 11
525.2957680396355
 21
-151.5411757537656
 31
0.0
  0
LINE
  5
19E
330
2
100
AcDbEntity
  8
LOGO
 62
     4
100
AcDbLine
 10
523.7614999967624
 20
-132.7463922285697
 30
0.0
 11
523.7614999967624
 21
-139.6505984214988
 31
0.0
  0
LINE
  5
19F
330
2
100
AcDbEntity
  8
LOGO
 62
     4
100
AcDbLine
 10
567.5928157029179
 20
-132.7463922285696
 30
0.0
 11
547.6048288391023
 21
-132.7463922285697
 31
0.0
  0
LINE
  5
1A0
330
2
100
AcDbEntity
  8
LOGO
 62
     4
100
AcDbLine
 10
567.5928157029179
 20
-151.5411757537656
 30
0.0
 11
547.6048288391023
 21
-151.5411757537656
 31
0.0
  0
LINE
  5
1A1
330
2
100
AcDbEntity
  8
LOGO
 62
     4
100
AcDbLine
 10
567.5928157029179
 20
-143.1027015179634
 30
0.0
 11
547.6048288391023
 21
-143.1027015179634
 31
0.0
  0
LINE
  5
1A2
330
2
100
AcDbEntity
  8
LOGO
 62
     4
100
AcDbLine
 10
567.5928157029179
 20
-139.6505984214988
 30
0.0
 11
547.6048288391023
 21
-139.6505984214988
 31
0.0
  0
LINE
  5
1A3
330
2
100
AcDbEntity
  8
LOGO
 62
     4
100
AcDbLine
 10
532.9671082540011
 20
-139.6505984214988
 30
0.0
 11
532.9671082540011
 21
-143.1027015179634
 31
0.0
  0
LINE
  5
1A4
330
2
100
AcDbEntity
  8
LOGO
 62
     4
100
AcDbLine
 10
540.6384484683668
 20
-143.1027015179634
 30
0.0
 11
540.6384484683668
 21
-151.5411757537656
 31
0.0
  0
LINE
  5
1A5
330
2
100
AcDbEntity
  8
LOGO
 62
     4
100
AcDbLine
 10
547.6048288391023
 20
-143.1027015179634
 30
0.0
 11
547.6048288391023
 21
-151.5411757537656
 31
0.0
  0
LINE
  5
1A6
330
2
100
AcDbEntity
  8
LOGO
 62
     4
100
AcDbLine
 10
547.6048288391023
 20
-132.7463922285697
 30
0.0
 11
547.6048288391023
 21
-139.6505984214988
 31
0.0
  0
LINE
  5
1A7
330
2
100
AcDbEntity
  8
LOGO
 62
     4
100
AcDbLine
 10
542.1727165112399
 20
-132.7463922285697
 30
0.0
 11
542.1727165112399
 21
-139.6505984214988
 31
0.0
  0
LINE
  5
1A8
330
2
100
AcDbEntity
  8
LOGO
 62
     4
100
AcDbLine
 10
543.362207478458
 20
-136.2229511144921
 30
0.0
 11
546.4108530099657
 21
-136.2229511144921
 31
0.0
  0
LINE
  5
1A9
330
2
100
AcDbEntity
  8
LOGO
 62
     4
100
AcDbLine
 10
557.5988222710102
 20
-139.6505984214988
 30
0.0
 11
557.5988222710102
 21
-143.1027015179634
 31
0.0
  0
LINE
  5
1AB
330
2
100
AcDbEntity
  8
LOGO
 62
     4
100
AcDbLine
 10
567.5928157029179
 20
-143.1027015179634
 30
0.0
 11
567.5928157029179
 21
-151.5411757537656
 31
0.0
  0
TEXT
  5
1AC
330
2
100
AcDbEntity
  8
LOGO
  6
Continuous
 62
     7
100
AcDbText
 10
553.0325483338877
 20
-138.1598271193373
 30
0.0
 40
3.835670107182843
  1
125
  7
chineset
 72
     1
 11
557.5988222710102
 21
-136.2419920657459
 31
0.0
100
AcDbText
 73
     2
  0
LINE
  5
1AD
330
2
100
AcDbEntity
  8
LOGO
 62
     4
100
AcDbLine
 10
567.5928157029179
 20
-132.7463922285696
 30
0.0
 11
567.5928157029179
 21
-139.6505984214988
 31
0.0
  0
TEXT
  5
1B1
330
2
100
AcDbEntity
  8
LOGO
100
AcDbText
 10
529.8985721682548
 20
-147.2434131061111
 30
150.8300999564393
 40
3.068536085746274
  1
型式
  7
chineset
 72
     4
 11
532.9671082540011
 21
-145.7876705929914
 31
150.8300999564393
100
AcDbText
  0
TEXT
  5
1B2
330
2
100
AcDbEntity
  8
LOGO
100
AcDbText
 10
527.1222776144845
 20
-151.1576087430473
 30
150.8300999564393
 40
3.068536085746274
  1
Model
  7
chineset
 72
     4
 11
532.9671082540011
 21
-149.6233407001742
 31
150.8300999564393
100
AcDbText
  0
TEXT
  5
1B3
330
2
100
AcDbEntity
  8
LOGO
100
AcDbText
 10
551.4617500995176
 20
-147.3219386358645
 30
150.8300999564393
 40
3.068536085746274
  1
缸體外徑
  7
chineset
 72
     4
 11
557.5988222710102
 21
-145.7876705929914
 31
150.8300999564393
100
AcDbText
  0
TEXT
  5
1B4
330
2
100
AcDbEntity
  8
LOGO
  6
Continuous
100
AcDbText
 10
550.840736844069
 20
-150.2626190513713
 30
150.8300999564393
 40
1.917835053591421
  1
Body size
  7
chineset
 72
     4
 11
557.5988222710102
 21
-149.6233407001742
 31
150.8300999564393
100
AcDbText
  0
TEXT
  5
8FB
330
2
100
AcDbEntity
  8
LOGO
 62
     7
100
AcDbText
 10
493.0191240011532
 20
-136.2035551595884
 30
0.0
 40
4.714825856679817
  1
訂購代號:
  7
chineset
100
AcDbText
  0
TEXT
  5
8FC
330
2
100
AcDbEntity
  8
LOGO
 62
     7
100
AcDbText
 10
492.4552048353453
 20
-140.6285542189585
 30
0.0
 40
3.143217237786544
  1
Order example:
 41
0.8
  7
chineset
100
AcDbText
  0
LINE
  5
916
330
2
100
AcDbEntity
  8
LOGO
 62
     4
100
AcDbLine
 10
491.0894662843471
 20
-153.8752586113884
 30
0.0
 11
491.0894662843471
 21
-130.3011293279888
 31
0.0
  0
TEXT
  5
917
330
2
100
AcDbEntity
  8
LOGO
  6
Continuous
100
AcDbText
 10
447.6943150672274
 20
-149.2441564901277
 30
0.0
 40
3.536119392509892
  1
金器工業股份有限公司
  7
chineset
100
AcDbText
  0
TEXT
  5
918
330
2
100
AcDbEntity
  8
LOGO
  6
Continuous
100
AcDbText
 10
441.1991633299085
 20
-152.7809686847961
 30
0.0
 40
2.357412928339928
  1
MINDMAN INDUSTRIAL CO., LTD.
 41
0.85
  7
chineset
100
AcDbText
  0
LINE
  5
919
330
2
100
AcDbEntity
  8
LOGO
 62
     4
100
AcDbLine
 10
491.0894662843471
 20
-135.0159551846688
 30
0.0
 11
456.514076668694
 21
-135.0159551846688
 31
0.0
  0
LINE
  5
91A
330
2
100
AcDbEntity
  8
LOGO
 62
     4
100
AcDbLine
 10
491.0894662843471
 20
-139.7307810413488
 30
0.0
 11
456.514076668694
 21
-139.7307810413488
 31
0.0
  0
LINE
  5
91B
330
2
100
AcDbEntity
  8
LOGO
 62
     4
100
AcDbLine
 10
491.0894662843471
 20
-144.4456068980285
 30
0.0
 11
439.2263818608681
 21
-144.4456068980285
 31
0.0
  0
LINE
  5
91C
330
2
100
AcDbEntity
  8
LOGO
 62
     4
100
AcDbLine
 10
456.514076668694
 20
-144.4456068980285
 30
0.0
 11
456.514076668694
 21
-130.3011293279888
 31
0.0
  0
TEXT
  5
91D
330
2
100
AcDbEntity
  8
LOGO
100
AcDbText
 10
480.1447235374603
 20
-143.2669004338587
 30
0.0
 40
2.357412928339928
  1
mm
  7
chineset
 72
     1
 11
483.0634252582622
 21
-142.0881939696887
 31
0.0
100
AcDbText
 73
     2
  0
TEXT
  5
91E
330
2
100
AcDbEntity
  8
LOGO
100
AcDbText
 10
478.9098881940442
 20
-133.837248720499
 30
0.0
 40
2.357412928339928
  1
1 : 1
  7
chineset
 72
     1
 11
483.0634252582622
 21
-132.658542256329
 31
0.0
100
AcDbText
 73
     2
  0
LINE
  5
91F
330
2
100
AcDbEntity
  8
LOGO
 62
     4
100
AcDbLine
 10
475.3733800954139
 20
-144.4456068980285
 30
0.0
 11
475.3733800954139
 21
-130.3011293279888
 31
0.0
  0
TEXT
  5
920
330
2
100
AcDbEntity
  8
LOGO
100
AcDbText
 10
458.4578899180892
 20
-133.8360885763413
 30
154.5009597124719
 40
2.357412928339928
  1
比例 Scale:
 41
0.9
  7
chineset
 72
     4
 11
465.9437283820543
 21
-132.658542256329
 31
154.5009597124719
100
AcDbText
  0
TEXT
  5
921
330
2
100
AcDbEntity
  8
LOGO
100
AcDbText
 10
458.3221281914124
 20
-138.518913790006
 30
154.5009597124719
 40
2.357412928339928
  1
投影  View:
 41
0.9
  7
chineset
 72
     4
 11
465.9437283820543
 21
-137.3733681130087
 31
154.5009597124719
100
AcDbText
  0
TEXT
  5
922
330
2
100
AcDbEntity
  8
LOGO
100
AcDbText
 10
458.5526074018171
 20
-143.2669004338587
 30
154.5009597124719
 40
2.357412928339928
  1
單位  Unit:
 41
0.9
  7
chineset
 72
     4
 11
465.9437283820543
 21
-142.0881939696887
 31
154.5009597124719
100
AcDbText
  0
SOLID
  5
923
330
2
100
AcDbEntity
  8
LOGO
 62
     5
100
AcDbTrace
 10
441.6722356076207
 20
-140.5267434559704
 30
0.0
 11
442.6915190993195
 21
-140.526743455971
 31
0.0
 12
446.944391599167
 22
-130.8611241381355
 32
0.0
 13
447.9636750908662
 23
-130.8611241381362
 33
0.0
  0
SOLID
  5
924
330
2
100
AcDbEntity
  8
LOGO
 62
     5
100
AcDbTrace
 10
443.1132915786442
 20
-140.5267434559704
 30
0.0
 11
444.1325750703431
 21
-140.5267434559704
 31
0.0
 12
447.9636750908662
 22
-131.6343736835626
 32
0.0
 13
446.944391599167
 23
-135.3717464864588
 33
0.0
  0
SOLID
  5
925
330
2
100
AcDbEntity
  8
LOGO
 62
     2
100
AcDbTrace
 10
442.6915190993195
 20
-140.526743455971
 30
0.0
 11
443.1132915786442
 21
-140.5267434559704
 31
0.0
 12
447.9636750908662
 22
-130.8611241381362
 32
0.0
 13
448.3854475701905
 23
-130.8611241381362
 33
0.0
  0
SOLID
  5
926
330
2
100
AcDbEntity
  8
LOGO
 62
     5
100
AcDbTrace
 10
440.0380742114967
 20
-144.0415141170013
 30
0.0
 11
440.3895512776003
 21
-144.0415141170013
 31
0.0
 12
441.3793380525349
 22
-142.2841287864859
 32
0.0
 13
441.7308151186378
 23
-142.2841287864859
 33
0.0
  0
SOLID
  5
927
330
2
100
AcDbEntity
  8
LOGO
 62
     5
100
AcDbTrace
 10
441.3793380525349
 20
-142.2841287864859
 30
0.0
 11
441.7308151186378
 21
-142.2841287864859
 31
0.0
 12
441.3793380525349
 22
-144.0415141170013
 32
0.0
 13
441.7308151186378
 23
-144.0415141170013
 33
0.0
  0
SOLID
  5
928
330
2
100
AcDbEntity
  8
LOGO
 62
     5
100
AcDbTrace
 10
441.3793380525349
 20
-144.0415141170013
 30
0.0
 11
441.7308151186378
 21
-144.0415141170013
 31
0.0
 12
442.7206018935741
 22
-142.2841287864859
 32
0.0
 13
443.0720789596769
 23
-142.2841287864859
 33
0.0
  0
SOLID
  5
929
330
2
100
AcDbEntity
  8
LOGO
 62
     5
100
AcDbTrace
 10
442.7206018935741
 20
-142.2841287864859
 30
0.0
 11
443.0720789596769
 21
-142.2841287864859
 31
0.0
 12
442.7206018935741
 22
-144.0415141170013
 32
0.0
 13
443.0720789596769
 23
-144.0415141170013
 33
0.0
  0
POLYLINE
  5
92A
330
2
100
AcDbEntity
  8
LOGO
 62
     5
100
AcDb2dPolyline
 66
     1
 10
0.0
 20
0.0
 30
0.0
 40
0.3520403306320958
 41
0.3520403306320958
  0
VERTEX
  5
92B
330
92A
100
AcDbEntity
  8
LOGO
 62
     5
100
AcDbVertex
100
AcDb2dVertex
 10
454.5019934171773
 20
-142.9870829186923
 30
0.0
 42
1.0
  0
VERTEX
  5
92C
330
92A
100
AcDbEntity
  8
LOGO
 62
     5
100
AcDbVertex
100
AcDb2dVertex
 10
453.4458724252814
 20
-142.9870829186923
 30
0.0
 42
1.0
  0
SEQEND
  5
92D
330
92A
100
AcDbEntity
  8
LOGO
 62
     5
  0
POLYLINE
  5
92E
330
2
100
AcDbEntity
  8
LOGO
 62
     5
100
AcDb2dPolyline
 66
     1
 10
0.0
 20
0.0
 30
0.0
 70
     1
  0
VERTEX
  5
92F
330
92E
100
AcDbEntity
  8
LOGO
 62
     5
100
AcDbVertex
100
AcDb2dVertex
 10
451.4550373792945
 20
-143.1628214517437
 30
0.0
 42
1.000000057330635
  0
VERTEX
  5
930
330
92E
100
AcDbEntity
  8
LOGO
 62
     5
100
AcDbVertex
100
AcDb2dVertex
 10
452.5094685776032
 20
-143.1628214517437
 30
0.0
 42
1.000000057330635
  0
SEQEND
  5
931
330
92E
100
AcDbEntity
  8
LOGO
 62
     5
  0
CIRCLE
  5
932
330
2
100
AcDbEntity
  8
LOGO
 62
     5
100
AcDbCircle
 10
451.9822529784495
 20
-143.1628214517437
 30
0.0
 40
0.5272155991546268
  0
POLYLINE
  5
933
330
2
100
AcDbEntity
  8
LOGO
 62
     5
100
AcDb2dPolyline
 66
     1
 10
0.0
 20
0.0
 30
0.0
 70
     1
 40
0.3520403306320958
 41
0.3520403306320958
  0
VERTEX
  5
934
330
933
100
AcDbEntity
  8
LOGO
 62
     5
100
AcDbVertex
100
AcDb2dVertex
 10
451.278172317185
 20
-143.1628214517437
 30
0.0
 42
1.0
  0
VERTEX
  5
935
330
933
100
AcDbEntity
  8
LOGO
 62
     5
100
AcDbVertex
100
AcDb2dVertex
 10
452.6863336397134
 20
-143.1628214517437
 30
0.0
 42
1.0
  0
SEQEND
  5
936
330
933
100
AcDbEntity
  8
LOGO
 62
     5
  0
LINE
  5
937
330
2
100
AcDbEntity
  8
LOGO
100
AcDbLine
 10
454.6768870534346
 20
-144.0415141170013
 30
0.0
 11
454.6768870534346
 21
-142.9870829186923
 31
0.0
  0
SOLID
  5
938
330
2
100
AcDbEntity
  8
LOGO
 62
     5
100
AcDbTrace
 10
452.5094334298982
 20
-142.2841287864859
 30
0.0
 11
452.8609104960008
 21
-142.2841287864859
 31
0.0
 12
452.5094334298982
 22
-144.0415141170013
 32
0.0
 13
452.8609104960008
 23
-144.0415141170013
 33
0.0
  0
SOLID
  5
939
330
2
100
AcDbEntity
  8
LOGO
 62
     5
100
AcDbTrace
 10
453.2709787890227
 20
-144.0415141170013
 30
0.0
 11
453.6224558551258
 21
-144.0415141170013
 31
0.0
 12
453.2709787890227
 22
-142.2841287864859
 32
0.0
 13
453.6224558551258
 23
-142.2841287864859
 33
0.0
  0
SOLID
  5
93A
330
2
100
AcDbEntity
  8
LOGO
 62
     5
100
AcDbTrace
 10
454.3254099873324
 20
-142.9870829186923
 30
0.0
 11
454.6768870534346
 21
-142.9870829186923
 31
0.0
 12
454.3254099873324
 22
-144.0415141170013
 32
0.0
 13
454.6768870534346
 23
-144.0415141170013
 33
0.0
  0
SOLID
  5
93B
330
2
100
AcDbEntity
  8
LOGO
 62
     5
100
AcDbTrace
 10
453.2358310824122
 20
-131.6343736835626
 30
0.0
 11
452.2165475907137
 21
-135.3717464864588
 31
0.0
 12
453.2358310824122
 22
-140.526743455971
 32
0.0
 13
452.2165475907137
 23
-140.526743455971
 33
0.0
  0
SOLID
  5
93C
330
2
100
AcDbEntity
  8
LOGO
 62
     5
100
AcDbTrace
 10
453.6576035617361
 20
-140.526743455971
 30
0.0
 11
454.6768870534346
 21
-140.526743455971
 31
0.0
 12
453.6576035617361
 22
-130.8611241381362
 32
0.0
 13
454.6768870534346
 23
-130.8611241381355
 33
0.0
  0
SOLID
  5
93D
330
2
100
AcDbEntity
  8
LOGO
 62
     2
100
AcDbTrace
 10
453.2358310824122
 20
-130.8611241381355
 30
0.0
 11
453.6576035617361
 21
-130.8611241381362
 31
0.0
 12
453.2358310824122
 22
-140.526743455971
 32
0.0
 13
453.6576035617361
 23
-140.526743455971
 33
0.0
  0
POLYLINE
  5
93E
330
2
100
AcDbEntity
  8
LOGO
 62
     5
100
AcDb2dPolyline
 66
     1
 10
0.0
 20
0.0
 30
0.0
 40
0.3520403306320958
 41
0.3520403306320958
  0
VERTEX
  5
93F
330
93E
100
AcDbEntity
  8
LOGO
 62
     5
100
AcDbVertex
100
AcDb2dVertex
 10
449.4641320378959
 20
-142.9870829186923
 30
0.0
 42
1.0
  0
VERTEX
  5
940
330
93E
100
AcDbEntity
  8
LOGO
 62
     5
100
AcDbVertex
100
AcDb2dVertex
 10
448.4080110459989
 20
-142.9870829186923
 30
0.0
 42
1.0
  0
SEQEND
  5
941
330
93E
100
AcDbEntity
  8
LOGO
 62
     5
  0
POLYLINE
  5
942
330
2
100
AcDbEntity
  8
LOGO
 62
     5
100
AcDb2dPolyline
 66
     1
 10
0.0
 20
0.0
 30
0.0
 40
0.3520403306320958
 41
0.3520403306320958
  0
VERTEX
  5
943
330
942
100
AcDbEntity
  8
LOGO
 62
     5
100
AcDbVertex
100
AcDb2dVertex
 10
450.5185632362047
 20
-142.9870829186923
 30
0.0
 42
1.0
  0
VERTEX
  5
944
330
942
100
AcDbEntity
  8
LOGO
 62
     5
100
AcDbVertex
100
AcDb2dVertex
 10
449.4624422443082
 20
-142.9870829186923
 30
0.0
 42
1.0
  0
SEQEND
  5
945
330
942
100
AcDbEntity
  8
LOGO
 62
     5
  0
POLYLINE
  5
946
330
2
100
AcDbEntity
  8
LOGO
 62
     5
100
AcDb2dPolyline
 66
     1
 10
0.0
 20
0.0
 30
0.0
 40
0.3520403306320958
 41
0.3520403306320958
  0
VERTEX
  5
947
330
946
100
AcDbEntity
  8
LOGO
 62
     5
100
AcDbVertex
100
AcDb2dVertex
 10
445.480701856922
 20
-142.9870829186923
 30
0.0
 42
1.0
  0
VERTEX
  5
948
330
946
100
AcDbEntity
  8
LOGO
 62
     5
100
AcDbVertex
100
AcDb2dVertex
 10
444.4245808650258
 20
-142.9870829186923
 30
0.0
 42
1.0
  0
SEQEND
  5
949
330
946
100
AcDbEntity
  8
LOGO
 62
     5
  0
SOLID
  5
94A
330
2
100
AcDbEntity
  8
LOGO
 62
     5
100
AcDbTrace
 10
444.2496872287679
 20
-142.2841287864859
 30
0.0
 11
444.6011642948705
 21
-142.2841287864859
 31
0.0
 12
444.2496872287679
 22
-144.0415141170013
 32
0.0
 13
444.6011642948705
 23
-144.0415141170013
 33
0.0
  0
SOLID
  5
94B
330
2
100
AcDbEntity
  8
LOGO
 62
     5
100
AcDbTrace
 10
445.3041184270777
 20
-142.9870829186923
 30
0.0
 11
445.6555954931814
 21
-142.9870829186923
 31
0.0
 12
445.3041184270777
 22
-144.0415141170013
 32
0.0
 13
445.6555954931814
 23
-144.0415141170013
 33
0.0
  0
POLYLINE
  5
94C
330
2
100
AcDbEntity
  8
LOGO
 62
     5
100
AcDb2dPolyline
 66
     1
 10
0.0
 20
0.0
 30
0.0
 70
     1
 40
0.3520403306320958
 41
0.3520403306320958
  0
VERTEX
  5
94D
330
94C
100
AcDbEntity
  8
LOGO
 62
     5
100
AcDbVertex
100
AcDb2dVertex
 10
446.2403109379027
 20
-143.1628214517437
 30
0.0
 42
1.0
  0
VERTEX
  5
94E
330
94C
100
AcDbEntity
  8
LOGO
 62
     5
100
AcDbVertex
100
AcDb2dVertex
 10
447.6484722604311
 20
-143.1628214517437
 30
0.0
 42
1.0
  0
SEQEND
  5
94F
330
94C
100
AcDbEntity
  8
LOGO
 62
     5
  0
SOLID
  5
950
330
2
100
AcDbEntity
  8
LOGO
 62
     5
100
AcDbTrace
 10
447.4715720506156
 20
-141.7569131873311
 30
0.0
 11
447.8230491167188
 21
-141.7569131873311
 31
0.0
 12
447.4715720506156
 22
-144.0415141170013
 32
0.0
 13
447.8230491167188
 23
-144.0415141170013
 33
0.0
  0
SOLID
  5
951
330
2
100
AcDbEntity
  8
LOGO
 62
     5
100
AcDbTrace
 10
448.2331174097419
 20
-142.2841287864859
 30
0.0
 11
448.5845944758446
 21
-142.2841287864859
 31
0.0
 12
448.2331174097419
 22
-144.0415141170013
 32
0.0
 13
448.5845944758446
 23
-144.0415141170013
 33
0.0
  0
SOLID
  5
952
330
2
100
AcDbEntity
  8
LOGO
 62
     5
100
AcDbTrace
 10
449.2875486080502
 20
-142.9870829186923
 30
0.0
 11
449.6390256741534
 21
-142.9870829186923
 31
0.0
 12
449.2875486080502
 22
-144.0415141170013
 32
0.0
 13
449.6390256741534
 23
-144.0415141170013
 33
0.0
  0
SOLID
  5
953
330
2
100
AcDbEntity
  8
LOGO
 62
     5
100
AcDbTrace
 10
450.341979806359
 20
-142.9870829186923
 30
0.0
 11
450.6934568724627
 21
-142.9870829186923
 31
0.0
 12
450.341979806359
 22
-144.0415141170016
 32
0.0
 13
450.6934568724627
 23
-144.0415141170016
 33
0.0
  0
SOLID
  5
954
330
2
100
AcDbEntity
  8
LOGO
 62
     5
100
AcDbTrace
 10
443.4881418696421
 20
-142.0380948402138
 30
0.0
 11
443.8396189357469
 21
-142.0380948402138
 31
0.0
 12
443.4881418696421
 22
-141.7569131873311
 32
0.0
 13
443.8396189357469
 23
-141.7569131873311
 33
0.0
  0
SOLID
  5
955
330
2
100
AcDbEntity
  8
LOGO
 62
     5
100
AcDbTrace
 10
443.4881418696421
 20
-142.2841287864859
 30
0.0
 11
443.8396189357469
 21
-142.2841287864859
 31
0.0
 12
443.4881418696421
 22
-144.0415141170016
 32
0.0
 13
443.8396189357469
 23
-144.0415141170013
 33
0.0
  0
SOLID
  5
956
330
2
100
AcDbEntity
  8
LOGO
 62
     5
100
AcDbTrace
 10
446.944391599167
 20
-140.5267434559704
 30
0.0
 11
447.9636750908662
 21
-140.5267434559704
 31
0.0
 12
446.944391599167
 22
-135.3717464864588
 32
0.0
 13
447.9636750908662
 23
-131.6343736835626
 33
0.0
  0
SOLID
  5
957
330
2
100
AcDbEntity
  8
LOGO
 62
     5
100
AcDbTrace
 10
448.3854475701905
 20
-130.8611241381362
 30
0.0
 11
449.4047310618894
 21
-130.8611241381355
 31
0.0
 12
448.3854475701905
 22
-139.7534939105442
 32
0.0
 13
449.4047310618894
 23
-136.0161211076478
 33
0.0
  0
SOLID
  5
958
330
2
100
AcDbEntity
  8
LOGO
 62
     2
100
AcDbTrace
 10
447.9636750908662
 20
-130.8611241381362
 30
0.0
 11
448.3854475701905
 21
-130.8611241381362
 31
0.0
 12
447.9636750908662
 22
-140.5267434559704
 32
0.0
 13
448.3854475701905
 23
-140.5267434559704
 33
0.0
  0
SOLID
  5
959
330
2
100
AcDbEntity
  8
LOGO
 62
     5
100
AcDbTrace
 10
448.3854475701905
 20
-139.7534939105442
 30
0.0
 11
449.4047310618894
 21
-136.0161211076478
 31
0.0
 12
453.2358310824122
 22
-130.8611241381355
 32
0.0
 13
452.2165475907137
 23
-130.8611241381355
 33
0.0
  0
SOLID
  5
95A
330
2
100
AcDbEntity
  8
LOGO
 62
     5
100
AcDbTrace
 10
448.3854475701905
 20
-140.5267434559704
 30
0.0
 11
449.4047310618894
 21
-140.5267434559704
 31
0.0
 12
453.2358310824122
 22
-131.6343736835626
 32
0.0
 13
452.2165475907137
 23
-135.3717464864588
 33
0.0
  0
SOLID
  5
95B
330
2
100
AcDbEntity
  8
LOGO
 62
     2
100
AcDbTrace
 10
447.9636750908662
 20
-140.5267434559704
 30
0.0
 11
448.3854475701905
 21
-140.5267434559704
 31
0.0
 12
453.2358310824122
 22
-130.8611241381355
 32
0.0
 13
453.6576035617361
 23
-130.8611241381362
 33
0.0
  0
LWPOLYLINE
  5
95C
330
2
100
AcDbEntity
  8
LOGO
 62
     4
100
AcDbPolyline
 90
        4
 70
     1
 43
0.0
 10
439.226381860869
 20
-130.3011293279892
 10
759.4553638383871
 20
-130.3011293279892
 10
759.4553638383871
 20
-153.8752586113886
 10
439.226381860869
 20
-153.8752586113886
1001
GENIUS_GENREC_14
1002
{
1000
PYDIR
1011
439.226381860869
1021
-153.8752586113886
1031
0.0
1002
}
1002
{
1000
PXDIR
1011
759.4553638383871
1021
-130.3011293279892
1031
0.0
1002
}
1002
{
1000
PORI
1011
439.226381860869
1021
-130.3011293279892
1031
0.0
1002
}
1002
{
1000
PINS
1011
439.226381860869
1021
-130.3011293279892
1031
0.0
1002
}
1002
{
1000
PINS2
1011
759.4553638383871
1021
-153.8752586113886
1031
0.0
1002
}
1002
{
1000
C
1070
     1
1002
}
1001
GENIUS_GENOBJ-N-REC_13
1002
{
1000
OWNER
1000
GEN
1002
}
1001
GENIUS_GENODEF_13
1002
{
1000
HIER
1070
     0
1002
}
1002
{
1000
MANEDIT
1070
     0
1002
}
1002
{
1000
NOSEL
1070
     0
1002
}
1002
{
1000
BEHIND
1070
     0
1002
}
1002
{
1000
OTHER
1070
     0
1002
}
1002
{
1000
REACTOR
1002
}
  0
TEXT
  5
95D
330
2
100
AcDbEntity
  8
LOGO
100
AcDbText
 10
492.0245543104946
 20
-152.6211242380712
 30
0.0
 40
2.357754322630987
  1
0130308B
 41
0.7
  7
chineset
 72
     1
 11
497.9189401170721
 21
-152.6211242380712
 31
0.0
100
AcDbText
  0
LINE
  5
95E
330
2
100
AcDbEntity
  8
LOGO
 62
     4
100
AcDbLine
 10
505.2359922201315
 20
-149.160432754708
 30
0.0
 11
505.2359922201331
 21
-153.8752586113882
 31
0.0
  0
LINE
  5
95F
330
2
100
AcDbEntity
  8
LOGO
 62
     4
100
AcDbLine
 10
505.2359922201315
 20
-149.160432754708
 30
0.0
 11
491.0894662843471
 21
-149.160432754708
 31
0.0
  0
CIRCLE
  5
960
330
2
100
AcDbEntity
  8
LOGO
  6
Continuous
100
AcDbCircle
 10
479.7384249927836
 20
-137.3683255895041
 30
0.0
 40
1.368769433439616
  0
CIRCLE
  5
961
330
2
100
AcDbEntity
  8
LOGO
  6
Continuous
100
AcDbCircle
 10
479.7384249927836
 20
-137.3683255895041
 30
0.0
 40
0.8019777176933247
  0
LINE
  5
962
330
2
100
AcDbEntity
  8
LOGO
100
AcDbLine
 10
488.3399309378063
 20
-138.7370950229438
 30
0.0
 11
488.3399309378063
 21
-135.9995561560642
 31
0.0
  0
LINE
  5
963
330
2
100
AcDbEntity
  8
LOGO
100
AcDbLine
 10
484.0489173350873
 20
-138.1703033071973
 30
0.0
 11
484.0489173350873
 21
-136.5663478718105
 31
0.0
  0
LINE
  5
964
330
2
100
AcDbEntity
  8
LOGO
  6
Continuous
100
AcDbLine
 10
484.0489173350873
 20
-136.5663478718105
 30
0.0
 11
488.3399309378063
 21
-135.9995561560642
 31
0.0
  0
LINE
  5
965
330
2
100
AcDbEntity
  8
LOGO
  6
Continuous
100
AcDbLine
 10
484.0489173350873
 20
-138.1703033071973
 30
0.0
 11
488.3399309378063
 21
-138.7370950229438
 31
0.0
  0
LINE
  5
966
330
2
100
AcDbEntity
  8
LOGO
  6
AM_ISO08W050x2
 48
0.3
100
AcDbLine
 10
477.8515558330781
 20
-137.3683255895041
 30
0.0
 11
481.6252941524878
 21
-137.3683255895041
 31
0.0
1001
GENIUS_GENOREF_13
1005
96C
  0
LINE
  5
967
330
2
100
AcDbEntity
  8
LOGO
  6
AM_ISO08W050x2
 48
0.3
100
AcDbLine
 10
479.7384249927836
 20
-139.2551947492086
 30
0.0
 11
479.7384249927836
 21
-135.481456429799
 31
0.0
1001
GENIUS_GENOREF_13
1005
96B
  0
LINE
  5
968
330
2
100
AcDbEntity
  8
LOGO
  6
CENTER
 48
0.5
100
AcDbLine
 10
483.7057555150351
 20
-137.3683255895041
 30
0.0
 11
488.7720221168723
 21
-137.3683255895041
 31
0.0
1001
GENIUS_GENOREF_13
1005
96A
  0
LWPOLYLINE
  5
969
330
2
100
AcDbEntity
  8
LOGO
 62
     4
100
AcDbPolyline
 90
        4
 70
     1
 43
0.0
 10
439.226381860869
 20
79.00670741047554
 10
759.4553638383871
 20
79.00670741047554
 10
759.4553638383871
 20
-130.3011293279892
 10
439.226381860869
 20
-130.3011293279892
  0
POINT
  5
96A
330
2
100
AcDbEntity
  8
0
 60
     1
100
AcDbPoint
 10
2451.108849283049
 20
-757.9063032409765
 30
0.0
1001
GENIUS_GENOBJ-N-CRS_13
1002
{
1000
OWNER
1000
GEN
1002
}
1001
GENIUS_GENOLIS_13
1002
{
1000
ENT
1005
0
1005
0
1005
0
1005
968
1002
}
1001
GENIUS_GENOENT_13
1002
{
1000
MYREF
1005
96A
1002
}
1002
{
1000
GRP
1005
0
1002
}
1001
GENIUS_GENODEF_13
1002
{
1000
HIER
1070
    10
1002
}
1002
{
1000
MANEDIT
1070
     1
1002
}
1002
{
1000
NOSEL
1070
     0
1002
}
1002
{
1000
BEHIND
1070
     0
1002
}
1002
{
1000
OTHER
1070
     0
1002
}
1002
{
1000
REACTOR
1002
}
  0
POINT
  5
96B
330
2
100
AcDbEntity
  8
0
 60
     1
100
AcDbPoint
 10
2439.784264060194
 20
-749.0307167623402
 30
0.0
1001
GENIUS_GENOBJ-N-CRS_13
1002
{
1000
OWNER
1000
GEN
1002
}
1001
GENIUS_GENOLIS_13
1002
{
1000
ENT
1005
0
1005
0
1005
0
1005
967
1002
}
1001
GENIUS_GENOENT_13
1002
{
1000
MYREF
1005
96B
1002
}
1002
{
1000
GRP
1005
0
1002
}
1001
GENIUS_GENODEF_13
1002
{
1000
HIER
1070
    10
1002
}
1002
{
1000
MANEDIT
1070
     1
1002
}
1002
{
1000
NOSEL
1070
     0
1002
}
1002
{
1000
BEHIND
1070
     0
1002
}
1002
{
1000
OTHER
1070
     0
1002
}
1002
{
1000
REACTOR
1002
}
  0
POINT
  5
96C
330
2
100
AcDbEntity
  8
0
 60
     1
100
AcDbPoint
 10
2446.142937758031
 20
-757.9063032409765
 30
0.0
1001
GENIUS_GENOBJ-N-CRS_13
1002
{
1000
OWNER
1000
GEN
1002
}
1001
GENIUS_GENOLIS_13
1002
{
1000
ENT
1005
0
1005
0
1005
0
1005
966
1002
}
1001
GENIUS_GENOENT_13
1002
{
1000
MYREF
1005
96C
1002
}
1002
{
1000
GRP
1005
0
1002
}
1001
GENIUS_GENODEF_13
1002
{
1000
HIER
1070
    10
1002
}
1002
{
1000
MANEDIT
1070
     1
1002
}
1002
{
1000
NOSEL
1070
     0
1002
}
1002
{
1000
BEHIND
1070
     0
1002
}
1002
{
1000
OTHER
1070
     0
1002
}
1002
{
1000
REACTOR
1002
}
  0
LINE
  5
FB2
330
2
100
AcDbEntity
  8
1
100
AcDbLine
 10
641.5067118706917
 20
-3.111068664841866
 30
0.0
 11
665.5067118706917
 21
-3.111068664841866
 31
0.0
  0
LINE
  5
FB3
330
2
100
AcDbEntity
  8
1
100
AcDbLine
 10
641.5067118706917
 20
2.864506621270834
 30
0.0
 11
665.5067118706917
 21
2.864506621270834
 31
0.0
  0
LINE
  5
FB4
330
2
100
AcDbEntity
  8
1
100
AcDbLine
 10
641.5067118706917
 20
16.89411816257862
 30
0.0
 11
665.5067118706917
 21
16.89411816257862
 31
0.0
  0
LINE
  5
FB5
330
2
100
AcDbEntity
  8
1
100
AcDbLine
 10
641.5067118706919
 20
22.86969344869127
 30
0.0
 11
665.5067118706917
 21
22.86969344869124
 31
0.0
  0
LINE
  5
FB6
330
2
100
AcDbEntity
  8
3
100
AcDbLine
 10
638.5375518706917
 20
-22.87068760807534
 30
0.0
 11
719.9071418706917
 21
-22.87068760807534
 31
0.0
  0
LINE
  5
FB7
330
2
100
AcDbEntity
  8
1
100
AcDbLine
 10
641.5067118706916
 20
-85.37068760807533
 30
0.0
 11
717.5067118706918
 21
-85.37068760807533
 31
0.0
  0
LINE
  5
FB8
330
2
100
AcDbEntity
  8
1
100
AcDbLine
 10
641.5067118706917
 20
39.62931239192463
 30
0.0
 11
717.5067118706918
 21
39.62931239192463
 31
0.0
  0
ARC
  5
FB9
330
2
100
AcDbEntity
  8
1
100
AcDbCircle
 10
527.9446595191366
 20
-22.87068760807534
 30
0.0
 40
62.5
100
AcDbArc
 50
277.4464784657981
 51
306.3841712449871
  0
ARC
  5
FBA
330
2
100
AcDbEntity
  8
1
100
AcDbCircle
 10
527.9446595191366
 20
-22.87068760807534
 30
0.0
 40
62.5
100
AcDbArc
 50
230.6631506369701
 51
262.5535215342019
  0
LINE
  5
FBB
330
2
100
AcDbEntity
  8
1
100
AcDbLine
 10
519.8446595191365
 20
-40.88325266694465
 30
0.0
 11
519.8446595191365
 21
-88.3706876080754
 31
0.0
  0
LINE
  5
FBC
330
2
100
AcDbEntity
  8
1
100
AcDbLine
 10
536.0446595191365
 20
-40.88325266694471
 30
0.0
 11
536.0446595191365
 21
-88.3706876080754
 31
0.0
  0
LINE
  5
FBD
330
2
100
AcDbEntity
  8
3
100
AcDbLine
 10
527.9446595191366
 20
43.18210239192459
 30
0.0
 11
527.9446595191366
 21
-91.4427576080754
 31
0.0
  0
CIRCLE
  5
FBE
330
2
100
AcDbEntity
  8
3
100
AcDbCircle
 10
527.9446595191366
 20
-22.87068760807534
 30
0.0
 40
56.0
  0
CIRCLE
  5
FBF
330
2
100
AcDbEntity
  8
3
100
AcDbCircle
 10
527.9446595191366
 20
-22.87068760807534
 30
0.0
 40
56.0
  0
CIRCLE
  5
FC0
330
2
100
AcDbEntity
  8
1
100
AcDbCircle
 10
527.9446595191366
 20
-79.8706876080754
 30
0.0
 40
2.5
  0
ARC
  5
FC1
330
2
100
AcDbEntity
  8
0
100
AcDbCircle
 10
527.9446595191366
 20
-79.8706876080754
 30
0.0
 40
3.0
100
AcDbArc
 50
200.8494963807001
 51
105.2555918647448
  0
LINE
  5
FC2
330
2
100
AcDbEntity
  8
3
100
AcDbLine
 10
531.9566995191364
 20
-79.8706876080754
 30
0.0
 11
523.9445295191365
 21
-79.8706876080754
 31
0.0
  0
LINE
  5
FC3
330
2
100
AcDbEntity
  8
1
100
AcDbLine
 10
542.9446595191365
 20
-88.3706876080754
 30
0.0
 11
512.9446595191366
 21
-88.3706876080754
 31
0.0
  0
LINE
  5
FC4
330
2
100
AcDbEntity
  8
1
100
AcDbLine
 10
512.9446595191366
 20
-83.54399310563337
 30
0.0
 11
512.9446595191366
 21
-88.3706876080754
 31
0.0
  0
LINE
  5
FC5
330
2
100
AcDbEntity
  8
1
100
AcDbLine
 10
542.9446595191365
 20
-83.54399310563337
 30
0.0
 11
542.9446595191365
 21
-88.3706876080754
 31
0.0
  0
ARC
  5
FC6
330
2
100
AcDbEntity
  8
1
100
AcDbCircle
 10
527.9446595191366
 20
-22.87068760807534
 30
0.0
 40
19.75
100
AcDbArc
 50
292.4743688204669
 51
7.525631179533371
  0
LINE
  5
FC7
330
2
100
AcDbEntity
  8
1
100
AcDbLine
 10
545.9783073156398
 20
-3.10588183742135
 30
0.0
 11
554.0783073156397
 21
-17.13549337872928
 31
0.0
  0
LINE
  5
FC8
330
2
100
AcDbEntity
  8
1
100
AcDbLine
 10
539.4939984474373
 20
-6.849599307986693
 30
0.0
 11
580.6193234670173
 21
16.89411816257865
 31
0.0
  0
LINE
  5
FC9
330
2
100
AcDbEntity
  8
1
100
AcDbLine
 10
547.5939984474373
 20
-20.87921084929451
 30
0.0
 11
588.7193234670172
 21
2.864506621270834
 31
0.0
  0
LINE
  5
FCA
330
2
100
AcDbEntity
  8
3
100
AcDbLine
 10
539.6556612468923
 20
-16.10933760807535
 30
0.0
 11
583.3858218828801
 21
9.138282406817779
 31
0.0
  0
ARC
  5
FCB
330
2
100
AcDbEntity
  8
1
100
AcDbCircle
 10
527.9446595191366
 20
-22.87068760807534
 30
0.0
 40
62.5
100
AcDbArc
 50
37.44647846579913
 51
142.5535215342008
  0
LINE
  5
FCC
330
2
100
AcDbEntity
  8
3
100
AcDbLine
 10
464.5053895191365
 20
-22.87068760807534
 30
0.0
 11
592.1829795191364
 21
-22.87068760807534
 31
0.0
  0
LINE
  5
FCD
330
2
100
AcDbEntity
  8
1
100
AcDbLine
 10
515.9146131177058
 20
-7.207339192764493
 30
0.0
 11
508.3647786824351
 21
-20.28403602338619
 31
0.0
  0
LINE
  5
FCE
330
2
100
AcDbEntity
  8
1
100
AcDbLine
 10
547.5245403558378
 20
-20.28403602338614
 30
0.0
 11
539.9747059205671
 21
-7.207339192764379
 31
0.0
  0
LINE
  5
FCF
330
2
100
AcDbEntity
  8
1
100
AcDbLine
 10
508.2953205908357
 20
-20.87921084929468
 30
0.0
 11
467.1699955712557
 21
2.864506621270663
 31
0.0
  0
LINE
  5
FD0
330
2
100
AcDbEntity
  8
1
100
AcDbLine
 10
501.8110117226333
 20
-17.13549337872933
 30
0.0
 11
509.9110117226333
 21
-3.10588183742135
 31
0.0
  0
LINE
  5
FD1
330
2
100
AcDbEntity
  8
3
100
AcDbLine
 10
516.2336577913808
 20
-16.10933760807535
 30
0.0
 11
470.3539701674714
 21
10.37931239192471
 31
0.0
  0
ARC
  5
FD2
330
2
100
AcDbEntity
  8
1
100
AcDbCircle
 10
527.9446595191366
 20
-22.87068760807534
 30
0.0
 40
62.5
100
AcDbArc
 50
157.4464784657987
 51
187.7358619327155
  0
ARC
  5
FD3
330
2
100
AcDbEntity
  8
1
100
AcDbCircle
 10
527.9446595191366
 20
-22.87068760807534
 30
0.0
 40
19.75
100
AcDbArc
 50
172.4743688204658
 51
247.525631179533
  0
ARC
  5
FD4
330
2
100
AcDbEntity
  8
1
100
AcDbCircle
 10
527.9446595191366
 20
-22.87068760807534
 30
0.0
 40
62.5
100
AcDbArc
 50
193.5957254929796
 51
225.3399558388849
  0
ARC
  5
FD5
330
2
100
AcDbEntity
  8
1
100
AcDbCircle
 10
479.447236907208
 20
-50.87068760807529
 30
0.0
 40
7.5
100
AcDbArc
 50
303.839644235984
 51
116.1603557640156
  0
LINE
  5
FD6
330
2
100
AcDbEntity
  8
1
100
AcDbLine
 10
476.1406000526032
 20
-44.13896028800581
 30
0.0
 11
470.4658534785713
 21
-47.41527675010604
 31
0.0
  0
LINE
  5
FD7
330
2
100
AcDbEntity
  8
3
100
AcDbLine
 10
487.3423047076557
 20
-46.31246808821646
 30
0.0
 11
470.7910266129196
 21
-55.8683529516448
 31
0.0
  0
LINE
  5
FD8
330
2
100
AcDbEntity
  8
1
100
AcDbLine
 10
483.6237653504355
 20
-57.10018278528764
 30
0.0
 11
478.0070626743068
 21
-60.47503823216004
 31
0.0
  0
CIRCLE
  5
FD9
330
2
100
AcDbEntity
  8
1
100
AcDbCircle
 10
479.447236907208
 20
-50.8706876080754
 30
0.0
 40
4.5
  0
LINE
  5
FDA
330
2
100
AcDbEntity
  8
3
100
AcDbLine
 10
495.5877936707495
 20
-59.25497072490244
 30
0.0
 11
484.9329632717547
 21
-71.08835870940871
 31
0.0
  0
LINE
  5
FDB
330
2
100
AcDbEntity
  8
1
100
AcDbLine
 10
487.1057885289398
 20
-66.43347696144505
 30
0.0
 11
483.9642996768556
 21
-67.34050141709892
 31
0.0
  0
LINE
  5
FDC
330
2
100
AcDbEntity
  8
1
100
AcDbLine
 10
493.9668769013571
 20
-64.26830575669518
 30
0.0
 11
491.15652835465
 21
-67.38951402370034
 31
0.0
  0
LINE
  5
FDD
330
2
100
AcDbEntity
  8
1
100
AcDbLine
 10
489.335223005372
 20
-68.4408687805217
 30
0.0
 11
488.3272575634473
 21
-71.21023107180025
 31
0.0
  0
LINE
  5
FDE
330
2
100
AcDbEntity
  8
1
100
AcDbLine
 10
490.6734842180895
 20
-66.95457912956701
 30
0.0
 11
489.3352230053719
 21
-68.44086878052181
 31
0.0
  0
LINE
  5
FDF
330
2
100
AcDbEntity
  8
1
100
AcDbLine
 10
490.6734842180895
 20
-66.95457912956701
 30
0.0
 11
491.15652835465
 21
-67.38951402370023
 31
0.0
  0
LINE
  5
FE0
330
2
100
AcDbEntity
  8
1
100
AcDbLine
 10
490.7713541518043
 20
-61.3910441493521
 30
0.0
 11
487.9610056050971
 21
-64.51225241635708
 31
0.0
  0
LINE
  5
FE1
330
2
100
AcDbEntity
  8
1
100
AcDbLine
 10
488.4440497416573
 20
-64.94718731049037
 30
0.0
 11
487.1057885289397
 21
-66.43347696144516
 31
0.0
  0
LINE
  5
FE2
330
2
100
AcDbEntity
  8
1
100
AcDbLine
 10
488.4440497416573
 20
-64.94718731049037
 30
0.0
 11
487.9610056050971
 21
-64.51225241635714
 31
0.0
  0
LINE
  5
FE3
330
2
100
AcDbEntity
  8
1
100
AcDbLine
 10
492.3691155265808
 20
-62.82967495302361
 30
0.0
 11
493.9668769013571
 21
-64.26830575669518
 31
0.0
  0
LINE
  5
FE4
330
2
100
AcDbEntity
  8
1
100
AcDbLine
 10
492.3691155265808
 20
-62.82967495302361
 30
0.0
 11
490.7713541518043
 21
-61.3910441493521
 31
0.0
  0
LINE
  5
FE5
330
2
100
AcDbEntity
  8
1
100
AcDbLine
 10
475.7489054789095
 20
-34.62975900730251
 30
0.0
 11
471.6406855558274
 21
-35.50298810873719
 31
0.0
  0
LINE
  5
FE6
330
2
100
AcDbEntity
  8
3
100
AcDbLine
 10
480.1285695803139
 20
-31.5008003856785
 30
0.0
 11
465.8116390382618
 21
-34.54395791536557
 31
0.0
  0
LINE
  5
FE7
330
2
100
AcDbEntity
  8
1
100
AcDbLine
 10
474.854885208393
 20
-30.42372432414712
 30
0.0
 11
470.746665285311
 21
-31.29695342558162
 31
0.0
  0
LINE
  5
FE8
330
2
100
AcDbEntity
  8
1
100
AcDbLine
 10
469.5492477553283
 20
-35.28301554989563
 30
0.0
 11
467.1960007398908
 21
-37.56253761148798
 31
0.0
  0
LINE
  5
FE9
330
2
100
AcDbEntity
  8
1
100
AcDbLine
 10
468.9255126828753
 20
-32.34857274769419
 30
0.0
 11
466.0134631145852
 21
-31.28358912306372
 31
0.0
  0
LINE
  5
FEA
330
2
100
AcDbEntity
  8
1
100
AcDbLine
 10
471.5055429567959
 20
-34.86719216826017
 30
0.0
 11
471.6406855558274
 21
-35.50298810873707
 31
0.0
  0
LINE
  5
FEB
330
2
100
AcDbEntity
  8
1
100
AcDbLine
 10
470.8818078843425
 20
-31.93274936605869
 30
0.0
 11
468.925512682875
 21
-32.34857274769419
 31
0.0
  0
LINE
  5
FEC
330
2
100
AcDbEntity
  8
1
100
AcDbLine
 10
470.8818078843425
 20
-31.93274936605869
 30
0.0
 11
470.7466652853111
 21
-31.29695342558174
 31
0.0
  0
LINE
  5
FED
330
2
100
AcDbEntity
  8
1
100
AcDbLine
 10
471.5055429567959
 20
-34.86719216826017
 30
0.0
 11
469.5492477553282
 21
-35.28301554989568
 31
0.0
  0
LINE
  5
FEE
330
2
100
AcDbEntity
  8
1
100
AcDbLine
 10
475.3018953436512
 20
-32.52674166572481
 30
0.0
 11
475.7489054789095
 21
-34.62975900730251
 31
0.0
  0
LINE
  5
FEF
330
2
100
AcDbEntity
  8
1
100
AcDbLine
 10
475.3018953436512
 20
-32.52674166572481
 30
0.0
 11
474.854885208393
 21
-30.42372432414712
 31
0.0
  0
CIRCLE
  5
FF0
330
2
100
AcDbEntity
  8
1
100
AcDbCircle
 10
527.9446595191366
 20
-55.8706876080754
 30
0.0
 40
2.5
  0
ARC
  5
FF1
330
2
100
AcDbEntity
  8
0
100
AcDbCircle
 10
527.9446595191366
 20
-55.8706876080754
 30
0.0
 40
3.0
100
AcDbArc
 50
184.0973493470374
 51
108.6168730947081
  0
LINE
  5
FF2
330
2
100
AcDbEntity
  8
1
100
AcDbLine
 10
536.0446595191365
 20
-71.8706876080754
 30
0.0
 11
519.8446595191365
 21
-71.8706876080754
 31
0.0
  0
LINE
  5
FF3
330
2
100
AcDbEntity
  8
1
100
AcDbLine
 10
536.0446595191365
 20
-63.8706876080754
 30
0.0
 11
519.8446595191365
 21
-63.8706876080754
 31
0.0
  0
LINE
  5
FF4
330
2
100
AcDbEntity
  8
3
100
AcDbLine
 10
532.1856195191364
 20
-55.8706876080754
 30
0.0
 11
523.7156095191364
 21
-55.8706876080754
 31
0.0
  0
LINE
  5
FF5
330
2
100
AcDbEntity
  8
1
100
AcDbLine
 10
519.8446595191365
 20
-48.3706876080754
 30
0.0
 11
536.0446595191365
 21
-48.3706876080754
 31
0.0
  0
LINE
  5
FF6
330
2
100
AcDbEntity
  8
1
100
AcDbLine
 10
520.3948250838659
 20
-41.12068760807534
 30
0.0
 11
535.494493954407
 21
-41.12068760807534
 31
0.0
  0
LINE
  5
FF7
330
2
100
AcDbEntity
  8
1
100
AcDbLine
 10
516.3953205908357
 20
-6.849599307986807
 30
0.0
 11
475.2699955712556
 21
16.89411816257853
 31
0.0
  0
LINE
  5
FF8
330
2
100
AcDbEntity
  8
1
100
AcDbLine
 10
478.7199955712557
 20
22.86969344869121
 30
0.0
 11
463.7199955712556
 21
-3.111068664841923
 31
0.0
  0
LINE
  5
FF9
330
2
100
AcDbEntity
  8
1
100
AcDbLine
 10
489.5594147336989
 20
8.644118162578536
 30
0.0
 11
481.4594147336989
 21
-5.385493378729336
 31
0.0
  0
LINE
  5
FFA
330
2
100
AcDbEntity
  8
1
100
AcDbLine
 10
467.9000356266771
 20
-5.524415916062935
 30
0.0
 11
463.7199955712556
 21
-3.111068664841923
 31
0.0
  0
CIRCLE
  5
FFB
330
2
100
AcDbEntity
  8
1
100
AcDbCircle
 10
478.5812115034234
 20
5.629312391924656
 30
0.0
 40
2.5
  0
ARC
  5
FFC
330
2
100
AcDbEntity
  8
0
100
AcDbCircle
 10
478.5812115034234
 20
5.629312391924656
 30
0.0
 40
3.0
100
AcDbArc
 50
314.744408135255
 51
219.1505036193
  0
LINE
  5
FFD
330
2
100
AcDbEntity
  8
3
100
AcDbLine
 10
480.8095895191364
 20
9.920672391924597
 30
0.0
 11
476.0117995191365
 21
1.421222391924573
 31
0.0
  0
LINE
  5
FFE
330
2
100
AcDbEntity
  8
1
100
AcDbLine
 10
496.4876179639744
 20
4.644118162578536
 30
0.0
 11
488.3876179639744
 21
-9.385493378729336
 31
0.0
  0
CIRCLE
  5
FFF
330
2
100
AcDbEntity
  8
1
100
AcDbCircle
 10
499.3658211942499
 20
-6.370687608075343
 30
0.0
 40
2.5
  0
ARC
  5
1000
330
2
100
AcDbEntity
  8
0
100
AcDbCircle
 10
499.3658211942499
 20
-6.370687608075343
 30
0.0
 40
3.0
100
AcDbArc
 50
311.3831269052921
 51
235.9026506529624
  0
LINE
  5
1001
330
2
100
AcDbEntity
  8
3
100
AcDbLine
 10
501.7495395191365
 20
-2.506407608075448
 30
0.0
 11
497.0439395191365
 21
-10.34378760807544
 31
0.0
  0
LINE
  5
1002
330
2
100
AcDbEntity
  8
1
100
AcDbLine
 10
482.9000356266772
 20
20.45634619747023
 30
0.0
 11
478.7199955712557
 21
22.86969344869121
 31
0.0
  0
ARC
  5
1003
330
2
100
AcDbEntity
  8
1
100
AcDbCircle
 10
527.9446595191366
 20
-22.87068760807534
 30
0.0
 40
19.75
100
AcDbArc
 50
52.4743688204672
 51
127.5256311795328
  0
ARC
  5
1004
330
2
100
AcDbEntity
  8
1
100
AcDbCircle
 10
527.9446595191366
 20
33.12931239192463
 30
0.0
 40
7.5
100
AcDbArc
 50
183.839644235983
 51
356.1603557640161
  0
CIRCLE
  5
1005
330
2
100
AcDbEntity
  8
1
100
AcDbCircle
 10
527.9446595191366
 20
33.12931239192463
 30
0.0
 40
4.5
  0
LINE
  5
1006
330
2
100
AcDbEntity
  8
1
100
AcDbLine
 10
520.4614942213042
 20
32.62708024906746
 30
0.0
 11
520.4614942213042
 21
39.17971317326786
 31
0.0
  0
LINE
  5
1007
330
2
100
AcDbEntity
  8
1
100
AcDbLine
 10
535.4278248169688
 20
32.62708024906746
 30
0.0
 11
535.4278248169688
 21
39.17971317326786
 31
0.0
  0
LINE
  5
1008
330
2
100
AcDbEntity
  8
1
100
AcDbLine
 10
639.5067118706918
 20
-3.120687608075343
 30
0.0
 11
639.5067118706918
 21
-41.12068760807534
 31
0.0
  0
ARC
  5
1009
330
2
100
AcDbEntity
  8
1
100
AcDbCircle
 10
527.9446595191366
 20
-22.87068760807534
 30
0.0
 40
62.5
100
AcDbArc
 50
351.835497468469
 51
22.55352153420124
  0
LINE
  5
100A
330
2
100
AcDbEntity
  8
1
100
AcDbLine
 10
641.5067118706917
 20
-1.383449036593617
 30
0.0
 11
641.5067118706916
 21
-85.37068760807533
 31
0.0
  0
ARC
  5
100B
330
2
100
AcDbEntity
  8
1
100
AcDbCircle
 10
527.9446595191366
 20
-22.87068760807534
 30
0.0
 40
62.5
100
AcDbArc
 50
312.217386227442
 51
345.9631794570624
  0
ARC
  5
100C
330
2
100
AcDbEntity
  8
1
100
AcDbCircle
 10
576.4420821310651
 20
-50.87068760807529
 30
0.0
 40
7.5
100
AcDbArc
 50
63.83964423598437
 51
236.1603557640159
  0
LINE
  5
100D
330
2
100
AcDbEntity
  8
1
100
AcDbLine
 10
579.7487189856699
 20
-44.13896028800581
 30
0.0
 11
585.4234655597017
 21
-47.41527675010599
 31
0.0
  0
LINE
  5
100E
330
2
100
AcDbEntity
  8
3
100
AcDbLine
 10
568.6231431689113
 20
-46.35642109349862
 30
0.0
 11
583.3858218828801
 21
-54.87965762296846
 31
0.0
  0
LINE
  5
100F
330
2
100
AcDbEntity
  8
1
100
AcDbLine
 10
572.2655536878376
 20
-57.10018278528764
 30
0.0
 11
577.9403002618695
 21
-60.37649924738781
 31
0.0
  0
CIRCLE
  5
1010
330
2
100
AcDbEntity
  8
1
100
AcDbCircle
 10
576.4446595191365
 20
-50.8706876080754
 30
0.0
 40
4.5
  0
LINE
  5
1011
330
2
100
AcDbEntity
  8
1
100
AcDbLine
 10
561.5137124829033
 20
-64.63632759019254
 30
0.0
 11
563.1114738576798
 21
-63.19769678652102
 31
0.0
  0
LINE
  5
1012
330
2
100
AcDbEntity
  8
1
100
AcDbLine
 10
559.915951108127
 20
-66.07495839386411
 30
0.0
 11
562.7262996548341
 21
-69.19616666086927
 31
0.0
  0
LINE
  5
1013
330
2
100
AcDbEntity
  8
3
100
AcDbLine
 10
558.2950343387345
 20
-61.06162336207137
 30
0.0
 11
567.946168828191
 21
-71.78029410836154
 31
0.0
  0
LINE
  5
1014
330
2
100
AcDbEntity
  8
1
100
AcDbLine
 10
561.5137124829033
 20
-64.63632759019254
 30
0.0
 11
559.915951108127
 21
-66.07495839386411
 31
0.0
  0
LINE
  5
1015
330
2
100
AcDbEntity
  8
1
100
AcDbLine
 10
565.4387782678268
 20
-66.75383994765929
 30
0.0
 11
565.921822404387
 21
-66.31890505352607
 31
0.0
  0
LINE
  5
1016
330
2
100
AcDbEntity
  8
1
100
AcDbLine
 10
566.7770394805443
 20
-68.24012959861398
 30
0.0
 11
569.941244097991
 21
-69.15823327330933
 31
0.0
  0
LINE
  5
1017
330
2
100
AcDbEntity
  8
1
100
AcDbLine
 10
565.4387782678268
 20
-66.75383994765929
 30
0.0
 11
566.7770394805444
 21
-68.24012959861409
 31
0.0
  0
LINE
  5
1018
330
2
100
AcDbEntity
  8
1
100
AcDbLine
 10
564.5476050041121
 20
-70.24752141769062
 30
0.0
 11
565.0657344628025
 21
-73.31398501503594
 31
0.0
  0
LINE
  5
1019
330
2
100
AcDbEntity
  8
1
100
AcDbLine
 10
563.2093437913945
 20
-68.76123176673593
 30
0.0
 11
562.7262996548341
 21
-69.19616666086915
 31
0.0
  0
LINE
  5
101A
330
2
100
AcDbEntity
  8
1
100
AcDbLine
 10
563.2093437913945
 20
-68.76123176673593
 30
0.0
 11
564.5476050041122
 21
-70.24752141769074
 31
0.0
  0
LINE
  5
101B
330
2
100
AcDbEntity
  8
1
100
AcDbLine
 10
563.1114738576798
 20
-63.19769678652102
 30
0.0
 11
565.921822404387
 21
-66.318905053526
 31
0.0
  0
LINE
  5
101C
330
2
100
AcDbEntity
  8
1
100
AcDbLine
 10
580.930477984471
 20
-30.91279812451401
 30
0.0
 11
585.0386979075531
 21
-31.78602722594852
 31
0.0
  0
LINE
  5
101D
330
2
100
AcDbEntity
  8
3
100
AcDbLine
 10
575.6567936125502
 20
-31.9898741860454
 30
0.0
 11
589.9737241546024
 21
-35.03303171573246
 31
0.0
  0
LINE
  5
101E
330
2
100
AcDbEntity
  8
1
100
AcDbLine
 10
584.2798202360682
 20
-35.35626596862707
 30
0.0
 11
586.236115437536
 21
-35.77208935026258
 31
0.0
  0
LINE
  5
101F
330
2
100
AcDbEntity
  8
1
100
AcDbLine
 10
584.2798202360682
 20
-35.35626596862707
 30
0.0
 11
584.1446776370367
 21
-35.99206190910397
 31
0.0
  0
LINE
  5
1020
330
2
100
AcDbEntity
  8
1
100
AcDbLine
 10
580.4834678492129
 20
-33.01581546609171
 30
0.0
 11
580.930477984471
 21
-30.91279812451401
 31
0.0
  0
LINE
  5
1021
330
2
100
AcDbEntity
  8
1
100
AcDbLine
 10
580.4834678492129
 20
-33.01581546609171
 30
0.0
 11
580.0364577139546
 21
-35.11883280766941
 31
0.0
  0
LINE
  5
1022
330
2
100
AcDbEntity
  8
1
100
AcDbLine
 10
580.0364577139546
 20
-35.11883280766941
 30
0.0
 11
584.1446776370367
 21
-35.99206190910408
 31
0.0
  0
LINE
  5
1023
330
2
100
AcDbEntity
  8
1
100
AcDbLine
 10
586.2361154375357
 20
-35.77208935026252
 30
0.0
 11
588.5784131011062
 21
-38.02977486823007
 31
0.0
  0
LINE
  5
1024
330
2
100
AcDbEntity
  8
1
100
AcDbLine
 10
586.8598505099889
 20
-32.83764654806109
 30
0.0
 11
589.8725792092798
 21
-31.73584293690793
 31
0.0
  0
LINE
  5
1025
330
2
100
AcDbEntity
  8
1
100
AcDbLine
 10
584.9035553085216
 20
-32.42182316642558
 30
0.0
 11
585.0386979075531
 21
-31.78602722594863
 31
0.0
  0
LINE
  5
1026
330
2
100
AcDbEntity
  8
1
100
AcDbLine
 10
584.9035553085216
 20
-32.42182316642558
 30
0.0
 11
586.8598505099892
 21
-32.83764654806109
 31
0.0
  0
LINE
  5
1027
330
2
100
AcDbEntity
  8
1
100
AcDbLine
 10
639.5067118706918
 20
-41.12068760807534
 30
0.0
 11
641.5067118706917
 21
-41.12068760807534
 31
0.0
  0
LINE
  5
1028
330
2
100
AcDbEntity
  8
1
100
AcDbLine
 10
592.1693234670173
 20
-3.111068664841866
 30
0.0
 11
577.1693234670173
 21
22.86969344869127
 31
0.0
  0
LINE
  5
1029
330
2
100
AcDbEntity
  8
1
100
AcDbLine
 10
574.4299043045741
 20
-5.385493378729165
 30
0.0
 11
566.3299043045741
 21
8.644118162578706
 31
0.0
  0
LINE
  5
102A
330
2
100
AcDbEntity
  8
1
100
AcDbLine
 10
567.5017010742985
 20
-9.385493378729165
 30
0.0
 11
559.4017010742986
 21
4.644118162578706
 31
0.0
  0
CIRCLE
  5
102B
330
2
100
AcDbEntity
  8
1
100
AcDbCircle
 10
556.523497844023
 20
-6.370687608075286
 30
0.0
 40
2.5
  0
ARC
  5
102C
330
2
100
AcDbEntity
  8
0
100
AcDbCircle
 10
556.523497844023
 20
-6.370687608075286
 30
0.0
 40
3.0
100
AcDbArc
 50
191.3831269052901
 51
115.9026506529628
  0
LINE
  5
102D
330
2
100
AcDbEntity
  8
3
100
AcDbLine
 10
558.6089495191365
 20
-10.14785760807541
 30
0.0
 11
554.2954795191365
 21
-2.702337608075424
 31
0.0
  0
LINE
  5
102E
330
2
100
AcDbEntity
  8
1
100
AcDbLine
 10
587.9892834115959
 20
-5.524415916062878
 30
0.0
 11
592.1693234670173
 21
-3.111068664841866
 31
0.0
  0
CIRCLE
  5
102F
330
2
100
AcDbEntity
  8
1
100
AcDbCircle
 10
577.3081075348496
 20
5.629312391924713
 30
0.0
 40
2.5
  0
ARC
  5
1030
330
2
100
AcDbEntity
  8
0
100
AcDbCircle
 10
577.3081075348496
 20
5.629312391924713
 30
0.0
 40
3.0
100
AcDbArc
 50
194.7444081352539
 51
99.15050361930079
  0
LINE
  5
1031
330
2
100
AcDbEntity
  8
3
100
AcDbLine
 10
579.6004995191365
 20
1.639162391924571
 30
0.0
 11
575.2388695191365
 21
9.484802391924574
 31
0.0
  0
LINE
  5
1032
330
2
100
AcDbEntity
  8
1
100
AcDbLine
 10
572.9892834115958
 20
20.45634619747028
 30
0.0
 11
577.1693234670173
 21
22.86969344869127
 31
0.0
  0
LINE
  5
1033
330
2
100
AcDbEntity
  8
1
100
AcDbLine
 10
641.5067118706919
 20
39.62931239192463
 30
0.0
 11
641.5067118706917
 21
-1.383449036593617
 31
0.0
  0
LINE
  5
1034
330
2
100
AcDbEntity
  8
1
100
AcDbLine
 10
639.5067118706918
 20
-3.120687608075343
 30
0.0
 11
641.5067118706917
 21
-3.1206876080754
 31
0.0
  0
LINE
  5
1035
330
2
100
AcDbEntity
  8
1
100
AcDbLine
 10
717.5067118706918
 20
39.62931239192463
 30
0.0
 11
717.5067118706918
 21
-85.37068760807533
 31
0.0
  0
LINE
  5
1036
330
2
100
AcDbEntity
  8
1
100
AcDbLine
 10
665.5067118706917
 20
22.86969344869124
 30
0.0
 11
665.5067118706917
 21
-3.111068664841866
 31
0.0
  0
LINE
  5
1037
330
2
100
AcDbEntity
  8
0
  6
DASHED
 62
     5
370
    15
100
AcDbLine
 10
664.0067118706918
 20
-88.3706876080754
 30
0.0
 11
644.5067118706917
 21
-88.3706876080754
 31
0.0
  0
LINE
  5
1038
330
2
100
AcDbEntity
  8
0
  6
DASHED
 62
     5
370
    15
100
AcDbLine
 10
664.0067118706918
 20
-33.67068760807518
 30
0.0
 11
661.8615554040222
 21
-31.87068760807523
 31
0.0
  0
LINE
  5
1039
330
2
100
AcDbEntity
  8
0
  6
DASHED
 62
     5
370
    15
100
AcDbLine
 10
664.0067118706918
 20
-88.3706876080754
 30
0.0
 11
664.0067118706918
 21
-33.67068760807518
 31
0.0
  0
LINE
  5
103A
330
2
100
AcDbEntity
  8
0
  6
DASHED
 62
     5
370
    15
100
AcDbLine
 10
647.5067118706918
 20
-63.87068760807534
 30
0.0
 11
644.5067118706913
 21
-63.87068760807534
 31
0.0
  0
LINE
  5
103B
330
2
100
AcDbEntity
  8
0
  6
DASHED
 62
     5
370
    15
100
AcDbLine
 10
644.5067118706916
 20
-71.87068760807534
 30
0.0
 11
647.5067118706915
 21
-71.87068760807534
 31
0.0
  0
LINE
  5
103C
330
2
100
AcDbEntity
  8
0
  6
DASHED
 62
     5
370
    15
100
AcDbLine
 10
647.5067118706918
 20
-71.87068760807534
 30
0.0
 11
647.5067118706918
 21
-63.87068760807534
 31
0.0
  0
LINE
  5
103D
330
2
100
AcDbEntity
  8
0
  6
DASHED
 62
     5
370
    15
100
AcDbLine
 10
661.8615554040222
 20
-31.87068760807523
 30
0.0
 11
644.5067118706913
 21
-31.87068760807534
 31
0.0
  0
LINE
  5
103E
330
2
100
AcDbEntity
  8
0
  6
DASHED
 62
     5
370
    15
100
AcDbLine
 10
644.5067118706913
 20
-63.87068760807534
 30
0.0
 11
644.5067118706913
 21
-31.87068760807534
 31
0.0
  0
LINE
  5
103F
330
2
100
AcDbEntity
  8
0
  6
DASHED
 62
     5
370
    15
100
AcDbLine
 10
644.5067118706913
 20
-88.3706876080754
 30
0.0
 11
644.5067118706913
 21
-71.87068760807534
 31
0.0
  0
DIMENSION
  5
1040
330
2
100
AcDbEntity
  8
AM_5
100
AcDbDimension
  2
*D39
 10
542.9446595191365
 20
-111.6882447200981
 30
0.0
 11
527.9446595191366
 21
-108.6882447200981
 31
0.0
 70
    32
 71
     5
 42
30.0
  3
STANDARD$0
100
AcDbAlignedDimension
 13
512.9446595191366
 23
-88.3706876080754
 33
0.0
 14
542.9446595191365
 24
-88.3706876080754
 34
0.0
100
AcDbRotatedDimension
1001
ACAD
1000
DSTYLE
1002
{
1070
   147
1040
1.5
1070
   340
1005
C
1070
     3
1000
 
1070
    41
1040
3.0
1070
    42
1040
1.0
1070
    44
1040
1.0
1070
    47
1040
0.1
1070
    48
1040
0.1
1070
    73
1070
     0
1070
    77
1070
     1
1070
    78
1070
     8
1070
   140
1040
3.0
1070
   141
1040
1.0
1070
   145
1040
1.0
1070
   172
1070
     1
1070
   174
1070
     1
1070
   176
1070
     0
1070
   177
1070
     0
1070
   178
1070
     0
1070
   272
1070
     8
1002
}
  0
DIMENSION
  5
1041
330
2
100
AcDbEntity
  8
AM_5
100
AcDbDimension
  2
*D40
 10
536.0446595191365
 20
-102.1367712882236
 30
0.0
 11
527.9446595191365
 21
-99.13647601263303
 31
0.0
 70
    32
 71
     5
 42
16.20000000000004
  3
STANDARD$0
100
AcDbAlignedDimension
 13
519.8446595191365
 23
-88.3706876080754
 33
0.0
 14
536.0446595191365
 24
-88.3706876080754
 34
0.0
100
AcDbRotatedDimension
1001
ACAD
1000
DSTYLE
1002
{
1070
     3
1000
 
1070
    41
1040
3.0
1070
    42
1040
1.0
1070
    44
1040
1.0
1070
    47
1040
0.1
1070
    48
1040
0.1
1070
    73
1070
     0
1070
    77
1070
     1
1070
    78
1070
     8
1070
   140
1040
3.0
1070
   141
1040
1.0
1070
   145
1040
1.0
1070
   147
1040
1.5
1070
   172
1070
     1
1070
   174
1070
     1
1070
   272
1070
     8
1070
   340
1005
C
1002
}
  0
DIMENSION
  5
1042
330
2
100
AcDbEntity
  8
AM_5
100
AcDbDimension
  2
*D41
 10
587.9141845033866
 20
-63.8706876080754
 30
0.0
 11
584.9141845033866
 21
-59.87068760807531
 31
0.0
 70
    32
 71
     5
 42
8.0
  3
STANDARD$0
100
AcDbAlignedDimension
 13
532.1856195191364
 23
-55.8706876080754
 33
0.0
 14
536.0446595191365
 24
-63.8706876080754
 34
0.0
 50
90.0
100
AcDbRotatedDimension
1001
ACAD
1000
DSTYLE
1002
{
1070
     3
1000
 
1070
    41
1040
3.0
1070
    42
1040
1.0
1070
    44
1040
1.0
1070
    47
1040
0.1
1070
    48
1040
0.1
1070
    73
1070
     0
1070
    77
1070
     1
1070
    78
1070
     8
1070
   140
1040
3.0
1070
   141
1040
1.0
1070
   145
1040
1.0
1070
   147
1040
1.5
1070
   172
1070
     1
1070
   174
1070
     1
1070
   272
1070
     8
1070
   340
1005
C
1002
}
  0
DIMENSION
  5
1043
330
2
100
AcDbEntity
  8
AM_5
100
AcDbDimension
  2
*D42
 10
596.1086079886858
 20
-79.87068760807542
 30
0.0
 11
593.1083127130952
 21
-67.87068760807533
 31
0.0
 70
    32
 71
     5
 42
24.00000000000001
  3
STANDARD$0
100
AcDbAlignedDimension
 13
532.1856195191364
 23
-55.8706876080754
 33
0.0
 14
532.1856195191364
 24
-79.8706876080754
 34
0.0
 50
90.0
100
AcDbRotatedDimension
1001
ACAD
1000
DSTYLE
1002
{
1070
     3
1000
 
1070
    41
1040
3.0
1070
    42
1040
1.0
1070
    44
1040
1.0
1070
    47
1040
0.1
1070
    48
1040
0.1
1070
    73
1070
     0
1070
    77
1070
     1
1070
    78
1070
     8
1070
   140
1040
3.0
1070
   141
1040
1.0
1070
   145
1040
1.0
1070
   147
1040
1.5
1070
   172
1070
     1
1070
   174
1070
     1
1070
   272
1070
     8
1070
   340
1005
C
1002
}
  0
DIMENSION
  5
1044
330
2
100
AcDbEntity
  8
AM_5
100
AcDbDimension
  2
*D43
 10
596.1086079886858
 20
-88.37068760807541
 30
0.0
 11
593.1086079886859
 21
-84.12068760807533
 31
0.0
 70
    32
 71
     5
 42
8.5
  3
STANDARD$0
100
AcDbAlignedDimension
 13
531.9566995191364
 23
-79.8706876080754
 33
0.0
 14
542.9446595191365
 24
-88.3706876080754
 34
0.0
 50
90.0
100
AcDbRotatedDimension
1001
ACAD
1000
DSTYLE
1002
{
1070
     3
1000
 
1070
    41
1040
3.0
1070
    42
1040
1.0
1070
    44
1040
1.0
1070
    47
1040
0.1
1070
    48
1040
0.1
1070
    73
1070
     0
1070
    77
1070
     1
1070
    78
1070
     8
1070
   140
1040
3.0
1070
   141
1040
1.0
1070
   145
1040
1.0
1070
   147
1040
1.5
1070
   172
1070
     1
1070
   174
1070
     1
1070
   272
1070
     8
1070
   340
1005
C
1002
}
  0
DIMENSION
  5
1045
330
2
100
AcDbEntity
  8
AM_5
100
AcDbDimension
  2
*D44
 10
608.4792478911169
 20
-88.37068760807543
 30
0.0
 11
605.479247891117
 21
-55.62068760807528
 31
0.0
 70
    32
 71
     5
 42
65.50000000000007
  3
STANDARD$0
100
AcDbAlignedDimension
 13
592.1829795191364
 23
-22.87068760807534
 33
0.0
 14
542.9446595191365
 24
-88.3706876080754
 34
0.0
 50
90.0
100
AcDbRotatedDimension
1001
ACAD
1000
DSTYLE
1002
{
1070
     3
1000
 
1070
    41
1040
3.0
1070
    42
1040
1.0
1070
    44
1040
1.0
1070
    47
1040
0.1
1070
    48
1040
0.1
1070
    73
1070
     0
1070
    77
1070
     1
1070
    78
1070
     8
1070
   140
1040
3.0
1070
   141
1040
1.0
1070
   145
1040
1.0
1070
   147
1040
1.5
1070
   172
1070
     1
1070
   174
1070
     1
1070
   272
1070
     8
1070
   340
1005
C
1002
}
  0
DIMENSION
  5
1046
330
2
100
AcDbEntity
  8
AM_5
100
AcDbDimension
  2
*D45
 10
641.5067118706919
 20
50.87725500268144
 30
0.0
 11
640.5067118706917
 21
53.87755027827199
 31
0.0
 70
    32
 71
     5
 42
2.000000000000113
  3
STANDARD$0
100
AcDbAlignedDimension
 13
639.5067118706918
 23
-3.120687608075343
 33
0.0
 14
641.5067118706919
 24
39.62931239192463
 34
0.0
 50
359.9999999999984
100
AcDbRotatedDimension
1001
ACAD
1000
DSTYLE
1002
{
1070
     3
1000
 
1070
    41
1040
3.0
1070
    42
1040
1.0
1070
    44
1040
1.0
1070
    47
1040
0.1
1070
    48
1040
0.1
1070
    73
1070
     0
1070
    77
1070
     1
1070
    78
1070
     8
1070
   140
1040
3.0
1070
   141
1040
1.0
1070
   145
1040
1.0
1070
   147
1040
1.5
1070
   172
1070
     1
1070
   174
1070
     1
1070
   272
1070
     8
1070
   340
1005
C
1002
}
  0
DIMENSION
  5
1047
330
2
100
AcDbEntity
  8
AM_5
100
AcDbDimension
  2
*D46
 10
717.5067118706918
 20
50.87725500268729
 30
0.0
 11
679.5067118706917
 21
53.87725500268729
 31
0.0
 70
    32
 71
     5
 42
75.99999999999988
  3
STANDARD$0
100
AcDbAlignedDimension
 13
641.5067118706919
 23
39.62931239192463
 33
0.0
 14
717.5067118706918
 24
39.62931239192463
 34
0.0
100
AcDbRotatedDimension
1001
ACAD
1000
DSTYLE
1002
{
1070
     3
1000
 
1070
    41
1040
3.0
1070
    42
1040
1.0
1070
    44
1040
1.0
1070
    47
1040
0.1
1070
    48
1040
0.1
1070
    73
1070
     0
1070
    77
1070
     1
1070
    78
1070
     8
1070
   140
1040
3.0
1070
   141
1040
1.0
1070
   145
1040
1.0
1070
   147
1040
1.5
1070
   172
1070
     1
1070
   174
1070
     1
1070
   272
1070
     8
1070
   340
1005
C
1002
}
  0
DIMENSION
  5
1048
330
2
100
AcDbEntity
  8
AM_5
100
AcDbDimension
  2
*D47
 10
644.5067118706917
 20
-98.07307250412335
 30
0.0
 11
643.0067118706918
 21
-95.07307250412337
 31
0.0
 70
    32
 71
     5
 42
3.000000000000113
  3
STANDARD$0
100
AcDbAlignedDimension
 13
641.5067118706916
 23
-85.37068760807533
 33
0.0
 14
644.5067118706917
 24
-88.3706876080754
 34
0.0
100
AcDbRotatedDimension
1001
ACAD
1000
DSTYLE
1002
{
1070
     3
1000
 
1070
    41
1040
3.0
1070
    42
1040
1.0
1070
    44
1040
1.0
1070
    47
1040
0.1
1070
    48
1040
0.1
1070
    73
1070
     0
1070
    77
1070
     1
1070
    78
1070
     8
1070
   140
1040
3.0
1070
   141
1040
1.0
1070
   145
1040
1.0
1070
   147
1040
1.5
1070
   172
1070
     1
1070
   174
1070
     1
1070
   272
1070
     8
1070
   340
1005
C
1002
}
  0
DIMENSION
  5
1049
330
2
100
AcDbEntity
  8
AM_5
100
AcDbDimension
  2
*D48
 10
644.5067118706917
 20
-106.5546533352393
 30
0.0
 11
646.0067118706917
 21
-103.5546533352393
 31
0.0
 70
    32
 71
     5
 42
3.0
  3
STANDARD$0
100
AcDbAlignedDimension
 13
647.5067118706918
 23
-71.87068760807534
 33
0.0
 14
644.5067118706917
 24
-88.3706876080754
 34
0.0
100
AcDbRotatedDimension
1001
ACAD
1000
DSTYLE
1002
{
1070
     3
1000
 
1070
    41
1040
3.0
1070
    42
1040
1.0
1070
    44
1040
1.0
1070
    47
1040
0.1
1070
    48
1040
0.1
1070
    73
1070
     0
1070
    77
1070
     1
1070
    78
1070
     8
1070
   140
1040
3.0
1070
   141
1040
1.0
1070
   145
1040
1.0
1070
   147
1040
1.5
1070
   172
1070
     1
1070
   174
1070
     1
1070
   272
1070
     8
1070
   340
1005
C
1002
}
  0
DIMENSION
  5
104A
330
2
100
AcDbEntity
  8
AM_5
100
AcDbDimension
  2
*D49
 10
717.5067118706918
 20
-98.07307250412344
 30
0.0
 11
690.7567118706918
 21
-95.07307250412344
 31
0.0
 70
    32
 71
     5
 42
53.5
  3
STANDARD$0
100
AcDbAlignedDimension
 13
664.0067118706918
 23
-88.3706876080754
 33
0.0
 14
717.5067118706918
 24
-85.37068760807533
 34
0.0
100
AcDbRotatedDimension
1001
ACAD
1000
DSTYLE
1002
{
1070
     3
1000
 
1070
    41
1040
3.0
1070
    42
1040
1.0
1070
    44
1040
1.0
1070
    47
1040
0.1
1070
    48
1040
0.1
1070
    73
1070
     0
1070
    77
1070
     1
1070
    78
1070
     8
1070
   140
1040
3.0
1070
   141
1040
1.0
1070
   145
1040
1.0
1070
   147
1040
1.5
1070
   172
1070
     1
1070
   174
1070
     1
1070
   272
1070
     8
1070
   340
1005
C
1002
}
  0
DIMENSION
  5
104B
330
2
100
AcDbEntity
  8
AM_5
100
AcDbDimension
  2
*D50
 10
728.0776598197596
 20
-85.37068760807533
 30
0.0
 11
725.077364544169
 21
-22.87068760807525
 31
0.0
 70
    32
  1
%%C<>
 71
     5
 42
125.0
  3
STANDARD$0
100
AcDbAlignedDimension
 13
717.5067118706918
 23
39.62931239192463
 33
0.0
 14
717.5067118706918
 24
-85.37068760807533
 34
0.0
 50
90.0
100
AcDbRotatedDimension
1001
ACAD
1000
DSTYLE
1002
{
1070
     3
1000
 
1070
    41
1040
3.0
1070
    42
1040
1.0
1070
    44
1040
1.0
1070
    47
1040
0.1
1070
    48
1040
0.1
1070
    73
1070
     0
1070
    77
1070
     1
1070
    78
1070
     8
1070
   140
1040
3.0
1070
   141
1040
1.0
1070
   145
1040
1.0
1070
   147
1040
1.5
1070
   172
1070
     1
1070
   174
1070
     1
1070
   272
1070
     8
1070
   340
1005
C
1002
}
  0
LEADER
  5
104C
330
2
100
AcDbEntity
  8
AM_5
100
AcDbLeader
  3
STANDARD
 76
     3
 10
524.4014327144103
 20
35.90339671116766
 30
0.0
 10
518.9699748282678
 20
48.32282088617787
 30
0.0
 10
492.0101614623423
 20
48.32282088617787
 30
0.0
1001
ACAD
1000
DSTYLE
1002
{
1070
     3
1000
 
1070
    41
1040
3.0
1070
    42
1040
1.0
1070
    44
1040
1.0
1070
    47
1040
0.1
1070
    48
1040
0.1
1070
    73
1070
     0
1070
    77
1070
     1
1070
    78
1070
     8
1070
   140
1040
3.0
1070
   141
1040
1.0
1070
   145
1040
1.0
1070
   147
1040
1.5
1070
   172
1070
     1
1070
   174
1070
     1
1070
   272
1070
     8
1070
   340
1005
C
1002
}
  0
LEADER
  5
104D
330
2
100
AcDbEntity
  8
AM_5
100
AcDbLeader
  3
STANDARD
 76
     3
 10
578.5790733942735
 20
8.346782867234253
 30
0.0
 10
587.0664342931465
 20
27.80217005221792
 30
0.0
 10
611.6209348319016
 20
27.80217005221792
 30
0.0
1001
ACAD
1000
DSTYLE
1002
{
1070
     3
1000
 
1070
    41
1040
3.0
1070
    42
1040
1.0
1070
    44
1040
1.0
1070
    47
1040
0.1
1070
    48
1040
0.1
1070
    73
1070
     0
1070
    77
1070
     1
1070
    78
1070
     8
1070
   140
1040
3.0
1070
   141
1040
1.0
1070
   145
1040
1.0
1070
   147
1040
1.5
1070
   172
1070
     1
1070
   174
1070
     1
1070
   272
1070
     8
1070
   340
1005
C
1002
}
  0
MTEXT
  5
104E
330
2
100
AcDbEntity
  8
AM_5
100
AcDbMText
 10
495.9723775215871
 20
53.15138672969308
 30
0.0
 40
3.0
 41
26.95981336592547
 71
     1
 72
     5
  1
3-%%C8.5thru
  7
CHINA
 73
     1
 44
1.0
  0
MTEXT
  5
104F
330
2
100
AcDbEntity
  8
AM_5
100
AcDbMText
 10
587.7932286950781
 20
32.63073589573313
 30
0.0
 40
3.0
 41
26.95981336592547
 71
     1
 72
     5
  1
M6x1.0x12dp
  7
CHINA
 73
     1
 44
1.0
  0
ENDSEC
  0
SECTION
  2
OBJECTS
  0
DICTIONARY
  5
1A
330
0
100
AcDbDictionary
281
     1
  3
ACAD_COLOR
350
30F
  3
ACAD_GROUP
350
18
  3
ACAD_LAYOUT
350
CC
  3
ACAD_MATERIAL
350
30E
  3
ACAD_MLINESTYLE
350
19
  3
ACAD_PLOTSETTINGS
350
CD
  3
ACAD_PLOTSTYLENAME
350
CA
  3
ACAD_TABLESTYLE
350
310
  3
AcDbVariableDictionary
350
2AE
  3
AcmDictionary
350
269
  3
AMG
350
24F
  3
AMGSNAPSETTINGS
350
29E
  3
MAPISURF_MODULE
350
39E
  0
DICTIONARY
  5
40D
330
A
100
AcDbDictionary
280
     1
281
     1
  3
ACAD_LAYERSTATES
360
40E
  0
DICTIONARY
  5
226
330
2
100
AcDbDictionary
280
     1
281
     1
  3
ACAD_INDEX
360
2A5
  3
ACAD_LAYOUTSELFREF
360
2F3
  0
DICTIONARY
  5
228
330
7
100
AcDbDictionary
280
     1
281
     1
  3
ACAD_LAYOUTSELFREF
360
2F4
  0
DICTIONARY
  5
30F
102
{ACAD_REACTORS
330
1A
102
}
330
1A
100
AcDbDictionary
281
     1
  0
DICTIONARY
  5
18
102
{ACAD_REACTORS
330
1A
102
}
330
1A
100
AcDbDictionary
281
     1
  0
DICTIONARY
  5
CC
102
{ACAD_REACTORS
330
1A
102
}
330
1A
100
AcDbDictionary
281
     1
  3
Model
350
CE
  3
配置1
350
CF
  0
DICTIONARY
  5
30E
102
{ACAD_REACTORS
330
1A
102
}
330
1A
100
AcDbDictionary
281
     1
  0
DICTIONARY
  5
19
102
{ACAD_REACTORS
330
1A
102
}
330
1A
100
AcDbDictionary
281
     1
  3
STANDARD
350
1D
  0
DICTIONARY
  5
CD
102
{ACAD_REACTORS
330
1A
102
}
330
1A
100
AcDbDictionary
281
     1
  0
ACDBDICTIONARYWDFLT
  5
CA
102
{ACAD_REACTORS
330
1A
102
}
330
1A
100
AcDbDictionary
281
     1
  3
Normal
350
CB
100
AcDbDictionaryWithDefault
340
CB
1001
ACAD
1000
TREAT_AS_HARD
1070
     0
  0
DICTIONARY
  5
310
102
{ACAD_REACTORS
330
1A
102
}
330
1A
100
AcDbDictionary
281
     1
  3
Standard
350
311
  0
DICTIONARY
  5
2AE
102
{ACAD_REACTORS
330
1A
102
}
330
1A
100
AcDbDictionary
281
     1
  3
CTABLESTYLE
350
3F6
  3
DIMASSOC
350
2B0
  3
INDEXCTL
350
2AF
  0
DICTIONARY
  5
269
102
{ACAD_REACTORS
330
1A
102
}
330
1A
100
AcDbDictionary
281
     1
  3
AcmBOMDATA
350
3D0
  3
AcmStdDictionary
350
26F
  3
AMDTSECTSYM_ARROWCOLOR
350
3EA
  0
DICTIONARY
  5
24F
102
{ACAD_REACTORS
330
1A
102
}
330
1A
100
AcDbDictionary
281
     1
  3
AcMgSettings
350
250
  3
AMGLAYCFG
350
3DE
  0
DICTIONARY
  5
29E
102
{ACAD_REACTORS
330
1A
102
}
330
1A
100
AcDbDictionary
281
     1
  0
DICTIONARY
  5
40E
102
{ACAD_REACTORS
330
40D
102
}
330
40D
100
AcDbDictionary
281
     1
  0
DICTIONARY
  5
2A5
102
{ACAD_REACTORS
330
226
102
}
330
226
100
AcDbDictionary
281
     1
  3
*A1
350
2A6
  0
XRECORD
  5
2F3
102
{ACAD_REACTORS
330
226
102
}
330
226
100
AcDbXrecord
280
     1
340
2
  0
XRECORD
  5
2F4
102
{ACAD_REACTORS
330
228
102
}
330
228
100
AcDbXrecord
280
     1
340
7
  0
LAYOUT
  5
CE
102
{ACAD_REACTORS
330
CC
102
}
330
CC
100
AcDbPlotSettings
  1

  2
\\WINNT\EPSON Stylus Photo 750 單色
  4

  6

 40
0.0
 41
0.0
 42
0.0
 43
0.0
 44
0.0
 45
0.0
 46
0.0
 47
0.0
 48
0.0
 49
0.0
140
0.0
141
0.0
142
1.0
143
1.0
 70
 11952
 72
     0
 73
     1
 74
     0
  7

 75
     0
147
1.0
 76
     0
 77
     2
 78
   300
148
-1016.680816749764
149
103.0807414509828
100
AcDbLayout
  1
Model
 70
     1
 71
     0
 10
0.0
 20
0.0
 11
12.0
 21
9.0
 12
0.0
 22
0.0
 32
0.0
 14
0.0
 24
0.0
 34
0.0
 15
0.0
 25
0.0
 35
0.0
146
0.0
 13
0.0
 23
0.0
 33
0.0
 16
1.0
 26
0.0
 36
0.0
 17
0.0
 27
1.0
 37
0.0
 76
     0
330
2
  0
LAYOUT
  5
CF
102
{ACAD_REACTORS
330
CC
102
}
330
CC
100
AcDbPlotSettings
  1

  2
\\WINNT\EPSON Stylus Photo 750 單色
  4

  6

 40
0.0
 41
0.0
 42
0.0
 43
0.0
 44
0.0
 45
0.0
 46
0.0
 47
0.0
 48
0.0
 49
0.0
140
0.0
141
0.0
142
1.0
143
1.0
 70
   688
 72
     0
 73
     0
 74
     5
  7

 75
    16
147
1.0
 76
     0
 77
     2
 78
   300
148
0.0
149
0.0
100
AcDbLayout
  1
配置1
 70
     1
 71
     1
 10
0.0
 20
0.0
 11
12.0
 21
9.0
 12
0.0
 22
0.0
 32
0.0
 14
1.000000000000000E+20
 24
1.000000000000000E+20
 34
1.000000000000000E+20
 15
-1.000000000000000E+20
 25
-1.000000000000000E+20
 35
-1.000000000000000E+20
146
0.0
 13
0.0
 23
0.0
 33
0.0
 16
1.0
 26
0.0
 36
0.0
 17
0.0
 27
1.0
 37
0.0
 76
     0
330
7
  0
MLINESTYLE
  5
1D
102
{ACAD_REACTORS
330
19
102
}
330
19
100
AcDbMlineStyle
  2
STANDARD
 70
     0
  3

 62
   256
 51
90.0
 52
90.0
 71
     2
 49
0.5
 62
   256
  6
BYLAYER
 49
-0.5
 62
   256
  6
BYLAYER
  0
ACDBPLACEHOLDER
  5
CB
102
{ACAD_REACTORS
330
CA
102
}
330
CA
  0
TABLESTYLE
  5
311
102
{ACAD_REACTORS
330
310
102
}
330
310
100
AcDbTableStyle
  3
Standard
 70
     0
 71
     0
 40
0.06
 41
0.06
280
     0
281
     0
  7
STANDARD
140
0.18
170
     2
 62
     0
 63
     7
283
     0
274
    -2
284
     1
 64
     0
275
    -2
285
     1
 65
     0
276
    -2
286
     1
 66
     0
277
    -2
287
     1
 67
     0
278
    -2
288
     1
 68
     0
279
    -2
289
     1
 69
     0
  7
STANDARD
140
0.25
170
     5
 62
     0
 63
     7
283
     0
274
    -2
284
     1
 64
     0
275
    -2
285
     1
 65
     0
276
    -2
286
     1
 66
     0
277
    -2
287
     1
 67
     0
278
    -2
288
     1
 68
     0
279
    -2
289
     1
 69
     0
  7
STANDARD
140
0.18
170
     5
 62
     0
 63
     7
283
     0
274
    -2
284
     1
 64
     0
275
    -2
285
     1
 65
     0
276
    -2
286
     1
 66
     0
277
    -2
287
     1
 67
     0
278
    -2
288
     1
 68
     0
279
    -2
289
     1
 69
     0
  0
DICTIONARYVAR
  5
3F6
102
{ACAD_REACTORS
330
2AE
102
}
330
2AE
100
DictionaryVariables
280
     0
  1
STANDARD
  0
DICTIONARYVAR
  5
2B0
102
{ACAD_REACTORS
330
2AE
102
}
330
2AE
100
DictionaryVariables
280
     0
  1
0
  0
DICTIONARYVAR
  5
2AF
102
{ACAD_REACTORS
330
2AE
102
}
330
2AE
100
DictionaryVariables
280
     0
  1
1
  0
ACMDATADICTIONARY
  5
3D0
102
{ACAD_REACTORS
330
269
102
}
330
269
100
AcDbDictionary
281
     1
  3
*A1
350
3D1
  3
*A2
350
A32
  3
*A3
350
A33
  3
*A4
350
A34
  3
*A5
350
A35
  3
*A6
350
A36
100
AcmDataDictionary
  0
DICTIONARY
  5
26F
102
{ACAD_REACTORS
330
269
102
}
330
269
100
AcDbDictionary
281
     1
  3
ANSI
350
3DD
  3
ISO
350
5E3
  0
XRECORD
  5
3EA
102
{ACAD_REACTORS
330
269
102
}
330
269
100
AcDbXrecord
280
     1
 90
-1023410169
  0
DICTIONARY
  5
250
102
{ACAD_REACTORS
330
24F
102
}
330
24F
100
AcDbDictionary
281
     1
  3
DWGSETTINGS
350
31C
  3
Shaft
350
9A4
  3
TRANSSETTINGS
350
320
  0
LAYER_INDEX
  5
2A6
102
{ACAD_REACTORS
330
2A5
102
}
330
2A5
100
AcDbIndex
 40
2456360.614439017
100
AcDbLayerIndex
  8
0
360
2A7
 90
       18
  8
1
360
2A8
 90
      108
  8
3
360
2A9
 90
       19
  8
LOGO
360
2AC
 90
       90
  8
AM_5
360
9BB
 90
       16
  8
Defpoints
360
9BC
 90
        0
  0
ACMDATAENTRYBLOCK
  5
3D1
102
{ACAD_REACTORS
330
3D0
102
}
330
3D0
100
AcmDataEntry
100
AcmDataEntryBlock
  0
ACMDATAENTRYBLOCK
  5
A32
102
{ACAD_REACTORS
330
3D0
102
}
330
3D0
100
AcmDataEntry
100
AcmDataEntryBlock
  0
ACMDATAENTRYBLOCK
  5
A33
102
{ACAD_REACTORS
330
3D0
102
}
330
3D0
100
AcmDataEntry
100
AcmDataEntryBlock
  0
ACMDATAENTRYBLOCK
  5
A34
102
{ACAD_REACTORS
330
3D0
102
}
330
3D0
100
AcmDataEntry
100
AcmDataEntryBlock
  0
ACMDATAENTRYBLOCK
  5
A35
102
{ACAD_REACTORS
330
3D0
102
}
330
3D0
100
AcmDataEntry
100
AcmDataEntryBlock
  0
ACMDATAENTRYBLOCK
  5
A36
102
{ACAD_REACTORS
330
3D0
102
}
330
3D0
100
AcmDataEntry
100
AcmDataEntryBlock
  0
IDBUFFER
  5
2A7
330
0
100
AcDbIdBuffer
330
96A
330
96B
330
96C
330
FC1
330
FF1
330
FFC
330
1000
330
102C
330
1030
330
1037
330
1038
330
1039
330
103A
330
103B
330
103C
330
103D
330
103E
330
103F
  0
IDBUFFER
  5
2A8
330
0
100
AcDbIdBuffer
330
1021
330
1022
330
1023
330
1024
330
1025
330
1026
330
1027
330
1028
330
1029
330
102A
330
102B
330
102E
330
102F
330
1032
330
1033
330
1034
330
1035
330
1036
330
FB2
330
FB3
330
FB4
330
FB5
330
FB7
330
FB8
330
FB9
330
FBA
330
FBB
330
FBC
330
FC0
330
FC3
330
FC4
330
FC5
330
FC6
330
FC7
330
FC8
330
FC9
330
FCB
330
FCD
330
FCE
330
FCF
330
FD0
330
FD2
330
FD3
330
FD4
330
FD5
330
FD6
330
FD8
330
FD9
330
FDB
330
FDC
330
FDD
330
FDE
330
FDF
330
FE0
330
FE1
330
FE2
330
FE3
330
FE4
330
FE5
330
FE7
330
FE8
330
FE9
330
FEA
330
FEB
330
FEC
330
FED
330
FEE
330
FEF
330
FF0
330
FF2
330
FF3
330
FF5
330
FF6
330
FF7
330
FF8
330
FF9
330
FFA
330
FFB
330
FFE
330
FFF
330
1002
330
1003
330
1004
330
1005
330
1006
330
1007
330
1008
330
1009
330
100A
330
100B
330
100C
330
100D
330
100F
330
1010
330
1011
330
1012
330
1014
330
1015
330
1016
330
1017
330
1018
330
1019
330
101A
330
101B
330
101C
330
101E
330
101F
330
1020
  0
IDBUFFER
  5
2A9
330
0
100
AcDbIdBuffer
330
100E
330
1013
330
101D
330
102D
330
1031
330
FB6
330
FBD
330
FBE
330
FBF
330
FC2
330
FCA
330
FCC
330
FD1
330
FD7
330
FDA
330
FE6
330
FF4
330
FFD
330
1001
  0
IDBUFFER
  5
2AC
330
0
100
AcDbIdBuffer
330
194
330
195
330
196
330
197
330
198
330
19D
330
19E
330
19F
330
1A0
330
1A1
330
1A2
330
1A3
330
1A4
330
1A5
330
1A6
330
1A7
330
1A8
330
1A9
330
1AB
330
1AC
330
1AD
330
1B1
330
1B2
330
1B3
330
1B4
330
8FB
330
8FC
330
916
330
917
330
918
330
919
330
91A
330
91B
330
91C
330
91D
330
91E
330
91F
330
920
330
921
330
922
330
923
330
924
330
925
330
926
330
927
330
928
330
929
330
92A
330
92E
330
932
330
933
330
937
330
938
330
939
330
93A
330
93B
330
93C
330
93D
330
93E
330
942
330
946
330
94A
330
94B
330
94C
330
950
330
951
330
952
330
953
330
954
330
955
330
956
330
957
330
958
330
959
330
95A
330
95B
330
95C
330
95D
330
95E
330
95F
330
960
330
961
330
962
330
963
330
964
330
965
330
966
330
967
330
968
330
969
  0
IDBUFFER
  5
9BB
330
0
100
AcDbIdBuffer
330
1040
330
1041
330
1042
330
1043
330
1044
330
1045
330
1046
330
1047
330
1048
330
1049
330
104A
330
104B
330
104C
330
104D
330
104E
330
104F
  0
IDBUFFER
  5
9BC
330
0
100
AcDbIdBuffer
  0
ENDSEC
  0
EOF
