  0
SECTION
  2
HEADER
  9
$ACADVER
  1
AC1018
  9
$ACADMAINTVER
 70
    39
  9
$DWGCODEPAGE
  3
ANSI_950
  9
$CUSTOMPROPERTYTAG
  1
AmdtFileType
  9
$CUSTOMPROPERTY
  1
84
  9
$INSBASE
 10
278.96247
 20
14.63286
 30
0.0
  9
$EXTMIN
 10
376.6251821404325
 20
-153.8752586113886
 30
0.0
  9
$EXTMAX
 10
839.5126093327666
 20
166.911948218143
 30
154.5009597124719
  9
$LIMMIN
 10
0.0
 20
0.0
  9
$LIMMAX
 10
297.0
 20
210.0
  9
$ORTHOMODE
 70
     0
  9
$REGENMODE
 70
     1
  9
$FILLMODE
 70
     1
  9
$QTEXTMODE
 70
     0
  9
$MIRRTEXT
 70
     1
  9
$LTSCALE
 40
8.0
  9
$ATTMODE
 70
     1
  9
$TEXTSIZE
 40
3.0
  9
$TRACEWID
 40
0.05
  9
$TEXTSTYLE
  7
CHINA
  9
$CLAYER
  8
1
  9
$CELTYPE
  6
BYLAYER
  9
$CECOLOR
 62
   256
  9
$CELTSCALE
 40
1.0
  9
$DISPSILH
 70
     0
  9
$DIMSCALE
 40
1.0
  9
$DIMASZ
 40
3.5
  9
$DIMEXO
 40
1.0
  9
$DIMDLI
 40
8.0
  9
$DIMRND
 40
0.0
  9
$DIMDLE
 40
0.0
  9
$DIMEXE
 40
1.0
  9
$DIMTP
 40
0.1
  9
$DIMTM
 40
0.1
  9
$DIMTXT
 40
3.5
  9
$DIMCEN
 40
0.0
  9
$DIMTSZ
 40
0.0
  9
$DIMTOL
 70
     0
  9
$DIMLIM
 70
     0
  9
$DIMTIH
 70
     0
  9
$DIMTOH
 70
     0
  9
$DIMSE1
 70
     0
  9
$DIMSE2
 70
     0
  9
$DIMTAD
 70
     1
  9
$DIMZIN
 70
     8
  9
$DIMBLK
  1

  9
$DIMASO
 70
     0
  9
$DIMSHO
 70
     1
  9
$DIMPOST
  1

  9
$DIMAPOST
  1
"
  9
$DIMALT
 70
     0
  9
$DIMALTD
 70
     2
  9
$DIMALTF
 40
0.0393701
  9
$DIMLFAC
 40
1.0
  9
$DIMTOFL
 70
     1
  9
$DIMTVP
 40
0.0
  9
$DIMTIX
 70
     0
  9
$DIMSOXD
 70
     0
  9
$DIMSAH
 70
     0
  9
$DIMBLK1
  1

  9
$DIMBLK2
  1

  9
$DIMSTYLE
  2
AM_ISO
  9
$DIMCLRD
 70
   256
  9
$DIMCLRE
 70
   256
  9
$DIMCLRT
 70
   256
  9
$DIMTFAC
 40
0.71
  9
$DIMGAP
 40
1.0
  9
$DIMJUST
 70
     0
  9
$DIMSD1
 70
     0
  9
$DIMSD2
 70
     0
  9
$DIMTOLJ
 70
     0
  9
$DIMTZIN
 70
     8
  9
$DIMALTZ
 70
     8
  9
$DIMALTTZ
 70
     0
  9
$DIMUPT
 70
     0
  9
$DIMDEC
 70
     0
  9
$DIMTDEC
 70
     8
  9
$DIMALTU
 70
     2
  9
$DIMALTTD
 70
     2
  9
$DIMTXSTY
  7
STANDARD
  9
$DIMAUNIT
 70
     0
  9
$DIMADEC
 70
     0
  9
$DIMALTRND
 40
0.0
  9
$DIMAZIN
 70
     2
  9
$DIMDSEP
 70
    46
  9
$DIMATFIT
 70
     3
  9
$DIMFRAC
 70
     0
  9
$DIMLDRBLK
  1

  9
$DIMLUNIT
 70
     2
  9
$DIMLWD
 70
    -1
  9
$DIMLWE
 70
    -1
  9
$DIMTMOVE
 70
     0
  9
$LUNITS
 70
     2
  9
$LUPREC
 70
     2
  9
$SKETCHINC
 40
0.1
  9
$FILLETRAD
 40
2.5
  9
$AUNITS
 70
     0
  9
$AUPREC
 70
     0
  9
$MENU
  1
acad
  9
$ELEVATION
 40
0.0
  9
$PELEVATION
 40
0.0
  9
$THICKNESS
 40
0.0
  9
$LIMCHECK
 70
     0
  9
$CHAMFERA
 40
2.5
  9
$CHAMFERB
 40
2.5
  9
$CHAMFERC
 40
0.0
  9
$CHAMFERD
 40
0.0
  9
$SKPOLY
 70
     0
  9
$TDCREATE
 40
2451401.689539931
  9
$TDUCREATE
 40
2451401.356206598
  9
$TDUPDATE
 40
2456360.588930845
  9
$TDUUPDATE
 40
2456360.255597512
  9
$TDINDWG
 40
0.1370299074
  9
$TDUSRTIMER
 40
0.1370299074
  9
$USRTIMER
 70
     1
  9
$ANGBASE
 50
0.0
  9
$ANGDIR
 70
     0
  9
$PDMODE
 70
     0
  9
$PDSIZE
 40
0.0
  9
$PLINEWID
 40
0.0
  9
$SPLFRAME
 70
     0
  9
$SPLINETYPE
 70
     6
  9
$SPLINESEGS
 70
     8
  9
$HANDSEED
  5
E55
  9
$SURFTAB1
 70
     6
  9
$SURFTAB2
 70
     6
  9
$SURFTYPE
 70
     6
  9
$SURFU
 70
     6
  9
$SURFV
 70
     6
  9
$UCSBASE
  2

  9
$UCSNAME
  2

  9
$UCSORG
 10
0.0
 20
0.0
 30
0.0
  9
$UCSXDIR
 10
1.0
 20
0.0
 30
0.0
  9
$UCSYDIR
 10
0.0
 20
1.0
 30
0.0
  9
$UCSORTHOREF
  2

  9
$UCSORTHOVIEW
 70
     0
  9
$UCSORGTOP
 10
0.0
 20
0.0
 30
0.0
  9
$UCSORGBOTTOM
 10
0.0
 20
0.0
 30
0.0
  9
$UCSORGLEFT
 10
0.0
 20
0.0
 30
0.0
  9
$UCSORGRIGHT
 10
0.0
 20
0.0
 30
0.0
  9
$UCSORGFRONT
 10
0.0
 20
0.0
 30
0.0
  9
$UCSORGBACK
 10
0.0
 20
0.0
 30
0.0
  9
$PUCSBASE
  2

  9
$PUCSNAME
  2

  9
$PUCSORG
 10
0.0
 20
0.0
 30
0.0
  9
$PUCSXDIR
 10
1.0
 20
0.0
 30
0.0
  9
$PUCSYDIR
 10
0.0
 20
1.0
 30
0.0
  9
$PUCSORTHOREF
  2

  9
$PUCSORTHOVIEW
 70
     0
  9
$PUCSORGTOP
 10
0.0
 20
0.0
 30
0.0
  9
$PUCSORGBOTTOM
 10
0.0
 20
0.0
 30
0.0
  9
$PUCSORGLEFT
 10
0.0
 20
0.0
 30
0.0
  9
$PUCSORGRIGHT
 10
0.0
 20
0.0
 30
0.0
  9
$PUCSORGFRONT
 10
0.0
 20
0.0
 30
0.0
  9
$PUCSORGBACK
 10
0.0
 20
0.0
 30
0.0
  9
$USERI1
 70
     0
  9
$USERI2
 70
     0
  9
$USERI3
 70
     0
  9
$USERI4
 70
     0
  9
$USERI5
 70
     0
  9
$USERR1
 40
0.0
  9
$USERR2
 40
0.0
  9
$USERR3
 40
0.0
  9
$USERR4
 40
0.0
  9
$USERR5
 40
0.0
  9
$WORLDVIEW
 70
     1
  9
$SHADEDGE
 70
     3
  9
$SHADEDIF
 70
    70
  9
$TILEMODE
 70
     1
  9
$MAXACTVP
 70
    16
  9
$PINSBASE
 10
0.0
 20
0.0
 30
0.0
  9
$PLIMCHECK
 70
     0
  9
$PEXTMIN
 10
1.000000000000000E+20
 20
1.000000000000000E+20
 30
1.000000000000000E+20
  9
$PEXTMAX
 10
-1.000000000000000E+20
 20
-1.000000000000000E+20
 30
-1.000000000000000E+20
  9
$PLIMMIN
 10
0.0
 20
0.0
  9
$PLIMMAX
 10
12.0
 20
9.0
  9
$UNITMODE
 70
     0
  9
$VISRETAIN
 70
     0
  9
$PLINEGEN
 70
     0
  9
$PSLTSCALE
 70
     1
  9
$TREEDEPTH
 70
  3020
  9
$CMLSTYLE
  2
STANDARD
  9
$CMLJUST
 70
     0
  9
$CMLSCALE
 40
1.0
  9
$PROXYGRAPHICS
 70
     1
  9
$MEASUREMENT
 70
     1
  9
$CELWEIGHT
370
    -1
  9
$ENDCAPS
280
     0
  9
$JOINSTYLE
280
     0
  9
$LWDISPLAY
290
     0
  9
$INSUNITS
 70
     4
  9
$HYPERLINKBASE
  1

  9
$STYLESHEET
  1

  9
$XEDIT
290
     1
  9
$CEPSNTYPE
380
     0
  9
$PSTYLEMODE
290
     1
  9
$FINGERPRINTGUID
  2
{C3A3751C-7CBF-11D5-9E02-0050BAE3FAE1}
  9
$VERSIONGUID
  2
{B045EFBC-0552-4238-B4E0-D04DF43A265A}
  9
$EXTNAMES
290
     1
  9
$PSVPSCALE
 40
0.0
  9
$OLESTARTUP
290
     0
  9
$SORTENTS
280
   127
  9
$INDEXCTL
280
     1
  9
$HIDETEXT
280
     0
  9
$XCLIPFRAME
290
     0
  9
$HALOGAP
280
     0
  9
$OBSCOLOR
 70
   257
  9
$OBSLTYPE
280
     0
  9
$INTERSECTIONDISPLAY
280
     0
  9
$INTERSECTIONCOLOR
 70
   257
  9
$DIMASSOC
280
     0
  9
$PROJECTNAME
  1

  0
ENDSEC
  0
SECTION
  2
CLASSES
  0
CLASS
  1
DICTIONARYVAR
  2
AcDbDictionaryVar
  3
ObjectDBX Classes
 90
        0
 91
        3
280
     0
281
     0
  0
CLASS
  1
ACDBDICTIONARYWDFLT
  2
AcDbDictionaryWithDefault
  3
ObjectDBX Classes
 90
        0
 91
        1
280
     0
281
     0
  0
CLASS
  1
ACME_DOCUMENT
  2
AcMeDbDoc
  3
AcMeServices
 90
        0
 91
        2
280
     0
281
     0
  0
CLASS
  1
AMGSETTINGSOBJ
  2
AmgSettingsObj
  3
"AcadM|Product Description: AutoCAD Mechanical 2000|Company: Autodesk"
 90
        0
 91
        3
280
     0
281
     0
  0
CLASS
  1
ACMESCOPE
  2
AcMeScope
  3
AcMeServices
 90
        0
 91
        1
280
     0
281
     0
  0
CLASS
  1
ACMECOMMANDHISTORY
  2
AcMeCommandHistory
  3
AcMeServices
 90
        0
 91
        1
280
     0
281
     0
  0
CLASS
  1
ACIMSYSVARMAN
  2
AcImSysVarManager
  3
AcMeServices
 90
        0
 91
        6
280
     0
281
     0
  0
CLASS
  1
ACIMREALSYSVAR
  2
AcImRealSysVar
  3
AcMeServices
 90
        0
 91
       16
280
     0
281
     0
  0
CLASS
  1
ACIMINTSYSVAR
  2
AcImIntSysVar
  3
AcMeServices
 90
        0
 91
       45
280
     0
281
     0
  0
CLASS
  1
ACMEDRAWINGMAN
  2
AcMeDrawingMan
  3
AcMeServices
 90
        0
 91
        1
280
     0
281
     0
  0
CLASS
  1
ACMEVIEW
  2
AcMeView
  3
AcMeServices
 90
        0
 91
        1
280
     0
281
     0
  0
CLASS
  1
ACDBENTITYCACHE
  2
AcMeEntityCache
  3
AcMeServices
 90
        0
 91
        1
280
     0
281
     0
  0
CLASS
  1
GSMANAGER
  2
AcMeGSManager
  3
AcMeServices
 90
        0
 91
        1
280
     0
281
     0
  0
CLASS
  1
AMDTINTERNALREACTOR
  2
AmdtInternalReactor
  3
AcMeServices
 90
        0
 91
        2
280
     0
281
     0
  0
CLASS
  1
ACMESTATEMGR
  2
AcMeStateMgr
  3
AcMeServices
 90
        0
 91
        1
280
     0
281
     0
  0
CLASS
  1
ACGREFMASTER
  2
AcGrefMaster
  3
AcAttribServices
 90
        0
 91
        1
280
     0
281
     0
  0
CLASS
  1
ACME_DATABASE
  2
AcMeDbDatabase
  3
AcMeServices
 90
        0
 91
        7
280
     0
281
     0
  0
CLASS
  1
ACRFINSADJUSTERMGR
  2
AcRfInsAdjusterMgr
  3
AcMeServices
 90
        0
 91
        1
280
     0
281
     0
  0
CLASS
  1
ACGREFACADMASTER
  2
AcGrefacadMaster
  3
AcGrefServices
 90
        0
 91
        1
280
     0
281
     0
  0
CLASS
  1
AMIMASTER
  2
AmiMaster
  3
AmiServices
 90
        0
 91
        1
280
     0
281
     0
  0
CLASS
  1
ACMDATADICTIONARY
  2
AcmDataDictionary
  3
"AcmSymBB|Product Description: AutoCAD Mechanical 2004 DX|Company: Autodesk"
 90
        0
 91
        1
280
     0
281
     0
  0
CLASS
  1
ACMDATAENTRYBLOCK
  2
AcmDataEntryBlock
  3
"AcmSymBB|Product Description: AutoCAD Mechanical 2004 DX|Company: Autodesk"
 90
        0
 91
        6
280
     0
281
     0
  0
CLASS
  1
ACIMSTRSYSVAR
  2
AcImStrSysVar
  3
AcMeServices
 90
        0
 91
       11
280
     0
281
     0
  0
CLASS
  1
ACMSTANDARDANSI
  2
AcmStandardANSI
  3
"Amdt_StdImp|Product Description: AutoCAD Mechanical 2004 DX|Company: Autodesk"
 90
        0
 91
        1
280
     0
281
     0
  0
CLASS
  1
AMGOBJPROPCFG
  2
AmgObjPropCfg
  3
"AmgLay|Product Description: AutoCAD Mechanical 2000|Company: Autodesk"
 90
        1
 91
        1
280
     0
281
     0
  0
CLASS
  1
ACMSURFSTANDARDANSI
  2
AcmSurfTextStdANSI
  3
"Amdt_StdImp|Product Description: AutoCAD Mechanical 2004 DX|Company: Autodesk"
 90
        0
 91
        1
280
     0
281
     0
  0
CLASS
  1
ACMFCFSTANDARDANSI
  2
AcmFCFStdANSI
  3
"Amdt_StdImp|Product Description: AutoCAD Mechanical 2004 DX|Company: Autodesk"
 90
        0
 91
        1
280
     0
281
     0
  0
CLASS
  1
ACMWELDSTANDARDANSI
  2
AcmWeldingStdANSI
  3
"Amdt_StdImp|Product Description: AutoCAD Mechanical 2004 DX|Company: Autodesk"
 90
        0
 91
        1
280
     0
281
     0
  0
CLASS
  1
ACMIDSTANDARDANSI
  2
AcmIdStdANSI
  3
"Amdt_StdImp|Product Description: AutoCAD Mechanical 2004 DX|Company: Autodesk"
 90
        0
 91
        1
280
     0
281
     0
  0
CLASS
  1
ACMDATUMSTANDARDANSI
  2
AcmDatumStdANSI
  3
"Amdt_StdImp|Product Description: AutoCAD Mechanical 2004 DX|Company: Autodesk"
 90
        0
 91
        1
280
     0
281
     0
  0
CLASS
  1
ACMBOMSTANDARDANSI
  2
AcmBOMStdANSI
  3
"Amdt_StdImp|Product Description: AutoCAD Mechanical 2004 DX|Company: Autodesk"
 90
        0
 91
        1
280
     0
281
     0
  0
CLASS
  1
ACMDETAILSTANDARDANSI
  2
AmdtDetailSymStdANSI
  3
"Amdt_StdImp|Product Description: AutoCAD Mechanical 2004 DX|Company: Autodesk"
 90
        0
 91
        1
280
     0
281
     0
  0
CLASS
  1
ACMSECTIONSTANDARDANSI
  2
AmdtSectionSymStdANSI
  3
"Amdt_StdImp|Product Description: AutoCAD Mechanical 2004 DX|Company: Autodesk"
 90
        0
 91
        1
280
     0
281
     0
  0
CLASS
  1
ACMCENTERLINESTANDARDANSI
  2
AmdtCenterLineStdANSI
  3
"Amdt_StdImp|Product Description: AutoCAD Mechanical 2004 DX|Company: Autodesk"
 90
        0
 91
        1
280
     0
281
     0
  0
CLASS
  1
ACMNOTESTANDARDANSI
  2
AmdtNoteStdANSI
  3
"Amdt_StdImp|Product Description: AutoCAD Mechanical 2004 DX|Company: Autodesk"
 90
        0
 91
        1
280
     0
281
     0
  0
CLASS
  1
ACAMGLAYSTD
  2
AcAmgLayStd
  3
"AcAmgLayStd|Product Description: AutoCAD Mechanical 2000|Company: Autodesk"
 90
        0
 91
        2
280
     0
281
     0
  0
CLASS
  1
ACAMGDIMSTD
  2
AcAmgDimStd
  3
"AcAmgDimStd|Product Description: AutoCAD Mechanical 2000|Company: Autodesk"
 90
        0
 91
        2
280
     0
281
     0
  0
CLASS
  1
ACAMGHOLECHARTSTDANSI
  2
AcAmgHoleChartStdANSI
  3
ACMSYMBB_MODULE_NAME
 90
        0
 91
        1
280
     0
281
     0
  0
CLASS
  1
ACAMGTITLESTD
  2
AcAmgTitleStd
  3
"TITLEAPP"
 90
        0
 91
        2
280
     0
281
     0
  0
CLASS
  1
ACAMGFILTERDAT
  2
AcAmgFilterDat
  3
"AcadM|Product Description: AutoCAD Mechanical 2000|Company: Autodesk"
 90
        0
 91
        0
280
     0
281
     0
  0
CLASS
  1
LAYER_INDEX
  2
AcDbLayerIndex
  3
ObjectDBX Classes
 90
        0
 91
        1
280
     0
281
     0
  0
CLASS
  1
IDBUFFER
  2
AcDbIdBuffer
  3
ObjectDBX Classes
 90
        0
 91
        7
280
     0
281
     0
  0
CLASS
  1
TABLESTYLE
  2
AcDbTableStyle
  3
ObjectDBX Classes
 90
     2047
 91
        1
280
     0
281
     0
  0
CLASS
  1
AM_DRAWING_MGR
  2
AcDmDwgMgr
  3
AcMechDwgViewMgmt
 90
        0
 91
        1
280
     0
281
     0
  0
CLASS
  1
AM_DWG_DOCUMENT
  2
AcDmDwgDocument
  3
AcMechDwgViewMgmt
 90
        0
 91
        1
280
     0
281
     0
  0
CLASS
  1
AM_DWG_SHEET
  2
AcDmSheet
  3
AcMechDwgViewMgmt
 90
        0
 91
        1
280
     0
281
     0
  0
CLASS
  1
AM_VIEWDIMPARMAP
  2
AcDmViewDimParMap
  3
AcMechDwgViewMgmt
 90
        0
 91
        1
280
     0
281
     0
  0
CLASS
  1
AM_DWGMGR_NAME
  2
AcDmDwgMgrName
  3
AcMechDwgViewMgmt
 90
        0
 91
        1
280
     0
281
     0
  0
CLASS
  1
AMDTMENUSTATEMGR
  2
AmdtMenuStateMgr
  3
McadcomServices
 90
        0
 91
        1
280
     0
281
     0
  0
CLASS
  1
AMDTMCOMMENUSTATE
  2
AmdtMcomMenuState
  3
McadcomServices
 90
        0
 91
        1
280
     0
281
     0
  0
CLASS
  1
ASAPP
  2
AcAsAppObject
  3
AutoSurfServices
 90
        0
 91
        1
280
     0
281
     0
  0
CLASS
  1
IM_STATIC_MAN
  2
AcImStaticVarManager
  3
AcMeServices
 90
        0
 91
        1
280
     0
281
     0
  0
CLASS
  1
ACIMDBLSTATICVAR
  2
AcImDblStaticVar
  3
AcMeServices
 90
        0
 91
       20
280
     0
281
     0
  0
CLASS
  1
ACIMSTRSTATICVAR
  2
AcImStrStaticVar
  3
AcMeServices
 90
        0
 91
       12
280
     0
281
     0
  0
CLASS
  1
ACIMINTSTATICVAR
  2
AcImIntStaticVar
  3
AcMeServices
 90
        0
 91
       17
280
     0
281
     0
  0
CLASS
  1
ACASGREFMASTER
  2
AcAsGrefMaster
  3
AutoSurfResolverServices
 90
        0
 91
        1
280
     0
281
     0
  0
CLASS
  1
ACADGREFMODULE
  2
AcAdGrefModule
  3
AdGrefServices
 90
        0
 91
        1
280
     0
281
     0
  0
CLASS
  1
AMDTMAPISURFMOUDULE
  2
AmdtMApiSurfModule
  3
MApiSurfServices
 90
        0
 91
        1
280
     0
281
     0
  0
CLASS
  1
MAPIAMMOUDLE
  2
MApiAmModule
  3
MApiAmServices
 90
        0
 91
        1
280
     0
281
     0
  0
CLASS
  1
AMDTADMENUSTATE
  2
AmdtAdMenuState
  3
DesignerServices
 90
        0
 91
        1
280
     0
281
     0
  0
CLASS
  1
ADAPPL
  2
AcAdAppl
  3
DesignerServices
 90
        0
 91
        1
280
     0
281
     0
  0
CLASS
  1
DEPMGR
  2
AcAdDepMgr
  3
DesignerServices
 90
        0
 91
        1
280
     0
281
     0
  0
CLASS
  1
PARAMMGR
  2
AcAdParamMgr
  3
DesignerServices
 90
        0
 91
        1
280
     0
281
     0
  0
CLASS
  1
PARAMSCOPE
  2
AcAdParamScope
  3
DesignerServices
 90
        0
 91
        5
280
     0
281
     0
  0
CLASS
  1
NAMEDAPPL
  2
AcAdNamedAppl
  3
DesignerServices
 90
        0
 91
        1
280
     0
281
     0
  0
CLASS
  1
AMDTDMMENUSTATE
  2
AmdtDmMenuState
  3
AcMechDwgViewMgmt
 90
        0
 91
        1
280
     0
281
     0
  0
CLASS
  1
MAPIADMODULE
  2
MApiAdModule
  3
MApiAdServices
 90
        0
 91
        1
280
     0
281
     0
  0
CLASS
  1
AMDTAMMENUSTATE
  2
AmdtAmMenuState
  3
DesignerAssemblies
 90
        0
 91
        1
280
     0
281
     0
  0
CLASS
  1
ACAMPROJECT
  2
AcAmProject
  3
DesignerAssemblies
 90
        0
 91
        1
280
     0
281
     0
  0
CLASS
  1
ACAMGRCOMPDEF
  2
AcAmGrCompDef
  3
DesignerAssemblies
 90
        0
 91
        6
280
     0
281
     0
  0
CLASS
  1
ACCMCONTEXT
  2
AcCmContext
  3
DesignerAssemblies
 90
        0
 91
       12
280
     0
281
     0
  0
CLASS
  1
ACAMCOMPDEF
  2
AcAmCompDef
  3
DesignerAssemblies
 90
        0
 91
        6
280
     0
281
     0
  0
CLASS
  1
ACAMCOMPDEFMGR
  2
AcAmCompDefMgr
  3
DesignerAssemblies
 90
        0
 91
        1
280
     0
281
     0
  0
CLASS
  1
AMCONTEXTMGR
  2
AcAmContextMgr
  3
DesignerAssemblies
 90
        0
 91
        1
280
     0
281
     0
  0
CLASS
  1
ACAMCONTEXTMODELER
  2
AcAmContextModeler
  3
DesignerAssemblies
 90
        0
 91
        1
280
     0
281
     0
  0
CLASS
  1
CATALOGSTATE
  2
AcAmCatalogState
  3
DesignerAssemblies
 90
        0
 91
        1
280
     0
281
     0
  0
CLASS
  1
ACAMGRCOMPDEFSET
  2
AcAmGrCompDefSet
  3
DesignerAssemblies
 90
        0
 91
        1
280
     0
281
     0
  0
CLASS
  1
AMDTBROWSERDBTAB
  2
AmdtBrowserDbTab
  3
McadcomServices
 90
        0
 91
        1
280
     0
281
     0
  0
CLASS
  1
CBROWSERAPPOBJECT
  2
CBrowserAppObject
  3
McadcomServices
 90
        0
 91
        3
280
     0
281
     0
  0
CLASS
  1
DM_PLACEHOLDER
  2
AcDmSelsetPlaceholder
  3
AcMechDwgViewMgmt
 90
        0
 91
        1
280
     0
281
     0
  0
CLASS
  1
ACMTHREADLINESTANDARDANSI
  2
AmdtThreadLineStdANSI
  3
"Amdt_StdImp|Product Description: AutoCAD Mechanical 2004 DX|Company: Autodesk"
 90
        0
 91
        1
280
     0
281
     0
  0
CLASS
  1
AMDTNOTETEMPLATEDB
  2
AmdtNoteTemplateDB
  3
AMDT_STDIMP_MODULE_NAME
 90
        0
 91
       10
280
     0
281
     0
  0
CLASS
  1
ACMSTANDARDISO
  2
AcmStandardISO
  3
"Amdt_StdImp|Product Description: AutoCAD Mechanical 2004 DX|Company: Autodesk"
 90
        0
 91
        1
280
     0
281
     0
  0
CLASS
  1
AMDTEDGESTANDARDISO13715
  2
AmdtEdgeStdISO13715
  3
"Amdt_StdImp|Product Description: AutoCAD Mechanical 2004 DX|Company: Autodesk"
 90
        0
 91
        1
280
     0
281
     0
  0
CLASS
  1
ACMSURFSTANDARDISO
  2
AcmSurfTextStdISO
  3
"Amdt_StdImp|Product Description: AutoCAD Mechanical 2004 DX|Company: Autodesk"
 90
        0
 91
        1
280
     0
281
     0
  0
CLASS
  1
ACMFCFSTANDARDISO
  2
AcmFCFStdISO
  3
"Amdt_StdImp|Product Description: AutoCAD Mechanical 2004 DX|Company: Autodesk"
 90
        0
 91
        1
280
     0
281
     0
  0
CLASS
  1
ACMWELDSTANDARDISO
  2
AcmWeldingStdISO
  3
"Amdt_StdImp|Product Description: AutoCAD Mechanical 2004 DX|Company: Autodesk"
 90
        0
 91
        1
280
     0
281
     0
  0
CLASS
  1
ACMIDSTANDARDISO
  2
AcmIdStdISO
  3
"Amdt_StdImp|Product Description: AutoCAD Mechanical 2004 DX|Company: Autodesk"
 90
        0
 91
        1
280
     0
281
     0
  0
CLASS
  1
ACMDATUMSTANDARDISO
  2
AcmDatumStdISO
  3
"Amdt_StdImp|Product Description: AutoCAD Mechanical 2004 DX|Company: Autodesk"
 90
        0
 91
        1
280
     0
281
     0
  0
CLASS
  1
ACMBOMSTANDARDISO
  2
AcmBOMStdISO
  3
"Amdt_StdImp|Product Description: AutoCAD Mechanical 2004 DX|Company: Autodesk"
 90
        0
 91
        1
280
     0
281
     0
  0
CLASS
  1
ACMDETAILSTANDARDISO
  2
AmdtDetailSymStdISO
  3
"Amdt_StdImp|Product Description: AutoCAD Mechanical 2004 DX|Company: Autodesk"
 90
        0
 91
        1
280
     0
281
     0
  0
CLASS
  1
ACMSECTIONSTANDARDISO
  2
AmdtSectionSymStdISO
  3
"Amdt_StdImp|Product Description: AutoCAD Mechanical 2004 DX|Company: Autodesk"
 90
        0
 91
        1
280
     0
281
     0
  0
CLASS
  1
ACMCENTERLINESTANDARDISO
  2
AmdtCenterLineStdISO
  3
"Amdt_StdImp|Product Description: AutoCAD Mechanical 2004 DX|Company: Autodesk"
 90
        0
 91
        1
280
     0
281
     0
  0
CLASS
  1
ACMTHREADLINESTANDARDISO
  2
AmdtThreadLineStdISO
  3
"Amdt_StdImp|Product Description: AutoCAD Mechanical 2004 DX|Company: Autodesk"
 90
        0
 91
        1
280
     0
281
     0
  0
CLASS
  1
ACMNOTESTANDARDISO
  2
AmdtNoteStdISO
  3
"Amdt_StdImp|Product Description: AutoCAD Mechanical 2004 DX|Company: Autodesk"
 90
        0
 91
        1
280
     0
281
     0
  0
CLASS
  1
ACAMGHOLECHARTSTDISO
  2
AcAmgHoleChartStdISO
  3
ACMSYMBB_MODULE_NAME
 90
        0
 91
        1
280
     0
281
     0
  0
CLASS
  1
ADPART
  2
AcAdPart
  3
DesignerServices
 90
        0
 91
        4
280
     0
281
     1
  0
CLASS
  1
ACAMCOMPENT
  2
AcAmCompEnt
  3
DesignerAssemblies
 90
        0
 91
        6
280
     0
281
     1
  0
CLASS
  1
ACAMCOMPENTCLONE
  2
AcAmCompEntClone
  3
DesignerAssemblies
 90
        0
 91
        6
280
     0
281
     1
  0
CLASS
  1
WORKPLANEDISPLAYMGR
  2
AcAdDisplayMgr
  3
DesignerServices
 90
        0
 91
        4
280
     0
281
     0
  0
CLASS
  1
ADBASE
  2
AcAdBase
  3
DesignerServices
 90
        0
 91
        4
280
     0
281
     0
  0
CLASS
  1
BODYID
  2
AcAdBodyId
  3
DesignerServices
 90
        0
 91
        4
280
     0
281
     0
  0
CLASS
  1
ACAMCOMP
  2
AcAmComp
  3
DesignerAssemblies
 90
        0
 91
        6
280
     0
281
     0
  0
CLASS
  1
ACAMCOMPFEEDBACK
  2
AcAmCompFeedback
  3
DesignerAssemblies
 90
        0
 91
        6
280
     0
281
     0
  0
CLASS
  1
ACCMBODY
  2
AcCmBody
  3
DesignerAssemblies
 90
        0
 91
        6
280
     0
281
     0
  0
CLASS
  1
AMDTFORMULAUPDATEDISPATCHER
  2
AmdtFormulaUpdateDispatcher
  3
AcMeServices
 90
        0
 91
        1
280
     0
281
     0
  0
ENDSEC
  0
SECTION
  2
TABLES
  0
TABLE
  2
VPORT
  5
12
330
0
100
AcDbSymbolTable
 70
   227
  0
VPORT
  5
E54
330
12
100
AcDbSymbolTableRecord
100
AcDbViewportTableRecord
  2
*Active
 70
     0
 10
0.0
 20
0.0
 11
1.0
 21
1.0
 12
500.1887220773952
 22
-133.7896924872155
 13
0.0
 23
0.0
 14
2.5
 24
2.5
 15
10.0
 25
10.0
 16
0.0
 26
0.0
 36
1.0
 17
138.6205451135996
 27
126.4334816348561
 37
0.0
 40
363.6360308598597
 41
1.263157894736842
 42
50.0
 43
0.0
 44
0.0
 50
0.0
 51
0.0
 71
     0
 72
 20000
 73
     1
 74
     1
 75
     0
 76
     0
 77
     0
 78
     0
281
     0
 65
     0
110
0.0
120
0.0
130
0.0
111
1.0
121
0.0
131
0.0
112
0.0
122
1.0
132
0.0
 79
     0
146
0.0
  0
ENDTAB
  0
TABLE
  2
LTYPE
  5
D
330
0
100
AcDbSymbolTable
 70
    22
  0
LTYPE
  5
E
330
D
100
AcDbSymbolTableRecord
100
AcDbLinetypeTableRecord
  2
BYBLOCK
 70
     0
  3

 72
    65
 73
     0
 40
0.0
  0
LTYPE
  5
F
330
D
100
AcDbSymbolTableRecord
100
AcDbLinetypeTableRecord
  2
BYLAYER
 70
     0
  3

 72
    65
 73
     0
 40
0.0
  0
LTYPE
  5
5
330
D
100
AcDbSymbolTableRecord
100
AcDbLinetypeTableRecord
  2
CONTINUOUS
 70
     0
  3
Solid line
 72
    65
 73
     0
 40
0.0
  0
LTYPE
  5
28
330
D
100
AcDbSymbolTableRecord
100
AcDbLinetypeTableRecord
  2
CENTER2
 70
     0
  3
___ _ ___ _ ___ _ ___ _ ___ _ ___ _ ___ _ ___ _
 72
    65
 73
     4
 40
1.125
 49
0.75
 74
     0
 49
-0.125
 74
     0
 49
0.125
 74
     0
 49
-0.125
 74
     0
  0
LTYPE
  5
272
330
D
100
AcDbSymbolTableRecord
100
AcDbLinetypeTableRecord
  2
AM_ISO02W050
 70
     0
  3
__ __ __ __ __ __ __ __ __ __ __ __ __ __ __
 72
    65
 73
     2
 40
7.5
 49
6.0
 74
     0
 49
-1.5
 74
     0
  0
LTYPE
  5
273
330
D
100
AcDbSymbolTableRecord
100
AcDbLinetypeTableRecord
  2
AM_ISO08W050
 70
     0
  3
____ . ____ . ____ . ____ . ____ . ____ . ____
 72
    65
 73
     4
 40
18.0
 49
12.0
 74
     0
 49
-1.5
 74
     0
 49
3.0
 74
     0
 49
-1.5
 74
     0
  0
LTYPE
  5
274
330
D
100
AcDbSymbolTableRecord
100
AcDbLinetypeTableRecord
  2
AM_ISO09W050
 70
     0
  3
_____ . . _____ . . _____ . . ____ .. ____
 72
    65
 73
     6
 40
22.5
 49
12.0
 74
     0
 49
-1.5
 74
     0
 49
3.0
 74
     0
 49
-1.5
 74
     0
 49
3.0
 74
     0
 49
-1.5
 74
     0
  0
LTYPE
  5
275
330
D
100
AcDbSymbolTableRecord
100
AcDbLinetypeTableRecord
  2
Amconstr
 70
     0
  3
_______________________
 72
    65
 73
     2
 40
9999.0
 49
9999.0
 74
     0
 49
0.0
 74
     0
  0
LTYPE
  5
276
330
D
100
AcDbSymbolTableRecord
100
AcDbLinetypeTableRecord
  2
AM_ISO08W050x2
 70
     0
  3
__ . __ . __ . __ . __ . __
 72
    65
 73
     4
 40
9.0
 49
6.0
 74
     0
 49
-0.75
 74
     0
 49
1.5
 74
     0
 49
-0.75
 74
     0
  0
LTYPE
  5
277
330
D
100
AcDbSymbolTableRecord
100
AcDbLinetypeTableRecord
  2
AM_ISO02W050x2
 70
     0
  3
 _ _ _ _ _ _ _ _ _ _ _ _
 72
    65
 73
     2
 40
3.75
 49
3.0
 74
     0
 49
-0.75
 74
     0
  0
LTYPE
  5
27A
330
D
100
AcDbSymbolTableRecord
100
AcDbLinetypeTableRecord
  2
Amzigzag
 70
     0
  3
/\/-/\/-/\/-/\/-/\/-/\/
 72
    65
 73
     2
 40
11.0001
 49
0.0001
 74
     4
 75
   135
340
279
 46
0.04
 50
0.0
 44
0.0
 45
0.0
 49
-11.0
 74
     0
  0
LTYPE
  5
27B
330
D
100
AcDbSymbolTableRecord
100
AcDbLinetypeTableRecord
  2
HIDDEN
 70
     0
  3
Hidden __ __ __ __ __ __ __ __ __ __ __ __ __ _
 72
    65
 73
     2
 40
0.375
 49
0.25
 74
     0
 49
-0.125
 74
     0
  0
LTYPE
  5
27C
330
D
100
AcDbSymbolTableRecord
100
AcDbLinetypeTableRecord
  2
CENTER
 70
     0
  3
Center ____ _ ____ _ ____ _ ____ _ ____ _ ____
 72
    65
 73
     4
 40
2.0
 49
1.25
 74
     0
 49
-0.25
 74
     0
 49
0.25
 74
     0
 49
-0.25
 74
     0
  0
LTYPE
  5
27D
330
D
100
AcDbSymbolTableRecord
100
AcDbLinetypeTableRecord
  2
PHANTOM2
 70
     0
  3
Phantom (.5x) ___ _ _ ___ _ _ ___ _ _ ___ _ _
 72
    65
 73
     6
 40
1.25
 49
0.625
 74
     0
 49
-0.125
 74
     0
 49
0.125
 74
     0
 49
-0.125
 74
     0
 49
0.125
 74
     0
 49
-0.125
 74
     0
  0
LTYPE
  5
27E
330
D
100
AcDbSymbolTableRecord
100
AcDbLinetypeTableRecord
  2
HIDDEN2
 70
     0
  3
Hidden (.5x) _ _ _ _ _ _ _ _ _ _ _ _ _ _ _ _ _
 72
    65
 73
     2
 40
0.1875
 49
0.125
 74
     0
 49
-0.0625
 74
     0
  0
LTYPE
  5
27F
330
D
100
AcDbSymbolTableRecord
100
AcDbLinetypeTableRecord
  2
Amzigzag2
 70
     0
  3
/\/-/\/-/\/-/\/-/\/-/\/
 72
    65
 73
     2
 40
0.4401
 49
0.0001
 74
     4
 75
   135
340
279
 46
0.0016
 50
0.0
 44
0.0
 45
0.0
 49
-0.4400000000000001
 74
     0
  0
LTYPE
  5
28C
330
D
100
AcDbSymbolTableRecord
100
AcDbLinetypeTableRecord
  2
ACANSTGB
 70
     0
  3
__ . . __ . .
 72
    65
 73
     6
 40
0.35433070866
 49
0.15748031496
 74
     0
 49
-0.03937007874
 74
     0
 49
0.03937007874
 74
     0
 49
-0.03937007874
 74
     0
 49
0.03937007874
 74
     0
 49
-0.03937007874
 74
     0
  0
LTYPE
  5
28D
330
D
100
AcDbSymbolTableRecord
100
AcDbLinetypeTableRecord
  2
ACANSTGL
 70
     0
  3
_ _ _ _ _
 72
    65
 73
     2
 40
0.11811023622
 49
0.07874015748
 74
     0
 49
-0.03937007874
 74
     0
  0
LTYPE
  5
3FE
330
D
100
AcDbSymbolTableRecord
100
AcDbLinetypeTableRecord
  2
ACISOWELD
 70
     0
  3
_ _ _ _ _
 72
    65
 73
     2
 40
2.0
 49
2.0
 74
     0
 49
-1.0
 74
     0
  0
LTYPE
  5
3FF
330
D
100
AcDbSymbolTableRecord
100
AcDbLinetypeTableRecord
  2
ACISOTGB
 70
     0
  3
__ . . __ . .
 72
    65
 73
     6
 40
9.0
 49
4.0
 74
     0
 49
-1.0
 74
     0
 49
1.0
 74
     0
 49
-1.0
 74
     0
 49
1.0
 74
     0
 49
-1.0
 74
     0
  0
LTYPE
  5
400
330
D
100
AcDbSymbolTableRecord
100
AcDbLinetypeTableRecord
  2
ACISOTGL
 70
     0
  3
_ _ _ _ _
 72
    65
 73
     2
 40
3.0
 49
2.0
 74
     0
 49
-1.0
 74
     0
  0
LTYPE
  5
9E7
330
D
100
AcDbSymbolTableRecord
100
AcDbLinetypeTableRecord
  2
ASULTYPE
 70
     0
  3
實線
 72
    65
 73
     2
 40
3.0
 49
2.5
 74
     0
 49
0.5
 74
     0
  0
LTYPE
  5
9E8
330
D
100
AcDbSymbolTableRecord
100
AcDbLinetypeTableRecord
  2
ASVLTYPE
 70
     0
  3
__ __ __ __ __ __ __ __ __ __ __ __ __ __ __ __ __ __ __ __ __
 72
    65
 73
     2
 40
0.75
 49
0.5
 74
     0
 49
-0.25
 74
     0
  0
LTYPE
  5
BB7
330
D
100
AcDbSymbolTableRecord
100
AcDbLinetypeTableRecord
  2
DASHED
 70
     0
  3
__ __ __ __ __ __ __ __ __ __ __ __ __ __ __ __
 72
    65
 73
     2
 40
0.75
 49
0.5
 74
     0
 49
-0.25
 74
     0
  0
ENDTAB
  0
TABLE
  2
LAYER
  5
A
102
{ACAD_XDICTIONARY
360
40D
102
}
330
0
100
AcDbSymbolTable
 70
     7
  0
LAYER
  5
4
330
A
100
AcDbSymbolTableRecord
100
AcDbLayerTableRecord
  2
0
 70
     0
 62
     2
  6
CONTINUOUS
370
    -3
390
CB
  0
LAYER
  5
1B
330
A
100
AcDbSymbolTableRecord
100
AcDbLayerTableRecord
  2
1
 70
     0
 62
     7
  6
CONTINUOUS
370
    -3
390
CB
  0
LAYER
  5
27
330
A
100
AcDbSymbolTableRecord
100
AcDbLayerTableRecord
  2
3
 70
     0
 62
     1
  6
CENTER2
370
    -3
390
CB
  0
LAYER
  5
D4
330
A
100
AcDbSymbolTableRecord
100
AcDbLayerTableRecord
  2
LOGO
 70
     0
 62
     7
  6
CONTINUOUS
370
    -3
390
CB
  0
LAYER
  5
401
330
A
100
AcDbSymbolTableRecord
100
AcDbLayerTableRecord
  2
AM_VIS
 70
     0
 62
     7
  6
CONTINUOUS
370
    50
390
CB
  0
LAYER
  5
7CE
330
A
100
AcDbSymbolTableRecord
100
AcDbLayerTableRecord
  2
AM_5
 70
     0
 62
     5
  6
CONTINUOUS
370
    50
390
CB
  0
LAYER
  5
7DF
330
A
100
AcDbSymbolTableRecord
100
AcDbLayerTableRecord
  2
Defpoints
 70
     0
 62
     7
  6
CONTINUOUS
290
     0
370
    -3
390
CB
  0
ENDTAB
  0
TABLE
  2
STYLE
  5
B
330
0
100
AcDbSymbolTable
 70
     8
  0
STYLE
  5
C
330
B
100
AcDbSymbolTableRecord
100
AcDbTextStyleTableRecord
  2
STANDARD
 70
     0
 40
0.0
 41
1.0
 50
0.0
 71
     0
 42
3.5
  3
ISOCP.SHX
  4

  0
STYLE
  5
1C
330
B
100
AcDbSymbolTableRecord
100
AcDbTextStyleTableRecord
  2
CHINA
 70
     0
 40
0.0
 41
1.0
 50
0.0
 71
     0
 42
3.0
  3
/rubon/c2
  4
CHINA.SHX
  0
STYLE
  5
D5
330
B
100
AcDbSymbolTableRecord
100
AcDbTextStyleTableRecord
  2
chineset
 70
     0
 40
0.0
 41
1.0
 50
0.0
 71
     0
 42
5.0
  3
simplex.shx
  4
chineset.shx
  0
STYLE
  5
279
330
B
100
AcDbSymbolTableRecord
100
AcDbTextStyleTableRecord
  2

 70
     1
 40
0.0
 41
1.0
 50
0.0
 71
     0
 42
3.0
  3
ltypeshp.shx
  4

  0
STYLE
  5
280
330
B
100
AcDbSymbolTableRecord
100
AcDbTextStyleTableRecord
  2
ACANSTS
 70
     0
 40
1.0
 41
1.0
 50
0.0
 71
     0
 42
3.0
  3
romans.shx
  4
chineset.shx
  0
STYLE
  5
28B
330
B
100
AcDbSymbolTableRecord
100
AcDbTextStyleTableRecord
  2
ACANSGDT
 70
     0
 40
0.0
 41
1.0
 50
0.0
 71
     0
 42
3.0
  3
amgdtans.shx
  4

  0
STYLE
  5
402
330
B
100
AcDbSymbolTableRecord
100
AcDbTextStyleTableRecord
  2
ACISOTS
 70
     0
 40
1.0
 41
1.0
 50
0.0
 71
     0
 42
1.0
  3
isocp.shx
  4
chineset.shx
  0
STYLE
  5
403
330
B
100
AcDbSymbolTableRecord
100
AcDbTextStyleTableRecord
  2
ACISOGDT
 70
     0
 40
0.0
 41
1.0
 50
0.0
 71
     0
 42
1.0
  3
amgdt.shx
  4

  0
ENDTAB
  0
TABLE
  2
VIEW
  5
10
330
0
100
AcDbSymbolTable
 70
     0
  0
ENDTAB
  0
TABLE
  2
UCS
  5
11
330
0
100
AcDbSymbolTable
 70
     0
  0
ENDTAB
  0
TABLE
  2
APPID
  5
14
330
0
100
AcDbSymbolTable
 70
    23
  0
APPID
  5
15
330
14
100
AcDbSymbolTableRecord
100
AcDbRegAppTableRecord
  2
ACAD
 70
     0
  0
APPID
  5
254
330
14
100
AcDbSymbolTableRecord
100
AcDbRegAppTableRecord
  2
MCAD_NO_VIS
 70
     0
  0
APPID
  5
255
330
14
100
AcDbSymbolTableRecord
100
AcDbRegAppTableRecord
  2
ACAD_TEMP_GRAPHIC
 70
     0
  0
APPID
  5
266
330
14
100
AcDbSymbolTableRecord
100
AcDbRegAppTableRecord
  2
ACATTRIBSERVICES
 70
     0
  0
APPID
  5
31D
330
14
100
AcDbSymbolTableRecord
100
AcDbRegAppTableRecord
  2
GENIUS_GENDIM_13
 70
     0
  0
APPID
  5
31E
330
14
100
AcDbSymbolTableRecord
100
AcDbRegAppTableRecord
  2
GENIUS_GENDTOL_13
 70
     0
  0
APPID
  5
31F
330
14
100
AcDbSymbolTableRecord
100
AcDbRegAppTableRecord
  2
GENIUS_GE3DTOL_13
 70
     0
  0
APPID
  5
34F
330
14
100
AcDbSymbolTableRecord
100
AcDbRegAppTableRecord
  2
AD_DRAW
 70
     0
  0
APPID
  5
39B
330
14
100
AcDbSymbolTableRecord
100
AcDbRegAppTableRecord
  2
ASURF_PCURVE_APPNAME
 70
     0
  0
APPID
  5
3A0
330
14
100
AcDbSymbolTableRecord
100
AcDbRegAppTableRecord
  2
AMG_3D2D_5.0
 70
     0
  0
APPID
  5
3CF
330
14
100
AcDbSymbolTableRecord
100
AcDbRegAppTableRecord
  2
DESIGNERASSEMBLIES
 70
     0
  0
APPID
  5
3D5
330
14
100
AcDbSymbolTableRecord
100
AcDbRegAppTableRecord
  2
ACADM_DIM_EDIT
 70
     0
  0
APPID
  5
3D6
330
14
100
AcDbSymbolTableRecord
100
AcDbRegAppTableRecord
  2
AMDT_DM_ADJ
 70
     0
  0
APPID
  5
87B
330
14
100
AcDbSymbolTableRecord
100
AcDbRegAppTableRecord
  2
ACAD_PSEXT
 70
     0
  0
APPID
  5
87C
330
14
100
AcDbSymbolTableRecord
100
AcDbRegAppTableRecord
  2
GENIUS_GENOBJ-N-CRS_13
 70
     0
  0
APPID
  5
87D
330
14
100
AcDbSymbolTableRecord
100
AcDbRegAppTableRecord
  2
GENIUS_GENOLIS_13
 70
     0
  0
APPID
  5
87E
330
14
100
AcDbSymbolTableRecord
100
AcDbRegAppTableRecord
  2
GENIUS_GENOENT_13
 70
     0
  0
APPID
  5
87F
330
14
100
AcDbSymbolTableRecord
100
AcDbRegAppTableRecord
  2
GENIUS_GENODEF_13
 70
     0
  0
APPID
  5
880
330
14
100
AcDbSymbolTableRecord
100
AcDbRegAppTableRecord
  2
GENIUS_GENOREF_13
 70
     0
  0
APPID
  5
881
330
14
100
AcDbSymbolTableRecord
100
AcDbRegAppTableRecord
  2
GENIUS_GENREC_14
 70
     0
  0
APPID
  5
882
330
14
100
AcDbSymbolTableRecord
100
AcDbRegAppTableRecord
  2
GENIUS_GENOBJ-N-REC_13
 70
     0
  0
APPID
  5
9A5
330
14
100
AcDbSymbolTableRecord
100
AcDbRegAppTableRecord
  2
ACAD_DSTYLE_DIMTEXT_FILL
 70
     0
  0
APPID
  5
DC7
330
14
100
AcDbSymbolTableRecord
100
AcDbRegAppTableRecord
  2
GENIUS_GENDIMSH_14
 70
     0
  0
ENDTAB
  0
TABLE
  2
DIMSTYLE
  5
16
330
0
100
AcDbSymbolTable
 70
    20
100
AcDbDimStyleTable
 71
     2
340
406
340
1E
  0
DIMSTYLE
105
1E
330
16
100
AcDbSymbolTableRecord
100
AcDbDimStyleTableRecord
  2
STANDARD
 70
     0
271
     2
272
     2
279
     2
284
     8
285
     8
286
     8
340
1C
  0
DIMSTYLE
105
291
330
16
100
AcDbSymbolTableRecord
100
AcDbDimStyleTableRecord
  2
AM_ANSI
 70
     0
  4
mm
 41
0.1
 42
0.05
 43
0.5
 44
0.1
 47
0.1
 48
0.1
 78
     7
 79
     2
140
0.12
141
0.0
146
0.71
147
0.06
176
   256
177
   256
178
     2
274
     4
284
     7
340
C
371
    -1
372
    -1
  0
DIMSTYLE
105
292
330
16
100
AcDbSymbolTableRecord
100
AcDbDimStyleTableRecord
  2
AM_ANSI$3
 70
     0
  4
mm
 41
0.1
 42
0.05
 43
0.5
 44
0.1
 47
0.1
 48
0.1
 78
     7
 79
     2
140
0.12
141
0.0
146
0.71
147
0.06
176
   256
177
   256
178
     2
274
     4
284
     7
288
     1
289
     0
340
C
371
    -1
372
    -1
  0
DIMSTYLE
105
293
330
16
100
AcDbSymbolTableRecord
100
AcDbDimStyleTableRecord
  2
AM_ANSI$4
 70
     0
  4
mm
 41
0.1
 42
0.05
 43
0.5
 44
0.1
 47
0.1
 48
0.1
 78
     7
 79
     2
140
0.12
141
0.0
146
0.71
147
0.06
176
   256
177
   256
178
     2
274
     4
284
     7
288
     1
289
     0
340
C
371
    -1
372
    -1
  0
DIMSTYLE
105
294
330
16
100
AcDbSymbolTableRecord
100
AcDbDimStyleTableRecord
  2
AM_ANSI$7
 70
     0
  4
mm
 41
0.1
 42
0.05
 43
0.5
 44
0.1
 47
0.1
 48
0.1
 78
     7
 79
     2
140
0.24
141
0.0
146
0.71
147
0.06
176
   256
177
   256
178
     2
274
     4
284
     7
340
C
371
    -1
372
    -1
  0
DIMSTYLE
105
295
330
16
100
AcDbSymbolTableRecord
100
AcDbDimStyleTableRecord
  2
AM_ANSI$SF
 70
     0
  4
mm
 41
0.1
 42
0.05
 43
0.5
 44
0.1
 47
0.1
 48
0.1
 75
     1
 76
     1
 78
     7
 79
     2
140
0.12
141
0.0
146
0.71
147
0.06
176
   256
177
   256
178
     2
274
     4
284
     7
340
C
371
    -1
372
    -1
  0
DIMSTYLE
105
29A
330
16
100
AcDbSymbolTableRecord
100
AcDbDimStyleTableRecord
  2
AM_ANSI$SH
 70
     0
  4
mm
 41
0.1
 42
0.05
 43
0.5
 44
0.1
 47
0.1
 48
0.1
 75
     1
 76
     1
 78
     7
 79
     2
140
0.12
141
0.0
146
0.71
147
0.06
173
     1
176
   256
177
   256
178
     2
274
     4
284
     7
340
C
341
296
343
296
371
    -1
372
    -1
  0
DIMSTYLE
105
406
330
16
100
AcDbSymbolTableRecord
100
AcDbDimStyleTableRecord
  2
AM_ISO
 70
     0
  4
"
 41
3.5
 42
1.0
 43
8.0
 44
1.0
 47
0.1
 48
0.1
 73
     0
 74
     0
 77
     1
 78
     8
 79
     2
140
3.5
141
0.0
143
0.0393701
146
0.71
147
1.0
172
     1
176
   256
177
   256
178
   256
271
     2
272
     2
283
     0
284
     8
285
     8
340
C
371
    -1
372
    -1
  0
DIMSTYLE
105
407
330
16
100
AcDbSymbolTableRecord
100
AcDbDimStyleTableRecord
  2
AM_ISO$SF
 70
     0
  4
"
 41
2.5
 42
1.0
 43
10.0
 44
1.0
 47
0.1
 48
0.1
 73
     0
 74
     0
 75
     1
 76
     1
 77
     1
 78
     8
 79
     2
140
3.5
141
0.0
143
0.0393701
146
0.71
147
1.0
172
     1
176
   256
177
   256
178
   256
271
     2
272
     2
283
     0
284
     8
340
C
371
    -1
372
    -1
  0
DIMSTYLE
105
408
330
16
100
AcDbSymbolTableRecord
100
AcDbDimStyleTableRecord
  2
AM_ISO$SH
 70
     0
  4
"
 41
2.5
 42
1.0
 43
10.0
 44
1.0
 47
0.1
 48
0.1
 73
     0
 74
     0
 75
     1
 76
     1
 77
     1
 78
     8
 79
     2
140
3.5
141
0.0
143
0.0393701
144
2.0
146
0.71
147
1.0
172
     1
173
     1
176
   256
177
   256
178
   256
271
     2
272
     2
283
     0
284
     8
340
C
343
296
371
    -1
372
    -1
  0
DIMSTYLE
105
409
330
16
100
AcDbSymbolTableRecord
100
AcDbDimStyleTableRecord
  2
AM_ISO$3
 70
     0
  4
"
 41
3.5
 42
1.0
 43
8.0
 44
1.0
 47
0.1
 48
0.1
 73
     0
 77
     1
 78
     8
 79
     2
140
3.5
141
0.0
143
0.0393701
146
0.71
147
1.0
176
   256
177
   256
178
   256
271
     2
272
     2
283
     0
284
     8
285
     8
288
     1
289
     0
340
C
371
    -1
372
    -1
  0
DIMSTYLE
105
40A
330
16
100
AcDbSymbolTableRecord
100
AcDbDimStyleTableRecord
  2
AM_ISO$4
 70
     0
  4
"
 41
3.5
 42
1.0
 43
8.0
 44
1.0
 47
0.1
 48
0.1
 73
     0
 77
     1
 78
     8
 79
     2
140
3.5
141
0.0
143
0.0393701
146
0.71
147
1.0
176
   256
177
   256
178
   256
271
     2
272
     2
283
     0
284
     8
285
     8
288
     1
289
     0
340
C
371
    -1
372
    -1
  0
DIMSTYLE
105
40B
330
16
100
AcDbSymbolTableRecord
100
AcDbDimStyleTableRecord
  2
AM_ISO$6
 70
     0
  4
"
 41
3.5
 42
1.0
 43
8.0
 44
1.0
 47
0.1
 48
0.1
 73
     0
 74
     0
 78
     8
 79
     2
140
3.5
141
0.0
143
0.0393701
146
0.71
147
1.0
172
     1
176
   256
177
   256
178
   256
271
     2
272
     2
283
     0
284
     8
285
     8
340
C
371
    -1
372
    -1
  0
DIMSTYLE
105
40C
102
{ACAD_REACTORS
330
E42
102
}
330
16
100
AcDbSymbolTableRecord
100
AcDbDimStyleTableRecord
  2
AM_ISO$7
 70
     0
  4
"
 41
3.5
 42
1.0
 43
8.0
 44
1.0
 47
0.1
 48
0.1
 73
     0
 74
     0
 77
     1
 78
     8
 79
     2
140
5.0
141
0.0
143
0.0393701
146
0.71
147
1.5
172
     1
176
   256
177
   256
178
   256
271
     2
272
     2
283
     0
284
     8
285
     8
340
C
371
    -1
372
    -1
  0
DIMSTYLE
105
7DA
330
16
100
AcDbSymbolTableRecord
100
AcDbDimStyleTableRecord
  2
STANDARD$0
 70
     0
271
     2
272
     2
279
     2
284
     8
285
     8
286
     8
340
1C
  0
DIMSTYLE
105
A15
330
16
100
AcDbSymbolTableRecord
100
AcDbDimStyleTableRecord
  2
AM_JIS
 70
     0
  4
"
 41
2.5
 42
1.0
 43
10.0
 44
1.0
 47
0.1
 48
0.1
 73
     0
 74
     0
 77
     3
 78
     8
 79
     2
140
3.5
141
0.0
143
0.0393701
146
0.71
147
1.5
172
     1
176
   256
177
   256
178
     2
271
     2
272
     3
274
     4
283
     0
284
     8
340
C
341
9F6
342
9F6
343
9F6
344
9F6
371
    -1
372
    -1
  0
DIMSTYLE
105
A16
330
16
100
AcDbSymbolTableRecord
100
AcDbDimStyleTableRecord
  2
AM_BSI
 70
     0
  4
"
 41
4.0
 42
1.0
 43
10.0
 44
1.0
 47
0.1
 48
0.1
 73
     0
 74
     0
 77
     1
 78
     8
 79
     2
140
3.5
141
0.0
143
0.0393701
146
0.71
147
1.5
172
     1
176
   256
177
   256
178
     2
271
     2
272
     3
274
     4
283
     0
284
     8
340
C
371
    -1
372
    -1
  0
DIMSTYLE
105
A17
330
16
100
AcDbSymbolTableRecord
100
AcDbDimStyleTableRecord
  2
AM_DIN
 70
     0
  4
"
 41
2.5
 42
1.0
 43
10.0
 44
1.0
 47
0.1
 48
0.1
 73
     0
 74
     0
 77
     1
 78
     8
 79
     2
140
3.5
141
0.0
143
0.0393701
146
0.71
147
1.5
172
     1
176
   256
177
   256
178
     2
271
     2
272
     3
274
     4
283
     0
284
     8
340
C
371
    -1
372
    -1
  0
DIMSTYLE
105
A65
330
16
100
AcDbSymbolTableRecord
100
AcDbDimStyleTableRecord
  2
ISO-25
 70
     0
 41
2.5
 42
0.625
 43
3.75
 44
1.25
 73
     0
 74
     0
 77
     1
 78
     8
140
2.5
141
2.5
143
0.03937007874016
147
0.625
171
     3
172
     1
271
     2
272
     2
274
     3
278
    44
283
     0
284
     8
340
C
  0
DIMSTYLE
105
B8F
102
{ACAD_REACTORS
330
B93
330
C26
330
C4A
330
C72
330
CB8
330
CEB
330
D27
330
D4B
330
D97
330
DAD
330
DE1
330
E05
330
E29
102
}
330
16
100
AcDbSymbolTableRecord
100
AcDbDimStyleTableRecord
  2
AM_ISO$0
 70
     0
  4
"
 41
3.5
 42
1.0
 43
8.0
 44
1.0
 47
0.1
 48
0.1
 73
     0
 74
     0
 77
     1
 78
     8
 79
     2
140
3.5
141
0.0
143
0.0393701
146
0.71
147
1.0
172
     1
176
   256
177
   256
178
   256
271
     2
272
     2
283
     0
284
     8
285
     8
340
C
371
    -1
372
    -1
  0
ENDTAB
  0
TABLE
  2
BLOCK_RECORD
  5
1
330
0
100
AcDbSymbolTable
 70
    31
  0
BLOCK_RECORD
  5
2
102
{ACAD_XDICTIONARY
360
226
102
}
330
1
100
AcDbSymbolTableRecord
100
AcDbBlockTableRecord
  2
*MODEL_SPACE
340
CE
  0
BLOCK_RECORD
  5
7
102
{ACAD_XDICTIONARY
360
228
102
}
330
1
100
AcDbSymbolTableRecord
100
AcDbBlockTableRecord
  2
*PAPER_SPACE
340
CF
  0
BLOCK_RECORD
  5
296
330
1
100
AcDbSymbolTableRecord
100
AcDbBlockTableRecord
  2
GENAXEH
340
0
  0
BLOCK_RECORD
  5
3C6
330
1
100
AcDbSymbolTableRecord
100
AcDbBlockTableRecord
  2
*U1
340
0
  0
BLOCK_RECORD
  5
7E0
330
1
100
AcDbSymbolTableRecord
100
AcDbBlockTableRecord
  2
*D2
340
0
  0
BLOCK_RECORD
  5
811
330
1
100
AcDbSymbolTableRecord
100
AcDbBlockTableRecord
  2
*D3
340
0
  0
BLOCK_RECORD
  5
84D
330
1
100
AcDbSymbolTableRecord
100
AcDbBlockTableRecord
  2
*D4
340
0
  0
BLOCK_RECORD
  5
9F6
330
1
100
AcDbSymbolTableRecord
100
AcDbBlockTableRecord
  2
_Open30
340
0
  0
BLOCK_RECORD
  5
9FC
330
1
100
AcDbSymbolTableRecord
100
AcDbBlockTableRecord
  2
*U6
340
0
102
{BLKREFS
331
A0E
331
A0F
331
A13
102
}
  0
BLOCK_RECORD
  5
A00
330
1
100
AcDbSymbolTableRecord
100
AcDbBlockTableRecord
  2
*U7
340
0
102
{BLKREFS
331
A10
102
}
  0
BLOCK_RECORD
  5
A04
330
1
100
AcDbSymbolTableRecord
100
AcDbBlockTableRecord
  2
*U8
340
0
102
{BLKREFS
331
A11
102
}
  0
BLOCK_RECORD
  5
A08
330
1
100
AcDbSymbolTableRecord
100
AcDbBlockTableRecord
  2
*U9
340
0
102
{BLKREFS
331
A12
102
}
  0
BLOCK_RECORD
  5
A0C
330
1
100
AcDbSymbolTableRecord
100
AcDbBlockTableRecord
  2
*U10
340
0
  0
BLOCK_RECORD
  5
A18
102
{ACAD_XDICTIONARY
360
A1F
102
}
330
1
100
AcDbSymbolTableRecord
100
AcDbBlockTableRecord
  2
MCHG-125-O
340
0
  0
BLOCK_RECORD
  5
B94
330
1
100
AcDbSymbolTableRecord
100
AcDbBlockTableRecord
  2
*D13
340
0
  0
BLOCK_RECORD
  5
C27
330
1
100
AcDbSymbolTableRecord
100
AcDbBlockTableRecord
  2
*D18
340
0
  0
BLOCK_RECORD
  5
C4B
330
1
100
AcDbSymbolTableRecord
100
AcDbBlockTableRecord
  2
*D19
340
0
  0
BLOCK_RECORD
  5
C73
330
1
100
AcDbSymbolTableRecord
100
AcDbBlockTableRecord
  2
*D20
340
0
  0
BLOCK_RECORD
  5
CB9
330
1
100
AcDbSymbolTableRecord
100
AcDbBlockTableRecord
  2
*D21
340
0
  0
BLOCK_RECORD
  5
CEC
330
1
100
AcDbSymbolTableRecord
100
AcDbBlockTableRecord
  2
*D22
340
0
  0
BLOCK_RECORD
  5
D28
330
1
100
AcDbSymbolTableRecord
100
AcDbBlockTableRecord
  2
*D23
340
0
  0
BLOCK_RECORD
  5
D4C
330
1
100
AcDbSymbolTableRecord
100
AcDbBlockTableRecord
  2
*D24
340
0
  0
BLOCK_RECORD
  5
D70
330
1
100
AcDbSymbolTableRecord
100
AcDbBlockTableRecord
  2
*D25
340
0
  0
BLOCK_RECORD
  5
D98
330
1
100
AcDbSymbolTableRecord
100
AcDbBlockTableRecord
  2
*D26
340
0
  0
BLOCK_RECORD
  5
DAE
330
1
100
AcDbSymbolTableRecord
100
AcDbBlockTableRecord
  2
*D27
340
0
  0
BLOCK_RECORD
  5
DE2
330
1
100
AcDbSymbolTableRecord
100
AcDbBlockTableRecord
  2
*D28
340
0
  0
BLOCK_RECORD
  5
E06
330
1
100
AcDbSymbolTableRecord
100
AcDbBlockTableRecord
  2
*D29
340
0
  0
BLOCK_RECORD
  5
E2A
330
1
100
AcDbSymbolTableRecord
100
AcDbBlockTableRecord
  2
*D30
340
0
  0
ENDTAB
  0
ENDSEC
  0
SECTION
  2
BLOCKS
  0
BLOCK
  5
3
330
2
100
AcDbEntity
  8
0
100
AcDbBlockBegin
  2
*MODEL_SPACE
 70
     0
 10
0.0
 20
0.0
 30
0.0
  3
*MODEL_SPACE
  1

  0
ENDBLK
  5
6
330
2
100
AcDbEntity
  8
0
100
AcDbBlockEnd
  0
BLOCK
  5
8
330
7
100
AcDbEntity
 67
     1
  8
0
100
AcDbBlockBegin
  2
*PAPER_SPACE
 70
     0
 10
0.0
 20
0.0
 30
0.0
  3
*PAPER_SPACE
  1

  0
ENDBLK
  5
9
330
7
100
AcDbEntity
 67
     1
  8
0
100
AcDbBlockEnd
  0
BLOCK
  5
298
330
296
100
AcDbEntity
  8
0
100
AcDbBlockBegin
  2
GENAXEH
 70
     0
 10
0.0
 20
0.0
 30
0.0
  3
GENAXEH
  1

  0
LINE
  5
297
330
296
100
AcDbEntity
  8
0
100
AcDbLine
 10
-1.0
 20
0.0
 30
0.0
 11
1.0
 21
0.0
 31
0.0
  0
ENDBLK
  5
299
330
296
100
AcDbEntity
  8
0
100
AcDbBlockEnd
  0
BLOCK
  5
3C7
330
3C6
100
AcDbEntity
  8
0
100
AcDbBlockBegin
  2
*U1
 70
     1
 10
0.0
 20
0.0
 30
0.0
  3
*U1
  1

  0
ENDBLK
  5
3C8
330
3C6
100
AcDbEntity
  8
0
100
AcDbBlockEnd
  0
BLOCK
  5
7EA
330
7E0
100
AcDbEntity
  8
0
100
AcDbBlockBegin
  2
*D2
 70
     1
 10
0.0
 20
0.0
 30
0.0
  3
*D2
  1

  0
LINE
  5
9BF
330
7E0
100
AcDbEntity
  8
AM_5
370
    -2
100
AcDbLine
 10
685.5967901116322
 20
79.02074378796601
 30
0.0
 11
685.5967901116322
 21
102.3611910536884
 31
0.0
  0
LINE
  5
9C0
330
7E0
100
AcDbEntity
  8
AM_5
370
    -2
100
AcDbLine
 10
780.5967901116322
 20
79.4268706327291
 30
0.0
 11
780.5967901116322
 21
102.3611910536884
 31
0.0
  0
LINE
  5
9C1
330
7E0
100
AcDbEntity
  8
AM_5
370
    -2
100
AcDbLine
 10
689.5967901116322
 20
100.3611910536884
 30
0.0
 11
776.5967901116322
 21
100.3611910536884
 31
0.0
  0
SOLID
  5
9C2
330
7E0
100
AcDbEntity
  8
AM_5
100
AcDbTrace
 10
689.5967901116322
 20
101.0278577203551
 30
0.0
 11
689.5967901116322
 21
99.69452438702179
 31
0.0
 12
685.5967901116322
 22
100.3611910536884
 32
0.0
 13
685.5967901116322
 23
100.3611910536884
 33
0.0
  0
SOLID
  5
9C3
330
7E0
100
AcDbEntity
  8
AM_5
100
AcDbTrace
 10
776.5967901116322
 20
101.0278577203551
 30
0.0
 11
776.5967901116322
 21
99.69452438702179
 31
0.0
 12
780.5967901116322
 22
100.3611910536884
 32
0.0
 13
780.5967901116322
 23
100.3611910536884
 33
0.0
  0
MTEXT
  5
9C4
330
7E0
100
AcDbEntity
  8
AM_5
100
AcDbMText
 10
733.0967901116322
 20
103.5569390851845
 30
0.0
 40
6.0
 41
0.0
 71
     5
 72
     1
  1
\A1;95 
  7
CHINA
 73
     1
 44
1.0
  0
POINT
  5
9C5
330
7E0
100
AcDbEntity
  8
Defpoints
 62
     0
100
AcDbPoint
 10
685.5967901116322
 20
77.02074378796601
 30
0.0
  0
POINT
  5
9C6
330
7E0
100
AcDbEntity
  8
Defpoints
 62
     0
100
AcDbPoint
 10
780.5967901116322
 20
77.4268706327291
 30
0.0
  0
POINT
  5
9C7
330
7E0
100
AcDbEntity
  8
Defpoints
 62
     0
100
AcDbPoint
 10
780.5967901116322
 20
100.3611910536884
 30
0.0
  0
ENDBLK
  5
7EB
330
7E0
100
AcDbEntity
  8
0
100
AcDbBlockEnd
  0
BLOCK
  5
81B
330
811
100
AcDbEntity
  8
0
100
AcDbBlockBegin
  2
*D3
 70
     1
 10
0.0
 20
0.0
 30
0.0
  3
*D3
  1

  0
LINE
  5
9C8
330
811
100
AcDbEntity
  8
AM_5
370
    -2
100
AcDbLine
 10
781.5967901116322
 20
78.42687063272911
 30
0.0
 11
810.6110746774049
 21
78.42687063272909
 31
0.0
  0
LINE
  5
9C9
330
811
100
AcDbEntity
  8
AM_5
370
    -2
100
AcDbLine
 10
781.5967901116322
 20
-81.57312936727089
 30
0.0
 11
810.6110746774049
 21
-81.57312936727091
 31
0.0
  0
LINE
  5
9CA
330
811
100
AcDbEntity
  8
AM_5
370
    -2
100
AcDbLine
 10
808.611074677405
 20
74.42687063272909
 30
0.0
 11
808.611074677405
 21
-77.57312936727091
 31
0.0
  0
SOLID
  5
9CB
330
811
100
AcDbEntity
  8
AM_5
100
AcDbTrace
 10
807.9444080107384
 20
74.42687063272909
 30
0.0
 11
809.2777413440716
 21
74.42687063272909
 31
0.0
 12
808.611074677405
 22
78.42687063272909
 32
0.0
 13
808.611074677405
 23
78.42687063272909
 33
0.0
  0
SOLID
  5
9CC
330
811
100
AcDbEntity
  8
AM_5
100
AcDbTrace
 10
807.9444080107384
 20
-77.57312936727091
 30
0.0
 11
809.2777413440716
 21
-77.57312936727091
 31
0.0
 12
808.611074677405
 22
-81.57312936727091
 32
0.0
 13
808.611074677405
 23
-81.57312936727091
 33
0.0
  0
MTEXT
  5
9CD
330
811
100
AcDbEntity
  8
AM_5
100
AcDbMText
 10
805.4310746774049
 20
-1.573129367270772
 30
0.0
 40
6.0
 41
0.0
 71
     5
 72
     1
  1
\A1;%%c160 
  7
CHINA
 11
0.0000000000000001
 21
1.0
 31
0.0
 73
     1
 44
1.0
  0
POINT
  5
9CE
330
811
100
AcDbEntity
  8
Defpoints
 62
     0
100
AcDbPoint
 10
779.5967901116322
 20
78.42687063272911
 30
0.0
  0
POINT
  5
9CF
330
811
100
AcDbEntity
  8
Defpoints
 62
     0
100
AcDbPoint
 10
779.5967901116322
 20
-81.57312936727089
 30
0.0
  0
POINT
  5
9D0
330
811
100
AcDbEntity
  8
Defpoints
 62
     0
100
AcDbPoint
 10
808.611074677405
 20
-81.57312936727091
 30
0.0
  0
ENDBLK
  5
81C
330
811
100
AcDbEntity
  8
0
100
AcDbBlockEnd
  0
BLOCK
  5
857
330
84D
100
AcDbEntity
  8
0
100
AcDbBlockBegin
  2
*D4
 70
     1
 10
0.0
 20
0.0
 30
0.0
  3
*D4
  1

  0
LINE
  5
9B2
330
84D
100
AcDbEntity
  8
AM_5
370
    -2
100
AcDbLine
 10
570.526842888328
 20
-86.59285462421314
 30
0.0
 11
654.0889431442321
 21
-86.59285462421316
 31
0.0
  0
LINE
  5
9B3
330
84D
100
AcDbEntity
  8
AM_5
370
    -2
100
AcDbLine
 10
642.3876404883287
 20
-1.573129367270838
 30
0.0
 11
654.0889431442321
 21
-1.573129367270841
 31
0.0
  0
LINE
  5
9B4
330
84D
100
AcDbEntity
  8
AM_5
370
    -2
100
AcDbLine
 10
652.0889431442322
 20
-82.59285462421315
 30
0.0
 11
652.0889431442322
 21
-5.573129367270841
 31
0.0
  0
SOLID
  5
9B5
330
84D
100
AcDbEntity
  8
AM_5
100
AcDbTrace
 10
651.4222764775655
 20
-82.59285462421315
 30
0.0
 11
652.7556098108988
 21
-82.59285462421315
 31
0.0
 12
652.0889431442322
 22
-86.59285462421316
 32
0.0
 13
652.0889431442322
 23
-86.59285462421316
 33
0.0
  0
SOLID
  5
9B6
330
84D
100
AcDbEntity
  8
AM_5
100
AcDbTrace
 10
651.4222764775655
 20
-5.573129367270841
 30
0.0
 11
652.7556098108988
 21
-5.573129367270841
 31
0.0
 12
652.0889431442322
 22
-1.57312936727084
 32
0.0
 13
652.0889431442322
 23
-1.57312936727084
 33
0.0
  0
MTEXT
  5
9B7
330
84D
100
AcDbEntity
  8
AM_5
100
AcDbMText
 10
648.8931951127361
 20
-44.0829919957419
 30
0.0
 40
6.0
 41
0.0
 71
     5
 72
     1
  1
\A1;85 
  7
CHINA
 11
0.0000000000000001
 21
1.0
 31
0.0
 73
     1
 44
1.0
  0
POINT
  5
9B8
330
84D
100
AcDbEntity
  8
Defpoints
 62
     0
100
AcDbPoint
 10
568.526842888328
 20
-86.59285462421314
 30
0.0
  0
POINT
  5
9B9
330
84D
100
AcDbEntity
  8
Defpoints
 62
     0
100
AcDbPoint
 10
640.3876404883288
 20
-1.573129367270837
 30
0.0
  0
POINT
  5
9BA
330
84D
100
AcDbEntity
  8
Defpoints
 62
     0
100
AcDbPoint
 10
652.0889431442322
 20
-1.57312936727084
 30
0.0
  0
ENDBLK
  5
858
330
84D
100
AcDbEntity
  8
0
100
AcDbBlockEnd
  0
BLOCK
  5
9F7
330
9F6
100
AcDbEntity
  8
0
100
AcDbBlockBegin
  2
_Open30
 70
     0
 10
0.0
 20
0.0
 30
0.0
  3
_Open30
  1

  0
LINE
  5
9F8
330
9F6
100
AcDbEntity
  8
0
  6
ByBlock
 62
     0
370
    -2
100
AcDbLine
 10
-1.0
 20
0.26794919
 30
0.0
 11
0.0
 21
0.0
 31
0.0
  0
LINE
  5
9F9
330
9F6
100
AcDbEntity
  8
0
  6
ByBlock
 62
     0
370
    -2
100
AcDbLine
 10
0.0
 20
0.0
 30
0.0
 11
-1.0
 21
-0.26794919
 31
0.0
  0
LINE
  5
9FA
330
9F6
100
AcDbEntity
  8
0
  6
ByBlock
 62
     0
370
    -2
100
AcDbLine
 10
0.0
 20
0.0
 30
0.0
 11
-1.0
 21
0.0
 31
0.0
  0
ENDBLK
  5
9FB
330
9F6
100
AcDbEntity
  8
0
100
AcDbBlockEnd
  0
BLOCK
  5
9FD
330
9FC
100
AcDbEntity
  8
0
100
AcDbBlockBegin
  2
*U6
 70
     1
 10
0.0
 20
0.0
 30
0.0
  3
*U6
  1

  0
ENDBLK
  5
9FF
330
9FC
100
AcDbEntity
  8
0
100
AcDbBlockEnd
  0
BLOCK
  5
A01
330
A00
100
AcDbEntity
  8
0
100
AcDbBlockBegin
  2
*U7
 70
     1
 10
0.0
 20
0.0
 30
0.0
  3
*U7
  1

  0
ENDBLK
  5
A03
330
A00
100
AcDbEntity
  8
0
100
AcDbBlockEnd
  0
BLOCK
  5
A05
330
A04
100
AcDbEntity
  8
0
100
AcDbBlockBegin
  2
*U8
 70
     1
 10
0.0
 20
0.0
 30
0.0
  3
*U8
  1

  0
ENDBLK
  5
A07
330
A04
100
AcDbEntity
  8
0
100
AcDbBlockEnd
  0
BLOCK
  5
A09
330
A08
100
AcDbEntity
  8
0
100
AcDbBlockBegin
  2
*U9
 70
     1
 10
0.0
 20
0.0
 30
0.0
  3
*U9
  1

  0
ENDBLK
  5
A0B
330
A08
100
AcDbEntity
  8
0
100
AcDbBlockEnd
  0
BLOCK
  5
A0D
330
A0C
100
AcDbEntity
  8
0
100
AcDbBlockBegin
  2
*U10
 70
     1
 10
0.0
 20
0.0
 30
0.0
  3
*U10
  1

  0
ENDBLK
  5
A14
330
A0C
100
AcDbEntity
  8
0
100
AcDbBlockEnd
  0
BLOCK
  5
A20
330
A18
100
AcDbEntity
  8
0
100
AcDbBlockBegin
  2
MCHG-125-O
 70
     0
 10
0.0
 20
0.0
 30
0.0
  3
MCHG-125-O
  1

  0
ENDBLK
  5
A21
330
A18
100
AcDbEntity
  8
0
100
AcDbBlockEnd
  0
BLOCK
  5
B9E
330
B94
100
AcDbEntity
  8
0
100
AcDbBlockBegin
  2
*D13
 70
     1
 10
0.0
 20
0.0
 30
0.0
  3
*D13
  1

  0
LINE
  5
BF1
330
B94
100
AcDbEntity
  8
AM_5
100
AcDbLine
 10
795.0197156336979
 20
78.42687369013235
 30
0.0
 11
819.4736529608478
 21
78.42687369013233
 31
0.0
  0
LINE
  5
BF2
330
B94
100
AcDbEntity
  8
AM_5
100
AcDbLine
 10
795.0197156336979
 20
-81.57312630986762
 30
0.0
 11
819.4736529608478
 21
-81.57312630986764
 31
0.0
  0
LINE
  5
BF3
330
B94
100
AcDbEntity
  8
AM_5
100
AcDbLine
 10
818.4736529608478
 20
74.92687369013234
 30
0.0
 11
818.4736529608478
 21
-78.07312630986763
 31
0.0
  0
SOLID
  5
BF4
330
B94
100
AcDbEntity
  8
AM_5
100
AcDbTrace
 10
817.8903196275145
 20
74.92687369013234
 30
0.0
 11
819.0569862941812
 21
74.92687369013234
 31
0.0
 12
818.4736529608478
 22
78.42687369013233
 32
0.0
 13
818.4736529608478
 23
78.42687369013233
 33
0.0
  0
SOLID
  5
BF5
330
B94
100
AcDbEntity
  8
AM_5
100
AcDbTrace
 10
817.8903196275145
 20
-78.07312630986763
 30
0.0
 11
819.0569862941812
 21
-78.07312630986763
 31
0.0
 12
818.4736529608478
 22
-81.57312630986764
 32
0.0
 13
818.4736529608478
 23
-81.57312630986764
 33
0.0
  0
MTEXT
  5
BF6
330
B94
100
AcDbEntity
  8
AM_5
100
AcDbMText
 10
815.7236529608479
 20
-1.573126309867511
 30
0.0
 40
3.5
 41
0.0
 71
     5
 72
     1
  1
%%C160
 11
0.0000000000000001
 21
1.0
 31
0.0
 73
     1
 44
1.0
  0
POINT
  5
BF7
330
B94
100
AcDbEntity
  8
Defpoints
 62
     0
100
AcDbPoint
 10
794.0197156336979
 20
78.42687369013235
 30
0.0
  0
POINT
  5
BF8
330
B94
100
AcDbEntity
  8
Defpoints
 62
     0
100
AcDbPoint
 10
794.0197156336979
 20
-81.57312630986762
 30
0.0
  0
POINT
  5
BF9
330
B94
100
AcDbEntity
  8
Defpoints
 62
     0
100
AcDbPoint
 10
818.4736529608478
 20
-81.57312630986764
 30
0.0
  0
ENDBLK
  5
B9F
330
B94
100
AcDbEntity
  8
0
100
AcDbBlockEnd
  0
BLOCK
  5
C31
330
C27
100
AcDbEntity
  8
0
100
AcDbBlockBegin
  2
*D18
 70
     1
 10
0.0
 20
0.0
 30
0.0
  3
*D18
  1

  0
LINE
  5
C33
330
C27
100
AcDbEntity
  8
AM_5
100
AcDbLine
 10
728.0197156336978
 20
-87.59285462421315
 30
0.0
 11
728.0197156336978
 21
-99.59285462421313
 31
0.0
  0
LINE
  5
C34
330
C27
100
AcDbEntity
  8
AM_5
100
AcDbLine
 10
795.0197156336979
 20
-81.57312630986762
 30
0.0
 11
795.0197156336979
 21
-99.59285462421313
 31
0.0
  0
LINE
  5
C35
330
C27
100
AcDbEntity
  8
AM_5
100
AcDbLine
 10
731.5197156336978
 20
-98.59285462421311
 30
0.0
 11
791.5197156336979
 21
-98.59285462421311
 31
0.0
  0
SOLID
  5
C36
330
C27
100
AcDbEntity
  8
AM_5
100
AcDbTrace
 10
731.5197156336978
 20
-98.00952129087979
 30
0.0
 11
731.5197156336978
 21
-99.17618795754645
 31
0.0
 12
728.0197156336978
 22
-98.59285462421311
 32
0.0
 13
728.0197156336978
 23
-98.59285462421311
 33
0.0
  0
SOLID
  5
C37
330
C27
100
AcDbEntity
  8
AM_5
100
AcDbTrace
 10
791.5197156336979
 20
-98.00952129087979
 30
0.0
 11
791.5197156336979
 21
-99.17618795754645
 31
0.0
 12
795.0197156336979
 22
-98.59285462421311
 32
0.0
 13
795.0197156336979
 23
-98.59285462421311
 33
0.0
  0
MTEXT
  5
C38
330
C27
100
AcDbEntity
  8
AM_5
100
AcDbMText
 10
761.5197156336978
 20
-95.84285462421311
 30
0.0
 40
3.5
 41
0.0
 71
     5
 72
     1
  1
67
 73
     1
 44
1.0
  0
POINT
  5
C39
330
C27
100
AcDbEntity
  8
Defpoints
 62
     0
100
AcDbPoint
 10
728.0197156336978
 20
-86.59285462421316
 30
0.0
  0
POINT
  5
C3A
330
C27
100
AcDbEntity
  8
Defpoints
 62
     0
100
AcDbPoint
 10
795.0197156336979
 20
-80.57312630986762
 30
0.0
  0
POINT
  5
C3B
330
C27
100
AcDbEntity
  8
Defpoints
 62
     0
100
AcDbPoint
 10
795.0197156336979
 20
-98.59285462421311
 30
0.0
  0
ENDBLK
  5
C32
330
C27
100
AcDbEntity
  8
0
100
AcDbBlockEnd
  0
BLOCK
  5
C57
330
C4B
100
AcDbEntity
  8
0
100
AcDbBlockBegin
  2
*D19
 70
     1
 10
0.0
 20
0.0
 30
0.0
  3
*D19
  1

  0
LINE
  5
C59
330
C4B
100
AcDbEntity
  8
AM_5
100
AcDbLine
 10
708.0197156336973
 20
-67.57312936727084
 30
0.0
 11
708.0197156336973
 21
-99.59285462421384
 31
0.0
  0
LINE
  5
C5A
330
C4B
100
AcDbEntity
  8
AM_5
100
AcDbLine
 10
704.0197156336973
 20
-87.59285462421315
 30
0.0
 11
704.0197156336973
 21
-99.59285462421384
 31
0.0
  0
LINE
  5
C5B
330
C4B
100
AcDbEntity
  8
AM_5
100
AcDbLine
 10
711.5197156336973
 20
-98.59285462421384
 30
0.0
 11
715.0197156336973
 21
-98.59285462421384
 31
0.0
  0
LINE
  5
C5C
330
C4B
100
AcDbEntity
  8
AM_5
100
AcDbLine
 10
700.5197156336974
 20
-98.59285462421384
 30
0.0
 11
697.0197156336974
 21
-98.59285462421384
 31
0.0
  0
LINE
  5
C5D
330
C4B
100
AcDbEntity
  8
AM_5
100
AcDbLine
 10
708.0197156336973
 20
-98.59285462421384
 30
0.0
 11
704.0197156336973
 21
-98.59285462421384
 31
0.0
  0
SOLID
  5
C5E
330
C4B
100
AcDbEntity
  8
AM_5
100
AcDbTrace
 10
711.5197156336973
 20
-98.00952129088052
 30
0.0
 11
711.5197156336973
 21
-99.17618795754718
 31
0.0
 12
708.0197156336973
 22
-98.59285462421384
 32
0.0
 13
708.0197156336973
 23
-98.59285462421384
 33
0.0
  0
SOLID
  5
C5F
330
C4B
100
AcDbEntity
  8
AM_5
100
AcDbTrace
 10
700.5197156336974
 20
-98.00952129088052
 30
0.0
 11
700.5197156336974
 21
-99.17618795754718
 31
0.0
 12
704.0197156336973
 22
-98.59285462421384
 32
0.0
 13
704.0197156336973
 23
-98.59285462421384
 33
0.0
  0
MTEXT
  5
C60
330
C4B
100
AcDbEntity
  8
AM_5
100
AcDbMText
 10
706.0197156336974
 20
-95.84285462421384
 30
0.0
 40
3.5
 41
0.0
 71
     5
 72
     1
  1
4
 73
     1
 44
1.0
  0
POINT
  5
C61
330
C4B
100
AcDbEntity
  8
Defpoints
 62
     0
100
AcDbPoint
 10
708.0197156336973
 20
-66.57312936727084
 30
0.0
  0
POINT
  5
C62
330
C4B
100
AcDbEntity
  8
Defpoints
 62
     0
100
AcDbPoint
 10
704.0197156336973
 20
-86.59285462421316
 30
0.0
  0
POINT
  5
C63
330
C4B
100
AcDbEntity
  8
Defpoints
 62
     0
100
AcDbPoint
 10
704.0197156336973
 20
-98.59285462421384
 30
0.0
  0
ENDBLK
  5
C58
330
C4B
100
AcDbEntity
  8
0
100
AcDbBlockEnd
  0
BLOCK
  5
C7F
330
C73
100
AcDbEntity
  8
0
100
AcDbBlockBegin
  2
*D20
 70
     1
 10
0.0
 20
0.0
 30
0.0
  3
*D20
  1

  0
LINE
  5
C8F
330
C73
100
AcDbEntity
  8
AM_5
100
AcDbLine
 10
700.0197156336978
 20
-82.57312579099213
 30
0.0
 11
700.0197156336978
 21
-107.7554248785813
 31
0.0
  0
LINE
  5
C90
330
C73
100
AcDbEntity
  8
AM_5
100
AcDbLine
 10
704.0197156336971
 20
-67.57312936727084
 30
0.0
 11
704.0197156336971
 21
-107.7554248785813
 31
0.0
  0
LINE
  5
C91
330
C73
100
AcDbEntity
  8
AM_5
100
AcDbLine
 10
696.5197156336978
 20
-106.7554248785813
 30
0.0
 11
693.0197156336978
 21
-106.7554248785813
 31
0.0
  0
LINE
  5
C92
330
C73
100
AcDbEntity
  8
AM_5
100
AcDbLine
 10
707.5197156336971
 20
-106.7554248785813
 30
0.0
 11
711.0197156336972
 21
-106.7554248785813
 31
0.0
  0
LINE
  5
C93
330
C73
100
AcDbEntity
  8
AM_5
100
AcDbLine
 10
700.0197156336978
 20
-106.7554248785813
 30
0.0
 11
704.0197156336971
 21
-106.7554248785813
 31
0.0
  0
SOLID
  5
C94
330
C73
100
AcDbEntity
  8
AM_5
100
AcDbTrace
 10
696.5197156336978
 20
-106.172091545248
 30
0.0
 11
696.5197156336978
 21
-107.3387582119146
 31
0.0
 12
700.0197156336978
 22
-106.7554248785813
 32
0.0
 13
700.0197156336978
 23
-106.7554248785813
 33
0.0
  0
SOLID
  5
C95
330
C73
100
AcDbEntity
  8
AM_5
100
AcDbTrace
 10
707.5197156336971
 20
-106.172091545248
 30
0.0
 11
707.5197156336971
 21
-107.3387582119146
 31
0.0
 12
704.0197156336971
 22
-106.7554248785813
 32
0.0
 13
704.0197156336971
 23
-106.7554248785813
 33
0.0
  0
MTEXT
  5
C96
330
C73
100
AcDbEntity
  8
AM_5
100
AcDbMText
 10
702.0197156336974
 20
-104.0054248785813
 30
0.0
 40
3.5
 41
0.0
 71
     5
 72
     1
  1
4
 73
     1
 44
1.0
  0
POINT
  5
C97
330
C73
100
AcDbEntity
  8
Defpoints
 62
     0
100
AcDbPoint
 10
700.0197156336978
 20
-81.57312579099214
 30
0.0
  0
POINT
  5
C98
330
C73
100
AcDbEntity
  8
Defpoints
 62
     0
100
AcDbPoint
 10
704.0197156336971
 20
-66.57312936727084
 30
0.0
  0
POINT
  5
C99
330
C73
100
AcDbEntity
  8
Defpoints
 62
     0
100
AcDbPoint
 10
704.0197156336971
 20
-106.7554248785813
 30
0.0
  0
ENDBLK
  5
C80
330
C73
100
AcDbEntity
  8
0
100
AcDbBlockEnd
  0
BLOCK
  5
CC5
330
CB9
100
AcDbEntity
  8
0
100
AcDbBlockBegin
  2
*D21
 70
     1
 10
0.0
 20
0.0
 30
0.0
  3
*D21
  1

  0
LINE
  5
D0D
330
CB9
100
AcDbEntity
  8
AM_5
100
AcDbLine
 10
698.0197155386917
 20
36.92687391098464
 30
0.0
 11
698.0197155386917
 21
91.42687063272918
 31
0.0
  0
LINE
  5
D0E
330
CB9
100
AcDbEntity
  8
AM_5
100
AcDbLine
 10
700.0197156336977
 20
79.42687063272917
 30
0.0
 11
700.0197156336977
 21
91.42687063272918
 31
0.0
  0
LINE
  5
D0F
330
CB9
100
AcDbEntity
  8
AM_5
100
AcDbLine
 10
694.5197155386916
 20
90.42687063272918
 30
0.0
 11
691.0197155386916
 21
90.42687063272918
 31
0.0
  0
LINE
  5
D10
330
CB9
100
AcDbEntity
  8
AM_5
100
AcDbLine
 10
703.5197156336977
 20
90.42687063272918
 30
0.0
 11
707.0197156336977
 21
90.42687063272918
 31
0.0
  0
LINE
  5
D11
330
CB9
100
AcDbEntity
  8
AM_5
100
AcDbLine
 10
698.0197155386917
 20
90.42687063272918
 30
0.0
 11
700.0197156336977
 21
90.42687063272918
 31
0.0
  0
SOLID
  5
D12
330
CB9
100
AcDbEntity
  8
AM_5
100
AcDbTrace
 10
694.5197155386916
 20
91.0102039660625
 30
0.0
 11
694.5197155386916
 21
89.84353729939584
 31
0.0
 12
698.0197155386917
 22
90.42687063272918
 32
0.0
 13
698.0197155386917
 23
90.42687063272918
 33
0.0
  0
SOLID
  5
D13
330
CB9
100
AcDbEntity
  8
AM_5
100
AcDbTrace
 10
703.5197156336977
 20
91.0102039660625
 30
0.0
 11
703.5197156336977
 21
89.84353729939584
 31
0.0
 12
700.0197156336977
 22
90.42687063272918
 32
0.0
 13
700.0197156336977
 23
90.42687063272918
 33
0.0
  0
MTEXT
  5
D14
330
CB9
100
AcDbEntity
  8
AM_5
100
AcDbMText
 10
699.0197155861947
 20
93.17721512091814
 30
0.0
 40
3.5
 41
0.0
 71
     5
 72
     1
  1
2
 73
     1
 44
1.0
  0
POINT
  5
D15
330
CB9
100
AcDbEntity
  8
Defpoints
 62
     0
100
AcDbPoint
 10
698.0197155386917
 20
35.92687391098464
 30
0.0
  0
POINT
  5
D16
330
CB9
100
AcDbEntity
  8
Defpoints
 62
     0
100
AcDbPoint
 10
700.0197156336977
 20
78.42687063272918
 30
0.0
  0
POINT
  5
D17
330
CB9
100
AcDbEntity
  8
Defpoints
 62
     0
100
AcDbPoint
 10
700.0197156336977
 20
90.42687063272918
 30
0.0
  0
ENDBLK
  5
CC6
330
CB9
100
AcDbEntity
  8
0
100
AcDbBlockEnd
  0
BLOCK
  5
CF6
330
CEC
100
AcDbEntity
  8
0
100
AcDbBlockBegin
  2
*D22
 70
     1
 10
0.0
 20
0.0
 30
0.0
  3
*D22
  1

  0
LINE
  5
D01
330
CEC
100
AcDbEntity
  8
AM_5
100
AcDbLine
 10
700.0197156336977
 20
79.42687063272917
 30
0.0
 11
700.0197156336977
 21
91.42687063272914
 31
0.0
  0
LINE
  5
D02
330
CEC
100
AcDbEntity
  8
AM_5
100
AcDbLine
 10
795.0197156336979
 20
78.42687369013233
 30
0.0
 11
795.0197156336979
 21
91.42687063272914
 31
0.0
  0
LINE
  5
D03
330
CEC
100
AcDbEntity
  8
AM_5
100
AcDbLine
 10
703.5197156336977
 20
90.42687063272914
 30
0.0
 11
791.5197156336979
 21
90.42687063272914
 31
0.0
  0
SOLID
  5
D04
330
CEC
100
AcDbEntity
  8
AM_5
100
AcDbTrace
 10
703.5197156336977
 20
91.01020396606248
 30
0.0
 11
703.5197156336977
 21
89.84353729939583
 31
0.0
 12
700.0197156336977
 22
90.42687063272914
 32
0.0
 13
700.0197156336977
 23
90.42687063272914
 33
0.0
  0
SOLID
  5
D05
330
CEC
100
AcDbEntity
  8
AM_5
100
AcDbTrace
 10
791.5197156336979
 20
91.01020396606248
 30
0.0
 11
791.5197156336979
 21
89.84353729939583
 31
0.0
 12
795.0197156336979
 22
90.42687063272914
 32
0.0
 13
795.0197156336979
 23
90.42687063272914
 33
0.0
  0
MTEXT
  5
D06
330
CEC
100
AcDbEntity
  8
AM_5
100
AcDbMText
 10
747.5197156336978
 20
93.17687063272915
 30
0.0
 40
3.5
 41
0.0
 71
     5
 72
     1
  1
95
 73
     1
 44
1.0
  0
POINT
  5
D07
330
CEC
100
AcDbEntity
  8
Defpoints
 62
     0
100
AcDbPoint
 10
700.0197156336977
 20
78.42687063272918
 30
0.0
  0
POINT
  5
D08
330
CEC
100
AcDbEntity
  8
Defpoints
 62
     0
100
AcDbPoint
 10
795.0197156336979
 20
77.42687369013234
 30
0.0
  0
POINT
  5
D09
330
CEC
100
AcDbEntity
  8
Defpoints
 62
     0
100
AcDbPoint
 10
795.0197156336979
 20
90.42687063272914
 30
0.0
  0
ENDBLK
  5
CF7
330
CEC
100
AcDbEntity
  8
0
100
AcDbBlockEnd
  0
BLOCK
  5
D32
330
D28
100
AcDbEntity
  8
0
100
AcDbBlockBegin
  2
*D23
 70
     1
 10
0.0
 20
0.0
 30
0.0
  3
*D23
  1

  0
LINE
  5
D34
330
D28
100
AcDbEntity
  8
AM_5
100
AcDbLine
 10
528.526842888328
 20
-87.59285462421269
 30
0.0
 11
528.526842888328
 21
-117.2423491137895
 31
0.0
  0
LINE
  5
D35
330
D28
100
AcDbEntity
  8
AM_5
100
AcDbLine
 10
568.526842888328
 20
-87.59285462421315
 30
0.0
 11
568.526842888328
 21
-117.2423491137895
 31
0.0
  0
LINE
  5
D36
330
D28
100
AcDbEntity
  8
AM_5
100
AcDbLine
 10
532.026842888328
 20
-116.2423491137895
 30
0.0
 11
565.026842888328
 21
-116.2423491137895
 31
0.0
  0
SOLID
  5
D37
330
D28
100
AcDbEntity
  8
AM_5
100
AcDbTrace
 10
532.026842888328
 20
-115.6590157804562
 30
0.0
 11
532.026842888328
 21
-116.8256824471229
 31
0.0
 12
528.526842888328
 22
-116.2423491137895
 32
0.0
 13
528.526842888328
 23
-116.2423491137895
 33
0.0
  0
SOLID
  5
D38
330
D28
100
AcDbEntity
  8
AM_5
100
AcDbTrace
 10
565.026842888328
 20
-115.6590157804562
 30
0.0
 11
565.026842888328
 21
-116.8256824471229
 31
0.0
 12
568.526842888328
 22
-116.2423491137895
 32
0.0
 13
568.526842888328
 23
-116.2423491137895
 33
0.0
  0
MTEXT
  5
D39
330
D28
100
AcDbEntity
  8
AM_5
100
AcDbMText
 10
548.526842888328
 20
-113.4923491137896
 30
0.0
 40
3.5
 41
0.0
 71
     5
 72
     1
  1
40
 73
     1
 44
1.0
  0
POINT
  5
D3A
330
D28
100
AcDbEntity
  8
Defpoints
 62
     0
100
AcDbPoint
 10
528.526842888328
 20
-86.59285462421269
 30
0.0
  0
POINT
  5
D3B
330
D28
100
AcDbEntity
  8
Defpoints
 62
     0
100
AcDbPoint
 10
568.526842888328
 20
-86.59285462421314
 30
0.0
  0
POINT
  5
D3C
330
D28
100
AcDbEntity
  8
Defpoints
 62
     0
100
AcDbPoint
 10
568.526842888328
 20
-116.2423491137895
 30
0.0
  0
ENDBLK
  5
D33
330
D28
100
AcDbEntity
  8
0
100
AcDbBlockEnd
  0
BLOCK
  5
D56
330
D4C
100
AcDbEntity
  8
0
100
AcDbBlockBegin
  2
*D24
 70
     1
 10
0.0
 20
0.0
 30
0.0
  3
*D24
  1

  0
LINE
  5
E4A
330
D4C
100
AcDbEntity
  8
AM_5
100
AcDbLine
 10
538.426842888328
 20
-87.59285462421292
 30
0.0
 11
538.426842888328
 21
-105.9915124692434
 31
0.0
  0
LINE
  5
E4B
330
D4C
100
AcDbEntity
  8
AM_5
100
AcDbLine
 10
558.6268428883279
 20
-87.59285462421315
 30
0.0
 11
558.6268428883279
 21
-105.9915124692434
 31
0.0
  0
LINE
  5
E4C
330
D4C
100
AcDbEntity
  8
AM_5
100
AcDbLine
 10
541.9268428883279
 20
-104.9915124692434
 30
0.0
 11
555.1268428883279
 21
-104.9915124692434
 31
0.0
  0
SOLID
  5
E4D
330
D4C
100
AcDbEntity
  8
AM_5
100
AcDbTrace
 10
541.9268428883279
 20
-104.4081791359101
 30
0.0
 11
541.9268428883279
 21
-105.5748458025768
 31
0.0
 12
538.426842888328
 22
-104.9915124692434
 32
0.0
 13
538.426842888328
 23
-104.9915124692434
 33
0.0
  0
SOLID
  5
E4E
330
D4C
100
AcDbEntity
  8
AM_5
100
AcDbTrace
 10
555.1268428883279
 20
-104.4081791359101
 30
0.0
 11
555.1268428883279
 21
-105.5748458025768
 31
0.0
 12
558.6268428883279
 22
-104.9915124692434
 32
0.0
 13
558.6268428883279
 23
-104.9915124692434
 33
0.0
  0
MTEXT
  5
E4F
330
D4C
100
AcDbEntity
  8
AM_5
100
AcDbMText
 10
548.526842888328
 20
-102.2411679810545
 30
0.0
 40
3.5
 41
0.0
 71
     5
 72
     1
  1
20.2
 73
     1
 44
1.0
  0
POINT
  5
E50
330
D4C
100
AcDbEntity
  8
Defpoints
 62
     0
100
AcDbPoint
 10
538.426842888328
 20
-86.59285462421292
 30
0.0
  0
POINT
  5
E51
330
D4C
100
AcDbEntity
  8
Defpoints
 62
     0
100
AcDbPoint
 10
558.6268428883279
 20
-86.59285462421314
 30
0.0
  0
POINT
  5
E52
330
D4C
100
AcDbEntity
  8
Defpoints
 62
     0
100
AcDbPoint
 10
558.6268428883279
 20
-104.9915124692434
 30
0.0
  0
ENDBLK
  5
D57
330
D4C
100
AcDbEntity
  8
0
100
AcDbBlockEnd
  0
BLOCK
  5
D7C
330
D70
100
AcDbEntity
  8
0
100
AcDbBlockBegin
  2
*D25
 70
     1
 10
0.0
 20
0.0
 30
0.0
  3
*D25
  1

  0
LINE
  5
D7E
330
D70
100
AcDbEntity
  8
AM_5
100
AcDbLine
 10
554.8074170692139
 20
-77.59285486381864
 30
0.0
 11
632.2595528228577
 21
-77.59285486381866
 31
0.0
  0
LINE
  5
D7F
330
D70
100
AcDbEntity
  8
AM_5
100
AcDbLine
 10
569.526842888328
 20
-86.59285462421314
 30
0.0
 11
632.2595528228577
 21
-86.59285462421316
 31
0.0
  0
LINE
  5
D80
330
D70
100
AcDbEntity
  8
AM_5
100
AcDbLine
 10
631.2595528228577
 20
-74.09285486381866
 30
0.0
 11
631.2595528228577
 21
-70.59285486381866
 31
0.0
  0
LINE
  5
D81
330
D70
100
AcDbEntity
  8
AM_5
100
AcDbLine
 10
631.2595528228577
 20
-90.09285462421315
 30
0.0
 11
631.2595528228577
 21
-93.59285462421317
 31
0.0
  0
LINE
  5
D82
330
D70
100
AcDbEntity
  8
AM_5
100
AcDbLine
 10
631.2595528228577
 20
-77.59285486381866
 30
0.0
 11
631.2595528228577
 21
-86.59285462421316
 31
0.0
  0
SOLID
  5
D83
330
D70
100
AcDbEntity
  8
AM_5
100
AcDbTrace
 10
630.6762194895243
 20
-74.09285486381866
 30
0.0
 11
631.842886156191
 21
-74.09285486381866
 31
0.0
 12
631.2595528228577
 22
-77.59285486381866
 32
0.0
 13
631.2595528228577
 23
-77.59285486381866
 33
0.0
  0
SOLID
  5
D84
330
D70
100
AcDbEntity
  8
AM_5
100
AcDbTrace
 10
630.6762194895243
 20
-90.09285462421315
 30
0.0
 11
631.842886156191
 21
-90.09285462421315
 31
0.0
 12
631.2595528228577
 22
-86.59285462421316
 32
0.0
 13
631.2595528228577
 23
-86.59285462421316
 33
0.0
  0
MTEXT
  5
D85
330
D70
100
AcDbEntity
  8
AM_5
100
AcDbMText
 10
628.5095528228577
 20
-82.0928547440158
 30
0.0
 40
3.5
 41
0.0
 71
     5
 72
     1
  1
9
 11
0.0000000000000001
 21
1.0
 31
0.0
 73
     1
 44
1.0
  0
POINT
  5
D86
330
D70
100
AcDbEntity
  8
Defpoints
 62
     0
100
AcDbPoint
 10
553.8074170692139
 20
-77.59285486381864
 30
0.0
  0
POINT
  5
D87
330
D70
100
AcDbEntity
  8
Defpoints
 62
     0
100
AcDbPoint
 10
568.526842888328
 20
-86.59285462421314
 30
0.0
  0
POINT
  5
D88
330
D70
100
AcDbEntity
  8
Defpoints
 62
     0
100
AcDbPoint
 10
631.2595528228577
 20
-86.59285462421316
 30
0.0
  0
ENDBLK
  5
D7D
330
D70
100
AcDbEntity
  8
0
100
AcDbBlockEnd
  0
BLOCK
  5
DA2
330
D98
100
AcDbEntity
  8
0
100
AcDbBlockBegin
  2
*D26
 70
     1
 10
0.0
 20
0.0
 30
0.0
  3
*D26
  1

  0
LINE
  5
DA4
330
D98
100
AcDbEntity
  8
AM_5
100
AcDbLine
 10
554.8074170692134
 20
-45.59285462421297
 30
0.0
 11
632.2595528228577
 21
-45.592854624213
 31
0.0
  0
LINE
  5
DA5
330
D98
100
AcDbEntity
  8
AM_5
100
AcDbLine
 10
554.8074170692139
 20
-77.59285486381864
 30
0.0
 11
632.2595528228577
 21
-77.59285486381866
 31
0.0
  0
LINE
  5
DA6
330
D98
100
AcDbEntity
  8
AM_5
100
AcDbLine
 10
631.2595528228577
 20
-49.092854624213
 30
0.0
 11
631.2595528228577
 21
-74.09285486381866
 31
0.0
  0
SOLID
  5
DA7
330
D98
100
AcDbEntity
  8
AM_5
100
AcDbTrace
 10
630.6762194895243
 20
-49.092854624213
 30
0.0
 11
631.842886156191
 21
-49.092854624213
 31
0.0
 12
631.2595528228577
 22
-45.592854624213
 32
0.0
 13
631.2595528228577
 23
-45.592854624213
 33
0.0
  0
SOLID
  5
DA8
330
D98
100
AcDbEntity
  8
AM_5
100
AcDbTrace
 10
630.6762194895243
 20
-74.09285486381866
 30
0.0
 11
631.842886156191
 21
-74.09285486381866
 31
0.0
 12
631.2595528228577
 22
-77.59285486381866
 32
0.0
 13
631.2595528228577
 23
-77.59285486381866
 33
0.0
  0
MTEXT
  5
DA9
330
D98
100
AcDbEntity
  8
AM_5
100
AcDbMText
 10
628.5092083346687
 20
-61.59285474401572
 30
0.0
 40
3.5
 41
0.0
 71
     5
 72
     1
  1
32
 11
0.0000000000000001
 21
1.0
 31
0.0
 73
     1
 44
1.0
  0
POINT
  5
DAA
330
D98
100
AcDbEntity
  8
Defpoints
 62
     0
100
AcDbPoint
 10
553.8074170692134
 20
-45.59285462421297
 30
0.0
  0
POINT
  5
DAB
330
D98
100
AcDbEntity
  8
Defpoints
 62
     0
100
AcDbPoint
 10
553.8074170692139
 20
-77.59285486381864
 30
0.0
  0
POINT
  5
DAC
330
D98
100
AcDbEntity
  8
Defpoints
 62
     0
100
AcDbPoint
 10
631.2595528228577
 20
-77.59285486381866
 30
0.0
  0
ENDBLK
  5
DA3
330
D98
100
AcDbEntity
  8
0
100
AcDbBlockEnd
  0
BLOCK
  5
DBA
330
DAE
100
AcDbEntity
  8
0
100
AcDbBlockBegin
  2
*D27
 70
     1
 10
0.0
 20
0.0
 30
0.0
  3
*D27
  1

  0
LINE
  5
DC8
330
DAE
100
AcDbEntity
  8
AM_5
100
AcDbLine
 10
569.526842888328
 20
-86.59285462421314
 30
0.0
 11
632.2595528228577
 21
-86.59285462421316
 31
0.0
  0
LINE
  5
DC9
330
DAE
100
AcDbEntity
  8
AM_5
100
AcDbLine
 10
554.8074170692139
 20
-77.59285486381864
 30
0.0
 11
632.2595528228577
 21
-77.59285486381866
 31
0.0
  0
LINE
  5
DCA
330
DAE
100
AcDbEntity
  8
AM_5
100
AcDbLine
 10
631.2595528228577
 20
-90.09285462421315
 30
0.0
 11
631.2595528228577
 21
-93.59285462421317
 31
0.0
  0
LINE
  5
DCB
330
DAE
100
AcDbEntity
  8
AM_5
100
AcDbLine
 10
631.2595528228577
 20
-74.09285486381866
 30
0.0
 11
631.2595528228577
 21
-70.59285486381866
 31
0.0
  0
LINE
  5
DCC
330
DAE
100
AcDbEntity
  8
AM_5
100
AcDbLine
 10
631.2595528228577
 20
-86.59285462421316
 30
0.0
 11
631.2595528228577
 21
-77.59285486381866
 31
0.0
  0
SOLID
  5
DCD
330
DAE
100
AcDbEntity
  8
AM_5
100
AcDbTrace
 10
630.6762194895243
 20
-90.09285462421315
 30
0.0
 11
631.842886156191
 21
-90.09285462421315
 31
0.0
 12
631.2595528228577
 22
-86.59285462421316
 32
0.0
 13
631.2595528228577
 23
-86.59285462421316
 33
0.0
  0
SOLID
  5
DCE
330
DAE
100
AcDbEntity
  8
AM_5
100
AcDbTrace
 10
630.6762194895243
 20
-74.09285486381866
 30
0.0
 11
631.842886156191
 21
-74.09285486381866
 31
0.0
 12
631.2595528228577
 22
-77.59285486381866
 32
0.0
 13
631.2595528228577
 23
-77.59285486381866
 33
0.0
  0
MTEXT
  5
DCF
330
DAE
100
AcDbEntity
  8
AM_5
100
AcDbMText
 10
628.5095528228577
 20
-82.0928547440158
 30
0.0
 40
3.5
 41
0.0
 71
     5
 72
     1
  1
9
 11
0.0000000000000001
 21
1.0
 31
0.0
 73
     1
 44
1.0
  0
POINT
  5
DD0
330
DAE
100
AcDbEntity
  8
Defpoints
 62
     0
100
AcDbPoint
 10
568.526842888328
 20
-86.59285462421314
 30
0.0
  0
POINT
  5
DD1
330
DAE
100
AcDbEntity
  8
Defpoints
 62
     0
100
AcDbPoint
 10
553.8074170692139
 20
-77.59285486381864
 30
0.0
  0
POINT
  5
DD2
330
DAE
100
AcDbEntity
  8
Defpoints
 62
     0
100
AcDbPoint
 10
631.2595528228577
 20
-77.59285486381866
 30
0.0
  0
ENDBLK
  5
DBB
330
DAE
100
AcDbEntity
  8
0
100
AcDbBlockEnd
  0
BLOCK
  5
DEC
330
DE2
100
AcDbEntity
  8
0
100
AcDbBlockBegin
  2
*D28
 70
     1
 10
0.0
 20
0.0
 30
0.0
  3
*D28
  1

  0
LINE
  5
DEE
330
DE2
100
AcDbEntity
  8
AM_5
100
AcDbLine
 10
554.8074170692134
 20
-45.59285462421297
 30
0.0
 11
624.2595528228576
 21
-45.592854624213
 31
0.0
  0
LINE
  5
DEF
330
DE2
100
AcDbEntity
  8
AM_5
100
AcDbLine
 10
559.6268428883283
 20
-56.59285462421316
 30
0.0
 11
624.2595528228576
 21
-56.59285462421319
 31
0.0
  0
LINE
  5
DF0
330
DE2
100
AcDbEntity
  8
AM_5
100
AcDbLine
 10
623.2595528228577
 20
-49.092854624213
 30
0.0
 11
623.2595528228577
 21
-53.09285462421319
 31
0.0
  0
SOLID
  5
DF1
330
DE2
100
AcDbEntity
  8
AM_5
100
AcDbTrace
 10
622.6762194895243
 20
-49.092854624213
 30
0.0
 11
623.842886156191
 21
-49.092854624213
 31
0.0
 12
623.2595528228577
 22
-45.59285462421299
 32
0.0
 13
623.2595528228577
 23
-45.59285462421299
 33
0.0
  0
SOLID
  5
DF2
330
DE2
100
AcDbEntity
  8
AM_5
100
AcDbTrace
 10
622.6762194895243
 20
-53.09285462421319
 30
0.0
 11
623.842886156191
 21
-53.09285462421319
 31
0.0
 12
623.2595528228577
 22
-56.59285462421319
 32
0.0
 13
623.2595528228577
 23
-56.59285462421319
 33
0.0
  0
MTEXT
  5
DF3
330
DE2
100
AcDbEntity
  8
AM_5
100
AcDbMText
 10
620.5095528228577
 20
-51.092854624213
 30
0.0
 40
3.5
 41
0.0
 71
     5
 72
     1
  1
11
 11
0.0000000000000001
 21
1.0
 31
0.0
 73
     1
 44
1.0
  0
POINT
  5
DF4
330
DE2
100
AcDbEntity
  8
Defpoints
 62
     0
100
AcDbPoint
 10
553.8074170692134
 20
-45.59285462421297
 30
0.0
  0
POINT
  5
DF5
330
DE2
100
AcDbEntity
  8
Defpoints
 62
     0
100
AcDbPoint
 10
558.6268428883284
 20
-56.59285462421316
 30
0.0
  0
POINT
  5
DF6
330
DE2
100
AcDbEntity
  8
Defpoints
 62
     0
100
AcDbPoint
 10
623.2595528228577
 20
-56.59285462421319
 30
0.0
  0
ENDBLK
  5
DED
330
DE2
100
AcDbEntity
  8
0
100
AcDbBlockEnd
  0
BLOCK
  5
E10
330
E06
100
AcDbEntity
  8
0
100
AcDbBlockBegin
  2
*D29
 70
     1
 10
0.0
 20
0.0
 30
0.0
  3
*D29
  1

  0
LINE
  5
E12
330
E06
100
AcDbEntity
  8
AM_5
100
AcDbLine
 10
569.526842888328
 20
-86.59285462421314
 30
0.0
 11
653.3876404883288
 21
-86.59285462421316
 31
0.0
  0
LINE
  5
E13
330
E06
100
AcDbEntity
  8
AM_5
100
AcDbLine
 10
641.3876404883287
 20
-1.573129367270837
 30
0.0
 11
653.3876404883288
 21
-1.573129367270841
 31
0.0
  0
LINE
  5
E14
330
E06
100
AcDbEntity
  8
AM_5
100
AcDbLine
 10
652.3876404883288
 20
-83.09285462421316
 30
0.0
 11
652.3876404883288
 21
-5.073129367270841
 31
0.0
  0
SOLID
  5
E15
330
E06
100
AcDbEntity
  8
AM_5
100
AcDbTrace
 10
651.8043071549953
 20
-83.09285462421316
 30
0.0
 11
652.9709738216621
 21
-83.09285462421316
 31
0.0
 12
652.3876404883288
 22
-86.59285462421316
 32
0.0
 13
652.3876404883288
 23
-86.59285462421316
 33
0.0
  0
SOLID
  5
E16
330
E06
100
AcDbEntity
  8
AM_5
100
AcDbTrace
 10
651.8043071549953
 20
-5.073129367270841
 30
0.0
 11
652.9709738216621
 21
-5.073129367270841
 31
0.0
 12
652.3876404883288
 22
-1.57312936727084
 32
0.0
 13
652.3876404883288
 23
-1.57312936727084
 33
0.0
  0
MTEXT
  5
E17
330
E06
100
AcDbEntity
  8
AM_5
100
AcDbMText
 10
649.6376404883287
 20
-44.0829919957419
 30
0.0
 40
3.5
 41
0.0
 71
     5
 72
     1
  1
85
 11
0.0000000000000001
 21
1.0
 31
0.0
 73
     1
 44
1.0
  0
POINT
  5
E18
330
E06
100
AcDbEntity
  8
Defpoints
 62
     0
100
AcDbPoint
 10
568.526842888328
 20
-86.59285462421314
 30
0.0
  0
POINT
  5
E19
330
E06
100
AcDbEntity
  8
Defpoints
 62
     0
100
AcDbPoint
 10
640.3876404883288
 20
-1.573129367270837
 30
0.0
  0
POINT
  5
E1A
330
E06
100
AcDbEntity
  8
Defpoints
 62
     0
100
AcDbPoint
 10
652.3876404883288
 20
-1.57312936727084
 30
0.0
  0
ENDBLK
  5
E11
330
E06
100
AcDbEntity
  8
0
100
AcDbBlockEnd
  0
BLOCK
  5
E34
330
E2A
100
AcDbEntity
  8
0
100
AcDbBlockBegin
  2
*D30
 70
     1
 10
0.0
 20
0.0
 30
0.0
  3
*D30
  1

  0
LINE
  5
E36
330
E2A
100
AcDbEntity
  8
AM_5
100
AcDbLine
 10
534.0639308704923
 20
-36.57312936727072
 30
0.0
 11
463.0938329238896
 21
-36.5731293672707
 31
0.0
  0
LINE
  5
E37
330
E2A
100
AcDbEntity
  8
AM_5
100
AcDbLine
 10
527.526842888328
 20
-86.59285462421269
 30
0.0
 11
463.0938329238896
 21
-86.59285462421268
 31
0.0
  0
LINE
  5
E38
330
E2A
100
AcDbEntity
  8
AM_5
100
AcDbLine
 10
464.0938329238896
 20
-40.0731293672707
 30
0.0
 11
464.0938329238896
 21
-83.09285462421268
 31
0.0
  0
SOLID
  5
E39
330
E2A
100
AcDbEntity
  8
AM_5
100
AcDbTrace
 10
463.5104995905563
 20
-40.07312936727069
 30
0.0
 11
464.6771662572229
 21
-40.0731293672707
 31
0.0
 12
464.0938329238896
 22
-36.5731293672707
 32
0.0
 13
464.0938329238896
 23
-36.5731293672707
 33
0.0
  0
SOLID
  5
E3A
330
E2A
100
AcDbEntity
  8
AM_5
100
AcDbTrace
 10
463.5104995905563
 20
-83.09285462421268
 30
0.0
 11
464.6771662572229
 21
-83.09285462421268
 31
0.0
 12
464.0938329238896
 22
-86.59285462421268
 32
0.0
 13
464.0938329238896
 23
-86.59285462421268
 33
0.0
  0
MTEXT
  5
E3B
330
E2A
100
AcDbEntity
  8
AM_5
100
AcDbMText
 10
461.3438329238896
 20
-61.58299199574162
 30
0.0
 40
3.5
 41
0.0
 71
     5
 72
     1
  1
50
 11
0.0000000000000001
 21
1.0
 31
0.0
 73
     1
 44
1.0
  0
POINT
  5
E3C
330
E2A
100
AcDbEntity
  8
Defpoints
 62
     0
100
AcDbPoint
 10
535.0639308704923
 20
-36.57312936727072
 30
0.0
  0
POINT
  5
E3D
330
E2A
100
AcDbEntity
  8
Defpoints
 62
     0
100
AcDbPoint
 10
528.526842888328
 20
-86.59285462421269
 30
0.0
  0
POINT
  5
E3E
330
E2A
100
AcDbEntity
  8
Defpoints
 62
     0
100
AcDbPoint
 10
464.0938329238896
 20
-86.59285462421268
 30
0.0
  0
ENDBLK
  5
E35
330
E2A
100
AcDbEntity
  8
0
100
AcDbBlockEnd
  0
ENDSEC
  0
SECTION
  2
ENTITIES
  0
TEXT
  5
194
330
2
100
AcDbEntity
  8
LOGO
  6
Continuous
 62
     7
100
AcDbText
 10
525.4784189971203
 20
-138.1163303786257
 30
0.0
 40
3.835670107182843
  1
MCHG
  7
chineset
 72
     1
 11
532.9671082540011
 21
-136.1984953250343
 31
0.0
100
AcDbText
 73
     2
  0
LINE
  5
195
330
2
100
AcDbEntity
  8
LOGO
 62
     4
100
AcDbLine
 10
542.1727165112399
 20
-132.7463922285697
 30
0.0
 11
523.7614999967624
 21
-132.7463922285697
 31
0.0
  0
LINE
  5
196
330
2
100
AcDbEntity
  8
LOGO
 62
     4
100
AcDbLine
 10
542.1727165112399
 20
-139.6505984214988
 30
0.0
 11
523.7614999967624
 21
-139.6505984214988
 31
0.0
  0
LINE
  5
197
330
2
100
AcDbEntity
  8
LOGO
 62
     4
100
AcDbLine
 10
540.6384484683668
 20
-143.1027015179634
 30
0.0
 11
525.2957680396355
 21
-143.1027015179634
 31
0.0
  0
LINE
  5
198
330
2
100
AcDbEntity
  8
LOGO
 62
     4
100
AcDbLine
 10
540.6384484683668
 20
-151.5411757537656
 30
0.0
 11
525.2957680396355
 21
-151.5411757537656
 31
0.0
  0
LINE
  5
19D
330
2
100
AcDbEntity
  8
LOGO
 62
     4
100
AcDbLine
 10
525.2957680396355
 20
-143.1027015179634
 30
0.0
 11
525.2957680396355
 21
-151.5411757537656
 31
0.0
  0
LINE
  5
19E
330
2
100
AcDbEntity
  8
LOGO
 62
     4
100
AcDbLine
 10
523.7614999967624
 20
-132.7463922285697
 30
0.0
 11
523.7614999967624
 21
-139.6505984214988
 31
0.0
  0
LINE
  5
19F
330
2
100
AcDbEntity
  8
LOGO
 62
     4
100
AcDbLine
 10
567.5928157029179
 20
-132.7463922285696
 30
0.0
 11
547.6048288391023
 21
-132.7463922285697
 31
0.0
  0
LINE
  5
1A0
330
2
100
AcDbEntity
  8
LOGO
 62
     4
100
AcDbLine
 10
567.5928157029179
 20
-151.5411757537656
 30
0.0
 11
547.6048288391023
 21
-151.5411757537656
 31
0.0
  0
LINE
  5
1A1
330
2
100
AcDbEntity
  8
LOGO
 62
     4
100
AcDbLine
 10
567.5928157029179
 20
-143.1027015179634
 30
0.0
 11
547.6048288391023
 21
-143.1027015179634
 31
0.0
  0
LINE
  5
1A2
330
2
100
AcDbEntity
  8
LOGO
 62
     4
100
AcDbLine
 10
567.5928157029179
 20
-139.6505984214988
 30
0.0
 11
547.6048288391023
 21
-139.6505984214988
 31
0.0
  0
LINE
  5
1A3
330
2
100
AcDbEntity
  8
LOGO
 62
     4
100
AcDbLine
 10
532.9671082540011
 20
-139.6505984214988
 30
0.0
 11
532.9671082540011
 21
-143.1027015179634
 31
0.0
  0
LINE
  5
1A4
330
2
100
AcDbEntity
  8
LOGO
 62
     4
100
AcDbLine
 10
540.6384484683668
 20
-143.1027015179634
 30
0.0
 11
540.6384484683668
 21
-151.5411757537656
 31
0.0
  0
LINE
  5
1A5
330
2
100
AcDbEntity
  8
LOGO
 62
     4
100
AcDbLine
 10
547.6048288391023
 20
-143.1027015179634
 30
0.0
 11
547.6048288391023
 21
-151.5411757537656
 31
0.0
  0
LINE
  5
1A6
330
2
100
AcDbEntity
  8
LOGO
 62
     4
100
AcDbLine
 10
547.6048288391023
 20
-132.7463922285697
 30
0.0
 11
547.6048288391023
 21
-139.6505984214988
 31
0.0
  0
LINE
  5
1A7
330
2
100
AcDbEntity
  8
LOGO
 62
     4
100
AcDbLine
 10
542.1727165112399
 20
-132.7463922285697
 30
0.0
 11
542.1727165112399
 21
-139.6505984214988
 31
0.0
  0
LINE
  5
1A8
330
2
100
AcDbEntity
  8
LOGO
 62
     4
100
AcDbLine
 10
543.362207478458
 20
-136.2229511144921
 30
0.0
 11
546.4108530099657
 21
-136.2229511144921
 31
0.0
  0
LINE
  5
1A9
330
2
100
AcDbEntity
  8
LOGO
 62
     4
100
AcDbLine
 10
557.5988222710102
 20
-139.6505984214988
 30
0.0
 11
557.5988222710102
 21
-143.1027015179634
 31
0.0
  0
LINE
  5
1AB
330
2
100
AcDbEntity
  8
LOGO
 62
     4
100
AcDbLine
 10
567.5928157029179
 20
-143.1027015179634
 30
0.0
 11
567.5928157029179
 21
-151.5411757537656
 31
0.0
  0
TEXT
  5
1AC
330
2
100
AcDbEntity
  8
LOGO
  6
Continuous
 62
     7
100
AcDbText
 10
553.0325483338877
 20
-138.1598271193373
 30
0.0
 40
3.835670107182843
  1
160
  7
chineset
 72
     1
 11
557.5988222710102
 21
-136.2419920657459
 31
0.0
100
AcDbText
 73
     2
  0
LINE
  5
1AD
330
2
100
AcDbEntity
  8
LOGO
 62
     4
100
AcDbLine
 10
567.5928157029179
 20
-132.7463922285696
 30
0.0
 11
567.5928157029179
 21
-139.6505984214988
 31
0.0
  0
TEXT
  5
1B1
330
2
100
AcDbEntity
  8
LOGO
100
AcDbText
 10
529.8985721682548
 20
-147.2434131061111
 30
150.8300999564393
 40
3.068536085746274
  1
型式
  7
chineset
 72
     4
 11
532.9671082540011
 21
-145.7876705929914
 31
150.8300999564393
100
AcDbText
  0
TEXT
  5
1B2
330
2
100
AcDbEntity
  8
LOGO
100
AcDbText
 10
527.1222776144845
 20
-151.1576087430473
 30
150.8300999564393
 40
3.068536085746274
  1
Model
  7
chineset
 72
     4
 11
532.9671082540011
 21
-149.6233407001742
 31
150.8300999564393
100
AcDbText
  0
TEXT
  5
1B3
330
2
100
AcDbEntity
  8
LOGO
100
AcDbText
 10
551.4617500995176
 20
-147.3219386358645
 30
150.8300999564393
 40
3.068536085746274
  1
缸體外徑
  7
chineset
 72
     4
 11
557.5988222710102
 21
-145.7876705929914
 31
150.8300999564393
100
AcDbText
  0
TEXT
  5
1B4
330
2
100
AcDbEntity
  8
LOGO
  6
Continuous
100
AcDbText
 10
550.840736844069
 20
-150.2626190513713
 30
150.8300999564393
 40
1.917835053591421
  1
Body size
  7
chineset
 72
     4
 11
557.5988222710102
 21
-149.6233407001742
 31
150.8300999564393
100
AcDbText
  0
ARC
  5
5FD
330
2
100
AcDbEntity
  8
AM_VIS
100
AcDbCircle
 10
600.5054496890035
 20
28.43673326119995
 30
0.0
 40
4.0
100
AcDbArc
 50
103.4058258207486
 51
283.4058258207487
  0
ARC
  5
5FE
330
2
100
AcDbEntity
  8
AM_VIS
100
AcDbCircle
 10
600.5054496890035
 20
28.43673326119995
 30
0.0
 40
4.0
100
AcDbArc
 50
283.4058258207487
 51
103.4058258207486
  0
LINE
  5
5FF
330
2
100
AcDbEntity
  8
AM_VIS
100
AcDbLine
 10
575.9509806748362
 20
-16.57312936727089
 30
0.0
 11
575.2292928383492
 21
-17.82312936727089
 31
0.0
  0
LINE
  5
600
330
2
100
AcDbEntity
  8
AM_VIS
100
AcDbLine
 10
575.2292928383492
 20
-15.32312936727084
 30
0.0
 11
575.9509806748362
 21
-16.57312936727089
 31
0.0
  0
LINE
  5
601
330
2
100
AcDbEntity
  8
AM_VIS
100
AcDbLine
 10
573.7859171653751
 20
-15.32312936727078
 30
0.0
 11
575.2292928383492
 21
-15.32312936727078
 31
0.0
  0
LINE
  5
602
330
2
100
AcDbEntity
  8
AM_VIS
100
AcDbLine
 10
573.0642293288881
 20
-16.57312936727089
 30
0.0
 11
573.7859171653751
 21
-15.32312936727084
 31
0.0
  0
LINE
  5
603
330
2
100
AcDbEntity
  8
AM_VIS
100
AcDbLine
 10
573.7859171653751
 20
-17.82312936727089
 30
0.0
 11
573.0642293288881
 21
-16.57312936727089
 31
0.0
  0
LINE
  5
604
330
2
100
AcDbEntity
  8
AM_VIS
100
AcDbLine
 10
575.2292928383491
 20
-17.82312936727078
 30
0.0
 11
573.7859171653751
 21
-17.82312936727078
 31
0.0
  0
ARC
  5
605
330
2
100
AcDbEntity
  8
AM_VIS
100
AcDbCircle
 10
574.5076050018621
 20
-16.57312936727089
 30
0.0
 40
1.25
100
AcDbArc
 50
330.0000000000003
 51
29.9999999999965
  0
ARC
  5
606
330
2
100
AcDbEntity
  8
AM_VIS
100
AcDbCircle
 10
574.5076050018621
 20
-16.57312936727089
 30
0.0
 40
1.25
100
AcDbArc
 50
29.9999999999965
 51
89.99999999999593
  0
ARC
  5
607
330
2
100
AcDbEntity
  8
AM_VIS
100
AcDbCircle
 10
574.5076050018621
 20
-16.57312936727089
 30
0.0
 40
1.25
100
AcDbArc
 50
89.99999999999593
 51
149.9999999999998
  0
ARC
  5
608
330
2
100
AcDbEntity
  8
AM_VIS
100
AcDbCircle
 10
574.5076050018621
 20
-16.57312936727089
 30
0.0
 40
3.765
100
AcDbArc
 50
149.9999999999998
 51
329.9999999999999
  0
ARC
  5
609
330
2
100
AcDbEntity
  8
AM_VIS
100
AcDbCircle
 10
574.5076050018621
 20
-16.57312936727089
 30
0.0
 40
3.765
100
AcDbArc
 50
329.9999999999999
 51
149.9999999999998
  0
ARC
  5
60A
330
2
100
AcDbEntity
  8
AM_VIS
100
AcDbCircle
 10
574.5076050018621
 20
-16.57312936727089
 30
0.0
 40
1.25
100
AcDbArc
 50
270.0000000000041
 51
330.0000000000003
  0
ARC
  5
60B
330
2
100
AcDbEntity
  8
AM_VIS
100
AcDbCircle
 10
574.5076050018621
 20
-16.57312936727089
 30
0.0
 40
1.25
100
AcDbArc
 50
210.0000000000034
 51
270.0000000000041
  0
ARC
  5
60C
330
2
100
AcDbEntity
  8
AM_VIS
100
AcDbCircle
 10
574.5076050018621
 20
-16.57312936727089
 30
0.0
 40
1.25
100
AcDbArc
 50
149.9999999999998
 51
210.0000000000034
  0
LINE
  5
60D
330
2
100
AcDbEntity
  8
AM_VIS
100
AcDbLine
 10
561.9897549061647
 20
-36.57312936727101
 30
0.0
 11
535.0639308704923
 21
-36.57312936727072
 31
0.0
  0
LINE
  5
60E
330
2
100
AcDbEntity
  8
AM_VIS
100
AcDbLine
 10
511.4844977469553
 20
4.267646816368539
 30
0.0
 11
524.9474097647919
 21
27.58609444909041
 31
0.0
  0
LINE
  5
60F
330
2
100
AcDbEntity
  8
AM_VIS
100
AcDbLine
 10
572.1062760118663
 20
27.58609444908996
 30
0.0
 11
585.5691880297024
 21
4.2676468163678
 31
0.0
  0
ARC
  5
610
330
2
100
AcDbEntity
  8
AM_VIS
100
AcDbCircle
 10
574.5076050018621
 20
-16.57312936727089
 30
0.0
 40
4.999999999999998
100
AcDbArc
 50
239.9999999999995
 51
59.99999999999946
  0
ARC
  5
611
330
2
100
AcDbEntity
  8
AM_VIS
100
AcDbCircle
 10
548.5268428883292
 20
28.42687063272916
 30
0.0
 40
4.999999999999999
100
AcDbArc
 50
0.0
 51
180.0
  0
ARC
  5
612
330
2
100
AcDbEntity
  8
AM_VIS
100
AcDbCircle
 10
522.5460807747956
 20
-16.57312936727072
 30
0.0
 40
5.000000000000001
100
AcDbArc
 50
120.0000000000005
 51
300.0000000000005
  0
ARC
  5
613
330
2
100
AcDbEntity
  8
AM_VIS
100
AcDbCircle
 10
548.5268428883289
 20
-1.573129367270837
 30
0.0
 40
37.5
100
AcDbArc
 50
0.0
 51
8.960530218680943
  0
ARC
  5
614
330
2
100
AcDbEntity
  8
AM_VIS
100
AcDbCircle
 10
548.5268428883289
 20
-1.573129367270837
 30
0.0
 40
37.5
100
AcDbArc
 50
171.0394697813158
 51
248.9605302186822
  0
ARC
  5
615
330
2
100
AcDbEntity
  8
AM_VIS
100
AcDbCircle
 10
548.5268428883289
 20
-1.573129367270837
 30
0.0
 40
37.5
100
AcDbArc
 50
51.03946978131631
 51
128.960530218681
  0
ARC
  5
616
330
2
100
AcDbEntity
  8
AM_VIS
100
AcDbCircle
 10
548.5268428883289
 20
-1.573129367270837
 30
0.0
 40
37.5
100
AcDbArc
 50
291.0394697813162
 51
0.0
  0
ARC
  5
617
330
2
100
AcDbEntity
  8
AM_VIS
100
AcDbCircle
 10
548.5268428883292
 20
28.42687063272916
 30
0.0
 40
4.999999999999999
100
AcDbArc
 50
180.0
 51
0.0
  0
ARC
  5
618
330
2
100
AcDbEntity
  8
AM_VIS
100
AcDbCircle
 10
522.5460807747956
 20
-16.57312936727072
 30
0.0
 40
5.000000000000001
100
AcDbArc
 50
300.0000000000005
 51
120.0000000000005
  0
ARC
  5
619
330
2
100
AcDbEntity
  8
AM_VIS
100
AcDbCircle
 10
574.5076050018621
 20
-16.57312936727089
 30
0.0
 40
4.999999999999998
100
AcDbArc
 50
59.99999999999946
 51
239.9999999999995
  0
ARC
  5
61A
330
2
100
AcDbEntity
  8
AM_VIS
100
AcDbCircle
 10
548.5268428883284
 20
-61.59285462421298
 30
0.0
 40
4.0
100
AcDbArc
 50
308.5698024984677
 51
128.5698024984677
  0
ARC
  5
61B
330
2
100
AcDbEntity
  8
AM_VIS
100
AcDbCircle
 10
548.5268428883284
 20
-61.59285462421298
 30
0.0
 40
4.0
100
AcDbArc
 50
128.5698024984677
 51
308.5698024984677
  0
LINE
  5
61C
330
2
100
AcDbEntity
  8
AM_VIS
100
AcDbLine
 10
496.5850963668408
 20
39.50057713753159
 30
0.0
 11
497.2681090687331
 21
39.6835898394238
 31
0.0
  0
LINE
  5
61D
330
2
100
AcDbEntity
  8
AM_VIS
100
AcDbLine
 10
479.9476009930445
 20
49.68358983942403
 30
0.0
 11
480.1306136949367
 21
49.00057713753182
 31
0.0
  0
LINE
  5
61E
330
2
100
AcDbEntity
  8
AM_VIS
100
AcDbLine
 10
469.8476009930442
 20
32.18987668297854
 30
0.0
 11
470.5306136949364
 21
32.37288938487075
 31
0.0
  0
LINE
  5
61F
330
2
100
AcDbEntity
  8
AM_VIS
100
AcDbLine
 10
486.9850963668405
 20
22.87288938487052
 30
0.0
 11
487.1681090687328
 21
22.18987668297825
 31
0.0
  0
LINE
  5
620
330
2
100
AcDbEntity
  8
AM_VIS
100
AcDbLine
 10
496.5113758084694
 20
17.37288938487035
 30
0.0
 11
495.8283631065771
 21
17.18987668297813
 31
0.0
  0
LINE
  5
621
330
2
100
AcDbEntity
  8
AM_VIS
100
AcDbLine
 10
506.1113758084696
 20
34.00057713753142
 30
0.0
 11
505.9283631065774
 21
34.68358983942369
 31
0.0
  0
LINE
  5
622
330
2
100
AcDbEntity
  8
AM_VIS
100
AcDbLine
 10
497.2681090687331
 20
39.6835898394238
 30
0.0
 11
487.1681090687328
 21
22.18987668297825
 31
0.0
  0
LINE
  5
623
330
2
100
AcDbEntity
  8
AM_VIS
100
AcDbLine
 10
495.8283631065771
 20
17.18987668297813
 30
0.0
 11
505.9283631065774
 21
34.68358983942369
 31
0.0
  0
LINE
  5
624
330
2
100
AcDbEntity
  8
AM_VIS
100
AcDbLine
 10
513.3988711822658
 20
7.62288938487012
 30
0.0
 11
522.998871182266
 21
24.25057713753119
 31
0.0
  0
LINE
  5
625
330
2
100
AcDbEntity
  8
AM_VIS
100
AcDbLine
 10
469.8476009930442
 20
32.18987668297854
 30
0.0
 11
479.9476009930445
 21
49.68358983942403
 31
0.0
  0
LINE
  5
626
330
2
100
AcDbEntity
  8
AM_VIS
100
AcDbLine
 10
465.3976009930442
 20
24.48225058929705
 30
0.0
 11
464.8976009930442
 21
23.61622518551263
 31
0.0
  0
LINE
  5
627
330
2
100
AcDbEntity
  8
AM_VIS
100
AcDbLine
 10
471.4448035633359
 20
19.83619601911562
 30
0.0
 11
464.8976009930442
 21
23.61622518551263
 31
0.0
  0
LINE
  5
628
330
2
100
AcDbEntity
  8
AM_VIS
100
AcDbLine
 10
469.0976009930442
 20
30.89083857730185
 30
0.0
 11
465.3976009930442
 21
24.48225058929705
 31
0.0
  0
LINE
  5
629
330
2
100
AcDbEntity
  8
AM_VIS
100
AcDbLine
 10
471.7271400658055
 20
20.8278895017919
 30
0.0
 11
465.3976009930442
 21
24.48225058929705
 31
0.0
  0
LINE
  5
62A
330
2
100
AcDbEntity
  8
AM_VIS
100
AcDbLine
 10
469.8476009930443
 20
32.18987668297848
 30
0.0
 11
469.0976009930442
 21
30.89083857730185
 31
0.0
  0
LINE
  5
62B
330
2
100
AcDbEntity
  8
AM_VIS
100
AcDbLine
 10
474.1770070023114
 20
27.95824215052795
 30
0.0
 11
469.0976009930442
 21
30.89083857730185
 31
0.0
  0
LINE
  5
62C
330
2
100
AcDbEntity
  8
AM_VIS
100
AcDbLine
 10
474.7491737877409
 20
29.35995231050777
 30
0.0
 11
469.8476009930442
 21
32.18987668297854
 31
0.0
  0
LINE
  5
62D
330
2
100
AcDbEntity
  8
AM_VIS
100
AcDbLine
 10
513.3988711822658
 20
7.62288938487012
 30
0.0
 11
513.1488711822657
 21
7.18987668297791
 31
0.0
  0
LINE
  5
62E
330
2
100
AcDbEntity
  8
AM_VIS
100
AcDbLine
 10
513.4258163843448
 20
7.630109330007087
 30
0.0
 11
513.3988711822658
 21
7.62288938487012
 31
0.0
  0
LINE
  5
62F
330
2
100
AcDbEntity
  8
AM_VIS
100
AcDbLine
 10
522.998871182266
 20
24.25057713753119
 30
0.0
 11
523.0060911274029
 21
24.22363193545232
 31
0.0
  0
LINE
  5
630
330
2
100
AcDbEntity
  8
AM_VIS
100
AcDbLine
 10
523.248871182266
 20
24.68358983942341
 30
0.0
 11
522.998871182266
 21
24.25057713753119
 31
0.0
  0
LINE
  5
631
330
2
100
AcDbEntity
  8
AM_VIS
100
AcDbLine
 10
479.9476009930445
 20
49.68358983942408
 30
0.0
 11
484.8491737877409
 21
46.85366546695343
 31
0.0
  0
LINE
  5
632
330
2
100
AcDbEntity
  8
AM_VIS
100
AcDbLine
 10
480.6976009930446
 20
50.98262794510066
 30
0.0
 11
479.9476009930446
 21
49.68358983942403
 31
0.0
  0
LINE
  5
633
330
2
100
AcDbEntity
  8
AM_VIS
100
AcDbLine
 10
484.3976009930446
 20
57.39121593310546
 30
0.0
 11
480.6976009930446
 21
50.98262794510066
 31
0.0
  0
LINE
  5
634
330
2
100
AcDbEntity
  8
AM_VIS
100
AcDbLine
 10
485.7770070023117
 20
48.05003151832676
 30
0.0
 11
480.6976009930446
 21
50.98262794510066
 31
0.0
  0
LINE
  5
635
330
2
100
AcDbEntity
  8
AM_VIS
100
AcDbLine
 10
484.8976009930447
 20
58.25724133688988
 30
0.0
 11
484.3976009930446
 21
57.39121593310546
 31
0.0
  0
LINE
  5
636
330
2
100
AcDbEntity
  8
AM_VIS
100
AcDbLine
 10
490.7271400658061
 20
53.73685484560025
 30
0.0
 11
484.3976009930448
 21
57.39121593310546
 31
0.0
  0
LINE
  5
637
330
2
100
AcDbEntity
  8
AM_VIS
100
AcDbLine
 10
491.4448035633358
 20
54.4772121704932
 30
0.0
 11
484.8976009930447
 21
58.25724133688993
 31
0.0
  0
LINE
  5
638
330
2
100
AcDbEntity
  8
AM_VIS
100
AcDbLine
 10
470.5306136949364
 20
32.37288938487075
 30
0.0
 11
486.9850963668405
 21
22.87288938487052
 31
0.0
  0
LINE
  5
639
330
2
100
AcDbEntity
  8
AM_VIS
100
AcDbLine
 10
480.1306136949367
 20
49.00057713753182
 30
0.0
 11
470.5306136949364
 21
32.37288938487075
 31
0.0
  0
LINE
  5
63A
330
2
100
AcDbEntity
  8
AM_VIS
100
AcDbLine
 10
496.5850963668408
 20
39.50057713753159
 30
0.0
 11
480.1306136949367
 21
49.00057713753182
 31
0.0
  0
LINE
  5
63B
330
2
100
AcDbEntity
  8
AM_VIS
100
AcDbLine
 10
486.9850963668405
 20
22.87288938487052
 30
0.0
 11
496.5850963668408
 21
39.50057713753159
 31
0.0
  0
LINE
  5
63C
330
2
100
AcDbEntity
  8
AM_VIS
100
AcDbLine
 10
522.998871182266
 20
24.25057713753119
 30
0.0
 11
506.1113758084696
 21
34.00057713753142
 31
0.0
  0
LINE
  5
63D
330
2
100
AcDbEntity
  8
AM_VIS
100
AcDbLine
 10
496.5113758084694
 20
17.37288938487035
 30
0.0
 11
513.3988711822658
 21
7.62288938487012
 31
0.0
  0
LINE
  5
63E
330
2
100
AcDbEntity
  8
AM_VIS
100
AcDbLine
 10
506.1113758084696
 20
34.00057713753142
 30
0.0
 11
496.5113758084694
 21
17.37288938487035
 31
0.0
  0
ARC
  5
63F
330
2
100
AcDbEntity
  8
AM_VIS
100
AcDbCircle
 10
510.404642548206
 20
20.43673326120075
 30
0.0
 40
3.375000000000002
100
AcDbArc
 50
239.9999999999987
 51
59.99999999999875
  0
ARC
  5
640
330
2
100
AcDbEntity
  8
AM_VIS
100
AcDbCircle
 10
482.6918296271042
 20
36.4367332612012
 30
0.0
 40
3.375000000000002
100
AcDbArc
 50
239.9999999999987
 51
59.99999999999875
  0
ARC
  5
644
330
2
100
AcDbEntity
  8
AM_VIS
100
AcDbCircle
 10
482.6918296271042
 20
36.4367332612012
 30
0.0
 40
3.375000000000002
100
AcDbArc
 50
59.99999999999875
 51
239.9999999999987
  0
ARC
  5
646
330
2
100
AcDbEntity
  8
AM_VIS
100
AcDbCircle
 10
510.404642548206
 20
20.43673326120075
 30
0.0
 40
3.375000000000002
100
AcDbArc
 50
59.99999999999875
 51
239.9999999999987
  0
LINE
  5
647
330
2
100
AcDbEntity
  8
AM_VIS
100
AcDbLine
 10
610.0685894098179
 20
22.87288938486927
 30
0.0
 11
609.8855767079257
 21
22.18987668297706
 31
0.0
  0
LINE
  5
648
330
2
100
AcDbEntity
  8
AM_VIS
100
AcDbLine
 10
627.2060847836145
 20
32.18987668297695
 30
0.0
 11
626.5230720817223
 21
32.37288938486916
 31
0.0
  0
LINE
  5
649
330
2
100
AcDbEntity
  8
AM_VIS
100
AcDbLine
 10
617.1060847836145
 20
49.68358983942266
 30
0.0
 11
616.9230720817225
 21
49.00057713753046
 31
0.0
  0
LINE
  5
64A
330
2
100
AcDbEntity
  8
AM_VIS
100
AcDbLine
 10
600.468589409818
 20
39.50057713753057
 30
0.0
 11
599.7855767079258
 21
39.68358983942278
 31
0.0
  0
LINE
  5
64B
330
2
100
AcDbEntity
  8
AM_VIS
100
AcDbLine
 10
590.9423099681892
 20
34.00057713753063
 30
0.0
 11
591.1253226700813
 21
34.68358983942284
 31
0.0
  0
LINE
  5
64C
330
2
100
AcDbEntity
  8
AM_VIS
100
AcDbLine
 10
600.5423099681891
 20
17.37288938486932
 30
0.0
 11
601.2253226700813
 21
17.18987668297711
 31
0.0
  0
LINE
  5
64D
330
2
100
AcDbEntity
  8
AM_VIS
100
AcDbLine
 10
609.8855767079257
 20
22.18987668297706
 30
0.0
 11
599.7855767079258
 21
39.68358983942278
 31
0.0
  0
LINE
  5
64E
330
2
100
AcDbEntity
  8
AM_VIS
100
AcDbLine
 10
591.1253226700813
 20
34.68358983942284
 30
0.0
 11
601.2253226700813
 21
17.18987668297711
 31
0.0
  0
LINE
  5
64F
330
2
100
AcDbEntity
  8
AM_VIS
100
AcDbLine
 10
574.0548145943925
 20
24.25057713753074
 30
0.0
 11
583.6548145943925
 21
7.622889384869438
 31
0.0
  0
LINE
  5
650
330
2
100
AcDbEntity
  8
AM_VIS
100
AcDbLine
 10
617.1060847836145
 20
49.68358983942266
 30
0.0
 11
627.2060847836145
 21
32.18987668297695
 31
0.0
  0
LINE
  5
651
330
2
100
AcDbEntity
  8
AM_VIS
100
AcDbLine
 10
612.6560847836145
 20
57.39121593310414
 30
0.0
 11
612.1560847836145
 21
58.25724133688862
 31
0.0
  0
LINE
  5
652
330
2
100
AcDbEntity
  8
AM_VIS
100
AcDbLine
 10
605.6088822133228
 20
54.47721217049178
 30
0.0
 11
612.1560847836145
 21
58.25724133688862
 31
0.0
  0
LINE
  5
653
330
2
100
AcDbEntity
  8
AM_VIS
100
AcDbLine
 10
616.3560847836144
 20
50.98262794509935
 30
0.0
 11
612.6560847836145
 21
57.39121593310414
 31
0.0
  0
LINE
  5
654
330
2
100
AcDbEntity
  8
AM_VIS
100
AcDbLine
 10
606.3265457108529
 20
53.73685484559899
 30
0.0
 11
612.6560847836145
 21
57.39121593310414
 31
0.0
  0
LINE
  5
655
330
2
100
AcDbEntity
  8
AM_VIS
100
AcDbLine
 10
617.1060847836145
 20
49.68358983942266
 30
0.0
 11
616.3560847836144
 21
50.98262794509935
 31
0.0
  0
LINE
  5
656
330
2
100
AcDbEntity
  8
AM_VIS
100
AcDbLine
 10
611.2766787743471
 20
48.05003151832545
 30
0.0
 11
616.3560847836144
 21
50.98262794509935
 31
0.0
  0
LINE
  5
657
330
2
100
AcDbEntity
  8
AM_VIS
100
AcDbLine
 10
612.2045119889178
 20
46.85366546695195
 30
0.0
 11
617.1060847836145
 21
49.68358983942266
 31
0.0
  0
LINE
  5
658
330
2
100
AcDbEntity
  8
AM_VIS
100
AcDbLine
 10
574.0548145943925
 20
24.25057713753074
 30
0.0
 11
573.8048145943926
 21
24.68358983942295
 31
0.0
  0
LINE
  5
659
330
2
100
AcDbEntity
  8
AM_VIS
100
AcDbLine
 10
574.0475946492555
 20
24.22363193545152
 30
0.0
 11
574.0548145943925
 21
24.25057713753074
 31
0.0
  0
LINE
  5
65A
330
2
100
AcDbEntity
  8
AM_VIS
100
AcDbLine
 10
583.6548145943925
 20
7.622889384869438
 30
0.0
 11
583.6278693923132
 21
7.630109330006462
 31
0.0
  0
LINE
  5
65B
330
2
100
AcDbEntity
  8
AM_VIS
100
AcDbLine
 10
583.9048145943925
 20
7.189876682977228
 30
0.0
 11
583.6548145943925
 21
7.622889384869438
 31
0.0
  0
LINE
  5
65C
330
2
100
AcDbEntity
  8
AM_VIS
100
AcDbLine
 10
627.2060847836145
 20
32.18987668297695
 30
0.0
 11
622.3045119889177
 21
29.35995231050629
 31
0.0
  0
LINE
  5
65D
330
2
100
AcDbEntity
  8
AM_VIS
100
AcDbLine
 10
627.9560847836144
 20
30.89083857730026
 30
0.0
 11
627.2060847836144
 21
32.18987668297689
 31
0.0
  0
LINE
  5
65E
330
2
100
AcDbEntity
  8
AM_VIS
100
AcDbLine
 10
631.6560847836144
 20
24.48225058929541
 30
0.0
 11
627.9560847836144
 21
30.89083857730026
 31
0.0
  0
LINE
  5
65F
330
2
100
AcDbEntity
  8
AM_VIS
100
AcDbLine
 10
622.876678774347
 20
27.95824215052642
 30
0.0
 11
627.9560847836144
 21
30.89083857730026
 31
0.0
  0
LINE
  5
660
330
2
100
AcDbEntity
  8
AM_VIS
100
AcDbLine
 10
632.1560847836145
 20
23.61622518551093
 30
0.0
 11
631.6560847836144
 21
24.48225058929541
 31
0.0
  0
LINE
  5
661
330
2
100
AcDbEntity
  8
AM_VIS
100
AcDbLine
 10
625.3265457108527
 20
20.8278895017902
 30
0.0
 11
631.6560847836144
 21
24.48225058929541
 31
0.0
  0
LINE
  5
662
330
2
100
AcDbEntity
  8
AM_VIS
100
AcDbLine
 10
625.6088822133228
 20
19.83619601911408
 30
0.0
 11
632.1560847836145
 21
23.61622518551093
 31
0.0
  0
LINE
  5
663
330
2
100
AcDbEntity
  8
AM_VIS
100
AcDbLine
 10
616.9230720817225
 20
49.00057713753046
 30
0.0
 11
600.468589409818
 21
39.50057713753052
 31
0.0
  0
LINE
  5
664
330
2
100
AcDbEntity
  8
AM_VIS
100
AcDbLine
 10
626.5230720817222
 20
32.37288938486916
 30
0.0
 11
616.9230720817225
 21
49.00057713753046
 31
0.0
  0
LINE
  5
665
330
2
100
AcDbEntity
  8
AM_VIS
100
AcDbLine
 10
610.0685894098179
 20
22.87288938486927
 30
0.0
 11
626.5230720817222
 21
32.37288938486921
 31
0.0
  0
LINE
  5
666
330
2
100
AcDbEntity
  8
AM_VIS
100
AcDbLine
 10
600.468589409818
 20
39.50057713753057
 30
0.0
 11
610.0685894098179
 21
22.87288938486927
 31
0.0
  0
LINE
  5
667
330
2
100
AcDbEntity
  8
AM_VIS
100
AcDbLine
 10
583.6548145943924
 20
7.622889384869438
 30
0.0
 11
600.5423099681891
 21
17.37288938486932
 31
0.0
  0
LINE
  5
668
330
2
100
AcDbEntity
  8
AM_VIS
100
AcDbLine
 10
590.9423099681892
 20
34.00057713753063
 30
0.0
 11
574.0548145943924
 21
24.25057713753074
 31
0.0
  0
LINE
  5
669
330
2
100
AcDbEntity
  8
AM_VIS
100
AcDbLine
 10
600.5423099681891
 20
17.37288938486932
 30
0.0
 11
590.9423099681892
 21
34.00057713753063
 31
0.0
  0
ARC
  5
66A
330
2
100
AcDbEntity
  8
AM_VIS
100
AcDbCircle
 10
586.6490432284524
 20
20.43673326120006
 30
0.0
 40
3.375000000000002
100
AcDbArc
 50
120.0000000000005
 51
300.0000000000005
  0
ARC
  5
66B
330
2
100
AcDbEntity
  8
AM_VIS
100
AcDbCircle
 10
614.3618561495546
 20
36.43673326119984
 30
0.0
 40
3.375000000000002
100
AcDbArc
 50
120.0000000000005
 51
300.0000000000005
  0
ARC
  5
66F
330
2
100
AcDbEntity
  8
AM_VIS
100
AcDbCircle
 10
614.3618561495546
 20
36.43673326119984
 30
0.0
 40
3.375000000000002
100
AcDbArc
 50
300.0000000000005
 51
120.0000000000005
  0
ARC
  5
671
330
2
100
AcDbEntity
  8
AM_VIS
100
AcDbCircle
 10
586.6490432284524
 20
20.43673326120006
 30
0.0
 40
3.375000000000002
100
AcDbArc
 50
300.0000000000005
 51
120.0000000000005
  0
LINE
  5
672
330
2
100
AcDbEntity
  8
AM_VIS
100
AcDbLine
 10
523.9894564477698
 20
-16.57312936727072
 30
0.0
 11
523.2677686112828
 21
-17.82312936727072
 31
0.0
  0
LINE
  5
673
330
2
100
AcDbEntity
  8
AM_VIS
100
AcDbLine
 10
523.2677686112828
 20
-15.32312936727066
 30
0.0
 11
523.9894564477698
 21
-16.57312936727072
 31
0.0
  0
LINE
  5
674
330
2
100
AcDbEntity
  8
AM_VIS
100
AcDbLine
 10
521.8243929383087
 20
-15.32312936727066
 30
0.0
 11
523.2677686112828
 21
-15.32312936727066
 31
0.0
  0
LINE
  5
675
330
2
100
AcDbEntity
  8
AM_VIS
100
AcDbLine
 10
521.1027051018216
 20
-16.57312936727072
 30
0.0
 11
521.8243929383087
 21
-15.32312936727066
 31
0.0
  0
LINE
  5
676
330
2
100
AcDbEntity
  8
AM_VIS
100
AcDbLine
 10
521.8243929383087
 20
-17.82312936727072
 30
0.0
 11
521.1027051018216
 21
-16.57312936727072
 31
0.0
  0
LINE
  5
677
330
2
100
AcDbEntity
  8
AM_VIS
100
AcDbLine
 10
523.2677686112826
 20
-17.82312936727066
 30
0.0
 11
521.8243929383087
 21
-17.82312936727066
 31
0.0
  0
ARC
  5
678
330
2
100
AcDbEntity
  8
AM_VIS
100
AcDbCircle
 10
522.5460807747956
 20
-16.57312936727072
 30
0.0
 40
1.25
100
AcDbArc
 50
330.0000000000003
 51
29.9999999999965
  0
ARC
  5
679
330
2
100
AcDbEntity
  8
AM_VIS
100
AcDbCircle
 10
522.5460807747956
 20
-16.57312936727072
 30
0.0
 40
1.25
100
AcDbArc
 50
29.9999999999965
 51
89.99999999999593
  0
ARC
  5
67A
330
2
100
AcDbEntity
  8
AM_VIS
100
AcDbCircle
 10
522.5460807747956
 20
-16.57312936727072
 30
0.0
 40
1.25
100
AcDbArc
 50
89.99999999999593
 51
149.9999999999998
  0
ARC
  5
67B
330
2
100
AcDbEntity
  8
AM_VIS
100
AcDbCircle
 10
522.5460807747956
 20
-16.57312936727072
 30
0.0
 40
3.765
100
AcDbArc
 50
149.9999999999998
 51
329.9999999999999
  0
ARC
  5
67C
330
2
100
AcDbEntity
  8
AM_VIS
100
AcDbCircle
 10
522.5460807747956
 20
-16.57312936727072
 30
0.0
 40
3.765
100
AcDbArc
 50
329.9999999999999
 51
149.9999999999998
  0
ARC
  5
67D
330
2
100
AcDbEntity
  8
AM_VIS
100
AcDbCircle
 10
522.5460807747956
 20
-16.57312936727072
 30
0.0
 40
1.25
100
AcDbArc
 50
270.0000000000041
 51
330.0000000000003
  0
ARC
  5
67E
330
2
100
AcDbEntity
  8
AM_VIS
100
AcDbCircle
 10
522.5460807747956
 20
-16.57312936727072
 30
0.0
 40
1.25
100
AcDbArc
 50
210.0000000000034
 51
270.0000000000041
  0
ARC
  5
67F
330
2
100
AcDbEntity
  8
AM_VIS
100
AcDbCircle
 10
522.5460807747956
 20
-16.57312936727072
 30
0.0
 40
1.25
100
AcDbArc
 50
149.9999999999998
 51
210.0000000000034
  0
ARC
  5
680
330
2
100
AcDbEntity
  8
AM_VIS
100
AcDbCircle
 10
496.5482360876551
 20
28.43673326120097
 30
0.0
 40
4.0
100
AcDbArc
 50
308.3980670629336
 51
128.3980670629335
  0
ARC
  5
681
330
2
100
AcDbEntity
  8
AM_VIS
100
AcDbCircle
 10
496.5482360876551
 20
28.43673326120097
 30
0.0
 40
4.0
100
AcDbArc
 50
128.3980670629335
 51
308.3980670629336
  0
LINE
  5
682
330
2
100
AcDbEntity
  8
AM_VIS
100
AcDbLine
 10
538.9268428883282
 20
-67.09285462421291
 30
0.0
 11
538.4268428883282
 21
-66.59285462421286
 31
0.0
  0
LINE
  5
683
330
2
100
AcDbEntity
  8
AM_VIS
100
AcDbLine
 10
538.426842888328
 20
-86.59285462421292
 30
0.0
 11
538.926842888328
 21
-86.09285462421292
 31
0.0
  0
LINE
  5
684
330
2
100
AcDbEntity
  8
AM_VIS
100
AcDbLine
 10
558.6268428883279
 20
-86.59285462421314
 30
0.0
 11
558.1268428883279
 21
-86.09285462421315
 31
0.0
  0
LINE
  5
685
330
2
100
AcDbEntity
  8
AM_VIS
100
AcDbLine
 10
558.1268428883281
 20
-67.09285462421314
 30
0.0
 11
558.6268428883281
 21
-66.59285462421308
 31
0.0
  0
LINE
  5
686
330
2
100
AcDbEntity
  8
AM_VIS
100
AcDbLine
 10
558.1268428883284
 20
-56.09285462421315
 30
0.0
 11
558.6268428883284
 21
-56.59285462421315
 31
0.0
  0
LINE
  5
687
330
2
100
AcDbEntity
  8
AM_VIS
100
AcDbLine
 10
538.9268428883283
 20
-56.09285462421292
 30
0.0
 11
538.4268428883283
 21
-56.59285462421292
 31
0.0
  0
LINE
  5
688
330
2
100
AcDbEntity
  8
AM_VIS
100
AcDbLine
 10
538.4268428883282
 20
-66.59285462421286
 30
0.0
 11
558.6268428883281
 21
-66.59285462421308
 31
0.0
  0
LINE
  5
689
330
2
100
AcDbEntity
  8
AM_VIS
100
AcDbLine
 10
558.6268428883284
 20
-56.59285462421308
 30
0.0
 11
538.4268428883283
 21
-56.59285462421292
 31
0.0
  0
LINE
  5
68A
330
2
100
AcDbEntity
  8
AM_VIS
100
AcDbLine
 10
558.1268428883285
 20
-36.59285462421315
 30
0.0
 11
538.9268428883285
 21
-36.59285462421292
 31
0.0
  0
LINE
  5
68B
330
2
100
AcDbEntity
  8
AM_VIS
100
AcDbLine
 10
558.6268428883279
 20
-86.59285462421314
 30
0.0
 11
538.426842888328
 21
-86.59285462421292
 31
0.0
  0
LINE
  5
68C
330
2
100
AcDbEntity
  8
AM_VIS
100
AcDbLine
 10
567.5268428883279
 20
-86.59285462421314
 30
0.0
 11
568.526842888328
 21
-86.59285462421314
 31
0.0
  0
LINE
  5
68D
330
2
100
AcDbEntity
  8
AM_VIS
100
AcDbLine
 10
568.526842888328
 20
-79.0327962914194
 30
0.0
 11
568.526842888328
 21
-86.59285462421314
 31
0.0
  0
LINE
  5
68E
330
2
100
AcDbEntity
  8
AM_VIS
100
AcDbLine
 10
560.126842888328
 20
-86.59285462421303
 30
0.0
 11
567.5268428883279
 21
-86.59285462421314
 31
0.0
  0
LINE
  5
68F
330
2
100
AcDbEntity
  8
AM_VIS
100
AcDbLine
 10
567.5268428883279
 20
-79.28413244920278
 30
0.0
 11
567.5268428883279
 21
-86.59285462421314
 31
0.0
  0
LINE
  5
690
330
2
100
AcDbEntity
  8
AM_VIS
100
AcDbLine
 10
558.6268428883279
 20
-86.59285462421303
 30
0.0
 11
560.126842888328
 21
-86.59285462421303
 31
0.0
  0
LINE
  5
691
330
2
100
AcDbEntity
  8
AM_VIS
100
AcDbLine
 10
560.126842888328
 20
-80.72766177066535
 30
0.0
 11
560.126842888328
 21
-86.59285462421303
 31
0.0
  0
LINE
  5
692
330
2
100
AcDbEntity
  8
AM_VIS
100
AcDbLine
 10
558.626842888328
 20
-80.93300587927172
 30
0.0
 11
558.6268428883279
 21
-86.59285462421314
 31
0.0
  0
LINE
  5
693
330
2
100
AcDbEntity
  8
AM_VIS
100
AcDbLine
 10
558.1268428883285
 20
-36.59285462421315
 30
0.0
 11
558.6268428883285
 21
-36.59285462421315
 31
0.0
  0
LINE
  5
694
330
2
100
AcDbEntity
  8
AM_VIS
100
AcDbLine
 10
558.1071176313863
 20
-36.57312936727095
 30
0.0
 11
558.1268428883285
 21
-36.59285462421315
 31
0.0
  0
LINE
  5
695
330
2
100
AcDbEntity
  8
AM_VIS
100
AcDbLine
 10
538.9268428883285
 20
-36.59285462421292
 30
0.0
 11
538.9465681452707
 21
-36.57312936727078
 31
0.0
  0
LINE
  5
696
330
2
100
AcDbEntity
  8
AM_VIS
100
AcDbLine
 10
538.4268428883285
 20
-36.59285462421292
 30
0.0
 11
538.9268428883285
 21
-36.59285462421292
 31
0.0
  0
LINE
  5
697
330
2
100
AcDbEntity
  8
AM_VIS
100
AcDbLine
 10
538.426842888328
 20
-86.59285462421292
 30
0.0
 11
538.4268428883281
 21
-80.93300587927149
 31
0.0
  0
LINE
  5
698
330
2
100
AcDbEntity
  8
AM_VIS
100
AcDbLine
 10
536.9268428883279
 20
-86.5928546242128
 30
0.0
 11
538.426842888328
 21
-86.5928546242128
 31
0.0
  0
LINE
  5
699
330
2
100
AcDbEntity
  8
AM_VIS
100
AcDbLine
 10
529.526842888328
 20
-86.59285462421269
 30
0.0
 11
536.9268428883279
 21
-86.5928546242128
 31
0.0
  0
LINE
  5
69A
330
2
100
AcDbEntity
  8
AM_VIS
100
AcDbLine
 10
536.926842888328
 20
-80.72766177066501
 30
0.0
 11
536.9268428883279
 21
-86.5928546242128
 31
0.0
  0
LINE
  5
69B
330
2
100
AcDbEntity
  8
AM_VIS
100
AcDbLine
 10
528.526842888328
 20
-86.59285462421269
 30
0.0
 11
529.526842888328
 21
-86.59285462421269
 31
0.0
  0
LINE
  5
69C
330
2
100
AcDbEntity
  8
AM_VIS
100
AcDbLine
 10
529.526842888328
 20
-79.28413244920239
 30
0.0
 11
529.526842888328
 21
-86.59285462421269
 31
0.0
  0
LINE
  5
69D
330
2
100
AcDbEntity
  8
AM_VIS
100
AcDbLine
 10
528.526842888328
 20
-79.032796291419
 30
0.0
 11
528.526842888328
 21
-86.59285462421269
 31
0.0
  0
LINE
  5
69E
330
2
100
AcDbEntity
  8
AM_VIS
100
AcDbLine
 10
558.1268428883279
 20
-86.09285462421315
 30
0.0
 11
558.1268428883281
 21
-67.09285462421314
 31
0.0
  0
LINE
  5
69F
330
2
100
AcDbEntity
  8
AM_VIS
100
AcDbLine
 10
538.926842888328
 20
-86.09285462421292
 30
0.0
 11
558.1268428883279
 21
-86.09285462421309
 31
0.0
  0
LINE
  5
6A0
330
2
100
AcDbEntity
  8
AM_VIS
100
AcDbLine
 10
538.9268428883282
 20
-67.09285462421291
 30
0.0
 11
538.926842888328
 21
-86.09285462421292
 31
0.0
  0
LINE
  5
6A1
330
2
100
AcDbEntity
  8
AM_VIS
100
AcDbLine
 10
558.1268428883281
 20
-67.09285462421314
 30
0.0
 11
538.9268428883282
 21
-67.09285462421291
 31
0.0
  0
LINE
  5
6A2
330
2
100
AcDbEntity
  8
AM_VIS
100
AcDbLine
 10
538.9268428883285
 20
-36.59285462421292
 30
0.0
 11
538.9268428883283
 21
-56.09285462421292
 31
0.0
  0
LINE
  5
6A3
330
2
100
AcDbEntity
  8
AM_VIS
100
AcDbLine
 10
558.1268428883284
 20
-56.09285462421309
 30
0.0
 11
558.1268428883285
 21
-36.59285462421309
 31
0.0
  0
LINE
  5
6A4
330
2
100
AcDbEntity
  8
AM_VIS
100
AcDbLine
 10
538.9268428883283
 20
-56.09285462421292
 30
0.0
 11
558.1268428883284
 21
-56.09285462421309
 31
0.0
  0
ARC
  5
6A5
330
2
100
AcDbEntity
  8
AM_VIS
100
AcDbCircle
 10
548.5268428883284
 20
-45.59285462421297
 30
0.0
 40
3.375000000000002
100
AcDbArc
 50
0.0
 51
180.0
  0
ARC
  5
6A6
330
2
100
AcDbEntity
  8
AM_VIS
100
AcDbCircle
 10
548.526842888328
 20
-77.59285462421303
 30
0.0
 40
3.375000000000002
100
AcDbArc
 50
0.0
 51
180.0
  0
ARC
  5
6A7
330
2
100
AcDbEntity
  8
AM_VIS
100
AcDbCircle
 10
548.526842888328
 20
-77.59285462421303
 30
0.0
 40
4.0
100
AcDbArc
 50
0.0
 51
180.0
  0
ARC
  5
6AA
330
2
100
AcDbEntity
  8
AM_VIS
100
AcDbCircle
 10
548.526842888328
 20
-77.59285462421303
 30
0.0
 40
3.375000000000002
100
AcDbArc
 50
180.0
 51
0.0
  0
ARC
  5
6AC
330
2
100
AcDbEntity
  8
AM_VIS
100
AcDbCircle
 10
548.5268428883284
 20
-45.59285462421297
 30
0.0
 40
3.375000000000002
100
AcDbArc
 50
180.0
 51
0.0
  0
LINE
  5
6AD
330
2
100
AcDbEntity
  8
AM_VIS
100
AcDbLine
 10
484.212535061098
 20
-47.36526634191091
 30
0.0
 11
484.462535061098
 21
-47.79827904380318
 31
0.0
  0
LINE
  5
6AE
330
2
100
AcDbEntity
  8
AM_VIS
100
AcDbLine
 10
476.4625469748559
 20
-33.94186570460033
 30
0.0
 11
476.7125316564363
 21
-34.37488725066612
 31
0.0
  0
LINE
  5
6AF
330
2
100
AcDbEntity
  8
AM_VIS
100
AcDbLine
 10
620.3411507155594
 20
-34.37488528514473
 30
0.0
 11
620.5911507155595
 21
-33.94187258325252
 31
0.0
  0
LINE
  5
6B0
330
2
100
AcDbEntity
  8
AM_VIS
100
AcDbLine
 10
612.5911387590609
 20
-47.79827214095809
 30
0.0
 11
612.8411541322381
 21
-47.36526831469336
 31
0.0
  0
LINE
  5
6B1
330
2
100
AcDbEntity
  8
AM_VIS
100
AcDbLine
 10
540.5268428883297
 20
77.02076352524352
 30
0.0
 11
541.0268428883297
 21
77.02076352524352
 31
0.0
  0
LINE
  5
6B2
330
2
100
AcDbEntity
  8
AM_VIS
100
AcDbLine
 10
556.0268428884696
 20
77.02076747056492
 30
0.0
 11
556.5268428885395
 21
77.02074971918921
 31
0.0
  0
LINE
  5
6B3
330
2
100
AcDbEntity
  8
AM_VIS
100
AcDbLine
 10
541.0268428883297
 20
77.02076352524347
 30
0.0
 11
541.0268428883296
 21
71.42687063272922
 31
0.0
  0
LINE
  5
6B4
330
2
100
AcDbEntity
  8
AM_VIS
100
AcDbLine
 10
541.0268428883297
 20
77.5233650536208
 30
0.0
 11
541.0268428883297
 21
77.02076352524347
 31
0.0
  0
LINE
  5
6B5
330
2
100
AcDbEntity
  8
AM_VIS
100
AcDbLine
 10
556.0268428883296
 20
71.4268706327291
 30
0.0
 11
556.0268428883296
 21
77.02076352524335
 31
0.0
  0
LINE
  5
6B6
330
2
100
AcDbEntity
  8
AM_VIS
100
AcDbLine
 10
556.0268428883296
 20
77.52337235867452
 30
0.0
 11
556.0268428883296
 21
77.02076352524329
 31
0.0
  0
LINE
  5
6B7
330
2
100
AcDbEntity
  8
AM_VIS
100
AcDbLine
 10
484.212535061098
 20
-47.36526634191091
 30
0.0
 11
489.0569884120646
 21
-44.56831989565381
 31
0.0
  0
LINE
  5
6B8
330
2
100
AcDbEntity
  8
AM_VIS
100
AcDbLine
 10
483.7772693695423
 20
-47.61656710609957
 30
0.0
 11
484.212535061098
 21
-47.36526634191091
 31
0.0
  0
LINE
  5
6B9
330
2
100
AcDbEntity
  8
AM_VIS
100
AcDbLine
 10
481.5569884120646
 20
-31.57793883888724
 30
0.0
 11
476.7125350610981
 21
-34.37488528514433
 31
0.0
  0
LINE
  5
6BA
330
2
100
AcDbEntity
  8
AM_VIS
100
AcDbLine
 10
476.2772630431803
 20
-34.62618970185986
 30
0.0
 11
476.7125350610981
 21
-34.37488528514433
 31
0.0
  0
LINE
  5
6BB
330
2
100
AcDbEntity
  8
AM_VIS
100
AcDbLine
 10
620.3411507155594
 20
-34.37488528514473
 30
0.0
 11
615.4966973645929
 21
-31.57793883888763
 31
0.0
  0
LINE
  5
6BC
330
2
100
AcDbEntity
  8
AM_VIS
100
AcDbLine
 10
620.3411507155594
 20
-34.37488528514473
 30
0.0
 11
620.7764164071151
 21
-34.6261860493334
 31
0.0
  0
LINE
  5
6BD
330
2
100
AcDbEntity
  8
AM_VIS
100
AcDbLine
 10
607.9966973645929
 20
-44.56831989565415
 30
0.0
 11
612.8411507155594
 21
-47.36526634191131
 31
0.0
  0
LINE
  5
6BE
330
2
100
AcDbEntity
  8
AM_VIS
100
AcDbLine
 10
612.8411507155594
 20
-47.36526634191131
 30
0.0
 11
613.2764227334773
 21
-47.61657075862683
 31
0.0
  0
LINE
  5
6BF
330
2
100
AcDbEntity
  8
AM_VIS
100
AcDbLine
 10
538.4268428883281
 20
-80.6448346048017
 30
0.0
 11
538.4268428883285
 21
-36.57312936727078
 31
0.0
  0
LINE
  5
6C0
330
2
100
AcDbEntity
  8
AM_VIS
100
AcDbLine
 10
558.6268428883281
 20
-80.64483460480198
 30
0.0
 11
558.6268428883285
 21
-36.57312936727101
 31
0.0
  0
LINE
  5
6C1
330
2
100
AcDbEntity
  8
AM_VIS
100
AcDbLine
 10
622.0549483445859
 20
29.21586667327142
 30
0.0
 11
583.8877320207842
 21
7.180014054506102
 31
0.0
  0
LINE
  5
6C2
330
2
100
AcDbEntity
  8
AM_VIS
100
AcDbLine
 10
611.954948344586
 20
46.70957982971714
 30
0.0
 11
573.7877320207844
 21
24.67372721095188
 31
0.0
  0
LINE
  5
6C3
330
2
100
AcDbEntity
  8
AM_VIS
100
AcDbLine
 10
485.0987374320721
 20
46.70957982971748
 30
0.0
 11
523.2659537558736
 21
24.67372721095194
 31
0.0
  0
LINE
  5
6C4
330
2
100
AcDbEntity
  8
AM_VIS
100
AcDbLine
 10
474.9987374320721
 20
29.21586667327188
 30
0.0
 11
513.1659537558735
 21
7.180014054506386
 31
0.0
  0
ARC
  5
6C5
330
2
100
AcDbEntity
  8
AM_VIS
100
AcDbCircle
 10
620.9559444416116
 20
29.56703268948104
 30
0.0
 40
1.153744837341951
100
AcDbArc
 50
300.8406950105718
 51
342.2796978809877
  0
LINE
  5
6C6
330
2
100
AcDbEntity
  8
AM_VIS
100
AcDbLine
 10
622.0549483445859
 20
29.21586667327142
 30
0.0
 11
622.3045119889177
 21
29.35995231050629
 31
0.0
  0
LINE
  5
6C7
330
2
100
AcDbEntity
  8
AM_VIS
100
AcDbLine
 10
620.5911552350772
 20
-33.94186374072694
 30
0.0
 11
621.4825523241493
 21
-34.39746717207032
 31
0.0
  0
LINE
  5
6C8
330
2
100
AcDbEntity
  8
AM_VIS
100
AcDbLine
 10
558.6268428883281
 20
-80.64483460480198
 30
0.0
 11
558.6268428883281
 21
-80.93300587927172
 31
0.0
  0
ARC
  5
6C9
330
2
100
AcDbEntity
  8
AM_VIS
100
AcDbCircle
 10
557.7732364635481
 20
-79.86865793183415
 30
0.0
 40
1.153730538767646
100
AcDbArc
 50
317.7200335234699
 51
359.1595735851559
  0
LINE
  5
6CA
330
2
100
AcDbEntity
  8
AM_VIS
100
AcDbLine
 10
612.5910482501372
 20
-47.79841921230388
 30
0.0
 11
613.4314176838574
 21
-48.34242260887584
 31
0.0
  0
ARC
  5
6CB
330
2
100
AcDbEntity
  8
AM_VIS
100
AcDbCircle
 10
539.2804927098098
 20
-79.86864078472848
 30
0.0
 40
1.153774182427261
100
AcDbArc
 50
180.8412462292228
 51
222.2791466621535
  0
LINE
  5
6CC
330
2
100
AcDbEntity
  8
AM_VIS
100
AcDbLine
 10
538.4268428883281
 20
-80.64483460480175
 30
0.0
 11
538.4268428883281
 21
-80.93300587927149
 31
0.0
  0
LINE
  5
6CD
330
2
100
AcDbEntity
  8
AM_VIS
100
AcDbLine
 10
483.6222777690534
 20
-48.34245818739692
 30
0.0
 11
484.4625404591891
 21
-47.79828737908019
 31
0.0
  0
LINE
  5
6CE
330
2
100
AcDbEntity
  8
AM_VIS
100
AcDbLine
 10
474.7491737877403
 20
29.35995231050674
 30
0.0
 11
474.9987374320721
 21
29.21586667327188
 31
0.0
  0
ARC
  5
6CF
330
2
100
AcDbEntity
  8
AM_VIS
100
AcDbCircle
 10
476.0977277893927
 20
29.56702193800083
 30
0.0
 40
1.153728661961259
100
AcDbArc
 50
197.7199982675405
 51
239.159608841087
  0
LINE
  5
6D0
330
2
100
AcDbEntity
  8
AM_VIS
100
AcDbLine
 10
469.9880043337834
 20
-13.89850572011448
 30
0.0
 11
470.4805835591262
 21
-13.81165071255009
 31
0.0
  0
LINE
  5
6D1
330
2
100
AcDbEntity
  8
AM_VIS
100
AcDbLine
 10
469.4211416712287
 20
-13.50158421066396
 30
0.0
 11
469.9880043337834
 21
-13.89850572011448
 31
0.0
  0
LINE
  5
6D2
330
2
100
AcDbEntity
  8
AM_VIS
100
AcDbLine
 10
611.954948344586
 20
46.70957982971714
 30
0.0
 11
612.2045119889178
 21
46.85366546695206
 31
0.0
  0
ARC
  5
6D3
330
2
100
AcDbEntity
  8
AM_VIS
100
AcDbCircle
 10
611.7095647516119
 20
45.58223376350116
 30
0.0
 40
1.153742718596064
100
AcDbArc
 50
77.7202623193667
 51
119.1593447892568
  0
LINE
  5
6D4
330
2
100
AcDbEntity
  8
AM_VIS
100
AcDbLine
 10
556.5270155105155
 20
77.02074487183518
 30
0.0
 11
556.5779515548142
 21
78.02052784828783
 31
0.0
  0
LINE
  5
6D5
330
2
100
AcDbEntity
  8
AM_VIS
100
AcDbLine
 10
540.4757012309302
 20
78.020537579191
 30
0.0
 11
540.5268289441647
 21
77.02076281214965
 31
0.0
  0
LINE
  5
6D6
330
2
100
AcDbEntity
  8
AM_VIS
100
AcDbLine
 10
522.7505905061808
 20
73.63224861108995
 30
0.0
 11
522.9216614758557
 21
73.16223498478371
 31
0.0
  0
LINE
  5
6D7
330
2
100
AcDbEntity
  8
AM_VIS
100
AcDbLine
 10
522.750590506181
 20
73.63224861108995
 30
0.0
 11
523.0430472176853
 21
74.25942405285923
 31
0.0
  0
LINE
  5
6D8
330
2
100
AcDbEntity
  8
AM_VIS
100
AcDbLine
 10
612.5911336223688
 20
-47.79826917504533
 30
0.0
 11
607.7466973645929
 21
-45.00133259754636
 31
0.0
  0
LINE
  5
6D9
330
2
100
AcDbEntity
  8
AM_VIS
100
AcDbLine
 10
558.9268428883285
 20
-36.57312936727101
 30
0.0
 11
558.9268428883281
 21
-79.88558048457412
 31
0.0
  0
LINE
  5
6DA
330
2
100
AcDbEntity
  8
AM_VIS
100
AcDbLine
 10
621.5474149885412
 20
28.57643199202255
 30
0.0
 11
584.0377320207842
 21
6.920206433370765
 31
0.0
  0
LINE
  5
6DB
330
2
100
AcDbEntity
  8
AM_VIS
100
AcDbLine
 10
615.7466973645929
 20
-31.14492613699542
 30
0.0
 11
620.5911507155595
 21
-33.94187258325252
 31
0.0
  0
LINE
  5
6DC
330
2
100
AcDbEntity
  8
AM_VIS
100
AcDbLine
 10
473.7623156404945
 20
-16.93929993653171
 30
0.0
 11
477.8985082031458
 21
-16.20997759033059
 31
0.0
  0
LINE
  5
6DD
330
2
100
AcDbEntity
  8
AM_VIS
100
AcDbLine
 10
477.8985082031458
 20
-16.20997759033059
 30
0.0
 11
477.1518210391779
 21
-11.97530425237812
 31
0.0
  0
LINE
  5
6DE
330
2
100
AcDbEntity
  8
AM_VIS
100
AcDbLine
 10
477.1518210391779
 20
-11.97530425237812
 30
0.0
 11
473.0156284765266
 21
-12.70462659857924
 31
0.0
  0
LINE
  5
6DF
330
2
100
AcDbEntity
  8
AM_VIS
100
AcDbLine
 10
473.0156284765268
 20
-12.70462659857924
 30
0.0
 11
473.1284997920101
 21
-13.34475163803677
 31
0.0
  0
LINE
  5
6E0
330
2
100
AcDbEntity
  8
AM_VIS
100
AcDbLine
 10
473.1284997920101
 20
-13.34475163803677
 30
0.0
 11
470.4805835591262
 21
-13.81165071255009
 31
0.0
  0
LINE
  5
6E1
330
2
100
AcDbEntity
  8
AM_VIS
100
AcDbLine
 10
513.0159537558734
 20
6.920206433371049
 30
0.0
 11
475.5062707881172
 21
28.57643199202261
 31
0.0
  0
LINE
  5
6E2
330
2
100
AcDbEntity
  8
AM_VIS
100
AcDbLine
 10
538.1268428883281
 20
-79.88558048457395
 30
0.0
 11
538.1268428883286
 21
-36.57312936727072
 31
0.0
  0
LINE
  5
6E3
330
2
100
AcDbEntity
  8
AM_VIS
100
AcDbLine
 10
489.3069884120645
 20
-45.00133259754607
 30
0.0
 11
484.4625350610981
 21
-47.79827904380318
 31
0.0
  0
LINE
  5
6E4
330
2
100
AcDbEntity
  8
AM_VIS
100
AcDbLine
 10
476.4625520934394
 20
-33.94186274962522
 30
0.0
 11
481.3069884120647
 21
-31.14492613699503
 31
0.0
  0
LINE
  5
6E5
330
2
100
AcDbEntity
  8
AM_VIS
100
AcDbLine
 10
471.0015280921271
 20
-16.76607397158727
 30
0.0
 11
473.6494443250109
 21
-16.29917489707378
 31
0.0
  0
LINE
  5
6E6
330
2
100
AcDbEntity
  8
AM_VIS
100
AcDbLine
 10
473.6494443250109
 20
-16.29917489707378
 30
0.0
 11
473.7623156404945
 21
-16.93929993653171
 31
0.0
  0
LINE
  5
6E7
330
2
100
AcDbEntity
  8
AM_VIS
100
AcDbLine
 10
520.411395066897
 20
69.38724919961765
 30
0.0
 11
521.8478796688648
 21
65.4405401923168
 31
0.0
  0
LINE
  5
6E8
330
2
100
AcDbEntity
  8
AM_VIS
100
AcDbLine
 10
521.8478796688648
 20
65.4405401923168
 30
0.0
 11
525.8885579382442
 21
66.91122680861713
 31
0.0
  0
LINE
  5
6E9
330
2
100
AcDbEntity
  8
AM_VIS
100
AcDbLine
 10
525.8885579382442
 20
66.91122680861719
 30
0.0
 11
524.4520733362764
 21
70.85793581591804
 31
0.0
  0
LINE
  5
6EA
330
2
100
AcDbEntity
  8
AM_VIS
100
AcDbLine
 10
524.4520733362764
 20
70.85793581591804
 30
0.0
 11
523.8412731327656
 21
70.63562272275635
 31
0.0
  0
LINE
  5
6EB
330
2
100
AcDbEntity
  8
AM_VIS
100
AcDbLine
 10
523.8412731327656
 20
70.63562272275635
 30
0.0
 11
522.9216614758557
 21
73.16223498478371
 31
0.0
  0
LINE
  5
6EC
330
2
100
AcDbEntity
  8
AM_VIS
100
AcDbLine
 10
540.5268428883296
 20
71.42687063272922
 30
0.0
 11
540.5268428883297
 21
77.02076352524352
 31
0.0
  0
LINE
  5
6ED
330
2
100
AcDbEntity
  8
AM_VIS
100
AcDbLine
 10
556.5268428883296
 20
77.02074378772692
 30
0.0
 11
556.5268428883296
 21
71.42687063272905
 31
0.0
  0
LINE
  5
6EE
330
2
100
AcDbEntity
  8
AM_VIS
100
AcDbLine
 10
573.6377320207843
 20
24.93353483208722
 30
0.0
 11
611.1474149885407
 21
46.5897603907386
 31
0.0
  0
LINE
  5
6EF
330
2
100
AcDbEntity
  8
AM_VIS
100
AcDbLine
 10
485.9062707881173
 20
46.58976039073894
 30
0.0
 11
523.4159537558737
 21
24.93353483208728
 31
0.0
  0
LINE
  5
6F0
330
2
100
AcDbEntity
  8
AM_VIS
100
AcDbLine
 10
520.1025836134975
 20
72.13617455480653
 30
0.0
 11
521.0221952704075
 21
69.60956229277917
 31
0.0
  0
LINE
  5
6F1
330
2
100
AcDbEntity
  8
AM_VIS
100
AcDbLine
 10
521.0221952704075
 20
69.60956229277917
 30
0.0
 11
520.411395066897
 21
69.38724919961765
 31
0.0
  0
ARC
  5
6F2
330
2
100
AcDbEntity
  8
AM_VIS
100
AcDbCircle
 10
485.3441232308044
 20
45.58224862939908
 30
0.0
 40
1.153728661961263
100
AcDbArc
 50
60.84039115891482
 51
102.2800017324613
  0
LINE
  5
6F3
330
2
100
AcDbEntity
  8
AM_VIS
100
AcDbLine
 10
484.8491737877402
 20
46.85366546695241
 30
0.0
 11
485.0987374320721
 21
46.70957982971748
 31
0.0
  0
LINE
  5
6F4
330
2
100
AcDbEntity
  8
AM_VIS
100
AcDbLine
 10
519.3043372020526
 20
72.89864489261606
 30
0.0
 11
519.9315126438224
 21
72.60618818111243
 31
0.0
  0
LINE
  5
6F5
330
2
100
AcDbEntity
  8
AM_VIS
100
AcDbLine
 10
519.9315126438225
 20
72.60618818111277
 30
0.0
 11
520.1025836134975
 21
72.13617455480653
 31
0.0
  0
LINE
  5
6F6
330
2
100
AcDbEntity
  8
AM_VIS
100
AcDbLine
 10
475.5711593644365
 20
-34.39749321918242
 30
0.0
 11
476.462465082635
 21
-33.94171418705025
 31
0.0
  0
LINE
  5
6F7
330
2
100
AcDbEntity
  8
AM_VIS
100
AcDbLine
 10
470.112027357334
 20
-17.41979164170664
 30
0.0
 11
470.5089488667834
 21
-16.85292897915229
 31
0.0
  0
LINE
  5
6F8
330
2
100
AcDbEntity
  8
AM_VIS
100
AcDbLine
 10
470.5089488667828
 20
-16.85292897915195
 30
0.0
 11
471.0015280921271
 21
-16.76607397158727
 31
0.0
  0
LINE
  5
6F9
330
2
100
AcDbEntity
  8
AM_VIS
100
AcDbLine
 10
483.6215260582685
 20
-48.34156516734015
 30
0.0
 11
483.7771907265548
 21
-47.61661251064959
 31
0.0
  0
LINE
  5
6FA
330
2
100
AcDbEntity
  8
AM_VIS
100
AcDbLine
 10
475.5714351151363
 20
-34.39853791637188
 30
0.0
 11
476.2771883008389
 21
-34.6262328543707
 31
0.0
  0
LINE
  5
6FB
330
2
100
AcDbEntity
  8
AM_VIS
100
AcDbLine
 10
620.7764950501026
 20
-34.62623145388341
 30
0.0
 11
621.482154801481
 21
-34.39856468274582
 31
0.0
  0
LINE
  5
6FC
330
2
100
AcDbEntity
  8
AM_VIS
100
AcDbLine
 10
613.2764974758186
 20
-47.61661391113778
 30
0.0
 11
613.4321844680498
 21
-48.34166156775751
 31
0.0
  0
LINE
  5
6FD
330
2
100
AcDbEntity
  8
AM_VIS
100
AcDbLine
 10
540.4768495848657
 20
78.02074013919787
 30
0.0
 11
541.0268428883297
 21
77.52345586272088
 31
0.0
  0
LINE
  5
6FE
330
2
100
AcDbEntity
  8
AM_VIS
100
AcDbLine
 10
556.0268428883297
 20
77.52345866369632
 30
0.0
 11
556.5769090818009
 21
78.0208113823171
 31
0.0
  0
ARC
  5
6FF
330
2
100
AcDbEntity
  8
AM_VIS
100
AcDbCircle
 10
548.5268428883296
 20
71.42687063272916
 30
0.0
 40
4.250000000000017
100
AcDbArc
 50
89.9999999999992
 51
269.9999999999992
  0
ARC
  5
700
330
2
100
AcDbEntity
  8
AM_VIS
100
AcDbCircle
 10
485.3069884120647
 20
-38.07312936727056
 30
0.0
 40
4.250000000000023
100
AcDbArc
 50
210.0000000000001
 51
29.99999999999973
  0
ARC
  5
701
330
2
100
AcDbEntity
  8
AM_VIS
100
AcDbCircle
 10
611.7466973645929
 20
-38.0731293672709
 30
0.0
 40
4.250000000000014
100
AcDbArc
 50
329.9999999999999
 51
149.9999999999998
  0
ARC
  5
702
330
2
100
AcDbEntity
  8
AM_VIS
100
AcDbCircle
 10
611.7466973645929
 20
-38.0731293672709
 30
0.0
 40
7.49999999999997
100
AcDbArc
 50
59.99999999999946
 51
239.9999999999995
  0
ARC
  5
703
330
2
100
AcDbEntity
  8
AM_VIS
100
AcDbCircle
 10
485.3069884120647
 20
-38.07312936727056
 30
0.0
 40
7.499999999999978
100
AcDbArc
 50
300.0000000000005
 51
329.9999999999999
  0
ARC
  5
704
330
2
100
AcDbEntity
  8
AM_VIS
100
AcDbCircle
 10
548.5268428883296
 20
71.42687063272916
 30
0.0
 40
7.499999999999978
100
AcDbArc
 50
180.0
 51
329.9999999999999
  0
ARC
  5
705
330
2
100
AcDbEntity
  8
AM_VIS
100
AcDbCircle
 10
548.5268428883289
 20
-1.573129367270837
 30
0.0
 40
80.0
100
AcDbArc
 50
157.2529474275427
 51
188.5751032946403
  0
ARC
  5
706
330
2
100
AcDbEntity
  8
AM_VIS
100
AcDbCircle
 10
611.7466973645929
 20
-38.0731293672709
 30
0.0
 40
7.999999999999985
100
AcDbArc
 50
59.99999999999946
 51
239.9999999999995
  0
ARC
  5
707
330
2
100
AcDbEntity
  8
AM_VIS
100
AcDbCircle
 10
485.3069884120647
 20
-38.07312936727056
 30
0.0
 40
8.0
100
AcDbArc
 50
300.0000000000005
 51
329.9999999999999
  0
ARC
  5
708
330
2
100
AcDbEntity
  8
AM_VIS
100
AcDbCircle
 10
548.5268428883296
 20
71.42687063272916
 30
0.0
 40
7.999999999999963
100
AcDbArc
 50
180.0
 51
329.9999999999999
  0
ARC
  5
709
330
2
100
AcDbEntity
  8
AM_VIS
100
AcDbCircle
 10
548.5268428883289
 20
-1.573129367270837
 30
0.0
 40
80.0
100
AcDbArc
 50
111.4248967053588
 51
142.7470525724587
  0
ARC
  5
70A
330
2
100
AcDbEntity
  8
AM_VIS
100
AcDbCircle
 10
548.5268428883289
 20
-1.573129367270837
 30
0.0
 40
80.0
100
AcDbArc
 50
329.9999999999999
 51
335.7752504557906
  0
ARC
  5
70B
330
2
100
AcDbEntity
  8
AM_VIS
100
AcDbCircle
 10
548.5268428883289
 20
-1.573129367270837
 30
0.0
 40
80.0
100
AcDbArc
 50
335.7752504557906
 51
22.7470525724573
  0
ARC
  5
70C
330
2
100
AcDbEntity
  8
AM_VIS
100
AcDbCircle
 10
548.5268428883289
 20
-1.573129367270837
 30
0.0
 40
80.0
100
AcDbArc
 50
37.25294742754125
 51
84.22461175031816
  0
ARC
  5
70D
330
2
100
AcDbEntity
  8
AM_VIS
100
AcDbCircle
 10
548.5268428883289
 20
-1.573129367270837
 30
0.0
 40
80.0
100
AcDbArc
 50
84.22461175031816
 51
95.77524722818388
  0
ARC
  5
70E
330
2
100
AcDbEntity
  8
AM_VIS
100
AcDbCircle
 10
548.5268428883289
 20
-1.573129367270837
 30
0.0
 40
80.0
100
AcDbArc
 50
95.77524722818388
 51
108.5751032946406
  0
ARC
  5
70F
330
2
100
AcDbEntity
  8
AM_VIS
100
AcDbCircle
 10
548.5268428883289
 20
-1.573129367270837
 30
0.0
 40
80.0
100
AcDbArc
 50
191.4248967053577
 51
204.2246117503196
  0
ARC
  5
710
330
2
100
AcDbEntity
  8
AM_VIS
100
AcDbCircle
 10
548.5268428883289
 20
-1.573129367270837
 30
0.0
 40
80.0
100
AcDbArc
 50
204.2246117503196
 51
215.7752504557914
  0
ARC
  5
711
330
2
100
AcDbEntity
  8
AM_VIS
100
AcDbCircle
 10
548.5268428883289
 20
-1.573129367270837
 30
0.0
 40
80.0
100
AcDbArc
 50
215.7752504557914
 51
262.7470525724571
  0
ARC
  5
712
330
2
100
AcDbEntity
  8
AM_VIS
100
AcDbCircle
 10
548.5268428883289
 20
-1.573129367270837
 30
0.0
 40
80.0
100
AcDbArc
 50
277.2529474275413
 51
324.2246117503193
  0
ARC
  5
713
330
2
100
AcDbEntity
  8
AM_VIS
100
AcDbCircle
 10
548.5268428883289
 20
-1.573129367270837
 30
0.0
 40
80.0
100
AcDbArc
 50
324.2246117503193
 51
329.9999999999999
  0
ARC
  5
714
330
2
100
AcDbEntity
  8
AM_VIS
100
AcDbCircle
 10
611.7466973645929
 20
-38.0731293672709
 30
0.0
 40
4.250000000000014
100
AcDbArc
 50
149.9999999999998
 51
329.9999999999999
  0
ARC
  5
715
330
2
100
AcDbEntity
  8
AM_VIS
100
AcDbCircle
 10
485.3069884120647
 20
-38.07312936727056
 30
0.0
 40
4.250000000000023
100
AcDbArc
 50
29.99999999999973
 51
210.0000000000001
  0
ARC
  5
716
330
2
100
AcDbEntity
  8
AM_VIS
100
AcDbCircle
 10
548.5268428883296
 20
71.42687063272916
 30
0.0
 40
4.250000000000017
100
AcDbArc
 50
269.9999999999992
 51
89.9999999999992
  0
ARC
  5
717
330
2
100
AcDbEntity
  8
AM_VIS
100
AcDbCircle
 10
548.5268428883296
 20
71.42687063272916
 30
0.0
 40
7.999999999999963
100
AcDbArc
 50
329.9999999999999
 51
0.0
  0
ARC
  5
718
330
2
100
AcDbEntity
  8
AM_VIS
100
AcDbCircle
 10
548.5268428883296
 20
71.42687063272916
 30
0.0
 40
7.499999999999978
100
AcDbArc
 50
329.9999999999999
 51
0.0
  0
ARC
  5
719
330
2
100
AcDbEntity
  8
AM_VIS
100
AcDbCircle
 10
485.3069884120647
 20
-38.07312936727056
 30
0.0
 40
8.0
100
AcDbArc
 50
329.9999999999999
 51
120.0000000000005
  0
ARC
  5
71A
330
2
100
AcDbEntity
  8
AM_VIS
100
AcDbCircle
 10
485.3069884120647
 20
-38.07312936727056
 30
0.0
 40
7.499999999999978
100
AcDbArc
 50
329.9999999999999
 51
120.0000000000005
  0
LINE
  5
71B
330
2
100
AcDbEntity
  8
AM_VIS
100
AcDbLine
 10
547.1898014572836
 20
27.88313030407835
 30
0.0
 11
547.3874292351326
 21
29.31291231360138
 31
0.0
  0
LINE
  5
71C
330
2
100
AcDbEntity
  8
AM_VIS
100
AcDbLine
 10
548.32921511048
 20
26.99708862320608
 30
0.0
 11
547.1898014572836
 21
27.88313030407835
 31
0.0
  0
LINE
  5
71D
330
2
100
AcDbEntity
  8
AM_VIS
100
AcDbLine
 10
549.6662565415256
 20
27.54082895185684
 30
0.0
 11
548.32921511048
 21
26.99708862320597
 31
0.0
  0
LINE
  5
71E
330
2
100
AcDbEntity
  8
AM_VIS
100
AcDbLine
 10
549.8638843193746
 20
28.97061096137992
 30
0.0
 11
549.6662565415255
 21
27.54082895185684
 31
0.0
  0
LINE
  5
71F
330
2
100
AcDbEntity
  8
AM_VIS
100
AcDbLine
 10
548.7244706661781
 20
29.85665264225213
 30
0.0
 11
549.8638843193746
 21
28.97061096137986
 31
0.0
  0
LINE
  5
720
330
2
100
AcDbEntity
  8
AM_VIS
100
AcDbLine
 10
547.3874292351328
 20
29.31291231360138
 30
0.0
 11
548.7244706661781
 21
29.85665264225213
 31
0.0
  0
ARC
  5
721
330
2
100
AcDbEntity
  8
AM_VIS
100
AcDbCircle
 10
548.5268428883292
 20
28.42687063272916
 30
0.0
 40
1.25
100
AcDbArc
 50
172.1303098396032
 51
232.1303098395986
  0
ARC
  5
722
330
2
100
AcDbEntity
  8
AM_VIS
100
AcDbCircle
 10
548.5268428883292
 20
28.42687063272916
 30
0.0
 40
1.25
100
AcDbArc
 50
232.1303098395986
 51
292.1303098395984
  0
ARC
  5
723
330
2
100
AcDbEntity
  8
AM_VIS
100
AcDbCircle
 10
548.5268428883292
 20
28.42687063272916
 30
0.0
 40
1.25
100
AcDbArc
 50
292.1303098395984
 51
352.1303098396
  0
ARC
  5
724
330
2
100
AcDbEntity
  8
AM_VIS
100
AcDbCircle
 10
548.5268428883292
 20
28.42687063272916
 30
0.0
 40
3.765
100
AcDbArc
 50
352.1303098396032
 51
172.1303098396032
  0
ARC
  5
725
330
2
100
AcDbEntity
  8
AM_VIS
100
AcDbCircle
 10
548.5268428883292
 20
28.42687063272916
 30
0.0
 40
3.765
100
AcDbArc
 50
172.1303098396032
 51
352.1303098396032
  0
ARC
  5
726
330
2
100
AcDbEntity
  8
AM_VIS
100
AcDbCircle
 10
548.5268428883292
 20
28.42687063272916
 30
0.0
 40
1.25
100
AcDbArc
 50
112.1303098396064
 51
172.1303098396032
  0
ARC
  5
727
330
2
100
AcDbEntity
  8
AM_VIS
100
AcDbCircle
 10
548.5268428883292
 20
28.42687063272916
 30
0.0
 40
1.25
100
AcDbArc
 50
52.13030983960646
 51
112.1303098396064
  0
ARC
  5
728
330
2
100
AcDbEntity
  8
AM_VIS
100
AcDbCircle
 10
548.5268428883292
 20
28.42687063272916
 30
0.0
 40
1.25
100
AcDbArc
 50
352.1303098396
 51
52.13030983960646
  0
LINE
  5
83B
330
2
100
AcDbEntity
  8
3
100
AcDbLine
 10
548.5268428883289
 20
92.88236033272903
 30
0.0
 11
548.5268428883289
 21
-99.63118946727091
 31
0.0
  0
LINE
  5
83C
330
2
100
AcDbEntity
  8
3
100
AcDbLine
 10
457.8086867883289
 20
-1.573129367270837
 30
0.0
 11
640.3876404883288
 21
-1.573129367270837
 31
0.0
  0
TEXT
  5
8FB
330
2
100
AcDbEntity
  8
LOGO
 62
     7
100
AcDbText
 10
493.0191240011532
 20
-136.2035551595884
 30
0.0
 40
4.714825856679817
  1
訂購代號:
  7
chineset
100
AcDbText
  0
TEXT
  5
8FC
330
2
100
AcDbEntity
  8
LOGO
 62
     7
100
AcDbText
 10
492.4552048353453
 20
-140.6285542189585
 30
0.0
 40
3.143217237786544
  1
Order example:
 41
0.8
  7
chineset
100
AcDbText
  0
LINE
  5
916
330
2
100
AcDbEntity
  8
LOGO
 62
     4
100
AcDbLine
 10
491.0894662843471
 20
-153.8752586113884
 30
0.0
 11
491.0894662843471
 21
-130.3011293279888
 31
0.0
  0
TEXT
  5
917
330
2
100
AcDbEntity
  8
LOGO
  6
Continuous
100
AcDbText
 10
447.6943150672274
 20
-149.2441564901277
 30
0.0
 40
3.536119392509892
  1
金器工業股份有限公司
  7
chineset
100
AcDbText
  0
TEXT
  5
918
330
2
100
AcDbEntity
  8
LOGO
  6
Continuous
100
AcDbText
 10
441.1991633299085
 20
-152.7809686847961
 30
0.0
 40
2.357412928339928
  1
MINDMAN INDUSTRIAL CO., LTD.
 41
0.85
  7
chineset
100
AcDbText
  0
LINE
  5
919
330
2
100
AcDbEntity
  8
LOGO
 62
     4
100
AcDbLine
 10
491.0894662843471
 20
-135.0159551846688
 30
0.0
 11
456.514076668694
 21
-135.0159551846688
 31
0.0
  0
LINE
  5
91A
330
2
100
AcDbEntity
  8
LOGO
 62
     4
100
AcDbLine
 10
491.0894662843471
 20
-139.7307810413488
 30
0.0
 11
456.514076668694
 21
-139.7307810413488
 31
0.0
  0
LINE
  5
91B
330
2
100
AcDbEntity
  8
LOGO
 62
     4
100
AcDbLine
 10
491.0894662843471
 20
-144.4456068980285
 30
0.0
 11
439.2263818608681
 21
-144.4456068980285
 31
0.0
  0
LINE
  5
91C
330
2
100
AcDbEntity
  8
LOGO
 62
     4
100
AcDbLine
 10
456.514076668694
 20
-144.4456068980285
 30
0.0
 11
456.514076668694
 21
-130.3011293279888
 31
0.0
  0
TEXT
  5
91D
330
2
100
AcDbEntity
  8
LOGO
100
AcDbText
 10
480.1447235374603
 20
-143.2669004338587
 30
0.0
 40
2.357412928339928
  1
mm
  7
chineset
 72
     1
 11
483.0634252582622
 21
-142.0881939696887
 31
0.0
100
AcDbText
 73
     2
  0
TEXT
  5
91E
330
2
100
AcDbEntity
  8
LOGO
100
AcDbText
 10
478.9098881940442
 20
-133.837248720499
 30
0.0
 40
2.357412928339928
  1
1 : 1
  7
chineset
 72
     1
 11
483.0634252582622
 21
-132.658542256329
 31
0.0
100
AcDbText
 73
     2
  0
LINE
  5
91F
330
2
100
AcDbEntity
  8
LOGO
 62
     4
100
AcDbLine
 10
475.3733800954139
 20
-144.4456068980285
 30
0.0
 11
475.3733800954139
 21
-130.3011293279888
 31
0.0
  0
TEXT
  5
920
330
2
100
AcDbEntity
  8
LOGO
100
AcDbText
 10
458.4578899180892
 20
-133.8360885763413
 30
154.5009597124719
 40
2.357412928339928
  1
比例 Scale:
 41
0.9
  7
chineset
 72
     4
 11
465.9437283820543
 21
-132.658542256329
 31
154.5009597124719
100
AcDbText
  0
TEXT
  5
921
330
2
100
AcDbEntity
  8
LOGO
100
AcDbText
 10
458.3221281914124
 20
-138.518913790006
 30
154.5009597124719
 40
2.357412928339928
  1
投影  View:
 41
0.9
  7
chineset
 72
     4
 11
465.9437283820543
 21
-137.3733681130087
 31
154.5009597124719
100
AcDbText
  0
TEXT
  5
922
330
2
100
AcDbEntity
  8
LOGO
100
AcDbText
 10
458.5526074018171
 20
-143.2669004338587
 30
154.5009597124719
 40
2.357412928339928
  1
單位  Unit:
 41
0.9
  7
chineset
 72
     4
 11
465.9437283820543
 21
-142.0881939696887
 31
154.5009597124719
100
AcDbText
  0
SOLID
  5
923
330
2
100
AcDbEntity
  8
LOGO
 62
     5
100
AcDbTrace
 10
441.6722356076207
 20
-140.5267434559704
 30
0.0
 11
442.6915190993195
 21
-140.526743455971
 31
0.0
 12
446.944391599167
 22
-130.8611241381355
 32
0.0
 13
447.9636750908662
 23
-130.8611241381362
 33
0.0
  0
SOLID
  5
924
330
2
100
AcDbEntity
  8
LOGO
 62
     5
100
AcDbTrace
 10
443.1132915786442
 20
-140.5267434559704
 30
0.0
 11
444.1325750703431
 21
-140.5267434559704
 31
0.0
 12
447.9636750908662
 22
-131.6343736835626
 32
0.0
 13
446.944391599167
 23
-135.3717464864588
 33
0.0
  0
SOLID
  5
925
330
2
100
AcDbEntity
  8
LOGO
 62
     2
100
AcDbTrace
 10
442.6915190993195
 20
-140.526743455971
 30
0.0
 11
443.1132915786442
 21
-140.5267434559704
 31
0.0
 12
447.9636750908662
 22
-130.8611241381362
 32
0.0
 13
448.3854475701905
 23
-130.8611241381362
 33
0.0
  0
SOLID
  5
926
330
2
100
AcDbEntity
  8
LOGO
 62
     5
100
AcDbTrace
 10
440.0380742114967
 20
-144.0415141170013
 30
0.0
 11
440.3895512776003
 21
-144.0415141170013
 31
0.0
 12
441.3793380525349
 22
-142.2841287864859
 32
0.0
 13
441.7308151186378
 23
-142.2841287864859
 33
0.0
  0
SOLID
  5
927
330
2
100
AcDbEntity
  8
LOGO
 62
     5
100
AcDbTrace
 10
441.3793380525349
 20
-142.2841287864859
 30
0.0
 11
441.7308151186378
 21
-142.2841287864859
 31
0.0
 12
441.3793380525349
 22
-144.0415141170013
 32
0.0
 13
441.7308151186378
 23
-144.0415141170013
 33
0.0
  0
SOLID
  5
928
330
2
100
AcDbEntity
  8
LOGO
 62
     5
100
AcDbTrace
 10
441.3793380525349
 20
-144.0415141170013
 30
0.0
 11
441.7308151186378
 21
-144.0415141170013
 31
0.0
 12
442.7206018935741
 22
-142.2841287864859
 32
0.0
 13
443.0720789596769
 23
-142.2841287864859
 33
0.0
  0
SOLID
  5
929
330
2
100
AcDbEntity
  8
LOGO
 62
     5
100
AcDbTrace
 10
442.7206018935741
 20
-142.2841287864859
 30
0.0
 11
443.0720789596769
 21
-142.2841287864859
 31
0.0
 12
442.7206018935741
 22
-144.0415141170013
 32
0.0
 13
443.0720789596769
 23
-144.0415141170013
 33
0.0
  0
POLYLINE
  5
92A
330
2
100
AcDbEntity
  8
LOGO
 62
     5
100
AcDb2dPolyline
 66
     1
 10
0.0
 20
0.0
 30
0.0
 40
0.3520403306320958
 41
0.3520403306320958
  0
VERTEX
  5
92B
330
92A
100
AcDbEntity
  8
LOGO
 62
     5
100
AcDbVertex
100
AcDb2dVertex
 10
454.5019934171773
 20
-142.9870829186923
 30
0.0
 42
1.0
  0
VERTEX
  5
92C
330
92A
100
AcDbEntity
  8
LOGO
 62
     5
100
AcDbVertex
100
AcDb2dVertex
 10
453.4458724252814
 20
-142.9870829186923
 30
0.0
 42
1.0
  0
SEQEND
  5
92D
330
92A
100
AcDbEntity
  8
LOGO
 62
     5
  0
POLYLINE
  5
92E
330
2
100
AcDbEntity
  8
LOGO
 62
     5
100
AcDb2dPolyline
 66
     1
 10
0.0
 20
0.0
 30
0.0
 70
     1
  0
VERTEX
  5
92F
330
92E
100
AcDbEntity
  8
LOGO
 62
     5
100
AcDbVertex
100
AcDb2dVertex
 10
451.4550373792945
 20
-143.1628214517437
 30
0.0
 42
1.000000057330635
  0
VERTEX
  5
930
330
92E
100
AcDbEntity
  8
LOGO
 62
     5
100
AcDbVertex
100
AcDb2dVertex
 10
452.5094685776032
 20
-143.1628214517437
 30
0.0
 42
1.000000057330635
  0
SEQEND
  5
931
330
92E
100
AcDbEntity
  8
LOGO
 62
     5
  0
CIRCLE
  5
932
330
2
100
AcDbEntity
  8
LOGO
 62
     5
100
AcDbCircle
 10
451.9822529784495
 20
-143.1628214517437
 30
0.0
 40
0.5272155991546268
  0
POLYLINE
  5
933
330
2
100
AcDbEntity
  8
LOGO
 62
     5
100
AcDb2dPolyline
 66
     1
 10
0.0
 20
0.0
 30
0.0
 70
     1
 40
0.3520403306320958
 41
0.3520403306320958
  0
VERTEX
  5
934
330
933
100
AcDbEntity
  8
LOGO
 62
     5
100
AcDbVertex
100
AcDb2dVertex
 10
451.278172317185
 20
-143.1628214517437
 30
0.0
 42
1.0
  0
VERTEX
  5
935
330
933
100
AcDbEntity
  8
LOGO
 62
     5
100
AcDbVertex
100
AcDb2dVertex
 10
452.6863336397134
 20
-143.1628214517437
 30
0.0
 42
1.0
  0
SEQEND
  5
936
330
933
100
AcDbEntity
  8
LOGO
 62
     5
  0
LINE
  5
937
330
2
100
AcDbEntity
  8
LOGO
100
AcDbLine
 10
454.6768870534346
 20
-144.0415141170013
 30
0.0
 11
454.6768870534346
 21
-142.9870829186923
 31
0.0
  0
SOLID
  5
938
330
2
100
AcDbEntity
  8
LOGO
 62
     5
100
AcDbTrace
 10
452.5094334298982
 20
-142.2841287864859
 30
0.0
 11
452.8609104960008
 21
-142.2841287864859
 31
0.0
 12
452.5094334298982
 22
-144.0415141170013
 32
0.0
 13
452.8609104960008
 23
-144.0415141170013
 33
0.0
  0
SOLID
  5
939
330
2
100
AcDbEntity
  8
LOGO
 62
     5
100
AcDbTrace
 10
453.2709787890227
 20
-144.0415141170013
 30
0.0
 11
453.6224558551258
 21
-144.0415141170013
 31
0.0
 12
453.2709787890227
 22
-142.2841287864859
 32
0.0
 13
453.6224558551258
 23
-142.2841287864859
 33
0.0
  0
SOLID
  5
93A
330
2
100
AcDbEntity
  8
LOGO
 62
     5
100
AcDbTrace
 10
454.3254099873324
 20
-142.9870829186923
 30
0.0
 11
454.6768870534346
 21
-142.9870829186923
 31
0.0
 12
454.3254099873324
 22
-144.0415141170013
 32
0.0
 13
454.6768870534346
 23
-144.0415141170013
 33
0.0
  0
SOLID
  5
93B
330
2
100
AcDbEntity
  8
LOGO
 62
     5
100
AcDbTrace
 10
453.2358310824122
 20
-131.6343736835626
 30
0.0
 11
452.2165475907137
 21
-135.3717464864588
 31
0.0
 12
453.2358310824122
 22
-140.526743455971
 32
0.0
 13
452.2165475907137
 23
-140.526743455971
 33
0.0
  0
SOLID
  5
93C
330
2
100
AcDbEntity
  8
LOGO
 62
     5
100
AcDbTrace
 10
453.6576035617361
 20
-140.526743455971
 30
0.0
 11
454.6768870534346
 21
-140.526743455971
 31
0.0
 12
453.6576035617361
 22
-130.8611241381362
 32
0.0
 13
454.6768870534346
 23
-130.8611241381355
 33
0.0
  0
SOLID
  5
93D
330
2
100
AcDbEntity
  8
LOGO
 62
     2
100
AcDbTrace
 10
453.2358310824122
 20
-130.8611241381355
 30
0.0
 11
453.6576035617361
 21
-130.8611241381362
 31
0.0
 12
453.2358310824122
 22
-140.526743455971
 32
0.0
 13
453.6576035617361
 23
-140.526743455971
 33
0.0
  0
POLYLINE
  5
93E
330
2
100
AcDbEntity
  8
LOGO
 62
     5
100
AcDb2dPolyline
 66
     1
 10
0.0
 20
0.0
 30
0.0
 40
0.3520403306320958
 41
0.3520403306320958
  0
VERTEX
  5
93F
330
93E
100
AcDbEntity
  8
LOGO
 62
     5
100
AcDbVertex
100
AcDb2dVertex
 10
449.4641320378959
 20
-142.9870829186923
 30
0.0
 42
1.0
  0
VERTEX
  5
940
330
93E
100
AcDbEntity
  8
LOGO
 62
     5
100
AcDbVertex
100
AcDb2dVertex
 10
448.4080110459989
 20
-142.9870829186923
 30
0.0
 42
1.0
  0
SEQEND
  5
941
330
93E
100
AcDbEntity
  8
LOGO
 62
     5
  0
POLYLINE
  5
942
330
2
100
AcDbEntity
  8
LOGO
 62
     5
100
AcDb2dPolyline
 66
     1
 10
0.0
 20
0.0
 30
0.0
 40
0.3520403306320958
 41
0.3520403306320958
  0
VERTEX
  5
943
330
942
100
AcDbEntity
  8
LOGO
 62
     5
100
AcDbVertex
100
AcDb2dVertex
 10
450.5185632362047
 20
-142.9870829186923
 30
0.0
 42
1.0
  0
VERTEX
  5
944
330
942
100
AcDbEntity
  8
LOGO
 62
     5
100
AcDbVertex
100
AcDb2dVertex
 10
449.4624422443082
 20
-142.9870829186923
 30
0.0
 42
1.0
  0
SEQEND
  5
945
330
942
100
AcDbEntity
  8
LOGO
 62
     5
  0
POLYLINE
  5
946
330
2
100
AcDbEntity
  8
LOGO
 62
     5
100
AcDb2dPolyline
 66
     1
 10
0.0
 20
0.0
 30
0.0
 40
0.3520403306320958
 41
0.3520403306320958
  0
VERTEX
  5
947
330
946
100
AcDbEntity
  8
LOGO
 62
     5
100
AcDbVertex
100
AcDb2dVertex
 10
445.480701856922
 20
-142.9870829186923
 30
0.0
 42
1.0
  0
VERTEX
  5
948
330
946
100
AcDbEntity
  8
LOGO
 62
     5
100
AcDbVertex
100
AcDb2dVertex
 10
444.4245808650258
 20
-142.9870829186923
 30
0.0
 42
1.0
  0
SEQEND
  5
949
330
946
100
AcDbEntity
  8
LOGO
 62
     5
  0
SOLID
  5
94A
330
2
100
AcDbEntity
  8
LOGO
 62
     5
100
AcDbTrace
 10
444.2496872287679
 20
-142.2841287864859
 30
0.0
 11
444.6011642948705
 21
-142.2841287864859
 31
0.0
 12
444.2496872287679
 22
-144.0415141170013
 32
0.0
 13
444.6011642948705
 23
-144.0415141170013
 33
0.0
  0
SOLID
  5
94B
330
2
100
AcDbEntity
  8
LOGO
 62
     5
100
AcDbTrace
 10
445.3041184270777
 20
-142.9870829186923
 30
0.0
 11
445.6555954931814
 21
-142.9870829186923
 31
0.0
 12
445.3041184270777
 22
-144.0415141170013
 32
0.0
 13
445.6555954931814
 23
-144.0415141170013
 33
0.0
  0
POLYLINE
  5
94C
330
2
100
AcDbEntity
  8
LOGO
 62
     5
100
AcDb2dPolyline
 66
     1
 10
0.0
 20
0.0
 30
0.0
 70
     1
 40
0.3520403306320958
 41
0.3520403306320958
  0
VERTEX
  5
94D
330
94C
100
AcDbEntity
  8
LOGO
 62
     5
100
AcDbVertex
100
AcDb2dVertex
 10
446.2403109379027
 20
-143.1628214517437
 30
0.0
 42
1.0
  0
VERTEX
  5
94E
330
94C
100
AcDbEntity
  8
LOGO
 62
     5
100
AcDbVertex
100
AcDb2dVertex
 10
447.6484722604311
 20
-143.1628214517437
 30
0.0
 42
1.0
  0
SEQEND
  5
94F
330
94C
100
AcDbEntity
  8
LOGO
 62
     5
  0
SOLID
  5
950
330
2
100
AcDbEntity
  8
LOGO
 62
     5
100
AcDbTrace
 10
447.4715720506156
 20
-141.7569131873311
 30
0.0
 11
447.8230491167188
 21
-141.7569131873311
 31
0.0
 12
447.4715720506156
 22
-144.0415141170013
 32
0.0
 13
447.8230491167188
 23
-144.0415141170013
 33
0.0
  0
SOLID
  5
951
330
2
100
AcDbEntity
  8
LOGO
 62
     5
100
AcDbTrace
 10
448.2331174097419
 20
-142.2841287864859
 30
0.0
 11
448.5845944758446
 21
-142.2841287864859
 31
0.0
 12
448.2331174097419
 22
-144.0415141170013
 32
0.0
 13
448.5845944758446
 23
-144.0415141170013
 33
0.0
  0
SOLID
  5
952
330
2
100
AcDbEntity
  8
LOGO
 62
     5
100
AcDbTrace
 10
449.2875486080502
 20
-142.9870829186923
 30
0.0
 11
449.6390256741534
 21
-142.9870829186923
 31
0.0
 12
449.2875486080502
 22
-144.0415141170013
 32
0.0
 13
449.6390256741534
 23
-144.0415141170013
 33
0.0
  0
SOLID
  5
953
330
2
100
AcDbEntity
  8
LOGO
 62
     5
100
AcDbTrace
 10
450.341979806359
 20
-142.9870829186923
 30
0.0
 11
450.6934568724627
 21
-142.9870829186923
 31
0.0
 12
450.341979806359
 22
-144.0415141170016
 32
0.0
 13
450.6934568724627
 23
-144.0415141170016
 33
0.0
  0
SOLID
  5
954
330
2
100
AcDbEntity
  8
LOGO
 62
     5
100
AcDbTrace
 10
443.4881418696421
 20
-142.0380948402138
 30
0.0
 11
443.8396189357469
 21
-142.0380948402138
 31
0.0
 12
443.4881418696421
 22
-141.7569131873311
 32
0.0
 13
443.8396189357469
 23
-141.7569131873311
 33
0.0
  0
SOLID
  5
955
330
2
100
AcDbEntity
  8
LOGO
 62
     5
100
AcDbTrace
 10
443.4881418696421
 20
-142.2841287864859
 30
0.0
 11
443.8396189357469
 21
-142.2841287864859
 31
0.0
 12
443.4881418696421
 22
-144.0415141170016
 32
0.0
 13
443.8396189357469
 23
-144.0415141170013
 33
0.0
  0
SOLID
  5
956
330
2
100
AcDbEntity
  8
LOGO
 62
     5
100
AcDbTrace
 10
446.944391599167
 20
-140.5267434559704
 30
0.0
 11
447.9636750908662
 21
-140.5267434559704
 31
0.0
 12
446.944391599167
 22
-135.3717464864588
 32
0.0
 13
447.9636750908662
 23
-131.6343736835626
 33
0.0
  0
SOLID
  5
957
330
2
100
AcDbEntity
  8
LOGO
 62
     5
100
AcDbTrace
 10
448.3854475701905
 20
-130.8611241381362
 30
0.0
 11
449.4047310618894
 21
-130.8611241381355
 31
0.0
 12
448.3854475701905
 22
-139.7534939105442
 32
0.0
 13
449.4047310618894
 23
-136.0161211076478
 33
0.0
  0
SOLID
  5
958
330
2
100
AcDbEntity
  8
LOGO
 62
     2
100
AcDbTrace
 10
447.9636750908662
 20
-130.8611241381362
 30
0.0
 11
448.3854475701905
 21
-130.8611241381362
 31
0.0
 12
447.9636750908662
 22
-140.5267434559704
 32
0.0
 13
448.3854475701905
 23
-140.5267434559704
 33
0.0
  0
SOLID
  5
959
330
2
100
AcDbEntity
  8
LOGO
 62
     5
100
AcDbTrace
 10
448.3854475701905
 20
-139.7534939105442
 30
0.0
 11
449.4047310618894
 21
-136.0161211076478
 31
0.0
 12
453.2358310824122
 22
-130.8611241381355
 32
0.0
 13
452.2165475907137
 23
-130.8611241381355
 33
0.0
  0
SOLID
  5
95A
330
2
100
AcDbEntity
  8
LOGO
 62
     5
100
AcDbTrace
 10
448.3854475701905
 20
-140.5267434559704
 30
0.0
 11
449.4047310618894
 21
-140.5267434559704
 31
0.0
 12
453.2358310824122
 22
-131.6343736835626
 32
0.0
 13
452.2165475907137
 23
-135.3717464864588
 33
0.0
  0
SOLID
  5
95B
330
2
100
AcDbEntity
  8
LOGO
 62
     2
100
AcDbTrace
 10
447.9636750908662
 20
-140.5267434559704
 30
0.0
 11
448.3854475701905
 21
-140.5267434559704
 31
0.0
 12
453.2358310824122
 22
-130.8611241381355
 32
0.0
 13
453.6576035617361
 23
-130.8611241381362
 33
0.0
  0
LWPOLYLINE
  5
95C
330
2
100
AcDbEntity
  8
LOGO
 62
     4
100
AcDbPolyline
 90
        4
 70
     1
 43
0.0
 10
439.226381860869
 20
-130.3011293279892
 10
839.5126093327666
 20
-130.3011293279892
 10
839.5126093327666
 20
-153.8752586113886
 10
439.226381860869
 20
-153.8752586113886
1001
GENIUS_GENREC_14
1002
{
1000
PYDIR
1011
439.226381860869
1021
-153.8752586113886
1031
0.0
1002
}
1002
{
1000
PXDIR
1011
839.5126093327666
1021
-130.3011293279892
1031
0.0
1002
}
1002
{
1000
PORI
1011
439.226381860869
1021
-130.3011293279892
1031
0.0
1002
}
1002
{
1000
PINS
1011
439.226381860869
1021
-130.3011293279892
1031
0.0
1002
}
1002
{
1000
PINS2
1011
839.5126093327666
1021
-153.8752586113886
1031
0.0
1002
}
1002
{
1000
C
1070
     1
1002
}
1001
GENIUS_GENOBJ-N-REC_13
1002
{
1000
OWNER
1000
GEN
1002
}
1001
GENIUS_GENODEF_13
1002
{
1000
HIER
1070
     0
1002
}
1002
{
1000
MANEDIT
1070
     0
1002
}
1002
{
1000
NOSEL
1070
     0
1002
}
1002
{
1000
BEHIND
1070
     0
1002
}
1002
{
1000
OTHER
1070
     0
1002
}
1002
{
1000
REACTOR
1002
}
  0
TEXT
  5
95D
330
2
100
AcDbEntity
  8
LOGO
100
AcDbText
 10
492.0245543104946
 20
-152.6211242380712
 30
0.0
 40
2.357754322630987
  1
0130308B
 41
0.7
  7
chineset
 72
     1
 11
497.9189401170721
 21
-152.6211242380712
 31
0.0
100
AcDbText
  0
LINE
  5
95E
330
2
100
AcDbEntity
  8
LOGO
 62
     4
100
AcDbLine
 10
505.2359922201315
 20
-149.160432754708
 30
0.0
 11
505.2359922201331
 21
-153.8752586113882
 31
0.0
  0
LINE
  5
95F
330
2
100
AcDbEntity
  8
LOGO
 62
     4
100
AcDbLine
 10
505.2359922201315
 20
-149.160432754708
 30
0.0
 11
491.0894662843471
 21
-149.160432754708
 31
0.0
  0
CIRCLE
  5
960
330
2
100
AcDbEntity
  8
LOGO
  6
Continuous
100
AcDbCircle
 10
479.7384249927836
 20
-137.3683255895041
 30
0.0
 40
1.368769433439616
  0
CIRCLE
  5
961
330
2
100
AcDbEntity
  8
LOGO
  6
Continuous
100
AcDbCircle
 10
479.7384249927836
 20
-137.3683255895041
 30
0.0
 40
0.8019777176933247
  0
LINE
  5
962
330
2
100
AcDbEntity
  8
LOGO
100
AcDbLine
 10
488.3399309378063
 20
-138.7370950229438
 30
0.0
 11
488.3399309378063
 21
-135.9995561560642
 31
0.0
  0
LINE
  5
963
330
2
100
AcDbEntity
  8
LOGO
100
AcDbLine
 10
484.0489173350873
 20
-138.1703033071973
 30
0.0
 11
484.0489173350873
 21
-136.5663478718105
 31
0.0
  0
LINE
  5
964
330
2
100
AcDbEntity
  8
LOGO
  6
Continuous
100
AcDbLine
 10
484.0489173350873
 20
-136.5663478718105
 30
0.0
 11
488.3399309378063
 21
-135.9995561560642
 31
0.0
  0
LINE
  5
965
330
2
100
AcDbEntity
  8
LOGO
  6
Continuous
100
AcDbLine
 10
484.0489173350873
 20
-138.1703033071973
 30
0.0
 11
488.3399309378063
 21
-138.7370950229438
 31
0.0
  0
LINE
  5
966
330
2
100
AcDbEntity
  8
LOGO
  6
AM_ISO08W050x2
 48
0.3
100
AcDbLine
 10
477.8515558330781
 20
-137.3683255895041
 30
0.0
 11
481.6252941524878
 21
-137.3683255895041
 31
0.0
1001
GENIUS_GENOREF_13
1005
96C
  0
LINE
  5
967
330
2
100
AcDbEntity
  8
LOGO
  6
AM_ISO08W050x2
 48
0.3
100
AcDbLine
 10
479.7384249927836
 20
-139.2551947492086
 30
0.0
 11
479.7384249927836
 21
-135.481456429799
 31
0.0
1001
GENIUS_GENOREF_13
1005
96B
  0
LINE
  5
968
330
2
100
AcDbEntity
  8
LOGO
  6
CENTER
 48
0.5
100
AcDbLine
 10
483.7057555150351
 20
-137.3683255895041
 30
0.0
 11
488.7720221168723
 21
-137.3683255895041
 31
0.0
1001
GENIUS_GENOREF_13
1005
96A
  0
LWPOLYLINE
  5
969
330
2
100
AcDbEntity
  8
LOGO
 62
     4
100
AcDbPolyline
 90
        4
 70
     1
 43
0.0
 10
439.226381860869
 20
131.3336665950917
 10
839.5126093327666
 20
131.3336665950917
 10
839.5126093327666
 20
-130.3011293279892
 10
439.226381860869
 20
-130.3011293279892
  0
POINT
  5
96A
330
2
100
AcDbEntity
  8
0
 60
     1
100
AcDbPoint
 10
2451.108849283049
 20
-757.9063032409765
 30
0.0
1001
GENIUS_GENOBJ-N-CRS_13
1002
{
1000
OWNER
1000
GEN
1002
}
1001
GENIUS_GENOLIS_13
1002
{
1000
ENT
1005
0
1005
0
1005
0
1005
968
1002
}
1001
GENIUS_GENOENT_13
1002
{
1000
MYREF
1005
96A
1002
}
1002
{
1000
GRP
1005
0
1002
}
1001
GENIUS_GENODEF_13
1002
{
1000
HIER
1070
    10
1002
}
1002
{
1000
MANEDIT
1070
     1
1002
}
1002
{
1000
NOSEL
1070
     0
1002
}
1002
{
1000
BEHIND
1070
     0
1002
}
1002
{
1000
OTHER
1070
     0
1002
}
1002
{
1000
REACTOR
1002
}
  0
POINT
  5
96B
330
2
100
AcDbEntity
  8
0
 60
     1
100
AcDbPoint
 10
2439.784264060194
 20
-749.0307167623402
 30
0.0
1001
GENIUS_GENOBJ-N-CRS_13
1002
{
1000
OWNER
1000
GEN
1002
}
1001
GENIUS_GENOLIS_13
1002
{
1000
ENT
1005
0
1005
0
1005
0
1005
967
1002
}
1001
GENIUS_GENOENT_13
1002
{
1000
MYREF
1005
96B
1002
}
1002
{
1000
GRP
1005
0
1002
}
1001
GENIUS_GENODEF_13
1002
{
1000
HIER
1070
    10
1002
}
1002
{
1000
MANEDIT
1070
     1
1002
}
1002
{
1000
NOSEL
1070
     0
1002
}
1002
{
1000
BEHIND
1070
     0
1002
}
1002
{
1000
OTHER
1070
     0
1002
}
1002
{
1000
REACTOR
1002
}
  0
POINT
  5
96C
330
2
100
AcDbEntity
  8
0
 60
     1
100
AcDbPoint
 10
2446.142937758031
 20
-757.9063032409765
 30
0.0
1001
GENIUS_GENOBJ-N-CRS_13
1002
{
1000
OWNER
1000
GEN
1002
}
1001
GENIUS_GENOLIS_13
1002
{
1000
ENT
1005
0
1005
0
1005
0
1005
966
1002
}
1001
GENIUS_GENOENT_13
1002
{
1000
MYREF
1005
96C
1002
}
1002
{
1000
GRP
1005
0
1002
}
1001
GENIUS_GENODEF_13
1002
{
1000
HIER
1070
    10
1002
}
1002
{
1000
MANEDIT
1070
     1
1002
}
1002
{
1000
NOSEL
1070
     0
1002
}
1002
{
1000
BEHIND
1070
     0
1002
}
1002
{
1000
OTHER
1070
     0
1002
}
1002
{
1000
REACTOR
1002
}
  0
ARC
  5
AF6
330
2
100
AcDbEntity
  8
0
  6
Continuous
 62
     7
370
    15
100
AcDbCircle
 10
794.0197156336979
 20
77.42687369013236
 30
0.0
 40
1.0
100
AcDbArc
 50
359.9999999999992
 51
90.0
  0
SPLINE
  5
AF7
330
2
100
AcDbEntity
  8
0
  6
Continuous
 62
     7
370
    15
100
AcDbSpline
210
0.0
220
0.0
230
1.0
 70
    24
 71
     1
 72
     4
 73
     2
 74
     0
 42
0.0000000001
 43
0.0000000001
 40
0.0
 40
0.0
 40
1.0
 40
1.0
 10
794.0197124150357
 20
78.42687063272918
 30
0.0
 10
700.0197156336977
 20
78.42687063272918
 30
0.0
  0
ARC
  5
AF9
330
2
100
AcDbEntity
  8
0
  6
Continuous
 62
     7
370
    15
100
AcDbCircle
 10
794.0197156336979
 20
-80.57312630986762
 30
0.0
 40
1.0
100
AcDbArc
 50
270.0
 51
0.0000000000008142
  0
SPLINE
  5
AFA
330
2
100
AcDbEntity
  8
0
  6
Continuous
 62
     7
370
    15
100
AcDbSpline
210
0.0
220
0.0
230
1.0
 70
    24
 71
     1
 72
     4
 73
     2
 74
     0
 42
0.0000000001
 43
0.0000000001
 40
0.0
 40
0.0
 40
1.0
 40
1.0
 10
700.019715633698
 20
-81.57312579099214
 30
0.0
 10
794.0197124150357
 20
-81.57312579099215
 30
0.0
  0
SPLINE
  5
AFB
330
2
100
AcDbEntity
  8
0
  6
Continuous
 62
     7
370
    15
100
AcDbSpline
210
0.0
220
0.0
230
1.0
 70
    24
 71
     1
 72
     4
 73
     2
 74
     0
 42
0.0000000001
 43
0.0000000001
 40
0.0
 40
0.0
 40
1.0
 40
1.0
 10
700.0197156336979
 20
35.92687391098464
 30
0.0
 10
698.0197155386917
 20
35.92687391098464
 30
0.0
  0
SPLINE
  5
B01
330
2
100
AcDbEntity
  8
0
  6
Continuous
 62
     7
370
    15
100
AcDbSpline
210
0.0
220
0.0
230
1.0
 70
    24
 71
     3
 72
    14
 73
    10
 74
     0
 42
0.0000000001
 43
0.0000000001
 40
0.0
 40
0.0
 40
0.0
 40
0.0
 40
0.25
 40
0.25
 40
0.5000000000000001
 40
0.5000000000000001
 40
0.7500000000000002
 40
0.7500000000000002
 40
1.0
 40
1.0
 40
1.0
 40
1.0
 10
795.0197156336979
 20
-80.57312630986762
 30
0.0
 10
795.0197156336975
 20
-50.54486465461765
 30
0.0
 10
795.0197156336973
 20
-36.52472802180002
 30
0.0
 10
795.0197156336973
 20
-5.337396617198763
 30
0.0
 10
795.0197156336973
 20
11.08893376489929
 30
0.0
 10
795.0197156336975
 20
41.21116317832075
 30
0.0
 10
795.0197156336975
 20
54.191499636469
 30
0.0
 10
795.0197156336977
 20
72.51701899026752
 30
0.0
 10
795.0197156336978
 20
77.42687369013232
 30
0.0
 10
795.0197156336979
 20
77.42687369013238
 30
0.0
  0
SPLINE
  5
B04
330
2
100
AcDbEntity
  8
0
  6
Continuous
 62
     7
370
    15
100
AcDbSpline
210
0.0
220
0.0
230
1.0
 70
    11
 71
     3
 72
    88
 73
    84
 74
     0
 42
0.0000000001
 43
0.0000000001
 40
0.0
 40
0.0
 40
0.0
 40
0.0
 40
0.0312500000000009
 40
0.0312500000000009
 40
0.0468750000000014
 40
0.0468750000000014
 40
0.0625000000000019
 40
0.0625000000000019
 40
0.093750000000002
 40
0.093750000000002
 40
0.125000000000002
 40
0.125000000000002
 40
0.1562500000000021
 40
0.1562500000000021
 40
0.171875000000002
 40
0.171875000000002
 40
0.1875000000000019
 40
0.2031250000000018
 40
0.2031250000000018
 40
0.2187500000000017
 40
0.2187500000000017
 40
0.2500000000000018
 40
0.2500000000000018
 40
0.281250000000002
 40
0.281250000000002
 40
0.3125000000000021
 40
0.3125000000000021
 40
0.3281250000000021
 40
0.3281250000000021
 40
0.343750000000002
 40
0.343750000000002
 40
0.3750000000000022
 40
0.3750000000000022
 40
0.4062500000000024
 40
0.4062500000000024
 40
0.4218750000000025
 40
0.4218750000000025
 40
0.4375000000000026
 40
0.4375000000000026
 40
0.4687500000000028
 40
0.4687500000000028
 40
0.5000000000000028
 40
0.5000000000000028
 40
0.5312500000000028
 40
0.5312500000000028
 40
0.5468750000000028
 40
0.5468750000000028
 40
0.5625000000000028
 40
0.5625000000000028
 40
0.5937500000000028
 40
0.5937500000000028
 40
0.6250000000000028
 40
0.6250000000000028
 40
0.6562500000000029
 40
0.6562500000000029
 40
0.6718750000000031
 40
0.6718750000000031
 40
0.6875000000000031
 40
0.7031250000000031
 40
0.7031250000000031
 40
0.7187500000000031
 40
0.7187500000000031
 40
0.7500000000000029
 40
0.7500000000000029
 40
0.7812500000000028
 40
0.7812500000000028
 40
0.8125000000000026
 40
0.8125000000000026
 40
0.8281250000000026
 40
0.8281250000000026
 40
0.8437500000000026
 40
0.8437500000000026
 40
0.8750000000000021
 40
0.8750000000000021
 40
0.9062500000000015
 40
0.9062500000000015
 40
0.9218750000000015
 40
0.9218750000000015
 40
0.9375000000000015
 40
0.9375000000000015
 40
0.9687500000000008
 40
0.9687500000000008
 40
1.0
 40
1.0
 40
1.0
 40
1.0
 10
779.5197156336978
 20
77.30174988138999
 30
0.0
 10
780.0154429108156
 20
77.30174988138999
 30
0.0
 10
780.5028323805013
 20
77.2936218815402
 30
0.0
 10
781.2219339962102
 20
77.26937053201736
 30
0.0
 10
781.459622661599
 20
77.25925489891203
 30
0.0
 10
781.9308877284401
 20
77.23471372983552
 30
0.0
 10
782.165047984183
 20
77.22021955722361
 30
0.0
 10
782.8460890051611
 20
77.17084964288268
 30
0.0
 10
783.2767272427318
 20
77.12995647016906
 30
0.0
 10
784.0917339700169
 20
77.03022782395617
 30
0.0
 10
784.4774167654211
 20
76.97082897764225
 30
0.0
 10
785.1688263423262
 20
76.83624303924758
 30
0.0
 10
785.4791872950267
 20
76.76064071756686
 30
0.0
 10
785.8904162207387
 20
76.63254272300754
 30
0.0
 10
786.0180213071697
 20
76.58741301278654
 30
0.0
 10
786.2493722734108
 20
76.49391495059835
 30
0.0
 10
786.4584403622005
 20
76.39671547166161
 30
0.0
 10
786.6235745831184
 20
76.29172958336143
 30
0.0
 10
786.7664181892808
 20
76.18258916379732
 30
0.0
 10
786.8269326071476
 20
76.12561884671023
 30
0.0
 10
786.9715949289493
 20
75.95054111986555
 30
0.0
 10
787.0193693619641
 20
75.82893025694623
 30
0.0
 10
787.0200581903646
 20
75.57568136718926
 30
0.0
 10
786.971413156075
 20
75.44257486102778
 30
0.0
 10
786.7801816561657
 20
75.1765913649162
 30
0.0
 10
786.638653034519
 20
75.04311484060038
 30
0.0
 10
786.3570637158302
 20
74.84321690381951
 30
0.0
 10
786.2508894956886
 20
74.77629818634262
 30
0.0
 10
786.0189027249385
 20
74.6453600401151
 30
0.0
 10
785.8929870974621
 20
74.58117165919948
 30
0.0
 10
785.4861580465064
 20
74.39277052256726
 30
0.0
 10
785.1764500359289
 20
74.27266227517138
 30
0.0
 10
784.4768336591125
 20
74.04641295334695
 30
0.0
 10
784.0982357128244
 20
73.94397165520557
 30
0.0
 10
783.4895259605761
 20
73.80772456176599
 30
0.0
 10
783.2797319269368
 20
73.76521627170395
 30
0.0
 10
782.8460355909272
 20
73.6864326026188
 30
0.0
 10
782.6213151603927
 20
73.65008361637395
 30
0.0
 10
781.9402089245465
 20
73.55320359972298
 30
0.0
 10
781.4728156275963
 20
73.50387783155873
 30
0.0
 10
780.5115859210151
 20
73.43690186298845
 30
0.0
 10
780.0154215428123
 20
73.41946373571461
 30
0.0
 10
779.0239691392041
 20
73.4194646740092
 30
0.0
 10
778.5365807052486
 20
73.43652797701337
 30
0.0
 10
777.8174806050202
 20
73.48628444970173
 30
0.0
 10
777.5797924382886
 20
73.50691990300088
 30
0.0
 10
777.1085283580663
 20
73.55631962623217
 30
0.0
 10
776.874368715075
 20
73.58521470546826
 30
0.0
 10
776.1933295807202
 20
73.68200127858663
 30
0.0
 10
775.7626925054386
 20
73.76033969989588
 30
0.0
 10
774.9476879650861
 20
73.94228014897724
 30
0.0
 10
774.5620063495922
 20
74.04673814219835
 30
0.0
 10
773.8705989259796
 20
74.27006615850699
 30
0.0
 10
773.5602389221538
 20
74.38978218266361
 30
0.0
 10
773.1490112591261
 20
74.57986672545494
 30
0.0
 10
773.0214066129398
 20
74.64491194782529
 30
0.0
 10
772.7900564222882
 20
74.7753962662021
 30
0.0
 10
772.5809890278179
 20
74.90697280604873
 30
0.0
 10
772.4158553517516
 20
75.04022344532346
 30
0.0
 10
772.2730122179008
 20
75.17412333509004
 30
0.0
 10
772.212498000705
 20
75.24176344870541
 30
0.0
 10
772.0678361770969
 20
75.44254007523033
 30
0.0
 10
772.0200619048451
 20
75.57288683200984
 30
0.0
 10
772.0193730776172
 20
75.8262600440376
 30
0.0
 10
772.0680179432836
 20
75.95047465594728
 30
0.0
 10
772.2592488007474
 20
76.18248258377163
 30
0.0
 10
772.4007769501454
 20
76.29106529483907
 30
0.0
 10
772.6823653111924
 20
76.44380152252534
 30
0.0
 10
772.7885391715688
 20
76.49325621962571
 30
0.0
 10
773.020525207313
 20
76.58709950107333
 30
0.0
 10
773.1464404367279
 20
76.63163552010262
 30
0.0
 10
773.5532681970495
 20
76.75867355102067
 30
0.0
 10
773.8629752209973
 20
76.83465164896403
 30
0.0
 10
774.5625892992595
 20
76.9710460335612
 30
0.0
 10
774.9411863356523
 20
77.02926961915425
 30
0.0
 10
775.5498943427195
 20
77.1039942424711
 30
0.0
 10
775.7596877701679
 20
77.12678768938336
 30
0.0
 10
776.1933828357357
 20
77.16833664552028
 30
0.0
 10
776.4181026912599
 20
77.18712680463979
 30
0.0
 10
777.0992073524363
 20
77.23654949917302
 30
0.0
 10
777.5665995634682
 20
77.26079049090454
 30
0.0
 10
778.5278269930478
 20
77.29344225377626
 30
0.0
 10
779.02398835658
 20
77.30174988138999
 30
0.0
 10
779.5197156336978
 20
77.30174988138999
 30
0.0
  0
LINE
  5
B0A
330
2
100
AcDbEntity
  8
0
  6
Continuous
 62
     7
370
    15
100
AcDbLine
 10
727.0197163340405
 20
38.03065589062395
 30
0.0
 11
700.0197156336977
 21
38.03065589062395
 31
0.0
  0
LINE
  5
B12
330
2
100
AcDbEntity
  8
0
  6
Continuous
 62
     7
370
    15
100
AcDbLine
 10
700.0197156336977
 20
55.52436904706967
 30
0.0
 11
727.0197163340407
 21
55.52436904706967
 31
0.0
  0
SPLINE
  5
B27
330
2
100
AcDbEntity
  8
0
  6
Continuous
 62
     7
370
    15
100
AcDbSpline
210
0.0
220
0.0
230
1.0
 70
    24
 71
     3
 72
     8
 73
     4
 74
     0
 42
0.0000000001
 43
0.0000000001
 40
0.0
 40
0.0
 40
0.0
 40
0.0
 40
1.0
 40
1.0
 40
1.0
 40
1.0
 10
700.0197156336977
 20
78.42687063272918
 30
0.0
 10
700.0197156336977
 20
74.82042574329726
 30
0.0
 10
700.0197156336976
 20
63.81251678381549
 30
0.0
 10
700.0197156336978
 20
-81.57312579099214
 30
0.0
  0
LWPOLYLINE
  5
B43
330
2
100
AcDbEntity
  8
0
  6
Continuous
 62
     7
370
    15
100
AcDbPolyline
 90
       20
 70
   128
 43
0.0
 10
786.7879404690823
 20
75.21385990437001
 10
786.7516188886723
 20
75.24938427265614
 10
786.3634957936367
 20
75.52907161768406
 10
785.8149542477688
 20
75.79015486296147
 10
785.1188614037594
 20
76.02650963123768
 10
784.2915340331158
 20
76.232585239968
 10
783.3523585465512
 20
76.40356116350621
 10
782.3233439591488
 20
76.53542898949114
 10
781.2286152508816
 20
76.62509672697511
 10
780.0938322213253
 20
76.67046331222978
 10
778.945593443211
 20
76.67046331222978
 10
777.8108178642353
 20
76.62509672697511
 10
776.7160891559681
 20
76.53542898949114
 10
775.6870745685658
 20
76.40356116350621
 10
774.7478990820011
 20
76.232585239968
 10
773.9205642607769
 20
76.02650963123768
 10
773.2244714167675
 20
75.79015486296147
 10
772.6759373214802
 20
75.52907161768406
 10
772.2878142264447
 20
75.24938427265614
 10
772.2223161724171
 20
75.18314861114949
  0
LINE
  5
B5D
330
2
100
AcDbEntity
  8
0
  6
Continuous
 62
     7
370
    15
100
AcDbLine
 10
700.0197156336975
 20
29.45700439315793
 30
0.0
 11
726.0197161701277
 21
29.45700439315793
 31
0.0
  0
LINE
  5
B61
330
2
100
AcDbEntity
  8
0
  6
Continuous
 62
     7
370
    15
100
AcDbLine
 10
726.0197161701277
 20
29.45700054455476
 30
0.0
 11
727.0197163340405
 21
30.3230262308188
 31
0.0
  0
LINE
  5
B66
330
2
100
AcDbEntity
  8
0
  6
Continuous
 62
     7
370
    15
100
AcDbLine
 10
726.0197161701279
 20
64.09802054453563
 30
0.0
 11
700.0197156336976
 21
64.09802054453563
 31
0.0
  0
LINE
  5
B67
330
2
100
AcDbEntity
  8
0
  6
Continuous
 62
     7
370
    15
100
AcDbLine
 10
727.0197163340407
 20
63.23199485827159
 30
0.0
 11
726.0197161701279
 21
64.09802054453563
 31
0.0
  0
LINE
  5
B68
330
2
100
AcDbEntity
  8
0
  6
Continuous
 62
     7
370
    15
100
AcDbLine
 10
727.0197163340405
 20
30.3230262308188
 30
0.0
 11
727.0197163340407
 21
63.23199485827159
 31
0.0
  0
LINE
  5
B7A
330
2
100
AcDbEntity
  8
0
  6
Continuous
 62
     7
370
    15
100
AcDbLine
 10
698.0197155386916
 20
-36.5731258654979
 30
0.0
 11
700.0197156336978
 21
-36.5731258654979
 31
0.0
  0
LINE
  5
B7B
330
2
100
AcDbEntity
  8
0
  6
Continuous
 62
     7
370
    15
100
AcDbLine
 10
698.0197155386914
 20
4.267649840376165
 30
0.0
 11
698.0197155386916
 21
-36.5731258654979
 31
0.0
  0
LINE
  5
B7C
330
2
100
AcDbEntity
  8
0
  6
Continuous
 62
     7
370
    15
100
AcDbLine
 10
698.0197155386914
 20
-1.573129367270837
 30
0.0
 11
700.0197156336977
 21
-1.573129367270837
 31
0.0
  0
LINE
  5
B7E
330
2
100
AcDbEntity
  8
0
  6
Continuous
 62
     7
370
    15
100
AcDbLine
 10
698.0197155386916
 20
27.58609794434044
 30
0.0
 11
698.0197155386914
 21
4.267649840376165
 31
0.0
  0
LINE
  5
B7F
330
2
100
AcDbEntity
  8
0
  6
Continuous
 62
     7
370
    15
100
AcDbLine
 10
698.0197155386917
 20
35.92687391098464
 30
0.0
 11
698.0197155386916
 21
27.58609794434044
 31
0.0
  0
LINE
  5
B82
330
2
100
AcDbEntity
  8
3
100
AcDbLine
 10
689.3757179728588
 20
-1.573129367270837
 30
0.0
 11
806.8391016230886
 21
-1.573129367270835
 31
0.0
  0
DIMENSION
  5
B93
330
2
100
AcDbEntity
  8
AM_5
100
AcDbDimension
  2
*D13
 10
818.4736529608478
 20
-81.57312630986764
 30
0.0
 11
815.7236529608479
 21
-1.573126309867511
 31
0.0
 70
    32
  1
%%C<>
 71
     5
 42
159.9999999999999
  3
AM_ISO$0
100
AcDbAlignedDimension
 13
794.0197156336979
 23
78.42687369013235
 33
0.0
 14
794.0197156336979
 24
-81.57312630986762
 34
0.0
 50
90.00000000000003
100
AcDbRotatedDimension
1001
ACAD
1000
DSTYLE
1002
{
1070
    40
1040
1.0
1070
   144
1040
1.0
1070
   272
1070
     8
1002
}
  0
LINE
  5
BC4
330
2
100
AcDbEntity
  8
0
  6
DASHED
 62
     5
370
    15
100
AcDbLine
 10
728.0197156336978
 20
-86.59285462421316
 30
0.0
 11
704.0197156336973
 21
-86.59285462421316
 31
0.0
  0
LINE
  5
BC5
330
2
100
AcDbEntity
  8
0
  6
DASHED
 62
     5
370
    15
100
AcDbLine
 10
728.0197156336978
 20
-86.59285462421316
 30
0.0
 11
728.0197156336978
 21
-13.37312936727068
 31
0.0
  0
LINE
  5
BC6
330
2
100
AcDbEntity
  8
0
  6
DASHED
 62
     5
370
    15
100
AcDbLine
 10
708.0197156336973
 20
-56.57312936727084
 30
0.0
 11
704.0197156336971
 21
-56.57312936727084
 31
0.0
  0
LINE
  5
BC8
330
2
100
AcDbEntity
  8
0
  6
DASHED
 62
     5
370
    15
100
AcDbLine
 10
708.0197156336973
 20
-66.57312936727084
 30
0.0
 11
708.0197156336973
 21
-56.57312936727084
 31
0.0
  0
LINE
  5
BC9
330
2
100
AcDbEntity
  8
0
  6
DASHED
 62
     5
370
    15
100
AcDbLine
 10
704.0197156336971
 20
-56.57312936727084
 30
0.0
 11
704.0197156336973
 21
-11.57312936727084
 31
0.0
  0
LINE
  5
BCA
330
2
100
AcDbEntity
  8
0
  6
DASHED
 62
     5
370
    15
100
AcDbLine
 10
704.0197156336973
 20
-86.59285462421316
 30
0.0
 11
704.0197156336973
 21
-66.57312936727084
 31
0.0
  0
LINE
  5
BD3
330
2
100
AcDbEntity
  8
0
  6
DASHED
 62
     5
370
    15
100
AcDbLine
 10
728.0197156336978
 20
-13.37312936727068
 30
0.0
 11
725.8745591670283
 21
-11.57312936727072
 31
0.0
  0
LINE
  5
BD4
330
2
100
AcDbEntity
  8
0
  6
DASHED
 62
     5
370
    15
100
AcDbLine
 10
725.8745591670283
 20
-11.57312936727072
 30
0.0
 11
704.0197156336973
 21
-11.57312936727084
 31
0.0
  0
LINE
  5
BD9
330
2
100
AcDbEntity
  8
0
  6
DASHED
 62
     5
370
    15
100
AcDbLine
 10
708.0197156336973
 20
-66.57312936727084
 30
0.0
 11
704.0197156336971
 21
-66.57312936727084
 31
0.0
  0
LINE
  5
BE2
330
2
100
AcDbEntity
  8
3
100
AcDbLine
 10
553.8074170692139
 20
-77.59285486381864
 30
0.0
 11
543.2462687074421
 21
-77.59285486381864
 31
0.0
  0
LINE
  5
BE5
330
2
100
AcDbEntity
  8
3
100
AcDbLine
 10
553.8074170692134
 20
-45.59285462421297
 30
0.0
 11
543.2462687074417
 21
-45.59285462421297
 31
0.0
  0
LINE
  5
BE7
330
2
100
AcDbEntity
  8
3
100
AcDbLine
 10
553.8074170692129
 20
-61.59285462421298
 30
0.0
 11
543.2462687074412
 21
-61.59285462421298
 31
0.0
  0
ARC
  5
C03
330
2
100
AcDbEntity
  8
1
 62
     3
100
AcDbCircle
 10
548.5268428883289
 20
-45.59285462421297
 30
0.0
 40
4.0
100
AcDbArc
 50
246.6409026185712
 51
197.7326078475048
  0
ARC
  5
C07
330
2
100
AcDbEntity
  8
1
 62
     3
100
AcDbCircle
 10
548.5268428883289
 20
-77.59285486381864
 30
0.0
 40
4.0
100
AcDbArc
 50
246.6409026185712
 51
197.7326078475048
  0
ARC
  5
C08
330
2
100
AcDbEntity
  8
1
 62
     3
100
AcDbCircle
 10
586.6490432284524
 20
20.43673326120006
 30
0.0
 40
4.0
100
AcDbArc
 50
246.6409026185712
 51
197.7326078475048
  0
ARC
  5
C09
330
2
100
AcDbEntity
  8
1
 62
     3
100
AcDbCircle
 10
614.3618561495546
 20
36.43673326119984
 30
0.0
 40
4.0
100
AcDbArc
 50
246.6409026185712
 51
197.7326078475048
  0
ARC
  5
C0A
330
2
100
AcDbEntity
  8
1
 62
     3
100
AcDbCircle
 10
510.404642548206
 20
20.43673326120075
 30
0.0
 40
4.0
100
AcDbArc
 50
246.6409026185712
 51
197.7326078475048
  0
ARC
  5
C0B
330
2
100
AcDbEntity
  8
1
 62
     3
100
AcDbCircle
 10
482.6918296271042
 20
36.4367332612012
 30
0.0
 40
4.0
100
AcDbArc
 50
246.6409026185712
 51
197.7326078475048
  0
LINE
  5
C0C
330
2
100
AcDbEntity
  8
3
100
AcDbLine
 10
469.8719119279258
 20
43.83831619581047
 30
0.0
 11
523.2245602473845
 21
13.03515032659156
 31
0.0
  0
LINE
  5
C0E
330
2
100
AcDbEntity
  8
3
100
AcDbLine
 10
627.1817738487325
 20
43.83831619581047
 30
0.0
 11
573.8291255292737
 21
13.03515032659156
 31
0.0
  0
LINE
  5
C11
330
2
100
AcDbEntity
  8
3
100
AcDbLine
 10
513.0449296386481
 20
25.00984464841469
 30
0.0
 11
507.7643554577633
 21
15.86362187398328
 31
0.0
  0
LINE
  5
C12
330
2
100
AcDbEntity
  8
3
100
AcDbLine
 10
499.1885231780965
 20
33.00984464841498
 30
0.0
 11
493.9079489972118
 21
23.86362187398357
 31
0.0
  0
LINE
  5
C13
330
2
100
AcDbEntity
  8
3
100
AcDbLine
 10
485.3321167175455
 20
41.00984464841515
 30
0.0
 11
480.0515425366608
 21
31.86362187398375
 31
0.0
  0
LINE
  5
C14
330
2
100
AcDbEntity
  8
3
100
AcDbLine
 10
584.0087561380097
 20
25.00984464841469
 30
0.0
 11
589.2893303188944
 21
15.86362187398328
 31
0.0
  0
LINE
  5
C15
330
2
100
AcDbEntity
  8
3
100
AcDbLine
 10
597.8651625985612
 20
33.00984464841498
 30
0.0
 11
603.145736779446
 21
23.86362187398357
 31
0.0
  0
LINE
  5
C16
330
2
100
AcDbEntity
  8
3
100
AcDbLine
 10
611.7215690591123
 20
41.00984464841515
 30
0.0
 11
617.002143239997
 21
31.86362187398375
 31
0.0
  0
DIMENSION
  5
C26
330
2
100
AcDbEntity
  8
AM_5
100
AcDbDimension
  2
*D18
 10
795.0197156336979
 20
-98.59285462421311
 30
0.0
 11
761.5197156336978
 21
-95.84285462421311
 31
0.0
 70
    32
 71
     5
 42
67.00000000000011
  3
AM_ISO$0
100
AcDbAlignedDimension
 13
728.0197156336978
 23
-86.59285462421316
 33
0.0
 14
795.0197156336979
 24
-80.57312630986762
 34
0.0
 50
0.0000000000001132
100
AcDbRotatedDimension
1001
ACAD
1000
DSTYLE
1002
{
1070
    40
1040
1.0
1070
   144
1040
1.0
1070
   272
1070
     8
1002
}
  0
DIMENSION
  5
C4A
330
2
100
AcDbEntity
  8
AM_5
100
AcDbDimension
  2
*D19
 10
704.0197156336973
 20
-98.59285462421384
 30
0.0
 11
706.0197156336974
 21
-95.84285462421384
 31
0.0
 70
    32
 71
     5
 42
4.0
  3
AM_ISO$0
100
AcDbAlignedDimension
 13
708.0197156336973
 23
-66.57312936727084
 33
0.0
 14
704.0197156336973
 24
-86.59285462421316
 34
0.0
 50
0.0000000000001132
100
AcDbRotatedDimension
1001
ACAD
1000
DSTYLE
1002
{
1070
    40
1040
1.0
1070
   144
1040
1.0
1070
   272
1070
     8
1002
}
  0
DIMENSION
  5
C72
330
2
100
AcDbEntity
  8
AM_5
100
AcDbDimension
  2
*D20
 10
704.0197156336971
 20
-106.7554248785813
 30
0.0
 11
702.0197156336974
 21
-104.0054248785813
 31
0.0
 70
    32
 71
     5
 42
3.999999999999317
  3
AM_ISO$0
100
AcDbAlignedDimension
 13
700.0197156336978
 23
-81.57312579099214
 33
0.0
 14
704.0197156336971
 24
-66.57312936727084
 34
0.0
 50
0.0000000000001132
100
AcDbRotatedDimension
1001
ACAD
1000
DSTYLE
1002
{
1070
    40
1040
1.0
1070
   144
1040
1.0
1070
   272
1070
     8
1002
}
  0
DIMENSION
  5
CB8
330
2
100
AcDbEntity
  8
AM_5
100
AcDbDimension
  2
*D21
 10
700.0197156336977
 20
90.42687063272918
 30
0.0
 11
699.0197155861947
 21
90.42687063272918
 31
0.0
 70
   160
 71
     5
 42
2.000000095006043
  3
AM_ISO$0
100
AcDbAlignedDimension
 13
698.0197155386917
 23
35.92687391098464
 33
0.0
 14
700.0197156336977
 24
78.42687063272918
 34
0.0
100
AcDbRotatedDimension
1001
ACAD
1000
DSTYLE
1002
{
1070
   271
1070
     0
1070
   272
1070
     8
1002
}
  0
DIMENSION
  5
CEB
330
2
100
AcDbEntity
  8
AM_5
100
AcDbDimension
  2
*D22
 10
795.0197156336979
 20
90.42687063272914
 30
0.0
 11
747.5197156336978
 21
93.17687063272915
 31
0.0
 70
    32
 71
     5
 42
95.00000000000023
  3
AM_ISO$0
100
AcDbAlignedDimension
 13
700.0197156336977
 23
78.42687063272918
 33
0.0
 14
795.0197156336979
 24
77.42687369013234
 34
0.0
 50
0.0000000000000114
100
AcDbRotatedDimension
1001
ACAD
1000
DSTYLE
1002
{
1070
   271
1070
     0
1070
   272
1070
     8
1002
}
  0
DIMENSION
  5
D27
330
2
100
AcDbEntity
  8
AM_5
100
AcDbDimension
  2
*D23
 10
568.526842888328
 20
-116.2423491137895
 30
0.0
 11
548.526842888328
 21
-113.4923491137896
 31
0.0
 70
    32
 71
     5
 42
40.0
  3
AM_ISO$0
100
AcDbAlignedDimension
 13
528.526842888328
 23
-86.59285462421269
 33
0.0
 14
568.526842888328
 24
-86.59285462421314
 34
0.0
 50
0.0000000000001132
100
AcDbRotatedDimension
1001
ACAD
1000
DSTYLE
1002
{
1070
    40
1040
1.0
1070
   144
1040
1.0
1070
   271
1070
     0
1070
   272
1070
     8
1002
}
  0
DIMENSION
  5
D4B
330
2
100
AcDbEntity
  8
AM_5
100
AcDbDimension
  2
*D24
 10
558.6268428883279
 20
-104.9915124692434
 30
0.0
 11
548.526842888328
 21
-102.2411679810545
 31
0.0
 70
    32
 71
     5
 42
20.19999999999993
  3
AM_ISO$0
100
AcDbAlignedDimension
 13
538.426842888328
 23
-86.59285462421292
 33
0.0
 14
558.6268428883279
 24
-86.59285462421314
 34
0.0
 50
0.0000000000001132
100
AcDbRotatedDimension
1001
ACAD
1000
DSTYLE
1002
{
1070
   271
1070
     1
1070
   272
1070
     8
1002
}
  0
DIMENSION
  5
D97
330
2
100
AcDbEntity
  8
AM_5
100
AcDbDimension
  2
*D26
 10
631.2595528228577
 20
-77.59285486381866
 30
0.0
 11
628.5092083346687
 21
-61.59285474401572
 31
0.0
 70
    32
 71
     5
 42
32.00000023960566
  3
AM_ISO$0
100
AcDbAlignedDimension
 13
553.8074170692134
 23
-45.59285462421297
 33
0.0
 14
553.8074170692139
 24
-77.59285486381864
 34
0.0
 50
90.00000000000003
100
AcDbRotatedDimension
1001
ACAD
1000
DSTYLE
1002
{
1070
    40
1040
1.0
1070
   144
1040
1.0
1070
   271
1070
     0
1070
   272
1070
     8
1002
}
  0
DIMENSION
  5
DAD
330
2
100
AcDbEntity
  8
AM_5
100
AcDbDimension
  2
*D27
 10
631.2595528228577
 20
-77.59285486381866
 30
0.0
 11
628.5095528228577
 21
-82.0928547440158
 31
0.0
 70
    32
 71
     5
 42
8.999999760394501
  3
AM_ISO$0
100
AcDbAlignedDimension
 13
568.526842888328
 23
-86.59285462421314
 33
0.0
 14
553.8074170692139
 24
-77.59285486381864
 34
0.0
 50
90.0
100
AcDbRotatedDimension
1001
ACAD
1000
DSTYLE
1002
{
1070
   271
1070
     0
1070
   272
1070
     8
1002
}
  0
DIMENSION
  5
DE1
330
2
100
AcDbEntity
  8
AM_5
100
AcDbDimension
  2
*D28
 10
623.2595528228577
 20
-56.59285462421319
 30
0.0
 11
620.5095528228577
 21
-51.092854624213
 31
0.0
 70
    32
 71
     5
 42
11.00000000000019
  3
AM_ISO$0
100
AcDbAlignedDimension
 13
553.8074170692134
 23
-45.59285462421297
 33
0.0
 14
558.6268428883284
 24
-56.59285462421316
 34
0.0
 50
90.00000000000003
100
AcDbRotatedDimension
1001
ACAD
1000
DSTYLE
1002
{
1070
    40
1040
1.0
1070
   144
1040
1.0
1070
   271
1070
     0
1070
   272
1070
     8
1002
}
  0
DIMENSION
  5
E05
330
2
100
AcDbEntity
  8
AM_5
100
AcDbDimension
  2
*D29
 10
652.3876404883288
 20
-1.57312936727084
 30
0.0
 11
649.6376404883287
 21
-44.0829919957419
 31
0.0
 70
    32
 71
     5
 42
85.01972525694233
  3
AM_ISO$0
100
AcDbAlignedDimension
 13
568.526842888328
 23
-86.59285462421314
 33
0.0
 14
640.3876404883288
 24
-1.573129367270837
 34
0.0
 50
90.0
100
AcDbRotatedDimension
1001
ACAD
1000
DSTYLE
1002
{
1070
    40
1040
1.0
1070
   144
1040
1.0
1070
   271
1070
     0
1070
   272
1070
     8
1002
}
  0
DIMENSION
  5
E29
330
2
100
AcDbEntity
  8
AM_5
100
AcDbDimension
  2
*D30
 10
464.0938329238896
 20
-86.59285462421268
 30
0.0
 11
461.3438329238896
 21
-61.58299199574162
 31
0.0
 70
    32
 71
     5
 42
50.01972525694197
  3
AM_ISO$0
100
AcDbAlignedDimension
 13
535.0639308704923
 23
-36.57312936727072
 33
0.0
 14
528.526842888328
 24
-86.59285462421269
 34
0.0
 50
89.99999999999937
100
AcDbRotatedDimension
1001
ACAD
1000
DSTYLE
1002
{
1070
    40
1040
1.0
1070
   144
1040
1.0
1070
   271
1070
     0
1070
   272
1070
     8
1002
}
  0
LEADER
  5
E42
330
2
100
AcDbEntity
  8
AM_5
100
AcDbLeader
  3
AM_ISO$7
 76
     3
 10
545.3269068613487
 20
74.22381707898622
 30
0.0
 10
530.5446933792825
 20
94.10357760648574
 30
0.0
 10
506.2568126123644
 20
94.10357760648574
 30
0.0
1001
ACAD
1000
DSTYLE
1002
{
1070
   140
1040
3.5
1070
   147
1040
1.0
1070
   271
1070
     0
1070
   272
1070
     8
1002
}
  0
LEADER
  5
E43
330
2
100
AcDbEntity
  8
AM_5
100
AcDbLeader
  3
AM_ISO$7
 76
     3
 10
614.3618561495546
 20
40.43673326119983
 30
0.0
 10
629.4926898790099
 20
64.06583295160103
 30
0.0
 10
664.1514450330041
 20
64.06583295160103
 30
0.0
1001
ACAD
1000
DSTYLE
1002
{
1070
   147
1040
1.5
1070
    77
1070
     0
1070
   271
1070
     0
1070
   272
1070
     8
1002
}
  0
MTEXT
  5
E44
330
2
100
AcDbEntity
  8
AM_5
100
AcDbMText
 10
508.0045105863383
 20
99.59958272251189
 30
0.0
 40
3.5
 41
40.44295788220472
 71
     1
 72
     5
  1
3-%%C9thru
  7
CHINA
 73
     1
 44
1.0
  0
MTEXT
  5
E46
330
2
100
AcDbEntity
  8
AM_5
100
AcDbMText
 10
631.4999547902714
 20
68.8970800694463
 30
0.0
 40
3.5
 41
40.44295788220472
 71
     1
 72
     5
  1
M8x1.25x20dp
  7
CHINA
 73
     1
 44
1.0
  0
ENDSEC
  0
SECTION
  2
OBJECTS
  0
DICTIONARY
  5
1A
330
0
100
AcDbDictionary
281
     1
  3
ACAD_COLOR
350
30F
  3
ACAD_GROUP
350
18
  3
ACAD_LAYOUT
350
CC
  3
ACAD_MATERIAL
350
30E
  3
ACAD_MLINESTYLE
350
19
  3
ACAD_PLOTSETTINGS
350
CD
  3
ACAD_PLOTSTYLENAME
350
CA
  3
ACAD_TABLESTYLE
350
310
  3
AcDbVariableDictionary
350
2AE
  3
AcmDictionary
350
269
  3
AMG
350
24F
  3
AMGSNAPSETTINGS
350
29E
  3
MAPISURF_MODULE
350
39E
  0
DICTIONARY
  5
40D
330
A
100
AcDbDictionary
280
     1
281
     1
  3
ACAD_LAYERSTATES
360
40E
  0
DICTIONARY
  5
226
330
2
100
AcDbDictionary
280
     1
281
     1
  3
ACAD_INDEX
360
2A5
  3
ACAD_LAYOUTSELFREF
360
2F3
  0
DICTIONARY
  5
228
330
7
100
AcDbDictionary
280
     1
281
     1
  3
ACAD_LAYOUTSELFREF
360
2F4
  0
DICTIONARY
  5
A1F
330
A18
100
AcDbDictionary
280
     1
281
     1
  0
DICTIONARY
  5
30F
102
{ACAD_REACTORS
330
1A
102
}
330
1A
100
AcDbDictionary
281
     1
  0
DICTIONARY
  5
18
102
{ACAD_REACTORS
330
1A
102
}
330
1A
100
AcDbDictionary
281
     1
  0
DICTIONARY
  5
CC
102
{ACAD_REACTORS
330
1A
102
}
330
1A
100
AcDbDictionary
281
     1
  3
Model
350
CE
  3
配置1
350
CF
  0
DICTIONARY
  5
30E
102
{ACAD_REACTORS
330
1A
102
}
330
1A
100
AcDbDictionary
281
     1
  0
DICTIONARY
  5
19
102
{ACAD_REACTORS
330
1A
102
}
330
1A
100
AcDbDictionary
281
     1
  3
STANDARD
350
1D
  0
DICTIONARY
  5
CD
102
{ACAD_REACTORS
330
1A
102
}
330
1A
100
AcDbDictionary
281
     1
  0
ACDBDICTIONARYWDFLT
  5
CA
102
{ACAD_REACTORS
330
1A
102
}
330
1A
100
AcDbDictionary
281
     1
  3
Normal
350
CB
100
AcDbDictionaryWithDefault
340
CB
1001
ACAD
1000
TREAT_AS_HARD
1070
     0
  0
DICTIONARY
  5
310
102
{ACAD_REACTORS
330
1A
102
}
330
1A
100
AcDbDictionary
281
     1
  3
Standard
350
311
  0
DICTIONARY
  5
2AE
102
{ACAD_REACTORS
330
1A
102
}
330
1A
100
AcDbDictionary
281
     1
  3
CTABLESTYLE
350
3F6
  3
DIMASSOC
350
2B0
  3
INDEXCTL
350
2AF
  0
DICTIONARY
  5
269
102
{ACAD_REACTORS
330
1A
102
}
330
1A
100
AcDbDictionary
281
     1
  3
AcmBOMDATA
350
3D0
  3
AcmStdDictionary
350
26F
  3
AMDTSECTSYM_ARROWCOLOR
350
3EA
  0
DICTIONARY
  5
24F
102
{ACAD_REACTORS
330
1A
102
}
330
1A
100
AcDbDictionary
281
     1
  3
AcMgSettings
350
250
  3
AMGLAYCFG
350
3DE
  0
DICTIONARY
  5
29E
102
{ACAD_REACTORS
330
1A
102
}
330
1A
100
AcDbDictionary
281
     1
  0
DICTIONARY
  5
40E
102
{ACAD_REACTORS
330
40D
102
}
330
40D
100
AcDbDictionary
281
     1
  0
DICTIONARY
  5
2A5
102
{ACAD_REACTORS
330
226
102
}
330
226
100
AcDbDictionary
281
     1
  3
*A1
350
2A6
  0
XRECORD
  5
2F3
102
{ACAD_REACTORS
330
226
102
}
330
226
100
AcDbXrecord
280
     1
340
2
  0
XRECORD
  5
2F4
102
{ACAD_REACTORS
330
228
102
}
330
228
100
AcDbXrecord
280
     1
340
7
  0
LAYOUT
  5
CE
102
{ACAD_REACTORS
330
CC
102
}
330
CC
100
AcDbPlotSettings
  1

  2
\\WINNT\EPSON Stylus Photo 750 單色
  4

  6

 40
0.0
 41
0.0
 42
0.0
 43
0.0
 44
0.0
 45
0.0
 46
0.0
 47
0.0
 48
0.0
 49
0.0
140
0.0
141
0.0
142
1.0
143
1.0
 70
 11952
 72
     0
 73
     1
 74
     0
  7

 75
     0
147
1.0
 76
     0
 77
     2
 78
   300
148
-1016.680816749764
149
103.0807414509828
100
AcDbLayout
  1
Model
 70
     1
 71
     0
 10
0.0
 20
0.0
 11
12.0
 21
9.0
 12
0.0
 22
0.0
 32
0.0
 14
0.0
 24
0.0
 34
0.0
 15
0.0
 25
0.0
 35
0.0
146
0.0
 13
0.0
 23
0.0
 33
0.0
 16
1.0
 26
0.0
 36
0.0
 17
0.0
 27
1.0
 37
0.0
 76
     0
330
2
  0
LAYOUT
  5
CF
102
{ACAD_REACTORS
330
CC
102
}
330
CC
100
AcDbPlotSettings
  1

  2
\\WINNT\EPSON Stylus Photo 750 單色
  4

  6

 40
0.0
 41
0.0
 42
0.0
 43
0.0
 44
0.0
 45
0.0
 46
0.0
 47
0.0
 48
0.0
 49
0.0
140
0.0
141
0.0
142
1.0
143
1.0
 70
   688
 72
     0
 73
     0
 74
     5
  7

 75
    16
147
1.0
 76
     0
 77
     2
 78
   300
148
0.0
149
0.0
100
AcDbLayout
  1
配置1
 70
     1
 71
     1
 10
0.0
 20
0.0
 11
12.0
 21
9.0
 12
0.0
 22
0.0
 32
0.0
 14
1.000000000000000E+20
 24
1.000000000000000E+20
 34
1.000000000000000E+20
 15
-1.000000000000000E+20
 25
-1.000000000000000E+20
 35
-1.000000000000000E+20
146
0.0
 13
0.0
 23
0.0
 33
0.0
 16
1.0
 26
0.0
 36
0.0
 17
0.0
 27
1.0
 37
0.0
 76
     0
330
7
  0
MLINESTYLE
  5
1D
102
{ACAD_REACTORS
330
19
102
}
330
19
100
AcDbMlineStyle
  2
STANDARD
 70
     0
  3

 62
   256
 51
90.0
 52
90.0
 71
     2
 49
0.5
 62
   256
  6
BYLAYER
 49
-0.5
 62
   256
  6
BYLAYER
  0
ACDBPLACEHOLDER
  5
CB
102
{ACAD_REACTORS
330
CA
102
}
330
CA
  0
TABLESTYLE
  5
311
102
{ACAD_REACTORS
330
310
102
}
330
310
100
AcDbTableStyle
  3
Standard
 70
     0
 71
     0
 40
0.06
 41
0.06
280
     0
281
     0
  7
STANDARD
140
0.18
170
     2
 62
     0
 63
     7
283
     0
274
    -2
284
     1
 64
     0
275
    -2
285
     1
 65
     0
276
    -2
286
     1
 66
     0
277
    -2
287
     1
 67
     0
278
    -2
288
     1
 68
     0
279
    -2
289
     1
 69
     0
  7
STANDARD
140
0.25
170
     5
 62
     0
 63
     7
283
     0
274
    -2
284
     1
 64
     0
275
    -2
285
     1
 65
     0
276
    -2
286
     1
 66
     0
277
    -2
287
     1
 67
     0
278
    -2
288
     1
 68
     0
279
    -2
289
     1
 69
     0
  7
STANDARD
140
0.18
170
     5
 62
     0
 63
     7
283
     0
274
    -2
284
     1
 64
     0
275
    -2
285
     1
 65
     0
276
    -2
286
     1
 66
     0
277
    -2
287
     1
 67
     0
278
    -2
288
     1
 68
     0
279
    -2
289
     1
 69
     0
  0
DICTIONARYVAR
  5
3F6
102
{ACAD_REACTORS
330
2AE
102
}
330
2AE
100
DictionaryVariables
280
     0
  1
STANDARD
  0
DICTIONARYVAR
  5
2B0
102
{ACAD_REACTORS
330
2AE
102
}
330
2AE
100
DictionaryVariables
280
     0
  1
0
  0
DICTIONARYVAR
  5
2AF
102
{ACAD_REACTORS
330
2AE
102
}
330
2AE
100
DictionaryVariables
280
     0
  1
1
  0
ACMDATADICTIONARY
  5
3D0
102
{ACAD_REACTORS
330
269
102
}
330
269
100
AcDbDictionary
281
     1
  3
*A1
350
3D1
  3
*A2
350
A32
  3
*A3
350
A33
  3
*A4
350
A34
  3
*A5
350
A35
  3
*A6
350
A36
100
AcmDataDictionary
  0
DICTIONARY
  5
26F
102
{ACAD_REACTORS
330
269
102
}
330
269
100
AcDbDictionary
281
     1
  3
ANSI
350
3DD
  3
ISO
350
5E3
  0
XRECORD
  5
3EA
102
{ACAD_REACTORS
330
269
102
}
330
269
100
AcDbXrecord
280
     1
 90
-1023410169
  0
DICTIONARY
  5
250
102
{ACAD_REACTORS
330
24F
102
}
330
24F
100
AcDbDictionary
281
     1
  3
DWGSETTINGS
350
31C
  3
Shaft
350
9A4
  3
TRANSSETTINGS
350
320
  0
LAYER_INDEX
  5
2A6
102
{ACAD_REACTORS
330
2A5
102
}
330
2A5
100
AcDbIndex
 40
2456360.588930845
100
AcDbLayerIndex
  8
0
360
2A7
 90
       33
  8
1
360
2A8
 90
        6
  8
3
360
2A9
 90
       14
  8
LOGO
360
2AC
 90
       90
  8
AM_VIS
360
9BB
 90
      289
  8
AM_5
360
9BC
 90
       17
  8
Defpoints
360
9BD
 90
        0
  0
ACMDATAENTRYBLOCK
  5
3D1
102
{ACAD_REACTORS
330
3D0
102
}
330
3D0
100
AcmDataEntry
100
AcmDataEntryBlock
  0
ACMDATAENTRYBLOCK
  5
A32
102
{ACAD_REACTORS
330
3D0
102
}
330
3D0
100
AcmDataEntry
100
AcmDataEntryBlock
  0
ACMDATAENTRYBLOCK
  5
A33
102
{ACAD_REACTORS
330
3D0
102
}
330
3D0
100
AcmDataEntry
100
AcmDataEntryBlock
  0
ACMDATAENTRYBLOCK
  5
A34
102
{ACAD_REACTORS
330
3D0
102
}
330
3D0
100
AcmDataEntry
100
AcmDataEntryBlock
  0
ACMDATAENTRYBLOCK
  5
A35
102
{ACAD_REACTORS
330
3D0
102
}
330
3D0
100
AcmDataEntry
100
AcmDataEntryBlock
  0
ACMDATAENTRYBLOCK
  5
A36
102
{ACAD_REACTORS
330
3D0
102
}
330
3D0
100
AcmDataEntry
100
AcmDataEntryBlock
  0
IDBUFFER
  5
2A7
330
0
100
AcDbIdBuffer
330
B66
330
B67
330
B68
330
B7A
330
B7B
330
B7C
330
B7E
330
B7F
330
BC4
330
BC5
330
BC6
330
BC8
330
BC9
330
BCA
330
BD3
330
BD4
330
BD9
330
96A
330
96B
330
96C
330
AF6
330
AF7
330
AF9
330
AFA
330
AFB
330
B01
330
B04
330
B0A
330
B12
330
B61
330
B27
330
B5D
330
B43
  0
IDBUFFER
  5
2A8
330
0
100
AcDbIdBuffer
330
C03
330
C07
330
C08
330
C09
330
C0A
330
C0B
  0
IDBUFFER
  5
2A9
330
0
100
AcDbIdBuffer
330
C0C
330
C0E
330
C11
330
C12
330
C13
330
C14
330
C15
330
C16
330
83B
330
83C
330
B82
330
BE2
330
BE5
330
BE7
  0
IDBUFFER
  5
2AC
330
0
100
AcDbIdBuffer
330
194
330
195
330
196
330
197
330
198
330
19D
330
19E
330
19F
330
1A0
330
1A1
330
1A2
330
1A3
330
1A4
330
1A5
330
1A6
330
1A7
330
1A8
330
1A9
330
1AB
330
1AC
330
1AD
330
1B1
330
1B2
330
1B3
330
1B4
330
8FB
330
8FC
330
916
330
917
330
918
330
919
330
91A
330
91B
330
91C
330
91D
330
91E
330
91F
330
920
330
921
330
922
330
923
330
924
330
925
330
926
330
927
330
928
330
929
330
92A
330
92E
330
932
330
933
330
937
330
938
330
939
330
93A
330
93B
330
93C
330
93D
330
93E
330
942
330
946
330
94A
330
94B
330
94C
330
950
330
951
330
952
330
953
330
954
330
955
330
956
330
957
330
958
330
959
330
95A
330
95B
330
95C
330
95D
330
95E
330
95F
330
960
330
961
330
962
330
963
330
964
330
965
330
966
330
967
330
968
330
969
  0
IDBUFFER
  5
9BB
330
0
100
AcDbIdBuffer
330
5FD
330
5FE
330
5FF
330
600
330
601
330
602
330
603
330
604
330
605
330
606
330
607
330
608
330
609
330
60A
330
60B
330
60C
330
60D
330
60E
330
60F
330
610
330
611
330
612
330
613
330
614
330
615
330
616
330
617
330
618
330
619
330
61A
330
61B
330
61C
330
61D
330
61E
330
61F
330
620
330
621
330
622
330
623
330
624
330
625
330
626
330
627
330
628
330
629
330
62A
330
62B
330
62C
330
62D
330
62E
330
62F
330
630
330
631
330
632
330
633
330
634
330
635
330
636
330
637
330
638
330
639
330
63A
330
63B
330
63C
330
63D
330
63E
330
63F
330
640
330
728
330
727
330
726
330
644
330
725
330
646
330
647
330
648
330
649
330
64A
330
64B
330
64C
330
64D
330
64E
330
64F
330
650
330
651
330
652
330
653
330
654
330
655
330
656
330
657
330
658
330
659
330
65A
330
65B
330
65C
330
65D
330
65E
330
65F
330
660
330
661
330
662
330
663
330
664
330
665
330
666
330
667
330
668
330
669
330
66A
330
66B
330
724
330
723
330
722
330
66F
330
721
330
671
330
672
330
673
330
674
330
675
330
676
330
677
330
678
330
679
330
67A
330
67B
330
67C
330
67D
330
67E
330
67F
330
680
330
681
330
682
330
683
330
684
330
685
330
686
330
687
330
688
330
689
330
68A
330
68B
330
68C
330
68D
330
68E
330
68F
330
690
330
691
330
692
330
693
330
694
330
695
330
696
330
697
330
698
330
699
330
69A
330
69B
330
69C
330
69D
330
69E
330
69F
330
6A0
330
6A1
330
6A2
330
6A3
330
6A4
330
6A5
330
6A6
330
6A7
330
720
330
71F
330
6AA
330
71E
330
6AC
330
6AD
330
6AE
330
6AF
330
6B0
330
6B1
330
6B2
330
6B3
330
6B4
330
6B5
330
6B6
330
6B7
330
6B8
330
6B9
330
6BA
330
6BB
330
6BC
330
6BD
330
6BE
330
6BF
330
6C0
330
6C1
330
6C2
330
6C3
330
6C4
330
6C5
330
6C6
330
6C7
330
6C8
330
6C9
330
6CA
330
6CB
330
6CC
330
6CD
330
6CE
330
6CF
330
6D0
330
6D1
330
6D2
330
6D3
330
6D4
330
6D5
330
6D6
330
6D7
330
6D8
330
6D9
330
6DA
330
6DB
330
6DC
330
6DD
330
6DE
330
6DF
330
6E0
330
6E1
330
6E2
330
6E3
330
6E4
330
6E5
330
6E6
330
6E7
330
6E8
330
6E9
330
6EA
330
6EB
330
6EC
330
6ED
330
6EE
330
6EF
330
6F0
330
6F1
330
6F2
330
6F3
330
6F4
330
6F5
330
6F6
330
6F7
330
6F8
330
6F9
330
6FA
330
6FB
330
6FC
330
6FD
330
6FE
330
6FF
330
700
330
701
330
702
330
703
330
704
330
705
330
706
330
707
330
708
330
709
330
70A
330
70B
330
70C
330
70D
330
70E
330
70F
330
710
330
711
330
712
330
713
330
714
330
715
330
716
330
717
330
718
330
719
330
71A
330
71B
330
71C
330
71D
  0
IDBUFFER
  5
9BC
330
0
100
AcDbIdBuffer
330
CB8
330
B93
330
CEB
330
D27
330
D4B
330
D97
330
DAD
330
DE1
330
E05
330
E29
330
E42
330
E43
330
E44
330
E46
330
C26
330
C4A
330
C72
  0
IDBUFFER
  5
9BD
330
0
100
AcDbIdBuffer
  0
ENDSEC
  0
EOF
