  0
SECTION
  2
HEADER
  9
$ACADVER
  1
AC1018
  9
$ACADMAINTVER
 70
    39
  9
$DWGCODEPAGE
  3
ANSI_950
  9
$CUSTOMPROPERTYTAG
  1
AmdtFileType
  9
$CUSTOMPROPERTY
  1
84
  9
$INSBASE
 10
278.96247
 20
14.63286
 30
0.0
  9
$EXTMIN
 10
439.2263818608681
 20
-153.8752586113886
 30
0.0
  9
$EXTMAX
 10
839.5126093327666
 20
131.3336665950917
 30
154.5009597124719
  9
$LIMMIN
 10
0.0
 20
0.0
  9
$LIMMAX
 10
297.0
 20
210.0
  9
$ORTHOMODE
 70
     0
  9
$REGENMODE
 70
     1
  9
$FILLMODE
 70
     1
  9
$QTEXTMODE
 70
     0
  9
$MIRRTEXT
 70
     1
  9
$LTSCALE
 40
8.0
  9
$ATTMODE
 70
     1
  9
$TEXTSIZE
 40
3.0
  9
$TRACEWID
 40
0.05
  9
$TEXTSTYLE
  7
CHINA
  9
$CLAYER
  8
1
  9
$CELTYPE
  6
BYLAYER
  9
$CECOLOR
 62
   256
  9
$CELTSCALE
 40
1.0
  9
$DISPSILH
 70
     0
  9
$DIMSCALE
 40
1.0
  9
$DIMASZ
 40
3.5
  9
$DIMEXO
 40
1.0
  9
$DIMDLI
 40
8.0
  9
$DIMRND
 40
0.0
  9
$DIMDLE
 40
0.0
  9
$DIMEXE
 40
1.0
  9
$DIMTP
 40
0.1
  9
$DIMTM
 40
0.1
  9
$DIMTXT
 40
3.5
  9
$DIMCEN
 40
0.0
  9
$DIMTSZ
 40
0.0
  9
$DIMTOL
 70
     0
  9
$DIMLIM
 70
     0
  9
$DIMTIH
 70
     0
  9
$DIMTOH
 70
     0
  9
$DIMSE1
 70
     0
  9
$DIMSE2
 70
     0
  9
$DIMTAD
 70
     1
  9
$DIMZIN
 70
     8
  9
$DIMBLK
  1

  9
$DIMASO
 70
     0
  9
$DIMSHO
 70
     1
  9
$DIMPOST
  1

  9
$DIMAPOST
  1
"
  9
$DIMALT
 70
     0
  9
$DIMALTD
 70
     2
  9
$DIMALTF
 40
0.0393701
  9
$DIMLFAC
 40
1.0
  9
$DIMTOFL
 70
     1
  9
$DIMTVP
 40
0.0
  9
$DIMTIX
 70
     0
  9
$DIMSOXD
 70
     0
  9
$DIMSAH
 70
     0
  9
$DIMBLK1
  1

  9
$DIMBLK2
  1

  9
$DIMSTYLE
  2
AM_ISO
  9
$DIMCLRD
 70
   256
  9
$DIMCLRE
 70
   256
  9
$DIMCLRT
 70
   256
  9
$DIMTFAC
 40
0.71
  9
$DIMGAP
 40
1.0
  9
$DIMJUST
 70
     0
  9
$DIMSD1
 70
     0
  9
$DIMSD2
 70
     0
  9
$DIMTOLJ
 70
     0
  9
$DIMTZIN
 70
     8
  9
$DIMALTZ
 70
     8
  9
$DIMALTTZ
 70
     0
  9
$DIMUPT
 70
     0
  9
$DIMDEC
 70
     0
  9
$DIMTDEC
 70
     8
  9
$DIMALTU
 70
     2
  9
$DIMALTTD
 70
     2
  9
$DIMTXSTY
  7
STANDARD
  9
$DIMAUNIT
 70
     0
  9
$DIMADEC
 70
     0
  9
$DIMALTRND
 40
0.0
  9
$DIMAZIN
 70
     2
  9
$DIMDSEP
 70
    46
  9
$DIMATFIT
 70
     3
  9
$DIMFRAC
 70
     0
  9
$DIMLDRBLK
  1

  9
$DIMLUNIT
 70
     2
  9
$DIMLWD
 70
    -1
  9
$DIMLWE
 70
    -1
  9
$DIMTMOVE
 70
     0
  9
$LUNITS
 70
     2
  9
$LUPREC
 70
     2
  9
$SKETCHINC
 40
0.1
  9
$FILLETRAD
 40
2.5
  9
$AUNITS
 70
     0
  9
$AUPREC
 70
     0
  9
$MENU
  1
acad
  9
$ELEVATION
 40
0.0
  9
$PELEVATION
 40
0.0
  9
$THICKNESS
 40
0.0
  9
$LIMCHECK
 70
     0
  9
$CHAMFERA
 40
2.5
  9
$CHAMFERB
 40
2.5
  9
$CHAMFERC
 40
0.0
  9
$CHAMFERD
 40
0.0
  9
$SKPOLY
 70
     0
  9
$TDCREATE
 40
2451401.689539931
  9
$TDUCREATE
 40
2451401.356206598
  9
$TDUPDATE
 40
2456360.627845591
  9
$TDUUPDATE
 40
2456360.294512257
  9
$TDINDWG
 40
0.1378086343
  9
$TDUSRTIMER
 40
0.1378086343
  9
$USRTIMER
 70
     1
  9
$ANGBASE
 50
0.0
  9
$ANGDIR
 70
     0
  9
$PDMODE
 70
     0
  9
$PDSIZE
 40
0.0
  9
$PLINEWID
 40
0.0
  9
$SPLFRAME
 70
     0
  9
$SPLINETYPE
 70
     6
  9
$SPLINESEGS
 70
     8
  9
$HANDSEED
  5
11EF
  9
$SURFTAB1
 70
     6
  9
$SURFTAB2
 70
     6
  9
$SURFTYPE
 70
     6
  9
$SURFU
 70
     6
  9
$SURFV
 70
     6
  9
$UCSBASE
  2

  9
$UCSNAME
  2

  9
$UCSORG
 10
0.0
 20
0.0
 30
0.0
  9
$UCSXDIR
 10
1.0
 20
0.0
 30
0.0
  9
$UCSYDIR
 10
0.0
 20
1.0
 30
0.0
  9
$UCSORTHOREF
  2

  9
$UCSORTHOVIEW
 70
     0
  9
$UCSORGTOP
 10
0.0
 20
0.0
 30
0.0
  9
$UCSORGBOTTOM
 10
0.0
 20
0.0
 30
0.0
  9
$UCSORGLEFT
 10
0.0
 20
0.0
 30
0.0
  9
$UCSORGRIGHT
 10
0.0
 20
0.0
 30
0.0
  9
$UCSORGFRONT
 10
0.0
 20
0.0
 30
0.0
  9
$UCSORGBACK
 10
0.0
 20
0.0
 30
0.0
  9
$PUCSBASE
  2

  9
$PUCSNAME
  2

  9
$PUCSORG
 10
0.0
 20
0.0
 30
0.0
  9
$PUCSXDIR
 10
1.0
 20
0.0
 30
0.0
  9
$PUCSYDIR
 10
0.0
 20
1.0
 30
0.0
  9
$PUCSORTHOREF
  2

  9
$PUCSORTHOVIEW
 70
     0
  9
$PUCSORGTOP
 10
0.0
 20
0.0
 30
0.0
  9
$PUCSORGBOTTOM
 10
0.0
 20
0.0
 30
0.0
  9
$PUCSORGLEFT
 10
0.0
 20
0.0
 30
0.0
  9
$PUCSORGRIGHT
 10
0.0
 20
0.0
 30
0.0
  9
$PUCSORGFRONT
 10
0.0
 20
0.0
 30
0.0
  9
$PUCSORGBACK
 10
0.0
 20
0.0
 30
0.0
  9
$USERI1
 70
     0
  9
$USERI2
 70
     0
  9
$USERI3
 70
     0
  9
$USERI4
 70
     0
  9
$USERI5
 70
     0
  9
$USERR1
 40
0.0
  9
$USERR2
 40
0.0
  9
$USERR3
 40
0.0
  9
$USERR4
 40
0.0
  9
$USERR5
 40
0.0
  9
$WORLDVIEW
 70
     1
  9
$SHADEDGE
 70
     3
  9
$SHADEDIF
 70
    70
  9
$TILEMODE
 70
     1
  9
$MAXACTVP
 70
    16
  9
$PINSBASE
 10
0.0
 20
0.0
 30
0.0
  9
$PLIMCHECK
 70
     0
  9
$PEXTMIN
 10
1.000000000000000E+20
 20
1.000000000000000E+20
 30
1.000000000000000E+20
  9
$PEXTMAX
 10
-1.000000000000000E+20
 20
-1.000000000000000E+20
 30
-1.000000000000000E+20
  9
$PLIMMIN
 10
0.0
 20
0.0
  9
$PLIMMAX
 10
12.0
 20
9.0
  9
$UNITMODE
 70
     0
  9
$VISRETAIN
 70
     0
  9
$PLINEGEN
 70
     0
  9
$PSLTSCALE
 70
     1
  9
$TREEDEPTH
 70
  3020
  9
$CMLSTYLE
  2
STANDARD
  9
$CMLJUST
 70
     0
  9
$CMLSCALE
 40
1.0
  9
$PROXYGRAPHICS
 70
     1
  9
$MEASUREMENT
 70
     1
  9
$CELWEIGHT
370
    -1
  9
$ENDCAPS
280
     0
  9
$JOINSTYLE
280
     0
  9
$LWDISPLAY
290
     0
  9
$INSUNITS
 70
     4
  9
$HYPERLINKBASE
  1

  9
$STYLESHEET
  1

  9
$XEDIT
290
     1
  9
$CEPSNTYPE
380
     0
  9
$PSTYLEMODE
290
     1
  9
$FINGERPRINTGUID
  2
{C3A3751C-7CBF-11D5-9E02-0050BAE3FAE1}
  9
$VERSIONGUID
  2
{76FB3F1F-A229-446E-B46A-B7614FAD7A93}
  9
$EXTNAMES
290
     1
  9
$PSVPSCALE
 40
0.0
  9
$OLESTARTUP
290
     0
  9
$SORTENTS
280
   127
  9
$INDEXCTL
280
     1
  9
$HIDETEXT
280
     0
  9
$XCLIPFRAME
290
     0
  9
$HALOGAP
280
     0
  9
$OBSCOLOR
 70
   257
  9
$OBSLTYPE
280
     0
  9
$INTERSECTIONDISPLAY
280
     0
  9
$INTERSECTIONCOLOR
 70
   257
  9
$DIMASSOC
280
     0
  9
$PROJECTNAME
  1

  0
ENDSEC
  0
SECTION
  2
CLASSES
  0
CLASS
  1
DICTIONARYVAR
  2
AcDbDictionaryVar
  3
ObjectDBX Classes
 90
        0
 91
        3
280
     0
281
     0
  0
CLASS
  1
ACDBDICTIONARYWDFLT
  2
AcDbDictionaryWithDefault
  3
ObjectDBX Classes
 90
        0
 91
        1
280
     0
281
     0
  0
CLASS
  1
ACME_DOCUMENT
  2
AcMeDbDoc
  3
AcMeServices
 90
        0
 91
        2
280
     0
281
     0
  0
CLASS
  1
AMGSETTINGSOBJ
  2
AmgSettingsObj
  3
"AcadM|Product Description: AutoCAD Mechanical 2000|Company: Autodesk"
 90
        0
 91
        3
280
     0
281
     0
  0
CLASS
  1
ACMESCOPE
  2
AcMeScope
  3
AcMeServices
 90
        0
 91
        1
280
     0
281
     0
  0
CLASS
  1
ACMECOMMANDHISTORY
  2
AcMeCommandHistory
  3
AcMeServices
 90
        0
 91
        1
280
     0
281
     0
  0
CLASS
  1
ACIMSYSVARMAN
  2
AcImSysVarManager
  3
AcMeServices
 90
        0
 91
        6
280
     0
281
     0
  0
CLASS
  1
ACIMREALSYSVAR
  2
AcImRealSysVar
  3
AcMeServices
 90
        0
 91
       16
280
     0
281
     0
  0
CLASS
  1
ACIMINTSYSVAR
  2
AcImIntSysVar
  3
AcMeServices
 90
        0
 91
       45
280
     0
281
     0
  0
CLASS
  1
ACMEDRAWINGMAN
  2
AcMeDrawingMan
  3
AcMeServices
 90
        0
 91
        1
280
     0
281
     0
  0
CLASS
  1
ACMEVIEW
  2
AcMeView
  3
AcMeServices
 90
        0
 91
        1
280
     0
281
     0
  0
CLASS
  1
ACDBENTITYCACHE
  2
AcMeEntityCache
  3
AcMeServices
 90
        0
 91
        1
280
     0
281
     0
  0
CLASS
  1
GSMANAGER
  2
AcMeGSManager
  3
AcMeServices
 90
        0
 91
        1
280
     0
281
     0
  0
CLASS
  1
AMDTINTERNALREACTOR
  2
AmdtInternalReactor
  3
AcMeServices
 90
        0
 91
        2
280
     0
281
     0
  0
CLASS
  1
ACMESTATEMGR
  2
AcMeStateMgr
  3
AcMeServices
 90
        0
 91
        1
280
     0
281
     0
  0
CLASS
  1
ACGREFMASTER
  2
AcGrefMaster
  3
AcAttribServices
 90
        0
 91
        1
280
     0
281
     0
  0
CLASS
  1
ACME_DATABASE
  2
AcMeDbDatabase
  3
AcMeServices
 90
        0
 91
        2
280
     0
281
     0
  0
CLASS
  1
ACRFINSADJUSTERMGR
  2
AcRfInsAdjusterMgr
  3
AcMeServices
 90
        0
 91
        1
280
     0
281
     0
  0
CLASS
  1
ACGREFACADMASTER
  2
AcGrefacadMaster
  3
AcGrefServices
 90
        0
 91
        1
280
     0
281
     0
  0
CLASS
  1
AMIMASTER
  2
AmiMaster
  3
AmiServices
 90
        0
 91
        1
280
     0
281
     0
  0
CLASS
  1
ACMDATADICTIONARY
  2
AcmDataDictionary
  3
"AcmSymBB|Product Description: AutoCAD Mechanical 2004 DX|Company: Autodesk"
 90
        0
 91
        1
280
     0
281
     0
  0
CLASS
  1
ACMDATAENTRYBLOCK
  2
AcmDataEntryBlock
  3
"AcmSymBB|Product Description: AutoCAD Mechanical 2004 DX|Company: Autodesk"
 90
        0
 91
        6
280
     0
281
     0
  0
CLASS
  1
ACIMSTRSYSVAR
  2
AcImStrSysVar
  3
AcMeServices
 90
        0
 91
       11
280
     0
281
     0
  0
CLASS
  1
ACMSTANDARDANSI
  2
AcmStandardANSI
  3
"Amdt_StdImp|Product Description: AutoCAD Mechanical 2004 DX|Company: Autodesk"
 90
        0
 91
        1
280
     0
281
     0
  0
CLASS
  1
AMGOBJPROPCFG
  2
AmgObjPropCfg
  3
"AmgLay|Product Description: AutoCAD Mechanical 2000|Company: Autodesk"
 90
        1
 91
        1
280
     0
281
     0
  0
CLASS
  1
ACMSURFSTANDARDANSI
  2
AcmSurfTextStdANSI
  3
"Amdt_StdImp|Product Description: AutoCAD Mechanical 2004 DX|Company: Autodesk"
 90
        0
 91
        1
280
     0
281
     0
  0
CLASS
  1
ACMFCFSTANDARDANSI
  2
AcmFCFStdANSI
  3
"Amdt_StdImp|Product Description: AutoCAD Mechanical 2004 DX|Company: Autodesk"
 90
        0
 91
        1
280
     0
281
     0
  0
CLASS
  1
ACMWELDSTANDARDANSI
  2
AcmWeldingStdANSI
  3
"Amdt_StdImp|Product Description: AutoCAD Mechanical 2004 DX|Company: Autodesk"
 90
        0
 91
        1
280
     0
281
     0
  0
CLASS
  1
ACMIDSTANDARDANSI
  2
AcmIdStdANSI
  3
"Amdt_StdImp|Product Description: AutoCAD Mechanical 2004 DX|Company: Autodesk"
 90
        0
 91
        1
280
     0
281
     0
  0
CLASS
  1
ACMDATUMSTANDARDANSI
  2
AcmDatumStdANSI
  3
"Amdt_StdImp|Product Description: AutoCAD Mechanical 2004 DX|Company: Autodesk"
 90
        0
 91
        1
280
     0
281
     0
  0
CLASS
  1
ACMBOMSTANDARDANSI
  2
AcmBOMStdANSI
  3
"Amdt_StdImp|Product Description: AutoCAD Mechanical 2004 DX|Company: Autodesk"
 90
        0
 91
        1
280
     0
281
     0
  0
CLASS
  1
ACMDETAILSTANDARDANSI
  2
AmdtDetailSymStdANSI
  3
"Amdt_StdImp|Product Description: AutoCAD Mechanical 2004 DX|Company: Autodesk"
 90
        0
 91
        1
280
     0
281
     0
  0
CLASS
  1
ACMSECTIONSTANDARDANSI
  2
AmdtSectionSymStdANSI
  3
"Amdt_StdImp|Product Description: AutoCAD Mechanical 2004 DX|Company: Autodesk"
 90
        0
 91
        1
280
     0
281
     0
  0
CLASS
  1
ACMCENTERLINESTANDARDANSI
  2
AmdtCenterLineStdANSI
  3
"Amdt_StdImp|Product Description: AutoCAD Mechanical 2004 DX|Company: Autodesk"
 90
        0
 91
        1
280
     0
281
     0
  0
CLASS
  1
ACMNOTESTANDARDANSI
  2
AmdtNoteStdANSI
  3
"Amdt_StdImp|Product Description: AutoCAD Mechanical 2004 DX|Company: Autodesk"
 90
        0
 91
        1
280
     0
281
     0
  0
CLASS
  1
ACAMGLAYSTD
  2
AcAmgLayStd
  3
"AcAmgLayStd|Product Description: AutoCAD Mechanical 2000|Company: Autodesk"
 90
        0
 91
        2
280
     0
281
     0
  0
CLASS
  1
ACAMGDIMSTD
  2
AcAmgDimStd
  3
"AcAmgDimStd|Product Description: AutoCAD Mechanical 2000|Company: Autodesk"
 90
        0
 91
        2
280
     0
281
     0
  0
CLASS
  1
ACAMGHOLECHARTSTDANSI
  2
AcAmgHoleChartStdANSI
  3
ACMSYMBB_MODULE_NAME
 90
        0
 91
        1
280
     0
281
     0
  0
CLASS
  1
ACAMGTITLESTD
  2
AcAmgTitleStd
  3
"TITLEAPP"
 90
        0
 91
        2
280
     0
281
     0
  0
CLASS
  1
ACAMGFILTERDAT
  2
AcAmgFilterDat
  3
"AcadM|Product Description: AutoCAD Mechanical 2000|Company: Autodesk"
 90
        0
 91
        0
280
     0
281
     0
  0
CLASS
  1
LAYER_INDEX
  2
AcDbLayerIndex
  3
ObjectDBX Classes
 90
        0
 91
        1
280
     0
281
     0
  0
CLASS
  1
IDBUFFER
  2
AcDbIdBuffer
  3
ObjectDBX Classes
 90
        0
 91
        9
280
     0
281
     0
  0
CLASS
  1
TABLESTYLE
  2
AcDbTableStyle
  3
ObjectDBX Classes
 90
     2047
 91
        1
280
     0
281
     0
  0
CLASS
  1
AM_DRAWING_MGR
  2
AcDmDwgMgr
  3
AcMechDwgViewMgmt
 90
        0
 91
        1
280
     0
281
     0
  0
CLASS
  1
AM_DWG_DOCUMENT
  2
AcDmDwgDocument
  3
AcMechDwgViewMgmt
 90
        0
 91
        1
280
     0
281
     0
  0
CLASS
  1
AM_DWG_SHEET
  2
AcDmSheet
  3
AcMechDwgViewMgmt
 90
        0
 91
        1
280
     0
281
     0
  0
CLASS
  1
AM_VIEWDIMPARMAP
  2
AcDmViewDimParMap
  3
AcMechDwgViewMgmt
 90
        0
 91
        1
280
     0
281
     0
  0
CLASS
  1
AM_DWGMGR_NAME
  2
AcDmDwgMgrName
  3
AcMechDwgViewMgmt
 90
        0
 91
        1
280
     0
281
     0
  0
CLASS
  1
AMDTMENUSTATEMGR
  2
AmdtMenuStateMgr
  3
McadcomServices
 90
        0
 91
        1
280
     0
281
     0
  0
CLASS
  1
AMDTMCOMMENUSTATE
  2
AmdtMcomMenuState
  3
McadcomServices
 90
        0
 91
        1
280
     0
281
     0
  0
CLASS
  1
ASAPP
  2
AcAsAppObject
  3
AutoSurfServices
 90
        0
 91
        1
280
     0
281
     0
  0
CLASS
  1
IM_STATIC_MAN
  2
AcImStaticVarManager
  3
AcMeServices
 90
        0
 91
        1
280
     0
281
     0
  0
CLASS
  1
ACIMDBLSTATICVAR
  2
AcImDblStaticVar
  3
AcMeServices
 90
        0
 91
       20
280
     0
281
     0
  0
CLASS
  1
ACIMSTRSTATICVAR
  2
AcImStrStaticVar
  3
AcMeServices
 90
        0
 91
       12
280
     0
281
     0
  0
CLASS
  1
ACIMINTSTATICVAR
  2
AcImIntStaticVar
  3
AcMeServices
 90
        0
 91
       17
280
     0
281
     0
  0
CLASS
  1
ACASGREFMASTER
  2
AcAsGrefMaster
  3
AutoSurfResolverServices
 90
        0
 91
        1
280
     0
281
     0
  0
CLASS
  1
ACADGREFMODULE
  2
AcAdGrefModule
  3
AdGrefServices
 90
        0
 91
        1
280
     0
281
     0
  0
CLASS
  1
AMDTMAPISURFMOUDULE
  2
AmdtMApiSurfModule
  3
MApiSurfServices
 90
        0
 91
        1
280
     0
281
     0
  0
CLASS
  1
MAPIAMMOUDLE
  2
MApiAmModule
  3
MApiAmServices
 90
        0
 91
        1
280
     0
281
     0
  0
CLASS
  1
AMDTADMENUSTATE
  2
AmdtAdMenuState
  3
DesignerServices
 90
        0
 91
        1
280
     0
281
     0
  0
CLASS
  1
ADAPPL
  2
AcAdAppl
  3
DesignerServices
 90
        0
 91
        1
280
     0
281
     0
  0
CLASS
  1
DEPMGR
  2
AcAdDepMgr
  3
DesignerServices
 90
        0
 91
        1
280
     0
281
     0
  0
CLASS
  1
PARAMMGR
  2
AcAdParamMgr
  3
DesignerServices
 90
        0
 91
        1
280
     0
281
     0
  0
CLASS
  1
PARAMSCOPE
  2
AcAdParamScope
  3
DesignerServices
 90
        0
 91
        5
280
     0
281
     0
  0
CLASS
  1
NAMEDAPPL
  2
AcAdNamedAppl
  3
DesignerServices
 90
        0
 91
        1
280
     0
281
     0
  0
CLASS
  1
AMDTDMMENUSTATE
  2
AmdtDmMenuState
  3
AcMechDwgViewMgmt
 90
        0
 91
        1
280
     0
281
     0
  0
CLASS
  1
MAPIADMODULE
  2
MApiAdModule
  3
MApiAdServices
 90
        0
 91
        1
280
     0
281
     0
  0
CLASS
  1
AMDTAMMENUSTATE
  2
AmdtAmMenuState
  3
DesignerAssemblies
 90
        0
 91
        1
280
     0
281
     0
  0
CLASS
  1
ACAMPROJECT
  2
AcAmProject
  3
DesignerAssemblies
 90
        0
 91
        1
280
     0
281
     0
  0
CLASS
  1
ACAMGRCOMPDEF
  2
AcAmGrCompDef
  3
DesignerAssemblies
 90
        0
 91
        6
280
     0
281
     0
  0
CLASS
  1
ACCMCONTEXT
  2
AcCmContext
  3
DesignerAssemblies
 90
        0
 91
       12
280
     0
281
     0
  0
CLASS
  1
ACAMCOMPDEF
  2
AcAmCompDef
  3
DesignerAssemblies
 90
        0
 91
        6
280
     0
281
     0
  0
CLASS
  1
ACAMCOMPDEFMGR
  2
AcAmCompDefMgr
  3
DesignerAssemblies
 90
        0
 91
        1
280
     0
281
     0
  0
CLASS
  1
AMCONTEXTMGR
  2
AcAmContextMgr
  3
DesignerAssemblies
 90
        0
 91
        1
280
     0
281
     0
  0
CLASS
  1
ACAMCONTEXTMODELER
  2
AcAmContextModeler
  3
DesignerAssemblies
 90
        0
 91
        1
280
     0
281
     0
  0
CLASS
  1
CATALOGSTATE
  2
AcAmCatalogState
  3
DesignerAssemblies
 90
        0
 91
        1
280
     0
281
     0
  0
CLASS
  1
ACAMGRCOMPDEFSET
  2
AcAmGrCompDefSet
  3
DesignerAssemblies
 90
        0
 91
        1
280
     0
281
     0
  0
CLASS
  1
AMDTBROWSERDBTAB
  2
AmdtBrowserDbTab
  3
McadcomServices
 90
        0
 91
        1
280
     0
281
     0
  0
CLASS
  1
CBROWSERAPPOBJECT
  2
CBrowserAppObject
  3
McadcomServices
 90
        0
 91
        3
280
     0
281
     0
  0
CLASS
  1
DM_PLACEHOLDER
  2
AcDmSelsetPlaceholder
  3
AcMechDwgViewMgmt
 90
        0
 91
        1
280
     0
281
     0
  0
CLASS
  1
ACMTHREADLINESTANDARDANSI
  2
AmdtThreadLineStdANSI
  3
"Amdt_StdImp|Product Description: AutoCAD Mechanical 2004 DX|Company: Autodesk"
 90
        0
 91
        1
280
     0
281
     0
  0
CLASS
  1
AMDTNOTETEMPLATEDB
  2
AmdtNoteTemplateDB
  3
AMDT_STDIMP_MODULE_NAME
 90
        0
 91
       10
280
     0
281
     0
  0
CLASS
  1
ACMSTANDARDISO
  2
AcmStandardISO
  3
"Amdt_StdImp|Product Description: AutoCAD Mechanical 2004 DX|Company: Autodesk"
 90
        0
 91
        1
280
     0
281
     0
  0
CLASS
  1
AMDTEDGESTANDARDISO13715
  2
AmdtEdgeStdISO13715
  3
"Amdt_StdImp|Product Description: AutoCAD Mechanical 2004 DX|Company: Autodesk"
 90
        0
 91
        1
280
     0
281
     0
  0
CLASS
  1
ACMSURFSTANDARDISO
  2
AcmSurfTextStdISO
  3
"Amdt_StdImp|Product Description: AutoCAD Mechanical 2004 DX|Company: Autodesk"
 90
        0
 91
        1
280
     0
281
     0
  0
CLASS
  1
ACMFCFSTANDARDISO
  2
AcmFCFStdISO
  3
"Amdt_StdImp|Product Description: AutoCAD Mechanical 2004 DX|Company: Autodesk"
 90
        0
 91
        1
280
     0
281
     0
  0
CLASS
  1
ACMWELDSTANDARDISO
  2
AcmWeldingStdISO
  3
"Amdt_StdImp|Product Description: AutoCAD Mechanical 2004 DX|Company: Autodesk"
 90
        0
 91
        1
280
     0
281
     0
  0
CLASS
  1
ACMIDSTANDARDISO
  2
AcmIdStdISO
  3
"Amdt_StdImp|Product Description: AutoCAD Mechanical 2004 DX|Company: Autodesk"
 90
        0
 91
        1
280
     0
281
     0
  0
CLASS
  1
ACMDATUMSTANDARDISO
  2
AcmDatumStdISO
  3
"Amdt_StdImp|Product Description: AutoCAD Mechanical 2004 DX|Company: Autodesk"
 90
        0
 91
        1
280
     0
281
     0
  0
CLASS
  1
ACMBOMSTANDARDISO
  2
AcmBOMStdISO
  3
"Amdt_StdImp|Product Description: AutoCAD Mechanical 2004 DX|Company: Autodesk"
 90
        0
 91
        1
280
     0
281
     0
  0
CLASS
  1
ACMDETAILSTANDARDISO
  2
AmdtDetailSymStdISO
  3
"Amdt_StdImp|Product Description: AutoCAD Mechanical 2004 DX|Company: Autodesk"
 90
        0
 91
        1
280
     0
281
     0
  0
CLASS
  1
ACMSECTIONSTANDARDISO
  2
AmdtSectionSymStdISO
  3
"Amdt_StdImp|Product Description: AutoCAD Mechanical 2004 DX|Company: Autodesk"
 90
        0
 91
        1
280
     0
281
     0
  0
CLASS
  1
ACMCENTERLINESTANDARDISO
  2
AmdtCenterLineStdISO
  3
"Amdt_StdImp|Product Description: AutoCAD Mechanical 2004 DX|Company: Autodesk"
 90
        0
 91
        1
280
     0
281
     0
  0
CLASS
  1
ACMTHREADLINESTANDARDISO
  2
AmdtThreadLineStdISO
  3
"Amdt_StdImp|Product Description: AutoCAD Mechanical 2004 DX|Company: Autodesk"
 90
        0
 91
        1
280
     0
281
     0
  0
CLASS
  1
ACMNOTESTANDARDISO
  2
AmdtNoteStdISO
  3
"Amdt_StdImp|Product Description: AutoCAD Mechanical 2004 DX|Company: Autodesk"
 90
        0
 91
        1
280
     0
281
     0
  0
CLASS
  1
ACAMGHOLECHARTSTDISO
  2
AcAmgHoleChartStdISO
  3
ACMSYMBB_MODULE_NAME
 90
        0
 91
        1
280
     0
281
     0
  0
CLASS
  1
ADPART
  2
AcAdPart
  3
DesignerServices
 90
        0
 91
        4
280
     0
281
     1
  0
CLASS
  1
ACAMCOMPENT
  2
AcAmCompEnt
  3
DesignerAssemblies
 90
        0
 91
        6
280
     0
281
     1
  0
CLASS
  1
ACAMCOMPENTCLONE
  2
AcAmCompEntClone
  3
DesignerAssemblies
 90
        0
 91
        0
280
     0
281
     1
  0
CLASS
  1
WORKPLANEDISPLAYMGR
  2
AcAdDisplayMgr
  3
DesignerServices
 90
        0
 91
        4
280
     0
281
     0
  0
CLASS
  1
ADBASE
  2
AcAdBase
  3
DesignerServices
 90
        0
 91
        4
280
     0
281
     0
  0
CLASS
  1
BODYID
  2
AcAdBodyId
  3
DesignerServices
 90
        0
 91
        4
280
     0
281
     0
  0
CLASS
  1
ACAMCOMP
  2
AcAmComp
  3
DesignerAssemblies
 90
        0
 91
        6
280
     0
281
     0
  0
CLASS
  1
ACAMCOMPFEEDBACK
  2
AcAmCompFeedback
  3
DesignerAssemblies
 90
        0
 91
        6
280
     0
281
     0
  0
CLASS
  1
ACCMBODY
  2
AcCmBody
  3
DesignerAssemblies
 90
        0
 91
        6
280
     0
281
     0
  0
CLASS
  1
AMDTFORMULAUPDATEDISPATCHER
  2
AmdtFormulaUpdateDispatcher
  3
AcMeServices
 90
        0
 91
        1
280
     0
281
     0
  0
CLASS
  1
DIMASSOC
  2
AcDbDimAssoc
  3
"AcDbDimAssoc|Product Desc:     AcDim ARX App For Dimension|Company:          Autodesk, Inc.|WEB Address:      www.autodesk.com"
 90
        0
 91
       12
280
     0
281
     0
  0
ENDSEC
  0
SECTION
  2
TABLES
  0
TABLE
  2
VPORT
  5
12
330
0
100
AcDbSymbolTable
 70
     5
  0
VPORT
  5
11EE
330
12
100
AcDbSymbolTableRecord
100
AcDbViewportTableRecord
  2
*Active
 70
     0
 10
0.0
 20
0.0
 11
1.0
 21
1.0
 12
366.4940768494759
 22
-214.2670895266423
 13
0.0
 23
0.0
 14
2.5
 24
2.5
 15
10.0
 25
10.0
 16
0.0
 26
0.0
 36
1.0
 17
138.6205451135996
 27
126.4334816348561
 37
0.0
 40
184.4478105885736
 41
1.263157894736842
 42
50.0
 43
0.0
 44
0.0
 50
0.0
 51
0.0
 71
     0
 72
 20000
 73
     1
 74
     1
 75
     0
 76
     0
 77
     0
 78
     0
281
     0
 65
     0
110
0.0
120
0.0
130
0.0
111
1.0
121
0.0
131
0.0
112
0.0
122
1.0
132
0.0
 79
     0
146
0.0
  0
ENDTAB
  0
TABLE
  2
LTYPE
  5
D
330
0
100
AcDbSymbolTable
 70
    22
  0
LTYPE
  5
E
330
D
100
AcDbSymbolTableRecord
100
AcDbLinetypeTableRecord
  2
BYBLOCK
 70
     0
  3

 72
    65
 73
     0
 40
0.0
  0
LTYPE
  5
F
330
D
100
AcDbSymbolTableRecord
100
AcDbLinetypeTableRecord
  2
BYLAYER
 70
     0
  3

 72
    65
 73
     0
 40
0.0
  0
LTYPE
  5
5
330
D
100
AcDbSymbolTableRecord
100
AcDbLinetypeTableRecord
  2
CONTINUOUS
 70
     0
  3
Solid line
 72
    65
 73
     0
 40
0.0
  0
LTYPE
  5
28
330
D
100
AcDbSymbolTableRecord
100
AcDbLinetypeTableRecord
  2
CENTER2
 70
     0
  3
___ _ ___ _ ___ _ ___ _ ___ _ ___ _ ___ _ ___ _
 72
    65
 73
     4
 40
1.125
 49
0.75
 74
     0
 49
-0.125
 74
     0
 49
0.125
 74
     0
 49
-0.125
 74
     0
  0
LTYPE
  5
272
330
D
100
AcDbSymbolTableRecord
100
AcDbLinetypeTableRecord
  2
AM_ISO02W050
 70
     0
  3
__ __ __ __ __ __ __ __ __ __ __ __ __ __ __
 72
    65
 73
     2
 40
7.5
 49
6.0
 74
     0
 49
-1.5
 74
     0
  0
LTYPE
  5
273
330
D
100
AcDbSymbolTableRecord
100
AcDbLinetypeTableRecord
  2
AM_ISO08W050
 70
     0
  3
____ . ____ . ____ . ____ . ____ . ____ . ____
 72
    65
 73
     4
 40
18.0
 49
12.0
 74
     0
 49
-1.5
 74
     0
 49
3.0
 74
     0
 49
-1.5
 74
     0
  0
LTYPE
  5
274
330
D
100
AcDbSymbolTableRecord
100
AcDbLinetypeTableRecord
  2
AM_ISO09W050
 70
     0
  3
_____ . . _____ . . _____ . . ____ .. ____
 72
    65
 73
     6
 40
22.5
 49
12.0
 74
     0
 49
-1.5
 74
     0
 49
3.0
 74
     0
 49
-1.5
 74
     0
 49
3.0
 74
     0
 49
-1.5
 74
     0
  0
LTYPE
  5
275
330
D
100
AcDbSymbolTableRecord
100
AcDbLinetypeTableRecord
  2
Amconstr
 70
     0
  3
_______________________
 72
    65
 73
     2
 40
9999.0
 49
9999.0
 74
     0
 49
0.0
 74
     0
  0
LTYPE
  5
276
330
D
100
AcDbSymbolTableRecord
100
AcDbLinetypeTableRecord
  2
AM_ISO08W050x2
 70
     0
  3
__ . __ . __ . __ . __ . __
 72
    65
 73
     4
 40
9.0
 49
6.0
 74
     0
 49
-0.75
 74
     0
 49
1.5
 74
     0
 49
-0.75
 74
     0
  0
LTYPE
  5
277
330
D
100
AcDbSymbolTableRecord
100
AcDbLinetypeTableRecord
  2
AM_ISO02W050x2
 70
     0
  3
 _ _ _ _ _ _ _ _ _ _ _ _
 72
    65
 73
     2
 40
3.75
 49
3.0
 74
     0
 49
-0.75
 74
     0
  0
LTYPE
  5
27A
330
D
100
AcDbSymbolTableRecord
100
AcDbLinetypeTableRecord
  2
Amzigzag
 70
     0
  3
/\/-/\/-/\/-/\/-/\/-/\/
 72
    65
 73
     2
 40
11.0001
 49
0.0001
 74
     4
 75
   135
340
279
 46
0.04
 50
0.0
 44
0.0
 45
0.0
 49
-11.0
 74
     0
  0
LTYPE
  5
27B
330
D
100
AcDbSymbolTableRecord
100
AcDbLinetypeTableRecord
  2
HIDDEN
 70
     0
  3
Hidden __ __ __ __ __ __ __ __ __ __ __ __ __ _
 72
    65
 73
     2
 40
0.375
 49
0.25
 74
     0
 49
-0.125
 74
     0
  0
LTYPE
  5
27C
330
D
100
AcDbSymbolTableRecord
100
AcDbLinetypeTableRecord
  2
CENTER
 70
     0
  3
Center ____ _ ____ _ ____ _ ____ _ ____ _ ____
 72
    65
 73
     4
 40
2.0
 49
1.25
 74
     0
 49
-0.25
 74
     0
 49
0.25
 74
     0
 49
-0.25
 74
     0
  0
LTYPE
  5
27D
330
D
100
AcDbSymbolTableRecord
100
AcDbLinetypeTableRecord
  2
PHANTOM2
 70
     0
  3
Phantom (.5x) ___ _ _ ___ _ _ ___ _ _ ___ _ _
 72
    65
 73
     6
 40
1.25
 49
0.625
 74
     0
 49
-0.125
 74
     0
 49
0.125
 74
     0
 49
-0.125
 74
     0
 49
0.125
 74
     0
 49
-0.125
 74
     0
  0
LTYPE
  5
27E
330
D
100
AcDbSymbolTableRecord
100
AcDbLinetypeTableRecord
  2
HIDDEN2
 70
     0
  3
Hidden (.5x) _ _ _ _ _ _ _ _ _ _ _ _ _ _ _ _ _
 72
    65
 73
     2
 40
0.1875
 49
0.125
 74
     0
 49
-0.0625
 74
     0
  0
LTYPE
  5
27F
330
D
100
AcDbSymbolTableRecord
100
AcDbLinetypeTableRecord
  2
Amzigzag2
 70
     0
  3
/\/-/\/-/\/-/\/-/\/-/\/
 72
    65
 73
     2
 40
0.4401
 49
0.0001
 74
     4
 75
   135
340
279
 46
0.0016
 50
0.0
 44
0.0
 45
0.0
 49
-0.4400000000000001
 74
     0
  0
LTYPE
  5
28C
330
D
100
AcDbSymbolTableRecord
100
AcDbLinetypeTableRecord
  2
ACANSTGB
 70
     0
  3
__ . . __ . .
 72
    65
 73
     6
 40
0.35433070866
 49
0.15748031496
 74
     0
 49
-0.03937007874
 74
     0
 49
0.03937007874
 74
     0
 49
-0.03937007874
 74
     0
 49
0.03937007874
 74
     0
 49
-0.03937007874
 74
     0
  0
LTYPE
  5
28D
330
D
100
AcDbSymbolTableRecord
100
AcDbLinetypeTableRecord
  2
ACANSTGL
 70
     0
  3
_ _ _ _ _
 72
    65
 73
     2
 40
0.11811023622
 49
0.07874015748
 74
     0
 49
-0.03937007874
 74
     0
  0
LTYPE
  5
3FE
330
D
100
AcDbSymbolTableRecord
100
AcDbLinetypeTableRecord
  2
ACISOWELD
 70
     0
  3
_ _ _ _ _
 72
    65
 73
     2
 40
2.0
 49
2.0
 74
     0
 49
-1.0
 74
     0
  0
LTYPE
  5
3FF
330
D
100
AcDbSymbolTableRecord
100
AcDbLinetypeTableRecord
  2
ACISOTGB
 70
     0
  3
__ . . __ . .
 72
    65
 73
     6
 40
9.0
 49
4.0
 74
     0
 49
-1.0
 74
     0
 49
1.0
 74
     0
 49
-1.0
 74
     0
 49
1.0
 74
     0
 49
-1.0
 74
     0
  0
LTYPE
  5
400
330
D
100
AcDbSymbolTableRecord
100
AcDbLinetypeTableRecord
  2
ACISOTGL
 70
     0
  3
_ _ _ _ _
 72
    65
 73
     2
 40
3.0
 49
2.0
 74
     0
 49
-1.0
 74
     0
  0
LTYPE
  5
BB7
330
D
100
AcDbSymbolTableRecord
100
AcDbLinetypeTableRecord
  2
DASHED
 70
     0
  3
__ __ __ __ __ __ __ __ __ __ __ __ __ __ __ __
 72
    65
 73
     2
 40
0.75
 49
0.5
 74
     0
 49
-0.25
 74
     0
  0
ENDTAB
  0
TABLE
  2
LAYER
  5
A
102
{ACAD_XDICTIONARY
360
40D
102
}
330
0
100
AcDbSymbolTable
 70
    10
  0
LAYER
  5
4
330
A
100
AcDbSymbolTableRecord
100
AcDbLayerTableRecord
  2
0
 70
     0
 62
     2
  6
CONTINUOUS
370
    -3
390
CB
  0
LAYER
  5
1B
330
A
100
AcDbSymbolTableRecord
100
AcDbLayerTableRecord
  2
1
 70
     0
 62
     7
  6
CONTINUOUS
370
    -3
390
CB
  0
LAYER
  5
27
330
A
100
AcDbSymbolTableRecord
100
AcDbLayerTableRecord
  2
3
 70
     0
 62
     1
  6
CENTER2
370
    -3
390
CB
  0
LAYER
  5
D4
330
A
100
AcDbSymbolTableRecord
100
AcDbLayerTableRecord
  2
LOGO
 70
     0
 62
     7
  6
CONTINUOUS
370
    -3
390
CB
  0
LAYER
  5
401
330
A
100
AcDbSymbolTableRecord
100
AcDbLayerTableRecord
  2
AM_VIS
 70
     0
 62
     7
  6
CONTINUOUS
370
    50
390
CB
  0
LAYER
  5
7DF
330
A
100
AcDbSymbolTableRecord
100
AcDbLayerTableRecord
  2
Defpoints
 70
     0
 62
     7
  6
CONTINUOUS
290
     0
370
    -3
390
CB
  0
LAYER
  5
F15
330
A
100
AcDbSymbolTableRecord
100
AcDbLayerTableRecord
  2
DIM
 70
     0
 62
     5
  6
CONTINUOUS
370
    -3
390
CB
  0
LAYER
  5
F16
330
A
100
AcDbSymbolTableRecord
100
AcDbLayerTableRecord
  2
AM_4
 70
     0
 62
     3
  6
CONTINUOUS
370
    25
390
CB
  0
LAYER
  5
F17
330
A
100
AcDbSymbolTableRecord
100
AcDbLayerTableRecord
  2
5
 70
     0
 62
     5
  6
CONTINUOUS
370
    -3
390
CB
  0
ENDTAB
  0
TABLE
  2
STYLE
  5
B
330
0
100
AcDbSymbolTable
 70
     8
  0
STYLE
  5
C
330
B
100
AcDbSymbolTableRecord
100
AcDbTextStyleTableRecord
  2
STANDARD
 70
     0
 40
0.0
 41
1.0
 50
0.0
 71
     0
 42
3.5
  3
ISOCP.SHX
  4

  0
STYLE
  5
1C
330
B
100
AcDbSymbolTableRecord
100
AcDbTextStyleTableRecord
  2
CHINA
 70
     0
 40
0.0
 41
1.0
 50
0.0
 71
     0
 42
3.0
  3
/rubon/c2
  4
CHINA.SHX
  0
STYLE
  5
D5
330
B
100
AcDbSymbolTableRecord
100
AcDbTextStyleTableRecord
  2
chineset
 70
     0
 40
0.0
 41
1.0
 50
0.0
 71
     0
 42
5.0
  3
simplex.shx
  4
chineset.shx
  0
STYLE
  5
279
330
B
100
AcDbSymbolTableRecord
100
AcDbTextStyleTableRecord
  2

 70
     1
 40
0.0
 41
1.0
 50
0.0
 71
     0
 42
3.0
  3
ltypeshp.shx
  4

  0
STYLE
  5
280
330
B
100
AcDbSymbolTableRecord
100
AcDbTextStyleTableRecord
  2
ACANSTS
 70
     0
 40
1.0
 41
1.0
 50
0.0
 71
     0
 42
3.0
  3
romans.shx
  4
chineset.shx
  0
STYLE
  5
28B
330
B
100
AcDbSymbolTableRecord
100
AcDbTextStyleTableRecord
  2
ACANSGDT
 70
     0
 40
0.0
 41
1.0
 50
0.0
 71
     0
 42
3.0
  3
amgdtans.shx
  4

  0
STYLE
  5
402
330
B
100
AcDbSymbolTableRecord
100
AcDbTextStyleTableRecord
  2
ACISOTS
 70
     0
 40
1.0
 41
1.0
 50
0.0
 71
     0
 42
1.0
  3
isocp.shx
  4
chineset.shx
  0
STYLE
  5
403
330
B
100
AcDbSymbolTableRecord
100
AcDbTextStyleTableRecord
  2
ACISOGDT
 70
     0
 40
0.0
 41
1.0
 50
0.0
 71
     0
 42
1.0
  3
amgdt.shx
  4

  0
ENDTAB
  0
TABLE
  2
VIEW
  5
10
330
0
100
AcDbSymbolTable
 70
     0
  0
ENDTAB
  0
TABLE
  2
UCS
  5
11
330
0
100
AcDbSymbolTable
 70
     0
  0
ENDTAB
  0
TABLE
  2
APPID
  5
14
330
0
100
AcDbSymbolTable
 70
    24
  0
APPID
  5
15
330
14
100
AcDbSymbolTableRecord
100
AcDbRegAppTableRecord
  2
ACAD
 70
     0
  0
APPID
  5
254
330
14
100
AcDbSymbolTableRecord
100
AcDbRegAppTableRecord
  2
MCAD_NO_VIS
 70
     0
  0
APPID
  5
255
330
14
100
AcDbSymbolTableRecord
100
AcDbRegAppTableRecord
  2
ACAD_TEMP_GRAPHIC
 70
     0
  0
APPID
  5
266
330
14
100
AcDbSymbolTableRecord
100
AcDbRegAppTableRecord
  2
ACATTRIBSERVICES
 70
     0
  0
APPID
  5
31D
330
14
100
AcDbSymbolTableRecord
100
AcDbRegAppTableRecord
  2
GENIUS_GENDIM_13
 70
     0
  0
APPID
  5
31E
330
14
100
AcDbSymbolTableRecord
100
AcDbRegAppTableRecord
  2
GENIUS_GENDTOL_13
 70
     0
  0
APPID
  5
31F
330
14
100
AcDbSymbolTableRecord
100
AcDbRegAppTableRecord
  2
GENIUS_GE3DTOL_13
 70
     0
  0
APPID
  5
34F
330
14
100
AcDbSymbolTableRecord
100
AcDbRegAppTableRecord
  2
AD_DRAW
 70
     0
  0
APPID
  5
39B
330
14
100
AcDbSymbolTableRecord
100
AcDbRegAppTableRecord
  2
ASURF_PCURVE_APPNAME
 70
     0
  0
APPID
  5
3A0
330
14
100
AcDbSymbolTableRecord
100
AcDbRegAppTableRecord
  2
AMG_3D2D_5.0
 70
     0
  0
APPID
  5
3CF
330
14
100
AcDbSymbolTableRecord
100
AcDbRegAppTableRecord
  2
DESIGNERASSEMBLIES
 70
     0
  0
APPID
  5
3D5
330
14
100
AcDbSymbolTableRecord
100
AcDbRegAppTableRecord
  2
ACADM_DIM_EDIT
 70
     0
  0
APPID
  5
3D6
330
14
100
AcDbSymbolTableRecord
100
AcDbRegAppTableRecord
  2
AMDT_DM_ADJ
 70
     0
  0
APPID
  5
87B
330
14
100
AcDbSymbolTableRecord
100
AcDbRegAppTableRecord
  2
ACAD_PSEXT
 70
     0
  0
APPID
  5
87C
330
14
100
AcDbSymbolTableRecord
100
AcDbRegAppTableRecord
  2
GENIUS_GENOBJ-N-CRS_13
 70
     0
  0
APPID
  5
87D
330
14
100
AcDbSymbolTableRecord
100
AcDbRegAppTableRecord
  2
GENIUS_GENOLIS_13
 70
     0
  0
APPID
  5
87E
330
14
100
AcDbSymbolTableRecord
100
AcDbRegAppTableRecord
  2
GENIUS_GENOENT_13
 70
     0
  0
APPID
  5
87F
330
14
100
AcDbSymbolTableRecord
100
AcDbRegAppTableRecord
  2
GENIUS_GENODEF_13
 70
     0
  0
APPID
  5
880
330
14
100
AcDbSymbolTableRecord
100
AcDbRegAppTableRecord
  2
GENIUS_GENOREF_13
 70
     0
  0
APPID
  5
881
330
14
100
AcDbSymbolTableRecord
100
AcDbRegAppTableRecord
  2
GENIUS_GENREC_14
 70
     0
  0
APPID
  5
882
330
14
100
AcDbSymbolTableRecord
100
AcDbRegAppTableRecord
  2
GENIUS_GENOBJ-N-REC_13
 70
     0
  0
APPID
  5
9A5
330
14
100
AcDbSymbolTableRecord
100
AcDbRegAppTableRecord
  2
ACAD_DSTYLE_DIMTEXT_FILL
 70
     0
  0
APPID
  5
DC7
330
14
100
AcDbSymbolTableRecord
100
AcDbRegAppTableRecord
  2
GENIUS_GENDIMSH_14
 70
     0
  0
APPID
  5
F18
330
14
100
AcDbSymbolTableRecord
100
AcDbRegAppTableRecord
  2
AcAecLayerStandard
 70
     0
  0
ENDTAB
  0
TABLE
  2
DIMSTYLE
  5
16
330
0
100
AcDbSymbolTable
 70
    20
100
AcDbDimStyleTable
 71
     2
340
406
340
1E
  0
DIMSTYLE
105
1E
330
16
100
AcDbSymbolTableRecord
100
AcDbDimStyleTableRecord
  2
STANDARD
 70
     0
271
     2
272
     2
279
     2
284
     8
285
     8
286
     8
340
1C
  0
DIMSTYLE
105
291
330
16
100
AcDbSymbolTableRecord
100
AcDbDimStyleTableRecord
  2
AM_ANSI
 70
     0
  4
mm
 41
0.1
 42
0.05
 43
0.5
 44
0.1
 47
0.1
 48
0.1
 78
     7
 79
     2
140
0.12
141
0.0
146
0.71
147
0.06
176
   256
177
   256
178
     2
274
     4
284
     7
340
C
371
    -1
372
    -1
  0
DIMSTYLE
105
292
330
16
100
AcDbSymbolTableRecord
100
AcDbDimStyleTableRecord
  2
AM_ANSI$3
 70
     0
  4
mm
 41
0.1
 42
0.05
 43
0.5
 44
0.1
 47
0.1
 48
0.1
 78
     7
 79
     2
140
0.12
141
0.0
146
0.71
147
0.06
176
   256
177
   256
178
     2
274
     4
284
     7
288
     1
289
     0
340
C
371
    -1
372
    -1
  0
DIMSTYLE
105
293
330
16
100
AcDbSymbolTableRecord
100
AcDbDimStyleTableRecord
  2
AM_ANSI$4
 70
     0
  4
mm
 41
0.1
 42
0.05
 43
0.5
 44
0.1
 47
0.1
 48
0.1
 78
     7
 79
     2
140
0.12
141
0.0
146
0.71
147
0.06
176
   256
177
   256
178
     2
274
     4
284
     7
288
     1
289
     0
340
C
371
    -1
372
    -1
  0
DIMSTYLE
105
294
330
16
100
AcDbSymbolTableRecord
100
AcDbDimStyleTableRecord
  2
AM_ANSI$7
 70
     0
  4
mm
 41
0.1
 42
0.05
 43
0.5
 44
0.1
 47
0.1
 48
0.1
 78
     7
 79
     2
140
0.24
141
0.0
146
0.71
147
0.06
176
   256
177
   256
178
     2
274
     4
284
     7
340
C
371
    -1
372
    -1
  0
DIMSTYLE
105
295
330
16
100
AcDbSymbolTableRecord
100
AcDbDimStyleTableRecord
  2
AM_ANSI$SF
 70
     0
  4
mm
 41
0.1
 42
0.05
 43
0.5
 44
0.1
 47
0.1
 48
0.1
 75
     1
 76
     1
 78
     7
 79
     2
140
0.12
141
0.0
146
0.71
147
0.06
176
   256
177
   256
178
     2
274
     4
284
     7
340
C
371
    -1
372
    -1
  0
DIMSTYLE
105
29A
330
16
100
AcDbSymbolTableRecord
100
AcDbDimStyleTableRecord
  2
AM_ANSI$SH
 70
     0
  4
mm
 41
0.1
 42
0.05
 43
0.5
 44
0.1
 47
0.1
 48
0.1
 75
     1
 76
     1
 78
     7
 79
     2
140
0.12
141
0.0
146
0.71
147
0.06
173
     1
176
   256
177
   256
178
     2
274
     4
284
     7
340
C
341
296
343
296
371
    -1
372
    -1
  0
DIMSTYLE
105
406
330
16
100
AcDbSymbolTableRecord
100
AcDbDimStyleTableRecord
  2
AM_ISO
 70
     0
  4
"
 41
3.5
 42
1.0
 43
8.0
 44
1.0
 47
0.1
 48
0.1
 73
     0
 74
     0
 77
     1
 78
     8
 79
     2
140
3.5
141
0.0
143
0.0393701
146
0.71
147
1.0
172
     1
176
   256
177
   256
178
   256
271
     2
272
     2
283
     0
284
     8
285
     8
340
C
371
    -1
372
    -1
  0
DIMSTYLE
105
407
330
16
100
AcDbSymbolTableRecord
100
AcDbDimStyleTableRecord
  2
AM_ISO$SF
 70
     0
  4
"
 41
2.5
 42
1.0
 43
10.0
 44
1.0
 47
0.1
 48
0.1
 73
     0
 74
     0
 75
     1
 76
     1
 77
     1
 78
     8
 79
     2
140
3.5
141
0.0
143
0.0393701
146
0.71
147
1.0
172
     1
176
   256
177
   256
178
   256
271
     2
272
     2
283
     0
284
     8
340
C
371
    -1
372
    -1
  0
DIMSTYLE
105
408
330
16
100
AcDbSymbolTableRecord
100
AcDbDimStyleTableRecord
  2
AM_ISO$SH
 70
     0
  4
"
 41
2.5
 42
1.0
 43
10.0
 44
1.0
 47
0.1
 48
0.1
 73
     0
 74
     0
 75
     1
 76
     1
 77
     1
 78
     8
 79
     2
140
3.5
141
0.0
143
0.0393701
144
2.0
146
0.71
147
1.0
172
     1
173
     1
176
   256
177
   256
178
   256
271
     2
272
     2
283
     0
284
     8
340
C
343
296
371
    -1
372
    -1
  0
DIMSTYLE
105
409
102
{ACAD_REACTORS
330
1058
330
105B
102
}
330
16
100
AcDbSymbolTableRecord
100
AcDbDimStyleTableRecord
  2
AM_ISO$3
 70
     0
  4
"
 41
3.5
 42
1.0
 43
8.0
 44
1.0
 47
0.1
 48
0.1
 73
     0
 77
     1
 78
     8
 79
     2
140
3.5
141
0.0
143
0.0393701
146
0.71
147
1.0
176
   256
177
   256
178
   256
271
     2
272
     2
283
     0
284
     8
285
     8
288
     1
289
     0
340
C
371
    -1
372
    -1
  0
DIMSTYLE
105
40A
330
16
100
AcDbSymbolTableRecord
100
AcDbDimStyleTableRecord
  2
AM_ISO$4
 70
     0
  4
"
 41
3.5
 42
1.0
 43
8.0
 44
1.0
 47
0.1
 48
0.1
 73
     0
 77
     1
 78
     8
 79
     2
140
3.5
141
0.0
143
0.0393701
146
0.71
147
1.0
176
   256
177
   256
178
   256
271
     2
272
     2
283
     0
284
     8
285
     8
288
     1
289
     0
340
C
371
    -1
372
    -1
  0
DIMSTYLE
105
40B
330
16
100
AcDbSymbolTableRecord
100
AcDbDimStyleTableRecord
  2
AM_ISO$6
 70
     0
  4
"
 41
3.5
 42
1.0
 43
8.0
 44
1.0
 47
0.1
 48
0.1
 73
     0
 74
     0
 78
     8
 79
     2
140
3.5
141
0.0
143
0.0393701
146
0.71
147
1.0
172
     1
176
   256
177
   256
178
   256
271
     2
272
     2
283
     0
284
     8
285
     8
340
C
371
    -1
372
    -1
  0
DIMSTYLE
105
40C
102
{ACAD_REACTORS
330
E42
102
}
330
16
100
AcDbSymbolTableRecord
100
AcDbDimStyleTableRecord
  2
AM_ISO$7
 70
     0
  4
"
 41
3.5
 42
1.0
 43
8.0
 44
1.0
 47
0.1
 48
0.1
 73
     0
 74
     0
 77
     1
 78
     8
 79
     2
140
5.0
141
0.0
143
0.0393701
146
0.71
147
1.5
172
     1
176
   256
177
   256
178
   256
271
     2
272
     2
283
     0
284
     8
285
     8
340
C
371
    -1
372
    -1
  0
DIMSTYLE
105
7DA
330
16
100
AcDbSymbolTableRecord
100
AcDbDimStyleTableRecord
  2
STANDARD$0
 70
     0
271
     2
272
     2
279
     2
284
     8
285
     8
286
     8
340
1C
  0
DIMSTYLE
105
B8F
102
{ACAD_REACTORS
330
1048
330
1049
330
104A
330
104B
330
104C
330
104D
330
104E
330
104F
330
1052
330
1055
330
1071
102
}
330
16
100
AcDbSymbolTableRecord
100
AcDbDimStyleTableRecord
  2
AM_ISO$0
 70
     0
  4
"
 41
3.5
 42
1.0
 43
8.0
 44
1.0
 47
0.1
 48
0.1
 73
     0
 74
     0
 77
     1
 78
     8
 79
     2
140
3.5
141
0.0
143
0.0393701
146
0.71
147
1.0
172
     1
176
   256
177
   256
178
   256
271
     2
272
     2
283
     0
284
     8
285
     8
340
C
371
    -1
372
    -1
  0
ENDTAB
  0
TABLE
  2
BLOCK_RECORD
  5
1
330
0
100
AcDbSymbolTable
 70
    53
  0
BLOCK_RECORD
  5
2
102
{ACAD_XDICTIONARY
360
226
102
}
330
1
100
AcDbSymbolTableRecord
100
AcDbBlockTableRecord
  2
*MODEL_SPACE
340
CE
  0
BLOCK_RECORD
  5
7
102
{ACAD_XDICTIONARY
360
228
102
}
330
1
100
AcDbSymbolTableRecord
100
AcDbBlockTableRecord
  2
*PAPER_SPACE
340
CF
  0
BLOCK_RECORD
  5
296
330
1
100
AcDbSymbolTableRecord
100
AcDbBlockTableRecord
  2
GENAXEH
340
0
  0
BLOCK_RECORD
  5
3C6
330
1
100
AcDbSymbolTableRecord
100
AcDbBlockTableRecord
  2
*U1
340
0
  0
BLOCK_RECORD
  5
9FC
330
1
100
AcDbSymbolTableRecord
100
AcDbBlockTableRecord
  2
*U6
340
0
102
{BLKREFS
331
A0E
331
A0F
331
A13
102
}
  0
BLOCK_RECORD
  5
A00
330
1
100
AcDbSymbolTableRecord
100
AcDbBlockTableRecord
  2
*U7
340
0
102
{BLKREFS
331
A10
102
}
  0
BLOCK_RECORD
  5
A04
330
1
100
AcDbSymbolTableRecord
100
AcDbBlockTableRecord
  2
*U8
340
0
102
{BLKREFS
331
A11
102
}
  0
BLOCK_RECORD
  5
A08
330
1
100
AcDbSymbolTableRecord
100
AcDbBlockTableRecord
  2
*U9
340
0
102
{BLKREFS
331
A12
102
}
  0
BLOCK_RECORD
  5
A0C
330
1
100
AcDbSymbolTableRecord
100
AcDbBlockTableRecord
  2
*U10
340
0
  0
BLOCK_RECORD
  5
1074
330
1
100
AcDbSymbolTableRecord
100
AcDbBlockTableRecord
  2
*D40
340
0
  0
BLOCK_RECORD
  5
1082
330
1
100
AcDbSymbolTableRecord
100
AcDbBlockTableRecord
  2
*D41
340
0
  0
BLOCK_RECORD
  5
108E
330
1
100
AcDbSymbolTableRecord
100
AcDbBlockTableRecord
  2
*D42
340
0
  0
BLOCK_RECORD
  5
109A
330
1
100
AcDbSymbolTableRecord
100
AcDbBlockTableRecord
  2
*D43
340
0
  0
BLOCK_RECORD
  5
10A6
330
1
100
AcDbSymbolTableRecord
100
AcDbBlockTableRecord
  2
*D44
340
0
  0
BLOCK_RECORD
  5
10B4
330
1
100
AcDbSymbolTableRecord
100
AcDbBlockTableRecord
  2
*D45
340
0
  0
BLOCK_RECORD
  5
10C2
330
1
100
AcDbSymbolTableRecord
100
AcDbBlockTableRecord
  2
*D46
340
0
  0
BLOCK_RECORD
  5
1113
330
1
100
AcDbSymbolTableRecord
100
AcDbBlockTableRecord
  2
*D47
340
0
  0
BLOCK_RECORD
  5
111F
330
1
100
AcDbSymbolTableRecord
100
AcDbBlockTableRecord
  2
*D48
340
0
  0
BLOCK_RECORD
  5
112D
330
1
100
AcDbSymbolTableRecord
100
AcDbBlockTableRecord
  2
*D49
340
0
  0
BLOCK_RECORD
  5
1139
330
1
100
AcDbSymbolTableRecord
100
AcDbBlockTableRecord
  2
*D50
340
0
  0
BLOCK_RECORD
  5
1142
330
1
100
AcDbSymbolTableRecord
100
AcDbBlockTableRecord
  2
*D51
340
0
  0
BLOCK_RECORD
  5
114B
330
1
100
AcDbSymbolTableRecord
100
AcDbBlockTableRecord
  2
*D52
340
0
  0
ENDTAB
  0
ENDSEC
  0
SECTION
  2
BLOCKS
  0
BLOCK
  5
3
330
2
100
AcDbEntity
  8
0
100
AcDbBlockBegin
  2
*MODEL_SPACE
 70
     0
 10
0.0
 20
0.0
 30
0.0
  3
*MODEL_SPACE
  1

  0
ENDBLK
  5
6
330
2
100
AcDbEntity
  8
0
100
AcDbBlockEnd
  0
BLOCK
  5
8
330
7
100
AcDbEntity
 67
     1
  8
0
100
AcDbBlockBegin
  2
*PAPER_SPACE
 70
     0
 10
0.0
 20
0.0
 30
0.0
  3
*PAPER_SPACE
  1

  0
ENDBLK
  5
9
330
7
100
AcDbEntity
 67
     1
  8
0
100
AcDbBlockEnd
  0
BLOCK
  5
298
330
296
100
AcDbEntity
  8
0
100
AcDbBlockBegin
  2
GENAXEH
 70
     0
 10
0.0
 20
0.0
 30
0.0
  3
GENAXEH
  1

  0
LINE
  5
297
330
296
100
AcDbEntity
  8
0
100
AcDbLine
 10
-1.0
 20
0.0
 30
0.0
 11
1.0
 21
0.0
 31
0.0
  0
ENDBLK
  5
299
330
296
100
AcDbEntity
  8
0
100
AcDbBlockEnd
  0
BLOCK
  5
3C7
330
3C6
100
AcDbEntity
  8
0
100
AcDbBlockBegin
  2
*U1
 70
     1
 10
0.0
 20
0.0
 30
0.0
  3
*U1
  1

  0
ENDBLK
  5
3C8
330
3C6
100
AcDbEntity
  8
0
100
AcDbBlockEnd
  0
BLOCK
  5
9FD
330
9FC
100
AcDbEntity
  8
0
100
AcDbBlockBegin
  2
*U6
 70
     1
 10
0.0
 20
0.0
 30
0.0
  3
*U6
  1

  0
ENDBLK
  5
9FF
330
9FC
100
AcDbEntity
  8
0
100
AcDbBlockEnd
  0
BLOCK
  5
A01
330
A00
100
AcDbEntity
  8
0
100
AcDbBlockBegin
  2
*U7
 70
     1
 10
0.0
 20
0.0
 30
0.0
  3
*U7
  1

  0
ENDBLK
  5
A03
330
A00
100
AcDbEntity
  8
0
100
AcDbBlockEnd
  0
BLOCK
  5
A05
330
A04
100
AcDbEntity
  8
0
100
AcDbBlockBegin
  2
*U8
 70
     1
 10
0.0
 20
0.0
 30
0.0
  3
*U8
  1

  0
ENDBLK
  5
A07
330
A04
100
AcDbEntity
  8
0
100
AcDbBlockEnd
  0
BLOCK
  5
A09
330
A08
100
AcDbEntity
  8
0
100
AcDbBlockBegin
  2
*U9
 70
     1
 10
0.0
 20
0.0
 30
0.0
  3
*U9
  1

  0
ENDBLK
  5
A0B
330
A08
100
AcDbEntity
  8
0
100
AcDbBlockEnd
  0
BLOCK
  5
A0D
330
A0C
100
AcDbEntity
  8
0
100
AcDbBlockBegin
  2
*U10
 70
     1
 10
0.0
 20
0.0
 30
0.0
  3
*U10
  1

  0
ENDBLK
  5
A14
330
A0C
100
AcDbEntity
  8
0
100
AcDbBlockEnd
  0
BLOCK
  5
1080
330
1074
100
AcDbEntity
  8
0
100
AcDbBlockBegin
  2
*D40
 70
     1
 10
0.0
 20
0.0
 30
0.0
  3
*D40
  1

  0
LINE
  5
1165
330
1074
100
AcDbEntity
  8
DIM
100
AcDbLine
 10
553.3414266729733
 20
-63.11954755859344
 30
0.0
 11
553.3414266729733
 21
-41.91106755859343
 31
0.0
  0
LINE
  5
1166
330
1074
100
AcDbEntity
  8
DIM
100
AcDbLine
 10
555.3414266729732
 20
-50.11954755859344
 30
0.0
 11
555.3414266729732
 21
-41.91106755859343
 31
0.0
  0
LINE
  5
1167
330
1074
100
AcDbEntity
  8
DIM
100
AcDbLine
 10
549.8414266729732
 20
-42.91106755859343
 30
0.0
 11
546.3414266729732
 21
-42.91106755859343
 31
0.0
  0
LINE
  5
1168
330
1074
100
AcDbEntity
  8
DIM
100
AcDbLine
 10
558.8414266729732
 20
-42.91106755859343
 30
0.0
 11
562.3414266729732
 21
-42.91106755859343
 31
0.0
  0
LINE
  5
1169
330
1074
100
AcDbEntity
  8
DIM
100
AcDbLine
 10
553.3414266729733
 20
-42.91106755859343
 30
0.0
 11
555.3414266729732
 21
-42.91106755859343
 31
0.0
  0
SOLID
  5
116A
330
1074
100
AcDbEntity
  8
DIM
100
AcDbTrace
 10
549.8414266729732
 20
-42.32773422526009
 30
0.0
 11
549.8414266729732
 21
-43.49440089192676
 31
0.0
 12
553.3414266729733
 22
-42.91106755859343
 32
0.0
 13
553.3414266729733
 23
-42.91106755859343
 33
0.0
  0
SOLID
  5
116B
330
1074
100
AcDbEntity
  8
DIM
100
AcDbTrace
 10
558.8414266729732
 20
-42.32773422526009
 30
0.0
 11
558.8414266729732
 21
-43.49440089192676
 31
0.0
 12
555.3414266729732
 22
-42.91106755859343
 32
0.0
 13
555.3414266729732
 23
-42.91106755859343
 33
0.0
  0
MTEXT
  5
116C
330
1074
100
AcDbEntity
  8
DIM
100
AcDbMText
 10
554.3414266729732
 20
-40.16072307040444
 30
0.0
 40
3.5
 41
0.0
 71
     5
 72
     1
  1
2
 73
     1
 44
1.0
  0
POINT
  5
116D
330
1074
100
AcDbEntity
  8
Defpoints
 62
     0
100
AcDbPoint
 10
553.3414266729733
 20
-64.11954755859344
 30
0.0
  0
POINT
  5
116E
330
1074
100
AcDbEntity
  8
Defpoints
 62
     0
100
AcDbPoint
 10
555.3414266729732
 20
-51.11954755859343
 30
0.0
  0
POINT
  5
116F
330
1074
100
AcDbEntity
  8
Defpoints
 62
     0
100
AcDbPoint
 10
555.3414266729732
 20
-42.91106755859343
 30
0.0
  0
ENDBLK
  5
1081
330
1074
100
AcDbEntity
  8
0
100
AcDbBlockEnd
  0
BLOCK
  5
108C
330
1082
100
AcDbEntity
  8
0
100
AcDbBlockBegin
  2
*D41
 70
     1
 10
0.0
 20
0.0
 30
0.0
  3
*D41
  1

  0
LINE
  5
1170
330
1082
100
AcDbEntity
  8
DIM
100
AcDbLine
 10
566.3414266729732
 20
-103.6195475585934
 30
0.0
 11
566.3414266729732
 21
-111.0671681957294
 31
0.0
  0
LINE
  5
1171
330
1082
100
AcDbEntity
  8
DIM
100
AcDbLine
 10
594.3414266729733
 20
-102.1195475585934
 30
0.0
 11
594.3414266729733
 21
-111.0671681957294
 31
0.0
  0
LINE
  5
1172
330
1082
100
AcDbEntity
  8
DIM
100
AcDbLine
 10
569.8414266729733
 20
-110.0671681957294
 30
0.0
 11
590.8414266729733
 21
-110.0671681957294
 31
0.0
  0
SOLID
  5
1173
330
1082
100
AcDbEntity
  8
DIM
100
AcDbTrace
 10
569.8414266729733
 20
-109.4838348623961
 30
0.0
 11
569.8414266729733
 21
-110.6505015290627
 31
0.0
 12
566.3414266729732
 22
-110.0671681957294
 32
0.0
 13
566.3414266729732
 23
-110.0671681957294
 33
0.0
  0
SOLID
  5
1174
330
1082
100
AcDbEntity
  8
DIM
100
AcDbTrace
 10
590.8414266729733
 20
-109.4838348623961
 30
0.0
 11
590.8414266729733
 21
-110.6505015290627
 31
0.0
 12
594.3414266729733
 22
-110.0671681957294
 32
0.0
 13
594.3414266729733
 23
-110.0671681957294
 33
0.0
  0
MTEXT
  5
1175
330
1082
100
AcDbEntity
  8
DIM
100
AcDbMText
 10
580.3414266729732
 20
-107.3168237075404
 30
0.0
 40
3.5
 41
0.0
 71
     5
 72
     1
  1
28
 73
     1
 44
1.0
  0
POINT
  5
1176
330
1082
100
AcDbEntity
  8
Defpoints
 62
     0
100
AcDbPoint
 10
566.3414266729732
 20
-102.6195475585934
 30
0.0
  0
POINT
  5
1177
330
1082
100
AcDbEntity
  8
Defpoints
 62
     0
100
AcDbPoint
 10
594.3414266729733
 20
-101.1195475585934
 30
0.0
  0
POINT
  5
1178
330
1082
100
AcDbEntity
  8
Defpoints
 62
     0
100
AcDbPoint
 10
594.3414266729733
 20
-110.0671681957294
 30
0.0
  0
ENDBLK
  5
108D
330
1082
100
AcDbEntity
  8
0
100
AcDbBlockEnd
  0
BLOCK
  5
1098
330
108E
100
AcDbEntity
  8
0
100
AcDbBlockBegin
  2
*D42
 70
     1
 10
0.0
 20
0.0
 30
0.0
  3
*D42
  1

  0
LINE
  5
1179
330
108E
100
AcDbEntity
  8
DIM
100
AcDbLine
 10
555.3414266729732
 20
-50.11954755859344
 30
0.0
 11
555.3414266729732
 21
-41.91106755859354
 31
0.0
  0
LINE
  5
117A
330
108E
100
AcDbEntity
  8
DIM
100
AcDbLine
 10
594.3414266729733
 20
-50.11954755859344
 30
0.0
 11
594.3414266729733
 21
-41.91106755859354
 31
0.0
  0
LINE
  5
117B
330
108E
100
AcDbEntity
  8
DIM
100
AcDbLine
 10
558.8414266729732
 20
-42.91106755859354
 30
0.0
 11
590.8414266729733
 21
-42.91106755859354
 31
0.0
  0
SOLID
  5
117C
330
108E
100
AcDbEntity
  8
DIM
100
AcDbTrace
 10
558.8414266729732
 20
-42.32773422526021
 30
0.0
 11
558.8414266729732
 21
-43.49440089192688
 31
0.0
 12
555.3414266729732
 22
-42.91106755859354
 32
0.0
 13
555.3414266729732
 23
-42.91106755859354
 33
0.0
  0
SOLID
  5
117D
330
108E
100
AcDbEntity
  8
DIM
100
AcDbTrace
 10
590.8414266729733
 20
-42.32773422526021
 30
0.0
 11
590.8414266729733
 21
-43.49440089192688
 31
0.0
 12
594.3414266729733
 22
-42.91106755859354
 32
0.0
 13
594.3414266729733
 23
-42.91106755859354
 33
0.0
  0
MTEXT
  5
117E
330
108E
100
AcDbEntity
  8
DIM
100
AcDbMText
 10
574.8414266729732
 20
-40.16106755859354
 30
0.0
 40
3.5
 41
0.0
 71
     5
 72
     1
  1
39
 73
     1
 44
1.0
  0
POINT
  5
117F
330
108E
100
AcDbEntity
  8
Defpoints
 62
     0
100
AcDbPoint
 10
555.3414266729732
 20
-51.11954755859343
 30
0.0
  0
POINT
  5
1180
330
108E
100
AcDbEntity
  8
Defpoints
 62
     0
100
AcDbPoint
 10
594.3414266729733
 20
-51.11954755859343
 30
0.0
  0
POINT
  5
1181
330
108E
100
AcDbEntity
  8
Defpoints
 62
     0
100
AcDbPoint
 10
594.3414266729733
 20
-42.91106755859354
 30
0.0
  0
ENDBLK
  5
1099
330
108E
100
AcDbEntity
  8
0
100
AcDbBlockEnd
  0
BLOCK
  5
10A4
330
109A
100
AcDbEntity
  8
0
100
AcDbBlockBegin
  2
*D43
 70
     1
 10
0.0
 20
0.0
 30
0.0
  3
*D43
  1

  0
LINE
  5
1182
330
109A
100
AcDbEntity
  8
DIM
100
AcDbLine
 10
488.7544145136593
 20
-87.61954755859344
 30
0.0
 11
527.587974086508
 21
-87.61954755859344
 31
0.0
  0
LINE
  5
1183
330
109A
100
AcDbEntity
  8
DIM
100
AcDbLine
 10
488.8815245136592
 20
-99.61954755859345
 30
0.0
 11
527.587974086508
 21
-99.61954755859345
 31
0.0
  0
LINE
  5
1184
330
109A
100
AcDbEntity
  8
DIM
100
AcDbLine
 10
526.587974086508
 20
-91.11954755859343
 30
0.0
 11
526.587974086508
 21
-96.11954755859343
 31
0.0
  0
SOLID
  5
1185
330
109A
100
AcDbEntity
  8
DIM
100
AcDbTrace
 10
526.0046407531746
 20
-91.11954755859343
 30
0.0
 11
527.1713074198413
 21
-91.11954755859343
 31
0.0
 12
526.587974086508
 22
-87.61954755859344
 32
0.0
 13
526.587974086508
 23
-87.61954755859344
 33
0.0
  0
SOLID
  5
1186
330
109A
100
AcDbEntity
  8
DIM
100
AcDbTrace
 10
526.0046407531746
 20
-96.11954755859343
 30
0.0
 11
527.1713074198413
 21
-96.11954755859343
 31
0.0
 12
526.587974086508
 22
-99.61954755859345
 32
0.0
 13
526.587974086508
 23
-99.61954755859345
 33
0.0
  0
MTEXT
  5
1187
330
109A
100
AcDbEntity
  8
DIM
100
AcDbMText
 10
523.837629598319
 20
-93.61954755859343
 30
0.0
 40
3.5
 41
0.0
 71
     5
 72
     1
  1
12
 11
0.0000000000000001
 21
1.0
 31
0.0
 73
     1
 44
1.0
  0
POINT
  5
1188
330
109A
100
AcDbEntity
  8
Defpoints
 62
     0
100
AcDbPoint
 10
487.7544145136593
 20
-87.61954755859344
 30
0.0
  0
POINT
  5
1189
330
109A
100
AcDbEntity
  8
Defpoints
 62
     0
100
AcDbPoint
 10
487.8815245136592
 20
-99.61954755859345
 30
0.0
  0
POINT
  5
118A
330
109A
100
AcDbEntity
  8
Defpoints
 62
     0
100
AcDbPoint
 10
526.587974086508
 20
-99.61954755859345
 30
0.0
  0
ENDBLK
  5
10A5
330
109A
100
AcDbEntity
  8
0
100
AcDbBlockEnd
  0
BLOCK
  5
10B2
330
10A6
100
AcDbEntity
  8
0
100
AcDbBlockBegin
  2
*D44
 70
     1
 10
0.0
 20
0.0
 30
0.0
  3
*D44
  1

  0
LINE
  5
118B
330
10A6
100
AcDbEntity
  8
DIM
100
AcDbLine
 10
488.8815245136592
 20
-99.61954755859345
 30
0.0
 11
527.587974086508
 21
-99.61954755859345
 31
0.0
  0
LINE
  5
118C
330
10A6
100
AcDbEntity
  8
DIM
100
AcDbLine
 10
493.725264513659
 20
-102.6195475585934
 30
0.0
 11
527.587974086508
 21
-102.6195475585934
 31
0.0
  0
LINE
  5
118D
330
10A6
100
AcDbEntity
  8
DIM
100
AcDbLine
 10
526.587974086508
 20
-96.11954755859343
 30
0.0
 11
526.587974086508
 21
-92.61954755859344
 31
0.0
  0
LINE
  5
118E
330
10A6
100
AcDbEntity
  8
DIM
100
AcDbLine
 10
526.587974086508
 20
-106.1195475585934
 30
0.0
 11
526.587974086508
 21
-109.6195475585934
 31
0.0
  0
LINE
  5
118F
330
10A6
100
AcDbEntity
  8
DIM
100
AcDbLine
 10
526.587974086508
 20
-99.61954755859345
 30
0.0
 11
526.587974086508
 21
-102.6195475585934
 31
0.0
  0
SOLID
  5
1190
330
10A6
100
AcDbEntity
  8
DIM
100
AcDbTrace
 10
526.0046407531746
 20
-96.11954755859343
 30
0.0
 11
527.1713074198413
 21
-96.11954755859343
 31
0.0
 12
526.587974086508
 22
-99.61954755859345
 32
0.0
 13
526.587974086508
 23
-99.61954755859345
 33
0.0
  0
SOLID
  5
1191
330
10A6
100
AcDbEntity
  8
DIM
100
AcDbTrace
 10
526.0046407531746
 20
-106.1195475585934
 30
0.0
 11
527.1713074198413
 21
-106.1195475585934
 31
0.0
 12
526.587974086508
 22
-102.6195475585934
 32
0.0
 13
526.587974086508
 23
-102.6195475585934
 33
0.0
  0
MTEXT
  5
1192
330
10A6
100
AcDbEntity
  8
DIM
100
AcDbMText
 10
523.8379740865079
 20
-101.1195475585933
 30
0.0
 40
3.5
 41
0.0
 71
     5
 72
     1
  1
3
 11
0.0000000000000001
 21
1.0
 31
0.0
 73
     1
 44
1.0
  0
POINT
  5
1193
330
10A6
100
AcDbEntity
  8
Defpoints
 62
     0
100
AcDbPoint
 10
487.8815245136592
 20
-99.61954755859345
 30
0.0
  0
POINT
  5
1194
330
10A6
100
AcDbEntity
  8
Defpoints
 62
     0
100
AcDbPoint
 10
492.725264513659
 20
-102.6195475585934
 30
0.0
  0
POINT
  5
1195
330
10A6
100
AcDbEntity
  8
Defpoints
 62
     0
100
AcDbPoint
 10
526.587974086508
 20
-102.6195475585934
 30
0.0
  0
ENDBLK
  5
10B3
330
10A6
100
AcDbEntity
  8
0
100
AcDbBlockEnd
  0
BLOCK
  5
10C0
330
10B4
100
AcDbEntity
  8
0
100
AcDbBlockBegin
  2
*D45
 70
     1
 10
0.0
 20
0.0
 30
0.0
  3
*D45
  1

  0
LINE
  5
1196
330
10B4
100
AcDbEntity
  8
DIM
100
AcDbLine
 10
481.725264513659
 20
-103.6195475585934
 30
0.0
 11
481.725264513659
 21
-111.4471681957297
 31
0.0
  0
LINE
  5
1197
330
10B4
100
AcDbEntity
  8
DIM
100
AcDbLine
 10
489.725264513659
 20
-103.6195475585934
 30
0.0
 11
489.725264513659
 21
-111.4471681957297
 31
0.0
  0
LINE
  5
1198
330
10B4
100
AcDbEntity
  8
DIM
100
AcDbLine
 10
478.225264513659
 20
-110.4471681957297
 30
0.0
 11
474.725264513659
 21
-110.4471681957297
 31
0.0
  0
LINE
  5
1199
330
10B4
100
AcDbEntity
  8
DIM
100
AcDbLine
 10
493.225264513659
 20
-110.4471681957297
 30
0.0
 11
496.725264513659
 21
-110.4471681957297
 31
0.0
  0
LINE
  5
119A
330
10B4
100
AcDbEntity
  8
DIM
100
AcDbLine
 10
481.725264513659
 20
-110.4471681957297
 30
0.0
 11
489.725264513659
 21
-110.4471681957297
 31
0.0
  0
SOLID
  5
119B
330
10B4
100
AcDbEntity
  8
DIM
100
AcDbTrace
 10
478.225264513659
 20
-109.8638348623964
 30
0.0
 11
478.225264513659
 21
-111.0305015290631
 31
0.0
 12
481.725264513659
 22
-110.4471681957297
 32
0.0
 13
481.725264513659
 23
-110.4471681957297
 33
0.0
  0
SOLID
  5
119C
330
10B4
100
AcDbEntity
  8
DIM
100
AcDbTrace
 10
493.225264513659
 20
-109.8638348623964
 30
0.0
 11
493.225264513659
 21
-111.0305015290631
 31
0.0
 12
489.725264513659
 22
-110.4471681957297
 32
0.0
 13
489.725264513659
 23
-110.4471681957297
 33
0.0
  0
MTEXT
  5
119D
330
10B4
100
AcDbEntity
  8
DIM
100
AcDbMText
 10
485.725264513659
 20
-107.6968237075407
 30
0.0
 40
3.5
 41
0.0
 71
     5
 72
     1
  1
8.2
 73
     1
 44
1.0
  0
POINT
  5
119E
330
10B4
100
AcDbEntity
  8
Defpoints
 62
     0
100
AcDbPoint
 10
481.725264513659
 20
-102.6195475585934
 30
0.0
  0
POINT
  5
119F
330
10B4
100
AcDbEntity
  8
Defpoints
 62
     0
100
AcDbPoint
 10
489.725264513659
 20
-102.6195475585934
 30
0.0
  0
POINT
  5
11A0
330
10B4
100
AcDbEntity
  8
Defpoints
 62
     0
100
AcDbPoint
 10
489.725264513659
 20
-110.4471681957297
 30
0.0
  0
ENDBLK
  5
10C1
330
10B4
100
AcDbEntity
  8
0
100
AcDbBlockEnd
  0
BLOCK
  5
10CC
330
10C2
100
AcDbEntity
  8
0
100
AcDbBlockBegin
  2
*D46
 70
     1
 10
0.0
 20
0.0
 30
0.0
  3
*D46
  1

  0
LINE
  5
11A1
330
10C2
100
AcDbEntity
  8
DIM
100
AcDbLine
 10
478.725264513659
 20
-103.6195475585934
 30
0.0
 11
478.725264513659
 21
-116.9580062155067
 31
0.0
  0
LINE
  5
11A2
330
10C2
100
AcDbEntity
  8
DIM
100
AcDbLine
 10
492.725264513659
 20
-103.6195475585934
 30
0.0
 11
492.725264513659
 21
-116.9580062155067
 31
0.0
  0
LINE
  5
11A3
330
10C2
100
AcDbEntity
  8
DIM
100
AcDbLine
 10
482.2252645136591
 20
-115.9580062155067
 30
0.0
 11
489.225264513659
 21
-115.9580062155067
 31
0.0
  0
SOLID
  5
11A4
330
10C2
100
AcDbEntity
  8
DIM
100
AcDbTrace
 10
482.2252645136591
 20
-115.3746728821734
 30
0.0
 11
482.2252645136591
 21
-116.54133954884
 31
0.0
 12
478.725264513659
 22
-115.9580062155067
 32
0.0
 13
478.725264513659
 23
-115.9580062155067
 33
0.0
  0
SOLID
  5
11A5
330
10C2
100
AcDbEntity
  8
DIM
100
AcDbTrace
 10
489.225264513659
 20
-115.3746728821734
 30
0.0
 11
489.225264513659
 21
-116.54133954884
 31
0.0
 12
492.725264513659
 22
-115.9580062155067
 32
0.0
 13
492.725264513659
 23
-115.9580062155067
 33
0.0
  0
MTEXT
  5
11A6
330
10C2
100
AcDbEntity
  8
DIM
100
AcDbMText
 10
485.725264513659
 20
-113.2080062155067
 30
0.0
 40
3.5
 41
0.0
 71
     5
 72
     1
  1
14
 73
     1
 44
1.0
  0
POINT
  5
11A7
330
10C2
100
AcDbEntity
  8
Defpoints
 62
     0
100
AcDbPoint
 10
478.725264513659
 20
-102.6195475585934
 30
0.0
  0
POINT
  5
11A8
330
10C2
100
AcDbEntity
  8
Defpoints
 62
     0
100
AcDbPoint
 10
492.725264513659
 20
-102.6195475585934
 30
0.0
  0
POINT
  5
11A9
330
10C2
100
AcDbEntity
  8
Defpoints
 62
     0
100
AcDbPoint
 10
492.725264513659
 20
-115.9580062155067
 30
0.0
  0
ENDBLK
  5
10CD
330
10C2
100
AcDbEntity
  8
0
100
AcDbBlockEnd
  0
BLOCK
  5
111D
330
1113
100
AcDbEntity
  8
0
100
AcDbBlockBegin
  2
*D47
 70
     1
 10
0.0
 20
0.0
 30
0.0
  3
*D47
  1

  0
LINE
  5
11AA
330
1113
100
AcDbEntity
  8
DIM
100
AcDbLine
 10
514.3533045136591
 20
-76.11954755859343
 30
0.0
 11
537.2162853589056
 21
-76.11954755859343
 31
0.0
  0
LINE
  5
11AB
330
1113
100
AcDbEntity
  8
DIM
100
AcDbLine
 10
493.725264513659
 20
-102.6195475585934
 30
0.0
 11
537.2162853589056
 21
-102.6195475585934
 31
0.0
  0
LINE
  5
11AC
330
1113
100
AcDbEntity
  8
DIM
100
AcDbLine
 10
536.2162853589056
 20
-79.61954755859344
 30
0.0
 11
536.2162853589056
 21
-99.11954755859344
 31
0.0
  0
SOLID
  5
11AD
330
1113
100
AcDbEntity
  8
DIM
100
AcDbTrace
 10
535.6329520255723
 20
-79.61954755859344
 30
0.0
 11
536.799618692239
 21
-79.61954755859344
 31
0.0
 12
536.2162853589056
 22
-76.11954755859343
 32
0.0
 13
536.2162853589056
 23
-76.11954755859343
 33
0.0
  0
SOLID
  5
11AE
330
1113
100
AcDbEntity
  8
DIM
100
AcDbTrace
 10
535.6329520255723
 20
-99.11954755859344
 30
0.0
 11
536.799618692239
 21
-99.11954755859344
 31
0.0
 12
536.2162853589056
 22
-102.6195475585934
 32
0.0
 13
536.2162853589056
 23
-102.6195475585934
 33
0.0
  0
MTEXT
  5
11AF
330
1113
100
AcDbEntity
  8
DIM
100
AcDbMText
 10
533.4659408707167
 20
-89.36954755859288
 30
0.0
 40
3.5
 41
0.0
 71
     5
 72
     1
  1
26.5
 11
0.0000000000000001
 21
1.0
 31
0.0
 73
     1
 44
1.0
  0
POINT
  5
11B0
330
1113
100
AcDbEntity
  8
Defpoints
 62
     0
100
AcDbPoint
 10
513.3533045136592
 20
-76.11954755859343
 30
0.0
  0
POINT
  5
11B1
330
1113
100
AcDbEntity
  8
Defpoints
 62
     0
100
AcDbPoint
 10
492.725264513659
 20
-102.6195475585934
 30
0.0
  0
POINT
  5
11B2
330
1113
100
AcDbEntity
  8
Defpoints
 62
     0
100
AcDbPoint
 10
536.2162853589056
 20
-102.6195475585934
 30
0.0
  0
ENDBLK
  5
111E
330
1113
100
AcDbEntity
  8
0
100
AcDbBlockEnd
  0
BLOCK
  5
112B
330
111F
100
AcDbEntity
  8
0
100
AcDbBlockBegin
  2
*D48
 70
     1
 10
0.0
 20
0.0
 30
0.0
  3
*D48
  1

  0
LINE
  5
11B3
330
111F
100
AcDbEntity
  8
DIM
100
AcDbLine
 10
488.7544145136593
 20
-87.61954755859344
 30
0.0
 11
521.1188899536259
 21
-87.61954755859344
 31
0.0
  0
LINE
  5
11B4
330
111F
100
AcDbEntity
  8
DIM
100
AcDbLine
 10
490.725264513659
 20
-91.11954755859343
 30
0.0
 11
521.1188899536259
 21
-91.11954755859343
 31
0.0
  0
LINE
  5
11B5
330
111F
100
AcDbEntity
  8
DIM
100
AcDbLine
 10
520.1188899536259
 20
-94.61954755859343
 30
0.0
 11
520.1188899536259
 21
-98.11954755859344
 31
0.0
  0
LINE
  5
11B6
330
111F
100
AcDbEntity
  8
DIM
100
AcDbLine
 10
520.1188899536259
 20
-84.11954755859344
 30
0.0
 11
520.1188899536259
 21
-73.57457281176285
 31
0.0
  0
LINE
  5
11B7
330
111F
100
AcDbEntity
  8
DIM
100
AcDbLine
 10
520.1188899536259
 20
-91.11954755859343
 30
0.0
 11
520.1188899536259
 21
-87.61954755859344
 31
0.0
  0
SOLID
  5
11B8
330
111F
100
AcDbEntity
  8
DIM
100
AcDbTrace
 10
519.5355566202926
 20
-94.61954755859343
 30
0.0
 11
520.7022232869593
 21
-94.61954755859343
 31
0.0
 12
520.1188899536259
 22
-91.11954755859343
 32
0.0
 13
520.1188899536259
 23
-91.11954755859343
 33
0.0
  0
SOLID
  5
11B9
330
111F
100
AcDbEntity
  8
DIM
100
AcDbTrace
 10
519.5355566202926
 20
-84.11954755859344
 30
0.0
 11
520.7022232869593
 21
-84.11954755859344
 31
0.0
 12
520.1188899536259
 22
-87.61954755859344
 32
0.0
 13
520.1188899536259
 23
-87.61954755859344
 33
0.0
  0
MTEXT
  5
11BA
330
111F
100
AcDbEntity
  8
DIM
100
AcDbMText
 10
517.3688899536259
 20
-77.09706018517806
 30
0.0
 40
3.5
 41
0.0
 71
     5
 72
     1
  1
3.5
 11
0.0000000000000001
 21
1.0
 31
0.0
 73
     1
 44
1.0
  0
POINT
  5
11BB
330
111F
100
AcDbEntity
  8
Defpoints
 62
     0
100
AcDbPoint
 10
487.7544145136593
 20
-87.61954755859344
 30
0.0
  0
POINT
  5
11BC
330
111F
100
AcDbEntity
  8
Defpoints
 62
     0
100
AcDbPoint
 10
489.725264513659
 20
-91.11954755859343
 30
0.0
  0
POINT
  5
11BD
330
111F
100
AcDbEntity
  8
Defpoints
 62
     0
100
AcDbPoint
 10
520.1188899536259
 20
-91.11954755859343
 30
0.0
  0
ENDBLK
  5
112C
330
111F
100
AcDbEntity
  8
0
100
AcDbBlockEnd
  0
BLOCK
  5
1137
330
112D
100
AcDbEntity
  8
0
100
AcDbBlockBegin
  2
*D49
 70
     1
 10
0.0
 20
0.0
 30
0.0
  3
*D49
  1

  0
LINE
  5
11BE
330
112D
100
AcDbEntity
  8
DIM
100
AcDbLine
 10
480.7252645136594
 20
-84.61954755859343
 30
0.0
 11
451.0323766295636
 21
-84.61954755859343
 31
0.0
  0
LINE
  5
11BF
330
112D
100
AcDbEntity
  8
DIM
100
AcDbLine
 10
477.7252645136591
 20
-102.6195475585934
 30
0.0
 11
451.0323766295636
 21
-102.6195475585934
 31
0.0
  0
LINE
  5
11C0
330
112D
100
AcDbEntity
  8
DIM
100
AcDbLine
 10
452.0323766295637
 20
-88.11954755859343
 30
0.0
 11
452.0323766295637
 21
-99.11954755859344
 31
0.0
  0
SOLID
  5
11C1
330
112D
100
AcDbEntity
  8
DIM
100
AcDbTrace
 10
451.4490432962303
 20
-88.11954755859343
 30
0.0
 11
452.6157099628969
 21
-88.11954755859343
 31
0.0
 12
452.0323766295637
 22
-84.61954755859343
 32
0.0
 13
452.0323766295637
 23
-84.61954755859343
 33
0.0
  0
SOLID
  5
11C2
330
112D
100
AcDbEntity
  8
DIM
100
AcDbTrace
 10
451.4490432962303
 20
-99.11954755859344
 30
0.0
 11
452.6157099628969
 21
-99.11954755859344
 31
0.0
 12
452.0323766295637
 22
-102.6195475585934
 32
0.0
 13
452.0323766295637
 23
-102.6195475585934
 33
0.0
  0
MTEXT
  5
11C3
330
112D
100
AcDbEntity
  8
DIM
100
AcDbMText
 10
449.2823766295636
 20
-93.61954755859335
 30
0.0
 40
3.5
 41
0.0
 71
     5
 72
     1
  1
18
 11
0.0000000000000001
 21
1.0
 31
0.0
 73
     1
 44
1.0
  0
POINT
  5
11C4
330
112D
100
AcDbEntity
  8
Defpoints
 62
     0
100
AcDbPoint
 10
481.7252645136595
 20
-84.61954755859343
 30
0.0
  0
POINT
  5
11C5
330
112D
100
AcDbEntity
  8
Defpoints
 62
     0
100
AcDbPoint
 10
478.725264513659
 20
-102.6195475585934
 30
0.0
  0
POINT
  5
11C6
330
112D
100
AcDbEntity
  8
Defpoints
 62
     0
100
AcDbPoint
 10
452.0323766295637
 20
-102.6195475585934
 30
0.0
  0
ENDBLK
  5
1138
330
112D
100
AcDbEntity
  8
0
100
AcDbBlockEnd
  0
BLOCK
  5
1140
330
1139
100
AcDbEntity
  8
0
100
AcDbBlockBegin
  2
*D50
 70
     1
 10
0.0
 20
0.0
 30
0.0
  3
*D50
  1

  0
LINE
  5
11E4
330
1139
100
AcDbEntity
  8
DIM
100
AcDbLine
 10
507.1451536758984
 20
-59.48500542729232
 30
0.0
 11
508.8549568992213
 21
-51.66728843071613
 31
0.0
  0
LINE
  5
11E5
330
1139
100
AcDbEntity
  8
DIM
100
AcDbLine
 10
508.8549568992213
 20
-51.66728843071613
 30
0.0
 11
534.1318098026981
 21
-51.66728843071615
 31
0.0
  0
SOLID
  5
11E6
330
1139
100
AcDbEntity
  8
DIM
100
AcDbTrace
 10
506.5752904272467
 20
-59.36037134040676
 30
0.0
 11
507.7150169245503
 21
-59.6096395141779
 31
0.0
 12
506.397349154585
 22
-62.90418491920309
 32
0.0
 13
506.397349154585
 23
-62.90418491920309
 33
0.0
  0
MTEXT
  5
11E7
330
1139
100
AcDbEntity
  8
DIM
100
AcDbMText
 10
521.9933833509599
 20
-48.47978843071613
 30
0.0
 40
3.5
 41
0.0
 71
     5
 72
     1
  1
M3X0.5X7dp
 73
     1
 44
1.0
  0
POINT
  5
11E8
330
1139
100
AcDbEntity
  8
Defpoints
 62
     0
100
AcDbPoint
 10
506.397349154585
 20
-62.90418491920309
 30
0.0
  0
POINT
  5
11E9
330
1139
100
AcDbEntity
  8
Defpoints
 62
     0
100
AcDbPoint
 10
505.7563738506019
 20
-65.83491019798429
 30
0.0
  0
ENDBLK
  5
1141
330
1139
100
AcDbEntity
  8
0
100
AcDbBlockEnd
  0
BLOCK
  5
1149
330
1142
100
AcDbEntity
  8
0
100
AcDbBlockBegin
  2
*D51
 70
     1
 10
0.0
 20
0.0
 30
0.0
  3
*D51
  1

  0
LINE
  5
11DE
330
1142
100
AcDbEntity
  8
DIM
100
AcDbLine
 10
483.4470187988729
 20
-49.41484748097377
 30
0.0
 11
479.5663754102693
 21
-41.45279779732629
 31
0.0
  0
LINE
  5
11DF
330
1142
100
AcDbEntity
  8
DIM
100
AcDbLine
 10
479.5663754102693
 20
-41.45279779732629
 30
0.0
 11
463.7252041504268
 21
-41.45279779732627
 31
0.0
  0
SOLID
  5
11E0
330
1142
100
AcDbEntity
  8
DIM
100
AcDbTrace
 10
483.9713855672313
 20
-49.15927504502022
 30
0.0
 11
482.9226520305147
 21
-49.67041991692733
 31
0.0
 12
484.9804534145944
 22
-52.56104809112364
 32
0.0
 13
484.9804534145944
 23
-52.56104809112364
 33
0.0
  0
MTEXT
  5
11E1
330
1142
100
AcDbEntity
  8
DIM
100
AcDbMText
 10
471.1457897803479
 20
-38.70279779732636
 30
0.0
 40
3.5
 41
0.0
 71
     5
 72
     1
  1
\U+22053.4 貫通
 73
     1
 44
1.0
  0
POINT
  5
11E2
330
1142
100
AcDbEntity
  8
Defpoints
 62
     0
100
AcDbPoint
 10
484.9804534145944
 20
-52.56104809112364
 30
0.0
  0
POINT
  5
11E3
330
1142
100
AcDbEntity
  8
Defpoints
 62
     0
100
AcDbPoint
 10
486.470075612724
 20
-55.61735725526969
 30
0.0
  0
ENDBLK
  5
114A
330
1142
100
AcDbEntity
  8
0
100
AcDbBlockEnd
  0
BLOCK
  5
1157
330
114B
100
AcDbEntity
  8
0
100
AcDbBlockBegin
  2
*D52
 70
     1
 10
0.0
 20
0.0
 30
0.0
  3
*D52
  1

  0
LINE
  5
11D3
330
114B
100
AcDbEntity
  8
DIM
100
AcDbLine
 10
557.6914266729732
 20
-97.11954755859345
 30
0.0
 11
557.6914266729732
 21
-111.0671681957247
 31
0.0
  0
LINE
  5
11D4
330
114B
100
AcDbEntity
  8
DIM
100
AcDbLine
 10
555.6914266729732
 20
-103.6195475585934
 30
0.0
 11
555.6914266729732
 21
-111.0671681957247
 31
0.0
  0
LINE
  5
11D5
330
114B
100
AcDbEntity
  8
DIM
100
AcDbLine
 10
561.1914266729732
 20
-110.0671681957247
 30
0.0
 11
564.6914266729732
 21
-110.0671681957247
 31
0.0
  0
LINE
  5
11D6
330
114B
100
AcDbEntity
  8
DIM
100
AcDbLine
 10
552.1914266729732
 20
-110.0671681957247
 30
0.0
 11
548.6914266729732
 21
-110.0671681957247
 31
0.0
  0
LINE
  5
11D7
330
114B
100
AcDbEntity
  8
DIM
100
AcDbLine
 10
557.6914266729732
 20
-110.0671681957247
 30
0.0
 11
555.6914266729732
 21
-110.0671681957247
 31
0.0
  0
SOLID
  5
11D8
330
114B
100
AcDbEntity
  8
DIM
100
AcDbTrace
 10
561.1914266729732
 20
-109.4838348623914
 30
0.0
 11
561.1914266729732
 21
-110.6505015290581
 31
0.0
 12
557.6914266729732
 22
-110.0671681957247
 32
0.0
 13
557.6914266729732
 23
-110.0671681957247
 33
0.0
  0
SOLID
  5
11D9
330
114B
100
AcDbEntity
  8
DIM
100
AcDbTrace
 10
552.1914266729732
 20
-109.4838348623914
 30
0.0
 11
552.1914266729732
 21
-110.6505015290581
 31
0.0
 12
555.6914266729732
 22
-110.0671681957247
 32
0.0
 13
555.6914266729732
 23
-110.0671681957247
 33
0.0
  0
MTEXT
  5
11DA
330
114B
100
AcDbEntity
  8
DIM
100
AcDbMText
 10
556.6914266729732
 20
-107.3168237075357
 30
0.0
 40
3.5
 41
0.0
 71
     5
 72
     1
  1
2
 73
     1
 44
1.0
  0
POINT
  5
11DB
330
114B
100
AcDbEntity
  8
Defpoints
 62
     0
100
AcDbPoint
 10
557.6914266729732
 20
-96.11954755859343
 30
0.0
  0
POINT
  5
11DC
330
114B
100
AcDbEntity
  8
Defpoints
 62
     0
100
AcDbPoint
 10
555.6914266729732
 20
-102.6195475585934
 30
0.0
  0
POINT
  5
11DD
330
114B
100
AcDbEntity
  8
Defpoints
 62
     0
100
AcDbPoint
 10
555.6914266729732
 20
-110.0671681957247
 30
0.0
  0
ENDBLK
  5
1158
330
114B
100
AcDbEntity
  8
0
100
AcDbBlockEnd
  0
ENDSEC
  0
SECTION
  2
ENTITIES
  0
TEXT
  5
194
330
2
100
AcDbEntity
  8
LOGO
  6
Continuous
 62
     7
100
AcDbText
 10
525.4784189971203
 20
-138.1163303786257
 30
0.0
 40
3.835670107182843
  1
MCHG
  7
chineset
 72
     1
 11
532.9671082540011
 21
-136.1984953250343
 31
0.0
100
AcDbText
 73
     2
  0
LINE
  5
195
330
2
100
AcDbEntity
  8
LOGO
 62
     4
100
AcDbLine
 10
542.1727165112399
 20
-132.7463922285697
 30
0.0
 11
523.7614999967624
 21
-132.7463922285697
 31
0.0
  0
LINE
  5
196
330
2
100
AcDbEntity
  8
LOGO
 62
     4
100
AcDbLine
 10
542.1727165112399
 20
-139.6505984214988
 30
0.0
 11
523.7614999967624
 21
-139.6505984214988
 31
0.0
  0
LINE
  5
197
330
2
100
AcDbEntity
  8
LOGO
 62
     4
100
AcDbLine
 10
540.6384484683668
 20
-143.1027015179634
 30
0.0
 11
525.2957680396355
 21
-143.1027015179634
 31
0.0
  0
LINE
  5
198
330
2
100
AcDbEntity
  8
LOGO
 62
     4
100
AcDbLine
 10
540.6384484683668
 20
-151.5411757537656
 30
0.0
 11
525.2957680396355
 21
-151.5411757537656
 31
0.0
  0
LINE
  5
19D
330
2
100
AcDbEntity
  8
LOGO
 62
     4
100
AcDbLine
 10
525.2957680396355
 20
-143.1027015179634
 30
0.0
 11
525.2957680396355
 21
-151.5411757537656
 31
0.0
  0
LINE
  5
19E
330
2
100
AcDbEntity
  8
LOGO
 62
     4
100
AcDbLine
 10
523.7614999967624
 20
-132.7463922285697
 30
0.0
 11
523.7614999967624
 21
-139.6505984214988
 31
0.0
  0
LINE
  5
19F
330
2
100
AcDbEntity
  8
LOGO
 62
     4
100
AcDbLine
 10
567.5928157029179
 20
-132.7463922285696
 30
0.0
 11
547.6048288391023
 21
-132.7463922285697
 31
0.0
  0
LINE
  5
1A0
330
2
100
AcDbEntity
  8
LOGO
 62
     4
100
AcDbLine
 10
567.5928157029179
 20
-151.5411757537656
 30
0.0
 11
547.6048288391023
 21
-151.5411757537656
 31
0.0
  0
LINE
  5
1A1
330
2
100
AcDbEntity
  8
LOGO
 62
     4
100
AcDbLine
 10
567.5928157029179
 20
-143.1027015179634
 30
0.0
 11
547.6048288391023
 21
-143.1027015179634
 31
0.0
  0
LINE
  5
1A2
330
2
100
AcDbEntity
  8
LOGO
 62
     4
100
AcDbLine
 10
567.5928157029179
 20
-139.6505984214988
 30
0.0
 11
547.6048288391023
 21
-139.6505984214988
 31
0.0
  0
LINE
  5
1A3
330
2
100
AcDbEntity
  8
LOGO
 62
     4
100
AcDbLine
 10
532.9671082540011
 20
-139.6505984214988
 30
0.0
 11
532.9671082540011
 21
-143.1027015179634
 31
0.0
  0
LINE
  5
1A4
330
2
100
AcDbEntity
  8
LOGO
 62
     4
100
AcDbLine
 10
540.6384484683668
 20
-143.1027015179634
 30
0.0
 11
540.6384484683668
 21
-151.5411757537656
 31
0.0
  0
LINE
  5
1A5
330
2
100
AcDbEntity
  8
LOGO
 62
     4
100
AcDbLine
 10
547.6048288391023
 20
-143.1027015179634
 30
0.0
 11
547.6048288391023
 21
-151.5411757537656
 31
0.0
  0
LINE
  5
1A6
330
2
100
AcDbEntity
  8
LOGO
 62
     4
100
AcDbLine
 10
547.6048288391023
 20
-132.7463922285697
 30
0.0
 11
547.6048288391023
 21
-139.6505984214988
 31
0.0
  0
LINE
  5
1A7
330
2
100
AcDbEntity
  8
LOGO
 62
     4
100
AcDbLine
 10
542.1727165112399
 20
-132.7463922285697
 30
0.0
 11
542.1727165112399
 21
-139.6505984214988
 31
0.0
  0
LINE
  5
1A8
330
2
100
AcDbEntity
  8
LOGO
 62
     4
100
AcDbLine
 10
543.362207478458
 20
-136.2229511144921
 30
0.0
 11
546.4108530099657
 21
-136.2229511144921
 31
0.0
  0
LINE
  5
1A9
330
2
100
AcDbEntity
  8
LOGO
 62
     4
100
AcDbLine
 10
557.5988222710102
 20
-139.6505984214988
 30
0.0
 11
557.5988222710102
 21
-143.1027015179634
 31
0.0
  0
LINE
  5
1AB
330
2
100
AcDbEntity
  8
LOGO
 62
     4
100
AcDbLine
 10
567.5928157029179
 20
-143.1027015179634
 30
0.0
 11
567.5928157029179
 21
-151.5411757537656
 31
0.0
  0
TEXT
  5
1AC
330
2
100
AcDbEntity
  8
LOGO
  6
Continuous
 62
     7
100
AcDbText
 10
554.4937559937669
 20
-138.1598271193373
 30
0.0
 40
3.835670107182843
  1
50
  7
chineset
 72
     1
 11
557.5988222710102
 21
-136.2419920657459
 31
0.0
100
AcDbText
 73
     2
  0
LINE
  5
1AD
330
2
100
AcDbEntity
  8
LOGO
 62
     4
100
AcDbLine
 10
567.5928157029179
 20
-132.7463922285696
 30
0.0
 11
567.5928157029179
 21
-139.6505984214988
 31
0.0
  0
TEXT
  5
1B1
330
2
100
AcDbEntity
  8
LOGO
100
AcDbText
 10
529.8985721682548
 20
-147.2434131061111
 30
150.8300999564393
 40
3.068536085746274
  1
型式
  7
chineset
 72
     4
 11
532.9671082540011
 21
-145.7876705929914
 31
150.8300999564393
100
AcDbText
  0
TEXT
  5
1B2
330
2
100
AcDbEntity
  8
LOGO
100
AcDbText
 10
527.1222776144845
 20
-151.1576087430473
 30
150.8300999564393
 40
3.068536085746274
  1
Model
  7
chineset
 72
     4
 11
532.9671082540011
 21
-149.6233407001742
 31
150.8300999564393
100
AcDbText
  0
TEXT
  5
1B3
330
2
100
AcDbEntity
  8
LOGO
100
AcDbText
 10
551.4617500995176
 20
-147.3219386358645
 30
150.8300999564393
 40
3.068536085746274
  1
缸體外徑
  7
chineset
 72
     4
 11
557.5988222710102
 21
-145.7876705929914
 31
150.8300999564393
100
AcDbText
  0
TEXT
  5
1B4
330
2
100
AcDbEntity
  8
LOGO
  6
Continuous
100
AcDbText
 10
550.840736844069
 20
-150.2626190513713
 30
150.8300999564393
 40
1.917835053591421
  1
Body size
  7
chineset
 72
     4
 11
557.5988222710102
 21
-149.6233407001742
 31
150.8300999564393
100
AcDbText
  0
TEXT
  5
8FB
330
2
100
AcDbEntity
  8
LOGO
 62
     7
100
AcDbText
 10
493.0191240011532
 20
-136.2035551595884
 30
0.0
 40
4.714825856679817
  1
訂購代號:
  7
chineset
100
AcDbText
  0
TEXT
  5
8FC
330
2
100
AcDbEntity
  8
LOGO
 62
     7
100
AcDbText
 10
492.4552048353453
 20
-140.6285542189585
 30
0.0
 40
3.143217237786544
  1
Order example:
 41
0.8
  7
chineset
100
AcDbText
  0
LINE
  5
916
330
2
100
AcDbEntity
  8
LOGO
 62
     4
100
AcDbLine
 10
491.0894662843471
 20
-153.8752586113884
 30
0.0
 11
491.0894662843471
 21
-130.3011293279888
 31
0.0
  0
TEXT
  5
917
330
2
100
AcDbEntity
  8
LOGO
  6
Continuous
100
AcDbText
 10
447.6943150672274
 20
-149.2441564901277
 30
0.0
 40
3.536119392509892
  1
金器工業股份有限公司
  7
chineset
100
AcDbText
  0
TEXT
  5
918
330
2
100
AcDbEntity
  8
LOGO
  6
Continuous
100
AcDbText
 10
441.1991633299085
 20
-152.7809686847961
 30
0.0
 40
2.357412928339928
  1
MINDMAN INDUSTRIAL CO., LTD.
 41
0.85
  7
chineset
100
AcDbText
  0
LINE
  5
919
330
2
100
AcDbEntity
  8
LOGO
 62
     4
100
AcDbLine
 10
491.0894662843471
 20
-135.0159551846688
 30
0.0
 11
456.514076668694
 21
-135.0159551846688
 31
0.0
  0
LINE
  5
91A
330
2
100
AcDbEntity
  8
LOGO
 62
     4
100
AcDbLine
 10
491.0894662843471
 20
-139.7307810413488
 30
0.0
 11
456.514076668694
 21
-139.7307810413488
 31
0.0
  0
LINE
  5
91B
330
2
100
AcDbEntity
  8
LOGO
 62
     4
100
AcDbLine
 10
491.0894662843471
 20
-144.4456068980285
 30
0.0
 11
439.2263818608681
 21
-144.4456068980285
 31
0.0
  0
LINE
  5
91C
330
2
100
AcDbEntity
  8
LOGO
 62
     4
100
AcDbLine
 10
456.514076668694
 20
-144.4456068980285
 30
0.0
 11
456.514076668694
 21
-130.3011293279888
 31
0.0
  0
TEXT
  5
91D
330
2
100
AcDbEntity
  8
LOGO
100
AcDbText
 10
480.1447235374603
 20
-143.2669004338587
 30
0.0
 40
2.357412928339928
  1
mm
  7
chineset
 72
     1
 11
483.0634252582622
 21
-142.0881939696887
 31
0.0
100
AcDbText
 73
     2
  0
TEXT
  5
91E
330
2
100
AcDbEntity
  8
LOGO
100
AcDbText
 10
478.9098881940442
 20
-133.837248720499
 30
0.0
 40
2.357412928339928
  1
1 : 1
  7
chineset
 72
     1
 11
483.0634252582622
 21
-132.658542256329
 31
0.0
100
AcDbText
 73
     2
  0
LINE
  5
91F
330
2
100
AcDbEntity
  8
LOGO
 62
     4
100
AcDbLine
 10
475.3733800954139
 20
-144.4456068980285
 30
0.0
 11
475.3733800954139
 21
-130.3011293279888
 31
0.0
  0
TEXT
  5
920
330
2
100
AcDbEntity
  8
LOGO
100
AcDbText
 10
458.4578899180892
 20
-133.8360885763413
 30
154.5009597124719
 40
2.357412928339928
  1
比例 Scale:
 41
0.9
  7
chineset
 72
     4
 11
465.9437283820543
 21
-132.658542256329
 31
154.5009597124719
100
AcDbText
  0
TEXT
  5
921
330
2
100
AcDbEntity
  8
LOGO
100
AcDbText
 10
458.3221281914124
 20
-138.518913790006
 30
154.5009597124719
 40
2.357412928339928
  1
投影  View:
 41
0.9
  7
chineset
 72
     4
 11
465.9437283820543
 21
-137.3733681130087
 31
154.5009597124719
100
AcDbText
  0
TEXT
  5
922
330
2
100
AcDbEntity
  8
LOGO
100
AcDbText
 10
458.5526074018171
 20
-143.2669004338587
 30
154.5009597124719
 40
2.357412928339928
  1
單位  Unit:
 41
0.9
  7
chineset
 72
     4
 11
465.9437283820543
 21
-142.0881939696887
 31
154.5009597124719
100
AcDbText
  0
SOLID
  5
923
330
2
100
AcDbEntity
  8
LOGO
 62
     5
100
AcDbTrace
 10
441.6722356076207
 20
-140.5267434559704
 30
0.0
 11
442.6915190993195
 21
-140.526743455971
 31
0.0
 12
446.944391599167
 22
-130.8611241381355
 32
0.0
 13
447.9636750908662
 23
-130.8611241381362
 33
0.0
  0
SOLID
  5
924
330
2
100
AcDbEntity
  8
LOGO
 62
     5
100
AcDbTrace
 10
443.1132915786442
 20
-140.5267434559704
 30
0.0
 11
444.1325750703431
 21
-140.5267434559704
 31
0.0
 12
447.9636750908662
 22
-131.6343736835626
 32
0.0
 13
446.944391599167
 23
-135.3717464864588
 33
0.0
  0
SOLID
  5
925
330
2
100
AcDbEntity
  8
LOGO
 62
     2
100
AcDbTrace
 10
442.6915190993195
 20
-140.526743455971
 30
0.0
 11
443.1132915786442
 21
-140.5267434559704
 31
0.0
 12
447.9636750908662
 22
-130.8611241381362
 32
0.0
 13
448.3854475701905
 23
-130.8611241381362
 33
0.0
  0
SOLID
  5
926
330
2
100
AcDbEntity
  8
LOGO
 62
     5
100
AcDbTrace
 10
440.0380742114967
 20
-144.0415141170013
 30
0.0
 11
440.3895512776003
 21
-144.0415141170013
 31
0.0
 12
441.3793380525349
 22
-142.2841287864859
 32
0.0
 13
441.7308151186378
 23
-142.2841287864859
 33
0.0
  0
SOLID
  5
927
330
2
100
AcDbEntity
  8
LOGO
 62
     5
100
AcDbTrace
 10
441.3793380525349
 20
-142.2841287864859
 30
0.0
 11
441.7308151186378
 21
-142.2841287864859
 31
0.0
 12
441.3793380525349
 22
-144.0415141170013
 32
0.0
 13
441.7308151186378
 23
-144.0415141170013
 33
0.0
  0
SOLID
  5
928
330
2
100
AcDbEntity
  8
LOGO
 62
     5
100
AcDbTrace
 10
441.3793380525349
 20
-144.0415141170013
 30
0.0
 11
441.7308151186378
 21
-144.0415141170013
 31
0.0
 12
442.7206018935741
 22
-142.2841287864859
 32
0.0
 13
443.0720789596769
 23
-142.2841287864859
 33
0.0
  0
SOLID
  5
929
330
2
100
AcDbEntity
  8
LOGO
 62
     5
100
AcDbTrace
 10
442.7206018935741
 20
-142.2841287864859
 30
0.0
 11
443.0720789596769
 21
-142.2841287864859
 31
0.0
 12
442.7206018935741
 22
-144.0415141170013
 32
0.0
 13
443.0720789596769
 23
-144.0415141170013
 33
0.0
  0
POLYLINE
  5
92A
330
2
100
AcDbEntity
  8
LOGO
 62
     5
100
AcDb2dPolyline
 66
     1
 10
0.0
 20
0.0
 30
0.0
 40
0.3520403306320958
 41
0.3520403306320958
  0
VERTEX
  5
92B
330
92A
100
AcDbEntity
  8
LOGO
 62
     5
100
AcDbVertex
100
AcDb2dVertex
 10
454.5019934171773
 20
-142.9870829186923
 30
0.0
 42
1.0
  0
VERTEX
  5
92C
330
92A
100
AcDbEntity
  8
LOGO
 62
     5
100
AcDbVertex
100
AcDb2dVertex
 10
453.4458724252814
 20
-142.9870829186923
 30
0.0
 42
1.0
  0
SEQEND
  5
92D
330
92A
100
AcDbEntity
  8
LOGO
 62
     5
  0
POLYLINE
  5
92E
330
2
100
AcDbEntity
  8
LOGO
 62
     5
100
AcDb2dPolyline
 66
     1
 10
0.0
 20
0.0
 30
0.0
 70
     1
  0
VERTEX
  5
92F
330
92E
100
AcDbEntity
  8
LOGO
 62
     5
100
AcDbVertex
100
AcDb2dVertex
 10
451.4550373792945
 20
-143.1628214517437
 30
0.0
 42
1.000000057330635
  0
VERTEX
  5
930
330
92E
100
AcDbEntity
  8
LOGO
 62
     5
100
AcDbVertex
100
AcDb2dVertex
 10
452.5094685776032
 20
-143.1628214517437
 30
0.0
 42
1.000000057330635
  0
SEQEND
  5
931
330
92E
100
AcDbEntity
  8
LOGO
 62
     5
  0
CIRCLE
  5
932
330
2
100
AcDbEntity
  8
LOGO
 62
     5
100
AcDbCircle
 10
451.9822529784495
 20
-143.1628214517437
 30
0.0
 40
0.5272155991546268
  0
POLYLINE
  5
933
330
2
100
AcDbEntity
  8
LOGO
 62
     5
100
AcDb2dPolyline
 66
     1
 10
0.0
 20
0.0
 30
0.0
 70
     1
 40
0.3520403306320958
 41
0.3520403306320958
  0
VERTEX
  5
934
330
933
100
AcDbEntity
  8
LOGO
 62
     5
100
AcDbVertex
100
AcDb2dVertex
 10
451.278172317185
 20
-143.1628214517437
 30
0.0
 42
1.0
  0
VERTEX
  5
935
330
933
100
AcDbEntity
  8
LOGO
 62
     5
100
AcDbVertex
100
AcDb2dVertex
 10
452.6863336397134
 20
-143.1628214517437
 30
0.0
 42
1.0
  0
SEQEND
  5
936
330
933
100
AcDbEntity
  8
LOGO
 62
     5
  0
LINE
  5
937
330
2
100
AcDbEntity
  8
LOGO
100
AcDbLine
 10
454.6768870534346
 20
-144.0415141170013
 30
0.0
 11
454.6768870534346
 21
-142.9870829186923
 31
0.0
  0
SOLID
  5
938
330
2
100
AcDbEntity
  8
LOGO
 62
     5
100
AcDbTrace
 10
452.5094334298982
 20
-142.2841287864859
 30
0.0
 11
452.8609104960008
 21
-142.2841287864859
 31
0.0
 12
452.5094334298982
 22
-144.0415141170013
 32
0.0
 13
452.8609104960008
 23
-144.0415141170013
 33
0.0
  0
SOLID
  5
939
330
2
100
AcDbEntity
  8
LOGO
 62
     5
100
AcDbTrace
 10
453.2709787890227
 20
-144.0415141170013
 30
0.0
 11
453.6224558551258
 21
-144.0415141170013
 31
0.0
 12
453.2709787890227
 22
-142.2841287864859
 32
0.0
 13
453.6224558551258
 23
-142.2841287864859
 33
0.0
  0
SOLID
  5
93A
330
2
100
AcDbEntity
  8
LOGO
 62
     5
100
AcDbTrace
 10
454.3254099873324
 20
-142.9870829186923
 30
0.0
 11
454.6768870534346
 21
-142.9870829186923
 31
0.0
 12
454.3254099873324
 22
-144.0415141170013
 32
0.0
 13
454.6768870534346
 23
-144.0415141170013
 33
0.0
  0
SOLID
  5
93B
330
2
100
AcDbEntity
  8
LOGO
 62
     5
100
AcDbTrace
 10
453.2358310824122
 20
-131.6343736835626
 30
0.0
 11
452.2165475907137
 21
-135.3717464864588
 31
0.0
 12
453.2358310824122
 22
-140.526743455971
 32
0.0
 13
452.2165475907137
 23
-140.526743455971
 33
0.0
  0
SOLID
  5
93C
330
2
100
AcDbEntity
  8
LOGO
 62
     5
100
AcDbTrace
 10
453.6576035617361
 20
-140.526743455971
 30
0.0
 11
454.6768870534346
 21
-140.526743455971
 31
0.0
 12
453.6576035617361
 22
-130.8611241381362
 32
0.0
 13
454.6768870534346
 23
-130.8611241381355
 33
0.0
  0
SOLID
  5
93D
330
2
100
AcDbEntity
  8
LOGO
 62
     2
100
AcDbTrace
 10
453.2358310824122
 20
-130.8611241381355
 30
0.0
 11
453.6576035617361
 21
-130.8611241381362
 31
0.0
 12
453.2358310824122
 22
-140.526743455971
 32
0.0
 13
453.6576035617361
 23
-140.526743455971
 33
0.0
  0
POLYLINE
  5
93E
330
2
100
AcDbEntity
  8
LOGO
 62
     5
100
AcDb2dPolyline
 66
     1
 10
0.0
 20
0.0
 30
0.0
 40
0.3520403306320958
 41
0.3520403306320958
  0
VERTEX
  5
93F
330
93E
100
AcDbEntity
  8
LOGO
 62
     5
100
AcDbVertex
100
AcDb2dVertex
 10
449.4641320378959
 20
-142.9870829186923
 30
0.0
 42
1.0
  0
VERTEX
  5
940
330
93E
100
AcDbEntity
  8
LOGO
 62
     5
100
AcDbVertex
100
AcDb2dVertex
 10
448.4080110459989
 20
-142.9870829186923
 30
0.0
 42
1.0
  0
SEQEND
  5
941
330
93E
100
AcDbEntity
  8
LOGO
 62
     5
  0
POLYLINE
  5
942
330
2
100
AcDbEntity
  8
LOGO
 62
     5
100
AcDb2dPolyline
 66
     1
 10
0.0
 20
0.0
 30
0.0
 40
0.3520403306320958
 41
0.3520403306320958
  0
VERTEX
  5
943
330
942
100
AcDbEntity
  8
LOGO
 62
     5
100
AcDbVertex
100
AcDb2dVertex
 10
450.5185632362047
 20
-142.9870829186923
 30
0.0
 42
1.0
  0
VERTEX
  5
944
330
942
100
AcDbEntity
  8
LOGO
 62
     5
100
AcDbVertex
100
AcDb2dVertex
 10
449.4624422443082
 20
-142.9870829186923
 30
0.0
 42
1.0
  0
SEQEND
  5
945
330
942
100
AcDbEntity
  8
LOGO
 62
     5
  0
POLYLINE
  5
946
330
2
100
AcDbEntity
  8
LOGO
 62
     5
100
AcDb2dPolyline
 66
     1
 10
0.0
 20
0.0
 30
0.0
 40
0.3520403306320958
 41
0.3520403306320958
  0
VERTEX
  5
947
330
946
100
AcDbEntity
  8
LOGO
 62
     5
100
AcDbVertex
100
AcDb2dVertex
 10
445.480701856922
 20
-142.9870829186923
 30
0.0
 42
1.0
  0
VERTEX
  5
948
330
946
100
AcDbEntity
  8
LOGO
 62
     5
100
AcDbVertex
100
AcDb2dVertex
 10
444.4245808650258
 20
-142.9870829186923
 30
0.0
 42
1.0
  0
SEQEND
  5
949
330
946
100
AcDbEntity
  8
LOGO
 62
     5
  0
SOLID
  5
94A
330
2
100
AcDbEntity
  8
LOGO
 62
     5
100
AcDbTrace
 10
444.2496872287679
 20
-142.2841287864859
 30
0.0
 11
444.6011642948705
 21
-142.2841287864859
 31
0.0
 12
444.2496872287679
 22
-144.0415141170013
 32
0.0
 13
444.6011642948705
 23
-144.0415141170013
 33
0.0
  0
SOLID
  5
94B
330
2
100
AcDbEntity
  8
LOGO
 62
     5
100
AcDbTrace
 10
445.3041184270777
 20
-142.9870829186923
 30
0.0
 11
445.6555954931814
 21
-142.9870829186923
 31
0.0
 12
445.3041184270777
 22
-144.0415141170013
 32
0.0
 13
445.6555954931814
 23
-144.0415141170013
 33
0.0
  0
POLYLINE
  5
94C
330
2
100
AcDbEntity
  8
LOGO
 62
     5
100
AcDb2dPolyline
 66
     1
 10
0.0
 20
0.0
 30
0.0
 70
     1
 40
0.3520403306320958
 41
0.3520403306320958
  0
VERTEX
  5
94D
330
94C
100
AcDbEntity
  8
LOGO
 62
     5
100
AcDbVertex
100
AcDb2dVertex
 10
446.2403109379027
 20
-143.1628214517437
 30
0.0
 42
1.0
  0
VERTEX
  5
94E
330
94C
100
AcDbEntity
  8
LOGO
 62
     5
100
AcDbVertex
100
AcDb2dVertex
 10
447.6484722604311
 20
-143.1628214517437
 30
0.0
 42
1.0
  0
SEQEND
  5
94F
330
94C
100
AcDbEntity
  8
LOGO
 62
     5
  0
SOLID
  5
950
330
2
100
AcDbEntity
  8
LOGO
 62
     5
100
AcDbTrace
 10
447.4715720506156
 20
-141.7569131873311
 30
0.0
 11
447.8230491167188
 21
-141.7569131873311
 31
0.0
 12
447.4715720506156
 22
-144.0415141170013
 32
0.0
 13
447.8230491167188
 23
-144.0415141170013
 33
0.0
  0
SOLID
  5
951
330
2
100
AcDbEntity
  8
LOGO
 62
     5
100
AcDbTrace
 10
448.2331174097419
 20
-142.2841287864859
 30
0.0
 11
448.5845944758446
 21
-142.2841287864859
 31
0.0
 12
448.2331174097419
 22
-144.0415141170013
 32
0.0
 13
448.5845944758446
 23
-144.0415141170013
 33
0.0
  0
SOLID
  5
952
330
2
100
AcDbEntity
  8
LOGO
 62
     5
100
AcDbTrace
 10
449.2875486080502
 20
-142.9870829186923
 30
0.0
 11
449.6390256741534
 21
-142.9870829186923
 31
0.0
 12
449.2875486080502
 22
-144.0415141170013
 32
0.0
 13
449.6390256741534
 23
-144.0415141170013
 33
0.0
  0
SOLID
  5
953
330
2
100
AcDbEntity
  8
LOGO
 62
     5
100
AcDbTrace
 10
450.341979806359
 20
-142.9870829186923
 30
0.0
 11
450.6934568724627
 21
-142.9870829186923
 31
0.0
 12
450.341979806359
 22
-144.0415141170016
 32
0.0
 13
450.6934568724627
 23
-144.0415141170016
 33
0.0
  0
SOLID
  5
954
330
2
100
AcDbEntity
  8
LOGO
 62
     5
100
AcDbTrace
 10
443.4881418696421
 20
-142.0380948402138
 30
0.0
 11
443.8396189357469
 21
-142.0380948402138
 31
0.0
 12
443.4881418696421
 22
-141.7569131873311
 32
0.0
 13
443.8396189357469
 23
-141.7569131873311
 33
0.0
  0
SOLID
  5
955
330
2
100
AcDbEntity
  8
LOGO
 62
     5
100
AcDbTrace
 10
443.4881418696421
 20
-142.2841287864859
 30
0.0
 11
443.8396189357469
 21
-142.2841287864859
 31
0.0
 12
443.4881418696421
 22
-144.0415141170016
 32
0.0
 13
443.8396189357469
 23
-144.0415141170013
 33
0.0
  0
SOLID
  5
956
330
2
100
AcDbEntity
  8
LOGO
 62
     5
100
AcDbTrace
 10
446.944391599167
 20
-140.5267434559704
 30
0.0
 11
447.9636750908662
 21
-140.5267434559704
 31
0.0
 12
446.944391599167
 22
-135.3717464864588
 32
0.0
 13
447.9636750908662
 23
-131.6343736835626
 33
0.0
  0
SOLID
  5
957
330
2
100
AcDbEntity
  8
LOGO
 62
     5
100
AcDbTrace
 10
448.3854475701905
 20
-130.8611241381362
 30
0.0
 11
449.4047310618894
 21
-130.8611241381355
 31
0.0
 12
448.3854475701905
 22
-139.7534939105442
 32
0.0
 13
449.4047310618894
 23
-136.0161211076478
 33
0.0
  0
SOLID
  5
958
330
2
100
AcDbEntity
  8
LOGO
 62
     2
100
AcDbTrace
 10
447.9636750908662
 20
-130.8611241381362
 30
0.0
 11
448.3854475701905
 21
-130.8611241381362
 31
0.0
 12
447.9636750908662
 22
-140.5267434559704
 32
0.0
 13
448.3854475701905
 23
-140.5267434559704
 33
0.0
  0
SOLID
  5
959
330
2
100
AcDbEntity
  8
LOGO
 62
     5
100
AcDbTrace
 10
448.3854475701905
 20
-139.7534939105442
 30
0.0
 11
449.4047310618894
 21
-136.0161211076478
 31
0.0
 12
453.2358310824122
 22
-130.8611241381355
 32
0.0
 13
452.2165475907137
 23
-130.8611241381355
 33
0.0
  0
SOLID
  5
95A
330
2
100
AcDbEntity
  8
LOGO
 62
     5
100
AcDbTrace
 10
448.3854475701905
 20
-140.5267434559704
 30
0.0
 11
449.4047310618894
 21
-140.5267434559704
 31
0.0
 12
453.2358310824122
 22
-131.6343736835626
 32
0.0
 13
452.2165475907137
 23
-135.3717464864588
 33
0.0
  0
SOLID
  5
95B
330
2
100
AcDbEntity
  8
LOGO
 62
     2
100
AcDbTrace
 10
447.9636750908662
 20
-140.5267434559704
 30
0.0
 11
448.3854475701905
 21
-140.5267434559704
 31
0.0
 12
453.2358310824122
 22
-130.8611241381355
 32
0.0
 13
453.6576035617361
 23
-130.8611241381362
 33
0.0
  0
LWPOLYLINE
  5
95C
330
2
100
AcDbEntity
  8
LOGO
 62
     4
100
AcDbPolyline
 90
        4
 70
     1
 43
0.0
 10
439.226381860869
 20
-130.3011293279892
 10
619.3551842232229
 20
-130.3011293279892
 10
619.3551842232229
 20
-153.8752586113885
 10
439.226381860869
 20
-153.8752586113886
1001
GENIUS_GENREC_14
1002
{
1000
PYDIR
1011
439.226381860869
1021
-153.8752586113886
1031
0.0
1002
}
1002
{
1000
PXDIR
1011
619.3551842232229
1021
-130.3011293279892
1031
0.0
1002
}
1002
{
1000
PORI
1011
439.226381860869
1021
-130.3011293279892
1031
0.0
1002
}
1002
{
1000
PINS
1011
439.226381860869
1021
-130.3011293279892
1031
0.0
1002
}
1002
{
1000
PINS2
1011
619.3551842232229
1021
-153.8752586113885
1031
0.0
1002
}
1002
{
1000
C
1070
     1
1002
}
1001
GENIUS_GENOBJ-N-REC_13
1002
{
1000
OWNER
1000
GEN
1002
}
1001
GENIUS_GENODEF_13
1002
{
1000
HIER
1070
     0
1002
}
1002
{
1000
MANEDIT
1070
     0
1002
}
1002
{
1000
NOSEL
1070
     0
1002
}
1002
{
1000
BEHIND
1070
     0
1002
}
1002
{
1000
OTHER
1070
     0
1002
}
1002
{
1000
REACTOR
1002
}
  0
TEXT
  5
95D
330
2
100
AcDbEntity
  8
LOGO
100
AcDbText
 10
492.0245543104946
 20
-152.6211242380712
 30
0.0
 40
2.357754322630987
  1
0130308B
 41
0.7
  7
chineset
 72
     1
 11
497.9189401170721
 21
-152.6211242380712
 31
0.0
100
AcDbText
  0
LINE
  5
95E
330
2
100
AcDbEntity
  8
LOGO
 62
     4
100
AcDbLine
 10
505.2359922201315
 20
-149.160432754708
 30
0.0
 11
505.2359922201331
 21
-153.8752586113882
 31
0.0
  0
LINE
  5
95F
330
2
100
AcDbEntity
  8
LOGO
 62
     4
100
AcDbLine
 10
505.2359922201315
 20
-149.160432754708
 30
0.0
 11
491.0894662843471
 21
-149.160432754708
 31
0.0
  0
CIRCLE
  5
960
330
2
100
AcDbEntity
  8
LOGO
  6
Continuous
100
AcDbCircle
 10
479.7384249927836
 20
-137.3683255895041
 30
0.0
 40
1.368769433439616
  0
CIRCLE
  5
961
330
2
100
AcDbEntity
  8
LOGO
  6
Continuous
100
AcDbCircle
 10
479.7384249927836
 20
-137.3683255895041
 30
0.0
 40
0.8019777176933247
  0
LINE
  5
962
330
2
100
AcDbEntity
  8
LOGO
100
AcDbLine
 10
488.3399309378063
 20
-138.7370950229438
 30
0.0
 11
488.3399309378063
 21
-135.9995561560642
 31
0.0
  0
LINE
  5
963
330
2
100
AcDbEntity
  8
LOGO
100
AcDbLine
 10
484.0489173350873
 20
-138.1703033071973
 30
0.0
 11
484.0489173350873
 21
-136.5663478718105
 31
0.0
  0
LINE
  5
964
330
2
100
AcDbEntity
  8
LOGO
  6
Continuous
100
AcDbLine
 10
484.0489173350873
 20
-136.5663478718105
 30
0.0
 11
488.3399309378063
 21
-135.9995561560642
 31
0.0
  0
LINE
  5
965
330
2
100
AcDbEntity
  8
LOGO
  6
Continuous
100
AcDbLine
 10
484.0489173350873
 20
-138.1703033071973
 30
0.0
 11
488.3399309378063
 21
-138.7370950229438
 31
0.0
  0
LINE
  5
966
330
2
100
AcDbEntity
  8
LOGO
  6
AM_ISO08W050x2
 48
0.3
100
AcDbLine
 10
477.8515558330781
 20
-137.3683255895041
 30
0.0
 11
481.6252941524878
 21
-137.3683255895041
 31
0.0
1001
GENIUS_GENOREF_13
1005
96C
  0
LINE
  5
967
330
2
100
AcDbEntity
  8
LOGO
  6
AM_ISO08W050x2
 48
0.3
100
AcDbLine
 10
479.7384249927836
 20
-139.2551947492086
 30
0.0
 11
479.7384249927836
 21
-135.481456429799
 31
0.0
1001
GENIUS_GENOREF_13
1005
96B
  0
LINE
  5
968
330
2
100
AcDbEntity
  8
LOGO
  6
CENTER
 48
0.5
100
AcDbLine
 10
483.7057555150351
 20
-137.3683255895041
 30
0.0
 11
488.7720221168723
 21
-137.3683255895041
 31
0.0
1001
GENIUS_GENOREF_13
1005
96A
  0
LWPOLYLINE
  5
969
330
2
100
AcDbEntity
  8
LOGO
 62
     4
100
AcDbPolyline
 90
        4
 70
     1
 43
0.0
 10
439.226381860869
 20
-12.56547116260279
 10
619.3551842232229
 20
-12.56547116260279
 10
619.3551842232229
 20
-130.3011293279892
 10
439.226381860869
 20
-130.3011293279892
  0
POINT
  5
96A
330
2
100
AcDbEntity
  8
0
 60
     1
100
AcDbPoint
 10
2451.108849283049
 20
-757.9063032409765
 30
0.0
1001
GENIUS_GENOBJ-N-CRS_13
1002
{
1000
OWNER
1000
GEN
1002
}
1001
GENIUS_GENOLIS_13
1002
{
1000
ENT
1005
0
1005
0
1005
0
1005
968
1002
}
1001
GENIUS_GENOENT_13
1002
{
1000
MYREF
1005
96A
1002
}
1002
{
1000
GRP
1005
0
1002
}
1001
GENIUS_GENODEF_13
1002
{
1000
HIER
1070
    10
1002
}
1002
{
1000
MANEDIT
1070
     1
1002
}
1002
{
1000
NOSEL
1070
     0
1002
}
1002
{
1000
BEHIND
1070
     0
1002
}
1002
{
1000
OTHER
1070
     0
1002
}
1002
{
1000
REACTOR
1002
}
  0
POINT
  5
96B
330
2
100
AcDbEntity
  8
0
 60
     1
100
AcDbPoint
 10
2439.784264060194
 20
-749.0307167623402
 30
0.0
1001
GENIUS_GENOBJ-N-CRS_13
1002
{
1000
OWNER
1000
GEN
1002
}
1001
GENIUS_GENOLIS_13
1002
{
1000
ENT
1005
0
1005
0
1005
0
1005
967
1002
}
1001
GENIUS_GENOENT_13
1002
{
1000
MYREF
1005
96B
1002
}
1002
{
1000
GRP
1005
0
1002
}
1001
GENIUS_GENODEF_13
1002
{
1000
HIER
1070
    10
1002
}
1002
{
1000
MANEDIT
1070
     1
1002
}
1002
{
1000
NOSEL
1070
     0
1002
}
1002
{
1000
BEHIND
1070
     0
1002
}
1002
{
1000
OTHER
1070
     0
1002
}
1002
{
1000
REACTOR
1002
}
  0
POINT
  5
96C
330
2
100
AcDbEntity
  8
0
 60
     1
100
AcDbPoint
 10
2446.142937758031
 20
-757.9063032409765
 30
0.0
1001
GENIUS_GENOBJ-N-CRS_13
1002
{
1000
OWNER
1000
GEN
1002
}
1001
GENIUS_GENOLIS_13
1002
{
1000
ENT
1005
0
1005
0
1005
0
1005
966
1002
}
1001
GENIUS_GENOENT_13
1002
{
1000
MYREF
1005
96C
1002
}
1002
{
1000
GRP
1005
0
1002
}
1001
GENIUS_GENODEF_13
1002
{
1000
HIER
1070
    10
1002
}
1002
{
1000
MANEDIT
1070
     1
1002
}
1002
{
1000
NOSEL
1070
     0
1002
}
1002
{
1000
BEHIND
1070
     0
1002
}
1002
{
1000
OTHER
1070
     0
1002
}
1002
{
1000
REACTOR
1002
}
  0
LINE
  5
FC9
330
2
100
AcDbEntity
  8
AM_VIS
100
AcDbLine
 10
555.3414266729732
 20
-66.33364917373111
 30
0.0
 11
566.7614266729729
 21
-66.33364917373111
 31
0.0
  0
LINE
  5
FCA
330
2
100
AcDbEntity
  8
AM_VIS
100
AcDbLine
 10
555.3414266729732
 20
-59.40544594345576
 30
0.0
 11
566.7614266729729
 21
-59.40544594345576
 31
0.0
  0
LINE
  5
FCB
330
2
100
AcDbEntity
  8
AM_VIS
100
AcDbLine
 10
555.3414266729732
 20
-68.93172538508449
 30
0.0
 11
566.7614266729729
 21
-68.93172538508449
 31
0.0
  0
LINE
  5
FCC
330
2
100
AcDbEntity
  8
AM_VIS
100
AcDbLine
 10
555.3414266729732
 20
-56.80736973210239
 30
0.0
 11
566.7614266729729
 21
-56.80736973210239
 31
0.0
  0
LINE
  5
FCD
330
2
100
AcDbEntity
  8
3
100
AcDbLine
 10
553.9551466729731
 20
-76.11954755859343
 30
0.0
 11
595.1760866729732
 21
-76.11954755859343
 31
0.0
  0
LINE
  5
FCE
330
2
100
AcDbEntity
  8
AM_VIS
100
AcDbLine
 10
555.3414266729737
 20
-101.1195475585934
 30
0.0
 11
594.3414266729733
 21
-101.1195475585934
 31
0.0
  0
LINE
  5
FCF
330
2
100
AcDbEntity
  8
AM_VIS
100
AcDbLine
 10
555.3414266729732
 20
-51.11954755859343
 30
0.0
 11
594.3414266729733
 21
-51.11954755859343
 31
0.0
  0
LINE
  5
FD0
330
2
100
AcDbEntity
  8
AM_VIS
100
AcDbLine
 10
553.3414266729733
 20
-64.11954755859344
 30
0.0
 11
553.3414266729733
 21
-87.24384528923698
 31
0.0
  0
LINE
  5
FD1
330
2
100
AcDbEntity
  8
AM_VIS
100
AcDbLine
 10
490.4034677439348
 20
-68.2224332415635
 30
0.0
 11
494.9034677439349
 21
-76.0166618756235
 31
0.0
  0
LINE
  5
FD2
330
2
100
AcDbEntity
  8
AM_VIS
100
AcDbLine
 10
491.0864804458269
 20
-68.40544594345576
 30
0.0
 11
495.0864804458269
 21
-75.33364917373134
 31
0.0
  0
LINE
  5
FD3
330
2
100
AcDbEntity
  8
AM_VIS
100
AcDbLine
 10
476.5470612833836
 20
-76.01666187562338
 30
0.0
 11
481.0470612833837
 21
-68.2224332415635
 31
0.0
  0
LINE
  5
FD4
330
2
100
AcDbEntity
  8
AM_VIS
100
AcDbLine
 10
476.3640485814916
 20
-75.33364917373112
 30
0.0
 11
480.3640485814916
 21
-68.40544594345576
 31
0.0
  0
ARC
  5
FD5
330
2
100
AcDbEntity
  8
AM_VIS
100
AcDbCircle
 10
485.725264513659
 20
-76.11954755859343
 30
0.0
 40
25.0
100
AcDbArc
 50
313.4398127675177
 51
20.79310377865652
  0
ARC
  5
FD6
330
2
100
AcDbEntity
  8
AM_VIS
100
AcDbCircle
 10
485.725264513659
 20
-76.11954755859343
 30
0.0
 40
25.0
100
AcDbArc
 50
159.2068962213435
 51
226.5601872324823
  0
LINE
  5
FD7
330
2
100
AcDbEntity
  8
AM_VIS
100
AcDbLine
 10
495.0864804458269
 20
-75.33364917373112
 30
0.0
 11
510.6749377139467
 21
-66.33364917373111
 31
0.0
  0
LINE
  5
FD8
330
2
100
AcDbEntity
  8
AM_VIS
100
AcDbLine
 10
476.3640485814916
 20
-75.33364917373112
 30
0.0
 11
460.7755913133714
 21
-66.33364917373111
 31
0.0
  0
CIRCLE
  5
FD9
330
2
100
AcDbEntity
  8
3
100
AcDbCircle
 10
485.725264513659
 20
-76.11954755859343
 30
0.0
 40
22.0
  0
LINE
  5
FDA
330
2
100
AcDbEntity
  8
3
100
AcDbLine
 10
485.725264513659
 20
-48.05771755859345
 30
0.0
 11
485.725264513659
 21
-104.0933275585935
 31
0.0
  0
LINE
  5
FDB
330
2
100
AcDbEntity
  8
AM_VIS
100
AcDbLine
 10
555.3414266729732
 20
-51.11954755859343
 30
0.0
 11
555.3414266729737
 21
-101.1195475585933
 31
0.0
  0
LINE
  5
FDC
330
2
100
AcDbEntity
  8
3
100
AcDbLine
 10
497.6337592741228
 20
-82.99492021419027
 30
0.0
 11
509.7991104730981
 21
-90.01858900370505
 31
0.0
  0
LINE
  5
FDD
330
2
100
AcDbEntity
  8
AM_VIS
100
AcDbLine
 10
500.3887091625178
 20
-90.24995417092666
 30
0.0
 11
502.4456295135145
 21
-92.70129638890736
 31
0.0
  0
LINE
  5
FDE
330
2
100
AcDbEntity
  8
3
100
AcDbLine
 10
497.4284195919321
 20
-90.06682466781237
 30
0.0
 11
501.6792484649339
 21
-95.13276524871534
 31
0.0
  0
ARC
  5
FDF
330
2
100
AcDbEntity
  8
AM_VIS
100
AcDbCircle
 10
504.777823396917
 20
-87.11954755859343
 30
0.0
 40
3.25
100
AcDbArc
 50
64.23593235327015
 51
235.7640676467238
  0
LINE
  5
FE0
330
2
100
AcDbEntity
  8
3
100
AcDbLine
 10
500.9639059774563
 20
-84.91758130980073
 30
0.0
 11
508.3377961559421
 21
-89.17489878932437
 31
0.0
  0
LINE
  5
FE1
102
{ACAD_REACTORS
330
1051
102
}
330
2
100
AcDbEntity
  8
3
100
AcDbLine
 10
458.5795845136594
 20
-76.11954755859343
 30
0.0
 11
513.3533045136592
 21
-76.11954755859343
 31
0.0
  0
ARC
  5
FE2
330
2
100
AcDbEntity
  8
AM_VIS
100
AcDbCircle
 10
485.725264513659
 20
-76.11954755859343
 30
0.0
 40
12.0
100
AcDbArc
 50
172.0243128370414
 51
247.9756871629577
  0
ARC
  5
FE3
330
2
100
AcDbEntity
  8
AM_VIS
100
AcDbCircle
 10
485.725264513659
 20
-76.11954755859343
 30
0.0
 40
25.0
100
AcDbArc
 50
233.4398127675251
 51
260.7931037786626
  0
LINE
  5
FE4
330
2
100
AcDbEntity
  8
AM_VIS
100
AcDbLine
 10
478.725264513659
 20
-102.6195475585934
 30
0.0
 11
492.725264513659
 21
-102.6195475585934
 31
0.0
  0
LINE
  5
FE5
330
2
100
AcDbEntity
  8
3
100
AcDbLine
 10
474.062517189372
 20
-82.85303786576125
 30
0.0
 11
461.6514185542205
 21
-90.01858900370505
 31
0.0
  0
LINE
  5
FE6
330
2
100
AcDbEntity
  8
3
100
AcDbLine
 10
470.4866230498622
 20
-84.91758130980073
 30
0.0
 11
463.1127328713763
 21
-89.17489878932437
 31
0.0
  0
ARC
  5
FE7
330
2
100
AcDbEntity
  8
AM_VIS
100
AcDbCircle
 10
466.6727056304016
 20
-87.11954755859343
 30
0.0
 40
3.25
100
AcDbArc
 50
304.2359323532761
 51
115.7640676467298
  0
LINE
  5
FE8
330
2
100
AcDbEntity
  8
AM_VIS
100
AcDbLine
 10
468.501916044619
 20
-89.80736212170084
 30
0.0
 11
465.8786464013277
 21
-91.32190755641202
 31
0.0
  0
LINE
  5
FE9
102
{ACAD_REACTORS
330
1057
102
}
330
2
100
AcDbEntity
  8
AM_VIS
100
AcDbLine
 10
478.725264513659
 20
-100.1195475585934
 30
0.0
 11
478.725264513659
 21
-102.6195475585934
 31
0.0
  0
LINE
  5
FEA
330
2
100
AcDbEntity
  8
3
100
AcDbLine
 10
474.0221094353864
 20
-90.06682466781237
 30
0.0
 11
469.7712805623845
 21
-95.13276524871534
 31
0.0
  0
LINE
  5
FEB
330
2
100
AcDbEntity
  8
AM_VIS
100
AcDbLine
 10
472.7088154175066
 20
-91.63194753175273
 30
0.0
 11
474.3558109702125
 21
-93.01394089257881
 31
0.0
  0
LINE
  5
FEC
330
2
100
AcDbEntity
  8
AM_VIS
100
AcDbLine
 10
474.3558109702125
 20
-93.01394089257881
 30
0.0
 11
472.2988906192157
 21
-95.46528311055951
 31
0.0
  0
LINE
  5
FED
330
2
100
AcDbEntity
  8
1
100
AcDbLine
 10
469.5028284018312
 20
-93.11910833520366
 30
0.0
 11
469.004899513804
 21
-92.70129638890736
 31
0.0
  0
LINE
  5
FEE
330
2
100
AcDbEntity
  8
AM_VIS
100
AcDbLine
 10
471.8009617311885
 20
-95.04747116426321
 30
0.0
 11
472.2988906192157
 21
-95.46528311055951
 31
0.0
  0
LINE
  5
FEF
330
2
100
AcDbEntity
  8
AM_VIS
100
AcDbLine
 10
471.8009617311885
 20
-95.04747116426321
 30
0.0
 11
470.8335924584729
 21
-96.20033697038682
 31
0.0
  0
LINE
  5
FF0
330
2
100
AcDbEntity
  8
AM_VIS
100
AcDbLine
 10
469.5028284018312
 20
-93.11910833520366
 30
0.0
 11
468.5354591291161
 21
-94.27197414132725
 31
0.0
  0
LINE
  5
FF1
330
2
100
AcDbEntity
  8
AM_VIS
100
AcDbLine
 10
471.0618198648007
 20
-90.24995417092666
 30
0.0
 11
469.004899513804
 21
-92.70129638890736
 31
0.0
  0
LINE
  5
FF2
330
2
100
AcDbEntity
  8
AM_VIS
100
AcDbLine
 10
472.7088154175066
 20
-91.63194753175261
 30
0.0
 11
471.0618198648007
 21
-90.24995417092666
 31
0.0
  0
CIRCLE
  5
FF3
330
2
100
AcDbEntity
  8
AM_VIS
100
AcDbCircle
 10
466.7252645136595
 20
-87.08920267319646
 30
0.0
 40
1.7
  0
LINE
  5
FF4
330
2
100
AcDbEntity
  8
AM_VIS
100
AcDbLine
 10
465.2600398634803
 20
-84.19262503980892
 30
0.0
 11
462.6367891190406
 21
-85.70715956326305
 31
0.0
  0
CIRCLE
  5
FF5
330
2
100
AcDbEntity
  8
AM_VIS
100
AcDbCircle
 10
463.725264513659
 20
-76.11954755859343
 30
0.0
 40
1.5
  0
LINE
  5
FF6
330
2
100
AcDbEntity
  8
AM_VIS
100
AcDbLine
 10
476.5470612833836
 20
-76.01666187562338
 30
0.0
 11
473.8413400796602
 21
-74.45451301030172
 31
0.0
  0
ARC
  5
FF7
330
2
100
AcDbEntity
  8
AM_4
100
AcDbCircle
 10
485.725264513659
 20
-87.61954755859344
 30
0.0
 40
1.5
100
AcDbArc
 50
186.1297091610567
 51
97.26654199246448
  0
LINE
  5
FF8
330
2
100
AcDbEntity
  8
AM_VIS
100
AcDbLine
 10
481.7252645136595
 20
-84.61954755859343
 30
0.0
 11
481.725264513659
 21
-102.6195475585934
 31
0.0
  0
LINE
  5
FF9
330
2
100
AcDbEntity
  8
AM_VIS
100
AcDbLine
 10
489.7252645136595
 20
-84.61954755859343
 30
0.0
 11
489.725264513659
 21
-102.6195475585934
 31
0.0
  0
ARC
  5
FFA
330
2
100
AcDbEntity
  8
AM_VIS
100
AcDbCircle
 10
485.725264513659
 20
-76.11954755859343
 30
0.0
 40
25.0
100
AcDbArc
 50
279.2068962213374
 51
306.5601872324749
  0
CIRCLE
  5
FFB
330
2
100
AcDbEntity
  8
AM_VIS
100
AcDbCircle
 10
485.725264513659
 20
-99.61954755859345
 30
0.0
 40
1.3
  0
LINE
  5
FFC
330
2
100
AcDbEntity
  8
3
100
AcDbLine
 10
483.7502745136593
 20
-99.61954755859345
 30
0.0
 11
487.8815245136592
 21
-99.61954755859345
 31
0.0
  0
ARC
  5
FFD
330
2
100
AcDbEntity
  8
AM_4
100
AcDbCircle
 10
485.725264513659
 20
-99.61954755859345
 30
0.0
 40
1.5
100
AcDbArc
 50
191.9964790508271
 51
101.4563033599024
  0
CIRCLE
  5
FFE
330
2
100
AcDbEntity
  8
AM_VIS
100
AcDbCircle
 10
485.725264513659
 20
-93.61954755859343
 30
0.0
 40
1.5
  0
LINE
  5
FFF
330
2
100
AcDbEntity
  8
3
100
AcDbLine
 10
483.7502745136593
 20
-93.61954755859343
 30
0.0
 11
487.8815245136592
 21
-93.61954755859343
 31
0.0
  0
LINE
  5
1000
330
2
100
AcDbEntity
  8
AM_VIS
100
AcDbLine
 10
481.725264513659
 20
-91.11954755859343
 30
0.0
 11
489.7252645136595
 21
-91.11954755859343
 31
0.0
  0
LINE
  5
1001
330
2
100
AcDbEntity
  8
AM_VIS
100
AcDbLine
 10
481.725264513659
 20
-96.11954755859343
 30
0.0
 11
489.7252645136595
 21
-96.11954755859343
 31
0.0
  0
LINE
  5
1002
102
{ACAD_REACTORS
330
1051
102
}
330
2
100
AcDbEntity
  8
AM_VIS
100
AcDbLine
 10
492.725264513659
 20
-100.1195475585934
 30
0.0
 11
492.725264513659
 21
-102.6195475585934
 31
0.0
  0
LINE
  5
1003
330
2
100
AcDbEntity
  8
AM_VIS
100
AcDbLine
 10
498.7417136098119
 20
-91.63194753175273
 30
0.0
 11
497.094718057106
 21
-93.01394089257881
 31
0.0
  0
LINE
  5
1004
330
2
100
AcDbEntity
  8
AM_VIS
100
AcDbLine
 10
498.7417136098119
 20
-91.63194753175261
 30
0.0
 11
500.3887091625178
 21
-90.24995417092666
 31
0.0
  0
LINE
  5
1005
330
2
100
AcDbEntity
  8
AM_VIS
100
AcDbLine
 10
497.094718057106
 20
-93.01394089257881
 30
0.0
 11
499.1516384081028
 21
-95.46528311055951
 31
0.0
  0
LINE
  5
1006
330
2
100
AcDbEntity
  8
AM_VIS
100
AcDbLine
 10
499.64956729613
 20
-95.04747116426321
 30
0.0
 11
500.6169365688456
 21
-96.20033697038682
 31
0.0
  0
LINE
  5
1007
330
2
100
AcDbEntity
  8
AM_VIS
100
AcDbLine
 10
499.64956729613
 20
-95.04747116426321
 30
0.0
 11
499.1516384081028
 21
-95.46528311055951
 31
0.0
  0
ARC
  5
1008
330
2
100
AcDbEntity
  8
AM_VIS
100
AcDbCircle
 10
485.725264513659
 20
-76.11954755859343
 30
0.0
 40
12.0
100
AcDbArc
 50
292.0243128370424
 51
7.975687162958548
  0
LINE
  5
1009
330
2
100
AcDbEntity
  8
AM_VIS
100
AcDbLine
 10
481.2252645136594
 20
-84.11954755859344
 30
0.0
 11
490.2252645136595
 21
-84.11954755859344
 31
0.0
  0
LINE
  5
100A
102
{ACAD_REACTORS
330
1057
102
}
330
2
100
AcDbEntity
  8
AM_VIS
100
AcDbLine
 10
481.7252645136595
 20
-84.61954755859343
 30
0.0
 11
489.7252645136595
 21
-84.61954755859343
 31
0.0
  0
CIRCLE
  5
100B
330
2
100
AcDbEntity
  8
AM_VIS
100
AcDbCircle
 10
485.725264513659
 20
-87.61954755859344
 30
0.0
 40
1.3
  0
LINE
  5
100C
102
{ACAD_REACTORS
330
1054
102
}
330
2
100
AcDbEntity
  8
3
100
AcDbLine
 10
483.6867145136593
 20
-87.61954755859344
 30
0.0
 11
487.7544145136593
 21
-87.61954755859344
 31
0.0
  0
LINE
  5
100D
330
2
100
AcDbEntity
  8
AM_VIS
100
AcDbLine
 10
481.2252645136594
 20
-84.11954755859344
 30
0.0
 11
481.2252645136594
 21
-87.24384528923698
 31
0.0
  0
LINE
  5
100E
330
2
100
AcDbEntity
  8
AM_VIS
100
AcDbLine
 10
490.2252645136595
 20
-84.11954755859344
 30
0.0
 11
490.2252645136595
 21
-87.24384528923698
 31
0.0
  0
LINE
  5
100F
330
2
100
AcDbEntity
  8
AM_VIS
100
AcDbLine
 10
494.9034677439349
 20
-76.0166618756235
 30
0.0
 11
497.6091889476583
 21
-74.45451301030172
 31
0.0
  0
LINE
  5
1010
330
2
100
AcDbEntity
  8
AM_VIS
100
AcDbLine
 10
501.9477006254873
 20
-93.11910833520366
 30
0.0
 11
502.4456295135145
 21
-92.70129638890736
 31
0.0
  0
LINE
  5
1011
330
2
100
AcDbEntity
  8
AM_VIS
100
AcDbLine
 10
501.9477006254873
 20
-93.11910833520366
 30
0.0
 11
502.9150698982024
 21
-94.27197414132725
 31
0.0
  0
LINE
  5
1012
330
2
100
AcDbEntity
  8
AM_VIS
100
AcDbLine
 10
502.9493670242013
 20
-89.8064132591962
 30
0.0
 11
505.572617768641
 21
-91.32094778265045
 31
0.0
  0
LINE
  5
1013
330
2
100
AcDbEntity
  8
AM_VIS
100
AcDbLine
 10
506.190933882121
 20
-84.19149758946034
 30
0.0
 11
508.8142035254122
 21
-85.70604302417152
 31
0.0
  0
CIRCLE
  5
1014
330
2
100
AcDbEntity
  8
AM_VIS
100
AcDbCircle
 10
504.7252645136591
 20
-87.08920267319646
 30
0.0
 40
1.7
  0
CIRCLE
  5
1015
330
2
100
AcDbEntity
  8
AM_VIS
100
AcDbCircle
 10
507.725264513659
 20
-76.11954755859343
 30
0.0
 40
1.5
  0
LINE
  5
1016
330
2
100
AcDbEntity
  8
AM_VIS
100
AcDbLine
 10
553.3414266729733
 20
-87.24384528923698
 30
0.0
 11
555.3414266729732
 21
-87.24384528923698
 31
0.0
  0
ARC
  5
1017
330
2
100
AcDbEntity
  8
AM_VIS
100
AcDbCircle
 10
485.725264513659
 20
-76.11954755859343
 30
0.0
 40
25.0
100
AcDbArc
 50
39.20689622134614
 51
140.7931037786538
  0
CIRCLE
  5
1018
330
2
100
AcDbEntity
  8
AM_VIS
100
AcDbCircle
 10
500.8807090798867
 20
-67.36954755859343
 30
0.0
 40
1.5
  0
LINE
  5
1019
330
2
100
AcDbEntity
  8
AM_VIS
100
AcDbLine
 10
505.0457725893479
 20
-69.58364917373112
 30
0.0
 11
501.0457725893479
 21
-62.65544594345576
 31
0.0
  0
LINE
  5
101A
330
2
100
AcDbEntity
  8
3
100
AcDbLine
 10
501.8682040798871
 20
-69.07993907081365
 30
0.0
 11
499.8025790798869
 21
-65.50217162142925
 31
0.0
  0
LINE
  5
101B
330
2
100
AcDbEntity
  8
AM_VIS
100
AcDbLine
 10
491.0864804458269
 20
-68.40544594345576
 30
0.0
 11
506.6749377139467
 21
-59.40544594345576
 31
0.0
  0
LINE
  5
101C
330
2
100
AcDbEntity
  8
3
100
AcDbLine
 10
491.8596320231808
 20
-72.57786882566299
 30
0.0
 11
509.7991104730981
 21
-62.22050611348194
 31
0.0
  0
ARC
  5
101D
330
2
100
AcDbEntity
  8
AM_VIS
100
AcDbCircle
 10
485.725264513659
 20
-76.11954755859343
 30
0.0
 40
12.0
100
AcDbArc
 50
52.0243128370481
 51
127.9756871629519
  0
LINE
  5
101E
330
2
100
AcDbEntity
  8
AM_VIS
100
AcDbLine
 10
481.0470612833837
 20
-68.2224332415635
 30
0.0
 11
478.3413400796602
 21
-66.66028437624172
 31
0.0
  0
LINE
  5
101F
330
2
100
AcDbEntity
  8
3
100
AcDbLine
 10
479.5908970041377
 20
-72.57786882566299
 30
0.0
 11
461.6514185542205
 21
-62.22050611348194
 31
0.0
  0
LINE
  5
1020
330
2
100
AcDbEntity
  8
AM_VIS
100
AcDbLine
 10
480.3640485814916
 20
-68.40544594345565
 30
0.0
 11
464.7755913133714
 21
-59.40544594345576
 31
0.0
  0
LINE
  5
1021
330
2
100
AcDbEntity
  8
AM_VIS
100
AcDbLine
 10
459.2755913133713
 20
-68.93172538508449
 30
0.0
 11
466.2755913133718
 21
-56.80736973210239
 31
0.0
  0
LINE
  5
1022
330
2
100
AcDbEntity
  8
AM_VIS
100
AcDbLine
 10
466.4047564379706
 20
-69.58364917373112
 30
0.0
 11
470.4047564379706
 21
-62.65544594345576
 31
0.0
  0
LINE
  5
1023
330
2
100
AcDbEntity
  8
AM_VIS
100
AcDbLine
 10
461.440654822833
 20
-70.18172538508449
 30
0.0
 11
459.2755913133713
 21
-68.93172538508449
 31
0.0
  0
LINE
  5
1024
330
2
100
AcDbEntity
  8
3
100
AcDbLine
 10
464.3861725247251
 20
-66.07993907081365
 30
0.0
 11
466.4517975247249
 21
-62.50217162142914
 31
0.0
  0
CIRCLE
  5
1025
330
2
100
AcDbEntity
  8
AM_VIS
100
AcDbCircle
 10
465.373667524725
 20
-64.36954755859344
 30
0.0
 40
1.3
  0
ARC
  5
1026
330
2
100
AcDbEntity
  8
AM_4
100
AcDbCircle
 10
465.373667524725
 20
-64.36954755859344
 30
0.0
 40
1.5
100
AcDbArc
 50
318.5436966400867
 51
228.0035209491618
  0
LINE
  5
1027
330
2
100
AcDbEntity
  8
3
100
AcDbLine
 10
469.5823249474314
 20
-69.07993907081365
 30
0.0
 11
471.6479499474316
 21
-65.50217162142925
 31
0.0
  0
CIRCLE
  5
1028
330
2
100
AcDbEntity
  8
AM_VIS
100
AcDbCircle
 10
470.5698199474317
 20
-67.36954755859343
 30
0.0
 40
1.5
  0
LINE
  5
1029
330
2
100
AcDbEntity
  8
AM_VIS
100
AcDbLine
 10
470.7348834568929
 20
-72.08364917373112
 30
0.0
 11
474.7348834568929
 21
-65.15544594345576
 31
0.0
  0
LINE
  5
102A
330
2
100
AcDbEntity
  8
3
100
AcDbLine
 10
474.7466973701384
 20
-72.13498364547828
 30
0.0
 11
476.7805473701382
 21
-68.61225211050416
 31
0.0
  0
CIRCLE
  5
102B
330
2
100
AcDbEntity
  8
AM_VIS
100
AcDbCircle
 10
475.765972370138
 20
-70.36954755859344
 30
0.0
 40
1.3
  0
ARC
  5
102C
330
2
100
AcDbEntity
  8
AM_4
100
AcDbCircle
 10
475.765972370138
 20
-70.36954755859344
 30
0.0
 40
1.5
100
AcDbArc
 50
322.733458007554
 51
233.870290838936
  0
LINE
  5
102D
330
2
100
AcDbEntity
  8
AM_VIS
100
AcDbLine
 10
468.440654822833
 20
-58.05736973210239
 30
0.0
 11
466.2755913133714
 21
-56.80736973210239
 31
0.0
  0
LINE
  5
102E
330
2
100
AcDbEntity
  8
AM_VIS
100
AcDbLine
 10
490.4034677439348
 20
-68.2224332415635
 30
0.0
 11
493.1091889476583
 21
-66.66028437624183
 31
0.0
  0
LINE
  5
102F
330
2
100
AcDbEntity
  8
AM_VIS
100
AcDbLine
 10
500.7156455704256
 20
-72.08364917373112
 30
0.0
 11
496.7156455704256
 21
-65.15544594345576
 31
0.0
  0
ARC
  5
1030
330
2
100
AcDbEntity
  8
AM_4
100
AcDbCircle
 10
495.6845566571804
 20
-70.36954755859344
 30
0.0
 40
1.5
100
AcDbArc
 50
306.1297091610641
 51
217.266541992446
  0
CIRCLE
  5
1031
330
2
100
AcDbEntity
  8
AM_VIS
100
AcDbCircle
 10
495.6845566571804
 20
-70.36954755859344
 30
0.0
 40
1.3
  0
LINE
  5
1032
330
2
100
AcDbEntity
  8
3
100
AcDbLine
 10
496.7038316571801
 20
-72.13498364547828
 30
0.0
 11
494.6699816571803
 21
-68.61225211050416
 31
0.0
  0
LINE
  5
1033
330
2
100
AcDbEntity
  8
AM_VIS
100
AcDbLine
 10
482.4841423740226
 20
-54.35960437677519
 30
0.0
 11
482.4841423740226
 21
-51.33053532986693
 31
0.0
  0
LINE
  5
1034
330
2
100
AcDbEntity
  8
AM_VIS
100
AcDbLine
 10
488.9675854130809
 20
-54.35978296461914
 30
0.0
 11
488.9675854130809
 21
-51.33069209519678
 31
0.0
  0
ARC
  5
1035
330
2
100
AcDbEntity
  8
AM_VIS
100
AcDbCircle
 10
485.725264513659
 20
-54.11954755859344
 30
0.0
 40
3.25
100
AcDbArc
 50
184.2359323532609
 51
355.7640676467392
  0
CIRCLE
  5
1036
102
{ACAD_REACTORS
330
105D
102
}
330
2
100
AcDbEntity
  8
AM_VIS
100
AcDbCircle
 10
485.725264513659
 20
-54.08920267319647
 30
0.0
 40
1.7
  0
LINE
  5
1037
330
2
100
AcDbEntity
  8
5
100
AcDbLine
 10
555.3414266729732
 20
-50.11954755859344
 30
0.0
 11
555.3414266729732
 21
-41.91106755859343
 31
0.0
  0
LINE
  5
1038
330
2
100
AcDbEntity
  8
AM_VIS
100
AcDbLine
 10
512.1749377139471
 20
-68.93172538508449
 30
0.0
 11
505.1749377139467
 21
-56.80736973210239
 31
0.0
  0
LINE
  5
1039
330
2
100
AcDbEntity
  8
AM_VIS
100
AcDbLine
 10
510.0098742044856
 20
-70.18172538508449
 30
0.0
 11
512.1749377139467
 21
-68.93172538508449
 31
0.0
  0
ARC
  5
103A
102
{ACAD_REACTORS
330
105A
102
}
330
2
100
AcDbEntity
  8
AM_4
100
AcDbCircle
 10
506.0768615025936
 20
-64.36954755859344
 30
0.0
 40
1.5
100
AcDbArc
 50
311.9964790508382
 51
221.4563033599133
  0
CIRCLE
  5
103B
330
2
100
AcDbEntity
  8
AM_VIS
100
AcDbCircle
 10
506.0768615025936
 20
-64.36954755859344
 30
0.0
 40
1.3
  0
LINE
  5
103C
330
2
100
AcDbEntity
  8
3
100
AcDbLine
 10
507.0643565025934
 20
-66.07993907081365
 30
0.0
 11
504.9987315025937
 21
-62.50217162142914
 31
0.0
  0
LINE
  5
103D
330
2
100
AcDbEntity
  8
AM_VIS
100
AcDbLine
 10
503.0098742044855
 20
-58.05736973210239
 30
0.0
 11
505.1749377139467
 21
-56.80736973210239
 31
0.0
  0
LINE
  5
103E
330
2
100
AcDbEntity
  8
AM_VIS
100
AcDbLine
 10
553.3414266729733
 20
-64.11954755859344
 30
0.0
 11
555.3414266729732
 21
-64.11954755859344
 31
0.0
  0
SOLID
  5
103F
330
2
100
AcDbEntity
  8
5
100
AcDbTrace
 10
557.3414266729733
 20
-42.57773422526017
 30
0.0
 11
557.3414266729733
 21
-43.24440089192679
 31
0.0
 12
555.3414266729732
 22
-42.91106755859343
 32
0.0
 13
555.3414266729732
 23
-42.91106755859343
 33
0.0
  0
TEXT
  5
1040
330
2
100
AcDbEntity
  8
5
100
AcDbText
 10
602.5602266729729
 20
-80.01954755859344
 30
0.0
 40
3.0
  1
%%C50
 50
90.0
  7
CHINA
 72
     1
 11
601.0602266729729
 21
-76.11954755859343
 31
0.0
100
AcDbText
 73
     2
  0
LINE
  5
1041
330
2
100
AcDbEntity
  8
5
100
AcDbLine
 10
604.0602266729729
 20
-53.11954755859344
 30
0.0
 11
604.0602266729729
 21
-99.11954755859344
 31
0.0
  0
LINE
  5
1042
330
2
100
AcDbEntity
  8
AM_VIS
100
AcDbLine
 10
594.3414266729733
 20
-51.11954755859343
 30
0.0
 11
594.3414266729733
 21
-101.1195475585934
 31
0.0
  0
LINE
  5
1043
330
2
100
AcDbEntity
  8
5
100
AcDbLine
 10
595.3414266729732
 20
-101.1195475585934
 30
0.0
 11
605.0602266729729
 21
-101.1195475585934
 31
0.0
  0
SOLID
  5
1044
330
2
100
AcDbEntity
  8
5
100
AcDbTrace
 10
603.7268933396399
 20
-99.11954755859344
 30
0.0
 11
604.3935600063064
 21
-99.11954755859344
 31
0.0
 12
604.0602266729729
 22
-101.1195475585934
 32
0.0
 13
604.0602266729729
 23
-101.1195475585934
 33
0.0
  0
LINE
  5
1045
330
2
100
AcDbEntity
  8
5
100
AcDbLine
 10
595.3414266729732
 20
-51.11954755859343
 30
0.0
 11
605.0602266729729
 21
-51.11954755859343
 31
0.0
  0
LINE
  5
1046
330
2
100
AcDbEntity
  8
AM_VIS
100
AcDbLine
 10
566.7614266729729
 20
-56.80736973210239
 30
0.0
 11
566.7614266729729
 21
-68.93172538508449
 31
0.0
  0
SOLID
  5
1047
330
2
100
AcDbEntity
  8
5
100
AcDbTrace
 10
603.7268933396399
 20
-53.11954755859344
 30
0.0
 11
604.3935600063064
 21
-53.11954755859344
 31
0.0
 12
604.0602266729729
 22
-51.11954755859343
 32
0.0
 13
604.0602266729729
 23
-51.11954755859343
 33
0.0
  0
DIMENSION
  5
1048
330
2
100
AcDbEntity
  8
DIM
100
AcDbDimension
  2
*D40
 10
555.3414266729732
 20
-42.91106755859343
 30
0.0
 11
554.3414266729732
 21
-42.91106755859343
 31
0.0
 70
   160
 71
     5
 42
2.0
  3
AM_ISO$0
100
AcDbAlignedDimension
 13
553.3414266729733
 23
-64.11954755859344
 33
0.0
 14
555.3414266729732
 24
-51.11954755859343
 34
0.0
100
AcDbRotatedDimension
1001
ACAD
1000
DSTYLE
1002
{
1070
   272
1070
     8
1002
}
  0
DIMENSION
  5
1049
330
2
100
AcDbEntity
  8
DIM
100
AcDbDimension
  2
*D41
 10
594.3414266729733
 20
-110.0671681957294
 30
0.0
 11
580.3414266729732
 21
-107.3168237075404
 31
0.0
 70
    32
  1
28
 71
     5
 42
28.0
  3
AM_ISO$0
100
AcDbAlignedDimension
 13
566.3414266729732
 23
-102.6195475585934
 33
0.0
 14
594.3414266729733
 24
-101.1195475585934
 34
0.0
100
AcDbRotatedDimension
1001
ACAD
1000
DSTYLE
1002
{
1070
   272
1070
     8
1002
}
  0
DIMENSION
  5
104A
330
2
100
AcDbEntity
  8
DIM
100
AcDbDimension
  2
*D42
 10
594.3414266729733
 20
-42.91106755859354
 30
0.0
 11
574.8414266729732
 21
-40.16106755859354
 31
0.0
 70
    32
 71
     5
 42
39.0
  3
AM_ISO$0
100
AcDbAlignedDimension
 13
555.3414266729732
 23
-51.11954755859343
 33
0.0
 14
594.3414266729733
 24
-51.11954755859343
 34
0.0
100
AcDbRotatedDimension
1001
ACAD
1000
DSTYLE
1002
{
1070
   272
1070
     8
1002
}
  0
DIMENSION
  5
104B
330
2
100
AcDbEntity
  8
DIM
100
AcDbDimension
  2
*D43
 10
526.587974086508
 20
-99.61954755859345
 30
0.0
 11
526.587974086508
 21
-93.61954755859343
 31
0.0
 70
   160
 71
     5
 42
12.0
  3
AM_ISO$0
100
AcDbAlignedDimension
 13
487.7544145136593
 23
-87.61954755859344
 33
0.0
 14
487.8815245136592
 24
-99.61954755859345
 34
0.0
 50
90.0
100
AcDbRotatedDimension
1001
ACAD
1000
DSTYLE
1002
{
1070
   272
1070
     8
1002
}
  0
DIMENSION
  5
104C
330
2
100
AcDbEntity
  8
DIM
100
AcDbDimension
  2
*D44
 10
526.587974086508
 20
-102.6195475585934
 30
0.0
 11
526.587974086508
 21
-101.1195475585933
 31
0.0
 70
   160
 71
     5
 42
3.0
  3
AM_ISO$0
100
AcDbAlignedDimension
 13
487.8815245136592
 23
-99.61954755859345
 33
0.0
 14
492.725264513659
 24
-102.6195475585934
 34
0.0
 50
90.0
100
AcDbRotatedDimension
1001
ACAD
1000
DSTYLE
1002
{
1070
   272
1070
     8
1002
}
  0
DIMENSION
  5
104D
330
2
100
AcDbEntity
  8
DIM
100
AcDbDimension
  2
*D45
 10
489.725264513659
 20
-110.4471681957297
 30
0.0
 11
485.725264513659
 21
-107.6968237075407
 31
0.0
 70
    32
  1
8.2
 71
     5
 42
8.0
  3
AM_ISO$0
100
AcDbAlignedDimension
 13
481.725264513659
 23
-102.6195475585934
 33
0.0
 14
489.725264513659
 24
-102.6195475585934
 34
0.0
100
AcDbRotatedDimension
1001
ACAD
1000
DSTYLE
1002
{
1070
   272
1070
     8
1002
}
  0
DIMENSION
  5
104E
330
2
100
AcDbEntity
  8
DIM
100
AcDbDimension
  2
*D46
 10
492.725264513659
 20
-115.9580062155067
 30
0.0
 11
485.725264513659
 21
-113.2080062155067
 31
0.0
 70
    32
 71
     5
 42
14.0
  3
AM_ISO$0
100
AcDbAlignedDimension
 13
478.725264513659
 23
-102.6195475585934
 33
0.0
 14
492.725264513659
 24
-102.6195475585934
 34
0.0
100
AcDbRotatedDimension
1001
ACAD
1000
DSTYLE
1002
{
1070
   272
1070
     8
1002
}
  0
DIMENSION
  5
104F
102
{ACAD_XDICTIONARY
360
1050
102
}
102
{ACAD_REACTORS
330
1051
102
}
330
2
100
AcDbEntity
  8
DIM
100
AcDbDimension
  2
*D47
 10
536.2162853589056
 20
-102.6195475585934
 30
0.0
 11
536.2162853589056
 21
-89.36954755859288
 31
0.0
 70
   160
 71
     5
 42
26.5
  3
AM_ISO$0
100
AcDbAlignedDimension
 13
513.3533045136592
 23
-76.11954755859343
 33
0.0
 14
492.725264513659
 24
-102.6195475585934
 34
0.0
 50
90.0
100
AcDbRotatedDimension
1001
ACAD
1000
DSTYLE
1002
{
1070
   272
1070
     8
1002
}
  0
DIMENSION
  5
1052
102
{ACAD_XDICTIONARY
360
1053
102
}
102
{ACAD_REACTORS
330
1054
102
}
330
2
100
AcDbEntity
  8
DIM
100
AcDbDimension
  2
*D48
 10
520.1188899536259
 20
-91.11954755859343
 30
0.0
 11
520.1188899536259
 21
-77.09706018517806
 31
0.0
 70
   160
 71
     5
 42
3.5
  3
AM_ISO$0
100
AcDbAlignedDimension
 13
487.7544145136593
 23
-87.61954755859344
 33
0.0
 14
489.725264513659
 24
-91.11954755859343
 34
0.0
 50
90.0
100
AcDbRotatedDimension
1001
ACAD
1000
DSTYLE
1002
{
1070
   272
1070
     8
1002
}
  0
DIMENSION
  5
1055
102
{ACAD_XDICTIONARY
360
1056
102
}
102
{ACAD_REACTORS
330
1057
102
}
330
2
100
AcDbEntity
  8
DIM
100
AcDbDimension
  2
*D49
 10
452.0323766295637
 20
-102.6195475585934
 30
0.0
 11
449.2823766295636
 21
-93.61954755859335
 31
0.0
 70
    32
 71
     5
 42
18.00000000000001
  3
AM_ISO$0
100
AcDbAlignedDimension
 13
481.7252645136595
 23
-84.61954755859343
 33
0.0
 14
478.725264513659
 24
-102.6195475585934
 34
0.0
 50
90.0
100
AcDbRotatedDimension
1001
ACAD
1000
DSTYLE
1002
{
1070
   272
1070
     8
1002
}
  0
DIMENSION
  5
1058
102
{ACAD_XDICTIONARY
360
1059
102
}
102
{ACAD_REACTORS
330
105A
102
}
330
2
100
AcDbEntity
  8
DIM
100
AcDbDimension
  2
*D50
 10
505.7563738506019
 20
-65.83491019798429
 30
0.0
 11
521.9933833509599
 21
-51.66728843071613
 31
0.0
 70
   163
  1
M3X0.5X7dp
 71
     5
 42
3.000000000000511
  3
AM_ISO$3
100
AcDbDiametricDimension
 15
506.397349154585
 25
-62.90418491920309
 35
0.0
 40
0.0
1001
ACAD
1000
DSTYLE
1002
{
1070
   271
1070
     1
1070
   272
1070
     8
1002
}
  0
DIMENSION
  5
105B
102
{ACAD_XDICTIONARY
360
105C
102
}
102
{ACAD_REACTORS
330
105D
102
}
330
2
100
AcDbEntity
  8
DIM
100
AcDbDimension
  2
*D51
 10
486.470075612724
 20
-55.61735725526969
 30
0.0
 11
471.1457897803479
 21
-41.45279779732635
 31
0.0
 70
   163
  1
<> 貫通
 71
     5
 42
3.400000000000545
  3
AM_ISO$3
100
AcDbDiametricDimension
 15
484.9804534145944
 25
-52.56104809112364
 35
0.0
 40
0.0
1001
ACAD
1000
DSTYLE
1002
{
1070
   271
1070
     1
1070
   272
1070
     8
1002
}
  0
LINE
  5
105E
330
2
100
AcDbEntity
  8
0
  6
DASHED
 62
     5
370
    15
100
AcDbLine
 10
559.3414266729732
 20
-79.51954755859341
 30
0.0
 11
564.1962702063038
 21
-79.51954755859341
 31
0.0
  0
LINE
  5
105F
330
2
100
AcDbEntity
  8
0
  6
DASHED
 62
     5
370
    15
100
AcDbLine
 10
566.3414266729732
 20
-102.6195475585934
 30
0.0
 11
559.3414266729732
 21
-102.6195475585934
 31
0.0
  0
LINE
  5
1060
330
2
100
AcDbEntity
  8
0
  6
DASHED
 62
     5
370
    15
100
AcDbLine
 10
566.3414266729732
 20
-81.31954755859338
 30
0.0
 11
564.1962702063038
 21
-79.51954755859341
 31
0.0
  0
LINE
  5
1061
330
2
100
AcDbEntity
  8
0
  6
DASHED
 62
     5
370
    15
100
AcDbLine
 10
566.3414266729732
 20
-102.6195475585934
 30
0.0
 11
566.3414266729732
 21
-81.31954755859338
 31
0.0
  0
LINE
  5
1062
330
2
100
AcDbEntity
  8
0
  6
DASHED
 62
     5
370
    15
100
AcDbLine
 10
559.7656907416854
 20
-102.6195475585934
 30
0.0
 11
559.2000053167362
 21
-102.6195475585934
 31
0.0
  0
LINE
  5
1063
330
2
100
AcDbEntity
  8
0
  6
DASHED
 62
     5
370
    15
100
AcDbLine
 10
559.2000053167362
 20
-79.51954755859341
 30
0.0
 11
559.7656907416854
 21
-79.51954755859341
 31
0.0
  0
LINE
  5
1064
330
2
100
AcDbEntity
  8
0
  6
DASHED
 62
     5
370
    15
100
AcDbLine
 10
559.2000053167362
 20
-102.6195475585934
 30
0.0
 11
558.7757412480241
 21
-102.6195475585934
 31
0.0
  0
LINE
  5
1065
330
2
100
AcDbEntity
  8
0
  6
DASHED
 62
     5
370
    15
100
AcDbLine
 10
557.6914266729732
 20
-91.11954755859343
 30
0.0
 11
555.6914266729732
 21
-91.11954755859343
 31
0.0
  0
LINE
  5
1066
330
2
100
AcDbEntity
  8
0
  6
DASHED
 62
     5
370
    15
100
AcDbLine
 10
555.6914266729732
 20
-91.11954755859343
 30
0.0
 11
555.6914266729732
 21
-79.51954755859341
 31
0.0
  0
LINE
  5
1067
330
2
100
AcDbEntity
  8
0
  6
DASHED
 62
     5
370
    15
100
AcDbLine
 10
555.6914266729732
 20
-102.6195475585934
 30
0.0
 11
555.6914266729732
 21
-96.11954755859343
 31
0.0
  0
LINE
  5
1068
330
2
100
AcDbEntity
  8
0
  6
DASHED
 62
     5
370
    15
100
AcDbLine
 10
555.6914266729732
 20
-96.11954755859343
 30
0.0
 11
557.6914266729732
 21
-96.11954755859343
 31
0.0
  0
LINE
  5
1069
102
{ACAD_REACTORS
330
1073
102
}
330
2
100
AcDbEntity
  8
0
  6
DASHED
 62
     5
370
    15
100
AcDbLine
 10
557.6914266729732
 20
-96.11954755859343
 30
0.0
 11
557.6914266729732
 21
-91.11954755859343
 31
0.0
  0
LINE
  5
106A
102
{ACAD_REACTORS
330
1073
102
}
330
2
100
AcDbEntity
  8
0
  6
DASHED
 62
     5
370
    15
100
AcDbLine
 10
555.6914266729732
 20
-102.6195475585934
 30
0.0
 11
558.7757412480241
 21
-102.6195475585934
 31
0.0
  0
LINE
  5
106B
330
2
100
AcDbEntity
  8
0
  6
DASHED
 62
     5
370
    15
100
AcDbLine
 10
564.1962702063038
 20
-79.51954755859341
 30
0.0
 11
560.1513882564668
 21
-79.51954755859341
 31
0.0
  0
LINE
  5
106C
330
2
100
AcDbEntity
  8
0
  6
DASHED
 62
     5
370
    15
100
AcDbLine
 10
566.3414266729732
 20
-84.71360651085726
 30
0.0
 11
566.3414266729732
 21
-81.31954755859338
 31
0.0
  0
LINE
  5
106D
330
2
100
AcDbEntity
  8
0
  6
DASHED
 62
     5
370
    15
100
AcDbLine
 10
560.1513882564668
 20
-79.51954755859341
 30
0.0
 11
556.1065063066298
 21
-79.51954755859341
 31
0.0
  0
LINE
  5
106E
330
2
100
AcDbEntity
  8
0
  6
DASHED
 62
     5
370
    15
100
AcDbLine
 10
566.3414266729732
 20
-88.10766546312127
 30
0.0
 11
566.3414266729732
 21
-84.71360651085726
 31
0.0
  0
LINE
  5
106F
330
2
100
AcDbEntity
  8
0
  6
DASHED
 62
     5
370
    15
100
AcDbLine
 10
559.7656907416854
 20
-102.6195475585934
 30
0.0
 11
559.3414266729732
 21
-102.6195475585934
 31
0.0
  0
LINE
  5
1070
330
2
100
AcDbEntity
  8
0
  6
DASHED
 62
     5
370
    15
100
AcDbLine
 10
559.3414266729732
 20
-79.51954755859341
 30
0.0
 11
559.7656907416854
 21
-79.51954755859341
 31
0.0
  0
DIMENSION
  5
1071
102
{ACAD_XDICTIONARY
360
1072
102
}
102
{ACAD_REACTORS
330
1073
102
}
330
2
100
AcDbEntity
  8
DIM
100
AcDbDimension
  2
*D52
 10
555.6914266729732
 20
-110.0671681957247
 30
0.0
 11
556.6914266729732
 21
-110.0671681957247
 31
0.0
 70
   160
 71
     5
 42
2.0
  3
AM_ISO$0
100
AcDbAlignedDimension
 13
557.6914266729732
 23
-96.11954755859343
 33
0.0
 14
555.6914266729732
 24
-102.6195475585934
 34
0.0
100
AcDbRotatedDimension
1001
ACAD
1000
DSTYLE
1002
{
1070
   272
1070
     8
1002
}
  0
ENDSEC
  0
SECTION
  2
OBJECTS
  0
DICTIONARY
  5
1A
330
0
100
AcDbDictionary
281
     1
  3
ACAD_COLOR
350
30F
  3
ACAD_GROUP
350
18
  3
ACAD_LAYOUT
350
CC
  3
ACAD_MATERIAL
350
30E
  3
ACAD_MLINESTYLE
350
19
  3
ACAD_PLOTSETTINGS
350
CD
  3
ACAD_PLOTSTYLENAME
350
CA
  3
ACAD_TABLESTYLE
350
310
  3
AcDbVariableDictionary
350
2AE
  3
AcmDictionary
350
269
  3
AMG
350
24F
  3
AMGSNAPSETTINGS
350
29E
  3
MAPISURF_MODULE
350
39E
  0
DICTIONARY
  5
40D
330
A
100
AcDbDictionary
280
     1
281
     1
  3
ACAD_LAYERSTATES
360
40E
  0
DICTIONARY
  5
226
330
2
100
AcDbDictionary
280
     1
281
     1
  3
ACAD_INDEX
360
2A5
  3
ACAD_LAYOUTSELFREF
360
2F3
  0
DICTIONARY
  5
228
330
7
100
AcDbDictionary
280
     1
281
     1
  3
ACAD_LAYOUTSELFREF
360
2F4
  0
DICTIONARY
  5
1050
330
104F
100
AcDbDictionary
280
     1
281
     1
  3
ACAD_DIMASSOC
360
1051
  0
DICTIONARY
  5
1053
330
1052
100
AcDbDictionary
280
     1
281
     1
  3
ACAD_DIMASSOC
360
1054
  0
DICTIONARY
  5
1056
330
1055
100
AcDbDictionary
280
     1
281
     1
  3
ACAD_DIMASSOC
360
1057
  0
DICTIONARY
  5
1059
330
1058
100
AcDbDictionary
280
     1
281
     1
  3
ACAD_DIMASSOC
360
105A
  0
DICTIONARY
  5
105C
330
105B
100
AcDbDictionary
280
     1
281
     1
  3
ACAD_DIMASSOC
360
105D
  0
DICTIONARY
  5
1072
330
1071
100
AcDbDictionary
280
     1
281
     1
  3
ACAD_DIMASSOC
360
1073
  0
DICTIONARY
  5
30F
102
{ACAD_REACTORS
330
1A
102
}
330
1A
100
AcDbDictionary
281
     1
  0
DICTIONARY
  5
18
102
{ACAD_REACTORS
330
1A
102
}
330
1A
100
AcDbDictionary
281
     1
  0
DICTIONARY
  5
CC
102
{ACAD_REACTORS
330
1A
102
}
330
1A
100
AcDbDictionary
281
     1
  3
Model
350
CE
  3
配置1
350
CF
  0
DICTIONARY
  5
30E
102
{ACAD_REACTORS
330
1A
102
}
330
1A
100
AcDbDictionary
281
     1
  0
DICTIONARY
  5
19
102
{ACAD_REACTORS
330
1A
102
}
330
1A
100
AcDbDictionary
281
     1
  3
STANDARD
350
1D
  0
DICTIONARY
  5
CD
102
{ACAD_REACTORS
330
1A
102
}
330
1A
100
AcDbDictionary
281
     1
  0
ACDBDICTIONARYWDFLT
  5
CA
102
{ACAD_REACTORS
330
1A
102
}
330
1A
100
AcDbDictionary
281
     1
  3
Normal
350
CB
100
AcDbDictionaryWithDefault
340
CB
1001
ACAD
1000
TREAT_AS_HARD
1070
     0
  0
DICTIONARY
  5
310
102
{ACAD_REACTORS
330
1A
102
}
330
1A
100
AcDbDictionary
281
     1
  3
Standard
350
311
  0
DICTIONARY
  5
2AE
102
{ACAD_REACTORS
330
1A
102
}
330
1A
100
AcDbDictionary
281
     1
  3
CTABLESTYLE
350
3F6
  3
DIMASSOC
350
2B0
  3
INDEXCTL
350
2AF
  0
DICTIONARY
  5
269
102
{ACAD_REACTORS
330
1A
102
}
330
1A
100
AcDbDictionary
281
     1
  3
AcmBOMDATA
350
3D0
  3
AcmStdDictionary
350
26F
  3
AMDTSECTSYM_ARROWCOLOR
350
3EA
  0
DICTIONARY
  5
24F
102
{ACAD_REACTORS
330
1A
102
}
330
1A
100
AcDbDictionary
281
     1
  3
AcMgSettings
350
250
  3
AMGLAYCFG
350
3DE
  0
DICTIONARY
  5
29E
102
{ACAD_REACTORS
330
1A
102
}
330
1A
100
AcDbDictionary
281
     1
  0
DICTIONARY
  5
40E
102
{ACAD_REACTORS
330
40D
102
}
330
40D
100
AcDbDictionary
281
     1
  0
DICTIONARY
  5
2A5
102
{ACAD_REACTORS
330
226
102
}
330
226
100
AcDbDictionary
281
     1
  3
*A1
350
2A6
  0
XRECORD
  5
2F3
102
{ACAD_REACTORS
330
226
102
}
330
226
100
AcDbXrecord
280
     1
340
2
  0
XRECORD
  5
2F4
102
{ACAD_REACTORS
330
228
102
}
330
228
100
AcDbXrecord
280
     1
340
7
  0
DIMASSOC
  5
1051
102
{ACAD_REACTORS
330
1050
102
}
330
1050
100
AcDbDimAssoc
330
104F
 90
        3
 70
     0
 71
     0
  1
AcDbOsnapPointRef
 72
     1
331
FE1
 73
     0
 91
        0
 40
0.0
 10
0.0
 20
0.0
 30
2.000000000000000E+50
 75
     0
  1
AcDbOsnapPointRef
 72
     1
331
1002
 73
     0
 91
        0
 40
0.0
 10
0.0
 20
0.0
 30
2.000000000000000E+50
 75
     0
  0
DIMASSOC
  5
1054
102
{ACAD_REACTORS
330
1053
102
}
330
1053
100
AcDbDimAssoc
330
1052
 90
        1
 70
     0
 71
     0
  1
AcDbOsnapPointRef
 72
     1
331
100C
 73
     0
 91
        0
 40
0.0
 10
0.0
 20
0.0
 30
2.000000000000000E+50
 75
     0
  0
DIMASSOC
  5
1057
102
{ACAD_REACTORS
330
1056
102
}
330
1056
100
AcDbDimAssoc
330
1055
 90
        3
 70
     0
 71
     0
  1
AcDbOsnapPointRef
 72
    13
331
100A
 73
     0
 91
        0
 40
0.0
 10
0.0
 20
0.0
 30
2.000000000000000E+50
 75
     0
  1
AcDbOsnapPointRef
 72
     1
331
FE9
 73
     0
 91
        0
 40
0.0
 10
0.0
 20
0.0
 30
2.000000000000000E+50
 75
     0
  0
DIMASSOC
  5
105A
102
{ACAD_REACTORS
330
1059
102
}
330
1059
100
AcDbDimAssoc
330
1058
 90
        2
 70
     0
 71
     0
  1
AcDbOsnapPointRef
 72
     3
331
103A
 73
     2
 91
        0
 40
0.0
 10
0.0
 20
0.0
 30
0.0
 75
     0
  0
DIMASSOC
  5
105D
102
{ACAD_REACTORS
330
105C
102
}
330
105C
100
AcDbDimAssoc
330
105B
 90
        2
 70
     0
 71
     0
  1
AcDbOsnapPointRef
 72
     3
331
1036
 73
     2
 91
        0
 40
0.0
 10
0.0
 20
0.0
 30
0.0
 75
     0
  0
DIMASSOC
  5
1073
102
{ACAD_REACTORS
330
1072
102
}
330
1072
100
AcDbDimAssoc
330
1071
 90
        3
 70
     0
 71
     0
  1
AcDbOsnapPointRef
 72
    13
331
1069
 73
     0
 91
        0
 40
0.0
 10
0.0
 20
0.0
 30
2.000000000000000E+50
 75
     0
  1
AcDbOsnapPointRef
 72
    13
331
106A
 73
     0
 91
        0
 40
0.0
 10
0.0
 20
0.0
 30
2.000000000000000E+50
 75
     0
  0
LAYOUT
  5
CE
102
{ACAD_REACTORS
330
CC
102
}
330
CC
100
AcDbPlotSettings
  1

  2
\\WINNT\EPSON Stylus Photo 750 單色
  4

  6

 40
0.0
 41
0.0
 42
0.0
 43
0.0
 44
0.0
 45
0.0
 46
0.0
 47
0.0
 48
0.0
 49
0.0
140
0.0
141
0.0
142
1.0
143
1.0
 70
 11952
 72
     0
 73
     1
 74
     0
  7

 75
     0
147
1.0
 76
     0
 77
     2
 78
   300
148
-1016.680816749764
149
103.0807414509828
100
AcDbLayout
  1
Model
 70
     1
 71
     0
 10
0.0
 20
0.0
 11
12.0
 21
9.0
 12
0.0
 22
0.0
 32
0.0
 14
0.0
 24
0.0
 34
0.0
 15
0.0
 25
0.0
 35
0.0
146
0.0
 13
0.0
 23
0.0
 33
0.0
 16
1.0
 26
0.0
 36
0.0
 17
0.0
 27
1.0
 37
0.0
 76
     0
330
2
  0
LAYOUT
  5
CF
102
{ACAD_REACTORS
330
CC
102
}
330
CC
100
AcDbPlotSettings
  1

  2
\\WINNT\EPSON Stylus Photo 750 單色
  4

  6

 40
0.0
 41
0.0
 42
0.0
 43
0.0
 44
0.0
 45
0.0
 46
0.0
 47
0.0
 48
0.0
 49
0.0
140
0.0
141
0.0
142
1.0
143
1.0
 70
   688
 72
     0
 73
     0
 74
     5
  7

 75
    16
147
1.0
 76
     0
 77
     2
 78
   300
148
0.0
149
0.0
100
AcDbLayout
  1
配置1
 70
     1
 71
     1
 10
0.0
 20
0.0
 11
12.0
 21
9.0
 12
0.0
 22
0.0
 32
0.0
 14
1.000000000000000E+20
 24
1.000000000000000E+20
 34
1.000000000000000E+20
 15
-1.000000000000000E+20
 25
-1.000000000000000E+20
 35
-1.000000000000000E+20
146
0.0
 13
0.0
 23
0.0
 33
0.0
 16
1.0
 26
0.0
 36
0.0
 17
0.0
 27
1.0
 37
0.0
 76
     0
330
7
  0
MLINESTYLE
  5
1D
102
{ACAD_REACTORS
330
19
102
}
330
19
100
AcDbMlineStyle
  2
STANDARD
 70
     0
  3

 62
   256
 51
90.0
 52
90.0
 71
     2
 49
0.5
 62
   256
  6
BYLAYER
 49
-0.5
 62
   256
  6
BYLAYER
  0
ACDBPLACEHOLDER
  5
CB
102
{ACAD_REACTORS
330
CA
102
}
330
CA
  0
TABLESTYLE
  5
311
102
{ACAD_REACTORS
330
310
102
}
330
310
100
AcDbTableStyle
  3
Standard
 70
     0
 71
     0
 40
0.06
 41
0.06
280
     0
281
     0
  7
STANDARD
140
0.18
170
     2
 62
     0
 63
     7
283
     0
274
    -2
284
     1
 64
     0
275
    -2
285
     1
 65
     0
276
    -2
286
     1
 66
     0
277
    -2
287
     1
 67
     0
278
    -2
288
     1
 68
     0
279
    -2
289
     1
 69
     0
  7
STANDARD
140
0.25
170
     5
 62
     0
 63
     7
283
     0
274
    -2
284
     1
 64
     0
275
    -2
285
     1
 65
     0
276
    -2
286
     1
 66
     0
277
    -2
287
     1
 67
     0
278
    -2
288
     1
 68
     0
279
    -2
289
     1
 69
     0
  7
STANDARD
140
0.18
170
     5
 62
     0
 63
     7
283
     0
274
    -2
284
     1
 64
     0
275
    -2
285
     1
 65
     0
276
    -2
286
     1
 66
     0
277
    -2
287
     1
 67
     0
278
    -2
288
     1
 68
     0
279
    -2
289
     1
 69
     0
  0
DICTIONARYVAR
  5
3F6
102
{ACAD_REACTORS
330
2AE
102
}
330
2AE
100
DictionaryVariables
280
     0
  1
STANDARD
  0
DICTIONARYVAR
  5
2B0
102
{ACAD_REACTORS
330
2AE
102
}
330
2AE
100
DictionaryVariables
280
     0
  1
0
  0
DICTIONARYVAR
  5
2AF
102
{ACAD_REACTORS
330
2AE
102
}
330
2AE
100
DictionaryVariables
280
     0
  1
1
  0
ACMDATADICTIONARY
  5
3D0
102
{ACAD_REACTORS
330
269
102
}
330
269
100
AcDbDictionary
281
     1
  3
*A1
350
3D1
  3
*A2
350
A32
  3
*A3
350
A33
  3
*A4
350
A34
  3
*A5
350
A35
  3
*A6
350
A36
100
AcmDataDictionary
  0
DICTIONARY
  5
26F
102
{ACAD_REACTORS
330
269
102
}
330
269
100
AcDbDictionary
281
     1
  3
ANSI
350
3DD
  3
ISO
350
5E3
  0
XRECORD
  5
3EA
102
{ACAD_REACTORS
330
269
102
}
330
269
100
AcDbXrecord
280
     1
 90
-1023410169
  0
DICTIONARY
  5
250
102
{ACAD_REACTORS
330
24F
102
}
330
24F
100
AcDbDictionary
281
     1
  3
DWGSETTINGS
350
31C
  3
Shaft
350
9A4
  3
TRANSSETTINGS
350
320
  0
LAYER_INDEX
  5
2A6
102
{ACAD_REACTORS
330
2A5
102
}
330
2A5
100
AcDbIndex
 40
2456360.627845591
100
AcDbLayerIndex
  8
0
360
2A7
 90
       22
  8
1
360
2A8
 90
        1
  8
3
360
2A9
 90
       21
  8
LOGO
360
2AC
 90
       90
  8
AM_VIS
360
9BB
 90
       91
  8
Defpoints
360
9BC
 90
        0
  8
DIM
360
9BD
 90
       13
  8
AM_4
360
11EB
 90
        6
  8
5
360
11EC
 90
        8
  0
ACMDATAENTRYBLOCK
  5
3D1
102
{ACAD_REACTORS
330
3D0
102
}
330
3D0
100
AcmDataEntry
100
AcmDataEntryBlock
  0
ACMDATAENTRYBLOCK
  5
A32
102
{ACAD_REACTORS
330
3D0
102
}
330
3D0
100
AcmDataEntry
100
AcmDataEntryBlock
  0
ACMDATAENTRYBLOCK
  5
A33
102
{ACAD_REACTORS
330
3D0
102
}
330
3D0
100
AcmDataEntry
100
AcmDataEntryBlock
  0
ACMDATAENTRYBLOCK
  5
A34
102
{ACAD_REACTORS
330
3D0
102
}
330
3D0
100
AcmDataEntry
100
AcmDataEntryBlock
  0
ACMDATAENTRYBLOCK
  5
A35
102
{ACAD_REACTORS
330
3D0
102
}
330
3D0
100
AcmDataEntry
100
AcmDataEntryBlock
  0
ACMDATAENTRYBLOCK
  5
A36
102
{ACAD_REACTORS
330
3D0
102
}
330
3D0
100
AcmDataEntry
100
AcmDataEntryBlock
  0
IDBUFFER
  5
2A7
330
0
100
AcDbIdBuffer
330
96A
330
96B
330
96C
330
105E
330
105F
330
1060
330
1061
330
1062
330
1063
330
1064
330
1065
330
1066
330
1067
330
1068
330
1069
330
106A
330
106B
330
106C
330
106D
330
106E
330
106F
330
1070
  0
IDBUFFER
  5
2A8
330
0
100
AcDbIdBuffer
330
FED
  0
IDBUFFER
  5
2A9
330
0
100
AcDbIdBuffer
330
101C
330
101F
330
1024
330
1027
330
102A
330
1032
330
103C
330
FCD
330
FD9
330
FDA
330
FDC
330
FDE
330
FE0
330
FE1
330
FE5
330
FE6
330
FEA
330
FFC
330
FFF
330
100C
330
101A
  0
IDBUFFER
  5
2AC
330
0
100
AcDbIdBuffer
330
194
330
195
330
196
330
197
330
198
330
19D
330
19E
330
19F
330
1A0
330
1A1
330
1A2
330
1A3
330
1A4
330
1A5
330
1A6
330
1A7
330
1A8
330
1A9
330
1AB
330
1AC
330
1AD
330
1B1
330
1B2
330
1B3
330
1B4
330
8FB
330
8FC
330
916
330
917
330
918
330
919
330
91A
330
91B
330
91C
330
91D
330
91E
330
91F
330
920
330
921
330
922
330
923
330
924
330
925
330
926
330
927
330
928
330
929
330
92A
330
92E
330
932
330
933
330
937
330
938
330
939
330
93A
330
93B
330
93C
330
93D
330
93E
330
942
330
946
330
94A
330
94B
330
94C
330
950
330
951
330
952
330
953
330
954
330
955
330
956
330
957
330
958
330
959
330
95A
330
95B
330
95C
330
95D
330
95E
330
95F
330
960
330
961
330
962
330
963
330
964
330
965
330
966
330
967
330
968
330
969
  0
IDBUFFER
  5
9BB
330
0
100
AcDbIdBuffer
330
FC9
330
FCA
330
FCB
330
FCC
330
FCE
330
FCF
330
FD0
330
FD1
330
FD2
330
FD3
330
FD4
330
FD5
330
FD6
330
FD7
330
FD8
330
FDB
330
FDD
330
FDF
330
FE2
330
FE3
330
FE4
330
FE7
330
FE8
330
FE9
330
FEB
330
FEC
330
FEE
330
FEF
330
FF0
330
FF1
330
FF2
330
FF3
330
FF4
330
FF5
330
FF6
330
FF8
330
FF9
330
FFA
330
FFB
330
FFE
330
1000
330
1001
330
1002
330
1003
330
1004
330
1005
330
1006
330
1007
330
1008
330
1009
330
100A
330
100B
330
100D
330
100E
330
100F
330
1010
330
1011
330
1012
330
1013
330
1014
330
1015
330
1016
330
1017
330
1018
330
1019
330
101B
330
101D
330
101E
330
1020
330
1021
330
1022
330
1023
330
1025
330
1028
330
1029
330
102B
330
102D
330
102E
330
102F
330
1031
330
1033
330
1034
330
1035
330
1036
330
1038
330
1039
330
103B
330
103D
330
103E
330
1042
330
1046
  0
IDBUFFER
  5
9BC
330
0
100
AcDbIdBuffer
  0
IDBUFFER
  5
9BD
330
0
100
AcDbIdBuffer
330
1048
330
1049
330
104A
330
104B
330
104C
330
104D
330
104E
330
104F
330
1052
330
1055
330
1058
330
105B
330
1071
  0
IDBUFFER
  5
11EB
330
0
100
AcDbIdBuffer
330
FF7
330
FFD
330
1026
330
102C
330
1030
330
103A
  0
IDBUFFER
  5
11EC
330
0
100
AcDbIdBuffer
330
1037
330
103F
330
1040
330
1041
330
1043
330
1044
330
1045
330
1047
  0
ENDSEC
  0
EOF
