  0
SECTION
  2
HEADER
  9
$ACADVER
  1
AC1018
  9
$ACADMAINTVER
 70
    39
  9
$DWGCODEPAGE
  3
ANSI_950
  9
$CUSTOMPROPERTYTAG
  1
AmdtFileType
  9
$CUSTOMPROPERTY
  1
84
  9
$INSBASE
 10
278.96247
 20
14.63286
 30
0.0
  9
$EXTMIN
 10
439.2263818608681
 20
-153.8752586113886
 30
0.0
  9
$EXTMAX
 10
639.3694955968178
 20
0.516268633551249
 30
154.5009597124719
  9
$LIMMIN
 10
0.0
 20
0.0
  9
$LIMMAX
 10
297.0
 20
210.0
  9
$ORTHOMODE
 70
     0
  9
$REGENMODE
 70
     1
  9
$FILLMODE
 70
     1
  9
$QTEXTMODE
 70
     0
  9
$MIRRTEXT
 70
     1
  9
$LTSCALE
 40
8.0
  9
$ATTMODE
 70
     1
  9
$TEXTSIZE
 40
3.0
  9
$TRACEWID
 40
0.05
  9
$TEXTSTYLE
  7
CHINA
  9
$CLAYER
  8
1
  9
$CELTYPE
  6
BYLAYER
  9
$CECOLOR
 62
   256
  9
$CELTSCALE
 40
1.0
  9
$DISPSILH
 70
     0
  9
$DIMSCALE
 40
1.0
  9
$DIMASZ
 40
3.5
  9
$DIMEXO
 40
1.0
  9
$DIMDLI
 40
8.0
  9
$DIMRND
 40
0.0
  9
$DIMDLE
 40
0.0
  9
$DIMEXE
 40
1.0
  9
$DIMTP
 40
0.1
  9
$DIMTM
 40
0.1
  9
$DIMTXT
 40
3.5
  9
$DIMCEN
 40
0.0
  9
$DIMTSZ
 40
0.0
  9
$DIMTOL
 70
     0
  9
$DIMLIM
 70
     0
  9
$DIMTIH
 70
     0
  9
$DIMTOH
 70
     0
  9
$DIMSE1
 70
     0
  9
$DIMSE2
 70
     0
  9
$DIMTAD
 70
     1
  9
$DIMZIN
 70
     8
  9
$DIMBLK
  1

  9
$DIMASO
 70
     0
  9
$DIMSHO
 70
     1
  9
$DIMPOST
  1

  9
$DIMAPOST
  1
"
  9
$DIMALT
 70
     0
  9
$DIMALTD
 70
     2
  9
$DIMALTF
 40
0.0393701
  9
$DIMLFAC
 40
1.0
  9
$DIMTOFL
 70
     1
  9
$DIMTVP
 40
0.0
  9
$DIMTIX
 70
     0
  9
$DIMSOXD
 70
     0
  9
$DIMSAH
 70
     0
  9
$DIMBLK1
  1

  9
$DIMBLK2
  1

  9
$DIMSTYLE
  2
AM_ISO
  9
$DIMCLRD
 70
   256
  9
$DIMCLRE
 70
   256
  9
$DIMCLRT
 70
   256
  9
$DIMTFAC
 40
0.71
  9
$DIMGAP
 40
1.0
  9
$DIMJUST
 70
     0
  9
$DIMSD1
 70
     0
  9
$DIMSD2
 70
     0
  9
$DIMTOLJ
 70
     0
  9
$DIMTZIN
 70
     8
  9
$DIMALTZ
 70
     8
  9
$DIMALTTZ
 70
     0
  9
$DIMUPT
 70
     0
  9
$DIMDEC
 70
     0
  9
$DIMTDEC
 70
     8
  9
$DIMALTU
 70
     2
  9
$DIMALTTD
 70
     2
  9
$DIMTXSTY
  7
STANDARD
  9
$DIMAUNIT
 70
     0
  9
$DIMADEC
 70
     0
  9
$DIMALTRND
 40
0.0
  9
$DIMAZIN
 70
     2
  9
$DIMDSEP
 70
    46
  9
$DIMATFIT
 70
     3
  9
$DIMFRAC
 70
     0
  9
$DIMLDRBLK
  1

  9
$DIMLUNIT
 70
     2
  9
$DIMLWD
 70
    -1
  9
$DIMLWE
 70
    -1
  9
$DIMTMOVE
 70
     0
  9
$LUNITS
 70
     2
  9
$LUPREC
 70
     2
  9
$SKETCHINC
 40
0.1
  9
$FILLETRAD
 40
2.5
  9
$AUNITS
 70
     0
  9
$AUPREC
 70
     0
  9
$MENU
  1
acad
  9
$ELEVATION
 40
0.0
  9
$PELEVATION
 40
0.0
  9
$THICKNESS
 40
0.0
  9
$LIMCHECK
 70
     0
  9
$CHAMFERA
 40
2.5
  9
$CHAMFERB
 40
2.5
  9
$CHAMFERC
 40
0.0
  9
$CHAMFERD
 40
0.0
  9
$SKPOLY
 70
     0
  9
$TDCREATE
 40
2451401.689539931
  9
$TDUCREATE
 40
2451401.356206598
  9
$TDUPDATE
 40
2456360.603401690
  9
$TDUUPDATE
 40
2456360.270068356
  9
$TDINDWG
 40
0.1387566204
  9
$TDUSRTIMER
 40
0.1387566204
  9
$USRTIMER
 70
     1
  9
$ANGBASE
 50
0.0
  9
$ANGDIR
 70
     0
  9
$PDMODE
 70
     0
  9
$PDSIZE
 40
0.0
  9
$PLINEWID
 40
0.0
  9
$SPLFRAME
 70
     0
  9
$SPLINETYPE
 70
     6
  9
$SPLINESEGS
 70
     8
  9
$HANDSEED
  5
11EE
  9
$SURFTAB1
 70
     6
  9
$SURFTAB2
 70
     6
  9
$SURFTYPE
 70
     6
  9
$SURFU
 70
     6
  9
$SURFV
 70
     6
  9
$UCSBASE
  2

  9
$UCSNAME
  2

  9
$UCSORG
 10
0.0
 20
0.0
 30
0.0
  9
$UCSXDIR
 10
1.0
 20
0.0
 30
0.0
  9
$UCSYDIR
 10
0.0
 20
1.0
 30
0.0
  9
$UCSORTHOREF
  2

  9
$UCSORTHOVIEW
 70
     0
  9
$UCSORGTOP
 10
0.0
 20
0.0
 30
0.0
  9
$UCSORGBOTTOM
 10
0.0
 20
0.0
 30
0.0
  9
$UCSORGLEFT
 10
0.0
 20
0.0
 30
0.0
  9
$UCSORGRIGHT
 10
0.0
 20
0.0
 30
0.0
  9
$UCSORGFRONT
 10
0.0
 20
0.0
 30
0.0
  9
$UCSORGBACK
 10
0.0
 20
0.0
 30
0.0
  9
$PUCSBASE
  2

  9
$PUCSNAME
  2

  9
$PUCSORG
 10
0.0
 20
0.0
 30
0.0
  9
$PUCSXDIR
 10
1.0
 20
0.0
 30
0.0
  9
$PUCSYDIR
 10
0.0
 20
1.0
 30
0.0
  9
$PUCSORTHOREF
  2

  9
$PUCSORTHOVIEW
 70
     0
  9
$PUCSORGTOP
 10
0.0
 20
0.0
 30
0.0
  9
$PUCSORGBOTTOM
 10
0.0
 20
0.0
 30
0.0
  9
$PUCSORGLEFT
 10
0.0
 20
0.0
 30
0.0
  9
$PUCSORGRIGHT
 10
0.0
 20
0.0
 30
0.0
  9
$PUCSORGFRONT
 10
0.0
 20
0.0
 30
0.0
  9
$PUCSORGBACK
 10
0.0
 20
0.0
 30
0.0
  9
$USERI1
 70
     0
  9
$USERI2
 70
     0
  9
$USERI3
 70
     0
  9
$USERI4
 70
     0
  9
$USERI5
 70
     0
  9
$USERR1
 40
0.0
  9
$USERR2
 40
0.0
  9
$USERR3
 40
0.0
  9
$USERR4
 40
0.0
  9
$USERR5
 40
0.0
  9
$WORLDVIEW
 70
     1
  9
$SHADEDGE
 70
     3
  9
$SHADEDIF
 70
    70
  9
$TILEMODE
 70
     1
  9
$MAXACTVP
 70
    16
  9
$PINSBASE
 10
0.0
 20
0.0
 30
0.0
  9
$PLIMCHECK
 70
     0
  9
$PEXTMIN
 10
1.000000000000000E+20
 20
1.000000000000000E+20
 30
1.000000000000000E+20
  9
$PEXTMAX
 10
-1.000000000000000E+20
 20
-1.000000000000000E+20
 30
-1.000000000000000E+20
  9
$PLIMMIN
 10
0.0
 20
0.0
  9
$PLIMMAX
 10
12.0
 20
9.0
  9
$UNITMODE
 70
     0
  9
$VISRETAIN
 70
     0
  9
$PLINEGEN
 70
     0
  9
$PSLTSCALE
 70
     1
  9
$TREEDEPTH
 70
  3020
  9
$CMLSTYLE
  2
STANDARD
  9
$CMLJUST
 70
     0
  9
$CMLSCALE
 40
1.0
  9
$PROXYGRAPHICS
 70
     1
  9
$MEASUREMENT
 70
     1
  9
$CELWEIGHT
370
    -1
  9
$ENDCAPS
280
     0
  9
$JOINSTYLE
280
     0
  9
$LWDISPLAY
290
     0
  9
$INSUNITS
 70
     4
  9
$HYPERLINKBASE
  1

  9
$STYLESHEET
  1

  9
$XEDIT
290
     1
  9
$CEPSNTYPE
380
     0
  9
$PSTYLEMODE
290
     1
  9
$FINGERPRINTGUID
  2
{C3A3751C-7CBF-11D5-9E02-0050BAE3FAE1}
  9
$VERSIONGUID
  2
{E4C05A34-4876-4439-91CB-9158C6BE1A1F}
  9
$EXTNAMES
290
     1
  9
$PSVPSCALE
 40
0.0
  9
$OLESTARTUP
290
     0
  9
$SORTENTS
280
   127
  9
$INDEXCTL
280
     1
  9
$HIDETEXT
280
     0
  9
$XCLIPFRAME
290
     0
  9
$HALOGAP
280
     0
  9
$OBSCOLOR
 70
   257
  9
$OBSLTYPE
280
     0
  9
$INTERSECTIONDISPLAY
280
     0
  9
$INTERSECTIONCOLOR
 70
   257
  9
$DIMASSOC
280
     0
  9
$PROJECTNAME
  1

  0
ENDSEC
  0
SECTION
  2
CLASSES
  0
CLASS
  1
DICTIONARYVAR
  2
AcDbDictionaryVar
  3
ObjectDBX Classes
 90
        0
 91
        3
280
     0
281
     0
  0
CLASS
  1
ACDBDICTIONARYWDFLT
  2
AcDbDictionaryWithDefault
  3
ObjectDBX Classes
 90
        0
 91
        1
280
     0
281
     0
  0
CLASS
  1
ACME_DOCUMENT
  2
AcMeDbDoc
  3
AcMeServices
 90
        0
 91
        2
280
     0
281
     0
  0
CLASS
  1
AMGSETTINGSOBJ
  2
AmgSettingsObj
  3
"AcadM|Product Description: AutoCAD Mechanical 2000|Company: Autodesk"
 90
        0
 91
        3
280
     0
281
     0
  0
CLASS
  1
ACMESCOPE
  2
AcMeScope
  3
AcMeServices
 90
        0
 91
        1
280
     0
281
     0
  0
CLASS
  1
ACMECOMMANDHISTORY
  2
AcMeCommandHistory
  3
AcMeServices
 90
        0
 91
        1
280
     0
281
     0
  0
CLASS
  1
ACIMSYSVARMAN
  2
AcImSysVarManager
  3
AcMeServices
 90
        0
 91
        6
280
     0
281
     0
  0
CLASS
  1
ACIMREALSYSVAR
  2
AcImRealSysVar
  3
AcMeServices
 90
        0
 91
       16
280
     0
281
     0
  0
CLASS
  1
ACIMINTSYSVAR
  2
AcImIntSysVar
  3
AcMeServices
 90
        0
 91
       45
280
     0
281
     0
  0
CLASS
  1
ACMEDRAWINGMAN
  2
AcMeDrawingMan
  3
AcMeServices
 90
        0
 91
        1
280
     0
281
     0
  0
CLASS
  1
ACMEVIEW
  2
AcMeView
  3
AcMeServices
 90
        0
 91
        1
280
     0
281
     0
  0
CLASS
  1
ACDBENTITYCACHE
  2
AcMeEntityCache
  3
AcMeServices
 90
        0
 91
        1
280
     0
281
     0
  0
CLASS
  1
GSMANAGER
  2
AcMeGSManager
  3
AcMeServices
 90
        0
 91
        1
280
     0
281
     0
  0
CLASS
  1
AMDTINTERNALREACTOR
  2
AmdtInternalReactor
  3
AcMeServices
 90
        0
 91
        2
280
     0
281
     0
  0
CLASS
  1
ACMESTATEMGR
  2
AcMeStateMgr
  3
AcMeServices
 90
        0
 91
        1
280
     0
281
     0
  0
CLASS
  1
ACGREFMASTER
  2
AcGrefMaster
  3
AcAttribServices
 90
        0
 91
        1
280
     0
281
     0
  0
CLASS
  1
ACME_DATABASE
  2
AcMeDbDatabase
  3
AcMeServices
 90
        0
 91
        1
280
     0
281
     0
  0
CLASS
  1
ACRFINSADJUSTERMGR
  2
AcRfInsAdjusterMgr
  3
AcMeServices
 90
        0
 91
        1
280
     0
281
     0
  0
CLASS
  1
ACGREFACADMASTER
  2
AcGrefacadMaster
  3
AcGrefServices
 90
        0
 91
        1
280
     0
281
     0
  0
CLASS
  1
AMIMASTER
  2
AmiMaster
  3
AmiServices
 90
        0
 91
        1
280
     0
281
     0
  0
CLASS
  1
ACMDATADICTIONARY
  2
AcmDataDictionary
  3
"AcmSymBB|Product Description: AutoCAD Mechanical 2004 DX|Company: Autodesk"
 90
        0
 91
        1
280
     0
281
     0
  0
CLASS
  1
ACMDATAENTRYBLOCK
  2
AcmDataEntryBlock
  3
"AcmSymBB|Product Description: AutoCAD Mechanical 2004 DX|Company: Autodesk"
 90
        0
 91
        6
280
     0
281
     0
  0
CLASS
  1
ACIMSTRSYSVAR
  2
AcImStrSysVar
  3
AcMeServices
 90
        0
 91
       11
280
     0
281
     0
  0
CLASS
  1
ACMSTANDARDANSI
  2
AcmStandardANSI
  3
"Amdt_StdImp|Product Description: AutoCAD Mechanical 2004 DX|Company: Autodesk"
 90
        0
 91
        1
280
     0
281
     0
  0
CLASS
  1
AMGOBJPROPCFG
  2
AmgObjPropCfg
  3
"AmgLay|Product Description: AutoCAD Mechanical 2000|Company: Autodesk"
 90
        1
 91
        1
280
     0
281
     0
  0
CLASS
  1
ACMSURFSTANDARDANSI
  2
AcmSurfTextStdANSI
  3
"Amdt_StdImp|Product Description: AutoCAD Mechanical 2004 DX|Company: Autodesk"
 90
        0
 91
        1
280
     0
281
     0
  0
CLASS
  1
ACMFCFSTANDARDANSI
  2
AcmFCFStdANSI
  3
"Amdt_StdImp|Product Description: AutoCAD Mechanical 2004 DX|Company: Autodesk"
 90
        0
 91
        1
280
     0
281
     0
  0
CLASS
  1
ACMWELDSTANDARDANSI
  2
AcmWeldingStdANSI
  3
"Amdt_StdImp|Product Description: AutoCAD Mechanical 2004 DX|Company: Autodesk"
 90
        0
 91
        1
280
     0
281
     0
  0
CLASS
  1
ACMIDSTANDARDANSI
  2
AcmIdStdANSI
  3
"Amdt_StdImp|Product Description: AutoCAD Mechanical 2004 DX|Company: Autodesk"
 90
        0
 91
        1
280
     0
281
     0
  0
CLASS
  1
ACMDATUMSTANDARDANSI
  2
AcmDatumStdANSI
  3
"Amdt_StdImp|Product Description: AutoCAD Mechanical 2004 DX|Company: Autodesk"
 90
        0
 91
        1
280
     0
281
     0
  0
CLASS
  1
ACMBOMSTANDARDANSI
  2
AcmBOMStdANSI
  3
"Amdt_StdImp|Product Description: AutoCAD Mechanical 2004 DX|Company: Autodesk"
 90
        0
 91
        1
280
     0
281
     0
  0
CLASS
  1
ACMDETAILSTANDARDANSI
  2
AmdtDetailSymStdANSI
  3
"Amdt_StdImp|Product Description: AutoCAD Mechanical 2004 DX|Company: Autodesk"
 90
        0
 91
        1
280
     0
281
     0
  0
CLASS
  1
ACMSECTIONSTANDARDANSI
  2
AmdtSectionSymStdANSI
  3
"Amdt_StdImp|Product Description: AutoCAD Mechanical 2004 DX|Company: Autodesk"
 90
        0
 91
        1
280
     0
281
     0
  0
CLASS
  1
ACMCENTERLINESTANDARDANSI
  2
AmdtCenterLineStdANSI
  3
"Amdt_StdImp|Product Description: AutoCAD Mechanical 2004 DX|Company: Autodesk"
 90
        0
 91
        1
280
     0
281
     0
  0
CLASS
  1
ACMNOTESTANDARDANSI
  2
AmdtNoteStdANSI
  3
"Amdt_StdImp|Product Description: AutoCAD Mechanical 2004 DX|Company: Autodesk"
 90
        0
 91
        1
280
     0
281
     0
  0
CLASS
  1
ACAMGLAYSTD
  2
AcAmgLayStd
  3
"AcAmgLayStd|Product Description: AutoCAD Mechanical 2000|Company: Autodesk"
 90
        0
 91
        2
280
     0
281
     0
  0
CLASS
  1
ACAMGDIMSTD
  2
AcAmgDimStd
  3
"AcAmgDimStd|Product Description: AutoCAD Mechanical 2000|Company: Autodesk"
 90
        0
 91
        2
280
     0
281
     0
  0
CLASS
  1
ACAMGHOLECHARTSTDANSI
  2
AcAmgHoleChartStdANSI
  3
ACMSYMBB_MODULE_NAME
 90
        0
 91
        1
280
     0
281
     0
  0
CLASS
  1
ACAMGTITLESTD
  2
AcAmgTitleStd
  3
"TITLEAPP"
 90
        0
 91
        2
280
     0
281
     0
  0
CLASS
  1
ACAMGFILTERDAT
  2
AcAmgFilterDat
  3
"AcadM|Product Description: AutoCAD Mechanical 2000|Company: Autodesk"
 90
        0
 91
        0
280
     0
281
     0
  0
CLASS
  1
LAYER_INDEX
  2
AcDbLayerIndex
  3
ObjectDBX Classes
 90
        0
 91
        1
280
     0
281
     0
  0
CLASS
  1
IDBUFFER
  2
AcDbIdBuffer
  3
ObjectDBX Classes
 90
        0
 91
        9
280
     0
281
     0
  0
CLASS
  1
TABLESTYLE
  2
AcDbTableStyle
  3
ObjectDBX Classes
 90
     2047
 91
        1
280
     0
281
     0
  0
CLASS
  1
AM_DRAWING_MGR
  2
AcDmDwgMgr
  3
AcMechDwgViewMgmt
 90
        0
 91
        1
280
     0
281
     0
  0
CLASS
  1
AM_DWG_DOCUMENT
  2
AcDmDwgDocument
  3
AcMechDwgViewMgmt
 90
        0
 91
        1
280
     0
281
     0
  0
CLASS
  1
AM_DWG_SHEET
  2
AcDmSheet
  3
AcMechDwgViewMgmt
 90
        0
 91
        1
280
     0
281
     0
  0
CLASS
  1
AM_VIEWDIMPARMAP
  2
AcDmViewDimParMap
  3
AcMechDwgViewMgmt
 90
        0
 91
        1
280
     0
281
     0
  0
CLASS
  1
AM_DWGMGR_NAME
  2
AcDmDwgMgrName
  3
AcMechDwgViewMgmt
 90
        0
 91
        1
280
     0
281
     0
  0
CLASS
  1
AMDTMENUSTATEMGR
  2
AmdtMenuStateMgr
  3
McadcomServices
 90
        0
 91
        1
280
     0
281
     0
  0
CLASS
  1
AMDTMCOMMENUSTATE
  2
AmdtMcomMenuState
  3
McadcomServices
 90
        0
 91
        1
280
     0
281
     0
  0
CLASS
  1
ASAPP
  2
AcAsAppObject
  3
AutoSurfServices
 90
        0
 91
        1
280
     0
281
     0
  0
CLASS
  1
IM_STATIC_MAN
  2
AcImStaticVarManager
  3
AcMeServices
 90
        0
 91
        1
280
     0
281
     0
  0
CLASS
  1
ACIMDBLSTATICVAR
  2
AcImDblStaticVar
  3
AcMeServices
 90
        0
 91
       20
280
     0
281
     0
  0
CLASS
  1
ACIMSTRSTATICVAR
  2
AcImStrStaticVar
  3
AcMeServices
 90
        0
 91
       12
280
     0
281
     0
  0
CLASS
  1
ACIMINTSTATICVAR
  2
AcImIntStaticVar
  3
AcMeServices
 90
        0
 91
       17
280
     0
281
     0
  0
CLASS
  1
ACASGREFMASTER
  2
AcAsGrefMaster
  3
AutoSurfResolverServices
 90
        0
 91
        1
280
     0
281
     0
  0
CLASS
  1
ACADGREFMODULE
  2
AcAdGrefModule
  3
AdGrefServices
 90
        0
 91
        1
280
     0
281
     0
  0
CLASS
  1
AMDTMAPISURFMOUDULE
  2
AmdtMApiSurfModule
  3
MApiSurfServices
 90
        0
 91
        1
280
     0
281
     0
  0
CLASS
  1
MAPIAMMOUDLE
  2
MApiAmModule
  3
MApiAmServices
 90
        0
 91
        1
280
     0
281
     0
  0
CLASS
  1
AMDTADMENUSTATE
  2
AmdtAdMenuState
  3
DesignerServices
 90
        0
 91
        1
280
     0
281
     0
  0
CLASS
  1
ADAPPL
  2
AcAdAppl
  3
DesignerServices
 90
        0
 91
        1
280
     0
281
     0
  0
CLASS
  1
DEPMGR
  2
AcAdDepMgr
  3
DesignerServices
 90
        0
 91
        1
280
     0
281
     0
  0
CLASS
  1
PARAMMGR
  2
AcAdParamMgr
  3
DesignerServices
 90
        0
 91
        1
280
     0
281
     0
  0
CLASS
  1
PARAMSCOPE
  2
AcAdParamScope
  3
DesignerServices
 90
        0
 91
        5
280
     0
281
     0
  0
CLASS
  1
NAMEDAPPL
  2
AcAdNamedAppl
  3
DesignerServices
 90
        0
 91
        1
280
     0
281
     0
  0
CLASS
  1
AMDTDMMENUSTATE
  2
AmdtDmMenuState
  3
AcMechDwgViewMgmt
 90
        0
 91
        1
280
     0
281
     0
  0
CLASS
  1
MAPIADMODULE
  2
MApiAdModule
  3
MApiAdServices
 90
        0
 91
        1
280
     0
281
     0
  0
CLASS
  1
AMDTAMMENUSTATE
  2
AmdtAmMenuState
  3
DesignerAssemblies
 90
        0
 91
        1
280
     0
281
     0
  0
CLASS
  1
ACAMPROJECT
  2
AcAmProject
  3
DesignerAssemblies
 90
        0
 91
        1
280
     0
281
     0
  0
CLASS
  1
ACAMGRCOMPDEF
  2
AcAmGrCompDef
  3
DesignerAssemblies
 90
        0
 91
        6
280
     0
281
     0
  0
CLASS
  1
ACCMCONTEXT
  2
AcCmContext
  3
DesignerAssemblies
 90
        0
 91
       12
280
     0
281
     0
  0
CLASS
  1
ACAMCOMPDEF
  2
AcAmCompDef
  3
DesignerAssemblies
 90
        0
 91
        6
280
     0
281
     0
  0
CLASS
  1
ACAMCOMPDEFMGR
  2
AcAmCompDefMgr
  3
DesignerAssemblies
 90
        0
 91
        1
280
     0
281
     0
  0
CLASS
  1
AMCONTEXTMGR
  2
AcAmContextMgr
  3
DesignerAssemblies
 90
        0
 91
        1
280
     0
281
     0
  0
CLASS
  1
ACAMCONTEXTMODELER
  2
AcAmContextModeler
  3
DesignerAssemblies
 90
        0
 91
        1
280
     0
281
     0
  0
CLASS
  1
CATALOGSTATE
  2
AcAmCatalogState
  3
DesignerAssemblies
 90
        0
 91
        1
280
     0
281
     0
  0
CLASS
  1
ACAMGRCOMPDEFSET
  2
AcAmGrCompDefSet
  3
DesignerAssemblies
 90
        0
 91
        1
280
     0
281
     0
  0
CLASS
  1
AMDTBROWSERDBTAB
  2
AmdtBrowserDbTab
  3
McadcomServices
 90
        0
 91
        1
280
     0
281
     0
  0
CLASS
  1
CBROWSERAPPOBJECT
  2
CBrowserAppObject
  3
McadcomServices
 90
        0
 91
        3
280
     0
281
     0
  0
CLASS
  1
DM_PLACEHOLDER
  2
AcDmSelsetPlaceholder
  3
AcMechDwgViewMgmt
 90
        0
 91
        1
280
     0
281
     0
  0
CLASS
  1
ACMTHREADLINESTANDARDANSI
  2
AmdtThreadLineStdANSI
  3
"Amdt_StdImp|Product Description: AutoCAD Mechanical 2004 DX|Company: Autodesk"
 90
        0
 91
        1
280
     0
281
     0
  0
CLASS
  1
AMDTNOTETEMPLATEDB
  2
AmdtNoteTemplateDB
  3
AMDT_STDIMP_MODULE_NAME
 90
        0
 91
       10
280
     0
281
     0
  0
CLASS
  1
ACMSTANDARDISO
  2
AcmStandardISO
  3
"Amdt_StdImp|Product Description: AutoCAD Mechanical 2004 DX|Company: Autodesk"
 90
        0
 91
        1
280
     0
281
     0
  0
CLASS
  1
AMDTEDGESTANDARDISO13715
  2
AmdtEdgeStdISO13715
  3
"Amdt_StdImp|Product Description: AutoCAD Mechanical 2004 DX|Company: Autodesk"
 90
        0
 91
        1
280
     0
281
     0
  0
CLASS
  1
ACMSURFSTANDARDISO
  2
AcmSurfTextStdISO
  3
"Amdt_StdImp|Product Description: AutoCAD Mechanical 2004 DX|Company: Autodesk"
 90
        0
 91
        1
280
     0
281
     0
  0
CLASS
  1
ACMFCFSTANDARDISO
  2
AcmFCFStdISO
  3
"Amdt_StdImp|Product Description: AutoCAD Mechanical 2004 DX|Company: Autodesk"
 90
        0
 91
        1
280
     0
281
     0
  0
CLASS
  1
ACMWELDSTANDARDISO
  2
AcmWeldingStdISO
  3
"Amdt_StdImp|Product Description: AutoCAD Mechanical 2004 DX|Company: Autodesk"
 90
        0
 91
        1
280
     0
281
     0
  0
CLASS
  1
ACMIDSTANDARDISO
  2
AcmIdStdISO
  3
"Amdt_StdImp|Product Description: AutoCAD Mechanical 2004 DX|Company: Autodesk"
 90
        0
 91
        1
280
     0
281
     0
  0
CLASS
  1
ACMDATUMSTANDARDISO
  2
AcmDatumStdISO
  3
"Amdt_StdImp|Product Description: AutoCAD Mechanical 2004 DX|Company: Autodesk"
 90
        0
 91
        1
280
     0
281
     0
  0
CLASS
  1
ACMBOMSTANDARDISO
  2
AcmBOMStdISO
  3
"Amdt_StdImp|Product Description: AutoCAD Mechanical 2004 DX|Company: Autodesk"
 90
        0
 91
        1
280
     0
281
     0
  0
CLASS
  1
ACMDETAILSTANDARDISO
  2
AmdtDetailSymStdISO
  3
"Amdt_StdImp|Product Description: AutoCAD Mechanical 2004 DX|Company: Autodesk"
 90
        0
 91
        1
280
     0
281
     0
  0
CLASS
  1
ACMSECTIONSTANDARDISO
  2
AmdtSectionSymStdISO
  3
"Amdt_StdImp|Product Description: AutoCAD Mechanical 2004 DX|Company: Autodesk"
 90
        0
 91
        1
280
     0
281
     0
  0
CLASS
  1
ACMCENTERLINESTANDARDISO
  2
AmdtCenterLineStdISO
  3
"Amdt_StdImp|Product Description: AutoCAD Mechanical 2004 DX|Company: Autodesk"
 90
        0
 91
        1
280
     0
281
     0
  0
CLASS
  1
ACMTHREADLINESTANDARDISO
  2
AmdtThreadLineStdISO
  3
"Amdt_StdImp|Product Description: AutoCAD Mechanical 2004 DX|Company: Autodesk"
 90
        0
 91
        1
280
     0
281
     0
  0
CLASS
  1
ACMNOTESTANDARDISO
  2
AmdtNoteStdISO
  3
"Amdt_StdImp|Product Description: AutoCAD Mechanical 2004 DX|Company: Autodesk"
 90
        0
 91
        1
280
     0
281
     0
  0
CLASS
  1
ACAMGHOLECHARTSTDISO
  2
AcAmgHoleChartStdISO
  3
ACMSYMBB_MODULE_NAME
 90
        0
 91
        1
280
     0
281
     0
  0
CLASS
  1
ADPART
  2
AcAdPart
  3
DesignerServices
 90
        0
 91
        4
280
     0
281
     1
  0
CLASS
  1
ACAMCOMPENT
  2
AcAmCompEnt
  3
DesignerAssemblies
 90
        0
 91
        6
280
     0
281
     1
  0
CLASS
  1
ACAMCOMPENTCLONE
  2
AcAmCompEntClone
  3
DesignerAssemblies
 90
        0
 91
        0
280
     0
281
     1
  0
CLASS
  1
WORKPLANEDISPLAYMGR
  2
AcAdDisplayMgr
  3
DesignerServices
 90
        0
 91
        4
280
     0
281
     0
  0
CLASS
  1
ADBASE
  2
AcAdBase
  3
DesignerServices
 90
        0
 91
        4
280
     0
281
     0
  0
CLASS
  1
BODYID
  2
AcAdBodyId
  3
DesignerServices
 90
        0
 91
        4
280
     0
281
     0
  0
CLASS
  1
ACAMCOMP
  2
AcAmComp
  3
DesignerAssemblies
 90
        0
 91
        6
280
     0
281
     0
  0
CLASS
  1
ACAMCOMPFEEDBACK
  2
AcAmCompFeedback
  3
DesignerAssemblies
 90
        0
 91
        6
280
     0
281
     0
  0
CLASS
  1
ACCMBODY
  2
AcCmBody
  3
DesignerAssemblies
 90
        0
 91
        6
280
     0
281
     0
  0
CLASS
  1
AMDTFORMULAUPDATEDISPATCHER
  2
AmdtFormulaUpdateDispatcher
  3
AcMeServices
 90
        0
 91
        1
280
     0
281
     0
  0
CLASS
  1
SORTENTSTABLE
  2
AcDbSortentsTable
  3
ObjectDBX Classes
 90
        0
 91
        0
280
     0
281
     0
  0
ENDSEC
  0
SECTION
  2
TABLES
  0
TABLE
  2
VPORT
  5
12
330
0
100
AcDbSymbolTable
 70
     3
  0
VPORT
  5
11ED
330
12
100
AcDbSymbolTableRecord
100
AcDbViewportTableRecord
  2
*Active
 70
     0
 10
0.0
 20
0.0
 11
1.0
 21
1.0
 12
419.7144197918845
 22
-192.8040190186124
 13
0.0
 23
0.0
 14
2.5
 24
2.5
 15
10.0
 25
10.0
 16
0.0
 26
0.0
 36
1.0
 17
138.6205451135996
 27
126.4334816348561
 37
0.0
 40
249.0085292051684
 41
1.263157894736842
 42
50.0
 43
0.0
 44
0.0
 50
0.0
 51
0.0
 71
     0
 72
 20000
 73
     1
 74
     1
 75
     0
 76
     0
 77
     0
 78
     0
281
     0
 65
     0
110
0.0
120
0.0
130
0.0
111
1.0
121
0.0
131
0.0
112
0.0
122
1.0
132
0.0
 79
     0
146
0.0
  0
ENDTAB
  0
TABLE
  2
LTYPE
  5
D
330
0
100
AcDbSymbolTable
 70
    22
  0
LTYPE
  5
E
330
D
100
AcDbSymbolTableRecord
100
AcDbLinetypeTableRecord
  2
BYBLOCK
 70
     0
  3

 72
    65
 73
     0
 40
0.0
  0
LTYPE
  5
F
330
D
100
AcDbSymbolTableRecord
100
AcDbLinetypeTableRecord
  2
BYLAYER
 70
     0
  3

 72
    65
 73
     0
 40
0.0
  0
LTYPE
  5
5
330
D
100
AcDbSymbolTableRecord
100
AcDbLinetypeTableRecord
  2
CONTINUOUS
 70
     0
  3
Solid line
 72
    65
 73
     0
 40
0.0
  0
LTYPE
  5
28
330
D
100
AcDbSymbolTableRecord
100
AcDbLinetypeTableRecord
  2
CENTER2
 70
     0
  3
___ _ ___ _ ___ _ ___ _ ___ _ ___ _ ___ _ ___ _
 72
    65
 73
     4
 40
1.125
 49
0.75
 74
     0
 49
-0.125
 74
     0
 49
0.125
 74
     0
 49
-0.125
 74
     0
  0
LTYPE
  5
272
330
D
100
AcDbSymbolTableRecord
100
AcDbLinetypeTableRecord
  2
AM_ISO02W050
 70
     0
  3
__ __ __ __ __ __ __ __ __ __ __ __ __ __ __
 72
    65
 73
     2
 40
7.5
 49
6.0
 74
     0
 49
-1.5
 74
     0
  0
LTYPE
  5
273
330
D
100
AcDbSymbolTableRecord
100
AcDbLinetypeTableRecord
  2
AM_ISO08W050
 70
     0
  3
____ . ____ . ____ . ____ . ____ . ____ . ____
 72
    65
 73
     4
 40
18.0
 49
12.0
 74
     0
 49
-1.5
 74
     0
 49
3.0
 74
     0
 49
-1.5
 74
     0
  0
LTYPE
  5
274
330
D
100
AcDbSymbolTableRecord
100
AcDbLinetypeTableRecord
  2
AM_ISO09W050
 70
     0
  3
_____ . . _____ . . _____ . . ____ .. ____
 72
    65
 73
     6
 40
22.5
 49
12.0
 74
     0
 49
-1.5
 74
     0
 49
3.0
 74
     0
 49
-1.5
 74
     0
 49
3.0
 74
     0
 49
-1.5
 74
     0
  0
LTYPE
  5
275
330
D
100
AcDbSymbolTableRecord
100
AcDbLinetypeTableRecord
  2
Amconstr
 70
     0
  3
_______________________
 72
    65
 73
     2
 40
9999.0
 49
9999.0
 74
     0
 49
0.0
 74
     0
  0
LTYPE
  5
276
330
D
100
AcDbSymbolTableRecord
100
AcDbLinetypeTableRecord
  2
AM_ISO08W050x2
 70
     0
  3
__ . __ . __ . __ . __ . __
 72
    65
 73
     4
 40
9.0
 49
6.0
 74
     0
 49
-0.75
 74
     0
 49
1.5
 74
     0
 49
-0.75
 74
     0
  0
LTYPE
  5
277
330
D
100
AcDbSymbolTableRecord
100
AcDbLinetypeTableRecord
  2
AM_ISO02W050x2
 70
     0
  3
 _ _ _ _ _ _ _ _ _ _ _ _
 72
    65
 73
     2
 40
3.75
 49
3.0
 74
     0
 49
-0.75
 74
     0
  0
LTYPE
  5
27A
330
D
100
AcDbSymbolTableRecord
100
AcDbLinetypeTableRecord
  2
Amzigzag
 70
     0
  3
/\/-/\/-/\/-/\/-/\/-/\/
 72
    65
 73
     2
 40
11.0001
 49
0.0001
 74
     4
 75
   135
340
279
 46
0.04
 50
0.0
 44
0.0
 45
0.0
 49
-11.0
 74
     0
  0
LTYPE
  5
27B
330
D
100
AcDbSymbolTableRecord
100
AcDbLinetypeTableRecord
  2
HIDDEN
 70
     0
  3
Hidden __ __ __ __ __ __ __ __ __ __ __ __ __ _
 72
    65
 73
     2
 40
0.375
 49
0.25
 74
     0
 49
-0.125
 74
     0
  0
LTYPE
  5
27C
330
D
100
AcDbSymbolTableRecord
100
AcDbLinetypeTableRecord
  2
CENTER
 70
     0
  3
Center ____ _ ____ _ ____ _ ____ _ ____ _ ____
 72
    65
 73
     4
 40
2.0
 49
1.25
 74
     0
 49
-0.25
 74
     0
 49
0.25
 74
     0
 49
-0.25
 74
     0
  0
LTYPE
  5
27D
330
D
100
AcDbSymbolTableRecord
100
AcDbLinetypeTableRecord
  2
PHANTOM2
 70
     0
  3
Phantom (.5x) ___ _ _ ___ _ _ ___ _ _ ___ _ _
 72
    65
 73
     6
 40
1.25
 49
0.625
 74
     0
 49
-0.125
 74
     0
 49
0.125
 74
     0
 49
-0.125
 74
     0
 49
0.125
 74
     0
 49
-0.125
 74
     0
  0
LTYPE
  5
27E
330
D
100
AcDbSymbolTableRecord
100
AcDbLinetypeTableRecord
  2
HIDDEN2
 70
     0
  3
Hidden (.5x) _ _ _ _ _ _ _ _ _ _ _ _ _ _ _ _ _
 72
    65
 73
     2
 40
0.1875
 49
0.125
 74
     0
 49
-0.0625
 74
     0
  0
LTYPE
  5
27F
330
D
100
AcDbSymbolTableRecord
100
AcDbLinetypeTableRecord
  2
Amzigzag2
 70
     0
  3
/\/-/\/-/\/-/\/-/\/-/\/
 72
    65
 73
     2
 40
0.4401
 49
0.0001
 74
     4
 75
   135
340
279
 46
0.0016
 50
0.0
 44
0.0
 45
0.0
 49
-0.4400000000000001
 74
     0
  0
LTYPE
  5
28C
330
D
100
AcDbSymbolTableRecord
100
AcDbLinetypeTableRecord
  2
ACANSTGB
 70
     0
  3
__ . . __ . .
 72
    65
 73
     6
 40
0.35433070866
 49
0.15748031496
 74
     0
 49
-0.03937007874
 74
     0
 49
0.03937007874
 74
     0
 49
-0.03937007874
 74
     0
 49
0.03937007874
 74
     0
 49
-0.03937007874
 74
     0
  0
LTYPE
  5
28D
330
D
100
AcDbSymbolTableRecord
100
AcDbLinetypeTableRecord
  2
ACANSTGL
 70
     0
  3
_ _ _ _ _
 72
    65
 73
     2
 40
0.11811023622
 49
0.07874015748
 74
     0
 49
-0.03937007874
 74
     0
  0
LTYPE
  5
3FE
330
D
100
AcDbSymbolTableRecord
100
AcDbLinetypeTableRecord
  2
ACISOWELD
 70
     0
  3
_ _ _ _ _
 72
    65
 73
     2
 40
2.0
 49
2.0
 74
     0
 49
-1.0
 74
     0
  0
LTYPE
  5
3FF
330
D
100
AcDbSymbolTableRecord
100
AcDbLinetypeTableRecord
  2
ACISOTGB
 70
     0
  3
__ . . __ . .
 72
    65
 73
     6
 40
9.0
 49
4.0
 74
     0
 49
-1.0
 74
     0
 49
1.0
 74
     0
 49
-1.0
 74
     0
 49
1.0
 74
     0
 49
-1.0
 74
     0
  0
LTYPE
  5
400
330
D
100
AcDbSymbolTableRecord
100
AcDbLinetypeTableRecord
  2
ACISOTGL
 70
     0
  3
_ _ _ _ _
 72
    65
 73
     2
 40
3.0
 49
2.0
 74
     0
 49
-1.0
 74
     0
  0
LTYPE
  5
BB7
330
D
100
AcDbSymbolTableRecord
100
AcDbLinetypeTableRecord
  2
DASHED
 70
     0
  3
__ __ __ __ __ __ __ __ __ __ __ __ __ __ __ __
 72
    65
 73
     2
 40
0.75
 49
0.5
 74
     0
 49
-0.25
 74
     0
  0
ENDTAB
  0
TABLE
  2
LAYER
  5
A
102
{ACAD_XDICTIONARY
360
40D
102
}
330
0
100
AcDbSymbolTable
 70
     9
  0
LAYER
  5
4
330
A
100
AcDbSymbolTableRecord
100
AcDbLayerTableRecord
  2
0
 70
     0
 62
     2
  6
CONTINUOUS
370
    -3
390
CB
  0
LAYER
  5
1B
330
A
100
AcDbSymbolTableRecord
100
AcDbLayerTableRecord
  2
1
 70
     0
 62
     7
  6
CONTINUOUS
370
    -3
390
CB
  0
LAYER
  5
27
330
A
100
AcDbSymbolTableRecord
100
AcDbLayerTableRecord
  2
3
 70
     0
 62
     1
  6
CENTER2
370
    -3
390
CB
  0
LAYER
  5
D4
330
A
100
AcDbSymbolTableRecord
100
AcDbLayerTableRecord
  2
LOGO
 70
     0
 62
     7
  6
CONTINUOUS
370
    -3
390
CB
  0
LAYER
  5
7DF
330
A
100
AcDbSymbolTableRecord
100
AcDbLayerTableRecord
  2
Defpoints
 70
     0
 62
     7
  6
CONTINUOUS
290
     0
370
    -3
390
CB
  0
LAYER
  5
F1B
330
A
100
AcDbSymbolTableRecord
100
AcDbLayerTableRecord
  2
5
 70
     0
 62
     5
  6
CONTINUOUS
370
    -3
390
CB
  0
LAYER
  5
F1C
330
A
100
AcDbSymbolTableRecord
100
AcDbLayerTableRecord
  2
AM_4
 70
     0
 62
     3
  6
CONTINUOUS
370
    25
390
CB
  0
ENDTAB
  0
TABLE
  2
STYLE
  5
B
330
0
100
AcDbSymbolTable
 70
     8
  0
STYLE
  5
C
330
B
100
AcDbSymbolTableRecord
100
AcDbTextStyleTableRecord
  2
STANDARD
 70
     0
 40
0.0
 41
1.0
 50
0.0
 71
     0
 42
3.5
  3
ISOCP.SHX
  4

  0
STYLE
  5
1C
330
B
100
AcDbSymbolTableRecord
100
AcDbTextStyleTableRecord
  2
CHINA
 70
     0
 40
0.0
 41
1.0
 50
0.0
 71
     0
 42
3.0
  3
/rubon/c2
  4
CHINA.SHX
  0
STYLE
  5
D5
330
B
100
AcDbSymbolTableRecord
100
AcDbTextStyleTableRecord
  2
chineset
 70
     0
 40
0.0
 41
1.0
 50
0.0
 71
     0
 42
5.0
  3
simplex.shx
  4
chineset.shx
  0
STYLE
  5
279
330
B
100
AcDbSymbolTableRecord
100
AcDbTextStyleTableRecord
  2

 70
     1
 40
0.0
 41
1.0
 50
0.0
 71
     0
 42
3.0
  3
ltypeshp.shx
  4

  0
STYLE
  5
280
330
B
100
AcDbSymbolTableRecord
100
AcDbTextStyleTableRecord
  2
ACANSTS
 70
     0
 40
1.0
 41
1.0
 50
0.0
 71
     0
 42
3.0
  3
romans.shx
  4
chineset.shx
  0
STYLE
  5
28B
330
B
100
AcDbSymbolTableRecord
100
AcDbTextStyleTableRecord
  2
ACANSGDT
 70
     0
 40
0.0
 41
1.0
 50
0.0
 71
     0
 42
3.0
  3
amgdtans.shx
  4

  0
STYLE
  5
402
330
B
100
AcDbSymbolTableRecord
100
AcDbTextStyleTableRecord
  2
ACISOTS
 70
     0
 40
1.0
 41
1.0
 50
0.0
 71
     0
 42
1.0
  3
isocp.shx
  4
chineset.shx
  0
STYLE
  5
403
330
B
100
AcDbSymbolTableRecord
100
AcDbTextStyleTableRecord
  2
ACISOGDT
 70
     0
 40
0.0
 41
1.0
 50
0.0
 71
     0
 42
1.0
  3
amgdt.shx
  4

  0
ENDTAB
  0
TABLE
  2
VIEW
  5
10
330
0
100
AcDbSymbolTable
 70
     0
  0
ENDTAB
  0
TABLE
  2
UCS
  5
11
330
0
100
AcDbSymbolTable
 70
     0
  0
ENDTAB
  0
TABLE
  2
APPID
  5
14
330
0
100
AcDbSymbolTable
 70
    23
  0
APPID
  5
15
330
14
100
AcDbSymbolTableRecord
100
AcDbRegAppTableRecord
  2
ACAD
 70
     0
  0
APPID
  5
254
330
14
100
AcDbSymbolTableRecord
100
AcDbRegAppTableRecord
  2
MCAD_NO_VIS
 70
     0
  0
APPID
  5
255
330
14
100
AcDbSymbolTableRecord
100
AcDbRegAppTableRecord
  2
ACAD_TEMP_GRAPHIC
 70
     0
  0
APPID
  5
266
330
14
100
AcDbSymbolTableRecord
100
AcDbRegAppTableRecord
  2
ACATTRIBSERVICES
 70
     0
  0
APPID
  5
31D
330
14
100
AcDbSymbolTableRecord
100
AcDbRegAppTableRecord
  2
GENIUS_GENDIM_13
 70
     0
  0
APPID
  5
31E
330
14
100
AcDbSymbolTableRecord
100
AcDbRegAppTableRecord
  2
GENIUS_GENDTOL_13
 70
     0
  0
APPID
  5
31F
330
14
100
AcDbSymbolTableRecord
100
AcDbRegAppTableRecord
  2
GENIUS_GE3DTOL_13
 70
     0
  0
APPID
  5
34F
330
14
100
AcDbSymbolTableRecord
100
AcDbRegAppTableRecord
  2
AD_DRAW
 70
     0
  0
APPID
  5
39B
330
14
100
AcDbSymbolTableRecord
100
AcDbRegAppTableRecord
  2
ASURF_PCURVE_APPNAME
 70
     0
  0
APPID
  5
3A0
330
14
100
AcDbSymbolTableRecord
100
AcDbRegAppTableRecord
  2
AMG_3D2D_5.0
 70
     0
  0
APPID
  5
3CF
330
14
100
AcDbSymbolTableRecord
100
AcDbRegAppTableRecord
  2
DESIGNERASSEMBLIES
 70
     0
  0
APPID
  5
3D5
330
14
100
AcDbSymbolTableRecord
100
AcDbRegAppTableRecord
  2
ACADM_DIM_EDIT
 70
     0
  0
APPID
  5
3D6
330
14
100
AcDbSymbolTableRecord
100
AcDbRegAppTableRecord
  2
AMDT_DM_ADJ
 70
     0
  0
APPID
  5
87B
330
14
100
AcDbSymbolTableRecord
100
AcDbRegAppTableRecord
  2
ACAD_PSEXT
 70
     0
  0
APPID
  5
87C
330
14
100
AcDbSymbolTableRecord
100
AcDbRegAppTableRecord
  2
GENIUS_GENOBJ-N-CRS_13
 70
     0
  0
APPID
  5
87D
330
14
100
AcDbSymbolTableRecord
100
AcDbRegAppTableRecord
  2
GENIUS_GENOLIS_13
 70
     0
  0
APPID
  5
87E
330
14
100
AcDbSymbolTableRecord
100
AcDbRegAppTableRecord
  2
GENIUS_GENOENT_13
 70
     0
  0
APPID
  5
87F
330
14
100
AcDbSymbolTableRecord
100
AcDbRegAppTableRecord
  2
GENIUS_GENODEF_13
 70
     0
  0
APPID
  5
880
330
14
100
AcDbSymbolTableRecord
100
AcDbRegAppTableRecord
  2
GENIUS_GENOREF_13
 70
     0
  0
APPID
  5
881
330
14
100
AcDbSymbolTableRecord
100
AcDbRegAppTableRecord
  2
GENIUS_GENREC_14
 70
     0
  0
APPID
  5
882
330
14
100
AcDbSymbolTableRecord
100
AcDbRegAppTableRecord
  2
GENIUS_GENOBJ-N-REC_13
 70
     0
  0
APPID
  5
9A5
330
14
100
AcDbSymbolTableRecord
100
AcDbRegAppTableRecord
  2
ACAD_DSTYLE_DIMTEXT_FILL
 70
     0
  0
APPID
  5
DC7
330
14
100
AcDbSymbolTableRecord
100
AcDbRegAppTableRecord
  2
GENIUS_GENDIMSH_14
 70
     0
  0
ENDTAB
  0
TABLE
  2
DIMSTYLE
  5
16
330
0
100
AcDbSymbolTable
 70
    20
100
AcDbDimStyleTable
 71
     2
340
406
340
1E
  0
DIMSTYLE
105
1E
330
16
100
AcDbSymbolTableRecord
100
AcDbDimStyleTableRecord
  2
STANDARD
 70
     0
271
     2
272
     2
279
     2
284
     8
285
     8
286
     8
340
1C
  0
DIMSTYLE
105
291
330
16
100
AcDbSymbolTableRecord
100
AcDbDimStyleTableRecord
  2
AM_ANSI
 70
     0
  4
mm
 41
0.1
 42
0.05
 43
0.5
 44
0.1
 47
0.1
 48
0.1
 78
     7
 79
     2
140
0.12
141
0.0
146
0.71
147
0.06
176
   256
177
   256
178
     2
274
     4
284
     7
340
C
371
    -1
372
    -1
  0
DIMSTYLE
105
292
330
16
100
AcDbSymbolTableRecord
100
AcDbDimStyleTableRecord
  2
AM_ANSI$3
 70
     0
  4
mm
 41
0.1
 42
0.05
 43
0.5
 44
0.1
 47
0.1
 48
0.1
 78
     7
 79
     2
140
0.12
141
0.0
146
0.71
147
0.06
176
   256
177
   256
178
     2
274
     4
284
     7
288
     1
289
     0
340
C
371
    -1
372
    -1
  0
DIMSTYLE
105
293
330
16
100
AcDbSymbolTableRecord
100
AcDbDimStyleTableRecord
  2
AM_ANSI$4
 70
     0
  4
mm
 41
0.1
 42
0.05
 43
0.5
 44
0.1
 47
0.1
 48
0.1
 78
     7
 79
     2
140
0.12
141
0.0
146
0.71
147
0.06
176
   256
177
   256
178
     2
274
     4
284
     7
288
     1
289
     0
340
C
371
    -1
372
    -1
  0
DIMSTYLE
105
294
330
16
100
AcDbSymbolTableRecord
100
AcDbDimStyleTableRecord
  2
AM_ANSI$7
 70
     0
  4
mm
 41
0.1
 42
0.05
 43
0.5
 44
0.1
 47
0.1
 48
0.1
 78
     7
 79
     2
140
0.24
141
0.0
146
0.71
147
0.06
176
   256
177
   256
178
     2
274
     4
284
     7
340
C
371
    -1
372
    -1
  0
DIMSTYLE
105
295
330
16
100
AcDbSymbolTableRecord
100
AcDbDimStyleTableRecord
  2
AM_ANSI$SF
 70
     0
  4
mm
 41
0.1
 42
0.05
 43
0.5
 44
0.1
 47
0.1
 48
0.1
 75
     1
 76
     1
 78
     7
 79
     2
140
0.12
141
0.0
146
0.71
147
0.06
176
   256
177
   256
178
     2
274
     4
284
     7
340
C
371
    -1
372
    -1
  0
DIMSTYLE
105
29A
330
16
100
AcDbSymbolTableRecord
100
AcDbDimStyleTableRecord
  2
AM_ANSI$SH
 70
     0
  4
mm
 41
0.1
 42
0.05
 43
0.5
 44
0.1
 47
0.1
 48
0.1
 75
     1
 76
     1
 78
     7
 79
     2
140
0.12
141
0.0
146
0.71
147
0.06
173
     1
176
   256
177
   256
178
     2
274
     4
284
     7
340
C
341
296
343
296
371
    -1
372
    -1
  0
DIMSTYLE
105
406
330
16
100
AcDbSymbolTableRecord
100
AcDbDimStyleTableRecord
  2
AM_ISO
 70
     0
  4
"
 41
3.5
 42
1.0
 43
8.0
 44
1.0
 47
0.1
 48
0.1
 73
     0
 74
     0
 77
     1
 78
     8
 79
     2
140
3.5
141
0.0
143
0.0393701
146
0.71
147
1.0
172
     1
176
   256
177
   256
178
   256
271
     2
272
     2
283
     0
284
     8
285
     8
340
C
371
    -1
372
    -1
  0
DIMSTYLE
105
407
330
16
100
AcDbSymbolTableRecord
100
AcDbDimStyleTableRecord
  2
AM_ISO$SF
 70
     0
  4
"
 41
2.5
 42
1.0
 43
10.0
 44
1.0
 47
0.1
 48
0.1
 73
     0
 74
     0
 75
     1
 76
     1
 77
     1
 78
     8
 79
     2
140
3.5
141
0.0
143
0.0393701
146
0.71
147
1.0
172
     1
176
   256
177
   256
178
   256
271
     2
272
     2
283
     0
284
     8
340
C
371
    -1
372
    -1
  0
DIMSTYLE
105
408
330
16
100
AcDbSymbolTableRecord
100
AcDbDimStyleTableRecord
  2
AM_ISO$SH
 70
     0
  4
"
 41
2.5
 42
1.0
 43
10.0
 44
1.0
 47
0.1
 48
0.1
 73
     0
 74
     0
 75
     1
 76
     1
 77
     1
 78
     8
 79
     2
140
3.5
141
0.0
143
0.0393701
144
2.0
146
0.71
147
1.0
172
     1
173
     1
176
   256
177
   256
178
   256
271
     2
272
     2
283
     0
284
     8
340
C
343
296
371
    -1
372
    -1
  0
DIMSTYLE
105
409
330
16
100
AcDbSymbolTableRecord
100
AcDbDimStyleTableRecord
  2
AM_ISO$3
 70
     0
  4
"
 41
3.5
 42
1.0
 43
8.0
 44
1.0
 47
0.1
 48
0.1
 73
     0
 77
     1
 78
     8
 79
     2
140
3.5
141
0.0
143
0.0393701
146
0.71
147
1.0
176
   256
177
   256
178
   256
271
     2
272
     2
283
     0
284
     8
285
     8
288
     1
289
     0
340
C
371
    -1
372
    -1
  0
DIMSTYLE
105
40A
330
16
100
AcDbSymbolTableRecord
100
AcDbDimStyleTableRecord
  2
AM_ISO$4
 70
     0
  4
"
 41
3.5
 42
1.0
 43
8.0
 44
1.0
 47
0.1
 48
0.1
 73
     0
 77
     1
 78
     8
 79
     2
140
3.5
141
0.0
143
0.0393701
146
0.71
147
1.0
176
   256
177
   256
178
   256
271
     2
272
     2
283
     0
284
     8
285
     8
288
     1
289
     0
340
C
371
    -1
372
    -1
  0
DIMSTYLE
105
40B
330
16
100
AcDbSymbolTableRecord
100
AcDbDimStyleTableRecord
  2
AM_ISO$6
 70
     0
  4
"
 41
3.5
 42
1.0
 43
8.0
 44
1.0
 47
0.1
 48
0.1
 73
     0
 74
     0
 78
     8
 79
     2
140
3.5
141
0.0
143
0.0393701
146
0.71
147
1.0
172
     1
176
   256
177
   256
178
   256
271
     2
272
     2
283
     0
284
     8
285
     8
340
C
371
    -1
372
    -1
  0
DIMSTYLE
105
40C
330
16
100
AcDbSymbolTableRecord
100
AcDbDimStyleTableRecord
  2
AM_ISO$7
 70
     0
  4
"
 41
3.5
 42
1.0
 43
8.0
 44
1.0
 47
0.1
 48
0.1
 73
     0
 74
     0
 77
     1
 78
     8
 79
     2
140
5.0
141
0.0
143
0.0393701
146
0.71
147
1.5
172
     1
176
   256
177
   256
178
   256
271
     2
272
     2
283
     0
284
     8
285
     8
340
C
371
    -1
372
    -1
  0
DIMSTYLE
105
7DA
102
{ACAD_REACTORS
330
1043
330
1044
330
1045
330
1049
330
104A
330
104B
330
104D
330
104E
330
104F
330
1050
330
1055
330
105F
330
1060
102
}
330
16
100
AcDbSymbolTableRecord
100
AcDbDimStyleTableRecord
  2
STANDARD$0
 70
     0
271
     2
272
     2
279
     2
284
     8
285
     8
286
     8
340
1C
  0
DIMSTYLE
105
B8F
330
16
100
AcDbSymbolTableRecord
100
AcDbDimStyleTableRecord
  2
AM_ISO$0
 70
     0
  4
"
 41
3.5
 42
1.0
 43
8.0
 44
1.0
 47
0.1
 48
0.1
 73
     0
 74
     0
 77
     1
 78
     8
 79
     2
140
3.5
141
0.0
143
0.0393701
146
0.71
147
1.0
172
     1
176
   256
177
   256
178
   256
271
     2
272
     2
283
     0
284
     8
285
     8
340
C
371
    -1
372
    -1
  0
ENDTAB
  0
TABLE
  2
BLOCK_RECORD
  5
1
330
0
100
AcDbSymbolTable
 70
    48
  0
BLOCK_RECORD
  5
2
102
{ACAD_XDICTIONARY
360
226
102
}
330
1
100
AcDbSymbolTableRecord
100
AcDbBlockTableRecord
  2
*MODEL_SPACE
340
CE
  0
BLOCK_RECORD
  5
7
102
{ACAD_XDICTIONARY
360
228
102
}
330
1
100
AcDbSymbolTableRecord
100
AcDbBlockTableRecord
  2
*PAPER_SPACE
340
CF
  0
BLOCK_RECORD
  5
296
330
1
100
AcDbSymbolTableRecord
100
AcDbBlockTableRecord
  2
GENAXEH
340
0
  0
BLOCK_RECORD
  5
3C6
330
1
100
AcDbSymbolTableRecord
100
AcDbBlockTableRecord
  2
*U1
340
0
  0
BLOCK_RECORD
  5
9FC
330
1
100
AcDbSymbolTableRecord
100
AcDbBlockTableRecord
  2
*U3
340
0
102
{BLKREFS
331
A0E
331
A0F
331
A13
102
}
  0
BLOCK_RECORD
  5
A00
330
1
100
AcDbSymbolTableRecord
100
AcDbBlockTableRecord
  2
*U4
340
0
102
{BLKREFS
331
A10
102
}
  0
BLOCK_RECORD
  5
A04
330
1
100
AcDbSymbolTableRecord
100
AcDbBlockTableRecord
  2
*U5
340
0
102
{BLKREFS
331
A11
102
}
  0
BLOCK_RECORD
  5
A08
330
1
100
AcDbSymbolTableRecord
100
AcDbBlockTableRecord
  2
*U6
340
0
102
{BLKREFS
331
A12
102
}
  0
BLOCK_RECORD
  5
A0C
330
1
100
AcDbSymbolTableRecord
100
AcDbBlockTableRecord
  2
*U7
340
0
  0
BLOCK_RECORD
  5
1061
330
1
100
AcDbSymbolTableRecord
100
AcDbBlockTableRecord
  2
*D35
340
0
  0
BLOCK_RECORD
  5
106F
330
1
100
AcDbSymbolTableRecord
100
AcDbBlockTableRecord
  2
*D36
340
0
  0
BLOCK_RECORD
  5
107B
330
1
100
AcDbSymbolTableRecord
100
AcDbBlockTableRecord
  2
*D37
340
0
  0
BLOCK_RECORD
  5
1087
330
1
100
AcDbSymbolTableRecord
100
AcDbBlockTableRecord
  2
*D38
340
0
  0
BLOCK_RECORD
  5
1093
330
1
100
AcDbSymbolTableRecord
100
AcDbBlockTableRecord
  2
*D39
340
0
  0
BLOCK_RECORD
  5
109F
330
1
100
AcDbSymbolTableRecord
100
AcDbBlockTableRecord
  2
*D40
340
0
  0
BLOCK_RECORD
  5
10AD
330
1
100
AcDbSymbolTableRecord
100
AcDbBlockTableRecord
  2
*D41
340
0
  0
BLOCK_RECORD
  5
10B9
330
1
100
AcDbSymbolTableRecord
100
AcDbBlockTableRecord
  2
*D42
340
0
  0
BLOCK_RECORD
  5
10C7
330
1
100
AcDbSymbolTableRecord
100
AcDbBlockTableRecord
  2
*D43
340
0
  0
BLOCK_RECORD
  5
10D3
330
1
100
AcDbSymbolTableRecord
100
AcDbBlockTableRecord
  2
*D44
340
0
  0
BLOCK_RECORD
  5
10DF
330
1
100
AcDbSymbolTableRecord
100
AcDbBlockTableRecord
  2
*D45
340
0
  0
BLOCK_RECORD
  5
10EB
330
1
100
AcDbSymbolTableRecord
100
AcDbBlockTableRecord
  2
*D46
340
0
  0
BLOCK_RECORD
  5
10F9
330
1
100
AcDbSymbolTableRecord
100
AcDbBlockTableRecord
  2
*D47
340
0
  0
ENDTAB
  0
ENDSEC
  0
SECTION
  2
BLOCKS
  0
BLOCK
  5
3
330
2
100
AcDbEntity
  8
0
100
AcDbBlockBegin
  2
*MODEL_SPACE
 70
     0
 10
0.0
 20
0.0
 30
0.0
  3
*MODEL_SPACE
  1

  0
ENDBLK
  5
6
330
2
100
AcDbEntity
  8
0
100
AcDbBlockEnd
  0
BLOCK
  5
8
330
7
100
AcDbEntity
 67
     1
  8
0
100
AcDbBlockBegin
  2
*PAPER_SPACE
 70
     0
 10
0.0
 20
0.0
 30
0.0
  3
*PAPER_SPACE
  1

  0
ENDBLK
  5
9
330
7
100
AcDbEntity
 67
     1
  8
0
100
AcDbBlockEnd
  0
BLOCK
  5
298
330
296
100
AcDbEntity
  8
0
100
AcDbBlockBegin
  2
GENAXEH
 70
     0
 10
0.0
 20
0.0
 30
0.0
  3
GENAXEH
  1

  0
LINE
  5
297
330
296
100
AcDbEntity
  8
0
100
AcDbLine
 10
-1.0
 20
0.0
 30
0.0
 11
1.0
 21
0.0
 31
0.0
  0
ENDBLK
  5
299
330
296
100
AcDbEntity
  8
0
100
AcDbBlockEnd
  0
BLOCK
  5
3C7
330
3C6
100
AcDbEntity
  8
0
100
AcDbBlockBegin
  2
*U1
 70
     1
 10
0.0
 20
0.0
 30
0.0
  3
*U1
  1

  0
ENDBLK
  5
3C8
330
3C6
100
AcDbEntity
  8
0
100
AcDbBlockEnd
  0
BLOCK
  5
9FD
330
9FC
100
AcDbEntity
  8
0
100
AcDbBlockBegin
  2
*U3
 70
     1
 10
0.0
 20
0.0
 30
0.0
  3
*U3
  1

  0
ENDBLK
  5
9FF
330
9FC
100
AcDbEntity
  8
0
100
AcDbBlockEnd
  0
BLOCK
  5
A01
330
A00
100
AcDbEntity
  8
0
100
AcDbBlockBegin
  2
*U4
 70
     1
 10
0.0
 20
0.0
 30
0.0
  3
*U4
  1

  0
ENDBLK
  5
A03
330
A00
100
AcDbEntity
  8
0
100
AcDbBlockEnd
  0
BLOCK
  5
A05
330
A04
100
AcDbEntity
  8
0
100
AcDbBlockBegin
  2
*U5
 70
     1
 10
0.0
 20
0.0
 30
0.0
  3
*U5
  1

  0
ENDBLK
  5
A07
330
A04
100
AcDbEntity
  8
0
100
AcDbBlockEnd
  0
BLOCK
  5
A09
330
A08
100
AcDbEntity
  8
0
100
AcDbBlockBegin
  2
*U6
 70
     1
 10
0.0
 20
0.0
 30
0.0
  3
*U6
  1

  0
ENDBLK
  5
A0B
330
A08
100
AcDbEntity
  8
0
100
AcDbBlockEnd
  0
BLOCK
  5
A0D
330
A0C
100
AcDbEntity
  8
0
100
AcDbBlockBegin
  2
*U7
 70
     1
 10
0.0
 20
0.0
 30
0.0
  3
*U7
  1

  0
ENDBLK
  5
A14
330
A0C
100
AcDbEntity
  8
0
100
AcDbBlockEnd
  0
BLOCK
  5
106D
330
1061
100
AcDbEntity
  8
0
100
AcDbBlockBegin
  2
*D35
 70
     1
 10
0.0
 20
0.0
 30
0.0
  3
*D35
  1

  0
LINE
  5
1107
330
1061
100
AcDbEntity
  8
5
 62
     0
370
    -2
100
AcDbLine
 10
564.5018415948461
 20
-50.32278660090572
 30
0.0
 11
564.5018415948461
 21
-23.44010302188928
 31
0.0
  0
LINE
  5
1108
330
1061
100
AcDbEntity
  8
5
 62
     0
370
    -2
100
AcDbLine
 10
566.0018415948461
 20
-31.32278660090572
 30
0.0
 11
566.0018415948461
 21
-23.44010302188928
 31
0.0
  0
LINE
  5
1109
330
1061
100
AcDbEntity
  8
5
 62
     0
370
    -2
100
AcDbLine
 10
561.0018415948461
 20
-24.44010302188929
 30
0.0
 11
557.5018415948461
 21
-24.44010302188929
 31
0.0
  0
LINE
  5
110A
330
1061
100
AcDbEntity
  8
5
 62
     0
370
    -2
100
AcDbLine
 10
569.5018415948461
 20
-24.44010302188929
 30
0.0
 11
573.0018415948461
 21
-24.44010302188929
 31
0.0
  0
LINE
  5
110B
330
1061
100
AcDbEntity
  8
5
 62
     0
370
    -2
100
AcDbLine
 10
564.5018415948461
 20
-24.44010302188929
 30
0.0
 11
566.0018415948461
 21
-24.44010302188929
 31
0.0
  0
SOLID
  5
110C
330
1061
100
AcDbEntity
  8
5
 62
     0
100
AcDbTrace
 10
561.0018415948461
 20
-23.85676968855595
 30
0.0
 11
561.0018415948461
 21
-25.02343635522262
 31
0.0
 12
564.5018415948461
 22
-24.44010302188929
 32
0.0
 13
564.5018415948461
 23
-24.44010302188929
 33
0.0
  0
SOLID
  5
110D
330
1061
100
AcDbEntity
  8
5
 62
     0
100
AcDbTrace
 10
569.5018415948461
 20
-23.85676968855595
 30
0.0
 11
569.5018415948461
 21
-25.02343635522262
 31
0.0
 12
566.0018415948461
 22
-24.44010302188929
 32
0.0
 13
566.0018415948461
 23
-24.44010302188929
 33
0.0
  0
MTEXT
  5
110E
330
1061
100
AcDbEntity
  8
5
 62
     0
100
AcDbMText
 10
565.2518415948462
 20
-22.19010302188928
 30
0.0
 40
2.5
 41
0.0
 71
     5
 72
     1
  1
\A1;1.5
 73
     1
 44
1.0
  0
POINT
  5
110F
330
1061
100
AcDbEntity
  8
Defpoints
 62
     0
100
AcDbPoint
 10
564.5018415948461
 20
-51.32278660090571
 30
0.0
  0
POINT
  5
1110
330
1061
100
AcDbEntity
  8
Defpoints
 62
     0
100
AcDbPoint
 10
566.0018415948461
 20
-32.32278660090571
 30
0.0
  0
POINT
  5
1111
330
1061
100
AcDbEntity
  8
Defpoints
 62
     0
100
AcDbPoint
 10
566.0018415948461
 20
-24.44010302188929
 30
0.0
  0
ENDBLK
  5
106E
330
1061
100
AcDbEntity
  8
0
100
AcDbBlockEnd
  0
BLOCK
  5
1079
330
106F
100
AcDbEntity
  8
0
100
AcDbBlockBegin
  2
*D36
 70
     1
 10
0.0
 20
0.0
 30
0.0
  3
*D36
  1

  0
LINE
  5
1186
330
106F
100
AcDbEntity
  8
5
 62
     0
370
    -2
100
AcDbLine
 10
484.8605474715758
 20
-97.32278660090578
 30
0.0
 11
484.8605474715758
 21
-105.4428666009057
 31
0.0
  0
LINE
  5
1187
330
106F
100
AcDbEntity
  8
5
 62
     0
370
    -2
100
AcDbLine
 10
494.8605474715757
 20
-97.32278660090578
 30
0.0
 11
494.8605474715757
 21
-105.4428666009057
 31
0.0
  0
LINE
  5
1188
330
106F
100
AcDbEntity
  8
5
 62
     0
370
    -2
100
AcDbLine
 10
488.3605474715757
 20
-104.4428666009057
 30
0.0
 11
491.3605474715757
 21
-104.4428666009057
 31
0.0
  0
SOLID
  5
1189
330
106F
100
AcDbEntity
  8
5
 62
     0
100
AcDbTrace
 10
488.3605474715757
 20
-103.8595332675724
 30
0.0
 11
488.3605474715757
 21
-105.026199934239
 31
0.0
 12
484.8605474715758
 22
-104.4428666009057
 32
0.0
 13
484.8605474715758
 23
-104.4428666009057
 33
0.0
  0
SOLID
  5
118A
330
106F
100
AcDbEntity
  8
5
 62
     0
100
AcDbTrace
 10
491.3605474715757
 20
-103.8595332675724
 30
0.0
 11
491.3605474715757
 21
-105.026199934239
 31
0.0
 12
494.8605474715757
 22
-104.4428666009057
 32
0.0
 13
494.8605474715757
 23
-104.4428666009057
 33
0.0
  0
MTEXT
  5
118B
330
106F
100
AcDbEntity
  8
5
 62
     0
100
AcDbMText
 10
489.8605474715757
 20
-102.1926205379136
 30
0.0
 40
2.5
 41
0.0
 71
     5
 72
     1
  1
\A1;10.2
 73
     1
 44
1.0
  0
POINT
  5
118C
330
106F
100
AcDbEntity
  8
Defpoints
 62
     0
100
AcDbPoint
 10
484.8605474715758
 20
-96.32278660090577
 30
0.0
  0
POINT
  5
118D
330
106F
100
AcDbEntity
  8
Defpoints
 62
     0
100
AcDbPoint
 10
494.8605474715757
 20
-96.32278660090577
 30
0.0
  0
POINT
  5
118E
330
106F
100
AcDbEntity
  8
Defpoints
 62
     0
100
AcDbPoint
 10
494.8605474715757
 20
-104.4428666009057
 30
0.0
  0
ENDBLK
  5
107A
330
106F
100
AcDbEntity
  8
0
100
AcDbBlockEnd
  0
BLOCK
  5
1085
330
107B
100
AcDbEntity
  8
0
100
AcDbBlockBegin
  2
*D37
 70
     1
 10
0.0
 20
0.0
 30
0.0
  3
*D37
  1

  0
LINE
  5
118F
330
107B
100
AcDbEntity
  8
5
 62
     0
370
    -2
100
AcDbLine
 10
481.3605474715758
 20
-97.32278660090578
 30
0.0
 11
481.3605474715758
 21
-111.1933866009057
 31
0.0
  0
LINE
  5
1190
330
107B
100
AcDbEntity
  8
5
 62
     0
370
    -2
100
AcDbLine
 10
498.3605474715757
 20
-97.32278660090578
 30
0.0
 11
498.3605474715757
 21
-111.1933866009057
 31
0.0
  0
LINE
  5
1191
330
107B
100
AcDbEntity
  8
5
 62
     0
370
    -2
100
AcDbLine
 10
484.8605474715758
 20
-110.1933866009057
 30
0.0
 11
494.8605474715757
 21
-110.1933866009057
 31
0.0
  0
SOLID
  5
1192
330
107B
100
AcDbEntity
  8
5
 62
     0
100
AcDbTrace
 10
484.8605474715758
 20
-109.6100532675724
 30
0.0
 11
484.8605474715758
 21
-110.776719934239
 31
0.0
 12
481.3605474715758
 22
-110.1933866009057
 32
0.0
 13
481.3605474715758
 23
-110.1933866009057
 33
0.0
  0
SOLID
  5
1193
330
107B
100
AcDbEntity
  8
5
 62
     0
100
AcDbTrace
 10
494.8605474715757
 20
-109.6100532675724
 30
0.0
 11
494.8605474715757
 21
-110.776719934239
 31
0.0
 12
498.3605474715757
 22
-110.1933866009057
 32
0.0
 13
498.3605474715757
 23
-110.1933866009057
 33
0.0
  0
MTEXT
  5
1194
330
107B
100
AcDbEntity
  8
5
 62
     0
100
AcDbMText
 10
489.8605474715757
 20
-107.9433866009057
 30
0.0
 40
2.5
 41
0.0
 71
     5
 72
     1
  1
\A1;17
 73
     1
 44
1.0
  0
POINT
  5
1195
330
107B
100
AcDbEntity
  8
Defpoints
 62
     0
100
AcDbPoint
 10
481.3605474715758
 20
-96.32278660090577
 30
0.0
  0
POINT
  5
1196
330
107B
100
AcDbEntity
  8
Defpoints
 62
     0
100
AcDbPoint
 10
498.3605474715757
 20
-96.32278660090577
 30
0.0
  0
POINT
  5
1197
330
107B
100
AcDbEntity
  8
Defpoints
 62
     0
100
AcDbPoint
 10
498.3605474715757
 20
-110.1933866009057
 30
0.0
  0
ENDBLK
  5
1086
330
107B
100
AcDbEntity
  8
0
100
AcDbBlockEnd
  0
BLOCK
  5
1091
330
1087
100
AcDbEntity
  8
0
100
AcDbBlockBegin
  2
*D38
 70
     1
 10
0.0
 20
0.0
 30
0.0
  3
*D38
  1

  0
LINE
  5
1124
330
1087
100
AcDbEntity
  8
5
 62
     0
370
    -2
100
AcDbLine
 10
566.0018415948461
 20
-31.32278660090572
 30
0.0
 11
566.0018415948461
 21
-23.44010302188936
 31
0.0
  0
LINE
  5
1125
330
1087
100
AcDbEntity
  8
5
 62
     0
370
    -2
100
AcDbLine
 10
613.6018415948459
 20
-31.32278660090572
 30
0.0
 11
613.6018415948459
 21
-23.44010302188936
 31
0.0
  0
LINE
  5
1126
330
1087
100
AcDbEntity
  8
5
 62
     0
370
    -2
100
AcDbLine
 10
569.5018415948461
 20
-24.44010302188936
 30
0.0
 11
610.1018415948459
 21
-24.44010302188936
 31
0.0
  0
SOLID
  5
1127
330
1087
100
AcDbEntity
  8
5
 62
     0
100
AcDbTrace
 10
569.5018415948461
 20
-23.85676968855602
 30
0.0
 11
569.5018415948461
 21
-25.02343635522269
 31
0.0
 12
566.0018415948461
 22
-24.44010302188936
 32
0.0
 13
566.0018415948461
 23
-24.44010302188936
 33
0.0
  0
SOLID
  5
1128
330
1087
100
AcDbEntity
  8
5
 62
     0
100
AcDbTrace
 10
610.1018415948459
 20
-23.85676968855602
 30
0.0
 11
610.1018415948459
 21
-25.02343635522269
 31
0.0
 12
613.6018415948459
 22
-24.44010302188936
 32
0.0
 13
613.6018415948459
 23
-24.44010302188936
 33
0.0
  0
MTEXT
  5
1129
330
1087
100
AcDbEntity
  8
5
 62
     0
100
AcDbMText
 10
589.801841594846
 20
-22.19010302188936
 30
0.0
 40
2.5
 41
0.0
 71
     5
 72
     1
  1
\A1;47.6
 73
     1
 44
1.0
  0
POINT
  5
112A
330
1087
100
AcDbEntity
  8
Defpoints
 62
     0
100
AcDbPoint
 10
566.0018415948461
 20
-32.32278660090571
 30
0.0
  0
POINT
  5
112B
330
1087
100
AcDbEntity
  8
Defpoints
 62
     0
100
AcDbPoint
 10
613.6018415948459
 20
-32.32278660090571
 30
0.0
  0
POINT
  5
112C
330
1087
100
AcDbEntity
  8
Defpoints
 62
     0
100
AcDbPoint
 10
613.6018415948459
 20
-24.44010302188936
 30
0.0
  0
ENDBLK
  5
1092
330
1087
100
AcDbEntity
  8
0
100
AcDbBlockEnd
  0
BLOCK
  5
109D
330
1093
100
AcDbEntity
  8
0
100
AcDbBlockBegin
  2
*D39
 70
     1
 10
0.0
 20
0.0
 30
0.0
  3
*D39
  1

  0
LINE
  5
112D
330
1093
100
AcDbEntity
  8
5
 62
     0
370
    -2
100
AcDbLine
 10
614.6018415948459
 20
-32.32278660090571
 30
0.0
 11
627.0954355948461
 21
-32.32278660090572
 31
0.0
  0
LINE
  5
112E
330
1093
100
AcDbEntity
  8
5
 62
     0
370
    -2
100
AcDbLine
 10
614.6018415948459
 20
-96.32278660090571
 30
0.0
 11
627.0954355948461
 21
-96.32278660090571
 31
0.0
  0
LINE
  5
112F
330
1093
100
AcDbEntity
  8
5
 62
     0
370
    -2
100
AcDbLine
 10
626.095435594846
 20
-35.82278660090572
 30
0.0
 11
626.095435594846
 21
-92.82278660090572
 31
0.0
  0
SOLID
  5
1130
330
1093
100
AcDbEntity
  8
5
 62
     0
100
AcDbTrace
 10
625.5121022615127
 20
-35.82278660090572
 30
0.0
 11
626.6787689281795
 21
-35.82278660090572
 31
0.0
 12
626.095435594846
 22
-32.32278660090572
 32
0.0
 13
626.095435594846
 23
-32.32278660090572
 33
0.0
  0
SOLID
  5
1131
330
1093
100
AcDbEntity
  8
5
 62
     0
100
AcDbTrace
 10
625.5121022615127
 20
-92.82278660090572
 30
0.0
 11
626.6787689281795
 21
-92.82278660090572
 31
0.0
 12
626.095435594846
 22
-96.32278660090571
 32
0.0
 13
626.095435594846
 23
-96.32278660090571
 33
0.0
  0
MTEXT
  5
1132
330
1093
100
AcDbEntity
  8
5
 62
     0
100
AcDbMText
 10
623.845435594846
 20
-64.32278660090561
 30
0.0
 40
2.5
 41
0.0
 71
     5
 72
     1
  1
\A1;64
 11
0.0000000000000001
 21
1.0
 31
0.0
 73
     1
 44
1.0
  0
POINT
  5
1133
330
1093
100
AcDbEntity
  8
Defpoints
 62
     0
100
AcDbPoint
 10
613.6018415948459
 20
-32.32278660090571
 30
0.0
  0
POINT
  5
1134
330
1093
100
AcDbEntity
  8
Defpoints
 62
     0
100
AcDbPoint
 10
613.6018415948459
 20
-96.32278660090571
 30
0.0
  0
POINT
  5
1135
330
1093
100
AcDbEntity
  8
Defpoints
 62
     0
100
AcDbPoint
 10
626.095435594846
 20
-96.32278660090571
 30
0.0
  0
ENDBLK
  5
109E
330
1093
100
AcDbEntity
  8
0
100
AcDbBlockEnd
  0
BLOCK
  5
10AB
330
109F
100
AcDbEntity
  8
0
100
AcDbBlockBegin
  2
*D40
 70
     1
 10
0.0
 20
0.0
 30
0.0
  3
*D40
  1

  0
LINE
  5
1198
330
109F
100
AcDbEntity
  8
5
 62
     0
370
    -2
100
AcDbLine
 10
493.1670328471361
 20
-79.3227866009056
 30
0.0
 11
524.6781540316081
 21
-79.3227866009056
 31
0.0
  0
LINE
  5
1199
330
109F
100
AcDbEntity
  8
5
 62
     0
370
    -2
100
AcDbLine
 10
495.8605474715757
 20
-83.32278660090555
 30
0.0
 11
524.6781540316081
 21
-83.32278660090555
 31
0.0
  0
LINE
  5
119A
330
109F
100
AcDbEntity
  8
5
 62
     0
370
    -2
100
AcDbLine
 10
523.678154031608
 20
-75.8227866009056
 30
0.0
 11
523.678154031608
 21
-72.3227866009056
 31
0.0
  0
LINE
  5
119B
330
109F
100
AcDbEntity
  8
5
 62
     0
370
    -2
100
AcDbLine
 10
523.678154031608
 20
-86.82278660090554
 30
0.0
 11
523.678154031608
 21
-90.32278660090554
 31
0.0
  0
LINE
  5
119C
330
109F
100
AcDbEntity
  8
5
 62
     0
370
    -2
100
AcDbLine
 10
523.678154031608
 20
-79.3227866009056
 30
0.0
 11
523.678154031608
 21
-83.32278660090555
 31
0.0
  0
SOLID
  5
119D
330
109F
100
AcDbEntity
  8
5
 62
     0
100
AcDbTrace
 10
523.0948206982747
 20
-75.8227866009056
 30
0.0
 11
524.2614873649414
 21
-75.8227866009056
 31
0.0
 12
523.678154031608
 22
-79.3227866009056
 32
0.0
 13
523.678154031608
 23
-79.3227866009056
 33
0.0
  0
SOLID
  5
119E
330
109F
100
AcDbEntity
  8
5
 62
     0
100
AcDbTrace
 10
523.0948206982747
 20
-86.82278660090554
 30
0.0
 11
524.2614873649414
 21
-86.82278660090554
 31
0.0
 12
523.678154031608
 22
-83.32278660090555
 32
0.0
 13
523.678154031608
 23
-83.32278660090555
 33
0.0
  0
MTEXT
  5
119F
330
109F
100
AcDbEntity
  8
5
 62
     0
100
AcDbMText
 10
521.428154031608
 20
-81.32278660090548
 30
0.0
 40
2.5
 41
0.0
 71
     5
 72
     1
  1
\A1;4
 11
0.0000000000000001
 21
1.0
 31
0.0
 73
     1
 44
1.0
  0
POINT
  5
11A0
330
109F
100
AcDbEntity
  8
Defpoints
 62
     0
100
AcDbPoint
 10
492.1670328471361
 20
-79.3227866009056
 30
0.0
  0
POINT
  5
11A1
330
109F
100
AcDbEntity
  8
Defpoints
 62
     0
100
AcDbPoint
 10
494.8605474715757
 20
-83.32278660090555
 30
0.0
  0
POINT
  5
11A2
330
109F
100
AcDbEntity
  8
Defpoints
 62
     0
100
AcDbPoint
 10
523.678154031608
 20
-83.32278660090555
 30
0.0
  0
ENDBLK
  5
10AC
330
109F
100
AcDbEntity
  8
0
100
AcDbBlockEnd
  0
BLOCK
  5
10B7
330
10AD
100
AcDbEntity
  8
0
100
AcDbBlockBegin
  2
*D41
 70
     1
 10
0.0
 20
0.0
 30
0.0
  3
*D41
  1

  0
LINE
  5
11A3
330
10AD
100
AcDbEntity
  8
5
 62
     0
370
    -2
100
AcDbLine
 10
493.1670328471361
 20
-79.3227866009056
 30
0.0
 11
533.1739140316081
 21
-79.3227866009056
 31
0.0
  0
LINE
  5
11A4
330
10AD
100
AcDbEntity
  8
5
 62
     0
370
    -2
100
AcDbLine
 10
493.1670328471361
 20
-92.32278660090571
 30
0.0
 11
533.1739140316081
 21
-92.32278660090571
 31
0.0
  0
LINE
  5
11A5
330
10AD
100
AcDbEntity
  8
5
 62
     0
370
    -2
100
AcDbLine
 10
532.1739140316081
 20
-82.82278660090559
 30
0.0
 11
532.1739140316081
 21
-88.82278660090571
 31
0.0
  0
SOLID
  5
11A6
330
10AD
100
AcDbEntity
  8
5
 62
     0
100
AcDbTrace
 10
531.5905806982747
 20
-82.82278660090559
 30
0.0
 11
532.7572473649414
 21
-82.82278660090559
 31
0.0
 12
532.1739140316081
 22
-79.3227866009056
 32
0.0
 13
532.1739140316081
 23
-79.3227866009056
 33
0.0
  0
SOLID
  5
11A7
330
10AD
100
AcDbEntity
  8
5
 62
     0
100
AcDbTrace
 10
531.5905806982747
 20
-88.82278660090571
 30
0.0
 11
532.7572473649414
 21
-88.82278660090571
 31
0.0
 12
532.1739140316081
 22
-92.32278660090571
 32
0.0
 13
532.1739140316081
 23
-92.32278660090571
 33
0.0
  0
MTEXT
  5
11A8
330
10AD
100
AcDbEntity
  8
5
 62
     0
100
AcDbMText
 10
529.9239140316081
 20
-85.82278660090556
 30
0.0
 40
2.5
 41
0.0
 71
     5
 72
     1
  1
\A1;13
 11
0.0000000000000001
 21
1.0
 31
0.0
 73
     1
 44
1.0
  0
POINT
  5
11A9
330
10AD
100
AcDbEntity
  8
Defpoints
 62
     0
100
AcDbPoint
 10
492.1670328471361
 20
-79.3227866009056
 30
0.0
  0
POINT
  5
11AA
330
10AD
100
AcDbEntity
  8
Defpoints
 62
     0
100
AcDbPoint
 10
492.1670328471361
 20
-92.32278660090571
 30
0.0
  0
POINT
  5
11AB
330
10AD
100
AcDbEntity
  8
Defpoints
 62
     0
100
AcDbPoint
 10
532.1739140316081
 20
-92.32278660090571
 30
0.0
  0
ENDBLK
  5
10B8
330
10AD
100
AcDbEntity
  8
0
100
AcDbBlockEnd
  0
BLOCK
  5
10C5
330
10B9
100
AcDbEntity
  8
0
100
AcDbBlockBegin
  2
*D42
 70
     1
 10
0.0
 20
0.0
 30
0.0
  3
*D42
  1

  0
LINE
  5
11AC
330
10B9
100
AcDbEntity
  8
5
 62
     0
370
    -2
100
AcDbLine
 10
493.1670328471361
 20
-92.32278660090571
 30
0.0
 11
533.1739140316081
 21
-92.32278660090571
 31
0.0
  0
LINE
  5
11AD
330
10B9
100
AcDbEntity
  8
5
 62
     0
370
    -2
100
AcDbLine
 10
499.3605474715756
 20
-96.32278660090577
 30
0.0
 11
533.1739140316081
 21
-96.32278660090577
 31
0.0
  0
LINE
  5
11AE
330
10B9
100
AcDbEntity
  8
5
 62
     0
370
    -2
100
AcDbLine
 10
532.1739140316081
 20
-88.82278660090571
 30
0.0
 11
532.1739140316081
 21
-85.32278660090572
 31
0.0
  0
LINE
  5
11AF
330
10B9
100
AcDbEntity
  8
5
 62
     0
370
    -2
100
AcDbLine
 10
532.1739140316081
 20
-99.82278660090578
 30
0.0
 11
532.1739140316081
 21
-103.3227866009057
 31
0.0
  0
LINE
  5
11B0
330
10B9
100
AcDbEntity
  8
5
 62
     0
370
    -2
100
AcDbLine
 10
532.1739140316081
 20
-92.32278660090571
 30
0.0
 11
532.1739140316081
 21
-96.32278660090577
 31
0.0
  0
SOLID
  5
11B1
330
10B9
100
AcDbEntity
  8
5
 62
     0
100
AcDbTrace
 10
531.5905806982747
 20
-88.82278660090571
 30
0.0
 11
532.7572473649414
 21
-88.82278660090571
 31
0.0
 12
532.1739140316081
 22
-92.32278660090571
 32
0.0
 13
532.1739140316081
 23
-92.32278660090571
 33
0.0
  0
SOLID
  5
11B2
330
10B9
100
AcDbEntity
  8
5
 62
     0
100
AcDbTrace
 10
531.5905806982747
 20
-99.82278660090578
 30
0.0
 11
532.7572473649414
 21
-99.82278660090578
 31
0.0
 12
532.1739140316081
 22
-96.32278660090577
 32
0.0
 13
532.1739140316081
 23
-96.32278660090577
 33
0.0
  0
MTEXT
  5
11B3
330
10B9
100
AcDbEntity
  8
5
 62
     0
100
AcDbMText
 10
529.9239140316081
 20
-94.32278660090565
 30
0.0
 40
2.5
 41
0.0
 71
     5
 72
     1
  1
\A1;4
 11
0.0000000000000001
 21
1.0
 31
0.0
 73
     1
 44
1.0
  0
POINT
  5
11B4
330
10B9
100
AcDbEntity
  8
Defpoints
 62
     0
100
AcDbPoint
 10
492.1670328471361
 20
-92.32278660090571
 30
0.0
  0
POINT
  5
11B5
330
10B9
100
AcDbEntity
  8
Defpoints
 62
     0
100
AcDbPoint
 10
498.3605474715757
 20
-96.32278660090577
 30
0.0
  0
POINT
  5
11B6
330
10B9
100
AcDbEntity
  8
Defpoints
 62
     0
100
AcDbPoint
 10
532.1739140316081
 20
-96.32278660090577
 30
0.0
  0
ENDBLK
  5
10C6
330
10B9
100
AcDbEntity
  8
0
100
AcDbBlockEnd
  0
BLOCK
  5
10D1
330
10C7
100
AcDbEntity
  8
0
100
AcDbBlockBegin
  2
*D43
 70
     1
 10
0.0
 20
0.0
 30
0.0
  3
*D43
  1

  0
LINE
  5
11B7
330
10C7
100
AcDbEntity
  8
5
 62
     0
370
    -2
100
AcDbLine
 10
499.3605474715756
 20
-96.32278660090577
 30
0.0
 11
543.9233340316081
 21
-96.32278660090577
 31
0.0
  0
LINE
  5
11B8
330
10C7
100
AcDbEntity
  8
5
 62
     0
370
    -2
100
AcDbLine
 10
525.1766364278376
 20
-64.32278660090571
 30
0.0
 11
543.9233340316081
 21
-64.32278660090571
 31
0.0
  0
LINE
  5
11B9
330
10C7
100
AcDbEntity
  8
5
 62
     0
370
    -2
100
AcDbLine
 10
542.9233340316081
 20
-92.82278660090577
 30
0.0
 11
542.9233340316081
 21
-67.82278660090572
 31
0.0
  0
SOLID
  5
11BA
330
10C7
100
AcDbEntity
  8
5
 62
     0
100
AcDbTrace
 10
542.3400006982748
 20
-92.82278660090577
 30
0.0
 11
543.5066673649415
 21
-92.82278660090577
 31
0.0
 12
542.9233340316081
 22
-96.32278660090577
 32
0.0
 13
542.9233340316081
 23
-96.32278660090577
 33
0.0
  0
SOLID
  5
11BB
330
10C7
100
AcDbEntity
  8
5
 62
     0
100
AcDbTrace
 10
542.3400006982748
 20
-67.82278660090572
 30
0.0
 11
543.5066673649415
 21
-67.82278660090572
 31
0.0
 12
542.9233340316081
 22
-64.32278660090571
 32
0.0
 13
542.9233340316081
 23
-64.32278660090571
 33
0.0
  0
MTEXT
  5
11BC
330
10C7
100
AcDbEntity
  8
5
 62
     0
100
AcDbMText
 10
540.673087968616
 20
-80.32278660090566
 30
0.0
 40
2.5
 41
0.0
 71
     5
 72
     1
  1
\A1;32
 11
0.0000000000000001
 21
1.0
 31
0.0
 73
     1
 44
1.0
  0
POINT
  5
11BD
330
10C7
100
AcDbEntity
  8
Defpoints
 62
     0
100
AcDbPoint
 10
498.3605474715757
 20
-96.32278660090577
 30
0.0
  0
POINT
  5
11BE
330
10C7
100
AcDbEntity
  8
Defpoints
 62
     0
100
AcDbPoint
 10
524.1766364278375
 20
-64.32278660090571
 30
0.0
  0
POINT
  5
11BF
330
10C7
100
AcDbEntity
  8
Defpoints
 62
     0
100
AcDbPoint
 10
542.9233340316081
 20
-64.32278660090571
 30
0.0
  0
ENDBLK
  5
10D2
330
10C7
100
AcDbEntity
  8
0
100
AcDbBlockEnd
  0
BLOCK
  5
10DD
330
10D3
100
AcDbEntity
  8
0
100
AcDbBlockBegin
  2
*D44
 70
     1
 10
0.0
 20
0.0
 30
0.0
  3
*D44
  1

  0
LINE
  5
11C0
330
10D3
100
AcDbEntity
  8
5
 62
     0
370
    -2
100
AcDbLine
 10
483.8605474715757
 20
-76.32278660090577
 30
0.0
 11
450.0681140316081
 21
-76.32278660090576
 31
0.0
  0
LINE
  5
11C1
330
10D3
100
AcDbEntity
  8
5
 62
     0
370
    -2
100
AcDbLine
 10
480.3605474715758
 20
-96.32278660090577
 30
0.0
 11
450.0681140316081
 21
-96.32278660090577
 31
0.0
  0
LINE
  5
11C2
330
10D3
100
AcDbEntity
  8
5
 62
     0
370
    -2
100
AcDbLine
 10
451.0681140316081
 20
-79.82278660090575
 30
0.0
 11
451.0681140316081
 21
-92.82278660090575
 31
0.0
  0
SOLID
  5
11C3
330
10D3
100
AcDbEntity
  8
5
 62
     0
100
AcDbTrace
 10
450.4847806982748
 20
-79.82278660090575
 30
0.0
 11
451.6514473649414
 21
-79.82278660090575
 31
0.0
 12
451.0681140316081
 22
-76.32278660090576
 32
0.0
 13
451.0681140316081
 23
-76.32278660090576
 33
0.0
  0
SOLID
  5
11C4
330
10D3
100
AcDbEntity
  8
5
 62
     0
100
AcDbTrace
 10
450.4847806982748
 20
-92.82278660090575
 30
0.0
 11
451.6514473649414
 21
-92.82278660090575
 31
0.0
 12
451.0681140316081
 22
-96.32278660090577
 32
0.0
 13
451.0681140316081
 23
-96.32278660090577
 33
0.0
  0
MTEXT
  5
11C5
330
10D3
100
AcDbEntity
  8
5
 62
     0
100
AcDbMText
 10
448.817867968616
 20
-86.32278660090568
 30
0.0
 40
2.5
 41
0.0
 71
     5
 72
     1
  1
\A1;20
 11
0.0000000000000001
 21
1.0
 31
0.0
 73
     1
 44
1.0
  0
POINT
  5
11C6
330
10D3
100
AcDbEntity
  8
Defpoints
 62
     0
100
AcDbPoint
 10
484.8605474715758
 20
-76.32278660090577
 30
0.0
  0
POINT
  5
11C7
330
10D3
100
AcDbEntity
  8
Defpoints
 62
     0
100
AcDbPoint
 10
481.3605474715758
 20
-96.32278660090577
 30
0.0
  0
POINT
  5
11C8
330
10D3
100
AcDbEntity
  8
Defpoints
 62
     0
100
AcDbPoint
 10
451.0681140316081
 20
-96.32278660090577
 30
0.0
  0
ENDBLK
  5
10DE
330
10D3
100
AcDbEntity
  8
0
100
AcDbBlockEnd
  0
BLOCK
  5
10E9
330
10DF
100
AcDbEntity
  8
0
100
AcDbBlockBegin
  2
*D45
 70
     1
 10
0.0
 20
0.0
 30
0.0
  3
*D45
  1

  0
LINE
  5
1167
330
10DF
100
AcDbEntity
  8
5
 62
     0
370
    -2
100
AcDbLine
 10
581.6018415948459
 20
-97.32278660090578
 30
0.0
 11
581.6018415948459
 21
-110.2421466009057
 31
0.0
  0
LINE
  5
1168
330
10DF
100
AcDbEntity
  8
5
 62
     0
370
    -2
100
AcDbLine
 10
613.6018415948459
 20
-97.32278660090571
 30
0.0
 11
613.6018415948459
 21
-110.2421466009057
 31
0.0
  0
LINE
  5
1169
330
10DF
100
AcDbEntity
  8
5
 62
     0
370
    -2
100
AcDbLine
 10
585.1018415948459
 20
-109.2421466009057
 30
0.0
 11
610.1018415948459
 21
-109.2421466009057
 31
0.0
  0
SOLID
  5
116A
330
10DF
100
AcDbEntity
  8
5
 62
     0
100
AcDbTrace
 10
585.1018415948459
 20
-108.6588132675724
 30
0.0
 11
585.1018415948459
 21
-109.825479934239
 31
0.0
 12
581.6018415948459
 22
-109.2421466009057
 32
0.0
 13
581.6018415948459
 23
-109.2421466009057
 33
0.0
  0
SOLID
  5
116B
330
10DF
100
AcDbEntity
  8
5
 62
     0
100
AcDbTrace
 10
610.1018415948459
 20
-108.6588132675724
 30
0.0
 11
610.1018415948459
 21
-109.825479934239
 31
0.0
 12
613.6018415948459
 22
-109.2421466009057
 32
0.0
 13
613.6018415948459
 23
-109.2421466009057
 33
0.0
  0
MTEXT
  5
116C
330
10DF
100
AcDbEntity
  8
5
 62
     0
100
AcDbMText
 10
597.6018415948459
 20
-106.9919005379136
 30
0.0
 40
2.5
 41
0.0
 71
     5
 72
     1
  1
\A1;32
 73
     1
 44
1.0
  0
POINT
  5
116D
330
10DF
100
AcDbEntity
  8
Defpoints
 62
     0
100
AcDbPoint
 10
581.6018415948459
 20
-96.32278660090577
 30
0.0
  0
POINT
  5
116E
330
10DF
100
AcDbEntity
  8
Defpoints
 62
     0
100
AcDbPoint
 10
613.6018415948459
 20
-96.32278660090571
 30
0.0
  0
POINT
  5
116F
330
10DF
100
AcDbEntity
  8
Defpoints
 62
     0
100
AcDbPoint
 10
613.6018415948459
 20
-109.2421466009057
 30
0.0
  0
ENDBLK
  5
10EA
330
10DF
100
AcDbEntity
  8
0
100
AcDbBlockEnd
  0
BLOCK
  5
10F7
330
10EB
100
AcDbEntity
  8
0
100
AcDbBlockBegin
  2
*D46
 70
     1
 10
0.0
 20
0.0
 30
0.0
  3
*D46
  1

  0
LINE
  5
1170
330
10EB
100
AcDbEntity
  8
5
 62
     0
370
    -2
100
AcDbLine
 10
570.5018415948461
 20
-89.32278660090572
 30
0.0
 11
570.5018415948461
 21
-104.7824666009058
 31
0.0
  0
LINE
  5
1171
330
10EB
100
AcDbEntity
  8
5
 62
     0
370
    -2
100
AcDbLine
 10
568.0018415948461
 20
-97.32278660090578
 30
0.0
 11
568.0018415948461
 21
-104.7824666009058
 31
0.0
  0
LINE
  5
1172
330
10EB
100
AcDbEntity
  8
5
 62
     0
370
    -2
100
AcDbLine
 10
574.0018415948461
 20
-103.7824666009058
 30
0.0
 11
577.5018415948461
 21
-103.7824666009058
 31
0.0
  0
LINE
  5
1173
330
10EB
100
AcDbEntity
  8
5
 62
     0
370
    -2
100
AcDbLine
 10
564.5018415948461
 20
-103.7824666009058
 30
0.0
 11
561.0018415948461
 21
-103.7824666009058
 31
0.0
  0
MTEXT
  5
1174
330
10EB
100
AcDbEntity
  8
5
 62
     0
100
AcDbMText
 10
575.793415594846
 20
-101.0978166009057
 30
0.0
 40
2.5
 41
0.0
 71
     5
 72
     1
  1
\A1;2.5
 73
     1
 44
1.0
  0
LINE
  5
1175
330
10EB
100
AcDbEntity
  8
5
 62
     0
370
    -2
100
AcDbLine
 10
570.5018415948461
 20
-103.7824666009058
 30
0.0
 11
568.0018415948461
 21
-103.7824666009058
 31
0.0
  0
SOLID
  5
1176
330
10EB
100
AcDbEntity
  8
5
 62
     0
100
AcDbTrace
 10
574.0018415948461
 20
-103.1991332675725
 30
0.0
 11
574.0018415948461
 21
-104.3657999342392
 31
0.0
 12
570.5018415948461
 22
-103.7824666009058
 32
0.0
 13
570.5018415948461
 23
-103.7824666009058
 33
0.0
  0
SOLID
  5
1177
330
10EB
100
AcDbEntity
  8
5
 62
     0
100
AcDbTrace
 10
564.5018415948461
 20
-103.1991332675725
 30
0.0
 11
564.5018415948461
 21
-104.3657999342392
 31
0.0
 12
568.0018415948461
 22
-103.7824666009058
 32
0.0
 13
568.0018415948461
 23
-103.7824666009058
 33
0.0
  0
POINT
  5
1178
330
10EB
100
AcDbEntity
  8
Defpoints
 62
     0
100
AcDbPoint
 10
570.5018415948461
 20
-88.32278660090571
 30
0.0
  0
POINT
  5
1179
330
10EB
100
AcDbEntity
  8
Defpoints
 62
     0
100
AcDbPoint
 10
568.0018415948461
 20
-96.32278660090577
 30
0.0
  0
POINT
  5
117A
330
10EB
100
AcDbEntity
  8
Defpoints
 62
     0
100
AcDbPoint
 10
568.0018415948461
 20
-103.7824666009058
 30
0.0
  0
ENDBLK
  5
10F8
330
10EB
100
AcDbEntity
  8
0
100
AcDbBlockEnd
  0
BLOCK
  5
1105
330
10F9
100
AcDbEntity
  8
0
100
AcDbBlockBegin
  2
*D47
 70
     1
 10
0.0
 20
0.0
 30
0.0
  3
*D47
  1

  0
LINE
  5
117B
330
10F9
100
AcDbEntity
  8
5
 62
     0
370
    -2
100
AcDbLine
 10
566.0018415948461
 20
-97.32278660090583
 30
0.0
 11
566.0018415948461
 21
-114.1124066009057
 31
0.0
  0
LINE
  5
117C
330
10F9
100
AcDbEntity
  8
5
 62
     0
370
    -2
100
AcDbLine
 10
568.0018415948461
 20
-97.32278660090578
 30
0.0
 11
568.0018415948461
 21
-114.1124066009057
 31
0.0
  0
LINE
  5
117D
330
10F9
100
AcDbEntity
  8
5
 62
     0
370
    -2
100
AcDbLine
 10
562.5018415948461
 20
-113.1124066009057
 30
0.0
 11
559.0018415948462
 21
-113.1124066009057
 31
0.0
  0
LINE
  5
117E
330
10F9
100
AcDbEntity
  8
5
 62
     0
370
    -2
100
AcDbLine
 10
571.5018415948462
 20
-113.1124066009057
 30
0.0
 11
575.0018415948461
 21
-113.1124066009057
 31
0.0
  0
MTEXT
  5
117F
330
10F9
100
AcDbEntity
  8
5
 62
     0
100
AcDbMText
 10
573.5781355948461
 20
-110.8624066009057
 30
0.0
 40
2.5
 41
0.0
 71
     5
 72
     1
  1
\A1;2
 73
     1
 44
1.0
  0
LINE
  5
1180
330
10F9
100
AcDbEntity
  8
5
 62
     0
370
    -2
100
AcDbLine
 10
566.0018415948461
 20
-113.1124066009057
 30
0.0
 11
568.0018415948461
 21
-113.1124066009057
 31
0.0
  0
SOLID
  5
1181
330
10F9
100
AcDbEntity
  8
5
 62
     0
100
AcDbTrace
 10
562.5018415948461
 20
-112.5290732675724
 30
0.0
 11
562.5018415948461
 21
-113.695739934239
 31
0.0
 12
566.0018415948461
 22
-113.1124066009057
 32
0.0
 13
566.0018415948461
 23
-113.1124066009057
 33
0.0
  0
SOLID
  5
1182
330
10F9
100
AcDbEntity
  8
5
 62
     0
100
AcDbTrace
 10
571.5018415948462
 20
-112.5290732675724
 30
0.0
 11
571.5018415948462
 21
-113.695739934239
 31
0.0
 12
568.0018415948461
 22
-113.1124066009057
 32
0.0
 13
568.0018415948461
 23
-113.1124066009057
 33
0.0
  0
POINT
  5
1183
330
10F9
100
AcDbEntity
  8
Defpoints
 62
     0
100
AcDbPoint
 10
566.0018415948461
 20
-96.32278660090584
 30
0.0
  0
POINT
  5
1184
330
10F9
100
AcDbEntity
  8
Defpoints
 62
     0
100
AcDbPoint
 10
568.0018415948461
 20
-96.32278660090577
 30
0.0
  0
POINT
  5
1185
330
10F9
100
AcDbEntity
  8
Defpoints
 62
     0
100
AcDbPoint
 10
568.0018415948461
 20
-113.1124066009057
 30
0.0
  0
ENDBLK
  5
1106
330
10F9
100
AcDbEntity
  8
0
100
AcDbBlockEnd
  0
ENDSEC
  0
SECTION
  2
ENTITIES
  0
TEXT
  5
194
330
2
100
AcDbEntity
  8
LOGO
  6
Continuous
 62
     7
100
AcDbText
 10
525.4784189971203
 20
-138.1163303786257
 30
0.0
 40
3.835670107182843
  1
MCHG
  7
chineset
 72
     1
 11
532.9671082540011
 21
-136.1984953250343
 31
0.0
100
AcDbText
 73
     2
  0
LINE
  5
195
330
2
100
AcDbEntity
  8
LOGO
 62
     4
100
AcDbLine
 10
542.1727165112399
 20
-132.7463922285697
 30
0.0
 11
523.7614999967624
 21
-132.7463922285697
 31
0.0
  0
LINE
  5
196
330
2
100
AcDbEntity
  8
LOGO
 62
     4
100
AcDbLine
 10
542.1727165112399
 20
-139.6505984214988
 30
0.0
 11
523.7614999967624
 21
-139.6505984214988
 31
0.0
  0
LINE
  5
197
330
2
100
AcDbEntity
  8
LOGO
 62
     4
100
AcDbLine
 10
540.6384484683668
 20
-143.1027015179634
 30
0.0
 11
525.2957680396355
 21
-143.1027015179634
 31
0.0
  0
LINE
  5
198
330
2
100
AcDbEntity
  8
LOGO
 62
     4
100
AcDbLine
 10
540.6384484683668
 20
-151.5411757537656
 30
0.0
 11
525.2957680396355
 21
-151.5411757537656
 31
0.0
  0
LINE
  5
19D
330
2
100
AcDbEntity
  8
LOGO
 62
     4
100
AcDbLine
 10
525.2957680396355
 20
-143.1027015179634
 30
0.0
 11
525.2957680396355
 21
-151.5411757537656
 31
0.0
  0
LINE
  5
19E
330
2
100
AcDbEntity
  8
LOGO
 62
     4
100
AcDbLine
 10
523.7614999967624
 20
-132.7463922285697
 30
0.0
 11
523.7614999967624
 21
-139.6505984214988
 31
0.0
  0
LINE
  5
19F
330
2
100
AcDbEntity
  8
LOGO
 62
     4
100
AcDbLine
 10
567.5928157029179
 20
-132.7463922285696
 30
0.0
 11
547.6048288391023
 21
-132.7463922285697
 31
0.0
  0
LINE
  5
1A0
330
2
100
AcDbEntity
  8
LOGO
 62
     4
100
AcDbLine
 10
567.5928157029179
 20
-151.5411757537656
 30
0.0
 11
547.6048288391023
 21
-151.5411757537656
 31
0.0
  0
LINE
  5
1A1
330
2
100
AcDbEntity
  8
LOGO
 62
     4
100
AcDbLine
 10
567.5928157029179
 20
-143.1027015179634
 30
0.0
 11
547.6048288391023
 21
-143.1027015179634
 31
0.0
  0
LINE
  5
1A2
330
2
100
AcDbEntity
  8
LOGO
 62
     4
100
AcDbLine
 10
567.5928157029179
 20
-139.6505984214988
 30
0.0
 11
547.6048288391023
 21
-139.6505984214988
 31
0.0
  0
LINE
  5
1A3
330
2
100
AcDbEntity
  8
LOGO
 62
     4
100
AcDbLine
 10
532.9671082540011
 20
-139.6505984214988
 30
0.0
 11
532.9671082540011
 21
-143.1027015179634
 31
0.0
  0
LINE
  5
1A4
330
2
100
AcDbEntity
  8
LOGO
 62
     4
100
AcDbLine
 10
540.6384484683668
 20
-143.1027015179634
 30
0.0
 11
540.6384484683668
 21
-151.5411757537656
 31
0.0
  0
LINE
  5
1A5
330
2
100
AcDbEntity
  8
LOGO
 62
     4
100
AcDbLine
 10
547.6048288391023
 20
-143.1027015179634
 30
0.0
 11
547.6048288391023
 21
-151.5411757537656
 31
0.0
  0
LINE
  5
1A6
330
2
100
AcDbEntity
  8
LOGO
 62
     4
100
AcDbLine
 10
547.6048288391023
 20
-132.7463922285697
 30
0.0
 11
547.6048288391023
 21
-139.6505984214988
 31
0.0
  0
LINE
  5
1A7
330
2
100
AcDbEntity
  8
LOGO
 62
     4
100
AcDbLine
 10
542.1727165112399
 20
-132.7463922285697
 30
0.0
 11
542.1727165112399
 21
-139.6505984214988
 31
0.0
  0
LINE
  5
1A8
330
2
100
AcDbEntity
  8
LOGO
 62
     4
100
AcDbLine
 10
543.362207478458
 20
-136.2229511144921
 30
0.0
 11
546.4108530099657
 21
-136.2229511144921
 31
0.0
  0
LINE
  5
1A9
330
2
100
AcDbEntity
  8
LOGO
 62
     4
100
AcDbLine
 10
557.5988222710102
 20
-139.6505984214988
 30
0.0
 11
557.5988222710102
 21
-143.1027015179634
 31
0.0
  0
LINE
  5
1AB
330
2
100
AcDbEntity
  8
LOGO
 62
     4
100
AcDbLine
 10
567.5928157029179
 20
-143.1027015179634
 30
0.0
 11
567.5928157029179
 21
-151.5411757537656
 31
0.0
  0
TEXT
  5
1AC
330
2
100
AcDbEntity
  8
LOGO
  6
Continuous
 62
     7
100
AcDbText
 10
554.4024305150245
 20
-138.1598271193373
 30
0.0
 40
3.835670107182843
  1
64
  7
chineset
 72
     1
 11
557.5988222710102
 21
-136.2419920657459
 31
0.0
100
AcDbText
 73
     2
  0
LINE
  5
1AD
330
2
100
AcDbEntity
  8
LOGO
 62
     4
100
AcDbLine
 10
567.5928157029179
 20
-132.7463922285696
 30
0.0
 11
567.5928157029179
 21
-139.6505984214988
 31
0.0
  0
TEXT
  5
1B1
330
2
100
AcDbEntity
  8
LOGO
100
AcDbText
 10
529.8985721682548
 20
-147.2434131061111
 30
150.8300999564393
 40
3.068536085746274
  1
型式
  7
chineset
 72
     4
 11
532.9671082540011
 21
-145.7876705929914
 31
150.8300999564393
100
AcDbText
  0
TEXT
  5
1B2
330
2
100
AcDbEntity
  8
LOGO
100
AcDbText
 10
527.1222776144845
 20
-151.1576087430473
 30
150.8300999564393
 40
3.068536085746274
  1
Model
  7
chineset
 72
     4
 11
532.9671082540011
 21
-149.6233407001742
 31
150.8300999564393
100
AcDbText
  0
TEXT
  5
1B3
330
2
100
AcDbEntity
  8
LOGO
100
AcDbText
 10
551.4617500995176
 20
-147.3219386358645
 30
150.8300999564393
 40
3.068536085746274
  1
缸體外徑
  7
chineset
 72
     4
 11
557.5988222710102
 21
-145.7876705929914
 31
150.8300999564393
100
AcDbText
  0
TEXT
  5
1B4
330
2
100
AcDbEntity
  8
LOGO
  6
Continuous
100
AcDbText
 10
550.840736844069
 20
-150.2626190513713
 30
150.8300999564393
 40
1.917835053591421
  1
Body size
  7
chineset
 72
     4
 11
557.5988222710102
 21
-149.6233407001742
 31
150.8300999564393
100
AcDbText
  0
TEXT
  5
8FB
330
2
100
AcDbEntity
  8
LOGO
 62
     7
100
AcDbText
 10
493.0191240011532
 20
-136.2035551595884
 30
0.0
 40
4.714825856679817
  1
訂購代號:
  7
chineset
100
AcDbText
  0
TEXT
  5
8FC
330
2
100
AcDbEntity
  8
LOGO
 62
     7
100
AcDbText
 10
492.4552048353453
 20
-140.6285542189585
 30
0.0
 40
3.143217237786544
  1
Order example:
 41
0.8
  7
chineset
100
AcDbText
  0
LINE
  5
916
330
2
100
AcDbEntity
  8
LOGO
 62
     4
100
AcDbLine
 10
491.0894662843471
 20
-153.8752586113884
 30
0.0
 11
491.0894662843471
 21
-130.3011293279888
 31
0.0
  0
TEXT
  5
917
330
2
100
AcDbEntity
  8
LOGO
  6
Continuous
100
AcDbText
 10
447.6943150672274
 20
-149.2441564901277
 30
0.0
 40
3.536119392509892
  1
金器工業股份有限公司
  7
chineset
100
AcDbText
  0
TEXT
  5
918
330
2
100
AcDbEntity
  8
LOGO
  6
Continuous
100
AcDbText
 10
441.1991633299085
 20
-152.7809686847961
 30
0.0
 40
2.357412928339928
  1
MINDMAN INDUSTRIAL CO., LTD.
 41
0.85
  7
chineset
100
AcDbText
  0
LINE
  5
919
330
2
100
AcDbEntity
  8
LOGO
 62
     4
100
AcDbLine
 10
491.0894662843471
 20
-135.0159551846688
 30
0.0
 11
456.514076668694
 21
-135.0159551846688
 31
0.0
  0
LINE
  5
91A
330
2
100
AcDbEntity
  8
LOGO
 62
     4
100
AcDbLine
 10
491.0894662843471
 20
-139.7307810413488
 30
0.0
 11
456.514076668694
 21
-139.7307810413488
 31
0.0
  0
LINE
  5
91B
330
2
100
AcDbEntity
  8
LOGO
 62
     4
100
AcDbLine
 10
491.0894662843471
 20
-144.4456068980285
 30
0.0
 11
439.2263818608681
 21
-144.4456068980285
 31
0.0
  0
LINE
  5
91C
330
2
100
AcDbEntity
  8
LOGO
 62
     4
100
AcDbLine
 10
456.514076668694
 20
-144.4456068980285
 30
0.0
 11
456.514076668694
 21
-130.3011293279888
 31
0.0
  0
TEXT
  5
91D
330
2
100
AcDbEntity
  8
LOGO
100
AcDbText
 10
480.1447235374603
 20
-143.2669004338587
 30
0.0
 40
2.357412928339928
  1
mm
  7
chineset
 72
     1
 11
483.0634252582622
 21
-142.0881939696887
 31
0.0
100
AcDbText
 73
     2
  0
TEXT
  5
91E
330
2
100
AcDbEntity
  8
LOGO
100
AcDbText
 10
478.9098881940442
 20
-133.837248720499
 30
0.0
 40
2.357412928339928
  1
1 : 1
  7
chineset
 72
     1
 11
483.0634252582622
 21
-132.658542256329
 31
0.0
100
AcDbText
 73
     2
  0
LINE
  5
91F
330
2
100
AcDbEntity
  8
LOGO
 62
     4
100
AcDbLine
 10
475.3733800954139
 20
-144.4456068980285
 30
0.0
 11
475.3733800954139
 21
-130.3011293279888
 31
0.0
  0
TEXT
  5
920
330
2
100
AcDbEntity
  8
LOGO
100
AcDbText
 10
458.4578899180892
 20
-133.8360885763413
 30
154.5009597124719
 40
2.357412928339928
  1
比例 Scale:
 41
0.9
  7
chineset
 72
     4
 11
465.9437283820543
 21
-132.658542256329
 31
154.5009597124719
100
AcDbText
  0
TEXT
  5
921
330
2
100
AcDbEntity
  8
LOGO
100
AcDbText
 10
458.3221281914124
 20
-138.518913790006
 30
154.5009597124719
 40
2.357412928339928
  1
投影  View:
 41
0.9
  7
chineset
 72
     4
 11
465.9437283820543
 21
-137.3733681130087
 31
154.5009597124719
100
AcDbText
  0
TEXT
  5
922
330
2
100
AcDbEntity
  8
LOGO
100
AcDbText
 10
458.5526074018171
 20
-143.2669004338587
 30
154.5009597124719
 40
2.357412928339928
  1
單位  Unit:
 41
0.9
  7
chineset
 72
     4
 11
465.9437283820543
 21
-142.0881939696887
 31
154.5009597124719
100
AcDbText
  0
SOLID
  5
923
330
2
100
AcDbEntity
  8
LOGO
 62
     5
100
AcDbTrace
 10
441.6722356076207
 20
-140.5267434559704
 30
0.0
 11
442.6915190993195
 21
-140.526743455971
 31
0.0
 12
446.944391599167
 22
-130.8611241381355
 32
0.0
 13
447.9636750908662
 23
-130.8611241381362
 33
0.0
  0
SOLID
  5
924
330
2
100
AcDbEntity
  8
LOGO
 62
     5
100
AcDbTrace
 10
443.1132915786442
 20
-140.5267434559704
 30
0.0
 11
444.1325750703431
 21
-140.5267434559704
 31
0.0
 12
447.9636750908662
 22
-131.6343736835626
 32
0.0
 13
446.944391599167
 23
-135.3717464864588
 33
0.0
  0
SOLID
  5
925
330
2
100
AcDbEntity
  8
LOGO
 62
     2
100
AcDbTrace
 10
442.6915190993195
 20
-140.526743455971
 30
0.0
 11
443.1132915786442
 21
-140.5267434559704
 31
0.0
 12
447.9636750908662
 22
-130.8611241381362
 32
0.0
 13
448.3854475701905
 23
-130.8611241381362
 33
0.0
  0
SOLID
  5
926
330
2
100
AcDbEntity
  8
LOGO
 62
     5
100
AcDbTrace
 10
440.0380742114967
 20
-144.0415141170013
 30
0.0
 11
440.3895512776003
 21
-144.0415141170013
 31
0.0
 12
441.3793380525349
 22
-142.2841287864859
 32
0.0
 13
441.7308151186378
 23
-142.2841287864859
 33
0.0
  0
SOLID
  5
927
330
2
100
AcDbEntity
  8
LOGO
 62
     5
100
AcDbTrace
 10
441.3793380525349
 20
-142.2841287864859
 30
0.0
 11
441.7308151186378
 21
-142.2841287864859
 31
0.0
 12
441.3793380525349
 22
-144.0415141170013
 32
0.0
 13
441.7308151186378
 23
-144.0415141170013
 33
0.0
  0
SOLID
  5
928
330
2
100
AcDbEntity
  8
LOGO
 62
     5
100
AcDbTrace
 10
441.3793380525349
 20
-144.0415141170013
 30
0.0
 11
441.7308151186378
 21
-144.0415141170013
 31
0.0
 12
442.7206018935741
 22
-142.2841287864859
 32
0.0
 13
443.0720789596769
 23
-142.2841287864859
 33
0.0
  0
SOLID
  5
929
330
2
100
AcDbEntity
  8
LOGO
 62
     5
100
AcDbTrace
 10
442.7206018935741
 20
-142.2841287864859
 30
0.0
 11
443.0720789596769
 21
-142.2841287864859
 31
0.0
 12
442.7206018935741
 22
-144.0415141170013
 32
0.0
 13
443.0720789596769
 23
-144.0415141170013
 33
0.0
  0
POLYLINE
  5
92A
330
2
100
AcDbEntity
  8
LOGO
 62
     5
100
AcDb2dPolyline
 66
     1
 10
0.0
 20
0.0
 30
0.0
 40
0.3520403306320958
 41
0.3520403306320958
  0
VERTEX
  5
92B
330
92A
100
AcDbEntity
  8
LOGO
 62
     5
100
AcDbVertex
100
AcDb2dVertex
 10
454.5019934171773
 20
-142.9870829186923
 30
0.0
 42
1.0
  0
VERTEX
  5
92C
330
92A
100
AcDbEntity
  8
LOGO
 62
     5
100
AcDbVertex
100
AcDb2dVertex
 10
453.4458724252814
 20
-142.9870829186923
 30
0.0
 42
1.0
  0
SEQEND
  5
92D
330
92A
100
AcDbEntity
  8
LOGO
 62
     5
  0
POLYLINE
  5
92E
330
2
100
AcDbEntity
  8
LOGO
 62
     5
100
AcDb2dPolyline
 66
     1
 10
0.0
 20
0.0
 30
0.0
 70
     1
  0
VERTEX
  5
92F
330
92E
100
AcDbEntity
  8
LOGO
 62
     5
100
AcDbVertex
100
AcDb2dVertex
 10
451.4550373792945
 20
-143.1628214517437
 30
0.0
 42
1.000000057330635
  0
VERTEX
  5
930
330
92E
100
AcDbEntity
  8
LOGO
 62
     5
100
AcDbVertex
100
AcDb2dVertex
 10
452.5094685776032
 20
-143.1628214517437
 30
0.0
 42
1.000000057330635
  0
SEQEND
  5
931
330
92E
100
AcDbEntity
  8
LOGO
 62
     5
  0
CIRCLE
  5
932
330
2
100
AcDbEntity
  8
LOGO
 62
     5
100
AcDbCircle
 10
451.9822529784495
 20
-143.1628214517437
 30
0.0
 40
0.5272155991546268
  0
POLYLINE
  5
933
330
2
100
AcDbEntity
  8
LOGO
 62
     5
100
AcDb2dPolyline
 66
     1
 10
0.0
 20
0.0
 30
0.0
 70
     1
 40
0.3520403306320958
 41
0.3520403306320958
  0
VERTEX
  5
934
330
933
100
AcDbEntity
  8
LOGO
 62
     5
100
AcDbVertex
100
AcDb2dVertex
 10
451.278172317185
 20
-143.1628214517437
 30
0.0
 42
1.0
  0
VERTEX
  5
935
330
933
100
AcDbEntity
  8
LOGO
 62
     5
100
AcDbVertex
100
AcDb2dVertex
 10
452.6863336397134
 20
-143.1628214517437
 30
0.0
 42
1.0
  0
SEQEND
  5
936
330
933
100
AcDbEntity
  8
LOGO
 62
     5
  0
LINE
  5
937
330
2
100
AcDbEntity
  8
LOGO
100
AcDbLine
 10
454.6768870534346
 20
-144.0415141170013
 30
0.0
 11
454.6768870534346
 21
-142.9870829186923
 31
0.0
  0
SOLID
  5
938
330
2
100
AcDbEntity
  8
LOGO
 62
     5
100
AcDbTrace
 10
452.5094334298982
 20
-142.2841287864859
 30
0.0
 11
452.8609104960008
 21
-142.2841287864859
 31
0.0
 12
452.5094334298982
 22
-144.0415141170013
 32
0.0
 13
452.8609104960008
 23
-144.0415141170013
 33
0.0
  0
SOLID
  5
939
330
2
100
AcDbEntity
  8
LOGO
 62
     5
100
AcDbTrace
 10
453.2709787890227
 20
-144.0415141170013
 30
0.0
 11
453.6224558551258
 21
-144.0415141170013
 31
0.0
 12
453.2709787890227
 22
-142.2841287864859
 32
0.0
 13
453.6224558551258
 23
-142.2841287864859
 33
0.0
  0
SOLID
  5
93A
330
2
100
AcDbEntity
  8
LOGO
 62
     5
100
AcDbTrace
 10
454.3254099873324
 20
-142.9870829186923
 30
0.0
 11
454.6768870534346
 21
-142.9870829186923
 31
0.0
 12
454.3254099873324
 22
-144.0415141170013
 32
0.0
 13
454.6768870534346
 23
-144.0415141170013
 33
0.0
  0
SOLID
  5
93B
330
2
100
AcDbEntity
  8
LOGO
 62
     5
100
AcDbTrace
 10
453.2358310824122
 20
-131.6343736835626
 30
0.0
 11
452.2165475907137
 21
-135.3717464864588
 31
0.0
 12
453.2358310824122
 22
-140.526743455971
 32
0.0
 13
452.2165475907137
 23
-140.526743455971
 33
0.0
  0
SOLID
  5
93C
330
2
100
AcDbEntity
  8
LOGO
 62
     5
100
AcDbTrace
 10
453.6576035617361
 20
-140.526743455971
 30
0.0
 11
454.6768870534346
 21
-140.526743455971
 31
0.0
 12
453.6576035617361
 22
-130.8611241381362
 32
0.0
 13
454.6768870534346
 23
-130.8611241381355
 33
0.0
  0
SOLID
  5
93D
330
2
100
AcDbEntity
  8
LOGO
 62
     2
100
AcDbTrace
 10
453.2358310824122
 20
-130.8611241381355
 30
0.0
 11
453.6576035617361
 21
-130.8611241381362
 31
0.0
 12
453.2358310824122
 22
-140.526743455971
 32
0.0
 13
453.6576035617361
 23
-140.526743455971
 33
0.0
  0
POLYLINE
  5
93E
330
2
100
AcDbEntity
  8
LOGO
 62
     5
100
AcDb2dPolyline
 66
     1
 10
0.0
 20
0.0
 30
0.0
 40
0.3520403306320958
 41
0.3520403306320958
  0
VERTEX
  5
93F
330
93E
100
AcDbEntity
  8
LOGO
 62
     5
100
AcDbVertex
100
AcDb2dVertex
 10
449.4641320378959
 20
-142.9870829186923
 30
0.0
 42
1.0
  0
VERTEX
  5
940
330
93E
100
AcDbEntity
  8
LOGO
 62
     5
100
AcDbVertex
100
AcDb2dVertex
 10
448.4080110459989
 20
-142.9870829186923
 30
0.0
 42
1.0
  0
SEQEND
  5
941
330
93E
100
AcDbEntity
  8
LOGO
 62
     5
  0
POLYLINE
  5
942
330
2
100
AcDbEntity
  8
LOGO
 62
     5
100
AcDb2dPolyline
 66
     1
 10
0.0
 20
0.0
 30
0.0
 40
0.3520403306320958
 41
0.3520403306320958
  0
VERTEX
  5
943
330
942
100
AcDbEntity
  8
LOGO
 62
     5
100
AcDbVertex
100
AcDb2dVertex
 10
450.5185632362047
 20
-142.9870829186923
 30
0.0
 42
1.0
  0
VERTEX
  5
944
330
942
100
AcDbEntity
  8
LOGO
 62
     5
100
AcDbVertex
100
AcDb2dVertex
 10
449.4624422443082
 20
-142.9870829186923
 30
0.0
 42
1.0
  0
SEQEND
  5
945
330
942
100
AcDbEntity
  8
LOGO
 62
     5
  0
POLYLINE
  5
946
330
2
100
AcDbEntity
  8
LOGO
 62
     5
100
AcDb2dPolyline
 66
     1
 10
0.0
 20
0.0
 30
0.0
 40
0.3520403306320958
 41
0.3520403306320958
  0
VERTEX
  5
947
330
946
100
AcDbEntity
  8
LOGO
 62
     5
100
AcDbVertex
100
AcDb2dVertex
 10
445.480701856922
 20
-142.9870829186923
 30
0.0
 42
1.0
  0
VERTEX
  5
948
330
946
100
AcDbEntity
  8
LOGO
 62
     5
100
AcDbVertex
100
AcDb2dVertex
 10
444.4245808650258
 20
-142.9870829186923
 30
0.0
 42
1.0
  0
SEQEND
  5
949
330
946
100
AcDbEntity
  8
LOGO
 62
     5
  0
SOLID
  5
94A
330
2
100
AcDbEntity
  8
LOGO
 62
     5
100
AcDbTrace
 10
444.2496872287679
 20
-142.2841287864859
 30
0.0
 11
444.6011642948705
 21
-142.2841287864859
 31
0.0
 12
444.2496872287679
 22
-144.0415141170013
 32
0.0
 13
444.6011642948705
 23
-144.0415141170013
 33
0.0
  0
SOLID
  5
94B
330
2
100
AcDbEntity
  8
LOGO
 62
     5
100
AcDbTrace
 10
445.3041184270777
 20
-142.9870829186923
 30
0.0
 11
445.6555954931814
 21
-142.9870829186923
 31
0.0
 12
445.3041184270777
 22
-144.0415141170013
 32
0.0
 13
445.6555954931814
 23
-144.0415141170013
 33
0.0
  0
POLYLINE
  5
94C
330
2
100
AcDbEntity
  8
LOGO
 62
     5
100
AcDb2dPolyline
 66
     1
 10
0.0
 20
0.0
 30
0.0
 70
     1
 40
0.3520403306320958
 41
0.3520403306320958
  0
VERTEX
  5
94D
330
94C
100
AcDbEntity
  8
LOGO
 62
     5
100
AcDbVertex
100
AcDb2dVertex
 10
446.2403109379027
 20
-143.1628214517437
 30
0.0
 42
1.0
  0
VERTEX
  5
94E
330
94C
100
AcDbEntity
  8
LOGO
 62
     5
100
AcDbVertex
100
AcDb2dVertex
 10
447.6484722604311
 20
-143.1628214517437
 30
0.0
 42
1.0
  0
SEQEND
  5
94F
330
94C
100
AcDbEntity
  8
LOGO
 62
     5
  0
SOLID
  5
950
330
2
100
AcDbEntity
  8
LOGO
 62
     5
100
AcDbTrace
 10
447.4715720506156
 20
-141.7569131873311
 30
0.0
 11
447.8230491167188
 21
-141.7569131873311
 31
0.0
 12
447.4715720506156
 22
-144.0415141170013
 32
0.0
 13
447.8230491167188
 23
-144.0415141170013
 33
0.0
  0
SOLID
  5
951
330
2
100
AcDbEntity
  8
LOGO
 62
     5
100
AcDbTrace
 10
448.2331174097419
 20
-142.2841287864859
 30
0.0
 11
448.5845944758446
 21
-142.2841287864859
 31
0.0
 12
448.2331174097419
 22
-144.0415141170013
 32
0.0
 13
448.5845944758446
 23
-144.0415141170013
 33
0.0
  0
SOLID
  5
952
330
2
100
AcDbEntity
  8
LOGO
 62
     5
100
AcDbTrace
 10
449.2875486080502
 20
-142.9870829186923
 30
0.0
 11
449.6390256741534
 21
-142.9870829186923
 31
0.0
 12
449.2875486080502
 22
-144.0415141170013
 32
0.0
 13
449.6390256741534
 23
-144.0415141170013
 33
0.0
  0
SOLID
  5
953
330
2
100
AcDbEntity
  8
LOGO
 62
     5
100
AcDbTrace
 10
450.341979806359
 20
-142.9870829186923
 30
0.0
 11
450.6934568724627
 21
-142.9870829186923
 31
0.0
 12
450.341979806359
 22
-144.0415141170016
 32
0.0
 13
450.6934568724627
 23
-144.0415141170016
 33
0.0
  0
SOLID
  5
954
330
2
100
AcDbEntity
  8
LOGO
 62
     5
100
AcDbTrace
 10
443.4881418696421
 20
-142.0380948402138
 30
0.0
 11
443.8396189357469
 21
-142.0380948402138
 31
0.0
 12
443.4881418696421
 22
-141.7569131873311
 32
0.0
 13
443.8396189357469
 23
-141.7569131873311
 33
0.0
  0
SOLID
  5
955
330
2
100
AcDbEntity
  8
LOGO
 62
     5
100
AcDbTrace
 10
443.4881418696421
 20
-142.2841287864859
 30
0.0
 11
443.8396189357469
 21
-142.2841287864859
 31
0.0
 12
443.4881418696421
 22
-144.0415141170016
 32
0.0
 13
443.8396189357469
 23
-144.0415141170013
 33
0.0
  0
SOLID
  5
956
330
2
100
AcDbEntity
  8
LOGO
 62
     5
100
AcDbTrace
 10
446.944391599167
 20
-140.5267434559704
 30
0.0
 11
447.9636750908662
 21
-140.5267434559704
 31
0.0
 12
446.944391599167
 22
-135.3717464864588
 32
0.0
 13
447.9636750908662
 23
-131.6343736835626
 33
0.0
  0
SOLID
  5
957
330
2
100
AcDbEntity
  8
LOGO
 62
     5
100
AcDbTrace
 10
448.3854475701905
 20
-130.8611241381362
 30
0.0
 11
449.4047310618894
 21
-130.8611241381355
 31
0.0
 12
448.3854475701905
 22
-139.7534939105442
 32
0.0
 13
449.4047310618894
 23
-136.0161211076478
 33
0.0
  0
SOLID
  5
958
330
2
100
AcDbEntity
  8
LOGO
 62
     2
100
AcDbTrace
 10
447.9636750908662
 20
-130.8611241381362
 30
0.0
 11
448.3854475701905
 21
-130.8611241381362
 31
0.0
 12
447.9636750908662
 22
-140.5267434559704
 32
0.0
 13
448.3854475701905
 23
-140.5267434559704
 33
0.0
  0
SOLID
  5
959
330
2
100
AcDbEntity
  8
LOGO
 62
     5
100
AcDbTrace
 10
448.3854475701905
 20
-139.7534939105442
 30
0.0
 11
449.4047310618894
 21
-136.0161211076478
 31
0.0
 12
453.2358310824122
 22
-130.8611241381355
 32
0.0
 13
452.2165475907137
 23
-130.8611241381355
 33
0.0
  0
SOLID
  5
95A
330
2
100
AcDbEntity
  8
LOGO
 62
     5
100
AcDbTrace
 10
448.3854475701905
 20
-140.5267434559704
 30
0.0
 11
449.4047310618894
 21
-140.5267434559704
 31
0.0
 12
453.2358310824122
 22
-131.6343736835626
 32
0.0
 13
452.2165475907137
 23
-135.3717464864588
 33
0.0
  0
SOLID
  5
95B
330
2
100
AcDbEntity
  8
LOGO
 62
     2
100
AcDbTrace
 10
447.9636750908662
 20
-140.5267434559704
 30
0.0
 11
448.3854475701905
 21
-140.5267434559704
 31
0.0
 12
453.2358310824122
 22
-130.8611241381355
 32
0.0
 13
453.6576035617361
 23
-130.8611241381362
 33
0.0
  0
LWPOLYLINE
  5
95C
330
2
100
AcDbEntity
  8
LOGO
 62
     4
100
AcDbPolyline
 90
        4
 70
     1
 43
0.0
 10
439.226381860869
 20
-130.3011293279892
 10
639.3694955968178
 20
-130.3011293279891
 10
639.3694955968178
 20
-153.8752586113886
 10
439.226381860869
 20
-153.8752586113886
1001
GENIUS_GENREC_14
1002
{
1000
PYDIR
1011
439.226381860869
1021
-153.8752586113886
1031
0.0
1002
}
1002
{
1000
PXDIR
1011
639.3694955968178
1021
-130.3011293279891
1031
0.0
1002
}
1002
{
1000
PORI
1011
439.226381860869
1021
-130.3011293279892
1031
0.0
1002
}
1002
{
1000
PINS
1011
439.226381860869
1021
-130.3011293279892
1031
0.0
1002
}
1002
{
1000
PINS2
1011
639.3694955968178
1021
-153.8752586113886
1031
0.0
1002
}
1002
{
1000
C
1070
     1
1002
}
1001
GENIUS_GENOBJ-N-REC_13
1002
{
1000
OWNER
1000
GEN
1002
}
1001
GENIUS_GENODEF_13
1002
{
1000
HIER
1070
     0
1002
}
1002
{
1000
MANEDIT
1070
     0
1002
}
1002
{
1000
NOSEL
1070
     0
1002
}
1002
{
1000
BEHIND
1070
     0
1002
}
1002
{
1000
OTHER
1070
     0
1002
}
1002
{
1000
REACTOR
1002
}
  0
TEXT
  5
95D
330
2
100
AcDbEntity
  8
LOGO
100
AcDbText
 10
492.0245543104946
 20
-152.6211242380712
 30
0.0
 40
2.357754322630987
  1
0130308B
 41
0.7
  7
chineset
 72
     1
 11
497.9189401170721
 21
-152.6211242380712
 31
0.0
100
AcDbText
  0
LINE
  5
95E
330
2
100
AcDbEntity
  8
LOGO
 62
     4
100
AcDbLine
 10
505.2359922201315
 20
-149.160432754708
 30
0.0
 11
505.2359922201331
 21
-153.8752586113882
 31
0.0
  0
LINE
  5
95F
330
2
100
AcDbEntity
  8
LOGO
 62
     4
100
AcDbLine
 10
505.2359922201315
 20
-149.160432754708
 30
0.0
 11
491.0894662843471
 21
-149.160432754708
 31
0.0
  0
CIRCLE
  5
960
330
2
100
AcDbEntity
  8
LOGO
  6
Continuous
100
AcDbCircle
 10
479.7384249927836
 20
-137.3683255895041
 30
0.0
 40
1.368769433439616
  0
CIRCLE
  5
961
330
2
100
AcDbEntity
  8
LOGO
  6
Continuous
100
AcDbCircle
 10
479.7384249927836
 20
-137.3683255895041
 30
0.0
 40
0.8019777176933247
  0
LINE
  5
962
330
2
100
AcDbEntity
  8
LOGO
100
AcDbLine
 10
488.3399309378063
 20
-138.7370950229438
 30
0.0
 11
488.3399309378063
 21
-135.9995561560642
 31
0.0
  0
LINE
  5
963
330
2
100
AcDbEntity
  8
LOGO
100
AcDbLine
 10
484.0489173350873
 20
-138.1703033071973
 30
0.0
 11
484.0489173350873
 21
-136.5663478718105
 31
0.0
  0
LINE
  5
964
330
2
100
AcDbEntity
  8
LOGO
  6
Continuous
100
AcDbLine
 10
484.0489173350873
 20
-136.5663478718105
 30
0.0
 11
488.3399309378063
 21
-135.9995561560642
 31
0.0
  0
LINE
  5
965
330
2
100
AcDbEntity
  8
LOGO
  6
Continuous
100
AcDbLine
 10
484.0489173350873
 20
-138.1703033071973
 30
0.0
 11
488.3399309378063
 21
-138.7370950229438
 31
0.0
  0
LINE
  5
966
330
2
100
AcDbEntity
  8
LOGO
  6
AM_ISO08W050x2
 48
0.3
100
AcDbLine
 10
477.8515558330781
 20
-137.3683255895041
 30
0.0
 11
481.6252941524878
 21
-137.3683255895041
 31
0.0
1001
GENIUS_GENOREF_13
1005
96C
  0
LINE
  5
967
330
2
100
AcDbEntity
  8
LOGO
  6
AM_ISO08W050x2
 48
0.3
100
AcDbLine
 10
479.7384249927836
 20
-139.2551947492086
 30
0.0
 11
479.7384249927836
 21
-135.481456429799
 31
0.0
1001
GENIUS_GENOREF_13
1005
96B
  0
LINE
  5
968
330
2
100
AcDbEntity
  8
LOGO
  6
CENTER
 48
0.5
100
AcDbLine
 10
483.7057555150351
 20
-137.3683255895041
 30
0.0
 11
488.7720221168723
 21
-137.3683255895041
 31
0.0
1001
GENIUS_GENOREF_13
1005
96A
  0
LWPOLYLINE
  5
969
330
2
100
AcDbEntity
  8
LOGO
 62
     4
100
AcDbPolyline
 90
        4
 70
     1
 43
0.0
 10
439.226381860869
 20
0.516268633551249
 10
639.3694955968178
 20
0.516268633551249
 10
639.3694955968178
 20
-130.3011293279892
 10
439.226381860869
 20
-130.3011293279892
  0
POINT
  5
96A
330
2
100
AcDbEntity
  8
0
 60
     1
100
AcDbPoint
 10
2451.108849283049
 20
-757.9063032409765
 30
0.0
1001
GENIUS_GENOBJ-N-CRS_13
1002
{
1000
OWNER
1000
GEN
1002
}
1001
GENIUS_GENOLIS_13
1002
{
1000
ENT
1005
0
1005
0
1005
0
1005
968
1002
}
1001
GENIUS_GENOENT_13
1002
{
1000
MYREF
1005
96A
1002
}
1002
{
1000
GRP
1005
0
1002
}
1001
GENIUS_GENODEF_13
1002
{
1000
HIER
1070
    10
1002
}
1002
{
1000
MANEDIT
1070
     1
1002
}
1002
{
1000
NOSEL
1070
     0
1002
}
1002
{
1000
BEHIND
1070
     0
1002
}
1002
{
1000
OTHER
1070
     0
1002
}
1002
{
1000
REACTOR
1002
}
  0
POINT
  5
96B
330
2
100
AcDbEntity
  8
0
 60
     1
100
AcDbPoint
 10
2439.784264060194
 20
-749.0307167623402
 30
0.0
1001
GENIUS_GENOBJ-N-CRS_13
1002
{
1000
OWNER
1000
GEN
1002
}
1001
GENIUS_GENOLIS_13
1002
{
1000
ENT
1005
0
1005
0
1005
0
1005
967
1002
}
1001
GENIUS_GENOENT_13
1002
{
1000
MYREF
1005
96B
1002
}
1002
{
1000
GRP
1005
0
1002
}
1001
GENIUS_GENODEF_13
1002
{
1000
HIER
1070
    10
1002
}
1002
{
1000
MANEDIT
1070
     1
1002
}
1002
{
1000
NOSEL
1070
     0
1002
}
1002
{
1000
BEHIND
1070
     0
1002
}
1002
{
1000
OTHER
1070
     0
1002
}
1002
{
1000
REACTOR
1002
}
  0
POINT
  5
96C
330
2
100
AcDbEntity
  8
0
 60
     1
100
AcDbPoint
 10
2446.142937758031
 20
-757.9063032409765
 30
0.0
1001
GENIUS_GENOBJ-N-CRS_13
1002
{
1000
OWNER
1000
GEN
1002
}
1001
GENIUS_GENOLIS_13
1002
{
1000
ENT
1005
0
1005
0
1005
0
1005
966
1002
}
1001
GENIUS_GENOENT_13
1002
{
1000
MYREF
1005
96C
1002
}
1002
{
1000
GRP
1005
0
1002
}
1001
GENIUS_GENODEF_13
1002
{
1000
HIER
1070
    10
1002
}
1002
{
1000
MANEDIT
1070
     1
1002
}
1002
{
1000
NOSEL
1070
     0
1002
}
1002
{
1000
BEHIND
1070
     0
1002
}
1002
{
1000
OTHER
1070
     0
1002
}
1002
{
1000
REACTOR
1002
}
  0
LINE
  5
FC2
330
2
100
AcDbEntity
  8
1
100
AcDbLine
 10
566.0018415948461
 20
-44.18917895270442
 30
0.0
 11
581.6018415948459
 21
-44.18917895270441
 31
0.0
  0
LINE
  5
FC3
330
2
100
AcDbEntity
  8
1
100
AcDbLine
 10
566.0018415948461
 20
-52.65291361982787
 30
0.0
 11
581.6018415948459
 21
-52.65291361982781
 31
0.0
  0
LINE
  5
FC4
330
2
100
AcDbEntity
  8
1
100
AcDbLine
 10
566.0018415948461
 20
-56.11701523496567
 30
0.0
 11
581.6018415948459
 21
-56.11701523496567
 31
0.0
  0
LINE
  5
FC5
330
2
100
AcDbEntity
  8
1
100
AcDbLine
 10
566.0018415948461
 20
-40.52855796684577
 30
0.0
 11
581.6018415948459
 21
-40.52855796684577
 31
0.0
  0
LINE
  5
FC6
330
2
100
AcDbEntity
  8
1
100
AcDbLine
 10
566.0018415948461
 20
-32.32278660090571
 30
0.0
 11
613.6018415948459
 21
-32.32278660090571
 31
0.0
  0
LINE
  5
FC7
330
2
100
AcDbEntity
  8
3
100
AcDbLine
 10
563.5817179910755
 20
-64.32278660090571
 30
0.0
 11
615.618685594846
 21
-64.32278660090571
 31
0.0
  0
LINE
  5
FC8
330
2
100
AcDbEntity
  8
1
100
AcDbLine
 10
564.5018415948461
 20
-75.32278660090572
 30
0.0
 11
564.5018415948461
 21
-51.32278660090571
 31
0.0
  0
ARC
  5
FC9
330
2
100
AcDbEntity
  8
1
100
AcDbCircle
 10
489.8605474715758
 20
-64.32278660090571
 30
0.0
 40
13.0
100
AcDbArc
 50
182.2042275039725
 51
237.795772496028
  0
ARC
  5
FCA
330
2
100
AcDbEntity
  8
1
100
AcDbCircle
 10
489.8605474715758
 20
-64.32278660090571
 30
0.0
 40
13.0
100
AcDbArc
 50
302.2042275039725
 51
357.7957724960282
  0
ARC
  5
FCB
330
2
100
AcDbEntity
  8
1
100
AcDbCircle
 10
489.8605474715758
 20
-64.32278660090571
 30
0.0
 40
32.0
100
AcDbArc
 50
158.9892993451624
 51
189.313275814308
  0
LINE
  5
FCC
330
2
100
AcDbEntity
  8
3
100
AcDbLine
 10
520.0930249420589
 20
-46.86805759505296
 30
0.0
 11
478.6022172223781
 21
-70.82278660090572
 31
0.0
  0
LINE
  5
FCD
330
2
100
AcDbEntity
  8
3
100
AcDbLine
 10
459.6280700010925
 20
-46.86805759505296
 30
0.0
 11
501.1188777207734
 21
-70.82278660090572
 31
0.0
  0
ARC
  5
FCE
330
2
100
AcDbEntity
  8
1
100
AcDbCircle
 10
489.8605474715758
 20
-64.32278660090571
 30
0.0
 40
32.0
100
AcDbArc
 50
350.6867241856912
 51
21.01070065483678
  0
CIRCLE
  5
FCF
330
2
100
AcDbEntity
  8
3
100
AcDbCircle
 10
489.8605474715758
 20
-64.32278660090571
 30
0.0
 40
28.0
  0
LINE
  5
FD0
330
2
100
AcDbEntity
  8
1
100
AcDbLine
 10
566.0018415948461
 20
-96.32278660090584
 30
0.0
 11
566.0018415948461
 21
-32.32278660090571
 31
0.0
  0
LINE
  5
FD1
330
2
100
AcDbEntity
  8
3
100
AcDbLine
 10
489.8605474715758
 20
-30.56911858920023
 30
0.0
 11
489.8605474715758
 21
-98.01119302188926
 31
0.0
  0
LINE
  5
FD2
330
2
100
AcDbEntity
  8
1
100
AcDbLine
 10
498.3605474715757
 20
-96.32278660090577
 30
0.0
 11
481.3605474715758
 21
-96.32278660090577
 31
0.0
  0
ARC
  5
FD3
330
2
100
AcDbEntity
  8
1
100
AcDbCircle
 10
489.8605474715758
 20
-64.32278660090571
 30
0.0
 40
32.0
100
AcDbArc
 50
233.3793789911119
 51
261.0107006548373
  0
LINE
  5
FD4
330
2
100
AcDbEntity
  8
1
100
AcDbLine
 10
481.3605474715758
 20
-96.32278660090577
 30
0.0
 11
481.3605474715758
 21
-95.17323230271042
 31
0.0
  0
LINE
  5
FD5
330
2
100
AcDbEntity
  8
3
100
AcDbLine
 10
466.1962617212455
 20
-69.35278581437285
 30
0.0
 11
457.4275764278376
 21
-71.27020302188924
 31
0.0
  0
LINE
  5
FD6
330
2
100
AcDbEntity
  8
1
100
AcDbLine
 10
460.2531592933718
 20
-69.08252033979692
 30
0.0
 11
458.2823636241307
 21
-69.50142589100505
 31
0.0
  0
ARC
  5
FD7
330
2
100
AcDbEntity
  8
1
100
AcDbCircle
 10
489.8605474715758
 20
-64.32278660090571
 30
0.0
 40
32.0
100
AcDbArc
 50
194.6867241856919
 51
228.0000000000001
  0
ARC
  5
FD8
330
2
100
AcDbEntity
  8
1
100
AcDbCircle
 10
465.6118361656114
 20
-78.3227866009056
 30
0.0
 40
5.0
100
AcDbArc
 50
294.8774839002183
 51
125.1225160997816
  0
LINE
  5
FD9
330
2
100
AcDbEntity
  8
3
100
AcDbLine
 10
471.1734638207113
 20
-75.11177937710136
 30
0.0
 11
460.5789863123948
 21
-81.22850381845138
 31
0.0
  0
CIRCLE
  5
FDA
330
2
100
AcDbEntity
  8
1
100
AcDbCircle
 10
465.6118361656115
 20
-78.32278660090572
 30
0.0
 40
2.599999999999909
  0
LINE
  5
FDB
330
2
100
AcDbEntity
  8
1
100
AcDbLine
 10
472.1473902212748
 20
-83.02383096281545
 30
0.0
 11
469.3370416745677
 21
-86.14503922982038
 31
0.0
  0
LINE
  5
FDC
330
2
100
AcDbEntity
  8
3
100
AcDbLine
 10
474.7870147347484
 20
-83.30535552591062
 30
0.0
 11
468.5825336660537
 21
-90.11118893142754
 31
0.0
  0
LINE
  5
FDD
330
2
100
AcDbEntity
  8
1
100
AcDbLine
 10
469.820085811128
 20
-86.57997412395372
 30
0.0
 11
468.4483680680924
 21
-88.10342101618244
 31
0.0
  0
LINE
  5
FDE
330
2
100
AcDbEntity
  8
1
100
AcDbLine
 10
468.4884697864767
 20
-82.41240504414793
 30
0.0
 11
464.9754009862173
 21
-84.4406762616593
 31
0.0
  0
LINE
  5
FDF
330
2
100
AcDbEntity
  8
1
100
AcDbLine
 10
469.820085811128
 20
-86.57997412395372
 30
0.0
 11
469.3370416745677
 21
-86.14503922982038
 31
0.0
  0
LINE
  5
FE0
330
2
100
AcDbEntity
  8
1
100
AcDbLine
 10
475.3429129708276
 20
-85.90109257015843
 30
0.0
 11
472.5325644241205
 21
-89.02230083716359
 31
0.0
  0
LINE
  5
FE1
330
2
100
AcDbEntity
  8
1
100
AcDbLine
 10
472.0495202875601
 20
-88.58736594303024
 30
0.0
 11
472.5325644241205
 21
-89.02230083716359
 31
0.0
  0
LINE
  5
FE2
330
2
100
AcDbEntity
  8
1
100
AcDbLine
 10
472.0495202875601
 20
-88.58736594303024
 30
0.0
 11
470.7721067046431
 21
-90.00607745483069
 31
0.0
  0
LINE
  5
FE3
330
2
100
AcDbEntity
  8
1
100
AcDbLine
 10
473.7451515960512
 20
-84.46246176648697
 30
0.0
 11
475.3429129708276
 21
-85.90109257015843
 31
0.0
  0
LINE
  5
FE4
330
2
100
AcDbEntity
  8
1
100
AcDbLine
 10
473.7451515960512
 20
-84.46246176648697
 30
0.0
 11
472.1473902212748
 21
-83.02383096281545
 31
0.0
  0
LINE
  5
FE5
330
2
100
AcDbEntity
  8
1
100
AcDbLine
 10
463.5084395124109
 20
-73.78673958623472
 30
0.0
 11
459.9953707121515
 21
-75.81501080374602
 31
0.0
  0
LINE
  5
FE6
330
2
100
AcDbEntity
  8
1
100
AcDbLine
 10
464.6732467526803
 20
-69.676512639463
 30
0.0
 11
464.2262366174221
 21
-67.57349529788536
 31
0.0
  0
LINE
  5
FE7
330
2
100
AcDbEntity
  8
1
100
AcDbLine
 10
465.1202568879384
 20
-71.77952998104069
 30
0.0
 11
461.0120369648564
 21
-72.65275908247531
 31
0.0
  0
LINE
  5
FE8
330
2
100
AcDbEntity
  8
1
100
AcDbLine
 10
460.2531592933718
 20
-69.08252033979692
 30
0.0
 11
460.1180166943402
 21
-68.44672439931992
 31
0.0
  0
LINE
  5
FE9
330
2
100
AcDbEntity
  8
1
100
AcDbLine
 10
464.2262366174221
 20
-67.57349529788536
 30
0.0
 11
460.1180166943402
 21
-68.44672439931992
 31
0.0
  0
LINE
  5
FEA
330
2
100
AcDbEntity
  8
1
100
AcDbLine
 10
460.8768943658249
 20
-72.0169631419983
 30
0.0
 11
461.0120369648564
 21
-72.65275908247531
 31
0.0
  0
LINE
  5
FEB
330
2
100
AcDbEntity
  8
1
100
AcDbLine
 10
460.8768943658249
 20
-72.0169631419983
 30
0.0
 11
458.9060986965839
 21
-72.43586869320632
 31
0.0
  0
LINE
  5
FEC
330
2
100
AcDbEntity
  8
1
100
AcDbLine
 10
464.6732467526803
 20
-69.676512639463
 30
0.0
 11
465.1202568879384
 21
-71.77952998104069
 31
0.0
  0
ARC
  5
FED
330
2
100
AcDbEntity
  8
1
100
AcDbCircle
 10
489.8605474715758
 20
-64.32278660090571
 30
0.0
 40
32.0
100
AcDbArc
 50
278.9892993451628
 51
306.6206210088881
  0
LINE
  5
FEE
330
2
100
AcDbEntity
  8
1
100
AcDbLine
 10
498.3605474715757
 20
-96.32278660090577
 30
0.0
 11
498.3605474715757
 21
-95.17323230271044
 31
0.0
  0
LINE
  5
FEF
330
2
100
AcDbEntity
  8
1
100
AcDbLine
 10
494.8605474715757
 20
-96.32278660090577
 30
0.0
 11
494.8605474715757
 21
-75.32278660090572
 31
0.0
  0
LINE
  5
FF0
330
2
100
AcDbEntity
  8
1
100
AcDbLine
 10
484.8605474715758
 20
-96.32278660090577
 30
0.0
 11
484.8605474715758
 21
-75.32278660090577
 31
0.0
  0
LINE
  5
FF1
330
2
100
AcDbEntity
  8
1
100
AcDbLine
 10
457.8977345504736
 20
-55.6840025330734
 30
0.0
 11
466.3977345504736
 21
-40.96157066873799
 31
0.0
  0
ARC
  5
FF2
330
2
100
AcDbEntity
  8
AM_4
100
AcDbCircle
 10
489.8605474715758
 20
-79.3227866009056
 30
0.0
 40
2.0
100
AcDbArc
 50
187.951726579061
 51
97.77459645243698
  0
CIRCLE
  5
FF3
330
2
100
AcDbEntity
  8
1
100
AcDbCircle
 10
489.8605474715758
 20
-79.3227866009056
 30
0.0
 40
1.649999999999977
  0
LINE
  5
FF4
330
2
100
AcDbEntity
  8
3
100
AcDbLine
 10
487.5442274715758
 20
-85.82278660090565
 30
0.0
 11
492.5442274715757
 21
-85.82278660090565
 31
0.0
  0
LINE
  5
FF5
330
2
100
AcDbEntity
  8
1
100
AcDbLine
 10
489.8605474715757
 20
-83.32278660090555
 30
0.0
 11
494.8605474715757
 21
-83.32278660090555
 31
0.0
  0
LINE
  5
FF6
330
2
100
AcDbEntity
  8
1
100
AcDbLine
 10
489.8605474715758
 20
-88.32278660090565
 30
0.0
 11
494.8605474715757
 21
-88.32278660090565
 31
0.0
  0
CIRCLE
  5
FF7
330
2
100
AcDbEntity
  8
1
100
AcDbCircle
 10
489.8605474715758
 20
-85.82278660090565
 30
0.0
 40
2.0
  0
LINE
  5
FF8
330
2
100
AcDbEntity
  8
1
100
AcDbLine
 10
489.8605474715757
 20
-88.32278660090565
 30
0.0
 11
484.8605474715758
 21
-88.32278660090565
 31
0.0
  0
CIRCLE
  5
FF9
330
2
100
AcDbEntity
  8
1
100
AcDbCircle
 10
489.8605474715758
 20
-92.3227866009056
 30
0.0
 40
1.649999999999977
  0
ARC
  5
FFA
330
2
100
AcDbEntity
  8
AM_4
100
AcDbCircle
 10
489.8605474715758
 20
-92.3227866009056
 30
0.0
 40
2.0
100
AcDbArc
 50
187.951726579061
 51
97.77459645243698
  0
LINE
  5
FFB
330
2
100
AcDbEntity
  8
1
100
AcDbLine
 10
489.8605474715758
 20
-83.32278660090555
 30
0.0
 11
484.8605474715758
 21
-83.32278660090555
 31
0.0
  0
LINE
  5
FFC
330
2
100
AcDbEntity
  8
1
100
AcDbLine
 10
496.7887507018512
 20
-75.32278660090572
 30
0.0
 11
482.9323442413003
 21
-75.32278660090577
 31
0.0
  0
LINE
  5
FFD
330
2
100
AcDbEntity
  8
1
100
AcDbLine
 10
494.8605474715757
 20
-76.32278660090577
 30
0.0
 11
484.8605474715758
 21
-76.32278660090577
 31
0.0
  0
LINE
  5
FFE
330
2
100
AcDbEntity
  8
3
100
AcDbLine
 10
487.4191582418878
 20
-79.3227866009056
 30
0.0
 11
492.1670328471361
 21
-79.3227866009056
 31
0.0
  0
ARC
  5
FFF
330
2
100
AcDbEntity
  8
1
100
AcDbCircle
 10
514.1092587775399
 20
-78.32278660090572
 30
0.0
 40
5.0
100
AcDbArc
 50
54.87748390021888
 51
245.1225160997817
  0
ARC
  5
1000
330
2
100
AcDbEntity
  8
1
100
AcDbCircle
 10
489.8605474715758
 20
-64.32278660090571
 30
0.0
 40
32.0
100
AcDbArc
 50
312.0
 51
345.313275814308
  0
CIRCLE
  5
1001
330
2
100
AcDbEntity
  8
1
100
AcDbCircle
 10
514.1092587775399
 20
-78.32278660090572
 30
0.0
 40
2.599999999999909
  0
LINE
  5
1002
330
2
100
AcDbEntity
  8
3
100
AcDbLine
 10
508.5476311224401
 20
-75.11177937710136
 30
0.0
 11
519.1421086307566
 21
-81.22850381845138
 31
0.0
  0
LINE
  5
1003
330
2
100
AcDbEntity
  8
3
100
AcDbLine
 10
504.9340802084031
 20
-83.30535552591062
 30
0.0
 11
511.1623591896215
 21
-90.29699893142753
 31
0.0
  0
LINE
  5
1004
330
2
100
AcDbEntity
  8
1
100
AcDbLine
 10
509.9010091320236
 20
-86.57997412395372
 30
0.0
 11
511.2727268750592
 21
-88.10342101618244
 31
0.0
  0
LINE
  5
1005
330
2
100
AcDbEntity
  8
1
100
AcDbLine
 10
504.3781819723239
 20
-85.90109257015843
 30
0.0
 11
507.1885305190311
 21
-89.02230083716359
 31
0.0
  0
LINE
  5
1006
330
2
100
AcDbEntity
  8
1
100
AcDbLine
 10
507.6715746555914
 20
-88.58736594303024
 30
0.0
 11
507.1885305190311
 21
-89.02230083716359
 31
0.0
  0
LINE
  5
1007
330
2
100
AcDbEntity
  8
1
100
AcDbLine
 10
507.6715746555914
 20
-88.58736594303024
 30
0.0
 11
508.9489882385084
 21
-90.00607745483069
 31
0.0
  0
LINE
  5
1008
330
2
100
AcDbEntity
  8
1
100
AcDbLine
 10
507.5737047218766
 20
-83.02383096281545
 30
0.0
 11
510.3840532685838
 21
-86.14503922982038
 31
0.0
  0
LINE
  5
1009
330
2
100
AcDbEntity
  8
1
100
AcDbLine
 10
505.9759433471003
 20
-84.46246176648697
 30
0.0
 11
507.5737047218766
 21
-83.02383096281545
 31
0.0
  0
LINE
  5
100A
330
2
100
AcDbEntity
  8
1
100
AcDbLine
 10
505.9759433471003
 20
-84.46246176648697
 30
0.0
 11
504.3781819723239
 21
-85.90109257015843
 31
0.0
  0
LINE
  5
100B
330
2
100
AcDbEntity
  8
1
100
AcDbLine
 10
511.2326251566748
 20
-82.41240504414804
 30
0.0
 11
514.745693956934
 21
-84.4406762616594
 31
0.0
  0
LINE
  5
100C
330
2
100
AcDbEntity
  8
1
100
AcDbLine
 10
509.9010091320236
 20
-86.57997412395372
 30
0.0
 11
510.3840532685838
 21
-86.14503922982038
 31
0.0
  0
LINE
  5
100D
330
2
100
AcDbEntity
  8
1
100
AcDbLine
 10
515.0478481904713
 20
-69.676512639463
 30
0.0
 11
514.600838055213
 21
-71.77952998104069
 31
0.0
  0
LINE
  5
100E
330
2
100
AcDbEntity
  8
1
100
AcDbLine
 10
514.600838055213
 20
-71.77952998104069
 30
0.0
 11
518.709057978295
 21
-72.65275908247531
 31
0.0
  0
LINE
  5
100F
330
2
100
AcDbEntity
  8
3
100
AcDbLine
 10
513.524833221906
 20
-69.35278581437285
 30
0.0
 11
521.9454664278376
 21
-71.08440302188927
 31
0.0
  0
LINE
  5
1010
330
2
100
AcDbEntity
  8
1
100
AcDbLine
 10
516.2126554307405
 20
-73.78673958623483
 30
0.0
 11
519.725724231
 21
-75.81501080374619
 31
0.0
  0
LINE
  5
1011
330
2
100
AcDbEntity
  8
1
100
AcDbLine
 10
519.4679356497797
 20
-69.08252033979692
 30
0.0
 11
521.4387313190209
 21
-69.50142589100505
 31
0.0
  0
LINE
  5
1012
330
2
100
AcDbEntity
  8
1
100
AcDbLine
 10
518.8442005773265
 20
-72.0169631419983
 30
0.0
 11
520.8149962465674
 21
-72.43586869320632
 31
0.0
  0
LINE
  5
1013
330
2
100
AcDbEntity
  8
1
100
AcDbLine
 10
515.0478481904713
 20
-69.676512639463
 30
0.0
 11
515.4948583257294
 21
-67.57349529788536
 31
0.0
  0
LINE
  5
1014
330
2
100
AcDbEntity
  8
1
100
AcDbLine
 10
519.4679356497797
 20
-69.08252033979692
 30
0.0
 11
519.6030782488112
 21
-68.44672439931992
 31
0.0
  0
LINE
  5
1015
330
2
100
AcDbEntity
  8
1
100
AcDbLine
 10
518.8442005773265
 20
-72.0169631419983
 30
0.0
 11
518.709057978295
 21
-72.65275908247531
 31
0.0
  0
LINE
  5
1016
330
2
100
AcDbEntity
  8
1
100
AcDbLine
 10
515.4948583257294
 20
-67.57349529788536
 30
0.0
 11
519.6030782488112
 21
-68.44672439931992
 31
0.0
  0
LINE
  5
1017
330
2
100
AcDbEntity
  8
1
100
AcDbLine
 10
564.5018415948461
 20
-75.32278660090572
 30
0.0
 11
566.0018415948461
 21
-75.32278660090572
 31
0.0
  0
LINE
  5
1018
330
2
100
AcDbEntity
  8
1
100
AcDbLine
 10
476.9682426261623
 20
-62.65291361982793
 30
0.0
 11
481.9682426261624
 21
-53.99265958198355
 31
0.0
  0
LINE
  5
1019
330
2
100
AcDbEntity
  8
1
100
AcDbLine
 10
476.8701664148093
 20
-64.82278660090571
 30
0.0
 11
483.7983696450846
 21
-52.82278660090577
 31
0.0
  0
ARC
  5
101A
330
2
100
AcDbEntity
  8
1
100
AcDbCircle
 10
489.8605474715758
 20
-64.32278660090571
 30
0.0
 40
32.0
100
AcDbArc
 50
38.98929934516238
 51
141.0107006548376
  0
LINE
  5
101B
330
2
100
AcDbEntity
  8
1
100
AcDbLine
 10
464.6477345504736
 20
-43.99265958198355
 30
0.0
 11
482.8342680299469
 21
-54.49265958198356
 31
0.0
  0
LINE
  5
101C
330
2
100
AcDbEntity
  8
3
100
AcDbLine
 10
524.1766364278375
 20
-64.32278660090571
 30
0.0
 11
455.2137073114079
 21
-64.32278660090571
 31
0.0
  0
LINE
  5
101D
330
2
100
AcDbEntity
  8
1
100
AcDbLine
 10
457.8977345504736
 20
-55.6840025330734
 30
0.0
 11
458.8932777757404
 21
-56.2587796821711
 31
0.0
  0
LINE
  5
101E
330
2
100
AcDbEntity
  8
1
100
AcDbLine
 10
473.4060647996716
 20
-54.82278660090583
 30
0.0
 11
475.9060647996715
 21
-50.49265958198367
 31
0.0
  0
LINE
  5
101F
330
2
100
AcDbEntity
  8
1
100
AcDbLine
 10
469.0759377807493
 20
-52.32278660090577
 30
0.0
 11
471.5759377807493
 21
-47.99265958198361
 31
0.0
  0
ARC
  5
1020
330
2
100
AcDbEntity
  8
AM_4
100
AcDbCircle
 10
465.6118361656115
 20
-50.32278660090577
 30
0.0
 40
2.0
100
AcDbArc
 50
322.2254035475646
 51
232.048273420938
  0
CIRCLE
  5
1021
330
2
100
AcDbEntity
  8
1
100
AcDbCircle
 10
465.6118361656115
 20
-50.32278660090577
 30
0.0
 40
1.649999999999977
  0
CIRCLE
  5
1022
330
2
100
AcDbEntity
  8
1
100
AcDbCircle
 10
471.2410012902103
 20
-53.57278660090577
 30
0.0
 40
2.0
  0
LINE
  5
1023
330
2
100
AcDbEntity
  8
3
100
AcDbLine
 10
469.8181864278376
 20
-55.98368302188925
 30
0.0
 11
472.5828412902103
 21
-51.2486515452776
 31
0.0
  0
LINE
  5
1024
330
2
100
AcDbEntity
  8
1
100
AcDbLine
 10
459.6477345504736
 20
-52.65291361982787
 30
0.0
 11
477.834268029947
 21
-63.15291361982793
 31
0.0
  0
LINE
  5
1025
330
2
100
AcDbEntity
  8
1
100
AcDbLine
 10
469.0759377807492
 20
-52.32278660090577
 30
0.0
 11
466.5759377807493
 21
-56.65291361982792
 31
0.0
  0
CIRCLE
  5
1026
330
2
100
AcDbEntity
  8
1
100
AcDbCircle
 10
476.8701664148093
 20
-56.82278660090577
 30
0.0
 40
1.649999999999977
  0
LINE
  5
1027
330
2
100
AcDbEntity
  8
3
100
AcDbLine
 10
475.6494717999652
 20
-58.93709169434135
 30
0.0
 11
478.0234091025895
 21
-54.82531167221321
 31
0.0
  0
ARC
  5
1028
330
2
100
AcDbEntity
  8
AM_4
100
AcDbCircle
 10
476.8701664148093
 20
-56.82278660090577
 30
0.0
 40
2.0
100
AcDbArc
 50
322.2254035475646
 51
232.048273420938
  0
LINE
  5
1029
330
2
100
AcDbEntity
  8
1
100
AcDbLine
 10
473.4060647996716
 20
-54.82278660090583
 30
0.0
 11
470.9060647996715
 21
-59.15291361982799
 31
0.0
  0
LINE
  5
102A
330
2
100
AcDbEntity
  8
1
100
AcDbLine
 10
466.3977345504736
 20
-40.96157066873799
 30
0.0
 11
467.3932777757404
 21
-41.53634781783566
 31
0.0
  0
LINE
  5
102B
330
2
100
AcDbEntity
  8
1
100
AcDbLine
 10
484.8805171975099
 20
-36.76921517233433
 30
0.0
 11
484.8805171975099
 21
-32.71267273731155
 31
0.0
  0
LINE
  5
102C
330
2
100
AcDbEntity
  8
1
100
AcDbLine
 10
494.8405777456415
 20
-36.76921517233433
 30
0.0
 11
494.8405777456415
 21
-32.71267273731155
 31
0.0
  0
ARC
  5
102D
330
2
100
AcDbEntity
  8
1
100
AcDbCircle
 10
489.8605474715758
 20
-36.32278660090572
 30
0.0
 40
5.0
100
AcDbArc
 50
174.8774839002194
 51
5.122516099779759
  0
CIRCLE
  5
102E
330
2
100
AcDbEntity
  8
1
100
AcDbCircle
 10
489.8605474715758
 20
-36.32278660090572
 30
0.0
 40
2.75
  0
LINE
  5
102F
330
2
100
AcDbEntity
  8
1
100
AcDbLine
 10
515.0733603926778
 20
-43.99265958198355
 30
0.0
 11
496.8868269132046
 21
-54.49265958198356
 31
0.0
  0
LINE
  5
1030
330
2
100
AcDbEntity
  8
1
100
AcDbLine
 10
520.0733603926778
 20
-52.65291361982787
 30
0.0
 11
501.8868269132046
 21
-63.15291361982787
 31
0.0
  0
ARC
  5
1031
330
2
100
AcDbEntity
  8
AM_4
100
AcDbCircle
 10
502.8509285283422
 20
-56.82278660090577
 30
0.0
 40
2.0
100
AcDbArc
 50
307.9517265790615
 51
217.7745964524354
  0
LINE
  5
1032
330
2
100
AcDbEntity
  8
3
100
AcDbLine
 10
504.0716231431862
 20
-58.93709169434135
 30
0.0
 11
501.697685840562
 21
-54.82531167221321
 31
0.0
  0
CIRCLE
  5
1033
330
2
100
AcDbEntity
  8
1
100
AcDbCircle
 10
502.8509285283422
 20
-56.82278660090577
 30
0.0
 40
1.649999999999977
  0
ARC
  5
1034
330
2
100
AcDbEntity
  8
1
100
AcDbCircle
 10
489.8605474715758
 20
-64.32278660090571
 30
0.0
 40
13.0
100
AcDbArc
 50
62.20422750397327
 51
117.7957724960267
  0
LINE
  5
1035
330
2
100
AcDbEntity
  8
1
100
AcDbLine
 10
497.752852316989
 20
-53.9926595819835
 30
0.0
 11
502.752852316989
 21
-62.65291361982787
 31
0.0
  0
LINE
  5
1036
330
2
100
AcDbEntity
  8
1
100
AcDbLine
 10
495.9227252980668
 20
-52.82278660090577
 30
0.0
 11
502.8509285283424
 21
-64.82278660090566
 31
0.0
  0
LINE
  5
1037
330
2
100
AcDbEntity
  8
1
100
AcDbLine
 10
506.3150301434799
 20
-54.82278660090583
 30
0.0
 11
503.8150301434799
 21
-50.49265958198367
 31
0.0
  0
CIRCLE
  5
1038
330
2
100
AcDbEntity
  8
1
100
AcDbCircle
 10
514.1092587775399
 20
-50.32278660090577
 30
0.0
 40
1.649999999999977
  0
ARC
  5
1039
330
2
100
AcDbEntity
  8
AM_4
100
AcDbCircle
 10
514.1092587775399
 20
-50.32278660090577
 30
0.0
 40
2.0
100
AcDbArc
 50
307.9517265790615
 51
217.7745964524354
  0
LINE
  5
103A
330
2
100
AcDbEntity
  8
1
100
AcDbLine
 10
510.6451571624021
 20
-52.32278660090577
 30
0.0
 11
508.1451571624023
 21
-47.99265958198361
 31
0.0
  0
LINE
  5
103B
330
2
100
AcDbEntity
  8
1
100
AcDbLine
 10
506.3150301434799
 20
-54.82278660090583
 30
0.0
 11
508.8150301434798
 21
-59.15291361982799
 31
0.0
  0
LINE
  5
103C
330
2
100
AcDbEntity
  8
3
100
AcDbLine
 10
509.7764664278376
 20
-55.86866302188923
 30
0.0
 11
507.1382536529411
 21
-51.2486515452776
 31
0.0
  0
CIRCLE
  5
103D
330
2
100
AcDbEntity
  8
1
100
AcDbCircle
 10
508.4800936529411
 20
-53.57278660090577
 30
0.0
 40
2.0
  0
LINE
  5
103E
330
2
100
AcDbEntity
  8
1
100
AcDbLine
 10
510.6451571624023
 20
-52.32278660090577
 30
0.0
 11
513.1451571624022
 21
-56.65291361982792
 31
0.0
  0
LINE
  5
103F
330
2
100
AcDbEntity
  8
1
100
AcDbLine
 10
564.5018415948461
 20
-51.32278660090571
 30
0.0
 11
566.0018415948461
 21
-51.32278660090571
 31
0.0
  0
LINE
  5
1040
330
2
100
AcDbEntity
  8
1
100
AcDbLine
 10
613.601841594846
 20
-96.32278660090571
 30
0.0
 11
613.6018415948459
 21
-32.32278660090571
 31
0.0
  0
LINE
  5
1041
330
2
100
AcDbEntity
  8
1
100
AcDbLine
 10
566.0018415948461
 20
-96.32278660090571
 30
0.0
 11
613.6018415948459
 21
-96.32278660090571
 31
0.0
  0
LINE
  5
1042
330
2
100
AcDbEntity
  8
0
 62
     7
100
AcDbLine
 10
581.6018415948459
 20
-40.52855796684577
 30
0.0
 11
581.6018415948459
 21
-56.11701523496567
 31
0.0
  0
DIMENSION
  5
1043
330
2
100
AcDbEntity
  8
5
100
AcDbDimension
  2
*D35
 10
566.0018415948461
 20
-24.44010302188929
 30
0.0
 11
565.2518415948462
 21
-22.19010302188928
 31
0.0
 70
    32
 71
     5
 42
1.5
  3
STANDARD$0
100
AcDbAlignedDimension
 13
564.5018415948461
 23
-51.32278660090571
 33
0.0
 14
566.0018415948461
 24
-32.32278660090571
 34
0.0
100
AcDbRotatedDimension
1001
ACAD
1000
DSTYLE
1002
{
1070
    41
1040
3.5
1070
    42
1040
1.0
1070
    44
1040
1.0
1070
    47
1040
0.1
1070
    48
1040
0.1
1070
    73
1070
     0
1070
    77
1070
     1
1070
    78
1070
     8
1070
   140
1040
2.5
1070
   141
1040
1.0
1070
   145
1040
1.0
1070
   147
1040
1.0
1070
   172
1070
     1
1070
   174
1070
     1
1070
   271
1070
     1
1070
   272
1070
     8
1070
   340
1005
C
1002
}
  0
DIMENSION
  5
1044
330
2
100
AcDbEntity
  8
5
100
AcDbDimension
  2
*D36
 10
494.8605474715757
 20
-104.4428666009057
 30
0.0
 11
489.8605474715757
 21
-102.1926205379136
 31
0.0
 70
    32
  1
10.2
 71
     5
 42
9.999999999999943
  3
STANDARD$0
100
AcDbAlignedDimension
 13
484.8605474715758
 23
-96.32278660090577
 33
0.0
 14
494.8605474715757
 24
-96.32278660090577
 34
0.0
100
AcDbRotatedDimension
1001
ACAD
1000
DSTYLE
1002
{
1070
   340
1005
C
1070
   147
1040
1.0
1070
    41
1040
3.5
1070
    42
1040
1.0
1070
    44
1040
1.0
1070
    47
1040
0.1
1070
    48
1040
0.1
1070
    73
1070
     0
1070
    77
1070
     1
1070
    78
1070
     8
1070
   140
1040
2.5
1070
   141
1040
1.0
1070
   145
1040
1.0
1070
   172
1070
     1
1070
   174
1070
     1
1070
   176
1070
     0
1070
   177
1070
     0
1070
   178
1070
     0
1070
   271
1070
     1
1070
   272
1070
     8
1002
}
  0
DIMENSION
  5
1045
330
2
100
AcDbEntity
  8
5
100
AcDbDimension
  2
*D37
 10
498.3605474715757
 20
-110.1933866009057
 30
0.0
 11
489.8605474715757
 21
-107.9433866009057
 31
0.0
 70
    32
 71
     5
 42
16.99999999999994
  3
STANDARD$0
100
AcDbAlignedDimension
 13
481.3605474715758
 23
-96.32278660090577
 33
0.0
 14
498.3605474715757
 24
-96.32278660090577
 34
0.0
100
AcDbRotatedDimension
1001
ACAD
1000
DSTYLE
1002
{
1070
    41
1040
3.5
1070
    42
1040
1.0
1070
    44
1040
1.0
1070
    47
1040
0.1
1070
    48
1040
0.1
1070
    73
1070
     0
1070
    77
1070
     1
1070
    78
1070
     8
1070
   140
1040
2.5
1070
   141
1040
1.0
1070
   145
1040
1.0
1070
   147
1040
1.0
1070
   172
1070
     1
1070
   174
1070
     1
1070
   271
1070
     1
1070
   272
1070
     8
1070
   340
1005
C
1002
}
  0
LINE
  5
1046
330
2
100
AcDbEntity
  8
1
100
AcDbLine
 10
521.823360392679
 20
-55.68400253307522
 30
0.0
 11
513.3233603926798
 21
-40.96157066873932
 31
0.0
  0
LINE
  5
1047
330
2
100
AcDbEntity
  8
1
100
AcDbLine
 10
521.823360392679
 20
-55.68400253307522
 30
0.0
 11
520.8278171674121
 21
-56.25877968217287
 31
0.0
  0
LINE
  5
1048
330
2
100
AcDbEntity
  8
1
100
AcDbLine
 10
513.3233603926798
 20
-40.96157066873932
 30
0.0
 11
512.327817167413
 21
-41.53634781783694
 31
0.0
  0
DIMENSION
  5
1049
330
2
100
AcDbEntity
  8
5
100
AcDbDimension
  2
*D38
 10
613.6018415948459
 20
-24.44010302188936
 30
0.0
 11
589.801841594846
 21
-22.19010302188936
 31
0.0
 70
    32
 71
     5
 42
47.59999999999979
  3
STANDARD$0
100
AcDbAlignedDimension
 13
566.0018415948461
 23
-32.32278660090571
 33
0.0
 14
613.6018415948459
 24
-32.32278660090571
 34
0.0
100
AcDbRotatedDimension
1001
ACAD
1000
DSTYLE
1002
{
1070
    41
1040
3.5
1070
    42
1040
1.0
1070
    44
1040
1.0
1070
    47
1040
0.1
1070
    48
1040
0.1
1070
    73
1070
     0
1070
    77
1070
     1
1070
    78
1070
     8
1070
   140
1040
2.5
1070
   141
1040
1.0
1070
   145
1040
1.0
1070
   147
1040
1.0
1070
   172
1070
     1
1070
   174
1070
     1
1070
   271
1070
     1
1070
   272
1070
     8
1070
   340
1005
C
1002
}
  0
DIMENSION
  5
104A
330
2
100
AcDbEntity
  8
5
100
AcDbDimension
  2
*D39
 10
626.095435594846
 20
-96.32278660090571
 30
0.0
 11
623.845435594846
 21
-64.32278660090561
 31
0.0
 70
    32
 71
     5
 42
63.99999999999999
  3
STANDARD$0
100
AcDbAlignedDimension
 13
613.6018415948459
 23
-32.32278660090571
 33
0.0
 14
613.6018415948459
 24
-96.32278660090571
 34
0.0
 50
90.0
100
AcDbRotatedDimension
1001
ACAD
1000
DSTYLE
1002
{
1070
    41
1040
3.5
1070
    42
1040
1.0
1070
    44
1040
1.0
1070
    47
1040
0.1
1070
    48
1040
0.1
1070
    73
1070
     0
1070
    77
1070
     1
1070
    78
1070
     8
1070
   140
1040
2.5
1070
   141
1040
1.0
1070
   145
1040
1.0
1070
   147
1040
1.0
1070
   172
1070
     1
1070
   174
1070
     1
1070
   271
1070
     1
1070
   272
1070
     8
1070
   340
1005
C
1002
}
  0
DIMENSION
  5
104B
330
2
100
AcDbEntity
  8
5
100
AcDbDimension
  2
*D40
 10
523.678154031608
 20
-83.32278660090555
 30
0.0
 11
521.428154031608
 21
-81.32278660090548
 31
0.0
 70
    32
 71
     5
 42
3.999999999999943
  3
STANDARD$0
100
AcDbAlignedDimension
 13
492.1670328471361
 23
-79.3227866009056
 33
0.0
 14
494.8605474715757
 24
-83.32278660090555
 34
0.0
 50
90.0
100
AcDbRotatedDimension
1001
ACAD
1000
DSTYLE
1002
{
1070
    41
1040
3.5
1070
    42
1040
1.0
1070
    44
1040
1.0
1070
    47
1040
0.1
1070
    48
1040
0.1
1070
    73
1070
     0
1070
    77
1070
     1
1070
    78
1070
     8
1070
   140
1040
2.5
1070
   141
1040
1.0
1070
   145
1040
1.0
1070
   147
1040
1.0
1070
   172
1070
     1
1070
   174
1070
     1
1070
   271
1070
     1
1070
   272
1070
     8
1070
   340
1005
C
1002
}
  0
LINE
  5
104C
330
2
100
AcDbEntity
  8
3
100
AcDbLine
 10
487.4191582418878
 20
-92.32278660090571
 30
0.0
 11
492.1670328471361
 21
-92.32278660090571
 31
0.0
  0
DIMENSION
  5
104D
330
2
100
AcDbEntity
  8
5
100
AcDbDimension
  2
*D41
 10
532.1739140316081
 20
-92.32278660090571
 30
0.0
 11
529.9239140316081
 21
-85.82278660090556
 31
0.0
 70
    32
 71
     5
 42
13.00000000000011
  3
STANDARD$0
100
AcDbAlignedDimension
 13
492.1670328471361
 23
-79.3227866009056
 33
0.0
 14
492.1670328471361
 24
-92.32278660090571
 34
0.0
 50
90.0
100
AcDbRotatedDimension
1001
ACAD
1000
DSTYLE
1002
{
1070
    41
1040
3.5
1070
    42
1040
1.0
1070
    44
1040
1.0
1070
    47
1040
0.1
1070
    48
1040
0.1
1070
    73
1070
     0
1070
    77
1070
     1
1070
    78
1070
     8
1070
   140
1040
2.5
1070
   141
1040
1.0
1070
   145
1040
1.0
1070
   147
1040
1.0
1070
   172
1070
     1
1070
   174
1070
     1
1070
   271
1070
     1
1070
   272
1070
     8
1070
   340
1005
C
1002
}
  0
DIMENSION
  5
104E
330
2
100
AcDbEntity
  8
5
100
AcDbDimension
  2
*D42
 10
532.1739140316081
 20
-96.32278660090577
 30
0.0
 11
529.9239140316081
 21
-94.32278660090565
 31
0.0
 70
    32
 71
     5
 42
4.000000000000056
  3
STANDARD$0
100
AcDbAlignedDimension
 13
492.1670328471361
 23
-92.32278660090571
 33
0.0
 14
498.3605474715757
 24
-96.32278660090577
 34
0.0
 50
90.0
100
AcDbRotatedDimension
1001
ACAD
1000
DSTYLE
1002
{
1070
    41
1040
3.5
1070
    42
1040
1.0
1070
    44
1040
1.0
1070
    47
1040
0.1
1070
    48
1040
0.1
1070
    73
1070
     0
1070
    77
1070
     1
1070
    78
1070
     8
1070
   140
1040
2.5
1070
   141
1040
1.0
1070
   145
1040
1.0
1070
   147
1040
1.0
1070
   172
1070
     1
1070
   174
1070
     1
1070
   271
1070
     1
1070
   272
1070
     8
1070
   340
1005
C
1002
}
  0
DIMENSION
  5
104F
330
2
100
AcDbEntity
  8
5
100
AcDbDimension
  2
*D43
 10
542.9233340316081
 20
-64.32278660090571
 30
0.0
 11
540.673087968616
 21
-80.32278660090566
 31
0.0
 70
    32
 71
     5
 42
32.00000000000006
  3
STANDARD$0
100
AcDbAlignedDimension
 13
498.3605474715757
 23
-96.32278660090577
 33
0.0
 14
524.1766364278375
 24
-64.32278660090571
 34
0.0
 50
90.0
100
AcDbRotatedDimension
1001
ACAD
1000
DSTYLE
1002
{
1070
    41
1040
3.5
1070
    42
1040
1.0
1070
    44
1040
1.0
1070
    47
1040
0.1
1070
    48
1040
0.1
1070
    73
1070
     0
1070
    77
1070
     1
1070
    78
1070
     8
1070
   140
1040
2.5
1070
   141
1040
1.0
1070
   145
1040
1.0
1070
   147
1040
1.0
1070
   172
1070
     1
1070
   174
1070
     1
1070
   271
1070
     1
1070
   272
1070
     8
1070
   340
1005
C
1002
}
  0
DIMENSION
  5
1050
330
2
100
AcDbEntity
  8
5
100
AcDbDimension
  2
*D44
 10
451.0681140316081
 20
-96.32278660090577
 30
0.0
 11
448.817867968616
 21
-86.32278660090568
 31
0.0
 70
    32
 71
     5
 42
20.0
  3
STANDARD$0
100
AcDbAlignedDimension
 13
484.8605474715758
 23
-76.32278660090577
 33
0.0
 14
481.3605474715758
 24
-96.32278660090577
 34
0.0
 50
90.0
100
AcDbRotatedDimension
1001
ACAD
1000
DSTYLE
1002
{
1070
    41
1040
3.5
1070
    42
1040
1.0
1070
    44
1040
1.0
1070
    47
1040
0.1
1070
    48
1040
0.1
1070
    73
1070
     0
1070
    77
1070
     1
1070
    78
1070
     8
1070
   140
1040
2.5
1070
   141
1040
1.0
1070
   145
1040
1.0
1070
   147
1040
1.0
1070
   172
1070
     1
1070
   174
1070
     1
1070
   271
1070
     1
1070
   272
1070
     8
1070
   340
1005
C
1002
}
  0
LEADER
  5
1051
330
2
100
AcDbEntity
  8
5
100
AcDbLeader
  3
STANDARD
 76
     3
 10
487.6110422275202
 20
-34.74094395482294
 30
0.0
 10
482.2252740316081
 20
-24.38902660090571
 30
0.0
 10
460.3620640316081
 20
-24.38902660090571
 30
0.0
1001
ACAD
1000
DSTYLE
1002
{
1070
    41
1040
3.5
1070
    42
1040
1.0
1070
    44
1040
1.0
1070
    47
1040
0.1
1070
    48
1040
0.1
1070
    73
1070
     0
1070
    77
1070
     1
1070
    78
1070
     8
1070
   140
1040
2.5
1070
   141
1040
1.0
1070
   145
1040
1.0
1070
   147
1040
1.0
1070
   172
1070
     1
1070
   174
1070
     1
1070
   271
1070
     1
1070
   272
1070
     8
1070
   340
1005
C
1002
}
  0
LEADER
  5
1052
330
2
100
AcDbEntity
  8
5
100
AcDbLeader
  3
STANDARD
 76
     3
 10
514.3577377251163
 20
-48.3382820751837
 30
0.0
 10
520.949504031608
 20
-36.26579660090572
 30
0.0
 10
542.486064031608
 20
-36.26579660090572
 30
0.0
1001
ACAD
1000
DSTYLE
1002
{
1070
    41
1040
3.5
1070
    42
1040
1.0
1070
    44
1040
1.0
1070
    47
1040
0.1
1070
    48
1040
0.1
1070
    73
1070
     0
1070
    77
1070
     1
1070
    78
1070
     8
1070
   140
1040
2.5
1070
   141
1040
1.0
1070
   145
1040
1.0
1070
   147
1040
1.0
1070
   172
1070
     1
1070
   174
1070
     1
1070
   271
1070
     1
1070
   272
1070
     8
1070
   340
1005
C
1002
}
  0
MTEXT
  5
1053
330
2
100
AcDbEntity
  8
5
100
AcDbMText
 10
461.2380540316081
 20
-20.12568660090572
 30
0.0
 40
3.0
 41
26.45185185185185
 71
     1
 72
     5
  1
3-%%C5.5thru
  7
CHINA
 73
     1
 44
1.0
  0
MTEXT
  5
1054
330
2
100
AcDbEntity
  8
5
100
AcDbMText
 10
521.825494031608
 20
-32.00245660090573
 30
0.0
 40
3.0
 41
26.45185185185185
 71
     1
 72
     5
  1
M4x0.7x8dp
  7
CHINA
 73
     1
 44
1.0
  0
DIMENSION
  5
1055
330
2
100
AcDbEntity
  8
5
100
AcDbDimension
  2
*D45
 10
613.6018415948459
 20
-109.2421466009057
 30
0.0
 11
597.6018415948459
 21
-106.9919005379136
 31
0.0
 70
    32
  1
<>
 71
     5
 42
32.0
  3
STANDARD$0
100
AcDbAlignedDimension
 13
581.6018415948459
 23
-96.32278660090577
 33
0.0
 14
613.6018415948459
 24
-96.32278660090571
 34
0.0
100
AcDbRotatedDimension
1001
ACAD
1000
DSTYLE
1002
{
1070
    41
1040
3.5
1070
    42
1040
1.0
1070
    44
1040
1.0
1070
    47
1040
0.1
1070
    48
1040
0.1
1070
    73
1070
     0
1070
    77
1070
     1
1070
    78
1070
     8
1070
   140
1040
2.5
1070
   141
1040
1.0
1070
   145
1040
1.0
1070
   147
1040
1.0
1070
   172
1070
     1
1070
   174
1070
     1
1070
   271
1070
     1
1070
   272
1070
     8
1070
   340
1005
C
1002
}
  0
LINE
  5
1056
330
2
100
AcDbEntity
  8
0
  6
DASHED
 62
     5
370
    15
100
AcDbLine
 10
581.6018415948459
 20
-96.32278660090577
 30
0.0
 11
568.0018415948461
 21
-96.32278660090577
 31
0.0
  0
LINE
  5
1057
330
2
100
AcDbEntity
  8
0
  6
DASHED
 62
     5
370
    15
100
AcDbLine
 10
581.6018415948459
 20
-71.12278660090556
 30
0.0
 11
579.4566851281764
 21
-69.3227866009056
 31
0.0
  0
LINE
  5
1058
330
2
100
AcDbEntity
  8
0
  6
DASHED
 62
     5
370
    15
100
AcDbLine
 10
581.6018415948459
 20
-96.32278660090577
 30
0.0
 11
581.6018415948459
 21
-71.12278660090556
 31
0.0
  0
LINE
  5
1059
330
2
100
AcDbEntity
  8
0
  6
DASHED
 62
     5
370
    15
100
AcDbLine
 10
570.5018415948461
 20
-83.32278660090571
 30
0.0
 11
568.0018415948457
 21
-83.32278660090571
 31
0.0
  0
LINE
  5
105A
330
2
100
AcDbEntity
  8
0
  6
DASHED
 62
     5
370
    15
100
AcDbLine
 10
568.0018415948457
 20
-83.32278660090571
 30
0.0
 11
568.0018415948457
 21
-69.32278660090571
 31
0.0
  0
LINE
  5
105B
330
2
100
AcDbEntity
  8
0
  6
DASHED
 62
     5
370
    15
100
AcDbLine
 10
568.0018415948461
 20
-96.32278660090577
 30
0.0
 11
568.0018415948461
 21
-88.32278660090571
 31
0.0
  0
LINE
  5
105C
330
2
100
AcDbEntity
  8
0
  6
DASHED
 62
     5
370
    15
100
AcDbLine
 10
568.0018415948461
 20
-88.32278660090571
 30
0.0
 11
570.5018415948461
 21
-88.32278660090571
 31
0.0
  0
LINE
  5
105D
330
2
100
AcDbEntity
  8
0
  6
DASHED
 62
     5
370
    15
100
AcDbLine
 10
570.5018415948461
 20
-88.32278660090571
 30
0.0
 11
570.5018415948461
 21
-83.32278660090571
 31
0.0
  0
LINE
  5
105E
330
2
100
AcDbEntity
  8
0
  6
DASHED
 62
     5
370
    15
100
AcDbLine
 10
579.4566851281764
 20
-69.3227866009056
 30
0.0
 11
568.0018415948457
 21
-69.32278660090571
 31
0.0
  0
DIMENSION
  5
105F
330
2
100
AcDbEntity
  8
5
100
AcDbDimension
  2
*D46
 10
568.0018415948461
 20
-103.7824666009058
 30
0.0
 11
575.793415594846
 21
-101.0978166009057
 31
0.0
 70
   160
 71
     5
 42
2.5
  3
STANDARD$0
100
AcDbAlignedDimension
 13
570.5018415948461
 23
-88.32278660090571
 33
0.0
 14
568.0018415948461
 24
-96.32278660090577
 34
0.0
100
AcDbRotatedDimension
1001
ACAD
1000
DSTYLE
1002
{
1070
    41
1040
3.5
1070
    42
1040
1.0
1070
    44
1040
1.0
1070
    47
1040
0.1
1070
    48
1040
0.1
1070
    73
1070
     0
1070
    77
1070
     1
1070
    78
1070
     8
1070
   140
1040
2.5
1070
   141
1040
1.0
1070
   145
1040
1.0
1070
   147
1040
1.0
1070
   172
1070
     1
1070
   174
1070
     1
1070
   271
1070
     1
1070
   272
1070
     8
1070
   340
1005
C
1002
}
  0
DIMENSION
  5
1060
330
2
100
AcDbEntity
  8
5
100
AcDbDimension
  2
*D47
 10
568.0018415948461
 20
-113.1124066009057
 30
0.0
 11
573.5781355948461
 21
-110.8624066009057
 31
0.0
 70
   160
 71
     5
 42
2.0
  3
STANDARD$0
100
AcDbAlignedDimension
 13
566.0018415948461
 23
-96.32278660090584
 33
0.0
 14
568.0018415948461
 24
-96.32278660090577
 34
0.0
100
AcDbRotatedDimension
1001
ACAD
1000
DSTYLE
1002
{
1070
    41
1040
3.5
1070
    42
1040
1.0
1070
    44
1040
1.0
1070
    47
1040
0.1
1070
    48
1040
0.1
1070
    73
1070
     0
1070
    77
1070
     1
1070
    78
1070
     8
1070
   140
1040
2.5
1070
   141
1040
1.0
1070
   145
1040
1.0
1070
   147
1040
1.0
1070
   172
1070
     1
1070
   174
1070
     1
1070
   271
1070
     1
1070
   272
1070
     8
1070
   340
1005
C
1002
}
  0
ENDSEC
  0
SECTION
  2
OBJECTS
  0
DICTIONARY
  5
1A
330
0
100
AcDbDictionary
281
     1
  3
ACAD_COLOR
350
30F
  3
ACAD_GROUP
350
18
  3
ACAD_LAYOUT
350
CC
  3
ACAD_MATERIAL
350
30E
  3
ACAD_MLINESTYLE
350
19
  3
ACAD_PLOTSETTINGS
350
CD
  3
ACAD_PLOTSTYLENAME
350
CA
  3
ACAD_TABLESTYLE
350
310
  3
AcDbVariableDictionary
350
2AE
  3
AcmDictionary
350
269
  3
AMG
350
24F
  3
AMGSNAPSETTINGS
350
29E
  3
MAPISURF_MODULE
350
39E
  0
DICTIONARY
  5
40D
330
A
100
AcDbDictionary
280
     1
281
     1
  3
ACAD_LAYERSTATES
360
40E
  0
DICTIONARY
  5
226
330
2
100
AcDbDictionary
280
     1
281
     1
  3
ACAD_INDEX
360
2A5
  3
ACAD_LAYOUTSELFREF
360
2F3
  0
DICTIONARY
  5
228
330
7
100
AcDbDictionary
280
     1
281
     1
  3
ACAD_LAYOUTSELFREF
360
2F4
  0
DICTIONARY
  5
30F
102
{ACAD_REACTORS
330
1A
102
}
330
1A
100
AcDbDictionary
281
     1
  0
DICTIONARY
  5
18
102
{ACAD_REACTORS
330
1A
102
}
330
1A
100
AcDbDictionary
281
     1
  0
DICTIONARY
  5
CC
102
{ACAD_REACTORS
330
1A
102
}
330
1A
100
AcDbDictionary
281
     1
  3
Model
350
CE
  3
配置1
350
CF
  0
DICTIONARY
  5
30E
102
{ACAD_REACTORS
330
1A
102
}
330
1A
100
AcDbDictionary
281
     1
  0
DICTIONARY
  5
19
102
{ACAD_REACTORS
330
1A
102
}
330
1A
100
AcDbDictionary
281
     1
  3
STANDARD
350
1D
  0
DICTIONARY
  5
CD
102
{ACAD_REACTORS
330
1A
102
}
330
1A
100
AcDbDictionary
281
     1
  0
ACDBDICTIONARYWDFLT
  5
CA
102
{ACAD_REACTORS
330
1A
102
}
330
1A
100
AcDbDictionary
281
     1
  3
Normal
350
CB
100
AcDbDictionaryWithDefault
340
CB
1001
ACAD
1000
TREAT_AS_HARD
1070
     0
  0
DICTIONARY
  5
310
102
{ACAD_REACTORS
330
1A
102
}
330
1A
100
AcDbDictionary
281
     1
  3
Standard
350
311
  0
DICTIONARY
  5
2AE
102
{ACAD_REACTORS
330
1A
102
}
330
1A
100
AcDbDictionary
281
     1
  3
CTABLESTYLE
350
3F6
  3
DIMASSOC
350
2B0
  3
INDEXCTL
350
2AF
  0
DICTIONARY
  5
269
102
{ACAD_REACTORS
330
1A
102
}
330
1A
100
AcDbDictionary
281
     1
  3
AcmBOMDATA
350
3D0
  3
AcmStdDictionary
350
26F
  3
AMDTSECTSYM_ARROWCOLOR
350
3EA
  0
DICTIONARY
  5
24F
102
{ACAD_REACTORS
330
1A
102
}
330
1A
100
AcDbDictionary
281
     1
  3
AcMgSettings
350
250
  3
AMGLAYCFG
350
3DE
  0
DICTIONARY
  5
29E
102
{ACAD_REACTORS
330
1A
102
}
330
1A
100
AcDbDictionary
281
     1
  0
DICTIONARY
  5
40E
102
{ACAD_REACTORS
330
40D
102
}
330
40D
100
AcDbDictionary
281
     1
  0
DICTIONARY
  5
2A5
102
{ACAD_REACTORS
330
226
102
}
330
226
100
AcDbDictionary
281
     1
  3
*A1
350
2A6
  0
XRECORD
  5
2F3
102
{ACAD_REACTORS
330
226
102
}
330
226
100
AcDbXrecord
280
     1
340
2
  0
XRECORD
  5
2F4
102
{ACAD_REACTORS
330
228
102
}
330
228
100
AcDbXrecord
280
     1
340
7
  0
LAYOUT
  5
CE
102
{ACAD_REACTORS
330
CC
102
}
330
CC
100
AcDbPlotSettings
  1

  2
\\WINNT\EPSON Stylus Photo 750 單色
  4

  6

 40
0.0
 41
0.0
 42
0.0
 43
0.0
 44
0.0
 45
0.0
 46
0.0
 47
0.0
 48
0.0
 49
0.0
140
0.0
141
0.0
142
1.0
143
1.0
 70
 11952
 72
     0
 73
     1
 74
     0
  7

 75
     0
147
1.0
 76
     0
 77
     2
 78
   300
148
-1016.680816749764
149
103.0807414509828
100
AcDbLayout
  1
Model
 70
     1
 71
     0
 10
0.0
 20
0.0
 11
12.0
 21
9.0
 12
0.0
 22
0.0
 32
0.0
 14
0.0
 24
0.0
 34
0.0
 15
0.0
 25
0.0
 35
0.0
146
0.0
 13
0.0
 23
0.0
 33
0.0
 16
1.0
 26
0.0
 36
0.0
 17
0.0
 27
1.0
 37
0.0
 76
     0
330
2
  0
LAYOUT
  5
CF
102
{ACAD_REACTORS
330
CC
102
}
330
CC
100
AcDbPlotSettings
  1

  2
\\WINNT\EPSON Stylus Photo 750 單色
  4

  6

 40
0.0
 41
0.0
 42
0.0
 43
0.0
 44
0.0
 45
0.0
 46
0.0
 47
0.0
 48
0.0
 49
0.0
140
0.0
141
0.0
142
1.0
143
1.0
 70
   688
 72
     0
 73
     0
 74
     5
  7

 75
    16
147
1.0
 76
     0
 77
     2
 78
   300
148
0.0
149
0.0
100
AcDbLayout
  1
配置1
 70
     1
 71
     1
 10
0.0
 20
0.0
 11
12.0
 21
9.0
 12
0.0
 22
0.0
 32
0.0
 14
1.000000000000000E+20
 24
1.000000000000000E+20
 34
1.000000000000000E+20
 15
-1.000000000000000E+20
 25
-1.000000000000000E+20
 35
-1.000000000000000E+20
146
0.0
 13
0.0
 23
0.0
 33
0.0
 16
1.0
 26
0.0
 36
0.0
 17
0.0
 27
1.0
 37
0.0
 76
     0
330
7
  0
MLINESTYLE
  5
1D
102
{ACAD_REACTORS
330
19
102
}
330
19
100
AcDbMlineStyle
  2
STANDARD
 70
     0
  3

 62
   256
 51
90.0
 52
90.0
 71
     2
 49
0.5
 62
   256
  6
BYLAYER
 49
-0.5
 62
   256
  6
BYLAYER
  0
ACDBPLACEHOLDER
  5
CB
102
{ACAD_REACTORS
330
CA
102
}
330
CA
  0
TABLESTYLE
  5
311
102
{ACAD_REACTORS
330
310
102
}
330
310
100
AcDbTableStyle
  3
Standard
 70
     0
 71
     0
 40
0.06
 41
0.06
280
     0
281
     0
  7
STANDARD
140
0.18
170
     2
 62
     0
 63
     7
283
     0
274
    -2
284
     1
 64
     0
275
    -2
285
     1
 65
     0
276
    -2
286
     1
 66
     0
277
    -2
287
     1
 67
     0
278
    -2
288
     1
 68
     0
279
    -2
289
     1
 69
     0
  7
STANDARD
140
0.25
170
     5
 62
     0
 63
     7
283
     0
274
    -2
284
     1
 64
     0
275
    -2
285
     1
 65
     0
276
    -2
286
     1
 66
     0
277
    -2
287
     1
 67
     0
278
    -2
288
     1
 68
     0
279
    -2
289
     1
 69
     0
  7
STANDARD
140
0.18
170
     5
 62
     0
 63
     7
283
     0
274
    -2
284
     1
 64
     0
275
    -2
285
     1
 65
     0
276
    -2
286
     1
 66
     0
277
    -2
287
     1
 67
     0
278
    -2
288
     1
 68
     0
279
    -2
289
     1
 69
     0
  0
DICTIONARYVAR
  5
3F6
102
{ACAD_REACTORS
330
2AE
102
}
330
2AE
100
DictionaryVariables
280
     0
  1
STANDARD
  0
DICTIONARYVAR
  5
2B0
102
{ACAD_REACTORS
330
2AE
102
}
330
2AE
100
DictionaryVariables
280
     0
  1
0
  0
DICTIONARYVAR
  5
2AF
102
{ACAD_REACTORS
330
2AE
102
}
330
2AE
100
DictionaryVariables
280
     0
  1
1
  0
ACMDATADICTIONARY
  5
3D0
102
{ACAD_REACTORS
330
269
102
}
330
269
100
AcDbDictionary
281
     1
  3
*A1
350
3D1
  3
*A2
350
A32
  3
*A3
350
A33
  3
*A4
350
A34
  3
*A5
350
A35
  3
*A6
350
A36
100
AcmDataDictionary
  0
DICTIONARY
  5
26F
102
{ACAD_REACTORS
330
269
102
}
330
269
100
AcDbDictionary
281
     1
  3
ANSI
350
3DD
  3
ISO
350
5E3
  0
XRECORD
  5
3EA
102
{ACAD_REACTORS
330
269
102
}
330
269
100
AcDbXrecord
280
     1
 90
-1023410169
  0
DICTIONARY
  5
250
102
{ACAD_REACTORS
330
24F
102
}
330
24F
100
AcDbDictionary
281
     1
  3
DWGSETTINGS
350
31C
  3
Shaft
350
9A4
  3
TRANSSETTINGS
350
320
  0
LAYER_INDEX
  5
2A6
102
{ACAD_REACTORS
330
2A5
102
}
330
2A5
100
AcDbIndex
 40
2456360.60340169
100
AcDbLayerIndex
  8
0
360
2A7
 90
       13
  8
1
360
2A8
 90
      107
  8
3
360
2A9
 90
       19
  8
LOGO
360
2AC
 90
       90
  8
Defpoints
360
9BD
 90
        0
  8
5
360
11CA
 90
       17
  8
AM_4
360
11CB
 90
        6
  0
ACMDATAENTRYBLOCK
  5
3D1
102
{ACAD_REACTORS
330
3D0
102
}
330
3D0
100
AcmDataEntry
100
AcmDataEntryBlock
  0
ACMDATAENTRYBLOCK
  5
A32
102
{ACAD_REACTORS
330
3D0
102
}
330
3D0
100
AcmDataEntry
100
AcmDataEntryBlock
  0
ACMDATAENTRYBLOCK
  5
A33
102
{ACAD_REACTORS
330
3D0
102
}
330
3D0
100
AcmDataEntry
100
AcmDataEntryBlock
  0
ACMDATAENTRYBLOCK
  5
A34
102
{ACAD_REACTORS
330
3D0
102
}
330
3D0
100
AcmDataEntry
100
AcmDataEntryBlock
  0
ACMDATAENTRYBLOCK
  5
A35
102
{ACAD_REACTORS
330
3D0
102
}
330
3D0
100
AcmDataEntry
100
AcmDataEntryBlock
  0
ACMDATAENTRYBLOCK
  5
A36
102
{ACAD_REACTORS
330
3D0
102
}
330
3D0
100
AcmDataEntry
100
AcmDataEntryBlock
  0
IDBUFFER
  5
2A7
330
0
100
AcDbIdBuffer
330
96A
330
96B
330
96C
330
1042
330
1056
330
1057
330
1058
330
1059
330
105A
330
105B
330
105C
330
105D
330
105E
  0
IDBUFFER
  5
2A8
330
0
100
AcDbIdBuffer
330
1030
330
1033
330
1034
330
1035
330
1036
330
1037
330
1038
330
103A
330
103B
330
103D
330
103E
330
103F
330
1040
330
1041
330
1046
330
1047
330
1048
330
FC2
330
FC3
330
FC4
330
FC5
330
FC6
330
FC8
330
FC9
330
FCA
330
FCB
330
FCE
330
FD0
330
FD2
330
FD3
330
FD4
330
FD6
330
FD7
330
FD8
330
FDA
330
FDB
330
FDD
330
FDE
330
FDF
330
FE0
330
FE1
330
FE2
330
FE3
330
FE4
330
FE5
330
FE6
330
FE7
330
FE8
330
FE9
330
FEA
330
FEB
330
FEC
330
FED
330
FEE
330
FEF
330
FF0
330
FF1
330
FF3
330
FF5
330
FF6
330
FF7
330
FF8
330
FF9
330
FFB
330
FFC
330
FFD
330
FFF
330
1000
330
1001
330
1004
330
1005
330
1006
330
1007
330
1008
330
1009
330
100A
330
100B
330
100C
330
100D
330
100E
330
1010
330
1011
330
1012
330
1013
330
1014
330
1015
330
1016
330
1017
330
1018
330
1019
330
101A
330
101B
330
101D
330
101E
330
101F
330
1021
330
1022
330
1024
330
1025
330
1026
330
1029
330
102A
330
102B
330
102C
330
102D
330
102E
330
102F
  0
IDBUFFER
  5
2A9
330
0
100
AcDbIdBuffer
330
1023
330
1027
330
1032
330
103C
330
104C
330
FC7
330
FCC
330
FCD
330
FCF
330
FD1
330
FD5
330
FD9
330
FDC
330
FF4
330
FFE
330
1002
330
1003
330
100F
330
101C
  0
IDBUFFER
  5
2AC
330
0
100
AcDbIdBuffer
330
194
330
195
330
196
330
197
330
198
330
19D
330
19E
330
19F
330
1A0
330
1A1
330
1A2
330
1A3
330
1A4
330
1A5
330
1A6
330
1A7
330
1A8
330
1A9
330
1AB
330
1AC
330
1AD
330
1B1
330
1B2
330
1B3
330
1B4
330
8FB
330
8FC
330
916
330
917
330
918
330
919
330
91A
330
91B
330
91C
330
91D
330
91E
330
91F
330
920
330
921
330
922
330
923
330
924
330
925
330
926
330
927
330
928
330
929
330
92A
330
92E
330
932
330
933
330
937
330
938
330
939
330
93A
330
93B
330
93C
330
93D
330
93E
330
942
330
946
330
94A
330
94B
330
94C
330
950
330
951
330
952
330
953
330
954
330
955
330
956
330
957
330
958
330
959
330
95A
330
95B
330
95C
330
95D
330
95E
330
95F
330
960
330
961
330
962
330
963
330
964
330
965
330
966
330
967
330
968
330
969
  0
IDBUFFER
  5
9BD
330
0
100
AcDbIdBuffer
  0
IDBUFFER
  5
11CA
330
0
100
AcDbIdBuffer
330
1060
330
1043
330
1044
330
1045
330
1049
330
104A
330
104B
330
104D
330
104E
330
104F
330
1050
330
1051
330
1052
330
1053
330
1054
330
1055
330
105F
  0
IDBUFFER
  5
11CB
330
0
100
AcDbIdBuffer
330
FF2
330
FFA
330
1020
330
1028
330
1031
330
1039
  0
ENDSEC
  0
EOF
