  0
SECTION
  2
HEADER
  9
$ACADVER
  1
AC1018
  9
$ACADMAINTVER
 70
    39
  9
$DWGCODEPAGE
  3
ANSI_950
  9
$CUSTOMPROPERTYTAG
  1
AmdtFileType
  9
$CUSTOMPROPERTY
  1
84
  9
$INSBASE
 10
278.96247
 20
14.63286
 30
0.0
  9
$EXTMIN
 10
439.2263818608681
 20
-153.8752586113886
 30
0.0
  9
$EXTMAX
 10
1137.009182071789
 20
131.3336665950917
 30
154.5009597124719
  9
$LIMMIN
 10
0.0
 20
0.0
  9
$LIMMAX
 10
297.0
 20
210.0
  9
$ORTHOMODE
 70
     0
  9
$REGENMODE
 70
     1
  9
$FILLMODE
 70
     1
  9
$QTEXTMODE
 70
     0
  9
$MIRRTEXT
 70
     1
  9
$LTSCALE
 40
8.0
  9
$ATTMODE
 70
     1
  9
$TEXTSIZE
 40
3.0
  9
$TRACEWID
 40
0.05
  9
$TEXTSTYLE
  7
CHINA
  9
$CLAYER
  8
1
  9
$CELTYPE
  6
BYLAYER
  9
$CECOLOR
 62
   256
  9
$CELTSCALE
 40
1.0
  9
$DISPSILH
 70
     0
  9
$DIMSCALE
 40
1.0
  9
$DIMASZ
 40
3.5
  9
$DIMEXO
 40
1.0
  9
$DIMDLI
 40
8.0
  9
$DIMRND
 40
0.0
  9
$DIMDLE
 40
0.0
  9
$DIMEXE
 40
1.0
  9
$DIMTP
 40
0.1
  9
$DIMTM
 40
0.1
  9
$DIMTXT
 40
3.5
  9
$DIMCEN
 40
0.0
  9
$DIMTSZ
 40
0.0
  9
$DIMTOL
 70
     0
  9
$DIMLIM
 70
     0
  9
$DIMTIH
 70
     0
  9
$DIMTOH
 70
     0
  9
$DIMSE1
 70
     0
  9
$DIMSE2
 70
     0
  9
$DIMTAD
 70
     1
  9
$DIMZIN
 70
     8
  9
$DIMBLK
  1

  9
$DIMASO
 70
     0
  9
$DIMSHO
 70
     1
  9
$DIMPOST
  1

  9
$DIMAPOST
  1
"
  9
$DIMALT
 70
     0
  9
$DIMALTD
 70
     2
  9
$DIMALTF
 40
0.0393701
  9
$DIMLFAC
 40
1.0
  9
$DIMTOFL
 70
     1
  9
$DIMTVP
 40
0.0
  9
$DIMTIX
 70
     0
  9
$DIMSOXD
 70
     0
  9
$DIMSAH
 70
     0
  9
$DIMBLK1
  1

  9
$DIMBLK2
  1

  9
$DIMSTYLE
  2
AM_ISO
  9
$DIMCLRD
 70
   256
  9
$DIMCLRE
 70
   256
  9
$DIMCLRT
 70
   256
  9
$DIMTFAC
 40
0.71
  9
$DIMGAP
 40
1.0
  9
$DIMJUST
 70
     0
  9
$DIMSD1
 70
     0
  9
$DIMSD2
 70
     0
  9
$DIMTOLJ
 70
     0
  9
$DIMTZIN
 70
     8
  9
$DIMALTZ
 70
     8
  9
$DIMALTTZ
 70
     0
  9
$DIMUPT
 70
     0
  9
$DIMDEC
 70
     0
  9
$DIMTDEC
 70
     8
  9
$DIMALTU
 70
     2
  9
$DIMALTTD
 70
     2
  9
$DIMTXSTY
  7
STANDARD
  9
$DIMAUNIT
 70
     0
  9
$DIMADEC
 70
     0
  9
$DIMALTRND
 40
0.0
  9
$DIMAZIN
 70
     2
  9
$DIMDSEP
 70
    46
  9
$DIMATFIT
 70
     3
  9
$DIMFRAC
 70
     0
  9
$DIMLDRBLK
  1

  9
$DIMLUNIT
 70
     2
  9
$DIMLWD
 70
    -1
  9
$DIMLWE
 70
    -1
  9
$DIMTMOVE
 70
     0
  9
$LUNITS
 70
     2
  9
$LUPREC
 70
     2
  9
$SKETCHINC
 40
0.1
  9
$FILLETRAD
 40
2.5
  9
$AUNITS
 70
     0
  9
$AUPREC
 70
     0
  9
$MENU
  1
acad
  9
$ELEVATION
 40
0.0
  9
$PELEVATION
 40
0.0
  9
$THICKNESS
 40
0.0
  9
$LIMCHECK
 70
     0
  9
$CHAMFERA
 40
2.5
  9
$CHAMFERB
 40
2.5
  9
$CHAMFERC
 40
0.0
  9
$CHAMFERD
 40
0.0
  9
$SKPOLY
 70
     0
  9
$TDCREATE
 40
2451401.689539931
  9
$TDUCREATE
 40
2451401.356206598
  9
$TDUPDATE
 40
2456360.606828160
  9
$TDUUPDATE
 40
2456360.273494826
  9
$TDINDWG
 40
0.1383551505
  9
$TDUSRTIMER
 40
0.1383551505
  9
$USRTIMER
 70
     1
  9
$ANGBASE
 50
0.0
  9
$ANGDIR
 70
     0
  9
$PDMODE
 70
     0
  9
$PDSIZE
 40
0.0
  9
$PLINEWID
 40
0.0
  9
$SPLFRAME
 70
     0
  9
$SPLINETYPE
 70
     6
  9
$SPLINESEGS
 70
     8
  9
$HANDSEED
  5
1237
  9
$SURFTAB1
 70
     6
  9
$SURFTAB2
 70
     6
  9
$SURFTYPE
 70
     6
  9
$SURFU
 70
     6
  9
$SURFV
 70
     6
  9
$UCSBASE
  2

  9
$UCSNAME
  2

  9
$UCSORG
 10
0.0
 20
0.0
 30
0.0
  9
$UCSXDIR
 10
1.0
 20
0.0
 30
0.0
  9
$UCSYDIR
 10
0.0
 20
1.0
 30
0.0
  9
$UCSORTHOREF
  2

  9
$UCSORTHOVIEW
 70
     0
  9
$UCSORGTOP
 10
0.0
 20
0.0
 30
0.0
  9
$UCSORGBOTTOM
 10
0.0
 20
0.0
 30
0.0
  9
$UCSORGLEFT
 10
0.0
 20
0.0
 30
0.0
  9
$UCSORGRIGHT
 10
0.0
 20
0.0
 30
0.0
  9
$UCSORGFRONT
 10
0.0
 20
0.0
 30
0.0
  9
$UCSORGBACK
 10
0.0
 20
0.0
 30
0.0
  9
$PUCSBASE
  2

  9
$PUCSNAME
  2

  9
$PUCSORG
 10
0.0
 20
0.0
 30
0.0
  9
$PUCSXDIR
 10
1.0
 20
0.0
 30
0.0
  9
$PUCSYDIR
 10
0.0
 20
1.0
 30
0.0
  9
$PUCSORTHOREF
  2

  9
$PUCSORTHOVIEW
 70
     0
  9
$PUCSORGTOP
 10
0.0
 20
0.0
 30
0.0
  9
$PUCSORGBOTTOM
 10
0.0
 20
0.0
 30
0.0
  9
$PUCSORGLEFT
 10
0.0
 20
0.0
 30
0.0
  9
$PUCSORGRIGHT
 10
0.0
 20
0.0
 30
0.0
  9
$PUCSORGFRONT
 10
0.0
 20
0.0
 30
0.0
  9
$PUCSORGBACK
 10
0.0
 20
0.0
 30
0.0
  9
$USERI1
 70
     0
  9
$USERI2
 70
     0
  9
$USERI3
 70
     0
  9
$USERI4
 70
     0
  9
$USERI5
 70
     0
  9
$USERR1
 40
0.0
  9
$USERR2
 40
0.0
  9
$USERR3
 40
0.0
  9
$USERR4
 40
0.0
  9
$USERR5
 40
0.0
  9
$WORLDVIEW
 70
     1
  9
$SHADEDGE
 70
     3
  9
$SHADEDIF
 70
    70
  9
$TILEMODE
 70
     1
  9
$MAXACTVP
 70
    16
  9
$PINSBASE
 10
0.0
 20
0.0
 30
0.0
  9
$PLIMCHECK
 70
     0
  9
$PEXTMIN
 10
1.000000000000000E+20
 20
1.000000000000000E+20
 30
1.000000000000000E+20
  9
$PEXTMAX
 10
-1.000000000000000E+20
 20
-1.000000000000000E+20
 30
-1.000000000000000E+20
  9
$PLIMMIN
 10
0.0
 20
0.0
  9
$PLIMMAX
 10
12.0
 20
9.0
  9
$UNITMODE
 70
     0
  9
$VISRETAIN
 70
     0
  9
$PLINEGEN
 70
     0
  9
$PSLTSCALE
 70
     1
  9
$TREEDEPTH
 70
  3020
  9
$CMLSTYLE
  2
STANDARD
  9
$CMLJUST
 70
     0
  9
$CMLSCALE
 40
1.0
  9
$PROXYGRAPHICS
 70
     1
  9
$MEASUREMENT
 70
     1
  9
$CELWEIGHT
370
    -1
  9
$ENDCAPS
280
     0
  9
$JOINSTYLE
280
     0
  9
$LWDISPLAY
290
     0
  9
$INSUNITS
 70
     4
  9
$HYPERLINKBASE
  1

  9
$STYLESHEET
  1

  9
$XEDIT
290
     1
  9
$CEPSNTYPE
380
     0
  9
$PSTYLEMODE
290
     1
  9
$FINGERPRINTGUID
  2
{C3A3751C-7CBF-11D5-9E02-0050BAE3FAE1}
  9
$VERSIONGUID
  2
{D3CF2D9D-DD95-4574-A6AD-6D49F26B3143}
  9
$EXTNAMES
290
     1
  9
$PSVPSCALE
 40
0.0
  9
$OLESTARTUP
290
     0
  9
$SORTENTS
280
   127
  9
$INDEXCTL
280
     1
  9
$HIDETEXT
280
     0
  9
$XCLIPFRAME
290
     0
  9
$HALOGAP
280
     0
  9
$OBSCOLOR
 70
   257
  9
$OBSLTYPE
280
     0
  9
$INTERSECTIONDISPLAY
280
     0
  9
$INTERSECTIONCOLOR
 70
   257
  9
$DIMASSOC
280
     0
  9
$PROJECTNAME
  1

  0
ENDSEC
  0
SECTION
  2
CLASSES
  0
CLASS
  1
DICTIONARYVAR
  2
AcDbDictionaryVar
  3
ObjectDBX Classes
 90
        0
 91
        3
280
     0
281
     0
  0
CLASS
  1
ACDBDICTIONARYWDFLT
  2
AcDbDictionaryWithDefault
  3
ObjectDBX Classes
 90
        0
 91
        1
280
     0
281
     0
  0
CLASS
  1
ACME_DOCUMENT
  2
AcMeDbDoc
  3
AcMeServices
 90
        0
 91
        2
280
     0
281
     0
  0
CLASS
  1
AMGSETTINGSOBJ
  2
AmgSettingsObj
  3
"AcadM|Product Description: AutoCAD Mechanical 2000|Company: Autodesk"
 90
        0
 91
        3
280
     0
281
     0
  0
CLASS
  1
ACMESCOPE
  2
AcMeScope
  3
AcMeServices
 90
        0
 91
        1
280
     0
281
     0
  0
CLASS
  1
ACMECOMMANDHISTORY
  2
AcMeCommandHistory
  3
AcMeServices
 90
        0
 91
        1
280
     0
281
     0
  0
CLASS
  1
ACIMSYSVARMAN
  2
AcImSysVarManager
  3
AcMeServices
 90
        0
 91
        6
280
     0
281
     0
  0
CLASS
  1
ACIMREALSYSVAR
  2
AcImRealSysVar
  3
AcMeServices
 90
        0
 91
       16
280
     0
281
     0
  0
CLASS
  1
ACIMINTSYSVAR
  2
AcImIntSysVar
  3
AcMeServices
 90
        0
 91
       45
280
     0
281
     0
  0
CLASS
  1
ACMEDRAWINGMAN
  2
AcMeDrawingMan
  3
AcMeServices
 90
        0
 91
        1
280
     0
281
     0
  0
CLASS
  1
ACMEVIEW
  2
AcMeView
  3
AcMeServices
 90
        0
 91
        1
280
     0
281
     0
  0
CLASS
  1
ACDBENTITYCACHE
  2
AcMeEntityCache
  3
AcMeServices
 90
        0
 91
        1
280
     0
281
     0
  0
CLASS
  1
GSMANAGER
  2
AcMeGSManager
  3
AcMeServices
 90
        0
 91
        1
280
     0
281
     0
  0
CLASS
  1
AMDTINTERNALREACTOR
  2
AmdtInternalReactor
  3
AcMeServices
 90
        0
 91
        2
280
     0
281
     0
  0
CLASS
  1
ACMESTATEMGR
  2
AcMeStateMgr
  3
AcMeServices
 90
        0
 91
        1
280
     0
281
     0
  0
CLASS
  1
ACGREFMASTER
  2
AcGrefMaster
  3
AcAttribServices
 90
        0
 91
        1
280
     0
281
     0
  0
CLASS
  1
ACME_DATABASE
  2
AcMeDbDatabase
  3
AcMeServices
 90
        0
 91
        2
280
     0
281
     0
  0
CLASS
  1
ACRFINSADJUSTERMGR
  2
AcRfInsAdjusterMgr
  3
AcMeServices
 90
        0
 91
        1
280
     0
281
     0
  0
CLASS
  1
ACGREFACADMASTER
  2
AcGrefacadMaster
  3
AcGrefServices
 90
        0
 91
        1
280
     0
281
     0
  0
CLASS
  1
AMIMASTER
  2
AmiMaster
  3
AmiServices
 90
        0
 91
        1
280
     0
281
     0
  0
CLASS
  1
ACMDATADICTIONARY
  2
AcmDataDictionary
  3
"AcmSymBB|Product Description: AutoCAD Mechanical 2004 DX|Company: Autodesk"
 90
        0
 91
        1
280
     0
281
     0
  0
CLASS
  1
ACMDATAENTRYBLOCK
  2
AcmDataEntryBlock
  3
"AcmSymBB|Product Description: AutoCAD Mechanical 2004 DX|Company: Autodesk"
 90
        0
 91
        6
280
     0
281
     0
  0
CLASS
  1
ACIMSTRSYSVAR
  2
AcImStrSysVar
  3
AcMeServices
 90
        0
 91
       11
280
     0
281
     0
  0
CLASS
  1
ACMSTANDARDANSI
  2
AcmStandardANSI
  3
"Amdt_StdImp|Product Description: AutoCAD Mechanical 2004 DX|Company: Autodesk"
 90
        0
 91
        1
280
     0
281
     0
  0
CLASS
  1
AMGOBJPROPCFG
  2
AmgObjPropCfg
  3
"AmgLay|Product Description: AutoCAD Mechanical 2000|Company: Autodesk"
 90
        1
 91
        1
280
     0
281
     0
  0
CLASS
  1
ACMSURFSTANDARDANSI
  2
AcmSurfTextStdANSI
  3
"Amdt_StdImp|Product Description: AutoCAD Mechanical 2004 DX|Company: Autodesk"
 90
        0
 91
        1
280
     0
281
     0
  0
CLASS
  1
ACMFCFSTANDARDANSI
  2
AcmFCFStdANSI
  3
"Amdt_StdImp|Product Description: AutoCAD Mechanical 2004 DX|Company: Autodesk"
 90
        0
 91
        1
280
     0
281
     0
  0
CLASS
  1
ACMWELDSTANDARDANSI
  2
AcmWeldingStdANSI
  3
"Amdt_StdImp|Product Description: AutoCAD Mechanical 2004 DX|Company: Autodesk"
 90
        0
 91
        1
280
     0
281
     0
  0
CLASS
  1
ACMIDSTANDARDANSI
  2
AcmIdStdANSI
  3
"Amdt_StdImp|Product Description: AutoCAD Mechanical 2004 DX|Company: Autodesk"
 90
        0
 91
        1
280
     0
281
     0
  0
CLASS
  1
ACMDATUMSTANDARDANSI
  2
AcmDatumStdANSI
  3
"Amdt_StdImp|Product Description: AutoCAD Mechanical 2004 DX|Company: Autodesk"
 90
        0
 91
        1
280
     0
281
     0
  0
CLASS
  1
ACMBOMSTANDARDANSI
  2
AcmBOMStdANSI
  3
"Amdt_StdImp|Product Description: AutoCAD Mechanical 2004 DX|Company: Autodesk"
 90
        0
 91
        1
280
     0
281
     0
  0
CLASS
  1
ACMDETAILSTANDARDANSI
  2
AmdtDetailSymStdANSI
  3
"Amdt_StdImp|Product Description: AutoCAD Mechanical 2004 DX|Company: Autodesk"
 90
        0
 91
        1
280
     0
281
     0
  0
CLASS
  1
ACMSECTIONSTANDARDANSI
  2
AmdtSectionSymStdANSI
  3
"Amdt_StdImp|Product Description: AutoCAD Mechanical 2004 DX|Company: Autodesk"
 90
        0
 91
        1
280
     0
281
     0
  0
CLASS
  1
ACMCENTERLINESTANDARDANSI
  2
AmdtCenterLineStdANSI
  3
"Amdt_StdImp|Product Description: AutoCAD Mechanical 2004 DX|Company: Autodesk"
 90
        0
 91
        1
280
     0
281
     0
  0
CLASS
  1
ACMNOTESTANDARDANSI
  2
AmdtNoteStdANSI
  3
"Amdt_StdImp|Product Description: AutoCAD Mechanical 2004 DX|Company: Autodesk"
 90
        0
 91
        1
280
     0
281
     0
  0
CLASS
  1
ACAMGLAYSTD
  2
AcAmgLayStd
  3
"AcAmgLayStd|Product Description: AutoCAD Mechanical 2000|Company: Autodesk"
 90
        0
 91
        2
280
     0
281
     0
  0
CLASS
  1
ACAMGDIMSTD
  2
AcAmgDimStd
  3
"AcAmgDimStd|Product Description: AutoCAD Mechanical 2000|Company: Autodesk"
 90
        0
 91
        2
280
     0
281
     0
  0
CLASS
  1
ACAMGHOLECHARTSTDANSI
  2
AcAmgHoleChartStdANSI
  3
ACMSYMBB_MODULE_NAME
 90
        0
 91
        1
280
     0
281
     0
  0
CLASS
  1
ACAMGTITLESTD
  2
AcAmgTitleStd
  3
"TITLEAPP"
 90
        0
 91
        2
280
     0
281
     0
  0
CLASS
  1
ACAMGFILTERDAT
  2
AcAmgFilterDat
  3
"AcadM|Product Description: AutoCAD Mechanical 2000|Company: Autodesk"
 90
        0
 91
        0
280
     0
281
     0
  0
CLASS
  1
LAYER_INDEX
  2
AcDbLayerIndex
  3
ObjectDBX Classes
 90
        0
 91
        1
280
     0
281
     0
  0
CLASS
  1
IDBUFFER
  2
AcDbIdBuffer
  3
ObjectDBX Classes
 90
        0
 91
        9
280
     0
281
     0
  0
CLASS
  1
TABLESTYLE
  2
AcDbTableStyle
  3
ObjectDBX Classes
 90
     2047
 91
        1
280
     0
281
     0
  0
CLASS
  1
AM_DRAWING_MGR
  2
AcDmDwgMgr
  3
AcMechDwgViewMgmt
 90
        0
 91
        1
280
     0
281
     0
  0
CLASS
  1
AM_DWG_DOCUMENT
  2
AcDmDwgDocument
  3
AcMechDwgViewMgmt
 90
        0
 91
        1
280
     0
281
     0
  0
CLASS
  1
AM_DWG_SHEET
  2
AcDmSheet
  3
AcMechDwgViewMgmt
 90
        0
 91
        1
280
     0
281
     0
  0
CLASS
  1
AM_VIEWDIMPARMAP
  2
AcDmViewDimParMap
  3
AcMechDwgViewMgmt
 90
        0
 91
        1
280
     0
281
     0
  0
CLASS
  1
AM_DWGMGR_NAME
  2
AcDmDwgMgrName
  3
AcMechDwgViewMgmt
 90
        0
 91
        1
280
     0
281
     0
  0
CLASS
  1
AMDTMENUSTATEMGR
  2
AmdtMenuStateMgr
  3
McadcomServices
 90
        0
 91
        1
280
     0
281
     0
  0
CLASS
  1
AMDTMCOMMENUSTATE
  2
AmdtMcomMenuState
  3
McadcomServices
 90
        0
 91
        1
280
     0
281
     0
  0
CLASS
  1
ASAPP
  2
AcAsAppObject
  3
AutoSurfServices
 90
        0
 91
        1
280
     0
281
     0
  0
CLASS
  1
IM_STATIC_MAN
  2
AcImStaticVarManager
  3
AcMeServices
 90
        0
 91
        1
280
     0
281
     0
  0
CLASS
  1
ACIMDBLSTATICVAR
  2
AcImDblStaticVar
  3
AcMeServices
 90
        0
 91
       20
280
     0
281
     0
  0
CLASS
  1
ACIMSTRSTATICVAR
  2
AcImStrStaticVar
  3
AcMeServices
 90
        0
 91
       12
280
     0
281
     0
  0
CLASS
  1
ACIMINTSTATICVAR
  2
AcImIntStaticVar
  3
AcMeServices
 90
        0
 91
       17
280
     0
281
     0
  0
CLASS
  1
ACASGREFMASTER
  2
AcAsGrefMaster
  3
AutoSurfResolverServices
 90
        0
 91
        1
280
     0
281
     0
  0
CLASS
  1
ACADGREFMODULE
  2
AcAdGrefModule
  3
AdGrefServices
 90
        0
 91
        1
280
     0
281
     0
  0
CLASS
  1
AMDTMAPISURFMOUDULE
  2
AmdtMApiSurfModule
  3
MApiSurfServices
 90
        0
 91
        1
280
     0
281
     0
  0
CLASS
  1
MAPIAMMOUDLE
  2
MApiAmModule
  3
MApiAmServices
 90
        0
 91
        1
280
     0
281
     0
  0
CLASS
  1
AMDTADMENUSTATE
  2
AmdtAdMenuState
  3
DesignerServices
 90
        0
 91
        1
280
     0
281
     0
  0
CLASS
  1
ADAPPL
  2
AcAdAppl
  3
DesignerServices
 90
        0
 91
        1
280
     0
281
     0
  0
CLASS
  1
DEPMGR
  2
AcAdDepMgr
  3
DesignerServices
 90
        0
 91
        1
280
     0
281
     0
  0
CLASS
  1
PARAMMGR
  2
AcAdParamMgr
  3
DesignerServices
 90
        0
 91
        1
280
     0
281
     0
  0
CLASS
  1
PARAMSCOPE
  2
AcAdParamScope
  3
DesignerServices
 90
        0
 91
        5
280
     0
281
     0
  0
CLASS
  1
NAMEDAPPL
  2
AcAdNamedAppl
  3
DesignerServices
 90
        0
 91
        1
280
     0
281
     0
  0
CLASS
  1
AMDTDMMENUSTATE
  2
AmdtDmMenuState
  3
AcMechDwgViewMgmt
 90
        0
 91
        1
280
     0
281
     0
  0
CLASS
  1
MAPIADMODULE
  2
MApiAdModule
  3
MApiAdServices
 90
        0
 91
        1
280
     0
281
     0
  0
CLASS
  1
AMDTAMMENUSTATE
  2
AmdtAmMenuState
  3
DesignerAssemblies
 90
        0
 91
        1
280
     0
281
     0
  0
CLASS
  1
ACAMPROJECT
  2
AcAmProject
  3
DesignerAssemblies
 90
        0
 91
        1
280
     0
281
     0
  0
CLASS
  1
ACAMGRCOMPDEF
  2
AcAmGrCompDef
  3
DesignerAssemblies
 90
        0
 91
        6
280
     0
281
     0
  0
CLASS
  1
ACCMCONTEXT
  2
AcCmContext
  3
DesignerAssemblies
 90
        0
 91
       12
280
     0
281
     0
  0
CLASS
  1
ACAMCOMPDEF
  2
AcAmCompDef
  3
DesignerAssemblies
 90
        0
 91
        6
280
     0
281
     0
  0
CLASS
  1
ACAMCOMPDEFMGR
  2
AcAmCompDefMgr
  3
DesignerAssemblies
 90
        0
 91
        1
280
     0
281
     0
  0
CLASS
  1
AMCONTEXTMGR
  2
AcAmContextMgr
  3
DesignerAssemblies
 90
        0
 91
        1
280
     0
281
     0
  0
CLASS
  1
ACAMCONTEXTMODELER
  2
AcAmContextModeler
  3
DesignerAssemblies
 90
        0
 91
        1
280
     0
281
     0
  0
CLASS
  1
CATALOGSTATE
  2
AcAmCatalogState
  3
DesignerAssemblies
 90
        0
 91
        1
280
     0
281
     0
  0
CLASS
  1
ACAMGRCOMPDEFSET
  2
AcAmGrCompDefSet
  3
DesignerAssemblies
 90
        0
 91
        1
280
     0
281
     0
  0
CLASS
  1
AMDTBROWSERDBTAB
  2
AmdtBrowserDbTab
  3
McadcomServices
 90
        0
 91
        1
280
     0
281
     0
  0
CLASS
  1
CBROWSERAPPOBJECT
  2
CBrowserAppObject
  3
McadcomServices
 90
        0
 91
        3
280
     0
281
     0
  0
CLASS
  1
DM_PLACEHOLDER
  2
AcDmSelsetPlaceholder
  3
AcMechDwgViewMgmt
 90
        0
 91
        1
280
     0
281
     0
  0
CLASS
  1
ACMTHREADLINESTANDARDANSI
  2
AmdtThreadLineStdANSI
  3
"Amdt_StdImp|Product Description: AutoCAD Mechanical 2004 DX|Company: Autodesk"
 90
        0
 91
        1
280
     0
281
     0
  0
CLASS
  1
AMDTNOTETEMPLATEDB
  2
AmdtNoteTemplateDB
  3
AMDT_STDIMP_MODULE_NAME
 90
        0
 91
       10
280
     0
281
     0
  0
CLASS
  1
ACMSTANDARDISO
  2
AcmStandardISO
  3
"Amdt_StdImp|Product Description: AutoCAD Mechanical 2004 DX|Company: Autodesk"
 90
        0
 91
        1
280
     0
281
     0
  0
CLASS
  1
AMDTEDGESTANDARDISO13715
  2
AmdtEdgeStdISO13715
  3
"Amdt_StdImp|Product Description: AutoCAD Mechanical 2004 DX|Company: Autodesk"
 90
        0
 91
        1
280
     0
281
     0
  0
CLASS
  1
ACMSURFSTANDARDISO
  2
AcmSurfTextStdISO
  3
"Amdt_StdImp|Product Description: AutoCAD Mechanical 2004 DX|Company: Autodesk"
 90
        0
 91
        1
280
     0
281
     0
  0
CLASS
  1
ACMFCFSTANDARDISO
  2
AcmFCFStdISO
  3
"Amdt_StdImp|Product Description: AutoCAD Mechanical 2004 DX|Company: Autodesk"
 90
        0
 91
        1
280
     0
281
     0
  0
CLASS
  1
ACMWELDSTANDARDISO
  2
AcmWeldingStdISO
  3
"Amdt_StdImp|Product Description: AutoCAD Mechanical 2004 DX|Company: Autodesk"
 90
        0
 91
        1
280
     0
281
     0
  0
CLASS
  1
ACMIDSTANDARDISO
  2
AcmIdStdISO
  3
"Amdt_StdImp|Product Description: AutoCAD Mechanical 2004 DX|Company: Autodesk"
 90
        0
 91
        1
280
     0
281
     0
  0
CLASS
  1
ACMDATUMSTANDARDISO
  2
AcmDatumStdISO
  3
"Amdt_StdImp|Product Description: AutoCAD Mechanical 2004 DX|Company: Autodesk"
 90
        0
 91
        1
280
     0
281
     0
  0
CLASS
  1
ACMBOMSTANDARDISO
  2
AcmBOMStdISO
  3
"Amdt_StdImp|Product Description: AutoCAD Mechanical 2004 DX|Company: Autodesk"
 90
        0
 91
        1
280
     0
281
     0
  0
CLASS
  1
ACMDETAILSTANDARDISO
  2
AmdtDetailSymStdISO
  3
"Amdt_StdImp|Product Description: AutoCAD Mechanical 2004 DX|Company: Autodesk"
 90
        0
 91
        1
280
     0
281
     0
  0
CLASS
  1
ACMSECTIONSTANDARDISO
  2
AmdtSectionSymStdISO
  3
"Amdt_StdImp|Product Description: AutoCAD Mechanical 2004 DX|Company: Autodesk"
 90
        0
 91
        1
280
     0
281
     0
  0
CLASS
  1
ACMCENTERLINESTANDARDISO
  2
AmdtCenterLineStdISO
  3
"Amdt_StdImp|Product Description: AutoCAD Mechanical 2004 DX|Company: Autodesk"
 90
        0
 91
        1
280
     0
281
     0
  0
CLASS
  1
ACMTHREADLINESTANDARDISO
  2
AmdtThreadLineStdISO
  3
"Amdt_StdImp|Product Description: AutoCAD Mechanical 2004 DX|Company: Autodesk"
 90
        0
 91
        1
280
     0
281
     0
  0
CLASS
  1
ACMNOTESTANDARDISO
  2
AmdtNoteStdISO
  3
"Amdt_StdImp|Product Description: AutoCAD Mechanical 2004 DX|Company: Autodesk"
 90
        0
 91
        1
280
     0
281
     0
  0
CLASS
  1
ACAMGHOLECHARTSTDISO
  2
AcAmgHoleChartStdISO
  3
ACMSYMBB_MODULE_NAME
 90
        0
 91
        1
280
     0
281
     0
  0
CLASS
  1
ADPART
  2
AcAdPart
  3
DesignerServices
 90
        0
 91
        4
280
     0
281
     1
  0
CLASS
  1
ACAMCOMPENT
  2
AcAmCompEnt
  3
DesignerAssemblies
 90
        0
 91
        6
280
     0
281
     1
  0
CLASS
  1
ACAMCOMPENTCLONE
  2
AcAmCompEntClone
  3
DesignerAssemblies
 90
        0
 91
        0
280
     0
281
     1
  0
CLASS
  1
WORKPLANEDISPLAYMGR
  2
AcAdDisplayMgr
  3
DesignerServices
 90
        0
 91
        4
280
     0
281
     0
  0
CLASS
  1
ADBASE
  2
AcAdBase
  3
DesignerServices
 90
        0
 91
        4
280
     0
281
     0
  0
CLASS
  1
BODYID
  2
AcAdBodyId
  3
DesignerServices
 90
        0
 91
        4
280
     0
281
     0
  0
CLASS
  1
ACAMCOMP
  2
AcAmComp
  3
DesignerAssemblies
 90
        0
 91
        6
280
     0
281
     0
  0
CLASS
  1
ACAMCOMPFEEDBACK
  2
AcAmCompFeedback
  3
DesignerAssemblies
 90
        0
 91
        6
280
     0
281
     0
  0
CLASS
  1
ACCMBODY
  2
AcCmBody
  3
DesignerAssemblies
 90
        0
 91
        6
280
     0
281
     0
  0
CLASS
  1
AMDTFORMULAUPDATEDISPATCHER
  2
AmdtFormulaUpdateDispatcher
  3
AcMeServices
 90
        0
 91
        1
280
     0
281
     0
  0
CLASS
  1
DIMASSOC
  2
AcDbDimAssoc
  3
"AcDbDimAssoc|Product Desc:     AcDim ARX App For Dimension|Company:          Autodesk, Inc.|WEB Address:      www.autodesk.com"
 90
        0
 91
       30
280
     0
281
     0
  0
ENDSEC
  0
SECTION
  2
TABLES
  0
TABLE
  2
VPORT
  5
12
330
0
100
AcDbSymbolTable
 70
     8
  0
VPORT
  5
1236
330
12
100
AcDbSymbolTableRecord
100
AcDbViewportTableRecord
  2
*Active
 70
     0
 10
0.0
 20
0.0
 11
1.0
 21
1.0
 12
436.8333739325986
 22
-175.1162176681673
 13
0.0
 23
0.0
 14
2.5
 24
2.5
 15
10.0
 25
10.0
 16
0.0
 26
0.0
 36
1.0
 17
138.6205451135996
 27
126.4334816348561
 37
0.0
 40
258.241867287418
 41
1.312169312169312
 42
50.0
 43
0.0
 44
0.0
 50
0.0
 51
0.0
 71
     0
 72
 20000
 73
     1
 74
     1
 75
     0
 76
     0
 77
     0
 78
     0
281
     0
 65
     0
110
0.0
120
0.0
130
0.0
111
1.0
121
0.0
131
0.0
112
0.0
122
1.0
132
0.0
 79
     0
146
0.0
  0
ENDTAB
  0
TABLE
  2
LTYPE
  5
D
330
0
100
AcDbSymbolTable
 70
    22
  0
LTYPE
  5
E
330
D
100
AcDbSymbolTableRecord
100
AcDbLinetypeTableRecord
  2
BYBLOCK
 70
     0
  3

 72
    65
 73
     0
 40
0.0
  0
LTYPE
  5
F
330
D
100
AcDbSymbolTableRecord
100
AcDbLinetypeTableRecord
  2
BYLAYER
 70
     0
  3

 72
    65
 73
     0
 40
0.0
  0
LTYPE
  5
5
330
D
100
AcDbSymbolTableRecord
100
AcDbLinetypeTableRecord
  2
CONTINUOUS
 70
     0
  3
Solid line
 72
    65
 73
     0
 40
0.0
  0
LTYPE
  5
28
330
D
100
AcDbSymbolTableRecord
100
AcDbLinetypeTableRecord
  2
CENTER2
 70
     0
  3
___ _ ___ _ ___ _ ___ _ ___ _ ___ _ ___ _ ___ _
 72
    65
 73
     4
 40
1.125
 49
0.75
 74
     0
 49
-0.125
 74
     0
 49
0.125
 74
     0
 49
-0.125
 74
     0
  0
LTYPE
  5
272
330
D
100
AcDbSymbolTableRecord
100
AcDbLinetypeTableRecord
  2
AM_ISO02W050
 70
     0
  3
__ __ __ __ __ __ __ __ __ __ __ __ __ __ __
 72
    65
 73
     2
 40
7.5
 49
6.0
 74
     0
 49
-1.5
 74
     0
  0
LTYPE
  5
273
330
D
100
AcDbSymbolTableRecord
100
AcDbLinetypeTableRecord
  2
AM_ISO08W050
 70
     0
  3
____ . ____ . ____ . ____ . ____ . ____ . ____
 72
    65
 73
     4
 40
18.0
 49
12.0
 74
     0
 49
-1.5
 74
     0
 49
3.0
 74
     0
 49
-1.5
 74
     0
  0
LTYPE
  5
274
330
D
100
AcDbSymbolTableRecord
100
AcDbLinetypeTableRecord
  2
AM_ISO09W050
 70
     0
  3
_____ . . _____ . . _____ . . ____ .. ____
 72
    65
 73
     6
 40
22.5
 49
12.0
 74
     0
 49
-1.5
 74
     0
 49
3.0
 74
     0
 49
-1.5
 74
     0
 49
3.0
 74
     0
 49
-1.5
 74
     0
  0
LTYPE
  5
275
330
D
100
AcDbSymbolTableRecord
100
AcDbLinetypeTableRecord
  2
Amconstr
 70
     0
  3
_______________________
 72
    65
 73
     2
 40
9999.0
 49
9999.0
 74
     0
 49
0.0
 74
     0
  0
LTYPE
  5
276
330
D
100
AcDbSymbolTableRecord
100
AcDbLinetypeTableRecord
  2
AM_ISO08W050x2
 70
     0
  3
__ . __ . __ . __ . __ . __
 72
    65
 73
     4
 40
9.0
 49
6.0
 74
     0
 49
-0.75
 74
     0
 49
1.5
 74
     0
 49
-0.75
 74
     0
  0
LTYPE
  5
277
330
D
100
AcDbSymbolTableRecord
100
AcDbLinetypeTableRecord
  2
AM_ISO02W050x2
 70
     0
  3
 _ _ _ _ _ _ _ _ _ _ _ _
 72
    65
 73
     2
 40
3.75
 49
3.0
 74
     0
 49
-0.75
 74
     0
  0
LTYPE
  5
27A
330
D
100
AcDbSymbolTableRecord
100
AcDbLinetypeTableRecord
  2
Amzigzag
 70
     0
  3
/\/-/\/-/\/-/\/-/\/-/\/
 72
    65
 73
     2
 40
11.0001
 49
0.0001
 74
     4
 75
   135
340
279
 46
0.04
 50
0.0
 44
0.0
 45
0.0
 49
-11.0
 74
     0
  0
LTYPE
  5
27B
330
D
100
AcDbSymbolTableRecord
100
AcDbLinetypeTableRecord
  2
HIDDEN
 70
     0
  3
Hidden __ __ __ __ __ __ __ __ __ __ __ __ __ _
 72
    65
 73
     2
 40
0.375
 49
0.25
 74
     0
 49
-0.125
 74
     0
  0
LTYPE
  5
27C
330
D
100
AcDbSymbolTableRecord
100
AcDbLinetypeTableRecord
  2
CENTER
 70
     0
  3
Center ____ _ ____ _ ____ _ ____ _ ____ _ ____
 72
    65
 73
     4
 40
2.0
 49
1.25
 74
     0
 49
-0.25
 74
     0
 49
0.25
 74
     0
 49
-0.25
 74
     0
  0
LTYPE
  5
27D
330
D
100
AcDbSymbolTableRecord
100
AcDbLinetypeTableRecord
  2
PHANTOM2
 70
     0
  3
Phantom (.5x) ___ _ _ ___ _ _ ___ _ _ ___ _ _
 72
    65
 73
     6
 40
1.25
 49
0.625
 74
     0
 49
-0.125
 74
     0
 49
0.125
 74
     0
 49
-0.125
 74
     0
 49
0.125
 74
     0
 49
-0.125
 74
     0
  0
LTYPE
  5
27E
330
D
100
AcDbSymbolTableRecord
100
AcDbLinetypeTableRecord
  2
HIDDEN2
 70
     0
  3
Hidden (.5x) _ _ _ _ _ _ _ _ _ _ _ _ _ _ _ _ _
 72
    65
 73
     2
 40
0.1875
 49
0.125
 74
     0
 49
-0.0625
 74
     0
  0
LTYPE
  5
27F
330
D
100
AcDbSymbolTableRecord
100
AcDbLinetypeTableRecord
  2
Amzigzag2
 70
     0
  3
/\/-/\/-/\/-/\/-/\/-/\/
 72
    65
 73
     2
 40
0.4401
 49
0.0001
 74
     4
 75
   135
340
279
 46
0.0016
 50
0.0
 44
0.0
 45
0.0
 49
-0.4400000000000001
 74
     0
  0
LTYPE
  5
28C
330
D
100
AcDbSymbolTableRecord
100
AcDbLinetypeTableRecord
  2
ACANSTGB
 70
     0
  3
__ . . __ . .
 72
    65
 73
     6
 40
0.35433070866
 49
0.15748031496
 74
     0
 49
-0.03937007874
 74
     0
 49
0.03937007874
 74
     0
 49
-0.03937007874
 74
     0
 49
0.03937007874
 74
     0
 49
-0.03937007874
 74
     0
  0
LTYPE
  5
28D
330
D
100
AcDbSymbolTableRecord
100
AcDbLinetypeTableRecord
  2
ACANSTGL
 70
     0
  3
_ _ _ _ _
 72
    65
 73
     2
 40
0.11811023622
 49
0.07874015748
 74
     0
 49
-0.03937007874
 74
     0
  0
LTYPE
  5
3FE
330
D
100
AcDbSymbolTableRecord
100
AcDbLinetypeTableRecord
  2
ACISOWELD
 70
     0
  3
_ _ _ _ _
 72
    65
 73
     2
 40
2.0
 49
2.0
 74
     0
 49
-1.0
 74
     0
  0
LTYPE
  5
3FF
330
D
100
AcDbSymbolTableRecord
100
AcDbLinetypeTableRecord
  2
ACISOTGB
 70
     0
  3
__ . . __ . .
 72
    65
 73
     6
 40
9.0
 49
4.0
 74
     0
 49
-1.0
 74
     0
 49
1.0
 74
     0
 49
-1.0
 74
     0
 49
1.0
 74
     0
 49
-1.0
 74
     0
  0
LTYPE
  5
400
330
D
100
AcDbSymbolTableRecord
100
AcDbLinetypeTableRecord
  2
ACISOTGL
 70
     0
  3
_ _ _ _ _
 72
    65
 73
     2
 40
3.0
 49
2.0
 74
     0
 49
-1.0
 74
     0
  0
LTYPE
  5
BB7
330
D
100
AcDbSymbolTableRecord
100
AcDbLinetypeTableRecord
  2
DASHED
 70
     0
  3
__ __ __ __ __ __ __ __ __ __ __ __ __ __ __ __
 72
    65
 73
     2
 40
0.75
 49
0.5
 74
     0
 49
-0.25
 74
     0
  0
ENDTAB
  0
TABLE
  2
LAYER
  5
A
102
{ACAD_XDICTIONARY
360
40D
102
}
330
0
100
AcDbSymbolTable
 70
     9
  0
LAYER
  5
4
330
A
100
AcDbSymbolTableRecord
100
AcDbLayerTableRecord
  2
0
 70
     0
 62
     2
  6
CONTINUOUS
370
    -3
390
CB
  0
LAYER
  5
1B
330
A
100
AcDbSymbolTableRecord
100
AcDbLayerTableRecord
  2
1
 70
     0
 62
     7
  6
CONTINUOUS
370
    -3
390
CB
  0
LAYER
  5
27
330
A
100
AcDbSymbolTableRecord
100
AcDbLayerTableRecord
  2
3
 70
     0
 62
     1
  6
CENTER2
370
    -3
390
CB
  0
LAYER
  5
D4
330
A
100
AcDbSymbolTableRecord
100
AcDbLayerTableRecord
  2
LOGO
 70
     0
 62
     7
  6
CONTINUOUS
370
    -3
390
CB
  0
LAYER
  5
401
330
A
100
AcDbSymbolTableRecord
100
AcDbLayerTableRecord
  2
AM_VIS
 70
     0
 62
     7
  6
CONTINUOUS
370
    50
390
CB
  0
LAYER
  5
7DF
330
A
100
AcDbSymbolTableRecord
100
AcDbLayerTableRecord
  2
Defpoints
 70
     0
 62
     7
  6
CONTINUOUS
290
     0
370
    -3
390
CB
  0
LAYER
  5
F2D
330
A
100
AcDbSymbolTableRecord
100
AcDbLayerTableRecord
  2
DIM
 70
     0
 62
     5
  6
CONTINUOUS
370
    -3
390
CB
  0
LAYER
  5
F2E
330
A
100
AcDbSymbolTableRecord
100
AcDbLayerTableRecord
  2
AM_4
 70
     0
 62
     3
  6
CONTINUOUS
370
    25
390
CB
  0
ENDTAB
  0
TABLE
  2
STYLE
  5
B
330
0
100
AcDbSymbolTable
 70
     8
  0
STYLE
  5
C
330
B
100
AcDbSymbolTableRecord
100
AcDbTextStyleTableRecord
  2
STANDARD
 70
     0
 40
0.0
 41
1.0
 50
0.0
 71
     0
 42
3.5
  3
ISOCP.SHX
  4

  0
STYLE
  5
1C
330
B
100
AcDbSymbolTableRecord
100
AcDbTextStyleTableRecord
  2
CHINA
 70
     0
 40
0.0
 41
1.0
 50
0.0
 71
     0
 42
3.0
  3
/rubon/c2
  4
CHINA.SHX
  0
STYLE
  5
D5
330
B
100
AcDbSymbolTableRecord
100
AcDbTextStyleTableRecord
  2
chineset
 70
     0
 40
0.0
 41
1.0
 50
0.0
 71
     0
 42
5.0
  3
simplex.shx
  4
chineset.shx
  0
STYLE
  5
279
330
B
100
AcDbSymbolTableRecord
100
AcDbTextStyleTableRecord
  2

 70
     1
 40
0.0
 41
1.0
 50
0.0
 71
     0
 42
3.0
  3
ltypeshp.shx
  4

  0
STYLE
  5
280
330
B
100
AcDbSymbolTableRecord
100
AcDbTextStyleTableRecord
  2
ACANSTS
 70
     0
 40
1.0
 41
1.0
 50
0.0
 71
     0
 42
3.0
  3
romans.shx
  4
chineset.shx
  0
STYLE
  5
28B
330
B
100
AcDbSymbolTableRecord
100
AcDbTextStyleTableRecord
  2
ACANSGDT
 70
     0
 40
0.0
 41
1.0
 50
0.0
 71
     0
 42
3.0
  3
amgdtans.shx
  4

  0
STYLE
  5
402
330
B
100
AcDbSymbolTableRecord
100
AcDbTextStyleTableRecord
  2
ACISOTS
 70
     0
 40
1.0
 41
1.0
 50
0.0
 71
     0
 42
1.0
  3
isocp.shx
  4
chineset.shx
  0
STYLE
  5
403
330
B
100
AcDbSymbolTableRecord
100
AcDbTextStyleTableRecord
  2
ACISOGDT
 70
     0
 40
0.0
 41
1.0
 50
0.0
 71
     0
 42
1.0
  3
amgdt.shx
  4

  0
ENDTAB
  0
TABLE
  2
VIEW
  5
10
330
0
100
AcDbSymbolTable
 70
     0
  0
ENDTAB
  0
TABLE
  2
UCS
  5
11
330
0
100
AcDbSymbolTable
 70
     0
  0
ENDTAB
  0
TABLE
  2
APPID
  5
14
330
0
100
AcDbSymbolTable
 70
    23
  0
APPID
  5
15
330
14
100
AcDbSymbolTableRecord
100
AcDbRegAppTableRecord
  2
ACAD
 70
     0
  0
APPID
  5
254
330
14
100
AcDbSymbolTableRecord
100
AcDbRegAppTableRecord
  2
MCAD_NO_VIS
 70
     0
  0
APPID
  5
255
330
14
100
AcDbSymbolTableRecord
100
AcDbRegAppTableRecord
  2
ACAD_TEMP_GRAPHIC
 70
     0
  0
APPID
  5
266
330
14
100
AcDbSymbolTableRecord
100
AcDbRegAppTableRecord
  2
ACATTRIBSERVICES
 70
     0
  0
APPID
  5
31D
330
14
100
AcDbSymbolTableRecord
100
AcDbRegAppTableRecord
  2
GENIUS_GENDIM_13
 70
     0
  0
APPID
  5
31E
330
14
100
AcDbSymbolTableRecord
100
AcDbRegAppTableRecord
  2
GENIUS_GENDTOL_13
 70
     0
  0
APPID
  5
31F
330
14
100
AcDbSymbolTableRecord
100
AcDbRegAppTableRecord
  2
GENIUS_GE3DTOL_13
 70
     0
  0
APPID
  5
34F
330
14
100
AcDbSymbolTableRecord
100
AcDbRegAppTableRecord
  2
AD_DRAW
 70
     0
  0
APPID
  5
39B
330
14
100
AcDbSymbolTableRecord
100
AcDbRegAppTableRecord
  2
ASURF_PCURVE_APPNAME
 70
     0
  0
APPID
  5
3A0
330
14
100
AcDbSymbolTableRecord
100
AcDbRegAppTableRecord
  2
AMG_3D2D_5.0
 70
     0
  0
APPID
  5
3CF
330
14
100
AcDbSymbolTableRecord
100
AcDbRegAppTableRecord
  2
DESIGNERASSEMBLIES
 70
     0
  0
APPID
  5
3D5
330
14
100
AcDbSymbolTableRecord
100
AcDbRegAppTableRecord
  2
ACADM_DIM_EDIT
 70
     0
  0
APPID
  5
3D6
330
14
100
AcDbSymbolTableRecord
100
AcDbRegAppTableRecord
  2
AMDT_DM_ADJ
 70
     0
  0
APPID
  5
87B
330
14
100
AcDbSymbolTableRecord
100
AcDbRegAppTableRecord
  2
ACAD_PSEXT
 70
     0
  0
APPID
  5
87C
330
14
100
AcDbSymbolTableRecord
100
AcDbRegAppTableRecord
  2
GENIUS_GENOBJ-N-CRS_13
 70
     0
  0
APPID
  5
87D
330
14
100
AcDbSymbolTableRecord
100
AcDbRegAppTableRecord
  2
GENIUS_GENOLIS_13
 70
     0
  0
APPID
  5
87E
330
14
100
AcDbSymbolTableRecord
100
AcDbRegAppTableRecord
  2
GENIUS_GENOENT_13
 70
     0
  0
APPID
  5
87F
330
14
100
AcDbSymbolTableRecord
100
AcDbRegAppTableRecord
  2
GENIUS_GENODEF_13
 70
     0
  0
APPID
  5
880
330
14
100
AcDbSymbolTableRecord
100
AcDbRegAppTableRecord
  2
GENIUS_GENOREF_13
 70
     0
  0
APPID
  5
881
330
14
100
AcDbSymbolTableRecord
100
AcDbRegAppTableRecord
  2
GENIUS_GENREC_14
 70
     0
  0
APPID
  5
882
330
14
100
AcDbSymbolTableRecord
100
AcDbRegAppTableRecord
  2
GENIUS_GENOBJ-N-REC_13
 70
     0
  0
APPID
  5
9A5
330
14
100
AcDbSymbolTableRecord
100
AcDbRegAppTableRecord
  2
ACAD_DSTYLE_DIMTEXT_FILL
 70
     0
  0
APPID
  5
DC7
330
14
100
AcDbSymbolTableRecord
100
AcDbRegAppTableRecord
  2
GENIUS_GENDIMSH_14
 70
     0
  0
ENDTAB
  0
TABLE
  2
DIMSTYLE
  5
16
330
0
100
AcDbSymbolTable
 70
    20
100
AcDbDimStyleTable
 71
     2
340
406
340
1E
  0
DIMSTYLE
105
1E
330
16
100
AcDbSymbolTableRecord
100
AcDbDimStyleTableRecord
  2
STANDARD
 70
     0
271
     2
272
     2
279
     2
284
     8
285
     8
286
     8
340
1C
  0
DIMSTYLE
105
291
330
16
100
AcDbSymbolTableRecord
100
AcDbDimStyleTableRecord
  2
AM_ANSI
 70
     0
  4
mm
 41
0.1
 42
0.05
 43
0.5
 44
0.1
 47
0.1
 48
0.1
 78
     7
 79
     2
140
0.12
141
0.0
146
0.71
147
0.06
176
   256
177
   256
178
     2
274
     4
284
     7
340
C
371
    -1
372
    -1
  0
DIMSTYLE
105
292
330
16
100
AcDbSymbolTableRecord
100
AcDbDimStyleTableRecord
  2
AM_ANSI$3
 70
     0
  4
mm
 41
0.1
 42
0.05
 43
0.5
 44
0.1
 47
0.1
 48
0.1
 78
     7
 79
     2
140
0.12
141
0.0
146
0.71
147
0.06
176
   256
177
   256
178
     2
274
     4
284
     7
288
     1
289
     0
340
C
371
    -1
372
    -1
  0
DIMSTYLE
105
293
330
16
100
AcDbSymbolTableRecord
100
AcDbDimStyleTableRecord
  2
AM_ANSI$4
 70
     0
  4
mm
 41
0.1
 42
0.05
 43
0.5
 44
0.1
 47
0.1
 48
0.1
 78
     7
 79
     2
140
0.12
141
0.0
146
0.71
147
0.06
176
   256
177
   256
178
     2
274
     4
284
     7
288
     1
289
     0
340
C
371
    -1
372
    -1
  0
DIMSTYLE
105
294
330
16
100
AcDbSymbolTableRecord
100
AcDbDimStyleTableRecord
  2
AM_ANSI$7
 70
     0
  4
mm
 41
0.1
 42
0.05
 43
0.5
 44
0.1
 47
0.1
 48
0.1
 78
     7
 79
     2
140
0.24
141
0.0
146
0.71
147
0.06
176
   256
177
   256
178
     2
274
     4
284
     7
340
C
371
    -1
372
    -1
  0
DIMSTYLE
105
295
330
16
100
AcDbSymbolTableRecord
100
AcDbDimStyleTableRecord
  2
AM_ANSI$SF
 70
     0
  4
mm
 41
0.1
 42
0.05
 43
0.5
 44
0.1
 47
0.1
 48
0.1
 75
     1
 76
     1
 78
     7
 79
     2
140
0.12
141
0.0
146
0.71
147
0.06
176
   256
177
   256
178
     2
274
     4
284
     7
340
C
371
    -1
372
    -1
  0
DIMSTYLE
105
29A
330
16
100
AcDbSymbolTableRecord
100
AcDbDimStyleTableRecord
  2
AM_ANSI$SH
 70
     0
  4
mm
 41
0.1
 42
0.05
 43
0.5
 44
0.1
 47
0.1
 48
0.1
 75
     1
 76
     1
 78
     7
 79
     2
140
0.12
141
0.0
146
0.71
147
0.06
173
     1
176
   256
177
   256
178
     2
274
     4
284
     7
340
C
341
296
343
296
371
    -1
372
    -1
  0
DIMSTYLE
105
406
330
16
100
AcDbSymbolTableRecord
100
AcDbDimStyleTableRecord
  2
AM_ISO
 70
     0
  4
"
 41
3.5
 42
1.0
 43
8.0
 44
1.0
 47
0.1
 48
0.1
 73
     0
 74
     0
 77
     1
 78
     8
 79
     2
140
3.5
141
0.0
143
0.0393701
146
0.71
147
1.0
172
     1
176
   256
177
   256
178
   256
271
     2
272
     2
283
     0
284
     8
285
     8
340
C
371
    -1
372
    -1
  0
DIMSTYLE
105
407
330
16
100
AcDbSymbolTableRecord
100
AcDbDimStyleTableRecord
  2
AM_ISO$SF
 70
     0
  4
"
 41
2.5
 42
1.0
 43
10.0
 44
1.0
 47
0.1
 48
0.1
 73
     0
 74
     0
 75
     1
 76
     1
 77
     1
 78
     8
 79
     2
140
3.5
141
0.0
143
0.0393701
146
0.71
147
1.0
172
     1
176
   256
177
   256
178
   256
271
     2
272
     2
283
     0
284
     8
340
C
371
    -1
372
    -1
  0
DIMSTYLE
105
408
330
16
100
AcDbSymbolTableRecord
100
AcDbDimStyleTableRecord
  2
AM_ISO$SH
 70
     0
  4
"
 41
2.5
 42
1.0
 43
10.0
 44
1.0
 47
0.1
 48
0.1
 73
     0
 74
     0
 75
     1
 76
     1
 77
     1
 78
     8
 79
     2
140
3.5
141
0.0
143
0.0393701
144
2.0
146
0.71
147
1.0
172
     1
173
     1
176
   256
177
   256
178
   256
271
     2
272
     2
283
     0
284
     8
340
C
343
296
371
    -1
372
    -1
  0
DIMSTYLE
105
409
102
{ACAD_REACTORS
330
10A1
330
10A5
102
}
330
16
100
AcDbSymbolTableRecord
100
AcDbDimStyleTableRecord
  2
AM_ISO$3
 70
     0
  4
"
 41
3.5
 42
1.0
 43
8.0
 44
1.0
 47
0.1
 48
0.1
 73
     0
 77
     1
 78
     8
 79
     2
140
3.5
141
0.0
143
0.0393701
146
0.71
147
1.0
176
   256
177
   256
178
   256
271
     2
272
     2
283
     0
284
     8
285
     8
288
     1
289
     0
340
C
371
    -1
372
    -1
  0
DIMSTYLE
105
40A
330
16
100
AcDbSymbolTableRecord
100
AcDbDimStyleTableRecord
  2
AM_ISO$4
 70
     0
  4
"
 41
3.5
 42
1.0
 43
8.0
 44
1.0
 47
0.1
 48
0.1
 73
     0
 77
     1
 78
     8
 79
     2
140
3.5
141
0.0
143
0.0393701
146
0.71
147
1.0
176
   256
177
   256
178
   256
271
     2
272
     2
283
     0
284
     8
285
     8
288
     1
289
     0
340
C
371
    -1
372
    -1
  0
DIMSTYLE
105
40B
330
16
100
AcDbSymbolTableRecord
100
AcDbDimStyleTableRecord
  2
AM_ISO$6
 70
     0
  4
"
 41
3.5
 42
1.0
 43
8.0
 44
1.0
 47
0.1
 48
0.1
 73
     0
 74
     0
 78
     8
 79
     2
140
3.5
141
0.0
143
0.0393701
146
0.71
147
1.0
172
     1
176
   256
177
   256
178
   256
271
     2
272
     2
283
     0
284
     8
285
     8
340
C
371
    -1
372
    -1
  0
DIMSTYLE
105
40C
102
{ACAD_REACTORS
330
E42
102
}
330
16
100
AcDbSymbolTableRecord
100
AcDbDimStyleTableRecord
  2
AM_ISO$7
 70
     0
  4
"
 41
3.5
 42
1.0
 43
8.0
 44
1.0
 47
0.1
 48
0.1
 73
     0
 74
     0
 77
     1
 78
     8
 79
     2
140
5.0
141
0.0
143
0.0393701
146
0.71
147
1.5
172
     1
176
   256
177
   256
178
   256
271
     2
272
     2
283
     0
284
     8
285
     8
340
C
371
    -1
372
    -1
  0
DIMSTYLE
105
7DA
330
16
100
AcDbSymbolTableRecord
100
AcDbDimStyleTableRecord
  2
STANDARD$0
 70
     0
271
     2
272
     2
279
     2
284
     8
285
     8
286
     8
340
1C
  0
DIMSTYLE
105
B8F
102
{ACAD_REACTORS
330
1092
330
1095
330
1098
330
109B
330
109E
330
10AA
330
10AD
330
10B0
330
10B3
330
10B6
330
10B9
330
10BC
330
10BF
102
}
330
16
100
AcDbSymbolTableRecord
100
AcDbDimStyleTableRecord
  2
AM_ISO$0
 70
     0
  4
"
 41
3.5
 42
1.0
 43
8.0
 44
1.0
 47
0.1
 48
0.1
 73
     0
 74
     0
 77
     1
 78
     8
 79
     2
140
3.5
141
0.0
143
0.0393701
146
0.71
147
1.0
172
     1
176
   256
177
   256
178
   256
271
     2
272
     2
283
     0
284
     8
285
     8
340
C
371
    -1
372
    -1
  0
ENDTAB
  0
TABLE
  2
BLOCK_RECORD
  5
1
330
0
100
AcDbSymbolTable
 70
    57
  0
BLOCK_RECORD
  5
2
102
{ACAD_XDICTIONARY
360
226
102
}
330
1
100
AcDbSymbolTableRecord
100
AcDbBlockTableRecord
  2
*MODEL_SPACE
340
CE
  0
BLOCK_RECORD
  5
7
102
{ACAD_XDICTIONARY
360
228
102
}
330
1
100
AcDbSymbolTableRecord
100
AcDbBlockTableRecord
  2
*PAPER_SPACE
340
CF
  0
BLOCK_RECORD
  5
296
330
1
100
AcDbSymbolTableRecord
100
AcDbBlockTableRecord
  2
GENAXEH
340
0
  0
BLOCK_RECORD
  5
3C6
330
1
100
AcDbSymbolTableRecord
100
AcDbBlockTableRecord
  2
*U1
340
0
  0
BLOCK_RECORD
  5
9FC
330
1
100
AcDbSymbolTableRecord
100
AcDbBlockTableRecord
  2
*U6
340
0
102
{BLKREFS
331
A0E
331
A0F
331
A13
102
}
  0
BLOCK_RECORD
  5
A00
330
1
100
AcDbSymbolTableRecord
100
AcDbBlockTableRecord
  2
*U7
340
0
102
{BLKREFS
331
A10
102
}
  0
BLOCK_RECORD
  5
A04
330
1
100
AcDbSymbolTableRecord
100
AcDbBlockTableRecord
  2
*U8
340
0
102
{BLKREFS
331
A11
102
}
  0
BLOCK_RECORD
  5
A08
330
1
100
AcDbSymbolTableRecord
100
AcDbBlockTableRecord
  2
*U9
340
0
102
{BLKREFS
331
A12
102
}
  0
BLOCK_RECORD
  5
A0C
330
1
100
AcDbSymbolTableRecord
100
AcDbBlockTableRecord
  2
*U10
340
0
  0
BLOCK_RECORD
  5
10C2
330
1
100
AcDbSymbolTableRecord
100
AcDbBlockTableRecord
  2
*D42
340
0
  0
BLOCK_RECORD
  5
10CE
330
1
100
AcDbSymbolTableRecord
100
AcDbBlockTableRecord
  2
*D43
340
0
  0
BLOCK_RECORD
  5
10DC
330
1
100
AcDbSymbolTableRecord
100
AcDbBlockTableRecord
  2
*D44
340
0
  0
BLOCK_RECORD
  5
10EA
330
1
100
AcDbSymbolTableRecord
100
AcDbBlockTableRecord
  2
*D45
340
0
  0
BLOCK_RECORD
  5
10F8
330
1
100
AcDbSymbolTableRecord
100
AcDbBlockTableRecord
  2
*D46
340
0
  0
BLOCK_RECORD
  5
1104
330
1
100
AcDbSymbolTableRecord
100
AcDbBlockTableRecord
  2
*D47
340
0
  0
BLOCK_RECORD
  5
110D
330
1
100
AcDbSymbolTableRecord
100
AcDbBlockTableRecord
  2
*D48
340
0
  0
BLOCK_RECORD
  5
1116
330
1
100
AcDbSymbolTableRecord
100
AcDbBlockTableRecord
  2
*D49
340
0
  0
BLOCK_RECORD
  5
1122
330
1
100
AcDbSymbolTableRecord
100
AcDbBlockTableRecord
  2
*D50
340
0
  0
BLOCK_RECORD
  5
1130
330
1
100
AcDbSymbolTableRecord
100
AcDbBlockTableRecord
  2
*D51
340
0
  0
BLOCK_RECORD
  5
113E
330
1
100
AcDbSymbolTableRecord
100
AcDbBlockTableRecord
  2
*D52
340
0
  0
BLOCK_RECORD
  5
114A
330
1
100
AcDbSymbolTableRecord
100
AcDbBlockTableRecord
  2
*D53
340
0
  0
BLOCK_RECORD
  5
1156
330
1
100
AcDbSymbolTableRecord
100
AcDbBlockTableRecord
  2
*D54
340
0
  0
BLOCK_RECORD
  5
1162
330
1
100
AcDbSymbolTableRecord
100
AcDbBlockTableRecord
  2
*D55
340
0
  0
BLOCK_RECORD
  5
116E
330
1
100
AcDbSymbolTableRecord
100
AcDbBlockTableRecord
  2
*D56
340
0
  0
ENDTAB
  0
ENDSEC
  0
SECTION
  2
BLOCKS
  0
BLOCK
  5
3
330
2
100
AcDbEntity
  8
0
100
AcDbBlockBegin
  2
*MODEL_SPACE
 70
     0
 10
0.0
 20
0.0
 30
0.0
  3
*MODEL_SPACE
  1

  0
ENDBLK
  5
6
330
2
100
AcDbEntity
  8
0
100
AcDbBlockEnd
  0
BLOCK
  5
8
330
7
100
AcDbEntity
 67
     1
  8
0
100
AcDbBlockBegin
  2
*PAPER_SPACE
 70
     0
 10
0.0
 20
0.0
 30
0.0
  3
*PAPER_SPACE
  1

  0
ENDBLK
  5
9
330
7
100
AcDbEntity
 67
     1
  8
0
100
AcDbBlockEnd
  0
BLOCK
  5
298
330
296
100
AcDbEntity
  8
0
100
AcDbBlockBegin
  2
GENAXEH
 70
     0
 10
0.0
 20
0.0
 30
0.0
  3
GENAXEH
  1

  0
LINE
  5
297
330
296
100
AcDbEntity
  8
0
100
AcDbLine
 10
-1.0
 20
0.0
 30
0.0
 11
1.0
 21
0.0
 31
0.0
  0
ENDBLK
  5
299
330
296
100
AcDbEntity
  8
0
100
AcDbBlockEnd
  0
BLOCK
  5
3C7
330
3C6
100
AcDbEntity
  8
0
100
AcDbBlockBegin
  2
*U1
 70
     1
 10
0.0
 20
0.0
 30
0.0
  3
*U1
  1

  0
ENDBLK
  5
3C8
330
3C6
100
AcDbEntity
  8
0
100
AcDbBlockEnd
  0
BLOCK
  5
9FD
330
9FC
100
AcDbEntity
  8
0
100
AcDbBlockBegin
  2
*U6
 70
     1
 10
0.0
 20
0.0
 30
0.0
  3
*U6
  1

  0
ENDBLK
  5
9FF
330
9FC
100
AcDbEntity
  8
0
100
AcDbBlockEnd
  0
BLOCK
  5
A01
330
A00
100
AcDbEntity
  8
0
100
AcDbBlockBegin
  2
*U7
 70
     1
 10
0.0
 20
0.0
 30
0.0
  3
*U7
  1

  0
ENDBLK
  5
A03
330
A00
100
AcDbEntity
  8
0
100
AcDbBlockEnd
  0
BLOCK
  5
A05
330
A04
100
AcDbEntity
  8
0
100
AcDbBlockBegin
  2
*U8
 70
     1
 10
0.0
 20
0.0
 30
0.0
  3
*U8
  1

  0
ENDBLK
  5
A07
330
A04
100
AcDbEntity
  8
0
100
AcDbBlockEnd
  0
BLOCK
  5
A09
330
A08
100
AcDbEntity
  8
0
100
AcDbBlockBegin
  2
*U9
 70
     1
 10
0.0
 20
0.0
 30
0.0
  3
*U9
  1

  0
ENDBLK
  5
A0B
330
A08
100
AcDbEntity
  8
0
100
AcDbBlockEnd
  0
BLOCK
  5
A0D
330
A0C
100
AcDbEntity
  8
0
100
AcDbBlockBegin
  2
*U10
 70
     1
 10
0.0
 20
0.0
 30
0.0
  3
*U10
  1

  0
ENDBLK
  5
A14
330
A0C
100
AcDbEntity
  8
0
100
AcDbBlockEnd
  0
BLOCK
  5
10CC
330
10C2
100
AcDbEntity
  8
0
100
AcDbBlockBegin
  2
*D42
 70
     1
 10
0.0
 20
0.0
 30
0.0
  3
*D42
  1

  0
LINE
  5
1186
330
10C2
100
AcDbEntity
  8
DIM
100
AcDbLine
 10
659.1927056600516
 20
-90.06601263319529
 30
0.0
 11
659.1927056600516
 21
-104.063453499776
 31
0.0
  0
LINE
  5
1187
330
10C2
100
AcDbEntity
  8
DIM
100
AcDbLine
 10
619.6927056600515
 20
-92.06345249976582
 30
0.0
 11
619.6927056600515
 21
-104.063453499776
 31
0.0
  0
LINE
  5
1188
330
10C2
100
AcDbEntity
  8
DIM
100
AcDbLine
 10
655.6927056600516
 20
-103.063453499776
 30
0.0
 11
623.1927056600516
 21
-103.063453499776
 31
0.0
  0
SOLID
  5
1189
330
10C2
100
AcDbEntity
  8
DIM
100
AcDbTrace
 10
655.6927056600516
 20
-102.4801201664427
 30
0.0
 11
655.6927056600516
 21
-103.6467868331093
 31
0.0
 12
659.1927056600516
 22
-103.063453499776
 32
0.0
 13
659.1927056600516
 23
-103.063453499776
 33
0.0
  0
SOLID
  5
118A
330
10C2
100
AcDbEntity
  8
DIM
100
AcDbTrace
 10
623.1927056600516
 20
-102.4801201664427
 30
0.0
 11
623.1927056600516
 21
-103.6467868331093
 31
0.0
 12
619.6927056600515
 22
-103.063453499776
 32
0.0
 13
619.6927056600515
 23
-103.063453499776
 33
0.0
  0
MTEXT
  5
118B
330
10C2
100
AcDbEntity
  8
DIM
100
AcDbMText
 10
639.4427056600516
 20
-100.313453499776
 30
0.0
 40
3.5
 41
0.0
 71
     5
 72
     1
  1
39.5
 73
     1
 44
1.0
  0
POINT
  5
118C
330
10C2
100
AcDbEntity
  8
Defpoints
 62
     0
100
AcDbPoint
 10
659.1927056600516
 20
-89.06601263319529
 30
0.0
  0
POINT
  5
118D
330
10C2
100
AcDbEntity
  8
Defpoints
 62
     0
100
AcDbPoint
 10
619.6927056600515
 20
-91.06345249976582
 30
0.0
  0
POINT
  5
118E
330
10C2
100
AcDbEntity
  8
Defpoints
 62
     0
100
AcDbPoint
 10
619.6927056600515
 20
-103.063453499776
 30
0.0
  0
ENDBLK
  5
10CD
330
10C2
100
AcDbEntity
  8
0
100
AcDbBlockEnd
  0
BLOCK
  5
10DA
330
10CE
100
AcDbEntity
  8
0
100
AcDbBlockBegin
  2
*D43
 70
     1
 10
0.0
 20
0.0
 30
0.0
  3
*D43
  1

  0
LINE
  5
118F
330
10CE
100
AcDbEntity
  8
DIM
100
AcDbLine
 10
600.6927056600516
 20
-33.06601263319541
 30
0.0
 11
600.6927056600516
 21
3.933987366805268
 31
0.0
  0
LINE
  5
1190
330
10CE
100
AcDbEntity
  8
DIM
100
AcDbLine
 10
602.6927056600515
 20
-8.066012633195299
 30
0.0
 11
602.6927056600515
 21
3.933987366805268
 31
0.0
  0
LINE
  5
1191
330
10CE
100
AcDbEntity
  8
DIM
100
AcDbLine
 10
597.1927056600516
 20
2.933987366805268
 30
0.0
 11
593.6927056600516
 21
2.933987366805268
 31
0.0
  0
LINE
  5
1192
330
10CE
100
AcDbEntity
  8
DIM
100
AcDbLine
 10
606.1927056600516
 20
2.933987366805268
 30
0.0
 11
609.6927056600516
 21
2.933987366805268
 31
0.0
  0
LINE
  5
1193
330
10CE
100
AcDbEntity
  8
DIM
100
AcDbLine
 10
600.6927056600516
 20
2.933987366805268
 30
0.0
 11
602.6927056600515
 21
2.933987366805268
 31
0.0
  0
SOLID
  5
1194
330
10CE
100
AcDbEntity
  8
DIM
100
AcDbTrace
 10
597.1927056600516
 20
3.517320700138601
 30
0.0
 11
597.1927056600516
 21
2.350654033471935
 31
0.0
 12
600.6927056600516
 22
2.933987366805268
 32
0.0
 13
600.6927056600516
 23
2.933987366805268
 33
0.0
  0
SOLID
  5
1195
330
10CE
100
AcDbEntity
  8
DIM
100
AcDbTrace
 10
606.1927056600516
 20
3.517320700138601
 30
0.0
 11
606.1927056600516
 21
2.350654033471935
 31
0.0
 12
602.6927056600515
 22
2.933987366805268
 32
0.0
 13
602.6927056600515
 23
2.933987366805268
 33
0.0
  0
MTEXT
  5
1196
330
10CE
100
AcDbEntity
  8
DIM
100
AcDbMText
 10
601.6927056600516
 20
5.684331854994244
 30
0.0
 40
3.5
 41
0.0
 71
     5
 72
     1
  1
2
 73
     1
 44
1.0
  0
POINT
  5
1197
330
10CE
100
AcDbEntity
  8
Defpoints
 62
     0
100
AcDbPoint
 10
600.6927056600516
 20
-34.06601263319541
 30
0.0
  0
POINT
  5
1198
330
10CE
100
AcDbEntity
  8
Defpoints
 62
     0
100
AcDbPoint
 10
602.6927056600515
 20
-9.066012633195299
 30
0.0
  0
POINT
  5
1199
330
10CE
100
AcDbEntity
  8
Defpoints
 62
     0
100
AcDbPoint
 10
602.6927056600515
 20
2.933987366805268
 30
0.0
  0
ENDBLK
  5
10DB
330
10CE
100
AcDbEntity
  8
0
100
AcDbBlockEnd
  0
BLOCK
  5
10E8
330
10DC
100
AcDbEntity
  8
0
100
AcDbBlockBegin
  2
*D44
 70
     1
 10
0.0
 20
0.0
 30
0.0
  3
*D44
  1

  0
LINE
  5
119A
330
10DC
100
AcDbEntity
  8
DIM
100
AcDbLine
 10
605.7427056600513
 20
-92.06345249976582
 30
0.0
 11
605.7427056600513
 21
-111.5463559976349
 31
0.0
  0
LINE
  5
119B
330
10DC
100
AcDbEntity
  8
DIM
100
AcDbLine
 10
608.7427056600513
 20
-82.06345249976582
 30
0.0
 11
608.7427056600513
 21
-111.5463559976349
 31
0.0
  0
LINE
  5
119C
330
10DC
100
AcDbEntity
  8
DIM
100
AcDbLine
 10
602.2427056600513
 20
-110.5463559976349
 30
0.0
 11
598.7427056600513
 21
-110.5463559976349
 31
0.0
  0
LINE
  5
119D
330
10DC
100
AcDbEntity
  8
DIM
100
AcDbLine
 10
612.2427056600513
 20
-110.5463559976349
 30
0.0
 11
615.7427056600513
 21
-110.5463559976349
 31
0.0
  0
LINE
  5
119E
330
10DC
100
AcDbEntity
  8
DIM
100
AcDbLine
 10
605.7427056600513
 20
-110.5463559976349
 30
0.0
 11
608.7427056600513
 21
-110.5463559976349
 31
0.0
  0
SOLID
  5
119F
330
10DC
100
AcDbEntity
  8
DIM
100
AcDbTrace
 10
602.2427056600513
 20
-109.9630226643015
 30
0.0
 11
602.2427056600513
 21
-111.1296893309682
 31
0.0
 12
605.7427056600513
 22
-110.5463559976349
 32
0.0
 13
605.7427056600513
 23
-110.5463559976349
 33
0.0
  0
SOLID
  5
11A0
330
10DC
100
AcDbEntity
  8
DIM
100
AcDbTrace
 10
612.2427056600513
 20
-109.9630226643015
 30
0.0
 11
612.2427056600513
 21
-111.1296893309682
 31
0.0
 12
608.7427056600513
 22
-110.5463559976349
 32
0.0
 13
608.7427056600513
 23
-110.5463559976349
 33
0.0
  0
MTEXT
  5
11A1
330
10DC
100
AcDbEntity
  8
DIM
100
AcDbMText
 10
607.2427056600513
 20
-107.7963559976349
 30
0.0
 40
3.5
 41
0.0
 71
     5
 72
     1
  1
3
 73
     1
 44
1.0
  0
POINT
  5
11A2
330
10DC
100
AcDbEntity
  8
Defpoints
 62
     0
100
AcDbPoint
 10
605.7427056600513
 20
-91.06345249976582
 30
0.0
  0
POINT
  5
11A3
330
10DC
100
AcDbEntity
  8
Defpoints
 62
     0
100
AcDbPoint
 10
608.7427056600513
 20
-81.06345249976582
 30
0.0
  0
POINT
  5
11A4
330
10DC
100
AcDbEntity
  8
Defpoints
 62
     0
100
AcDbPoint
 10
608.7427056600513
 20
-110.5463559976349
 30
0.0
  0
ENDBLK
  5
10E9
330
10DC
100
AcDbEntity
  8
0
100
AcDbBlockEnd
  0
BLOCK
  5
10F6
330
10EA
100
AcDbEntity
  8
0
100
AcDbBlockBegin
  2
*D45
 70
     1
 10
0.0
 20
0.0
 30
0.0
  3
*D45
  1

  0
LINE
  5
11A5
330
10EA
100
AcDbEntity
  8
DIM
100
AcDbLine
 10
602.6927056600515
 20
-90.06601263319542
 30
0.0
 11
602.6927056600515
 21
-104.0634534997755
 31
0.0
  0
LINE
  5
11A6
330
10EA
100
AcDbEntity
  8
DIM
100
AcDbLine
 10
605.7427056600513
 20
-92.06345249976582
 30
0.0
 11
605.7427056600513
 21
-104.0634534997755
 31
0.0
  0
LINE
  5
11A7
330
10EA
100
AcDbEntity
  8
DIM
100
AcDbLine
 10
599.1927056600516
 20
-103.0634534997755
 30
0.0
 11
595.6927056600516
 21
-103.0634534997755
 31
0.0
  0
LINE
  5
11A8
330
10EA
100
AcDbEntity
  8
DIM
100
AcDbLine
 10
609.2427056600513
 20
-103.0634534997755
 30
0.0
 11
612.7427056600513
 21
-103.0634534997755
 31
0.0
  0
LINE
  5
11A9
330
10EA
100
AcDbEntity
  8
DIM
100
AcDbLine
 10
602.6927056600515
 20
-103.0634534997755
 30
0.0
 11
605.7427056600513
 21
-103.0634534997755
 31
0.0
  0
SOLID
  5
11AA
330
10EA
100
AcDbEntity
  8
DIM
100
AcDbTrace
 10
599.1927056600516
 20
-102.4801201664421
 30
0.0
 11
599.1927056600516
 21
-103.6467868331088
 31
0.0
 12
602.6927056600515
 22
-103.0634534997755
 32
0.0
 13
602.6927056600515
 23
-103.0634534997755
 33
0.0
  0
SOLID
  5
11AB
330
10EA
100
AcDbEntity
  8
DIM
100
AcDbTrace
 10
609.2427056600513
 20
-102.4801201664421
 30
0.0
 11
609.2427056600513
 21
-103.6467868331088
 31
0.0
 12
605.7427056600513
 22
-103.0634534997755
 32
0.0
 13
605.7427056600513
 23
-103.0634534997755
 33
0.0
  0
MTEXT
  5
11AC
330
10EA
100
AcDbEntity
  8
DIM
100
AcDbMText
 10
604.2177056600515
 20
-100.3134534997754
 30
0.0
 40
3.5
 41
0.0
 71
     5
 72
     1
  1
3
 73
     1
 44
1.0
  0
POINT
  5
11AD
330
10EA
100
AcDbEntity
  8
Defpoints
 62
     0
100
AcDbPoint
 10
602.6927056600515
 20
-89.06601263319542
 30
0.0
  0
POINT
  5
11AE
330
10EA
100
AcDbEntity
  8
Defpoints
 62
     0
100
AcDbPoint
 10
605.7427056600513
 20
-91.06345249976582
 30
0.0
  0
POINT
  5
11AF
330
10EA
100
AcDbEntity
  8
Defpoints
 62
     0
100
AcDbPoint
 10
605.7427056600513
 20
-103.0634534997755
 30
0.0
  0
ENDBLK
  5
10F7
330
10EA
100
AcDbEntity
  8
0
100
AcDbBlockEnd
  0
BLOCK
  5
1102
330
10F8
100
AcDbEntity
  8
0
100
AcDbBlockBegin
  2
*D46
 70
     1
 10
0.0
 20
0.0
 30
0.0
  3
*D46
  1

  0
LINE
  5
11B0
330
10F8
100
AcDbEntity
  8
DIM
100
AcDbLine
 10
602.6927056600515
 20
-8.066012633195299
 30
0.0
 11
602.6927056600515
 21
3.933987366804586
 31
0.0
  0
LINE
  5
11B1
330
10F8
100
AcDbEntity
  8
DIM
100
AcDbLine
 10
659.1927056600516
 20
-8.066012633195299
 30
0.0
 11
659.1927056600516
 21
3.933987366804586
 31
0.0
  0
LINE
  5
11B2
330
10F8
100
AcDbEntity
  8
DIM
100
AcDbLine
 10
606.1927056600516
 20
2.933987366804586
 30
0.0
 11
655.6927056600516
 21
2.933987366804586
 31
0.0
  0
SOLID
  5
11B3
330
10F8
100
AcDbEntity
  8
DIM
100
AcDbTrace
 10
606.1927056600516
 20
3.517320700137919
 30
0.0
 11
606.1927056600516
 21
2.350654033471253
 31
0.0
 12
602.6927056600515
 22
2.933987366804586
 32
0.0
 13
602.6927056600515
 23
2.933987366804586
 33
0.0
  0
SOLID
  5
11B4
330
10F8
100
AcDbEntity
  8
DIM
100
AcDbTrace
 10
655.6927056600516
 20
3.517320700137919
 30
0.0
 11
655.6927056600516
 21
2.350654033471253
 31
0.0
 12
659.1927056600516
 22
2.933987366804586
 32
0.0
 13
659.1927056600516
 23
2.933987366804586
 33
0.0
  0
MTEXT
  5
11B5
330
10F8
100
AcDbEntity
  8
DIM
100
AcDbMText
 10
630.9427056600516
 20
5.683987366804586
 30
0.0
 40
3.5
 41
0.0
 71
     5
 72
     1
  1
56.5
 73
     1
 44
1.0
  0
POINT
  5
11B6
330
10F8
100
AcDbEntity
  8
Defpoints
 62
     0
100
AcDbPoint
 10
602.6927056600515
 20
-9.066012633195299
 30
0.0
  0
POINT
  5
11B7
330
10F8
100
AcDbEntity
  8
Defpoints
 62
     0
100
AcDbPoint
 10
659.1927056600516
 20
-9.066012633195299
 30
0.0
  0
POINT
  5
11B8
330
10F8
100
AcDbEntity
  8
Defpoints
 62
     0
100
AcDbPoint
 10
659.1927056600516
 20
2.933987366804586
 30
0.0
  0
ENDBLK
  5
1103
330
10F8
100
AcDbEntity
  8
0
100
AcDbBlockEnd
  0
BLOCK
  5
110B
330
1104
100
AcDbEntity
  8
0
100
AcDbBlockBegin
  2
*D47
 70
     1
 10
0.0
 20
0.0
 30
0.0
  3
*D47
  1

  0
LINE
  5
1211
330
1104
100
AcDbEntity
  8
DIM
100
AcDbLine
 10
537.7784055926278
 20
-24.42832899181516
 30
0.0
 11
541.7779572690289
 21
-12.93422253941659
 31
0.0
  0
LINE
  5
1212
330
1104
100
AcDbEntity
  8
DIM
100
AcDbLine
 10
541.7779572690289
 20
-12.93422253941659
 30
0.0
 11
567.0670403292357
 21
-12.93422253941662
 31
0.0
  0
SOLID
  5
1213
330
1104
100
AcDbEntity
  8
DIM
100
AcDbTrace
 10
537.2274729521579
 20
-24.23662347952487
 30
0.0
 11
538.329338233098
 21
-24.62003450410544
 31
0.0
 12
536.6281725188863
 22
-27.73392483463548
 32
0.0
 13
536.6281725188863
 23
-27.73392483463548
 33
0.0
  0
MTEXT
  5
1214
330
1104
100
AcDbEntity
  8
DIM
100
AcDbMText
 10
554.9224987991325
 20
-9.747568417701112
 30
0.0
 40
3.5
 41
0.0
 71
     5
 72
     1
  1
M5X0.8X9dp
 73
     1
 44
1.0
  0
POINT
  5
1215
330
1104
100
AcDbEntity
  8
Defpoints
 62
     0
100
AcDbPoint
 10
536.6281725188863
 20
-27.73392483463548
 30
0.0
  0
POINT
  5
1216
330
1104
100
AcDbEntity
  8
Defpoints
 62
     0
100
AcDbPoint
 10
534.6563443924716
 20
-33.40066056518598
 30
0.0
  0
ENDBLK
  5
110C
330
1104
100
AcDbEntity
  8
0
100
AcDbBlockEnd
  0
BLOCK
  5
1114
330
110D
100
AcDbEntity
  8
0
100
AcDbBlockBegin
  2
*D48
 70
     1
 10
0.0
 20
0.0
 30
0.0
  3
*D48
  1

  0
LINE
  5
122E
330
110D
100
AcDbEntity
  8
DIM
100
AcDbLine
 10
499.3233692413476
 20
-8.90972597257695
 30
0.0
 11
493.5446701381587
 21
-1.944912963488889
 31
0.0
  0
LINE
  5
122F
330
110D
100
AcDbEntity
  8
DIM
100
AcDbLine
 10
493.5446701381587
 20
-1.944912963488889
 30
0.0
 11
473.6446701381587
 21
-1.94491296348886
 31
0.0
  0
SOLID
  5
1230
330
110D
100
AcDbEntity
  8
DIM
100
AcDbTrace
 10
499.7722996719985
 20
-8.537248797150823
 30
0.0
 11
498.8744388106969
 21
-9.282203148003048
 31
0.0
 12
501.5582322939045
 22
-11.60330855648203
 32
0.0
 13
501.5582322939045
 23
-11.60330855648203
 33
0.0
  0
MTEXT
  5
1231
330
110D
100
AcDbEntity
  8
DIM
100
AcDbMText
 10
483.0946701381589
 20
0.8050870365111677
 30
0.0
 40
3.5
 41
0.0
 71
     5
 72
     1
  1
\U+22056.4 thru
 73
     1
 44
1.0
  0
POINT
  5
1232
330
110D
100
AcDbEntity
  8
Defpoints
 62
     0
100
AcDbPoint
 10
501.5582322939045
 20
-11.60330855648203
 30
0.0
  0
POINT
  5
1233
330
110D
100
AcDbEntity
  8
Defpoints
 62
     0
100
AcDbPoint
 10
505.6448390185807
 20
-16.52871670990976
 30
0.0
  0
ENDBLK
  5
1115
330
110D
100
AcDbEntity
  8
0
100
AcDbBlockEnd
  0
BLOCK
  5
1120
330
1116
100
AcDbEntity
  8
0
100
AcDbBlockBegin
  2
*D49
 70
     1
 10
0.0
 20
0.0
 30
0.0
  3
*D49
  1

  0
LINE
  5
11C5
330
1116
100
AcDbEntity
  8
DIM
100
AcDbLine
 10
508.6295156562423
 20
-70.06345249976582
 30
0.0
 11
563.3327459685565
 21
-70.06345249976583
 31
0.0
  0
LINE
  5
11C6
330
1116
100
AcDbEntity
  8
DIM
100
AcDbLine
 10
508.8524366165434
 20
-86.06345249976582
 30
0.0
 11
563.3327459685565
 21
-86.06345249976582
 31
0.0
  0
LINE
  5
11C7
330
1116
100
AcDbEntity
  8
DIM
100
AcDbLine
 10
562.3327459685565
 20
-73.56345249976583
 30
0.0
 11
562.3327459685565
 21
-82.56345249976583
 31
0.0
  0
SOLID
  5
11C8
330
1116
100
AcDbEntity
  8
DIM
100
AcDbTrace
 10
561.7494126352231
 20
-73.56345249976583
 30
0.0
 11
562.9160793018899
 21
-73.56345249976583
 31
0.0
 12
562.3327459685565
 22
-70.06345249976583
 32
0.0
 13
562.3327459685565
 23
-70.06345249976583
 33
0.0
  0
SOLID
  5
11C9
330
1116
100
AcDbEntity
  8
DIM
100
AcDbTrace
 10
561.7494126352231
 20
-82.56345249976583
 30
0.0
 11
562.9160793018899
 21
-82.56345249976583
 31
0.0
 12
562.3327459685565
 22
-86.06345249976582
 32
0.0
 13
562.3327459685565
 23
-86.06345249976582
 33
0.0
  0
MTEXT
  5
11CA
330
1116
100
AcDbEntity
  8
DIM
100
AcDbMText
 10
559.5827459685565
 20
-78.06345249976573
 30
0.0
 40
3.5
 41
0.0
 71
     5
 72
     1
  1
16
 11
0.0000000000000001
 21
1.0
 31
0.0
 73
     1
 44
1.0
  0
POINT
  5
11CB
330
1116
100
AcDbEntity
  8
Defpoints
 62
     0
100
AcDbPoint
 10
507.6295156562423
 20
-70.06345249976582
 30
0.0
  0
POINT
  5
11CC
330
1116
100
AcDbEntity
  8
Defpoints
 62
     0
100
AcDbPoint
 10
507.8524366165433
 20
-86.06345249976582
 30
0.0
  0
POINT
  5
11CD
330
1116
100
AcDbEntity
  8
Defpoints
 62
     0
100
AcDbPoint
 10
562.3327459685565
 20
-86.06345249976582
 30
0.0
  0
ENDBLK
  5
1121
330
1116
100
AcDbEntity
  8
0
100
AcDbBlockEnd
  0
BLOCK
  5
112E
330
1122
100
AcDbEntity
  8
0
100
AcDbBlockBegin
  2
*D50
 70
     1
 10
0.0
 20
0.0
 30
0.0
  3
*D50
  1

  0
LINE
  5
11CE
330
1122
100
AcDbEntity
  8
DIM
100
AcDbLine
 10
516.1015356562424
 20
-91.06345249976582
 30
0.0
 11
563.3327459685565
 21
-91.06345249976582
 31
0.0
  0
LINE
  5
11CF
330
1122
100
AcDbEntity
  8
DIM
100
AcDbLine
 10
508.8524366165434
 20
-86.06345249976582
 30
0.0
 11
563.3327459685565
 21
-86.06345249976582
 31
0.0
  0
LINE
  5
11D0
330
1122
100
AcDbEntity
  8
DIM
100
AcDbLine
 10
562.3327459685565
 20
-94.56345249976584
 30
0.0
 11
562.3327459685565
 21
-98.06345249976583
 31
0.0
  0
LINE
  5
11D1
330
1122
100
AcDbEntity
  8
DIM
100
AcDbLine
 10
562.3327459685565
 20
-82.56345249976583
 30
0.0
 11
562.3327459685565
 21
-79.06345249976583
 31
0.0
  0
LINE
  5
11D2
330
1122
100
AcDbEntity
  8
DIM
100
AcDbLine
 10
562.3327459685565
 20
-91.06345249976582
 30
0.0
 11
562.3327459685565
 21
-86.06345249976582
 31
0.0
  0
SOLID
  5
11D3
330
1122
100
AcDbEntity
  8
DIM
100
AcDbTrace
 10
561.7494126352231
 20
-94.56345249976584
 30
0.0
 11
562.9160793018899
 21
-94.56345249976584
 31
0.0
 12
562.3327459685565
 22
-91.06345249976582
 32
0.0
 13
562.3327459685565
 23
-91.06345249976582
 33
0.0
  0
SOLID
  5
11D4
330
1122
100
AcDbEntity
  8
DIM
100
AcDbTrace
 10
561.7494126352231
 20
-82.56345249976583
 30
0.0
 11
562.9160793018899
 21
-82.56345249976583
 31
0.0
 12
562.3327459685565
 22
-86.06345249976582
 32
0.0
 13
562.3327459685565
 23
-86.06345249976582
 33
0.0
  0
MTEXT
  5
11D5
330
1122
100
AcDbEntity
  8
DIM
100
AcDbMText
 10
559.5827459685565
 20
-88.56345249976573
 30
0.0
 40
3.5
 41
0.0
 71
     5
 72
     1
  1
5
 11
0.0000000000000001
 21
1.0
 31
0.0
 73
     1
 44
1.0
  0
POINT
  5
11D6
330
1122
100
AcDbEntity
  8
Defpoints
 62
     0
100
AcDbPoint
 10
515.1015356562425
 20
-91.06345249976582
 30
0.0
  0
POINT
  5
11D7
330
1122
100
AcDbEntity
  8
Defpoints
 62
     0
100
AcDbPoint
 10
507.8524366165433
 20
-86.06345249976582
 30
0.0
  0
POINT
  5
11D8
330
1122
100
AcDbEntity
  8
Defpoints
 62
     0
100
AcDbPoint
 10
562.3327459685565
 20
-86.06345249976582
 30
0.0
  0
ENDBLK
  5
112F
330
1122
100
AcDbEntity
  8
0
100
AcDbBlockEnd
  0
BLOCK
  5
113C
330
1130
100
AcDbEntity
  8
0
100
AcDbBlockBegin
  2
*D51
 70
     1
 10
0.0
 20
0.0
 30
0.0
  3
*D51
  1

  0
LINE
  5
11D9
330
1130
100
AcDbEntity
  8
DIM
100
AcDbLine
 10
508.6295156562423
 20
-70.06345249976582
 30
0.0
 11
552.9330605238701
 21
-70.06345249976583
 31
0.0
  0
LINE
  5
11DA
330
1130
100
AcDbEntity
  8
DIM
100
AcDbLine
 10
510.601535656242
 20
-75.06345249976582
 30
0.0
 11
552.9330605238701
 21
-75.06345249976583
 31
0.0
  0
LINE
  5
11DB
330
1130
100
AcDbEntity
  8
DIM
100
AcDbLine
 10
551.9330605238701
 20
-66.56345249976583
 30
0.0
 11
551.9330605238701
 21
-63.06345249976582
 31
0.0
  0
LINE
  5
11DC
330
1130
100
AcDbEntity
  8
DIM
100
AcDbLine
 10
551.9330605238701
 20
-78.56345249976583
 30
0.0
 11
551.9330605238701
 21
-82.06345249976584
 31
0.0
  0
LINE
  5
11DD
330
1130
100
AcDbEntity
  8
DIM
100
AcDbLine
 10
551.9330605238701
 20
-70.06345249976583
 30
0.0
 11
551.9330605238701
 21
-75.06345249976583
 31
0.0
  0
SOLID
  5
11DE
330
1130
100
AcDbEntity
  8
DIM
100
AcDbTrace
 10
551.3497271905367
 20
-66.56345249976583
 30
0.0
 11
552.5163938572035
 21
-66.56345249976583
 31
0.0
 12
551.9330605238701
 22
-70.06345249976583
 32
0.0
 13
551.9330605238701
 23
-70.06345249976583
 33
0.0
  0
SOLID
  5
11DF
330
1130
100
AcDbEntity
  8
DIM
100
AcDbTrace
 10
551.3497271905367
 20
-78.56345249976583
 30
0.0
 11
552.5163938572035
 21
-78.56345249976583
 31
0.0
 12
551.9330605238701
 22
-75.06345249976583
 32
0.0
 13
551.9330605238701
 23
-75.06345249976583
 33
0.0
  0
MTEXT
  5
11E0
330
1130
100
AcDbEntity
  8
DIM
100
AcDbMText
 10
549.1830605238702
 20
-72.56345249976573
 30
0.0
 40
3.5
 41
0.0
 71
     5
 72
     1
  1
5
 11
0.0000000000000001
 21
1.0
 31
0.0
 73
     1
 44
1.0
  0
POINT
  5
11E1
330
1130
100
AcDbEntity
  8
Defpoints
 62
     0
100
AcDbPoint
 10
507.6295156562423
 20
-70.06345249976582
 30
0.0
  0
POINT
  5
11E2
330
1130
100
AcDbEntity
  8
Defpoints
 62
     0
100
AcDbPoint
 10
509.601535656242
 20
-75.06345249976582
 30
0.0
  0
POINT
  5
11E3
330
1130
100
AcDbEntity
  8
Defpoints
 62
     0
100
AcDbPoint
 10
551.9330605238701
 20
-75.06345249976583
 30
0.0
  0
ENDBLK
  5
113D
330
1130
100
AcDbEntity
  8
0
100
AcDbBlockEnd
  0
BLOCK
  5
1148
330
113E
100
AcDbEntity
  8
0
100
AcDbBlockBegin
  2
*D52
 70
     1
 10
0.0
 20
0.0
 30
0.0
  3
*D52
  1

  0
LINE
  5
11E4
330
113E
100
AcDbEntity
  8
DIM
100
AcDbLine
 10
496.601535656242
 20
-66.06345249976581
 30
0.0
 11
456.7242459294456
 21
-66.0634524997658
 31
0.0
  0
LINE
  5
11E5
330
113E
100
AcDbEntity
  8
DIM
100
AcDbLine
 10
491.101535656242
 20
-91.06345249976582
 30
0.0
 11
456.7242459294456
 21
-91.0634524997658
 31
0.0
  0
LINE
  5
11E6
330
113E
100
AcDbEntity
  8
DIM
100
AcDbLine
 10
457.7242459294457
 20
-69.5634524997658
 30
0.0
 11
457.7242459294457
 21
-87.56345249976581
 31
0.0
  0
SOLID
  5
11E7
330
113E
100
AcDbEntity
  8
DIM
100
AcDbTrace
 10
457.1409125961124
 20
-69.5634524997658
 30
0.0
 11
458.307579262779
 21
-69.5634524997658
 31
0.0
 12
457.7242459294457
 22
-66.0634524997658
 32
0.0
 13
457.7242459294457
 23
-66.0634524997658
 33
0.0
  0
SOLID
  5
11E8
330
113E
100
AcDbEntity
  8
DIM
100
AcDbTrace
 10
457.1409125961124
 20
-87.56345249976581
 30
0.0
 11
458.307579262779
 21
-87.56345249976581
 31
0.0
 12
457.7242459294457
 22
-91.0634524997658
 32
0.0
 13
457.7242459294457
 23
-91.0634524997658
 33
0.0
  0
MTEXT
  5
11E9
330
113E
100
AcDbEntity
  8
DIM
100
AcDbMText
 10
454.9739014412566
 20
-78.56345249976573
 30
0.0
 40
3.5
 41
0.0
 71
     5
 72
     1
  1
25
 11
0.0000000000000001
 21
1.0
 31
0.0
 73
     1
 44
1.0
  0
POINT
  5
11EA
330
113E
100
AcDbEntity
  8
Defpoints
 62
     0
100
AcDbPoint
 10
497.601535656242
 20
-66.06345249976581
 30
0.0
  0
POINT
  5
11EB
330
113E
100
AcDbEntity
  8
Defpoints
 62
     0
100
AcDbPoint
 10
492.101535656242
 20
-91.06345249976582
 30
0.0
  0
POINT
  5
11EC
330
113E
100
AcDbEntity
  8
Defpoints
 62
     0
100
AcDbPoint
 10
457.7242459294457
 20
-91.0634524997658
 30
0.0
  0
ENDBLK
  5
1149
330
113E
100
AcDbEntity
  8
0
100
AcDbBlockEnd
  0
BLOCK
  5
1154
330
114A
100
AcDbEntity
  8
0
100
AcDbBlockBegin
  2
*D53
 70
     1
 10
0.0
 20
0.0
 30
0.0
  3
*D53
  1

  0
LINE
  5
11ED
330
114A
100
AcDbEntity
  8
DIM
100
AcDbLine
 10
550.5245120691402
 20
-49.06601263319541
 30
0.0
 11
573.3327459685569
 21
-49.06601263319542
 31
0.0
  0
LINE
  5
11EE
330
114A
100
AcDbEntity
  8
DIM
100
AcDbLine
 10
516.1015356562424
 20
-91.06345249976582
 30
0.0
 11
573.3327459685569
 21
-91.06345249976582
 31
0.0
  0
LINE
  5
11EF
330
114A
100
AcDbEntity
  8
DIM
100
AcDbLine
 10
572.3327459685569
 20
-52.56601263319542
 30
0.0
 11
572.3327459685569
 21
-87.56345249976583
 31
0.0
  0
SOLID
  5
11F0
330
114A
100
AcDbEntity
  8
DIM
100
AcDbTrace
 10
571.7494126352236
 20
-52.56601263319542
 30
0.0
 11
572.9160793018904
 21
-52.56601263319542
 31
0.0
 12
572.3327459685569
 22
-49.06601263319542
 32
0.0
 13
572.3327459685569
 23
-49.06601263319542
 33
0.0
  0
SOLID
  5
11F1
330
114A
100
AcDbEntity
  8
DIM
100
AcDbTrace
 10
571.7494126352236
 20
-87.56345249976583
 30
0.0
 11
572.9160793018904
 21
-87.56345249976583
 31
0.0
 12
572.3327459685569
 22
-91.06345249976582
 32
0.0
 13
572.3327459685569
 23
-91.06345249976582
 33
0.0
  0
MTEXT
  5
11F2
330
114A
100
AcDbEntity
  8
DIM
100
AcDbMText
 10
569.582401480368
 20
-70.06473256648053
 30
0.0
 40
3.5
 41
0.0
 71
     5
 72
     1
  1
42
 11
0.0000000000000001
 21
1.0
 31
0.0
 73
     1
 44
1.0
  0
POINT
  5
11F3
330
114A
100
AcDbEntity
  8
Defpoints
 62
     0
100
AcDbPoint
 10
549.5245120691402
 20
-49.06601263319541
 30
0.0
  0
POINT
  5
11F4
330
114A
100
AcDbEntity
  8
Defpoints
 62
     0
100
AcDbPoint
 10
515.1015356562425
 20
-91.06345249976582
 30
0.0
  0
POINT
  5
11F5
330
114A
100
AcDbEntity
  8
Defpoints
 62
     0
100
AcDbPoint
 10
572.3327459685569
 20
-91.06345249976582
 30
0.0
  0
ENDBLK
  5
1155
330
114A
100
AcDbEntity
  8
0
100
AcDbBlockEnd
  0
BLOCK
  5
1160
330
1156
100
AcDbEntity
  8
0
100
AcDbBlockBegin
  2
*D54
 70
     1
 10
0.0
 20
0.0
 30
0.0
  3
*D54
  1

  0
LINE
  5
11F6
330
1156
100
AcDbEntity
  8
DIM
100
AcDbLine
 10
497.601535656242
 20
-92.01601263319535
 30
0.0
 11
497.601535656242
 21
-99.40935499881831
 31
0.0
  0
LINE
  5
11F7
330
1156
100
AcDbEntity
  8
DIM
100
AcDbLine
 10
509.601535656242
 20
-92.01601263319535
 30
0.0
 11
509.601535656242
 21
-99.40935499881831
 31
0.0
  0
LINE
  5
11F8
330
1156
100
AcDbEntity
  8
DIM
100
AcDbLine
 10
501.101535656242
 20
-98.40935499881831
 30
0.0
 11
506.101535656242
 21
-98.40935499881831
 31
0.0
  0
SOLID
  5
11F9
330
1156
100
AcDbEntity
  8
DIM
100
AcDbTrace
 10
501.101535656242
 20
-97.826021665485
 30
0.0
 11
501.101535656242
 21
-98.99268833215165
 31
0.0
 12
497.601535656242
 22
-98.40935499881831
 32
0.0
 13
497.601535656242
 23
-98.40935499881831
 33
0.0
  0
SOLID
  5
11FA
330
1156
100
AcDbEntity
  8
DIM
100
AcDbTrace
 10
506.101535656242
 20
-97.826021665485
 30
0.0
 11
506.101535656242
 21
-98.99268833215165
 31
0.0
 12
509.601535656242
 22
-98.40935499881831
 32
0.0
 13
509.601535656242
 23
-98.40935499881831
 33
0.0
  0
MTEXT
  5
11FB
330
1156
100
AcDbEntity
  8
DIM
100
AcDbMText
 10
503.601535656242
 20
-95.65901051062935
 30
0.0
 40
3.5
 41
0.0
 71
     5
 72
     1
  1
12.2
 73
     1
 44
1.0
  0
POINT
  5
11FC
330
1156
100
AcDbEntity
  8
Defpoints
 62
     0
100
AcDbPoint
 10
497.601535656242
 20
-91.01601263319535
 30
0.0
  0
POINT
  5
11FD
330
1156
100
AcDbEntity
  8
Defpoints
 62
     0
100
AcDbPoint
 10
509.601535656242
 20
-91.01601263319535
 30
0.0
  0
POINT
  5
11FE
330
1156
100
AcDbEntity
  8
Defpoints
 62
     0
100
AcDbPoint
 10
509.601535656242
 20
-98.40935499881831
 30
0.0
  0
ENDBLK
  5
1161
330
1156
100
AcDbEntity
  8
0
100
AcDbBlockEnd
  0
BLOCK
  5
116C
330
1162
100
AcDbEntity
  8
0
100
AcDbBlockBegin
  2
*D55
 70
     1
 10
0.0
 20
0.0
 30
0.0
  3
*D55
  1

  0
LINE
  5
11FF
330
1162
100
AcDbEntity
  8
DIM
100
AcDbLine
 10
492.101535656242
 20
-92.06345249976582
 30
0.0
 11
492.101535656242
 21
-107.4821944145692
 31
0.0
  0
LINE
  5
1200
330
1162
100
AcDbEntity
  8
DIM
100
AcDbLine
 10
515.1015356562425
 20
-92.06345249976582
 30
0.0
 11
515.1015356562425
 21
-107.4821944145692
 31
0.0
  0
LINE
  5
1201
330
1162
100
AcDbEntity
  8
DIM
100
AcDbLine
 10
495.601535656242
 20
-106.4821944145692
 30
0.0
 11
511.6015356562424
 21
-106.4821944145692
 31
0.0
  0
SOLID
  5
1202
330
1162
100
AcDbEntity
  8
DIM
100
AcDbTrace
 10
495.601535656242
 20
-105.8988610812358
 30
0.0
 11
495.601535656242
 21
-107.0655277479025
 31
0.0
 12
492.101535656242
 22
-106.4821944145692
 32
0.0
 13
492.101535656242
 23
-106.4821944145692
 33
0.0
  0
SOLID
  5
1203
330
1162
100
AcDbEntity
  8
DIM
100
AcDbTrace
 10
511.6015356562424
 20
-105.8988610812358
 30
0.0
 11
511.6015356562424
 21
-107.0655277479025
 31
0.0
 12
515.1015356562425
 22
-106.4821944145692
 32
0.0
 13
515.1015356562425
 23
-106.4821944145692
 33
0.0
  0
MTEXT
  5
1204
330
1162
100
AcDbEntity
  8
DIM
100
AcDbMText
 10
503.6015356562424
 20
-103.7318499263802
 30
0.0
 40
3.5
 41
0.0
 71
     5
 72
     1
  1
23
 73
     1
 44
1.0
  0
POINT
  5
1205
330
1162
100
AcDbEntity
  8
Defpoints
 62
     0
100
AcDbPoint
 10
492.101535656242
 20
-91.06345249976582
 30
0.0
  0
POINT
  5
1206
330
1162
100
AcDbEntity
  8
Defpoints
 62
     0
100
AcDbPoint
 10
515.1015356562425
 20
-91.06345249976582
 30
0.0
  0
POINT
  5
1207
330
1162
100
AcDbEntity
  8
Defpoints
 62
     0
100
AcDbPoint
 10
515.1015356562425
 20
-106.4821944145692
 30
0.0
  0
ENDBLK
  5
116D
330
1162
100
AcDbEntity
  8
0
100
AcDbBlockEnd
  0
BLOCK
  5
1178
330
116E
100
AcDbEntity
  8
0
100
AcDbBlockBegin
  2
*D56
 70
     1
 10
0.0
 20
0.0
 30
0.0
  3
*D56
  1

  0
LINE
  5
1208
330
116E
100
AcDbEntity
  8
DIM
100
AcDbLine
 10
660.1927056600516
 20
-9.066012633195301
 30
0.0
 11
672.1927056600516
 21
-9.066012633195303
 31
0.0
  0
LINE
  5
1209
330
116E
100
AcDbEntity
  8
DIM
100
AcDbLine
 10
660.1927056600516
 20
-89.06601263319529
 30
0.0
 11
672.1927056600516
 21
-89.06601263319531
 31
0.0
  0
LINE
  5
120A
330
116E
100
AcDbEntity
  8
DIM
100
AcDbLine
 10
671.1927056600516
 20
-12.5660126331953
 30
0.0
 11
671.1927056600516
 21
-85.5660126331953
 31
0.0
  0
SOLID
  5
120B
330
116E
100
AcDbEntity
  8
DIM
100
AcDbTrace
 10
670.6093723267182
 20
-12.5660126331953
 30
0.0
 11
671.7760389933849
 21
-12.5660126331953
 31
0.0
 12
671.1927056600516
 22
-9.066012633195303
 32
0.0
 13
671.1927056600516
 23
-9.066012633195303
 33
0.0
  0
SOLID
  5
120C
330
116E
100
AcDbEntity
  8
DIM
100
AcDbTrace
 10
670.6093723267182
 20
-85.5660126331953
 30
0.0
 11
671.7760389933849
 21
-85.5660126331953
 31
0.0
 12
671.1927056600516
 22
-89.06601263319529
 32
0.0
 13
671.1927056600516
 23
-89.06601263319529
 33
0.0
  0
MTEXT
  5
120D
330
116E
100
AcDbEntity
  8
DIM
100
AcDbMText
 10
668.4427056600516
 20
-49.0660126331952
 30
0.0
 40
3.5
 41
0.0
 71
     5
 72
     1
  1
%%C80
 11
0.0000000000000001
 21
1.0
 31
0.0
 73
     1
 44
1.0
  0
POINT
  5
120E
330
116E
100
AcDbEntity
  8
Defpoints
 62
     0
100
AcDbPoint
 10
659.1927056600516
 20
-9.066012633195299
 30
0.0
  0
POINT
  5
120F
330
116E
100
AcDbEntity
  8
Defpoints
 62
     0
100
AcDbPoint
 10
659.1927056600516
 20
-89.06601263319529
 30
0.0
  0
POINT
  5
1210
330
116E
100
AcDbEntity
  8
Defpoints
 62
     0
100
AcDbPoint
 10
671.1927056600516
 20
-89.06601263319529
 30
0.0
  0
ENDBLK
  5
1179
330
116E
100
AcDbEntity
  8
0
100
AcDbBlockEnd
  0
ENDSEC
  0
SECTION
  2
ENTITIES
  0
TEXT
  5
194
330
2
100
AcDbEntity
  8
LOGO
  6
Continuous
 62
     7
100
AcDbText
 10
525.4784189971203
 20
-138.1163303786257
 30
0.0
 40
3.835670107182843
  1
MCHG
  7
chineset
 72
     1
 11
532.9671082540011
 21
-136.1984953250343
 31
0.0
100
AcDbText
 73
     2
  0
LINE
  5
195
330
2
100
AcDbEntity
  8
LOGO
 62
     4
100
AcDbLine
 10
542.1727165112399
 20
-132.7463922285697
 30
0.0
 11
523.7614999967624
 21
-132.7463922285697
 31
0.0
  0
LINE
  5
196
330
2
100
AcDbEntity
  8
LOGO
 62
     4
100
AcDbLine
 10
542.1727165112399
 20
-139.6505984214988
 30
0.0
 11
523.7614999967624
 21
-139.6505984214988
 31
0.0
  0
LINE
  5
197
330
2
100
AcDbEntity
  8
LOGO
 62
     4
100
AcDbLine
 10
540.6384484683668
 20
-143.1027015179634
 30
0.0
 11
525.2957680396355
 21
-143.1027015179634
 31
0.0
  0
LINE
  5
198
330
2
100
AcDbEntity
  8
LOGO
 62
     4
100
AcDbLine
 10
540.6384484683668
 20
-151.5411757537656
 30
0.0
 11
525.2957680396355
 21
-151.5411757537656
 31
0.0
  0
LINE
  5
19D
330
2
100
AcDbEntity
  8
LOGO
 62
     4
100
AcDbLine
 10
525.2957680396355
 20
-143.1027015179634
 30
0.0
 11
525.2957680396355
 21
-151.5411757537656
 31
0.0
  0
LINE
  5
19E
330
2
100
AcDbEntity
  8
LOGO
 62
     4
100
AcDbLine
 10
523.7614999967624
 20
-132.7463922285697
 30
0.0
 11
523.7614999967624
 21
-139.6505984214988
 31
0.0
  0
LINE
  5
19F
330
2
100
AcDbEntity
  8
LOGO
 62
     4
100
AcDbLine
 10
567.5928157029179
 20
-132.7463922285696
 30
0.0
 11
547.6048288391023
 21
-132.7463922285697
 31
0.0
  0
LINE
  5
1A0
330
2
100
AcDbEntity
  8
LOGO
 62
     4
100
AcDbLine
 10
567.5928157029179
 20
-151.5411757537656
 30
0.0
 11
547.6048288391023
 21
-151.5411757537656
 31
0.0
  0
LINE
  5
1A1
330
2
100
AcDbEntity
  8
LOGO
 62
     4
100
AcDbLine
 10
567.5928157029179
 20
-143.1027015179634
 30
0.0
 11
547.6048288391023
 21
-143.1027015179634
 31
0.0
  0
LINE
  5
1A2
330
2
100
AcDbEntity
  8
LOGO
 62
     4
100
AcDbLine
 10
567.5928157029179
 20
-139.6505984214988
 30
0.0
 11
547.6048288391023
 21
-139.6505984214988
 31
0.0
  0
LINE
  5
1A3
330
2
100
AcDbEntity
  8
LOGO
 62
     4
100
AcDbLine
 10
532.9671082540011
 20
-139.6505984214988
 30
0.0
 11
532.9671082540011
 21
-143.1027015179634
 31
0.0
  0
LINE
  5
1A4
330
2
100
AcDbEntity
  8
LOGO
 62
     4
100
AcDbLine
 10
540.6384484683668
 20
-143.1027015179634
 30
0.0
 11
540.6384484683668
 21
-151.5411757537656
 31
0.0
  0
LINE
  5
1A5
330
2
100
AcDbEntity
  8
LOGO
 62
     4
100
AcDbLine
 10
547.6048288391023
 20
-143.1027015179634
 30
0.0
 11
547.6048288391023
 21
-151.5411757537656
 31
0.0
  0
LINE
  5
1A6
330
2
100
AcDbEntity
  8
LOGO
 62
     4
100
AcDbLine
 10
547.6048288391023
 20
-132.7463922285697
 30
0.0
 11
547.6048288391023
 21
-139.6505984214988
 31
0.0
  0
LINE
  5
1A7
330
2
100
AcDbEntity
  8
LOGO
 62
     4
100
AcDbLine
 10
542.1727165112399
 20
-132.7463922285697
 30
0.0
 11
542.1727165112399
 21
-139.6505984214988
 31
0.0
  0
LINE
  5
1A8
330
2
100
AcDbEntity
  8
LOGO
 62
     4
100
AcDbLine
 10
543.362207478458
 20
-136.2229511144921
 30
0.0
 11
546.4108530099657
 21
-136.2229511144921
 31
0.0
  0
LINE
  5
1A9
330
2
100
AcDbEntity
  8
LOGO
 62
     4
100
AcDbLine
 10
557.5988222710102
 20
-139.6505984214988
 30
0.0
 11
557.5988222710102
 21
-143.1027015179634
 31
0.0
  0
LINE
  5
1AB
330
2
100
AcDbEntity
  8
LOGO
 62
     4
100
AcDbLine
 10
567.5928157029179
 20
-143.1027015179634
 30
0.0
 11
567.5928157029179
 21
-151.5411757537656
 31
0.0
  0
TEXT
  5
1AC
330
2
100
AcDbEntity
  8
LOGO
  6
Continuous
 62
     7
100
AcDbText
 10
554.4937559937669
 20
-138.1598271193373
 30
0.0
 40
3.835670107182843
  1
80
  7
chineset
 72
     1
 11
557.5988222710102
 21
-136.2419920657459
 31
0.0
100
AcDbText
 73
     2
  0
LINE
  5
1AD
330
2
100
AcDbEntity
  8
LOGO
 62
     4
100
AcDbLine
 10
567.5928157029179
 20
-132.7463922285696
 30
0.0
 11
567.5928157029179
 21
-139.6505984214988
 31
0.0
  0
TEXT
  5
1B1
330
2
100
AcDbEntity
  8
LOGO
100
AcDbText
 10
529.8985721682548
 20
-147.2434131061111
 30
150.8300999564393
 40
3.068536085746274
  1
型式
  7
chineset
 72
     4
 11
532.9671082540011
 21
-145.7876705929914
 31
150.8300999564393
100
AcDbText
  0
TEXT
  5
1B2
330
2
100
AcDbEntity
  8
LOGO
100
AcDbText
 10
527.1222776144845
 20
-151.1576087430473
 30
150.8300999564393
 40
3.068536085746274
  1
Model
  7
chineset
 72
     4
 11
532.9671082540011
 21
-149.6233407001742
 31
150.8300999564393
100
AcDbText
  0
TEXT
  5
1B3
330
2
100
AcDbEntity
  8
LOGO
100
AcDbText
 10
551.4617500995176
 20
-147.3219386358645
 30
150.8300999564393
 40
3.068536085746274
  1
缸體外徑
  7
chineset
 72
     4
 11
557.5988222710102
 21
-145.7876705929914
 31
150.8300999564393
100
AcDbText
  0
TEXT
  5
1B4
330
2
100
AcDbEntity
  8
LOGO
  6
Continuous
100
AcDbText
 10
550.840736844069
 20
-150.2626190513713
 30
150.8300999564393
 40
1.917835053591421
  1
Body size
  7
chineset
 72
     4
 11
557.5988222710102
 21
-149.6233407001742
 31
150.8300999564393
100
AcDbText
  0
TEXT
  5
8FB
330
2
100
AcDbEntity
  8
LOGO
 62
     7
100
AcDbText
 10
493.0191240011532
 20
-136.2035551595884
 30
0.0
 40
4.714825856679817
  1
訂購代號:
  7
chineset
100
AcDbText
  0
TEXT
  5
8FC
330
2
100
AcDbEntity
  8
LOGO
 62
     7
100
AcDbText
 10
492.4552048353453
 20
-140.6285542189585
 30
0.0
 40
3.143217237786544
  1
Order example:
 41
0.8
  7
chineset
100
AcDbText
  0
LINE
  5
916
330
2
100
AcDbEntity
  8
LOGO
 62
     4
100
AcDbLine
 10
491.0894662843471
 20
-153.8752586113884
 30
0.0
 11
491.0894662843471
 21
-130.3011293279888
 31
0.0
  0
TEXT
  5
917
330
2
100
AcDbEntity
  8
LOGO
  6
Continuous
100
AcDbText
 10
447.6943150672274
 20
-149.2441564901277
 30
0.0
 40
3.536119392509892
  1
金器工業股份有限公司
  7
chineset
100
AcDbText
  0
TEXT
  5
918
330
2
100
AcDbEntity
  8
LOGO
  6
Continuous
100
AcDbText
 10
441.1991633299085
 20
-152.7809686847961
 30
0.0
 40
2.357412928339928
  1
MINDMAN INDUSTRIAL CO., LTD.
 41
0.85
  7
chineset
100
AcDbText
  0
LINE
  5
919
330
2
100
AcDbEntity
  8
LOGO
 62
     4
100
AcDbLine
 10
491.0894662843471
 20
-135.0159551846688
 30
0.0
 11
456.514076668694
 21
-135.0159551846688
 31
0.0
  0
LINE
  5
91A
330
2
100
AcDbEntity
  8
LOGO
 62
     4
100
AcDbLine
 10
491.0894662843471
 20
-139.7307810413488
 30
0.0
 11
456.514076668694
 21
-139.7307810413488
 31
0.0
  0
LINE
  5
91B
330
2
100
AcDbEntity
  8
LOGO
 62
     4
100
AcDbLine
 10
491.0894662843471
 20
-144.4456068980285
 30
0.0
 11
439.2263818608681
 21
-144.4456068980285
 31
0.0
  0
LINE
  5
91C
330
2
100
AcDbEntity
  8
LOGO
 62
     4
100
AcDbLine
 10
456.514076668694
 20
-144.4456068980285
 30
0.0
 11
456.514076668694
 21
-130.3011293279888
 31
0.0
  0
TEXT
  5
91D
330
2
100
AcDbEntity
  8
LOGO
100
AcDbText
 10
480.1447235374603
 20
-143.2669004338587
 30
0.0
 40
2.357412928339928
  1
mm
  7
chineset
 72
     1
 11
483.0634252582622
 21
-142.0881939696887
 31
0.0
100
AcDbText
 73
     2
  0
TEXT
  5
91E
330
2
100
AcDbEntity
  8
LOGO
100
AcDbText
 10
478.9098881940442
 20
-133.837248720499
 30
0.0
 40
2.357412928339928
  1
1 : 1
  7
chineset
 72
     1
 11
483.0634252582622
 21
-132.658542256329
 31
0.0
100
AcDbText
 73
     2
  0
LINE
  5
91F
330
2
100
AcDbEntity
  8
LOGO
 62
     4
100
AcDbLine
 10
475.3733800954139
 20
-144.4456068980285
 30
0.0
 11
475.3733800954139
 21
-130.3011293279888
 31
0.0
  0
TEXT
  5
920
330
2
100
AcDbEntity
  8
LOGO
100
AcDbText
 10
458.4578899180892
 20
-133.8360885763413
 30
154.5009597124719
 40
2.357412928339928
  1
比例 Scale:
 41
0.9
  7
chineset
 72
     4
 11
465.9437283820543
 21
-132.658542256329
 31
154.5009597124719
100
AcDbText
  0
TEXT
  5
921
330
2
100
AcDbEntity
  8
LOGO
100
AcDbText
 10
458.3221281914124
 20
-138.518913790006
 30
154.5009597124719
 40
2.357412928339928
  1
投影  View:
 41
0.9
  7
chineset
 72
     4
 11
465.9437283820543
 21
-137.3733681130087
 31
154.5009597124719
100
AcDbText
  0
TEXT
  5
922
330
2
100
AcDbEntity
  8
LOGO
100
AcDbText
 10
458.5526074018171
 20
-143.2669004338587
 30
154.5009597124719
 40
2.357412928339928
  1
單位  Unit:
 41
0.9
  7
chineset
 72
     4
 11
465.9437283820543
 21
-142.0881939696887
 31
154.5009597124719
100
AcDbText
  0
SOLID
  5
923
330
2
100
AcDbEntity
  8
LOGO
 62
     5
100
AcDbTrace
 10
441.6722356076207
 20
-140.5267434559704
 30
0.0
 11
442.6915190993195
 21
-140.526743455971
 31
0.0
 12
446.944391599167
 22
-130.8611241381355
 32
0.0
 13
447.9636750908662
 23
-130.8611241381362
 33
0.0
  0
SOLID
  5
924
330
2
100
AcDbEntity
  8
LOGO
 62
     5
100
AcDbTrace
 10
443.1132915786442
 20
-140.5267434559704
 30
0.0
 11
444.1325750703431
 21
-140.5267434559704
 31
0.0
 12
447.9636750908662
 22
-131.6343736835626
 32
0.0
 13
446.944391599167
 23
-135.3717464864588
 33
0.0
  0
SOLID
  5
925
330
2
100
AcDbEntity
  8
LOGO
 62
     2
100
AcDbTrace
 10
442.6915190993195
 20
-140.526743455971
 30
0.0
 11
443.1132915786442
 21
-140.5267434559704
 31
0.0
 12
447.9636750908662
 22
-130.8611241381362
 32
0.0
 13
448.3854475701905
 23
-130.8611241381362
 33
0.0
  0
SOLID
  5
926
330
2
100
AcDbEntity
  8
LOGO
 62
     5
100
AcDbTrace
 10
440.0380742114967
 20
-144.0415141170013
 30
0.0
 11
440.3895512776003
 21
-144.0415141170013
 31
0.0
 12
441.3793380525349
 22
-142.2841287864859
 32
0.0
 13
441.7308151186378
 23
-142.2841287864859
 33
0.0
  0
SOLID
  5
927
330
2
100
AcDbEntity
  8
LOGO
 62
     5
100
AcDbTrace
 10
441.3793380525349
 20
-142.2841287864859
 30
0.0
 11
441.7308151186378
 21
-142.2841287864859
 31
0.0
 12
441.3793380525349
 22
-144.0415141170013
 32
0.0
 13
441.7308151186378
 23
-144.0415141170013
 33
0.0
  0
SOLID
  5
928
330
2
100
AcDbEntity
  8
LOGO
 62
     5
100
AcDbTrace
 10
441.3793380525349
 20
-144.0415141170013
 30
0.0
 11
441.7308151186378
 21
-144.0415141170013
 31
0.0
 12
442.7206018935741
 22
-142.2841287864859
 32
0.0
 13
443.0720789596769
 23
-142.2841287864859
 33
0.0
  0
SOLID
  5
929
330
2
100
AcDbEntity
  8
LOGO
 62
     5
100
AcDbTrace
 10
442.7206018935741
 20
-142.2841287864859
 30
0.0
 11
443.0720789596769
 21
-142.2841287864859
 31
0.0
 12
442.7206018935741
 22
-144.0415141170013
 32
0.0
 13
443.0720789596769
 23
-144.0415141170013
 33
0.0
  0
POLYLINE
  5
92A
330
2
100
AcDbEntity
  8
LOGO
 62
     5
100
AcDb2dPolyline
 66
     1
 10
0.0
 20
0.0
 30
0.0
 40
0.3520403306320958
 41
0.3520403306320958
  0
VERTEX
  5
92B
330
92A
100
AcDbEntity
  8
LOGO
 62
     5
100
AcDbVertex
100
AcDb2dVertex
 10
454.5019934171773
 20
-142.9870829186923
 30
0.0
 42
1.0
  0
VERTEX
  5
92C
330
92A
100
AcDbEntity
  8
LOGO
 62
     5
100
AcDbVertex
100
AcDb2dVertex
 10
453.4458724252814
 20
-142.9870829186923
 30
0.0
 42
1.0
  0
SEQEND
  5
92D
330
92A
100
AcDbEntity
  8
LOGO
 62
     5
  0
POLYLINE
  5
92E
330
2
100
AcDbEntity
  8
LOGO
 62
     5
100
AcDb2dPolyline
 66
     1
 10
0.0
 20
0.0
 30
0.0
 70
     1
  0
VERTEX
  5
92F
330
92E
100
AcDbEntity
  8
LOGO
 62
     5
100
AcDbVertex
100
AcDb2dVertex
 10
451.4550373792945
 20
-143.1628214517437
 30
0.0
 42
1.000000057330635
  0
VERTEX
  5
930
330
92E
100
AcDbEntity
  8
LOGO
 62
     5
100
AcDbVertex
100
AcDb2dVertex
 10
452.5094685776032
 20
-143.1628214517437
 30
0.0
 42
1.000000057330635
  0
SEQEND
  5
931
330
92E
100
AcDbEntity
  8
LOGO
 62
     5
  0
CIRCLE
  5
932
330
2
100
AcDbEntity
  8
LOGO
 62
     5
100
AcDbCircle
 10
451.9822529784495
 20
-143.1628214517437
 30
0.0
 40
0.5272155991546268
  0
POLYLINE
  5
933
330
2
100
AcDbEntity
  8
LOGO
 62
     5
100
AcDb2dPolyline
 66
     1
 10
0.0
 20
0.0
 30
0.0
 70
     1
 40
0.3520403306320958
 41
0.3520403306320958
  0
VERTEX
  5
934
330
933
100
AcDbEntity
  8
LOGO
 62
     5
100
AcDbVertex
100
AcDb2dVertex
 10
451.278172317185
 20
-143.1628214517437
 30
0.0
 42
1.0
  0
VERTEX
  5
935
330
933
100
AcDbEntity
  8
LOGO
 62
     5
100
AcDbVertex
100
AcDb2dVertex
 10
452.6863336397134
 20
-143.1628214517437
 30
0.0
 42
1.0
  0
SEQEND
  5
936
330
933
100
AcDbEntity
  8
LOGO
 62
     5
  0
LINE
  5
937
330
2
100
AcDbEntity
  8
LOGO
100
AcDbLine
 10
454.6768870534346
 20
-144.0415141170013
 30
0.0
 11
454.6768870534346
 21
-142.9870829186923
 31
0.0
  0
SOLID
  5
938
330
2
100
AcDbEntity
  8
LOGO
 62
     5
100
AcDbTrace
 10
452.5094334298982
 20
-142.2841287864859
 30
0.0
 11
452.8609104960008
 21
-142.2841287864859
 31
0.0
 12
452.5094334298982
 22
-144.0415141170013
 32
0.0
 13
452.8609104960008
 23
-144.0415141170013
 33
0.0
  0
SOLID
  5
939
330
2
100
AcDbEntity
  8
LOGO
 62
     5
100
AcDbTrace
 10
453.2709787890227
 20
-144.0415141170013
 30
0.0
 11
453.6224558551258
 21
-144.0415141170013
 31
0.0
 12
453.2709787890227
 22
-142.2841287864859
 32
0.0
 13
453.6224558551258
 23
-142.2841287864859
 33
0.0
  0
SOLID
  5
93A
330
2
100
AcDbEntity
  8
LOGO
 62
     5
100
AcDbTrace
 10
454.3254099873324
 20
-142.9870829186923
 30
0.0
 11
454.6768870534346
 21
-142.9870829186923
 31
0.0
 12
454.3254099873324
 22
-144.0415141170013
 32
0.0
 13
454.6768870534346
 23
-144.0415141170013
 33
0.0
  0
SOLID
  5
93B
330
2
100
AcDbEntity
  8
LOGO
 62
     5
100
AcDbTrace
 10
453.2358310824122
 20
-131.6343736835626
 30
0.0
 11
452.2165475907137
 21
-135.3717464864588
 31
0.0
 12
453.2358310824122
 22
-140.526743455971
 32
0.0
 13
452.2165475907137
 23
-140.526743455971
 33
0.0
  0
SOLID
  5
93C
330
2
100
AcDbEntity
  8
LOGO
 62
     5
100
AcDbTrace
 10
453.6576035617361
 20
-140.526743455971
 30
0.0
 11
454.6768870534346
 21
-140.526743455971
 31
0.0
 12
453.6576035617361
 22
-130.8611241381362
 32
0.0
 13
454.6768870534346
 23
-130.8611241381355
 33
0.0
  0
SOLID
  5
93D
330
2
100
AcDbEntity
  8
LOGO
 62
     2
100
AcDbTrace
 10
453.2358310824122
 20
-130.8611241381355
 30
0.0
 11
453.6576035617361
 21
-130.8611241381362
 31
0.0
 12
453.2358310824122
 22
-140.526743455971
 32
0.0
 13
453.6576035617361
 23
-140.526743455971
 33
0.0
  0
POLYLINE
  5
93E
330
2
100
AcDbEntity
  8
LOGO
 62
     5
100
AcDb2dPolyline
 66
     1
 10
0.0
 20
0.0
 30
0.0
 40
0.3520403306320958
 41
0.3520403306320958
  0
VERTEX
  5
93F
330
93E
100
AcDbEntity
  8
LOGO
 62
     5
100
AcDbVertex
100
AcDb2dVertex
 10
449.4641320378959
 20
-142.9870829186923
 30
0.0
 42
1.0
  0
VERTEX
  5
940
330
93E
100
AcDbEntity
  8
LOGO
 62
     5
100
AcDbVertex
100
AcDb2dVertex
 10
448.4080110459989
 20
-142.9870829186923
 30
0.0
 42
1.0
  0
SEQEND
  5
941
330
93E
100
AcDbEntity
  8
LOGO
 62
     5
  0
POLYLINE
  5
942
330
2
100
AcDbEntity
  8
LOGO
 62
     5
100
AcDb2dPolyline
 66
     1
 10
0.0
 20
0.0
 30
0.0
 40
0.3520403306320958
 41
0.3520403306320958
  0
VERTEX
  5
943
330
942
100
AcDbEntity
  8
LOGO
 62
     5
100
AcDbVertex
100
AcDb2dVertex
 10
450.5185632362047
 20
-142.9870829186923
 30
0.0
 42
1.0
  0
VERTEX
  5
944
330
942
100
AcDbEntity
  8
LOGO
 62
     5
100
AcDbVertex
100
AcDb2dVertex
 10
449.4624422443082
 20
-142.9870829186923
 30
0.0
 42
1.0
  0
SEQEND
  5
945
330
942
100
AcDbEntity
  8
LOGO
 62
     5
  0
POLYLINE
  5
946
330
2
100
AcDbEntity
  8
LOGO
 62
     5
100
AcDb2dPolyline
 66
     1
 10
0.0
 20
0.0
 30
0.0
 40
0.3520403306320958
 41
0.3520403306320958
  0
VERTEX
  5
947
330
946
100
AcDbEntity
  8
LOGO
 62
     5
100
AcDbVertex
100
AcDb2dVertex
 10
445.480701856922
 20
-142.9870829186923
 30
0.0
 42
1.0
  0
VERTEX
  5
948
330
946
100
AcDbEntity
  8
LOGO
 62
     5
100
AcDbVertex
100
AcDb2dVertex
 10
444.4245808650258
 20
-142.9870829186923
 30
0.0
 42
1.0
  0
SEQEND
  5
949
330
946
100
AcDbEntity
  8
LOGO
 62
     5
  0
SOLID
  5
94A
330
2
100
AcDbEntity
  8
LOGO
 62
     5
100
AcDbTrace
 10
444.2496872287679
 20
-142.2841287864859
 30
0.0
 11
444.6011642948705
 21
-142.2841287864859
 31
0.0
 12
444.2496872287679
 22
-144.0415141170013
 32
0.0
 13
444.6011642948705
 23
-144.0415141170013
 33
0.0
  0
SOLID
  5
94B
330
2
100
AcDbEntity
  8
LOGO
 62
     5
100
AcDbTrace
 10
445.3041184270777
 20
-142.9870829186923
 30
0.0
 11
445.6555954931814
 21
-142.9870829186923
 31
0.0
 12
445.3041184270777
 22
-144.0415141170013
 32
0.0
 13
445.6555954931814
 23
-144.0415141170013
 33
0.0
  0
POLYLINE
  5
94C
330
2
100
AcDbEntity
  8
LOGO
 62
     5
100
AcDb2dPolyline
 66
     1
 10
0.0
 20
0.0
 30
0.0
 70
     1
 40
0.3520403306320958
 41
0.3520403306320958
  0
VERTEX
  5
94D
330
94C
100
AcDbEntity
  8
LOGO
 62
     5
100
AcDbVertex
100
AcDb2dVertex
 10
446.2403109379027
 20
-143.1628214517437
 30
0.0
 42
1.0
  0
VERTEX
  5
94E
330
94C
100
AcDbEntity
  8
LOGO
 62
     5
100
AcDbVertex
100
AcDb2dVertex
 10
447.6484722604311
 20
-143.1628214517437
 30
0.0
 42
1.0
  0
SEQEND
  5
94F
330
94C
100
AcDbEntity
  8
LOGO
 62
     5
  0
SOLID
  5
950
330
2
100
AcDbEntity
  8
LOGO
 62
     5
100
AcDbTrace
 10
447.4715720506156
 20
-141.7569131873311
 30
0.0
 11
447.8230491167188
 21
-141.7569131873311
 31
0.0
 12
447.4715720506156
 22
-144.0415141170013
 32
0.0
 13
447.8230491167188
 23
-144.0415141170013
 33
0.0
  0
SOLID
  5
951
330
2
100
AcDbEntity
  8
LOGO
 62
     5
100
AcDbTrace
 10
448.2331174097419
 20
-142.2841287864859
 30
0.0
 11
448.5845944758446
 21
-142.2841287864859
 31
0.0
 12
448.2331174097419
 22
-144.0415141170013
 32
0.0
 13
448.5845944758446
 23
-144.0415141170013
 33
0.0
  0
SOLID
  5
952
330
2
100
AcDbEntity
  8
LOGO
 62
     5
100
AcDbTrace
 10
449.2875486080502
 20
-142.9870829186923
 30
0.0
 11
449.6390256741534
 21
-142.9870829186923
 31
0.0
 12
449.2875486080502
 22
-144.0415141170013
 32
0.0
 13
449.6390256741534
 23
-144.0415141170013
 33
0.0
  0
SOLID
  5
953
330
2
100
AcDbEntity
  8
LOGO
 62
     5
100
AcDbTrace
 10
450.341979806359
 20
-142.9870829186923
 30
0.0
 11
450.6934568724627
 21
-142.9870829186923
 31
0.0
 12
450.341979806359
 22
-144.0415141170016
 32
0.0
 13
450.6934568724627
 23
-144.0415141170016
 33
0.0
  0
SOLID
  5
954
330
2
100
AcDbEntity
  8
LOGO
 62
     5
100
AcDbTrace
 10
443.4881418696421
 20
-142.0380948402138
 30
0.0
 11
443.8396189357469
 21
-142.0380948402138
 31
0.0
 12
443.4881418696421
 22
-141.7569131873311
 32
0.0
 13
443.8396189357469
 23
-141.7569131873311
 33
0.0
  0
SOLID
  5
955
330
2
100
AcDbEntity
  8
LOGO
 62
     5
100
AcDbTrace
 10
443.4881418696421
 20
-142.2841287864859
 30
0.0
 11
443.8396189357469
 21
-142.2841287864859
 31
0.0
 12
443.4881418696421
 22
-144.0415141170016
 32
0.0
 13
443.8396189357469
 23
-144.0415141170013
 33
0.0
  0
SOLID
  5
956
330
2
100
AcDbEntity
  8
LOGO
 62
     5
100
AcDbTrace
 10
446.944391599167
 20
-140.5267434559704
 30
0.0
 11
447.9636750908662
 21
-140.5267434559704
 31
0.0
 12
446.944391599167
 22
-135.3717464864588
 32
0.0
 13
447.9636750908662
 23
-131.6343736835626
 33
0.0
  0
SOLID
  5
957
330
2
100
AcDbEntity
  8
LOGO
 62
     5
100
AcDbTrace
 10
448.3854475701905
 20
-130.8611241381362
 30
0.0
 11
449.4047310618894
 21
-130.8611241381355
 31
0.0
 12
448.3854475701905
 22
-139.7534939105442
 32
0.0
 13
449.4047310618894
 23
-136.0161211076478
 33
0.0
  0
SOLID
  5
958
330
2
100
AcDbEntity
  8
LOGO
 62
     2
100
AcDbTrace
 10
447.9636750908662
 20
-130.8611241381362
 30
0.0
 11
448.3854475701905
 21
-130.8611241381362
 31
0.0
 12
447.9636750908662
 22
-140.5267434559704
 32
0.0
 13
448.3854475701905
 23
-140.5267434559704
 33
0.0
  0
SOLID
  5
959
330
2
100
AcDbEntity
  8
LOGO
 62
     5
100
AcDbTrace
 10
448.3854475701905
 20
-139.7534939105442
 30
0.0
 11
449.4047310618894
 21
-136.0161211076478
 31
0.0
 12
453.2358310824122
 22
-130.8611241381355
 32
0.0
 13
452.2165475907137
 23
-130.8611241381355
 33
0.0
  0
SOLID
  5
95A
330
2
100
AcDbEntity
  8
LOGO
 62
     5
100
AcDbTrace
 10
448.3854475701905
 20
-140.5267434559704
 30
0.0
 11
449.4047310618894
 21
-140.5267434559704
 31
0.0
 12
453.2358310824122
 22
-131.6343736835626
 32
0.0
 13
452.2165475907137
 23
-135.3717464864588
 33
0.0
  0
SOLID
  5
95B
330
2
100
AcDbEntity
  8
LOGO
 62
     2
100
AcDbTrace
 10
447.9636750908662
 20
-140.5267434559704
 30
0.0
 11
448.3854475701905
 21
-140.5267434559704
 31
0.0
 12
453.2358310824122
 22
-130.8611241381355
 32
0.0
 13
453.6576035617361
 23
-130.8611241381362
 33
0.0
  0
LWPOLYLINE
  5
95C
330
2
100
AcDbEntity
  8
LOGO
 62
     4
100
AcDbPolyline
 90
        4
 70
     1
 43
0.0
 10
439.226381860869
 20
-130.3011293279892
 10
695.4095674428835
 20
-130.3011293279891
 10
695.4095674428834
 20
-153.8752586113885
 10
439.226381860869
 20
-153.8752586113886
1001
GENIUS_GENREC_14
1002
{
1000
PYDIR
1011
439.226381860869
1021
-153.8752586113886
1031
0.0
1002
}
1002
{
1000
PXDIR
1011
695.4095674428835
1021
-130.3011293279891
1031
0.0
1002
}
1002
{
1000
PORI
1011
439.226381860869
1021
-130.3011293279892
1031
0.0
1002
}
1002
{
1000
PINS
1011
439.226381860869
1021
-130.3011293279892
1031
0.0
1002
}
1002
{
1000
PINS2
1011
695.4095674428834
1021
-153.8752586113885
1031
0.0
1002
}
1002
{
1000
C
1070
     1
1002
}
1001
GENIUS_GENOBJ-N-REC_13
1002
{
1000
OWNER
1000
GEN
1002
}
1001
GENIUS_GENODEF_13
1002
{
1000
HIER
1070
     0
1002
}
1002
{
1000
MANEDIT
1070
     0
1002
}
1002
{
1000
NOSEL
1070
     0
1002
}
1002
{
1000
BEHIND
1070
     0
1002
}
1002
{
1000
OTHER
1070
     0
1002
}
1002
{
1000
REACTOR
1002
}
  0
TEXT
  5
95D
330
2
100
AcDbEntity
  8
LOGO
100
AcDbText
 10
492.0245543104946
 20
-152.6211242380712
 30
0.0
 40
2.357754322630987
  1
0130308B
 41
0.7
  7
chineset
 72
     1
 11
497.9189401170721
 21
-152.6211242380712
 31
0.0
100
AcDbText
  0
LINE
  5
95E
330
2
100
AcDbEntity
  8
LOGO
 62
     4
100
AcDbLine
 10
505.2359922201315
 20
-149.160432754708
 30
0.0
 11
505.2359922201331
 21
-153.8752586113882
 31
0.0
  0
LINE
  5
95F
330
2
100
AcDbEntity
  8
LOGO
 62
     4
100
AcDbLine
 10
505.2359922201315
 20
-149.160432754708
 30
0.0
 11
491.0894662843471
 21
-149.160432754708
 31
0.0
  0
CIRCLE
  5
960
330
2
100
AcDbEntity
  8
LOGO
  6
Continuous
100
AcDbCircle
 10
479.7384249927836
 20
-137.3683255895041
 30
0.0
 40
1.368769433439616
  0
CIRCLE
  5
961
330
2
100
AcDbEntity
  8
LOGO
  6
Continuous
100
AcDbCircle
 10
479.7384249927836
 20
-137.3683255895041
 30
0.0
 40
0.8019777176933247
  0
LINE
  5
962
330
2
100
AcDbEntity
  8
LOGO
100
AcDbLine
 10
488.3399309378063
 20
-138.7370950229438
 30
0.0
 11
488.3399309378063
 21
-135.9995561560642
 31
0.0
  0
LINE
  5
963
330
2
100
AcDbEntity
  8
LOGO
100
AcDbLine
 10
484.0489173350873
 20
-138.1703033071973
 30
0.0
 11
484.0489173350873
 21
-136.5663478718105
 31
0.0
  0
LINE
  5
964
330
2
100
AcDbEntity
  8
LOGO
  6
Continuous
100
AcDbLine
 10
484.0489173350873
 20
-136.5663478718105
 30
0.0
 11
488.3399309378063
 21
-135.9995561560642
 31
0.0
  0
LINE
  5
965
330
2
100
AcDbEntity
  8
LOGO
  6
Continuous
100
AcDbLine
 10
484.0489173350873
 20
-138.1703033071973
 30
0.0
 11
488.3399309378063
 21
-138.7370950229438
 31
0.0
  0
LINE
  5
966
330
2
100
AcDbEntity
  8
LOGO
  6
AM_ISO08W050x2
 48
0.3
100
AcDbLine
 10
477.8515558330781
 20
-137.3683255895041
 30
0.0
 11
481.6252941524878
 21
-137.3683255895041
 31
0.0
1001
GENIUS_GENOREF_13
1005
96C
  0
LINE
  5
967
330
2
100
AcDbEntity
  8
LOGO
  6
AM_ISO08W050x2
 48
0.3
100
AcDbLine
 10
479.7384249927836
 20
-139.2551947492086
 30
0.0
 11
479.7384249927836
 21
-135.481456429799
 31
0.0
1001
GENIUS_GENOREF_13
1005
96B
  0
LINE
  5
968
330
2
100
AcDbEntity
  8
LOGO
  6
CENTER
 48
0.5
100
AcDbLine
 10
483.7057555150351
 20
-137.3683255895041
 30
0.0
 11
488.7720221168723
 21
-137.3683255895041
 31
0.0
1001
GENIUS_GENOREF_13
1005
96A
  0
LWPOLYLINE
  5
969
330
2
100
AcDbEntity
  8
LOGO
 62
     4
100
AcDbPolyline
 90
        4
 70
     1
 43
0.0
 10
439.226381860869
 20
37.14514006278259
 10
695.4095674428835
 20
37.14514006278259
 10
695.4095674428835
 20
-130.3011293279892
 10
439.226381860869
 20
-130.3011293279892
  0
POINT
  5
96A
330
2
100
AcDbEntity
  8
0
 60
     1
100
AcDbPoint
 10
2451.108849283049
 20
-757.9063032409765
 30
0.0
1001
GENIUS_GENOBJ-N-CRS_13
1002
{
1000
OWNER
1000
GEN
1002
}
1001
GENIUS_GENOLIS_13
1002
{
1000
ENT
1005
0
1005
0
1005
0
1005
968
1002
}
1001
GENIUS_GENOENT_13
1002
{
1000
MYREF
1005
96A
1002
}
1002
{
1000
GRP
1005
0
1002
}
1001
GENIUS_GENODEF_13
1002
{
1000
HIER
1070
    10
1002
}
1002
{
1000
MANEDIT
1070
     1
1002
}
1002
{
1000
NOSEL
1070
     0
1002
}
1002
{
1000
BEHIND
1070
     0
1002
}
1002
{
1000
OTHER
1070
     0
1002
}
1002
{
1000
REACTOR
1002
}
  0
POINT
  5
96B
330
2
100
AcDbEntity
  8
0
 60
     1
100
AcDbPoint
 10
2439.784264060194
 20
-749.0307167623402
 30
0.0
1001
GENIUS_GENOBJ-N-CRS_13
1002
{
1000
OWNER
1000
GEN
1002
}
1001
GENIUS_GENOLIS_13
1002
{
1000
ENT
1005
0
1005
0
1005
0
1005
967
1002
}
1001
GENIUS_GENOENT_13
1002
{
1000
MYREF
1005
96B
1002
}
1002
{
1000
GRP
1005
0
1002
}
1001
GENIUS_GENODEF_13
1002
{
1000
HIER
1070
    10
1002
}
1002
{
1000
MANEDIT
1070
     1
1002
}
1002
{
1000
NOSEL
1070
     0
1002
}
1002
{
1000
BEHIND
1070
     0
1002
}
1002
{
1000
OTHER
1070
     0
1002
}
1002
{
1000
REACTOR
1002
}
  0
POINT
  5
96C
330
2
100
AcDbEntity
  8
0
 60
     1
100
AcDbPoint
 10
2446.142937758031
 20
-757.9063032409765
 30
0.0
1001
GENIUS_GENOBJ-N-CRS_13
1002
{
1000
OWNER
1000
GEN
1002
}
1001
GENIUS_GENOLIS_13
1002
{
1000
ENT
1005
0
1005
0
1005
0
1005
966
1002
}
1001
GENIUS_GENOENT_13
1002
{
1000
MYREF
1005
96C
1002
}
1002
{
1000
GRP
1005
0
1002
}
1001
GENIUS_GENODEF_13
1002
{
1000
HIER
1070
    10
1002
}
1002
{
1000
MANEDIT
1070
     1
1002
}
1002
{
1000
NOSEL
1070
     0
1002
}
1002
{
1000
BEHIND
1070
     0
1002
}
1002
{
1000
OTHER
1070
     0
1002
}
1002
{
1000
REACTOR
1002
}
  0
ARC
  5
FFB
330
2
100
AcDbEntity
  8
AM_VIS
100
AcDbCircle
 10
503.601535656242
 20
-49.06601263319529
 30
0.0
 40
40.0
100
AcDbArc
 50
350.8730409181367
 51
21.37307344131693
  0
ARC
  5
FFC
330
2
100
AcDbEntity
  8
AM_VIS
100
AcDbCircle
 10
503.601535656242
 20
-49.06601263319529
 30
0.0
 40
40.0
100
AcDbArc
 50
158.626926558683
 51
189.1269590818632
  0
ARC
  5
FFD
330
2
100
AcDbEntity
  8
AM_VIS
100
AcDbCircle
 10
503.6015356562424
 20
-49.06601263319541
 30
0.0
 40
15.0
100
AcDbArc
 50
186.8698976458465
 51
233.1301023541625
  0
ARC
  5
FFE
330
2
100
AcDbEntity
  8
AM_VIS
100
AcDbCircle
 10
503.6015356562424
 20
-49.06601263319541
 30
0.0
 40
15.0
100
AcDbArc
 50
306.8698976458375
 51
353.1301023541533
  0
LINE
  5
FFF
330
2
100
AcDbEntity
  8
3
100
AcDbLine
 10
491.0933673610416
 20
-41.84441830089198
 30
0.0
 11
465.5948180090736
 21
-27.12282396858845
 31
0.0
  0
LINE
  5
1000
330
2
100
AcDbEntity
  8
3
100
AcDbLine
 10
516.0618567108813
 20
-41.87204291811051
 30
0.0
 11
541.5125588222863
 21
-27.17807320302572
 31
0.0
  0
LINE
  5
1001
330
2
100
AcDbEntity
  8
3
100
AcDbLine
 10
503.601535656242
 20
-5.726637092029449
 30
0.0
 11
503.601535656242
 21
-91.99743041042458
 31
0.0
  0
ARC
  5
1002
330
2
100
AcDbEntity
  8
AM_VIS
100
AcDbCircle
 10
503.601535656242
 20
-49.06601263319529
 30
0.0
 40
40.0
100
AcDbArc
 50
194.87304091814
 51
227.455953115747
  0
LINE
  5
1003
330
2
100
AcDbEntity
  8
AM_VIS
100
AcDbLine
 10
468.0153862455381
 20
-58.16359308730781
 30
0.0
 11
466.059091044071
 21
-58.57941646894321
 31
0.0
  0
LINE
  5
1004
330
2
100
AcDbEntity
  8
AM_VIS
100
AcDbLine
 10
467.3916511730849
 20
-55.22915028510644
 30
0.0
 11
465.4353559716177
 21
-55.64497366674195
 31
0.0
  0
LINE
  5
1005
330
2
100
AcDbEntity
  8
3
100
AcDbLine
 10
473.3347536009587
 20
-55.49941575968225
 30
0.0
 11
463.4094824832236
 21
-57.60909726211091
 31
0.0
  0
LINE
  5
1006
330
2
100
AcDbEntity
  8
AM_VIS
100
AcDbLine
 10
470.9233948780457
 20
-61.60152679418522
 30
0.0
 11
466.5460086915572
 21
-64.12881188730134
 31
0.0
  0
LINE
  5
1007
330
2
100
AcDbEntity
  8
3
100
AcDbLine
 10
466.2897663409112
 20
-70.60797269134318
 30
0.0
 11
479.6685770072736
 21
-62.88371275168183
 31
0.0
  0
LINE
  5
1008
330
2
100
AcDbEntity
  8
AM_VIS
100
AcDbLine
 10
466.0590910440705
 20
-58.57941646894321
 30
0.0
 11
464.9416572689115
 21
-59.33313506729539
 31
0.0
  0
LINE
  5
1009
330
2
100
AcDbEntity
  8
AM_VIS
100
AcDbLine
 10
465.4353559716173
 20
-55.64497366674195
 30
0.0
 11
464.1079644495866
 21
-55.41091872744434
 31
0.0
  0
LINE
  5
100A
330
2
100
AcDbEntity
  8
AM_VIS
100
AcDbLine
 10
494.6015356562424
 20
-61.06601263319541
 30
0.0
 11
512.6015356562425
 21
-61.06601263319541
 31
0.0
  0
ARC
  5
100B
330
2
100
AcDbEntity
  8
AM_VIS
100
AcDbCircle
 10
503.601535656242
 20
-49.06601263319529
 30
0.0
 40
40.0
100
AcDbArc
 50
278.6269265586839
 51
306.8310477304842
  0
LINE
  5
100C
330
2
100
AcDbEntity
  8
AM_VIS
100
AcDbLine
 10
503.601535656242
 20
-91.06345249976582
 30
0.0
 11
515.1015356562425
 21
-91.06345249976582
 31
0.0
  0
ARC
  5
100D
330
2
100
AcDbEntity
  8
AM_VIS
100
AcDbCircle
 10
503.601535656242
 20
-49.06601263319529
 30
0.0
 40
40.0
100
AcDbArc
 50
233.1689522695158
 51
261.3730734413161
  0
LINE
  5
100E
102
{ACAD_REACTORS
330
10BB
102
}
330
2
100
AcDbEntity
  8
AM_VIS
100
AcDbLine
 10
497.601535656242
 20
-61.06601263319541
 30
0.0
 11
497.601535656242
 21
-91.01601263319535
 31
0.0
  0
LINE
  5
100F
102
{ACAD_REACTORS
330
10BB
102
}
330
2
100
AcDbEntity
  8
AM_VIS
100
AcDbLine
 10
509.601535656242
 20
-61.06601263319541
 30
0.0
 11
509.601535656242
 21
-91.01601263319535
 31
0.0
  0
ARC
  5
1010
330
2
100
AcDbEntity
  8
AM_4
100
AcDbCircle
 10
503.601535656242
 20
-86.06345249976582
 30
0.0
 40
3.0
100
AcDbArc
 50
107.6812618693817
 51
16.98769100492193
  0
LINE
  5
1011
102
{ACAD_REACTORS
330
10AC
330
10AF
102
}
330
2
100
AcDbEntity
  8
3
100
AcDbLine
 10
499.5333663004162
 20
-86.06345249976582
 30
0.0
 11
507.8524366165433
 21
-86.06345249976582
 31
0.0
  0
LINE
  5
1012
330
2
100
AcDbEntity
  8
AM_VIS
100
AcDbLine
 10
503.601535656242
 20
-91.06345249976582
 30
0.0
 11
492.101535656242
 21
-91.06345249976582
 31
0.0
  0
LINE
  5
1013
102
{ACAD_REACTORS
330
10B5
330
10BE
102
}
330
2
100
AcDbEntity
  8
AM_VIS
100
AcDbLine
 10
492.101535656242
 20
-87.32723814217635
 30
0.0
 11
492.101535656242
 21
-91.06345249976582
 31
0.0
  0
CIRCLE
  5
1014
330
2
100
AcDbEntity
  8
AM_VIS
100
AcDbCircle
 10
503.601535656242
 20
-86.06345249976582
 30
0.0
 40
2.25
  0
ARC
  5
1015
330
2
100
AcDbEntity
  8
AM_VIS
100
AcDbCircle
 10
473.290646523787
 20
-66.56601263319564
 30
0.0
 40
5.5
100
AcDbArc
 50
304.5064561284804
 51
115.4935438715114
  0
LINE
  5
1016
330
2
100
AcDbEntity
  8
3
100
AcDbLine
 10
484.0439718180054
 20
-73.02860261630858
 30
0.0
 11
476.9498959427501
 21
-80.90737206451555
 31
0.0
  0
LINE
  5
1017
330
2
100
AcDbEntity
  8
AM_VIS
100
AcDbLine
 10
479.1267196449398
 20
-76.42551435379923
 30
0.0
 11
477.7979921400124
 21
-77.92033314470629
 31
0.0
  0
LINE
  5
1018
330
2
100
AcDbEntity
  8
AM_VIS
100
AcDbLine
 10
477.7979921400124
 20
-77.92033314470629
 30
0.0
 11
476.5552636731976
 21
-78.53632263867698
 31
0.0
  0
LINE
  5
1019
330
2
100
AcDbEntity
  8
AM_VIS
100
AcDbLine
 10
476.4063915542274
 20
-71.09835561506324
 30
0.0
 11
472.029005367739
 21
-73.62564070817947
 31
0.0
  0
LINE
  5
101A
330
2
100
AcDbEntity
  8
AM_VIS
100
AcDbLine
 10
481.4312312982429
 20
-72.85455845379281
 30
0.0
 11
478.6409035378951
 21
-75.99367791469771
 31
0.0
  0
LINE
  5
101B
330
2
100
AcDbEntity
  8
AM_VIS
100
AcDbLine
 10
484.6450916986932
 20
-75.71132258938698
 30
0.0
 11
481.854763938345
 21
-78.85044205029188
 31
0.0
  0
LINE
  5
101C
330
2
100
AcDbEntity
  8
AM_VIS
100
AcDbLine
 10
479.1267196449398
 20
-76.42551435379923
 30
0.0
 11
478.6409035378951
 21
-75.99367791469771
 31
0.0
  0
LINE
  5
101D
330
2
100
AcDbEntity
  8
AM_VIS
100
AcDbLine
 10
480.0402203263729
 20
-79.91342440209766
 30
0.0
 11
479.6232390577424
 21
-81.08227869022286
 31
0.0
  0
LINE
  5
101E
330
2
100
AcDbEntity
  8
AM_VIS
100
AcDbLine
 10
481.3689478313003
 20
-78.41860561119048
 30
0.0
 11
481.854763938345
 21
-78.85044205029188
 31
0.0
  0
LINE
  5
101F
330
2
100
AcDbEntity
  8
AM_VIS
100
AcDbLine
 10
481.3689478313003
 20
-78.41860561119048
 30
0.0
 11
480.0402203263729
 21
-79.91342440209743
 31
0.0
  0
LINE
  5
1020
330
2
100
AcDbEntity
  8
AM_VIS
100
AcDbLine
 10
483.038161498468
 20
-74.28294052158989
 30
0.0
 11
484.6450916986932
 21
-75.71132258938698
 31
0.0
  0
LINE
  5
1021
330
2
100
AcDbEntity
  8
AM_VIS
100
AcDbLine
 10
483.038161498468
 20
-74.28294052158978
 30
0.0
 11
481.4312312982429
 21
-72.85455845379281
 31
0.0
  0
LINE
  5
1022
330
2
100
AcDbEntity
  8
AM_VIS
100
AcDbLine
 10
471.8117386323938
 20
-55.82314258477251
 30
0.0
 11
472.2587487676519
 21
-57.9261599263501
 31
0.0
  0
LINE
  5
1023
330
2
100
AcDbEntity
  8
AM_VIS
100
AcDbLine
 10
472.2587487676519
 20
-57.9261599263501
 30
0.0
 11
468.1505288445696
 21
-58.79938902778471
 31
0.0
  0
LINE
  5
1024
330
2
100
AcDbEntity
  8
AM_VIS
100
AcDbLine
 10
467.3916511730849
 20
-55.22915028510644
 30
0.0
 11
467.2565085740534
 21
-54.59335434462943
 31
0.0
  0
LINE
  5
1025
330
2
100
AcDbEntity
  8
AM_VIS
100
AcDbLine
 10
471.3647284971353
 20
-53.72012524319481
 30
0.0
 11
467.2565085740534
 21
-54.59335434462943
 31
0.0
  0
LINE
  5
1026
330
2
100
AcDbEntity
  8
AM_VIS
100
AcDbLine
 10
468.0153862455381
 20
-58.16359308730781
 30
0.0
 11
468.1505288445696
 21
-58.79938902778471
 31
0.0
  0
LINE
  5
1027
330
2
100
AcDbEntity
  8
AM_VIS
100
AcDbLine
 10
471.8117386323938
 20
-55.82314258477251
 30
0.0
 11
471.3647284971353
 21
-53.72012524319481
 31
0.0
  0
CIRCLE
  5
1028
330
2
100
AcDbEntity
  8
AM_VIS
100
AcDbCircle
 10
503.601535656242
 20
-70.06345249976582
 30
0.0
 40
2.25
  0
ARC
  5
1029
330
2
100
AcDbEntity
  8
AM_4
100
AcDbCircle
 10
503.601535656242
 20
-70.06345249976582
 30
0.0
 40
3.0
100
AcDbArc
 50
106.0625026287279
 51
8.520626207146882
  0
LINE
  5
102A
330
2
100
AcDbEntity
  8
AM_VIS
100
AcDbLine
 10
497.601535656242
 20
-81.06345249976582
 30
0.0
 11
509.601535656242
 21
-81.06345249976582
 31
0.0
  0
LINE
  5
102B
102
{ACAD_REACTORS
330
10B2
102
}
330
2
100
AcDbEntity
  8
AM_VIS
100
AcDbLine
 10
497.601535656242
 20
-75.06345249976582
 30
0.0
 11
509.601535656242
 21
-75.06345249976582
 31
0.0
  0
LINE
  5
102C
102
{ACAD_REACTORS
330
10AC
330
10B2
102
}
330
2
100
AcDbEntity
  8
3
100
AcDbLine
 10
499.8357473897089
 20
-70.06345249976582
 30
0.0
 11
507.6295156562423
 21
-70.06345249976582
 31
0.0
  0
CIRCLE
  5
102D
330
2
100
AcDbEntity
  8
AM_VIS
100
AcDbCircle
 10
503.6015356562424
 20
-78.06345249976581
 30
0.0
 40
2.5
  0
LINE
  5
102E
330
2
100
AcDbEntity
  8
3
100
AcDbLine
 10
507.6295156562419
 20
-78.06345249976581
 30
0.0
 11
500.3515356562429
 21
-78.0634524997657
 31
0.0
  0
LINE
  5
102F
102
{ACAD_REACTORS
330
10B5
102
}
330
2
100
AcDbEntity
  8
AM_VIS
100
AcDbLine
 10
503.601535656242
 20
-66.06345249976581
 30
0.0
 11
497.601535656242
 21
-66.06345249976581
 31
0.0
  0
LINE
  5
1030
330
2
100
AcDbEntity
  8
AM_VIS
100
AcDbLine
 10
503.601535656242
 20
-66.06345249976581
 30
0.0
 11
509.601535656242
 21
-66.06345249976581
 31
0.0
  0
LINE
  5
1031
102
{ACAD_REACTORS
330
10AF
330
10B8
330
10BE
102
}
330
2
100
AcDbEntity
  8
AM_VIS
100
AcDbLine
 10
515.101535656242
 20
-87.32723814217647
 30
0.0
 11
515.1015356562425
 21
-91.06345249976582
 31
0.0
  0
ARC
  5
1032
330
2
100
AcDbEntity
  8
AM_VIS
100
AcDbCircle
 10
503.601535656242
 20
-49.06601263319529
 30
0.0
 40
40.0
100
AcDbArc
 50
312.5440468842529
 51
345.1269590818599
  0
LINE
  5
1033
330
2
100
AcDbEntity
  8
AM_VIS
100
AcDbLine
 10
530.7966797582576
 20
-71.09835561506267
 30
0.0
 11
535.1740659447459
 21
-73.62564070817867
 31
0.0
  0
ARC
  5
1034
330
2
100
AcDbEntity
  8
AM_VIS
100
AcDbCircle
 10
533.912424788698
 20
-66.56601263319496
 30
0.0
 40
5.5
100
AcDbArc
 50
64.50645612848851
 51
235.4935438715195
  0
LINE
  5
1035
330
2
100
AcDbEntity
  8
3
100
AcDbLine
 10
540.9133049715737
 20
-70.60797269134306
 30
0.0
 11
527.9918482804236
 21
-63.14776619238554
 31
0.0
  0
LINE
  5
1036
330
2
100
AcDbEntity
  8
AM_VIS
100
AcDbLine
 10
524.1649098140165
 20
-74.28294052158989
 30
0.0
 11
522.5579796137913
 21
-75.71132258938698
 31
0.0
  0
LINE
  5
1037
330
2
100
AcDbEntity
  8
AM_VIS
100
AcDbLine
 10
522.5579796137913
 20
-75.71132258938698
 30
0.0
 11
525.3483073741395
 21
-78.85044205029188
 31
0.0
  0
LINE
  5
1038
330
2
100
AcDbEntity
  8
AM_VIS
100
AcDbLine
 10
525.7718400142416
 20
-72.85455845379281
 30
0.0
 11
528.5621677745893
 21
-75.99367791469759
 31
0.0
  0
LINE
  5
1039
330
2
100
AcDbEntity
  8
3
100
AcDbLine
 10
523.159099494479
 20
-73.02860261630858
 30
0.0
 11
530.2531753697349
 21
-80.90737206451544
 31
0.0
  0
LINE
  5
103A
330
2
100
AcDbEntity
  8
AM_VIS
100
AcDbLine
 10
528.0763516675447
 20
-76.42551435379923
 30
0.0
 11
528.5621677745893
 21
-75.99367791469759
 31
0.0
  0
LINE
  5
103B
330
2
100
AcDbEntity
  8
AM_VIS
100
AcDbLine
 10
528.0763516675447
 20
-76.42551435379923
 30
0.0
 11
529.4050791724721
 21
-77.92033314470618
 31
0.0
  0
LINE
  5
103C
330
2
100
AcDbEntity
  8
AM_VIS
100
AcDbLine
 10
525.8341234811841
 20
-78.41860561119048
 30
0.0
 11
525.3483073741395
 21
-78.85044205029188
 31
0.0
  0
LINE
  5
103D
330
2
100
AcDbEntity
  8
AM_VIS
100
AcDbLine
 10
525.8341234811841
 20
-78.41860561119048
 30
0.0
 11
527.1628509861115
 21
-79.91342440209743
 31
0.0
  0
LINE
  5
103E
330
2
100
AcDbEntity
  8
AM_VIS
100
AcDbLine
 10
527.1628509861115
 20
-79.91342440209755
 30
0.0
 11
527.579832254742
 21
-81.08227869022286
 31
0.0
  0
LINE
  5
103F
330
2
100
AcDbEntity
  8
AM_VIS
100
AcDbLine
 10
529.4050791724721
 20
-77.92033314470629
 30
0.0
 11
530.6478076392868
 21
-78.53632263867686
 31
0.0
  0
LINE
  5
1040
330
2
100
AcDbEntity
  8
AM_VIS
100
AcDbLine
 10
524.1649098140165
 20
-74.28294052158978
 30
0.0
 11
525.7718400142416
 21
-72.85455845379281
 31
0.0
  0
LINE
  5
1041
330
2
100
AcDbEntity
  8
AM_VIS
100
AcDbLine
 10
536.2796764344393
 20
-61.60152679418442
 30
0.0
 11
540.6570626209277
 21
-64.12881188730043
 31
0.0
  0
LINE
  5
1042
330
2
100
AcDbEntity
  8
AM_VIS
100
AcDbLine
 10
535.8383428153492
 20
-53.72012524319481
 30
0.0
 11
539.946562738431
 21
-54.59335434462943
 31
0.0
  0
LINE
  5
1043
330
2
100
AcDbEntity
  8
3
100
AcDbLine
 10
533.8683177115258
 20
-55.49941575968225
 30
0.0
 11
543.7935888292608
 21
-57.60909726211091
 31
0.0
  0
LINE
  5
1044
330
2
100
AcDbEntity
  8
AM_VIS
100
AcDbLine
 10
539.1876850669464
 20
-58.16359308730781
 30
0.0
 11
541.1439802684135
 21
-58.57941646894321
 31
0.0
  0
LINE
  5
1045
330
2
100
AcDbEntity
  8
AM_VIS
100
AcDbLine
 10
535.3913326800907
 20
-55.82314258477251
 30
0.0
 11
534.9443225448326
 21
-57.9261599263501
 31
0.0
  0
LINE
  5
1046
330
2
100
AcDbEntity
  8
AM_VIS
100
AcDbLine
 10
535.3913326800907
 20
-55.82314258477251
 30
0.0
 11
535.8383428153492
 21
-53.72012524319481
 31
0.0
  0
LINE
  5
1047
330
2
100
AcDbEntity
  8
AM_VIS
100
AcDbLine
 10
534.9443225448326
 20
-57.9261599263501
 30
0.0
 11
539.0525424679148
 21
-58.79938902778471
 31
0.0
  0
LINE
  5
1048
330
2
100
AcDbEntity
  8
AM_VIS
100
AcDbLine
 10
539.1876850669464
 20
-58.16359308730781
 30
0.0
 11
539.0525424679148
 21
-58.79938902778471
 31
0.0
  0
LINE
  5
1049
330
2
100
AcDbEntity
  8
AM_VIS
100
AcDbLine
 10
539.8114201393996
 20
-55.22915028510644
 30
0.0
 11
541.7677153408667
 21
-55.64497366674195
 31
0.0
  0
LINE
  5
104A
330
2
100
AcDbEntity
  8
AM_VIS
100
AcDbLine
 10
539.8114201393996
 20
-55.22915028510644
 30
0.0
 11
539.946562738431
 21
-54.59335434462943
 31
0.0
  0
LINE
  5
104B
330
2
100
AcDbEntity
  8
AM_VIS
100
AcDbLine
 10
541.7677153408671
 20
-55.64497366674195
 30
0.0
 11
543.0951068628978
 21
-55.41091872744434
 31
0.0
  0
LINE
  5
104C
330
2
100
AcDbEntity
  8
AM_VIS
100
AcDbLine
 10
541.143980268414
 20
-58.57941646894321
 30
0.0
 11
542.261414043573
 21
-59.33313506729539
 31
0.0
  0
CIRCLE
  5
104D
330
2
100
AcDbEntity
  8
AM_VIS
100
AcDbCircle
 10
468.601535656242
 20
-49.06601263319529
 30
0.0
 40
2.5
  0
LINE
  5
104E
330
2
100
AcDbEntity
  8
AM_VIS
100
AcDbLine
 10
490.209230810829
 20
-48.26216505590204
 30
0.0
 11
464.2717699674849
 21
-33.28716505590214
 31
0.0
  0
LINE
  5
104F
330
2
100
AcDbEntity
  8
AM_VIS
100
AcDbLine
 10
467.2306858378829
 20
-28.06729269991021
 30
0.0
 11
461.4806858378829
 21
-38.02658484343132
 31
0.0
  0
LINE
  5
1050
330
2
100
AcDbEntity
  8
3
100
AcDbLine
 10
462.2841539112851
 20
-49.06601263319529
 30
0.0
 11
545.9619830520278
 21
-49.06601263319541
 31
0.0
  0
LINE
  5
1051
330
2
100
AcDbEntity
  8
AM_VIS
100
AcDbLine
 10
464.7163423855395
 20
-39.89469202222594
 30
0.0
 11
461.4806858378829
 21
-38.02658484343132
 31
0.0
  0
LINE
  5
1052
330
2
100
AcDbEntity
  8
AM_VIS
100
AcDbLine
 10
518.4938405016555
 20
-50.86024126725519
 30
0.0
 11
509.4938405016555
 21
-35.27178399913529
 31
0.0
  0
ARC
  5
1053
330
2
100
AcDbEntity
  8
AM_VIS
100
AcDbCircle
 10
503.601535656242
 20
-49.06601263319529
 30
0.0
 40
40.0
100
AcDbArc
 50
38.62692655867456
 51
141.3730734413254
  0
LINE
  5
1054
330
2
100
AcDbEntity
  8
AM_VIS
100
AcDbLine
 10
510.9938405016555
 20
-37.86986021048867
 30
0.0
 11
536.9313013449991
 21
-22.89486021048865
 31
0.0
  0
LINE
  5
1055
330
2
100
AcDbEntity
  8
AM_VIS
100
AcDbLine
 10
467.2306858378829
 20
-28.06729269991021
 30
0.0
 11
472.9806858378829
 21
-18.10800055638921
 31
0.0
  0
LINE
  5
1056
330
2
100
AcDbEntity
  8
AM_VIS
100
AcDbLine
 10
496.209230810829
 20
-37.86986021048878
 30
0.0
 11
470.2717699674849
 21
-22.89486021048887
 31
0.0
  0
LINE
  5
1057
330
2
100
AcDbEntity
  8
AM_VIS
100
AcDbLine
 10
497.7092308108289
 20
-35.27178399913541
 30
0.0
 11
488.7092308108289
 21
-50.86024126725542
 31
0.0
  0
LINE
  5
1058
330
2
100
AcDbEntity
  8
AM_VIS
100
AcDbLine
 10
488.8813209324939
 20
-40.56729269991021
 30
0.0
 11
491.8813209324939
 21
-35.37114027720358
 31
0.0
  0
LINE
  5
1059
330
2
100
AcDbEntity
  8
3
100
AcDbLine
 10
483.5343251840895
 20
-41.82856100400122
 30
0.0
 11
487.4312093173561
 21
-35.07895969397461
 31
0.0
  0
CIRCLE
  5
105A
330
2
100
AcDbEntity
  8
AM_VIS
100
AcDbCircle
 10
485.4172193173562
 20
-38.56729269991021
 30
0.0
 40
2.25
  0
ARC
  5
105B
330
2
100
AcDbEntity
  8
AM_4
100
AcDbCircle
 10
485.4172193173562
 20
-38.56729269991021
 30
0.0
 40
3.0
100
AcDbArc
 50
51.47937379286137
 51
313.937497371266
  0
LINE
  5
105C
330
2
100
AcDbEntity
  8
AM_VIS
100
AcDbLine
 10
478.087092298434
 20
-41.26344512261684
 30
0.0
 11
484.0870922984341
 21
-30.87114027720358
 31
0.0
  0
LINE
  5
105D
330
2
100
AcDbEntity
  8
AM_VIS
100
AcDbLine
 10
488.8813209324939
 20
-40.56729269991021
 30
0.0
 11
485.881320932494
 21
-45.76344512261684
 31
0.0
  0
LINE
  5
105E
330
2
100
AcDbEntity
  8
3
100
AcDbLine
 10
480.0045365672312
 20
-31.94233422837803
 30
0.0
 11
476.8640160870809
 21
-37.38187526220915
 31
0.0
  0
CIRCLE
  5
105F
330
2
100
AcDbEntity
  8
AM_VIS
100
AcDbCircle
 10
478.4890160870808
 20
-34.56729269990987
 30
0.0
 40
2.5
  0
LINE
  5
1060
330
2
100
AcDbEntity
  8
AM_VIS
100
AcDbLine
 10
472.8909398757273
 20
-38.26344512261684
 30
0.0
 11
478.8909398757273
 21
-27.87114027720358
 31
0.0
  0
LINE
  5
1061
330
2
100
AcDbEntity
  8
3
100
AcDbLine
 10
469.5267281788919
 20
-34.09043070895311
 30
0.0
 11
473.6862633369555
 21
-26.88590447931753
 31
0.0
  0
CIRCLE
  5
1062
330
2
100
AcDbEntity
  8
AM_VIS
100
AcDbCircle
 10
471.560812856805
 20
-30.56729269991021
 30
0.0
 40
2.25
  0
ARC
  5
1063
330
2
100
AcDbEntity
  8
AM_4
100
AcDbCircle
 10
471.560812856805
 20
-30.56729269991021
 30
0.0
 40
3.0
100
AcDbArc
 50
43.01230899506989
 51
312.3187381306116
  0
ARC
  5
1064
330
2
100
AcDbEntity
  8
AM_VIS
100
AcDbCircle
 10
503.6015356562424
 20
-49.06601263319541
 30
0.0
 40
15.0
100
AcDbArc
 50
66.86989764584488
 51
113.1301023541551
  0
LINE
  5
1065
330
2
100
AcDbEntity
  8
AM_VIS
100
AcDbLine
 10
476.2163423855395
 20
-19.97610773518383
 30
0.0
 11
472.9806858378829
 21
-18.10800055638921
 31
0.0
  0
ARC
  5
1066
330
2
100
AcDbEntity
  8
AM_VIS
100
AcDbCircle
 10
503.601535656242
 20
-14.06601263319518
 30
0.0
 40
5.5
100
AcDbArc
 50
184.5064561284802
 51
355.4935438715198
  0
LINE
  5
1067
330
2
100
AcDbEntity
  8
AM_VIS
100
AcDbLine
 10
498.1185389800603
 20
-14.49815549033812
 30
0.0
 11
498.1185389800603
 21
-9.443585304105766
 31
0.0
  0
LINE
  5
1068
330
2
100
AcDbEntity
  8
AM_VIS
100
AcDbLine
 10
509.0845323324242
 20
-14.49815549033812
 30
0.0
 11
509.0845323324242
 21
-9.44358530410588
 31
0.0
  0
LINE
  5
1069
330
2
100
AcDbEntity
  8
AM_VIS
100
AcDbLine
 10
539.9723854746016
 20
-28.06729269990999
 30
0.0
 11
534.2223854746016
 21
-18.10800055638899
 31
0.0
  0
LINE
  5
106A
330
2
100
AcDbEntity
  8
3
100
AcDbLine
 10
533.6081737777663
 20
-27.04415469086721
 30
0.0
 11
537.7677089358298
 21
-34.24868092050266
 31
0.0
  0
CIRCLE
  5
106B
330
2
100
AcDbEntity
  8
AM_VIS
100
AcDbCircle
 10
535.6422584556794
 20
-30.56729269990999
 30
0.0
 40
2.25
  0
ARC
  5
106C
102
{ACAD_REACTORS
330
10A3
102
}
330
2
100
AcDbEntity
  8
AM_4
100
AcDbCircle
 10
535.6422584556794
 20
-30.56729269990999
 30
0.0
 40
3.0
100
AcDbArc
 50
283.0123089950665
 51
192.3187381306168
  0
LINE
  5
106D
330
2
100
AcDbEntity
  8
AM_VIS
100
AcDbLine
 10
516.9938405016555
 20
-48.26216505590193
 30
0.0
 11
542.9313013449996
 21
-33.28716505590179
 31
0.0
  0
LINE
  5
106E
330
2
100
AcDbEntity
  8
AM_VIS
100
AcDbLine
 10
528.3121314367572
 20
-27.87114027720347
 30
0.0
 11
534.3121314367571
 21
-38.26344512261662
 31
0.0
  0
LINE
  5
106F
330
2
100
AcDbEntity
  8
3
100
AcDbLine
 10
519.902957861862
 20
-35.30602439581898
 30
0.0
 11
523.7998419951281
 21
-42.0556257058457
 31
0.0
  0
CIRCLE
  5
1070
330
2
100
AcDbEntity
  8
AM_VIS
100
AcDbCircle
 10
521.7858519951282
 20
-38.5672926999101
 30
0.0
 40
2.25
  0
ARC
  5
1071
330
2
100
AcDbEntity
  8
AM_4
100
AcDbCircle
 10
521.7858519951282
 20
-38.5672926999101
 30
0.0
 40
3.0
100
AcDbArc
 50
291.4793737928544
 51
193.9374973712686
  0
LINE
  5
1072
330
2
100
AcDbEntity
  8
AM_VIS
100
AcDbLine
 10
523.1159790140504
 20
-30.87114027720347
 30
0.0
 11
529.1159790140504
 21
-41.26344512261673
 31
0.0
  0
LINE
  5
1073
330
2
100
AcDbEntity
  8
AM_VIS
100
AcDbLine
 10
518.3217503799905
 20
-40.56729269991009
 30
0.0
 11
515.3217503799906
 21
-35.37114027720347
 31
0.0
  0
LINE
  5
1074
330
2
100
AcDbEntity
  8
AM_VIS
100
AcDbLine
 10
518.3217503799905
 20
-40.56729269991009
 30
0.0
 11
521.3217503799906
 21
-45.76344512261672
 31
0.0
  0
LINE
  5
1075
330
2
100
AcDbEntity
  8
3
100
AcDbLine
 10
530.2295757055544
 20
-37.19225117144228
 30
0.0
 11
527.0890552254041
 21
-31.75271013761116
 31
0.0
  0
CIRCLE
  5
1076
330
2
100
AcDbEntity
  8
AM_VIS
100
AcDbCircle
 10
528.714055225404
 20
-34.56729269991033
 30
0.0
 40
2.5
  0
LINE
  5
1077
330
2
100
AcDbEntity
  8
AM_VIS
100
AcDbLine
 10
542.486728926945
 20
-39.89469202222571
 30
0.0
 11
545.7223854746017
 21
-38.0265848434311
 31
0.0
  0
CIRCLE
  5
1078
330
2
100
AcDbEntity
  8
AM_VIS
100
AcDbCircle
 10
538.6015356562425
 20
-49.06601263319529
 30
0.0
 40
2.5
  0
LINE
  5
1079
330
2
100
AcDbEntity
  8
AM_VIS
100
AcDbLine
 10
539.9723854746016
 20
-28.06729269990999
 30
0.0
 11
545.7223854746017
 21
-38.0265848434311
 31
0.0
  0
LINE
  5
107A
330
2
100
AcDbEntity
  8
AM_VIS
100
AcDbLine
 10
530.986728926945
 20
-19.97610773518372
 30
0.0
 11
534.2223854746016
 21
-18.10800055638899
 31
0.0
  0
LINE
  5
107B
330
2
100
AcDbEntity
  8
AM_VIS
100
AcDbLine
 10
600.6927056600516
 20
-61.06601263319541
 30
0.0
 11
600.6927056600516
 21
-34.06601263319541
 31
0.0
  0
LINE
  5
107C
330
2
100
AcDbEntity
  8
AM_VIS
100
AcDbLine
 10
659.1927056600516
 20
-89.06601263319529
 30
0.0
 11
659.1927056600516
 21
-9.066012633195299
 31
0.0
  0
LINE
  5
107D
330
2
100
AcDbEntity
  8
AM_VIS
100
AcDbLine
 10
602.6927056600515
 20
-49.06601263319541
 30
0.0
 11
602.6927056600515
 21
-89.06601263319542
 31
0.0
  0
LINE
  5
107E
102
{ACAD_REACTORS
330
1094
330
109D
330
10C1
102
}
330
2
100
AcDbEntity
  8
AM_VIS
100
AcDbLine
 10
602.6927056600515
 20
-89.06601263319542
 30
0.0
 11
659.1927056600516
 21
-89.06601263319529
 31
0.0
  0
LINE
  5
107F
330
2
100
AcDbEntity
  8
AM_VIS
100
AcDbLine
 10
600.6927056600516
 20
-61.06601263319541
 30
0.0
 11
602.6927056600515
 21
-61.06601263319541
 31
0.0
  0
LINE
  5
1080
330
2
100
AcDbEntity
  8
3
100
AcDbLine
 10
598.1254780629087
 20
-49.06601263319541
 30
0.0
 11
660.6160724891552
 21
-49.06601263319541
 31
0.0
  0
LINE
  5
1081
102
{ACAD_REACTORS
330
10A0
330
10C1
102
}
330
2
100
AcDbEntity
  8
AM_VIS
100
AcDbLine
 10
602.6927056600515
 20
-9.066012633195299
 30
0.0
 11
659.1927056600516
 21
-9.066012633195299
 31
0.0
  0
LINE
  5
1082
330
2
100
AcDbEntity
  8
AM_VIS
100
AcDbLine
 10
619.6927056600515
 20
-18.1080005563891
 30
0.0
 11
619.6927056600515
 21
-38.0265848434311
 31
0.0
  0
LINE
  5
1083
102
{ACAD_REACTORS
330
1097
330
10A0
102
}
330
2
100
AcDbEntity
  8
AM_VIS
100
AcDbLine
 10
602.6927056600515
 20
-49.06601263319541
 30
0.0
 11
602.6927056600515
 21
-9.066012633195299
 31
0.0
  0
LINE
  5
1084
330
2
100
AcDbEntity
  8
AM_VIS
100
AcDbLine
 10
602.6927056600515
 20
-33.28716505590179
 30
0.0
 11
619.6927056600515
 21
-33.28716505590179
 31
0.0
  0
LINE
  5
1085
330
2
100
AcDbEntity
  8
AM_VIS
100
AcDbLine
 10
602.6927056600515
 20
-38.0265848434311
 30
0.0
 11
619.7566924891552
 21
-38.0265848434311
 31
0.0
  0
LINE
  5
1086
102
{ACAD_REACTORS
330
1097
102
}
330
2
100
AcDbEntity
  8
AM_VIS
100
AcDbLine
 10
600.6927056600516
 20
-34.06601263319541
 30
0.0
 11
602.6927056600515
 21
-34.06601263319541
 31
0.0
  0
LINE
  5
1087
330
2
100
AcDbEntity
  8
AM_VIS
100
AcDbLine
 10
602.6927056600515
 20
-18.10800055638899
 30
0.0
 11
619.6927056600515
 21
-18.1080005563891
 31
0.0
  0
LINE
  5
1088
330
2
100
AcDbEntity
  8
AM_VIS
100
AcDbLine
 10
602.6927056600515
 20
-22.89486021048865
 30
0.0
 11
619.6927056600515
 21
-22.89486021048865
 31
0.0
  0
LINE
  5
1089
330
2
100
AcDbEntity
  8
0
  6
DASHED
 62
     5
370
    15
100
AcDbLine
 10
619.6927056600515
 20
-91.06345249976582
 30
0.0
 11
605.7427056600513
 21
-91.06345249976582
 31
0.0
  0
LINE
  5
108A
330
2
100
AcDbEntity
  8
0
  6
DASHED
 62
     5
370
    15
100
AcDbLine
 10
619.6927056600515
 20
-54.85223545101686
 30
0.0
 11
617.5475491933821
 21
-53.05223545101691
 31
0.0
  0
LINE
  5
108B
102
{ACAD_REACTORS
330
1094
102
}
330
2
100
AcDbEntity
  8
0
  6
DASHED
 62
     5
370
    15
100
AcDbLine
 10
619.6927056600515
 20
-91.06345249976582
 30
0.0
 11
619.6927056600515
 21
-54.85223545101686
 31
0.0
  0
LINE
  5
108C
330
2
100
AcDbEntity
  8
0
  6
DASHED
 62
     5
370
    15
100
AcDbLine
 10
608.7427056600513
 20
-75.06345249976582
 30
0.0
 11
605.7427056600508
 21
-75.06345249976582
 31
0.0
  0
LINE
  5
108D
330
2
100
AcDbEntity
  8
0
  6
DASHED
 62
     5
370
    15
100
AcDbLine
 10
605.7427056600508
 20
-75.06345249976582
 30
0.0
 11
605.7427056600508
 21
-53.05223545101703
 31
0.0
  0
LINE
  5
108E
102
{ACAD_REACTORS
330
109A
330
109D
102
}
330
2
100
AcDbEntity
  8
0
  6
DASHED
 62
     5
370
    15
100
AcDbLine
 10
605.7427056600513
 20
-91.06345249976582
 30
0.0
 11
605.7427056600513
 21
-81.06345249976582
 31
0.0
  0
LINE
  5
108F
330
2
100
AcDbEntity
  8
0
  6
DASHED
 62
     5
370
    15
100
AcDbLine
 10
605.7427056600513
 20
-81.06345249976582
 30
0.0
 11
608.7427056600513
 21
-81.06345249976582
 31
0.0
  0
LINE
  5
1090
102
{ACAD_REACTORS
330
109A
102
}
330
2
100
AcDbEntity
  8
0
  6
DASHED
 62
     5
370
    15
100
AcDbLine
 10
608.7427056600513
 20
-81.06345249976582
 30
0.0
 11
608.7427056600513
 21
-75.06345249976582
 31
0.0
  0
LINE
  5
1091
330
2
100
AcDbEntity
  8
0
  6
DASHED
 62
     5
370
    15
100
AcDbLine
 10
617.5475491933821
 20
-53.05223545101691
 30
0.0
 11
605.7427056600508
 21
-53.05223545101703
 31
0.0
  0
DIMENSION
  5
1092
102
{ACAD_XDICTIONARY
360
1093
102
}
102
{ACAD_REACTORS
330
1094
102
}
330
2
100
AcDbEntity
  8
DIM
100
AcDbDimension
  2
*D42
 10
619.6927056600515
 20
-103.063453499776
 30
0.0
 11
639.4427056600516
 21
-103.063453499776
 31
0.0
 70
   160
 71
     5
 42
39.5
  3
AM_ISO$0
100
AcDbAlignedDimension
 13
659.1927056600516
 23
-89.06601263319529
 33
0.0
 14
619.6927056600515
 24
-91.06345249976582
 34
0.0
100
AcDbRotatedDimension
1001
ACAD
1000
DSTYLE
1002
{
1070
   272
1070
     8
1002
}
  0
DIMENSION
  5
1095
102
{ACAD_XDICTIONARY
360
1096
102
}
102
{ACAD_REACTORS
330
1097
102
}
330
2
100
AcDbEntity
  8
DIM
100
AcDbDimension
  2
*D43
 10
602.6927056600515
 20
2.933987366805268
 30
0.0
 11
601.6927056600516
 21
2.933987366805268
 31
0.0
 70
   160
 71
     5
 42
2.0
  3
AM_ISO$0
100
AcDbAlignedDimension
 13
600.6927056600516
 23
-34.06601263319541
 33
0.0
 14
602.6927056600515
 24
-9.066012633195299
 34
0.0
100
AcDbRotatedDimension
1001
ACAD
1000
DSTYLE
1002
{
1070
   272
1070
     8
1002
}
  0
DIMENSION
  5
1098
102
{ACAD_XDICTIONARY
360
1099
102
}
102
{ACAD_REACTORS
330
109A
102
}
330
2
100
AcDbEntity
  8
DIM
100
AcDbDimension
  2
*D44
 10
608.7427056600513
 20
-110.5463559976349
 30
0.0
 11
607.2427056600513
 21
-110.5463559976349
 31
0.0
 70
   160
 71
     5
 42
3.0
  3
AM_ISO$0
100
AcDbAlignedDimension
 13
605.7427056600513
 23
-91.06345249976582
 33
0.0
 14
608.7427056600513
 24
-81.06345249976582
 34
0.0
100
AcDbRotatedDimension
1001
ACAD
1000
DSTYLE
1002
{
1070
   272
1070
     8
1002
}
  0
DIMENSION
  5
109B
102
{ACAD_XDICTIONARY
360
109C
102
}
102
{ACAD_REACTORS
330
109D
102
}
330
2
100
AcDbEntity
  8
DIM
100
AcDbDimension
  2
*D45
 10
605.7427056600513
 20
-103.0634534997755
 30
0.0
 11
604.2177056600515
 21
-103.0634534997755
 31
0.0
 70
   160
 71
     5
 42
3.049999999999727
  3
AM_ISO$0
100
AcDbAlignedDimension
 13
602.6927056600515
 23
-89.06601263319542
 33
0.0
 14
605.7427056600513
 24
-91.06345249976582
 34
0.0
100
AcDbRotatedDimension
1001
ACAD
1000
DSTYLE
1002
{
1070
   271
1070
     0
1070
   272
1070
     8
1002
}
  0
DIMENSION
  5
109E
102
{ACAD_XDICTIONARY
360
109F
102
}
102
{ACAD_REACTORS
330
10A0
102
}
330
2
100
AcDbEntity
  8
DIM
100
AcDbDimension
  2
*D46
 10
659.1927056600516
 20
2.933987366804586
 30
0.0
 11
630.9427056600516
 21
5.683987366804586
 31
0.0
 70
    32
 71
     5
 42
56.5
  3
AM_ISO$0
100
AcDbAlignedDimension
 13
602.6927056600515
 23
-9.066012633195299
 33
0.0
 14
659.1927056600516
 24
-9.066012633195299
 34
0.0
100
AcDbRotatedDimension
1001
ACAD
1000
DSTYLE
1002
{
1070
   272
1070
     8
1002
}
  0
DIMENSION
  5
10A1
102
{ACAD_XDICTIONARY
360
10A2
102
}
102
{ACAD_REACTORS
330
10A3
102
}
330
2
100
AcDbEntity
  8
DIM
100
AcDbDimension
  2
*D47
 10
534.6563443924716
 20
-33.40066056518598
 30
0.0
 11
554.9224987991325
 21
-12.93422253941665
 31
0.0
 70
   163
  1
M5X0.8X9dp
 71
     5
 42
6.000000000001563
  3
AM_ISO$3
100
AcDbDiametricDimension
 15
536.6281725188863
 25
-27.73392483463548
 35
0.0
 40
0.0
1001
ACAD
1000
DSTYLE
1002
{
1070
   271
1070
     1
1070
   272
1070
     8
1002
}
  0
CIRCLE
  5
10A4
102
{ACAD_REACTORS
330
10A7
102
}
330
2
100
AcDbEntity
  8
AM_VIS
100
AcDbCircle
 10
503.601535656242
 20
-14.06601263319518
 30
0.0
 40
3.2
  0
DIMENSION
  5
10A5
102
{ACAD_XDICTIONARY
360
10A6
102
}
102
{ACAD_REACTORS
330
10A7
102
}
330
2
100
AcDbEntity
  8
DIM
100
AcDbDimension
  2
*D48
 10
505.6448390185807
 20
-16.52871670990976
 30
0.0
 11
483.0946701381589
 21
-1.944912963488832
 31
0.0
 70
   163
  1
<> thru
 71
     5
 42
6.400000000001739
  3
AM_ISO$3
100
AcDbDiametricDimension
 15
501.5582322939045
 25
-11.60330855648203
 35
0.0
 40
0.0
1001
ACAD
1000
DSTYLE
1002
{
1070
   271
1070
     1
1070
   272
1070
     8
1002
}
  0
CIRCLE
  5
10A8
330
2
100
AcDbEntity
  8
AM_VIS
100
AcDbCircle
 10
473.290646523787
 20
-66.56601263319553
 30
0.0
 40
3.2
  0
CIRCLE
  5
10A9
330
2
100
AcDbEntity
  8
AM_VIS
100
AcDbCircle
 10
533.912424788698
 20
-66.56601263319496
 30
0.0
 40
3.2
  0
DIMENSION
  5
10AA
102
{ACAD_XDICTIONARY
360
10AB
102
}
102
{ACAD_REACTORS
330
10AC
102
}
330
2
100
AcDbEntity
  8
DIM
100
AcDbDimension
  2
*D49
 10
562.3327459685565
 20
-86.06345249976582
 30
0.0
 11
559.5827459685565
 21
-78.06345249976573
 31
0.0
 70
    32
 71
     5
 42
16.0
  3
AM_ISO$0
100
AcDbAlignedDimension
 13
507.6295156562423
 23
-70.06345249976582
 33
0.0
 14
507.8524366165433
 24
-86.06345249976582
 34
0.0
 50
90.0
100
AcDbRotatedDimension
1001
ACAD
1000
DSTYLE
1002
{
1070
   272
1070
     8
1002
}
  0
DIMENSION
  5
10AD
102
{ACAD_XDICTIONARY
360
10AE
102
}
102
{ACAD_REACTORS
330
10AF
102
}
330
2
100
AcDbEntity
  8
DIM
100
AcDbDimension
  2
*D50
 10
562.3327459685565
 20
-86.06345249976582
 30
0.0
 11
559.5827459685565
 21
-88.56345249976573
 31
0.0
 70
    32
 71
     5
 42
5.0
  3
AM_ISO$0
100
AcDbAlignedDimension
 13
515.1015356562425
 23
-91.06345249976582
 33
0.0
 14
507.8524366165433
 24
-86.06345249976582
 34
0.0
 50
90.0
100
AcDbRotatedDimension
1001
ACAD
1000
DSTYLE
1002
{
1070
   272
1070
     8
1002
}
  0
DIMENSION
  5
10B0
102
{ACAD_XDICTIONARY
360
10B1
102
}
102
{ACAD_REACTORS
330
10B2
102
}
330
2
100
AcDbEntity
  8
DIM
100
AcDbDimension
  2
*D51
 10
551.9330605238701
 20
-75.06345249976583
 30
0.0
 11
549.1830605238702
 21
-72.56345249976573
 31
0.0
 70
    32
 71
     5
 42
5.0
  3
AM_ISO$0
100
AcDbAlignedDimension
 13
507.6295156562423
 23
-70.06345249976582
 33
0.0
 14
509.601535656242
 24
-75.06345249976582
 34
0.0
 50
90.0
100
AcDbRotatedDimension
1001
ACAD
1000
DSTYLE
1002
{
1070
   272
1070
     8
1002
}
  0
DIMENSION
  5
10B3
102
{ACAD_XDICTIONARY
360
10B4
102
}
102
{ACAD_REACTORS
330
10B5
102
}
330
2
100
AcDbEntity
  8
DIM
100
AcDbDimension
  2
*D52
 10
457.7242459294457
 20
-91.0634524997658
 30
0.0
 11
454.9739014412566
 21
-78.56345249976573
 31
0.0
 70
    32
 71
     5
 42
25.0
  3
AM_ISO$0
100
AcDbAlignedDimension
 13
497.601535656242
 23
-66.06345249976581
 33
0.0
 14
492.101535656242
 24
-91.06345249976582
 34
0.0
 50
90.0
100
AcDbRotatedDimension
1001
ACAD
1000
DSTYLE
1002
{
1070
   272
1070
     8
1002
}
  0
DIMENSION
  5
10B6
102
{ACAD_XDICTIONARY
360
10B7
102
}
102
{ACAD_REACTORS
330
10B8
102
}
330
2
100
AcDbEntity
  8
DIM
100
AcDbDimension
  2
*D53
 10
572.3327459685569
 20
-91.06345249976582
 30
0.0
 11
569.582401480368
 21
-70.06473256648053
 31
0.0
 70
    32
 71
     5
 42
41.99743986657041
  3
AM_ISO$0
100
AcDbAlignedDimension
 13
549.5245120691402
 23
-49.06601263319541
 33
0.0
 14
515.1015356562425
 24
-91.06345249976582
 34
0.0
 50
90.0
100
AcDbRotatedDimension
1001
ACAD
1000
DSTYLE
1002
{
1070
   272
1070
     8
1002
}
  0
DIMENSION
  5
10B9
102
{ACAD_XDICTIONARY
360
10BA
102
}
102
{ACAD_REACTORS
330
10BB
102
}
330
2
100
AcDbEntity
  8
DIM
100
AcDbDimension
  2
*D54
 10
509.601535656242
 20
-98.40935499881831
 30
0.0
 11
503.601535656242
 21
-95.65901051062935
 31
0.0
 70
    32
  1
12.2
 71
     5
 42
12.0
  3
AM_ISO$0
100
AcDbAlignedDimension
 13
497.601535656242
 23
-91.01601263319535
 33
0.0
 14
509.601535656242
 24
-91.01601263319535
 34
0.0
100
AcDbRotatedDimension
1001
ACAD
1000
DSTYLE
1002
{
1070
   272
1070
     8
1002
}
  0
DIMENSION
  5
10BC
102
{ACAD_XDICTIONARY
360
10BD
102
}
102
{ACAD_REACTORS
330
10BE
102
}
330
2
100
AcDbEntity
  8
DIM
100
AcDbDimension
  2
*D55
 10
515.1015356562425
 20
-106.4821944145692
 30
0.0
 11
503.6015356562424
 21
-106.4821944145692
 31
0.0
 70
   160
 71
     5
 42
23.00000000000046
  3
AM_ISO$0
100
AcDbAlignedDimension
 13
492.101535656242
 23
-91.06345249976582
 33
0.0
 14
515.1015356562425
 24
-91.06345249976582
 34
0.0
100
AcDbRotatedDimension
1001
ACAD
1000
DSTYLE
1002
{
1070
   272
1070
     8
1002
}
  0
DIMENSION
  5
10BF
102
{ACAD_XDICTIONARY
360
10C0
102
}
102
{ACAD_REACTORS
330
10C1
102
}
330
2
100
AcDbEntity
  8
DIM
100
AcDbDimension
  2
*D56
 10
671.1927056600516
 20
-89.06601263319529
 30
0.0
 11
668.4427056600516
 21
-49.0660126331952
 31
0.0
 70
    32
  1
%%C<>
 71
     5
 42
80.0
  3
AM_ISO$0
100
AcDbAlignedDimension
 13
659.1927056600516
 23
-9.066012633195299
 33
0.0
 14
659.1927056600516
 24
-89.06601263319529
 34
0.0
 50
90.0
100
AcDbRotatedDimension
1001
ACAD
1000
DSTYLE
1002
{
1070
   272
1070
     8
1002
}
  0
ENDSEC
  0
SECTION
  2
OBJECTS
  0
DICTIONARY
  5
1A
330
0
100
AcDbDictionary
281
     1
  3
ACAD_COLOR
350
30F
  3
ACAD_GROUP
350
18
  3
ACAD_LAYOUT
350
CC
  3
ACAD_MATERIAL
350
30E
  3
ACAD_MLINESTYLE
350
19
  3
ACAD_PLOTSETTINGS
350
CD
  3
ACAD_PLOTSTYLENAME
350
CA
  3
ACAD_TABLESTYLE
350
310
  3
AcDbVariableDictionary
350
2AE
  3
AcmDictionary
350
269
  3
AMG
350
24F
  3
AMGSNAPSETTINGS
350
29E
  3
MAPISURF_MODULE
350
39E
  0
DICTIONARY
  5
40D
330
A
100
AcDbDictionary
280
     1
281
     1
  3
ACAD_LAYERSTATES
360
40E
  0
DICTIONARY
  5
226
330
2
100
AcDbDictionary
280
     1
281
     1
  3
ACAD_INDEX
360
2A5
  3
ACAD_LAYOUTSELFREF
360
2F3
  0
DICTIONARY
  5
228
330
7
100
AcDbDictionary
280
     1
281
     1
  3
ACAD_LAYOUTSELFREF
360
2F4
  0
DICTIONARY
  5
1093
330
1092
100
AcDbDictionary
280
     1
281
     1
  3
ACAD_DIMASSOC
360
1094
  0
DICTIONARY
  5
1096
330
1095
100
AcDbDictionary
280
     1
281
     1
  3
ACAD_DIMASSOC
360
1097
  0
DICTIONARY
  5
1099
330
1098
100
AcDbDictionary
280
     1
281
     1
  3
ACAD_DIMASSOC
360
109A
  0
DICTIONARY
  5
109C
330
109B
100
AcDbDictionary
280
     1
281
     1
  3
ACAD_DIMASSOC
360
109D
  0
DICTIONARY
  5
109F
330
109E
100
AcDbDictionary
280
     1
281
     1
  3
ACAD_DIMASSOC
360
10A0
  0
DICTIONARY
  5
10A2
330
10A1
100
AcDbDictionary
280
     1
281
     1
  3
ACAD_DIMASSOC
360
10A3
  0
DICTIONARY
  5
10A6
330
10A5
100
AcDbDictionary
280
     1
281
     1
  3
ACAD_DIMASSOC
360
10A7
  0
DICTIONARY
  5
10AB
330
10AA
100
AcDbDictionary
280
     1
281
     1
  3
ACAD_DIMASSOC
360
10AC
  0
DICTIONARY
  5
10AE
330
10AD
100
AcDbDictionary
280
     1
281
     1
  3
ACAD_DIMASSOC
360
10AF
  0
DICTIONARY
  5
10B1
330
10B0
100
AcDbDictionary
280
     1
281
     1
  3
ACAD_DIMASSOC
360
10B2
  0
DICTIONARY
  5
10B4
330
10B3
100
AcDbDictionary
280
     1
281
     1
  3
ACAD_DIMASSOC
360
10B5
  0
DICTIONARY
  5
10B7
330
10B6
100
AcDbDictionary
280
     1
281
     1
  3
ACAD_DIMASSOC
360
10B8
  0
DICTIONARY
  5
10BA
330
10B9
100
AcDbDictionary
280
     1
281
     1
  3
ACAD_DIMASSOC
360
10BB
  0
DICTIONARY
  5
10BD
330
10BC
100
AcDbDictionary
280
     1
281
     1
  3
ACAD_DIMASSOC
360
10BE
  0
DICTIONARY
  5
10C0
330
10BF
100
AcDbDictionary
280
     1
281
     1
  3
ACAD_DIMASSOC
360
10C1
  0
DICTIONARY
  5
30F
102
{ACAD_REACTORS
330
1A
102
}
330
1A
100
AcDbDictionary
281
     1
  0
DICTIONARY
  5
18
102
{ACAD_REACTORS
330
1A
102
}
330
1A
100
AcDbDictionary
281
     1
  0
DICTIONARY
  5
CC
102
{ACAD_REACTORS
330
1A
102
}
330
1A
100
AcDbDictionary
281
     1
  3
Model
350
CE
  3
配置1
350
CF
  0
DICTIONARY
  5
30E
102
{ACAD_REACTORS
330
1A
102
}
330
1A
100
AcDbDictionary
281
     1
  0
DICTIONARY
  5
19
102
{ACAD_REACTORS
330
1A
102
}
330
1A
100
AcDbDictionary
281
     1
  3
STANDARD
350
1D
  0
DICTIONARY
  5
CD
102
{ACAD_REACTORS
330
1A
102
}
330
1A
100
AcDbDictionary
281
     1
  0
ACDBDICTIONARYWDFLT
  5
CA
102
{ACAD_REACTORS
330
1A
102
}
330
1A
100
AcDbDictionary
281
     1
  3
Normal
350
CB
100
AcDbDictionaryWithDefault
340
CB
1001
ACAD
1000
TREAT_AS_HARD
1070
     0
  0
DICTIONARY
  5
310
102
{ACAD_REACTORS
330
1A
102
}
330
1A
100
AcDbDictionary
281
     1
  3
Standard
350
311
  0
DICTIONARY
  5
2AE
102
{ACAD_REACTORS
330
1A
102
}
330
1A
100
AcDbDictionary
281
     1
  3
CTABLESTYLE
350
3F6
  3
DIMASSOC
350
2B0
  3
INDEXCTL
350
2AF
  0
DICTIONARY
  5
269
102
{ACAD_REACTORS
330
1A
102
}
330
1A
100
AcDbDictionary
281
     1
  3
AcmBOMDATA
350
3D0
  3
AcmStdDictionary
350
26F
  3
AMDTSECTSYM_ARROWCOLOR
350
3EA
  0
DICTIONARY
  5
24F
102
{ACAD_REACTORS
330
1A
102
}
330
1A
100
AcDbDictionary
281
     1
  3
AcMgSettings
350
250
  3
AMGLAYCFG
350
3DE
  0
DICTIONARY
  5
29E
102
{ACAD_REACTORS
330
1A
102
}
330
1A
100
AcDbDictionary
281
     1
  0
DICTIONARY
  5
40E
102
{ACAD_REACTORS
330
40D
102
}
330
40D
100
AcDbDictionary
281
     1
  0
DICTIONARY
  5
2A5
102
{ACAD_REACTORS
330
226
102
}
330
226
100
AcDbDictionary
281
     1
  3
*A1
350
2A6
  0
XRECORD
  5
2F3
102
{ACAD_REACTORS
330
226
102
}
330
226
100
AcDbXrecord
280
     1
340
2
  0
XRECORD
  5
2F4
102
{ACAD_REACTORS
330
228
102
}
330
228
100
AcDbXrecord
280
     1
340
7
  0
DIMASSOC
  5
1094
102
{ACAD_REACTORS
330
1093
102
}
330
1093
100
AcDbDimAssoc
330
1092
 90
        3
 70
     0
 71
     0
  1
AcDbOsnapPointRef
 72
     1
331
107E
 73
     0
 91
        0
 40
0.0
 10
0.0
 20
0.0
 30
2.000000000000000E+50
 75
     0
  1
AcDbOsnapPointRef
 72
    13
331
108B
 73
     0
 91
        0
 40
0.0
 10
0.0
 20
0.0
 30
2.000000000000000E+50
 75
     0
  0
DIMASSOC
  5
1097
102
{ACAD_REACTORS
330
1096
102
}
330
1096
100
AcDbDimAssoc
330
1095
 90
        3
 70
     0
 71
     0
  1
AcDbOsnapPointRef
 72
    13
331
1086
 73
     0
 91
        0
 40
0.0
 10
0.0
 20
0.0
 30
2.000000000000000E+50
 75
     0
  1
AcDbOsnapPointRef
 72
     1
331
1083
 73
     0
 91
        0
 40
0.0
 10
0.0
 20
0.0
 30
2.000000000000000E+50
 75
     0
  0
DIMASSOC
  5
109A
102
{ACAD_REACTORS
330
1099
102
}
330
1099
100
AcDbDimAssoc
330
1098
 90
        3
 70
     0
 71
     0
  1
AcDbOsnapPointRef
 72
    13
331
108E
 73
     0
 91
        0
 40
0.0
 10
0.0
 20
0.0
 30
2.000000000000000E+50
 75
     0
  1
AcDbOsnapPointRef
 72
    13
331
1090
 73
     0
 91
        0
 40
0.0
 10
0.0
 20
0.0
 30
2.000000000000000E+50
 75
     0
  0
DIMASSOC
  5
109D
102
{ACAD_REACTORS
330
109C
102
}
330
109C
100
AcDbDimAssoc
330
109B
 90
        3
 70
     0
 71
     0
  1
AcDbOsnapPointRef
 72
    13
331
107E
 73
     0
 91
        0
 40
0.0
 10
0.0
 20
0.0
 30
2.000000000000000E+50
 75
     0
  1
AcDbOsnapPointRef
 72
    13
331
108E
 73
     0
 91
        0
 40
0.0
 10
0.0
 20
0.0
 30
2.000000000000000E+50
 75
     0
  0
DIMASSOC
  5
10A0
102
{ACAD_REACTORS
330
109F
102
}
330
109F
100
AcDbDimAssoc
330
109E
 90
        3
 70
     0
 71
     0
  1
AcDbOsnapPointRef
 72
     1
331
1083
 73
     0
 91
        0
 40
0.0
 10
0.0
 20
0.0
 30
2.000000000000000E+50
 75
     0
  1
AcDbOsnapPointRef
 72
     1
331
1081
 73
     0
 91
        0
 40
0.0
 10
0.0
 20
0.0
 30
2.000000000000000E+50
 75
     0
  0
DIMASSOC
  5
10A3
102
{ACAD_REACTORS
330
10A2
102
}
330
10A2
100
AcDbDimAssoc
330
10A1
 90
        2
 70
     0
 71
     0
  1
AcDbOsnapPointRef
 72
     3
331
106C
 73
     2
 91
        0
 40
0.0
 10
0.0
 20
0.0
 30
0.0
 75
     0
  0
DIMASSOC
  5
10A7
102
{ACAD_REACTORS
330
10A6
102
}
330
10A6
100
AcDbDimAssoc
330
10A5
 90
        2
 70
     0
 71
     0
  1
AcDbOsnapPointRef
 72
     3
331
10A4
 73
     2
 91
        0
 40
0.0
 10
0.0
 20
0.0
 30
0.0
 75
     0
  0
DIMASSOC
  5
10AC
102
{ACAD_REACTORS
330
10AB
102
}
330
10AB
100
AcDbDimAssoc
330
10AA
 90
        3
 70
     0
 71
     0
  1
AcDbOsnapPointRef
 72
     1
331
102C
 73
     0
 91
        0
 40
0.0
 10
0.0
 20
0.0
 30
2.000000000000000E+50
 75
     0
  1
AcDbOsnapPointRef
 72
     1
331
1011
 73
     0
 91
        0
 40
0.0
 10
0.0
 20
0.0
 30
2.000000000000000E+50
 75
     0
  0
DIMASSOC
  5
10AF
102
{ACAD_REACTORS
330
10AE
102
}
330
10AE
100
AcDbDimAssoc
330
10AD
 90
        3
 70
     0
 71
     0
  1
AcDbOsnapPointRef
 72
     1
331
1031
 73
     0
 91
        0
 40
0.0
 10
0.0
 20
0.0
 30
2.000000000000000E+50
 75
     0
  1
AcDbOsnapPointRef
 72
     1
331
1011
 73
     0
 91
        0
 40
0.0
 10
0.0
 20
0.0
 30
2.000000000000000E+50
 75
     0
  0
DIMASSOC
  5
10B2
102
{ACAD_REACTORS
330
10B1
102
}
330
10B1
100
AcDbDimAssoc
330
10B0
 90
        3
 70
     0
 71
     0
  1
AcDbOsnapPointRef
 72
     1
331
102C
 73
     0
 91
        0
 40
0.0
 10
0.0
 20
0.0
 30
2.000000000000000E+50
 75
     0
  1
AcDbOsnapPointRef
 72
     1
331
102B
 73
     0
 91
        0
 40
0.0
 10
0.0
 20
0.0
 30
2.000000000000000E+50
 75
     0
  0
DIMASSOC
  5
10B5
102
{ACAD_REACTORS
330
10B4
102
}
330
10B4
100
AcDbDimAssoc
330
10B3
 90
        3
 70
     0
 71
     0
  1
AcDbOsnapPointRef
 72
     1
331
102F
 73
     0
 91
        0
 40
0.0
 10
0.0
 20
0.0
 30
2.000000000000000E+50
 75
     0
  1
AcDbOsnapPointRef
 72
     1
331
1013
 73
     0
 91
        0
 40
0.0
 10
0.0
 20
0.0
 30
2.000000000000000E+50
 75
     0
  0
DIMASSOC
  5
10B8
102
{ACAD_REACTORS
330
10B7
102
}
330
10B7
100
AcDbDimAssoc
330
10B6
 90
        2
 70
     0
 71
     0
  1
AcDbOsnapPointRef
 72
     1
331
1031
 73
     0
 91
        0
 40
0.0
 10
0.0
 20
0.0
 30
2.000000000000000E+50
 75
     0
  0
DIMASSOC
  5
10BB
102
{ACAD_REACTORS
330
10BA
102
}
330
10BA
100
AcDbDimAssoc
330
10B9
 90
        3
 70
     0
 71
     0
  1
AcDbOsnapPointRef
 72
     1
331
100E
 73
     0
 91
        0
 40
0.0
 10
0.0
 20
0.0
 30
2.000000000000000E+50
 75
     0
  1
AcDbOsnapPointRef
 72
     1
331
100F
 73
     0
 91
        0
 40
0.0
 10
0.0
 20
0.0
 30
2.000000000000000E+50
 75
     0
  0
DIMASSOC
  5
10BE
102
{ACAD_REACTORS
330
10BD
102
}
330
10BD
100
AcDbDimAssoc
330
10BC
 90
        3
 70
     0
 71
     0
  1
AcDbOsnapPointRef
 72
     1
331
1013
 73
     0
 91
        0
 40
0.0
 10
0.0
 20
0.0
 30
2.000000000000000E+50
 75
     0
  1
AcDbOsnapPointRef
 72
     1
331
1031
 73
     0
 91
        0
 40
0.0
 10
0.0
 20
0.0
 30
2.000000000000000E+50
 75
     0
  0
DIMASSOC
  5
10C1
102
{ACAD_REACTORS
330
10C0
102
}
330
10C0
100
AcDbDimAssoc
330
10BF
 90
        3
 70
     0
 71
     0
  1
AcDbOsnapPointRef
 72
     1
331
1081
 73
     0
 91
        0
 40
0.0
 10
0.0
 20
0.0
 30
2.000000000000000E+50
 75
     0
  1
AcDbOsnapPointRef
 72
     1
331
107E
 73
     0
 91
        0
 40
0.0
 10
0.0
 20
0.0
 30
2.000000000000000E+50
 75
     0
  0
LAYOUT
  5
CE
102
{ACAD_REACTORS
330
CC
102
}
330
CC
100
AcDbPlotSettings
  1

  2
\\WINNT\EPSON Stylus Photo 750 單色
  4

  6

 40
0.0
 41
0.0
 42
0.0
 43
0.0
 44
0.0
 45
0.0
 46
0.0
 47
0.0
 48
0.0
 49
0.0
140
0.0
141
0.0
142
1.0
143
1.0
 70
 11952
 72
     0
 73
     1
 74
     0
  7

 75
     0
147
1.0
 76
     0
 77
     2
 78
   300
148
-1016.680816749764
149
103.0807414509828
100
AcDbLayout
  1
Model
 70
     1
 71
     0
 10
0.0
 20
0.0
 11
12.0
 21
9.0
 12
0.0
 22
0.0
 32
0.0
 14
0.0
 24
0.0
 34
0.0
 15
0.0
 25
0.0
 35
0.0
146
0.0
 13
0.0
 23
0.0
 33
0.0
 16
1.0
 26
0.0
 36
0.0
 17
0.0
 27
1.0
 37
0.0
 76
     0
330
2
  0
LAYOUT
  5
CF
102
{ACAD_REACTORS
330
CC
102
}
330
CC
100
AcDbPlotSettings
  1

  2
\\WINNT\EPSON Stylus Photo 750 單色
  4

  6

 40
0.0
 41
0.0
 42
0.0
 43
0.0
 44
0.0
 45
0.0
 46
0.0
 47
0.0
 48
0.0
 49
0.0
140
0.0
141
0.0
142
1.0
143
1.0
 70
   688
 72
     0
 73
     0
 74
     5
  7

 75
    16
147
1.0
 76
     0
 77
     2
 78
   300
148
0.0
149
0.0
100
AcDbLayout
  1
配置1
 70
     1
 71
     1
 10
0.0
 20
0.0
 11
12.0
 21
9.0
 12
0.0
 22
0.0
 32
0.0
 14
1.000000000000000E+20
 24
1.000000000000000E+20
 34
1.000000000000000E+20
 15
-1.000000000000000E+20
 25
-1.000000000000000E+20
 35
-1.000000000000000E+20
146
0.0
 13
0.0
 23
0.0
 33
0.0
 16
1.0
 26
0.0
 36
0.0
 17
0.0
 27
1.0
 37
0.0
 76
     0
330
7
  0
MLINESTYLE
  5
1D
102
{ACAD_REACTORS
330
19
102
}
330
19
100
AcDbMlineStyle
  2
STANDARD
 70
     0
  3

 62
   256
 51
90.0
 52
90.0
 71
     2
 49
0.5
 62
   256
  6
BYLAYER
 49
-0.5
 62
   256
  6
BYLAYER
  0
ACDBPLACEHOLDER
  5
CB
102
{ACAD_REACTORS
330
CA
102
}
330
CA
  0
TABLESTYLE
  5
311
102
{ACAD_REACTORS
330
310
102
}
330
310
100
AcDbTableStyle
  3
Standard
 70
     0
 71
     0
 40
0.06
 41
0.06
280
     0
281
     0
  7
STANDARD
140
0.18
170
     2
 62
     0
 63
     7
283
     0
274
    -2
284
     1
 64
     0
275
    -2
285
     1
 65
     0
276
    -2
286
     1
 66
     0
277
    -2
287
     1
 67
     0
278
    -2
288
     1
 68
     0
279
    -2
289
     1
 69
     0
  7
STANDARD
140
0.25
170
     5
 62
     0
 63
     7
283
     0
274
    -2
284
     1
 64
     0
275
    -2
285
     1
 65
     0
276
    -2
286
     1
 66
     0
277
    -2
287
     1
 67
     0
278
    -2
288
     1
 68
     0
279
    -2
289
     1
 69
     0
  7
STANDARD
140
0.18
170
     5
 62
     0
 63
     7
283
     0
274
    -2
284
     1
 64
     0
275
    -2
285
     1
 65
     0
276
    -2
286
     1
 66
     0
277
    -2
287
     1
 67
     0
278
    -2
288
     1
 68
     0
279
    -2
289
     1
 69
     0
  0
DICTIONARYVAR
  5
3F6
102
{ACAD_REACTORS
330
2AE
102
}
330
2AE
100
DictionaryVariables
280
     0
  1
STANDARD
  0
DICTIONARYVAR
  5
2B0
102
{ACAD_REACTORS
330
2AE
102
}
330
2AE
100
DictionaryVariables
280
     0
  1
0
  0
DICTIONARYVAR
  5
2AF
102
{ACAD_REACTORS
330
2AE
102
}
330
2AE
100
DictionaryVariables
280
     0
  1
1
  0
ACMDATADICTIONARY
  5
3D0
102
{ACAD_REACTORS
330
269
102
}
330
269
100
AcDbDictionary
281
     1
  3
*A1
350
3D1
  3
*A2
350
A32
  3
*A3
350
A33
  3
*A4
350
A34
  3
*A5
350
A35
  3
*A6
350
A36
100
AcmDataDictionary
  0
DICTIONARY
  5
26F
102
{ACAD_REACTORS
330
269
102
}
330
269
100
AcDbDictionary
281
     1
  3
ANSI
350
3DD
  3
ISO
350
5E3
  0
XRECORD
  5
3EA
102
{ACAD_REACTORS
330
269
102
}
330
269
100
AcDbXrecord
280
     1
 90
-1023410169
  0
DICTIONARY
  5
250
102
{ACAD_REACTORS
330
24F
102
}
330
24F
100
AcDbDictionary
281
     1
  3
DWGSETTINGS
350
31C
  3
Shaft
350
9A4
  3
TRANSSETTINGS
350
320
  0
LAYER_INDEX
  5
2A6
102
{ACAD_REACTORS
330
2A5
102
}
330
2A5
100
AcDbIndex
 40
2456360.60682816
100
AcDbLayerIndex
  8
0
360
2A7
 90
       12
  8
1
360
2A8
 90
        0
  8
3
360
2A9
 90
       20
  8
LOGO
360
2AC
 90
       90
  8
AM_VIS
360
9BB
 90
      119
  8
Defpoints
360
9BD
 90
        0
  8
DIM
360
121E
 90
       15
  8
AM_4
360
121F
 90
        6
  0
ACMDATAENTRYBLOCK
  5
3D1
102
{ACAD_REACTORS
330
3D0
102
}
330
3D0
100
AcmDataEntry
100
AcmDataEntryBlock
  0
ACMDATAENTRYBLOCK
  5
A32
102
{ACAD_REACTORS
330
3D0
102
}
330
3D0
100
AcmDataEntry
100
AcmDataEntryBlock
  0
ACMDATAENTRYBLOCK
  5
A33
102
{ACAD_REACTORS
330
3D0
102
}
330
3D0
100
AcmDataEntry
100
AcmDataEntryBlock
  0
ACMDATAENTRYBLOCK
  5
A34
102
{ACAD_REACTORS
330
3D0
102
}
330
3D0
100
AcmDataEntry
100
AcmDataEntryBlock
  0
ACMDATAENTRYBLOCK
  5
A35
102
{ACAD_REACTORS
330
3D0
102
}
330
3D0
100
AcmDataEntry
100
AcmDataEntryBlock
  0
ACMDATAENTRYBLOCK
  5
A36
102
{ACAD_REACTORS
330
3D0
102
}
330
3D0
100
AcmDataEntry
100
AcmDataEntryBlock
  0
IDBUFFER
  5
2A7
330
0
100
AcDbIdBuffer
330
96A
330
96B
330
96C
330
1089
330
108A
330
108B
330
108C
330
108D
330
108E
330
108F
330
1090
330
1091
  0
IDBUFFER
  5
2A8
330
0
100
AcDbIdBuffer
  0
IDBUFFER
  5
2A9
330
0
100
AcDbIdBuffer
330
105E
330
1061
330
106A
330
106F
330
1075
330
1080
330
FFF
330
1000
330
1001
330
1005
330
1007
330
1011
330
1016
330
102C
330
102E
330
1035
330
1039
330
1043
330
1050
330
1059
  0
IDBUFFER
  5
2AC
330
0
100
AcDbIdBuffer
330
194
330
195
330
196
330
197
330
198
330
19D
330
19E
330
19F
330
1A0
330
1A1
330
1A2
330
1A3
330
1A4
330
1A5
330
1A6
330
1A7
330
1A8
330
1A9
330
1AB
330
1AC
330
1AD
330
1B1
330
1B2
330
1B3
330
1B4
330
8FB
330
8FC
330
916
330
917
330
918
330
919
330
91A
330
91B
330
91C
330
91D
330
91E
330
91F
330
920
330
921
330
922
330
923
330
924
330
925
330
926
330
927
330
928
330
929
330
92A
330
92E
330
932
330
933
330
937
330
938
330
939
330
93A
330
93B
330
93C
330
93D
330
93E
330
942
330
946
330
94A
330
94B
330
94C
330
950
330
951
330
952
330
953
330
954
330
955
330
956
330
957
330
958
330
959
330
95A
330
95B
330
95C
330
95D
330
95E
330
95F
330
960
330
961
330
962
330
963
330
964
330
965
330
966
330
967
330
968
330
969
  0
IDBUFFER
  5
9BB
330
0
100
AcDbIdBuffer
330
FFB
330
FFC
330
FFD
330
FFE
330
1002
330
1003
330
1004
330
1006
330
1008
330
1009
330
100A
330
100B
330
100C
330
100D
330
100E
330
100F
330
1012
330
1013
330
1014
330
1015
330
1017
330
1018
330
1019
330
101A
330
101B
330
101C
330
101D
330
101E
330
101F
330
1020
330
1021
330
1022
330
1023
330
1024
330
1025
330
1026
330
1027
330
1028
330
102A
330
102B
330
102D
330
102F
330
1030
330
1031
330
1032
330
1033
330
1034
330
1036
330
1037
330
1038
330
103A
330
103B
330
103C
330
103D
330
103E
330
103F
330
1040
330
1041
330
1042
330
1044
330
1045
330
1046
330
1047
330
1048
330
1049
330
104A
330
104B
330
104C
330
104D
330
104E
330
104F
330
1051
330
1052
330
1053
330
1054
330
1055
330
1056
330
1057
330
1058
330
105A
330
105C
330
105D
330
105F
330
1060
330
1062
330
1064
330
1065
330
1066
330
1067
330
1068
330
1069
330
106B
330
106D
330
106E
330
1070
330
1072
330
1073
330
1074
330
1076
330
1077
330
1078
330
1079
330
107A
330
107B
330
107C
330
107D
330
107E
330
107F
330
1081
330
1082
330
1083
330
1084
330
1085
330
1086
330
1087
330
1088
330
10A4
330
10A8
330
10A9
  0
IDBUFFER
  5
9BD
330
0
100
AcDbIdBuffer
  0
IDBUFFER
  5
121E
330
0
100
AcDbIdBuffer
330
1092
330
1095
330
1098
330
109B
330
109E
330
10A1
330
10A5
330
10AA
330
10AD
330
10B0
330
10B3
330
10B6
330
10B9
330
10BC
330
10BF
  0
IDBUFFER
  5
121F
330
0
100
AcDbIdBuffer
330
1010
330
1029
330
105B
330
1063
330
106C
330
1071
  0
ENDSEC
  0
EOF
