  0
SECTION
  2
HEADER
  9
$ACADVER
  1
AC1015
  9
$ACADMAINTVER
 70
    20
  9
$DWGCODEPAGE
  3
ANSI_950
  9
$INSBASE
 10
0.0
 20
0.0
 30
0.0
  9
$EXTMIN
 10
885.7730479222892
 20
1682.002901656863
 30
-0.0020052083609698
  9
$EXTMAX
 10
1611.743956809859
 20
2210.094750388558
 30
345.9021096179935
  9
$LIMMIN
 10
0.0
 20
0.0
  9
$LIMMAX
 10
420.0
 20
297.0
  9
$ORTHOMODE
 70
     1
  9
$REGENMODE
 70
     1
  9
$FILLMODE
 70
     1
  9
$QTEXTMODE
 70
     0
  9
$MIRRTEXT
 70
     1
  9
$LTSCALE
 40
1.0
  9
$ATTMODE
 70
     1
  9
$TEXTSIZE
 40
3.0
  9
$TRACEWID
 40
1.0
  9
$TEXTSTYLE
  7
CHINESET
  9
$CLAYER
  8
0
  9
$CELTYPE
  6
ByLayer
  9
$CECOLOR
 62
   256
  9
$CELTSCALE
 40
1.0
  9
$DISPSILH
 70
     0
  9
$DIMSCALE
 40
1.0
  9
$DIMASZ
 40
4.5
  9
$DIMEXO
 40
1.0
  9
$DIMDLI
 40
10.0
  9
$DIMRND
 40
0.0
  9
$DIMDLE
 40
0.0
  9
$DIMEXE
 40
1.5
  9
$DIMTP
 40
0.1
  9
$DIMTM
 40
0.1
  9
$DIMTXT
 40
5.0
  9
$DIMCEN
 40
3.0
  9
$DIMTSZ
 40
0.0
  9
$DIMTOL
 70
     0
  9
$DIMLIM
 70
     0
  9
$DIMTIH
 70
     0
  9
$DIMTOH
 70
     0
  9
$DIMSE1
 70
     0
  9
$DIMSE2
 70
     0
  9
$DIMTAD
 70
     1
  9
$DIMZIN
 70
     8
  9
$DIMBLK
  1

  9
$DIMASO
 70
     1
  9
$DIMSHO
 70
     1
  9
$DIMPOST
  1

  9
$DIMAPOST
  1
"
  9
$DIMALT
 70
     0
  9
$DIMALTD
 70
     2
  9
$DIMALTF
 40
0.0393701
  9
$DIMLFAC
 40
1.0
  9
$DIMTOFL
 70
     1
  9
$DIMTVP
 40
0.0
  9
$DIMTIX
 70
     0
  9
$DIMSOXD
 70
     0
  9
$DIMSAH
 70
     0
  9
$DIMBLK1
  1

  9
$DIMBLK2
  1

  9
$DIMSTYLE
  2
AM_ISO
  9
$DIMCLRD
 70
   256
  9
$DIMCLRE
 70
   256
  9
$DIMCLRT
 70
   256
  9
$DIMTFAC
 40
0.71
  9
$DIMGAP
 40
0.8
  9
$DIMJUST
 70
     0
  9
$DIMSD1
 70
     0
  9
$DIMSD2
 70
     0
  9
$DIMTOLJ
 70
     0
  9
$DIMTZIN
 70
     8
  9
$DIMALTZ
 70
     0
  9
$DIMALTTZ
 70
     0
  9
$DIMUPT
 70
     0
  9
$DIMDEC
 70
     2
  9
$DIMTDEC
 70
     8
  9
$DIMALTU
 70
     2
  9
$DIMALTTD
 70
     2
  9
$DIMTXSTY
  7
STANDARD
  9
$DIMAUNIT
 70
     0
  9
$DIMADEC
 70
     0
  9
$DIMALTRND
 40
0.0
  9
$DIMAZIN
 70
     2
  9
$DIMDSEP
 70
    46
  9
$DIMATFIT
 70
     3
  9
$DIMFRAC
 70
     0
  9
$DIMLDRBLK
  1

  9
$DIMLUNIT
 70
     2
  9
$DIMLWD
 70
    -1
  9
$DIMLWE
 70
    -1
  9
$DIMTMOVE
 70
     0
  9
$LUNITS
 70
     2
  9
$LUPREC
 70
     2
  9
$SKETCHINC
 40
1.0
  9
$FILLETRAD
 40
2.5
  9
$AUNITS
 70
     0
  9
$AUPREC
 70
     0
  9
$MENU
  1
.
  9
$ELEVATION
 40
0.0
  9
$PELEVATION
 40
0.0
  9
$THICKNESS
 40
0.0
  9
$LIMCHECK
 70
     0
  9
$CHAMFERA
 40
2.5
  9
$CHAMFERB
 40
2.5
  9
$CHAMFERC
 40
20.0
  9
$CHAMFERD
 40
0.0
  9
$SKPOLY
 70
     0
  9
$TDCREATE
 40
2453021.369367211
  9
$TDUCREATE
 40
2453021.036033877
  9
$TDUPDATE
 40
2453805.584703415
  9
$TDUUPDATE
 40
2453805.251370081
  9
$TDINDWG
 40
0.5161395833
  9
$TDUSRTIMER
 40
0.5161392361
  9
$USRTIMER
 70
     1
  9
$ANGBASE
 50
0.0
  9
$ANGDIR
 70
     0
  9
$PDMODE
 70
     0
  9
$PDSIZE
 40
0.0
  9
$PLINEWID
 40
0.0
  9
$SPLFRAME
 70
     0
  9
$SPLINETYPE
 70
     6
  9
$SPLINESEGS
 70
     8
  9
$HANDSEED
  5
654A
  9
$SURFTAB1
 70
     6
  9
$SURFTAB2
 70
     6
  9
$SURFTYPE
 70
     6
  9
$SURFU
 70
     6
  9
$SURFV
 70
     6
  9
$UCSBASE
  2

  9
$UCSNAME
  2

  9
$UCSORG
 10
0.0
 20
0.0
 30
0.0
  9
$UCSXDIR
 10
1.0
 20
0.0
 30
0.0
  9
$UCSYDIR
 10
0.0
 20
1.0
 30
0.0
  9
$UCSORTHOREF
  2

  9
$UCSORTHOVIEW
 70
     0
  9
$UCSORGTOP
 10
0.0
 20
0.0
 30
0.0
  9
$UCSORGBOTTOM
 10
0.0
 20
0.0
 30
0.0
  9
$UCSORGLEFT
 10
0.0
 20
0.0
 30
0.0
  9
$UCSORGRIGHT
 10
0.0
 20
0.0
 30
0.0
  9
$UCSORGFRONT
 10
0.0
 20
0.0
 30
0.0
  9
$UCSORGBACK
 10
0.0
 20
0.0
 30
0.0
  9
$PUCSBASE
  2

  9
$PUCSNAME
  2

  9
$PUCSORG
 10
0.0
 20
0.0
 30
0.0
  9
$PUCSXDIR
 10
1.0
 20
0.0
 30
0.0
  9
$PUCSYDIR
 10
0.0
 20
1.0
 30
0.0
  9
$PUCSORTHOREF
  2

  9
$PUCSORTHOVIEW
 70
     0
  9
$PUCSORGTOP
 10
0.0
 20
0.0
 30
0.0
  9
$PUCSORGBOTTOM
 10
0.0
 20
0.0
 30
0.0
  9
$PUCSORGLEFT
 10
0.0
 20
0.0
 30
0.0
  9
$PUCSORGRIGHT
 10
0.0
 20
0.0
 30
0.0
  9
$PUCSORGFRONT
 10
0.0
 20
0.0
 30
0.0
  9
$PUCSORGBACK
 10
0.0
 20
0.0
 30
0.0
  9
$USERI1
 70
     0
  9
$USERI2
 70
     0
  9
$USERI3
 70
     0
  9
$USERI4
 70
     0
  9
$USERI5
 70
     0
  9
$USERR1
 40
0.0
  9
$USERR2
 40
0.0
  9
$USERR3
 40
0.0
  9
$USERR4
 40
0.0
  9
$USERR5
 40
0.0
  9
$WORLDVIEW
 70
     1
  9
$SHADEDGE
 70
     3
  9
$SHADEDIF
 70
    70
  9
$TILEMODE
 70
     1
  9
$MAXACTVP
 70
    64
  9
$PINSBASE
 10
0.0
 20
0.0
 30
0.0
  9
$PLIMCHECK
 70
     0
  9
$PEXTMIN
 10
1.000000000000000E+20
 20
1.000000000000000E+20
 30
1.000000000000000E+20
  9
$PEXTMAX
 10
-1.000000000000000E+20
 20
-1.000000000000000E+20
 30
-1.000000000000000E+20
  9
$PLIMMIN
 10
0.0
 20
0.0
  9
$PLIMMAX
 10
420.0
 20
297.0
  9
$UNITMODE
 70
     0
  9
$VISRETAIN
 70
     1
  9
$PLINEGEN
 70
     0
  9
$PSLTSCALE
 70
     1
  9
$TREEDEPTH
 70
  3020
  9
$CMLSTYLE
  2
Standard
  9
$CMLJUST
 70
     0
  9
$CMLSCALE
 40
20.0
  9
$PROXYGRAPHICS
 70
     1
  9
$MEASUREMENT
 70
     1
  9
$CELWEIGHT
370
    -1
  9
$ENDCAPS
280
     0
  9
$JOINSTYLE
280
     0
  9
$LWDISPLAY
290
     0
  9
$INSUNITS
 70
     4
  9
$HYPERLINKBASE
  1

  9
$STYLESHEET
  1
彩色出圖.ctb
  9
$XEDIT
290
     1
  9
$CEPSNTYPE
380
     0
  9
$PSTYLEMODE
290
     1
  9
$FINGERPRINTGUID
  2
{6C02722A-18D3-491A-897A-B8025DE410A9}
  9
$VERSIONGUID
  2
{11C4334F-477E-4C78-8562-A7035EC713AF}
  9
$EXTNAMES
290
     1
  9
$PSVPSCALE
 40
0.0
  9
$OLESTARTUP
290
     0
  0
ENDSEC
  0
SECTION
  2
CLASSES
  0
CLASS
  1
ACDBDICTIONARYWDFLT
  2
AcDbDictionaryWithDefault
  3
ObjectDBX Classes
 90
        0
280
     0
281
     0
  0
CLASS
  1
ACDBPLACEHOLDER
  2
AcDbPlaceHolder
  3
ObjectDBX Classes
 90
        0
280
     0
281
     0
  0
CLASS
  1
LAYOUT
  2
AcDbLayout
  3
ObjectDBX Classes
 90
        0
280
     0
281
     0
  0
CLASS
  1
AMGSETTINGSOBJ
  2
AmgSettingsObj
  3
"AcadM|Product Description: AutoCAD Mechanical 2000|Company: Autodesk"
 90
        0
280
     0
281
     0
  0
CLASS
  1
ACME_DOCUMENT
  2
AcMeDbDoc
  3
AcMeServices
 90
        0
280
     0
281
     0
  0
CLASS
  1
ACMESCOPE
  2
AcMeScope
  3
AcMeServices
 90
        0
280
     0
281
     0
  0
CLASS
  1
ACMECOMMANDHISTORY
  2
AcMeCommandHistory
  3
AcMeServices
 90
        0
280
     0
281
     0
  0
CLASS
  1
ACIMSYSVARMAN
  2
AcImSysVarManager
  3
AcMeServices
 90
        0
280
     0
281
     0
  0
CLASS
  1
ACIMREALSYSVAR
  2
AcImRealSysVar
  3
AcMeServices
 90
        0
280
     0
281
     0
  0
CLASS
  1
ACIMINTSYSVAR
  2
AcImIntSysVar
  3
AcMeServices
 90
        0
280
     0
281
     0
  0
CLASS
  1
ACMEDRAWINGMAN
  2
AcMeDrawingMan
  3
AcMeServices
 90
        0
280
     0
281
     0
  0
CLASS
  1
ACMEVIEW
  2
AcMeView
  3
AcMeServices
 90
        0
280
     0
281
     0
  0
CLASS
  1
ACDBENTITYCACHE
  2
AcMeEntityCache
  3
AcMeServices
 90
        0
280
     0
281
     0
  0
CLASS
  1
GSMANAGER
  2
AcMeGSManager
  3
AcMeServices
 90
        0
280
     0
281
     0
  0
CLASS
  1
AMDTINTERNALREACTOR
  2
AmdtInternalReactor
  3
AcMeServices
 90
        0
280
     0
281
     0
  0
CLASS
  1
ACMESTATEMGR
  2
AcMeStateMgr
  3
AcMeServices
 90
        0
280
     0
281
     0
  0
CLASS
  1
ACGREFMASTER
  2
AcGrefMaster
  3
AcAttribServices
 90
        0
280
     0
281
     0
  0
CLASS
  1
ACME_DATABASE
  2
AcMeDbDatabase
  3
AcMeServices
 90
        0
280
     0
281
     0
  0
CLASS
  1
ACRFINSADJUSTERMGR
  2
AcRfInsAdjusterMgr
  3
AcMeServices
 90
        0
280
     0
281
     0
  0
CLASS
  1
ACGREFACADMASTER
  2
AcGrefacadMaster
  3
AcGrefServices
 90
        0
280
     0
281
     0
  0
CLASS
  1
AMIMASTER
  2
AmiMaster
  3
AmiServices
 90
        0
280
     0
281
     0
  0
CLASS
  1
ACMDATADICTIONARY
  2
AcmDataDictionary
  3
"AcmSymBB|Product Description: AutoCAD Mechanical 2004 DX|Company: Autodesk"
 90
        0
280
     0
281
     0
  0
CLASS
  1
ACMDATAENTRYBLOCK
  2
AcmDataEntryBlock
  3
"AcmSymBB|Product Description: AutoCAD Mechanical 2004 DX|Company: Autodesk"
 90
    32768
280
     0
281
     0
  0
CLASS
  1
ACIMSTRSYSVAR
  2
AcImStrSysVar
  3
AcMeServices
 90
        0
280
     0
281
     0
  0
CLASS
  1
ACMSTANDARDISO
  2
AcmStandardISO
  3
"Amdt_StdImp|Product Description: AutoCAD Mechanical 2004 DX|Company: Autodesk"
 90
        0
280
     0
281
     0
  0
CLASS
  1
AMGOBJPROPCFG
  2
AmgObjPropCfg
  3
"AmgLay|Product Description: AutoCAD Mechanical 2000|Company: Autodesk"
 90
        1
280
     0
281
     0
  0
CLASS
  1
AMDTEDGESTANDARDISO
  2
AmdtEdgeStdISO
  3
"Amdt_StdImp|Product Description: AutoCAD Mechanical 2004 DX|Company: Autodesk"
 90
    32768
280
     0
281
     0
  0
CLASS
  1
ACMSURFSTANDARDISO
  2
AcmSurfTextStdISO
  3
"Amdt_StdImp|Product Description: AutoCAD Mechanical 2004 DX|Company: Autodesk"
 90
        0
280
     0
281
     0
  0
CLASS
  1
ACMFCFSTANDARDISO
  2
AcmFCFStdISO
  3
"Amdt_StdImp|Product Description: AutoCAD Mechanical 2004 DX|Company: Autodesk"
 90
        0
280
     0
281
     0
  0
CLASS
  1
ACMWELDSTANDARDISO
  2
AcmWeldingStdISO
  3
"Amdt_StdImp|Product Description: AutoCAD Mechanical 2004 DX|Company: Autodesk"
 90
        0
280
     0
281
     0
  0
CLASS
  1
ACMIDSTANDARDISO
  2
AcmIdStdISO
  3
"Amdt_StdImp|Product Description: AutoCAD Mechanical 2004 DX|Company: Autodesk"
 90
        0
280
     0
281
     0
  0
CLASS
  1
ACMDATUMSTANDARDISO
  2
AcmDatumStdISO
  3
"Amdt_StdImp|Product Description: AutoCAD Mechanical 2004 DX|Company: Autodesk"
 90
        0
280
     0
281
     0
  0
CLASS
  1
ACMBOMSTANDARDISO
  2
AcmBOMStdISO
  3
"Amdt_StdImp|Product Description: AutoCAD Mechanical 2004 DX|Company: Autodesk"
 90
        0
280
     0
281
     0
  0
CLASS
  1
ACMDETAILSTANDARDISO
  2
AmdtDetailSymStdISO
  3
"Amdt_StdImp|Product Description: AutoCAD Mechanical 2004 DX|Company: Autodesk"
 90
        0
280
     0
281
     0
  0
CLASS
  1
ACMSECTIONSTANDARDISO
  2
AmdtSectionSymStdISO
  3
"Amdt_StdImp|Product Description: AutoCAD Mechanical 2004 DX|Company: Autodesk"
 90
        0
280
     0
281
     0
  0
CLASS
  1
ACMCENTERLINESTANDARDISO
  2
AmdtCenterLineStdISO
  3
"Amdt_StdImp|Product Description: AutoCAD Mechanical 2004 DX|Company: Autodesk"
 90
        0
280
     0
281
     0
  0
CLASS
  1
ACMNOTESTANDARDISO
  2
AmdtNoteStdISO
  3
"Amdt_StdImp|Product Description: AutoCAD Mechanical 2004 DX|Company: Autodesk"
 90
        0
280
     0
281
     0
  0
CLASS
  1
ACAMGLAYSTD
  2
AcAmgLayStd
  3
"AcAmgLayStd|Product Description: AutoCAD Mechanical 2000|Company: Autodesk"
 90
        0
280
     0
281
     0
  0
CLASS
  1
ACAMGDIMSTD
  2
AcAmgDimStd
  3
"AcAmgDimStd|Product Description: AutoCAD Mechanical 2000|Company: Autodesk"
 90
        0
280
     0
281
     0
  0
CLASS
  1
ACAMGHOLECHARTSTDISO
  2
AcAmgHoleChartStdISO
  3
ACMSYMBB_MODULE_NAME
 90
        0
280
     0
281
     0
  0
CLASS
  1
ACAMGTITLESTD
  2
AcAmgTitleStd
  3
"TITLEAPP"
 90
        0
280
     0
281
     0
  0
CLASS
  1
LAYER_INDEX
  2
AcDbLayerIndex
  3
ObjectDBX Classes
 90
    32768
280
     0
281
     0
  0
CLASS
  1
IDBUFFER
  2
AcDbIdBuffer
  3
ObjectDBX Classes
 90
    32768
280
     0
281
     0
  0
CLASS
  1
DICTIONARYVAR
  2
AcDbDictionaryVar
  3
ObjectDBX Classes
 90
        0
280
     0
281
     0
  0
CLASS
  1
ACAMGFILTERDAT
  2
AcAmgFilterDat
  3
"AcadM|Product Description: AutoCAD Mechanical 2000|Company: Autodesk"
 90
        0
280
     0
281
     0
  0
CLASS
  1
AMDTFORMULAUPDATEDISPATCHER
  2
AmdtFormulaUpdateDispatcher
  3
AcMeServices
 90
    32768
280
     0
281
     0
  0
CLASS
  1
DIMASSOC
  2
AcDbDimAssoc
  3
"AcDbDimAssoc|Product Desc:     AcDim ARX App For Dimension|Company:          Autodesk, Inc.|WEB Address:      www.autodesk.com"
 90
    32768
280
     0
281
     0
  0
CLASS
  1
AMDTNOTE
  2
AmdtNote
  3
"AcmSymBB|Product Description: AutoCAD Mechanical 2004 DX|Company: Autodesk"
 90
    33791
280
     0
281
     1
  0
CLASS
  1
TABLESTYLE
  2
AcDbTableStyle
  3
ObjectDBX Classes
 90
     2047
280
     0
281
     0
  0
CLASS
  1
AM_DRAWING_MGR
  2
AcDmDwgMgr
  3
AcMechDwgViewMgmt
 90
        0
280
     0
281
     0
  0
CLASS
  1
AM_DWG_DOCUMENT
  2
AcDmDwgDocument
  3
AcMechDwgViewMgmt
 90
        0
280
     0
281
     0
  0
CLASS
  1
AM_DWG_SHEET
  2
AcDmSheet
  3
AcMechDwgViewMgmt
 90
        0
280
     0
281
     0
  0
CLASS
  1
AM_VIEWDIMPARMAP
  2
AcDmViewDimParMap
  3
AcMechDwgViewMgmt
 90
        0
280
     0
281
     0
  0
CLASS
  1
AM_DWGMGR_NAME
  2
AcDmDwgMgrName
  3
AcMechDwgViewMgmt
 90
        0
280
     0
281
     0
  0
CLASS
  1
AMDTMENUSTATEMGR
  2
AmdtMenuStateMgr
  3
McadcomServices
 90
        0
280
     0
281
     0
  0
CLASS
  1
AMDTMCOMMENUSTATE
  2
AmdtMcomMenuState
  3
McadcomServices
 90
        0
280
     0
281
     0
  0
CLASS
  1
MAPIAMMOUDLE
  2
MApiAmModule
  3
MApiAmServices
 90
        0
280
     0
281
     0
  0
CLASS
  1
AMDTADMENUSTATE
  2
AmdtAdMenuState
  3
DesignerServices
 90
        0
280
     0
281
     0
  0
CLASS
  1
ADAPPL
  2
AcAdAppl
  3
DesignerServices
 90
        0
280
     0
281
     0
  0
CLASS
  1
DEPMGR
  2
AcAdDepMgr
  3
DesignerServices
 90
        0
280
     0
281
     0
  0
CLASS
  1
PARAMMGR
  2
AcAdParamMgr
  3
DesignerServices
 90
        0
280
     0
281
     0
  0
CLASS
  1
PARAMSCOPE
  2
AcAdParamScope
  3
DesignerServices
 90
        0
280
     0
281
     0
  0
CLASS
  1
NAMEDAPPL
  2
AcAdNamedAppl
  3
DesignerServices
 90
        0
280
     0
281
     0
  0
CLASS
  1
AMDTDMMENUSTATE
  2
AmdtDmMenuState
  3
AcMechDwgViewMgmt
 90
        0
280
     0
281
     0
  0
CLASS
  1
AMDTAMMENUSTATE
  2
AmdtAmMenuState
  3
DesignerAssemblies
 90
        0
280
     0
281
     0
  0
CLASS
  1
ACAMPROJECT
  2
AcAmProject
  3
DesignerAssemblies
 90
        0
280
     0
281
     0
  0
CLASS
  1
ACAMGRCOMPDEF
  2
AcAmGrCompDef
  3
DesignerAssemblies
 90
        0
280
     0
281
     0
  0
CLASS
  1
ACCMCONTEXT
  2
AcCmContext
  3
DesignerAssemblies
 90
        0
280
     0
281
     0
  0
CLASS
  1
ACAMCOMPDEF
  2
AcAmCompDef
  3
DesignerAssemblies
 90
        0
280
     0
281
     0
  0
CLASS
  1
ACAMCOMPDEFMGR
  2
AcAmCompDefMgr
  3
DesignerAssemblies
 90
        0
280
     0
281
     0
  0
CLASS
  1
AMCONTEXTMGR
  2
AcAmContextMgr
  3
DesignerAssemblies
 90
        0
280
     0
281
     0
  0
CLASS
  1
ACAMCONTEXTMODELER
  2
AcAmContextModeler
  3
DesignerAssemblies
 90
        0
280
     0
281
     0
  0
CLASS
  1
ACMTHREADLINESTANDARDISO
  2
AmdtThreadLineStdISO
  3
"Amdt_StdImp|Product Description: AutoCAD Mechanical 2004 DX|Company: Autodesk"
 90
        0
280
     0
281
     0
  0
CLASS
  1
CATALOGSTATE
  2
AcAmCatalogState
  3
DesignerAssemblies
 90
        0
280
     0
281
     0
  0
CLASS
  1
ACAMGRCOMPDEFSET
  2
AcAmGrCompDefSet
  3
DesignerAssemblies
 90
        0
280
     0
281
     0
  0
CLASS
  1
AMDTBROWSERDBTAB
  2
AmdtBrowserDbTab
  3
McadcomServices
 90
        0
280
     0
281
     0
  0
CLASS
  1
CBROWSERAPPOBJECT
  2
CBrowserAppObject
  3
McadcomServices
 90
        0
280
     0
281
     0
  0
CLASS
  1
DM_PLACEHOLDER
  2
AcDmSelsetPlaceholder
  3
AcMechDwgViewMgmt
 90
        0
280
     0
281
     0
  0
CLASS
  1
VAACXREFPANELOBJECT
  2
VaAcXREFPanelObject
  3
VAAC_ADDIN
 90
    32768
280
     0
281
     0
  0
CLASS
  1
VAACIMAGEINVENTORY
  2
VaAcImageInventory
  3
VAAC_ADDIN
 90
    32768
280
     0
281
     0
  0
CLASS
  1
AMDTEDGESTANDARDISO13715
  2
AmdtEdgeStdISO13715
  3
"Amdt_StdImp|Product Description: AutoCAD Mechanical 2004 DX|Company: Autodesk"
 90
        0
280
     0
281
     0
  0
CLASS
  1
AMDTNOTETEMPLATEDB
  2
AmdtNoteTemplateDB
  3
AMDT_STDIMP_MODULE_NAME
 90
        0
280
     0
281
     0
  0
CLASS
  1
ACRFATTGENMGR
  2
AcRfAttGeneralMgr
  3
AcAttribServices
 90
        0
280
     0
281
     0
  0
CLASS
  1
STDPART2D
  2
AmgStdPart
  3
"AmgStdPart|Product Description: AutoCAD Mechanical 2000|Company: Autodesk"
 90
    33791
280
     0
281
     1
  0
CLASS
  1
ACAMSTDPCOMPDEF
  2
AcAmStdpCompDef
  3
DesignerAssemblies
 90
    32768
280
     0
281
     0
  0
CLASS
  1
ACRFOBJATTMGR
  2
AcRfObjAttGroupMgr
  3
AcAttribServices
 90
    32768
280
     0
281
     0
  0
CLASS
  1
ACRFMCADAPIATTHOLDER
  2
AcRfMCADAPIAttHolder
  3
AcAttribServices
 90
    32768
280
     0
281
     0
  0
CLASS
  1
AMDTSYSATTR
  2
AmdtSystemAttribute
  3
AcAttribServices
 90
    32768
280
     0
281
     0
  0
CLASS
  1
ACAMCOMP
  2
AcAmComp
  3
DesignerAssemblies
 90
    32768
280
     0
281
     0
  0
CLASS
  1
AC_AM_STDP_VIEW_DEF
  2
AcAmStdpViewDef
  3
DesignerAssemblies
 90
    32768
280
     0
281
     0
  0
CLASS
  1
AC_AM_MVD_DEP_MGR
  2
AcAmMVDdepMgr
  3
DesignerAssemblies
 90
        0
280
     0
281
     0
  0
CLASS
  1
AC_AM_MASTER_VIEW_DEF
  2
AcAmMasterViewDef
  3
DesignerAssemblies
 90
        0
280
     0
281
     0
  0
CLASS
  1
AC_AM_DIRTY_NODES
  2
AcAmDirtyNodes
  3
DesignerAssemblies
 90
        0
280
     0
281
     0
  0
CLASS
  1
AC_AM_MAPPER_CACHE
  2
AcAmMapperCache
  3
DesignerAssemblies
 90
        0
280
     0
281
     0
  0
CLASS
  1
ACAMMVDBACKUPOBJECT
  2
AcAmMVDBackupObject
  3
DesignerAssemblies
 90
        0
280
     0
281
     0
  0
CLASS
  1
AC_AM_COMP_VIEW_INST
  2
AcAmCompView
  3
DesignerAssemblies
 90
    32768
280
     0
281
     0
  0
CLASS
  1
AC_AM_2D_XREF_MGR
  2
AcAmXrefMgr2d
  3
DesignerAssemblies
 90
        0
280
     0
281
     0
  0
CLASS
  1
SORTENTSTABLE
  2
AcDbSortentsTable
  3
ObjectDBX Classes
 90
        0
280
     0
281
     0
  0
ENDSEC
  0
SECTION
  2
TABLES
  0
TABLE
  2
VPORT
  5
8
330
0
100
AcDbSymbolTable
 70
     3
  0
VPORT
  5
6541
330
8
100
AcDbSymbolTableRecord
100
AcDbViewportTableRecord
  2
*Active
 70
     0
 10
0.0
 20
0.0
 11
1.0
 21
1.0
 12
1248.740911594728
 22
1946.070475126884
 13
0.0
 23
0.0
 14
2.5
 24
2.5
 15
10.0
 25
10.0
 16
0.0
 26
0.0
 36
1.0
 17
0.0
 27
0.0
 37
0.0
 40
534.0473608250045
 41
1.81766917293233
 42
50.0
 43
0.0
 44
0.0
 50
0.0
 51
0.0
 71
     0
 72
   100
 73
     1
 74
     3
 75
     0
 76
     0
 77
     0
 78
     0
281
     0
 65
     1
110
0.0
120
0.0
130
0.0
111
1.0
121
0.0
131
0.0
112
0.0
122
1.0
132
0.0
 79
     0
146
0.0
  0
ENDTAB
  0
TABLE
  2
LTYPE
  5
5
330
0
100
AcDbSymbolTable
 70
    14
  0
LTYPE
  5
14
330
5
100
AcDbSymbolTableRecord
100
AcDbLinetypeTableRecord
  2
ByBlock
 70
     0
  3

 72
    65
 73
     0
 40
0.0
  0
LTYPE
  5
15
330
5
100
AcDbSymbolTableRecord
100
AcDbLinetypeTableRecord
  2
ByLayer
 70
     0
  3

 72
    65
 73
     0
 40
0.0
  0
LTYPE
  5
16
330
5
100
AcDbSymbolTableRecord
100
AcDbLinetypeTableRecord
  2
Continuous
 70
     0
  3
Solid line
 72
    65
 73
     0
 40
0.0
  0
LTYPE
  5
4D
330
5
100
AcDbSymbolTableRecord
100
AcDbLinetypeTableRecord
  2
AM_ISO02W050
 70
     0
  3
__ __ __ __ __ __ __ __ __ __ __ __ __ __ __
 72
    65
 73
     2
 40
7.5
 49
6.0
 74
     0
 49
-1.5
 74
     0
  0
LTYPE
  5
4E
330
5
100
AcDbSymbolTableRecord
100
AcDbLinetypeTableRecord
  2
AM_ISO08W050
 70
     0
  3
____ . ____ . ____ . ____ . ____ . ____ . ____
 72
    65
 73
     4
 40
18.0
 49
12.0
 74
     0
 49
-1.5
 74
     0
 49
3.0
 74
     0
 49
-1.5
 74
     0
  0
LTYPE
  5
4F
330
5
100
AcDbSymbolTableRecord
100
AcDbLinetypeTableRecord
  2
AM_ISO09W050
 70
     0
  3
_____ . . _____ . . _____ . . ____ .. ____
 72
    65
 73
     6
 40
22.5
 49
12.0
 74
     0
 49
-1.5
 74
     0
 49
3.0
 74
     0
 49
-1.5
 74
     0
 49
3.0
 74
     0
 49
-1.5
 74
     0
  0
LTYPE
  5
50
330
5
100
AcDbSymbolTableRecord
100
AcDbLinetypeTableRecord
  2
Amconstr
 70
     0
  3
_______________________
 72
    65
 73
     2
 40
9999.0
 49
9999.0
 74
     0
 49
0.0
 74
     0
  0
LTYPE
  5
51
330
5
100
AcDbSymbolTableRecord
100
AcDbLinetypeTableRecord
  2
AM_ISO08W050x2
 70
     0
  3
__ . __ . __ . __ . __ . __
 72
    65
 73
     4
 40
9.0
 49
6.0
 74
     0
 49
-0.75
 74
     0
 49
1.5
 74
     0
 49
-0.75
 74
     0
  0
LTYPE
  5
52
330
5
100
AcDbSymbolTableRecord
100
AcDbLinetypeTableRecord
  2
AM_ISO02W050x2
 70
     0
  3
 _ _ _ _ _ _ _ _ _ _ _ _
 72
    65
 73
     2
 40
3.75
 49
3.0
 74
     0
 49
-0.75
 74
     0
  0
LTYPE
  5
55
330
5
100
AcDbSymbolTableRecord
100
AcDbLinetypeTableRecord
  2
Amzigzag
 70
     0
  3
/\/-/\/-/\/-/\/-/\/-/\/
 72
    65
 73
     2
 40
11.0001
 49
0.0001
 74
     4
 75
   135
340
54
 46
0.04
 50
0.0
 44
0.0
 45
0.0
 49
-11.0
 74
     0
  0
LTYPE
  5
63
330
5
100
AcDbSymbolTableRecord
100
AcDbLinetypeTableRecord
  2
ACISOWELD
 70
     0
  3
_ _ _ _ _
 72
    65
 73
     2
 40
2.0
 49
2.0
 74
     0
 49
-1.0
 74
     0
  0
LTYPE
  5
64
330
5
100
AcDbSymbolTableRecord
100
AcDbLinetypeTableRecord
  2
ACISOTGB
 70
     0
  3
__ . . __ . .
 72
    65
 73
     6
 40
9.0
 49
4.0
 74
     0
 49
-1.0
 74
     0
 49
1.0
 74
     0
 49
-1.0
 74
     0
 49
1.0
 74
     0
 49
-1.0
 74
     0
  0
LTYPE
  5
65
330
5
100
AcDbSymbolTableRecord
100
AcDbLinetypeTableRecord
  2
ACISOTGL
 70
     0
  3
_ _ _ _ _
 72
    65
 73
     2
 40
3.0
 49
2.0
 74
     0
 49
-1.0
 74
     0
  0
LTYPE
  5
68
330
5
100
AcDbSymbolTableRecord
100
AcDbLinetypeTableRecord
  2
CENTER
 70
     0
  3
__ . __
 72
    65
 73
     4
 40
7.0
 49
4.0
 74
     0
 49
-1.0
 74
     0
 49
1.0
 74
     0
 49
-1.0
 74
     0
  0
LTYPE
  5
932
330
5
100
AcDbSymbolTableRecord
100
AcDbLinetypeTableRecord
  2
HIDDEN
 70
     0
  3
Hidden __ __ __ __ __ __ __ __ __ __ __ __ __ _
 72
    65
 73
     2
 40
9.524999999999998
 49
6.349999999999999
 74
     0
 49
-3.174999999999999
 74
     0
  0
LTYPE
  5
933
330
5
100
AcDbSymbolTableRecord
100
AcDbLinetypeTableRecord
  2
PHANTOM2
 70
     0
  3
Phantom (.5x) ___ _ _ ___ _ _ ___ _ _ ___ _ _
 72
    65
 73
     6
 40
31.75
 49
15.875
 74
     0
 49
-3.174999999999999
 74
     0
 49
3.174999999999999
 74
     0
 49
-3.174999999999999
 74
     0
 49
3.174999999999999
 74
     0
 49
-3.174999999999999
 74
     0
  0
ENDTAB
  0
TABLE
  2
LAYER
  5
2
102
{ACAD_XDICTIONARY
360
E05
102
}
330
0
100
AcDbSymbolTable
 70
     6
  0
LAYER
  5
10
330
2
100
AcDbSymbolTableRecord
100
AcDbLayerTableRecord
  2
0
 70
     0
 62
     7
  6
Continuous
370
    -3
390
F
  0
LAYER
  5
2D7
330
2
100
AcDbSymbolTableRecord
100
AcDbLayerTableRecord
  2
M_1
 70
     0
 62
     7
  6
Continuous
370
    -3
390
F
  0
LAYER
  5
42A
330
2
100
AcDbSymbolTableRecord
100
AcDbLayerTableRecord
  2
AM_5
 70
     0
 62
     5
  6
Continuous
370
    50
390
F
  0
LAYER
  5
43E
330
2
100
AcDbSymbolTableRecord
100
AcDbLayerTableRecord
  2
Defpoints
 70
     0
 62
     7
  6
Continuous
290
     0
370
    -3
390
F
  0
LAYER
  5
E7E
330
2
100
AcDbSymbolTableRecord
100
AcDbLayerTableRecord
  2
AM_7
 70
     0
 62
     1
  6
CENTER
370
    25
390
F
  0
LAYER
  5
2787
330
2
100
AcDbSymbolTableRecord
100
AcDbLayerTableRecord
  2
LOGO
 70
     0
 62
     7
  6
Continuous
370
    -3
390
F
  0
ENDTAB
  0
TABLE
  2
STYLE
  5
3
330
0
100
AcDbSymbolTable
 70
     8
  0
STYLE
  5
11
330
3
100
AcDbSymbolTableRecord
100
AcDbTextStyleTableRecord
  2
STANDARD
 70
     0
 40
0.0
 41
1.0
 50
0.0
 71
     0
 42
3.5
  3
ISOCP.SHX
  4
CHINESET.SHX
  0
STYLE
  5
54
330
3
100
AcDbSymbolTableRecord
100
AcDbTextStyleTableRecord
  2

 70
     1
 40
0.0
 41
1.0
 50
0.0
 71
     0
 42
2.5
  3
ltypeshp.shx
  4

  0
STYLE
  5
56
330
3
100
AcDbSymbolTableRecord
100
AcDbTextStyleTableRecord
  2
ACISOTS
 70
     0
 40
1.0
 41
1.0
 50
0.0
 71
     0
 42
2.5
  3
isocp.shx
  4
chineset.shx
  0
STYLE
  5
62
330
3
100
AcDbSymbolTableRecord
100
AcDbTextStyleTableRecord
  2
ACISOGDT
 70
     0
 40
0.0
 41
1.0
 50
0.0
 71
     0
 42
3.5
  3
amgdt.shx
  4

  0
STYLE
  5
9E
330
3
100
AcDbSymbolTableRecord
100
AcDbTextStyleTableRecord
  2
DAYUS
 70
     0
 40
0.0
 41
1.0
 50
0.0
 71
     0
 42
2.5
  3
simplex
  4
dayus
  0
STYLE
  5
10CF
330
3
100
AcDbSymbolTableRecord
100
AcDbTextStyleTableRecord
  2
CHINESET
 70
     0
 40
0.0
 41
0.75
 50
0.0
 71
     0
 42
3.0
  3
simplex.shx
  4
CHINESET.SHX
  0
STYLE
  5
2BA6
330
3
100
AcDbSymbolTableRecord
100
AcDbTextStyleTableRecord
  2
China
 70
     0
 40
0.0
 41
1.0
 50
0.0
 71
     0
 42
2.5
  3
romans.shx
  4
chineset.shx
  0
ENDTAB
  0
TABLE
  2
VIEW
  5
6
330
0
100
AcDbSymbolTable
 70
     0
  0
ENDTAB
  0
TABLE
  2
UCS
  5
7
330
0
100
AcDbSymbolTable
 70
     0
  0
ENDTAB
  0
TABLE
  2
APPID
  5
9
330
0
100
AcDbSymbolTable
 70
    31
  0
APPID
  5
12
330
9
100
AcDbSymbolTableRecord
100
AcDbRegAppTableRecord
  2
ACAD
 70
     0
  0
APPID
  5
30
330
9
100
AcDbSymbolTableRecord
100
AcDbRegAppTableRecord
  2
MCAD_NO_VIS
 70
     0
  0
APPID
  5
31
330
9
100
AcDbSymbolTableRecord
100
AcDbRegAppTableRecord
  2
ACAD_TEMP_GRAPHIC
 70
     0
  0
APPID
  5
42
330
9
100
AcDbSymbolTableRecord
100
AcDbRegAppTableRecord
  2
ACATTRIBSERVICES
 70
     0
  0
APPID
  5
20A
330
9
100
AcDbSymbolTableRecord
100
AcDbRegAppTableRecord
  2
GENIUS_GENODEF_13
 70
     0
  0
APPID
  5
20B
330
9
100
AcDbSymbolTableRecord
100
AcDbRegAppTableRecord
  2
GENIUS_GENOBJ-N-HTC_13
 70
     0
  0
APPID
  5
20C
330
9
100
AcDbSymbolTableRecord
100
AcDbRegAppTableRecord
  2
GENIUS_GENHATCH_13
 70
     0
  0
APPID
  5
935
330
9
100
AcDbSymbolTableRecord
100
AcDbRegAppTableRecord
  2
AD_DRAW
 70
     0
  0
APPID
  5
953
330
9
100
AcDbSymbolTableRecord
100
AcDbRegAppTableRecord
  2
DESIGNERASSEMBLIES
 70
     0
  0
APPID
  5
958
330
9
100
AcDbSymbolTableRecord
100
AcDbRegAppTableRecord
  2
ACADM_DIM_EDIT
 70
     0
  0
APPID
  5
959
330
9
100
AcDbSymbolTableRecord
100
AcDbRegAppTableRecord
  2
AMDT_DM_ADJ
 70
     0
  0
APPID
  5
E24
330
9
100
AcDbSymbolTableRecord
100
AcDbRegAppTableRecord
  2
ACAD_DSTYLE_DIMTEXT_FILL
 70
     0
  0
APPID
  5
10D0
330
9
100
AcDbSymbolTableRecord
100
AcDbRegAppTableRecord
  2
ACAD_PSEXT
 70
     0
  0
APPID
  5
16F7
330
9
100
AcDbSymbolTableRecord
100
AcDbRegAppTableRecord
  2
ACAD_DIMASSOC_DIMLFAC
 70
     0
  0
APPID
  5
16F8
330
9
100
AcDbSymbolTableRecord
100
AcDbRegAppTableRecord
  2
ACAD_DIMASSOC_CALC_DIMLFAC
 70
     0
  0
APPID
  5
16F9
330
9
100
AcDbSymbolTableRecord
100
AcDbRegAppTableRecord
  2
ACAD_DIMASSOC_OVERRIDDEN_DIMLFAC
 70
     0
  0
APPID
  5
1997
330
9
100
AcDbSymbolTableRecord
100
AcDbRegAppTableRecord
  2
GEVID1139552286
 70
     0
  0
APPID
  5
1998
330
9
100
AcDbSymbolTableRecord
100
AcDbRegAppTableRecord
  2
GEVDC
 70
     0
  0
APPID
  5
1999
330
9
100
AcDbSymbolTableRecord
100
AcDbRegAppTableRecord
  2
GEVRADREF
 70
     0
  0
APPID
  5
19A2
330
9
100
AcDbSymbolTableRecord
100
AcDbRegAppTableRecord
  2
AMG_2DHIDE
 70
     0
  0
APPID
  5
19A3
330
9
100
AcDbSymbolTableRecord
100
AcDbRegAppTableRecord
  2
AMG_2DSTRUCT_BTR
 70
     0
  0
APPID
  5
19B4
330
9
100
AcDbSymbolTableRecord
100
AcDbRegAppTableRecord
  2
ACADM_2DVIEW_IGN_NOTIFY
 70
     0
  0
APPID
  5
19DC
330
9
100
AcDbSymbolTableRecord
100
AcDbRegAppTableRecord
  2
GENIUS_GENOENT_13
 70
     0
  0
APPID
  5
19DD
330
9
100
AcDbSymbolTableRecord
100
AcDbRegAppTableRecord
  2
GENIUS_GENOBJ-N-CRS_13
 70
     0
  0
APPID
  5
19DE
330
9
100
AcDbSymbolTableRecord
100
AcDbRegAppTableRecord
  2
GENIUS_GENOLIS_13
 70
     0
  0
APPID
  5
19DF
330
9
100
AcDbSymbolTableRecord
100
AcDbRegAppTableRecord
  2
GENIUS_GENOREF_13
 70
     0
  0
APPID
  5
1B28
330
9
100
AcDbSymbolTableRecord
100
AcDbRegAppTableRecord
  2
GENIUS_GENOBJ-N-CEN_13
 70
     0
  0
APPID
  5
1B29
330
9
100
AcDbSymbolTableRecord
100
AcDbRegAppTableRecord
  2
GENIUS_GENCEN_19
 70
     0
  0
APPID
  5
2753
330
9
100
AcDbSymbolTableRecord
100
AcDbRegAppTableRecord
  2
GENIUS_GENDTOL_13
 70
     0
  0
APPID
  5
2788
330
9
100
AcDbSymbolTableRecord
100
AcDbRegAppTableRecord
  2
GENIUS_GENREC_14
 70
     0
  0
APPID
  5
2789
330
9
100
AcDbSymbolTableRecord
100
AcDbRegAppTableRecord
  2
GENIUS_GENOBJ-N-REC_13
 70
     0
  0
ENDTAB
  0
TABLE
  2
DIMSTYLE
  5
A
330
0
100
AcDbSymbolTable
 70
    10
100
AcDbDimStyleTable
 71
     2
340
6B
340
75
  0
DIMSTYLE
105
6B
330
A
100
AcDbSymbolTableRecord
100
AcDbDimStyleTableRecord
  2
AM_ISO
 70
     0
  4
"
 41
4.5
 42
1.0
 43
10.0
 44
1.5
 47
0.1
 48
0.1
 73
     0
 74
     0
 77
     1
 78
     8
 79
     2
140
5.0
141
3.0
143
0.0393701
146
0.71
147
0.8
172
     1
176
   256
177
   256
178
   256
271
     2
272
     2
283
     0
284
     8
340
11
371
    -1
372
    -1
  0
DIMSTYLE
105
6C
330
A
100
AcDbSymbolTableRecord
100
AcDbDimStyleTableRecord
  2
AM_ISO$3
 70
     0
  4
"
 41
4.5
 42
1.0
 43
10.0
 44
1.5
 47
0.1
 48
0.1
 73
     0
 77
     1
 78
     8
 79
     2
140
5.0
141
3.0
143
0.0393701
146
0.71
147
0.8
176
   256
177
   256
178
   256
271
     2
272
     2
283
     0
284
     8
288
     1
289
     0
340
11
371
    -1
372
    -1
  0
DIMSTYLE
105
6D
330
A
100
AcDbSymbolTableRecord
100
AcDbDimStyleTableRecord
  2
AM_ISO$4
 70
     0
  4
"
 41
4.5
 42
1.0
 43
10.0
 44
1.5
 47
0.1
 48
0.1
 73
     0
 77
     1
 78
     8
 79
     2
140
5.0
141
3.0
143
0.0393701
146
0.71
147
0.8
176
   256
177
   256
178
   256
271
     2
272
     2
283
     0
284
     8
288
     1
289
     0
340
11
371
    -1
372
    -1
  0
DIMSTYLE
105
6E
330
A
100
AcDbSymbolTableRecord
100
AcDbDimStyleTableRecord
  2
AM_ISO$6
 70
     0
  4
"
 41
4.5
 42
1.0
 43
10.0
 44
1.5
 47
0.1
 48
0.1
 73
     0
 74
     0
 78
     8
 79
     2
140
5.0
141
3.0
143
0.0393701
146
0.71
147
0.8
172
     1
176
   256
177
   256
178
   256
271
     2
272
     2
283
     0
284
     8
340
11
371
    -1
372
    -1
  0
DIMSTYLE
105
6F
102
{ACAD_REACTORS
330
5E0E
330
5E04
102
}
330
A
100
AcDbSymbolTableRecord
100
AcDbDimStyleTableRecord
  2
AM_ISO$7
 70
     0
  4
"
 41
4.5
 42
1.0
 43
10.0
 44
1.5
 47
0.1
 48
0.1
 73
     0
 74
     0
 77
     1
 78
     8
 79
     2
140
5.0
141
3.0
143
0.0393701
146
0.71
147
0.8
172
     1
176
   256
177
   256
178
   256
271
     2
272
     2
283
     0
284
     8
340
11
371
    -1
372
    -1
  0
DIMSTYLE
105
70
330
A
100
AcDbSymbolTableRecord
100
AcDbDimStyleTableRecord
  2
AM_ISO$SF
 70
     0
  4
"
 41
2.5
 42
1.0
 43
10.0
 44
1.0
 47
0.1
 48
0.1
 73
     0
 74
     0
 75
     1
 76
     1
 77
     1
 78
     8
 79
     2
140
3.5
141
0.0
143
0.0393701
146
0.71
147
1.5
172
     1
176
   256
177
   256
178
     2
271
     2
272
     3
274
     4
283
     0
284
     8
340
11
371
    -1
372
    -1
  0
DIMSTYLE
105
75
330
A
100
AcDbSymbolTableRecord
100
AcDbDimStyleTableRecord
  2
AM_ISO$SH
 70
     0
  4
"
 41
2.5
 42
1.0
 43
10.0
 44
1.0
 47
0.1
 48
0.1
 73
     0
 74
     0
 75
     1
 76
     1
 77
     1
 78
     8
 79
     2
140
3.5
141
0.0
143
0.0393701
144
2.0
146
0.71
147
1.5
172
     1
173
     1
176
   256
177
   256
178
     2
271
     2
272
     3
274
     4
283
     0
284
     8
340
11
343
71
371
    -1
372
    -1
  0
DIMSTYLE
105
E7F
102
{ACAD_REACTORS
330
5E0F
330
5E05
330
5D75
330
5D74
330
5C88
330
5C87
330
5D78
330
5D77
330
5D76
330
5D62
330
5DC1
330
5DC3
330
5D87
330
5D86
330
5D9A
330
5C89
330
5CC0
330
5CA0
330
5C9F
330
5C9E
102
}
330
A
100
AcDbSymbolTableRecord
100
AcDbDimStyleTableRecord
  2
AM_ISO$0
 70
     0
  4
"
 41
4.5
 42
1.0
 43
10.0
 44
1.5
 47
0.1
 48
0.1
 73
     0
 74
     0
 77
     1
 78
     8
 79
     2
140
5.0
141
3.0
143
0.0393701
146
0.71
147
0.8
172
     1
176
   256
177
   256
178
   256
271
     2
272
     2
283
     0
284
     8
340
11
371
    -1
372
    -1
  0
DIMSTYLE
105
1597
330
A
100
AcDbSymbolTableRecord
100
AcDbDimStyleTableRecord
  2
AM_ISO$2
 70
     0
  4
"
 41
4.5
 42
1.0
 43
10.0
 44
1.5
 47
0.1
 48
0.1
 73
     0
 74
     0
 77
     1
 78
     8
 79
     2
140
5.0
141
3.0
143
0.0393701
146
0.71
147
0.8
172
     1
176
   256
177
   256
178
   256
271
     2
272
     2
283
     0
284
     8
340
11
371
    -1
372
    -1
  0
ENDTAB
  0
TABLE
  2
BLOCK_RECORD
  5
1
330
0
100
AcDbSymbolTable
 70
    26
  0
BLOCK_RECORD
  5
1F
102
{ACAD_XDICTIONARY
360
7D
102
}
330
1
100
AcDbSymbolTableRecord
100
AcDbBlockTableRecord
  2
*Model_Space
340
22
  0
BLOCK_RECORD
  5
1B
330
1
100
AcDbSymbolTableRecord
100
AcDbBlockTableRecord
  2
*Paper_Space
340
1E
  0
BLOCK_RECORD
  5
23
330
1
100
AcDbSymbolTableRecord
100
AcDbBlockTableRecord
  2
*Paper_Space0
340
26
  0
BLOCK_RECORD
  5
71
330
1
100
AcDbSymbolTableRecord
100
AcDbBlockTableRecord
  2
GENAXEH
340
0
  0
BLOCK_RECORD
  5
19B9
330
1
100
AcDbSymbolTableRecord
100
AcDbBlockTableRecord
  2
*U4
340
0
  0
BLOCK_RECORD
  5
5E2F
330
1
100
AcDbSymbolTableRecord
100
AcDbBlockTableRecord
  2
*D5
340
0
  0
BLOCK_RECORD
  5
5E3B
330
1
100
AcDbSymbolTableRecord
100
AcDbBlockTableRecord
  2
*D6
340
0
  0
BLOCK_RECORD
  5
5E47
330
1
100
AcDbSymbolTableRecord
100
AcDbBlockTableRecord
  2
*D7
340
0
  0
BLOCK_RECORD
  5
5E53
330
1
100
AcDbSymbolTableRecord
100
AcDbBlockTableRecord
  2
*D8
340
0
  0
BLOCK_RECORD
  5
5E5F
330
1
100
AcDbSymbolTableRecord
100
AcDbBlockTableRecord
  2
*D9
340
0
  0
BLOCK_RECORD
  5
5E6A
330
1
100
AcDbSymbolTableRecord
100
AcDbBlockTableRecord
  2
*D10
340
0
  0
BLOCK_RECORD
  5
5E76
330
1
100
AcDbSymbolTableRecord
100
AcDbBlockTableRecord
  2
*D11
340
0
  0
BLOCK_RECORD
  5
5E82
330
1
100
AcDbSymbolTableRecord
100
AcDbBlockTableRecord
  2
*D12
340
0
  0
BLOCK_RECORD
  5
5E8D
330
1
100
AcDbSymbolTableRecord
100
AcDbBlockTableRecord
  2
*D13
340
0
  0
BLOCK_RECORD
  5
5E9A
330
1
100
AcDbSymbolTableRecord
100
AcDbBlockTableRecord
  2
*D14
340
0
  0
BLOCK_RECORD
  5
5EA7
330
1
100
AcDbSymbolTableRecord
100
AcDbBlockTableRecord
  2
*D15
340
0
  0
BLOCK_RECORD
  5
5EB3
330
1
100
AcDbSymbolTableRecord
100
AcDbBlockTableRecord
  2
*D16
340
0
  0
BLOCK_RECORD
  5
5EC0
330
1
100
AcDbSymbolTableRecord
100
AcDbBlockTableRecord
  2
*D17
340
0
  0
BLOCK_RECORD
  5
5ECC
330
1
100
AcDbSymbolTableRecord
100
AcDbBlockTableRecord
  2
*D18
340
0
  0
BLOCK_RECORD
  5
5ED8
330
1
100
AcDbSymbolTableRecord
100
AcDbBlockTableRecord
  2
*D19
340
0
  0
BLOCK_RECORD
  5
5EE4
330
1
100
AcDbSymbolTableRecord
100
AcDbBlockTableRecord
  2
*D20
340
0
  0
BLOCK_RECORD
  5
5EEF
330
1
100
AcDbSymbolTableRecord
100
AcDbBlockTableRecord
  2
*D21
340
0
  0
BLOCK_RECORD
  5
5EFB
330
1
100
AcDbSymbolTableRecord
100
AcDbBlockTableRecord
  2
*D22
340
0
  0
BLOCK_RECORD
  5
5F07
330
1
100
AcDbSymbolTableRecord
100
AcDbBlockTableRecord
  2
*D23
340
0
  0
BLOCK_RECORD
  5
5F12
330
1
100
AcDbSymbolTableRecord
100
AcDbBlockTableRecord
  2
*D24
340
0
  0
ENDTAB
  0
ENDSEC
  0
SECTION
  2
BLOCKS
  0
BLOCK
  5
20
330
1F
100
AcDbEntity
  8
0
100
AcDbBlockBegin
  2
*Model_Space
 70
     0
 10
0.0
 20
0.0
 30
0.0
  3
*Model_Space
  1

  0
ENDBLK
  5
21
330
1F
100
AcDbEntity
  8
0
100
AcDbBlockEnd
  0
BLOCK
  5
1C
330
1B
100
AcDbEntity
 67
     1
  8
0
100
AcDbBlockBegin
  2
*Paper_Space
 70
     0
 10
0.0
 20
0.0
 30
0.0
  3
*Paper_Space
  1

  0
ENDBLK
  5
1D
330
1B
100
AcDbEntity
 67
     1
  8
0
100
AcDbBlockEnd
  0
BLOCK
  5
24
330
23
100
AcDbEntity
  8
0
100
AcDbBlockBegin
  2
*Paper_Space0
 70
     0
 10
0.0
 20
0.0
 30
0.0
  3
*Paper_Space0
  1

  0
ENDBLK
  5
25
330
23
100
AcDbEntity
  8
0
100
AcDbBlockEnd
  0
BLOCK
  5
73
330
71
100
AcDbEntity
  8
0
100
AcDbBlockBegin
  2
GENAXEH
 70
     0
 10
0.0
 20
0.0
 30
0.0
  3
GENAXEH
  1

  0
LINE
  5
72
330
71
100
AcDbEntity
  8
0
100
AcDbLine
 10
-1.0
 20
0.0
 30
0.0
 11
1.0
 21
0.0
 31
0.0
  0
ENDBLK
  5
74
330
71
100
AcDbEntity
  8
0
100
AcDbBlockEnd
  0
BLOCK
  5
19BA
330
19B9
100
AcDbEntity
  8
0
100
AcDbBlockBegin
  2
*U4
 70
     1
 10
0.0
 20
0.0
 30
0.0
  3
*U4
  1

  0
ENDBLK
  5
19BB
330
19B9
100
AcDbEntity
  8
0
100
AcDbBlockEnd
  0
BLOCK
  5
5E39
330
5E2F
100
AcDbEntity
  8
0
100
AcDbBlockBegin
  2
*D5
 70
     1
 10
0.0
 20
0.0
 30
0.0
  3
*D5
  1

  0
LINE
  5
63DF
330
5E2F
100
AcDbEntity
  8
AM_5
100
AcDbLine
 10
1281.276747922135
 20
2153.799754294756
 30
0.0
 11
1281.276747922135
 21
2166.253558444444
 31
0.0
  0
LINE
  5
63E0
330
5E2F
100
AcDbEntity
  8
AM_5
100
AcDbLine
 10
1185.276747922134
 20
2153.799754294756
 30
0.0
 11
1185.276747922134
 21
2166.253558444444
 31
0.0
  0
LINE
  5
63E1
330
5E2F
100
AcDbEntity
  8
AM_5
100
AcDbLine
 10
1276.776747922135
 20
2164.753558444444
 30
0.0
 11
1189.776747922135
 21
2164.753558444444
 31
0.0
  0
SOLID
  5
63E2
330
5E2F
100
AcDbEntity
  8
AM_5
100
AcDbTrace
 10
1276.776747922135
 20
2165.503558444444
 30
0.0
 11
1276.776747922135
 21
2164.003558444444
 31
0.0
 12
1281.276747922135
 22
2164.753558444444
 32
0.0
 13
1281.276747922135
 23
2164.753558444444
 33
0.0
  0
SOLID
  5
63E3
330
5E2F
100
AcDbEntity
  8
AM_5
100
AcDbTrace
 10
1189.776747922135
 20
2165.503558444444
 30
0.0
 11
1189.776747922135
 21
2164.003558444444
 31
0.0
 12
1185.276747922134
 22
2164.753558444444
 32
0.0
 13
1185.276747922134
 23
2164.753558444444
 33
0.0
  0
MTEXT
  5
63E4
330
5E2F
100
AcDbEntity
  8
AM_5
100
AcDbMText
 10
1233.276747922135
 20
2168.053558444444
 30
0.0
 40
5.0
 41
0.0
 71
     5
 72
     1
  1
96
 73
     1
 44
1.0
1001
ACAD
1000
MTEXTBEGIN
1070
    73
1070
     1
1070
    44
1040
1.0
1070
    74
1070
     0
1000
MTEXTEND
  0
POINT
  5
63E5
330
5E2F
100
AcDbEntity
  8
Defpoints
 62
     0
100
AcDbPoint
 10
1281.276747922135
 20
2152.799754294756
 30
0.0
  0
POINT
  5
63E6
330
5E2F
100
AcDbEntity
  8
Defpoints
 62
     0
100
AcDbPoint
 10
1185.276747922134
 20
2152.799754294756
 30
0.0
  0
POINT
  5
63E7
330
5E2F
100
AcDbEntity
  8
Defpoints
 62
     0
100
AcDbPoint
 10
1185.276747922134
 20
2164.753558444444
 30
0.0
  0
ENDBLK
  5
5E3A
330
5E2F
100
AcDbEntity
  8
0
100
AcDbBlockEnd
  0
BLOCK
  5
5E45
330
5E3B
100
AcDbEntity
  8
0
100
AcDbBlockBegin
  2
*D6
 70
     1
 10
0.0
 20
0.0
 30
0.0
  3
*D6
  1

  0
LINE
  5
63D6
330
5E3B
100
AcDbEntity
  8
AM_5
100
AcDbLine
 10
1191.276747922135
 20
2113.593744658036
 30
0.0
 11
1191.276747922135
 21
2156.253558444443
 31
0.0
  0
LINE
  5
63D7
330
5E3B
100
AcDbEntity
  8
AM_5
100
AcDbLine
 10
1281.276747922135
 20
2136.575602104092
 30
0.0
 11
1281.276747922135
 21
2156.253558444443
 31
0.0
  0
LINE
  5
63D8
330
5E3B
100
AcDbEntity
  8
AM_5
100
AcDbLine
 10
1195.776747922135
 20
2154.753558444443
 30
0.0
 11
1276.776747922135
 21
2154.753558444443
 31
0.0
  0
SOLID
  5
63D9
330
5E3B
100
AcDbEntity
  8
AM_5
100
AcDbTrace
 10
1195.776747922135
 20
2155.503558444443
 30
0.0
 11
1195.776747922135
 21
2154.003558444443
 31
0.0
 12
1191.276747922135
 22
2154.753558444443
 32
0.0
 13
1191.276747922135
 23
2154.753558444443
 33
0.0
  0
SOLID
  5
63DA
330
5E3B
100
AcDbEntity
  8
AM_5
100
AcDbTrace
 10
1276.776747922135
 20
2155.503558444443
 30
0.0
 11
1276.776747922135
 21
2154.003558444443
 31
0.0
 12
1281.276747922135
 22
2154.753558444443
 32
0.0
 13
1281.276747922135
 23
2154.753558444443
 33
0.0
  0
MTEXT
  5
63DB
330
5E3B
100
AcDbEntity
  8
AM_5
100
AcDbMText
 10
1236.276747922135
 20
2158.053558444444
 30
0.0
 40
5.0
 41
0.0
 71
     5
 72
     1
  1
90
 73
     1
 44
1.0
1001
ACAD
1000
MTEXTBEGIN
1070
    73
1070
     1
1070
    44
1040
1.0
1070
    74
1070
     0
1000
MTEXTEND
  0
POINT
  5
63DC
330
5E3B
100
AcDbEntity
  8
Defpoints
 62
     0
100
AcDbPoint
 10
1191.276747922135
 20
2112.593744658036
 30
0.0
  0
POINT
  5
63DD
330
5E3B
100
AcDbEntity
  8
Defpoints
 62
     0
100
AcDbPoint
 10
1281.276747922135
 20
2135.575602104092
 30
0.0
  0
POINT
  5
63DE
330
5E3B
100
AcDbEntity
  8
Defpoints
 62
     0
100
AcDbPoint
 10
1281.276747922135
 20
2154.753558444443
 30
0.0
  0
ENDBLK
  5
5E46
330
5E3B
100
AcDbEntity
  8
0
100
AcDbBlockEnd
  0
BLOCK
  5
5E51
330
5E47
100
AcDbEntity
  8
0
100
AcDbBlockBegin
  2
*D7
 70
     1
 10
0.0
 20
0.0
 30
0.0
  3
*D7
  1

  0
LINE
  5
64D0
330
5E47
100
AcDbEntity
  8
AM_5
100
AcDbLine
 10
1218.276747922135
 20
1786.645744658035
 30
0.0
 11
1218.276747922135
 21
1767.782198889158
 31
0.0
  0
LINE
  5
64D1
330
5E47
100
AcDbEntity
  8
AM_5
100
AcDbLine
 10
1203.276747922135
 20
1786.645744658035
 30
0.0
 11
1203.276747922135
 21
1767.782198889158
 31
0.0
  0
LINE
  5
64D2
330
5E47
100
AcDbEntity
  8
AM_5
100
AcDbLine
 10
1213.776747922135
 20
1769.282198889158
 30
0.0
 11
1207.776747922135
 21
1769.282198889158
 31
0.0
  0
SOLID
  5
64D3
330
5E47
100
AcDbEntity
  8
AM_5
100
AcDbTrace
 10
1213.776747922135
 20
1770.032198889158
 30
0.0
 11
1213.776747922135
 21
1768.532198889158
 31
0.0
 12
1218.276747922135
 22
1769.282198889158
 32
0.0
 13
1218.276747922135
 23
1769.282198889158
 33
0.0
  0
SOLID
  5
64D4
330
5E47
100
AcDbEntity
  8
AM_5
100
AcDbTrace
 10
1207.776747922135
 20
1770.032198889158
 30
0.0
 11
1207.776747922135
 21
1768.532198889158
 31
0.0
 12
1203.276747922135
 22
1769.282198889158
 32
0.0
 13
1203.276747922135
 23
1769.282198889158
 33
0.0
  0
MTEXT
  5
64D5
330
5E47
100
AcDbEntity
  8
AM_5
100
AcDbMText
 10
1210.776747922135
 20
1772.582198889158
 30
0.0
 40
5.0
 41
0.0
 71
     5
 72
     1
  1
15
 73
     1
 44
1.0
1001
ACAD
1000
MTEXTBEGIN
1070
    73
1070
     1
1070
    44
1040
1.0
1070
    74
1070
     0
1000
MTEXTEND
  0
POINT
  5
64D6
330
5E47
100
AcDbEntity
  8
Defpoints
 62
     0
100
AcDbPoint
 10
1218.276747922135
 20
1787.645744658036
 30
0.0
  0
POINT
  5
64D7
330
5E47
100
AcDbEntity
  8
Defpoints
 62
     0
100
AcDbPoint
 10
1203.276747922135
 20
1787.645744658036
 30
0.0
  0
POINT
  5
64D8
330
5E47
100
AcDbEntity
  8
Defpoints
 62
     0
100
AcDbPoint
 10
1203.276747922135
 20
1769.282198889158
 30
0.0
  0
ENDBLK
  5
5E52
330
5E47
100
AcDbEntity
  8
0
100
AcDbBlockEnd
  0
BLOCK
  5
5E5D
330
5E53
100
AcDbEntity
  8
0
100
AcDbBlockBegin
  2
*D8
 70
     1
 10
0.0
 20
0.0
 30
0.0
  3
*D8
  1

  0
LINE
  5
64A0
330
5E53
100
AcDbEntity
  8
AM_5
100
AcDbLine
 10
1061.27746431742
 20
1863.128303139945
 30
0.0
 11
1061.27746431742
 21
1772.732380187332
 31
0.0
  0
LINE
  5
64A1
330
5E53
100
AcDbEntity
  8
AM_5
100
AcDbLine
 10
982.7828479221349
 20
1846.128744658035
 30
0.0
 11
982.7828479221349
 21
1772.732380187332
 31
0.0
  0
LINE
  5
64A2
330
5E53
100
AcDbEntity
  8
AM_5
100
AcDbLine
 10
1056.77746431742
 20
1774.232380187332
 30
0.0
 11
987.2828479221348
 21
1774.232380187332
 31
0.0
  0
SOLID
  5
64A3
330
5E53
100
AcDbEntity
  8
AM_5
100
AcDbTrace
 10
1056.77746431742
 20
1774.982380187332
 30
0.0
 11
1056.77746431742
 21
1773.482380187332
 31
0.0
 12
1061.27746431742
 22
1774.232380187332
 32
0.0
 13
1061.27746431742
 23
1774.232380187332
 33
0.0
  0
SOLID
  5
64A4
330
5E53
100
AcDbEntity
  8
AM_5
100
AcDbTrace
 10
987.2828479221348
 20
1774.982380187332
 30
0.0
 11
987.2828479221348
 21
1773.482380187332
 31
0.0
 12
982.7828479221349
 22
1774.232380187332
 32
0.0
 13
982.7828479221349
 23
1774.232380187332
 33
0.0
  0
MTEXT
  5
64A5
330
5E53
100
AcDbEntity
  8
AM_5
100
AcDbMText
 10
1022.030156119777
 20
1777.532380187332
 30
0.0
 40
5.0
 41
0.0
 71
     5
 72
     1
  1
78.49
 73
     1
 44
1.0
1001
ACAD
1000
MTEXTBEGIN
1070
    73
1070
     1
1070
    44
1040
1.0
1070
    74
1070
     0
1000
MTEXTEND
  0
POINT
  5
64A6
330
5E53
100
AcDbEntity
  8
Defpoints
 62
     0
100
AcDbPoint
 10
1061.27746431742
 20
1864.128303139946
 30
0.0
  0
POINT
  5
64A7
330
5E53
100
AcDbEntity
  8
Defpoints
 62
     0
100
AcDbPoint
 10
982.7828479221349
 20
1847.128744658035
 30
0.0
  0
POINT
  5
64A8
330
5E53
100
AcDbEntity
  8
Defpoints
 62
     0
100
AcDbPoint
 10
982.7828479221349
 20
1774.232380187332
 30
0.0
  0
ENDBLK
  5
5E5E
330
5E53
100
AcDbEntity
  8
0
100
AcDbBlockEnd
  0
BLOCK
  5
5E68
330
5E5F
100
AcDbEntity
  8
0
100
AcDbBlockBegin
  2
*D9
 70
     1
 10
0.0
 20
0.0
 30
0.0
  3
*D9
  1

  0
LINE
  5
6495
330
5E5F
100
AcDbEntity
  8
AM_5
100
AcDbLine
 10
1013.282747922135
 20
1794.642425774795
 30
0.0
 11
1013.282747922135
 21
1782.732380187332
 31
0.0
  0
LINE
  5
6496
330
5E5F
100
AcDbEntity
  8
AM_5
100
AcDbLine
 10
1020.782747922134
 20
1854.128744658035
 30
0.0
 11
1020.782747922134
 21
1782.732380187332
 31
0.0
  0
LINE
  5
6497
330
5E5F
100
AcDbEntity
  8
AM_5
100
AcDbLine
 10
1008.782747922134
 20
1784.232380187332
 30
0.0
 11
1004.282747922135
 21
1784.232380187332
 31
0.0
  0
LINE
  5
6498
330
5E5F
100
AcDbEntity
  8
AM_5
100
AcDbLine
 10
1025.282747922134
 20
1784.232380187332
 30
0.0
 11
1038.589854703321
 21
1784.232380187332
 31
0.0
  0
LINE
  5
6499
330
5E5F
100
AcDbEntity
  8
AM_5
100
AcDbLine
 10
1013.282747922135
 20
1784.232380187332
 30
0.0
 11
1020.782747922134
 21
1784.232380187332
 31
0.0
  0
SOLID
  5
649A
330
5E5F
100
AcDbEntity
  8
AM_5
100
AcDbTrace
 10
1008.782747922134
 20
1784.982380187332
 30
0.0
 11
1008.782747922134
 21
1783.482380187332
 31
0.0
 12
1013.282747922135
 22
1784.232380187332
 32
0.0
 13
1013.282747922135
 23
1784.232380187332
 33
0.0
  0
SOLID
  5
649B
330
5E5F
100
AcDbEntity
  8
AM_5
100
AcDbTrace
 10
1025.282747922134
 20
1784.982380187332
 30
0.0
 11
1025.282747922134
 21
1783.482380187332
 31
0.0
 12
1020.782747922134
 22
1784.232380187332
 32
0.0
 13
1020.782747922134
 23
1784.232380187332
 33
0.0
  0
MTEXT
  5
649C
330
5E5F
100
AcDbEntity
  8
AM_5
100
AcDbMText
 10
1034.186301312728
 20
1787.532380187332
 30
0.0
 40
5.0
 41
0.0
 71
     5
 72
     1
  1
7.5
 73
     1
 44
1.0
1001
ACAD
1000
MTEXTBEGIN
1070
    73
1070
     1
1070
    44
1040
1.0
1070
    74
1070
     0
1000
MTEXTEND
  0
POINT
  5
649D
330
5E5F
100
AcDbEntity
  8
Defpoints
 62
     0
100
AcDbPoint
 10
1013.282747922135
 20
1795.642425774795
 30
0.0
  0
POINT
  5
649E
330
5E5F
100
AcDbEntity
  8
Defpoints
 62
     0
100
AcDbPoint
 10
1020.782747922134
 20
1855.128744658035
 30
0.0
  0
POINT
  5
649F
330
5E5F
100
AcDbEntity
  8
Defpoints
 62
     0
100
AcDbPoint
 10
1020.782747922134
 20
1784.232380187332
 30
0.0
  0
ENDBLK
  5
5E69
330
5E5F
100
AcDbEntity
  8
0
100
AcDbBlockEnd
  0
BLOCK
  5
5E74
330
5E6A
100
AcDbEntity
  8
0
100
AcDbBlockBegin
  2
*D10
 70
     1
 10
0.0
 20
0.0
 30
0.0
  3
*D10
  1

  0
LINE
  5
648C
330
5E6A
100
AcDbEntity
  8
AM_5
100
AcDbLine
 10
990.2828479221348
 20
1856.820744658035
 30
0.0
 11
990.2828479221348
 21
1782.732380187332
 31
0.0
  0
LINE
  5
648D
330
5E6A
100
AcDbEntity
  8
AM_5
100
AcDbLine
 10
1013.282747922135
 20
1856.820744658035
 30
0.0
 11
1013.282747922135
 21
1782.732380187332
 31
0.0
  0
LINE
  5
648E
330
5E6A
100
AcDbEntity
  8
AM_5
100
AcDbLine
 10
994.7828479221348
 20
1784.232380187332
 30
0.0
 11
1008.782747922134
 21
1784.232380187332
 31
0.0
  0
SOLID
  5
648F
330
5E6A
100
AcDbEntity
  8
AM_5
100
AcDbTrace
 10
994.7828479221348
 20
1784.982380187332
 30
0.0
 11
994.7828479221348
 21
1783.482380187332
 31
0.0
 12
990.2828479221348
 22
1784.232380187332
 32
0.0
 13
990.2828479221348
 23
1784.232380187332
 33
0.0
  0
SOLID
  5
6490
330
5E6A
100
AcDbEntity
  8
AM_5
100
AcDbTrace
 10
1008.782747922134
 20
1784.982380187332
 30
0.0
 11
1008.782747922134
 21
1783.482380187332
 31
0.0
 12
1013.282747922135
 22
1784.232380187332
 32
0.0
 13
1013.282747922135
 23
1784.232380187332
 33
0.0
  0
MTEXT
  5
6491
330
5E6A
100
AcDbEntity
  8
AM_5
100
AcDbMText
 10
1001.782797922134
 20
1787.532872313316
 30
0.0
 40
5.0
 41
0.0
 71
     5
 72
     1
  1
23
 73
     1
 44
1.0
1001
ACAD
1000
MTEXTBEGIN
1070
    73
1070
     1
1070
    44
1040
1.0
1070
    74
1070
     0
1000
MTEXTEND
  0
POINT
  5
6492
330
5E6A
100
AcDbEntity
  8
Defpoints
 62
     0
100
AcDbPoint
 10
990.2828479221348
 20
1857.820744658035
 30
0.0
  0
POINT
  5
6493
330
5E6A
100
AcDbEntity
  8
Defpoints
 62
     0
100
AcDbPoint
 10
1013.282747922135
 20
1857.820744658035
 30
0.0
  0
POINT
  5
6494
330
5E6A
100
AcDbEntity
  8
Defpoints
 62
     0
100
AcDbPoint
 10
1013.282747922135
 20
1784.232380187332
 30
0.0
  0
ENDBLK
  5
5E75
330
5E6A
100
AcDbEntity
  8
0
100
AcDbBlockEnd
  0
BLOCK
  5
5E80
330
5E76
100
AcDbEntity
  8
0
100
AcDbBlockBegin
  2
*D11
 70
     1
 10
0.0
 20
0.0
 30
0.0
  3
*D11
  1

  0
LINE
  5
62BB
330
5E76
100
AcDbEntity
  8
AM_5
100
AcDbLine
 10
1093.232740526487
 20
1790.779714984413
 30
0.0
 11
1101.461040213419
 21
1776.527600792506
 31
0.0
  0
LINE
  5
62BC
330
5E76
100
AcDbEntity
  8
AM_5
100
AcDbLine
 10
1108.821681702847
 20
1799.77981686922
 30
0.0
 11
1117.04998138978
 21
1785.527702677313
 31
0.0
  0
LINE
  5
62BD
330
5E76
100
AcDbEntity
  8
AM_5
100
AcDbLine
 10
1104.608184838189
 20
1780.076612022523
 30
0.0
 11
1112.402858951954
 21
1784.57678046816
 31
0.0
  0
SOLID
  5
62BE
330
5E76
100
AcDbEntity
  8
AM_5
100
AcDbTrace
 10
1104.233190384925
 20
1780.72613427774
 30
0.0
 11
1104.983179291453
 21
1779.427089767307
 31
0.0
 12
1100.711051306891
 22
1777.826645302939
 32
0.0
 13
1100.711051306891
 23
1777.826645302939
 33
0.0
  0
SOLID
  5
62BF
330
5E76
100
AcDbEntity
  8
AM_5
100
AcDbTrace
 10
1112.02786449869
 20
1785.226302723376
 30
0.0
 11
1112.777853405218
 21
1783.927258212944
 31
0.0
 12
1116.299992483251
 22
1786.826747187745
 32
0.0
 13
1116.299992483251
 23
1786.826747187745
 33
0.0
  0
MTEXT
  5
62C0
330
5E76
100
AcDbEntity
  8
AM_5
100
AcDbMText
 10
1103.434920161808
 20
1783.209733694343
 30
0.0
 40
5.0
 41
0.0
 71
     5
 72
     1
  1
18h9
 11
0.8660296736216333
 21
0.4999926043521117
 31
0.0
 73
     1
 44
1.0
1001
ACAD
1000
MTEXTBEGIN
1070
    73
1070
     1
1070
    44
1040
1.0
1070
    74
1070
     0
1000
MTEXTEND
  0
POINT
  5
62C1
330
5E76
100
AcDbEntity
  8
Defpoints
 62
     0
100
AcDbPoint
 10
1092.732747922135
 20
1791.645744658035
 30
0.0
  0
POINT
  5
62C2
330
5E76
100
AcDbEntity
  8
Defpoints
 62
     0
100
AcDbPoint
 10
1108.321689098495
 20
1800.645846542842
 30
0.0
  0
POINT
  5
62C3
330
5E76
100
AcDbEntity
  8
Defpoints
 62
     0
100
AcDbPoint
 10
1116.299992483251
 20
1786.826747187745
 30
0.0
  0
ENDBLK
  5
5E81
330
5E76
100
AcDbEntity
  8
0
100
AcDbBlockEnd
  0
BLOCK
  5
5E8B
330
5E82
100
AcDbEntity
  8
0
100
AcDbBlockBegin
  2
*D12
 70
     1
 10
0.0
 20
0.0
 30
0.0
  3
*D12
  1

  0
LINE
  5
64E6
330
5E82
100
AcDbEntity
  8
AM_5
100
AcDbLine
 10
1184.276747922134
 20
2094.628744658035
 30
0.0
 11
1158.327554181944
 21
2094.628744658035
 31
0.0
  0
LINE
  5
64E7
330
5E82
100
AcDbEntity
  8
AM_5
100
AcDbLine
 10
1178.801747922135
 20
2054.128744658036
 30
0.0
 11
1158.327554181944
 21
2054.128744658036
 31
0.0
  0
LINE
  5
64E8
330
5E82
100
AcDbEntity
  8
AM_5
100
AcDbLine
 10
1159.827554181944
 20
2090.128744658036
 30
0.0
 11
1159.827554181944
 21
2058.628744658035
 31
0.0
  0
SOLID
  5
64E9
330
5E82
100
AcDbEntity
  8
AM_5
100
AcDbTrace
 10
1159.077554181944
 20
2090.128744658036
 30
0.0
 11
1160.577554181944
 21
2090.128744658036
 31
0.0
 12
1159.827554181944
 22
2094.628744658035
 32
0.0
 13
1159.827554181944
 23
2094.628744658035
 33
0.0
  0
SOLID
  5
64EA
330
5E82
100
AcDbEntity
  8
AM_5
100
AcDbTrace
 10
1159.077554181944
 20
2058.628744658035
 30
0.0
 11
1160.577554181944
 21
2058.628744658035
 31
0.0
 12
1159.827554181944
 22
2054.128744658036
 32
0.0
 13
1159.827554181944
 23
2054.128744658036
 33
0.0
  0
MTEXT
  5
64EB
330
5E82
100
AcDbEntity
  8
AM_5
100
AcDbMText
 10
1156.527554181943
 20
2074.378744658036
 30
0.0
 40
5.0
 41
0.0
 71
     5
 72
     1
  1
40.5
 11
0.0000000000000001
 21
1.0
 31
0.0
 73
     1
 44
1.0
1001
ACAD
1000
MTEXTBEGIN
1070
    73
1070
     1
1070
    44
1040
1.0
1070
    74
1070
     0
1000
MTEXTEND
  0
POINT
  5
64EC
330
5E82
100
AcDbEntity
  8
Defpoints
 62
     0
100
AcDbPoint
 10
1185.276747922134
 20
2094.628744658035
 30
0.0
  0
POINT
  5
64ED
330
5E82
100
AcDbEntity
  8
Defpoints
 62
     0
100
AcDbPoint
 10
1179.801747922135
 20
2054.128744658036
 30
0.0
  0
POINT
  5
64EE
330
5E82
100
AcDbEntity
  8
Defpoints
 62
     0
100
AcDbPoint
 10
1159.827554181944
 20
2054.128744658036
 30
0.0
  0
ENDBLK
  5
5E8C
330
5E82
100
AcDbEntity
  8
0
100
AcDbBlockEnd
  0
BLOCK
  5
5E98
330
5E8D
100
AcDbEntity
  8
0
100
AcDbBlockBegin
  2
*D13
 70
     1
 10
0.0
 20
0.0
 30
0.0
  3
*D13
  1

  0
LINE
  5
63CB
330
5E8D
100
AcDbEntity
  8
AM_5
100
AcDbLine
 10
1189.276747922135
 20
2118.628744658035
 30
0.0
 11
1189.276747922135
 21
2146.253558444444
 31
0.0
  0
LINE
  5
63CC
330
5E8D
100
AcDbEntity
  8
AM_5
100
AcDbLine
 10
1185.276747922134
 20
2144.144752960231
 30
0.0
 11
1185.276747922134
 21
2143.253558444444
 31
0.0
  0
LINE
  5
63CD
330
5E8D
100
AcDbEntity
  8
AM_5
100
AcDbLine
 10
1193.776747922135
 20
2144.753558444444
 30
0.0
 11
1198.276747922135
 21
2144.753558444444
 31
0.0
  0
LINE
  5
63CE
330
5E8D
100
AcDbEntity
  8
AM_5
100
AcDbLine
 10
1180.776747922134
 20
2144.753558444444
 30
0.0
 11
1172.176747922135
 21
2144.753558444444
 31
0.0
  0
LINE
  5
63CF
330
5E8D
100
AcDbEntity
  8
AM_5
100
AcDbLine
 10
1189.276747922135
 20
2144.753558444444
 30
0.0
 11
1185.276747922134
 21
2144.753558444444
 31
0.0
  0
SOLID
  5
63D0
330
5E8D
100
AcDbEntity
  8
AM_5
100
AcDbTrace
 10
1193.776747922135
 20
2145.503558444444
 30
0.0
 11
1193.776747922135
 21
2144.003558444444
 31
0.0
 12
1189.276747922135
 22
2144.753558444444
 32
0.0
 13
1189.276747922135
 23
2144.753558444444
 33
0.0
  0
SOLID
  5
63D1
330
5E8D
100
AcDbEntity
  8
AM_5
100
AcDbTrace
 10
1180.776747922134
 20
2145.503558444444
 30
0.0
 11
1180.776747922134
 21
2144.003558444444
 31
0.0
 12
1185.276747922134
 22
2144.753558444444
 32
0.0
 13
1185.276747922134
 23
2144.753558444444
 33
0.0
  0
MTEXT
  5
63D2
330
5E8D
100
AcDbEntity
  8
AM_5
100
AcDbMText
 10
1174.226747922135
 20
2148.053558444444
 30
0.0
 40
5.0
 41
0.0
 71
     5
 72
     1
  1
4
 73
     1
 44
1.0
1001
ACAD
1000
MTEXTBEGIN
1070
    73
1070
     1
1070
    44
1040
1.0
1070
    74
1070
     0
1000
MTEXTEND
  0
POINT
  5
63D3
330
5E8D
100
AcDbEntity
  8
Defpoints
 62
     0
100
AcDbPoint
 10
1189.276747922135
 20
2117.628744658035
 30
0.0
  0
POINT
  5
63D4
330
5E8D
100
AcDbEntity
  8
Defpoints
 62
     0
100
AcDbPoint
 10
1185.276747922134
 20
2145.144752960231
 30
0.0
  0
POINT
  5
63D5
330
5E8D
100
AcDbEntity
  8
Defpoints
 62
     0
100
AcDbPoint
 10
1185.276747922134
 20
2144.753558444444
 30
0.0
  0
ENDBLK
  5
5E99
330
5E8D
100
AcDbEntity
  8
0
100
AcDbBlockEnd
  0
BLOCK
  5
5EA5
330
5E9A
100
AcDbEntity
  8
0
100
AcDbBlockBegin
  2
*D14
 70
     1
 10
0.0
 20
0.0
 30
0.0
  3
*D14
  1

  0
LINE
  5
63C0
330
5E9A
100
AcDbEntity
  8
AM_5
100
AcDbLine
 10
1191.276747922135
 20
2153.799754294756
 30
0.0
 11
1191.276747922135
 21
2156.253558444443
 31
0.0
  0
LINE
  5
63C1
330
5E9A
100
AcDbEntity
  8
AM_5
100
AcDbLine
 10
1185.276747922134
 20
2133.628744658035
 30
0.0
 11
1185.276747922134
 21
2156.253558444443
 31
0.0
  0
LINE
  5
63C2
330
5E9A
100
AcDbEntity
  8
AM_5
100
AcDbLine
 10
1195.776747922135
 20
2154.753558444443
 30
0.0
 11
1200.276747922135
 21
2154.753558444443
 31
0.0
  0
LINE
  5
63C3
330
5E9A
100
AcDbEntity
  8
AM_5
100
AcDbLine
 10
1180.776747922134
 20
2154.753558444443
 30
0.0
 11
1176.276747922134
 21
2154.753558444443
 31
0.0
  0
LINE
  5
63C4
330
5E9A
100
AcDbEntity
  8
AM_5
100
AcDbLine
 10
1191.276747922135
 20
2154.753558444443
 30
0.0
 11
1185.276747922134
 21
2154.753558444443
 31
0.0
  0
SOLID
  5
63C5
330
5E9A
100
AcDbEntity
  8
AM_5
100
AcDbTrace
 10
1195.776747922135
 20
2155.503558444443
 30
0.0
 11
1195.776747922135
 21
2154.003558444443
 31
0.0
 12
1191.276747922135
 22
2154.753558444443
 32
0.0
 13
1191.276747922135
 23
2154.753558444443
 33
0.0
  0
SOLID
  5
63C6
330
5E9A
100
AcDbEntity
  8
AM_5
100
AcDbTrace
 10
1180.776747922134
 20
2155.503558444443
 30
0.0
 11
1180.776747922134
 21
2154.003558444443
 31
0.0
 12
1185.276747922134
 22
2154.753558444443
 32
0.0
 13
1185.276747922134
 23
2154.753558444443
 33
0.0
  0
MTEXT
  5
63C7
330
5E9A
100
AcDbEntity
  8
AM_5
100
AcDbMText
 10
1188.276747922135
 20
2158.053558444444
 30
0.0
 40
5.0
 41
0.0
 71
     5
 72
     1
  1
6
 73
     1
 44
1.0
1001
ACAD
1000
MTEXTBEGIN
1070
    73
1070
     1
1070
    44
1040
1.0
1070
    74
1070
     0
1000
MTEXTEND
  0
POINT
  5
63C8
330
5E9A
100
AcDbEntity
  8
Defpoints
 62
     0
100
AcDbPoint
 10
1191.276747922135
 20
2152.799754294756
 30
0.0
  0
POINT
  5
63C9
330
5E9A
100
AcDbEntity
  8
Defpoints
 62
     0
100
AcDbPoint
 10
1185.276747922134
 20
2132.628744658036
 30
0.0
  0
POINT
  5
63CA
330
5E9A
100
AcDbEntity
  8
Defpoints
 62
     0
100
AcDbPoint
 10
1185.276747922134
 20
2154.753558444443
 30
0.0
  0
ENDBLK
  5
5EA6
330
5E9A
100
AcDbEntity
  8
0
100
AcDbBlockEnd
  0
BLOCK
  5
5EB1
330
5EA7
100
AcDbEntity
  8
0
100
AcDbBlockBegin
  2
*D15
 70
     1
 10
0.0
 20
0.0
 30
0.0
  3
*D15
  1

  0
LINE
  5
64DD
330
5EA7
100
AcDbEntity
  8
AM_5
100
AcDbLine
 10
1174.113251193052
 20
2094.628744658035
 30
0.0
 11
1158.327554181944
 21
2094.628744658035
 31
0.0
  0
LINE
  5
64DE
330
5EA7
100
AcDbEntity
  8
AM_5
100
AcDbLine
 10
1184.276747922134
 20
2132.628744658036
 30
0.0
 11
1158.327554181944
 21
2132.628744658036
 31
0.0
  0
LINE
  5
64DF
330
5EA7
100
AcDbEntity
  8
AM_5
100
AcDbLine
 10
1159.827554181944
 20
2099.128744658036
 30
0.0
 11
1159.827554181944
 21
2128.128744658035
 31
0.0
  0
SOLID
  5
64E0
330
5EA7
100
AcDbEntity
  8
AM_5
100
AcDbTrace
 10
1159.077554181944
 20
2099.128744658036
 30
0.0
 11
1160.577554181944
 21
2099.128744658036
 31
0.0
 12
1159.827554181944
 22
2094.628744658035
 32
0.0
 13
1159.827554181944
 23
2094.628744658035
 33
0.0
  0
SOLID
  5
64E1
330
5EA7
100
AcDbEntity
  8
AM_5
100
AcDbTrace
 10
1159.077554181944
 20
2128.128744658035
 30
0.0
 11
1160.577554181944
 21
2128.128744658035
 31
0.0
 12
1159.827554181944
 22
2132.628744658036
 32
0.0
 13
1159.827554181944
 23
2132.628744658036
 33
0.0
  0
MTEXT
  5
64E2
330
5EA7
100
AcDbEntity
  8
AM_5
100
AcDbMText
 10
1156.527554181943
 20
2113.628744658036
 30
0.0
 40
5.0
 41
0.0
 71
     5
 72
     1
  1
38
 11
0.0000000000000001
 21
1.0
 31
0.0
 73
     1
 44
1.0
1001
ACAD
1000
MTEXTBEGIN
1070
    73
1070
     1
1070
    44
1040
1.0
1070
    74
1070
     0
1000
MTEXTEND
  0
POINT
  5
64E3
330
5EA7
100
AcDbEntity
  8
Defpoints
 62
     0
100
AcDbPoint
 10
1175.113251193052
 20
2094.628744658035
 30
0.0
  0
POINT
  5
64E4
330
5EA7
100
AcDbEntity
  8
Defpoints
 62
     0
100
AcDbPoint
 10
1185.276747922134
 20
2132.628744658036
 30
0.0
  0
POINT
  5
64E5
330
5EA7
100
AcDbEntity
  8
Defpoints
 62
     0
100
AcDbPoint
 10
1159.827554181944
 20
2132.628744658036
 30
0.0
  0
ENDBLK
  5
5EB2
330
5EA7
100
AcDbEntity
  8
0
100
AcDbBlockEnd
  0
BLOCK
  5
5EBE
330
5EB3
100
AcDbEntity
  8
0
100
AcDbBlockBegin
  2
*D16
 70
     1
 10
0.0
 20
0.0
 30
0.0
  3
*D16
  1

  0
LINE
  5
6414
330
5EB3
100
AcDbEntity
  8
AM_5
100
AcDbLine
 10
1174.113251193052
 20
2109.628744658035
 30
0.0
 11
1170.776747922135
 21
2109.628744658035
 31
0.0
  0
LINE
  5
6415
330
5EB3
100
AcDbEntity
  8
AM_5
100
AcDbLine
 10
1184.276747922134
 20
2117.628744658035
 30
0.0
 11
1170.776747922135
 21
2117.628744658035
 31
0.0
  0
LINE
  5
6416
330
5EB3
100
AcDbEntity
  8
AM_5
100
AcDbLine
 10
1172.276747922135
 20
2105.128744658035
 30
0.0
 11
1172.276747922135
 21
2100.628744658036
 31
0.0
  0
LINE
  5
6417
330
5EB3
100
AcDbEntity
  8
AM_5
100
AcDbLine
 10
1172.276747922135
 20
2122.128744658036
 30
0.0
 11
1172.276747922135
 21
2126.628744658035
 31
0.0
  0
LINE
  5
6418
330
5EB3
100
AcDbEntity
  8
AM_5
100
AcDbLine
 10
1172.276747922135
 20
2109.628744658035
 30
0.0
 11
1172.276747922135
 21
2117.628744658035
 31
0.0
  0
SOLID
  5
6419
330
5EB3
100
AcDbEntity
  8
AM_5
100
AcDbTrace
 10
1171.526747922135
 20
2105.128744658035
 30
0.0
 11
1173.026747922135
 21
2105.128744658035
 31
0.0
 12
1172.276747922135
 22
2109.628744658035
 32
0.0
 13
1172.276747922135
 23
2109.628744658035
 33
0.0
  0
SOLID
  5
641A
330
5EB3
100
AcDbEntity
  8
AM_5
100
AcDbTrace
 10
1171.526747922135
 20
2122.128744658036
 30
0.0
 11
1173.026747922135
 21
2122.128744658036
 31
0.0
 12
1172.276747922135
 22
2117.628744658035
 32
0.0
 13
1172.276747922135
 23
2117.628744658035
 33
0.0
  0
MTEXT
  5
641B
330
5EB3
100
AcDbEntity
  8
AM_5
100
AcDbMText
 10
1168.976747922135
 20
2113.628744658036
 30
0.0
 40
5.0
 41
0.0
 71
     5
 72
     1
  1
8H9
 11
0.0000000000000001
 21
1.0
 31
0.0
 73
     1
 44
1.0
1001
ACAD
1000
MTEXTBEGIN
1070
    73
1070
     1
1070
    44
1040
1.0
1070
    74
1070
     0
1000
MTEXTEND
  0
POINT
  5
641C
330
5EB3
100
AcDbEntity
  8
Defpoints
 62
     0
100
AcDbPoint
 10
1175.113251193052
 20
2109.628744658035
 30
0.0
  0
POINT
  5
641D
330
5EB3
100
AcDbEntity
  8
Defpoints
 62
     0
100
AcDbPoint
 10
1185.276747922134
 20
2117.628744658035
 30
0.0
  0
POINT
  5
641E
330
5EB3
100
AcDbEntity
  8
Defpoints
 62
     0
100
AcDbPoint
 10
1172.276747922135
 20
2117.628744658035
 30
0.0
  0
ENDBLK
  5
5EBF
330
5EB3
100
AcDbEntity
  8
0
100
AcDbBlockEnd
  0
BLOCK
  5
5ECA
330
5EC0
100
AcDbEntity
  8
0
100
AcDbBlockBegin
  2
*D17
 70
     1
 10
0.0
 20
0.0
 30
0.0
  3
*D17
  1

  0
LINE
  5
644E
330
5EC0
100
AcDbEntity
  8
AM_5
100
AcDbLine
 10
1184.276747922134
 20
2109.628744658035
 30
0.0
 11
1170.776747922135
 21
2109.628744658035
 31
0.0
  0
LINE
  5
644F
330
5EC0
100
AcDbEntity
  8
AM_5
100
AcDbLine
 10
1184.276747922134
 20
2094.628744658035
 30
0.0
 11
1170.776747922135
 21
2094.628744658035
 31
0.0
  0
LINE
  5
6450
330
5EC0
100
AcDbEntity
  8
AM_5
100
AcDbLine
 10
1172.276747922135
 20
2105.128744658035
 30
0.0
 11
1172.276747922135
 21
2099.128744658036
 31
0.0
  0
SOLID
  5
6451
330
5EC0
100
AcDbEntity
  8
AM_5
100
AcDbTrace
 10
1171.526747922135
 20
2105.128744658035
 30
0.0
 11
1173.026747922135
 21
2105.128744658035
 31
0.0
 12
1172.276747922135
 22
2109.628744658035
 32
0.0
 13
1172.276747922135
 23
2109.628744658035
 33
0.0
  0
SOLID
  5
6452
330
5EC0
100
AcDbEntity
  8
AM_5
100
AcDbTrace
 10
1171.526747922135
 20
2099.128744658036
 30
0.0
 11
1173.026747922135
 21
2099.128744658036
 31
0.0
 12
1172.276747922135
 22
2094.628744658035
 32
0.0
 13
1172.276747922135
 23
2094.628744658035
 33
0.0
  0
MTEXT
  5
6453
330
5EC0
100
AcDbEntity
  8
AM_5
100
AcDbMText
 10
1168.976747922135
 20
2102.128744658036
 30
0.0
 40
5.0
 41
0.0
 71
     5
 72
     1
  1
15
 11
0.0000000000000001
 21
1.0
 31
0.0
 73
     1
 44
1.0
1001
ACAD
1000
MTEXTBEGIN
1070
    73
1070
     1
1070
    44
1040
1.0
1070
    74
1070
     0
1000
MTEXTEND
  0
POINT
  5
6454
330
5EC0
100
AcDbEntity
  8
Defpoints
 62
     0
100
AcDbPoint
 10
1185.276747922134
 20
2109.628744658035
 30
0.0
  0
POINT
  5
6455
330
5EC0
100
AcDbEntity
  8
Defpoints
 62
     0
100
AcDbPoint
 10
1185.276747922134
 20
2094.628744658035
 30
0.0
  0
POINT
  5
6456
330
5EC0
100
AcDbEntity
  8
Defpoints
 62
     0
100
AcDbPoint
 10
1172.276747922135
 20
2094.628744658035
 30
0.0
  0
ENDBLK
  5
5ECB
330
5EC0
100
AcDbEntity
  8
0
100
AcDbBlockEnd
  0
BLOCK
  5
5ED6
330
5ECC
100
AcDbEntity
  8
0
100
AcDbBlockBegin
  2
*D18
 70
     1
 10
0.0
 20
0.0
 30
0.0
  3
*D18
  1

  0
LINE
  5
64EF
330
5ECC
100
AcDbEntity
  8
AM_5
100
AcDbLine
 10
1426.293726878379
 20
1810.720935899562
 30
0.0
 11
1341.490449684869
 21
1821.885922210911
 31
0.0
  0
LINE
  5
64F0
330
5ECC
100
AcDbEntity
  8
AM_5
100
AcDbLine
 10
1424.988402982868
 20
1800.806392249312
 30
0.0
 11
1340.185125789358
 21
1811.971378560661
 31
0.0
  0
LINE
  5
64F1
330
5ECC
100
AcDbEntity
  8
AM_5
100
AcDbLine
 10
1343.565005760038
 20
1826.151624625635
 30
0.0
 11
1344.152395503274
 21
1830.613123621436
 31
0.0
  0
LINE
  5
64F2
330
5ECC
100
AcDbEntity
  8
AM_5
100
AcDbLine
 10
1341.084902378056
 20
1807.314082983781
 30
0.0
 11
1340.497512634821
 21
1802.852583987979
 31
0.0
  0
LINE
  5
64F3
330
5ECC
100
AcDbEntity
  8
AM_5
100
AcDbLine
 10
1342.977616016803
 20
1821.690125629833
 30
0.0
 11
1341.672292121292
 21
1811.775581979583
 31
0.0
  0
SOLID
  5
64F4
330
5ECC
100
AcDbEntity
  8
AM_5
100
AcDbTrace
 10
1342.821422594071
 20
1826.249522916174
 30
0.0
 11
1344.308588926005
 21
1826.053726335096
 31
0.0
 12
1342.977616016803
 22
1821.690125629833
 32
0.0
 13
1342.977616016803
 23
1821.690125629833
 33
0.0
  0
SOLID
  5
64F5
330
5ECC
100
AcDbEntity
  8
AM_5
100
AcDbTrace
 10
1340.34131921209
 20
1807.41198127432
 30
0.0
 11
1341.828485544023
 21
1807.216184693242
 31
0.0
 12
1341.672292121292
 22
1811.775581979583
 32
0.0
 13
1341.672292121292
 23
1811.775581979583
 33
0.0
  0
MTEXT
  5
64F6
330
5ECC
100
AcDbEntity
  8
AM_5
100
AcDbMText
 10
1339.053188138793
 20
1817.16360628308
 30
0.0
 40
5.0
 41
0.0
 71
     5
 72
     1
  1
10
 11
0.1305310540523344
 21
0.9914442212893204
 31
0.0
 73
     1
 44
1.0
1001
ACAD
1000
MTEXTBEGIN
1070
    73
1070
     1
1070
    44
1040
1.0
1070
    74
1070
     0
1000
MTEXTEND
  0
POINT
  5
64F7
330
5ECC
100
AcDbEntity
  8
Defpoints
 62
     0
100
AcDbPoint
 10
1427.285171099668
 20
1810.59040484551
 30
0.0
  0
POINT
  5
64F8
330
5ECC
100
AcDbEntity
  8
Defpoints
 62
     0
100
AcDbPoint
 10
1425.979847204157
 20
1800.67586119526
 30
0.0
  0
POINT
  5
64F9
330
5ECC
100
AcDbEntity
  8
Defpoints
 62
     0
100
AcDbPoint
 10
1341.672292121292
 20
1811.775581979583
 30
0.0
  0
ENDBLK
  5
5ED7
330
5ECC
100
AcDbEntity
  8
0
100
AcDbBlockEnd
  0
BLOCK
  5
5EE2
330
5ED8
100
AcDbEntity
  8
0
100
AcDbBlockBegin
  2
*D19
 70
     1
 10
0.0
 20
0.0
 30
0.0
  3
*D19
  1

  0
LINE
  5
64FA
330
5ED8
100
AcDbEntity
  8
AM_5
100
AcDbLine
 10
1433.342241708534
 20
1864.257692710144
 30
0.0
 11
1348.538964515025
 21
1875.422679021494
 31
0.0
  0
LINE
  5
64FB
330
5ED8
100
AcDbEntity
  8
AM_5
100
AcDbLine
 10
1426.293726878379
 20
1810.720935899563
 30
0.0
 11
1341.49044968487
 21
1821.885922210912
 31
0.0
  0
LINE
  5
64FC
330
5ED8
100
AcDbEntity
  8
AM_5
100
AcDbLine
 10
1349.438741103723
 20
1870.765383444613
 30
0.0
 11
1343.565005760039
 21
1826.151624625635
 31
0.0
  0
SOLID
  5
64FD
330
5ED8
100
AcDbEntity
  8
AM_5
100
AcDbTrace
 10
1348.695157937756
 20
1870.863281735153
 30
0.0
 11
1350.18232426969
 21
1870.667485154074
 31
0.0
 12
1350.026130846958
 22
1875.226882440415
 32
0.0
 13
1350.026130846958
 23
1875.226882440415
 33
0.0
  0
SOLID
  5
64FE
330
5ED8
100
AcDbEntity
  8
AM_5
100
AcDbTrace
 10
1342.821422594072
 20
1826.249522916175
 30
0.0
 11
1344.308588926006
 21
1826.053726335096
 31
0.0
 12
1342.977616016803
 22
1821.690125629834
 32
0.0
 13
1342.977616016803
 23
1821.690125629834
 33
0.0
  0
MTEXT
  5
64FF
330
5ED8
100
AcDbEntity
  8
AM_5
100
AcDbMText
 10
1343.230107501627
 20
1848.889256513497
 30
0.0
 40
5.0
 41
0.0
 71
     5
 72
     1
  1
54
 11
0.1305310540523441
 21
0.991444221289319
 31
0.0
 73
     1
 44
1.0
1001
ACAD
1000
MTEXTBEGIN
1070
    73
1070
     1
1070
    44
1040
1.0
1070
    74
1070
     0
1000
MTEXTEND
  0
POINT
  5
6500
330
5ED8
100
AcDbEntity
  8
Defpoints
 62
     0
100
AcDbPoint
 10
1434.333685929823
 20
1864.127161656092
 30
0.0
  0
POINT
  5
6501
330
5ED8
100
AcDbEntity
  8
Defpoints
 62
     0
100
AcDbPoint
 10
1427.285171099668
 20
1810.59040484551
 30
0.0
  0
POINT
  5
6502
330
5ED8
100
AcDbEntity
  8
Defpoints
 62
     0
100
AcDbPoint
 10
1342.977616016803
 20
1821.690125629834
 30
0.0
  0
ENDBLK
  5
5EE3
330
5ED8
100
AcDbEntity
  8
0
100
AcDbBlockEnd
  0
BLOCK
  5
5EED
330
5EE4
100
AcDbEntity
  8
0
100
AcDbBlockBegin
  2
*D20
 70
     1
 10
0.0
 20
0.0
 30
0.0
  3
*D20
  1

  0
LINE
  5
64C7
330
5EE4
100
AcDbEntity
  8
AM_5
100
AcDbLine
 10
1218.276747922135
 20
1769.565939669624
 30
0.0
 11
1218.276747922135
 21
1767.782198889158
 31
0.0
  0
LINE
  5
64C8
330
5EE4
100
AcDbEntity
  8
AM_5
100
AcDbLine
 10
1281.276747922135
 20
1796.128744658035
 30
0.0
 11
1281.276747922135
 21
1767.782198889158
 31
0.0
  0
LINE
  5
64C9
330
5EE4
100
AcDbEntity
  8
AM_5
100
AcDbLine
 10
1222.776747922134
 20
1769.282198889158
 30
0.0
 11
1276.776747922135
 21
1769.282198889158
 31
0.0
  0
SOLID
  5
64CA
330
5EE4
100
AcDbEntity
  8
AM_5
100
AcDbTrace
 10
1222.776747922134
 20
1770.032198889158
 30
0.0
 11
1222.776747922134
 21
1768.532198889158
 31
0.0
 12
1218.276747922135
 22
1769.282198889158
 32
0.0
 13
1218.276747922135
 23
1769.282198889158
 33
0.0
  0
SOLID
  5
64CB
330
5EE4
100
AcDbEntity
  8
AM_5
100
AcDbTrace
 10
1276.776747922135
 20
1770.032198889158
 30
0.0
 11
1276.776747922135
 21
1768.532198889158
 31
0.0
 12
1281.276747922135
 22
1769.282198889158
 32
0.0
 13
1281.276747922135
 23
1769.282198889158
 33
0.0
  0
MTEXT
  5
64CC
330
5EE4
100
AcDbEntity
  8
AM_5
100
AcDbMText
 10
1249.776747922135
 20
1772.582198889158
 30
0.0
 40
5.0
 41
0.0
 71
     5
 72
     1
  1
63
 73
     1
 44
1.0
1001
ACAD
1000
MTEXTBEGIN
1070
    73
1070
     1
1070
    44
1040
1.0
1070
    74
1070
     0
1000
MTEXTEND
  0
POINT
  5
64CD
330
5EE4
100
AcDbEntity
  8
Defpoints
 62
     0
100
AcDbPoint
 10
1218.276747922135
 20
1770.565939669624
 30
0.0
  0
POINT
  5
64CE
330
5EE4
100
AcDbEntity
  8
Defpoints
 62
     0
100
AcDbPoint
 10
1281.276747922135
 20
1797.128744658035
 30
0.0
  0
POINT
  5
64CF
330
5EE4
100
AcDbEntity
  8
Defpoints
 62
     0
100
AcDbPoint
 10
1281.276747922135
 20
1769.282198889158
 30
0.0
  0
ENDBLK
  5
5EEE
330
5EE4
100
AcDbEntity
  8
0
100
AcDbBlockEnd
  0
BLOCK
  5
5EF9
330
5EEF
100
AcDbEntity
  8
0
100
AcDbBlockBegin
  2
*D21
 70
     1
 10
0.0
 20
0.0
 30
0.0
  3
*D21
  1

  0
LINE
  5
62E1
330
5EEF
100
AcDbEntity
  8
AM_5
100
AcDbLine
 10
1282.276747922135
 20
2121.128744658035
 30
0.0
 11
1300.806785251566
 21
2121.128744658035
 31
0.0
  0
LINE
  5
62E2
330
5EEF
100
AcDbEntity
  8
AM_5
100
AcDbLine
 10
1282.276747922135
 20
1987.128744658035
 30
0.0
 11
1300.806785251566
 21
1987.128744658035
 31
0.0
  0
LINE
  5
62E3
330
5EEF
100
AcDbEntity
  8
AM_5
100
AcDbLine
 10
1299.306785251566
 20
2116.628744658036
 30
0.0
 11
1299.306785251566
 21
1991.628744658035
 31
0.0
  0
SOLID
  5
62E4
330
5EEF
100
AcDbEntity
  8
AM_5
100
AcDbTrace
 10
1298.556785251566
 20
2116.628744658036
 30
0.0
 11
1300.056785251566
 21
2116.628744658036
 31
0.0
 12
1299.306785251566
 22
2121.128744658035
 32
0.0
 13
1299.306785251566
 23
2121.128744658035
 33
0.0
  0
SOLID
  5
62E5
330
5EEF
100
AcDbEntity
  8
AM_5
100
AcDbTrace
 10
1298.556785251566
 20
1991.628744658035
 30
0.0
 11
1300.056785251566
 21
1991.628744658035
 31
0.0
 12
1299.306785251566
 22
1987.128744658035
 32
0.0
 13
1299.306785251566
 23
1987.128744658035
 33
0.0
  0
MTEXT
  5
62E6
330
5EEF
100
AcDbEntity
  8
AM_5
100
AcDbMText
 10
1296.006785251566
 20
2054.128744658036
 30
0.0
 40
5.0
 41
0.0
 71
     5
 72
     1
  1
%%C134
 11
0.0000000000000001
 21
1.0
 31
0.0
 73
     1
 44
1.0
1001
ACAD
1000
MTEXTBEGIN
1070
    73
1070
     1
1070
    44
1040
1.0
1070
    74
1070
     0
1000
MTEXTEND
  0
POINT
  5
62E7
330
5EEF
100
AcDbEntity
  8
Defpoints
 62
     0
100
AcDbPoint
 10
1281.276747922135
 20
2121.128744658035
 30
0.0
  0
POINT
  5
62E8
330
5EEF
100
AcDbEntity
  8
Defpoints
 62
     0
100
AcDbPoint
 10
1281.276747922135
 20
1987.128744658035
 30
0.0
  0
POINT
  5
62E9
330
5EEF
100
AcDbEntity
  8
Defpoints
 62
     0
100
AcDbPoint
 10
1299.306785251566
 20
1987.128744658035
 30
0.0
  0
ENDBLK
  5
5EFA
330
5EEF
100
AcDbEntity
  8
0
100
AcDbBlockEnd
  0
BLOCK
  5
5F05
330
5EFB
100
AcDbEntity
  8
0
100
AcDbBlockBegin
  2
*D22
 70
     1
 10
0.0
 20
0.0
 30
0.0
  3
*D22
  1

  0
LINE
  5
6503
330
5EFB
100
AcDbEntity
  8
AM_5
100
AcDbLine
 10
1441.04271477682
 20
1922.75425842251
 30
0.0
 11
1356.239242879866
 21
1933.91776586982
 31
0.0
  0
LINE
  5
6504
330
5EFB
100
AcDbEntity
  8
AM_5
100
AcDbLine
 10
1433.342631530856
 20
1864.260653591287
 30
0.0
 11
1348.539159633901
 21
1875.424161038597
 31
0.0
  0
LINE
  5
6505
330
5EFB
100
AcDbEntity
  8
AM_5
100
AcDbLine
 10
1357.139100685889
 20
1929.260485984636
 30
0.0
 11
1350.613641320193
 21
1879.689899630358
 31
0.0
  0
SOLID
  5
6506
330
5EFB
100
AcDbEntity
  8
AM_5
100
AcDbTrace
 10
1356.39551581281
 20
1929.358371307991
 30
0.0
 11
1357.882685558968
 21
1929.16260066128
 31
0.0
 12
1357.726412626023
 22
1933.721995223108
 32
0.0
 13
1357.726412626023
 23
1933.721995223108
 33
0.0
  0
SOLID
  5
6507
330
5EFB
100
AcDbEntity
  8
AM_5
100
AcDbTrace
 10
1349.870056447114
 20
1879.787784953714
 30
0.0
 11
1351.357226193272
 21
1879.592014307002
 31
0.0
 12
1350.026329380059
 22
1875.228390391885
 32
0.0
 13
1350.026329380059
 23
1875.228390391885
 33
0.0
  0
MTEXT
  5
6508
330
5EFB
100
AcDbEntity
  8
AM_5
100
AcDbMText
 10
1350.604597561495
 20
1904.905888230262
 30
0.0
 40
5.0
 41
0.0
 71
     5
 72
     1
  1
59
 11
0.1305137644743009
 21
0.9914464974383372
 31
0.0
 73
     1
 44
1.0
1001
ACAD
1000
MTEXTBEGIN
1070
    73
1070
     1
1070
    44
1040
1.0
1070
    74
1070
     0
1000
MTEXTEND
  0
POINT
  5
6509
330
5EFB
100
AcDbEntity
  8
Defpoints
 62
     0
100
AcDbPoint
 10
1442.034161274259
 20
1922.623744658036
 30
0.0
  0
POINT
  5
650A
330
5EFB
100
AcDbEntity
  8
Defpoints
 62
     0
100
AcDbPoint
 10
1434.334078028294
 20
1864.130139826813
 30
0.0
  0
POINT
  5
650B
330
5EFB
100
AcDbEntity
  8
Defpoints
 62
     0
100
AcDbPoint
 10
1350.026329380059
 20
1875.228390391885
 30
0.0
  0
ENDBLK
  5
5F06
330
5EFB
100
AcDbEntity
  8
0
100
AcDbBlockEnd
  0
BLOCK
  5
5F10
330
5F07
100
AcDbEntity
  8
0
100
AcDbBlockBegin
  2
*D23
 70
     1
 10
0.0
 20
0.0
 30
0.0
  3
*D23
  1

  0
LINE
  5
63B7
330
5F07
100
AcDbEntity
  8
AM_5
100
AcDbLine
 10
1263.276747922135
 20
2136.575602104092
 30
0.0
 11
1263.276747922135
 21
2146.253558444444
 31
0.0
  0
LINE
  5
63B8
330
5F07
100
AcDbEntity
  8
AM_5
100
AcDbLine
 10
1232.676747922135
 20
2075.417744658035
 30
0.0
 11
1232.676747922135
 21
2146.253558444444
 31
0.0
  0
LINE
  5
63B9
330
5F07
100
AcDbEntity
  8
AM_5
100
AcDbLine
 10
1258.776747922135
 20
2144.753558444444
 30
0.0
 11
1237.176747922135
 21
2144.753558444444
 31
0.0
  0
SOLID
  5
63BA
330
5F07
100
AcDbEntity
  8
AM_5
100
AcDbTrace
 10
1258.776747922135
 20
2145.503558444444
 30
0.0
 11
1258.776747922135
 21
2144.003558444444
 31
0.0
 12
1263.276747922135
 22
2144.753558444444
 32
0.0
 13
1263.276747922135
 23
2144.753558444444
 33
0.0
  0
SOLID
  5
63BB
330
5F07
100
AcDbEntity
  8
AM_5
100
AcDbTrace
 10
1237.176747922135
 20
2145.503558444444
 30
0.0
 11
1237.176747922135
 21
2144.003558444444
 31
0.0
 12
1232.676747922135
 22
2144.753558444444
 32
0.0
 13
1232.676747922135
 23
2144.753558444444
 33
0.0
  0
MTEXT
  5
63BC
330
5F07
100
AcDbEntity
  8
AM_5
100
AcDbMText
 10
1247.976747922135
 20
2148.053558444444
 30
0.0
 40
5.0
 41
0.0
 71
     5
 72
     1
  1
30.6
 73
     1
 44
1.0
1001
ACAD
1000
MTEXTBEGIN
1070
    73
1070
     1
1070
    44
1040
1.0
1070
    74
1070
     0
1000
MTEXTEND
  0
POINT
  5
63BD
330
5F07
100
AcDbEntity
  8
Defpoints
 62
     0
100
AcDbPoint
 10
1263.276747922135
 20
2135.575602104092
 30
0.0
  0
POINT
  5
63BE
330
5F07
100
AcDbEntity
  8
Defpoints
 62
     0
100
AcDbPoint
 10
1232.676747922135
 20
2074.417744658035
 30
0.0
  0
POINT
  5
63BF
330
5F07
100
AcDbEntity
  8
Defpoints
 62
     0
100
AcDbPoint
 10
1232.676747922135
 20
2144.753558444444
 30
0.0
  0
ENDBLK
  5
5F11
330
5F07
100
AcDbEntity
  8
0
100
AcDbBlockEnd
  0
BLOCK
  5
5F1C
330
5F12
100
AcDbEntity
  8
0
100
AcDbBlockBegin
  2
*D24
 70
     1
 10
0.0
 20
0.0
 30
0.0
  3
*D24
  1

  0
LINE
  5
63AE
330
5F12
100
AcDbEntity
  8
AM_5
100
AcDbLine
 10
1281.276747922135
 20
2122.128744658036
 30
0.0
 11
1281.276747922135
 21
2146.253558444444
 31
0.0
  0
LINE
  5
63AF
330
5F12
100
AcDbEntity
  8
AM_5
100
AcDbLine
 10
1263.276747922135
 20
2112.024744658035
 30
0.0
 11
1263.276747922135
 21
2146.253558444444
 31
0.0
  0
LINE
  5
63B0
330
5F12
100
AcDbEntity
  8
AM_5
100
AcDbLine
 10
1276.776747922135
 20
2144.753558444444
 30
0.0
 11
1267.776747922135
 21
2144.753558444444
 31
0.0
  0
SOLID
  5
63B1
330
5F12
100
AcDbEntity
  8
AM_5
100
AcDbTrace
 10
1276.776747922135
 20
2145.503558444444
 30
0.0
 11
1276.776747922135
 21
2144.003558444444
 31
0.0
 12
1281.276747922135
 22
2144.753558444444
 32
0.0
 13
1281.276747922135
 23
2144.753558444444
 33
0.0
  0
SOLID
  5
63B2
330
5F12
100
AcDbEntity
  8
AM_5
100
AcDbTrace
 10
1267.776747922135
 20
2145.503558444444
 30
0.0
 11
1267.776747922135
 21
2144.003558444444
 31
0.0
 12
1263.276747922135
 22
2144.753558444444
 32
0.0
 13
1263.276747922135
 23
2144.753558444444
 33
0.0
  0
MTEXT
  5
63B3
330
5F12
100
AcDbEntity
  8
AM_5
100
AcDbMText
 10
1272.276747922135
 20
2148.053558444444
 30
0.0
 40
5.0
 41
0.0
 71
     5
 72
     1
  1
18
 73
     1
 44
1.0
1001
ACAD
1000
MTEXTBEGIN
1070
    73
1070
     1
1070
    44
1040
1.0
1070
    74
1070
     0
1000
MTEXTEND
  0
POINT
  5
63B4
330
5F12
100
AcDbEntity
  8
Defpoints
 62
     0
100
AcDbPoint
 10
1281.276747922135
 20
2121.128744658035
 30
0.0
  0
POINT
  5
63B5
330
5F12
100
AcDbEntity
  8
Defpoints
 62
     0
100
AcDbPoint
 10
1263.276747922135
 20
2111.024744658035
 30
0.0
  0
POINT
  5
63B6
330
5F12
100
AcDbEntity
  8
Defpoints
 62
     0
100
AcDbPoint
 10
1263.276747922135
 20
2144.753558444444
 30
0.0
  0
ENDBLK
  5
5F1D
330
5F12
100
AcDbEntity
  8
0
100
AcDbBlockEnd
  0
ENDSEC
  0
SECTION
  2
ENTITIES
  0
TEXT
  5
AE3
330
1F
100
AcDbEntity
  8
M_1
 62
     4
100
AcDbText
 10
298.4979942115772
 20
71.23545134413652
 30
0.0
 40
5.0
  1

 41
0.75
  7
DAYUS
 11
298.4979942115772
 21
71.23545134413652
 31
0.0
100
AcDbText
 73
     1
  0
LINE
  5
2824
330
1F
100
AcDbEntity
  8
LOGO
 62
     1
100
AcDbLine
 10
1611.623002962087
 20
1734.910882399282
 30
0.0
 11
885.8393509620878
 21
1734.910882399282
 31
0.0
  0
LWPOLYLINE
  5
2838
330
1F
100
AcDbEntity
  8
0
 62
     4
100
AcDbPolyline
 90
        4
 70
     1
 43
0.0
 10
885.8393509620876
 20
1734.910882399282
 10
1611.623002962087
 20
1734.910882399282
 10
1611.623002962087
 20
2209.976915769866
 10
885.8393509620876
 20
2209.976915769866
1001
GENIUS_GENREC_14
1002
{
1000
PYDIR
1011
885.8393509620876
1021
2209.976915769866
1031
0.0
1002
}
1002
{
1000
PXDIR
1011
1611.623002962087
1021
1734.910882399282
1031
0.0
1002
}
1002
{
1000
PORI
1011
885.8393509620876
1021
1734.910882399282
1031
0.0
1002
}
1002
{
1000
PINS
1011
885.8393509620876
1021
1734.910882399282
1031
0.0
1002
}
1002
{
1000
PINS2
1011
1611.623002962087
1021
2209.976915769866
1031
0.0
1002
}
1002
{
1000
C
1070
     1
1002
}
1001
GENIUS_GENODEF_13
1002
{
1000
HIER
1070
     0
1002
}
1002
{
1000
MANEDIT
1070
     0
1002
}
1002
{
1000
NOSEL
1070
     0
1002
}
1002
{
1000
BEHIND
1070
     0
1002
}
1002
{
1000
OTHER
1070
     0
1002
}
1002
{
1000
REACTOR
1002
}
1001
GENIUS_GENOBJ-N-REC_13
1002
{
1000
OWNER
1000
GEN
1002
}
  0
LWPOLYLINE
  5
2872
330
1F
100
AcDbEntity
  8
LOGO
 62
     4
100
AcDbPolyline
 90
        4
 70
     1
 43
0.0
 10
885.8393509620876
 20
1734.910882399282
 10
1611.623002962087
 20
1734.910882399282
 10
1611.623002962087
 20
1682.134259769866
 10
885.8393509620876
 20
1682.134259769866
1001
GENIUS_GENREC_14
1002
{
1000
PYDIR
1011
885.8393509620876
1021
1682.134259769866
1031
0.0
1002
}
1002
{
1000
PXDIR
1011
1611.623002962087
1021
1734.910882399282
1031
0.0
1002
}
1002
{
1000
PORI
1011
885.8393509620876
1021
1734.910882399282
1031
0.0
1002
}
1002
{
1000
PINS
1011
885.8393509620876
1021
1734.910882399282
1031
0.0
1002
}
1002
{
1000
PINS2
1011
1611.623002962087
1021
1682.134259769866
1031
0.0
1002
}
1002
{
1000
C
1070
     1
1002
}
1001
GENIUS_GENOBJ-N-REC_13
1002
{
1000
OWNER
1000
GEN
1002
}
1001
GENIUS_GENODEF_13
1002
{
1000
HIER
1070
     0
1002
}
1002
{
1000
MANEDIT
1070
     0
1002
}
1002
{
1000
NOSEL
1070
     0
1002
}
1002
{
1000
BEHIND
1070
     0
1002
}
1002
{
1000
OTHER
1070
     0
1002
}
1002
{
1000
REACTOR
1002
}
  0
LINE
  5
2873
330
1F
100
AcDbEntity
  8
LOGO
 62
     4
100
AcDbLine
 10
1109.724237914417
 20
1705.883739953104
 30
0.0
 11
1109.724237914417
 21
1686.532311655651
 31
0.0
  0
LINE
  5
2874
330
1F
100
AcDbEntity
  8
LOGO
 62
     4
100
AcDbLine
 10
1074.53982282814
 20
1705.883739953104
 30
0.0
 11
1074.53982282814
 21
1686.532311655651
 31
0.0
  0
LINE
  5
2875
330
1F
100
AcDbEntity
  8
LOGO
 62
     4
100
AcDbLine
 10
1109.724237914417
 20
1686.532311655651
 30
0.0
 11
1074.53982282814
 21
1686.532311655651
 31
0.0
  0
LINE
  5
2876
330
1F
100
AcDbEntity
  8
LOGO
 62
     4
100
AcDbLine
 10
1126.105543943008
 20
1729.633220136341
 30
0.0
 11
1074.53982282814
 21
1729.633220136341
 31
0.0
  0
LINE
  5
2877
330
1F
100
AcDbEntity
  8
LOGO
 62
     4
100
AcDbLine
 10
1126.105543943008
 20
1713.800233347516
 30
0.0
 11
1074.53982282814
 21
1713.800233347516
 31
0.0
  0
LINE
  5
2878
330
1F
100
AcDbEntity
  8
LOGO
 62
     4
100
AcDbLine
 10
1074.53982282814
 20
1729.633220136341
 30
0.0
 11
1074.53982282814
 21
1713.800233347516
 31
0.0
  0
LINE
  5
2879
330
1F
100
AcDbEntity
  8
LOGO
 62
     4
100
AcDbLine
 10
1126.105543943008
 20
1729.633220136341
 30
0.0
 11
1126.105543943008
 21
1713.800233347516
 31
0.0
  0
LINE
  5
287A
330
1F
100
AcDbEntity
  8
LOGO
 62
     4
100
AcDbLine
 10
1093.967773115415
 20
1713.800233347516
 30
0.0
 11
1093.967773115415
 21
1705.883739953104
 31
0.0
  0
TEXT
  5
287B
330
1F
100
AcDbEntity
  8
LOGO
  6
Continuous
100
AcDbText
 10
1077.353096613707
 20
1717.105346191859
 30
0.0
 40
9.237246480000001
  1
MCHG2
  7
CHINESET
100
AcDbText
  0
LINE
  5
287C
330
1F
100
AcDbEntity
  8
LOGO
 62
     4
100
AcDbLine
 10
1109.724237914417
 20
1705.883739953104
 30
0.0
 11
1074.53982282814
 21
1705.883739953104
 31
0.0
  0
TEXT
  5
287D
330
1F
100
AcDbEntity
  8
LOGO
  6
Continuous
100
AcDbText
 10
1085.830390237163
 20
1689.263724724179
 30
345.8892902725216
 40
3.95881992
  1
Model
 41
0.8
  7
CHINESET
100
AcDbText
  0
TEXT
  5
287E
330
1F
100
AcDbEntity
  8
LOGO
100
AcDbText
 10
1084.77668106778
 20
1696.602523669273
 30
345.8892902725216
 40
6.598033200000001
  1
型號
  7
CHINESET
100
AcDbText
  0
LINE
  5
288A
330
1F
100
AcDbEntity
  8
LOGO
  6
Continuous
100
AcDbLine
 10
1128.348897456719
 20
1721.660643800519
 30
0.0
 11
1135.340166702646
 21
1721.660643800519
 31
0.0
  0
LINE
  5
288B
330
1F
100
AcDbEntity
  8
LOGO
 62
     4
100
AcDbLine
 10
1149.513155690517
 20
1705.883739953104
 30
0.0
 11
1149.513155690517
 21
1686.532311655651
 31
0.0
  0
LINE
  5
288C
330
1F
100
AcDbEntity
  8
LOGO
 62
     4
100
AcDbLine
 10
1114.32874060424
 20
1705.883739953104
 30
0.0
 11
1114.32874060424
 21
1686.532311655651
 31
0.0
  0
LINE
  5
288D
330
1F
100
AcDbEntity
  8
LOGO
 62
     4
100
AcDbLine
 10
1149.513155690517
 20
1686.532311655651
 30
0.0
 11
1114.32874060424
 21
1686.532311655651
 31
0.0
  0
LINE
  5
288E
330
1F
100
AcDbEntity
  8
LOGO
 62
     4
100
AcDbLine
 10
1164.600104655341
 20
1729.633220136341
 30
0.0
 11
1137.545543617941
 21
1729.633220136341
 31
0.0
  0
LINE
  5
288F
330
1F
100
AcDbEntity
  8
LOGO
 62
     4
100
AcDbLine
 10
1164.600104655341
 20
1713.800233347516
 30
0.0
 11
1137.545543617941
 21
1713.800233347516
 31
0.0
  0
LINE
  5
2890
330
1F
100
AcDbEntity
  8
LOGO
 62
     4
100
AcDbLine
 10
1137.545543617941
 20
1729.633220136341
 30
0.0
 11
1137.545543617941
 21
1713.800233347516
 31
0.0
  0
LINE
  5
2891
330
1F
100
AcDbEntity
  8
LOGO
 62
     4
100
AcDbLine
 10
1164.600104655341
 20
1729.633220136341
 30
0.0
 11
1164.600104655341
 21
1713.800233347516
 31
0.0
  0
LINE
  5
2892
330
1F
100
AcDbEntity
  8
LOGO
 62
     4
100
AcDbLine
 10
1149.710320436024
 20
1713.800233347516
 30
0.0
 11
1149.710320436024
 21
1709.84198665031
 31
0.0
  0
TEXT
  5
2893
330
1F
100
AcDbEntity
  8
LOGO
  6
Continuous
100
AcDbText
 10
1139.894542575235
 20
1717.105346191859
 30
0.0
 40
9.237246480000001
  1
100
  7
CHINESET
100
AcDbText
  0
LINE
  5
2894
330
1F
100
AcDbEntity
  8
LOGO
 62
     4
100
AcDbLine
 10
1149.513155690517
 20
1705.883739953104
 30
0.0
 11
1114.32874060424
 21
1705.883739953104
 31
0.0
  0
LINE
  5
2895
330
1F
100
AcDbEntity
  8
LOGO
  6
Continuous
100
AcDbLine
 10
1194.909126904262
 20
1721.660643800519
 30
0.0
 11
1201.90039615019
 21
1721.660643800519
 31
0.0
  0
LINE
  5
2896
330
1F
100
AcDbEntity
  8
LOGO
 62
     4
100
AcDbLine
 10
1231.655954302084
 20
1705.883739953104
 30
0.0
 11
1231.655954302084
 21
1686.532311655651
 31
0.0
  0
LINE
  5
2897
330
1F
100
AcDbEntity
  8
LOGO
 62
     4
100
AcDbLine
 10
1191.152494178412
 20
1705.883739953104
 30
0.0
 11
1191.152494178412
 21
1686.532311655651
 31
0.0
  0
LINE
  5
2898
330
1F
100
AcDbEntity
  8
LOGO
 62
     4
100
AcDbLine
 10
1231.655954302084
 20
1686.532311655651
 30
0.0
 11
1191.152494178412
 21
1686.532311655651
 31
0.0
  0
LINE
  5
2899
330
1F
100
AcDbEntity
  8
LOGO
 62
     4
100
AcDbLine
 10
1220.951631329887
 20
1729.633220136341
 30
0.0
 11
1204.105773065484
 21
1729.633220136341
 31
0.0
  0
LINE
  5
289A
330
1F
100
AcDbEntity
  8
LOGO
 62
     4
100
AcDbLine
 10
1220.951631329887
 20
1713.800233347516
 30
0.0
 11
1204.105773065484
 21
1713.800233347516
 31
0.0
  0
LINE
  5
289B
330
1F
100
AcDbEntity
  8
LOGO
 62
     4
100
AcDbLine
 10
1204.105773065484
 20
1729.633220136341
 30
0.0
 11
1204.105773065484
 21
1713.800233347516
 31
0.0
  0
LINE
  5
289C
330
1F
100
AcDbEntity
  8
LOGO
 62
     4
100
AcDbLine
 10
1220.951631329887
 20
1729.633220136341
 30
0.0
 11
1220.951631329887
 21
1713.800233347516
 31
0.0
  0
LINE
  5
289D
330
1F
100
AcDbEntity
  8
LOGO
 62
     4
100
AcDbLine
 10
1212.528702197686
 20
1713.800233347516
 30
0.0
 11
1212.528702197686
 21
1705.883739953104
 31
0.0
  0
LINE
  5
289F
330
1F
100
AcDbEntity
  8
LOGO
 62
     4
100
AcDbLine
 10
1231.655954302084
 20
1705.883739953104
 30
0.0
 11
1191.152494178412
 21
1705.883739953104
 31
0.0
  0
TEXT
  5
28A2
330
1F
100
AcDbEntity
  8
LOGO
  6
Continuous
100
AcDbText
 10
1121.698437539527
 20
1689.263724724179
 30
345.8892902725216
 40
3.95881992
  1
Tube I.D.
 41
0.8
  7
CHINESET
100
AcDbText
  0
TEXT
  5
28A3
330
1F
100
AcDbEntity
  8
LOGO
100
AcDbText
 10
1123.294676383532
 20
1696.602523669273
 30
345.8892902725216
 40
6.598033200000001
  1
內徑
  7
CHINESET
100
AcDbText
  0
TEXT
  5
28A4
330
1F
100
AcDbEntity
  8
LOGO
  6
Continuous
100
AcDbText
 10
1194.831775769554
 20
1689.263724724179
 30
345.8892902725216
 40
3.95881992
  1
Sensor switch
 41
0.8
  7
CHINESET
100
AcDbText
  0
TEXT
  5
28A5
330
1F
100
AcDbEntity
  8
LOGO
100
AcDbText
 10
1194.557284210034
 20
1696.602523669273
 30
345.8892902725216
 40
6.598033200000001
  1
感應器型式
  7
CHINESET
100
AcDbText
  0
LINE
  5
28A6
330
1F
100
AcDbEntity
  8
LOGO
 62
     4
100
AcDbLine
 10
1191.866015360839
 20
1729.633220136341
 30
0.0
 11
1166.83489261082
 21
1729.633220136341
 31
0.0
  0
LINE
  5
28A7
330
1F
100
AcDbEntity
  8
LOGO
 62
     4
100
AcDbLine
 10
1191.866015360839
 20
1713.800233347516
 30
0.0
 11
1166.83489261082
 21
1713.800233347516
 31
0.0
  0
LINE
  5
28A8
330
1F
100
AcDbEntity
  8
LOGO
 62
     4
100
AcDbLine
 10
1166.83489261082
 20
1729.633220136341
 30
0.0
 11
1166.83489261082
 21
1713.800233347516
 31
0.0
  0
LINE
  5
28A9
330
1F
100
AcDbEntity
  8
LOGO
 62
     4
100
AcDbLine
 10
1191.866015360839
 20
1729.633220136341
 30
0.0
 11
1191.866015360839
 21
1713.800233347516
 31
0.0
  0
TEXT
  5
28AA
330
1F
100
AcDbEntity
  8
LOGO
  6
Continuous
100
AcDbText
 10
1170.514519884491
 20
1717.105346191859
 30
0.0
 40
9.237246480000001
  1
(M)
  7
CHINESET
100
AcDbText
  0
LINE
  5
28AB
330
1F
100
AcDbEntity
  8
LOGO
 62
     4
100
AcDbLine
 10
1185.369068274439
 20
1705.883739953104
 30
0.0
 11
1185.369068274439
 21
1686.532311655651
 31
0.0
  0
LINE
  5
28AC
330
1F
100
AcDbEntity
  8
LOGO
 62
     4
100
AcDbLine
 10
1156.70575304792
 20
1705.883739953104
 30
0.0
 11
1156.70575304792
 21
1686.532311655651
 31
0.0
  0
LINE
  5
28AD
330
1F
100
AcDbEntity
  8
LOGO
 62
     4
100
AcDbLine
 10
1185.369068274439
 20
1686.532311655651
 30
0.0
 11
1156.70575304792
 21
1686.532311655651
 31
0.0
  0
LINE
  5
28AE
330
1F
100
AcDbEntity
  8
LOGO
 62
     4
100
AcDbLine
 10
1185.369068274439
 20
1705.883739953104
 30
0.0
 11
1156.70575304792
 21
1705.883739953104
 31
0.0
  0
TEXT
  5
28AF
330
1F
100
AcDbEntity
  8
LOGO
  6
Continuous
100
AcDbText
 10
1162.936420105106
 20
1689.263724724179
 30
345.8892902725216
 40
3.95881992
  1
Magnet
 41
0.8
  7
CHINESET
100
AcDbText
  0
TEXT
  5
28B0
330
1F
100
AcDbEntity
  8
LOGO
100
AcDbText
 10
1160.825242109284
 20
1696.602523669273
 30
345.8892902725216
 40
6.598033200000001
  1
附磁石
  7
CHINESET
100
AcDbText
  0
LINE
  5
28B1
330
1F
100
AcDbEntity
  8
LOGO
 62
     4
100
AcDbLine
 10
1179.35045398583
 20
1713.800233347516
 30
0.0
 11
1179.35045398583
 21
1709.84198665031
 31
0.0
  0
LINE
  5
28B9
330
1F
100
AcDbEntity
  8
LOGO
 62
     4
100
AcDbLine
 10
1149.710320436024
 20
1709.84198665031
 30
0.0
 11
1131.920948147379
 21
1709.84198665031
 31
0.0
  0
LINE
  5
28BA
330
1F
100
AcDbEntity
  8
LOGO
 62
     4
100
AcDbLine
 10
1131.920948147379
 20
1705.883739953104
 30
0.0
 11
1131.920948147379
 21
1709.84198665031
 31
0.0
  0
LINE
  5
28BB
330
1F
100
AcDbEntity
  8
LOGO
 62
     4
100
AcDbLine
 10
1179.35045398583
 20
1709.84198665031
 30
0.0
 11
1171.03741066118
 21
1709.84198665031
 31
0.0
  0
LINE
  5
28BC
330
1F
100
AcDbEntity
  8
LOGO
 62
     4
100
AcDbLine
 10
1171.037410661179
 20
1705.883739953104
 30
0.0
 11
1171.03741066118
 21
1709.84198665031
 31
0.0
  0
TEXT
  5
299D
330
1F
100
AcDbEntity
  8
LOGO
 62
     7
100
AcDbText
 10
1005.005470285534
 20
1711.790342096309
 30
0.0
 40
7.036883017255384
  1
Order example:
 41
0.8
  7
CHINESET
100
AcDbText
  0
TEXT
  5
299E
330
1F
100
AcDbEntity
  8
LOGO
 62
     7
100
AcDbText
 10
1006.267945291485
 20
1721.696816379385
 30
0.0
 40
10.55532452588308
  1
訂購代號:
  7
CHINESET
100
AcDbText
  0
LINE
  5
29A0
330
1F
100
AcDbEntity
  8
LOGO
 62
     4
100
AcDbLine
 10
1001.947920746801
 20
1682.134259769866
 30
0.0
 11
1001.947920746801
 21
1734.910882399282
 31
0.0
  0
TEXT
  5
29A1
330
1F
100
AcDbEntity
  8
LOGO
  6
Continuous
100
AcDbText
 10
904.7969510460823
 20
1692.502147638547
 30
0.0
 40
7.916493394412307
  1
金器工業股份有限公司
  7
CHINESET
100
AcDbText
  0
TEXT
  5
29A2
330
1F
100
AcDbEntity
  8
LOGO
  6
Continuous
100
AcDbText
 10
890.2559188815281
 20
1684.584103232107
 30
0.0
 40
5.277662262941539
  1
MINDMAN INDUSTRIAL CO., LTD.
 41
0.85
  7
CHINESET
100
AcDbText
  0
LINE
  5
29A3
330
1F
100
AcDbEntity
  8
LOGO
100
AcDbLine
 10
1001.947920746801
 20
1724.355557873399
 30
0.0
 11
924.5422075569917
 21
1724.355557873399
 31
0.0
  0
LINE
  5
29A4
330
1F
100
AcDbEntity
  8
LOGO
100
AcDbLine
 10
1001.947920746801
 20
1713.800233347516
 30
0.0
 11
924.5422075569917
 21
1713.800233347516
 31
0.0
  0
LINE
  5
29A5
330
1F
100
AcDbEntity
  8
LOGO
 62
     4
100
AcDbLine
 10
1001.947920746801
 20
1703.244908821633
 30
0.0
 11
885.8393509620878
 21
1703.244908821633
 31
0.0
  0
LINE
  5
29A6
330
1F
100
AcDbEntity
  8
LOGO
 62
     4
100
AcDbLine
 10
924.5422075569917
 20
1703.244908821633
 30
0.0
 11
924.5422075569917
 21
1734.910882399282
 31
0.0
  0
TEXT
  5
29A7
330
1F
100
AcDbEntity
  8
LOGO
100
AcDbText
 10
977.4453590282139
 20
1705.883739953103
 30
0.0
 40
5.277662262941539
  1
mm
  7
CHINESET
 72
     1
 11
983.9796075442366
 21
1708.522571084574
 31
0.0
100
AcDbText
 73
     2
  0
TEXT
  5
29A8
330
1F
100
AcDbEntity
  8
LOGO
100
AcDbText
 10
974.6808692714349
 20
1726.99438900487
 30
0.0
 40
5.277662262941539
  1
1 : 1
  7
CHINESET
 72
     1
 11
983.9796075442366
 21
1729.633220136341
 31
0.0
100
AcDbText
 73
     2
  0
LINE
  5
29A9
330
1F
100
AcDbEntity
  8
LOGO
 62
     4
100
AcDbLine
 10
966.7635056605242
 20
1703.244908821633
 30
0.0
 11
966.7635056605242
 21
1734.910882399282
 31
0.0
  0
CIRCLE
  5
29AA
330
1F
100
AcDbEntity
  8
LOGO
  6
Continuous
100
AcDbCircle
 10
976.535757459921
 20
1719.089184568659
 30
0.0
 40
3.064334932030406
  0
CIRCLE
  5
29AB
330
1F
100
AcDbEntity
  8
LOGO
  6
Continuous
100
AcDbCircle
 10
976.535757459921
 20
1719.089184568659
 30
0.0
 40
1.795428999946388
  0
LINE
  5
29AC
330
1F
100
AcDbEntity
  8
LOGO
100
AcDbLine
 10
995.7923937431893
 20
1716.024849636628
 30
0.0
 11
995.7923937431893
 21
1722.15351950069
 31
0.0
  0
LINE
  5
29AD
330
1F
100
AcDbEntity
  8
LOGO
100
AcDbLine
 10
986.1858796324925
 20
1717.293755568713
 30
0.0
 11
986.1858796324925
 21
1720.884613568605
 31
0.0
  0
LINE
  5
29AE
330
1F
100
AcDbEntity
  8
LOGO
  6
Continuous
100
AcDbLine
 10
986.1858796324925
 20
1720.884613568605
 30
0.0
 11
995.7923937431893
 21
1722.15351950069
 31
0.0
  0
LINE
  5
29AF
330
1F
100
AcDbEntity
  8
LOGO
  6
Continuous
100
AcDbLine
 10
986.1858796324925
 20
1717.293755568713
 30
0.0
 11
995.7923937431893
 21
1716.024849636628
 31
0.0
  0
TEXT
  5
29B0
330
1F
100
AcDbEntity
  8
LOGO
100
AcDbText
 10
928.8939228246942
 20
1726.996986279606
 30
345.8892902725216
 40
5.277662262941539
  1
比例 Scale:
 41
0.9
  7
CHINESET
 72
     4
 11
945.6528566087582
 21
1729.633220136341
 31
345.8892902725216
100
AcDbText
  0
TEXT
  5
29B1
330
1F
100
AcDbEntity
  8
LOGO
100
AcDbText
 10
928.5899860247303
 20
1716.513303248515
 30
345.8892902725216
 40
5.277662262941539
  1
投影  View:
 41
0.9
  7
CHINESET
 72
     4
 11
945.6528566087582
 21
1719.077895610458
 31
345.8892902725216
100
AcDbText
  0
TEXT
  5
29B2
330
1F
100
AcDbEntity
  8
LOGO
100
AcDbText
 10
929.1059717549016
 20
1705.883739953103
 30
345.8892902725216
 40
5.277662262941539
  1
單位  Unit:
 41
0.9
  7
CHINESET
 72
     4
 11
945.6528566087582
 21
1708.522571084574
 31
345.8892902725216
100
AcDbText
  0
SOLID
  5
29B4
330
1F
100
AcDbEntity
  8
LOGO
 62
     5
100
AcDbTrace
 10
891.3150102599258
 20
1712.018271117705
 30
0.0
 11
893.5969329365638
 21
1712.018271117704
 31
0.0
 12
903.118058587364
 22
1733.657193051343
 32
0.0
 13
905.3999812640034
 23
1733.657193051342
 33
0.0
  0
SOLID
  5
29B5
330
1F
100
AcDbEntity
  8
LOGO
 62
     5
100
AcDbTrace
 10
894.5411768027616
 20
1712.018271117705
 30
0.0
 11
896.8230994793996
 21
1712.018271117705
 31
0.0
 12
905.3999812640034
 22
1731.926079296651
 32
0.0
 13
903.118058587364
 23
1723.559029482311
 33
0.0
  0
SOLID
  5
29B6
330
1F
100
AcDbEntity
  8
LOGO
 62
     2
100
AcDbTrace
 10
893.5969329365638
 20
1712.018271117704
 30
0.0
 11
894.5411768027616
 21
1712.018271117705
 31
0.0
 12
905.3999812640034
 22
1733.657193051342
 32
0.0
 13
906.3442251301999
 23
1733.657193051342
 33
0.0
  0
SOLID
  5
29B7
330
1F
100
AcDbEntity
  8
LOGO
 62
     5
100
AcDbTrace
 10
887.6565286132883
 20
1704.149572232746
 30
0.0
 11
888.4433985017849
 21
1704.149572232746
 31
0.0
 12
890.6592853528465
 22
1708.083921675225
 32
0.0
 13
891.446155241341
 23
1708.083921675225
 33
0.0
  0
SOLID
  5
29B8
330
1F
100
AcDbEntity
  8
LOGO
 62
     5
100
AcDbTrace
 10
890.6592853528465
 20
1708.083921675225
 30
0.0
 11
891.446155241341
 21
1708.083921675225
 31
0.0
 12
890.6592853528465
 22
1704.149572232746
 32
0.0
 13
891.446155241341
 23
1704.149572232746
 33
0.0
  0
SOLID
  5
29B9
330
1F
100
AcDbEntity
  8
LOGO
 62
     5
100
AcDbTrace
 10
890.6592853528465
 20
1704.149572232746
 30
0.0
 11
891.446155241341
 21
1704.149572232746
 31
0.0
 12
893.6620420924068
 22
1708.083921675225
 32
0.0
 13
894.448911980902
 23
1708.083921675225
 33
0.0
  0
SOLID
  5
29BA
330
1F
100
AcDbEntity
  8
LOGO
 62
     5
100
AcDbTrace
 10
893.6620420924068
 20
1708.083921675225
 30
0.0
 11
894.448911980902
 21
1708.083921675225
 31
0.0
 12
893.6620420924068
 22
1704.149572232746
 32
0.0
 13
894.448911980902
 23
1704.149572232746
 33
0.0
  0
POLYLINE
  5
29BB
330
1F
100
AcDbEntity
  8
LOGO
 62
     5
100
AcDb2dPolyline
 66
     1
 10
0.0
 20
0.0
 30
0.0
 40
0.7881308979326032
 41
0.7881308979326032
  0
VERTEX
  5
29BC
330
29BB
100
AcDbEntity
  8
LOGO
 62
     5
100
AcDbVertex
100
AcDb2dVertex
 10
920.0376527041836
 20
1706.510181898234
 30
0.0
 42
1.0
  0
VERTEX
  5
29BD
330
29BB
100
AcDbEntity
  8
LOGO
 62
     5
100
AcDbVertex
100
AcDb2dVertex
 10
917.6732600103854
 20
1706.510181898234
 30
0.0
 42
1.0
  0
SEQEND
  5
29BE
330
29BB
100
AcDbEntity
  8
LOGO
 62
     5
  0
POLYLINE
  5
29BF
330
1F
100
AcDbEntity
  8
LOGO
 62
     5
100
AcDb2dPolyline
 66
     1
 10
0.0
 20
0.0
 30
0.0
 70
     1
  0
VERTEX
  5
29C0
330
29BF
100
AcDbEntity
  8
LOGO
 62
     5
100
AcDbVertex
100
AcDb2dVertex
 10
913.2162746143878
 20
1706.116746953985
 30
0.0
 42
1.000000057330635
  0
VERTEX
  5
29C1
330
29BF
100
AcDbEntity
  8
LOGO
 62
     5
100
AcDbVertex
100
AcDb2dVertex
 10
915.5768842798758
 20
1706.116746953985
 30
0.0
 42
1.000000057330635
  0
SEQEND
  5
29C2
330
29BF
100
AcDbEntity
  8
LOGO
 62
     5
  0
CIRCLE
  5
29C3
330
1F
100
AcDbEntity
  8
LOGO
 62
     5
100
AcDbCircle
 10
914.3965794471338
 20
1706.116746953985
 30
0.0
 40
1.180304832743866
  0
POLYLINE
  5
29C4
330
1F
100
AcDbEntity
  8
LOGO
 62
     5
100
AcDb2dPolyline
 66
     1
 10
0.0
 20
0.0
 30
0.0
 70
     1
 40
0.7881308979326032
 41
0.7881308979326032
  0
VERTEX
  5
29C5
330
29C4
100
AcDbEntity
  8
LOGO
 62
     5
100
AcDbVertex
100
AcDb2dVertex
 10
912.8203176512672
 20
1706.116746953985
 30
0.0
 42
1.0
  0
VERTEX
  5
29C6
330
29C4
100
AcDbEntity
  8
LOGO
 62
     5
100
AcDbVertex
100
AcDb2dVertex
 10
915.9728412429974
 20
1706.116746953985
 30
0.0
 42
1.0
  0
SEQEND
  5
29C7
330
29C4
100
AcDbEntity
  8
LOGO
 62
     5
  0
LINE
  5
29C8
330
1F
100
AcDbEntity
  8
LOGO
100
AcDbLine
 10
920.4291961342748
 20
1704.149572232746
 30
0.0
 11
920.4291961342748
 21
1706.510181898234
 31
0.0
  0
SOLID
  5
29C9
330
1F
100
AcDbEntity
  8
LOGO
 62
     5
100
AcDbTrace
 10
915.5768055928906
 20
1708.083921675225
 30
0.0
 11
916.3636754813847
 21
1708.083921675225
 31
0.0
 12
915.5768055928906
 22
1704.149572232746
 32
0.0
 13
916.3636754813847
 23
1704.149572232746
 33
0.0
  0
SOLID
  5
29CA
330
1F
100
AcDbEntity
  8
LOGO
 62
     5
100
AcDbTrace
 10
917.2817165802912
 20
1704.149572232746
 30
0.0
 11
918.0685864687882
 21
1704.149572232746
 31
0.0
 12
917.2817165802912
 22
1708.083921675225
 32
0.0
 13
918.0685864687882
 23
1708.083921675225
 33
0.0
  0
SOLID
  5
29CB
330
1F
100
AcDbEntity
  8
LOGO
 62
     5
100
AcDbTrace
 10
919.6423262457802
 20
1706.510181898234
 30
0.0
 11
920.4291961342748
 21
1706.510181898234
 31
0.0
 12
919.6423262457802
 22
1704.149572232746
 32
0.0
 13
920.4291961342748
 23
1704.149572232746
 33
0.0
  0
SOLID
  5
29CC
330
1F
100
AcDbEntity
  8
LOGO
 62
     5
100
AcDbTrace
 10
917.2030295914415
 20
1731.926079296651
 30
0.0
 11
914.9211069148046
 21
1723.559029482311
 31
0.0
 12
917.2030295914415
 22
1712.018271117704
 32
0.0
 13
914.9211069148046
 23
1712.018271117704
 33
0.0
  0
SOLID
  5
29CD
330
1F
100
AcDbEntity
  8
LOGO
 62
     5
100
AcDbTrace
 10
918.1472734576376
 20
1712.018271117704
 30
0.0
 11
920.4291961342748
 21
1712.018271117704
 31
0.0
 12
918.1472734576376
 22
1733.657193051342
 32
0.0
 13
920.4291961342748
 23
1733.657193051343
 33
0.0
  0
SOLID
  5
29CE
330
1F
100
AcDbEntity
  8
LOGO
 62
     2
100
AcDbTrace
 10
917.2030295914415
 20
1733.657193051343
 30
0.0
 11
918.1472734576376
 21
1733.657193051342
 31
0.0
 12
917.2030295914415
 22
1712.018271117704
 32
0.0
 13
918.1472734576376
 23
1712.018271117704
 33
0.0
  0
POLYLINE
  5
29CF
330
1F
100
AcDbEntity
  8
LOGO
 62
     5
100
AcDb2dPolyline
 66
     1
 10
0.0
 20
0.0
 30
0.0
 40
0.7881308979326032
 41
0.7881308979326032
  0
VERTEX
  5
29D0
330
29CF
100
AcDbEntity
  8
LOGO
 62
     5
100
AcDbVertex
100
AcDb2dVertex
 10
908.7591318444163
 20
1706.510181898234
 30
0.0
 42
1.0
  0
VERTEX
  5
29D1
330
29CF
100
AcDbEntity
  8
LOGO
 62
     5
100
AcDbVertex
100
AcDb2dVertex
 10
906.3947391506179
 20
1706.510181898234
 30
0.0
 42
1.0
  0
SEQEND
  5
29D2
330
29CF
100
AcDbEntity
  8
LOGO
 62
     5
  0
POLYLINE
  5
29D3
330
1F
100
AcDbEntity
  8
LOGO
 62
     5
100
AcDb2dPolyline
 66
     1
 10
0.0
 20
0.0
 30
0.0
 40
0.7881308979326032
 41
0.7881308979326032
  0
VERTEX
  5
29D4
330
29D3
100
AcDbEntity
  8
LOGO
 62
     5
100
AcDbVertex
100
AcDb2dVertex
 10
911.1197415099017
 20
1706.510181898234
 30
0.0
 42
1.0
  0
VERTEX
  5
29D5
330
29D3
100
AcDbEntity
  8
LOGO
 62
     5
100
AcDbVertex
100
AcDb2dVertex
 10
908.7553488161045
 20
1706.510181898234
 30
0.0
 42
1.0
  0
SEQEND
  5
29D6
330
29D3
100
AcDbEntity
  8
LOGO
 62
     5
  0
POLYLINE
  5
29D7
330
1F
100
AcDbEntity
  8
LOGO
 62
     5
100
AcDb2dPolyline
 66
     1
 10
0.0
 20
0.0
 30
0.0
 40
0.7881308979326032
 41
0.7881308979326032
  0
VERTEX
  5
29D8
330
29D7
100
AcDbEntity
  8
LOGO
 62
     5
100
AcDbVertex
100
AcDb2dVertex
 10
899.8412206501347
 20
1706.510181898234
 30
0.0
 42
1.0
  0
VERTEX
  5
29D9
330
29D7
100
AcDbEntity
  8
LOGO
 62
     5
100
AcDbVertex
100
AcDb2dVertex
 10
897.4768279563377
 20
1706.510181898234
 30
0.0
 42
1.0
  0
SEQEND
  5
29DA
330
29D7
100
AcDbEntity
  8
LOGO
 62
     5
  0
SOLID
  5
29DB
330
1F
100
AcDbEntity
  8
LOGO
 62
     5
100
AcDbTrace
 10
897.0852845262447
 20
1708.083921675225
 30
0.0
 11
897.8721544147395
 21
1708.083921675225
 31
0.0
 12
897.0852845262447
 22
1704.149572232746
 32
0.0
 13
897.8721544147395
 23
1704.149572232746
 33
0.0
  0
SOLID
  5
29DC
330
1F
100
AcDbEntity
  8
LOGO
 62
     5
100
AcDbTrace
 10
899.4458941917331
 20
1706.510181898234
 30
0.0
 11
900.2327640802297
 21
1706.510181898234
 31
0.0
 12
899.4458941917331
 22
1704.149572232746
 32
0.0
 13
900.2327640802297
 23
1704.149572232746
 33
0.0
  0
POLYLINE
  5
29DD
330
1F
100
AcDbEntity
  8
LOGO
 62
     5
100
AcDb2dPolyline
 66
     1
 10
0.0
 20
0.0
 30
0.0
 70
     1
 40
0.7881308979326032
 41
0.7881308979326032
  0
VERTEX
  5
29DE
330
29DD
100
AcDbEntity
  8
LOGO
 62
     5
100
AcDbVertex
100
AcDb2dVertex
 10
901.541796791499
 20
1706.116746953985
 30
0.0
 42
1.0
  0
VERTEX
  5
29DF
330
29DD
100
AcDbEntity
  8
LOGO
 62
     5
100
AcDbVertex
100
AcDb2dVertex
 10
904.6943203832304
 20
1706.116746953985
 30
0.0
 42
1.0
  0
SEQEND
  5
29E0
330
29DD
100
AcDbEntity
  8
LOGO
 62
     5
  0
SOLID
  5
29E1
330
1F
100
AcDbEntity
  8
LOGO
 62
     5
100
AcDbTrace
 10
904.2982847331206
 20
1709.26422650797
 30
0.0
 11
905.0851546216165
 21
1709.26422650797
 31
0.0
 12
904.2982847331206
 22
1704.149572232746
 32
0.0
 13
905.0851546216165
 23
1704.149572232746
 33
0.0
  0
SOLID
  5
29E2
330
1F
100
AcDbEntity
  8
LOGO
 62
     5
100
AcDbTrace
 10
906.0031957205266
 20
1708.083921675225
 30
0.0
 11
906.7900656090213
 21
1708.083921675225
 31
0.0
 12
906.0031957205266
 22
1704.149572232746
 32
0.0
 13
906.7900656090213
 23
1704.149572232746
 33
0.0
  0
SOLID
  5
29E3
330
1F
100
AcDbEntity
  8
LOGO
 62
     5
100
AcDbTrace
 10
908.3638053860122
 20
1706.510181898234
 30
0.0
 11
909.1506752745088
 21
1706.510181898234
 31
0.0
 12
908.3638053860122
 22
1704.149572232746
 32
0.0
 13
909.1506752745088
 23
1704.149572232746
 33
0.0
  0
SOLID
  5
29E4
330
1F
100
AcDbEntity
  8
LOGO
 62
     5
100
AcDbTrace
 10
910.7244150515001
 20
1706.510181898234
 30
0.0
 11
911.5112849399956
 21
1706.510181898234
 31
0.0
 12
910.7244150515001
 22
1704.149572232745
 32
0.0
 13
911.5112849399956
 23
1704.149572232745
 33
0.0
  0
SOLID
  5
29E5
330
1F
100
AcDbEntity
  8
LOGO
 62
     5
100
AcDbTrace
 10
895.3803735388403
 20
1708.634730597173
 30
0.0
 11
896.1672434273385
 21
1708.634730597173
 31
0.0
 12
895.3803735388403
 22
1709.26422650797
 32
0.0
 13
896.1672434273385
 23
1709.26422650797
 33
0.0
  0
SOLID
  5
29E6
330
1F
100
AcDbEntity
  8
LOGO
 62
     5
100
AcDbTrace
 10
895.3803735388403
 20
1708.083921675225
 30
0.0
 11
896.1672434273385
 21
1708.083921675225
 31
0.0
 12
895.3803735388403
 22
1704.149572232745
 32
0.0
 13
896.1672434273385
 23
1704.149572232746
 33
0.0
  0
SOLID
  5
29E7
330
1F
100
AcDbEntity
  8
LOGO
 62
     5
100
AcDbTrace
 10
903.118058587364
 20
1712.018271117705
 30
0.0
 11
905.3999812640034
 21
1712.018271117705
 31
0.0
 12
903.118058587364
 22
1723.559029482311
 32
0.0
 13
905.3999812640034
 23
1731.926079296651
 33
0.0
  0
SOLID
  5
29E8
330
1F
100
AcDbEntity
  8
LOGO
 62
     5
100
AcDbTrace
 10
906.3442251301999
 20
1733.657193051342
 30
0.0
 11
908.6261478068365
 21
1733.657193051343
 31
0.0
 12
906.3442251301999
 22
1713.749384872396
 32
0.0
 13
908.6261478068365
 23
1722.116434686736
 33
0.0
  0
SOLID
  5
29E9
330
1F
100
AcDbEntity
  8
LOGO
 62
     2
100
AcDbTrace
 10
905.3999812640034
 20
1733.657193051342
 30
0.0
 11
906.3442251301999
 21
1733.657193051342
 31
0.0
 12
905.3999812640034
 22
1712.018271117705
 32
0.0
 13
906.3442251301999
 23
1712.018271117705
 33
0.0
  0
SOLID
  5
29EA
330
1F
100
AcDbEntity
  8
LOGO
 62
     5
100
AcDbTrace
 10
906.3442251301999
 20
1713.749384872396
 30
0.0
 11
908.6261478068365
 21
1722.116434686736
 31
0.0
 12
917.2030295914415
 22
1733.657193051343
 32
0.0
 13
914.9211069148046
 23
1733.657193051343
 33
0.0
  0
SOLID
  5
29EB
330
1F
100
AcDbEntity
  8
LOGO
 62
     5
100
AcDbTrace
 10
906.3442251301999
 20
1712.018271117705
 30
0.0
 11
908.6261478068365
 21
1712.018271117705
 31
0.0
 12
917.2030295914415
 22
1731.926079296651
 32
0.0
 13
914.9211069148046
 23
1723.559029482311
 33
0.0
  0
SOLID
  5
29EC
330
1F
100
AcDbEntity
  8
LOGO
 62
     2
100
AcDbTrace
 10
905.3999812640034
 20
1712.018271117705
 30
0.0
 11
906.3442251301999
 21
1712.018271117705
 31
0.0
 12
917.2030295914415
 22
1733.657193051343
 32
0.0
 13
918.1472734576376
 23
1733.657193051342
 33
0.0
  0
TEXT
  5
2A2D
330
1F
100
AcDbEntity
  8
LOGO
100
AcDbText
 10
1004.393245783588
 20
1684.941955263153
 30
0.0
 40
5.27842656
  1
10603100
 41
0.7
  7
CHINESET
 72
     1
 11
1017.237417079588
 21
1684.941955263153
 31
0.0
100
AcDbText
  0
LINE
  5
2A2E
330
1F
100
AcDbEntity
  8
LOGO
 62
     4
100
AcDbLine
 10
1033.618480106799
 20
1692.689584295751
 30
0.0
 11
1033.618480106802
 21
1682.134259769867
 31
0.0
  0
LINE
  5
2A2F
330
1F
100
AcDbEntity
  8
LOGO
 62
     4
100
AcDbLine
 10
1033.618480106799
 20
1692.689584295751
 30
0.0
 11
1001.947920746801
 21
1692.689584295751
 31
0.0
  0
LINE
  5
2A30
330
1F
100
AcDbEntity
  8
LOGO
  6
AM_ISO08W050x2
 48
0.3
100
AcDbLine
 10
972.3115258713148
 20
1719.089184568659
 30
0.0
 11
980.7599890485272
 21
1719.089184568659
 31
0.0
1001
GENIUS_GENOREF_13
1005
2A35
  0
LINE
  5
2A31
330
1F
100
AcDbEntity
  8
LOGO
  6
AM_ISO08W050x2
 48
0.3
100
AcDbLine
 10
976.535757459921
 20
1714.864952980053
 30
0.0
 11
976.535757459921
 21
1723.313416157266
 31
0.0
1001
GENIUS_GENOREF_13
1005
2A34
  0
LINE
  5
2A32
330
1F
100
AcDbEntity
  8
LOGO
  6
AM_ISO08W050x2
 48
0.3
100
AcDbLine
 10
985.4176255154472
 20
1719.089184568659
 30
0.0
 11
996.759738616247
 21
1719.089184568659
 31
0.0
1001
GENIUS_GENOREF_13
1005
2A33
  0
POINT
  5
2A33
330
1F
100
AcDbEntity
  8
0
 60
     1
100
AcDbPoint
 10
-1846.718893173345
 20
-1185.064967107847
 30
0.0
1001
GENIUS_GENOBJ-N-CRS_13
1002
{
1000
OWNER
1000
GEN
1002
}
1001
GENIUS_GENOLIS_13
1002
{
1000
ENT
1005
0
1005
0
1005
0
1005
2A32
1002
}
1001
GENIUS_GENOENT_13
1002
{
1000
MYREF
1005
2A33
1002
}
1002
{
1000
GRP
1005
0
1002
}
1001
GENIUS_GENODEF_13
1002
{
1000
HIER
1070
    10
1002
}
1002
{
1000
MANEDIT
1070
     1
1002
}
1002
{
1000
NOSEL
1070
     0
1002
}
1002
{
1000
BEHIND
1070
     0
1002
}
1002
{
1000
OTHER
1070
     0
1002
}
1002
{
1000
REACTOR
1002
}
  0
POINT
  5
2A34
330
1F
100
AcDbEntity
  8
0
 60
     1
100
AcDbPoint
 10
-1858.0434783962
 20
-1176.18938062921
 30
0.0
1001
GENIUS_GENOBJ-N-CRS_13
1002
{
1000
OWNER
1000
GEN
1002
}
1001
GENIUS_GENOLIS_13
1002
{
1000
ENT
1005
0
1005
0
1005
0
1005
2A31
1002
}
1001
GENIUS_GENOENT_13
1002
{
1000
MYREF
1005
2A34
1002
}
1002
{
1000
GRP
1005
0
1002
}
1001
GENIUS_GENODEF_13
1002
{
1000
HIER
1070
    10
1002
}
1002
{
1000
MANEDIT
1070
     1
1002
}
1002
{
1000
NOSEL
1070
     0
1002
}
1002
{
1000
BEHIND
1070
     0
1002
}
1002
{
1000
OTHER
1070
     0
1002
}
1002
{
1000
REACTOR
1002
}
  0
POINT
  5
2A35
330
1F
100
AcDbEntity
  8
0
 60
     1
100
AcDbPoint
 10
-1851.684804698363
 20
-1185.064967107847
 30
0.0
1001
GENIUS_GENOBJ-N-CRS_13
1002
{
1000
OWNER
1000
GEN
1002
}
1001
GENIUS_GENOLIS_13
1002
{
1000
ENT
1005
0
1005
0
1005
0
1005
2A30
1002
}
1001
GENIUS_GENOENT_13
1002
{
1000
MYREF
1005
2A35
1002
}
1002
{
1000
GRP
1005
0
1002
}
1001
GENIUS_GENODEF_13
1002
{
1000
HIER
1070
    10
1002
}
1002
{
1000
MANEDIT
1070
     1
1002
}
1002
{
1000
NOSEL
1070
     0
1002
}
1002
{
1000
BEHIND
1070
     0
1002
}
1002
{
1000
OTHER
1070
     0
1002
}
1002
{
1000
REACTOR
1002
}
  0
DIMENSION
  5
5C87
330
1F
100
AcDbEntity
  8
AM_5
100
AcDbDimension
  2
*D5
 10
1185.276747922134
 20
2164.753558444444
 30
0.0
 11
1233.276747922135
 21
2168.053558444444
 31
0.0
 70
    32
 71
     5
 42
96.0
  3
AM_ISO$0
100
AcDbAlignedDimension
 13
1281.276747922135
 23
2152.799754294756
 33
0.0
 14
1185.276747922134
 24
2152.799754294756
 34
0.0
100
AcDbRotatedDimension
  0
DIMENSION
  5
5C88
330
1F
100
AcDbEntity
  8
AM_5
100
AcDbDimension
  2
*D6
 10
1281.276747922135
 20
2154.753558444443
 30
0.0
 11
1236.276747922135
 21
2158.053558444444
 31
0.0
 70
    32
 71
     5
 42
90.0
  3
AM_ISO$0
100
AcDbAlignedDimension
 13
1191.276747922135
 23
2112.593744658036
 33
0.0
 14
1281.276747922135
 24
2135.575602104092
 34
0.0
100
AcDbRotatedDimension
  0
DIMENSION
  5
5C89
330
1F
100
AcDbEntity
  8
AM_5
100
AcDbDimension
  2
*D7
 10
1203.276747922135
 20
1769.282198889158
 30
0.0
 11
1210.776747922135
 21
1772.582198889158
 31
0.0
 70
    32
 71
     5
 42
15.0
  3
AM_ISO$0
100
AcDbAlignedDimension
 13
1218.276747922135
 23
1787.645744658036
 33
0.0
 14
1203.276747922135
 24
1787.645744658036
 34
0.0
100
AcDbRotatedDimension
  0
LINE
  5
5C8A
330
1F
100
AcDbEntity
  8
0
  6
Continuous
 62
     7
100
AcDbLine
 10
1203.276747922135
 20
1787.645744658036
 30
0.0
 11
1218.276747922135
 21
1787.645744658036
 31
0.0
  0
LINE
  5
5C8B
330
1F
100
AcDbEntity
  8
0
  6
Continuous
 62
     7
100
AcDbLine
 10
1203.276747922135
 20
1804.650744658035
 30
0.0
 11
1218.276747922135
 21
1804.650744658035
 31
0.0
  0
LINE
  5
5C8C
330
1F
100
AcDbEntity
  8
AM_7
100
AcDbLine
 10
1179.801747922135
 20
1864.128744658035
 30
0.0
 11
1288.100747922135
 21
1864.128744658035
 31
0.0
  0
LINE
  5
5C8D
330
1F
100
AcDbEntity
  8
0
  6
Continuous
 62
     7
100
AcDbLine
 10
1195.895747922135
 20
1850.221744658036
 30
0.0
 11
1281.276747922135
 21
1850.221744658036
 31
0.0
  0
LINE
  5
5C8E
330
1F
100
AcDbEntity
  8
0
  6
Continuous
 62
     7
100
AcDbLine
 10
1195.895747922135
 20
1832.657744658035
 30
0.0
 11
1281.276747922135
 21
1832.657744658035
 31
0.0
  0
LINE
  5
5C8F
330
1F
100
AcDbEntity
  8
0
  6
Continuous
 62
     7
100
AcDbLine
 10
1195.895747922135
 20
1878.039744658035
 30
0.0
 11
1281.276747922135
 21
1878.039744658035
 31
0.0
  0
LINE
  5
5C90
330
1F
100
AcDbEntity
  8
0
  6
Continuous
 62
     7
100
AcDbLine
 10
1195.895747922135
 20
1895.602744658035
 30
0.0
 11
1281.276747922135
 21
1895.602744658035
 31
0.0
  0
LINE
  5
5C91
330
1F
100
AcDbEntity
  8
0
  6
Continuous
 62
     7
100
AcDbLine
 10
1203.276747922135
 20
1816.503744658035
 30
0.0
 11
1218.276747922135
 21
1816.503744658035
 31
0.0
  0
LINE
  5
5C92
330
1F
100
AcDbEntity
  8
0
  6
Continuous
 62
     7
100
AcDbLine
 10
1195.895747922135
 20
1987.128744658035
 30
0.0
 11
1281.276747922135
 21
1987.128744658035
 31
0.0
  0
LINE
  5
5C93
330
1F
100
AcDbEntity
  8
0
  6
Continuous
 62
     7
100
AcDbLine
 10
1195.895747922135
 20
1994.981744658035
 30
0.0
 11
1281.276747922135
 21
1994.981744658035
 31
0.0
  0
LINE
  5
5C94
330
1F
100
AcDbEntity
  8
0
  6
Continuous
 62
     7
100
AcDbLine
 10
1195.895747922135
 20
1988.588744658035
 30
0.0
 11
1281.276747922135
 21
1988.588744658035
 31
0.0
  0
LINE
  5
5C95
330
1F
100
AcDbEntity
  8
0
  6
Continuous
 62
     7
100
AcDbLine
 10
1203.276747922135
 20
1940.611744658035
 30
0.0
 11
1218.276747922135
 21
1940.611744658035
 31
0.0
  0
LINE
  5
5C96
330
1F
100
AcDbEntity
  8
0
  6
Continuous
 62
     7
100
AcDbLine
 10
1203.276747922135
 20
1923.606744658036
 30
0.0
 11
1218.276747922135
 21
1923.606744658036
 31
0.0
  0
LINE
  5
5C97
330
1F
100
AcDbEntity
  8
0
  6
Continuous
 62
     7
100
AcDbLine
 10
1203.276747922135
 20
1911.753744658035
 30
0.0
 11
1218.276747922135
 21
1911.753744658035
 31
0.0
  0
LINE
  5
5C98
330
1F
100
AcDbEntity
  8
AM_7
100
AcDbLine
 10
1179.801747922135
 20
2054.128744658036
 30
0.0
 11
1288.100747922135
 21
2054.128744658036
 31
0.0
  0
LINE
  5
5C99
330
1F
100
AcDbEntity
  8
0
  6
Continuous
 62
     7
100
AcDbLine
 10
1203.276747922135
 20
2000.156744658036
 30
0.0
 11
1218.276747922135
 21
2000.156744658036
 31
0.0
  0
LINE
  5
5C9A
330
1F
100
AcDbEntity
  8
0
  6
Continuous
 62
     7
100
AcDbLine
 10
1203.276747922135
 20
2029.601744658036
 30
0.0
 11
1218.276747922135
 21
2029.601744658036
 31
0.0
  0
LINE
  5
5C9B
330
1F
100
AcDbEntity
  8
0
  6
Continuous
 62
     7
100
AcDbLine
 10
1203.276747922135
 20
2036.447744658036
 30
0.0
 11
1218.276747922135
 21
2036.447744658036
 31
0.0
  0
LINE
  5
5C9C
330
1F
100
AcDbEntity
  8
0
  6
Continuous
 62
     7
100
AcDbLine
 10
1185.276747922134
 20
2132.628744658036
 30
0.0
 11
1218.276747922135
 21
2132.628744658036
 31
0.0
  0
LINE
  5
5C9D
330
1F
100
AcDbEntity
  8
0
  6
Continuous
 62
     7
100
AcDbLine
 10
1203.276747922135
 20
2118.935744658035
 30
0.0
 11
1218.276747922135
 21
2118.935744658035
 31
0.0
  0
DIMENSION
  5
5C9E
330
1F
100
AcDbEntity
  8
AM_5
100
AcDbDimension
  2
*D8
 10
982.7828479221349
 20
1774.232380187332
 30
0.0
 11
1022.030156119777
 21
1774.232380187332
 31
0.0
 70
   160
 71
     5
 42
78.49461639528545
  3
AM_ISO$0
100
AcDbAlignedDimension
 13
1061.27746431742
 23
1864.128303139946
 33
0.0
 14
982.7828479221349
 24
1847.128744658035
 34
0.0
100
AcDbRotatedDimension
  0
DIMENSION
  5
5C9F
330
1F
100
AcDbEntity
  8
AM_5
100
AcDbDimension
  2
*D9
 10
1020.782747922134
 20
1784.232380187332
 30
0.0
 11
1034.186301312728
 21
1784.232380187332
 31
0.0
 70
   160
 71
     5
 42
7.5
  3
AM_ISO$0
100
AcDbAlignedDimension
 13
1013.282747922135
 23
1795.642425774795
 33
0.0
 14
1020.782747922134
 24
1855.128744658035
 34
0.0
100
AcDbRotatedDimension
  0
DIMENSION
  5
5CA0
330
1F
100
AcDbEntity
  8
AM_5
100
AcDbDimension
  2
*D10
 10
1013.282747922135
 20
1784.232380187332
 30
0.0
 11
1001.782797922134
 21
1787.532872313316
 31
0.0
 70
    32
 71
     5
 42
22.99989999999991
  3
AM_ISO$0
100
AcDbAlignedDimension
 13
990.2828479221348
 23
1857.820744658035
 33
0.0
 14
1013.282747922135
 24
1857.820744658035
 34
0.0
100
AcDbRotatedDimension
  0
LINE
  5
5CA1
330
1F
100
AcDbEntity
  8
0
  6
Continuous
 62
     7
100
AcDbLine
 10
1025.715747922135
 20
1816.532744658035
 30
0.0
 11
1021.898747922135
 21
1809.921744658035
 31
0.0
  0
LINE
  5
5CA2
330
1F
100
AcDbEntity
  8
0
  6
Continuous
 62
     7
100
AcDbLine
 10
1055.077747922134
 20
1810.388744658035
 30
0.0
 11
1048.725747922135
 21
1811.508744658036
 31
0.0
  0
LINE
  5
5CA3
330
1F
100
AcDbEntity
  8
0
  6
Continuous
 62
     7
100
AcDbLine
 10
1048.725747922135
 20
1811.508744658036
 30
0.0
 11
1048.083747922134
 21
1807.867744658035
 31
0.0
  0
LINE
  5
5CA4
330
1F
100
AcDbEntity
  8
AM_7
100
AcDbLine
 10
1101.344747922134
 20
1794.729744658036
 30
0.0
 11
1024.587747922135
 21
1927.676744658035
 31
0.0
  0
LINE
  5
5CA5
330
1F
100
AcDbEntity
  8
0
  6
Continuous
 62
     7
100
AcDbLine
 10
1115.249747922135
 20
1804.645744658035
 30
0.0
 11
1108.403747922134
 21
1816.503744658035
 31
0.0
  0
LINE
  5
5CA6
330
1F
100
AcDbEntity
  8
0
  6
Continuous
 62
     7
100
AcDbLine
 10
1108.321747922135
 20
1800.645744658035
 30
0.0
 11
1082.321747922135
 21
1845.678744658035
 31
0.0
  0
LINE
  5
5CA7
330
1F
100
AcDbEntity
  8
0
  6
Continuous
 62
     7
100
AcDbLine
 10
1092.732747922134
 20
1791.645744658035
 30
0.0
 11
1066.732747922134
 21
1836.678744658035
 31
0.0
  0
LINE
  5
5CA8
330
1F
100
AcDbEntity
  8
0
  6
Continuous
 62
     7
100
AcDbLine
 10
1100.821747922135
 20
1813.636744658035
 30
0.0
 11
1085.232747922134
 21
1804.636744658035
 31
0.0
  0
LINE
  5
5CA9
330
1F
100
AcDbEntity
  8
0
  6
Continuous
 62
     7
100
AcDbLine
 10
1185.276747922134
 20
1833.553744658035
 30
0.0
 11
1185.276747922134
 21
1791.645744658035
 31
0.0
  0
LINE
  5
5CAA
330
1F
100
AcDbEntity
  8
0
  6
Continuous
 62
     7
100
AcDbLine
 10
1203.276747922135
 20
1816.503744658035
 30
0.0
 11
1203.276747922135
 21
1800.650744658035
 31
0.0
  0
LINE
  5
5CAB
330
1F
100
AcDbEntity
  8
AM_7
100
AcDbLine
 10
1102.233747922134
 20
1935.066744658035
 30
0.0
 11
1026.177747922135
 21
1803.333744658035
 31
0.0
  0
CIRCLE
  5
5CAC
330
1F
100
AcDbEntity
  8
0
  6
Continuous
 62
     7
100
AcDbCircle
 10
1031.776747922134
 20
1813.033744658035
 30
0.0
 40
4.5
  0
ARC
  5
5CAD
330
1F
100
AcDbEntity
  8
0
  6
Continuous
 62
     7
100
AcDbCircle
 10
1031.776747922134
 20
1813.033744658035
 30
0.0
 40
7.0
100
AcDbArc
 50
329.9999999999995
 51
149.9999999999994
  0
ARC
  5
5CAE
330
1F
100
AcDbEntity
  8
0
  6
Continuous
 62
     7
100
AcDbCircle
 10
1061.276747922134
 20
1864.128744658035
 30
0.0
 40
67.0
100
AcDbArc
 50
228.0199999999992
 51
251.9829999999996
  0
ARC
  5
5CAF
330
1F
100
AcDbEntity
  8
0
  6
Continuous
 62
     7
100
AcDbCircle
 10
1061.276747922134
 20
1864.128744658035
 30
0.0
 40
67.0
100
AcDbArc
 50
307.7200000000031
 51
331.9850000000005
  0
ARC
  5
5CB0
330
1F
100
AcDbEntity
  8
AM_7
100
AcDbCircle
 10
1061.276747922134
 20
1864.128744658035
 30
0.0
 40
59.0002
100
AcDbArc
 50
234.2560000000047
 51
245.939000000002
  0
ARC
  5
5CB1
330
1F
100
AcDbEntity
  8
0
  6
Continuous
 62
     7
100
AcDbCircle
 10
1061.276747922134
 20
1864.128744658035
 30
0.0
 40
67.0
100
AcDbArc
 50
268.0190000000012
 51
292.2809999999994
  0
ARC
  5
5CB2
330
1F
100
AcDbEntity
  8
0
  6
Continuous
 62
     7
100
AcDbCircle
 10
1061.276747922134
 20
1864.128744658035
 30
0.0
 40
59.0
100
AcDbArc
 50
262.4299999999989
 51
291.2259999999999
  0
LINE
  5
5CB3
330
1F
100
AcDbEntity
  8
0
  6
Continuous
 62
     7
100
AcDbLine
 10
1085.804747922135
 20
1787.645744658036
 30
0.0
 11
1078.958747922134
 21
1799.503744658035
 31
0.0
  0
ARC
  5
5CB4
330
1F
100
AcDbEntity
  8
0
  6
Continuous
 62
     7
100
AcDbCircle
 10
1061.276747922134
 20
1864.128744658035
 30
0.0
 40
59.0
100
AcDbArc
 50
246.8019999999961
 51
257.573000000004
  0
LINE
  5
5CB5
330
1F
100
AcDbEntity
  8
0
  6
Continuous
 62
     7
100
AcDbLine
 10
1037.839747922135
 20
1809.532744658035
 30
0.0
 11
1034.023747922135
 21
1802.922744658035
 31
0.0
  0
LINE
  5
5CB6
330
1F
100
AcDbEntity
  8
0
  6
Continuous
 62
     7
100
AcDbLine
 10
1048.724747922135
 20
1807.329744658035
 30
0.0
 11
1048.049747922134
 21
1803.504744658035
 31
0.0
  0
LINE
  5
5CB7
330
1F
100
AcDbEntity
  8
0
  6
Continuous
 62
     7
100
AcDbLine
 10
1048.083747922134
 20
1807.867744658035
 30
0.0
 11
1048.724747922135
 21
1807.329744658035
 31
0.0
  0
LINE
  5
5CB8
330
1F
100
AcDbEntity
  8
0
  6
Continuous
 62
     7
100
AcDbLine
 10
1040.553747922134
 20
1800.413744658035
 30
0.0
 11
1045.588747922134
 21
1803.938744658035
 31
0.0
  0
LINE
  5
5CB9
330
1F
100
AcDbEntity
  8
0
  6
Continuous
 62
     7
100
AcDbLine
 10
1048.049747922134
 20
1803.504744658035
 30
0.0
 11
1045.588747922134
 21
1803.938744658035
 31
0.0
  0
LINE
  5
5CBA
330
1F
100
AcDbEntity
  8
0
  6
Continuous
 62
     7
100
AcDbLine
 10
1055.077747922134
 20
1810.388744658035
 30
0.0
 11
1054.434747922134
 21
1806.745744658035
 31
0.0
  0
LINE
  5
5CBB
330
1F
100
AcDbEntity
  8
0
  6
Continuous
 62
     7
100
AcDbLine
 10
1053.648747922135
 20
1806.459744658036
 30
0.0
 11
1052.974747922135
 21
1802.636744658035
 31
0.0
  0
LINE
  5
5CBC
330
1F
100
AcDbEntity
  8
0
  6
Continuous
 62
     7
100
AcDbLine
 10
1054.434747922134
 20
1806.745744658035
 30
0.0
 11
1053.648747922135
 21
1806.459744658036
 31
0.0
  0
LINE
  5
5CBD
330
1F
100
AcDbEntity
  8
0
  6
Continuous
 62
     7
100
AcDbLine
 10
1055.436747922135
 20
1802.202744658035
 30
0.0
 11
1052.974747922135
 21
1802.636744658035
 31
0.0
  0
LINE
  5
5CBE
330
1F
100
AcDbEntity
  8
0
  6
Continuous
 62
     7
100
AcDbLine
 10
1058.960747922135
 20
1797.168744658035
 30
0.0
 11
1055.436747922135
 21
1802.202744658035
 31
0.0
  0
TEXT
  5
5CBF
330
1F
100
AcDbEntity
  8
AM_5
100
AcDbText
 10
1108.660244972871
 20
1783.202043420098
 30
0.0
 40
1.6
  1
-0.043
 50
30.00000000000055
  7
China
100
AcDbText
  0
DIMENSION
  5
5CC0
330
1F
100
AcDbEntity
  8
AM_5
100
AcDbDimension
  2
*D11
 10
1116.299992483251
 20
1786.826747187745
 30
0.0
 11
1105.08489575617
 21
1780.351835771391
 31
0.0
 70
   161
  1
18h9
 71
     5
 42
18.00047001988878
  3
AM_ISO$0
100
AcDbAlignedDimension
 13
1092.732747922134
 23
1791.645744658035
 33
0.0
 14
1108.321689098495
 24
1800.645846542842
 34
0.0
  0
LINE
  5
5CC1
330
1F
100
AcDbEntity
  8
0
  6
Continuous
 62
     7
100
AcDbLine
 10
1115.249747922135
 20
1804.645744658035
 30
0.0
 11
1085.804747922135
 21
1787.645744658036
 31
0.0
  0
TEXT
  5
5CC2
330
1F
100
AcDbEntity
  8
AM_5
100
AcDbText
 10
1108.813244972871
 20
1786.105043420098
 30
0.0
 40
1.6
  1
0
 50
30.00000000000055
  7
China
100
AcDbText
  0
LINE
  5
5CC3
330
1F
100
AcDbEntity
  8
AM_7
100
AcDbLine
 10
1102.300747922134
 20
1805.829744658035
 30
0.0
 11
1091.266747922134
 21
1799.459744658036
 31
0.0
  0
CIRCLE
  5
5CC4
330
1F
100
AcDbEntity
  8
0
  6
Continuous
 62
     2
100
AcDbCircle
 10
1096.776747922135
 20
1802.640744658035
 30
0.0
 40
4.0
  0
CIRCLE
  5
5CC5
330
1F
100
AcDbEntity
  8
0
  6
Continuous
 62
     7
100
AcDbCircle
 10
1096.776747922135
 20
1802.641744658035
 30
0.0
 40
3.3235
  0
LINE
  5
5CC6
330
1F
100
AcDbEntity
  8
0
  6
Continuous
 62
     7
100
AcDbLine
 10
1203.276747922135
 20
1791.645744658035
 30
0.0
 11
1203.276747922135
 21
1787.645744658036
 31
0.0
  0
LINE
  5
5CC7
330
1F
100
AcDbEntity
  8
0
  6
Continuous
 62
     7
100
AcDbLine
 10
1185.276747922134
 20
1791.645744658035
 30
0.0
 11
1203.276747922135
 21
1791.645744658035
 31
0.0
  0
LINE
  5
5CC8
330
1F
100
AcDbEntity
  8
0
  6
Continuous
 62
     7
100
AcDbLine
 10
1185.276747922134
 20
1800.650744658035
 30
0.0
 11
1203.276747922135
 21
1800.650744658035
 31
0.0
  0
LINE
  5
5CC9
330
1F
100
AcDbEntity
  8
AM_5
100
AcDbLine
 10
943.9525479221346
 20
1962.289744658036
 30
0.0
 11
1004.604747922134
 21
1962.289744658036
 31
0.0
  0
LINE
  5
5CCA
330
1F
100
AcDbEntity
  8
AM_5
100
AcDbLine
 10
943.9525479221346
 20
1952.289744658035
 30
0.0
 11
1010.377747922134
 21
1952.289744658035
 31
0.0
  0
TEXT
  5
5CCB
330
1F
100
AcDbEntity
  8
AM_5
100
AcDbText
 10
945.8517479221347
 20
1947.517744658036
 30
0.0
 40
3.2
  1
(Mounting hole)
  7
China
100
AcDbText
  0
TEXT
  5
5CCC
330
1F
100
AcDbEntity
  8
AM_5
100
AcDbText
 10
945.9501479221348
 20
1953.700744658036
 30
0.0
 40
3.2
  1
P.C.D.118
  7
China
100
AcDbText
  0
TEXT
  5
5CCD
330
1F
100
AcDbEntity
  8
AM_5
100
AcDbText
 10
945.1857479221347
 20
1963.858744658035
 30
0.0
 40
3.2
  1
3-
  7
China
100
AcDbText
  0
LINE
  5
5CCE
330
1F
100
AcDbEntity
  8
0
  6
Continuous
 62
     7
100
AcDbLine
 10
1191.276747922135
 20
1995.127744658035
 30
0.0
 11
1191.276747922135
 21
2007.084744658035
 31
0.0
  0
LINE
  5
5CCF
330
1F
100
AcDbEntity
  8
0
  6
Continuous
 62
     7
100
AcDbLine
 10
1195.895747922135
 20
1994.981744658035
 30
0.0
 11
1195.895747922135
 21
2007.084744658035
 31
0.0
  0
LINE
  5
5CD0
330
1F
100
AcDbEntity
  8
0
  6
Continuous
 62
     7
100
AcDbLine
 10
1195.895747922135
 20
1994.981744658035
 30
0.0
 11
1191.276747922135
 21
2002.042744658035
 31
0.0
  0
LINE
  5
5CD1
330
1F
100
AcDbEntity
  8
0
  6
Continuous
 62
     7
100
AcDbLine
 10
1092.733747922134
 20
1936.611744658035
 30
0.0
 11
1066.733747922135
 21
1891.578744658035
 31
0.0
  0
LINE
  5
5CD2
330
1F
100
AcDbEntity
  8
AM_7
100
AcDbLine
 10
1090.800747922134
 20
1902.509744658035
 30
0.0
 11
1079.814747922134
 21
1908.852744658035
 31
0.0
  0
CIRCLE
  5
5CD3
330
1F
100
AcDbEntity
  8
0
  6
Continuous
 62
     2
100
AcDbCircle
 10
1085.276747922135
 20
1905.697744658035
 30
0.0
 40
4.0
  0
ARC
  5
5CD4
330
1F
100
AcDbEntity
  8
0
  6
Continuous
 62
     7
100
AcDbCircle
 10
1061.276747922134
 20
1864.128744658035
 30
0.0
 40
67.0
100
AcDbArc
 50
67.71919999999912
 51
172.2800000000038
  0
CIRCLE
  5
5CD5
330
1F
100
AcDbEntity
  8
0
  6
Continuous
 62
     7
100
AcDbCircle
 10
1085.277747922134
 20
1905.698744658035
 30
0.0
 40
3.3235
  0
LINE
  5
5CD6
330
1F
100
AcDbEntity
  8
AM_7
100
AcDbLine
 10
979.3272479221348
 20
1864.128744658035
 30
0.0
 11
1134.015747922135
 21
1864.128744658035
 31
0.0
  0
LINE
  5
5CD7
330
1F
100
AcDbEntity
  8
0
  6
Continuous
 62
     7
100
AcDbLine
 10
1096.821747922135
 20
1820.564744658035
 30
0.0
 11
1081.232747922134
 21
1811.564744658036
 31
0.0
  0
LINE
  5
5CD8
330
1F
100
AcDbEntity
  8
0
  6
Continuous
 62
     7
100
AcDbLine
 10
1089.321747922135
 20
1833.554744658035
 30
0.0
 11
1073.732747922135
 21
1824.554744658035
 31
0.0
  0
LINE
  5
5CD9
330
1F
100
AcDbEntity
  8
AM_7
100
AcDbLine
 10
1090.800747922134
 20
1825.748744658035
 30
0.0
 11
1079.814747922134
 21
1819.405744658035
 31
0.0
  0
CIRCLE
  5
5CDA
330
1F
100
AcDbEntity
  8
0
  6
Continuous
 62
     2
100
AcDbCircle
 10
1085.276747922135
 20
1822.559744658035
 30
0.0
 40
4.0
  0
CIRCLE
  5
5CDB
330
1F
100
AcDbEntity
  8
0
  6
Continuous
 62
     7
100
AcDbCircle
 10
1085.276747922135
 20
1822.559744658035
 30
0.0
 40
3.3235
  0
LINE
  5
5CDC
330
1F
100
AcDbEntity
  8
0
  6
Continuous
 62
     7
100
AcDbLine
 10
1066.733747922135
 20
1836.678744658035
 30
0.0
 11
1082.321747922135
 21
1845.678744658035
 31
0.0
  0
LINE
  5
5CDD
330
1F
100
AcDbEntity
  8
0
  6
Continuous
 62
     7
100
AcDbLine
 10
1089.322747922135
 20
1894.702744658036
 30
0.0
 11
1073.733747922134
 21
1903.702744658035
 31
0.0
  0
LINE
  5
5CDE
330
1F
100
AcDbEntity
  8
0
  6
Continuous
 62
     7
100
AcDbLine
 10
1066.733747922135
 20
1891.578744658035
 30
0.0
 11
1082.322747922135
 21
1882.578744658036
 31
0.0
  0
ARC
  5
5CDF
330
1F
100
AcDbEntity
  8
0
  6
Continuous
 62
     7
100
AcDbCircle
 10
1061.276747922134
 20
1864.128744658035
 30
0.0
 40
59.0
100
AcDbArc
 50
68.77330000000269
 51
113.1980000000039
  0
LINE
  5
5CE0
330
1F
100
AcDbEntity
  8
AM_5
100
AcDbLine
 10
1075.604747922135
 20
1962.289744658036
 30
0.0
 11
1094.777747922135
 21
1929.081744658035
 31
0.0
  0
LINE
  5
5CE1
330
1F
100
AcDbEntity
  8
0
  6
Continuous
 62
     7
100
AcDbLine
 10
1096.822747922135
 20
1907.693744658035
 30
0.0
 11
1081.233747922135
 21
1916.693744658035
 31
0.0
  0
LINE
  5
5CE2
330
1F
100
AcDbEntity
  8
0
  6
Continuous
 62
     7
100
AcDbLine
 10
1085.805747922135
 20
1940.611744658035
 30
0.0
 11
1078.959747922135
 21
1928.753744658035
 31
0.0
  0
ARC
  5
5CE3
330
1F
100
AcDbEntity
  8
0
  6
Continuous
 62
     7
100
AcDbCircle
 10
1061.276747922134
 20
1864.128744658035
 30
0.0
 40
35.0
100
AcDbArc
 50
74.89900000000118
 51
165.0990000000011
  0
ARC
  5
5CE4
330
1F
100
AcDbEntity
  8
0
  6
Continuous
 62
     7
100
AcDbCircle
 10
1061.276747922134
 20
1864.128744658035
 30
0.0
 40
59.0
100
AcDbArc
 50
126.8020000000008
 51
171.2259999999928
  0
LINE
  5
5CE5
330
1F
100
AcDbEntity
  8
0
  6
Continuous
 62
     7
100
AcDbLine
 10
982.7828479221349
 20
1855.128744658035
 30
0.0
 11
1034.777747922134
 21
1855.128744658035
 31
0.0
  0
LINE
  5
5CE6
330
1F
100
AcDbEntity
  8
0
  6
Continuous
 62
     7
100
AcDbLine
 10
1017.839747922135
 20
1831.889744658035
 30
0.0
 11
1015.005747922135
 21
1829.511744658035
 31
0.0
  0
LINE
  5
5CE7
330
1F
100
AcDbEntity
  8
0
  6
Continuous
 62
     7
100
AcDbLine
 10
1018.364747922134
 20
1824.856744658035
 30
0.0
 11
1015.391747922135
 21
1822.361744658035
 31
0.0
  0
LINE
  5
5CE8
330
1F
100
AcDbEntity
  8
0
  6
Continuous
 62
     7
100
AcDbLine
 10
1015.391747922135
 20
1822.361744658035
 30
0.0
 11
1016.998747922134
 21
1820.446744658035
 31
0.0
  0
LINE
  5
5CE9
330
1F
100
AcDbEntity
  8
0
  6
Continuous
 62
     7
100
AcDbLine
 10
1016.998747922134
 20
1820.446744658035
 30
0.0
 11
1016.462747922135
 21
1814.321744658035
 31
0.0
  0
LINE
  5
5CEA
330
1F
100
AcDbEntity
  8
0
  6
Continuous
 62
     7
100
AcDbLine
 10
982.7828479221349
 20
1873.128744658035
 30
0.0
 11
1034.777747922134
 21
1873.128744658035
 31
0.0
  0
CIRCLE
  5
5CEB
330
1F
100
AcDbEntity
  8
0
  6
Continuous
 62
     2
100
AcDbCircle
 10
1013.281747922134
 20
1864.128744658035
 30
0.0
 40
4.0
  0
CIRCLE
  5
5CEC
330
1F
100
AcDbEntity
  8
0
  6
Continuous
 62
     7
100
AcDbCircle
 10
1013.282747922135
 20
1864.128744658035
 30
0.0
 40
3.3235
  0
LINE
  5
5CED
330
1F
100
AcDbEntity
  8
0
  6
Continuous
 62
     7
100
AcDbLine
 10
982.7828479221349
 20
1881.128744658035
 30
0.0
 11
982.7828479221349
 21
1847.128744658035
 31
0.0
  0
LINE
  5
5CEE
330
1F
100
AcDbEntity
  8
0
  6
Continuous
 62
     7
100
AcDbLine
 10
997.7828479221347
 20
1873.128744658035
 30
0.0
 11
997.7828479221347
 21
1855.128744658035
 31
0.0
  0
LINE
  5
5CEF
330
1F
100
AcDbEntity
  8
0
  6
Continuous
 62
     7
100
AcDbLine
 10
1005.782747922134
 20
1873.128744658035
 30
0.0
 11
1005.782747922134
 21
1855.128744658035
 31
0.0
  0
LINE
  5
5CF0
330
1F
100
AcDbEntity
  8
0
  6
Continuous
 62
     7
100
AcDbLine
 10
982.7828479221349
 20
1847.128744658035
 30
0.0
 11
996.4693479221347
 21
1847.128744658035
 31
0.0
  0
ARC
  5
5CF1
330
1F
100
AcDbEntity
  8
0
  6
Continuous
 62
     7
100
AcDbCircle
 10
1061.276747922134
 20
1864.128744658035
 30
0.0
 40
59.0
100
AcDbArc
 50
188.7739999999943
 51
217.5709999999962
  0
ARC
  5
5CF2
330
1F
100
AcDbEntity
  8
0
  6
Continuous
 62
     7
100
AcDbCircle
 10
1061.276747922134
 20
1864.128744658035
 30
0.0
 40
67.0
100
AcDbArc
 50
187.7199999999961
 51
211.9809999999968
  0
LINE
  5
5CF3
330
1F
100
AcDbEntity
  8
0
  6
Continuous
 62
     7
100
AcDbLine
 10
1015.005747922135
 20
1829.511744658035
 30
0.0
 11
1015.150747922135
 21
1828.686744658035
 31
0.0
  0
LINE
  5
5CF4
330
1F
100
AcDbEntity
  8
0
  6
Continuous
 62
     7
100
AcDbLine
 10
1010.570747922135
 20
1828.106744658035
 30
0.0
 11
1012.177747922134
 21
1826.191744658035
 31
0.0
  0
LINE
  5
5CF5
330
1F
100
AcDbEntity
  8
0
  6
Continuous
 62
     7
100
AcDbLine
 10
1010.570747922135
 20
1828.106744658035
 30
0.0
 11
1004.445747922135
 21
1828.642744658035
 31
0.0
  0
LINE
  5
5CF6
330
1F
100
AcDbEntity
  8
0
  6
Continuous
 62
     7
100
AcDbLine
 10
1015.150747922135
 20
1828.686744658035
 30
0.0
 11
1012.177747922134
 21
1826.191744658035
 31
0.0
  0
LINE
  5
5CF7
330
1F
100
AcDbEntity
  8
0
  6
Continuous
 62
     7
100
AcDbLine
 10
982.7828479221349
 20
1881.128744658035
 30
0.0
 11
996.4693479221347
 21
1881.128744658035
 31
0.0
  0
CIRCLE
  5
5CF8
330
1F
100
AcDbEntity
  8
0
  6
Continuous
 62
     2
100
AcDbCircle
 10
990.2816479221348
 20
1864.128744658035
 30
0.0
 40
4.0
  0
CIRCLE
  5
5CF9
330
1F
100
AcDbEntity
  8
0
  6
Continuous
 62
     7
100
AcDbCircle
 10
990.2826479221348
 20
1864.128744658035
 30
0.0
 40
3.3235
  0
LINE
  5
5CFA
330
1F
100
AcDbEntity
  8
AM_7
100
AcDbLine
 10
990.2828479221348
 20
1870.506744658035
 30
0.0
 11
990.2828479221348
 21
1857.820744658035
 31
0.0
  0
LINE
  5
5CFB
330
1F
100
AcDbEntity
  8
AM_7
100
AcDbLine
 10
1013.282747922135
 20
1870.506744658035
 30
0.0
 11
1013.282747922135
 21
1857.820744658035
 31
0.0
  0
LINE
  5
5CFC
330
1F
100
AcDbEntity
  8
0
  6
Continuous
 62
     7
100
AcDbLine
 10
1020.782747922134
 20
1873.128744658035
 30
0.0
 11
1020.782747922134
 21
1855.128744658035
 31
0.0
  0
LINE
  5
5CFD
330
1F
100
AcDbEntity
  8
0
  6
Continuous
 62
     7
100
AcDbLine
 10
1034.777747922134
 20
1873.128744658035
 30
0.0
 11
1034.777747922134
 21
1855.128744658035
 31
0.0
  0
ARC
  5
5CFE
330
1F
100
AcDbEntity
  8
0
  6
Continuous
 62
     7
100
AcDbCircle
 10
1061.276747922134
 20
1864.128744658035
 30
0.0
 40
35.0
100
AcDbArc
 50
194.9009999999988
 51
285.0999999999972
  0
LINE
  5
5CFF
330
1F
100
AcDbEntity
  8
0
  6
Continuous
 62
     7
100
AcDbLine
 10
1017.839747922135
 20
1831.889744658035
 30
0.0
 11
1021.985747922135
 21
1826.948744658035
 31
0.0
  0
LINE
  5
5D00
330
1F
100
AcDbEntity
  8
0
  6
Continuous
 62
     7
100
AcDbLine
 10
1021.985747922135
 20
1826.948744658035
 30
0.0
 11
1019.151747922135
 21
1824.570744658035
 31
0.0
  0
LINE
  5
5D01
330
1F
100
AcDbEntity
  8
0
  6
Continuous
 62
     7
100
AcDbLine
 10
1019.151747922135
 20
1824.570744658035
 30
0.0
 11
1018.364747922134
 21
1824.856744658035
 31
0.0
  0
ARC
  5
5D02
330
1F
100
AcDbEntity
  8
0
  6
Continuous
 62
     7
100
AcDbCircle
 10
1061.276747922134
 20
1864.128744658035
 30
0.0
 40
59.0
100
AcDbArc
 50
222.4289999999982
 51
233.1979999999992
  0
POINT
  5
5D03
330
1F
100
AcDbEntity
  8
0
100
AcDbPoint
 10
1061.276747922134
 20
1864.128744658035
 30
0.0
  0
LINE
  5
5D04
330
1F
100
AcDbEntity
  8
AM_5
100
AcDbLine
 10
1004.603747922135
 20
1962.289744658036
 30
0.0
 11
1029.526747922135
 21
1919.121744658035
 31
0.0
  0
TEXT
  5
5D05
330
1F
100
AcDbEntity
  8
AM_5
100
AcDbText
 10
954.7857479221347
 20
1963.858744658035
 30
0.0
 40
3.2
  1
9BORE14xDEPTH21
  7
China
100
AcDbText
  0
LINE
  5
5D06
330
1F
100
AcDbEntity
  8
AM_5
100
AcDbLine
 10
952.6044479221347
 20
1963.860744658035
 30
0.0
 11
953.7673479221346
 21
1967.055744658036
 31
0.0
  0
CIRCLE
  5
5D07
330
1F
100
AcDbEntity
  8
AM_5
100
AcDbCircle
 10
953.1858479221346
 20
1965.458744658035
 30
0.0
 40
0.9
  0
ARC
  5
5D08
330
1F
100
AcDbEntity
  8
0
  6
Continuous
 62
     7
100
AcDbCircle
 10
1031.776747922134
 20
1915.224744658035
 30
0.0
 40
7.0
100
AcDbArc
 50
210.0000000000005
 51
29.99990000000294
  0
CIRCLE
  5
5D09
330
1F
100
AcDbEntity
  8
0
  6
Continuous
 62
     7
100
AcDbCircle
 10
1031.776747922134
 20
1915.224744658035
 30
0.0
 40
4.5
  0
ARC
  5
5D0A
330
1F
100
AcDbEntity
  8
AM_7
100
AcDbCircle
 10
1061.276747922134
 20
1864.128744658035
 30
0.0
 40
59.0002
100
AcDbArc
 50
114.6030000000009
 51
125.6319999999968
  0
LINE
  5
5D0B
330
1F
100
AcDbEntity
  8
0
  6
Continuous
 62
     7
100
AcDbLine
 10
1025.715747922135
 20
1911.723744658035
 30
0.0
 11
1021.898747922135
 21
1918.334744658035
 31
0.0
  0
LINE
  5
5D0C
330
1F
100
AcDbEntity
  8
0
  6
Continuous
 62
     7
100
AcDbLine
 10
1037.839747922135
 20
1918.723744658035
 30
0.0
 11
1034.022747922135
 21
1925.334744658036
 31
0.0
  0
LINE
  5
5D0D
330
1F
100
AcDbEntity
  8
AM_5
100
AcDbLine
 10
1024.366747922135
 20
1962.289744658036
 30
0.0
 11
1075.604747922135
 21
1962.289744658036
 31
0.0
  0
TEXT
  5
5D0E
330
1F
100
AcDbEntity
  8
AM_5
100
AcDbText
 10
1039.939747922135
 20
1963.564744658035
 30
0.0
 40
3.2
  1
1.25DEPTH16
  7
China
100
AcDbText
  0
TEXT
  5
5D0F
330
1F
100
AcDbEntity
  8
AM_5
100
AcDbText
 10
1023.939747922135
 20
1963.564744658035
 30
0.0
 40
3.2
  1
6-M8
  7
China
100
AcDbText
  0
LINE
  5
5D10
330
1F
100
AcDbEntity
  8
AM_5
100
AcDbLine
 10
1037.439747922134
 20
1964.092744658035
 30
0.0
 11
1039.239747922135
 21
1966.237744658035
 31
0.0
  0
LINE
  5
5D11
330
1F
100
AcDbEntity
  8
AM_5
100
AcDbLine
 10
1037.439747922134
 20
1966.237744658035
 30
0.0
 11
1039.239747922135
 21
1964.092744658035
 31
0.0
  0
LINE
  5
5D12
330
1F
100
AcDbEntity
  8
0
  6
Continuous
 62
     7
100
AcDbLine
 10
1108.322747922135
 20
1927.611744658035
 30
0.0
 11
1082.322747922135
 21
1882.578744658036
 31
0.0
  0
ARC
  5
5D13
330
1F
100
AcDbEntity
  8
0
  6
Continuous
 62
     7
100
AcDbCircle
 10
1061.276747922134
 20
1864.128744658035
 30
0.0
 40
67.0
100
AcDbArc
 50
28.01539999999443
 51
52.2794000000033
  0
ARC
  5
5D14
330
1F
100
AcDbEntity
  8
0
  6
Continuous
 62
     7
100
AcDbCircle
 10
1061.276747922134
 20
1864.128744658035
 30
0.0
 40
59.0
100
AcDbArc
 50
22.42850000000071
 51
51.22479999999786
  0
LINE
  5
5D15
330
1F
100
AcDbEntity
  8
0
  6
Continuous
 62
     7
100
AcDbLine
 10
1191.276747922135
 20
1817.458744658035
 30
0.0
 11
1191.276747922135
 21
1910.798744658035
 31
0.0
  0
LINE
  5
5D16
330
1F
100
AcDbEntity
  8
0
  6
Continuous
 62
     7
100
AcDbLine
 10
1195.895747922135
 20
1917.126744658035
 30
0.0
 11
1195.895747922135
 21
1895.602744658035
 31
0.0
  0
LINE
  5
5D17
330
1F
100
AcDbEntity
  8
0
  6
Continuous
 62
     7
100
AcDbLine
 10
1185.276747922134
 20
1894.703744658036
 30
0.0
 11
1185.276747922134
 21
1936.611744658035
 31
0.0
  0
ARC
  5
5D18
330
1F
100
AcDbEntity
  8
0
  6
Continuous
 62
     7
100
AcDbCircle
 10
1061.276747922134
 20
1864.128744658035
 30
0.0
 40
67.0
100
AcDbArc
 50
348.0189999999948
 51
11.9843000000007
  0
ARC
  5
5D19
330
1F
100
AcDbEntity
  8
0
  6
Continuous
 62
     7
100
AcDbCircle
 10
1061.276747922134
 20
1864.128744658035
 30
0.0
 40
35.0
100
AcDbArc
 50
314.9019999999997
 51
45.09769999999901
  0
ARC
  5
5D1A
330
1F
100
AcDbEntity
  8
0
  6
Continuous
 62
     7
100
AcDbCircle
 10
1120.276747922135
 20
1864.128744658035
 30
0.0
 40
7.0
100
AcDbArc
 50
89.99990000000297
 51
270.0
  0
ARC
  5
5D1B
330
1F
100
AcDbEntity
  8
0
  6
Continuous
 62
     7
100
AcDbCircle
 10
1061.276747922134
 20
1864.128744658035
 30
0.0
 40
59.0
100
AcDbArc
 50
308.7749999999973
 51
337.574000000002
  0
LINE
  5
5D1C
330
1F
100
AcDbEntity
  8
0
  6
Continuous
 62
     7
100
AcDbLine
 10
1113.124747922134
 20
1848.691744658036
 30
0.0
 11
1116.603747922135
 21
1847.425744658035
 31
0.0
  0
LINE
  5
5D1D
330
1F
100
AcDbEntity
  8
0
  6
Continuous
 62
     7
100
AcDbLine
 10
1114.396747922135
 20
1841.365744658035
 30
0.0
 11
1115.036747922135
 21
1841.903744658035
 31
0.0
  0
LINE
  5
5D1E
330
1F
100
AcDbEntity
  8
0
  6
Continuous
 62
     7
100
AcDbLine
 10
1110.918747922134
 20
1842.631744658035
 30
0.0
 11
1113.124747922134
 21
1848.691744658036
 31
0.0
  0
LINE
  5
5D1F
330
1F
100
AcDbEntity
  8
0
  6
Continuous
 62
     7
100
AcDbLine
 10
1110.918747922134
 20
1842.631744658035
 30
0.0
 11
1114.395747922134
 21
1841.365744658035
 31
0.0
  0
POINT
  5
5D20
330
1F
100
AcDbEntity
  8
0
100
AcDbPoint
 10
1112.021747922135
 20
1845.661744658035
 30
0.0
  0
LINE
  5
5D21
330
1F
100
AcDbEntity
  8
0
  6
Continuous
 62
     7
100
AcDbLine
 10
1117.829747922134
 20
1838.226744658035
 30
0.0
 11
1120.425747922134
 21
1832.658744658035
 31
0.0
  0
LINE
  5
5D22
330
1F
100
AcDbEntity
  8
0
  6
Continuous
 62
     7
100
AcDbLine
 10
1120.276747922135
 20
1857.128744658035
 30
0.0
 11
1127.910747922135
 21
1857.128744658035
 31
0.0
  0
LINE
  5
5D23
330
1F
100
AcDbEntity
  8
0
  6
Continuous
 62
     7
100
AcDbLine
 10
1115.036747922135
 20
1841.903744658035
 30
0.0
 11
1118.684747922134
 21
1840.575744658035
 31
0.0
  0
LINE
  5
5D24
330
1F
100
AcDbEntity
  8
0
  6
Continuous
 62
     7
100
AcDbLine
 10
1116.748747922135
 20
1846.601744658035
 30
0.0
 11
1120.394747922135
 21
1845.274744658035
 31
0.0
  0
LINE
  5
5D25
330
1F
100
AcDbEntity
  8
0
  6
Continuous
 62
     7
100
AcDbLine
 10
1116.603747922135
 20
1847.425744658035
 30
0.0
 11
1116.748747922135
 21
1846.601744658035
 31
0.0
  0
LINE
  5
5D26
330
1F
100
AcDbEntity
  8
0
  6
Continuous
 62
     7
100
AcDbLine
 10
1117.829747922134
 20
1838.226744658035
 30
0.0
 11
1118.684747922134
 21
1840.575744658035
 31
0.0
  0
LINE
  5
5D27
330
1F
100
AcDbEntity
  8
0
  6
Continuous
 62
     7
100
AcDbLine
 10
1121.249747922135
 20
1847.623744658035
 30
0.0
 11
1126.816747922134
 21
1850.220744658036
 31
0.0
  0
LINE
  5
5D28
330
1F
100
AcDbEntity
  8
0
  6
Continuous
 62
     7
100
AcDbLine
 10
1120.394747922135
 20
1845.274744658035
 30
0.0
 11
1121.249747922135
 21
1847.623744658035
 31
0.0
  0
ARC
  5
5D29
330
1F
100
AcDbEntity
  8
0
  6
Continuous
 62
     7
100
AcDbCircle
 10
1061.276747922134
 20
1864.128744658035
 30
0.0
 40
59.0
100
AcDbArc
 50
342.4310000000048
 51
353.1979999999979
  0
LINE
  5
5D2A
330
1F
100
AcDbEntity
  8
0
  6
Continuous
 62
     7
100
AcDbLine
 10
1113.125747922135
 20
1879.567744658035
 30
0.0
 11
1116.602747922135
 21
1880.833744658035
 31
0.0
  0
LINE
  5
5D2B
330
1F
100
AcDbEntity
  8
0
  6
Continuous
 62
     7
100
AcDbLine
 10
1114.396747922135
 20
1886.894744658036
 30
0.0
 11
1115.038747922135
 21
1886.356744658035
 31
0.0
  0
LINE
  5
5D2C
330
1F
100
AcDbEntity
  8
0
  6
Continuous
 62
     7
100
AcDbLine
 10
1110.919747922135
 20
1885.629744658035
 30
0.0
 11
1113.125747922135
 21
1879.567744658035
 31
0.0
  0
LINE
  5
5D2D
330
1F
100
AcDbEntity
  8
0
  6
Continuous
 62
     7
100
AcDbLine
 10
1110.919747922135
 20
1885.628744658035
 30
0.0
 11
1114.396747922135
 21
1886.894744658036
 31
0.0
  0
POINT
  5
5D2E
330
1F
100
AcDbEntity
  8
0
100
AcDbPoint
 10
1112.022747922135
 20
1882.598744658035
 30
0.0
  0
LINE
  5
5D2F
330
1F
100
AcDbEntity
  8
0
  6
Continuous
 62
     7
100
AcDbLine
 10
1120.395747922134
 20
1882.985744658035
 30
0.0
 11
1121.250747922134
 21
1880.636744658035
 31
0.0
  0
ARC
  5
5D30
330
1F
100
AcDbEntity
  8
0
  6
Continuous
 62
     7
100
AcDbCircle
 10
1061.276747922134
 20
1864.128744658035
 30
0.0
 40
59.0
100
AcDbArc
 50
6.8018199999946
 51
17.57129999999897
  0
LINE
  5
5D31
330
1F
100
AcDbEntity
  8
0
  6
Continuous
 62
     7
100
AcDbLine
 10
1120.277747922135
 20
1871.128744658035
 30
0.0
 11
1127.909747922134
 21
1871.128744658035
 31
0.0
  0
LINE
  5
5D32
330
1F
100
AcDbEntity
  8
0
  6
Continuous
 62
     7
100
AcDbLine
 10
1126.816747922134
 20
1878.040744658035
 30
0.0
 11
1121.250747922134
 21
1880.636744658035
 31
0.0
  0
CIRCLE
  5
5D33
330
1F
100
AcDbEntity
  8
0
  6
Continuous
 62
     7
100
AcDbCircle
 10
1120.276747922135
 20
1864.128744658035
 30
0.0
 40
4.5
  0
ARC
  5
5D34
330
1F
100
AcDbEntity
  8
AM_7
100
AcDbCircle
 10
1061.276747922134
 20
1864.128744658035
 30
0.0
 40
59.0002
100
AcDbArc
 50
354.4010000000017
 51
5.655759999995564
  0
LINE
  5
5D35
330
1F
100
AcDbEntity
  8
0
  6
Continuous
 62
     7
100
AcDbLine
 10
1115.038747922135
 20
1886.356744658035
 30
0.0
 11
1118.685747922135
 21
1887.683744658035
 31
0.0
  0
LINE
  5
5D36
330
1F
100
AcDbEntity
  8
0
  6
Continuous
 62
     7
100
AcDbLine
 10
1116.747747922135
 20
1881.657744658035
 30
0.0
 11
1120.395747922134
 21
1882.985744658035
 31
0.0
  0
LINE
  5
5D37
330
1F
100
AcDbEntity
  8
0
  6
Continuous
 62
     7
100
AcDbLine
 10
1116.602747922135
 20
1880.833744658035
 30
0.0
 11
1116.747747922135
 21
1881.657744658035
 31
0.0
  0
LINE
  5
5D38
330
1F
100
AcDbEntity
  8
0
  6
Continuous
 62
     7
100
AcDbLine
 10
1117.830747922135
 20
1890.033744658035
 30
0.0
 11
1118.685747922135
 21
1887.683744658035
 31
0.0
  0
LINE
  5
5D39
330
1F
100
AcDbEntity
  8
0
  6
Continuous
 62
     7
100
AcDbLine
 10
1120.425747922134
 20
1895.599744658035
 30
0.0
 11
1117.830747922135
 21
1890.033744658035
 31
0.0
  0
LINE
  5
5D3A
330
1F
100
AcDbEntity
  8
0
  6
Continuous
 62
     7
100
AcDbLine
 10
1185.276747922134
 20
1873.128744658035
 30
0.0
 11
1185.276747922134
 21
1855.128744658035
 31
0.0
  0
LINE
  5
5D3B
330
1F
100
AcDbEntity
  8
0
  6
Continuous
 62
     7
100
AcDbLine
 10
1212.276747922135
 20
1857.128744658035
 30
0.0
 11
1212.276747922135
 21
1871.128744658035
 31
0.0
  0
LINE
  5
5D3C
330
1F
100
AcDbEntity
  8
0
  6
Continuous
 62
     7
100
AcDbLine
 10
1191.276747922135
 20
1857.964744658035
 30
0.0
 11
1195.895747922135
 21
1857.128744658035
 31
0.0
  0
LINE
  5
5D3D
330
1F
100
AcDbEntity
  8
0
  6
Continuous
 62
     7
100
AcDbLine
 10
1195.895747922135
 20
1832.657744658035
 30
0.0
 11
1191.276747922135
 21
1836.415744658035
 31
0.0
  0
LINE
  5
5D3E
330
1F
100
AcDbEntity
  8
0
  6
Continuous
 62
     7
100
AcDbLine
 10
1195.895747922135
 20
1811.130744658035
 30
0.0
 11
1203.276747922135
 21
1811.130744658035
 31
0.0
  0
LINE
  5
5D3F
330
1F
100
AcDbEntity
  8
0
  6
Continuous
 62
     7
100
AcDbLine
 10
1185.276747922134
 20
1833.553744658035
 30
0.0
 11
1191.276747922135
 21
1833.553744658035
 31
0.0
  0
LINE
  5
5D40
330
1F
100
AcDbEntity
  8
0
  6
Continuous
 62
     7
100
AcDbLine
 10
1189.276747922135
 20
1820.568744658035
 30
0.0
 11
1189.276747922135
 21
1813.640744658035
 31
0.0
  0
LINE
  5
5D41
330
1F
100
AcDbEntity
  8
0
  6
Continuous
 62
     7
100
AcDbLine
 10
1195.895747922135
 20
1811.130744658035
 30
0.0
 11
1195.895747922135
 21
1832.657744658035
 31
0.0
  0
LINE
  5
5D42
330
1F
100
AcDbEntity
  8
0
  6
Continuous
 62
     7
100
AcDbLine
 10
1195.895747922135
 20
1811.130744658035
 30
0.0
 11
1191.276747922135
 21
1817.458744658035
 31
0.0
  0
LINE
  5
5D43
330
1F
100
AcDbEntity
  8
0
  6
Continuous
 62
     7
100
AcDbLine
 10
1185.276747922134
 20
1813.640744658035
 30
0.0
 11
1189.276747922135
 21
1813.640744658035
 31
0.0
  0
LINE
  5
5D44
330
1F
100
AcDbEntity
  8
0
  6
Continuous
 62
     7
100
AcDbLine
 10
1185.276747922134
 20
1820.568744658035
 30
0.0
 11
1189.276747922135
 21
1820.568744658035
 31
0.0
  0
LINE
  5
5D45
330
1F
100
AcDbEntity
  8
0
  6
Continuous
 62
     7
100
AcDbLine
 10
1195.895747922135
 20
1857.128744658035
 30
0.0
 11
1212.276747922135
 21
1857.128744658035
 31
0.0
  0
LINE
  5
5D46
330
1F
100
AcDbEntity
  8
0
  6
Continuous
 62
     7
100
AcDbLine
 10
1185.276747922134
 20
1855.128744658035
 30
0.0
 11
1191.276747922135
 21
1855.128744658035
 31
0.0
  0
LINE
  5
5D47
330
1F
100
AcDbEntity
  8
0
  6
Continuous
 62
     7
100
AcDbLine
 10
1195.895747922135
 20
1850.221744658036
 30
0.0
 11
1195.895747922135
 21
1857.128744658035
 31
0.0
  0
LINE
  5
5D48
330
1F
100
AcDbEntity
  8
0
  6
Continuous
 62
     7
100
AcDbLine
 10
1191.276747922135
 20
1851.881744658035
 30
0.0
 11
1195.895747922135
 21
1850.221744658036
 31
0.0
  0
LINE
  5
5D49
330
1F
100
AcDbEntity
  8
0
  6
Continuous
 62
     7
100
AcDbLine
 10
1195.895747922135
 20
1871.128744658035
 30
0.0
 11
1212.276747922135
 21
1871.128744658035
 31
0.0
  0
LINE
  5
5D4A
330
1F
100
AcDbEntity
  8
0
  6
Continuous
 62
     7
100
AcDbLine
 10
1185.276747922134
 20
1873.128744658035
 30
0.0
 11
1191.276747922135
 21
1873.128744658035
 31
0.0
  0
LINE
  5
5D4B
330
1F
100
AcDbEntity
  8
0
  6
Continuous
 62
     7
100
AcDbLine
 10
1195.895747922135
 20
1878.039744658035
 30
0.0
 11
1195.895747922135
 21
1871.128744658035
 31
0.0
  0
LINE
  5
5D4C
330
1F
100
AcDbEntity
  8
0
  6
Continuous
 62
     7
100
AcDbLine
 10
1191.276747922135
 20
1870.292744658035
 30
0.0
 11
1195.895747922135
 21
1871.128744658035
 31
0.0
  0
LINE
  5
5D4D
330
1F
100
AcDbEntity
  8
0
  6
Continuous
 62
     7
100
AcDbLine
 10
1195.895747922135
 20
1878.039744658035
 30
0.0
 11
1191.276747922135
 21
1876.378744658035
 31
0.0
  0
LINE
  5
5D4E
330
1F
100
AcDbEntity
  8
0
  6
Continuous
 62
     7
100
AcDbLine
 10
1185.276747922134
 20
1894.703744658036
 30
0.0
 11
1191.276747922135
 21
1894.703744658036
 31
0.0
  0
LINE
  5
5D4F
330
1F
100
AcDbEntity
  8
0
  6
Continuous
 62
     7
100
AcDbLine
 10
1191.276747922135
 20
1891.844744658035
 30
0.0
 11
1195.895747922135
 21
1895.602744658035
 31
0.0
  0
LINE
  5
5D50
330
1F
100
AcDbEntity
  8
0
  6
Continuous
 62
     7
100
AcDbLine
 10
1115.250747922134
 20
1923.611744658035
 30
0.0
 11
1085.805747922135
 21
1940.611744658035
 31
0.0
  0
LINE
  5
5D51
330
1F
100
AcDbEntity
  8
0
  6
Continuous
 62
     7
100
AcDbLine
 10
1115.250747922134
 20
1923.611744658035
 30
0.0
 11
1108.403747922134
 21
1911.752744658035
 31
0.0
  0
LINE
  5
5D52
330
1F
100
AcDbEntity
  8
AM_7
100
AcDbLine
 10
1102.300747922134
 20
1922.428744658035
 30
0.0
 11
1091.267747922135
 21
1928.798744658035
 31
0.0
  0
CIRCLE
  5
5D53
330
1F
100
AcDbEntity
  8
0
  6
Continuous
 62
     2
100
AcDbCircle
 10
1096.776747922135
 20
1925.616744658035
 30
0.0
 40
4.0
  0
CIRCLE
  5
5D54
330
1F
100
AcDbEntity
  8
0
  6
Continuous
 62
     7
100
AcDbCircle
 10
1096.777747922135
 20
1925.616744658035
 30
0.0
 40
3.3235
  0
LINE
  5
5D55
330
1F
100
AcDbEntity
  8
0
  6
Continuous
 62
     7
100
AcDbLine
 10
1100.822747922135
 20
1914.621744658035
 30
0.0
 11
1085.233747922134
 21
1923.621744658035
 31
0.0
  0
LINE
  5
5D56
330
1F
100
AcDbEntity
  8
0
  6
Continuous
 62
     7
100
AcDbLine
 10
1203.276747922135
 20
1911.753744658035
 30
0.0
 11
1203.276747922135
 21
1927.606744658035
 31
0.0
  0
LINE
  5
5D57
330
1F
100
AcDbEntity
  8
0
  6
Continuous
 62
     7
100
AcDbLine
 10
1195.895747922135
 20
1917.126744658035
 30
0.0
 11
1203.276747922135
 21
1917.126744658035
 31
0.0
  0
LINE
  5
5D58
330
1F
100
AcDbEntity
  8
0
  6
Continuous
 62
     7
100
AcDbLine
 10
1189.276747922135
 20
1907.688744658035
 30
0.0
 11
1189.276747922135
 21
1914.616744658036
 31
0.0
  0
LINE
  5
5D59
330
1F
100
AcDbEntity
  8
0
  6
Continuous
 62
     7
100
AcDbLine
 10
1195.895747922135
 20
1917.126744658035
 30
0.0
 11
1191.276747922135
 21
1910.798744658035
 31
0.0
  0
LINE
  5
5D5A
330
1F
100
AcDbEntity
  8
0
  6
Continuous
 62
     7
100
AcDbLine
 10
1185.276747922134
 20
1914.616744658036
 30
0.0
 11
1189.276747922135
 21
1914.616744658036
 31
0.0
  0
LINE
  5
5D5B
330
1F
100
AcDbEntity
  8
0
  6
Continuous
 62
     7
100
AcDbLine
 10
1185.276747922134
 20
1907.688744658035
 30
0.0
 11
1189.276747922135
 21
1907.688744658035
 31
0.0
  0
LINE
  5
5D5C
330
1F
100
AcDbEntity
  8
0
  6
Continuous
 62
     7
100
AcDbLine
 10
1185.276747922134
 20
1936.611744658035
 30
0.0
 11
1203.276747922135
 21
1936.611744658035
 31
0.0
  0
LINE
  5
5D5D
330
1F
100
AcDbEntity
  8
0
  6
Continuous
 62
     7
100
AcDbLine
 10
1185.276747922134
 20
1927.606744658035
 30
0.0
 11
1203.276747922135
 21
1927.606744658035
 31
0.0
  0
LINE
  5
5D5E
330
1F
100
AcDbEntity
  8
0
  6
Continuous
 62
     7
100
AcDbLine
 10
1203.276747922135
 20
1936.611744658035
 30
0.0
 11
1203.276747922135
 21
1940.611744658035
 31
0.0
  0
LINE
  5
5D5F
330
1F
100
AcDbEntity
  8
0
  6
Continuous
 62
     7
100
AcDbLine
 10
1195.895747922135
 20
1987.128744658035
 30
0.0
 11
1195.895747922135
 21
1988.588744658035
 31
0.0
  0
LINE
  5
5D60
330
1F
100
AcDbEntity
  8
0
  6
Continuous
 62
     7
100
AcDbLine
 10
1191.276747922135
 20
1995.127744658035
 30
0.0
 11
1195.895747922135
 21
1987.128744658035
 31
0.0
  0
LINE
  5
5D61
330
1F
100
AcDbEntity
  8
0
  6
Continuous
 62
     7
100
AcDbLine
 10
1195.895747922135
 20
1988.588744658035
 30
0.0
 11
1191.276747922135
 21
1996.412744658035
 31
0.0
  0
DIMENSION
  5
5D62
330
1F
100
AcDbEntity
  8
AM_5
100
AcDbDimension
  2
*D12
 10
1159.827554181944
 20
2054.128744658036
 30
0.0
 11
1156.527554181943
 21
2074.378744658036
 31
0.0
 70
    32
 71
     5
 42
40.49999999999999
  3
AM_ISO$0
100
AcDbAlignedDimension
 13
1185.276747922134
 23
2094.628744658035
 33
0.0
 14
1179.801747922135
 24
2054.128744658036
 34
0.0
 50
90.0
100
AcDbRotatedDimension
  0
LINE
  5
5D63
330
1F
100
AcDbEntity
  8
0
  6
Continuous
 62
     7
100
AcDbLine
 10
1212.276747922135
 20
2081.382744658036
 30
0.0
 11
1212.276747922135
 21
2093.507744658035
 31
0.0
  0
LINE
  5
5D64
330
1F
100
AcDbEntity
  8
0
  6
Continuous
 62
     7
100
AcDbLine
 10
1191.276747922135
 20
2031.759744658035
 30
0.0
 11
1191.276747922135
 21
2112.593744658036
 31
0.0
  0
LINE
  5
5D65
330
1F
100
AcDbEntity
  8
0
  6
Continuous
 62
     7
100
AcDbLine
 10
1195.895747922135
 20
2093.507744658035
 30
0.0
 11
1191.276747922135
 21
2088.805744658035
 31
0.0
  0
LINE
  5
5D66
330
1F
100
AcDbEntity
  8
0
  6
Continuous
 62
     7
100
AcDbLine
 10
1195.895747922135
 20
2028.727744658036
 30
0.0
 11
1195.895747922135
 21
2081.382744658036
 31
0.0
  0
LINE
  5
5D67
330
1F
100
AcDbEntity
  8
0
  6
Continuous
 62
     7
100
AcDbLine
 10
1185.276747922134
 20
2007.084744658035
 30
0.0
 11
1185.276747922134
 21
2041.673744658035
 31
0.0
  0
LINE
  5
5D68
330
1F
100
AcDbEntity
  8
0
  6
Continuous
 62
     7
100
AcDbLine
 10
1185.276747922134
 20
2007.084744658035
 30
0.0
 11
1203.276747922135
 21
2007.084744658035
 31
0.0
  0
LINE
  5
5D69
330
1F
100
AcDbEntity
  8
0
  6
Continuous
 62
     7
100
AcDbLine
 10
1203.276747922135
 20
2000.156744658036
 30
0.0
 11
1203.276747922135
 21
2007.084744658035
 31
0.0
  0
LINE
  5
5D6A
330
1F
100
AcDbEntity
  8
0
  6
Continuous
 62
     7
100
AcDbLine
 10
1185.276747922134
 20
2022.673744658035
 30
0.0
 11
1203.276747922135
 21
2022.673744658035
 31
0.0
  0
LINE
  5
5D6B
330
1F
100
AcDbEntity
  8
0
  6
Continuous
 62
     7
100
AcDbLine
 10
1195.895747922135
 20
2028.727744658036
 30
0.0
 11
1203.276747922135
 21
2028.727744658036
 31
0.0
  0
LINE
  5
5D6C
330
1F
100
AcDbEntity
  8
0
  6
Continuous
 62
     7
100
AcDbLine
 10
1189.276747922135
 20
2030.173744658036
 30
0.0
 11
1189.276747922135
 21
2034.173744658036
 31
0.0
  0
LINE
  5
5D6D
330
1F
100
AcDbEntity
  8
0
  6
Continuous
 62
     7
100
AcDbLine
 10
1185.276747922134
 20
2041.673744658035
 30
0.0
 11
1191.276747922135
 21
2041.673744658035
 31
0.0
  0
LINE
  5
5D6E
330
1F
100
AcDbEntity
  8
0
  6
Continuous
 62
     7
100
AcDbLine
 10
1185.276747922134
 20
2030.173744658036
 30
0.0
 11
1189.276747922135
 21
2030.173744658036
 31
0.0
  0
LINE
  5
5D6F
330
1F
100
AcDbEntity
  8
0
  6
Continuous
 62
     7
100
AcDbLine
 10
1185.276747922134
 20
2034.173744658036
 30
0.0
 11
1189.276747922135
 21
2034.173744658036
 31
0.0
  0
LINE
  5
5D70
330
1F
100
AcDbEntity
  8
0
  6
Continuous
 62
     7
100
AcDbLine
 10
1191.276747922135
 20
2031.759744658035
 30
0.0
 11
1195.895747922135
 21
2028.727744658036
 31
0.0
  0
LINE
  5
5D71
330
1F
100
AcDbEntity
  8
0
  6
Continuous
 62
     7
100
AcDbLine
 10
1203.276747922135
 20
2022.673744658035
 30
0.0
 11
1203.276747922135
 21
2036.447744658036
 31
0.0
  0
LINE
  5
5D72
330
1F
100
AcDbEntity
  8
0
  6
Continuous
 62
     7
100
AcDbLine
 10
1195.895747922135
 20
2081.382744658036
 30
0.0
 11
1212.276747922135
 21
2081.382744658036
 31
0.0
  0
LINE
  5
5D73
330
1F
100
AcDbEntity
  8
0
  6
Continuous
 62
     7
100
AcDbLine
 10
1191.276747922135
 20
2078.128744658036
 30
0.0
 11
1195.895747922135
 21
2081.382744658036
 31
0.0
  0
DIMENSION
  5
5D74
330
1F
100
AcDbEntity
  8
AM_5
100
AcDbDimension
  2
*D13
 10
1185.276747922134
 20
2144.753558444444
 30
0.0
 11
1174.226747922135
 21
2148.053558444444
 31
0.0
 70
    32
 71
     5
 42
4.0
  3
AM_ISO$0
100
AcDbAlignedDimension
 13
1189.276747922135
 23
2117.628744658035
 33
0.0
 14
1185.276747922134
 24
2145.144752960231
 34
0.0
100
AcDbRotatedDimension
  0
DIMENSION
  5
5D75
330
1F
100
AcDbEntity
  8
AM_5
100
AcDbDimension
  2
*D14
 10
1185.276747922134
 20
2154.753558444443
 30
0.0
 11
1188.276747922135
 21
2158.053558444444
 31
0.0
 70
    32
 71
     5
 42
6.0
  3
AM_ISO$0
100
AcDbAlignedDimension
 13
1191.276747922135
 23
2152.799754294756
 33
0.0
 14
1185.276747922134
 24
2132.628744658036
 34
0.0
100
AcDbRotatedDimension
  0
DIMENSION
  5
5D76
330
1F
100
AcDbEntity
  8
AM_5
100
AcDbDimension
  2
*D15
 10
1159.827554181944
 20
2132.628744658036
 30
0.0
 11
1156.527554181943
 21
2113.628744658036
 31
0.0
 70
    32
 71
     5
 42
38.0
  3
AM_ISO$0
100
AcDbAlignedDimension
 13
1175.113251193052
 23
2094.628744658035
 33
0.0
 14
1185.276747922134
 24
2132.628744658036
 34
0.0
 50
90.0
100
AcDbRotatedDimension
  0
DIMENSION
  5
5D77
330
1F
100
AcDbEntity
  8
AM_5
100
AcDbDimension
  2
*D16
 10
1172.276747922135
 20
2117.628744658035
 30
0.0
 11
1172.276747922134
 21
2113.628744658036
 31
0.0
 70
   160
  1
8H9
 71
     5
 42
8.0
  3
AM_ISO$0
100
AcDbAlignedDimension
 13
1175.113251193052
 23
2109.628744658035
 33
0.0
 14
1185.276747922134
 24
2117.628744658035
 34
0.0
 50
90.0
100
AcDbRotatedDimension
  0
DIMENSION
  5
5D78
330
1F
100
AcDbEntity
  8
AM_5
100
AcDbDimension
  2
*D17
 10
1172.276747922135
 20
2094.628744658035
 30
0.0
 11
1172.276747922135
 21
2102.128744658036
 31
0.0
 70
   160
 71
     5
 42
15.0
  3
AM_ISO$0
100
AcDbAlignedDimension
 13
1185.276747922134
 23
2109.628744658035
 33
0.0
 14
1185.276747922134
 24
2094.628744658035
 34
0.0
 50
90.0
100
AcDbRotatedDimension
  0
LINE
  5
5D7B
330
1F
100
AcDbEntity
  8
0
  6
Continuous
 62
     7
100
AcDbLine
 10
1189.276747922135
 20
2117.628744658035
 30
0.0
 11
1189.276747922135
 21
2109.628744658035
 31
0.0
  0
LINE
  5
5D7C
330
1F
100
AcDbEntity
  8
0
  6
Continuous
 62
     7
100
AcDbLine
 10
1191.276747922135
 20
2112.593744658036
 30
0.0
 11
1195.895747922135
 21
2120.521744658036
 31
0.0
  0
LINE
  5
5D7D
330
1F
100
AcDbEntity
  8
0
  6
Continuous
 62
     7
100
AcDbLine
 10
1195.895747922135
 20
2093.507744658035
 30
0.0
 11
1195.895747922135
 21
2120.521744658036
 31
0.0
  0
LINE
  5
5D7E
330
1F
100
AcDbEntity
  8
0
  6
Continuous
 62
     7
100
AcDbLine
 10
1195.895747922135
 20
2093.507744658035
 30
0.0
 11
1212.276747922135
 21
2093.507744658035
 31
0.0
  0
LINE
  5
5D7F
330
1F
100
AcDbEntity
  8
0
  6
Continuous
 62
     7
100
AcDbLine
 10
1185.276747922134
 20
2109.628744658035
 30
0.0
 11
1189.276747922135
 21
2109.628744658035
 31
0.0
  0
LINE
  5
5D80
330
1F
100
AcDbEntity
  8
0
  6
Continuous
 62
     7
100
AcDbLine
 10
1185.276747922134
 20
2094.628744658035
 30
0.0
 11
1191.276747922135
 21
2094.628744658035
 31
0.0
  0
LINE
  5
5D81
330
1F
100
AcDbEntity
  8
0
  6
Continuous
 62
     7
100
AcDbLine
 10
1185.276747922134
 20
2109.628744658035
 30
0.0
 11
1185.276747922134
 21
2094.628744658035
 31
0.0
  0
LINE
  5
5D82
330
1F
100
AcDbEntity
  8
0
  6
Continuous
 62
     7
100
AcDbLine
 10
1195.895747922135
 20
2120.521744658036
 30
0.0
 11
1203.276747922135
 21
2120.521744658036
 31
0.0
  0
LINE
  5
5D83
330
1F
100
AcDbEntity
  8
0
  6
Continuous
 62
     7
100
AcDbLine
 10
1185.276747922134
 20
2132.628744658036
 30
0.0
 11
1185.276747922134
 21
2117.628744658035
 31
0.0
  0
LINE
  5
5D84
330
1F
100
AcDbEntity
  8
0
  6
Continuous
 62
     7
100
AcDbLine
 10
1185.276747922134
 20
2117.628744658035
 30
0.0
 11
1189.276747922135
 21
2117.628744658035
 31
0.0
  0
LINE
  5
5D85
330
1F
100
AcDbEntity
  8
0
  6
Continuous
 62
     7
100
AcDbLine
 10
1203.276747922135
 20
2132.628744658036
 30
0.0
 11
1203.276747922135
 21
2118.935744658035
 31
0.0
  0
DIMENSION
  5
5D86
330
1F
100
AcDbEntity
  8
AM_5
100
AcDbDimension
  2
*D18
 10
1341.672292121292
 20
1811.775581979583
 30
0.0
 11
1339.053188138793
 21
1817.16360628308
 31
0.0
 70
    33
 71
     5
 42
10.00010231272199
  3
AM_ISO$0
100
AcDbAlignedDimension
 13
1427.285171099668
 23
1810.59040484551
 33
0.0
 14
1425.979847204157
 24
1800.67586119526
 34
0.0
  0
DIMENSION
  5
5D87
330
1F
100
AcDbEntity
  8
AM_5
100
AcDbDimension
  2
*D19
 10
1342.977616016803
 20
1821.690125629834
 30
0.0
 11
1343.230107501627
 21
1848.889256513497
 31
0.0
 70
    33
 71
     5
 42
53.9987582367064
  3
AM_ISO$0
100
AcDbAlignedDimension
 13
1434.333685929823
 23
1864.127161656092
 33
0.0
 14
1427.285171099668
 24
1810.59040484551
 34
0.0
  0
ARC
  5
5D88
330
1F
100
AcDbEntity
  8
0
  6
Continuous
 62
     7
100
AcDbCircle
 10
1434.333161274258
 20
1864.128744658035
 30
0.0
 40
67.0
100
AcDbArc
 50
328.018000000006
 51
151.9809999999997
  0
ARC
  5
5D89
330
1F
100
AcDbEntity
  8
0
  6
Continuous
 62
     7
100
AcDbCircle
 10
1434.333161274258
 20
1864.128744658035
 30
0.0
 40
67.0
100
AcDbArc
 50
208.015999999997
 51
271.982
  0
LINE
  5
5D8A
330
1F
100
AcDbEntity
  8
0
  6
Continuous
 62
     7
100
AcDbLine
 10
1218.276747922135
 20
1816.503744658035
 30
0.0
 11
1218.276747922135
 21
1787.645744658036
 31
0.0
  0
LINE
  5
5D8B
330
1F
100
AcDbEntity
  8
0
  6
Continuous
 62
     7
100
AcDbLine
 10
1281.276747922135
 20
1931.128744658035
 30
0.0
 11
1281.276747922135
 21
1797.128744658035
 31
0.0
  0
LINE
  5
5D8C
330
1F
100
AcDbEntity
  8
0
  6
Continuous
 62
     7
100
AcDbLine
 10
1387.207161274259
 20
1816.503744658035
 30
0.0
 11
1380.363161274259
 21
1804.649744658035
 31
0.0
  0
LINE
  5
5D8F
330
1F
100
AcDbEntity
  8
0
  6
Continuous
 62
     7
100
AcDbLine
 10
1440.533161274258
 20
1810.388744658035
 30
0.0
 11
1446.886161274258
 21
1811.508744658036
 31
0.0
  0
LINE
  5
5D90
330
1F
100
AcDbEntity
  8
0
  6
Continuous
 62
     7
100
AcDbLine
 10
1446.886161274258
 20
1811.508744658036
 30
0.0
 11
1447.528161274259
 21
1807.865744658035
 31
0.0
  0
LINE
  5
5D91
330
1F
100
AcDbEntity
  8
AM_7
100
AcDbLine
 10
1425.032161274258
 20
1793.477744658035
 30
0.0
 11
1443.604161274258
 21
1934.540744658036
 31
0.0
  0
LINE
  5
5D92
330
1F
100
AcDbEntity
  8
AM_5
100
AcDbLine
 10
1451.099161274258
 20
1815.963744658035
 30
0.0
 11
1483.046161274258
 21
1760.628744658035
 31
0.0
  0
CIRCLE
  5
5D93
330
1F
100
AcDbEntity
  8
0
  6
CENTER
 62
     2
100
AcDbCircle
 10
1434.333161274258
 20
1864.128744658035
 30
0.0
 40
59.0
  0
ARC
  5
5D96
330
1F
100
AcDbEntity
  8
0
  6
Continuous
 62
     7
100
AcDbCircle
 10
1434.333161274258
 20
1864.128744658035
 30
0.0
 40
67.0
100
AcDbArc
 50
288.0170000000004
 51
311.9829999999995
  0
TEXT
  5
5D98
330
1F
100
AcDbEntity
  8
AM_5
100
AcDbText
 10
1486.978161274258
 20
1762.860744658035
 30
0.0
 40
3.2
  1
102H9
  7
China
100
AcDbText
  0
LINE
  5
5D99
330
1F
100
AcDbEntity
  8
AM_5
100
AcDbLine
 10
1483.046161274258
 20
1760.628744658035
 30
0.0
 11
1531.882161274258
 21
1760.628744658035
 31
0.0
  0
DIMENSION
  5
5D9A
330
1F
100
AcDbEntity
  8
AM_5
100
AcDbDimension
  2
*D20
 10
1281.276747922135
 20
1769.282198889158
 30
0.0
 11
1249.776747922135
 21
1772.582198889158
 31
0.0
 70
    32
 71
     5
 42
63.0
  3
AM_ISO$0
100
AcDbAlignedDimension
 13
1218.276747922135
 23
1770.565939669624
 33
0.0
 14
1281.276747922135
 24
1797.128744658035
 34
0.0
100
AcDbRotatedDimension
  0
LINE
  5
5D9B
330
1F
100
AcDbEntity
  8
0
  6
Continuous
 62
     7
100
AcDbLine
 10
1218.276747922135
 20
1797.128744658035
 30
0.0
 11
1281.276747922135
 21
1797.128744658035
 31
0.0
  0
LINE
  5
5D9C
330
1F
100
AcDbEntity
  8
AM_5
100
AcDbLine
 10
1375.545161274258
 20
1769.792744658035
 30
0.0
 11
1434.424161274258
 21
1762.041744658035
 31
0.0
  0
LINE
  5
5D9D
330
1F
100
AcDbEntity
  8
AM_5
100
AcDbLine
 10
1422.535161274258
 20
1805.164744658035
 30
0.0
 11
1417.027161274258
 21
1763.323744658035
 31
0.0
  0
LINE
  5
5D9E
330
1F
100
AcDbEntity
  8
AM_5
100
AcDbLine
 10
1430.467161274258
 20
1804.119744658035
 30
0.0
 11
1424.959161274258
 21
1762.278744658036
 31
0.0
  0
LINE
  5
5D9F
330
1F
100
AcDbEntity
  8
AM_5
100
AcDbLine
 10
1417.157161274259
 20
1764.314744658036
 30
0.0
 11
1414.288161274258
 21
1765.503744658035
 31
0.0
  0
LINE
  5
5DA0
330
1F
100
AcDbEntity
  8
AM_5
100
AcDbLine
 10
1417.157161274259
 20
1764.314744658036
 30
0.0
 11
1414.078161274258
 21
1763.909744658035
 31
0.0
  0
LINE
  5
5DA1
330
1F
100
AcDbEntity
  8
AM_5
100
AcDbLine
 10
1425.090161274258
 20
1763.270744658035
 30
0.0
 11
1428.169161274258
 21
1763.675744658035
 31
0.0
  0
LINE
  5
5DA2
330
1F
100
AcDbEntity
  8
AM_5
100
AcDbLine
 10
1425.090161274258
 20
1763.270744658035
 30
0.0
 11
1427.959161274258
 21
1762.081744658035
 31
0.0
  0
LINE
  5
5DA3
330
1F
100
AcDbEntity
  8
0
  6
Continuous
 62
     7
100
AcDbLine
 10
1409.808161274258
 20
1787.649744658035
 30
0.0
 11
1380.363161274259
 21
1804.649744658035
 31
0.0
  0
TEXT
  5
5DA4
330
1F
100
AcDbEntity
  8
AM_5
100
AcDbText
 10
1394.821007274259
 20
1768.848274658035
 30
0.0
 40
3.2
  1
DEPTH6
 50
352.500000000001
  7
China
100
AcDbText
  0
TEXT
  5
5DA5
330
1F
100
AcDbEntity
  8
AM_5
100
AcDbText
 10
1375.529414274258
 20
1771.409143658035
 30
0.0
 40
3.2
  1
8H9
 50
352.5999999999938
  7
China
100
AcDbText
  0
TEXT
  5
5DA6
330
1F
100
AcDbEntity
  8
AM_5
100
AcDbText
 10
1385.306584274258
 20
1772.416009658035
 30
0.0
 40
1.6
  1
+0.036
 50
352.500000000001
  7
China
100
AcDbText
  0
TEXT
  5
5DA7
330
1F
100
AcDbEntity
  8
AM_5
100
AcDbText
 10
1386.520584274258
 20
1769.860009658035
 30
0.0
 40
1.6
  1
0
 50
352.500000000001
  7
China
100
AcDbText
  0
LINE
  5
5DA8
330
1F
100
AcDbEntity
  8
0
  6
Continuous
 62
     7
100
AcDbLine
 10
1416.652161274258
 20
1799.503744658035
 30
0.0
 11
1409.808161274258
 21
1787.649744658035
 31
0.0
  0
LINE
  5
5DA9
330
1F
100
AcDbEntity
  8
0
  6
Continuous
 62
     7
100
AcDbLine
 10
1422.797161274258
 20
1807.146744658035
 30
0.0
 11
1422.536161274259
 21
1805.163744658035
 31
0.0
  0
ARC
  5
5DAA
330
1F
100
AcDbEntity
  8
0
  6
Continuous
 62
     7
100
AcDbCircle
 10
1426.501161274259
 20
1804.641744658035
 30
0.0
 40
4.0
100
AcDbArc
 50
172.500000000001
 51
352.500000000001
  0
LINE
  5
5DAB
330
1F
100
AcDbEntity
  8
0
  6
Continuous
 62
     7
100
AcDbLine
 10
1430.728161274258
 20
1806.102744658035
 30
0.0
 11
1430.467161274258
 21
1804.119744658035
 31
0.0
  0
ARC
  5
5DAC
330
1F
100
AcDbEntity
  8
0
  6
Continuous
 62
     7
100
AcDbCircle
 10
1426.762161274259
 20
1806.624744658035
 30
0.0
 40
4.0
100
AcDbArc
 50
0.0
 51
172.500000000001
  0
ARC
  5
5DAD
330
1F
100
AcDbEntity
  8
0
  6
Continuous
 62
     7
100
AcDbCircle
 10
1426.761161274258
 20
1806.692744658035
 30
0.0
 40
4.0
100
AcDbArc
 50
351.9999999999992
 51
359.4999999999954
  0
LINE
  5
5DAE
330
1F
100
AcDbEntity
  8
AM_5
100
AcDbLine
 10
1484.984161274258
 20
1762.612744658035
 30
0.0
 11
1486.147161274258
 21
1765.806744658035
 31
0.0
  0
CIRCLE
  5
5DAF
330
1F
100
AcDbEntity
  8
AM_5
100
AcDbCircle
 10
1485.566161274258
 20
1764.209744658035
 30
0.0
 40
0.9
  0
LINE
  5
5DB0
330
1F
100
AcDbEntity
  8
0
  6
Continuous
 62
     7
100
AcDbLine
 10
1447.561161274258
 20
1803.503744658035
 30
0.0
 11
1450.023161274258
 21
1803.938744658035
 31
0.0
  0
LINE
  5
5DB1
330
1F
100
AcDbEntity
  8
0
  6
Continuous
 62
     7
100
AcDbLine
 10
1440.533161274258
 20
1810.388744658035
 30
0.0
 11
1441.176161274258
 21
1806.745744658035
 31
0.0
  0
LINE
  5
5DB2
330
1F
100
AcDbEntity
  8
0
  6
Continuous
 62
     7
100
AcDbLine
 10
1441.963161274259
 20
1806.459744658036
 30
0.0
 11
1442.637161274259
 21
1802.635744658035
 31
0.0
  0
LINE
  5
5DB3
330
1F
100
AcDbEntity
  8
0
  6
Continuous
 62
     7
100
AcDbLine
 10
1441.176161274258
 20
1806.745744658035
 30
0.0
 11
1441.963161274259
 21
1806.459744658036
 31
0.0
  0
LINE
  5
5DB4
330
1F
100
AcDbEntity
  8
0
  6
Continuous
 62
     7
100
AcDbLine
 10
1440.175161274258
 20
1802.201744658035
 30
0.0
 11
1442.637161274259
 21
1802.635744658035
 31
0.0
  0
LINE
  5
5DB5
330
1F
100
AcDbEntity
  8
0
  6
Continuous
 62
     7
100
AcDbLine
 10
1440.175161274258
 20
1802.201744658035
 30
0.0
 11
1436.651161274259
 21
1797.168744658035
 31
0.0
  0
LINE
  5
5DB6
330
1F
100
AcDbEntity
  8
0
  6
Continuous
 62
     7
100
AcDbLine
 10
1446.887161274259
 20
1807.326744658035
 30
0.0
 11
1447.561161274258
 21
1803.503744658035
 31
0.0
  0
LINE
  5
5DB7
330
1F
100
AcDbEntity
  8
0
  6
Continuous
 62
     7
100
AcDbLine
 10
1447.528161274259
 20
1807.865744658035
 30
0.0
 11
1446.887161274259
 21
1807.327744658035
 31
0.0
  0
LINE
  5
5DB8
330
1F
100
AcDbEntity
  8
0
  6
Continuous
 62
     7
100
AcDbLine
 10
1450.023161274258
 20
1803.938744658035
 30
0.0
 11
1455.056161274258
 21
1800.413744658035
 31
0.0
  0
TEXT
  5
5DB9
330
1F
100
AcDbEntity
  8
AM_5
100
AcDbText
 10
1512.835161274258
 20
1762.860744658035
 30
0.0
 40
3.2
  1
DEPTH4
  7
China
100
AcDbText
  0
TEXT
  5
5DBA
330
1F
100
AcDbEntity
  8
AM_5
100
AcDbText
 10
1504.319161274258
 20
1762.305744658036
 30
0.0
 40
1.6
  1
0
  7
China
100
AcDbText
  0
TEXT
  5
5DBB
330
1F
100
AcDbEntity
  8
AM_5
100
AcDbText
 10
1502.719161274258
 20
1764.831744658035
 30
0.0
 40
1.6
  1
+0.087
  7
China
100
AcDbText
  0
LINE
  5
5DBD
330
1F
100
AcDbEntity
  8
0
  6
Continuous
 62
     7
100
AcDbLine
 10
1499.140161274258
 20
1847.128744658035
 30
0.0
 11
1512.829161274258
 21
1847.128744658035
 31
0.0
  0
LINE
  5
5DBE
330
1F
100
AcDbEntity
  8
0
  6
Continuous
 62
     7
100
AcDbLine
 10
1499.140161274258
 20
1881.128744658035
 30
0.0
 11
1512.829161274258
 21
1881.128744658035
 31
0.0
  0
LINE
  5
5DBF
330
1F
100
AcDbEntity
  8
AM_5
100
AcDbLine
 10
1464.936161274258
 20
1962.289744658036
 30
0.0
 11
1507.861161274258
 21
1962.289744658036
 31
0.0
  0
TEXT
  5
5DC0
330
1F
100
AcDbEntity
  8
AM_5
100
AcDbText
 10
1488.880161274258
 20
1963.429744658035
 30
0.0
 40
3.2
  1
DEPTH6
  7
China
100
AcDbText
  0
DIMENSION
  5
5DC1
330
1F
100
AcDbEntity
  8
AM_5
100
AcDbDimension
  2
*D21
 10
1299.306785251566
 20
1987.128744658035
 30
0.0
 11
1296.006785251566
 21
2054.128744658036
 31
0.0
 70
    32
  1
%%C<>
 71
     5
 42
134.0000000000002
  3
AM_ISO$0
100
AcDbAlignedDimension
 13
1281.276747922135
 23
2121.128744658035
 33
0.0
 14
1281.276747922135
 24
1987.128744658035
 34
0.0
 50
90.0
100
AcDbRotatedDimension
  0
LINE
  5
5DC2
330
1F
100
AcDbEntity
  8
0
  6
Continuous
 62
     7
100
AcDbLine
 10
1281.276747922135
 20
1987.128744658035
 30
0.0
 11
1281.276747922135
 21
2121.128744658035
 31
0.0
  0
DIMENSION
  5
5DC3
330
1F
100
AcDbEntity
  8
AM_5
100
AcDbDimension
  2
*D22
 10
1350.026329380059
 20
1875.228390391885
 30
0.0
 11
1350.604597561495
 21
1904.905888230262
 31
0.0
 70
    33
 71
     5
 42
58.99824648365416
  3
AM_ISO$0
100
AcDbAlignedDimension
 13
1442.034161274258
 23
1922.623744658035
 33
0.0
 14
1434.334078028294
 24
1864.130139826813
 34
0.0
  0
ARC
  5
5DC4
330
1F
100
AcDbEntity
  8
0
  6
Continuous
 62
     7
100
AcDbCircle
 10
1434.333161274258
 20
1864.128744658035
 30
0.0
 40
67.0
100
AcDbArc
 50
168.0169999999985
 51
191.980000000002
  0
POINT
  5
5DC5
330
1F
100
AcDbEntity
  8
0
100
AcDbPoint
 10
1281.276747922135
 20
1864.128744658035
 30
0.0
  0
LINE
  5
5DC6
330
1F
100
AcDbEntity
  8
0
  6
Continuous
 62
     7
100
AcDbLine
 10
1218.276747922135
 20
1931.128744658035
 30
0.0
 11
1281.276747922135
 21
1931.128744658035
 31
0.0
  0
LINE
  5
5DC7
330
1F
100
AcDbEntity
  8
0
  6
Continuous
 62
     7
100
AcDbLine
 10
1218.276747922135
 20
1911.753744658035
 30
0.0
 11
1218.276747922135
 21
1940.611744658035
 31
0.0
  0
CIRCLE
  5
5DC8
330
1F
100
AcDbEntity
  8
0
  6
Continuous
 62
     7
100
AcDbCircle
 10
1434.333161274258
 20
1864.128744658035
 30
0.0
 40
51.0
  0
LINE
  5
5DC9
330
1F
100
AcDbEntity
  8
0
  6
Continuous
 62
     7
100
AcDbLine
 10
1375.184161274259
 20
1832.657744658035
 30
0.0
 11
1377.781161274258
 21
1838.227744658035
 31
0.0
  0
LINE
  5
5DCA
330
1F
100
AcDbEntity
  8
0
  6
Continuous
 62
     7
100
AcDbLine
 10
1384.693161274259
 20
1842.628744658035
 30
0.0
 11
1382.487161274258
 21
1848.690744658035
 31
0.0
  0
LINE
  5
5DCB
330
1F
100
AcDbEntity
  8
0
  6
Continuous
 62
     7
100
AcDbLine
 10
1384.693161274259
 20
1842.628744658035
 30
0.0
 11
1381.215161274259
 21
1841.363744658035
 31
0.0
  0
LINE
  5
5DCC
330
1F
100
AcDbEntity
  8
0
  6
Continuous
 62
     7
100
AcDbLine
 10
1375.217161274258
 20
1845.272744658035
 30
0.0
 11
1374.361161274259
 21
1847.624744658035
 31
0.0
  0
LINE
  5
5DCD
330
1F
100
AcDbEntity
  8
0
  6
Continuous
 62
     7
100
AcDbLine
 10
1368.792161274259
 20
1850.221744658036
 30
0.0
 11
1374.361161274259
 21
1847.624744658035
 31
0.0
  0
POINT
  5
5DCE
330
1F
100
AcDbEntity
  8
0
100
AcDbPoint
 10
1383.589161274258
 20
1845.661744658035
 30
0.0
  0
LINE
  5
5DCF
330
1F
100
AcDbEntity
  8
0
  6
Continuous
 62
     7
100
AcDbLine
 10
1382.487161274258
 20
1848.690744658035
 30
0.0
 11
1379.010161274259
 21
1847.424744658036
 31
0.0
  0
LINE
  5
5DD0
330
1F
100
AcDbEntity
  8
0
  6
Continuous
 62
     7
100
AcDbLine
 10
1380.574161274259
 20
1841.901744658035
 30
0.0
 11
1376.927161274259
 21
1840.574744658035
 31
0.0
  0
LINE
  5
5DD1
330
1F
100
AcDbEntity
  8
0
  6
Continuous
 62
     7
100
AcDbLine
 10
1378.864161274258
 20
1846.599744658036
 30
0.0
 11
1375.217161274258
 21
1845.272744658035
 31
0.0
  0
LINE
  5
5DD2
330
1F
100
AcDbEntity
  8
0
  6
Continuous
 62
     7
100
AcDbLine
 10
1381.215161274259
 20
1841.363744658035
 30
0.0
 11
1380.574161274259
 21
1841.901744658035
 31
0.0
  0
LINE
  5
5DD3
330
1F
100
AcDbEntity
  8
0
  6
Continuous
 62
     7
100
AcDbLine
 10
1379.010161274259
 20
1847.424744658036
 30
0.0
 11
1378.864161274258
 21
1846.600744658035
 31
0.0
  0
LINE
  5
5DD4
330
1F
100
AcDbEntity
  8
0
  6
Continuous
 62
     7
100
AcDbLine
 10
1377.781161274258
 20
1838.227744658035
 30
0.0
 11
1376.927161274259
 21
1840.574744658035
 31
0.0
  0
LINE
  5
5DD5
330
1F
100
AcDbEntity
  8
0
  6
Continuous
 62
     7
100
AcDbLine
 10
1375.217161274258
 20
1882.984744658035
 30
0.0
 11
1374.363161274258
 21
1880.636744658035
 31
0.0
  0
LINE
  5
5DD6
330
1F
100
AcDbEntity
  8
0
  6
Continuous
 62
     7
100
AcDbLine
 10
1384.693161274259
 20
1885.628744658035
 30
0.0
 11
1382.487161274258
 21
1879.566744658036
 31
0.0
  0
LINE
  5
5DD7
330
1F
100
AcDbEntity
  8
0
  6
Continuous
 62
     7
100
AcDbLine
 10
1382.487161274258
 20
1879.566744658036
 30
0.0
 11
1379.009161274258
 21
1880.832744658035
 31
0.0
  0
CIRCLE
  5
5DD8
330
1F
100
AcDbEntity
  8
0
  6
Continuous
 62
     7
100
AcDbCircle
 10
1375.333161274258
 20
1864.128744658035
 30
0.0
 40
4.5
  0
LINE
  5
5DD9
330
1F
100
AcDbEntity
  8
0
  6
Continuous
 62
     7
100
AcDbLine
 10
1374.363161274258
 20
1880.636744658035
 30
0.0
 11
1368.793161274258
 21
1878.039744658035
 31
0.0
  0
LINE
  5
5DDA
330
1F
100
AcDbEntity
  8
0
  6
Continuous
 62
     7
100
AcDbLine
 10
1384.693161274259
 20
1885.628744658035
 30
0.0
 11
1381.215161274259
 21
1886.893744658035
 31
0.0
  0
POINT
  5
5DDB
330
1F
100
AcDbEntity
  8
0
100
AcDbPoint
 10
1383.590161274258
 20
1882.598744658035
 30
0.0
  0
LINE
  5
5DDC
330
1F
100
AcDbEntity
  8
0
  6
Continuous
 62
     7
100
AcDbLine
 10
1380.574161274259
 20
1886.355744658035
 30
0.0
 11
1376.927161274259
 21
1887.682744658036
 31
0.0
  0
LINE
  5
5DDD
330
1F
100
AcDbEntity
  8
0
  6
Continuous
 62
     7
100
AcDbLine
 10
1378.864161274258
 20
1881.657744658035
 30
0.0
 11
1375.217161274258
 21
1882.984744658035
 31
0.0
  0
LINE
  5
5DDE
330
1F
100
AcDbEntity
  8
0
  6
Continuous
 62
     7
100
AcDbLine
 10
1381.215161274259
 20
1886.893744658035
 30
0.0
 11
1380.574161274259
 21
1886.355744658035
 31
0.0
  0
LINE
  5
5DDF
330
1F
100
AcDbEntity
  8
0
  6
Continuous
 62
     7
100
AcDbLine
 10
1379.009161274258
 20
1880.832744658035
 30
0.0
 11
1378.864161274258
 21
1881.656744658035
 31
0.0
  0
LINE
  5
5DE0
330
1F
100
AcDbEntity
  8
0
  6
Continuous
 62
     7
100
AcDbLine
 10
1377.783161274259
 20
1890.033744658035
 30
0.0
 11
1376.927161274259
 21
1887.682744658036
 31
0.0
  0
LINE
  5
5DE1
330
1F
100
AcDbEntity
  8
0
  6
Continuous
 62
     7
100
AcDbLine
 10
1377.783161274259
 20
1890.033744658035
 30
0.0
 11
1375.186161274259
 21
1895.602744658035
 31
0.0
  0
LINE
  5
5DE2
330
1F
100
AcDbEntity
  8
0
  6
Continuous
 62
     7
100
AcDbLine
 10
1480.461161274259
 20
1828.686744658035
 30
0.0
 11
1483.435161274258
 21
1826.191744658035
 31
0.0
  0
LINE
  5
5DE3
330
1F
100
AcDbEntity
  8
0
  6
Continuous
 62
     7
100
AcDbLine
 10
1477.773161274259
 20
1831.888744658035
 30
0.0
 11
1473.627161274258
 21
1826.947744658035
 31
0.0
  0
LINE
  5
5DE4
330
1F
100
AcDbEntity
  8
0
  6
Continuous
 62
     7
100
AcDbLine
 10
1477.773161274259
 20
1831.888744658035
 30
0.0
 11
1480.607161274258
 21
1829.510744658035
 31
0.0
  0
LINE
  5
5DE5
330
1F
100
AcDbEntity
  8
0
  6
Continuous
 62
     7
100
AcDbLine
 10
1473.627161274258
 20
1826.947744658035
 30
0.0
 11
1476.461161274259
 21
1824.569744658035
 31
0.0
  0
LINE
  5
5DE6
330
1F
100
AcDbEntity
  8
0
  6
Continuous
 62
     7
100
AcDbLine
 10
1477.248161274258
 20
1824.855744658035
 30
0.0
 11
1480.221161274258
 21
1822.360744658035
 31
0.0
  0
LINE
  5
5DE7
330
1F
100
AcDbEntity
  8
0
  6
Continuous
 62
     7
100
AcDbLine
 10
1480.606161274258
 20
1829.510744658035
 30
0.0
 11
1480.461161274259
 21
1828.686744658035
 31
0.0
  0
LINE
  5
5DE8
330
1F
100
AcDbEntity
  8
0
  6
Continuous
 62
     7
100
AcDbLine
 10
1476.461161274259
 20
1824.569744658035
 30
0.0
 11
1477.248161274258
 21
1824.855744658035
 31
0.0
  0
LINE
  5
5DE9
330
1F
100
AcDbEntity
  8
0
  6
Continuous
 62
     7
100
AcDbLine
 10
1479.150161274258
 20
1814.324744658035
 30
0.0
 11
1478.614161274258
 21
1820.445744658035
 31
0.0
  0
LINE
  5
5DEA
330
1F
100
AcDbEntity
  8
0
  6
Continuous
 62
     7
100
AcDbLine
 10
1480.221161274258
 20
1822.360744658035
 30
0.0
 11
1478.614161274258
 21
1820.445744658035
 31
0.0
  0
LINE
  5
5DEB
330
1F
100
AcDbEntity
  8
0
  6
Continuous
 62
     7
100
AcDbLine
 10
1485.042161274258
 20
1828.106744658035
 30
0.0
 11
1483.435161274258
 21
1826.191744658035
 31
0.0
  0
LINE
  5
5DEC
330
1F
100
AcDbEntity
  8
0
  6
Continuous
 62
     7
100
AcDbLine
 10
1491.163161274258
 20
1828.641744658035
 30
0.0
 11
1485.042161274258
 21
1828.106744658035
 31
0.0
  0
POINT
  5
5DED
330
1F
100
AcDbEntity
  8
0
100
AcDbPoint
 10
1434.333161274258
 20
1864.128744658035
 30
0.0
  0
CIRCLE
  5
5DEE
330
1F
100
AcDbEntity
  8
0
  6
Continuous
 62
     2
100
AcDbCircle
 10
1493.333161274258
 20
1864.128744658035
 30
0.0
 40
4.0
  0
CIRCLE
  5
5DEF
330
1F
100
AcDbEntity
  8
0
  6
Continuous
 62
     7
100
AcDbCircle
 10
1493.333161274258
 20
1864.128744658035
 30
0.0
 40
3.3235
  0
LINE
  5
5DF0
330
1F
100
AcDbEntity
  8
AM_5
100
AcDbLine
 10
1432.006161274258
 20
1962.289744658036
 30
0.0
 11
1406.833161274258
 21
1918.688744658035
 31
0.0
  0
LINE
  5
5DF1
330
1F
100
AcDbEntity
  8
0
  6
Continuous
 62
     7
100
AcDbLine
 10
1380.363161274259
 20
1923.607744658036
 30
0.0
 11
1409.808161274258
 21
1940.607744658035
 31
0.0
  0
LINE
  5
5DF2
330
1F
100
AcDbEntity
  8
0
  6
Continuous
 62
     7
100
AcDbLine
 10
1387.207161274259
 20
1911.753744658035
 30
0.0
 11
1380.363161274259
 21
1923.607744658036
 31
0.0
  0
LINE
  5
5DF5
330
1F
100
AcDbEntity
  8
0
  6
Continuous
 62
     7
100
AcDbLine
 10
1416.652161274258
 20
1928.753744658035
 30
0.0
 11
1409.808161274258
 21
1940.607744658035
 31
0.0
  0
LINE
  5
5DF6
330
1F
100
AcDbEntity
  8
AM_5
100
AcDbLine
 10
1379.318161274259
 20
1962.289744658036
 30
0.0
 11
1432.006161274258
 21
1962.289744658036
 31
0.0
  0
TEXT
  5
5DF7
330
1F
100
AcDbEntity
  8
AM_5
100
AcDbText
 10
1396.187161274258
 20
1962.891744658035
 30
0.0
 40
3.2
  1
1.25DEPTH16
  7
China
100
AcDbText
  0
TEXT
  5
5DF8
330
1F
100
AcDbEntity
  8
AM_5
100
AcDbText
 10
1380.108161274258
 20
1957.242744658035
 30
0.0
 40
3.2
  1
P.C.D.118
  7
China
100
AcDbText
  0
TEXT
  5
5DF9
330
1F
100
AcDbEntity
  8
AM_5
100
AcDbText
 10
1380.187161274259
 20
1962.891744658035
 30
0.0
 40
3.2
  1
3-M8
  7
China
100
AcDbText
  0
LINE
  5
5DFA
330
1F
100
AcDbEntity
  8
AM_5
100
AcDbLine
 10
1393.687161274258
 20
1963.419744658035
 30
0.0
 11
1395.487161274258
 21
1965.564744658035
 31
0.0
  0
LINE
  5
5DFB
330
1F
100
AcDbEntity
  8
AM_5
100
AcDbLine
 10
1393.687161274258
 20
1965.564744658035
 30
0.0
 11
1395.486161274259
 21
1963.419744658035
 31
0.0
  0
LINE
  5
5DFC
330
1F
100
AcDbEntity
  8
AM_5
100
AcDbLine
 10
1464.936161274258
 20
1962.289744658036
 30
0.0
 11
1444.034161274258
 21
1926.087744658035
 31
0.0
  0
CIRCLE
  5
5DFE
330
1F
100
AcDbEntity
  8
0
  6
Continuous
 62
     7
100
AcDbCircle
 10
1442.034161274258
 20
1922.623744658035
 30
0.0
 40
4.0
  0
TEXT
  5
5DFF
330
1F
100
AcDbEntity
  8
AM_5
100
AcDbText
 10
1479.091161274259
 20
1965.286744658035
 30
0.0
 40
1.6
  1
+0.036
  7
China
100
AcDbText
  0
TEXT
  5
5E00
330
1F
100
AcDbEntity
  8
AM_5
100
AcDbText
 10
1469.442161274258
 20
1963.326744658035
 30
0.0
 40
3.2
  1
8H9
  7
China
100
AcDbText
  0
LINE
  5
5E01
330
1F
100
AcDbEntity
  8
AM_5
100
AcDbLine
 10
1467.170161274258
 20
1963.431744658035
 30
0.0
 11
1468.332161274259
 21
1966.626744658035
 31
0.0
  0
CIRCLE
  5
5E02
330
1F
100
AcDbEntity
  8
AM_5
100
AcDbCircle
 10
1467.751161274259
 20
1965.029744658036
 30
0.0
 40
0.9
  0
TEXT
  5
5E03
330
1F
100
AcDbEntity
  8
AM_5
100
AcDbText
 10
1480.677161274259
 20
1962.807744658035
 30
0.0
 40
1.6
  1
0
  7
China
100
AcDbText
  0
LEADER
  5
5E04
330
1F
100
AcDbEntity
  8
AM_5
100
AcDbLeader
  3
AM_ISO$7
 76
     3
 10
1237.707334090895
 20
2070.953152954171
 30
0.0
 10
1309.324863867236
 20
2110.679373008789
 30
0.0
 10
1328.860372133934
 20
2110.679373008789
 30
0.0
  0
DIMENSION
  5
5E05
330
1F
100
AcDbEntity
  8
AM_5
100
AcDbDimension
  2
*D23
 10
1232.676747922135
 20
2144.753558444444
 30
0.0
 11
1247.976747922135
 21
2148.053558444444
 31
0.0
 70
    32
 71
     5
 42
30.59999999999991
  3
AM_ISO$0
100
AcDbAlignedDimension
 13
1263.276747922135
 23
2135.575602104092
 33
0.0
 14
1232.676747922135
 24
2074.417744658035
 34
0.0
100
AcDbRotatedDimension
  0
LINE
  5
5E06
330
1F
100
AcDbEntity
  8
0
  6
Continuous
 62
     7
100
AcDbLine
 10
1218.276747922135
 20
2000.156744658036
 30
0.0
 11
1218.276747922135
 21
2036.447744658036
 31
0.0
  0
LINE
  5
5E07
330
1F
100
AcDbEntity
  8
AM_7
100
AcDbLine
 10
1232.676747922135
 20
2058.417744658035
 30
0.0
 11
1232.676747922135
 21
2074.417744658035
 31
0.0
  0
ARC
  5
5E08
330
1F
100
AcDbEntity
  8
0
  6
Continuous
 62
     2
100
AcDbCircle
 10
1232.676747922135
 20
2066.301744658035
 30
0.0
 40
6.579519999999999
100
AcDbArc
 50
1.010339999999599
 51
178.989999999998
  0
ARC
  5
5E09
330
1F
100
AcDbEntity
  8
0
  6
Continuous
 62
     7
100
AcDbCircle
 10
1232.676747922135
 20
2066.301744658035
 30
0.0
 40
5.723519999999999
100
AcDbArc
 50
1.010339999999599
 51
178.989999999998
  0
LINE
  5
5E0A
330
1F
100
AcDbEntity
  8
AM_7
100
AcDbLine
 10
1241.676747922135
 20
2066.417744658036
 30
0.0
 11
1223.676747922135
 21
2066.417744658036
 31
0.0
  0
ARC
  5
5E0B
330
1F
100
AcDbEntity
  8
0
  6
Continuous
 62
     2
100
AcDbCircle
 10
1232.676747922135
 20
2066.533744658035
 30
0.0
 40
6.579519999999999
100
AcDbArc
 50
181.0100000000019
 51
358.989999999998
  0
ARC
  5
5E0C
330
1F
100
AcDbEntity
  8
0
  6
Continuous
 62
     7
100
AcDbCircle
 10
1232.676747922135
 20
2066.533744658035
 30
0.0
 40
5.723519999999999
100
AcDbArc
 50
181.0100000000019
 51
358.989999999998
  0
POINT
  5
5E0D
330
1F
100
AcDbEntity
  8
0
100
AcDbPoint
 10
1281.276747922135
 20
2054.128744658036
 30
0.0
  0
LEADER
  5
5E0E
330
1F
100
AcDbEntity
  8
AM_5
100
AcDbLeader
  3
AM_ISO$7
 76
     3
 10
1267.062707160742
 20
2108.94174596692
 30
0.0
 10
1295.353259105528
 20
2141.359538857604
 30
0.0
 10
1316.196765130511
 20
2141.359538857604
 30
0.0
  0
DIMENSION
  5
5E0F
330
1F
100
AcDbEntity
  8
AM_5
100
AcDbDimension
  2
*D24
 10
1263.276747922135
 20
2144.753558444444
 30
0.0
 11
1272.276747922135
 21
2148.053558444444
 31
0.0
 70
    32
 71
     5
 42
18.0
  3
AM_ISO$0
100
AcDbAlignedDimension
 13
1281.276747922135
 23
2121.128744658035
 33
0.0
 14
1263.276747922135
 24
2111.024744658035
 34
0.0
100
AcDbRotatedDimension
  0
LINE
  5
5E10
330
1F
100
AcDbEntity
  8
0
  6
Continuous
 62
     7
100
AcDbLine
 10
1218.276747922135
 20
2121.128744658035
 30
0.0
 11
1281.276747922135
 21
2121.128744658035
 31
0.0
  0
LINE
  5
5E11
330
1F
100
AcDbEntity
  8
0
  6
Continuous
 62
     7
100
AcDbLine
 10
1218.276747922135
 20
2132.628744658036
 30
0.0
 11
1218.276747922135
 21
2118.935744658035
 31
0.0
  0
LINE
  5
5E12
330
1F
100
AcDbEntity
  8
0
  6
Continuous
 62
     7
100
AcDbLine
 10
1218.776747922135
 20
2121.128744658035
 30
0.0
 11
1218.776747922135
 21
2120.521744658036
 31
0.0
  0
LINE
  5
5E13
330
1F
100
AcDbEntity
  8
0
  6
Continuous
 62
     7
100
AcDbLine
 10
1218.276747922135
 20
2120.521744658036
 30
0.0
 11
1218.776747922135
 21
2120.521744658036
 31
0.0
  0
LINE
  5
5E14
330
1F
100
AcDbEntity
  8
AM_7
100
AcDbLine
 10
1271.276747922135
 20
2105.024744658035
 30
0.0
 11
1255.276747922135
 21
2105.024744658035
 31
0.0
  0
ARC
  5
5E15
330
1F
100
AcDbEntity
  8
0
  6
Continuous
 62
     2
100
AcDbCircle
 10
1263.276747922135
 20
2100.791744658035
 30
0.0
 40
8.985799999999999
100
AcDbArc
 50
65.08369999999975
 51
114.9180000000021
  0
ARC
  5
5E16
330
1F
100
AcDbEntity
  8
0
  6
Continuous
 62
     2
100
AcDbCircle
 10
1263.276747922135
 20
2108.302744658036
 30
0.0
 40
8.30221
100
AcDbArc
 50
236.879000000002
 51
308.8190000000019
  0
ARC
  5
5E17
330
1F
100
AcDbEntity
  8
0
  6
Continuous
 62
     7
100
AcDbCircle
 10
1263.276747922135
 20
2100.791744658035
 30
0.0
 40
8.129799999999999
100
AcDbArc
 50
65.22169999999967
 51
114.777999999998
  0
ARC
  5
5E18
330
1F
100
AcDbEntity
  8
0
  6
Continuous
 62
     7
100
AcDbCircle
 10
1263.276747922135
 20
2108.302744658036
 30
0.0
 40
7.44621
100
AcDbArc
 50
236.7069999999993
 51
303.2830000000002
  0
ARC
  5
5E19
330
1F
100
AcDbEntity
  8
0
  6
Continuous
 62
     2
100
AcDbCircle
 10
1260.812747922135
 20
2104.907744658035
 30
0.0
 40
4.117849999999999
100
AcDbArc
 50
136.9960000000014
 51
239.7739999999976
  0
ARC
  5
5E1A
330
1F
100
AcDbEntity
  8
0
  6
Continuous
 62
     7
100
AcDbCircle
 10
1261.717747922135
 20
2104.147744658035
 30
0.0
 40
4.429999999999999
100
AcDbArc
 50
114.6319999999998
 51
132.8180000000016
  0
ARC
  5
5E1B
330
1F
100
AcDbEntity
  8
0
  6
Continuous
 62
     7
100
AcDbCircle
 10
1260.812747922135
 20
2104.907744658035
 30
0.0
 40
3.261849999999999
100
AcDbArc
 50
129.2569999999986
 51
240.1429999999995
  0
ARC
  5
5E1C
330
1F
100
AcDbEntity
  8
0
  6
Continuous
 62
     2
100
AcDbCircle
 10
1261.717747922135
 20
2104.147744658035
 30
0.0
 40
5.285999999999999
100
AcDbArc
 50
114.6319999999998
 51
137.6560000000053
  0
LINE
  5
5E1D
330
1F
100
AcDbEntity
  8
AM_7
100
AcDbLine
 10
1263.276747922135
 20
2099.024744658035
 30
0.0
 11
1263.276747922135
 21
2111.024744658035
 31
0.0
  0
ARC
  5
5E1E
330
1F
100
AcDbEntity
  8
0
  6
Continuous
 62
     2
100
AcDbCircle
 10
1265.740747922135
 20
2104.907744658035
 30
0.0
 40
4.117849999999999
100
AcDbArc
 50
311.7260000000017
 51
49.94680000000413
  0
ARC
  5
5E1F
330
1F
100
AcDbEntity
  8
0
  6
Continuous
 62
     7
100
AcDbCircle
 10
1264.835747922135
 20
2104.147744658035
 30
0.0
 40
4.429999999999999
100
AcDbArc
 50
47.18159999999895
 51
65.36850000000358
  0
ARC
  5
5E20
330
1F
100
AcDbEntity
  8
0
  6
Continuous
 62
     7
100
AcDbCircle
 10
1265.740747922135
 20
2104.907744658035
 30
0.0
 40
3.261849999999999
100
AcDbArc
 50
299.8339999999999
 51
50.74270000000255
  0
ARC
  5
5E21
330
1F
100
AcDbEntity
  8
0
  6
Continuous
 62
     2
100
AcDbCircle
 10
1264.835747922135
 20
2104.147744658035
 30
0.0
 40
5.285999999999999
100
AcDbArc
 50
47.74330000000322
 51
65.08369999999975
  0
TEXT
  5
5E22
330
1F
100
AcDbEntity
  8
AM_5
100
AcDbText
 10
1315.242872198318
 20
2112.087593330268
 30
0.0
 40
1.6
  1
C
  7
China
100
AcDbText
  0
TEXT
  5
5E23
330
1F
100
AcDbEntity
  8
AM_5
100
AcDbText
 10
1311.442872198318
 20
2111.633593330268
 30
0.0
 40
3.2
  1
R
  7
China
100
AcDbText
  0
TEXT
  5
5E24
330
1F
100
AcDbEntity
  8
AM_5
100
AcDbText
 10
1318.294872198318
 20
2111.847593330268
 30
0.0
 40
3.2
  1
1/4
  7
China
100
AcDbText
  0
TEXT
  5
5E25
330
1F
100
AcDbEntity
  8
AM_5
100
AcDbText
 10
1298.316845036958
 20
2136.754221840214
 30
0.0
 40
3.2
  1
(Finger opening port)
  7
China
100
AcDbText
  0
TEXT
  5
5E26
330
1F
100
AcDbEntity
  8
AM_5
100
AcDbText
 10
1298.700845036958
 20
2142.832739424461
 30
0.0
 40
3.2
  1
R
  7
China
100
AcDbText
  0
TEXT
  5
5E27
330
1F
100
AcDbEntity
  8
AM_5
100
AcDbText
 10
1302.613845036958
 20
2143.286739424461
 30
0.0
 40
1.6
  1
C
  7
China
100
AcDbText
  0
TEXT
  5
5E28
330
1F
100
AcDbEntity
  8
AM_5
100
AcDbText
 10
1305.423845036958
 20
2142.771739424461
 30
0.0
 40
3.2
  1
1/4
  7
China
100
AcDbText
  0
LINE
  5
5E29
330
1F
100
AcDbEntity
  8
0
  6
Continuous
 62
     7
100
AcDbLine
 10
1512.829161274258
 20
1881.128744658035
 30
0.0
 11
1512.829161274258
 21
1847.128744658035
 31
0.0
  0
TEXT
  5
5E2A
330
1F
100
AcDbEntity
  8
AM_5
100
AcDbText
 10
1309.63911484813
 20
2105.628619963261
 30
0.0
 40
3.2
  1
(Finger closing port)
  7
China
100
AcDbText
  0
TEXT
  5
5E2C
330
1F
100
AcDbEntity
  8
AM_5
100
AcDbText
 10
1024.205898812595
 20
1957.66305166163
 30
0.0
 40
3.2
  1
(Thread for mounting 
  7
China
100
AcDbText
  0
TEXT
  5
5E2D
330
1F
100
AcDbEntity
  8
AM_5
100
AcDbText
 10
1024.205898812595
 20
1953.335143814431
 30
0.0
 40
3.2
  1
attachment)
  7
China
100
AcDbText
  0
TEXT
  5
5E2E
330
1F
100
AcDbEntity
  8
AM_5
100
AcDbText
 10
1380.108161274258
 20
1952.114761821837
 30
0.0
 40
3.2
  1
(Mounting thread)
  7
China
100
AcDbText
  0
LINE
  5
6011
330
1F
100
AcDbEntity
  8
AM_7
100
AcDbLine
 10
1493.333161274258
 20
1864.128744658035
 30
0.0
 11
1498.333161274258
 21
1864.128744658035
 31
0.0
1001
GENIUS_GENOREF_13
1005
6015
  0
LINE
  5
6012
330
1F
100
AcDbEntity
  8
AM_7
100
AcDbLine
 10
1493.333161274258
 20
1864.128744658035
 30
0.0
 11
1493.333161274258
 21
1869.128744658035
 31
0.0
1001
GENIUS_GENOREF_13
1005
6015
  0
LINE
  5
6013
330
1F
100
AcDbEntity
  8
AM_7
100
AcDbLine
 10
1493.333161274258
 20
1864.128744658035
 30
0.0
 11
1488.333161274258
 21
1864.128744658035
 31
0.0
1001
GENIUS_GENOREF_13
1005
6015
  0
LINE
  5
6014
330
1F
100
AcDbEntity
  8
AM_7
100
AcDbLine
 10
1493.333161274258
 20
1864.128744658035
 30
0.0
 11
1493.333161274258
 21
1859.128744658035
 31
0.0
1001
GENIUS_GENOREF_13
1005
6015
  0
POINT
  5
6015
330
1F
100
AcDbEntity
  8
0
 60
     1
100
AcDbPoint
 10
0.0
 20
0.0
 30
0.0
1001
GENIUS_GENOLIS_13
1002
{
1000
ENT
1005
6014
1005
6013
1005
6012
1005
6011
1002
}
1001
GENIUS_GENOENT_13
1002
{
1000
MYREF
1005
6015
1002
}
1002
{
1000
GRP
1005
0
1002
}
1001
GENIUS_GENOBJ-N-CRS_13
1002
{
1000
OWNER
1000
GEN
1002
}
1001
GENIUS_GENODEF_13
1002
{
1000
HIER
1070
    10
1002
}
1002
{
1000
MANEDIT
1070
     0
1002
}
1002
{
1000
NOSEL
1070
     0
1002
}
1002
{
1000
BEHIND
1070
     0
1002
}
1002
{
1000
OTHER
1070
     0
1002
}
1002
{
1000
REACTOR
1002
}
  0
LINE
  5
6023
330
1F
100
AcDbEntity
  8
AM_7
100
AcDbLine
 10
1375.333161274258
 20
1864.128744658035
 30
0.0
 11
1380.833161274259
 21
1864.128744658035
 31
0.0
1001
GENIUS_GENOREF_13
1005
6027
  0
LINE
  5
6024
330
1F
100
AcDbEntity
  8
AM_7
100
AcDbLine
 10
1375.333161274258
 20
1864.128744658035
 30
0.0
 11
1375.333161274258
 21
1869.628744658035
 31
0.0
1001
GENIUS_GENOREF_13
1005
6027
  0
LINE
  5
6025
330
1F
100
AcDbEntity
  8
AM_7
100
AcDbLine
 10
1375.333161274258
 20
1864.128744658035
 30
0.0
 11
1369.833161274258
 21
1864.128744658035
 31
0.0
1001
GENIUS_GENOREF_13
1005
6027
  0
LINE
  5
6026
330
1F
100
AcDbEntity
  8
AM_7
100
AcDbLine
 10
1375.333161274258
 20
1864.128744658035
 30
0.0
 11
1375.333161274258
 21
1858.628744658035
 31
0.0
1001
GENIUS_GENOREF_13
1005
6027
  0
POINT
  5
6027
330
1F
100
AcDbEntity
  8
0
 60
     1
100
AcDbPoint
 10
0.0
 20
0.0
 30
0.0
1001
GENIUS_GENODEF_13
1002
{
1000
HIER
1070
    10
1002
}
1002
{
1000
MANEDIT
1070
     0
1002
}
1002
{
1000
NOSEL
1070
     0
1002
}
1002
{
1000
BEHIND
1070
     0
1002
}
1002
{
1000
OTHER
1070
     0
1002
}
1002
{
1000
REACTOR
1002
}
1001
GENIUS_GENOLIS_13
1002
{
1000
ENT
1005
6026
1005
6025
1005
6024
1005
6023
1002
}
1001
GENIUS_GENOENT_13
1002
{
1000
MYREF
1005
6027
1002
}
1002
{
1000
GRP
1005
0
1002
}
1001
GENIUS_GENOBJ-N-CRS_13
1002
{
1000
OWNER
1000
GEN
1002
}
  0
CIRCLE
  5
6028
330
1F
100
AcDbEntity
  8
0
  6
Continuous
 62
     7
100
AcDbCircle
 10
1463.833161274259
 20
1813.033245834754
 30
0.0
 40
4.5
  0
CIRCLE
  5
6029
330
1F
100
AcDbEntity
  8
0
  6
Continuous
 62
     2
100
AcDbCircle
 10
1404.833161274259
 20
1915.224243481318
 30
0.0
 40
4.0
  0
CIRCLE
  5
602A
330
1F
100
AcDbEntity
  8
0
  6
Continuous
 62
     7
100
AcDbCircle
 10
1404.833161274259
 20
1915.224243481318
 30
0.0
 40
3.3235
  0
LINE
  5
602B
330
1F
100
AcDbEntity
  8
AM_7
100
AcDbLine
 10
1404.833161274259
 20
1915.224243481317
 30
0.0
 11
1402.333161274258
 21
1919.554370500239
 31
0.0
1001
GENIUS_GENOREF_13
1005
6034
  0
LINE
  5
602C
330
1F
100
AcDbEntity
  8
AM_7
100
AcDbLine
 10
1404.833161274259
 20
1915.224243481317
 30
0.0
 11
1400.503034255336
 21
1912.724243481317
 31
0.0
1001
GENIUS_GENOREF_13
1005
6034
  0
LINE
  5
602D
330
1F
100
AcDbEntity
  8
AM_7
100
AcDbLine
 10
1404.833161274259
 20
1915.224243481317
 30
0.0
 11
1407.333161274259
 21
1910.894116462395
 31
0.0
1001
GENIUS_GENOREF_13
1005
6034
  0
LINE
  5
602E
330
1F
100
AcDbEntity
  8
AM_7
100
AcDbLine
 10
1404.833161274259
 20
1915.224243481317
 30
0.0
 11
1409.16328829318
 21
1917.724243481317
 31
0.0
1001
GENIUS_GENOREF_13
1005
6034
  0
LINE
  5
602F
330
1F
100
AcDbEntity
  8
AM_7
100
AcDbLine
 10
1463.833161274258
 20
1813.033245834753
 30
0.0
 11
1461.083161274259
 21
1817.796385555568
 31
0.0
1001
GENIUS_GENOREF_13
1005
6033
  0
LINE
  5
6030
330
1F
100
AcDbEntity
  8
AM_7
100
AcDbLine
 10
1463.833161274258
 20
1813.033245834753
 30
0.0
 11
1459.070021553444
 21
1810.283245834753
 31
0.0
1001
GENIUS_GENOREF_13
1005
6033
  0
LINE
  5
6031
330
1F
100
AcDbEntity
  8
AM_7
100
AcDbLine
 10
1463.833161274258
 20
1813.033245834753
 30
0.0
 11
1466.583161274258
 21
1808.270106113939
 31
0.0
1001
GENIUS_GENOREF_13
1005
6033
  0
LINE
  5
6032
330
1F
100
AcDbEntity
  8
AM_7
100
AcDbLine
 10
1463.833161274258
 20
1813.033245834753
 30
0.0
 11
1468.596300995073
 21
1815.783245834753
 31
0.0
1001
GENIUS_GENOREF_13
1005
6033
  0
POINT
  5
6033
330
1F
100
AcDbEntity
  8
0
 60
     1
100
AcDbPoint
 10
3731.297970681856
 20
1573.991601516196
 30
0.0
1001
GENIUS_GENODEF_13
1002
{
1000
HIER
1070
    10
1002
}
1002
{
1000
MANEDIT
1070
     0
1002
}
1002
{
1000
NOSEL
1070
     0
1002
}
1002
{
1000
BEHIND
1070
     0
1002
}
1002
{
1000
OTHER
1070
     0
1002
}
1002
{
1000
REACTOR
1002
}
1001
GENIUS_GENOLIS_13
1002
{
1000
ENT
1005
6032
1005
6031
1005
6030
1005
602F
1002
}
1001
GENIUS_GENOENT_13
1002
{
1000
MYREF
1005
6033
1002
}
1002
{
1000
GRP
1005
0
1002
}
1001
GENIUS_GENOBJ-N-CRS_13
1002
{
1000
OWNER
1000
GEN
1002
}
  0
POINT
  5
6034
330
1F
100
AcDbEntity
  8
0
 60
     1
100
AcDbPoint
 10
3731.297970681856
 20
1573.991601516196
 30
0.0
1001
GENIUS_GENOLIS_13
1002
{
1000
ENT
1005
602E
1005
602D
1005
602C
1005
602B
1002
}
1001
GENIUS_GENOENT_13
1002
{
1000
MYREF
1005
6034
1002
}
1002
{
1000
GRP
1005
0
1002
}
1001
GENIUS_GENOBJ-N-CRS_13
1002
{
1000
OWNER
1000
GEN
1002
}
1001
GENIUS_GENODEF_13
1002
{
1000
HIER
1070
    10
1002
}
1002
{
1000
MANEDIT
1070
     0
1002
}
1002
{
1000
NOSEL
1070
     0
1002
}
1002
{
1000
BEHIND
1070
     0
1002
}
1002
{
1000
OTHER
1070
     0
1002
}
1002
{
1000
REACTOR
1002
}
  0
CIRCLE
  5
6035
330
1F
100
AcDbEntity
  8
0
  6
Continuous
 62
     7
100
AcDbCircle
 10
1463.833161274259
 20
1915.224243481317
 30
0.0
 40
4.5
  0
CIRCLE
  5
6036
330
1F
100
AcDbEntity
  8
0
  6
Continuous
 62
     2
100
AcDbCircle
 10
1404.833161274259
 20
1813.033245834753
 30
0.0
 40
4.0
  0
CIRCLE
  5
6037
330
1F
100
AcDbEntity
  8
0
  6
Continuous
 62
     7
100
AcDbCircle
 10
1404.833161274259
 20
1813.033245834753
 30
0.0
 40
3.3235
  0
LINE
  5
6038
330
1F
100
AcDbEntity
  8
AM_7
100
AcDbLine
 10
1404.833161274259
 20
1813.033245834753
 30
0.0
 11
1402.333161274258
 21
1808.703118815831
 31
0.0
1001
GENIUS_GENOREF_13
1005
6041
  0
LINE
  5
6039
330
1F
100
AcDbEntity
  8
AM_7
100
AcDbLine
 10
1404.833161274259
 20
1813.033245834753
 30
0.0
 11
1409.163288293181
 21
1810.533245834753
 31
0.0
1001
GENIUS_GENOREF_13
1005
6041
  0
LINE
  5
603A
330
1F
100
AcDbEntity
  8
AM_7
100
AcDbLine
 10
1404.833161274259
 20
1813.033245834753
 30
0.0
 11
1407.333161274259
 21
1817.363372853676
 31
0.0
1001
GENIUS_GENOREF_13
1005
6041
  0
LINE
  5
603B
330
1F
100
AcDbEntity
  8
AM_7
100
AcDbLine
 10
1404.833161274259
 20
1813.033245834753
 30
0.0
 11
1400.503034255336
 21
1815.533245834753
 31
0.0
1001
GENIUS_GENOREF_13
1005
6041
  0
LINE
  5
603C
330
1F
100
AcDbEntity
  8
AM_7
100
AcDbLine
 10
1463.833161274258
 20
1915.224243481317
 30
0.0
 11
1461.083161274259
 21
1910.461103760503
 31
0.0
1001
GENIUS_GENOREF_13
1005
6040
  0
LINE
  5
603D
330
1F
100
AcDbEntity
  8
AM_7
100
AcDbLine
 10
1463.833161274258
 20
1915.224243481317
 30
0.0
 11
1468.596300995073
 21
1912.474243481317
 31
0.0
1001
GENIUS_GENOREF_13
1005
6040
  0
LINE
  5
603E
330
1F
100
AcDbEntity
  8
AM_7
100
AcDbLine
 10
1463.833161274258
 20
1915.224243481317
 30
0.0
 11
1466.583161274258
 21
1919.987383202132
 31
0.0
1001
GENIUS_GENOREF_13
1005
6040
  0
LINE
  5
603F
330
1F
100
AcDbEntity
  8
AM_7
100
AcDbLine
 10
1463.833161274258
 20
1915.224243481317
 30
0.0
 11
1459.070021553444
 21
1917.974243481317
 31
0.0
1001
GENIUS_GENOREF_13
1005
6040
  0
POINT
  5
6040
330
1F
100
AcDbEntity
  8
0
 60
     1
100
AcDbPoint
 10
502.5322730845494
 20
4018.394632457909
 30
0.0
1001
GENIUS_GENODEF_13
1002
{
1000
HIER
1070
    10
1002
}
1002
{
1000
MANEDIT
1070
     0
1002
}
1002
{
1000
NOSEL
1070
     0
1002
}
1002
{
1000
BEHIND
1070
     0
1002
}
1002
{
1000
OTHER
1070
     0
1002
}
1002
{
1000
REACTOR
1002
}
1001
GENIUS_GENOLIS_13
1002
{
1000
ENT
1005
603F
1005
603E
1005
603D
1005
603C
1002
}
1001
GENIUS_GENOENT_13
1002
{
1000
MYREF
1005
6040
1002
}
1002
{
1000
GRP
1005
0
1002
}
1001
GENIUS_GENOBJ-N-CRS_13
1002
{
1000
OWNER
1000
GEN
1002
}
  0
POINT
  5
6041
330
1F
100
AcDbEntity
  8
0
 60
     1
100
AcDbPoint
 10
502.5322730845494
 20
4018.394632457909
 30
0.0
1001
GENIUS_GENOLIS_13
1002
{
1000
ENT
1005
603B
1005
603A
1005
6039
1005
6038
1002
}
1001
GENIUS_GENOENT_13
1002
{
1000
MYREF
1005
6041
1002
}
1002
{
1000
GRP
1005
0
1002
}
1001
GENIUS_GENOBJ-N-CRS_13
1002
{
1000
OWNER
1000
GEN
1002
}
1001
GENIUS_GENODEF_13
1002
{
1000
HIER
1070
    10
1002
}
1002
{
1000
MANEDIT
1070
     0
1002
}
1002
{
1000
NOSEL
1070
     0
1002
}
1002
{
1000
BEHIND
1070
     0
1002
}
1002
{
1000
OTHER
1070
     0
1002
}
1002
{
1000
REACTOR
1002
}
  0
LINE
  5
604F
330
1F
100
AcDbEntity
  8
AM_7
100
AcDbLine
 10
1434.333161274258
 20
1864.128744658035
 30
0.0
 11
1513.829161274259
 21
1864.128744658035
 31
0.0
1001
GENIUS_GENOREF_13
1005
6053
  0
LINE
  5
6050
330
1F
100
AcDbEntity
  8
AM_7
100
AcDbLine
 10
1434.333161274258
 20
1864.128744658035
 30
0.0
 11
1434.333161274258
 21
1943.624744658036
 31
0.0
1001
GENIUS_GENOREF_13
1005
6053
  0
LINE
  5
6051
330
1F
100
AcDbEntity
  8
AM_7
100
AcDbLine
 10
1434.333161274258
 20
1864.128744658035
 30
0.0
 11
1354.837161274258
 21
1864.128744658035
 31
0.0
1001
GENIUS_GENOREF_13
1005
6053
  0
LINE
  5
6052
330
1F
100
AcDbEntity
  8
AM_7
100
AcDbLine
 10
1434.333161274258
 20
1864.128744658035
 30
0.0
 11
1434.333161274258
 21
1784.632744658035
 31
0.0
1001
GENIUS_GENOREF_13
1005
6053
  0
POINT
  5
6053
330
1F
100
AcDbEntity
  8
0
 60
     1
100
AcDbPoint
 10
0.0
 20
0.0
 30
0.0
1001
GENIUS_GENOENT_13
1002
{
1000
MYREF
1005
6053
1002
}
1002
{
1000
GRP
1005
0
1002
}
1001
GENIUS_GENODEF_13
1002
{
1000
HIER
1070
    10
1002
}
1002
{
1000
MANEDIT
1070
     0
1002
}
1002
{
1000
NOSEL
1070
     0
1002
}
1002
{
1000
BEHIND
1070
     0
1002
}
1002
{
1000
OTHER
1070
     0
1002
}
1002
{
1000
REACTOR
1002
}
1001
GENIUS_GENOLIS_13
1002
{
1000
ENT
1005
6052
1005
6051
1005
6050
1005
604F
1002
}
1001
GENIUS_GENOBJ-N-CRS_13
1002
{
1000
OWNER
1000
GEN
1002
}
  0
ENDSEC
  0
SECTION
  2
OBJECTS
  0
DICTIONARY
  5
C
330
0
100
AcDbDictionary
281
     1
  3
ACAD_COLOR
350
8FD
  3
ACAD_GROUP
350
D
  3
ACAD_LAYOUT
350
1A
  3
ACAD_MATERIAL
350
8FC
  3
ACAD_MLINESTYLE
350
17
  3
ACAD_PLOTSETTINGS
350
19
  3
ACAD_PLOTSTYLENAME
350
E
  3
ACAD_TABLESTYLE
350
8FE
  3
ACDBHEADERROUNDTRIPXREC
350
6543
  3
AcDbVariableDictionary
350
82
  3
AcmDictionary
350
45
  3
AMG
350
2B
  3
AMGSNAPSETTINGS
350
2026
  3
DWGPROPS
350
6542
  0
DICTIONARY
  5
E05
330
2
100
AcDbDictionary
280
     1
281
     1
  3
ACAD_LAYERFILTERS
360
E57
  3
ACAD_LAYERSTATES
360
E80
  3
ACLYDICTIONARY
360
E56
  3
AMLAYER_GROUPCOLORS
360
1991
  0
DICTIONARY
  5
7D
330
1F
100
AcDbDictionary
280
     1
281
     1
  3
ACAD_SORTENTS
360
19C4
  0
DICTIONARY
  5
8FD
102
{ACAD_REACTORS
330
C
102
}
330
C
100
AcDbDictionary
281
     1
  0
DICTIONARY
  5
D
102
{ACAD_REACTORS
330
C
102
}
330
C
100
AcDbDictionary
281
     1
  0
DICTIONARY
  5
1A
102
{ACAD_REACTORS
330
C
102
}
330
C
100
AcDbDictionary
281
     1
  3
Layout1
350
1E
  3
Layout2
350
26
  3
Model
350
22
  0
DICTIONARY
  5
8FC
102
{ACAD_REACTORS
330
C
102
}
330
C
100
AcDbDictionary
281
     1
  0
DICTIONARY
  5
17
102
{ACAD_REACTORS
330
C
102
}
330
C
100
AcDbDictionary
281
     1
  3
Standard
350
18
  0
DICTIONARY
  5
19
102
{ACAD_REACTORS
330
C
102
}
330
C
100
AcDbDictionary
281
     1
  0
ACDBDICTIONARYWDFLT
  5
E
102
{ACAD_REACTORS
330
C
102
}
330
C
100
AcDbDictionary
281
     1
  3
Normal
350
F
100
AcDbDictionaryWithDefault
340
F
  0
DICTIONARY
  5
8FE
102
{ACAD_REACTORS
330
C
102
}
330
C
100
AcDbDictionary
281
     1
  3
Standard
350
8FF
  0
DICTIONARY
  5
6543
102
{ACAD_REACTORS
330
C
102
}
330
C
100
AcDbDictionary
281
     1
  0
DICTIONARY
  5
82
102
{ACAD_REACTORS
330
C
102
}
330
C
100
AcDbDictionary
281
     1
  3
CTABLESTYLE
350
972
  3
DIMASSOC
350
85
  3
HIDETEXT
350
84
  3
INDEXCTL
350
83
  3
PROJECTNAME
350
973
  0
DICTIONARY
  5
45
102
{ACAD_REACTORS
330
C
102
}
330
C
100
AcDbDictionary
281
     1
  3
AcmStdDictionary
350
4A
  3
AMDTSECTSYM_ARROWCOLOR
350
90B
  0
DICTIONARY
  5
2B
102
{ACAD_REACTORS
330
C
102
}
330
C
100
AcDbDictionary
281
     1
  0
DICTIONARY
  5
2026
102
{ACAD_REACTORS
330
C
102
}
330
C
100
AcDbDictionary
281
     1
  0
XRECORD
  5
6542
102
{ACAD_REACTORS
330
C
102
}
330
C
100
AcDbXrecord
280
     1
  1
DWGPROPS COOKIE
  2

  3

  4

  6

  7

  8

  9

300
AmdtFileType=84
301
=
302
=
303
=
304
=
305
=
306
=
307
=
308
=
309
=
 40
0.5161394097222223
 41
2453021.369367211
 42
2453805.584703415
  1

 90
        1
  0
DICTIONARY
  5
E57
102
{ACAD_REACTORS
330
E05
102
}
330
E05
100
AcDbDictionary
281
     1
  0
DICTIONARY
  5
E80
102
{ACAD_REACTORS
330
E05
102
}
330
E05
100
AcDbDictionary
281
     1
  0
DICTIONARY
  5
E56
102
{ACAD_REACTORS
330
E05
102
}
330
E05
100
AcDbDictionary
281
     1
1001
ACAD
1000
<All
  0
DICTIONARY
  5
1991
102
{ACAD_REACTORS
330
E05
102
}
330
E05
100
AcDbDictionary
280
     1
281
     1
  0
SORTENTSTABLE
  5
19C4
102
{ACAD_REACTORS
330
7D
102
}
330
7D
100
AcDbSortentsTable
330
1F
331
AE3
  5
AE3
  0
LAYOUT
  5
1E
102
{ACAD_XDICTIONARY
360
6544
102
}
102
{ACAD_REACTORS
330
1A
102
}
330
1A
100
AcDbPlotSettings
  1

  2
自動 RD 上的 Epson Stylus Photo 750 單色
  4

  6

 40
0.0
 41
0.0
 42
0.0
 43
0.0
 44
0.0
 45
0.0
 46
0.0
 47
0.0
 48
0.0
 49
0.0
140
0.0
141
0.0
142
1.0
143
1.0
 70
   688
 72
     0
 73
     0
 74
     5
  7
彩色出圖.ctb
 75
    16
147
1.0
148
0.0
149
0.0
100
AcDbLayout
  1
Layout1
 70
     1
 71
     1
 10
0.0
 20
0.0
 11
420.0
 21
297.0
 12
0.0
 22
0.0
 32
0.0
 14
1.000000000000000E+20
 24
1.000000000000000E+20
 34
1.000000000000000E+20
 15
-1.000000000000000E+20
 25
-1.000000000000000E+20
 35
-1.000000000000000E+20
146
0.0
 13
0.0
 23
0.0
 33
0.0
 16
1.0
 26
0.0
 36
0.0
 17
0.0
 27
1.0
 37
0.0
 76
     0
330
1B
  0
LAYOUT
  5
26
102
{ACAD_XDICTIONARY
360
6548
102
}
102
{ACAD_REACTORS
330
1A
102
}
330
1A
100
AcDbPlotSettings
  1

  2
自動 RD 上的 Epson Stylus Photo 750 單色
  4

  6

 40
0.0
 41
0.0
 42
0.0
 43
0.0
 44
0.0
 45
0.0
 46
0.0
 47
0.0
 48
0.0
 49
0.0
140
0.0
141
0.0
142
1.0
143
1.0
 70
   688
 72
     0
 73
     0
 74
     5
  7
彩色出圖.ctb
 75
    16
147
1.0
148
0.0
149
0.0
100
AcDbLayout
  1
Layout2
 70
     1
 71
     2
 10
0.0
 20
0.0
 11
12.0
 21
9.0
 12
0.0
 22
0.0
 32
0.0
 14
0.0
 24
0.0
 34
0.0
 15
0.0
 25
0.0
 35
0.0
146
0.0
 13
0.0
 23
0.0
 33
0.0
 16
1.0
 26
0.0
 36
0.0
 17
0.0
 27
1.0
 37
0.0
 76
     0
330
23
  0
LAYOUT
  5
22
102
{ACAD_XDICTIONARY
360
6546
102
}
102
{ACAD_REACTORS
330
1A
102
}
330
1A
100
AcDbPlotSettings
  1

  2
自動 RD 上的 Epson Stylus Photo 750 單色
  4
A4
  6

 40
3.757083177566528
 41
14.7637300491333
 42
3.757080078125
 43
3.757080078125
 44
209.9733276367187
 45
296.9683227539062
 46
7.54
 47
0.0
 48
0.0
 49
0.0
140
0.0
141
0.0
142
1.0
143
1.817317462545654
 70
 11956
 72
     1
 73
     0
 74
     1
  7
彩色出圖.ctb
 75
     0
147
0.5502615919395967
148
-125.5654918467224
149
222.8859553785132
100
AcDbLayout
  1
Model
 70
     1
 71
     0
 10
0.0
 20
0.0
 11
12.0
 21
9.0
 12
0.0
 22
0.0
 32
0.0
 14
0.0
 24
0.0
 34
0.0
 15
0.0
 25
0.0
 35
0.0
146
0.0
 13
0.0
 23
0.0
 33
0.0
 16
1.0
 26
0.0
 36
0.0
 17
0.0
 27
1.0
 37
0.0
 76
     0
330
1F
  0
MLINESTYLE
  5
18
102
{ACAD_REACTORS
330
17
102
}
330
17
100
AcDbMlineStyle
  2
STANDARD
 70
     0
  3

 62
   256
 51
90.0
 52
90.0
 71
     2
 49
0.5
 62
   256
  6
BYLAYER
 49
-0.5
 62
   256
  6
BYLAYER
  0
ACDBPLACEHOLDER
  5
F
102
{ACAD_REACTORS
330
E
102
}
330
E
  0
TABLESTYLE
  5
8FF
102
{ACAD_REACTORS
330
8FE
102
}
330
8FE
100
AcDbTableStyle
  3
Standard
 70
     0
 71
     0
 40
1.5
 41
1.5
280
     0
281
     0
  7
STANDARD
140
4.5
170
     2
 62
     0
 63
     7
283
     0
274
    -2
284
     1
 64
     0
275
    -2
285
     1
 65
     0
276
    -2
286
     1
 66
     0
277
    -2
287
     1
 67
     0
278
    -2
288
     1
 68
     0
279
    -2
289
     1
 69
     0
  7
STANDARD
140
6.0
170
     5
 62
     0
 63
     7
283
     0
274
    -2
284
     1
 64
     0
275
    -2
285
     1
 65
     0
276
    -2
286
     1
 66
     0
277
    -2
287
     1
 67
     0
278
    -2
288
     1
 68
     0
279
    -2
289
     1
 69
     0
  7
STANDARD
140
4.5
170
     5
 62
     0
 63
     7
283
     0
274
    -2
284
     1
 64
     0
275
    -2
285
     1
 65
     0
276
    -2
286
     1
 66
     0
277
    -2
287
     1
 67
     0
278
    -2
288
     1
 68
     0
279
    -2
289
     1
 69
     0
  0
DICTIONARYVAR
  5
972
102
{ACAD_REACTORS
330
82
102
}
330
82
100
DictionaryVariables
280
     0
  1
STANDARD
  0
DICTIONARYVAR
  5
85
102
{ACAD_REACTORS
330
82
102
}
330
82
100
DictionaryVariables
280
     0
  1
2
  0
DICTIONARYVAR
  5
84
102
{ACAD_REACTORS
330
82
102
}
330
82
100
DictionaryVariables
280
     0
  1
1
  0
DICTIONARYVAR
  5
83
102
{ACAD_REACTORS
330
82
102
}
330
82
100
DictionaryVariables
280
     0
  1
0
  0
DICTIONARYVAR
  5
973
102
{ACAD_REACTORS
330
82
102
}
330
82
100
DictionaryVariables
280
     0
  1

  0
DICTIONARY
  5
4A
102
{ACAD_REACTORS
330
45
102
}
330
45
100
AcDbDictionary
281
     1
  0
XRECORD
  5
90B
102
{ACAD_REACTORS
330
45
102
}
330
45
100
AcDbXrecord
280
     1
 90
-1023410169
  0
DICTIONARY
  5
6544
330
1E
100
AcDbDictionary
280
     1
281
     1
  3
ACAD_XREC_ROUNDTRIP
360
6545
  0
DICTIONARY
  5
6548
330
26
100
AcDbDictionary
280
     1
281
     1
  3
ACAD_XREC_ROUNDTRIP
360
6549
  0
DICTIONARY
  5
6546
330
22
100
AcDbDictionary
280
     1
281
     1
  3
ACAD_XREC_ROUNDTRIP
360
6547
  0
XRECORD
  5
6545
102
{ACAD_REACTORS
330
6544
102
}
330
6544
100
AcDbXrecord
280
     1
102
SHADEPLOT
 70
     0
102
SHADEPLOTRESLEVEL
 70
     2
102
SHADEPLOTCUSTOMDPI
 70
   300
  0
XRECORD
  5
6549
102
{ACAD_REACTORS
330
6548
102
}
330
6548
100
AcDbXrecord
280
     1
102
SHADEPLOT
 70
     0
102
SHADEPLOTRESLEVEL
 70
     2
102
SHADEPLOTCUSTOMDPI
 70
   300
  0
XRECORD
  5
6547
102
{ACAD_REACTORS
330
6546
102
}
330
6546
100
AcDbXrecord
280
     1
102
SHADEPLOT
 70
     0
102
SHADEPLOTRESLEVEL
 70
     2
102
SHADEPLOTCUSTOMDPI
 70
   300
  0
ENDSEC
  0
EOF
