  0
SECTION
  2
HEADER
  9
$ACADVER
  1
AC1015
  9
$ACADMAINTVER
 70
    20
  9
$DWGCODEPAGE
  3
ANSI_950
  9
$INSBASE
 10
0.0
 20
0.0
 30
0.0
  9
$EXTMIN
 10
891.5652888948498
 20
568.2547871636197
 30
-0.0157258741218129
  9
$EXTMAX
 10
1345.994930422611
 20
898.855553479817
 30
216.5708407862265
  9
$LIMMIN
 10
0.0
 20
0.0
  9
$LIMMAX
 10
420.0
 20
297.0
  9
$ORTHOMODE
 70
     1
  9
$REGENMODE
 70
     1
  9
$FILLMODE
 70
     1
  9
$QTEXTMODE
 70
     0
  9
$MIRRTEXT
 70
     1
  9
$LTSCALE
 40
1.0
  9
$ATTMODE
 70
     1
  9
$TEXTSIZE
 40
3.0
  9
$TRACEWID
 40
1.0
  9
$TEXTSTYLE
  7
CHINESET
  9
$CLAYER
  8
0
  9
$CELTYPE
  6
ByLayer
  9
$CECOLOR
 62
   256
  9
$CELTSCALE
 40
1.0
  9
$DISPSILH
 70
     0
  9
$DIMSCALE
 40
1.0
  9
$DIMASZ
 40
3.5
  9
$DIMEXO
 40
1.0
  9
$DIMDLI
 40
8.0
  9
$DIMRND
 40
0.0
  9
$DIMDLE
 40
0.0
  9
$DIMEXE
 40
1.5
  9
$DIMTP
 40
0.1
  9
$DIMTM
 40
0.1
  9
$DIMTXT
 40
4.0
  9
$DIMCEN
 40
3.0
  9
$DIMTSZ
 40
0.0
  9
$DIMTOL
 70
     0
  9
$DIMLIM
 70
     0
  9
$DIMTIH
 70
     0
  9
$DIMTOH
 70
     0
  9
$DIMSE1
 70
     0
  9
$DIMSE2
 70
     0
  9
$DIMTAD
 70
     1
  9
$DIMZIN
 70
     8
  9
$DIMBLK
  1

  9
$DIMASO
 70
     1
  9
$DIMSHO
 70
     1
  9
$DIMPOST
  1

  9
$DIMAPOST
  1
"
  9
$DIMALT
 70
     0
  9
$DIMALTD
 70
     2
  9
$DIMALTF
 40
0.0393701
  9
$DIMLFAC
 40
1.0
  9
$DIMTOFL
 70
     1
  9
$DIMTVP
 40
0.0
  9
$DIMTIX
 70
     0
  9
$DIMSOXD
 70
     0
  9
$DIMSAH
 70
     0
  9
$DIMBLK1
  1

  9
$DIMBLK2
  1

  9
$DIMSTYLE
  2
AM_ISO
  9
$DIMCLRD
 70
   256
  9
$DIMCLRE
 70
   256
  9
$DIMCLRT
 70
   256
  9
$DIMTFAC
 40
0.71
  9
$DIMGAP
 40
0.8
  9
$DIMJUST
 70
     0
  9
$DIMSD1
 70
     0
  9
$DIMSD2
 70
     0
  9
$DIMTOLJ
 70
     0
  9
$DIMTZIN
 70
     8
  9
$DIMALTZ
 70
     0
  9
$DIMALTTZ
 70
     0
  9
$DIMUPT
 70
     0
  9
$DIMDEC
 70
     2
  9
$DIMTDEC
 70
     8
  9
$DIMALTU
 70
     2
  9
$DIMALTTD
 70
     2
  9
$DIMTXSTY
  7
STANDARD
  9
$DIMAUNIT
 70
     0
  9
$DIMADEC
 70
     0
  9
$DIMALTRND
 40
0.0
  9
$DIMAZIN
 70
     2
  9
$DIMDSEP
 70
    46
  9
$DIMATFIT
 70
     3
  9
$DIMFRAC
 70
     0
  9
$DIMLDRBLK
  1

  9
$DIMLUNIT
 70
     2
  9
$DIMLWD
 70
    -1
  9
$DIMLWE
 70
    -1
  9
$DIMTMOVE
 70
     0
  9
$LUNITS
 70
     2
  9
$LUPREC
 70
     2
  9
$SKETCHINC
 40
1.0
  9
$FILLETRAD
 40
2.5
  9
$AUNITS
 70
     0
  9
$AUPREC
 70
     0
  9
$MENU
  1
.
  9
$ELEVATION
 40
0.0
  9
$PELEVATION
 40
0.0
  9
$THICKNESS
 40
0.0
  9
$LIMCHECK
 70
     0
  9
$CHAMFERA
 40
2.5
  9
$CHAMFERB
 40
2.5
  9
$CHAMFERC
 40
20.0
  9
$CHAMFERD
 40
0.0
  9
$SKPOLY
 70
     0
  9
$TDCREATE
 40
2453021.369367211
  9
$TDUCREATE
 40
2453021.036033877
  9
$TDUPDATE
 40
2453805.583299872
  9
$TDUUPDATE
 40
2453805.249966539
  9
$TDINDWG
 40
0.4456316088
  9
$TDUSRTIMER
 40
0.4456312616
  9
$USRTIMER
 70
     1
  9
$ANGBASE
 50
0.0
  9
$ANGDIR
 70
     0
  9
$PDMODE
 70
     0
  9
$PDSIZE
 40
0.0
  9
$PLINEWID
 40
0.0
  9
$SPLFRAME
 70
     0
  9
$SPLINETYPE
 70
     6
  9
$SPLINESEGS
 70
     8
  9
$HANDSEED
  5
4848
  9
$SURFTAB1
 70
     6
  9
$SURFTAB2
 70
     6
  9
$SURFTYPE
 70
     6
  9
$SURFU
 70
     6
  9
$SURFV
 70
     6
  9
$UCSBASE
  2

  9
$UCSNAME
  2

  9
$UCSORG
 10
0.0
 20
0.0
 30
0.0
  9
$UCSXDIR
 10
1.0
 20
0.0
 30
0.0
  9
$UCSYDIR
 10
0.0
 20
1.0
 30
0.0
  9
$UCSORTHOREF
  2

  9
$UCSORTHOVIEW
 70
     0
  9
$UCSORGTOP
 10
0.0
 20
0.0
 30
0.0
  9
$UCSORGBOTTOM
 10
0.0
 20
0.0
 30
0.0
  9
$UCSORGLEFT
 10
0.0
 20
0.0
 30
0.0
  9
$UCSORGRIGHT
 10
0.0
 20
0.0
 30
0.0
  9
$UCSORGFRONT
 10
0.0
 20
0.0
 30
0.0
  9
$UCSORGBACK
 10
0.0
 20
0.0
 30
0.0
  9
$PUCSBASE
  2

  9
$PUCSNAME
  2

  9
$PUCSORG
 10
0.0
 20
0.0
 30
0.0
  9
$PUCSXDIR
 10
1.0
 20
0.0
 30
0.0
  9
$PUCSYDIR
 10
0.0
 20
1.0
 30
0.0
  9
$PUCSORTHOREF
  2

  9
$PUCSORTHOVIEW
 70
     0
  9
$PUCSORGTOP
 10
0.0
 20
0.0
 30
0.0
  9
$PUCSORGBOTTOM
 10
0.0
 20
0.0
 30
0.0
  9
$PUCSORGLEFT
 10
0.0
 20
0.0
 30
0.0
  9
$PUCSORGRIGHT
 10
0.0
 20
0.0
 30
0.0
  9
$PUCSORGFRONT
 10
0.0
 20
0.0
 30
0.0
  9
$PUCSORGBACK
 10
0.0
 20
0.0
 30
0.0
  9
$USERI1
 70
     0
  9
$USERI2
 70
     0
  9
$USERI3
 70
     0
  9
$USERI4
 70
     0
  9
$USERI5
 70
     0
  9
$USERR1
 40
0.0
  9
$USERR2
 40
0.0
  9
$USERR3
 40
0.0
  9
$USERR4
 40
0.0
  9
$USERR5
 40
0.0
  9
$WORLDVIEW
 70
     1
  9
$SHADEDGE
 70
     3
  9
$SHADEDIF
 70
    70
  9
$TILEMODE
 70
     1
  9
$MAXACTVP
 70
    64
  9
$PINSBASE
 10
0.0
 20
0.0
 30
0.0
  9
$PLIMCHECK
 70
     0
  9
$PEXTMIN
 10
1.000000000000000E+20
 20
1.000000000000000E+20
 30
1.000000000000000E+20
  9
$PEXTMAX
 10
-1.000000000000000E+20
 20
-1.000000000000000E+20
 30
-1.000000000000000E+20
  9
$PLIMMIN
 10
0.0
 20
0.0
  9
$PLIMMAX
 10
420.0
 20
297.0
  9
$UNITMODE
 70
     0
  9
$VISRETAIN
 70
     1
  9
$PLINEGEN
 70
     0
  9
$PSLTSCALE
 70
     1
  9
$TREEDEPTH
 70
  3020
  9
$CMLSTYLE
  2
Standard
  9
$CMLJUST
 70
     0
  9
$CMLSCALE
 40
20.0
  9
$PROXYGRAPHICS
 70
     1
  9
$MEASUREMENT
 70
     1
  9
$CELWEIGHT
370
    -1
  9
$ENDCAPS
280
     0
  9
$JOINSTYLE
280
     0
  9
$LWDISPLAY
290
     0
  9
$INSUNITS
 70
     4
  9
$HYPERLINKBASE
  1

  9
$STYLESHEET
  1
彩色出圖.ctb
  9
$XEDIT
290
     1
  9
$CEPSNTYPE
380
     0
  9
$PSTYLEMODE
290
     1
  9
$FINGERPRINTGUID
  2
{6C02722A-18D3-491A-897A-B8025DE410A9}
  9
$VERSIONGUID
  2
{5D3A9ED7-E1F8-47AB-ABCD-BADF2CD79B74}
  9
$EXTNAMES
290
     1
  9
$PSVPSCALE
 40
0.0
  9
$OLESTARTUP
290
     0
  0
ENDSEC
  0
SECTION
  2
CLASSES
  0
CLASS
  1
ACDBDICTIONARYWDFLT
  2
AcDbDictionaryWithDefault
  3
ObjectDBX Classes
 90
        0
280
     0
281
     0
  0
CLASS
  1
ACDBPLACEHOLDER
  2
AcDbPlaceHolder
  3
ObjectDBX Classes
 90
        0
280
     0
281
     0
  0
CLASS
  1
LAYOUT
  2
AcDbLayout
  3
ObjectDBX Classes
 90
        0
280
     0
281
     0
  0
CLASS
  1
AMGSETTINGSOBJ
  2
AmgSettingsObj
  3
"AcadM|Product Description: AutoCAD Mechanical 2000|Company: Autodesk"
 90
        0
280
     0
281
     0
  0
CLASS
  1
ACME_DOCUMENT
  2
AcMeDbDoc
  3
AcMeServices
 90
        0
280
     0
281
     0
  0
CLASS
  1
ACMESCOPE
  2
AcMeScope
  3
AcMeServices
 90
        0
280
     0
281
     0
  0
CLASS
  1
ACMECOMMANDHISTORY
  2
AcMeCommandHistory
  3
AcMeServices
 90
        0
280
     0
281
     0
  0
CLASS
  1
ACIMSYSVARMAN
  2
AcImSysVarManager
  3
AcMeServices
 90
        0
280
     0
281
     0
  0
CLASS
  1
ACIMREALSYSVAR
  2
AcImRealSysVar
  3
AcMeServices
 90
        0
280
     0
281
     0
  0
CLASS
  1
ACIMINTSYSVAR
  2
AcImIntSysVar
  3
AcMeServices
 90
        0
280
     0
281
     0
  0
CLASS
  1
ACMEDRAWINGMAN
  2
AcMeDrawingMan
  3
AcMeServices
 90
        0
280
     0
281
     0
  0
CLASS
  1
ACMEVIEW
  2
AcMeView
  3
AcMeServices
 90
        0
280
     0
281
     0
  0
CLASS
  1
ACDBENTITYCACHE
  2
AcMeEntityCache
  3
AcMeServices
 90
        0
280
     0
281
     0
  0
CLASS
  1
GSMANAGER
  2
AcMeGSManager
  3
AcMeServices
 90
        0
280
     0
281
     0
  0
CLASS
  1
AMDTINTERNALREACTOR
  2
AmdtInternalReactor
  3
AcMeServices
 90
        0
280
     0
281
     0
  0
CLASS
  1
ACMESTATEMGR
  2
AcMeStateMgr
  3
AcMeServices
 90
        0
280
     0
281
     0
  0
CLASS
  1
ACGREFMASTER
  2
AcGrefMaster
  3
AcAttribServices
 90
        0
280
     0
281
     0
  0
CLASS
  1
ACME_DATABASE
  2
AcMeDbDatabase
  3
AcMeServices
 90
        0
280
     0
281
     0
  0
CLASS
  1
ACRFINSADJUSTERMGR
  2
AcRfInsAdjusterMgr
  3
AcMeServices
 90
        0
280
     0
281
     0
  0
CLASS
  1
ACGREFACADMASTER
  2
AcGrefacadMaster
  3
AcGrefServices
 90
        0
280
     0
281
     0
  0
CLASS
  1
AMIMASTER
  2
AmiMaster
  3
AmiServices
 90
        0
280
     0
281
     0
  0
CLASS
  1
ACMDATADICTIONARY
  2
AcmDataDictionary
  3
"AcmSymBB|Product Description: AutoCAD Mechanical 2004 DX|Company: Autodesk"
 90
        0
280
     0
281
     0
  0
CLASS
  1
ACMDATAENTRYBLOCK
  2
AcmDataEntryBlock
  3
"AcmSymBB|Product Description: AutoCAD Mechanical 2004 DX|Company: Autodesk"
 90
    32768
280
     0
281
     0
  0
CLASS
  1
ACIMSTRSYSVAR
  2
AcImStrSysVar
  3
AcMeServices
 90
        0
280
     0
281
     0
  0
CLASS
  1
ACMSTANDARDISO
  2
AcmStandardISO
  3
"Amdt_StdImp|Product Description: AutoCAD Mechanical 2004 DX|Company: Autodesk"
 90
        0
280
     0
281
     0
  0
CLASS
  1
AMGOBJPROPCFG
  2
AmgObjPropCfg
  3
"AmgLay|Product Description: AutoCAD Mechanical 2000|Company: Autodesk"
 90
        1
280
     0
281
     0
  0
CLASS
  1
AMDTEDGESTANDARDISO
  2
AmdtEdgeStdISO
  3
"Amdt_StdImp|Product Description: AutoCAD Mechanical 2004 DX|Company: Autodesk"
 90
    32768
280
     0
281
     0
  0
CLASS
  1
ACMSURFSTANDARDISO
  2
AcmSurfTextStdISO
  3
"Amdt_StdImp|Product Description: AutoCAD Mechanical 2004 DX|Company: Autodesk"
 90
        0
280
     0
281
     0
  0
CLASS
  1
ACMFCFSTANDARDISO
  2
AcmFCFStdISO
  3
"Amdt_StdImp|Product Description: AutoCAD Mechanical 2004 DX|Company: Autodesk"
 90
        0
280
     0
281
     0
  0
CLASS
  1
ACMWELDSTANDARDISO
  2
AcmWeldingStdISO
  3
"Amdt_StdImp|Product Description: AutoCAD Mechanical 2004 DX|Company: Autodesk"
 90
        0
280
     0
281
     0
  0
CLASS
  1
ACMIDSTANDARDISO
  2
AcmIdStdISO
  3
"Amdt_StdImp|Product Description: AutoCAD Mechanical 2004 DX|Company: Autodesk"
 90
        0
280
     0
281
     0
  0
CLASS
  1
ACMDATUMSTANDARDISO
  2
AcmDatumStdISO
  3
"Amdt_StdImp|Product Description: AutoCAD Mechanical 2004 DX|Company: Autodesk"
 90
        0
280
     0
281
     0
  0
CLASS
  1
ACMBOMSTANDARDISO
  2
AcmBOMStdISO
  3
"Amdt_StdImp|Product Description: AutoCAD Mechanical 2004 DX|Company: Autodesk"
 90
        0
280
     0
281
     0
  0
CLASS
  1
ACMDETAILSTANDARDISO
  2
AmdtDetailSymStdISO
  3
"Amdt_StdImp|Product Description: AutoCAD Mechanical 2004 DX|Company: Autodesk"
 90
        0
280
     0
281
     0
  0
CLASS
  1
ACMSECTIONSTANDARDISO
  2
AmdtSectionSymStdISO
  3
"Amdt_StdImp|Product Description: AutoCAD Mechanical 2004 DX|Company: Autodesk"
 90
        0
280
     0
281
     0
  0
CLASS
  1
ACMCENTERLINESTANDARDISO
  2
AmdtCenterLineStdISO
  3
"Amdt_StdImp|Product Description: AutoCAD Mechanical 2004 DX|Company: Autodesk"
 90
        0
280
     0
281
     0
  0
CLASS
  1
ACMNOTESTANDARDISO
  2
AmdtNoteStdISO
  3
"Amdt_StdImp|Product Description: AutoCAD Mechanical 2004 DX|Company: Autodesk"
 90
        0
280
     0
281
     0
  0
CLASS
  1
ACAMGLAYSTD
  2
AcAmgLayStd
  3
"AcAmgLayStd|Product Description: AutoCAD Mechanical 2000|Company: Autodesk"
 90
        0
280
     0
281
     0
  0
CLASS
  1
ACAMGDIMSTD
  2
AcAmgDimStd
  3
"AcAmgDimStd|Product Description: AutoCAD Mechanical 2000|Company: Autodesk"
 90
        0
280
     0
281
     0
  0
CLASS
  1
ACAMGHOLECHARTSTDISO
  2
AcAmgHoleChartStdISO
  3
ACMSYMBB_MODULE_NAME
 90
        0
280
     0
281
     0
  0
CLASS
  1
ACAMGTITLESTD
  2
AcAmgTitleStd
  3
"TITLEAPP"
 90
        0
280
     0
281
     0
  0
CLASS
  1
LAYER_INDEX
  2
AcDbLayerIndex
  3
ObjectDBX Classes
 90
    32768
280
     0
281
     0
  0
CLASS
  1
IDBUFFER
  2
AcDbIdBuffer
  3
ObjectDBX Classes
 90
    32768
280
     0
281
     0
  0
CLASS
  1
DICTIONARYVAR
  2
AcDbDictionaryVar
  3
ObjectDBX Classes
 90
        0
280
     0
281
     0
  0
CLASS
  1
ACAMGFILTERDAT
  2
AcAmgFilterDat
  3
"AcadM|Product Description: AutoCAD Mechanical 2000|Company: Autodesk"
 90
        0
280
     0
281
     0
  0
CLASS
  1
AMDTFORMULAUPDATEDISPATCHER
  2
AmdtFormulaUpdateDispatcher
  3
AcMeServices
 90
    32768
280
     0
281
     0
  0
CLASS
  1
DIMASSOC
  2
AcDbDimAssoc
  3
"AcDbDimAssoc|Product Desc:     AcDim ARX App For Dimension|Company:          Autodesk, Inc.|WEB Address:      www.autodesk.com"
 90
    32768
280
     0
281
     0
  0
CLASS
  1
AMDTNOTE
  2
AmdtNote
  3
"AcmSymBB|Product Description: AutoCAD Mechanical 2004 DX|Company: Autodesk"
 90
    33791
280
     0
281
     1
  0
CLASS
  1
TABLESTYLE
  2
AcDbTableStyle
  3
ObjectDBX Classes
 90
     2047
280
     0
281
     0
  0
CLASS
  1
AM_DRAWING_MGR
  2
AcDmDwgMgr
  3
AcMechDwgViewMgmt
 90
        0
280
     0
281
     0
  0
CLASS
  1
AM_DWG_DOCUMENT
  2
AcDmDwgDocument
  3
AcMechDwgViewMgmt
 90
        0
280
     0
281
     0
  0
CLASS
  1
AM_DWG_SHEET
  2
AcDmSheet
  3
AcMechDwgViewMgmt
 90
        0
280
     0
281
     0
  0
CLASS
  1
AM_VIEWDIMPARMAP
  2
AcDmViewDimParMap
  3
AcMechDwgViewMgmt
 90
        0
280
     0
281
     0
  0
CLASS
  1
AM_DWGMGR_NAME
  2
AcDmDwgMgrName
  3
AcMechDwgViewMgmt
 90
        0
280
     0
281
     0
  0
CLASS
  1
AMDTMENUSTATEMGR
  2
AmdtMenuStateMgr
  3
McadcomServices
 90
        0
280
     0
281
     0
  0
CLASS
  1
AMDTMCOMMENUSTATE
  2
AmdtMcomMenuState
  3
McadcomServices
 90
        0
280
     0
281
     0
  0
CLASS
  1
MAPIAMMOUDLE
  2
MApiAmModule
  3
MApiAmServices
 90
        0
280
     0
281
     0
  0
CLASS
  1
AMDTADMENUSTATE
  2
AmdtAdMenuState
  3
DesignerServices
 90
        0
280
     0
281
     0
  0
CLASS
  1
ADAPPL
  2
AcAdAppl
  3
DesignerServices
 90
        0
280
     0
281
     0
  0
CLASS
  1
DEPMGR
  2
AcAdDepMgr
  3
DesignerServices
 90
        0
280
     0
281
     0
  0
CLASS
  1
PARAMMGR
  2
AcAdParamMgr
  3
DesignerServices
 90
        0
280
     0
281
     0
  0
CLASS
  1
PARAMSCOPE
  2
AcAdParamScope
  3
DesignerServices
 90
        0
280
     0
281
     0
  0
CLASS
  1
NAMEDAPPL
  2
AcAdNamedAppl
  3
DesignerServices
 90
        0
280
     0
281
     0
  0
CLASS
  1
AMDTDMMENUSTATE
  2
AmdtDmMenuState
  3
AcMechDwgViewMgmt
 90
        0
280
     0
281
     0
  0
CLASS
  1
AMDTAMMENUSTATE
  2
AmdtAmMenuState
  3
DesignerAssemblies
 90
        0
280
     0
281
     0
  0
CLASS
  1
ACAMPROJECT
  2
AcAmProject
  3
DesignerAssemblies
 90
        0
280
     0
281
     0
  0
CLASS
  1
ACAMGRCOMPDEF
  2
AcAmGrCompDef
  3
DesignerAssemblies
 90
        0
280
     0
281
     0
  0
CLASS
  1
ACCMCONTEXT
  2
AcCmContext
  3
DesignerAssemblies
 90
        0
280
     0
281
     0
  0
CLASS
  1
ACAMCOMPDEF
  2
AcAmCompDef
  3
DesignerAssemblies
 90
        0
280
     0
281
     0
  0
CLASS
  1
ACAMCOMPDEFMGR
  2
AcAmCompDefMgr
  3
DesignerAssemblies
 90
        0
280
     0
281
     0
  0
CLASS
  1
AMCONTEXTMGR
  2
AcAmContextMgr
  3
DesignerAssemblies
 90
        0
280
     0
281
     0
  0
CLASS
  1
ACAMCONTEXTMODELER
  2
AcAmContextModeler
  3
DesignerAssemblies
 90
        0
280
     0
281
     0
  0
CLASS
  1
ACMTHREADLINESTANDARDISO
  2
AmdtThreadLineStdISO
  3
"Amdt_StdImp|Product Description: AutoCAD Mechanical 2004 DX|Company: Autodesk"
 90
        0
280
     0
281
     0
  0
CLASS
  1
CATALOGSTATE
  2
AcAmCatalogState
  3
DesignerAssemblies
 90
        0
280
     0
281
     0
  0
CLASS
  1
ACAMGRCOMPDEFSET
  2
AcAmGrCompDefSet
  3
DesignerAssemblies
 90
        0
280
     0
281
     0
  0
CLASS
  1
AMDTBROWSERDBTAB
  2
AmdtBrowserDbTab
  3
McadcomServices
 90
        0
280
     0
281
     0
  0
CLASS
  1
CBROWSERAPPOBJECT
  2
CBrowserAppObject
  3
McadcomServices
 90
        0
280
     0
281
     0
  0
CLASS
  1
DM_PLACEHOLDER
  2
AcDmSelsetPlaceholder
  3
AcMechDwgViewMgmt
 90
        0
280
     0
281
     0
  0
CLASS
  1
VAACXREFPANELOBJECT
  2
VaAcXREFPanelObject
  3
VAAC_ADDIN
 90
    32768
280
     0
281
     0
  0
CLASS
  1
VAACIMAGEINVENTORY
  2
VaAcImageInventory
  3
VAAC_ADDIN
 90
    32768
280
     0
281
     0
  0
CLASS
  1
AMDTEDGESTANDARDISO13715
  2
AmdtEdgeStdISO13715
  3
"Amdt_StdImp|Product Description: AutoCAD Mechanical 2004 DX|Company: Autodesk"
 90
        0
280
     0
281
     0
  0
CLASS
  1
AMDTNOTETEMPLATEDB
  2
AmdtNoteTemplateDB
  3
AMDT_STDIMP_MODULE_NAME
 90
        0
280
     0
281
     0
  0
CLASS
  1
ACRFATTGENMGR
  2
AcRfAttGeneralMgr
  3
AcAttribServices
 90
        0
280
     0
281
     0
  0
CLASS
  1
STDPART2D
  2
AmgStdPart
  3
"AmgStdPart|Product Description: AutoCAD Mechanical 2000|Company: Autodesk"
 90
    33791
280
     0
281
     1
  0
CLASS
  1
ACAMSTDPCOMPDEF
  2
AcAmStdpCompDef
  3
DesignerAssemblies
 90
    32768
280
     0
281
     0
  0
CLASS
  1
ACRFOBJATTMGR
  2
AcRfObjAttGroupMgr
  3
AcAttribServices
 90
    32768
280
     0
281
     0
  0
CLASS
  1
ACRFMCADAPIATTHOLDER
  2
AcRfMCADAPIAttHolder
  3
AcAttribServices
 90
    32768
280
     0
281
     0
  0
CLASS
  1
AMDTSYSATTR
  2
AmdtSystemAttribute
  3
AcAttribServices
 90
    32768
280
     0
281
     0
  0
CLASS
  1
ACAMCOMP
  2
AcAmComp
  3
DesignerAssemblies
 90
    32768
280
     0
281
     0
  0
CLASS
  1
AC_AM_STDP_VIEW_DEF
  2
AcAmStdpViewDef
  3
DesignerAssemblies
 90
    32768
280
     0
281
     0
  0
CLASS
  1
AC_AM_MVD_DEP_MGR
  2
AcAmMVDdepMgr
  3
DesignerAssemblies
 90
        0
280
     0
281
     0
  0
CLASS
  1
AC_AM_MASTER_VIEW_DEF
  2
AcAmMasterViewDef
  3
DesignerAssemblies
 90
        0
280
     0
281
     0
  0
CLASS
  1
AC_AM_DIRTY_NODES
  2
AcAmDirtyNodes
  3
DesignerAssemblies
 90
        0
280
     0
281
     0
  0
CLASS
  1
AC_AM_MAPPER_CACHE
  2
AcAmMapperCache
  3
DesignerAssemblies
 90
        0
280
     0
281
     0
  0
CLASS
  1
ACAMMVDBACKUPOBJECT
  2
AcAmMVDBackupObject
  3
DesignerAssemblies
 90
        0
280
     0
281
     0
  0
CLASS
  1
AC_AM_COMP_VIEW_INST
  2
AcAmCompView
  3
DesignerAssemblies
 90
    32768
280
     0
281
     0
  0
CLASS
  1
AC_AM_2D_XREF_MGR
  2
AcAmXrefMgr2d
  3
DesignerAssemblies
 90
        0
280
     0
281
     0
  0
CLASS
  1
SORTENTSTABLE
  2
AcDbSortentsTable
  3
ObjectDBX Classes
 90
        0
280
     0
281
     0
  0
ENDSEC
  0
SECTION
  2
TABLES
  0
TABLE
  2
VPORT
  5
8
330
0
100
AcDbSymbolTable
 70
     3
  0
VPORT
  5
483F
330
8
100
AcDbSymbolTableRecord
100
AcDbViewportTableRecord
  2
*Active
 70
     0
 10
0.0
 20
0.0
 11
1.0
 21
1.0
 12
1118.78741618565
 22
733.5580402540695
 13
0.0
 23
0.0
 14
2.5
 24
2.5
 15
10.0
 25
10.0
 16
0.0
 26
0.0
 36
1.0
 17
0.0
 27
0.0
 37
0.0
 40
334.6216228408155
 41
1.81766917293233
 42
50.0
 43
0.0
 44
0.0
 50
0.0
 51
0.0
 71
     0
 72
   100
 73
     1
 74
     3
 75
     0
 76
     0
 77
     0
 78
     0
281
     0
 65
     1
110
0.0
120
0.0
130
0.0
111
1.0
121
0.0
131
0.0
112
0.0
122
1.0
132
0.0
 79
     0
146
0.0
  0
ENDTAB
  0
TABLE
  2
LTYPE
  5
5
330
0
100
AcDbSymbolTable
 70
    14
  0
LTYPE
  5
14
330
5
100
AcDbSymbolTableRecord
100
AcDbLinetypeTableRecord
  2
ByBlock
 70
     0
  3

 72
    65
 73
     0
 40
0.0
  0
LTYPE
  5
15
330
5
100
AcDbSymbolTableRecord
100
AcDbLinetypeTableRecord
  2
ByLayer
 70
     0
  3

 72
    65
 73
     0
 40
0.0
  0
LTYPE
  5
16
330
5
100
AcDbSymbolTableRecord
100
AcDbLinetypeTableRecord
  2
Continuous
 70
     0
  3
Solid line
 72
    65
 73
     0
 40
0.0
  0
LTYPE
  5
4D
330
5
100
AcDbSymbolTableRecord
100
AcDbLinetypeTableRecord
  2
AM_ISO02W050
 70
     0
  3
__ __ __ __ __ __ __ __ __ __ __ __ __ __ __
 72
    65
 73
     2
 40
7.5
 49
6.0
 74
     0
 49
-1.5
 74
     0
  0
LTYPE
  5
4E
330
5
100
AcDbSymbolTableRecord
100
AcDbLinetypeTableRecord
  2
AM_ISO08W050
 70
     0
  3
____ . ____ . ____ . ____ . ____ . ____ . ____
 72
    65
 73
     4
 40
18.0
 49
12.0
 74
     0
 49
-1.5
 74
     0
 49
3.0
 74
     0
 49
-1.5
 74
     0
  0
LTYPE
  5
4F
330
5
100
AcDbSymbolTableRecord
100
AcDbLinetypeTableRecord
  2
AM_ISO09W050
 70
     0
  3
_____ . . _____ . . _____ . . ____ .. ____
 72
    65
 73
     6
 40
22.5
 49
12.0
 74
     0
 49
-1.5
 74
     0
 49
3.0
 74
     0
 49
-1.5
 74
     0
 49
3.0
 74
     0
 49
-1.5
 74
     0
  0
LTYPE
  5
50
330
5
100
AcDbSymbolTableRecord
100
AcDbLinetypeTableRecord
  2
Amconstr
 70
     0
  3
_______________________
 72
    65
 73
     2
 40
9999.0
 49
9999.0
 74
     0
 49
0.0
 74
     0
  0
LTYPE
  5
51
330
5
100
AcDbSymbolTableRecord
100
AcDbLinetypeTableRecord
  2
AM_ISO08W050x2
 70
     0
  3
__ . __ . __ . __ . __ . __
 72
    65
 73
     4
 40
9.0
 49
6.0
 74
     0
 49
-0.75
 74
     0
 49
1.5
 74
     0
 49
-0.75
 74
     0
  0
LTYPE
  5
52
330
5
100
AcDbSymbolTableRecord
100
AcDbLinetypeTableRecord
  2
AM_ISO02W050x2
 70
     0
  3
 _ _ _ _ _ _ _ _ _ _ _ _
 72
    65
 73
     2
 40
3.75
 49
3.0
 74
     0
 49
-0.75
 74
     0
  0
LTYPE
  5
55
330
5
100
AcDbSymbolTableRecord
100
AcDbLinetypeTableRecord
  2
Amzigzag
 70
     0
  3
/\/-/\/-/\/-/\/-/\/-/\/
 72
    65
 73
     2
 40
11.0001
 49
0.0001
 74
     4
 75
   135
340
54
 46
0.04
 50
0.0
 44
0.0
 45
0.0
 49
-11.0
 74
     0
  0
LTYPE
  5
63
330
5
100
AcDbSymbolTableRecord
100
AcDbLinetypeTableRecord
  2
ACISOWELD
 70
     0
  3
_ _ _ _ _
 72
    65
 73
     2
 40
2.0
 49
2.0
 74
     0
 49
-1.0
 74
     0
  0
LTYPE
  5
64
330
5
100
AcDbSymbolTableRecord
100
AcDbLinetypeTableRecord
  2
ACISOTGB
 70
     0
  3
__ . . __ . .
 72
    65
 73
     6
 40
9.0
 49
4.0
 74
     0
 49
-1.0
 74
     0
 49
1.0
 74
     0
 49
-1.0
 74
     0
 49
1.0
 74
     0
 49
-1.0
 74
     0
  0
LTYPE
  5
65
330
5
100
AcDbSymbolTableRecord
100
AcDbLinetypeTableRecord
  2
ACISOTGL
 70
     0
  3
_ _ _ _ _
 72
    65
 73
     2
 40
3.0
 49
2.0
 74
     0
 49
-1.0
 74
     0
  0
LTYPE
  5
68
330
5
100
AcDbSymbolTableRecord
100
AcDbLinetypeTableRecord
  2
CENTER
 70
     0
  3
__ . __
 72
    65
 73
     4
 40
7.0
 49
4.0
 74
     0
 49
-1.0
 74
     0
 49
1.0
 74
     0
 49
-1.0
 74
     0
  0
LTYPE
  5
932
330
5
100
AcDbSymbolTableRecord
100
AcDbLinetypeTableRecord
  2
HIDDEN
 70
     0
  3
Hidden __ __ __ __ __ __ __ __ __ __ __ __ __ _
 72
    65
 73
     2
 40
9.524999999999998
 49
6.349999999999999
 74
     0
 49
-3.174999999999999
 74
     0
  0
LTYPE
  5
933
330
5
100
AcDbSymbolTableRecord
100
AcDbLinetypeTableRecord
  2
PHANTOM2
 70
     0
  3
Phantom (.5x) ___ _ _ ___ _ _ ___ _ _ ___ _ _
 72
    65
 73
     6
 40
31.75
 49
15.875
 74
     0
 49
-3.174999999999999
 74
     0
 49
3.174999999999999
 74
     0
 49
-3.174999999999999
 74
     0
 49
3.174999999999999
 74
     0
 49
-3.174999999999999
 74
     0
  0
ENDTAB
  0
TABLE
  2
LAYER
  5
2
102
{ACAD_XDICTIONARY
360
E05
102
}
330
0
100
AcDbSymbolTable
 70
     6
  0
LAYER
  5
10
330
2
100
AcDbSymbolTableRecord
100
AcDbLayerTableRecord
  2
0
 70
     0
 62
     7
  6
Continuous
370
    -3
390
F
  0
LAYER
  5
2D7
330
2
100
AcDbSymbolTableRecord
100
AcDbLayerTableRecord
  2
M_1
 70
     0
 62
     7
  6
Continuous
370
    -3
390
F
  0
LAYER
  5
42A
330
2
100
AcDbSymbolTableRecord
100
AcDbLayerTableRecord
  2
AM_5
 70
     0
 62
     5
  6
Continuous
370
    50
390
F
  0
LAYER
  5
43E
330
2
100
AcDbSymbolTableRecord
100
AcDbLayerTableRecord
  2
Defpoints
 70
     0
 62
     7
  6
Continuous
290
     0
370
    -3
390
F
  0
LAYER
  5
E7E
330
2
100
AcDbSymbolTableRecord
100
AcDbLayerTableRecord
  2
AM_7
 70
     0
 62
     1
  6
CENTER
370
    25
390
F
  0
LAYER
  5
2787
330
2
100
AcDbSymbolTableRecord
100
AcDbLayerTableRecord
  2
LOGO
 70
     0
 62
     7
  6
Continuous
370
    -3
390
F
  0
ENDTAB
  0
TABLE
  2
STYLE
  5
3
330
0
100
AcDbSymbolTable
 70
     8
  0
STYLE
  5
11
330
3
100
AcDbSymbolTableRecord
100
AcDbTextStyleTableRecord
  2
STANDARD
 70
     0
 40
0.0
 41
1.0
 50
0.0
 71
     0
 42
3.5
  3
ISOCP.SHX
  4
CHINESET.SHX
  0
STYLE
  5
54
330
3
100
AcDbSymbolTableRecord
100
AcDbTextStyleTableRecord
  2

 70
     1
 40
0.0
 41
1.0
 50
0.0
 71
     0
 42
2.5
  3
ltypeshp.shx
  4

  0
STYLE
  5
56
330
3
100
AcDbSymbolTableRecord
100
AcDbTextStyleTableRecord
  2
ACISOTS
 70
     0
 40
1.0
 41
1.0
 50
0.0
 71
     0
 42
2.5
  3
isocp.shx
  4
chineset.shx
  0
STYLE
  5
62
330
3
100
AcDbSymbolTableRecord
100
AcDbTextStyleTableRecord
  2
ACISOGDT
 70
     0
 40
0.0
 41
1.0
 50
0.0
 71
     0
 42
3.5
  3
amgdt.shx
  4

  0
STYLE
  5
9E
330
3
100
AcDbSymbolTableRecord
100
AcDbTextStyleTableRecord
  2
DAYUS
 70
     0
 40
0.0
 41
1.0
 50
0.0
 71
     0
 42
2.5
  3
simplex
  4
dayus
  0
STYLE
  5
10CF
330
3
100
AcDbSymbolTableRecord
100
AcDbTextStyleTableRecord
  2
CHINESET
 70
     0
 40
0.0
 41
0.75
 50
0.0
 71
     0
 42
3.0
  3
simplex.shx
  4
CHINESET.SHX
  0
STYLE
  5
2BA6
330
3
100
AcDbSymbolTableRecord
100
AcDbTextStyleTableRecord
  2
China
 70
     0
 40
0.0
 41
1.0
 50
0.0
 71
     0
 42
2.5
  3
romans.shx
  4
chineset.shx
  0
ENDTAB
  0
TABLE
  2
VIEW
  5
6
330
0
100
AcDbSymbolTable
 70
     0
  0
ENDTAB
  0
TABLE
  2
UCS
  5
7
330
0
100
AcDbSymbolTable
 70
     0
  0
ENDTAB
  0
TABLE
  2
APPID
  5
9
330
0
100
AcDbSymbolTable
 70
    31
  0
APPID
  5
12
330
9
100
AcDbSymbolTableRecord
100
AcDbRegAppTableRecord
  2
ACAD
 70
     0
  0
APPID
  5
30
330
9
100
AcDbSymbolTableRecord
100
AcDbRegAppTableRecord
  2
MCAD_NO_VIS
 70
     0
  0
APPID
  5
31
330
9
100
AcDbSymbolTableRecord
100
AcDbRegAppTableRecord
  2
ACAD_TEMP_GRAPHIC
 70
     0
  0
APPID
  5
42
330
9
100
AcDbSymbolTableRecord
100
AcDbRegAppTableRecord
  2
ACATTRIBSERVICES
 70
     0
  0
APPID
  5
20A
330
9
100
AcDbSymbolTableRecord
100
AcDbRegAppTableRecord
  2
GENIUS_GENODEF_13
 70
     0
  0
APPID
  5
20B
330
9
100
AcDbSymbolTableRecord
100
AcDbRegAppTableRecord
  2
GENIUS_GENOBJ-N-HTC_13
 70
     0
  0
APPID
  5
20C
330
9
100
AcDbSymbolTableRecord
100
AcDbRegAppTableRecord
  2
GENIUS_GENHATCH_13
 70
     0
  0
APPID
  5
935
330
9
100
AcDbSymbolTableRecord
100
AcDbRegAppTableRecord
  2
AD_DRAW
 70
     0
  0
APPID
  5
953
330
9
100
AcDbSymbolTableRecord
100
AcDbRegAppTableRecord
  2
DESIGNERASSEMBLIES
 70
     0
  0
APPID
  5
958
330
9
100
AcDbSymbolTableRecord
100
AcDbRegAppTableRecord
  2
ACADM_DIM_EDIT
 70
     0
  0
APPID
  5
959
330
9
100
AcDbSymbolTableRecord
100
AcDbRegAppTableRecord
  2
AMDT_DM_ADJ
 70
     0
  0
APPID
  5
E24
330
9
100
AcDbSymbolTableRecord
100
AcDbRegAppTableRecord
  2
ACAD_DSTYLE_DIMTEXT_FILL
 70
     0
  0
APPID
  5
10D0
330
9
100
AcDbSymbolTableRecord
100
AcDbRegAppTableRecord
  2
ACAD_PSEXT
 70
     0
  0
APPID
  5
16F7
330
9
100
AcDbSymbolTableRecord
100
AcDbRegAppTableRecord
  2
ACAD_DIMASSOC_DIMLFAC
 70
     0
  0
APPID
  5
16F8
330
9
100
AcDbSymbolTableRecord
100
AcDbRegAppTableRecord
  2
ACAD_DIMASSOC_CALC_DIMLFAC
 70
     0
  0
APPID
  5
16F9
330
9
100
AcDbSymbolTableRecord
100
AcDbRegAppTableRecord
  2
ACAD_DIMASSOC_OVERRIDDEN_DIMLFAC
 70
     0
  0
APPID
  5
1997
330
9
100
AcDbSymbolTableRecord
100
AcDbRegAppTableRecord
  2
GEVID1139552286
 70
     0
  0
APPID
  5
1998
330
9
100
AcDbSymbolTableRecord
100
AcDbRegAppTableRecord
  2
GEVDC
 70
     0
  0
APPID
  5
1999
330
9
100
AcDbSymbolTableRecord
100
AcDbRegAppTableRecord
  2
GEVRADREF
 70
     0
  0
APPID
  5
19A2
330
9
100
AcDbSymbolTableRecord
100
AcDbRegAppTableRecord
  2
AMG_2DHIDE
 70
     0
  0
APPID
  5
19A3
330
9
100
AcDbSymbolTableRecord
100
AcDbRegAppTableRecord
  2
AMG_2DSTRUCT_BTR
 70
     0
  0
APPID
  5
19B4
330
9
100
AcDbSymbolTableRecord
100
AcDbRegAppTableRecord
  2
ACADM_2DVIEW_IGN_NOTIFY
 70
     0
  0
APPID
  5
19DC
330
9
100
AcDbSymbolTableRecord
100
AcDbRegAppTableRecord
  2
GENIUS_GENOENT_13
 70
     0
  0
APPID
  5
19DD
330
9
100
AcDbSymbolTableRecord
100
AcDbRegAppTableRecord
  2
GENIUS_GENOBJ-N-CRS_13
 70
     0
  0
APPID
  5
19DE
330
9
100
AcDbSymbolTableRecord
100
AcDbRegAppTableRecord
  2
GENIUS_GENOLIS_13
 70
     0
  0
APPID
  5
19DF
330
9
100
AcDbSymbolTableRecord
100
AcDbRegAppTableRecord
  2
GENIUS_GENOREF_13
 70
     0
  0
APPID
  5
1B28
330
9
100
AcDbSymbolTableRecord
100
AcDbRegAppTableRecord
  2
GENIUS_GENOBJ-N-CEN_13
 70
     0
  0
APPID
  5
1B29
330
9
100
AcDbSymbolTableRecord
100
AcDbRegAppTableRecord
  2
GENIUS_GENCEN_19
 70
     0
  0
APPID
  5
2753
330
9
100
AcDbSymbolTableRecord
100
AcDbRegAppTableRecord
  2
GENIUS_GENDTOL_13
 70
     0
  0
APPID
  5
2788
330
9
100
AcDbSymbolTableRecord
100
AcDbRegAppTableRecord
  2
GENIUS_GENREC_14
 70
     0
  0
APPID
  5
2789
330
9
100
AcDbSymbolTableRecord
100
AcDbRegAppTableRecord
  2
GENIUS_GENOBJ-N-REC_13
 70
     0
  0
ENDTAB
  0
TABLE
  2
DIMSTYLE
  5
A
330
0
100
AcDbSymbolTable
 70
    10
100
AcDbDimStyleTable
 71
     2
340
6B
340
75
  0
DIMSTYLE
105
6B
330
A
100
AcDbSymbolTableRecord
100
AcDbDimStyleTableRecord
  2
AM_ISO
 70
     0
  4
"
 41
3.5
 42
1.0
 43
8.0
 44
1.5
 47
0.1
 48
0.1
 73
     0
 74
     0
 77
     1
 78
     8
 79
     2
140
4.0
141
3.0
143
0.0393701
146
0.71
147
0.8
172
     1
176
   256
177
   256
178
   256
271
     2
272
     2
283
     0
284
     8
340
11
371
    -1
372
    -1
  0
DIMSTYLE
105
6C
330
A
100
AcDbSymbolTableRecord
100
AcDbDimStyleTableRecord
  2
AM_ISO$3
 70
     0
  4
"
 41
3.5
 42
1.0
 43
8.0
 44
1.5
 47
0.1
 48
0.1
 73
     0
 77
     1
 78
     8
 79
     2
140
4.0
141
3.0
143
0.0393701
146
0.71
147
0.8
176
   256
177
   256
178
   256
271
     2
272
     2
283
     0
284
     8
288
     1
289
     0
340
11
371
    -1
372
    -1
  0
DIMSTYLE
105
6D
330
A
100
AcDbSymbolTableRecord
100
AcDbDimStyleTableRecord
  2
AM_ISO$4
 70
     0
  4
"
 41
3.5
 42
1.0
 43
8.0
 44
1.5
 47
0.1
 48
0.1
 73
     0
 77
     1
 78
     8
 79
     2
140
4.0
141
3.0
143
0.0393701
146
0.71
147
0.8
176
   256
177
   256
178
   256
271
     2
272
     2
283
     0
284
     8
288
     1
289
     0
340
11
371
    -1
372
    -1
  0
DIMSTYLE
105
6E
330
A
100
AcDbSymbolTableRecord
100
AcDbDimStyleTableRecord
  2
AM_ISO$6
 70
     0
  4
"
 41
3.5
 42
1.0
 43
8.0
 44
1.5
 47
0.1
 48
0.1
 73
     0
 74
     0
 78
     8
 79
     2
140
4.0
141
3.0
143
0.0393701
146
0.71
147
0.8
172
     1
176
   256
177
   256
178
   256
271
     2
272
     2
283
     0
284
     8
340
11
371
    -1
372
    -1
  0
DIMSTYLE
105
6F
102
{ACAD_REACTORS
330
4231
330
4230
102
}
330
A
100
AcDbSymbolTableRecord
100
AcDbDimStyleTableRecord
  2
AM_ISO$7
 70
     0
  4
"
 41
3.5
 42
1.0
 43
8.0
 44
1.5
 47
0.1
 48
0.1
 73
     0
 74
     0
 77
     1
 78
     8
 79
     2
140
5.0
141
3.0
143
0.0393701
146
0.71
147
0.8
172
     1
176
   256
177
   256
178
   256
271
     2
272
     2
283
     0
284
     8
340
11
371
    -1
372
    -1
  0
DIMSTYLE
105
70
330
A
100
AcDbSymbolTableRecord
100
AcDbDimStyleTableRecord
  2
AM_ISO$SF
 70
     0
  4
"
 41
2.5
 42
1.0
 43
10.0
 44
1.0
 47
0.1
 48
0.1
 73
     0
 74
     0
 75
     1
 76
     1
 77
     1
 78
     8
 79
     2
140
3.5
141
0.0
143
0.0393701
146
0.71
147
1.5
172
     1
176
   256
177
   256
178
     2
271
     2
272
     3
274
     4
283
     0
284
     8
340
11
371
    -1
372
    -1
  0
DIMSTYLE
105
75
330
A
100
AcDbSymbolTableRecord
100
AcDbDimStyleTableRecord
  2
AM_ISO$SH
 70
     0
  4
"
 41
2.5
 42
1.0
 43
10.0
 44
1.0
 47
0.1
 48
0.1
 73
     0
 74
     0
 75
     1
 76
     1
 77
     1
 78
     8
 79
     2
140
3.5
141
0.0
143
0.0393701
144
2.0
146
0.71
147
1.5
172
     1
173
     1
176
   256
177
   256
178
     2
271
     2
272
     3
274
     4
283
     0
284
     8
340
11
343
71
371
    -1
372
    -1
  0
DIMSTYLE
105
E7F
102
{ACAD_REACTORS
330
422B
330
4229
330
4298
330
4294
330
42A7
330
4228
330
429A
330
423A
330
429D
330
4237
330
42B6
330
41F0
330
41A8
330
41AF
330
41B4
330
416F
330
416B
330
4177
330
4176
330
42B8
330
41F8
330
418D
102
}
330
A
100
AcDbSymbolTableRecord
100
AcDbDimStyleTableRecord
  2
AM_ISO$0
 70
     0
  4
"
 41
3.5
 42
1.0
 43
8.0
 44
1.5
 47
0.1
 48
0.1
 73
     0
 74
     0
 77
     1
 78
     8
 79
     2
140
4.0
141
3.0
143
0.0393701
146
0.71
147
0.8
172
     1
176
   256
177
   256
178
   256
271
     2
272
     2
283
     0
284
     8
340
11
371
    -1
372
    -1
  0
DIMSTYLE
105
1597
330
A
100
AcDbSymbolTableRecord
100
AcDbDimStyleTableRecord
  2
AM_ISO$2
 70
     0
  4
"
 41
3.5
 42
1.0
 43
8.0
 44
1.5
 47
0.1
 48
0.1
 73
     0
 74
     0
 77
     1
 78
     8
 79
     2
140
4.0
141
3.0
143
0.0393701
146
0.71
147
0.8
172
     1
176
   256
177
   256
178
   256
271
     2
272
     2
283
     0
284
     8
340
11
371
    -1
372
    -1
  0
ENDTAB
  0
TABLE
  2
BLOCK_RECORD
  5
1
330
0
100
AcDbSymbolTable
 70
    28
  0
BLOCK_RECORD
  5
1F
102
{ACAD_XDICTIONARY
360
7D
102
}
330
1
100
AcDbSymbolTableRecord
100
AcDbBlockTableRecord
  2
*Model_Space
340
22
  0
BLOCK_RECORD
  5
1B
330
1
100
AcDbSymbolTableRecord
100
AcDbBlockTableRecord
  2
*Paper_Space
340
1E
  0
BLOCK_RECORD
  5
23
330
1
100
AcDbSymbolTableRecord
100
AcDbBlockTableRecord
  2
*Paper_Space0
340
26
  0
BLOCK_RECORD
  5
71
330
1
100
AcDbSymbolTableRecord
100
AcDbBlockTableRecord
  2
GENAXEH
340
0
  0
BLOCK_RECORD
  5
19B9
330
1
100
AcDbSymbolTableRecord
100
AcDbBlockTableRecord
  2
*U4
340
0
  0
BLOCK_RECORD
  5
42E6
330
1
100
AcDbSymbolTableRecord
100
AcDbBlockTableRecord
  2
*D5
340
0
  0
BLOCK_RECORD
  5
42F2
330
1
100
AcDbSymbolTableRecord
100
AcDbBlockTableRecord
  2
*D6
340
0
  0
BLOCK_RECORD
  5
42FE
330
1
100
AcDbSymbolTableRecord
100
AcDbBlockTableRecord
  2
*D7
340
0
  0
BLOCK_RECORD
  5
430A
330
1
100
AcDbSymbolTableRecord
100
AcDbBlockTableRecord
  2
*D8
340
0
  0
BLOCK_RECORD
  5
4316
330
1
100
AcDbSymbolTableRecord
100
AcDbBlockTableRecord
  2
*D9
340
0
  0
BLOCK_RECORD
  5
4322
330
1
100
AcDbSymbolTableRecord
100
AcDbBlockTableRecord
  2
*D10
340
0
  0
BLOCK_RECORD
  5
432D
330
1
100
AcDbSymbolTableRecord
100
AcDbBlockTableRecord
  2
*D11
340
0
  0
BLOCK_RECORD
  5
433A
330
1
100
AcDbSymbolTableRecord
100
AcDbBlockTableRecord
  2
*D12
340
0
  0
BLOCK_RECORD
  5
4347
330
1
100
AcDbSymbolTableRecord
100
AcDbBlockTableRecord
  2
*D13
340
0
  0
BLOCK_RECORD
  5
4353
330
1
100
AcDbSymbolTableRecord
100
AcDbBlockTableRecord
  2
*D14
340
0
  0
BLOCK_RECORD
  5
4361
330
1
100
AcDbSymbolTableRecord
100
AcDbBlockTableRecord
  2
*D15
340
0
  0
BLOCK_RECORD
  5
436D
330
1
100
AcDbSymbolTableRecord
100
AcDbBlockTableRecord
  2
*D16
340
0
  0
BLOCK_RECORD
  5
4378
330
1
100
AcDbSymbolTableRecord
100
AcDbBlockTableRecord
  2
*D17
340
0
  0
BLOCK_RECORD
  5
4384
330
1
100
AcDbSymbolTableRecord
100
AcDbBlockTableRecord
  2
*D18
340
0
  0
BLOCK_RECORD
  5
4390
330
1
100
AcDbSymbolTableRecord
100
AcDbBlockTableRecord
  2
*D19
340
0
  0
BLOCK_RECORD
  5
439B
330
1
100
AcDbSymbolTableRecord
100
AcDbBlockTableRecord
  2
*D20
340
0
  0
BLOCK_RECORD
  5
43A9
330
1
100
AcDbSymbolTableRecord
100
AcDbBlockTableRecord
  2
*D21
340
0
  0
BLOCK_RECORD
  5
43B7
330
1
100
AcDbSymbolTableRecord
100
AcDbBlockTableRecord
  2
*D22
340
0
  0
BLOCK_RECORD
  5
43C5
330
1
100
AcDbSymbolTableRecord
100
AcDbBlockTableRecord
  2
*D23
340
0
  0
BLOCK_RECORD
  5
43D0
330
1
100
AcDbSymbolTableRecord
100
AcDbBlockTableRecord
  2
*D24
340
0
  0
BLOCK_RECORD
  5
43DB
330
1
100
AcDbSymbolTableRecord
100
AcDbBlockTableRecord
  2
*D25
340
0
  0
BLOCK_RECORD
  5
43E7
330
1
100
AcDbSymbolTableRecord
100
AcDbBlockTableRecord
  2
*D26
340
0
  0
ENDTAB
  0
ENDSEC
  0
SECTION
  2
BLOCKS
  0
BLOCK
  5
20
330
1F
100
AcDbEntity
  8
0
100
AcDbBlockBegin
  2
*Model_Space
 70
     0
 10
0.0
 20
0.0
 30
0.0
  3
*Model_Space
  1

  0
ENDBLK
  5
21
330
1F
100
AcDbEntity
  8
0
100
AcDbBlockEnd
  0
BLOCK
  5
1C
330
1B
100
AcDbEntity
 67
     1
  8
0
100
AcDbBlockBegin
  2
*Paper_Space
 70
     0
 10
0.0
 20
0.0
 30
0.0
  3
*Paper_Space
  1

  0
ENDBLK
  5
1D
330
1B
100
AcDbEntity
 67
     1
  8
0
100
AcDbBlockEnd
  0
BLOCK
  5
24
330
23
100
AcDbEntity
  8
0
100
AcDbBlockBegin
  2
*Paper_Space0
 70
     0
 10
0.0
 20
0.0
 30
0.0
  3
*Paper_Space0
  1

  0
ENDBLK
  5
25
330
23
100
AcDbEntity
  8
0
100
AcDbBlockEnd
  0
BLOCK
  5
73
330
71
100
AcDbEntity
  8
0
100
AcDbBlockBegin
  2
GENAXEH
 70
     0
 10
0.0
 20
0.0
 30
0.0
  3
GENAXEH
  1

  0
LINE
  5
72
330
71
100
AcDbEntity
  8
0
100
AcDbLine
 10
-1.0
 20
0.0
 30
0.0
 11
1.0
 21
0.0
 31
0.0
  0
ENDBLK
  5
74
330
71
100
AcDbEntity
  8
0
100
AcDbBlockEnd
  0
BLOCK
  5
19BA
330
19B9
100
AcDbEntity
  8
0
100
AcDbBlockBegin
  2
*U4
 70
     1
 10
0.0
 20
0.0
 30
0.0
  3
*U4
  1

  0
ENDBLK
  5
19BB
330
19B9
100
AcDbEntity
  8
0
100
AcDbBlockEnd
  0
BLOCK
  5
42F0
330
42E6
100
AcDbEntity
  8
0
100
AcDbBlockBegin
  2
*D5
 70
     1
 10
0.0
 20
0.0
 30
0.0
  3
*D5
  1

  0
LINE
  5
47D1
330
42E6
100
AcDbEntity
  8
AM_5
100
AcDbLine
 10
964.1833399504911
 20
678.0759557647672
 30
0.0
 11
964.1833399504911
 21
642.7314323006651
 31
0.0
  0
LINE
  5
47D2
330
42E6
100
AcDbEntity
  8
AM_5
100
AcDbLine
 10
978.183439950491
 20
678.2379557647673
 30
0.0
 11
978.183439950491
 21
642.7314323006651
 31
0.0
  0
LINE
  5
47D3
330
42E6
100
AcDbEntity
  8
AM_5
100
AcDbLine
 10
967.6833399504911
 20
644.2314323006651
 30
0.0
 11
974.683439950491
 21
644.2314323006651
 31
0.0
  0
SOLID
  5
47D4
330
42E6
100
AcDbEntity
  8
AM_5
100
AcDbTrace
 10
967.6833399504911
 20
644.8147656339984
 30
0.0
 11
967.6833399504911
 21
643.6480989673317
 31
0.0
 12
964.1833399504911
 22
644.2314323006651
 32
0.0
 13
964.1833399504911
 23
644.2314323006651
 33
0.0
  0
SOLID
  5
47D5
330
42E6
100
AcDbEntity
  8
AM_5
100
AcDbTrace
 10
974.683439950491
 20
644.8147656339984
 30
0.0
 11
974.683439950491
 21
643.6480989673317
 31
0.0
 12
978.183439950491
 22
644.2314323006651
 32
0.0
 13
978.183439950491
 23
644.2314323006651
 33
0.0
  0
MTEXT
  5
47D6
330
42E6
100
AcDbEntity
  8
AM_5
100
AcDbMText
 10
971.183389950491
 20
647.031432300665
 30
0.0
 40
4.0
 41
0.0
 71
     5
 72
     1
  1
14
 73
     1
 44
1.0
1001
ACAD
1000
MTEXTBEGIN
1070
    73
1070
     1
1070
    44
1040
1.0
1070
    74
1070
     0
1000
MTEXTEND
  0
POINT
  5
47D7
330
42E6
100
AcDbEntity
  8
Defpoints
 62
     0
100
AcDbPoint
 10
964.1833399504911
 20
679.0759557647673
 30
0.0
  0
POINT
  5
47D8
330
42E6
100
AcDbEntity
  8
Defpoints
 62
     0
100
AcDbPoint
 10
978.183439950491
 20
679.2379557647673
 30
0.0
  0
POINT
  5
47D9
330
42E6
100
AcDbEntity
  8
Defpoints
 62
     0
100
AcDbPoint
 10
978.183439950491
 20
644.2314323006651
 30
0.0
  0
ENDBLK
  5
42F1
330
42E6
100
AcDbEntity
  8
0
100
AcDbBlockEnd
  0
BLOCK
  5
42FC
330
42F2
100
AcDbEntity
  8
0
100
AcDbBlockBegin
  2
*D6
 70
     1
 10
0.0
 20
0.0
 30
0.0
  3
*D6
  1

  0
LINE
  5
47DA
330
42F2
100
AcDbEntity
  8
AM_5
100
AcDbLine
 10
1000.182809012505
 20
682.0709557647672
 30
0.0
 11
1000.182809012505
 21
634.5513135401329
 31
0.0
  0
LINE
  5
47DB
330
42F2
100
AcDbEntity
  8
AM_5
100
AcDbLine
 10
959.183339950491
 20
673.0699557647672
 30
0.0
 11
959.183339950491
 21
634.5513135401329
 31
0.0
  0
LINE
  5
47DC
330
42F2
100
AcDbEntity
  8
AM_5
100
AcDbLine
 10
996.6828090125051
 20
636.0513135401329
 30
0.0
 11
962.683339950491
 21
636.0513135401329
 31
0.0
  0
SOLID
  5
47DD
330
42F2
100
AcDbEntity
  8
AM_5
100
AcDbTrace
 10
996.6828090125051
 20
636.6346468734662
 30
0.0
 11
996.6828090125051
 21
635.4679802067995
 31
0.0
 12
1000.182809012505
 22
636.0513135401329
 32
0.0
 13
1000.182809012505
 23
636.0513135401329
 33
0.0
  0
SOLID
  5
47DE
330
42F2
100
AcDbEntity
  8
AM_5
100
AcDbTrace
 10
962.683339950491
 20
636.6346468734662
 30
0.0
 11
962.683339950491
 21
635.4679802067995
 31
0.0
 12
959.183339950491
 22
636.0513135401329
 32
0.0
 13
959.183339950491
 23
636.0513135401329
 33
0.0
  0
MTEXT
  5
47DF
330
42F2
100
AcDbEntity
  8
AM_5
100
AcDbMText
 10
979.9040388483945
 20
638.8513135401328
 30
0.0
 40
4.0
 41
0.0
 71
     5
 72
     1
  1
41
 73
     1
 44
1.0
1001
ACAD
1000
MTEXTBEGIN
1070
    73
1070
     1
1070
    44
1040
1.0
1070
    74
1070
     0
1000
MTEXTEND
  0
POINT
  5
47E0
330
42F2
100
AcDbEntity
  8
Defpoints
 62
     0
100
AcDbPoint
 10
1000.182809012505
 20
683.0709557647672
 30
0.0
  0
POINT
  5
47E1
330
42F2
100
AcDbEntity
  8
Defpoints
 62
     0
100
AcDbPoint
 10
959.183339950491
 20
674.0699557647672
 30
0.0
  0
POINT
  5
47E2
330
42F2
100
AcDbEntity
  8
Defpoints
 62
     0
100
AcDbPoint
 10
959.183339950491
 20
636.0513135401329
 30
0.0
  0
ENDBLK
  5
42FD
330
42F2
100
AcDbEntity
  8
0
100
AcDbBlockEnd
  0
BLOCK
  5
4308
330
42FE
100
AcDbEntity
  8
0
100
AcDbBlockBegin
  2
*D7
 70
     1
 10
0.0
 20
0.0
 30
0.0
  3
*D7
  1

  0
LINE
  5
47E3
330
42FE
100
AcDbEntity
  8
AM_5
100
AcDbLine
 10
958.183339950491
 20
692.0709557647673
 30
0.0
 11
944.9638332898658
 21
692.0709557647673
 31
0.0
  0
LINE
  5
47E4
330
42FE
100
AcDbEntity
  8
AM_5
100
AcDbLine
 10
958.183339950491
 20
674.0699557647672
 30
0.0
 11
944.9638332898658
 21
674.0699557647672
 31
0.0
  0
LINE
  5
47E5
330
42FE
100
AcDbEntity
  8
AM_5
100
AcDbLine
 10
946.4638332898656
 20
688.5709557647673
 30
0.0
 11
946.4638332898656
 21
677.5699557647672
 31
0.0
  0
SOLID
  5
47E6
330
42FE
100
AcDbEntity
  8
AM_5
100
AcDbTrace
 10
945.8804999565323
 20
688.5709557647673
 30
0.0
 11
947.0471666231992
 21
688.5709557647673
 31
0.0
 12
946.4638332898656
 22
692.0709557647673
 32
0.0
 13
946.4638332898656
 23
692.0709557647673
 33
0.0
  0
SOLID
  5
47E7
330
42FE
100
AcDbEntity
  8
AM_5
100
AcDbTrace
 10
945.8804999565323
 20
677.5699557647672
 30
0.0
 11
947.0471666231992
 21
677.5699557647672
 31
0.0
 12
946.4638332898656
 22
674.0699557647672
 32
0.0
 13
946.4638332898656
 23
674.0699557647672
 33
0.0
  0
MTEXT
  5
47E8
330
42FE
100
AcDbEntity
  8
AM_5
100
AcDbMText
 10
943.6638332898656
 20
683.0704557647674
 30
0.0
 40
4.0
 41
0.0
 71
     5
 72
     1
  1
18
 11
0.0000000000000001
 21
1.0
 31
0.0
 73
     1
 44
1.0
1001
ACAD
1000
MTEXTBEGIN
1070
    73
1070
     1
1070
    44
1040
1.0
1070
    74
1070
     0
1000
MTEXTEND
  0
POINT
  5
47E9
330
42FE
100
AcDbEntity
  8
Defpoints
 62
     0
100
AcDbPoint
 10
959.183339950491
 20
692.0709557647673
 30
0.0
  0
POINT
  5
47EA
330
42FE
100
AcDbEntity
  8
Defpoints
 62
     0
100
AcDbPoint
 10
959.183339950491
 20
674.0699557647672
 30
0.0
  0
POINT
  5
47EB
330
42FE
100
AcDbEntity
  8
Defpoints
 62
     0
100
AcDbPoint
 10
946.4638332898656
 20
674.0699557647672
 30
0.0
  0
ENDBLK
  5
4309
330
42FE
100
AcDbEntity
  8
0
100
AcDbBlockEnd
  0
BLOCK
  5
4314
330
430A
100
AcDbEntity
  8
0
100
AcDbBlockBegin
  2
*D8
 70
     1
 10
0.0
 20
0.0
 30
0.0
  3
*D8
  1

  0
LINE
  5
47EC
330
430A
100
AcDbEntity
  8
AM_5
100
AcDbLine
 10
958.183339950491
 20
688.0709557647673
 30
0.0
 11
951.2758458386906
 21
688.0709557647673
 31
0.0
  0
LINE
  5
47ED
330
430A
100
AcDbEntity
  8
AM_5
100
AcDbLine
 10
958.183339950491
 20
678.0709557647672
 30
0.0
 11
951.2758458386906
 21
678.0709557647672
 31
0.0
  0
LINE
  5
47EE
330
430A
100
AcDbEntity
  8
AM_5
100
AcDbLine
 10
952.7758458386907
 20
684.5709557647673
 30
0.0
 11
952.7758458386907
 21
681.5709557647672
 31
0.0
  0
SOLID
  5
47EF
330
430A
100
AcDbEntity
  8
AM_5
100
AcDbTrace
 10
952.1925125053572
 20
684.5709557647673
 30
0.0
 11
953.359179172024
 21
684.5709557647673
 31
0.0
 12
952.7758458386907
 22
688.0709557647673
 32
0.0
 13
952.7758458386907
 23
688.0709557647673
 33
0.0
  0
SOLID
  5
47F0
330
430A
100
AcDbEntity
  8
AM_5
100
AcDbTrace
 10
952.1925125053572
 20
681.5709557647672
 30
0.0
 11
953.359179172024
 21
681.5709557647672
 31
0.0
 12
952.7758458386907
 22
678.0709557647672
 32
0.0
 13
952.7758458386907
 23
678.0709557647672
 33
0.0
  0
MTEXT
  5
47F1
330
430A
100
AcDbEntity
  8
AM_5
100
AcDbMText
 10
949.9758458386905
 20
683.0709557647674
 30
0.0
 40
4.0
 41
0.0
 71
     5
 72
     1
  1
10
 11
0.0000000000000001
 21
1.0
 31
0.0
 73
     1
 44
1.0
1001
ACAD
1000
MTEXTBEGIN
1070
    73
1070
     1
1070
    44
1040
1.0
1070
    74
1070
     0
1000
MTEXTEND
  0
POINT
  5
47F2
330
430A
100
AcDbEntity
  8
Defpoints
 62
     0
100
AcDbPoint
 10
959.183339950491
 20
688.0709557647673
 30
0.0
  0
POINT
  5
47F3
330
430A
100
AcDbEntity
  8
Defpoints
 62
     0
100
AcDbPoint
 10
959.183339950491
 20
678.0709557647672
 30
0.0
  0
POINT
  5
47F4
330
430A
100
AcDbEntity
  8
Defpoints
 62
     0
100
AcDbPoint
 10
952.7758458386907
 20
678.0709557647672
 30
0.0
  0
ENDBLK
  5
4315
330
430A
100
AcDbEntity
  8
0
100
AcDbBlockEnd
  0
BLOCK
  5
4320
330
4316
100
AcDbEntity
  8
0
100
AcDbBlockBegin
  2
*D9
 70
     1
 10
0.0
 20
0.0
 30
0.0
  3
*D9
  1

  0
LINE
  5
47B4
330
4316
100
AcDbEntity
  8
AM_5
100
AcDbLine
 10
1210.177141448635
 20
683.1999502607914
 30
0.0
 11
1164.67722333313
 21
689.1907493587549
 31
0.0
  0
LINE
  5
47B5
330
4316
100
AcDbEntity
  8
AM_5
100
AcDbLine
 10
1206.52225364792
 20
655.4412000615977
 30
0.0
 11
1161.022335532414
 21
661.4319991595613
 31
0.0
  0
LINE
  5
47B6
330
4316
100
AcDbEntity
  8
AM_5
100
AcDbLine
 10
1165.707499753128
 20
685.5248892279812
 30
0.0
 11
1162.966388440907
 21
664.7062407952658
 31
0.0
  0
SOLID
  5
47B7
330
4316
100
AcDbEntity
  8
AM_5
100
AcDbTrace
 10
1165.129157939255
 20
685.6010372686892
 30
0.0
 11
1166.285841567001
 21
685.4487411872733
 31
0.0
 12
1166.164387997375
 22
688.9949401112203
 32
0.0
 13
1166.164387997375
 23
688.9949401112203
 33
0.0
  0
SOLID
  5
47B8
330
4316
100
AcDbEntity
  8
AM_5
100
AcDbTrace
 10
1162.388046627034
 20
664.7823888359737
 30
0.0
 11
1163.54473025478
 21
664.6300927545578
 31
0.0
 12
1162.50950019666
 22
661.2361899120267
 32
0.0
 13
1162.50950019666
 23
661.2361899120267
 33
0.0
  0
MTEXT
  5
47B9
330
4316
100
AcDbEntity
  8
AM_5
100
AcDbMText
 10
1161.560513058494
 20
675.4811270005245
 30
0.0
 40
4.0
 41
0.0
 71
     5
 72
     1
  1
28
 11
0.1305394983564144
 21
0.9914431094968866
 31
0.0
 73
     1
 44
1.0
1001
ACAD
1000
MTEXTBEGIN
1070
    73
1070
     1
1070
    44
1040
1.0
1070
    74
1070
     0
1000
MTEXTEND
  0
POINT
  5
47BA
330
4316
100
AcDbEntity
  8
Defpoints
 62
     0
100
AcDbPoint
 10
1211.168584558132
 20
683.069410762435
 30
0.0
  0
POINT
  5
47BB
330
4316
100
AcDbEntity
  8
Defpoints
 62
     0
100
AcDbPoint
 10
1207.513696757417
 20
655.3106605632414
 30
0.0
  0
POINT
  5
47BC
330
4316
100
AcDbEntity
  8
Defpoints
 62
     0
100
AcDbPoint
 10
1162.50950019666
 20
661.2361899120267
 30
0.0
  0
ENDBLK
  5
4321
330
4316
100
AcDbEntity
  8
0
100
AcDbBlockEnd
  0
BLOCK
  5
432B
330
4322
100
AcDbEntity
  8
0
100
AcDbBlockBegin
  2
*D10
 70
     1
 10
0.0
 20
0.0
 30
0.0
  3
*D10
  1

  0
LINE
  5
4608
330
4322
100
AcDbEntity
  8
AM_5
100
AcDbLine
 10
1083.937544424961
 20
633.3646710241696
 30
0.0
 11
1083.937544424961
 21
633.8646710241696
 31
0.0
  0
LINE
  5
4609
330
4322
100
AcDbEntity
  8
AM_5
100
AcDbLine
 10
1121.437544424961
 20
647.0706557647672
 30
0.0
 11
1121.437544424961
 21
630.8646710241696
 31
0.0
  0
LINE
  5
460A
330
4322
100
AcDbEntity
  8
AM_5
100
AcDbLine
 10
1087.437544424961
 20
632.3646710241696
 30
0.0
 11
1117.937544424961
 21
632.3646710241696
 31
0.0
  0
SOLID
  5
460B
330
4322
100
AcDbEntity
  8
AM_5
100
AcDbTrace
 10
1087.437544424961
 20
632.948004357503
 30
0.0
 11
1087.437544424961
 21
631.7813376908362
 31
0.0
 12
1083.937544424961
 22
632.3646710241696
 32
0.0
 13
1083.937544424961
 23
632.3646710241696
 33
0.0
  0
SOLID
  5
460C
330
4322
100
AcDbEntity
  8
AM_5
100
AcDbTrace
 10
1117.937544424961
 20
632.948004357503
 30
0.0
 11
1117.937544424961
 21
631.7813376908362
 31
0.0
 12
1121.437544424961
 22
632.3646710241696
 32
0.0
 13
1121.437544424961
 23
632.3646710241696
 33
0.0
  0
MTEXT
  5
460D
330
4322
100
AcDbEntity
  8
AM_5
100
AcDbMText
 10
1102.687544424961
 20
635.1646710241696
 30
0.0
 40
4.0
 41
0.0
 71
     5
 72
     1
  1
37.5
 73
     1
 44
1.0
1001
ACAD
1000
MTEXTBEGIN
1070
    73
1070
     1
1070
    44
1040
1.0
1070
    74
1070
     0
1000
MTEXTEND
  0
POINT
  5
460E
330
4322
100
AcDbEntity
  8
Defpoints
 62
     0
100
AcDbPoint
 10
1083.937544424961
 20
632.3646710241696
 30
0.0
  0
POINT
  5
460F
330
4322
100
AcDbEntity
  8
Defpoints
 62
     0
100
AcDbPoint
 10
1121.437544424961
 20
648.0706557647672
 30
0.0
  0
POINT
  5
4610
330
4322
100
AcDbEntity
  8
Defpoints
 62
     0
100
AcDbPoint
 10
1121.437544424961
 20
632.3646710241696
 30
0.0
  0
ENDBLK
  5
432C
330
4322
100
AcDbEntity
  8
0
100
AcDbBlockEnd
  0
BLOCK
  5
4338
330
432D
100
AcDbEntity
  8
0
100
AcDbBlockBegin
  2
*D11
 70
     1
 10
0.0
 20
0.0
 30
0.0
  3
*D11
  1

  0
LINE
  5
47F5
330
432D
100
AcDbEntity
  8
AM_5
100
AcDbLine
 10
1016.852450950854
 20
644.1976367121385
 30
0.0
 11
1023.384238011779
 21
632.8845815226165
 31
0.0
  0
LINE
  5
47F6
330
432D
100
AcDbEntity
  8
AM_5
100
AcDbLine
 10
1025.512450950854
 20
649.1976367121385
 30
0.0
 11
1032.044238011779
 21
637.8845815226164
 31
0.0
  0
LINE
  5
47F7
330
432D
100
AcDbEntity
  8
AM_5
100
AcDbLine
 10
1025.665288195435
 20
635.9336486028301
 30
0.0
 11
1028.263154827034
 21
637.433571600289
 31
0.0
  0
LINE
  5
47F8
330
432D
100
AcDbEntity
  8
AM_5
100
AcDbLine
 10
1031.294221511234
 20
639.1836101015595
 30
0.0
 11
1043.926299231263
 21
646.4769575149714
 31
0.0
  0
SOLID
  5
47F9
330
432D
100
AcDbEntity
  8
AM_5
100
AcDbTrace
 10
1025.37361511189
 20
636.4388263835301
 30
0.0
 11
1025.95696127898
 21
635.42847082213
 31
0.0
 12
1022.634221511234
 22
634.1836101015595
 32
0.0
 13
1022.634221511234
 23
634.1836101015595
 33
0.0
  0
SOLID
  5
47FA
330
432D
100
AcDbEntity
  8
AM_5
100
AcDbTrace
 10
1027.971481743489
 20
637.9387493809892
 30
0.0
 11
1028.554827910579
 21
636.928393819589
 31
0.0
 12
1031.294221511234
 22
639.1836101015595
 32
0.0
 13
1031.294221511234
 23
639.1836101015595
 33
0.0
  0
MTEXT
  5
47FB
330
432D
100
AcDbEntity
  8
AM_5
100
AcDbMText
 10
1037.725762912333
 20
646.1301564062613
 30
0.0
 40
4.0
 41
0.0
 71
     5
 72
     1
  1
10h9
 11
0.8660190526287353
 21
0.5000110003630197
 31
0.0
 73
     1
 44
1.0
1001
ACAD
1000
MTEXTBEGIN
1070
    73
1070
     1
1070
    44
1040
1.0
1070
    74
1070
     0
1000
MTEXTEND
  0
POINT
  5
47FC
330
432D
100
AcDbEntity
  8
Defpoints
 62
     0
100
AcDbPoint
 10
1016.352439950491
 20
645.0636557647673
 30
0.0
  0
POINT
  5
47FD
330
432D
100
AcDbEntity
  8
Defpoints
 62
     0
100
AcDbPoint
 10
1025.012439950491
 20
650.0636557647673
 30
0.0
  0
POINT
  5
47FE
330
432D
100
AcDbEntity
  8
Defpoints
 62
     0
100
AcDbPoint
 10
1031.294221511234
 20
639.1836101015595
 30
0.0
  0
ENDBLK
  5
4339
330
432D
100
AcDbEntity
  8
0
100
AcDbBlockEnd
  0
BLOCK
  5
4345
330
433A
100
AcDbEntity
  8
0
100
AcDbBlockBegin
  2
*D12
 70
     1
 10
0.0
 20
0.0
 30
0.0
  3
*D12
  1

  0
LINE
  5
47FF
330
433A
100
AcDbEntity
  8
AM_5
100
AcDbLine
 10
978.183439950491
 20
645.2314323006651
 30
0.0
 11
978.183439950491
 21
645.731432300665
 31
0.0
  0
LINE
  5
4800
330
433A
100
AcDbEntity
  8
AM_5
100
AcDbLine
 10
983.1834399504909
 20
677.0709557647673
 30
0.0
 11
983.1834399504909
 21
642.7314323006651
 31
0.0
  0
LINE
  5
4801
330
433A
100
AcDbEntity
  8
AM_5
100
AcDbLine
 10
974.683439950491
 20
644.2314323006651
 30
0.0
 11
971.183439950491
 21
644.2314323006651
 31
0.0
  0
LINE
  5
4802
330
433A
100
AcDbEntity
  8
AM_5
100
AcDbLine
 10
986.6834399504909
 20
644.2314323006651
 30
0.0
 11
990.183439950491
 21
644.2314323006651
 31
0.0
  0
LINE
  5
4803
330
433A
100
AcDbEntity
  8
AM_5
100
AcDbLine
 10
978.183439950491
 20
644.2314323006651
 30
0.0
 11
983.1834399504909
 21
644.2314323006651
 31
0.0
  0
SOLID
  5
4804
330
433A
100
AcDbEntity
  8
AM_5
100
AcDbTrace
 10
974.683439950491
 20
644.8147656339984
 30
0.0
 11
974.683439950491
 21
643.6480989673317
 31
0.0
 12
978.183439950491
 22
644.2314323006651
 32
0.0
 13
978.183439950491
 23
644.2314323006651
 33
0.0
  0
SOLID
  5
4805
330
433A
100
AcDbEntity
  8
AM_5
100
AcDbTrace
 10
986.6834399504909
 20
644.8147656339984
 30
0.0
 11
986.6834399504909
 21
643.6480989673317
 31
0.0
 12
983.1834399504909
 22
644.2314323006651
 32
0.0
 13
983.1834399504909
 23
644.2314323006651
 33
0.0
  0
MTEXT
  5
4806
330
433A
100
AcDbEntity
  8
AM_5
100
AcDbMText
 10
980.6834399504909
 20
647.031432300665
 30
0.0
 40
4.0
 41
0.0
 71
     5
 72
     1
  1
5
 73
     1
 44
1.0
1001
ACAD
1000
MTEXTBEGIN
1070
    73
1070
     1
1070
    44
1040
1.0
1070
    74
1070
     0
1000
MTEXTEND
  0
POINT
  5
4807
330
433A
100
AcDbEntity
  8
Defpoints
 62
     0
100
AcDbPoint
 10
978.183439950491
 20
644.2314323006651
 30
0.0
  0
POINT
  5
4808
330
433A
100
AcDbEntity
  8
Defpoints
 62
     0
100
AcDbPoint
 10
983.1834399504909
 20
678.0709557647672
 30
0.0
  0
POINT
  5
4809
330
433A
100
AcDbEntity
  8
Defpoints
 62
     0
100
AcDbPoint
 10
983.1834399504909
 20
644.2314323006651
 30
0.0
  0
ENDBLK
  5
4346
330
433A
100
AcDbEntity
  8
0
100
AcDbBlockEnd
  0
BLOCK
  5
4351
330
4347
100
AcDbEntity
  8
0
100
AcDbBlockBegin
  2
*D13
 70
     1
 10
0.0
 20
0.0
 30
0.0
  3
*D13
  1

  0
LINE
  5
45FF
330
4347
100
AcDbEntity
  8
AM_5
100
AcDbLine
 10
1074.937544424961
 20
642.0637557647673
 30
0.0
 11
1074.937544424961
 21
630.8646710241696
 31
0.0
  0
LINE
  5
4600
330
4347
100
AcDbEntity
  8
AM_5
100
AcDbLine
 10
1083.937544424961
 20
642.0637557647673
 30
0.0
 11
1083.937544424961
 21
630.8646710241696
 31
0.0
  0
LINE
  5
4601
330
4347
100
AcDbEntity
  8
AM_5
100
AcDbLine
 10
1078.437544424961
 20
632.3646710241696
 30
0.0
 11
1080.437544424961
 21
632.3646710241696
 31
0.0
  0
SOLID
  5
4602
330
4347
100
AcDbEntity
  8
AM_5
100
AcDbTrace
 10
1078.437544424961
 20
632.948004357503
 30
0.0
 11
1078.437544424961
 21
631.7813376908362
 31
0.0
 12
1074.937544424961
 22
632.3646710241696
 32
0.0
 13
1074.937544424961
 23
632.3646710241696
 33
0.0
  0
SOLID
  5
4603
330
4347
100
AcDbEntity
  8
AM_5
100
AcDbTrace
 10
1080.437544424961
 20
632.948004357503
 30
0.0
 11
1080.437544424961
 21
631.7813376908362
 31
0.0
 12
1083.937544424961
 22
632.3646710241696
 32
0.0
 13
1083.937544424961
 23
632.3646710241696
 33
0.0
  0
MTEXT
  5
4604
330
4347
100
AcDbEntity
  8
AM_5
100
AcDbMText
 10
1079.437544424961
 20
635.1646710241696
 30
0.0
 40
4.0
 41
0.0
 71
     5
 72
     1
  1
9
 73
     1
 44
1.0
1001
ACAD
1000
MTEXTBEGIN
1070
    73
1070
     1
1070
    44
1040
1.0
1070
    74
1070
     0
1000
MTEXTEND
  0
POINT
  5
4605
330
4347
100
AcDbEntity
  8
Defpoints
 62
     0
100
AcDbPoint
 10
1074.937544424961
 20
643.0637557647672
 30
0.0
  0
POINT
  5
4606
330
4347
100
AcDbEntity
  8
Defpoints
 62
     0
100
AcDbPoint
 10
1083.937544424961
 20
643.0637557647672
 30
0.0
  0
POINT
  5
4607
330
4347
100
AcDbEntity
  8
Defpoints
 62
     0
100
AcDbPoint
 10
1083.937544424961
 20
632.3646710241696
 30
0.0
  0
ENDBLK
  5
4352
330
4347
100
AcDbEntity
  8
0
100
AcDbBlockEnd
  0
BLOCK
  5
435F
330
4353
100
AcDbEntity
  8
0
100
AcDbBlockBegin
  2
*D14
 70
     1
 10
0.0
 20
0.0
 30
0.0
  3
*D14
  1

  0
LINE
  5
47BD
330
4353
100
AcDbEntity
  8
AM_5
100
AcDbLine
 10
1206.52225364792
 20
655.4412000615976
 30
0.0
 11
1161.022335532413
 21
661.4319991595606
 31
0.0
  0
LINE
  5
47BE
330
4353
100
AcDbEntity
  8
AM_5
100
AcDbLine
 10
1205.739042106775
 20
649.4927346888675
 30
0.0
 11
1160.239123991268
 21
655.4835337868305
 31
0.0
  0
LINE
  5
47BF
330
4353
100
AcDbEntity
  8
AM_5
100
AcDbLine
 10
1162.966388440906
 20
664.7062407952652
 30
0.0
 11
1163.423276685153
 21
668.1762916785043
 31
0.0
  0
LINE
  5
47C0
330
4353
100
AcDbEntity
  8
AM_5
100
AcDbLine
 10
1161.269400411266
 20
651.8176736560567
 30
0.0
 11
1160.812512167018
 21
648.3476227728176
 31
0.0
  0
LINE
  5
47C1
330
4353
100
AcDbEntity
  8
AM_5
100
AcDbLine
 10
1162.509500196658
 20
661.2361899120259
 30
0.0
 11
1161.726288655513
 21
655.2877245392959
 31
0.0
  0
SOLID
  5
47C2
330
4353
100
AcDbEntity
  8
AM_5
100
AcDbTrace
 10
1162.388046627032
 20
664.782388835973
 30
0.0
 11
1163.544730254779
 21
664.6300927545573
 31
0.0
 12
1162.509500196658
 22
661.2361899120259
 32
0.0
 13
1162.509500196658
 23
661.2361899120259
 33
0.0
  0
SOLID
  5
47C3
330
4353
100
AcDbEntity
  8
AM_5
100
AcDbTrace
 10
1160.691058597393
 20
651.8938216967645
 30
0.0
 11
1161.847742225139
 21
651.7415256153488
 31
0.0
 12
1161.726288655513
 22
655.2877245392959
 32
0.0
 13
1161.726288655513
 23
655.2877245392959
 33
0.0
  0
MTEXT
  5
47C4
330
4353
100
AcDbEntity
  8
AM_5
100
AcDbMText
 10
1159.341853719494
 20
658.6274678210586
 30
0.0
 40
4.0
 41
0.0
 71
     5
 72
     1
  1
6
 11
0.1305394983563995
 21
0.9914431094968886
 31
0.0
 73
     1
 44
1.0
1001
ACAD
1000
MTEXTBEGIN
1070
    73
1070
     1
1070
    44
1040
1.0
1070
    74
1070
     0
1000
MTEXTEND
  0
POINT
  5
47C5
330
4353
100
AcDbEntity
  8
Defpoints
 62
     0
100
AcDbPoint
 10
1207.513696757417
 20
655.3106605632413
 30
0.0
  0
POINT
  5
47C6
330
4353
100
AcDbEntity
  8
Defpoints
 62
     0
100
AcDbPoint
 10
1206.730485216272
 20
649.3621951905112
 30
0.0
  0
POINT
  5
47C7
330
4353
100
AcDbEntity
  8
Defpoints
 62
     0
100
AcDbPoint
 10
1161.726288655513
 20
655.2877245392959
 30
0.0
  0
ENDBLK
  5
4360
330
4353
100
AcDbEntity
  8
0
100
AcDbBlockEnd
  0
BLOCK
  5
436B
330
4361
100
AcDbEntity
  8
0
100
AcDbBlockBegin
  2
*D15
 70
     1
 10
0.0
 20
0.0
 30
0.0
  3
*D15
  1

  0
LINE
  5
473A
330
4361
100
AcDbEntity
  8
AM_5
100
AcDbLine
 10
1112.437544424961
 20
834.5449557647674
 30
0.0
 11
1112.437544424961
 21
855.2983062002997
 31
0.0
  0
LINE
  5
473B
330
4361
100
AcDbEntity
  8
AM_5
100
AcDbLine
 10
1121.437544424961
 20
839.0709557647671
 30
0.0
 11
1121.437544424961
 21
855.2983062002997
 31
0.0
  0
LINE
  5
473C
330
4361
100
AcDbEntity
  8
AM_5
100
AcDbLine
 10
1115.937544424961
 20
853.7983062002997
 30
0.0
 11
1117.937544424961
 21
853.7983062002997
 31
0.0
  0
SOLID
  5
473D
330
4361
100
AcDbEntity
  8
AM_5
100
AcDbTrace
 10
1115.937544424961
 20
854.3816395336332
 30
0.0
 11
1115.937544424961
 21
853.2149728669663
 31
0.0
 12
1112.437544424961
 22
853.7983062002997
 32
0.0
 13
1112.437544424961
 23
853.7983062002997
 33
0.0
  0
SOLID
  5
473E
330
4361
100
AcDbEntity
  8
AM_5
100
AcDbTrace
 10
1117.937544424961
 20
854.3816395336332
 30
0.0
 11
1117.937544424961
 21
853.2149728669663
 31
0.0
 12
1121.437544424961
 22
853.7983062002997
 32
0.0
 13
1121.437544424961
 23
853.7983062002997
 33
0.0
  0
MTEXT
  5
473F
330
4361
100
AcDbEntity
  8
AM_5
100
AcDbMText
 10
1116.937544424961
 20
856.5983062002997
 30
0.0
 40
4.0
 41
0.0
 71
     5
 72
     1
  1
9
 73
     1
 44
1.0
1001
ACAD
1000
MTEXTBEGIN
1070
    73
1070
     1
1070
    44
1040
1.0
1070
    74
1070
     0
1000
MTEXTEND
  0
POINT
  5
4740
330
4361
100
AcDbEntity
  8
Defpoints
 62
     0
100
AcDbPoint
 10
1112.437544424961
 20
833.5449557647674
 30
0.0
  0
POINT
  5
4741
330
4361
100
AcDbEntity
  8
Defpoints
 62
     0
100
AcDbPoint
 10
1121.437544424961
 20
838.0709557647671
 30
0.0
  0
POINT
  5
4742
330
4361
100
AcDbEntity
  8
Defpoints
 62
     0
100
AcDbPoint
 10
1121.437544424961
 20
853.7983062002997
 30
0.0
  0
ENDBLK
  5
436C
330
4361
100
AcDbEntity
  8
0
100
AcDbBlockEnd
  0
BLOCK
  5
4376
330
436D
100
AcDbEntity
  8
0
100
AcDbBlockBegin
  2
*D16
 70
     1
 10
0.0
 20
0.0
 30
0.0
  3
*D16
  1

  0
LINE
  5
4731
330
436D
100
AcDbEntity
  8
AM_5
100
AcDbLine
 10
1069.438544424961
 20
857.1859735202801
 30
0.0
 11
1069.438544424961
 21
863.2983062002997
 31
0.0
  0
LINE
  5
4732
330
436D
100
AcDbEntity
  8
AM_5
100
AcDbLine
 10
1121.437544424961
 20
839.0709557647671
 30
0.0
 11
1121.437544424961
 21
863.2983062002997
 31
0.0
  0
LINE
  5
4733
330
436D
100
AcDbEntity
  8
AM_5
100
AcDbLine
 10
1072.938544424961
 20
861.7983062002997
 30
0.0
 11
1117.937544424961
 21
861.7983062002997
 31
0.0
  0
SOLID
  5
4734
330
436D
100
AcDbEntity
  8
AM_5
100
AcDbTrace
 10
1072.938544424961
 20
862.3816395336332
 30
0.0
 11
1072.938544424961
 21
861.2149728669663
 31
0.0
 12
1069.438544424961
 22
861.7983062002997
 32
0.0
 13
1069.438544424961
 23
861.7983062002997
 33
0.0
  0
SOLID
  5
4735
330
436D
100
AcDbEntity
  8
AM_5
100
AcDbTrace
 10
1117.937544424961
 20
862.3816395336332
 30
0.0
 11
1117.937544424961
 21
861.2149728669663
 31
0.0
 12
1121.437544424961
 22
861.7983062002997
 32
0.0
 13
1121.437544424961
 23
861.7983062002997
 33
0.0
  0
MTEXT
  5
4736
330
436D
100
AcDbEntity
  8
AM_5
100
AcDbMText
 10
1095.438044424961
 20
864.5986999010871
 30
0.0
 40
4.0
 41
0.0
 71
     5
 72
     1
  1
52
 73
     1
 44
1.0
1001
ACAD
1000
MTEXTBEGIN
1070
    73
1070
     1
1070
    44
1040
1.0
1070
    74
1070
     0
1000
MTEXTEND
  0
POINT
  5
4737
330
436D
100
AcDbEntity
  8
Defpoints
 62
     0
100
AcDbPoint
 10
1069.438544424961
 20
856.1859735202801
 30
0.0
  0
POINT
  5
4738
330
436D
100
AcDbEntity
  8
Defpoints
 62
     0
100
AcDbPoint
 10
1121.437544424961
 20
838.0709557647671
 30
0.0
  0
POINT
  5
4739
330
436D
100
AcDbEntity
  8
Defpoints
 62
     0
100
AcDbPoint
 10
1121.437544424961
 20
861.7983062002997
 30
0.0
  0
ENDBLK
  5
4377
330
436D
100
AcDbEntity
  8
0
100
AcDbBlockEnd
  0
BLOCK
  5
4382
330
4378
100
AcDbEntity
  8
0
100
AcDbBlockBegin
  2
*D17
 70
     1
 10
0.0
 20
0.0
 30
0.0
  3
*D17
  1

  0
LINE
  5
4728
330
4378
100
AcDbEntity
  8
AM_5
100
AcDbLine
 10
1066.437544424961
 20
857.1859735202801
 30
0.0
 11
1066.437544424961
 21
871.2983062002997
 31
0.0
  0
LINE
  5
4729
330
4378
100
AcDbEntity
  8
AM_5
100
AcDbLine
 10
1121.437544424961
 20
857.1859735202801
 30
0.0
 11
1121.437544424961
 21
871.2983062002997
 31
0.0
  0
LINE
  5
472A
330
4378
100
AcDbEntity
  8
AM_5
100
AcDbLine
 10
1069.937544424961
 20
869.7983062002997
 30
0.0
 11
1117.937544424961
 21
869.7983062002997
 31
0.0
  0
SOLID
  5
472B
330
4378
100
AcDbEntity
  8
AM_5
100
AcDbTrace
 10
1069.937544424961
 20
870.381639533633
 30
0.0
 11
1069.937544424961
 21
869.2149728669663
 31
0.0
 12
1066.437544424961
 22
869.7983062002997
 32
0.0
 13
1066.437544424961
 23
869.7983062002997
 33
0.0
  0
SOLID
  5
472C
330
4378
100
AcDbEntity
  8
AM_5
100
AcDbTrace
 10
1117.937544424961
 20
870.381639533633
 30
0.0
 11
1117.937544424961
 21
869.2149728669663
 31
0.0
 12
1121.437544424961
 22
869.7983062002997
 32
0.0
 13
1121.437544424961
 23
869.7983062002997
 33
0.0
  0
MTEXT
  5
472D
330
4378
100
AcDbEntity
  8
AM_5
100
AcDbMText
 10
1093.937544424961
 20
872.5983062002997
 30
0.0
 40
4.0
 41
0.0
 71
     5
 72
     1
  1
55
 73
     1
 44
1.0
1001
ACAD
1000
MTEXTBEGIN
1070
    73
1070
     1
1070
    44
1040
1.0
1070
    74
1070
     0
1000
MTEXTEND
  0
POINT
  5
472E
330
4378
100
AcDbEntity
  8
Defpoints
 62
     0
100
AcDbPoint
 10
1066.437544424961
 20
856.1859735202801
 30
0.0
  0
POINT
  5
472F
330
4378
100
AcDbEntity
  8
Defpoints
 62
     0
100
AcDbPoint
 10
1121.437544424961
 20
856.1859735202801
 30
0.0
  0
POINT
  5
4730
330
4378
100
AcDbEntity
  8
Defpoints
 62
     0
100
AcDbPoint
 10
1121.437544424961
 20
869.7983062002997
 30
0.0
  0
ENDBLK
  5
4383
330
4378
100
AcDbEntity
  8
0
100
AcDbBlockEnd
  0
BLOCK
  5
438E
330
4384
100
AcDbEntity
  8
0
100
AcDbBlockBegin
  2
*D18
 70
     1
 10
0.0
 20
0.0
 30
0.0
  3
*D18
  1

  0
LINE
  5
4766
330
4384
100
AcDbEntity
  8
AM_5
100
AcDbLine
 10
1065.398544424961
 20
803.0709557647673
 30
0.0
 11
1052.898544424961
 21
803.0709557647673
 31
0.0
  0
LINE
  5
4767
330
4384
100
AcDbEntity
  8
AM_5
100
AcDbLine
 10
1065.437544424961
 20
820.0709557647673
 30
0.0
 11
1052.898544424961
 21
820.0709557647673
 31
0.0
  0
LINE
  5
4768
330
4384
100
AcDbEntity
  8
AM_5
100
AcDbLine
 10
1054.398544424961
 20
806.5709557647673
 30
0.0
 11
1054.398544424961
 21
816.5709557647673
 31
0.0
  0
SOLID
  5
4769
330
4384
100
AcDbEntity
  8
AM_5
100
AcDbTrace
 10
1053.815211091628
 20
806.5709557647673
 30
0.0
 11
1054.981877758295
 21
806.5709557647673
 31
0.0
 12
1054.398544424961
 22
803.0709557647673
 32
0.0
 13
1054.398544424961
 23
803.0709557647673
 33
0.0
  0
SOLID
  5
476A
330
4384
100
AcDbEntity
  8
AM_5
100
AcDbTrace
 10
1053.815211091628
 20
816.5709557647673
 30
0.0
 11
1054.981877758295
 21
816.5709557647673
 31
0.0
 12
1054.398544424961
 22
820.0709557647673
 32
0.0
 13
1054.398544424961
 23
820.0709557647673
 33
0.0
  0
MTEXT
  5
476B
330
4384
100
AcDbEntity
  8
AM_5
100
AcDbMText
 10
1051.598544424961
 20
811.5709557647674
 30
0.0
 40
4.0
 41
0.0
 71
     5
 72
     1
  1
17
 11
0.0000000000000001
 21
1.0
 31
0.0
 73
     1
 44
1.0
1001
ACAD
1000
MTEXTBEGIN
1070
    73
1070
     1
1070
    44
1040
1.0
1070
    74
1070
     0
1000
MTEXTEND
  0
POINT
  5
476C
330
4384
100
AcDbEntity
  8
Defpoints
 62
     0
100
AcDbPoint
 10
1066.398544424961
 20
803.0709557647673
 30
0.0
  0
POINT
  5
476D
330
4384
100
AcDbEntity
  8
Defpoints
 62
     0
100
AcDbPoint
 10
1066.437544424961
 20
820.0709557647673
 30
0.0
  0
POINT
  5
476E
330
4384
100
AcDbEntity
  8
Defpoints
 62
     0
100
AcDbPoint
 10
1054.398544424961
 20
820.0709557647673
 30
0.0
  0
ENDBLK
  5
438F
330
4384
100
AcDbEntity
  8
0
100
AcDbBlockEnd
  0
BLOCK
  5
4399
330
4390
100
AcDbEntity
  8
0
100
AcDbBlockBegin
  2
*D19
 70
     1
 10
0.0
 20
0.0
 30
0.0
  3
*D19
  1

  0
LINE
  5
476F
330
4390
100
AcDbEntity
  8
AM_5
100
AcDbLine
 10
1065.437544424961
 20
830.0709557647671
 30
0.0
 11
1044.898544424961
 21
830.0709557647671
 31
0.0
  0
LINE
  5
4770
330
4390
100
AcDbEntity
  8
AM_5
100
AcDbLine
 10
1057.189251587573
 20
803.0709557647673
 30
0.0
 11
1044.898544424961
 21
803.0709557647673
 31
0.0
  0
LINE
  5
4771
330
4390
100
AcDbEntity
  8
AM_5
100
AcDbLine
 10
1046.398544424961
 20
826.5709557647671
 30
0.0
 11
1046.398544424961
 21
806.5709557647673
 31
0.0
  0
SOLID
  5
4772
330
4390
100
AcDbEntity
  8
AM_5
100
AcDbTrace
 10
1045.815211091628
 20
826.5709557647671
 30
0.0
 11
1046.981877758295
 21
826.5709557647671
 31
0.0
 12
1046.398544424961
 22
830.0709557647671
 32
0.0
 13
1046.398544424961
 23
830.0709557647671
 33
0.0
  0
SOLID
  5
4773
330
4390
100
AcDbEntity
  8
AM_5
100
AcDbTrace
 10
1045.815211091628
 20
806.5709557647673
 30
0.0
 11
1046.981877758295
 21
806.5709557647673
 31
0.0
 12
1046.398544424961
 22
803.0709557647673
 32
0.0
 13
1046.398544424961
 23
803.0709557647673
 33
0.0
  0
MTEXT
  5
4774
330
4390
100
AcDbEntity
  8
AM_5
100
AcDbMText
 10
1043.598150724174
 20
816.5709557647673
 30
0.0
 40
4.0
 41
0.0
 71
     5
 72
     1
  1
27
 11
0.0000000000000001
 21
1.0
 31
0.0
 73
     1
 44
1.0
1001
ACAD
1000
MTEXTBEGIN
1070
    73
1070
     1
1070
    44
1040
1.0
1070
    74
1070
     0
1000
MTEXTEND
  0
POINT
  5
4775
330
4390
100
AcDbEntity
  8
Defpoints
 62
     0
100
AcDbPoint
 10
1066.437544424961
 20
830.0709557647671
 30
0.0
  0
POINT
  5
4776
330
4390
100
AcDbEntity
  8
Defpoints
 62
     0
100
AcDbPoint
 10
1058.189251587573
 20
803.0709557647673
 30
0.0
  0
POINT
  5
4777
330
4390
100
AcDbEntity
  8
Defpoints
 62
     0
100
AcDbPoint
 10
1046.398544424961
 20
803.0709557647673
 30
0.0
  0
ENDBLK
  5
439A
330
4390
100
AcDbEntity
  8
0
100
AcDbBlockEnd
  0
BLOCK
  5
43A7
330
439B
100
AcDbEntity
  8
0
100
AcDbBlockBegin
  2
*D20
 70
     1
 10
0.0
 20
0.0
 30
0.0
  3
*D20
  1

  0
LINE
  5
471D
330
439B
100
AcDbEntity
  8
AM_5
100
AcDbLine
 10
1066.437544424961
 20
851.0750564471877
 30
0.0
 11
1066.437544424961
 21
863.2983062002997
 31
0.0
  0
LINE
  5
471E
330
439B
100
AcDbEntity
  8
AM_5
100
AcDbLine
 10
1069.438544424961
 20
835.0709557647672
 30
0.0
 11
1069.438544424961
 21
863.2983062002997
 31
0.0
  0
LINE
  5
471F
330
439B
100
AcDbEntity
  8
AM_5
100
AcDbLine
 10
1072.938544424961
 20
861.7983062002997
 30
0.0
 11
1076.438544424961
 21
861.7983062002997
 31
0.0
  0
LINE
  5
4720
330
439B
100
AcDbEntity
  8
AM_5
100
AcDbLine
 10
1062.937544424961
 20
861.7983062002997
 30
0.0
 11
1054.389016287538
 21
861.7983062002997
 31
0.0
  0
LINE
  5
4721
330
439B
100
AcDbEntity
  8
AM_5
100
AcDbLine
 10
1069.438544424961
 20
861.7983062002997
 30
0.0
 11
1066.437544424961
 21
861.7983062002997
 31
0.0
  0
SOLID
  5
4722
330
439B
100
AcDbEntity
  8
AM_5
100
AcDbTrace
 10
1072.938544424961
 20
862.3816395336332
 30
0.0
 11
1072.938544424961
 21
861.2149728669663
 31
0.0
 12
1069.438544424961
 22
861.7983062002997
 32
0.0
 13
1069.438544424961
 23
861.7983062002997
 33
0.0
  0
SOLID
  5
4723
330
439B
100
AcDbEntity
  8
AM_5
100
AcDbTrace
 10
1062.937544424961
 20
862.3816395336332
 30
0.0
 11
1062.937544424961
 21
861.2149728669663
 31
0.0
 12
1066.437544424961
 22
861.7983062002997
 32
0.0
 13
1066.437544424961
 23
861.7983062002997
 33
0.0
  0
MTEXT
  5
4724
330
439B
100
AcDbEntity
  8
AM_5
100
AcDbMText
 10
1056.071859000012
 20
864.5983062002997
 30
0.0
 40
4.0
 41
0.0
 71
     5
 72
     1
  1
3
 73
     1
 44
1.0
1001
ACAD
1000
MTEXTBEGIN
1070
    73
1070
     1
1070
    44
1040
1.0
1070
    74
1070
     0
1000
MTEXTEND
  0
POINT
  5
4725
330
439B
100
AcDbEntity
  8
Defpoints
 62
     0
100
AcDbPoint
 10
1066.437544424961
 20
850.0750564471877
 30
0.0
  0
POINT
  5
4726
330
439B
100
AcDbEntity
  8
Defpoints
 62
     0
100
AcDbPoint
 10
1069.438544424961
 20
834.0709557647672
 30
0.0
  0
POINT
  5
4727
330
439B
100
AcDbEntity
  8
Defpoints
 62
     0
100
AcDbPoint
 10
1069.438544424961
 20
861.7983062002997
 30
0.0
  0
ENDBLK
  5
43A8
330
439B
100
AcDbEntity
  8
0
100
AcDbBlockEnd
  0
BLOCK
  5
43B5
330
43A9
100
AcDbEntity
  8
0
100
AcDbBlockBegin
  2
*D21
 70
     1
 10
0.0
 20
0.0
 30
0.0
  3
*D21
  1

  0
LINE
  5
4712
330
43A9
100
AcDbEntity
  8
AM_5
100
AcDbLine
 10
1068.437544424961
 20
835.0709557647672
 30
0.0
 11
1068.437544424961
 21
855.2983062002997
 31
0.0
  0
LINE
  5
4713
330
43A9
100
AcDbEntity
  8
AM_5
100
AcDbLine
 10
1066.437544424961
 20
845.0709557647671
 30
0.0
 11
1066.437544424961
 21
855.2983062002997
 31
0.0
  0
LINE
  5
4714
330
43A9
100
AcDbEntity
  8
AM_5
100
AcDbLine
 10
1071.937544424961
 20
853.7983062002997
 30
0.0
 11
1075.437544424961
 21
853.7983062002997
 31
0.0
  0
LINE
  5
4715
330
43A9
100
AcDbEntity
  8
AM_5
100
AcDbLine
 10
1062.937544424961
 20
853.7983062002997
 30
0.0
 11
1055.895733401339
 21
853.7983062002997
 31
0.0
  0
LINE
  5
4716
330
43A9
100
AcDbEntity
  8
AM_5
100
AcDbLine
 10
1068.437544424961
 20
853.7983062002997
 30
0.0
 11
1066.437544424961
 21
853.7983062002997
 31
0.0
  0
SOLID
  5
4717
330
43A9
100
AcDbEntity
  8
AM_5
100
AcDbTrace
 10
1071.937544424961
 20
854.3816395336332
 30
0.0
 11
1071.937544424961
 21
853.2149728669663
 31
0.0
 12
1068.437544424961
 22
853.7983062002997
 32
0.0
 13
1068.437544424961
 23
853.7983062002997
 33
0.0
  0
SOLID
  5
4718
330
43A9
100
AcDbEntity
  8
AM_5
100
AcDbTrace
 10
1062.937544424961
 20
854.3816395336332
 30
0.0
 11
1062.937544424961
 21
853.2149728669663
 31
0.0
 12
1066.437544424961
 22
853.7983062002997
 32
0.0
 13
1066.437544424961
 23
853.7983062002997
 33
0.0
  0
MTEXT
  5
4719
330
43A9
100
AcDbEntity
  8
AM_5
100
AcDbMText
 10
1057.66663891315
 20
856.5986999010871
 30
0.0
 40
4.0
 41
0.0
 71
     5
 72
     1
  1
2
 73
     1
 44
1.0
1001
ACAD
1000
MTEXTBEGIN
1070
    73
1070
     1
1070
    44
1040
1.0
1070
    74
1070
     0
1000
MTEXTEND
  0
POINT
  5
471A
330
43A9
100
AcDbEntity
  8
Defpoints
 62
     0
100
AcDbPoint
 10
1068.437544424961
 20
834.0709557647672
 30
0.0
  0
POINT
  5
471B
330
43A9
100
AcDbEntity
  8
Defpoints
 62
     0
100
AcDbPoint
 10
1066.437544424961
 20
844.0709557647672
 30
0.0
  0
POINT
  5
471C
330
43A9
100
AcDbEntity
  8
Defpoints
 62
     0
100
AcDbPoint
 10
1066.437544424961
 20
853.7983062002997
 30
0.0
  0
ENDBLK
  5
43B6
330
43A9
100
AcDbEntity
  8
0
100
AcDbBlockEnd
  0
BLOCK
  5
43C3
330
43B7
100
AcDbEntity
  8
0
100
AcDbBlockBegin
  2
*D22
 70
     1
 10
0.0
 20
0.0
 30
0.0
  3
*D22
  1

  0
LINE
  5
4752
330
43B7
100
AcDbEntity
  8
AM_5
100
AcDbLine
 10
1057.189251587573
 20
830.0709557647671
 30
0.0
 11
1052.898544424961
 21
830.0709557647671
 31
0.0
  0
LINE
  5
4753
330
43B7
100
AcDbEntity
  8
AM_5
100
AcDbLine
 10
1065.437544424961
 20
834.0709557647672
 30
0.0
 11
1052.898544424961
 21
834.0709557647672
 31
0.0
  0
LINE
  5
4754
330
43B7
100
AcDbEntity
  8
AM_5
100
AcDbLine
 10
1054.398544424961
 20
826.5709557647671
 30
0.0
 11
1054.398544424961
 21
823.0709557647671
 31
0.0
  0
LINE
  5
4755
330
43B7
100
AcDbEntity
  8
AM_5
100
AcDbLine
 10
1054.398544424961
 20
837.5709557647672
 30
0.0
 11
1054.398544424961
 21
850.9573296807742
 31
0.0
  0
LINE
  5
4756
330
43B7
100
AcDbEntity
  8
AM_5
100
AcDbLine
 10
1054.398544424961
 20
830.0709557647671
 30
0.0
 11
1054.398544424961
 21
834.0709557647672
 31
0.0
  0
SOLID
  5
4757
330
43B7
100
AcDbEntity
  8
AM_5
100
AcDbTrace
 10
1053.815211091628
 20
826.5709557647671
 30
0.0
 11
1054.981877758295
 21
826.5709557647671
 31
0.0
 12
1054.398544424961
 22
830.0709557647671
 32
0.0
 13
1054.398544424961
 23
830.0709557647671
 33
0.0
  0
SOLID
  5
4758
330
43B7
100
AcDbEntity
  8
AM_5
100
AcDbTrace
 10
1053.815211091628
 20
837.5709557647672
 30
0.0
 11
1054.981877758295
 21
837.5709557647672
 31
0.0
 12
1054.398544424961
 22
834.0709557647672
 32
0.0
 13
1054.398544424961
 23
834.0709557647672
 33
0.0
  0
MTEXT
  5
4759
330
43B7
100
AcDbEntity
  8
AM_5
100
AcDbMText
 10
1051.598544424961
 20
846.0141427227707
 30
0.0
 40
4.0
 41
0.0
 71
     5
 72
     1
  1
4H9
 11
0.0000000000000001
 21
1.0
 31
0.0
 73
     1
 44
1.0
1001
ACAD
1000
MTEXTBEGIN
1070
    73
1070
     1
1070
    44
1040
1.0
1070
    74
1070
     0
1000
MTEXTEND
  0
POINT
  5
475A
330
43B7
100
AcDbEntity
  8
Defpoints
 62
     0
100
AcDbPoint
 10
1058.189251587573
 20
830.0709557647671
 30
0.0
  0
POINT
  5
475B
330
43B7
100
AcDbEntity
  8
Defpoints
 62
     0
100
AcDbPoint
 10
1066.437544424961
 20
834.0709557647672
 30
0.0
  0
POINT
  5
475C
330
43B7
100
AcDbEntity
  8
Defpoints
 62
     0
100
AcDbPoint
 10
1054.398544424961
 20
834.0709557647672
 30
0.0
  0
ENDBLK
  5
43C4
330
43B7
100
AcDbEntity
  8
0
100
AcDbBlockEnd
  0
BLOCK
  5
43CE
330
43C5
100
AcDbEntity
  8
0
100
AcDbBlockBegin
  2
*D23
 70
     1
 10
0.0
 20
0.0
 30
0.0
  3
*D23
  1

  0
LINE
  5
4749
330
43C5
100
AcDbEntity
  8
AM_5
100
AcDbLine
 10
1057.189251587573
 20
820.0709557647673
 30
0.0
 11
1052.898544424961
 21
820.0709557647673
 31
0.0
  0
LINE
  5
474A
330
43C5
100
AcDbEntity
  8
AM_5
100
AcDbLine
 10
1065.437544424961
 20
830.0709557647671
 30
0.0
 11
1052.898544424961
 21
830.0709557647671
 31
0.0
  0
LINE
  5
474B
330
43C5
100
AcDbEntity
  8
AM_5
100
AcDbLine
 10
1054.398544424961
 20
823.5709557647673
 30
0.0
 11
1054.398544424961
 21
826.5709557647671
 31
0.0
  0
SOLID
  5
474C
330
43C5
100
AcDbEntity
  8
AM_5
100
AcDbTrace
 10
1053.815211091628
 20
823.5709557647673
 30
0.0
 11
1054.981877758295
 21
823.5709557647673
 31
0.0
 12
1054.398544424961
 22
820.0709557647673
 32
0.0
 13
1054.398544424961
 23
820.0709557647673
 33
0.0
  0
SOLID
  5
474D
330
43C5
100
AcDbEntity
  8
AM_5
100
AcDbTrace
 10
1053.815211091628
 20
826.5709557647671
 30
0.0
 11
1054.981877758295
 21
826.5709557647671
 31
0.0
 12
1054.398544424961
 22
830.0709557647671
 32
0.0
 13
1054.398544424961
 23
830.0709557647671
 33
0.0
  0
MTEXT
  5
474E
330
43C5
100
AcDbEntity
  8
AM_5
100
AcDbMText
 10
1051.598544424961
 20
825.0709557647672
 30
0.0
 40
4.0
 41
0.0
 71
     5
 72
     1
  1
10
 11
0.0000000000000001
 21
1.0
 31
0.0
 73
     1
 44
1.0
1001
ACAD
1000
MTEXTBEGIN
1070
    73
1070
     1
1070
    44
1040
1.0
1070
    74
1070
     0
1000
MTEXTEND
  0
POINT
  5
474F
330
43C5
100
AcDbEntity
  8
Defpoints
 62
     0
100
AcDbPoint
 10
1058.189251587573
 20
820.0709557647673
 30
0.0
  0
POINT
  5
4750
330
43C5
100
AcDbEntity
  8
Defpoints
 62
     0
100
AcDbPoint
 10
1066.437544424961
 20
830.0709557647671
 30
0.0
  0
POINT
  5
4751
330
43C5
100
AcDbEntity
  8
Defpoints
 62
     0
100
AcDbPoint
 10
1054.398544424961
 20
830.0709557647671
 30
0.0
  0
ENDBLK
  5
43CF
330
43C5
100
AcDbEntity
  8
0
100
AcDbBlockEnd
  0
BLOCK
  5
43D9
330
43D0
100
AcDbEntity
  8
0
100
AcDbBlockBegin
  2
*D24
 70
     1
 10
0.0
 20
0.0
 30
0.0
  3
*D24
  1

  0
LINE
  5
4709
330
43D0
100
AcDbEntity
  8
AM_5
100
AcDbLine
 10
1112.437544424961
 20
845.6431288545555
 30
0.0
 11
1112.437544424961
 21
855.2983062002997
 31
0.0
  0
LINE
  5
470A
330
43D0
100
AcDbEntity
  8
AM_5
100
AcDbLine
 10
1092.437544424961
 20
816.2429557647671
 30
0.0
 11
1092.437544424961
 21
855.2983062002997
 31
0.0
  0
LINE
  5
470B
330
43D0
100
AcDbEntity
  8
AM_5
100
AcDbLine
 10
1108.937544424961
 20
853.7983062002997
 30
0.0
 11
1095.937544424961
 21
853.7983062002997
 31
0.0
  0
SOLID
  5
470C
330
43D0
100
AcDbEntity
  8
AM_5
100
AcDbTrace
 10
1108.937544424961
 20
854.3816395336332
 30
0.0
 11
1108.937544424961
 21
853.2149728669663
 31
0.0
 12
1112.437544424961
 22
853.7983062002997
 32
0.0
 13
1112.437544424961
 23
853.7983062002997
 33
0.0
  0
SOLID
  5
470D
330
43D0
100
AcDbEntity
  8
AM_5
100
AcDbTrace
 10
1095.937544424961
 20
854.3816395336332
 30
0.0
 11
1095.937544424961
 21
853.2149728669663
 31
0.0
 12
1092.437544424961
 22
853.7983062002997
 32
0.0
 13
1092.437544424961
 23
853.7983062002997
 33
0.0
  0
MTEXT
  5
470E
330
43D0
100
AcDbEntity
  8
AM_5
100
AcDbMText
 10
1102.437544424961
 20
856.5986999010871
 30
0.0
 40
4.0
 41
0.0
 71
     5
 72
     1
  1
20
 73
     1
 44
1.0
1001
ACAD
1000
MTEXTBEGIN
1070
    73
1070
     1
1070
    44
1040
1.0
1070
    74
1070
     0
1000
MTEXTEND
  0
POINT
  5
470F
330
43D0
100
AcDbEntity
  8
Defpoints
 62
     0
100
AcDbPoint
 10
1112.437544424961
 20
844.6431288545554
 30
0.0
  0
POINT
  5
4710
330
43D0
100
AcDbEntity
  8
Defpoints
 62
     0
100
AcDbPoint
 10
1092.437544424961
 20
815.2429557647671
 30
0.0
  0
POINT
  5
4711
330
43D0
100
AcDbEntity
  8
Defpoints
 62
     0
100
AcDbPoint
 10
1092.437544424961
 20
853.7983062002997
 30
0.0
  0
ENDBLK
  5
43DA
330
43D0
100
AcDbEntity
  8
0
100
AcDbBlockEnd
  0
BLOCK
  5
43E5
330
43DB
100
AcDbEntity
  8
0
100
AcDbBlockBegin
  2
*D25
 70
     1
 10
0.0
 20
0.0
 30
0.0
  3
*D25
  1

  0
LINE
  5
46FA
330
43DB
100
AcDbEntity
  8
AM_5
100
AcDbLine
 10
1122.437544424961
 20
768.0709557647673
 30
0.0
 11
1136.674281560793
 21
768.0709557647673
 31
0.0
  0
LINE
  5
46FB
330
43DB
100
AcDbEntity
  8
AM_5
100
AcDbLine
 10
1122.192009563151
 20
838.0709557647671
 30
0.0
 11
1136.674281560793
 21
838.0709557647671
 31
0.0
  0
LINE
  5
46FC
330
43DB
100
AcDbEntity
  8
AM_5
100
AcDbLine
 10
1135.174281560793
 20
771.5709557647673
 30
0.0
 11
1135.174281560793
 21
834.5709557647671
 31
0.0
  0
SOLID
  5
46FD
330
43DB
100
AcDbEntity
  8
AM_5
100
AcDbTrace
 10
1134.59094822746
 20
771.5709557647673
 30
0.0
 11
1135.757614894126
 21
771.5709557647673
 31
0.0
 12
1135.174281560793
 22
768.0709557647673
 32
0.0
 13
1135.174281560793
 23
768.0709557647673
 33
0.0
  0
SOLID
  5
46FE
330
43DB
100
AcDbEntity
  8
AM_5
100
AcDbTrace
 10
1134.59094822746
 20
834.5709557647671
 30
0.0
 11
1135.757614894126
 21
834.5709557647671
 31
0.0
 12
1135.174281560793
 22
838.0709557647671
 32
0.0
 13
1135.174281560793
 23
838.0709557647671
 33
0.0
  0
MTEXT
  5
46FF
330
43DB
100
AcDbEntity
  8
AM_5
100
AcDbMText
 10
1132.374281560793
 20
803.0709557647673
 30
0.0
 40
4.0
 41
0.0
 71
     5
 72
     1
  1
%%C70
 11
0.0000000000000001
 21
1.0
 31
0.0
 73
     1
 44
1.0
1001
ACAD
1000
MTEXTBEGIN
1070
    73
1070
     1
1070
    44
1040
1.0
1070
    74
1070
     0
1000
MTEXTEND
  0
POINT
  5
4700
330
43DB
100
AcDbEntity
  8
Defpoints
 62
     0
100
AcDbPoint
 10
1121.437544424961
 20
768.0709557647673
 30
0.0
  0
POINT
  5
4701
330
43DB
100
AcDbEntity
  8
Defpoints
 62
     0
100
AcDbPoint
 10
1121.192009563151
 20
838.0709557647671
 30
0.0
  0
POINT
  5
4702
330
43DB
100
AcDbEntity
  8
Defpoints
 62
     0
100
AcDbPoint
 10
1135.174281560793
 20
838.0709557647671
 30
0.0
  0
ENDBLK
  5
43E6
330
43DB
100
AcDbEntity
  8
0
100
AcDbBlockEnd
  0
BLOCK
  5
43F1
330
43E7
100
AcDbEntity
  8
0
100
AcDbBlockBegin
  2
*D26
 70
     1
 10
0.0
 20
0.0
 30
0.0
  3
*D26
  1

  0
LINE
  5
47C8
330
43E7
100
AcDbEntity
  8
AM_5
100
AcDbLine
 10
1214.223309636044
 20
713.9364484353377
 30
0.0
 11
1168.722431698097
 21
719.9251875782215
 31
0.0
  0
LINE
  5
47C9
330
43E7
100
AcDbEntity
  8
AM_5
100
AcDbLine
 10
1210.178027305282
 20
683.2014484353378
 30
0.0
 11
1164.677149367335
 21
689.1901875782216
 31
0.0
  0
LINE
  5
47CA
330
43E7
100
AcDbEntity
  8
AM_5
100
AcDbLine
 10
1169.75288126211
 20
716.2593761133441
 30
0.0
 11
1166.621047625341
 21
692.4645210313875
 31
0.0
  0
SOLID
  5
47CB
330
43E7
100
AcDbEntity
  8
AM_5
100
AcDbTrace
 10
1169.174535852273
 20
716.3354968378436
 30
0.0
 11
1170.331226671947
 21
716.1832553888447
 31
0.0
 12
1170.209605609106
 22
719.7294485723658
 32
0.0
 13
1170.209605609106
 23
719.7294485723658
 33
0.0
  0
SOLID
  5
47CC
330
43E7
100
AcDbEntity
  8
AM_5
100
AcDbTrace
 10
1166.042702215504
 20
692.5406417558869
 30
0.0
 11
1167.199393035178
 21
692.3884003068881
 31
0.0
 12
1166.164323278344
 22
688.9944485723658
 32
0.0
 13
1166.164323278344
 23
688.9944485723658
 33
0.0
  0
MTEXT
  5
47CD
330
43E7
100
AcDbEntity
  8
AM_5
100
AcDbMText
 10
1165.410906476508
 20
704.7273280499632
 30
0.0
 40
4.0
 41
0.0
 71
     5
 72
     1
  1
31
 11
0.1304926705704874
 21
0.9914492740061804
 31
0.0
 73
     1
 44
1.0
1001
ACAD
1000
MTEXTBEGIN
1070
    73
1070
     1
1070
    44
1040
1.0
1070
    74
1070
     0
1000
MTEXTEND
  0
POINT
  5
47CE
330
43E7
100
AcDbEntity
  8
Defpoints
 62
     0
100
AcDbPoint
 10
1215.21475891005
 20
713.8059557647673
 30
0.0
  0
POINT
  5
47CF
330
43E7
100
AcDbEntity
  8
Defpoints
 62
     0
100
AcDbPoint
 10
1211.169476579289
 20
683.0709557647674
 30
0.0
  0
POINT
  5
47D0
330
43E7
100
AcDbEntity
  8
Defpoints
 62
     0
100
AcDbPoint
 10
1166.164323278344
 20
688.9944485723658
 30
0.0
  0
ENDBLK
  5
43F2
330
43E7
100
AcDbEntity
  8
0
100
AcDbBlockEnd
  0
ENDSEC
  0
SECTION
  2
ENTITIES
  0
TEXT
  5
AE3
330
1F
100
AcDbEntity
  8
M_1
 62
     4
100
AcDbText
 10
298.4979942115772
 20
71.23545134413652
 30
0.0
 40
5.0
  1

 41
0.75
  7
DAYUS
 11
298.4979942115772
 21
71.23545134413652
 31
0.0
100
AcDbText
 73
     1
  0
LINE
  5
2824
330
1F
100
AcDbEntity
  8
LOGO
 62
     1
100
AcDbLine
 10
1345.976616800056
 20
601.3640982330217
 30
0.0
 11
891.5666168000562
 21
601.3640982330217
 31
0.0
  0
LWPOLYLINE
  5
2838
330
1F
100
AcDbEntity
  8
0
 62
     4
100
AcDbPolyline
 90
        4
 70
     1
 43
0.0
 10
891.5666168000562
 20
601.3640982330217
 10
1345.976616800055
 20
601.3640982330217
 10
1345.976616800055
 20
898.80088346379
 10
891.5666168000562
 20
898.80088346379
1001
GENIUS_GENREC_14
1002
{
1000
PYDIR
1011
891.5666168000562
1021
898.80088346379
1031
0.0
1002
}
1002
{
1000
PXDIR
1011
1345.976616800055
1021
601.3640982330217
1031
0.0
1002
}
1002
{
1000
PORI
1011
891.5666168000562
1021
601.3640982330217
1031
0.0
1002
}
1002
{
1000
PINS
1011
891.5666168000562
1021
601.3640982330217
1031
0.0
1002
}
1002
{
1000
PINS2
1011
1345.976616800055
1021
898.80088346379
1031
0.0
1002
}
1002
{
1000
C
1070
     1
1002
}
1001
GENIUS_GENODEF_13
1002
{
1000
HIER
1070
     0
1002
}
1002
{
1000
MANEDIT
1070
     0
1002
}
1002
{
1000
NOSEL
1070
     0
1002
}
1002
{
1000
BEHIND
1070
     0
1002
}
1002
{
1000
OTHER
1070
     0
1002
}
1002
{
1000
REACTOR
1002
}
1001
GENIUS_GENOBJ-N-REC_13
1002
{
1000
OWNER
1000
GEN
1002
}
  0
LWPOLYLINE
  5
2872
330
1F
100
AcDbEntity
  8
LOGO
 62
     4
100
AcDbPolyline
 90
        4
 70
     1
 43
0.0
 10
891.5666168000562
 20
601.3640982330217
 10
1345.976616800055
 20
601.3640982330217
 10
1345.976616800055
 20
568.3208834637904
 10
891.5666168000562
 20
568.3208834637904
1001
GENIUS_GENREC_14
1002
{
1000
PYDIR
1011
891.5666168000562
1021
568.3208834637904
1031
0.0
1002
}
1002
{
1000
PXDIR
1011
1345.976616800055
1021
601.3640982330217
1031
0.0
1002
}
1002
{
1000
PORI
1011
891.5666168000562
1021
601.3640982330217
1031
0.0
1002
}
1002
{
1000
PINS
1011
891.5666168000562
1021
601.3640982330217
1031
0.0
1002
}
1002
{
1000
PINS2
1011
1345.976616800055
1021
568.3208834637904
1031
0.0
1002
}
1002
{
1000
C
1070
     1
1002
}
1001
GENIUS_GENOBJ-N-REC_13
1002
{
1000
OWNER
1000
GEN
1002
}
1001
GENIUS_GENODEF_13
1002
{
1000
HIER
1070
     0
1002
}
1002
{
1000
MANEDIT
1070
     0
1002
}
1002
{
1000
NOSEL
1070
     0
1002
}
1002
{
1000
BEHIND
1070
     0
1002
}
1002
{
1000
OTHER
1070
     0
1002
}
1002
{
1000
REACTOR
1002
}
  0
LINE
  5
2873
330
1F
100
AcDbEntity
  8
LOGO
 62
     4
100
AcDbLine
 10
1031.739974521274
 20
583.1903301099453
 30
0.0
 11
1031.739974521274
 21
571.0744846945599
 31
0.0
  0
LINE
  5
2874
330
1F
100
AcDbEntity
  8
LOGO
 62
     4
100
AcDbLine
 10
1009.71116467512
 20
583.1903301099453
 30
0.0
 11
1009.71116467512
 21
571.0744846945599
 31
0.0
  0
LINE
  5
2875
330
1F
100
AcDbEntity
  8
LOGO
 62
     4
100
AcDbLine
 10
1031.739974521274
 20
571.0744846945599
 30
0.0
 11
1009.71116467512
 21
571.0744846945599
 31
0.0
  0
LINE
  5
2876
330
1F
100
AcDbEntity
  8
LOGO
 62
     4
100
AcDbLine
 10
1041.996239252423
 20
598.0597767560984
 30
0.0
 11
1009.71116467512
 21
598.0597767560984
 31
0.0
  0
LINE
  5
2877
330
1F
100
AcDbEntity
  8
LOGO
 62
     4
100
AcDbLine
 10
1041.996239252423
 20
588.1468123253293
 30
0.0
 11
1009.71116467512
 21
588.1468123253293
 31
0.0
  0
LINE
  5
2878
330
1F
100
AcDbEntity
  8
LOGO
 62
     4
100
AcDbLine
 10
1009.71116467512
 20
598.0597767560984
 30
0.0
 11
1009.71116467512
 21
588.1468123253293
 31
0.0
  0
LINE
  5
2879
330
1F
100
AcDbEntity
  8
LOGO
 62
     4
100
AcDbLine
 10
1041.996239252423
 20
598.0597767560984
 30
0.0
 11
1041.996239252423
 21
588.1468123253293
 31
0.0
  0
LINE
  5
287A
330
1F
100
AcDbEntity
  8
LOGO
 62
     4
100
AcDbLine
 10
1021.874920176795
 20
588.1468123253293
 30
0.0
 11
1021.874920176795
 21
583.1903301099453
 31
0.0
  0
TEXT
  5
287B
330
1F
100
AcDbEntity
  8
LOGO
  6
Continuous
100
AcDbText
 10
1011.472543203524
 20
590.2161291574999
 30
0.0
 40
5.783399999999999
  1
MCHG2
  7
CHINESET
100
AcDbText
  0
LINE
  5
287C
330
1F
100
AcDbEntity
  8
LOGO
 62
     4
100
AcDbLine
 10
1031.739974521274
 20
583.1903301099453
 30
0.0
 11
1009.71116467512
 21
583.1903301099453
 31
0.0
  0
TEXT
  5
287D
330
1F
100
AcDbEntity
  8
LOGO
  6
Continuous
100
AcDbText
 10
1016.780140012601
 20
572.7846105826945
 30
216.5597860459063
 40
2.478599999999999
  1
Model
 41
0.8
  7
CHINESET
100
AcDbText
  0
TEXT
  5
287E
330
1F
100
AcDbEntity
  8
LOGO
100
AcDbText
 10
1016.120417266931
 20
577.3794008062692
 30
216.5597860459063
 40
4.131
  1
型號
  7
CHINESET
100
AcDbText
  0
LINE
  5
288A
330
1F
100
AcDbEntity
  8
LOGO
  6
Continuous
100
AcDbLine
 10
1043.400793167844
 20
593.0681812540816
 30
0.0
 11
1047.777996552472
 21
593.0681812540816
 31
0.0
  0
LINE
  5
288B
330
1F
100
AcDbEntity
  8
LOGO
 62
     4
100
AcDbLine
 10
1056.65164355214
 20
583.1903301099453
 30
0.0
 11
1056.65164355214
 21
571.0744846945599
 31
0.0
  0
LINE
  5
288C
330
1F
100
AcDbEntity
  8
LOGO
 62
     4
100
AcDbLine
 10
1034.622833705987
 20
583.1903301099453
 30
0.0
 11
1034.622833705987
 21
571.0744846945599
 31
0.0
  0
LINE
  5
288D
330
1F
100
AcDbEntity
  8
LOGO
 62
     4
100
AcDbLine
 10
1056.65164355214
 20
571.0744846945599
 30
0.0
 11
1034.622833705987
 21
571.0744846945599
 31
0.0
  0
LINE
  5
288E
330
1F
100
AcDbEntity
  8
LOGO
 62
     4
100
AcDbLine
 10
1066.097516933573
 20
598.0597767560984
 30
0.0
 11
1049.158773484162
 21
598.0597767560984
 31
0.0
  0
LINE
  5
288F
330
1F
100
AcDbEntity
  8
LOGO
 62
     4
100
AcDbLine
 10
1066.097516933573
 20
588.1468123253293
 30
0.0
 11
1049.158773484162
 21
588.1468123253293
 31
0.0
  0
LINE
  5
2890
330
1F
100
AcDbEntity
  8
LOGO
 62
     4
100
AcDbLine
 10
1049.158773484162
 20
598.0597767560984
 30
0.0
 11
1049.158773484162
 21
588.1468123253293
 31
0.0
  0
LINE
  5
2891
330
1F
100
AcDbEntity
  8
LOGO
 62
     4
100
AcDbLine
 10
1066.097516933573
 20
598.0597767560984
 30
0.0
 11
1066.097516933573
 21
588.1468123253293
 31
0.0
  0
LINE
  5
2892
330
1F
100
AcDbEntity
  8
LOGO
 62
     4
100
AcDbLine
 10
1056.77508754507
 20
588.1468123253293
 30
0.0
 11
1056.77508754507
 21
585.6685712176373
 31
0.0
  0
TEXT
  5
2893
330
1F
100
AcDbEntity
  8
LOGO
  6
Continuous
100
AcDbText
 10
1053.388887594957
 20
590.2161291574999
 30
0.0
 40
5.783399999999999
  1
50
  7
CHINESET
100
AcDbText
  0
LINE
  5
2894
330
1F
100
AcDbEntity
  8
LOGO
 62
     4
100
AcDbLine
 10
1056.65164355214
 20
583.1903301099453
 30
0.0
 11
1034.622833705987
 21
583.1903301099453
 31
0.0
  0
LINE
  5
2895
330
1F
100
AcDbEntity
  8
LOGO
  6
Continuous
100
AcDbLine
 10
1085.073864447298
 20
593.0681812540816
 30
0.0
 11
1089.451067831926
 21
593.0681812540816
 31
0.0
  0
LINE
  5
2896
330
1F
100
AcDbEntity
  8
LOGO
 62
     4
100
AcDbLine
 10
1108.08089387243
 20
583.1903301099453
 30
0.0
 11
1108.08089387243
 21
571.0744846945599
 31
0.0
  0
LINE
  5
2897
330
1F
100
AcDbEntity
  8
LOGO
 62
     4
100
AcDbLine
 10
1082.721852973562
 20
583.1903301099453
 30
0.0
 11
1082.721852973562
 21
571.0744846945599
 31
0.0
  0
LINE
  5
2898
330
1F
100
AcDbEntity
  8
LOGO
 62
     4
100
AcDbLine
 10
1108.08089387243
 20
571.0744846945599
 30
0.0
 11
1082.721852973562
 21
571.0744846945599
 31
0.0
  0
LINE
  5
2899
330
1F
100
AcDbEntity
  8
LOGO
 62
     4
100
AcDbLine
 10
1101.378963636895
 20
598.0597767560984
 30
0.0
 11
1090.831844763615
 21
598.0597767560984
 31
0.0
  0
LINE
  5
289A
330
1F
100
AcDbEntity
  8
LOGO
 62
     4
100
AcDbLine
 10
1101.378963636895
 20
588.1468123253293
 30
0.0
 11
1090.831844763615
 21
588.1468123253293
 31
0.0
  0
LINE
  5
289B
330
1F
100
AcDbEntity
  8
LOGO
 62
     4
100
AcDbLine
 10
1090.831844763615
 20
598.0597767560984
 30
0.0
 11
1090.831844763615
 21
588.1468123253293
 31
0.0
  0
LINE
  5
289C
330
1F
100
AcDbEntity
  8
LOGO
 62
     4
100
AcDbLine
 10
1101.378963636895
 20
598.0597767560984
 30
0.0
 11
1101.378963636895
 21
588.1468123253293
 31
0.0
  0
LINE
  5
289D
330
1F
100
AcDbEntity
  8
LOGO
 62
     4
100
AcDbLine
 10
1096.105404200256
 20
588.1468123253293
 30
0.0
 11
1096.105404200256
 21
583.1903301099453
 31
0.0
  0
LINE
  5
289F
330
1F
100
AcDbEntity
  8
LOGO
 62
     4
100
AcDbLine
 10
1108.08089387243
 20
583.1903301099453
 30
0.0
 11
1082.721852973562
 21
583.1903301099453
 31
0.0
  0
TEXT
  5
28A2
330
1F
100
AcDbEntity
  8
LOGO
  6
Continuous
100
AcDbText
 10
1039.236969027353
 20
572.7846105826945
 30
216.5597860459063
 40
2.478599999999999
  1
Tube I.D.
 41
0.8
  7
CHINESET
100
AcDbText
  0
TEXT
  5
28A3
330
1F
100
AcDbEntity
  8
LOGO
100
AcDbText
 10
1040.23636725175
 20
577.3794008062692
 30
216.5597860459063
 40
4.131
  1
內徑
  7
CHINESET
100
AcDbText
  0
TEXT
  5
28A4
330
1F
100
AcDbEntity
  8
LOGO
  6
Continuous
100
AcDbText
 10
1085.025435236987
 20
572.7846105826945
 30
216.5597860459063
 40
2.478599999999999
  1
Sensor switch
 41
0.8
  7
CHINESET
100
AcDbText
  0
TEXT
  5
28A5
330
1F
100
AcDbEntity
  8
LOGO
100
AcDbText
 10
1084.853577260829
 20
577.3794008062692
 30
216.5597860459063
 40
4.131
  1
感應器型式
  7
CHINESET
100
AcDbText
  0
LINE
  5
28A6
330
1F
100
AcDbEntity
  8
LOGO
 62
     4
100
AcDbLine
 10
1083.168585494491
 20
598.0597767560984
 30
0.0
 11
1067.496707990096
 21
598.0597767560984
 31
0.0
  0
LINE
  5
28A7
330
1F
100
AcDbEntity
  8
LOGO
 62
     4
100
AcDbLine
 10
1083.168585494491
 20
588.1468123253293
 30
0.0
 11
1067.496707990096
 21
588.1468123253293
 31
0.0
  0
LINE
  5
28A8
330
1F
100
AcDbEntity
  8
LOGO
 62
     4
100
AcDbLine
 10
1067.496707990096
 20
598.0597767560984
 30
0.0
 11
1067.496707990096
 21
588.1468123253293
 31
0.0
  0
LINE
  5
28A9
330
1F
100
AcDbEntity
  8
LOGO
 62
     4
100
AcDbLine
 10
1083.168585494491
 20
598.0597767560984
 30
0.0
 11
1083.168585494491
 21
588.1468123253293
 31
0.0
  0
TEXT
  5
28AA
330
1F
100
AcDbEntity
  8
LOGO
  6
Continuous
100
AcDbText
 10
1069.800506683855
 20
590.2161291574999
 30
0.0
 40
5.783399999999999
  1
(M)
  7
CHINESET
100
AcDbText
  0
LINE
  5
28AB
330
1F
100
AcDbEntity
  8
LOGO
 62
     4
100
AcDbLine
 10
1079.100875072252
 20
583.1903301099453
 30
0.0
 11
1079.100875072252
 21
571.0744846945599
 31
0.0
  0
LINE
  5
28AC
330
1F
100
AcDbEntity
  8
LOGO
 62
     4
100
AcDbLine
 10
1061.154897595093
 20
583.1903301099453
 30
0.0
 11
1061.154897595093
 21
571.0744846945599
 31
0.0
  0
LINE
  5
28AD
330
1F
100
AcDbEntity
  8
LOGO
 62
     4
100
AcDbLine
 10
1079.100875072252
 20
571.0744846945599
 30
0.0
 11
1061.154897595093
 21
571.0744846945599
 31
0.0
  0
LINE
  5
28AE
330
1F
100
AcDbEntity
  8
LOGO
 62
     4
100
AcDbLine
 10
1079.100875072252
 20
583.1903301099453
 30
0.0
 11
1061.154897595093
 21
583.1903301099453
 31
0.0
  0
TEXT
  5
28AF
330
1F
100
AcDbEntity
  8
LOGO
  6
Continuous
100
AcDbText
 10
1065.055891244721
 20
572.7846105826945
 30
216.5597860459063
 40
2.478599999999999
  1
Magnet
 41
0.8
  7
CHINESET
100
AcDbText
  0
TEXT
  5
28B0
330
1F
100
AcDbEntity
  8
LOGO
100
AcDbText
 10
1063.734091848388
 20
577.3794008062692
 30
216.5597860459063
 40
4.131
  1
附磁石
  7
CHINESET
100
AcDbText
  0
LINE
  5
28B1
330
1F
100
AcDbEntity
  8
LOGO
 62
     4
100
AcDbLine
 10
1075.332646742294
 20
588.1468123253293
 30
0.0
 11
1075.332646742294
 21
585.6685712176373
 31
0.0
  0
LINE
  5
28B9
330
1F
100
AcDbEntity
  8
LOGO
 62
     4
100
AcDbLine
 10
1056.77508754507
 20
585.6685712176373
 30
0.0
 11
1045.637238629064
 21
585.6685712176373
 31
0.0
  0
LINE
  5
28BA
330
1F
100
AcDbEntity
  8
LOGO
 62
     4
100
AcDbLine
 10
1045.637238629064
 20
583.1903301099453
 30
0.0
 11
1045.637238629064
 21
585.6685712176373
 31
0.0
  0
LINE
  5
28BB
330
1F
100
AcDbEntity
  8
LOGO
 62
     4
100
AcDbLine
 10
1075.332646742294
 20
585.6685712176373
 30
0.0
 11
1070.127886333672
 21
585.6685712176373
 31
0.0
  0
LINE
  5
28BC
330
1F
100
AcDbEntity
  8
LOGO
 62
     4
100
AcDbLine
 10
1070.127886333672
 20
583.1903301099453
 30
0.0
 11
1070.127886333672
 21
585.6685712176373
 31
0.0
  0
TEXT
  5
299D
330
1F
100
AcDbEntity
  8
LOGO
 62
     7
100
AcDbText
 10
966.17600781148
 20
586.8884281209678
 30
0.0
 40
4.405761969230768
  1
Order example:
 41
0.8
  7
CHINESET
100
AcDbText
  0
TEXT
  5
299E
330
1F
100
AcDbEntity
  8
LOGO
 62
     7
100
AcDbText
 10
966.9664379429294
 20
593.090828748989
 30
0.0
 40
6.608642953846152
  1
訂購代號:
  7
CHINESET
100
AcDbText
  0
LINE
  5
29A0
330
1F
100
AcDbEntity
  8
LOGO
 62
     4
100
AcDbLine
 10
964.2616892923639
 20
568.3208834637907
 30
0.0
 11
964.2616892923639
 21
601.3640982330218
 31
0.0
  0
TEXT
  5
29A1
330
1F
100
AcDbEntity
  8
LOGO
  6
Continuous
100
AcDbText
 10
903.4358880772881
 20
574.8121731386472
 30
0.0
 40
4.956482215384614
  1
金器工業股份有限公司
  7
CHINESET
100
AcDbText
  0
TEXT
  5
29A2
330
1F
100
AcDbEntity
  8
LOGO
  6
Continuous
100
AcDbText
 10
894.3318108392752
 20
569.8547198413516
 30
0.0
 40
3.304321476923076
  1
MINDMAN INDUSTRIAL CO., LTD.
 41
0.85
  7
CHINESET
100
AcDbText
  0
LINE
  5
29A3
330
1F
100
AcDbEntity
  8
LOGO
100
AcDbLine
 10
964.2616892923639
 20
594.7554552791755
 30
0.0
 11
915.7983076308251
 21
594.7554552791755
 31
0.0
  0
LINE
  5
29A4
330
1F
100
AcDbEntity
  8
LOGO
100
AcDbLine
 10
964.2616892923639
 20
588.1468123253293
 30
0.0
 11
915.7983076308251
 21
588.1468123253293
 31
0.0
  0
LINE
  5
29A5
330
1F
100
AcDbEntity
  8
LOGO
 62
     4
100
AcDbLine
 10
964.2616892923639
 20
581.5381693714836
 30
0.0
 11
891.5666168000562
 21
581.5381693714836
 31
0.0
  0
LINE
  5
29A6
330
1F
100
AcDbEntity
  8
LOGO
 62
     4
100
AcDbLine
 10
915.7983076308251
 20
581.5381693714836
 30
0.0
 11
915.7983076308251
 21
601.3640982330218
 31
0.0
  0
TEXT
  5
29A7
330
1F
100
AcDbEntity
  8
LOGO
100
AcDbText
 10
948.9207415597144
 20
583.1903301099446
 30
0.0
 40
3.304321476923076
  1
mm
  7
CHINESET
 72
     1
 11
953.0118062454286
 21
584.8424908484061
 31
0.0
100
AcDbText
 73
     2
  0
TEXT
  5
29A8
330
1F
100
AcDbEntity
  8
LOGO
100
AcDbText
 10
947.1899065003738
 20
596.4076160176368
 30
0.0
 40
3.304321476923076
  1
1 : 1
  7
CHINESET
 72
     1
 11
953.0118062454286
 21
598.0597767560984
 31
0.0
100
AcDbText
 73
     2
  0
LINE
  5
29A9
330
1F
100
AcDbEntity
  8
LOGO
 62
     4
100
AcDbLine
 10
942.2328794462098
 20
581.5381693714836
 30
0.0
 11
942.2328794462098
 21
601.3640982330218
 31
0.0
  0
CIRCLE
  5
29AA
330
1F
100
AcDbEntity
  8
LOGO
  6
Continuous
100
AcDbCircle
 10
948.3512439587299
 20
591.4582017700722
 30
0.0
 40
1.918566824461811
  0
CIRCLE
  5
29AB
330
1F
100
AcDbEntity
  8
LOGO
  6
Continuous
100
AcDbCircle
 10
948.3512439587299
 20
591.4582017700722
 30
0.0
 40
1.124110318023032
  0
LINE
  5
29AC
330
1F
100
AcDbEntity
  8
LOGO
100
AcDbLine
 10
960.4077405047277
 20
589.53963494561
 30
0.0
 11
960.4077405047277
 21
593.3767685945343
 31
0.0
  0
LINE
  5
29AD
330
1F
100
AcDbEntity
  8
LOGO
100
AcDbLine
 10
954.3931436410309
 20
590.3340914520493
 30
0.0
 11
954.3931436410309
 21
592.5823120880953
 31
0.0
  0
LINE
  5
29AE
330
1F
100
AcDbEntity
  8
LOGO
  6
Continuous
100
AcDbLine
 10
954.3931436410309
 20
592.5823120880953
 30
0.0
 11
960.4077405047277
 21
593.3767685945343
 31
0.0
  0
LINE
  5
29AF
330
1F
100
AcDbEntity
  8
LOGO
  6
Continuous
100
AcDbLine
 10
954.3931436410309
 20
590.3340914520493
 30
0.0
 11
960.4077405047277
 21
589.53963494561
 31
0.0
  0
TEXT
  5
29B0
330
1F
100
AcDbEntity
  8
LOGO
100
AcDbText
 10
918.5228977057702
 20
596.409242160096
 30
216.5597860459063
 40
3.304321476923076
  1
比例 Scale:
 41
0.9
  7
CHINESET
 72
     4
 11
929.0155935385175
 21
598.0597767560984
 31
216.5597860459063
100
AcDbText
  0
TEXT
  5
29B1
330
1F
100
AcDbEntity
  8
LOGO
100
AcDbText
 10
918.3326041921439
 20
589.8454536357471
 30
216.5597860459063
 40
3.304321476923076
  1
投影  View:
 41
0.9
  7
CHINESET
 72
     4
 11
929.0155935385175
 21
591.4511338022523
 31
216.5597860459063
100
AcDbText
  0
TEXT
  5
29B2
330
1F
100
AcDbEntity
  8
LOGO
100
AcDbText
 10
918.6556606222538
 20
583.1903301099446
 30
216.5597860459063
 40
3.304321476923076
  1
單位  Unit:
 41
0.9
  7
CHINESET
 72
     4
 11
929.0155935385175
 21
584.8424908484061
 31
216.5597860459063
100
AcDbText
  0
SOLID
  5
29B4
330
1F
100
AcDbEntity
  8
LOGO
 62
     5
100
AcDbTrace
 10
894.9949033626896
 20
587.0311334937423
 30
0.0
 11
896.4236052639156
 21
587.031133493742
 31
0.0
 12
902.3847407828238
 22
600.5791687639891
 32
0.0
 13
903.8134426840503
 23
600.5791687639883
 33
0.0
  0
SOLID
  5
29B5
330
1F
100
AcDbEntity
  8
LOGO
 62
     5
100
AcDbTrace
 10
897.0147922575279
 20
587.0311334937423
 30
0.0
 11
898.4434941587538
 21
587.0311334937423
 31
0.0
 12
903.8134426840503
 22
599.4953259423687
 32
0.0
 13
902.3847407828238
 23
594.25675230454
 33
0.0
  0
SOLID
  5
29B6
330
1F
100
AcDbEntity
  8
LOGO
 62
     2
100
AcDbTrace
 10
896.4236052639156
 20
587.031133493742
 30
0.0
 11
897.0147922575279
 21
587.0311334937423
 31
0.0
 12
903.8134426840503
 22
600.5791687639883
 32
0.0
 13
904.404629677662
 23
600.5791687639883
 33
0.0
  0
SOLID
  5
29B7
330
1F
100
AcDbEntity
  8
LOGO
 62
     5
100
AcDbTrace
 10
892.7043438544014
 20
582.1045752136529
 30
0.0
 11
893.1969996824109
 21
582.1045752136529
 31
0.0
 12
894.5843568393494
 22
584.5678543536974
 32
0.0
 13
895.0770126673573
 23
584.5678543536974
 33
0.0
  0
SOLID
  5
29B8
330
1F
100
AcDbEntity
  8
LOGO
 62
     5
100
AcDbTrace
 10
894.5843568393494
 20
584.5678543536974
 30
0.0
 11
895.0770126673573
 21
584.5678543536974
 31
0.0
 12
894.5843568393494
 22
582.1045752136529
 32
0.0
 13
895.0770126673573
 23
582.1045752136529
 33
0.0
  0
SOLID
  5
29B9
330
1F
100
AcDbEntity
  8
LOGO
 62
     5
100
AcDbTrace
 10
894.5843568393494
 20
582.1045752136529
 30
0.0
 11
895.0770126673573
 21
582.1045752136529
 31
0.0
 12
896.464369824298
 22
584.5678543536974
 32
0.0
 13
896.9570256523066
 23
584.5678543536974
 33
0.0
  0
SOLID
  5
29BA
330
1F
100
AcDbEntity
  8
LOGO
 62
     5
100
AcDbTrace
 10
896.464369824298
 20
584.5678543536974
 30
0.0
 11
896.9570256523066
 21
584.5678543536974
 31
0.0
 12
896.464369824298
 22
582.1045752136529
 32
0.0
 13
896.9570256523066
 23
582.1045752136529
 33
0.0
  0
POLYLINE
  5
29BB
330
1F
100
AcDbEntity
  8
LOGO
 62
     5
100
AcDb2dPolyline
 66
     1
 10
0.0
 20
0.0
 30
0.0
 40
0.4934453405538461
 41
0.4934453405538461
  0
VERTEX
  5
29BC
330
29BB
100
AcDbEntity
  8
LOGO
 62
     5
100
AcDbVertex
100
AcDb2dVertex
 10
912.9780253538351
 20
583.5825426976795
 30
0.0
 42
1.0
  0
VERTEX
  5
29BD
330
29BB
100
AcDbEntity
  8
LOGO
 62
     5
100
AcDbVertex
100
AcDb2dVertex
 10
911.4976893321733
 20
583.5825426976795
 30
0.0
 42
1.0
  0
SEQEND
  5
29BE
330
29BB
100
AcDbEntity
  8
LOGO
 62
     5
  0
POLYLINE
  5
29BF
330
1F
100
AcDbEntity
  8
LOGO
 62
     5
100
AcDb2dPolyline
 66
     1
 10
0.0
 20
0.0
 30
0.0
 70
     1
  0
VERTEX
  5
29C0
330
29BF
100
AcDbEntity
  8
LOGO
 62
     5
100
AcDbVertex
100
AcDb2dVertex
 10
908.7071900859941
 20
583.3362147836749
 30
0.0
 42
1.000000057330635
  0
VERTEX
  5
29C1
330
29BF
100
AcDbEntity
  8
LOGO
 62
     5
100
AcDbVertex
100
AcDb2dVertex
 10
910.185157570021
 20
583.3362147836749
 30
0.0
 42
1.000000057330635
  0
SEQEND
  5
29C2
330
29BF
100
AcDbEntity
  8
LOGO
 62
     5
  0
CIRCLE
  5
29C3
330
1F
100
AcDbEntity
  8
LOGO
 62
     5
100
AcDbCircle
 10
909.4461738280088
 20
583.3362147836749
 30
0.0
 40
0.7389837420134401
  0
POLYLINE
  5
29C4
330
1F
100
AcDbEntity
  8
LOGO
 62
     5
100
AcDb2dPolyline
 66
     1
 10
0.0
 20
0.0
 30
0.0
 70
     1
 40
0.4934453405538461
 41
0.4934453405538461
  0
VERTEX
  5
29C5
330
29C4
100
AcDbEntity
  8
LOGO
 62
     5
100
AcDbVertex
100
AcDb2dVertex
 10
908.4592831469004
 20
583.3362147836749
 30
0.0
 42
1.0
  0
VERTEX
  5
29C6
330
29C4
100
AcDbEntity
  8
LOGO
 62
     5
100
AcDbVertex
100
AcDb2dVertex
 10
910.4330645091156
 20
583.3362147836749
 30
0.0
 42
1.0
  0
SEQEND
  5
29C7
330
29C4
100
AcDbEntity
  8
LOGO
 62
     5
  0
LINE
  5
29C8
330
1F
100
AcDbEntity
  8
LOGO
100
AcDbLine
 10
913.2231689990213
 20
582.1045752136529
 30
0.0
 11
913.2231689990213
 21
583.5825426976795
 31
0.0
  0
SOLID
  5
29C9
330
1F
100
AcDbEntity
  8
LOGO
 62
     5
100
AcDbTrace
 10
910.1851083044406
 20
584.5678543536974
 30
0.0
 11
910.6777641324484
 21
584.5678543536974
 31
0.0
 12
910.1851083044406
 22
582.1045752136529
 32
0.0
 13
910.6777641324484
 23
582.1045752136529
 33
0.0
  0
SOLID
  5
29CA
330
1F
100
AcDbEntity
  8
LOGO
 62
     5
100
AcDbTrace
 10
911.2525456869855
 20
582.1045752136529
 30
0.0
 11
911.745201514995
 21
582.1045752136529
 31
0.0
 12
911.2525456869855
 22
584.5678543536974
 32
0.0
 13
911.745201514995
 23
584.5678543536974
 33
0.0
  0
SOLID
  5
29CB
330
1F
100
AcDbEntity
  8
LOGO
 62
     5
100
AcDbTrace
 10
912.7305131710132
 20
583.5825426976795
 30
0.0
 11
913.2231689990213
 21
583.5825426976795
 31
0.0
 12
912.7305131710132
 22
582.1045752136529
 32
0.0
 13
913.2231689990213
 23
582.1045752136529
 33
0.0
  0
SOLID
  5
29CC
330
1F
100
AcDbEntity
  8
LOGO
 62
     5
100
AcDbTrace
 10
911.2032801041847
 20
599.4953259423687
 30
0.0
 11
909.7745782029592
 21
594.25675230454
 31
0.0
 12
911.2032801041847
 22
587.031133493742
 32
0.0
 13
909.7745782029592
 23
587.031133493742
 33
0.0
  0
SOLID
  5
29CD
330
1F
100
AcDbEntity
  8
LOGO
 62
     5
100
AcDbTrace
 10
911.794467097796
 20
587.031133493742
 30
0.0
 11
913.2231689990213
 21
587.031133493742
 31
0.0
 12
911.794467097796
 22
600.5791687639883
 32
0.0
 13
913.2231689990213
 23
600.5791687639891
 33
0.0
  0
SOLID
  5
29CE
330
1F
100
AcDbEntity
  8
LOGO
 62
     2
100
AcDbTrace
 10
911.2032801041847
 20
600.5791687639891
 30
0.0
 11
911.794467097796
 21
600.5791687639883
 31
0.0
 12
911.2032801041847
 22
587.031133493742
 32
0.0
 13
911.794467097796
 23
587.031133493742
 33
0.0
  0
POLYLINE
  5
29CF
330
1F
100
AcDbEntity
  8
LOGO
 62
     5
100
AcDb2dPolyline
 66
     1
 10
0.0
 20
0.0
 30
0.0
 40
0.4934453405538461
 41
0.4934453405538461
  0
VERTEX
  5
29D0
330
29CF
100
AcDbEntity
  8
LOGO
 62
     5
100
AcDbVertex
100
AcDb2dVertex
 10
905.9165923086515
 20
583.5825426976795
 30
0.0
 42
1.0
  0
VERTEX
  5
29D1
330
29CF
100
AcDbEntity
  8
LOGO
 62
     5
100
AcDbVertex
100
AcDb2dVertex
 10
904.4362562869896
 20
583.5825426976795
 30
0.0
 42
1.0
  0
SEQEND
  5
29D2
330
29CF
100
AcDbEntity
  8
LOGO
 62
     5
  0
POLYLINE
  5
29D3
330
1F
100
AcDbEntity
  8
LOGO
 62
     5
100
AcDb2dPolyline
 66
     1
 10
0.0
 20
0.0
 30
0.0
 40
0.4934453405538461
 41
0.4934453405538461
  0
VERTEX
  5
29D4
330
29D3
100
AcDbEntity
  8
LOGO
 62
     5
100
AcDbVertex
100
AcDb2dVertex
 10
907.3945597926769
 20
583.5825426976795
 30
0.0
 42
1.0
  0
VERTEX
  5
29D5
330
29D3
100
AcDbEntity
  8
LOGO
 62
     5
100
AcDbVertex
100
AcDb2dVertex
 10
905.914223771016
 20
583.5825426976795
 30
0.0
 42
1.0
  0
SEQEND
  5
29D6
330
29D3
100
AcDbEntity
  8
LOGO
 62
     5
  0
POLYLINE
  5
29D7
330
1F
100
AcDbEntity
  8
LOGO
 62
     5
100
AcDb2dPolyline
 66
     1
 10
0.0
 20
0.0
 30
0.0
 40
0.4934453405538461
 41
0.4934453405538461
  0
VERTEX
  5
29D8
330
29D7
100
AcDbEntity
  8
LOGO
 62
     5
100
AcDbVertex
100
AcDb2dVertex
 10
900.3331267474937
 20
583.5825426976795
 30
0.0
 42
1.0
  0
VERTEX
  5
29D9
330
29D7
100
AcDbEntity
  8
LOGO
 62
     5
100
AcDbVertex
100
AcDb2dVertex
 10
898.8527907258324
 20
583.5825426976795
 30
0.0
 42
1.0
  0
SEQEND
  5
29DA
330
29D7
100
AcDbEntity
  8
LOGO
 62
     5
  0
SOLID
  5
29DB
330
1F
100
AcDbEntity
  8
LOGO
 62
     5
100
AcDbTrace
 10
898.6076470806455
 20
584.5678543536974
 30
0.0
 11
899.1003029086536
 21
584.5678543536974
 31
0.0
 12
898.6076470806455
 22
582.1045752136529
 32
0.0
 13
899.1003029086536
 23
582.1045752136529
 33
0.0
  0
SOLID
  5
29DC
330
1F
100
AcDbEntity
  8
LOGO
 62
     5
100
AcDbTrace
 10
900.0856145646725
 20
583.5825426976795
 30
0.0
 11
900.578270392682
 21
583.5825426976795
 31
0.0
 12
900.0856145646725
 22
582.1045752136529
 32
0.0
 13
900.578270392682
 23
582.1045752136529
 33
0.0
  0
POLYLINE
  5
29DD
330
1F
100
AcDbEntity
  8
LOGO
 62
     5
100
AcDb2dPolyline
 66
     1
 10
0.0
 20
0.0
 30
0.0
 70
     1
 40
0.4934453405538461
 41
0.4934453405538461
  0
VERTEX
  5
29DE
330
29DD
100
AcDbEntity
  8
LOGO
 62
     5
100
AcDbVertex
100
AcDb2dVertex
 10
901.3978501017161
 20
583.3362147836749
 30
0.0
 42
1.0
  0
VERTEX
  5
29DF
330
29DD
100
AcDbEntity
  8
LOGO
 62
     5
100
AcDbVertex
100
AcDb2dVertex
 10
903.371631463932
 20
583.3362147836749
 30
0.0
 42
1.0
  0
SEQEND
  5
29E0
330
29DD
100
AcDbEntity
  8
LOGO
 62
     5
  0
SOLID
  5
29E1
330
1F
100
AcDbEntity
  8
LOGO
 62
     5
100
AcDbTrace
 10
903.1236752592553
 20
585.3068380957114
 30
0.0
 11
903.6163310872643
 21
585.3068380957114
 31
0.0
 12
903.1236752592553
 22
582.1045752136529
 32
0.0
 13
903.6163310872643
 23
582.1045752136529
 33
0.0
  0
SOLID
  5
29E2
330
1F
100
AcDbEntity
  8
LOGO
 62
     5
100
AcDbTrace
 10
904.1911126418035
 20
584.5678543536974
 30
0.0
 11
904.6837684698116
 21
584.5678543536974
 31
0.0
 12
904.1911126418035
 22
582.1045752136529
 32
0.0
 13
904.6837684698116
 23
582.1045752136529
 33
0.0
  0
SOLID
  5
29E3
330
1F
100
AcDbEntity
  8
LOGO
 62
     5
100
AcDbTrace
 10
905.6690801258291
 20
583.5825426976795
 30
0.0
 11
906.1617359538384
 21
583.5825426976795
 31
0.0
 12
905.6690801258291
 22
582.1045752136529
 32
0.0
 13
906.1617359538384
 23
582.1045752136529
 33
0.0
  0
SOLID
  5
29E4
330
1F
100
AcDbEntity
  8
LOGO
 62
     5
100
AcDbTrace
 10
907.1470476098561
 20
583.5825426976795
 30
0.0
 11
907.6397034378649
 21
583.5825426976795
 31
0.0
 12
907.1470476098561
 22
582.1045752136521
 32
0.0
 13
907.6397034378649
 23
582.1045752136521
 33
0.0
  0
SOLID
  5
29E5
330
1F
100
AcDbEntity
  8
LOGO
 62
     5
100
AcDbTrace
 10
897.5402096980982
 20
584.9127134333039
 30
0.0
 11
898.0328655261084
 21
584.9127134333039
 31
0.0
 12
897.5402096980982
 22
585.3068380957114
 32
0.0
 13
898.0328655261084
 23
585.3068380957114
 33
0.0
  0
SOLID
  5
29E6
330
1F
100
AcDbEntity
  8
LOGO
 62
     5
100
AcDbTrace
 10
897.5402096980982
 20
584.5678543536974
 30
0.0
 11
898.0328655261084
 21
584.5678543536974
 31
0.0
 12
897.5402096980982
 22
582.1045752136521
 32
0.0
 13
898.0328655261084
 23
582.1045752136529
 33
0.0
  0
SOLID
  5
29E7
330
1F
100
AcDbEntity
  8
LOGO
 62
     5
100
AcDbTrace
 10
902.3847407828238
 20
587.0311334937423
 30
0.0
 11
903.8134426840503
 21
587.0311334937423
 31
0.0
 12
902.3847407828238
 22
594.25675230454
 32
0.0
 13
903.8134426840503
 23
599.4953259423687
 33
0.0
  0
SOLID
  5
29E8
330
1F
100
AcDbEntity
  8
LOGO
 62
     5
100
AcDbTrace
 10
904.404629677662
 20
600.5791687639883
 30
0.0
 11
905.8333315788871
 21
600.5791687639891
 31
0.0
 12
904.404629677662
 22
588.1149763153619
 32
0.0
 13
905.8333315788871
 23
593.3535499531905
 33
0.0
  0
SOLID
  5
29E9
330
1F
100
AcDbEntity
  8
LOGO
 62
     2
100
AcDbTrace
 10
903.8134426840503
 20
600.5791687639883
 30
0.0
 11
904.404629677662
 21
600.5791687639883
 31
0.0
 12
903.8134426840503
 22
587.0311334937423
 32
0.0
 13
904.404629677662
 23
587.0311334937423
 33
0.0
  0
SOLID
  5
29EA
330
1F
100
AcDbEntity
  8
LOGO
 62
     5
100
AcDbTrace
 10
904.404629677662
 20
588.1149763153619
 30
0.0
 11
905.8333315788871
 21
593.3535499531905
 31
0.0
 12
911.2032801041847
 22
600.5791687639891
 32
0.0
 13
909.7745782029592
 23
600.5791687639891
 33
0.0
  0
SOLID
  5
29EB
330
1F
100
AcDbEntity
  8
LOGO
 62
     5
100
AcDbTrace
 10
904.404629677662
 20
587.0311334937423
 30
0.0
 11
905.8333315788871
 21
587.0311334937423
 31
0.0
 12
911.2032801041847
 22
599.4953259423687
 32
0.0
 13
909.7745782029592
 23
594.25675230454
 33
0.0
  0
SOLID
  5
29EC
330
1F
100
AcDbEntity
  8
LOGO
 62
     2
100
AcDbTrace
 10
903.8134426840503
 20
587.0311334937423
 30
0.0
 11
904.404629677662
 21
587.0311334937423
 31
0.0
 12
911.2032801041847
 22
600.5791687639891
 32
0.0
 13
911.794467097796
 23
600.5791687639883
 33
0.0
  0
TEXT
  5
2A2D
330
1F
100
AcDbEntity
  8
LOGO
100
AcDbText
 10
965.7926967033247
 20
570.0787694475665
 30
0.0
 40
3.304799999999999
  1
10603100
 41
0.7
  7
CHINESET
 72
     1
 11
973.8343767033249
 21
570.0787694475665
 31
0.0
100
AcDbText
  0
LINE
  5
2A2E
330
1F
100
AcDbEntity
  8
LOGO
 62
     4
100
AcDbLine
 10
984.0904892923623
 20
574.9295264176378
 30
0.0
 11
984.0904892923639
 21
568.3208834637912
 31
0.0
  0
LINE
  5
2A2F
330
1F
100
AcDbEntity
  8
LOGO
 62
     4
100
AcDbLine
 10
984.0904892923623
 20
574.9295264176378
 30
0.0
 11
964.2616892923639
 21
574.9295264176378
 31
0.0
  0
LINE
  5
2A30
330
1F
100
AcDbEntity
  8
LOGO
  6
AM_ISO08W050x2
 48
0.3
100
AcDbLine
 10
945.706470862933
 20
591.4582017700722
 30
0.0
 11
950.9960170545262
 21
591.4582017700722
 31
0.0
1001
GENIUS_GENOREF_13
1005
2A35
  0
LINE
  5
2A31
330
1F
100
AcDbEntity
  8
LOGO
  6
AM_ISO08W050x2
 48
0.3
100
AcDbLine
 10
948.3512439587299
 20
588.8134286742755
 30
0.0
 11
948.3512439587299
 21
594.1029748658687
 31
0.0
1001
GENIUS_GENOREF_13
1005
2A34
  0
LINE
  5
2A32
330
1F
100
AcDbEntity
  8
LOGO
  6
AM_ISO08W050x2
 48
0.3
100
AcDbLine
 10
953.9121430668727
 20
591.4582017700722
 30
0.0
 11
961.0133909386481
 21
591.4582017700722
 31
0.0
1001
GENIUS_GENOREF_13
1005
2A33
  0
POINT
  5
2A33
330
1F
100
AcDbEntity
  8
0
 60
     1
100
AcDbPoint
 10
-1846.718893173345
 20
-1185.064967107847
 30
0.0
1001
GENIUS_GENOBJ-N-CRS_13
1002
{
1000
OWNER
1000
GEN
1002
}
1001
GENIUS_GENOLIS_13
1002
{
1000
ENT
1005
0
1005
0
1005
0
1005
2A32
1002
}
1001
GENIUS_GENOENT_13
1002
{
1000
MYREF
1005
2A33
1002
}
1002
{
1000
GRP
1005
0
1002
}
1001
GENIUS_GENODEF_13
1002
{
1000
HIER
1070
    10
1002
}
1002
{
1000
MANEDIT
1070
     1
1002
}
1002
{
1000
NOSEL
1070
     0
1002
}
1002
{
1000
BEHIND
1070
     0
1002
}
1002
{
1000
OTHER
1070
     0
1002
}
1002
{
1000
REACTOR
1002
}
  0
POINT
  5
2A34
330
1F
100
AcDbEntity
  8
0
 60
     1
100
AcDbPoint
 10
-1858.0434783962
 20
-1176.18938062921
 30
0.0
1001
GENIUS_GENOBJ-N-CRS_13
1002
{
1000
OWNER
1000
GEN
1002
}
1001
GENIUS_GENOLIS_13
1002
{
1000
ENT
1005
0
1005
0
1005
0
1005
2A31
1002
}
1001
GENIUS_GENOENT_13
1002
{
1000
MYREF
1005
2A34
1002
}
1002
{
1000
GRP
1005
0
1002
}
1001
GENIUS_GENODEF_13
1002
{
1000
HIER
1070
    10
1002
}
1002
{
1000
MANEDIT
1070
     1
1002
}
1002
{
1000
NOSEL
1070
     0
1002
}
1002
{
1000
BEHIND
1070
     0
1002
}
1002
{
1000
OTHER
1070
     0
1002
}
1002
{
1000
REACTOR
1002
}
  0
POINT
  5
2A35
330
1F
100
AcDbEntity
  8
0
 60
     1
100
AcDbPoint
 10
-1851.684804698363
 20
-1185.064967107847
 30
0.0
1001
GENIUS_GENOBJ-N-CRS_13
1002
{
1000
OWNER
1000
GEN
1002
}
1001
GENIUS_GENOLIS_13
1002
{
1000
ENT
1005
0
1005
0
1005
0
1005
2A30
1002
}
1001
GENIUS_GENOENT_13
1002
{
1000
MYREF
1005
2A35
1002
}
1002
{
1000
GRP
1005
0
1002
}
1001
GENIUS_GENODEF_13
1002
{
1000
HIER
1070
    10
1002
}
1002
{
1000
MANEDIT
1070
     1
1002
}
1002
{
1000
NOSEL
1070
     0
1002
}
1002
{
1000
BEHIND
1070
     0
1002
}
1002
{
1000
OTHER
1070
     0
1002
}
1002
{
1000
REACTOR
1002
}
  0
LINE
  5
4167
330
1F
100
AcDbEntity
  8
AM_5
100
AcDbLine
 10
963.726939950491
 20
746.2139557647672
 30
0.0
 11
983.307439950491
 21
712.2989557647672
 31
0.0
  0
LINE
  5
4168
330
1F
100
AcDbEntity
  8
0
  6
Continuous
 62
     7
100
AcDbLine
 10
959.183339950491
 20
688.0709557647673
 30
0.0
 11
990.683439950491
 21
688.0709557647673
 31
0.0
  0
LINE
  5
4169
330
1F
100
AcDbEntity
  8
0
  6
Continuous
 62
     7
100
AcDbLine
 10
959.183339950491
 20
678.0709557647672
 30
0.0
 11
990.683439950491
 21
678.0709557647672
 31
0.0
  0
LINE
  5
416A
330
1F
100
AcDbEntity
  8
0
  6
Continuous
 62
     7
100
AcDbLine
 10
974.0294399504909
 20
664.3450557647672
 30
0.0
 11
971.8524399504911
 21
662.5186557647672
 31
0.0
  0
DIMENSION
  5
416B
330
1F
100
AcDbEntity
  8
AM_5
100
AcDbDimension
  2
*D5
 10
978.183439950491
 20
644.2314323006651
 30
0.0
 11
971.183389950491
 21
647.031432300665
 31
0.0
 70
    32
 71
     5
 42
14.00009999999997
  3
AM_ISO$0
100
AcDbAlignedDimension
 13
964.1833399504911
 23
679.0759557647673
 33
0.0
 14
978.183439950491
 24
679.2379557647673
 34
0.0
100
AcDbRotatedDimension
  0
ARC
  5
416C
330
1F
100
AcDbEntity
  8
0
  6
Continuous
 62
     7
100
AcDbCircle
 10
1000.182439950491
 20
683.0709557647672
 30
0.0
 40
31.0
100
AcDbArc
 50
189.2819999999984
 51
214.1370000000038
  0
ARC
  5
416D
330
1F
100
AcDbEntity
  8
0
  6
Continuous
 62
     7
100
AcDbCircle
 10
1000.182439950491
 20
683.0709557647672
 30
0.0
 40
31.0
100
AcDbArc
 50
128.7879999999979
 51
170.7180000000016
  0
ARC
  5
416E
330
1F
100
AcDbEntity
  8
0
  6
Continuous
 62
     7
100
AcDbCircle
 10
1000.182439950491
 20
683.0709557647672
 30
0.0
 40
35.0
100
AcDbArc
 50
68.21229999999501
 51
171.7869999999965
  0
DIMENSION
  5
416F
330
1F
100
AcDbEntity
  8
AM_5
100
AcDbDimension
  2
*D6
 10
959.183339950491
 20
636.0513135401329
 30
0.0
 11
979.9040388483945
 21
636.0513135401329
 31
0.0
 70
   160
 71
     5
 42
40.99946906201421
  3
AM_ISO$0
100
AcDbAlignedDimension
 13
1000.182809012505
 23
683.0709557647672
 33
0.0
 14
959.183339950491
 24
674.0699557647672
 34
0.0
100
AcDbRotatedDimension
  0
LINE
  5
4170
330
1F
100
AcDbEntity
  8
AM_7
100
AcDbLine
 10
960.508739950491
 20
683.0709557647672
 30
0.0
 11
1038.005439950491
 21
683.0709557647672
 31
0.0
  0
LINE
  5
4171
330
1F
100
AcDbEntity
  8
0
  6
Continuous
 62
     7
100
AcDbLine
 10
959.183339950491
 20
674.0699557647672
 30
0.0
 11
959.183339950491
 21
692.0699557647671
 31
0.0
  0
CIRCLE
  5
4172
330
1F
100
AcDbEntity
  8
0
  6
Continuous
 62
     7
100
AcDbCircle
 10
964.1825399504909
 20
683.0709557647672
 30
0.0
 40
2.067
  0
LINE
  5
4173
330
1F
100
AcDbEntity
  8
0
  6
Continuous
 62
     7
100
AcDbLine
 10
969.183439950491
 20
678.0699557647672
 30
0.0
 11
969.183439950491
 21
688.0699557647671
 31
0.0
  0
LINE
  5
4174
330
1F
100
AcDbEntity
  8
AM_7
100
AcDbLine
 10
964.1833399504911
 20
679.0759557647673
 30
0.0
 11
964.1833399504911
 21
686.7129557647672
 31
0.0
  0
CIRCLE
  5
4175
330
1F
100
AcDbEntity
  8
0
  6
Continuous
 62
     2
100
AcDbCircle
 10
964.1825399504909
 20
683.0709557647672
 30
0.0
 40
2.5
  0
DIMENSION
  5
4176
330
1F
100
AcDbEntity
  8
AM_5
100
AcDbDimension
  2
*D7
 10
946.4638332898656
 20
674.0699557647672
 30
0.0
 11
943.6638332898656
 21
683.0704557647674
 31
0.0
 70
    32
 71
     5
 42
18.00100000000009
  3
AM_ISO$0
100
AcDbAlignedDimension
 13
959.183339950491
 23
692.0709557647673
 33
0.0
 14
959.183339950491
 24
674.0699557647672
 34
0.0
 50
90.0
100
AcDbRotatedDimension
  0
DIMENSION
  5
4177
330
1F
100
AcDbEntity
  8
AM_5
100
AcDbDimension
  2
*D8
 10
952.7758458386907
 20
678.0709557647672
 30
0.0
 11
949.9758458386905
 21
683.0709557647674
 31
0.0
 70
    32
 71
     5
 42
10.0
  3
AM_ISO$0
100
AcDbAlignedDimension
 13
959.183339950491
 23
688.0709557647673
 33
0.0
 14
959.183339950491
 24
678.0709557647672
 34
0.0
 50
90.0
100
AcDbRotatedDimension
  0
ARC
  5
4179
330
1F
100
AcDbEntity
  8
0
  6
Continuous
 62
     7
100
AcDbCircle
 10
1000.182439950491
 20
683.0709557647672
 30
0.0
 40
35.0
100
AcDbArc
 50
188.2130000000034
 51
215.9580000000004
  0
LINE
  5
417A
330
1F
100
AcDbEntity
  8
0
  6
Continuous
 62
     7
100
AcDbLine
 10
959.183339950491
 20
674.0709557647672
 30
0.0
 11
966.3594399504908
 21
674.0709557647672
 31
0.0
  0
CIRCLE
  5
417B
330
1F
100
AcDbEntity
  8
AM_5
100
AcDbCircle
 10
910.3268556804165
 20
748.8039557647672
 30
0.0
 40
0.9
  0
LINE
  5
417C
330
1F
100
AcDbEntity
  8
AM_5
100
AcDbLine
 10
909.7454556804164
 20
747.2069557647672
 30
0.0
 11
910.9082556804162
 21
750.4009557647673
 31
0.0
  0
TEXT
  5
417D
330
1F
100
AcDbEntity
  8
AM_5
100
AcDbText
 10
911.9267556804164
 20
747.2039557647672
 30
0.0
 40
3.2
  1
5.5BORE9.5xDEPTH12
  7
China
100
AcDbText
  0
TEXT
  5
417E
330
1F
100
AcDbEntity
  8
AM_5
100
AcDbText
 10
902.3268556804165
 20
747.2039557647672
 30
0.0
 40
3.2
  1
3-
  7
China
100
AcDbText
  0
LINE
  5
417F
330
1F
100
AcDbEntity
  8
AM_5
100
AcDbLine
 10
903.2403399504911
 20
746.2139557647672
 30
0.0
 11
963.727039950491
 21
746.2139557647672
 31
0.0
  0
LINE
  5
4180
330
1F
100
AcDbEntity
  8
AM_5
100
AcDbLine
 10
903.2403399504911
 20
736.2139557647672
 30
0.0
 11
969.5004399504909
 21
736.2139557647672
 31
0.0
  0
TEXT
  5
4181
330
1F
100
AcDbEntity
  8
AM_5
100
AcDbText
 10
904.8579399504911
 20
738.4209557647673
 30
0.0
 40
3.2
  1
P.C.D.62
  7
China
100
AcDbText
  0
LINE
  5
4182
330
1F
100
AcDbEntity
  8
0
  6
Continuous
 62
     7
100
AcDbLine
 10
959.183339950491
 20
692.0709557647673
 30
0.0
 11
966.3594399504908
 21
692.0709557647673
 31
0.0
  0
TEXT
  5
4183
330
1F
100
AcDbEntity
  8
AM_5
100
AcDbText
 10
1266.955814607385
 20
727.596693944147
 30
0.0
 40
3.2
  1
3-M5
  7
China
100
AcDbText
  0
TEXT
  5
4184
330
1F
100
AcDbEntity
  8
AM_5
100
AcDbText
 10
1267.249814607385
 20
721.7056939441469
 30
0.0
 40
3.2
  1
P.C.D.62
  7
China
100
AcDbText
  0
TEXT
  5
4185
330
1F
100
AcDbEntity
  8
AM_5
100
AcDbText
 10
1284.77375891005
 20
628.7756557647672
 30
0.0
 40
1.6
  1
0
  7
China
100
AcDbText
  0
TEXT
  5
4186
330
1F
100
AcDbEntity
  8
AM_5
100
AcDbText
 10
1283.38575891005
 20
630.9358557647672
 30
0.0
 40
1.6
  1
+0.074
  7
China
100
AcDbText
  0
LINE
  5
4187
330
1F
100
AcDbEntity
  8
AM_5
100
AcDbLine
 10
1266.05275891005
 20
628.1869557647673
 30
0.0
 11
1312.21975891005
 21
628.1869557647673
 31
0.0
  0
LINE
  5
4188
330
1F
100
AcDbEntity
  8
AM_5
100
AcDbLine
 10
1266.816814607385
 20
726.312693944147
 30
0.0
 11
1314.644814607385
 21
726.312693944147
 31
0.0
  0
CIRCLE
  5
4189
330
1F
100
AcDbEntity
  8
0
  6
Continuous
 62
     7
100
AcDbCircle
 10
1242.16875891005
 20
683.0709557647672
 30
0.0
 40
2.067
  0
CIRCLE
  5
418A
330
1F
100
AcDbEntity
  8
0
  6
Continuous
 62
     2
100
AcDbCircle
 10
1242.16875891005
 20
683.0709557647672
 30
0.0
 40
2.5
  0
ARC
  5
418B
330
1F
100
AcDbEntity
  8
0
  6
Continuous
 62
     7
100
AcDbCircle
 10
1211.16875891005
 20
683.0709557647672
 30
0.0
 40
35.0
100
AcDbArc
 50
164.0959999999977
 51
195.9030000000023
  0
CIRCLE
  5
418C
330
1F
100
AcDbEntity
  8
0
  6
Continuous
 62
     7
100
AcDbCircle
 10
1180.16875891005
 20
683.0709557647672
 30
0.0
 40
2.75
  0
DIMENSION
  5
418D
330
1F
100
AcDbEntity
  8
AM_5
100
AcDbDimension
  2
*D9
 10
1162.50950019666
 20
661.2361899120267
 30
0.0
 11
1161.560513058494
 21
675.4811270005245
 31
0.0
 70
    33
 71
     5
 42
27.99832883329032
  3
AM_ISO$0
100
AcDbAlignedDimension
 13
1211.168584558132
 23
683.0694107624349
 33
0.0
 14
1207.513696757417
 24
655.3106605632413
 34
0.0
  0
LINE
  5
418E
330
1F
100
AcDbEntity
  8
AM_7
100
AcDbLine
 10
1215.61475891005
 20
716.8379557647672
 30
0.0
 11
1206.67475891005
 21
648.9389557647672
 31
0.0
  0
CIRCLE
  5
4190
330
1F
100
AcDbEntity
  8
0
  6
Continuous
 62
     7
100
AcDbCircle
 10
1211.16875891005
 20
683.0709557647672
 30
0.0
 40
26.0
  0
CIRCLE
  5
4191
330
1F
100
AcDbEntity
  8
0
  6
CENTER
 62
     2
100
AcDbCircle
 10
1211.16875891005
 20
683.0709557647672
 30
0.0
 40
31.0
  0
ARC
  5
4193
330
1F
100
AcDbEntity
  8
0
  6
Continuous
 62
     7
100
AcDbCircle
 10
1211.16875891005
 20
683.0709557647672
 30
0.0
 40
35.0
100
AcDbArc
 50
324.0959999999973
 51
155.9030000000019
  0
LINE
  5
4194
330
1F
100
AcDbEntity
  8
0
  6
Continuous
 62
     7
100
AcDbLine
 10
1081.437544424961
 20
678.3199557647671
 30
0.0
 11
1081.437544424961
 21
687.8209557647672
 31
0.0
  0
LINE
  5
4195
330
1F
100
AcDbEntity
  8
0
  6
Continuous
 62
     7
100
AcDbLine
 10
1066.437544424961
 20
688.0709557647673
 30
0.0
 11
1066.437544424961
 21
678.0709557647672
 31
0.0
  0
LINE
  5
4196
330
1F
100
AcDbEntity
  8
0
  6
Continuous
 62
     7
100
AcDbLine
 10
1069.437544424961
 20
707.4279557647672
 30
0.0
 11
1069.437544424961
 21
658.7129557647672
 31
0.0
  0
LINE
  5
4197
330
1F
100
AcDbEntity
  8
0
  6
Continuous
 62
     7
100
AcDbLine
 10
1121.437544424961
 20
718.0709557647673
 30
0.0
 11
1121.437544424961
 21
648.0706557647672
 31
0.0
  0
ARC
  5
4198
330
1F
100
AcDbEntity
  8
0
  6
Continuous
 62
     7
100
AcDbCircle
 10
1000.182439950491
 20
683.0709557647672
 30
0.0
 40
35.0
100
AcDbArc
 50
344.1509999999989
 51
15.85699999999816
  0
CIRCLE
  5
4199
330
1F
100
AcDbEntity
  8
0
  6
Continuous
 62
     7
100
AcDbCircle
 10
1031.182439950491
 20
683.0709557647672
 30
0.0
 40
2.75
  0
ARC
  5
419A
330
1F
100
AcDbEntity
  8
0
  6
Continuous
 62
     7
100
AcDbCircle
 10
1031.182439950491
 20
683.0709557647672
 30
0.0
 40
4.75
100
AcDbArc
 50
90.0
 51
270.0
  0
ARC
  5
419B
330
1F
100
AcDbEntity
  8
AM_7
100
AcDbCircle
 10
1000.182439950491
 20
683.0709557647672
 30
0.0
 40
31.0
100
AcDbArc
 50
352.8879999999987
 51
7.002010000001206
  0
ARC
  5
419C
330
1F
100
AcDbEntity
  8
0
  6
Continuous
 62
     7
100
AcDbCircle
 10
1000.182439950491
 20
683.0709557647672
 30
0.0
 40
17.5
100
AcDbArc
 50
316.6019999999973
 51
43.39660000000665
  0
CIRCLE
  5
419D
330
1F
100
AcDbEntity
  8
0
  6
Continuous
 62
     7
100
AcDbCircle
 10
978.1824399504911
 20
683.0709557647672
 30
0.0
 40
2.067
  0
LINE
  5
419E
330
1F
100
AcDbEntity
  8
AM_7
100
AcDbLine
 10
978.183439950491
 20
679.2379557647673
 30
0.0
 11
978.183439950491
 21
686.4699557647672
 31
0.0
  0
LINE
  5
419F
330
1F
100
AcDbEntity
  8
0
  6
Continuous
 62
     7
100
AcDbLine
 10
983.1834399504909
 20
678.0699557647672
 30
0.0
 11
983.1834399504909
 21
688.0699557647671
 31
0.0
  0
LINE
  5
41A0
330
1F
100
AcDbEntity
  8
0
  6
Continuous
 62
     7
100
AcDbLine
 10
990.683439950491
 20
678.0699557647672
 30
0.0
 11
990.683439950491
 21
688.0699557647671
 31
0.0
  0
LINE
  5
41A1
330
1F
100
AcDbEntity
  8
0
  6
Continuous
 62
     7
100
AcDbLine
 10
973.183439950491
 20
678.0699557647672
 30
0.0
 11
973.183439950491
 21
688.0699557647671
 31
0.0
  0
CIRCLE
  5
41A2
330
1F
100
AcDbEntity
  8
0
  6
Continuous
 62
     2
100
AcDbCircle
 10
978.1824399504911
 20
683.0709557647672
 30
0.0
 40
2.5
  0
LINE
  5
41A3
330
1F
100
AcDbEntity
  8
AM_7
100
AcDbLine
 10
1021.832439950491
 20
720.5679557647672
 30
0.0
 11
981.695439950491
 21
651.0477557647673
 31
0.0
  0
LINE
  5
41A4
330
1F
100
AcDbEntity
  8
AM_7
100
AcDbLine
 10
981.4664399504911
 20
715.4889557647672
 30
0.0
 11
1021.573439950491
 21
646.0209557647672
 31
0.0
  0
LINE
  5
41A5
330
1F
100
AcDbEntity
  8
0
  6
Continuous
 62
     7
100
AcDbLine
 10
1121.437544424961
 20
648.0706557647672
 30
0.0
 11
1083.937544424961
 21
648.0706557647672
 31
0.0
  0
LINE
  5
41A6
330
1F
100
AcDbEntity
  8
0
  6
Continuous
 62
     7
100
AcDbLine
 10
1071.747544424961
 20
670.4729557647672
 30
0.0
 11
1121.437544424961
 21
670.4729557647672
 31
0.0
  0
LINE
  5
41A7
330
1F
100
AcDbEntity
  8
0
  6
Continuous
 62
     7
100
AcDbLine
 10
1071.747544424961
 20
675.2539557647672
 30
0.0
 11
1121.437544424961
 21
675.2539557647672
 31
0.0
  0
DIMENSION
  5
41A8
330
1F
100
AcDbEntity
  8
AM_5
100
AcDbDimension
  2
*D10
 10
1121.437544424961
 20
632.3646710241696
 30
0.0
 11
1102.687544424961
 21
635.1646710241696
 31
0.0
 70
    32
 71
     5
 42
37.5
  3
AM_ISO$0
100
AcDbAlignedDimension
 13
1083.937544424961
 23
632.3646710241696
 33
0.0
 14
1121.437544424961
 24
648.0706557647672
 34
0.0
100
AcDbRotatedDimension
  0
LINE
  5
41A9
330
1F
100
AcDbEntity
  8
0
  6
Continuous
 62
     7
100
AcDbLine
 10
1020.012439950491
 20
658.7239557647672
 30
0.0
 11
1011.352439950491
 21
653.7239557647672
 31
0.0
  0
LINE
  5
41AA
330
1F
100
AcDbEntity
  8
AM_7
100
AcDbLine
 10
1021.641439950491
 20
653.8910557647673
 30
0.0
 11
1015.027439950491
 21
650.0725557647672
 31
0.0
  0
CIRCLE
  5
41AB
330
1F
100
AcDbEntity
  8
0
  6
Continuous
 62
     2
100
AcDbCircle
 10
1018.182439950491
 20
651.8936557647672
 30
0.0
 40
2.5
  0
CIRCLE
  5
41AC
330
1F
100
AcDbEntity
  8
0
  6
Continuous
 62
     7
100
AcDbCircle
 10
1018.182439950491
 20
651.8936557647672
 30
0.0
 40
2.067
  0
LINE
  5
41AD
330
1F
100
AcDbEntity
  8
0
  6
Continuous
 62
     7
100
AcDbLine
 10
1028.476439950491
 20
652.0637557647672
 30
0.0
 11
1012.888439950491
 21
643.0637557647672
 31
0.0
  0
LINE
  5
41AE
330
1F
100
AcDbEntity
  8
0
  6
Continuous
 62
     7
100
AcDbLine
 10
1025.012439950491
 20
650.0636557647673
 30
0.0
 11
1009.262439950491
 21
677.3429557647672
 31
0.0
  0
DIMENSION
  5
41AF
330
1F
100
AcDbEntity
  8
AM_5
100
AcDbDimension
  2
*D11
 10
1031.294221511234
 20
639.1836101015595
 30
0.0
 11
1039.125793713349
 21
643.7053030589009
 31
0.0
 70
   161
  1
10h9
 71
     5
 42
9.999779997579935
  3
AM_ISO$0
100
AcDbAlignedDimension
 13
1016.352439950491
 23
645.0636557647673
 33
0.0
 14
1025.012439950491
 24
650.0636557647673
 34
0.0
  0
LINE
  5
41B0
330
1F
100
AcDbEntity
  8
0
  6
Continuous
 62
     7
100
AcDbLine
 10
1016.352439950491
 20
645.0636557647673
 30
0.0
 11
1000.602439950491
 21
672.3429557647672
 31
0.0
  0
LINE
  5
41B1
330
1F
100
AcDbEntity
  8
0
  6
Continuous
 62
     7
100
AcDbLine
 10
992.1234399504911
 20
651.9244557647672
 30
0.0
 11
991.6304399504911
 21
649.1315557647672
 31
0.0
  0
LINE
  5
41B2
330
1F
100
AcDbEntity
  8
0
  6
Continuous
 62
     7
100
AcDbLine
 10
997.046439950491
 20
651.0532557647673
 30
0.0
 11
996.553439950491
 21
648.2592557647672
 31
0.0
  0
ARC
  5
41B3
330
1F
100
AcDbEntity
  8
0
  6
Continuous
 62
     7
100
AcDbCircle
 10
1000.182439950491
 20
683.0709557647672
 30
0.0
 40
35.0
100
AcDbArc
 50
224.1509999999991
 51
255.8569999999957
  0
DIMENSION
  5
41B4
330
1F
100
AcDbEntity
  8
AM_5
100
AcDbDimension
  2
*D12
 10
983.1834399504909
 20
644.2314323006651
 30
0.0
 11
980.6834399504909
 21
647.031432300665
 31
0.0
 70
    32
 71
     5
 42
5.0
  3
AM_ISO$0
100
AcDbAlignedDimension
 13
978.183439950491
 23
644.2314323006651
 33
0.0
 14
983.1834399504909
 24
678.0709557647672
 34
0.0
100
AcDbRotatedDimension
  0
ARC
  5
41B5
330
1F
100
AcDbEntity
  8
0
  6
Continuous
 62
     7
100
AcDbCircle
 10
1000.182439950491
 20
683.0709557647672
 30
0.0
 40
35.0
100
AcDbArc
 50
264.0489999999949
 51
291.7860000000014
  0
LINE
  5
41B6
330
1F
100
AcDbEntity
  8
0
  6
Continuous
 62
     7
100
AcDbLine
 10
1012.888439950491
 20
643.0636557647673
 30
0.0
 11
1009.299439950491
 21
649.2790557647672
 31
0.0
  0
LINE
  5
41B7
330
1F
100
AcDbEntity
  8
0
  6
Continuous
 62
     7
100
AcDbLine
 10
998.4434399504909
 20
654.9453557647672
 30
0.0
 11
992.1414399504911
 21
656.0564557647673
 31
0.0
  0
ARC
  5
41B8
330
1F
100
AcDbEntity
  8
0
  6
Continuous
 62
     7
100
AcDbCircle
 10
1000.182439950491
 20
683.0709557647672
 30
0.0
 40
17.5
100
AcDbArc
 50
196.6029999999978
 51
283.3969999999983
  0
LINE
  5
41B9
330
1F
100
AcDbEntity
  8
0
  6
Continuous
 62
     7
100
AcDbLine
 10
976.6984399504911
 20
667.4979557647673
 30
0.0
 11
980.8114399504908
 21
662.5956557647672
 31
0.0
  0
LINE
  5
41BA
330
1F
100
AcDbEntity
  8
0
  6
Continuous
 62
     7
100
AcDbLine
 10
976.6984399504911
 20
667.4979557647673
 30
0.0
 11
973.8644399504909
 21
665.1205557647672
 31
0.0
  0
CIRCLE
  5
41BB
330
1F
100
AcDbEntity
  8
0
  6
Continuous
 62
     7
100
AcDbCircle
 10
984.682439950491
 20
656.2238557647672
 30
0.0
 40
2.75
  0
ARC
  5
41BC
330
1F
100
AcDbEntity
  8
0
  6
Continuous
 62
     7
100
AcDbCircle
 10
984.682439950491
 20
656.2238557647672
 30
0.0
 40
4.75
100
AcDbArc
 50
329.9999999999995
 51
149.9999999999994
  0
LINE
  5
41BD
330
1F
100
AcDbEntity
  8
0
  6
Continuous
 62
     7
100
AcDbLine
 10
980.5694399504909
 20
658.5990557647672
 30
0.0
 11
978.7314399504909
 21
655.4153557647672
 31
0.0
  0
LINE
  5
41BE
330
1F
100
AcDbEntity
  8
0
  6
Continuous
 62
     7
100
AcDbLine
 10
977.9804399504909
 20
660.2200557647672
 30
0.0
 11
977.245439950491
 21
660.5171557647672
 31
0.0
  0
LINE
  5
41BF
330
1F
100
AcDbEntity
  8
0
  6
Continuous
 62
     7
100
AcDbLine
 10
980.8114399504908
 20
662.5956557647672
 30
0.0
 11
977.9804399504909
 21
660.2199557647672
 31
0.0
  0
ARC
  5
41C0
330
1F
100
AcDbEntity
  8
0
  6
Continuous
 62
     7
100
AcDbCircle
 10
1000.182439950491
 20
683.0709557647672
 30
0.0
 40
31.0
100
AcDbArc
 50
225.986999999997
 51
231.2120000000021
  0
LINE
  5
41C1
330
1F
100
AcDbEntity
  8
0
  6
Continuous
 62
     7
100
AcDbLine
 10
973.8644399504909
 20
665.1203557647672
 30
0.0
 11
974.0284399504909
 21
664.3449557647673
 31
0.0
  0
LINE
  5
41C2
330
1F
100
AcDbEntity
  8
0
  6
Continuous
 62
     7
100
AcDbLine
 10
977.245439950491
 20
660.5169557647672
 30
0.0
 11
975.069439950491
 21
658.6914557647673
 31
0.0
  0
LINE
  5
41C3
330
1F
100
AcDbEntity
  8
0
  6
Continuous
 62
     7
100
AcDbLine
 10
992.1404399504911
 20
656.0563557647672
 30
0.0
 11
991.4984399504911
 21
652.4126557647672
 31
0.0
  0
ARC
  5
41C4
330
1F
100
AcDbEntity
  8
0
  6
Continuous
 62
     7
100
AcDbCircle
 10
1000.182439950491
 20
683.0709557647672
 30
0.0
 40
31.0
100
AcDbArc
 50
248.7880000000002
 51
254.0219999999968
  0
LINE
  5
41C5
330
1F
100
AcDbEntity
  8
0
  6
Continuous
 62
     7
100
AcDbLine
 10
991.4984399504911
 20
652.4127557647672
 30
0.0
 11
992.1234399504911
 21
651.9245557647673
 31
0.0
  0
LINE
  5
41C6
330
1F
100
AcDbEntity
  8
0
  6
Continuous
 62
     7
100
AcDbLine
 10
988.797439950491
 20
653.8490557647673
 30
0.0
 11
986.959439950491
 21
650.6653557647672
 31
0.0
  0
CIRCLE
  5
41C7
330
1F
100
AcDbEntity
  8
0
  6
Continuous
 62
     2
100
AcDbCircle
 10
1011.182439950491
 20
664.0180557647672
 30
0.0
 40
2.5
  0
LINE
  5
41C8
330
1F
100
AcDbEntity
  8
0
  6
Continuous
 62
     7
100
AcDbLine
 10
1013.012439950491
 20
670.8479557647672
 30
0.0
 11
1004.352439950491
 21
665.8482557647673
 31
0.0
  0
ARC
  5
41C9
330
1F
100
AcDbEntity
  8
0
  6
Continuous
 62
     7
100
AcDbCircle
 10
1000.182439950491
 20
683.0709557647672
 30
0.0
 40
31.0
100
AcDbArc
 50
265.8710000000052
 51
290.7169999999965
  0
LINE
  5
41CA
330
1F
100
AcDbEntity
  8
0
  6
Continuous
 62
     7
100
AcDbLine
 10
997.8004399504909
 20
651.2981557647671
 30
0.0
 11
997.046439950491
 21
651.0532557647673
 31
0.0
  0
LINE
  5
41CB
330
1F
100
AcDbEntity
  8
0
  6
Continuous
 62
     7
100
AcDbLine
 10
998.4434399504909
 20
654.9450557647673
 30
0.0
 11
997.8004399504909
 21
651.2982557647672
 31
0.0
  0
LINE
  5
41CC
330
1F
100
AcDbEntity
  8
0
  6
Continuous
 62
     7
100
AcDbLine
 10
1018.012439950491
 20
662.1880557647672
 30
0.0
 11
1009.352439950491
 21
657.1880557647672
 31
0.0
  0
CIRCLE
  5
41CD
330
1F
100
AcDbEntity
  8
0
  6
Continuous
 62
     7
100
AcDbCircle
 10
1011.182439950491
 20
664.0180557647672
 30
0.0
 40
2.067
  0
LINE
  5
41CE
330
1F
100
AcDbEntity
  8
AM_7
100
AcDbLine
 10
1014.501439950491
 20
665.9344557647671
 30
0.0
 11
1008.238439950491
 21
662.3181557647671
 31
0.0
  0
LINE
  5
41CF
330
1F
100
AcDbEntity
  8
0
  6
Continuous
 62
     7
100
AcDbLine
 10
1009.262439950491
 20
677.3429557647672
 30
0.0
 11
1000.602439950491
 21
672.3429557647672
 31
0.0
  0
ARC
  5
41D2
330
1F
100
AcDbEntity
  8
0
  6
Continuous
 62
     7
100
AcDbCircle
 10
1000.182439950491
 20
683.0709557647672
 30
0.0
 40
35.0
100
AcDbArc
 50
308.2129999999945
 51
335.9590000000004
  0
ARC
  5
41D3
330
1F
100
AcDbEntity
  8
0
  6
Continuous
 62
     7
100
AcDbCircle
 10
1000.182439950491
 20
683.0709557647672
 30
0.0
 40
31.0
100
AcDbArc
 50
309.2819999999939
 51
334.1370000000014
  0
LINE
  5
41D4
330
1F
100
AcDbEntity
  8
0
  6
Continuous
 62
     7
100
AcDbLine
 10
1028.476439950491
 20
652.0636557647673
 30
0.0
 11
1024.888439950491
 21
658.2786557647672
 31
0.0
  0
LINE
  5
41D5
330
1F
100
AcDbEntity
  8
0
  6
Continuous
 62
     7
100
AcDbLine
 10
1027.600439950491
 20
676.5319557647672
 30
0.0
 11
1031.073439950491
 21
675.2679557647673
 31
0.0
  0
LINE
  5
41D6
330
1F
100
AcDbEntity
  8
0
  6
Continuous
 62
     7
100
AcDbLine
 10
1029.476439950491
 20
669.7839557647673
 30
0.0
 11
1032.146439950491
 21
668.8119557647673
 31
0.0
  0
ARC
  5
41D7
330
1F
100
AcDbEntity
  8
0
  6
Continuous
 62
     7
100
AcDbCircle
 10
1000.182439950491
 20
683.0709557647672
 30
0.0
 40
31.0
100
AcDbArc
 50
345.9870000000029
 51
351.2119999999983
  0
LINE
  5
41D8
330
1F
100
AcDbEntity
  8
0
  6
Continuous
 62
     7
100
AcDbLine
 10
1025.411439950491
 20
670.5179557647673
 30
0.0
 11
1027.600439950491
 21
676.5319557647672
 31
0.0
  0
LINE
  5
41D9
330
1F
100
AcDbEntity
  8
0
  6
Continuous
 62
     7
100
AcDbLine
 10
1028.887439950491
 20
669.2529557647673
 30
0.0
 11
1029.476439950491
 21
669.7839557647673
 31
0.0
  0
POINT
  5
41DA
330
1F
100
AcDbEntity
  8
0
100
AcDbPoint
 10
1026.505439950491
 20
673.5249557647672
 30
0.0
  0
LINE
  5
41DB
330
1F
100
AcDbEntity
  8
0
  6
Continuous
 62
     7
100
AcDbLine
 10
1025.411439950491
 20
670.5179557647673
 30
0.0
 11
1028.887439950491
 21
669.2529557647673
 31
0.0
  0
LINE
  5
41DC
330
1F
100
AcDbEntity
  8
0
  6
Continuous
 62
     7
100
AcDbLine
 10
1031.073439950491
 20
675.2679557647673
 30
0.0
 11
1031.183439950491
 21
674.4829557647672
 31
0.0
  0
LINE
  5
41DD
330
1F
100
AcDbEntity
  8
0
  6
Continuous
 62
     7
100
AcDbLine
 10
1031.183439950491
 20
674.4829557647672
 30
0.0
 11
1033.852439950491
 21
673.5119557647672
 31
0.0
  0
LINE
  5
41DE
330
1F
100
AcDbEntity
  8
0
  6
Continuous
 62
     7
100
AcDbLine
 10
1031.183439950491
 20
678.3209557647673
 30
0.0
 11
1034.858439950491
 21
678.3209557647673
 31
0.0
  0
LINE
  5
41DF
330
1F
100
AcDbEntity
  8
0
  6
Continuous
 62
     7
100
AcDbLine
 10
1071.747544424961
 20
678.3199557647671
 30
0.0
 11
1081.437544424961
 21
678.3199557647671
 31
0.0
  0
LINE
  5
41E0
330
1F
100
AcDbEntity
  8
0
  6
Continuous
 62
     7
100
AcDbLine
 10
1071.747544424961
 20
655.5706557647672
 30
0.0
 11
1074.937544424961
 21
655.5706557647672
 31
0.0
  0
LINE
  5
41E1
330
1F
100
AcDbEntity
  8
0
  6
Continuous
 62
     7
100
AcDbLine
 10
1066.437544424961
 20
645.0637557647673
 30
0.0
 11
1074.937544424961
 21
645.0637557647673
 31
0.0
  0
LINE
  5
41E2
330
1F
100
AcDbEntity
  8
0
  6
Continuous
 62
     7
100
AcDbLine
 10
1066.437544424961
 20
650.0637557647673
 30
0.0
 11
1074.937544424961
 21
650.0637557647673
 31
0.0
  0
LINE
  5
41E3
330
1F
100
AcDbEntity
  8
0
  6
Continuous
 62
     7
100
AcDbLine
 10
1066.437544424961
 20
645.0637557647673
 30
0.0
 11
1066.437544424961
 21
670.8479557647672
 31
0.0
  0
LINE
  5
41E4
330
1F
100
AcDbEntity
  8
0
  6
Continuous
 62
     7
100
AcDbLine
 10
1071.747544424961
 20
655.5706557647672
 30
0.0
 11
1071.747544424961
 21
670.4729557647672
 31
0.0
  0
LINE
  5
41E5
330
1F
100
AcDbEntity
  8
0
  6
Continuous
 62
     7
100
AcDbLine
 10
1068.437544424961
 20
658.7239557647672
 30
0.0
 11
1068.437544424961
 21
662.1880557647672
 31
0.0
  0
LINE
  5
41E6
330
1F
100
AcDbEntity
  8
0
  6
Continuous
 62
     7
100
AcDbLine
 10
1069.438544424961
 20
658.7128557647672
 30
0.0
 11
1071.746544424961
 21
655.5705557647672
 31
0.0
  0
LINE
  5
41E7
330
1F
100
AcDbEntity
  8
0
  6
Continuous
 62
     7
100
AcDbLine
 10
1066.437544424961
 20
658.7239557647672
 30
0.0
 11
1068.437544424961
 21
658.7239557647672
 31
0.0
  0
LINE
  5
41E8
330
1F
100
AcDbEntity
  8
0
  6
Continuous
 62
     7
100
AcDbLine
 10
1066.437544424961
 20
662.1880557647672
 30
0.0
 11
1068.437544424961
 21
662.1880557647672
 31
0.0
  0
LINE
  5
41E9
330
1F
100
AcDbEntity
  8
0
  6
Continuous
 62
     7
100
AcDbLine
 10
1071.746544424961
 20
675.2539557647672
 30
0.0
 11
1069.437544424961
 21
676.1469557647671
 31
0.0
  0
LINE
  5
41EA
330
1F
100
AcDbEntity
  8
0
  6
Continuous
 62
     7
100
AcDbLine
 10
1069.438544424961
 20
678.8629557647673
 30
0.0
 11
1071.747544424961
 21
678.3199557647671
 31
0.0
  0
LINE
  5
41EB
330
1F
100
AcDbEntity
  8
0
  6
Continuous
 62
     7
100
AcDbLine
 10
1069.438544424961
 20
671.9119557647672
 30
0.0
 11
1071.746544424961
 21
670.4729557647672
 31
0.0
  0
LINE
  5
41EC
330
1F
100
AcDbEntity
  8
0
  6
Continuous
 62
     7
100
AcDbLine
 10
1066.437544424961
 20
670.8479557647672
 30
0.0
 11
1069.437544424961
 21
670.8479557647672
 31
0.0
  0
LINE
  5
41ED
330
1F
100
AcDbEntity
  8
0
  6
Continuous
 62
     7
100
AcDbLine
 10
1066.437544424961
 20
678.0709557647672
 30
0.0
 11
1069.437544424961
 21
678.0709557647672
 31
0.0
  0
LINE
  5
41EE
330
1F
100
AcDbEntity
  8
0
  6
Continuous
 62
     7
100
AcDbLine
 10
1071.747544424961
 20
675.2539557647672
 30
0.0
 11
1071.747544424961
 21
678.3199557647671
 31
0.0
  0
LINE
  5
41EF
330
1F
100
AcDbEntity
  8
0
  6
Continuous
 62
     7
100
AcDbLine
 10
1083.937544424961
 20
643.0637557647672
 30
0.0
 11
1083.937544424961
 21
658.2791557647672
 31
0.0
  0
DIMENSION
  5
41F0
330
1F
100
AcDbEntity
  8
AM_5
100
AcDbDimension
  2
*D13
 10
1083.937544424961
 20
632.3646710241696
 30
0.0
 11
1079.437544424961
 21
635.1646710241696
 31
0.0
 70
    32
 71
     5
 42
9.0
  3
AM_ISO$0
100
AcDbAlignedDimension
 13
1074.937544424961
 23
643.0637557647672
 33
0.0
 14
1083.937544424961
 24
643.0637557647672
 34
0.0
100
AcDbRotatedDimension
  0
LINE
  5
41F1
330
1F
100
AcDbEntity
  8
0
  6
Continuous
 62
     7
100
AcDbLine
 10
1074.937544424961
 20
643.0637557647672
 30
0.0
 11
1074.937544424961
 21
645.0637557647673
 31
0.0
  0
LINE
  5
41F2
330
1F
100
AcDbEntity
  8
0
  6
Continuous
 62
     7
100
AcDbLine
 10
1074.937544424961
 20
643.0637557647672
 30
0.0
 11
1083.937544424961
 21
643.0637557647672
 31
0.0
  0
LINE
  5
41F3
330
1F
100
AcDbEntity
  8
0
  6
Continuous
 62
     7
100
AcDbLine
 10
1074.937544424961
 20
650.0637557647673
 30
0.0
 11
1074.937544424961
 21
658.2791557647672
 31
0.0
  0
LINE
  5
41F4
330
1F
100
AcDbEntity
  8
0
  6
Continuous
 62
     7
100
AcDbLine
 10
1074.937544424961
 20
658.2791557647672
 30
0.0
 11
1083.937544424961
 21
658.2791557647672
 31
0.0
  0
LINE
  5
41F5
330
1F
100
AcDbEntity
  8
0
  6
Continuous
 62
     7
100
AcDbLine
 10
1074.937544424961
 20
652.0637557647672
 30
0.0
 11
1083.937544424961
 21
652.0637557647672
 31
0.0
  0
LINE
  5
41F6
330
1F
100
AcDbEntity
  8
0
  6
Continuous
 62
     7
100
AcDbLine
 10
1198.46275891005
 20
643.0637557647672
 30
0.0
 11
1182.87375891005
 21
652.0637557647672
 31
0.0
  0
ARC
  5
41F7
330
1F
100
AcDbEntity
  8
0
  6
Continuous
 62
     7
100
AcDbCircle
 10
1211.16875891005
 20
683.0709557647672
 30
0.0
 40
35.0
100
AcDbArc
 50
204.0959999999986
 51
275.9050000000004
  0
DIMENSION
  5
41F8
330
1F
100
AcDbEntity
  8
AM_5
100
AcDbDimension
  2
*D14
 10
1161.726288655513
 20
655.2877245392959
 30
0.0
 11
1159.341853719494
 21
658.6274678210586
 31
0.0
 70
    33
 71
     5
 42
5.999805047562176
  3
AM_ISO$0
100
AcDbAlignedDimension
 13
1207.513696757417
 23
655.3106605632413
 33
0.0
 14
1206.730485216272
 24
649.3621951905111
 34
0.0
  0
LINE
  5
41F9
330
1F
100
AcDbEntity
  8
0
  6
Continuous
 62
     7
100
AcDbLine
 10
1182.87375891005
 20
652.0637557647672
 30
0.0
 11
1186.46275891005
 21
658.2792557647673
 31
0.0
  0
LINE
  5
41FA
330
1F
100
AcDbEntity
  8
0
  6
Continuous
 62
     7
100
AcDbLine
 10
1183.84675891005
 20
676.5329557647673
 30
0.0
 11
1180.37175891005
 21
675.2679557647673
 31
0.0
  0
LINE
  5
41FB
330
1F
100
AcDbEntity
  8
0
  6
Continuous
 62
     7
100
AcDbLine
 10
1181.96775891005
 20
669.7829557647672
 30
0.0
 11
1179.21775891005
 21
668.7819557647673
 31
0.0
  0
LINE
  5
41FC
330
1F
100
AcDbEntity
  8
0
  6
Continuous
 62
     7
100
AcDbLine
 10
1180.26175891005
 20
674.4829557647672
 30
0.0
 11
1177.50775891005
 21
673.4809557647672
 31
0.0
  0
LINE
  5
41FD
330
1F
100
AcDbEntity
  8
0
  6
Continuous
 62
     7
100
AcDbLine
 10
1180.37175891005
 20
675.2679557647673
 30
0.0
 11
1180.26175891005
 21
674.4829557647672
 31
0.0
  0
POINT
  5
41FE
330
1F
100
AcDbEntity
  8
0
100
AcDbPoint
 10
1184.94075891005
 20
673.5249557647672
 30
0.0
  0
LINE
  5
41FF
330
1F
100
AcDbEntity
  8
0
  6
Continuous
 62
     7
100
AcDbLine
 10
1182.55675891005
 20
669.2519557647671
 30
0.0
 11
1181.96775891005
 21
669.7829557647672
 31
0.0
  0
LINE
  5
4200
330
1F
100
AcDbEntity
  8
0
  6
Continuous
 62
     7
100
AcDbLine
 10
1186.03575891005
 20
670.5179557647673
 30
0.0
 11
1183.84675891005
 21
676.5329557647673
 31
0.0
  0
LINE
  5
4201
330
1F
100
AcDbEntity
  8
0
  6
Continuous
 62
     7
100
AcDbLine
 10
1186.03575891005
 20
670.5179557647673
 30
0.0
 11
1182.55675891005
 21
669.2519557647671
 31
0.0
  0
LINE
  5
4202
330
1F
100
AcDbEntity
  8
0
  6
Continuous
 62
     7
100
AcDbLine
 10
1237.27775891005
 20
664.4260557647672
 30
0.0
 11
1239.51875891005
 21
662.5459557647673
 31
0.0
  0
TEXT
  5
4203
330
1F
100
AcDbEntity
  8
AM_5
100
AcDbText
 10
1226.47060491005
 20
629.7118857647673
 30
0.0
 40
3.2
  1
DEPTH4
 50
352.500000000001
  7
China
100
AcDbText
  0
LINE
  5
4204
330
1F
100
AcDbEntity
  8
AM_5
100
AcDbLine
 10
1195.04875891005
 20
632.8653557647673
 30
0.0
 11
1244.64575891005
 21
626.3357557647672
 31
0.0
  0
LINE
  5
4205
330
1F
100
AcDbEntity
  8
AM_5
100
AcDbLine
 10
1229.55275891005
 20
664.6863557647673
 30
0.0
 11
1266.05275891005
 21
628.1869557647673
 31
0.0
  0
ARC
  5
4206
330
1F
100
AcDbEntity
  8
0
  6
Continuous
 62
     7
100
AcDbCircle
 10
1211.16875891005
 20
683.0709557647672
 30
0.0
 40
35.0
100
AcDbArc
 50
284.0969999999943
 51
315.9040000000061
  0
LINE
  5
4207
330
1F
100
AcDbEntity
  8
0
  6
Continuous
 62
     7
100
AcDbLine
 10
1219.18475891005
 20
652.0101557647672
 30
0.0
 11
1219.69275891005
 21
649.1251557647672
 31
0.0
  0
LINE
  5
4208
330
1F
100
AcDbEntity
  8
0
  6
Continuous
 62
     7
100
AcDbLine
 10
1214.26075891005
 20
651.1389557647673
 30
0.0
 11
1214.76875891005
 21
648.2568557647672
 31
0.0
  0
ARC
  5
4209
330
1F
100
AcDbEntity
  8
0
  6
Continuous
 62
     7
100
AcDbCircle
 10
1206.99175891005
 20
651.3450557647672
 30
0.0
 40
2.0
100
AcDbArc
 50
172.500000000001
 51
352.500000000001
  0
LINE
  5
420A
330
1F
100
AcDbEntity
  8
AM_5
100
AcDbLine
 10
1205.00875891005
 20
651.6061557647672
 30
0.0
 11
1202.28375891005
 21
630.9042557647672
 31
0.0
  0
LINE
  5
420B
330
1F
100
AcDbEntity
  8
AM_5
100
AcDbLine
 10
1208.97475891005
 20
651.0840557647672
 30
0.0
 11
1206.24975891005
 21
630.3821557647673
 31
0.0
  0
TEXT
  5
420C
330
1F
100
AcDbEntity
  8
AM_5
100
AcDbText
 10
1207.24001191005
 20
632.5652547647672
 30
0.0
 40
3.2
  1
4H9
 50
352.6000000000002
  7
China
100
AcDbText
  0
LINE
  5
420D
330
1F
100
AcDbEntity
  8
AM_5
100
AcDbLine
 10
1202.41375891005
 20
631.8956557647672
 30
0.0
 11
1199.33475891005
 21
631.4902557647672
 31
0.0
  0
LINE
  5
420E
330
1F
100
AcDbEntity
  8
AM_5
100
AcDbLine
 10
1202.41375891005
 20
631.8956557647672
 30
0.0
 11
1199.54475891005
 21
633.0841557647673
 31
0.0
  0
LINE
  5
420F
330
1F
100
AcDbEntity
  8
AM_5
100
AcDbLine
 10
1206.37975891005
 20
631.3735557647673
 30
0.0
 11
1209.45875891005
 21
631.7789557647672
 31
0.0
  0
LINE
  5
4210
330
1F
100
AcDbEntity
  8
AM_5
100
AcDbLine
 10
1206.37975891005
 20
631.3735557647673
 30
0.0
 11
1209.24975891005
 21
630.1850557647672
 31
0.0
  0
LINE
  5
4211
330
1F
100
AcDbEntity
  8
0
  6
Continuous
 62
     7
100
AcDbLine
 10
1198.46275891005
 20
643.0638557647673
 30
0.0
 11
1202.05075891005
 21
649.2792557647673
 31
0.0
  0
TEXT
  5
4212
330
1F
100
AcDbEntity
  8
AM_5
100
AcDbText
 10
1217.09118191005
 20
633.3866207647672
 30
0.0
 40
1.6
  1
+0.030
 50
352.500000000001
  7
China
100
AcDbText
  0
TEXT
  5
4213
330
1F
100
AcDbEntity
  8
AM_5
100
AcDbText
 10
1218.26518191005
 20
630.5878207647672
 30
0.0
 40
1.6
  1
0
 50
352.500000000001
  7
China
100
AcDbText
  0
LINE
  5
4214
330
1F
100
AcDbEntity
  8
0
  6
Continuous
 62
     7
100
AcDbLine
 10
1212.86475891005
 20
655.0289557647673
 30
0.0
 11
1219.16675891005
 21
656.1401557647672
 31
0.0
  0
ARC
  5
4217
330
1F
100
AcDbEntity
  8
0
  6
Continuous
 62
     7
100
AcDbCircle
 10
1207.25275891005
 20
653.3277557647672
 30
0.0
 40
2.0
100
AcDbArc
 50
352.500000000001
 51
172.500000000001
  0
LINE
  5
4218
330
1F
100
AcDbEntity
  8
0
  6
Continuous
 62
     7
100
AcDbLine
 10
1213.50675891005
 20
651.3838557647673
 30
0.0
 11
1214.26075891005
 21
651.1388557647673
 31
0.0
  0
LINE
  5
4219
330
1F
100
AcDbEntity
  8
0
  6
Continuous
 62
     7
100
AcDbLine
 10
1212.86375891005
 20
655.0289557647673
 30
0.0
 11
1213.50675891005
 21
651.3838557647673
 31
0.0
  0
LINE
  5
421A
330
1F
100
AcDbEntity
  8
0
  6
Continuous
 62
     7
100
AcDbLine
 10
1205.26975891005
 20
653.5890557647673
 30
0.0
 11
1205.00875891005
 21
651.6061557647672
 31
0.0
  0
LINE
  5
421B
330
1F
100
AcDbEntity
  8
0
  6
Continuous
 62
     7
100
AcDbLine
 10
1208.97475891005
 20
651.0840557647672
 30
0.0
 11
1209.23575891005
 21
653.0669557647672
 31
0.0
  0
LINE
  5
421C
330
1F
100
AcDbEntity
  8
0
  6
Continuous
 62
     7
100
AcDbLine
 10
1234.60575891005
 20
667.5819557647672
 30
0.0
 11
1237.44275891005
 21
665.2014557647673
 31
0.0
  0
LINE
  5
421D
330
1F
100
AcDbEntity
  8
0
  6
Continuous
 62
     7
100
AcDbLine
 10
1234.60575891005
 20
667.5819557647672
 30
0.0
 11
1230.49275891005
 21
662.6793557647673
 31
0.0
  0
LINE
  5
421F
330
1F
100
AcDbEntity
  8
0
  6
Continuous
 62
     7
100
AcDbLine
 10
1219.16675891005
 20
656.1405557647672
 30
0.0
 11
1219.80875891005
 21
652.4982557647672
 31
0.0
  0
LINE
  5
4220
330
1F
100
AcDbEntity
  8
0
  6
Continuous
 62
     7
100
AcDbLine
 10
1219.80875891005
 20
652.4980557647673
 30
0.0
 11
1219.18475891005
 21
652.0101557647672
 31
0.0
  0
LINE
  5
4221
330
1F
100
AcDbEntity
  8
0
  6
Continuous
 62
     7
100
AcDbLine
 10
1234.06075891005
 20
660.5988557647672
 30
0.0
 11
1236.30475891005
 21
658.7159557647672
 31
0.0
  0
LINE
  5
4222
330
1F
100
AcDbEntity
  8
0
  6
Continuous
 62
     7
100
AcDbLine
 10
1233.32575891005
 20
660.3019557647672
 30
0.0
 11
1234.06075891005
 21
660.5989557647672
 31
0.0
  0
LINE
  5
4223
330
1F
100
AcDbEntity
  8
0
  6
Continuous
 62
     7
100
AcDbLine
 10
1230.49275891005
 20
662.6788557647672
 30
0.0
 11
1233.32575891005
 21
660.3019557647672
 31
0.0
  0
LINE
  5
4224
330
1F
100
AcDbEntity
  8
0
  6
Continuous
 62
     7
100
AcDbLine
 10
1237.44275891005
 20
665.2014557647673
 30
0.0
 11
1237.27775891005
 21
664.4263557647673
 31
0.0
  0
TEXT
  5
4225
330
1F
100
AcDbEntity
  8
AM_5
100
AcDbText
 10
1270.41875891005
 20
629.0194557647672
 30
0.0
 40
3.2
  1
52H9
  7
China
100
AcDbText
  0
LINE
  5
4226
330
1F
100
AcDbEntity
  8
AM_5
100
AcDbLine
 10
1268.23075891005
 20
628.9626557647673
 30
0.0
 11
1269.39375891005
 21
632.1575557647673
 31
0.0
  0
CIRCLE
  5
4227
330
1F
100
AcDbEntity
  8
AM_5
100
AcDbCircle
 10
1268.81275891005
 20
630.5600557647673
 30
0.0
 40
0.9
  0
DIMENSION
  5
4228
330
1F
100
AcDbEntity
  8
AM_5
100
AcDbDimension
  2
*D15
 10
1121.437544424961
 20
853.7983062002997
 30
0.0
 11
1116.937544424961
 21
856.5983062002997
 31
0.0
 70
    32
 71
     5
 42
9.0
  3
AM_ISO$0
100
AcDbAlignedDimension
 13
1112.437544424961
 23
833.5449557647674
 33
0.0
 14
1121.437544424961
 24
838.0709557647671
 34
0.0
100
AcDbRotatedDimension
  0
DIMENSION
  5
4229
330
1F
100
AcDbEntity
  8
AM_5
100
AcDbDimension
  2
*D16
 10
1121.437544424961
 20
861.7983062002997
 30
0.0
 11
1095.438044424961
 21
864.5986999010871
 31
0.0
 70
    32
 71
     5
 42
51.99900000000003
  3
AM_ISO$0
100
AcDbAlignedDimension
 13
1069.438544424961
 23
856.1859735202801
 33
0.0
 14
1121.437544424961
 24
838.0709557647671
 34
0.0
100
AcDbRotatedDimension
  0
LINE
  5
422A
330
1F
100
AcDbEntity
  8
0
  6
Continuous
 62
     7
100
AcDbLine
 10
1121.437544424961
 20
838.0709557647671
 30
0.0
 11
1071.747544424961
 21
838.0709557647671
 31
0.0
  0
DIMENSION
  5
422B
330
1F
100
AcDbEntity
  8
AM_5
100
AcDbDimension
  2
*D17
 10
1121.437544424961
 20
869.7983062002997
 30
0.0
 11
1093.937544424961
 21
872.5983062002997
 31
0.0
 70
    32
 71
     5
 42
55.0
  3
AM_ISO$0
100
AcDbAlignedDimension
 13
1066.437544424961
 23
856.1859735202801
 33
0.0
 14
1121.437544424961
 24
856.1859735202801
 34
0.0
100
AcDbRotatedDimension
  0
LINE
  5
422C
330
1F
100
AcDbEntity
  8
0
  6
Continuous
 62
     7
100
AcDbLine
 10
1121.437544424961
 20
768.0709557647673
 30
0.0
 11
1071.747544424961
 21
768.0709557647673
 31
0.0
  0
LINE
  5
422D
330
1F
100
AcDbEntity
  8
0
  6
Continuous
 62
     7
100
AcDbLine
 10
1121.437544424961
 20
770.4169557647673
 30
0.0
 11
1071.747544424961
 21
770.4169557647673
 31
0.0
  0
LINE
  5
422E
330
1F
100
AcDbEntity
  8
0
  6
Continuous
 62
     7
100
AcDbLine
 10
1121.437544424961
 20
768.9549557647672
 30
0.0
 11
1071.747544424961
 21
768.9549557647672
 31
0.0
  0
LINE
  5
422F
330
1F
100
AcDbEntity
  8
AM_7
100
AcDbLine
 10
1066.398544424961
 20
803.0709557647673
 30
0.0
 11
1123.407544424961
 21
803.0709557647673
 31
0.0
  0
LEADER
  5
4230
330
1F
100
AcDbEntity
  8
AM_5
100
AcDbLeader
  3
AM_ISO$7
 76
     3
 10
1116.149237157559
 20
831.817038514815
 30
0.0
 10
1131.579104936746
 20
849.5518001273062
 30
0.0
 10
1157.660780144922
 20
849.5518001273062
 30
0.0
1001
ACAD
1000
DSTYLE
1002
{
1070
   140
1040
4.0
1002
}
  0
LEADER
  5
4231
330
1F
100
AcDbEntity
  8
AM_5
100
AcDbLeader
  3
AM_ISO$7
 76
     3
 10
1096.584756405126
 20
812.1844779299376
 30
0.0
 10
1145.319821301953
 20
828.066282716189
 30
0.0
 10
1170.47000544328
 20
828.066282716189
 30
0.0
1001
ACAD
1000
DSTYLE
1002
{
1070
   140
1040
4.0
1002
}
  0
LINE
  5
4232
330
1F
100
AcDbEntity
  8
0
  6
Continuous
 62
     7
100
AcDbLine
 10
1121.437544424961
 20
718.0709557647673
 30
0.0
 11
1083.937544424961
 21
718.0709557647673
 31
0.0
  0
LINE
  5
4233
330
1F
100
AcDbEntity
  8
0
  6
Continuous
 62
     7
100
AcDbLine
 10
1071.747544424961
 20
690.8869557647672
 30
0.0
 11
1121.437544424961
 21
690.8869557647672
 31
0.0
  0
LINE
  5
4234
330
1F
100
AcDbEntity
  8
AM_7
100
AcDbLine
 10
1061.618544424961
 20
683.0709557647672
 30
0.0
 11
1128.691544424961
 21
683.0709557647672
 31
0.0
  0
LINE
  5
4235
330
1F
100
AcDbEntity
  8
0
  6
Continuous
 62
     7
100
AcDbLine
 10
1071.747544424961
 20
695.6689557647672
 30
0.0
 11
1121.437544424961
 21
695.6689557647672
 31
0.0
  0
LINE
  5
4236
330
1F
100
AcDbEntity
  8
AM_7
100
AcDbLine
 10
1092.437544424961
 20
802.8079557647672
 30
0.0
 11
1092.437544424961
 21
815.2429557647671
 31
0.0
  0
DIMENSION
  5
4237
330
1F
100
AcDbEntity
  8
AM_5
100
AcDbDimension
  2
*D18
 10
1054.398544424961
 20
820.0709557647673
 30
0.0
 11
1051.598544424961
 21
811.5709557647674
 31
0.0
 70
    32
 71
     5
 42
17.0
  3
AM_ISO$0
100
AcDbAlignedDimension
 13
1066.398544424961
 23
803.0709557647673
 33
0.0
 14
1066.437544424961
 24
820.0709557647673
 34
0.0
 50
90.0
100
AcDbRotatedDimension
  0
LINE
  5
4238
330
1F
100
AcDbEntity
  8
0
  6
Continuous
 62
     7
100
AcDbLine
 10
1071.747544424961
 20
790.0799557647672
 30
0.0
 11
1071.747544424961
 21
816.2949557647673
 31
0.0
  0
LINE
  5
4239
330
1F
100
AcDbEntity
  8
0
  6
Continuous
 62
     7
100
AcDbLine
 10
1069.437544424961
 20
791.5649557647673
 30
0.0
 11
1069.437544424961
 21
834.0709557647672
 31
0.0
  0
DIMENSION
  5
423A
330
1F
100
AcDbEntity
  8
AM_5
100
AcDbDimension
  2
*D19
 10
1046.398544424961
 20
803.0709557647673
 30
0.0
 11
1043.598150724174
 21
816.5709557647673
 31
0.0
 70
    32
 71
     5
 42
26.99999999999989
  3
AM_ISO$0
100
AcDbAlignedDimension
 13
1066.437544424961
 23
830.0709557647671
 33
0.0
 14
1058.189251587573
 24
803.0709557647673
 34
0.0
 50
90.0
100
AcDbRotatedDimension
  0
LINE
  5
423B
330
1F
100
AcDbEntity
  8
AM_5
100
AcDbLine
 10
1001.365439950491
 20
747.7959557647673
 30
0.0
 11
1003.165439950491
 21
749.9409557647672
 31
0.0
  0
LINE
  5
423C
330
1F
100
AcDbEntity
  8
AM_5
100
AcDbLine
 10
1001.365439950491
 20
749.9399557647673
 30
0.0
 11
1003.165439950491
 21
747.7959557647673
 31
0.0
  0
TEXT
  5
423D
330
1F
100
AcDbEntity
  8
AM_5
100
AcDbText
 10
1003.865439950491
 20
747.2679557647673
 30
0.0
 40
3.2
  1
0.8DEPTH10
  7
China
100
AcDbText
  0
TEXT
  5
423E
330
1F
100
AcDbEntity
  8
AM_5
100
AcDbText
 10
987.865439950491
 20
747.2679557647673
 30
0.0
 40
3.2
  1
6-M5
  7
China
100
AcDbText
  0
LINE
  5
423F
330
1F
100
AcDbEntity
  8
0
  6
Continuous
 62
     7
100
AcDbLine
 10
1011.353439950491
 20
712.4179557647672
 30
0.0
 11
1020.013439950491
 21
707.4179557647672
 31
0.0
  0
LINE
  5
4240
330
1F
100
AcDbEntity
  8
AM_7
100
AcDbLine
 10
1014.724439950491
 20
716.2449557647672
 30
0.0
 11
1021.338439950491
 21
712.4269557647672
 31
0.0
  0
CIRCLE
  5
4241
330
1F
100
AcDbEntity
  8
0
  6
Continuous
 62
     2
100
AcDbCircle
 10
1018.182439950491
 20
714.2479557647673
 30
0.0
 40
2.5
  0
CIRCLE
  5
4242
330
1F
100
AcDbEntity
  8
0
  6
Continuous
 62
     7
100
AcDbCircle
 10
1018.182439950491
 20
714.2479557647673
 30
0.0
 40
2.067
  0
LINE
  5
4243
330
1F
100
AcDbEntity
  8
0
  6
Continuous
 62
     7
100
AcDbLine
 10
1012.889439950491
 20
723.0779557647672
 30
0.0
 11
1028.477439950491
 21
714.0779557647672
 31
0.0
  0
LINE
  5
4244
330
1F
100
AcDbEntity
  8
0
  6
Continuous
 62
     7
100
AcDbLine
 10
1009.263439950491
 20
688.7979557647672
 30
0.0
 11
1025.013439950491
 21
716.0779557647672
 31
0.0
  0
LINE
  5
4245
330
1F
100
AcDbEntity
  8
AM_5
100
AcDbLine
 10
987.3744399504911
 20
746.2139557647672
 30
0.0
 11
1036.638439950491
 21
746.2139557647672
 31
0.0
  0
LINE
  5
4246
330
1F
100
AcDbEntity
  8
0
  6
Continuous
 62
     7
100
AcDbLine
 10
1000.603439950491
 20
693.7979557647672
 30
0.0
 11
1016.353439950491
 21
721.0779557647672
 31
0.0
  0
ARC
  5
4247
330
1F
100
AcDbEntity
  8
0
  6
Continuous
 62
     7
100
AcDbCircle
 10
1000.182439950491
 20
683.0709557647672
 30
0.0
 40
17.5
100
AcDbArc
 50
76.60200000000284
 51
163.3989999999976
  0
ARC
  5
4248
330
1F
100
AcDbEntity
  8
0
  6
Continuous
 62
     7
100
AcDbCircle
 10
1000.182439950491
 20
683.0709557647672
 30
0.0
 40
31.0
100
AcDbArc
 50
69.28079999999844
 51
111.1859999999945
  0
CIRCLE
  5
4249
330
1F
100
AcDbEntity
  8
0
  6
Continuous
 62
     7
100
AcDbCircle
 10
984.682439950491
 20
709.9179557647673
 30
0.0
 40
2.75
  0
ARC
  5
424A
330
1F
100
AcDbEntity
  8
AM_7
100
AcDbCircle
 10
1000.182439950491
 20
683.0709557647672
 30
0.0
 40
31.0
100
AcDbArc
 50
111.9779999999977
 51
127.7530000000068
  0
ARC
  5
424B
330
1F
100
AcDbEntity
  8
0
  6
Continuous
 62
     7
100
AcDbCircle
 10
984.682439950491
 20
709.9169557647672
 30
0.0
 40
4.75
100
AcDbArc
 50
210.0000000000005
 51
29.99990000000294
  0
LINE
  5
424C
330
1F
100
AcDbEntity
  8
0
  6
Continuous
 62
     7
100
AcDbLine
 10
980.568439950491
 20
707.5419557647673
 30
0.0
 11
978.7304399504909
 21
710.7259557647672
 31
0.0
  0
LINE
  5
424D
330
1F
100
AcDbEntity
  8
0
  6
Continuous
 62
     7
100
AcDbLine
 10
988.7964399504911
 20
712.2919557647673
 30
0.0
 11
986.958439950491
 21
715.4759557647672
 31
0.0
  0
LINE
  5
424E
330
1F
100
AcDbEntity
  8
0
  6
Continuous
 62
     7
100
AcDbLine
 10
1004.353439950491
 20
700.2929557647672
 30
0.0
 11
1013.013439950491
 21
695.2939557647672
 31
0.0
  0
LINE
  5
424F
330
1F
100
AcDbEntity
  8
0
  6
Continuous
 62
     7
100
AcDbLine
 10
1000.603439950491
 20
693.7979557647672
 30
0.0
 11
1009.263439950491
 21
688.7979557647672
 31
0.0
  0
POINT
  5
4250
330
1F
100
AcDbEntity
  8
0
100
AcDbPoint
 10
1000.182439950491
 20
683.0709557647672
 30
0.0
  0
LINE
  5
4251
330
1F
100
AcDbEntity
  8
0
  6
Continuous
 62
     7
100
AcDbLine
 10
1009.353439950491
 20
708.9539557647672
 30
0.0
 11
1018.013439950491
 21
703.9539557647672
 31
0.0
  0
CIRCLE
  5
4252
330
1F
100
AcDbEntity
  8
0
  6
Continuous
 62
     2
100
AcDbCircle
 10
1011.182439950491
 20
702.1229557647672
 30
0.0
 40
2.5
  0
CIRCLE
  5
4253
330
1F
100
AcDbEntity
  8
0
  6
Continuous
 62
     7
100
AcDbCircle
 10
1011.182439950491
 20
702.1229557647672
 30
0.0
 40
2.067
  0
LINE
  5
4254
330
1F
100
AcDbEntity
  8
AM_7
100
AcDbLine
 10
1007.864439950491
 20
704.0399557647672
 30
0.0
 11
1014.128439950491
 21
700.4239557647672
 31
0.0
  0
LINE
  5
4255
330
1F
100
AcDbEntity
  8
0
  6
Continuous
 62
     7
100
AcDbLine
 10
1012.889439950491
 20
723.0779557647672
 30
0.0
 11
1009.300439950491
 21
716.8619557647672
 31
0.0
  0
ARC
  5
4256
330
1F
100
AcDbEntity
  8
0
  6
Continuous
 62
     7
100
AcDbCircle
 10
1000.182439950491
 20
683.0709557647672
 30
0.0
 40
35.0
100
AcDbArc
 50
24.04870000000034
 51
51.78590000000765
  0
ARC
  5
4257
330
1F
100
AcDbEntity
  8
0
  6
Continuous
 62
     7
100
AcDbCircle
 10
1000.182439950491
 20
683.0709557647672
 30
0.0
 40
31.0
100
AcDbArc
 50
25.871199999999
 51
50.71819999999487
  0
LINE
  5
4258
330
1F
100
AcDbEntity
  8
0
  6
Continuous
 62
     7
100
AcDbLine
 10
1027.598439950491
 20
689.6139557647672
 30
0.0
 11
1031.075439950491
 21
690.8789557647672
 31
0.0
  0
ARC
  5
4259
330
1F
100
AcDbEntity
  8
0
  6
Continuous
 62
     7
100
AcDbCircle
 10
1000.182439950491
 20
683.0709557647672
 30
0.0
 40
31.0
100
AcDbArc
 50
8.787910000000083
 51
14.05279999999635
  0
LINE
  5
425A
330
1F
100
AcDbEntity
  8
0
  6
Continuous
 62
     7
100
AcDbLine
 10
1029.478439950491
 20
696.3629557647672
 30
0.0
 11
1032.144439950491
 21
697.3339557647673
 31
0.0
  0
LINE
  5
425B
330
1F
100
AcDbEntity
  8
0
  6
Continuous
 62
     7
100
AcDbLine
 10
1025.409439950491
 20
695.6269557647672
 30
0.0
 11
1027.598439950491
 21
689.6139557647672
 31
0.0
  0
LINE
  5
425C
330
1F
100
AcDbEntity
  8
0
  6
Continuous
 62
     7
100
AcDbLine
 10
1028.889439950491
 20
696.8939557647672
 30
0.0
 11
1029.478439950491
 21
696.3629557647672
 31
0.0
  0
POINT
  5
425D
330
1F
100
AcDbEntity
  8
0
100
AcDbPoint
 10
1026.503439950491
 20
692.6199557647672
 30
0.0
  0
LINE
  5
425E
330
1F
100
AcDbEntity
  8
0
  6
Continuous
 62
     7
100
AcDbLine
 10
1025.409439950491
 20
695.6269557647672
 30
0.0
 11
1028.889439950491
 21
696.8939557647672
 31
0.0
  0
LINE
  5
425F
330
1F
100
AcDbEntity
  8
0
  6
Continuous
 62
     7
100
AcDbLine
 10
1031.186439950491
 20
691.6639557647672
 30
0.0
 11
1033.850439950491
 21
692.6339557647672
 31
0.0
  0
LINE
  5
4260
330
1F
100
AcDbEntity
  8
0
  6
Continuous
 62
     7
100
AcDbLine
 10
1031.075439950491
 20
690.8789557647672
 30
0.0
 11
1031.185439950491
 21
691.6639557647672
 31
0.0
  0
LINE
  5
4261
330
1F
100
AcDbEntity
  8
0
  6
Continuous
 62
     7
100
AcDbLine
 10
1031.183439950491
 20
687.8209557647672
 30
0.0
 11
1034.859439950491
 21
687.8209557647672
 31
0.0
  0
LINE
  5
4262
330
1F
100
AcDbEntity
  8
0
  6
Continuous
 62
     7
100
AcDbLine
 10
1028.477439950491
 20
714.0779557647672
 30
0.0
 11
1024.889439950491
 21
707.8629557647673
 31
0.0
  0
LINE
  5
4263
330
1F
100
AcDbEntity
  8
AM_5
100
AcDbLine
 10
1036.638439950491
 20
746.2139557647672
 30
0.0
 11
1019.432439950491
 21
716.4129557647672
 31
0.0
  0
LINE
  5
4264
330
1F
100
AcDbEntity
  8
0
  6
Continuous
 62
     7
100
AcDbLine
 10
1066.437544424961
 20
721.0769557647672
 30
0.0
 11
1074.937544424961
 21
721.0769557647672
 31
0.0
  0
LINE
  5
4265
330
1F
100
AcDbEntity
  8
0
  6
Continuous
 62
     7
100
AcDbLine
 10
1066.437544424961
 20
716.0769557647673
 30
0.0
 11
1074.937544424961
 21
716.0769557647673
 31
0.0
  0
LINE
  5
4266
330
1F
100
AcDbEntity
  8
0
  6
Continuous
 62
     7
100
AcDbLine
 10
1071.747544424961
 20
710.5709557647672
 30
0.0
 11
1074.937544424961
 21
710.5709557647672
 31
0.0
  0
LINE
  5
4267
330
1F
100
AcDbEntity
  8
0
  6
Continuous
 62
     7
100
AcDbLine
 10
1071.747544424961
 20
687.8209557647672
 30
0.0
 11
1081.437544424961
 21
687.8209557647672
 31
0.0
  0
LINE
  5
4268
330
1F
100
AcDbEntity
  8
0
  6
Continuous
 62
     7
100
AcDbLine
 10
1066.437544424961
 20
721.0769557647672
 30
0.0
 11
1066.437544424961
 21
695.2929557647673
 31
0.0
  0
LINE
  5
4269
330
1F
100
AcDbEntity
  8
0
  6
Continuous
 62
     7
100
AcDbLine
 10
1071.747544424961
 20
710.5709557647672
 30
0.0
 11
1071.747544424961
 21
695.6689557647672
 31
0.0
  0
LINE
  5
426A
330
1F
100
AcDbEntity
  8
0
  6
Continuous
 62
     7
100
AcDbLine
 10
1069.437544424961
 20
687.2779557647673
 30
0.0
 11
1071.747544424961
 21
687.8209557647672
 31
0.0
  0
LINE
  5
426B
330
1F
100
AcDbEntity
  8
0
  6
Continuous
 62
     7
100
AcDbLine
 10
1069.438544424961
 20
689.9939557647672
 30
0.0
 11
1071.747544424961
 21
690.8869557647672
 31
0.0
  0
LINE
  5
426C
330
1F
100
AcDbEntity
  8
0
  6
Continuous
 62
     7
100
AcDbLine
 10
1066.437544424961
 20
688.0709557647673
 30
0.0
 11
1069.437544424961
 21
688.0709557647673
 31
0.0
  0
LINE
  5
426D
330
1F
100
AcDbEntity
  8
0
  6
Continuous
 62
     7
100
AcDbLine
 10
1071.747544424961
 20
690.8869557647672
 30
0.0
 11
1071.747544424961
 21
687.8209557647672
 31
0.0
  0
LINE
  5
426E
330
1F
100
AcDbEntity
  8
0
  6
Continuous
 62
     7
100
AcDbLine
 10
1069.437544424961
 20
694.2289557647673
 30
0.0
 11
1071.746544424961
 21
695.6689557647672
 31
0.0
  0
LINE
  5
426F
330
1F
100
AcDbEntity
  8
0
  6
Continuous
 62
     7
100
AcDbLine
 10
1066.437544424961
 20
695.2929557647673
 30
0.0
 11
1069.437544424961
 21
695.2929557647673
 31
0.0
  0
LINE
  5
4270
330
1F
100
AcDbEntity
  8
0
  6
Continuous
 62
     7
100
AcDbLine
 10
1069.438544424961
 20
707.4279557647672
 30
0.0
 11
1071.747544424961
 21
710.5709557647672
 31
0.0
  0
LINE
  5
4271
330
1F
100
AcDbEntity
  8
0
  6
Continuous
 62
     7
100
AcDbLine
 10
1068.437544424961
 20
707.4169557647673
 30
0.0
 11
1068.437544424961
 21
703.9529557647672
 31
0.0
  0
LINE
  5
4272
330
1F
100
AcDbEntity
  8
0
  6
Continuous
 62
     7
100
AcDbLine
 10
1066.437544424961
 20
707.4169557647673
 30
0.0
 11
1068.437544424961
 21
707.4169557647673
 31
0.0
  0
LINE
  5
4273
330
1F
100
AcDbEntity
  8
0
  6
Continuous
 62
     7
100
AcDbLine
 10
1066.437544424961
 20
703.9529557647672
 30
0.0
 11
1068.437544424961
 21
703.9529557647672
 31
0.0
  0
LINE
  5
4274
330
1F
100
AcDbEntity
  8
0
  6
Continuous
 62
     7
100
AcDbLine
 10
1083.937544424961
 20
723.0769557647672
 30
0.0
 11
1083.937544424961
 21
707.8619557647672
 31
0.0
  0
LINE
  5
4275
330
1F
100
AcDbEntity
  8
0
  6
Continuous
 62
     7
100
AcDbLine
 10
1074.937544424961
 20
716.0769557647673
 30
0.0
 11
1074.937544424961
 21
707.8619557647672
 31
0.0
  0
LINE
  5
4276
330
1F
100
AcDbEntity
  8
0
  6
Continuous
 62
     7
100
AcDbLine
 10
1074.937544424961
 20
707.8619557647672
 30
0.0
 11
1083.937544424961
 21
707.8619557647672
 31
0.0
  0
LINE
  5
4277
330
1F
100
AcDbEntity
  8
0
  6
Continuous
 62
     7
100
AcDbLine
 10
1074.937544424961
 20
714.0769557647672
 30
0.0
 11
1083.937544424961
 21
714.0769557647672
 31
0.0
  0
LINE
  5
4278
330
1F
100
AcDbEntity
  8
0
  6
Continuous
 62
     7
100
AcDbLine
 10
1074.937544424961
 20
723.0769557647672
 30
0.0
 11
1074.937544424961
 21
721.0769557647672
 31
0.0
  0
LINE
  5
4279
330
1F
100
AcDbEntity
  8
0
  6
Continuous
 62
     7
100
AcDbLine
 10
1074.937544424961
 20
723.0769557647672
 30
0.0
 11
1083.937544424961
 21
723.0769557647672
 31
0.0
  0
LINE
  5
427A
330
1F
100
AcDbEntity
  8
0
  6
Continuous
 62
     7
100
AcDbLine
 10
1066.437544424961
 20
786.9009557647673
 30
0.0
 11
1074.937544424961
 21
786.9009557647673
 31
0.0
  0
LINE
  5
427B
330
1F
100
AcDbEntity
  8
0
  6
Continuous
 62
     7
100
AcDbLine
 10
1071.747544424961
 20
790.0799557647672
 30
0.0
 11
1074.937544424961
 21
790.0799557647672
 31
0.0
  0
LINE
  5
427C
330
1F
100
AcDbEntity
  8
0
  6
Continuous
 62
     7
100
AcDbLine
 10
1066.437544424961
 20
778.2409557647672
 30
0.0
 11
1074.937544424961
 21
778.2409557647672
 31
0.0
  0
LINE
  5
427D
330
1F
100
AcDbEntity
  8
0
  6
Continuous
 62
     7
100
AcDbLine
 10
1066.437544424961
 20
778.2409557647672
 30
0.0
 11
1066.437544424961
 21
798.9009557647673
 31
0.0
  0
LINE
  5
427E
330
1F
100
AcDbEntity
  8
0
  6
Continuous
 62
     7
100
AcDbLine
 10
1071.747544424961
 20
768.9549557647672
 30
0.0
 11
1069.437544424961
 21
772.8539557647673
 31
0.0
  0
LINE
  5
427F
330
1F
100
AcDbEntity
  8
0
  6
Continuous
 62
     7
100
AcDbLine
 10
1069.437544424961
 20
772.0709557647673
 30
0.0
 11
1071.747544424961
 21
768.0709557647673
 31
0.0
  0
LINE
  5
4280
330
1F
100
AcDbEntity
  8
0
  6
Continuous
 62
     7
100
AcDbLine
 10
1069.437544424961
 20
774.1479557647672
 30
0.0
 11
1071.747544424961
 21
770.4169557647673
 31
0.0
  0
LINE
  5
4281
330
1F
100
AcDbEntity
  8
0
  6
Continuous
 62
     7
100
AcDbLine
 10
1069.437544424961
 20
772.0709557647673
 30
0.0
 11
1069.437544424961
 21
778.2409557647672
 31
0.0
  0
LINE
  5
4282
330
1F
100
AcDbEntity
  8
0
  6
Continuous
 62
     7
100
AcDbLine
 10
1071.747544424961
 20
770.4169557647673
 30
0.0
 11
1071.747544424961
 21
778.2409557647672
 31
0.0
  0
LINE
  5
4283
330
1F
100
AcDbEntity
  8
0
  6
Continuous
 62
     7
100
AcDbLine
 10
1071.747544424961
 20
768.0709557647673
 30
0.0
 11
1071.747544424961
 21
768.9549557647672
 31
0.0
  0
LINE
  5
4284
330
1F
100
AcDbEntity
  8
0
  6
Continuous
 62
     7
100
AcDbLine
 10
1069.438544424961
 20
791.5649557647673
 30
0.0
 11
1071.747544424961
 21
790.0799557647672
 31
0.0
  0
LINE
  5
4285
330
1F
100
AcDbEntity
  8
0
  6
Continuous
 62
     7
100
AcDbLine
 10
1068.437544424961
 20
791.9009557647673
 30
0.0
 11
1068.437544424961
 21
793.9009557647673
 31
0.0
  0
LINE
  5
4286
330
1F
100
AcDbEntity
  8
0
  6
Continuous
 62
     7
100
AcDbLine
 10
1066.437544424961
 20
793.9009557647673
 30
0.0
 11
1068.437544424961
 21
793.9009557647673
 31
0.0
  0
LINE
  5
4287
330
1F
100
AcDbEntity
  8
0
  6
Continuous
 62
     7
100
AcDbLine
 10
1066.437544424961
 20
791.9009557647673
 30
0.0
 11
1068.437544424961
 21
791.9009557647673
 31
0.0
  0
LINE
  5
4288
330
1F
100
AcDbEntity
  8
0
  6
Continuous
 62
     7
100
AcDbLine
 10
1066.437544424961
 20
798.9009557647673
 30
0.0
 11
1069.437544424961
 21
798.9009557647673
 31
0.0
  0
LINE
  5
4289
330
1F
100
AcDbEntity
  8
0
  6
Continuous
 62
     7
100
AcDbLine
 10
1083.937544424961
 20
774.7759557647673
 30
0.0
 11
1083.937544424961
 21
793.9529557647672
 31
0.0
  0
LINE
  5
428A
330
1F
100
AcDbEntity
  8
0
  6
Continuous
 62
     7
100
AcDbLine
 10
1074.937544424961
 20
774.7759557647673
 30
0.0
 11
1074.937544424961
 21
778.2409557647672
 31
0.0
  0
LINE
  5
428B
330
1F
100
AcDbEntity
  8
0
  6
Continuous
 62
     7
100
AcDbLine
 10
1074.937544424961
 20
774.7759557647673
 30
0.0
 11
1083.937544424961
 21
774.7759557647673
 31
0.0
  0
LINE
  5
428C
330
1F
100
AcDbEntity
  8
AM_7
100
AcDbLine
 10
1098.886544424961
 20
809.2299557647672
 30
0.0
 11
1085.882544424961
 21
809.2299557647672
 31
0.0
  0
ARC
  5
428D
330
1F
100
AcDbEntity
  8
0
  6
Continuous
 62
     7
100
AcDbCircle
 10
1092.437544424961
 20
809.0869557647673
 30
0.0
 40
5.002049999999999
100
AcDbArc
 50
1.641149999998295
 51
178.3589999999984
  0
ARC
  5
428E
330
1F
100
AcDbEntity
  8
0
  6
Continuous
 62
     7
100
AcDbCircle
 10
1092.437544424961
 20
809.2449557647672
 30
0.0
 40
5.00002
100
AcDbArc
 50
180.1719999999987
 51
359.8280000000012
  0
LINE
  5
428F
330
1F
100
AcDbEntity
  8
0
  6
Continuous
 62
     7
100
AcDbLine
 10
1074.937544424961
 20
786.9009557647673
 30
0.0
 11
1074.937544424961
 21
793.9529557647672
 31
0.0
  0
LINE
  5
4290
330
1F
100
AcDbEntity
  8
0
  6
Continuous
 62
     7
100
AcDbLine
 10
1074.937544424961
 20
793.9529557647672
 30
0.0
 11
1083.937544424961
 21
793.9529557647672
 31
0.0
  0
LINE
  5
4291
330
1F
100
AcDbEntity
  8
0
  6
Continuous
 62
     7
100
AcDbLine
 10
1074.937544424961
 20
790.3649557647672
 30
0.0
 11
1083.937544424961
 21
790.3649557647672
 31
0.0
  0
ARC
  5
4292
330
1F
100
AcDbEntity
  8
0
  6
Continuous
 62
     7
100
AcDbCircle
 10
1092.437544424961
 20
809.0839557647672
 30
0.0
 40
2.502609999999999
100
AcDbArc
 50
3.325790000000717
 51
176.6670000000003
  0
ARC
  5
4293
330
1F
100
AcDbEntity
  8
0
  6
Continuous
 62
     7
100
AcDbCircle
 10
1092.437544424961
 20
809.1949557647671
 30
0.0
 40
2.49862
100
AcDbArc
 50
179.215000000001
 51
0.7780000000036801
  0
DIMENSION
  5
4294
330
1F
100
AcDbEntity
  8
AM_5
100
AcDbDimension
  2
*D20
 10
1069.438544424961
 20
861.7983062002997
 30
0.0
 11
1056.071859000012
 21
861.7983062002997
 31
0.0
 70
   160
 71
     5
 42
3.000999999999976
  3
AM_ISO$0
100
AcDbAlignedDimension
 13
1066.437544424961
 23
850.0750564471877
 33
0.0
 14
1069.438544424961
 24
834.0709557647672
 34
0.0
100
AcDbRotatedDimension
  0
LINE
  5
4295
330
1F
100
AcDbEntity
  8
0
  6
Continuous
 62
     7
100
AcDbLine
 10
1066.437544424961
 20
844.0709557647672
 30
0.0
 11
1083.937544424961
 21
844.0709557647672
 31
0.0
  0
LINE
  5
4296
330
1F
100
AcDbEntity
  8
0
  6
Continuous
 62
     7
100
AcDbLine
 10
1071.747544424961
 20
816.2949557647673
 30
0.0
 11
1081.437544424961
 21
816.2949557647673
 31
0.0
  0
LINE
  5
4297
330
1F
100
AcDbEntity
  8
0
  6
Continuous
 62
     7
100
AcDbLine
 10
1071.747544424961
 20
824.5219557647672
 30
0.0
 11
1081.437544424961
 21
824.5219557647672
 31
0.0
  0
DIMENSION
  5
4298
330
1F
100
AcDbEntity
  8
AM_5
100
AcDbDimension
  2
*D21
 10
1066.437544424961
 20
853.7983062002997
 30
0.0
 11
1057.66663891315
 21
856.5986999010871
 31
0.0
 70
    32
 71
     5
 42
2.0
  3
AM_ISO$0
100
AcDbAlignedDimension
 13
1068.437544424961
 23
834.0709557647672
 33
0.0
 14
1066.437544424961
 24
844.0709557647672
 34
0.0
100
AcDbRotatedDimension
  0
DIMENSION
  5
429A
330
1F
100
AcDbEntity
  8
AM_5
100
AcDbDimension
  2
*D22
 10
1054.398544424961
 20
834.0709557647672
 30
0.0
 11
1054.398544424961
 21
846.0141427227707
 31
0.0
 70
   160
  1
4H9
 71
     5
 42
4.0
  3
AM_ISO$0
100
AcDbAlignedDimension
 13
1058.189251587573
 23
830.0709557647671
 33
0.0
 14
1066.437544424961
 24
834.0709557647672
 34
0.0
 50
90.0
100
AcDbRotatedDimension
  0
LINE
  5
429B
330
1F
100
AcDbEntity
  8
0
  6
Continuous
 62
     7
100
AcDbLine
 10
1068.437544424961
 20
830.0709557647671
 30
0.0
 11
1068.437544424961
 21
834.0709557647672
 31
0.0
  0
LINE
  5
429C
330
1F
100
AcDbEntity
  8
0
  6
Continuous
 62
     7
100
AcDbLine
 10
1071.747544424961
 20
824.5219557647672
 30
0.0
 11
1071.747544424961
 21
838.0709557647671
 31
0.0
  0
DIMENSION
  5
429D
330
1F
100
AcDbEntity
  8
AM_5
100
AcDbDimension
  2
*D23
 10
1054.398544424961
 20
830.0709557647671
 30
0.0
 11
1051.598544424961
 21
825.0709557647672
 31
0.0
 70
    32
 71
     5
 42
9.999999999999886
  3
AM_ISO$0
100
AcDbAlignedDimension
 13
1058.189251587573
 23
820.0709557647673
 33
0.0
 14
1066.437544424961
 24
830.0709557647671
 34
0.0
 50
90.0
100
AcDbRotatedDimension
  0
LINE
  5
429E
330
1F
100
AcDbEntity
  8
0
  6
Continuous
 62
     7
100
AcDbLine
 10
1071.746544424961
 20
824.5209557647672
 30
0.0
 11
1069.436544424961
 21
822.0689557647672
 31
0.0
  0
LINE
  5
429F
330
1F
100
AcDbEntity
  8
0
  6
Continuous
 62
     7
100
AcDbLine
 10
1066.437544424961
 20
820.0709557647673
 30
0.0
 11
1066.437544424961
 21
830.0709557647671
 31
0.0
  0
LINE
  5
42A0
330
1F
100
AcDbEntity
  8
0
  6
Continuous
 62
     7
100
AcDbLine
 10
1066.437544424961
 20
820.0709557647673
 30
0.0
 11
1069.437544424961
 21
820.0709557647673
 31
0.0
  0
LINE
  5
42A1
330
1F
100
AcDbEntity
  8
0
  6
Continuous
 62
     7
100
AcDbLine
 10
1066.437544424961
 20
830.0709557647671
 30
0.0
 11
1068.437544424961
 21
830.0709557647671
 31
0.0
  0
LINE
  5
42A2
330
1F
100
AcDbEntity
  8
0
  6
Continuous
 62
     7
100
AcDbLine
 10
1069.438544424961
 20
814.7849557647672
 30
0.0
 11
1071.748544424961
 21
816.2959557647672
 31
0.0
  0
LINE
  5
42A3
330
1F
100
AcDbEntity
  8
0
  6
Continuous
 62
     7
100
AcDbLine
 10
1071.747544424961
 20
838.0709557647671
 30
0.0
 11
1069.438544424961
 21
834.0709557647672
 31
0.0
  0
LINE
  5
42A4
330
1F
100
AcDbEntity
  8
0
  6
Continuous
 62
     7
100
AcDbLine
 10
1066.437544424961
 20
834.0709557647672
 30
0.0
 11
1066.437544424961
 21
844.0709557647672
 31
0.0
  0
LINE
  5
42A5
330
1F
100
AcDbEntity
  8
0
  6
Continuous
 62
     7
100
AcDbLine
 10
1066.437544424961
 20
834.0709557647672
 30
0.0
 11
1068.437544424961
 21
834.0709557647672
 31
0.0
  0
DIMENSION
  5
42A7
330
1F
100
AcDbEntity
  8
AM_5
100
AcDbDimension
  2
*D24
 10
1092.437544424961
 20
853.7983062002997
 30
0.0
 11
1102.437544424961
 21
856.5986999010871
 31
0.0
 70
    32
 71
     5
 42
20.0
  3
AM_ISO$0
100
AcDbAlignedDimension
 13
1112.437544424961
 23
844.6431288545554
 33
0.0
 14
1092.437544424961
 24
815.2429557647671
 34
0.0
100
AcDbRotatedDimension
  0
LINE
  5
42A8
330
1F
100
AcDbEntity
  8
0
  6
Continuous
 62
     7
100
AcDbLine
 10
1081.437544424961
 20
816.2949557647673
 30
0.0
 11
1081.437544424961
 21
824.5219557647672
 31
0.0
  0
LINE
  5
42A9
330
1F
100
AcDbEntity
  8
0
  6
Continuous
 62
     7
100
AcDbLine
 10
1083.937544424961
 20
838.0709557647671
 30
0.0
 11
1083.937544424961
 21
844.0709557647672
 31
0.0
  0
LINE
  5
42AA
330
1F
100
AcDbEntity
  8
0
  6
Continuous
 62
     7
100
AcDbLine
 10
1074.937544424961
 20
838.0709557647671
 30
0.0
 11
1074.937544424961
 21
844.0709557647672
 31
0.0
  0
ARC
  5
42AB
330
1F
100
AcDbEntity
  8
0
  6
Continuous
 62
     7
100
AcDbCircle
 10
1114.969544424961
 20
829.6409557647674
 30
0.0
 40
2.47528
100
AcDbArc
 50
299.8550000000037
 51
61.53709999999517
  0
ARC
  5
42AC
330
1F
100
AcDbEntity
  8
0
  6
Continuous
 62
     7
100
AcDbCircle
 10
1109.906544424961
 20
829.6409557647674
 30
0.0
 40
2.475319999999999
100
AcDbArc
 50
118.458999999998
 51
240.1429999999995
  0
ARC
  5
42AD
330
1F
100
AcDbEntity
  8
0
  6
Continuous
 62
     7
100
AcDbCircle
 10
1112.438544424961
 20
827.1669557647671
 30
0.0
 40
3.822589999999999
100
AcDbArc
 50
56.81010000000366
 51
123.1849999999968
  0
LINE
  5
42AE
330
1F
100
AcDbEntity
  8
AM_7
100
AcDbLine
 10
1112.437544424961
 20
825.3699557647673
 30
0.0
 11
1112.437544424961
 21
833.5449557647674
 31
0.0
  0
LINE
  5
42AF
330
1F
100
AcDbEntity
  8
AM_7
100
AcDbLine
 10
1118.560544424961
 20
829.8299557647672
 30
0.0
 11
1106.649544424961
 21
829.8299557647672
 31
0.0
  0
ARC
  5
42B0
330
1F
100
AcDbEntity
  8
0
  6
Continuous
 62
     7
100
AcDbCircle
 10
1113.633544424962
 20
829.4449557647672
 30
0.0
 40
1.28497
100
AcDbArc
 50
329.6290000000038
 51
45.73609999999566
  0
ARC
  5
42B1
330
1F
100
AcDbEntity
  8
0
  6
Continuous
 62
     7
100
AcDbCircle
 10
1111.241544424961
 20
829.4449557647672
 30
0.0
 40
1.28454
100
AcDbArc
 50
134.2289999999935
 51
210.3920000000034
  0
ARC
  5
42B2
330
1F
100
AcDbEntity
  8
0
  6
Continuous
 62
     7
100
AcDbCircle
 10
1112.437544424961
 20
830.8629557647673
 30
0.0
 40
3.095779999999999
100
AcDbArc
 50
221.9009999999985
 51
318.1049999999974
  0
ARC
  5
42B3
330
1F
100
AcDbEntity
  8
0
  6
Continuous
 62
     7
100
AcDbCircle
 10
1112.437544424961
 20
833.0109557647672
 30
0.0
 40
6.679219999999999
100
AcDbArc
 50
235.6970000000005
 51
304.3029999999995
  0
ARC
  5
42B4
330
1F
100
AcDbEntity
  8
0
  6
Continuous
 62
     7
100
AcDbCircle
 10
1112.437544424961
 20
824.9699557647673
 30
0.0
 40
7.78763
100
AcDbArc
 50
61.53709999999517
 51
118.458999999998
  0
LINE
  5
42B5
330
1F
100
AcDbEntity
  8
0
  6
Continuous
 62
     7
100
AcDbLine
 10
1121.437544424961
 20
768.0709557647673
 30
0.0
 11
1121.437544424961
 21
838.0709557647671
 31
0.0
  0
DIMENSION
  5
42B6
330
1F
100
AcDbEntity
  8
AM_5
100
AcDbDimension
  2
*D25
 10
1135.174281560793
 20
838.0709557647671
 30
0.0
 11
1132.374281560793
 21
803.0709557647673
 31
0.0
 70
    32
  1
%%C<>
 71
     5
 42
69.99999999999989
  3
AM_ISO$0
100
AcDbAlignedDimension
 13
1121.437544424961
 23
768.0709557647673
 33
0.0
 14
1121.192009563151
 24
838.0709557647671
 34
0.0
 50
90.0
100
AcDbRotatedDimension
  0
LINE
  5
42B7
330
1F
100
AcDbEntity
  8
0
  6
Continuous
 62
     7
100
AcDbLine
 10
1182.87375891005
 20
714.0789557647671
 30
0.0
 11
1198.46275891005
 21
723.0789557647672
 31
0.0
  0
DIMENSION
  5
42B8
330
1F
100
AcDbEntity
  8
AM_5
100
AcDbDimension
  2
*D26
 10
1166.164323278344
 20
688.9944485723658
 30
0.0
 11
1165.410906476508
 21
704.7273280499632
 31
0.0
 70
    33
 71
     5
 42
31.00007313113258
  3
AM_ISO$0
100
AcDbAlignedDimension
 13
1215.21475891005
 23
713.8059557647673
 33
0.0
 14
1211.169476579288
 24
683.0709557647672
 34
0.0
  0
LINE
  5
42B9
330
1F
100
AcDbEntity
  8
AM_5
100
AcDbLine
 10
1191.86875891005
 20
746.2139557647672
 30
0.0
 11
1233.92575891005
 21
746.2139557647672
 31
0.0
  0
POINT
  5
42BA
330
1F
100
AcDbEntity
  8
0
100
AcDbPoint
 10
1121.437544424961
 20
683.0709557647672
 30
0.0
  0
LINE
  5
42BB
330
1F
100
AcDbEntity
  8
0
  6
Continuous
 62
     7
100
AcDbLine
 10
1183.84575891005
 20
689.6109557647672
 30
0.0
 11
1180.37175891005
 21
690.8759557647672
 31
0.0
  0
LINE
  5
42BC
330
1F
100
AcDbEntity
  8
0
  6
Continuous
 62
     7
100
AcDbLine
 10
1181.96775891005
 20
696.3609557647672
 30
0.0
 11
1179.21875891005
 21
697.3609557647672
 31
0.0
  0
LINE
  5
42BD
330
1F
100
AcDbEntity
  8
0
  6
Continuous
 62
     7
100
AcDbLine
 10
1180.26175891005
 20
691.6609557647673
 30
0.0
 11
1177.50875891005
 21
692.6629557647673
 31
0.0
  0
LINE
  5
42BE
330
1F
100
AcDbEntity
  8
0
  6
Continuous
 62
     7
100
AcDbLine
 10
1180.37275891005
 20
690.8759557647672
 30
0.0
 11
1180.26175891005
 21
691.6609557647673
 31
0.0
  0
POINT
  5
42BF
330
1F
100
AcDbEntity
  8
0
100
AcDbPoint
 10
1184.94075891005
 20
692.6179557647672
 30
0.0
  0
LINE
  5
42C0
330
1F
100
AcDbEntity
  8
0
  6
Continuous
 62
     7
100
AcDbLine
 10
1182.55575891005
 20
696.8909557647672
 30
0.0
 11
1181.96775891005
 21
696.3609557647672
 31
0.0
  0
LINE
  5
42C1
330
1F
100
AcDbEntity
  8
0
  6
Continuous
 62
     7
100
AcDbLine
 10
1186.03475891005
 20
695.6249557647672
 30
0.0
 11
1183.84575891005
 21
689.6109557647672
 31
0.0
  0
LINE
  5
42C2
330
1F
100
AcDbEntity
  8
0
  6
Continuous
 62
     7
100
AcDbLine
 10
1186.03475891005
 20
695.6249557647672
 30
0.0
 11
1182.55675891005
 21
696.8909557647672
 31
0.0
  0
LINE
  5
42C3
330
1F
100
AcDbEntity
  8
0
  6
Continuous
 62
     7
100
AcDbLine
 10
1182.87375891005
 20
714.0789557647671
 30
0.0
 11
1186.46275891005
 21
707.8629557647673
 31
0.0
  0
POINT
  5
42C4
330
1F
100
AcDbEntity
  8
0
100
AcDbPoint
 10
1121.437544424961
 20
803.0709557647673
 30
0.0
  0
TEXT
  5
42C5
330
1F
100
AcDbEntity
  8
AM_5
100
AcDbText
 10
1206.05275891005
 20
747.0279557647672
 30
0.0
 40
1.6
  1
0
  7
China
100
AcDbText
  0
CIRCLE
  5
42C6
330
1F
100
AcDbEntity
  8
AM_5
100
AcDbCircle
 10
1193.00775891005
 20
748.6169557647672
 30
0.0
 40
0.9
  0
LINE
  5
42C7
330
1F
100
AcDbEntity
  8
AM_5
100
AcDbLine
 10
1192.42575891005
 20
747.0199557647672
 30
0.0
 11
1193.58875891005
 21
750.2149557647673
 31
0.0
  0
TEXT
  5
42C8
330
1F
100
AcDbEntity
  8
AM_5
100
AcDbText
 10
1194.73775891005
 20
747.0169557647673
 30
0.0
 40
3.2
  1
4H9
  7
China
100
AcDbText
  0
TEXT
  5
42C9
330
1F
100
AcDbEntity
  8
AM_5
100
AcDbText
 10
1214.54175891005
 20
747.1049557647672
 30
0.0
 40
3.2
  1
DEPTH4
  7
China
100
AcDbText
  0
CIRCLE
  5
42CA
330
1F
100
AcDbEntity
  8
0
  6
Continuous
 62
     7
100
AcDbCircle
 10
1215.21475891005
 20
713.8059557647673
 30
0.0
 40
2.0
  0
LINE
  5
42CB
330
1F
100
AcDbEntity
  8
AM_5
100
AcDbLine
 10
1233.92575891005
 20
746.2139557647672
 30
0.0
 11
1216.21475891005
 21
715.5379557647672
 31
0.0
  0
POINT
  5
42CC
330
1F
100
AcDbEntity
  8
0
100
AcDbPoint
 10
1211.16875891005
 20
683.0709557647672
 30
0.0
  0
LINE
  5
42D0
330
1F
100
AcDbEntity
  8
0
  6
Continuous
 62
     7
100
AcDbLine
 10
1198.46275891005
 20
723.0789557647672
 30
0.0
 11
1202.05075891005
 21
716.8629557647673
 31
0.0
  0
LINE
  5
42D1
330
1F
100
AcDbEntity
  8
AM_5
100
AcDbLine
 10
1266.816814607385
 20
726.312693944147
 30
0.0
 11
1243.41875891005
 21
685.2359557647672
 31
0.0
  0
TEXT
  5
42D2
330
1F
100
AcDbEntity
  8
AM_5
100
AcDbText
 10
1204.47575891005
 20
748.9559557647672
 30
0.0
 40
1.6
  1
+0.030
  7
China
100
AcDbText
  0
TEXT
  5
42D3
330
1F
100
AcDbEntity
  8
AM_5
100
AcDbText
 10
1156.114745990496
 20
828.8534169018973
 30
0.0
 40
3.2
  1
0.8
  7
China
100
AcDbText
  0
TEXT
  5
42D4
330
1F
100
AcDbEntity
  8
AM_5
100
AcDbText
 10
1146.514745990496
 20
828.8534169018973
 30
0.0
 40
3.2
  1
M5
  7
China
100
AcDbText
  0
LINE
  5
42D5
330
1F
100
AcDbEntity
  8
AM_5
100
AcDbLine
 10
1153.614745990496
 20
831.5254169018974
 30
0.0
 11
1155.414745990496
 21
829.3804169018974
 31
0.0
  0
LINE
  5
42D6
330
1F
100
AcDbEntity
  8
AM_5
100
AcDbLine
 10
1153.614745990496
 20
829.3804169018974
 30
0.0
 11
1155.414745990496
 21
831.5254169018974
 31
0.0
  0
TEXT
  5
42D7
330
1F
100
AcDbEntity
  8
AM_5
100
AcDbText
 10
1142.462500646037
 20
850.8866726182191
 30
0.0
 40
3.2
  1
0.8
  7
China
100
AcDbText
  0
TEXT
  5
42D8
330
1F
100
AcDbEntity
  8
AM_5
100
AcDbText
 10
1132.862500646037
 20
850.8866726182191
 30
0.0
 40
3.2
  1
M5
  7
China
100
AcDbText
  0
LINE
  5
42D9
330
1F
100
AcDbEntity
  8
AM_5
100
AcDbLine
 10
1139.962500646037
 20
853.5596726182191
 30
0.0
 11
1141.762500646037
 21
851.4146726182191
 31
0.0
  0
LINE
  5
42DA
330
1F
100
AcDbEntity
  8
AM_5
100
AcDbLine
 10
1139.962500646037
 20
851.4146726182191
 30
0.0
 11
1141.762500646037
 21
853.5596726182191
 31
0.0
  0
TEXT
  5
42DB
330
1F
100
AcDbEntity
  8
AM_5
100
AcDbText
 10
1293.28075891005
 20
629.1382557647672
 30
0.0
 40
3.2
  1
DEPTH2
  7
China
100
AcDbText
  0
LINE
  5
42DC
330
1F
100
AcDbEntity
  8
AM_5
100
AcDbLine
 10
1280.455814607385
 20
728.123693944147
 30
0.0
 11
1282.254814607385
 21
730.2686939441469
 31
0.0
  0
LINE
  5
42DD
330
1F
100
AcDbEntity
  8
AM_5
100
AcDbLine
 10
1280.455814607385
 20
730.2686939441469
 30
0.0
 11
1282.254814607385
 21
728.123693944147
 31
0.0
  0
TEXT
  5
42DE
330
1F
100
AcDbEntity
  8
AM_5
100
AcDbText
 10
1282.955814607385
 20
727.596693944147
 30
0.0
 40
3.2
  1
0.8DEPTH10
  7
China
100
AcDbText
  0
TEXT
  5
42DF
330
1F
100
AcDbEntity
  8
AM_5
100
AcDbText
 10
1131.208075956088
 20
845.1536383958437
 30
0.0
 40
3.2
  1
(Finger opening port)
  7
China
100
AcDbText
  0
TEXT
  5
42E0
330
1F
100
AcDbEntity
  8
AM_5
100
AcDbText
 10
1145.880449133599
 20
823.0091546667074
 30
0.0
 40
3.2
  1
(Finger closing port)
  7
China
100
AcDbText
  0
TEXT
  5
42E2
330
1F
100
AcDbEntity
  8
AM_5
100
AcDbText
 10
982.2154830720153
 20
738.0964947344475
 30
0.0
 40
3.2
  1
attachment)
  7
China
100
AcDbText
  0
TEXT
  5
42E3
330
1F
100
AcDbEntity
  8
AM_5
100
AcDbText
 10
979.8324320147287
 20
742.424402581646
 30
0.0
 40
3.2
  1
(Thread for mounting 
  7
China
100
AcDbText
  0
TEXT
  5
42E4
330
1F
100
AcDbEntity
  8
AM_5
100
AcDbText
 10
903.8066531174987
 20
731.4344095680231
 30
0.0
 40
3.2
  1
(Mounting hole)
  7
China
100
AcDbText
  0
TEXT
  5
42E5
330
1F
100
AcDbEntity
  8
AM_5
100
AcDbText
 10
1266.661266907579
 20
716.6882327900865
 30
0.0
 40
3.2
  1
(Mounting thread)
  7
China
100
AcDbText
  0
LINE
  5
467D
330
1F
100
AcDbEntity
  8
AM_7
  6
AM_ISO08W050x2
100
AcDbLine
 10
1242.16875891005
 20
683.0709557647672
 30
0.0
 11
1245.66875891005
 21
683.0709557647672
 31
0.0
1001
GENIUS_GENOREF_13
1005
4681
  0
LINE
  5
467E
330
1F
100
AcDbEntity
  8
AM_7
  6
AM_ISO08W050x2
100
AcDbLine
 10
1242.16875891005
 20
683.0709557647672
 30
0.0
 11
1242.16875891005
 21
686.5709557647672
 31
0.0
1001
GENIUS_GENOREF_13
1005
4681
  0
LINE
  5
467F
330
1F
100
AcDbEntity
  8
AM_7
  6
AM_ISO08W050x2
100
AcDbLine
 10
1242.16875891005
 20
683.0709557647672
 30
0.0
 11
1238.66875891005
 21
683.0709557647672
 31
0.0
1001
GENIUS_GENOREF_13
1005
4681
  0
LINE
  5
4680
330
1F
100
AcDbEntity
  8
AM_7
  6
AM_ISO08W050x2
100
AcDbLine
 10
1242.16875891005
 20
683.0709557647672
 30
0.0
 11
1242.16875891005
 21
679.5709557647673
 31
0.0
1001
GENIUS_GENOREF_13
1005
4681
  0
POINT
  5
4681
330
1F
100
AcDbEntity
  8
0
 60
     1
100
AcDbPoint
 10
0.0
 20
0.0
 30
0.0
1001
GENIUS_GENOLIS_13
1002
{
1000
ENT
1005
4680
1005
467F
1005
467E
1005
467D
1002
}
1001
GENIUS_GENOBJ-N-CRS_13
1002
{
1000
OWNER
1000
GEN
1002
}
1001
GENIUS_GENODEF_13
1002
{
1000
HIER
1070
    10
1002
}
1002
{
1000
MANEDIT
1070
     0
1002
}
1002
{
1000
NOSEL
1070
     0
1002
}
1002
{
1000
BEHIND
1070
     0
1002
}
1002
{
1000
OTHER
1070
     0
1002
}
1002
{
1000
REACTOR
1002
}
1001
GENIUS_GENOENT_13
1002
{
1000
MYREF
1005
4681
1002
}
1002
{
1000
GRP
1005
0
1002
}
  0
LINE
  5
468F
330
1F
100
AcDbEntity
  8
AM_7
  6
AM_ISO08W050x2
100
AcDbLine
 10
1180.16875891005
 20
683.0709557647672
 30
0.0
 11
1183.91875891005
 21
683.0709557647672
 31
0.0
1001
GENIUS_GENOREF_13
1005
4693
  0
LINE
  5
4690
330
1F
100
AcDbEntity
  8
AM_7
  6
AM_ISO08W050x2
100
AcDbLine
 10
1180.16875891005
 20
683.0709557647672
 30
0.0
 11
1180.16875891005
 21
686.8209557647673
 31
0.0
1001
GENIUS_GENOREF_13
1005
4693
  0
LINE
  5
4691
330
1F
100
AcDbEntity
  8
AM_7
  6
AM_ISO08W050x2
100
AcDbLine
 10
1180.16875891005
 20
683.0709557647672
 30
0.0
 11
1176.41875891005
 21
683.0709557647672
 31
0.0
1001
GENIUS_GENOREF_13
1005
4693
  0
LINE
  5
4692
330
1F
100
AcDbEntity
  8
AM_7
  6
AM_ISO08W050x2
100
AcDbLine
 10
1180.16875891005
 20
683.0709557647672
 30
0.0
 11
1180.16875891005
 21
679.3209557647672
 31
0.0
1001
GENIUS_GENOREF_13
1005
4693
  0
POINT
  5
4693
330
1F
100
AcDbEntity
  8
0
 60
     1
100
AcDbPoint
 10
0.0
 20
0.0
 30
0.0
1001
GENIUS_GENOLIS_13
1002
{
1000
ENT
1005
4692
1005
4691
1005
4690
1005
468F
1002
}
1001
GENIUS_GENOENT_13
1002
{
1000
MYREF
1005
4693
1002
}
1002
{
1000
GRP
1005
0
1002
}
1001
GENIUS_GENOBJ-N-CRS_13
1002
{
1000
OWNER
1000
GEN
1002
}
1001
GENIUS_GENODEF_13
1002
{
1000
HIER
1070
    10
1002
}
1002
{
1000
MANEDIT
1070
     0
1002
}
1002
{
1000
NOSEL
1070
     0
1002
}
1002
{
1000
BEHIND
1070
     0
1002
}
1002
{
1000
OTHER
1070
     0
1002
}
1002
{
1000
REACTOR
1002
}
  0
CIRCLE
  5
4694
330
1F
100
AcDbEntity
  8
0
  6
Continuous
 62
     7
100
AcDbCircle
 10
1195.66875891005
 20
709.9177432820845
 30
0.0
 40
2.067
  0
CIRCLE
  5
4695
330
1F
100
AcDbEntity
  8
0
  6
Continuous
 62
     2
100
AcDbCircle
 10
1195.66875891005
 20
709.9177432820845
 30
0.0
 40
2.5
  0
CIRCLE
  5
4696
330
1F
100
AcDbEntity
  8
0
  6
Continuous
 62
     7
100
AcDbCircle
 10
1226.66875891005
 20
656.2241682474493
 30
0.0
 40
2.75
  0
LINE
  5
4697
330
1F
100
AcDbEntity
  8
AM_7
  6
AM_ISO08W050x2
100
AcDbLine
 10
1195.66875891005
 20
709.9177432820845
 30
0.0
 11
1193.91875891005
 21
712.9488321953301
 31
0.0
1001
GENIUS_GENOREF_13
1005
46A0
  0
LINE
  5
4698
330
1F
100
AcDbEntity
  8
AM_7
  6
AM_ISO08W050x2
100
AcDbLine
 10
1195.66875891005
 20
709.9177432820845
 30
0.0
 11
1192.637669996805
 21
708.1677432820845
 31
0.0
1001
GENIUS_GENOREF_13
1005
46A0
  0
LINE
  5
4699
330
1F
100
AcDbEntity
  8
AM_7
  6
AM_ISO08W050x2
100
AcDbLine
 10
1195.66875891005
 20
709.9177432820845
 30
0.0
 11
1197.41875891005
 21
706.8866543688391
 31
0.0
1001
GENIUS_GENOREF_13
1005
46A0
  0
LINE
  5
469A
330
1F
100
AcDbEntity
  8
AM_7
  6
AM_ISO08W050x2
100
AcDbLine
 10
1195.66875891005
 20
709.9177432820845
 30
0.0
 11
1198.699847823296
 21
711.6677432820845
 31
0.0
1001
GENIUS_GENOREF_13
1005
46A0
  0
LINE
  5
469B
330
1F
100
AcDbEntity
  8
AM_7
  6
AM_ISO08W050x2
100
AcDbLine
 10
1226.66875891005
 20
656.2241682474494
 30
0.0
 11
1224.79375891005
 21
659.471763511641
 31
0.0
1001
GENIUS_GENOREF_13
1005
469F
  0
LINE
  5
469C
330
1F
100
AcDbEntity
  8
AM_7
  6
AM_ISO08W050x2
100
AcDbLine
 10
1226.66875891005
 20
656.2241682474494
 30
0.0
 11
1223.421163645859
 21
654.3491682474494
 31
0.0
1001
GENIUS_GENOREF_13
1005
469F
  0
LINE
  5
469D
330
1F
100
AcDbEntity
  8
AM_7
  6
AM_ISO08W050x2
100
AcDbLine
 10
1226.66875891005
 20
656.2241682474494
 30
0.0
 11
1228.54375891005
 21
652.9765729832576
 31
0.0
1001
GENIUS_GENOREF_13
1005
469F
  0
LINE
  5
469E
330
1F
100
AcDbEntity
  8
AM_7
  6
AM_ISO08W050x2
100
AcDbLine
 10
1226.66875891005
 20
656.2241682474494
 30
0.0
 11
1229.916354174242
 21
658.0991682474493
 31
0.0
1001
GENIUS_GENOREF_13
1005
469F
  0
POINT
  5
469F
330
1F
100
AcDbEntity
  8
0
 60
     1
100
AcDbPoint
 10
2438.714616917048
 20
-41.85062902419827
 30
0.0
1001
GENIUS_GENOLIS_13
1002
{
1000
ENT
1005
469E
1005
469D
1005
469C
1005
469B
1002
}
1001
GENIUS_GENOENT_13
1002
{
1000
MYREF
1005
469F
1002
}
1002
{
1000
GRP
1005
0
1002
}
1001
GENIUS_GENOBJ-N-CRS_13
1002
{
1000
OWNER
1000
GEN
1002
}
1001
GENIUS_GENODEF_13
1002
{
1000
HIER
1070
    10
1002
}
1002
{
1000
MANEDIT
1070
     0
1002
}
1002
{
1000
NOSEL
1070
     0
1002
}
1002
{
1000
BEHIND
1070
     0
1002
}
1002
{
1000
OTHER
1070
     0
1002
}
1002
{
1000
REACTOR
1002
}
  0
POINT
  5
46A0
330
1F
100
AcDbEntity
  8
0
 60
     1
100
AcDbPoint
 10
2438.714616917048
 20
-41.85062902419827
 30
0.0
1001
GENIUS_GENOLIS_13
1002
{
1000
ENT
1005
469A
1005
4699
1005
4698
1005
4697
1002
}
1001
GENIUS_GENOBJ-N-CRS_13
1002
{
1000
OWNER
1000
GEN
1002
}
1001
GENIUS_GENODEF_13
1002
{
1000
HIER
1070
    10
1002
}
1002
{
1000
MANEDIT
1070
     0
1002
}
1002
{
1000
NOSEL
1070
     0
1002
}
1002
{
1000
BEHIND
1070
     0
1002
}
1002
{
1000
OTHER
1070
     0
1002
}
1002
{
1000
REACTOR
1002
}
1001
GENIUS_GENOENT_13
1002
{
1000
MYREF
1005
46A0
1002
}
1002
{
1000
GRP
1005
0
1002
}
  0
CIRCLE
  5
46A1
330
1F
100
AcDbEntity
  8
0
  6
Continuous
 62
     7
100
AcDbCircle
 10
1195.668758910051
 20
656.2241682474494
 30
0.0
 40
2.067
  0
CIRCLE
  5
46A2
330
1F
100
AcDbEntity
  8
0
  6
Continuous
 62
     2
100
AcDbCircle
 10
1195.668758910051
 20
656.2241682474494
 30
0.0
 40
2.5
  0
CIRCLE
  5
46A3
330
1F
100
AcDbEntity
  8
0
  6
Continuous
 62
     7
100
AcDbCircle
 10
1226.668758910051
 20
709.9177432820845
 30
0.0
 40
2.75
  0
LINE
  5
46A4
330
1F
100
AcDbEntity
  8
AM_7
  6
AM_ISO08W050x2
100
AcDbLine
 10
1195.66875891005
 20
656.2241682474495
 30
0.0
 11
1193.918758910051
 21
653.193079334204
 31
0.0
1001
GENIUS_GENOREF_13
1005
46AD
  0
LINE
  5
46A5
330
1F
100
AcDbEntity
  8
AM_7
  6
AM_ISO08W050x2
100
AcDbLine
 10
1195.66875891005
 20
656.2241682474495
 30
0.0
 11
1198.699847823296
 21
654.4741682474495
 31
0.0
1001
GENIUS_GENOREF_13
1005
46AD
  0
LINE
  5
46A6
330
1F
100
AcDbEntity
  8
AM_7
  6
AM_ISO08W050x2
100
AcDbLine
 10
1195.66875891005
 20
656.2241682474495
 30
0.0
 11
1197.418758910051
 21
659.255257160695
 31
0.0
1001
GENIUS_GENOREF_13
1005
46AD
  0
LINE
  5
46A7
330
1F
100
AcDbEntity
  8
AM_7
  6
AM_ISO08W050x2
100
AcDbLine
 10
1195.66875891005
 20
656.2241682474495
 30
0.0
 11
1192.637669996805
 21
657.9741682474495
 31
0.0
1001
GENIUS_GENOREF_13
1005
46AD
  0
LINE
  5
46A8
330
1F
100
AcDbEntity
  8
AM_7
  6
AM_ISO08W050x2
100
AcDbLine
 10
1226.66875891005
 20
709.9177432820847
 30
0.0
 11
1224.793758910051
 21
706.6701480178931
 31
0.0
1001
GENIUS_GENOREF_13
1005
46AC
  0
LINE
  5
46A9
330
1F
100
AcDbEntity
  8
AM_7
  6
AM_ISO08W050x2
100
AcDbLine
 10
1226.66875891005
 20
709.9177432820847
 30
0.0
 11
1229.916354174242
 21
708.0427432820847
 31
0.0
1001
GENIUS_GENOREF_13
1005
46AC
  0
LINE
  5
46AA
330
1F
100
AcDbEntity
  8
AM_7
  6
AM_ISO08W050x2
100
AcDbLine
 10
1226.66875891005
 20
709.9177432820847
 30
0.0
 11
1228.54375891005
 21
713.1653385462763
 31
0.0
1001
GENIUS_GENOREF_13
1005
46AC
  0
LINE
  5
46AB
330
1F
100
AcDbEntity
  8
AM_7
  6
AM_ISO08W050x2
100
AcDbLine
 10
1226.66875891005
 20
709.9177432820847
 30
0.0
 11
1223.421163645859
 21
711.7927432820847
 31
0.0
1001
GENIUS_GENOREF_13
1005
46AC
  0
POINT
  5
46AC
330
1F
100
AcDbEntity
  8
0
 60
     1
100
AcDbPoint
 10
1255.601016357838
 20
2091.063496318499
 30
0.0
1001
GENIUS_GENOLIS_13
1002
{
1000
ENT
1005
46AB
1005
46AA
1005
46A9
1005
46A8
1002
}
1001
GENIUS_GENOENT_13
1002
{
1000
MYREF
1005
46AC
1002
}
1002
{
1000
GRP
1005
0
1002
}
1001
GENIUS_GENOBJ-N-CRS_13
1002
{
1000
OWNER
1000
GEN
1002
}
1001
GENIUS_GENODEF_13
1002
{
1000
HIER
1070
    10
1002
}
1002
{
1000
MANEDIT
1070
     0
1002
}
1002
{
1000
NOSEL
1070
     0
1002
}
1002
{
1000
BEHIND
1070
     0
1002
}
1002
{
1000
OTHER
1070
     0
1002
}
1002
{
1000
REACTOR
1002
}
  0
POINT
  5
46AD
330
1F
100
AcDbEntity
  8
0
 60
     1
100
AcDbPoint
 10
1255.601016357838
 20
2091.063496318499
 30
0.0
1001
GENIUS_GENOLIS_13
1002
{
1000
ENT
1005
46A7
1005
46A6
1005
46A5
1005
46A4
1002
}
1001
GENIUS_GENOBJ-N-CRS_13
1002
{
1000
OWNER
1000
GEN
1002
}
1001
GENIUS_GENODEF_13
1002
{
1000
HIER
1070
    10
1002
}
1002
{
1000
MANEDIT
1070
     0
1002
}
1002
{
1000
NOSEL
1070
     0
1002
}
1002
{
1000
BEHIND
1070
     0
1002
}
1002
{
1000
OTHER
1070
     0
1002
}
1002
{
1000
REACTOR
1002
}
1001
GENIUS_GENOENT_13
1002
{
1000
MYREF
1005
46AD
1002
}
1002
{
1000
GRP
1005
0
1002
}
  0
LINE
  5
46F4
330
1F
100
AcDbEntity
  8
AM_7
100
AcDbLine
 10
1211.16875891005
 20
683.0709557647672
 30
0.0
 11
1247.16875891005
 21
683.0709557647672
 31
0.0
1001
GENIUS_GENOREF_13
1005
46F8
  0
LINE
  5
46F5
330
1F
100
AcDbEntity
  8
AM_7
100
AcDbLine
 10
1211.16875891005
 20
683.0709557647672
 30
0.0
 11
1211.16875891005
 21
719.0709557647672
 31
0.0
1001
GENIUS_GENOREF_13
1005
46F8
  0
LINE
  5
46F6
330
1F
100
AcDbEntity
  8
AM_7
100
AcDbLine
 10
1211.16875891005
 20
683.0709557647672
 30
0.0
 11
1175.16875891005
 21
683.0709557647672
 31
0.0
1001
GENIUS_GENOREF_13
1005
46F8
  0
LINE
  5
46F7
330
1F
100
AcDbEntity
  8
AM_7
100
AcDbLine
 10
1211.16875891005
 20
683.0709557647672
 30
0.0
 11
1211.16875891005
 21
647.0709557647673
 31
0.0
1001
GENIUS_GENOREF_13
1005
46F8
  0
POINT
  5
46F8
330
1F
100
AcDbEntity
  8
0
 60
     1
100
AcDbPoint
 10
0.0
 20
0.0
 30
0.0
1001
GENIUS_GENODEF_13
1002
{
1000
HIER
1070
    10
1002
}
1002
{
1000
MANEDIT
1070
     0
1002
}
1002
{
1000
NOSEL
1070
     0
1002
}
1002
{
1000
BEHIND
1070
     0
1002
}
1002
{
1000
OTHER
1070
     0
1002
}
1002
{
1000
REACTOR
1002
}
1001
GENIUS_GENOLIS_13
1002
{
1000
ENT
1005
46F7
1005
46F6
1005
46F5
1005
46F4
1002
}
1001
GENIUS_GENOENT_13
1002
{
1000
MYREF
1005
46F8
1002
}
1002
{
1000
GRP
1005
0
1002
}
1001
GENIUS_GENOBJ-N-CRS_13
1002
{
1000
OWNER
1000
GEN
1002
}
  0
ENDSEC
  0
SECTION
  2
OBJECTS
  0
DICTIONARY
  5
C
330
0
100
AcDbDictionary
281
     1
  3
ACAD_COLOR
350
8FD
  3
ACAD_GROUP
350
D
  3
ACAD_LAYOUT
350
1A
  3
ACAD_MATERIAL
350
8FC
  3
ACAD_MLINESTYLE
350
17
  3
ACAD_PLOTSETTINGS
350
19
  3
ACAD_PLOTSTYLENAME
350
E
  3
ACAD_TABLESTYLE
350
8FE
  3
ACDBHEADERROUNDTRIPXREC
350
4841
  3
AcDbVariableDictionary
350
82
  3
AcmDictionary
350
45
  3
AMG
350
2B
  3
AMGSNAPSETTINGS
350
2026
  3
DWGPROPS
350
4840
  0
DICTIONARY
  5
E05
330
2
100
AcDbDictionary
280
     1
281
     1
  3
ACAD_LAYERFILTERS
360
E57
  3
ACAD_LAYERSTATES
360
E80
  3
ACLYDICTIONARY
360
E56
  3
AMLAYER_GROUPCOLORS
360
1991
  0
DICTIONARY
  5
7D
330
1F
100
AcDbDictionary
280
     1
281
     1
  3
ACAD_SORTENTS
360
19C4
  0
DICTIONARY
  5
8FD
102
{ACAD_REACTORS
330
C
102
}
330
C
100
AcDbDictionary
281
     1
  0
DICTIONARY
  5
D
102
{ACAD_REACTORS
330
C
102
}
330
C
100
AcDbDictionary
281
     1
  0
DICTIONARY
  5
1A
102
{ACAD_REACTORS
330
C
102
}
330
C
100
AcDbDictionary
281
     1
  3
Layout1
350
1E
  3
Layout2
350
26
  3
Model
350
22
  0
DICTIONARY
  5
8FC
102
{ACAD_REACTORS
330
C
102
}
330
C
100
AcDbDictionary
281
     1
  0
DICTIONARY
  5
17
102
{ACAD_REACTORS
330
C
102
}
330
C
100
AcDbDictionary
281
     1
  3
Standard
350
18
  0
DICTIONARY
  5
19
102
{ACAD_REACTORS
330
C
102
}
330
C
100
AcDbDictionary
281
     1
  0
ACDBDICTIONARYWDFLT
  5
E
102
{ACAD_REACTORS
330
C
102
}
330
C
100
AcDbDictionary
281
     1
  3
Normal
350
F
100
AcDbDictionaryWithDefault
340
F
  0
DICTIONARY
  5
8FE
102
{ACAD_REACTORS
330
C
102
}
330
C
100
AcDbDictionary
281
     1
  3
Standard
350
8FF
  0
DICTIONARY
  5
4841
102
{ACAD_REACTORS
330
C
102
}
330
C
100
AcDbDictionary
281
     1
  0
DICTIONARY
  5
82
102
{ACAD_REACTORS
330
C
102
}
330
C
100
AcDbDictionary
281
     1
  3
CTABLESTYLE
350
972
  3
DIMASSOC
350
85
  3
HIDETEXT
350
84
  3
INDEXCTL
350
83
  3
PROJECTNAME
350
973
  0
DICTIONARY
  5
45
102
{ACAD_REACTORS
330
C
102
}
330
C
100
AcDbDictionary
281
     1
  3
AcmStdDictionary
350
4A
  3
AMDTSECTSYM_ARROWCOLOR
350
90B
  0
DICTIONARY
  5
2B
102
{ACAD_REACTORS
330
C
102
}
330
C
100
AcDbDictionary
281
     1
  0
DICTIONARY
  5
2026
102
{ACAD_REACTORS
330
C
102
}
330
C
100
AcDbDictionary
281
     1
  0
XRECORD
  5
4840
102
{ACAD_REACTORS
330
C
102
}
330
C
100
AcDbXrecord
280
     1
  1
DWGPROPS COOKIE
  2

  3

  4

  6

  7

  8

  9

300
AmdtFileType=84
301
=
302
=
303
=
304
=
305
=
306
=
307
=
308
=
309
=
 40
0.4456314236111111
 41
2453021.369367211
 42
2453805.583299872
  1

 90
        1
  0
DICTIONARY
  5
E57
102
{ACAD_REACTORS
330
E05
102
}
330
E05
100
AcDbDictionary
281
     1
  0
DICTIONARY
  5
E80
102
{ACAD_REACTORS
330
E05
102
}
330
E05
100
AcDbDictionary
281
     1
  0
DICTIONARY
  5
E56
102
{ACAD_REACTORS
330
E05
102
}
330
E05
100
AcDbDictionary
281
     1
1001
ACAD
1000
<All
  0
DICTIONARY
  5
1991
102
{ACAD_REACTORS
330
E05
102
}
330
E05
100
AcDbDictionary
280
     1
281
     1
  0
SORTENTSTABLE
  5
19C4
102
{ACAD_REACTORS
330
7D
102
}
330
7D
100
AcDbSortentsTable
330
1F
331
AE3
  5
AE3
  0
LAYOUT
  5
1E
102
{ACAD_XDICTIONARY
360
4842
102
}
102
{ACAD_REACTORS
330
1A
102
}
330
1A
100
AcDbPlotSettings
  1

  2
自動 RD 上的 Epson Stylus Photo 750 單色
  4

  6

 40
0.0
 41
0.0
 42
0.0
 43
0.0
 44
0.0
 45
0.0
 46
0.0
 47
0.0
 48
0.0
 49
0.0
140
0.0
141
0.0
142
1.0
143
1.0
 70
   688
 72
     0
 73
     0
 74
     5
  7
彩色出圖.ctb
 75
    16
147
1.0
148
0.0
149
0.0
100
AcDbLayout
  1
Layout1
 70
     1
 71
     1
 10
0.0
 20
0.0
 11
420.0
 21
297.0
 12
0.0
 22
0.0
 32
0.0
 14
1.000000000000000E+20
 24
1.000000000000000E+20
 34
1.000000000000000E+20
 15
-1.000000000000000E+20
 25
-1.000000000000000E+20
 35
-1.000000000000000E+20
146
0.0
 13
0.0
 23
0.0
 33
0.0
 16
1.0
 26
0.0
 36
0.0
 17
0.0
 27
1.0
 37
0.0
 76
     0
330
1B
  0
LAYOUT
  5
26
102
{ACAD_XDICTIONARY
360
4846
102
}
102
{ACAD_REACTORS
330
1A
102
}
330
1A
100
AcDbPlotSettings
  1

  2
自動 RD 上的 Epson Stylus Photo 750 單色
  4

  6

 40
0.0
 41
0.0
 42
0.0
 43
0.0
 44
0.0
 45
0.0
 46
0.0
 47
0.0
 48
0.0
 49
0.0
140
0.0
141
0.0
142
1.0
143
1.0
 70
   688
 72
     0
 73
     0
 74
     5
  7
彩色出圖.ctb
 75
    16
147
1.0
148
0.0
149
0.0
100
AcDbLayout
  1
Layout2
 70
     1
 71
     2
 10
0.0
 20
0.0
 11
12.0
 21
9.0
 12
0.0
 22
0.0
 32
0.0
 14
0.0
 24
0.0
 34
0.0
 15
0.0
 25
0.0
 35
0.0
146
0.0
 13
0.0
 23
0.0
 33
0.0
 16
1.0
 26
0.0
 36
0.0
 17
0.0
 27
1.0
 37
0.0
 76
     0
330
23
  0
LAYOUT
  5
22
102
{ACAD_XDICTIONARY
360
4844
102
}
102
{ACAD_REACTORS
330
1A
102
}
330
1A
100
AcDbPlotSettings
  1

  2
自動 RD 上的 Epson Stylus Photo 750 單色
  4
A4
  6

 40
3.757083177566528
 41
14.7637300491333
 42
3.757080078125
 43
3.757080078125
 44
209.9733276367187
 45
296.9683227539062
 46
7.54
 47
0.0
 48
0.0
 49
0.0
140
0.0
141
0.0
142
1.0
143
1.817317462545654
 70
 11956
 72
     1
 73
     0
 74
     1
  7
彩色出圖.ctb
 75
     0
147
0.5502615919395967
148
-125.5654918467224
149
222.8859553785132
100
AcDbLayout
  1
Model
 70
     1
 71
     0
 10
0.0
 20
0.0
 11
12.0
 21
9.0
 12
0.0
 22
0.0
 32
0.0
 14
0.0
 24
0.0
 34
0.0
 15
0.0
 25
0.0
 35
0.0
146
0.0
 13
0.0
 23
0.0
 33
0.0
 16
1.0
 26
0.0
 36
0.0
 17
0.0
 27
1.0
 37
0.0
 76
     0
330
1F
  0
MLINESTYLE
  5
18
102
{ACAD_REACTORS
330
17
102
}
330
17
100
AcDbMlineStyle
  2
STANDARD
 70
     0
  3

 62
   256
 51
90.0
 52
90.0
 71
     2
 49
0.5
 62
   256
  6
BYLAYER
 49
-0.5
 62
   256
  6
BYLAYER
  0
ACDBPLACEHOLDER
  5
F
102
{ACAD_REACTORS
330
E
102
}
330
E
  0
TABLESTYLE
  5
8FF
102
{ACAD_REACTORS
330
8FE
102
}
330
8FE
100
AcDbTableStyle
  3
Standard
 70
     0
 71
     0
 40
1.5
 41
1.5
280
     0
281
     0
  7
STANDARD
140
4.5
170
     2
 62
     0
 63
     7
283
     0
274
    -2
284
     1
 64
     0
275
    -2
285
     1
 65
     0
276
    -2
286
     1
 66
     0
277
    -2
287
     1
 67
     0
278
    -2
288
     1
 68
     0
279
    -2
289
     1
 69
     0
  7
STANDARD
140
6.0
170
     5
 62
     0
 63
     7
283
     0
274
    -2
284
     1
 64
     0
275
    -2
285
     1
 65
     0
276
    -2
286
     1
 66
     0
277
    -2
287
     1
 67
     0
278
    -2
288
     1
 68
     0
279
    -2
289
     1
 69
     0
  7
STANDARD
140
4.5
170
     5
 62
     0
 63
     7
283
     0
274
    -2
284
     1
 64
     0
275
    -2
285
     1
 65
     0
276
    -2
286
     1
 66
     0
277
    -2
287
     1
 67
     0
278
    -2
288
     1
 68
     0
279
    -2
289
     1
 69
     0
  0
DICTIONARYVAR
  5
972
102
{ACAD_REACTORS
330
82
102
}
330
82
100
DictionaryVariables
280
     0
  1
STANDARD
  0
DICTIONARYVAR
  5
85
102
{ACAD_REACTORS
330
82
102
}
330
82
100
DictionaryVariables
280
     0
  1
2
  0
DICTIONARYVAR
  5
84
102
{ACAD_REACTORS
330
82
102
}
330
82
100
DictionaryVariables
280
     0
  1
1
  0
DICTIONARYVAR
  5
83
102
{ACAD_REACTORS
330
82
102
}
330
82
100
DictionaryVariables
280
     0
  1
0
  0
DICTIONARYVAR
  5
973
102
{ACAD_REACTORS
330
82
102
}
330
82
100
DictionaryVariables
280
     0
  1

  0
DICTIONARY
  5
4A
102
{ACAD_REACTORS
330
45
102
}
330
45
100
AcDbDictionary
281
     1
  0
XRECORD
  5
90B
102
{ACAD_REACTORS
330
45
102
}
330
45
100
AcDbXrecord
280
     1
 90
-1023410169
  0
DICTIONARY
  5
4842
330
1E
100
AcDbDictionary
280
     1
281
     1
  3
ACAD_XREC_ROUNDTRIP
360
4843
  0
DICTIONARY
  5
4846
330
26
100
AcDbDictionary
280
     1
281
     1
  3
ACAD_XREC_ROUNDTRIP
360
4847
  0
DICTIONARY
  5
4844
330
22
100
AcDbDictionary
280
     1
281
     1
  3
ACAD_XREC_ROUNDTRIP
360
4845
  0
XRECORD
  5
4843
102
{ACAD_REACTORS
330
4842
102
}
330
4842
100
AcDbXrecord
280
     1
102
SHADEPLOT
 70
     0
102
SHADEPLOTRESLEVEL
 70
     2
102
SHADEPLOTCUSTOMDPI
 70
   300
  0
XRECORD
  5
4847
102
{ACAD_REACTORS
330
4846
102
}
330
4846
100
AcDbXrecord
280
     1
102
SHADEPLOT
 70
     0
102
SHADEPLOTRESLEVEL
 70
     2
102
SHADEPLOTCUSTOMDPI
 70
   300
  0
XRECORD
  5
4845
102
{ACAD_REACTORS
330
4844
102
}
330
4844
100
AcDbXrecord
280
     1
102
SHADEPLOT
 70
     0
102
SHADEPLOTRESLEVEL
 70
     2
102
SHADEPLOTCUSTOMDPI
 70
   300
  0
ENDSEC
  0
EOF
