  0
SECTION
  2
HEADER
  9
$ACADVER
  1
AC1015
  9
$ACADMAINTVER
 70
    20
  9
$DWGCODEPAGE
  3
ANSI_950
  9
$INSBASE
 10
0.0
 20
0.0
 30
0.0
  9
$EXTMIN
 10
906.9140925362061
 20
1267.231444488287
 30
-0.0178404891493074
  9
$EXTMAX
 10
1506.917213089588
 20
1703.696854139491
 30
285.8699478039907
  9
$LIMMIN
 10
0.0
 20
0.0
  9
$LIMMAX
 10
420.0
 20
297.0
  9
$ORTHOMODE
 70
     0
  9
$REGENMODE
 70
     1
  9
$FILLMODE
 70
     1
  9
$QTEXTMODE
 70
     0
  9
$MIRRTEXT
 70
     1
  9
$LTSCALE
 40
1.0
  9
$ATTMODE
 70
     1
  9
$TEXTSIZE
 40
3.0
  9
$TRACEWID
 40
1.0
  9
$TEXTSTYLE
  7
CHINESET
  9
$CLAYER
  8
0
  9
$CELTYPE
  6
ByLayer
  9
$CECOLOR
 62
   256
  9
$CELTSCALE
 40
1.0
  9
$DISPSILH
 70
     0
  9
$DIMSCALE
 40
1.0
  9
$DIMASZ
 40
3.5
  9
$DIMEXO
 40
1.0
  9
$DIMDLI
 40
8.0
  9
$DIMRND
 40
0.0
  9
$DIMDLE
 40
0.0
  9
$DIMEXE
 40
1.5
  9
$DIMTP
 40
0.1
  9
$DIMTM
 40
0.1
  9
$DIMTXT
 40
4.0
  9
$DIMCEN
 40
3.0
  9
$DIMTSZ
 40
0.0
  9
$DIMTOL
 70
     0
  9
$DIMLIM
 70
     0
  9
$DIMTIH
 70
     0
  9
$DIMTOH
 70
     0
  9
$DIMSE1
 70
     0
  9
$DIMSE2
 70
     0
  9
$DIMTAD
 70
     1
  9
$DIMZIN
 70
     8
  9
$DIMBLK
  1

  9
$DIMASO
 70
     1
  9
$DIMSHO
 70
     1
  9
$DIMPOST
  1

  9
$DIMAPOST
  1
"
  9
$DIMALT
 70
     0
  9
$DIMALTD
 70
     2
  9
$DIMALTF
 40
0.0393701
  9
$DIMLFAC
 40
1.0
  9
$DIMTOFL
 70
     1
  9
$DIMTVP
 40
0.0
  9
$DIMTIX
 70
     0
  9
$DIMSOXD
 70
     0
  9
$DIMSAH
 70
     0
  9
$DIMBLK1
  1

  9
$DIMBLK2
  1

  9
$DIMSTYLE
  2
AM_ISO
  9
$DIMCLRD
 70
   256
  9
$DIMCLRE
 70
   256
  9
$DIMCLRT
 70
   256
  9
$DIMTFAC
 40
0.71
  9
$DIMGAP
 40
0.8
  9
$DIMJUST
 70
     0
  9
$DIMSD1
 70
     0
  9
$DIMSD2
 70
     0
  9
$DIMTOLJ
 70
     0
  9
$DIMTZIN
 70
     8
  9
$DIMALTZ
 70
     0
  9
$DIMALTTZ
 70
     0
  9
$DIMUPT
 70
     0
  9
$DIMDEC
 70
     2
  9
$DIMTDEC
 70
     8
  9
$DIMALTU
 70
     2
  9
$DIMALTTD
 70
     2
  9
$DIMTXSTY
  7
STANDARD
  9
$DIMAUNIT
 70
     0
  9
$DIMADEC
 70
     0
  9
$DIMALTRND
 40
0.0
  9
$DIMAZIN
 70
     2
  9
$DIMDSEP
 70
    46
  9
$DIMATFIT
 70
     3
  9
$DIMFRAC
 70
     0
  9
$DIMLDRBLK
  1

  9
$DIMLUNIT
 70
     2
  9
$DIMLWD
 70
    -1
  9
$DIMLWE
 70
    -1
  9
$DIMTMOVE
 70
     0
  9
$LUNITS
 70
     2
  9
$LUPREC
 70
     2
  9
$SKETCHINC
 40
1.0
  9
$FILLETRAD
 40
2.5
  9
$AUNITS
 70
     0
  9
$AUPREC
 70
     0
  9
$MENU
  1
.
  9
$ELEVATION
 40
0.0
  9
$PELEVATION
 40
0.0
  9
$THICKNESS
 40
0.0
  9
$LIMCHECK
 70
     0
  9
$CHAMFERA
 40
2.5
  9
$CHAMFERB
 40
2.5
  9
$CHAMFERC
 40
20.0
  9
$CHAMFERD
 40
0.0
  9
$SKPOLY
 70
     0
  9
$TDCREATE
 40
2453021.369367211
  9
$TDUCREATE
 40
2453021.036033877
  9
$TDUPDATE
 40
2453805.584367222
  9
$TDUUPDATE
 40
2453805.251033889
  9
$TDINDWG
 40
0.4632688657
  9
$TDUSRTIMER
 40
0.4632685185
  9
$USRTIMER
 70
     1
  9
$ANGBASE
 50
0.0
  9
$ANGDIR
 70
     0
  9
$PDMODE
 70
     0
  9
$PDSIZE
 40
0.0
  9
$PLINEWID
 40
0.0
  9
$SPLFRAME
 70
     0
  9
$SPLINETYPE
 70
     6
  9
$SPLINESEGS
 70
     8
  9
$HANDSEED
  5
5CC1
  9
$SURFTAB1
 70
     6
  9
$SURFTAB2
 70
     6
  9
$SURFTYPE
 70
     6
  9
$SURFU
 70
     6
  9
$SURFV
 70
     6
  9
$UCSBASE
  2

  9
$UCSNAME
  2

  9
$UCSORG
 10
0.0
 20
0.0
 30
0.0
  9
$UCSXDIR
 10
1.0
 20
0.0
 30
0.0
  9
$UCSYDIR
 10
0.0
 20
1.0
 30
0.0
  9
$UCSORTHOREF
  2

  9
$UCSORTHOVIEW
 70
     0
  9
$UCSORGTOP
 10
0.0
 20
0.0
 30
0.0
  9
$UCSORGBOTTOM
 10
0.0
 20
0.0
 30
0.0
  9
$UCSORGLEFT
 10
0.0
 20
0.0
 30
0.0
  9
$UCSORGRIGHT
 10
0.0
 20
0.0
 30
0.0
  9
$UCSORGFRONT
 10
0.0
 20
0.0
 30
0.0
  9
$UCSORGBACK
 10
0.0
 20
0.0
 30
0.0
  9
$PUCSBASE
  2

  9
$PUCSNAME
  2

  9
$PUCSORG
 10
0.0
 20
0.0
 30
0.0
  9
$PUCSXDIR
 10
1.0
 20
0.0
 30
0.0
  9
$PUCSYDIR
 10
0.0
 20
1.0
 30
0.0
  9
$PUCSORTHOREF
  2

  9
$PUCSORTHOVIEW
 70
     0
  9
$PUCSORGTOP
 10
0.0
 20
0.0
 30
0.0
  9
$PUCSORGBOTTOM
 10
0.0
 20
0.0
 30
0.0
  9
$PUCSORGLEFT
 10
0.0
 20
0.0
 30
0.0
  9
$PUCSORGRIGHT
 10
0.0
 20
0.0
 30
0.0
  9
$PUCSORGFRONT
 10
0.0
 20
0.0
 30
0.0
  9
$PUCSORGBACK
 10
0.0
 20
0.0
 30
0.0
  9
$USERI1
 70
     0
  9
$USERI2
 70
     0
  9
$USERI3
 70
     0
  9
$USERI4
 70
     0
  9
$USERI5
 70
     0
  9
$USERR1
 40
0.0
  9
$USERR2
 40
0.0
  9
$USERR3
 40
0.0
  9
$USERR4
 40
0.0
  9
$USERR5
 40
0.0
  9
$WORLDVIEW
 70
     1
  9
$SHADEDGE
 70
     3
  9
$SHADEDIF
 70
    70
  9
$TILEMODE
 70
     1
  9
$MAXACTVP
 70
    64
  9
$PINSBASE
 10
0.0
 20
0.0
 30
0.0
  9
$PLIMCHECK
 70
     0
  9
$PEXTMIN
 10
1.000000000000000E+20
 20
1.000000000000000E+20
 30
1.000000000000000E+20
  9
$PEXTMAX
 10
-1.000000000000000E+20
 20
-1.000000000000000E+20
 30
-1.000000000000000E+20
  9
$PLIMMIN
 10
0.0
 20
0.0
  9
$PLIMMAX
 10
420.0
 20
297.0
  9
$UNITMODE
 70
     0
  9
$VISRETAIN
 70
     1
  9
$PLINEGEN
 70
     0
  9
$PSLTSCALE
 70
     1
  9
$TREEDEPTH
 70
  3020
  9
$CMLSTYLE
  2
Standard
  9
$CMLJUST
 70
     0
  9
$CMLSCALE
 40
20.0
  9
$PROXYGRAPHICS
 70
     1
  9
$MEASUREMENT
 70
     1
  9
$CELWEIGHT
370
    -1
  9
$ENDCAPS
280
     0
  9
$JOINSTYLE
280
     0
  9
$LWDISPLAY
290
     0
  9
$INSUNITS
 70
     4
  9
$HYPERLINKBASE
  1

  9
$STYLESHEET
  1
彩色出圖.ctb
  9
$XEDIT
290
     1
  9
$CEPSNTYPE
380
     0
  9
$PSTYLEMODE
290
     1
  9
$FINGERPRINTGUID
  2
{6C02722A-18D3-491A-897A-B8025DE410A9}
  9
$VERSIONGUID
  2
{82529036-71A5-4EEA-B88A-68EF0D6DD4C2}
  9
$EXTNAMES
290
     1
  9
$PSVPSCALE
 40
0.0
  9
$OLESTARTUP
290
     0
  0
ENDSEC
  0
SECTION
  2
CLASSES
  0
CLASS
  1
ACDBDICTIONARYWDFLT
  2
AcDbDictionaryWithDefault
  3
ObjectDBX Classes
 90
        0
280
     0
281
     0
  0
CLASS
  1
ACDBPLACEHOLDER
  2
AcDbPlaceHolder
  3
ObjectDBX Classes
 90
        0
280
     0
281
     0
  0
CLASS
  1
LAYOUT
  2
AcDbLayout
  3
ObjectDBX Classes
 90
        0
280
     0
281
     0
  0
CLASS
  1
AMGSETTINGSOBJ
  2
AmgSettingsObj
  3
"AcadM|Product Description: AutoCAD Mechanical 2000|Company: Autodesk"
 90
        0
280
     0
281
     0
  0
CLASS
  1
ACME_DOCUMENT
  2
AcMeDbDoc
  3
AcMeServices
 90
        0
280
     0
281
     0
  0
CLASS
  1
ACMESCOPE
  2
AcMeScope
  3
AcMeServices
 90
        0
280
     0
281
     0
  0
CLASS
  1
ACMECOMMANDHISTORY
  2
AcMeCommandHistory
  3
AcMeServices
 90
        0
280
     0
281
     0
  0
CLASS
  1
ACIMSYSVARMAN
  2
AcImSysVarManager
  3
AcMeServices
 90
        0
280
     0
281
     0
  0
CLASS
  1
ACIMREALSYSVAR
  2
AcImRealSysVar
  3
AcMeServices
 90
        0
280
     0
281
     0
  0
CLASS
  1
ACIMINTSYSVAR
  2
AcImIntSysVar
  3
AcMeServices
 90
        0
280
     0
281
     0
  0
CLASS
  1
ACMEDRAWINGMAN
  2
AcMeDrawingMan
  3
AcMeServices
 90
        0
280
     0
281
     0
  0
CLASS
  1
ACMEVIEW
  2
AcMeView
  3
AcMeServices
 90
        0
280
     0
281
     0
  0
CLASS
  1
ACDBENTITYCACHE
  2
AcMeEntityCache
  3
AcMeServices
 90
        0
280
     0
281
     0
  0
CLASS
  1
GSMANAGER
  2
AcMeGSManager
  3
AcMeServices
 90
        0
280
     0
281
     0
  0
CLASS
  1
AMDTINTERNALREACTOR
  2
AmdtInternalReactor
  3
AcMeServices
 90
        0
280
     0
281
     0
  0
CLASS
  1
ACMESTATEMGR
  2
AcMeStateMgr
  3
AcMeServices
 90
        0
280
     0
281
     0
  0
CLASS
  1
ACGREFMASTER
  2
AcGrefMaster
  3
AcAttribServices
 90
        0
280
     0
281
     0
  0
CLASS
  1
ACME_DATABASE
  2
AcMeDbDatabase
  3
AcMeServices
 90
        0
280
     0
281
     0
  0
CLASS
  1
ACRFINSADJUSTERMGR
  2
AcRfInsAdjusterMgr
  3
AcMeServices
 90
        0
280
     0
281
     0
  0
CLASS
  1
ACGREFACADMASTER
  2
AcGrefacadMaster
  3
AcGrefServices
 90
        0
280
     0
281
     0
  0
CLASS
  1
AMIMASTER
  2
AmiMaster
  3
AmiServices
 90
        0
280
     0
281
     0
  0
CLASS
  1
ACMDATADICTIONARY
  2
AcmDataDictionary
  3
"AcmSymBB|Product Description: AutoCAD Mechanical 2004 DX|Company: Autodesk"
 90
        0
280
     0
281
     0
  0
CLASS
  1
ACMDATAENTRYBLOCK
  2
AcmDataEntryBlock
  3
"AcmSymBB|Product Description: AutoCAD Mechanical 2004 DX|Company: Autodesk"
 90
    32768
280
     0
281
     0
  0
CLASS
  1
ACIMSTRSYSVAR
  2
AcImStrSysVar
  3
AcMeServices
 90
        0
280
     0
281
     0
  0
CLASS
  1
ACMSTANDARDISO
  2
AcmStandardISO
  3
"Amdt_StdImp|Product Description: AutoCAD Mechanical 2004 DX|Company: Autodesk"
 90
        0
280
     0
281
     0
  0
CLASS
  1
AMGOBJPROPCFG
  2
AmgObjPropCfg
  3
"AmgLay|Product Description: AutoCAD Mechanical 2000|Company: Autodesk"
 90
        1
280
     0
281
     0
  0
CLASS
  1
AMDTEDGESTANDARDISO
  2
AmdtEdgeStdISO
  3
"Amdt_StdImp|Product Description: AutoCAD Mechanical 2004 DX|Company: Autodesk"
 90
    32768
280
     0
281
     0
  0
CLASS
  1
ACMSURFSTANDARDISO
  2
AcmSurfTextStdISO
  3
"Amdt_StdImp|Product Description: AutoCAD Mechanical 2004 DX|Company: Autodesk"
 90
        0
280
     0
281
     0
  0
CLASS
  1
ACMFCFSTANDARDISO
  2
AcmFCFStdISO
  3
"Amdt_StdImp|Product Description: AutoCAD Mechanical 2004 DX|Company: Autodesk"
 90
        0
280
     0
281
     0
  0
CLASS
  1
ACMWELDSTANDARDISO
  2
AcmWeldingStdISO
  3
"Amdt_StdImp|Product Description: AutoCAD Mechanical 2004 DX|Company: Autodesk"
 90
        0
280
     0
281
     0
  0
CLASS
  1
ACMIDSTANDARDISO
  2
AcmIdStdISO
  3
"Amdt_StdImp|Product Description: AutoCAD Mechanical 2004 DX|Company: Autodesk"
 90
        0
280
     0
281
     0
  0
CLASS
  1
ACMDATUMSTANDARDISO
  2
AcmDatumStdISO
  3
"Amdt_StdImp|Product Description: AutoCAD Mechanical 2004 DX|Company: Autodesk"
 90
        0
280
     0
281
     0
  0
CLASS
  1
ACMBOMSTANDARDISO
  2
AcmBOMStdISO
  3
"Amdt_StdImp|Product Description: AutoCAD Mechanical 2004 DX|Company: Autodesk"
 90
        0
280
     0
281
     0
  0
CLASS
  1
ACMDETAILSTANDARDISO
  2
AmdtDetailSymStdISO
  3
"Amdt_StdImp|Product Description: AutoCAD Mechanical 2004 DX|Company: Autodesk"
 90
        0
280
     0
281
     0
  0
CLASS
  1
ACMSECTIONSTANDARDISO
  2
AmdtSectionSymStdISO
  3
"Amdt_StdImp|Product Description: AutoCAD Mechanical 2004 DX|Company: Autodesk"
 90
        0
280
     0
281
     0
  0
CLASS
  1
ACMCENTERLINESTANDARDISO
  2
AmdtCenterLineStdISO
  3
"Amdt_StdImp|Product Description: AutoCAD Mechanical 2004 DX|Company: Autodesk"
 90
        0
280
     0
281
     0
  0
CLASS
  1
ACMNOTESTANDARDISO
  2
AmdtNoteStdISO
  3
"Amdt_StdImp|Product Description: AutoCAD Mechanical 2004 DX|Company: Autodesk"
 90
        0
280
     0
281
     0
  0
CLASS
  1
ACAMGLAYSTD
  2
AcAmgLayStd
  3
"AcAmgLayStd|Product Description: AutoCAD Mechanical 2000|Company: Autodesk"
 90
        0
280
     0
281
     0
  0
CLASS
  1
ACAMGDIMSTD
  2
AcAmgDimStd
  3
"AcAmgDimStd|Product Description: AutoCAD Mechanical 2000|Company: Autodesk"
 90
        0
280
     0
281
     0
  0
CLASS
  1
ACAMGHOLECHARTSTDISO
  2
AcAmgHoleChartStdISO
  3
ACMSYMBB_MODULE_NAME
 90
        0
280
     0
281
     0
  0
CLASS
  1
ACAMGTITLESTD
  2
AcAmgTitleStd
  3
"TITLEAPP"
 90
        0
280
     0
281
     0
  0
CLASS
  1
LAYER_INDEX
  2
AcDbLayerIndex
  3
ObjectDBX Classes
 90
    32768
280
     0
281
     0
  0
CLASS
  1
IDBUFFER
  2
AcDbIdBuffer
  3
ObjectDBX Classes
 90
    32768
280
     0
281
     0
  0
CLASS
  1
DICTIONARYVAR
  2
AcDbDictionaryVar
  3
ObjectDBX Classes
 90
        0
280
     0
281
     0
  0
CLASS
  1
ACAMGFILTERDAT
  2
AcAmgFilterDat
  3
"AcadM|Product Description: AutoCAD Mechanical 2000|Company: Autodesk"
 90
        0
280
     0
281
     0
  0
CLASS
  1
AMDTFORMULAUPDATEDISPATCHER
  2
AmdtFormulaUpdateDispatcher
  3
AcMeServices
 90
    32768
280
     0
281
     0
  0
CLASS
  1
DIMASSOC
  2
AcDbDimAssoc
  3
"AcDbDimAssoc|Product Desc:     AcDim ARX App For Dimension|Company:          Autodesk, Inc.|WEB Address:      www.autodesk.com"
 90
    32768
280
     0
281
     0
  0
CLASS
  1
AMDTNOTE
  2
AmdtNote
  3
"AcmSymBB|Product Description: AutoCAD Mechanical 2004 DX|Company: Autodesk"
 90
    33791
280
     0
281
     1
  0
CLASS
  1
TABLESTYLE
  2
AcDbTableStyle
  3
ObjectDBX Classes
 90
     2047
280
     0
281
     0
  0
CLASS
  1
AM_DRAWING_MGR
  2
AcDmDwgMgr
  3
AcMechDwgViewMgmt
 90
        0
280
     0
281
     0
  0
CLASS
  1
AM_DWG_DOCUMENT
  2
AcDmDwgDocument
  3
AcMechDwgViewMgmt
 90
        0
280
     0
281
     0
  0
CLASS
  1
AM_DWG_SHEET
  2
AcDmSheet
  3
AcMechDwgViewMgmt
 90
        0
280
     0
281
     0
  0
CLASS
  1
AM_VIEWDIMPARMAP
  2
AcDmViewDimParMap
  3
AcMechDwgViewMgmt
 90
        0
280
     0
281
     0
  0
CLASS
  1
AM_DWGMGR_NAME
  2
AcDmDwgMgrName
  3
AcMechDwgViewMgmt
 90
        0
280
     0
281
     0
  0
CLASS
  1
AMDTMENUSTATEMGR
  2
AmdtMenuStateMgr
  3
McadcomServices
 90
        0
280
     0
281
     0
  0
CLASS
  1
AMDTMCOMMENUSTATE
  2
AmdtMcomMenuState
  3
McadcomServices
 90
        0
280
     0
281
     0
  0
CLASS
  1
MAPIAMMOUDLE
  2
MApiAmModule
  3
MApiAmServices
 90
        0
280
     0
281
     0
  0
CLASS
  1
AMDTADMENUSTATE
  2
AmdtAdMenuState
  3
DesignerServices
 90
        0
280
     0
281
     0
  0
CLASS
  1
ADAPPL
  2
AcAdAppl
  3
DesignerServices
 90
        0
280
     0
281
     0
  0
CLASS
  1
DEPMGR
  2
AcAdDepMgr
  3
DesignerServices
 90
        0
280
     0
281
     0
  0
CLASS
  1
PARAMMGR
  2
AcAdParamMgr
  3
DesignerServices
 90
        0
280
     0
281
     0
  0
CLASS
  1
PARAMSCOPE
  2
AcAdParamScope
  3
DesignerServices
 90
        0
280
     0
281
     0
  0
CLASS
  1
NAMEDAPPL
  2
AcAdNamedAppl
  3
DesignerServices
 90
        0
280
     0
281
     0
  0
CLASS
  1
AMDTDMMENUSTATE
  2
AmdtDmMenuState
  3
AcMechDwgViewMgmt
 90
        0
280
     0
281
     0
  0
CLASS
  1
AMDTAMMENUSTATE
  2
AmdtAmMenuState
  3
DesignerAssemblies
 90
        0
280
     0
281
     0
  0
CLASS
  1
ACAMPROJECT
  2
AcAmProject
  3
DesignerAssemblies
 90
        0
280
     0
281
     0
  0
CLASS
  1
ACAMGRCOMPDEF
  2
AcAmGrCompDef
  3
DesignerAssemblies
 90
        0
280
     0
281
     0
  0
CLASS
  1
ACCMCONTEXT
  2
AcCmContext
  3
DesignerAssemblies
 90
        0
280
     0
281
     0
  0
CLASS
  1
ACAMCOMPDEF
  2
AcAmCompDef
  3
DesignerAssemblies
 90
        0
280
     0
281
     0
  0
CLASS
  1
ACAMCOMPDEFMGR
  2
AcAmCompDefMgr
  3
DesignerAssemblies
 90
        0
280
     0
281
     0
  0
CLASS
  1
AMCONTEXTMGR
  2
AcAmContextMgr
  3
DesignerAssemblies
 90
        0
280
     0
281
     0
  0
CLASS
  1
ACAMCONTEXTMODELER
  2
AcAmContextModeler
  3
DesignerAssemblies
 90
        0
280
     0
281
     0
  0
CLASS
  1
ACMTHREADLINESTANDARDISO
  2
AmdtThreadLineStdISO
  3
"Amdt_StdImp|Product Description: AutoCAD Mechanical 2004 DX|Company: Autodesk"
 90
        0
280
     0
281
     0
  0
CLASS
  1
CATALOGSTATE
  2
AcAmCatalogState
  3
DesignerAssemblies
 90
        0
280
     0
281
     0
  0
CLASS
  1
ACAMGRCOMPDEFSET
  2
AcAmGrCompDefSet
  3
DesignerAssemblies
 90
        0
280
     0
281
     0
  0
CLASS
  1
AMDTBROWSERDBTAB
  2
AmdtBrowserDbTab
  3
McadcomServices
 90
        0
280
     0
281
     0
  0
CLASS
  1
CBROWSERAPPOBJECT
  2
CBrowserAppObject
  3
McadcomServices
 90
        0
280
     0
281
     0
  0
CLASS
  1
DM_PLACEHOLDER
  2
AcDmSelsetPlaceholder
  3
AcMechDwgViewMgmt
 90
        0
280
     0
281
     0
  0
CLASS
  1
VAACXREFPANELOBJECT
  2
VaAcXREFPanelObject
  3
VAAC_ADDIN
 90
    32768
280
     0
281
     0
  0
CLASS
  1
VAACIMAGEINVENTORY
  2
VaAcImageInventory
  3
VAAC_ADDIN
 90
    32768
280
     0
281
     0
  0
CLASS
  1
AMDTEDGESTANDARDISO13715
  2
AmdtEdgeStdISO13715
  3
"Amdt_StdImp|Product Description: AutoCAD Mechanical 2004 DX|Company: Autodesk"
 90
        0
280
     0
281
     0
  0
CLASS
  1
AMDTNOTETEMPLATEDB
  2
AmdtNoteTemplateDB
  3
AMDT_STDIMP_MODULE_NAME
 90
        0
280
     0
281
     0
  0
CLASS
  1
ACRFATTGENMGR
  2
AcRfAttGeneralMgr
  3
AcAttribServices
 90
        0
280
     0
281
     0
  0
CLASS
  1
STDPART2D
  2
AmgStdPart
  3
"AmgStdPart|Product Description: AutoCAD Mechanical 2000|Company: Autodesk"
 90
    33791
280
     0
281
     1
  0
CLASS
  1
ACAMSTDPCOMPDEF
  2
AcAmStdpCompDef
  3
DesignerAssemblies
 90
    32768
280
     0
281
     0
  0
CLASS
  1
ACRFOBJATTMGR
  2
AcRfObjAttGroupMgr
  3
AcAttribServices
 90
    32768
280
     0
281
     0
  0
CLASS
  1
ACRFMCADAPIATTHOLDER
  2
AcRfMCADAPIAttHolder
  3
AcAttribServices
 90
    32768
280
     0
281
     0
  0
CLASS
  1
AMDTSYSATTR
  2
AmdtSystemAttribute
  3
AcAttribServices
 90
    32768
280
     0
281
     0
  0
CLASS
  1
ACAMCOMP
  2
AcAmComp
  3
DesignerAssemblies
 90
    32768
280
     0
281
     0
  0
CLASS
  1
AC_AM_STDP_VIEW_DEF
  2
AcAmStdpViewDef
  3
DesignerAssemblies
 90
    32768
280
     0
281
     0
  0
CLASS
  1
AC_AM_MVD_DEP_MGR
  2
AcAmMVDdepMgr
  3
DesignerAssemblies
 90
        0
280
     0
281
     0
  0
CLASS
  1
AC_AM_MASTER_VIEW_DEF
  2
AcAmMasterViewDef
  3
DesignerAssemblies
 90
        0
280
     0
281
     0
  0
CLASS
  1
AC_AM_DIRTY_NODES
  2
AcAmDirtyNodes
  3
DesignerAssemblies
 90
        0
280
     0
281
     0
  0
CLASS
  1
AC_AM_MAPPER_CACHE
  2
AcAmMapperCache
  3
DesignerAssemblies
 90
        0
280
     0
281
     0
  0
CLASS
  1
ACAMMVDBACKUPOBJECT
  2
AcAmMVDBackupObject
  3
DesignerAssemblies
 90
        0
280
     0
281
     0
  0
CLASS
  1
AC_AM_COMP_VIEW_INST
  2
AcAmCompView
  3
DesignerAssemblies
 90
    32768
280
     0
281
     0
  0
CLASS
  1
AC_AM_2D_XREF_MGR
  2
AcAmXrefMgr2d
  3
DesignerAssemblies
 90
        0
280
     0
281
     0
  0
CLASS
  1
SORTENTSTABLE
  2
AcDbSortentsTable
  3
ObjectDBX Classes
 90
        0
280
     0
281
     0
  0
ENDSEC
  0
SECTION
  2
TABLES
  0
TABLE
  2
VPORT
  5
8
330
0
100
AcDbSymbolTable
 70
     3
  0
VPORT
  5
5CB8
330
8
100
AcDbSymbolTableRecord
100
AcDbViewportTableRecord
  2
*Active
 70
     0
 10
0.0
 20
0.0
 11
1.0
 21
1.0
 12
1206.935044035295
 22
1485.495049750133
 13
0.0
 23
0.0
 14
2.5
 24
2.5
 15
10.0
 25
10.0
 16
0.0
 26
0.0
 36
1.0
 17
0.0
 27
0.0
 37
0.0
 40
441.3167936349622
 41
1.81766917293233
 42
50.0
 43
0.0
 44
0.0
 50
0.0
 51
0.0
 71
     0
 72
   100
 73
     1
 74
     3
 75
     0
 76
     0
 77
     0
 78
     0
281
     0
 65
     1
110
0.0
120
0.0
130
0.0
111
1.0
121
0.0
131
0.0
112
0.0
122
1.0
132
0.0
 79
     0
146
0.0
  0
ENDTAB
  0
TABLE
  2
LTYPE
  5
5
330
0
100
AcDbSymbolTable
 70
    14
  0
LTYPE
  5
14
330
5
100
AcDbSymbolTableRecord
100
AcDbLinetypeTableRecord
  2
ByBlock
 70
     0
  3

 72
    65
 73
     0
 40
0.0
  0
LTYPE
  5
15
330
5
100
AcDbSymbolTableRecord
100
AcDbLinetypeTableRecord
  2
ByLayer
 70
     0
  3

 72
    65
 73
     0
 40
0.0
  0
LTYPE
  5
16
330
5
100
AcDbSymbolTableRecord
100
AcDbLinetypeTableRecord
  2
Continuous
 70
     0
  3
Solid line
 72
    65
 73
     0
 40
0.0
  0
LTYPE
  5
4D
330
5
100
AcDbSymbolTableRecord
100
AcDbLinetypeTableRecord
  2
AM_ISO02W050
 70
     0
  3
__ __ __ __ __ __ __ __ __ __ __ __ __ __ __
 72
    65
 73
     2
 40
7.5
 49
6.0
 74
     0
 49
-1.5
 74
     0
  0
LTYPE
  5
4E
330
5
100
AcDbSymbolTableRecord
100
AcDbLinetypeTableRecord
  2
AM_ISO08W050
 70
     0
  3
____ . ____ . ____ . ____ . ____ . ____ . ____
 72
    65
 73
     4
 40
18.0
 49
12.0
 74
     0
 49
-1.5
 74
     0
 49
3.0
 74
     0
 49
-1.5
 74
     0
  0
LTYPE
  5
4F
330
5
100
AcDbSymbolTableRecord
100
AcDbLinetypeTableRecord
  2
AM_ISO09W050
 70
     0
  3
_____ . . _____ . . _____ . . ____ .. ____
 72
    65
 73
     6
 40
22.5
 49
12.0
 74
     0
 49
-1.5
 74
     0
 49
3.0
 74
     0
 49
-1.5
 74
     0
 49
3.0
 74
     0
 49
-1.5
 74
     0
  0
LTYPE
  5
50
330
5
100
AcDbSymbolTableRecord
100
AcDbLinetypeTableRecord
  2
Amconstr
 70
     0
  3
_______________________
 72
    65
 73
     2
 40
9999.0
 49
9999.0
 74
     0
 49
0.0
 74
     0
  0
LTYPE
  5
51
330
5
100
AcDbSymbolTableRecord
100
AcDbLinetypeTableRecord
  2
AM_ISO08W050x2
 70
     0
  3
__ . __ . __ . __ . __ . __
 72
    65
 73
     4
 40
9.0
 49
6.0
 74
     0
 49
-0.75
 74
     0
 49
1.5
 74
     0
 49
-0.75
 74
     0
  0
LTYPE
  5
52
330
5
100
AcDbSymbolTableRecord
100
AcDbLinetypeTableRecord
  2
AM_ISO02W050x2
 70
     0
  3
 _ _ _ _ _ _ _ _ _ _ _ _
 72
    65
 73
     2
 40
3.75
 49
3.0
 74
     0
 49
-0.75
 74
     0
  0
LTYPE
  5
55
330
5
100
AcDbSymbolTableRecord
100
AcDbLinetypeTableRecord
  2
Amzigzag
 70
     0
  3
/\/-/\/-/\/-/\/-/\/-/\/
 72
    65
 73
     2
 40
11.0001
 49
0.0001
 74
     4
 75
   135
340
54
 46
0.04
 50
0.0
 44
0.0
 45
0.0
 49
-11.0
 74
     0
  0
LTYPE
  5
63
330
5
100
AcDbSymbolTableRecord
100
AcDbLinetypeTableRecord
  2
ACISOWELD
 70
     0
  3
_ _ _ _ _
 72
    65
 73
     2
 40
2.0
 49
2.0
 74
     0
 49
-1.0
 74
     0
  0
LTYPE
  5
64
330
5
100
AcDbSymbolTableRecord
100
AcDbLinetypeTableRecord
  2
ACISOTGB
 70
     0
  3
__ . . __ . .
 72
    65
 73
     6
 40
9.0
 49
4.0
 74
     0
 49
-1.0
 74
     0
 49
1.0
 74
     0
 49
-1.0
 74
     0
 49
1.0
 74
     0
 49
-1.0
 74
     0
  0
LTYPE
  5
65
330
5
100
AcDbSymbolTableRecord
100
AcDbLinetypeTableRecord
  2
ACISOTGL
 70
     0
  3
_ _ _ _ _
 72
    65
 73
     2
 40
3.0
 49
2.0
 74
     0
 49
-1.0
 74
     0
  0
LTYPE
  5
68
330
5
100
AcDbSymbolTableRecord
100
AcDbLinetypeTableRecord
  2
CENTER
 70
     0
  3
__ . __
 72
    65
 73
     4
 40
7.0
 49
4.0
 74
     0
 49
-1.0
 74
     0
 49
1.0
 74
     0
 49
-1.0
 74
     0
  0
LTYPE
  5
932
330
5
100
AcDbSymbolTableRecord
100
AcDbLinetypeTableRecord
  2
HIDDEN
 70
     0
  3
Hidden __ __ __ __ __ __ __ __ __ __ __ __ __ _
 72
    65
 73
     2
 40
9.524999999999998
 49
6.349999999999999
 74
     0
 49
-3.174999999999999
 74
     0
  0
LTYPE
  5
933
330
5
100
AcDbSymbolTableRecord
100
AcDbLinetypeTableRecord
  2
PHANTOM2
 70
     0
  3
Phantom (.5x) ___ _ _ ___ _ _ ___ _ _ ___ _ _
 72
    65
 73
     6
 40
31.75
 49
15.875
 74
     0
 49
-3.174999999999999
 74
     0
 49
3.174999999999999
 74
     0
 49
-3.174999999999999
 74
     0
 49
3.174999999999999
 74
     0
 49
-3.174999999999999
 74
     0
  0
ENDTAB
  0
TABLE
  2
LAYER
  5
2
102
{ACAD_XDICTIONARY
360
E05
102
}
330
0
100
AcDbSymbolTable
 70
     7
  0
LAYER
  5
10
330
2
100
AcDbSymbolTableRecord
100
AcDbLayerTableRecord
  2
0
 70
     0
 62
     7
  6
Continuous
370
    -3
390
F
  0
LAYER
  5
2D7
330
2
100
AcDbSymbolTableRecord
100
AcDbLayerTableRecord
  2
M_1
 70
     0
 62
     7
  6
Continuous
370
    -3
390
F
  0
LAYER
  5
42A
330
2
100
AcDbSymbolTableRecord
100
AcDbLayerTableRecord
  2
AM_5
 70
     0
 62
     5
  6
Continuous
370
    50
390
F
  0
LAYER
  5
43E
330
2
100
AcDbSymbolTableRecord
100
AcDbLayerTableRecord
  2
Defpoints
 70
     0
 62
     7
  6
Continuous
290
     0
370
    -3
390
F
  0
LAYER
  5
E7E
330
2
100
AcDbSymbolTableRecord
100
AcDbLayerTableRecord
  2
AM_7
 70
     0
 62
     1
  6
CENTER
370
    25
390
F
  0
LAYER
  5
2787
330
2
100
AcDbSymbolTableRecord
100
AcDbLayerTableRecord
  2
LOGO
 70
     0
 62
     7
  6
Continuous
370
    -3
390
F
  0
LAYER
  5
5AD8
330
2
100
AcDbSymbolTableRecord
100
AcDbLayerTableRecord
  2
Dim
 70
     0
 62
     4
  6
Continuous
370
    13
390
F
  0
ENDTAB
  0
TABLE
  2
STYLE
  5
3
330
0
100
AcDbSymbolTable
 70
     8
  0
STYLE
  5
11
330
3
100
AcDbSymbolTableRecord
100
AcDbTextStyleTableRecord
  2
STANDARD
 70
     0
 40
0.0
 41
1.0
 50
0.0
 71
     0
 42
3.5
  3
ISOCP.SHX
  4
CHINESET.SHX
  0
STYLE
  5
54
330
3
100
AcDbSymbolTableRecord
100
AcDbTextStyleTableRecord
  2

 70
     1
 40
0.0
 41
1.0
 50
0.0
 71
     0
 42
2.5
  3
ltypeshp.shx
  4

  0
STYLE
  5
56
330
3
100
AcDbSymbolTableRecord
100
AcDbTextStyleTableRecord
  2
ACISOTS
 70
     0
 40
1.0
 41
1.0
 50
0.0
 71
     0
 42
2.5
  3
isocp.shx
  4
chineset.shx
  0
STYLE
  5
62
330
3
100
AcDbSymbolTableRecord
100
AcDbTextStyleTableRecord
  2
ACISOGDT
 70
     0
 40
0.0
 41
1.0
 50
0.0
 71
     0
 42
3.5
  3
amgdt.shx
  4

  0
STYLE
  5
9E
330
3
100
AcDbSymbolTableRecord
100
AcDbTextStyleTableRecord
  2
DAYUS
 70
     0
 40
0.0
 41
1.0
 50
0.0
 71
     0
 42
2.5
  3
simplex
  4
dayus
  0
STYLE
  5
10CF
330
3
100
AcDbSymbolTableRecord
100
AcDbTextStyleTableRecord
  2
CHINESET
 70
     0
 40
0.0
 41
0.75
 50
0.0
 71
     0
 42
3.0
  3
simplex.shx
  4
CHINESET.SHX
  0
STYLE
  5
2BA6
330
3
100
AcDbSymbolTableRecord
100
AcDbTextStyleTableRecord
  2
China
 70
     0
 40
0.0
 41
1.0
 50
0.0
 71
     0
 42
2.5
  3
romans.shx
  4
chineset.shx
  0
ENDTAB
  0
TABLE
  2
VIEW
  5
6
330
0
100
AcDbSymbolTable
 70
     0
  0
ENDTAB
  0
TABLE
  2
UCS
  5
7
330
0
100
AcDbSymbolTable
 70
     0
  0
ENDTAB
  0
TABLE
  2
APPID
  5
9
330
0
100
AcDbSymbolTable
 70
    31
  0
APPID
  5
12
330
9
100
AcDbSymbolTableRecord
100
AcDbRegAppTableRecord
  2
ACAD
 70
     0
  0
APPID
  5
30
330
9
100
AcDbSymbolTableRecord
100
AcDbRegAppTableRecord
  2
MCAD_NO_VIS
 70
     0
  0
APPID
  5
31
330
9
100
AcDbSymbolTableRecord
100
AcDbRegAppTableRecord
  2
ACAD_TEMP_GRAPHIC
 70
     0
  0
APPID
  5
42
330
9
100
AcDbSymbolTableRecord
100
AcDbRegAppTableRecord
  2
ACATTRIBSERVICES
 70
     0
  0
APPID
  5
20A
330
9
100
AcDbSymbolTableRecord
100
AcDbRegAppTableRecord
  2
GENIUS_GENODEF_13
 70
     0
  0
APPID
  5
20B
330
9
100
AcDbSymbolTableRecord
100
AcDbRegAppTableRecord
  2
GENIUS_GENOBJ-N-HTC_13
 70
     0
  0
APPID
  5
20C
330
9
100
AcDbSymbolTableRecord
100
AcDbRegAppTableRecord
  2
GENIUS_GENHATCH_13
 70
     0
  0
APPID
  5
935
330
9
100
AcDbSymbolTableRecord
100
AcDbRegAppTableRecord
  2
AD_DRAW
 70
     0
  0
APPID
  5
953
330
9
100
AcDbSymbolTableRecord
100
AcDbRegAppTableRecord
  2
DESIGNERASSEMBLIES
 70
     0
  0
APPID
  5
958
330
9
100
AcDbSymbolTableRecord
100
AcDbRegAppTableRecord
  2
ACADM_DIM_EDIT
 70
     0
  0
APPID
  5
959
330
9
100
AcDbSymbolTableRecord
100
AcDbRegAppTableRecord
  2
AMDT_DM_ADJ
 70
     0
  0
APPID
  5
E24
330
9
100
AcDbSymbolTableRecord
100
AcDbRegAppTableRecord
  2
ACAD_DSTYLE_DIMTEXT_FILL
 70
     0
  0
APPID
  5
10D0
330
9
100
AcDbSymbolTableRecord
100
AcDbRegAppTableRecord
  2
ACAD_PSEXT
 70
     0
  0
APPID
  5
16F7
330
9
100
AcDbSymbolTableRecord
100
AcDbRegAppTableRecord
  2
ACAD_DIMASSOC_DIMLFAC
 70
     0
  0
APPID
  5
16F8
330
9
100
AcDbSymbolTableRecord
100
AcDbRegAppTableRecord
  2
ACAD_DIMASSOC_CALC_DIMLFAC
 70
     0
  0
APPID
  5
16F9
330
9
100
AcDbSymbolTableRecord
100
AcDbRegAppTableRecord
  2
ACAD_DIMASSOC_OVERRIDDEN_DIMLFAC
 70
     0
  0
APPID
  5
1997
330
9
100
AcDbSymbolTableRecord
100
AcDbRegAppTableRecord
  2
GEVID1139552286
 70
     0
  0
APPID
  5
1998
330
9
100
AcDbSymbolTableRecord
100
AcDbRegAppTableRecord
  2
GEVDC
 70
     0
  0
APPID
  5
1999
330
9
100
AcDbSymbolTableRecord
100
AcDbRegAppTableRecord
  2
GEVRADREF
 70
     0
  0
APPID
  5
19A2
330
9
100
AcDbSymbolTableRecord
100
AcDbRegAppTableRecord
  2
AMG_2DHIDE
 70
     0
  0
APPID
  5
19A3
330
9
100
AcDbSymbolTableRecord
100
AcDbRegAppTableRecord
  2
AMG_2DSTRUCT_BTR
 70
     0
  0
APPID
  5
19B4
330
9
100
AcDbSymbolTableRecord
100
AcDbRegAppTableRecord
  2
ACADM_2DVIEW_IGN_NOTIFY
 70
     0
  0
APPID
  5
19DC
330
9
100
AcDbSymbolTableRecord
100
AcDbRegAppTableRecord
  2
GENIUS_GENOENT_13
 70
     0
  0
APPID
  5
19DD
330
9
100
AcDbSymbolTableRecord
100
AcDbRegAppTableRecord
  2
GENIUS_GENOBJ-N-CRS_13
 70
     0
  0
APPID
  5
19DE
330
9
100
AcDbSymbolTableRecord
100
AcDbRegAppTableRecord
  2
GENIUS_GENOLIS_13
 70
     0
  0
APPID
  5
19DF
330
9
100
AcDbSymbolTableRecord
100
AcDbRegAppTableRecord
  2
GENIUS_GENOREF_13
 70
     0
  0
APPID
  5
1B28
330
9
100
AcDbSymbolTableRecord
100
AcDbRegAppTableRecord
  2
GENIUS_GENOBJ-N-CEN_13
 70
     0
  0
APPID
  5
1B29
330
9
100
AcDbSymbolTableRecord
100
AcDbRegAppTableRecord
  2
GENIUS_GENCEN_19
 70
     0
  0
APPID
  5
2753
330
9
100
AcDbSymbolTableRecord
100
AcDbRegAppTableRecord
  2
GENIUS_GENDTOL_13
 70
     0
  0
APPID
  5
2788
330
9
100
AcDbSymbolTableRecord
100
AcDbRegAppTableRecord
  2
GENIUS_GENREC_14
 70
     0
  0
APPID
  5
2789
330
9
100
AcDbSymbolTableRecord
100
AcDbRegAppTableRecord
  2
GENIUS_GENOBJ-N-REC_13
 70
     0
  0
ENDTAB
  0
TABLE
  2
DIMSTYLE
  5
A
330
0
100
AcDbSymbolTable
 70
    11
100
AcDbDimStyleTable
 71
     2
340
6B
340
75
  0
DIMSTYLE
105
6B
330
A
100
AcDbSymbolTableRecord
100
AcDbDimStyleTableRecord
  2
AM_ISO
 70
     0
  4
"
 41
3.5
 42
1.0
 43
8.0
 44
1.5
 47
0.1
 48
0.1
 73
     0
 74
     0
 77
     1
 78
     8
 79
     2
140
4.0
141
3.0
143
0.0393701
146
0.71
147
0.8
172
     1
176
   256
177
   256
178
   256
271
     2
272
     2
283
     0
284
     8
340
11
371
    -1
372
    -1
  0
DIMSTYLE
105
6C
330
A
100
AcDbSymbolTableRecord
100
AcDbDimStyleTableRecord
  2
AM_ISO$3
 70
     0
  4
"
 41
3.5
 42
1.0
 43
8.0
 44
1.5
 47
0.1
 48
0.1
 73
     0
 77
     1
 78
     8
 79
     2
140
4.0
141
3.0
143
0.0393701
146
0.71
147
0.8
176
   256
177
   256
178
   256
271
     2
272
     2
283
     0
284
     8
288
     1
289
     0
340
11
371
    -1
372
    -1
  0
DIMSTYLE
105
6D
330
A
100
AcDbSymbolTableRecord
100
AcDbDimStyleTableRecord
  2
AM_ISO$4
 70
     0
  4
"
 41
3.5
 42
1.0
 43
8.0
 44
1.5
 47
0.1
 48
0.1
 73
     0
 77
     1
 78
     8
 79
     2
140
4.0
141
3.0
143
0.0393701
146
0.71
147
0.8
176
   256
177
   256
178
   256
271
     2
272
     2
283
     0
284
     8
288
     1
289
     0
340
11
371
    -1
372
    -1
  0
DIMSTYLE
105
6E
330
A
100
AcDbSymbolTableRecord
100
AcDbDimStyleTableRecord
  2
AM_ISO$6
 70
     0
  4
"
 41
3.5
 42
1.0
 43
8.0
 44
1.5
 47
0.1
 48
0.1
 73
     0
 74
     0
 78
     8
 79
     2
140
4.0
141
3.0
143
0.0393701
146
0.71
147
0.8
172
     1
176
   256
177
   256
178
   256
271
     2
272
     2
283
     0
284
     8
340
11
371
    -1
372
    -1
  0
DIMSTYLE
105
6F
102
{ACAD_REACTORS
330
5446
330
55AE
102
}
330
A
100
AcDbSymbolTableRecord
100
AcDbDimStyleTableRecord
  2
AM_ISO$7
 70
     0
  4
"
 41
3.5
 42
1.0
 43
8.0
 44
1.5
 47
0.1
 48
0.1
 73
     0
 74
     0
 77
     1
 78
     8
 79
     2
140
5.0
141
3.0
143
0.0393701
146
0.71
147
0.8
172
     1
176
   256
177
   256
178
   256
271
     2
272
     2
283
     0
284
     8
340
11
371
    -1
372
    -1
  0
DIMSTYLE
105
70
330
A
100
AcDbSymbolTableRecord
100
AcDbDimStyleTableRecord
  2
AM_ISO$SF
 70
     0
  4
"
 41
2.5
 42
1.0
 43
10.0
 44
1.0
 47
0.1
 48
0.1
 73
     0
 74
     0
 75
     1
 76
     1
 77
     1
 78
     8
 79
     2
140
3.5
141
0.0
143
0.0393701
146
0.71
147
1.5
172
     1
176
   256
177
   256
178
     2
271
     2
272
     3
274
     4
283
     0
284
     8
340
11
371
    -1
372
    -1
  0
DIMSTYLE
105
75
330
A
100
AcDbSymbolTableRecord
100
AcDbDimStyleTableRecord
  2
AM_ISO$SH
 70
     0
  4
"
 41
2.5
 42
1.0
 43
10.0
 44
1.0
 47
0.1
 48
0.1
 73
     0
 74
     0
 75
     1
 76
     1
 77
     1
 78
     8
 79
     2
140
3.5
141
0.0
143
0.0393701
144
2.0
146
0.71
147
1.5
172
     1
173
     1
176
   256
177
   256
178
     2
271
     2
272
     3
274
     4
283
     0
284
     8
340
11
343
71
371
    -1
372
    -1
  0
DIMSTYLE
105
E7F
102
{ACAD_REACTORS
330
5535
330
5533
330
5449
330
5448
330
5534
330
550E
330
550F
330
5510
330
55AF
330
5445
330
55AC
330
546B
330
546A
330
5470
330
544C
330
5561
330
5560
330
555F
330
546D
102
}
330
A
100
AcDbSymbolTableRecord
100
AcDbDimStyleTableRecord
  2
AM_ISO$0
 70
     0
  4
"
 41
3.5
 42
1.0
 43
8.0
 44
1.5
 47
0.1
 48
0.1
 73
     0
 74
     0
 77
     1
 78
     8
 79
     2
140
4.0
141
3.0
143
0.0393701
146
0.71
147
0.8
172
     1
176
   256
177
   256
178
   256
271
     2
272
     2
283
     0
284
     8
340
11
371
    -1
372
    -1
  0
DIMSTYLE
105
1597
330
A
100
AcDbSymbolTableRecord
100
AcDbDimStyleTableRecord
  2
AM_ISO$2
 70
     0
  4
"
 41
3.5
 42
1.0
 43
8.0
 44
1.5
 47
0.1
 48
0.1
 73
     0
 74
     0
 77
     1
 78
     8
 79
     2
140
4.0
141
3.0
143
0.0393701
146
0.71
147
0.8
172
     1
176
   256
177
   256
178
   256
271
     2
272
     2
283
     0
284
     8
340
11
371
    -1
372
    -1
  0
DIMSTYLE
105
5AD9
102
{ACAD_REACTORS
330
5AF2
330
5AF4
330
5AF3
330
5B14
330
5ADD
330
5BEE
330
5BCC
330
5BCB
330
5BCA
330
5BB6
330
5C63
330
5C59
330
5ADC
330
5BC9
330
5BC8
330
5ADB
330
5C15
330
5C17
330
5BDB
330
5BDA
102
}
330
A
100
AcDbSymbolTableRecord
100
AcDbDimStyleTableRecord
  2
ISO-25
 70
     0
 41
2.0
 42
1.0
 44
1.0
 73
     0
 74
     0
 77
     1
 78
     8
140
2.5
141
0.0
143
0.03937007874016
147
1.0
171
     3
172
     1
174
     1
176
   256
177
   256
178
   256
271
     2
272
     2
274
     3
283
     0
284
     8
340
2BA6
371
    -1
372
    -1
  0
ENDTAB
  0
TABLE
  2
BLOCK_RECORD
  5
1
330
0
100
AcDbSymbolTable
 70
    46
  0
BLOCK_RECORD
  5
1F
102
{ACAD_XDICTIONARY
360
7D
102
}
330
1
100
AcDbSymbolTableRecord
100
AcDbBlockTableRecord
  2
*Model_Space
340
22
  0
BLOCK_RECORD
  5
1B
330
1
100
AcDbSymbolTableRecord
100
AcDbBlockTableRecord
  2
*Paper_Space
340
1E
  0
BLOCK_RECORD
  5
23
330
1
100
AcDbSymbolTableRecord
100
AcDbBlockTableRecord
  2
*Paper_Space0
340
26
  0
BLOCK_RECORD
  5
71
330
1
100
AcDbSymbolTableRecord
100
AcDbBlockTableRecord
  2
GENAXEH
340
0
  0
BLOCK_RECORD
  5
19B9
330
1
100
AcDbSymbolTableRecord
100
AcDbBlockTableRecord
  2
*U4
340
0
  0
BLOCK_RECORD
  5
55C9
330
1
100
AcDbSymbolTableRecord
100
AcDbBlockTableRecord
  2
*D5
340
0
  0
BLOCK_RECORD
  5
55D4
330
1
100
AcDbSymbolTableRecord
100
AcDbBlockTableRecord
  2
*D6
340
0
  0
BLOCK_RECORD
  5
55DF
330
1
100
AcDbSymbolTableRecord
100
AcDbBlockTableRecord
  2
*D7
340
0
  0
BLOCK_RECORD
  5
55EB
330
1
100
AcDbSymbolTableRecord
100
AcDbBlockTableRecord
  2
*D8
340
0
  0
BLOCK_RECORD
  5
55F6
330
1
100
AcDbSymbolTableRecord
100
AcDbBlockTableRecord
  2
*D9
340
0
  0
BLOCK_RECORD
  5
5602
330
1
100
AcDbSymbolTableRecord
100
AcDbBlockTableRecord
  2
*D10
340
0
  0
BLOCK_RECORD
  5
561B
330
1
100
AcDbSymbolTableRecord
100
AcDbBlockTableRecord
  2
*D11
340
0
  0
BLOCK_RECORD
  5
5627
330
1
100
AcDbSymbolTableRecord
100
AcDbBlockTableRecord
  2
*D12
340
0
  0
BLOCK_RECORD
  5
5633
330
1
100
AcDbSymbolTableRecord
100
AcDbBlockTableRecord
  2
*D13
340
0
  0
BLOCK_RECORD
  5
563E
330
1
100
AcDbSymbolTableRecord
100
AcDbBlockTableRecord
  2
*D14
340
0
  0
BLOCK_RECORD
  5
5649
330
1
100
AcDbSymbolTableRecord
100
AcDbBlockTableRecord
  2
*D15
340
0
  0
BLOCK_RECORD
  5
5655
330
1
100
AcDbSymbolTableRecord
100
AcDbBlockTableRecord
  2
*D16
340
0
  0
BLOCK_RECORD
  5
5663
330
1
100
AcDbSymbolTableRecord
100
AcDbBlockTableRecord
  2
*D17
340
0
  0
BLOCK_RECORD
  5
566F
330
1
100
AcDbSymbolTableRecord
100
AcDbBlockTableRecord
  2
*D18
340
0
  0
BLOCK_RECORD
  5
567D
330
1
100
AcDbSymbolTableRecord
100
AcDbBlockTableRecord
  2
*D19
340
0
  0
BLOCK_RECORD
  5
5689
330
1
100
AcDbSymbolTableRecord
100
AcDbBlockTableRecord
  2
*D20
340
0
  0
BLOCK_RECORD
  5
5695
330
1
100
AcDbSymbolTableRecord
100
AcDbBlockTableRecord
  2
*D21
340
0
  0
BLOCK_RECORD
  5
56A1
330
1
100
AcDbSymbolTableRecord
100
AcDbBlockTableRecord
  2
*D22
340
0
  0
BLOCK_RECORD
  5
56AD
330
1
100
AcDbSymbolTableRecord
100
AcDbBlockTableRecord
  2
*D23
340
0
  0
BLOCK_RECORD
  5
59E7
330
1
100
AcDbSymbolTableRecord
100
AcDbBlockTableRecord
  2
*D24
340
0
  0
BLOCK_RECORD
  5
59F3
330
1
100
AcDbSymbolTableRecord
100
AcDbBlockTableRecord
  2
*D25
340
0
  0
BLOCK_RECORD
  5
59FF
330
1
100
AcDbSymbolTableRecord
100
AcDbBlockTableRecord
  2
*D26
340
0
  0
BLOCK_RECORD
  5
5A0B
330
1
100
AcDbSymbolTableRecord
100
AcDbBlockTableRecord
  2
*D27
340
0
  0
BLOCK_RECORD
  5
5A16
330
1
100
AcDbSymbolTableRecord
100
AcDbBlockTableRecord
  2
*D28
340
0
  0
BLOCK_RECORD
  5
5A22
330
1
100
AcDbSymbolTableRecord
100
AcDbBlockTableRecord
  2
*D29
340
0
  0
BLOCK_RECORD
  5
5A2E
330
1
100
AcDbSymbolTableRecord
100
AcDbBlockTableRecord
  2
*D30
340
0
  0
BLOCK_RECORD
  5
5A3C
330
1
100
AcDbSymbolTableRecord
100
AcDbBlockTableRecord
  2
*D31
340
0
  0
BLOCK_RECORD
  5
5A47
330
1
100
AcDbSymbolTableRecord
100
AcDbBlockTableRecord
  2
*D32
340
0
  0
BLOCK_RECORD
  5
5A53
330
1
100
AcDbSymbolTableRecord
100
AcDbBlockTableRecord
  2
*D33
340
0
  0
BLOCK_RECORD
  5
5A60
330
1
100
AcDbSymbolTableRecord
100
AcDbBlockTableRecord
  2
*D34
340
0
  0
BLOCK_RECORD
  5
5A6D
330
1
100
AcDbSymbolTableRecord
100
AcDbBlockTableRecord
  2
*D35
340
0
  0
BLOCK_RECORD
  5
5A7A
330
1
100
AcDbSymbolTableRecord
100
AcDbBlockTableRecord
  2
*D36
340
0
  0
BLOCK_RECORD
  5
5A86
330
1
100
AcDbSymbolTableRecord
100
AcDbBlockTableRecord
  2
*D37
340
0
  0
BLOCK_RECORD
  5
5A92
330
1
100
AcDbSymbolTableRecord
100
AcDbBlockTableRecord
  2
*D38
340
0
  0
BLOCK_RECORD
  5
5A9D
330
1
100
AcDbSymbolTableRecord
100
AcDbBlockTableRecord
  2
*D39
340
0
  0
BLOCK_RECORD
  5
5AA9
330
1
100
AcDbSymbolTableRecord
100
AcDbBlockTableRecord
  2
*D40
340
0
  0
BLOCK_RECORD
  5
5AB5
330
1
100
AcDbSymbolTableRecord
100
AcDbBlockTableRecord
  2
*D41
340
0
  0
BLOCK_RECORD
  5
5AC0
330
1
100
AcDbSymbolTableRecord
100
AcDbBlockTableRecord
  2
*D42
340
0
  0
BLOCK_RECORD
  5
5ACC
330
1
100
AcDbSymbolTableRecord
100
AcDbBlockTableRecord
  2
*D43
340
0
  0
BLOCK_RECORD
  5
5ADA
330
1
100
AcDbSymbolTableRecord
100
AcDbBlockTableRecord
  2
A$C15EF0BED
340
0
  0
ENDTAB
  0
ENDSEC
  0
SECTION
  2
BLOCKS
  0
BLOCK
  5
20
330
1F
100
AcDbEntity
  8
0
100
AcDbBlockBegin
  2
*Model_Space
 70
     0
 10
0.0
 20
0.0
 30
0.0
  3
*Model_Space
  1

  0
ENDBLK
  5
21
330
1F
100
AcDbEntity
  8
0
100
AcDbBlockEnd
  0
BLOCK
  5
1C
330
1B
100
AcDbEntity
 67
     1
  8
0
100
AcDbBlockBegin
  2
*Paper_Space
 70
     0
 10
0.0
 20
0.0
 30
0.0
  3
*Paper_Space
  1

  0
ENDBLK
  5
1D
330
1B
100
AcDbEntity
 67
     1
  8
0
100
AcDbBlockEnd
  0
BLOCK
  5
24
330
23
100
AcDbEntity
  8
0
100
AcDbBlockBegin
  2
*Paper_Space0
 70
     0
 10
0.0
 20
0.0
 30
0.0
  3
*Paper_Space0
  1

  0
ENDBLK
  5
25
330
23
100
AcDbEntity
  8
0
100
AcDbBlockEnd
  0
BLOCK
  5
73
330
71
100
AcDbEntity
  8
0
100
AcDbBlockBegin
  2
GENAXEH
 70
     0
 10
0.0
 20
0.0
 30
0.0
  3
GENAXEH
  1

  0
LINE
  5
72
330
71
100
AcDbEntity
  8
0
100
AcDbLine
 10
-1.0
 20
0.0
 30
0.0
 11
1.0
 21
0.0
 31
0.0
  0
ENDBLK
  5
74
330
71
100
AcDbEntity
  8
0
100
AcDbBlockEnd
  0
BLOCK
  5
19BA
330
19B9
100
AcDbEntity
  8
0
100
AcDbBlockBegin
  2
*U4
 70
     1
 10
0.0
 20
0.0
 30
0.0
  3
*U4
  1

  0
ENDBLK
  5
19BB
330
19B9
100
AcDbEntity
  8
0
100
AcDbBlockEnd
  0
BLOCK
  5
55D2
330
55C9
100
AcDbEntity
  8
0
100
AcDbBlockBegin
  2
*D5
 70
     1
 10
0.0
 20
0.0
 30
0.0
  3
*D5
  1

  0
LINE
  5
597A
330
55C9
100
AcDbEntity
  8
AM_5
100
AcDbLine
 10
1234.845685250565
 20
1640.437248982751
 30
0.0
 11
1234.845685250565
 21
1651.638940743552
 31
0.0
  0
LINE
  5
597B
330
55C9
100
AcDbEntity
  8
AM_5
100
AcDbLine
 10
1207.845685250565
 20
1591.098940743552
 30
0.0
 11
1207.845685250565
 21
1651.638940743552
 31
0.0
  0
LINE
  5
597C
330
55C9
100
AcDbEntity
  8
AM_5
100
AcDbLine
 10
1231.345685250565
 20
1650.138940743552
 30
0.0
 11
1211.345685250565
 21
1650.138940743552
 31
0.0
  0
SOLID
  5
597D
330
55C9
100
AcDbEntity
  8
AM_5
100
AcDbTrace
 10
1231.345685250565
 20
1650.722274076885
 30
0.0
 11
1231.345685250565
 21
1649.555607410218
 31
0.0
 12
1234.845685250565
 22
1650.138940743552
 32
0.0
 13
1234.845685250565
 23
1650.138940743552
 33
0.0
  0
SOLID
  5
597E
330
55C9
100
AcDbEntity
  8
AM_5
100
AcDbTrace
 10
1211.345685250565
 20
1650.722274076885
 30
0.0
 11
1211.345685250565
 21
1649.555607410218
 31
0.0
 12
1207.845685250565
 22
1650.138940743552
 32
0.0
 13
1207.845685250565
 23
1650.138940743552
 33
0.0
  0
MTEXT
  5
597F
330
55C9
100
AcDbEntity
  8
AM_5
100
AcDbMText
 10
1221.345685250565
 20
1652.939334444339
 30
0.0
 40
4.0
 41
0.0
 71
     5
 72
     1
  1
27
 73
     1
 44
1.0
1001
ACAD
1000
MTEXTBEGIN
1070
    73
1070
     1
1070
    44
1040
1.0
1070
    74
1070
     0
1000
MTEXTEND
  0
POINT
  5
5980
330
55C9
100
AcDbEntity
  8
Defpoints
 62
     0
100
AcDbPoint
 10
1234.845685250565
 20
1639.437248982751
 30
0.0
  0
POINT
  5
5981
330
55C9
100
AcDbEntity
  8
Defpoints
 62
     0
100
AcDbPoint
 10
1207.845685250565
 20
1590.098940743552
 30
0.0
  0
POINT
  5
5982
330
55C9
100
AcDbEntity
  8
Defpoints
 62
     0
100
AcDbPoint
 10
1207.845685250565
 20
1650.138940743552
 30
0.0
  0
ENDBLK
  5
55D3
330
55C9
100
AcDbEntity
  8
0
100
AcDbBlockEnd
  0
BLOCK
  5
55DD
330
55D4
100
AcDbEntity
  8
0
100
AcDbBlockBegin
  2
*D6
 70
     1
 10
0.0
 20
0.0
 30
0.0
  3
*D6
  1

  0
LINE
  5
5983
330
55D4
100
AcDbEntity
  8
AM_5
100
AcDbLine
 10
1171.345685250565
 20
1658.817942486098
 30
0.0
 11
1171.345685250565
 21
1659.638940743551
 31
0.0
  0
LINE
  5
5984
330
55D4
100
AcDbEntity
  8
AM_5
100
AcDbLine
 10
1248.345685250565
 20
1628.158940743552
 30
0.0
 11
1248.345685250565
 21
1659.638940743551
 31
0.0
  0
LINE
  5
5985
330
55D4
100
AcDbEntity
  8
AM_5
100
AcDbLine
 10
1174.845685250565
 20
1658.138940743551
 30
0.0
 11
1244.845685250565
 21
1658.138940743551
 31
0.0
  0
SOLID
  5
5986
330
55D4
100
AcDbEntity
  8
AM_5
100
AcDbTrace
 10
1174.845685250565
 20
1658.722274076885
 30
0.0
 11
1174.845685250565
 21
1657.555607410218
 31
0.0
 12
1171.345685250565
 22
1658.138940743551
 32
0.0
 13
1171.345685250565
 23
1658.138940743551
 33
0.0
  0
SOLID
  5
5987
330
55D4
100
AcDbEntity
  8
AM_5
100
AcDbTrace
 10
1244.845685250565
 20
1658.722274076885
 30
0.0
 11
1244.845685250565
 21
1657.555607410218
 31
0.0
 12
1248.345685250565
 22
1658.138940743551
 32
0.0
 13
1248.345685250565
 23
1658.138940743551
 33
0.0
  0
MTEXT
  5
5988
330
55D4
100
AcDbEntity
  8
AM_5
100
AcDbMText
 10
1209.845685250565
 20
1660.938940743552
 30
0.0
 40
4.0
 41
0.0
 71
     5
 72
     1
  1
77
 73
     1
 44
1.0
1001
ACAD
1000
MTEXTBEGIN
1070
    73
1070
     1
1070
    44
1040
1.0
1070
    74
1070
     0
1000
MTEXTEND
  0
POINT
  5
5989
330
55D4
100
AcDbEntity
  8
Defpoints
 62
     0
100
AcDbPoint
 10
1171.345685250565
 20
1657.817942486097
 30
0.0
  0
POINT
  5
598A
330
55D4
100
AcDbEntity
  8
Defpoints
 62
     0
100
AcDbPoint
 10
1248.345685250565
 20
1627.158940743552
 30
0.0
  0
POINT
  5
598B
330
55D4
100
AcDbEntity
  8
Defpoints
 62
     0
100
AcDbPoint
 10
1248.345685250565
 20
1658.138940743551
 30
0.0
  0
ENDBLK
  5
55DE
330
55D4
100
AcDbEntity
  8
0
100
AcDbBlockEnd
  0
BLOCK
  5
55E9
330
55DF
100
AcDbEntity
  8
0
100
AcDbBlockBegin
  2
*D7
 70
     1
 10
0.0
 20
0.0
 30
0.0
  3
*D7
  1

  0
LINE
  5
598C
330
55DF
100
AcDbEntity
  8
AM_5
100
AcDbLine
 10
1248.345685250565
 20
1658.817942486098
 30
0.0
 11
1248.345685250565
 21
1667.638940743552
 31
0.0
  0
LINE
  5
598D
330
55DF
100
AcDbEntity
  8
AM_5
100
AcDbLine
 10
1166.345685250565
 20
1658.817942486098
 30
0.0
 11
1166.345685250565
 21
1667.638940743552
 31
0.0
  0
LINE
  5
598E
330
55DF
100
AcDbEntity
  8
AM_5
100
AcDbLine
 10
1244.845685250565
 20
1666.138940743552
 30
0.0
 11
1169.845685250565
 21
1666.138940743552
 31
0.0
  0
SOLID
  5
598F
330
55DF
100
AcDbEntity
  8
AM_5
100
AcDbTrace
 10
1244.845685250565
 20
1666.722274076885
 30
0.0
 11
1244.845685250565
 21
1665.555607410218
 31
0.0
 12
1248.345685250565
 22
1666.138940743552
 32
0.0
 13
1248.345685250565
 23
1666.138940743552
 33
0.0
  0
SOLID
  5
5990
330
55DF
100
AcDbEntity
  8
AM_5
100
AcDbTrace
 10
1169.845685250565
 20
1666.722274076885
 30
0.0
 11
1169.845685250565
 21
1665.555607410218
 31
0.0
 12
1166.345685250565
 22
1666.138940743552
 32
0.0
 13
1166.345685250565
 23
1666.138940743552
 33
0.0
  0
MTEXT
  5
5991
330
55DF
100
AcDbEntity
  8
AM_5
100
AcDbMText
 10
1207.345685250565
 20
1668.939334444339
 30
0.0
 40
4.0
 41
0.0
 71
     5
 72
     1
  1
82
 73
     1
 44
1.0
1001
ACAD
1000
MTEXTBEGIN
1070
    73
1070
     1
1070
    44
1040
1.0
1070
    74
1070
     0
1000
MTEXTEND
  0
POINT
  5
5992
330
55DF
100
AcDbEntity
  8
Defpoints
 62
     0
100
AcDbPoint
 10
1248.345685250565
 20
1657.817942486097
 30
0.0
  0
POINT
  5
5993
330
55DF
100
AcDbEntity
  8
Defpoints
 62
     0
100
AcDbPoint
 10
1166.345685250565
 20
1657.817942486097
 30
0.0
  0
POINT
  5
5994
330
55DF
100
AcDbEntity
  8
Defpoints
 62
     0
100
AcDbPoint
 10
1166.345685250565
 20
1666.138940743552
 30
0.0
  0
ENDBLK
  5
55EA
330
55DF
100
AcDbEntity
  8
0
100
AcDbBlockEnd
  0
BLOCK
  5
55F4
330
55EB
100
AcDbEntity
  8
0
100
AcDbBlockBegin
  2
*D8
 70
     1
 10
0.0
 20
0.0
 30
0.0
  3
*D8
  1

  0
LINE
  5
5881
330
55EB
100
AcDbEntity
  8
AM_5
100
AcDbLine
 10
1192.345685250565
 20
1354.570285403688
 30
0.0
 11
1192.345685250565
 21
1355.070285403688
 31
0.0
  0
LINE
  5
5882
330
55EB
100
AcDbEntity
  8
AM_5
100
AcDbLine
 10
1248.345685250565
 20
1375.219700024423
 30
0.0
 11
1248.345685250565
 21
1352.070285403688
 31
0.0
  0
LINE
  5
5883
330
55EB
100
AcDbEntity
  8
AM_5
100
AcDbLine
 10
1195.845685250565
 20
1353.570285403688
 30
0.0
 11
1244.845685250565
 21
1353.570285403688
 31
0.0
  0
SOLID
  5
5884
330
55EB
100
AcDbEntity
  8
AM_5
100
AcDbTrace
 10
1195.845685250565
 20
1354.153618737022
 30
0.0
 11
1195.845685250565
 21
1352.986952070355
 31
0.0
 12
1192.345685250565
 22
1353.570285403688
 32
0.0
 13
1192.345685250565
 23
1353.570285403688
 33
0.0
  0
SOLID
  5
5885
330
55EB
100
AcDbEntity
  8
AM_5
100
AcDbTrace
 10
1244.845685250565
 20
1354.153618737022
 30
0.0
 11
1244.845685250565
 21
1352.986952070355
 31
0.0
 12
1248.345685250565
 22
1353.570285403688
 32
0.0
 13
1248.345685250565
 23
1353.570285403688
 33
0.0
  0
MTEXT
  5
5886
330
55EB
100
AcDbEntity
  8
AM_5
100
AcDbMText
 10
1220.345685250565
 20
1356.370285403688
 30
0.0
 40
4.0
 41
0.0
 71
     5
 72
     1
  1
56
 73
     1
 44
1.0
1001
ACAD
1000
MTEXTBEGIN
1070
    73
1070
     1
1070
    44
1040
1.0
1070
    74
1070
     0
1000
MTEXTEND
  0
POINT
  5
5887
330
55EB
100
AcDbEntity
  8
Defpoints
 62
     0
100
AcDbPoint
 10
1192.345685250565
 20
1353.570285403688
 30
0.0
  0
POINT
  5
5888
330
55EB
100
AcDbEntity
  8
Defpoints
 62
     0
100
AcDbPoint
 10
1248.345685250565
 20
1376.219700024423
 30
0.0
  0
POINT
  5
5889
330
55EB
100
AcDbEntity
  8
Defpoints
 62
     0
100
AcDbPoint
 10
1248.345685250565
 20
1353.570285403688
 30
0.0
  0
ENDBLK
  5
55F5
330
55EB
100
AcDbEntity
  8
0
100
AcDbBlockEnd
  0
BLOCK
  5
5600
330
55F6
100
AcDbEntity
  8
0
100
AcDbBlockBegin
  2
*D9
 70
     1
 10
0.0
 20
0.0
 30
0.0
  3
*D9
  1

  0
LINE
  5
5866
330
55F6
100
AcDbEntity
  8
AM_5
100
AcDbLine
 10
1010.363685250565
 20
1423.627700024423
 30
0.0
 11
1010.363685250565
 21
1367.789516631771
 31
0.0
  0
LINE
  5
5867
330
55F6
100
AcDbEntity
  8
AM_5
100
AcDbLine
 10
1030.363685250565
 20
1423.109700024422
 30
0.0
 11
1030.363685250565
 21
1367.789516631771
 31
0.0
  0
LINE
  5
5868
330
55F6
100
AcDbEntity
  8
AM_5
100
AcDbLine
 10
1013.863685250565
 20
1369.289516631771
 30
0.0
 11
1026.863685250565
 21
1369.289516631771
 31
0.0
  0
SOLID
  5
5869
330
55F6
100
AcDbEntity
  8
AM_5
100
AcDbTrace
 10
1013.863685250565
 20
1369.872849965104
 30
0.0
 11
1013.863685250565
 21
1368.706183298438
 31
0.0
 12
1010.363685250565
 22
1369.289516631771
 32
0.0
 13
1010.363685250565
 23
1369.289516631771
 33
0.0
  0
SOLID
  5
586A
330
55F6
100
AcDbEntity
  8
AM_5
100
AcDbTrace
 10
1026.863685250565
 20
1369.872849965104
 30
0.0
 11
1026.863685250565
 21
1368.706183298438
 31
0.0
 12
1030.363685250565
 22
1369.289516631771
 32
0.0
 13
1030.363685250565
 23
1369.289516631771
 33
0.0
  0
MTEXT
  5
586B
330
55F6
100
AcDbEntity
  8
AM_5
100
AcDbMText
 10
1020.363685250565
 20
1372.089910332559
 30
0.0
 40
4.0
 41
0.0
 71
     5
 72
     1
  1
20
 73
     1
 44
1.0
1001
ACAD
1000
MTEXTBEGIN
1070
    73
1070
     1
1070
    44
1040
1.0
1070
    74
1070
     0
1000
MTEXTEND
  0
POINT
  5
586C
330
55F6
100
AcDbEntity
  8
Defpoints
 62
     0
100
AcDbPoint
 10
1010.363685250565
 20
1424.627700024422
 30
0.0
  0
POINT
  5
586D
330
55F6
100
AcDbEntity
  8
Defpoints
 62
     0
100
AcDbPoint
 10
1030.363685250565
 20
1424.109700024422
 30
0.0
  0
POINT
  5
586E
330
55F6
100
AcDbEntity
  8
Defpoints
 62
     0
100
AcDbPoint
 10
1030.363685250565
 20
1369.289516631771
 30
0.0
  0
ENDBLK
  5
5601
330
55F6
100
AcDbEntity
  8
0
100
AcDbBlockEnd
  0
BLOCK
  5
560D
330
5602
100
AcDbEntity
  8
0
100
AcDbBlockBegin
  2
*D10
 70
     1
 10
0.0
 20
0.0
 30
0.0
  3
*D10
  1

  0
LINE
  5
585B
330
5602
100
AcDbEntity
  8
AM_5
100
AcDbLine
 10
1030.363685250565
 20
1370.289516631771
 30
0.0
 11
1030.363685250565
 21
1370.789516631771
 31
0.0
  0
LINE
  5
585C
330
5602
100
AcDbEntity
  8
AM_5
100
AcDbLine
 10
1036.363685250565
 20
1421.219700024423
 30
0.0
 11
1036.363685250565
 21
1367.789516631771
 31
0.0
  0
LINE
  5
585D
330
5602
100
AcDbEntity
  8
AM_5
100
AcDbLine
 10
1026.863685250565
 20
1369.289516631771
 30
0.0
 11
1023.363685250565
 21
1369.289516631771
 31
0.0
  0
LINE
  5
585E
330
5602
100
AcDbEntity
  8
AM_5
100
AcDbLine
 10
1039.863685250565
 20
1369.289516631771
 30
0.0
 11
1043.363685250565
 21
1369.289516631771
 31
0.0
  0
LINE
  5
585F
330
5602
100
AcDbEntity
  8
AM_5
100
AcDbLine
 10
1030.363685250565
 20
1369.289516631771
 30
0.0
 11
1036.363685250565
 21
1369.289516631771
 31
0.0
  0
SOLID
  5
5860
330
5602
100
AcDbEntity
  8
AM_5
100
AcDbTrace
 10
1026.863685250565
 20
1369.872849965104
 30
0.0
 11
1026.863685250565
 21
1368.706183298438
 31
0.0
 12
1030.363685250565
 22
1369.289516631771
 32
0.0
 13
1030.363685250565
 23
1369.289516631771
 33
0.0
  0
SOLID
  5
5861
330
5602
100
AcDbEntity
  8
AM_5
100
AcDbTrace
 10
1039.863685250565
 20
1369.872849965104
 30
0.0
 11
1039.863685250565
 21
1368.706183298438
 31
0.0
 12
1036.363685250565
 22
1369.289516631771
 32
0.0
 13
1036.363685250565
 23
1369.289516631771
 33
0.0
  0
MTEXT
  5
5862
330
5602
100
AcDbEntity
  8
AM_5
100
AcDbMText
 10
1033.363685250565
 20
1372.089516631771
 30
0.0
 40
4.0
 41
0.0
 71
     5
 72
     1
  1
6
 73
     1
 44
1.0
1001
ACAD
1000
MTEXTBEGIN
1070
    73
1070
     1
1070
    44
1040
1.0
1070
    74
1070
     0
1000
MTEXTEND
  0
POINT
  5
5863
330
5602
100
AcDbEntity
  8
Defpoints
 62
     0
100
AcDbPoint
 10
1030.363685250565
 20
1369.289516631771
 30
0.0
  0
POINT
  5
5864
330
5602
100
AcDbEntity
  8
Defpoints
 62
     0
100
AcDbPoint
 10
1036.363685250565
 20
1422.219700024422
 30
0.0
  0
POINT
  5
5865
330
5602
100
AcDbEntity
  8
Defpoints
 62
     0
100
AcDbPoint
 10
1036.363685250565
 20
1369.289516631771
 30
0.0
  0
ENDBLK
  5
560E
330
5602
100
AcDbEntity
  8
0
100
AcDbBlockEnd
  0
BLOCK
  5
5625
330
561B
100
AcDbEntity
  8
0
100
AcDbBlockBegin
  2
*D11
 70
     1
 10
0.0
 20
0.0
 30
0.0
  3
*D11
  1

  0
LINE
  5
5951
330
561B
100
AcDbEntity
  8
AM_5
100
AcDbLine
 10
1094.775703983322
 20
1369.443685436271
 30
0.0
 11
1103.102124461244
 21
1355.022622526874
 31
0.0
  0
LINE
  5
5952
330
561B
100
AcDbEntity
  8
AM_5
100
AcDbLine
 10
1106.899641483718
 20
1376.443793688386
 30
0.0
 11
1115.22606196164
 21
1362.02273077899
 31
0.0
  0
LINE
  5
5953
330
561B
100
AcDbEntity
  8
AM_5
100
AcDbLine
 10
1105.38314742064
 20
1358.071709973752
 30
0.0
 11
1111.444982803973
 21
1361.571687096567
 31
0.0
  0
SOLID
  5
5954
330
561B
100
AcDbEntity
  8
AM_5
100
AcDbTrace
 10
1105.091469826532
 20
1358.576885150174
 30
0.0
 11
1105.674825014749
 21
1357.56653479733
 31
0.0
 12
1102.352096362108
 22
1356.321644409101
 32
0.0
 13
1102.352096362108
 23
1356.321644409101
 33
0.0
  0
SOLID
  5
5955
330
561B
100
AcDbEntity
  8
AM_5
100
AcDbTrace
 10
1111.153305209865
 20
1362.076862272989
 30
0.0
 11
1111.736660398082
 21
1361.066511920145
 31
0.0
 12
1114.476033862505
 22
1363.321752661217
 32
0.0
 13
1114.476033862505
 23
1363.321752661217
 33
0.0
  0
MTEXT
  5
5956
330
561B
100
AcDbEntity
  8
AM_5
100
AcDbMText
 10
1107.014012660586
 20
1362.246539381985
 30
0.0
 40
4.0
 41
0.0
 71
     5
 72
     1
  1
14h9
 11
0.8660145881519271
 21
0.5000187327571323
 31
0.0
 73
     1
 44
1.0
1001
ACAD
1000
MTEXTBEGIN
1070
    73
1070
     1
1070
    44
1040
1.0
1070
    74
1070
     0
1000
MTEXTEND
  0
POINT
  5
5957
330
561B
100
AcDbEntity
  8
Defpoints
 62
     0
100
AcDbPoint
 10
1094.275685250565
 20
1370.309700024423
 30
0.0
  0
POINT
  5
5958
330
561B
100
AcDbEntity
  8
Defpoints
 62
     0
100
AcDbPoint
 10
1106.399622750961
 20
1377.309808276538
 30
0.0
  0
POINT
  5
5959
330
561B
100
AcDbEntity
  8
Defpoints
 62
     0
100
AcDbPoint
 10
1114.476033862505
 20
1363.321752661217
 30
0.0
  0
ENDBLK
  5
5626
330
561B
100
AcDbEntity
  8
0
100
AcDbBlockEnd
  0
BLOCK
  5
5631
330
5627
100
AcDbEntity
  8
0
100
AcDbBlockBegin
  2
*D12
 70
     1
 10
0.0
 20
0.0
 30
0.0
  3
*D12
  1

  0
LINE
  5
5878
330
5627
100
AcDbEntity
  8
AM_5
100
AcDbLine
 10
1180.345685250565
 20
1365.809700024423
 30
0.0
 11
1180.345685250565
 21
1352.070285403688
 31
0.0
  0
LINE
  5
5879
330
5627
100
AcDbEntity
  8
AM_5
100
AcDbLine
 10
1192.345685250565
 20
1365.809700024423
 30
0.0
 11
1192.345685250565
 21
1352.070285403688
 31
0.0
  0
LINE
  5
587A
330
5627
100
AcDbEntity
  8
AM_5
100
AcDbLine
 10
1183.845685250565
 20
1353.570285403688
 30
0.0
 11
1188.845685250565
 21
1353.570285403688
 31
0.0
  0
SOLID
  5
587B
330
5627
100
AcDbEntity
  8
AM_5
100
AcDbTrace
 10
1183.845685250565
 20
1354.153618737022
 30
0.0
 11
1183.845685250565
 21
1352.986952070355
 31
0.0
 12
1180.345685250565
 22
1353.570285403688
 32
0.0
 13
1180.345685250565
 23
1353.570285403688
 33
0.0
  0
SOLID
  5
587C
330
5627
100
AcDbEntity
  8
AM_5
100
AcDbTrace
 10
1188.845685250565
 20
1354.153618737022
 30
0.0
 11
1188.845685250565
 21
1352.986952070355
 31
0.0
 12
1192.345685250565
 22
1353.570285403688
 32
0.0
 13
1192.345685250565
 23
1353.570285403688
 33
0.0
  0
MTEXT
  5
587D
330
5627
100
AcDbEntity
  8
AM_5
100
AcDbMText
 10
1186.345685250565
 20
1356.370679104476
 30
0.0
 40
4.0
 41
0.0
 71
     5
 72
     1
  1
12
 73
     1
 44
1.0
1001
ACAD
1000
MTEXTBEGIN
1070
    73
1070
     1
1070
    44
1040
1.0
1070
    74
1070
     0
1000
MTEXTEND
  0
POINT
  5
587E
330
5627
100
AcDbEntity
  8
Defpoints
 62
     0
100
AcDbPoint
 10
1180.345685250565
 20
1366.809700024423
 30
0.0
  0
POINT
  5
587F
330
5627
100
AcDbEntity
  8
Defpoints
 62
     0
100
AcDbPoint
 10
1192.345685250565
 20
1366.809700024423
 30
0.0
  0
POINT
  5
5880
330
5627
100
AcDbEntity
  8
Defpoints
 62
     0
100
AcDbPoint
 10
1192.345685250565
 20
1353.570285403688
 30
0.0
  0
ENDBLK
  5
5632
330
5627
100
AcDbEntity
  8
0
100
AcDbBlockEnd
  0
BLOCK
  5
563C
330
5633
100
AcDbEntity
  8
0
100
AcDbBlockBegin
  2
*D13
 70
     1
 10
0.0
 20
0.0
 30
0.0
  3
*D13
  1

  0
LINE
  5
5995
330
5633
100
AcDbEntity
  8
AM_5
100
AcDbLine
 10
1158.07254589006
 20
1606.138940743552
 30
0.0
 11
1151.845685250565
 21
1606.138940743552
 31
0.0
  0
LINE
  5
5996
330
5633
100
AcDbEntity
  8
AM_5
100
AcDbLine
 10
1165.345685250565
 20
1618.138940743552
 30
0.0
 11
1151.845685250565
 21
1618.138940743552
 31
0.0
  0
LINE
  5
5997
330
5633
100
AcDbEntity
  8
AM_5
100
AcDbLine
 10
1153.345685250565
 20
1609.638940743552
 30
0.0
 11
1153.345685250565
 21
1614.638940743551
 31
0.0
  0
SOLID
  5
5998
330
5633
100
AcDbEntity
  8
AM_5
100
AcDbTrace
 10
1152.762351917232
 20
1609.638940743552
 30
0.0
 11
1153.929018583898
 21
1609.638940743552
 31
0.0
 12
1153.345685250565
 22
1606.138940743552
 32
0.0
 13
1153.345685250565
 23
1606.138940743552
 33
0.0
  0
SOLID
  5
5999
330
5633
100
AcDbEntity
  8
AM_5
100
AcDbTrace
 10
1152.762351917232
 20
1614.638940743551
 30
0.0
 11
1153.929018583898
 21
1614.638940743551
 31
0.0
 12
1153.345685250565
 22
1618.138940743552
 32
0.0
 13
1153.345685250565
 23
1618.138940743552
 33
0.0
  0
MTEXT
  5
599A
330
5633
100
AcDbEntity
  8
AM_5
100
AcDbMText
 10
1150.545291549777
 20
1612.138940743552
 30
0.0
 40
4.0
 41
0.0
 71
     5
 72
     1
  1
12
 11
0.0000000000000001
 21
1.0
 31
0.0
 73
     1
 44
1.0
1001
ACAD
1000
MTEXTBEGIN
1070
    73
1070
     1
1070
    44
1040
1.0
1070
    74
1070
     0
1000
MTEXTEND
  0
POINT
  5
599B
330
5633
100
AcDbEntity
  8
Defpoints
 62
     0
100
AcDbPoint
 10
1159.07254589006
 20
1606.138940743552
 30
0.0
  0
POINT
  5
599C
330
5633
100
AcDbEntity
  8
Defpoints
 62
     0
100
AcDbPoint
 10
1166.345685250565
 20
1618.138940743552
 30
0.0
  0
POINT
  5
599D
330
5633
100
AcDbEntity
  8
Defpoints
 62
     0
100
AcDbPoint
 10
1153.345685250565
 20
1618.138940743552
 30
0.0
  0
ENDBLK
  5
563D
330
5633
100
AcDbEntity
  8
0
100
AcDbBlockEnd
  0
BLOCK
  5
5647
330
563E
100
AcDbEntity
  8
0
100
AcDbBlockBegin
  2
*D14
 70
     1
 10
0.0
 20
0.0
 30
0.0
  3
*D14
  1

  0
LINE
  5
599E
330
563E
100
AcDbEntity
  8
AM_5
100
AcDbLine
 10
1165.345685250565
 20
1606.138940743552
 30
0.0
 11
1143.845685250565
 21
1606.138940743552
 31
0.0
  0
LINE
  5
599F
330
563E
100
AcDbEntity
  8
AM_5
100
AcDbLine
 10
1165.345685250565
 20
1638.138940743552
 30
0.0
 11
1143.845685250565
 21
1638.138940743552
 31
0.0
  0
LINE
  5
59A0
330
563E
100
AcDbEntity
  8
AM_5
100
AcDbLine
 10
1145.345685250565
 20
1609.638940743552
 30
0.0
 11
1145.345685250565
 21
1634.638940743552
 31
0.0
  0
SOLID
  5
59A1
330
563E
100
AcDbEntity
  8
AM_5
100
AcDbTrace
 10
1144.762351917232
 20
1609.638940743552
 30
0.0
 11
1145.929018583898
 21
1609.638940743552
 31
0.0
 12
1145.345685250565
 22
1606.138940743552
 32
0.0
 13
1145.345685250565
 23
1606.138940743552
 33
0.0
  0
SOLID
  5
59A2
330
563E
100
AcDbEntity
  8
AM_5
100
AcDbTrace
 10
1144.762351917232
 20
1634.638940743552
 30
0.0
 11
1145.929018583898
 21
1634.638940743552
 31
0.0
 12
1145.345685250565
 22
1638.138940743552
 32
0.0
 13
1145.345685250565
 23
1638.138940743552
 33
0.0
  0
MTEXT
  5
59A3
330
563E
100
AcDbEntity
  8
AM_5
100
AcDbMText
 10
1142.545291549777
 20
1622.138940743552
 30
0.0
 40
4.0
 41
0.0
 71
     5
 72
     1
  1
32
 11
0.0000000000000001
 21
1.0
 31
0.0
 73
     1
 44
1.0
1001
ACAD
1000
MTEXTBEGIN
1070
    73
1070
     1
1070
    44
1040
1.0
1070
    74
1070
     0
1000
MTEXTEND
  0
POINT
  5
59A4
330
563E
100
AcDbEntity
  8
Defpoints
 62
     0
100
AcDbPoint
 10
1166.345685250565
 20
1606.138940743552
 30
0.0
  0
POINT
  5
59A5
330
563E
100
AcDbEntity
  8
Defpoints
 62
     0
100
AcDbPoint
 10
1166.345685250565
 20
1638.138940743552
 30
0.0
  0
POINT
  5
59A6
330
563E
100
AcDbEntity
  8
Defpoints
 62
     0
100
AcDbPoint
 10
1145.345685250565
 20
1638.138940743552
 30
0.0
  0
ENDBLK
  5
5648
330
563E
100
AcDbEntity
  8
0
100
AcDbBlockEnd
  0
BLOCK
  5
5653
330
5649
100
AcDbEntity
  8
0
100
AcDbBlockBegin
  2
*D15
 70
     1
 10
0.0
 20
0.0
 30
0.0
  3
*D15
  1

  0
LINE
  5
59A7
330
5649
100
AcDbEntity
  8
AM_5
100
AcDbLine
 10
1159.317685250565
 20
1574.158940743552
 30
0.0
 11
1143.845685250565
 21
1574.158940743552
 31
0.0
  0
LINE
  5
59A8
330
5649
100
AcDbEntity
  8
AM_5
100
AcDbLine
 10
1165.345685250565
 20
1606.138940743552
 30
0.0
 11
1143.845685250565
 21
1606.138940743552
 31
0.0
  0
LINE
  5
59A9
330
5649
100
AcDbEntity
  8
AM_5
100
AcDbLine
 10
1145.345685250565
 20
1577.658940743552
 30
0.0
 11
1145.345685250565
 21
1602.638940743551
 31
0.0
  0
SOLID
  5
59AA
330
5649
100
AcDbEntity
  8
AM_5
100
AcDbTrace
 10
1144.762351917232
 20
1577.658940743552
 30
0.0
 11
1145.929018583898
 21
1577.658940743552
 31
0.0
 12
1145.345685250565
 22
1574.158940743552
 32
0.0
 13
1145.345685250565
 23
1574.158940743552
 33
0.0
  0
SOLID
  5
59AB
330
5649
100
AcDbEntity
  8
AM_5
100
AcDbTrace
 10
1144.762351917232
 20
1602.638940743551
 30
0.0
 11
1145.929018583898
 21
1602.638940743551
 31
0.0
 12
1145.345685250565
 22
1606.138940743552
 32
0.0
 13
1145.345685250565
 23
1606.138940743552
 33
0.0
  0
MTEXT
  5
59AC
330
5649
100
AcDbEntity
  8
AM_5
100
AcDbMText
 10
1142.545291549777
 20
1590.148940743552
 30
0.0
 40
4.0
 41
0.0
 71
     5
 72
     1
  1
32
 11
0.0000000000000001
 21
1.0
 31
0.0
 73
     1
 44
1.0
1001
ACAD
1000
MTEXTBEGIN
1070
    73
1070
     1
1070
    44
1040
1.0
1070
    74
1070
     0
1000
MTEXTEND
  0
POINT
  5
59AD
330
5649
100
AcDbEntity
  8
Defpoints
 62
     0
100
AcDbPoint
 10
1160.317685250565
 20
1574.158940743552
 30
0.0
  0
POINT
  5
59AE
330
5649
100
AcDbEntity
  8
Defpoints
 62
     0
100
AcDbPoint
 10
1166.345685250565
 20
1606.138940743552
 30
0.0
  0
POINT
  5
59AF
330
5649
100
AcDbEntity
  8
Defpoints
 62
     0
100
AcDbPoint
 10
1145.345685250565
 20
1606.138940743552
 30
0.0
  0
ENDBLK
  5
5654
330
5649
100
AcDbEntity
  8
0
100
AcDbBlockEnd
  0
BLOCK
  5
5661
330
5655
100
AcDbEntity
  8
0
100
AcDbBlockBegin
  2
*D16
 70
     1
 10
0.0
 20
0.0
 30
0.0
  3
*D16
  1

  0
LINE
  5
59B0
330
5655
100
AcDbEntity
  8
AM_5
100
AcDbLine
 10
1170.345685250565
 20
1627.138940743552
 30
0.0
 11
1170.345685250565
 21
1651.638940743552
 31
0.0
  0
LINE
  5
59B1
330
5655
100
AcDbEntity
  8
AM_5
100
AcDbLine
 10
1166.345685250565
 20
1639.138940743552
 30
0.0
 11
1166.345685250565
 21
1651.638940743552
 31
0.0
  0
LINE
  5
59B2
330
5655
100
AcDbEntity
  8
AM_5
100
AcDbLine
 10
1173.845685250565
 20
1650.138940743552
 30
0.0
 11
1177.345685250565
 21
1650.138940743552
 31
0.0
  0
LINE
  5
59B3
330
5655
100
AcDbEntity
  8
AM_5
100
AcDbLine
 10
1162.845685250565
 20
1650.138940743552
 30
0.0
 11
1159.345685250565
 21
1650.138940743552
 31
0.0
  0
LINE
  5
59B4
330
5655
100
AcDbEntity
  8
AM_5
100
AcDbLine
 10
1170.345685250565
 20
1650.138940743552
 30
0.0
 11
1166.345685250565
 21
1650.138940743552
 31
0.0
  0
SOLID
  5
59B5
330
5655
100
AcDbEntity
  8
AM_5
100
AcDbTrace
 10
1173.845685250565
 20
1650.722274076885
 30
0.0
 11
1173.845685250565
 21
1649.555607410218
 31
0.0
 12
1170.345685250565
 22
1650.138940743552
 32
0.0
 13
1170.345685250565
 23
1650.138940743552
 33
0.0
  0
SOLID
  5
59B6
330
5655
100
AcDbEntity
  8
AM_5
100
AcDbTrace
 10
1162.845685250565
 20
1650.722274076885
 30
0.0
 11
1162.845685250565
 21
1649.555607410218
 31
0.0
 12
1166.345685250565
 22
1650.138940743552
 32
0.0
 13
1166.345685250565
 23
1650.138940743552
 33
0.0
  0
MTEXT
  5
59B7
330
5655
100
AcDbEntity
  8
AM_5
100
AcDbMText
 10
1168.345685250565
 20
1652.938940743552
 30
0.0
 40
4.0
 41
0.0
 71
     5
 72
     1
  1
4
 73
     1
 44
1.0
1001
ACAD
1000
MTEXTBEGIN
1070
    73
1070
     1
1070
    44
1040
1.0
1070
    74
1070
     0
1000
MTEXTEND
  0
POINT
  5
59B8
330
5655
100
AcDbEntity
  8
Defpoints
 62
     0
100
AcDbPoint
 10
1170.345685250565
 20
1626.138940743552
 30
0.0
  0
POINT
  5
59B9
330
5655
100
AcDbEntity
  8
Defpoints
 62
     0
100
AcDbPoint
 10
1166.345685250565
 20
1638.138940743552
 30
0.0
  0
POINT
  5
59BA
330
5655
100
AcDbEntity
  8
Defpoints
 62
     0
100
AcDbPoint
 10
1166.345685250565
 20
1650.138940743552
 30
0.0
  0
ENDBLK
  5
5662
330
5655
100
AcDbEntity
  8
0
100
AcDbBlockEnd
  0
BLOCK
  5
566D
330
5663
100
AcDbEntity
  8
0
100
AcDbBlockBegin
  2
*D17
 70
     1
 10
0.0
 20
0.0
 30
0.0
  3
*D17
  1

  0
LINE
  5
59BB
330
5663
100
AcDbEntity
  8
AM_5
100
AcDbLine
 10
1158.07254589006
 20
1618.138940743552
 30
0.0
 11
1151.845685250565
 21
1618.138940743552
 31
0.0
  0
LINE
  5
59BC
330
5663
100
AcDbEntity
  8
AM_5
100
AcDbLine
 10
1165.345685250565
 20
1626.138940743552
 30
0.0
 11
1151.845685250565
 21
1626.138940743552
 31
0.0
  0
LINE
  5
59BD
330
5663
100
AcDbEntity
  8
AM_5
100
AcDbLine
 10
1153.345685250565
 20
1614.638940743551
 30
0.0
 11
1153.345685250565
 21
1611.138940743552
 31
0.0
  0
LINE
  5
59BE
330
5663
100
AcDbEntity
  8
AM_5
100
AcDbLine
 10
1153.345685250565
 20
1629.638940743552
 30
0.0
 11
1153.345685250565
 21
1633.138940743551
 31
0.0
  0
LINE
  5
59BF
330
5663
100
AcDbEntity
  8
AM_5
100
AcDbLine
 10
1153.345685250565
 20
1618.138940743552
 30
0.0
 11
1153.345685250565
 21
1626.138940743552
 31
0.0
  0
SOLID
  5
59C0
330
5663
100
AcDbEntity
  8
AM_5
100
AcDbTrace
 10
1152.762351917232
 20
1614.638940743551
 30
0.0
 11
1153.929018583898
 21
1614.638940743551
 31
0.0
 12
1153.345685250565
 22
1618.138940743552
 32
0.0
 13
1153.345685250565
 23
1618.138940743552
 33
0.0
  0
SOLID
  5
59C1
330
5663
100
AcDbEntity
  8
AM_5
100
AcDbTrace
 10
1152.762351917232
 20
1629.638940743552
 30
0.0
 11
1153.929018583898
 21
1629.638940743552
 31
0.0
 12
1153.345685250565
 22
1626.138940743552
 32
0.0
 13
1153.345685250565
 23
1626.138940743552
 33
0.0
  0
MTEXT
  5
59C2
330
5663
100
AcDbEntity
  8
AM_5
100
AcDbMText
 10
1150.545685250564
 20
1622.138940743552
 30
0.0
 40
4.0
 41
0.0
 71
     5
 72
     1
  1
8H9
 11
0.0000000000000001
 21
1.0
 31
0.0
 73
     1
 44
1.0
1001
ACAD
1000
MTEXTBEGIN
1070
    73
1070
     1
1070
    44
1040
1.0
1070
    74
1070
     0
1000
MTEXTEND
  0
POINT
  5
59C3
330
5663
100
AcDbEntity
  8
Defpoints
 62
     0
100
AcDbPoint
 10
1159.07254589006
 20
1618.138940743552
 30
0.0
  0
POINT
  5
59C4
330
5663
100
AcDbEntity
  8
Defpoints
 62
     0
100
AcDbPoint
 10
1166.345685250565
 20
1626.138940743552
 30
0.0
  0
POINT
  5
59C5
330
5663
100
AcDbEntity
  8
Defpoints
 62
     0
100
AcDbPoint
 10
1153.345685250565
 20
1626.138940743552
 30
0.0
  0
ENDBLK
  5
566E
330
5663
100
AcDbEntity
  8
0
100
AcDbBlockEnd
  0
BLOCK
  5
567B
330
566F
100
AcDbEntity
  8
0
100
AcDbBlockBegin
  2
*D18
 70
     1
 10
0.0
 20
0.0
 30
0.0
  3
*D18
  1

  0
LINE
  5
59C6
330
566F
100
AcDbEntity
  8
AM_5
100
AcDbLine
 10
1166.345685250565
 20
1649.413867523854
 30
0.0
 11
1166.345685250565
 21
1659.638940743551
 31
0.0
  0
LINE
  5
59C7
330
566F
100
AcDbEntity
  8
AM_5
100
AcDbLine
 10
1171.345685250565
 20
1621.248940743551
 30
0.0
 11
1171.345685250565
 21
1659.638940743551
 31
0.0
  0
LINE
  5
59C8
330
566F
100
AcDbEntity
  8
AM_5
100
AcDbLine
 10
1162.845685250565
 20
1658.138940743551
 30
0.0
 11
1159.345685250565
 21
1658.138940743551
 31
0.0
  0
LINE
  5
59C9
330
566F
100
AcDbEntity
  8
AM_5
100
AcDbLine
 10
1174.845685250565
 20
1658.138940743551
 30
0.0
 11
1178.345685250565
 21
1658.138940743551
 31
0.0
  0
LINE
  5
59CA
330
566F
100
AcDbEntity
  8
AM_5
100
AcDbLine
 10
1166.345685250565
 20
1658.138940743551
 30
0.0
 11
1171.345685250565
 21
1658.138940743551
 31
0.0
  0
SOLID
  5
59CB
330
566F
100
AcDbEntity
  8
AM_5
100
AcDbTrace
 10
1162.845685250565
 20
1658.722274076885
 30
0.0
 11
1162.845685250565
 21
1657.555607410218
 31
0.0
 12
1166.345685250565
 22
1658.138940743551
 32
0.0
 13
1166.345685250565
 23
1658.138940743551
 33
0.0
  0
SOLID
  5
59CC
330
566F
100
AcDbEntity
  8
AM_5
100
AcDbTrace
 10
1174.845685250565
 20
1658.722274076885
 30
0.0
 11
1174.845685250565
 21
1657.555607410218
 31
0.0
 12
1171.345685250565
 22
1658.138940743551
 32
0.0
 13
1171.345685250565
 23
1658.138940743551
 33
0.0
  0
MTEXT
  5
59CD
330
566F
100
AcDbEntity
  8
AM_5
100
AcDbMText
 10
1168.845685250565
 20
1660.938940743552
 30
0.0
 40
4.0
 41
0.0
 71
     5
 72
     1
  1
5
 73
     1
 44
1.0
1001
ACAD
1000
MTEXTBEGIN
1070
    73
1070
     1
1070
    44
1040
1.0
1070
    74
1070
     0
1000
MTEXTEND
  0
POINT
  5
59CE
330
566F
100
AcDbEntity
  8
Defpoints
 62
     0
100
AcDbPoint
 10
1166.345685250565
 20
1648.413867523854
 30
0.0
  0
POINT
  5
59CF
330
566F
100
AcDbEntity
  8
Defpoints
 62
     0
100
AcDbPoint
 10
1171.345685250565
 20
1620.248940743551
 30
0.0
  0
POINT
  5
59D0
330
566F
100
AcDbEntity
  8
Defpoints
 62
     0
100
AcDbPoint
 10
1171.345685250565
 20
1658.138940743551
 30
0.0
  0
ENDBLK
  5
567C
330
566F
100
AcDbEntity
  8
0
100
AcDbBlockEnd
  0
BLOCK
  5
5687
330
567D
100
AcDbEntity
  8
0
100
AcDbBlockBegin
  2
*D19
 70
     1
 10
0.0
 20
0.0
 30
0.0
  3
*D19
  1

  0
LINE
  5
595D
330
567D
100
AcDbEntity
  8
AM_5
100
AcDbLine
 10
1366.262063823594
 20
1386.222525187351
 30
0.0
 11
1289.157207704839
 21
1396.373309431516
 31
0.0
  0
LINE
  5
595E
330
567D
100
AcDbEntity
  8
AM_5
100
AcDbLine
 10
1365.21786746675
 20
1378.290861197892
 30
0.0
 11
1288.113011347995
 21
1388.441645442057
 31
0.0
  0
LINE
  5
595F
330
567D
100
AcDbEntity
  8
AM_5
100
AcDbLine
 10
1291.101205706629
 20
1399.647583666983
 30
0.0
 11
1291.558035760816
 21
1403.117642211387
 31
0.0
  0
LINE
  5
5960
330
567D
100
AcDbEntity
  8
AM_5
100
AcDbLine
 10
1289.143349241409
 20
1384.775802588716
 30
0.0
 11
1288.686519187221
 21
1381.305744044312
 31
0.0
  0
LINE
  5
5961
330
567D
100
AcDbEntity
  8
AM_5
100
AcDbLine
 10
1290.644375652441
 20
1396.177525122579
 30
0.0
 11
1289.600179295596
 21
1388.24586113312
 31
0.0
  0
SOLID
  5
5962
330
567D
100
AcDbEntity
  8
AM_5
100
AcDbTrace
 10
1290.522862615895
 20
1399.723722009348
 30
0.0
 11
1291.679548797363
 21
1399.571445324618
 31
0.0
 12
1290.644375652441
 22
1396.177525122579
 32
0.0
 13
1290.644375652441
 23
1396.177525122579
 33
0.0
  0
SOLID
  5
5963
330
567D
100
AcDbEntity
  8
AM_5
100
AcDbTrace
 10
1288.565006150675
 20
1384.851940931081
 30
0.0
 11
1289.721692332143
 21
1384.699664246351
 31
0.0
 12
1289.600179295596
 22
1388.24586113312
 32
0.0
 13
1289.600179295596
 23
1388.24586113312
 33
0.0
  0
MTEXT
  5
5964
330
567D
100
AcDbEntity
  8
AM_5
100
AcDbMText
 10
1287.346230638495
 20
1392.577157171199
 30
0.0
 40
4.0
 41
0.0
 71
     5
 72
     1
  1
8
 11
0.1305228726250613
 21
0.9914452984011282
 31
0.0
 73
     1
 44
1.0
1001
ACAD
1000
MTEXTBEGIN
1070
    73
1070
     1
1070
    44
1040
1.0
1070
    74
1070
     0
1000
MTEXTEND
  0
POINT
  5
5965
330
567D
100
AcDbEntity
  8
Defpoints
 62
     0
100
AcDbPoint
 10
1367.253509121995
 20
1386.092002314726
 30
0.0
  0
POINT
  5
5966
330
567D
100
AcDbEntity
  8
Defpoints
 62
     0
100
AcDbPoint
 10
1366.209312765151
 20
1378.160338325267
 30
0.0
  0
POINT
  5
5967
330
567D
100
AcDbEntity
  8
Defpoints
 62
     0
100
AcDbPoint
 10
1289.600179295596
 20
1388.24586113312
 30
0.0
  0
ENDBLK
  5
5688
330
567D
100
AcDbEntity
  8
0
100
AcDbBlockEnd
  0
BLOCK
  5
5693
330
5689
100
AcDbEntity
  8
0
100
AcDbBlockBegin
  2
*D20
 70
     1
 10
0.0
 20
0.0
 30
0.0
  3
*D20
  1

  0
LINE
  5
5968
330
5689
100
AcDbEntity
  8
AM_5
100
AcDbLine
 10
1371.939924477419
 20
1429.351223050037
 30
0.0
 11
1294.835069925029
 21
1439.502019192221
 31
0.0
  0
LINE
  5
5969
330
5689
100
AcDbEntity
  8
AM_5
100
AcDbLine
 10
1366.262063843735
 20
1386.22252534034
 30
0.0
 11
1289.157209291344
 21
1396.373321482524
 31
0.0
  0
LINE
  5
596A
330
5689
100
AcDbEntity
  8
AM_5
100
AcDbLine
 10
1295.865407252768
 20
1435.836176179888
 30
0.0
 11
1291.101207798386
 21
1399.647595418013
 31
0.0
  0
SOLID
  5
596B
330
5689
100
AcDbEntity
  8
AM_5
100
AcDbTrace
 10
1295.287064173783
 20
1435.912314611497
 30
0.0
 11
1296.443750331753
 21
1435.76003774828
 31
0.0
 12
1296.322237842419
 22
1439.306234653799
 32
0.0
 13
1296.322237842419
 23
1439.306234653799
 33
0.0
  0
SOLID
  5
596C
330
5689
100
AcDbEntity
  8
AM_5
100
AcDbTrace
 10
1290.522864719401
 20
1399.723733849622
 30
0.0
 11
1291.679550877371
 21
1399.571456986405
 31
0.0
 12
1290.644377208735
 22
1396.177536944102
 32
0.0
 13
1290.644377208735
 23
1396.177536944102
 33
0.0
  0
MTEXT
  5
596D
330
5689
100
AcDbEntity
  8
AM_5
100
AcDbMText
 10
1290.707260746449
 20
1418.107350270671
 30
0.0
 40
4.0
 41
0.0
 71
     5
 72
     1
  1
43.5
 11
0.1305230256145737
 21
0.9914452782601859
 31
0.0
 73
     1
 44
1.0
1001
ACAD
1000
MTEXTBEGIN
1070
    73
1070
     1
1070
    44
1040
1.0
1070
    74
1070
     0
1000
MTEXTEND
  0
POINT
  5
596E
330
5689
100
AcDbEntity
  8
Defpoints
 62
     0
100
AcDbPoint
 10
1372.93136975568
 20
1429.220700024422
 30
0.0
  0
POINT
  5
596F
330
5689
100
AcDbEntity
  8
Defpoints
 62
     0
100
AcDbPoint
 10
1367.253509121995
 20
1386.092002314726
 30
0.0
  0
POINT
  5
5970
330
5689
100
AcDbEntity
  8
Defpoints
 62
     0
100
AcDbPoint
 10
1290.644377208735
 20
1396.177536944102
 30
0.0
  0
ENDBLK
  5
5694
330
5689
100
AcDbEntity
  8
0
100
AcDbBlockEnd
  0
BLOCK
  5
569F
330
5695
100
AcDbEntity
  8
0
100
AcDbBlockBegin
  2
*D21
 70
     1
 10
0.0
 20
0.0
 30
0.0
  3
*D21
  1

  0
LINE
  5
5971
330
5695
100
AcDbEntity
  8
AM_5
100
AcDbLine
 10
1378.139613185037
 20
1476.443803911107
 30
0.0
 11
1301.034763721088
 21
1486.594587279172
 31
0.0
  0
LINE
  5
5972
330
5695
100
AcDbEntity
  8
AM_5
100
AcDbLine
 10
1371.939607701547
 20
1429.348868264643
 30
0.0
 11
1294.834758237598
 21
1439.499651632708
 31
0.0
  0
LINE
  5
5973
330
5695
100
AcDbEntity
  8
AM_5
100
AcDbLine
 10
1302.065101614502
 20
1482.92874442583
 30
0.0
 11
1296.778756239387
 21
1442.773925868174
 31
0.0
  0
SOLID
  5
5974
330
5695
100
AcDbEntity
  8
AM_5
100
AcDbTrace
 10
1301.486758523768
 20
1483.004882768194
 30
0.0
 11
1302.643444705236
 21
1482.852606083465
 31
0.0
 12
1302.52193166869
 22
1486.398802970234
 32
0.0
 13
1302.52193166869
 23
1486.398802970234
 33
0.0
  0
SOLID
  5
5975
330
5695
100
AcDbEntity
  8
AM_5
100
AcDbTrace
 10
1296.200413148653
 20
1442.850064210539
 30
0.0
 11
1297.357099330121
 21
1442.697787525809
 31
0.0
 12
1296.321926185199
 22
1439.30386732377
 32
0.0
 13
1296.321926185199
 23
1439.30386732377
 33
0.0
  0
MTEXT
  5
5976
330
5695
100
AcDbEntity
  8
AM_5
100
AcDbMText
 10
1296.645882091421
 20
1463.216799190352
 30
0.0
 40
4.0
 41
0.0
 71
     5
 72
     1
  1
47.5
 11
0.1305228726250463
 21
0.9914452984011301
 31
0.0
 73
     1
 44
1.0
1001
ACAD
1000
MTEXTBEGIN
1070
    73
1070
     1
1070
    44
1040
1.0
1070
    74
1070
     0
1000
MTEXTEND
  0
POINT
  5
5977
330
5695
100
AcDbEntity
  8
Defpoints
 62
     0
100
AcDbPoint
 10
1379.131058483438
 20
1476.313281038481
 30
0.0
  0
POINT
  5
5978
330
5695
100
AcDbEntity
  8
Defpoints
 62
     0
100
AcDbPoint
 10
1372.931052999947
 20
1429.218345392018
 30
0.0
  0
POINT
  5
5979
330
5695
100
AcDbEntity
  8
Defpoints
 62
     0
100
AcDbPoint
 10
1296.321926185199
 20
1439.30386732377
 30
0.0
  0
ENDBLK
  5
56A0
330
5695
100
AcDbEntity
  8
0
100
AcDbBlockEnd
  0
BLOCK
  5
56AB
330
56A1
100
AcDbEntity
  8
0
100
AcDbBlockBegin
  2
*D22
 70
     1
 10
0.0
 20
0.0
 30
0.0
  3
*D22
  1

  0
LINE
  5
59D1
330
56A1
100
AcDbEntity
  8
AM_5
100
AcDbLine
 10
1249.345685250565
 20
1627.158940743552
 30
0.0
 11
1267.921003296048
 21
1627.158940743552
 31
0.0
  0
LINE
  5
59D2
330
56A1
100
AcDbEntity
  8
AM_5
100
AcDbLine
 10
1249.345685250565
 20
1521.158940743552
 30
0.0
 11
1267.921003296048
 21
1521.158940743552
 31
0.0
  0
LINE
  5
59D3
330
56A1
100
AcDbEntity
  8
AM_5
100
AcDbLine
 10
1266.421003296048
 20
1623.658940743552
 30
0.0
 11
1266.421003296048
 21
1524.658940743552
 31
0.0
  0
SOLID
  5
59D4
330
56A1
100
AcDbEntity
  8
AM_5
100
AcDbTrace
 10
1265.837669962715
 20
1623.658940743552
 30
0.0
 11
1267.004336629381
 21
1623.658940743552
 31
0.0
 12
1266.421003296048
 22
1627.158940743552
 32
0.0
 13
1266.421003296048
 23
1627.158940743552
 33
0.0
  0
SOLID
  5
59D5
330
56A1
100
AcDbEntity
  8
AM_5
100
AcDbTrace
 10
1265.837669962715
 20
1524.658940743552
 30
0.0
 11
1267.004336629381
 21
1524.658940743552
 31
0.0
 12
1266.421003296048
 22
1521.158940743552
 32
0.0
 13
1266.421003296048
 23
1521.158940743552
 33
0.0
  0
MTEXT
  5
59D6
330
56A1
100
AcDbEntity
  8
AM_5
100
AcDbMText
 10
1263.621003296048
 20
1574.158940743552
 30
0.0
 40
4.0
 41
0.0
 71
     5
 72
     1
  1
%%C106
 11
0.0000000000000001
 21
1.0
 31
0.0
 73
     1
 44
1.0
1001
ACAD
1000
MTEXTBEGIN
1070
    73
1070
     1
1070
    44
1040
1.0
1070
    74
1070
     0
1000
MTEXTEND
  0
POINT
  5
59D7
330
56A1
100
AcDbEntity
  8
Defpoints
 62
     0
100
AcDbPoint
 10
1248.345685250565
 20
1627.158940743552
 30
0.0
  0
POINT
  5
59D8
330
56A1
100
AcDbEntity
  8
Defpoints
 62
     0
100
AcDbPoint
 10
1248.345685250565
 20
1521.158940743552
 30
0.0
  0
POINT
  5
59D9
330
56A1
100
AcDbEntity
  8
Defpoints
 62
     0
100
AcDbPoint
 10
1266.421003296048
 20
1521.158940743552
 30
0.0
  0
ENDBLK
  5
56AC
330
56A1
100
AcDbEntity
  8
0
100
AcDbBlockEnd
  0
BLOCK
  5
56B6
330
56AD
100
AcDbEntity
  8
0
100
AcDbBlockBegin
  2
*D23
 70
     1
 10
0.0
 20
0.0
 30
0.0
  3
*D23
  1

  0
LINE
  5
59DA
330
56AD
100
AcDbEntity
  8
AM_5
100
AcDbLine
 10
1234.845685250565
 20
1619.408940743551
 30
0.0
 11
1234.845685250565
 21
1651.638940743552
 31
0.0
  0
LINE
  5
59DB
330
56AD
100
AcDbEntity
  8
AM_5
100
AcDbLine
 10
1248.345685250565
 20
1640.437248982751
 30
0.0
 11
1248.345685250565
 21
1651.638940743552
 31
0.0
  0
LINE
  5
59DC
330
56AD
100
AcDbEntity
  8
AM_5
100
AcDbLine
 10
1238.345685250565
 20
1650.138940743552
 30
0.0
 11
1244.845685250565
 21
1650.138940743552
 31
0.0
  0
SOLID
  5
59DD
330
56AD
100
AcDbEntity
  8
AM_5
100
AcDbTrace
 10
1238.345685250565
 20
1650.722274076885
 30
0.0
 11
1238.345685250565
 21
1649.555607410218
 31
0.0
 12
1234.845685250565
 22
1650.138940743552
 32
0.0
 13
1234.845685250565
 23
1650.138940743552
 33
0.0
  0
SOLID
  5
59DE
330
56AD
100
AcDbEntity
  8
AM_5
100
AcDbTrace
 10
1244.845685250565
 20
1650.722274076885
 30
0.0
 11
1244.845685250565
 21
1649.555607410218
 31
0.0
 12
1248.345685250565
 22
1650.138940743552
 32
0.0
 13
1248.345685250565
 23
1650.138940743552
 33
0.0
  0
MTEXT
  5
59DF
330
56AD
100
AcDbEntity
  8
AM_5
100
AcDbMText
 10
1241.595685250565
 20
1652.938940743552
 30
0.0
 40
4.0
 41
0.0
 71
     5
 72
     1
  1
13.5
 73
     1
 44
1.0
1001
ACAD
1000
MTEXTBEGIN
1070
    73
1070
     1
1070
    44
1040
1.0
1070
    74
1070
     0
1000
MTEXTEND
  0
POINT
  5
59E0
330
56AD
100
AcDbEntity
  8
Defpoints
 62
     0
100
AcDbPoint
 10
1234.845685250565
 20
1618.408940743552
 30
0.0
  0
POINT
  5
59E1
330
56AD
100
AcDbEntity
  8
Defpoints
 62
     0
100
AcDbPoint
 10
1248.345685250565
 20
1639.437248982751
 30
0.0
  0
POINT
  5
59E2
330
56AD
100
AcDbEntity
  8
Defpoints
 62
     0
100
AcDbPoint
 10
1248.345685250565
 20
1650.138940743552
 30
0.0
  0
ENDBLK
  5
56B7
330
56AD
100
AcDbEntity
  8
0
100
AcDbBlockEnd
  0
BLOCK
  5
59E8
330
59E7
100
AcDbEntity
  8
0
100
AcDbBlockBegin
  2
*D24
 70
     1
 10
0.0
 20
0.0
 30
0.0
  3
*D24
  1

  0
LINE
  5
59E9
330
59E7
100
AcDbEntity
  8
Dim
100
AcDbLine
 10
320.0
 20
292.6161716091623
 30
0.0
 11
320.0
 21
275.5363666207511
 31
0.0
  0
LINE
  5
59EA
330
59E7
100
AcDbEntity
  8
Dim
100
AcDbLine
 10
305.0
 20
292.6161716091623
 30
0.0
 11
305.0
 21
275.5363666207511
 31
0.0
  0
LINE
  5
59EB
330
59E7
100
AcDbEntity
  8
Dim
100
AcDbLine
 10
318.0
 20
276.5363666207511
 30
0.0
 11
307.0
 21
276.5363666207511
 31
0.0
  0
SOLID
  5
59EC
330
59E7
100
AcDbEntity
  8
Dim
100
AcDbTrace
 10
318.0
 20
276.8696999540844
 30
0.0
 11
318.0
 21
276.2030332874178
 31
0.0
 12
320.0
 22
276.5363666207511
 32
0.0
 13
320.0
 23
276.5363666207511
 33
0.0
  0
SOLID
  5
59ED
330
59E7
100
AcDbEntity
  8
Dim
100
AcDbTrace
 10
307.0
 20
276.8696999540844
 30
0.0
 11
307.0
 21
276.2030332874178
 31
0.0
 12
305.0
 22
276.5363666207511
 32
0.0
 13
305.0
 23
276.5363666207511
 33
0.0
  0
MTEXT
  5
59EE
330
59E7
100
AcDbEntity
  8
Dim
100
AcDbMText
 10
312.5
 20
278.7863666207511
 30
0.0
 40
2.5
 41
0.0
 71
     5
 72
     1
  1
15
  7
China
 73
     1
 44
1.0
1001
ACAD
1000
MTEXTBEGIN
1070
    73
1070
     1
1070
    44
1040
1.0
1070
    74
1070
     0
1000
MTEXTEND
  0
POINT
  5
59EF
330
59E7
100
AcDbEntity
  8
Defpoints
 62
     0
100
AcDbPoint
 10
320.0
 20
293.6161716091623
 30
0.0
  0
POINT
  5
59F0
330
59E7
100
AcDbEntity
  8
Defpoints
 62
     0
100
AcDbPoint
 10
305.0
 20
293.6161716091623
 30
0.0
  0
POINT
  5
59F1
330
59E7
100
AcDbEntity
  8
Defpoints
 62
     0
100
AcDbPoint
 10
305.0
 20
276.5363666207511
 30
0.0
  0
ENDBLK
  5
59F2
330
59E7
100
AcDbEntity
  8
0
100
AcDbBlockEnd
  0
BLOCK
  5
59F4
330
59F3
100
AcDbEntity
  8
0
100
AcDbBlockBegin
  2
*D25
 70
     1
 10
0.0
 20
0.0
 30
0.0
  3
*D25
  1

  0
LINE
  5
59F5
330
59F3
100
AcDbEntity
  8
Dim
100
AcDbLine
 10
293.0
 20
619.5641716091623
 30
0.0
 11
293.0
 21
654.0038910635428
 31
0.0
  0
LINE
  5
59F6
330
59F3
100
AcDbEntity
  8
Dim
100
AcDbLine
 10
383.0
 20
642.5460290552189
 30
0.0
 11
383.0
 21
654.0038910635428
 31
0.0
  0
LINE
  5
59F7
330
59F3
100
AcDbEntity
  8
Dim
100
AcDbLine
 10
295.0
 20
653.0038910635428
 30
0.0
 11
381.0
 21
653.0038910635428
 31
0.0
  0
SOLID
  5
59F8
330
59F3
100
AcDbEntity
  8
Dim
100
AcDbTrace
 10
295.0
 20
653.3372243968762
 30
0.0
 11
295.0
 21
652.6705577302094
 31
0.0
 12
293.0
 22
653.0038910635428
 32
0.0
 13
293.0
 23
653.0038910635428
 33
0.0
  0
SOLID
  5
59F9
330
59F3
100
AcDbEntity
  8
Dim
100
AcDbTrace
 10
381.0
 20
653.3372243968762
 30
0.0
 11
381.0
 21
652.6705577302094
 31
0.0
 12
383.0
 22
653.0038910635428
 32
0.0
 13
383.0
 23
653.0038910635428
 33
0.0
  0
MTEXT
  5
59FA
330
59F3
100
AcDbEntity
  8
Dim
100
AcDbMText
 10
338.0
 20
655.2538910635428
 30
0.0
 40
2.5
 41
0.0
 71
     5
 72
     1
  1
90
  7
China
 73
     1
 44
1.0
1001
ACAD
1000
MTEXTBEGIN
1070
    73
1070
     1
1070
    44
1040
1.0
1070
    74
1070
     0
1000
MTEXTEND
  0
POINT
  5
59FB
330
59F3
100
AcDbEntity
  8
Defpoints
 62
     0
100
AcDbPoint
 10
293.0
 20
618.5641716091623
 30
0.0
  0
POINT
  5
59FC
330
59F3
100
AcDbEntity
  8
Defpoints
 62
     0
100
AcDbPoint
 10
383.0
 20
641.5460290552189
 30
0.0
  0
POINT
  5
59FD
330
59F3
100
AcDbEntity
  8
Defpoints
 62
     0
100
AcDbPoint
 10
383.0
 20
653.0038910635428
 30
0.0
  0
ENDBLK
  5
59FE
330
59F3
100
AcDbEntity
  8
0
100
AcDbBlockEnd
  0
BLOCK
  5
5A00
330
59FF
100
AcDbEntity
  8
0
100
AcDbBlockBegin
  2
*D26
 70
     1
 10
0.0
 20
0.0
 30
0.0
  3
*D26
  1

  0
LINE
  5
5A01
330
59FF
100
AcDbEntity
  8
Dim
100
AcDbLine
 10
383.0
 20
654.0038910635428
 30
0.0
 11
383.0
 21
661.0849668809649
 31
0.0
  0
LINE
  5
5A02
330
59FF
100
AcDbEntity
  8
Dim
100
AcDbLine
 10
287.0
 20
654.0038910635428
 30
0.0
 11
287.0
 21
661.0849668809649
 31
0.0
  0
LINE
  5
5A03
330
59FF
100
AcDbEntity
  8
Dim
100
AcDbLine
 10
381.0
 20
660.0849668809648
 30
0.0
 11
289.0
 21
660.0849668809648
 31
0.0
  0
SOLID
  5
5A04
330
59FF
100
AcDbEntity
  8
Dim
100
AcDbTrace
 10
381.0
 20
660.4183002142982
 30
0.0
 11
381.0
 21
659.7516335476314
 31
0.0
 12
383.0
 22
660.0849668809648
 32
0.0
 13
383.0
 23
660.0849668809648
 33
0.0
  0
SOLID
  5
5A05
330
59FF
100
AcDbEntity
  8
Dim
100
AcDbTrace
 10
289.0
 20
660.4183002142982
 30
0.0
 11
289.0
 21
659.7516335476314
 31
0.0
 12
287.0
 22
660.0849668809648
 32
0.0
 13
287.0
 23
660.0849668809648
 33
0.0
  0
MTEXT
  5
5A06
330
59FF
100
AcDbEntity
  8
Dim
100
AcDbMText
 10
335.0
 20
662.3349668809648
 30
0.0
 40
2.5
 41
0.0
 71
     5
 72
     1
  1
96
  7
China
 73
     1
 44
1.0
1001
ACAD
1000
MTEXTBEGIN
1070
    73
1070
     1
1070
    44
1040
1.0
1070
    74
1070
     0
1000
MTEXTEND
  0
POINT
  5
5A07
330
59FF
100
AcDbEntity
  8
Defpoints
 62
     0
100
AcDbPoint
 10
383.0
 20
653.0038910635428
 30
0.0
  0
POINT
  5
5A08
330
59FF
100
AcDbEntity
  8
Defpoints
 62
     0
100
AcDbPoint
 10
287.0
 20
653.0038910635428
 30
0.0
  0
POINT
  5
5A09
330
59FF
100
AcDbEntity
  8
Defpoints
 62
     0
100
AcDbPoint
 10
287.0
 20
660.0849668809648
 30
0.0
  0
ENDBLK
  5
5A0A
330
59FF
100
AcDbEntity
  8
0
100
AcDbBlockEnd
  0
BLOCK
  5
5A0C
330
5A0B
100
AcDbEntity
  8
0
100
AcDbBlockBegin
  2
*D27
 70
     1
 10
0.0
 20
0.0
 30
0.0
  3
*D27
  1

  0
LINE
  5
5A0D
330
5A0B
100
AcDbEntity
  8
Dim
100
AcDbLine
 10
122.506
 20
360.0991716091623
 30
0.0
 11
122.506
 21
300.6128527259218
 31
0.0
  0
LINE
  5
5A0E
330
5A0B
100
AcDbEntity
  8
Dim
100
AcDbLine
 10
117.006
 20
301.6128527259218
 30
0.0
 11
120.506
 21
301.6128527259218
 31
0.0
  0
SOLID
  5
5A0F
330
5A0B
100
AcDbEntity
  8
Dim
100
AcDbTrace
 10
117.006
 20
301.9461860592551
 30
0.0
 11
117.006
 21
301.2795193925885
 31
0.0
 12
115.006
 22
301.6128527259218
 32
0.0
 13
115.006
 23
301.6128527259218
 33
0.0
  0
SOLID
  5
5A10
330
5A0B
100
AcDbEntity
  8
Dim
100
AcDbTrace
 10
120.506
 20
301.9461860592551
 30
0.0
 11
120.506
 21
301.2795193925885
 31
0.0
 12
122.506
 22
301.6128527259218
 32
0.0
 13
122.506
 23
301.6128527259218
 33
0.0
  0
MTEXT
  5
5A11
330
5A0B
100
AcDbEntity
  8
Dim
100
AcDbMText
 10
118.756
 20
303.8628527259218
 30
0.0
 40
2.5
 41
0.0
 71
     5
 72
     1
  1
7.5
  7
China
 73
     1
 44
1.0
1001
ACAD
1000
MTEXTBEGIN
1070
    73
1070
     1
1070
    44
1040
1.0
1070
    74
1070
     0
1000
MTEXTEND
  0
POINT
  5
5A12
330
5A0B
100
AcDbEntity
  8
Defpoints
 62
     0
100
AcDbPoint
 10
115.006
 20
301.6128527259218
 30
0.0
  0
POINT
  5
5A13
330
5A0B
100
AcDbEntity
  8
Defpoints
 62
     0
100
AcDbPoint
 10
122.506
 20
361.0991716091624
 30
0.0
  0
POINT
  5
5A14
330
5A0B
100
AcDbEntity
  8
Defpoints
 62
     0
100
AcDbPoint
 10
122.506
 20
301.6128527259218
 30
0.0
  0
ENDBLK
  5
5A15
330
5A0B
100
AcDbEntity
  8
0
100
AcDbBlockEnd
  0
BLOCK
  5
5A17
330
5A16
100
AcDbEntity
  8
0
100
AcDbBlockBegin
  2
*D28
 70
     1
 10
0.0
 20
0.0
 30
0.0
  3
*D28
  1

  0
LINE
  5
5A18
330
5A16
100
AcDbEntity
  8
Dim
100
AcDbLine
 10
163.0007163952855
 20
369.0987300910724
 30
0.0
 11
163.0007163952855
 21
288.1363744719867
 31
0.0
  0
LINE
  5
5A19
330
5A16
100
AcDbEntity
  8
Dim
100
AcDbLine
 10
84.50610000000001
 20
352.0991716091623
 30
0.0
 11
84.50610000000001
 21
288.1363744719867
 31
0.0
  0
LINE
  5
5A1A
330
5A16
100
AcDbEntity
  8
Dim
100
AcDbLine
 10
161.0007163952855
 20
289.1363744719868
 30
0.0
 11
86.5061
 21
289.1363744719868
 31
0.0
  0
SOLID
  5
5A1B
330
5A16
100
AcDbEntity
  8
Dim
100
AcDbTrace
 10
161.0007163952855
 20
289.4697078053201
 30
0.0
 11
161.0007163952855
 21
288.8030411386534
 31
0.0
 12
163.0007163952855
 22
289.1363744719868
 32
0.0
 13
163.0007163952855
 23
289.1363744719868
 33
0.0
  0
SOLID
  5
5A1C
330
5A16
100
AcDbEntity
  8
Dim
100
AcDbTrace
 10
86.5061
 20
289.4697078053201
 30
0.0
 11
86.5061
 21
288.8030411386534
 31
0.0
 12
84.50610000000001
 22
289.1363744719868
 32
0.0
 13
84.50610000000001
 23
289.1363744719868
 33
0.0
  0
MTEXT
  5
5A1D
330
5A16
100
AcDbEntity
  8
Dim
100
AcDbMText
 10
123.7534081976428
 20
291.3863744719868
 30
0.0
 40
2.5
 41
0.0
 71
     5
 72
     1
  1
78.49
  7
China
 73
     1
 44
1.0
1001
ACAD
1000
MTEXTBEGIN
1070
    73
1070
     1
1070
    44
1040
1.0
1070
    74
1070
     0
1000
MTEXTEND
  0
POINT
  5
5A1E
330
5A16
100
AcDbEntity
  8
Defpoints
 62
     0
100
AcDbPoint
 10
163.0007163952855
 20
370.0987300910724
 30
0.0
  0
POINT
  5
5A1F
330
5A16
100
AcDbEntity
  8
Defpoints
 62
     0
100
AcDbPoint
 10
84.50610000000001
 20
353.0991716091623
 30
0.0
  0
POINT
  5
5A20
330
5A16
100
AcDbEntity
  8
Defpoints
 62
     0
100
AcDbPoint
 10
84.50610000000001
 20
289.1363744719868
 30
0.0
  0
ENDBLK
  5
5A21
330
5A16
100
AcDbEntity
  8
0
100
AcDbBlockEnd
  0
BLOCK
  5
5A23
330
5A22
100
AcDbEntity
  8
0
100
AcDbBlockBegin
  2
*D29
 70
     1
 10
0.0
 20
0.0
 30
0.0
  3
*D29
  1

  0
LINE
  5
5A24
330
5A22
100
AcDbEntity
  8
Dim
100
AcDbLine
 10
92.00610000000001
 20
362.7911716091623
 30
0.0
 11
92.00610000000001
 21
300.6128527259218
 31
0.0
  0
LINE
  5
5A25
330
5A22
100
AcDbEntity
  8
Dim
100
AcDbLine
 10
115.006
 20
362.7911716091623
 30
0.0
 11
115.006
 21
300.6128527259218
 31
0.0
  0
LINE
  5
5A26
330
5A22
100
AcDbEntity
  8
Dim
100
AcDbLine
 10
94.0061
 20
301.6128527259218
 30
0.0
 11
113.006
 21
301.6128527259218
 31
0.0
  0
SOLID
  5
5A27
330
5A22
100
AcDbEntity
  8
Dim
100
AcDbTrace
 10
94.0061
 20
301.9461860592551
 30
0.0
 11
94.0061
 21
301.2795193925885
 31
0.0
 12
92.00610000000001
 22
301.6128527259218
 32
0.0
 13
92.00610000000001
 23
301.6128527259218
 33
0.0
  0
SOLID
  5
5A28
330
5A22
100
AcDbEntity
  8
Dim
100
AcDbTrace
 10
113.006
 20
301.9461860592551
 30
0.0
 11
113.006
 21
301.2795193925885
 31
0.0
 12
115.006
 22
301.6128527259218
 32
0.0
 13
115.006
 23
301.6128527259218
 33
0.0
  0
MTEXT
  5
5A29
330
5A22
100
AcDbEntity
  8
Dim
100
AcDbMText
 10
103.50605
 20
303.8628527259218
 30
0.0
 40
2.5
 41
0.0
 71
     5
 72
     1
  1
23
  7
China
 73
     1
 44
1.0
1001
ACAD
1000
MTEXTBEGIN
1070
    73
1070
     1
1070
    44
1040
1.0
1070
    74
1070
     0
1000
MTEXTEND
  0
POINT
  5
5A2A
330
5A22
100
AcDbEntity
  8
Defpoints
 62
     0
100
AcDbPoint
 10
92.00610000000001
 20
363.7911716091624
 30
0.0
  0
POINT
  5
5A2B
330
5A22
100
AcDbEntity
  8
Defpoints
 62
     0
100
AcDbPoint
 10
115.006
 20
363.7911716091624
 30
0.0
  0
POINT
  5
5A2C
330
5A22
100
AcDbEntity
  8
Defpoints
 62
     0
100
AcDbPoint
 10
115.006
 20
301.6128527259218
 30
0.0
  0
ENDBLK
  5
5A2D
330
5A22
100
AcDbEntity
  8
0
100
AcDbBlockEnd
  0
BLOCK
  5
5A2F
330
5A2E
100
AcDbEntity
  8
0
100
AcDbBlockBegin
  2
*D30
 70
     1
 10
0.0
 20
0.0
 30
0.0
  3
*D30
  1

  0
LINE
  5
5A30
330
5A2E
100
AcDbEntity
  8
Dim
100
AcDbLine
 10
194.955992604352
 20
296.7501419355407
 30
0.0
 11
202.9342959891089
 21
282.9310425804442
 31
0.0
  0
LINE
  5
5A31
330
5A2E
100
AcDbEntity
  8
Dim
100
AcDbLine
 10
210.5449337807124
 20
305.750243820347
 30
0.0
 11
218.5232371654692
 21
291.9311444652505
 31
0.0
  0
LINE
  5
5A32
330
5A2E
100
AcDbEntity
  8
Dim
100
AcDbLine
 10
200.7022440375135
 20
282.7970870453615
 30
0.0
 11
198.9701846902703
 21
281.7971018366574
 31
0.0
  0
LINE
  5
5A33
330
5A2E
100
AcDbEntity
  8
Dim
100
AcDbLine
 10
219.7553039083603
 20
293.7971593475765
 30
0.0
 11
221.4873632556036
 21
294.7971445562806
 31
0.0
  0
LINE
  5
5A34
330
5A2E
100
AcDbEntity
  8
Dim
100
AcDbLine
 10
202.4343033847568
 20
283.7970722540658
 30
0.0
 11
218.0232445611171
 21
292.7971741388721
 31
0.0
  0
SOLID
  5
5A35
330
5A2E
100
AcDbEntity
  8
Dim
100
AcDbTrace
 10
200.5355798360628
 20
283.0857636032355
 30
0.0
 11
200.8689082389643
 21
282.5084104874877
 31
0.0
 12
202.4343033847568
 22
283.7970722540658
 32
0.0
 13
202.4343033847568
 23
283.7970722540658
 33
0.0
  0
SOLID
  5
5A36
330
5A2E
100
AcDbEntity
  8
Dim
100
AcDbTrace
 10
219.5886397069096
 20
294.0858359054502
 30
0.0
 11
219.9219681098111
 21
293.5084827897025
 31
0.0
 12
218.0232445611171
 22
292.7971741388721
 32
0.0
 13
218.0232445611171
 23
292.7971741388721
 33
0.0
  0
MTEXT
  5
5A37
330
5A2E
100
AcDbEntity
  8
Dim
100
AcDbMText
 10
205.6831644742436
 20
288.2708294881666
 30
0.0
 40
2.5
 41
0.0
 71
     5
 72
     1
  1
18h9
  7
China
 11
0.8660296736216315
 21
0.4999926043521147
 31
0.0
 73
     1
 44
1.0
1001
ACAD
1000
MTEXTBEGIN
1070
    73
1070
     1
1070
    44
1040
1.0
1070
    74
1070
     0
1000
MTEXTEND
  0
POINT
  5
5A38
330
5A2E
100
AcDbEntity
  8
Defpoints
 62
     0
100
AcDbPoint
 10
194.4559999999999
 20
297.6161716091624
 30
0.0
  0
POINT
  5
5A39
330
5A2E
100
AcDbEntity
  8
Defpoints
 62
     0
100
AcDbPoint
 10
210.0449411763603
 20
306.6162734939687
 30
0.0
  0
POINT
  5
5A3A
330
5A2E
100
AcDbEntity
  8
Defpoints
 62
     0
100
AcDbPoint
 10
218.0232445611171
 20
292.7971741388721
 30
0.0
  0
ENDBLK
  5
5A3B
330
5A2E
100
AcDbEntity
  8
0
100
AcDbBlockEnd
  0
BLOCK
  5
5A3D
330
5A3C
100
AcDbEntity
  8
0
100
AcDbBlockBegin
  2
*D31
 70
     1
 10
0.0
 20
0.0
 30
0.0
  3
*D31
  1

  0
LINE
  5
5A3E
330
5A3C
100
AcDbEntity
  8
Dim
100
AcDbLine
 10
280.525
 20
560.0991716091623
 30
0.0
 11
264.8675213613674
 21
560.0991716091623
 31
0.0
  0
LINE
  5
5A3F
330
5A3C
100
AcDbEntity
  8
Dim
100
AcDbLine
 10
265.8675213613674
 20
598.5991716091623
 30
0.0
 11
265.8675213613674
 21
562.0991716091623
 31
0.0
  0
SOLID
  5
5A40
330
5A3C
100
AcDbEntity
  8
Dim
100
AcDbTrace
 10
265.5341880280341
 20
598.5991716091623
 30
0.0
 11
266.2008546947007
 21
598.5991716091623
 31
0.0
 12
265.8675213613674
 22
600.5991716091623
 32
0.0
 13
265.8675213613674
 23
600.5991716091623
 33
0.0
  0
SOLID
  5
5A41
330
5A3C
100
AcDbEntity
  8
Dim
100
AcDbTrace
 10
265.5341880280341
 20
562.0991716091623
 30
0.0
 11
266.2008546947007
 21
562.0991716091623
 31
0.0
 12
265.8675213613674
 22
560.0991716091623
 32
0.0
 13
265.8675213613674
 23
560.0991716091623
 33
0.0
  0
MTEXT
  5
5A42
330
5A3C
100
AcDbEntity
  8
Dim
100
AcDbMText
 10
263.6175213613673
 20
580.3491716091624
 30
0.0
 40
2.5
 41
0.0
 71
     5
 72
     1
  1
40.5
  7
China
 11
0.0000000000000001
 21
1.0
 31
0.0
 73
     1
 44
1.0
1001
ACAD
1000
MTEXTBEGIN
1070
    73
1070
     1
1070
    44
1040
1.0
1070
    74
1070
     0
1000
MTEXTEND
  0
POINT
  5
5A43
330
5A3C
100
AcDbEntity
  8
Defpoints
 62
     0
100
AcDbPoint
 10
265.8675213613674
 20
600.5991716091623
 30
0.0
  0
POINT
  5
5A44
330
5A3C
100
AcDbEntity
  8
Defpoints
 62
     0
100
AcDbPoint
 10
281.525
 20
560.0991716091623
 30
0.0
  0
POINT
  5
5A45
330
5A3C
100
AcDbEntity
  8
Defpoints
 62
     0
100
AcDbPoint
 10
265.8675213613674
 20
560.0991716091623
 30
0.0
  0
ENDBLK
  5
5A46
330
5A3C
100
AcDbEntity
  8
0
100
AcDbBlockEnd
  0
BLOCK
  5
5A48
330
5A47
100
AcDbEntity
  8
0
100
AcDbBlockBegin
  2
*D32
 70
     1
 10
0.0
 20
0.0
 30
0.0
  3
*D32
  1

  0
LINE
  5
5A49
330
5A47
100
AcDbEntity
  8
Dim
100
AcDbLine
 10
275.8365032709175
 20
600.5991716091623
 30
0.0
 11
264.8675213613674
 21
600.5991716091623
 31
0.0
  0
LINE
  5
5A4A
330
5A47
100
AcDbEntity
  8
Dim
100
AcDbLine
 10
286.0
 20
638.5991716091623
 30
0.0
 11
264.8675213613674
 21
638.5991716091623
 31
0.0
  0
LINE
  5
5A4B
330
5A47
100
AcDbEntity
  8
Dim
100
AcDbLine
 10
265.8675213613674
 20
602.5991716091623
 30
0.0
 11
265.8675213613674
 21
636.5991716091623
 31
0.0
  0
SOLID
  5
5A4C
330
5A47
100
AcDbEntity
  8
Dim
100
AcDbTrace
 10
265.5341880280341
 20
602.5991716091623
 30
0.0
 11
266.2008546947007
 21
602.5991716091623
 31
0.0
 12
265.8675213613674
 22
600.5991716091623
 32
0.0
 13
265.8675213613674
 23
600.5991716091623
 33
0.0
  0
SOLID
  5
5A4D
330
5A47
100
AcDbEntity
  8
Dim
100
AcDbTrace
 10
265.5341880280341
 20
636.5991716091623
 30
0.0
 11
266.2008546947007
 21
636.5991716091623
 31
0.0
 12
265.8675213613674
 22
638.5991716091623
 32
0.0
 13
265.8675213613674
 23
638.5991716091623
 33
0.0
  0
MTEXT
  5
5A4E
330
5A47
100
AcDbEntity
  8
Dim
100
AcDbMText
 10
263.6175213613673
 20
619.5991716091624
 30
0.0
 40
2.5
 41
0.0
 71
     5
 72
     1
  1
38
  7
China
 11
0.0000000000000001
 21
1.0
 31
0.0
 73
     1
 44
1.0
1001
ACAD
1000
MTEXTBEGIN
1070
    73
1070
     1
1070
    44
1040
1.0
1070
    74
1070
     0
1000
MTEXTEND
  0
POINT
  5
5A4F
330
5A47
100
AcDbEntity
  8
Defpoints
 62
     0
100
AcDbPoint
 10
276.8365032709175
 20
600.5991716091623
 30
0.0
  0
POINT
  5
5A50
330
5A47
100
AcDbEntity
  8
Defpoints
 62
     0
100
AcDbPoint
 10
287.0
 20
638.5991716091623
 30
0.0
  0
POINT
  5
5A51
330
5A47
100
AcDbEntity
  8
Defpoints
 62
     0
100
AcDbPoint
 10
265.8675213613674
 20
638.5991716091623
 30
0.0
  0
ENDBLK
  5
5A52
330
5A47
100
AcDbEntity
  8
0
100
AcDbBlockEnd
  0
BLOCK
  5
5A54
330
5A53
100
AcDbEntity
  8
0
100
AcDbBlockBegin
  2
*D33
 70
     1
 10
0.0
 20
0.0
 30
0.0
  3
*D33
  1

  0
LINE
  5
5A55
330
5A53
100
AcDbEntity
  8
Dim
100
AcDbLine
 10
287.0
 20
639.5991716091623
 30
0.0
 11
287.0
 21
654.0038910635428
 31
0.0
  0
LINE
  5
5A56
330
5A53
100
AcDbEntity
  8
Dim
100
AcDbLine
 10
295.0
 20
653.0038910635428
 30
0.0
 11
297.0
 21
653.0038910635428
 31
0.0
  0
LINE
  5
5A57
330
5A53
100
AcDbEntity
  8
Dim
100
AcDbLine
 10
285.0
 20
653.0038910635428
 30
0.0
 11
283.0
 21
653.0038910635428
 31
0.0
  0
LINE
  5
5A58
330
5A53
100
AcDbEntity
  8
Dim
100
AcDbLine
 10
293.0
 20
653.0038910635428
 30
0.0
 11
287.0
 21
653.0038910635428
 31
0.0
  0
SOLID
  5
5A59
330
5A53
100
AcDbEntity
  8
Dim
100
AcDbTrace
 10
295.0
 20
653.3372243968762
 30
0.0
 11
295.0
 21
652.6705577302094
 31
0.0
 12
293.0
 22
653.0038910635428
 32
0.0
 13
293.0
 23
653.0038910635428
 33
0.0
  0
SOLID
  5
5A5A
330
5A53
100
AcDbEntity
  8
Dim
100
AcDbTrace
 10
285.0
 20
653.3372243968762
 30
0.0
 11
285.0
 21
652.6705577302094
 31
0.0
 12
287.0
 22
653.0038910635428
 32
0.0
 13
287.0
 23
653.0038910635428
 33
0.0
  0
MTEXT
  5
5A5B
330
5A53
100
AcDbEntity
  8
Dim
100
AcDbMText
 10
290.0
 20
655.2538910635428
 30
0.0
 40
2.5
 41
0.0
 71
     5
 72
     1
  1
6
  7
China
 73
     1
 44
1.0
1001
ACAD
1000
MTEXTBEGIN
1070
    73
1070
     1
1070
    44
1040
1.0
1070
    74
1070
     0
1000
MTEXTEND
  0
POINT
  5
5A5C
330
5A53
100
AcDbEntity
  8
Defpoints
 62
     0
100
AcDbPoint
 10
293.0
 20
653.0038910635428
 30
0.0
  0
POINT
  5
5A5D
330
5A53
100
AcDbEntity
  8
Defpoints
 62
     0
100
AcDbPoint
 10
287.0
 20
638.5991716091623
 30
0.0
  0
POINT
  5
5A5E
330
5A53
100
AcDbEntity
  8
Defpoints
 62
     0
100
AcDbPoint
 10
287.0
 20
653.0038910635428
 30
0.0
  0
ENDBLK
  5
5A5F
330
5A53
100
AcDbEntity
  8
0
100
AcDbBlockEnd
  0
BLOCK
  5
5A61
330
5A60
100
AcDbEntity
  8
0
100
AcDbBlockBegin
  2
*D34
 70
     1
 10
0.0
 20
0.0
 30
0.0
  3
*D34
  1

  0
LINE
  5
5A62
330
5A60
100
AcDbEntity
  8
Dim
100
AcDbLine
 10
291.0
 20
624.5991716091623
 30
0.0
 11
291.0
 21
646.3488897290178
 31
0.0
  0
LINE
  5
5A63
330
5A60
100
AcDbEntity
  8
Dim
100
AcDbLine
 10
293.0
 20
645.3488897290178
 30
0.0
 11
295.0
 21
645.3488897290178
 31
0.0
  0
LINE
  5
5A64
330
5A60
100
AcDbEntity
  8
Dim
100
AcDbLine
 10
285.0
 20
645.3488897290178
 30
0.0
 11
283.0
 21
645.3488897290178
 31
0.0
  0
LINE
  5
5A65
330
5A60
100
AcDbEntity
  8
Dim
100
AcDbLine
 10
291.0
 20
645.3488897290178
 30
0.0
 11
287.0
 21
645.3488897290178
 31
0.0
  0
SOLID
  5
5A66
330
5A60
100
AcDbEntity
  8
Dim
100
AcDbTrace
 10
293.0
 20
645.6822230623512
 30
0.0
 11
293.0
 21
645.0155563956845
 31
0.0
 12
291.0
 22
645.3488897290178
 32
0.0
 13
291.0
 23
645.3488897290178
 33
0.0
  0
SOLID
  5
5A67
330
5A60
100
AcDbEntity
  8
Dim
100
AcDbTrace
 10
285.0
 20
645.6822230623512
 30
0.0
 11
285.0
 21
645.0155563956845
 31
0.0
 12
287.0
 22
645.3488897290178
 32
0.0
 13
287.0
 23
645.3488897290178
 33
0.0
  0
MTEXT
  5
5A68
330
5A60
100
AcDbEntity
  8
Dim
100
AcDbMText
 10
289.0
 20
647.5988897290179
 30
0.0
 40
2.5
 41
0.0
 71
     5
 72
     1
  1
4
  7
China
 73
     1
 44
1.0
1001
ACAD
1000
MTEXTBEGIN
1070
    73
1070
     1
1070
    44
1040
1.0
1070
    74
1070
     0
1000
MTEXTEND
  0
POINT
  5
5A69
330
5A60
100
AcDbEntity
  8
Defpoints
 62
     0
100
AcDbPoint
 10
291.0
 20
623.5991716091623
 30
0.0
  0
POINT
  5
5A6A
330
5A60
100
AcDbEntity
  8
Defpoints
 62
     0
100
AcDbPoint
 10
287.0
 20
645.3488897290178
 30
0.0
  0
POINT
  5
5A6B
330
5A60
100
AcDbEntity
  8
Defpoints
 62
     0
100
AcDbPoint
 10
287.0
 20
645.3488897290178
 30
0.0
  0
ENDBLK
  5
5A6C
330
5A60
100
AcDbEntity
  8
0
100
AcDbBlockEnd
  0
BLOCK
  5
5A6E
330
5A6D
100
AcDbEntity
  8
0
100
AcDbBlockBegin
  2
*D35
 70
     1
 10
0.0
 20
0.0
 30
0.0
  3
*D35
  1

  0
LINE
  5
5A6F
330
5A6D
100
AcDbEntity
  8
Dim
100
AcDbLine
 10
286.0
 20
623.5991716091623
 30
0.0
 11
275.8365032709175
 21
623.5991716091623
 31
0.0
  0
LINE
  5
5A70
330
5A6D
100
AcDbEntity
  8
Dim
100
AcDbLine
 10
276.8365032709175
 20
613.5991716091623
 30
0.0
 11
276.8365032709175
 21
611.5991716091623
 31
0.0
  0
LINE
  5
5A71
330
5A6D
100
AcDbEntity
  8
Dim
100
AcDbLine
 10
276.8365032709175
 20
625.5991716091623
 30
0.0
 11
276.8365032709175
 21
627.5991716091623
 31
0.0
  0
LINE
  5
5A72
330
5A6D
100
AcDbEntity
  8
Dim
100
AcDbLine
 10
276.8365032709175
 20
615.5991716091623
 30
0.0
 11
276.8365032709175
 21
623.5991716091623
 31
0.0
  0
SOLID
  5
5A73
330
5A6D
100
AcDbEntity
  8
Dim
100
AcDbTrace
 10
276.5031699375843
 20
613.5991716091623
 30
0.0
 11
277.1698366042508
 21
613.5991716091623
 31
0.0
 12
276.8365032709175
 22
615.5991716091623
 32
0.0
 13
276.8365032709175
 23
615.5991716091623
 33
0.0
  0
SOLID
  5
5A74
330
5A6D
100
AcDbEntity
  8
Dim
100
AcDbTrace
 10
276.5031699375843
 20
625.5991716091623
 30
0.0
 11
277.1698366042508
 21
625.5991716091623
 31
0.0
 12
276.8365032709175
 22
623.5991716091623
 32
0.0
 13
276.8365032709175
 23
623.5991716091623
 33
0.0
  0
MTEXT
  5
5A75
330
5A6D
100
AcDbEntity
  8
Dim
100
AcDbMText
 10
274.5865032709175
 20
619.5991716091624
 30
0.0
 40
2.5
 41
0.0
 71
     5
 72
     1
  1
8H9
  7
China
 11
0.0000000000000001
 21
1.0
 31
0.0
 73
     1
 44
1.0
1001
ACAD
1000
MTEXTBEGIN
1070
    73
1070
     1
1070
    44
1040
1.0
1070
    74
1070
     0
1000
MTEXTEND
  0
POINT
  5
5A76
330
5A6D
100
AcDbEntity
  8
Defpoints
 62
     0
100
AcDbPoint
 10
276.8365032709175
 20
615.5991716091623
 30
0.0
  0
POINT
  5
5A77
330
5A6D
100
AcDbEntity
  8
Defpoints
 62
     0
100
AcDbPoint
 10
287.0
 20
623.5991716091623
 30
0.0
  0
POINT
  5
5A78
330
5A6D
100
AcDbEntity
  8
Defpoints
 62
     0
100
AcDbPoint
 10
276.8365032709175
 20
623.5991716091623
 30
0.0
  0
ENDBLK
  5
5A79
330
5A6D
100
AcDbEntity
  8
0
100
AcDbBlockEnd
  0
BLOCK
  5
5A7B
330
5A7A
100
AcDbEntity
  8
0
100
AcDbBlockBegin
  2
*D36
 70
     1
 10
0.0
 20
0.0
 30
0.0
  3
*D36
  1

  0
LINE
  5
5A7C
330
5A7A
100
AcDbEntity
  8
Dim
100
AcDbLine
 10
286.0
 20
615.5991716091623
 30
0.0
 11
275.8365032709175
 21
615.5991716091623
 31
0.0
  0
LINE
  5
5A7D
330
5A7A
100
AcDbEntity
  8
Dim
100
AcDbLine
 10
286.0
 20
600.5991716091623
 30
0.0
 11
275.8365032709175
 21
600.5991716091623
 31
0.0
  0
LINE
  5
5A7E
330
5A7A
100
AcDbEntity
  8
Dim
100
AcDbLine
 10
276.8365032709175
 20
613.5991716091623
 30
0.0
 11
276.8365032709175
 21
602.5991716091623
 31
0.0
  0
SOLID
  5
5A7F
330
5A7A
100
AcDbEntity
  8
Dim
100
AcDbTrace
 10
276.5031699375843
 20
613.5991716091623
 30
0.0
 11
277.1698366042508
 21
613.5991716091623
 31
0.0
 12
276.8365032709175
 22
615.5991716091623
 32
0.0
 13
276.8365032709175
 23
615.5991716091623
 33
0.0
  0
SOLID
  5
5A80
330
5A7A
100
AcDbEntity
  8
Dim
100
AcDbTrace
 10
276.5031699375843
 20
602.5991716091623
 30
0.0
 11
277.1698366042508
 21
602.5991716091623
 31
0.0
 12
276.8365032709175
 22
600.5991716091623
 32
0.0
 13
276.8365032709175
 23
600.5991716091623
 33
0.0
  0
MTEXT
  5
5A81
330
5A7A
100
AcDbEntity
  8
Dim
100
AcDbMText
 10
274.5865032709175
 20
608.0991716091624
 30
0.0
 40
2.5
 41
0.0
 71
     5
 72
     1
  1
15
  7
China
 11
0.0000000000000001
 21
1.0
 31
0.0
 73
     1
 44
1.0
1001
ACAD
1000
MTEXTBEGIN
1070
    73
1070
     1
1070
    44
1040
1.0
1070
    74
1070
     0
1000
MTEXTEND
  0
POINT
  5
5A82
330
5A7A
100
AcDbEntity
  8
Defpoints
 62
     0
100
AcDbPoint
 10
287.0
 20
615.5991716091623
 30
0.0
  0
POINT
  5
5A83
330
5A7A
100
AcDbEntity
  8
Defpoints
 62
     0
100
AcDbPoint
 10
287.0
 20
600.5991716091623
 30
0.0
  0
POINT
  5
5A84
330
5A7A
100
AcDbEntity
  8
Defpoints
 62
     0
100
AcDbPoint
 10
276.8365032709175
 20
600.5991716091623
 30
0.0
  0
ENDBLK
  5
5A85
330
5A7A
100
AcDbEntity
  8
0
100
AcDbBlockEnd
  0
BLOCK
  5
5A87
330
5A86
100
AcDbEntity
  8
0
100
AcDbBlockBegin
  2
*D37
 70
     1
 10
0.0
 20
0.0
 30
0.0
  3
*D37
  1

  0
LINE
  5
5A88
330
5A86
100
AcDbEntity
  8
Dim
100
AcDbLine
 10
519.7095535025617
 20
428.7246853736366
 30
0.0
 11
435.401804854326
 21
439.8229359387094
 31
0.0
  0
LINE
  5
5A89
330
5A86
100
AcDbEntity
  8
Dim
100
AcDbLine
 10
512.0094702565974
 20
370.2310805424142
 30
0.0
 11
427.7017216083617
 21
381.329331107487
 31
0.0
  0
LINE
  5
5A8A
330
5A86
100
AcDbEntity
  8
Dim
100
AcDbLine
 10
436.1322238228158
 20
437.7095291793583
 30
0.0
 11
428.9541956347486
 21
383.1817103378893
 31
0.0
  0
SOLID
  5
5A8B
330
5A86
100
AcDbEntity
  8
Dim
100
AcDbTrace
 10
435.801741657003
 20
437.7530337675164
 30
0.0
 11
436.4627059886286
 21
437.6660245912002
 31
0.0
 12
436.3932513517644
 22
439.692422174235
 32
0.0
 13
436.3932513517644
 23
439.692422174235
 33
0.0
  0
SOLID
  5
5A8C
330
5A86
100
AcDbEntity
  8
Dim
100
AcDbTrace
 10
428.6237134689359
 20
383.2252149260474
 30
0.0
 11
429.2846778005614
 21
383.1382057497312
 31
0.0
 12
428.6931681058
 22
381.1988173430126
 32
0.0
 13
428.6931681058
 23
381.1988173430126
 33
0.0
  0
MTEXT
  5
5A8D
330
5A86
100
AcDbEntity
  8
Dim
100
AcDbMText
 10
430.3124551095459
 20
410.739275728691
 30
0.0
 40
2.5
 41
0.0
 71
     5
 72
     1
  1
59
  7
China
 11
0.1305137644743009
 21
0.9914464974383372
 31
0.0
 73
     1
 44
1.0
1001
ACAD
1000
MTEXTBEGIN
1070
    73
1070
     1
1070
    44
1040
1.0
1070
    74
1070
     0
1000
MTEXTEND
  0
POINT
  5
5A8E
330
5A86
100
AcDbEntity
  8
Defpoints
 62
     0
100
AcDbPoint
 10
520.7010000000001
 20
428.5941716091623
 30
0.0
  0
POINT
  5
5A8F
330
5A86
100
AcDbEntity
  8
Defpoints
 62
     0
100
AcDbPoint
 10
513.0009167540357
 20
370.1005667779399
 30
0.0
  0
POINT
  5
5A90
330
5A86
100
AcDbEntity
  8
Defpoints
 62
     0
100
AcDbPoint
 10
428.6931681058
 20
381.1988173430126
 30
0.0
  0
ENDBLK
  5
5A91
330
5A86
100
AcDbEntity
  8
0
100
AcDbBlockEnd
  0
BLOCK
  5
5A93
330
5A92
100
AcDbEntity
  8
0
100
AcDbBlockBegin
  2
*D38
 70
     1
 10
0.0
 20
0.0
 30
0.0
  3
*D38
  1

  0
LINE
  5
5A94
330
5A92
100
AcDbEntity
  8
Dim
100
AcDbLine
 10
383.0
 20
302.0991716091623
 30
0.0
 11
383.0
 21
275.5363666207511
 31
0.0
  0
LINE
  5
5A95
330
5A92
100
AcDbEntity
  8
Dim
100
AcDbLine
 10
322.0
 20
276.5363666207511
 30
0.0
 11
381.0
 21
276.5363666207511
 31
0.0
  0
SOLID
  5
5A96
330
5A92
100
AcDbEntity
  8
Dim
100
AcDbTrace
 10
322.0
 20
276.8696999540844
 30
0.0
 11
322.0
 21
276.2030332874178
 31
0.0
 12
320.0
 22
276.5363666207511
 32
0.0
 13
320.0
 23
276.5363666207511
 33
0.0
  0
SOLID
  5
5A97
330
5A92
100
AcDbEntity
  8
Dim
100
AcDbTrace
 10
381.0
 20
276.8696999540844
 30
0.0
 11
381.0
 21
276.2030332874178
 31
0.0
 12
383.0
 22
276.5363666207511
 32
0.0
 13
383.0
 23
276.5363666207511
 33
0.0
  0
MTEXT
  5
5A98
330
5A92
100
AcDbEntity
  8
Dim
100
AcDbMText
 10
351.5
 20
278.7863666207511
 30
0.0
 40
2.5
 41
0.0
 71
     5
 72
     1
  1
63
  7
China
 73
     1
 44
1.0
1001
ACAD
1000
MTEXTBEGIN
1070
    73
1070
     1
1070
    44
1040
1.0
1070
    74
1070
     0
1000
MTEXTEND
  0
POINT
  5
5A99
330
5A92
100
AcDbEntity
  8
Defpoints
 62
     0
100
AcDbPoint
 10
320.0
 20
276.5363666207511
 30
0.0
  0
POINT
  5
5A9A
330
5A92
100
AcDbEntity
  8
Defpoints
 62
     0
100
AcDbPoint
 10
383.0
 20
303.0991716091623
 30
0.0
  0
POINT
  5
5A9B
330
5A92
100
AcDbEntity
  8
Defpoints
 62
     0
100
AcDbPoint
 10
383.0
 20
276.5363666207511
 30
0.0
  0
ENDBLK
  5
5A9C
330
5A92
100
AcDbEntity
  8
0
100
AcDbBlockEnd
  0
BLOCK
  5
5A9E
330
5A9D
100
AcDbEntity
  8
0
100
AcDbBlockBegin
  2
*D39
 70
     1
 10
0.0
 20
0.0
 30
0.0
  3
*D39
  1

  0
LINE
  5
5A9F
330
5A9D
100
AcDbEntity
  8
Dim
100
AcDbLine
 10
504.9605656041205
 20
316.6913628506898
 30
0.0
 11
420.6530105212557
 21
327.7910836350133
 31
0.0
  0
LINE
  5
5AA0
330
5A9D
100
AcDbEntity
  8
Dim
100
AcDbLine
 10
503.6552417086095
 20
306.7768192004394
 30
0.0
 11
419.3476866257448
 21
317.8765399847629
 31
0.0
  0
LINE
  5
5AA1
330
5A9D
100
AcDbEntity
  8
Dim
100
AcDbLine
 10
421.3833926344404
 20
325.6776641383823
 30
0.0
 11
420.6001929551389
 21
319.7288973732892
 31
0.0
  0
SOLID
  5
5AA2
330
5A9D
100
AcDbEntity
  8
Dim
100
AcDbTrace
 10
421.0529112273439
 20
325.7211744897331
 30
0.0
 11
421.7138740415369
 21
325.6341537870315
 31
0.0
 12
421.6444547425451
 22
327.660552580961
 32
0.0
 13
421.6444547425451
 23
327.660552580961
 33
0.0
  0
SOLID
  5
5AA3
330
5A9D
100
AcDbEntity
  8
Dim
100
AcDbTrace
 10
420.2697115480424
 20
319.77240772464
 30
0.0
 11
420.9306743622353
 21
319.6853870219384
 31
0.0
 12
420.3391308470342
 22
317.7460089307106
 32
0.0
 13
420.3391308470342
 23
317.7460089307106
 33
0.0
  0
MTEXT
  5
5AA4
330
5A9D
100
AcDbEntity
  8
Dim
100
AcDbMText
 10
418.7610432968886
 20
322.9969756274535
 30
0.0
 40
2.5
 41
0.0
 71
     5
 72
     1
  1
10
  7
China
 11
0.1305310540523449
 21
0.9914442212893188
 31
0.0
 73
     1
 44
1.0
1001
ACAD
1000
MTEXTBEGIN
1070
    73
1070
     1
1070
    44
1040
1.0
1070
    74
1070
     0
1000
MTEXTEND
  0
POINT
  5
5AA5
330
5A9D
100
AcDbEntity
  8
Defpoints
 62
     0
100
AcDbPoint
 10
505.9520098254098
 20
316.5608317966374
 30
0.0
  0
POINT
  5
5AA6
330
5A9D
100
AcDbEntity
  8
Defpoints
 62
     0
100
AcDbPoint
 10
504.6466859298988
 20
306.6462881463871
 30
0.0
  0
POINT
  5
5AA7
330
5A9D
100
AcDbEntity
  8
Defpoints
 62
     0
100
AcDbPoint
 10
420.3391308470342
 20
317.7460089307106
 30
0.0
  0
ENDBLK
  5
5AA8
330
5A9D
100
AcDbEntity
  8
0
100
AcDbBlockEnd
  0
BLOCK
  5
5AAA
330
5AA9
100
AcDbEntity
  8
0
100
AcDbBlockBegin
  2
*D40
 70
     1
 10
0.0
 20
0.0
 30
0.0
  3
*D40
  1

  0
LINE
  5
5AAB
330
5AA9
100
AcDbEntity
  8
Dim
100
AcDbLine
 10
512.0090804342753
 20
370.2281196612712
 30
0.0
 11
427.7015253514106
 21
381.3278404455945
 31
0.0
  0
LINE
  5
5AAC
330
5AA9
100
AcDbEntity
  8
Dim
100
AcDbLine
 10
504.9605656041205
 20
316.6913628506898
 30
0.0
 11
420.6530105212557
 21
327.791083635013
 31
0.0
  0
LINE
  5
5AAD
330
5AA9
100
AcDbEntity
  8
Dim
100
AcDbLine
 10
428.4319074645952
 20
379.2144209489634
 30
0.0
 11
421.9055168506497
 21
329.6434410235393
 31
0.0
  0
SOLID
  5
5AAE
330
5AA9
100
AcDbEntity
  8
Dim
100
AcDbTrace
 10
428.1014260574988
 20
379.2579313003142
 30
0.0
 11
428.7623888716916
 21
379.1709105976126
 31
0.0
 12
428.6929695726999
 22
381.1973093915421
 32
0.0
 13
428.6929695726999
 23
381.1973093915421
 33
0.0
  0
SOLID
  5
5AAF
330
5AA9
100
AcDbEntity
  8
Dim
100
AcDbTrace
 10
421.5750354435533
 20
329.6869513748901
 30
0.0
 11
422.2359982577461
 21
329.5999306721885
 31
0.0
 12
421.644454742545
 22
327.6605525809606
 32
0.0
 13
421.644454742545
 23
327.6605525809606
 33
0.0
  0
MTEXT
  5
5AB0
330
5AA9
100
AcDbEntity
  8
Dim
100
AcDbMText
 10
422.9379626597214
 20
354.7226258578691
 30
0.0
 40
2.5
 41
0.0
 71
     5
 72
     1
  1
54
  7
China
 11
0.1305310540523414
 21
0.9914442212893192
 31
0.0
 73
     1
 44
1.0
1001
ACAD
1000
MTEXTBEGIN
1070
    73
1070
     1
1070
    44
1040
1.0
1070
    74
1070
     0
1000
MTEXTEND
  0
POINT
  5
5AB1
330
5AA9
100
AcDbEntity
  8
Defpoints
 62
     0
100
AcDbPoint
 10
513.0005246555646
 20
370.0975886072189
 30
0.0
  0
POINT
  5
5AB2
330
5AA9
100
AcDbEntity
  8
Defpoints
 62
     0
100
AcDbPoint
 10
505.9520098254098
 20
316.5608317966375
 30
0.0
  0
POINT
  5
5AB3
330
5AA9
100
AcDbEntity
  8
Defpoints
 62
     0
100
AcDbPoint
 10
421.644454742545
 20
327.6605525809606
 30
0.0
  0
ENDBLK
  5
5AB4
330
5AA9
100
AcDbEntity
  8
0
100
AcDbBlockEnd
  0
BLOCK
  5
5AB6
330
5AB5
100
AcDbEntity
  8
0
100
AcDbBlockBegin
  2
*D41
 70
     1
 10
0.0
 20
0.0
 30
0.0
  3
*D41
  1

  0
LINE
  5
5AB7
330
5AB5
100
AcDbEntity
  8
Dim
100
AcDbLine
 10
334.4
 20
581.3881716091623
 30
0.0
 11
334.4
 21
642.5460290552189
 31
0.0
  0
LINE
  5
5AB8
330
5AB5
100
AcDbEntity
  8
Dim
100
AcDbLine
 10
363.0
 20
641.5460290552189
 30
0.0
 11
336.4
 21
641.5460290552189
 31
0.0
  0
SOLID
  5
5AB9
330
5AB5
100
AcDbEntity
  8
Dim
100
AcDbTrace
 10
363.0
 20
641.8793623885522
 30
0.0
 11
363.0
 21
641.2126957218855
 31
0.0
 12
365.0
 22
641.5460290552189
 32
0.0
 13
365.0
 23
641.5460290552189
 33
0.0
  0
SOLID
  5
5ABA
330
5AB5
100
AcDbEntity
  8
Dim
100
AcDbTrace
 10
336.4
 20
641.8793623885522
 30
0.0
 11
336.4
 21
641.2126957218855
 31
0.0
 12
334.4
 22
641.5460290552189
 32
0.0
 13
334.4
 23
641.5460290552189
 33
0.0
  0
MTEXT
  5
5ABB
330
5AB5
100
AcDbEntity
  8
Dim
100
AcDbMText
 10
349.7
 20
643.7960290552189
 30
0.0
 40
2.5
 41
0.0
 71
     5
 72
     1
  1
30.6
  7
China
 73
     1
 44
1.0
1001
ACAD
1000
MTEXTBEGIN
1070
    73
1070
     1
1070
    44
1040
1.0
1070
    74
1070
     0
1000
MTEXTEND
  0
POINT
  5
5ABC
330
5AB5
100
AcDbEntity
  8
Defpoints
 62
     0
100
AcDbPoint
 10
365.0
 20
641.5460290552189
 30
0.0
  0
POINT
  5
5ABD
330
5AB5
100
AcDbEntity
  8
Defpoints
 62
     0
100
AcDbPoint
 10
334.4
 20
580.3881716091622
 30
0.0
  0
POINT
  5
5ABE
330
5AB5
100
AcDbEntity
  8
Defpoints
 62
     0
100
AcDbPoint
 10
334.4
 20
641.5460290552189
 30
0.0
  0
ENDBLK
  5
5ABF
330
5AB5
100
AcDbEntity
  8
0
100
AcDbBlockEnd
  0
BLOCK
  5
5AC1
330
5AC0
100
AcDbEntity
  8
0
100
AcDbBlockBegin
  2
*D42
 70
     1
 10
0.0
 20
0.0
 30
0.0
  3
*D42
  1

  0
LINE
  5
5AC2
330
5AC0
100
AcDbEntity
  8
Dim
100
AcDbLine
 10
384.0
 20
627.0991716091623
 30
0.0
 11
427.7993523508694
 21
627.0991716091623
 31
0.0
  0
LINE
  5
5AC3
330
5AC0
100
AcDbEntity
  8
Dim
100
AcDbLine
 10
384.0
 20
493.0991716091623
 30
0.0
 11
427.7993523508694
 21
493.0991716091623
 31
0.0
  0
LINE
  5
5AC4
330
5AC0
100
AcDbEntity
  8
Dim
100
AcDbLine
 10
426.7993523508693
 20
625.0991716091623
 30
0.0
 11
426.7993523508693
 21
495.0991716091622
 31
0.0
  0
SOLID
  5
5AC5
330
5AC0
100
AcDbEntity
  8
Dim
100
AcDbTrace
 10
426.466019017536
 20
625.0991716091623
 30
0.0
 11
427.1326856842027
 21
625.0991716091623
 31
0.0
 12
426.7993523508693
 22
627.0991716091623
 32
0.0
 13
426.7993523508693
 23
627.0991716091623
 33
0.0
  0
SOLID
  5
5AC6
330
5AC0
100
AcDbEntity
  8
Dim
100
AcDbTrace
 10
426.466019017536
 20
495.0991716091622
 30
0.0
 11
427.1326856842027
 21
495.0991716091622
 31
0.0
 12
426.7993523508693
 22
493.0991716091623
 32
0.0
 13
426.7993523508693
 23
493.0991716091623
 33
0.0
  0
MTEXT
  5
5AC7
330
5AC0
100
AcDbEntity
  8
Dim
100
AcDbMText
 10
424.5493523508693
 20
560.0991716091624
 30
0.0
 40
2.5
 41
0.0
 71
     5
 72
     1
  1
%%C134
  7
China
 11
0.0000000000000001
 21
1.0
 31
0.0
 73
     1
 44
1.0
1001
ACAD
1000
MTEXTBEGIN
1070
    73
1070
     1
1070
    44
1040
1.0
1070
    74
1070
     0
1000
MTEXTEND
  0
POINT
  5
5AC8
330
5AC0
100
AcDbEntity
  8
Defpoints
 62
     0
100
AcDbPoint
 10
383.0
 20
627.0991716091623
 30
0.0
  0
POINT
  5
5AC9
330
5AC0
100
AcDbEntity
  8
Defpoints
 62
     0
100
AcDbPoint
 10
383.0
 20
493.0991716091623
 30
0.0
  0
POINT
  5
5ACA
330
5AC0
100
AcDbEntity
  8
Defpoints
 62
     0
100
AcDbPoint
 10
426.7993523508693
 20
493.0991716091623
 30
0.0
  0
ENDBLK
  5
5ACB
330
5AC0
100
AcDbEntity
  8
0
100
AcDbBlockEnd
  0
BLOCK
  5
5ACD
330
5ACC
100
AcDbEntity
  8
0
100
AcDbBlockBegin
  2
*D43
 70
     1
 10
0.0
 20
0.0
 30
0.0
  3
*D43
  1

  0
LINE
  5
5ACE
330
5ACC
100
AcDbEntity
  8
Dim
100
AcDbLine
 10
383.0
 20
628.0991716091623
 30
0.0
 11
383.0
 21
642.5460290552189
 31
0.0
  0
LINE
  5
5ACF
330
5ACC
100
AcDbEntity
  8
Dim
100
AcDbLine
 10
365.0
 20
617.9951716091623
 30
0.0
 11
365.0
 21
642.5460290552189
 31
0.0
  0
LINE
  5
5AD0
330
5ACC
100
AcDbEntity
  8
Dim
100
AcDbLine
 10
381.0
 20
641.5460290552189
 30
0.0
 11
367.0
 21
641.5460290552189
 31
0.0
  0
SOLID
  5
5AD1
330
5ACC
100
AcDbEntity
  8
Dim
100
AcDbTrace
 10
381.0
 20
641.8793623885522
 30
0.0
 11
381.0
 21
641.2126957218855
 31
0.0
 12
383.0
 22
641.5460290552189
 32
0.0
 13
383.0
 23
641.5460290552189
 33
0.0
  0
SOLID
  5
5AD2
330
5ACC
100
AcDbEntity
  8
Dim
100
AcDbTrace
 10
367.0
 20
641.8793623885522
 30
0.0
 11
367.0
 21
641.2126957218855
 31
0.0
 12
365.0
 22
641.5460290552189
 32
0.0
 13
365.0
 23
641.5460290552189
 33
0.0
  0
MTEXT
  5
5AD3
330
5ACC
100
AcDbEntity
  8
Dim
100
AcDbMText
 10
374.0
 20
643.7960290552189
 30
0.0
 40
2.5
 41
0.0
 71
     5
 72
     1
  1
18
  7
China
 73
     1
 44
1.0
1001
ACAD
1000
MTEXTBEGIN
1070
    73
1070
     1
1070
    44
1040
1.0
1070
    74
1070
     0
1000
MTEXTEND
  0
POINT
  5
5AD4
330
5ACC
100
AcDbEntity
  8
Defpoints
 62
     0
100
AcDbPoint
 10
383.0
 20
627.0991716091623
 30
0.0
  0
POINT
  5
5AD5
330
5ACC
100
AcDbEntity
  8
Defpoints
 62
     0
100
AcDbPoint
 10
365.0
 20
616.9951716091623
 30
0.0
  0
POINT
  5
5AD6
330
5ACC
100
AcDbEntity
  8
Defpoints
 62
     0
100
AcDbPoint
 10
365.0
 20
641.5460290552189
 30
0.0
  0
ENDBLK
  5
5AD7
330
5ACC
100
AcDbEntity
  8
0
100
AcDbBlockEnd
  0
BLOCK
  5
5C83
330
5ADA
100
AcDbEntity
  8
0
100
AcDbBlockBegin
  2
A$C15EF0BED
 70
     0
 10
0.0
 20
0.0
 30
0.0
  3
A$C15EF0BED
  1

  0
DIMENSION
  5
5ADB
330
5ADA
100
AcDbEntity
  8
Dim
100
AcDbDimension
  2
*D26
 10
241.3241997612795
 20
393.4857962346987
 30
0.0
 11
289.3241997612795
 21
395.7357962346987
 31
0.0
 12
-45.67580023872051
 22
-266.5991706462662
 32
0.0
 71
     5
 42
96.0
  3
ISO-25
100
AcDbAlignedDimension
 13
337.3241997612795
 23
386.4047204172766
 33
0.0
 14
241.3241997612795
 24
386.4047204172766
 34
0.0
100
AcDbRotatedDimension
  0
DIMENSION
  5
5ADC
330
5ADA
100
AcDbEntity
  8
Dim
100
AcDbDimension
  2
*D25
 10
337.3241997612795
 20
386.4047204172766
 30
0.0
 11
292.3241997612795
 21
388.6547204172766
 31
0.0
 12
-45.67580023872051
 22
-266.5991706462662
 32
0.0
 71
     5
 42
90.0
  3
ISO-25
100
AcDbAlignedDimension
 13
247.3241997612795
 23
351.9650009628962
 33
0.0
 14
337.3241997612795
 24
374.9468584089527
 34
0.0
100
AcDbRotatedDimension
  0
DIMENSION
  5
5ADD
330
5ADA
100
AcDbEntity
  8
Dim
100
AcDbDimension
  2
*D24
 10
259.3241997612795
 20
9.937195974484893
 30
0.0
 11
266.8241997612795
 21
12.18719597448489
 31
0.0
 12
-45.67580023872051
 22
-266.5991706462662
 32
0.0
 71
     5
 42
15.0
  3
ISO-25
100
AcDbAlignedDimension
 13
274.3241997612795
 23
27.01700096289613
 33
0.0
 14
259.3241997612795
 24
27.01700096289613
 34
0.0
100
AcDbRotatedDimension
  0
LINE
  5
5ADE
330
5ADA
100
AcDbEntity
  8
0
  6
Continuous
 62
     7
100
AcDbLine
 10
259.3241997612795
 20
27.01700096289613
 30
0.0
 11
274.3241997612795
 21
27.01700096289613
 31
0.0
  0
LINE
  5
5ADF
330
5ADA
100
AcDbEntity
  8
0
  6
Continuous
 62
     7
100
AcDbLine
 10
259.3241997612795
 20
44.02200096289613
 30
0.0
 11
274.3241997612795
 21
44.02200096289613
 31
0.0
  0
LINE
  5
5AE0
330
5ADA
100
AcDbEntity
  8
0
  6
CENTER
 62
     2
100
AcDbLine
 10
235.8491997612794
 20
103.5000009628961
 30
0.0
 11
344.1481997612795
 21
103.5000009628961
 31
0.0
  0
LINE
  5
5AE1
330
5ADA
100
AcDbEntity
  8
0
  6
Continuous
 62
     7
100
AcDbLine
 10
251.9431997612795
 20
89.59300096289622
 30
0.0
 11
337.3241997612795
 21
89.59300096289622
 31
0.0
  0
LINE
  5
5AE2
330
5ADA
100
AcDbEntity
  8
0
  6
Continuous
 62
     7
100
AcDbLine
 10
251.9431997612795
 20
72.02900096289614
 30
0.0
 11
337.3241997612795
 21
72.02900096289614
 31
0.0
  0
LINE
  5
5AE3
330
5ADA
100
AcDbEntity
  8
0
  6
Continuous
 62
     7
100
AcDbLine
 10
251.9431997612795
 20
117.4110009628962
 30
0.0
 11
337.3241997612795
 21
117.4110009628962
 31
0.0
  0
LINE
  5
5AE4
330
5ADA
100
AcDbEntity
  8
0
  6
Continuous
 62
     7
100
AcDbLine
 10
251.9431997612795
 20
134.974000962896
 30
0.0
 11
337.3241997612795
 21
134.974000962896
 31
0.0
  0
LINE
  5
5AE5
330
5ADA
100
AcDbEntity
  8
0
  6
Continuous
 62
     7
100
AcDbLine
 10
259.3241997612795
 20
55.87500096289613
 30
0.0
 11
274.3241997612795
 21
55.87500096289613
 31
0.0
  0
LINE
  5
5AE6
330
5ADA
100
AcDbEntity
  8
0
  6
Continuous
 62
     7
100
AcDbLine
 10
251.9431997612795
 20
226.5000009628961
 30
0.0
 11
337.3241997612795
 21
226.5000009628961
 31
0.0
  0
LINE
  5
5AE7
330
5ADA
100
AcDbEntity
  8
0
  6
Continuous
 62
     7
100
AcDbLine
 10
251.9431997612795
 20
234.3530009628962
 30
0.0
 11
337.3241997612795
 21
234.3530009628962
 31
0.0
  0
LINE
  5
5AE8
330
5ADA
100
AcDbEntity
  8
0
  6
Continuous
 62
     7
100
AcDbLine
 10
251.9431997612795
 20
227.9600009628962
 30
0.0
 11
337.3241997612795
 21
227.9600009628962
 31
0.0
  0
LINE
  5
5AE9
330
5ADA
100
AcDbEntity
  8
0
  6
Continuous
 62
     7
100
AcDbLine
 10
259.3241997612795
 20
179.983000962896
 30
0.0
 11
274.3241997612795
 21
179.983000962896
 31
0.0
  0
LINE
  5
5AEA
330
5ADA
100
AcDbEntity
  8
0
  6
Continuous
 62
     7
100
AcDbLine
 10
259.3241997612795
 20
162.9780009628962
 30
0.0
 11
274.3241997612795
 21
162.9780009628962
 31
0.0
  0
LINE
  5
5AEB
330
5ADA
100
AcDbEntity
  8
0
  6
Continuous
 62
     7
100
AcDbLine
 10
259.3241997612795
 20
151.1250009628961
 30
0.0
 11
274.3241997612795
 21
151.1250009628961
 31
0.0
  0
LINE
  5
5AEC
330
5ADA
100
AcDbEntity
  8
0
  6
CENTER
 62
     2
100
AcDbLine
 10
235.8491997612794
 20
293.5000009628961
 30
0.0
 11
344.1481997612795
 21
293.5000009628961
 31
0.0
  0
LINE
  5
5AED
330
5ADA
100
AcDbEntity
  8
0
  6
Continuous
 62
     7
100
AcDbLine
 10
259.3241997612795
 20
239.5280009628962
 30
0.0
 11
274.3241997612795
 21
239.5280009628962
 31
0.0
  0
LINE
  5
5AEE
330
5ADA
100
AcDbEntity
  8
0
  6
Continuous
 62
     7
100
AcDbLine
 10
259.3241997612795
 20
268.9730009628961
 30
0.0
 11
274.3241997612795
 21
268.9730009628961
 31
0.0
  0
LINE
  5
5AEF
330
5ADA
100
AcDbEntity
  8
0
  6
Continuous
 62
     7
100
AcDbLine
 10
259.3241997612795
 20
275.8190009628961
 30
0.0
 11
274.3241997612795
 21
275.8190009628961
 31
0.0
  0
LINE
  5
5AF0
330
5ADA
100
AcDbEntity
  8
0
  6
Continuous
 62
     7
100
AcDbLine
 10
241.3241997612795
 20
372.0000009628961
 30
0.0
 11
274.3241997612795
 21
372.0000009628961
 31
0.0
  0
LINE
  5
5AF1
330
5ADA
100
AcDbEntity
  8
0
  6
Continuous
 62
     7
100
AcDbLine
 10
259.3241997612795
 20
358.3070009628962
 30
0.0
 11
274.3241997612795
 21
358.3070009628962
 31
0.0
  0
DIMENSION
  5
5AF2
330
5ADA
100
AcDbEntity
  8
Dim
100
AcDbDimension
  2
*D28
 10
38.83029976127949
 20
22.53720382572055
 30
0.0
 11
78.07760795892227
 21
22.53720382572055
 31
0.0
 12
-45.67580023872051
 22
-266.5991706462662
 32
0.0
 70
   128
 71
     5
 42
78.49461639528556
  3
ISO-25
100
AcDbAlignedDimension
 13
117.324916156565
 23
103.4995594448062
 33
0.0
 14
38.83029976127949
 24
86.50000096289614
 34
0.0
100
AcDbRotatedDimension
  0
DIMENSION
  5
5AF3
330
5ADA
100
AcDbEntity
  8
Dim
100
AcDbDimension
  2
*D27
 10
76.83019976127948
 20
35.01368207965561
 30
0.0
 11
73.08019976127948
 21
37.26368207965561
 31
0.0
 12
-45.67580023872051
 22
-266.5991706462662
 32
0.0
 71
     5
 42
7.5
  3
ISO-25
100
AcDbAlignedDimension
 13
69.33019976127948
 23
35.01368207965561
 33
0.0
 14
76.83019976127948
 24
94.50000096289613
 34
0.0
100
AcDbRotatedDimension
  0
DIMENSION
  5
5AF4
330
5ADA
100
AcDbEntity
  8
Dim
100
AcDbDimension
  2
*D29
 10
69.33019976127948
 20
35.01368207965561
 30
0.0
 11
57.83024976127949
 21
37.26368207965561
 31
0.0
 12
-45.67580023872051
 22
-266.5991706462662
 32
0.0
 71
     5
 42
22.9999
  3
ISO-25
100
AcDbAlignedDimension
 13
46.33029976127949
 23
97.19200096289615
 33
0.0
 14
69.33019976127948
 24
97.19200096289615
 34
0.0
100
AcDbRotatedDimension
  0
LINE
  5
5AF5
330
5ADA
100
AcDbEntity
  8
0
  6
Continuous
 62
     7
100
AcDbLine
 10
81.76319976127947
 20
55.90400096289613
 30
0.0
 11
77.94619976127949
 21
49.29300096289614
 31
0.0
  0
LINE
  5
5AF6
330
5ADA
100
AcDbEntity
  8
0
  6
Continuous
 62
     7
100
AcDbLine
 10
111.1251997612795
 20
49.76000096289613
 30
0.0
 11
104.7731997612795
 21
50.88000096289613
 31
0.0
  0
LINE
  5
5AF7
330
5ADA
100
AcDbEntity
  8
0
  6
Continuous
 62
     7
100
AcDbLine
 10
104.7731997612795
 20
50.88000096289613
 30
0.0
 11
104.1311997612794
 21
47.23900096289617
 31
0.0
  0
LINE
  5
5AF8
330
5ADA
100
AcDbEntity
  8
0
  6
CENTER
 62
     2
100
AcDbLine
 10
157.3921997612795
 20
34.10100096289614
 30
0.0
 11
80.63519976127949
 21
167.0480009628961
 31
0.0
  0
LINE
  5
5AF9
330
5ADA
100
AcDbEntity
  8
0
  6
Continuous
 62
     7
100
AcDbLine
 10
171.2971997612795
 20
44.01700096289613
 30
0.0
 11
164.4511997612795
 21
55.87500096289613
 31
0.0
  0
LINE
  5
5AFA
330
5ADA
100
AcDbEntity
  8
0
  6
Continuous
 62
     7
100
AcDbLine
 10
164.3691997612795
 20
40.01700096289613
 30
0.0
 11
138.3691997612795
 21
85.05000096289609
 31
0.0
  0
LINE
  5
5AFB
330
5ADA
100
AcDbEntity
  8
0
  6
Continuous
 62
     7
100
AcDbLine
 10
148.7801997612795
 20
31.01700096289614
 30
0.0
 11
122.7801997612794
 21
76.05000096289614
 31
0.0
  0
LINE
  5
5AFC
330
5ADA
100
AcDbEntity
  8
0
  6
Continuous
 62
     7
100
AcDbLine
 10
156.8691997612795
 20
53.00800096289617
 30
0.0
 11
141.2801997612795
 21
44.00800096289617
 31
0.0
  0
LINE
  5
5AFD
330
5ADA
100
AcDbEntity
  8
0
  6
Continuous
 62
     7
100
AcDbLine
 10
241.3241997612795
 20
72.92500096289614
 30
0.0
 11
241.3241997612795
 21
31.01700096289614
 31
0.0
  0
LINE
  5
5AFE
330
5ADA
100
AcDbEntity
  8
0
  6
Continuous
 62
     7
100
AcDbLine
 10
259.3241997612795
 20
55.87500096289613
 30
0.0
 11
259.3241997612795
 21
40.02200096289612
 31
0.0
  0
LINE
  5
5AFF
330
5ADA
100
AcDbEntity
  8
0
  6
CENTER
 62
     2
100
AcDbLine
 10
158.2811997612795
 20
174.4380009628961
 30
0.0
 11
82.22519976127948
 21
42.70500096289618
 31
0.0
  0
CIRCLE
  5
5B00
330
5ADA
100
AcDbEntity
  8
0
  6
Continuous
 62
     7
100
AcDbCircle
 10
87.82419976127949
 20
52.40500096289611
 30
0.0
 40
4.5
  0
ARC
  5
5B01
330
5ADA
100
AcDbEntity
  8
0
  6
Continuous
 62
     7
100
AcDbCircle
 10
87.82419976127949
 20
52.40500096289611
 30
0.0
 40
7.0
100
AcDbArc
 50
330.0000000000001
 51
150.0
  0
ARC
  5
5B02
330
5ADA
100
AcDbEntity
  8
0
  6
Continuous
 62
     7
100
AcDbCircle
 10
117.3241997612795
 20
103.5000009628961
 30
0.0
 40
67.0
100
AcDbArc
 50
228.0199999999992
 51
251.9830000000002
  0
ARC
  5
5B03
330
5ADA
100
AcDbEntity
  8
0
  6
Continuous
 62
     7
100
AcDbCircle
 10
117.3241997612795
 20
103.5000009628961
 30
0.0
 40
67.0
100
AcDbArc
 50
307.7199999999995
 51
331.9850000000008
  0
ARC
  5
5B04
330
5ADA
100
AcDbEntity
  8
0
  6
CENTER
 62
     2
100
AcDbCircle
 10
117.3241997612795
 20
103.5000009628961
 30
0.0
 40
59.0002
100
AcDbArc
 50
234.2559999999996
 51
245.9389999999994
  0
ARC
  5
5B05
330
5ADA
100
AcDbEntity
  8
0
  6
Continuous
 62
     7
100
AcDbCircle
 10
117.3241997612795
 20
103.5000009628961
 30
0.0
 40
67.0
100
AcDbArc
 50
268.0189999999999
 51
292.2809999999996
  0
ARC
  5
5B06
330
5ADA
100
AcDbEntity
  8
0
  6
Continuous
 62
     7
100
AcDbCircle
 10
117.3241997612795
 20
103.5000009628961
 30
0.0
 40
59.0
100
AcDbArc
 50
262.4299999999997
 51
291.2260000000003
  0
LINE
  5
5B07
330
5ADA
100
AcDbEntity
  8
0
  6
Continuous
 62
     7
100
AcDbLine
 10
141.8521997612795
 20
27.01700096289613
 30
0.0
 11
135.0061997612794
 21
38.87500096289614
 31
0.0
  0
ARC
  5
5B08
330
5ADA
100
AcDbEntity
  8
0
  6
Continuous
 62
     7
100
AcDbCircle
 10
117.3241997612795
 20
103.5000009628961
 30
0.0
 40
59.0
100
AcDbArc
 50
246.8019999999994
 51
257.5729999999999
  0
LINE
  5
5B09
330
5ADA
100
AcDbEntity
  8
0
  6
Continuous
 62
     7
100
AcDbLine
 10
93.88719976127948
 20
48.90400096289614
 30
0.0
 11
90.07119976127951
 21
42.29400096289611
 31
0.0
  0
LINE
  5
5B0A
330
5ADA
100
AcDbEntity
  8
0
  6
Continuous
 62
     7
100
AcDbLine
 10
104.7721997612795
 20
46.70100096289615
 30
0.0
 11
104.0971997612795
 21
42.87600096289611
 31
0.0
  0
LINE
  5
5B0B
330
5ADA
100
AcDbEntity
  8
0
  6
Continuous
 62
     7
100
AcDbLine
 10
104.1311997612794
 20
47.23900096289617
 30
0.0
 11
104.7721997612795
 21
46.70100096289615
 31
0.0
  0
LINE
  5
5B0C
330
5ADA
100
AcDbEntity
  8
0
  6
Continuous
 62
     7
100
AcDbLine
 10
96.60119976127948
 20
39.78500096289611
 30
0.0
 11
101.6361997612795
 21
43.31000096289614
 31
0.0
  0
LINE
  5
5B0D
330
5ADA
100
AcDbEntity
  8
0
  6
Continuous
 62
     7
100
AcDbLine
 10
104.0971997612795
 20
42.87600096289611
 30
0.0
 11
101.6361997612795
 21
43.31000096289614
 31
0.0
  0
LINE
  5
5B0E
330
5ADA
100
AcDbEntity
  8
0
  6
Continuous
 62
     7
100
AcDbLine
 10
111.1251997612795
 20
49.76000096289613
 30
0.0
 11
110.4821997612795
 21
46.11700096289609
 31
0.0
  0
LINE
  5
5B0F
330
5ADA
100
AcDbEntity
  8
0
  6
Continuous
 62
     7
100
AcDbLine
 10
109.6961997612795
 20
45.83100096289615
 30
0.0
 11
109.0221997612795
 21
42.00800096289618
 31
0.0
  0
LINE
  5
5B10
330
5ADA
100
AcDbEntity
  8
0
  6
Continuous
 62
     7
100
AcDbLine
 10
110.4821997612795
 20
46.11700096289609
 30
0.0
 11
109.6961997612795
 21
45.83100096289615
 31
0.0
  0
LINE
  5
5B11
330
5ADA
100
AcDbEntity
  8
0
  6
Continuous
 62
     7
100
AcDbLine
 10
111.4841997612795
 20
41.57400096289615
 30
0.0
 11
109.0221997612795
 21
42.00800096289618
 31
0.0
  0
LINE
  5
5B12
330
5ADA
100
AcDbEntity
  8
0
  6
Continuous
 62
     7
100
AcDbLine
 10
115.0081997612795
 20
36.5400009628961
 30
0.0
 11
111.4841997612795
 21
41.57400096289615
 31
0.0
  0
TEXT
  5
5B13
330
5ADA
100
AcDbEntity
  8
0
 62
     4
100
AcDbText
 10
164.7076968120156
 20
22.5732997249587
 30
0.0
 40
1.6
  1
-0.043
 50
29.99999999999993
  7
China
100
AcDbText
  0
DIMENSION
  5
5B14
330
5ADA
100
AcDbEntity
  8
Dim
100
AcDbDimension
  2
*D30
 10
172.3474443223966
 20
26.19800349260595
 30
0.0
 11
161.1323475953153
 21
19.72309207625176
 31
0.0
 12
-45.67580023872051
 22
-266.5991706462662
 32
0.0
 70
   129
  1
18h9
 71
     5
 42
18.00047001988884
  3
ISO-25
100
AcDbAlignedDimension
 13
148.7801997612795
 23
31.01700096289614
 33
0.0
 14
164.3691409376397
 24
40.01710284770251
 34
0.0
  0
LINE
  5
5B15
330
5ADA
100
AcDbEntity
  8
0
  6
Continuous
 62
     7
100
AcDbLine
 10
171.2971997612795
 20
44.01700096289613
 30
0.0
 11
141.8521997612795
 21
27.01700096289613
 31
0.0
  0
TEXT
  5
5B16
330
5ADA
100
AcDbEntity
  8
0
 62
     4
100
AcDbText
 10
164.8606968120156
 20
25.47629972495872
 30
0.0
 40
1.6
  1
0
 50
29.99999999999993
  7
China
100
AcDbText
  0
LINE
  5
5B17
330
5ADA
100
AcDbEntity
  8
0
  6
CENTER
 62
     2
100
AcDbLine
 10
158.3481997612795
 20
45.20100096289616
 30
0.0
 11
147.3141997612795
 21
38.83100096289616
 31
0.0
  0
CIRCLE
  5
5B18
330
5ADA
100
AcDbEntity
  8
0
  6
Continuous
 62
     2
100
AcDbCircle
 10
152.8241997612795
 20
42.01200096289613
 30
0.0
 40
4.0
  0
CIRCLE
  5
5B19
330
5ADA
100
AcDbEntity
  8
0
  6
Continuous
 62
     7
100
AcDbCircle
 10
152.8241997612795
 20
42.01300096289616
 30
0.0
 40
3.3235
  0
LINE
  5
5B1A
330
5ADA
100
AcDbEntity
  8
0
  6
Continuous
 62
     7
100
AcDbLine
 10
259.3241997612795
 20
31.01700096289614
 30
0.0
 11
259.3241997612795
 21
27.01700096289613
 31
0.0
  0
LINE
  5
5B1B
330
5ADA
100
AcDbEntity
  8
0
  6
Continuous
 62
     7
100
AcDbLine
 10
241.3241997612795
 20
31.01700096289614
 30
0.0
 11
259.3241997612795
 21
31.01700096289614
 31
0.0
  0
LINE
  5
5B1C
330
5ADA
100
AcDbEntity
  8
0
  6
Continuous
 62
     7
100
AcDbLine
 10
241.3241997612795
 20
40.02200096289612
 30
0.0
 11
259.3241997612795
 21
40.02200096289612
 31
0.0
  0
LINE
  5
5B1D
330
5ADA
100
AcDbEntity
  8
0
  6
Continuous
 62
     4
100
AcDbLine
 10
-0.00000023872051
 20
201.6610009628962
 30
0.0
 11
60.65219976127949
 21
201.6610009628962
 31
0.0
  0
LINE
  5
5B1E
330
5ADA
100
AcDbEntity
  8
0
  6
Continuous
 62
     4
100
AcDbLine
 10
-0.00000023872051
 20
191.6610009628962
 30
0.0
 11
66.42519976127949
 21
191.6610009628962
 31
0.0
  0
TEXT
  5
5B1F
330
5ADA
100
AcDbEntity
  8
0
 62
     4
100
AcDbText
 10
1.89919976127949
 20
186.8890009628961
 30
0.0
 40
3.2
  1
(Mounting hole)
  7
China
100
AcDbText
  0
TEXT
  5
5B20
330
5ADA
100
AcDbEntity
  8
0
 62
     4
100
AcDbText
 10
1.997599761279488
 20
193.0720009628961
 30
0.0
 40
3.2
  1
P.C.D.118
  7
China
100
AcDbText
  0
TEXT
  5
5B21
330
5ADA
100
AcDbEntity
  8
0
 62
     4
100
AcDbText
 10
1.233199761279486
 20
203.2300009628961
 30
0.0
 40
3.2
  1
3-
  7
China
100
AcDbText
  0
LINE
  5
5B22
330
5ADA
100
AcDbEntity
  8
0
  6
Continuous
 62
     7
100
AcDbLine
 10
247.3241997612795
 20
234.4990009628962
 30
0.0
 11
247.3241997612795
 21
246.4560009628962
 31
0.0
  0
LINE
  5
5B23
330
5ADA
100
AcDbEntity
  8
0
  6
Continuous
 62
     7
100
AcDbLine
 10
251.9431997612795
 20
234.3530009628962
 30
0.0
 11
251.9431997612795
 21
246.4560009628962
 31
0.0
  0
LINE
  5
5B24
330
5ADA
100
AcDbEntity
  8
0
  6
Continuous
 62
     7
100
AcDbLine
 10
251.9431997612795
 20
234.3530009628962
 30
0.0
 11
247.3241997612795
 21
241.4140009628961
 31
0.0
  0
LINE
  5
5B25
330
5ADA
100
AcDbEntity
  8
0
  6
Continuous
 62
     7
100
AcDbLine
 10
148.7811997612794
 20
175.9830009628961
 30
0.0
 11
122.7811997612795
 21
130.9500009628962
 31
0.0
  0
LINE
  5
5B26
330
5ADA
100
AcDbEntity
  8
0
  6
CENTER
 62
     2
100
AcDbLine
 10
146.8481997612795
 20
141.8810009628961
 30
0.0
 11
135.8621997612795
 21
148.224000962896
 31
0.0
  0
CIRCLE
  5
5B27
330
5ADA
100
AcDbEntity
  8
0
  6
Continuous
 62
     2
100
AcDbCircle
 10
141.3241997612795
 20
145.0690009628961
 30
0.0
 40
4.0
  0
ARC
  5
5B28
330
5ADA
100
AcDbEntity
  8
0
  6
Continuous
 62
     7
100
AcDbCircle
 10
117.3241997612795
 20
103.5000009628961
 30
0.0
 40
67.0
100
AcDbArc
 50
67.71920000000064
 51
172.2800000000003
  0
CIRCLE
  5
5B29
330
5ADA
100
AcDbEntity
  8
0
  6
Continuous
 62
     7
100
AcDbCircle
 10
141.3251997612795
 20
145.0700009628961
 30
0.0
 40
3.3235
  0
LINE
  5
5B2A
330
5ADA
100
AcDbEntity
  8
0
  6
CENTER
 62
     2
100
AcDbLine
 10
35.37469976127949
 20
103.5000009628961
 30
0.0
 11
190.0631997612795
 21
103.5000009628961
 31
0.0
  0
LINE
  5
5B2B
330
5ADA
100
AcDbEntity
  8
0
  6
Continuous
 62
     7
100
AcDbLine
 10
152.8691997612795
 20
59.93600096289617
 30
0.0
 11
137.2801997612794
 21
50.93600096289617
 31
0.0
  0
LINE
  5
5B2C
330
5ADA
100
AcDbEntity
  8
0
  6
Continuous
 62
     7
100
AcDbLine
 10
145.3691997612795
 20
72.92600096289612
 30
0.0
 11
129.7801997612795
 21
63.92600096289612
 31
0.0
  0
LINE
  5
5B2D
330
5ADA
100
AcDbEntity
  8
0
  6
CENTER
 62
     2
100
AcDbLine
 10
146.8481997612795
 20
65.12000096289614
 30
0.0
 11
135.8621997612795
 21
58.77700096289612
 31
0.0
  0
CIRCLE
  5
5B2E
330
5ADA
100
AcDbEntity
  8
0
  6
Continuous
 62
     2
100
AcDbCircle
 10
141.3241997612795
 20
61.93100096289618
 30
0.0
 40
4.0
  0
CIRCLE
  5
5B2F
330
5ADA
100
AcDbEntity
  8
0
  6
Continuous
 62
     7
100
AcDbCircle
 10
141.3241997612795
 20
61.93100096289618
 30
0.0
 40
3.3235
  0
LINE
  5
5B30
330
5ADA
100
AcDbEntity
  8
0
  6
Continuous
 62
     7
100
AcDbLine
 10
122.7811997612795
 20
76.05000096289614
 30
0.0
 11
138.3691997612795
 21
85.05000096289609
 31
0.0
  0
LINE
  5
5B31
330
5ADA
100
AcDbEntity
  8
0
  6
Continuous
 62
     7
100
AcDbLine
 10
145.3701997612794
 20
134.0740009628962
 30
0.0
 11
129.7811997612795
 21
143.0740009628962
 31
0.0
  0
LINE
  5
5B32
330
5ADA
100
AcDbEntity
  8
0
  6
Continuous
 62
     7
100
AcDbLine
 10
122.7811997612795
 20
130.9500009628962
 30
0.0
 11
138.3701997612795
 21
121.9500009628962
 31
0.0
  0
ARC
  5
5B33
330
5ADA
100
AcDbEntity
  8
0
  6
Continuous
 62
     7
100
AcDbCircle
 10
117.3241997612795
 20
103.5000009628961
 30
0.0
 40
59.0
100
AcDbArc
 50
68.77329999999961
 51
113.1980000000005
  0
LINE
  5
5B34
330
5ADA
100
AcDbEntity
  8
0
  6
Continuous
 62
     4
100
AcDbLine
 10
131.6521997612795
 20
201.6610009628962
 30
0.0
 11
150.8251997612795
 21
168.4530009628961
 31
0.0
  0
LINE
  5
5B35
330
5ADA
100
AcDbEntity
  8
0
  6
Continuous
 62
     7
100
AcDbLine
 10
152.8701997612795
 20
147.0650009628962
 30
0.0
 11
137.2811997612795
 21
156.0650009628962
 31
0.0
  0
LINE
  5
5B36
330
5ADA
100
AcDbEntity
  8
0
  6
Continuous
 62
     7
100
AcDbLine
 10
141.8531997612794
 20
179.983000962896
 30
0.0
 11
135.0071997612795
 21
168.1250009628961
 31
0.0
  0
ARC
  5
5B37
330
5ADA
100
AcDbEntity
  8
0
  6
Continuous
 62
     7
100
AcDbCircle
 10
117.3241997612795
 20
103.5000009628961
 30
0.0
 40
35.0
100
AcDbArc
 50
74.89899999999995
 51
165.0989999999984
  0
ARC
  5
5B38
330
5ADA
100
AcDbEntity
  8
0
  6
Continuous
 62
     7
100
AcDbCircle
 10
117.3241997612795
 20
103.5000009628961
 30
0.0
 40
59.0
100
AcDbArc
 50
126.8020000000005
 51
171.2259999999993
  0
LINE
  5
5B39
330
5ADA
100
AcDbEntity
  8
0
  6
Continuous
 62
     7
100
AcDbLine
 10
38.83029976127949
 20
94.50000096289613
 30
0.0
 11
90.82519976127949
 21
94.50000096289613
 31
0.0
  0
LINE
  5
5B3A
330
5ADA
100
AcDbEntity
  8
0
  6
Continuous
 62
     7
100
AcDbLine
 10
73.88719976127949
 20
71.26100096289611
 30
0.0
 11
71.05319976127948
 21
68.88300096289618
 31
0.0
  0
LINE
  5
5B3B
330
5ADA
100
AcDbEntity
  8
0
  6
Continuous
 62
     7
100
AcDbLine
 10
74.41219976127948
 20
64.22800096289615
 30
0.0
 11
71.43919976127948
 21
61.73300096289614
 31
0.0
  0
LINE
  5
5B3C
330
5ADA
100
AcDbEntity
  8
0
  6
Continuous
 62
     7
100
AcDbLine
 10
71.43919976127948
 20
61.73300096289614
 30
0.0
 11
73.04619976127948
 21
59.81800096289612
 31
0.0
  0
LINE
  5
5B3D
330
5ADA
100
AcDbEntity
  8
0
  6
Continuous
 62
     7
100
AcDbLine
 10
73.04619976127948
 20
59.81800096289612
 30
0.0
 11
72.51019976127949
 21
53.69300096289612
 31
0.0
  0
LINE
  5
5B3E
330
5ADA
100
AcDbEntity
  8
0
  6
Continuous
 62
     7
100
AcDbLine
 10
38.83029976127949
 20
112.5000009628961
 30
0.0
 11
90.82519976127949
 21
112.5000009628961
 31
0.0
  0
CIRCLE
  5
5B3F
330
5ADA
100
AcDbEntity
  8
0
  6
Continuous
 62
     2
100
AcDbCircle
 10
69.32919976127948
 20
103.5000009628961
 30
0.0
 40
4.0
  0
CIRCLE
  5
5B40
330
5ADA
100
AcDbEntity
  8
0
  6
Continuous
 62
     7
100
AcDbCircle
 10
69.33019976127948
 20
103.5000009628961
 30
0.0
 40
3.3235
  0
LINE
  5
5B41
330
5ADA
100
AcDbEntity
  8
0
  6
Continuous
 62
     7
100
AcDbLine
 10
38.83029976127949
 20
120.5000009628961
 30
0.0
 11
38.83029976127949
 21
86.50000096289614
 31
0.0
  0
LINE
  5
5B42
330
5ADA
100
AcDbEntity
  8
0
  6
Continuous
 62
     7
100
AcDbLine
 10
53.83029976127949
 20
112.5000009628961
 30
0.0
 11
53.83029976127949
 21
94.50000096289613
 31
0.0
  0
LINE
  5
5B43
330
5ADA
100
AcDbEntity
  8
0
  6
Continuous
 62
     7
100
AcDbLine
 10
61.83019976127948
 20
112.5000009628961
 30
0.0
 11
61.83019976127948
 21
94.50000096289613
 31
0.0
  0
LINE
  5
5B44
330
5ADA
100
AcDbEntity
  8
0
  6
Continuous
 62
     7
100
AcDbLine
 10
38.83029976127949
 20
86.50000096289614
 30
0.0
 11
52.51679976127949
 21
86.50000096289614
 31
0.0
  0
ARC
  5
5B45
330
5ADA
100
AcDbEntity
  8
0
  6
Continuous
 62
     7
100
AcDbCircle
 10
117.3241997612795
 20
103.5000009628961
 30
0.0
 40
59.0
100
AcDbArc
 50
188.7740000000007
 51
217.5710000000006
  0
ARC
  5
5B46
330
5ADA
100
AcDbEntity
  8
0
  6
Continuous
 62
     7
100
AcDbCircle
 10
117.3241997612795
 20
103.5000009628961
 30
0.0
 40
67.0
100
AcDbArc
 50
187.7199999999996
 51
211.980999999999
  0
LINE
  5
5B47
330
5ADA
100
AcDbEntity
  8
0
  6
Continuous
 62
     7
100
AcDbLine
 10
71.05319976127948
 20
68.88300096289618
 30
0.0
 11
71.19819976127948
 21
68.05800096289613
 31
0.0
  0
LINE
  5
5B48
330
5ADA
100
AcDbEntity
  8
0
  6
Continuous
 62
     7
100
AcDbLine
 10
66.61819976127948
 20
67.47800096289615
 30
0.0
 11
68.22519976127948
 21
65.56300096289612
 31
0.0
  0
LINE
  5
5B49
330
5ADA
100
AcDbEntity
  8
0
  6
Continuous
 62
     7
100
AcDbLine
 10
66.61819976127948
 20
67.47800096289615
 30
0.0
 11
60.49319976127948
 21
68.01400096289615
 31
0.0
  0
LINE
  5
5B4A
330
5ADA
100
AcDbEntity
  8
0
  6
Continuous
 62
     7
100
AcDbLine
 10
71.19819976127948
 20
68.05800096289613
 30
0.0
 11
68.22519976127948
 21
65.56300096289612
 31
0.0
  0
LINE
  5
5B4B
330
5ADA
100
AcDbEntity
  8
0
  6
Continuous
 62
     7
100
AcDbLine
 10
38.83029976127949
 20
120.5000009628961
 30
0.0
 11
52.51679976127949
 21
120.5000009628961
 31
0.0
  0
CIRCLE
  5
5B4C
330
5ADA
100
AcDbEntity
  8
0
  6
Continuous
 62
     2
100
AcDbCircle
 10
46.32909976127949
 20
103.5000009628961
 30
0.0
 40
4.0
  0
CIRCLE
  5
5B4D
330
5ADA
100
AcDbEntity
  8
0
  6
Continuous
 62
     7
100
AcDbCircle
 10
46.33009976127948
 20
103.5000009628961
 30
0.0
 40
3.3235
  0
LINE
  5
5B4E
330
5ADA
100
AcDbEntity
  8
0
  6
CENTER
 62
     2
100
AcDbLine
 10
46.33029976127949
 20
109.878000962896
 30
0.0
 11
46.33029976127949
 21
97.19200096289615
 31
0.0
  0
LINE
  5
5B4F
330
5ADA
100
AcDbEntity
  8
0
  6
CENTER
 62
     2
100
AcDbLine
 10
69.33019976127948
 20
109.878000962896
 30
0.0
 11
69.33019976127948
 21
97.19200096289615
 31
0.0
  0
LINE
  5
5B50
330
5ADA
100
AcDbEntity
  8
0
  6
Continuous
 62
     7
100
AcDbLine
 10
76.83019976127948
 20
112.5000009628961
 30
0.0
 11
76.83019976127948
 21
94.50000096289613
 31
0.0
  0
LINE
  5
5B51
330
5ADA
100
AcDbEntity
  8
0
  6
Continuous
 62
     7
100
AcDbLine
 10
90.82519976127949
 20
112.5000009628961
 30
0.0
 11
90.82519976127949
 21
94.50000096289613
 31
0.0
  0
ARC
  5
5B52
330
5ADA
100
AcDbEntity
  8
0
  6
Continuous
 62
     7
100
AcDbCircle
 10
117.3241997612795
 20
103.5000009628961
 30
0.0
 40
35.0
100
AcDbArc
 50
194.9010000000016
 51
285.1
  0
LINE
  5
5B53
330
5ADA
100
AcDbEntity
  8
0
  6
Continuous
 62
     7
100
AcDbLine
 10
73.88719976127949
 20
71.26100096289611
 30
0.0
 11
78.03319976127949
 21
66.32000096289613
 31
0.0
  0
LINE
  5
5B54
330
5ADA
100
AcDbEntity
  8
0
  6
Continuous
 62
     7
100
AcDbLine
 10
78.03319976127949
 20
66.32000096289613
 30
0.0
 11
75.19919976127948
 21
63.94200096289615
 31
0.0
  0
LINE
  5
5B55
330
5ADA
100
AcDbEntity
  8
0
  6
Continuous
 62
     7
100
AcDbLine
 10
75.19919976127948
 20
63.94200096289615
 30
0.0
 11
74.41219976127948
 21
64.22800096289615
 31
0.0
  0
ARC
  5
5B56
330
5ADA
100
AcDbEntity
  8
0
  6
Continuous
 62
     7
100
AcDbCircle
 10
117.3241997612795
 20
103.5000009628961
 30
0.0
 40
59.0
100
AcDbArc
 50
222.4290000000011
 51
233.1979999999998
  0
POINT
  5
5B57
330
5ADA
100
AcDbEntity
  8
0
100
AcDbPoint
 10
117.3241997612795
 20
103.5000009628961
 30
0.0
  0
LINE
  5
5B58
330
5ADA
100
AcDbEntity
  8
0
  6
Continuous
 62
     4
100
AcDbLine
 10
60.65119976127949
 20
201.6610009628962
 30
0.0
 11
85.57419976127949
 21
158.493000962896
 31
0.0
  0
TEXT
  5
5B59
330
5ADA
100
AcDbEntity
  8
0
 62
     4
100
AcDbText
 10
10.83319976127949
 20
203.2300009628961
 30
0.0
 40
3.2
  1
9BORE14xDEPTH21
  7
China
100
AcDbText
  0
LINE
  5
5B5A
330
5ADA
100
AcDbEntity
  8
0
  6
Continuous
 62
     4
100
AcDbLine
 10
8.651899761279487
 20
203.2320009628961
 30
0.0
 11
9.814799761279488
 21
206.4270009628962
 31
0.0
  0
CIRCLE
  5
5B5B
330
5ADA
100
AcDbEntity
  8
0
  6
Continuous
 62
     4
100
AcDbCircle
 10
9.233299761279489
 20
204.830000962896
 30
0.0
 40
0.9
  0
ARC
  5
5B5C
330
5ADA
100
AcDbEntity
  8
0
  6
Continuous
 62
     7
100
AcDbCircle
 10
87.82419976127949
 20
154.5960009628961
 30
0.0
 40
7.0
100
AcDbArc
 50
210.0
 51
29.99990000000073
  0
CIRCLE
  5
5B5D
330
5ADA
100
AcDbEntity
  8
0
  6
Continuous
 62
     7
100
AcDbCircle
 10
87.82419976127949
 20
154.5960009628961
 30
0.0
 40
4.5
  0
ARC
  5
5B5E
330
5ADA
100
AcDbEntity
  8
0
  6
CENTER
 62
     2
100
AcDbCircle
 10
117.3241997612795
 20
103.5000009628961
 30
0.0
 40
59.0002
100
AcDbArc
 50
114.6029999999998
 51
125.6319999999993
  0
LINE
  5
5B5F
330
5ADA
100
AcDbEntity
  8
0
  6
Continuous
 62
     7
100
AcDbLine
 10
81.76319976127947
 20
151.0950009628961
 30
0.0
 11
77.94619976127949
 21
157.7060009628961
 31
0.0
  0
LINE
  5
5B60
330
5ADA
100
AcDbEntity
  8
0
  6
Continuous
 62
     7
100
AcDbLine
 10
93.88719976127948
 20
158.0950009628961
 30
0.0
 11
90.07019976127949
 21
164.7060009628961
 31
0.0
  0
LINE
  5
5B61
330
5ADA
100
AcDbEntity
  8
0
  6
Continuous
 62
     4
100
AcDbLine
 10
80.41419976127949
 20
201.6610009628962
 30
0.0
 11
131.6521997612795
 21
201.6610009628962
 31
0.0
  0
TEXT
  5
5B62
330
5ADA
100
AcDbEntity
  8
0
 62
     4
100
AcDbText
 10
95.9871997612795
 20
202.9360009628961
 30
0.0
 40
3.2
  1
1.25DEPTH16
  7
China
100
AcDbText
  0
TEXT
  5
5B63
330
5ADA
100
AcDbEntity
  8
0
 62
     4
100
AcDbText
 10
79.98719976127948
 20
202.9360009628961
 30
0.0
 40
3.2
  1
6-M8
  7
China
100
AcDbText
  0
LINE
  5
5B64
330
5ADA
100
AcDbEntity
  8
0
  6
Continuous
 62
     4
100
AcDbLine
 10
93.4871997612795
 20
203.4640009628961
 30
0.0
 11
95.28719976127948
 21
205.609000962896
 31
0.0
  0
LINE
  5
5B65
330
5ADA
100
AcDbEntity
  8
0
  6
Continuous
 62
     4
100
AcDbLine
 10
93.4871997612795
 20
205.609000962896
 30
0.0
 11
95.28719976127948
 21
203.4640009628961
 31
0.0
  0
LINE
  5
5B66
330
5ADA
100
AcDbEntity
  8
0
  6
Continuous
 62
     7
100
AcDbLine
 10
164.3701997612795
 20
166.9830009628961
 30
0.0
 11
138.3701997612795
 21
121.9500009628962
 31
0.0
  0
ARC
  5
5B67
330
5ADA
100
AcDbEntity
  8
0
  6
Continuous
 62
     7
100
AcDbCircle
 10
117.3241997612795
 20
103.5000009628961
 30
0.0
 40
67.0
100
AcDbArc
 50
28.01540000000036
 51
52.27940000000105
  0
ARC
  5
5B68
330
5ADA
100
AcDbEntity
  8
0
  6
Continuous
 62
     7
100
AcDbCircle
 10
117.3241997612795
 20
103.5000009628961
 30
0.0
 40
59.0
100
AcDbArc
 50
22.42850000000117
 51
51.22479999999957
  0
LINE
  5
5B69
330
5ADA
100
AcDbEntity
  8
0
  6
Continuous
 62
     7
100
AcDbLine
 10
247.3241997612795
 20
56.83000096289617
 30
0.0
 11
247.3241997612795
 21
150.1700009628962
 31
0.0
  0
LINE
  5
5B6A
330
5ADA
100
AcDbEntity
  8
0
  6
Continuous
 62
     7
100
AcDbLine
 10
251.9431997612795
 20
156.4980009628962
 30
0.0
 11
251.9431997612795
 21
134.974000962896
 31
0.0
  0
LINE
  5
5B6B
330
5ADA
100
AcDbEntity
  8
0
  6
Continuous
 62
     7
100
AcDbLine
 10
241.3241997612795
 20
134.0750009628962
 30
0.0
 11
241.3241997612795
 21
175.9830009628961
 31
0.0
  0
ARC
  5
5B6C
330
5ADA
100
AcDbEntity
  8
0
  6
Continuous
 62
     7
100
AcDbCircle
 10
117.3241997612795
 20
103.5000009628961
 30
0.0
 40
67.0
100
AcDbArc
 50
348.0190000000014
 51
11.98430000000121
  0
ARC
  5
5B6D
330
5ADA
100
AcDbEntity
  8
0
  6
Continuous
 62
     7
100
AcDbCircle
 10
117.3241997612795
 20
103.5000009628961
 30
0.0
 40
35.0
100
AcDbArc
 50
314.9020000000007
 51
45.09770000000101
  0
ARC
  5
5B6E
330
5ADA
100
AcDbEntity
  8
0
  6
Continuous
 62
     7
100
AcDbCircle
 10
176.3241997612795
 20
103.5000009628961
 30
0.0
 40
7.0
100
AcDbArc
 50
89.99990000000011
 51
270.0
  0
ARC
  5
5B6F
330
5ADA
100
AcDbEntity
  8
0
  6
Continuous
 62
     7
100
AcDbCircle
 10
117.3241997612795
 20
103.5000009628961
 30
0.0
 40
59.0
100
AcDbArc
 50
308.7749999999994
 51
337.573999999999
  0
LINE
  5
5B70
330
5ADA
100
AcDbEntity
  8
0
  6
Continuous
 62
     7
100
AcDbLine
 10
169.1721997612795
 20
88.06300096289612
 30
0.0
 11
172.6511997612795
 21
86.79700096289616
 31
0.0
  0
LINE
  5
5B71
330
5ADA
100
AcDbEntity
  8
0
  6
Continuous
 62
     7
100
AcDbLine
 10
170.4441997612795
 20
80.73700096289611
 30
0.0
 11
171.0841997612795
 21
81.27500096289612
 31
0.0
  0
LINE
  5
5B72
330
5ADA
100
AcDbEntity
  8
0
  6
Continuous
 62
     7
100
AcDbLine
 10
166.9661997612795
 20
82.00300096289613
 30
0.0
 11
169.1721997612795
 21
88.06300096289612
 31
0.0
  0
LINE
  5
5B73
330
5ADA
100
AcDbEntity
  8
0
  6
Continuous
 62
     7
100
AcDbLine
 10
166.9661997612795
 20
82.00300096289613
 30
0.0
 11
170.4431997612795
 21
80.73700096289611
 31
0.0
  0
POINT
  5
5B74
330
5ADA
100
AcDbEntity
  8
0
100
AcDbPoint
 10
168.0691997612795
 20
85.03300096289615
 30
0.0
  0
LINE
  5
5B75
330
5ADA
100
AcDbEntity
  8
0
  6
Continuous
 62
     7
100
AcDbLine
 10
173.8771997612795
 20
77.59800096289615
 30
0.0
 11
176.4731997612795
 21
72.03000096289611
 31
0.0
  0
LINE
  5
5B76
330
5ADA
100
AcDbEntity
  8
0
  6
Continuous
 62
     7
100
AcDbLine
 10
176.3241997612795
 20
96.50000096289614
 30
0.0
 11
183.9581997612794
 21
96.50000096289614
 31
0.0
  0
LINE
  5
5B77
330
5ADA
100
AcDbEntity
  8
0
  6
Continuous
 62
     7
100
AcDbLine
 10
171.0841997612795
 20
81.27500096289612
 30
0.0
 11
174.7321997612794
 21
79.94700096289614
 31
0.0
  0
LINE
  5
5B78
330
5ADA
100
AcDbEntity
  8
0
  6
Continuous
 62
     7
100
AcDbLine
 10
172.7961997612795
 20
85.97300096289609
 30
0.0
 11
176.4421997612795
 21
84.64600096289609
 31
0.0
  0
LINE
  5
5B79
330
5ADA
100
AcDbEntity
  8
0
  6
Continuous
 62
     7
100
AcDbLine
 10
172.6511997612795
 20
86.79700096289616
 30
0.0
 11
172.7961997612795
 21
85.97300096289609
 31
0.0
  0
LINE
  5
5B7A
330
5ADA
100
AcDbEntity
  8
0
  6
Continuous
 62
     7
100
AcDbLine
 10
173.8771997612795
 20
77.59800096289615
 30
0.0
 11
174.7321997612794
 21
79.94700096289614
 31
0.0
  0
LINE
  5
5B7B
330
5ADA
100
AcDbEntity
  8
0
  6
Continuous
 62
     7
100
AcDbLine
 10
177.2971997612795
 20
86.99500096289614
 30
0.0
 11
182.8641997612795
 21
89.59200096289611
 31
0.0
  0
LINE
  5
5B7C
330
5ADA
100
AcDbEntity
  8
0
  6
Continuous
 62
     7
100
AcDbLine
 10
176.4421997612795
 20
84.64600096289609
 30
0.0
 11
177.2971997612795
 21
86.99500096289614
 31
0.0
  0
ARC
  5
5B7D
330
5ADA
100
AcDbEntity
  8
0
  6
Continuous
 62
     7
100
AcDbCircle
 10
117.3241997612795
 20
103.5000009628961
 30
0.0
 40
59.0
100
AcDbArc
 50
342.4310000000015
 51
353.198000000001
  0
LINE
  5
5B7E
330
5ADA
100
AcDbEntity
  8
0
  6
Continuous
 62
     7
100
AcDbLine
 10
169.1731997612795
 20
118.9390009628962
 30
0.0
 11
172.6501997612795
 21
120.205000962896
 31
0.0
  0
LINE
  5
5B7F
330
5ADA
100
AcDbEntity
  8
0
  6
Continuous
 62
     7
100
AcDbLine
 10
170.4441997612795
 20
126.2660009628962
 30
0.0
 11
171.0861997612795
 21
125.7280009628962
 31
0.0
  0
LINE
  5
5B80
330
5ADA
100
AcDbEntity
  8
0
  6
Continuous
 62
     7
100
AcDbLine
 10
166.9671997612795
 20
125.0010009628961
 30
0.0
 11
169.1731997612795
 21
118.9390009628962
 31
0.0
  0
LINE
  5
5B81
330
5ADA
100
AcDbEntity
  8
0
  6
Continuous
 62
     7
100
AcDbLine
 10
166.9671997612795
 20
125.0000009628961
 30
0.0
 11
170.4441997612795
 21
126.2660009628962
 31
0.0
  0
POINT
  5
5B82
330
5ADA
100
AcDbEntity
  8
0
100
AcDbPoint
 10
168.0701997612795
 20
121.9700009628961
 30
0.0
  0
LINE
  5
5B83
330
5ADA
100
AcDbEntity
  8
0
  6
Continuous
 62
     7
100
AcDbLine
 10
176.4431997612795
 20
122.3570009628961
 30
0.0
 11
177.2981997612794
 21
120.0080009628962
 31
0.0
  0
ARC
  5
5B84
330
5ADA
100
AcDbEntity
  8
0
  6
Continuous
 62
     7
100
AcDbCircle
 10
117.3241997612795
 20
103.5000009628961
 30
0.0
 40
59.0
100
AcDbArc
 50
6.801820000001021
 51
17.57129999999885
  0
LINE
  5
5B85
330
5ADA
100
AcDbEntity
  8
0
  6
Continuous
 62
     7
100
AcDbLine
 10
176.3251997612795
 20
110.5000009628961
 30
0.0
 11
183.9571997612795
 21
110.5000009628961
 31
0.0
  0
LINE
  5
5B86
330
5ADA
100
AcDbEntity
  8
0
  6
Continuous
 62
     7
100
AcDbLine
 10
182.8641997612795
 20
117.4120009628961
 30
0.0
 11
177.2981997612794
 21
120.0080009628962
 31
0.0
  0
CIRCLE
  5
5B87
330
5ADA
100
AcDbEntity
  8
0
  6
Continuous
 62
     7
100
AcDbCircle
 10
176.3241997612795
 20
103.5000009628961
 30
0.0
 40
4.5
  0
ARC
  5
5B88
330
5ADA
100
AcDbEntity
  8
0
  6
CENTER
 62
     2
100
AcDbCircle
 10
117.3241997612795
 20
103.5000009628961
 30
0.0
 40
59.0002
100
AcDbArc
 50
354.4009999999987
 51
5.655759999999085
  0
LINE
  5
5B89
330
5ADA
100
AcDbEntity
  8
0
  6
Continuous
 62
     7
100
AcDbLine
 10
171.0861997612795
 20
125.7280009628962
 30
0.0
 11
174.7331997612795
 21
127.0550009628962
 31
0.0
  0
LINE
  5
5B8A
330
5ADA
100
AcDbEntity
  8
0
  6
Continuous
 62
     7
100
AcDbLine
 10
172.7951997612795
 20
121.0290009628961
 30
0.0
 11
176.4431997612795
 21
122.3570009628961
 31
0.0
  0
LINE
  5
5B8B
330
5ADA
100
AcDbEntity
  8
0
  6
Continuous
 62
     7
100
AcDbLine
 10
172.6501997612795
 20
120.205000962896
 30
0.0
 11
172.7951997612795
 21
121.0290009628961
 31
0.0
  0
LINE
  5
5B8C
330
5ADA
100
AcDbEntity
  8
0
  6
Continuous
 62
     7
100
AcDbLine
 10
173.8781997612795
 20
129.4050009628961
 30
0.0
 11
174.7331997612795
 21
127.0550009628962
 31
0.0
  0
LINE
  5
5B8D
330
5ADA
100
AcDbEntity
  8
0
  6
Continuous
 62
     7
100
AcDbLine
 10
176.4731997612795
 20
134.9710009628961
 30
0.0
 11
173.8781997612795
 21
129.4050009628961
 31
0.0
  0
LINE
  5
5B8E
330
5ADA
100
AcDbEntity
  8
0
  6
Continuous
 62
     7
100
AcDbLine
 10
241.3241997612795
 20
112.5000009628961
 30
0.0
 11
241.3241997612795
 21
94.50000096289613
 31
0.0
  0
LINE
  5
5B8F
330
5ADA
100
AcDbEntity
  8
0
  6
Continuous
 62
     7
100
AcDbLine
 10
268.3241997612795
 20
96.50000096289614
 30
0.0
 11
268.3241997612795
 21
110.5000009628961
 31
0.0
  0
LINE
  5
5B90
330
5ADA
100
AcDbEntity
  8
0
  6
Continuous
 62
     7
100
AcDbLine
 10
247.3241997612795
 20
97.33600096289615
 30
0.0
 11
251.9431997612795
 21
96.50000096289614
 31
0.0
  0
LINE
  5
5B91
330
5ADA
100
AcDbEntity
  8
0
  6
Continuous
 62
     7
100
AcDbLine
 10
251.9431997612795
 20
72.02900096289614
 30
0.0
 11
247.3241997612795
 21
75.78700096289617
 31
0.0
  0
LINE
  5
5B92
330
5ADA
100
AcDbEntity
  8
0
  6
Continuous
 62
     7
100
AcDbLine
 10
251.9431997612795
 20
50.50200096289614
 30
0.0
 11
259.3241997612795
 21
50.50200096289614
 31
0.0
  0
LINE
  5
5B93
330
5ADA
100
AcDbEntity
  8
0
  6
Continuous
 62
     7
100
AcDbLine
 10
241.3241997612795
 20
72.92500096289614
 30
0.0
 11
247.3241997612795
 21
72.92500096289614
 31
0.0
  0
LINE
  5
5B94
330
5ADA
100
AcDbEntity
  8
0
  6
Continuous
 62
     7
100
AcDbLine
 10
245.3241997612795
 20
59.94000096289614
 30
0.0
 11
245.3241997612795
 21
53.01200096289614
 31
0.0
  0
LINE
  5
5B95
330
5ADA
100
AcDbEntity
  8
0
  6
Continuous
 62
     7
100
AcDbLine
 10
251.9431997612795
 20
50.50200096289614
 30
0.0
 11
251.9431997612795
 21
72.02900096289614
 31
0.0
  0
LINE
  5
5B96
330
5ADA
100
AcDbEntity
  8
0
  6
Continuous
 62
     7
100
AcDbLine
 10
251.9431997612795
 20
50.50200096289614
 30
0.0
 11
247.3241997612795
 21
56.83000096289617
 31
0.0
  0
LINE
  5
5B97
330
5ADA
100
AcDbEntity
  8
0
  6
Continuous
 62
     7
100
AcDbLine
 10
241.3241997612795
 20
53.01200096289614
 30
0.0
 11
245.3241997612795
 21
53.01200096289614
 31
0.0
  0
LINE
  5
5B98
330
5ADA
100
AcDbEntity
  8
0
  6
Continuous
 62
     7
100
AcDbLine
 10
241.3241997612795
 20
59.94000096289614
 30
0.0
 11
245.3241997612795
 21
59.94000096289614
 31
0.0
  0
LINE
  5
5B99
330
5ADA
100
AcDbEntity
  8
0
  6
Continuous
 62
     7
100
AcDbLine
 10
251.9431997612795
 20
96.50000096289614
 30
0.0
 11
268.3241997612795
 21
96.50000096289614
 31
0.0
  0
LINE
  5
5B9A
330
5ADA
100
AcDbEntity
  8
0
  6
Continuous
 62
     7
100
AcDbLine
 10
241.3241997612795
 20
94.50000096289613
 30
0.0
 11
247.3241997612795
 21
94.50000096289613
 31
0.0
  0
LINE
  5
5B9B
330
5ADA
100
AcDbEntity
  8
0
  6
Continuous
 62
     7
100
AcDbLine
 10
251.9431997612795
 20
89.59300096289622
 30
0.0
 11
251.9431997612795
 21
96.50000096289614
 31
0.0
  0
LINE
  5
5B9C
330
5ADA
100
AcDbEntity
  8
0
  6
Continuous
 62
     7
100
AcDbLine
 10
247.3241997612795
 20
91.25300096289606
 30
0.0
 11
251.9431997612795
 21
89.59300096289622
 31
0.0
  0
LINE
  5
5B9D
330
5ADA
100
AcDbEntity
  8
0
  6
Continuous
 62
     7
100
AcDbLine
 10
251.9431997612795
 20
110.5000009628961
 30
0.0
 11
268.3241997612795
 21
110.5000009628961
 31
0.0
  0
LINE
  5
5B9E
330
5ADA
100
AcDbEntity
  8
0
  6
Continuous
 62
     7
100
AcDbLine
 10
241.3241997612795
 20
112.5000009628961
 30
0.0
 11
247.3241997612795
 21
112.5000009628961
 31
0.0
  0
LINE
  5
5B9F
330
5ADA
100
AcDbEntity
  8
0
  6
Continuous
 62
     7
100
AcDbLine
 10
251.9431997612795
 20
117.4110009628962
 30
0.0
 11
251.9431997612795
 21
110.5000009628961
 31
0.0
  0
LINE
  5
5BA0
330
5ADA
100
AcDbEntity
  8
0
  6
Continuous
 62
     7
100
AcDbLine
 10
247.3241997612795
 20
109.6640009628961
 30
0.0
 11
251.9431997612795
 21
110.5000009628961
 31
0.0
  0
LINE
  5
5BA1
330
5ADA
100
AcDbEntity
  8
0
  6
Continuous
 62
     7
100
AcDbLine
 10
251.9431997612795
 20
117.4110009628962
 30
0.0
 11
247.3241997612795
 21
115.7500009628961
 31
0.0
  0
LINE
  5
5BA2
330
5ADA
100
AcDbEntity
  8
0
  6
Continuous
 62
     7
100
AcDbLine
 10
241.3241997612795
 20
134.0750009628962
 30
0.0
 11
247.3241997612795
 21
134.0750009628962
 31
0.0
  0
LINE
  5
5BA3
330
5ADA
100
AcDbEntity
  8
0
  6
Continuous
 62
     7
100
AcDbLine
 10
247.3241997612795
 20
131.2160009628961
 30
0.0
 11
251.9431997612795
 21
134.974000962896
 31
0.0
  0
LINE
  5
5BA4
330
5ADA
100
AcDbEntity
  8
0
  6
Continuous
 62
     7
100
AcDbLine
 10
171.2981997612795
 20
162.9830009628961
 30
0.0
 11
141.8531997612794
 21
179.983000962896
 31
0.0
  0
LINE
  5
5BA5
330
5ADA
100
AcDbEntity
  8
0
  6
Continuous
 62
     7
100
AcDbLine
 10
171.2981997612795
 20
162.9830009628961
 30
0.0
 11
164.4511997612795
 21
151.1240009628961
 31
0.0
  0
LINE
  5
5BA6
330
5ADA
100
AcDbEntity
  8
0
  6
CENTER
 62
     2
100
AcDbLine
 10
158.3481997612795
 20
161.8000009628961
 30
0.0
 11
147.3151997612795
 21
168.1700009628962
 31
0.0
  0
CIRCLE
  5
5BA7
330
5ADA
100
AcDbEntity
  8
0
  6
Continuous
 62
     2
100
AcDbCircle
 10
152.8241997612795
 20
164.9880009628962
 30
0.0
 40
4.0
  0
CIRCLE
  5
5BA8
330
5ADA
100
AcDbEntity
  8
0
  6
Continuous
 62
     7
100
AcDbCircle
 10
152.8251997612795
 20
164.9880009628962
 30
0.0
 40
3.3235
  0
LINE
  5
5BA9
330
5ADA
100
AcDbEntity
  8
0
  6
Continuous
 62
     7
100
AcDbLine
 10
156.8701997612795
 20
153.993000962896
 30
0.0
 11
141.2811997612795
 21
162.9930009628961
 31
0.0
  0
LINE
  5
5BAA
330
5ADA
100
AcDbEntity
  8
0
  6
Continuous
 62
     7
100
AcDbLine
 10
259.3241997612795
 20
151.1250009628961
 30
0.0
 11
259.3241997612795
 21
166.9780009628962
 31
0.0
  0
LINE
  5
5BAB
330
5ADA
100
AcDbEntity
  8
0
  6
Continuous
 62
     7
100
AcDbLine
 10
251.9431997612795
 20
156.4980009628962
 30
0.0
 11
259.3241997612795
 21
156.4980009628962
 31
0.0
  0
LINE
  5
5BAC
330
5ADA
100
AcDbEntity
  8
0
  6
Continuous
 62
     7
100
AcDbLine
 10
245.3241997612795
 20
147.0600009628961
 30
0.0
 11
245.3241997612795
 21
153.9880009628962
 31
0.0
  0
LINE
  5
5BAD
330
5ADA
100
AcDbEntity
  8
0
  6
Continuous
 62
     7
100
AcDbLine
 10
251.9431997612795
 20
156.4980009628962
 30
0.0
 11
247.3241997612795
 21
150.1700009628962
 31
0.0
  0
LINE
  5
5BAE
330
5ADA
100
AcDbEntity
  8
0
  6
Continuous
 62
     7
100
AcDbLine
 10
241.3241997612795
 20
153.9880009628962
 30
0.0
 11
245.3241997612795
 21
153.9880009628962
 31
0.0
  0
LINE
  5
5BAF
330
5ADA
100
AcDbEntity
  8
0
  6
Continuous
 62
     7
100
AcDbLine
 10
241.3241997612795
 20
147.0600009628961
 30
0.0
 11
245.3241997612795
 21
147.0600009628961
 31
0.0
  0
LINE
  5
5BB0
330
5ADA
100
AcDbEntity
  8
0
  6
Continuous
 62
     7
100
AcDbLine
 10
241.3241997612795
 20
175.9830009628961
 30
0.0
 11
259.3241997612795
 21
175.9830009628961
 31
0.0
  0
LINE
  5
5BB1
330
5ADA
100
AcDbEntity
  8
0
  6
Continuous
 62
     7
100
AcDbLine
 10
241.3241997612795
 20
166.9780009628962
 30
0.0
 11
259.3241997612795
 21
166.9780009628962
 31
0.0
  0
LINE
  5
5BB2
330
5ADA
100
AcDbEntity
  8
0
  6
Continuous
 62
     7
100
AcDbLine
 10
259.3241997612795
 20
175.9830009628961
 30
0.0
 11
259.3241997612795
 21
179.983000962896
 31
0.0
  0
LINE
  5
5BB3
330
5ADA
100
AcDbEntity
  8
0
  6
Continuous
 62
     7
100
AcDbLine
 10
251.9431997612795
 20
226.5000009628961
 30
0.0
 11
251.9431997612795
 21
227.9600009628962
 31
0.0
  0
LINE
  5
5BB4
330
5ADA
100
AcDbEntity
  8
0
  6
Continuous
 62
     7
100
AcDbLine
 10
247.3241997612795
 20
234.4990009628962
 30
0.0
 11
251.9431997612795
 21
226.5000009628961
 31
0.0
  0
LINE
  5
5BB5
330
5ADA
100
AcDbEntity
  8
0
  6
Continuous
 62
     7
100
AcDbLine
 10
251.9431997612795
 20
227.9600009628962
 30
0.0
 11
247.3241997612795
 21
235.7840009628962
 31
0.0
  0
DIMENSION
  5
5BB6
330
5ADA
100
AcDbEntity
  8
Dim
100
AcDbDimension
  2
*D31
 10
220.1917211226469
 20
293.5000009628961
 30
0.0
 11
217.9417211226468
 21
313.7500009628963
 31
0.0
 12
-45.67580023872051
 22
-266.5991706462662
 32
0.0
 71
     5
 42
40.49999999999999
  3
ISO-25
100
AcDbAlignedDimension
 13
220.1917211226469
 23
334.0000009628961
 33
0.0
 14
235.8491997612794
 24
293.5000009628961
 34
0.0
 50
90.0
100
AcDbRotatedDimension
  0
LINE
  5
5BB7
330
5ADA
100
AcDbEntity
  8
0
  6
Continuous
 62
     7
100
AcDbLine
 10
268.3241997612795
 20
320.7540009628961
 30
0.0
 11
268.3241997612795
 21
332.8790009628962
 31
0.0
  0
LINE
  5
5BB8
330
5ADA
100
AcDbEntity
  8
0
  6
Continuous
 62
     7
100
AcDbLine
 10
247.3241997612795
 20
271.1310009628961
 30
0.0
 11
247.3241997612795
 21
351.9650009628962
 31
0.0
  0
LINE
  5
5BB9
330
5ADA
100
AcDbEntity
  8
0
  6
Continuous
 62
     7
100
AcDbLine
 10
251.9431997612795
 20
332.8790009628962
 30
0.0
 11
247.3241997612795
 21
328.1770009628961
 31
0.0
  0
LINE
  5
5BBA
330
5ADA
100
AcDbEntity
  8
0
  6
Continuous
 62
     7
100
AcDbLine
 10
251.9431997612795
 20
268.0990009628961
 30
0.0
 11
251.9431997612795
 21
320.7540009628961
 31
0.0
  0
LINE
  5
5BBB
330
5ADA
100
AcDbEntity
  8
0
  6
Continuous
 62
     7
100
AcDbLine
 10
241.3241997612795
 20
246.4560009628962
 30
0.0
 11
241.3241997612795
 21
281.0450009628962
 31
0.0
  0
LINE
  5
5BBC
330
5ADA
100
AcDbEntity
  8
0
  6
Continuous
 62
     7
100
AcDbLine
 10
241.3241997612795
 20
246.4560009628962
 30
0.0
 11
259.3241997612795
 21
246.4560009628962
 31
0.0
  0
LINE
  5
5BBD
330
5ADA
100
AcDbEntity
  8
0
  6
Continuous
 62
     7
100
AcDbLine
 10
259.3241997612795
 20
239.5280009628962
 30
0.0
 11
259.3241997612795
 21
246.4560009628962
 31
0.0
  0
LINE
  5
5BBE
330
5ADA
100
AcDbEntity
  8
0
  6
Continuous
 62
     7
100
AcDbLine
 10
241.3241997612795
 20
262.0450009628962
 30
0.0
 11
259.3241997612795
 21
262.0450009628962
 31
0.0
  0
LINE
  5
5BBF
330
5ADA
100
AcDbEntity
  8
0
  6
Continuous
 62
     7
100
AcDbLine
 10
251.9431997612795
 20
268.0990009628961
 30
0.0
 11
259.3241997612795
 21
268.0990009628961
 31
0.0
  0
LINE
  5
5BC0
330
5ADA
100
AcDbEntity
  8
0
  6
Continuous
 62
     7
100
AcDbLine
 10
245.3241997612795
 20
269.5450009628962
 30
0.0
 11
245.3241997612795
 21
273.5450009628962
 31
0.0
  0
LINE
  5
5BC1
330
5ADA
100
AcDbEntity
  8
0
  6
Continuous
 62
     7
100
AcDbLine
 10
241.3241997612795
 20
281.0450009628962
 30
0.0
 11
247.3241997612795
 21
281.0450009628962
 31
0.0
  0
LINE
  5
5BC2
330
5ADA
100
AcDbEntity
  8
0
  6
Continuous
 62
     7
100
AcDbLine
 10
241.3241997612795
 20
269.5450009628962
 30
0.0
 11
245.3241997612795
 21
269.5450009628962
 31
0.0
  0
LINE
  5
5BC3
330
5ADA
100
AcDbEntity
  8
0
  6
Continuous
 62
     7
100
AcDbLine
 10
241.3241997612795
 20
273.5450009628962
 30
0.0
 11
245.3241997612795
 21
273.5450009628962
 31
0.0
  0
LINE
  5
5BC4
330
5ADA
100
AcDbEntity
  8
0
  6
Continuous
 62
     7
100
AcDbLine
 10
247.3241997612795
 20
271.1310009628961
 30
0.0
 11
251.9431997612795
 21
268.0990009628961
 31
0.0
  0
LINE
  5
5BC5
330
5ADA
100
AcDbEntity
  8
0
  6
Continuous
 62
     7
100
AcDbLine
 10
259.3241997612795
 20
262.0450009628962
 30
0.0
 11
259.3241997612795
 21
275.8190009628961
 31
0.0
  0
LINE
  5
5BC6
330
5ADA
100
AcDbEntity
  8
0
  6
Continuous
 62
     7
100
AcDbLine
 10
251.9431997612795
 20
320.7540009628961
 30
0.0
 11
268.3241997612795
 21
320.7540009628961
 31
0.0
  0
LINE
  5
5BC7
330
5ADA
100
AcDbEntity
  8
0
  6
Continuous
 62
     7
100
AcDbLine
 10
247.3241997612795
 20
317.5000009628961
 30
0.0
 11
251.9431997612795
 21
320.7540009628961
 31
0.0
  0
DIMENSION
  5
5BC8
330
5ADA
100
AcDbEntity
  8
Dim
100
AcDbDimension
  2
*D34
 10
241.3241997612795
 20
378.7497190827517
 30
0.0
 11
243.3241997612795
 21
380.9997190827516
 31
0.0
 12
-45.67580023872051
 22
-266.5991706462662
 32
0.0
 71
     5
 42
4.0
  3
ISO-25
100
AcDbAlignedDimension
 13
245.3241997612795
 23
357.0000009628961
 33
0.0
 14
241.3241997612795
 24
378.7497190827517
 34
0.0
100
AcDbRotatedDimension
  0
DIMENSION
  5
5BC9
330
5ADA
100
AcDbEntity
  8
Dim
100
AcDbDimension
  2
*D33
 10
241.3241997612795
 20
386.4047204172766
 30
0.0
 11
244.3241997612795
 21
388.6547204172766
 31
0.0
 12
-45.67580023872051
 22
-266.5991706462662
 32
0.0
 71
     5
 42
6.0
  3
ISO-25
100
AcDbAlignedDimension
 13
247.3241997612795
 23
386.4047204172766
 33
0.0
 14
241.3241997612795
 24
372.0000009628961
 34
0.0
100
AcDbRotatedDimension
  0
DIMENSION
  5
5BCA
330
5ADA
100
AcDbEntity
  8
Dim
100
AcDbDimension
  2
*D32
 10
220.1917211226469
 20
372.0000009628961
 30
0.0
 11
217.9417211226468
 21
353.0000009628963
 31
0.0
 12
-45.67580023872051
 22
-266.5991706462662
 32
0.0
 71
     5
 42
38.0
  3
ISO-25
100
AcDbAlignedDimension
 13
231.160703032197
 23
334.0000009628961
 33
0.0
 14
241.3241997612795
 24
372.0000009628961
 34
0.0
 50
90.0
100
AcDbRotatedDimension
  0
DIMENSION
  5
5BCB
330
5ADA
100
AcDbEntity
  8
Dim
100
AcDbDimension
  2
*D35
 10
231.160703032197
 20
357.0000009628961
 30
0.0
 11
228.910703032197
 21
353.0000009628963
 31
0.0
 12
-45.67580023872051
 22
-266.5991706462662
 32
0.0
  1
8H9
 71
     5
 42
8.0
  3
ISO-25
100
AcDbAlignedDimension
 13
231.160703032197
 23
349.0000009628961
 33
0.0
 14
241.3241997612795
 24
357.0000009628961
 34
0.0
 50
90.0
100
AcDbRotatedDimension
  0
DIMENSION
  5
5BCC
330
5ADA
100
AcDbEntity
  8
Dim
100
AcDbDimension
  2
*D36
 10
231.160703032197
 20
334.0000009628961
 30
0.0
 11
228.910703032197
 21
341.5000009628962
 31
0.0
 12
-45.67580023872051
 22
-266.5991706462662
 32
0.0
 71
     5
 42
15.0
  3
ISO-25
100
AcDbAlignedDimension
 13
241.3241997612795
 23
349.0000009628961
 33
0.0
 14
241.3241997612795
 24
334.0000009628961
 34
0.0
 50
90.0
100
AcDbRotatedDimension
  0
TEXT
  5
5BCD
330
5ADA
100
AcDbEntity
  8
0
 62
     4
100
AcDbText
 10
224.3494325021572
 20
348.1223745951997
 30
0.0
 40
1.6
  1
+0.036
 50
90.0
  7
China
100
AcDbText
  0
TEXT
  5
5BCE
330
5ADA
100
AcDbEntity
  8
0
 62
     4
100
AcDbText
 10
226.6444325021571
 20
349.7483745951998
 30
0.0
 40
1.6
  1
0
 50
90.0
  7
China
100
AcDbText
  0
LINE
  5
5BCF
330
5ADA
100
AcDbEntity
  8
0
  6
Continuous
 62
     7
100
AcDbLine
 10
245.3241997612795
 20
357.0000009628961
 30
0.0
 11
245.3241997612795
 21
349.0000009628961
 31
0.0
  0
LINE
  5
5BD0
330
5ADA
100
AcDbEntity
  8
0
  6
Continuous
 62
     7
100
AcDbLine
 10
247.3241997612795
 20
351.9650009628962
 30
0.0
 11
251.9431997612795
 21
359.8930009628962
 31
0.0
  0
LINE
  5
5BD1
330
5ADA
100
AcDbEntity
  8
0
  6
Continuous
 62
     7
100
AcDbLine
 10
251.9431997612795
 20
332.8790009628962
 30
0.0
 11
251.9431997612795
 21
359.8930009628962
 31
0.0
  0
LINE
  5
5BD2
330
5ADA
100
AcDbEntity
  8
0
  6
Continuous
 62
     7
100
AcDbLine
 10
251.9431997612795
 20
332.8790009628962
 30
0.0
 11
268.3241997612795
 21
332.8790009628962
 31
0.0
  0
LINE
  5
5BD3
330
5ADA
100
AcDbEntity
  8
0
  6
Continuous
 62
     7
100
AcDbLine
 10
241.3241997612795
 20
349.0000009628961
 30
0.0
 11
245.3241997612795
 21
349.0000009628961
 31
0.0
  0
LINE
  5
5BD4
330
5ADA
100
AcDbEntity
  8
0
  6
Continuous
 62
     7
100
AcDbLine
 10
241.3241997612795
 20
334.0000009628961
 30
0.0
 11
247.3241997612795
 21
334.0000009628961
 31
0.0
  0
LINE
  5
5BD5
330
5ADA
100
AcDbEntity
  8
0
  6
Continuous
 62
     7
100
AcDbLine
 10
241.3241997612795
 20
349.0000009628961
 30
0.0
 11
241.3241997612795
 21
334.0000009628961
 31
0.0
  0
LINE
  5
5BD6
330
5ADA
100
AcDbEntity
  8
0
  6
Continuous
 62
     7
100
AcDbLine
 10
251.9431997612795
 20
359.8930009628962
 30
0.0
 11
259.3241997612795
 21
359.8930009628962
 31
0.0
  0
LINE
  5
5BD7
330
5ADA
100
AcDbEntity
  8
0
  6
Continuous
 62
     7
100
AcDbLine
 10
241.3241997612795
 20
372.0000009628961
 30
0.0
 11
241.3241997612795
 21
357.0000009628961
 31
0.0
  0
LINE
  5
5BD8
330
5ADA
100
AcDbEntity
  8
0
  6
Continuous
 62
     7
100
AcDbLine
 10
241.3241997612795
 20
357.0000009628961
 30
0.0
 11
245.3241997612795
 21
357.0000009628961
 31
0.0
  0
LINE
  5
5BD9
330
5ADA
100
AcDbEntity
  8
0
  6
Continuous
 62
     7
100
AcDbLine
 10
259.3241997612795
 20
372.0000009628961
 30
0.0
 11
259.3241997612795
 21
358.3070009628962
 31
0.0
  0
DIMENSION
  5
5BDA
330
5ADA
100
AcDbEntity
  8
Dim
100
AcDbDimension
  2
*D39
 10
374.6633306083137
 20
51.14683828444436
 30
0.0
 11
373.0852430581682
 21
56.39780498118728
 31
0.0
 12
-45.67580023872051
 22
-266.5991706462662
 32
0.0
 70
     1
 71
     5
 42
10.00010231272216
  3
ISO-25
100
AcDbAlignedDimension
 13
460.2762095866892
 23
49.96166115037124
 33
0.0
 14
458.9708856911783
 24
40.04711750012086
 34
0.0
  0
DIMENSION
  5
5BDB
330
5ADA
100
AcDbEntity
  8
Dim
100
AcDbDimension
  2
*D40
 10
375.9686545038245
 20
61.06138193469445
 30
0.0
 11
377.262162421001
 21
88.12345521160285
 31
0.0
 12
-45.67580023872051
 22
-266.5991706462662
 32
0.0
 70
     1
 71
     5
 42
53.99875823670623
  3
ISO-25
100
AcDbAlignedDimension
 13
467.324724416844
 23
103.4984179609526
 33
0.0
 14
460.2762095866892
 24
49.96166115037124
 34
0.0
  0
ARC
  5
5BDC
330
5ADA
100
AcDbEntity
  8
0
  6
Continuous
 62
     7
100
AcDbCircle
 10
467.3241997612795
 20
103.5000009628961
 30
0.0
 40
67.0
100
AcDbArc
 50
328.0179999999992
 51
151.9810000000007
  0
ARC
  5
5BDD
330
5ADA
100
AcDbEntity
  8
0
  6
Continuous
 62
     7
100
AcDbCircle
 10
467.3241997612795
 20
103.5000009628961
 30
0.0
 40
67.0
100
AcDbArc
 50
208.0159999999997
 51
271.9819999999999
  0
LINE
  5
5BDE
330
5ADA
100
AcDbEntity
  8
0
  6
Continuous
 62
     7
100
AcDbLine
 10
274.3241997612795
 20
55.87500096289613
 30
0.0
 11
274.3241997612795
 21
27.01700096289613
 31
0.0
  0
LINE
  5
5BDF
330
5ADA
100
AcDbEntity
  8
0
  6
Continuous
 62
     7
100
AcDbLine
 10
337.3241997612795
 20
170.5000009628961
 30
0.0
 11
337.3241997612795
 21
36.50000096289614
 31
0.0
  0
LINE
  5
5BE0
330
5ADA
100
AcDbEntity
  8
0
  6
Continuous
 62
     7
100
AcDbLine
 10
420.1981997612795
 20
55.87500096289613
 30
0.0
 11
413.3541997612794
 21
44.02100096289609
 31
0.0
  0
LINE
  5
5BE1
330
5ADA
100
AcDbEntity
  8
0
  6
CENTER
 62
     2
100
AcDbLine
 10
423.8831997612795
 20
178.7410009628961
 30
0.0
 11
502.8211997612794
 21
42.01700096289613
 31
0.0
  0
LINE
  5
5BE2
330
5ADA
100
AcDbEntity
  8
0
  6
CENTER
 62
     2
100
AcDbLine
 10
425.1711997612794
 20
30.48800096289614
 30
0.0
 11
505.1201997612795
 21
168.965000962896
 31
0.0
  0
LINE
  5
5BE3
330
5ADA
100
AcDbEntity
  8
0
  6
Continuous
 62
     7
100
AcDbLine
 10
473.5241997612795
 20
49.76000096289613
 30
0.0
 11
479.8771997612795
 21
50.88000096289613
 31
0.0
  0
LINE
  5
5BE4
330
5ADA
100
AcDbEntity
  8
0
  6
Continuous
 62
     7
100
AcDbLine
 10
479.8771997612795
 20
50.88000096289613
 30
0.0
 11
480.5191997612795
 21
47.2370009628961
 31
0.0
  0
LINE
  5
5BE5
330
5ADA
100
AcDbEntity
  8
0
  6
CENTER
 62
     2
100
AcDbLine
 10
458.0231997612795
 20
32.84900096289613
 30
0.0
 11
476.5951997612794
 21
173.9120009628962
 31
0.0
  0
LINE
  5
5BE6
330
5ADA
100
AcDbEntity
  8
0
  6
Continuous
 62
     4
100
AcDbLine
 10
484.0901997612794
 20
55.33500096289618
 30
0.0
 11
516.0371997612794
 21
0.0000009628961379
 31
0.0
  0
CIRCLE
  5
5BE7
330
5ADA
100
AcDbEntity
  8
0
  6
CENTER
 62
     2
100
AcDbCircle
 10
467.3241997612795
 20
103.5000009628961
 30
0.0
 40
59.0
  0
CIRCLE
  5
5BE8
330
5ADA
100
AcDbEntity
  8
0
  6
Continuous
 62
     7
100
AcDbCircle
 10
496.8241997612794
 20
52.40400096289613
 30
0.0
 40
4.5
  0
CIRCLE
  5
5BE9
330
5ADA
100
AcDbEntity
  8
0
  6
Continuous
 62
     2
100
AcDbCircle
 10
437.8241997612795
 20
52.40400096289613
 30
0.0
 40
4.0
  0
ARC
  5
5BEA
330
5ADA
100
AcDbEntity
  8
0
  6
Continuous
 62
     7
100
AcDbCircle
 10
467.3241997612795
 20
103.5000009628961
 30
0.0
 40
67.0
100
AcDbArc
 50
288.0169999999998
 51
311.9830000000008
  0
CIRCLE
  5
5BEB
330
5ADA
100
AcDbEntity
  8
0
  6
Continuous
 62
     7
100
AcDbCircle
 10
437.8241997612795
 20
52.40500096289611
 30
0.0
 40
3.3235
  0
TEXT
  5
5BEC
330
5ADA
100
AcDbEntity
  8
0
 62
     4
100
AcDbText
 10
519.9691997612794
 20
2.232000962896108
 30
0.0
 40
3.2
  1
102H9
  7
China
100
AcDbText
  0
LINE
  5
5BED
330
5ADA
100
AcDbEntity
  8
0
  6
Continuous
 62
     4
100
AcDbLine
 10
516.0371997612794
 20
0.0000009628961379
 30
0.0
 11
564.8731997612794
 21
0.0000009628961379
 31
0.0
  0
DIMENSION
  5
5BEE
330
5ADA
100
AcDbEntity
  8
Dim
100
AcDbDimension
  2
*D38
 10
337.3241997612795
 20
9.937195974484893
 30
0.0
 11
305.8241997612795
 21
12.18719597448489
 31
0.0
 12
-45.67580023872051
 22
-266.5991706462662
 32
0.0
 71
     5
 42
63.0
  3
ISO-25
100
AcDbAlignedDimension
 13
274.3241997612795
 23
9.937195974484893
 33
0.0
 14
337.3241997612795
 24
36.50000096289614
 34
0.0
100
AcDbRotatedDimension
  0
LINE
  5
5BEF
330
5ADA
100
AcDbEntity
  8
0
  6
Continuous
 62
     7
100
AcDbLine
 10
274.3241997612795
 20
36.50000096289614
 30
0.0
 11
337.3241997612795
 21
36.50000096289614
 31
0.0
  0
LINE
  5
5BF0
330
5ADA
100
AcDbEntity
  8
0
  6
Continuous
 62
     4
100
AcDbLine
 10
408.5361997612794
 20
9.164000962896125
 30
0.0
 11
467.4151997612795
 21
1.413000962896148
 31
0.0
  0
LINE
  5
5BF1
330
5ADA
100
AcDbEntity
  8
0
  6
Continuous
 62
     4
100
AcDbLine
 10
455.5261997612794
 20
44.53600096289614
 30
0.0
 11
450.0181997612795
 21
2.695000962896131
 31
0.0
  0
LINE
  5
5BF2
330
5ADA
100
AcDbEntity
  8
0
  6
Continuous
 62
     4
100
AcDbLine
 10
463.4581997612794
 20
43.49100096289612
 30
0.0
 11
457.9501997612794
 21
1.650000962896115
 31
0.0
  0
LINE
  5
5BF3
330
5ADA
100
AcDbEntity
  8
0
  6
Continuous
 62
     4
100
AcDbLine
 10
450.1481997612795
 20
3.686000962896173
 30
0.0
 11
447.2791997612795
 21
4.875000962896137
 31
0.0
  0
LINE
  5
5BF4
330
5ADA
100
AcDbEntity
  8
0
  6
Continuous
 62
     4
100
AcDbLine
 10
450.1481997612795
 20
3.686000962896173
 30
0.0
 11
447.0691997612795
 21
3.281000962896143
 31
0.0
  0
LINE
  5
5BF5
330
5ADA
100
AcDbEntity
  8
0
  6
Continuous
 62
     4
100
AcDbLine
 10
458.0811997612794
 20
2.642000962896133
 30
0.0
 11
461.1601997612795
 21
3.047000962896163
 31
0.0
  0
LINE
  5
5BF6
330
5ADA
100
AcDbEntity
  8
0
  6
Continuous
 62
     4
100
AcDbLine
 10
458.0811997612794
 20
2.642000962896133
 30
0.0
 11
460.9501997612794
 21
1.453000962896112
 31
0.0
  0
LINE
  5
5BF7
330
5ADA
100
AcDbEntity
  8
0
  6
Continuous
 62
     7
100
AcDbLine
 10
442.7991997612795
 20
27.0210009628961
 30
0.0
 11
413.3541997612794
 21
44.02100096289609
 31
0.0
  0
TEXT
  5
5BF8
330
5ADA
100
AcDbEntity
  8
0
 62
     4
100
AcDbText
 10
427.8120457612795
 20
8.219530962896101
 30
0.0
 40
3.2
  1
DEPTH6
 50
352.5000000000011
  7
China
100
AcDbText
  0
TEXT
  5
5BF9
330
5ADA
100
AcDbEntity
  8
0
 62
     4
100
AcDbText
 10
408.5204527612795
 20
10.78039996289613
 30
0.0
 40
3.2
  1
8H9
 50
352.6000000000001
  7
China
100
AcDbText
  0
TEXT
  5
5BFA
330
5ADA
100
AcDbEntity
  8
0
 62
     4
100
AcDbText
 10
418.2976227612795
 20
11.78726596289613
 30
0.0
 40
1.6
  1
+0.036
 50
352.5000000000011
  7
China
100
AcDbText
  0
TEXT
  5
5BFB
330
5ADA
100
AcDbEntity
  8
0
 62
     4
100
AcDbText
 10
419.5116227612794
 20
9.231265962896145
 30
0.0
 40
1.6
  1
0
 50
352.5000000000011
  7
China
100
AcDbText
  0
LINE
  5
5BFC
330
5ADA
100
AcDbEntity
  8
0
  6
Continuous
 62
     7
100
AcDbLine
 10
449.6431997612795
 20
38.87500096289614
 30
0.0
 11
442.7991997612795
 21
27.0210009628961
 31
0.0
  0
LINE
  5
5BFD
330
5ADA
100
AcDbEntity
  8
0
  6
Continuous
 62
     7
100
AcDbLine
 10
455.7881997612795
 20
46.51800096289616
 30
0.0
 11
455.5271997612794
 21
44.5350009628961
 31
0.0
  0
ARC
  5
5BFE
330
5ADA
100
AcDbEntity
  8
0
  6
Continuous
 62
     7
100
AcDbCircle
 10
459.4921997612795
 20
44.01300096289617
 30
0.0
 40
4.0
100
AcDbArc
 50
172.5000000000011
 51
352.5000000000011
  0
LINE
  5
5BFF
330
5ADA
100
AcDbEntity
  8
0
  6
Continuous
 62
     7
100
AcDbLine
 10
463.7191997612794
 20
45.47400096289613
 30
0.0
 11
463.4581997612794
 21
43.49100096289612
 31
0.0
  0
ARC
  5
5C00
330
5ADA
100
AcDbEntity
  8
0
  6
Continuous
 62
     7
100
AcDbCircle
 10
459.7531997612795
 20
45.99600096289612
 30
0.0
 40
4.0
100
AcDbArc
 50
0.0
 51
172.5000000000011
  0
ARC
  5
5C01
330
5ADA
100
AcDbEntity
  8
0
  6
Continuous
 62
     7
100
AcDbCircle
 10
459.7521997612794
 20
46.0640009628961
 30
0.0
 40
4.0
100
AcDbArc
 50
351.9999999999992
 51
359.4999999999986
  0
LINE
  5
5C02
330
5ADA
100
AcDbEntity
  8
0
  6
Continuous
 62
     4
100
AcDbLine
 10
517.9751997612794
 20
1.984000962896175
 30
0.0
 11
519.1381997612794
 21
5.178000962896135
 31
0.0
  0
CIRCLE
  5
5C03
330
5ADA
100
AcDbEntity
  8
0
  6
Continuous
 62
     4
100
AcDbCircle
 10
518.5571997612794
 20
3.581000962896155
 30
0.0
 40
0.9
  0
LINE
  5
5C04
330
5ADA
100
AcDbEntity
  8
0
  6
Continuous
 62
     7
100
AcDbLine
 10
480.5521997612794
 20
42.87500096289614
 30
0.0
 11
483.0141997612795
 21
43.31000096289614
 31
0.0
  0
LINE
  5
5C05
330
5ADA
100
AcDbEntity
  8
0
  6
Continuous
 62
     7
100
AcDbLine
 10
473.5241997612795
 20
49.76000096289613
 30
0.0
 11
474.1671997612794
 21
46.11700096289609
 31
0.0
  0
LINE
  5
5C06
330
5ADA
100
AcDbEntity
  8
0
  6
Continuous
 62
     7
100
AcDbLine
 10
474.9541997612794
 20
45.83100096289615
 30
0.0
 11
475.6281997612794
 21
42.00700096289614
 31
0.0
  0
LINE
  5
5C07
330
5ADA
100
AcDbEntity
  8
0
  6
Continuous
 62
     7
100
AcDbLine
 10
474.1671997612794
 20
46.11700096289609
 30
0.0
 11
474.9541997612794
 21
45.83100096289615
 31
0.0
  0
LINE
  5
5C08
330
5ADA
100
AcDbEntity
  8
0
  6
Continuous
 62
     7
100
AcDbLine
 10
473.1661997612794
 20
41.57300096289612
 30
0.0
 11
475.6281997612794
 21
42.00700096289614
 31
0.0
  0
LINE
  5
5C09
330
5ADA
100
AcDbEntity
  8
0
  6
Continuous
 62
     7
100
AcDbLine
 10
473.1661997612794
 20
41.57300096289612
 30
0.0
 11
469.6421997612794
 21
36.5400009628961
 31
0.0
  0
LINE
  5
5C0A
330
5ADA
100
AcDbEntity
  8
0
  6
Continuous
 62
     7
100
AcDbLine
 10
479.8781997612795
 20
46.69800096289612
 30
0.0
 11
480.5521997612794
 21
42.87500096289614
 31
0.0
  0
LINE
  5
5C0B
330
5ADA
100
AcDbEntity
  8
0
  6
Continuous
 62
     7
100
AcDbLine
 10
480.5191997612795
 20
47.2370009628961
 30
0.0
 11
479.8781997612795
 21
46.69900096289615
 31
0.0
  0
LINE
  5
5C0C
330
5ADA
100
AcDbEntity
  8
0
  6
Continuous
 62
     7
100
AcDbLine
 10
483.0141997612795
 20
43.31000096289614
 30
0.0
 11
488.0471997612794
 21
39.78500096289611
 31
0.0
  0
TEXT
  5
5C0D
330
5ADA
100
AcDbEntity
  8
0
 62
     4
100
AcDbText
 10
545.8261997612794
 20
2.232000962896108
 30
0.0
 40
3.2
  1
DEPTH4
  7
China
100
AcDbText
  0
TEXT
  5
5C0E
330
5ADA
100
AcDbEntity
  8
0
 62
     4
100
AcDbText
 10
537.3101997612795
 20
1.677000962896158
 30
0.0
 40
1.6
  1
0
  7
China
100
AcDbText
  0
TEXT
  5
5C0F
330
5ADA
100
AcDbEntity
  8
0
 62
     4
100
AcDbText
 10
535.7101997612794
 20
4.203000962896112
 30
0.0
 40
1.6
  1
+0.087
  7
China
100
AcDbText
  0
LINE
  5
5C10
330
5ADA
100
AcDbEntity
  8
0
  6
CENTER
 62
     2
100
AcDbLine
 10
394.5231997612795
 20
103.5000009628961
 30
0.0
 11
551.5791997612795
 21
103.5000009628961
 31
0.0
  0
LINE
  5
5C11
330
5ADA
100
AcDbEntity
  8
0
  6
Continuous
 62
     7
100
AcDbLine
 10
532.1311997612794
 20
86.50000096289614
 30
0.0
 11
545.8201997612794
 21
86.50000096289614
 31
0.0
  0
LINE
  5
5C12
330
5ADA
100
AcDbEntity
  8
0
  6
Continuous
 62
     7
100
AcDbLine
 10
532.1311997612794
 20
120.5000009628961
 30
0.0
 11
545.8201997612794
 21
120.5000009628961
 31
0.0
  0
LINE
  5
5C13
330
5ADA
100
AcDbEntity
  8
0
  6
Continuous
 62
     4
100
AcDbLine
 10
497.9271997612794
 20
201.6610009628962
 30
0.0
 11
540.8521997612795
 21
201.6610009628962
 31
0.0
  0
TEXT
  5
5C14
330
5ADA
100
AcDbEntity
  8
0
 62
     4
100
AcDbText
 10
521.8711997612794
 20
202.8010009628961
 30
0.0
 40
3.2
  1
DEPTH6
  7
China
100
AcDbText
  0
DIMENSION
  5
5C15
330
5ADA
100
AcDbEntity
  8
Dim
100
AcDbDimension
  2
*D42
 10
381.1235521121489
 20
226.5000009628961
 30
0.0
 11
378.8735521121489
 21
293.5000009628963
 31
0.0
 12
-45.67580023872051
 22
-266.5991706462662
 32
0.0
  1
%%C<>
 71
     5
 42
134.0
  3
ISO-25
100
AcDbAlignedDimension
 13
337.3241997612795
 23
360.5000009628962
 33
0.0
 14
337.3241997612795
 24
226.5000009628961
 34
0.0
 50
90.0
100
AcDbRotatedDimension
  0
LINE
  5
5C16
330
5ADA
100
AcDbEntity
  8
0
  6
Continuous
 62
     7
100
AcDbLine
 10
337.3241997612795
 20
226.5000009628961
 30
0.0
 11
337.3241997612795
 21
360.5000009628962
 31
0.0
  0
DIMENSION
  5
5C17
330
5ADA
100
AcDbEntity
  8
Dim
100
AcDbDimension
  2
*D37
 10
383.0173678670795
 20
114.5996466967464
 30
0.0
 11
384.6366548708255
 21
144.1401050824248
 31
0.0
 12
-45.67580023872051
 22
-266.5991706462662
 32
0.0
 70
     1
 71
     5
 42
58.99824648365399
  3
ISO-25
100
AcDbAlignedDimension
 13
475.0251997612795
 23
161.9950009628961
 33
0.0
 14
467.3251165153151
 24
103.5013961316737
 34
0.0
  0
ARC
  5
5C18
330
5ADA
100
AcDbEntity
  8
0
  6
Continuous
 62
     7
100
AcDbCircle
 10
467.3241997612795
 20
103.5000009628961
 30
0.0
 40
67.0
100
AcDbArc
 50
168.0170000000011
 51
191.979999999999
  0
POINT
  5
5C19
330
5ADA
100
AcDbEntity
  8
0
100
AcDbPoint
 10
337.3241997612795
 20
103.5000009628961
 30
0.0
  0
LINE
  5
5C1A
330
5ADA
100
AcDbEntity
  8
0
  6
Continuous
 62
     7
100
AcDbLine
 10
274.3241997612795
 20
170.5000009628961
 30
0.0
 11
337.3241997612795
 21
170.5000009628961
 31
0.0
  0
LINE
  5
5C1B
330
5ADA
100
AcDbEntity
  8
0
  6
Continuous
 62
     7
100
AcDbLine
 10
274.3241997612795
 20
151.1250009628961
 30
0.0
 11
274.3241997612795
 21
179.983000962896
 31
0.0
  0
CIRCLE
  5
5C1C
330
5ADA
100
AcDbEntity
  8
0
  6
Continuous
 62
     7
100
AcDbCircle
 10
467.3241997612795
 20
103.5000009628961
 30
0.0
 40
51.0
  0
LINE
  5
5C1D
330
5ADA
100
AcDbEntity
  8
0
  6
Continuous
 62
     7
100
AcDbLine
 10
408.1751997612794
 20
72.02900096289614
 30
0.0
 11
410.7721997612794
 21
77.59900096289612
 31
0.0
  0
LINE
  5
5C1E
330
5ADA
100
AcDbEntity
  8
0
  6
Continuous
 62
     7
100
AcDbLine
 10
417.6841997612795
 20
82.00000096289613
 30
0.0
 11
415.4781997612794
 21
88.06200096289614
 31
0.0
  0
LINE
  5
5C1F
330
5ADA
100
AcDbEntity
  8
0
  6
Continuous
 62
     7
100
AcDbLine
 10
417.6841997612795
 20
82.00000096289613
 30
0.0
 11
414.2061997612795
 21
80.73500096289615
 31
0.0
  0
LINE
  5
5C20
330
5ADA
100
AcDbEntity
  8
0
  6
Continuous
 62
     7
100
AcDbLine
 10
408.2081997612794
 20
84.64400096289613
 30
0.0
 11
407.3521997612795
 21
86.99600096289612
 31
0.0
  0
LINE
  5
5C21
330
5ADA
100
AcDbEntity
  8
0
  6
Continuous
 62
     7
100
AcDbLine
 10
401.7831997612795
 20
89.59300096289622
 30
0.0
 11
407.3521997612795
 21
86.99600096289612
 31
0.0
  0
POINT
  5
5C22
330
5ADA
100
AcDbEntity
  8
0
100
AcDbPoint
 10
416.5801997612794
 20
85.03300096289615
 30
0.0
  0
LINE
  5
5C23
330
5ADA
100
AcDbEntity
  8
0
  6
Continuous
 62
     7
100
AcDbLine
 10
415.4781997612794
 20
88.06200096289614
 30
0.0
 11
412.0011997612794
 21
86.79600096289618
 31
0.0
  0
LINE
  5
5C24
330
5ADA
100
AcDbEntity
  8
0
  6
Continuous
 62
     7
100
AcDbLine
 10
413.5651997612795
 20
81.27300096289616
 30
0.0
 11
409.9181997612794
 21
79.94600096289616
 31
0.0
  0
LINE
  5
5C25
330
5ADA
100
AcDbEntity
  8
0
  6
Continuous
 62
     7
100
AcDbLine
 10
411.8551997612795
 20
85.97100096289613
 30
0.0
 11
408.2081997612794
 21
84.64400096289613
 31
0.0
  0
LINE
  5
5C26
330
5ADA
100
AcDbEntity
  8
0
  6
Continuous
 62
     7
100
AcDbLine
 10
414.2061997612795
 20
80.73500096289615
 30
0.0
 11
413.5651997612795
 21
81.27300096289616
 31
0.0
  0
LINE
  5
5C27
330
5ADA
100
AcDbEntity
  8
0
  6
Continuous
 62
     7
100
AcDbLine
 10
412.0011997612794
 20
86.79600096289618
 30
0.0
 11
411.8551997612795
 21
85.97200096289611
 31
0.0
  0
LINE
  5
5C28
330
5ADA
100
AcDbEntity
  8
0
  6
Continuous
 62
     7
100
AcDbLine
 10
410.7721997612794
 20
77.59900096289612
 30
0.0
 11
409.9181997612794
 21
79.94600096289616
 31
0.0
  0
LINE
  5
5C29
330
5ADA
100
AcDbEntity
  8
0
  6
Continuous
 62
     7
100
AcDbLine
 10
408.2081997612794
 20
122.3560009628961
 30
0.0
 11
407.3541997612794
 21
120.0080009628962
 31
0.0
  0
LINE
  5
5C2A
330
5ADA
100
AcDbEntity
  8
0
  6
Continuous
 62
     7
100
AcDbLine
 10
417.6841997612795
 20
125.0000009628961
 30
0.0
 11
415.4781997612794
 21
118.9380009628961
 31
0.0
  0
LINE
  5
5C2B
330
5ADA
100
AcDbEntity
  8
0
  6
Continuous
 62
     7
100
AcDbLine
 10
415.4781997612794
 20
118.9380009628961
 30
0.0
 11
412.0001997612794
 21
120.2040009628961
 31
0.0
  0
CIRCLE
  5
5C2C
330
5ADA
100
AcDbEntity
  8
0
  6
Continuous
 62
     7
100
AcDbCircle
 10
408.3241997612795
 20
103.5000009628961
 30
0.0
 40
4.5
  0
LINE
  5
5C2D
330
5ADA
100
AcDbEntity
  8
0
  6
Continuous
 62
     7
100
AcDbLine
 10
407.3541997612794
 20
120.0080009628962
 30
0.0
 11
401.7841997612794
 21
117.4110009628962
 31
0.0
  0
LINE
  5
5C2E
330
5ADA
100
AcDbEntity
  8
0
  6
Continuous
 62
     7
100
AcDbLine
 10
417.6841997612795
 20
125.0000009628961
 30
0.0
 11
414.2061997612795
 21
126.2650009628961
 31
0.0
  0
POINT
  5
5C2F
330
5ADA
100
AcDbEntity
  8
0
100
AcDbPoint
 10
416.5811997612794
 20
121.9700009628961
 30
0.0
  0
LINE
  5
5C30
330
5ADA
100
AcDbEntity
  8
0
  6
Continuous
 62
     7
100
AcDbLine
 10
413.5651997612795
 20
125.7270009628961
 30
0.0
 11
409.9181997612794
 21
127.0540009628961
 31
0.0
  0
LINE
  5
5C31
330
5ADA
100
AcDbEntity
  8
0
  6
Continuous
 62
     7
100
AcDbLine
 10
411.8551997612795
 20
121.0290009628961
 30
0.0
 11
408.2081997612794
 21
122.3560009628961
 31
0.0
  0
LINE
  5
5C32
330
5ADA
100
AcDbEntity
  8
0
  6
Continuous
 62
     7
100
AcDbLine
 10
414.2061997612795
 20
126.2650009628961
 30
0.0
 11
413.5651997612795
 21
125.7270009628961
 31
0.0
  0
LINE
  5
5C33
330
5ADA
100
AcDbEntity
  8
0
  6
Continuous
 62
     7
100
AcDbLine
 10
412.0001997612794
 20
120.2040009628961
 30
0.0
 11
411.8551997612795
 21
121.0280009628961
 31
0.0
  0
LINE
  5
5C34
330
5ADA
100
AcDbEntity
  8
0
  6
Continuous
 62
     7
100
AcDbLine
 10
410.7741997612794
 20
129.4050009628961
 30
0.0
 11
409.9181997612794
 21
127.0540009628961
 31
0.0
  0
LINE
  5
5C35
330
5ADA
100
AcDbEntity
  8
0
  6
Continuous
 62
     7
100
AcDbLine
 10
410.7741997612794
 20
129.4050009628961
 30
0.0
 11
408.1771997612794
 21
134.974000962896
 31
0.0
  0
LINE
  5
5C36
330
5ADA
100
AcDbEntity
  8
0
  6
Continuous
 62
     7
100
AcDbLine
 10
513.4521997612795
 20
68.05800096289613
 30
0.0
 11
516.4261997612794
 21
65.56300096289612
 31
0.0
  0
LINE
  5
5C37
330
5ADA
100
AcDbEntity
  8
0
  6
Continuous
 62
     7
100
AcDbLine
 10
510.7641997612795
 20
71.26000096289613
 30
0.0
 11
506.6181997612794
 21
66.31900096289609
 31
0.0
  0
LINE
  5
5C38
330
5ADA
100
AcDbEntity
  8
0
  6
Continuous
 62
     7
100
AcDbLine
 10
510.7641997612795
 20
71.26000096289613
 30
0.0
 11
513.5981997612795
 21
68.88200096289614
 31
0.0
  0
LINE
  5
5C39
330
5ADA
100
AcDbEntity
  8
0
  6
Continuous
 62
     7
100
AcDbLine
 10
506.6181997612794
 20
66.31900096289609
 30
0.0
 11
509.4521997612795
 21
63.94100096289617
 31
0.0
  0
LINE
  5
5C3A
330
5ADA
100
AcDbEntity
  8
0
  6
Continuous
 62
     7
100
AcDbLine
 10
510.2391997612794
 20
64.22700096289611
 30
0.0
 11
513.2121997612795
 21
61.73200096289611
 31
0.0
  0
LINE
  5
5C3B
330
5ADA
100
AcDbEntity
  8
0
  6
Continuous
 62
     7
100
AcDbLine
 10
513.5971997612795
 20
68.88200096289614
 30
0.0
 11
513.4521997612795
 21
68.05800096289613
 31
0.0
  0
LINE
  5
5C3C
330
5ADA
100
AcDbEntity
  8
0
  6
Continuous
 62
     7
100
AcDbLine
 10
509.4521997612795
 20
63.94100096289617
 30
0.0
 11
510.2391997612794
 21
64.22700096289611
 31
0.0
  0
LINE
  5
5C3D
330
5ADA
100
AcDbEntity
  8
0
  6
Continuous
 62
     7
100
AcDbLine
 10
512.1411997612795
 20
53.69600096289616
 30
0.0
 11
511.6051997612794
 21
59.81700096289614
 31
0.0
  0
LINE
  5
5C3E
330
5ADA
100
AcDbEntity
  8
0
  6
Continuous
 62
     7
100
AcDbLine
 10
513.2121997612795
 20
61.73200096289611
 30
0.0
 11
511.6051997612794
 21
59.81700096289614
 31
0.0
  0
LINE
  5
5C3F
330
5ADA
100
AcDbEntity
  8
0
  6
Continuous
 62
     7
100
AcDbLine
 10
518.0331997612794
 20
67.47800096289615
 30
0.0
 11
516.4261997612794
 21
65.56300096289612
 31
0.0
  0
LINE
  5
5C40
330
5ADA
100
AcDbEntity
  8
0
  6
Continuous
 62
     7
100
AcDbLine
 10
524.1541997612795
 20
68.01300096289617
 30
0.0
 11
518.0331997612794
 21
67.47800096289615
 31
0.0
  0
POINT
  5
5C41
330
5ADA
100
AcDbEntity
  8
0
100
AcDbPoint
 10
467.3241997612795
 20
103.5000009628961
 30
0.0
  0
CIRCLE
  5
5C42
330
5ADA
100
AcDbEntity
  8
0
  6
Continuous
 62
     2
100
AcDbCircle
 10
526.3241997612794
 20
103.5000009628961
 30
0.0
 40
4.0
  0
CIRCLE
  5
5C43
330
5ADA
100
AcDbEntity
  8
0
  6
Continuous
 62
     7
100
AcDbCircle
 10
526.3241997612794
 20
103.5000009628961
 30
0.0
 40
3.3235
  0
LINE
  5
5C44
330
5ADA
100
AcDbEntity
  8
0
  6
Continuous
 62
     4
100
AcDbLine
 10
464.9971997612794
 20
201.6610009628962
 30
0.0
 11
439.8241997612794
 21
158.0600009628961
 31
0.0
  0
LINE
  5
5C45
330
5ADA
100
AcDbEntity
  8
0
  6
Continuous
 62
     7
100
AcDbLine
 10
413.3541997612794
 20
162.9790009628962
 30
0.0
 11
442.7991997612795
 21
179.9790009628962
 31
0.0
  0
LINE
  5
5C46
330
5ADA
100
AcDbEntity
  8
0
  6
Continuous
 62
     7
100
AcDbLine
 10
420.1981997612795
 20
151.1250009628961
 30
0.0
 11
413.3541997612794
 21
162.9790009628962
 31
0.0
  0
CIRCLE
  5
5C47
330
5ADA
100
AcDbEntity
  8
0
  6
Continuous
 62
     2
100
AcDbCircle
 10
437.8241997612795
 20
154.5960009628961
 30
0.0
 40
4.0
  0
CIRCLE
  5
5C48
330
5ADA
100
AcDbEntity
  8
0
  6
Continuous
 62
     7
100
AcDbCircle
 10
437.8241997612795
 20
154.5950009628962
 30
0.0
 40
3.3235
  0
LINE
  5
5C49
330
5ADA
100
AcDbEntity
  8
0
  6
Continuous
 62
     7
100
AcDbLine
 10
449.6431997612795
 20
168.1250009628961
 30
0.0
 11
442.7991997612795
 21
179.9790009628962
 31
0.0
  0
LINE
  5
5C4A
330
5ADA
100
AcDbEntity
  8
0
  6
Continuous
 62
     4
100
AcDbLine
 10
412.3091997612794
 20
201.6610009628962
 30
0.0
 11
464.9971997612794
 21
201.6610009628962
 31
0.0
  0
TEXT
  5
5C4B
330
5ADA
100
AcDbEntity
  8
0
 62
     4
100
AcDbText
 10
429.1781997612794
 20
202.2630009628961
 30
0.0
 40
3.2
  1
1.25DEPTH16
  7
China
100
AcDbText
  0
TEXT
  5
5C4C
330
5ADA
100
AcDbEntity
  8
0
 62
     4
100
AcDbText
 10
413.0991997612794
 20
196.6140009628962
 30
0.0
 40
3.2
  1
P.C.D.118
  7
China
100
AcDbText
  0
TEXT
  5
5C4D
330
5ADA
100
AcDbEntity
  8
0
 62
     4
100
AcDbText
 10
413.1781997612795
 20
202.2630009628961
 30
0.0
 40
3.2
  1
3-M8
  7
China
100
AcDbText
  0
LINE
  5
5C4E
330
5ADA
100
AcDbEntity
  8
0
  6
Continuous
 62
     4
100
AcDbLine
 10
426.6781997612794
 20
202.7910009628961
 30
0.0
 11
428.4781997612794
 21
204.9360009628961
 31
0.0
  0
LINE
  5
5C4F
330
5ADA
100
AcDbEntity
  8
0
  6
Continuous
 62
     4
100
AcDbLine
 10
426.6781997612794
 20
204.9360009628961
 30
0.0
 11
428.4771997612795
 21
202.7910009628961
 31
0.0
  0
LINE
  5
5C50
330
5ADA
100
AcDbEntity
  8
0
  6
Continuous
 62
     4
100
AcDbLine
 10
497.9271997612794
 20
201.6610009628962
 30
0.0
 11
477.0251997612795
 21
165.4590009628962
 31
0.0
  0
CIRCLE
  5
5C51
330
5ADA
100
AcDbEntity
  8
0
  6
Continuous
 62
     7
100
AcDbCircle
 10
496.8241997612794
 20
154.5960009628961
 30
0.0
 40
4.5
  0
CIRCLE
  5
5C52
330
5ADA
100
AcDbEntity
  8
0
  6
Continuous
 62
     7
100
AcDbCircle
 10
475.0251997612795
 20
161.9950009628961
 30
0.0
 40
4.0
  0
TEXT
  5
5C53
330
5ADA
100
AcDbEntity
  8
0
 62
     4
100
AcDbText
 10
512.0821997612795
 20
204.6580009628962
 30
0.0
 40
1.6
  1
+0.036
  7
China
100
AcDbText
  0
TEXT
  5
5C54
330
5ADA
100
AcDbEntity
  8
0
 62
     4
100
AcDbText
 10
502.4331997612795
 20
202.6980009628961
 30
0.0
 40
3.2
  1
8H9
  7
China
100
AcDbText
  0
LINE
  5
5C55
330
5ADA
100
AcDbEntity
  8
0
  6
Continuous
 62
     4
100
AcDbLine
 10
500.1611997612794
 20
202.8030009628961
 30
0.0
 11
501.3231997612795
 21
205.9980009628962
 31
0.0
  0
CIRCLE
  5
5C56
330
5ADA
100
AcDbEntity
  8
0
  6
Continuous
 62
     4
100
AcDbCircle
 10
500.7421997612794
 20
204.4010009628962
 30
0.0
 40
0.9
  0
TEXT
  5
5C57
330
5ADA
100
AcDbEntity
  8
0
 62
     4
100
AcDbText
 10
513.6681997612795
 20
202.1790009628961
 30
0.0
 40
1.6
  1
0
  7
China
100
AcDbText
  0
LEADER
  5
5C58
330
5ADA
100
AcDbEntity
  8
Dim
100
AcDbLeader
  3
ISO-25
 76
     3
 10
295.3026975269719
 20
305.7890243394747
 30
0.0
 10
343.5390976397493
 20
337.8689827574612
 30
0.0
 10
374.9144464305673
 20
337.8689827574612
 30
0.0
1001
ACAD
1000
DSTYLE
1002
{
1070
   147
1040
1.0
1070
    77
1070
     0
1002
}
  0
DIMENSION
  5
5C59
330
5ADA
100
AcDbEntity
  8
Dim
100
AcDbDimension
  2
*D41
 10
288.7241997612795
 20
374.9468584089527
 30
0.0
 11
304.0241997612795
 21
377.1968584089527
 31
0.0
 12
-45.67580023872051
 22
-266.5991706462662
 32
0.0
 71
     5
 42
30.60000000000002
  3
ISO-25
100
AcDbAlignedDimension
 13
319.3241997612795
 23
374.9468584089527
 33
0.0
 14
288.7241997612795
 24
313.7890009628961
 34
0.0
100
AcDbRotatedDimension
  0
LINE
  5
5C5A
330
5ADA
100
AcDbEntity
  8
0
  6
Continuous
 62
     7
100
AcDbLine
 10
274.3241997612795
 20
239.5280009628962
 30
0.0
 11
274.3241997612795
 21
275.8190009628961
 31
0.0
  0
LINE
  5
5C5B
330
5ADA
100
AcDbEntity
  8
0
  6
CENTER
 62
     2
100
AcDbLine
 10
288.7241997612795
 20
297.7890009628961
 30
0.0
 11
288.7241997612795
 21
313.7890009628961
 31
0.0
  0
ARC
  5
5C5C
330
5ADA
100
AcDbEntity
  8
0
  6
Continuous
 62
     2
100
AcDbCircle
 10
288.7241997612795
 20
305.6730009628962
 30
0.0
 40
6.579519999999999
100
AcDbArc
 50
1.010339999999599
 51
178.9900000000013
  0
ARC
  5
5C5D
330
5ADA
100
AcDbEntity
  8
0
  6
Continuous
 62
     7
100
AcDbCircle
 10
288.7241997612795
 20
305.6730009628962
 30
0.0
 40
5.723519999999999
100
AcDbArc
 50
1.010339999999599
 51
178.9900000000013
  0
LINE
  5
5C5E
330
5ADA
100
AcDbEntity
  8
0
  6
CENTER
 62
     2
100
AcDbLine
 10
297.7241997612795
 20
305.7890009628961
 30
0.0
 11
279.7241997612795
 21
305.7890009628961
 31
0.0
  0
ARC
  5
5C5F
330
5ADA
100
AcDbEntity
  8
0
  6
Continuous
 62
     2
100
AcDbCircle
 10
288.7241997612795
 20
305.9050009628961
 30
0.0
 40
6.579519999999999
100
AcDbArc
 50
181.0099999999987
 51
358.9900000000012
  0
ARC
  5
5C60
330
5ADA
100
AcDbEntity
  8
0
  6
Continuous
 62
     7
100
AcDbCircle
 10
288.7241997612795
 20
305.9050009628961
 30
0.0
 40
5.723519999999999
100
AcDbArc
 50
181.0099999999987
 51
358.9900000000012
  0
POINT
  5
5C61
330
5ADA
100
AcDbEntity
  8
0
100
AcDbPoint
 10
337.3241997612795
 20
293.5000009628961
 30
0.0
  0
LEADER
  5
5C62
330
5ADA
100
AcDbEntity
  8
Dim
100
AcDbLeader
  3
ISO-25
 76
     3
 10
325.9043872718893
 20
344.3960009628961
 30
0.0
 10
344.3432615046754
 20
375.9151436431025
 30
0.0
 10
375.2043792994618
 20
375.9151436431025
 30
0.0
1001
ACAD
1000
DSTYLE
1002
{
1070
   147
1040
1.0
1070
    77
1070
     0
1002
}
  0
DIMENSION
  5
5C63
330
5ADA
100
AcDbEntity
  8
Dim
100
AcDbDimension
  2
*D43
 10
319.3241997612795
 20
374.9468584089527
 30
0.0
 11
328.3241997612795
 21
377.1968584089527
 31
0.0
 12
-45.67580023872051
 22
-266.5991706462662
 32
0.0
 71
     5
 42
18.0
  3
ISO-25
100
AcDbAlignedDimension
 13
337.3241997612795
 23
360.5000009628962
 33
0.0
 14
319.3241997612795
 24
350.3960009628961
 34
0.0
100
AcDbRotatedDimension
  0
LINE
  5
5C64
330
5ADA
100
AcDbEntity
  8
0
  6
Continuous
 62
     7
100
AcDbLine
 10
274.3241997612795
 20
360.5000009628962
 30
0.0
 11
337.3241997612795
 21
360.5000009628962
 31
0.0
  0
LINE
  5
5C65
330
5ADA
100
AcDbEntity
  8
0
  6
Continuous
 62
     7
100
AcDbLine
 10
274.3241997612795
 20
372.0000009628961
 30
0.0
 11
274.3241997612795
 21
358.3070009628962
 31
0.0
  0
LINE
  5
5C66
330
5ADA
100
AcDbEntity
  8
0
  6
Continuous
 62
     7
100
AcDbLine
 10
274.8241997612795
 20
360.5000009628962
 30
0.0
 11
274.8241997612795
 21
359.8930009628962
 31
0.0
  0
LINE
  5
5C67
330
5ADA
100
AcDbEntity
  8
0
  6
Continuous
 62
     7
100
AcDbLine
 10
274.3241997612795
 20
359.8930009628962
 30
0.0
 11
274.8241997612795
 21
359.8930009628962
 31
0.0
  0
LINE
  5
5C68
330
5ADA
100
AcDbEntity
  8
0
  6
CENTER
 62
     2
100
AcDbLine
 10
327.3241997612795
 20
344.3960009628961
 30
0.0
 11
311.3241997612795
 21
344.3960009628961
 31
0.0
  0
ARC
  5
5C69
330
5ADA
100
AcDbEntity
  8
0
  6
Continuous
 62
     2
100
AcDbCircle
 10
319.3241997612795
 20
340.1630009628962
 30
0.0
 40
8.985799999999999
100
AcDbArc
 50
65.08369999999924
 51
114.9179999999997
  0
ARC
  5
5C6A
330
5ADA
100
AcDbEntity
  8
0
  6
Continuous
 62
     2
100
AcDbCircle
 10
319.3241997612795
 20
347.6740009628961
 30
0.0
 40
8.30221
100
AcDbArc
 50
236.8790000000002
 51
308.8190000000009
  0
ARC
  5
5C6B
330
5ADA
100
AcDbEntity
  8
0
  6
Continuous
 62
     7
100
AcDbCircle
 10
319.3241997612795
 20
340.1630009628962
 30
0.0
 40
8.129799999999999
100
AcDbArc
 50
65.22170000000018
 51
114.7779999999997
  0
ARC
  5
5C6C
330
5ADA
100
AcDbEntity
  8
0
  6
Continuous
 62
     7
100
AcDbCircle
 10
319.3241997612795
 20
347.6740009628961
 30
0.0
 40
7.44621
100
AcDbArc
 50
236.7069999999994
 51
303.2829999999993
  0
ARC
  5
5C6D
330
5ADA
100
AcDbEntity
  8
0
  6
Continuous
 62
     2
100
AcDbCircle
 10
316.8601997612795
 20
344.2790009628961
 30
0.0
 40
4.117849999999999
100
AcDbArc
 50
136.9959999999995
 51
239.7740000000001
  0
ARC
  5
5C6E
330
5ADA
100
AcDbEntity
  8
0
  6
Continuous
 62
     7
100
AcDbCircle
 10
317.7651997612795
 20
343.5190009628962
 30
0.0
 40
4.429999999999999
100
AcDbArc
 50
114.6319999999995
 51
132.817999999999
  0
ARC
  5
5C6F
330
5ADA
100
AcDbEntity
  8
0
  6
Continuous
 62
     7
100
AcDbCircle
 10
316.8601997612795
 20
344.2790009628961
 30
0.0
 40
3.261849999999999
100
AcDbArc
 50
129.2570000000005
 51
240.1430000000006
  0
ARC
  5
5C70
330
5ADA
100
AcDbEntity
  8
0
  6
Continuous
 62
     2
100
AcDbCircle
 10
317.7651997612795
 20
343.5190009628962
 30
0.0
 40
5.285999999999999
100
AcDbArc
 50
114.6319999999995
 51
137.6559999999991
  0
LINE
  5
5C71
330
5ADA
100
AcDbEntity
  8
0
  6
CENTER
 62
     2
100
AcDbLine
 10
319.3241997612795
 20
338.3960009628961
 30
0.0
 11
319.3241997612795
 21
350.3960009628961
 31
0.0
  0
ARC
  5
5C72
330
5ADA
100
AcDbEntity
  8
0
  6
Continuous
 62
     2
100
AcDbCircle
 10
321.7881997612795
 20
344.2790009628961
 30
0.0
 40
4.117849999999999
100
AcDbArc
 50
311.7259999999989
 51
49.946799999999
  0
ARC
  5
5C73
330
5ADA
100
AcDbEntity
  8
0
  6
Continuous
 62
     7
100
AcDbCircle
 10
320.8831997612795
 20
343.5190009628962
 30
0.0
 40
4.429999999999999
100
AcDbArc
 50
47.18159999999942
 51
65.36850000000061
  0
ARC
  5
5C74
330
5ADA
100
AcDbEntity
  8
0
  6
Continuous
 62
     7
100
AcDbCircle
 10
321.7881997612795
 20
344.2790009628961
 30
0.0
 40
3.261849999999999
100
AcDbArc
 50
299.833999999999
 51
50.74269999999969
  0
ARC
  5
5C75
330
5ADA
100
AcDbEntity
  8
0
  6
Continuous
 62
     2
100
AcDbCircle
 10
320.8831997612795
 20
343.5190009628962
 30
0.0
 40
5.285999999999999
100
AcDbArc
 50
47.74329999999975
 51
65.08369999999924
  0
TEXT
  5
5C76
330
5ADA
100
AcDbEntity
  8
0
 62
     4
100
AcDbText
 10
349.457105970832
 20
339.2772030789397
 30
0.0
 40
1.6
  1
C
  7
China
100
AcDbText
  0
TEXT
  5
5C77
330
5ADA
100
AcDbEntity
  8
0
 62
     4
100
AcDbText
 10
345.657105970832
 20
338.8232030789398
 30
0.0
 40
3.2
  1
R
  7
China
100
AcDbText
  0
TEXT
  5
5C78
330
5ADA
100
AcDbEntity
  8
0
 62
     4
100
AcDbText
 10
352.509105970832
 20
339.0372030789397
 30
0.0
 40
3.2
  1
1/4
  7
China
100
AcDbText
  0
TEXT
  5
5C79
330
5ADA
100
AcDbEntity
  8
0
 62
     4
100
AcDbText
 10
347.3068474361059
 20
371.3098266257119
 30
0.0
 40
3.2
  1
(Finger opening port)
  7
China
100
AcDbText
  0
TEXT
  5
5C7A
330
5ADA
100
AcDbEntity
  8
0
 62
     4
100
AcDbText
 10
347.6908474361059
 20
377.3883442099598
 30
0.0
 40
3.2
  1
R
  7
China
100
AcDbText
  0
TEXT
  5
5C7B
330
5ADA
100
AcDbEntity
  8
0
 62
     4
100
AcDbText
 10
351.6038474361059
 20
377.8423442099597
 30
0.0
 40
1.6
  1
C
  7
China
100
AcDbText
  0
TEXT
  5
5C7C
330
5ADA
100
AcDbEntity
  8
0
 62
     4
100
AcDbText
 10
354.4138474361059
 20
377.3273442099597
 30
0.0
 40
3.2
  1
1/4
  7
China
100
AcDbText
  0
LINE
  5
5C7D
330
5ADA
100
AcDbEntity
  8
0
  6
Continuous
 62
     7
100
AcDbLine
 10
545.8201997612794
 20
120.5000009628961
 30
0.0
 11
545.8201997612794
 21
86.50000096289614
 31
0.0
  0
TEXT
  5
5C7E
330
5ADA
100
AcDbEntity
  8
0
 62
     4
100
AcDbText
 10
343.853348620644
 20
332.8182297119323
 30
0.0
 40
3.2
  1
(Finger closing 
  7
China
100
AcDbText
  0
TEXT
  5
5C7F
330
5ADA
100
AcDbEntity
  8
0
 62
     4
100
AcDbText
 10
343.853348620644
 20
327.8834094937719
 30
0.0
 40
3.2
  1
port)
  7
China
100
AcDbText
  0
TEXT
  5
5C80
330
5ADA
100
AcDbEntity
  8
0
 62
     4
100
AcDbText
 10
80.25335065174022
 20
197.0343079664908
 30
0.0
 40
3.2
  1
(Thread for mounting 
  7
China
100
AcDbText
  0
TEXT
  5
5C81
330
5ADA
100
AcDbEntity
  8
0
 62
     4
100
AcDbText
 10
80.25335065174022
 20
192.7064001192923
 30
0.0
 40
3.2
  1
attachment)
  7
China
100
AcDbText
  0
TEXT
  5
5C82
330
5ADA
100
AcDbEntity
  8
0
 62
     4
100
AcDbText
 10
413.0991997612794
 20
191.4860181266983
 30
0.0
 40
3.2
  1
(Mounting thread)
  7
China
100
AcDbText
  0
ENDBLK
  5
5C84
330
5ADA
100
AcDbEntity
  8
0
100
AcDbBlockEnd
  0
ENDSEC
  0
SECTION
  2
ENTITIES
  0
TEXT
  5
AE3
330
1F
100
AcDbEntity
  8
M_1
 62
     4
100
AcDbText
 10
298.4979942115772
 20
71.23545134413652
 30
0.0
 40
5.0
  1

 41
0.75
  7
DAYUS
 11
298.4979942115772
 21
71.23545134413652
 31
0.0
100
AcDbText
 73
     1
  0
LINE
  5
2824
330
1F
100
AcDbEntity
  8
LOGO
 62
     1
100
AcDbLine
 10
1506.846698409157
 20
1310.966080556476
 30
0.0
 11
907.0254984091569
 21
1310.966080556476
 31
0.0
  0
LWPOLYLINE
  5
2838
330
1F
100
AcDbEntity
  8
0
 62
     4
100
AcDbPolyline
 90
        4
 70
     1
 43
0.0
 10
907.0254984091565
 20
1310.966080556476
 10
1506.846698409156
 20
1310.966080556476
 10
1506.846698409156
 20
1703.58263706109
 10
907.0254984091565
 20
1703.58263706109
1001
GENIUS_GENREC_14
1002
{
1000
PYDIR
1011
907.0254984091565
1021
1703.58263706109
1031
0.0
1002
}
1002
{
1000
PXDIR
1011
1506.846698409156
1021
1310.966080556476
1031
0.0
1002
}
1002
{
1000
PORI
1011
907.0254984091565
1021
1310.966080556476
1031
0.0
1002
}
1002
{
1000
PINS
1011
907.0254984091565
1021
1310.966080556476
1031
0.0
1002
}
1002
{
1000
PINS2
1011
1506.846698409156
1021
1703.58263706109
1031
0.0
1002
}
1002
{
1000
C
1070
     1
1002
}
1001
GENIUS_GENODEF_13
1002
{
1000
HIER
1070
     0
1002
}
1002
{
1000
MANEDIT
1070
     0
1002
}
1002
{
1000
NOSEL
1070
     0
1002
}
1002
{
1000
BEHIND
1070
     0
1002
}
1002
{
1000
OTHER
1070
     0
1002
}
1002
{
1000
REACTOR
1002
}
1001
GENIUS_GENOBJ-N-REC_13
1002
{
1000
OWNER
1000
GEN
1002
}
  0
LWPOLYLINE
  5
2872
330
1F
100
AcDbEntity
  8
LOGO
 62
     4
100
AcDbPolyline
 90
        4
 70
     1
 43
0.0
 10
907.0254984091565
 20
1310.966080556476
 10
1506.846698409156
 20
1310.966080556476
 10
1506.846698409156
 20
1267.34903706109
 10
907.0254984091565
 20
1267.34903706109
1001
GENIUS_GENREC_14
1002
{
1000
PYDIR
1011
907.0254984091565
1021
1267.34903706109
1031
0.0
1002
}
1002
{
1000
PXDIR
1011
1506.846698409156
1021
1310.966080556476
1031
0.0
1002
}
1002
{
1000
PORI
1011
907.0254984091565
1021
1310.966080556476
1031
0.0
1002
}
1002
{
1000
PINS
1011
907.0254984091565
1021
1310.966080556476
1031
0.0
1002
}
1002
{
1000
PINS2
1011
1506.846698409156
1021
1267.34903706109
1031
0.0
1002
}
1002
{
1000
C
1070
     1
1002
}
1001
GENIUS_GENOBJ-N-REC_13
1002
{
1000
OWNER
1000
GEN
1002
}
1001
GENIUS_GENODEF_13
1002
{
1000
HIER
1070
     0
1002
}
1002
{
1000
MANEDIT
1070
     0
1002
}
1002
{
1000
NOSEL
1070
     0
1002
}
1002
{
1000
BEHIND
1070
     0
1002
}
1002
{
1000
OTHER
1070
     0
1002
}
1002
{
1000
REACTOR
1002
}
  0
LINE
  5
2873
330
1F
100
AcDbEntity
  8
LOGO
 62
     4
100
AcDbLine
 10
1092.054330601165
 20
1286.976706634014
 30
0.0
 11
1092.054330601165
 21
1270.983790685706
 31
0.0
  0
LINE
  5
2874
330
1F
100
AcDbEntity
  8
LOGO
 62
     4
100
AcDbLine
 10
1062.976301604241
 20
1286.976706634014
 30
0.0
 11
1062.976301604241
 21
1270.983790685706
 31
0.0
  0
LINE
  5
2875
330
1F
100
AcDbEntity
  8
LOGO
 62
     4
100
AcDbLine
 10
1092.054330601165
 20
1270.983790685706
 30
0.0
 11
1062.976301604241
 21
1270.983790685706
 31
0.0
  0
LINE
  5
2876
330
1F
100
AcDbEntity
  8
LOGO
 62
     4
100
AcDbLine
 10
1105.592600046281
 20
1306.604376206937
 30
0.0
 11
1062.976301604241
 21
1306.604376206937
 31
0.0
  0
LINE
  5
2877
330
1F
100
AcDbEntity
  8
LOGO
 62
     4
100
AcDbLine
 10
1105.592600046281
 20
1293.519263158322
 30
0.0
 11
1062.976301604241
 21
1293.519263158322
 31
0.0
  0
LINE
  5
2878
330
1F
100
AcDbEntity
  8
LOGO
 62
     4
100
AcDbLine
 10
1062.976301604241
 20
1306.604376206937
 30
0.0
 11
1062.976301604241
 21
1293.519263158322
 31
0.0
  0
LINE
  5
2879
330
1F
100
AcDbEntity
  8
LOGO
 62
     4
100
AcDbLine
 10
1105.592600046281
 20
1306.604376206937
 30
0.0
 11
1105.592600046281
 21
1293.519263158322
 31
0.0
  0
LINE
  5
287A
330
1F
100
AcDbEntity
  8
LOGO
 62
     4
100
AcDbLine
 10
1079.032458866452
 20
1293.519263158322
 30
0.0
 11
1079.032458866452
 21
1286.976706634014
 31
0.0
  0
TEXT
  5
287B
330
1F
100
AcDbEntity
  8
LOGO
  6
Continuous
100
AcDbText
 10
1065.301321261735
 20
1296.250761376787
 30
0.0
 40
7.634088
  1
MCHG2
  7
CHINESET
100
AcDbText
  0
LINE
  5
287C
330
1F
100
AcDbEntity
  8
LOGO
 62
     4
100
AcDbLine
 10
1092.054330601165
 20
1286.976706634014
 30
0.0
 11
1062.976301604241
 21
1286.976706634014
 31
0.0
  0
TEXT
  5
287D
330
1F
100
AcDbEntity
  8
LOGO
  6
Continuous
100
AcDbText
 10
1072.307349049715
 20
1273.241156858043
 30
285.8589175805963
 40
3.271751999999999
  1
Model
 41
0.8
  7
CHINESET
100
AcDbText
  0
TEXT
  5
287E
330
1F
100
AcDbEntity
  8
LOGO
100
AcDbText
 10
1071.436515025431
 20
1279.306279953162
 30
285.8589175805963
 40
5.452919999999999
  1
型號
  7
CHINESET
100
AcDbText
  0
LINE
  5
288A
330
1F
100
AcDbEntity
  8
LOGO
  6
Continuous
100
AcDbLine
 10
1107.446611214637
 20
1300.015470144274
 30
0.0
 11
1113.224519682345
 21
1300.015470144274
 31
0.0
  0
LINE
  5
288B
330
1F
100
AcDbEntity
  8
LOGO
 62
     4
100
AcDbLine
 10
1124.937733721908
 20
1286.976706634014
 30
0.0
 11
1124.937733721908
 21
1270.983790685706
 31
0.0
  0
LINE
  5
288C
330
1F
100
AcDbEntity
  8
LOGO
 62
     4
100
AcDbLine
 10
1095.859704724985
 20
1286.976706634014
 30
0.0
 11
1095.859704724985
 21
1270.983790685706
 31
0.0
  0
LINE
  5
288D
330
1F
100
AcDbEntity
  8
LOGO
 62
     4
100
AcDbLine
 10
1124.937733721908
 20
1270.983790685706
 30
0.0
 11
1095.859704724985
 21
1270.983790685706
 31
0.0
  0
LINE
  5
288E
330
1F
100
AcDbEntity
  8
LOGO
 62
     4
100
AcDbLine
 10
1137.406286585399
 20
1306.604376206937
 30
0.0
 11
1115.047145232176
 21
1306.604376206937
 31
0.0
  0
LINE
  5
288F
330
1F
100
AcDbEntity
  8
LOGO
 62
     4
100
AcDbLine
 10
1137.406286585399
 20
1293.519263158322
 30
0.0
 11
1115.047145232176
 21
1293.519263158322
 31
0.0
  0
LINE
  5
2890
330
1F
100
AcDbEntity
  8
LOGO
 62
     4
100
AcDbLine
 10
1115.047145232176
 20
1306.604376206937
 30
0.0
 11
1115.047145232176
 21
1293.519263158322
 31
0.0
  0
LINE
  5
2891
330
1F
100
AcDbEntity
  8
LOGO
 62
     4
100
AcDbLine
 10
1137.406286585399
 20
1306.604376206937
 30
0.0
 11
1137.406286585399
 21
1293.519263158322
 31
0.0
  0
LINE
  5
2892
330
1F
100
AcDbEntity
  8
LOGO
 62
     4
100
AcDbLine
 10
1125.100679792575
 20
1293.519263158322
 30
0.0
 11
1125.100679792575
 21
1290.247984896168
 31
0.0
  0
TEXT
  5
2893
330
1F
100
AcDbEntity
  8
LOGO
  6
Continuous
100
AcDbText
 10
1120.630895858426
 20
1296.250761376787
 30
0.0
 40
7.634088
  1
80
  7
CHINESET
100
AcDbText
  0
LINE
  5
2894
330
1F
100
AcDbEntity
  8
LOGO
 62
     4
100
AcDbLine
 10
1124.937733721908
 20
1286.976706634014
 30
0.0
 11
1095.859704724985
 21
1286.976706634014
 31
0.0
  0
LINE
  5
2895
330
1F
100
AcDbEntity
  8
LOGO
  6
Continuous
100
AcDbLine
 10
1162.455065303516
 20
1300.015470144274
 30
0.0
 11
1168.232973771225
 21
1300.015470144274
 31
0.0
  0
LINE
  5
2896
330
1F
100
AcDbEntity
  8
LOGO
 62
     4
100
AcDbLine
 10
1192.824344144691
 20
1286.976706634014
 30
0.0
 11
1192.824344144691
 21
1270.983790685706
 31
0.0
  0
LINE
  5
2897
330
1F
100
AcDbEntity
  8
LOGO
 62
     4
100
AcDbLine
 10
1159.350410158185
 20
1286.976706634014
 30
0.0
 11
1159.350410158185
 21
1270.983790685706
 31
0.0
  0
LINE
  5
2898
330
1F
100
AcDbEntity
  8
LOGO
 62
     4
100
AcDbLine
 10
1192.824344144691
 20
1270.983790685706
 30
0.0
 11
1159.350410158185
 21
1270.983790685706
 31
0.0
  0
LINE
  5
2899
330
1F
100
AcDbEntity
  8
LOGO
 62
     4
100
AcDbLine
 10
1183.977796233784
 20
1306.604376206937
 30
0.0
 11
1170.055599321055
 21
1306.604376206937
 31
0.0
  0
LINE
  5
289A
330
1F
100
AcDbEntity
  8
LOGO
 62
     4
100
AcDbLine
 10
1183.977796233784
 20
1293.519263158322
 30
0.0
 11
1170.055599321055
 21
1293.519263158322
 31
0.0
  0
LINE
  5
289B
330
1F
100
AcDbEntity
  8
LOGO
 62
     4
100
AcDbLine
 10
1170.055599321055
 20
1306.604376206937
 30
0.0
 11
1170.055599321055
 21
1293.519263158322
 31
0.0
  0
LINE
  5
289C
330
1F
100
AcDbEntity
  8
LOGO
 62
     4
100
AcDbLine
 10
1183.977796233784
 20
1306.604376206937
 30
0.0
 11
1183.977796233784
 21
1293.519263158322
 31
0.0
  0
LINE
  5
289D
330
1F
100
AcDbEntity
  8
LOGO
 62
     4
100
AcDbLine
 10
1177.01669777742
 20
1293.519263158322
 30
0.0
 11
1177.01669777742
 21
1286.976706634014
 31
0.0
  0
LINE
  5
289F
330
1F
100
AcDbEntity
  8
LOGO
 62
     4
100
AcDbLine
 10
1192.824344144691
 20
1286.976706634014
 30
0.0
 11
1159.350410158185
 21
1286.976706634014
 31
0.0
  0
TEXT
  5
28A2
330
1F
100
AcDbEntity
  8
LOGO
  6
Continuous
100
AcDbText
 10
1101.950363349189
 20
1273.241156858043
 30
285.8589175805963
 40
3.271751999999999
  1
Tube I.D.
 41
0.8
  7
CHINESET
100
AcDbText
  0
TEXT
  5
28A3
330
1F
100
AcDbEntity
  8
LOGO
100
AcDbText
 10
1103.269569005392
 20
1279.306279953162
 30
285.8589175805963
 40
5.452919999999999
  1
內徑
  7
CHINESET
100
AcDbText
  0
TEXT
  5
28A4
330
1F
100
AcDbEntity
  8
LOGO
  6
Continuous
100
AcDbText
 10
1162.391138745905
 20
1273.241156858043
 30
285.8589175805963
 40
3.271751999999999
  1
Sensor switch
 41
0.8
  7
CHINESET
100
AcDbText
  0
TEXT
  5
28A5
330
1F
100
AcDbEntity
  8
LOGO
100
AcDbText
 10
1162.164286217377
 20
1279.306279953162
 30
285.8589175805963
 40
5.452919999999999
  1
感應器型式
  7
CHINESET
100
AcDbText
  0
LINE
  5
28A6
330
1F
100
AcDbEntity
  8
LOGO
 62
     4
100
AcDbLine
 10
1159.940097085811
 20
1306.604376206937
 30
0.0
 11
1139.25321878001
 21
1306.604376206937
 31
0.0
  0
LINE
  5
28A7
330
1F
100
AcDbEntity
  8
LOGO
 62
     4
100
AcDbLine
 10
1159.940097085811
 20
1293.519263158322
 30
0.0
 11
1139.25321878001
 21
1293.519263158322
 31
0.0
  0
LINE
  5
28A8
330
1F
100
AcDbEntity
  8
LOGO
 62
     4
100
AcDbLine
 10
1139.25321878001
 20
1306.604376206937
 30
0.0
 11
1139.25321878001
 21
1293.519263158322
 31
0.0
  0
LINE
  5
28A9
330
1F
100
AcDbEntity
  8
LOGO
 62
     4
100
AcDbLine
 10
1159.940097085811
 20
1306.604376206937
 30
0.0
 11
1159.940097085811
 21
1293.519263158322
 31
0.0
  0
TEXT
  5
28AA
330
1F
100
AcDbEntity
  8
LOGO
  6
Continuous
100
AcDbText
 10
1142.294233055771
 20
1296.250761376787
 30
0.0
 40
7.634088
  1
(M)
  7
CHINESET
100
AcDbText
  0
LINE
  5
28AB
330
1F
100
AcDbEntity
  8
LOGO
 62
     4
100
AcDbLine
 10
1154.570719328455
 20
1286.976706634014
 30
0.0
 11
1154.570719328455
 21
1270.983790685706
 31
0.0
  0
LINE
  5
28AC
330
1F
100
AcDbEntity
  8
LOGO
 62
     4
100
AcDbLine
 10
1130.882029058605
 20
1286.976706634014
 30
0.0
 11
1130.882029058605
 21
1270.983790685706
 31
0.0
  0
LINE
  5
28AD
330
1F
100
AcDbEntity
  8
LOGO
 62
     4
100
AcDbLine
 10
1154.570719328455
 20
1270.983790685706
 30
0.0
 11
1130.882029058605
 21
1270.983790685706
 31
0.0
  0
LINE
  5
28AE
330
1F
100
AcDbEntity
  8
LOGO
 62
     4
100
AcDbLine
 10
1154.570719328455
 20
1286.976706634014
 30
0.0
 11
1130.882029058605
 21
1286.976706634014
 31
0.0
  0
TEXT
  5
28AF
330
1F
100
AcDbEntity
  8
LOGO
  6
Continuous
100
AcDbText
 10
1136.031340676114
 20
1273.241156858043
 30
285.8589175805963
 40
3.271751999999999
  1
Magnet
 41
0.8
  7
CHINESET
100
AcDbText
  0
TEXT
  5
28B0
330
1F
100
AcDbEntity
  8
LOGO
100
AcDbText
 10
1134.286565472955
 20
1279.306279953162
 30
285.8589175805963
 40
5.452919999999999
  1
附磁石
  7
CHINESET
100
AcDbText
  0
LINE
  5
28B1
330
1F
100
AcDbEntity
  8
LOGO
 62
     4
100
AcDbLine
 10
1149.596657932911
 20
1293.519263158322
 30
0.0
 11
1149.596657932911
 21
1290.247984896168
 31
0.0
  0
LINE
  5
28B9
330
1F
100
AcDbEntity
  8
LOGO
 62
     4
100
AcDbLine
 10
1125.100679792575
 20
1290.247984896168
 30
0.0
 11
1110.398719223447
 21
1290.247984896168
 31
0.0
  0
LINE
  5
28BA
330
1F
100
AcDbEntity
  8
LOGO
 62
     4
100
AcDbLine
 10
1110.398719223447
 20
1286.976706634014
 30
0.0
 11
1110.398719223447
 21
1290.247984896168
 31
0.0
  0
LINE
  5
28BB
330
1F
100
AcDbEntity
  8
LOGO
 62
     4
100
AcDbLine
 10
1149.596657932911
 20
1290.247984896168
 30
0.0
 11
1142.72637419353
 21
1290.247984896168
 31
0.0
  0
LINE
  5
28BC
330
1F
100
AcDbEntity
  8
LOGO
 62
     4
100
AcDbLine
 10
1142.72637419353
 20
1286.976706634014
 30
0.0
 11
1142.72637419353
 21
1290.247984896168
 31
0.0
  0
TEXT
  5
299D
330
1F
100
AcDbEntity
  8
LOGO
 62
     7
100
AcDbText
 10
1005.509894544236
 20
1291.858196008564
 30
0.0
 40
5.815605799384614
  1
Order example:
 41
0.8
  7
CHINESET
100
AcDbText
  0
TEXT
  5
299E
330
1F
100
AcDbEntity
  8
LOGO
 62
     7
100
AcDbText
 10
1006.553262317749
 20
1300.045364837552
 30
0.0
 40
8.723408699076921
  1
訂購代號:
  7
CHINESET
100
AcDbText
  0
LINE
  5
29A0
330
1F
100
AcDbEntity
  8
LOGO
 62
     4
100
AcDbLine
 10
1002.982994099003
 20
1267.34903706109
 30
0.0
 11
1002.982994099003
 21
1310.966080556476
 31
0.0
  0
TEXT
  5
29A1
330
1F
100
AcDbEntity
  8
LOGO
  6
Continuous
100
AcDbText
 10
922.6929364951029
 20
1275.917539431901
 30
0.0
 40
6.54255652430769
  1
金器工業股份有限公司
  7
CHINESET
100
AcDbText
  0
TEXT
  5
29A2
330
1F
100
AcDbEntity
  8
LOGO
  6
Continuous
100
AcDbText
 10
910.6755545409257
 20
1269.373701079471
 30
0.0
 40
4.36170434953846
  1
MINDMAN INDUSTRIAL CO., LTD.
 41
0.85
  7
CHINESET
100
AcDbText
  0
LINE
  5
29A3
330
1F
100
AcDbEntity
  8
LOGO
100
AcDbLine
 10
1002.982994099003
 20
1302.242671857398
 30
0.0
 11
939.0113303057717
 21
1302.242671857398
 31
0.0
  0
LINE
  5
29A4
330
1F
100
AcDbEntity
  8
LOGO
100
AcDbLine
 10
1002.982994099003
 20
1293.519263158322
 30
0.0
 11
939.0113303057717
 21
1293.519263158322
 31
0.0
  0
LINE
  5
29A5
330
1F
100
AcDbEntity
  8
LOGO
 62
     4
100
AcDbLine
 10
1002.982994099003
 20
1284.795854459245
 30
0.0
 11
907.0254984091569
 21
1284.795854459245
 31
0.0
  0
LINE
  5
29A6
330
1F
100
AcDbEntity
  8
LOGO
 62
     4
100
AcDbLine
 10
939.0113303057717
 20
1284.795854459245
 30
0.0
 11
939.0113303057717
 21
1310.966080556476
 31
0.0
  0
TEXT
  5
29A7
330
1F
100
AcDbEntity
  8
LOGO
100
AcDbText
 10
982.7329430919057
 20
1286.976706634014
 30
0.0
 40
4.36170434953846
  1
mm
  7
CHINESET
 72
     1
 11
988.1331484770484
 21
1289.157558808783
 31
0.0
100
AcDbText
 73
     2
  0
TEXT
  5
29A8
330
1F
100
AcDbEntity
  8
LOGO
100
AcDbText
 10
980.4482408135759
 20
1304.423524032168
 30
0.0
 40
4.36170434953846
  1
1 : 1
  7
CHINESET
 72
     1
 11
988.1331484770484
 21
1306.604376206937
 31
0.0
100
AcDbText
 73
     2
  0
LINE
  5
29A9
330
1F
100
AcDbEntity
  8
LOGO
 62
     4
100
AcDbLine
 10
973.9049651020794
 20
1284.795854459245
 30
0.0
 11
973.9049651020794
 21
1310.966080556476
 31
0.0
  0
CIRCLE
  5
29AA
330
1F
100
AcDbEntity
  8
LOGO
  6
Continuous
100
AcDbCircle
 10
981.9812062586059
 20
1297.890297225382
 30
0.0
 40
2.532508208289591
  0
CIRCLE
  5
29AB
330
1F
100
AcDbEntity
  8
LOGO
  6
Continuous
100
AcDbCircle
 10
981.9812062586059
 20
1297.890297225382
 30
0.0
 40
1.483825619790403
  0
LINE
  5
29AC
330
1F
100
AcDbEntity
  8
LOGO
100
AcDbLine
 10
997.8957816993233
 20
1295.357789017092
 30
0.0
 11
997.8957816993233
 21
1300.422805433672
 31
0.0
  0
LINE
  5
29AD
330
1F
100
AcDbEntity
  8
LOGO
100
AcDbLine
 10
989.9565138392434
 20
1296.406471605592
 30
0.0
 11
989.9565138392434
 21
1299.374122845172
 31
0.0
  0
LINE
  5
29AE
330
1F
100
AcDbEntity
  8
LOGO
  6
Continuous
100
AcDbLine
 10
989.9565138392434
 20
1299.374122845172
 30
0.0
 11
997.8957816993233
 21
1300.422805433672
 31
0.0
  0
LINE
  5
29AF
330
1F
100
AcDbEntity
  8
LOGO
  6
Continuous
100
AcDbLine
 10
989.9565138392434
 20
1296.406471605592
 30
0.0
 11
997.8957816993233
 21
1295.357789017092
 31
0.0
  0
TEXT
  5
29B0
330
1F
100
AcDbEntity
  8
LOGO
100
AcDbText
 10
942.6077892046993
 20
1304.425670540214
 30
285.8589175805963
 40
4.36170434953846
  1
比例 Scale:
 41
0.9
  7
CHINESET
 72
     4
 11
956.4581477039258
 21
1306.604376206937
 31
285.8589175805963
100
AcDbText
  0
TEXT
  5
29B1
330
1F
100
AcDbEntity
  8
LOGO
100
AcDbText
 10
942.3566017667125
 20
1295.761469688073
 30
285.8589175805963
 40
4.36170434953846
  1
投影  View:
 41
0.9
  7
CHINESET
 72
     4
 11
956.4581477039258
 21
1297.88096750786
 31
285.8589175805963
100
AcDbText
  0
TEXT
  5
29B2
330
1F
100
AcDbEntity
  8
LOGO
100
AcDbText
 10
942.7830362544577
 20
1286.976706634014
 30
285.8589175805963
 40
4.36170434953846
  1
單位  Unit:
 41
0.9
  7
CHINESET
 72
     4
 11
956.4581477039258
 21
1289.157558808783
 31
285.8589175805963
100
AcDbText
  0
SOLID
  5
29B4
330
1F
100
AcDbEntity
  8
LOGO
 62
     5
100
AcDbTrace
 10
911.5508366718328
 20
1292.046567100627
 30
0.0
 11
913.4367231814513
 21
1292.046567100626
 31
0.0
 12
921.3054220664099
 22
1309.929973657352
 32
0.0
 13
923.1913085760291
 23
1309.929973657351
 33
0.0
  0
SOLID
  5
29B5
330
1F
100
AcDbEntity
  8
LOGO
 62
     5
100
AcDbTrace
 10
914.2170900130194
 20
1292.046567100627
 30
0.0
 11
916.1029765226377
 21
1292.046567100627
 31
0.0
 12
923.1913085760291
 22
1308.499301132813
 32
0.0
 13
921.3054220664099
 23
1301.58438393088
 33
0.0
  0
SOLID
  5
29B6
330
1F
100
AcDbEntity
  8
LOGO
 62
     2
100
AcDbTrace
 10
913.4367231814513
 20
1292.046567100626
 30
0.0
 11
914.2170900130194
 21
1292.046567100627
 31
0.0
 12
923.1913085760291
 22
1309.929973657351
 32
0.0
 13
923.9716754075967
 23
1309.929973657351
 33
0.0
  0
SOLID
  5
29B7
330
1F
100
AcDbEntity
  8
LOGO
 62
     5
100
AcDbTrace
 10
908.5272981208927
 20
1285.543510170909
 30
0.0
 11
909.1776038138652
 21
1285.543510170909
 31
0.0
 12
911.0089152610237
 22
1288.795038635768
 32
0.0
 13
911.6592209539943
 23
1288.795038635768
 33
0.0
  0
SOLID
  5
29B8
330
1F
100
AcDbEntity
  8
LOGO
 62
     5
100
AcDbTrace
 10
911.0089152610237
 20
1288.795038635768
 30
0.0
 11
911.6592209539943
 21
1288.795038635768
 31
0.0
 12
911.0089152610237
 22
1285.543510170909
 32
0.0
 13
911.6592209539943
 23
1285.543510170909
 33
0.0
  0
SOLID
  5
29B9
330
1F
100
AcDbEntity
  8
LOGO
 62
     5
100
AcDbTrace
 10
911.0089152610237
 20
1285.543510170909
 30
0.0
 11
911.6592209539943
 21
1285.543510170909
 31
0.0
 12
913.490532401156
 22
1288.795038635768
 32
0.0
 13
914.1408380941273
 23
1288.795038635768
 33
0.0
  0
SOLID
  5
29BA
330
1F
100
AcDbEntity
  8
LOGO
 62
     5
100
AcDbTrace
 10
913.490532401156
 20
1288.795038635768
 30
0.0
 11
914.1408380941273
 21
1288.795038635768
 31
0.0
 12
913.490532401156
 22
1285.543510170909
 32
0.0
 13
914.1408380941273
 23
1285.543510170909
 33
0.0
  0
POLYLINE
  5
29BB
330
1F
100
AcDbEntity
  8
LOGO
 62
     5
100
AcDb2dPolyline
 66
     1
 10
0.0
 20
0.0
 30
0.0
 40
0.6513478495310769
 41
0.6513478495310769
  0
VERTEX
  5
29BC
330
29BB
100
AcDbEntity
  8
LOGO
 62
     5
100
AcDbVertex
100
AcDb2dVertex
 10
935.2885577001449
 20
1287.494427249824
 30
0.0
 42
1.0
  0
VERTEX
  5
29BD
330
29BB
100
AcDbEntity
  8
LOGO
 62
     5
100
AcDbVertex
100
AcDb2dVertex
 10
933.3345141515515
 20
1287.494427249824
 30
0.0
 42
1.0
  0
SEQEND
  5
29BE
330
29BB
100
AcDbEntity
  8
LOGO
 62
     5
  0
POLYLINE
  5
29BF
330
1F
100
AcDbEntity
  8
LOGO
 62
     5
100
AcDb2dPolyline
 66
     1
 10
0.0
 20
0.0
 30
0.0
 70
     1
  0
VERTEX
  5
29C0
330
29BF
100
AcDbEntity
  8
LOGO
 62
     5
100
AcDbVertex
100
AcDb2dVertex
 10
929.6510551465949
 20
1287.169274403338
 30
0.0
 42
1.000000057330635
  0
VERTEX
  5
29C1
330
29BF
100
AcDbEntity
  8
LOGO
 62
     5
100
AcDbVertex
100
AcDb2dVertex
 10
931.6019722255106
 20
1287.169274403338
 30
0.0
 42
1.000000057330635
  0
SEQEND
  5
29C2
330
29BF
100
AcDbEntity
  8
LOGO
 62
     5
  0
CIRCLE
  5
29C3
330
1F
100
AcDbEntity
  8
LOGO
 62
     5
100
AcDbCircle
 10
930.6265136860544
 20
1287.169274403338
 30
0.0
 40
0.9754585394577407
  0
POLYLINE
  5
29C4
330
1F
100
AcDbEntity
  8
LOGO
 62
     5
100
AcDb2dPolyline
 66
     1
 10
0.0
 20
0.0
 30
0.0
 70
     1
 40
0.6513478495310769
 41
0.6513478495310769
  0
VERTEX
  5
29C5
330
29C4
100
AcDbEntity
  8
LOGO
 62
     5
100
AcDbVertex
100
AcDb2dVertex
 10
929.3238179869911
 20
1287.169274403338
 30
0.0
 42
1.0
  0
VERTEX
  5
29C6
330
29C4
100
AcDbEntity
  8
LOGO
 62
     5
100
AcDbVertex
100
AcDb2dVertex
 10
931.9292093851151
 20
1287.169274403338
 30
0.0
 42
1.0
  0
SEQEND
  5
29C7
330
29C4
100
AcDbEntity
  8
LOGO
 62
     5
  0
LINE
  5
29C8
330
1F
100
AcDbEntity
  8
LOGO
100
AcDbLine
 10
935.6121473117907
 20
1285.543510170909
 30
0.0
 11
935.6121473117907
 21
1287.494427249824
 31
0.0
  0
SOLID
  5
29C9
330
1F
100
AcDbEntity
  8
LOGO
 62
     5
100
AcDbTrace
 10
931.6019071949442
 20
1288.795038635768
 30
0.0
 11
932.2522128879144
 21
1288.795038635768
 31
0.0
 12
931.6019071949442
 22
1285.543510170909
 32
0.0
 13
932.2522128879144
 23
1285.543510170909
 33
0.0
  0
SOLID
  5
29CA
330
1F
100
AcDbEntity
  8
LOGO
 62
     5
100
AcDbTrace
 10
933.0109245399034
 20
1285.543510170909
 30
0.0
 11
933.6612302328761
 21
1285.543510170909
 31
0.0
 12
933.0109245399034
 22
1288.795038635768
 32
0.0
 13
933.6612302328761
 23
1288.795038635768
 33
0.0
  0
SOLID
  5
29CB
330
1F
100
AcDbEntity
  8
LOGO
 62
     5
100
AcDbTrace
 10
934.9618416188199
 20
1287.494427249824
 30
0.0
 11
935.6121473117907
 21
1287.494427249824
 31
0.0
 12
934.9618416188199
 22
1285.543510170909
 32
0.0
 13
935.6121473117907
 23
1285.543510170909
 33
0.0
  0
SOLID
  5
29CC
330
1F
100
AcDbEntity
  8
LOGO
 62
     5
100
AcDbTrace
 10
932.9458939706062
 20
1308.499301132813
 30
0.0
 11
931.0600074609888
 21
1301.58438393088
 31
0.0
 12
932.9458939706062
 22
1292.046567100626
 32
0.0
 13
931.0600074609888
 23
1292.046567100626
 33
0.0
  0
SOLID
  5
29CD
330
1F
100
AcDbEntity
  8
LOGO
 62
     5
100
AcDbTrace
 10
933.7262608021733
 20
1292.046567100626
 30
0.0
 11
935.6121473117907
 21
1292.046567100626
 31
0.0
 12
933.7262608021733
 22
1309.929973657351
 32
0.0
 13
935.6121473117907
 23
1309.929973657352
 33
0.0
  0
SOLID
  5
29CE
330
1F
100
AcDbEntity
  8
LOGO
 62
     2
100
AcDbTrace
 10
932.9458939706062
 20
1309.929973657352
 30
0.0
 11
933.7262608021733
 21
1309.929973657351
 31
0.0
 12
932.9458939706062
 22
1292.046567100626
 32
0.0
 13
933.7262608021733
 23
1292.046567100626
 33
0.0
  0
POLYLINE
  5
29CF
330
1F
100
AcDbEntity
  8
LOGO
 62
     5
100
AcDb2dPolyline
 66
     1
 10
0.0
 20
0.0
 30
0.0
 40
0.6513478495310769
 41
0.6513478495310769
  0
VERTEX
  5
29D0
330
29CF
100
AcDbEntity
  8
LOGO
 62
     5
100
AcDbVertex
100
AcDb2dVertex
 10
925.9674660805027
 20
1287.494427249824
 30
0.0
 42
1.0
  0
VERTEX
  5
29D1
330
29CF
100
AcDbEntity
  8
LOGO
 62
     5
100
AcDbVertex
100
AcDb2dVertex
 10
924.013422531909
 20
1287.494427249824
 30
0.0
 42
1.0
  0
SEQEND
  5
29D2
330
29CF
100
AcDbEntity
  8
LOGO
 62
     5
  0
POLYLINE
  5
29D3
330
1F
100
AcDbEntity
  8
LOGO
 62
     5
100
AcDb2dPolyline
 66
     1
 10
0.0
 20
0.0
 30
0.0
 40
0.6513478495310769
 41
0.6513478495310769
  0
VERTEX
  5
29D4
330
29D3
100
AcDbEntity
  8
LOGO
 62
     5
100
AcDbVertex
100
AcDb2dVertex
 10
927.9183831594163
 20
1287.494427249824
 30
0.0
 42
1.0
  0
VERTEX
  5
29D5
330
29D3
100
AcDbEntity
  8
LOGO
 62
     5
100
AcDbVertex
100
AcDb2dVertex
 10
925.9643396108236
 20
1287.494427249824
 30
0.0
 42
1.0
  0
SEQEND
  5
29D6
330
29D3
100
AcDbEntity
  8
LOGO
 62
     5
  0
POLYLINE
  5
29D7
330
1F
100
AcDbEntity
  8
LOGO
 62
     5
100
AcDb2dPolyline
 66
     1
 10
0.0
 20
0.0
 30
0.0
 40
0.6513478495310769
 41
0.6513478495310769
  0
VERTEX
  5
29D8
330
29D7
100
AcDbEntity
  8
LOGO
 62
     5
100
AcDbVertex
100
AcDb2dVertex
 10
918.5972915397742
 20
1287.494427249824
 30
0.0
 42
1.0
  0
VERTEX
  5
29D9
330
29D7
100
AcDbEntity
  8
LOGO
 62
     5
100
AcDbVertex
100
AcDb2dVertex
 10
916.6432479911817
 20
1287.494427249824
 30
0.0
 42
1.0
  0
SEQEND
  5
29DA
330
29D7
100
AcDbEntity
  8
LOGO
 62
     5
  0
SOLID
  5
29DB
330
1F
100
AcDbEntity
  8
LOGO
 62
     5
100
AcDbTrace
 10
916.3196583795345
 20
1288.795038635768
 30
0.0
 11
916.9699640725054
 21
1288.795038635768
 31
0.0
 12
916.3196583795345
 22
1285.543510170909
 32
0.0
 13
916.9699640725054
 23
1285.543510170909
 33
0.0
  0
SOLID
  5
29DC
330
1F
100
AcDbEntity
  8
LOGO
 62
     5
100
AcDbTrace
 10
918.2705754584505
 20
1287.494427249824
 30
0.0
 11
918.9208811514228
 21
1287.494427249824
 31
0.0
 12
918.2705754584505
 22
1285.543510170909
 32
0.0
 13
918.9208811514228
 23
1285.543510170909
 33
0.0
  0
POLYLINE
  5
29DD
330
1F
100
AcDbEntity
  8
LOGO
 62
     5
100
AcDb2dPolyline
 66
     1
 10
0.0
 20
0.0
 30
0.0
 70
     1
 40
0.6513478495310769
 41
0.6513478495310769
  0
VERTEX
  5
29DE
330
29DD
100
AcDbEntity
  8
LOGO
 62
     5
100
AcDbVertex
100
AcDb2dVertex
 10
920.0027263673479
 20
1287.169274403338
 30
0.0
 42
1.0
  0
VERTEX
  5
29DF
330
29DD
100
AcDbEntity
  8
LOGO
 62
     5
100
AcDbVertex
100
AcDb2dVertex
 10
922.608117765473
 20
1287.169274403338
 30
0.0
 42
1.0
  0
SEQEND
  5
29E0
330
29DD
100
AcDbEntity
  8
LOGO
 62
     5
  0
SOLID
  5
29E1
330
1F
100
AcDbEntity
  8
LOGO
 62
     5
100
AcDbTrace
 10
922.2808155752996
 20
1289.770497175226
 30
0.0
 11
922.9311212682715
 21
1289.770497175226
 31
0.0
 12
922.2808155752996
 22
1285.543510170909
 32
0.0
 13
922.9311212682715
 23
1285.543510170909
 33
0.0
  0
SOLID
  5
29E2
330
1F
100
AcDbEntity
  8
LOGO
 62
     5
100
AcDbTrace
 10
923.6898329202633
 20
1288.795038635768
 30
0.0
 11
924.340138613234
 21
1288.795038635768
 31
0.0
 12
923.6898329202633
 22
1285.543510170909
 32
0.0
 13
924.340138613234
 23
1285.543510170909
 33
0.0
  0
SOLID
  5
29E3
330
1F
100
AcDbEntity
  8
LOGO
 62
     5
100
AcDbTrace
 10
925.640749999177
 20
1287.494427249824
 30
0.0
 11
926.2910556921495
 21
1287.494427249824
 31
0.0
 12
925.640749999177
 22
1285.543510170909
 32
0.0
 13
926.2910556921495
 23
1285.543510170909
 33
0.0
  0
SOLID
  5
29E4
330
1F
100
AcDbEntity
  8
LOGO
 62
     5
100
AcDbTrace
 10
927.5916670780926
 20
1287.494427249824
 30
0.0
 11
928.2419727710642
 21
1287.494427249824
 31
0.0
 12
927.5916670780926
 22
1285.543510170908
 32
0.0
 13
928.2419727710642
 23
1285.543510170908
 33
0.0
  0
SOLID
  5
29E5
330
1F
100
AcDbEntity
  8
LOGO
 62
     5
100
AcDbTrace
 10
914.9106410345721
 20
1289.250252620848
 30
0.0
 11
915.5609467275457
 21
1289.250252620848
 31
0.0
 12
914.9106410345721
 22
1289.770497175226
 32
0.0
 13
915.5609467275457
 23
1289.770497175226
 33
0.0
  0
SOLID
  5
29E6
330
1F
100
AcDbEntity
  8
LOGO
 62
     5
100
AcDbTrace
 10
914.9106410345721
 20
1288.795038635768
 30
0.0
 11
915.5609467275457
 21
1288.795038635768
 31
0.0
 12
914.9106410345721
 22
1285.543510170908
 32
0.0
 13
915.5609467275457
 23
1285.543510170909
 33
0.0
  0
SOLID
  5
29E7
330
1F
100
AcDbEntity
  8
LOGO
 62
     5
100
AcDbTrace
 10
921.3054220664099
 20
1292.046567100627
 30
0.0
 11
923.1913085760291
 21
1292.046567100627
 31
0.0
 12
921.3054220664099
 22
1301.58438393088
 32
0.0
 13
923.1913085760291
 23
1308.499301132813
 33
0.0
  0
SOLID
  5
29E8
330
1F
100
AcDbEntity
  8
LOGO
 62
     5
100
AcDbTrace
 10
923.9716754075967
 20
1309.929973657351
 30
0.0
 11
925.8575619172138
 21
1309.929973657352
 31
0.0
 12
923.9716754075967
 22
1293.477239625165
 32
0.0
 13
925.8575619172138
 23
1300.392156827098
 33
0.0
  0
SOLID
  5
29E9
330
1F
100
AcDbEntity
  8
LOGO
 62
     2
100
AcDbTrace
 10
923.1913085760291
 20
1309.929973657351
 30
0.0
 11
923.9716754075967
 21
1309.929973657351
 31
0.0
 12
923.1913085760291
 22
1292.046567100627
 32
0.0
 13
923.9716754075967
 23
1292.046567100627
 33
0.0
  0
SOLID
  5
29EA
330
1F
100
AcDbEntity
  8
LOGO
 62
     5
100
AcDbTrace
 10
923.9716754075967
 20
1293.477239625165
 30
0.0
 11
925.8575619172138
 21
1300.392156827098
 31
0.0
 12
932.9458939706062
 22
1309.929973657352
 32
0.0
 13
931.0600074609888
 23
1309.929973657352
 33
0.0
  0
SOLID
  5
29EB
330
1F
100
AcDbEntity
  8
LOGO
 62
     5
100
AcDbTrace
 10
923.9716754075967
 20
1292.046567100627
 30
0.0
 11
925.8575619172138
 21
1292.046567100627
 31
0.0
 12
932.9458939706062
 22
1308.499301132813
 32
0.0
 13
931.0600074609888
 23
1301.58438393088
 33
0.0
  0
SOLID
  5
29EC
330
1F
100
AcDbEntity
  8
LOGO
 62
     2
100
AcDbTrace
 10
923.1913085760291
 20
1292.046567100627
 30
0.0
 11
923.9716754075967
 21
1292.046567100627
 31
0.0
 12
932.9458939706062
 22
1309.929973657352
 32
0.0
 13
933.7262608021733
 23
1309.929973657351
 33
0.0
  0
TEXT
  5
2A2D
330
1F
100
AcDbEntity
  8
LOGO
100
AcDbText
 10
1005.003923881471
 20
1269.669446559675
 30
0.0
 40
4.362335999999999
  1
10603100
 41
0.7
  7
CHINESET
 72
     1
 11
1015.618941481471
 21
1269.669446559675
 31
0.0
100
AcDbText
  0
LINE
  5
2A2E
330
1F
100
AcDbEntity
  8
LOGO
 62
     4
100
AcDbLine
 10
1029.157010099001
 20
1276.072445760169
 30
0.0
 11
1029.157010099003
 21
1267.349037061091
 31
0.0
  0
LINE
  5
2A2F
330
1F
100
AcDbEntity
  8
LOGO
 62
     4
100
AcDbLine
 10
1029.157010099001
 20
1276.072445760169
 30
0.0
 11
1002.982994099003
 21
1276.072445760169
 31
0.0
  0
LINE
  5
2A30
330
1F
100
AcDbEntity
  8
LOGO
  6
AM_ISO08W050x2
 48
0.3
100
AcDbLine
 10
978.4901057721542
 20
1297.890297225382
 30
0.0
 11
985.4723067450573
 21
1297.890297225382
 31
0.0
1001
GENIUS_GENOREF_13
1005
2A35
  0
LINE
  5
2A31
330
1F
100
AcDbEntity
  8
LOGO
  6
AM_ISO08W050x2
 48
0.3
100
AcDbLine
 10
981.9812062586059
 20
1294.399196738931
 30
0.0
 11
981.9812062586059
 21
1301.381397711834
 31
0.0
1001
GENIUS_GENOREF_13
1005
2A34
  0
LINE
  5
2A32
330
1F
100
AcDbEntity
  8
LOGO
  6
AM_ISO08W050x2
 48
0.3
100
AcDbLine
 10
989.3215930813546
 20
1297.890297225382
 30
0.0
 11
998.6952402720984
 21
1297.890297225382
 31
0.0
1001
GENIUS_GENOREF_13
1005
2A33
  0
POINT
  5
2A33
330
1F
100
AcDbEntity
  8
0
 60
     1
100
AcDbPoint
 10
-1846.718893173345
 20
-1185.064967107847
 30
0.0
1001
GENIUS_GENOBJ-N-CRS_13
1002
{
1000
OWNER
1000
GEN
1002
}
1001
GENIUS_GENOLIS_13
1002
{
1000
ENT
1005
0
1005
0
1005
0
1005
2A32
1002
}
1001
GENIUS_GENOENT_13
1002
{
1000
MYREF
1005
2A33
1002
}
1002
{
1000
GRP
1005
0
1002
}
1001
GENIUS_GENODEF_13
1002
{
1000
HIER
1070
    10
1002
}
1002
{
1000
MANEDIT
1070
     1
1002
}
1002
{
1000
NOSEL
1070
     0
1002
}
1002
{
1000
BEHIND
1070
     0
1002
}
1002
{
1000
OTHER
1070
     0
1002
}
1002
{
1000
REACTOR
1002
}
  0
POINT
  5
2A34
330
1F
100
AcDbEntity
  8
0
 60
     1
100
AcDbPoint
 10
-1858.0434783962
 20
-1176.18938062921
 30
0.0
1001
GENIUS_GENOBJ-N-CRS_13
1002
{
1000
OWNER
1000
GEN
1002
}
1001
GENIUS_GENOLIS_13
1002
{
1000
ENT
1005
0
1005
0
1005
0
1005
2A31
1002
}
1001
GENIUS_GENOENT_13
1002
{
1000
MYREF
1005
2A34
1002
}
1002
{
1000
GRP
1005
0
1002
}
1001
GENIUS_GENODEF_13
1002
{
1000
HIER
1070
    10
1002
}
1002
{
1000
MANEDIT
1070
     1
1002
}
1002
{
1000
NOSEL
1070
     0
1002
}
1002
{
1000
BEHIND
1070
     0
1002
}
1002
{
1000
OTHER
1070
     0
1002
}
1002
{
1000
REACTOR
1002
}
  0
POINT
  5
2A35
330
1F
100
AcDbEntity
  8
0
 60
     1
100
AcDbPoint
 10
-1851.684804698363
 20
-1185.064967107847
 30
0.0
1001
GENIUS_GENOBJ-N-CRS_13
1002
{
1000
OWNER
1000
GEN
1002
}
1001
GENIUS_GENOLIS_13
1002
{
1000
ENT
1005
0
1005
0
1005
0
1005
2A30
1002
}
1001
GENIUS_GENOENT_13
1002
{
1000
MYREF
1005
2A35
1002
}
1002
{
1000
GRP
1005
0
1002
}
1001
GENIUS_GENODEF_13
1002
{
1000
HIER
1070
    10
1002
}
1002
{
1000
MANEDIT
1070
     1
1002
}
1002
{
1000
NOSEL
1070
     0
1002
}
1002
{
1000
BEHIND
1070
     0
1002
}
1002
{
1000
OTHER
1070
     0
1002
}
1002
{
1000
REACTOR
1002
}
  0
LINE
  5
5444
330
1F
100
AcDbEntity
  8
0
  6
Continuous
 62
     7
100
AcDbLine
 10
1192.345685250565
 20
1627.158940743552
 30
0.0
 11
1248.345685250565
 21
1627.158940743552
 31
0.0
  0
DIMENSION
  5
5445
330
1F
100
AcDbEntity
  8
AM_5
100
AcDbDimension
  2
*D5
 10
1207.845685250565
 20
1650.138940743552
 30
0.0
 11
1221.345685250565
 21
1652.939334444339
 31
0.0
 70
    32
 71
     5
 42
27.0
  3
AM_ISO$0
100
AcDbAlignedDimension
 13
1234.845685250565
 23
1639.437248982751
 33
0.0
 14
1207.845685250565
 24
1590.098940743552
 34
0.0
100
AcDbRotatedDimension
  0
LEADER
  5
5446
330
1F
100
AcDbEntity
  8
AM_5
100
AcDbLeader
  3
AM_ISO$7
 76
     3
 10
1211.292444890388
 20
1587.321191003409
 30
0.0
 10
1275.405844733062
 20
1619.789630752148
 30
0.0
 10
1302.001282760714
 20
1619.789630752148
 30
0.0
1001
ACAD
1000
DSTYLE
1002
{
1070
   140
1040
4.0
1002
}
  0
LINE
  5
5447
330
1F
100
AcDbEntity
  8
AM_7
100
AcDbLine
 10
1160.317685250565
 20
1574.158940743552
 30
0.0
 11
1251.795985230205
 21
1574.158940743552
 31
0.0
  0
DIMENSION
  5
5448
330
1F
100
AcDbEntity
  8
AM_5
100
AcDbDimension
  2
*D6
 10
1248.345685250565
 20
1658.138940743551
 30
0.0
 11
1209.845685250565
 21
1660.938940743552
 31
0.0
 70
    32
 71
     5
 42
77.0
  3
AM_ISO$0
100
AcDbAlignedDimension
 13
1171.345685250565
 23
1657.817942486097
 33
0.0
 14
1248.345685250565
 24
1627.158940743552
 34
0.0
100
AcDbRotatedDimension
  0
DIMENSION
  5
5449
330
1F
100
AcDbEntity
  8
AM_5
100
AcDbDimension
  2
*D7
 10
1166.345685250565
 20
1666.138940743552
 30
0.0
 11
1207.345685250565
 21
1668.939334444339
 31
0.0
 70
    32
 71
     5
 42
82.0
  3
AM_ISO$0
100
AcDbAlignedDimension
 13
1248.345685250565
 23
1657.817942486097
 33
0.0
 14
1166.345685250565
 24
1657.817942486097
 34
0.0
100
AcDbRotatedDimension
  0
LINE
  5
544A
330
1F
100
AcDbEntity
  8
0
  6
Continuous
 62
     7
100
AcDbLine
 10
1192.345685250565
 20
1482.219700024423
 30
0.0
 11
1248.345685250565
 21
1482.219700024423
 31
0.0
  0
LINE
  5
544B
330
1F
100
AcDbEntity
  8
0
  6
Continuous
 62
     7
100
AcDbLine
 10
1192.345685250565
 20
1376.219700024423
 30
0.0
 11
1248.345685250565
 21
1376.219700024423
 31
0.0
  0
DIMENSION
  5
544C
330
1F
100
AcDbEntity
  8
AM_5
100
AcDbDimension
  2
*D8
 10
1248.345685250565
 20
1353.570285403688
 30
0.0
 11
1220.345685250565
 21
1356.370285403688
 31
0.0
 70
    32
 71
     5
 42
56.0
  3
AM_ISO$0
100
AcDbAlignedDimension
 13
1192.345685250565
 23
1353.570285403688
 33
0.0
 14
1248.345685250565
 24
1376.219700024423
 34
0.0
100
AcDbRotatedDimension
  0
LINE
  5
544D
330
1F
100
AcDbEntity
  8
0
  6
Continuous
 62
     7
100
AcDbLine
 10
1248.345685250565
 20
1523.554940743551
 30
0.0
 11
1175.098685250565
 21
1523.554940743551
 31
0.0
  0
LINE
  5
544E
330
1F
100
AcDbEntity
  8
0
  6
Continuous
 62
     7
100
AcDbLine
 10
1248.345685250565
 20
1525.263940743552
 30
0.0
 11
1175.098685250565
 21
1525.263940743552
 31
0.0
  0
LINE
  5
544F
330
1F
100
AcDbEntity
  8
0
  6
Continuous
 62
     7
100
AcDbLine
 10
1175.098685250565
 20
1521.158940743552
 30
0.0
 11
1248.345685250565
 21
1521.158940743552
 31
0.0
  0
LINE
  5
5450
330
1F
100
AcDbEntity
  8
0
  6
Continuous
 62
     7
100
AcDbLine
 10
1175.098685250565
 20
1449.671700024422
 30
0.0
 11
1248.345685250565
 21
1449.671700024422
 31
0.0
  0
LINE
  5
5451
330
1F
100
AcDbEntity
  8
0
  6
Continuous
 62
     7
100
AcDbLine
 10
1175.098685250565
 20
1444.973700024422
 30
0.0
 11
1248.345685250565
 21
1444.973700024422
 31
0.0
  0
LINE
  5
5452
330
1F
100
AcDbEntity
  8
0
  6
Continuous
 62
     7
100
AcDbLine
 10
1175.098685250565
 20
1408.762700024422
 30
0.0
 11
1248.345685250565
 21
1408.762700024422
 31
0.0
  0
LINE
  5
5453
330
1F
100
AcDbEntity
  8
0
  6
Continuous
 62
     7
100
AcDbLine
 10
1175.098685250565
 20
1413.460700024423
 30
0.0
 11
1248.345685250565
 21
1413.460700024423
 31
0.0
  0
LINE
  5
5454
330
1F
100
AcDbEntity
  8
AM_7
100
AcDbLine
 10
1160.317685250565
 20
1429.219700024423
 30
0.0
 11
1253.235685250565
 21
1429.219700024423
 31
0.0
  0
TEXT
  5
5455
330
1F
100
AcDbEntity
  8
AM_5
100
AcDbText
 10
956.090485250565
 20
1514.014700024423
 30
0.0
 40
3.2
  1
P.C.D.95
  7
China
100
AcDbText
  0
TEXT
  5
5456
330
1F
100
AcDbEntity
  8
AM_5
100
AcDbText
 10
964.1372358443693
 20
1524.540700024423
 30
0.0
 40
3.2
  1
6.6BORE11xDEPTH19
  7
China
100
AcDbText
  0
LINE
  5
5457
330
1F
100
AcDbEntity
  8
AM_5
100
AcDbLine
 10
955.9966852505651
 20
1523.483700024423
 30
0.0
 11
1013.923685250565
 21
1523.483700024423
 31
0.0
  0
LINE
  5
5458
330
1F
100
AcDbEntity
  8
AM_5
100
AcDbLine
 10
955.9966852505651
 20
1513.483700024423
 30
0.0
 11
1019.696685250565
 21
1513.483700024423
 31
0.0
  0
CIRCLE
  5
5459
330
1F
100
AcDbEntity
  8
AM_5
100
AcDbCircle
 10
962.5370358443694
 20
1526.140700024422
 30
0.0
 40
0.9
  0
LINE
  5
545A
330
1F
100
AcDbEntity
  8
AM_5
100
AcDbLine
 10
961.9557358443694
 20
1524.543700024423
 30
0.0
 11
963.1186358443693
 21
1527.738700024422
 31
0.0
  0
TEXT
  5
545B
330
1F
100
AcDbEntity
  8
AM_5
100
AcDbText
 10
954.5371358443693
 20
1524.540700024423
 30
0.0
 40
3.2
  1
3-
  7
China
100
AcDbText
  0
LINE
  5
545C
330
1F
100
AcDbEntity
  8
0
  6
Continuous
 62
     7
100
AcDbLine
 10
1192.345685250565
 20
1366.809700024423
 30
0.0
 11
1192.345685250565
 21
1391.950700024422
 31
0.0
  0
CIRCLE
  5
545D
330
1F
100
AcDbEntity
  8
0
  6
Continuous
 62
     7
100
AcDbCircle
 10
1097.336685250565
 20
1379.005700024422
 30
0.0
 40
2.458499999999999
  0
CIRCLE
  5
545E
330
1F
100
AcDbEntity
  8
0
  6
Continuous
 62
     2
100
AcDbCircle
 10
1097.336685250565
 20
1379.005700024422
 30
0.0
 40
3.0
  0
ARC
  5
545F
330
1F
100
AcDbEntity
  8
0
  6
Continuous
 62
     7
100
AcDbCircle
 10
1068.345685250565
 20
1429.219700024423
 30
0.0
 40
53.0
100
AcDbArc
 50
262.6989999999983
 51
292.4099999999979
  0
ARC
  5
5460
330
1F
100
AcDbEntity
  8
0
  6
Continuous
 62
     7
100
AcDbCircle
 10
1068.345685250565
 20
1429.219700024423
 30
0.0
 40
53.0
100
AcDbArc
 50
222.7029999999981
 51
257.2920000000027
  0
LINE
  5
5461
330
1F
100
AcDbEntity
  8
AM_7
100
AcDbLine
 10
1040.503685250565
 20
1477.444700024422
 30
0.0
 11
1101.854685250565
 21
1371.181700024423
 31
0.0
  0
LINE
  5
5462
330
1F
100
AcDbEntity
  8
0
  6
Continuous
 62
     7
100
AcDbLine
 10
1180.345685250565
 20
1377.309700024422
 30
0.0
 11
1180.345685250565
 21
1391.950700024422
 31
0.0
  0
LINE
  5
5463
330
1F
100
AcDbEntity
  8
0
  6
Continuous
 62
     7
100
AcDbLine
 10
1166.345685250565
 20
1370.309700024423
 30
0.0
 11
1166.345685250565
 21
1405.022700024423
 31
0.0
  0
LINE
  5
5464
330
1F
100
AcDbEntity
  8
0
  6
Continuous
 62
     7
100
AcDbLine
 10
1088.212685250565
 20
1366.809700024423
 30
0.0
 11
1081.780685250565
 21
1377.950700024422
 31
0.0
  0
LINE
  5
5465
330
1F
100
AcDbEntity
  8
AM_7
100
AcDbLine
 10
1092.656685250565
 20
1376.302700024423
 30
0.0
 11
1101.313685250565
 21
1381.301700024422
 31
0.0
  0
LINE
  5
5466
330
1F
100
AcDbEntity
  8
0
  6
Continuous
 62
     7
100
AcDbLine
 10
1094.275685250565
 20
1370.309700024423
 30
0.0
 11
1072.234685250565
 21
1408.485700024423
 31
0.0
  0
LINE
  5
5467
330
1F
100
AcDbEntity
  8
0
  6
Continuous
 62
     7
100
AcDbLine
 10
1106.399685250565
 20
1377.309700024422
 30
0.0
 11
1084.358685250565
 21
1415.485700024422
 31
0.0
  0
LINE
  5
5468
330
1F
100
AcDbEntity
  8
0
  6
Continuous
 62
     7
100
AcDbLine
 10
1088.212685250565
 20
1366.809700024423
 30
0.0
 11
1112.461685250565
 21
1380.809700024423
 31
0.0
  0
LINE
  5
5469
330
1F
100
AcDbEntity
  8
0
  6
Continuous
 62
     7
100
AcDbLine
 10
1062.450685250565
 20
1381.410700024422
 30
0.0
 11
1061.610685250565
 21
1376.649700024423
 31
0.0
  0
DIMENSION
  5
546A
330
1F
100
AcDbEntity
  8
AM_5
100
AcDbDimension
  2
*D9
 10
1030.363685250565
 20
1369.289516631771
 30
0.0
 11
1020.363685250565
 21
1372.089910332559
 31
0.0
 70
    32
 71
     5
 42
20.0
  3
AM_ISO$0
100
AcDbAlignedDimension
 13
1010.363685250565
 23
1424.627700024422
 33
0.0
 14
1030.363685250565
 24
1424.109700024422
 34
0.0
100
AcDbRotatedDimension
  0
DIMENSION
  5
546B
330
1F
100
AcDbEntity
  8
AM_5
100
AcDbDimension
  2
*D10
 10
1036.363685250565
 20
1369.289516631771
 30
0.0
 11
1033.363685250565
 21
1372.089516631771
 31
0.0
 70
    32
 71
     5
 42
6.0
  3
AM_ISO$0
100
AcDbAlignedDimension
 13
1030.363685250565
 23
1369.289516631771
 33
0.0
 14
1036.363685250565
 24
1422.219700024422
 34
0.0
100
AcDbRotatedDimension
  0
DIMENSION
  5
546D
330
1F
100
AcDbEntity
  8
AM_5
100
AcDbDimension
  2
*D11
 10
1114.476033862505
 20
1363.321752661217
 30
0.0
 11
1107.014012660586
 21
1362.246539381985
 31
0.0
 70
    33
  1
14h9
 71
     5
 42
13.99969199857105
  3
AM_ISO$0
100
AcDbAlignedDimension
 13
1094.275685250565
 23
1370.309700024423
 33
0.0
 14
1106.399622750961
 24
1377.309808276538
 34
0.0
  0
DIMENSION
  5
5470
330
1F
100
AcDbEntity
  8
AM_5
100
AcDbDimension
  2
*D12
 10
1192.345685250565
 20
1353.570285403688
 30
0.0
 11
1186.345685250565
 21
1356.370679104476
 31
0.0
 70
    32
 71
     5
 42
12.0
  3
AM_ISO$0
100
AcDbAlignedDimension
 13
1180.345685250565
 23
1366.809700024423
 33
0.0
 14
1192.345685250565
 24
1366.809700024423
 34
0.0
100
AcDbRotatedDimension
  0
LINE
  5
5471
330
1F
100
AcDbEntity
  8
0
  6
Continuous
 62
     7
100
AcDbLine
 10
1166.345685250565
 20
1377.309700024422
 30
0.0
 11
1180.345685250565
 21
1377.309700024422
 31
0.0
  0
LINE
  5
5472
330
1F
100
AcDbEntity
  8
0
  6
Continuous
 62
     7
100
AcDbLine
 10
1166.345685250565
 20
1370.309700024423
 30
0.0
 11
1180.345685250565
 21
1370.309700024423
 31
0.0
  0
LINE
  5
5473
330
1F
100
AcDbEntity
  8
0
  6
Continuous
 62
     7
100
AcDbLine
 10
1180.345685250565
 20
1366.809700024423
 30
0.0
 11
1180.345685250565
 21
1370.309700024423
 31
0.0
  0
LINE
  5
5474
330
1F
100
AcDbEntity
  8
0
  6
Continuous
 62
     7
100
AcDbLine
 10
1180.345685250565
 20
1366.809700024423
 30
0.0
 11
1192.345685250565
 21
1366.809700024423
 31
0.0
  0
CIRCLE
  5
5475
330
1F
100
AcDbEntity
  8
0
  6
Continuous
 62
     7
100
AcDbCircle
 10
1097.336685250565
 20
1479.432700024422
 30
0.0
 40
2.458499999999999
  0
CIRCLE
  5
5476
330
1F
100
AcDbEntity
  8
0
  6
Continuous
 62
     2
100
AcDbCircle
 10
1097.336685250565
 20
1479.433700024422
 30
0.0
 40
3.0
  0
LINE
  5
5477
330
1F
100
AcDbEntity
  8
AM_7
100
AcDbLine
 10
1102.017685250565
 20
1476.730700024423
 30
0.0
 11
1093.360685250565
 21
1481.728700024422
 31
0.0
  0
LINE
  5
5478
330
1F
100
AcDbEntity
  8
0
  6
Continuous
 62
     7
100
AcDbLine
 10
1100.398685250565
 20
1470.736700024422
 30
0.0
 11
1088.274685250565
 21
1477.736700024422
 31
0.0
  0
LINE
  5
5479
330
1F
100
AcDbEntity
  8
0
  6
Continuous
 62
     7
100
AcDbLine
 10
1112.460685250565
 20
1477.628700024422
 30
0.0
 11
1088.212685250565
 21
1491.628700024423
 31
0.0
  0
LINE
  5
547A
330
1F
100
AcDbEntity
  8
0
  6
Continuous
 62
     7
100
AcDbLine
 10
1088.275685250565
 20
1380.701700024423
 30
0.0
 11
1100.399685250565
 21
1387.701700024423
 31
0.0
  0
LINE
  5
547B
330
1F
100
AcDbEntity
  8
0
  6
Continuous
 62
     7
100
AcDbLine
 10
1106.398685250565
 20
1481.128700024422
 30
0.0
 11
1084.357685250565
 21
1442.952700024422
 31
0.0
  0
LINE
  5
547C
330
1F
100
AcDbEntity
  8
AM_7
100
AcDbLine
 10
1000.686685250565
 20
1429.219700024423
 30
0.0
 11
1123.969685250565
 21
1429.219700024423
 31
0.0
  0
LINE
  5
547D
330
1F
100
AcDbEntity
  8
AM_7
100
AcDbLine
 10
1040.686685250565
 20
1381.312700024422
 30
0.0
 11
1101.157685250565
 21
1486.051700024423
 31
0.0
  0
LINE
  5
547E
330
1F
100
AcDbEntity
  8
0
  6
Continuous
 62
     7
100
AcDbLine
 10
1096.398685250565
 20
1463.808700024422
 30
0.0
 11
1084.274685250565
 21
1470.808700024423
 31
0.0
  0
LINE
  5
547F
330
1F
100
AcDbEntity
  8
0
  6
Continuous
 62
     7
100
AcDbLine
 10
1094.274685250565
 20
1488.128700024422
 30
0.0
 11
1072.233685250565
 21
1449.952700024422
 31
0.0
  0
CIRCLE
  5
5480
330
1F
100
AcDbEntity
  8
0
  6
Continuous
 62
     7
100
AcDbCircle
 10
1044.595685250565
 20
1470.355700024423
 30
0.0
 40
3.299999999999999
  0
LINE
  5
5481
330
1F
100
AcDbEntity
  8
0
  6
Continuous
 62
     7
100
AcDbLine
 10
1039.832685250565
 20
1467.606700024422
 30
0.0
 11
1037.225685250565
 21
1472.121700024423
 31
0.0
  0
ARC
  5
5482
330
1F
100
AcDbEntity
  8
AM_7
100
AcDbCircle
 10
1068.345685250565
 20
1429.219700024423
 30
0.0
 40
47.5001
100
AcDbArc
 50
111.5219999999972
 51
128.7250000000039
  0
ARC
  5
5483
330
1F
100
AcDbEntity
  8
0
  6
Continuous
 62
     7
100
AcDbCircle
 10
1044.595685250565
 20
1470.355700024423
 30
0.0
 40
5.5
100
AcDbArc
 50
210.0000000000005
 51
30.00000000000055
  0
ARC
  5
5484
330
1F
100
AcDbEntity
  8
0
  6
Continuous
 62
     7
100
AcDbCircle
 10
1068.345685250565
 20
1429.219700024423
 30
0.0
 40
53.0
100
AcDbArc
 50
67.58960000000344
 51
172.4100000000008
  0
CIRCLE
  5
5485
330
1F
100
AcDbEntity
  8
0
  6
Continuous
 62
     7
100
AcDbCircle
 10
1030.363685250565
 20
1429.219700024423
 30
0.0
 40
2.458499999999999
  0
CIRCLE
  5
5486
330
1F
100
AcDbEntity
  8
0
  6
Continuous
 62
     2
100
AcDbCircle
 10
1030.363685250565
 20
1429.219700024423
 30
0.0
 40
3.0
  0
ARC
  5
5487
330
1F
100
AcDbEntity
  8
0
  6
Continuous
 62
     7
100
AcDbCircle
 10
1068.345685250565
 20
1429.219700024423
 30
0.0
 40
46.5
100
AcDbArc
 50
126.5970000000024
 51
171.3419999999983
  0
LINE
  5
5488
330
1F
100
AcDbEntity
  8
0
  6
Continuous
 62
     7
100
AcDbLine
 10
1004.363685250565
 20
1436.219700024422
 30
0.0
 11
1048.445685250565
 21
1436.219700024422
 31
0.0
  0
LINE
  5
5489
330
1F
100
AcDbEntity
  8
0
  6
Continuous
 62
     7
100
AcDbLine
 10
1032.582685250565
 20
1403.388700024422
 30
0.0
 11
1029.747685250565
 21
1401.010700024422
 31
0.0
  0
LINE
  5
548A
330
1F
100
AcDbEntity
  8
0
  6
Continuous
 62
     7
100
AcDbLine
 10
1033.101685250565
 20
1396.383700024422
 30
0.0
 11
1029.396685250565
 21
1393.275700024423
 31
0.0
  0
LINE
  5
548B
330
1F
100
AcDbEntity
  8
0
  6
Continuous
 62
     7
100
AcDbLine
 10
1004.363685250565
 20
1422.219700024422
 30
0.0
 11
1048.445685250565
 21
1422.219700024422
 31
0.0
  0
LINE
  5
548C
330
1F
100
AcDbEntity
  8
0
  6
Continuous
 62
     7
100
AcDbLine
 10
1024.363685250565
 20
1436.219700024422
 30
0.0
 11
1024.363685250565
 21
1422.219700024422
 31
0.0
  0
LINE
  5
548D
330
1F
100
AcDbEntity
  8
0
  6
Continuous
 62
     7
100
AcDbLine
 10
1016.363685250565
 20
1436.219700024422
 30
0.0
 11
1016.363685250565
 21
1422.219700024422
 31
0.0
  0
LINE
  5
548E
330
1F
100
AcDbEntity
  8
0
  6
Continuous
 62
     7
100
AcDbLine
 10
1004.363685250565
 20
1443.219700024423
 30
0.0
 11
1004.363685250565
 21
1415.219700024423
 31
0.0
  0
LINE
  5
548F
330
1F
100
AcDbEntity
  8
0
  6
Continuous
 62
     7
100
AcDbLine
 10
1029.747685250565
 20
1401.010700024422
 30
0.0
 11
1029.888685250565
 21
1400.214700024422
 31
0.0
  0
ARC
  5
5490
330
1F
100
AcDbEntity
  8
0
  6
Continuous
 62
     7
100
AcDbCircle
 10
1068.345685250565
 20
1429.219700024423
 30
0.0
 40
53.0
100
AcDbArc
 50
187.5889999999971
 51
217.2949999999988
  0
LINE
  5
5491
330
1F
100
AcDbEntity
  8
0
  6
Continuous
 62
     7
100
AcDbLine
 10
1029.888685250565
 20
1400.214700024422
 30
0.0
 11
1026.182685250565
 21
1397.105700024423
 31
0.0
  0
LINE
  5
5492
330
1F
100
AcDbEntity
  8
0
  6
Continuous
 62
     7
100
AcDbLine
 10
1004.363685250565
 20
1415.219700024423
 30
0.0
 11
1017.228685250565
 21
1415.219700024423
 31
0.0
  0
ARC
  5
5493
330
1F
100
AcDbEntity
  8
0
  6
Continuous
 62
     7
100
AcDbCircle
 10
1068.345685250565
 20
1429.219700024423
 30
0.0
 40
46.5
100
AcDbArc
 50
188.6580000000017
 51
216.0529999999964
  0
LINE
  5
5494
330
1F
100
AcDbEntity
  8
0
  6
Continuous
 62
     7
100
AcDbLine
 10
1004.363685250565
 20
1443.219700024423
 30
0.0
 11
1017.228685250565
 21
1443.219700024423
 31
0.0
  0
CIRCLE
  5
5495
330
1F
100
AcDbEntity
  8
0
  6
Continuous
 62
     7
100
AcDbCircle
 10
1010.363685250565
 20
1429.219700024423
 30
0.0
 40
2.458499999999999
  0
CIRCLE
  5
5496
330
1F
100
AcDbEntity
  8
0
  6
Continuous
 62
     2
100
AcDbCircle
 10
1010.363685250565
 20
1429.219700024423
 30
0.0
 40
3.0
  0
LINE
  5
5497
330
1F
100
AcDbEntity
  8
AM_7
100
AcDbLine
 10
1010.363685250565
 20
1434.624700024422
 30
0.0
 11
1010.363685250565
 21
1424.627700024422
 31
0.0
  0
LINE
  5
5498
330
1F
100
AcDbEntity
  8
AM_7
100
AcDbLine
 10
1030.363685250565
 20
1434.698700024422
 30
0.0
 11
1030.363685250565
 21
1424.109700024422
 31
0.0
  0
ARC
  5
5499
330
1F
100
AcDbEntity
  8
0
  6
Continuous
 62
     7
100
AcDbCircle
 10
1068.345685250565
 20
1429.219700024423
 30
0.0
 40
26.0
100
AcDbArc
 50
315.6189999999991
 51
44.3810000000009
  0
LINE
  5
549A
330
1F
100
AcDbEntity
  8
0
  6
Continuous
 62
     7
100
AcDbLine
 10
1048.445685250565
 20
1436.219700024422
 30
0.0
 11
1048.445685250565
 21
1422.219700024422
 31
0.0
  0
LINE
  5
549B
330
1F
100
AcDbEntity
  8
0
  6
Continuous
 62
     7
100
AcDbLine
 10
1036.363685250565
 20
1436.219700024422
 30
0.0
 11
1036.363685250565
 21
1422.219700024422
 31
0.0
  0
ARC
  5
549C
330
1F
100
AcDbEntity
  8
0
  6
Continuous
 62
     7
100
AcDbCircle
 10
1068.345685250565
 20
1429.219700024423
 30
0.0
 40
46.5
100
AcDbArc
 50
263.9409999999992
 51
291.3420000000004
  0
ARC
  5
549D
330
1F
100
AcDbEntity
  8
0
  6
Continuous
 62
     7
100
AcDbCircle
 10
1068.345685250565
 20
1429.219700024423
 30
0.0
 40
26.0
100
AcDbArc
 50
195.618000000001
 51
284.3810000000018
  0
LINE
  5
549E
330
1F
100
AcDbEntity
  8
0
  6
Continuous
 62
     7
100
AcDbLine
 10
1032.582685250565
 20
1403.388700024422
 30
0.0
 11
1036.696685250565
 21
1398.486700024422
 31
0.0
  0
CIRCLE
  5
549F
330
1F
100
AcDbEntity
  8
0
  6
Continuous
 62
     7
100
AcDbCircle
 10
1044.595685250565
 20
1388.083700024423
 30
0.0
 40
3.299999999999999
  0
ARC
  5
54A0
330
1F
100
AcDbEntity
  8
0
  6
CENTER
 62
     2
100
AcDbCircle
 10
1068.345685250565
 20
1429.219700024423
 30
0.0
 40
47.5001
100
AcDbArc
 50
231.0789999999979
 51
249.1530000000008
  0
ARC
  5
54A1
330
1F
100
AcDbEntity
  8
0
  6
Continuous
 62
     7
100
AcDbCircle
 10
1044.595685250565
 20
1388.083700024423
 30
0.0
 40
5.5
100
AcDbArc
 50
329.9999999999995
 51
149.9999999999994
  0
LINE
  5
54A2
330
1F
100
AcDbEntity
  8
0
  6
Continuous
 62
     7
100
AcDbLine
 10
1049.358685250565
 20
1385.332700024422
 30
0.0
 11
1046.751685250565
 21
1380.817700024423
 31
0.0
  0
ARC
  5
54A3
330
1F
100
AcDbEntity
  8
0
  6
Continuous
 62
     7
100
AcDbCircle
 10
1068.345685250565
 20
1429.219700024423
 30
0.0
 40
46.5
100
AcDbArc
 50
223.9459999999986
 51
233.4029999999976
  0
LINE
  5
54A4
330
1F
100
AcDbEntity
  8
0
  6
Continuous
 62
     7
100
AcDbLine
 10
1033.861685250565
 20
1396.107700024423
 30
0.0
 11
1033.101685250565
 21
1396.383700024422
 31
0.0
  0
LINE
  5
54A5
330
1F
100
AcDbEntity
  8
0
  6
Continuous
 62
     7
100
AcDbLine
 10
1036.696685250565
 20
1398.485700024422
 30
0.0
 11
1033.861685250565
 21
1396.107700024423
 31
0.0
  0
LINE
  5
54A6
330
1F
100
AcDbEntity
  8
0
  6
Continuous
 62
     7
100
AcDbLine
 10
1039.832685250565
 20
1390.832700024422
 30
0.0
 11
1037.225685250565
 21
1386.317700024423
 31
0.0
  0
LINE
  5
54A7
330
1F
100
AcDbEntity
  8
0
  6
Continuous
 62
     7
100
AcDbLine
 10
1056.908685250565
 20
1382.806700024423
 30
0.0
 11
1057.527685250565
 21
1382.287700024422
 31
0.0
  0
LINE
  5
54A8
330
1F
100
AcDbEntity
  8
0
  6
Continuous
 62
     7
100
AcDbLine
 10
1063.209685250565
 20
1381.686700024422
 30
0.0
 11
1062.450685250565
 21
1381.410700024422
 31
0.0
  0
LINE
  5
54A9
330
1F
100
AcDbEntity
  8
0
  6
Continuous
 62
     7
100
AcDbLine
 10
1063.852685250565
 20
1385.332700024422
 30
0.0
 11
1057.550685250565
 21
1386.443700024422
 31
0.0
  0
LINE
  5
54AA
330
1F
100
AcDbEntity
  8
0
  6
Continuous
 62
     7
100
AcDbLine
 10
1063.852685250565
 20
1385.332700024422
 30
0.0
 11
1063.209685250565
 21
1381.686700024422
 31
0.0
  0
LINE
  5
54AB
330
1F
100
AcDbEntity
  8
0
  6
Continuous
 62
     7
100
AcDbLine
 10
1057.550685250565
 20
1386.443700024422
 30
0.0
 11
1056.908685250565
 21
1382.806700024423
 31
0.0
  0
LINE
  5
54AC
330
1F
100
AcDbEntity
  8
0
  6
Continuous
 62
     7
100
AcDbLine
 10
1057.527685250565
 20
1382.287700024422
 30
0.0
 11
1056.686685250565
 21
1377.517700024422
 31
0.0
  0
ARC
  5
54AD
330
1F
100
AcDbEntity
  8
0
  6
Continuous
 62
     7
100
AcDbCircle
 10
1068.345685250565
 20
1429.219700024423
 30
0.0
 40
46.5
100
AcDbArc
 50
246.5969999999968
 51
256.0490000000011
  0
LINE
  5
54AE
330
1F
100
AcDbEntity
  8
0
  6
Continuous
 62
     7
100
AcDbLine
 10
1078.275685250565
 20
1398.021700024423
 30
0.0
 11
1090.399685250565
 21
1405.021700024423
 31
0.0
  0
CIRCLE
  5
54AF
330
1F
100
AcDbEntity
  8
0
  6
Continuous
 62
     7
100
AcDbCircle
 10
1087.337685250565
 20
1396.325700024422
 30
0.0
 40
2.458499999999999
  0
CIRCLE
  5
54B0
330
1F
100
AcDbEntity
  8
0
  6
Continuous
 62
     2
100
AcDbCircle
 10
1087.336685250565
 20
1396.325700024422
 30
0.0
 40
3.0
  0
LINE
  5
54B1
330
1F
100
AcDbEntity
  8
AM_7
100
AcDbLine
 10
1082.592685250565
 20
1393.586700024422
 30
0.0
 11
1091.762685250565
 21
1398.881700024422
 31
0.0
  0
LINE
  5
54B2
330
1F
100
AcDbEntity
  8
0
  6
Continuous
 62
     7
100
AcDbLine
 10
1084.275685250565
 20
1387.629700024423
 30
0.0
 11
1096.399685250565
 21
1394.629700024422
 31
0.0
  0
LINE
  5
54B3
330
1F
100
AcDbEntity
  8
0
  6
Continuous
 62
     7
100
AcDbLine
 10
1072.234685250565
 20
1408.485700024423
 30
0.0
 11
1084.358685250565
 21
1415.485700024422
 31
0.0
  0
ARC
  5
54B4
330
1F
100
AcDbEntity
  8
0
  6
Continuous
 62
     7
100
AcDbCircle
 10
1068.345685250565
 20
1429.219700024423
 30
0.0
 40
26.0
100
AcDbArc
 50
75.61860000000352
 51
164.3810000000053
  0
LINE
  5
54B5
330
1F
100
AcDbEntity
  8
0
  6
Continuous
 62
     7
100
AcDbLine
 10
1084.357685250565
 20
1442.952700024422
 30
0.0
 11
1072.233685250565
 21
1449.952700024422
 31
0.0
  0
POINT
  5
54B6
330
1F
100
AcDbEntity
  8
0
100
AcDbPoint
 10
1068.345685250565
 20
1429.219700024423
 30
0.0
  0
LINE
  5
54B7
330
1F
100
AcDbEntity
  8
0
  6
Continuous
 62
     7
100
AcDbLine
 10
1090.398685250565
 20
1453.416700024422
 30
0.0
 11
1078.274685250565
 21
1460.416700024422
 31
0.0
  0
CIRCLE
  5
54B8
330
1F
100
AcDbEntity
  8
0
  6
Continuous
 62
     7
100
AcDbCircle
 10
1087.336685250565
 20
1462.112700024423
 30
0.0
 40
2.458499999999999
  0
CIRCLE
  5
54B9
330
1F
100
AcDbEntity
  8
0
  6
Continuous
 62
     2
100
AcDbCircle
 10
1087.336685250565
 20
1462.113700024422
 30
0.0
 40
3.0
  0
LINE
  5
54BA
330
1F
100
AcDbEntity
  8
AM_7
100
AcDbLine
 10
1092.081685250565
 20
1459.372700024422
 30
0.0
 11
1082.910685250565
 21
1464.667700024422
 31
0.0
  0
TEXT
  5
54BB
330
1F
100
AcDbEntity
  8
AM_5
100
AcDbText
 10
1019.350242017508
 20
1524.699700024423
 30
0.0
 40
3.2
  1
6-M6
  7
China
100
AcDbText
  0
LINE
  5
54BC
330
1F
100
AcDbEntity
  8
AM_5
100
AcDbLine
 10
1013.923685250565
 20
1523.483700024423
 30
0.0
 11
1042.946685250565
 21
1473.214700024423
 31
0.0
  0
LINE
  5
54BD
330
1F
100
AcDbEntity
  8
AM_5
100
AcDbLine
 10
1019.889242017508
 20
1523.483700024423
 30
0.0
 11
1071.903685250565
 21
1523.483700024423
 31
0.0
  0
LINE
  5
54BE
330
1F
100
AcDbEntity
  8
AM_5
100
AcDbLine
 10
1071.903685250565
 20
1523.483700024423
 30
0.0
 11
1095.836685250565
 21
1482.031700024422
 31
0.0
  0
ARC
  5
54BF
330
1F
100
AcDbEntity
  8
0
  6
Continuous
 62
     7
100
AcDbCircle
 10
1068.345685250565
 20
1429.219700024423
 30
0.0
 40
46.5
100
AcDbArc
 50
68.65819999999762
 51
113.4030000000032
  0
LINE
  5
54C0
330
1F
100
AcDbEntity
  8
0
  6
Continuous
 62
     7
100
AcDbLine
 10
1049.358685250565
 20
1473.106700024422
 30
0.0
 11
1046.752685250565
 21
1477.621700024423
 31
0.0
  0
LINE
  5
54C1
330
1F
100
AcDbEntity
  8
0
  6
Continuous
 62
     7
100
AcDbLine
 10
1088.212685250565
 20
1491.628700024423
 30
0.0
 11
1081.780685250565
 21
1480.488700024422
 31
0.0
  0
TEXT
  5
54C2
330
1F
100
AcDbEntity
  8
AM_5
100
AcDbText
 10
1035.350242017508
 20
1524.699700024423
 30
0.0
 40
3.2
  1
1DEPTH12
  7
China
100
AcDbText
  0
LINE
  5
54C3
330
1F
100
AcDbEntity
  8
AM_5
100
AcDbLine
 10
1032.850242017508
 20
1527.371700024423
 30
0.0
 11
1034.650242017508
 21
1525.226700024422
 31
0.0
  0
LINE
  5
54C4
330
1F
100
AcDbEntity
  8
AM_5
100
AcDbLine
 10
1032.850242017508
 20
1525.227700024422
 30
0.0
 11
1034.650242017508
 21
1527.372700024422
 31
0.0
  0
LINE
  5
54C5
330
1F
100
AcDbEntity
  8
0
  6
Continuous
 62
     7
100
AcDbLine
 10
1192.345685250565
 20
1491.629700024422
 30
0.0
 11
1192.345685250565
 21
1466.488700024422
 31
0.0
  0
LINE
  5
54C6
330
1F
100
AcDbEntity
  8
0
  6
Continuous
 62
     7
100
AcDbLine
 10
1171.345685250565
 20
1466.066700024422
 30
0.0
 11
1175.098685250565
 21
1471.216700024422
 31
0.0
  0
LINE
  5
54C7
330
1F
100
AcDbEntity
  8
0
  6
Continuous
 62
     7
100
AcDbLine
 10
1180.345685250565
 20
1481.129700024422
 30
0.0
 11
1180.345685250565
 21
1466.488700024422
 31
0.0
  0
LINE
  5
54C8
330
1F
100
AcDbEntity
  8
0
  6
Continuous
 62
     7
100
AcDbLine
 10
1170.345685250565
 20
1470.809700024422
 30
0.0
 11
1170.345685250565
 21
1463.809700024422
 31
0.0
  0
LINE
  5
54C9
330
1F
100
AcDbEntity
  8
0
  6
Continuous
 62
     7
100
AcDbLine
 10
1166.345685250565
 20
1488.129700024422
 30
0.0
 11
1166.345685250565
 21
1453.416700024422
 31
0.0
  0
LINE
  5
54CA
330
1F
100
AcDbEntity
  8
0
  6
Continuous
 62
     7
100
AcDbLine
 10
1175.098685250565
 20
1449.671700024422
 30
0.0
 11
1175.098685250565
 21
1471.216700024422
 31
0.0
  0
ARC
  5
54CB
330
1F
100
AcDbEntity
  8
0
  6
Continuous
 62
     7
100
AcDbCircle
 10
1068.345685250565
 20
1429.219700024423
 30
0.0
 40
53.0
100
AcDbArc
 50
22.70359999999677
 51
52.41049999999568
  0
LINE
  5
54CC
330
1F
100
AcDbEntity
  8
0
  6
Continuous
 62
     7
100
AcDbLine
 10
1112.460685250565
 20
1477.628700024422
 30
0.0
 11
1106.028685250565
 21
1466.487700024423
 31
0.0
  0
ARC
  5
54CD
330
1F
100
AcDbEntity
  8
0
  6
CENTER
 62
     2
100
AcDbCircle
 10
1068.345685250565
 20
1429.219700024423
 30
0.0
 40
47.5
100
AcDbArc
 50
351.392999999994
 51
8.074680000007038
  0
ARC
  5
54CE
330
1F
100
AcDbEntity
  8
0
  6
Continuous
 62
     7
100
AcDbCircle
 10
1068.345685250565
 20
1429.219700024423
 30
0.0
 40
53.0
100
AcDbArc
 50
342.7029999999949
 51
17.29579999999429
  0
ARC
  5
54CF
330
1F
100
AcDbEntity
  8
0
  6
Continuous
 62
     7
100
AcDbCircle
 10
1115.845685250565
 20
1429.219700024423
 30
0.0
 40
5.5
100
AcDbArc
 50
90.0
 51
270.0
  0
ARC
  5
54D0
330
1F
100
AcDbEntity
  8
0
  6
Continuous
 62
     7
100
AcDbCircle
 10
1068.345685250565
 20
1429.219700024423
 30
0.0
 40
46.5
100
AcDbArc
 50
308.6579999999984
 51
336.0529999999969
  0
ARC
  5
54D1
330
1F
100
AcDbEntity
  8
0
  6
Continuous
 62
     7
100
AcDbCircle
 10
1068.345685250565
 20
1429.219700024423
 30
0.0
 40
53.0
100
AcDbArc
 50
307.5899999999959
 51
337.2949999999946
  0
LINE
  5
54D2
330
1F
100
AcDbEntity
  8
0
  6
Continuous
 62
     7
100
AcDbLine
 10
1112.461685250565
 20
1380.809700024423
 30
0.0
 11
1106.029685250565
 21
1391.950700024422
 31
0.0
  0
ARC
  5
54D3
330
1F
100
AcDbEntity
  8
0
  6
Continuous
 62
     7
100
AcDbCircle
 10
1068.345685250565
 20
1429.219700024423
 30
0.0
 40
46.5
100
AcDbArc
 50
343.9450000000003
 51
353.403000000001
  0
LINE
  5
54D4
330
1F
100
AcDbEntity
  8
0
  6
Continuous
 62
     7
100
AcDbLine
 10
1110.785685250565
 20
1417.176700024423
 30
0.0
 11
1114.262685250565
 21
1415.911700024422
 31
0.0
  0
LINE
  5
54D5
330
1F
100
AcDbEntity
  8
0
  6
Continuous
 62
     7
100
AcDbLine
 10
1112.692685250565
 20
1410.417700024422
 30
0.0
 11
1117.238685250565
 21
1408.762700024422
 31
0.0
  0
LINE
  5
54D6
330
1F
100
AcDbEntity
  8
0
  6
Continuous
 62
     7
100
AcDbLine
 10
1112.073685250565
 20
1409.897700024423
 30
0.0
 11
1112.692685250565
 21
1410.417700024422
 31
0.0
  0
LINE
  5
54D7
330
1F
100
AcDbEntity
  8
0
  6
Continuous
 62
     7
100
AcDbLine
 10
1108.596685250565
 20
1411.162700024422
 30
0.0
 11
1110.785685250565
 21
1417.176700024423
 31
0.0
  0
LINE
  5
54D8
330
1F
100
AcDbEntity
  8
0
  6
Continuous
 62
     7
100
AcDbLine
 10
1108.596685250565
 20
1411.162700024422
 30
0.0
 11
1112.073685250565
 21
1409.897700024423
 31
0.0
  0
POINT
  5
54D9
330
1F
100
AcDbEntity
  8
0
100
AcDbPoint
 10
1109.691685250565
 20
1414.169700024422
 30
0.0
  0
LINE
  5
54DA
330
1F
100
AcDbEntity
  8
0
  6
Continuous
 62
     7
100
AcDbLine
 10
1115.845685250565
 20
1423.719700024423
 30
0.0
 11
1121.059685250565
 21
1423.719700024423
 31
0.0
  0
LINE
  5
54DB
330
1F
100
AcDbEntity
  8
0
  6
Continuous
 62
     7
100
AcDbLine
 10
1114.262685250565
 20
1415.911700024422
 30
0.0
 11
1114.402685250565
 21
1415.115700024422
 31
0.0
  0
LINE
  5
54DC
330
1F
100
AcDbEntity
  8
0
  6
Continuous
 62
     7
100
AcDbLine
 10
1114.402685250565
 20
1415.115700024422
 30
0.0
 11
1118.948685250565
 21
1413.460700024423
 31
0.0
  0
LINE
  5
54DD
330
1F
100
AcDbEntity
  8
0
  6
Continuous
 62
     7
100
AcDbLine
 10
1108.597685250565
 20
1447.274700024422
 30
0.0
 11
1110.786685250565
 21
1441.260700024423
 31
0.0
  0
ARC
  5
54DE
330
1F
100
AcDbEntity
  8
0
  6
Continuous
 62
     7
100
AcDbCircle
 10
1068.345685250565
 20
1429.219700024423
 30
0.0
 40
46.5
100
AcDbArc
 50
6.597229999995111
 51
16.05369999999902
  0
LINE
  5
54DF
330
1F
100
AcDbEntity
  8
0
  6
Continuous
 62
     7
100
AcDbLine
 10
1110.786685250565
 20
1441.260700024423
 30
0.0
 11
1114.259685250565
 21
1442.525700024423
 31
0.0
  0
CIRCLE
  5
54E0
330
1F
100
AcDbEntity
  8
0
  6
Continuous
 62
     7
100
AcDbCircle
 10
1115.845685250565
 20
1429.219700024423
 30
0.0
 40
3.299999999999999
  0
POINT
  5
54E1
330
1F
100
AcDbEntity
  8
0
100
AcDbPoint
 10
1109.691685250565
 20
1444.267700024422
 30
0.0
  0
LINE
  5
54E2
330
1F
100
AcDbEntity
  8
0
  6
Continuous
 62
     7
100
AcDbLine
 10
1115.845685250565
 20
1434.719700024422
 30
0.0
 11
1121.059685250565
 21
1434.719700024422
 31
0.0
  0
LINE
  5
54E3
330
1F
100
AcDbEntity
  8
0
  6
Continuous
 62
     7
100
AcDbLine
 10
1114.260685250565
 20
1442.525700024423
 30
0.0
 11
1114.400685250565
 21
1443.320700024423
 31
0.0
  0
LINE
  5
54E4
330
1F
100
AcDbEntity
  8
0
  6
Continuous
 62
     7
100
AcDbLine
 10
1114.400685250565
 20
1443.320700024423
 30
0.0
 11
1118.948685250565
 21
1444.976700024422
 31
0.0
  0
LINE
  5
54E5
330
1F
100
AcDbEntity
  8
0
  6
Continuous
 62
     7
100
AcDbLine
 10
1112.696685250565
 20
1448.022700024423
 30
0.0
 11
1117.238685250565
 21
1449.675700024422
 31
0.0
  0
LINE
  5
54E6
330
1F
100
AcDbEntity
  8
0
  6
Continuous
 62
     7
100
AcDbLine
 10
1112.078685250565
 20
1448.541700024422
 30
0.0
 11
1112.697685250565
 21
1448.022700024423
 31
0.0
  0
LINE
  5
54E7
330
1F
100
AcDbEntity
  8
0
  6
Continuous
 62
     7
100
AcDbLine
 10
1108.597685250565
 20
1447.274700024422
 30
0.0
 11
1112.078685250565
 21
1448.541700024422
 31
0.0
  0
ARC
  5
54E8
330
1F
100
AcDbEntity
  8
0
  6
Continuous
 62
     7
100
AcDbCircle
 10
1068.345685250565
 20
1429.219700024423
 30
0.0
 40
46.5
100
AcDbArc
 50
23.94600000000428
 51
51.34200000000159
  0
LINE
  5
54E9
330
1F
100
AcDbEntity
  8
0
  6
Continuous
 62
     7
100
AcDbLine
 10
1190.345685250565
 20
1434.719700024422
 30
0.0
 11
1190.345685250565
 21
1423.719700024423
 31
0.0
  0
LINE
  5
54EA
330
1F
100
AcDbEntity
  8
0
  6
Continuous
 62
     7
100
AcDbLine
 10
1171.345685250565
 20
1424.394700024422
 30
0.0
 11
1175.098685250565
 21
1423.719700024423
 31
0.0
  0
LINE
  5
54EB
330
1F
100
AcDbEntity
  8
0
  6
Continuous
 62
     7
100
AcDbLine
 10
1171.345685250565
 20
1466.066700024422
 30
0.0
 11
1171.345685250565
 21
1392.373700024423
 31
0.0
  0
LINE
  5
54EC
330
1F
100
AcDbEntity
  8
0
  6
Continuous
 62
     7
100
AcDbLine
 10
1166.345685250565
 20
1436.219700024422
 30
0.0
 11
1166.345685250565
 21
1422.219700024422
 31
0.0
  0
LINE
  5
54ED
330
1F
100
AcDbEntity
  8
0
  6
Continuous
 62
     7
100
AcDbLine
 10
1175.098685250565
 20
1408.762700024422
 30
0.0
 11
1175.098685250565
 21
1387.222700024423
 31
0.0
  0
LINE
  5
54EE
330
1F
100
AcDbEntity
  8
0
  6
Continuous
 62
     7
100
AcDbLine
 10
1175.098685250565
 20
1387.222700024423
 30
0.0
 11
1180.345685250565
 21
1387.222700024423
 31
0.0
  0
LINE
  5
54EF
330
1F
100
AcDbEntity
  8
0
  6
Continuous
 62
     7
100
AcDbLine
 10
1166.345685250565
 20
1394.629700024422
 30
0.0
 11
1170.345685250565
 21
1394.629700024422
 31
0.0
  0
LINE
  5
54F0
330
1F
100
AcDbEntity
  8
0
  6
Continuous
 62
     7
100
AcDbLine
 10
1166.345685250565
 20
1387.629700024423
 30
0.0
 11
1170.345685250565
 21
1387.629700024423
 31
0.0
  0
LINE
  5
54F1
330
1F
100
AcDbEntity
  8
0
  6
Continuous
 62
     7
100
AcDbLine
 10
1170.345685250565
 20
1387.629700024423
 30
0.0
 11
1170.345685250565
 21
1394.629700024422
 31
0.0
  0
LINE
  5
54F2
330
1F
100
AcDbEntity
  8
0
  6
Continuous
 62
     7
100
AcDbLine
 10
1171.345685250565
 20
1392.372700024422
 30
0.0
 11
1175.098685250565
 21
1387.222700024423
 31
0.0
  0
LINE
  5
54F3
330
1F
100
AcDbEntity
  8
0
  6
Continuous
 62
     7
100
AcDbLine
 10
1180.345685250565
 20
1391.950700024422
 30
0.0
 11
1192.345685250565
 21
1391.950700024422
 31
0.0
  0
LINE
  5
54F4
330
1F
100
AcDbEntity
  8
0
  6
Continuous
 62
     7
100
AcDbLine
 10
1180.345685250565
 20
1380.809700024423
 30
0.0
 11
1192.345685250565
 21
1380.809700024423
 31
0.0
  0
LINE
  5
54F5
330
1F
100
AcDbEntity
  8
0
  6
Continuous
 62
     7
100
AcDbLine
 10
1175.098685250565
 20
1423.719700024423
 30
0.0
 11
1190.345685250565
 21
1423.719700024423
 31
0.0
  0
LINE
  5
54F6
330
1F
100
AcDbEntity
  8
0
  6
Continuous
 62
     7
100
AcDbLine
 10
1175.098685250565
 20
1423.719700024423
 30
0.0
 11
1175.098685250565
 21
1413.460700024423
 31
0.0
  0
LINE
  5
54F7
330
1F
100
AcDbEntity
  8
0
  6
Continuous
 62
     7
100
AcDbLine
 10
1166.345685250565
 20
1405.022700024423
 30
0.0
 11
1171.345685250565
 21
1405.022700024423
 31
0.0
  0
LINE
  5
54F8
330
1F
100
AcDbEntity
  8
0
  6
Continuous
 62
     7
100
AcDbLine
 10
1166.345685250565
 20
1422.219700024422
 30
0.0
 11
1171.345685250565
 21
1422.219700024422
 31
0.0
  0
LINE
  5
54F9
330
1F
100
AcDbEntity
  8
0
  6
Continuous
 62
     7
100
AcDbLine
 10
1171.345685250565
 20
1411.271700024423
 30
0.0
 11
1175.098685250565
 21
1408.762700024422
 31
0.0
  0
LINE
  5
54FA
330
1F
100
AcDbEntity
  8
0
  6
Continuous
 62
     7
100
AcDbLine
 10
1175.098685250565
 20
1413.461700024422
 30
0.0
 11
1171.345685250565
 21
1415.393700024423
 31
0.0
  0
LINE
  5
54FB
330
1F
100
AcDbEntity
  8
0
  6
Continuous
 62
     7
100
AcDbLine
 10
1175.098685250565
 20
1449.672700024423
 30
0.0
 11
1171.345685250565
 21
1447.163700024423
 31
0.0
  0
LINE
  5
54FC
330
1F
100
AcDbEntity
  8
0
  6
Continuous
 62
     7
100
AcDbLine
 10
1175.098685250565
 20
1434.719700024422
 30
0.0
 11
1190.345685250565
 21
1434.719700024422
 31
0.0
  0
LINE
  5
54FD
330
1F
100
AcDbEntity
  8
0
  6
Continuous
 62
     7
100
AcDbLine
 10
1175.098685250565
 20
1434.719700024422
 30
0.0
 11
1175.098685250565
 21
1444.973700024422
 31
0.0
  0
LINE
  5
54FE
330
1F
100
AcDbEntity
  8
0
  6
Continuous
 62
     7
100
AcDbLine
 10
1166.345685250565
 20
1436.219700024422
 30
0.0
 11
1171.345685250565
 21
1436.219700024422
 31
0.0
  0
LINE
  5
54FF
330
1F
100
AcDbEntity
  8
0
  6
Continuous
 62
     7
100
AcDbLine
 10
1171.345685250565
 20
1443.041700024422
 30
0.0
 11
1175.098685250565
 21
1444.973700024422
 31
0.0
  0
LINE
  5
5500
330
1F
100
AcDbEntity
  8
0
  6
Continuous
 62
     7
100
AcDbLine
 10
1171.345685250565
 20
1434.044700024422
 30
0.0
 11
1175.098685250565
 21
1434.719700024422
 31
0.0
  0
LINE
  5
5501
330
1F
100
AcDbEntity
  8
0
  6
Continuous
 62
     7
100
AcDbLine
 10
1166.345685250565
 20
1463.809700024422
 30
0.0
 11
1170.345685250565
 21
1463.809700024422
 31
0.0
  0
LINE
  5
5502
330
1F
100
AcDbEntity
  8
0
  6
Continuous
 62
     7
100
AcDbLine
 10
1166.345685250565
 20
1453.416700024422
 30
0.0
 11
1171.345685250565
 21
1453.416700024422
 31
0.0
  0
LINE
  5
5503
330
1F
100
AcDbEntity
  8
0
  6
Continuous
 62
     7
100
AcDbLine
 10
1180.345685250565
 20
1466.488700024422
 30
0.0
 11
1192.345685250565
 21
1466.488700024422
 31
0.0
  0
LINE
  5
5504
330
1F
100
AcDbEntity
  8
0
  6
Continuous
 62
     7
100
AcDbLine
 10
1175.098685250565
 20
1471.216700024422
 30
0.0
 11
1180.345685250565
 21
1471.216700024422
 31
0.0
  0
LINE
  5
5505
330
1F
100
AcDbEntity
  8
0
  6
Continuous
 62
     7
100
AcDbLine
 10
1166.345685250565
 20
1481.129700024422
 30
0.0
 11
1180.345685250565
 21
1481.129700024422
 31
0.0
  0
LINE
  5
5506
330
1F
100
AcDbEntity
  8
0
  6
Continuous
 62
     7
100
AcDbLine
 10
1166.345685250565
 20
1488.129700024422
 30
0.0
 11
1180.345685250565
 21
1488.129700024422
 31
0.0
  0
LINE
  5
5507
330
1F
100
AcDbEntity
  8
0
  6
Continuous
 62
     7
100
AcDbLine
 10
1166.345685250565
 20
1470.809700024422
 30
0.0
 11
1170.345685250565
 21
1470.809700024422
 31
0.0
  0
LINE
  5
5508
330
1F
100
AcDbEntity
  8
0
  6
Continuous
 62
     7
100
AcDbLine
 10
1180.345685250565
 20
1491.629700024422
 30
0.0
 11
1180.345685250565
 21
1488.129700024422
 31
0.0
  0
LINE
  5
5509
330
1F
100
AcDbEntity
  8
0
  6
Continuous
 62
     7
100
AcDbLine
 10
1180.345685250565
 20
1477.629700024422
 30
0.0
 11
1192.345685250565
 21
1477.629700024422
 31
0.0
  0
LINE
  5
550A
330
1F
100
AcDbEntity
  8
0
  6
Continuous
 62
     7
100
AcDbLine
 10
1180.345685250565
 20
1491.629700024422
 30
0.0
 11
1192.345685250565
 21
1491.629700024422
 31
0.0
  0
LINE
  5
550B
330
1F
100
AcDbEntity
  8
0
  6
Continuous
 62
     7
100
AcDbLine
 10
1166.345685250565
 20
1618.138940743552
 30
0.0
 11
1166.345685250565
 21
1606.138940743552
 31
0.0
  0
LINE
  5
550C
330
1F
100
AcDbEntity
  8
0
  6
Continuous
 62
     7
100
AcDbLine
 10
1171.345685250565
 20
1556.428940743552
 30
0.0
 11
1171.345685250565
 21
1620.248940743551
 31
0.0
  0
LINE
  5
550D
330
1F
100
AcDbEntity
  8
0
  6
Continuous
 62
     7
100
AcDbLine
 10
1175.098685250565
 20
1605.278940743551
 30
0.0
 11
1175.098685250565
 21
1626.698940743551
 31
0.0
  0
DIMENSION
  5
550E
330
1F
100
AcDbEntity
  8
AM_5
100
AcDbDimension
  2
*D13
 10
1153.345685250565
 20
1618.138940743552
 30
0.0
 11
1150.545291549777
 21
1612.138940743552
 31
0.0
 70
    32
 71
     5
 42
12.0
  3
AM_ISO$0
100
AcDbAlignedDimension
 13
1159.07254589006
 23
1606.138940743552
 33
0.0
 14
1166.345685250565
 24
1618.138940743552
 34
0.0
 50
90.0
100
AcDbRotatedDimension
  0
DIMENSION
  5
550F
330
1F
100
AcDbEntity
  8
AM_5
100
AcDbDimension
  2
*D14
 10
1145.345685250565
 20
1638.138940743552
 30
0.0
 11
1142.545291549777
 21
1622.138940743552
 31
0.0
 70
    32
 71
     5
 42
32.0
  3
AM_ISO$0
100
AcDbAlignedDimension
 13
1166.345685250565
 23
1606.138940743552
 33
0.0
 14
1166.345685250565
 24
1638.138940743552
 34
0.0
 50
90.0
100
AcDbRotatedDimension
  0
DIMENSION
  5
5510
330
1F
100
AcDbEntity
  8
AM_5
100
AcDbDimension
  2
*D15
 10
1145.345685250565
 20
1606.138940743552
 30
0.0
 11
1142.545291549777
 21
1590.148940743552
 31
0.0
 70
    32
  1
32
 71
     5
 42
31.98000000000002
  3
AM_ISO$0
100
AcDbAlignedDimension
 13
1160.317685250565
 23
1574.158940743552
 33
0.0
 14
1166.345685250565
 24
1606.138940743552
 34
0.0
 50
90.0
100
AcDbRotatedDimension
  0
LINE
  5
5511
330
1F
100
AcDbEntity
  8
0
  6
Continuous
 62
     7
100
AcDbLine
 10
1175.098685250565
 20
1553.948940743552
 30
0.0
 11
1175.098685250565
 21
1595.748940743551
 31
0.0
  0
LINE
  5
5512
330
1F
100
AcDbEntity
  8
0
  6
Continuous
 62
     7
100
AcDbLine
 10
1192.345685250565
 20
1530.042940743552
 30
0.0
 11
1192.345685250565
 21
1560.728940743552
 31
0.0
  0
LINE
  5
5513
330
1F
100
AcDbEntity
  8
0
  6
Continuous
 62
     7
100
AcDbLine
 10
1166.345685250565
 20
1536.105940743552
 30
0.0
 11
1166.345685250565
 21
1564.228940743552
 31
0.0
  0
LINE
  5
5514
330
1F
100
AcDbEntity
  8
0
  6
Continuous
 62
     7
100
AcDbLine
 10
1166.345685250565
 20
1536.105940743552
 30
0.0
 11
1180.345685250565
 21
1536.105940743552
 31
0.0
  0
LINE
  5
5515
330
1F
100
AcDbEntity
  8
0
  6
Continuous
 62
     7
100
AcDbLine
 10
1175.098685250565
 20
1525.263940743552
 30
0.0
 11
1175.098685250565
 21
1536.105940743552
 31
0.0
  0
LINE
  5
5516
330
1F
100
AcDbEntity
  8
0
  6
Continuous
 62
     7
100
AcDbLine
 10
1171.345685250565
 20
1527.658940743552
 30
0.0
 11
1171.345685250565
 21
1536.105940743552
 31
0.0
  0
LINE
  5
5517
330
1F
100
AcDbEntity
  8
0
  6
Continuous
 62
     7
100
AcDbLine
 10
1171.345685250565
 20
1527.658940743552
 30
0.0
 11
1175.098685250565
 21
1521.158940743552
 31
0.0
  0
LINE
  5
5518
330
1F
100
AcDbEntity
  8
0
  6
Continuous
 62
     7
100
AcDbLine
 10
1171.345685250565
 20
1529.760940743551
 30
0.0
 11
1175.098685250565
 21
1523.554940743551
 31
0.0
  0
LINE
  5
5519
330
1F
100
AcDbEntity
  8
0
  6
Continuous
 62
     7
100
AcDbLine
 10
1175.098685250565
 20
1525.264940743551
 30
0.0
 11
1171.345685250565
 21
1531.260940743552
 31
0.0
  0
LINE
  5
551A
330
1F
100
AcDbEntity
  8
0
  6
Continuous
 62
     7
100
AcDbLine
 10
1175.098685250565
 20
1521.158940743552
 30
0.0
 11
1175.098685250565
 21
1523.554940743551
 31
0.0
  0
LINE
  5
551B
330
1F
100
AcDbEntity
  8
0
  6
Continuous
 62
     7
100
AcDbLine
 10
1180.345685250565
 20
1530.042940743552
 30
0.0
 11
1180.345685250565
 21
1536.105940743552
 31
0.0
  0
LINE
  5
551C
330
1F
100
AcDbEntity
  8
0
  6
Continuous
 62
     7
100
AcDbLine
 10
1180.345685250565
 20
1530.042940743552
 30
0.0
 11
1192.345685250565
 21
1530.042940743552
 31
0.0
  0
LINE
  5
551D
330
1F
100
AcDbEntity
  8
0
  6
Continuous
 62
     7
100
AcDbLine
 10
1175.098685250565
 20
1553.948940743552
 30
0.0
 11
1180.345685250565
 21
1553.948940743552
 31
0.0
  0
LINE
  5
551E
330
1F
100
AcDbEntity
  8
0
  6
Continuous
 62
     7
100
AcDbLine
 10
1166.345685250565
 20
1548.229940743552
 30
0.0
 11
1180.345685250565
 21
1548.229940743552
 31
0.0
  0
LINE
  5
551F
330
1F
100
AcDbEntity
  8
0
  6
Continuous
 62
     7
100
AcDbLine
 10
1166.345685250565
 20
1564.228940743552
 30
0.0
 11
1171.345685250565
 21
1564.228940743552
 31
0.0
  0
LINE
  5
5520
330
1F
100
AcDbEntity
  8
0
  6
Continuous
 62
     7
100
AcDbLine
 10
1166.345685250565
 20
1558.228940743552
 30
0.0
 11
1170.345685250565
 21
1558.228940743552
 31
0.0
  0
LINE
  5
5521
330
1F
100
AcDbEntity
  8
0
  6
Continuous
 62
     7
100
AcDbLine
 10
1166.345685250565
 20
1554.228940743552
 30
0.0
 11
1170.345685250565
 21
1554.228940743552
 31
0.0
  0
LINE
  5
5522
330
1F
100
AcDbEntity
  8
0
  6
Continuous
 62
     7
100
AcDbLine
 10
1170.345685250565
 20
1554.228940743552
 30
0.0
 11
1170.345685250565
 21
1558.228940743552
 31
0.0
  0
LINE
  5
5523
330
1F
100
AcDbEntity
  8
0
  6
Continuous
 62
     7
100
AcDbLine
 10
1175.098685250565
 20
1553.948940743552
 30
0.0
 11
1171.344685250565
 21
1556.428940743552
 31
0.0
  0
LINE
  5
5524
330
1F
100
AcDbEntity
  8
0
  6
Continuous
 62
     7
100
AcDbLine
 10
1180.345685250565
 20
1548.229940743552
 30
0.0
 11
1180.345685250565
 21
1560.728940743552
 31
0.0
  0
LINE
  5
5525
330
1F
100
AcDbEntity
  8
0
  6
Continuous
 62
     7
100
AcDbLine
 10
1180.345685250565
 20
1560.728940743552
 30
0.0
 11
1192.345685250565
 21
1560.728940743552
 31
0.0
  0
LINE
  5
5526
330
1F
100
AcDbEntity
  8
0
  6
Continuous
 62
     7
100
AcDbLine
 10
1180.345685250565
 20
1554.288940743552
 30
0.0
 11
1192.345685250565
 21
1554.288940743552
 31
0.0
  0
LINE
  5
5527
330
1F
100
AcDbEntity
  8
0
  6
Continuous
 62
     7
100
AcDbLine
 10
1175.098685250565
 20
1605.278940743551
 30
0.0
 11
1190.345685250565
 21
1605.278940743551
 31
0.0
  0
LINE
  5
5528
330
1F
100
AcDbEntity
  8
0
  6
Continuous
 62
     7
100
AcDbLine
 10
1175.098685250565
 20
1595.748940743551
 30
0.0
 11
1190.345685250565
 21
1595.748940743551
 31
0.0
  0
LINE
  5
5529
330
1F
100
AcDbEntity
  8
0
  6
Continuous
 62
     7
100
AcDbLine
 10
1166.345685250565
 20
1606.138940743552
 30
0.0
 11
1171.345685250565
 21
1606.138940743552
 31
0.0
  0
LINE
  5
552A
330
1F
100
AcDbEntity
  8
0
  6
Continuous
 62
     7
100
AcDbLine
 10
1175.098685250565
 20
1605.278940743551
 30
0.0
 11
1171.345685250565
 21
1601.458940743551
 31
0.0
  0
LINE
  5
552B
330
1F
100
AcDbEntity
  8
0
  6
Continuous
 62
     7
100
AcDbLine
 10
1171.345685250565
 20
1593.108940743551
 30
0.0
 11
1175.098685250565
 21
1595.748940743551
 31
0.0
  0
LINE
  5
552C
330
1F
100
AcDbEntity
  8
0
  6
Continuous
 62
     7
100
AcDbLine
 10
1190.345685250565
 20
1595.748940743551
 30
0.0
 11
1190.345685250565
 21
1605.278940743551
 31
0.0
  0
ARC
  5
552D
330
1F
100
AcDbEntity
  8
0
  6
Continuous
 62
     7
100
AcDbCircle
 10
1207.845685250565
 20
1583.808940743552
 30
0.0
 40
4.285509999999999
100
AcDbArc
 50
2.013579999997844
 51
177.9859999999978
  0
ARC
  5
552E
330
1F
100
AcDbEntity
  8
0
  6
Continuous
 62
     2
100
AcDbCircle
 10
1207.845685250565
 20
1583.808940743552
 30
0.0
 40
4.867009999999999
100
AcDbArc
 50
2.013579999997844
 51
177.9859999999978
  0
LINE
  5
552F
330
1F
100
AcDbEntity
  8
AM_7
100
AcDbLine
 10
1207.845685250565
 20
1577.808940743552
 30
0.0
 11
1207.845685250565
 21
1590.098940743552
 31
0.0
  0
ARC
  5
5530
330
1F
100
AcDbEntity
  8
0
  6
Continuous
 62
     7
100
AcDbCircle
 10
1207.845685250565
 20
1584.158940743552
 30
0.0
 40
4.285509999999999
100
AcDbArc
 50
182.0140000000022
 51
357.9859999999978
  0
ARC
  5
5531
330
1F
100
AcDbEntity
  8
0
  6
Continuous
 62
     2
100
AcDbCircle
 10
1207.845685250565
 20
1584.158940743552
 30
0.0
 40
4.867009999999999
100
AcDbArc
 50
182.0140000000022
 51
357.9859999999978
  0
LINE
  5
5532
330
1F
100
AcDbEntity
  8
AM_7
100
AcDbLine
 10
1214.280685250565
 20
1583.978940743551
 30
0.0
 11
1201.610685250565
 21
1583.978940743551
 31
0.0
  0
DIMENSION
  5
5533
330
1F
100
AcDbEntity
  8
AM_5
100
AcDbDimension
  2
*D16
 10
1166.345685250565
 20
1650.138940743552
 30
0.0
 11
1168.345685250565
 21
1652.938940743552
 31
0.0
 70
    32
 71
     5
 42
4.0
  3
AM_ISO$0
100
AcDbAlignedDimension
 13
1170.345685250565
 23
1626.138940743552
 33
0.0
 14
1166.345685250565
 24
1638.138940743552
 34
0.0
100
AcDbRotatedDimension
  0
DIMENSION
  5
5534
330
1F
100
AcDbEntity
  8
AM_5
100
AcDbDimension
  2
*D17
 10
1153.345685250565
 20
1626.138940743552
 30
0.0
 11
1153.345685250565
 21
1622.138940743552
 31
0.0
 70
   160
  1
8H9
 71
     5
 42
8.0
  3
AM_ISO$0
100
AcDbAlignedDimension
 13
1159.07254589006
 23
1618.138940743552
 33
0.0
 14
1166.345685250565
 24
1626.138940743552
 34
0.0
 50
90.0
100
AcDbRotatedDimension
  0
DIMENSION
  5
5535
330
1F
100
AcDbEntity
  8
AM_5
100
AcDbDimension
  2
*D18
 10
1171.345685250565
 20
1658.138940743551
 30
0.0
 11
1168.845685250565
 21
1660.938940743552
 31
0.0
 70
    32
 71
     5
 42
5.0
  3
AM_ISO$0
100
AcDbAlignedDimension
 13
1166.345685250565
 23
1648.413867523854
 33
0.0
 14
1171.345685250565
 24
1620.248940743551
 34
0.0
100
AcDbRotatedDimension
  0
LINE
  5
5538
330
1F
100
AcDbEntity
  8
0
  6
Continuous
 62
     7
100
AcDbLine
 10
1192.345685250565
 20
1638.138940743552
 30
0.0
 11
1192.345685250565
 21
1625.278940743552
 31
0.0
  0
LINE
  5
5539
330
1F
100
AcDbEntity
  8
0
  6
Continuous
 62
     7
100
AcDbLine
 10
1180.345685250565
 20
1638.138940743552
 30
0.0
 11
1180.345685250565
 21
1625.278940743552
 31
0.0
  0
LINE
  5
553A
330
1F
100
AcDbEntity
  8
0
  6
Continuous
 62
     7
100
AcDbLine
 10
1166.345685250565
 20
1638.138940743552
 30
0.0
 11
1166.345685250565
 21
1626.138940743552
 31
0.0
  0
LINE
  5
553B
330
1F
100
AcDbEntity
  8
0
  6
Continuous
 62
     7
100
AcDbLine
 10
1175.098685250565
 20
1626.698940743551
 30
0.0
 11
1180.345685250565
 21
1626.698940743551
 31
0.0
  0
LINE
  5
553C
330
1F
100
AcDbEntity
  8
0
  6
Continuous
 62
     7
100
AcDbLine
 10
1166.345685250565
 20
1626.138940743552
 30
0.0
 11
1170.345685250565
 21
1626.138940743552
 31
0.0
  0
LINE
  5
553D
330
1F
100
AcDbEntity
  8
0
  6
Continuous
 62
     7
100
AcDbLine
 10
1166.345685250565
 20
1618.138940743552
 30
0.0
 11
1170.345685250565
 21
1618.138940743552
 31
0.0
  0
LINE
  5
553E
330
1F
100
AcDbEntity
  8
0
  6
Continuous
 62
     7
100
AcDbLine
 10
1170.345685250565
 20
1626.138940743552
 30
0.0
 11
1170.345685250565
 21
1618.138940743552
 31
0.0
  0
LINE
  5
553F
330
1F
100
AcDbEntity
  8
0
  6
Continuous
 62
     7
100
AcDbLine
 10
1171.345685250565
 20
1620.248940743551
 30
0.0
 11
1175.098685250565
 21
1626.698940743551
 31
0.0
  0
LINE
  5
5540
330
1F
100
AcDbEntity
  8
0
  6
Continuous
 62
     7
100
AcDbLine
 10
1180.345685250565
 20
1625.278940743552
 30
0.0
 11
1192.345685250565
 21
1625.278940743552
 31
0.0
  0
LINE
  5
5541
330
1F
100
AcDbEntity
  8
0
  6
Continuous
 62
     7
100
AcDbLine
 10
1166.345685250565
 20
1638.138940743552
 30
0.0
 11
1192.345685250565
 21
1638.138940743552
 31
0.0
  0
LINE
  5
5542
330
1F
100
AcDbEntity
  8
AM_5
100
AcDbLine
 10
1410.369685327546
 20
1344.119700024422
 30
0.0
 11
1458.873685327546
 21
1344.119700024422
 31
0.0
  0
LINE
  5
5543
330
1F
100
AcDbEntity
  8
0
  6
Continuous
 62
     7
100
AcDbLine
 10
1248.345685250565
 20
1482.219700024423
 30
0.0
 11
1248.345685250565
 21
1376.219700024423
 31
0.0
  0
LINE
  5
5544
330
1F
100
AcDbEntity
  8
0
  6
Continuous
 62
     7
100
AcDbLine
 10
1353.064685327546
 20
1366.811700024422
 30
0.0
 11
1328.816685327546
 21
1380.811700024423
 31
0.0
  0
ARC
  5
5545
330
1F
100
AcDbEntity
  8
0
  6
Continuous
 62
     7
100
AcDbCircle
 10
1372.930685327546
 20
1429.219700024423
 30
0.0
 40
53.0
100
AcDbArc
 50
322.7029999999967
 51
157.2959999999967
  0
ARC
  5
5546
330
1F
100
AcDbEntity
  8
0
  6
Continuous
 62
     7
100
AcDbCircle
 10
1372.930685327546
 20
1429.219700024423
 30
0.0
 40
53.0
100
AcDbArc
 50
202.7020000000034
 51
277.2970000000003
  0
LINE
  5
5547
330
1F
100
AcDbEntity
  8
0
  6
Continuous
 62
     7
100
AcDbLine
 10
1359.496685327546
 20
1377.950700024422
 30
0.0
 11
1353.064685327546
 21
1366.811700024422
 31
0.0
  0
LINE
  5
5549
330
1F
100
AcDbEntity
  8
0
  6
Continuous
 62
     7
100
AcDbLine
 10
1378.822685327546
 20
1381.411700024423
 30
0.0
 11
1379.662685327546
 21
1376.648700024422
 31
0.0
  0
LINE
  5
554B
330
1F
100
AcDbEntity
  8
AM_7
100
AcDbLine
 10
1380.154685327547
 20
1484.088700024422
 30
0.0
 11
1365.485685327546
 21
1372.663700024423
 31
0.0
  0
LINE
  5
554C
330
1F
100
AcDbEntity
  8
AM_5
100
AcDbLine
 10
1363.626685327546
 20
1381.525700024423
 30
0.0
 11
1358.381685327546
 21
1341.689700024423
 31
0.0
  0
LINE
  5
554D
330
1F
100
AcDbEntity
  8
AM_5
100
AcDbLine
 10
1369.574685327547
 20
1380.742700024423
 30
0.0
 11
1364.330685327546
 21
1340.906700024423
 31
0.0
  0
LINE
  5
554E
330
1F
100
AcDbEntity
  8
AM_5
100
AcDbLine
 10
1384.024685327547
 20
1389.749700024422
 30
0.0
 11
1410.369685327546
 21
1344.119700024422
 31
0.0
  0
ARC
  5
554F
330
1F
100
AcDbEntity
  8
0
  6
Continuous
 62
     7
100
AcDbCircle
 10
1372.930685327546
 20
1429.219700024423
 30
0.0
 40
53.0
100
AcDbArc
 50
282.7040000000009
 51
317.2959999999956
  0
LINE
  5
5550
330
1F
100
AcDbEntity
  8
AM_5
100
AcDbLine
 10
1317.489685327547
 20
1348.081700024422
 30
0.0
 11
1373.248685327546
 21
1340.741700024423
 31
0.0
  0
TEXT
  5
5551
330
1F
100
AcDbEntity
  8
AM_5
100
AcDbText
 10
1317.025938327546
 20
1349.615099024423
 30
0.0
 40
3.2
  1
6H9
 50
352.5999999999938
  7
China
100
AcDbText
  0
TEXT
  5
5552
330
1F
100
AcDbEntity
  8
AM_5
100
AcDbText
 10
1336.535531327546
 20
1346.646230024422
 30
0.0
 40
3.2
  1
DEPTH6
 50
352.500000000001
  7
China
100
AcDbText
  0
TEXT
  5
5553
330
1F
100
AcDbEntity
  8
AM_5
100
AcDbText
 10
1326.990108327547
 20
1350.100965024423
 30
0.0
 40
1.6
  1
+0.030
 50
352.500000000001
  7
China
100
AcDbText
  0
TEXT
  5
5554
330
1F
100
AcDbEntity
  8
AM_5
100
AcDbText
 10
1328.145108327547
 20
1347.329965024422
 30
0.0
 40
1.6
  1
0
 50
352.500000000001
  7
China
100
AcDbText
  0
LINE
  5
5555
330
1F
100
AcDbEntity
  8
AM_5
100
AcDbLine
 10
1358.511685327546
 20
1342.681700024423
 30
0.0
 11
1355.432685327546
 21
1342.275700024423
 31
0.0
  0
LINE
  5
5556
330
1F
100
AcDbEntity
  8
AM_5
100
AcDbLine
 10
1358.512685327546
 20
1342.681700024423
 30
0.0
 11
1355.642685327546
 21
1343.869700024423
 31
0.0
  0
LINE
  5
5557
330
1F
100
AcDbEntity
  8
AM_5
100
AcDbLine
 10
1364.460685327546
 20
1341.898700024423
 30
0.0
 11
1367.540685327546
 21
1342.303700024422
 31
0.0
  0
LINE
  5
5558
330
1F
100
AcDbEntity
  8
AM_5
100
AcDbLine
 10
1364.460685327546
 20
1341.898700024423
 30
0.0
 11
1367.330685327546
 21
1340.709700024423
 31
0.0
  0
TEXT
  5
5559
330
1F
100
AcDbEntity
  8
AM_5
100
AcDbText
 10
1417.108685327546
 20
1346.411700024423
 30
0.0
 40
3.2
  1
82H9
  7
China
100
AcDbText
  0
LINE
  5
555A
330
1F
100
AcDbEntity
  8
AM_5
100
AcDbLine
 10
1414.152685327546
 20
1346.309700024423
 30
0.0
 11
1415.315685327546
 21
1349.504700024423
 31
0.0
  0
CIRCLE
  5
555B
330
1F
100
AcDbEntity
  8
AM_5
100
AcDbCircle
 10
1414.733685327546
 20
1347.906700024422
 30
0.0
 40
0.9
  0
TEXT
  5
555C
330
1F
100
AcDbEntity
  8
AM_5
100
AcDbText
 10
1439.492685327546
 20
1346.306700024423
 30
0.0
 40
3.2
  1
DEPTH3
  7
China
100
AcDbText
  0
TEXT
  5
555D
330
1F
100
AcDbEntity
  8
AM_5
100
AcDbText
 10
1430.041685327546
 20
1348.321700024422
 30
0.0
 40
1.6
  1
+0.087
  7
China
100
AcDbText
  0
TEXT
  5
555E
330
1F
100
AcDbEntity
  8
AM_5
100
AcDbText
 10
1431.641685327546
 20
1345.795700024423
 30
0.0
 40
1.6
  1
0
  7
China
100
AcDbText
  0
DIMENSION
  5
555F
330
1F
100
AcDbEntity
  8
AM_5
100
AcDbDimension
  2
*D19
 10
1289.600179295596
 20
1388.24586113312
 30
0.0
 11
1287.346230638495
 21
1392.577157171199
 31
0.0
 70
    33
 71
     5
 42
8.000102478926692
  3
AM_ISO$0
100
AcDbAlignedDimension
 13
1367.253509121995
 23
1386.092002314726
 33
0.0
 14
1366.209312765151
 24
1378.160338325267
 34
0.0
  0
DIMENSION
  5
5560
330
1F
100
AcDbEntity
  8
AM_5
100
AcDbDimension
  2
*D20
 10
1290.644377208735
 20
1396.177536944102
 30
0.0
 11
1290.707260746449
 21
1418.107350270671
 31
0.0
 70
    33
 71
     5
 42
43.50083525071591
  3
AM_ISO$0
100
AcDbAlignedDimension
 13
1372.93136975568
 23
1429.220700024422
 33
0.0
 14
1367.253509121995
 24
1386.092002314726
 34
0.0
  0
DIMENSION
  5
5561
330
1F
100
AcDbEntity
  8
AM_5
100
AcDbDimension
  2
*D21
 10
1296.321926185199
 20
1439.30386732377
 30
0.0
 11
1296.645882091421
 21
1463.216799190352
 31
0.0
 70
    33
 71
     5
 42
47.50129505118638
  3
AM_ISO$0
100
AcDbAlignedDimension
 13
1379.131058483438
 23
1476.313281038481
 33
0.0
 14
1372.931052999947
 24
1429.218345392018
 34
0.0
  0
CIRCLE
  5
5563
330
1F
100
AcDbEntity
  8
0
  6
CENTER
 62
     2
100
AcDbCircle
 10
1372.930685327546
 20
1429.219700024423
 30
0.0
 40
47.5
  0
LINE
  5
5564
330
1F
100
AcDbEntity
  8
0
  6
Continuous
 62
     7
100
AcDbLine
 10
1326.872685327546
 20
1415.117700024423
 30
0.0
 11
1322.326685327546
 21
1413.463700024423
 31
0.0
  0
LINE
  5
5565
330
1F
100
AcDbEntity
  8
0
  6
Continuous
 62
     7
100
AcDbLine
 10
1328.581685327546
 20
1410.418700024422
 30
0.0
 11
1324.036685327546
 21
1408.764700024423
 31
0.0
  0
LINE
  5
5566
330
1F
100
AcDbEntity
  8
0
  6
Continuous
 62
     7
100
AcDbLine
 10
1326.873685327546
 20
1443.322700024422
 30
0.0
 11
1322.327685327546
 21
1444.977700024422
 31
0.0
  0
CIRCLE
  5
5567
330
1F
100
AcDbEntity
  8
0
  6
Continuous
 62
     7
100
AcDbCircle
 10
1325.430685327546
 20
1429.219700024423
 30
0.0
 40
3.299999999999999
  0
LINE
  5
5568
330
1F
100
AcDbEntity
  8
0
  6
Continuous
 62
     7
100
AcDbLine
 10
1328.580685327547
 20
1448.021700024423
 30
0.0
 11
1324.037685327546
 21
1449.675700024422
 31
0.0
  0
POINT
  5
5569
330
1F
100
AcDbEntity
  8
0
100
AcDbPoint
 10
1248.345685250565
 20
1429.219700024423
 30
0.0
  0
ARC
  5
556A
330
1F
100
AcDbEntity
  8
0
  6
Continuous
 62
     7
100
AcDbCircle
 10
1372.930685327546
 20
1429.219700024423
 30
0.0
 40
53.0
100
AcDbArc
 50
162.7039999999976
 51
197.2950000000028
  0
LINE
  5
556B
330
1F
100
AcDbEntity
  8
0
  6
Continuous
 62
     7
100
AcDbLine
 10
1335.247685327546
 20
1466.488700024422
 30
0.0
 11
1328.816685327546
 21
1477.627700024422
 31
0.0
  0
CIRCLE
  5
556D
330
1F
100
AcDbEntity
  8
0
  6
Continuous
 62
     7
100
AcDbCircle
 10
1396.680685327546
 20
1470.355700024423
 30
0.0
 40
3.299999999999999
  0
CIRCLE
  5
556F
330
1F
100
AcDbEntity
  8
0
  6
Continuous
 62
     7
100
AcDbCircle
 10
1372.930685327546
 20
1429.219700024423
 30
0.0
 40
41.0
  0
LINE
  5
5570
330
1F
100
AcDbEntity
  8
0
  6
Continuous
 62
     7
100
AcDbLine
 10
1335.247685327546
 20
1391.950700024422
 30
0.0
 11
1328.816685327546
 21
1380.811700024423
 31
0.0
  0
POINT
  5
5573
330
1F
100
AcDbEntity
  8
0
100
AcDbPoint
 10
1331.583685327547
 20
1414.171700024422
 30
0.0
  0
LINE
  5
5574
330
1F
100
AcDbEntity
  8
0
  6
Continuous
 62
     7
100
AcDbLine
 10
1330.489685327546
 20
1417.178700024422
 30
0.0
 11
1327.012685327546
 21
1415.913700024423
 31
0.0
  0
LINE
  5
5575
330
1F
100
AcDbEntity
  8
0
  6
Continuous
 62
     7
100
AcDbLine
 10
1332.678685327546
 20
1411.164700024422
 30
0.0
 11
1329.200685327547
 21
1409.898700024422
 31
0.0
  0
LINE
  5
5576
330
1F
100
AcDbEntity
  8
0
  6
Continuous
 62
     7
100
AcDbLine
 10
1332.678685327546
 20
1411.164700024422
 30
0.0
 11
1330.489685327546
 21
1417.178700024422
 31
0.0
  0
LINE
  5
5577
330
1F
100
AcDbEntity
  8
0
  6
Continuous
 62
     7
100
AcDbLine
 10
1329.200685327547
 20
1409.899700024422
 30
0.0
 11
1328.581685327546
 21
1410.418700024422
 31
0.0
  0
LINE
  5
5578
330
1F
100
AcDbEntity
  8
0
  6
Continuous
 62
     7
100
AcDbLine
 10
1327.012685327546
 20
1415.913700024423
 30
0.0
 11
1326.872685327546
 21
1415.117700024423
 31
0.0
  0
LINE
  5
5579
330
1F
100
AcDbEntity
  8
0
  6
Continuous
 62
     7
100
AcDbLine
 10
1369.835685327547
 20
1382.725700024423
 30
0.0
 11
1369.574685327547
 21
1380.742700024423
 31
0.0
  0
LINE
  5
557A
330
1F
100
AcDbEntity
  8
0
  6
Continuous
 62
     7
100
AcDbLine
 10
1363.887685327546
 20
1383.508700024422
 30
0.0
 11
1363.626685327546
 21
1381.525700024423
 31
0.0
  0
ARC
  5
557B
330
1F
100
AcDbEntity
  8
0
  6
Continuous
 62
     7
100
AcDbCircle
 10
1366.861685327547
 20
1383.117700024423
 30
0.0
 40
3.0
100
AcDbArc
 50
352.500000000001
 51
172.500000000001
  0
ARC
  5
557C
330
1F
100
AcDbEntity
  8
0
  6
Continuous
 62
     7
100
AcDbCircle
 10
1366.600685327546
 20
1381.134700024422
 30
0.0
 40
3.0
100
AcDbArc
 50
172.500000000001
 51
352.500000000001
  0
LINE
  5
557D
330
1F
100
AcDbEntity
  8
0
  6
Continuous
 62
     7
100
AcDbLine
 10
1377.420685327546
 20
1385.332700024422
 30
0.0
 11
1383.723685327546
 21
1386.443700024422
 31
0.0
  0
LINE
  5
557E
330
1F
100
AcDbEntity
  8
0
  6
Continuous
 62
     7
100
AcDbLine
 10
1377.420685327546
 20
1385.332700024422
 30
0.0
 11
1378.063685327546
 21
1381.688700024423
 31
0.0
  0
LINE
  5
557F
330
1F
100
AcDbEntity
  8
0
  6
Continuous
 62
     7
100
AcDbLine
 10
1378.063685327546
 20
1381.688700024423
 30
0.0
 11
1378.822685327546
 21
1381.411700024423
 31
0.0
  0
LINE
  5
5580
330
1F
100
AcDbEntity
  8
0
  6
Continuous
 62
     7
100
AcDbLine
 10
1383.745685327547
 20
1382.283700024422
 30
0.0
 11
1384.586685327546
 21
1377.517700024422
 31
0.0
  0
LINE
  5
5581
330
1F
100
AcDbEntity
  8
0
  6
Continuous
 62
     7
100
AcDbLine
 10
1383.723685327546
 20
1386.443700024422
 30
0.0
 11
1384.365685327546
 21
1382.802700024422
 31
0.0
  0
LINE
  5
5582
330
1F
100
AcDbEntity
  8
0
  6
Continuous
 62
     7
100
AcDbLine
 10
1384.365685327546
 20
1382.802700024422
 30
0.0
 11
1383.745685327547
 21
1382.283700024422
 31
0.0
  0
LINE
  5
5583
330
1F
100
AcDbEntity
  8
0
  6
Continuous
 62
     7
100
AcDbLine
 10
1332.678685327546
 20
1447.274700024422
 30
0.0
 11
1330.489685327546
 21
1441.260700024423
 31
0.0
  0
POINT
  5
5584
330
1F
100
AcDbEntity
  8
0
100
AcDbPoint
 10
1331.584685327547
 20
1444.267700024422
 30
0.0
  0
LINE
  5
5585
330
1F
100
AcDbEntity
  8
0
  6
Continuous
 62
     7
100
AcDbLine
 10
1330.489685327546
 20
1441.260700024423
 30
0.0
 11
1327.013685327546
 21
1442.526700024422
 31
0.0
  0
LINE
  5
5586
330
1F
100
AcDbEntity
  8
0
  6
Continuous
 62
     7
100
AcDbLine
 10
1327.013685327546
 20
1442.526700024422
 30
0.0
 11
1326.873685327546
 21
1443.322700024422
 31
0.0
  0
LINE
  5
5587
330
1F
100
AcDbEntity
  8
0
  6
Continuous
 62
     7
100
AcDbLine
 10
1332.678685327546
 20
1447.274700024422
 30
0.0
 11
1329.199685327546
 21
1448.541700024422
 31
0.0
  0
LINE
  5
5588
330
1F
100
AcDbEntity
  8
0
  6
Continuous
 62
     7
100
AcDbLine
 10
1329.199685327546
 20
1448.541700024422
 30
0.0
 11
1328.580685327547
 21
1448.021700024423
 31
0.0
  0
POINT
  5
5589
330
1F
100
AcDbEntity
  8
0
100
AcDbPoint
 10
1372.930685327546
 20
1429.219700024423
 30
0.0
  0
LINE
  5
558A
330
1F
100
AcDbEntity
  8
0
  6
Continuous
 62
     7
100
AcDbLine
 10
1436.911685327546
 20
1443.220700024422
 30
0.0
 11
1436.911685327546
 21
1415.220700024422
 31
0.0
  0
LINE
  5
558B
330
1F
100
AcDbEntity
  8
0
  6
Continuous
 62
     7
100
AcDbLine
 10
1424.048685327546
 20
1415.220700024422
 30
0.0
 11
1436.911685327546
 21
1415.220700024422
 31
0.0
  0
LINE
  5
558C
330
1F
100
AcDbEntity
  8
0
  6
Continuous
 62
     7
100
AcDbLine
 10
1408.693685327546
 20
1403.387700024422
 30
0.0
 11
1404.579685327546
 21
1398.484700024422
 31
0.0
  0
LINE
  5
558D
330
1F
100
AcDbEntity
  8
0
  6
Continuous
 62
     7
100
AcDbLine
 10
1411.527685327546
 20
1401.009700024423
 30
0.0
 11
1411.387685327546
 21
1400.213700024423
 31
0.0
  0
LINE
  5
558E
330
1F
100
AcDbEntity
  8
0
  6
Continuous
 62
     7
100
AcDbLine
 10
1408.173685327546
 20
1396.383700024422
 30
0.0
 11
1411.878685327546
 21
1393.274700024423
 31
0.0
  0
LINE
  5
558F
330
1F
100
AcDbEntity
  8
0
  6
Continuous
 62
     7
100
AcDbLine
 10
1404.579685327546
 20
1398.484700024422
 30
0.0
 11
1407.413685327546
 21
1396.106700024422
 31
0.0
  0
LINE
  5
5591
330
1F
100
AcDbEntity
  8
0
  6
Continuous
 62
     7
100
AcDbLine
 10
1407.413685327546
 20
1396.106700024422
 30
0.0
 11
1408.173685327546
 21
1396.383700024422
 31
0.0
  0
LINE
  5
5592
330
1F
100
AcDbEntity
  8
0
  6
Continuous
 62
     7
100
AcDbLine
 10
1411.387685327546
 20
1400.213700024423
 30
0.0
 11
1415.092685327546
 21
1397.104700024422
 31
0.0
  0
LINE
  5
5593
330
1F
100
AcDbEntity
  8
0
  6
Continuous
 62
     7
100
AcDbLine
 10
1408.693685327546
 20
1403.387700024422
 30
0.0
 11
1411.527685327546
 21
1401.009700024423
 31
0.0
  0
LINE
  5
5594
330
1F
100
AcDbEntity
  8
0
  6
Continuous
 62
     7
100
AcDbLine
 10
1424.048685327546
 20
1443.220700024422
 30
0.0
 11
1436.911685327546
 21
1443.220700024422
 31
0.0
  0
CIRCLE
  5
5595
330
1F
100
AcDbEntity
  8
0
  6
Continuous
 62
     2
100
AcDbCircle
 10
1420.430685327547
 20
1429.219700024423
 30
0.0
 40
3.0
  0
CIRCLE
  5
5596
330
1F
100
AcDbEntity
  8
0
  6
Continuous
 62
     7
100
AcDbCircle
 10
1420.430685327547
 20
1429.219700024423
 30
0.0
 40
2.458499999999999
  0
LINE
  5
5597
330
1F
100
AcDbEntity
  8
AM_5
100
AcDbLine
 10
1406.364685327546
 20
1523.483700024423
 30
0.0
 11
1380.630685327546
 21
1478.911700024423
 31
0.0
  0
LINE
  5
5598
330
1F
100
AcDbEntity
  8
AM_5
100
AcDbLine
 10
1379.853685327546
 20
1523.483700024423
 30
0.0
 11
1350.680685327546
 21
1472.953700024423
 31
0.0
  0
LINE
  5
5599
330
1F
100
AcDbEntity
  8
0
  6
Continuous
 62
     7
100
AcDbLine
 10
1359.496685327546
 20
1480.488700024422
 30
0.0
 11
1353.065685327546
 21
1491.627700024422
 31
0.0
  0
LINE
  5
559A
330
1F
100
AcDbEntity
  8
0
  6
Continuous
 62
     7
100
AcDbLine
 10
1328.816685327546
 20
1477.627700024422
 30
0.0
 11
1353.065685327546
 21
1491.627700024422
 31
0.0
  0
LINE
  5
559C
330
1F
100
AcDbEntity
  8
AM_5
100
AcDbLine
 10
1338.517685327546
 20
1523.483700024423
 30
0.0
 11
1379.853685327546
 21
1523.483700024423
 31
0.0
  0
TEXT
  5
559D
330
1F
100
AcDbEntity
  8
AM_5
100
AcDbText
 10
1354.108685327546
 20
1524.512700024422
 30
0.0
 40
3.2
  1
1DEPTH12
  7
China
100
AcDbText
  0
TEXT
  5
559E
330
1F
100
AcDbEntity
  8
AM_5
100
AcDbText
 10
1338.108685327546
 20
1524.512700024422
 30
0.0
 40
3.2
  1
3-M6
  7
China
100
AcDbText
  0
TEXT
  5
559F
330
1F
100
AcDbEntity
  8
AM_5
100
AcDbText
 10
1338.325685327546
 20
1519.423700024422
 30
0.0
 40
3.2
  1
P.C.D.95
  7
China
100
AcDbText
  0
LINE
  5
55A0
330
1F
100
AcDbEntity
  8
AM_5
100
AcDbLine
 10
1351.608685327546
 20
1525.040700024423
 30
0.0
 11
1353.408685327546
 21
1527.185700024422
 31
0.0
  0
LINE
  5
55A1
330
1F
100
AcDbEntity
  8
AM_5
100
AcDbLine
 10
1351.608685327546
 20
1527.185700024422
 30
0.0
 11
1353.408685327546
 21
1525.040700024423
 31
0.0
  0
LINE
  5
55A2
330
1F
100
AcDbEntity
  8
AM_5
100
AcDbLine
 10
1406.364685327546
 20
1523.483700024423
 30
0.0
 11
1449.136685327547
 21
1523.483700024423
 31
0.0
  0
TEXT
  5
55A3
330
1F
100
AcDbEntity
  8
AM_5
100
AcDbText
 10
1420.520685327547
 20
1526.480700024422
 30
0.0
 40
1.6
  1
+0.030
  7
China
100
AcDbText
  0
CIRCLE
  5
55A4
330
1F
100
AcDbEntity
  8
AM_5
100
AcDbCircle
 10
1409.203685327547
 20
1526.006700024422
 30
0.0
 40
0.9
  0
LINE
  5
55A5
330
1F
100
AcDbEntity
  8
AM_5
100
AcDbLine
 10
1408.621685327547
 20
1524.408700024422
 30
0.0
 11
1409.784685327547
 21
1527.603700024423
 31
0.0
  0
TEXT
  5
55A6
330
1F
100
AcDbEntity
  8
AM_5
100
AcDbText
 10
1410.920685327546
 20
1524.529700024422
 30
0.0
 40
3.2
  1
6H9
  7
China
100
AcDbText
  0
TEXT
  5
55A7
330
1F
100
AcDbEntity
  8
AM_5
100
AcDbText
 10
1422.106685327546
 20
1524.001700024423
 30
0.0
 40
1.6
  1
0
  7
China
100
AcDbText
  0
TEXT
  5
55A8
330
1F
100
AcDbEntity
  8
AM_5
100
AcDbText
 10
1430.273685327546
 20
1524.467700024423
 30
0.0
 40
3.2
  1
DEPTH6
  7
China
100
AcDbText
  0
ARC
  5
55A9
330
1F
100
AcDbEntity
  8
0
  6
Continuous
 62
     2
100
AcDbCircle
 10
1234.845685250565
 20
1617.668940743551
 30
0.0
 40
6.60182
100
AcDbArc
 50
240.5589999999991
 51
299.389999999996
  0
LINE
  5
55AA
330
1F
100
AcDbEntity
  8
AM_7
100
AcDbLine
 10
1234.845685250565
 20
1609.818940743551
 30
0.0
 11
1234.845685250565
 21
1618.408940743552
 31
0.0
  0
LINE
  5
55AB
330
1F
100
AcDbEntity
  8
0
  6
Continuous
 62
     7
100
AcDbLine
 10
1248.345685250565
 20
1521.158940743552
 30
0.0
 11
1248.345685250565
 21
1627.158940743552
 31
0.0
  0
DIMENSION
  5
55AC
330
1F
100
AcDbEntity
  8
AM_5
100
AcDbDimension
  2
*D22
 10
1266.421003296048
 20
1521.158940743552
 30
0.0
 11
1263.621003296048
 21
1574.158940743552
 31
0.0
 70
    32
  1
%%C<>
 71
     5
 42
106.0
  3
AM_ISO$0
100
AcDbAlignedDimension
 13
1248.345685250565
 23
1627.158940743552
 33
0.0
 14
1248.345685250565
 24
1521.158940743552
 34
0.0
 50
90.0
100
AcDbRotatedDimension
  0
POINT
  5
55AD
330
1F
100
AcDbEntity
  8
0
100
AcDbPoint
 10
1248.345685250565
 20
1574.158940743552
 30
0.0
  0
LEADER
  5
55AE
330
1F
100
AcDbEntity
  8
AM_5
100
AcDbLeader
  3
AM_ISO$7
 76
     3
 10
1238.437246986395
 20
1616.319686163459
 30
0.0
 10
1259.669053115314
 20
1649.31831298378
 30
0.0
 10
1292.868165278532
 20
1649.31831298378
 30
0.0
1001
ACAD
1000
DSTYLE
1002
{
1070
   140
1040
4.0
1002
}
  0
DIMENSION
  5
55AF
330
1F
100
AcDbEntity
  8
AM_5
100
AcDbDimension
  2
*D23
 10
1248.345685250565
 20
1650.138940743552
 30
0.0
 11
1241.595685250565
 21
1652.938940743552
 31
0.0
 70
    32
 71
     5
 42
13.5
  3
AM_ISO$0
100
AcDbAlignedDimension
 13
1234.845685250565
 23
1618.408940743552
 33
0.0
 14
1248.345685250565
 24
1639.437248982751
 34
0.0
100
AcDbRotatedDimension
  0
ARC
  5
55B0
330
1F
100
AcDbEntity
  8
0
  6
Continuous
 62
     2
100
AcDbCircle
 10
1236.159685250565
 20
1615.148940743551
 30
0.0
 40
3.761299999999999
100
AcDbArc
 50
300.9139999999987
 51
322.8129999999961
  0
ARC
  5
55B1
330
1F
100
AcDbEntity
  8
0
  6
Continuous
 62
     2
100
AcDbCircle
 10
1233.545685250565
 20
1615.168940743551
 30
0.0
 40
3.78473
100
AcDbArc
 50
216.9779999999995
 51
238.9310000000016
  0
ARC
  5
55B2
330
1F
100
AcDbEntity
  8
0
  6
Continuous
 62
     2
100
AcDbCircle
 10
1237.418685250565
 20
1614.308940743551
 30
0.0
 40
2.25289
100
AcDbArc
 50
320.1290000000018
 51
63.10489999999912
  0
ARC
  5
55B3
330
1F
100
AcDbEntity
  8
0
  6
Continuous
 62
     2
100
AcDbCircle
 10
1234.845685250565
 20
1610.228940743551
 30
0.0
 40
7.070819999999999
100
AcDbArc
 50
59.47319999999915
 51
120.5279999999987
  0
ARC
  5
55B4
330
1F
100
AcDbEntity
  8
0
  6
Continuous
 62
     7
100
AcDbCircle
 10
1233.545685250565
 20
1615.168940743551
 30
0.0
 40
3.242229999999999
100
AcDbArc
 50
216.8040000000048
 51
238.9310000000016
  0
ARC
  5
55B5
330
1F
100
AcDbEntity
  8
0
  6
Continuous
 62
     7
100
AcDbCircle
 10
1232.272685250565
 20
1614.308940743551
 30
0.0
 40
1.71039
100
AcDbArc
 50
128.0940000000034
 51
219.3140000000013
  0
ARC
  5
55B6
330
1F
100
AcDbEntity
  8
0
  6
Continuous
 62
     7
100
AcDbCircle
 10
1236.159685250565
 20
1615.148940743551
 30
0.0
 40
3.218799999999999
100
AcDbArc
 50
301.0229999999996
 51
323.0150000000015
  0
ARC
  5
55B7
330
1F
100
AcDbEntity
  8
0
  6
Continuous
 62
     7
100
AcDbCircle
 10
1234.845685250565
 20
1617.668940743551
 30
0.0
 40
6.059319999999999
100
AcDbArc
 50
240.617999999996
 51
299.389999999996
  0
ARC
  5
55B8
330
1F
100
AcDbEntity
  8
0
  6
Continuous
 62
     7
100
AcDbCircle
 10
1237.418685250565
 20
1614.308940743551
 30
0.0
 40
1.71039
100
AcDbArc
 50
320.1290000000018
 51
63.10489999999912
  0
ARC
  5
55B9
330
1F
100
AcDbEntity
  8
0
  6
Continuous
 62
     7
100
AcDbCircle
 10
1234.845685250565
 20
1610.228940743551
 30
0.0
 40
6.528319999999999
100
AcDbArc
 50
59.31310000000406
 51
123.7580000000022
  0
ARC
  5
55BA
330
1F
100
AcDbEntity
  8
0
  6
Continuous
 62
     2
100
AcDbCircle
 10
1232.272685250565
 20
1614.308940743551
 30
0.0
 40
2.25289
100
AcDbArc
 50
116.8980000000035
 51
219.3140000000013
  0
LINE
  5
55BB
330
1F
100
AcDbEntity
  8
AM_7
100
AcDbLine
 10
1241.287685250565
 20
1614.348940743552
 30
0.0
 11
1228.617685250565
 21
1614.348940743552
 31
0.0
  0
TEXT
  5
55BC
330
1F
100
AcDbEntity
  8
AM_5
100
AcDbText
 10
1276.862563841838
 20
1620.629260064342
 30
0.0
 40
3.2
  1
R
  7
China
100
AcDbText
  0
TEXT
  5
55BD
330
1F
100
AcDbEntity
  8
AM_5
100
AcDbText
 10
1280.862563841839
 20
1621.079260064342
 30
0.0
 40
1.6
  1
C
  7
China
100
AcDbText
  0
TEXT
  5
55BE
330
1F
100
AcDbEntity
  8
AM_5
100
AcDbText
 10
1263.528384078965
 20
1651.316291601691
 30
0.0
 40
3.2
  1
R
  7
China
100
AcDbText
  0
TEXT
  5
55BF
330
1F
100
AcDbEntity
  8
AM_5
100
AcDbText
 10
1283.579563841839
 20
1620.869260064343
 30
0.0
 40
3.2
  1
1/8
  7
China
100
AcDbText
  0
TEXT
  5
55C0
330
1F
100
AcDbEntity
  8
AM_5
100
AcDbText
 10
1270.072384078965
 20
1651.536291601691
 30
0.0
 40
3.2
  1
1/8
  7
China
100
AcDbText
  0
TEXT
  5
55C1
330
1F
100
AcDbEntity
  8
AM_5
100
AcDbText
 10
1267.441384078965
 20
1651.776291601691
 30
0.0
 40
1.6
  1
C
  7
China
100
AcDbText
  0
TEXT
  5
55C2
330
1F
100
AcDbEntity
  8
AM_5
100
AcDbText
 10
1259.173076193944
 20
1643.386392273531
 30
0.0
 40
3.2
  1
(Finger opening port)
  7
China
100
AcDbText
  0
TEXT
  5
55C3
330
1F
100
AcDbEntity
  8
AM_5
100
AcDbText
 10
1273.442569096403
 20
1613.927859676651
 30
0.0
 40
3.2
  1
(Finger closing port)
  7
China
100
AcDbText
  0
TEXT
  5
55C5
330
1F
100
AcDbEntity
  8
AM_5
100
AcDbText
 10
1021.371659824177
 20
1514.636462586815
 30
0.0
 40
3.2
  1
attachment)
  7
China
100
AcDbText
  0
TEXT
  5
55C6
330
1F
100
AcDbEntity
  8
AM_5
100
AcDbText
 10
1018.988608766891
 20
1518.964370434014
 30
0.0
 40
3.2
  1
(Thread for mounting 
  7
China
100
AcDbText
  0
TEXT
  5
55C7
330
1F
100
AcDbEntity
  8
AM_5
100
AcDbText
 10
955.1814527037253
 20
1508.293180819755
 30
0.0
 40
3.2
  1
(Mounting hole)
  7
China
100
AcDbText
  0
TEXT
  5
55C8
330
1F
100
AcDbEntity
  8
AM_5
100
AcDbText
 10
1406.043729562576
 20
1518.426343004391
 30
0.0
 40
3.2
  1
(Mounting thread)
  7
China
100
AcDbText
  0
LINE
  5
5779
330
1F
100
AcDbEntity
  8
AM_7
100
AcDbLine
 10
1325.430685327546
 20
1429.219700024423
 30
0.0
 11
1329.730685327546
 21
1429.219700024423
 31
0.0
1001
GENIUS_GENOREF_13
1005
577D
  0
LINE
  5
577A
330
1F
100
AcDbEntity
  8
AM_7
100
AcDbLine
 10
1325.430685327546
 20
1429.219700024423
 30
0.0
 11
1325.430685327546
 21
1433.519700024423
 31
0.0
1001
GENIUS_GENOREF_13
1005
577D
  0
LINE
  5
577B
330
1F
100
AcDbEntity
  8
AM_7
100
AcDbLine
 10
1325.430685327546
 20
1429.219700024423
 30
0.0
 11
1321.130685327547
 21
1429.219700024423
 31
0.0
1001
GENIUS_GENOREF_13
1005
577D
  0
LINE
  5
577C
330
1F
100
AcDbEntity
  8
AM_7
100
AcDbLine
 10
1325.430685327546
 20
1429.219700024423
 30
0.0
 11
1325.430685327546
 21
1424.919700024423
 31
0.0
1001
GENIUS_GENOREF_13
1005
577D
  0
POINT
  5
577D
330
1F
100
AcDbEntity
  8
0
 60
     1
100
AcDbPoint
 10
0.0
 20
0.0
 30
0.0
1001
GENIUS_GENOENT_13
1002
{
1000
MYREF
1005
577D
1002
}
1002
{
1000
GRP
1005
0
1002
}
1001
GENIUS_GENOBJ-N-CRS_13
1002
{
1000
OWNER
1000
GEN
1002
}
1001
GENIUS_GENOLIS_13
1002
{
1000
ENT
1005
577C
1005
577B
1005
577A
1005
5779
1002
}
1001
GENIUS_GENODEF_13
1002
{
1000
HIER
1070
    10
1002
}
1002
{
1000
MANEDIT
1070
     0
1002
}
1002
{
1000
NOSEL
1070
     0
1002
}
1002
{
1000
BEHIND
1070
     0
1002
}
1002
{
1000
OTHER
1070
     0
1002
}
1002
{
1000
REACTOR
1002
}
  0
LINE
  5
578B
330
1F
100
AcDbEntity
  8
AM_7
  6
AM_ISO08W050x2
100
AcDbLine
 10
1420.43068531702
 20
1429.220700024423
 30
0.0
 11
1424.43068516088
 21
1429.220700024423
 31
0.0
1001
GENIUS_GENOREF_13
1005
578F
  0
LINE
  5
578C
330
1F
100
AcDbEntity
  8
AM_7
  6
AM_ISO08W050x2
100
AcDbLine
 10
1420.43068531702
 20
1429.220700024423
 30
0.0
 11
1420.43068531702
 21
1433.220699868282
 31
0.0
1001
GENIUS_GENOREF_13
1005
578F
  0
LINE
  5
578D
330
1F
100
AcDbEntity
  8
AM_7
  6
AM_ISO08W050x2
100
AcDbLine
 10
1420.43068531702
 20
1429.220700024423
 30
0.0
 11
1416.430685473161
 21
1429.220700024423
 31
0.0
1001
GENIUS_GENOREF_13
1005
578F
  0
LINE
  5
578E
330
1F
100
AcDbEntity
  8
AM_7
  6
AM_ISO08W050x2
100
AcDbLine
 10
1420.43068531702
 20
1429.220700024423
 30
0.0
 11
1420.43068531702
 21
1425.220700180563
 31
0.0
1001
GENIUS_GENOREF_13
1005
578F
  0
POINT
  5
578F
330
1F
100
AcDbEntity
  8
0
 60
     1
100
AcDbPoint
 10
0.0
 20
0.0
 30
0.0
1001
GENIUS_GENOLIS_13
1002
{
1000
ENT
1005
578E
1005
578D
1005
578C
1005
578B
1002
}
1001
GENIUS_GENODEF_13
1002
{
1000
HIER
1070
    10
1002
}
1002
{
1000
MANEDIT
1070
     0
1002
}
1002
{
1000
NOSEL
1070
     0
1002
}
1002
{
1000
BEHIND
1070
     0
1002
}
1002
{
1000
OTHER
1070
     0
1002
}
1002
{
1000
REACTOR
1002
}
1001
GENIUS_GENOBJ-N-CRS_13
1002
{
1000
OWNER
1000
GEN
1002
}
1001
GENIUS_GENOENT_13
1002
{
1000
MYREF
1005
578F
1002
}
1002
{
1000
GRP
1005
0
1002
}
  0
CIRCLE
  5
5790
330
1F
100
AcDbEntity
  8
0
  6
Continuous
 62
     7
100
AcDbCircle
 10
1396.680685327547
 20
1388.083493344662
 30
0.0
 40
3.299999999999999
  0
CIRCLE
  5
5791
330
1F
100
AcDbEntity
  8
0
  6
Continuous
 62
     2
100
AcDbCircle
 10
1349.180685327547
 20
1470.355906704183
 30
0.0
 40
3.0
  0
CIRCLE
  5
5792
330
1F
100
AcDbEntity
  8
0
  6
Continuous
 62
     7
100
AcDbCircle
 10
1349.180685327547
 20
1470.355906704183
 30
0.0
 40
2.458499999999999
  0
LINE
  5
5793
330
1F
100
AcDbEntity
  8
AM_7
100
AcDbLine
 10
1396.680685327546
 20
1388.083493344661
 30
0.0
 11
1394.530685327546
 21
1391.807402580935
 31
0.0
1001
GENIUS_GENOREF_13
1005
579C
  0
LINE
  5
5794
330
1F
100
AcDbEntity
  8
AM_7
100
AcDbLine
 10
1396.680685327546
 20
1388.083493344661
 30
0.0
 11
1392.956776091273
 21
1385.933493344661
 31
0.0
1001
GENIUS_GENOREF_13
1005
579C
  0
LINE
  5
5795
330
1F
100
AcDbEntity
  8
AM_7
100
AcDbLine
 10
1396.680685327546
 20
1388.083493344661
 30
0.0
 11
1398.830685327546
 21
1384.359584108388
 31
0.0
1001
GENIUS_GENOREF_13
1005
579C
  0
LINE
  5
5796
330
1F
100
AcDbEntity
  8
AM_7
100
AcDbLine
 10
1396.680685327546
 20
1388.083493344661
 30
0.0
 11
1400.404594563819
 21
1390.233493344661
 31
0.0
1001
GENIUS_GENOREF_13
1005
579C
  0
LINE
  5
5797
330
1F
100
AcDbEntity
  8
AM_7
  6
AM_ISO08W050x2
100
AcDbLine
 10
1349.179819307406
 20
1470.355406695067
 30
0.0
 11
1347.179819385476
 21
1473.819508174983
 31
0.0
1001
GENIUS_GENOREF_13
1005
579B
  0
LINE
  5
5798
330
1F
100
AcDbEntity
  8
AM_7
  6
AM_ISO08W050x2
100
AcDbLine
 10
1349.179819307406
 20
1470.355406695067
 30
0.0
 11
1345.71571782749
 21
1468.355406773137
 31
0.0
1001
GENIUS_GENOREF_13
1005
579B
  0
LINE
  5
5799
330
1F
100
AcDbEntity
  8
AM_7
  6
AM_ISO08W050x2
100
AcDbLine
 10
1349.179819307406
 20
1470.355406695067
 30
0.0
 11
1351.179819229335
 21
1466.891305215151
 31
0.0
1001
GENIUS_GENOREF_13
1005
579B
  0
LINE
  5
579A
330
1F
100
AcDbEntity
  8
AM_7
  6
AM_ISO08W050x2
100
AcDbLine
 10
1349.179819307406
 20
1470.355406695067
 30
0.0
 11
1352.643920787322
 21
1472.355406616997
 31
0.0
1001
GENIUS_GENOREF_13
1005
579B
  0
POINT
  5
579B
330
1F
100
AcDbEntity
  8
0
 60
     1
100
AcDbPoint
 10
3347.061434269959
 20
926.0125799788687
 30
0.0
1001
GENIUS_GENOLIS_13
1002
{
1000
ENT
1005
579A
1005
5799
1005
5798
1005
5797
1002
}
1001
GENIUS_GENODEF_13
1002
{
1000
HIER
1070
    10
1002
}
1002
{
1000
MANEDIT
1070
     0
1002
}
1002
{
1000
NOSEL
1070
     0
1002
}
1002
{
1000
BEHIND
1070
     0
1002
}
1002
{
1000
OTHER
1070
     0
1002
}
1002
{
1000
REACTOR
1002
}
1001
GENIUS_GENOBJ-N-CRS_13
1002
{
1000
OWNER
1000
GEN
1002
}
1001
GENIUS_GENOENT_13
1002
{
1000
MYREF
1005
579B
1002
}
1002
{
1000
GRP
1005
0
1002
}
  0
POINT
  5
579C
330
1F
100
AcDbEntity
  8
0
 60
     1
100
AcDbPoint
 10
3347.061434269959
 20
926.0125799788687
 30
0.0
1001
GENIUS_GENOENT_13
1002
{
1000
MYREF
1005
579C
1002
}
1002
{
1000
GRP
1005
0
1002
}
1001
GENIUS_GENOBJ-N-CRS_13
1002
{
1000
OWNER
1000
GEN
1002
}
1001
GENIUS_GENOLIS_13
1002
{
1000
ENT
1005
5796
1005
5795
1005
5794
1005
5793
1002
}
1001
GENIUS_GENODEF_13
1002
{
1000
HIER
1070
    10
1002
}
1002
{
1000
MANEDIT
1070
     0
1002
}
1002
{
1000
NOSEL
1070
     0
1002
}
1002
{
1000
BEHIND
1070
     0
1002
}
1002
{
1000
OTHER
1070
     0
1002
}
1002
{
1000
REACTOR
1002
}
  0
CIRCLE
  5
579D
330
1F
100
AcDbEntity
  8
0
  6
Continuous
 62
     7
100
AcDbCircle
 10
1396.680685327547
 20
1470.355906704183
 30
0.0
 40
3.299999999999999
  0
CIRCLE
  5
579E
330
1F
100
AcDbEntity
  8
0
  6
Continuous
 62
     2
100
AcDbCircle
 10
1349.180685327546
 20
1388.083493344661
 30
0.0
 40
3.0
  0
CIRCLE
  5
579F
330
1F
100
AcDbEntity
  8
0
  6
Continuous
 62
     7
100
AcDbCircle
 10
1349.180685327546
 20
1388.083493344661
 30
0.0
 40
2.458499999999999
  0
LINE
  5
57A0
330
1F
100
AcDbEntity
  8
AM_7
100
AcDbLine
 10
1396.680685327547
 20
1470.355906704183
 30
0.0
 11
1394.530685327547
 21
1466.63199746791
 31
0.0
1001
GENIUS_GENOREF_13
1005
57A9
  0
LINE
  5
57A1
330
1F
100
AcDbEntity
  8
AM_7
100
AcDbLine
 10
1396.680685327547
 20
1470.355906704183
 30
0.0
 11
1400.40459456382
 21
1468.205906704183
 31
0.0
1001
GENIUS_GENOREF_13
1005
57A9
  0
LINE
  5
57A2
330
1F
100
AcDbEntity
  8
AM_7
100
AcDbLine
 10
1396.680685327547
 20
1470.355906704183
 30
0.0
 11
1398.830685327547
 21
1474.079815940456
 31
0.0
1001
GENIUS_GENOREF_13
1005
57A9
  0
LINE
  5
57A3
330
1F
100
AcDbEntity
  8
AM_7
100
AcDbLine
 10
1396.680685327547
 20
1470.355906704183
 30
0.0
 11
1392.956776091273
 21
1472.505906704183
 31
0.0
1001
GENIUS_GENOREF_13
1005
57A9
  0
LINE
  5
57A4
330
1F
100
AcDbEntity
  8
AM_7
  6
AM_ISO08W050x2
100
AcDbLine
 10
1349.181551358214
 20
1388.082993353777
 30
0.0
 11
1347.181551436284
 21
1384.618891873861
 31
0.0
1001
GENIUS_GENOREF_13
1005
57A8
  0
LINE
  5
57A5
330
1F
100
AcDbEntity
  8
AM_7
  6
AM_ISO08W050x2
100
AcDbLine
 10
1349.181551358214
 20
1388.082993353777
 30
0.0
 11
1352.64565283813
 21
1386.082993431847
 31
0.0
1001
GENIUS_GENOREF_13
1005
57A8
  0
LINE
  5
57A6
330
1F
100
AcDbEntity
  8
AM_7
  6
AM_ISO08W050x2
100
AcDbLine
 10
1349.181551358214
 20
1388.082993353777
 30
0.0
 11
1351.181551280143
 21
1391.547094833693
 31
0.0
1001
GENIUS_GENOREF_13
1005
57A8
  0
LINE
  5
57A7
330
1F
100
AcDbEntity
  8
AM_7
  6
AM_ISO08W050x2
100
AcDbLine
 10
1349.181551358214
 20
1388.082993353777
 30
0.0
 11
1345.717449878297
 21
1390.082993275707
 31
0.0
1001
GENIUS_GENOREF_13
1005
57A8
  0
POINT
  5
57A8
330
1F
100
AcDbEntity
  8
0
 60
     1
100
AcDbPoint
 10
871.5802986493107
 20
3361.646520094399
 30
0.0
1001
GENIUS_GENOLIS_13
1002
{
1000
ENT
1005
57A7
1005
57A6
1005
57A5
1005
57A4
1002
}
1001
GENIUS_GENODEF_13
1002
{
1000
HIER
1070
    10
1002
}
1002
{
1000
MANEDIT
1070
     0
1002
}
1002
{
1000
NOSEL
1070
     0
1002
}
1002
{
1000
BEHIND
1070
     0
1002
}
1002
{
1000
OTHER
1070
     0
1002
}
1002
{
1000
REACTOR
1002
}
1001
GENIUS_GENOBJ-N-CRS_13
1002
{
1000
OWNER
1000
GEN
1002
}
1001
GENIUS_GENOENT_13
1002
{
1000
MYREF
1005
57A8
1002
}
1002
{
1000
GRP
1005
0
1002
}
  0
POINT
  5
57A9
330
1F
100
AcDbEntity
  8
0
 60
     1
100
AcDbPoint
 10
871.5802986493107
 20
3361.646520094399
 30
0.0
1001
GENIUS_GENOENT_13
1002
{
1000
MYREF
1005
57A9
1002
}
1002
{
1000
GRP
1005
0
1002
}
1001
GENIUS_GENOBJ-N-CRS_13
1002
{
1000
OWNER
1000
GEN
1002
}
1001
GENIUS_GENOLIS_13
1002
{
1000
ENT
1005
57A3
1005
57A2
1005
57A1
1005
57A0
1002
}
1001
GENIUS_GENODEF_13
1002
{
1000
HIER
1070
    10
1002
}
1002
{
1000
MANEDIT
1070
     0
1002
}
1002
{
1000
NOSEL
1070
     0
1002
}
1002
{
1000
BEHIND
1070
     0
1002
}
1002
{
1000
OTHER
1070
     0
1002
}
1002
{
1000
REACTOR
1002
}
  0
CIRCLE
  5
57B0
330
1F
100
AcDbEntity
  8
0
  6
Continuous
 62
     7
100
AcDbCircle
 10
1379.13136975568
 20
1476.313700024422
 30
0.0
 40
3.0
  0
LINE
  5
57BE
330
1F
100
AcDbEntity
  8
AM_7
100
AcDbLine
 10
1372.930685327546
 20
1429.219700024423
 30
0.0
 11
1437.911685335361
 21
1429.219700024423
 31
0.0
1001
GENIUS_GENOREF_13
1005
57C2
  0
LINE
  5
57BF
330
1F
100
AcDbEntity
  8
AM_7
100
AcDbLine
 10
1372.930685327546
 20
1429.219700024423
 30
0.0
 11
1372.930685327546
 21
1494.200700032237
 31
0.0
1001
GENIUS_GENOREF_13
1005
57C2
  0
LINE
  5
57C0
330
1F
100
AcDbEntity
  8
AM_7
100
AcDbLine
 10
1372.930685327546
 20
1429.219700024423
 30
0.0
 11
1307.949685319732
 21
1429.219700024423
 31
0.0
1001
GENIUS_GENOREF_13
1005
57C2
  0
LINE
  5
57C1
330
1F
100
AcDbEntity
  8
AM_7
100
AcDbLine
 10
1372.930685327546
 20
1429.219700024423
 30
0.0
 11
1372.930685327546
 21
1364.238700016608
 31
0.0
1001
GENIUS_GENOREF_13
1005
57C2
  0
POINT
  5
57C2
330
1F
100
AcDbEntity
  8
0
 60
     1
100
AcDbPoint
 10
0.0
 20
0.0
 30
0.0
1001
GENIUS_GENODEF_13
1002
{
1000
HIER
1070
    10
1002
}
1002
{
1000
MANEDIT
1070
     0
1002
}
1002
{
1000
NOSEL
1070
     0
1002
}
1002
{
1000
BEHIND
1070
     0
1002
}
1002
{
1000
OTHER
1070
     0
1002
}
1002
{
1000
REACTOR
1002
}
1001
GENIUS_GENOLIS_13
1002
{
1000
ENT
1005
57C1
1005
57C0
1005
57BF
1005
57BE
1002
}
1001
GENIUS_GENOENT_13
1002
{
1000
MYREF
1005
57C2
1002
}
1002
{
1000
GRP
1005
0
1002
}
1001
GENIUS_GENOBJ-N-CRS_13
1002
{
1000
OWNER
1000
GEN
1002
}
  0
ENDSEC
  0
SECTION
  2
OBJECTS
  0
DICTIONARY
  5
C
330
0
100
AcDbDictionary
281
     1
  3
ACAD_COLOR
350
8FD
  3
ACAD_GROUP
350
D
  3
ACAD_LAYOUT
350
1A
  3
ACAD_MATERIAL
350
8FC
  3
ACAD_MLINESTYLE
350
17
  3
ACAD_PLOTSETTINGS
350
19
  3
ACAD_PLOTSTYLENAME
350
E
  3
ACAD_TABLESTYLE
350
8FE
  3
ACDBHEADERROUNDTRIPXREC
350
5CBA
  3
AcDbVariableDictionary
350
82
  3
AcmDictionary
350
45
  3
AMG
350
2B
  3
AMGSNAPSETTINGS
350
2026
  3
DWGPROPS
350
5CB9
  0
DICTIONARY
  5
E05
330
2
100
AcDbDictionary
280
     1
281
     1
  3
ACAD_LAYERFILTERS
360
E57
  3
ACAD_LAYERSTATES
360
E80
  3
ACLYDICTIONARY
360
E56
  3
AMLAYER_GROUPCOLORS
360
1991
  0
DICTIONARY
  5
7D
330
1F
100
AcDbDictionary
280
     1
281
     1
  3
ACAD_SORTENTS
360
19C4
  0
DICTIONARY
  5
8FD
102
{ACAD_REACTORS
330
C
102
}
330
C
100
AcDbDictionary
281
     1
  0
DICTIONARY
  5
D
102
{ACAD_REACTORS
330
C
102
}
330
C
100
AcDbDictionary
281
     1
  0
DICTIONARY
  5
1A
102
{ACAD_REACTORS
330
C
102
}
330
C
100
AcDbDictionary
281
     1
  3
Layout1
350
1E
  3
Layout2
350
26
  3
Model
350
22
  0
DICTIONARY
  5
8FC
102
{ACAD_REACTORS
330
C
102
}
330
C
100
AcDbDictionary
281
     1
  0
DICTIONARY
  5
17
102
{ACAD_REACTORS
330
C
102
}
330
C
100
AcDbDictionary
281
     1
  3
Standard
350
18
  0
DICTIONARY
  5
19
102
{ACAD_REACTORS
330
C
102
}
330
C
100
AcDbDictionary
281
     1
  0
ACDBDICTIONARYWDFLT
  5
E
102
{ACAD_REACTORS
330
C
102
}
330
C
100
AcDbDictionary
281
     1
  3
Normal
350
F
100
AcDbDictionaryWithDefault
340
F
  0
DICTIONARY
  5
8FE
102
{ACAD_REACTORS
330
C
102
}
330
C
100
AcDbDictionary
281
     1
  3
Standard
350
8FF
  0
DICTIONARY
  5
5CBA
102
{ACAD_REACTORS
330
C
102
}
330
C
100
AcDbDictionary
281
     1
  0
DICTIONARY
  5
82
102
{ACAD_REACTORS
330
C
102
}
330
C
100
AcDbDictionary
281
     1
  3
CTABLESTYLE
350
972
  3
DIMASSOC
350
85
  3
HIDETEXT
350
84
  3
INDEXCTL
350
83
  3
PROJECTNAME
350
973
  0
DICTIONARY
  5
45
102
{ACAD_REACTORS
330
C
102
}
330
C
100
AcDbDictionary
281
     1
  3
AcmStdDictionary
350
4A
  3
AMDTSECTSYM_ARROWCOLOR
350
90B
  0
DICTIONARY
  5
2B
102
{ACAD_REACTORS
330
C
102
}
330
C
100
AcDbDictionary
281
     1
  0
DICTIONARY
  5
2026
102
{ACAD_REACTORS
330
C
102
}
330
C
100
AcDbDictionary
281
     1
  0
XRECORD
  5
5CB9
102
{ACAD_REACTORS
330
C
102
}
330
C
100
AcDbXrecord
280
     1
  1
DWGPROPS COOKIE
  2

  3

  4

  6

  7

  8

  9

300
AmdtFileType=84
301
=
302
=
303
=
304
=
305
=
306
=
307
=
308
=
309
=
 40
0.4632685069444445
 41
2453021.369367211
 42
2453805.584367222
  1

 90
        1
  0
DICTIONARY
  5
E57
102
{ACAD_REACTORS
330
E05
102
}
330
E05
100
AcDbDictionary
281
     1
  0
DICTIONARY
  5
E80
102
{ACAD_REACTORS
330
E05
102
}
330
E05
100
AcDbDictionary
281
     1
  0
DICTIONARY
  5
E56
102
{ACAD_REACTORS
330
E05
102
}
330
E05
100
AcDbDictionary
281
     1
1001
ACAD
1000
<All
  0
DICTIONARY
  5
1991
102
{ACAD_REACTORS
330
E05
102
}
330
E05
100
AcDbDictionary
280
     1
281
     1
  0
SORTENTSTABLE
  5
19C4
102
{ACAD_REACTORS
330
7D
102
}
330
7D
100
AcDbSortentsTable
330
1F
331
AE3
  5
AE3
  0
LAYOUT
  5
1E
102
{ACAD_XDICTIONARY
360
5CBB
102
}
102
{ACAD_REACTORS
330
1A
102
}
330
1A
100
AcDbPlotSettings
  1

  2
自動 RD 上的 Epson Stylus Photo 750 單色
  4

  6

 40
0.0
 41
0.0
 42
0.0
 43
0.0
 44
0.0
 45
0.0
 46
0.0
 47
0.0
 48
0.0
 49
0.0
140
0.0
141
0.0
142
1.0
143
1.0
 70
   688
 72
     0
 73
     0
 74
     5
  7
彩色出圖.ctb
 75
    16
147
1.0
148
0.0
149
0.0
100
AcDbLayout
  1
Layout1
 70
     1
 71
     1
 10
0.0
 20
0.0
 11
420.0
 21
297.0
 12
0.0
 22
0.0
 32
0.0
 14
1.000000000000000E+20
 24
1.000000000000000E+20
 34
1.000000000000000E+20
 15
-1.000000000000000E+20
 25
-1.000000000000000E+20
 35
-1.000000000000000E+20
146
0.0
 13
0.0
 23
0.0
 33
0.0
 16
1.0
 26
0.0
 36
0.0
 17
0.0
 27
1.0
 37
0.0
 76
     0
330
1B
  0
LAYOUT
  5
26
102
{ACAD_XDICTIONARY
360
5CBF
102
}
102
{ACAD_REACTORS
330
1A
102
}
330
1A
100
AcDbPlotSettings
  1

  2
自動 RD 上的 Epson Stylus Photo 750 單色
  4

  6

 40
0.0
 41
0.0
 42
0.0
 43
0.0
 44
0.0
 45
0.0
 46
0.0
 47
0.0
 48
0.0
 49
0.0
140
0.0
141
0.0
142
1.0
143
1.0
 70
   688
 72
     0
 73
     0
 74
     5
  7
彩色出圖.ctb
 75
    16
147
1.0
148
0.0
149
0.0
100
AcDbLayout
  1
Layout2
 70
     1
 71
     2
 10
0.0
 20
0.0
 11
12.0
 21
9.0
 12
0.0
 22
0.0
 32
0.0
 14
0.0
 24
0.0
 34
0.0
 15
0.0
 25
0.0
 35
0.0
146
0.0
 13
0.0
 23
0.0
 33
0.0
 16
1.0
 26
0.0
 36
0.0
 17
0.0
 27
1.0
 37
0.0
 76
     0
330
23
  0
LAYOUT
  5
22
102
{ACAD_XDICTIONARY
360
5CBD
102
}
102
{ACAD_REACTORS
330
1A
102
}
330
1A
100
AcDbPlotSettings
  1

  2
自動 RD 上的 Epson Stylus Photo 750 單色
  4
A4
  6

 40
3.757083177566528
 41
14.7637300491333
 42
3.757080078125
 43
3.757080078125
 44
209.9733276367187
 45
296.9683227539062
 46
7.54
 47
0.0
 48
0.0
 49
0.0
140
0.0
141
0.0
142
1.0
143
1.817317462545654
 70
 11956
 72
     1
 73
     0
 74
     1
  7
彩色出圖.ctb
 75
     0
147
0.5502615919395967
148
-125.5654918467224
149
222.8859553785132
100
AcDbLayout
  1
Model
 70
     1
 71
     0
 10
0.0
 20
0.0
 11
12.0
 21
9.0
 12
0.0
 22
0.0
 32
0.0
 14
0.0
 24
0.0
 34
0.0
 15
0.0
 25
0.0
 35
0.0
146
0.0
 13
0.0
 23
0.0
 33
0.0
 16
1.0
 26
0.0
 36
0.0
 17
0.0
 27
1.0
 37
0.0
 76
     0
330
1F
  0
MLINESTYLE
  5
18
102
{ACAD_REACTORS
330
17
102
}
330
17
100
AcDbMlineStyle
  2
STANDARD
 70
     0
  3

 62
   256
 51
90.0
 52
90.0
 71
     2
 49
0.5
 62
   256
  6
BYLAYER
 49
-0.5
 62
   256
  6
BYLAYER
  0
ACDBPLACEHOLDER
  5
F
102
{ACAD_REACTORS
330
E
102
}
330
E
  0
TABLESTYLE
  5
8FF
102
{ACAD_REACTORS
330
8FE
102
}
330
8FE
100
AcDbTableStyle
  3
Standard
 70
     0
 71
     0
 40
1.5
 41
1.5
280
     0
281
     0
  7
STANDARD
140
4.5
170
     2
 62
     0
 63
     7
283
     0
274
    -2
284
     1
 64
     0
275
    -2
285
     1
 65
     0
276
    -2
286
     1
 66
     0
277
    -2
287
     1
 67
     0
278
    -2
288
     1
 68
     0
279
    -2
289
     1
 69
     0
  7
STANDARD
140
6.0
170
     5
 62
     0
 63
     7
283
     0
274
    -2
284
     1
 64
     0
275
    -2
285
     1
 65
     0
276
    -2
286
     1
 66
     0
277
    -2
287
     1
 67
     0
278
    -2
288
     1
 68
     0
279
    -2
289
     1
 69
     0
  7
STANDARD
140
4.5
170
     5
 62
     0
 63
     7
283
     0
274
    -2
284
     1
 64
     0
275
    -2
285
     1
 65
     0
276
    -2
286
     1
 66
     0
277
    -2
287
     1
 67
     0
278
    -2
288
     1
 68
     0
279
    -2
289
     1
 69
     0
  0
DICTIONARYVAR
  5
972
102
{ACAD_REACTORS
330
82
102
}
330
82
100
DictionaryVariables
280
     0
  1
STANDARD
  0
DICTIONARYVAR
  5
85
102
{ACAD_REACTORS
330
82
102
}
330
82
100
DictionaryVariables
280
     0
  1
2
  0
DICTIONARYVAR
  5
84
102
{ACAD_REACTORS
330
82
102
}
330
82
100
DictionaryVariables
280
     0
  1
1
  0
DICTIONARYVAR
  5
83
102
{ACAD_REACTORS
330
82
102
}
330
82
100
DictionaryVariables
280
     0
  1
0
  0
DICTIONARYVAR
  5
973
102
{ACAD_REACTORS
330
82
102
}
330
82
100
DictionaryVariables
280
     0
  1

  0
DICTIONARY
  5
4A
102
{ACAD_REACTORS
330
45
102
}
330
45
100
AcDbDictionary
281
     1
  0
XRECORD
  5
90B
102
{ACAD_REACTORS
330
45
102
}
330
45
100
AcDbXrecord
280
     1
 90
-1023410169
  0
DICTIONARY
  5
5CBB
330
1E
100
AcDbDictionary
280
     1
281
     1
  3
ACAD_XREC_ROUNDTRIP
360
5CBC
  0
DICTIONARY
  5
5CBF
330
26
100
AcDbDictionary
280
     1
281
     1
  3
ACAD_XREC_ROUNDTRIP
360
5CC0
  0
DICTIONARY
  5
5CBD
330
22
100
AcDbDictionary
280
     1
281
     1
  3
ACAD_XREC_ROUNDTRIP
360
5CBE
  0
XRECORD
  5
5CBC
102
{ACAD_REACTORS
330
5CBB
102
}
330
5CBB
100
AcDbXrecord
280
     1
102
SHADEPLOT
 70
     0
102
SHADEPLOTRESLEVEL
 70
     2
102
SHADEPLOTCUSTOMDPI
 70
   300
  0
XRECORD
  5
5CC0
102
{ACAD_REACTORS
330
5CBF
102
}
330
5CBF
100
AcDbXrecord
280
     1
102
SHADEPLOT
 70
     0
102
SHADEPLOTRESLEVEL
 70
     2
102
SHADEPLOTCUSTOMDPI
 70
   300
  0
XRECORD
  5
5CBE
102
{ACAD_REACTORS
330
5CBD
102
}
330
5CBD
100
AcDbXrecord
280
     1
102
SHADEPLOT
 70
     0
102
SHADEPLOTRESLEVEL
 70
     2
102
SHADEPLOTCUSTOMDPI
 70
   300
  0
ENDSEC
  0
EOF
