  0
SECTION
  2
HEADER
  9
$ACADVER
  1
AC1015
  9
$ACADMAINTVER
 70
    20
  9
$DWGCODEPAGE
  3
ANSI_950
  9
$INSBASE
 10
0.0
 20
0.0
 30
0.0
  9
$EXTMIN
 10
490.07568757648
 20
284.1739435081684
 30
-0.0047165663854116
  9
$EXTMAX
 10
806.3204098252931
 20
512.3986132513646
 30
139.1092309268918
  9
$LIMMIN
 10
0.0
 20
0.0
  9
$LIMMAX
 10
0.0
 20
0.0
  9
$ORTHOMODE
 70
     1
  9
$REGENMODE
 70
     1
  9
$FILLMODE
 70
     1
  9
$QTEXTMODE
 70
     0
  9
$MIRRTEXT
 70
     1
  9
$LTSCALE
 40
1.0
  9
$ATTMODE
 70
     1
  9
$TEXTSIZE
 40
3.5
  9
$TRACEWID
 40
0.05
  9
$TEXTSTYLE
  7
STANDARD
  9
$CLAYER
  8
0
  9
$CELTYPE
  6
CONTINUOUS
  9
$CECOLOR
 62
   256
  9
$CELTSCALE
 40
1.0
  9
$DISPSILH
 70
     0
  9
$DIMSCALE
 40
1.0
  9
$DIMASZ
 40
3.0
  9
$DIMEXO
 40
1.0
  9
$DIMDLI
 40
7.0
  9
$DIMRND
 40
0.0
  9
$DIMDLE
 40
0.0
  9
$DIMEXE
 40
1.0
  9
$DIMTP
 40
0.1
  9
$DIMTM
 40
0.1
  9
$DIMTXT
 40
3.5
  9
$DIMCEN
 40
0.0
  9
$DIMTSZ
 40
0.0
  9
$DIMTOL
 70
     0
  9
$DIMLIM
 70
     0
  9
$DIMTIH
 70
     0
  9
$DIMTOH
 70
     0
  9
$DIMSE1
 70
     0
  9
$DIMSE2
 70
     0
  9
$DIMTAD
 70
     1
  9
$DIMZIN
 70
     8
  9
$DIMBLK
  1

  9
$DIMASO
 70
     1
  9
$DIMSHO
 70
     1
  9
$DIMPOST
  1

  9
$DIMAPOST
  1
"
  9
$DIMALT
 70
     0
  9
$DIMALTD
 70
     2
  9
$DIMALTF
 40
0.0393701
  9
$DIMLFAC
 40
1.0
  9
$DIMTOFL
 70
     1
  9
$DIMTVP
 40
0.0
  9
$DIMTIX
 70
     0
  9
$DIMSOXD
 70
     0
  9
$DIMSAH
 70
     0
  9
$DIMBLK1
  1

  9
$DIMBLK2
  1

  9
$DIMSTYLE
  2
AM_ISO
  9
$DIMCLRD
 70
   256
  9
$DIMCLRE
 70
   256
  9
$DIMCLRT
 70
   256
  9
$DIMTFAC
 40
0.71
  9
$DIMGAP
 40
1.0
  9
$DIMJUST
 70
     0
  9
$DIMSD1
 70
     0
  9
$DIMSD2
 70
     0
  9
$DIMTOLJ
 70
     0
  9
$DIMTZIN
 70
     8
  9
$DIMALTZ
 70
     0
  9
$DIMALTTZ
 70
     0
  9
$DIMUPT
 70
     0
  9
$DIMDEC
 70
     2
  9
$DIMTDEC
 70
     8
  9
$DIMALTU
 70
     2
  9
$DIMALTTD
 70
     2
  9
$DIMTXSTY
  7
STANDARD
  9
$DIMAUNIT
 70
     0
  9
$DIMADEC
 70
     2
  9
$DIMALTRND
 40
0.0
  9
$DIMAZIN
 70
     2
  9
$DIMDSEP
 70
    46
  9
$DIMATFIT
 70
     3
  9
$DIMFRAC
 70
     0
  9
$DIMLDRBLK
  1

  9
$DIMLUNIT
 70
     2
  9
$DIMLWD
 70
    -1
  9
$DIMLWE
 70
    -1
  9
$DIMTMOVE
 70
     0
  9
$LUNITS
 70
     2
  9
$LUPREC
 70
     2
  9
$SKETCHINC
 40
0.1
  9
$FILLETRAD
 40
2.5
  9
$AUNITS
 70
     0
  9
$AUPREC
 70
     0
  9
$MENU
  1
acad
  9
$ELEVATION
 40
0.0
  9
$PELEVATION
 40
0.0
  9
$THICKNESS
 40
0.0
  9
$LIMCHECK
 70
     0
  9
$CHAMFERA
 40
2.5
  9
$CHAMFERB
 40
2.5
  9
$CHAMFERC
 40
0.0
  9
$CHAMFERD
 40
0.0
  9
$SKPOLY
 70
     0
  9
$TDCREATE
 40
2452359.824870255
  9
$TDUCREATE
 40
2452359.491536922
  9
$TDUPDATE
 40
2455323.552245150
  9
$TDUUPDATE
 40
2455323.218911817
  9
$TDINDWG
 40
0.1237413079
  9
$TDUSRTIMER
 40
0.1237400347
  9
$USRTIMER
 70
     1
  9
$ANGBASE
 50
0.0
  9
$ANGDIR
 70
     0
  9
$PDMODE
 70
     0
  9
$PDSIZE
 40
-1.0
  9
$PLINEWID
 40
0.0
  9
$SPLFRAME
 70
     0
  9
$SPLINETYPE
 70
     6
  9
$SPLINESEGS
 70
     8
  9
$HANDSEED
  5
20B1
  9
$SURFTAB1
 70
     6
  9
$SURFTAB2
 70
     6
  9
$SURFTYPE
 70
     6
  9
$SURFU
 70
     6
  9
$SURFV
 70
     6
  9
$UCSBASE
  2

  9
$UCSNAME
  2

  9
$UCSORG
 10
0.0
 20
0.0
 30
0.0
  9
$UCSXDIR
 10
1.0
 20
0.0
 30
0.0
  9
$UCSYDIR
 10
0.0
 20
1.0
 30
0.0
  9
$UCSORTHOREF
  2

  9
$UCSORTHOVIEW
 70
     0
  9
$UCSORGTOP
 10
0.0
 20
0.0
 30
0.0
  9
$UCSORGBOTTOM
 10
0.0
 20
0.0
 30
0.0
  9
$UCSORGLEFT
 10
0.0
 20
0.0
 30
0.0
  9
$UCSORGRIGHT
 10
0.0
 20
0.0
 30
0.0
  9
$UCSORGFRONT
 10
0.0
 20
0.0
 30
0.0
  9
$UCSORGBACK
 10
0.0
 20
0.0
 30
0.0
  9
$PUCSBASE
  2

  9
$PUCSNAME
  2

  9
$PUCSORG
 10
0.0
 20
0.0
 30
0.0
  9
$PUCSXDIR
 10
1.0
 20
0.0
 30
0.0
  9
$PUCSYDIR
 10
0.0
 20
1.0
 30
0.0
  9
$PUCSORTHOREF
  2

  9
$PUCSORTHOVIEW
 70
     0
  9
$PUCSORGTOP
 10
0.0
 20
0.0
 30
0.0
  9
$PUCSORGBOTTOM
 10
0.0
 20
0.0
 30
0.0
  9
$PUCSORGLEFT
 10
0.0
 20
0.0
 30
0.0
  9
$PUCSORGRIGHT
 10
0.0
 20
0.0
 30
0.0
  9
$PUCSORGFRONT
 10
0.0
 20
0.0
 30
0.0
  9
$PUCSORGBACK
 10
0.0
 20
0.0
 30
0.0
  9
$USERI1
 70
     0
  9
$USERI2
 70
     0
  9
$USERI3
 70
     0
  9
$USERI4
 70
     0
  9
$USERI5
 70
     0
  9
$USERR1
 40
0.0
  9
$USERR2
 40
0.0
  9
$USERR3
 40
0.0
  9
$USERR4
 40
0.0
  9
$USERR5
 40
0.0
  9
$WORLDVIEW
 70
     1
  9
$SHADEDGE
 70
     3
  9
$SHADEDIF
 70
    70
  9
$TILEMODE
 70
     1
  9
$MAXACTVP
 70
    16
  9
$PINSBASE
 10
0.0
 20
0.0
 30
0.0
  9
$PLIMCHECK
 70
     0
  9
$PEXTMIN
 10
1.000000000000000E+20
 20
1.000000000000000E+20
 30
1.000000000000000E+20
  9
$PEXTMAX
 10
-1.000000000000000E+20
 20
-1.000000000000000E+20
 30
-1.000000000000000E+20
  9
$PLIMMIN
 10
0.0
 20
0.0
  9
$PLIMMAX
 10
12.0
 20
9.0
  9
$UNITMODE
 70
     0
  9
$VISRETAIN
 70
     0
  9
$PLINEGEN
 70
     1
  9
$PSLTSCALE
 70
     1
  9
$TREEDEPTH
 70
  3020
  9
$CMLSTYLE
  2
STANDARD
  9
$CMLJUST
 70
     0
  9
$CMLSCALE
 40
1.0
  9
$PROXYGRAPHICS
 70
     0
  9
$MEASUREMENT
 70
     1
  9
$CELWEIGHT
370
     0
  9
$ENDCAPS
280
     0
  9
$JOINSTYLE
280
     0
  9
$LWDISPLAY
290
     0
  9
$INSUNITS
 70
     4
  9
$HYPERLINKBASE
  1

  9
$STYLESHEET
  1

  9
$XEDIT
290
     1
  9
$CEPSNTYPE
380
     0
  9
$PSTYLEMODE
290
     1
  9
$FINGERPRINTGUID
  2

  9
$VERSIONGUID
  2
{DEEB6046-9331-431C-A80C-24509470C651}
  9
$EXTNAMES
290
     1
  9
$PSVPSCALE
 40
0.0
  9
$OLESTARTUP
290
     0
  0
ENDSEC
  0
SECTION
  2
CLASSES
  0
CLASS
  1
IMAGE
  2
AcDbRasterImage
  3
ISM
 90
    32895
280
     0
281
     1
  0
CLASS
  1
DICTIONARYVAR
  2
AcDbDictionaryVar
  3
ObjectDBX Classes
 90
        0
280
     0
281
     0
  0
CLASS
  1
RASTERVARIABLES
  2
AcDbRasterVariables
  3
ISM
 90
    32768
280
     0
281
     0
  0
CLASS
  1
IMAGEDEF
  2
AcDbRasterImageDef
  3
ISM
 90
    32768
280
     0
281
     0
  0
CLASS
  1
IMAGEDEF_REACTOR
  2
AcDbRasterImageDefReactor
  3
ISM
 90
    32769
280
     0
281
     0
  0
CLASS
  1
IDBUFFER
  2
AcDbIdBuffer
  3
ObjectDBX Classes
 90
        0
280
     0
281
     0
  0
CLASS
  1
SPATIAL_FILTER
  2
AcDbSpatialFilter
  3
ObjectDBX Classes
 90
    32768
280
     0
281
     0
  0
CLASS
  1
SORTENTSTABLE
  2
AcDbSortentsTable
  3
ObjectDBX Classes
 90
        0
280
     0
281
     0
  0
CLASS
  1
LAYER_INDEX
  2
AcDbLayerIndex
  3
ObjectDBX Classes
 90
        0
280
     0
281
     0
  0
CLASS
  1
SPATIAL_INDEX
  2
AcDbSpatialIndex
  3
ObjectDBX Classes
 90
    32768
280
     0
281
     0
  0
CLASS
  1
OBJECT_PTR
  2
CAseDLPNTableRecord
  3
"ASE-LPNTableRecord"
 90
    32769
280
     0
281
     0
  0
CLASS
  1
LAYOUT
  2
AcDbLayout
  3
ObjectDBX Classes
 90
        0
280
     0
281
     0
  0
CLASS
  1
PLOTSETTINGS
  2
AcDbPlotSettings
  3
ObjectDBX Classes
 90
    32768
280
     0
281
     0
  0
CLASS
  1
ACDBDICTIONARYWDFLT
  2
AcDbDictionaryWithDefault
  3
ObjectDBX Classes
 90
        0
280
     0
281
     0
  0
CLASS
  1
ACDBPLACEHOLDER
  2
AcDbPlaceHolder
  3
ObjectDBX Classes
 90
        0
280
     0
281
     0
  0
CLASS
  1
VBA_PROJECT
  2
AcDbVbaProject
  3
acad
 90
    32768
280
     0
281
     0
  0
CLASS
  1
WIPEOUT
  2
AcDbWipeout
  3
"WipeOut|Product Desc: Object Enabler for WipeOut entity^I^I^I^I^I^I|Company: Autodesk, Inc.^I^I^I^I^I^I|WEB Address: www.autodesk.com"
 90
    32895
280
     0
281
     1
  0
CLASS
  1
WIPEOUTVARIABLES
  2
AcDbWipeoutVariables
  3
"WipeOut|Product Desc:     WipeOut Dbx Application|Company:          Autodesk, Inc.|WEB Address:      www.autodesk.com"
 90
        0
280
     0
281
     0
  0
CLASS
  1
RTEXT
  2
RText
  3
RText|AutoCAD Express Tool|expresstools@autodesk.com
 90
    32768
280
     0
281
     1
  0
CLASS
  1
ARCALIGNEDTEXT
  2
AcDbArcAlignedText
  3
ATEXT|AutoCAD Express Tool|expresstools@autodesk.com
 90
    32768
280
     0
281
     0
  0
CLASS
  1
ACAD_PROXY_OBJECT_WRAPPER
  2
AcDbProxyObjectWrapper
  3
ObjectDBX Classes
 90
    32768
280
     0
281
     0
  0
CLASS
  1
TABLESTYLE
  2
AcDbTableStyle
  3
ObjectDBX Classes
 90
     2047
280
     0
281
     0
  0
CLASS
  1
ACME_DOCUMENT
  2
AcMeDbDoc
  3
AcMeServices
 90
        0
280
     0
281
     0
  0
CLASS
  1
AMGSETTINGSOBJ
  2
AmgSettingsObj
  3
"AcadM|Product Description: AutoCAD Mechanical 2000|Company: Autodesk"
 90
        0
280
     0
281
     0
  0
CLASS
  1
ACMESCOPE
  2
AcMeScope
  3
AcMeServices
 90
        0
280
     0
281
     0
  0
CLASS
  1
ACMECOMMANDHISTORY
  2
AcMeCommandHistory
  3
AcMeServices
 90
        0
280
     0
281
     0
  0
CLASS
  1
ACIMSYSVARMAN
  2
AcImSysVarManager
  3
AcMeServices
 90
        0
280
     0
281
     0
  0
CLASS
  1
ACIMREALSYSVAR
  2
AcImRealSysVar
  3
AcMeServices
 90
        0
280
     0
281
     0
  0
CLASS
  1
ACIMINTSYSVAR
  2
AcImIntSysVar
  3
AcMeServices
 90
        0
280
     0
281
     0
  0
CLASS
  1
ACMEDRAWINGMAN
  2
AcMeDrawingMan
  3
AcMeServices
 90
        0
280
     0
281
     0
  0
CLASS
  1
ACMEVIEW
  2
AcMeView
  3
AcMeServices
 90
        0
280
     0
281
     0
  0
CLASS
  1
ACDBENTITYCACHE
  2
AcMeEntityCache
  3
AcMeServices
 90
        0
280
     0
281
     0
  0
CLASS
  1
GSMANAGER
  2
AcMeGSManager
  3
AcMeServices
 90
        0
280
     0
281
     0
  0
CLASS
  1
AMDTINTERNALREACTOR
  2
AmdtInternalReactor
  3
AcMeServices
 90
        0
280
     0
281
     0
  0
CLASS
  1
ACMESTATEMGR
  2
AcMeStateMgr
  3
AcMeServices
 90
        0
280
     0
281
     0
  0
CLASS
  1
ACGREFMASTER
  2
AcGrefMaster
  3
AcAttribServices
 90
        0
280
     0
281
     0
  0
CLASS
  1
AM_DRAWING_MGR
  2
AcDmDwgMgr
  3
AcMechDwgViewMgmt
 90
        0
280
     0
281
     0
  0
CLASS
  1
AM_DWG_DOCUMENT
  2
AcDmDwgDocument
  3
AcMechDwgViewMgmt
 90
        0
280
     0
281
     0
  0
CLASS
  1
AM_DWG_SHEET
  2
AcDmSheet
  3
AcMechDwgViewMgmt
 90
        0
280
     0
281
     0
  0
CLASS
  1
AM_VIEWDIMPARMAP
  2
AcDmViewDimParMap
  3
AcMechDwgViewMgmt
 90
        0
280
     0
281
     0
  0
CLASS
  1
AM_DWGMGR_NAME
  2
AcDmDwgMgrName
  3
AcMechDwgViewMgmt
 90
        0
280
     0
281
     0
  0
CLASS
  1
ACME_DATABASE
  2
AcMeDbDatabase
  3
AcMeServices
 90
        0
280
     0
281
     0
  0
CLASS
  1
ACRFINSADJUSTERMGR
  2
AcRfInsAdjusterMgr
  3
AcMeServices
 90
        0
280
     0
281
     0
  0
CLASS
  1
ACGREFACADMASTER
  2
AcGrefacadMaster
  3
AcGrefServices
 90
        0
280
     0
281
     0
  0
CLASS
  1
AMDTMENUSTATEMGR
  2
AmdtMenuStateMgr
  3
McadcomServices
 90
        0
280
     0
281
     0
  0
CLASS
  1
AMDTMCOMMENUSTATE
  2
AmdtMcomMenuState
  3
McadcomServices
 90
        0
280
     0
281
     0
  0
CLASS
  1
AMIMASTER
  2
AmiMaster
  3
AmiServices
 90
        0
280
     0
281
     0
  0
CLASS
  1
ASAPP
  2
AcAsAppObject
  3
AutoSurfServices
 90
        0
280
     0
281
     0
  0
CLASS
  1
IM_STATIC_MAN
  2
AcImStaticVarManager
  3
AcMeServices
 90
        0
280
     0
281
     0
  0
CLASS
  1
ACIMSTRSYSVAR
  2
AcImStrSysVar
  3
AcMeServices
 90
        0
280
     0
281
     0
  0
CLASS
  1
ACIMDBLSTATICVAR
  2
AcImDblStaticVar
  3
AcMeServices
 90
        0
280
     0
281
     0
  0
CLASS
  1
ACIMSTRSTATICVAR
  2
AcImStrStaticVar
  3
AcMeServices
 90
        0
280
     0
281
     0
  0
CLASS
  1
ACIMINTSTATICVAR
  2
AcImIntStaticVar
  3
AcMeServices
 90
        0
280
     0
281
     0
  0
CLASS
  1
ACASGREFMASTER
  2
AcAsGrefMaster
  3
AutoSurfResolverServices
 90
        0
280
     0
281
     0
  0
CLASS
  1
ACADGREFMODULE
  2
AcAdGrefModule
  3
AdGrefServices
 90
        0
280
     0
281
     0
  0
CLASS
  1
AMDTMAPISURFMOUDULE
  2
AmdtMApiSurfModule
  3
MApiSurfServices
 90
        0
280
     0
281
     0
  0
CLASS
  1
MAPIAMMOUDLE
  2
MApiAmModule
  3
MApiAmServices
 90
        0
280
     0
281
     0
  0
CLASS
  1
AMDTADMENUSTATE
  2
AmdtAdMenuState
  3
DesignerServices
 90
        0
280
     0
281
     0
  0
CLASS
  1
ADAPPL
  2
AcAdAppl
  3
DesignerServices
 90
        0
280
     0
281
     0
  0
CLASS
  1
DEPMGR
  2
AcAdDepMgr
  3
DesignerServices
 90
        0
280
     0
281
     0
  0
CLASS
  1
PARAMMGR
  2
AcAdParamMgr
  3
DesignerServices
 90
        0
280
     0
281
     0
  0
CLASS
  1
PARAMSCOPE
  2
AcAdParamScope
  3
DesignerServices
 90
        0
280
     0
281
     0
  0
CLASS
  1
NAMEDAPPL
  2
AcAdNamedAppl
  3
DesignerServices
 90
        0
280
     0
281
     0
  0
CLASS
  1
AMDTDMMENUSTATE
  2
AmdtDmMenuState
  3
AcMechDwgViewMgmt
 90
        0
280
     0
281
     0
  0
CLASS
  1
MAPIADMODULE
  2
MApiAdModule
  3
MApiAdServices
 90
        0
280
     0
281
     0
  0
CLASS
  1
AMDTAMMENUSTATE
  2
AmdtAmMenuState
  3
DesignerAssemblies
 90
        0
280
     0
281
     0
  0
CLASS
  1
ACAMPROJECT
  2
AcAmProject
  3
DesignerAssemblies
 90
        0
280
     0
281
     0
  0
CLASS
  1
ACAMGRCOMPDEF
  2
AcAmGrCompDef
  3
DesignerAssemblies
 90
        0
280
     0
281
     0
  0
CLASS
  1
ACCMCONTEXT
  2
AcCmContext
  3
DesignerAssemblies
 90
        0
280
     0
281
     0
  0
CLASS
  1
ACAMCOMPDEF
  2
AcAmCompDef
  3
DesignerAssemblies
 90
        0
280
     0
281
     0
  0
CLASS
  1
ACAMCOMPDEFMGR
  2
AcAmCompDefMgr
  3
DesignerAssemblies
 90
        0
280
     0
281
     0
  0
CLASS
  1
AMCONTEXTMGR
  2
AcAmContextMgr
  3
DesignerAssemblies
 90
        0
280
     0
281
     0
  0
CLASS
  1
ACAMCONTEXTMODELER
  2
AcAmContextModeler
  3
DesignerAssemblies
 90
        0
280
     0
281
     0
  0
CLASS
  1
ACMDATADICTIONARY
  2
AcmDataDictionary
  3
"AcmSymBB|Product Description: AutoCAD Mechanical 2004 DX|Company: Autodesk"
 90
        0
280
     0
281
     0
  0
CLASS
  1
ACMDATAENTRYBLOCK
  2
AcmDataEntryBlock
  3
"AcmSymBB|Product Description: AutoCAD Mechanical 2004 DX|Company: Autodesk"
 90
        0
280
     0
281
     0
  0
CLASS
  1
CATALOGSTATE
  2
AcAmCatalogState
  3
DesignerAssemblies
 90
        0
280
     0
281
     0
  0
CLASS
  1
ACAMGRCOMPDEFSET
  2
AcAmGrCompDefSet
  3
DesignerAssemblies
 90
        0
280
     0
281
     0
  0
CLASS
  1
AMDTBROWSERDBTAB
  2
AmdtBrowserDbTab
  3
McadcomServices
 90
        0
280
     0
281
     0
  0
CLASS
  1
CBROWSERAPPOBJECT
  2
CBrowserAppObject
  3
McadcomServices
 90
        0
280
     0
281
     0
  0
CLASS
  1
DM_PLACEHOLDER
  2
AcDmSelsetPlaceholder
  3
AcMechDwgViewMgmt
 90
        0
280
     0
281
     0
  0
CLASS
  1
ACMSTANDARDANSI
  2
AcmStandardANSI
  3
"Amdt_StdImp|Product Description: AutoCAD Mechanical 2004 DX|Company: Autodesk"
 90
        0
280
     0
281
     0
  0
CLASS
  1
AMGOBJPROPCFG
  2
AmgObjPropCfg
  3
"AmgLay|Product Description: AutoCAD Mechanical 2000|Company: Autodesk"
 90
        1
280
     0
281
     0
  0
CLASS
  1
ACMSURFSTANDARDANSI
  2
AcmSurfTextStdANSI
  3
"Amdt_StdImp|Product Description: AutoCAD Mechanical 2004 DX|Company: Autodesk"
 90
        0
280
     0
281
     0
  0
CLASS
  1
ACMFCFSTANDARDANSI
  2
AcmFCFStdANSI
  3
"Amdt_StdImp|Product Description: AutoCAD Mechanical 2004 DX|Company: Autodesk"
 90
        0
280
     0
281
     0
  0
CLASS
  1
ACMWELDSTANDARDANSI
  2
AcmWeldingStdANSI
  3
"Amdt_StdImp|Product Description: AutoCAD Mechanical 2004 DX|Company: Autodesk"
 90
        0
280
     0
281
     0
  0
CLASS
  1
ACMIDSTANDARDANSI
  2
AcmIdStdANSI
  3
"Amdt_StdImp|Product Description: AutoCAD Mechanical 2004 DX|Company: Autodesk"
 90
        0
280
     0
281
     0
  0
CLASS
  1
ACMDATUMSTANDARDANSI
  2
AcmDatumStdANSI
  3
"Amdt_StdImp|Product Description: AutoCAD Mechanical 2004 DX|Company: Autodesk"
 90
        0
280
     0
281
     0
  0
CLASS
  1
ACMBOMSTANDARDANSI
  2
AcmBOMStdANSI
  3
"Amdt_StdImp|Product Description: AutoCAD Mechanical 2004 DX|Company: Autodesk"
 90
        0
280
     0
281
     0
  0
CLASS
  1
ACMDETAILSTANDARDANSI
  2
AmdtDetailSymStdANSI
  3
"Amdt_StdImp|Product Description: AutoCAD Mechanical 2004 DX|Company: Autodesk"
 90
        0
280
     0
281
     0
  0
CLASS
  1
ACMSECTIONSTANDARDANSI
  2
AmdtSectionSymStdANSI
  3
"Amdt_StdImp|Product Description: AutoCAD Mechanical 2004 DX|Company: Autodesk"
 90
        0
280
     0
281
     0
  0
CLASS
  1
ACMCENTERLINESTANDARDANSI
  2
AmdtCenterLineStdANSI
  3
"Amdt_StdImp|Product Description: AutoCAD Mechanical 2004 DX|Company: Autodesk"
 90
        0
280
     0
281
     0
  0
CLASS
  1
ACMTHREADLINESTANDARDANSI
  2
AmdtThreadLineStdANSI
  3
"Amdt_StdImp|Product Description: AutoCAD Mechanical 2004 DX|Company: Autodesk"
 90
        0
280
     0
281
     0
  0
CLASS
  1
ACMNOTESTANDARDANSI
  2
AmdtNoteStdANSI
  3
"Amdt_StdImp|Product Description: AutoCAD Mechanical 2004 DX|Company: Autodesk"
 90
        0
280
     0
281
     0
  0
CLASS
  1
AMDTNOTETEMPLATEDB
  2
AmdtNoteTemplateDB
  3
AMDT_STDIMP_MODULE_NAME
 90
        0
280
     0
281
     0
  0
CLASS
  1
ACAMGLAYSTD
  2
AcAmgLayStd
  3
"AcAmgLayStd|Product Description: AutoCAD Mechanical 2000|Company: Autodesk"
 90
        0
280
     0
281
     0
  0
CLASS
  1
ACAMGDIMSTD
  2
AcAmgDimStd
  3
"AcAmgDimStd|Product Description: AutoCAD Mechanical 2000|Company: Autodesk"
 90
        0
280
     0
281
     0
  0
CLASS
  1
ACAMGHOLECHARTSTDANSI
  2
AcAmgHoleChartStdANSI
  3
ACMSYMBB_MODULE_NAME
 90
        0
280
     0
281
     0
  0
CLASS
  1
ACAMGTITLESTD
  2
AcAmgTitleStd
  3
"TITLEAPP"
 90
        0
280
     0
281
     0
  0
CLASS
  1
ACAMGFILTERDAT
  2
AcAmgFilterDat
  3
"AcadM|Product Description: AutoCAD Mechanical 2000|Company: Autodesk"
 90
        0
280
     0
281
     0
  0
CLASS
  1
ACMSTANDARDISO
  2
AcmStandardISO
  3
"Amdt_StdImp|Product Description: AutoCAD Mechanical 2004 DX|Company: Autodesk"
 90
        0
280
     0
281
     0
  0
CLASS
  1
AMDTEDGESTANDARDISO13715
  2
AmdtEdgeStdISO13715
  3
"Amdt_StdImp|Product Description: AutoCAD Mechanical 2004 DX|Company: Autodesk"
 90
        0
280
     0
281
     0
  0
CLASS
  1
ACMSURFSTANDARDISO
  2
AcmSurfTextStdISO
  3
"Amdt_StdImp|Product Description: AutoCAD Mechanical 2004 DX|Company: Autodesk"
 90
        0
280
     0
281
     0
  0
CLASS
  1
ACMFCFSTANDARDISO
  2
AcmFCFStdISO
  3
"Amdt_StdImp|Product Description: AutoCAD Mechanical 2004 DX|Company: Autodesk"
 90
        0
280
     0
281
     0
  0
CLASS
  1
ACMWELDSTANDARDISO
  2
AcmWeldingStdISO
  3
"Amdt_StdImp|Product Description: AutoCAD Mechanical 2004 DX|Company: Autodesk"
 90
        0
280
     0
281
     0
  0
CLASS
  1
ACMIDSTANDARDISO
  2
AcmIdStdISO
  3
"Amdt_StdImp|Product Description: AutoCAD Mechanical 2004 DX|Company: Autodesk"
 90
        0
280
     0
281
     0
  0
CLASS
  1
ACMDATUMSTANDARDISO
  2
AcmDatumStdISO
  3
"Amdt_StdImp|Product Description: AutoCAD Mechanical 2004 DX|Company: Autodesk"
 90
        0
280
     0
281
     0
  0
CLASS
  1
ACMBOMSTANDARDISO
  2
AcmBOMStdISO
  3
"Amdt_StdImp|Product Description: AutoCAD Mechanical 2004 DX|Company: Autodesk"
 90
        0
280
     0
281
     0
  0
CLASS
  1
ACMDETAILSTANDARDISO
  2
AmdtDetailSymStdISO
  3
"Amdt_StdImp|Product Description: AutoCAD Mechanical 2004 DX|Company: Autodesk"
 90
        0
280
     0
281
     0
  0
CLASS
  1
ACMSECTIONSTANDARDISO
  2
AmdtSectionSymStdISO
  3
"Amdt_StdImp|Product Description: AutoCAD Mechanical 2004 DX|Company: Autodesk"
 90
        0
280
     0
281
     0
  0
CLASS
  1
ACMCENTERLINESTANDARDISO
  2
AmdtCenterLineStdISO
  3
"Amdt_StdImp|Product Description: AutoCAD Mechanical 2004 DX|Company: Autodesk"
 90
        0
280
     0
281
     0
  0
CLASS
  1
ACMTHREADLINESTANDARDISO
  2
AmdtThreadLineStdISO
  3
"Amdt_StdImp|Product Description: AutoCAD Mechanical 2004 DX|Company: Autodesk"
 90
        0
280
     0
281
     0
  0
CLASS
  1
ACMNOTESTANDARDISO
  2
AmdtNoteStdISO
  3
"Amdt_StdImp|Product Description: AutoCAD Mechanical 2004 DX|Company: Autodesk"
 90
        0
280
     0
281
     0
  0
CLASS
  1
ACAMGHOLECHARTSTDISO
  2
AcAmgHoleChartStdISO
  3
ACMSYMBB_MODULE_NAME
 90
        0
280
     0
281
     0
  0
ENDSEC
  0
SECTION
  2
TABLES
  0
TABLE
  2
VPORT
  5
7
330
0
100
AcDbSymbolTable
 70
    76
  0
VPORT
  5
20AA
330
7
100
AcDbSymbolTableRecord
100
AcDbViewportTableRecord
  2
*Active
 70
     0
 10
0.0
 20
0.0
 11
1.0
 21
1.0
 12
-14.25186144028703
 22
-7.921275417235847
 13
0.0
 23
0.0
 14
2.5
 24
2.5
 15
10.0
 25
10.0
 16
0.0
 26
0.0
 36
1.0
 17
662.4499101411736
 27
406.2075537970023
 37
0.0
 40
324.9752969334031
 41
0.9815602836879431
 42
50.0
 43
0.0
 44
0.0
 50
0.0
 51
0.0
 71
     0
 72
  2000
 73
     1
 74
     1
 75
     0
 76
     0
 77
     0
 78
     0
281
     0
 65
     0
110
0.0
120
0.0
130
0.0
111
1.0
121
0.0
131
0.0
112
0.0
122
1.0
132
0.0
 79
     0
146
0.0
  0
ENDTAB
  0
TABLE
  2
LTYPE
  5
4
330
0
100
AcDbSymbolTable
 70
    21
  0
LTYPE
  5
11
330
4
100
AcDbSymbolTableRecord
100
AcDbLinetypeTableRecord
  2
BYBLOCK
 70
     0
  3

 72
    65
 73
     0
 40
0.0
  0
LTYPE
  5
12
330
4
100
AcDbSymbolTableRecord
100
AcDbLinetypeTableRecord
  2
BYLAYER
 70
     0
  3

 72
    65
 73
     0
 40
0.0
  0
LTYPE
  5
13
330
4
100
AcDbSymbolTableRecord
100
AcDbLinetypeTableRecord
  2
CONTINUOUS
 70
     0
  3
Solid line
 72
    65
 73
     0
 40
0.0
  0
LTYPE
  5
27
330
4
100
AcDbSymbolTableRecord
100
AcDbLinetypeTableRecord
  2
CENTER
 70
     0
  3
Center ____ _ ____ _ ____ _ ____ _ ____ _ ____
 72
    65
 73
     4
 40
10.16
 49
6.349999999999997
 74
     0
 49
-1.27
 74
     0
 49
1.27
 74
     0
 49
-1.27
 74
     0
  0
LTYPE
  5
F09
330
4
100
AcDbSymbolTableRecord
100
AcDbLinetypeTableRecord
  2
HIDDEN
 70
     0
  3
Hidden __ __ __ __ __ __ __ __ __ __ __ __ __ _
 72
    65
 73
     2
 40
0.375
 49
0.25
 74
     0
 49
-0.125
 74
     0
  0
LTYPE
  5
F0A
330
4
100
AcDbSymbolTableRecord
100
AcDbLinetypeTableRecord
  2
PHANTOM2
 70
     0
  3
Phantom (.5x) ___ _ _ ___ _ _ ___ _ _ ___ _ _
 72
    65
 73
     6
 40
1.25
 49
0.625
 74
     0
 49
-0.125
 74
     0
 49
0.125
 74
     0
 49
-0.125
 74
     0
 49
0.125
 74
     0
 49
-0.125
 74
     0
  0
LTYPE
  5
FA1
330
4
100
AcDbSymbolTableRecord
100
AcDbLinetypeTableRecord
  2
AM_ISO02W050
 70
     0
  3
__ __ __ __ __ __ __ __ __ __ __ __ __ __ __
 72
    65
 73
     2
 40
7.5
 49
6.0
 74
     0
 49
-1.5
 74
     0
  0
LTYPE
  5
FA2
330
4
100
AcDbSymbolTableRecord
100
AcDbLinetypeTableRecord
  2
AM_ISO08W050
 70
     0
  3
____ . ____ . ____ . ____ . ____ . ____ . ____
 72
    65
 73
     4
 40
18.0
 49
12.0
 74
     0
 49
-1.5
 74
     0
 49
3.0
 74
     0
 49
-1.5
 74
     0
  0
LTYPE
  5
FA3
330
4
100
AcDbSymbolTableRecord
100
AcDbLinetypeTableRecord
  2
AM_ISO09W050
 70
     0
  3
_____ . . _____ . . _____ . . ____ .. ____
 72
    65
 73
     6
 40
22.5
 49
12.0
 74
     0
 49
-1.5
 74
     0
 49
3.0
 74
     0
 49
-1.5
 74
     0
 49
3.0
 74
     0
 49
-1.5
 74
     0
  0
LTYPE
  5
FA4
330
4
100
AcDbSymbolTableRecord
100
AcDbLinetypeTableRecord
  2
Amconstr
 70
     0
  3
_______________________
 72
    65
 73
     2
 40
9999.0
 49
9999.0
 74
     0
 49
0.0
 74
     0
  0
LTYPE
  5
FA5
330
4
100
AcDbSymbolTableRecord
100
AcDbLinetypeTableRecord
  2
AM_ISO08W050x2
 70
     0
  3
__ . __ . __ . __ . __ . __
 72
    65
 73
     4
 40
9.0
 49
6.0
 74
     0
 49
-0.75
 74
     0
 49
1.5
 74
     0
 49
-0.75
 74
     0
  0
LTYPE
  5
FA6
330
4
100
AcDbSymbolTableRecord
100
AcDbLinetypeTableRecord
  2
AM_ISO02W050x2
 70
     0
  3
 _ _ _ _ _ _ _ _ _ _ _ _
 72
    65
 73
     2
 40
3.75
 49
3.0
 74
     0
 49
-0.75
 74
     0
  0
LTYPE
  5
FA9
330
4
100
AcDbSymbolTableRecord
100
AcDbLinetypeTableRecord
  2
Amzigzag
 70
     0
  3
/\/-/\/-/\/-/\/-/\/-/\/
 72
    65
 73
     2
 40
11.0001
 49
0.0001
 74
     4
 75
   135
340
FA8
 46
0.04
 50
0.0
 44
0.0
 45
0.0
 49
-11.0
 74
     0
  0
LTYPE
  5
FAA
330
4
100
AcDbSymbolTableRecord
100
AcDbLinetypeTableRecord
  2
CENTER2
 70
     0
  3
Center (.5x) ___ _ ___ _ ___ _ ___ _ ___ _ ___
 72
    65
 73
     4
 40
1.125
 49
0.75
 74
     0
 49
-0.125
 74
     0
 49
0.125
 74
     0
 49
-0.125
 74
     0
  0
LTYPE
  5
FAB
330
4
100
AcDbSymbolTableRecord
100
AcDbLinetypeTableRecord
  2
HIDDEN2
 70
     0
  3
Hidden (.5x) _ _ _ _ _ _ _ _ _ _ _ _ _ _ _ _ _
 72
    65
 73
     2
 40
0.1875
 49
0.125
 74
     0
 49
-0.0625
 74
     0
  0
LTYPE
  5
FAC
330
4
100
AcDbSymbolTableRecord
100
AcDbLinetypeTableRecord
  2
Amzigzag2
 70
     0
  3
/\/-/\/-/\/-/\/-/\/-/\/
 72
    65
 73
     2
 40
0.4401
 49
0.0001
 74
     4
 75
   135
340
FA8
 46
0.0016
 50
0.0
 44
0.0
 45
0.0
 49
-0.4400000000000001
 74
     0
  0
LTYPE
  5
FBA
330
4
100
AcDbSymbolTableRecord
100
AcDbLinetypeTableRecord
  2
ACANSTGB
 70
     0
  3
__ . . __ . .
 72
    65
 73
     6
 40
0.35433070866
 49
0.15748031496
 74
     0
 49
-0.03937007874
 74
     0
 49
0.03937007874
 74
     0
 49
-0.03937007874
 74
     0
 49
0.03937007874
 74
     0
 49
-0.03937007874
 74
     0
  0
LTYPE
  5
FBB
330
4
100
AcDbSymbolTableRecord
100
AcDbLinetypeTableRecord
  2
ACANSTGL
 70
     0
  3
_ _ _ _ _
 72
    65
 73
     2
 40
0.11811023622
 49
0.07874015748
 74
     0
 49
-0.03937007874
 74
     0
  0
LTYPE
  5
10A3
330
4
100
AcDbSymbolTableRecord
100
AcDbLinetypeTableRecord
  2
ACISOWELD
 70
     0
  3
_ _ _ _ _
 72
    65
 73
     2
 40
2.0
 49
2.0
 74
     0
 49
-1.0
 74
     0
  0
LTYPE
  5
10A4
330
4
100
AcDbSymbolTableRecord
100
AcDbLinetypeTableRecord
  2
ACISOTGB
 70
     0
  3
__ . . __ . .
 72
    65
 73
     6
 40
9.0
 49
4.0
 74
     0
 49
-1.0
 74
     0
 49
1.0
 74
     0
 49
-1.0
 74
     0
 49
1.0
 74
     0
 49
-1.0
 74
     0
  0
LTYPE
  5
10A5
330
4
100
AcDbSymbolTableRecord
100
AcDbLinetypeTableRecord
  2
ACISOTGL
 70
     0
  3
_ _ _ _ _
 72
    65
 73
     2
 40
3.0
 49
2.0
 74
     0
 49
-1.0
 74
     0
  0
ENDTAB
  0
TABLE
  2
LAYER
  5
2
102
{ACAD_XDICTIONARY
360
1002
102
}
330
0
100
AcDbSymbolTable
 70
     6
  0
LAYER
  5
14
330
2
100
AcDbSymbolTableRecord
100
AcDbLayerTableRecord
  2
0
 70
     0
 62
     7
  6
CONTINUOUS
370
    -3
390
1D
  0
LAYER
  5
A05
330
2
100
AcDbSymbolTableRecord
100
AcDbLayerTableRecord
  2
CENTER
 70
     0
 62
     1
  6
CENTER
370
    -3
390
1D
  0
LAYER
  5
A16
330
2
100
AcDbSymbolTableRecord
100
AcDbLayerTableRecord
  2
DIM
 70
     0
 62
     4
  6
CONTINUOUS
370
    -3
390
1D
  0
LAYER
  5
D20
330
2
100
AcDbSymbolTableRecord
100
AcDbLayerTableRecord
  2
Defpoints
 70
     0
 62
     7
  6
CONTINUOUS
290
     0
370
    -3
390
1D
  0
LAYER
  5
FD9
330
2
100
AcDbSymbolTableRecord
100
AcDbLayerTableRecord
  2
AM_5
 70
     0
 62
     5
  6
CONTINUOUS
370
    50
390
1D
  0
LAYER
  5
1B6F
330
2
100
AcDbSymbolTableRecord
100
AcDbLayerTableRecord
  2
LOGO
 70
     0
 62
     7
  6
CONTINUOUS
370
    -3
390
1D
  0
ENDTAB
  0
TABLE
  2
STYLE
  5
3
330
0
100
AcDbSymbolTable
 70
     8
  0
STYLE
  5
17
330
3
100
AcDbSymbolTableRecord
100
AcDbTextStyleTableRecord
  2
STANDARD
 70
     0
 40
0.0
 41
1.0
 50
0.0
 71
     0
 42
3.5
  3
ISOCP.SHX
  4

  0
STYLE
  5
9F7
330
3
100
AcDbSymbolTableRecord
100
AcDbTextStyleTableRecord
  2
CHINA
 70
     0
 40
0.0
 41
1.0
 50
0.0
 71
     0
 42
2.5
  3
romans.shx
  4
chineset.shx
  0
STYLE
  5
FA8
330
3
100
AcDbSymbolTableRecord
100
AcDbTextStyleTableRecord
  2

 70
     1
 40
0.0
 41
1.0
 50
0.0
 71
     0
 42
0.2
  3
ltypeshp.shx
  4

  0
STYLE
  5
FAD
330
3
100
AcDbSymbolTableRecord
100
AcDbTextStyleTableRecord
  2
ACANSTS
 70
     0
 40
1.0
 41
1.0
 50
0.0
 71
     0
 42
0.2
  3
romans.shx
  4
chineset.shx
  0
STYLE
  5
FB9
330
3
100
AcDbSymbolTableRecord
100
AcDbTextStyleTableRecord
  2
ACANSGDT
 70
     0
 40
0.0
 41
1.0
 50
0.0
 71
     0
 42
0.2
  3
amgdtans.shx
  4

  0
STYLE
  5
1095
330
3
100
AcDbSymbolTableRecord
100
AcDbTextStyleTableRecord
  2
ACISOTS
 70
     0
 40
1.0
 41
1.0
 50
0.0
 71
     0
 42
0.2
  3
isocp.shx
  4
chineset.shx
  0
STYLE
  5
10A2
330
3
100
AcDbSymbolTableRecord
100
AcDbTextStyleTableRecord
  2
ACISOGDT
 70
     0
 40
0.0
 41
1.0
 50
0.0
 71
     0
 42
0.2
  3
amgdt.shx
  4

  0
STYLE
  5
1B70
330
3
100
AcDbSymbolTableRecord
100
AcDbTextStyleTableRecord
  2
CHINESET
 70
     0
 40
0.0
 41
0.75
 50
0.0
 71
     0
 42
3.0
  3
simplex.shx
  4
CHINESET.SHX
  0
ENDTAB
  0
TABLE
  2
VIEW
  5
5
330
0
100
AcDbSymbolTable
 70
     0
  0
ENDTAB
  0
TABLE
  2
UCS
  5
6
330
0
100
AcDbSymbolTable
 70
     0
  0
ENDTAB
  0
TABLE
  2
APPID
  5
8
330
0
100
AcDbSymbolTable
 70
    22
  0
APPID
  5
16
330
8
100
AcDbSymbolTableRecord
100
AcDbRegAppTableRecord
  2
ACAD
 70
     0
  0
APPID
  5
ED5
330
8
100
AcDbSymbolTableRecord
100
AcDbRegAppTableRecord
  2
GENIUS_GENDIM_13
 70
     0
  0
APPID
  5
ED6
330
8
100
AcDbSymbolTableRecord
100
AcDbRegAppTableRecord
  2
GENIUS_GENDTOL_13
 70
     0
  0
APPID
  5
ED7
330
8
100
AcDbSymbolTableRecord
100
AcDbRegAppTableRecord
  2
GENIUS_GE3DTOL_13
 70
     0
  0
APPID
  5
EDA
330
8
100
AcDbSymbolTableRecord
100
AcDbRegAppTableRecord
  2
MCAD_NO_VIS
 70
     0
  0
APPID
  5
EDB
330
8
100
AcDbSymbolTableRecord
100
AcDbRegAppTableRecord
  2
ACAD_TEMP_GRAPHIC
 70
     0
  0
APPID
  5
F0C
330
8
100
AcDbSymbolTableRecord
100
AcDbRegAppTableRecord
  2
AD_DRAW
 70
     0
  0
APPID
  5
F0F
330
8
100
AcDbSymbolTableRecord
100
AcDbRegAppTableRecord
  2
ACATTRIBSERVICES
 70
     0
  0
APPID
  5
F5B
330
8
100
AcDbSymbolTableRecord
100
AcDbRegAppTableRecord
  2
ASURF_PCURVE_APPNAME
 70
     0
  0
APPID
  5
F60
330
8
100
AcDbSymbolTableRecord
100
AcDbRegAppTableRecord
  2
AMG_3D2D_5.0
 70
     0
  0
APPID
  5
F8F
330
8
100
AcDbSymbolTableRecord
100
AcDbRegAppTableRecord
  2
DESIGNERASSEMBLIES
 70
     0
  0
APPID
  5
F96
330
8
100
AcDbSymbolTableRecord
100
AcDbRegAppTableRecord
  2
ACADM_DIM_EDIT
 70
     0
  0
APPID
  5
F97
330
8
100
AcDbSymbolTableRecord
100
AcDbRegAppTableRecord
  2
AMDT_DM_ADJ
 70
     0
  0
APPID
  5
1052
330
8
100
AcDbSymbolTableRecord
100
AcDbRegAppTableRecord
  2
GENIUS_GENDIMSH_14
 70
     0
  0
APPID
  5
108A
330
8
100
AcDbSymbolTableRecord
100
AcDbRegAppTableRecord
  2
ACAD_DSTYLE_DIMTEXT_FILL
 70
     0
  0
APPID
  5
1B72
330
8
100
AcDbSymbolTableRecord
100
AcDbRegAppTableRecord
  2
GENIUS_GENODEF_13
 70
     0
  0
APPID
  5
1B73
330
8
100
AcDbSymbolTableRecord
100
AcDbRegAppTableRecord
  2
GENIUS_GENOENT_13
 70
     0
  0
APPID
  5
1B74
330
8
100
AcDbSymbolTableRecord
100
AcDbRegAppTableRecord
  2
GENIUS_GENOBJ-N-CRS_13
 70
     0
  0
APPID
  5
1B75
330
8
100
AcDbSymbolTableRecord
100
AcDbRegAppTableRecord
  2
GENIUS_GENOLIS_13
 70
     0
  0
APPID
  5
1B76
330
8
100
AcDbSymbolTableRecord
100
AcDbRegAppTableRecord
  2
GENIUS_GENOREF_13
 70
     0
  0
APPID
  5
1B77
330
8
100
AcDbSymbolTableRecord
100
AcDbRegAppTableRecord
  2
GENIUS_GENREC_14
 70
     0
  0
APPID
  5
1B78
330
8
100
AcDbSymbolTableRecord
100
AcDbRegAppTableRecord
  2
GENIUS_GENOBJ-N-REC_13
 70
     0
  0
ENDTAB
  0
TABLE
  2
DIMSTYLE
  5
9
330
0
100
AcDbSymbolTable
 70
    19
100
AcDbDimStyleTable
 71
     3
340
10AE
340
D21
340
9F8
  0
DIMSTYLE
105
18
330
9
100
AcDbSymbolTableRecord
100
AcDbDimStyleTableRecord
  2
STANDARD
 70
     0
340
17
  0
DIMSTYLE
105
9F8
102
{ACAD_REACTORS
330
D3F
330
D40
102
}
330
9
100
AcDbSymbolTableRecord
100
AcDbDimStyleTableRecord
  2
ISO-25
 70
     0
 41
2.0
 42
1.0
 44
1.0
 73
     0
 74
     0
 77
     1
 78
     8
140
2.5
141
1.0
143
0.03937007874016
147
1.0
171
     3
172
     1
174
     1
176
   256
177
   256
178
   256
271
     2
272
     2
274
     3
283
     0
284
     8
340
9F7
  0
DIMSTYLE
105
D21
102
{ACAD_REACTORS
330
D3E
330
D41
330
D51
102
}
330
9
100
AcDbSymbolTableRecord
100
AcDbDimStyleTableRecord
  2
比例0.838
 70
     0
 41
2.0
 42
1.0
 44
1.0
 73
     0
 74
     0
 77
     1
 78
     8
 79
     2
140
4.0
141
0.0
143
0.03937007874016
144
0.8379999999999999
147
1.0
171
     3
172
     1
174
     1
176
   256
177
   256
178
   256
179
     2
271
     2
272
     2
274
     3
283
     0
284
     8
340
9F7
371
     9
372
     9
  0
DIMSTYLE
105
FC4
330
9
100
AcDbSymbolTableRecord
100
AcDbDimStyleTableRecord
  2
AM_ANSI
 70
     0
  4
mm
 41
0.1
 42
0.05
 43
0.5
 44
0.1
 47
0.1
 48
0.1
 78
     7
 79
     2
140
0.12
141
0.0
146
0.71
147
0.06
176
   256
177
   256
178
     2
274
     4
284
     7
340
17
371
    -1
372
    -1
  0
DIMSTYLE
105
FC5
330
9
100
AcDbSymbolTableRecord
100
AcDbDimStyleTableRecord
  2
AM_ANSI$3
 70
     0
  4
mm
 41
0.1
 42
0.05
 43
0.5
 44
0.1
 47
0.1
 48
0.1
 78
     7
 79
     2
140
0.12
141
0.0
146
0.71
147
0.06
176
   256
177
   256
178
     2
274
     4
284
     7
288
     1
289
     0
340
17
371
    -1
372
    -1
  0
DIMSTYLE
105
FC6
330
9
100
AcDbSymbolTableRecord
100
AcDbDimStyleTableRecord
  2
AM_ANSI$4
 70
     0
  4
mm
 41
0.1
 42
0.05
 43
0.5
 44
0.1
 47
0.1
 48
0.1
 78
     7
 79
     2
140
0.12
141
0.0
146
0.71
147
0.06
176
   256
177
   256
178
     2
274
     4
284
     7
288
     1
289
     0
340
17
371
    -1
372
    -1
  0
DIMSTYLE
105
FC7
330
9
100
AcDbSymbolTableRecord
100
AcDbDimStyleTableRecord
  2
AM_ANSI$7
 70
     0
  4
mm
 41
0.1
 42
0.05
 43
0.5
 44
0.1
 47
0.1
 48
0.1
 78
     7
 79
     2
140
0.24
141
0.0
146
0.71
147
0.06
176
   256
177
   256
178
     2
274
     4
284
     7
340
17
371
    -1
372
    -1
  0
DIMSTYLE
105
FC8
330
9
100
AcDbSymbolTableRecord
100
AcDbDimStyleTableRecord
  2
AM_ANSI$SF
 70
     0
  4
mm
 41
0.1
 42
0.05
 43
0.5
 44
0.1
 47
0.1
 48
0.1
 75
     1
 76
     1
 78
     7
 79
     2
140
0.12
141
0.0
146
0.71
147
0.06
176
   256
177
   256
178
     2
274
     4
284
     7
340
17
371
    -1
372
    -1
  0
DIMSTYLE
105
FCD
330
9
100
AcDbSymbolTableRecord
100
AcDbDimStyleTableRecord
  2
AM_ANSI$SH
 70
     0
  4
mm
 41
0.1
 42
0.05
 43
0.5
 44
0.1
 47
0.1
 48
0.1
 75
     1
 76
     1
 78
     7
 79
     2
140
0.12
141
0.0
146
0.71
147
0.06
173
     1
176
   256
177
   256
178
     2
274
     4
284
     7
340
17
343
FC9
371
    -1
372
    -1
  0
DIMSTYLE
105
FE5
102
{ACAD_REACTORS
330
D3F
330
D40
330
FE9
102
}
330
9
100
AcDbSymbolTableRecord
100
AcDbDimStyleTableRecord
  2
ISO-25$0
 70
     0
 41
2.0
 42
1.0
 44
1.0
 73
     0
 74
     0
 77
     1
 78
     8
140
2.5
141
1.0
143
0.03937007874016
147
1.0
171
     3
172
     1
174
     1
176
   256
177
   256
178
   256
271
     2
272
     2
274
     3
283
     0
284
     8
340
9F7
  0
DIMSTYLE
105
10AE
330
9
100
AcDbSymbolTableRecord
100
AcDbDimStyleTableRecord
  2
AM_ISO
 70
     0
  4
"
 41
3.0
 42
1.0
 43
7.0
 44
1.0
 47
0.1
 48
0.1
 73
     0
 74
     0
 77
     1
 78
     8
 79
     2
140
3.5
141
0.0
143
0.0393701
146
0.71
147
1.0
172
     1
176
   256
177
   256
178
   256
271
     2
272
     2
283
     0
284
     8
340
17
371
    -1
372
    -1
  0
DIMSTYLE
105
10AF
102
{ACAD_REACTORS
330
16E8
330
178D
330
17B7
330
19B7
330
2027
102
}
330
9
100
AcDbSymbolTableRecord
100
AcDbDimStyleTableRecord
  2
AM_ISO$3
 70
     0
  4
"
 41
3.0
 42
1.0
 43
7.0
 44
1.0
 47
0.1
 48
0.1
 73
     0
 77
     1
 78
     8
 79
     2
140
3.5
141
0.0
143
0.0393701
146
0.71
147
1.0
176
   256
177
   256
178
   256
271
     2
272
     2
283
     0
284
     8
288
     1
289
     0
340
17
371
    -1
372
    -1
  0
DIMSTYLE
105
10B0
102
{ACAD_REACTORS
330
1AE9
102
}
330
9
100
AcDbSymbolTableRecord
100
AcDbDimStyleTableRecord
  2
AM_ISO$4
 70
     0
  4
"
 41
3.0
 42
1.0
 43
7.0
 44
1.0
 47
0.1
 48
0.1
 73
     0
 77
     1
 78
     8
 79
     2
140
3.5
141
0.0
143
0.0393701
146
0.71
147
1.0
176
   256
177
   256
178
   256
271
     2
272
     2
283
     0
284
     8
288
     1
289
     0
340
17
371
    -1
372
    -1
  0
DIMSTYLE
105
10B1
330
9
100
AcDbSymbolTableRecord
100
AcDbDimStyleTableRecord
  2
AM_ISO$6
 70
     0
  4
"
 41
3.0
 42
1.0
 43
7.0
 44
1.0
 47
0.1
 48
0.1
 73
     0
 74
     0
 78
     8
 79
     2
140
3.5
141
0.0
143
0.0393701
146
0.71
147
1.0
172
     1
176
   256
177
   256
178
   256
271
     2
272
     2
283
     0
284
     8
340
17
371
    -1
372
    -1
  0
DIMSTYLE
105
10B2
102
{ACAD_REACTORS
330
18EE
330
1B36
102
}
330
9
100
AcDbSymbolTableRecord
100
AcDbDimStyleTableRecord
  2
AM_ISO$7
 70
     0
  4
"
 41
3.0
 42
1.0
 43
7.0
 44
1.0
 47
0.1
 48
0.1
 73
     0
 74
     0
 77
     1
 78
     8
 79
     2
140
5.0
141
0.0
143
0.0393701
146
0.71
147
1.0
172
     1
176
   256
177
   256
178
   256
271
     2
272
     2
283
     0
284
     8
340
17
371
    -1
372
    -1
  0
DIMSTYLE
105
10B3
330
9
100
AcDbSymbolTableRecord
100
AcDbDimStyleTableRecord
  2
AM_ISO$SF
 70
     0
  4
"
 41
2.5
 42
1.0
 43
10.0
 44
1.0
 47
0.1
 48
0.1
 73
     0
 74
     0
 75
     1
 76
     1
 77
     1
 78
     8
 79
     2
140
3.5
141
0.0
143
0.0393701
146
0.71
147
1.5
172
     1
176
   256
177
   256
178
     2
271
     2
272
     3
274
     4
283
     0
284
     8
340
17
371
    -1
372
    -1
  0
DIMSTYLE
105
10B4
330
9
100
AcDbSymbolTableRecord
100
AcDbDimStyleTableRecord
  2
AM_ISO$SH
 70
     0
  4
"
 41
2.5
 42
1.0
 43
10.0
 44
1.0
 47
0.1
 48
0.1
 73
     0
 74
     0
 75
     1
 76
     1
 77
     1
 78
     8
 79
     2
140
3.5
141
0.0
143
0.0393701
144
2.0
146
0.71
147
1.5
172
     1
173
     1
176
   256
177
   256
178
     2
271
     2
272
     3
274
     4
283
     0
284
     8
340
17
343
FC9
371
    -1
372
    -1
  0
DIMSTYLE
105
1182
102
{ACAD_REACTORS
330
1033
330
1014
330
1183
330
11BA
330
1268
330
1290
330
1419
330
144B
330
14EB
330
15C0
330
1628
330
1664
330
1721
330
174D
330
1806
330
1843
330
189E
330
18FF
330
1A12
330
1A9C
330
1FC0
102
}
330
9
100
AcDbSymbolTableRecord
100
AcDbDimStyleTableRecord
  2
AM_ISO$0
 70
     0
  4
"
 41
3.0
 42
1.0
 43
7.0
 44
1.0
 47
0.1
 48
0.1
 73
     0
 74
     0
 77
     1
 78
     8
 79
     2
140
3.5
141
0.0
143
0.0393701
146
0.71
147
1.0
172
     1
176
   256
177
   256
178
   256
271
     2
272
     2
283
     0
284
     8
340
17
371
    -1
372
    -1
  0
DIMSTYLE
105
1D3A
102
{ACAD_REACTORS
330
1D3B
330
1D8C
330
1E24
102
}
330
9
100
AcDbSymbolTableRecord
100
AcDbDimStyleTableRecord
  2
AM_ISO$2
 70
     0
  4
"
 41
3.0
 42
1.0
 43
7.0
 44
1.0
 47
0.1
 48
0.1
 73
     0
 74
     0
 77
     1
 78
     8
 79
     2
140
3.5
141
0.0
143
0.0393701
146
0.71
147
1.0
172
     1
176
   256
177
   256
178
   256
271
     2
272
     2
283
     0
284
     8
340
17
371
    -1
372
    -1
  0
ENDTAB
  0
TABLE
  2
BLOCK_RECORD
  5
1
330
0
100
AcDbSymbolTable
 70
    40
  0
BLOCK_RECORD
  5
A
102
{ACAD_XDICTIONARY
360
9C9
102
}
330
1
100
AcDbSymbolTableRecord
100
AcDbBlockTableRecord
  2
*MODEL_SPACE
340
A68
  0
BLOCK_RECORD
  5
B
102
{ACAD_XDICTIONARY
360
9CB
102
}
330
1
100
AcDbSymbolTableRecord
100
AcDbBlockTableRecord
  2
*PAPER_SPACE
340
A69
  0
BLOCK_RECORD
  5
D54
330
1
100
AcDbSymbolTableRecord
100
AcDbBlockTableRecord
  2
*D0
340
0
  0
BLOCK_RECORD
  5
D5F
330
1
100
AcDbSymbolTableRecord
100
AcDbBlockTableRecord
  2
*D1
340
0
  0
BLOCK_RECORD
  5
D6D
330
1
100
AcDbSymbolTableRecord
100
AcDbBlockTableRecord
  2
*D2
340
0
  0
BLOCK_RECORD
  5
D7B
330
1
100
AcDbSymbolTableRecord
100
AcDbBlockTableRecord
  2
*D3
340
0
  0
BLOCK_RECORD
  5
D89
330
1
100
AcDbSymbolTableRecord
100
AcDbBlockTableRecord
  2
*D4
340
0
  0
BLOCK_RECORD
  5
FC9
330
1
100
AcDbSymbolTableRecord
100
AcDbBlockTableRecord
  2
GENAXEH
340
0
  0
BLOCK_RECORD
  5
FEA
330
1
100
AcDbSymbolTableRecord
100
AcDbBlockTableRecord
  2
*D7
340
0
  0
BLOCK_RECORD
  5
1015
330
1
100
AcDbSymbolTableRecord
100
AcDbBlockTableRecord
  2
*D8
340
0
  0
BLOCK_RECORD
  5
1034
330
1
100
AcDbSymbolTableRecord
100
AcDbBlockTableRecord
  2
*D9
340
0
  0
BLOCK_RECORD
  5
10CF
330
1
100
AcDbSymbolTableRecord
100
AcDbBlockTableRecord
  2
GENDOT
340
0
102
{BLKREFS
331
1862
331
186D
102
}
  0
BLOCK_RECORD
  5
1184
330
1
100
AcDbSymbolTableRecord
100
AcDbBlockTableRecord
  2
*D11
340
0
  0
BLOCK_RECORD
  5
11BB
330
1
100
AcDbSymbolTableRecord
100
AcDbBlockTableRecord
  2
*D12
340
0
  0
BLOCK_RECORD
  5
1269
330
1
100
AcDbSymbolTableRecord
100
AcDbBlockTableRecord
  2
*D13
340
0
  0
BLOCK_RECORD
  5
1291
330
1
100
AcDbSymbolTableRecord
100
AcDbBlockTableRecord
  2
*D14
340
0
  0
BLOCK_RECORD
  5
141A
330
1
100
AcDbSymbolTableRecord
100
AcDbBlockTableRecord
  2
*D15
340
0
  0
BLOCK_RECORD
  5
144C
330
1
100
AcDbSymbolTableRecord
100
AcDbBlockTableRecord
  2
*D16
340
0
  0
BLOCK_RECORD
  5
14EC
330
1
100
AcDbSymbolTableRecord
100
AcDbBlockTableRecord
  2
*D17
340
0
  0
BLOCK_RECORD
  5
15C1
330
1
100
AcDbSymbolTableRecord
100
AcDbBlockTableRecord
  2
*D18
340
0
  0
BLOCK_RECORD
  5
1629
330
1
100
AcDbSymbolTableRecord
100
AcDbBlockTableRecord
  2
*D19
340
0
  0
BLOCK_RECORD
  5
1665
330
1
100
AcDbSymbolTableRecord
100
AcDbBlockTableRecord
  2
*D20
340
0
  0
BLOCK_RECORD
  5
16E9
330
1
100
AcDbSymbolTableRecord
100
AcDbBlockTableRecord
  2
*D21
340
0
  0
BLOCK_RECORD
  5
1722
330
1
100
AcDbSymbolTableRecord
100
AcDbBlockTableRecord
  2
*D22
340
0
  0
BLOCK_RECORD
  5
174E
330
1
100
AcDbSymbolTableRecord
100
AcDbBlockTableRecord
  2
*D23
340
0
  0
BLOCK_RECORD
  5
178E
330
1
100
AcDbSymbolTableRecord
100
AcDbBlockTableRecord
  2
*D24
340
0
  0
BLOCK_RECORD
  5
17B8
330
1
100
AcDbSymbolTableRecord
100
AcDbBlockTableRecord
  2
*D25
340
0
  0
BLOCK_RECORD
  5
1807
330
1
100
AcDbSymbolTableRecord
100
AcDbBlockTableRecord
  2
*D26
340
0
  0
BLOCK_RECORD
  5
1844
330
1
100
AcDbSymbolTableRecord
100
AcDbBlockTableRecord
  2
*D27
340
0
  0
BLOCK_RECORD
  5
189F
330
1
100
AcDbSymbolTableRecord
100
AcDbBlockTableRecord
  2
*D28
340
0
  0
BLOCK_RECORD
  5
1900
330
1
100
AcDbSymbolTableRecord
100
AcDbBlockTableRecord
  2
*D29
340
0
  0
BLOCK_RECORD
  5
19B8
330
1
100
AcDbSymbolTableRecord
100
AcDbBlockTableRecord
  2
*D30
340
0
  0
BLOCK_RECORD
  5
1A13
330
1
100
AcDbSymbolTableRecord
100
AcDbBlockTableRecord
  2
*D31
340
0
  0
BLOCK_RECORD
  5
1A9D
330
1
100
AcDbSymbolTableRecord
100
AcDbBlockTableRecord
  2
*D33
340
0
  0
BLOCK_RECORD
  5
1AEA
330
1
100
AcDbSymbolTableRecord
100
AcDbBlockTableRecord
  2
*D34
340
0
  0
BLOCK_RECORD
  5
1D3C
330
1
100
AcDbSymbolTableRecord
100
AcDbBlockTableRecord
  2
*D35
340
0
  0
BLOCK_RECORD
  5
1D8D
330
1
100
AcDbSymbolTableRecord
100
AcDbBlockTableRecord
  2
*D36
340
0
  0
BLOCK_RECORD
  5
1E25
330
1
100
AcDbSymbolTableRecord
100
AcDbBlockTableRecord
  2
*D37
340
0
  0
BLOCK_RECORD
  5
1FC1
330
1
100
AcDbSymbolTableRecord
100
AcDbBlockTableRecord
  2
*D38
340
0
  0
BLOCK_RECORD
  5
2028
330
1
100
AcDbSymbolTableRecord
100
AcDbBlockTableRecord
  2
*D39
340
0
  0
ENDTAB
  0
ENDSEC
  0
SECTION
  2
BLOCKS
  0
BLOCK
  5
D
330
A
100
AcDbEntity
  8
0
100
AcDbBlockBegin
  2
*MODEL_SPACE
 70
     0
 71
     1
 10
0.0
 20
0.0
 30
0.0
  3
*MODEL_SPACE
  1

  0
ENDBLK
  5
E
330
A
100
AcDbEntity
  8
0
100
AcDbBlockEnd
  0
BLOCK
  5
F
330
B
100
AcDbEntity
 67
     1
  8
0
100
AcDbBlockBegin
  2
*PAPER_SPACE
 70
     0
 71
     1
 10
0.0
 20
0.0
 30
0.0
  3
*PAPER_SPACE
  1

  0
ENDBLK
  5
10
330
B
100
AcDbEntity
 67
     1
  8
0
100
AcDbBlockEnd
  0
BLOCK
  5
D5D
330
D54
100
AcDbEntity
  8
0
370
     0
100
AcDbBlockBegin
  2
*D0
 70
     1
 10
0.0
 20
0.0
 30
0.0
  3
*D0
  1

  0
LINE
  5
1CA1
330
D54
100
AcDbEntity
  8
AM_5
370
     9
100
AcDbLine
 10
587.1599161569786
 20
340.6404558023003
 30
0.0
 11
590.8401382073647
 21
331.2072439967711
 31
0.0
  0
LINE
  5
1CA2
330
D54
100
AcDbEntity
  8
AM_5
370
     9
100
AcDbLine
 10
594.0283575001599
 20
323.0351425692897
 30
0.0
 11
594.7552656836517
 21
321.1719183496176
 31
0.0
  0
MTEXT
  5
1CA3
330
D54
100
AcDbEntity
  8
AM_5
100
AcDbMText
 10
590.2555421564109
 20
338.8962942066796
 30
0.0
 40
2.5
 41
0.0
 71
     5
 72
     1
  1
\U+22054
 11
0.3634540917459159
 21
-0.9316121098360367
 31
0.0
 73
     1
 44
1.0
1001
ACAD
1000
MTEXTBEGIN
1070
    73
1070
     1
1070
    44
1040
1.0
1070
    74
1070
     0
1000
MTEXTEND
  0
LINE
  5
1CA4
330
D54
100
AcDbEntity
  8
AM_5
370
     9
100
AcDbLine
 10
593.3014493166681
 20
324.8983667889618
 30
0.0
 11
591.5670463908567
 21
329.3440197770991
 31
0.0
  0
SOLID
  5
1CA5
330
D54
100
AcDbEntity
  8
AM_5
370
     0
100
AcDbTrace
 10
594.3388948701054
 20
323.156293933205
 30
0.0
 11
593.7178201302145
 21
322.9139912053744
 31
0.0
 12
593.3014493166681
 22
324.8983667889618
 32
0.0
 13
593.3014493166681
 23
324.8983667889618
 33
0.0
  0
SOLID
  5
1CA6
330
D54
100
AcDbEntity
  8
AM_5
370
     0
100
AcDbTrace
 10
591.1506755773102
 20
331.3283953606865
 30
0.0
 11
590.5296008374194
 21
331.0860926328559
 31
0.0
 12
591.5670463908567
 22
329.3440197770991
 32
0.0
 13
591.5670463908567
 23
329.3440197770991
 33
0.0
  0
POINT
  5
1CA7
330
D54
100
AcDbEntity
  8
Defpoints
 62
     0
370
     0
100
AcDbPoint
 10
591.5670463908567
 20
329.3440197770991
 30
0.0
  0
POINT
  5
1CA8
330
D54
100
AcDbEntity
  8
Defpoints
 62
     0
370
     0
100
AcDbPoint
 10
593.3014493166681
 20
324.8983667889618
 30
0.0
  0
ENDBLK
  5
D5E
330
D54
100
AcDbEntity
  8
0
370
     0
100
AcDbBlockEnd
  0
BLOCK
  5
D6B
330
D5F
100
AcDbEntity
  8
0
370
     0
100
AcDbBlockBegin
  2
*D1
 70
     1
 10
0.0
 20
0.0
 30
0.0
  3
*D1
  1

  0
LINE
  5
159B
330
D5F
100
AcDbEntity
  8
AM_5
370
    -2
100
AcDbLine
 10
599.3227689187797
 20
319.3242905722344
 30
0.0
 11
612.6168100103735
 21
319.3242905722344
 31
0.0
  0
LINE
  5
159C
330
D5F
100
AcDbEntity
  8
AM_5
370
    -2
100
AcDbLine
 10
598.4031032885586
 20
330.9972904351207
 30
0.0
 11
607.4240114215472
 21
336.855350946975
 31
0.0
  0
ARC
  5
159D
330
D5F
100
AcDbEntity
  8
AM_5
370
    -2
100
AcDbCircle
 10
580.4276898925381
 20
319.3242905722344
 30
0.0
 40
31.18912011783545
100
AcDbArc
 50
3.674717371436524
 51
29.3244529022197
  0
SOLID
  5
159E
330
D5F
100
AcDbEntity
  8
AM_5
370
     0
100
AcDbTrace
 10
611.8858470406929
 20
321.3339497939504
 30
0.0
 11
611.2195231293084
 21
321.3125748188261
 31
0.0
 12
611.6168100103736
 22
319.3242905722344
 32
0.0
 13
611.6168100103736
 23
319.3242905722344
 33
0.0
  0
SOLID
  5
159F
330
D5F
100
AcDbEntity
  8
AM_5
370
     0
100
AcDbTrace
 10
607.3350100841428
 20
334.4268197787209
 30
0.0
 11
607.9054829789096
 21
334.7717909670553
 31
0.0
 12
606.5853329665231
 22
336.3107240571885
 32
0.0
 13
606.5853329665231
 23
336.3107240571885
 33
0.0
  0
MTEXT
  5
15A0
330
D5F
100
AcDbEntity
  8
AM_5
100
AcDbMText
 10
612.331773134645
 20
329.3394903573479
 30
0.0
 40
2.5
 41
0.0
 71
     5
 72
     1
  1
33°
 11
0.2995054818972833
 21
-0.9540945793334516
 31
0.0
 73
     1
 44
1.0
1001
ACAD
1000
MTEXTBEGIN
1070
    73
1070
     1
1070
    44
1040
1.0
1070
    74
1070
     0
1000
MTEXTEND
  0
POINT
  5
15A1
330
D5F
100
AcDbEntity
  8
Defpoints
 62
     0
370
     0
100
AcDbPoint
 10
611.0438067548408
 20
325.2753074600105
 30
0.0
  0
POINT
  5
15A2
330
D5F
100
AcDbEntity
  8
Defpoints
 62
     0
370
     0
100
AcDbPoint
 10
580.4277374286034
 20
319.3242905722344
 30
0.0
  0
POINT
  5
15A3
330
D5F
100
AcDbEntity
  8
Defpoints
 62
     0
370
     0
100
AcDbPoint
 10
588.2851352329924
 20
324.4268134662038
 30
0.0
  0
POINT
  5
15A4
330
D5F
100
AcDbEntity
  8
Defpoints
 62
     0
370
     0
100
AcDbPoint
 10
597.5644248335345
 20
330.4526635453342
 30
0.0
  0
POINT
  5
15A5
330
D5F
100
AcDbEntity
  8
Defpoints
 62
     0
370
     0
100
AcDbPoint
 10
598.3227689187797
 20
319.3242905722344
 30
0.0
  0
ENDBLK
  5
D6C
330
D5F
100
AcDbEntity
  8
0
370
     0
100
AcDbBlockEnd
  0
BLOCK
  5
D79
330
D6D
100
AcDbEntity
  8
0
370
     0
100
AcDbBlockBegin
  2
*D2
 70
     1
 10
0.0
 20
0.0
 30
0.0
  3
*D2
  1

  0
LINE
  5
1570
330
D6D
100
AcDbEntity
  8
AM_5
370
    -2
100
AcDbLine
 10
598.4031032885584
 20
330.9972904351206
 30
0.0
 11
607.3896134679946
 21
336.8330133629509
 31
0.0
  0
LINE
  5
1571
330
D6D
100
AcDbEntity
  8
AM_5
370
    -2
100
AcDbLine
 10
581.4858636273888
 20
339.5059115433941
 30
0.0
 11
582.1106768615679
 21
351.4280582690677
 31
0.0
  0
ARC
  5
1572
330
D6D
100
AcDbEntity
  8
AM_5
370
    -2
100
AcDbCircle
 10
580.42820729881
 20
319.3246265691434
 30
0.0
 40
31.14748871593724
100
AcDbArc
 50
36.67880092090991
 51
83.3203693527464
  0
SOLID
  5
1573
330
D6D
100
AcDbEntity
  8
AM_5
370
     0
100
AcDbTrace
 10
605.6819775743885
 20
338.1203319093182
 30
0.0
 11
605.1348037809648
 21
337.7394837975534
 31
0.0
 12
606.5509350129706
 22
336.2883864731645
 32
0.0
 13
606.5509350129706
 23
336.2883864731645
 33
0.0
  0
SOLID
  5
1574
330
D6D
100
AcDbEntity
  8
AM_5
370
     0
100
AcDbTrace
 10
584.0230864142681
 20
349.9285433220688
 30
0.0
 11
584.0793332772153
 21
350.5928329688744
 31
0.0
 12
582.058340905325
 22
350.4294287343132
 32
0.0
 13
582.058340905325
 23
350.4294287343132
 33
0.0
  0
MTEXT
  5
1575
330
D6D
100
AcDbEntity
  8
AM_5
100
AcDbMText
 10
595.5162971864024
 20
349.1196227274766
 30
0.0
 40
2.5
 41
0.0
 71
     5
 72
     1
  1
54°
 11
0.8921328310566989
 21
-0.4517731861794803
 31
0.0
 73
     1
 44
1.0
1001
ACAD
1000
MTEXTBEGIN
1070
    73
1070
     1
1070
    44
1040
1.0
1070
    74
1070
     0
1000
MTEXTEND
  0
POINT
  5
1576
330
D6D
100
AcDbEntity
  8
Defpoints
 62
     0
370
     0
100
AcDbPoint
 10
600.0301907703232
 20
343.5305823918735
 30
0.0
  0
POINT
  5
1577
330
D6D
100
AcDbEntity
  8
Defpoints
 62
     0
370
     0
100
AcDbPoint
 10
588.2851352329923
 20
324.4268134662037
 30
0.0
  0
POINT
  5
1578
330
D6D
100
AcDbEntity
  8
Defpoints
 62
     0
370
     0
100
AcDbPoint
 10
580.4282001600596
 20
319.3244903536692
 30
0.0
  0
POINT
  5
1579
330
D6D
100
AcDbEntity
  8
Defpoints
 62
     0
370
     0
100
AcDbPoint
 10
581.4335276711458
 20
338.5072820086396
 30
0.0
  0
POINT
  5
157A
330
D6D
100
AcDbEntity
  8
Defpoints
 62
     0
370
     0
100
AcDbPoint
 10
597.5644248335345
 20
330.4526635453342
 30
0.0
  0
ENDBLK
  5
D7A
330
D6D
100
AcDbEntity
  8
0
370
     0
100
AcDbBlockEnd
  0
BLOCK
  5
D87
330
D7B
100
AcDbEntity
  8
0
370
     0
100
AcDbBlockBegin
  2
*D3
 70
     1
 10
0.0
 20
0.0
 30
0.0
  3
*D3
  1

  0
LINE
  5
1CA9
330
D7B
100
AcDbEntity
  8
AM_5
370
     9
100
AcDbLine
 10
590.9781551991065
 20
324.9832736702109
 30
0.0
 11
598.1202460549731
 21
313.9956075944285
 31
0.0
  0
LINE
  5
1CAA
330
D7B
100
AcDbEntity
  8
AM_5
370
     9
100
AcDbLine
 10
595.4774239005103
 20
327.907842512106
 30
0.0
 11
602.6195147563768
 21
316.9201764363236
 31
0.0
  0
LINE
  5
1CAB
330
D7B
100
AcDbEntity
  8
AM_5
370
     9
100
AcDbLine
 10
603.7514003249225
 20
318.8486045681756
 30
0.0
 11
605.4282800324998
 21
319.9385928462389
 31
0.0
  0
LINE
  5
1CAC
330
D7B
100
AcDbEntity
  8
AM_5
370
     9
100
AcDbLine
 10
595.898372208364
 20
313.7440591701539
 30
0.0
 11
588.1527849876497
 21
308.709351409576
 31
0.0
  0
LINE
  5
1CAD
330
D7B
100
AcDbEntity
  8
AM_5
370
     9
100
AcDbLine
 10
602.0745206173452
 20
317.7586162901123
 30
0.0
 11
597.5752519159414
 21
314.8340474482172
 31
0.0
  0
SOLID
  5
1CAE
330
D7B
100
AcDbEntity
  8
AM_5
370
     0
100
AcDbTrace
 10
603.5697356119119
 20
319.1280845194385
 30
0.0
 11
603.933065037933
 21
318.5691246169128
 31
0.0
 12
602.0745206173452
 22
317.7586162901123
 32
0.0
 13
602.0745206173452
 23
317.7586162901123
 33
0.0
  0
SOLID
  5
1CAF
330
D7B
100
AcDbEntity
  8
AM_5
370
     0
100
AcDbTrace
 10
595.7167074953535
 20
314.0235391214168
 30
0.0
 11
596.0800369213745
 21
313.464579218891
 31
0.0
 12
597.5752519159414
 22
314.8340474482172
 32
0.0
 13
597.5752519159414
 23
314.8340474482172
 33
0.0
  0
MTEXT
  5
1CB0
330
D7B
100
AcDbEntity
  8
AM_5
100
AcDbMText
 10
589.960901931397
 20
312.5682008218577
 30
0.0
 40
2.5
 41
0.0
 71
     5
 72
     1
  1
4.5
  7
CHINA
 11
0.8384398537886715
 21
0.5449941390316332
 31
0.0
 73
     1
 44
1.0
1001
ACAD
1000
MTEXTBEGIN
1070
    73
1070
     1
1070
    44
1040
1.0
1070
    74
1070
     0
1000
MTEXTEND
  0
POINT
  5
1CB1
330
D7B
100
AcDbEntity
  8
Defpoints
 62
     0
370
     0
100
AcDbPoint
 10
590.433161060075
 20
325.8217135239995
 30
0.0
  0
POINT
  5
1CB2
330
D7B
100
AcDbEntity
  8
Defpoints
 62
     0
370
     0
100
AcDbPoint
 10
594.9324297614786
 20
328.7462823658947
 30
0.0
  0
POINT
  5
1CB3
330
D7B
100
AcDbEntity
  8
Defpoints
 62
     0
370
     0
100
AcDbPoint
 10
602.0745206173452
 20
317.7586162901123
 30
0.0
  0
ENDBLK
  5
D88
330
D7B
100
AcDbEntity
  8
0
370
     0
100
AcDbBlockEnd
  0
BLOCK
  5
D95
330
D89
100
AcDbEntity
  8
0
370
     0
100
AcDbBlockBegin
  2
*D4
 70
     1
 10
0.0
 20
0.0
 30
0.0
  3
*D4
  1

  0
LINE
  5
1B4D
330
D89
100
AcDbEntity
  8
AM_5
370
     9
100
AcDbLine
 10
595.2244365429337
 20
331.0673787030048
 30
0.0
 11
598.049137562382
 21
332.9016908120054
 31
0.0
  0
LINE
  5
1B4E
330
D89
100
AcDbEntity
  8
AM_5
370
     9
100
AcDbLine
 10
597.1742669162106
 20
328.0647883498576
 30
0.0
 11
599.9989679356589
 21
329.8991004588583
 31
0.0
  0
LINE
  5
1B4F
330
D89
100
AcDbEntity
  8
AM_5
370
     9
100
AcDbLine
 10
596.1212087196257
 20
334.0344266052373
 30
0.0
 11
595.0319599627134
 21
335.7117867769253
 31
0.0
  0
LINE
  5
1B50
330
D89
100
AcDbEntity
  8
AM_5
370
     9
100
AcDbLine
 10
600.249536606727
 20
327.6771159087142
 30
0.0
 11
603.6080536072064
 21
322.505255379343
 31
0.0
  0
LINE
  5
1B51
330
D89
100
AcDbEntity
  8
AM_5
370
     9
100
AcDbLine
 10
597.210457476538
 20
332.3570664335493
 30
0.0
 11
599.1602878498148
 21
329.3544760804022
 31
0.0
  0
SOLID
  5
1B52
330
D89
100
AcDbEntity
  8
AM_5
370
     0
100
AcDbTrace
 10
596.4007687482403
 20
334.2159680647228
 30
0.0
 11
595.8416486910109
 21
333.8528851457519
 31
0.0
 12
597.210457476538
 22
332.3570664335493
 32
0.0
 13
597.210457476538
 23
332.3570664335493
 33
0.0
  0
SOLID
  5
1B53
330
D89
100
AcDbEntity
  8
AM_5
370
     0
100
AcDbTrace
 10
600.5290966353417
 20
327.8586573681996
 30
0.0
 11
599.9699765781123
 21
327.4955744492288
 31
0.0
 12
599.1602878498148
 22
329.3544760804022
 32
0.0
 13
599.1602878498148
 23
329.3544760804022
 33
0.0
  0
MTEXT
  5
1B54
330
D89
100
AcDbEntity
  8
AM_5
100
AcDbMText
 10
604.4966057731859
 20
325.2682403882499
 30
0.0
 40
2.5
 41
0.0
 71
     5
 72
     1
  1
3
  7
CHINA
 11
0.544624378456116
 21
-0.838680085843994
 31
0.0
 73
     1
 44
1.0
1001
ACAD
1000
MTEXTBEGIN
1070
    73
1070
     1
1070
    44
1040
1.0
1070
    74
1070
     0
1000
MTEXTEND
  0
POINT
  5
1B55
330
D89
100
AcDbEntity
  8
Defpoints
 62
     0
370
     0
100
AcDbPoint
 10
594.3857564570897
 20
330.5227543245487
 30
0.0
  0
POINT
  5
1B56
330
D89
100
AcDbEntity
  8
Defpoints
 62
     0
370
     0
100
AcDbPoint
 10
596.3355868303666
 20
327.5201639714016
 30
0.0
  0
POINT
  5
1B57
330
D89
100
AcDbEntity
  8
Defpoints
 62
     0
370
     0
100
AcDbPoint
 10
599.1602878498148
 20
329.3544760804022
 30
0.0
  0
ENDBLK
  5
D96
330
D89
100
AcDbEntity
  8
0
370
     0
100
AcDbBlockEnd
  0
BLOCK
  5
FCB
330
FC9
100
AcDbEntity
  8
0
370
     0
100
AcDbBlockBegin
  2
GENAXEH
 70
     0
 10
0.0
 20
0.0
 30
0.0
  3
GENAXEH
  1

  0
LINE
  5
FCA
330
FC9
100
AcDbEntity
  8
0
100
AcDbLine
 10
-1.0
 20
0.0
 30
0.0
 11
1.0
 21
0.0
 31
0.0
  0
ENDBLK
  5
FCC
330
FC9
100
AcDbEntity
  8
0
370
     0
100
AcDbBlockEnd
  0
BLOCK
  5
FF4
330
FEA
100
AcDbEntity
  8
0
370
     0
100
AcDbBlockBegin
  2
*D7
 70
     1
 10
0.0
 20
0.0
 30
0.0
  3
*D7
  1

  0
LINE
  5
1CDF
330
FEA
100
AcDbEntity
  8
AM_5
370
    -2
100
AcDbLine
 10
669.88304045473
 20
407.7308565635736
 30
0.0
 11
669.88304045473
 21
414.1578173709632
 31
0.0
  0
LINE
  5
1CE0
330
FEA
100
AcDbEntity
  8
AM_5
370
    -2
100
AcDbLine
 10
626.3830404547299
 20
406.6459200730348
 30
0.0
 11
626.3830404547299
 21
414.1578173709632
 31
0.0
  0
LINE
  5
1CE1
330
FEA
100
AcDbEntity
  8
AM_5
370
    -2
100
AcDbLine
 10
667.88304045473
 20
413.1578173709632
 30
0.0
 11
628.3830404547298
 21
413.1578173709632
 31
0.0
  0
SOLID
  5
1CE2
330
FEA
100
AcDbEntity
  8
AM_5
370
     0
100
AcDbTrace
 10
667.88304045473
 20
413.4911507042965
 30
0.0
 11
667.88304045473
 21
412.8244840376299
 31
0.0
 12
669.88304045473
 22
413.1578173709632
 32
0.0
 13
669.88304045473
 23
413.1578173709632
 33
0.0
  0
SOLID
  5
1CE3
330
FEA
100
AcDbEntity
  8
AM_5
370
     0
100
AcDbTrace
 10
628.3830404547298
 20
413.4911507042965
 30
0.0
 11
628.3830404547298
 21
412.8244840376299
 31
0.0
 12
626.3830404547299
 22
413.1578173709632
 32
0.0
 13
626.3830404547299
 23
413.1578173709632
 33
0.0
  0
MTEXT
  5
1CE4
330
FEA
100
AcDbEntity
  8
AM_5
100
AcDbMText
 10
647.7307858510162
 20
416.0625792757251
 30
0.0
 40
2.5
 41
0.0
 71
     5
 72
     1
  1
(43.5)
  7
CHINA
 73
     1
 44
1.0
1001
ACAD
1000
MTEXTBEGIN
1070
    73
1070
     1
1070
    44
1040
1.0
1070
    74
1070
     0
1000
MTEXTEND
  0
POINT
  5
1CE5
330
FEA
100
AcDbEntity
  8
Defpoints
 62
     0
370
     0
100
AcDbPoint
 10
669.88304045473
 20
406.7308565635737
 30
0.0
  0
POINT
  5
1CE6
330
FEA
100
AcDbEntity
  8
Defpoints
 62
     0
370
     0
100
AcDbPoint
 10
626.3830404547299
 20
405.6459200730349
 30
0.0
  0
POINT
  5
1CE7
330
FEA
100
AcDbEntity
  8
Defpoints
 62
     0
370
     0
100
AcDbPoint
 10
626.3830404547299
 20
413.1578173709632
 30
0.0
  0
ENDBLK
  5
FF5
330
FEA
100
AcDbEntity
  8
0
370
     0
100
AcDbBlockEnd
  0
BLOCK
  5
101F
330
1015
100
AcDbEntity
  8
0
370
     0
100
AcDbBlockBegin
  2
*D8
 70
     1
 10
0.0
 20
0.0
 30
0.0
  3
*D8
  1

  0
LINE
  5
13CA
330
1015
100
AcDbEntity
  8
AM_5
100
AcDbLine
 10
669.88304045473
 20
375.7308565635738
 30
0.0
 11
669.88304045473
 21
364.4486681408541
 31
0.0
  0
LINE
  5
13CB
330
1015
100
AcDbEntity
  8
AM_5
100
AcDbLine
 10
641.8830404547301
 20
370.7308565635738
 30
0.0
 11
641.8830404547301
 21
364.4486681408541
 31
0.0
  0
LINE
  5
13CC
330
1015
100
AcDbEntity
  8
AM_5
100
AcDbLine
 10
666.88304045473
 20
365.4486681408541
 30
0.0
 11
644.8830404547301
 21
365.4486681408541
 31
0.0
  0
SOLID
  5
13CD
330
1015
100
AcDbEntity
  8
AM_5
370
     0
100
AcDbTrace
 10
666.88304045473
 20
365.9486681408541
 30
0.0
 11
666.88304045473
 21
364.9486681408541
 31
0.0
 12
669.88304045473
 22
365.4486681408541
 32
0.0
 13
669.88304045473
 23
365.4486681408541
 33
0.0
  0
SOLID
  5
13CE
330
1015
100
AcDbEntity
  8
AM_5
370
     0
100
AcDbTrace
 10
644.8830404547301
 20
365.9486681408541
 30
0.0
 11
644.8830404547301
 21
364.9486681408541
 31
0.0
 12
641.8830404547301
 22
365.4486681408541
 32
0.0
 13
641.8830404547301
 23
365.4486681408541
 33
0.0
  0
MTEXT
  5
13CF
330
1015
100
AcDbEntity
  8
AM_5
100
AcDbMText
 10
655.88304045473
 20
368.1990126290431
 30
0.0
 40
3.5
 41
0.0
 71
     5
 72
     1
  1
28
 73
     1
 44
1.0
1001
ACAD
1000
MTEXTBEGIN
1070
    73
1070
     1
1070
    44
1040
1.0
1070
    74
1070
     0
1000
MTEXTEND
  0
POINT
  5
13D0
330
1015
100
AcDbEntity
  8
Defpoints
 62
     0
370
     0
100
AcDbPoint
 10
669.88304045473
 20
376.7308565635738
 30
0.0
  0
POINT
  5
13D1
330
1015
100
AcDbEntity
  8
Defpoints
 62
     0
370
     0
100
AcDbPoint
 10
641.8830404547301
 20
371.7308565635738
 30
0.0
  0
POINT
  5
13D2
330
1015
100
AcDbEntity
  8
Defpoints
 62
     0
370
     0
100
AcDbPoint
 10
641.8830404547301
 20
365.4486681408541
 30
0.0
  0
ENDBLK
  5
1020
330
1015
100
AcDbEntity
  8
0
370
     0
100
AcDbBlockEnd
  0
BLOCK
  5
103E
330
1034
100
AcDbEntity
  8
0
370
     0
100
AcDbBlockBegin
  2
*D9
 70
     1
 10
0.0
 20
0.0
 30
0.0
  3
*D9
  1

  0
LINE
  5
13C1
330
1034
100
AcDbEntity
  8
AM_5
100
AcDbLine
 10
669.88304045473
 20
375.7308565635738
 30
0.0
 11
669.88304045473
 21
352.7308565635738
 31
0.0
  0
LINE
  5
13C2
330
1034
100
AcDbEntity
  8
AM_5
100
AcDbLine
 10
639.38304045473
 20
367.2308565635738
 30
0.0
 11
639.38304045473
 21
352.7308565635738
 31
0.0
  0
LINE
  5
13C3
330
1034
100
AcDbEntity
  8
AM_5
100
AcDbLine
 10
666.88304045473
 20
353.7308565635738
 30
0.0
 11
642.38304045473
 21
353.7308565635738
 31
0.0
  0
SOLID
  5
13C4
330
1034
100
AcDbEntity
  8
AM_5
370
     0
100
AcDbTrace
 10
666.88304045473
 20
354.2308565635738
 30
0.0
 11
666.88304045473
 21
353.2308565635738
 31
0.0
 12
669.88304045473
 22
353.7308565635738
 32
0.0
 13
669.88304045473
 23
353.7308565635738
 33
0.0
  0
SOLID
  5
13C5
330
1034
100
AcDbEntity
  8
AM_5
370
     0
100
AcDbTrace
 10
642.38304045473
 20
354.2308565635738
 30
0.0
 11
642.38304045473
 21
353.2308565635738
 31
0.0
 12
639.38304045473
 22
353.7308565635738
 32
0.0
 13
639.38304045473
 23
353.7308565635738
 33
0.0
  0
MTEXT
  5
13C6
330
1034
100
AcDbEntity
  8
AM_5
100
AcDbMText
 10
654.6330404547299
 20
356.4808565635738
 30
0.0
 40
3.5
 41
0.0
 71
     5
 72
     1
  1
30.5
 73
     1
 44
1.0
1001
ACAD
1000
MTEXTBEGIN
1070
    73
1070
     1
1070
    44
1040
1.0
1070
    74
1070
     0
1000
MTEXTEND
  0
POINT
  5
13C7
330
1034
100
AcDbEntity
  8
Defpoints
 62
     0
370
     0
100
AcDbPoint
 10
669.88304045473
 20
376.7308565635738
 30
0.0
  0
POINT
  5
13C8
330
1034
100
AcDbEntity
  8
Defpoints
 62
     0
370
     0
100
AcDbPoint
 10
639.38304045473
 20
368.2308565635738
 30
0.0
  0
POINT
  5
13C9
330
1034
100
AcDbEntity
  8
Defpoints
 62
     0
370
     0
100
AcDbPoint
 10
639.38304045473
 20
353.7308565635738
 30
0.0
  0
ENDBLK
  5
103F
330
1034
100
AcDbEntity
  8
0
370
     0
100
AcDbBlockEnd
  0
BLOCK
  5
10D2
330
10CF
100
AcDbEntity
  8
0
370
     0
100
AcDbBlockBegin
  2
GENDOT
 70
     0
 10
0.0
 20
0.0
 30
0.0
  3
GENDOT
  1

  0
LINE
  5
10D0
330
10CF
100
AcDbEntity
  8
0
100
AcDbLine
 10
0.0
 20
0.0
 30
0.0
 11
-1.0
 21
0.0
 31
0.0
  0
LWPOLYLINE
  5
10D1
330
10CF
100
AcDbEntity
  8
0
100
AcDbPolyline
 90
        2
 70
     1
 43
0.25
 10
-0.125
 20
0.0
 42
1.0
 10
0.125
 20
0.0
 42
1.0
  0
ENDBLK
  5
10D3
330
10CF
100
AcDbEntity
  8
0
370
     0
100
AcDbBlockEnd
  0
BLOCK
  5
118E
330
1184
100
AcDbEntity
  8
0
370
     0
100
AcDbBlockBegin
  2
*D11
 70
     1
 10
0.0
 20
0.0
 30
0.0
  3
*D11
  1

  0
LINE
  5
13D3
330
1184
100
AcDbEntity
  8
AM_5
100
AcDbLine
 10
632.38304045473
 20
367.2308565635738
 30
0.0
 11
632.38304045473
 21
352.7308565635738
 31
0.0
  0
LINE
  5
13D4
330
1184
100
AcDbEntity
  8
AM_5
100
AcDbLine
 10
639.38304045473
 20
367.2308565635738
 30
0.0
 11
639.38304045473
 21
352.7308565635738
 31
0.0
  0
LINE
  5
13D5
330
1184
100
AcDbEntity
  8
AM_5
100
AcDbLine
 10
629.38304045473
 20
353.7308565635738
 30
0.0
 11
626.38304045473
 21
353.7308565635738
 31
0.0
  0
LINE
  5
13D6
330
1184
100
AcDbEntity
  8
AM_5
100
AcDbLine
 10
642.38304045473
 20
353.7308565635738
 30
0.0
 11
645.38304045473
 21
353.7308565635738
 31
0.0
  0
LINE
  5
13D7
330
1184
100
AcDbEntity
  8
AM_5
100
AcDbLine
 10
632.38304045473
 20
353.7308565635738
 30
0.0
 11
639.38304045473
 21
353.7308565635738
 31
0.0
  0
SOLID
  5
13D8
330
1184
100
AcDbEntity
  8
AM_5
370
     0
100
AcDbTrace
 10
629.38304045473
 20
354.2308565635738
 30
0.0
 11
629.38304045473
 21
353.2308565635738
 31
0.0
 12
632.38304045473
 22
353.7308565635738
 32
0.0
 13
632.38304045473
 23
353.7308565635738
 33
0.0
  0
SOLID
  5
13D9
330
1184
100
AcDbEntity
  8
AM_5
370
     0
100
AcDbTrace
 10
642.38304045473
 20
354.2308565635738
 30
0.0
 11
642.38304045473
 21
353.2308565635738
 31
0.0
 12
639.38304045473
 22
353.7308565635738
 32
0.0
 13
639.38304045473
 23
353.7308565635738
 33
0.0
  0
MTEXT
  5
13DA
330
1184
100
AcDbEntity
  8
AM_5
100
AcDbMText
 10
635.8830404547299
 20
356.4808565635738
 30
0.0
 40
3.5
 41
0.0
 71
     5
 72
     1
  1
7
 73
     1
 44
1.0
1001
ACAD
1000
MTEXTBEGIN
1070
    73
1070
     1
1070
    44
1040
1.0
1070
    74
1070
     0
1000
MTEXTEND
  0
POINT
  5
13DB
330
1184
100
AcDbEntity
  8
Defpoints
 62
     0
370
     0
100
AcDbPoint
 10
632.38304045473
 20
368.2308565635738
 30
0.0
  0
POINT
  5
13DC
330
1184
100
AcDbEntity
  8
Defpoints
 62
     0
370
     0
100
AcDbPoint
 10
639.38304045473
 20
368.2308565635738
 30
0.0
  0
POINT
  5
13DD
330
1184
100
AcDbEntity
  8
Defpoints
 62
     0
370
     0
100
AcDbPoint
 10
639.38304045473
 20
353.7308565635738
 30
0.0
  0
ENDBLK
  5
118F
330
1184
100
AcDbEntity
  8
0
370
     0
100
AcDbBlockEnd
  0
BLOCK
  5
11C7
330
11BB
100
AcDbEntity
  8
0
370
     0
100
AcDbBlockBegin
  2
*D12
 70
     1
 10
0.0
 20
0.0
 30
0.0
  3
*D12
  1

  0
LINE
  5
13DE
330
11BB
100
AcDbEntity
  8
AM_5
100
AcDbLine
 10
632.38304045473
 20
367.2308565635738
 30
0.0
 11
632.38304045473
 21
358.7308565635738
 31
0.0
  0
LINE
  5
13DF
330
11BB
100
AcDbEntity
  8
AM_5
100
AcDbLine
 10
636.38304045473
 20
367.2308565635738
 30
0.0
 11
636.38304045473
 21
358.7308565635738
 31
0.0
  0
LINE
  5
13E0
330
11BB
100
AcDbEntity
  8
AM_5
100
AcDbLine
 10
639.38304045473
 20
359.7308565635738
 30
0.0
 11
642.38304045473
 21
359.7308565635738
 31
0.0
  0
LINE
  5
13E1
330
11BB
100
AcDbEntity
  8
AM_5
100
AcDbLine
 10
629.38304045473
 20
359.7308565635738
 30
0.0
 11
622.63304045473
 21
359.7308565635738
 31
0.0
  0
LINE
  5
13E2
330
11BB
100
AcDbEntity
  8
AM_5
100
AcDbLine
 10
636.38304045473
 20
359.7308565635738
 30
0.0
 11
632.38304045473
 21
359.7308565635738
 31
0.0
  0
SOLID
  5
13E3
330
11BB
100
AcDbEntity
  8
AM_5
370
     0
100
AcDbTrace
 10
639.38304045473
 20
360.2308565635738
 30
0.0
 11
639.38304045473
 21
359.2308565635738
 31
0.0
 12
636.38304045473
 22
359.7308565635738
 32
0.0
 13
636.38304045473
 23
359.7308565635738
 33
0.0
  0
SOLID
  5
13E4
330
11BB
100
AcDbEntity
  8
AM_5
370
     0
100
AcDbTrace
 10
629.38304045473
 20
360.2308565635738
 30
0.0
 11
629.38304045473
 21
359.2308565635738
 31
0.0
 12
632.38304045473
 22
359.7308565635738
 32
0.0
 13
632.38304045473
 23
359.7308565635738
 33
0.0
  0
MTEXT
  5
13E5
330
11BB
100
AcDbEntity
  8
AM_5
100
AcDbMText
 10
624.50804045473
 20
362.4808565635738
 30
0.0
 40
3.5
 41
0.0
 71
     5
 72
     1
  1
4
 73
     1
 44
1.0
1001
ACAD
1000
MTEXTBEGIN
1070
    73
1070
     1
1070
    44
1040
1.0
1070
    74
1070
     0
1000
MTEXTEND
  0
POINT
  5
13E6
330
11BB
100
AcDbEntity
  8
Defpoints
 62
     0
370
     0
100
AcDbPoint
 10
632.38304045473
 20
368.2308565635738
 30
0.0
  0
POINT
  5
13E7
330
11BB
100
AcDbEntity
  8
Defpoints
 62
     0
370
     0
100
AcDbPoint
 10
636.38304045473
 20
368.2308565635738
 30
0.0
  0
POINT
  5
13E8
330
11BB
100
AcDbEntity
  8
Defpoints
 62
     0
370
     0
100
AcDbPoint
 10
636.38304045473
 20
359.7308565635738
 30
0.0
  0
ENDBLK
  5
11C8
330
11BB
100
AcDbEntity
  8
0
370
     0
100
AcDbBlockEnd
  0
BLOCK
  5
1275
330
1269
100
AcDbEntity
  8
0
370
     0
100
AcDbBlockBegin
  2
*D13
 70
     1
 10
0.0
 20
0.0
 30
0.0
  3
*D13
  1

  0
LINE
  5
2073
330
1269
100
AcDbEntity
  8
AM_5
100
AcDbLine
 10
628.38304045473
 20
478.2296633909409
 30
0.0
 11
628.38304045473
 21
490.2296633909408
 31
0.0
  0
LINE
  5
2074
330
1269
100
AcDbEntity
  8
AM_5
100
AcDbLine
 10
626.38304045473
 20
484.1937650060786
 30
0.0
 11
626.38304045473
 21
490.2296633909408
 31
0.0
  0
LINE
  5
2075
330
1269
100
AcDbEntity
  8
AM_5
100
AcDbLine
 10
631.3830404547299
 20
489.2296633909408
 30
0.0
 11
634.38304045473
 21
489.2296633909408
 31
0.0
  0
LINE
  5
2076
330
1269
100
AcDbEntity
  8
AM_5
100
AcDbLine
 10
623.3830404547299
 20
489.2296633909408
 30
0.0
 11
616.6839558090607
 21
489.2296633909408
 31
0.0
  0
LINE
  5
2077
330
1269
100
AcDbEntity
  8
AM_5
100
AcDbLine
 10
628.38304045473
 20
489.2296633909408
 30
0.0
 11
626.38304045473
 21
489.2296633909408
 31
0.0
  0
SOLID
  5
2078
330
1269
100
AcDbEntity
  8
AM_5
370
     0
100
AcDbTrace
 10
631.3830404547299
 20
489.7296633909408
 30
0.0
 11
631.3830404547299
 21
488.7296633909408
 31
0.0
 12
628.38304045473
 22
489.2296633909408
 32
0.0
 13
628.38304045473
 23
489.2296633909408
 33
0.0
  0
SOLID
  5
2079
330
1269
100
AcDbEntity
  8
AM_5
370
     0
100
AcDbTrace
 10
623.3830404547299
 20
489.7296633909408
 30
0.0
 11
623.3830404547299
 21
488.7296633909408
 31
0.0
 12
626.38304045473
 22
489.2296633909408
 32
0.0
 13
626.38304045473
 23
489.2296633909408
 33
0.0
  0
MTEXT
  5
207A
330
1269
100
AcDbEntity
  8
AM_5
100
AcDbMText
 10
618.5334981318954
 20
491.9800078791298
 30
0.0
 40
3.5
 41
0.0
 71
     5
 72
     1
  1
2
 73
     1
 44
1.0
1001
ACAD
1000
MTEXTBEGIN
1070
    73
1070
     1
1070
    44
1040
1.0
1070
    74
1070
     0
1000
MTEXTEND
  0
POINT
  5
207B
330
1269
100
AcDbEntity
  8
Defpoints
 62
     0
370
     0
100
AcDbPoint
 10
628.38304045473
 20
477.2296633909408
 30
0.0
  0
POINT
  5
207C
330
1269
100
AcDbEntity
  8
Defpoints
 62
     0
370
     0
100
AcDbPoint
 10
626.38304045473
 20
483.1937650060786
 30
0.0
  0
POINT
  5
207D
330
1269
100
AcDbEntity
  8
Defpoints
 62
     0
370
     0
100
AcDbPoint
 10
626.38304045473
 20
489.2296633909408
 30
0.0
  0
ENDBLK
  5
1276
330
1269
100
AcDbEntity
  8
0
370
     0
100
AcDbBlockEnd
  0
BLOCK
  5
129D
330
1291
100
AcDbEntity
  8
0
370
     0
100
AcDbBlockBegin
  2
*D14
 70
     1
 10
0.0
 20
0.0
 30
0.0
  3
*D14
  1

  0
LINE
  5
207E
330
1291
100
AcDbEntity
  8
AM_5
100
AcDbLine
 10
629.38304045473
 20
475.904533896355
 30
0.0
 11
629.38304045473
 21
496.2296633909408
 31
0.0
  0
LINE
  5
207F
330
1291
100
AcDbEntity
  8
AM_5
100
AcDbLine
 10
626.38304045473
 20
484.1937650060786
 30
0.0
 11
626.38304045473
 21
496.2296633909408
 31
0.0
  0
LINE
  5
2080
330
1291
100
AcDbEntity
  8
AM_5
100
AcDbLine
 10
632.38304045473
 20
495.2296633909408
 30
0.0
 11
635.3830404547299
 21
495.2296633909408
 31
0.0
  0
LINE
  5
2081
330
1291
100
AcDbEntity
  8
AM_5
100
AcDbLine
 10
623.3830404547299
 20
495.2296633909408
 30
0.0
 11
616.8380657078994
 21
495.2296633909408
 31
0.0
  0
LINE
  5
2082
330
1291
100
AcDbEntity
  8
AM_5
100
AcDbLine
 10
629.38304045473
 20
495.2296633909408
 30
0.0
 11
626.38304045473
 21
495.2296633909408
 31
0.0
  0
SOLID
  5
2083
330
1291
100
AcDbEntity
  8
AM_5
370
     0
100
AcDbTrace
 10
632.38304045473
 20
495.7296633909408
 30
0.0
 11
632.38304045473
 21
494.7296633909409
 31
0.0
 12
629.38304045473
 22
495.2296633909408
 32
0.0
 13
629.38304045473
 23
495.2296633909408
 33
0.0
  0
SOLID
  5
2084
330
1291
100
AcDbEntity
  8
AM_5
370
     0
100
AcDbTrace
 10
623.3830404547299
 20
495.7296633909408
 30
0.0
 11
623.3830404547299
 21
494.7296633909409
 31
0.0
 12
626.38304045473
 22
495.2296633909408
 32
0.0
 13
626.38304045473
 23
495.2296633909408
 33
0.0
  0
MTEXT
  5
2085
330
1291
100
AcDbEntity
  8
AM_5
100
AcDbMText
 10
618.6105530813147
 20
497.9796633909408
 30
0.0
 40
3.5
 41
0.0
 71
     5
 72
     1
  1
3
 73
     1
 44
1.0
1001
ACAD
1000
MTEXTBEGIN
1070
    73
1070
     1
1070
    44
1040
1.0
1070
    74
1070
     0
1000
MTEXTEND
  0
POINT
  5
2086
330
1291
100
AcDbEntity
  8
Defpoints
 62
     0
370
     0
100
AcDbPoint
 10
629.38304045473
 20
474.9045338963549
 30
0.0
  0
POINT
  5
2087
330
1291
100
AcDbEntity
  8
Defpoints
 62
     0
370
     0
100
AcDbPoint
 10
626.38304045473
 20
483.1937650060786
 30
0.0
  0
POINT
  5
2088
330
1291
100
AcDbEntity
  8
Defpoints
 62
     0
370
     0
100
AcDbPoint
 10
626.38304045473
 20
495.2296633909408
 30
0.0
  0
ENDBLK
  5
129E
330
1291
100
AcDbEntity
  8
0
370
     0
100
AcDbBlockEnd
  0
BLOCK
  5
1426
330
141A
100
AcDbEntity
  8
0
370
     0
100
AcDbBlockBegin
  2
*D15
 70
     1
 10
0.0
 20
0.0
 30
0.0
  3
*D15
  1

  0
LINE
  5
2089
330
141A
100
AcDbEntity
  8
AM_5
100
AcDbLine
 10
669.88304045473
 20
477.5921680171442
 30
0.0
 11
669.88304045473
 21
489.5921680171441
 31
0.0
  0
LINE
  5
208A
330
141A
100
AcDbEntity
  8
AM_5
100
AcDbLine
 10
662.8830404547301
 20
468.8573458740689
 30
0.0
 11
662.8830404547301
 21
489.5921680171441
 31
0.0
  0
LINE
  5
208B
330
141A
100
AcDbEntity
  8
AM_5
100
AcDbLine
 10
672.8830404547299
 20
488.5921680171441
 30
0.0
 11
675.88304045473
 21
488.5921680171441
 31
0.0
  0
LINE
  5
208C
330
141A
100
AcDbEntity
  8
AM_5
100
AcDbLine
 10
659.88304045473
 20
488.5921680171441
 30
0.0
 11
656.8830404547301
 21
488.5921680171441
 31
0.0
  0
LINE
  5
208D
330
141A
100
AcDbEntity
  8
AM_5
100
AcDbLine
 10
669.88304045473
 20
488.5921680171441
 30
0.0
 11
662.8830404547301
 21
488.5921680171441
 31
0.0
  0
SOLID
  5
208E
330
141A
100
AcDbEntity
  8
AM_5
370
     0
100
AcDbTrace
 10
672.8830404547299
 20
489.0921680171441
 30
0.0
 11
672.8830404547299
 21
488.0921680171441
 31
0.0
 12
669.88304045473
 22
488.5921680171441
 32
0.0
 13
669.88304045473
 23
488.5921680171441
 33
0.0
  0
SOLID
  5
208F
330
141A
100
AcDbEntity
  8
AM_5
370
     0
100
AcDbTrace
 10
659.88304045473
 20
489.0921680171441
 30
0.0
 11
659.88304045473
 21
488.0921680171441
 31
0.0
 12
662.8830404547301
 22
488.5921680171441
 32
0.0
 13
662.8830404547301
 23
488.5921680171441
 33
0.0
  0
MTEXT
  5
2090
330
141A
100
AcDbEntity
  8
AM_5
100
AcDbMText
 10
666.38304045473
 20
491.3421680171441
 30
0.0
 40
3.5
 41
0.0
 71
     5
 72
     1
  1
7
 73
     1
 44
1.0
1001
ACAD
1000
MTEXTBEGIN
1070
    73
1070
     1
1070
    44
1040
1.0
1070
    74
1070
     0
1000
MTEXTEND
  0
POINT
  5
2091
330
141A
100
AcDbEntity
  8
Defpoints
 62
     0
370
     0
100
AcDbPoint
 10
669.88304045473
 20
476.5921680171441
 30
0.0
  0
POINT
  5
2092
330
141A
100
AcDbEntity
  8
Defpoints
 62
     0
370
     0
100
AcDbPoint
 10
662.8830404547301
 20
467.8573458740689
 30
0.0
  0
POINT
  5
2093
330
141A
100
AcDbEntity
  8
Defpoints
 62
     0
370
     0
100
AcDbPoint
 10
662.8830404547301
 20
488.5921680171441
 30
0.0
  0
ENDBLK
  5
1427
330
141A
100
AcDbEntity
  8
0
370
     0
100
AcDbBlockEnd
  0
BLOCK
  5
1456
330
144C
100
AcDbEntity
  8
0
370
     0
100
AcDbBlockBegin
  2
*D16
 70
     1
 10
0.0
 20
0.0
 30
0.0
  3
*D16
  1

  0
LINE
  5
2094
330
144C
100
AcDbEntity
  8
AM_5
100
AcDbLine
 10
662.8830404547301
 20
468.8573458740689
 30
0.0
 11
662.8830404547301
 21
489.5921680171441
 31
0.0
  0
LINE
  5
2095
330
144C
100
AcDbEntity
  8
AM_5
100
AcDbLine
 10
648.8830404547301
 20
459.1460680225773
 30
0.0
 11
648.8830404547301
 21
489.5921680171441
 31
0.0
  0
LINE
  5
2096
330
144C
100
AcDbEntity
  8
AM_5
100
AcDbLine
 10
659.88304045473
 20
488.5921680171441
 30
0.0
 11
651.8830404547301
 21
488.5921680171441
 31
0.0
  0
SOLID
  5
2097
330
144C
100
AcDbEntity
  8
AM_5
370
     0
100
AcDbTrace
 10
659.88304045473
 20
489.0921680171441
 30
0.0
 11
659.88304045473
 21
488.0921680171441
 31
0.0
 12
662.8830404547301
 22
488.5921680171441
 32
0.0
 13
662.8830404547301
 23
488.5921680171441
 33
0.0
  0
SOLID
  5
2098
330
144C
100
AcDbEntity
  8
AM_5
370
     0
100
AcDbTrace
 10
651.8830404547301
 20
489.0921680171441
 30
0.0
 11
651.8830404547301
 21
488.0921680171441
 31
0.0
 12
648.8830404547301
 22
488.5921680171441
 32
0.0
 13
648.8830404547301
 23
488.5921680171441
 33
0.0
  0
MTEXT
  5
2099
330
144C
100
AcDbEntity
  8
AM_5
100
AcDbMText
 10
655.88304045473
 20
491.3421680171441
 30
0.0
 40
3.5
 41
0.0
 71
     5
 72
     1
  1
14
 73
     1
 44
1.0
1001
ACAD
1000
MTEXTBEGIN
1070
    73
1070
     1
1070
    44
1040
1.0
1070
    74
1070
     0
1000
MTEXTEND
  0
POINT
  5
209A
330
144C
100
AcDbEntity
  8
Defpoints
 62
     0
370
     0
100
AcDbPoint
 10
662.8830404547301
 20
467.8573458740689
 30
0.0
  0
POINT
  5
209B
330
144C
100
AcDbEntity
  8
Defpoints
 62
     0
370
     0
100
AcDbPoint
 10
648.8830404547301
 20
458.1460680225773
 30
0.0
  0
POINT
  5
209C
330
144C
100
AcDbEntity
  8
Defpoints
 62
     0
370
     0
100
AcDbPoint
 10
648.8830404547301
 20
488.5921680171441
 30
0.0
  0
ENDBLK
  5
1457
330
144C
100
AcDbEntity
  8
0
370
     0
100
AcDbBlockEnd
  0
BLOCK
  5
14F6
330
14EC
100
AcDbEntity
  8
0
370
     0
100
AcDbBlockBegin
  2
*D17
 70
     1
 10
0.0
 20
0.0
 30
0.0
  3
*D17
  1

  0
LINE
  5
209D
330
14EC
100
AcDbEntity
  8
AM_5
100
AcDbLine
 10
670.88304045473
 20
446.6007372394288
 30
0.0
 11
680.9891438572763
 21
446.6007372394288
 31
0.0
  0
LINE
  5
209E
330
14EC
100
AcDbEntity
  8
AM_5
100
AcDbLine
 10
670.88304045473
 20
476.6007372394287
 30
0.0
 11
680.9891438572763
 21
476.6007372394287
 31
0.0
  0
LINE
  5
209F
330
14EC
100
AcDbEntity
  8
AM_5
100
AcDbLine
 10
679.9891438572763
 20
449.6007372394288
 30
0.0
 11
679.9891438572763
 21
473.6007372394287
 31
0.0
  0
SOLID
  5
20A0
330
14EC
100
AcDbEntity
  8
AM_5
370
     0
100
AcDbTrace
 10
679.4891438572762
 20
449.6007372394288
 30
0.0
 11
680.4891438572763
 21
449.6007372394288
 31
0.0
 12
679.9891438572763
 22
446.6007372394288
 32
0.0
 13
679.9891438572763
 23
446.6007372394288
 33
0.0
  0
SOLID
  5
20A1
330
14EC
100
AcDbEntity
  8
AM_5
370
     0
100
AcDbTrace
 10
679.4891438572762
 20
473.6007372394287
 30
0.0
 11
680.4891438572763
 21
473.6007372394287
 31
0.0
 12
679.9891438572763
 22
476.6007372394287
 32
0.0
 13
679.9891438572763
 23
476.6007372394287
 33
0.0
  0
MTEXT
  5
20A2
330
14EC
100
AcDbEntity
  8
AM_5
100
AcDbMText
 10
677.2391438572761
 20
461.5594490961972
 30
0.0
 40
3.5
 41
0.0
 71
     5
 72
     1
  1
%%c30
 11
0.0000000000000001
 21
1.0
 31
0.0
 73
     1
 44
1.0
1001
ACAD
1000
MTEXTBEGIN
1070
    73
1070
     1
1070
    44
1040
1.0
1070
    74
1070
     0
1000
MTEXTEND
  0
POINT
  5
20A3
330
14EC
100
AcDbEntity
  8
Defpoints
 62
     0
370
     0
100
AcDbPoint
 10
669.88304045473
 20
446.6007372394288
 30
0.0
  0
POINT
  5
20A4
330
14EC
100
AcDbEntity
  8
Defpoints
 62
     0
370
     0
100
AcDbPoint
 10
669.88304045473
 20
476.6007372394287
 30
0.0
  0
POINT
  5
20A5
330
14EC
100
AcDbEntity
  8
Defpoints
 62
     0
370
     0
100
AcDbPoint
 10
679.9891438572763
 20
476.6007372394287
 30
0.0
  0
ENDBLK
  5
14F7
330
14EC
100
AcDbEntity
  8
0
370
     0
100
AcDbBlockEnd
  0
BLOCK
  5
15CD
330
15C1
100
AcDbEntity
  8
0
370
     0
100
AcDbBlockBegin
  2
*D18
 70
     1
 10
0.0
 20
0.0
 30
0.0
  3
*D18
  1

  0
LINE
  5
164A
330
15C1
100
AcDbEntity
  8
AM_5
100
AcDbLine
 10
625.38304045473
 20
374.2308565635738
 30
0.0
 11
613.6662326453126
 21
374.2308565635738
 31
0.0
  0
LINE
  5
164B
330
15C1
100
AcDbEntity
  8
AM_5
100
AcDbLine
 10
625.38304045473
 20
378.2308565635738
 30
0.0
 11
613.6662326453126
 21
378.2308565635738
 31
0.0
  0
LINE
  5
164C
330
15C1
100
AcDbEntity
  8
AM_5
100
AcDbLine
 10
614.6662326453125
 20
371.2308565635738
 30
0.0
 11
614.6662326453125
 21
368.2308565635738
 31
0.0
  0
LINE
  5
164D
330
15C1
100
AcDbEntity
  8
AM_5
100
AcDbLine
 10
614.6662326453125
 20
381.2308565635738
 30
0.0
 11
614.6662326453125
 21
384.2308565635738
 31
0.0
  0
LINE
  5
164E
330
15C1
100
AcDbEntity
  8
AM_5
100
AcDbLine
 10
614.6662326453125
 20
374.2308565635738
 30
0.0
 11
614.6662326453125
 21
378.2308565635738
 31
0.0
  0
SOLID
  5
164F
330
15C1
100
AcDbEntity
  8
AM_5
370
     0
100
AcDbTrace
 10
614.1662326453126
 20
371.2308565635738
 30
0.0
 11
615.1662326453125
 21
371.2308565635738
 31
0.0
 12
614.6662326453125
 22
374.2308565635738
 32
0.0
 13
614.6662326453125
 23
374.2308565635738
 33
0.0
  0
SOLID
  5
1650
330
15C1
100
AcDbEntity
  8
AM_5
370
     0
100
AcDbTrace
 10
614.1662326453126
 20
381.2308565635738
 30
0.0
 11
615.1662326453125
 21
381.2308565635738
 31
0.0
 12
614.6662326453125
 22
378.2308565635738
 32
0.0
 13
614.6662326453125
 23
378.2308565635738
 33
0.0
  0
MTEXT
  5
1651
330
15C1
100
AcDbEntity
  8
AM_5
100
AcDbMText
 10
611.9162326453124
 20
376.2308565635739
 30
0.0
 40
3.5
 41
0.0
 71
     5
 72
     1
  1
4
 11
0.0000000000000001
 21
1.0
 31
0.0
 73
     1
 44
1.0
1001
ACAD
1000
MTEXTBEGIN
1070
    73
1070
     1
1070
    44
1040
1.0
1070
    74
1070
     0
1000
MTEXTEND
  0
POINT
  5
1652
330
15C1
100
AcDbEntity
  8
Defpoints
 62
     0
370
     0
100
AcDbPoint
 10
626.38304045473
 20
374.2308565635738
 30
0.0
  0
POINT
  5
1653
330
15C1
100
AcDbEntity
  8
Defpoints
 62
     0
370
     0
100
AcDbPoint
 10
626.38304045473
 20
378.2308565635738
 30
0.0
  0
POINT
  5
1654
330
15C1
100
AcDbEntity
  8
Defpoints
 62
     0
370
     0
100
AcDbPoint
 10
614.6662326453125
 20
378.2308565635738
 30
0.0
  0
ENDBLK
  5
15CE
330
15C1
100
AcDbEntity
  8
0
370
     0
100
AcDbBlockEnd
  0
BLOCK
  5
1633
330
1629
100
AcDbEntity
  8
0
370
     0
100
AcDbBlockBegin
  2
*D19
 70
     1
 10
0.0
 20
0.0
 30
0.0
  3
*D19
  1

  0
LINE
  5
1641
330
1629
100
AcDbEntity
  8
AM_5
100
AcDbLine
 10
617.4124422474504
 20
391.7308565635738
 30
0.0
 11
607.5472417162254
 21
391.7308565635738
 31
0.0
  0
LINE
  5
1642
330
1629
100
AcDbEntity
  8
AM_5
100
AcDbLine
 10
625.38304045473
 20
368.2308565635738
 30
0.0
 11
607.5472417162254
 21
368.2308565635738
 31
0.0
  0
LINE
  5
1643
330
1629
100
AcDbEntity
  8
AM_5
100
AcDbLine
 10
608.5472417162255
 20
388.7308565635738
 30
0.0
 11
608.5472417162255
 21
371.2308565635738
 31
0.0
  0
SOLID
  5
1644
330
1629
100
AcDbEntity
  8
AM_5
370
     0
100
AcDbTrace
 10
608.0472417162255
 20
388.7308565635738
 30
0.0
 11
609.0472417162255
 21
388.7308565635738
 31
0.0
 12
608.5472417162255
 22
391.7308565635738
 32
0.0
 13
608.5472417162255
 23
391.7308565635738
 33
0.0
  0
SOLID
  5
1645
330
1629
100
AcDbEntity
  8
AM_5
370
     0
100
AcDbTrace
 10
608.0472417162255
 20
371.2308565635738
 30
0.0
 11
609.0472417162255
 21
371.2308565635738
 31
0.0
 12
608.5472417162255
 22
368.2308565635738
 32
0.0
 13
608.5472417162255
 23
368.2308565635738
 33
0.0
  0
MTEXT
  5
1646
330
1629
100
AcDbEntity
  8
AM_5
100
AcDbMText
 10
605.7968972280364
 20
380.3750701402688
 30
0.0
 40
3.5
 41
0.0
 71
     5
 72
     1
  1
23.5
 11
0.0000000000000001
 21
1.0
 31
0.0
 73
     1
 44
1.0
1001
ACAD
1000
MTEXTBEGIN
1070
    73
1070
     1
1070
    44
1040
1.0
1070
    74
1070
     0
1000
MTEXTEND
  0
POINT
  5
1647
330
1629
100
AcDbEntity
  8
Defpoints
 62
     0
370
     0
100
AcDbPoint
 10
618.4124422474504
 20
391.7308565635738
 30
0.0
  0
POINT
  5
1648
330
1629
100
AcDbEntity
  8
Defpoints
 62
     0
370
     0
100
AcDbPoint
 10
626.38304045473
 20
368.2308565635738
 30
0.0
  0
POINT
  5
1649
330
1629
100
AcDbEntity
  8
Defpoints
 62
     0
370
     0
100
AcDbPoint
 10
608.5472417162255
 20
368.2308565635738
 30
0.0
  0
ENDBLK
  5
1634
330
1629
100
AcDbEntity
  8
0
370
     0
100
AcDbBlockEnd
  0
BLOCK
  5
1671
330
1665
100
AcDbEntity
  8
0
370
     0
100
AcDbBlockBegin
  2
*D20
 70
     1
 10
0.0
 20
0.0
 30
0.0
  3
*D20
  1

  0
LINE
  5
1EF7
330
1665
100
AcDbEntity
  8
AM_5
100
AcDbLine
 10
625.38304045473
 20
374.2308565635738
 30
0.0
 11
619.1351291220736
 21
374.2308565635738
 31
0.0
  0
LINE
  5
1EF8
330
1665
100
AcDbEntity
  8
AM_5
100
AcDbLine
 10
625.38304045473
 20
372.2308565635738
 30
0.0
 11
619.1351291220736
 21
372.2308565635738
 31
0.0
  0
LINE
  5
1EF9
330
1665
100
AcDbEntity
  8
AM_5
100
AcDbLine
 10
620.1351291220736
 20
377.2308565635738
 30
0.0
 11
620.1351291220736
 21
380.2308565635738
 31
0.0
  0
LINE
  5
1EFA
330
1665
100
AcDbEntity
  8
AM_5
100
AcDbLine
 10
620.1351291220736
 20
369.2308565635738
 30
0.0
 11
620.1351291220736
 21
362.5317719179045
 31
0.0
  0
LINE
  5
1EFB
330
1665
100
AcDbEntity
  8
AM_5
100
AcDbLine
 10
620.1351291220736
 20
374.2308565635738
 30
0.0
 11
620.1351291220736
 21
372.2308565635738
 31
0.0
  0
SOLID
  5
1EFC
330
1665
100
AcDbEntity
  8
AM_5
370
     0
100
AcDbTrace
 10
619.6351291220736
 20
377.2308565635738
 30
0.0
 11
620.6351291220736
 21
377.2308565635738
 31
0.0
 12
620.1351291220736
 22
374.2308565635738
 32
0.0
 13
620.1351291220736
 23
374.2308565635738
 33
0.0
  0
SOLID
  5
1EFD
330
1665
100
AcDbEntity
  8
AM_5
370
     0
100
AcDbTrace
 10
619.6351291220736
 20
369.2308565635738
 30
0.0
 11
620.6351291220736
 21
369.2308565635738
 31
0.0
 12
620.1351291220736
 22
372.2308565635738
 32
0.0
 13
620.1351291220736
 23
372.2308565635738
 33
0.0
  0
MTEXT
  5
1EFE
330
1665
100
AcDbEntity
  8
AM_5
100
AcDbMText
 10
617.3847846338845
 20
364.3813142407392
 30
0.0
 40
3.5
 41
0.0
 71
     5
 72
     1
  1
2
 11
0.0000000000000001
 21
1.0
 31
0.0
 73
     1
 44
1.0
1001
ACAD
1000
MTEXTBEGIN
1070
    73
1070
     1
1070
    44
1040
1.0
1070
    74
1070
     0
1000
MTEXTEND
  0
POINT
  5
1EFF
330
1665
100
AcDbEntity
  8
Defpoints
 62
     0
370
     0
100
AcDbPoint
 10
626.38304045473
 20
374.2308565635738
 30
0.0
  0
POINT
  5
1F00
330
1665
100
AcDbEntity
  8
Defpoints
 62
     0
370
     0
100
AcDbPoint
 10
626.38304045473
 20
372.2308565635738
 30
0.0
  0
POINT
  5
1F01
330
1665
100
AcDbEntity
  8
Defpoints
 62
     0
370
     0
100
AcDbPoint
 10
620.1351291220736
 20
372.2308565635738
 30
0.0
  0
ENDBLK
  5
1672
330
1665
100
AcDbEntity
  8
0
370
     0
100
AcDbBlockEnd
  0
BLOCK
  5
16F2
330
16E9
100
AcDbEntity
  8
0
370
     0
100
AcDbBlockBegin
  2
*D21
 70
     1
 10
0.0
 20
0.0
 30
0.0
  3
*D21
  1

  0
LINE
  5
176F
330
16E9
100
AcDbEntity
  8
AM_5
100
AcDbLine
 10
566.7644033987727
 20
375.9332643428771
 30
0.0
 11
568.2787003991096
 21
373.3434951263695
 31
0.0
  0
LINE
  5
1770
330
16E9
100
AcDbEntity
  8
AM_5
100
AcDbLine
 10
548.2899799946617
 20
407.5284487842703
 30
0.0
 11
542.0300057071615
 21
418.2343332324928
 31
0.0
  0
LINE
  5
1771
330
16E9
100
AcDbEntity
  8
AM_5
100
AcDbLine
 10
542.0300057071615
 20
418.2343332324928
 30
0.0
 11
530.3563836599173
 21
418.2343332324928
 31
0.0
  0
LINE
  5
1772
330
16E9
100
AcDbEntity
  8
AM_5
100
AcDbLine
 10
565.2501063984357
 20
378.5230335593848
 30
0.0
 11
549.8042769949988
 21
404.9386795677627
 31
0.0
  0
SOLID
  5
1773
330
16E9
100
AcDbEntity
  8
AM_5
370
     0
100
AcDbTrace
 10
567.1960316015239
 20
376.1856471762666
 30
0.0
 11
566.3327751960214
 21
375.6808815094877
 31
0.0
 12
565.2501063984357
 22
378.5230335593848
 32
0.0
 13
565.2501063984357
 23
378.5230335593848
 33
0.0
  0
SOLID
  5
1774
330
16E9
100
AcDbEntity
  8
AM_5
370
     0
100
AcDbTrace
 10
548.7216081974129
 20
407.7808316176598
 30
0.0
 11
547.8583517919104
 21
407.2760659508809
 31
0.0
 12
549.8042769949988
 22
404.9386795677627
 32
0.0
 13
549.8042769949988
 23
404.9386795677627
 33
0.0
  0
MTEXT
  5
1775
330
16E9
100
AcDbEntity
  8
AM_5
100
AcDbMText
 10
535.6931946835394
 20
420.9843332324929
 30
0.0
 40
3.5
 41
0.0
 71
     5
 72
     1
  1
\U+220530.6
 73
     1
 44
1.0
1001
ACAD
1000
MTEXTBEGIN
1070
    73
1070
     1
1070
    44
1040
1.0
1070
    74
1070
     0
1000
MTEXTEND
  0
POINT
  5
1776
330
16E9
100
AcDbEntity
  8
Defpoints
 62
     0
370
     0
100
AcDbPoint
 10
549.8042769949988
 20
404.9386795677627
 30
0.0
  0
POINT
  5
1777
330
16E9
100
AcDbEntity
  8
Defpoints
 62
     0
370
     0
100
AcDbPoint
 10
565.2501063984357
 20
378.5230335593848
 30
0.0
  0
ENDBLK
  5
16F3
330
16E9
100
AcDbEntity
  8
0
370
     0
100
AcDbBlockEnd
  0
BLOCK
  5
172E
330
1722
100
AcDbEntity
  8
0
370
     0
100
AcDbBlockBegin
  2
*D22
 70
     1
 10
0.0
 20
0.0
 30
0.0
  3
*D22
  1

  0
LINE
  5
1730
330
1722
100
AcDbEntity
  8
AM_5
100
AcDbLine
 10
534.3095693039985
 20
400.5167549484363
 30
0.0
 11
527.6986954128098
 21
404.3335447690932
 31
0.0
  0
LINE
  5
1731
330
1722
100
AcDbEntity
  8
AM_5
100
AcDbLine
 10
538.3095693039987
 20
407.4449581787115
 30
0.0
 11
531.69869541281
 21
411.2617479993684
 31
0.0
  0
LINE
  5
1732
330
1722
100
AcDbEntity
  8
AM_5
100
AcDbLine
 10
527.0647208165939
 20
401.2354685577398
 30
0.0
 11
525.5647208165938
 21
398.6373923463866
 31
0.0
  0
LINE
  5
1733
330
1722
100
AcDbEntity
  8
AM_5
100
AcDbLine
 10
534.0647208165945
 20
413.3598242107216
 30
0.0
 11
535.5647208165946
 21
415.9579004220748
 31
0.0
  0
LINE
  5
1734
330
1722
100
AcDbEntity
  8
AM_5
100
AcDbLine
 10
528.5647208165942
 20
403.8335447690931
 30
0.0
 11
532.5647208165944
 21
410.7617479993683
 31
0.0
  0
SOLID
  5
1735
330
1722
100
AcDbEntity
  8
AM_5
370
     0
100
AcDbTrace
 10
526.6317081147018
 20
401.4854685577398
 30
0.0
 11
527.4977335184862
 21
400.9854685577399
 31
0.0
 12
528.5647208165942
 22
403.8335447690931
 32
0.0
 13
528.5647208165942
 23
403.8335447690931
 33
0.0
  0
SOLID
  5
1736
330
1722
100
AcDbEntity
  8
AM_5
370
     0
100
AcDbTrace
 10
533.6317081147022
 20
413.6098242107216
 30
0.0
 11
534.4977335184867
 21
413.1098242107216
 31
0.0
 12
532.5647208165944
 22
410.7617479993683
 32
0.0
 13
532.5647208165944
 23
410.7617479993683
 33
0.0
  0
MTEXT
  5
1737
330
1722
100
AcDbEntity
  8
AM_5
100
AcDbMText
 10
528.1831509561871
 20
408.6726463842309
 30
0.0
 40
3.5
 41
0.0
 71
     5
 72
     1
  1
8
 11
0.5000000000000388
 21
0.8660254037844163
 31
0.0
 73
     1
 44
1.0
1001
ACAD
1000
MTEXTBEGIN
1070
    73
1070
     1
1070
    44
1040
1.0
1070
    74
1070
     0
1000
MTEXTEND
  0
POINT
  5
1738
330
1722
100
AcDbEntity
  8
Defpoints
 62
     0
370
     0
100
AcDbPoint
 10
535.1755947077829
 20
400.0167549484362
 30
0.0
  0
POINT
  5
1739
330
1722
100
AcDbEntity
  8
Defpoints
 62
     0
370
     0
100
AcDbPoint
 10
539.1755947077832
 20
406.9449581787115
 30
0.0
  0
POINT
  5
173A
330
1722
100
AcDbEntity
  8
Defpoints
 62
     0
370
     0
100
AcDbPoint
 10
532.5647208165944
 20
410.7617479993683
 30
0.0
  0
ENDBLK
  5
172F
330
1722
100
AcDbEntity
  8
0
370
     0
100
AcDbBlockEnd
  0
BLOCK
  5
1758
330
174E
100
AcDbEntity
  8
0
370
     0
100
AcDbBlockBegin
  2
*D23
 70
     1
 10
0.0
 20
0.0
 30
0.0
  3
*D23
  1

  0
LINE
  5
175A
330
174E
100
AcDbEntity
  8
AM_5
100
AcDbLine
 10
537.1384546510744
 20
396.574096155037
 30
0.0
 11
520.636517586288
 21
406.1014939615422
 31
0.0
  0
LINE
  5
175B
330
174E
100
AcDbEntity
  8
AM_5
100
AcDbLine
 10
543.1384546510746
 20
406.9664010004498
 30
0.0
 11
526.6365175862881
 21
416.4937988069551
 31
0.0
  0
LINE
  5
175C
330
174E
100
AcDbEntity
  8
AM_5
100
AcDbLine
 10
523.0025429900725
 20
408.1995701728954
 30
0.0
 11
526.0025429900724
 21
413.3957225956018
 31
0.0
  0
SOLID
  5
175D
330
174E
100
AcDbEntity
  8
AM_5
370
     0
100
AcDbTrace
 10
522.5695302881803
 20
408.4495701728953
 30
0.0
 11
523.4355556919647
 21
407.9495701728953
 31
0.0
 12
521.5025429900724
 22
405.6014939615421
 32
0.0
 13
521.5025429900724
 23
405.6014939615421
 33
0.0
  0
SOLID
  5
175E
330
174E
100
AcDbEntity
  8
AM_5
370
     0
100
AcDbTrace
 10
525.5695302881803
 20
413.6457225956018
 30
0.0
 11
526.4355556919647
 21
413.1457225956017
 31
0.0
 12
527.5025429900725
 22
415.993798806955
 32
0.0
 13
527.5025429900725
 23
415.993798806955
 33
0.0
  0
MTEXT
  5
175F
330
174E
100
AcDbEntity
  8
AM_5
100
AcDbMText
 10
522.1206747941423
 20
412.1728186283432
 30
0.0
 40
3.5
 41
0.0
 71
     5
 72
     1
  1
12
 11
0.5000000000000194
 21
0.8660254037844275
 31
0.0
 73
     1
 44
1.0
1001
ACAD
1000
MTEXTBEGIN
1070
    73
1070
     1
1070
    44
1040
1.0
1070
    74
1070
     0
1000
MTEXTEND
  0
POINT
  5
1760
330
174E
100
AcDbEntity
  8
Defpoints
 62
     0
370
     0
100
AcDbPoint
 10
538.0044800548589
 20
396.0740961550369
 30
0.0
  0
POINT
  5
1761
330
174E
100
AcDbEntity
  8
Defpoints
 62
     0
370
     0
100
AcDbPoint
 10
544.0044800548589
 20
406.4664010004499
 30
0.0
  0
POINT
  5
1762
330
174E
100
AcDbEntity
  8
Defpoints
 62
     0
370
     0
100
AcDbPoint
 10
527.5025429900725
 20
415.993798806955
 30
0.0
  0
ENDBLK
  5
1759
330
174E
100
AcDbEntity
  8
0
370
     0
100
AcDbBlockEnd
  0
BLOCK
  5
1794
330
178E
100
AcDbEntity
  8
0
370
     0
100
AcDbBlockBegin
  2
*D24
 70
     1
 10
0.0
 20
0.0
 30
0.0
  3
*D24
  1

  0
LINE
  5
17A4
330
178E
100
AcDbEntity
  8
AM_5
100
AcDbLine
 10
579.7065045067056
 20
397.8200341169613
 30
0.0
 11
582.5994583514868
 21
398.6142746674032
 31
0.0
  0
LINE
  5
17A5
330
178E
100
AcDbEntity
  8
AM_5
100
AcDbLine
 10
535.3478788867286
 20
385.6416790101862
 30
0.0
 11
532.4549250419474
 21
384.8474384597444
 31
0.0
  0
LINE
  5
17A6
330
178E
100
AcDbEntity
  8
AM_5
100
AcDbLine
 10
532.4549250419474
 20
384.8474384597444
 30
0.0
 11
524.1021691364356
 21
384.8474384597444
 31
0.0
  0
LINE
  5
17A7
330
178E
100
AcDbEntity
  8
AM_5
100
AcDbLine
 10
576.8135506619245
 20
397.0257935665194
 30
0.0
 11
538.2408327315097
 21
386.435919560628
 31
0.0
  0
SOLID
  5
17A8
330
178E
100
AcDbEntity
  8
AM_5
370
     0
100
AcDbTrace
 10
579.5741310816319
 20
398.3021930910915
 30
0.0
 11
579.8388779317792
 21
397.3378751428311
 31
0.0
 12
576.8135506619245
 22
397.0257935665194
 32
0.0
 13
576.8135506619245
 23
397.0257935665194
 33
0.0
  0
SOLID
  5
17A9
330
178E
100
AcDbEntity
  8
AM_5
370
     0
100
AcDbTrace
 10
535.215505461655
 20
386.1238379843164
 30
0.0
 11
535.4802523118023
 21
385.1595200360561
 31
0.0
 12
538.2408327315097
 22
386.435919560628
 32
0.0
 13
538.2408327315097
 23
386.435919560628
 33
0.0
  0
MTEXT
  5
17AA
330
178E
100
AcDbEntity
  8
AM_5
100
AcDbMText
 10
527.7785470891915
 20
387.5974384597443
 30
0.0
 40
3.5
 41
0.0
 71
     5
 72
     1
  1
\U+220540
 73
     1
 44
1.0
1001
ACAD
1000
MTEXTBEGIN
1070
    73
1070
     1
1070
    44
1040
1.0
1070
    74
1070
     0
1000
MTEXTEND
  0
POINT
  5
17AB
330
178E
100
AcDbEntity
  8
Defpoints
 62
     0
370
     0
100
AcDbPoint
 10
538.2408327315097
 20
386.435919560628
 30
0.0
  0
POINT
  5
17AC
330
178E
100
AcDbEntity
  8
Defpoints
 62
     0
370
     0
100
AcDbPoint
 10
576.8135506619245
 20
397.0257935665194
 30
0.0
  0
ENDBLK
  5
1795
330
178E
100
AcDbEntity
  8
0
370
     0
100
AcDbBlockEnd
  0
BLOCK
  5
17BE
330
17B8
100
AcDbEntity
  8
0
370
     0
100
AcDbBlockBegin
  2
*D25
 70
     1
 10
0.0
 20
0.0
 30
0.0
  3
*D25
  1

  0
LINE
  5
17F0
330
17B8
100
AcDbEntity
  8
AM_5
100
AcDbLine
 10
543.9356206349519
 20
381.6811405881702
 30
0.0
 11
535.4865097467652
 21
370.0754719638083
 31
0.0
  0
LINE
  5
17F1
330
17B8
100
AcDbEntity
  8
AM_5
100
AcDbLine
 10
535.4865097467652
 20
370.0754719638083
 30
0.0
 11
508.1096568432884
 21
370.0754719638084
 31
0.0
  0
SOLID
  5
17F2
330
17B8
100
AcDbEntity
  8
AM_5
370
     0
100
AcDbTrace
 10
543.5313955311856
 20
381.9754228769426
 30
0.0
 11
544.3398457387182
 21
381.3868582993979
 31
0.0
 12
545.701314367586
 22
384.1064912107682
 32
0.0
 13
545.701314367586
 23
384.1064912107682
 33
0.0
  0
MTEXT
  5
17F3
330
17B8
100
AcDbEntity
  8
AM_5
100
AcDbMText
 10
521.2980832950271
 20
376.1796386304747
 30
0.0
 40
3.5
 41
0.0
 71
     5
 72
     1
  1
3-\U+22053.4\P%%C6.5*5 depth
 73
     1
 44
1.0
1001
ACAD
1000
MTEXTBEGIN
1070
    73
1070
     1
1070
    44
1040
1.0
1070
    74
1070
     0
1000
MTEXTEND
  0
POINT
  5
17F4
330
17B8
100
AcDbEntity
  8
Defpoints
 62
     0
370
     0
100
AcDbPoint
 10
545.701314367586
 20
384.1064912107682
 30
0.0
  0
POINT
  5
17F5
330
17B8
100
AcDbEntity
  8
Defpoints
 62
     0
370
     0
100
AcDbPoint
 10
547.7024339312377
 20
386.855221916379
 30
0.0
  0
ENDBLK
  5
17BF
330
17B8
100
AcDbEntity
  8
0
370
     0
100
AcDbBlockEnd
  0
BLOCK
  5
1813
330
1807
100
AcDbEntity
  8
0
370
     0
100
AcDbBlockBegin
  2
*D26
 70
     1
 10
0.0
 20
0.0
 30
0.0
  3
*D26
  1

  0
LINE
  5
185D
330
1807
100
AcDbEntity
  8
AM_5
100
AcDbLine
 10
562.5271916967172
 20
368.2308565635738
 30
0.0
 11
577.7018320203985
 21
368.2308565635738
 31
0.0
  0
LINE
  5
185E
330
1807
100
AcDbEntity
  8
AM_5
100
AcDbLine
 10
559.5271916967171
 20
370.2308565635738
 30
0.0
 11
577.7018320203985
 21
370.2308565635738
 31
0.0
  0
LINE
  5
185F
330
1807
100
AcDbEntity
  8
AM_5
100
AcDbLine
 10
576.7018320203986
 20
373.2308565635738
 30
0.0
 11
576.7018320203986
 21
376.2308565635738
 31
0.0
  0
LINE
  5
1860
330
1807
100
AcDbEntity
  8
AM_5
100
AcDbLine
 10
576.7018320203986
 20
365.2308565635738
 30
0.0
 11
576.7018320203986
 21
358.5317719179045
 31
0.0
  0
LINE
  5
1861
330
1807
100
AcDbEntity
  8
AM_5
100
AcDbLine
 10
576.7018320203986
 20
370.2308565635738
 30
0.0
 11
576.7018320203986
 21
368.2308565635738
 31
0.0
  0
INSERT
  5
1862
330
1807
100
AcDbEntity
  8
AM_5
100
AcDbBlockReference
  2
GENDOT
 10
576.7018320203986
 20
370.2308565635738
 30
0.0
 41
3.0
 42
3.0
 43
3.0
 50
270.0
  0
SOLID
  5
1863
330
1807
100
AcDbEntity
  8
AM_5
370
     0
100
AcDbTrace
 10
576.2018320203985
 20
365.2308565635738
 30
0.0
 11
577.2018320203986
 21
365.2308565635738
 31
0.0
 12
576.7018320203986
 22
368.2308565635738
 32
0.0
 13
576.7018320203986
 23
368.2308565635738
 33
0.0
  0
MTEXT
  5
1864
330
1807
100
AcDbEntity
  8
AM_5
100
AcDbMText
 10
573.9514875322095
 20
360.3813142407393
 30
0.0
 40
3.5
 41
0.0
 71
     5
 72
     1
  1
2
 11
0.0000000000000001
 21
1.0
 31
0.0
 73
     1
 44
1.0
1001
ACAD
1000
MTEXTBEGIN
1070
    73
1070
     1
1070
    44
1040
1.0
1070
    74
1070
     0
1000
MTEXTEND
  0
POINT
  5
1865
330
1807
100
AcDbEntity
  8
Defpoints
 62
     0
370
     0
100
AcDbPoint
 10
561.5271916967172
 20
368.2308565635738
 30
0.0
  0
POINT
  5
1866
330
1807
100
AcDbEntity
  8
Defpoints
 62
     0
370
     0
100
AcDbPoint
 10
558.5271916967172
 20
370.2308565635738
 30
0.0
  0
POINT
  5
1867
330
1807
100
AcDbEntity
  8
Defpoints
 62
     0
370
     0
100
AcDbPoint
 10
576.7018320203986
 20
370.2308565635738
 30
0.0
  0
ENDBLK
  5
1814
330
1807
100
AcDbEntity
  8
0
370
     0
100
AcDbBlockEnd
  0
BLOCK
  5
1850
330
1844
100
AcDbEntity
  8
0
370
     0
100
AcDbBlockBegin
  2
*D27
 70
     1
 10
0.0
 20
0.0
 30
0.0
  3
*D27
  1

  0
LINE
  5
1868
330
1844
100
AcDbEntity
  8
AM_5
100
AcDbLine
 10
559.5271916967171
 20
370.2308565635738
 30
0.0
 11
577.7018320203985
 21
370.2308565635738
 31
0.0
  0
LINE
  5
1869
330
1844
100
AcDbEntity
  8
AM_5
100
AcDbLine
 10
559.5271916967171
 20
376.2308565635738
 30
0.0
 11
577.7018320203985
 21
376.2308565635738
 31
0.0
  0
LINE
  5
186A
330
1844
100
AcDbEntity
  8
AM_5
100
AcDbLine
 10
576.7018320203986
 20
367.2308565635738
 30
0.0
 11
576.7018320203986
 21
364.2308565635738
 31
0.0
  0
LINE
  5
186B
330
1844
100
AcDbEntity
  8
AM_5
100
AcDbLine
 10
576.7018320203986
 20
379.2308565635738
 30
0.0
 11
576.7018320203986
 21
382.2308565635738
 31
0.0
  0
LINE
  5
186C
330
1844
100
AcDbEntity
  8
AM_5
100
AcDbLine
 10
576.7018320203986
 20
370.2308565635738
 30
0.0
 11
576.7018320203986
 21
376.2308565635738
 31
0.0
  0
INSERT
  5
186D
330
1844
100
AcDbEntity
  8
AM_5
100
AcDbBlockReference
  2
GENDOT
 10
576.7018320203986
 20
370.2308565635738
 30
0.0
 41
3.0
 42
3.0
 43
3.0
 50
90.0
  0
SOLID
  5
186E
330
1844
100
AcDbEntity
  8
AM_5
370
     0
100
AcDbTrace
 10
576.2018320203985
 20
379.2308565635738
 30
0.0
 11
577.2018320203986
 21
379.2308565635738
 31
0.0
 12
576.7018320203986
 22
376.2308565635738
 32
0.0
 13
576.7018320203986
 23
376.2308565635738
 33
0.0
  0
MTEXT
  5
186F
330
1844
100
AcDbEntity
  8
AM_5
100
AcDbMText
 10
573.9518320203984
 20
373.2308565635739
 30
0.0
 40
3.5
 41
0.0
 71
     5
 72
     1
  1
6
 11
0.0000000000000001
 21
1.0
 31
0.0
 73
     1
 44
1.0
1001
ACAD
1000
MTEXTBEGIN
1070
    73
1070
     1
1070
    44
1040
1.0
1070
    74
1070
     0
1000
MTEXTEND
  0
POINT
  5
1870
330
1844
100
AcDbEntity
  8
Defpoints
 62
     0
370
     0
100
AcDbPoint
 10
558.5271916967172
 20
370.2308565635738
 30
0.0
  0
POINT
  5
1871
330
1844
100
AcDbEntity
  8
Defpoints
 62
     0
370
     0
100
AcDbPoint
 10
558.5271916967172
 20
376.2308565635738
 30
0.0
  0
POINT
  5
1872
330
1844
100
AcDbEntity
  8
Defpoints
 62
     0
370
     0
100
AcDbPoint
 10
576.7018320203986
 20
376.2308565635738
 30
0.0
  0
ENDBLK
  5
1851
330
1844
100
AcDbEntity
  8
0
370
     0
100
AcDbBlockEnd
  0
BLOCK
  5
18AB
330
189F
100
AcDbEntity
  8
0
370
     0
100
AcDbBlockBegin
  2
*D28
 70
     1
 10
0.0
 20
0.0
 30
0.0
  3
*D28
  1

  0
LINE
  5
1EEB
330
189F
100
AcDbEntity
  8
AM_5
100
AcDbLine
 10
560.0271916967171
 20
367.2308565635738
 30
0.0
 11
560.0271916967171
 21
359.7793168040679
 31
0.0
  0
LINE
  5
1EEC
330
189F
100
AcDbEntity
  8
AM_5
100
AcDbLine
 10
555.0271916967171
 20
367.2308565635738
 30
0.0
 11
555.0271916967171
 21
359.7793168040679
 31
0.0
  0
LINE
  5
1EED
330
189F
100
AcDbEntity
  8
AM_5
100
AcDbLine
 10
563.0271916967171
 20
360.7793168040679
 30
0.0
 11
566.0271916967172
 21
360.7793168040679
 31
0.0
  0
LINE
  5
1EEE
330
189F
100
AcDbEntity
  8
AM_5
100
AcDbLine
 10
552.0271916967171
 20
360.7793168040679
 30
0.0
 11
545.4822169498866
 21
360.7793168040679
 31
0.0
  0
LINE
  5
1EEF
330
189F
100
AcDbEntity
  8
AM_5
100
AcDbLine
 10
560.0271916967171
 20
360.7793168040679
 30
0.0
 11
555.0271916967171
 21
360.7793168040679
 31
0.0
  0
SOLID
  5
1EF0
330
189F
100
AcDbEntity
  8
AM_5
370
     0
100
AcDbTrace
 10
563.0271916967171
 20
361.2793168040679
 30
0.0
 11
563.0271916967171
 21
360.2793168040679
 31
0.0
 12
560.0271916967171
 22
360.7793168040679
 32
0.0
 13
560.0271916967171
 23
360.7793168040679
 33
0.0
  0
SOLID
  5
1EF1
330
189F
100
AcDbEntity
  8
AM_5
370
     0
100
AcDbTrace
 10
552.0271916967171
 20
361.2793168040679
 30
0.0
 11
552.0271916967171
 21
360.2793168040679
 31
0.0
 12
555.0271916967171
 22
360.7793168040679
 32
0.0
 13
555.0271916967171
 23
360.7793168040679
 33
0.0
  0
MTEXT
  5
1EF2
330
189F
100
AcDbEntity
  8
AM_5
100
AcDbMText
 10
547.2547043233019
 20
363.5293168040679
 30
0.0
 40
3.5
 41
0.0
 71
     5
 72
     1
  1
5
 73
     1
 44
1.0
1001
ACAD
1000
MTEXTBEGIN
1070
    73
1070
     1
1070
    44
1040
1.0
1070
    74
1070
     0
1000
MTEXTEND
  0
POINT
  5
1EF3
330
189F
100
AcDbEntity
  8
Defpoints
 62
     0
370
     0
100
AcDbPoint
 10
560.0271916967171
 20
368.2308565635738
 30
0.0
  0
POINT
  5
1EF4
330
189F
100
AcDbEntity
  8
Defpoints
 62
     0
370
     0
100
AcDbPoint
 10
555.0271916967171
 20
368.2308565635738
 30
0.0
  0
POINT
  5
1EF5
330
189F
100
AcDbEntity
  8
Defpoints
 62
     0
370
     0
100
AcDbPoint
 10
555.0271916967171
 20
360.7793168040679
 30
0.0
  0
ENDBLK
  5
18AC
330
189F
100
AcDbEntity
  8
0
370
     0
100
AcDbBlockEnd
  0
BLOCK
  5
190C
330
1900
100
AcDbEntity
  8
0
370
     0
100
AcDbBlockBegin
  2
*D29
 70
     1
 10
0.0
 20
0.0
 30
0.0
  3
*D29
  1

  0
LINE
  5
1F1A
330
1900
100
AcDbEntity
  8
AM_5
100
AcDbLine
 10
742.0707436501088
 20
379.1792265407809
 30
0.0
 11
748.8865886981523
 21
362.7243209867641
 31
0.0
  0
LINE
  5
1F1B
330
1900
100
AcDbEntity
  8
AM_5
100
AcDbLine
 10
740.2229845850862
 20
378.4138596760506
 30
0.0
 11
747.0388296331297
 21
361.9589541220338
 31
0.0
  0
LINE
  5
1F1C
330
1900
100
AcDbEntity
  8
AM_5
100
AcDbLine
 10
751.275543863321
 20
364.7962508163709
 30
0.0
 11
754.0471824608548
 21
365.9443011134663
 31
0.0
  0
LINE
  5
1F1D
330
1900
100
AcDbEntity
  8
AM_5
100
AcDbLine
 10
743.8845076032309
 20
361.7347833574495
 30
0.0
 11
720.9577617808495
 21
352.2382142967364
 31
0.0
  0
LINE
  5
1F1E
330
1900
100
AcDbEntity
  8
AM_5
100
AcDbLine
 10
748.5039052657872
 20
363.6482005192754
 30
0.0
 11
746.6561462007647
 21
362.8828336545451
 31
0.0
  0
SOLID
  5
1F1F
330
1900
100
AcDbEntity
  8
AM_5
370
     0
100
AcDbTrace
 10
751.0842021471384
 20
365.2581905826265
 30
0.0
 11
751.4668855795036
 21
364.3343110501152
 31
0.0
 12
748.5039052657872
 22
363.6482005192754
 32
0.0
 13
748.5039052657872
 23
363.6482005192754
 33
0.0
  0
SOLID
  5
1F20
330
1900
100
AcDbEntity
  8
AM_5
370
     0
100
AcDbTrace
 10
743.6931658870483
 20
362.1967231237052
 30
0.0
 11
744.0758493194135
 21
361.2728435911939
 31
0.0
 12
746.6561462007647
 22
362.8828336545451
 32
0.0
 13
746.6561462007647
 23
362.8828336545451
 33
0.0
  0
MTEXT
  5
1F21
330
1900
100
AcDbEntity
  8
AM_5
100
AcDbMText
 10
729.8153801226867
 20
359.357657954012
 30
0.0
 40
3.5
 41
0.0
 71
     5
 72
     1
  1
2*2 depth
 11
0.923879532511258
 21
0.3826834323651591
 31
0.0
 73
     1
 44
1.0
1001
ACAD
1000
MTEXTBEGIN
1070
    73
1070
     1
1070
    44
1040
1.0
1070
    74
1070
     0
1000
MTEXTEND
  0
POINT
  5
1F22
330
1900
100
AcDbEntity
  8
Defpoints
 62
     0
370
     0
100
AcDbPoint
 10
741.6880602177436
 20
380.1031060732921
 30
0.0
  0
POINT
  5
1F23
330
1900
100
AcDbEntity
  8
Defpoints
 62
     0
370
     0
100
AcDbPoint
 10
739.8403011527212
 20
379.3377392085619
 30
0.0
  0
POINT
  5
1F24
330
1900
100
AcDbEntity
  8
Defpoints
 62
     0
370
     0
100
AcDbPoint
 10
746.6561462007647
 20
362.8828336545451
 30
0.0
  0
ENDBLK
  5
190D
330
1900
100
AcDbEntity
  8
0
370
     0
100
AcDbBlockEnd
  0
BLOCK
  5
19C1
330
19B8
100
AcDbEntity
  8
0
370
     0
100
AcDbBlockBegin
  2
*D30
 70
     1
 10
0.0
 20
0.0
 30
0.0
  3
*D30
  1

  0
LINE
  5
2068
330
19B8
100
AcDbEntity
  8
AM_5
100
AcDbLine
 10
727.6547020215336
 20
399.859717477402
 30
0.0
 11
725.5326340103287
 21
401.9802898897051
 31
0.0
  0
LINE
  5
2069
330
19B8
100
AcDbEntity
  8
AM_5
100
AcDbLine
 10
743.9238901074382
 20
383.601995649745
 30
0.0
 11
753.4520585394623
 21
374.0805425153308
 31
0.0
  0
LINE
  5
206A
330
19B8
100
AcDbEntity
  8
AM_5
100
AcDbLine
 10
753.4520585394623
 20
374.0805425153308
 30
0.0
 11
781.8789114429391
 21
374.0805425153307
 31
0.0
  0
LINE
  5
206B
330
19B8
100
AcDbEntity
  8
AM_5
100
AcDbLine
 10
729.7767700327385
 20
397.7391450650989
 30
0.0
 11
741.8018220962334
 21
385.722568062048
 31
0.0
  0
SOLID
  5
206C
330
19B8
100
AcDbEntity
  8
AM_5
370
     0
100
AcDbTrace
 10
728.0081307569176
 20
400.2133954792695
 30
0.0
 11
727.3012732861498
 21
399.5060394755344
 31
0.0
 12
729.7767700327385
 22
397.7391450650989
 32
0.0
 13
729.7767700327385
 23
397.7391450650989
 33
0.0
  0
SOLID
  5
206D
330
19B8
100
AcDbEntity
  8
AM_5
370
     0
100
AcDbTrace
 10
744.2773188428222
 20
383.9556736516125
 30
0.0
 11
743.5704613720544
 21
383.2483176478774
 31
0.0
 12
741.8018220962334
 22
385.722568062048
 32
0.0
 13
741.8018220962334
 23
385.722568062048
 33
0.0
  0
MTEXT
  5
206E
330
19B8
100
AcDbEntity
  8
AM_5
100
AcDbMText
 10
768.1654849912008
 20
377.2680425153309
 30
0.0
 40
3.5
 41
0.0
 71
     5
 72
     1
  1
\U+220517*1.5 depth
 73
     1
 44
1.0
1001
ACAD
1000
MTEXTBEGIN
1070
    73
1070
     1
1070
    44
1040
1.0
1070
    74
1070
     0
1000
MTEXTEND
  0
POINT
  5
206F
330
19B8
100
AcDbEntity
  8
Defpoints
 62
     0
370
     0
100
AcDbPoint
 10
741.8018220962334
 20
385.722568062048
 30
0.0
  0
POINT
  5
2070
330
19B8
100
AcDbEntity
  8
Defpoints
 62
     0
370
     0
100
AcDbPoint
 10
729.7767700327385
 20
397.7391450650989
 30
0.0
  0
ENDBLK
  5
19C2
330
19B8
100
AcDbEntity
  8
0
370
     0
100
AcDbBlockEnd
  0
BLOCK
  5
1A1D
330
1A13
100
AcDbEntity
  8
0
370
     0
100
AcDbBlockBegin
  2
*D31
 70
     1
 10
0.0
 20
0.0
 30
0.0
  3
*D31
  1

  0
LINE
  5
1A5B
330
1A13
100
AcDbEntity
  8
AM_5
100
AcDbLine
 10
736.7131755969975
 20
392.1135399959387
 30
0.0
 11
769.7264825146524
 21
405.7880994600167
 31
0.0
  0
LINE
  5
1A5C
330
1A13
100
AcDbEntity
  8
AM_5
100
AcDbLine
 10
731.9296326924337
 20
403.6620341523299
 30
0.0
 11
764.9429396100887
 21
417.336593616408
 31
0.0
  0
LINE
  5
1A5D
330
1A13
100
AcDbEntity
  8
AM_5
100
AcDbLine
 10
767.6545526850459
 20
408.1770546251854
 30
0.0
 11
765.1671103746727
 21
414.1822715865091
 31
0.0
  0
SOLID
  5
1A5E
330
1A13
100
AcDbEntity
  8
AM_5
370
     0
100
AcDbTrace
 10
768.1164924513015
 20
408.3683963413681
 30
0.0
 11
767.1926129187902
 21
407.9857129090029
 31
0.0
 12
768.8026029821411
 22
405.4054160276516
 32
0.0
 13
768.8026029821411
 23
405.4054160276516
 33
0.0
  0
SOLID
  5
1A5F
330
1A13
100
AcDbEntity
  8
AM_5
370
     0
100
AcDbTrace
 10
765.6290501409282
 20
414.3736133026916
 30
0.0
 11
764.705170608417
 21
413.9909298703265
 31
0.0
 12
764.0190600775774
 22
416.9539101840429
 32
0.0
 13
764.0190600775774
 23
416.9539101840429
 33
0.0
  0
MTEXT
  5
1A60
330
1A13
100
AcDbEntity
  8
AM_5
100
AcDbMText
 10
768.9765169879589
 20
412.1725469739589
 30
0.0
 40
3.5
 41
0.0
 71
     5
 72
     1
  1
12.5
 11
0.3826834323650861
 21
-0.9238795325112882
 31
0.0
 73
     1
 44
1.0
1001
ACAD
1000
MTEXTBEGIN
1070
    73
1070
     1
1070
    44
1040
1.0
1070
    74
1070
     0
1000
MTEXTEND
  0
POINT
  5
1A61
330
1A13
100
AcDbEntity
  8
Defpoints
 62
     0
370
     0
100
AcDbPoint
 10
735.7892960644861
 20
391.7308565635736
 30
0.0
  0
POINT
  5
1A62
330
1A13
100
AcDbEntity
  8
Defpoints
 62
     0
370
     0
100
AcDbPoint
 10
731.0057531599223
 20
403.2793507199649
 30
0.0
  0
POINT
  5
1A63
330
1A13
100
AcDbEntity
  8
Defpoints
 62
     0
370
     0
100
AcDbPoint
 10
764.0190600775774
 20
416.9539101840429
 30
0.0
  0
ENDBLK
  5
1A1E
330
1A13
100
AcDbEntity
  8
0
370
     0
100
AcDbBlockEnd
  0
BLOCK
  5
1AA9
330
1A9D
100
AcDbEntity
  8
0
370
     0
100
AcDbBlockBegin
  2
*D33
 70
     1
 10
0.0
 20
0.0
 30
0.0
  3
*D33
  1

  0
LINE
  5
1FFE
330
1A9D
100
AcDbEntity
  8
AM_5
100
AcDbLine
 10
741.6088038838534
 20
378.9878848245984
 30
0.0
 11
774.6221108015086
 21
392.6624442886758
 31
0.0
  0
LINE
  5
1FFF
330
1A9D
100
AcDbEntity
  8
AM_5
100
AcDbLine
 10
740.4607535867578
 20
381.7595234221322
 30
0.0
 11
773.4740605044135
 21
395.4340828862097
 31
0.0
  0
LINE
  5
2000
330
1A9D
100
AcDbEntity
  8
AM_5
100
AcDbLine
 10
775.3082213323482
 20
389.6994639749594
 30
0.0
 11
776.4562716294433
 21
386.9278253774254
 31
0.0
  0
LINE
  5
2001
330
1A9D
100
AcDbEntity
  8
AM_5
100
AcDbLine
 10
771.8640704410626
 20
398.0143797675611
 30
0.0
 11
770.7160201439673
 21
400.7860183650949
 31
0.0
  0
LINE
  5
2002
330
1A9D
100
AcDbEntity
  8
AM_5
100
AcDbLine
 10
774.160171035253
 20
392.4711025724932
 30
0.0
 11
773.0121207381578
 21
395.2427411700272
 31
0.0
  0
SOLID
  5
2003
330
1A9D
100
AcDbEntity
  8
AM_5
370
     0
100
AcDbTrace
 10
775.7701610986039
 20
389.8908056911419
 30
0.0
 11
774.8462815660927
 21
389.5081222587768
 31
0.0
 12
774.160171035253
 22
392.4711025724932
 32
0.0
 13
774.160171035253
 23
392.4711025724932
 33
0.0
  0
SOLID
  5
2004
330
1A9D
100
AcDbEntity
  8
AM_5
370
     0
100
AcDbTrace
 10
772.3260102073183
 20
398.2057214837436
 30
0.0
 11
771.402130674807
 21
397.8230380513786
 31
0.0
 12
773.0121207381578
 22
395.2427411700272
 32
0.0
 13
773.0121207381578
 23
395.2427411700272
 33
0.0
  0
MTEXT
  5
2005
330
1A9D
100
AcDbEntity
  8
AM_5
100
AcDbMText
 10
776.1268146011115
 20
394.909301310264
 30
0.0
 40
3.5
 41
0.0
 71
     5
 72
     1
  1
3
 11
0.3826834323650657
 21
-0.9238795325112969
 31
0.0
 73
     1
 44
1.0
1001
ACAD
1000
MTEXTBEGIN
1070
    73
1070
     1
1070
    44
1040
1.0
1070
    74
1070
     0
1000
MTEXTEND
  0
POINT
  5
2006
330
1A9D
100
AcDbEntity
  8
Defpoints
 62
     0
370
     0
100
AcDbPoint
 10
741.1468641175978
 20
378.7965431084159
 30
0.0
  0
POINT
  5
2007
330
1A9D
100
AcDbEntity
  8
Defpoints
 62
     0
370
     0
100
AcDbPoint
 10
739.9988138205022
 20
381.5681817059497
 30
0.0
  0
POINT
  5
2008
330
1A9D
100
AcDbEntity
  8
Defpoints
 62
     0
370
     0
100
AcDbPoint
 10
773.0121207381578
 20
395.2427411700272
 30
0.0
  0
ENDBLK
  5
1AAA
330
1A9D
100
AcDbEntity
  8
0
370
     0
100
AcDbBlockEnd
  0
BLOCK
  5
1AF1
330
1AEA
100
AcDbEntity
  8
0
370
     0
100
AcDbBlockBegin
  2
*D34
 70
     1
 10
0.0
 20
0.0
 30
0.0
  3
*D34
  1

  0
LINE
  5
1B3B
330
1AEA
100
AcDbEntity
  8
AM_5
100
AcDbLine
 10
723.0064895699451
 20
393.9289141872001
 30
0.0
 11
715.3369996464696
 21
378.053304125651
 31
0.0
  0
LINE
  5
1B3C
330
1AEA
100
AcDbEntity
  8
AM_5
100
AcDbLine
 10
715.3369996464696
 20
378.053304125651
 30
0.0
 11
696.3420248996389
 21
378.0533041256509
 31
0.0
  0
SOLID
  5
1B3D
330
1AEA
100
AcDbEntity
  8
AM_5
370
     0
100
AcDbTrace
 10
722.556273750348
 20
394.1464129591151
 30
0.0
 11
723.4567053895423
 21
393.7114154152851
 31
0.0
 12
724.3114822014354
 22
396.6302091047825
 32
0.0
 13
724.3114822014354
 23
396.6302091047825
 33
0.0
  0
MTEXT
  5
1B3E
330
1AEA
100
AcDbEntity
  8
AM_5
100
AcDbMText
 10
705.3395122730544
 20
380.8033041256509
 30
0.0
 40
3.5
 41
0.0
 71
     5
 72
     1
  1
3-M3*0.5
 73
     1
 44
1.0
1001
ACAD
1000
MTEXTBEGIN
1070
    73
1070
     1
1070
    44
1040
1.0
1070
    74
1070
     0
1000
MTEXTEND
  0
POINT
  5
1B3F
330
1AEA
100
AcDbEntity
  8
Defpoints
 62
     0
370
     0
100
AcDbPoint
 10
724.3114822014354
 20
396.6302091047825
 30
0.0
  0
POINT
  5
1B40
330
1AEA
100
AcDbEntity
  8
Defpoints
 62
     0
370
     0
100
AcDbPoint
 10
724.9639785171806
 20
397.9808565635739
 30
0.0
  0
ENDBLK
  5
1AF2
330
1AEA
100
AcDbEntity
  8
0
370
     0
100
AcDbBlockEnd
  0
BLOCK
  5
1D4A
330
1D3C
100
AcDbEntity
  8
0
370
     0
100
AcDbBlockBegin
  2
*D35
 70
     1
 10
0.0
 20
0.0
 30
0.0
  3
*D35
  1

  0
LINE
  5
1EB1
330
1D3C
100
AcDbEntity
  8
AM_5
100
AcDbLine
 10
735.7892960644862
 20
409.4185971103662
 30
0.0
 11
735.7892960644862
 21
426.9812545963852
 31
0.0
  0
LINE
  5
1EB2
330
1D3C
100
AcDbEntity
  8
AM_5
100
AcDbLine
 10
730.2403862951925
 20
405.1271097849877
 30
0.0
 11
722.2995527530547
 21
424.2979778189646
 31
0.0
  0
ARC
  5
1EB3
330
1D3C
100
AcDbEntity
  8
AM_5
100
AcDbCircle
 10
735.7892960644862
 20
391.7308565635737
 30
0.0
 40
34.25039803281152
100
AcDbArc
 50
79.95968847754267
 51
84.97984423877133
  0
ARC
  5
1EB4
330
1D3C
100
AcDbEntity
  8
AM_5
100
AcDbCircle
 10
735.7892960644862
 20
391.7308565635737
 30
0.0
 40
34.25039803281152
100
AcDbArc
 50
117.5201557612277
 51
122.5403115224564
  0
ARC
  5
1EB5
330
1D3C
100
AcDbEntity
  8
AM_5
100
AcDbCircle
 10
735.7892960644862
 20
391.7308565635737
 30
0.0
 40
34.25039803281152
100
AcDbArc
 50
89.99999999999996
 51
112.4999999999991
  0
SOLID
  5
1EB6
330
1D3C
100
AcDbEntity
  8
AM_5
370
     0
100
AcDbTrace
 10
738.7645201102004
 20
425.3503489950435
 30
0.0
 11
738.8083152216779
 21
426.3493895288612
 31
0.0
 12
735.7892960644861
 22
425.9812545963852
 32
0.0
 13
735.7892960644861
 23
425.9812545963852
 33
0.0
  0
SOLID
  5
1EB7
330
1D3C
100
AcDbEntity
  8
AM_5
370
     0
100
AcDbTrace
 10
719.7521470382975
 20
422.5588820023203
 30
0.0
 11
720.1749247059689
 21
421.652648564558
 31
0.0
 12
722.6822361854198
 22
423.3740982864532
 32
0.0
 13
722.6822361854198
 23
423.3740982864532
 33
0.0
  0
MTEXT
  5
1EB8
330
1D3C
100
AcDbEntity
  8
AM_5
100
AcDbMText
 10
729.0636413050503
 20
428.1152009325774
 30
0.0
 40
3.5
 41
0.0
 71
     5
 72
     1
  1
22.5°
 11
0.983340924803145
 21
0.1817708051566457
 31
0.0
 73
     1
 44
1.0
1001
ACAD
1000
MTEXTBEGIN
1070
    73
1070
     1
1070
    44
1040
1.0
1070
    74
1070
     0
1000
MTEXTEND
  0
POINT
  5
1EB9
330
1D3C
100
AcDbEntity
  8
Defpoints
 62
     0
370
     0
100
AcDbPoint
 10
726.9246407512532
 20
424.8142005841467
 30
0.0
  0
POINT
  5
1EBA
330
1D3C
100
AcDbEntity
  8
Defpoints
 62
     0
370
     0
100
AcDbPoint
 10
735.7892960644862
 20
391.7308565635737
 30
0.0
  0
POINT
  5
1EBB
330
1D3C
100
AcDbEntity
  8
Defpoints
 62
     0
370
     0
100
AcDbPoint
 10
735.7892960644861
 20
366.5145438018808
 30
0.0
  0
POINT
  5
1EBC
330
1D3C
100
AcDbEntity
  8
Defpoints
 62
     0
370
     0
100
AcDbPoint
 10
735.7892960644862
 20
408.4185971103662
 30
0.0
  0
POINT
  5
1EBD
330
1D3C
100
AcDbEntity
  8
Defpoints
 62
     0
370
     0
100
AcDbPoint
 10
730.6230697275575
 20
404.2032302524764
 30
0.0
  0
ENDBLK
  5
1D4B
330
1D3C
100
AcDbEntity
  8
0
370
     0
100
AcDbBlockEnd
  0
BLOCK
  5
1D9B
330
1D8D
100
AcDbEntity
  8
0
370
     0
100
AcDbBlockBegin
  2
*D36
 70
     1
 10
0.0
 20
0.0
 30
0.0
  3
*D36
  1

  0
LINE
  5
1E7C
330
1D8D
100
AcDbEntity
  8
AM_5
100
AcDbLine
 10
735.7892960644861
 20
409.4185971103662
 30
0.0
 11
735.7892960644862
 21
421.0622372738082
 31
0.0
  0
LINE
  5
1E7D
330
1D8D
100
AcDbEntity
  8
AM_5
100
AcDbLine
 10
729.3355406224733
 20
409.4624039111862
 30
0.0
 11
725.7573730300318
 21
419.2933385744431
 31
0.0
  0
ARC
  5
1E7E
330
1D8D
100
AcDbEntity
  8
AM_5
100
AcDbCircle
 10
735.7892960644862
 20
391.7308565635737
 30
0.0
 40
28.33138071023449
100
AcDbArc
 50
77.86026376711821
 51
83.93013188355915
  0
ARC
  5
1E7F
330
1D8D
100
AcDbEntity
  8
AM_5
100
AcDbCircle
 10
735.7892960644862
 20
391.7308565635737
 30
0.0
 40
28.33138071023449
100
AcDbArc
 50
116.0698681164412
 51
122.1397362328821
  0
ARC
  5
1E80
330
1D8D
100
AcDbEntity
  8
AM_5
100
AcDbCircle
 10
735.7892960644862
 20
391.7308565635737
 30
0.0
 40
28.33138071023449
100
AcDbArc
 50
90.00000000000007
 51
110.0000000000002
  0
SOLID
  5
1E81
330
1D8D
100
AcDbEntity
  8
AM_5
370
     0
100
AcDbTrace
 10
738.7586159693332
 20
419.4041040785661
 30
0.0
 11
738.811560794555
 21
420.4027015177187
 31
0.0
 12
735.7892960644861
 22
420.0622372738082
 32
0.0
 13
735.7892960644861
 23
420.0622372738082
 33
0.0
  0
SOLID
  5
1E82
330
1D8D
100
AcDbEntity
  8
AM_5
370
     0
100
AcDbTrace
 10
723.1429476789509
 20
417.6399022751551
 30
0.0
 11
723.5342399797843
 21
416.7196358271584
 31
0.0
 12
726.0993931733577
 22
418.3536459536573
 32
0.0
 13
726.0993931733577
 23
418.3536459536573
 33
0.0
  0
MTEXT
  5
1E83
330
1D8D
100
AcDbEntity
  8
AM_5
100
AcDbMText
 10
730.2855740234652
 20
422.3214218575576
 30
0.0
 40
3.5
 41
0.0
 71
     5
 72
     1
  1
20°
 11
0.9841977914255382
 21
0.177072604750404
 31
0.0
 73
     1
 44
1.0
1001
ACAD
1000
MTEXTBEGIN
1070
    73
1070
     1
1070
    44
1040
1.0
1070
    74
1070
     0
1000
MTEXTEND
  0
POINT
  5
1E84
330
1D8D
100
AcDbEntity
  8
Defpoints
 62
     0
370
     0
100
AcDbPoint
 10
732.5002235166437
 20
419.8706706127687
 30
0.0
  0
POINT
  5
1E85
330
1D8D
100
AcDbEntity
  8
Defpoints
 62
     0
370
     0
100
AcDbPoint
 10
735.7892960644862
 20
391.7308565635736
 30
0.0
  0
POINT
  5
1E86
330
1D8D
100
AcDbEntity
  8
Defpoints
 62
     0
370
     0
100
AcDbPoint
 10
735.7892960644863
 20
366.5145438018809
 30
0.0
  0
POINT
  5
1E87
330
1D8D
100
AcDbEntity
  8
Defpoints
 62
     0
370
     0
100
AcDbPoint
 10
735.7892960644861
 20
408.4185971103662
 30
0.0
  0
POINT
  5
1E88
330
1D8D
100
AcDbEntity
  8
Defpoints
 62
     0
370
     0
100
AcDbPoint
 10
729.677560765799
 20
408.5227112904004
 30
0.0
  0
ENDBLK
  5
1D9C
330
1D8D
100
AcDbEntity
  8
0
370
     0
100
AcDbBlockEnd
  0
BLOCK
  5
1E33
330
1E25
100
AcDbEntity
  8
0
370
     0
100
AcDbBlockBegin
  2
*D37
 70
     1
 10
0.0
 20
0.0
 30
0.0
  3
*D37
  1

  0
LINE
  5
1EA4
330
1E25
100
AcDbEntity
  8
AM_5
100
AcDbLine
 10
741.9676619227683
 20
408.7057772483331
 30
0.0
 11
745.8212190989403
 21
419.2933385744431
 31
0.0
  0
LINE
  5
1EA5
330
1E25
100
AcDbEntity
  8
AM_5
100
AcDbLine
 10
735.7892960644862
 20
409.4185971103662
 30
0.0
 11
735.7892960644862
 21
421.0622372738081
 31
0.0
  0
ARC
  5
1EA6
330
1E25
100
AcDbEntity
  8
AM_5
100
AcDbCircle
 10
735.7892960644862
 20
391.7308565635736
 30
0.0
 40
28.33138071023459
100
AcDbArc
 50
57.86026376711859
 51
63.93013188355952
  0
ARC
  5
1EA7
330
1E25
100
AcDbEntity
  8
AM_5
100
AcDbCircle
 10
735.7892960644862
 20
391.7308565635736
 30
0.0
 40
28.33138071023459
100
AcDbArc
 50
96.06986811644082
 51
102.1397362328817
  0
ARC
  5
1EA8
330
1E25
100
AcDbEntity
  8
AM_5
100
AcDbCircle
 10
735.7892960644862
 20
391.7308565635736
 30
0.0
 40
28.33138071023459
100
AcDbArc
 50
70.00000000000042
 51
89.99999999999989
  0
SOLID
  5
1EA9
330
1E25
100
AcDbEntity
  8
AM_5
370
     0
100
AcDbTrace
 10
748.0443521491879
 20
416.7196358271585
 30
0.0
 11
748.4356444500214
 21
417.6399022751551
 31
0.0
 12
745.4791989556146
 22
418.3536459536572
 32
0.0
 13
745.4791989556146
 23
418.3536459536572
 33
0.0
  0
SOLID
  5
1EAA
330
1E25
100
AcDbEntity
  8
AM_5
370
     0
100
AcDbTrace
 10
732.7670313344174
 20
420.4027015177185
 30
0.0
 11
732.8199761596392
 21
419.4041040785658
 31
0.0
 12
735.7892960644862
 22
420.062237273808
 32
0.0
 13
735.7892960644862
 23
420.062237273808
 33
0.0
  0
MTEXT
  5
1EAB
330
1E25
100
AcDbEntity
  8
AM_5
100
AcDbMText
 10
742.2692208913736
 20
422.1296100832198
 30
0.0
 40
3.5
 41
0.0
 71
     5
 72
     1
  1
20°
 11
0.9780265839679989
 21
-0.2084802174113568
 31
0.0
 73
     1
 44
1.0
1001
ACAD
1000
MTEXTBEGIN
1070
    73
1070
     1
1070
    44
1040
1.0
1070
    74
1070
     0
1000
MTEXTEND
  0
POINT
  5
1EAC
330
1E25
100
AcDbEntity
  8
Defpoints
 62
     0
370
     0
100
AcDbPoint
 10
739.0783686123287
 20
419.8706706127687
 30
0.0
  0
POINT
  5
1EAD
330
1E25
100
AcDbEntity
  8
Defpoints
 62
     0
370
     0
100
AcDbPoint
 10
735.7892960644862
 20
391.7308565635737
 30
0.0
  0
POINT
  5
1EAE
330
1E25
100
AcDbEntity
  8
Defpoints
 62
     0
370
     0
100
AcDbPoint
 10
735.7892960644862
 20
366.5145438018809
 30
0.0
  0
POINT
  5
1EAF
330
1E25
100
AcDbEntity
  8
Defpoints
 62
     0
370
     0
100
AcDbPoint
 10
735.7892960644862
 20
408.4185971103662
 30
0.0
  0
POINT
  5
1EB0
330
1E25
100
AcDbEntity
  8
Defpoints
 62
     0
370
     0
100
AcDbPoint
 10
741.6256417794426
 20
407.766084627547
 30
0.0
  0
ENDBLK
  5
1E34
330
1E25
100
AcDbEntity
  8
0
370
     0
100
AcDbBlockEnd
  0
BLOCK
  5
1FCB
330
1FC1
100
AcDbEntity
  8
0
370
     0
100
AcDbBlockBegin
  2
*D38
 70
     1
 10
0.0
 20
0.0
 30
0.0
  3
*D38
  1

  0
LINE
  5
1FCD
330
1FC1
100
AcDbEntity
  8
AM_5
100
AcDbLine
 10
740.9226933530134
 20
381.9508651383148
 30
0.0
 11
773.9360002706689
 21
395.6254246023922
 31
0.0
  0
LINE
  5
1FCE
330
1FC1
100
AcDbEntity
  8
AM_5
100
AcDbLine
 10
736.7131755969975
 20
392.1135399959387
 30
0.0
 11
769.7264825146533
 21
405.7880994600163
 31
0.0
  0
LINE
  5
1FCF
330
1FC1
100
AcDbEntity
  8
AM_5
100
AcDbLine
 10
771.8640704410625
 20
398.0143797675611
 30
0.0
 11
769.9506532792371
 21
402.6337774301173
 31
0.0
  0
SOLID
  5
1FD0
330
1FC1
100
AcDbEntity
  8
AM_5
370
     0
100
AcDbTrace
 10
772.3260102073181
 20
398.2057214837436
 30
0.0
 11
771.4021306748068
 21
397.8230380513786
 31
0.0
 12
773.0121207381576
 22
395.2427411700272
 32
0.0
 13
773.0121207381576
 23
395.2427411700272
 33
0.0
  0
SOLID
  5
1FD1
330
1FC1
100
AcDbEntity
  8
AM_5
370
     0
100
AcDbTrace
 10
770.4125930454928
 20
402.8251191462998
 30
0.0
 11
769.4887135129816
 21
402.4424357139348
 31
0.0
 12
768.802602982142
 22
405.4054160276511
 32
0.0
 13
768.802602982142
 23
405.4054160276511
 33
0.0
  0
MTEXT
  5
1FD2
330
1FC1
100
AcDbEntity
  8
AM_5
100
AcDbMText
 10
773.448030574556
 20
401.376458037843
 30
0.0
 40
3.5
 41
0.0
 71
     5
 72
     1
  1
11
 11
0.3826834323650657
 21
-0.9238795325112969
 31
0.0
 73
     1
 44
1.0
1001
ACAD
1000
MTEXTBEGIN
1070
    73
1070
     1
1070
    44
1040
1.0
1070
    74
1070
     0
1000
MTEXTEND
  0
POINT
  5
1FD3
330
1FC1
100
AcDbEntity
  8
Defpoints
 62
     0
370
     0
100
AcDbPoint
 10
739.9988138205022
 20
381.5681817059498
 30
0.0
  0
POINT
  5
1FD4
330
1FC1
100
AcDbEntity
  8
Defpoints
 62
     0
370
     0
100
AcDbPoint
 10
735.7892960644862
 20
391.7308565635736
 30
0.0
  0
POINT
  5
1FD5
330
1FC1
100
AcDbEntity
  8
Defpoints
 62
     0
370
     0
100
AcDbPoint
 10
768.802602982142
 20
405.4054160276511
 30
0.0
  0
ENDBLK
  5
1FCC
330
1FC1
100
AcDbEntity
  8
0
370
     0
100
AcDbBlockEnd
  0
BLOCK
  5
2031
330
2028
100
AcDbEntity
  8
0
370
     0
100
AcDbBlockBegin
  2
*D39
 70
     1
 10
0.0
 20
0.0
 30
0.0
  3
*D39
  1

  0
LINE
  5
2057
330
2028
100
AcDbEntity
  8
AM_5
100
AcDbLine
 10
727.9858597615652
 20
405.9023726151377
 30
0.0
 11
722.788079101036
 21
410.4170659106987
 31
0.0
  0
LINE
  5
2058
330
2028
100
AcDbEntity
  8
AM_5
100
AcDbLine
 10
722.788079101036
 20
410.4170659106987
 30
0.0
 11
700.3112261975593
 21
410.4170659106988
 31
0.0
  0
SOLID
  5
2059
330
2028
100
AcDbEntity
  8
AM_5
370
     0
100
AcDbTrace
 10
728.3137374984618
 20
406.2798592899323
 30
0.0
 11
727.6579820246686
 21
405.5248859403429
 31
0.0
 12
730.2507798103333
 22
403.9351061937579
 32
0.0
 13
730.2507798103333
 23
403.9351061937579
 33
0.0
  0
MTEXT
  5
205A
330
2028
100
AcDbEntity
  8
AM_5
100
AcDbMText
 10
711.0496526492973
 20
413.6049103988873
 30
0.0
 40
3.5
 41
0.0
 71
     5
 72
     1
  1
\U+22052*2depth
 73
     1
 44
1.0
1001
ACAD
1000
MTEXTBEGIN
1070
    73
1070
     1
1070
    44
1040
1.0
1070
    74
1070
     0
1000
MTEXTEND
  0
POINT
  5
205B
330
2028
100
AcDbEntity
  8
Defpoints
 62
     0
370
     0
100
AcDbPoint
 10
730.2507798103333
 20
403.9351061937579
 30
0.0
  0
POINT
  5
205C
330
2028
100
AcDbEntity
  8
Defpoints
 62
     0
370
     0
100
AcDbPoint
 10
731.7607265095119
 20
402.6235952461718
 30
0.0
  0
ENDBLK
  5
2032
330
2028
100
AcDbEntity
  8
0
370
     0
100
AcDbBlockEnd
  0
ENDSEC
  0
SECTION
  2
ENTITIES
  0
ARC
  5
23A
330
A
100
AcDbEntity
  8
0
  6
Continuous
100
AcDbCircle
 10
557.5271916967172
 20
391.7308565635737
 30
0.0
 40
20.00000000000003
100
AcDbArc
 50
12.5423968762789
 51
22.81924421854113
  0
LINE
  5
23B
330
A
100
AcDbEntity
  8
0
  6
Continuous
100
AcDbLine
 10
577.0499033385756
 20
396.0740961550369
 30
0.0
 11
574.3021690106732
 21
394.4876910011609
 31
0.0
  0
ARC
  5
23C
330
A
100
AcDbEntity
  8
0
  6
Continuous
100
AcDbCircle
 10
557.5271916967172
 20
391.7308565635737
 30
0.0
 40
17.0
100
AcDbArc
 50
9.332683506487546
 51
21.54348066472907
  0
LINE
  5
23D
330
A
100
AcDbEntity
  8
0
  6
Continuous
100
AcDbLine
 10
568.3021690106731
 20
404.879995846574
 30
0.0
 11
571.0499033385754
 21
406.4664010004499
 31
0.0
  0
ARC
  5
23E
330
A
100
AcDbEntity
  8
0
  6
Continuous
100
AcDbCircle
 10
557.5271916967172
 20
391.7308565635737
 30
0.0
 40
20.0
100
AcDbArc
 50
37.18075578145771
 51
47.45760312372243
  0
ARC
  5
23F
330
A
100
AcDbEntity
  8
0
  6
Continuous
100
AcDbCircle
 10
557.5271916967172
 20
391.7308565635737
 30
0.0
 40
17.0
100
AcDbArc
 50
38.45651933526998
 51
50.66731649351296
  0
ARC
  5
240
330
A
100
AcDbEntity
  8
0
  6
Continuous
100
AcDbCircle
 10
570.3096497415756
 20
391.0609563236643
 30
0.0
 40
2.000000000000041
100
AcDbArc
 50
45.59037789072877
 51
308.4096221092718
  0
LINE
  5
241
330
A
100
AcDbEntity
  8
0
  6
Continuous
100
AcDbLine
 10
572.6541137054526
 20
389.4360296547116
 30
0.0
 11
571.5522085076337
 21
389.4937780591097
 31
0.0
  0
ARC
  5
242
330
A
100
AcDbEntity
  8
0
  6
Continuous
100
AcDbCircle
 10
557.5271916967172
 20
391.7308565635737
 30
0.0
 40
15.30000000000003
100
AcDbArc
 50
342.2641086033095
 51
351.3737290538947
  0
LINE
  5
243
330
A
100
AcDbEntity
  8
0
  6
Continuous
100
AcDbLine
 10
572.0999955645551
 20
387.0700210773625
 30
0.0
 11
569.9775092440225
 21
388.2954391258732
 31
0.0
  0
ARC
  5
244
330
A
100
AcDbEntity
  8
0
  6
Continuous
100
AcDbCircle
 10
568.3525092440227
 20
385.4808565635737
 30
0.0
 40
3.250000000000048
100
AcDbArc
 50
59.99999999999936
 51
240.0
  0
LINE
  5
245
330
A
100
AcDbEntity
  8
0
  6
Continuous
100
AcDbLine
 10
566.7275092440227
 20
382.6662740012744
 30
0.0
 11
568.8499955645552
 21
381.4408559527635
 31
0.0
  0
ARC
  5
246
330
A
100
AcDbEntity
  8
0
  6
Continuous
100
AcDbCircle
 10
557.5271916967172
 20
391.7308565635737
 30
0.0
 40
15.30000000000002
100
AcDbArc
 50
308.6262709461061
 51
317.7358913966914
  0
LINE
  5
247
330
A
100
AcDbEntity
  8
0
  6
Continuous
100
AcDbLine
 10
566.4770669173017
 20
380.7033749690484
 30
0.0
 11
567.0780311014477
 21
379.7779712773743
 31
0.0
  0
ARC
  5
248
330
A
100
AcDbEntity
  8
0
  6
Continuous
100
AcDbCircle
 10
564.4985713449094
 20
380.9958732938723
 30
0.0
 40
2.000000000000019
100
AcDbArc
 50
351.5903778907212
 51
254.4096221092707
  0
LINE
  5
249
330
A
100
AcDbEntity
  8
0
  6
Continuous
100
AcDbLine
 10
564.5623380174897
 20
378.1435635407425
 30
0.0
 11
563.9610552134652
 21
379.0694578640033
 31
0.0
  0
ARC
  5
24B
330
A
100
AcDbEntity
  8
0
  6
Continuous
100
AcDbCircle
 10
565.5271916967172
 20
376.3916910060867
 30
0.0
 40
2.0
100
AcDbArc
 50
118.8440230516112
 51
180.0000000000004
  0
LINE
  5
24C
330
A
100
AcDbEntity
  8
0
  6
Continuous
100
AcDbLine
 10
563.5271916967171
 20
375.824882842987
 30
0.0
 11
563.5271916967171
 21
376.3916910060867
 31
0.0
  0
ARC
  5
24D
330
A
100
AcDbEntity
  8
0
  6
Continuous
100
AcDbCircle
 10
557.5271916967172
 20
391.7308565635737
 30
0.0
 40
17.00000000000002
100
AcDbArc
 50
278.4565193352714
 51
290.6673164935132
  0
LINE
  5
24E
330
A
100
AcDbEntity
  8
0
  6
Continuous
100
AcDbLine
 10
560.0271916967174
 20
383.2308565635738
 30
0.0
 11
560.0271916967174
 21
378.2308565635738
 31
0.0
  0
LINE
  5
24F
330
A
100
AcDbEntity
  8
0
  6
Continuous
100
AcDbLine
 10
555.0271916967171
 20
383.2308565635738
 30
0.0
 11
560.0271916967174
 21
383.2308565635738
 31
0.0
  0
LINE
  5
250
330
A
100
AcDbEntity
  8
0
  6
Continuous
100
AcDbLine
 10
555.0271916967171
 20
383.2308565635738
 30
0.0
 11
555.0271916967171
 21
378.2308565635738
 31
0.0
  0
ARC
  5
251
330
A
100
AcDbEntity
  8
0
  6
Continuous
100
AcDbCircle
 10
557.5271916967172
 20
391.7308565635737
 30
0.0
 40
17.00000000000001
100
AcDbArc
 50
249.332683506488
 51
261.5434806647304
  0
LINE
  5
252
330
A
100
AcDbEntity
  8
0
  6
Continuous
100
AcDbLine
 10
551.5271916967171
 20
376.3916910060867
 30
0.0
 11
551.5271916967171
 21
375.824882842987
 31
0.0
  0
ARC
  5
253
330
A
100
AcDbEntity
  8
0
  6
Continuous
100
AcDbCircle
 10
549.5271916967172
 20
376.3916910060867
 30
0.0
 40
2.0
100
AcDbArc
 50
0.0
 51
62.45612321539454
  0
ARC
  5
254
330
A
100
AcDbEntity
  8
0
  6
Continuous
100
AcDbCircle
 10
557.5271916967172
 20
391.7308565635737
 30
0.0
 40
15.30000000000002
100
AcDbArc
 50
222.2641086033093
 51
242.4561232153954
  0
LINE
  5
255
330
A
100
AcDbEntity
  8
0
  6
Continuous
100
AcDbLine
 10
546.2043878288791
 20
381.4408559527638
 30
0.0
 11
548.3268741494116
 21
382.6662740012744
 31
0.0
  0
ARC
  5
256
330
A
100
AcDbEntity
  8
0
  6
Continuous
100
AcDbCircle
 10
546.7018741494116
 20
385.4808565635737
 30
0.0
 40
3.25000000000002
100
AcDbArc
 50
299.9999999999994
 51
119.9999999999997
  0
LINE
  5
257
330
A
100
AcDbEntity
  8
0
  6
Continuous
100
AcDbLine
 10
545.0768741494116
 20
388.2954391258735
 30
0.0
 11
542.9543878288793
 21
387.0700210773627
 31
0.0
  0
ARC
  5
258
330
A
100
AcDbEntity
  8
0
  6
Continuous
100
AcDbCircle
 10
557.5271916967172
 20
391.7308565635737
 30
0.0
 40
15.29999999999999
100
AcDbArc
 50
177.5438767846041
 51
197.7358913966914
  0
ARC
  5
259
330
A
100
AcDbEntity
  8
0
  6
Continuous
100
AcDbCircle
 10
540.2430846510781
 20
392.472236112042
 30
0.0
 40
2.000000000000051
100
AcDbArc
 50
357.5438767846053
 51
59.99999999999899
  0
LINE
  5
25A
330
A
100
AcDbEntity
  8
0
  6
Continuous
100
AcDbLine
 10
540.7522143827613
 20
394.4876910011609
 30
0.0
 11
541.2430846510781
 21
394.2042869196109
 31
0.0
  0
ARC
  5
25B
330
A
100
AcDbEntity
  8
0
  6
Continuous
100
AcDbCircle
 10
557.5271916967172
 20
391.7308565635737
 30
0.0
 40
17.00000000000001
100
AcDbArc
 50
158.4565193352702
 51
170.6673164935119
  0
LINE
  5
25C
330
A
100
AcDbEntity
  8
0
  6
Continuous
100
AcDbLine
 10
548.9159757645493
 20
393.8157930541127
 30
0.0
 11
544.5858487456273
 21
396.3157930541127
 31
0.0
  0
LINE
  5
25D
330
A
100
AcDbEntity
  8
0
  6
Continuous
100
AcDbLine
 10
551.4159757645494
 20
398.1459200730349
 30
0.0
 11
548.9159757645493
 21
393.8157930541127
 31
0.0
  0
LINE
  5
25E
330
A
100
AcDbEntity
  8
0
  6
Continuous
100
AcDbLine
 10
551.4159757645494
 20
398.1459200730349
 30
0.0
 11
547.0858487456273
 21
400.6459200730351
 31
0.0
  0
ARC
  5
25F
330
A
100
AcDbEntity
  8
0
  6
Continuous
100
AcDbCircle
 10
557.5271916967172
 20
391.7308565635737
 30
0.0
 40
17.0
100
AcDbArc
 50
129.332683506487
 51
141.5434806647291
  0
LINE
  5
260
330
A
100
AcDbEntity
  8
0
  6
Continuous
100
AcDbLine
 10
547.2430846510778
 20
404.596591765024
 30
0.0
 11
546.7522143827611
 21
404.879995846574
 31
0.0
  0
ARC
  5
261
330
A
100
AcDbEntity
  8
0
  6
Continuous
100
AcDbCircle
 10
548.2430846510781
 20
406.328642572593
 30
0.0
 40
2.000000000000024
100
AcDbArc
 50
240.0000000000011
 51
302.4561232153965
  0
ARC
  5
262
330
A
100
AcDbEntity
  8
0
  6
Continuous
100
AcDbCircle
 10
557.5271916967172
 20
391.7308565635737
 30
0.0
 40
15.3
100
AcDbArc
 50
102.2641086033091
 51
122.4561232153942
  0
LINE
  5
263
330
A
100
AcDbEntity
  8
0
  6
Continuous
100
AcDbLine
 10
554.2771916967171
 20
406.6816926605953
 30
0.0
 11
554.2771916967171
 21
404.2308565635738
 31
0.0
  0
ARC
  5
264
330
A
100
AcDbEntity
  8
0
  6
Continuous
100
AcDbCircle
 10
557.5271916967172
 20
404.2308565635738
 30
0.0
 40
3.25
100
AcDbArc
 50
180.0000000000004
 51
0.0
  0
LINE
  5
265
330
A
100
AcDbEntity
  8
0
  6
Continuous
100
AcDbLine
 10
560.7771916967172
 20
404.2308565635738
 30
0.0
 11
560.7771916967172
 21
406.6816926605953
 31
0.0
  0
ARC
  5
266
330
A
100
AcDbEntity
  8
0
  6
Continuous
100
AcDbCircle
 10
557.5271916967172
 20
391.7308565635737
 30
0.0
 40
15.30000000000005
100
AcDbArc
 50
57.54387678460566
 51
77.73589139669096
  0
ARC
  5
267
330
A
100
AcDbEntity
  8
0
  6
Continuous
100
AcDbCircle
 10
566.8112987423562
 20
406.328642572593
 30
0.0
 40
1.999999999999965
100
AcDbArc
 50
237.5438767846078
 51
300.0000000000013
  0
LINE
  5
268
330
A
100
AcDbEntity
  8
0
  6
Continuous
100
AcDbLine
 10
568.3021690106731
 20
404.879995846574
 30
0.0
 11
567.8112987423562
 21
404.596591765024
 31
0.0
  0
LINE
  5
269
330
A
100
AcDbEntity
  8
0
  6
Continuous
100
AcDbLine
 10
563.6384076288846
 20
398.1459200730349
 30
0.0
 11
567.968534647807
 21
400.6459200730349
 31
0.0
  0
LINE
  5
26A
330
A
100
AcDbEntity
  8
0
  6
Continuous
100
AcDbLine
 10
566.1384076288847
 20
393.8157930541127
 30
0.0
 11
563.6384076288846
 21
398.1459200730349
 31
0.0
  0
ARC
  5
26B
330
A
100
AcDbEntity
  8
0
  6
Continuous
100
AcDbCircle
 10
574.8112987423565
 20
392.472236112042
 30
0.0
 40
2.000000000000015
100
AcDbArc
 50
119.9999999999997
 51
182.4561232154101
  0
ARC
  5
26C
330
A
100
AcDbEntity
  8
0
  6
Continuous
100
AcDbCircle
 10
557.5271916967172
 20
391.7308565635737
 30
0.0
 40
15.30000000000002
100
AcDbArc
 50
2.456123215394768
 51
2.626270946106049
  0
LINE
  5
26D
330
A
100
AcDbEntity
  8
0
  6
Continuous
100
AcDbLine
 10
571.7092163763624
 20
392.4896666633733
 30
0.0
 11
572.8111215741812
 21
392.4319182589752
 31
0.0
  0
LINE
  5
26E
330
A
100
AcDbEntity
  8
0
  6
Continuous
100
AcDbLine
 10
566.1384076288847
 20
393.8157930541127
 30
0.0
 11
570.468534647807
 21
396.3157930541127
 31
0.0
  0
LINE
  5
26F
330
A
100
AcDbEntity
  8
0
  6
Continuous
100
AcDbLine
 10
573.8112987423562
 20
394.2042869196109
 30
0.0
 11
574.3021690106732
 21
394.4876910011609
 31
0.0
  0
ARC
  5
270
330
A
100
AcDbEntity
  8
0
  6
Continuous
100
AcDbCircle
 10
557.5271916967172
 20
391.7308565635737
 30
0.0
 40
20.00000000000001
100
AcDbArc
 50
277.1807557814592
 51
287.4576031237227
  0
LINE
  5
271
330
A
100
AcDbEntity
  8
0
  6
Continuous
100
AcDbLine
 10
563.5271916967171
 20
375.824882842987
 30
0.0
 11
563.5271916967171
 21
372.652072535235
 31
0.0
  0
ARC
  5
272
330
A
100
AcDbEntity
  8
0
  6
Continuous
100
AcDbCircle
 10
557.5271916967172
 20
391.7308565635737
 30
0.0
 40
20.00000000000001
100
AcDbArc
 50
252.5423968762789
 51
262.8192442185426
  0
LINE
  5
273
330
A
100
AcDbEntity
  8
0
  6
Continuous
100
AcDbLine
 10
551.5271916967174
 20
372.652072535235
 30
0.0
 11
551.5271916967171
 21
375.824882842987
 31
0.0
  0
ARC
  5
274
330
A
100
AcDbEntity
  8
0
  6
Continuous
100
AcDbCircle
 10
557.5271916967172
 20
391.7308565635737
 30
0.0
 40
19.99999999999996
100
AcDbArc
 50
132.5423968762776
 51
142.8192442185413
  0
LINE
  5
275
330
A
100
AcDbEntity
  8
0
  6
Continuous
100
AcDbLine
 10
544.0044800548588
 20
406.4664010004499
 30
0.0
 11
546.7522143827611
 21
404.879995846574
 31
0.0
  0
ARC
  5
276
330
A
100
AcDbEntity
  8
0
  6
Continuous
100
AcDbCircle
 10
557.5271916967172
 20
391.7308565635737
 30
0.0
 40
19.99999999999999
100
AcDbArc
 50
157.1807557814574
 51
167.4576031237213
  0
LINE
  5
277
330
A
100
AcDbEntity
  8
0
  6
Continuous
100
AcDbLine
 10
540.7522143827613
 20
394.4876910011609
 30
0.0
 11
538.0044800548588
 21
396.0740961550369
 31
0.0
  0
CIRCLE
  5
278
330
A
100
AcDbEntity
  8
0
  6
Continuous
100
AcDbCircle
 10
568.3525092440227
 20
385.4808565635737
 30
0.0
 40
1.699999999999988
  0
ARC
  5
279
330
A
100
AcDbEntity
  8
0
  6
Continuous
100
AcDbCircle
 10
557.5271916967174
 20
391.7308565635737
 30
0.0
 40
15.29999999999998
100
AcDbArc
 50
317.7358913966912
 51
342.2641086033095
  0
CIRCLE
  5
27A
330
A
100
AcDbEntity
  8
0
  6
Continuous
100
AcDbCircle
 10
557.5271916967174
 20
404.2308565635738
 30
0.0
 40
1.69999999999993
  0
ARC
  5
27B
330
A
100
AcDbEntity
  8
0
  6
Continuous
100
AcDbCircle
 10
557.5271916967174
 20
391.7308565635737
 30
0.0
 40
15.30000000000001
100
AcDbArc
 50
77.73589139669116
 51
102.2641086033092
  0
CIRCLE
  5
27C
330
A
100
AcDbEntity
  8
0
  6
Continuous
100
AcDbCircle
 10
546.7018741494118
 20
385.4808565635737
 30
0.0
 40
1.69999999999993
  0
ARC
  5
27D
330
A
100
AcDbEntity
  8
0
  6
Continuous
100
AcDbCircle
 10
557.5271916967174
 20
391.7308565635737
 30
0.0
 40
15.30000000000003
100
AcDbArc
 50
197.7358913966913
 51
222.2641086033093
  0
LINE
  5
27E
330
A
100
AcDbEntity
  8
0
  6
Continuous
100
AcDbLine
 10
555.0271916967171
 20
374.2308565635738
 30
0.0
 11
555.0271916967171
 21
378.2308565635738
 31
0.0
  0
LINE
  5
27F
330
A
100
AcDbEntity
  8
0
  6
Continuous
100
AcDbLine
 10
560.0271916967171
 20
374.2308565635738
 30
0.0
 11
560.0271916967171
 21
378.2308565635738
 31
0.0
  0
LINE
  5
280
330
A
100
AcDbEntity
  8
0
  6
Continuous
100
AcDbLine
 10
555.0271916967171
 20
378.2308565635738
 30
0.0
 11
560.0271916967171
 21
378.2308565635738
 31
0.0
  0
ARC
  5
281
330
A
100
AcDbEntity
  8
DIM
  6
Continuous
100
AcDbCircle
 10
557.5271916967172
 20
376.2308565635738
 30
0.0
 40
1.5
100
AcDbArc
 50
90.0
 51
0.0
  0
LINE
  5
282
330
A
100
AcDbEntity
  8
0
  6
Continuous
100
AcDbLine
 10
555.0271916967171
 20
374.2308565635738
 30
0.0
 11
560.0271916967171
 21
374.2308565635738
 31
0.0
  0
LINE
  5
283
330
A
100
AcDbEntity
  8
0
  6
Continuous
100
AcDbLine
 10
555.0271916967171
 20
368.2308565635738
 30
0.0
 11
560.0271916967171
 21
368.2308565635738
 31
0.0
  0
LINE
  5
284
330
A
100
AcDbEntity
  8
0
  6
Continuous
100
AcDbLine
 10
555.0271916967171
 20
368.2308565635738
 30
0.0
 11
555.0271916967171
 21
372.2308565635738
 31
0.0
  0
ARC
  5
285
330
A
100
AcDbEntity
  8
DIM
  6
Continuous
100
AcDbCircle
 10
557.5271916967172
 20
370.2308565635738
 30
0.0
 40
1.5
100
AcDbArc
 50
90.0
 51
0.0
  0
LINE
  5
286
330
A
100
AcDbEntity
  8
0
  6
Continuous
100
AcDbLine
 10
555.0271916967171
 20
372.2308565635738
 30
0.0
 11
560.0271916967171
 21
372.2308565635738
 31
0.0
  0
LINE
  5
287
330
A
100
AcDbEntity
  8
0
  6
Continuous
100
AcDbLine
 10
560.0271916967171
 20
368.2308565635738
 30
0.0
 11
560.0271916967171
 21
372.2308565635738
 31
0.0
  0
LINE
  5
288
330
A
100
AcDbEntity
  8
0
  6
Continuous
100
AcDbLine
 10
555.0271916967171
 20
372.2308565635738
 30
0.0
 11
555.0271916967171
 21
374.2308565635738
 31
0.0
  0
LINE
  5
289
330
A
100
AcDbEntity
  8
0
  6
Continuous
100
AcDbLine
 10
560.0271916967171
 20
372.2308565635738
 30
0.0
 11
560.0271916967174
 21
374.2308565635738
 31
0.0
  0
LINE
  5
28A
330
A
100
AcDbEntity
  8
0
  6
Continuous
100
AcDbLine
 10
561.5271916967172
 20
368.2308565635738
 30
0.0
 11
561.5271916967174
 21
372.1349386213085
 31
0.0
  0
LINE
  5
28B
330
A
100
AcDbEntity
  8
0
  6
Continuous
100
AcDbLine
 10
560.0271916967174
 20
368.2308565635738
 30
0.0
 11
561.5271916967172
 21
368.2308565635738
 31
0.0
  0
LINE
  5
28C
330
A
100
AcDbEntity
  8
0
  6
Continuous
100
AcDbLine
 10
553.5271916967174
 20
368.2308565635738
 30
0.0
 11
553.5271916967174
 21
372.1349386213085
 31
0.0
  0
LINE
  5
28D
330
A
100
AcDbEntity
  8
0
  6
Continuous
100
AcDbLine
 10
553.5271916967174
 20
368.2308565635738
 30
0.0
 11
555.0271916967171
 21
368.2308565635738
 31
0.0
  0
LINE
  5
28E
330
A
100
AcDbEntity
  8
0
  6
Continuous
100
AcDbLine
 10
579.1287886856516
 20
401.3157930541124
 30
0.0
 11
576.6287886856516
 21
405.6459200730349
 31
0.0
  0
LINE
  5
28F
330
A
100
AcDbEntity
  8
0
  6
Continuous
100
AcDbLine
 10
579.1287886856516
 20
401.3157930541124
 30
0.0
 11
575.6646870705138
 21
399.3157930541126
 31
0.0
  0
LINE
  5
291
330
A
100
AcDbEntity
  8
0
  6
Continuous
100
AcDbLine
 10
575.6646870705138
 20
399.3157930541126
 30
0.0
 11
573.1646870705137
 21
403.6459200730346
 31
0.0
  0
LINE
  5
292
330
A
100
AcDbEntity
  8
0
  6
Continuous
100
AcDbLine
 10
576.6287886856516
 20
405.6459200730349
 30
0.0
 11
573.1646870705137
 21
403.6459200730346
 31
0.0
  0
LINE
  5
293
330
A
100
AcDbEntity
  8
0
  6
Continuous
100
AcDbLine
 10
573.9326362629449
 20
398.3157930541127
 30
0.0
 11
570.468534647807
 21
396.3157930541127
 31
0.0
  0
LINE
  5
294
330
A
100
AcDbEntity
  8
0
  6
Continuous
100
AcDbLine
 10
571.4326362629447
 20
402.6459200730347
 30
0.0
 11
567.968534647807
 21
400.6459200730349
 31
0.0
  0
LINE
  5
295
330
A
100
AcDbEntity
  8
0
  6
Continuous
100
AcDbLine
 10
570.468534647807
 20
396.3157930541127
 30
0.0
 11
567.968534647807
 21
400.6459200730349
 31
0.0
  0
LINE
  5
297
330
A
100
AcDbEntity
  8
0
  6
Continuous
100
AcDbLine
 10
573.9326362629449
 20
398.3157930541127
 30
0.0
 11
571.4326362629447
 21
402.6459200730347
 31
0.0
  0
LINE
  5
298
330
A
100
AcDbEntity
  8
0
  6
Continuous
100
AcDbLine
 10
575.6646870705138
 20
399.3157930541126
 30
0.0
 11
573.9326362629449
 21
398.3157930541127
 31
0.0
  0
LINE
  5
299
330
A
100
AcDbEntity
  8
0
  6
Continuous
100
AcDbLine
 10
573.1646870705137
 20
403.6459200730346
 30
0.0
 11
571.4326362629447
 21
402.6459200730347
 31
0.0
  0
LINE
  5
29A
330
A
100
AcDbEntity
  8
0
  6
Continuous
100
AcDbLine
 10
579.8787886856517
 20
400.0167549484358
 30
0.0
 11
576.4977544451943
 21
398.0647139195687
 31
0.0
  0
LINE
  5
29B
330
A
100
AcDbEntity
  8
0
  6
Continuous
100
AcDbLine
 10
579.8787886856517
 20
400.0167549484358
 30
0.0
 11
579.1287886856516
 21
401.3157930541126
 31
0.0
  0
LINE
  5
29C
330
A
100
AcDbEntity
  8
0
  6
Continuous
100
AcDbLine
 10
575.8787886856516
 20
406.9449581787115
 30
0.0
 11
572.4977544451943
 21
404.9929171498442
 31
0.0
  0
LINE
  5
29D
330
A
100
AcDbEntity
  8
0
  6
Continuous
100
AcDbLine
 10
576.6287886856516
 20
405.6459200730349
 30
0.0
 11
575.8787886856516
 21
406.9449581787115
 31
0.0
  0
LINE
  5
29E
330
A
100
AcDbEntity
  8
0
  6
Continuous
100
AcDbLine
 10
543.6217471304896
 20
402.6459200730348
 30
0.0
 11
547.0858487456273
 21
400.6459200730351
 31
0.0
  0
LINE
  5
29F
330
A
100
AcDbEntity
  8
0
  6
Continuous
100
AcDbLine
 10
541.1217471304897
 20
398.3157930541127
 30
0.0
 11
544.5858487456273
 21
396.3157930541127
 31
0.0
  0
LINE
  5
2A0
330
A
100
AcDbEntity
  8
0
  6
Continuous
100
AcDbLine
 10
547.0858487456273
 20
400.6459200730351
 30
0.0
 11
544.5858487456273
 21
396.3157930541127
 31
0.0
  0
LINE
  5
2A2
330
A
100
AcDbEntity
  8
0
  6
Continuous
100
AcDbLine
 10
543.6217471304896
 20
402.6459200730348
 30
0.0
 11
541.1217471304897
 21
398.3157930541127
 31
0.0
  0
LINE
  5
2A3
330
A
100
AcDbEntity
  8
0
  6
Continuous
100
AcDbLine
 10
538.4255947077831
 20
405.6459200730349
 30
0.0
 11
535.9255947077829
 21
401.3157930541129
 31
0.0
  0
LINE
  5
2A4
330
A
100
AcDbEntity
  8
0
  6
Continuous
100
AcDbLine
 10
538.4255947077831
 20
405.6459200730349
 30
0.0
 11
541.8896963229204
 21
403.6459200730351
 31
0.0
  0
LINE
  5
2A6
330
A
100
AcDbEntity
  8
0
  6
Continuous
100
AcDbLine
 10
541.8896963229204
 20
403.6459200730351
 30
0.0
 11
539.3896963229206
 21
399.3157930541128
 31
0.0
  0
LINE
  5
2A7
330
A
100
AcDbEntity
  8
0
  6
Continuous
100
AcDbLine
 10
535.9255947077829
 20
401.3157930541129
 30
0.0
 11
539.3896963229206
 21
399.3157930541128
 31
0.0
  0
LINE
  5
2A8
330
A
100
AcDbEntity
  8
0
  6
Continuous
100
AcDbLine
 10
541.8896963229204
 20
403.6459200730351
 30
0.0
 11
543.6217471304896
 21
402.6459200730348
 31
0.0
  0
LINE
  5
2A9
330
A
100
AcDbEntity
  8
0
  6
Continuous
100
AcDbLine
 10
539.3896963229206
 20
399.3157930541128
 30
0.0
 11
541.1217471304897
 21
398.3157930541127
 31
0.0
  0
LINE
  5
2AA
330
A
100
AcDbEntity
  8
0
  6
Continuous
100
AcDbLine
 10
539.1755947077832
 20
406.9449581787115
 30
0.0
 11
542.5566289482401
 21
404.9929171498442
 31
0.0
  0
LINE
  5
2AB
330
A
100
AcDbEntity
  8
0
  6
Continuous
100
AcDbLine
 10
539.1755947077832
 20
406.9449581787115
 30
0.0
 11
538.4255947077831
 21
405.6459200730349
 31
0.0
  0
LINE
  5
2AC
330
A
100
AcDbEntity
  8
0
  6
Continuous
100
AcDbLine
 10
535.1755947077829
 20
400.0167549484362
 30
0.0
 11
538.5566289482401
 21
398.0647139195689
 31
0.0
  0
LINE
  5
2AD
330
A
100
AcDbEntity
  8
0
  6
Continuous
100
AcDbLine
 10
535.9255947077829
 20
401.3157930541129
 30
0.0
 11
535.1755947077829
 21
400.0167549484362
 31
0.0
  0
LINE
  5
445
330
A
100
AcDbEntity
  8
0
  6
Continuous
100
AcDbLine
 10
641.8830404547301
 20
376.7308565635738
 30
0.0
 11
669.88304045473
 21
376.7308565635738
 31
0.0
  0
LINE
  5
446
330
A
100
AcDbEntity
  8
0
  6
Continuous
100
AcDbLine
 10
669.88304045473
 20
406.7308565635737
 30
0.0
 11
641.88304045473
 21
406.7308565635737
 31
0.0
  0
LINE
  5
447
330
A
100
AcDbEntity
  8
0
  6
Continuous
100
AcDbLine
 10
641.88304045473
 20
407.0308565635738
 30
0.0
 11
634.38304045473
 21
407.0308565635738
 31
0.0
  0
LINE
  5
448
330
A
100
AcDbEntity
  8
0
  6
Continuous
100
AcDbLine
 10
639.38304045473
 20
371.7308565635738
 30
0.0
 11
641.8830404547301
 21
371.7308565635738
 31
0.0
  0
LINE
  5
449
330
A
100
AcDbEntity
  8
0
  6
Continuous
100
AcDbLine
 10
631.1150912622987
 20
405.6459200730349
 30
0.0
 11
631.1150912622987
 21
406.4664010004499
 31
0.0
  0
LINE
  5
44A
330
A
100
AcDbEntity
  8
0
  6
Continuous
100
AcDbLine
 10
631.1150912622987
 20
406.4664010004499
 30
0.0
 11
632.3830404547302
 21
406.4664010004499
 31
0.0
  0
LINE
  5
44B
330
A
100
AcDbEntity
  8
0
  6
Continuous
100
AcDbLine
 10
636.3830404547301
 20
406.4664010004499
 30
0.0
 11
641.88304045473
 21
406.4664010004499
 31
0.0
  0
LINE
  5
44C
330
A
100
AcDbEntity
  8
0
  6
Continuous
100
AcDbLine
 10
641.8830404547299
 20
396.0740961550369
 30
0.0
 11
631.1150912622987
 21
396.0740961550369
 31
0.0
  0
LINE
  5
44D
330
A
100
AcDbEntity
  8
0
  6
Continuous
100
AcDbLine
 10
631.1150912622987
 20
396.0740961550369
 30
0.0
 11
631.1150912622987
 21
399.4873604706047
 31
0.0
  0
LINE
  5
44E
330
A
100
AcDbEntity
  8
0
  6
Continuous
100
AcDbLine
 10
631.1150912622987
 20
399.4873604706047
 30
0.0
 11
632.3830404547297
 21
399.4873604706047
 31
0.0
  0
LINE
  5
44F
330
A
100
AcDbEntity
  8
0
  6
Continuous
100
AcDbLine
 10
636.3830404547297
 20
398.0647139195686
 30
0.0
 11
632.3830404547297
 21
398.0647139195686
 31
0.0
  0
LINE
  5
450
330
A
100
AcDbEntity
  8
0
  6
Continuous
100
AcDbLine
 10
636.3830404547297
 20
399.4873604706047
 30
0.0
 11
639.3830404547299
 21
399.4873604706047
 31
0.0
  0
LINE
  5
451
330
A
100
AcDbEntity
  8
0
  6
Continuous
100
AcDbLine
 10
641.8830404547299
 20
396.0740961550369
 30
0.0
 11
641.88304045473
 21
406.4664010004499
 31
0.0
  0
LINE
  5
452
330
A
100
AcDbEntity
  8
0
  6
Continuous
100
AcDbLine
 10
641.88304045473
 20
394.2042869196109
 30
0.0
 11
629.3830404547299
 21
394.2042869196109
 31
0.0
  0
LINE
  5
453
330
A
100
AcDbEntity
  8
0
  6
Continuous
100
AcDbLine
 10
629.3830404547299
 20
394.2042869196109
 30
0.0
 11
629.3830404547299
 21
394.4876910011609
 31
0.0
  0
LINE
  5
454
330
A
100
AcDbEntity
  8
0
  6
Continuous
100
AcDbLine
 10
631.1150912622987
 20
396.0740961550369
 30
0.0
 11
629.3830404547299
 21
394.4876910011609
 31
0.0
  0
LINE
  5
455
330
A
100
AcDbEntity
  8
0
  6
Continuous
100
AcDbLine
 10
641.88304045473
 20
394.2042869196109
 30
0.0
 11
641.8830404547299
 21
396.0740961550369
 31
0.0
  0
LINE
  5
456
330
A
100
AcDbEntity
  8
0
  6
Continuous
100
AcDbLine
 10
629.3830404547299
 20
394.4876910011609
 30
0.0
 11
629.3830404547299
 21
397.9733789145128
 31
0.0
  0
LINE
  5
457
330
A
100
AcDbEntity
  8
0
  6
Continuous
100
AcDbLine
 10
629.3830404547299
 20
397.9733789145128
 30
0.0
 11
631.1150912622987
 21
399.4873604706047
 31
0.0
  0
LINE
  5
458
330
A
100
AcDbEntity
  8
0
  6
Continuous
100
AcDbLine
 10
641.88304045473
 20
392.3865274937219
 30
0.0
 11
629.3830404547299
 21
392.3865274937219
 31
0.0
  0
LINE
  5
459
330
A
100
AcDbEntity
  8
0
  6
Continuous
100
AcDbLine
 10
629.3830404547299
 20
392.3865274937219
 30
0.0
 11
629.3830404547299
 21
394.2042869196109
 31
0.0
  0
LINE
  5
45A
330
A
100
AcDbEntity
  8
0
  6
Continuous
100
AcDbLine
 10
641.88304045473
 20
392.3865274937219
 30
0.0
 11
641.88304045473
 21
394.2042869196109
 31
0.0
  0
LINE
  5
45B
330
A
100
AcDbEntity
  8
0
  6
Continuous
100
AcDbLine
 10
630.2192831205688
 20
405.6459200730349
 30
0.0
 11
631.1150912622987
 21
406.4664010004499
 31
0.0
  0
LINE
  5
45C
330
A
100
AcDbEntity
  8
0
  6
Continuous
100
AcDbLine
 10
669.8830404547297
 20
389.4518079768817
 30
0.0
 11
641.88304045473
 21
389.4518079768817
 31
0.0
  0
LINE
  5
45D
330
A
100
AcDbEntity
  8
0
  6
Continuous
100
AcDbLine
 10
641.88304045473
 20
389.4518079768817
 30
0.0
 11
641.88304045473
 21
389.4360296547116
 31
0.0
  0
LINE
  5
45E
330
A
100
AcDbEntity
  8
0
  6
Continuous
100
AcDbLine
 10
629.3830404547299
 20
389.4360296547116
 30
0.0
 11
641.88304045473
 21
389.4360296547116
 31
0.0
  0
LINE
  5
45F
330
A
100
AcDbEntity
  8
0
  6
Continuous
100
AcDbLine
 10
629.3830404547299
 20
389.4937780591097
 30
0.0
 11
669.8830404547297
 21
389.4937780591097
 31
0.0
  0
LINE
  5
460
330
A
100
AcDbEntity
  8
0
  6
Continuous
100
AcDbLine
 10
669.8830404547297
 20
389.4518079768817
 30
0.0
 11
669.8830404547297
 21
389.4937780591097
 31
0.0
  0
LINE
  5
461
330
A
100
AcDbEntity
  8
0
  6
Continuous
100
AcDbLine
 10
629.3830404547299
 20
389.4360296547116
 30
0.0
 11
629.3830404547299
 21
389.4937780591097
 31
0.0
  0
LINE
  5
462
330
A
100
AcDbEntity
  8
0
  6
Continuous
100
AcDbLine
 10
641.88304045473
 20
379.7779712773743
 30
0.0
 11
641.88304045473
 21
389.4360296547116
 31
0.0
  0
LINE
  5
463
330
A
100
AcDbEntity
  8
0
  6
Continuous
100
AcDbLine
 10
629.38304045473
 20
379.7779712773743
 30
0.0
 11
641.88304045473
 21
379.7779712773743
 31
0.0
  0
LINE
  5
464
330
A
100
AcDbEntity
  8
0
  6
Continuous
100
AcDbLine
 10
634.3830404547299
 20
381.4408559527635
 30
0.0
 11
629.3830404547299
 21
381.4408559527635
 31
0.0
  0
LINE
  5
465
330
A
100
AcDbEntity
  8
0
  6
Continuous
100
AcDbLine
 10
634.3830404547299
 20
381.4408559527635
 30
0.0
 11
634.3830404547299
 21
387.0700210773623
 31
0.0
  0
LINE
  5
466
330
A
100
AcDbEntity
  8
0
  6
Continuous
100
AcDbLine
 10
634.3830404547299
 20
387.0700210773623
 30
0.0
 11
629.3830404547299
 21
387.0700210773623
 31
0.0
  0
LINE
  5
467
330
A
100
AcDbEntity
  8
0
  6
Continuous
100
AcDbLine
 10
629.3830404547299
 20
387.0700210773623
 30
0.0
 11
629.3830404547299
 21
389.4360296547116
 31
0.0
  0
LINE
  5
468
330
A
100
AcDbEntity
  8
0
  6
Continuous
100
AcDbLine
 10
629.38304045473
 20
379.7779712773743
 30
0.0
 11
629.3830404547299
 21
381.4408559527635
 31
0.0
  0
LINE
  5
469
330
A
100
AcDbEntity
  8
0
  6
Continuous
100
AcDbLine
 10
669.88304045473
 20
378.3968978263997
 30
0.0
 11
641.88304045473
 21
378.3968978263997
 31
0.0
  0
LINE
  5
46A
330
A
100
AcDbEntity
  8
0
  6
Continuous
100
AcDbLine
 10
669.8830404547297
 20
392.4476965811454
 30
0.0
 11
669.88304045473
 21
406.7308565635737
 31
0.0
  0
LINE
  5
46B
330
A
100
AcDbEntity
  8
0
  6
Continuous
100
AcDbLine
 10
669.88304045473
 20
376.7308565635738
 30
0.0
 11
669.88304045473
 21
378.3968978263997
 31
0.0
  0
LWPOLYLINE
  5
46C
330
A
100
AcDbEntity
  8
0
  6
Continuous
100
AcDbPolyline
 90
       38
 70
   128
 43
0.0
 10
648.88304045473
 20
406.5675216094557
 10
648.3851018230717
 20
406.5612170378783
 10
647.9013380950958
 20
406.5418055943353
 10
647.4459680147453
 20
406.5079618965673
 10
647.0304932525731
 20
406.4578007637122
 10
646.662280461811
 20
406.3879574284031
 10
646.3560787144695
 20
406.2971363054356
 10
646.1195639991314
 20
406.1825044931254
 10
645.9617111598968
 20
406.0450829092732
 10
645.8890419626388
 20
405.8881845546778
 10
645.9000247385557
 20
405.7140352205104
 10
645.9935809810831
 20
405.5302074236172
 10
646.1652651475133
 20
405.3411359973384
 10
646.4128440871477
 20
405.1530819578704
 10
646.7275779392296
 20
404.9755335676897
 10
647.1088555021719
 20
404.8145021106497
 10
647.5406022961997
 20
404.68135417657
 10
648.0126632864251
 20
404.5839489938631
 10
648.510241780586
 20
404.5277961324995
 10
649.0102812630317
 20
404.5170655938536
 10
649.5066753121782
 20
404.5502431494331
 10
649.9805282076912
 20
404.6251641286302
 10
650.4240641169705
 20
404.7368275690936
 10
650.8299233868211
 20
404.8816167084805
 10
651.1819243218678
 20
405.0501591811391
 10
651.4737690410047
 20
405.2372226639731
 10
651.6921664466686
 20
405.4313240292848
 10
651.8289211761441
 20
405.6226837141267
 10
651.8824083369037
 20
405.8050649017555
 10
651.8509630507333
 20
405.9691335995526
 10
651.7384360577056
 20
406.1144163744885
 10
651.5476809351007
 20
406.2377950590921
 10
651.2850821230743
 20
406.3394044949562
 10
650.9511432695325
 20
406.4207096386996
 10
650.559488009082
 20
406.48192237261
 10
650.1150940041782
 20
406.5254119195244
 10
649.6347848854654
 20
406.5528401840608
 10
648.88304045473
 20
406.5675216094557
  0
LINE
  5
494
330
A
100
AcDbEntity
  8
0
  6
Continuous
100
AcDbLine
 10
641.88304045473
 20
392.4476965811454
 30
0.0
 11
669.8830404547297
 21
392.4476965811454
 31
0.0
  0
LINE
  5
495
330
A
100
AcDbEntity
  8
0
  6
Continuous
100
AcDbLine
 10
641.88304045473
 20
380.0308149314447
 30
0.0
 11
669.88304045473
 21
380.0308149314448
 31
0.0
  0
LINE
  5
496
330
A
100
AcDbEntity
  8
0
  6
Continuous
100
AcDbLine
 10
669.88304045473
 20
380.0308149314448
 30
0.0
 11
669.8830404547297
 21
389.4518079768817
 31
0.0
  0
LINE
  5
497
330
A
100
AcDbEntity
  8
0
  6
Continuous
100
AcDbLine
 10
669.88304045473
 20
389.4937780591097
 30
0.0
 11
669.88304045473
 21
392.4476965811454
 31
0.0
  0
LINE
  5
498
330
A
100
AcDbEntity
  8
0
  6
Continuous
100
AcDbLine
 10
629.3830404547299
 20
389.4937780591097
 30
0.0
 11
629.3830404547299
 21
392.3865274937219
 31
0.0
  0
LINE
  5
499
330
A
100
AcDbEntity
  8
0
  6
Continuous
100
AcDbLine
 10
634.3830404547299
 20
382.6662740012744
 30
0.0
 11
629.38304045473
 21
382.6662740012744
 31
0.0
  0
LINE
  5
49A
330
A
100
AcDbEntity
  8
0
  6
Continuous
100
AcDbLine
 10
629.38304045473
 20
387.0700210773623
 30
0.0
 11
629.38304045473
 21
382.6662740012744
 31
0.0
  0
LINE
  5
49B
330
A
100
AcDbEntity
  8
0
  6
Continuous
100
AcDbLine
 10
629.38304045473
 20
382.6662740012744
 30
0.0
 11
629.3830404547299
 21
381.4408559527635
 31
0.0
  0
LINE
  5
49C
330
A
100
AcDbEntity
  8
0
  6
Continuous
100
AcDbLine
 10
629.38304045473
 20
379.0694578640033
 30
0.0
 11
669.88304045473
 21
379.0694578640033
 31
0.0
  0
LINE
  5
49D
330
A
100
AcDbEntity
  8
0
  6
Continuous
100
AcDbLine
 10
669.88304045473
 20
379.0694578640033
 30
0.0
 11
669.88304045473
 21
380.0308149314448
 31
0.0
  0
LINE
  5
49E
330
A
100
AcDbEntity
  8
0
  6
Continuous
100
AcDbLine
 10
629.38304045473
 20
379.0694578640033
 30
0.0
 11
629.38304045473
 21
379.7779712773743
 31
0.0
  0
LINE
  5
49F
330
A
100
AcDbEntity
  8
0
  6
Continuous
100
AcDbLine
 10
632.3830404547302
 20
406.6816926605953
 30
0.0
 11
629.38304045473
 21
406.6816926605953
 31
0.0
  0
LINE
  5
4A0
330
A
100
AcDbEntity
  8
0
  6
Continuous
100
AcDbLine
 10
634.38304045473
 20
406.9449581787115
 30
0.0
 11
634.38304045473
 21
407.0308565635738
 31
0.0
  0
LINE
  5
4A1
330
A
100
AcDbEntity
  8
0
  6
Continuous
100
AcDbLine
 10
629.38304045473
 20
405.6459200730349
 30
0.0
 11
629.38304045473
 21
406.6816926605953
 31
0.0
  0
LINE
  5
4A2
330
A
100
AcDbEntity
  8
0
  6
Continuous
100
AcDbLine
 10
641.88304045473
 20
406.4664010004499
 30
0.0
 11
641.88304045473
 21
407.0308565635738
 31
0.0
  0
LWPOLYLINE
  5
4A3
330
A
100
AcDbEntity
  8
0
  6
Continuous
100
AcDbPolyline
 90
        9
 70
   128
 43
0.0
 10
648.88304045473
 20
406.0976752990626
 10
649.3523438498507
 20
406.0850427925201
 10
649.8100914378547
 20
406.0474563271278
 10
650.2450119539487
 20
405.9858414064067
 10
650.6463962116073
 20
405.9017151941928
 10
651.0043607982896
 20
405.7971491570296
 10
651.3100914378547
 20
405.6747180577871
 10
651.5560600272952
 20
405.5374365564539
 10
651.6978214410177
 20
405.4265599396428
  0
LWPOLYLINE
  5
4AE
330
A
100
AcDbEntity
  8
0
  6
Continuous
100
AcDbPolyline
 90
        9
 70
   128
 43
0.0
 10
646.0698072899134
 20
405.4279924994038
 10
646.2100208821647
 20
405.5374365564539
 10
646.4559894716052
 20
405.6747180577871
 10
646.7617201111702
 20
405.7971491570296
 10
647.1196846978528
 20
405.9017151941928
 10
647.5210689555114
 20
405.9858414064067
 10
647.9559894716052
 20
406.0474563271278
 10
648.4137370596092
 20
406.0850427925201
 10
648.88304045473
 20
406.0976752990626
  0
LWPOLYLINE
  5
4B9
330
A
100
AcDbEntity
  8
0
  6
Continuous
100
AcDbPolyline
 90
       29
 70
   128
 43
0.0
 10
648.88304045473
 20
405.5846450840741
 10
649.2168218556645
 20
405.5717823454706
 10
649.5338660634062
 20
405.5338391210836
 10
649.8182751575178
 20
405.472718042621
 10
650.0557876784321
 20
405.3914839761763
 10
650.2344937565834
 20
405.2942103370452
 10
650.3454323230028
 20
405.1857748316725
 10
650.38304045473
 20
405.0716148690857
 10
650.3454323230028
 20
404.9574549064987
 10
650.2344937565834
 20
404.8490194011261
 10
650.0557876784321
 20
404.7517457619949
 10
649.8182751575178
 20
404.6705116955504
 10
649.5338660634062
 20
404.6093906170876
 10
649.2168218556644
 20
404.5714473927008
 10
648.88304045473
 20
404.5585846540972
 10
648.5492590537956
 20
404.5714473927008
 10
648.2322148460538
 20
404.6093906170876
 10
647.9478057519419
 20
404.6705116955504
 10
647.7102932310279
 20
404.7517457619949
 10
647.5315871528762
 20
404.8490194011263
 10
647.4206485864572
 20
404.9574549064987
 10
647.38304045473
 20
405.0716148690857
 10
647.4206485864572
 20
405.1857748316725
 10
647.5315871528762
 20
405.2942103370452
 10
647.710293231028
 20
405.3914839761763
 10
647.9478057519419
 20
405.472718042621
 10
648.2322148460538
 20
405.5338391210836
 10
648.5492590537956
 20
405.5717823454706
 10
648.88304045473
 20
405.5846450840741
  0
LINE
  5
4D8
330
A
100
AcDbEntity
  8
0
  6
Continuous
100
AcDbLine
 10
641.88304045473
 20
376.3916910060867
 30
0.0
 11
629.38304045473
 21
376.3916910060867
 31
0.0
  0
LINE
  5
4D9
330
A
100
AcDbEntity
  8
0
  6
Continuous
100
AcDbLine
 10
641.88304045473
 20
378.1650049433685
 30
0.0
 11
629.38304045473
 21
378.1650049433683
 31
0.0
  0
LINE
  5
4DA
330
A
100
AcDbEntity
  8
0
  6
Continuous
100
AcDbLine
 10
629.38304045473
 20
376.3916910060867
 30
0.0
 11
629.38304045473
 21
378.1650049433683
 31
0.0
  0
LINE
  5
4DB
330
A
100
AcDbEntity
  8
0
  6
Continuous
100
AcDbLine
 10
641.88304045473
 20
376.3916910060867
 30
0.0
 11
641.88304045473
 21
378.1650049433685
 31
0.0
  0
LINE
  5
4DC
330
A
100
AcDbEntity
  8
0
  6
Continuous
100
AcDbLine
 10
669.88304045473
 20
379.0694578640033
 30
0.0
 11
669.88304045473
 21
378.3968978263997
 31
0.0
  0
LINE
  5
4DD
330
A
100
AcDbEntity
  8
0
  6
Continuous
100
AcDbLine
 10
629.38304045473
 20
378.1650049433683
 30
0.0
 11
629.38304045473
 21
379.0694578640033
 31
0.0
  0
LINE
  5
4DE
330
A
100
AcDbEntity
  8
0
  6
Continuous
100
AcDbLine
 10
641.88304045473
 20
378.3968978263997
 30
0.0
 11
641.88304045473
 21
378.1650049433685
 31
0.0
  0
LINE
  5
4DF
330
A
100
AcDbEntity
  8
0
  6
Continuous
100
AcDbLine
 10
641.88304045473
 20
372.652072535235
 30
0.0
 11
631.115091262299
 21
372.652072535235
 31
0.0
  0
LWPOLYLINE
  5
4E0
330
A
100
AcDbEntity
  8
0
  6
Continuous
100
AcDbPolyline
 90
        3
 70
   128
 43
0.0
 10
629.38304045473
 20
375.824882842987
 10
630.8171512588402
 20
373.1937474094183
 10
631.115091262299
 20
372.652072535235
  0
LINE
  5
4E5
330
A
100
AcDbEntity
  8
0
  6
Continuous
100
AcDbLine
 10
629.38304045473
 20
375.824882842987
 30
0.0
 11
629.38304045473
 21
376.3916910060867
 31
0.0
  0
LINE
  5
4E6
330
A
100
AcDbEntity
  8
0
  6
Continuous
100
AcDbLine
 10
641.88304045473
 20
372.652072535235
 30
0.0
 11
641.88304045473
 21
376.3916910060867
 31
0.0
  0
LINE
  5
4E7
330
A
100
AcDbEntity
  8
0
  6
Continuous
100
AcDbLine
 10
639.38304045473
 20
371.8877217305895
 30
0.0
 11
636.38304045473
 21
371.8877217305895
 31
0.0
  0
LINE
  5
4E8
330
A
100
AcDbEntity
  8
0
  6
Continuous
100
AcDbLine
 10
636.38304045473
 20
372.1349386213085
 30
0.0
 11
632.38304045473
 21
372.1349386213085
 31
0.0
  0
LINE
  5
4E9
330
A
100
AcDbEntity
  8
0
  6
Continuous
100
AcDbLine
 10
631.115091262299
 20
371.8877217305895
 30
0.0
 11
632.38304045473
 21
371.8877217305895
 31
0.0
  0
LINE
  5
4EA
330
A
100
AcDbEntity
  8
0
  6
Continuous
100
AcDbLine
 10
631.115091262299
 20
371.8877217305895
 30
0.0
 11
631.115091262299
 21
372.652072535235
 31
0.0
  0
LINE
  5
4EB
330
A
100
AcDbEntity
  8
0
  6
Continuous
100
AcDbLine
 10
641.88304045473
 20
371.7308565635738
 30
0.0
 11
641.88304045473
 21
372.652072535235
 31
0.0
  0
LWPOLYLINE
  5
4EC
330
A
100
AcDbEntity
  8
0
  6
Continuous
100
AcDbPolyline
 90
        4
 70
   128
 43
0.0
 10
629.38304045473
 20
374.9156848427736
 10
629.7326740188524
 20
374.3036778995273
 10
630.3491457319486
 20
373.2256206912452
 10
631.115091262299
 20
371.8877217305895
  0
LINE
  5
4F2
330
A
100
AcDbEntity
  8
0
  6
Continuous
100
AcDbLine
 10
629.38304045473
 20
374.9156848427736
 30
0.0
 11
629.38304045473
 21
375.824882842987
 31
0.0
  0
LINE
  5
4F3
330
A
100
AcDbEntity
  8
0
  6
Continuous
100
AcDbLine
 10
632.38304045473
 20
368.2308565635738
 30
0.0
 11
632.38304045473
 21
372.1349386213085
 31
0.0
  0
LINE
  5
4F4
330
A
100
AcDbEntity
  8
0
  6
Continuous
100
AcDbLine
 10
636.38304045473
 20
372.1349386213085
 30
0.0
 11
636.38304045473
 21
368.2308565635738
 31
0.0
  0
LINE
  5
4F5
330
A
100
AcDbEntity
  8
0
  6
Continuous
100
AcDbLine
 10
636.38304045473
 20
368.2308565635738
 30
0.0
 11
632.38304045473
 21
368.2308565635738
 31
0.0
  0
LINE
  5
4F6
330
A
100
AcDbEntity
  8
0
  6
Continuous
100
AcDbLine
 10
639.38304045473
 20
371.8877217305895
 30
0.0
 11
639.38304045473
 21
368.2308565635738
 31
0.0
  0
LINE
  5
4F7
330
A
100
AcDbEntity
  8
0
  6
Continuous
100
AcDbLine
 10
639.38304045473
 20
368.2308565635738
 30
0.0
 11
636.38304045473
 21
368.2308565635738
 31
0.0
  0
LINE
  5
4F8
330
A
100
AcDbEntity
  8
0
  6
Continuous
100
AcDbLine
 10
626.38304045473
 20
368.2308565635738
 30
0.0
 11
626.38304045473
 21
372.2308565635738
 31
0.0
  0
LINE
  5
4F9
330
A
100
AcDbEntity
  8
0
  6
Continuous
100
AcDbLine
 10
626.38304045473
 20
372.2308565635738
 30
0.0
 11
628.38304045473
 21
372.2308565635738
 31
0.0
  0
LINE
  5
4FA
330
A
100
AcDbEntity
  8
0
  6
Continuous
100
AcDbLine
 10
628.38304045473
 20
372.2308565635738
 30
0.0
 11
628.38304045473
 21
374.2308565635738
 31
0.0
  0
LINE
  5
4FB
330
A
100
AcDbEntity
  8
0
  6
Continuous
100
AcDbLine
 10
628.38304045473
 20
374.2308565635738
 30
0.0
 11
626.38304045473
 21
374.2308565635738
 31
0.0
  0
LINE
  5
4FC
330
A
100
AcDbEntity
  8
0
  6
Continuous
100
AcDbLine
 10
626.38304045473
 20
374.2308565635738
 30
0.0
 11
626.38304045473
 21
378.2308565635738
 31
0.0
  0
LINE
  5
4FD
330
A
100
AcDbEntity
  8
0
  6
Continuous
100
AcDbLine
 10
632.38304045473
 20
368.2308565635738
 30
0.0
 11
626.38304045473
 21
368.2308565635738
 31
0.0
  0
LINE
  5
4FE
330
A
100
AcDbEntity
  8
0
  6
Continuous
100
AcDbLine
 10
626.38304045473
 20
378.2308565635738
 30
0.0
 11
629.38304045473
 21
378.2308565635738
 31
0.0
  0
LINE
  5
4FF
330
A
100
AcDbEntity
  8
0
  6
Continuous
100
AcDbLine
 10
636.3830404547297
 20
400.0167549484358
 30
0.0
 11
632.3830404547297
 21
400.0167549484358
 31
0.0
  0
LINE
  5
500
330
A
100
AcDbEntity
  8
0
  6
Continuous
100
AcDbLine
 10
632.3830404547297
 20
400.0167549484358
 30
0.0
 11
632.3830404547297
 21
401.3157930541126
 31
0.0
  0
LINE
  5
501
330
A
100
AcDbEntity
  8
0
  6
Continuous
100
AcDbLine
 10
632.3830404547297
 20
401.3157930541126
 30
0.0
 11
626.3830404547299
 21
401.3157930541124
 31
0.0
  0
LINE
  5
502
330
A
100
AcDbEntity
  8
0
  6
Continuous
100
AcDbLine
 10
626.3830404547299
 20
401.3157930541124
 30
0.0
 11
626.3830404547299
 21
405.6459200730349
 31
0.0
  0
LINE
  5
503
330
A
100
AcDbEntity
  8
0
  6
Continuous
100
AcDbLine
 10
632.3830404547297
 20
405.6459200730349
 30
0.0
 11
626.3830404547299
 21
405.6459200730349
 31
0.0
  0
LINE
  5
504
330
A
100
AcDbEntity
  8
0
  6
Continuous
100
AcDbLine
 10
632.3830404547297
 20
405.6459200730349
 30
0.0
 11
632.3830404547297
 21
406.9449581787115
 31
0.0
  0
LINE
  5
505
330
A
100
AcDbEntity
  8
0
  6
Continuous
100
AcDbLine
 10
636.3830404547297
 20
406.9449581787115
 30
0.0
 11
632.3830404547297
 21
406.9449581787115
 31
0.0
  0
LINE
  5
506
330
A
100
AcDbEntity
  8
0
  6
Continuous
100
AcDbLine
 10
636.3830404547297
 20
405.6459200730349
 30
0.0
 11
636.3830404547297
 21
406.9449581787115
 31
0.0
  0
LINE
  5
507
330
A
100
AcDbEntity
  8
0
  6
Continuous
100
AcDbLine
 10
639.3830404547299
 20
405.6459200730349
 30
0.0
 11
636.3830404547297
 21
405.6459200730349
 31
0.0
  0
LINE
  5
508
330
A
100
AcDbEntity
  8
0
  6
Continuous
100
AcDbLine
 10
639.3830404547299
 20
401.3157930541124
 30
0.0
 11
639.3830404547299
 21
405.6459200730349
 31
0.0
  0
LINE
  5
509
330
A
100
AcDbEntity
  8
0
  6
Continuous
100
AcDbLine
 10
636.3830404547297
 20
401.3157930541126
 30
0.0
 11
639.3830404547299
 21
401.3157930541124
 31
0.0
  0
LINE
  5
50A
330
A
100
AcDbEntity
  8
0
  6
Continuous
100
AcDbLine
 10
636.3830404547297
 20
400.0167549484358
 30
0.0
 11
636.3830404547297
 21
401.3157930541126
 31
0.0
  0
LINE
  5
50B
330
A
100
AcDbEntity
  8
0
  6
Continuous
100
AcDbLine
 10
632.3830404547297
 20
400.0167549484358
 30
0.0
 11
632.3830404547297
 21
398.0647139195687
 31
0.0
  0
LINE
  5
50C
330
A
100
AcDbEntity
  8
0
  6
Continuous
100
AcDbLine
 10
636.3830404547297
 20
398.0647139195687
 30
0.0
 11
636.3830404547297
 21
400.0167549484358
 31
0.0
  0
LINE
  5
50D
330
A
100
AcDbEntity
  8
0
  6
Continuous
100
AcDbLine
 10
639.3830404547299
 20
399.4873604706047
 30
0.0
 11
639.3830404547299
 21
401.3157930541124
 31
0.0
  0
LINE
  5
50E
330
A
100
AcDbEntity
  8
0
  6
Continuous
100
AcDbLine
 10
626.3830404547299
 20
398.3157930541127
 30
0.0
 11
626.3830404547299
 21
396.3157930541127
 31
0.0
  0
LINE
  5
50F
330
A
100
AcDbEntity
  8
0
  6
Continuous
100
AcDbLine
 10
628.3830404547297
 20
398.3157930541127
 30
0.0
 11
626.3830404547299
 21
398.3157930541127
 31
0.0
  0
LINE
  5
510
330
A
100
AcDbEntity
  8
0
  6
Continuous
100
AcDbLine
 10
628.3830404547297
 20
399.3157930541126
 30
0.0
 11
628.3830404547297
 21
398.3157930541127
 31
0.0
  0
LINE
  5
511
330
A
100
AcDbEntity
  8
0
  6
Continuous
100
AcDbLine
 10
626.3830404547299
 20
399.3157930541126
 30
0.0
 11
628.3830404547297
 21
399.3157930541126
 31
0.0
  0
LINE
  5
512
330
A
100
AcDbEntity
  8
0
  6
Continuous
100
AcDbLine
 10
626.3830404547299
 20
401.3157930541124
 30
0.0
 11
626.3830404547299
 21
399.3157930541126
 31
0.0
  0
LINE
  5
513
330
A
100
AcDbEntity
  8
0
  6
Continuous
100
AcDbLine
 10
626.3830404547299
 20
396.3157930541127
 30
0.0
 11
629.3830404547301
 21
396.3157930541127
 31
0.0
  0
LINE
  5
514
330
A
100
AcDbEntity
  8
0
  6
Continuous
100
AcDbLine
 10
626.3830404547299
 20
398.3157930541127
 30
0.0
 11
626.38304045473
 21
399.3157930541128
 31
0.0
  0
CIRCLE
  5
515
330
A
100
AcDbEntity
  8
0
  6
Continuous
100
AcDbCircle
 10
735.7892960644862
 20
391.7308565635737
 30
0.0
 40
8.5
  0
CIRCLE
  5
516
330
A
100
AcDbEntity
  8
0
  6
Continuous
100
AcDbCircle
 10
735.7892960644862
 20
404.2308565635738
 30
0.0
 40
1.69999999999993
  0
ARC
  5
517
330
A
100
AcDbEntity
  8
DIM
  6
Continuous
100
AcDbCircle
 10
735.7892960644862
 20
379.2308565635738
 30
0.0
 40
1.5
100
AcDbArc
 50
90.0
 51
3.439812767514268
  0
CIRCLE
  5
518
330
A
100
AcDbEntity
  8
0
  6
Continuous
100
AcDbCircle
 10
724.9639785171809
 20
385.4808565635737
 30
0.0
 40
1.700000000000071
  0
CIRCLE
  5
519
330
A
100
AcDbEntity
  8
0
  6
Continuous
100
AcDbCircle
 10
746.6146136117917
 20
385.4808565635737
 30
0.0
 40
1.699999999999973
  0
ARC
  5
51A
330
A
100
AcDbEntity
  8
DIM
  6
Continuous
100
AcDbCircle
 10
746.6146136117917
 20
397.9808565635737
 30
0.0
 40
1.499999999999974
100
AcDbArc
 50
90.0
 51
0.0
  0
ARC
  5
51B
330
A
100
AcDbEntity
  8
DIM
  6
Continuous
100
AcDbCircle
 10
724.9639785171807
 20
397.9808565635737
 30
0.0
 40
1.499999999999965
100
AcDbArc
 50
90.0
 51
0.0
  0
CIRCLE
  5
51C
330
A
100
AcDbEntity
  8
0
  6
Continuous
100
AcDbCircle
 10
731.0057531599226
 20
403.279350719965
 30
0.0
 40
1.0
  0
ARC
  5
51D
330
A
100
AcDbEntity
  8
0
  6
Continuous
100
AcDbCircle
 10
740.7641806852326
 20
379.7204226409272
 30
0.0
 40
0.9999999999999587
100
AcDbArc
 50
202.5000000000004
 51
22.49999999999975
  0
LINE
  5
51E
330
A
100
AcDbEntity
  8
0
  6
Continuous
100
AcDbLine
 10
741.6880602177436
 20
380.1031060732922
 30
0.0
 11
741.3053767853787
 21
381.0269856058035
 31
0.0
  0
ARC
  5
51F
330
A
100
AcDbEntity
  8
0
  6
Continuous
100
AcDbCircle
 10
740.3814972528672
 20
380.6443021734383
 30
0.0
 40
1.000000000000063
100
AcDbArc
 50
22.49999999999724
 51
202.5000000000151
  0
LINE
  5
520
330
A
100
AcDbEntity
  8
0
  6
Continuous
100
AcDbLine
 10
739.457617720356
 20
380.2616187410734
 30
0.0
 11
739.8403011527213
 21
379.337739208562
 31
0.0
  0
LINE
  5
521
330
A
100
AcDbEntity
  8
0
  6
Continuous
100
AcDbLine
 10
729.3554325477382
 20
379.0694578640033
 30
0.0
 11
728.918666952437
 21
378.3968978263997
 31
0.0
  0
ARC
  5
522
330
A
100
AcDbEntity
  8
0
  6
Continuous
100
AcDbCircle
 10
728.817916416294
 20
380.9958732938723
 30
0.0
 40
2.00000000000003
100
AcDbArc
 50
285.5903778907292
 51
188.4096221092713
  0
LINE
  5
523
330
A
100
AcDbEntity
  8
0
  6
Continuous
100
AcDbLine
 10
726.8394208439018
 20
380.7033749690484
 30
0.0
 11
726.4026552486009
 21
380.0308149314448
 31
0.0
  0
ARC
  5
524
330
A
100
AcDbEntity
  8
0
  6
Continuous
100
AcDbCircle
 10
735.7892960644862
 20
391.7308565635737
 30
0.0
 40
15.00000000000005
100
AcDbArc
 50
188.7391704772673
 51
231.2608295227339
  0
LINE
  5
525
330
A
100
AcDbEntity
  8
0
  6
Continuous
100
AcDbLine
 10
720.9634423777843
 20
389.4518079768817
 30
0.0
 11
721.7642792535698
 21
389.4937780591097
 31
0.0
  0
ARC
  5
526
330
A
100
AcDbEntity
  8
0
  6
Continuous
100
AcDbCircle
 10
723.0068380196277
 20
391.0609563236643
 30
0.0
 40
2.000000000000041
100
AcDbArc
 50
231.5903778907296
 51
134.4096221092689
  0
LINE
  5
527
330
A
100
AcDbEntity
  8
0
  6
Continuous
100
AcDbLine
 10
721.6072713848411
 20
392.4896666633733
 30
0.0
 11
720.8064345090556
 21
392.4476965811454
 31
0.0
  0
ARC
  5
528
330
A
100
AcDbEntity
  8
0
  6
Continuous
100
AcDbCircle
 10
735.7892960644862
 20
391.7308565635737
 30
0.0
 40
15.00000000000007
100
AcDbArc
 50
242.7391704772674
 51
177.2608295227277
  0
ARC
  5
529
330
A
100
AcDbEntity
  8
0
  6
Continuous
100
AcDbCircle
 10
718.5051890188475
 20
392.472236112042
 30
0.0
 40
1.999999999999965
100
AcDbArc
 50
357.5438767845864
 51
59.99999999999944
  0
LINE
  5
52A
330
A
100
AcDbEntity
  8
0
  6
Continuous
100
AcDbLine
 10
719.5051890188475
 20
394.2042869196109
 30
0.0
 11
716.2665844226282
 21
396.0740961550369
 31
0.0
  0
ARC
  5
52B
330
A
100
AcDbEntity
  8
0
  6
Continuous
100
AcDbCircle
 10
735.7892960644867
 20
391.7308565635737
 30
0.0
 40
20.00000000000001
100
AcDbArc
 50
132.5423968762775
 51
167.4576031237208
  0
LINE
  5
52C
330
A
100
AcDbEntity
  8
0
  6
Continuous
100
AcDbLine
 10
722.2665844226281
 20
406.4664010004499
 30
0.0
 11
725.5051890188476
 21
404.596591765024
 31
0.0
  0
ARC
  5
52D
330
A
100
AcDbEntity
  8
0
  6
Continuous
100
AcDbCircle
 10
726.5051890188476
 20
406.328642572593
 30
0.0
 40
2.000000000000024
100
AcDbArc
 50
240.0000000000011
 51
302.4561232153965
  0
ARC
  5
52E
330
A
100
AcDbEntity
  8
0
  6
Continuous
100
AcDbCircle
 10
735.7892960644867
 20
391.7308565635737
 30
0.0
 40
15.30000000000005
100
AcDbArc
 50
57.54387678460566
 51
122.4561232153937
  0
ARC
  5
52F
330
A
100
AcDbEntity
  8
0
  6
Continuous
100
AcDbCircle
 10
745.0734031101254
 20
406.328642572593
 30
0.0
 40
1.999999999999965
100
AcDbArc
 50
237.5438767846078
 51
300.0000000000013
  0
LINE
  5
530
330
A
100
AcDbEntity
  8
0
  6
Continuous
100
AcDbLine
 10
746.0734031101257
 20
404.596591765024
 30
0.0
 11
749.312007706345
 21
406.4664010004499
 31
0.0
  0
ARC
  5
531
330
A
100
AcDbEntity
  8
0
  6
Continuous
100
AcDbCircle
 10
753.0734031101257
 20
392.472236112042
 30
0.0
 40
2.000000000000051
100
AcDbArc
 50
119.9999999999991
 51
182.456123215396
  0
ARC
  5
532
330
A
100
AcDbEntity
  8
0
  6
Continuous
100
AcDbCircle
 10
735.7892960644867
 20
391.7308565635737
 30
0.0
 40
15.30000000000002
100
AcDbArc
 50
297.5438767846061
 51
2.456123215398477
  0
ARC
  5
533
330
A
100
AcDbEntity
  8
0
  6
Continuous
100
AcDbCircle
 10
743.7892960644867
 20
376.3916910060867
 30
0.0
 40
2.0
100
AcDbArc
 50
117.5438767846054
 51
180.0000000000004
  0
LINE
  5
534
330
A
100
AcDbEntity
  8
0
  6
Continuous
100
AcDbLine
 10
741.7892960644865
 20
376.3916910060867
 30
0.0
 11
741.7892960644865
 21
372.652072535235
 31
0.0
  0
ARC
  5
535
330
A
100
AcDbEntity
  8
0
  6
Continuous
100
AcDbCircle
 10
735.7892960644867
 20
391.7308565635737
 30
0.0
 40
19.99999999999996
100
AcDbArc
 50
252.5423968762786
 51
287.4576031237229
  0
LINE
  5
536
330
A
100
AcDbEntity
  8
0
  6
Continuous
100
AcDbLine
 10
729.7892960644867
 20
372.652072535235
 30
0.0
 11
729.7892960644867
 21
376.3916910060867
 31
0.0
  0
ARC
  5
537
330
A
100
AcDbEntity
  8
0
  6
Continuous
100
AcDbCircle
 10
727.7892960644867
 20
376.3916910060867
 30
0.0
 40
2.00000000000003
100
AcDbArc
 50
0.0
 51
62.45612321539496
  0
ARC
  5
538
330
A
100
AcDbEntity
  8
0
  6
Continuous
100
AcDbCircle
 10
735.7892960644867
 20
391.7308565635737
 30
0.0
 40
15.29999999999997
100
AcDbArc
 50
242.4561232153953
 51
242.6262709461066
  0
ARC
  5
539
330
A
100
AcDbEntity
  8
0
  6
Continuous
100
AcDbCircle
 10
735.7892960644867
 20
391.7308565635737
 30
0.0
 40
15.29999999999998
100
AcDbArc
 50
177.3737290538891
 51
177.5438767846049
  0
LINE
  5
53A
330
A
100
AcDbEntity
  8
0
  6
Continuous
100
AcDbLine
 10
755.3120077063447
 20
396.0740961550369
 30
0.0
 11
752.0734031101255
 21
394.2042869196109
 31
0.0
  0
ARC
  5
53B
330
A
100
AcDbEntity
  8
0
  6
Continuous
100
AcDbCircle
 10
735.7892960644867
 20
391.7308565635737
 30
0.0
 40
20.00000000000001
100
AcDbArc
 50
12.5423968762792
 51
47.45760312372246
  0
LINE
  5
53C
330
A
100
AcDbEntity
  8
0
  6
Continuous
100
AcDbLine
 10
720.5053661870225
 20
392.4319182589752
 30
0.0
 11
720.8064345090557
 21
392.4476965811454
 31
0.0
  0
LINE
  5
53D
330
A
100
AcDbEntity
  8
0
  6
Continuous
100
AcDbLine
 10
728.9186669524373
 20
378.3968978263997
 30
0.0
 11
728.754468363592
 21
378.1440541723293
 31
0.0
  0
ARC
  5
53E
330
A
100
AcDbEntity
  8
0
  6
Continuous
100
AcDbCircle
 10
735.7892960644867
 20
391.7308565635737
 30
0.0
 40
15.30000000000002
100
AcDbArc
 50
188.626270946108
 51
231.3737290538951
  0
LINE
  5
53F
330
A
100
AcDbEntity
  8
0
  6
Continuous
100
AcDbLine
 10
720.9634423777844
 20
389.4518079768817
 30
0.0
 11
720.6623740557512
 21
389.4360296547116
 31
0.0
  0
LINE
  5
540
330
A
100
AcDbEntity
  8
0
  6
Continuous
100
AcDbLine
 10
726.2384566597559
 20
379.7779712773743
 30
0.0
 11
726.402655248601
 21
380.0308149314447
 31
0.0
  0
LINE
  5
541
330
A
100
AcDbEntity
  8
0
  6
Continuous
100
AcDbLine
 10
733.2892960644867
 20
371.8877217305893
 30
0.0
 11
733.2892960644867
 21
368.2308565635738
 31
0.0
  0
LINE
  5
542
330
A
100
AcDbEntity
  8
0
  6
Continuous
100
AcDbLine
 10
738.2892960644867
 20
371.8877217305893
 30
0.0
 11
738.2892960644867
 21
368.2308565635738
 31
0.0
  0
LINE
  5
543
330
A
100
AcDbEntity
  8
0
  6
Continuous
100
AcDbLine
 10
738.2892960644867
 20
368.2308565635738
 30
0.0
 11
733.2892960644867
 21
368.2308565635738
 31
0.0
  0
LINE
  5
544
330
A
100
AcDbEntity
  8
0
  6
Continuous
100
AcDbLine
 10
739.7892960644867
 20
372.1349386213083
 30
0.0
 11
739.7892960644867
 21
368.2308565635738
 31
0.0
  0
LINE
  5
545
330
A
100
AcDbEntity
  8
0
  6
Continuous
100
AcDbLine
 10
739.7892960644867
 20
368.2308565635738
 30
0.0
 11
738.2892960644867
 21
368.2308565635738
 31
0.0
  0
LINE
  5
546
330
A
100
AcDbEntity
  8
0
  6
Continuous
100
AcDbLine
 10
731.7892960644867
 20
372.1349386213085
 30
0.0
 11
731.7892960644867
 21
368.2308565635738
 31
0.0
  0
LINE
  5
547
330
A
100
AcDbEntity
  8
0
  6
Continuous
100
AcDbLine
 10
733.2892960644867
 20
368.2308565635738
 30
0.0
 11
731.7892960644867
 21
368.2308565635738
 31
0.0
  0
LINE
  5
548
330
A
100
AcDbEntity
  8
0
  6
Continuous
100
AcDbLine
 10
719.8546372084022
 20
403.8174874895268
 30
0.0
 11
716.6876990755522
 21
405.6459200730349
 31
0.0
  0
LINE
  5
549
330
A
100
AcDbEntity
  8
0
  6
Continuous
100
AcDbLine
 10
717.3546372084022
 20
399.4873604706047
 30
0.0
 11
714.1876990755522
 21
401.3157930541124
 31
0.0
  0
LINE
  5
54A
330
A
100
AcDbEntity
  8
0
  6
Continuous
100
AcDbLine
 10
714.1876990755522
 20
401.3157930541124
 30
0.0
 11
716.6876990755522
 21
405.6459200730349
 31
0.0
  0
LINE
  5
54B
330
A
100
AcDbEntity
  8
0
  6
Continuous
100
AcDbLine
 10
720.8187333160092
 20
404.992917149844
 30
0.0
 11
717.4376990755522
 21
406.9449581787115
 31
0.0
  0
LINE
  5
54C
330
A
100
AcDbEntity
  8
0
  6
Continuous
100
AcDbLine
 10
716.6876990755522
 20
405.6459200730349
 30
0.0
 11
717.4376990755522
 21
406.9449581787115
 31
0.0
  0
LINE
  5
54D
330
A
100
AcDbEntity
  8
0
  6
Continuous
100
AcDbLine
 10
716.8187333160097
 20
398.0647139195686
 30
0.0
 11
713.4376990755522
 21
400.0167549484358
 31
0.0
  0
LINE
  5
54E
330
A
100
AcDbEntity
  8
0
  6
Continuous
100
AcDbLine
 10
713.4376990755522
 20
400.0167549484358
 30
0.0
 11
714.1876990755522
 21
401.3157930541126
 31
0.0
  0
LINE
  5
54F
330
A
100
AcDbEntity
  8
0
  6
Continuous
100
AcDbLine
 10
754.2239549205711
 20
399.4873604706051
 30
0.0
 11
757.3908930534209
 21
401.3157930541129
 31
0.0
  0
LINE
  5
550
330
A
100
AcDbEntity
  8
0
  6
Continuous
100
AcDbLine
 10
751.723954920571
 20
403.8174874895274
 30
0.0
 11
754.8908930534207
 21
405.6459200730349
 31
0.0
  0
LINE
  5
551
330
A
100
AcDbEntity
  8
0
  6
Continuous
100
AcDbLine
 10
754.8908930534207
 20
405.6459200730349
 30
0.0
 11
757.3908930534209
 21
401.3157930541129
 31
0.0
  0
LINE
  5
552
330
A
100
AcDbEntity
  8
0
  6
Continuous
100
AcDbLine
 10
754.7598588129637
 20
398.0647139195689
 30
0.0
 11
758.1408930534207
 21
400.0167549484362
 31
0.0
  0
LINE
  5
553
330
A
100
AcDbEntity
  8
0
  6
Continuous
100
AcDbLine
 10
757.3908930534209
 20
401.3157930541129
 30
0.0
 11
758.1408930534207
 21
400.0167549484362
 31
0.0
  0
LINE
  5
554
330
A
100
AcDbEntity
  8
0
  6
Continuous
100
AcDbLine
 10
750.7598588129637
 20
404.9929171498442
 30
0.0
 11
754.1408930534209
 21
406.9449581787115
 31
0.0
  0
LINE
  5
555
330
A
100
AcDbEntity
  8
0
  6
Continuous
100
AcDbLine
 10
754.1408930534209
 20
406.9449581787115
 30
0.0
 11
754.8908930534207
 21
405.6459200730349
 31
0.0
  0
LINE
  5
A08
330
A
100
AcDbEntity
  8
CENTER
  6
Continuous
100
AcDbLine
 10
556.5271916967174
 20
404.2308565635738
 30
0.0
 11
558.5271916967172
 21
404.2308565635738
 31
0.0
  0
LINE
  5
A09
330
A
100
AcDbEntity
  8
CENTER
  6
Continuous
100
AcDbLine
 10
557.5271916967174
 20
403.2308565635736
 30
0.0
 11
557.5271916967174
 21
405.2308565635738
 31
0.0
  0
LINE
  5
A0A
330
A
100
AcDbEntity
  8
CENTER
  6
Continuous
100
AcDbLine
 10
545.7018741494119
 20
385.4808565635737
 30
0.0
 11
547.7018741494118
 21
385.4808565635737
 31
0.0
  0
LINE
  5
A0B
330
A
100
AcDbEntity
  8
CENTER
  6
Continuous
100
AcDbLine
 10
546.7018741494118
 20
384.4808565635738
 30
0.0
 11
546.7018741494118
 21
386.4808565635738
 31
0.0
  0
LINE
  5
A0C
330
A
100
AcDbEntity
  8
CENTER
  6
Continuous
100
AcDbLine
 10
567.3525092440227
 20
385.4808565635737
 30
0.0
 11
569.3525092440227
 21
385.4808565635737
 31
0.0
  0
LINE
  5
A0D
330
A
100
AcDbEntity
  8
CENTER
  6
Continuous
100
AcDbLine
 10
568.3525092440227
 20
384.4808565635736
 30
0.0
 11
568.3525092440227
 21
386.4808565635737
 31
0.0
  0
LINE
  5
A12
330
A
100
AcDbEntity
  8
CENTER
  6
Continuous
100
AcDbLine
 10
556.5271916967171
 20
376.2308565635738
 30
0.0
 11
558.5271916967172
 21
376.2308565635738
 31
0.0
  0
LINE
  5
A13
330
A
100
AcDbEntity
  8
CENTER
  6
Continuous
100
AcDbLine
 10
557.5271916967172
 20
375.2308565635738
 30
0.0
 11
557.5271916967172
 21
377.2308565635738
 31
0.0
  0
LINE
  5
A14
330
A
100
AcDbEntity
  8
CENTER
  6
Continuous
100
AcDbLine
 10
556.5271916967171
 20
370.2308565635738
 30
0.0
 11
558.5271916967172
 21
370.2308565635738
 31
0.0
  0
LINE
  5
A15
330
A
100
AcDbEntity
  8
CENTER
  6
Continuous
100
AcDbLine
 10
557.5271916967172
 20
369.2308565635737
 30
0.0
 11
557.5271916967172
 21
371.2308565635737
 31
0.0
  0
CIRCLE
  5
A17
330
A
100
AcDbEntity
  8
0
  6
Continuous
100
AcDbCircle
 10
557.5271916967172
 20
376.2308565635738
 30
0.0
 40
1.25
  0
CIRCLE
  5
A18
330
A
100
AcDbEntity
  8
0
  6
Continuous
100
AcDbCircle
 10
557.5271916967172
 20
370.2308565635738
 30
0.0
 40
1.25
  0
ARC
  5
A19
330
A
100
AcDbEntity
  8
DIM
  6
Continuous
100
AcDbCircle
 10
576.1467378780829
 20
402.4808565635735
 30
0.0
 40
1.5
100
AcDbArc
 50
209.9999999999999
 51
119.9999999999999
  0
CIRCLE
  5
A1A
330
A
100
AcDbEntity
  8
0
  6
Continuous
100
AcDbCircle
 10
576.1467378780829
 20
402.4808565635735
 30
0.0
 40
1.25
  0
LINE
  5
A1B
330
A
100
AcDbEntity
  8
CENTER
  6
Continuous
100
AcDbLine
 10
577.0127632818672
 20
402.9808565635733
 30
0.0
 11
575.2807124742984
 21
401.9808565635733
 31
0.0
  0
LINE
  5
A1C
330
A
100
AcDbEntity
  8
CENTER
  6
Continuous
100
AcDbLine
 10
576.6467378780827
 20
401.6148311597889
 30
0.0
 11
575.6467378780826
 21
403.3468819673577
 31
0.0
  0
ARC
  5
A1D
330
A
100
AcDbEntity
  8
DIM
  6
Continuous
100
AcDbCircle
 10
570.9505854553762
 20
399.4808565635736
 30
0.0
 40
1.5
100
AcDbArc
 50
209.9999999999999
 51
119.9999999999999
  0
CIRCLE
  5
A1E
330
A
100
AcDbEntity
  8
0
  6
Continuous
100
AcDbCircle
 10
570.9505854553762
 20
399.4808565635736
 30
0.0
 40
1.25
  0
LINE
  5
A1F
330
A
100
AcDbEntity
  8
CENTER
  6
Continuous
100
AcDbLine
 10
571.4505854553761
 20
398.614831159789
 30
0.0
 11
570.4505854553763
 21
400.3468819673577
 31
0.0
  0
LINE
  5
A20
330
A
100
AcDbEntity
  8
CENTER
  6
Continuous
100
AcDbLine
 10
571.8166108591606
 20
399.9808565635735
 30
0.0
 11
570.0845600515917
 21
398.9808565635734
 31
0.0
  0
ARC
  5
A21
330
A
100
AcDbEntity
  8
DIM
  6
Continuous
100
AcDbCircle
 10
538.9076455153521
 20
402.4808565635738
 30
0.0
 40
1.5
100
AcDbArc
 50
330.0
 51
239.9999999999999
  0
CIRCLE
  5
A22
330
A
100
AcDbEntity
  8
0
  6
Continuous
100
AcDbCircle
 10
538.9076455153521
 20
402.4808565635738
 30
0.0
 40
1.25
  0
LINE
  5
A23
330
A
100
AcDbEntity
  8
CENTER
  6
Continuous
100
AcDbLine
 10
538.0416201115677
 20
402.980856563574
 30
0.0
 11
539.7736709191365
 21
401.980856563574
 31
0.0
  0
LINE
  5
A24
330
A
100
AcDbEntity
  8
CENTER
  6
Continuous
100
AcDbLine
 10
539.4076455153522
 20
403.3468819673584
 30
0.0
 11
538.4076455153522
 21
401.6148311597895
 31
0.0
  0
ARC
  5
A25
330
A
100
AcDbEntity
  8
DIM
  6
Continuous
100
AcDbCircle
 10
544.1037979380587
 20
399.4808565635738
 30
0.0
 40
1.5
100
AcDbArc
 50
330.0
 51
239.9999999999999
  0
CIRCLE
  5
A26
330
A
100
AcDbEntity
  8
0
  6
Continuous
100
AcDbCircle
 10
544.1037979380587
 20
399.4808565635738
 30
0.0
 40
1.25
  0
LINE
  5
A27
330
A
100
AcDbEntity
  8
CENTER
  6
Continuous
100
AcDbLine
 10
544.6037979380587
 20
400.3468819673583
 30
0.0
 11
543.6037979380587
 21
398.6148311597895
 31
0.0
  0
LINE
  5
A28
330
A
100
AcDbEntity
  8
CENTER
  6
Continuous
100
AcDbLine
 10
543.2377725342742
 20
399.9808565635738
 30
0.0
 11
544.9698233418431
 21
398.980856563574
 31
0.0
  0
LINE
  5
A29
330
A
100
AcDbEntity
  8
CENTER
  6
CENTER
100
AcDbLine
 10
532.3108789350246
 20
391.7308565635737
 30
0.0
 11
582.7435044584102
 21
391.7308565635737
 31
0.0
  0
LINE
  5
A2A
330
A
100
AcDbEntity
  8
CENTER
  6
CENTER
100
AcDbLine
 10
557.5271916967174
 20
366.5145438018809
 30
0.0
 11
557.5271916967174
 21
416.9471693252666
 31
0.0
  0
LINE
  5
A2B
330
A
100
AcDbEntity
  8
CENTER
  6
CENTER
100
AcDbLine
 10
618.4124422474504
 20
391.7308565635738
 30
0.0
 11
684.9594824901169
 21
391.7308565635737
 31
0.0
  0
LINE
  5
A2C
330
A
100
AcDbEntity
  8
CENTER
  6
CENTER
100
AcDbLine
 10
710.5729833027934
 20
391.7308565635737
 30
0.0
 11
761.0056088261792
 21
391.7308565635737
 31
0.0
  0
LINE
  5
A2D
330
A
100
AcDbEntity
  8
CENTER
  6
CENTER
100
AcDbLine
 10
735.7892960644862
 20
366.5145438018809
 30
0.0
 11
735.7892960644862
 21
408.4185971103662
 31
0.0
  0
CIRCLE
  5
A2E
330
A
100
AcDbEntity
  8
CENTER
  6
CENTER
100
AcDbCircle
 10
735.7892960644862
 20
391.7308565635737
 30
0.0
 40
12.5
  0
CIRCLE
  5
A2F
330
A
100
AcDbEntity
  8
CENTER
  6
CENTER
100
AcDbCircle
 10
557.5271916967174
 20
391.7308565635737
 30
0.0
 40
12.5
  0
CIRCLE
  5
A32
330
A
100
AcDbEntity
  8
0
  6
Continuous
100
AcDbCircle
 10
735.7892960644862
 20
379.2308565635738
 30
0.0
 40
1.25
  0
CIRCLE
  5
A33
330
A
100
AcDbEntity
  8
0
  6
Continuous
100
AcDbCircle
 10
746.6146136117917
 20
397.9808565635737
 30
0.0
 40
1.25
  0
CIRCLE
  5
A34
330
A
100
AcDbEntity
  8
0
  6
Continuous
100
AcDbCircle
 10
724.9639785171807
 20
397.9808565635737
 30
0.0
 40
1.25
  0
LINE
  5
A35
330
A
100
AcDbEntity
  8
CENTER
  6
Continuous
100
AcDbLine
 10
723.9639785171807
 20
397.9808565635737
 30
0.0
 11
725.9639785171807
 21
397.9808565635737
 31
0.0
  0
LINE
  5
A36
330
A
100
AcDbEntity
  8
CENTER
  6
Continuous
100
AcDbLine
 10
724.9639785171807
 20
396.9808565635736
 30
0.0
 11
724.9639785171807
 21
398.9808565635737
 31
0.0
  0
LINE
  5
A37
330
A
100
AcDbEntity
  8
CENTER
  6
Continuous
100
AcDbLine
 10
745.6146136117917
 20
397.9808565635737
 30
0.0
 11
747.6146136117916
 21
397.9808565635737
 31
0.0
  0
LINE
  5
A38
330
A
100
AcDbEntity
  8
CENTER
  6
Continuous
100
AcDbLine
 10
746.6146136117917
 20
396.9808565635738
 30
0.0
 11
746.6146136117917
 21
398.9808565635738
 31
0.0
  0
LINE
  5
A3B
330
A
100
AcDbEntity
  8
CENTER
  6
Continuous
100
AcDbLine
 10
734.7892960644863
 20
404.2308565635738
 30
0.0
 11
736.7892960644862
 21
404.2308565635738
 31
0.0
  0
LINE
  5
A3C
330
A
100
AcDbEntity
  8
CENTER
  6
Continuous
100
AcDbLine
 10
735.7892960644862
 20
403.2308565635736
 30
0.0
 11
735.7892960644862
 21
405.2308565635738
 31
0.0
  0
LINE
  5
A3D
330
A
100
AcDbEntity
  8
CENTER
  6
Continuous
100
AcDbLine
 10
725.8300039209652
 20
385.9808565635738
 30
0.0
 11
724.0979531133963
 21
384.9808565635738
 31
0.0
  0
LINE
  5
A3E
330
A
100
AcDbEntity
  8
CENTER
  6
Continuous
100
AcDbLine
 10
725.4639785171807
 20
384.6148311597893
 30
0.0
 11
724.4639785171807
 21
386.3468819673582
 31
0.0
  0
LINE
  5
A3F
330
A
100
AcDbEntity
  8
CENTER
  6
Continuous
100
AcDbLine
 10
745.7485882080071
 20
385.9808565635737
 30
0.0
 11
747.4806390155761
 21
384.9808565635737
 31
0.0
  0
LINE
  5
A40
330
A
100
AcDbEntity
  8
CENTER
  6
Continuous
100
AcDbLine
 10
747.1146136117917
 20
386.3468819673582
 30
0.0
 11
746.1146136117917
 21
384.6148311597893
 31
0.0
  0
LINE
  5
A41
330
A
100
AcDbEntity
  8
CENTER
  6
CENTER
100
AcDbLine
 10
618.1941172665805
 20
461.6007372394287
 30
0.0
 11
672.6732649129075
 21
461.6007372394287
 31
0.0
  0
POLYLINE
  5
B99
330
A
100
AcDbEntity
  8
0
  6
Continuous
 62
     7
370
    15
100
AcDb2dPolyline
 66
     1
 10
0.0
 20
0.0
 30
0.0
 70
   128
  0
VERTEX
  5
B9A
330
B99
100
AcDbEntity
  8
0
100
AcDbVertex
100
AcDb2dVertex
 10
648.8830404547301
 20
458.1460680225772
 30
0.0
  0
VERTEX
  5
B9B
330
B99
100
AcDbEntity
  8
0
100
AcDbVertex
100
AcDb2dVertex
 10
649.2168218556645
 20
458.1107279387116
 30
0.0
  0
VERTEX
  5
B9C
330
B99
100
AcDbEntity
  8
0
100
AcDbVertex
100
AcDb2dVertex
 10
649.5338660634062
 20
458.0064797864871
 30
0.0
  0
VERTEX
  5
B9D
330
B99
100
AcDbEntity
  8
0
100
AcDbVertex
100
AcDb2dVertex
 10
649.818275157518
 20
457.8385510035584
 30
0.0
  0
VERTEX
  5
B9E
330
B99
100
AcDbEntity
  8
0
100
AcDbVertex
100
AcDb2dVertex
 10
650.055787678432
 20
457.6153622403112
 30
0.0
  0
VERTEX
  5
B9F
330
B99
100
AcDbEntity
  8
0
100
AcDbVertex
100
AcDb2dVertex
 10
650.2344937565837
 20
457.3481051132901
 30
0.0
  0
VERTEX
  5
BA0
330
B99
100
AcDbEntity
  8
0
100
AcDbVertex
100
AcDb2dVertex
 10
650.3454323230027
 20
457.0501810108122
 30
0.0
  0
VERTEX
  5
BA1
330
B99
100
AcDbEntity
  8
0
100
AcDbVertex
100
AcDb2dVertex
 10
650.3830404547299
 20
456.7365290913984
 30
0.0
  0
VERTEX
  5
BA2
330
B99
100
AcDbEntity
  8
0
100
AcDbVertex
100
AcDb2dVertex
 10
650.3454323230027
 20
456.4228771719847
 30
0.0
  0
VERTEX
  5
BA3
330
B99
100
AcDbEntity
  8
0
100
AcDbVertex
100
AcDb2dVertex
 10
650.2344937565837
 20
456.1249530695068
 30
0.0
  0
VERTEX
  5
BA4
330
B99
100
AcDbEntity
  8
0
100
AcDbVertex
100
AcDb2dVertex
 10
650.055787678432
 20
455.8576959424854
 30
0.0
  0
VERTEX
  5
BA5
330
B99
100
AcDbEntity
  8
0
100
AcDbVertex
100
AcDb2dVertex
 10
649.818275157518
 20
455.6345071792384
 30
0.0
  0
VERTEX
  5
BA6
330
B99
100
AcDbEntity
  8
0
100
AcDbVertex
100
AcDb2dVertex
 10
649.5338660634062
 20
455.4665783963097
 30
0.0
  0
VERTEX
  5
BA7
330
B99
100
AcDbEntity
  8
0
100
AcDbVertex
100
AcDb2dVertex
 10
649.2168218556645
 20
455.3623302440851
 30
0.0
  0
VERTEX
  5
BA8
330
B99
100
AcDbEntity
  8
0
100
AcDbVertex
100
AcDb2dVertex
 10
648.8830404547298
 20
455.3269901602194
 30
0.0
  0
VERTEX
  5
BA9
330
B99
100
AcDbEntity
  8
0
100
AcDbVertex
100
AcDb2dVertex
 10
648.5492590537955
 20
455.3623302440851
 30
0.0
  0
VERTEX
  5
BAA
330
B99
100
AcDbEntity
  8
0
100
AcDbVertex
100
AcDb2dVertex
 10
648.2322148460536
 20
455.4665783963097
 30
0.0
  0
VERTEX
  5
BAB
330
B99
100
AcDbEntity
  8
0
100
AcDbVertex
100
AcDb2dVertex
 10
647.9478057519419
 20
455.6345071792384
 30
0.0
  0
VERTEX
  5
BAC
330
B99
100
AcDbEntity
  8
0
100
AcDbVertex
100
AcDb2dVertex
 10
647.710293231028
 20
455.8576959424854
 30
0.0
  0
VERTEX
  5
BAD
330
B99
100
AcDbEntity
  8
0
100
AcDbVertex
100
AcDb2dVertex
 10
647.5315871528763
 20
456.1249530695068
 30
0.0
  0
VERTEX
  5
BAE
330
B99
100
AcDbEntity
  8
0
100
AcDbVertex
100
AcDb2dVertex
 10
647.4206485864573
 20
456.4228771719847
 30
0.0
  0
VERTEX
  5
BAF
330
B99
100
AcDbEntity
  8
0
100
AcDbVertex
100
AcDb2dVertex
 10
647.3830404547299
 20
456.7365290913984
 30
0.0
  0
VERTEX
  5
BB0
330
B99
100
AcDbEntity
  8
0
100
AcDbVertex
100
AcDb2dVertex
 10
647.4206485864573
 20
457.0501810108122
 30
0.0
  0
VERTEX
  5
BB1
330
B99
100
AcDbEntity
  8
0
100
AcDbVertex
100
AcDb2dVertex
 10
647.5315871528763
 20
457.3481051132901
 30
0.0
  0
VERTEX
  5
BB2
330
B99
100
AcDbEntity
  8
0
100
AcDbVertex
100
AcDb2dVertex
 10
647.710293231028
 20
457.6153622403112
 30
0.0
  0
VERTEX
  5
BB3
330
B99
100
AcDbEntity
  8
0
100
AcDbVertex
100
AcDb2dVertex
 10
647.9478057519419
 20
457.8385510035584
 30
0.0
  0
VERTEX
  5
BB4
330
B99
100
AcDbEntity
  8
0
100
AcDbVertex
100
AcDb2dVertex
 10
648.2322148460536
 20
458.0064797864871
 30
0.0
  0
VERTEX
  5
BB5
330
B99
100
AcDbEntity
  8
0
100
AcDbVertex
100
AcDb2dVertex
 10
648.5492590537955
 20
458.1107279387116
 30
0.0
  0
VERTEX
  5
BB6
330
B99
100
AcDbEntity
  8
0
100
AcDbVertex
100
AcDb2dVertex
 10
648.8830404547301
 20
458.1460680225772
 30
0.0
  0
SEQEND
  5
BB7
330
B99
100
AcDbEntity
  8
0
  0
POLYLINE
  5
BB8
330
A
100
AcDbEntity
  8
0
  6
Continuous
 62
     7
370
    15
100
AcDb2dPolyline
 66
     1
 10
0.0
 20
0.0
 30
0.0
 70
   128
  0
VERTEX
  5
BB9
330
BB8
100
AcDbEntity
  8
0
100
AcDbVertex
100
AcDb2dVertex
 10
651.8814323085942
 20
456.6442366809513
 30
0.0
  0
VERTEX
  5
BBA
330
BB8
100
AcDbEntity
  8
0
100
AcDbVertex
100
AcDb2dVertex
 10
651.8461054765154
 20
456.2955281540937
 30
0.0
  0
VERTEX
  5
BBB
330
BB8
100
AcDbEntity
  8
0
100
AcDbVertex
100
AcDb2dVertex
 10
651.7362100036153
 20
455.8653861234637
 30
0.0
  0
VERTEX
  5
BBC
330
BB8
100
AcDbEntity
  8
0
100
AcDbVertex
100
AcDb2dVertex
 10
651.5560600272951
 20
455.4566945238619
 30
0.0
  0
VERTEX
  5
BBD
330
BB8
100
AcDbEntity
  8
0
100
AcDbVertex
100
AcDb2dVertex
 10
651.3100914378547
 20
455.0795166988403
 30
0.0
  0
VERTEX
  5
BBE
330
BB8
100
AcDbEntity
  8
0
100
AcDbVertex
100
AcDb2dVertex
 10
651.0043607982896
 20
454.7431400182324
 30
0.0
  0
VERTEX
  5
BBF
330
BB8
100
AcDbEntity
  8
0
100
AcDbVertex
100
AcDb2dVertex
 10
650.6463962116073
 20
454.4558471922847
 30
0.0
  0
VERTEX
  5
BC0
330
BB8
100
AcDbEntity
  8
0
100
AcDbVertex
100
AcDb2dVertex
 10
650.2450119539486
 20
454.2247123238426
 30
0.0
  0
VERTEX
  5
BC1
330
BB8
100
AcDbEntity
  8
0
100
AcDbVertex
100
AcDb2dVertex
 10
649.8100914378547
 20
454.0554267204596
 30
0.0
  0
VERTEX
  5
BC2
330
BB8
100
AcDbEntity
  8
0
100
AcDbVertex
100
AcDb2dVertex
 10
649.3523438498506
 20
453.9521587555178
 30
0.0
  0
VERTEX
  5
BC3
330
BB8
100
AcDbEntity
  8
0
100
AcDbVertex
100
AcDb2dVertex
 10
648.8830404547298
 20
453.9174512290406
 30
0.0
  0
VERTEX
  5
BC4
330
BB8
100
AcDbEntity
  8
0
100
AcDbVertex
100
AcDb2dVertex
 10
648.4137370596093
 20
453.9521587555178
 30
0.0
  0
VERTEX
  5
BC5
330
BB8
100
AcDbEntity
  8
0
100
AcDbVertex
100
AcDb2dVertex
 10
647.9559894716049
 20
454.0554267204597
 30
0.0
  0
VERTEX
  5
BC6
330
BB8
100
AcDbEntity
  8
0
100
AcDbVertex
100
AcDb2dVertex
 10
647.5210689555114
 20
454.2247123238426
 30
0.0
  0
VERTEX
  5
BC7
330
BB8
100
AcDbEntity
  8
0
100
AcDbVertex
100
AcDb2dVertex
 10
647.1196846978527
 20
454.4558471922849
 30
0.0
  0
VERTEX
  5
BC8
330
BB8
100
AcDbEntity
  8
0
100
AcDbVertex
100
AcDb2dVertex
 10
646.7617201111703
 20
454.7431400182324
 30
0.0
  0
VERTEX
  5
BC9
330
BB8
100
AcDbEntity
  8
0
100
AcDbVertex
100
AcDb2dVertex
 10
646.4559894716052
 20
455.0795166988403
 30
0.0
  0
VERTEX
  5
BCA
330
BB8
100
AcDbEntity
  8
0
100
AcDbVertex
100
AcDb2dVertex
 10
646.2100208821649
 20
455.4566945238619
 30
0.0
  0
VERTEX
  5
BCB
330
BB8
100
AcDbEntity
  8
0
100
AcDbVertex
100
AcDb2dVertex
 10
646.0298709058446
 20
455.8653861234637
 30
0.0
  0
VERTEX
  5
BCC
330
BB8
100
AcDbEntity
  8
0
100
AcDbVertex
100
AcDb2dVertex
 10
645.9199754329446
 20
456.2955281540937
 30
0.0
  0
VERTEX
  5
BCD
330
BB8
100
AcDbEntity
  8
0
100
AcDbVertex
100
AcDb2dVertex
 10
645.8843788821155
 20
456.6523294185627
 30
0.0
  0
SEQEND
  5
BCE
330
BB8
100
AcDbEntity
  8
0
  0
LINE
  5
BCF
330
A
100
AcDbEntity
  8
0
  6
Continuous
 62
     7
370
    15
100
AcDbLine
 10
669.88304045473
 20
446.6007372394288
 30
0.0
 11
669.88304045473
 21
476.6007372394287
 31
0.0
  0
POLYLINE
  5
BD0
330
A
100
AcDbEntity
  8
0
  6
Continuous
 62
     7
370
    15
100
AcDb2dPolyline
 66
     1
 10
0.0
 20
0.0
 30
0.0
 70
   128
  0
VERTEX
  5
BD1
330
BD0
100
AcDbEntity
  8
0
100
AcDbVertex
100
AcDb2dVertex
 10
648.8830404547301
 20
459.3845968820933
 30
0.0
  0
VERTEX
  5
BD2
330
BD0
100
AcDbEntity
  8
0
100
AcDbVertex
100
AcDb2dVertex
 10
648.3851018230717
 20
459.3422776287196
 30
0.0
  0
VERTEX
  5
BD3
330
BD0
100
AcDbEntity
  8
0
100
AcDbVertex
100
AcDb2dVertex
 10
647.9013380950956
 20
459.2181863811181
 30
0.0
  0
VERTEX
  5
BD4
330
BD0
100
AcDbEntity
  8
0
100
AcDbVertex
100
AcDb2dVertex
 10
647.4459680147453
 20
459.0158151669516
 30
0.0
  0
VERTEX
  5
BD5
330
BD0
100
AcDbEntity
  8
0
100
AcDbVertex
100
AcDb2dVertex
 10
647.0304932525731
 20
458.743112993805
 30
0.0
  0
VERTEX
  5
BD6
330
BD0
100
AcDbEntity
  8
0
100
AcDbVertex
100
AcDb2dVertex
 10
646.662280461811
 20
458.4034050113236
 30
0.0
  0
VERTEX
  5
BD7
330
BD0
100
AcDbEntity
  8
0
100
AcDbVertex
100
AcDb2dVertex
 10
646.3560787144693
 20
458.0111773048095
 30
0.0
  0
VERTEX
  5
BD8
330
BD0
100
AcDbEntity
  8
0
100
AcDbVertex
100
AcDb2dVertex
 10
646.1195639991314
 20
457.5738335792226
 30
0.0
  0
VERTEX
  5
BD9
330
BD0
100
AcDbEntity
  8
0
100
AcDbVertex
100
AcDb2dVertex
 10
645.9617111598969
 20
457.1085395619657
 30
0.0
  0
VERTEX
  5
BDA
330
BD0
100
AcDbEntity
  8
0
100
AcDbVertex
100
AcDb2dVertex
 10
645.8890419626388
 20
456.6357097190678
 30
0.0
  0
VERTEX
  5
BDB
330
BD0
100
AcDbEntity
  8
0
100
AcDbVertex
100
AcDb2dVertex
 10
645.9000247385557
 20
456.1634743761112
 30
0.0
  0
VERTEX
  5
BDC
330
BD0
100
AcDbEntity
  8
0
100
AcDbVertex
100
AcDb2dVertex
 10
645.993580981083
 20
455.712123355132
 30
0.0
  0
VERTEX
  5
BDD
330
BD0
100
AcDbEntity
  8
0
100
AcDbVertex
100
AcDb2dVertex
 10
646.1652651475132
 20
455.2865916172543
 30
0.0
  0
VERTEX
  5
BDE
330
BD0
100
AcDbEntity
  8
0
100
AcDbVertex
100
AcDb2dVertex
 10
646.4128440871476
 20
454.8957426150133
 30
0.0
  0
VERTEX
  5
BDF
330
BD0
100
AcDbEntity
  8
0
100
AcDbVertex
100
AcDb2dVertex
 10
646.7275779392295
 20
454.5509656300056
 30
0.0
  0
VERTEX
  5
BE0
330
BD0
100
AcDbEntity
  8
0
100
AcDbVertex
100
AcDb2dVertex
 10
647.1088555021719
 20
454.2560905957663
 30
0.0
  0
VERTEX
  5
BE1
330
BD0
100
AcDbEntity
  8
0
100
AcDbVertex
100
AcDb2dVertex
 10
647.5406022961998
 20
454.0235081902145
 30
0.0
  0
VERTEX
  5
BE2
330
BD0
100
AcDbEntity
  8
0
100
AcDbVertex
100
AcDb2dVertex
 10
648.0126632864254
 20
453.8591633102719
 30
0.0
  0
VERTEX
  5
BE3
330
BD0
100
AcDbEntity
  8
0
100
AcDbVertex
100
AcDb2dVertex
 10
648.5102417805862
 20
453.7666752103448
 30
0.0
  0
VERTEX
  5
BE4
330
BD0
100
AcDbEntity
  8
0
100
AcDbVertex
100
AcDb2dVertex
 10
649.0102812630319
 20
453.7490415844759
 30
0.0
  0
VERTEX
  5
BE5
330
BD0
100
AcDbEntity
  8
0
100
AcDbVertex
100
AcDb2dVertex
 10
649.5066753121785
 20
453.8035014071082
 30
0.0
  0
VERTEX
  5
BE6
330
BD0
100
AcDbEntity
  8
0
100
AcDbVertex
100
AcDb2dVertex
 10
649.9805282076914
 20
453.9281115046903
 30
0.0
  0
VERTEX
  5
BE7
330
BD0
100
AcDbEntity
  8
0
100
AcDbVertex
100
AcDb2dVertex
 10
650.4240641169705
 20
454.1192356473457
 30
0.0
  0
VERTEX
  5
BE8
330
BD0
100
AcDbEntity
  8
0
100
AcDbVertex
100
AcDb2dVertex
 10
650.8299233868209
 20
454.3771160748545
 30
0.0
  0
VERTEX
  5
BE9
330
BD0
100
AcDbEntity
  8
0
100
AcDbVertex
100
AcDb2dVertex
 10
651.1819243218678
 20
454.6931696998725
 30
0.0
  0
VERTEX
  5
BEA
330
BD0
100
AcDbEntity
  8
0
100
AcDbVertex
100
AcDb2dVertex
 10
651.4737690410048
 20
455.0671542900859
 30
0.0
  0
VERTEX
  5
BEB
330
BD0
100
AcDbEntity
  8
0
100
AcDbVertex
100
AcDb2dVertex
 10
651.6921664466686
 20
455.4850253774971
 30
0.0
  0
VERTEX
  5
BEC
330
BD0
100
AcDbEntity
  8
0
100
AcDbVertex
100
AcDb2dVertex
 10
651.828921176144
 20
455.9341068330539
 30
0.0
  0
VERTEX
  5
BED
330
BD0
100
AcDbEntity
  8
0
100
AcDbVertex
100
AcDb2dVertex
 10
651.8824083369037
 20
456.4040412209438
 30
0.0
  0
VERTEX
  5
BEE
330
BD0
100
AcDbEntity
  8
0
100
AcDbVertex
100
AcDb2dVertex
 10
651.8509630507331
 20
456.873255485612
 30
0.0
  0
VERTEX
  5
BEF
330
BD0
100
AcDbEntity
  8
0
100
AcDbVertex
100
AcDb2dVertex
 10
651.7384360577056
 20
457.3362066491526
 30
0.0
  0
VERTEX
  5
BF0
330
BD0
100
AcDbEntity
  8
0
100
AcDbVertex
100
AcDb2dVertex
 10
651.547680935101
 20
457.7781845718986
 30
0.0
  0
VERTEX
  5
BF1
330
BD0
100
AcDbEntity
  8
0
100
AcDbVertex
100
AcDb2dVertex
 10
651.2850821230746
 20
458.1877110359933
 30
0.0
  0
VERTEX
  5
BF2
330
BD0
100
AcDbEntity
  8
0
100
AcDbVertex
100
AcDb2dVertex
 10
650.9511432695325
 20
458.557798099294
 30
0.0
  0
VERTEX
  5
BF3
330
BD0
100
AcDbEntity
  8
0
100
AcDbVertex
100
AcDb2dVertex
 10
650.559488009082
 20
458.8707607529734
 30
0.0
  0
VERTEX
  5
BF4
330
BD0
100
AcDbEntity
  8
0
100
AcDbVertex
100
AcDb2dVertex
 10
650.1150940041781
 20
459.1179078723779
 30
0.0
  0
VERTEX
  5
BF5
330
BD0
100
AcDbEntity
  8
0
100
AcDbVertex
100
AcDb2dVertex
 10
649.6347848854654
 20
459.2880843480871
 30
0.0
  0
VERTEX
  5
BF6
330
BD0
100
AcDbEntity
  8
0
100
AcDbVertex
100
AcDb2dVertex
 10
648.8830404547301
 20
459.3845968820933
 30
0.0
  0
SEQEND
  5
BF7
330
BD0
100
AcDbEntity
  8
0
  0
LINE
  5
BF8
330
A
100
AcDbEntity
  8
0
  6
Continuous
 62
     7
370
    15
100
AcDbLine
 10
629.38304045473
 20
453.3813681444114
 30
0.0
 11
629.38304045473
 21
458.3421680171444
 31
0.0
  0
LINE
  5
BF9
330
A
100
AcDbEntity
  8
0
  6
Continuous
 62
     7
370
    15
100
AcDbLine
 10
641.88304045473
 20
453.3813681444114
 30
0.0
 11
641.88304045473
 21
469.802967889877
 31
0.0
  0
POLYLINE
  5
BFA
330
A
100
AcDbEntity
  8
0
  6
Continuous
 62
     7
370
    15
100
AcDb2dPolyline
 66
     1
 10
0.0
 20
0.0
 30
0.0
 70
   128
  0
VERTEX
  5
BFB
330
BFA
100
AcDbEntity
  8
0
100
AcDbVertex
100
AcDb2dVertex
 10
649.6141987327156
 20
457.9672780526307
 30
0.0
  0
VERTEX
  5
BFC
330
BFA
100
AcDbEntity
  8
0
100
AcDbVertex
100
AcDb2dVertex
 10
649.5338660634064
 20
457.928076318776
 30
0.0
  0
VERTEX
  5
BFD
330
BFA
100
AcDbEntity
  8
0
100
AcDbVertex
100
AcDb2dVertex
 10
649.2168218556645
 20
457.8238281665514
 30
0.0
  0
VERTEX
  5
BFE
330
BFA
100
AcDbEntity
  8
0
100
AcDbVertex
100
AcDb2dVertex
 10
648.8830404547301
 20
457.7884880826857
 30
0.0
  0
VERTEX
  5
BFF
330
BFA
100
AcDbEntity
  8
0
100
AcDbVertex
100
AcDb2dVertex
 10
648.5492590537955
 20
457.8238281665514
 30
0.0
  0
VERTEX
  5
C00
330
BFA
100
AcDbEntity
  8
0
100
AcDbVertex
100
AcDb2dVertex
 10
648.2322148460536
 20
457.928076318776
 30
0.0
  0
VERTEX
  5
C01
330
BFA
100
AcDbEntity
  8
0
100
AcDbVertex
100
AcDb2dVertex
 10
648.1518821767446
 20
457.9672780526307
 30
0.0
  0
SEQEND
  5
C02
330
BFA
100
AcDbEntity
  8
0
  0
LINE
  5
C04
330
A
100
AcDbEntity
  8
0
  6
Continuous
 62
     7
370
    15
100
AcDbLine
 10
626.38304045473
 20
475.4976125833719
 30
0.0
 11
626.38304045473
 21
472.0335109682342
 31
0.0
  0
LINE
  5
C05
330
A
100
AcDbEntity
  8
0
  6
Continuous
 62
     7
370
    15
100
AcDbLine
 10
629.38304045473
 20
472.3671453311001
 30
0.0
 11
629.38304045473
 21
474.9045338963549
 31
0.0
  0
LINE
  5
C06
330
A
100
AcDbEntity
  8
0
  6
Continuous
 62
     7
370
    15
100
AcDbLine
 10
641.88304045473
 20
471.8762750627834
 30
0.0
 11
641.88304045473
 21
475.1148796590024
 31
0.0
  0
LINE
  5
C07
330
A
100
AcDbEntity
  8
0
  6
Continuous
 62
     7
370
    15
100
AcDbLine
 10
631.1150912622988
 20
475.1148796590026
 30
0.0
 11
629.38304045473
 21
472.3671453311001
 31
0.0
  0
LINE
  5
C08
330
A
100
AcDbEntity
  8
0
  6
Continuous
 62
     7
370
    15
100
AcDbLine
 10
639.38304045473
 20
480.6937650060784
 30
0.0
 11
639.38304045473
 21
483.1937650060785
 31
0.0
  0
LINE
  5
C09
330
A
100
AcDbEntity
  8
0
  6
Continuous
 62
     7
370
    15
100
AcDbLine
 10
626.38304045473
 20
480.6937650060785
 30
0.0
 11
626.38304045473
 21
483.1937650060786
 31
0.0
  0
LINE
  5
C0A
330
A
100
AcDbEntity
  8
0
  6
Continuous
 62
     7
370
    15
100
AcDbLine
 10
636.38304045473
 20
483.9437650060786
 30
0.0
 11
632.38304045473
 21
483.9437650060786
 31
0.0
  0
LINE
  5
C0B
330
A
100
AcDbEntity
  8
0
  6
Continuous
 62
     7
370
    15
100
AcDbLine
 10
632.38304045473
 20
483.1937650060785
 30
0.0
 11
632.38304045473
 21
483.9437650060786
 31
0.0
  0
LINE
  5
C0C
330
A
100
AcDbEntity
  8
0
  6
Continuous
 62
     7
370
    15
100
AcDbLine
 10
632.38304045473
 20
483.1937650060785
 30
0.0
 11
626.38304045473
 21
483.1937650060786
 31
0.0
  0
LINE
  5
C0D
330
A
100
AcDbEntity
  8
0
  6
Continuous
 62
     7
370
    15
100
AcDbLine
 10
639.38304045473
 20
483.1937650060785
 30
0.0
 11
636.38304045473
 21
483.1937650060785
 31
0.0
  0
LINE
  5
C0E
330
A
100
AcDbEntity
  8
0
  6
Continuous
 62
     7
370
    15
100
AcDbLine
 10
636.38304045473
 20
483.1937650060785
 30
0.0
 11
636.38304045473
 21
483.9437650060786
 31
0.0
  0
LINE
  5
C0F
330
A
100
AcDbEntity
  8
0
  6
Continuous
 62
     7
370
    15
100
AcDbLine
 10
636.38304045473
 20
479.9437650060785
 30
0.0
 11
632.38304045473
 21
479.9437650060785
 31
0.0
  0
LINE
  5
C10
330
A
100
AcDbEntity
  8
0
  6
Continuous
 62
     7
370
    15
100
AcDbLine
 10
636.38304045473
 20
476.5627307656214
 30
0.0
 11
632.38304045473
 21
476.5627307656214
 31
0.0
  0
LINE
  5
C11
330
A
100
AcDbEntity
  8
0
  6
Continuous
 62
     7
370
    15
100
AcDbLine
 10
641.88304045473
 20
475.1148796590024
 30
0.0
 11
631.1150912622988
 21
475.1148796590026
 31
0.0
  0
LINE
  5
C12
330
A
100
AcDbEntity
  8
0
  6
Continuous
 62
     7
370
    15
100
AcDbLine
 10
626.38304045473
 20
480.6937650060785
 30
0.0
 11
626.38304045473
 21
477.2296633909408
 31
0.0
  0
LINE
  5
C13
330
A
100
AcDbEntity
  8
0
  6
Continuous
 62
     7
370
    15
100
AcDbLine
 10
632.38304045473
 20
479.9437650060785
 30
0.0
 11
632.38304045473
 21
476.5627307656214
 31
0.0
  0
LINE
  5
C14
330
A
100
AcDbEntity
  8
0
  6
Continuous
 62
     7
370
    15
100
AcDbLine
 10
632.38304045473
 20
480.6937650060785
 30
0.0
 11
626.38304045473
 21
480.6937650060785
 31
0.0
  0
LINE
  5
C15
330
A
100
AcDbEntity
  8
0
  6
Continuous
 62
     7
370
    15
100
AcDbLine
 10
632.38304045473
 20
479.9437650060785
 30
0.0
 11
632.38304045473
 21
480.6937650060785
 31
0.0
  0
LINE
  5
C16
330
A
100
AcDbEntity
  8
0
  6
Continuous
 62
     7
370
    15
100
AcDbLine
 10
626.38304045473
 20
475.4976125833719
 30
0.0
 11
626.38304045473
 21
477.2296633909408
 31
0.0
  0
LINE
  5
C17
330
A
100
AcDbEntity
  8
0
  6
Continuous
 62
     7
370
    15
100
AcDbLine
 10
626.38304045473
 20
477.2296633909408
 30
0.0
 11
628.38304045473
 21
477.2296633909408
 31
0.0
  0
LINE
  5
C18
330
A
100
AcDbEntity
  8
0
  6
Continuous
 62
     7
370
    15
100
AcDbLine
 10
628.38304045473
 20
477.2296633909408
 30
0.0
 11
628.38304045473
 21
475.4976125833719
 31
0.0
  0
LINE
  5
C19
330
A
100
AcDbEntity
  8
0
  6
Continuous
 62
     7
370
    15
100
AcDbLine
 10
628.38304045473
 20
475.4976125833719
 30
0.0
 11
626.38304045473
 21
475.4976125833719
 31
0.0
  0
LINE
  5
C1A
330
A
100
AcDbEntity
  8
0
  6
Continuous
 62
     7
370
    15
100
AcDbLine
 10
629.38304045473
 20
474.9045338963549
 30
0.0
 11
631.1150912622988
 21
477.5268268732286
 31
0.0
  0
LINE
  5
C1B
330
A
100
AcDbEntity
  8
0
  6
Continuous
 62
     7
370
    15
100
AcDbLine
 10
631.1150912622988
 20
477.5268268732286
 30
0.0
 11
632.38304045473
 21
477.5268268732286
 31
0.0
  0
LINE
  5
C1C
330
A
100
AcDbEntity
  8
0
  6
Continuous
 62
     7
370
    15
100
AcDbLine
 10
631.1150912622988
 20
475.1148796590026
 30
0.0
 11
631.1150912622988
 21
477.5268268732286
 31
0.0
  0
LINE
  5
C1D
330
A
100
AcDbEntity
  8
0
  6
Continuous
 62
     7
370
    15
100
AcDbLine
 10
639.38304045473
 20
477.5268268732286
 30
0.0
 11
639.38304045473
 21
480.6937650060784
 31
0.0
  0
LINE
  5
C1E
330
A
100
AcDbEntity
  8
0
  6
Continuous
 62
     7
370
    15
100
AcDbLine
 10
636.38304045473
 20
476.5627307656214
 30
0.0
 11
636.38304045473
 21
479.9437650060785
 31
0.0
  0
LINE
  5
C1F
330
A
100
AcDbEntity
  8
0
  6
Continuous
 62
     7
370
    15
100
AcDbLine
 10
641.88304045473
 20
475.1148796590024
 30
0.0
 11
641.8830404547302
 21
481.1148796590026
 31
0.0
  0
LINE
  5
C20
330
A
100
AcDbEntity
  8
0
  6
Continuous
 62
     7
370
    15
100
AcDbLine
 10
636.38304045473
 20
479.9437650060785
 30
0.0
 11
636.38304045473
 21
480.6937650060785
 31
0.0
  0
LINE
  5
C21
330
A
100
AcDbEntity
  8
0
  6
Continuous
 62
     7
370
    15
100
AcDbLine
 10
636.38304045473
 20
480.6937650060785
 30
0.0
 11
639.38304045473
 21
480.6937650060784
 31
0.0
  0
LINE
  5
C22
330
A
100
AcDbEntity
  8
0
  6
Continuous
 62
     7
370
    15
100
AcDbLine
 10
639.38304045473
 20
481.1148796590026
 30
0.0
 11
641.8830404547302
 21
481.1148796590026
 31
0.0
  0
LINE
  5
C23
330
A
100
AcDbEntity
  8
0
  6
Continuous
 62
     7
370
    15
100
AcDbLine
 10
636.38304045473
 20
477.5268268732286
 30
0.0
 11
639.38304045473
 21
477.5268268732286
 31
0.0
  0
LINE
  5
C24
330
A
100
AcDbEntity
  8
0
  6
Continuous
 62
     7
370
    15
100
AcDbLine
 10
629.38304045473
 20
464.8421680171444
 30
0.0
 11
629.38304045473
 21
458.3421680171444
 31
0.0
  0
LINE
  5
C25
330
A
100
AcDbEntity
  8
0
  6
Continuous
 62
     7
370
    15
100
AcDbLine
 10
634.38304045473
 20
458.3421680171444
 30
0.0
 11
634.38304045473
 21
464.8421680171444
 31
0.0
  0
LINE
  5
C26
330
A
100
AcDbEntity
  8
0
  6
Continuous
 62
     7
370
    15
100
AcDbLine
 10
641.88304045473
 20
471.8762750627834
 30
0.0
 11
629.38304045473
 21
471.8762750627834
 31
0.0
  0
LINE
  5
C27
330
A
100
AcDbEntity
  8
0
  6
Continuous
 62
     7
370
    15
100
AcDbLine
 10
641.88304045473
 20
469.802967889877
 30
0.0
 11
629.38304045473
 21
469.8029678898771
 31
0.0
  0
LINE
  5
C28
330
A
100
AcDbEntity
  8
0
  6
Continuous
 62
     7
370
    15
100
AcDbLine
 10
629.38304045473
 20
464.8421680171444
 30
0.0
 11
629.38304045473
 21
469.8029678898771
 31
0.0
  0
LINE
  5
C29
330
A
100
AcDbEntity
  8
0
  6
Continuous
 62
     7
370
    15
100
AcDbLine
 10
626.38304045473
 20
472.0335109682342
 30
0.0
 11
629.38304045473
 21
472.0335109682342
 31
0.0
  0
LINE
  5
C2A
330
A
100
AcDbEntity
  8
0
  6
Continuous
 62
     7
370
    15
100
AcDbLine
 10
629.38304045473
 20
469.8029678898771
 30
0.0
 11
629.38304045473
 21
471.8762750627834
 31
0.0
  0
LINE
  5
C2B
330
A
100
AcDbEntity
  8
0
  6
Continuous
 62
     7
370
    15
100
AcDbLine
 10
629.38304045473
 20
471.8762750627834
 30
0.0
 11
629.38304045473
 21
472.3671453311001
 31
0.0
  0
LINE
  5
C2C
330
A
100
AcDbEntity
  8
0
  6
Continuous
 62
     7
370
    15
100
AcDbLine
 10
634.38304045473
 20
464.8421680171444
 30
0.0
 11
629.38304045473
 21
464.8421680171444
 31
0.0
  0
LINE
  5
C2D
330
A
100
AcDbEntity
  8
0
  6
Continuous
 62
     7
370
    15
100
AcDbLine
 10
641.88304045473
 20
469.802967889877
 30
0.0
 11
641.88304045473
 21
471.8762750627834
 31
0.0
  0
LINE
  5
C2E
330
A
100
AcDbEntity
  8
0
  6
Continuous
 62
     7
370
    15
100
AcDbLine
 10
626.38304045473
 20
464.0921680171444
 30
0.0
 11
626.38304045473
 21
459.0921680171444
 31
0.0
  0
LINE
  5
C2F
330
A
100
AcDbEntity
  8
0
  6
Continuous
 62
     7
370
    15
100
AcDbLine
 10
626.38304045473
 20
464.0921680171444
 30
0.0
 11
629.38304045473
 21
464.0921680171443
 31
0.0
  0
LINE
  5
C30
330
A
100
AcDbEntity
  8
0
  6
Continuous
 62
     7
370
    15
100
AcDbLine
 10
626.38304045473
 20
459.0921680171444
 30
0.0
 11
629.38304045473
 21
459.0921680171442
 31
0.0
  0
LINE
  5
C31
330
A
100
AcDbEntity
  8
0
  6
Continuous
 62
     7
370
    15
100
AcDbLine
 10
634.38304045473
 20
458.3421680171444
 30
0.0
 11
629.38304045473
 21
458.3421680171444
 31
0.0
  0
POLYLINE
  5
C32
330
A
100
AcDbEntity
  8
0
  6
Continuous
 62
     7
370
    15
100
AcDb2dPolyline
 66
     1
 10
0.0
 20
0.0
 30
0.0
 70
   128
  0
VERTEX
  5
C33
330
C32
100
AcDbEntity
  8
0
100
AcDbVertex
100
AcDb2dVertex
 10
662.8830404547301
 20
463.7997391521952
 30
0.0
  0
VERTEX
  5
C34
330
C32
100
AcDbEntity
  8
0
100
AcDbVertex
100
AcDb2dVertex
 10
662.3851018230717
 20
463.8420584055687
 30
0.0
  0
VERTEX
  5
C35
330
C32
100
AcDbEntity
  8
0
100
AcDbVertex
100
AcDb2dVertex
 10
661.9013380950956
 20
463.9661496531702
 30
0.0
  0
VERTEX
  5
C36
330
C32
100
AcDbEntity
  8
0
100
AcDbVertex
100
AcDb2dVertex
 10
661.4459680147453
 20
464.1685208673368
 30
0.0
  0
VERTEX
  5
C37
330
C32
100
AcDbEntity
  8
0
100
AcDbVertex
100
AcDb2dVertex
 10
661.0304932525731
 20
464.4412230404835
 30
0.0
  0
VERTEX
  5
C38
330
C32
100
AcDbEntity
  8
0
100
AcDbVertex
100
AcDb2dVertex
 10
660.662280461811
 20
464.7809310229647
 30
0.0
  0
VERTEX
  5
C39
330
C32
100
AcDbEntity
  8
0
100
AcDbVertex
100
AcDb2dVertex
 10
660.3560787144694
 20
465.1731587294789
 30
0.0
  0
VERTEX
  5
C3A
330
C32
100
AcDbEntity
  8
0
100
AcDbVertex
100
AcDb2dVertex
 10
660.1195639991313
 20
465.6105024550659
 30
0.0
  0
VERTEX
  5
C3B
330
C32
100
AcDbEntity
  8
0
100
AcDbVertex
100
AcDb2dVertex
 10
659.9617111598969
 20
466.0757964723226
 30
0.0
  0
VERTEX
  5
C3C
330
C32
100
AcDbEntity
  8
0
100
AcDbVertex
100
AcDb2dVertex
 10
659.8890419626387
 20
466.5486263152207
 30
0.0
  0
VERTEX
  5
C3D
330
C32
100
AcDbEntity
  8
0
100
AcDbVertex
100
AcDb2dVertex
 10
659.9000247385557
 20
467.0208616581772
 30
0.0
  0
VERTEX
  5
C3E
330
C32
100
AcDbEntity
  8
0
100
AcDbVertex
100
AcDb2dVertex
 10
659.993580981083
 20
467.4722126791564
 30
0.0
  0
VERTEX
  5
C3F
330
C32
100
AcDbEntity
  8
0
100
AcDbVertex
100
AcDb2dVertex
 10
660.1652651475132
 20
467.8977444170341
 30
0.0
  0
VERTEX
  5
C40
330
C32
100
AcDbEntity
  8
0
100
AcDbVertex
100
AcDb2dVertex
 10
660.4128440871476
 20
468.288593419275
 30
0.0
  0
VERTEX
  5
C41
330
C32
100
AcDbEntity
  8
0
100
AcDbVertex
100
AcDb2dVertex
 10
660.7275779392296
 20
468.6333704042828
 30
0.0
  0
VERTEX
  5
C42
330
C32
100
AcDbEntity
  8
0
100
AcDbVertex
100
AcDb2dVertex
 10
661.1088555021718
 20
468.928245438522
 30
0.0
  0
VERTEX
  5
C43
330
C32
100
AcDbEntity
  8
0
100
AcDbVertex
100
AcDb2dVertex
 10
661.5406022961998
 20
469.160827844074
 30
0.0
  0
VERTEX
  5
C44
330
C32
100
AcDbEntity
  8
0
100
AcDbVertex
100
AcDb2dVertex
 10
662.0126632864254
 20
469.3251727240165
 30
0.0
  0
VERTEX
  5
C45
330
C32
100
AcDbEntity
  8
0
100
AcDbVertex
100
AcDb2dVertex
 10
662.5102417805861
 20
469.4176608239435
 30
0.0
  0
VERTEX
  5
C46
330
C32
100
AcDbEntity
  8
0
100
AcDbVertex
100
AcDb2dVertex
 10
663.0102812630319
 20
469.4352944498125
 30
0.0
  0
VERTEX
  5
C47
330
C32
100
AcDbEntity
  8
0
100
AcDbVertex
100
AcDb2dVertex
 10
663.5066753121785
 20
469.3808346271801
 30
0.0
  0
VERTEX
  5
C48
330
C32
100
AcDbEntity
  8
0
100
AcDbVertex
100
AcDb2dVertex
 10
663.9805282076914
 20
469.2562245295981
 30
0.0
  0
VERTEX
  5
C49
330
C32
100
AcDbEntity
  8
0
100
AcDbVertex
100
AcDb2dVertex
 10
664.4240641169704
 20
469.0651003869425
 30
0.0
  0
VERTEX
  5
C4A
330
C32
100
AcDbEntity
  8
0
100
AcDbVertex
100
AcDb2dVertex
 10
664.8299233868211
 20
468.8072199594339
 30
0.0
  0
VERTEX
  5
C4B
330
C32
100
AcDbEntity
  8
0
100
AcDbVertex
100
AcDb2dVertex
 10
665.181924321868
 20
468.4911663344159
 30
0.0
  0
VERTEX
  5
C4C
330
C32
100
AcDbEntity
  8
0
100
AcDbVertex
100
AcDb2dVertex
 10
665.4737690410049
 20
468.1171817442025
 30
0.0
  0
VERTEX
  5
C4D
330
C32
100
AcDbEntity
  8
0
100
AcDbVertex
100
AcDb2dVertex
 10
665.6921664466686
 20
467.6993106567912
 30
0.0
  0
VERTEX
  5
C4E
330
C32
100
AcDbEntity
  8
0
100
AcDbVertex
100
AcDb2dVertex
 10
665.8289211761442
 20
467.2502292012343
 30
0.0
  0
VERTEX
  5
C4F
330
C32
100
AcDbEntity
  8
0
100
AcDbVertex
100
AcDb2dVertex
 10
665.8824083369037
 20
466.7802948133446
 30
0.0
  0
VERTEX
  5
C50
330
C32
100
AcDbEntity
  8
0
100
AcDbVertex
100
AcDb2dVertex
 10
665.8509630507332
 20
466.3110805486763
 30
0.0
  0
VERTEX
  5
C51
330
C32
100
AcDbEntity
  8
0
100
AcDbVertex
100
AcDb2dVertex
 10
665.7384360577055
 20
465.8481293851358
 30
0.0
  0
VERTEX
  5
C52
330
C32
100
AcDbEntity
  8
0
100
AcDbVertex
100
AcDb2dVertex
 10
665.5476809351011
 20
465.4061514623897
 30
0.0
  0
VERTEX
  5
C53
330
C32
100
AcDbEntity
  8
0
100
AcDbVertex
100
AcDb2dVertex
 10
665.2850821230746
 20
464.9966249982951
 30
0.0
  0
VERTEX
  5
C54
330
C32
100
AcDbEntity
  8
0
100
AcDbVertex
100
AcDb2dVertex
 10
664.9511432695325
 20
464.6265379349945
 30
0.0
  0
VERTEX
  5
C55
330
C32
100
AcDbEntity
  8
0
100
AcDbVertex
100
AcDb2dVertex
 10
664.5594880090819
 20
464.313575281315
 30
0.0
  0
VERTEX
  5
C56
330
C32
100
AcDbEntity
  8
0
100
AcDbVertex
100
AcDb2dVertex
 10
664.115094004178
 20
464.0664281619104
 30
0.0
  0
VERTEX
  5
C57
330
C32
100
AcDbEntity
  8
0
100
AcDbVertex
100
AcDb2dVertex
 10
663.6347848854653
 20
463.8962516862012
 30
0.0
  0
VERTEX
  5
C58
330
C32
100
AcDbEntity
  8
0
100
AcDbVertex
100
AcDb2dVertex
 10
662.8830404547301
 20
463.7997391521952
 30
0.0
  0
SEQEND
  5
C59
330
C32
100
AcDbEntity
  8
0
  0
POLYLINE
  5
C5A
330
A
100
AcDbEntity
  8
0
  6
Continuous
 62
     7
370
    15
100
AcDb2dPolyline
 66
     1
 10
0.0
 20
0.0
 30
0.0
 70
   128
  0
VERTEX
  5
C5B
330
C5A
100
AcDbEntity
  8
0
100
AcDbVertex
100
AcDb2dVertex
 10
662.8830404547301
 20
465.0382680117111
 30
0.0
  0
VERTEX
  5
C5C
330
C5A
100
AcDbEntity
  8
0
100
AcDbVertex
100
AcDb2dVertex
 10
663.2168218556645
 20
465.0736080955768
 30
0.0
  0
VERTEX
  5
C5D
330
C5A
100
AcDbEntity
  8
0
100
AcDbVertex
100
AcDb2dVertex
 10
663.5338660634064
 20
465.1778562478014
 30
0.0
  0
VERTEX
  5
C5E
330
C5A
100
AcDbEntity
  8
0
100
AcDbVertex
100
AcDb2dVertex
 10
663.8182751575181
 20
465.34578503073
 30
0.0
  0
VERTEX
  5
C5F
330
C5A
100
AcDbEntity
  8
0
100
AcDbVertex
100
AcDb2dVertex
 10
664.055787678432
 20
465.5689737939771
 30
0.0
  0
VERTEX
  5
C60
330
C5A
100
AcDbEntity
  8
0
100
AcDbVertex
100
AcDb2dVertex
 10
664.2344937565836
 20
465.8362309209984
 30
0.0
  0
VERTEX
  5
C61
330
C5A
100
AcDbEntity
  8
0
100
AcDbVertex
100
AcDb2dVertex
 10
664.3454323230026
 20
466.1341550234763
 30
0.0
  0
VERTEX
  5
C62
330
C5A
100
AcDbEntity
  8
0
100
AcDbVertex
100
AcDb2dVertex
 10
664.3830404547299
 20
466.44780694289
 30
0.0
  0
VERTEX
  5
C63
330
C5A
100
AcDbEntity
  8
0
100
AcDbVertex
100
AcDb2dVertex
 10
664.3454323230026
 20
466.7614588623037
 30
0.0
  0
VERTEX
  5
C64
330
C5A
100
AcDbEntity
  8
0
100
AcDbVertex
100
AcDb2dVertex
 10
664.2344937565836
 20
467.0593829647817
 30
0.0
  0
VERTEX
  5
C65
330
C5A
100
AcDbEntity
  8
0
100
AcDbVertex
100
AcDb2dVertex
 10
664.055787678432
 20
467.326640091803
 30
0.0
  0
VERTEX
  5
C66
330
C5A
100
AcDbEntity
  8
0
100
AcDbVertex
100
AcDb2dVertex
 10
663.8182751575181
 20
467.54982885505
 30
0.0
  0
VERTEX
  5
C67
330
C5A
100
AcDbEntity
  8
0
100
AcDbVertex
100
AcDb2dVertex
 10
663.5338660634064
 20
467.7177576379786
 30
0.0
  0
VERTEX
  5
C68
330
C5A
100
AcDbEntity
  8
0
100
AcDbVertex
100
AcDb2dVertex
 10
663.2168218556645
 20
467.8220057902032
 30
0.0
  0
VERTEX
  5
C69
330
C5A
100
AcDbEntity
  8
0
100
AcDbVertex
100
AcDb2dVertex
 10
662.8830404547301
 20
467.8573458740689
 30
0.0
  0
VERTEX
  5
C6A
330
C5A
100
AcDbEntity
  8
0
100
AcDbVertex
100
AcDb2dVertex
 10
662.5492590537954
 20
467.8220057902032
 30
0.0
  0
VERTEX
  5
C6B
330
C5A
100
AcDbEntity
  8
0
100
AcDbVertex
100
AcDb2dVertex
 10
662.2322148460538
 20
467.7177576379786
 30
0.0
  0
VERTEX
  5
C6C
330
C5A
100
AcDbEntity
  8
0
100
AcDbVertex
100
AcDb2dVertex
 10
661.9478057519419
 20
467.54982885505
 30
0.0
  0
VERTEX
  5
C6D
330
C5A
100
AcDbEntity
  8
0
100
AcDbVertex
100
AcDb2dVertex
 10
661.710293231028
 20
467.3266400918028
 30
0.0
  0
VERTEX
  5
C6E
330
C5A
100
AcDbEntity
  8
0
100
AcDbVertex
100
AcDb2dVertex
 10
661.5315871528763
 20
467.0593829647817
 30
0.0
  0
VERTEX
  5
C6F
330
C5A
100
AcDbEntity
  8
0
100
AcDbVertex
100
AcDb2dVertex
 10
661.4206485864573
 20
466.7614588623037
 30
0.0
  0
VERTEX
  5
C70
330
C5A
100
AcDbEntity
  8
0
100
AcDbVertex
100
AcDb2dVertex
 10
661.3830404547298
 20
466.44780694289
 30
0.0
  0
VERTEX
  5
C71
330
C5A
100
AcDbEntity
  8
0
100
AcDbVertex
100
AcDb2dVertex
 10
661.4206485864573
 20
466.1341550234763
 30
0.0
  0
VERTEX
  5
C72
330
C5A
100
AcDbEntity
  8
0
100
AcDbVertex
100
AcDb2dVertex
 10
661.5315871528763
 20
465.8362309209984
 30
0.0
  0
VERTEX
  5
C73
330
C5A
100
AcDbEntity
  8
0
100
AcDbVertex
100
AcDb2dVertex
 10
661.710293231028
 20
465.5689737939771
 30
0.0
  0
VERTEX
  5
C74
330
C5A
100
AcDbEntity
  8
0
100
AcDbVertex
100
AcDb2dVertex
 10
661.9478057519419
 20
465.34578503073
 30
0.0
  0
VERTEX
  5
C75
330
C5A
100
AcDbEntity
  8
0
100
AcDbVertex
100
AcDb2dVertex
 10
662.2322148460538
 20
465.1778562478014
 30
0.0
  0
VERTEX
  5
C76
330
C5A
100
AcDbEntity
  8
0
100
AcDbVertex
100
AcDb2dVertex
 10
662.5492590537957
 20
465.0736080955768
 30
0.0
  0
VERTEX
  5
C77
330
C5A
100
AcDbEntity
  8
0
100
AcDbVertex
100
AcDb2dVertex
 10
662.8830404547301
 20
465.0382680117111
 30
0.0
  0
SEQEND
  5
C78
330
C5A
100
AcDbEntity
  8
0
  0
POLYLINE
  5
C79
330
A
100
AcDbEntity
  8
0
  6
Continuous
 62
     7
370
    15
100
AcDb2dPolyline
 66
     1
 10
0.0
 20
0.0
 30
0.0
 70
   128
  0
VERTEX
  5
C7A
330
C79
100
AcDbEntity
  8
0
100
AcDbVertex
100
AcDb2dVertex
 10
665.8814323085943
 20
466.5400993533372
 30
0.0
  0
VERTEX
  5
C7B
330
C79
100
AcDbEntity
  8
0
100
AcDbVertex
100
AcDb2dVertex
 10
665.8461054765154
 20
466.8888078801948
 30
0.0
  0
VERTEX
  5
C7C
330
C79
100
AcDbEntity
  8
0
100
AcDbVertex
100
AcDb2dVertex
 10
665.7362100036156
 20
467.3189499108247
 30
0.0
  0
VERTEX
  5
C7D
330
C79
100
AcDbEntity
  8
0
100
AcDbVertex
100
AcDb2dVertex
 10
665.556060027295
 20
467.7276415104265
 30
0.0
  0
VERTEX
  5
C7E
330
C79
100
AcDbEntity
  8
0
100
AcDbVertex
100
AcDb2dVertex
 10
665.3100914378548
 20
468.1048193354481
 30
0.0
  0
VERTEX
  5
C7F
330
C79
100
AcDbEntity
  8
0
100
AcDbVertex
100
AcDb2dVertex
 10
665.0043607982897
 20
468.441196016056
 30
0.0
  0
VERTEX
  5
C80
330
C79
100
AcDbEntity
  8
0
100
AcDbVertex
100
AcDb2dVertex
 10
664.6463962116073
 20
468.7284888420036
 30
0.0
  0
VERTEX
  5
C81
330
C79
100
AcDbEntity
  8
0
100
AcDbVertex
100
AcDb2dVertex
 10
664.2450119539486
 20
468.9596237104457
 30
0.0
  0
VERTEX
  5
C82
330
C79
100
AcDbEntity
  8
0
100
AcDbVertex
100
AcDb2dVertex
 10
663.8100914378547
 20
469.1289093138287
 30
0.0
  0
VERTEX
  5
C83
330
C79
100
AcDbEntity
  8
0
100
AcDbVertex
100
AcDb2dVertex
 10
663.3523438498506
 20
469.2321772787706
 30
0.0
  0
VERTEX
  5
C84
330
C79
100
AcDbEntity
  8
0
100
AcDbVertex
100
AcDb2dVertex
 10
662.8830404547301
 20
469.2668848052476
 30
0.0
  0
VERTEX
  5
C85
330
C79
100
AcDbEntity
  8
0
100
AcDbVertex
100
AcDb2dVertex
 10
662.4137370596094
 20
469.2321772787706
 30
0.0
  0
VERTEX
  5
C86
330
C79
100
AcDbEntity
  8
0
100
AcDbVertex
100
AcDb2dVertex
 10
661.9559894716052
 20
469.1289093138287
 30
0.0
  0
VERTEX
  5
C87
330
C79
100
AcDbEntity
  8
0
100
AcDbVertex
100
AcDb2dVertex
 10
661.5210689555113
 20
468.9596237104457
 30
0.0
  0
VERTEX
  5
C88
330
C79
100
AcDbEntity
  8
0
100
AcDbVertex
100
AcDb2dVertex
 10
661.1196846978526
 20
468.7284888420036
 30
0.0
  0
VERTEX
  5
C89
330
C79
100
AcDbEntity
  8
0
100
AcDbVertex
100
AcDb2dVertex
 10
660.7617201111703
 20
468.441196016056
 30
0.0
  0
VERTEX
  5
C8A
330
C79
100
AcDbEntity
  8
0
100
AcDbVertex
100
AcDb2dVertex
 10
660.4559894716052
 20
468.1048193354481
 30
0.0
  0
VERTEX
  5
C8B
330
C79
100
AcDbEntity
  8
0
100
AcDbVertex
100
AcDb2dVertex
 10
660.2100208821649
 20
467.7276415104265
 30
0.0
  0
VERTEX
  5
C8C
330
C79
100
AcDbEntity
  8
0
100
AcDbVertex
100
AcDb2dVertex
 10
660.0298709058446
 20
467.3189499108247
 30
0.0
  0
VERTEX
  5
C8D
330
C79
100
AcDbEntity
  8
0
100
AcDbVertex
100
AcDb2dVertex
 10
659.9199754329446
 20
466.8888078801948
 30
0.0
  0
VERTEX
  5
C8E
330
C79
100
AcDbEntity
  8
0
100
AcDbVertex
100
AcDb2dVertex
 10
659.8843788821158
 20
466.5320066157256
 30
0.0
  0
SEQEND
  5
C8F
330
C79
100
AcDbEntity
  8
0
  0
POLYLINE
  5
C90
330
A
100
AcDbEntity
  8
0
  6
Continuous
 62
     7
370
    15
100
AcDb2dPolyline
 66
     1
 10
0.0
 20
0.0
 30
0.0
 70
   128
  0
VERTEX
  5
C91
330
C90
100
AcDbEntity
  8
0
100
AcDbVertex
100
AcDb2dVertex
 10
663.614198732717
 20
465.2170579816569
 30
0.0
  0
VERTEX
  5
C92
330
C90
100
AcDbEntity
  8
0
100
AcDbVertex
100
AcDb2dVertex
 10
663.5338660634064
 20
465.2562597155124
 30
0.0
  0
VERTEX
  5
C93
330
C90
100
AcDbEntity
  8
0
100
AcDbVertex
100
AcDb2dVertex
 10
663.2168218556645
 20
465.360507867737
 30
0.0
  0
VERTEX
  5
C94
330
C90
100
AcDbEntity
  8
0
100
AcDbVertex
100
AcDb2dVertex
 10
662.8830404547301
 20
465.3958479516028
 30
0.0
  0
VERTEX
  5
C95
330
C90
100
AcDbEntity
  8
0
100
AcDbVertex
100
AcDb2dVertex
 10
662.5492590537954
 20
465.360507867737
 30
0.0
  0
VERTEX
  5
C96
330
C90
100
AcDbEntity
  8
0
100
AcDbVertex
100
AcDb2dVertex
 10
662.2322148460538
 20
465.2562597155124
 30
0.0
  0
VERTEX
  5
C97
330
C90
100
AcDbEntity
  8
0
100
AcDbVertex
100
AcDb2dVertex
 10
662.151882176743
 20
465.2170579816569
 30
0.0
  0
SEQEND
  5
C98
330
C90
100
AcDbEntity
  8
0
  0
LINE
  5
C9A
330
A
100
AcDbEntity
  8
0
  6
Continuous
 62
     7
370
    15
100
AcDbLine
 10
626.38304045473
 20
445.9546726433477
 30
0.0
 11
626.38304045473
 21
447.6867234509166
 31
0.0
  0
LINE
  5
C9B
330
A
100
AcDbEntity
  8
0
  6
Continuous
 62
     7
370
    15
100
AcDbLine
 10
628.38304045473
 20
445.9546726433477
 30
0.0
 11
628.38304045473
 21
447.6867234509166
 31
0.0
  0
LINE
  5
C9C
330
A
100
AcDbEntity
  8
0
  6
Continuous
 62
     7
370
    15
100
AcDbLine
 10
636.38304045473
 20
446.6216052686671
 30
0.0
 11
636.38304045473
 21
443.2405710282099
 31
0.0
  0
LINE
  5
C9D
330
A
100
AcDbEntity
  8
0
  6
Continuous
 62
     7
370
    15
100
AcDbLine
 10
632.38304045473
 20
443.2405710282099
 30
0.0
 11
632.38304045473
 21
446.6216052686671
 31
0.0
  0
LINE
  5
C9E
330
A
100
AcDbEntity
  8
0
  6
Continuous
 62
     7
370
    15
100
AcDbLine
 10
629.38304045473
 20
448.2798021379336
 30
0.0
 11
631.1150912622988
 21
445.6575091610599
 31
0.0
  0
LINE
  5
C9F
330
A
100
AcDbEntity
  8
0
  6
Continuous
 62
     7
370
    15
100
AcDbLine
 10
641.88304045473
 20
442.0694563752859
 30
0.0
 11
641.88304045473
 21
448.0694563752861
 31
0.0
  0
LINE
  5
CA0
330
A
100
AcDbEntity
  8
0
  6
Continuous
 62
     7
370
    15
100
AcDbLine
 10
631.1150912622988
 20
445.6575091610599
 30
0.0
 11
631.1150912622988
 21
448.0694563752861
 31
0.0
  0
LINE
  5
CA1
330
A
100
AcDbEntity
  8
0
  6
Continuous
 62
     7
370
    15
100
AcDbLine
 10
636.38304045473
 20
446.6216052686671
 30
0.0
 11
632.38304045473
 21
446.6216052686671
 31
0.0
  0
LINE
  5
CA2
330
A
100
AcDbEntity
  8
0
  6
Continuous
 62
     7
370
    15
100
AcDbLine
 10
631.1150912622988
 20
448.0694563752861
 30
0.0
 11
641.88304045473
 21
448.0694563752861
 31
0.0
  0
LINE
  5
CA3
330
A
100
AcDbEntity
  8
0
  6
Continuous
 62
     7
370
    15
100
AcDbLine
 10
641.88304045473
 20
451.3080609715052
 30
0.0
 11
629.38304045473
 21
451.3080609715053
 31
0.0
  0
LINE
  5
CA4
330
A
100
AcDbEntity
  8
0
  6
Continuous
 62
     7
370
    15
100
AcDbLine
 10
641.88304045473
 20
453.3813681444114
 30
0.0
 11
629.38304045473
 21
453.3813681444114
 31
0.0
  0
LINE
  5
CA5
330
A
100
AcDbEntity
  8
0
  6
Continuous
 62
     7
370
    15
100
AcDbLine
 10
626.38304045473
 20
447.6867234509166
 30
0.0
 11
626.38304045473
 21
451.1508250660543
 31
0.0
  0
LINE
  5
CA6
330
A
100
AcDbEntity
  8
0
  6
Continuous
 62
     7
370
    15
100
AcDbLine
 10
629.38304045473
 20
450.8171907031885
 30
0.0
 11
629.38304045473
 21
451.3080609715053
 31
0.0
  0
LINE
  5
CA7
330
A
100
AcDbEntity
  8
0
  6
Continuous
 62
     7
370
    15
100
AcDbLine
 10
626.38304045473
 20
451.1508250660543
 30
0.0
 11
629.38304045473
 21
451.1508250660543
 31
0.0
  0
LINE
  5
CA8
330
A
100
AcDbEntity
  8
0
  6
Continuous
 62
     7
370
    15
100
AcDbLine
 10
629.38304045473
 20
451.3080609715053
 30
0.0
 11
629.38304045473
 21
453.3813681444114
 31
0.0
  0
LINE
  5
CA9
330
A
100
AcDbEntity
  8
0
  6
Continuous
 62
     7
370
    15
100
AcDbLine
 10
628.38304045473
 20
447.6867234509166
 30
0.0
 11
626.38304045473
 21
447.6867234509166
 31
0.0
  0
LINE
  5
CAA
330
A
100
AcDbEntity
  8
0
  6
Continuous
 62
     7
370
    15
100
AcDbLine
 10
629.38304045473
 20
448.2798021379336
 30
0.0
 11
629.38304045473
 21
450.8171907031885
 31
0.0
  0
LINE
  5
CAB
330
A
100
AcDbEntity
  8
0
  6
Continuous
 62
     7
370
    15
100
AcDbLine
 10
629.38304045473
 20
450.8171907031885
 30
0.0
 11
631.1150912622988
 21
448.0694563752861
 31
0.0
  0
LINE
  5
CAC
330
A
100
AcDbEntity
  8
0
  6
Continuous
 62
     7
370
    15
100
AcDbLine
 10
641.88304045473
 20
448.0694563752861
 30
0.0
 11
641.88304045473
 21
451.3080609715052
 31
0.0
  0
LINE
  5
CAD
330
A
100
AcDbEntity
  8
0
  6
Continuous
 62
     7
370
    15
100
AcDbLine
 10
641.88304045473
 20
451.3080609715052
 30
0.0
 11
641.88304045473
 21
453.3813681444114
 31
0.0
  0
LINE
  5
CAE
330
A
100
AcDbEntity
  8
0
  6
Continuous
 62
     7
370
    15
100
AcDbLine
 10
636.38304045473
 20
443.2405710282099
 30
0.0
 11
632.38304045473
 21
443.2405710282099
 31
0.0
  0
LINE
  5
CAF
330
A
100
AcDbEntity
  8
0
  6
Continuous
 62
     7
370
    15
100
AcDbLine
 10
636.38304045473
 20
439.2405710282099
 30
0.0
 11
632.38304045473
 21
439.2405710282099
 31
0.0
  0
LINE
  5
CB0
330
A
100
AcDbEntity
  8
0
  6
Continuous
 62
     7
370
    15
100
AcDbLine
 10
626.38304045473
 20
439.9905710282099
 30
0.0
 11
626.38304045473
 21
442.4905710282098
 31
0.0
  0
LINE
  5
CB1
330
A
100
AcDbEntity
  8
0
  6
Continuous
 62
     7
370
    15
100
AcDbLine
 10
626.38304045473
 20
445.9546726433477
 30
0.0
 11
628.38304045473
 21
445.9546726433477
 31
0.0
  0
LINE
  5
CB2
330
A
100
AcDbEntity
  8
0
  6
Continuous
 62
     7
370
    15
100
AcDbLine
 10
626.38304045473
 20
442.4905710282098
 30
0.0
 11
626.38304045473
 21
445.9546726433477
 31
0.0
  0
LINE
  5
CB3
330
A
100
AcDbEntity
  8
0
  6
Continuous
 62
     7
370
    15
100
AcDbLine
 10
632.38304045473
 20
442.4905710282098
 30
0.0
 11
632.38304045473
 21
443.2405710282099
 31
0.0
  0
LINE
  5
CB4
330
A
100
AcDbEntity
  8
0
  6
Continuous
 62
     7
370
    15
100
AcDbLine
 10
632.38304045473
 20
442.4905710282098
 30
0.0
 11
626.38304045473
 21
442.4905710282098
 31
0.0
  0
LINE
  5
CB5
330
A
100
AcDbEntity
  8
0
  6
Continuous
 62
     7
370
    15
100
AcDbLine
 10
631.1150912622988
 20
445.6575091610599
 30
0.0
 11
632.38304045473
 21
445.6575091610597
 31
0.0
  0
LINE
  5
CB6
330
A
100
AcDbEntity
  8
0
  6
Continuous
 62
     7
370
    15
100
AcDbLine
 10
632.38304045473
 20
439.9905710282099
 30
0.0
 11
626.38304045473
 21
439.9905710282099
 31
0.0
  0
LINE
  5
CB7
330
A
100
AcDbEntity
  8
0
  6
Continuous
 62
     7
370
    15
100
AcDbLine
 10
632.38304045473
 20
439.2405710282099
 30
0.0
 11
632.38304045473
 21
439.9905710282099
 31
0.0
  0
LINE
  5
CB8
330
A
100
AcDbEntity
  8
0
  6
Continuous
 62
     7
370
    15
100
AcDbLine
 10
639.38304045473
 20
439.9905710282099
 30
0.0
 11
639.38304045473
 21
442.4905710282098
 31
0.0
  0
LINE
  5
CB9
330
A
100
AcDbEntity
  8
0
  6
Continuous
 62
     7
370
    15
100
AcDbLine
 10
639.38304045473
 20
445.6575091610597
 30
0.0
 11
639.38304045473
 21
442.4905710282098
 31
0.0
  0
LINE
  5
CBA
330
A
100
AcDbEntity
  8
0
  6
Continuous
 62
     7
370
    15
100
AcDbLine
 10
639.38304045473
 20
442.4905710282098
 30
0.0
 11
636.38304045473
 21
442.4905710282098
 31
0.0
  0
LINE
  5
CBB
330
A
100
AcDbEntity
  8
0
  6
Continuous
 62
     7
370
    15
100
AcDbLine
 10
636.38304045473
 20
442.4905710282098
 30
0.0
 11
636.38304045473
 21
443.2405710282099
 31
0.0
  0
LINE
  5
CBC
330
A
100
AcDbEntity
  8
0
  6
Continuous
 62
     7
370
    15
100
AcDbLine
 10
641.88304045473
 20
442.0694563752859
 30
0.0
 11
639.38304045473
 21
442.0694563752859
 31
0.0
  0
LINE
  5
CBD
330
A
100
AcDbEntity
  8
0
  6
Continuous
 62
     7
370
    15
100
AcDbLine
 10
639.38304045473
 20
445.6575091610597
 30
0.0
 11
636.38304045473
 21
445.6575091610597
 31
0.0
  0
LINE
  5
CBE
330
A
100
AcDbEntity
  8
0
  6
Continuous
 62
     7
370
    15
100
AcDbLine
 10
636.38304045473
 20
439.2405710282099
 30
0.0
 11
636.38304045473
 21
439.9905710282099
 31
0.0
  0
LINE
  5
CBF
330
A
100
AcDbEntity
  8
0
  6
Continuous
 62
     7
370
    15
100
AcDbLine
 10
636.38304045473
 20
439.9905710282099
 30
0.0
 11
639.38304045473
 21
439.9905710282099
 31
0.0
  0
DIMENSION
  5
D3E
330
A
100
AcDbEntity
  8
AM_5
100
AcDbDimension
  2
*D0
 10
593.3014493166681
 20
324.8983667889618
 30
0.0
 11
588.1594149092798
 21
338.0785225002513
 31
0.0
 70
   163
 71
     5
 42
3.998935999999778
  3
比例0.838
100
AcDbDiametricDimension
 15
591.5670463908567
 25
329.3440197770991
 35
0.0
 40
0.0
1001
ACAD
1000
DSTYLE
1002
{
1070
   140
1040
2.5
1070
   340
1005
17
1002
}
  0
DIMENSION
  5
D3F
330
A
100
AcDbEntity
  8
AM_5
100
AcDbDimension
  2
*D1
 10
598.3227689187797
 20
319.3242905722343
 30
0.0
 11
610.185060331145
 21
328.6656030230789
 31
0.0
 70
   162
 71
     5
 42
0.5759441717015371
  3
ISO-25
100
AcDb2LineAngularDimension
 13
588.2851352329923
 23
324.4268134662038
 33
0.0
 14
597.5644248335345
 24
330.4526635453342
 34
0.0
 15
580.4277374286034
 25
319.3242905722343
 35
0.0
 16
611.0438067548408
 26
325.2753074600105
 36
0.0
1001
ACAD
1000
DSTYLE
1002
{
1070
   340
1005
17
1002
}
  0
DIMENSION
  5
D40
330
A
100
AcDbEntity
  8
AM_5
100
AcDbDimension
  2
*D2
 10
597.5644248335345
 20
330.4526635453342
 30
0.0
 11
594.4998075174985
 21
347.1123238575991
 31
0.0
 70
   162
 71
     5
 42
0.94249227753352
  3
ISO-25
100
AcDb2LineAngularDimension
 13
580.4282001600596
 23
319.3244903536692
 33
0.0
 14
581.4335276711459
 24
338.5072820086396
 34
0.0
 15
588.2851352329923
 25
324.4268134662038
 35
0.0
 16
600.0301907703232
 26
343.5305823918735
 36
0.0
1001
ACAD
1000
DSTYLE
1002
{
1070
   340
1005
17
1002
}
  0
DIMENSION
  5
D41
330
A
100
AcDbEntity
  8
AM_5
100
AcDbDimension
  2
*D3
 10
602.0745206173452
 20
317.7586162901123
 30
0.0
 11
591.1871387442181
 21
310.6817111508332
 31
0.0
 70
   161
  1
<>
 71
     5
 42
4.496908340817771
  3
比例0.838
100
AcDbAlignedDimension
 13
590.4331610600748
 23
325.8217135239994
 33
0.0
 14
594.9324297614785
 24
328.7462823658946
 34
0.0
1001
ACAD
1000
DSTYLE
1002
{
1070
   140
1040
2.5
1002
}
  0
LINE
  5
D42
330
A
100
AcDbEntity
  8
CENTER
370
     9
100
AcDbLine
 10
588.3017445780374
 20
324.520664275032
 30
0.0
 11
597.5644248335345
 21
330.4526635453342
 31
0.0
  0
LINE
  5
D43
330
A
100
AcDbEntity
  8
CENTER
370
     9
100
AcDbLine
 10
580.4277374286034
 20
319.3242905722343
 30
0.0
 11
598.3227689187797
 21
319.3242905722343
 31
0.0
  0
LINE
  5
D44
330
A
100
AcDbEntity
  8
0
370
     9
100
AcDbLine
 10
594.3866780073085
 20
330.5219895072017
 30
0.0
 11
592.7833259800202
 21
329.4819103335196
 31
0.0
  0
ARC
  5
D45
330
A
100
AcDbEntity
  8
0
370
     9
100
AcDbCircle
 10
592.4342478537623
 20
327.1211932830301
 30
0.0
 40
2.386
100
AcDbArc
 50
81.59029999999935
 51
344.4100000000001
  0
ARC
  5
D46
330
A
100
AcDbEntity
  8
0
370
     9
100
AcDbCircle
 10
580.4277689187797
 20
319.3242897476351
 30
0.0
 40
17.895
100
AcDbArc
 50
38.7399999999996
 51
81.26030000000197
  0
LINE
  5
D47
330
A
100
AcDbEntity
  8
CENTER
370
     9
100
AcDbLine
 10
580.4277374286034
 20
340.1448935416777
 30
0.0
 11
580.4277374286034
 21
316.9382905722343
 31
0.0
  0
LINE
  5
D48
330
A
100
AcDbEntity
  8
CENTER
370
     9
100
AcDbLine
 10
580.4282001600596
 20
319.3244903536692
 30
0.0
 11
581.4335276711459
 21
338.5072820086396
 31
0.0
  0
ARC
  5
D49
330
A
100
AcDbEntity
  8
0
370
     9
100
AcDbCircle
 10
581.1768459837974
 20
333.6206572830302
 30
0.0
 40
2.386
100
AcDbArc
 50
135.5540999999975
 51
38.37299999999767
  0
LINE
  5
D4A
330
A
100
AcDbEntity
  8
CENTER
370
     9
100
AcDbLine
 10
580.4277276070084
 20
319.3243150635211
 30
0.0
 11
580.4282072988102
 21
319.3246265691435
 31
0.0
  0
POINT
  5
D4B
330
A
100
AcDbEntity
  8
CENTER
370
     9
100
AcDbPoint
 10
580.4277276070084
 20
319.3243150635211
 30
0.0
  0
POINT
  5
D4C
330
A
100
AcDbEntity
  8
0
370
     9
100
AcDbPoint
 10
581.0530329746012
 20
331.2373328604642
 30
0.0
  0
POINT
  5
D4D
330
A
100
AcDbEntity
  8
0
370
     9
100
AcDbPoint
 10
590.4331680312652
 20
325.8217093604641
 30
0.0
  0
ARC
  5
D4E
330
A
100
AcDbEntity
  8
0
370
     9
100
AcDbCircle
 10
580.4277689187797
 20
319.3242897476351
 30
0.0
 40
17.895
100
AcDbArc
 50
92.73860000000167
 51
110.4065999999994
  0
LINE
  5
D4F
330
A
100
AcDbEntity
  8
0
370
     9
100
AcDbLine
 10
579.5737812830158
 20
337.1979857734561
 30
0.0
 11
579.4742856419974
 21
335.2910322680809
 31
0.0
  0
LINE
  5
D50
330
A
100
AcDbEntity
  8
0
370
     9
100
AcDbLine
 10
583.1478731668646
 20
337.0107165072017
 30
0.0
 11
583.0471845258462
 21
335.1016966652129
 31
0.0
  0
DIMENSION
  5
D51
330
A
100
AcDbEntity
  8
AM_5
100
AcDbDimension
  2
*D4
 10
599.1602878498148
 20
329.3544760804022
 30
0.0
 11
602.6095755800369
 21
324.0428355367236
 31
0.0
 70
   161
 71
     5
 42
3.000155552048411
  3
比例0.838
100
AcDbAlignedDimension
 13
594.3857564570897
 23
330.5227543245486
 33
0.0
 14
596.3355868303665
 24
327.5201639714015
 34
0.0
1001
ACAD
1000
DSTYLE
1002
{
1070
   140
1040
2.5
1002
}
  0
ARC
  5
D52
330
A
100
AcDbEntity
  8
0
370
     9
100
AcDbCircle
 10
580.4277689187797
 20
319.3242897476351
 30
0.0
 40
17.895
100
AcDbArc
 50
0.0000026401799677
 51
27.26100000000144
  0
LINE
  5
D53
330
A
100
AcDbEntity
  8
0
370
     9
100
AcDbLine
 10
596.3359038911574
 20
327.5203697734561
 30
0.0
 11
594.7319553638688
 21
326.4792574314673
 31
0.0
  0
DIMENSION
  5
FE9
330
A
100
AcDbEntity
  8
AM_5
100
AcDbDimension
  2
*D7
 10
626.3830404547299
 20
413.1578173709632
 30
0.0
 11
647.7307858510162
 21
413.1578173709632
 31
0.0
 70
   160
  1
(<>)
 71
     5
 42
43.50000000000011
  3
ISO-25$0
100
AcDbAlignedDimension
 13
669.88304045473
 23
406.7308565635737
 33
0.0
 14
626.3830404547299
 24
405.6459200730349
 34
0.0
100
AcDbRotatedDimension
1001
ACAD
1000
DSTYLE
1002
{
1070
   272
1070
     8
1002
}
  0
DIMENSION
  5
1014
330
A
100
AcDbEntity
  8
AM_5
100
AcDbDimension
  2
*D8
 10
641.8830404547301
 20
365.4486681408541
 30
0.0
 11
655.88304045473
 21
365.4486681408541
 31
0.0
 70
   160
 71
     5
 42
27.99999999999989
  3
AM_ISO$0
100
AcDbAlignedDimension
 13
669.88304045473
 23
376.7308565635738
 33
0.0
 14
641.8830404547301
 24
371.7308565635738
 34
0.0
 50
0.0000000000001132
100
AcDbRotatedDimension
  0
DIMENSION
  5
1033
330
A
100
AcDbEntity
  8
AM_5
100
AcDbDimension
  2
*D9
 10
639.38304045473
 20
353.7308565635738
 30
0.0
 11
654.6330404547299
 21
356.4808565635738
 31
0.0
 70
    32
 71
     5
 42
30.5
  3
AM_ISO$0
100
AcDbAlignedDimension
 13
669.88304045473
 23
376.7308565635738
 33
0.0
 14
639.38304045473
 24
368.2308565635738
 34
0.0
100
AcDbRotatedDimension
1001
ACAD
1000
DSTYLE
1002
{
1070
   174
1070
     1
1002
}
  0
DIMENSION
  5
1183
330
A
100
AcDbEntity
  8
AM_5
100
AcDbDimension
  2
*D11
 10
639.38304045473
 20
353.7308565635738
 30
0.0
 11
635.8830404547299
 21
356.4808565635738
 31
0.0
 70
    32
 71
     5
 42
7.0
  3
AM_ISO$0
100
AcDbAlignedDimension
 13
632.38304045473
 23
368.2308565635738
 33
0.0
 14
639.38304045473
 24
368.2308565635738
 34
0.0
100
AcDbRotatedDimension
1001
ACAD
1000
DSTYLE
1002
{
1070
   174
1070
     1
1002
}
  0
DIMENSION
  5
11BA
330
A
100
AcDbEntity
  8
AM_5
100
AcDbDimension
  2
*D12
 10
636.38304045473
 20
359.7308565635738
 30
0.0
 11
624.50804045473
 21
359.7308565635738
 31
0.0
 70
   160
 71
     5
 42
4.0
  3
AM_ISO$0
100
AcDbAlignedDimension
 13
632.38304045473
 23
368.2308565635738
 33
0.0
 14
636.38304045473
 24
368.2308565635738
 34
0.0
 50
0.0000000000001132
100
AcDbRotatedDimension
  0
DIMENSION
  5
1268
330
A
100
AcDbEntity
  8
AM_5
100
AcDbDimension
  2
*D13
 10
626.38304045473
 20
489.2296633909408
 30
0.0
 11
618.5334981318954
 21
491.9800078791298
 31
0.0
 70
    32
 71
     5
 42
2.0
  3
AM_ISO$0
100
AcDbAlignedDimension
 13
628.38304045473
 23
477.2296633909408
 33
0.0
 14
626.38304045473
 24
483.1937650060786
 34
0.0
100
AcDbRotatedDimension
  0
DIMENSION
  5
1290
330
A
100
AcDbEntity
  8
AM_5
100
AcDbDimension
  2
*D14
 10
626.38304045473
 20
495.2296633909408
 30
0.0
 11
618.6105530813147
 21
497.9796633909408
 31
0.0
 70
    32
 71
     5
 42
3.0
  3
AM_ISO$0
100
AcDbAlignedDimension
 13
629.38304045473
 23
474.9045338963549
 33
0.0
 14
626.38304045473
 24
483.1937650060786
 34
0.0
100
AcDbRotatedDimension
  0
DIMENSION
  5
1419
330
A
100
AcDbEntity
  8
AM_5
100
AcDbDimension
  2
*D15
 10
662.8830404547301
 20
488.5921680171441
 30
0.0
 11
666.38304045473
 21
491.3421680171441
 31
0.0
 70
    32
 71
     5
 42
6.999999999999886
  3
AM_ISO$0
100
AcDbAlignedDimension
 13
669.88304045473
 23
476.5921680171441
 33
0.0
 14
662.8830404547301
 24
467.8573458740689
 34
0.0
 50
359.9999999999997
100
AcDbRotatedDimension
1001
ACAD
1000
DSTYLE
1002
{
1070
   174
1070
     1
1002
}
  0
DIMENSION
  5
144B
330
A
100
AcDbEntity
  8
AM_5
100
AcDbDimension
  2
*D16
 10
648.8830404547301
 20
488.5921680171441
 30
0.0
 11
655.88304045473
 21
491.3421680171441
 31
0.0
 70
    32
 71
     5
 42
14.0
  3
AM_ISO$0
100
AcDbAlignedDimension
 13
662.8830404547301
 23
467.8573458740689
 33
0.0
 14
648.8830404547301
 24
458.1460680225773
 34
0.0
100
AcDbRotatedDimension
1001
ACAD
1000
DSTYLE
1002
{
1070
   174
1070
     1
1002
}
  0
DIMENSION
  5
14EB
330
A
100
AcDbEntity
  8
AM_5
100
AcDbDimension
  2
*D17
 10
679.9891438572763
 20
476.6007372394287
 30
0.0
 11
679.9891438572761
 21
461.5594490961972
 31
0.0
 70
   160
  1
%%c<>
 71
     5
 42
29.99999999999989
  3
AM_ISO$0
100
AcDbAlignedDimension
 13
669.88304045473
 23
446.6007372394288
 33
0.0
 14
669.88304045473
 24
476.6007372394287
 34
0.0
 50
89.99999999999971
100
AcDbRotatedDimension
  0
LINE
  5
150D
330
A
100
AcDbEntity
  8
0
  6
Continuous
100
AcDbLine
 10
641.8830404547301
 20
446.6007372394288
 30
0.0
 11
669.88304045473
 21
446.6007372394288
 31
0.0
  0
LINE
  5
150E
330
A
100
AcDbEntity
  8
0
  6
Continuous
100
AcDbLine
 10
669.88304045473
 20
476.6007372394287
 30
0.0
 11
641.88304045473
 21
476.6007372394287
 31
0.0
  0
DIMENSION
  5
15C0
330
A
100
AcDbEntity
  8
AM_5
100
AcDbDimension
  2
*D18
 10
614.6662326453125
 20
378.2308565635738
 30
0.0
 11
614.6662326453125
 21
376.2308565635739
 31
0.0
 70
   160
 71
     5
 42
4.0
  3
AM_ISO$0
100
AcDbAlignedDimension
 13
626.38304045473
 23
374.2308565635738
 33
0.0
 14
626.38304045473
 24
378.2308565635738
 34
0.0
 50
90.0
100
AcDbRotatedDimension
  0
DIMENSION
  5
1628
330
A
100
AcDbEntity
  8
AM_5
100
AcDbDimension
  2
*D19
 10
608.5472417162255
 20
368.2308565635738
 30
0.0
 11
608.5472417162253
 21
380.3750701402688
 31
0.0
 70
   160
 71
     5
 42
23.5
  3
AM_ISO$0
100
AcDbAlignedDimension
 13
618.4124422474504
 23
391.7308565635738
 33
0.0
 14
626.38304045473
 24
368.2308565635738
 34
0.0
 50
89.99999999999989
100
AcDbRotatedDimension
  0
DIMENSION
  5
1664
330
A
100
AcDbEntity
  8
AM_5
100
AcDbDimension
  2
*D20
 10
620.1351291220736
 20
372.2308565635738
 30
0.0
 11
617.3847846338845
 21
364.3813142407392
 31
0.0
 70
    32
  1
<>
 71
     5
 42
2.0
  3
AM_ISO$0
100
AcDbAlignedDimension
 13
626.38304045473
 23
374.2308565635738
 33
0.0
 14
626.38304045473
 24
372.2308565635738
 34
0.0
 50
90.0
100
AcDbRotatedDimension
1001
ACAD
1000
DSTYLE
1002
{
1070
   286
1070
     0
1070
   284
1070
     8
1070
    48
1040
0.1
1070
    47
1040
0.1
1070
   272
1070
     3
1070
   274
1070
     3
1002
}
  0
DIMENSION
  5
16E8
330
A
100
AcDbEntity
  8
AM_5
100
AcDbDimension
  2
*D21
 10
565.2501063984357
 20
378.5230335593848
 30
0.0
 11
535.6931946835394
 21
418.2343332324929
 31
0.0
 70
   163
 71
     5
 42
30.60000000000014
  3
AM_ISO$3
100
AcDbDiametricDimension
 15
549.8042769949988
 25
404.9386795677627
 35
0.0
 40
0.0
1001
ACAD
1000
DSTYLE
1002
{
1070
   172
1070
     1
1002
}
  0
ARC
  5
170F
330
A
100
AcDbEntity
  8
CENTER
  6
CENTER
100
AcDbCircle
 10
557.5271916967174
 20
391.7308565635737
 30
0.0
 40
15.30000000000001
100
AcDbArc
 50
297.3737290538945
 51
297.3739438263623
  0
ARC
  5
1710
330
A
100
AcDbEntity
  8
CENTER
  6
CENTER
100
AcDbCircle
 10
557.5271916967174
 20
391.7308565635737
 30
0.0
 40
15.30000000000001
100
AcDbArc
 50
298.1749681459318
 51
307.3126126157084
  0
DIMENSION
  5
1721
330
A
100
AcDbEntity
  8
AM_5
100
AcDbDimension
  2
*D22
 10
532.5647208165944
 20
410.7617479993683
 30
0.0
 11
528.1831509561871
 21
408.6726463842309
 31
0.0
 70
    33
 71
     5
 42
7.999999999999886
  3
AM_ISO$0
100
AcDbAlignedDimension
 13
535.1755947077829
 23
400.0167549484362
 33
0.0
 14
539.1755947077832
 24
406.9449581787114
 34
0.0
  0
DIMENSION
  5
174D
330
A
100
AcDbEntity
  8
AM_5
100
AcDbDimension
  2
*D23
 10
527.5025429900725
 20
415.993798806955
 30
0.0
 11
522.1206747941423
 21
412.1728186283432
 31
0.0
 70
    33
 71
     5
 42
11.99999999999977
  3
AM_ISO$0
100
AcDbAlignedDimension
 13
538.0044800548588
 23
396.0740961550369
 33
0.0
 14
544.0044800548589
 24
406.4664010004498
 34
0.0
  0
DIMENSION
  5
178D
330
A
100
AcDbEntity
  8
AM_5
100
AcDbDimension
  2
*D24
 10
576.8135506619245
 20
397.0257935665194
 30
0.0
 11
527.7785470891915
 21
384.8474384597444
 31
0.0
 70
   163
 71
     5
 42
40.0
  3
AM_ISO$3
100
AcDbDiametricDimension
 15
538.2408327315097
 25
386.435919560628
 35
0.0
 40
0.0
1001
ACAD
1000
DSTYLE
1002
{
1070
   172
1070
     1
1002
}
  0
ARC
  5
17B2
330
A
100
AcDbEntity
  8
CENTER
  6
CENTER
100
AcDbCircle
 10
557.5271916967172
 20
391.7308565635737
 30
0.0
 40
19.99999999999999
100
AcDbArc
 50
169.42008916492
 51
202.2512102901783
  0
DIMENSION
  5
17B7
330
A
100
AcDbEntity
  8
AM_5
100
AcDbDimension
  2
*D25
 10
547.7024339312377
 20
386.855221916379
 30
0.0
 11
521.2980832950271
 21
370.075471963808
 31
0.0
 70
   163
  1
3-<>\P%%C6.5*5 depth
 71
     5
 42
3.399999999999408
  3
AM_ISO$3
100
AcDbDiametricDimension
 15
545.701314367586
 25
384.1064912107682
 35
0.0
 40
0.0
  0
TEXT
  5
17F6
330
A
100
AcDbEntity
  8
AM_5
100
AcDbText
 10
513.6439056287022
 20
365.3350419529065
 30
0.0
 40
3.5
  1
P.C.D%%C25
100
AcDbText
  0
DIMENSION
  5
1806
330
A
100
AcDbEntity
  8
AM_5
100
AcDbDimension
  2
*D26
 10
576.7018320203986
 20
370.2308565635738
 30
0.0
 11
576.7018320203984
 21
360.3813142407393
 31
0.0
 70
   160
 71
     5
 42
2.0
  3
AM_ISO$0
100
AcDbAlignedDimension
 13
561.5271916967172
 23
368.2308565635738
 33
0.0
 14
558.5271916967172
 24
370.2308565635738
 34
0.0
 50
90.00000000000003
100
AcDbRotatedDimension
1001
ACAD
1000
DSTYLE
1002
{
1070
   173
1070
     1
1070
   174
1070
     1
1070
   344
1005
10CF
1002
}
  0
DIMENSION
  5
1843
330
A
100
AcDbEntity
  8
AM_5
100
AcDbDimension
  2
*D27
 10
576.7018320203986
 20
376.2308565635738
 30
0.0
 11
573.9518320203984
 21
373.2308565635739
 31
0.0
 70
    32
 71
     5
 42
6.0
  3
AM_ISO$0
100
AcDbAlignedDimension
 13
558.5271916967172
 23
370.2308565635738
 33
0.0
 14
558.5271916967172
 24
376.2308565635738
 34
0.0
 50
90.0
100
AcDbRotatedDimension
1001
ACAD
1000
DSTYLE
1002
{
1070
   173
1070
     1
1070
   174
1070
     1
1070
   343
1005
10CF
1002
}
  0
DIMENSION
  5
189E
330
A
100
AcDbEntity
  8
AM_5
100
AcDbDimension
  2
*D28
 10
555.0271916967171
 20
360.7793168040679
 30
0.0
 11
547.2547043233019
 21
360.7793168040679
 31
0.0
 70
   160
  1
<>
 71
     5
 42
5.0
  3
AM_ISO$0
100
AcDbAlignedDimension
 13
560.0271916967171
 23
368.2308565635738
 33
0.0
 14
555.0271916967171
 24
368.2308565635738
 34
0.0
 50
0.0000000000001132
100
AcDbRotatedDimension
1001
ACAD
1000
DSTYLE
1002
{
1070
   286
1070
     0
1070
   284
1070
     8
1070
    48
1040
0.1
1070
    47
1040
0.1
1070
   272
1070
     3
1070
   274
1070
     3
1002
}
  0
LEADER
  5
18EE
330
A
100
AcDbEntity
  8
AM_5
100
AcDbLeader
  3
AM_ISO$7
 73
     0
 75
     1
 40
10.33518623681008
 41
66.85000000000004
 76
     4
 10
577.8787886856516
 20
403.4808565635736
 30
0.0
 10
583.6593709927575
 20
411.9191657722085
 30
0.0
 10
574.6533910299036
 20
432.6498389411713
 30
0.0
 10
571.6533910299037
 20
432.6498389411713
 30
0.0
340
18EF
213
-0.6639940007497671
223
6.189053853397126
233
0.0
1001
ACAD
1000
DSTYLE
1002
{
1070
   140
1040
3.5
1002
}
  0
MTEXT
  5
18EF
102
{ACAD_REACTORS
330
18EE
102
}
330
A
100
AcDbEntity
  8
AM_5
100
AcDbMText
 10
571.3173850306534
 20
427.4607850877742
 30
0.0
 40
3.5
 41
0.0
 71
     9
 72
     1
  1
6-M3*0.5*5 depth\PThread for mounting attachment
 73
     1
 44
1.0
1001
ACAD
1000
MTEXTBEGIN
1070
    73
1070
     1
1070
    44
1040
1.0
1070
    74
1070
     0
1000
MTEXTEND
  0
DIMENSION
  5
18FF
330
A
100
AcDbEntity
  8
AM_5
100
AcDbDimension
  2
*D29
 10
746.6561462007647
 20
362.8828336545451
 30
0.0
 11
731.0353153932733
 21
356.4124736785453
 31
0.0
 70
   161
  1
<>*2 depth
 71
     5
 42
2.0
  3
AM_ISO$0
100
AcDbAlignedDimension
 13
741.6880602177436
 23
380.1031060732922
 33
0.0
 14
739.8403011527212
 24
379.3377392085619
 34
0.0
1001
ACAD
1000
DSTYLE
1002
{
1070
   286
1070
     0
1070
   284
1070
     8
1070
    48
1040
0.1
1070
    47
1040
0.1
1070
   272
1070
     3
1070
   274
1070
     3
1002
}
  0
TEXT
  5
197A
330
A
100
AcDbEntity
  8
AM_5
100
AcDbText
 10
727.9101384691232
 20
349.4763902558295
 30
0.0
 40
3.5
  1

 50
22.69433771930897
100
AcDbText
  0
DIMENSION
  5
19B7
330
A
100
AcDbEntity
  8
AM_5
100
AcDbDimension
  2
*D30
 10
729.7767700327385
 20
397.7391450650989
 30
0.0
 11
768.1654849912008
 21
374.0805425153309
 31
0.0
 70
   163
  1
<>*1.5 depth
 71
     5
 42
17.00000000000023
  3
AM_ISO$3
100
AcDbDiametricDimension
 15
741.8018220962334
 25
385.722568062048
 35
0.0
 40
0.0
1001
ACAD
1000
DSTYLE
1002
{
1070
   286
1070
     0
1070
   284
1070
     8
1070
    48
1040
0.1
1070
    47
1040
0.1
1070
   172
1070
     1
1070
   272
1070
     3
1070
   274
1070
     3
1002
}
  0
DIMENSION
  5
1A12
330
A
100
AcDbEntity
  8
AM_5
100
AcDbDimension
  2
*D31
 10
764.0190600775774
 20
416.9539101840429
 30
0.0
 11
766.4355300079659
 21
411.1200357050324
 31
0.0
 70
   161
  1
<>
 71
     5
 42
12.50000000000023
  3
AM_ISO$0
100
AcDbAlignedDimension
 13
735.7892960644862
 23
391.7308565635737
 33
0.0
 14
731.0057531599226
 24
403.279350719965
 34
0.0
1001
ACAD
1000
DSTYLE
1002
{
1070
   174
1070
     1
1070
   272
1070
     3
1070
   274
1070
     3
1002
}
  0
DIMENSION
  5
1A9C
330
A
100
AcDbEntity
  8
AM_5
100
AcDbDimension
  2
*D33
 10
773.0121207381578
 20
395.2427411700272
 30
0.0
 11
776.1268146011115
 21
394.909301310264
 31
0.0
 70
    32
  1
<>
 71
     5
 42
3.000000000000056
  3
AM_ISO$0
100
AcDbAlignedDimension
 13
741.1468641175977
 23
378.7965431084159
 33
0.0
 14
739.9988138205022
 24
381.5681817059497
 34
0.0
 50
112.4999999999985
100
AcDbRotatedDimension
1001
ACAD
1000
DSTYLE
1002
{
1070
    42
1040
0.5
1070
    44
1040
0.5
1070
   174
1070
     1
1070
   271
1070
     0
1070
   272
1070
     3
1070
   274
1070
     3
1002
}
  0
DIMENSION
  5
1AE9
330
A
100
AcDbEntity
  8
AM_5
100
AcDbDimension
  2
*D34
 10
724.9639785171806
 20
397.9808565635739
 30
0.0
 11
705.3395122730544
 21
378.0533041256509
 31
0.0
 70
   164
  1
3-M3*0.5
 71
     5
 42
1.500000000000227
  3
AM_ISO$4
100
AcDbRadialDimension
 15
724.3114822014354
 25
396.6302091047825
 35
0.0
 40
0.0
  0
LEADER
  5
1B36
330
A
100
AcDbEntity
  8
AM_5
100
AcDbLeader
  3
AM_ISO$7
 73
     0
 74
     0
 75
     1
 40
4.676852903476758
 41
56.69862204724413
 76
     3
 10
664.4574510885556
 20
469.0438865151766
 30
0.0
 10
675.7325581244185
 20
481.5927868046543
 30
0.0
 10
678.7325581244186
 20
481.5927868046543
 30
0.0
340
1B37
1001
ACAD
1000
DSTYLE
1002
{
1070
   140
1040
3.5
1070
   174
1070
     1
1002
}
  0
MTEXT
  5
1B37
102
{ACAD_REACTORS
330
1B36
102
}
330
A
100
AcDbEntity
  8
AM_5
100
AcDbMText
 10
679.7325581244185
 20
482.5927868046543
 30
0.0
 40
3.5
 41
0.0
 71
     7
 72
     1
  1
M3*0.5(Finger Opening port)
 73
     1
 44
1.0
1001
ACAD
1000
MTEXTBEGIN
1070
    73
1070
     1
1070
    44
1040
1.0
1070
    74
1070
     0
1000
MTEXTEND
  0
LWPOLYLINE
  5
1C11
330
A
100
AcDbEntity
  8
0
 62
     4
100
AcDbPolyline
 90
        4
 70
     1
 43
0.0
 10
490.0838504715185
 20
305.4005743864972
 10
806.2997504715182
 20
305.4005743864972
 10
806.2997504715182
 20
512.3815843441435
 10
490.0838504715185
 20
512.3815843441435
1001
GENIUS_GENREC_14
1002
{
1000
PYDIR
1011
490.0838504715185
1021
512.3815843441435
1031
0.0
1002
}
1002
{
1000
PXDIR
1011
806.2997504715182
1021
305.4005743864972
1031
0.0
1002
}
1002
{
1000
PORI
1011
490.0838504715185
1021
305.4005743864972
1031
0.0
1002
}
1002
{
1000
PINS
1011
490.0838504715185
1021
305.4005743864972
1031
0.0
1002
}
1002
{
1000
PINS2
1011
806.2997504715182
1021
512.3815843441435
1031
0.0
1002
}
1002
{
1000
C
1070
     1
1002
}
1001
GENIUS_GENODEF_13
1002
{
1000
HIER
1070
     0
1002
}
1002
{
1000
MANEDIT
1070
     0
1002
}
1002
{
1000
NOSEL
1070
     0
1002
}
1002
{
1000
BEHIND
1070
     0
1002
}
1002
{
1000
OTHER
1070
     0
1002
}
1002
{
1000
REACTOR
1002
}
1001
GENIUS_GENOBJ-N-REC_13
1002
{
1000
OWNER
1000
GEN
1002
}
  0
LWPOLYLINE
  5
1C12
330
A
100
AcDbEntity
  8
LOGO
 62
     4
100
AcDbPolyline
 90
        4
 70
     1
 43
0.0
 10
490.0838504715185
 20
305.4005743864972
 10
806.2997504715182
 20
305.4005743864972
 10
806.2997504715182
 20
284.1751681935556
 10
490.0838504715185
 20
284.1751681935556
1001
GENIUS_GENREC_14
1002
{
1000
PYDIR
1011
490.0838504715185
1021
284.1751681935556
1031
0.0
1002
}
1002
{
1000
PXDIR
1011
806.2997504715182
1021
305.4005743864972
1031
0.0
1002
}
1002
{
1000
PORI
1011
490.0838504715185
1021
305.4005743864972
1031
0.0
1002
}
1002
{
1000
PINS
1011
490.0838504715185
1021
305.4005743864972
1031
0.0
1002
}
1002
{
1000
PINS2
1011
806.2997504715182
1021
284.1751681935556
1031
0.0
1002
}
1002
{
1000
C
1070
     1
1002
}
1001
GENIUS_GENOBJ-N-REC_13
1002
{
1000
OWNER
1000
GEN
1002
}
1001
GENIUS_GENODEF_13
1002
{
1000
HIER
1070
     0
1002
}
1002
{
1000
MANEDIT
1070
     0
1002
}
1002
{
1000
NOSEL
1070
     0
1002
}
1002
{
1000
BEHIND
1070
     0
1002
}
1002
{
1000
OTHER
1070
     0
1002
}
1002
{
1000
REACTOR
1002
}
  0
LINE
  5
1C13
330
A
100
AcDbEntity
  8
LOGO
 62
     4
100
AcDbLine
 10
580.1246190783246
 20
293.7266009803798
 30
0.0
 11
580.1246190783246
 21
285.9439520429676
 31
0.0
  0
LINE
  5
1C14
330
A
100
AcDbEntity
  8
LOGO
 62
     4
100
AcDbLine
 10
565.9743482830305
 20
293.7266009803798
 30
0.0
 11
565.9743482830305
 21
285.9439520429676
 31
0.0
  0
LINE
  5
1C15
330
A
100
AcDbEntity
  8
LOGO
 62
     4
100
AcDbLine
 10
580.1246190783246
 20
285.9439520429676
 30
0.0
 11
565.9743482830305
 21
285.9439520429676
 31
0.0
  0
LINE
  5
1C16
330
A
100
AcDbEntity
  8
LOGO
 62
     4
100
AcDbLine
 10
586.7127608938625
 20
303.2780337672029
 30
0.0
 11
565.9743482830305
 21
303.2780337672029
 31
0.0
  0
LINE
  5
1C17
330
A
100
AcDbEntity
  8
LOGO
 62
     4
100
AcDbLine
 10
586.7127608938625
 20
296.9104119093207
 30
0.0
 11
565.9743482830305
 21
296.9104119093207
 31
0.0
  0
LINE
  5
1C18
330
A
100
AcDbEntity
  8
LOGO
 62
     4
100
AcDbLine
 10
565.9743482830305
 20
303.2780337672029
 30
0.0
 11
565.9743482830305
 21
296.9104119093207
 31
0.0
  0
LINE
  5
1C19
330
A
100
AcDbEntity
  8
LOGO
 62
     4
100
AcDbLine
 10
586.7127608938625
 20
303.2780337672029
 30
0.0
 11
586.7127608938625
 21
296.9104119093207
 31
0.0
  0
LINE
  5
1C1A
330
A
100
AcDbEntity
  8
LOGO
 62
     4
100
AcDbLine
 10
573.7877724052826
 20
296.9104119093207
 30
0.0
 11
573.7877724052826
 21
293.7266009803798
 31
0.0
  0
TEXT
  5
1C1B
330
A
100
AcDbEntity
  8
LOGO
  6
Continuous
100
AcDbText
 10
567.1057749612758
 20
298.7311658299261
 30
0.0
 40
3.229199999999999
  1
MCHG2L
  7
CHINESET
100
AcDbText
  0
LINE
  5
1C1C
330
A
100
AcDbEntity
  8
LOGO
 62
     4
100
AcDbLine
 10
580.1246190783246
 20
293.7266009803798
 30
0.0
 11
565.9743482830305
 21
293.7266009803798
 31
0.0
  0
TEXT
  5
1C1D
330
A
100
AcDbEntity
  8
LOGO
  6
Continuous
100
AcDbText
 10
570.5151253821648
 20
287.0424564369929
 30
139.1078155071351
 40
1.592135999999999
  1
Model
 41
0.8
  7
CHINESET
100
AcDbText
  0
TEXT
  5
1C1E
330
A
100
AcDbEntity
  8
LOGO
100
AcDbText
 10
570.0913505361229
 20
289.993933451195
 30
139.1078155071351
 40
2.65356
  1
型號
  7
CHINESET
100
AcDbText
  0
LINE
  5
1C1F
330
A
100
AcDbEntity
  8
LOGO
  6
Continuous
100
AcDbLine
 10
587.6149802324741
 20
300.0716677153191
 30
0.0
 11
590.4266897007174
 21
300.0716677153191
 31
0.0
  0
LINE
  5
1C20
330
A
100
AcDbEntity
  8
LOGO
 62
     4
100
AcDbLine
 10
596.1267029499163
 20
293.7266009803798
 30
0.0
 11
596.1267029499163
 21
285.9439520429676
 31
0.0
  0
LINE
  5
1C21
330
A
100
AcDbEntity
  8
LOGO
 62
     4
100
AcDbLine
 10
581.9764321546222
 20
293.7266009803798
 30
0.0
 11
581.9764321546222
 21
285.9439520429676
 31
0.0
  0
LINE
  5
1C22
330
A
100
AcDbEntity
  8
LOGO
 62
     4
100
AcDbLine
 10
596.1267029499163
 20
285.9439520429676
 30
0.0
 11
581.9764321546222
 21
285.9439520429676
 31
0.0
  0
LINE
  5
1C23
330
A
100
AcDbEntity
  8
LOGO
 62
     4
100
AcDbLine
 10
602.1942874984602
 20
303.2780337672029
 30
0.0
 11
591.3136358238971
 21
303.2780337672029
 31
0.0
  0
LINE
  5
1C24
330
A
100
AcDbEntity
  8
LOGO
 62
     4
100
AcDbLine
 10
602.1942874984602
 20
296.9104119093207
 30
0.0
 11
591.3136358238971
 21
296.9104119093207
 31
0.0
  0
LINE
  5
1C25
330
A
100
AcDbEntity
  8
LOGO
 62
     4
100
AcDbLine
 10
591.3136358238971
 20
303.2780337672029
 30
0.0
 11
591.3136358238971
 21
296.9104119093207
 31
0.0
  0
LINE
  5
1C26
330
A
100
AcDbEntity
  8
LOGO
 62
     4
100
AcDbLine
 10
602.1942874984602
 20
303.2780337672029
 30
0.0
 11
602.1942874984602
 21
296.9104119093207
 31
0.0
  0
LINE
  5
1C27
330
A
100
AcDbEntity
  8
LOGO
 62
     4
100
AcDbLine
 10
596.2059975618453
 20
296.9104119093207
 30
0.0
 11
596.2059975618453
 21
295.3185064448502
 31
0.0
  0
TEXT
  5
1C28
330
A
100
AcDbEntity
  8
LOGO
  6
Continuous
100
AcDbText
 10
594.0308620644783
 20
298.2396436626914
 30
0.0
 40
3.229199999999999
  1
16
  7
CHINESET
100
AcDbText
  0
LINE
  5
1C29
330
A
100
AcDbEntity
  8
LOGO
 62
     4
100
AcDbLine
 10
596.1267029499163
 20
293.7266009803798
 30
0.0
 11
581.9764321546222
 21
293.7266009803798
 31
0.0
  0
LINE
  5
1C2A
330
A
100
AcDbEntity
  8
LOGO
  6
Continuous
100
AcDbLine
 10
614.3838001366881
 20
300.0716677153191
 30
0.0
 11
617.1955096049317
 21
300.0716677153191
 31
0.0
  0
LINE
  5
1C2B
330
A
100
AcDbEntity
  8
LOGO
 62
     4
100
AcDbLine
 10
629.1624331556554
 20
293.7266009803798
 30
0.0
 11
629.1624331556554
 21
285.9439520429676
 31
0.0
  0
LINE
  5
1C2C
330
A
100
AcDbEntity
  8
LOGO
 62
     4
100
AcDbLine
 10
612.8729786488534
 20
293.7266009803798
 30
0.0
 11
612.8729786488534
 21
285.9439520429676
 31
0.0
  0
LINE
  5
1C2D
330
A
100
AcDbEntity
  8
LOGO
 62
     4
100
AcDbLine
 10
629.1624331556554
 20
285.9439520429676
 30
0.0
 11
612.8729786488534
 21
285.9439520429676
 31
0.0
  0
LINE
  5
1C2E
330
A
100
AcDbEntity
  8
LOGO
 62
     4
100
AcDbLine
 10
624.8574285573002
 20
303.2780337672029
 30
0.0
 11
618.0824557281108
 21
303.2780337672029
 31
0.0
  0
LINE
  5
1C2F
330
A
100
AcDbEntity
  8
LOGO
 62
     4
100
AcDbLine
 10
624.8574285573002
 20
296.9104119093207
 30
0.0
 11
618.0824557281108
 21
296.9104119093207
 31
0.0
  0
LINE
  5
1C30
330
A
100
AcDbEntity
  8
LOGO
 62
     4
100
AcDbLine
 10
618.0824557281108
 20
303.2780337672029
 30
0.0
 11
618.0824557281108
 21
296.9104119093207
 31
0.0
  0
LINE
  5
1C31
330
A
100
AcDbEntity
  8
LOGO
 62
     4
100
AcDbLine
 10
624.8574285573002
 20
303.2780337672029
 30
0.0
 11
624.8574285573002
 21
296.9104119093207
 31
0.0
  0
LINE
  5
1C32
330
A
100
AcDbEntity
  8
LOGO
 62
     4
100
AcDbLine
 10
621.4699421427054
 20
296.9104119093207
 30
0.0
 11
621.4699421427054
 21
293.7266009803798
 31
0.0
  0
LINE
  5
1C33
330
A
100
AcDbEntity
  8
LOGO
 62
     4
100
AcDbLine
 10
629.1624331556554
 20
293.7266009803798
 30
0.0
 11
612.8729786488534
 21
293.7266009803798
 31
0.0
  0
TEXT
  5
1C34
330
A
100
AcDbEntity
  8
LOGO
  6
Continuous
100
AcDbText
 10
584.9403355492886
 20
287.0424564369929
 30
139.1078155071351
 40
1.592135999999999
  1
Tube I.D.
 41
0.8
  7
CHINESET
100
AcDbText
  0
TEXT
  5
1C35
330
A
100
AcDbEntity
  8
LOGO
100
AcDbText
 10
585.5823019381359
 20
289.993933451195
 30
139.1078155071351
 40
2.65356
  1
內徑
  7
CHINESET
100
AcDbText
  0
TEXT
  5
1C36
330
A
100
AcDbEntity
  8
LOGO
  6
Continuous
100
AcDbText
 10
614.352691491006
 20
287.0424564369929
 30
139.1078155071351
 40
1.592135999999999
  1
Sensor switch
 41
0.8
  7
CHINESET
100
AcDbText
  0
TEXT
  5
1C37
330
A
100
AcDbEntity
  8
LOGO
100
AcDbText
 10
614.2422980145562
 20
289.993933451195
 30
139.1078155071351
 40
2.65356
  1
感應器型式
  7
CHINESET
100
AcDbText
  0
LINE
  5
1C38
330
A
100
AcDbEntity
  8
LOGO
 62
     4
100
AcDbLine
 10
613.1599385975909
 20
303.2780337672029
 30
0.0
 11
603.0930619888858
 21
303.2780337672029
 31
0.0
  0
LINE
  5
1C39
330
A
100
AcDbEntity
  8
LOGO
 62
     4
100
AcDbLine
 10
613.1599385975909
 20
296.9104119093207
 30
0.0
 11
603.0930619888858
 21
296.9104119093207
 31
0.0
  0
LINE
  5
1C3A
330
A
100
AcDbEntity
  8
LOGO
 62
     4
100
AcDbLine
 10
603.0930619888858
 20
303.2780337672029
 30
0.0
 11
603.0930619888858
 21
296.9104119093207
 31
0.0
  0
LINE
  5
1C3B
330
A
100
AcDbEntity
  8
LOGO
 62
     4
100
AcDbLine
 10
613.1599385975909
 20
303.2780337672029
 30
0.0
 11
613.1599385975909
 21
296.9104119093207
 31
0.0
  0
TEXT
  5
1C3C
330
A
100
AcDbEntity
  8
LOGO
  6
Continuous
100
AcDbText
 10
604.386441282339
 20
298.5504398374717
 30
0.0
 40
3.229199999999999
  1
(M)
  7
CHINESET
100
AcDbText
  0
LINE
  5
1C3D
330
A
100
AcDbEntity
  8
LOGO
 62
     4
100
AcDbLine
 10
610.5470328440114
 20
293.7266009803798
 30
0.0
 11
610.5470328440114
 21
285.9439520429676
 31
0.0
  0
LINE
  5
1C3E
330
A
100
AcDbEntity
  8
LOGO
 62
     4
100
AcDbLine
 10
599.0193814292716
 20
293.7266009803798
 30
0.0
 11
599.0193814292716
 21
285.9439520429676
 31
0.0
  0
LINE
  5
1C3F
330
A
100
AcDbEntity
  8
LOGO
 62
     4
100
AcDbLine
 10
610.5470328440114
 20
285.9439520429676
 30
0.0
 11
599.0193814292716
 21
285.9439520429676
 31
0.0
  0
LINE
  5
1C40
330
A
100
AcDbEntity
  8
LOGO
 62
     4
100
AcDbLine
 10
610.5470328440114
 20
293.7266009803798
 30
0.0
 11
599.0193814292716
 21
293.7266009803798
 31
0.0
  0
TEXT
  5
1C41
330
A
100
AcDbEntity
  8
LOGO
  6
Continuous
100
AcDbText
 10
601.5251961736209
 20
287.0424564369929
 30
139.1078155071351
 40
1.592135999999999
  1
Magnet
 41
0.8
  7
CHINESET
100
AcDbText
  0
TEXT
  5
1C42
330
A
100
AcDbEntity
  8
LOGO
100
AcDbText
 10
600.6761344437412
 20
289.993933451195
 30
139.1078155071351
 40
2.65356
  1
附磁石
  7
CHINESET
100
AcDbText
  0
LINE
  5
1C43
330
A
100
AcDbEntity
  8
LOGO
 62
     4
100
AcDbLine
 10
608.1265002932387
 20
296.9104119093207
 30
0.0
 11
608.1265002932387
 21
295.3185064448502
 31
0.0
  0
LINE
  5
1C44
330
A
100
AcDbEntity
  8
LOGO
 62
     4
100
AcDbLine
 10
596.2059975618453
 20
295.3185064448502
 30
0.0
 11
589.0515675522695
 21
295.3185064448502
 31
0.0
  0
LINE
  5
1C45
330
A
100
AcDbEntity
  8
LOGO
 62
     4
100
AcDbLine
 10
589.0515675522695
 20
293.7266009803798
 30
0.0
 11
589.0515675522695
 21
295.3185064448502
 31
0.0
  0
LINE
  5
1C46
330
A
100
AcDbEntity
  8
LOGO
 62
     4
100
AcDbLine
 10
608.1265002932387
 20
295.3185064448502
 30
0.0
 11
604.7832071366417
 21
295.3185064448502
 31
0.0
  0
LINE
  5
1C47
330
A
100
AcDbEntity
  8
LOGO
 62
     4
100
AcDbLine
 10
604.7832071366414
 20
293.7266009803798
 30
0.0
 11
604.7832071366417
 21
295.3185064448502
 31
0.0
  0
TEXT
  5
1C48
330
A
100
AcDbEntity
  8
LOGO
 62
     7
100
AcDbText
 10
538.0094122270921
 20
296.1020851145189
 30
0.0
 40
2.830054159058823
  1
Order example:
 41
0.8
  7
CHINESET
100
AcDbText
  0
TEXT
  5
1C49
330
A
100
AcDbEntity
  8
LOGO
 62
     7
100
AcDbText
 10
538.5171473468231
 20
300.0862154002832
 30
0.0
 40
4.245081238588234
  1
訂購代號:
  7
CHINESET
100
AcDbText
  0
LINE
  5
1C4A
330
A
100
AcDbEntity
  8
LOGO
 62
     4
100
AcDbLine
 10
536.7797440959891
 20
284.1751681935559
 30
0.0
 11
536.7797440959891
 21
305.4005743864972
 31
0.0
  0
TEXT
  5
1C4B
330
A
100
AcDbEntity
  8
LOGO
  6
Continuous
100
AcDbText
 10
497.7081117860698
 20
288.3448672082284
 30
0.0
 40
3.183810928941176
  1
金器工業股份有限公司
  7
CHINESET
100
AcDbText
  0
TEXT
  5
1C4C
330
A
100
AcDbEntity
  8
LOGO
  6
Continuous
100
AcDbText
 10
491.8600809955345
 20
285.1604325019656
 30
0.0
 40
2.122540619294117
  1
MINDMAN INDUSTRIAL CO., LTD.
 41
0.85
  7
CHINESET
100
AcDbText
  0
LINE
  5
1C4D
330
A
100
AcDbEntity
  8
LOGO
100
AcDbLine
 10
536.7797440959891
 20
301.155493147909
 30
0.0
 11
505.6491483463418
 21
301.155493147909
 31
0.0
  0
LINE
  5
1C4E
330
A
100
AcDbEntity
  8
LOGO
100
AcDbLine
 10
536.7797440959891
 20
296.9104119093207
 30
0.0
 11
505.6491483463418
 21
296.9104119093207
 31
0.0
  0
LINE
  5
1C4F
330
A
100
AcDbEntity
  8
LOGO
 62
     4
100
AcDbLine
 10
536.7797440959891
 20
292.6653306707327
 30
0.0
 11
490.0838504715185
 21
292.6653306707327
 31
0.0
  0
LINE
  5
1C50
330
A
100
AcDbEntity
  8
LOGO
 62
     4
100
AcDbLine
 10
505.6491483463418
 20
292.6653306707327
 30
0.0
 11
505.6491483463418
 21
305.4005743864972
 31
0.0
  0
TEXT
  5
1C51
330
A
100
AcDbEntity
  8
LOGO
100
AcDbText
 10
526.9254411994872
 20
293.7266009803794
 30
0.0
 40
2.122540619294117
  1
mm
  7
CHINESET
 72
     1
 11
529.553348632899
 21
294.7878712900265
 31
0.0
100
AcDbText
 73
     2
  0
TEXT
  5
1C52
330
A
100
AcDbEntity
  8
LOGO
100
AcDbText
 10
525.8136342084283
 20
302.216763457556
 30
0.0
 40
2.122540619294117
  1
1 : 1
  7
CHINESET
 72
     1
 11
529.553348632899
 21
303.278033767203
 31
0.0
100
AcDbText
 73
     2
  0
LINE
  5
1C53
330
A
100
AcDbEntity
  8
LOGO
 62
     4
100
AcDbLine
 10
522.6294733006949
 20
292.6653306707327
 30
0.0
 11
522.6294733006949
 21
305.4005743864972
 31
0.0
  0
CIRCLE
  5
1C54
330
A
100
AcDbEntity
  8
LOGO
  6
Continuous
100
AcDbCircle
 10
526.5596227405018
 20
299.0374926585319
 30
0.0
 40
1.232397042536645
  0
CIRCLE
  5
1C55
330
A
100
AcDbEntity
  8
LOGO
  6
Continuous
100
AcDbCircle
 10
526.5596227405018
 20
299.0374926585319
 30
0.0
 40
0.7220755689889128
  0
LINE
  5
1C56
330
A
100
AcDbEntity
  8
LOGO
100
AcDbLine
 10
534.3041487571077
 20
297.8050956159951
 30
0.0
 11
534.3041487571077
 21
300.2698897010688
 31
0.0
  0
LINE
  5
1C57
330
A
100
AcDbEntity
  8
LOGO
100
AcDbLine
 10
530.4406547717211
 20
298.3154170895431
 30
0.0
 11
530.4406547717211
 21
299.759568227521
 31
0.0
  0
LINE
  5
1C58
330
A
100
AcDbEntity
  8
LOGO
  6
Continuous
100
AcDbLine
 10
530.4406547717211
 20
299.759568227521
 30
0.0
 11
534.3041487571077
 21
300.2698897010688
 31
0.0
  0
LINE
  5
1C59
330
A
100
AcDbEntity
  8
LOGO
  6
Continuous
100
AcDbLine
 10
530.4406547717211
 20
298.3154170895431
 30
0.0
 11
534.3041487571077
 21
297.8050956159951
 31
0.0
  0
TEXT
  5
1C5A
330
A
100
AcDbEntity
  8
LOGO
100
AcDbText
 10
507.399296794483
 20
302.2178080149473
 30
139.1078155071351
 40
2.122540619294117
  1
比例 Scale:
 41
0.9
  7
CHINESET
 72
     4
 11
514.1393108235184
 21
303.278033767203
 31
139.1078155071351
100
AcDbText
  0
TEXT
  5
1C5B
330
A
100
AcDbEntity
  8
LOGO
100
AcDbText
 10
507.2770611963183
 20
298.0015391510714
 30
139.1078155071351
 40
2.122540619294117
  1
投影  View:
 41
0.9
  7
CHINESET
 72
     4
 11
514.1393108235184
 21
299.0329525286147
 31
139.1078155071351
100
AcDbText
  0
TEXT
  5
1C5C
330
A
100
AcDbEntity
  8
LOGO
100
AcDbText
 10
507.4845774443653
 20
293.7266009803794
 30
139.1078155071351
 40
2.122540619294117
  1
單位  Unit:
 41
0.9
  7
CHINESET
 72
     4
 11
514.1393108235184
 21
294.7878712900265
 31
139.1078155071351
100
AcDbText
  0
SOLID
  5
1C5D
330
A
100
AcDbEntity
  8
LOGO
 62
     5
100
AcDbTrace
 10
492.2860204282219
 20
296.1937523304424
 30
0.0
 11
493.2037512965388
 21
296.1937523304422
 31
0.0
 12
497.032904229861
 22
304.8963726334479
 32
0.0
 13
497.9506350981783
 23
304.8963726334473
 33
0.0
  0
SOLID
  5
1C5E
330
A
100
AcDbEntity
  8
LOGO
 62
     5
100
AcDbTrace
 10
493.5835020006711
 20
296.1937523304424
 30
0.0
 11
494.501232868988
 21
296.1937523304424
 31
0.0
 12
497.9506350981783
 22
304.2001630092071
 32
0.0
 13
497.032904229861
 23
300.8351498253783
 33
0.0
  0
SOLID
  5
1C5F
330
A
100
AcDbEntity
  8
LOGO
 62
     2
100
AcDbTrace
 10
493.2037512965388
 20
296.1937523304422
 30
0.0
 11
493.5835020006711
 21
296.1937523304424
 31
0.0
 12
497.9506350981783
 22
304.8963726334473
 32
0.0
 13
498.3303858023101
 23
304.8963726334473
 33
0.0
  0
SOLID
  5
1C60
330
A
100
AcDbEntity
  8
LOGO
 62
     5
100
AcDbTrace
 10
490.8146727911334
 20
293.0291631293499
 30
0.0
 11
491.1311317112429
 21
293.0291631293499
 31
0.0
 12
492.0223046614644
 22
294.611457729896
 32
0.0
 13
492.3387635815731
 23
294.611457729896
 33
0.0
  0
SOLID
  5
1C61
330
A
100
AcDbEntity
  8
LOGO
 62
     5
100
AcDbTrace
 10
492.0223046614644
 20
294.611457729896
 30
0.0
 11
492.3387635815731
 21
294.611457729896
 31
0.0
 12
492.0223046614644
 22
293.0291631293499
 32
0.0
 13
492.3387635815731
 23
293.0291631293499
 33
0.0
  0
SOLID
  5
1C62
330
A
100
AcDbEntity
  8
LOGO
 62
     5
100
AcDbTrace
 10
492.0223046614644
 20
293.0291631293499
 30
0.0
 11
492.3387635815731
 21
293.0291631293499
 31
0.0
 12
493.2299365317962
 22
294.611457729896
 32
0.0
 13
493.5463954519052
 23
294.611457729896
 33
0.0
  0
SOLID
  5
1C63
330
A
100
AcDbEntity
  8
LOGO
 62
     5
100
AcDbTrace
 10
493.2299365317962
 20
294.611457729896
 30
0.0
 11
493.5463954519052
 21
294.611457729896
 31
0.0
 12
493.2299365317962
 22
293.0291631293499
 32
0.0
 13
493.5463954519052
 23
293.0291631293499
 33
0.0
  0
POLYLINE
  5
1C64
330
A
100
AcDbEntity
  8
LOGO
 62
     5
100
AcDb2dPolyline
 66
     1
 10
0.0
 20
0.0
 30
0.0
 40
0.3169660658145882
 41
0.3169660658145882
  0
VERTEX
  5
1C65
330
1C64
100
AcDbEntity
  8
LOGO
 62
     5
100
AcDbVertex
100
AcDb2dVertex
 10
503.8375317307696
 20
293.9785398896774
 30
0.0
 42
1.0
  0
VERTEX
  5
1C66
330
1C64
100
AcDbEntity
  8
LOGO
 62
     5
100
AcDbVertex
100
AcDb2dVertex
 10
502.8866335333256
 20
293.9785398896774
 30
0.0
 42
1.0
  0
SEQEND
  5
1C67
330
1C64
100
AcDbEntity
  8
LOGO
 62
     5
  0
POLYLINE
  5
1C68
330
A
100
AcDbEntity
  8
LOGO
 62
     5
100
AcDb2dPolyline
 66
     1
 10
0.0
 20
0.0
 30
0.0
 70
     1
  0
VERTEX
  5
1C69
330
1C68
100
AcDbEntity
  8
LOGO
 62
     5
100
AcDbVertex
100
AcDb2dVertex
 10
501.0941481351916
 20
293.8203104296226
 30
0.0
 42
1.000000057330635
  0
VERTEX
  5
1C6A
330
1C68
100
AcDbEntity
  8
LOGO
 62
     5
100
AcDbVertex
100
AcDb2dVertex
 10
502.0435248955196
 20
293.8203104296226
 30
0.0
 42
1.000000057330635
  0
SEQEND
  5
1C6B
330
1C68
100
AcDbEntity
  8
LOGO
 62
     5
  0
CIRCLE
  5
1C6C
330
A
100
AcDbEntity
  8
LOGO
 62
     5
100
AcDbCircle
 10
501.5688365153565
 20
293.8203104296226
 30
0.0
 40
0.4746883801639274
  0
POLYLINE
  5
1C6D
330
A
100
AcDbEntity
  8
LOGO
 62
     5
100
AcDb2dPolyline
 66
     1
 10
0.0
 20
0.0
 30
0.0
 70
     1
 40
0.3169660658145882
 41
0.3169660658145882
  0
VERTEX
  5
1C6E
330
1C6D
100
AcDbEntity
  8
LOGO
 62
     5
100
AcDbVertex
100
AcDb2dVertex
 10
500.9349043837268
 20
293.8203104296226
 30
0.0
 42
1.0
  0
VERTEX
  5
1C6F
330
1C6D
100
AcDbEntity
  8
LOGO
 62
     5
100
AcDbVertex
100
AcDb2dVertex
 10
502.2027686469849
 20
293.8203104296226
 30
0.0
 42
1.0
  0
SEQEND
  5
1C70
330
1C6D
100
AcDbEntity
  8
LOGO
 62
     5
  0
LINE
  5
1C71
330
A
100
AcDbEntity
  8
LOGO
100
AcDbLine
 10
503.9950004722656
 20
293.0291631293499
 30
0.0
 11
503.9950004722656
 21
293.9785398896774
 31
0.0
  0
SOLID
  5
1C72
330
A
100
AcDbEntity
  8
LOGO
 62
     5
100
AcDbTrace
 10
502.043493249629
 20
294.611457729896
 30
0.0
 11
502.3599521697375
 21
294.611457729896
 31
0.0
 12
502.043493249629
 22
293.0291631293499
 32
0.0
 13
502.3599521697375
 23
293.0291631293499
 33
0.0
  0
SOLID
  5
1C73
330
A
100
AcDbEntity
  8
LOGO
 62
     5
100
AcDbTrace
 10
502.7291647918285
 20
293.0291631293499
 30
0.0
 11
503.0456237119381
 21
293.0291631293499
 31
0.0
 12
502.7291647918285
 22
294.611457729896
 32
0.0
 13
503.0456237119381
 23
294.611457729896
 33
0.0
  0
SOLID
  5
1C74
330
A
100
AcDbEntity
  8
LOGO
 62
     5
100
AcDbTrace
 10
503.6785415521569
 20
293.9785398896774
 30
0.0
 11
503.9950004722656
 21
293.9785398896774
 31
0.0
 12
503.6785415521569
 22
293.0291631293499
 32
0.0
 13
503.9950004722656
 23
293.0291631293499
 33
0.0
  0
SOLID
  5
1C75
330
A
100
AcDbEntity
  8
LOGO
 62
     5
100
AcDbTrace
 10
502.6975188998177
 20
304.2001630092071
 30
0.0
 11
501.779788031501
 21
300.8351498253783
 31
0.0
 12
502.6975188998177
 22
296.1937523304422
 32
0.0
 13
501.779788031501
 23
296.1937523304422
 33
0.0
  0
SOLID
  5
1C76
330
A
100
AcDbEntity
  8
LOGO
 62
     5
100
AcDbTrace
 10
503.077269603949
 20
296.1937523304422
 30
0.0
 11
503.9950004722656
 21
296.1937523304422
 31
0.0
 12
503.077269603949
 22
304.8963726334473
 32
0.0
 13
503.9950004722656
 23
304.8963726334479
 33
0.0
  0
SOLID
  5
1C77
330
A
100
AcDbEntity
  8
LOGO
 62
     2
100
AcDbTrace
 10
502.6975188998177
 20
304.8963726334479
 30
0.0
 11
503.077269603949
 21
304.8963726334473
 31
0.0
 12
502.6975188998177
 22
296.1937523304422
 32
0.0
 13
503.077269603949
 23
296.1937523304422
 33
0.0
  0
POLYLINE
  5
1C78
330
A
100
AcDbEntity
  8
LOGO
 62
     5
100
AcDb2dPolyline
 66
     1
 10
0.0
 20
0.0
 30
0.0
 40
0.3169660658145882
 41
0.3169660658145882
  0
VERTEX
  5
1C79
330
1C78
100
AcDbEntity
  8
LOGO
 62
     5
100
AcDbVertex
100
AcDb2dVertex
 10
499.3015994452751
 20
293.9785398896774
 30
0.0
 42
1.0
  0
VERTEX
  5
1C7A
330
1C78
100
AcDbEntity
  8
LOGO
 62
     5
100
AcDbVertex
100
AcDb2dVertex
 10
498.3507012478312
 20
293.9785398896774
 30
0.0
 42
1.0
  0
SEQEND
  5
1C7B
330
1C78
100
AcDbEntity
  8
LOGO
 62
     5
  0
POLYLINE
  5
1C7C
330
A
100
AcDbEntity
  8
LOGO
 62
     5
100
AcDb2dPolyline
 66
     1
 10
0.0
 20
0.0
 30
0.0
 40
0.3169660658145882
 41
0.3169660658145882
  0
VERTEX
  5
1C7D
330
1C7C
100
AcDbEntity
  8
LOGO
 62
     5
100
AcDbVertex
100
AcDb2dVertex
 10
500.250976205602
 20
293.9785398896774
 30
0.0
 42
1.0
  0
VERTEX
  5
1C7E
330
1C7C
100
AcDbEntity
  8
LOGO
 62
     5
100
AcDbVertex
100
AcDb2dVertex
 10
499.3000780081586
 20
293.9785398896774
 30
0.0
 42
1.0
  0
SEQEND
  5
1C7F
330
1C7C
100
AcDbEntity
  8
LOGO
 62
     5
  0
POLYLINE
  5
1C80
330
A
100
AcDbEntity
  8
LOGO
 62
     5
100
AcDb2dPolyline
 66
     1
 10
0.0
 20
0.0
 30
0.0
 40
0.3169660658145882
 41
0.3169660658145882
  0
VERTEX
  5
1C81
330
1C80
100
AcDbEntity
  8
LOGO
 62
     5
100
AcDbVertex
100
AcDb2dVertex
 10
495.7150439201077
 20
293.9785398896774
 30
0.0
 42
1.0
  0
VERTEX
  5
1C82
330
1C80
100
AcDbEntity
  8
LOGO
 62
     5
100
AcDbVertex
100
AcDb2dVertex
 10
494.7641457226644
 20
293.9785398896774
 30
0.0
 42
1.0
  0
SEQEND
  5
1C83
330
1C80
100
AcDbEntity
  8
LOGO
 62
     5
  0
SOLID
  5
1C84
330
A
100
AcDbEntity
  8
LOGO
 62
     5
100
AcDbTrace
 10
494.6066769811676
 20
294.611457729896
 30
0.0
 11
494.9231359012764
 21
294.611457729896
 31
0.0
 12
494.6066769811676
 22
293.0291631293499
 32
0.0
 13
494.9231359012764
 23
293.0291631293499
 33
0.0
  0
SOLID
  5
1C85
330
A
100
AcDbEntity
  8
LOGO
 62
     5
100
AcDbTrace
 10
495.5560537414957
 20
293.9785398896774
 30
0.0
 11
495.8725126616053
 21
293.9785398896774
 31
0.0
 12
495.5560537414957
 22
293.0291631293499
 32
0.0
 13
495.8725126616053
 23
293.0291631293499
 33
0.0
  0
POLYLINE
  5
1C86
330
A
100
AcDbEntity
  8
LOGO
 62
     5
100
AcDb2dPolyline
 66
     1
 10
0.0
 20
0.0
 30
0.0
 70
     1
 40
0.3169660658145882
 41
0.3169660658145882
  0
VERTEX
  5
1C87
330
1C86
100
AcDbEntity
  8
LOGO
 62
     5
100
AcDbVertex
100
AcDb2dVertex
 10
496.3989720982319
 20
293.8203104296226
 30
0.0
 42
1.0
  0
VERTEX
  5
1C88
330
1C86
100
AcDbEntity
  8
LOGO
 62
     5
100
AcDbVertex
100
AcDb2dVertex
 10
497.6668363614906
 20
293.8203104296226
 30
0.0
 42
1.0
  0
SEQEND
  5
1C89
330
1C86
100
AcDbEntity
  8
LOGO
 62
     5
  0
SOLID
  5
1C8A
330
A
100
AcDbEntity
  8
LOGO
 62
     5
100
AcDbTrace
 10
497.5075609641337
 20
295.0861461100601
 30
0.0
 11
497.8240198842427
 21
295.0861461100601
 31
0.0
 12
497.5075609641337
 22
293.0291631293499
 32
0.0
 13
497.8240198842427
 23
293.0291631293499
 33
0.0
  0
SOLID
  5
1C8B
330
A
100
AcDbEntity
  8
LOGO
 62
     5
100
AcDbTrace
 10
498.193232506335
 20
294.611457729896
 30
0.0
 11
498.5096914264438
 21
294.611457729896
 31
0.0
 12
498.193232506335
 22
293.0291631293499
 32
0.0
 13
498.5096914264438
 23
293.0291631293499
 33
0.0
  0
SOLID
  5
1C8C
330
A
100
AcDbEntity
  8
LOGO
 62
     5
100
AcDbTrace
 10
499.142609266662
 20
293.9785398896774
 30
0.0
 11
499.4590681867718
 21
293.9785398896774
 31
0.0
 12
499.142609266662
 22
293.0291631293499
 32
0.0
 13
499.4590681867718
 23
293.0291631293499
 33
0.0
  0
SOLID
  5
1C8D
330
A
100
AcDbEntity
  8
LOGO
 62
     5
100
AcDbTrace
 10
500.0919860269901
 20
293.9785398896774
 30
0.0
 11
500.4084449470991
 21
293.9785398896774
 31
0.0
 12
500.0919860269901
 22
293.0291631293493
 32
0.0
 13
500.4084449470991
 23
293.0291631293493
 33
0.0
  0
SOLID
  5
1C8E
330
A
100
AcDbEntity
  8
LOGO
 62
     5
100
AcDbTrace
 10
493.9210054389667
 20
294.8329789739725
 30
0.0
 11
494.237464359077
 21
294.8329789739725
 31
0.0
 12
493.9210054389667
 22
295.0861461100601
 32
0.0
 13
494.237464359077
 23
295.0861461100601
 33
0.0
  0
SOLID
  5
1C8F
330
A
100
AcDbEntity
  8
LOGO
 62
     5
100
AcDbTrace
 10
493.9210054389667
 20
294.611457729896
 30
0.0
 11
494.237464359077
 21
294.611457729896
 31
0.0
 12
493.9210054389667
 22
293.0291631293493
 32
0.0
 13
494.237464359077
 23
293.0291631293499
 33
0.0
  0
SOLID
  5
1C90
330
A
100
AcDbEntity
  8
LOGO
 62
     5
100
AcDbTrace
 10
497.032904229861
 20
296.1937523304424
 30
0.0
 11
497.9506350981783
 21
296.1937523304424
 31
0.0
 12
497.032904229861
 22
300.8351498253783
 32
0.0
 13
497.9506350981783
 23
304.2001630092071
 33
0.0
  0
SOLID
  5
1C91
330
A
100
AcDbEntity
  8
LOGO
 62
     5
100
AcDbTrace
 10
498.3303858023101
 20
304.8963726334473
 30
0.0
 11
499.2481166706264
 21
304.8963726334479
 31
0.0
 12
498.3303858023101
 22
296.8899619546827
 32
0.0
 13
499.2481166706264
 23
300.2549751385114
 33
0.0
  0
SOLID
  5
1C92
330
A
100
AcDbEntity
  8
LOGO
 62
     2
100
AcDbTrace
 10
497.9506350981783
 20
304.8963726334473
 30
0.0
 11
498.3303858023101
 21
304.8963726334473
 31
0.0
 12
497.9506350981783
 22
296.1937523304424
 32
0.0
 13
498.3303858023101
 23
296.1937523304424
 33
0.0
  0
SOLID
  5
1C93
330
A
100
AcDbEntity
  8
LOGO
 62
     5
100
AcDbTrace
 10
498.3303858023101
 20
296.8899619546827
 30
0.0
 11
499.2481166706264
 21
300.2549751385114
 31
0.0
 12
502.6975188998177
 22
304.8963726334479
 32
0.0
 13
501.779788031501
 23
304.8963726334479
 33
0.0
  0
SOLID
  5
1C94
330
A
100
AcDbEntity
  8
LOGO
 62
     5
100
AcDbTrace
 10
498.3303858023101
 20
296.1937523304424
 30
0.0
 11
499.2481166706264
 21
296.1937523304424
 31
0.0
 12
502.6975188998177
 22
304.2001630092071
 32
0.0
 13
501.779788031501
 23
300.8351498253783
 33
0.0
  0
SOLID
  5
1C95
330
A
100
AcDbEntity
  8
LOGO
 62
     2
100
AcDbTrace
 10
497.9506350981783
 20
296.1937523304424
 30
0.0
 11
498.3303858023101
 21
296.1937523304424
 31
0.0
 12
502.6975188998177
 22
304.8963726334479
 32
0.0
 13
503.077269603949
 23
304.8963726334473
 33
0.0
  0
TEXT
  5
1C96
330
A
100
AcDbEntity
  8
LOGO
100
AcDbText
 10
537.621668009383
 20
285.304351425487
 30
0.0
 40
2.122847999999999
  1
01005060
 41
0.7
  7
CHINESET
 72
     1
 11
542.928788009383
 21
285.304351425487
 31
0.0
100
AcDbText
  0
LINE
  5
1C97
330
A
100
AcDbEntity
  8
LOGO
 62
     4
100
AcDbLine
 10
549.5168320959879
 20
288.4202494321447
 30
0.0
 11
549.5168320959891
 21
284.1751681935561
 31
0.0
  0
LINE
  5
1C98
330
A
100
AcDbEntity
  8
LOGO
 62
     4
100
AcDbLine
 10
549.5168320959879
 20
288.4202494321447
 30
0.0
 11
536.7797440959891
 21
288.4202494321447
 31
0.0
  0
LINE
  5
1C99
330
A
100
AcDbEntity
  8
LOGO
  6
AM_ISO08W050x2
 48
0.2
100
AcDbLine
 10
524.8607449636724
 20
299.0374926585319
 30
0.0
 11
528.2585005173311
 21
299.0374926585319
 31
0.0
1001
GENIUS_GENOREF_13
1005
1C9E
  0
LINE
  5
1C9A
330
A
100
AcDbEntity
  8
LOGO
  6
AM_ISO08W050x2
 48
0.2
100
AcDbLine
 10
526.5596227405018
 20
297.3386148817025
 30
0.0
 11
526.5596227405018
 21
300.7363704353612
 31
0.0
1001
GENIUS_GENOREF_13
1005
1C9D
  0
LINE
  5
1C9B
330
A
100
AcDbEntity
  8
LOGO
  6
AM_ISO08W050x2
 48
0.3
100
AcDbLine
 10
530.1316826382031
 20
299.0374926585319
 30
0.0
 11
534.6931900946612
 21
299.0374926585319
 31
0.0
1001
GENIUS_GENOREF_13
1005
1C9C
  0
POINT
  5
1C9C
330
A
100
AcDbEntity
  8
0
 60
     1
100
AcDbPoint
 10
-1593.379040456162
 20
-905.8533651541795
 30
0.0
1001
GENIUS_GENOBJ-N-CRS_13
1002
{
1000
OWNER
1000
GEN
1002
}
1001
GENIUS_GENOLIS_13
1002
{
1000
ENT
1005
0
1005
0
1005
0
1005
1C9B
1002
}
1001
GENIUS_GENOENT_13
1002
{
1000
MYREF
1005
1C9C
1002
}
1002
{
1000
GRP
1005
0
1002
}
1001
GENIUS_GENODEF_13
1002
{
1000
HIER
1070
    10
1002
}
1002
{
1000
MANEDIT
1070
     1
1002
}
1002
{
1000
NOSEL
1070
     0
1002
}
1002
{
1000
BEHIND
1070
     0
1002
}
1002
{
1000
OTHER
1070
     0
1002
}
1002
{
1000
REACTOR
1002
}
  0
POINT
  5
1C9D
330
A
100
AcDbEntity
  8
0
 60
     1
100
AcDbPoint
 10
-1604.703625679017
 20
-896.9777786755432
 30
0.0
1001
GENIUS_GENOBJ-N-CRS_13
1002
{
1000
OWNER
1000
GEN
1002
}
1001
GENIUS_GENOLIS_13
1002
{
1000
ENT
1005
0
1005
0
1005
0
1005
1C9A
1002
}
1001
GENIUS_GENOENT_13
1002
{
1000
MYREF
1005
1C9D
1002
}
1002
{
1000
GRP
1005
0
1002
}
1001
GENIUS_GENODEF_13
1002
{
1000
HIER
1070
    10
1002
}
1002
{
1000
MANEDIT
1070
     1
1002
}
1002
{
1000
NOSEL
1070
     0
1002
}
1002
{
1000
BEHIND
1070
     0
1002
}
1002
{
1000
OTHER
1070
     0
1002
}
1002
{
1000
REACTOR
1002
}
  0
POINT
  5
1C9E
330
A
100
AcDbEntity
  8
0
 60
     1
100
AcDbPoint
 10
-1598.34495198118
 20
-905.8533651541795
 30
0.0
1001
GENIUS_GENOBJ-N-CRS_13
1002
{
1000
OWNER
1000
GEN
1002
}
1001
GENIUS_GENOLIS_13
1002
{
1000
ENT
1005
0
1005
0
1005
0
1005
1C99
1002
}
1001
GENIUS_GENOENT_13
1002
{
1000
MYREF
1005
1C9E
1002
}
1002
{
1000
GRP
1005
0
1002
}
1001
GENIUS_GENODEF_13
1002
{
1000
HIER
1070
    10
1002
}
1002
{
1000
MANEDIT
1070
     1
1002
}
1002
{
1000
NOSEL
1070
     0
1002
}
1002
{
1000
BEHIND
1070
     0
1002
}
1002
{
1000
OTHER
1070
     0
1002
}
1002
{
1000
REACTOR
1002
}
  0
LEADER
  5
1D11
330
A
100
AcDbEntity
  8
AM_5
100
AcDbLeader
  3
AM_ISO$7
 73
     0
 74
     0
 75
     1
 40
4.685602903476759
 41
55.30737204724413
 76
     3
 10
649.2394675579748
 20
453.7741858121188
 30
0.0
 10
661.7048577578839
 20
435.4762261913787
 30
0.0
 10
664.7048577578839
 20
435.4762261913787
 30
0.0
340
1D12
1001
ACAD
1000
DSTYLE
1002
{
1070
   140
1040
3.5
1070
   174
1070
     1
1002
}
  0
MTEXT
  5
1D12
102
{ACAD_REACTORS
330
1D11
102
}
330
A
100
AcDbEntity
  8
AM_5
100
AcDbMText
 10
665.7048577578839
 20
436.4762261913787
 30
0.0
 40
3.5
 41
0.0
 71
     7
 72
     1
  1
M3*0.5(Finger Closing port)
 73
     1
 44
1.0
1001
ACAD
1000
MTEXTBEGIN
1070
    73
1070
     1
1070
    44
1040
1.0
1070
    74
1070
     0
1000
MTEXTEND
  0
MTEXT
  5
1D34
330
A
100
AcDbEntity
  8
AM_5
100
AcDbMText
 10
697.0006607040887
 20
376.7171307142702
 30
0.0
 40
3.5
 41
25.96552756149333
 71
     1
 72
     5
  1
P.C.D%%C25
 73
     1
 44
1.0
1001
ACAD
1000
MTEXTBEGIN
1070
    73
1070
     1
1070
    44
1040
1.0
1070
    74
1070
     0
1000
MTEXTEND
  0
LINE
  5
1D35
330
A
100
AcDbEntity
  8
CENTER
  6
CENTER
100
AcDbLine
 10
735.7892960644862
 20
391.7308565635737
 30
0.0
 11
730.6230697275575
 21
404.2032302524763
 31
0.0
  0
DIMENSION
  5
1D3B
330
A
100
AcDbEntity
  8
AM_5
100
AcDbDimension
  2
*D35
 10
730.6230697275575
 20
404.2032302524763
 30
0.0
 11
729.5635736371265
 21
425.4106746400344
 31
0.0
 70
   162
 71
     5
 42
0.3926990816987095
  3
AM_ISO$2
100
AcDb2LineAngularDimension
 13
735.7892960644862
 23
366.5145438018809
 33
0.0
 14
735.7892960644862
 24
408.4185971103662
 34
0.0
 15
735.7892960644862
 25
391.7308565635737
 35
0.0
 16
726.9246407512532
 26
424.8142005841467
 36
0.0
1001
ACAD
1000
DSTYLE
1002
{
1070
   179
1070
     2
1070
   272
1070
     8
1002
}
  0
LINE
  5
1D85
330
A
100
AcDbEntity
  8
CENTER
  6
CENTER
100
AcDbLine
 10
735.7892960644862
 20
391.7308565635737
 30
0.0
 11
729.677560765799
 21
408.5227112904004
 31
0.0
  0
LINE
  5
1D86
330
A
100
AcDbEntity
  8
CENTER
  6
CENTER
100
AcDbLine
 10
735.7892960644862
 20
391.7308565635737
 30
0.0
 11
741.6256417794426
 21
407.7660846275471
 31
0.0
  0
DIMENSION
  5
1D8C
330
A
100
AcDbEntity
  8
AM_5
100
AcDbDimension
  2
*D36
 10
729.677560765799
 20
408.5227112904004
 30
0.0
 11
730.7725846859497
 21
419.6145388866226
 31
0.0
 70
   162
 71
     5
 42
0.3490658503988688
  3
AM_ISO$2
100
AcDb2LineAngularDimension
 13
735.7892960644862
 23
366.5145438018809
 33
0.0
 14
735.7892960644862
 24
408.4185971103662
 34
0.0
 15
735.7892960644862
 25
391.7308565635737
 35
0.0
 16
732.5002235166437
 26
419.8706706127687
 36
0.0
1001
ACAD
1000
DSTYLE
1002
{
1070
   179
1070
     2
1070
   272
1070
     8
1002
}
  0
DIMENSION
  5
1E24
330
A
100
AcDbEntity
  8
AM_5
100
AcDbDimension
  2
*D37
 10
741.6256417794426
 20
407.7660846275471
 30
0.0
 11
741.6958284745199
 21
419.4397000587011
 31
0.0
 70
   162
 71
     5
 42
0.3490658503988564
  3
AM_ISO$2
100
AcDb2LineAngularDimension
 13
735.7892960644862
 23
366.5145438018809
 33
0.0
 14
735.7892960644862
 24
408.4185971103662
 34
0.0
 15
735.7892960644862
 25
391.7308565635737
 35
0.0
 16
739.0783686123287
 26
419.8706706127687
 36
0.0
1001
ACAD
1000
DSTYLE
1002
{
1070
   179
1070
     2
1070
   272
1070
     8
1002
}
  0
DIMENSION
  5
1FC0
330
A
100
AcDbEntity
  8
AM_5
100
AcDbDimension
  2
*D38
 10
768.802602982142
 20
405.4054160276511
 30
0.0
 11
773.448030574556
 21
401.376458037843
 31
0.0
 70
    32
 71
     5
 42
10.99999999999977
  3
AM_ISO$0
100
AcDbAlignedDimension
 13
739.9988138205022
 23
381.5681817059497
 33
0.0
 14
735.7892960644861
 24
391.7308565635737
 34
0.0
 50
112.4999999999985
100
AcDbRotatedDimension
1001
ACAD
1000
DSTYLE
1002
{
1070
   174
1070
     1
1070
   179
1070
     2
1070
   272
1070
     8
1002
}
  0
DIMENSION
  5
2027
330
A
100
AcDbEntity
  8
AM_5
100
AcDbDimension
  2
*D39
 10
731.7607265095119
 20
402.6235952461718
 30
0.0
 11
711.0496526492973
 21
410.4170659106983
 31
0.0
 70
   163
  1
<>*2depth
 71
     5
 42
1.999999999999772
  3
AM_ISO$3
100
AcDbDiametricDimension
 15
730.2507798103333
 25
403.9351061937579
 35
0.0
 40
0.0
1001
ACAD
1000
DSTYLE
1002
{
1070
   179
1070
     2
1070
   272
1070
     8
1002
}
  0
ENDSEC
  0
SECTION
  2
OBJECTS
  0
DICTIONARY
  5
19
330
0
100
AcDbDictionary
281
     1
  3
ACAD_COLOR
350
ECA
  3
ACAD_GROUP
350
1A
  3
ACAD_LAYOUT
350
1E
  3
ACAD_MATERIAL
350
EC9
  3
ACAD_MLINESTYLE
350
1B
  3
ACAD_PLOTSETTINGS
350
22
  3
ACAD_PLOTSTYLENAME
350
1F
  3
ACAD_TABLESTYLE
350
ECB
  3
ACAD_WIPEOUT_VARS
350
23
  3
AcadDim
350
18ED
  3
ACDBHEADERROUNDTRIPXREC
350
20AC
  3
AcDbVariableDictionary
350
1257
  3
AcmDictionary
350
F90
  3
AMG
350
ED2
  3
AMGSNAPSETTINGS
350
FD1
  3
DWGPROPS
350
20AB
  3
MAPISURF_MODULE
350
F5E
  0
DICTIONARY
  5
1002
330
2
100
AcDbDictionary
280
     1
281
     1
  3
ACAD_LAYERFILTERS
360
1004
  3
ACAD_LAYERSTATES
360
1B79
  3
ACLYDICTIONARY
360
1003
  3
AMLAYER_GROUPCOLORS
360
16D2
  0
DICTIONARY
  5
9C9
330
A
100
AcDbDictionary
280
     1
281
     1
  3
ACAD_INDEX
360
124F
  3
ACAD_LAYOUTSELFREF
360
A64
  3
ACAD_SORTENTS
360
1711
  0
DICTIONARY
  5
9CB
330
B
100
AcDbDictionary
280
     1
281
     1
  3
ACAD_LAYOUTSELFREF
360
A65
  0
DICTIONARY
  5
ECA
102
{ACAD_REACTORS
330
19
102
}
330
19
100
AcDbDictionary
281
     1
  0
DICTIONARY
  5
1A
102
{ACAD_REACTORS
330
19
102
}
330
19
100
AcDbDictionary
281
     1
  0
DICTIONARY
  5
1E
102
{ACAD_REACTORS
330
19
102
}
330
19
100
AcDbDictionary
281
     1
  3
Model
350
A68
  3
配置1
350
A69
  0
DICTIONARY
  5
EC9
102
{ACAD_REACTORS
330
19
102
}
330
19
100
AcDbDictionary
281
     1
  0
DICTIONARY
  5
1B
102
{ACAD_REACTORS
330
19
102
}
330
19
100
AcDbDictionary
281
     1
  3
STANDARD
350
1C
  0
DICTIONARY
  5
22
102
{ACAD_REACTORS
330
19
102
}
330
19
100
AcDbDictionary
281
     1
  0
ACDBDICTIONARYWDFLT
  5
1F
102
{ACAD_REACTORS
330
19
102
}
330
19
100
AcDbDictionary
281
     1
  3
Normal
350
1D
100
AcDbDictionaryWithDefault
340
1D
  0
DICTIONARY
  5
ECB
102
{ACAD_REACTORS
330
19
102
}
330
19
100
AcDbDictionary
281
     1
  3
Standard
350
ECC
  0
WIPEOUTVARIABLES
  5
23
330
19
100
AcDbWipeoutVariables
 70
     1
  0
XRECORD
  5
18ED
102
{ACAD_REACTORS
330
19
102
}
330
19
100
AcDbXrecord
280
     1
 90
   990106
  3

 60
     0
 61
     0
 62
     1
 63
     3
 64
     1
 65
     0
 66
     0
 67
     3
 68
     0
 69
     0
 70
     0
 71
     0
 72
     0
 40
0.0
170
     2
340
1B37
  0
DICTIONARY
  5
20AC
102
{ACAD_REACTORS
330
19
102
}
330
19
100
AcDbDictionary
281
     1
  0
DICTIONARY
  5
1257
102
{ACAD_REACTORS
330
19
102
}
330
19
100
AcDbDictionary
281
     1
  3
CTABLESTYLE
350
1258
  3
DIMASSOC
350
20A8
  3
INDEXCTL
350
20A7
  3
PROJECTNAME
350
20A9
  0
DICTIONARY
  5
F90
102
{ACAD_REACTORS
330
19
102
}
330
19
100
AcDbDictionary
281
     1
  3
AcmStdDictionary
350
F9E
  3
AMDTSECTSYM_ARROWCOLOR
350
FBC
  0
DICTIONARY
  5
ED2
102
{ACAD_REACTORS
330
19
102
}
330
19
100
AcDbDictionary
281
     1
  3
AcMgSettings
350
ED3
  0
DICTIONARY
  5
FD1
102
{ACAD_REACTORS
330
19
102
}
330
19
100
AcDbDictionary
281
     1
  3
DIMENSION
350
FD6
  3
FEA
350
FD5
  3
HATCH (1)
350
FD2
  3
HATCH (2)
350
FD3
  3
SIMPLE WELD
350
FD7
  3
SYMBOLS
350
FD4
  0
XRECORD
  5
20AB
102
{ACAD_REACTORS
330
19
102
}
330
19
100
AcDbXrecord
280
     1
  1
DWGPROPS COOKIE
  2

  3

  4

  6

  7

  8

  9

300
AmdtFileType=84
301
=
302
=
303
=
304
=
305
=
306
=
307
=
308
=
309
=
 40
0.1237407638888889
 41
2452359.824870255
 42
2455323.55224515
  1

 90
        1
  0
DICTIONARY
  5
1004
102
{ACAD_REACTORS
330
1002
102
}
330
1002
100
AcDbDictionary
281
     1
  0
DICTIONARY
  5
1B79
102
{ACAD_REACTORS
330
1002
102
}
330
1002
100
AcDbDictionary
281
     1
  0
DICTIONARY
  5
1003
102
{ACAD_REACTORS
330
1002
102
}
330
1002
100
AcDbDictionary
281
     1
1001
ACAD
1000
<All
  0
DICTIONARY
  5
16D2
102
{ACAD_REACTORS
330
1002
102
}
330
1002
100
AcDbDictionary
280
     1
281
     1
  0
DICTIONARY
  5
124F
102
{ACAD_REACTORS
330
9C9
102
}
330
9C9
100
AcDbDictionary
281
     1
  3
*A1
350
1250
  0
XRECORD
  5
A64
102
{ACAD_REACTORS
330
9C9
102
}
330
9C9
100
AcDbXrecord
280
     1
340
A
  0
SORTENTSTABLE
  5
1711
102
{ACAD_REACTORS
330
9C9
102
}
330
9C9
100
AcDbSortentsTable
330
A
331
275
  5
275
331
23E
  5
23E
331
27D
  5
27E
331
150D
  5
150E
331
285
  5
286
331
246
  5
246
331
1268
  5
1290
331
531
  5
532
331
4F2
  5
4F3
331
2AC
  5
2AD
331
49B
  5
49C
331
24E
  5
24E
331
A3F
  5
A40
331
4FA
  5
4FB
331
4A3
  5
4AE
331
539
  5
53A
331
1290
  5
1419
331
A08
  5
A09
331
502
  5
503
331
44C
  5
44D
331
541
  5
542
331
D51
  5
D52
331
C05
  5
C06
331
454
  5
455
331
50A
  5
50B
331
C2C
  5
C2D
331
CA2
  5
CA3
331
CAA
  5
CAB
331
CB2
  5
CB3
331
CBA
  5
CBB
331
1C61
  5
1C61
331
1C2A
  5
1C2A
331
1C32
  5
1C32
331
1C71
  5
1C71
331
1C3A
  5
1C3A
331
1C42
  5
1C42
331
256
  5
256
331
25E
  5
25E
331
1033
  5
1183
331
266
  5
266
331
549
  5
54A
331
45C
  5
45D
331
28D
  5
28E
331
512
  5
513
331
A18
  5
A19
331
26E
  5
26E
331
A20
  5
A21
331
51A
  5
51B
331
464
  5
465
331
295
  5
297
331
4DB
  5
4DC
331
551
  5
552
331
1664
  5
16E8
331
522
  5
523
331
29D
  5
29E
331
46C
  5
494
331
A28
  5
A29
331
18EF
  5
18EF
331
4EB
  5
4EC
331
494
  5
495
331
52A
  5
52B
331
C0D
  5
C0E
331
18FF
  5
18FF
331
C15
  5
C16
331
D42
  5
D43
331
C1D
  5
C1E
331
D4A
  5
D4B
331
C25
  5
C26
331
C9B
  5
C9C
331
1C4A
  5
1C4A
331
1C52
  5
1C52
331
1C13
  5
1C13
331
1C91
  5
1C91
331
1C5A
  5
1C5A
331
1C1B
  5
1C1B
331
1C99
  5
1C99
331
1C23
  5
1C23
331
276
  5
276
331
27E
  5
27F
331
23F
  5
23F
331
150E
  5
15C0
331
1014
  5
1033
331
247
  5
247
331
286
  5
287
331
532
  5
533
331
49C
  5
49D
331
11BA
  5
1268
331
2AD
  5
445
331
4F3
  5
4F4
331
A38
  5
A3B
331
24F
  5
24F
331
53A
  5
53B
331
445
  5
446
331
4FB
  5
4FC
331
A40
  5
A41
331
542
  5
543
331
44D
  5
44E
331
503
  5
504
331
A09
  5
A0A
331
CA3
  5
CA4
331
50B
  5
50C
331
455
  5
456
331
C06
  5
C07
331
C2D
  5
C2E
331
D52
  5
D53
331
BCF
  5
BD0
331
CAB
  5
CAC
331
CB3
  5
CB4
331
CBB
  5
CBC
331
1C62
  5
1C62
331
1C2B
  5
1C2B
331
1C33
  5
1C33
331
1C72
  5
1C72
331
1C3B
  5
1C3B
331
1C43
  5
1C43
331
257
  5
257
331
25F
  5
25F
331
267
  5
267
331
A19
  5
A1A
331
513
  5
514
331
28E
  5
28F
331
45D
  5
45E
331
54A
  5
54B
331
26F
  5
26F
331
A21
  5
A22
331
552
  5
553
331
4DC
  5
4DD
331
465
  5
466
331
51B
  5
51C
331
17B2
  5
277
331
523
  5
524
331
29E
  5
29F
331
A29
  5
A2A
331
19B7
  5
19B7
331
52B
  5
52C
331
495
  5
496
331
2A6
  5
2A7
331
4EC
  5
4F2
331
C0E
  5
C0F
331
C16
  5
C17
331
D43
  5
D44
331
C1E
  5
C1F
331
D4B
  5
D4C
331
C26
  5
C27
331
C9C
  5
C9D
331
1C4B
  5
1C4B
331
1C8A
  5
1C8A
331
1C53
  5
1C53
331
1C14
  5
1C14
331
1C92
  5
1C92
331
1C5B
  5
1C5B
331
1C1C
  5
1C1C
331
1C9A
  5
1C9A
331
1C24
  5
1C24
331
277
  5
278
331
1183
  5
11BA
331
240
  5
240
331
27F
  5
280
331
287
  5
288
331
248
  5
248
331
533
  5
534
331
4F4
  5
4F5
331
49D
  5
49E
331
A41
  5
A42
331
4FC
  5
4FD
331
446
  5
447
331
53B
  5
53C
331
BB8
  5
BCF
331
A0A
  5
A0B
331
543
  5
544
331
44E
  5
44F
331
504
  5
505
331
D53
  5
FE9
331
A12
  5
A13
331
456
  5
457
331
50C
  5
50D
331
C07
  5
C08
331
C2E
  5
C2F
331
CA4
  5
CA5
331
CAC
  5
CAD
331
CB4
  5
CB5
331
CBC
  5
CBD
331
1D11
  5
1D11
331
1C63
  5
1C63
331
1C2C
  5
1C2C
331
1C34
  5
1C34
331
1C73
  5
1C73
331
1C3C
  5
1C3C
331
1C44
  5
1C44
331
250
  5
250
331
258
  5
258
331
260
  5
260
331
268
  5
268
331
BD0
  5
BF8
331
54B
  5
54C
331
45E
  5
45F
331
1419
  5
144B
331
28F
  5
291
331
514
  5
515
331
A1A
  5
A1B
331
B99
  5
BB8
331
A22
  5
A23
331
51C
  5
51D
331
4DD
  5
4DE
331
297
  5
298
331
466
  5
467
331
553
  5
554
331
524
  5
525
331
29F
  5
2A0
331
4E5
  5
4E6
331
A2A
  5
A2B
331
A32
  5
A33
331
496
  5
497
331
2A7
  5
2A8
331
52C
  5
52D
331
C0F
  5
C10
331
C17
  5
C18
331
D44
  5
D45
331
C1F
  5
C20
331
D4C
  5
D4D
331
C27
  5
C28
331
C9D
  5
C9E
331
1C4C
  5
1C4C
331
1B36
  5
1B36
331
1C8B
  5
1C8B
331
1C54
  5
1C54
331
1C15
  5
1C15
331
1C93
  5
1C93
331
1C5C
  5
1C5C
331
1C1D
  5
1C1D
331
1C9B
  5
1C9B
331
1C25
  5
1C25
331
270
  5
270
331
278
  5
279
331
280
  5
281
331
241
  5
241
331
249
  5
249
331
534
  5
535
331
49E
  5
49F
331
4F5
  5
4F6
331
53C
  5
53D
331
447
  5
448
331
4FD
  5
4FE
331
BF8
  5
BF9
331
544
  5
545
331
505
  5
506
331
44F
  5
450
331
4AE
  5
4B9
331
A0B
  5
A0C
331
CA5
  5
CA6
331
1843
  5
1843
331
50D
  5
50E
331
457
  5
458
331
A13
  5
A14
331
C2F
  5
C30
331
174D
  5
178D
331
CAD
  5
CAE
331
CB5
  5
CB6
331
CBD
  5
CBE
331
1D12
  5
1D12
331
1C64
  5
1C64
331
1C2D
  5
1C2D
331
1C6C
  5
1C6C
331
1C35
  5
1C35
331
1C74
  5
1C74
331
1C3D
  5
1C3D
331
1C7C
  5
1C7C
331
1C45
  5
1C45
331
251
  5
251
331
259
  5
259
331
261
  5
261
331
288
  5
289
331
269
  5
269
331
A1B
  5
A1C
331
54C
  5
54D
331
45F
  5
460
331
515
  5
516
331
A23
  5
A24
331
554
  5
555
331
4DE
  5
4DF
331
467
  5
468
331
298
  5
299
331
51D
  5
51E
331
15C0
  5
1628
331
525
  5
526
331
2A0
  5
2A2
331
4E6
  5
4E7
331
A2B
  5
A2C
331
C08
  5
C09
331
52D
  5
52E
331
497
  5
498
331
A33
  5
A34
331
C10
  5
C11
331
C18
  5
C19
331
D45
  5
D46
331
C20
  5
C21
331
D4D
  5
D4E
331
C9E
  5
C9F
331
1C84
  5
1C84
331
1C4D
  5
1C4D
331
1B37
  5
1B37
331
1C8C
  5
1C8C
331
1C55
  5
1C55
331
1C16
  5
1C16
331
1C94
  5
1C94
331
1C5D
  5
1C5D
331
1C1E
  5
1C1E
331
1C26
  5
1C26
331
271
  5
271
331
23A
  5
23A
331
279
  5
27A
331
281
  5
282
331
242
  5
242
331
2A8
  5
2A9
331
1628
  5
1664
331
535
  5
536
331
4F6
  5
4F7
331
49F
  5
4A0
331
A3B
  5
A3C
331
178D
  5
17B1
331
BF9
  5
BFA
331
4FE
  5
4FF
331
448
  5
449
331
53D
  5
53E
331
A0C
  5
A0D
331
545
  5
546
331
450
  5
451
331
506
  5
507
331
C28
  5
C29
331
197A
  5
197A
331
50E
  5
50F
331
A14
  5
A15
331
C30
  5
C31
331
CA6
  5
CA7
331
CAE
  5
CAF
331
CB6
  5
CB7
331
CBE
  5
CBF
331
1C2E
  5
1C2E
331
1C6D
  5
1C6D
331
1C36
  5
1C36
331
1D3B
  5
1D3B
331
1C75
  5
1C75
331
1C3E
  5
1C3E
331
1C46
  5
1C46
331
252
  5
252
331
25A
  5
25A
331
262
  5
262
331
458
  5
459
331
289
  5
28A
331
26A
  5
26A
331
54D
  5
54E
331
460
  5
461
331
291
  5
292
331
516
  5
517
331
A1C
  5
A1D
331
A24
  5
A25
331
51E
  5
51F
331
4DF
  5
4E0
331
299
  5
29A
331
468
  5
469
331
555
  5
A08
331
170F
  5
1710
331
A2C
  5
A2D
331
4E7
  5
4E8
331
526
  5
527
331
C09
  5
C0A
331
A34
  5
A35
331
52E
  5
52F
331
C11
  5
C12
331
D3E
  5
D3F
331
C19
  5
C1A
331
D46
  5
D47
331
C21
  5
C22
331
D4E
  5
D4F
331
C9F
  5
CA0
331
1C85
  5
1C85
331
1C4E
  5
1C4E
331
1C8D
  5
1C8D
331
1C56
  5
1C56
331
1C17
  5
1C17
331
1C95
  5
1C95
331
1C5E
  5
1C5E
331
1C1F
  5
1C1F
331
1C27
  5
1C27
331
272
  5
272
331
27A
  5
27B
331
23B
  5
23B
331
282
  5
283
331
243
  5
243
331
144B
  5
14EB
331
498
  5
499
331
2A9
  5
2AA
331
24B
  5
24B
331
536
  5
537
331
4A0
  5
4A1
331
4F7
  5
4F8
331
A3C
  5
A3D
331
53E
  5
53F
331
449
  5
44A
331
4FF
  5
500
331
BFA
  5
C04
331
16E8
  5
170F
331
546
  5
547
331
451
  5
452
331
507
  5
508
331
A0D
  5
A12
331
C29
  5
C2A
331
CA7
  5
CA8
331
1A12
  5
1A12
331
50F
  5
510
331
A15
  5
A17
331
C31
  5
C32
331
CAF
  5
CB0
331
CB7
  5
CB8
331
CBF
  5
D3E
331
1C2F
  5
1C2F
331
1D34
  5
1D34
331
1C37
  5
1C37
331
1AE9
  5
1AE9
331
1C76
  5
1C76
331
1C3F
  5
1C3F
331
1C47
  5
1C47
331
253
  5
253
331
25B
  5
25B
331
263
  5
263
331
28A
  5
28B
331
459
  5
45A
331
26B
  5
26B
331
FE9
  5
1014
331
A1D
  5
A1E
331
54E
  5
54F
331
4D8
  5
4D9
331
461
  5
462
331
292
  5
293
331
517
  5
518
331
14EB
  5
150D
331
4E0
  5
4E5
331
469
  5
46A
331
29A
  5
29B
331
51F
  5
520
331
A25
  5
A26
331
1710
  5
1721
331
527
  5
528
331
2A2
  5
2A3
331
4E8
  5
4E9
331
A2D
  5
A2E
331
C0A
  5
C0B
331
52F
  5
530
331
A35
  5
A36
331
C12
  5
C13
331
17F6
  5
17F6
331
C1A
  5
C1B
331
C90
  5
C9A
331
D3F
  5
D40
331
D47
  5
D48
331
C22
  5
C23
331
D4F
  5
D50
331
1C86
  5
1C86
331
1C4F
  5
1C4F
331
1D8C
  5
1D8C
331
1C8E
  5
1C8E
331
1C57
  5
1C57
331
1C18
  5
1C18
331
1C96
  5
1C96
331
1C5F
  5
1C5F
331
1C20
  5
1C20
331
1E24
  5
1E24
331
273
  5
273
331
23C
  5
23C
331
27B
  5
27C
331
283
  5
284
331
244
  5
244
331
2AA
  5
2AB
331
499
  5
49A
331
24C
  5
24C
331
A3D
  5
A3E
331
4F8
  5
4F9
331
4A1
  5
4A2
331
537
  5
538
331
1806
  5
1806
331
500
  5
501
331
44A
  5
44B
331
53F
  5
540
331
547
  5
548
331
452
  5
453
331
508
  5
509
331
C2A
  5
C2B
331
CA0
  5
CA1
331
C32
  5
C5A
331
CA8
  5
CA9
331
CB0
  5
CB1
331
C79
  5
C90
331
CB8
  5
CB9
331
1C28
  5
1C28
331
1C30
  5
1C30
331
1D35
  5
1D35
331
1C38
  5
1C38
331
1C77
  5
1C77
331
1C40
  5
1C40
331
254
  5
254
331
25C
  5
25C
331
264
  5
264
331
510
  5
511
331
45A
  5
45B
331
28B
  5
28C
331
4B9
  5
4D8
331
26C
  5
26C
331
54F
  5
550
331
518
  5
519
331
462
  5
463
331
293
  5
294
331
4D9
  5
4DA
331
A1E
  5
A1F
331
520
  5
521
331
29B
  5
29C
331
46A
  5
46B
331
A26
  5
A27
331
17B7
  5
17B7
331
A2E
  5
A2F
331
4E9
  5
4EA
331
2A3
  5
2A4
331
528
  5
529
331
C0B
  5
C0C
331
C13
  5
C14
331
A36
  5
A37
331
1721
  5
174D
331
C5A
  5
C79
331
C1B
  5
C1C
331
D40
  5
D41
331
D48
  5
D49
331
C23
  5
C24
331
1C48
  5
1C48
331
1D85
  5
1D85
331
1C50
  5
1C50
331
1C11
  5
1C11
331
1C8F
  5
1C8F
331
1C58
  5
1C58
331
1C19
  5
1C19
331
1C97
  5
1C97
331
1C21
  5
1C21
331
274
  5
274
331
27C
  5
27D
331
23D
  5
23D
331
284
  5
285
331
245
  5
245
331
49A
  5
49B
331
2AB
  5
2AC
331
530
  5
531
331
24D
  5
24D
331
538
  5
539
331
4A2
  5
4A3
331
4F9
  5
4FA
331
A3E
  5
A3F
331
189E
  5
189E
331
540
  5
541
331
44B
  5
44C
331
501
  5
502
331
453
  5
454
331
509
  5
50A
331
C04
  5
C05
331
C2B
  5
C2C
331
CA1
  5
CA2
331
D50
  5
D51
331
A17
  5
A18
331
CA9
  5
CAA
331
CB1
  5
CB2
331
CB9
  5
CBA
331
1C60
  5
1C60
331
1C29
  5
1C29
331
1C68
  5
1C68
331
1C31
  5
1C31
331
1C39
  5
1C39
331
1C78
  5
1C78
331
1C41
  5
1C41
331
255
  5
255
331
25D
  5
25D
331
265
  5
265
331
511
  5
512
331
28C
  5
28D
331
45B
  5
45C
331
548
  5
549
331
26D
  5
26D
331
A1F
  5
A20
331
550
  5
551
331
4DA
  5
4DB
331
463
  5
464
331
294
  5
295
331
519
  5
51A
331
46B
  5
46C
331
29C
  5
29D
331
521
  5
522
331
A27
  5
A28
331
18EE
  5
18EE
331
529
  5
52A
331
2A4
  5
2A6
331
4EA
  5
4EB
331
A2F
  5
A32
331
C0C
  5
C0D
331
A37
  5
A38
331
C14
  5
C15
331
D41
  5
D42
331
C1C
  5
C1D
331
C9A
  5
C9B
331
C24
  5
C25
331
D49
  5
D4A
331
1C80
  5
1C80
331
1C49
  5
1C49
331
1D86
  5
1D86
331
1C51
  5
1C51
331
1C12
  5
1C12
331
1A9C
  5
1A9C
331
1C90
  5
1C90
331
1C59
  5
1C59
331
1C1A
  5
1C1A
331
1C98
  5
1C98
331
1C22
  5
1C22
  0
XRECORD
  5
A65
102
{ACAD_REACTORS
330
9CB
102
}
330
9CB
100
AcDbXrecord
280
     1
340
B
  0
LAYOUT
  5
A68
102
{ACAD_XDICTIONARY
360
20AD
102
}
102
{ACAD_REACTORS
330
1E
102
}
330
1E
100
AcDbPlotSettings
  1

  2
自動 設計一 上的 HP DeskJet 930C/932C/935C
  4

  6

 40
0.0
 41
0.0
 42
0.0
 43
0.0
 44
0.0
 45
0.0
 46
0.0
 47
0.0
 48
0.0
 49
0.0
140
0.0
141
0.0
142
1.0
143
1.0
 70
  1712
 72
     0
 73
     0
 74
     0
  7

 75
     0
147
1.0
148
0.0
149
0.0
100
AcDbLayout
  1
Model
 70
     1
 71
     0
 10
0.0
 20
0.0
 11
12.0
 21
9.0
 12
0.0
 22
0.0
 32
0.0
 14
0.0
 24
0.0
 34
0.0
 15
0.0
 25
0.0
 35
0.0
146
0.0
 13
0.0
 23
0.0
 33
0.0
 16
1.0
 26
0.0
 36
0.0
 17
0.0
 27
1.0
 37
0.0
 76
     0
330
A
  0
LAYOUT
  5
A69
102
{ACAD_XDICTIONARY
360
20AF
102
}
102
{ACAD_REACTORS
330
1E
102
}
330
1E
100
AcDbPlotSettings
  1

  2
自動 設計一 上的 HP DeskJet 930C/932C/935C
  4

  6

 40
0.0
 41
0.0
 42
0.0
 43
0.0
 44
0.0
 45
0.0
 46
0.0
 47
0.0
 48
0.0
 49
0.0
140
0.0
141
0.0
142
1.0
143
1.0
 70
   688
 72
     0
 73
     0
 74
     5
  7

 75
    16
147
1.0
148
0.0
149
0.0
100
AcDbLayout
  1
配置1
 70
     1
 71
     1
 10
0.0
 20
0.0
 11
12.0
 21
9.0
 12
0.0
 22
0.0
 32
0.0
 14
1.000000000000000E+20
 24
1.000000000000000E+20
 34
1.000000000000000E+20
 15
-1.000000000000000E+20
 25
-1.000000000000000E+20
 35
-1.000000000000000E+20
146
0.0
 13
0.0
 23
0.0
 33
0.0
 16
1.0
 26
0.0
 36
0.0
 17
0.0
 27
1.0
 37
0.0
 76
     0
330
B
  0
MLINESTYLE
  5
1C
102
{ACAD_REACTORS
330
1B
102
}
330
1B
100
AcDbMlineStyle
  2
STANDARD
 70
     0
  3

 62
     0
 51
90.00000000000019
 52
90.00000000000019
 71
     2
 49
0.5
 62
   256
  6
BYLAYER
 49
-0.5
 62
   256
  6
BYLAYER
  0
ACDBPLACEHOLDER
  5
1D
102
{ACAD_REACTORS
330
1F
102
}
330
1F
  0
TABLESTYLE
  5
ECC
102
{ACAD_REACTORS
330
ECB
102
}
330
ECB
100
AcDbTableStyle
  3
Standard
 70
     0
 71
     0
 40
0.06
 41
0.06
280
     0
281
     0
  7
STANDARD
140
0.18
170
     2
 62
     0
 63
     7
283
     0
274
    -2
284
     1
 64
     0
275
    -2
285
     1
 65
     0
276
    -2
286
     1
 66
     0
277
    -2
287
     1
 67
     0
278
    -2
288
     1
 68
     0
279
    -2
289
     1
 69
     0
  7
STANDARD
140
0.25
170
     5
 62
     0
 63
     7
283
     0
274
    -2
284
     1
 64
     0
275
    -2
285
     1
 65
     0
276
    -2
286
     1
 66
     0
277
    -2
287
     1
 67
     0
278
    -2
288
     1
 68
     0
279
    -2
289
     1
 69
     0
  7
STANDARD
140
0.18
170
     5
 62
     0
 63
     7
283
     0
274
    -2
284
     1
 64
     0
275
    -2
285
     1
 65
     0
276
    -2
286
     1
 66
     0
277
    -2
287
     1
 67
     0
278
    -2
288
     1
 68
     0
279
    -2
289
     1
 69
     0
  0
DICTIONARYVAR
  5
1258
102
{ACAD_REACTORS
330
1257
102
}
330
1257
100
DictionaryVariables
280
     0
  1
STANDARD
  0
DICTIONARYVAR
  5
20A8
102
{ACAD_REACTORS
330
1257
102
}
330
1257
100
DictionaryVariables
280
     0
  1
1
  0
DICTIONARYVAR
  5
20A7
102
{ACAD_REACTORS
330
1257
102
}
330
1257
100
DictionaryVariables
280
     0
  1
1
  0
DICTIONARYVAR
  5
20A9
102
{ACAD_REACTORS
330
1257
102
}
330
1257
100
DictionaryVariables
280
     0
  1

  0
DICTIONARY
  5
F9E
102
{ACAD_REACTORS
330
F90
102
}
330
F90
100
AcDbDictionary
281
     1
  0
XRECORD
  5
FBC
102
{ACAD_REACTORS
330
F90
102
}
330
F90
100
AcDbXrecord
280
     1
 90
-1023410169
  0
DICTIONARY
  5
ED3
102
{ACAD_REACTORS
330
ED2
102
}
330
ED2
100
AcDbDictionary
281
     1
  3
DWGSETTINGS
350
ED4
  3
Shaft
350
1093
  3
TRANSSETTINGS
350
ED8
  0
ACAMGFILTERDAT
  5
FD6
102
{ACAD_REACTORS
330
FD1
102
}
330
FD1
100
AcAmgFilterDat
 70
    15
  1
DIMENSION,AMDT_*_DIM
  2
*
  3
*
  4
*
  5
*
290
     1
  0
ACAMGFILTERDAT
  5
FD5
102
{ACAD_REACTORS
330
FD1
102
}
330
FD1
100
AcAmgFilterDat
 70
    15
  1
*
  2
AM_FEA-AM_*
  3
*
  4
*
  5
*
290
     1
  0
ACAMGFILTERDAT
  5
FD2
102
{ACAD_REACTORS
330
FD1
102
}
330
FD1
100
AcAmgFilterDat
 70
    15
  1
HATCH
  2
*
  3
*
  4
*
  5
*
290
     1
  0
ACAMGFILTERDAT
  5
FD3
102
{ACAD_REACTORS
330
FD1
102
}
330
FD1
100
AcAmgFilterDat
 70
    15
  1
LINE
  2
8,8N,*-8,*-8N,AM_8,AM_8N,*-AM_8,*-AM_8N
  3
*
  4
*
  5
INSERT,STDPART2D
290
     1
  0
ACAMGFILTERDAT
  5
FD7
102
{ACAD_REACTORS
330
FD1
102
}
330
FD1
100
AcAmgFilterDat
 70
    15
  1
ARC
  2
AM_5
  3
*
  4
2
  5
INSERT
290
     0
  0
ACAMGFILTERDAT
  5
FD4
102
{ACAD_REACTORS
330
FD1
102
}
330
FD1
100
AcAmgFilterDat
 70
    15
  1
ACMFCFRAME,ACMDATUMTARGET,ACMDATUMID,ACMWELDSYM,ACMSURFSYM,ACMFEATID,ACMPARTREF,ACMBALLOON,AMDTEDGESYM,AMGSCREWCALCTABLE
  2
*
  3
*
  4
*
  5
*
290
     1
  0
LAYER_INDEX
  5
1250
102
{ACAD_REACTORS
330
124F
102
}
330
124F
100
AcDbIndex
 40
2455323.55224515
100
AcDbLayerIndex
  8
0
360
1251
 90
      402
  8
CENTER
360
1252
 90
       48
  8
DIM
360
1253
 90
        9
  8
Defpoints
360
1254
 90
        0
  8
AM_5
360
1255
 90
       45
  8
LOGO
360
191C
 90
      117
  0
DICTIONARY
  5
20AD
330
A68
100
AcDbDictionary
280
     1
281
     1
  3
ACAD_XREC_ROUNDTRIP
360
20AE
  0
DICTIONARY
  5
20AF
330
A69
100
AcDbDictionary
280
     1
281
     1
  3
ACAD_XREC_ROUNDTRIP
360
20B0
  0
IDBUFFER
  5
1251
330
0
100
AcDbIdBuffer
330
23A
330
23B
330
23C
330
23D
330
23E
330
23F
330
240
330
241
330
242
330
243
330
244
330
245
330
246
330
247
330
248
330
249
330
24B
330
24C
330
24D
330
24E
330
24F
330
250
330
251
330
252
330
253
330
254
330
255
330
256
330
257
330
258
330
259
330
25A
330
25B
330
25C
330
25D
330
25E
330
25F
330
260
330
261
330
262
330
263
330
264
330
265
330
266
330
267
330
268
330
269
330
26A
330
26B
330
26C
330
26D
330
26E
330
26F
330
270
330
271
330
272
330
273
330
274
330
275
330
276
330
277
330
278
330
279
330
27A
330
27B
330
27C
330
27D
330
27E
330
27F
330
280
330
282
330
283
330
284
330
286
330
287
330
288
330
289
330
28A
330
28B
330
28C
330
28D
330
28E
330
28F
330
291
330
292
330
293
330
294
330
295
330
297
330
298
330
299
330
29A
330
29B
330
29C
330
29D
330
29E
330
29F
330
2A0
330
2A2
330
2A3
330
2A4
330
2A6
330
2A7
330
2A8
330
2A9
330
2AA
330
2AB
330
2AC
330
2AD
330
445
330
446
330
447
330
448
330
449
330
44A
330
44B
330
44C
330
44D
330
44E
330
44F
330
450
330
451
330
452
330
453
330
454
330
455
330
456
330
457
330
458
330
459
330
45A
330
45B
330
45C
330
45D
330
45E
330
45F
330
460
330
461
330
462
330
463
330
464
330
465
330
466
330
467
330
468
330
469
330
46A
330
46B
330
46C
330
494
330
495
330
496
330
497
330
498
330
499
330
49A
330
49B
330
49C
330
49D
330
49E
330
49F
330
4A0
330
4A1
330
4A2
330
4A3
330
4AE
330
4B9
330
4D8
330
4D9
330
4DA
330
4DB
330
4DC
330
4DD
330
4DE
330
4DF
330
4E0
330
4E5
330
4E6
330
4E7
330
4E8
330
4E9
330
4EA
330
4EB
330
4EC
330
4F2
330
4F3
330
4F4
330
4F5
330
4F6
330
4F7
330
4F8
330
4F9
330
4FA
330
4FB
330
4FC
330
4FD
330
4FE
330
4FF
330
500
330
501
330
502
330
503
330
504
330
505
330
506
330
507
330
508
330
509
330
50A
330
50B
330
50C
330
50D
330
50E
330
50F
330
510
330
511
330
512
330
513
330
514
330
515
330
516
330
518
330
519
330
51C
330
51D
330
51E
330
51F
330
520
330
521
330
522
330
523
330
524
330
525
330
526
330
527
330
528
330
529
330
52A
330
52B
330
52C
330
52D
330
52E
330
52F
330
530
330
531
330
532
330
533
330
534
330
535
330
536
330
537
330
538
330
539
330
53A
330
53B
330
53C
330
53D
330
53E
330
53F
330
540
330
541
330
542
330
543
330
544
330
545
330
546
330
547
330
548
330
549
330
54A
330
54B
330
54C
330
54D
330
54E
330
54F
330
550
330
551
330
552
330
553
330
554
330
555
330
A17
330
A18
330
A1A
330
A1E
330
A22
330
A26
330
A32
330
A33
330
A34
330
B99
330
BB8
330
BCF
330
BD0
330
BF8
330
BF9
330
BFA
330
C04
330
C05
330
C06
330
C07
330
C08
330
C09
330
C0A
330
C0B
330
C0C
330
C0D
330
C0E
330
C0F
330
C10
330
C11
330
C12
330
C13
330
C14
330
C15
330
C16
330
C17
330
C18
330
C19
330
C1A
330
C1B
330
C1C
330
C1D
330
C1E
330
C1F
330
C20
330
C21
330
C22
330
C23
330
C24
330
C25
330
C26
330
C27
330
C28
330
C29
330
C2A
330
C2B
330
C2C
330
C2D
330
C2E
330
C2F
330
C30
330
C31
330
C32
330
C5A
330
C79
330
C90
330
C9A
330
C9B
330
C9C
330
C9D
330
C9E
330
C9F
330
CA0
330
CA1
330
CA2
330
CA3
330
CA4
330
CA5
330
CA6
330
CA7
330
CA8
330
CA9
330
CAA
330
CAB
330
CAC
330
CAD
330
CAE
330
CAF
330
CB0
330
CB1
330
CB2
330
CB3
330
CB4
330
CB5
330
CB6
330
CB7
330
CB8
330
CB9
330
CBA
330
CBB
330
CBC
330
CBD
330
CBE
330
CBF
330
D44
330
D45
330
D46
330
D49
330
D4C
330
D4D
330
D4E
330
D4F
330
D50
330
D52
330
D53
330
150D
330
150E
330
1C11
330
1C9C
330
1C9D
330
1C9E
  0
IDBUFFER
  5
1252
330
0
100
AcDbIdBuffer
330
A08
330
A09
330
A0A
330
A0B
330
A0C
330
A0D
330
A12
330
A13
330
A14
330
A15
330
A1B
330
A1C
330
A1F
330
A20
330
A23
330
A24
330
A27
330
A28
330
A29
330
A2A
330
A2B
330
A2C
330
A2D
330
A2E
330
A2F
330
A35
330
A36
330
A37
330
A38
330
A3B
330
A3C
330
A3D
330
A3E
330
A3F
330
A40
330
A41
330
D42
330
D43
330
D47
330
D48
330
D4A
330
D4B
330
170F
330
1710
330
17B2
330
1D35
330
1D85
330
1D86
  0
IDBUFFER
  5
1253
330
0
100
AcDbIdBuffer
330
281
330
285
330
517
330
51A
330
51B
330
A19
330
A1D
330
A21
330
A25
  0
IDBUFFER
  5
1254
330
0
100
AcDbIdBuffer
  0
IDBUFFER
  5
1255
330
0
100
AcDbIdBuffer
330
D3E
330
D3F
330
D40
330
D41
330
D51
330
FE9
330
1014
330
1033
330
1183
330
11BA
330
1268
330
1290
330
1419
330
144B
330
14EB
330
15C0
330
1628
330
1664
330
16E8
330
1721
330
174D
330
178D
330
17B7
330
17F6
330
1806
330
1843
330
189E
330
18EE
330
18EF
330
18FF
330
197A
330
19B7
330
1A12
330
1A9C
330
1AE9
330
1B36
330
1B37
330
1D11
330
1D12
330
1D34
330
1D3B
330
1D8C
330
1E24
330
1FC0
330
2027
  0
IDBUFFER
  5
191C
330
0
100
AcDbIdBuffer
330
1C12
330
1C13
330
1C14
330
1C15
330
1C16
330
1C17
330
1C18
330
1C19
330
1C1A
330
1C1B
330
1C1C
330
1C1D
330
1C1E
330
1C1F
330
1C20
330
1C21
330
1C22
330
1C23
330
1C24
330
1C25
330
1C26
330
1C27
330
1C28
330
1C29
330
1C2A
330
1C2B
330
1C2C
330
1C2D
330
1C2E
330
1C2F
330
1C30
330
1C31
330
1C32
330
1C33
330
1C34
330
1C35
330
1C36
330
1C37
330
1C38
330
1C39
330
1C3A
330
1C3B
330
1C3C
330
1C3D
330
1C3E
330
1C3F
330
1C40
330
1C41
330
1C42
330
1C43
330
1C44
330
1C45
330
1C46
330
1C47
330
1C48
330
1C49
330
1C4A
330
1C4B
330
1C4C
330
1C4D
330
1C4E
330
1C4F
330
1C50
330
1C51
330
1C52
330
1C53
330
1C54
330
1C55
330
1C56
330
1C57
330
1C58
330
1C59
330
1C5A
330
1C5B
330
1C5C
330
1C5D
330
1C5E
330
1C5F
330
1C60
330
1C61
330
1C62
330
1C63
330
1C64
330
1C68
330
1C6C
330
1C6D
330
1C71
330
1C72
330
1C73
330
1C74
330
1C75
330
1C76
330
1C77
330
1C78
330
1C7C
330
1C80
330
1C84
330
1C85
330
1C86
330
1C8A
330
1C8B
330
1C8C
330
1C8D
330
1C8E
330
1C8F
330
1C90
330
1C91
330
1C92
330
1C93
330
1C94
330
1C95
330
1C96
330
1C97
330
1C98
330
1C99
330
1C9A
330
1C9B
  0
XRECORD
  5
20AE
102
{ACAD_REACTORS
330
20AD
102
}
330
20AD
100
AcDbXrecord
280
     1
102
SHADEPLOT
 70
     0
102
SHADEPLOTRESLEVEL
 70
     2
102
SHADEPLOTCUSTOMDPI
 70
   300
  0
XRECORD
  5
20B0
102
{ACAD_REACTORS
330
20AF
102
}
330
20AF
100
AcDbXrecord
280
     1
102
SHADEPLOT
 70
     0
102
SHADEPLOTRESLEVEL
 70
     2
102
SHADEPLOTCUSTOMDPI
 70
   300
  0
ENDSEC
  0
EOF
