  0
SECTION
  2
HEADER
  9
$ACADVER
  1
AC1015
  9
$ACADMAINTVER
 70
    20
  9
$DWGCODEPAGE
  3
ANSI_950
  9
$INSBASE
 10
0.0
 20
0.0
 30
0.0
  9
$EXTMIN
 10
471.8431823450041
 20
271.1260585386822
 30
-0.0094334206472126
  9
$EXTMAX
 10
823.2946157673232
 20
524.7337673899362
 30
154.573674312555
  9
$LIMMIN
 10
0.0
 20
0.0
  9
$LIMMAX
 10
0.0
 20
0.0
  9
$ORTHOMODE
 70
     1
  9
$REGENMODE
 70
     1
  9
$FILLMODE
 70
     1
  9
$QTEXTMODE
 70
     0
  9
$MIRRTEXT
 70
     1
  9
$LTSCALE
 40
1.0
  9
$ATTMODE
 70
     1
  9
$TEXTSIZE
 40
3.5
  9
$TRACEWID
 40
0.05
  9
$TEXTSTYLE
  7
STANDARD
  9
$CLAYER
  8
0
  9
$CELTYPE
  6
CONTINUOUS
  9
$CECOLOR
 62
   256
  9
$CELTSCALE
 40
1.0
  9
$DISPSILH
 70
     0
  9
$DIMSCALE
 40
1.0
  9
$DIMASZ
 40
3.0
  9
$DIMEXO
 40
1.0
  9
$DIMDLI
 40
6.5
  9
$DIMRND
 40
0.0
  9
$DIMDLE
 40
0.0
  9
$DIMEXE
 40
1.0
  9
$DIMTP
 40
0.1
  9
$DIMTM
 40
0.1
  9
$DIMTXT
 40
3.5
  9
$DIMCEN
 40
0.0
  9
$DIMTSZ
 40
0.0
  9
$DIMTOL
 70
     0
  9
$DIMLIM
 70
     0
  9
$DIMTIH
 70
     0
  9
$DIMTOH
 70
     0
  9
$DIMSE1
 70
     0
  9
$DIMSE2
 70
     0
  9
$DIMTAD
 70
     1
  9
$DIMZIN
 70
     8
  9
$DIMBLK
  1

  9
$DIMASO
 70
     1
  9
$DIMSHO
 70
     1
  9
$DIMPOST
  1

  9
$DIMAPOST
  1
"
  9
$DIMALT
 70
     0
  9
$DIMALTD
 70
     2
  9
$DIMALTF
 40
0.0393701
  9
$DIMLFAC
 40
1.0
  9
$DIMTOFL
 70
     1
  9
$DIMTVP
 40
0.0
  9
$DIMTIX
 70
     0
  9
$DIMSOXD
 70
     0
  9
$DIMSAH
 70
     0
  9
$DIMBLK1
  1

  9
$DIMBLK2
  1

  9
$DIMSTYLE
  2
AM_ISO
  9
$DIMCLRD
 70
   256
  9
$DIMCLRE
 70
   256
  9
$DIMCLRT
 70
   256
  9
$DIMTFAC
 40
0.71
  9
$DIMGAP
 40
1.0
  9
$DIMJUST
 70
     0
  9
$DIMSD1
 70
     0
  9
$DIMSD2
 70
     0
  9
$DIMTOLJ
 70
     0
  9
$DIMTZIN
 70
     8
  9
$DIMALTZ
 70
     0
  9
$DIMALTTZ
 70
     0
  9
$DIMUPT
 70
     0
  9
$DIMDEC
 70
     2
  9
$DIMTDEC
 70
     8
  9
$DIMALTU
 70
     2
  9
$DIMALTTD
 70
     2
  9
$DIMTXSTY
  7
STANDARD
  9
$DIMAUNIT
 70
     0
  9
$DIMADEC
 70
     0
  9
$DIMALTRND
 40
0.0
  9
$DIMAZIN
 70
     2
  9
$DIMDSEP
 70
    46
  9
$DIMATFIT
 70
     3
  9
$DIMFRAC
 70
     0
  9
$DIMLDRBLK
  1

  9
$DIMLUNIT
 70
     2
  9
$DIMLWD
 70
    -1
  9
$DIMLWE
 70
    -1
  9
$DIMTMOVE
 70
     0
  9
$LUNITS
 70
     2
  9
$LUPREC
 70
     2
  9
$SKETCHINC
 40
0.1
  9
$FILLETRAD
 40
2.5
  9
$AUNITS
 70
     0
  9
$AUPREC
 70
     0
  9
$MENU
  1
acad
  9
$ELEVATION
 40
0.0
  9
$PELEVATION
 40
0.0
  9
$THICKNESS
 40
0.0
  9
$LIMCHECK
 70
     0
  9
$CHAMFERA
 40
2.5
  9
$CHAMFERB
 40
2.5
  9
$CHAMFERC
 40
0.0
  9
$CHAMFERD
 40
0.0
  9
$SKPOLY
 70
     0
  9
$TDCREATE
 40
2452359.824870255
  9
$TDUCREATE
 40
2452359.491536922
  9
$TDUPDATE
 40
2455323.553722003
  9
$TDUUPDATE
 40
2455323.220388669
  9
$TDINDWG
 40
0.2197201389
  9
$TDUSRTIMER
 40
0.2197188657
  9
$USRTIMER
 70
     1
  9
$ANGBASE
 50
0.0
  9
$ANGDIR
 70
     0
  9
$PDMODE
 70
     0
  9
$PDSIZE
 40
-1.0
  9
$PLINEWID
 40
0.0
  9
$SPLFRAME
 70
     0
  9
$SPLINETYPE
 70
     6
  9
$SPLINESEGS
 70
     8
  9
$HANDSEED
  5
3475
  9
$SURFTAB1
 70
     6
  9
$SURFTAB2
 70
     6
  9
$SURFTYPE
 70
     6
  9
$SURFU
 70
     6
  9
$SURFV
 70
     6
  9
$UCSBASE
  2

  9
$UCSNAME
  2

  9
$UCSORG
 10
0.0
 20
0.0
 30
0.0
  9
$UCSXDIR
 10
1.0
 20
0.0
 30
0.0
  9
$UCSYDIR
 10
0.0
 20
1.0
 30
0.0
  9
$UCSORTHOREF
  2

  9
$UCSORTHOVIEW
 70
     0
  9
$UCSORGTOP
 10
0.0
 20
0.0
 30
0.0
  9
$UCSORGBOTTOM
 10
0.0
 20
0.0
 30
0.0
  9
$UCSORGLEFT
 10
0.0
 20
0.0
 30
0.0
  9
$UCSORGRIGHT
 10
0.0
 20
0.0
 30
0.0
  9
$UCSORGFRONT
 10
0.0
 20
0.0
 30
0.0
  9
$UCSORGBACK
 10
0.0
 20
0.0
 30
0.0
  9
$PUCSBASE
  2

  9
$PUCSNAME
  2

  9
$PUCSORG
 10
0.0
 20
0.0
 30
0.0
  9
$PUCSXDIR
 10
1.0
 20
0.0
 30
0.0
  9
$PUCSYDIR
 10
0.0
 20
1.0
 30
0.0
  9
$PUCSORTHOREF
  2

  9
$PUCSORTHOVIEW
 70
     0
  9
$PUCSORGTOP
 10
0.0
 20
0.0
 30
0.0
  9
$PUCSORGBOTTOM
 10
0.0
 20
0.0
 30
0.0
  9
$PUCSORGLEFT
 10
0.0
 20
0.0
 30
0.0
  9
$PUCSORGRIGHT
 10
0.0
 20
0.0
 30
0.0
  9
$PUCSORGFRONT
 10
0.0
 20
0.0
 30
0.0
  9
$PUCSORGBACK
 10
0.0
 20
0.0
 30
0.0
  9
$USERI1
 70
     0
  9
$USERI2
 70
     0
  9
$USERI3
 70
     0
  9
$USERI4
 70
     0
  9
$USERI5
 70
     0
  9
$USERR1
 40
0.0
  9
$USERR2
 40
0.0
  9
$USERR3
 40
0.0
  9
$USERR4
 40
0.0
  9
$USERR5
 40
0.0
  9
$WORLDVIEW
 70
     1
  9
$SHADEDGE
 70
     3
  9
$SHADEDIF
 70
    70
  9
$TILEMODE
 70
     1
  9
$MAXACTVP
 70
    16
  9
$PINSBASE
 10
0.0
 20
0.0
 30
0.0
  9
$PLIMCHECK
 70
     0
  9
$PEXTMIN
 10
1.000000000000000E+20
 20
1.000000000000000E+20
 30
1.000000000000000E+20
  9
$PEXTMAX
 10
-1.000000000000000E+20
 20
-1.000000000000000E+20
 30
-1.000000000000000E+20
  9
$PLIMMIN
 10
0.0
 20
0.0
  9
$PLIMMAX
 10
12.0
 20
9.0
  9
$UNITMODE
 70
     0
  9
$VISRETAIN
 70
     0
  9
$PLINEGEN
 70
     1
  9
$PSLTSCALE
 70
     1
  9
$TREEDEPTH
 70
  3020
  9
$CMLSTYLE
  2
STANDARD
  9
$CMLJUST
 70
     0
  9
$CMLSCALE
 40
1.0
  9
$PROXYGRAPHICS
 70
     0
  9
$MEASUREMENT
 70
     1
  9
$CELWEIGHT
370
     0
  9
$ENDCAPS
280
     0
  9
$JOINSTYLE
280
     0
  9
$LWDISPLAY
290
     0
  9
$INSUNITS
 70
     4
  9
$HYPERLINKBASE
  1

  9
$STYLESHEET
  1

  9
$XEDIT
290
     1
  9
$CEPSNTYPE
380
     0
  9
$PSTYLEMODE
290
     1
  9
$FINGERPRINTGUID
  2

  9
$VERSIONGUID
  2
{40513893-3D39-4F97-9669-2332014368B8}
  9
$EXTNAMES
290
     1
  9
$PSVPSCALE
 40
0.0
  9
$OLESTARTUP
290
     0
  0
ENDSEC
  0
SECTION
  2
CLASSES
  0
CLASS
  1
IMAGE
  2
AcDbRasterImage
  3
ISM
 90
    32895
280
     0
281
     1
  0
CLASS
  1
DICTIONARYVAR
  2
AcDbDictionaryVar
  3
ObjectDBX Classes
 90
        0
280
     0
281
     0
  0
CLASS
  1
RASTERVARIABLES
  2
AcDbRasterVariables
  3
ISM
 90
    32768
280
     0
281
     0
  0
CLASS
  1
IMAGEDEF
  2
AcDbRasterImageDef
  3
ISM
 90
    32768
280
     0
281
     0
  0
CLASS
  1
IMAGEDEF_REACTOR
  2
AcDbRasterImageDefReactor
  3
ISM
 90
    32769
280
     0
281
     0
  0
CLASS
  1
IDBUFFER
  2
AcDbIdBuffer
  3
ObjectDBX Classes
 90
        0
280
     0
281
     0
  0
CLASS
  1
SPATIAL_FILTER
  2
AcDbSpatialFilter
  3
ObjectDBX Classes
 90
    32768
280
     0
281
     0
  0
CLASS
  1
SORTENTSTABLE
  2
AcDbSortentsTable
  3
ObjectDBX Classes
 90
        0
280
     0
281
     0
  0
CLASS
  1
LAYER_INDEX
  2
AcDbLayerIndex
  3
ObjectDBX Classes
 90
        0
280
     0
281
     0
  0
CLASS
  1
SPATIAL_INDEX
  2
AcDbSpatialIndex
  3
ObjectDBX Classes
 90
    32768
280
     0
281
     0
  0
CLASS
  1
OBJECT_PTR
  2
CAseDLPNTableRecord
  3
"ASE-LPNTableRecord"
 90
    32769
280
     0
281
     0
  0
CLASS
  1
LAYOUT
  2
AcDbLayout
  3
ObjectDBX Classes
 90
        0
280
     0
281
     0
  0
CLASS
  1
PLOTSETTINGS
  2
AcDbPlotSettings
  3
ObjectDBX Classes
 90
    32768
280
     0
281
     0
  0
CLASS
  1
ACDBDICTIONARYWDFLT
  2
AcDbDictionaryWithDefault
  3
ObjectDBX Classes
 90
        0
280
     0
281
     0
  0
CLASS
  1
ACDBPLACEHOLDER
  2
AcDbPlaceHolder
  3
ObjectDBX Classes
 90
        0
280
     0
281
     0
  0
CLASS
  1
VBA_PROJECT
  2
AcDbVbaProject
  3
acad
 90
    32768
280
     0
281
     0
  0
CLASS
  1
WIPEOUT
  2
AcDbWipeout
  3
"WipeOut|Product Desc: Object Enabler for WipeOut entity^I^I^I^I^I^I|Company: Autodesk, Inc.^I^I^I^I^I^I|WEB Address: www.autodesk.com"
 90
    32895
280
     0
281
     1
  0
CLASS
  1
WIPEOUTVARIABLES
  2
AcDbWipeoutVariables
  3
"WipeOut|Product Desc:     WipeOut Dbx Application|Company:          Autodesk, Inc.|WEB Address:      www.autodesk.com"
 90
        0
280
     0
281
     0
  0
CLASS
  1
RTEXT
  2
RText
  3
RText|AutoCAD Express Tool|expresstools@autodesk.com
 90
    32768
280
     0
281
     1
  0
CLASS
  1
ARCALIGNEDTEXT
  2
AcDbArcAlignedText
  3
ATEXT|AutoCAD Express Tool|expresstools@autodesk.com
 90
    32768
280
     0
281
     0
  0
CLASS
  1
ACAD_PROXY_OBJECT_WRAPPER
  2
AcDbProxyObjectWrapper
  3
ObjectDBX Classes
 90
    32768
280
     0
281
     0
  0
CLASS
  1
TABLESTYLE
  2
AcDbTableStyle
  3
ObjectDBX Classes
 90
     2047
280
     0
281
     0
  0
CLASS
  1
ACME_DOCUMENT
  2
AcMeDbDoc
  3
AcMeServices
 90
        0
280
     0
281
     0
  0
CLASS
  1
AMGSETTINGSOBJ
  2
AmgSettingsObj
  3
"AcadM|Product Description: AutoCAD Mechanical 2000|Company: Autodesk"
 90
        0
280
     0
281
     0
  0
CLASS
  1
ACMESCOPE
  2
AcMeScope
  3
AcMeServices
 90
        0
280
     0
281
     0
  0
CLASS
  1
ACMECOMMANDHISTORY
  2
AcMeCommandHistory
  3
AcMeServices
 90
        0
280
     0
281
     0
  0
CLASS
  1
ACIMSYSVARMAN
  2
AcImSysVarManager
  3
AcMeServices
 90
        0
280
     0
281
     0
  0
CLASS
  1
ACIMREALSYSVAR
  2
AcImRealSysVar
  3
AcMeServices
 90
        0
280
     0
281
     0
  0
CLASS
  1
ACIMINTSYSVAR
  2
AcImIntSysVar
  3
AcMeServices
 90
        0
280
     0
281
     0
  0
CLASS
  1
ACMEDRAWINGMAN
  2
AcMeDrawingMan
  3
AcMeServices
 90
        0
280
     0
281
     0
  0
CLASS
  1
ACMEVIEW
  2
AcMeView
  3
AcMeServices
 90
        0
280
     0
281
     0
  0
CLASS
  1
ACDBENTITYCACHE
  2
AcMeEntityCache
  3
AcMeServices
 90
        0
280
     0
281
     0
  0
CLASS
  1
GSMANAGER
  2
AcMeGSManager
  3
AcMeServices
 90
        0
280
     0
281
     0
  0
CLASS
  1
AMDTINTERNALREACTOR
  2
AmdtInternalReactor
  3
AcMeServices
 90
        0
280
     0
281
     0
  0
CLASS
  1
ACMESTATEMGR
  2
AcMeStateMgr
  3
AcMeServices
 90
        0
280
     0
281
     0
  0
CLASS
  1
ACGREFMASTER
  2
AcGrefMaster
  3
AcAttribServices
 90
        0
280
     0
281
     0
  0
CLASS
  1
AM_DRAWING_MGR
  2
AcDmDwgMgr
  3
AcMechDwgViewMgmt
 90
        0
280
     0
281
     0
  0
CLASS
  1
AM_DWG_DOCUMENT
  2
AcDmDwgDocument
  3
AcMechDwgViewMgmt
 90
        0
280
     0
281
     0
  0
CLASS
  1
AM_DWG_SHEET
  2
AcDmSheet
  3
AcMechDwgViewMgmt
 90
        0
280
     0
281
     0
  0
CLASS
  1
AM_VIEWDIMPARMAP
  2
AcDmViewDimParMap
  3
AcMechDwgViewMgmt
 90
        0
280
     0
281
     0
  0
CLASS
  1
AM_DWGMGR_NAME
  2
AcDmDwgMgrName
  3
AcMechDwgViewMgmt
 90
        0
280
     0
281
     0
  0
CLASS
  1
ACME_DATABASE
  2
AcMeDbDatabase
  3
AcMeServices
 90
        0
280
     0
281
     0
  0
CLASS
  1
ACRFINSADJUSTERMGR
  2
AcRfInsAdjusterMgr
  3
AcMeServices
 90
        0
280
     0
281
     0
  0
CLASS
  1
ACGREFACADMASTER
  2
AcGrefacadMaster
  3
AcGrefServices
 90
        0
280
     0
281
     0
  0
CLASS
  1
AMDTMENUSTATEMGR
  2
AmdtMenuStateMgr
  3
McadcomServices
 90
        0
280
     0
281
     0
  0
CLASS
  1
AMDTMCOMMENUSTATE
  2
AmdtMcomMenuState
  3
McadcomServices
 90
        0
280
     0
281
     0
  0
CLASS
  1
AMIMASTER
  2
AmiMaster
  3
AmiServices
 90
        0
280
     0
281
     0
  0
CLASS
  1
ASAPP
  2
AcAsAppObject
  3
AutoSurfServices
 90
        0
280
     0
281
     0
  0
CLASS
  1
IM_STATIC_MAN
  2
AcImStaticVarManager
  3
AcMeServices
 90
        0
280
     0
281
     0
  0
CLASS
  1
ACIMSTRSYSVAR
  2
AcImStrSysVar
  3
AcMeServices
 90
        0
280
     0
281
     0
  0
CLASS
  1
ACIMDBLSTATICVAR
  2
AcImDblStaticVar
  3
AcMeServices
 90
        0
280
     0
281
     0
  0
CLASS
  1
ACIMSTRSTATICVAR
  2
AcImStrStaticVar
  3
AcMeServices
 90
        0
280
     0
281
     0
  0
CLASS
  1
ACIMINTSTATICVAR
  2
AcImIntStaticVar
  3
AcMeServices
 90
        0
280
     0
281
     0
  0
CLASS
  1
ACASGREFMASTER
  2
AcAsGrefMaster
  3
AutoSurfResolverServices
 90
        0
280
     0
281
     0
  0
CLASS
  1
ACADGREFMODULE
  2
AcAdGrefModule
  3
AdGrefServices
 90
        0
280
     0
281
     0
  0
CLASS
  1
AMDTMAPISURFMOUDULE
  2
AmdtMApiSurfModule
  3
MApiSurfServices
 90
        0
280
     0
281
     0
  0
CLASS
  1
MAPIAMMOUDLE
  2
MApiAmModule
  3
MApiAmServices
 90
        0
280
     0
281
     0
  0
CLASS
  1
AMDTADMENUSTATE
  2
AmdtAdMenuState
  3
DesignerServices
 90
        0
280
     0
281
     0
  0
CLASS
  1
ADAPPL
  2
AcAdAppl
  3
DesignerServices
 90
        0
280
     0
281
     0
  0
CLASS
  1
DEPMGR
  2
AcAdDepMgr
  3
DesignerServices
 90
        0
280
     0
281
     0
  0
CLASS
  1
PARAMMGR
  2
AcAdParamMgr
  3
DesignerServices
 90
        0
280
     0
281
     0
  0
CLASS
  1
PARAMSCOPE
  2
AcAdParamScope
  3
DesignerServices
 90
        0
280
     0
281
     0
  0
CLASS
  1
NAMEDAPPL
  2
AcAdNamedAppl
  3
DesignerServices
 90
        0
280
     0
281
     0
  0
CLASS
  1
AMDTDMMENUSTATE
  2
AmdtDmMenuState
  3
AcMechDwgViewMgmt
 90
        0
280
     0
281
     0
  0
CLASS
  1
MAPIADMODULE
  2
MApiAdModule
  3
MApiAdServices
 90
        0
280
     0
281
     0
  0
CLASS
  1
AMDTAMMENUSTATE
  2
AmdtAmMenuState
  3
DesignerAssemblies
 90
        0
280
     0
281
     0
  0
CLASS
  1
ACAMPROJECT
  2
AcAmProject
  3
DesignerAssemblies
 90
        0
280
     0
281
     0
  0
CLASS
  1
ACAMGRCOMPDEF
  2
AcAmGrCompDef
  3
DesignerAssemblies
 90
        0
280
     0
281
     0
  0
CLASS
  1
ACCMCONTEXT
  2
AcCmContext
  3
DesignerAssemblies
 90
        0
280
     0
281
     0
  0
CLASS
  1
ACAMCOMPDEF
  2
AcAmCompDef
  3
DesignerAssemblies
 90
        0
280
     0
281
     0
  0
CLASS
  1
ACAMCOMPDEFMGR
  2
AcAmCompDefMgr
  3
DesignerAssemblies
 90
        0
280
     0
281
     0
  0
CLASS
  1
AMCONTEXTMGR
  2
AcAmContextMgr
  3
DesignerAssemblies
 90
        0
280
     0
281
     0
  0
CLASS
  1
ACAMCONTEXTMODELER
  2
AcAmContextModeler
  3
DesignerAssemblies
 90
        0
280
     0
281
     0
  0
CLASS
  1
ACMDATADICTIONARY
  2
AcmDataDictionary
  3
"AcmSymBB|Product Description: AutoCAD Mechanical 2004 DX|Company: Autodesk"
 90
        0
280
     0
281
     0
  0
CLASS
  1
ACMDATAENTRYBLOCK
  2
AcmDataEntryBlock
  3
"AcmSymBB|Product Description: AutoCAD Mechanical 2004 DX|Company: Autodesk"
 90
        0
280
     0
281
     0
  0
CLASS
  1
CATALOGSTATE
  2
AcAmCatalogState
  3
DesignerAssemblies
 90
        0
280
     0
281
     0
  0
CLASS
  1
ACAMGRCOMPDEFSET
  2
AcAmGrCompDefSet
  3
DesignerAssemblies
 90
        0
280
     0
281
     0
  0
CLASS
  1
AMDTBROWSERDBTAB
  2
AmdtBrowserDbTab
  3
McadcomServices
 90
        0
280
     0
281
     0
  0
CLASS
  1
CBROWSERAPPOBJECT
  2
CBrowserAppObject
  3
McadcomServices
 90
        0
280
     0
281
     0
  0
CLASS
  1
DM_PLACEHOLDER
  2
AcDmSelsetPlaceholder
  3
AcMechDwgViewMgmt
 90
        0
280
     0
281
     0
  0
CLASS
  1
ACMSTANDARDANSI
  2
AcmStandardANSI
  3
"Amdt_StdImp|Product Description: AutoCAD Mechanical 2004 DX|Company: Autodesk"
 90
        0
280
     0
281
     0
  0
CLASS
  1
AMGOBJPROPCFG
  2
AmgObjPropCfg
  3
"AmgLay|Product Description: AutoCAD Mechanical 2000|Company: Autodesk"
 90
        1
280
     0
281
     0
  0
CLASS
  1
ACMSURFSTANDARDANSI
  2
AcmSurfTextStdANSI
  3
"Amdt_StdImp|Product Description: AutoCAD Mechanical 2004 DX|Company: Autodesk"
 90
        0
280
     0
281
     0
  0
CLASS
  1
ACMFCFSTANDARDANSI
  2
AcmFCFStdANSI
  3
"Amdt_StdImp|Product Description: AutoCAD Mechanical 2004 DX|Company: Autodesk"
 90
        0
280
     0
281
     0
  0
CLASS
  1
ACMWELDSTANDARDANSI
  2
AcmWeldingStdANSI
  3
"Amdt_StdImp|Product Description: AutoCAD Mechanical 2004 DX|Company: Autodesk"
 90
        0
280
     0
281
     0
  0
CLASS
  1
ACMIDSTANDARDANSI
  2
AcmIdStdANSI
  3
"Amdt_StdImp|Product Description: AutoCAD Mechanical 2004 DX|Company: Autodesk"
 90
        0
280
     0
281
     0
  0
CLASS
  1
ACMDATUMSTANDARDANSI
  2
AcmDatumStdANSI
  3
"Amdt_StdImp|Product Description: AutoCAD Mechanical 2004 DX|Company: Autodesk"
 90
        0
280
     0
281
     0
  0
CLASS
  1
ACMBOMSTANDARDANSI
  2
AcmBOMStdANSI
  3
"Amdt_StdImp|Product Description: AutoCAD Mechanical 2004 DX|Company: Autodesk"
 90
        0
280
     0
281
     0
  0
CLASS
  1
ACMDETAILSTANDARDANSI
  2
AmdtDetailSymStdANSI
  3
"Amdt_StdImp|Product Description: AutoCAD Mechanical 2004 DX|Company: Autodesk"
 90
        0
280
     0
281
     0
  0
CLASS
  1
ACMSECTIONSTANDARDANSI
  2
AmdtSectionSymStdANSI
  3
"Amdt_StdImp|Product Description: AutoCAD Mechanical 2004 DX|Company: Autodesk"
 90
        0
280
     0
281
     0
  0
CLASS
  1
ACMCENTERLINESTANDARDANSI
  2
AmdtCenterLineStdANSI
  3
"Amdt_StdImp|Product Description: AutoCAD Mechanical 2004 DX|Company: Autodesk"
 90
        0
280
     0
281
     0
  0
CLASS
  1
ACMTHREADLINESTANDARDANSI
  2
AmdtThreadLineStdANSI
  3
"Amdt_StdImp|Product Description: AutoCAD Mechanical 2004 DX|Company: Autodesk"
 90
        0
280
     0
281
     0
  0
CLASS
  1
ACMNOTESTANDARDANSI
  2
AmdtNoteStdANSI
  3
"Amdt_StdImp|Product Description: AutoCAD Mechanical 2004 DX|Company: Autodesk"
 90
        0
280
     0
281
     0
  0
CLASS
  1
AMDTNOTETEMPLATEDB
  2
AmdtNoteTemplateDB
  3
AMDT_STDIMP_MODULE_NAME
 90
        0
280
     0
281
     0
  0
CLASS
  1
ACAMGLAYSTD
  2
AcAmgLayStd
  3
"AcAmgLayStd|Product Description: AutoCAD Mechanical 2000|Company: Autodesk"
 90
        0
280
     0
281
     0
  0
CLASS
  1
ACAMGDIMSTD
  2
AcAmgDimStd
  3
"AcAmgDimStd|Product Description: AutoCAD Mechanical 2000|Company: Autodesk"
 90
        0
280
     0
281
     0
  0
CLASS
  1
ACAMGHOLECHARTSTDANSI
  2
AcAmgHoleChartStdANSI
  3
ACMSYMBB_MODULE_NAME
 90
        0
280
     0
281
     0
  0
CLASS
  1
ACAMGTITLESTD
  2
AcAmgTitleStd
  3
"TITLEAPP"
 90
        0
280
     0
281
     0
  0
CLASS
  1
ACAMGFILTERDAT
  2
AcAmgFilterDat
  3
"AcadM|Product Description: AutoCAD Mechanical 2000|Company: Autodesk"
 90
        0
280
     0
281
     0
  0
CLASS
  1
ACMSTANDARDISO
  2
AcmStandardISO
  3
"Amdt_StdImp|Product Description: AutoCAD Mechanical 2004 DX|Company: Autodesk"
 90
        0
280
     0
281
     0
  0
CLASS
  1
AMDTEDGESTANDARDISO13715
  2
AmdtEdgeStdISO13715
  3
"Amdt_StdImp|Product Description: AutoCAD Mechanical 2004 DX|Company: Autodesk"
 90
        0
280
     0
281
     0
  0
CLASS
  1
ACMSURFSTANDARDISO
  2
AcmSurfTextStdISO
  3
"Amdt_StdImp|Product Description: AutoCAD Mechanical 2004 DX|Company: Autodesk"
 90
        0
280
     0
281
     0
  0
CLASS
  1
ACMFCFSTANDARDISO
  2
AcmFCFStdISO
  3
"Amdt_StdImp|Product Description: AutoCAD Mechanical 2004 DX|Company: Autodesk"
 90
        0
280
     0
281
     0
  0
CLASS
  1
ACMWELDSTANDARDISO
  2
AcmWeldingStdISO
  3
"Amdt_StdImp|Product Description: AutoCAD Mechanical 2004 DX|Company: Autodesk"
 90
        0
280
     0
281
     0
  0
CLASS
  1
ACMIDSTANDARDISO
  2
AcmIdStdISO
  3
"Amdt_StdImp|Product Description: AutoCAD Mechanical 2004 DX|Company: Autodesk"
 90
        0
280
     0
281
     0
  0
CLASS
  1
ACMDATUMSTANDARDISO
  2
AcmDatumStdISO
  3
"Amdt_StdImp|Product Description: AutoCAD Mechanical 2004 DX|Company: Autodesk"
 90
        0
280
     0
281
     0
  0
CLASS
  1
ACMBOMSTANDARDISO
  2
AcmBOMStdISO
  3
"Amdt_StdImp|Product Description: AutoCAD Mechanical 2004 DX|Company: Autodesk"
 90
        0
280
     0
281
     0
  0
CLASS
  1
ACMDETAILSTANDARDISO
  2
AmdtDetailSymStdISO
  3
"Amdt_StdImp|Product Description: AutoCAD Mechanical 2004 DX|Company: Autodesk"
 90
        0
280
     0
281
     0
  0
CLASS
  1
ACMSECTIONSTANDARDISO
  2
AmdtSectionSymStdISO
  3
"Amdt_StdImp|Product Description: AutoCAD Mechanical 2004 DX|Company: Autodesk"
 90
        0
280
     0
281
     0
  0
CLASS
  1
ACMCENTERLINESTANDARDISO
  2
AmdtCenterLineStdISO
  3
"Amdt_StdImp|Product Description: AutoCAD Mechanical 2004 DX|Company: Autodesk"
 90
        0
280
     0
281
     0
  0
CLASS
  1
ACMTHREADLINESTANDARDISO
  2
AmdtThreadLineStdISO
  3
"Amdt_StdImp|Product Description: AutoCAD Mechanical 2004 DX|Company: Autodesk"
 90
        0
280
     0
281
     0
  0
CLASS
  1
ACMNOTESTANDARDISO
  2
AmdtNoteStdISO
  3
"Amdt_StdImp|Product Description: AutoCAD Mechanical 2004 DX|Company: Autodesk"
 90
        0
280
     0
281
     0
  0
CLASS
  1
ACAMGHOLECHARTSTDISO
  2
AcAmgHoleChartStdISO
  3
ACMSYMBB_MODULE_NAME
 90
        0
280
     0
281
     0
  0
CLASS
  1
ACMDIMBREAKPERSREACTOR
  2
AcmDimBreakPersReactor
  3
amgDimApp().moduleName()
 90
    33791
280
     0
281
     0
  0
ENDSEC
  0
SECTION
  2
TABLES
  0
TABLE
  2
VPORT
  5
7
330
0
100
AcDbSymbolTable
 70
     4
  0
VPORT
  5
346E
330
7
100
AcDbSymbolTableRecord
100
AcDbViewportTableRecord
  2
*Active
 70
     0
 10
0.0
 20
0.0
 11
1.0
 21
1.0
 12
-14.88101108500996
 22
-8.277640832693123
 13
0.0
 23
0.0
 14
2.5
 24
2.5
 15
10.0
 25
10.0
 16
0.0
 26
0.0
 36
1.0
 17
662.4499101411736
 27
406.2075537970023
 37
0.0
 40
361.1539605212081
 41
0.9815602836879431
 42
50.0
 43
0.0
 44
0.0
 50
0.0
 51
0.0
 71
     0
 72
  2000
 73
     1
 74
     1
 75
     0
 76
     0
 77
     0
 78
     0
281
     0
 65
     0
110
0.0
120
0.0
130
0.0
111
1.0
121
0.0
131
0.0
112
0.0
122
1.0
132
0.0
 79
     0
146
0.0
  0
ENDTAB
  0
TABLE
  2
LTYPE
  5
4
330
0
100
AcDbSymbolTable
 70
    21
  0
LTYPE
  5
11
330
4
100
AcDbSymbolTableRecord
100
AcDbLinetypeTableRecord
  2
BYBLOCK
 70
     0
  3

 72
    65
 73
     0
 40
0.0
  0
LTYPE
  5
12
330
4
100
AcDbSymbolTableRecord
100
AcDbLinetypeTableRecord
  2
BYLAYER
 70
     0
  3

 72
    65
 73
     0
 40
0.0
  0
LTYPE
  5
13
330
4
100
AcDbSymbolTableRecord
100
AcDbLinetypeTableRecord
  2
CONTINUOUS
 70
     0
  3
Solid line
 72
    65
 73
     0
 40
0.0
  0
LTYPE
  5
27
330
4
100
AcDbSymbolTableRecord
100
AcDbLinetypeTableRecord
  2
CENTER
 70
     0
  3
Center ____ _ ____ _ ____ _ ____ _ ____ _ ____
 72
    65
 73
     4
 40
10.16
 49
6.349999999999997
 74
     0
 49
-1.27
 74
     0
 49
1.27
 74
     0
 49
-1.27
 74
     0
  0
LTYPE
  5
F09
330
4
100
AcDbSymbolTableRecord
100
AcDbLinetypeTableRecord
  2
HIDDEN
 70
     0
  3
Hidden __ __ __ __ __ __ __ __ __ __ __ __ __ _
 72
    65
 73
     2
 40
0.375
 49
0.25
 74
     0
 49
-0.125
 74
     0
  0
LTYPE
  5
F0A
330
4
100
AcDbSymbolTableRecord
100
AcDbLinetypeTableRecord
  2
PHANTOM2
 70
     0
  3
Phantom (.5x) ___ _ _ ___ _ _ ___ _ _ ___ _ _
 72
    65
 73
     6
 40
1.25
 49
0.625
 74
     0
 49
-0.125
 74
     0
 49
0.125
 74
     0
 49
-0.125
 74
     0
 49
0.125
 74
     0
 49
-0.125
 74
     0
  0
LTYPE
  5
FA1
330
4
100
AcDbSymbolTableRecord
100
AcDbLinetypeTableRecord
  2
AM_ISO02W050
 70
     0
  3
__ __ __ __ __ __ __ __ __ __ __ __ __ __ __
 72
    65
 73
     2
 40
7.5
 49
6.0
 74
     0
 49
-1.5
 74
     0
  0
LTYPE
  5
FA2
330
4
100
AcDbSymbolTableRecord
100
AcDbLinetypeTableRecord
  2
AM_ISO08W050
 70
     0
  3
____ . ____ . ____ . ____ . ____ . ____ . ____
 72
    65
 73
     4
 40
18.0
 49
12.0
 74
     0
 49
-1.5
 74
     0
 49
3.0
 74
     0
 49
-1.5
 74
     0
  0
LTYPE
  5
FA3
330
4
100
AcDbSymbolTableRecord
100
AcDbLinetypeTableRecord
  2
AM_ISO09W050
 70
     0
  3
_____ . . _____ . . _____ . . ____ .. ____
 72
    65
 73
     6
 40
22.5
 49
12.0
 74
     0
 49
-1.5
 74
     0
 49
3.0
 74
     0
 49
-1.5
 74
     0
 49
3.0
 74
     0
 49
-1.5
 74
     0
  0
LTYPE
  5
FA4
330
4
100
AcDbSymbolTableRecord
100
AcDbLinetypeTableRecord
  2
Amconstr
 70
     0
  3
_______________________
 72
    65
 73
     2
 40
9999.0
 49
9999.0
 74
     0
 49
0.0
 74
     0
  0
LTYPE
  5
FA5
330
4
100
AcDbSymbolTableRecord
100
AcDbLinetypeTableRecord
  2
AM_ISO08W050x2
 70
     0
  3
__ . __ . __ . __ . __ . __
 72
    65
 73
     4
 40
9.0
 49
6.0
 74
     0
 49
-0.75
 74
     0
 49
1.5
 74
     0
 49
-0.75
 74
     0
  0
LTYPE
  5
FA6
330
4
100
AcDbSymbolTableRecord
100
AcDbLinetypeTableRecord
  2
AM_ISO02W050x2
 70
     0
  3
 _ _ _ _ _ _ _ _ _ _ _ _
 72
    65
 73
     2
 40
3.75
 49
3.0
 74
     0
 49
-0.75
 74
     0
  0
LTYPE
  5
FA9
330
4
100
AcDbSymbolTableRecord
100
AcDbLinetypeTableRecord
  2
Amzigzag
 70
     0
  3
/\/-/\/-/\/-/\/-/\/-/\/
 72
    65
 73
     2
 40
11.0001
 49
0.0001
 74
     4
 75
   135
340
FA8
 46
0.04
 50
0.0
 44
0.0
 45
0.0
 49
-11.0
 74
     0
  0
LTYPE
  5
FAA
330
4
100
AcDbSymbolTableRecord
100
AcDbLinetypeTableRecord
  2
CENTER2
 70
     0
  3
Center (.5x) ___ _ ___ _ ___ _ ___ _ ___ _ ___
 72
    65
 73
     4
 40
1.125
 49
0.75
 74
     0
 49
-0.125
 74
     0
 49
0.125
 74
     0
 49
-0.125
 74
     0
  0
LTYPE
  5
FAB
330
4
100
AcDbSymbolTableRecord
100
AcDbLinetypeTableRecord
  2
HIDDEN2
 70
     0
  3
Hidden (.5x) _ _ _ _ _ _ _ _ _ _ _ _ _ _ _ _ _
 72
    65
 73
     2
 40
0.1875
 49
0.125
 74
     0
 49
-0.0625
 74
     0
  0
LTYPE
  5
FAC
330
4
100
AcDbSymbolTableRecord
100
AcDbLinetypeTableRecord
  2
Amzigzag2
 70
     0
  3
/\/-/\/-/\/-/\/-/\/-/\/
 72
    65
 73
     2
 40
0.4401
 49
0.0001
 74
     4
 75
   135
340
FA8
 46
0.0016
 50
0.0
 44
0.0
 45
0.0
 49
-0.4400000000000001
 74
     0
  0
LTYPE
  5
FBA
330
4
100
AcDbSymbolTableRecord
100
AcDbLinetypeTableRecord
  2
ACANSTGB
 70
     0
  3
__ . . __ . .
 72
    65
 73
     6
 40
0.35433070866
 49
0.15748031496
 74
     0
 49
-0.03937007874
 74
     0
 49
0.03937007874
 74
     0
 49
-0.03937007874
 74
     0
 49
0.03937007874
 74
     0
 49
-0.03937007874
 74
     0
  0
LTYPE
  5
FBB
330
4
100
AcDbSymbolTableRecord
100
AcDbLinetypeTableRecord
  2
ACANSTGL
 70
     0
  3
_ _ _ _ _
 72
    65
 73
     2
 40
0.11811023622
 49
0.07874015748
 74
     0
 49
-0.03937007874
 74
     0
  0
LTYPE
  5
10A3
330
4
100
AcDbSymbolTableRecord
100
AcDbLinetypeTableRecord
  2
ACISOWELD
 70
     0
  3
_ _ _ _ _
 72
    65
 73
     2
 40
2.0
 49
2.0
 74
     0
 49
-1.0
 74
     0
  0
LTYPE
  5
10A4
330
4
100
AcDbSymbolTableRecord
100
AcDbLinetypeTableRecord
  2
ACISOTGB
 70
     0
  3
__ . . __ . .
 72
    65
 73
     6
 40
9.0
 49
4.0
 74
     0
 49
-1.0
 74
     0
 49
1.0
 74
     0
 49
-1.0
 74
     0
 49
1.0
 74
     0
 49
-1.0
 74
     0
  0
LTYPE
  5
10A5
330
4
100
AcDbSymbolTableRecord
100
AcDbLinetypeTableRecord
  2
ACISOTGL
 70
     0
  3
_ _ _ _ _
 72
    65
 73
     2
 40
3.0
 49
2.0
 74
     0
 49
-1.0
 74
     0
  0
ENDTAB
  0
TABLE
  2
LAYER
  5
2
102
{ACAD_XDICTIONARY
360
1002
102
}
330
0
100
AcDbSymbolTable
 70
     6
  0
LAYER
  5
14
330
2
100
AcDbSymbolTableRecord
100
AcDbLayerTableRecord
  2
0
 70
     0
 62
     7
  6
CONTINUOUS
370
    -3
390
1D
  0
LAYER
  5
A05
330
2
100
AcDbSymbolTableRecord
100
AcDbLayerTableRecord
  2
CENTER
 70
     0
 62
     1
  6
CENTER
370
    -3
390
1D
  0
LAYER
  5
A16
330
2
100
AcDbSymbolTableRecord
100
AcDbLayerTableRecord
  2
DIM
 70
     0
 62
     4
  6
CONTINUOUS
370
    -3
390
1D
  0
LAYER
  5
D20
330
2
100
AcDbSymbolTableRecord
100
AcDbLayerTableRecord
  2
Defpoints
 70
     0
 62
     7
  6
CONTINUOUS
290
     0
370
    -3
390
1D
  0
LAYER
  5
FD9
330
2
100
AcDbSymbolTableRecord
100
AcDbLayerTableRecord
  2
AM_5
 70
     0
 62
     5
  6
CONTINUOUS
370
    50
390
1D
  0
LAYER
  5
1B6F
330
2
100
AcDbSymbolTableRecord
100
AcDbLayerTableRecord
  2
LOGO
 70
     0
 62
     7
  6
CONTINUOUS
370
    -3
390
1D
  0
ENDTAB
  0
TABLE
  2
STYLE
  5
3
330
0
100
AcDbSymbolTable
 70
     8
  0
STYLE
  5
17
330
3
100
AcDbSymbolTableRecord
100
AcDbTextStyleTableRecord
  2
STANDARD
 70
     0
 40
0.0
 41
1.0
 50
0.0
 71
     0
 42
3.5
  3
ISOCP.SHX
  4

  0
STYLE
  5
9F7
330
3
100
AcDbSymbolTableRecord
100
AcDbTextStyleTableRecord
  2
CHINA
 70
     0
 40
0.0
 41
1.0
 50
0.0
 71
     0
 42
2.5
  3
romans.shx
  4
chineset.shx
  0
STYLE
  5
FA8
330
3
100
AcDbSymbolTableRecord
100
AcDbTextStyleTableRecord
  2

 70
     1
 40
0.0
 41
1.0
 50
0.0
 71
     0
 42
0.2
  3
ltypeshp.shx
  4

  0
STYLE
  5
FAD
330
3
100
AcDbSymbolTableRecord
100
AcDbTextStyleTableRecord
  2
ACANSTS
 70
     0
 40
1.0
 41
1.0
 50
0.0
 71
     0
 42
0.2
  3
romans.shx
  4
chineset.shx
  0
STYLE
  5
FB9
330
3
100
AcDbSymbolTableRecord
100
AcDbTextStyleTableRecord
  2
ACANSGDT
 70
     0
 40
0.0
 41
1.0
 50
0.0
 71
     0
 42
0.2
  3
amgdtans.shx
  4

  0
STYLE
  5
1095
330
3
100
AcDbSymbolTableRecord
100
AcDbTextStyleTableRecord
  2
ACISOTS
 70
     0
 40
1.0
 41
1.0
 50
0.0
 71
     0
 42
0.2
  3
isocp.shx
  4
chineset.shx
  0
STYLE
  5
10A2
330
3
100
AcDbSymbolTableRecord
100
AcDbTextStyleTableRecord
  2
ACISOGDT
 70
     0
 40
0.0
 41
1.0
 50
0.0
 71
     0
 42
0.2
  3
amgdt.shx
  4

  0
STYLE
  5
1B70
330
3
100
AcDbSymbolTableRecord
100
AcDbTextStyleTableRecord
  2
CHINESET
 70
     0
 40
0.0
 41
0.75
 50
0.0
 71
     0
 42
3.0
  3
simplex.shx
  4
CHINESET.SHX
  0
ENDTAB
  0
TABLE
  2
VIEW
  5
5
330
0
100
AcDbSymbolTable
 70
     0
  0
ENDTAB
  0
TABLE
  2
UCS
  5
6
330
0
100
AcDbSymbolTable
 70
     0
  0
ENDTAB
  0
TABLE
  2
APPID
  5
8
330
0
100
AcDbSymbolTable
 70
    22
  0
APPID
  5
16
330
8
100
AcDbSymbolTableRecord
100
AcDbRegAppTableRecord
  2
ACAD
 70
     0
  0
APPID
  5
ED5
330
8
100
AcDbSymbolTableRecord
100
AcDbRegAppTableRecord
  2
GENIUS_GENDIM_13
 70
     0
  0
APPID
  5
ED6
330
8
100
AcDbSymbolTableRecord
100
AcDbRegAppTableRecord
  2
GENIUS_GENDTOL_13
 70
     0
  0
APPID
  5
ED7
330
8
100
AcDbSymbolTableRecord
100
AcDbRegAppTableRecord
  2
GENIUS_GE3DTOL_13
 70
     0
  0
APPID
  5
EDA
330
8
100
AcDbSymbolTableRecord
100
AcDbRegAppTableRecord
  2
MCAD_NO_VIS
 70
     0
  0
APPID
  5
EDB
330
8
100
AcDbSymbolTableRecord
100
AcDbRegAppTableRecord
  2
ACAD_TEMP_GRAPHIC
 70
     0
  0
APPID
  5
F0C
330
8
100
AcDbSymbolTableRecord
100
AcDbRegAppTableRecord
  2
AD_DRAW
 70
     0
  0
APPID
  5
F0F
330
8
100
AcDbSymbolTableRecord
100
AcDbRegAppTableRecord
  2
ACATTRIBSERVICES
 70
     0
  0
APPID
  5
F5B
330
8
100
AcDbSymbolTableRecord
100
AcDbRegAppTableRecord
  2
ASURF_PCURVE_APPNAME
 70
     0
  0
APPID
  5
F60
330
8
100
AcDbSymbolTableRecord
100
AcDbRegAppTableRecord
  2
AMG_3D2D_5.0
 70
     0
  0
APPID
  5
F8F
330
8
100
AcDbSymbolTableRecord
100
AcDbRegAppTableRecord
  2
DESIGNERASSEMBLIES
 70
     0
  0
APPID
  5
F96
330
8
100
AcDbSymbolTableRecord
100
AcDbRegAppTableRecord
  2
ACADM_DIM_EDIT
 70
     0
  0
APPID
  5
F97
330
8
100
AcDbSymbolTableRecord
100
AcDbRegAppTableRecord
  2
AMDT_DM_ADJ
 70
     0
  0
APPID
  5
1052
330
8
100
AcDbSymbolTableRecord
100
AcDbRegAppTableRecord
  2
GENIUS_GENDIMSH_14
 70
     0
  0
APPID
  5
108A
330
8
100
AcDbSymbolTableRecord
100
AcDbRegAppTableRecord
  2
ACAD_DSTYLE_DIMTEXT_FILL
 70
     0
  0
APPID
  5
1B72
330
8
100
AcDbSymbolTableRecord
100
AcDbRegAppTableRecord
  2
GENIUS_GENODEF_13
 70
     0
  0
APPID
  5
1B73
330
8
100
AcDbSymbolTableRecord
100
AcDbRegAppTableRecord
  2
GENIUS_GENOENT_13
 70
     0
  0
APPID
  5
1B74
330
8
100
AcDbSymbolTableRecord
100
AcDbRegAppTableRecord
  2
GENIUS_GENOBJ-N-CRS_13
 70
     0
  0
APPID
  5
1B75
330
8
100
AcDbSymbolTableRecord
100
AcDbRegAppTableRecord
  2
GENIUS_GENOLIS_13
 70
     0
  0
APPID
  5
1B76
330
8
100
AcDbSymbolTableRecord
100
AcDbRegAppTableRecord
  2
GENIUS_GENOREF_13
 70
     0
  0
APPID
  5
1B77
330
8
100
AcDbSymbolTableRecord
100
AcDbRegAppTableRecord
  2
GENIUS_GENREC_14
 70
     0
  0
APPID
  5
1B78
330
8
100
AcDbSymbolTableRecord
100
AcDbRegAppTableRecord
  2
GENIUS_GENOBJ-N-REC_13
 70
     0
  0
ENDTAB
  0
TABLE
  2
DIMSTYLE
  5
9
330
0
100
AcDbSymbolTable
 70
    19
100
AcDbDimStyleTable
 71
     3
340
9F8
340
10AE
340
D21
  0
DIMSTYLE
105
18
330
9
100
AcDbSymbolTableRecord
100
AcDbDimStyleTableRecord
  2
STANDARD
 70
     0
340
17
  0
DIMSTYLE
105
9F8
102
{ACAD_REACTORS
330
240D
330
240E
102
}
330
9
100
AcDbSymbolTableRecord
100
AcDbDimStyleTableRecord
  2
ISO-25
 70
     0
 41
2.0
 42
1.0
 44
1.0
 73
     0
 74
     0
 77
     1
 78
     8
140
2.5
141
1.0
143
0.03937007874016
147
1.0
171
     3
172
     1
174
     1
176
   256
177
   256
178
   256
271
     2
272
     2
274
     3
283
     0
284
     8
340
9F7
  0
DIMSTYLE
105
D21
102
{ACAD_REACTORS
330
241E
330
2421
330
2422
330
241C
330
241D
102
}
330
9
100
AcDbSymbolTableRecord
100
AcDbDimStyleTableRecord
  2
比例0.838
 70
     0
 41
2.0
 42
1.0
 44
1.0
 73
     0
 74
     0
 77
     1
 78
     8
 79
     2
140
4.0
141
0.0
143
0.03937007874016
144
0.8379999999999999
147
1.0
171
     3
172
     1
174
     1
176
   256
177
   256
178
   256
179
     2
271
     2
272
     2
274
     3
283
     0
284
     8
340
9F7
371
     9
372
     9
  0
DIMSTYLE
105
FC4
330
9
100
AcDbSymbolTableRecord
100
AcDbDimStyleTableRecord
  2
AM_ANSI
 70
     0
  4
mm
 41
0.1
 42
0.05
 43
0.5
 44
0.1
 47
0.1
 48
0.1
 78
     7
 79
     2
140
0.12
141
0.0
146
0.71
147
0.06
176
   256
177
   256
178
     2
274
     4
284
     7
340
17
371
    -1
372
    -1
  0
DIMSTYLE
105
FC5
330
9
100
AcDbSymbolTableRecord
100
AcDbDimStyleTableRecord
  2
AM_ANSI$3
 70
     0
  4
mm
 41
0.1
 42
0.05
 43
0.5
 44
0.1
 47
0.1
 48
0.1
 78
     7
 79
     2
140
0.12
141
0.0
146
0.71
147
0.06
176
   256
177
   256
178
     2
274
     4
284
     7
288
     1
289
     0
340
17
371
    -1
372
    -1
  0
DIMSTYLE
105
FC6
330
9
100
AcDbSymbolTableRecord
100
AcDbDimStyleTableRecord
  2
AM_ANSI$4
 70
     0
  4
mm
 41
0.1
 42
0.05
 43
0.5
 44
0.1
 47
0.1
 48
0.1
 78
     7
 79
     2
140
0.12
141
0.0
146
0.71
147
0.06
176
   256
177
   256
178
     2
274
     4
284
     7
288
     1
289
     0
340
17
371
    -1
372
    -1
  0
DIMSTYLE
105
FC7
330
9
100
AcDbSymbolTableRecord
100
AcDbDimStyleTableRecord
  2
AM_ANSI$7
 70
     0
  4
mm
 41
0.1
 42
0.05
 43
0.5
 44
0.1
 47
0.1
 48
0.1
 78
     7
 79
     2
140
0.24
141
0.0
146
0.71
147
0.06
176
   256
177
   256
178
     2
274
     4
284
     7
340
17
371
    -1
372
    -1
  0
DIMSTYLE
105
FC8
330
9
100
AcDbSymbolTableRecord
100
AcDbDimStyleTableRecord
  2
AM_ANSI$SF
 70
     0
  4
mm
 41
0.1
 42
0.05
 43
0.5
 44
0.1
 47
0.1
 48
0.1
 75
     1
 76
     1
 78
     7
 79
     2
140
0.12
141
0.0
146
0.71
147
0.06
176
   256
177
   256
178
     2
274
     4
284
     7
340
17
371
    -1
372
    -1
  0
DIMSTYLE
105
FCD
330
9
100
AcDbSymbolTableRecord
100
AcDbDimStyleTableRecord
  2
AM_ANSI$SH
 70
     0
  4
mm
 41
0.1
 42
0.05
 43
0.5
 44
0.1
 47
0.1
 48
0.1
 75
     1
 76
     1
 78
     7
 79
     2
140
0.12
141
0.0
146
0.71
147
0.06
173
     1
176
   256
177
   256
178
     2
274
     4
284
     7
340
17
343
FC9
371
    -1
372
    -1
  0
DIMSTYLE
105
FE5
330
9
100
AcDbSymbolTableRecord
100
AcDbDimStyleTableRecord
  2
ISO-25$0
 70
     0
 41
2.0
 42
1.0
 44
1.0
 73
     0
 74
     0
 77
     1
 78
     8
140
2.5
141
1.0
143
0.03937007874016
147
1.0
171
     3
172
     1
174
     1
176
   256
177
   256
178
   256
271
     2
272
     2
274
     3
283
     0
284
     8
340
9F7
  0
DIMSTYLE
105
10AE
330
9
100
AcDbSymbolTableRecord
100
AcDbDimStyleTableRecord
  2
AM_ISO
 70
     0
  4
"
 41
3.0
 42
1.0
 43
6.5
 44
1.0
 47
0.1
 48
0.1
 73
     0
 74
     0
 77
     1
 78
     8
 79
     2
140
3.5
141
0.0
143
0.0393701
146
0.71
147
1.0
172
     1
176
   256
177
   256
178
   256
271
     2
272
     2
283
     0
284
     8
340
17
371
    -1
372
    -1
  0
DIMSTYLE
105
10AF
102
{ACAD_REACTORS
330
3014
330
305D
330
315D
330
319E
330
3304
102
}
330
9
100
AcDbSymbolTableRecord
100
AcDbDimStyleTableRecord
  2
AM_ISO$3
 70
     0
  4
"
 41
3.0
 42
1.0
 43
6.5
 44
1.0
 47
0.1
 48
0.1
 73
     0
 77
     1
 78
     8
 79
     2
140
3.5
141
0.0
143
0.0393701
146
0.71
147
1.0
176
   256
177
   256
178
   256
271
     2
272
     2
283
     0
284
     8
288
     1
289
     0
340
17
371
    -1
372
    -1
  0
DIMSTYLE
105
10B0
102
{ACAD_REACTORS
330
2F67
102
}
330
9
100
AcDbSymbolTableRecord
100
AcDbDimStyleTableRecord
  2
AM_ISO$4
 70
     0
  4
"
 41
3.0
 42
1.0
 43
6.5
 44
1.0
 47
0.1
 48
0.1
 73
     0
 77
     1
 78
     8
 79
     2
140
3.5
141
0.0
143
0.0393701
146
0.71
147
1.0
176
   256
177
   256
178
   256
271
     2
272
     2
283
     0
284
     8
288
     1
289
     0
340
17
371
    -1
372
    -1
  0
DIMSTYLE
105
10B1
330
9
100
AcDbSymbolTableRecord
100
AcDbDimStyleTableRecord
  2
AM_ISO$6
 70
     0
  4
"
 41
3.0
 42
1.0
 43
6.5
 44
1.0
 47
0.1
 48
0.1
 73
     0
 74
     0
 78
     8
 79
     2
140
3.5
141
0.0
143
0.0393701
146
0.71
147
1.0
172
     1
176
   256
177
   256
178
   256
271
     2
272
     2
283
     0
284
     8
340
17
371
    -1
372
    -1
  0
DIMSTYLE
105
10B2
102
{ACAD_REACTORS
330
18EE
330
28D6
102
}
330
9
100
AcDbSymbolTableRecord
100
AcDbDimStyleTableRecord
  2
AM_ISO$7
 70
     0
  4
"
 41
3.0
 42
1.0
 43
6.5
 44
1.0
 47
0.1
 48
0.1
 73
     0
 74
     0
 77
     1
 78
     8
 79
     2
140
5.0
141
0.0
143
0.0393701
146
0.71
147
1.0
172
     1
176
   256
177
   256
178
   256
271
     2
272
     2
283
     0
284
     8
340
17
371
    -1
372
    -1
  0
DIMSTYLE
105
10B3
330
9
100
AcDbSymbolTableRecord
100
AcDbDimStyleTableRecord
  2
AM_ISO$SF
 70
     0
  4
"
 41
2.5
 42
1.0
 43
10.0
 44
1.0
 47
0.1
 48
0.1
 73
     0
 74
     0
 75
     1
 76
     1
 77
     1
 78
     8
 79
     2
140
3.5
141
0.0
143
0.0393701
146
0.71
147
1.5
172
     1
176
   256
177
   256
178
     2
271
     2
272
     3
274
     4
283
     0
284
     8
340
17
371
    -1
372
    -1
  0
DIMSTYLE
105
10B4
330
9
100
AcDbSymbolTableRecord
100
AcDbDimStyleTableRecord
  2
AM_ISO$SH
 70
     0
  4
"
 41
2.5
 42
1.0
 43
10.0
 44
1.0
 47
0.1
 48
0.1
 73
     0
 74
     0
 75
     1
 76
     1
 77
     1
 78
     8
 79
     2
140
3.5
141
0.0
143
0.0393701
144
2.0
146
0.71
147
1.5
172
     1
173
     1
176
   256
177
   256
178
     2
271
     2
272
     3
274
     4
283
     0
284
     8
340
17
343
FC9
371
    -1
372
    -1
  0
DIMSTYLE
105
1182
102
{ACAD_REACTORS
330
18FF
330
263C
330
2668
330
2825
330
2857
330
28A8
330
2907
330
2945
330
296D
330
29AC
330
2B5E
330
2BF4
330
2BBD
330
2C63
330
2EB4
330
2EE6
330
2F41
330
3101
330
3129
330
320F
330
323B
330
3299
102
}
330
9
100
AcDbSymbolTableRecord
100
AcDbDimStyleTableRecord
  2
AM_ISO$0
 70
     0
  4
"
 41
3.0
 42
1.0
 43
6.5
 44
1.0
 47
0.1
 48
0.1
 73
     0
 74
     0
 77
     1
 78
     8
 79
     2
140
3.5
141
0.0
143
0.0393701
146
0.71
147
1.0
172
     1
176
   256
177
   256
178
   256
271
     2
272
     2
283
     0
284
     8
340
17
371
    -1
372
    -1
  0
DIMSTYLE
105
2CDA
102
{ACAD_REACTORS
330
2CDB
330
2D10
330
2D45
102
}
330
9
100
AcDbSymbolTableRecord
100
AcDbDimStyleTableRecord
  2
AM_ISO$2
 70
     0
  4
"
 41
3.0
 42
1.0
 43
6.5
 44
1.0
 47
0.1
 48
0.1
 73
     0
 74
     0
 77
     1
 78
     8
 79
     2
140
3.5
141
0.0
143
0.0393701
146
0.71
147
1.0
172
     1
176
   256
177
   256
178
   256
271
     2
272
     2
283
     0
284
     8
340
17
371
    -1
372
    -1
  0
ENDTAB
  0
TABLE
  2
BLOCK_RECORD
  5
1
330
0
100
AcDbSymbolTable
 70
    42
  0
BLOCK_RECORD
  5
A
102
{ACAD_XDICTIONARY
360
9C9
102
}
330
1
100
AcDbSymbolTableRecord
100
AcDbBlockTableRecord
  2
*MODEL_SPACE
340
A68
  0
BLOCK_RECORD
  5
B
102
{ACAD_XDICTIONARY
360
9CB
102
}
330
1
100
AcDbSymbolTableRecord
100
AcDbBlockTableRecord
  2
*PAPER_SPACE
340
A69
  0
BLOCK_RECORD
  5
FC9
330
1
100
AcDbSymbolTableRecord
100
AcDbBlockTableRecord
  2
GENAXEH
340
0
  0
BLOCK_RECORD
  5
10CF
330
1
100
AcDbSymbolTableRecord
100
AcDbBlockTableRecord
  2
GENDOT
340
0
102
{BLKREFS
331
32DB
331
32E6
102
}
  0
BLOCK_RECORD
  5
1900
330
1
100
AcDbSymbolTableRecord
100
AcDbBlockTableRecord
  2
*D3
340
0
  0
BLOCK_RECORD
  5
242E
330
1
100
AcDbSymbolTableRecord
100
AcDbBlockTableRecord
  2
*D4
340
0
  0
BLOCK_RECORD
  5
243C
330
1
100
AcDbSymbolTableRecord
100
AcDbBlockTableRecord
  2
*D5
340
0
  0
BLOCK_RECORD
  5
244A
330
1
100
AcDbSymbolTableRecord
100
AcDbBlockTableRecord
  2
*D6
340
0
  0
BLOCK_RECORD
  5
2458
330
1
100
AcDbSymbolTableRecord
100
AcDbBlockTableRecord
  2
*D7
340
0
  0
BLOCK_RECORD
  5
2466
330
1
100
AcDbSymbolTableRecord
100
AcDbBlockTableRecord
  2
*D8
340
0
  0
BLOCK_RECORD
  5
2471
330
1
100
AcDbSymbolTableRecord
100
AcDbBlockTableRecord
  2
*D9
340
0
  0
BLOCK_RECORD
  5
247F
330
1
100
AcDbSymbolTableRecord
100
AcDbBlockTableRecord
  2
*D10
340
0
  0
BLOCK_RECORD
  5
263D
330
1
100
AcDbSymbolTableRecord
100
AcDbBlockTableRecord
  2
*D11
340
0
  0
BLOCK_RECORD
  5
2669
330
1
100
AcDbSymbolTableRecord
100
AcDbBlockTableRecord
  2
*D12
340
0
  0
BLOCK_RECORD
  5
2826
330
1
100
AcDbSymbolTableRecord
100
AcDbBlockTableRecord
  2
*D13
340
0
  0
BLOCK_RECORD
  5
2858
330
1
100
AcDbSymbolTableRecord
100
AcDbBlockTableRecord
  2
*D14
340
0
  0
BLOCK_RECORD
  5
28A9
330
1
100
AcDbSymbolTableRecord
100
AcDbBlockTableRecord
  2
*D15
340
0
  0
BLOCK_RECORD
  5
2908
330
1
100
AcDbSymbolTableRecord
100
AcDbBlockTableRecord
  2
*D16
340
0
  0
BLOCK_RECORD
  5
2946
330
1
100
AcDbSymbolTableRecord
100
AcDbBlockTableRecord
  2
*D17
340
0
  0
BLOCK_RECORD
  5
296E
330
1
100
AcDbSymbolTableRecord
100
AcDbBlockTableRecord
  2
*D18
340
0
  0
BLOCK_RECORD
  5
29AD
330
1
100
AcDbSymbolTableRecord
100
AcDbBlockTableRecord
  2
*D19
340
0
  0
BLOCK_RECORD
  5
2B5F
330
1
100
AcDbSymbolTableRecord
100
AcDbBlockTableRecord
  2
*D20
340
0
  0
BLOCK_RECORD
  5
2B88
330
1
100
AcDbSymbolTableRecord
100
AcDbBlockTableRecord
  2
_Oblique
340
0
102
{BLKREFS
331
2BA7
102
}
  0
BLOCK_RECORD
  5
2BBE
330
1
100
AcDbSymbolTableRecord
100
AcDbBlockTableRecord
  2
*D22
340
0
  0
BLOCK_RECORD
  5
2BF5
330
1
100
AcDbSymbolTableRecord
100
AcDbBlockTableRecord
  2
*D23
340
0
  0
BLOCK_RECORD
  5
2C64
330
1
100
AcDbSymbolTableRecord
100
AcDbBlockTableRecord
  2
*D24
340
0
  0
BLOCK_RECORD
  5
2CDC
330
1
100
AcDbSymbolTableRecord
100
AcDbBlockTableRecord
  2
*D25
340
0
  0
BLOCK_RECORD
  5
2D11
330
1
100
AcDbSymbolTableRecord
100
AcDbBlockTableRecord
  2
*D26
340
0
  0
BLOCK_RECORD
  5
2D46
330
1
100
AcDbSymbolTableRecord
100
AcDbBlockTableRecord
  2
*D27
340
0
  0
BLOCK_RECORD
  5
2EB5
330
1
100
AcDbSymbolTableRecord
100
AcDbBlockTableRecord
  2
*D28
340
0
  0
BLOCK_RECORD
  5
2EE7
330
1
100
AcDbSymbolTableRecord
100
AcDbBlockTableRecord
  2
*D29
340
0
  0
BLOCK_RECORD
  5
2F42
330
1
100
AcDbSymbolTableRecord
100
AcDbBlockTableRecord
  2
*D30
340
0
  0
BLOCK_RECORD
  5
2F68
330
1
100
AcDbSymbolTableRecord
100
AcDbBlockTableRecord
  2
*D31
340
0
  0
BLOCK_RECORD
  5
3015
330
1
100
AcDbSymbolTableRecord
100
AcDbBlockTableRecord
  2
*D32
340
0
  0
BLOCK_RECORD
  5
305E
330
1
100
AcDbSymbolTableRecord
100
AcDbBlockTableRecord
  2
*D33
340
0
  0
BLOCK_RECORD
  5
3102
330
1
100
AcDbSymbolTableRecord
100
AcDbBlockTableRecord
  2
*D34
340
0
  0
BLOCK_RECORD
  5
312A
330
1
100
AcDbSymbolTableRecord
100
AcDbBlockTableRecord
  2
*D35
340
0
  0
BLOCK_RECORD
  5
315E
330
1
100
AcDbSymbolTableRecord
100
AcDbBlockTableRecord
  2
*D36
340
0
  0
BLOCK_RECORD
  5
319F
330
1
100
AcDbSymbolTableRecord
100
AcDbBlockTableRecord
  2
*D37
340
0
  0
BLOCK_RECORD
  5
3210
330
1
100
AcDbSymbolTableRecord
100
AcDbBlockTableRecord
  2
*D38
340
0
  0
BLOCK_RECORD
  5
323C
330
1
100
AcDbSymbolTableRecord
100
AcDbBlockTableRecord
  2
*D39
340
0
  0
BLOCK_RECORD
  5
329A
330
1
100
AcDbSymbolTableRecord
100
AcDbBlockTableRecord
  2
*D40
340
0
  0
BLOCK_RECORD
  5
3305
330
1
100
AcDbSymbolTableRecord
100
AcDbBlockTableRecord
  2
*D41
340
0
  0
ENDTAB
  0
ENDSEC
  0
SECTION
  2
BLOCKS
  0
BLOCK
  5
D
330
A
100
AcDbEntity
  8
0
100
AcDbBlockBegin
  2
*MODEL_SPACE
 70
     0
 71
     1
 10
0.0
 20
0.0
 30
0.0
  3
*MODEL_SPACE
  1

  0
ENDBLK
  5
E
330
A
100
AcDbEntity
  8
0
100
AcDbBlockEnd
  0
BLOCK
  5
F
330
B
100
AcDbEntity
 67
     1
  8
0
100
AcDbBlockBegin
  2
*PAPER_SPACE
 70
     0
 71
     1
 10
0.0
 20
0.0
 30
0.0
  3
*PAPER_SPACE
  1

  0
ENDBLK
  5
10
330
B
100
AcDbEntity
 67
     1
  8
0
100
AcDbBlockEnd
  0
BLOCK
  5
FCB
330
FC9
100
AcDbEntity
  8
0
370
     0
100
AcDbBlockBegin
  2
GENAXEH
 70
     0
 10
0.0
 20
0.0
 30
0.0
  3
GENAXEH
  1

  0
LINE
  5
FCA
330
FC9
100
AcDbEntity
  8
0
100
AcDbLine
 10
-1.0
 20
0.0
 30
0.0
 11
1.0
 21
0.0
 31
0.0
  0
ENDBLK
  5
FCC
330
FC9
100
AcDbEntity
  8
0
370
     0
100
AcDbBlockEnd
  0
BLOCK
  5
10D2
330
10CF
100
AcDbEntity
  8
0
370
     0
100
AcDbBlockBegin
  2
GENDOT
 70
     0
 10
0.0
 20
0.0
 30
0.0
  3
GENDOT
  1

  0
LINE
  5
10D0
330
10CF
100
AcDbEntity
  8
0
100
AcDbLine
 10
0.0
 20
0.0
 30
0.0
 11
-1.0
 21
0.0
 31
0.0
  0
LWPOLYLINE
  5
10D1
330
10CF
100
AcDbEntity
  8
0
100
AcDbPolyline
 90
        2
 70
     1
 43
0.25
 10
-0.125
 20
0.0
 42
1.0
 10
0.125
 20
0.0
 42
1.0
  0
ENDBLK
  5
10D3
330
10CF
100
AcDbEntity
  8
0
370
     0
100
AcDbBlockEnd
  0
BLOCK
  5
190C
330
1900
100
AcDbEntity
  8
0
370
     0
100
AcDbBlockBegin
  2
*D3
 70
     1
 10
0.0
 20
0.0
 30
0.0
  3
*D3
  1

  0
LINE
  5
333D
330
1900
100
AcDbEntity
  8
AM_5
100
AcDbLine
 10
752.6676127244587
 20
377.5958059062071
 30
0.0
 11
761.0243629823291
 21
357.4208260962953
 31
0.0
  0
LINE
  5
333E
330
1900
100
AcDbEntity
  8
AM_5
100
AcDbLine
 10
749.895974126925
 20
376.4477556091117
 30
0.0
 11
758.2527243847954
 21
356.2727757991999
 31
0.0
  0
LINE
  5
333F
330
1900
100
AcDbEntity
  8
AM_5
100
AcDbLine
 10
763.4133181474977
 20
359.492755925902
 30
0.0
 11
766.1849567450316
 21
360.6408062229975
 31
0.0
  0
LINE
  5
3340
330
1900
100
AcDbEntity
  8
AM_5
100
AcDbLine
 10
755.0984023548964
 20
356.0486050346157
 30
0.0
 11
733.5472003994733
 21
347.1218048992362
 31
0.0
  0
LINE
  5
3341
330
1900
100
AcDbEntity
  8
AM_5
100
AcDbLine
 10
760.641679549964
 20
358.3447056288065
 30
0.0
 11
757.8700409524302
 21
357.1966553317111
 31
0.0
  0
SOLID
  5
3342
330
1900
100
AcDbEntity
  8
AM_5
370
     0
100
AcDbTrace
 10
763.2219764313151
 20
359.9546956921576
 30
0.0
 11
763.6046598636803
 21
359.0308161596464
 31
0.0
 12
760.641679549964
 22
358.3447056288065
 32
0.0
 13
760.641679549964
 23
358.3447056288065
 33
0.0
  0
SOLID
  5
3343
330
1900
100
AcDbEntity
  8
AM_5
370
     0
100
AcDbTrace
 10
754.9070606387138
 20
356.5105448008713
 30
0.0
 11
755.289744071079
 21
355.58666526836
 31
0.0
 12
757.8700409524302
 22
357.1966553317111
 32
0.0
 13
757.8700409524302
 23
357.1966553317111
 33
0.0
  0
MTEXT
  5
3344
330
1900
100
AcDbEntity
  8
AM_5
100
AcDbMText
 10
741.7171786377541
 20
353.9560458282579
 30
0.0
 40
3.5
 41
0.0
 71
     5
 72
     1
  1
3*3depth
 11
0.9238795325112617
 21
0.3826834323651501
 31
0.0
 73
     1
 44
1.0
1001
ACAD
1000
MTEXTBEGIN
1070
    73
1070
     1
1070
    44
1040
1.0
1070
    74
1070
     0
1000
MTEXTEND
  0
POINT
  5
3345
330
1900
100
AcDbEntity
  8
Defpoints
 62
     0
370
     0
100
AcDbPoint
 10
752.2849292920936
 20
378.5196854387184
 30
0.0
  0
POINT
  5
3346
330
1900
100
AcDbEntity
  8
Defpoints
 62
     0
370
     0
100
AcDbPoint
 10
749.5132906945598
 20
377.3716351416229
 30
0.0
  0
POINT
  5
3347
330
1900
100
AcDbEntity
  8
Defpoints
 62
     0
370
     0
100
AcDbPoint
 10
757.8700409524302
 20
357.1966553317111
 30
0.0
  0
ENDBLK
  5
190D
330
1900
100
AcDbEntity
  8
0
370
     0
100
AcDbBlockEnd
  0
BLOCK
  5
243A
330
242E
100
AcDbEntity
  8
0
370
     0
100
AcDbBlockBegin
  2
*D4
 70
     1
 10
0.0
 20
0.0
 30
0.0
  3
*D4
  1

  0
LINE
  5
3401
330
242E
100
AcDbEntity
  8
AM_5
370
    -2
100
AcDbLine
 10
522.3570675097511
 20
332.3412949226483
 30
0.0
 11
534.9122280252538
 21
341.1322420016006
 31
0.0
  0
LINE
  5
3402
330
242E
100
AcDbEntity
  8
AM_5
370
    -2
100
AcDbLine
 10
506.5618369182637
 20
340.1804897862931
 30
0.0
 11
508.0042902571335
 21
356.6678068938697
 31
0.0
  0
ARC
  5
3403
330
242E
100
AcDbEntity
  8
AM_5
370
    -2
100
AcDbCircle
 10
504.8005108308972
 20
320.0484404854742
 30
0.0
 40
35.75924643901608
100
AcDbArc
 50
38.20411756326085
 51
81.79505271039618
  0
SOLID
  5
3404
330
242E
100
AcDbEntity
  8
AM_5
370
     0
100
AcDbTrace
 10
533.1681719795482
 20
342.3630274670249
 30
0.0
 11
532.632971734147
 21
341.9655288610314
 31
0.0
 12
534.0930676748284
 22
340.5586774278244
 32
0.0
 13
534.0930676748284
 23
340.5586774278244
 33
0.0
  0
SOLID
  5
3405
330
242E
100
AcDbEntity
  8
AM_5
370
     0
100
AcDbTrace
 10
509.8655434401443
 20
355.1105295199309
 30
0.0
 11
509.9421967984863
 21
355.7727747215742
 31
0.0
 12
507.9171345143858
 22
355.6716121957781
 32
0.0
 13
507.9171345143858
 23
355.6716121957781
 33
0.0
  0
MTEXT
  5
3406
330
242E
100
AcDbEntity
  8
AM_5
100
AcDbMText
 10
523.9568044429595
 20
352.8773793947706
 30
0.0
 40
2.5
 41
0.0
 71
     5
 72
     1
  1
50°
 11
0.8637092808974472
 21
-0.5039903551573332
 31
0.0
 73
     1
 44
1.0
1001
ACAD
1000
MTEXTBEGIN
1070
    73
1070
     1
1070
    44
1040
1.0
1070
    74
1070
     0
1000
MTEXTEND
  0
POINT
  5
3407
330
242E
100
AcDbEntity
  8
Defpoints
 62
     0
370
     0
100
AcDbPoint
 10
518.003204858922
 20
353.2811439007643
 30
0.0
  0
POINT
  5
3408
330
242E
100
AcDbEntity
  8
Defpoints
 62
     0
370
     0
100
AcDbPoint
 10
504.8004963086791
 20
320.0482744957635
 30
0.0
  0
POINT
  5
3409
330
242E
100
AcDbEntity
  8
Defpoints
 62
     0
370
     0
100
AcDbPoint
 10
512.4745693862567
 20
325.4217085179813
 30
0.0
  0
POINT
  5
340A
330
242E
100
AcDbEntity
  8
Defpoints
 62
     0
370
     0
100
AcDbPoint
 10
521.5379071593257
 20
331.7677303488721
 30
0.0
  0
POINT
  5
340B
330
242E
100
AcDbEntity
  8
Defpoints
 62
     0
370
     0
100
AcDbPoint
 10
506.474681175516
 20
339.1842950882014
 30
0.0
  0
ENDBLK
  5
243B
330
242E
100
AcDbEntity
  8
0
370
     0
100
AcDbBlockEnd
  0
BLOCK
  5
2448
330
243C
100
AcDbEntity
  8
0
370
     0
100
AcDbBlockBegin
  2
*D5
 70
     1
 10
0.0
 20
0.0
 30
0.0
  3
*D5
  1

  0
LINE
  5
340C
330
243C
100
AcDbEntity
  8
AM_5
370
    -2
100
AcDbLine
 10
524.8880650644418
 20
320.0480747143287
 30
0.0
 11
541.663592167442
 21
320.0480747143286
 31
0.0
  0
LINE
  5
340D
330
243C
100
AcDbEntity
  8
AM_5
370
    -2
100
AcDbLine
 10
522.3570675097509
 20
332.3412949226482
 30
0.0
 11
534.9971909872158
 21
341.1917318744188
 31
0.0
  0
ARC
  5
340E
330
243C
100
AcDbEntity
  8
AM_5
370
    -2
100
AcDbCircle
 10
504.7999884394639
 20
320.0480747143287
 30
0.0
 40
35.86360372797801
100
AcDbArc
 50
3.195618989297392
 51
31.80355128435917
  0
SOLID
  5
340F
330
243C
100
AcDbEntity
  8
AM_5
370
     0
100
AcDbTrace
 10
540.9410290505507
 20
322.0565915519484
 30
0.0
 11
540.2746215960195
 21
322.0380026038961
 31
0.0
 12
540.6635921674419
 22
320.0480747143286
 32
0.0
 13
540.6635921674419
 23
320.0480747143286
 33
0.0
  0
SOLID
  5
3410
330
243C
100
AcDbEntity
  8
AM_5
370
     0
100
AcDbTrace
 10
535.000753509024
 20
338.764997533294
 30
0.0
 11
535.5573100350703
 21
339.1319979117129
 31
0.0
 12
534.1780306367906
 22
340.6181673006427
 32
0.0
 13
534.1780306367906
 23
340.6181673006427
 33
0.0
  0
MTEXT
  5
3411
330
243C
100
AcDbEntity
  8
AM_5
100
AcDbMText
 10
541.4196769573846
 20
330.6143040315353
 30
0.0
 40
2.5
 41
0.0
 71
     5
 72
     1
  1
35°
 11
0.277229867650914
 21
-0.9608036222258203
 31
0.0
 73
     1
 44
1.0
1001
ACAD
1000
MTEXTBEGIN
1070
    73
1070
     1
1070
    44
1040
1.0
1070
    74
1070
     0
1000
MTEXTEND
  0
POINT
  5
3412
330
243C
100
AcDbEntity
  8
Defpoints
 62
     0
370
     0
100
AcDbPoint
 10
537.7306641696543
 20
334.252604566122
 30
0.0
  0
POINT
  5
3413
330
243C
100
AcDbEntity
  8
Defpoints
 62
     0
370
     0
100
AcDbPoint
 10
512.4745693862567
 20
325.4217085179812
 30
0.0
  0
POINT
  5
3414
330
243C
100
AcDbEntity
  8
Defpoints
 62
     0
370
     0
100
AcDbPoint
 10
504.8000335772227
 20
320.0480747143286
 30
0.0
  0
POINT
  5
3415
330
243C
100
AcDbEntity
  8
Defpoints
 62
     0
370
     0
100
AcDbPoint
 10
523.8880650644417
 20
320.0480747143286
 30
0.0
  0
POINT
  5
3416
330
243C
100
AcDbEntity
  8
Defpoints
 62
     0
370
     0
100
AcDbPoint
 10
521.5379071593256
 20
331.7677303488721
 30
0.0
  0
ENDBLK
  5
2449
330
243C
100
AcDbEntity
  8
0
370
     0
100
AcDbBlockEnd
  0
BLOCK
  5
2456
330
244A
100
AcDbEntity
  8
0
370
     0
100
AcDbBlockBegin
  2
*D6
 70
     1
 10
0.0
 20
0.0
 30
0.0
  3
*D6
  1

  0
LINE
  5
3417
330
244A
100
AcDbEntity
  8
AM_5
370
     9
100
AcDbLine
 10
519.3535763593408
 20
333.8777036209001
 30
0.0
 11
527.4226882837969
 21
339.5269359702675
 31
0.0
  0
LINE
  5
3418
330
244A
100
AcDbEntity
  8
AM_5
370
     9
100
AcDbLine
 10
522.774452861565
 20
328.9914759586092
 30
0.0
 11
530.843564786021
 21
334.6407083079765
 31
0.0
  0
LINE
  5
3419
330
244A
100
AcDbEntity
  8
AM_5
370
     9
100
AcDbLine
 10
525.4564560353116
 20
340.5917978134265
 30
0.0
 11
524.3094149737868
 21
342.2301801873479
 31
0.0
  0
LINE
  5
341A
330
244A
100
AcDbEntity
  8
AM_5
370
     9
100
AcDbLine
 10
531.1714146605851
 20
332.4288054032928
 30
0.0
 11
534.6125378451594
 21
327.5136582815287
 31
0.0
  0
LINE
  5
341B
330
244A
100
AcDbEntity
  8
AM_5
370
     9
100
AcDbLine
 10
526.6034970968362
 20
338.9534154395051
 30
0.0
 11
530.0243735990603
 21
334.0671877772142
 31
0.0
  0
SOLID
  5
341C
330
244A
100
AcDbEntity
  8
AM_5
370
     0
100
AcDbTrace
 10
525.7295197642985
 20
340.7829713236807
 30
0.0
 11
525.1833923063246
 21
340.4006243031724
 31
0.0
 12
526.6034970968362
 22
338.9534154395051
 32
0.0
 13
526.6034970968362
 23
338.9534154395051
 33
0.0
  0
SOLID
  5
341D
330
244A
100
AcDbEntity
  8
AM_5
370
     0
100
AcDbTrace
 10
531.444478389572
 20
332.619978913547
 30
0.0
 11
530.8983509315981
 21
332.2376318930387
 31
0.0
 12
530.0243735990603
 22
334.0671877772142
 32
0.0
 13
530.0243735990603
 23
334.0671877772142
 33
0.0
  0
MTEXT
  5
341E
330
244A
100
AcDbEntity
  8
AM_5
100
AcDbMText
 10
535.5134747510363
 20
330.5858419823559
 30
0.0
 40
3.0
 41
0.0
 71
     5
 72
     1
  1
5
  7
CHINA
 11
0.5735205307623678
 21
-0.8191911869606826
 31
0.0
 73
     1
 44
1.0
1001
ACAD
1000
MTEXTBEGIN
1070
    73
1070
     1
1070
    44
1040
1.0
1070
    74
1070
     0
1000
MTEXTEND
  0
POINT
  5
341F
330
244A
100
AcDbEntity
  8
Defpoints
 62
     0
370
     0
100
AcDbPoint
 10
518.5343851723802
 20
333.3041830901377
 30
0.0
  0
POINT
  5
3420
330
244A
100
AcDbEntity
  8
Defpoints
 62
     0
370
     0
100
AcDbPoint
 10
521.9552616746043
 20
328.4179554278468
 30
0.0
  0
POINT
  5
3421
330
244A
100
AcDbEntity
  8
Defpoints
 62
     0
370
     0
100
AcDbPoint
 10
530.0243735990603
 20
334.0671877772142
 30
0.0
  0
ENDBLK
  5
2457
330
244A
100
AcDbEntity
  8
0
370
     0
100
AcDbBlockEnd
  0
BLOCK
  5
2464
330
2458
100
AcDbEntity
  8
0
370
     0
100
AcDbBlockBegin
  2
*D7
 70
     1
 10
0.0
 20
0.0
 30
0.0
  3
*D7
  1

  0
LINE
  5
3422
330
2458
100
AcDbEntity
  8
AM_5
370
     9
100
AcDbLine
 10
518.6902516952328
 20
331.9574830542899
 30
0.0
 11
522.9975508576102
 21
334.9729032092565
 31
0.0
  0
LINE
  5
3423
330
2458
100
AcDbEntity
  8
AM_5
370
     9
100
AcDbLine
 10
520.742277137737
 20
329.0263202260792
 30
0.0
 11
525.0495763001143
 21
332.0417403810458
 31
0.0
  0
LINE
  5
3424
330
2458
100
AcDbEntity
  8
AM_5
370
     9
100
AcDbLine
 10
521.0313426870755
 20
336.0378095103567
 30
0.0
 11
519.884338671088
 21
337.6762178194507
 31
0.0
  0
LINE
  5
3425
330
2458
100
AcDbEntity
  8
AM_5
370
     9
100
AcDbLine
 10
525.3773761615549
 20
329.829830063958
 30
0.0
 11
528.8183882095178
 21
324.9146051366758
 31
0.0
  0
LINE
  5
3426
330
2458
100
AcDbEntity
  8
AM_5
370
     9
100
AcDbLine
 10
522.1783467030632
 20
334.3994012012627
 30
0.0
 11
524.2303721455673
 21
331.4682383730521
 31
0.0
  0
SOLID
  5
3427
330
2458
100
AcDbEntity
  8
AM_5
370
     0
100
AcDbTrace
 10
521.3044107385912
 20
336.2289768463547
 30
0.0
 11
520.7582746355599
 21
335.8466421743588
 31
0.0
 12
522.1783467030632
 22
334.3994012012627
 32
0.0
 13
522.1783467030632
 23
334.3994012012627
 33
0.0
  0
SOLID
  5
3428
330
2458
100
AcDbEntity
  8
AM_5
370
     0
100
AcDbTrace
 10
525.6504442130705
 20
330.0209973999559
 30
0.0
 11
525.1043081100392
 21
329.63866272796
 31
0.0
 12
524.2303721455673
 22
331.4682383730521
 32
0.0
 13
524.2303721455673
 23
331.4682383730521
 33
0.0
  0
MTEXT
  5
3429
330
2458
100
AcDbEntity
  8
AM_5
100
AcDbMText
 10
529.7193945798977
 20
327.9867684657543
 30
0.0
 40
3.0
 41
0.0
 71
     5
 72
     1
  1
3
  7
CHINA
 11
0.5735020079937943
 21
-0.8192041545470129
 31
0.0
 73
     1
 44
1.0
1001
ACAD
1000
MTEXTBEGIN
1070
    73
1070
     1
1070
    44
1040
1.0
1070
    74
1070
     0
1000
MTEXTEND
  0
POINT
  5
342A
330
2458
100
AcDbEntity
  8
Defpoints
 62
     0
370
     0
100
AcDbPoint
 10
517.8710475406858
 20
331.3839810462961
 30
0.0
  0
POINT
  5
342B
330
2458
100
AcDbEntity
  8
Defpoints
 62
     0
370
     0
100
AcDbPoint
 10
519.9230729831899
 20
328.4528182180854
 30
0.0
  0
POINT
  5
342C
330
2458
100
AcDbEntity
  8
Defpoints
 62
     0
370
     0
100
AcDbPoint
 10
524.2303721455673
 20
331.4682383730521
 30
0.0
  0
ENDBLK
  5
2465
330
2458
100
AcDbEntity
  8
0
370
     0
100
AcDbBlockEnd
  0
BLOCK
  5
246F
330
2466
100
AcDbEntity
  8
0
370
     0
100
AcDbBlockBegin
  2
*D8
 70
     1
 10
0.0
 20
0.0
 30
0.0
  3
*D8
  1

  0
LINE
  5
342D
330
2466
100
AcDbEntity
  8
AM_5
370
     9
100
AcDbLine
 10
512.2317788139707
 20
343.2963838579026
 30
0.0
 11
514.9846621032057
 21
332.1746329968876
 31
0.0
  0
LINE
  5
342E
330
2466
100
AcDbEntity
  8
AM_5
370
     9
100
AcDbLine
 10
517.0923235596887
 20
323.6596023342972
 30
0.0
 11
517.5728665274231
 21
321.7181908745183
 31
0.0
  0
MTEXT
  5
342F
330
2466
100
AcDbEntity
  8
AM_5
100
AcDbMText
 10
515.4033847386826
 20
340.8878748049133
 30
0.0
 40
3.0
 41
0.0
 71
     5
 72
     1
  1
\U+22054
 11
0.2402714838671992
 21
-0.9707057298894728
 31
0.0
 73
     1
 44
1.0
1001
ACAD
1000
MTEXTBEGIN
1070
    73
1070
     1
1070
    44
1040
1.0
1070
    74
1070
     0
1000
MTEXTEND
  0
LINE
  5
3430
330
2466
100
AcDbEntity
  8
AM_5
370
     9
100
AcDbLine
 10
516.6117805919543
 20
325.6010137940762
 30
0.0
 11
515.46520507094
 21
330.2332215371087
 31
0.0
  0
SOLID
  5
3431
330
2466
100
AcDbEntity
  8
AM_5
370
     0
100
AcDbTrace
 10
517.4158921363186
 20
323.7396928289196
 30
0.0
 11
516.7687549830588
 21
323.5795118396748
 31
0.0
 12
516.6117805919543
 22
325.6010137940762
 32
0.0
 13
516.6117805919543
 23
325.6010137940762
 33
0.0
  0
SOLID
  5
3432
330
2466
100
AcDbEntity
  8
AM_5
370
     0
100
AcDbTrace
 10
515.3082306798355
 20
332.25472349151
 30
0.0
 11
514.6610935265758
 21
332.0945425022652
 31
0.0
 12
515.46520507094
 22
330.2332215371087
 32
0.0
 13
515.46520507094
 23
330.2332215371087
 33
0.0
  0
POINT
  5
3433
330
2466
100
AcDbEntity
  8
Defpoints
 62
     0
370
     0
100
AcDbPoint
 10
515.46520507094
 20
330.2332215371087
 30
0.0
  0
POINT
  5
3434
330
2466
100
AcDbEntity
  8
Defpoints
 62
     0
370
     0
100
AcDbPoint
 10
516.6117805919543
 20
325.6010137940762
 30
0.0
  0
ENDBLK
  5
2470
330
2466
100
AcDbEntity
  8
0
370
     0
100
AcDbBlockEnd
  0
BLOCK
  5
247D
330
2471
100
AcDbEntity
  8
0
370
     0
100
AcDbBlockBegin
  2
*D9
 70
     1
 10
0.0
 20
0.0
 30
0.0
  3
*D9
  1

  0
LINE
  5
3435
330
2471
100
AcDbEntity
  8
AM_5
370
     9
100
AcDbLine
 10
514.8498124003515
 20
325.3819492715023
 30
0.0
 11
527.1102235757341
 21
306.5019730981627
 31
0.0
  0
LINE
  5
3436
330
2471
100
AcDbEntity
  8
AM_5
370
     9
100
AcDbLine
 10
521.3534570268279
 20
329.6053315749062
 30
0.0
 11
533.6138682022106
 21
310.7253554015666
 31
0.0
  0
LINE
  5
3437
330
2471
100
AcDbEntity
  8
AM_5
370
     9
100
AcDbLine
 10
531.391884402376
 20
310.4747800770176
 30
0.0
 11
528.2429535959956
 21
308.4299053327597
 31
0.0
  0
LINE
  5
3438
330
2471
100
AcDbEntity
  8
AM_5
370
     9
100
AcDbLine
 10
526.5655966859476
 20
307.3406515531867
 30
0.0
 11
515.5202139058714
 21
300.1679235142365
 31
0.0
  0
SOLID
  5
3439
330
2471
100
AcDbEntity
  8
AM_5
370
     0
100
AcDbTrace
 10
531.2103421057805
 20
310.7543395620256
 30
0.0
 11
531.5734266989716
 21
310.1952205920095
 31
0.0
 12
533.069241312424
 22
311.5640338565906
 32
0.0
 13
533.069241312424
 23
311.5640338565906
 33
0.0
  0
SOLID
  5
343A
330
2471
100
AcDbEntity
  8
AM_5
370
     0
100
AcDbTrace
 10
528.0614112994002
 20
308.7094648177677
 30
0.0
 11
528.4244958925913
 21
308.1503458477517
 31
0.0
 12
526.5655966859476
 22
307.3406515531867
 32
0.0
 13
526.5655966859476
 23
307.3406515531867
 33
0.0
  0
MTEXT
  5
343B
330
2471
100
AcDbEntity
  8
AM_5
100
AcDbMText
 10
517.5732661054316
 20
304.4820291316415
 30
0.0
 40
3.0
 41
0.0
 71
     5
 72
     1
  1
6.5
  7
CHINA
 11
0.8386784550240232
 21
0.5446268897865009
 31
0.0
 73
     1
 44
1.0
1001
ACAD
1000
MTEXTBEGIN
1070
    73
1070
     1
1070
    44
1040
1.0
1070
    74
1070
     0
1000
MTEXTEND
  0
POINT
  5
343C
330
2471
100
AcDbEntity
  8
Defpoints
 62
     0
370
     0
100
AcDbPoint
 10
514.305185510565
 20
326.2206277265264
 30
0.0
  0
POINT
  5
343D
330
2471
100
AcDbEntity
  8
Defpoints
 62
     0
370
     0
100
AcDbPoint
 10
520.8088301370414
 20
330.4440100299302
 30
0.0
  0
POINT
  5
343E
330
2471
100
AcDbEntity
  8
Defpoints
 62
     0
370
     0
100
AcDbPoint
 10
533.069241312424
 20
311.5640338565906
 30
0.0
  0
ENDBLK
  5
247E
330
2471
100
AcDbEntity
  8
0
370
     0
100
AcDbBlockEnd
  0
BLOCK
  5
248B
330
247F
100
AcDbEntity
  8
0
370
     0
100
AcDbBlockBegin
  2
*D10
 70
     1
 10
0.0
 20
0.0
 30
0.0
  3
*D10
  1

  0
LINE
  5
343F
330
247F
100
AcDbEntity
  8
AM_5
370
     9
100
AcDbLine
 10
524.229189147914
 20
310.9385177273534
 30
0.0
 11
522.3391727908047
 21
313.8489799687093
 31
0.0
  0
LINE
  5
3440
330
247F
100
AcDbEntity
  8
AM_5
370
     9
100
AcDbLine
 10
529.1566423816136
 20
314.1383418234204
 30
0.0
 11
527.2666260245042
 21
317.0488040647764
 31
0.0
  0
LINE
  5
3441
330
247F
100
AcDbEntity
  8
AM_5
370
     9
100
AcDbLine
 10
529.4886098243388
 20
317.2993793893251
 30
0.0
 11
531.1659667343869
 21
318.3886331688982
 31
0.0
  0
LINE
  5
3442
330
247F
100
AcDbEntity
  8
AM_5
370
     9
100
AcDbLine
 10
521.206442770543
 20
311.9210477341123
 30
0.0
 11
516.1743720403986
 21
308.6532863953935
 31
0.0
  0
LINE
  5
3443
330
247F
100
AcDbEntity
  8
AM_5
370
     9
100
AcDbLine
 10
527.8112529142908
 20
316.2101256097523
 30
0.0
 11
522.8837996805911
 21
313.0103015136853
 31
0.0
  0
SOLID
  5
3444
330
247F
100
AcDbEntity
  8
AM_5
370
     0
100
AcDbTrace
 10
529.3070675277433
 20
317.5789388743333
 30
0.0
 11
529.6701521209342
 21
317.0198199043172
 31
0.0
 12
527.8112529142908
 22
316.2101256097523
 32
0.0
 13
527.8112529142908
 23
316.2101256097523
 33
0.0
  0
SOLID
  5
3445
330
247F
100
AcDbEntity
  8
AM_5
370
     0
100
AcDbTrace
 10
521.0249004739475
 20
312.2006072191204
 30
0.0
 11
521.3879850671386
 21
311.6414882491043
 31
0.0
 12
522.8837996805911
 22
313.0103015136853
 32
0.0
 13
522.8837996805911
 23
313.0103015136853
 33
0.0
  0
MTEXT
  5
3446
330
247F
100
AcDbEntity
  8
AM_5
100
AcDbMText
 10
516.4901617259807
 20
311.8392363125265
 30
0.0
 40
3.0
 41
0.0
 71
     5
 72
     1
  1
5
  7
CHINA
 11
0.8386784550240395
 21
0.5446268897864758
 31
0.0
 73
     1
 44
1.0
1001
ACAD
1000
MTEXTBEGIN
1070
    73
1070
     1
1070
    44
1040
1.0
1070
    74
1070
     0
1000
MTEXTEND
  0
POINT
  5
3447
330
247F
100
AcDbEntity
  8
Defpoints
 62
     0
370
     0
100
AcDbPoint
 10
524.7738160377005
 20
310.0998392723294
 30
0.0
  0
POINT
  5
3448
330
247F
100
AcDbEntity
  8
Defpoints
 62
     0
370
     0
100
AcDbPoint
 10
529.7012692714002
 20
313.2996633683963
 30
0.0
  0
POINT
  5
3449
330
247F
100
AcDbEntity
  8
Defpoints
 62
     0
370
     0
100
AcDbPoint
 10
527.8112529142908
 20
316.2101256097523
 30
0.0
  0
ENDBLK
  5
248C
330
247F
100
AcDbEntity
  8
0
370
     0
100
AcDbBlockEnd
  0
BLOCK
  5
2649
330
263D
100
AcDbEntity
  8
0
370
     0
100
AcDbBlockBegin
  2
*D11
 70
     1
 10
0.0
 20
0.0
 30
0.0
  3
*D11
  1

  0
LINE
  5
2AF4
330
263D
100
AcDbEntity
  8
AM_5
100
AcDbLine
 10
628.8144383521407
 20
494.8901240366648
 30
0.0
 11
628.8144383521407
 21
506.8901240366648
 31
0.0
  0
LINE
  5
2AF5
330
263D
100
AcDbEntity
  8
AM_5
100
AcDbLine
 10
626.8144383521407
 20
503.0862764593715
 30
0.0
 11
626.8144383521407
 21
506.8901240366648
 31
0.0
  0
LINE
  5
2AF6
330
263D
100
AcDbEntity
  8
AM_5
100
AcDbLine
 10
631.8144383521407
 20
505.8901240366648
 30
0.0
 11
634.8144383521407
 21
505.8901240366648
 31
0.0
  0
LINE
  5
2AF7
330
263D
100
AcDbEntity
  8
AM_5
100
AcDbLine
 10
623.8144383521407
 20
505.8901240366648
 30
0.0
 11
617.1153537064715
 21
505.8901240366648
 31
0.0
  0
LINE
  5
2AF8
330
263D
100
AcDbEntity
  8
AM_5
100
AcDbLine
 10
628.8144383521407
 20
505.8901240366648
 30
0.0
 11
626.8144383521407
 21
505.8901240366648
 31
0.0
  0
SOLID
  5
2AF9
330
263D
100
AcDbEntity
  8
AM_5
370
     0
100
AcDbTrace
 10
631.8144383521407
 20
506.3901240366647
 30
0.0
 11
631.8144383521407
 21
505.3901240366648
 31
0.0
 12
628.8144383521407
 22
505.8901240366648
 32
0.0
 13
628.8144383521407
 23
505.8901240366648
 33
0.0
  0
SOLID
  5
2AFA
330
263D
100
AcDbEntity
  8
AM_5
370
     0
100
AcDbTrace
 10
623.8144383521407
 20
506.3901240366647
 30
0.0
 11
623.8144383521407
 21
505.3901240366648
 31
0.0
 12
626.8144383521407
 22
505.8901240366648
 32
0.0
 13
626.8144383521407
 23
505.8901240366648
 33
0.0
  0
MTEXT
  5
2AFB
330
263D
100
AcDbEntity
  8
AM_5
100
AcDbMText
 10
618.9648960293061
 20
508.6404685248537
 30
0.0
 40
3.5
 41
0.0
 71
     5
 72
     1
  1
2
 73
     1
 44
1.0
1001
ACAD
1000
MTEXTBEGIN
1070
    73
1070
     1
1070
    44
1040
1.0
1070
    74
1070
     0
1000
MTEXTEND
  0
POINT
  5
2AFC
330
263D
100
AcDbEntity
  8
Defpoints
 62
     0
370
     0
100
AcDbPoint
 10
628.8144383521407
 20
493.8901240366647
 30
0.0
  0
POINT
  5
2AFD
330
263D
100
AcDbEntity
  8
Defpoints
 62
     0
370
     0
100
AcDbPoint
 10
626.8144383521407
 20
502.0862764593715
 30
0.0
  0
POINT
  5
2AFE
330
263D
100
AcDbEntity
  8
Defpoints
 62
     0
370
     0
100
AcDbPoint
 10
626.8144383521407
 20
505.8901240366648
 30
0.0
  0
ENDBLK
  5
264A
330
263D
100
AcDbEntity
  8
0
370
     0
100
AcDbBlockEnd
  0
BLOCK
  5
2675
330
2669
100
AcDbEntity
  8
0
370
     0
100
AcDbBlockBegin
  2
*D12
 70
     1
 10
0.0
 20
0.0
 30
0.0
  3
*D12
  1

  0
LINE
  5
2AFF
330
2669
100
AcDbEntity
  8
AM_5
100
AcDbLine
 10
629.8144383521405
 20
493.8539320039698
 30
0.0
 11
629.8144383521405
 21
513.3901240366648
 31
0.0
  0
LINE
  5
2B00
330
2669
100
AcDbEntity
  8
AM_5
100
AcDbLine
 10
626.8144383521407
 20
503.0862764593715
 30
0.0
 11
626.8144383521407
 21
513.3901240366648
 31
0.0
  0
LINE
  5
2B01
330
2669
100
AcDbEntity
  8
AM_5
100
AcDbLine
 10
632.8144383521405
 20
512.3901240366648
 30
0.0
 11
635.8144383521405
 21
512.3901240366648
 31
0.0
  0
LINE
  5
2B02
330
2669
100
AcDbEntity
  8
AM_5
100
AcDbLine
 10
623.8144383521407
 20
512.3901240366648
 30
0.0
 11
617.2694636053101
 21
512.3901240366648
 31
0.0
  0
LINE
  5
2B03
330
2669
100
AcDbEntity
  8
AM_5
100
AcDbLine
 10
629.8144383521405
 20
512.3901240366648
 30
0.0
 11
626.8144383521407
 21
512.3901240366648
 31
0.0
  0
SOLID
  5
2B04
330
2669
100
AcDbEntity
  8
AM_5
370
     0
100
AcDbTrace
 10
632.8144383521405
 20
512.8901240366648
 30
0.0
 11
632.8144383521405
 21
511.8901240366648
 31
0.0
 12
629.8144383521405
 22
512.3901240366648
 32
0.0
 13
629.8144383521405
 23
512.3901240366648
 33
0.0
  0
SOLID
  5
2B05
330
2669
100
AcDbEntity
  8
AM_5
370
     0
100
AcDbTrace
 10
623.8144383521407
 20
512.8901240366648
 30
0.0
 11
623.8144383521407
 21
511.8901240366648
 31
0.0
 12
626.8144383521407
 22
512.3901240366648
 32
0.0
 13
626.8144383521407
 23
512.3901240366648
 33
0.0
  0
MTEXT
  5
2B06
330
2669
100
AcDbEntity
  8
AM_5
100
AcDbMText
 10
619.0419509787254
 20
515.1401240366648
 30
0.0
 40
3.5
 41
0.0
 71
     5
 72
     1
  1
3
 73
     1
 44
1.0
1001
ACAD
1000
MTEXTBEGIN
1070
    73
1070
     1
1070
    44
1040
1.0
1070
    74
1070
     0
1000
MTEXTEND
  0
POINT
  5
2B07
330
2669
100
AcDbEntity
  8
Defpoints
 62
     0
370
     0
100
AcDbPoint
 10
629.8144383521405
 20
492.8539320039698
 30
0.0
  0
POINT
  5
2B08
330
2669
100
AcDbEntity
  8
Defpoints
 62
     0
370
     0
100
AcDbPoint
 10
626.8144383521407
 20
502.0862764593715
 30
0.0
  0
POINT
  5
2B09
330
2669
100
AcDbEntity
  8
Defpoints
 62
     0
370
     0
100
AcDbPoint
 10
626.8144383521407
 20
512.3901240366648
 30
0.0
  0
ENDBLK
  5
2676
330
2669
100
AcDbEntity
  8
0
370
     0
100
AcDbBlockEnd
  0
BLOCK
  5
2832
330
2826
100
AcDbEntity
  8
0
370
     0
100
AcDbBlockBegin
  2
*D13
 70
     1
 10
0.0
 20
0.0
 30
0.0
  3
*D13
  1

  0
LINE
  5
2B0A
330
2826
100
AcDbEntity
  8
AM_5
100
AcDbLine
 10
675.8144383521408
 20
496.6055143458382
 30
0.0
 11
675.8144383521408
 21
502.9799088456126
 31
0.0
  0
LINE
  5
2B0B
330
2826
100
AcDbEntity
  8
AM_5
100
AcDbLine
 10
668.8144383521405
 20
487.1088369175423
 30
0.0
 11
668.8144383521405
 21
502.9799088456126
 31
0.0
  0
LINE
  5
2B0C
330
2826
100
AcDbEntity
  8
AM_5
100
AcDbLine
 10
678.8144383521407
 20
501.9799088456125
 30
0.0
 11
681.8144383521407
 21
501.9799088456125
 31
0.0
  0
LINE
  5
2B0D
330
2826
100
AcDbEntity
  8
AM_5
100
AcDbLine
 10
665.8144383521405
 20
501.9799088456125
 30
0.0
 11
662.8144383521405
 21
501.9799088456125
 31
0.0
  0
LINE
  5
2B0E
330
2826
100
AcDbEntity
  8
AM_5
100
AcDbLine
 10
675.8144383521408
 20
501.9799088456125
 30
0.0
 11
668.8144383521405
 21
501.9799088456125
 31
0.0
  0
SOLID
  5
2B0F
330
2826
100
AcDbEntity
  8
AM_5
370
     0
100
AcDbTrace
 10
678.8144383521407
 20
502.4799088456126
 30
0.0
 11
678.8144383521407
 21
501.4799088456125
 31
0.0
 12
675.8144383521408
 22
501.9799088456125
 32
0.0
 13
675.8144383521408
 23
501.9799088456125
 33
0.0
  0
SOLID
  5
2B10
330
2826
100
AcDbEntity
  8
AM_5
370
     0
100
AcDbTrace
 10
665.8144383521405
 20
502.4799088456126
 30
0.0
 11
665.8144383521405
 21
501.4799088456125
 31
0.0
 12
668.8144383521405
 22
501.9799088456125
 32
0.0
 13
668.8144383521405
 23
501.9799088456125
 33
0.0
  0
MTEXT
  5
2B11
330
2826
100
AcDbEntity
  8
AM_5
100
AcDbMText
 10
672.3144383521407
 20
504.7299088456126
 30
0.0
 40
3.5
 41
0.0
 71
     5
 72
     1
  1
7
 73
     1
 44
1.0
1001
ACAD
1000
MTEXTBEGIN
1070
    73
1070
     1
1070
    44
1040
1.0
1070
    74
1070
     0
1000
MTEXTEND
  0
POINT
  5
2B12
330
2826
100
AcDbEntity
  8
Defpoints
 62
     0
370
     0
100
AcDbPoint
 10
675.8144383521408
 20
495.6055143458383
 30
0.0
  0
POINT
  5
2B13
330
2826
100
AcDbEntity
  8
Defpoints
 62
     0
370
     0
100
AcDbPoint
 10
668.8144383521405
 20
486.1088369175424
 30
0.0
  0
POINT
  5
2B14
330
2826
100
AcDbEntity
  8
Defpoints
 62
     0
370
     0
100
AcDbPoint
 10
668.8144383521405
 20
501.9799088456125
 30
0.0
  0
ENDBLK
  5
2833
330
2826
100
AcDbEntity
  8
0
370
     0
100
AcDbBlockEnd
  0
BLOCK
  5
2862
330
2858
100
AcDbEntity
  8
0
370
     0
100
AcDbBlockBegin
  2
*D14
 70
     1
 10
0.0
 20
0.0
 30
0.0
  3
*D14
  1

  0
LINE
  5
2B15
330
2858
100
AcDbEntity
  8
AM_5
100
AcDbLine
 10
668.8144383521405
 20
487.1088369175423
 30
0.0
 11
668.8144383521405
 21
502.9799088456126
 31
0.0
  0
LINE
  5
2B16
330
2858
100
AcDbEntity
  8
AM_5
100
AcDbLine
 10
652.3144383521405
 20
473.3281079103303
 30
0.0
 11
652.3144383521405
 21
502.9799088456126
 31
0.0
  0
LINE
  5
2B17
330
2858
100
AcDbEntity
  8
AM_5
100
AcDbLine
 10
665.8144383521405
 20
501.9799088456125
 30
0.0
 11
655.3144383521405
 21
501.9799088456125
 31
0.0
  0
SOLID
  5
2B18
330
2858
100
AcDbEntity
  8
AM_5
370
     0
100
AcDbTrace
 10
665.8144383521405
 20
502.4799088456126
 30
0.0
 11
665.8144383521405
 21
501.4799088456125
 31
0.0
 12
668.8144383521405
 22
501.9799088456125
 32
0.0
 13
668.8144383521405
 23
501.9799088456125
 33
0.0
  0
SOLID
  5
2B19
330
2858
100
AcDbEntity
  8
AM_5
370
     0
100
AcDbTrace
 10
655.3144383521405
 20
502.4799088456126
 30
0.0
 11
655.3144383521405
 21
501.4799088456125
 31
0.0
 12
652.3144383521405
 22
501.9799088456125
 32
0.0
 13
652.3144383521405
 23
501.9799088456125
 33
0.0
  0
MTEXT
  5
2B1A
330
2858
100
AcDbEntity
  8
AM_5
100
AcDbMText
 10
660.5644383521405
 20
504.7299088456126
 30
0.0
 40
3.5
 41
0.0
 71
     5
 72
     1
  1
16.5
 73
     1
 44
1.0
1001
ACAD
1000
MTEXTBEGIN
1070
    73
1070
     1
1070
    44
1040
1.0
1070
    74
1070
     0
1000
MTEXTEND
  0
POINT
  5
2B1B
330
2858
100
AcDbEntity
  8
Defpoints
 62
     0
370
     0
100
AcDbPoint
 10
668.8144383521405
 20
486.1088369175424
 30
0.0
  0
POINT
  5
2B1C
330
2858
100
AcDbEntity
  8
Defpoints
 62
     0
370
     0
100
AcDbPoint
 10
652.3144383521405
 20
472.3281079103303
 30
0.0
  0
POINT
  5
2B1D
330
2858
100
AcDbEntity
  8
Defpoints
 62
     0
370
     0
100
AcDbPoint
 10
652.3144383521405
 20
501.9799088456125
 30
0.0
  0
ENDBLK
  5
2863
330
2858
100
AcDbEntity
  8
0
370
     0
100
AcDbBlockEnd
  0
BLOCK
  5
28B3
330
28A9
100
AcDbEntity
  8
0
370
     0
100
AcDbBlockBegin
  2
*D15
 70
     1
 10
0.0
 20
0.0
 30
0.0
  3
*D15
  1

  0
LINE
  5
2B1E
330
28A9
100
AcDbEntity
  8
AM_5
100
AcDbLine
 10
676.8144383521407
 20
495.6055143458383
 30
0.0
 11
688.8144383521408
 21
495.6055143458383
 31
0.0
  0
LINE
  5
2B1F
330
28A9
100
AcDbEntity
  8
AM_5
100
AcDbLine
 10
676.8144383521405
 20
453.6077558198493
 30
0.0
 11
688.8144383521408
 21
453.6077558198493
 31
0.0
  0
LINE
  5
2B20
330
28A9
100
AcDbEntity
  8
AM_5
100
AcDbLine
 10
687.8144383521408
 20
492.6055143458382
 30
0.0
 11
687.8144383521408
 21
456.6077558198493
 31
0.0
  0
SOLID
  5
2B21
330
28A9
100
AcDbEntity
  8
AM_5
370
     0
100
AcDbTrace
 10
687.3144383521407
 20
492.6055143458382
 30
0.0
 11
688.3144383521408
 21
492.6055143458382
 31
0.0
 12
687.8144383521408
 22
495.6055143458383
 32
0.0
 13
687.8144383521408
 23
495.6055143458383
 33
0.0
  0
SOLID
  5
2B22
330
28A9
100
AcDbEntity
  8
AM_5
370
     0
100
AcDbTrace
 10
687.3144383521407
 20
456.6077558198493
 30
0.0
 11
688.3144383521408
 21
456.6077558198493
 31
0.0
 12
687.8144383521408
 22
453.6077558198493
 32
0.0
 13
687.8144383521408
 23
453.6077558198493
 33
0.0
  0
MTEXT
  5
2B23
330
28A9
100
AcDbEntity
  8
AM_5
100
AcDbMText
 10
685.0640938639517
 20
474.6066350828439
 30
0.0
 40
3.5
 41
0.0
 71
     5
 72
     1
  1
%%c42
 11
0.0000000000000001
 21
1.0
 31
0.0
 73
     1
 44
1.0
1001
ACAD
1000
MTEXTBEGIN
1070
    73
1070
     1
1070
    44
1040
1.0
1070
    74
1070
     0
1000
MTEXTEND
  0
POINT
  5
2B24
330
28A9
100
AcDbEntity
  8
Defpoints
 62
     0
370
     0
100
AcDbPoint
 10
675.8144383521408
 20
495.6055143458383
 30
0.0
  0
POINT
  5
2B25
330
28A9
100
AcDbEntity
  8
Defpoints
 62
     0
370
     0
100
AcDbPoint
 10
675.8144383521405
 20
453.6077558198493
 30
0.0
  0
POINT
  5
2B26
330
28A9
100
AcDbEntity
  8
Defpoints
 62
     0
370
     0
100
AcDbPoint
 10
687.8144383521408
 20
453.6077558198493
 30
0.0
  0
ENDBLK
  5
28B4
330
28A9
100
AcDbEntity
  8
0
370
     0
100
AcDbBlockEnd
  0
BLOCK
  5
2912
330
2908
100
AcDbEntity
  8
0
370
     0
100
AcDbBlockBegin
  2
*D16
 70
     1
 10
0.0
 20
0.0
 30
0.0
  3
*D16
  1

  0
LINE
  5
2B27
330
2908
100
AcDbEntity
  8
AM_5
100
AcDbLine
 10
626.8144383521405
 20
413.1735680867268
 30
0.0
 11
626.8144383521405
 21
422.898413349864
 31
0.0
  0
LINE
  5
2B28
330
2908
100
AcDbEntity
  8
AM_5
100
AcDbLine
 10
675.8144383521405
 20
416.5754918753737
 30
0.0
 11
675.8144383521405
 21
422.898413349864
 31
0.0
  0
LINE
  5
2B29
330
2908
100
AcDbEntity
  8
AM_5
100
AcDbLine
 10
629.8144383521405
 20
421.8984133498639
 30
0.0
 11
672.8144383521405
 21
421.8984133498639
 31
0.0
  0
SOLID
  5
2B2A
330
2908
100
AcDbEntity
  8
AM_5
370
     0
100
AcDbTrace
 10
629.8144383521405
 20
422.3984133498639
 30
0.0
 11
629.8144383521405
 21
421.3984133498639
 31
0.0
 12
626.8144383521405
 22
421.8984133498639
 32
0.0
 13
626.8144383521405
 23
421.8984133498639
 33
0.0
  0
SOLID
  5
2B2B
330
2908
100
AcDbEntity
  8
AM_5
370
     0
100
AcDbTrace
 10
672.8144383521405
 20
422.3984133498639
 30
0.0
 11
672.8144383521405
 21
421.3984133498639
 31
0.0
 12
675.8144383521405
 22
421.8984133498639
 32
0.0
 13
675.8144383521405
 23
421.8984133498639
 33
0.0
  0
MTEXT
  5
2B2C
330
2908
100
AcDbEntity
  8
AM_5
100
AcDbMText
 10
651.017517614304
 20
424.8242592281484
 30
0.0
 40
3.5
 41
0.0
 71
     5
 72
     1
  1
(49)
 73
     1
 44
1.0
1001
ACAD
1000
MTEXTBEGIN
1070
    73
1070
     1
1070
    44
1040
1.0
1070
    74
1070
     0
1000
MTEXTEND
  0
POINT
  5
2B2D
330
2908
100
AcDbEntity
  8
Defpoints
 62
     0
370
     0
100
AcDbPoint
 10
626.8144383521405
 20
412.1735680867268
 30
0.0
  0
POINT
  5
2B2E
330
2908
100
AcDbEntity
  8
Defpoints
 62
     0
370
     0
100
AcDbPoint
 10
675.8144383521405
 20
415.5754918753737
 30
0.0
  0
POINT
  5
2B2F
330
2908
100
AcDbEntity
  8
Defpoints
 62
     0
370
     0
100
AcDbPoint
 10
675.8144383521405
 20
421.8984133498639
 30
0.0
  0
ENDBLK
  5
2913
330
2908
100
AcDbEntity
  8
0
370
     0
100
AcDbBlockEnd
  0
BLOCK
  5
2950
330
2946
100
AcDbEntity
  8
0
370
     0
100
AcDbBlockBegin
  2
*D17
 70
     1
 10
0.0
 20
0.0
 30
0.0
  3
*D17
  1

  0
LINE
  5
2B30
330
2946
100
AcDbEntity
  8
AM_5
100
AcDbLine
 10
675.8144383521405
 20
372.5754918753738
 30
0.0
 11
675.8144383521405
 21
355.5754918753738
 31
0.0
  0
LINE
  5
2B31
330
2946
100
AcDbEntity
  8
AM_5
100
AcDbLine
 10
644.3144383521405
 20
367.5754918753737
 30
0.0
 11
644.3144383521405
 21
355.5754918753738
 31
0.0
  0
LINE
  5
2B32
330
2946
100
AcDbEntity
  8
AM_5
100
AcDbLine
 10
672.8144383521405
 20
356.5754918753738
 30
0.0
 11
647.3144383521405
 21
356.5754918753738
 31
0.0
  0
SOLID
  5
2B33
330
2946
100
AcDbEntity
  8
AM_5
370
     0
100
AcDbTrace
 10
672.8144383521405
 20
357.0754918753738
 30
0.0
 11
672.8144383521405
 21
356.0754918753738
 31
0.0
 12
675.8144383521405
 22
356.5754918753738
 32
0.0
 13
675.8144383521405
 23
356.5754918753738
 33
0.0
  0
SOLID
  5
2B34
330
2946
100
AcDbEntity
  8
AM_5
370
     0
100
AcDbTrace
 10
647.3144383521405
 20
357.0754918753738
 30
0.0
 11
647.3144383521405
 21
356.0754918753738
 31
0.0
 12
644.3144383521405
 22
356.5754918753738
 32
0.0
 13
644.3144383521405
 23
356.5754918753738
 33
0.0
  0
MTEXT
  5
2B35
330
2946
100
AcDbEntity
  8
AM_5
100
AcDbMText
 10
660.0644383521405
 20
359.3254918753738
 30
0.0
 40
3.5
 41
0.0
 71
     5
 72
     1
  1
31.5
 73
     1
 44
1.0
1001
ACAD
1000
MTEXTBEGIN
1070
    73
1070
     1
1070
    44
1040
1.0
1070
    74
1070
     0
1000
MTEXTEND
  0
POINT
  5
2B36
330
2946
100
AcDbEntity
  8
Defpoints
 62
     0
370
     0
100
AcDbPoint
 10
675.8144383521405
 20
373.5754918753737
 30
0.0
  0
POINT
  5
2B37
330
2946
100
AcDbEntity
  8
Defpoints
 62
     0
370
     0
100
AcDbPoint
 10
644.3144383521405
 20
368.5754918753738
 30
0.0
  0
POINT
  5
2B38
330
2946
100
AcDbEntity
  8
Defpoints
 62
     0
370
     0
100
AcDbPoint
 10
644.3144383521405
 20
356.5754918753738
 30
0.0
  0
ENDBLK
  5
2951
330
2946
100
AcDbEntity
  8
0
370
     0
100
AcDbBlockEnd
  0
BLOCK
  5
2978
330
296E
100
AcDbEntity
  8
0
370
     0
100
AcDbBlockBegin
  2
*D18
 70
     1
 10
0.0
 20
0.0
 30
0.0
  3
*D18
  1

  0
LINE
  5
2B39
330
296E
100
AcDbEntity
  8
AM_5
100
AcDbLine
 10
675.8144383521405
 20
372.5754918753738
 30
0.0
 11
675.8144383521405
 21
349.0754918753733
 31
0.0
  0
LINE
  5
2B3A
330
296E
100
AcDbEntity
  8
AM_5
100
AcDbLine
 10
641.6144383521404
 20
363.5754918753737
 30
0.0
 11
641.6144383521404
 21
349.0754918753733
 31
0.0
  0
LINE
  5
2B3B
330
296E
100
AcDbEntity
  8
AM_5
100
AcDbLine
 10
672.8144383521405
 20
350.0754918753734
 30
0.0
 11
644.6144383521405
 21
350.0754918753734
 31
0.0
  0
SOLID
  5
2B3C
330
296E
100
AcDbEntity
  8
AM_5
370
     0
100
AcDbTrace
 10
672.8144383521405
 20
350.5754918753734
 30
0.0
 11
672.8144383521405
 21
349.5754918753734
 31
0.0
 12
675.8144383521405
 22
350.0754918753734
 32
0.0
 13
675.8144383521405
 23
350.0754918753734
 33
0.0
  0
SOLID
  5
2B3D
330
296E
100
AcDbEntity
  8
AM_5
370
     0
100
AcDbTrace
 10
644.6144383521405
 20
350.5754918753734
 30
0.0
 11
644.6144383521405
 21
349.5754918753734
 31
0.0
 12
641.6144383521404
 22
350.0754918753734
 32
0.0
 13
641.6144383521404
 23
350.0754918753734
 33
0.0
  0
MTEXT
  5
2B3E
330
296E
100
AcDbEntity
  8
AM_5
100
AcDbMText
 10
658.7144383521405
 20
352.8258363635623
 30
0.0
 40
3.5
 41
0.0
 71
     5
 72
     1
  1
34.2
 73
     1
 44
1.0
1001
ACAD
1000
MTEXTBEGIN
1070
    73
1070
     1
1070
    44
1040
1.0
1070
    74
1070
     0
1000
MTEXTEND
  0
POINT
  5
2B3F
330
296E
100
AcDbEntity
  8
Defpoints
 62
     0
370
     0
100
AcDbPoint
 10
675.8144383521405
 20
373.5754918753737
 30
0.0
  0
POINT
  5
2B40
330
296E
100
AcDbEntity
  8
Defpoints
 62
     0
370
     0
100
AcDbPoint
 10
641.6144383521404
 20
364.5754918753738
 30
0.0
  0
POINT
  5
2B41
330
296E
100
AcDbEntity
  8
Defpoints
 62
     0
370
     0
100
AcDbPoint
 10
641.6144383521404
 20
350.0754918753734
 30
0.0
  0
ENDBLK
  5
2979
330
296E
100
AcDbEntity
  8
0
370
     0
100
AcDbBlockEnd
  0
BLOCK
  5
29B9
330
29AD
100
AcDbEntity
  8
0
370
     0
100
AcDbBlockBegin
  2
*D19
 70
     1
 10
0.0
 20
0.0
 30
0.0
  3
*D19
  1

  0
LINE
  5
2B42
330
29AD
100
AcDbEntity
  8
AM_5
100
AcDbLine
 10
633.8144383521405
 20
363.5754918753737
 30
0.0
 11
633.8144383521405
 21
349.0754918753733
 31
0.0
  0
LINE
  5
2B43
330
29AD
100
AcDbEntity
  8
AM_5
100
AcDbLine
 10
641.6144383521404
 20
363.5754918753737
 30
0.0
 11
641.6144383521404
 21
349.0754918753733
 31
0.0
  0
LINE
  5
2B44
330
29AD
100
AcDbEntity
  8
AM_5
100
AcDbLine
 10
630.8144383521405
 20
350.0754918753734
 30
0.0
 11
627.8144383521405
 21
350.0754918753734
 31
0.0
  0
LINE
  5
2B45
330
29AD
100
AcDbEntity
  8
AM_5
100
AcDbLine
 10
644.6144383521405
 20
350.0754918753734
 30
0.0
 11
647.6144383521405
 21
350.0754918753734
 31
0.0
  0
LINE
  5
2B46
330
29AD
100
AcDbEntity
  8
AM_5
100
AcDbLine
 10
633.8144383521405
 20
350.0754918753734
 30
0.0
 11
641.6144383521404
 21
350.0754918753734
 31
0.0
  0
SOLID
  5
2B47
330
29AD
100
AcDbEntity
  8
AM_5
370
     0
100
AcDbTrace
 10
630.8144383521405
 20
350.5754918753734
 30
0.0
 11
630.8144383521405
 21
349.5754918753734
 31
0.0
 12
633.8144383521405
 22
350.0754918753734
 32
0.0
 13
633.8144383521405
 23
350.0754918753734
 33
0.0
  0
SOLID
  5
2B48
330
29AD
100
AcDbEntity
  8
AM_5
370
     0
100
AcDbTrace
 10
644.6144383521405
 20
350.5754918753734
 30
0.0
 11
644.6144383521405
 21
349.5754918753734
 31
0.0
 12
641.6144383521404
 22
350.0754918753734
 32
0.0
 13
641.6144383521404
 23
350.0754918753734
 33
0.0
  0
MTEXT
  5
2B49
330
29AD
100
AcDbEntity
  8
AM_5
100
AcDbMText
 10
637.7144383521405
 20
352.8254918753733
 30
0.0
 40
3.5
 41
0.0
 71
     5
 72
     1
  1
7.8
 73
     1
 44
1.0
1001
ACAD
1000
MTEXTBEGIN
1070
    73
1070
     1
1070
    44
1040
1.0
1070
    74
1070
     0
1000
MTEXTEND
  0
POINT
  5
2B4A
330
29AD
100
AcDbEntity
  8
Defpoints
 62
     0
370
     0
100
AcDbPoint
 10
633.8144383521405
 20
364.5754918753738
 30
0.0
  0
POINT
  5
2B4B
330
29AD
100
AcDbEntity
  8
Defpoints
 62
     0
370
     0
100
AcDbPoint
 10
641.6144383521404
 20
364.5754918753738
 30
0.0
  0
POINT
  5
2B4C
330
29AD
100
AcDbEntity
  8
Defpoints
 62
     0
370
     0
100
AcDbPoint
 10
641.6144383521404
 20
350.0754918753734
 30
0.0
  0
ENDBLK
  5
29BA
330
29AD
100
AcDbEntity
  8
0
370
     0
100
AcDbBlockEnd
  0
BLOCK
  5
2B6B
330
2B5F
100
AcDbEntity
  8
0
370
     0
100
AcDbBlockBegin
  2
*D20
 70
     1
 10
0.0
 20
0.0
 30
0.0
  3
*D20
  1

  0
LINE
  5
2BA2
330
2B5F
100
AcDbEntity
  8
AM_5
100
AcDbLine
 10
638.3144383521405
 20
363.5754918753737
 30
0.0
 11
638.3144383521405
 21
355.5754918753742
 31
0.0
  0
LINE
  5
2BA3
330
2B5F
100
AcDbEntity
  8
AM_5
100
AcDbLine
 10
633.8144383521405
 20
363.5754918753737
 30
0.0
 11
633.8144383521405
 21
355.5754918753742
 31
0.0
  0
LINE
  5
2BA4
330
2B5F
100
AcDbEntity
  8
AM_5
100
AcDbLine
 10
638.3144383521405
 20
356.5754918753742
 30
0.0
 11
641.3144383521405
 21
356.5754918753742
 31
0.0
  0
LINE
  5
2BA5
330
2B5F
100
AcDbEntity
  8
AM_5
100
AcDbLine
 10
630.8144383521405
 20
356.5754918753742
 30
0.0
 11
620.4194636053099
 21
356.5754918753742
 31
0.0
  0
LINE
  5
2BA6
330
2B5F
100
AcDbEntity
  8
AM_5
100
AcDbLine
 10
638.3144383521405
 20
356.5754918753742
 30
0.0
 11
633.8144383521405
 21
356.5754918753742
 31
0.0
  0
INSERT
  5
2BA7
330
2B5F
100
AcDbEntity
  8
AM_5
100
AcDbBlockReference
  2
_Oblique
 10
638.3144383521405
 20
356.5754918753742
 30
0.0
 41
3.0
 42
3.0
 43
3.0
 50
180.0
  0
SOLID
  5
2BA8
330
2B5F
100
AcDbEntity
  8
AM_5
370
     0
100
AcDbTrace
 10
630.8144383521405
 20
357.0754918753741
 30
0.0
 11
630.8144383521405
 21
356.0754918753742
 31
0.0
 12
633.8144383521405
 22
356.5754918753742
 32
0.0
 13
633.8144383521405
 23
356.5754918753742
 33
0.0
  0
MTEXT
  5
2BA9
330
2B5F
100
AcDbEntity
  8
AM_5
100
AcDbMText
 10
624.1169509787253
 20
359.3254918753741
 30
0.0
 40
3.5
 41
0.0
 71
     5
 72
     1
  1
4.5
 73
     1
 44
1.0
1001
ACAD
1000
MTEXTBEGIN
1070
    73
1070
     1
1070
    44
1040
1.0
1070
    74
1070
     0
1000
MTEXTEND
  0
POINT
  5
2BAA
330
2B5F
100
AcDbEntity
  8
Defpoints
 62
     0
370
     0
100
AcDbPoint
 10
638.3144383521405
 20
364.5754918753738
 30
0.0
  0
POINT
  5
2BAB
330
2B5F
100
AcDbEntity
  8
Defpoints
 62
     0
370
     0
100
AcDbPoint
 10
633.8144383521405
 20
364.5754918753738
 30
0.0
  0
POINT
  5
2BAC
330
2B5F
100
AcDbEntity
  8
Defpoints
 62
     0
370
     0
100
AcDbPoint
 10
633.8144383521405
 20
356.5754918753742
 30
0.0
  0
ENDBLK
  5
2B6C
330
2B5F
100
AcDbEntity
  8
0
370
     0
100
AcDbBlockEnd
  0
BLOCK
  5
2B8A
330
2B88
100
AcDbEntity
  8
0
370
     0
100
AcDbBlockBegin
  2
_Oblique
 70
     0
 10
0.0
 20
0.0
 30
0.0
  3
_Oblique
  1

  0
LINE
  5
2B89
330
2B88
100
AcDbEntity
  8
0
  6
ByBlock
 62
     0
370
    -2
100
AcDbLine
 10
-0.5
 20
-0.5
 30
0.0
 11
0.5
 21
0.5
 31
0.0
  0
ENDBLK
  5
2B8B
330
2B88
100
AcDbEntity
  8
0
370
     0
100
AcDbBlockEnd
  0
BLOCK
  5
2BCA
330
2BBE
100
AcDbEntity
  8
0
370
     0
100
AcDbBlockBegin
  2
*D22
 70
     1
 10
0.0
 20
0.0
 30
0.0
  3
*D22
  1

  0
LINE
  5
30E7
330
2BBE
100
AcDbEntity
  8
AM_5
100
AcDbLine
 10
625.8144383521405
 20
370.5754918753738
 30
0.0
 11
618.420855984183
 21
370.5754918753738
 31
0.0
  0
LINE
  5
30E8
330
2BBE
100
AcDbEntity
  8
AM_5
100
AcDbLine
 10
625.8144383521405
 20
372.5754918753738
 30
0.0
 11
618.420855984183
 21
372.5754918753738
 31
0.0
  0
LINE
  5
30E9
330
2BBE
100
AcDbEntity
  8
AM_5
100
AcDbLine
 10
619.420855984183
 20
375.5754918753738
 30
0.0
 11
619.420855984183
 21
378.5754918753738
 31
0.0
  0
LINE
  5
30EA
330
2BBE
100
AcDbEntity
  8
AM_5
100
AcDbLine
 10
619.420855984183
 20
367.5754918753737
 30
0.0
 11
619.420855984183
 21
360.8764072297045
 31
0.0
  0
LINE
  5
30EB
330
2BBE
100
AcDbEntity
  8
AM_5
100
AcDbLine
 10
619.420855984183
 20
372.5754918753738
 30
0.0
 11
619.420855984183
 21
370.5754918753738
 31
0.0
  0
SOLID
  5
30EC
330
2BBE
100
AcDbEntity
  8
AM_5
370
     0
100
AcDbTrace
 10
618.920855984183
 20
375.5754918753738
 30
0.0
 11
619.920855984183
 21
375.5754918753738
 31
0.0
 12
619.420855984183
 22
372.5754918753738
 32
0.0
 13
619.420855984183
 23
372.5754918753738
 33
0.0
  0
SOLID
  5
30ED
330
2BBE
100
AcDbEntity
  8
AM_5
370
     0
100
AcDbTrace
 10
618.920855984183
 20
367.5754918753737
 30
0.0
 11
619.920855984183
 21
367.5754918753737
 31
0.0
 12
619.420855984183
 22
370.5754918753738
 32
0.0
 13
619.420855984183
 23
370.5754918753738
 33
0.0
  0
MTEXT
  5
30EE
330
2BBE
100
AcDbEntity
  8
AM_5
100
AcDbMText
 10
616.6705114959939
 20
362.7259495525392
 30
0.0
 40
3.5
 41
0.0
 71
     5
 72
     1
  1
2
 11
0.0000000000000001
 21
1.0
 31
0.0
 73
     1
 44
1.0
1001
ACAD
1000
MTEXTBEGIN
1070
    73
1070
     1
1070
    44
1040
1.0
1070
    74
1070
     0
1000
MTEXTEND
  0
POINT
  5
30EF
330
2BBE
100
AcDbEntity
  8
Defpoints
 62
     0
370
     0
100
AcDbPoint
 10
626.8144383521405
 20
370.5754918753738
 30
0.0
  0
POINT
  5
30F0
330
2BBE
100
AcDbEntity
  8
Defpoints
 62
     0
370
     0
100
AcDbPoint
 10
626.8144383521405
 20
372.5754918753738
 30
0.0
  0
POINT
  5
30F1
330
2BBE
100
AcDbEntity
  8
Defpoints
 62
     0
370
     0
100
AcDbPoint
 10
619.420855984183
 20
372.5754918753738
 30
0.0
  0
ENDBLK
  5
2BCB
330
2BBE
100
AcDbEntity
  8
0
370
     0
100
AcDbBlockEnd
  0
BLOCK
  5
2C01
330
2BF5
100
AcDbEntity
  8
0
370
     0
100
AcDbBlockBegin
  2
*D23
 70
     1
 10
0.0
 20
0.0
 30
0.0
  3
*D23
  1

  0
LINE
  5
30D1
330
2BF5
100
AcDbEntity
  8
AM_5
100
AcDbLine
 10
625.8144383521405
 20
378.5754918753738
 30
0.0
 11
613.8144383521405
 21
378.5754918753738
 31
0.0
  0
LINE
  5
30D2
330
2BF5
100
AcDbEntity
  8
AM_5
100
AcDbLine
 10
625.8144383521405
 20
372.5754918753738
 30
0.0
 11
613.8144383521405
 21
372.5754918753738
 31
0.0
  0
LINE
  5
30D3
330
2BF5
100
AcDbEntity
  8
AM_5
100
AcDbLine
 10
614.8144383521405
 20
381.5754918753738
 30
0.0
 11
614.8144383521405
 21
384.5754918753738
 31
0.0
  0
LINE
  5
30D4
330
2BF5
100
AcDbEntity
  8
AM_5
100
AcDbLine
 10
614.8144383521405
 20
369.5754918753737
 30
0.0
 11
614.8144383521405
 21
366.5754918753738
 31
0.0
  0
LINE
  5
30D5
330
2BF5
100
AcDbEntity
  8
AM_5
100
AcDbLine
 10
614.8144383521405
 20
378.5754918753738
 30
0.0
 11
614.8144383521405
 21
372.5754918753738
 31
0.0
  0
SOLID
  5
30D6
330
2BF5
100
AcDbEntity
  8
AM_5
370
     0
100
AcDbTrace
 10
614.3144383521405
 20
381.5754918753738
 30
0.0
 11
615.3144383521405
 21
381.5754918753738
 31
0.0
 12
614.8144383521405
 22
378.5754918753738
 32
0.0
 13
614.8144383521405
 23
378.5754918753738
 33
0.0
  0
SOLID
  5
30D7
330
2BF5
100
AcDbEntity
  8
AM_5
370
     0
100
AcDbTrace
 10
614.3144383521405
 20
369.5754918753737
 30
0.0
 11
615.3144383521405
 21
369.5754918753737
 31
0.0
 12
614.8144383521405
 22
372.5754918753738
 32
0.0
 13
614.8144383521405
 23
372.5754918753738
 33
0.0
  0
MTEXT
  5
30D8
330
2BF5
100
AcDbEntity
  8
AM_5
100
AcDbMText
 10
612.0644383521404
 20
375.5754918753738
 30
0.0
 40
3.5
 41
0.0
 71
     5
 72
     1
  1
6
 11
0.0000000000000001
 21
1.0
 31
0.0
 73
     1
 44
1.0
1001
ACAD
1000
MTEXTBEGIN
1070
    73
1070
     1
1070
    44
1040
1.0
1070
    74
1070
     0
1000
MTEXTEND
  0
POINT
  5
30D9
330
2BF5
100
AcDbEntity
  8
Defpoints
 62
     0
370
     0
100
AcDbPoint
 10
626.8144383521405
 20
378.5754918753738
 30
0.0
  0
POINT
  5
30DA
330
2BF5
100
AcDbEntity
  8
Defpoints
 62
     0
370
     0
100
AcDbPoint
 10
626.8144383521405
 20
372.5754918753738
 30
0.0
  0
POINT
  5
30DB
330
2BF5
100
AcDbEntity
  8
Defpoints
 62
     0
370
     0
100
AcDbPoint
 10
614.8144383521405
 20
372.5754918753738
 30
0.0
  0
ENDBLK
  5
2C02
330
2BF5
100
AcDbEntity
  8
0
370
     0
100
AcDbBlockEnd
  0
BLOCK
  5
2C6E
330
2C64
100
AcDbEntity
  8
0
370
     0
100
AcDbBlockBegin
  2
*D24
 70
     1
 10
0.0
 20
0.0
 30
0.0
  3
*D24
  1

  0
LINE
  5
30C8
330
2C64
100
AcDbEntity
  8
AM_5
100
AcDbLine
 10
621.4734837732489
 20
394.5754918753737
 30
0.0
 11
607.3144383521405
 21
394.5754918753737
 31
0.0
  0
LINE
  5
30C9
330
2C64
100
AcDbEntity
  8
AM_5
100
AcDbLine
 10
625.8144383521405
 20
364.5754918753738
 30
0.0
 11
607.3144383521405
 21
364.5754918753738
 31
0.0
  0
LINE
  5
30CA
330
2C64
100
AcDbEntity
  8
AM_5
100
AcDbLine
 10
608.3144383521405
 20
391.5754918753738
 30
0.0
 11
608.3144383521405
 21
367.5754918753737
 31
0.0
  0
SOLID
  5
30CB
330
2C64
100
AcDbEntity
  8
AM_5
370
     0
100
AcDbTrace
 10
607.8144383521405
 20
391.5754918753738
 30
0.0
 11
608.8144383521405
 21
391.5754918753738
 31
0.0
 12
608.3144383521405
 22
394.5754918753737
 32
0.0
 13
608.3144383521405
 23
394.5754918753737
 33
0.0
  0
SOLID
  5
30CC
330
2C64
100
AcDbEntity
  8
AM_5
370
     0
100
AcDbTrace
 10
607.8144383521405
 20
367.5754918753737
 30
0.0
 11
608.8144383521405
 21
367.5754918753737
 31
0.0
 12
608.3144383521405
 22
364.5754918753738
 32
0.0
 13
608.3144383521405
 23
364.5754918753738
 33
0.0
  0
MTEXT
  5
30CD
330
2C64
100
AcDbEntity
  8
AM_5
100
AcDbMText
 10
605.5644383521403
 20
379.5754918753738
 30
0.0
 40
3.5
 41
0.0
 71
     5
 72
     1
  1
30
 11
0.0000000000000001
 21
1.0
 31
0.0
 73
     1
 44
1.0
1001
ACAD
1000
MTEXTBEGIN
1070
    73
1070
     1
1070
    44
1040
1.0
1070
    74
1070
     0
1000
MTEXTEND
  0
POINT
  5
30CE
330
2C64
100
AcDbEntity
  8
Defpoints
 62
     0
370
     0
100
AcDbPoint
 10
622.473483773249
 20
394.5754918753737
 30
0.0
  0
POINT
  5
30CF
330
2C64
100
AcDbEntity
  8
Defpoints
 62
     0
370
     0
100
AcDbPoint
 10
626.8144383521405
 20
364.5754918753738
 30
0.0
  0
POINT
  5
30D0
330
2C64
100
AcDbEntity
  8
Defpoints
 62
     0
370
     0
100
AcDbPoint
 10
608.3144383521405
 20
364.5754918753738
 30
0.0
  0
ENDBLK
  5
2C6F
330
2C64
100
AcDbEntity
  8
0
370
     0
100
AcDbBlockEnd
  0
BLOCK
  5
2CEA
330
2CDC
100
AcDbEntity
  8
0
370
     0
100
AcDbBlockBegin
  2
*D25
 70
     1
 10
0.0
 20
0.0
 30
0.0
  3
*D25
  1

  0
LINE
  5
3348
330
2CDC
100
AcDbEntity
  8
AM_5
100
AcDbLine
 10
744.0108082107553
 20
412.7420410170613
 30
0.0
 11
744.0108082107553
 21
421.3267825860961
 31
0.0
  0
LINE
  5
3349
330
2CDC
100
AcDbEntity
  8
AM_5
100
AcDbLine
 10
736.4863650575906
 20
415.2487295326637
 30
0.0
 11
734.8613279277275
 21
419.7134823527382
 31
0.0
  0
ARC
  5
334A
330
2CDC
100
AcDbEntity
  8
AM_5
100
AcDbCircle
 10
744.0108082107553
 20
394.5754918753737
 30
0.0
 40
25.75129071072247
100
AcDbArc
 50
76.64263538305745
 51
83.32131769152876
  0
ARC
  5
334B
330
2CDC
100
AcDbEntity
  8
AM_5
100
AcDbCircle
 10
744.0108082107553
 20
394.5754918753737
 30
0.0
 40
25.75129071072247
100
AcDbArc
 50
116.6786823084711
 51
123.3573646169424
  0
ARC
  5
334C
330
2CDC
100
AcDbEntity
  8
AM_5
100
AcDbCircle
 10
744.0108082107553
 20
394.5754918753737
 30
0.0
 40
25.75129071072247
100
AcDbArc
 50
90.00000000000007
 51
109.9999999999997
  0
SOLID
  5
334D
330
2CDC
100
AcDbEntity
  8
AM_5
370
     0
100
AcDbTrace
 10
746.9765896248347
 20
419.6528830357909
 30
0.0
 11
747.0348391322805
 21
420.651185091725
 31
0.0
 12
744.0108082107554
 22
420.3267825860962
 32
0.0
 13
744.0108082107554
 23
420.3267825860962
 33
0.0
  0
SOLID
  5
334E
330
2CDC
100
AcDbEntity
  8
AM_5
370
     0
100
AcDbTrace
 10
732.250736337597
 20
418.0443488834548
 30
0.0
 11
732.6469123821612
 21
417.1261743130635
 31
0.0
 12
735.2033480710531
 22
418.7737897319522
 32
0.0
 13
735.2033480710531
 23
418.7737897319522
 33
0.0
  0
MTEXT
  5
334F
330
2CDC
100
AcDbEntity
  8
AM_5
100
AcDbMText
 10
739.0615511979367
 20
422.6441231927874
 30
0.0
 40
3.5
 41
0.0
 71
     5
 72
     1
  1
20°
 11
0.9848077530122083
 21
0.1736481776669297
 31
0.0
 73
     1
 44
1.0
1001
ACAD
1000
MTEXTBEGIN
1070
    73
1070
     1
1070
    44
1040
1.0
1070
    74
1070
     0
1000
MTEXTEND
  0
POINT
  5
3350
330
2CDC
100
AcDbEntity
  8
Defpoints
 62
     0
370
     0
100
AcDbPoint
 10
741.0212658296615
 20
420.152661570627
 30
0.0
  0
POINT
  5
3351
330
2CDC
100
AcDbEntity
  8
Defpoints
 62
     0
370
     0
100
AcDbPoint
 10
744.0108082107553
 20
394.5754918753737
 30
0.0
  0
POINT
  5
3352
330
2CDC
100
AcDbEntity
  8
Defpoints
 62
     0
370
     0
100
AcDbPoint
 10
744.0108082107554
 20
369.3591791136809
 30
0.0
  0
POINT
  5
3353
330
2CDC
100
AcDbEntity
  8
Defpoints
 62
     0
370
     0
100
AcDbPoint
 10
744.0108082107554
 20
411.7420410170613
 30
0.0
  0
POINT
  5
3354
330
2CDC
100
AcDbEntity
  8
Defpoints
 62
     0
370
     0
100
AcDbPoint
 10
736.8283852009163
 20
414.3090369118779
 30
0.0
  0
ENDBLK
  5
2CEB
330
2CDC
100
AcDbEntity
  8
0
370
     0
100
AcDbBlockEnd
  0
BLOCK
  5
2D1F
330
2D11
100
AcDbEntity
  8
0
370
     0
100
AcDbBlockBegin
  2
*D26
 70
     1
 10
0.0
 20
0.0
 30
0.0
  3
*D26
  1

  0
LINE
  5
3355
330
2D11
100
AcDbEntity
  8
AM_5
100
AcDbLine
 10
751.5352513639198
 20
415.2487295326637
 30
0.0
 11
753.1602884937831
 21
419.7134823527382
 31
0.0
  0
LINE
  5
3356
330
2D11
100
AcDbEntity
  8
AM_5
100
AcDbLine
 10
744.0108082107554
 20
412.7420410170613
 30
0.0
 11
744.0108082107554
 21
421.3267825860961
 31
0.0
  0
ARC
  5
3357
330
2D11
100
AcDbEntity
  8
AM_5
100
AcDbCircle
 10
744.0108082107554
 20
394.5754918753737
 30
0.0
 40
25.75129071072241
100
AcDbArc
 50
56.6426353830576
 51
63.32131769152894
  0
ARC
  5
3358
330
2D11
100
AcDbEntity
  8
AM_5
100
AcDbCircle
 10
744.0108082107554
 20
394.5754918753737
 30
0.0
 40
25.75129071072241
100
AcDbArc
 50
96.67868230847128
 51
103.3573646169426
  0
ARC
  5
3359
330
2D11
100
AcDbEntity
  8
AM_5
100
AcDbCircle
 10
744.0108082107554
 20
394.5754918753737
 30
0.0
 40
25.75129071072241
100
AcDbArc
 50
70.00000000000027
 51
89.99999999999998
  0
SOLID
  5
335A
330
2D11
100
AcDbEntity
  8
AM_5
370
     0
100
AcDbTrace
 10
755.3747040393492
 20
417.1261743130633
 30
0.0
 11
755.7708800839137
 21
418.0443488834548
 31
0.0
 12
752.8182683504574
 22
418.7737897319522
 32
0.0
 13
752.8182683504574
 23
418.7737897319522
 33
0.0
  0
SOLID
  5
335B
330
2D11
100
AcDbEntity
  8
AM_5
370
     0
100
AcDbTrace
 10
740.9867772892299
 20
420.651185091725
 30
0.0
 11
741.0450267966759
 21
419.6528830357908
 31
0.0
 12
744.0108082107553
 22
420.3267825860961
 32
0.0
 13
744.0108082107553
 23
420.3267825860961
 33
0.0
  0
MTEXT
  5
335C
330
2D11
100
AcDbEntity
  8
AM_5
100
AcDbMText
 10
748.9600652235739
 20
422.6441231927871
 30
0.0
 40
3.5
 41
0.0
 71
     5
 72
     1
  1
20°
 11
0.9848077530122084
 21
-0.1736481776669291
 31
0.0
 73
     1
 44
1.0
1001
ACAD
1000
MTEXTBEGIN
1070
    73
1070
     1
1070
    44
1040
1.0
1070
    74
1070
     0
1000
MTEXTEND
  0
POINT
  5
335D
330
2D11
100
AcDbEntity
  8
Defpoints
 62
     0
370
     0
100
AcDbPoint
 10
749.9494645407501
 20
419.632653212252
 30
0.0
  0
POINT
  5
335E
330
2D11
100
AcDbEntity
  8
Defpoints
 62
     0
370
     0
100
AcDbPoint
 10
744.0108082107554
 20
394.5754918753737
 30
0.0
  0
POINT
  5
335F
330
2D11
100
AcDbEntity
  8
Defpoints
 62
     0
370
     0
100
AcDbPoint
 10
744.0108082107553
 20
369.3591791136809
 30
0.0
  0
POINT
  5
3360
330
2D11
100
AcDbEntity
  8
Defpoints
 62
     0
370
     0
100
AcDbPoint
 10
744.0108082107553
 20
411.7420410170613
 30
0.0
  0
POINT
  5
3361
330
2D11
100
AcDbEntity
  8
Defpoints
 62
     0
370
     0
100
AcDbPoint
 10
751.1932312205942
 20
414.3090369118778
 30
0.0
  0
ENDBLK
  5
2D20
330
2D11
100
AcDbEntity
  8
0
370
     0
100
AcDbBlockEnd
  0
BLOCK
  5
2D55
330
2D46
100
AcDbEntity
  8
0
370
     0
100
AcDbBlockBegin
  2
*D27
 70
     1
 10
0.0
 20
0.0
 30
0.0
  3
*D27
  1

  0
LINE
  5
3362
330
2D46
100
AcDbEntity
  8
AM_5
100
AcDbLine
 10
744.0108082107554
 20
412.7420410170612
 30
0.0
 11
744.0108082107554
 21
429.2608411355128
 31
0.0
  0
LINE
  5
3363
330
2D46
100
AcDbEntity
  8
AM_5
100
AcDbLine
 10
736.5484812796361
 20
412.5911427593437
 30
0.0
 11
730.7372997031032
 21
426.6205761348215
 31
0.0
  0
ARC
  5
3364
330
2D46
100
AcDbEntity
  8
AM_5
100
AcDbCircle
 10
744.0108082107554
 20
394.5754918753738
 30
0.0
 40
33.68534926013904
100
AcDbArc
 50
79.79115853559012
 51
84.89557926779511
  0
ARC
  5
3365
330
2D46
100
AcDbEntity
  8
AM_5
100
AcDbCircle
 10
744.0108082107554
 20
394.5754918753738
 30
0.0
 40
33.68534926013904
100
AcDbArc
 50
117.6044207322055
 51
122.7088414644105
  0
ARC
  5
3366
330
2D46
100
AcDbEntity
  8
AM_5
100
AcDbCircle
 10
744.0108082107554
 20
394.5754918753738
 30
0.0
 40
33.68534926013904
100
AcDbArc
 50
90.0000000000001
 51
112.5000000000005
  0
SOLID
  5
3367
330
2D46
100
AcDbEntity
  8
AM_5
370
     0
100
AcDbTrace
 10
746.9855675152907
 20
427.6277478721777
 30
0.0
 11
747.0300972599111
 21
428.6267559311261
 31
0.0
 12
744.0108082107554
 22
428.2608411355128
 32
0.0
 13
744.0108082107554
 23
428.2608411355128
 33
0.0
  0
SOLID
  5
3368
330
2D46
100
AcDbEntity
  8
AM_5
370
     0
100
AcDbTrace
 10
728.1904942502795
 20
424.8793258959873
 30
0.0
 11
728.6139382028809
 21
423.9734035930245
 31
0.0
 12
731.1199831354683
 22
425.6966966023104
 32
0.0
 13
731.1199831354683
 23
425.6966966023104
 33
0.0
  0
MTEXT
  5
3369
330
2D46
100
AcDbEntity
  8
AM_5
100
AcDbMText
 10
736.9025569845129
 20
430.3110839850139
 30
0.0
 40
3.5
 41
0.0
 71
     5
 72
     1
  1
22.5°
 11
0.9807852804032302
 21
0.1950903220161296
 31
0.0
 73
     1
 44
1.0
1001
ACAD
1000
MTEXTBEGIN
1070
    73
1070
     1
1070
    44
1040
1.0
1070
    74
1070
     0
1000
MTEXTEND
  0
POINT
  5
336A
330
2D46
100
AcDbEntity
  8
Defpoints
 62
     0
370
     0
100
AcDbPoint
 10
739.6139878382268
 20
427.9726583029208
 30
0.0
  0
POINT
  5
336B
330
2D46
100
AcDbEntity
  8
Defpoints
 62
     0
370
     0
100
AcDbPoint
 10
736.9311647120012
 20
411.6672632268325
 30
0.0
  0
POINT
  5
336C
330
2D46
100
AcDbEntity
  8
Defpoints
 62
     0
370
     0
100
AcDbPoint
 10
744.0108082107554
 20
369.3591791136809
 30
0.0
  0
POINT
  5
336D
330
2D46
100
AcDbEntity
  8
Defpoints
 62
     0
370
     0
100
AcDbPoint
 10
744.0108082107554
 20
411.7420410170613
 30
0.0
  0
POINT
  5
336E
330
2D46
100
AcDbEntity
  8
Defpoints
 62
     0
370
     0
100
AcDbPoint
 10
744.0108082107554
 20
394.5754918753737
 30
0.0
  0
ENDBLK
  5
2D56
330
2D46
100
AcDbEntity
  8
0
370
     0
100
AcDbBlockEnd
  0
BLOCK
  5
2EC1
330
2EB5
100
AcDbEntity
  8
0
370
     0
100
AcDbBlockBegin
  2
*D28
 70
     1
 10
0.0
 20
0.0
 30
0.0
  3
*D28
  1

  0
LINE
  5
336F
330
2EB5
100
AcDbEntity
  8
AM_5
100
AcDbLine
 10
750.4835975125599
 20
381.5619220863253
 30
0.0
 11
788.0830445705884
 21
397.1361229954959
 31
0.0
  0
LINE
  5
3370
330
2EB5
100
AcDbEntity
  8
AM_5
100
AcDbLine
 10
752.3970146743861
 20
376.942524423769
 30
0.0
 11
789.9964617324145
 21
392.5167253329397
 31
0.0
  0
LINE
  5
3371
330
2EB5
100
AcDbEntity
  8
AM_5
100
AcDbLine
 10
786.0111147409814
 20
399.5250781606644
 30
0.0
 11
784.8630644438858
 21
402.2967167581981
 31
0.0
  0
LINE
  5
3372
330
2EB5
100
AcDbEntity
  8
AM_5
100
AcDbLine
 10
790.220632496999
 20
389.3624033030408
 30
0.0
 11
791.3686827940946
 21
386.5907647055071
 31
0.0
  0
LINE
  5
3373
330
2EB5
100
AcDbEntity
  8
AM_5
100
AcDbLine
 10
787.1591650380771
 20
396.7534395631307
 30
0.0
 11
789.0725821999033
 21
392.1340419005744
 31
0.0
  0
SOLID
  5
3374
330
2EB5
100
AcDbEntity
  8
AM_5
370
     0
100
AcDbTrace
 10
786.4730545072371
 20
399.7164198768471
 30
0.0
 11
785.5491749747259
 21
399.3337364444818
 31
0.0
 12
787.1591650380771
 22
396.7534395631307
 32
0.0
 13
787.1591650380771
 23
396.7534395631307
 33
0.0
  0
SOLID
  5
3375
330
2EB5
100
AcDbEntity
  8
AM_5
370
     0
100
AcDbTrace
 10
790.6825722632545
 20
389.5537450192234
 30
0.0
 11
789.7586927307433
 21
389.1710615868582
 31
0.0
 12
789.0725821999033
 22
392.1340419005744
 32
0.0
 13
789.0725821999033
 23
392.1340419005744
 33
0.0
  0
MTEXT
  5
3376
330
2EB5
100
AcDbEntity
  8
AM_5
100
AcDbMText
 10
790.6565423333961
 20
395.496120170857
 30
0.0
 40
3.5
 41
0.0
 71
     5
 72
     1
  1
5
 11
0.3826834323652174
 21
-0.9238795325112338
 31
0.0
 73
     1
 44
1.0
1001
ACAD
1000
MTEXTBEGIN
1070
    73
1070
     1
1070
    44
1040
1.0
1070
    74
1070
     0
1000
MTEXTEND
  0
POINT
  5
3377
330
2EB5
100
AcDbEntity
  8
Defpoints
 62
     0
370
     0
100
AcDbPoint
 10
749.5597179800487
 20
381.1792386539601
 30
0.0
  0
POINT
  5
3378
330
2EB5
100
AcDbEntity
  8
Defpoints
 62
     0
370
     0
100
AcDbPoint
 10
751.4731351418748
 20
376.5598409914038
 30
0.0
  0
POINT
  5
3379
330
2EB5
100
AcDbEntity
  8
Defpoints
 62
     0
370
     0
100
AcDbPoint
 10
789.0725821999033
 20
392.1340419005744
 30
0.0
  0
ENDBLK
  5
2EC2
330
2EB5
100
AcDbEntity
  8
0
370
     0
100
AcDbBlockEnd
  0
BLOCK
  5
2EF1
330
2EE7
100
AcDbEntity
  8
0
370
     0
100
AcDbBlockBegin
  2
*D29
 70
     1
 10
0.0
 20
0.0
 30
0.0
  3
*D29
  1

  0
LINE
  5
337A
330
2EE7
100
AcDbEntity
  8
AM_5
100
AcDbLine
 10
750.4835975125599
 20
381.5619220863253
 30
0.0
 11
788.083044570588
 21
397.136122995494
 31
0.0
  0
LINE
  5
337B
330
2EE7
100
AcDbEntity
  8
AM_5
100
AcDbLine
 10
744.9346877432666
 20
394.9581753077388
 30
0.0
 11
782.534134801293
 21
410.5323762169068
 31
0.0
  0
LINE
  5
337C
330
2EE7
100
AcDbEntity
  8
AM_5
100
AcDbLine
 10
786.0111147409813
 20
399.5250781606626
 30
0.0
 11
782.7583055658773
 21
407.3780541870079
 31
0.0
  0
SOLID
  5
337D
330
2EE7
100
AcDbEntity
  8
AM_5
370
     0
100
AcDbTrace
 10
786.4730545072368
 20
399.7164198768452
 30
0.0
 11
785.5491749747256
 21
399.33373644448
 31
0.0
 12
787.1591650380768
 22
396.7534395631289
 32
0.0
 13
787.1591650380768
 23
396.7534395631289
 33
0.0
  0
SOLID
  5
337E
330
2EE7
100
AcDbEntity
  8
AM_5
370
     0
100
AcDbTrace
 10
783.2202453321329
 20
407.5693959031905
 30
0.0
 11
782.2963657996216
 21
407.1867124708253
 31
0.0
 12
781.6102552687818
 22
410.1496927845417
 32
0.0
 13
781.6102552687818
 23
410.1496927845417
 33
0.0
  0
MTEXT
  5
337F
330
2EE7
100
AcDbEntity
  8
AM_5
100
AcDbMText
 10
786.9253788678353
 20
404.5039456128395
 30
0.0
 40
3.5
 41
0.0
 71
     5
 72
     1
  1
14.5
 11
0.3826834323651821
 21
-0.9238795325112485
 31
0.0
 73
     1
 44
1.0
1001
ACAD
1000
MTEXTBEGIN
1070
    73
1070
     1
1070
    44
1040
1.0
1070
    74
1070
     0
1000
MTEXTEND
  0
POINT
  5
3380
330
2EE7
100
AcDbEntity
  8
Defpoints
 62
     0
370
     0
100
AcDbPoint
 10
749.5597179800488
 20
381.1792386539601
 30
0.0
  0
POINT
  5
3381
330
2EE7
100
AcDbEntity
  8
Defpoints
 62
     0
370
     0
100
AcDbPoint
 10
744.0108082107554
 20
394.5754918753737
 30
0.0
  0
POINT
  5
3382
330
2EE7
100
AcDbEntity
  8
Defpoints
 62
     0
370
     0
100
AcDbPoint
 10
781.6102552687818
 20
410.1496927845417
 30
0.0
  0
ENDBLK
  5
2EF2
330
2EE7
100
AcDbEntity
  8
0
370
     0
100
AcDbBlockEnd
  0
BLOCK
  5
2F4C
330
2F42
100
AcDbEntity
  8
0
370
     0
100
AcDbBlockBegin
  2
*D30
 70
     1
 10
0.0
 20
0.0
 30
0.0
  3
*D30
  1

  0
LINE
  5
3383
330
2F42
100
AcDbEntity
  8
AM_5
100
AcDbLine
 10
744.9346877432666
 20
394.9581753077388
 30
0.0
 11
782.5341348012926
 21
410.5323762169067
 31
0.0
  0
LINE
  5
3384
330
2F42
100
AcDbEntity
  8
AM_5
100
AcDbLine
 10
738.4290693930597
 20
410.6641273604308
 30
0.0
 11
776.0285164510844
 21
426.2383282695982
 31
0.0
  0
LINE
  5
3385
330
2F42
100
AcDbEntity
  8
AM_5
100
AcDbLine
 10
780.4622049716859
 20
412.9213313820753
 30
0.0
 11
776.2526872156687
 21
423.0840062396993
 31
0.0
  0
SOLID
  5
3386
330
2F42
100
AcDbEntity
  8
AM_5
370
     0
100
AcDbTrace
 10
780.9241447379415
 20
413.1126730982579
 30
0.0
 11
780.0002652054303
 21
412.7299896658927
 31
0.0
 12
781.6102552687814
 22
410.1496927845415
 32
0.0
 13
781.6102552687814
 23
410.1496927845415
 33
0.0
  0
SOLID
  5
3387
330
2F42
100
AcDbEntity
  8
AM_5
370
     0
100
AcDbTrace
 10
776.7146269819244
 20
423.2753479558819
 30
0.0
 11
775.7907474494132
 21
422.8926645235167
 31
0.0
 12
775.1046369185732
 22
425.855644837233
 32
0.0
 13
775.1046369185732
 23
425.855644837233
 33
0.0
  0
MTEXT
  5
3388
330
2F42
100
AcDbEntity
  8
AM_5
100
AcDbMText
 10
780.8981148080833
 20
419.0550482498916
 30
0.0
 40
3.5
 41
0.0
 71
     5
 72
     1
  1
17
 11
0.3826834323651821
 21
-0.9238795325112485
 31
0.0
 73
     1
 44
1.0
1001
ACAD
1000
MTEXTBEGIN
1070
    73
1070
     1
1070
    44
1040
1.0
1070
    74
1070
     0
1000
MTEXTEND
  0
POINT
  5
3389
330
2F42
100
AcDbEntity
  8
Defpoints
 62
     0
370
     0
100
AcDbPoint
 10
744.0108082107554
 20
394.5754918753737
 30
0.0
  0
POINT
  5
338A
330
2F42
100
AcDbEntity
  8
Defpoints
 62
     0
370
     0
100
AcDbPoint
 10
737.5051898605485
 20
410.2814439280656
 30
0.0
  0
POINT
  5
338B
330
2F42
100
AcDbEntity
  8
Defpoints
 62
     0
370
     0
100
AcDbPoint
 10
775.1046369185732
 20
425.855644837233
 30
0.0
  0
ENDBLK
  5
2F4D
330
2F42
100
AcDbEntity
  8
0
370
     0
100
AcDbBlockEnd
  0
BLOCK
  5
2F6F
330
2F68
100
AcDbEntity
  8
0
370
     0
100
AcDbBlockBegin
  2
*D31
 70
     1
 10
0.0
 20
0.0
 30
0.0
  3
*D31
  1

  0
LINE
  5
338C
330
2F68
100
AcDbEntity
  8
AM_5
100
AcDbLine
 10
726.5794812774215
 20
398.8728870277634
 30
0.0
 11
717.5145119475381
 21
384.8094098243828
 31
0.0
  0
LINE
  5
338D
330
2F68
100
AcDbEntity
  8
AM_5
100
AcDbLine
 10
717.5145119475381
 20
384.8094098243828
 30
0.0
 11
698.3145119475381
 21
384.8094098243828
 31
0.0
  0
SOLID
  5
338E
330
2F68
100
AcDbEntity
  8
AM_5
370
     0
100
AcDbTrace
 10
726.1592207926605
 20
399.1437765346632
 30
0.0
 11
726.9997417621826
 21
398.6019975208635
 31
0.0
 12
728.2048183188205
 22
401.3944499363296
 32
0.0
 13
728.2048183188205
 23
401.3944499363296
 33
0.0
  0
MTEXT
  5
338F
330
2F68
100
AcDbEntity
  8
AM_5
100
AcDbMText
 10
707.4145119475384
 20
387.5594098243827
 30
0.0
 40
3.5
 41
0.0
 71
     5
 72
     1
  1
3-M4*0.7
 73
     1
 44
1.0
1001
ACAD
1000
MTEXTBEGIN
1070
    73
1070
     1
1070
    44
1040
1.0
1070
    74
1070
     0
1000
MTEXTEND
  0
POINT
  5
3390
330
2F68
100
AcDbEntity
  8
Defpoints
 62
     0
370
     0
100
AcDbPoint
 10
728.2048183188205
 20
401.3944499363296
 30
0.0
  0
POINT
  5
3391
330
2F68
100
AcDbEntity
  8
Defpoints
 62
     0
370
     0
100
AcDbPoint
 10
729.2883763464196
 20
403.0754918753736
 30
0.0
  0
ENDBLK
  5
2F70
330
2F68
100
AcDbEntity
  8
0
370
     0
100
AcDbBlockEnd
  0
BLOCK
  5
301B
330
3015
100
AcDbEntity
  8
0
370
     0
100
AcDbBlockBegin
  2
*D32
 70
     1
 10
0.0
 20
0.0
 30
0.0
  3
*D32
  1

  0
LINE
  5
3392
330
3015
100
AcDbEntity
  8
AM_5
100
AcDbLine
 10
733.9369184985478
 20
413.023238866992
 30
0.0
 11
723.4681667123526
 21
421.0672376978901
 31
0.0
  0
LINE
  5
3393
330
3015
100
AcDbEntity
  8
AM_5
100
AcDbLine
 10
723.4681667123526
 20
421.0672376978901
 30
0.0
 11
700.9913138088758
 21
421.06723769789
 31
0.0
  0
SOLID
  5
3394
330
3015
100
AcDbEntity
  8
AM_5
370
     0
100
AcDbTrace
 10
734.2415623806507
 20
413.41971346277
 30
0.0
 11
733.6322746164448
 21
412.6267642712141
 31
0.0
 12
736.3157660732152
 22
411.1953755743745
 32
0.0
 13
736.3157660732152
 23
411.1953755743745
 33
0.0
  0
MTEXT
  5
3395
330
3015
100
AcDbEntity
  8
AM_5
100
AcDbMText
 10
711.7297402606141
 20
424.2547376978901
 30
0.0
 40
3.5
 41
0.0
 71
     5
 72
     1
  1
\U+22053*3depth
 73
     1
 44
1.0
1001
ACAD
1000
MTEXTBEGIN
1070
    73
1070
     1
1070
    44
1040
1.0
1070
    74
1070
     0
1000
MTEXTEND
  0
POINT
  5
3396
330
3015
100
AcDbEntity
  8
Defpoints
 62
     0
370
     0
100
AcDbPoint
 10
736.3157660732152
 20
411.1953755743745
 30
0.0
  0
POINT
  5
3397
330
3015
100
AcDbEntity
  8
Defpoints
 62
     0
370
     0
100
AcDbPoint
 10
738.6946136478825
 20
409.3675122817571
 30
0.0
  0
ENDBLK
  5
301C
330
3015
100
AcDbEntity
  8
0
370
     0
100
AcDbBlockEnd
  0
BLOCK
  5
3064
330
305E
100
AcDbEntity
  8
0
370
     0
100
AcDbBlockBegin
  2
*D33
 70
     1
 10
0.0
 20
0.0
 30
0.0
  3
*D33
  1

  0
LINE
  5
3398
330
305E
100
AcDbEntity
  8
AM_5
100
AcDbLine
 10
732.6167239576058
 20
405.8082495079471
 30
0.0
 11
730.4803331601403
 21
407.9143915640547
 31
0.0
  0
LINE
  5
3399
330
305E
100
AcDbEntity
  8
AM_5
100
AcDbLine
 10
755.4048924639044
 20
383.3427342428003
 30
0.0
 11
763.2952279992475
 21
375.5641164320979
 31
0.0
  0
LINE
  5
339A
330
305E
100
AcDbEntity
  8
AM_5
100
AcDbLine
 10
763.2952279992475
 20
375.5641164320979
 30
0.0
 11
791.0220809027244
 21
375.5641164320979
 31
0.0
  0
LINE
  5
339B
330
305E
100
AcDbEntity
  8
AM_5
100
AcDbLine
 10
734.7531147550713
 20
403.7021074518396
 30
0.0
 11
753.2685016664389
 21
385.4488762989078
 31
0.0
  0
SOLID
  5
339C
330
305E
100
AcDbEntity
  8
AM_5
370
     0
100
AcDbTrace
 10
732.9677476336237
 20
406.1643146408581
 30
0.0
 11
732.2657002815879
 21
405.4521843750363
 31
0.0
 12
734.7531147550713
 22
403.7021074518396
 32
0.0
 13
734.7531147550713
 23
403.7021074518396
 33
0.0
  0
SOLID
  5
339D
330
305E
100
AcDbEntity
  8
AM_5
370
     0
100
AcDbTrace
 10
755.7559161399224
 20
383.6987993757113
 30
0.0
 11
755.0538687878866
 21
382.9866691098894
 31
0.0
 12
753.2685016664389
 22
385.4488762989078
 32
0.0
 13
753.2685016664389
 23
385.4488762989078
 33
0.0
  0
MTEXT
  5
339E
330
305E
100
AcDbEntity
  8
AM_5
100
AcDbMText
 10
777.6586544509861
 20
378.751960920287
 30
0.0
 40
3.5
 41
0.0
 71
     5
 72
     1
  1
\U+220526*1.5depth
 73
     1
 44
1.0
1001
ACAD
1000
MTEXTBEGIN
1070
    73
1070
     1
1070
    44
1040
1.0
1070
    74
1070
     0
1000
MTEXTEND
  0
POINT
  5
339F
330
305E
100
AcDbEntity
  8
Defpoints
 62
     0
370
     0
100
AcDbPoint
 10
753.2685016664389
 20
385.4488762989078
 30
0.0
  0
POINT
  5
33A0
330
305E
100
AcDbEntity
  8
Defpoints
 62
     0
370
     0
100
AcDbPoint
 10
734.7531147550713
 20
403.7021074518396
 30
0.0
  0
ENDBLK
  5
3065
330
305E
100
AcDbEntity
  8
0
370
     0
100
AcDbBlockEnd
  0
BLOCK
  5
310C
330
3102
100
AcDbEntity
  8
0
370
     0
100
AcDbBlockBegin
  2
*D34
 70
     1
 10
0.0
 20
0.0
 30
0.0
  3
*D34
  1

  0
LINE
  5
310E
330
3102
100
AcDbEntity
  8
AM_5
100
AcDbLine
 10
534.2265058095439
 20
404.709409322533
 30
0.0
 11
523.8342009641304
 21
410.7094093225331
 31
0.0
  0
LINE
  5
310F
330
3102
100
AcDbEntity
  8
AM_5
100
AcDbLine
 10
540.7265058095438
 20
415.9677395717307
 30
0.0
 11
530.3342009641304
 21
421.9677395717308
 31
0.0
  0
LINE
  5
3110
330
3102
100
AcDbEntity
  8
AM_5
100
AcDbLine
 10
526.2002263679148
 20
412.8074855338865
 30
0.0
 11
529.7002263679148
 21
418.8696633603775
 31
0.0
  0
SOLID
  5
3111
330
3102
100
AcDbEntity
  8
AM_5
370
     0
100
AcDbTrace
 10
525.7672136660225
 20
413.0574855338864
 30
0.0
 11
526.6332390698071
 21
412.5574855338864
 31
0.0
 12
524.7002263679148
 22
410.2094093225331
 32
0.0
 13
524.7002263679148
 23
410.2094093225331
 33
0.0
  0
SOLID
  5
3112
330
3102
100
AcDbEntity
  8
AM_5
370
     0
100
AcDbTrace
 10
529.2672136660225
 20
419.1196633603775
 30
0.0
 11
530.1332390698071
 21
418.6196633603775
 31
0.0
 12
531.2002263679148
 22
421.4677395717307
 32
0.0
 13
531.2002263679148
 23
421.4677395717307
 33
0.0
  0
MTEXT
  5
3113
330
3102
100
AcDbEntity
  8
AM_5
100
AcDbMText
 10
525.5686565075076
 20
417.213574447132
 30
0.0
 40
3.5
 41
0.0
 71
     5
 72
     1
  1
13
 11
0.5000000000000007
 21
0.8660254037844381
 31
0.0
 73
     1
 44
1.0
1001
ACAD
1000
MTEXTBEGIN
1070
    73
1070
     1
1070
    44
1040
1.0
1070
    74
1070
     0
1000
MTEXTEND
  0
POINT
  5
3114
330
3102
100
AcDbEntity
  8
Defpoints
 62
     0
370
     0
100
AcDbPoint
 10
535.0925312133283
 20
404.2094093225329
 30
0.0
  0
POINT
  5
3115
330
3102
100
AcDbEntity
  8
Defpoints
 62
     0
370
     0
100
AcDbPoint
 10
541.5925312133283
 20
415.4677395717307
 30
0.0
  0
POINT
  5
3116
330
3102
100
AcDbEntity
  8
Defpoints
 62
     0
370
     0
100
AcDbPoint
 10
531.2002263679148
 20
421.4677395717307
 30
0.0
  0
ENDBLK
  5
310D
330
3102
100
AcDbEntity
  8
0
370
     0
100
AcDbBlockEnd
  0
BLOCK
  5
3134
330
312A
100
AcDbEntity
  8
0
370
     0
100
AcDbBlockBegin
  2
*D35
 70
     1
 10
0.0
 20
0.0
 30
0.0
  3
*D35
  1

  0
LINE
  5
3136
330
312A
100
AcDbEntity
  8
AM_5
100
AcDbLine
 10
537.7474850043543
 20
399.2124694214611
 30
0.0
 11
516.7050358395407
 21
411.3613331111753
 31
0.0
  0
LINE
  5
3137
330
312A
100
AcDbEntity
  8
AM_5
100
AcDbLine
 10
547.2474850043542
 20
415.6669520933649
 30
0.0
 11
526.2050358395406
 21
427.8158157830792
 31
0.0
  0
LINE
  5
3138
330
312A
100
AcDbEntity
  8
AM_5
100
AcDbLine
 10
519.0710612433252
 20
413.4594093225287
 30
0.0
 11
525.571061243325
 21
424.7177395717259
 31
0.0
  0
SOLID
  5
3139
330
312A
100
AcDbEntity
  8
AM_5
370
     0
100
AcDbTrace
 10
518.638048541433
 20
413.7094093225287
 30
0.0
 11
519.5040739452174
 21
413.2094093225287
 31
0.0
 12
517.5710612433252
 22
410.8613331111754
 32
0.0
 13
517.5710612433252
 23
410.8613331111754
 33
0.0
  0
SOLID
  5
313A
330
312A
100
AcDbEntity
  8
AM_5
370
     0
100
AcDbTrace
 10
525.1380485414329
 20
424.9677395717259
 30
0.0
 11
526.0040739452173
 21
424.467739571726
 31
0.0
 12
527.0710612433251
 22
427.3158157830792
 32
0.0
 13
527.0710612433251
 23
427.3158157830792
 33
0.0
  0
MTEXT
  5
313B
330
312A
100
AcDbEntity
  8
AM_5
100
AcDbMText
 10
519.9394913829179
 20
420.4635744471273
 30
0.0
 40
3.5
 41
0.0
 71
     5
 72
     1
  1
19
 11
0.5000000000000063
 21
0.8660254037844349
 31
0.0
 73
     1
 44
1.0
1001
ACAD
1000
MTEXTBEGIN
1070
    73
1070
     1
1070
    44
1040
1.0
1070
    74
1070
     0
1000
MTEXTEND
  0
POINT
  5
313C
330
312A
100
AcDbEntity
  8
Defpoints
 62
     0
370
     0
100
AcDbPoint
 10
538.6135104081387
 20
398.7124694214611
 30
0.0
  0
POINT
  5
313D
330
312A
100
AcDbEntity
  8
Defpoints
 62
     0
370
     0
100
AcDbPoint
 10
548.1135104081386
 20
415.166952093365
 30
0.0
  0
POINT
  5
313E
330
312A
100
AcDbEntity
  8
Defpoints
 62
     0
370
     0
100
AcDbPoint
 10
527.0710612433251
 20
427.3158157830792
 30
0.0
  0
ENDBLK
  5
3135
330
312A
100
AcDbEntity
  8
0
370
     0
100
AcDbBlockEnd
  0
BLOCK
  5
3164
330
315E
100
AcDbEntity
  8
0
370
     0
100
AcDbBlockBegin
  2
*D36
 70
     1
 10
0.0
 20
0.0
 30
0.0
  3
*D36
  1

  0
LINE
  5
3174
330
315E
100
AcDbEntity
  8
AM_5
100
AcDbLine
 10
592.8072739479735
 20
400.2849354318747
 30
0.0
 11
595.7538926329162
 21
400.8483520854689
 31
0.0
  0
LINE
  5
3175
330
315E
100
AcDbEntity
  8
AM_5
100
AcDbLine
 10
535.8393127057499
 20
389.3922134623884
 30
0.0
 11
520.7173966468919
 21
386.5007842505428
 31
0.0
  0
LINE
  5
3176
330
315E
100
AcDbEntity
  8
AM_5
100
AcDbLine
 10
589.8606552630309
 20
399.7215187782807
 30
0.0
 11
538.7859313906924
 21
389.9556301159826
 31
0.0
  0
SOLID
  5
3177
330
315E
100
AcDbEntity
  8
AM_5
370
     0
100
AcDbTrace
 10
592.7133711723744
 20
400.7760385460319
 30
0.0
 11
592.9011767235724
 21
399.7938323177177
 31
0.0
 12
589.8606552630309
 22
399.7215187782807
 32
0.0
 13
589.8606552630309
 23
399.7215187782807
 33
0.0
  0
SOLID
  5
3178
330
315E
100
AcDbEntity
  8
AM_5
370
     0
100
AcDbTrace
 10
535.7454099301508
 20
389.8833165765456
 30
0.0
 11
535.9332154813488
 21
388.9011103482313
 31
0.0
 12
538.7859313906924
 22
389.9556301159826
 32
0.0
 13
538.7859313906924
 23
389.9556301159826
 33
0.0
  0
MTEXT
  5
3179
330
315E
100
AcDbEntity
  8
AM_5
100
AcDbMText
 10
524.7240278732234
 20
390.067053709157
 30
0.0
 40
3.5
 41
0.0
 71
     5
 72
     1
  1
\U+220552
 11
0.9822062283141967
 21
0.1878055511980413
 31
0.0
 73
     1
 44
1.0
1001
ACAD
1000
MTEXTBEGIN
1070
    73
1070
     1
1070
    44
1040
1.0
1070
    74
1070
     0
1000
MTEXTEND
  0
POINT
  5
317A
330
315E
100
AcDbEntity
  8
Defpoints
 62
     0
370
     0
100
AcDbPoint
 10
538.7859313906924
 20
389.9556301159826
 30
0.0
  0
POINT
  5
317B
330
315E
100
AcDbEntity
  8
Defpoints
 62
     0
370
     0
100
AcDbPoint
 10
589.8606552630309
 20
399.7215187782807
 30
0.0
  0
ENDBLK
  5
3165
330
315E
100
AcDbEntity
  8
0
370
     0
100
AcDbBlockEnd
  0
BLOCK
  5
31A5
330
319F
100
AcDbEntity
  8
0
370
     0
100
AcDbBlockBegin
  2
*D37
 70
     1
 10
0.0
 20
0.0
 30
0.0
  3
*D37
  1

  0
LINE
  5
31E3
330
319F
100
AcDbEntity
  8
AM_5
100
AcDbLine
 10
546.7672175691167
 20
381.9189633459887
 30
0.0
 11
540.6474097352748
 21
372.373949343975
 31
0.0
  0
LINE
  5
31E4
330
319F
100
AcDbEntity
  8
AM_5
100
AcDbLine
 10
540.6474097352748
 20
372.373949343975
 30
0.0
 11
518.1705568317981
 21
372.373949343975
 31
0.0
  0
SOLID
  5
31E5
330
319F
100
AcDbEntity
  8
AM_5
370
     0
100
AcDbTrace
 10
546.3463022261508
 20
382.18883419298
 30
0.0
 11
547.1881329120828
 21
381.6490924989973
 31
0.0
 12
548.3864426510647
 22
384.4444554037846
 32
0.0
 13
548.3864426510647
 23
384.4444554037846
 33
0.0
  0
MTEXT
  5
31E6
330
319F
100
AcDbEntity
  8
AM_5
100
AcDbMText
 10
528.9089832835363
 20
378.4781160106416
 30
0.0
 40
3.5
 41
0.0
 71
     5
 72
     1
  1
3-\U+22054.5\P%%c8*8depth
 73
     1
 44
1.0
1001
ACAD
1000
MTEXTBEGIN
1070
    73
1070
     1
1070
    44
1040
1.0
1070
    74
1070
     0
1000
MTEXTEND
  0
POINT
  5
31E7
330
319F
100
AcDbEntity
  8
Defpoints
 62
     0
370
     0
100
AcDbPoint
 10
548.3864426510647
 20
384.4444554037846
 30
0.0
  0
POINT
  5
31E8
330
319F
100
AcDbEntity
  8
Defpoints
 62
     0
370
     0
100
AcDbPoint
 10
550.8152802739866
 20
388.2326934904785
 30
0.0
  0
ENDBLK
  5
31A6
330
319F
100
AcDbEntity
  8
0
370
     0
100
AcDbBlockEnd
  0
BLOCK
  5
321C
330
3210
100
AcDbEntity
  8
0
370
     0
100
AcDbBlockBegin
  2
*D38
 70
     1
 10
0.0
 20
0.0
 30
0.0
  3
*D38
  1

  0
LINE
  5
321E
330
3210
100
AcDbEntity
  8
AM_5
100
AcDbLine
 10
561.3232933268615
 20
363.8385744471317
 30
0.0
 11
561.3232933268615
 21
351.8385744471316
 31
0.0
  0
LINE
  5
321F
330
3210
100
AcDbEntity
  8
AM_5
100
AcDbLine
 10
567.3232933268616
 20
363.8385744471317
 30
0.0
 11
567.3232933268616
 21
351.8385744471316
 31
0.0
  0
LINE
  5
3220
330
3210
100
AcDbEntity
  8
AM_5
100
AcDbLine
 10
558.3232933268615
 20
352.8385744471316
 30
0.0
 11
555.3232933268615
 21
352.8385744471316
 31
0.0
  0
LINE
  5
3221
330
3210
100
AcDbEntity
  8
AM_5
100
AcDbLine
 10
570.3232933268616
 20
352.8385744471316
 30
0.0
 11
573.3232933268616
 21
352.8385744471316
 31
0.0
  0
LINE
  5
3222
330
3210
100
AcDbEntity
  8
AM_5
100
AcDbLine
 10
561.3232933268615
 20
352.8385744471316
 30
0.0
 11
567.3232933268616
 21
352.8385744471316
 31
0.0
  0
SOLID
  5
3223
330
3210
100
AcDbEntity
  8
AM_5
370
     0
100
AcDbTrace
 10
558.3232933268615
 20
353.3385744471317
 30
0.0
 11
558.3232933268615
 21
352.3385744471316
 31
0.0
 12
561.3232933268615
 22
352.8385744471316
 32
0.0
 13
561.3232933268615
 23
352.8385744471316
 33
0.0
  0
SOLID
  5
3224
330
3210
100
AcDbEntity
  8
AM_5
370
     0
100
AcDbTrace
 10
570.3232933268616
 20
353.3385744471317
 30
0.0
 11
570.3232933268616
 21
352.3385744471316
 31
0.0
 12
567.3232933268616
 22
352.8385744471316
 32
0.0
 13
567.3232933268616
 23
352.8385744471316
 33
0.0
  0
MTEXT
  5
3225
330
3210
100
AcDbEntity
  8
AM_5
100
AcDbMText
 10
564.3232933268616
 20
355.5885744471317
 30
0.0
 40
3.5
 41
0.0
 71
     5
 72
     1
  1
6
 73
     1
 44
1.0
1001
ACAD
1000
MTEXTBEGIN
1070
    73
1070
     1
1070
    44
1040
1.0
1070
    74
1070
     0
1000
MTEXTEND
  0
POINT
  5
3226
330
3210
100
AcDbEntity
  8
Defpoints
 62
     0
370
     0
100
AcDbPoint
 10
561.3232933268615
 20
364.8385744471316
 30
0.0
  0
POINT
  5
3227
330
3210
100
AcDbEntity
  8
Defpoints
 62
     0
370
     0
100
AcDbPoint
 10
567.3232933268616
 20
364.8385744471316
 30
0.0
  0
POINT
  5
3228
330
3210
100
AcDbEntity
  8
Defpoints
 62
     0
370
     0
100
AcDbPoint
 10
567.3232933268616
 20
352.8385744471316
 30
0.0
  0
ENDBLK
  5
321D
330
3210
100
AcDbEntity
  8
0
370
     0
100
AcDbBlockEnd
  0
BLOCK
  5
3248
330
323C
100
AcDbEntity
  8
0
370
     0
100
AcDbBlockBegin
  2
*D39
 70
     1
 10
0.0
 20
0.0
 30
0.0
  3
*D39
  1

  0
LINE
  5
32E1
330
323C
100
AcDbEntity
  8
AM_5
100
AcDbLine
 10
571.8232933268616
 20
364.8385744471316
 30
0.0
 11
583.8232933268616
 21
364.8385744471316
 31
0.0
  0
LINE
  5
32E2
330
323C
100
AcDbEntity
  8
AM_5
100
AcDbLine
 10
565.3232933268616
 20
367.8385744471317
 30
0.0
 11
583.8232933268616
 21
367.8385744471317
 31
0.0
  0
LINE
  5
32E3
330
323C
100
AcDbEntity
  8
AM_5
100
AcDbLine
 10
582.8232933268616
 20
370.8385744471316
 30
0.0
 11
582.8232933268616
 21
373.8385744471316
 31
0.0
  0
LINE
  5
32E4
330
323C
100
AcDbEntity
  8
AM_5
100
AcDbLine
 10
582.8232933268616
 20
361.8385744471317
 30
0.0
 11
582.8232933268616
 21
355.293599700301
 31
0.0
  0
LINE
  5
32E5
330
323C
100
AcDbEntity
  8
AM_5
100
AcDbLine
 10
582.8232933268616
 20
367.8385744471317
 30
0.0
 11
582.8232933268616
 21
364.8385744471316
 31
0.0
  0
INSERT
  5
32E6
330
323C
100
AcDbEntity
  8
AM_5
100
AcDbBlockReference
  2
GENDOT
 10
582.8232933268616
 20
367.8385744471317
 30
0.0
 41
3.0
 42
3.0
 43
3.0
 50
270.0
  0
SOLID
  5
32E7
330
323C
100
AcDbEntity
  8
AM_5
370
     0
100
AcDbTrace
 10
582.3232933268616
 20
361.8385744471317
 30
0.0
 11
583.3232933268616
 21
361.8385744471317
 31
0.0
 12
582.8232933268616
 22
364.8385744471316
 32
0.0
 13
582.8232933268616
 23
364.8385744471316
 33
0.0
  0
MTEXT
  5
32E8
330
323C
100
AcDbEntity
  8
AM_5
100
AcDbMText
 10
580.0732933268615
 20
357.0660870737164
 30
0.0
 40
3.5
 41
0.0
 71
     5
 72
     1
  1
3
 11
0.0000000000000001
 21
1.0
 31
0.0
 73
     1
 44
1.0
1001
ACAD
1000
MTEXTBEGIN
1070
    73
1070
     1
1070
    44
1040
1.0
1070
    74
1070
     0
1000
MTEXTEND
  0
POINT
  5
32E9
330
323C
100
AcDbEntity
  8
Defpoints
 62
     0
370
     0
100
AcDbPoint
 10
570.8232933268616
 20
364.8385744471316
 30
0.0
  0
POINT
  5
32EA
330
323C
100
AcDbEntity
  8
Defpoints
 62
     0
370
     0
100
AcDbPoint
 10
564.3232933268616
 20
367.8385744471317
 30
0.0
  0
POINT
  5
32EB
330
323C
100
AcDbEntity
  8
Defpoints
 62
     0
370
     0
100
AcDbPoint
 10
582.8232933268616
 20
367.8385744471317
 30
0.0
  0
ENDBLK
  5
3249
330
323C
100
AcDbEntity
  8
0
370
     0
100
AcDbBlockEnd
  0
BLOCK
  5
32A6
330
329A
100
AcDbEntity
  8
0
370
     0
100
AcDbBlockBegin
  2
*D40
 70
     1
 10
0.0
 20
0.0
 30
0.0
  3
*D40
  1

  0
LINE
  5
32D6
330
329A
100
AcDbEntity
  8
AM_5
100
AcDbLine
 10
565.3232933268616
 20
367.8385744471317
 30
0.0
 11
583.8232933268616
 21
367.8385744471317
 31
0.0
  0
LINE
  5
32D7
330
329A
100
AcDbEntity
  8
AM_5
100
AcDbLine
 10
565.3232933268616
 20
375.8385744471316
 30
0.0
 11
583.8232933268616
 21
375.8385744471316
 31
0.0
  0
LINE
  5
32D8
330
329A
100
AcDbEntity
  8
AM_5
100
AcDbLine
 10
582.8232933268616
 20
364.8385744471316
 30
0.0
 11
582.8232933268616
 21
361.8385744471317
 31
0.0
  0
LINE
  5
32D9
330
329A
100
AcDbEntity
  8
AM_5
100
AcDbLine
 10
582.8232933268616
 20
378.8385744471316
 30
0.0
 11
582.8232933268616
 21
381.8385744471316
 31
0.0
  0
LINE
  5
32DA
330
329A
100
AcDbEntity
  8
AM_5
100
AcDbLine
 10
582.8232933268616
 20
367.8385744471317
 30
0.0
 11
582.8232933268616
 21
375.8385744471316
 31
0.0
  0
INSERT
  5
32DB
330
329A
100
AcDbEntity
  8
AM_5
100
AcDbBlockReference
  2
GENDOT
 10
582.8232933268616
 20
367.8385744471317
 30
0.0
 41
3.0
 42
3.0
 43
3.0
 50
90.0
  0
SOLID
  5
32DC
330
329A
100
AcDbEntity
  8
AM_5
370
     0
100
AcDbTrace
 10
582.3232933268616
 20
378.8385744471316
 30
0.0
 11
583.3232933268616
 21
378.8385744471316
 31
0.0
 12
582.8232933268616
 22
375.8385744471316
 32
0.0
 13
582.8232933268616
 23
375.8385744471316
 33
0.0
  0
MTEXT
  5
32DD
330
329A
100
AcDbEntity
  8
AM_5
100
AcDbMText
 10
580.0732933268615
 20
371.8385744471317
 30
0.0
 40
3.5
 41
0.0
 71
     5
 72
     1
  1
8
 11
0.0000000000000001
 21
1.0
 31
0.0
 73
     1
 44
1.0
1001
ACAD
1000
MTEXTBEGIN
1070
    73
1070
     1
1070
    44
1040
1.0
1070
    74
1070
     0
1000
MTEXTEND
  0
POINT
  5
32DE
330
329A
100
AcDbEntity
  8
Defpoints
 62
     0
370
     0
100
AcDbPoint
 10
564.3232933268616
 20
367.8385744471317
 30
0.0
  0
POINT
  5
32DF
330
329A
100
AcDbEntity
  8
Defpoints
 62
     0
370
     0
100
AcDbPoint
 10
564.3232933268616
 20
375.8385744471316
 30
0.0
  0
POINT
  5
32E0
330
329A
100
AcDbEntity
  8
Defpoints
 62
     0
370
     0
100
AcDbPoint
 10
582.8232933268616
 20
375.8385744471316
 30
0.0
  0
ENDBLK
  5
32A7
330
329A
100
AcDbEntity
  8
0
370
     0
100
AcDbBlockEnd
  0
BLOCK
  5
330B
330
3305
100
AcDbEntity
  8
0
370
     0
100
AcDbBlockBegin
  2
*D41
 70
     1
 10
0.0
 20
0.0
 30
0.0
  3
*D41
  1

  0
LINE
  5
3331
330
3305
100
AcDbEntity
  8
AM_5
100
AcDbLine
 10
578.2266723431483
 20
374.909047309503
 30
0.0
 11
579.943138888369
 21
372.4486118604131
 31
0.0
  0
LINE
  5
3332
330
3305
100
AcDbEntity
  8
AM_5
100
AcDbLine
 10
550.4199143105749
 20
414.7681015847602
 30
0.0
 11
541.0287384255631
 21
428.2296992607885
 31
0.0
  0
LINE
  5
3333
330
3305
100
AcDbEntity
  8
AM_5
100
AcDbLine
 10
541.0287384255631
 20
428.2296992607885
 30
0.0
 11
529.005116378319
 21
428.2296992607885
 31
0.0
  0
LINE
  5
3334
330
3305
100
AcDbEntity
  8
AM_5
100
AcDbLine
 10
576.5102057979277
 20
377.369482758593
 30
0.0
 11
552.1363808557954
 21
412.3076661356703
 31
0.0
  0
SOLID
  5
3335
330
3305
100
AcDbEntity
  8
AM_5
370
     0
100
AcDbTrace
 10
578.6367449179967
 20
375.1951250670398
 30
0.0
 11
577.8165997682999
 21
374.6229695519663
 31
0.0
 12
576.5102057979277
 22
377.369482758593
 32
0.0
 13
576.5102057979277
 23
377.369482758593
 33
0.0
  0
SOLID
  5
3336
330
3305
100
AcDbEntity
  8
AM_5
370
     0
100
AcDbTrace
 10
550.8299868854232
 20
415.054179342297
 30
0.0
 11
550.0098417357264
 21
414.4820238272235
 31
0.0
 12
552.1363808557954
 22
412.3076661356703
 32
0.0
 13
552.1363808557954
 23
412.3076661356703
 33
0.0
  0
MTEXT
  5
3337
330
3305
100
AcDbEntity
  8
AM_5
100
AcDbMText
 10
534.516927401941
 20
430.9800437489775
 30
0.0
 40
3.5
 41
0.0
 71
     5
 72
     1
  1
\U+220542.6
 73
     1
 44
1.0
1001
ACAD
1000
MTEXTBEGIN
1070
    73
1070
     1
1070
    44
1040
1.0
1070
    74
1070
     0
1000
MTEXTEND
  0
POINT
  5
3338
330
3305
100
AcDbEntity
  8
Defpoints
 62
     0
370
     0
100
AcDbPoint
 10
552.1363808557954
 20
412.3076661356703
 30
0.0
  0
POINT
  5
3339
330
3305
100
AcDbEntity
  8
Defpoints
 62
     0
370
     0
100
AcDbPoint
 10
576.5102057979277
 20
377.369482758593
 30
0.0
  0
ENDBLK
  5
330C
330
3305
100
AcDbEntity
  8
0
370
     0
100
AcDbBlockEnd
  0
ENDSEC
  0
SECTION
  2
ENTITIES
  0
LEADER
  5
18EE
330
A
100
AcDbEntity
  8
AM_5
100
AcDbLeader
  3
AM_ISO$7
 73
     0
 75
     1
 40
10.33518623681008
 41
66.85000000000004
 76
     4
 10
590.3040554403949
 20
409.8385744471314
 30
0.0
 10
596.0846377475007
 20
418.2768836557663
 30
0.0
 10
588.129973269526
 20
444.2362185308212
 30
0.0
 10
585.129973269526
 20
444.2362185308212
 30
0.0
340
18EF
213
-0.6639940007497671
223
6.189053853397126
233
0.0
1001
ACAD
1000
DSTYLE
1002
{
1070
   140
1040
3.5
1002
}
  0
MTEXT
  5
18EF
102
{ACAD_REACTORS
330
18EE
102
}
330
A
100
AcDbEntity
  8
AM_5
100
AcDbMText
 10
584.7939672702757
 20
439.0471646774241
 30
0.0
 40
3.5
 41
0.0
 71
     9
 72
     1
  1
6-M3*0.5*6 depth\PThread for mounting attachment
 73
     1
 44
1.0
1001
ACAD
1000
MTEXTBEGIN
1070
    73
1070
     1
1070
    44
1040
1.0
1070
    74
1070
     0
1000
MTEXTEND
  0
DIMENSION
  5
18FF
330
A
100
AcDbEntity
  8
AM_5
100
AcDbDimension
  2
*D3
 10
757.8700409524302
 20
357.1966553317111
 30
0.0
 11
742.936982078418
 21
351.0111798183782
 31
0.0
 70
   161
  1
<>*3depth
 71
     5
 42
3.0
  3
AM_ISO$0
100
AcDbAlignedDimension
 13
752.2849292920937
 23
378.5196854387184
 33
0.0
 14
749.5132906945599
 24
377.3716351416229
 34
0.0
1001
ACAD
1000
DSTYLE
1002
{
1070
   286
1070
     0
1070
   284
1070
     8
1070
    48
1040
0.1
1070
    47
1040
0.1
1070
   272
1070
     3
1070
   274
1070
     3
1002
}
  0
LWPOLYLINE
  5
1C11
330
A
100
AcDbEntity
  8
0
 62
     4
100
AcDbPolyline
 90
        4
 70
     1
 43
0.0
 10
471.9027897112199
 20
294.7336760481242
 10
823.2537897112196
 20
294.7336760481242
 10
823.2537897112196
 20
524.7125760010646
 10
471.9027897112199
 20
524.7125760010646
1001
GENIUS_GENREC_14
1002
{
1000
PYDIR
1011
471.9027897112199
1021
524.7125760010646
1031
0.0
1002
}
1002
{
1000
PXDIR
1011
823.2537897112196
1021
294.7336760481242
1031
0.0
1002
}
1002
{
1000
PORI
1011
471.9027897112199
1021
294.7336760481242
1031
0.0
1002
}
1002
{
1000
PINS
1011
471.9027897112199
1021
294.7336760481242
1031
0.0
1002
}
1002
{
1000
PINS2
1011
823.2537897112196
1021
524.7125760010646
1031
0.0
1002
}
1002
{
1000
C
1070
     1
1002
}
1001
GENIUS_GENODEF_13
1002
{
1000
HIER
1070
     0
1002
}
1002
{
1000
MANEDIT
1070
     0
1002
}
1002
{
1000
NOSEL
1070
     0
1002
}
1002
{
1000
BEHIND
1070
     0
1002
}
1002
{
1000
OTHER
1070
     0
1002
}
1002
{
1000
REACTOR
1002
}
1001
GENIUS_GENOBJ-N-REC_13
1002
{
1000
OWNER
1000
GEN
1002
}
  0
LWPOLYLINE
  5
1C12
330
A
100
AcDbEntity
  8
LOGO
 62
     4
100
AcDbPolyline
 90
        4
 70
     1
 43
0.0
 10
471.9027897112199
 20
294.7336760481242
 10
823.2537897112196
 20
294.7336760481242
 10
823.2537897112196
 20
271.1498913893002
 10
471.9027897112199
 20
271.1498913893002
1001
GENIUS_GENREC_14
1002
{
1000
PYDIR
1011
471.9027897112199
1021
271.1498913893002
1031
0.0
1002
}
1002
{
1000
PXDIR
1011
823.2537897112196
1021
294.7336760481242
1031
0.0
1002
}
1002
{
1000
PORI
1011
471.9027897112199
1021
294.7336760481242
1031
0.0
1002
}
1002
{
1000
PINS
1011
471.9027897112199
1021
294.7336760481242
1031
0.0
1002
}
1002
{
1000
PINS2
1011
823.2537897112196
1021
271.1498913893002
1031
0.0
1002
}
1002
{
1000
C
1070
     1
1002
}
1001
GENIUS_GENOBJ-N-REC_13
1002
{
1000
OWNER
1000
GEN
1002
}
1001
GENIUS_GENODEF_13
1002
{
1000
HIER
1070
     0
1002
}
1002
{
1000
MANEDIT
1070
     0
1002
}
1002
{
1000
NOSEL
1070
     0
1002
}
1002
{
1000
BEHIND
1070
     0
1002
}
1002
{
1000
OTHER
1070
     0
1002
}
1002
{
1000
REACTOR
1002
}
  0
LINE
  5
1C13
330
A
100
AcDbEntity
  8
LOGO
 62
     4
100
AcDbLine
 10
571.9480881632269
 20
281.7625944857714
 30
0.0
 11
571.9480881632269
 21
273.1152067775358
 31
0.0
  0
LINE
  5
1C14
330
A
100
AcDbEntity
  8
LOGO
 62
     4
100
AcDbLine
 10
556.2255650573444
 20
281.7625944857714
 30
0.0
 11
556.2255650573444
 21
273.1152067775358
 31
0.0
  0
LINE
  5
1C15
330
A
100
AcDbEntity
  8
LOGO
 62
     4
100
AcDbLine
 10
571.9480881632269
 20
273.1152067775358
 30
0.0
 11
556.2255650573444
 21
273.1152067775358
 31
0.0
  0
LINE
  5
1C16
330
A
100
AcDbEntity
  8
LOGO
 62
     4
100
AcDbLine
 10
579.2682457360466
 20
292.3752975822416
 30
0.0
 11
556.2255650573444
 21
292.3752975822416
 31
0.0
  0
LINE
  5
1C17
330
A
100
AcDbEntity
  8
LOGO
 62
     4
100
AcDbLine
 10
579.2682457360466
 20
285.3001621845947
 30
0.0
 11
556.2255650573444
 21
285.3001621845947
 31
0.0
  0
LINE
  5
1C18
330
A
100
AcDbEntity
  8
LOGO
 62
     4
100
AcDbLine
 10
556.2255650573444
 20
292.3752975822416
 30
0.0
 11
556.2255650573444
 21
285.3001621845947
 31
0.0
  0
LINE
  5
1C19
330
A
100
AcDbEntity
  8
LOGO
 62
     4
100
AcDbLine
 10
579.2682457360466
 20
292.3752975822416
 30
0.0
 11
579.2682457360466
 21
285.3001621845947
 31
0.0
  0
LINE
  5
1C1A
330
A
100
AcDbEntity
  8
LOGO
 62
     4
100
AcDbLine
 10
564.9071474154023
 20
285.3001621845947
 30
0.0
 11
564.9071474154023
 21
281.7625944857714
 31
0.0
  0
TEXT
  5
1C1B
330
A
100
AcDbEntity
  8
LOGO
  6
Continuous
100
AcDbText
 10
557.4827058109503
 20
287.3232220963785
 30
0.0
 40
3.587999999999999
  1
MCHG2L
  7
CHINESET
100
AcDbText
  0
LINE
  5
1C1C
330
A
100
AcDbEntity
  8
LOGO
 62
     4
100
AcDbLine
 10
571.9480881632269
 20
281.7625944857714
 30
0.0
 11
556.2255650573444
 21
281.7625944857714
 31
0.0
  0
TEXT
  5
1C1D
330
A
100
AcDbEntity
  8
LOGO
  6
Continuous
100
AcDbText
 10
561.2708729452714
 20
274.3357672153416
 30
154.5642394523723
 40
1.769039999999999
  1
Model
 41
0.8
  7
CHINESET
100
AcDbText
  0
TEXT
  5
1C1E
330
A
100
AcDbEntity
  8
LOGO
100
AcDbText
 10
560.8000120052248
 20
277.6151861200106
 30
154.5642394523723
 40
2.948399999999999
  1
型號
  7
CHINESET
100
AcDbText
  0
LINE
  5
1C1F
330
A
100
AcDbEntity
  8
LOGO
  6
Continuous
100
AcDbLine
 10
580.2707116678373
 20
288.8126686357041
 30
0.0
 11
583.3948332992187
 21
288.8126686357041
 31
0.0
  0
LINE
  5
1C20
330
A
100
AcDbEntity
  8
LOGO
 62
     4
100
AcDbLine
 10
589.7281813538842
 20
281.7625944857714
 30
0.0
 11
589.7281813538842
 21
273.1152067775358
 31
0.0
  0
LINE
  5
1C21
330
A
100
AcDbEntity
  8
LOGO
 62
     4
100
AcDbLine
 10
574.0056582480018
 20
281.7625944857714
 30
0.0
 11
574.0056582480018
 21
273.1152067775358
 31
0.0
  0
LINE
  5
1C22
330
A
100
AcDbEntity
  8
LOGO
 62
     4
100
AcDbLine
 10
589.7281813538842
 20
273.1152067775358
 30
0.0
 11
574.0056582480018
 21
273.1152067775358
 31
0.0
  0
LINE
  5
1C23
330
A
100
AcDbEntity
  8
LOGO
 62
     4
100
AcDbLine
 10
596.4699419633774
 20
292.3752975822416
 30
0.0
 11
584.3803289916405
 21
292.3752975822416
 31
0.0
  0
LINE
  5
1C24
330
A
100
AcDbEntity
  8
LOGO
 62
     4
100
AcDbLine
 10
596.4699419633774
 20
285.3001621845947
 30
0.0
 11
584.3803289916405
 21
285.3001621845947
 31
0.0
  0
LINE
  5
1C25
330
A
100
AcDbEntity
  8
LOGO
 62
     4
100
AcDbLine
 10
584.3803289916405
 20
292.3752975822416
 30
0.0
 11
584.3803289916405
 21
285.3001621845947
 31
0.0
  0
LINE
  5
1C26
330
A
100
AcDbEntity
  8
LOGO
 62
     4
100
AcDbLine
 10
596.4699419633774
 20
292.3752975822416
 30
0.0
 11
596.4699419633774
 21
285.3001621845947
 31
0.0
  0
LINE
  5
1C27
330
A
100
AcDbEntity
  8
LOGO
 62
     4
100
AcDbLine
 10
589.8162864782498
 20
285.3001621845947
 30
0.0
 11
589.8162864782498
 21
283.5313783351831
 31
0.0
  0
TEXT
  5
1C28
330
A
100
AcDbEntity
  8
LOGO
  6
Continuous
100
AcDbText
 10
587.3994692589531
 20
286.7770863550066
 30
0.0
 40
3.587999999999999
  1
25
  7
CHINESET
100
AcDbText
  0
LINE
  5
1C29
330
A
100
AcDbEntity
  8
LOGO
 62
     4
100
AcDbLine
 10
589.7281813538842
 20
281.7625944857714
 30
0.0
 11
574.0056582480018
 21
281.7625944857714
 31
0.0
  0
LINE
  5
1C2A
330
A
100
AcDbEntity
  8
LOGO
  6
Continuous
100
AcDbLine
 10
610.0138448947417
 20
288.8126686357041
 30
0.0
 11
613.1379665261236
 21
288.8126686357041
 31
0.0
  0
LINE
  5
1C2B
330
A
100
AcDbEntity
  8
LOGO
 62
     4
100
AcDbLine
 10
626.4345482491498
 20
281.7625944857714
 30
0.0
 11
626.4345482491498
 21
273.1152067775358
 31
0.0
  0
LINE
  5
1C2C
330
A
100
AcDbEntity
  8
LOGO
 62
     4
100
AcDbLine
 10
608.3351543527031
 20
281.7625944857714
 30
0.0
 11
608.3351543527031
 21
273.1152067775358
 31
0.0
  0
LINE
  5
1C2D
330
A
100
AcDbEntity
  8
LOGO
 62
     4
100
AcDbLine
 10
626.4345482491498
 20
273.1152067775358
 30
0.0
 11
608.3351543527031
 21
273.1152067775358
 31
0.0
  0
LINE
  5
1C2E
330
A
100
AcDbEntity
  8
LOGO
 62
     4
100
AcDbLine
 10
621.6512098065329
 20
292.3752975822416
 30
0.0
 11
614.1234622185447
 21
292.3752975822416
 31
0.0
  0
LINE
  5
1C2F
330
A
100
AcDbEntity
  8
LOGO
 62
     4
100
AcDbLine
 10
621.6512098065329
 20
285.3001621845947
 30
0.0
 11
614.1234622185447
 21
285.3001621845947
 31
0.0
  0
LINE
  5
1C30
330
A
100
AcDbEntity
  8
LOGO
 62
     4
100
AcDbLine
 10
614.1234622185447
 20
292.3752975822416
 30
0.0
 11
614.1234622185447
 21
285.3001621845947
 31
0.0
  0
LINE
  5
1C31
330
A
100
AcDbEntity
  8
LOGO
 62
     4
100
AcDbLine
 10
621.6512098065329
 20
292.3752975822416
 30
0.0
 11
621.6512098065329
 21
285.3001621845947
 31
0.0
  0
LINE
  5
1C32
330
A
100
AcDbEntity
  8
LOGO
 62
     4
100
AcDbLine
 10
617.8873360125387
 20
285.3001621845947
 30
0.0
 11
617.8873360125387
 21
281.7625944857714
 31
0.0
  0
LINE
  5
1C33
330
A
100
AcDbEntity
  8
LOGO
 62
     4
100
AcDbLine
 10
626.4345482491498
 20
281.7625944857714
 30
0.0
 11
608.3351543527031
 21
281.7625944857714
 31
0.0
  0
TEXT
  5
1C34
330
A
100
AcDbEntity
  8
LOGO
  6
Continuous
100
AcDbText
 10
577.2988842420756
 20
274.3357672153416
 30
154.5642394523723
 40
1.769039999999999
  1
Tube I.D.
 41
0.8
  7
CHINESET
100
AcDbText
  0
TEXT
  5
1C35
330
A
100
AcDbEntity
  8
LOGO
100
AcDbText
 10
578.0121802296837
 20
277.6151861200106
 30
154.5642394523723
 40
2.948399999999999
  1
內徑
  7
CHINESET
100
AcDbText
  0
TEXT
  5
1C36
330
A
100
AcDbEntity
  8
LOGO
  6
Continuous
100
AcDbText
 10
609.9792797328726
 20
274.3357672153416
 30
154.5642394523723
 40
1.769039999999999
  1
Sensor switch
 41
0.8
  7
CHINESET
100
AcDbText
  0
TEXT
  5
1C37
330
A
100
AcDbEntity
  8
LOGO
100
AcDbText
 10
609.8566203145951
 20
277.6151861200106
 30
154.5642394523723
 40
2.948399999999999
  1
感應器型式
  7
CHINESET
100
AcDbText
  0
LINE
  5
1C38
330
A
100
AcDbEntity
  8
LOGO
 62
     4
100
AcDbLine
 10
608.6539987401892
 20
292.3752975822416
 30
0.0
 11
597.4685802860724
 21
292.3752975822416
 31
0.0
  0
LINE
  5
1C39
330
A
100
AcDbEntity
  8
LOGO
 62
     4
100
AcDbLine
 10
608.6539987401892
 20
285.3001621845947
 30
0.0
 11
597.4685802860724
 21
285.3001621845947
 31
0.0
  0
LINE
  5
1C3A
330
A
100
AcDbEntity
  8
LOGO
 62
     4
100
AcDbLine
 10
597.4685802860724
 20
292.3752975822416
 30
0.0
 11
597.4685802860724
 21
285.3001621845947
 31
0.0
  0
LINE
  5
1C3B
330
A
100
AcDbEntity
  8
LOGO
 62
     4
100
AcDbLine
 10
608.6539987401892
 20
292.3752975822416
 30
0.0
 11
608.6539987401892
 21
285.3001621845947
 31
0.0
  0
TEXT
  5
1C3C
330
A
100
AcDbEntity
  8
LOGO
  6
Continuous
100
AcDbText
 10
598.9056683899094
 20
287.1224154380958
 30
0.0
 40
3.587999999999999
  1
(M)
  7
CHINESET
100
AcDbText
  0
LINE
  5
1C3D
330
A
100
AcDbEntity
  8
LOGO
 62
     4
100
AcDbLine
 10
605.750770125101
 20
281.7625944857714
 30
0.0
 11
605.750770125101
 21
273.1152067775358
 31
0.0
  0
LINE
  5
1C3E
330
A
100
AcDbEntity
  8
LOGO
 62
     4
100
AcDbLine
 10
592.9422685531679
 20
281.7625944857714
 30
0.0
 11
592.9422685531679
 21
273.1152067775358
 31
0.0
  0
LINE
  5
1C3F
330
A
100
AcDbEntity
  8
LOGO
 62
     4
100
AcDbLine
 10
605.750770125101
 20
273.1152067775358
 30
0.0
 11
592.9422685531679
 21
273.1152067775358
 31
0.0
  0
LINE
  5
1C40
330
A
100
AcDbEntity
  8
LOGO
 62
     4
100
AcDbLine
 10
605.750770125101
 20
281.7625944857714
 30
0.0
 11
592.9422685531679
 21
281.7625944857714
 31
0.0
  0
TEXT
  5
1C41
330
A
100
AcDbEntity
  8
LOGO
  6
Continuous
100
AcDbText
 10
595.7265071580003
 20
274.3357672153416
 30
154.5642394523723
 40
1.769039999999999
  1
Magnet
 41
0.8
  7
CHINESET
100
AcDbText
  0
TEXT
  5
1C42
330
A
100
AcDbEntity
  8
LOGO
100
AcDbText
 10
594.7831052359118
 20
277.6151861200106
 30
154.5642394523723
 40
2.948399999999999
  1
附磁石
  7
CHINESET
100
AcDbText
  0
LINE
  5
1C43
330
A
100
AcDbEntity
  8
LOGO
 62
     4
100
AcDbLine
 10
603.0612895131313
 20
285.3001621845947
 30
0.0
 11
603.0612895131313
 21
283.5313783351831
 31
0.0
  0
LINE
  5
1C44
330
A
100
AcDbEntity
  8
LOGO
 62
     4
100
AcDbLine
 10
589.8162864782498
 20
283.5313783351831
 30
0.0
 11
581.8669198009432
 21
283.5313783351831
 31
0.0
  0
LINE
  5
1C45
330
A
100
AcDbEntity
  8
LOGO
 62
     4
100
AcDbLine
 10
581.8669198009432
 20
281.7625944857714
 30
0.0
 11
581.8669198009432
 21
283.5313783351831
 31
0.0
  0
LINE
  5
1C46
330
A
100
AcDbEntity
  8
LOGO
 62
     4
100
AcDbLine
 10
603.0612895131313
 20
283.5313783351831
 30
0.0
 11
599.3465193391346
 21
283.5313783351831
 31
0.0
  0
LINE
  5
1C47
330
A
100
AcDbEntity
  8
LOGO
 62
     4
100
AcDbLine
 10
599.3465193391342
 20
281.7625944857714
 30
0.0
 11
599.3465193391346
 21
283.5313783351831
 31
0.0
  0
TEXT
  5
1C48
330
A
100
AcDbEntity
  8
LOGO
 62
     7
100
AcDbText
 10
525.1534138840794
 20
284.4020213014816
 30
0.0
 40
3.14450462117647
  1
Order example:
 41
0.8
  7
CHINESET
100
AcDbText
  0
TEXT
  5
1C49
330
A
100
AcDbEntity
  8
LOGO
 62
     7
100
AcDbText
 10
525.7175640171139
 20
288.8288327301086
 30
0.0
 40
4.716756931764704
  1
訂購代號:
  7
CHINESET
100
AcDbText
  0
LINE
  5
1C4A
330
A
100
AcDbEntity
  8
LOGO
 62
     4
100
AcDbLine
 10
523.7871159606318
 20
271.1498913893005
 30
0.0
 11
523.7871159606318
 21
294.7336760481242
 31
0.0
  0
TEXT
  5
1C4B
330
A
100
AcDbEntity
  8
LOGO
  6
Continuous
100
AcDbText
 10
480.3741911718325
 20
275.7828902944921
 30
0.0
 40
3.537567698823529
  1
金器工業股份有限公司
  7
CHINESET
100
AcDbText
  0
TEXT
  5
1C4C
330
A
100
AcDbEntity
  8
LOGO
  6
Continuous
100
AcDbText
 10
473.8763791823488
 20
272.2446295097557
 30
0.0
 40
2.358378465882352
  1
MINDMAN INDUSTRIAL CO., LTD.
 41
0.85
  7
CHINESET
100
AcDbText
  0
LINE
  5
1C4D
330
A
100
AcDbEntity
  8
LOGO
100
AcDbLine
 10
523.7871159606318
 20
290.0169191163594
 30
0.0
 11
489.1975651276903
 21
290.0169191163594
 31
0.0
  0
LINE
  5
1C4E
330
A
100
AcDbEntity
  8
LOGO
100
AcDbLine
 10
523.7871159606318
 20
285.3001621845947
 30
0.0
 11
489.1975651276903
 21
285.3001621845947
 31
0.0
  0
LINE
  5
1C4F
330
A
100
AcDbEntity
  8
LOGO
 62
     4
100
AcDbLine
 10
523.7871159606318
 20
280.5834052528302
 30
0.0
 11
471.9027897112199
 21
280.5834052528302
 31
0.0
  0
LINE
  5
1C50
330
A
100
AcDbEntity
  8
LOGO
 62
     4
100
AcDbLine
 10
489.1975651276903
 20
280.5834052528302
 30
0.0
 11
489.1975651276903
 21
294.7336760481242
 31
0.0
  0
TEXT
  5
1C51
330
A
100
AcDbEntity
  8
LOGO
100
AcDbText
 10
512.8378905200739
 20
281.7625944857711
 30
0.0
 40
2.358378465882352
  1
mm
  7
CHINESET
 72
     1
 11
515.7577876683093
 21
282.9417837187122
 31
0.0
100
AcDbText
 73
     2
  0
TEXT
  5
1C52
330
A
100
AcDbEntity
  8
LOGO
100
AcDbText
 10
511.6025494188975
 20
291.1961083493006
 30
0.0
 40
2.358378465882352
  1
1 : 1
  7
CHINESET
 72
     1
 11
515.7577876683093
 21
292.3752975822417
 31
0.0
100
AcDbText
 73
     2
  0
LINE
  5
1C53
330
A
100
AcDbEntity
  8
LOGO
 62
     4
100
AcDbLine
 10
508.0645928547493
 20
280.5834052528302
 30
0.0
 11
508.0645928547493
 21
294.7336760481242
 31
0.0
  0
CIRCLE
  5
1C54
330
A
100
AcDbEntity
  8
LOGO
  6
Continuous
100
AcDbCircle
 10
512.4314255656458
 20
287.6635852392738
 30
0.0
 40
1.369330047262939
  0
CIRCLE
  5
1C55
330
A
100
AcDbEntity
  8
LOGO
  6
Continuous
100
AcDbCircle
 10
512.4314255656458
 20
287.6635852392738
 30
0.0
 40
0.8023061877654585
  0
LINE
  5
1C56
330
A
100
AcDbEntity
  8
LOGO
100
AcDbLine
 10
521.0364544729856
 20
286.2942551920107
 30
0.0
 11
521.0364544729856
 21
289.0329152865371
 31
0.0
  0
LINE
  5
1C57
330
A
100
AcDbEntity
  8
LOGO
100
AcDbLine
 10
516.7436833781117
 20
286.8612790515085
 30
0.0
 11
516.7436833781117
 21
288.4658914270395
 31
0.0
  0
LINE
  5
1C58
330
A
100
AcDbEntity
  8
LOGO
  6
Continuous
100
AcDbLine
 10
516.7436833781117
 20
288.4658914270395
 30
0.0
 11
521.0364544729856
 21
289.0329152865371
 31
0.0
  0
LINE
  5
1C59
330
A
100
AcDbEntity
  8
LOGO
  6
Continuous
100
AcDbLine
 10
516.7436833781117
 20
286.8612790515085
 30
0.0
 11
521.0364544729856
 21
286.2942551920107
 31
0.0
  0
TEXT
  5
1C5A
330
A
100
AcDbEntity
  8
LOGO
100
AcDbText
 10
491.142174514514
 20
291.1972689686243
 30
154.5642394523723
 40
2.358378465882352
  1
比例 Scale:
 41
0.9
  7
CHINESET
 72
     4
 11
498.6310789912198
 21
292.3752975822417
 31
154.5642394523723
100
AcDbText
  0
TEXT
  5
1C5B
330
A
100
AcDbEntity
  8
LOGO
100
AcDbText
 10
491.0063571832198
 20
286.5125257865399
 30
154.5642394523723
 40
2.358378465882352
  1
投影  View:
 41
0.9
  7
CHINESET
 72
     4
 11
498.6310789912198
 21
287.6585406504769
 31
154.5642394523723
100
AcDbText
  0
TEXT
  5
1C5C
330
A
100
AcDbEntity
  8
LOGO
100
AcDbText
 10
491.236930792161
 20
281.7625944857711
 30
154.5642394523723
 40
2.358378465882352
  1
單位  Unit:
 41
0.9
  7
CHINESET
 72
     4
 11
498.6310789912198
 21
282.9417837187122
 31
154.5642394523723
100
AcDbText
  0
SOLID
  5
1C5D
330
A
100
AcDbEntity
  8
LOGO
 62
     5
100
AcDbTrace
 10
474.3496452186682
 20
284.5038737636188
 30
0.0
 11
475.3693461834647
 21
284.5038737636185
 31
0.0
 12
479.6239605538227
 22
294.1734518780695
 32
0.0
 13
480.6436615186198
 23
294.1734518780688
 33
0.0
  0
SOLID
  5
1C5E
330
A
100
AcDbEntity
  8
LOGO
 62
     5
100
AcDbTrace
 10
475.7912914102783
 20
284.5038737636188
 30
0.0
 11
476.8109923750749
 21
284.5038737636188
 31
0.0
 12
480.6436615186198
 22
293.399885628913
 32
0.0
 13
479.6239605538227
 23
289.6609820913255
 33
0.0
  0
SOLID
  5
1C5F
330
A
100
AcDbEntity
  8
LOGO
 62
     2
100
AcDbTrace
 10
475.3693461834647
 20
284.5038737636185
 30
0.0
 11
475.7912914102783
 21
284.5038737636188
 31
0.0
 12
480.6436615186198
 22
294.1734518780688
 32
0.0
 13
481.0656067454329
 23
294.1734518780688
 33
0.0
  0
SOLID
  5
1C60
330
A
100
AcDbEntity
  8
LOGO
 62
     5
100
AcDbTrace
 10
472.714814510792
 20
280.9876635401827
 30
0.0
 11
473.0664355331359
 21
280.9876635401827
 31
0.0
 12
474.0566277000488
 22
282.7457686519006
 32
0.0
 13
474.4082487223918
 23
282.7457686519006
 33
0.0
  0
SOLID
  5
1C61
330
A
100
AcDbEntity
  8
LOGO
 62
     5
100
AcDbTrace
 10
474.0566277000488
 20
282.7457686519006
 30
0.0
 11
474.4082487223918
 21
282.7457686519006
 31
0.0
 12
474.0566277000488
 22
280.9876635401827
 32
0.0
 13
474.4082487223918
 23
280.9876635401827
 33
0.0
  0
SOLID
  5
1C62
330
A
100
AcDbEntity
  8
LOGO
 62
     5
100
AcDbTrace
 10
474.0566277000488
 20
280.9876635401827
 30
0.0
 11
474.4082487223918
 21
280.9876635401827
 31
0.0
 12
475.3984408893062
 22
282.7457686519006
 32
0.0
 13
475.7500619116497
 23
282.7457686519006
 33
0.0
  0
SOLID
  5
1C63
330
A
100
AcDbEntity
  8
LOGO
 62
     5
100
AcDbTrace
 10
475.3984408893062
 20
282.7457686519006
 30
0.0
 11
475.7500619116497
 21
282.7457686519006
 31
0.0
 12
475.3984408893062
 22
280.9876635401827
 32
0.0
 13
475.7500619116497
 23
280.9876635401827
 33
0.0
  0
POLYLINE
  5
1C64
330
A
100
AcDbEntity
  8
LOGO
 62
     5
100
AcDb2dPolyline
 66
     1
 10
0.0
 20
0.0
 30
0.0
 40
0.3521845175717646
 41
0.3521845175717646
  0
VERTEX
  5
1C65
330
1C64
100
AcDbEntity
  8
LOGO
 62
     5
100
AcDbVertex
100
AcDb2dVertex
 10
487.1846577770545
 20
282.0425266072133
 30
0.0
 42
1.0
  0
VERTEX
  5
1C66
330
1C64
100
AcDbEntity
  8
LOGO
 62
     5
100
AcDbVertex
100
AcDb2dVertex
 10
486.1281042243389
 20
282.0425266072133
 30
0.0
 42
1.0
  0
SEQEND
  5
1C67
330
1C64
100
AcDbEntity
  8
LOGO
 62
     5
  0
POLYLINE
  5
1C68
330
A
100
AcDbEntity
  8
LOGO
 62
     5
100
AcDb2dPolyline
 66
     1
 10
0.0
 20
0.0
 30
0.0
 70
     1
  0
VERTEX
  5
1C69
330
1C68
100
AcDbEntity
  8
LOGO
 62
     5
100
AcDbVertex
100
AcDb2dVertex
 10
484.1364537819678
 20
281.8667160960414
 30
0.0
 42
1.000000057330635
  0
VERTEX
  5
1C6A
330
1C68
100
AcDbEntity
  8
LOGO
 62
     5
100
AcDbVertex
100
AcDb2dVertex
 10
485.191316848999
 20
281.8667160960414
 30
0.0
 42
1.000000057330635
  0
SEQEND
  5
1C6B
330
1C68
100
AcDbEntity
  8
LOGO
 62
     5
  0
CIRCLE
  5
1C6C
330
A
100
AcDbEntity
  8
LOGO
 62
     5
100
AcDbCircle
 10
484.6638853154844
 20
281.8667160960414
 30
0.0
 40
0.5274315335154748
  0
POLYLINE
  5
1C6D
330
A
100
AcDbEntity
  8
LOGO
 62
     5
100
AcDb2dPolyline
 66
     1
 10
0.0
 20
0.0
 30
0.0
 70
     1
 40
0.3521845175717646
 41
0.3521845175717646
  0
VERTEX
  5
1C6E
330
1C6D
100
AcDbEntity
  8
LOGO
 62
     5
100
AcDbVertex
100
AcDb2dVertex
 10
483.9595162803402
 20
281.8667160960414
 30
0.0
 42
1.0
  0
VERTEX
  5
1C6F
330
1C6D
100
AcDbEntity
  8
LOGO
 62
     5
100
AcDbVertex
100
AcDb2dVertex
 10
485.3682543506271
 20
281.8667160960414
 30
0.0
 42
1.0
  0
SEQEND
  5
1C70
330
1C6D
100
AcDbEntity
  8
LOGO
 62
     5
  0
LINE
  5
1C71
330
A
100
AcDbEntity
  8
LOGO
100
AcDbLine
 10
487.3596230453833
 20
280.9876635401827
 30
0.0
 11
487.3596230453833
 21
282.0425266072133
 31
0.0
  0
SOLID
  5
1C72
330
A
100
AcDbEntity
  8
LOGO
 62
     5
100
AcDbTrace
 10
485.1912816868982
 20
282.7457686519006
 30
0.0
 11
485.5429027092411
 21
282.7457686519006
 31
0.0
 12
485.1912816868982
 22
280.9876635401827
 32
0.0
 13
485.5429027092411
 23
280.9876635401827
 33
0.0
  0
SOLID
  5
1C73
330
A
100
AcDbEntity
  8
LOGO
 62
     5
100
AcDbTrace
 10
485.9531389560088
 20
280.9876635401827
 30
0.0
 11
486.304759978353
 21
280.9876635401827
 31
0.0
 12
485.9531389560088
 22
282.7457686519006
 32
0.0
 13
486.304759978353
 23
282.7457686519006
 33
0.0
  0
SOLID
  5
1C74
330
A
100
AcDbEntity
  8
LOGO
 62
     5
100
AcDbTrace
 10
487.0080020230403
 20
282.0425266072133
 30
0.0
 11
487.3596230453833
 21
282.0425266072133
 31
0.0
 12
487.0080020230403
 22
280.9876635401827
 32
0.0
 13
487.3596230453833
 23
280.9876635401827
 33
0.0
  0
SOLID
  5
1C75
330
A
100
AcDbEntity
  8
LOGO
 62
     5
100
AcDbTrace
 10
485.9179768537745
 20
293.399885628913
 30
0.0
 11
484.8982758889782
 21
289.6609820913255
 31
0.0
 12
485.9179768537745
 22
284.5038737636185
 32
0.0
 13
484.8982758889782
 23
284.5038737636185
 33
0.0
  0
SOLID
  5
1C76
330
A
100
AcDbEntity
  8
LOGO
 62
     5
100
AcDbTrace
 10
486.3399220805872
 20
284.5038737636185
 30
0.0
 11
487.3596230453833
 21
284.5038737636185
 31
0.0
 12
486.3399220805872
 22
294.1734518780688
 32
0.0
 13
487.3596230453833
 23
294.1734518780695
 33
0.0
  0
SOLID
  5
1C77
330
A
100
AcDbEntity
  8
LOGO
 62
     2
100
AcDbTrace
 10
485.9179768537745
 20
294.1734518780695
 30
0.0
 11
486.3399220805872
 21
294.1734518780688
 31
0.0
 12
485.9179768537745
 22
284.5038737636185
 32
0.0
 13
486.3399220805872
 23
284.5038737636185
 33
0.0
  0
POLYLINE
  5
1C78
330
A
100
AcDbEntity
  8
LOGO
 62
     5
100
AcDb2dPolyline
 66
     1
 10
0.0
 20
0.0
 30
0.0
 40
0.3521845175717646
 41
0.3521845175717646
  0
VERTEX
  5
1C79
330
1C78
100
AcDbEntity
  8
LOGO
 62
     5
100
AcDbVertex
100
AcDb2dVertex
 10
482.144733015394
 20
282.0425266072133
 30
0.0
 42
1.0
  0
VERTEX
  5
1C7A
330
1C78
100
AcDbEntity
  8
LOGO
 62
     5
100
AcDbVertex
100
AcDb2dVertex
 10
481.0881794626785
 20
282.0425266072133
 30
0.0
 42
1.0
  0
SEQEND
  5
1C7B
330
1C78
100
AcDbEntity
  8
LOGO
 62
     5
  0
POLYLINE
  5
1C7C
330
A
100
AcDbEntity
  8
LOGO
 62
     5
100
AcDb2dPolyline
 66
     1
 10
0.0
 20
0.0
 30
0.0
 40
0.3521845175717646
 41
0.3521845175717646
  0
VERTEX
  5
1C7D
330
1C7C
100
AcDbEntity
  8
LOGO
 62
     5
100
AcDbVertex
100
AcDb2dVertex
 10
483.1995960824238
 20
282.0425266072133
 30
0.0
 42
1.0
  0
VERTEX
  5
1C7E
330
1C7C
100
AcDbEntity
  8
LOGO
 62
     5
100
AcDbVertex
100
AcDb2dVertex
 10
482.1430425297089
 20
282.0425266072133
 30
0.0
 42
1.0
  0
SEQEND
  5
1C7F
330
1C7C
100
AcDbEntity
  8
LOGO
 62
     5
  0
POLYLINE
  5
1C80
330
A
100
AcDbEntity
  8
LOGO
 62
     5
100
AcDb2dPolyline
 66
     1
 10
0.0
 20
0.0
 30
0.0
 40
0.3521845175717646
 41
0.3521845175717646
  0
VERTEX
  5
1C81
330
1C80
100
AcDbEntity
  8
LOGO
 62
     5
100
AcDbVertex
100
AcDb2dVertex
 10
478.1596713207635
 20
282.0425266072133
 30
0.0
 42
1.0
  0
VERTEX
  5
1C82
330
1C80
100
AcDbEntity
  8
LOGO
 62
     5
100
AcDbVertex
100
AcDb2dVertex
 10
477.1031177680487
 20
282.0425266072133
 30
0.0
 42
1.0
  0
SEQEND
  5
1C83
330
1C80
100
AcDbEntity
  8
LOGO
 62
     5
  0
SOLID
  5
1C84
330
A
100
AcDbEntity
  8
LOGO
 62
     5
100
AcDbTrace
 10
476.928152499719
 20
282.7457686519006
 30
0.0
 11
477.2797735220621
 21
282.7457686519006
 31
0.0
 12
476.928152499719
 22
280.9876635401827
 32
0.0
 13
477.2797735220621
 23
280.9876635401827
 33
0.0
  0
SOLID
  5
1C85
330
A
100
AcDbEntity
  8
LOGO
 62
     5
100
AcDbTrace
 10
477.9830155667501
 20
282.0425266072133
 30
0.0
 11
478.3346365890942
 21
282.0425266072133
 31
0.0
 12
477.9830155667501
 22
280.9876635401827
 32
0.0
 13
478.3346365890942
 23
280.9876635401827
 33
0.0
  0
POLYLINE
  5
1C86
330
A
100
AcDbEntity
  8
LOGO
 62
     5
100
AcDb2dPolyline
 66
     1
 10
0.0
 20
0.0
 30
0.0
 70
     1
 40
0.3521845175717646
 41
0.3521845175717646
  0
VERTEX
  5
1C87
330
1C86
100
AcDbEntity
  8
LOGO
 62
     5
100
AcDbVertex
100
AcDb2dVertex
 10
478.9195915186793
 20
281.8667160960414
 30
0.0
 42
1.0
  0
VERTEX
  5
1C88
330
1C86
100
AcDbEntity
  8
LOGO
 62
     5
100
AcDbVertex
100
AcDb2dVertex
 10
480.3283295889667
 20
281.8667160960414
 30
0.0
 42
1.0
  0
SEQEND
  5
1C89
330
1C86
100
AcDbEntity
  8
LOGO
 62
     5
  0
SOLID
  5
1C8A
330
A
100
AcDbEntity
  8
LOGO
 62
     5
100
AcDbTrace
 10
480.1513569252368
 20
283.2732001854163
 30
0.0
 11
480.5029779475802
 21
283.2732001854163
 31
0.0
 12
480.1513569252368
 22
280.9876635401827
 32
0.0
 13
480.5029779475802
 23
280.9876635401827
 33
0.0
  0
SOLID
  5
1C8B
330
A
100
AcDbEntity
  8
LOGO
 62
     5
100
AcDbTrace
 10
480.9132141943495
 20
282.7457686519006
 30
0.0
 11
481.2648352166925
 21
282.7457686519006
 31
0.0
 12
480.9132141943495
 22
280.9876635401827
 32
0.0
 13
481.2648352166925
 23
280.9876635401827
 33
0.0
  0
SOLID
  5
1C8C
330
A
100
AcDbEntity
  8
LOGO
 62
     5
100
AcDbTrace
 10
481.9680772613794
 20
282.0425266072133
 30
0.0
 11
482.3196982837235
 21
282.0425266072133
 31
0.0
 12
481.9680772613794
 22
280.9876635401827
 32
0.0
 13
482.3196982837235
 23
280.9876635401827
 33
0.0
  0
SOLID
  5
1C8D
330
A
100
AcDbEntity
  8
LOGO
 62
     5
100
AcDbTrace
 10
483.0229403284105
 20
282.0425266072133
 30
0.0
 11
483.374561350754
 21
282.0425266072133
 31
0.0
 12
483.0229403284105
 22
280.9876635401821
 32
0.0
 13
483.374561350754
 23
280.9876635401821
 33
0.0
  0
SOLID
  5
1C8E
330
A
100
AcDbEntity
  8
LOGO
 62
     5
100
AcDbTrace
 10
476.1662952306068
 20
282.9919033675412
 30
0.0
 11
476.5179162529515
 21
282.9919033675412
 31
0.0
 12
476.1662952306068
 22
283.2732001854163
 32
0.0
 13
476.5179162529515
 23
283.2732001854163
 33
0.0
  0
SOLID
  5
1C8F
330
A
100
AcDbEntity
  8
LOGO
 62
     5
100
AcDbTrace
 10
476.1662952306068
 20
282.7457686519006
 30
0.0
 11
476.5179162529515
 21
282.7457686519006
 31
0.0
 12
476.1662952306068
 22
280.9876635401821
 32
0.0
 13
476.5179162529515
 23
280.9876635401827
 33
0.0
  0
SOLID
  5
1C90
330
A
100
AcDbEntity
  8
LOGO
 62
     5
100
AcDbTrace
 10
479.6239605538227
 20
284.5038737636188
 30
0.0
 11
480.6436615186198
 21
284.5038737636188
 31
0.0
 12
479.6239605538227
 22
289.6609820913255
 32
0.0
 13
480.6436615186198
 23
293.399885628913
 33
0.0
  0
SOLID
  5
1C91
330
A
100
AcDbEntity
  8
LOGO
 62
     5
100
AcDbTrace
 10
481.0656067454329
 20
294.1734518780688
 30
0.0
 11
482.0853077102287
 21
294.1734518780695
 31
0.0
 12
481.0656067454329
 22
285.2774400127747
 32
0.0
 13
482.0853077102287
 23
289.0163435503623
 33
0.0
  0
SOLID
  5
1C92
330
A
100
AcDbEntity
  8
LOGO
 62
     2
100
AcDbTrace
 10
480.6436615186198
 20
294.1734518780688
 30
0.0
 11
481.0656067454329
 21
294.1734518780688
 31
0.0
 12
480.6436615186198
 22
284.5038737636188
 32
0.0
 13
481.0656067454329
 23
284.5038737636188
 33
0.0
  0
SOLID
  5
1C93
330
A
100
AcDbEntity
  8
LOGO
 62
     5
100
AcDbTrace
 10
481.0656067454329
 20
285.2774400127747
 30
0.0
 11
482.0853077102287
 21
289.0163435503623
 31
0.0
 12
485.9179768537745
 22
294.1734518780695
 32
0.0
 13
484.8982758889782
 23
294.1734518780695
 33
0.0
  0
SOLID
  5
1C94
330
A
100
AcDbEntity
  8
LOGO
 62
     5
100
AcDbTrace
 10
481.0656067454329
 20
284.5038737636188
 30
0.0
 11
482.0853077102287
 21
284.5038737636188
 31
0.0
 12
485.9179768537745
 22
293.399885628913
 32
0.0
 13
484.8982758889782
 23
289.6609820913255
 33
0.0
  0
SOLID
  5
1C95
330
A
100
AcDbEntity
  8
LOGO
 62
     2
100
AcDbTrace
 10
480.6436615186198
 20
284.5038737636188
 30
0.0
 11
481.0656067454329
 21
284.5038737636188
 31
0.0
 12
485.9179768537745
 22
294.1734518780695
 32
0.0
 13
486.3399220805872
 23
294.1734518780688
 33
0.0
  0
TEXT
  5
1C96
330
A
100
AcDbEntity
  8
LOGO
100
AcDbText
 10
524.7225869755137
 20
272.4045394247796
 30
0.0
 40
2.358719999999999
  1
01005060
 41
0.7
  7
CHINESET
 72
     1
 11
530.6193869755137
 21
272.4045394247796
 31
0.0
100
AcDbText
  0
LINE
  5
1C97
330
A
100
AcDbEntity
  8
LOGO
 62
     4
100
AcDbLine
 10
537.9394359606305
 20
275.8666483210658
 30
0.0
 11
537.9394359606317
 21
271.1498913893007
 31
0.0
  0
LINE
  5
1C98
330
A
100
AcDbEntity
  8
LOGO
 62
     4
100
AcDbLine
 10
537.9394359606305
 20
275.8666483210658
 30
0.0
 11
523.7871159606318
 21
275.8666483210658
 31
0.0
  0
LINE
  5
1C99
330
A
100
AcDbEntity
  8
LOGO
  6
AM_ISO08W050x2
 48
0.2
100
AcDbLine
 10
510.543783591391
 20
287.6635852392738
 30
0.0
 11
514.3190675399007
 21
287.6635852392738
 31
0.0
1001
GENIUS_GENOREF_13
1005
1C9E
  0
LINE
  5
1C9A
330
A
100
AcDbEntity
  8
LOGO
  6
AM_ISO08W050x2
 48
0.2
100
AcDbLine
 10
512.4314255656458
 20
285.775943265019
 30
0.0
 11
512.4314255656458
 21
289.5512272135286
 31
0.0
1001
GENIUS_GENOREF_13
1005
1C9D
  0
LINE
  5
1C9B
330
A
100
AcDbEntity
  8
LOGO
  6
AM_ISO08W050x2
 48
0.3
100
AcDbLine
 10
516.4003810075361
 20
287.6635852392738
 30
0.0
 11
521.4687226258229
 21
287.6635852392738
 31
0.0
1001
GENIUS_GENOREF_13
1005
1C9C
  0
POINT
  5
1C9C
330
A
100
AcDbEntity
  8
0
 60
     1
100
AcDbPoint
 10
-1593.379040456162
 20
-905.8533651541795
 30
0.0
1001
GENIUS_GENOBJ-N-CRS_13
1002
{
1000
OWNER
1000
GEN
1002
}
1001
GENIUS_GENOLIS_13
1002
{
1000
ENT
1005
0
1005
0
1005
0
1005
1C9B
1002
}
1001
GENIUS_GENOENT_13
1002
{
1000
MYREF
1005
1C9C
1002
}
1002
{
1000
GRP
1005
0
1002
}
1001
GENIUS_GENODEF_13
1002
{
1000
HIER
1070
    10
1002
}
1002
{
1000
MANEDIT
1070
     1
1002
}
1002
{
1000
NOSEL
1070
     0
1002
}
1002
{
1000
BEHIND
1070
     0
1002
}
1002
{
1000
OTHER
1070
     0
1002
}
1002
{
1000
REACTOR
1002
}
  0
POINT
  5
1C9D
330
A
100
AcDbEntity
  8
0
 60
     1
100
AcDbPoint
 10
-1604.703625679017
 20
-896.9777786755432
 30
0.0
1001
GENIUS_GENOBJ-N-CRS_13
1002
{
1000
OWNER
1000
GEN
1002
}
1001
GENIUS_GENOLIS_13
1002
{
1000
ENT
1005
0
1005
0
1005
0
1005
1C9A
1002
}
1001
GENIUS_GENOENT_13
1002
{
1000
MYREF
1005
1C9D
1002
}
1002
{
1000
GRP
1005
0
1002
}
1001
GENIUS_GENODEF_13
1002
{
1000
HIER
1070
    10
1002
}
1002
{
1000
MANEDIT
1070
     1
1002
}
1002
{
1000
NOSEL
1070
     0
1002
}
1002
{
1000
BEHIND
1070
     0
1002
}
1002
{
1000
OTHER
1070
     0
1002
}
1002
{
1000
REACTOR
1002
}
  0
POINT
  5
1C9E
330
A
100
AcDbEntity
  8
0
 60
     1
100
AcDbPoint
 10
-1598.34495198118
 20
-905.8533651541795
 30
0.0
1001
GENIUS_GENOBJ-N-CRS_13
1002
{
1000
OWNER
1000
GEN
1002
}
1001
GENIUS_GENOLIS_13
1002
{
1000
ENT
1005
0
1005
0
1005
0
1005
1C99
1002
}
1001
GENIUS_GENOENT_13
1002
{
1000
MYREF
1005
1C9E
1002
}
1002
{
1000
GRP
1005
0
1002
}
1001
GENIUS_GENODEF_13
1002
{
1000
HIER
1070
    10
1002
}
1002
{
1000
MANEDIT
1070
     1
1002
}
1002
{
1000
NOSEL
1070
     0
1002
}
1002
{
1000
BEHIND
1070
     0
1002
}
1002
{
1000
OTHER
1070
     0
1002
}
1002
{
1000
REACTOR
1002
}
  0
ARC
  5
2171
330
A
100
AcDbEntity
  8
0
  6
Continuous
 62
     7
100
AcDbCircle
 10
564.3232933268616
 20
394.8385744471316
 30
0.0
 40
26.0
100
AcDbArc
 50
8.568745496174281
 51
23.37419043517695
  0
LINE
  5
2172
330
A
100
AcDbEntity
  8
0
  6
Continuous
 62
     7
100
AcDbLine
 10
590.0330762455844
 20
398.7124694214606
 30
0.0
 11
587.2133732605332
 21
397.0845131440063
 31
0.0
  0
ARC
  5
2173
330
A
100
AcDbEntity
  8
0
  6
Continuous
 62
     7
100
AcDbCircle
 10
564.3232933268616
 20
394.8385744471316
 30
0.0
 40
23.00000000000003
100
AcDbArc
 50
5.603834717249918
 51
22.50528254607172
  0
ARC
  5
2174
330
A
100
AcDbEntity
  8
0
  6
Continuous
 62
     7
100
AcDbCircle
 10
564.3232933268616
 20
394.8385744471316
 30
0.0
 40
21.30000000000004
100
AcDbArc
 50
340.8240390586659
 51
347.2596065525418
  0
LINE
  5
2175
330
A
100
AcDbEntity
  8
0
  6
Continuous
 62
     7
100
AcDbLine
 10
584.4414472063274
 20
387.8421550427406
 30
0.0
 11
581.0457251911969
 21
389.8026760622694
 31
0.0
  0
ARC
  5
2176
330
A
100
AcDbEntity
  8
0
  6
Continuous
 62
     7
100
AcDbCircle
 10
579.0457251911968
 20
386.3385744471316
 30
0.0
 40
4.000000000000031
100
AcDbArc
 50
59.99999999999946
 51
239.9999999999995
  0
LINE
  5
2177
330
A
100
AcDbEntity
  8
0
  6
Continuous
 62
     7
100
AcDbLine
 10
577.0457251911969
 20
382.8744728319938
 30
0.0
 11
580.4414472063272
 21
380.9139518124652
 31
0.0
  0
ARC
  5
2178
330
A
100
AcDbEntity
  8
CENTER
100
AcDbCircle
 10
564.3232933268616
 20
394.8385744471316
 30
0.0
 40
21.30000000000003
100
AcDbArc
 50
299.761457348721
 51
311.3831146896185
  0
LINE
  5
2179
330
A
100
AcDbEntity
  8
0
  6
Continuous
 62
     7
100
AcDbLine
 10
577.98398380819
 20
380.289501089239
 30
0.0
 11
578.7791265283913
 21
379.1950810249594
 31
0.0
  0
LINE
  5
217A
330
A
100
AcDbEntity
  8
0
  6
Continuous
 62
     7
100
AcDbLine
 10
577.1749668138148
 20
379.7017158369464
 30
0.0
 11
577.98398380819
 21
380.289501089239
 31
0.0
  0
LINE
  5
217B
330
A
100
AcDbEntity
  8
0
  6
Continuous
 62
     7
100
AcDbLine
 10
576.189177857876
 20
381.0585379333008
 30
0.0
 11
577.1749668138148
 21
379.7017158369464
 31
0.0
  0
ARC
  5
217C
330
A
100
AcDbEntity
  8
0
  6
Continuous
 62
     7
100
AcDbCircle
 10
574.1980855653751
 20
381.2470889416326
 30
0.0
 40
2.000000000000047
100
AcDbArc
 50
354.5903778907315
 51
257.4096221092742
  0
LINE
  5
217D
330
A
100
AcDbEntity
  8
0
  6
Continuous
 62
     7
100
AcDbLine
 10
574.7479158306898
 20
377.938360080069
 30
0.0
 11
573.7621268747513
 21
379.2951821764233
 31
0.0
  0
LINE
  5
217E
330
A
100
AcDbEntity
  8
0
  6
Continuous
 62
     7
100
AcDbLine
 10
573.938898836315
 20
377.3505748277765
 30
0.0
 11
574.7479158306898
 21
377.938360080069
 31
0.0
  0
LINE
  5
217F
330
A
100
AcDbEntity
  8
0
  6
Continuous
 62
     7
100
AcDbLine
 10
574.7783411657153
 20
376.195181582312
 30
0.0
 11
573.938898836315
 21
377.3505748277765
 31
0.0
  0
ARC
  5
2180
330
A
100
AcDbEntity
  8
0
  6
Continuous
 62
     7
100
AcDbCircle
 10
576.8232933268616
 20
374.0001484029219
 30
0.0
 40
3.000000000000018
100
AcDbArc
 50
132.9727712122624
 51
180.0
  0
LINE
  5
2181
330
A
100
AcDbEntity
  8
0
  6
Continuous
 62
     7
100
AcDbLine
 10
573.8232933268616
 20
373.8922143814784
 30
0.0
 11
573.8232933268616
 21
374.0001484029219
 31
0.0
  0
ARC
  5
2182
330
A
100
AcDbEntity
  8
0
  6
Continuous
 62
     7
100
AcDbCircle
 10
564.3232933268616
 20
394.8385744471316
 30
0.0
 40
23.00000000000002
100
AcDbArc
 50
277.4947174539231
 51
294.3961652827506
  0
LINE
  5
2183
330
A
100
AcDbEntity
  8
0
  6
Continuous
 62
     7
100
AcDbLine
 10
567.3232933268616
 20
384.8385744471316
 30
0.0
 11
567.3232933268616
 21
378.8385744471316
 31
0.0
  0
LINE
  5
2184
330
A
100
AcDbEntity
  8
0
  6
Continuous
 62
     7
100
AcDbLine
 10
561.3232933268615
 20
384.8385744471316
 30
0.0
 11
567.3232933268616
 21
384.8385744471316
 31
0.0
  0
LINE
  5
2185
330
A
100
AcDbEntity
  8
0
  6
Continuous
 62
     7
100
AcDbLine
 10
561.3232933268615
 20
384.8385744471316
 30
0.0
 11
561.3232933268615
 21
378.8385744471316
 31
0.0
  0
ARC
  5
2186
330
A
100
AcDbEntity
  8
0
  6
Continuous
 62
     7
100
AcDbCircle
 10
564.3232933268616
 20
394.8385744471316
 30
0.0
 40
23.00000000000002
100
AcDbArc
 50
245.6038347172508
 51
262.505282546077
  0
LINE
  5
2187
330
A
100
AcDbEntity
  8
0
  6
Continuous
 62
     7
100
AcDbLine
 10
554.8232933268616
 20
374.0001484029219
 30
0.0
 11
554.8232933268616
 21
373.8922143814784
 31
0.0
  0
ARC
  5
2188
330
A
100
AcDbEntity
  8
0
  6
Continuous
 62
     7
100
AcDbCircle
 10
551.8232933268615
 20
374.0001484029219
 30
0.0
 40
3.000000000000055
100
AcDbArc
 50
0.0
 51
59.04242145758235
  0
ARC
  5
2189
330
A
100
AcDbEntity
  8
0
  6
Continuous
 62
     7
100
AcDbCircle
 10
564.3232933268616
 20
394.8385744471316
 30
0.0
 40
21.30000000000005
100
AcDbArc
 50
220.8240390586662
 51
239.0424214575824
  0
LINE
  5
218A
330
A
100
AcDbEntity
  8
0
  6
Continuous
 62
     7
100
AcDbLine
 10
548.2051394473955
 20
380.9139518124654
 30
0.0
 11
551.6008614625259
 21
382.874472831994
 31
0.0
  0
ARC
  5
218B
330
A
100
AcDbEntity
  8
0
  6
Continuous
 62
     7
100
AcDbCircle
 10
549.600861462526
 20
386.3385744471318
 30
0.0
 40
4.000000000000004
100
AcDbArc
 50
300.0000000000005
 51
120.0000000000005
  0
LINE
  5
218C
330
A
100
AcDbEntity
  8
0
  6
Continuous
 62
     7
100
AcDbLine
 10
547.600861462526
 20
389.8026760622696
 30
0.0
 11
544.2051394473956
 21
387.842155042741
 31
0.0
  0
ARC
  5
218D
330
A
100
AcDbEntity
  8
0
  6
Continuous
 62
     7
100
AcDbCircle
 10
564.3232933268616
 20
394.8385744471316
 30
0.0
 40
21.30000000000003
100
AcDbArc
 50
180.9575785424174
 51
199.1759609413341
  0
ARC
  5
218E
330
A
100
AcDbEntity
  8
0
  6
Continuous
 62
     7
100
AcDbCircle
 10
540.0266869976926
 20
394.4324699219312
 30
0.0
 40
3.000000000000048
100
AcDbArc
 50
0.9575785425118873
 51
59.99999999999946
  0
LINE
  5
218F
330
A
100
AcDbEntity
  8
0
  6
Continuous
 62
     7
100
AcDbLine
 10
541.4332133931898
 20
397.0845131440063
 30
0.0
 11
541.5266869976926
 21
397.0305461332845
 31
0.0
  0
ARC
  5
2190
330
A
100
AcDbEntity
  8
0
  6
Continuous
 62
     7
100
AcDbCircle
 10
564.3232933268616
 20
394.8385744471316
 30
0.0
 40
23.00000000000001
100
AcDbArc
 50
157.4947174539253
 51
174.3961652827468
  0
LINE
  5
2191
330
A
100
AcDbEntity
  8
0
  6
Continuous
 62
     7
100
AcDbLine
 10
554.1630392890172
 20
397.2404982357785
 30
0.0
 11
548.9668868663105
 21
400.2404982357784
 31
0.0
  0
LINE
  5
2192
330
A
100
AcDbEntity
  8
0
  6
Continuous
 62
     7
100
AcDbLine
 10
557.163039289017
 20
402.4366506584851
 30
0.0
 11
554.1630392890172
 21
397.2404982357785
 31
0.0
  0
LINE
  5
2193
330
A
100
AcDbEntity
  8
0
  6
Continuous
 62
     7
100
AcDbLine
 10
557.163039289017
 20
402.4366506584851
 30
0.0
 11
551.9668868663106
 21
405.436650658485
 31
0.0
  0
ARC
  5
2194
330
A
100
AcDbEntity
  8
0
  6
Continuous
 62
     7
100
AcDbCircle
 10
564.3232933268616
 20
394.8385744471316
 30
0.0
 40
23.00000000000003
100
AcDbArc
 50
125.6038347172516
 51
142.5052825460708
  0
LINE
  5
2195
330
A
100
AcDbEntity
  8
0
  6
Continuous
 62
     7
100
AcDbLine
 10
551.0266869976925
 20
413.4850288051888
 30
0.0
 11
550.9332133931899
 21
413.5389958159106
 31
0.0
  0
ARC
  5
2196
330
A
100
AcDbEntity
  8
0
  6
Continuous
 62
     7
100
AcDbCircle
 10
552.5266869976928
 20
416.0831050165421
 30
0.0
 40
3.000000000000028
100
AcDbArc
 50
239.9999999999995
 51
299.042421457581
  0
ARC
  5
2197
330
A
100
AcDbEntity
  8
0
  6
Continuous
 62
     7
100
AcDbCircle
 10
564.3232933268616
 20
394.8385744471316
 30
0.0
 40
21.3
100
AcDbArc
 50
100.8240390586664
 51
119.0424214575809
  0
LINE
  5
2198
330
A
100
AcDbEntity
  8
0
  6
Continuous
 62
     7
100
AcDbLine
 10
560.3232933268616
 20
415.759616486189
 30
0.0
 11
560.3232933268616
 21
411.8385744471316
 31
0.0
  0
ARC
  5
2199
330
A
100
AcDbEntity
  8
0
  6
Continuous
 62
     7
100
AcDbCircle
 10
564.3232933268616
 20
411.8385744471316
 30
0.0
 40
4.0
100
AcDbArc
 50
180.0
 51
0.0
  0
LINE
  5
219A
330
A
100
AcDbEntity
  8
0
  6
Continuous
 62
     7
100
AcDbLine
 10
568.3232933268616
 20
411.8385744471316
 30
0.0
 11
568.3232933268616
 21
415.759616486189
 31
0.0
  0
ARC
  5
219B
330
A
100
AcDbEntity
  8
0
  6
Continuous
 62
     7
100
AcDbCircle
 10
564.3232933268616
 20
394.8385744471316
 30
0.0
 40
21.29999999999999
100
AcDbArc
 50
60.95757854241909
 51
79.1759609413336
  0
ARC
  5
219C
330
A
100
AcDbEntity
  8
0
  6
Continuous
 62
     7
100
AcDbCircle
 10
576.1198996560303
 20
416.0831050165421
 30
0.0
 40
3.000000000000028
100
AcDbArc
 50
240.9575785424191
 51
300.0000000000005
  0
LINE
  5
219D
330
A
100
AcDbEntity
  8
0
  6
Continuous
 62
     7
100
AcDbLine
 10
577.7133732605332
 20
413.5389958159106
 30
0.0
 11
577.6198996560303
 21
413.4850288051888
 31
0.0
  0
ARC
  5
219E
330
A
100
AcDbEntity
  8
0
  6
Continuous
 62
     7
100
AcDbCircle
 10
564.3232933268616
 20
394.8385744471316
 30
0.0
 40
22.99999999999997
100
AcDbArc
 50
37.49471745392267
 51
54.39616528274839
  0
LINE
  5
219F
330
A
100
AcDbEntity
  8
0
  6
Continuous
 62
     7
100
AcDbLine
 10
571.4835473647061
 20
402.4366506584849
 30
0.0
 11
576.6796997874125
 21
405.4366506584848
 31
0.0
  0
LINE
  5
21A0
330
A
100
AcDbEntity
  8
0
  6
Continuous
 62
     7
100
AcDbLine
 10
574.483547364706
 20
397.2404982357782
 30
0.0
 11
571.4835473647061
 21
402.4366506584849
 31
0.0
  0
ARC
  5
21A1
330
A
100
AcDbEntity
  8
0
  6
Continuous
 62
     7
100
AcDbCircle
 10
588.6198996560303
 20
394.4324699219312
 30
0.0
 40
3.000000000000076
100
AcDbArc
 50
120.0000000000005
 51
167.0272287877335
  0
LINE
  5
21A2
330
A
100
AcDbEntity
  8
0
  6
Continuous
 62
     7
100
AcDbLine
 10
584.2761480133224
 20
395.255215612853
 30
0.0
 11
585.6964690799556
 21
395.1059338533126
 31
0.0
  0
LINE
  5
21A3
330
A
100
AcDbEntity
  8
0
  6
Continuous
 62
     7
100
AcDbLine
 10
584.1716195500548
 20
394.2606937174847
 30
0.0
 11
584.2761480133224
 21
395.255215612853
 31
0.0
  0
LINE
  5
21A4
330
A
100
AcDbEntity
  8
0
  6
Continuous
 62
     7
100
AcDbLine
 10
582.5036826682264
 20
394.4360009479206
 30
0.0
 11
584.1716195500548
 21
394.2606937174847
 31
0.0
  0
ARC
  5
21A5
330
A
100
AcDbEntity
  8
0
  6
Continuous
 62
     7
100
AcDbCircle
 10
581.0312611690485
 20
393.0824962642351
 30
0.0
 40
2.000000000000004
100
AcDbArc
 50
42.59037789073008
 51
305.4096221092759
  0
LINE
  5
21A6
330
A
100
AcDbEntity
  8
0
  6
Continuous
 62
     7
100
AcDbLine
 10
583.8580341602519
 20
391.2771280313799
 30
0.0
 11
582.1900972784235
 21
391.4524352618158
 31
0.0
  0
LINE
  5
21A7
330
A
100
AcDbEntity
  8
0
  6
Continuous
 62
     7
100
AcDbLine
 10
583.7535056969843
 20
390.2826061360115
 30
0.0
 11
583.8580341602519
 21
391.2771280313799
 31
0.0
  0
LINE
  5
21A8
330
A
100
AcDbEntity
  8
0
  6
Continuous
 62
     7
100
AcDbLine
 10
585.0988726351622
 20
390.1412023728225
 30
0.0
 11
583.7535056969843
 21
390.2826061360115
 31
0.0
  0
LINE
  5
21A9
330
A
100
AcDbEntity
  8
0
  6
Continuous
 62
     7
100
AcDbLine
 10
574.483547364706
 20
397.2404982357782
 30
0.0
 11
579.6796997874123
 21
400.2404982357782
 31
0.0
  0
LINE
  5
21AA
330
A
100
AcDbEntity
  8
0
  6
Continuous
 62
     7
100
AcDbLine
 10
587.1198996560304
 20
397.0305461332845
 30
0.0
 11
587.2133732605332
 21
397.0845131440063
 31
0.0
  0
LINE
  5
21AB
330
A
100
AcDbEntity
  8
0
  6
Continuous
 62
     7
100
AcDbLine
 10
577.7133732605332
 20
413.5389958159106
 30
0.0
 11
580.5330762455844
 21
415.166952093365
 31
0.0
  0
ARC
  5
21AC
330
A
100
AcDbEntity
  8
0
  6
Continuous
 62
     7
100
AcDbCircle
 10
564.3232933268616
 20
394.8385744471316
 30
0.0
 40
26.0
100
AcDbArc
 50
36.62580956482217
 51
51.43125450382742
  0
ARC
  5
21AD
330
A
100
AcDbEntity
  8
0
  6
Continuous
 62
     7
100
AcDbCircle
 10
564.3232933268616
 20
394.8385744471316
 30
0.0
 40
26.00000000000003
100
AcDbArc
 50
276.6258095648245
 51
291.4312545038281
  0
LINE
  5
21AE
330
A
100
AcDbEntity
  8
0
  6
Continuous
 62
     7
100
AcDbLine
 10
573.8232933268616
 20
373.8922143814784
 30
0.0
 11
573.8232933268616
 21
370.6363018265698
 31
0.0
  0
ARC
  5
21AF
330
A
100
AcDbEntity
  8
0
  6
Continuous
 62
     7
100
AcDbCircle
 10
564.3232933268616
 20
394.8385744471316
 30
0.0
 40
26.00000000000003
100
AcDbArc
 50
248.5687454961779
 51
263.3741904351755
  0
LINE
  5
21B0
330
A
100
AcDbEntity
  8
0
  6
Continuous
 62
     7
100
AcDbLine
 10
554.8232933268616
 20
370.6363018265698
 30
0.0
 11
554.8232933268616
 21
373.8922143814784
 31
0.0
  0
ARC
  5
21B1
330
A
100
AcDbEntity
  8
0
  6
Continuous
 62
     7
100
AcDbCircle
 10
564.3232933268616
 20
394.8385744471316
 30
0.0
 40
26.00000000000004
100
AcDbArc
 50
128.5687454961725
 51
143.3741904351778
  0
LINE
  5
21B2
330
A
100
AcDbEntity
  8
0
  6
Continuous
 62
     7
100
AcDbLine
 10
548.1135104081383
 20
415.166952093365
 30
0.0
 11
550.9332133931899
 21
413.5389958159106
 31
0.0
  0
ARC
  5
21B3
330
A
100
AcDbEntity
  8
0
  6
Continuous
 62
     7
100
AcDbCircle
 10
564.3232933268616
 20
394.8385744471316
 30
0.0
 40
26.00000000000003
100
AcDbArc
 50
156.625809564823
 51
171.4312545038257
  0
LINE
  5
21B4
330
A
100
AcDbEntity
  8
0
  6
Continuous
 62
     7
100
AcDbLine
 10
541.4332133931898
 20
397.0845131440063
 30
0.0
 11
538.6135104081383
 21
398.7124694214606
 31
0.0
  0
CIRCLE
  5
21B5
330
A
100
AcDbEntity
  8
0
  6
Continuous
 62
     7
100
AcDbCircle
 10
579.0457251911971
 20
386.3385744471316
 30
0.0
 40
2.249999999999943
  0
ARC
  5
21B6
330
A
100
AcDbEntity
  8
0
  6
Continuous
 62
     7
100
AcDbCircle
 10
564.3232933268616
 20
394.8385744471316
 30
0.0
 40
21.29999999999999
100
AcDbArc
 50
319.1759609413338
 51
340.8240390586659
  0
CIRCLE
  5
21B7
330
A
100
AcDbEntity
  8
0
  6
Continuous
 62
     7
100
AcDbCircle
 10
564.3232933268616
 20
411.8385744471316
 30
0.0
 40
2.249999999999943
  0
ARC
  5
21B8
330
A
100
AcDbEntity
  8
0
  6
Continuous
 62
     7
100
AcDbCircle
 10
564.3232933268616
 20
394.8385744471316
 30
0.0
 40
21.29999999999999
100
AcDbArc
 50
79.1759609413336
 51
100.8240390586664
  0
CIRCLE
  5
21B9
330
A
100
AcDbEntity
  8
0
  6
Continuous
 62
     7
100
AcDbCircle
 10
549.600861462526
 20
386.3385744471318
 30
0.0
 40
2.25
  0
ARC
  5
21BA
330
A
100
AcDbEntity
  8
0
  6
Continuous
 62
     7
100
AcDbCircle
 10
564.3232933268616
 20
394.8385744471316
 30
0.0
 40
21.30000000000006
100
AcDbArc
 50
199.1759609413341
 51
220.8240390586662
  0
LINE
  5
21BB
330
A
100
AcDbEntity
  8
0
  6
Continuous
 62
     7
100
AcDbLine
 10
586.6079030176881
 20
404.2404982357781
 30
0.0
 11
583.6079030176882
 21
409.4366506584848
 31
0.0
  0
LINE
  5
21BC
330
A
100
AcDbEntity
  8
0
  6
Continuous
 62
     7
100
AcDbLine
 10
588.8040554403949
 20
412.4366506584847
 30
0.0
 11
583.6079030176882
 21
409.4366506584848
 31
0.0
  0
LINE
  5
21BD
330
A
100
AcDbEntity
  8
0
  6
Continuous
 62
     7
100
AcDbLine
 10
591.8040554403948
 20
407.2404982357781
 30
0.0
 11
586.6079030176881
 21
404.2404982357781
 31
0.0
  0
LINE
  5
21BE
330
A
100
AcDbEntity
  8
0
  6
Continuous
 62
     7
100
AcDbLine
 10
591.8040554403948
 20
407.2404982357781
 30
0.0
 11
588.8040554403949
 21
412.4366506584847
 31
0.0
  0
LINE
  5
21BF
330
A
100
AcDbEntity
  8
0
  6
Continuous
 62
     7
100
AcDbLine
 10
584.8758522101193
 20
403.2404982357782
 30
0.0
 11
581.8758522101193
 21
408.4366506584848
 31
0.0
  0
LINE
  5
21C0
330
A
100
AcDbEntity
  8
0
  6
Continuous
 62
     7
100
AcDbLine
 10
579.6796997874123
 20
400.2404982357782
 30
0.0
 11
576.6796997874125
 21
405.4366506584848
 31
0.0
  0
LINE
  5
21C1
330
A
100
AcDbEntity
  8
0
  6
Continuous
 62
     7
100
AcDbLine
 10
581.8758522101193
 20
408.4366506584848
 30
0.0
 11
576.6796997874125
 21
405.4366506584848
 31
0.0
  0
LINE
  5
21C2
330
A
100
AcDbEntity
  8
0
  6
Continuous
 62
     7
100
AcDbLine
 10
584.8758522101193
 20
403.2404982357782
 30
0.0
 11
579.6796997874123
 21
400.2404982357782
 31
0.0
  0
LINE
  5
21C3
330
A
100
AcDbEntity
  8
0
  6
Continuous
 62
     7
100
AcDbLine
 10
583.6079030176882
 20
409.4366506584848
 30
0.0
 11
581.8758522101193
 21
408.4366506584848
 31
0.0
  0
LINE
  5
21C4
330
A
100
AcDbEntity
  8
0
  6
Continuous
 62
     7
100
AcDbLine
 10
586.6079030176881
 20
404.2404982357781
 30
0.0
 11
584.8758522101193
 21
403.2404982357782
 31
0.0
  0
LINE
  5
21C5
330
A
100
AcDbEntity
  8
0
  6
Continuous
 62
     7
100
AcDbLine
 10
593.5540554403947
 20
404.2094093225324
 30
0.0
 11
589.3749561074846
 21
401.7966051977067
 31
0.0
  0
LINE
  5
21C6
330
A
100
AcDbEntity
  8
0
  6
Continuous
 62
     7
100
AcDbLine
 10
593.5540554403947
 20
404.2094093225324
 30
0.0
 11
591.8040554403948
 21
407.2404982357781
 31
0.0
  0
LINE
  5
21C7
330
A
100
AcDbEntity
  8
0
  6
Continuous
 62
     7
100
AcDbLine
 10
587.0540554403949
 20
415.4677395717303
 30
0.0
 11
582.8749561074846
 21
413.0549354469044
 31
0.0
  0
LINE
  5
21C8
330
A
100
AcDbEntity
  8
0
  6
Continuous
 62
     7
100
AcDbLine
 10
588.8040554403949
 20
412.4366506584847
 30
0.0
 11
587.0540554403949
 21
415.4677395717303
 31
0.0
  0
LINE
  5
21C9
330
A
100
AcDbEntity
  8
0
  6
Continuous
 62
     7
100
AcDbLine
 10
546.7707344436039
 20
408.4366506584851
 30
0.0
 11
543.7707344436039
 21
403.2404982357784
 31
0.0
  0
LINE
  5
21CA
330
A
100
AcDbEntity
  8
0
  6
Continuous
 62
     7
100
AcDbLine
 10
551.9668868663106
 20
405.436650658485
 30
0.0
 11
548.9668868663105
 21
400.2404982357784
 31
0.0
  0
LINE
  5
21CB
330
A
100
AcDbEntity
  8
0
  6
Continuous
 62
     7
100
AcDbLine
 10
543.7707344436039
 20
403.2404982357784
 30
0.0
 11
548.9668868663105
 21
400.2404982357784
 31
0.0
  0
LINE
  5
21CC
330
A
100
AcDbEntity
  8
0
  6
Continuous
 62
     7
100
AcDbLine
 10
546.7707344436039
 20
408.4366506584851
 30
0.0
 11
551.9668868663106
 21
405.436650658485
 31
0.0
  0
LINE
  5
21CD
330
A
100
AcDbEntity
  8
0
  6
Continuous
 62
     7
100
AcDbLine
 10
545.038683636035
 20
409.4366506584851
 30
0.0
 11
542.0386836360351
 21
404.2404982357784
 31
0.0
  0
LINE
  5
21CE
330
A
100
AcDbEntity
  8
0
  6
Continuous
 62
     7
100
AcDbLine
 10
536.8425312133283
 20
407.2404982357784
 30
0.0
 11
542.0386836360351
 21
404.2404982357784
 31
0.0
  0
LINE
  5
21CF
330
A
100
AcDbEntity
  8
0
  6
Continuous
 62
     7
100
AcDbLine
 10
539.8425312133283
 20
412.4366506584851
 30
0.0
 11
545.038683636035
 21
409.4366506584851
 31
0.0
  0
LINE
  5
21D0
330
A
100
AcDbEntity
  8
0
  6
Continuous
 62
     7
100
AcDbLine
 10
539.8425312133283
 20
412.4366506584851
 30
0.0
 11
536.8425312133283
 21
407.2404982357784
 31
0.0
  0
LINE
  5
21D1
330
A
100
AcDbEntity
  8
0
  6
Continuous
 62
     7
100
AcDbLine
 10
542.0386836360351
 20
404.2404982357784
 30
0.0
 11
543.7707344436039
 21
403.2404982357784
 31
0.0
  0
LINE
  5
21D2
330
A
100
AcDbEntity
  8
0
  6
Continuous
 62
     7
100
AcDbLine
 10
545.038683636035
 20
409.4366506584851
 30
0.0
 11
546.7707344436039
 21
408.4366506584851
 31
0.0
  0
LINE
  5
21D3
330
A
100
AcDbEntity
  8
0
  6
Continuous
 62
     7
100
AcDbLine
 10
541.5925312133283
 20
415.4677395717307
 30
0.0
 11
545.7716305462387
 21
413.0549354469046
 31
0.0
  0
LINE
  5
21D4
330
A
100
AcDbEntity
  8
0
  6
Continuous
 62
     7
100
AcDbLine
 10
541.5925312133283
 20
415.4677395717307
 30
0.0
 11
539.8425312133283
 21
412.4366506584851
 31
0.0
  0
LINE
  5
21D5
330
A
100
AcDbEntity
  8
0
  6
Continuous
 62
     7
100
AcDbLine
 10
535.0925312133283
 20
404.209409322533
 30
0.0
 11
539.2716305462386
 21
401.796605197707
 31
0.0
  0
LINE
  5
21D6
330
A
100
AcDbEntity
  8
0
  6
Continuous
 62
     7
100
AcDbLine
 10
536.8425312133283
 20
407.2404982357784
 30
0.0
 11
535.0925312133283
 21
404.209409322533
 31
0.0
  0
LINE
  5
21D7
330
A
100
AcDbEntity
  8
0
  6
Continuous
 62
     7
100
AcDbLine
 10
561.3232933268615
 20
372.8385744471316
 30
0.0
 11
567.3232933268616
 21
372.8385744471316
 31
0.0
  0
LINE
  5
21D8
330
A
100
AcDbEntity
  8
0
  6
Continuous
 62
     7
100
AcDbLine
 10
561.3232933268615
 20
378.8385744471316
 30
0.0
 11
567.3232933268616
 21
378.8385744471316
 31
0.0
  0
ARC
  5
21D9
330
A
100
AcDbEntity
  8
DIM
  6
Continuous
100
AcDbCircle
 10
564.3232933268616
 20
375.8385744471316
 30
0.0
 40
1.5
100
AcDbArc
 50
90.0
 51
0.0
  0
LINE
  5
21DA
330
A
100
AcDbEntity
  8
0
  6
Continuous
 62
     7
100
AcDbLine
 10
567.3232933268616
 20
372.8385744471316
 30
0.0
 11
567.3232933268616
 21
378.8385744471316
 31
0.0
  0
LINE
  5
21DB
330
A
100
AcDbEntity
  8
0
  6
Continuous
 62
     7
100
AcDbLine
 10
561.3232933268615
 20
372.8385744471316
 30
0.0
 11
561.3232933268615
 21
378.8385744471316
 31
0.0
  0
LINE
  5
21DC
330
A
100
AcDbEntity
  8
0
  6
Continuous
 62
     7
100
AcDbLine
 10
561.3232933268615
 20
370.8385744471316
 30
0.0
 11
567.3232933268616
 21
370.8385744471316
 31
0.0
  0
LINE
  5
21DD
330
A
100
AcDbEntity
  8
0
  6
Continuous
 62
     7
100
AcDbLine
 10
567.3232933268616
 20
364.8385744471316
 30
0.0
 11
567.3232933268616
 21
370.8385744471316
 31
0.0
  0
ARC
  5
21DE
330
A
100
AcDbEntity
  8
DIM
  6
Continuous
100
AcDbCircle
 10
564.3232933268616
 20
367.8385744471317
 30
0.0
 40
1.5
100
AcDbArc
 50
90.0
 51
0.0
  0
LINE
  5
21DF
330
A
100
AcDbEntity
  8
0
  6
Continuous
 62
     7
100
AcDbLine
 10
561.3232933268615
 20
364.8385744471316
 30
0.0
 11
561.3232933268615
 21
370.8385744471316
 31
0.0
  0
LINE
  5
21E0
330
A
100
AcDbEntity
  8
0
  6
Continuous
 62
     7
100
AcDbLine
 10
561.3232933268615
 20
364.8385744471316
 30
0.0
 11
567.3232933268616
 21
364.8385744471316
 31
0.0
  0
LINE
  5
21E1
330
A
100
AcDbEntity
  8
0
  6
Continuous
 62
     7
100
AcDbLine
 10
567.3232933268616
 20
370.8385744471316
 30
0.0
 11
567.3232933268616
 21
372.8385744471316
 31
0.0
  0
LINE
  5
21E2
330
A
100
AcDbEntity
  8
0
  6
Continuous
 62
     7
100
AcDbLine
 10
561.3232933268615
 20
370.8385744471316
 30
0.0
 11
561.3232933268615
 21
372.8385744471316
 31
0.0
  0
LINE
  5
21E3
330
A
100
AcDbEntity
  8
0
  6
Continuous
 62
     7
100
AcDbLine
 10
570.8232933268616
 20
364.8385744471316
 30
0.0
 11
570.8232933268616
 21
369.6641826967835
 31
0.0
  0
LINE
  5
21E4
330
A
100
AcDbEntity
  8
0
  6
Continuous
 62
     7
100
AcDbLine
 10
567.3232933268616
 20
364.8385744471316
 30
0.0
 11
570.8232933268616
 21
364.8385744471316
 31
0.0
  0
LINE
  5
21E5
330
A
100
AcDbEntity
  8
0
  6
Continuous
 62
     7
100
AcDbLine
 10
557.8232933268615
 20
364.8385744471316
 30
0.0
 11
557.8232933268615
 21
369.6641826967835
 31
0.0
  0
LINE
  5
21E6
330
A
100
AcDbEntity
  8
0
  6
Continuous
 62
     7
100
AcDbLine
 10
557.8232933268615
 20
364.8385744471316
 30
0.0
 11
561.3232933268615
 21
364.8385744471316
 31
0.0
  0
LINE
  5
21E7
330
A
100
AcDbEntity
  8
0
  6
Continuous
 62
     7
100
AcDbLine
 10
644.3144383521405
 20
373.5754918753737
 30
0.0
 11
675.8144383521405
 21
373.5754918753737
 31
0.0
  0
LINE
  5
21E8
330
A
100
AcDbEntity
  8
0
  6
Continuous
 62
     7
100
AcDbLine
 10
675.8144383521405
 20
415.5754918753737
 30
0.0
 11
644.3144383521405
 21
415.5754918753737
 31
0.0
  0
LINE
  5
21E9
330
A
100
AcDbEntity
  8
0
  6
Continuous
 62
     7
100
AcDbLine
 10
644.3144383521405
 20
415.8754918753738
 30
0.0
 11
637.8144383521405
 21
415.8754918753738
 31
0.0
  0
LINE
  5
21EA
330
A
100
AcDbEntity
  8
0
  6
Continuous
 62
     7
100
AcDbLine
 10
641.6144383521404
 20
368.5754918753738
 30
0.0
 11
644.3144383521405
 21
368.5754918753738
 31
0.0
  0
LINE
  5
21EB
330
A
100
AcDbEntity
  8
0
  6
Continuous
 62
     7
100
AcDbLine
 10
644.3144383521403
 20
398.4493868497028
 30
0.0
 11
631.5464891597091
 21
398.4493868497028
 31
0.0
  0
LINE
  5
21EC
330
A
100
AcDbEntity
  8
0
  6
Continuous
 62
     7
100
AcDbLine
 10
644.3144383521405
 20
396.7674635615267
 30
0.0
 11
629.8144383521403
 21
396.7674635615267
 31
0.0
  0
LINE
  5
21ED
330
A
100
AcDbEntity
  8
0
  6
Continuous
 62
     7
100
AcDbLine
 10
629.8144383521403
 20
396.7674635615267
 30
0.0
 11
629.8144383521403
 21
396.8214305722485
 31
0.0
  0
LINE
  5
21EE
330
A
100
AcDbEntity
  8
0
  6
Continuous
 62
     7
100
AcDbLine
 10
631.5464891597091
 20
398.4493868497028
 30
0.0
 11
629.8144383521403
 21
396.8214305722485
 31
0.0
  0
LINE
  5
21EF
330
A
100
AcDbEntity
  8
0
  6
Continuous
 62
     7
100
AcDbLine
 10
644.3144383521405
 20
396.7674635615267
 30
0.0
 11
644.3144383521403
 21
398.4493868497028
 31
0.0
  0
LINE
  5
21F0
330
A
100
AcDbEntity
  8
0
  6
Continuous
 62
     7
100
AcDbLine
 10
631.5464891597091
 20
412.1735680867268
 30
0.0
 11
631.5464891597091
 21
414.903869521607
 31
0.0
  0
LINE
  5
21F1
330
A
100
AcDbEntity
  8
0
  6
Continuous
 62
     7
100
AcDbLine
 10
631.5464891597091
 20
414.903869521607
 30
0.0
 11
633.8144383521408
 21
414.903869521607
 31
0.0
  0
LINE
  5
21F2
330
A
100
AcDbEntity
  8
0
  6
Continuous
 62
     7
100
AcDbLine
 10
638.3144383521405
 20
414.903869521607
 30
0.0
 11
644.3144383521405
 21
414.903869521607
 31
0.0
  0
LINE
  5
21F3
330
A
100
AcDbEntity
  8
0
  6
Continuous
 62
     7
100
AcDbLine
 10
631.5464891597091
 20
398.4493868497028
 30
0.0
 11
631.5464891597091
 21
404.8905872341653
 31
0.0
  0
LINE
  5
21F4
330
A
100
AcDbEntity
  8
0
  6
Continuous
 62
     7
100
AcDbLine
 10
631.5464891597091
 20
404.8905872341653
 30
0.0
 11
633.8144383521402
 21
404.8905872341653
 31
0.0
  0
LINE
  5
21F5
330
A
100
AcDbEntity
  8
0
  6
Continuous
 62
     7
100
AcDbLine
 10
638.3144383521403
 20
401.5335226259487
 30
0.0
 11
633.8144383521402
 21
401.5335226259487
 31
0.0
  0
LINE
  5
21F6
330
A
100
AcDbEntity
  8
0
  6
Continuous
 62
     7
100
AcDbLine
 10
638.3144383521403
 20
404.4260759901162
 30
0.0
 11
641.6144383521403
 21
404.4260759901162
 31
0.0
  0
LINE
  5
21F7
330
A
100
AcDbEntity
  8
0
  6
Continuous
 62
     7
100
AcDbLine
 10
644.3144383521403
 20
398.4493868497028
 30
0.0
 11
644.3144383521405
 21
414.903869521607
 31
0.0
  0
LINE
  5
21F8
330
A
100
AcDbEntity
  8
0
  6
Continuous
 62
     7
100
AcDbLine
 10
629.8144383521403
 20
396.8214305722485
 30
0.0
 11
629.8144383521403
 21
403.3791699150116
 31
0.0
  0
LINE
  5
21F9
330
A
100
AcDbEntity
  8
0
  6
Continuous
 62
     7
100
AcDbLine
 10
629.8144383521403
 20
403.3791699150116
 30
0.0
 11
631.5464891597091
 21
404.8905872341653
 31
0.0
  0
LINE
  5
21FA
330
A
100
AcDbEntity
  8
0
  6
Continuous
 62
     7
100
AcDbLine
 10
644.3144383521405
 20
394.8428512815547
 30
0.0
 11
629.8144383521403
 21
394.8428512815547
 31
0.0
  0
LINE
  5
21FB
330
A
100
AcDbEntity
  8
0
  6
Continuous
 62
     7
100
AcDbLine
 10
629.8144383521403
 20
394.8428512815547
 30
0.0
 11
629.8144383521403
 21
396.7674635615267
 31
0.0
  0
LINE
  5
21FC
330
A
100
AcDbEntity
  8
0
  6
Continuous
 62
     7
100
AcDbLine
 10
644.3144383521405
 20
394.8428512815547
 30
0.0
 11
644.3144383521405
 21
396.7674635615267
 31
0.0
  0
LINE
  5
21FD
330
A
100
AcDbEntity
  8
0
  6
Continuous
 62
     7
100
AcDbLine
 10
675.8144383521405
 20
376.2374908959654
 30
0.0
 11
644.3144383521405
 21
376.2374908959654
 31
0.0
  0
LINE
  5
21FE
330
A
100
AcDbEntity
  8
0
  6
Continuous
 62
     7
100
AcDbLine
 10
675.8144383521403
 20
394.8823092221153
 30
0.0
 11
675.8144383521405
 21
415.5754918753737
 31
0.0
  0
LINE
  5
21FF
330
A
100
AcDbEntity
  8
0
  6
Continuous
 62
     7
100
AcDbLine
 10
675.8144383521405
 20
373.5754918753737
 30
0.0
 11
675.8144383521405
 21
376.2374908959654
 31
0.0
  0
LWPOLYLINE
  5
2200
330
A
100
AcDbEntity
  8
0
  6
Continuous
 62
     7
100
AcDbPolyline
 90
       39
 70
   128
 43
0.0
 10
652.3144383521405
 20
415.4516366326681
 10
651.4885124821321
 20
415.4438932416161
 10
650.6862016607755
 20
415.4193965765888
 10
649.9312256675414
 20
415.3752290432162
 10
649.241997976268
 20
415.306917525597
 10
648.6271747353119
 20
415.207014347043
 10
648.1148885749287
 20
415.0717045265849
 10
647.7164927724754
 20
414.89385491812
 10
647.4495169593949
 20
414.6740139086185
 10
647.3256296529955
 20
414.4179680136692
 10
647.3406907197038
 20
414.1281669482308
 10
647.491750497006
 20
413.8192024804336
 10
647.7710607426092
 20
413.4973245664542
 10
648.1758168617359
 20
413.1727792522461
 10
648.6913234698093
 20
412.8630731967866
 10
649.3216066455063
 20
412.5771473935852
 10
650.0371836488382
 20
412.3381928483142
 10
650.8231639265004
 20
412.1608352344692
 10
651.6536024615652
 20
412.056494485817
 10
652.4837900215718
 20
412.0334953645242
 10
653.30908352565
 20
412.0883899765813
 10
654.0940434004799
 20
412.2165652537944
 10
654.8302218917237
 20
412.4089241069156
 10
655.5090930446856
 20
412.6599558097252
 10
656.1003569365088
 20
412.9518793528433
 10
656.5971007344664
 20
413.2772207665757
 10
656.9722409913463
 20
413.6131866475827
 10
657.2113187209631
 20
413.9415135222066
 10
657.3116434486676
 20
414.2512409391045
 10
657.2705019468457
 20
414.524045189403
 10
657.0954392131852
 20
414.7616232385052
 10
656.7918019138585
 20
414.9587144445818
 10
656.3697034457488
 20
415.1170591829246
 10
655.8263739436681
 20
415.2406517214691
 10
655.1858104799646
 20
415.3305276405849
 10
654.4512246145286
 20
415.3924696690377
 10
653.6535950309505
 20
415.4304266614606
 10
652.9905156965075
 20
415.4464785040074
 10
652.3144383521405
 20
415.4516366326681
  0
LINE
  5
2201
330
A
100
AcDbEntity
  8
0
  6
Continuous
 62
     7
100
AcDbLine
 10
644.3144383521405
 20
394.8823092221153
 30
0.0
 11
675.8144383521403
 21
394.8823092221153
 31
0.0
  0
LINE
  5
2202
330
A
100
AcDbEntity
  8
0
  6
Continuous
 62
     7
100
AcDbLine
 10
629.8144383521405
 20
413.2759132441528
 30
0.0
 11
631.5464891597091
 21
414.903869521607
 31
0.0
  0
LINE
  5
2203
330
A
100
AcDbEntity
  8
0
  6
Continuous
 62
     7
100
AcDbLine
 10
629.8144383521405
 20
412.1735680867268
 30
0.0
 11
629.8144383521405
 21
413.2759132441528
 31
0.0
  0
LINE
  5
2204
330
A
100
AcDbEntity
  8
0
  6
Continuous
 62
     7
100
AcDbLine
 10
629.8144383521403
 20
390.0195235642536
 30
0.0
 11
675.8144383521403
 21
390.0195235642538
 31
0.0
  0
LINE
  5
2205
330
A
100
AcDbEntity
  8
0
  6
Continuous
 62
     7
100
AcDbLine
 10
675.8144383521403
 20
389.909699745274
 30
0.0
 11
644.3144383521405
 21
389.909699745274
 31
0.0
  0
LINE
  5
2206
330
A
100
AcDbEntity
  8
0
  6
Continuous
 62
     7
100
AcDbLine
 10
644.3144383521405
 20
389.909699745274
 30
0.0
 11
644.3144383521405
 21
389.8781198010646
 31
0.0
  0
LINE
  5
2207
330
A
100
AcDbEntity
  8
0
  6
Continuous
 62
     7
100
AcDbLine
 10
629.8144383521403
 20
389.8781198010646
 30
0.0
 11
644.3144383521405
 21
389.8781198010646
 31
0.0
  0
LINE
  5
2208
330
A
100
AcDbEntity
  8
0
  6
Continuous
 62
     7
100
AcDbLine
 10
675.8144383521403
 20
389.909699745274
 30
0.0
 11
675.8144383521403
 21
390.0195235642538
 31
0.0
  0
LINE
  5
2209
330
A
100
AcDbEntity
  8
0
  6
Continuous
 62
     7
100
AcDbLine
 10
629.8144383521403
 20
389.8781198010646
 30
0.0
 11
629.8144383521403
 21
390.0195235642536
 31
0.0
  0
LINE
  5
220A
330
A
100
AcDbEntity
  8
0
  6
Continuous
 62
     7
100
AcDbLine
 10
644.3144383521405
 20
378.9319984532014
 30
0.0
 11
644.3144383521405
 21
389.8781198010646
 31
0.0
  0
LINE
  5
220B
330
A
100
AcDbEntity
  8
0
  6
Continuous
 62
     7
100
AcDbLine
 10
644.3144383521405
 20
378.9319984532014
 30
0.0
 11
629.8144383521405
 21
378.9319984532014
 31
0.0
  0
LINE
  5
220C
330
A
100
AcDbEntity
  8
0
  6
Continuous
 62
     7
100
AcDbLine
 10
637.8144383521405
 20
380.6508692407073
 30
0.0
 11
629.8144383521405
 21
380.6508692407073
 31
0.0
  0
LINE
  5
220D
330
A
100
AcDbEntity
  8
0
  6
Continuous
 62
     7
100
AcDbLine
 10
637.8144383521405
 20
380.6508692407073
 30
0.0
 11
637.8144383521402
 21
387.5790724709828
 31
0.0
  0
LINE
  5
220E
330
A
100
AcDbEntity
  8
0
  6
Continuous
 62
     7
100
AcDbLine
 10
637.8144383521402
 20
387.5790724709828
 30
0.0
 11
629.8144383521403
 21
387.5790724709828
 31
0.0
  0
LINE
  5
220F
330
A
100
AcDbEntity
  8
0
  6
Continuous
 62
     7
100
AcDbLine
 10
629.8144383521403
 20
387.5790724709828
 30
0.0
 11
629.8144383521403
 21
389.8781198010646
 31
0.0
  0
LINE
  5
2210
330
A
100
AcDbEntity
  8
0
  6
Continuous
 62
     7
100
AcDbLine
 10
629.8144383521405
 20
378.9319984532014
 30
0.0
 11
629.8144383521405
 21
380.6508692407073
 31
0.0
  0
LINE
  5
2211
330
A
100
AcDbEntity
  8
0
  6
Continuous
 62
     7
100
AcDbLine
 10
644.3144383521405
 20
379.1764171574279
 30
0.0
 11
675.8144383521403
 21
379.1764171574279
 31
0.0
  0
LINE
  5
2212
330
A
100
AcDbEntity
  8
0
  6
Continuous
 62
     7
100
AcDbLine
 10
675.8144383521403
 20
379.1764171574279
 30
0.0
 11
675.8144383521403
 21
389.909699745274
 31
0.0
  0
LINE
  5
2213
330
A
100
AcDbEntity
  8
0
  6
Continuous
 62
     7
100
AcDbLine
 10
675.8144383521403
 20
393.9976111457268
 30
0.0
 11
629.8144383521403
 21
393.9976111457268
 31
0.0
  0
LINE
  5
2214
330
A
100
AcDbEntity
  8
0
  6
Continuous
 62
     7
100
AcDbLine
 10
675.8144383521403
 20
393.9976111457268
 30
0.0
 11
675.8144383521403
 21
394.8823092221153
 31
0.0
  0
LINE
  5
2215
330
A
100
AcDbEntity
  8
0
  6
Continuous
 62
     7
100
AcDbLine
 10
629.8144383521403
 20
393.9976111457268
 30
0.0
 11
629.8144383521403
 21
394.8428512815547
 31
0.0
  0
LINE
  5
2216
330
A
100
AcDbEntity
  8
0
  6
Continuous
 62
     7
100
AcDbLine
 10
629.8144383521405
 20
391.189352690058
 30
0.0
 11
675.8144383521403
 21
391.189352690058
 31
0.0
  0
LINE
  5
2217
330
A
100
AcDbEntity
  8
0
  6
Continuous
 62
     7
100
AcDbLine
 10
629.8144383521403
 20
391.0140454596218
 30
0.0
 11
675.8144383521403
 21
391.014045459622
 31
0.0
  0
LINE
  5
2218
330
A
100
AcDbEntity
  8
0
  6
Continuous
 62
     7
100
AcDbLine
 10
675.8144383521403
 20
391.189352690058
 30
0.0
 11
675.8144383521403
 21
391.014045459622
 31
0.0
  0
LINE
  5
2219
330
A
100
AcDbEntity
  8
0
  6
Continuous
 62
     7
100
AcDbLine
 10
629.8144383521403
 20
391.0140454596218
 30
0.0
 11
629.8144383521405
 21
391.189352690058
 31
0.0
  0
LINE
  5
221A
330
A
100
AcDbEntity
  8
0
  6
Continuous
 62
     7
100
AcDbLine
 10
675.8144383521403
 20
390.0195235642538
 30
0.0
 11
675.8144383521403
 21
391.014045459622
 31
0.0
  0
LINE
  5
221B
330
A
100
AcDbEntity
  8
0
  6
Continuous
 62
     7
100
AcDbLine
 10
629.8144383521403
 20
390.0195235642536
 30
0.0
 11
629.8144383521403
 21
391.0140454596218
 31
0.0
  0
LINE
  5
221C
330
A
100
AcDbEntity
  8
0
  6
Continuous
 62
     7
100
AcDbLine
 10
675.8144383521403
 20
391.189352690058
 30
0.0
 11
675.8144383521403
 21
393.9976111457268
 31
0.0
  0
LINE
  5
221D
330
A
100
AcDbEntity
  8
0
  6
Continuous
 62
     7
100
AcDbLine
 10
629.8144383521405
 20
391.189352690058
 30
0.0
 11
629.8144383521405
 21
393.9976111457268
 31
0.0
  0
LINE
  5
221E
330
A
100
AcDbEntity
  8
0
  6
Continuous
 62
     7
100
AcDbLine
 10
637.8144383521405
 20
382.6113902602359
 30
0.0
 11
629.8144383521405
 21
382.6113902602359
 31
0.0
  0
LINE
  5
221F
330
A
100
AcDbEntity
  8
0
  6
Continuous
 62
     7
100
AcDbLine
 10
629.8144383521405
 20
387.5790724709828
 30
0.0
 11
629.8144383521405
 21
382.6113902602359
 31
0.0
  0
LINE
  5
2220
330
A
100
AcDbEntity
  8
0
  6
Continuous
 62
     7
100
AcDbLine
 10
629.8144383521405
 20
382.6113902602359
 30
0.0
 11
629.8144383521405
 21
380.6508692407073
 31
0.0
  0
LWPOLYLINE
  5
2221
330
A
100
AcDbEntity
  8
0
  6
Continuous
 62
     7
100
AcDbPolyline
 90
       11
 70
   128
 43
0.0
 10
652.3144383521405
 20
414.9817903222751
 10
652.9952715976216
 20
414.9658623519171
 10
653.6634222079258
 20
414.9183751487941
 10
654.3064438013718
 20
414.8402133096509
 10
654.9123581023177
 20
414.732832841663
 10
655.4698780737708
 20
414.5982340397771
 10
655.9686181735312
 20
414.4389242250019
 10
656.3992878171927
 20
414.2578710377609
 10
656.7538644441524
 20
414.0584471563665
 10
657.0257429627347
 20
413.8443674704046
 10
657.1086913920351
 20
413.7572061778282
  0
LWPOLYLINE
  5
2222
330
A
100
AcDbEntity
  8
0
  6
Continuous
 62
     7
100
AcDbPolyline
 90
       11
 70
   128
 43
0.0
 10
647.513647992004
 20
413.7495900228582
 10
647.6031337415463
 20
413.8443674704047
 10
647.8750122601288
 20
414.0584471563665
 10
648.2295888870883
 20
414.2578710377609
 10
648.6602585307498
 20
414.4389242250019
 10
649.1589986305102
 20
414.5982340397771
 10
649.7165186019633
 20
414.732832841663
 10
650.3224329029094
 20
414.8402133096509
 10
650.9654544963552
 20
414.9183751487941
 10
651.6336051066594
 20
414.9658623519171
 10
652.3144383521405
 20
414.9817903222751
  0
LINE
  5
2223
330
A
100
AcDbEntity
  8
0
  6
Continuous
 62
     7
100
AcDbLine
 10
644.3144383521405
 20
379.0320996046655
 30
0.0
 11
675.8144383521405
 21
379.0320996046655
 31
0.0
  0
LINE
  5
2224
330
A
100
AcDbEntity
  8
0
  6
Continuous
 62
     7
100
AcDbLine
 10
675.8144383521405
 20
379.0320996046655
 30
0.0
 11
675.8144383521405
 21
379.1764171574279
 31
0.0
  0
LWPOLYLINE
  5
2225
330
A
100
AcDbEntity
  8
0
  6
Continuous
 62
     7
100
AcDbPolyline
 90
       33
 70
   128
 43
0.0
 10
652.3144383521405
 20
414.126739963961
 10
652.8021641571808
 20
414.1103104110849
 10
653.2711469330531
 20
414.0616531309598
 10
653.7033639346893
 20
413.9826379955736
 10
654.0822053051067
 20
413.8763015122667
 10
654.3931123828968
 20
413.746730132459
 10
654.6241371834187
 20
413.5989032116113
 10
654.7664015531483
 20
413.4385016553904
 10
654.8144383521405
 20
413.2716896056468
 10
654.7664015531483
 20
413.1048775559033
 10
654.6241371834187
 20
412.944475999682
 10
654.3931123828968
 20
412.7966490788347
 10
654.0822053051067
 20
412.6670776990269
 10
653.7033639346893
 20
412.5607412157202
 10
653.2711469330531
 20
412.4817260803339
 10
652.8021641571808
 20
412.4330688002088
 10
652.3144383521405
 20
412.4166392473328
 10
651.8267125471002
 20
412.4330688002088
 10
651.3577297712276
 20
412.4817260803339
 10
650.9255127695912
 20
412.5607412157202
 10
650.5466713991741
 20
412.6670776990269
 10
650.2357643213843
 20
412.7966490788347
 10
650.0047395208621
 20
412.944475999682
 10
649.8624751511322
 20
413.1048775559033
 10
649.8144383521405
 20
413.2716896056468
 10
649.8624751511322
 20
413.4385016553904
 10
650.0047395208623
 20
413.5989032116113
 10
650.2357643213843
 20
413.746730132459
 10
650.5466713991741
 20
413.8763015122667
 10
650.9255127695917
 20
413.9826379955736
 10
651.3577297712276
 20
414.0616531309598
 10
651.8267125471002
 20
414.1103104110849
 10
652.3144383521405
 20
414.126739963961
  0
LINE
  5
2226
330
A
100
AcDbEntity
  8
0
  6
Continuous
 62
     7
100
AcDbLine
 10
629.8144383521405
 20
375.9320990105542
 30
0.0
 11
644.3144383521405
 21
375.9320990105542
 31
0.0
  0
LINE
  5
2227
330
A
100
AcDbEntity
  8
0
  6
Continuous
 62
     7
100
AcDbLine
 10
629.8144383521405
 20
377.0874922560186
 30
0.0
 11
675.8144383521405
 21
377.0874922560186
 31
0.0
  0
LINE
  5
2228
330
A
100
AcDbEntity
  8
0
  6
Continuous
 62
     7
100
AcDbLine
 10
675.8144383521405
 20
376.2374908959654
 30
0.0
 11
675.8144383521405
 21
377.0874922560186
 31
0.0
  0
LINE
  5
2229
330
A
100
AcDbEntity
  8
0
  6
Continuous
 62
     7
100
AcDbLine
 10
629.8144383521405
 20
375.9320990105542
 30
0.0
 11
629.8144383521405
 21
377.0874922560186
 31
0.0
  0
LINE
  5
222A
330
A
100
AcDbEntity
  8
0
  6
Continuous
 62
     7
100
AcDbLine
 10
644.3144383521405
 20
376.2374908959654
 30
0.0
 11
644.3144383521405
 21
375.9320990105542
 31
0.0
  0
LINE
  5
222B
330
A
100
AcDbEntity
  8
0
  6
Continuous
 62
     7
100
AcDbLine
 10
644.3144383521405
 20
373.7370658311641
 30
0.0
 11
629.8144383521405
 21
373.7370658311641
 31
0.0
  0
LINE
  5
222C
330
A
100
AcDbEntity
  8
0
  6
Continuous
 62
     7
100
AcDbLine
 10
629.8144383521405
 20
373.7370658311641
 30
0.0
 11
629.8144383521405
 21
375.9320990105542
 31
0.0
  0
LINE
  5
222D
330
A
100
AcDbEntity
  8
0
  6
Continuous
 62
     7
100
AcDbLine
 10
644.3144383521405
 20
373.7370658311641
 30
0.0
 11
644.3144383521405
 21
375.9320990105542
 31
0.0
  0
LINE
  5
222E
330
A
100
AcDbEntity
  8
0
  6
Continuous
 62
     7
100
AcDbLine
 10
629.8144383521405
 20
377.6752775083111
 30
0.0
 11
675.8144383521405
 21
377.6752775083111
 31
0.0
  0
LINE
  5
222F
330
A
100
AcDbEntity
  8
0
  6
Continuous
 62
     7
100
AcDbLine
 10
675.8144383521405
 20
377.0874922560186
 30
0.0
 11
675.8144383521405
 21
377.6752775083111
 31
0.0
  0
LINE
  5
2230
330
A
100
AcDbEntity
  8
0
  6
Continuous
 62
     7
100
AcDbLine
 10
629.8144383521405
 20
377.0874922560186
 30
0.0
 11
629.8144383521405
 21
377.6752775083111
 31
0.0
  0
LINE
  5
2231
330
A
100
AcDbEntity
  8
0
  6
Continuous
 62
     7
100
AcDbLine
 10
675.8144383521405
 20
377.6752775083111
 30
0.0
 11
675.8144383521405
 21
379.0320996046655
 31
0.0
  0
LINE
  5
2232
330
A
100
AcDbEntity
  8
0
  6
Continuous
 62
     7
100
AcDbLine
 10
629.8144383521405
 20
377.6752775083111
 30
0.0
 11
629.8144383521405
 21
378.9319984532014
 31
0.0
  0
LINE
  5
2233
330
A
100
AcDbEntity
  8
0
  6
Continuous
 62
     7
100
AcDbLine
 10
637.8144383521405
 20
415.496533914431
 30
0.0
 11
629.8144383521405
 21
415.496533914431
 31
0.0
  0
LINE
  5
2234
330
A
100
AcDbEntity
  8
0
  6
Continuous
 62
     7
100
AcDbLine
 10
637.8144383521405
 20
415.496533914431
 30
0.0
 11
637.8144383521405
 21
415.8754918753738
 31
0.0
  0
LINE
  5
2235
330
A
100
AcDbEntity
  8
0
  6
Continuous
 62
     7
100
AcDbLine
 10
629.8144383521405
 20
413.2860479635558
 30
0.0
 11
629.8144383521405
 21
415.496533914431
 31
0.0
  0
LINE
  5
2236
330
A
100
AcDbEntity
  8
0
  6
Continuous
 62
     7
100
AcDbLine
 10
644.3144383521405
 20
414.903869521607
 30
0.0
 11
644.3144383521405
 21
415.8754918753738
 31
0.0
  0
LINE
  5
2237
330
A
100
AcDbEntity
  8
0
  6
Continuous
 62
     7
100
AcDbLine
 10
644.3144383521405
 20
370.373219254812
 30
0.0
 11
631.5464891597091
 21
370.373219254812
 31
0.0
  0
LWPOLYLINE
  5
2238
330
A
100
AcDbEntity
  8
0
  6
Continuous
 62
     7
100
AcDbPolyline
 90
        3
 70
   128
 43
0.0
 10
629.8144383521405
 20
373.6291318097205
 10
630.7329837371282
 20
371.8936561568464
 10
631.5464891597091
 20
370.373219254812
  0
LINE
  5
2239
330
A
100
AcDbEntity
  8
0
  6
Continuous
 62
     7
100
AcDbLine
 10
629.8144383521405
 20
373.6291318097205
 30
0.0
 11
629.8144383521405
 21
373.7370658311641
 31
0.0
  0
LINE
  5
223A
330
A
100
AcDbEntity
  8
0
  6
Continuous
 62
     7
100
AcDbLine
 10
644.3144383521405
 20
370.373219254812
 30
0.0
 11
644.3144383521405
 21
373.7370658311641
 31
0.0
  0
LINE
  5
223B
330
A
100
AcDbEntity
  8
0
  6
Continuous
 62
     7
100
AcDbLine
 10
641.6144383521404
 20
368.8121458193973
 30
0.0
 11
638.3144383521405
 21
368.8121458193973
 31
0.0
  0
LINE
  5
223C
330
A
100
AcDbEntity
  8
0
  6
Continuous
 62
     7
100
AcDbLine
 10
638.3144383521405
 20
369.4011001250256
 30
0.0
 11
633.8144383521405
 21
369.4011001250256
 31
0.0
  0
LINE
  5
223D
330
A
100
AcDbEntity
  8
0
  6
Continuous
 62
     7
100
AcDbLine
 10
631.5464891597091
 20
368.749148735084
 30
0.0
 11
633.8144383521405
 21
368.7491487350838
 31
0.0
  0
LINE
  5
223E
330
A
100
AcDbEntity
  8
0
  6
Continuous
 62
     7
100
AcDbLine
 10
631.5464891597091
 20
368.749148735084
 30
0.0
 11
631.5464891597091
 21
370.373219254812
 31
0.0
  0
LINE
  5
223F
330
A
100
AcDbEntity
  8
0
  6
Continuous
 62
     7
100
AcDbLine
 10
644.3144383521405
 20
368.5754918753738
 30
0.0
 11
644.3144383521405
 21
370.373219254812
 31
0.0
  0
LWPOLYLINE
  5
2240
330
A
100
AcDbEntity
  8
0
  6
Continuous
 62
     7
100
AcDbPolyline
 90
        3
 70
   128
 43
0.0
 10
629.8144383521405
 20
371.7719833733911
 10
630.5443097591322
 20
370.4974903518316
 10
631.5464891597091
 20
368.749148735084
  0
LINE
  5
2241
330
A
100
AcDbEntity
  8
0
  6
Continuous
 62
     7
100
AcDbLine
 10
629.8144383521405
 20
371.7719833733911
 30
0.0
 11
629.8144383521405
 21
373.6291318097205
 31
0.0
  0
LINE
  5
2242
330
A
100
AcDbEntity
  8
0
  6
Continuous
 62
     7
100
AcDbLine
 10
638.3144383521403
 20
403.9463267507746
 30
0.0
 11
633.8144383521402
 21
403.9463267507746
 31
0.0
  0
LINE
  5
2243
330
A
100
AcDbEntity
  8
0
  6
Continuous
 62
     7
100
AcDbLine
 10
633.8144383521402
 20
403.9463267507746
 30
0.0
 11
633.8144383521402
 21
406.9774156640202
 31
0.0
  0
LINE
  5
2244
330
A
100
AcDbEntity
  8
0
  6
Continuous
 62
     7
100
AcDbLine
 10
633.8144383521402
 20
406.9774156640202
 30
0.0
 11
626.8144383521405
 21
406.9774156640202
 31
0.0
  0
LINE
  5
2245
330
A
100
AcDbEntity
  8
0
  6
Continuous
 62
     7
100
AcDbLine
 10
626.8144383521405
 20
406.9774156640202
 30
0.0
 11
626.8144383521405
 21
412.1735680867268
 31
0.0
  0
LINE
  5
2246
330
A
100
AcDbEntity
  8
0
  6
Continuous
 62
     7
100
AcDbLine
 10
633.8144383521405
 20
412.1735680867268
 30
0.0
 11
626.8144383521405
 21
412.1735680867268
 31
0.0
  0
LINE
  5
2247
330
A
100
AcDbEntity
  8
0
  6
Continuous
 62
     7
100
AcDbLine
 10
633.8144383521405
 20
412.1735680867268
 30
0.0
 11
633.8144383521405
 21
415.2046569999725
 31
0.0
  0
LINE
  5
2248
330
A
100
AcDbEntity
  8
0
  6
Continuous
 62
     7
100
AcDbLine
 10
638.3144383521403
 20
415.2046569999725
 30
0.0
 11
633.8144383521405
 21
415.2046569999725
 31
0.0
  0
LINE
  5
2249
330
A
100
AcDbEntity
  8
0
  6
Continuous
 62
     7
100
AcDbLine
 10
638.3144383521403
 20
412.6065807886191
 30
0.0
 11
638.3144383521403
 21
415.2046569999725
 31
0.0
  0
LINE
  5
224A
330
A
100
AcDbEntity
  8
0
  6
Continuous
 62
     7
100
AcDbLine
 10
641.6144383521403
 20
412.6065807886191
 30
0.0
 11
638.3144383521403
 21
412.6065807886191
 31
0.0
  0
LINE
  5
224B
330
A
100
AcDbEntity
  8
0
  6
Continuous
 62
     7
100
AcDbLine
 10
641.6144383521403
 20
406.544402962128
 30
0.0
 11
641.6144383521403
 21
412.6065807886191
 31
0.0
  0
LINE
  5
224C
330
A
100
AcDbEntity
  8
0
  6
Continuous
 62
     7
100
AcDbLine
 10
638.3144383521403
 20
406.544402962128
 30
0.0
 11
641.6144383521403
 21
406.544402962128
 31
0.0
  0
LINE
  5
224D
330
A
100
AcDbEntity
  8
0
  6
Continuous
 62
     7
100
AcDbLine
 10
638.3144383521403
 20
403.9463267507746
 30
0.0
 11
638.3144383521403
 21
406.544402962128
 31
0.0
  0
LINE
  5
224E
330
A
100
AcDbEntity
  8
0
  6
Continuous
 62
     7
100
AcDbLine
 10
633.8144383521402
 20
403.9463267507746
 30
0.0
 11
633.8144383521405
 21
401.5335226259487
 31
0.0
  0
LINE
  5
224F
330
A
100
AcDbEntity
  8
0
  6
Continuous
 62
     7
100
AcDbLine
 10
638.3144383521403
 20
401.5335226259487
 30
0.0
 11
638.3144383521403
 21
403.9463267507746
 31
0.0
  0
LINE
  5
2250
330
A
100
AcDbEntity
  8
0
  6
Continuous
 62
     7
100
AcDbLine
 10
641.6144383521403
 20
404.4260759901162
 30
0.0
 11
641.6144383521403
 21
406.544402962128
 31
0.0
  0
LINE
  5
2251
330
A
100
AcDbEntity
  8
0
  6
Continuous
 62
     7
100
AcDbLine
 10
626.8144383521405
 20
402.9774156640203
 30
0.0
 11
626.8144383521405
 21
399.9774156640203
 31
0.0
  0
LINE
  5
2252
330
A
100
AcDbEntity
  8
0
  6
Continuous
 62
     7
100
AcDbLine
 10
628.8144383521405
 20
402.9774156640203
 30
0.0
 11
626.8144383521405
 21
402.9774156640203
 31
0.0
  0
LINE
  5
2253
330
A
100
AcDbEntity
  8
0
  6
Continuous
 62
     7
100
AcDbLine
 10
628.8144383521405
 20
403.9774156640202
 30
0.0
 11
628.8144383521405
 21
402.9774156640203
 31
0.0
  0
LINE
  5
2254
330
A
100
AcDbEntity
  8
0
  6
Continuous
 62
     7
100
AcDbLine
 10
626.8144383521405
 20
403.9774156640202
 30
0.0
 11
628.8144383521405
 21
403.9774156640202
 31
0.0
  0
LINE
  5
2255
330
A
100
AcDbEntity
  8
0
  6
Continuous
 62
     7
100
AcDbLine
 10
626.8144383521405
 20
406.9774156640202
 30
0.0
 11
626.8144383521405
 21
403.9774156640202
 31
0.0
  0
LINE
  5
2256
330
A
100
AcDbEntity
  8
0
  6
Continuous
 62
     7
100
AcDbLine
 10
626.8144383521405
 20
399.9774156640203
 30
0.0
 11
629.8144383521408
 21
399.9774156640203
 31
0.0
  0
LINE
  5
2257
330
A
100
AcDbEntity
  8
0
  6
Continuous
 62
     7
100
AcDbLine
 10
626.8144383521405
 20
402.9774156640203
 30
0.0
 11
626.8144383521405
 21
403.9774156640206
 31
0.0
  0
LINE
  5
2258
330
A
100
AcDbEntity
  8
0
  6
Continuous
 62
     7
100
AcDbLine
 10
633.8144383521405
 20
364.5754918753738
 30
0.0
 11
633.8144383521405
 21
369.4011001250256
 31
0.0
  0
LINE
  5
2259
330
A
100
AcDbEntity
  8
0
  6
Continuous
 62
     7
100
AcDbLine
 10
638.3144383521405
 20
369.4011001250256
 30
0.0
 11
638.3144383521405
 21
364.5754918753738
 31
0.0
  0
LINE
  5
225A
330
A
100
AcDbEntity
  8
0
  6
Continuous
 62
     7
100
AcDbLine
 10
638.3144383521405
 20
364.5754918753738
 30
0.0
 11
633.8144383521405
 21
364.5754918753738
 31
0.0
  0
LINE
  5
225B
330
A
100
AcDbEntity
  8
0
  6
Continuous
 62
     7
100
AcDbLine
 10
641.6144383521404
 20
368.8121458193973
 30
0.0
 11
641.6144383521404
 21
364.5754918753738
 31
0.0
  0
LINE
  5
225C
330
A
100
AcDbEntity
  8
0
  6
Continuous
 62
     7
100
AcDbLine
 10
641.6144383521404
 20
364.5754918753738
 30
0.0
 11
638.3144383521405
 21
364.5754918753738
 31
0.0
  0
LINE
  5
225D
330
A
100
AcDbEntity
  8
0
  6
Continuous
 62
     7
100
AcDbLine
 10
626.8144383521405
 20
364.5754918753738
 30
0.0
 11
626.8144383521405
 21
370.5754918753738
 31
0.0
  0
LINE
  5
225E
330
A
100
AcDbEntity
  8
0
  6
Continuous
 62
     7
100
AcDbLine
 10
626.8144383521405
 20
370.5754918753738
 30
0.0
 11
628.8144383521405
 21
370.5754918753738
 31
0.0
  0
LINE
  5
225F
330
A
100
AcDbEntity
  8
0
  6
Continuous
 62
     7
100
AcDbLine
 10
628.8144383521405
 20
370.5754918753738
 30
0.0
 11
628.8144383521405
 21
372.5754918753738
 31
0.0
  0
LINE
  5
2260
330
A
100
AcDbEntity
  8
0
  6
Continuous
 62
     7
100
AcDbLine
 10
628.8144383521405
 20
372.5754918753738
 30
0.0
 11
626.8144383521405
 21
372.5754918753738
 31
0.0
  0
LINE
  5
2261
330
A
100
AcDbEntity
  8
0
  6
Continuous
 62
     7
100
AcDbLine
 10
626.8144383521405
 20
372.5754918753738
 30
0.0
 11
626.8144383521405
 21
378.5754918753738
 31
0.0
  0
LINE
  5
2262
330
A
100
AcDbEntity
  8
0
  6
Continuous
 62
     7
100
AcDbLine
 10
633.8144383521405
 20
364.5754918753738
 30
0.0
 11
626.8144383521405
 21
364.5754918753738
 31
0.0
  0
LINE
  5
2263
330
A
100
AcDbEntity
  8
0
  6
Continuous
 62
     7
100
AcDbLine
 10
626.8144383521405
 20
378.5754918753738
 30
0.0
 11
629.8144383521405
 21
378.5754918753738
 31
0.0
  0
CIRCLE
  5
2264
330
A
100
AcDbEntity
  8
0
  6
Continuous
 62
     7
100
AcDbCircle
 10
744.0108082107554
 20
394.5754918753737
 30
0.0
 40
13.00000000000011
  0
CIRCLE
  5
2265
330
A
100
AcDbEntity
  8
0
  6
Continuous
 62
     7
100
AcDbCircle
 10
744.0108082107554
 20
411.5754918753737
 30
0.0
 40
2.25
  0
ARC
  5
2266
330
A
100
AcDbEntity
  8
DIM
  6
Continuous
100
AcDbCircle
 10
744.0108082107554
 20
377.5754918753738
 30
0.0
 40
2.0
100
AcDbArc
 50
90.0
 51
3.372286683434061
  0
CIRCLE
  5
2267
330
A
100
AcDbEntity
  8
0
  6
Continuous
 62
     7
100
AcDbCircle
 10
729.2883763464196
 20
386.0754918753737
 30
0.0
 40
2.249999999999937
  0
CIRCLE
  5
2268
330
A
100
AcDbEntity
  8
0
  6
Continuous
 62
     7
100
AcDbCircle
 10
758.7332400750908
 20
386.0754918753739
 30
0.0
 40
2.250000000000094
  0
CIRCLE
  5
2269
330
A
100
AcDbEntity
  8
0
  6
Continuous
 62
     7
100
AcDbCircle
 10
737.5051898605488
 20
410.2814439280657
 30
0.0
 40
1.499999999999885
  0
ARC
  5
226A
330
A
100
AcDbEntity
  8
0
  6
Continuous
 62
     7
100
AcDbCircle
 10
750.8991099933268
 20
377.9456602901706
 30
0.0
 40
1.500000000000011
100
AcDbArc
 50
202.5000000000027
 51
22.50000000000277
  0
LINE
  5
226B
330
A
100
AcDbEntity
  8
0
  6
Continuous
 62
     7
100
AcDbLine
 10
752.2849292920937
 20
378.5196854387184
 30
0.0
 11
751.5195624273637
 21
380.3674445037408
 31
0.0
  0
ARC
  5
226C
330
A
100
AcDbEntity
  8
0
  6
Continuous
 62
     7
100
AcDbCircle
 10
750.1337431285965
 20
379.7934193551933
 30
0.0
 40
1.500000000000116
100
AcDbArc
 50
22.50000000000878
 51
202.4999999999998
  0
LINE
  5
226D
330
A
100
AcDbEntity
  8
0
  6
Continuous
 62
     7
100
AcDbLine
 10
748.7479238298297
 20
379.2193942066456
 30
0.0
 11
749.51329069456
 21
377.3716351416231
 31
0.0
  0
ARC
  5
226E
330
A
100
AcDbEntity
  8
0
  6
Continuous
 62
     7
100
AcDbCircle
 10
727.302840368568
 20
392.8194136924773
 30
0.0
 40
2.000000000000024
100
AcDbArc
 50
234.5903778907241
 51
137.4096221092675
  0
LINE
  5
226F
330
A
100
AcDbEntity
  8
0
  6
Continuous
 62
     7
100
AcDbLine
 10
725.8304188693901
 20
394.1729183761627
 30
0.0
 11
724.1624819875619
 21
393.9976111457268
 31
0.0
  0
LINE
  5
2270
330
A
100
AcDbEntity
  8
0
  6
Continuous
 62
     7
100
AcDbLine
 10
724.1624819875619
 20
393.9976111457268
 30
0.0
 11
724.0579535242941
 21
394.9921330410951
 31
0.0
  0
LINE
  5
2271
330
A
100
AcDbEntity
  8
0
  6
Continuous
 62
     7
100
AcDbLine
 10
724.0579535242941
 20
394.9921330410951
 30
0.0
 11
723.0130496847662
 21
394.8823092221153
 31
0.0
  0
ARC
  5
2272
330
A
100
AcDbEntity
  8
0
  6
Continuous
 62
     7
100
AcDbCircle
 10
744.0108082107554
 20
394.5754918753737
 30
0.0
 40
21.00000000000008
100
AcDbArc
 50
240.8371411681343
 51
179.1628588318646
  0
LINE
  5
2273
330
A
100
AcDbEntity
  8
0
  6
Continuous
 62
     7
100
AcDbLine
 10
733.7776405643603
 20
376.2374908959654
 30
0.0
 11
734.3952027013017
 21
377.0874922560186
 31
0.0
  0
LINE
  5
2274
330
A
100
AcDbEntity
  8
0
  6
Continuous
 62
     7
100
AcDbLine
 10
734.3952027013017
 20
377.0874922560186
 30
0.0
 11
733.5861857069267
 21
377.6752775083111
 31
0.0
  0
LINE
  5
2275
330
A
100
AcDbEntity
  8
0
  6
Continuous
 62
     7
100
AcDbLine
 10
733.5861857069267
 20
377.6752775083111
 30
0.0
 11
734.5719746628653
 21
379.0320996046655
 31
0.0
  0
ARC
  5
2276
330
A
100
AcDbEntity
  8
0
  6
Continuous
 62
     7
100
AcDbCircle
 10
734.1360159722417
 20
380.9840063698747
 30
0.0
 40
2.000000000000047
100
AcDbArc
 50
282.5903778907258
 51
185.4096221092717
  0
LINE
  5
2277
330
A
100
AcDbEntity
  8
0
  6
Continuous
 62
     7
100
AcDbLine
 10
732.1449236797406
 20
380.7954553615429
 30
0.0
 11
731.1591347238017
 21
379.4386332651886
 31
0.0
  0
LINE
  5
2278
330
A
100
AcDbEntity
  8
0
  6
Continuous
 62
     7
100
AcDbLine
 10
731.1591347238017
 20
379.4386332651886
 30
0.0
 11
730.3501177294269
 21
380.0264185174811
 31
0.0
  0
LINE
  5
2279
330
A
100
AcDbEntity
  8
0
  6
Continuous
 62
     7
100
AcDbLine
 10
730.3501177294269
 20
380.0264185174811
 30
0.0
 11
729.7325555924857
 21
379.1764171574279
 31
0.0
  0
ARC
  5
227A
330
A
100
AcDbEntity
  8
0
  6
Continuous
 62
     7
100
AcDbCircle
 10
744.0108082107554
 20
394.5754918753737
 30
0.0
 40
21.00000000000005
100
AcDbArc
 50
192.8371411681363
 51
227.1628588318652
  0
LINE
  5
227B
330
A
100
AcDbEntity
  8
0
  6
Continuous
 62
     7
100
AcDbLine
 10
723.5356920011047
 20
389.909699745274
 30
0.0
 11
724.5805958406326
 21
390.0195235642538
 31
0.0
  0
LINE
  5
227C
330
A
100
AcDbEntity
  8
0
  6
Continuous
 62
     7
100
AcDbLine
 10
724.5805958406326
 20
390.0195235642538
 30
0.0
 11
724.4760673773648
 21
391.014045459622
 31
0.0
  0
LINE
  5
227D
330
A
100
AcDbEntity
  8
0
  6
Continuous
 62
     7
100
AcDbLine
 10
726.144004259193
 20
391.189352690058
 30
0.0
 11
724.4760673773648
 21
391.014045459622
 31
0.0
  0
LINE
  5
227E
330
A
100
AcDbEntity
  8
0
  6
Continuous
 62
     7
100
AcDbLine
 10
721.2142018815866
 20
396.7674635615267
 30
0.0
 11
718.3010252920321
 21
398.4493868497028
 31
0.0
  0
ARC
  5
227F
330
A
100
AcDbEntity
  8
0
  6
Continuous
 62
     7
100
AcDbCircle
 10
744.0108082107556
 20
394.5754918753737
 30
0.0
 40
26.00000000000001
100
AcDbArc
 50
128.5687454961725
 51
171.4312545038257
  0
LINE
  5
2280
330
A
100
AcDbEntity
  8
0
  6
Continuous
 62
     7
100
AcDbLine
 10
727.8010252920325
 20
414.903869521607
 30
0.0
 11
730.7142018815866
 21
413.2219462334309
 31
0.0
  0
ARC
  5
2281
330
A
100
AcDbEntity
  8
0
  6
Continuous
 62
     7
100
AcDbCircle
 10
732.2142018815866
 20
415.8200224447843
 30
0.0
 40
3.000000000000048
100
AcDbArc
 50
239.9999999999995
 51
299.042421457581
  0
ARC
  5
2282
330
A
100
AcDbEntity
  8
0
  6
Continuous
 62
     7
100
AcDbCircle
 10
744.0108082107556
 20
394.5754918753737
 30
0.0
 40
21.30000000000006
100
AcDbArc
 50
60.95757854241909
 51
119.0424214575809
  0
ARC
  5
2283
330
A
100
AcDbEntity
  8
0
  6
Continuous
 62
     7
100
AcDbCircle
 10
755.8074145399245
 20
415.8200224447843
 30
0.0
 40
3.000000000000048
100
AcDbArc
 50
240.9575785424191
 51
300.0000000000005
  0
LINE
  5
2284
330
A
100
AcDbEntity
  8
0
  6
Continuous
 62
     7
100
AcDbLine
 10
757.3074145399246
 20
413.2219462334309
 30
0.0
 11
760.2205911294786
 21
414.903869521607
 31
0.0
  0
LINE
  5
2285
330
A
100
AcDbEntity
  8
0
  6
Continuous
 62
     7
100
AcDbLine
 10
769.7205911294786
 20
398.4493868497028
 30
0.0
 11
766.8074145399241
 21
396.7674635615267
 31
0.0
  0
ARC
  5
2286
330
A
100
AcDbEntity
  8
0
  6
Continuous
 62
     7
100
AcDbCircle
 10
768.3074145399245
 20
394.1693873501733
 30
0.0
 40
3.000000000000106
100
AcDbArc
 50
120.0000000000005
 51
179.0424214574881
  0
ARC
  5
2287
330
A
100
AcDbEntity
  8
0
  6
Continuous
 62
     7
100
AcDbCircle
 10
744.0108082107556
 20
394.5754918753737
 30
0.0
 40
21.30000000000003
100
AcDbArc
 50
300.9575785424177
 51
359.0424214575858
  0
ARC
  5
2288
330
A
100
AcDbEntity
  8
0
  6
Continuous
 62
     7
100
AcDbCircle
 10
756.5108082107556
 20
373.7370658311641
 30
0.0
 40
3.000000000000051
100
AcDbArc
 50
120.9575785424176
 51
180.0
  0
LINE
  5
2289
330
A
100
AcDbEntity
  8
0
  6
Continuous
 62
     7
100
AcDbLine
 10
753.5108082107556
 20
373.7370658311641
 30
0.0
 11
753.5108082107556
 21
370.3732192548118
 31
0.0
  0
ARC
  5
228A
330
A
100
AcDbEntity
  8
0
  6
Continuous
 62
     7
100
AcDbCircle
 10
744.0108082107556
 20
394.5754918753737
 30
0.0
 40
26.00000000000007
100
AcDbArc
 50
248.5687454961779
 51
291.4312545038281
  0
LINE
  5
228B
330
A
100
AcDbEntity
  8
0
  6
Continuous
 62
     7
100
AcDbLine
 10
734.5108082107556
 20
370.3732192548118
 30
0.0
 11
734.5108082107556
 21
373.7370658311641
 31
0.0
  0
ARC
  5
228C
330
A
100
AcDbEntity
  8
0
  6
Continuous
 62
     7
100
AcDbCircle
 10
731.5108082107556
 20
373.7370658311641
 30
0.0
 40
3.000000000000138
100
AcDbArc
 50
0.0
 51
47.02722878773536
  0
ARC
  5
228D
330
A
100
AcDbEntity
  8
0
  6
Continuous
 62
     7
100
AcDbCircle
 10
719.7142018815866
 20
394.1693873501733
 30
0.0
 40
3.000000000000048
100
AcDbArc
 50
12.97277121226326
 51
59.99999999999946
  0
ARC
  5
228E
330
A
100
AcDbEntity
  8
0
  6
Continuous
 62
     7
100
AcDbCircle
 10
744.0108082107556
 20
394.5754918753737
 30
0.0
 40
26.00000000000008
100
AcDbArc
 50
8.568745496174281
 51
51.43125450382742
  0
LINE
  5
228F
330
A
100
AcDbEntity
  8
0
  6
Continuous
 62
     7
100
AcDbLine
 10
722.6376324576612
 20
394.8428512815547
 30
0.0
 11
723.0130496847666
 21
394.8823092221153
 31
0.0
  0
LINE
  5
2290
330
A
100
AcDbEntity
  8
0
  6
Continuous
 62
     7
100
AcDbLine
 10
733.7776405643608
 20
376.2374908959654
 30
0.0
 11
733.5557603719016
 21
375.9320990105542
 31
0.0
  0
ARC
  5
2291
330
A
100
AcDbEntity
  8
0
  6
Continuous
 62
     7
100
AcDbCircle
 10
744.0108082107556
 20
394.5754918753737
 30
0.0
 40
21.29999999999998
100
AcDbArc
 50
192.7403934474583
 51
227.2596065525399
  0
LINE
  5
2292
330
A
100
AcDbEntity
  8
0
  6
Continuous
 62
     7
100
AcDbLine
 10
723.5356920011049
 20
389.909699745274
 30
0.0
 11
723.2352289024547
 21
389.8781198010646
 31
0.0
  0
LINE
  5
2293
330
A
100
AcDbEntity
  8
0
  6
Continuous
 62
     7
100
AcDbLine
 10
729.5549750092255
 20
378.9319984532014
 30
0.0
 11
729.732555592486
 21
379.1764171574279
 31
0.0
  0
LINE
  5
2294
330
A
100
AcDbEntity
  8
0
  6
Continuous
 62
     7
100
AcDbLine
 10
716.2800460972225
 20
406.544402962128
 30
0.0
 11
719.7800460972221
 21
412.6065807886191
 31
0.0
  0
LINE
  5
2295
330
A
100
AcDbEntity
  8
0
  6
Continuous
 62
     7
100
AcDbLine
 10
719.9490960397902
 20
404.4260759901162
 30
0.0
 11
716.2800460972225
 21
406.544402962128
 31
0.0
  0
LINE
  5
2296
330
A
100
AcDbEntity
  8
0
  6
Continuous
 62
     7
100
AcDbLine
 10
723.4490960397902
 20
410.4882538166073
 30
0.0
 11
719.7800460972221
 21
412.6065807886191
 31
0.0
  0
LINE
  5
2297
330
A
100
AcDbEntity
  8
0
  6
Continuous
 62
     7
100
AcDbLine
 10
725.4591454301325
 20
412.7918528751465
 30
0.0
 11
721.280046097222
 21
415.2046569999725
 31
0.0
  0
LINE
  5
2298
330
A
100
AcDbEntity
  8
0
  6
Continuous
 62
     7
100
AcDbLine
 10
719.7800460972221
 20
412.6065807886191
 30
0.0
 11
721.280046097222
 21
415.2046569999725
 31
0.0
  0
LINE
  5
2299
330
A
100
AcDbEntity
  8
0
  6
Continuous
 62
     7
100
AcDbLine
 10
718.9591454301326
 20
401.5335226259487
 30
0.0
 11
714.7800460972221
 21
403.9463267507746
 31
0.0
  0
LINE
  5
229A
330
A
100
AcDbEntity
  8
0
  6
Continuous
 62
     7
100
AcDbLine
 10
714.7800460972221
 20
403.9463267507746
 30
0.0
 11
716.2800460972225
 21
406.544402962128
 31
0.0
  0
LINE
  5
229B
330
A
100
AcDbEntity
  8
0
  6
Continuous
 62
     7
100
AcDbLine
 10
768.2415703242886
 20
412.6065807886195
 30
0.0
 11
771.7415703242886
 21
406.5444029621283
 31
0.0
  0
LINE
  5
229C
330
A
100
AcDbEntity
  8
0
  6
Continuous
 62
     7
100
AcDbLine
 10
764.5725203817209
 20
410.4882538166078
 30
0.0
 11
768.2415703242886
 21
412.6065807886195
 31
0.0
  0
LINE
  5
229D
330
A
100
AcDbEntity
  8
0
  6
Continuous
 62
     7
100
AcDbLine
 10
768.072520381721
 20
404.4260759901166
 30
0.0
 11
771.7415703242886
 21
406.5444029621283
 31
0.0
  0
LINE
  5
229E
330
A
100
AcDbEntity
  8
0
  6
Continuous
 62
     7
100
AcDbLine
 10
769.0624709913786
 20
401.5335226259493
 30
0.0
 11
773.2415703242886
 21
403.9463267507751
 31
0.0
  0
LINE
  5
229F
330
A
100
AcDbEntity
  8
0
  6
Continuous
 62
     7
100
AcDbLine
 10
771.7415703242886
 20
406.5444029621283
 30
0.0
 11
773.2415703242886
 21
403.9463267507751
 31
0.0
  0
LINE
  5
22A0
330
A
100
AcDbEntity
  8
0
  6
Continuous
 62
     7
100
AcDbLine
 10
762.5624709913783
 20
412.7918528751467
 30
0.0
 11
766.7415703242887
 21
415.2046569999728
 31
0.0
  0
LINE
  5
22A1
330
A
100
AcDbEntity
  8
0
  6
Continuous
 62
     7
100
AcDbLine
 10
766.7415703242887
 20
415.2046569999728
 30
0.0
 11
768.2415703242886
 21
412.6065807886195
 31
0.0
  0
LINE
  5
22A2
330
A
100
AcDbEntity
  8
0
  6
Continuous
 62
     7
100
AcDbLine
 10
747.5108082107555
 20
364.5754918753738
 30
0.0
 11
740.5108082107556
 21
364.5754918753738
 31
0.0
  0
LINE
  5
22A3
330
A
100
AcDbEntity
  8
0
  6
Continuous
 62
     7
100
AcDbLine
 10
747.5108082107555
 20
368.8121458193972
 30
0.0
 11
747.5108082107555
 21
364.5754918753738
 31
0.0
  0
LINE
  5
22A4
330
A
100
AcDbEntity
  8
0
  6
Continuous
 62
     7
100
AcDbLine
 10
740.5108082107556
 20
368.8121458193973
 30
0.0
 11
740.5108082107556
 21
364.5754918753738
 31
0.0
  0
LINE
  5
22A5
330
A
100
AcDbEntity
  8
0
  6
Continuous
 62
     7
100
AcDbLine
 10
750.5108082107556
 20
369.4011001250256
 30
0.0
 11
750.5108082107556
 21
364.5754918753738
 31
0.0
  0
LINE
  5
22A6
330
A
100
AcDbEntity
  8
0
  6
Continuous
 62
     7
100
AcDbLine
 10
750.5108082107556
 20
364.5754918753738
 30
0.0
 11
747.5108082107558
 21
364.5754918753738
 31
0.0
  0
LINE
  5
22A7
330
A
100
AcDbEntity
  8
0
  6
Continuous
 62
     7
100
AcDbLine
 10
737.5108082107556
 20
369.4011001250256
 30
0.0
 11
737.5108082107556
 21
364.5754918753738
 31
0.0
  0
LINE
  5
22A8
330
A
100
AcDbEntity
  8
0
  6
Continuous
 62
     7
100
AcDbLine
 10
740.5108082107556
 20
364.5754918753738
 30
0.0
 11
737.5108082107556
 21
364.5754918753738
 31
0.0
  0
LINE
  5
22A9
330
A
100
AcDbEntity
  8
CENTER
100
AcDbLine
 10
533.387917525338
 20
394.8385744471316
 30
0.0
 11
594.384662588837
 21
394.8385744471316
 31
0.0
  0
LINE
  5
22AA
330
A
100
AcDbEntity
  8
CENTER
100
AcDbLine
 10
564.3232933268615
 20
359.1323738956298
 30
0.0
 11
564.3232933268613
 21
421.0879344400172
 31
0.0
  0
CIRCLE
  5
22AB
330
A
100
AcDbEntity
  8
CENTER
100
AcDbCircle
 10
564.3232933268616
 20
394.8385744471316
 30
0.0
 40
16.99999999999994
  0
CIRCLE
  5
22AC
330
A
100
AcDbEntity
  8
0
100
AcDbCircle
 10
564.3232933268616
 20
375.8385744471316
 30
0.0
 40
1.25
  0
CIRCLE
  5
22AD
330
A
100
AcDbEntity
  8
0
100
AcDbCircle
 10
564.3232933268616
 20
367.8385744471317
 30
0.0
 40
1.25
  0
LINE
  5
22AE
330
A
100
AcDbEntity
  8
CENTER
100
AcDbLine
 10
564.2332933268614
 20
375.8385744471316
 30
0.0
 11
564.4132933268615
 21
375.8385744471316
 31
0.0
  0
LINE
  5
22AF
330
A
100
AcDbEntity
  8
CENTER
100
AcDbLine
 10
564.3232933268616
 20
375.7485744471317
 30
0.0
 11
564.3232933268616
 21
375.9285744471317
 31
0.0
  0
LINE
  5
22B0
330
A
100
AcDbEntity
  8
CENTER
100
AcDbLine
 10
564.2332933268614
 20
367.8385744471317
 30
0.0
 11
564.4132933268615
 21
367.8385744471317
 31
0.0
  0
LINE
  5
22B1
330
A
100
AcDbEntity
  8
CENTER
100
AcDbLine
 10
564.3232933268616
 20
367.7485744471316
 30
0.0
 11
564.3232933268616
 21
367.9285744471317
 31
0.0
  0
ARC
  5
22B2
330
A
100
AcDbEntity
  8
DIM
  6
Continuous
100
AcDbCircle
 10
587.7059792290415
 20
408.3385744471316
 30
0.0
 40
1.5
100
AcDbArc
 50
210.0000000000005
 51
120.0000000000005
  0
CIRCLE
  5
22B3
330
A
100
AcDbEntity
  8
0
100
AcDbCircle
 10
587.7059792290415
 20
408.3385744471316
 30
0.0
 40
1.25
  0
ARC
  5
22B4
330
A
100
AcDbEntity
  8
DIM
  6
Continuous
100
AcDbCircle
 10
580.7777759987661
 20
404.3385744471316
 30
0.0
 40
1.5
100
AcDbArc
 50
210.0000000000005
 51
120.0000000000005
  0
LINE
  5
22B5
330
A
100
AcDbEntity
  8
CENTER
100
AcDbLine
 10
587.7839215153819
 20
408.3835744471316
 30
0.0
 11
587.6280369427011
 21
408.2935744471316
 31
0.0
  0
LINE
  5
22B6
330
A
100
AcDbEntity
  8
CENTER
100
AcDbLine
 10
587.7509792290413
 20
408.260632160791
 30
0.0
 11
587.6609792290412
 21
408.4165167334722
 31
0.0
  0
LINE
  5
22B7
330
A
100
AcDbEntity
  8
CENTER
100
AcDbLine
 10
580.8557182851066
 20
404.3835744471316
 30
0.0
 11
580.6998337124253
 21
404.2935744471316
 31
0.0
  0
LINE
  5
22B8
330
A
100
AcDbEntity
  8
CENTER
100
AcDbLine
 10
580.8227759987659
 20
404.260632160791
 30
0.0
 11
580.7327759987661
 21
404.4165167334722
 31
0.0
  0
CIRCLE
  5
22B9
330
A
100
AcDbEntity
  8
0
100
AcDbCircle
 10
580.7777759987661
 20
404.3385744471316
 30
0.0
 40
1.25
  0
ARC
  5
22BA
330
A
100
AcDbEntity
  8
DIM
  6
Continuous
100
AcDbCircle
 10
540.9406074246817
 20
408.3385744471315
 30
0.0
 40
1.5
100
AcDbArc
 50
329.9999999999995
 51
239.9999999999995
  0
CIRCLE
  5
22BB
330
A
100
AcDbEntity
  8
0
100
AcDbCircle
 10
540.9406074246817
 20
408.3385744471315
 30
0.0
 40
1.25
  0
ARC
  5
22BC
330
A
100
AcDbEntity
  8
DIM
  6
Continuous
100
AcDbCircle
 10
547.8688106549571
 20
404.3385744471315
 30
0.0
 40
1.5
100
AcDbArc
 50
329.9999999999995
 51
239.9999999999995
  0
LINE
  5
22BD
330
A
100
AcDbEntity
  8
CENTER
100
AcDbLine
 10
540.8626651383412
 20
408.3835744471316
 30
0.0
 11
541.0185497110224
 21
408.2935744471316
 31
0.0
  0
LINE
  5
22BE
330
A
100
AcDbEntity
  8
CENTER
100
AcDbLine
 10
540.9856074246818
 20
408.4165167334722
 30
0.0
 11
540.8956074246819
 21
408.2606321607911
 31
0.0
  0
LINE
  5
22BF
330
A
100
AcDbEntity
  8
CENTER
100
AcDbLine
 10
547.7908683686166
 20
404.3835744471316
 30
0.0
 11
547.9467529412978
 21
404.2935744471316
 31
0.0
  0
LINE
  5
22C0
330
A
100
AcDbEntity
  8
CENTER
100
AcDbLine
 10
547.9138106549571
 20
404.4165167334722
 30
0.0
 11
547.8238106549573
 21
404.260632160791
 31
0.0
  0
CIRCLE
  5
22C1
330
A
100
AcDbEntity
  8
0
100
AcDbCircle
 10
547.8688106549571
 20
404.3385744471315
 30
0.0
 40
1.25
  0
LINE
  5
22C2
330
A
100
AcDbEntity
  8
CENTER
100
AcDbLine
 10
622.473483773249
 20
394.5754918753737
 30
0.0
 11
679.8977344368279
 21
394.5754918753737
 31
0.0
  0
LINE
  5
22C3
330
A
100
AcDbEntity
  8
CENTER
100
AcDbLine
 10
715.3951974999134
 20
394.5754918753737
 30
0.0
 11
769.5246940302297
 21
394.5754918753737
 31
0.0
  0
LINE
  5
22C4
330
A
100
AcDbEntity
  8
CENTER
100
AcDbLine
 10
744.0108082107551
 20
360.981993064334
 30
0.0
 11
744.0108082107556
 21
418.4543204013912
 31
0.0
  0
CIRCLE
  5
22C5
330
A
100
AcDbEntity
  8
CENTER
100
AcDbCircle
 10
744.0108082107554
 20
394.5754918753737
 30
0.0
 40
16.99999999999994
  0
LINE
  5
22C6
330
A
100
AcDbEntity
  8
CENTER
100
AcDbLine
 10
622.473483773249
 20
474.6066350828437
 30
0.0
 11
679.8977344368279
 21
474.6066350828437
 31
0.0
  0
CIRCLE
  5
22C7
330
A
100
AcDbEntity
  8
0
100
AcDbCircle
 10
744.0108082107554
 20
377.5754918753738
 30
0.0
 40
1.649999999999999
  0
ARC
  5
22C8
330
A
100
AcDbEntity
  8
DIM
  6
Continuous
100
AcDbCircle
 10
758.7332400750908
 20
403.0754918753739
 30
0.0
 40
2.0
100
AcDbArc
 50
210.0000000000005
 51
123.372286683435
  0
CIRCLE
  5
22C9
330
A
100
AcDbEntity
  8
0
100
AcDbCircle
 10
758.7332400750908
 20
403.0754918753739
 30
0.0
 40
1.649999999999999
  0
ARC
  5
22CA
330
A
100
AcDbEntity
  8
DIM
  6
Continuous
100
AcDbCircle
 10
729.2883763464196
 20
403.0754918753737
 30
0.0
 40
2.0
100
AcDbArc
 50
329.9999999999995
 51
243.3722866834335
  0
CIRCLE
  5
22CB
330
A
100
AcDbEntity
  8
0
100
AcDbCircle
 10
729.2883763464199
 20
403.0754918753736
 30
0.0
 40
1.649999999999999
  0
POLYLINE
  5
22CC
330
A
100
AcDbEntity
  8
0
  6
Continuous
 62
     7
370
    15
100
AcDb2dPolyline
 66
     1
 10
0.0
 20
0.0
 30
0.0
 70
   128
  0
VERTEX
  5
22CD
330
22CC
100
AcDbEntity
  8
0
100
AcDbVertex
100
AcDb2dVertex
 10
657.3040022623233
 20
467.4972462090097
 30
0.0
  0
VERTEX
  5
22CE
330
22CC
100
AcDbEntity
  8
0
100
AcDbVertex
100
AcDb2dVertex
 10
657.3027821980933
 20
467.4800204167467
 30
0.0
  0
VERTEX
  5
22CF
330
22CC
100
AcDbEntity
  8
0
100
AcDbVertex
100
AcDb2dVertex
 10
657.2098587905522
 20
466.8447243074632
 30
0.0
  0
VERTEX
  5
22D0
330
22CC
100
AcDbEntity
  8
0
100
AcDbVertex
100
AcDb2dVertex
 10
657.0257429627347
 20
466.22723537602
 30
0.0
  0
VERTEX
  5
22D1
330
22CC
100
AcDbEntity
  8
0
100
AcDbVertex
100
AcDb2dVertex
 10
656.7538644441524
 20
465.6390562728758
 30
0.0
  0
VERTEX
  5
22D2
330
22CC
100
AcDbEntity
  8
0
100
AcDbVertex
100
AcDb2dVertex
 10
656.3992878171927
 20
465.0911436618447
 30
0.0
  0
VERTEX
  5
22D3
330
22CC
100
AcDbEntity
  8
0
100
AcDbVertex
100
AcDb2dVertex
 10
655.9686181735312
 20
464.5937041181796
 30
0.0
  0
VERTEX
  5
22D4
330
22CC
100
AcDbEntity
  8
0
100
AcDbVertex
100
AcDb2dVertex
 10
655.4698780737708
 20
464.1560039993873
 30
0.0
  0
VERTEX
  5
22D5
330
22CC
100
AcDbEntity
  8
0
100
AcDbVertex
100
AcDb2dVertex
 10
654.9123581023175
 20
463.7861968305204
 30
0.0
  0
VERTEX
  5
22D6
330
22CC
100
AcDbEntity
  8
0
100
AcDbVertex
100
AcDb2dVertex
 10
654.3064438013718
 20
463.491171419433
 30
0.0
  0
VERTEX
  5
22D7
330
22CC
100
AcDbEntity
  8
0
100
AcDbVertex
100
AcDb2dVertex
 10
653.6634222079258
 20
463.276423531324
 30
0.0
  0
VERTEX
  5
22D8
330
22CC
100
AcDbEntity
  8
0
100
AcDbVertex
100
AcDb2dVertex
 10
652.9952715976216
 20
463.1459535130303
 30
0.0
  0
VERTEX
  5
22D9
330
22CC
100
AcDbEntity
  8
0
100
AcDbVertex
100
AcDb2dVertex
 10
652.3144383521405
 20
463.1021917741342
 30
0.0
  0
VERTEX
  5
22DA
330
22CC
100
AcDbEntity
  8
0
100
AcDbVertex
100
AcDb2dVertex
 10
651.6336051066594
 20
463.1459535130304
 30
0.0
  0
VERTEX
  5
22DB
330
22CC
100
AcDbEntity
  8
0
100
AcDbVertex
100
AcDb2dVertex
 10
650.9654544963552
 20
463.276423531324
 30
0.0
  0
VERTEX
  5
22DC
330
22CC
100
AcDbEntity
  8
0
100
AcDbVertex
100
AcDb2dVertex
 10
650.3224329029092
 20
463.4911714194331
 30
0.0
  0
VERTEX
  5
22DD
330
22CC
100
AcDbEntity
  8
0
100
AcDbVertex
100
AcDb2dVertex
 10
649.7165186019633
 20
463.7861968305205
 30
0.0
  0
VERTEX
  5
22DE
330
22CC
100
AcDbEntity
  8
0
100
AcDbVertex
100
AcDb2dVertex
 10
649.1589986305102
 20
464.1560039993875
 30
0.0
  0
VERTEX
  5
22DF
330
22CC
100
AcDbEntity
  8
0
100
AcDbVertex
100
AcDb2dVertex
 10
648.6602585307498
 20
464.5937041181797
 30
0.0
  0
VERTEX
  5
22E0
330
22CC
100
AcDbEntity
  8
0
100
AcDbVertex
100
AcDb2dVertex
 10
648.2295888870883
 20
465.0911436618448
 30
0.0
  0
VERTEX
  5
22E1
330
22CC
100
AcDbEntity
  8
0
100
AcDbVertex
100
AcDb2dVertex
 10
647.8750122601288
 20
465.639056272876
 30
0.0
  0
VERTEX
  5
22E2
330
22CC
100
AcDbEntity
  8
0
100
AcDbVertex
100
AcDb2dVertex
 10
647.6031337415463
 20
466.22723537602
 30
0.0
  0
VERTEX
  5
22E3
330
22CC
100
AcDbEntity
  8
0
100
AcDbVertex
100
AcDb2dVertex
 10
647.4190179137288
 20
466.8447243074632
 30
0.0
  0
VERTEX
  5
22E4
330
22CC
100
AcDbEntity
  8
0
100
AcDbVertex
100
AcDb2dVertex
 10
647.3260945061877
 20
467.4800204167467
 30
0.0
  0
VERTEX
  5
22E5
330
22CC
100
AcDbEntity
  8
0
100
AcDbVertex
100
AcDb2dVertex
 10
647.3144383521405
 20
467.8006548780636
 30
0.0
  0
SEQEND
  5
22E6
330
22CC
100
AcDbEntity
  8
0
  0
LINE
  5
22E7
330
A
100
AcDbEntity
  8
0
  6
Continuous
 62
     7
370
    15
100
AcDbLine
 10
644.3144383521405
 20
464.2652791684187
 30
0.0
 11
644.3144383521405
 21
484.9457495232578
 31
0.0
  0
LINE
  5
22E8
330
A
100
AcDbEntity
  8
0
  6
Continuous
 62
     7
370
    15
100
AcDbLine
 10
629.8144383521405
 20
464.2652791684188
 30
0.0
 11
629.8144383521405
 21
470.6055143458383
 31
0.0
  0
POLYLINE
  5
22E9
330
A
100
AcDbEntity
  8
0
  6
Continuous
 62
     7
370
    15
100
AcDb2dPolyline
 66
     1
 10
0.0
 20
0.0
 30
0.0
 70
   128
  0
VERTEX
  5
22EA
330
22E9
100
AcDbEntity
  8
0
100
AcDbVertex
100
AcDb2dVertex
 10
652.3144383521405
 20
472.3281079103303
 30
0.0
  0
VERTEX
  5
22EB
330
22E9
100
AcDbEntity
  8
0
100
AcDbVertex
100
AcDb2dVertex
 10
651.4885124821323
 20
472.2572761827689
 30
0.0
  0
VERTEX
  5
22EC
330
22E9
100
AcDbEntity
  8
0
100
AcDbVertex
100
AcDb2dVertex
 10
650.6862016607755
 20
472.0498076320971
 30
0.0
  0
VERTEX
  5
22ED
330
22E9
100
AcDbEntity
  8
0
100
AcDbVertex
100
AcDb2dVertex
 10
649.9312256675414
 20
471.7120651143014
 30
0.0
  0
VERTEX
  5
22EE
330
22E9
100
AcDbEntity
  8
0
100
AcDbVertex
100
AcDb2dVertex
 10
649.241997976268
 20
471.2576806418946
 30
0.0
  0
VERTEX
  5
22EF
330
22E9
100
AcDbEntity
  8
0
100
AcDbVertex
100
AcDb2dVertex
 10
648.6271747353119
 20
470.6892627525043
 30
0.0
  0
VERTEX
  5
22F0
330
22E9
100
AcDbEntity
  8
0
100
AcDbVertex
100
AcDb2dVertex
 10
648.1148885749287
 20
470.0332865566382
 30
0.0
  0
VERTEX
  5
22F1
330
22E9
100
AcDbEntity
  8
0
100
AcDbVertex
100
AcDb2dVertex
 10
647.7164927724752
 20
469.2992789888998
 30
0.0
  0
VERTEX
  5
22F2
330
22E9
100
AcDbEntity
  8
0
100
AcDbVertex
100
AcDb2dVertex
 10
647.4495169593949
 20
468.5186915227901
 30
0.0
  0
VERTEX
  5
22F3
330
22E9
100
AcDbEntity
  8
0
100
AcDbVertex
100
AcDb2dVertex
 10
647.3256296529955
 20
467.7304744735619
 30
0.0
  0
VERTEX
  5
22F4
330
22E9
100
AcDbEntity
  8
0
100
AcDbVertex
100
AcDb2dVertex
 10
647.340690719704
 20
466.9443853497125
 30
0.0
  0
VERTEX
  5
22F5
330
22E9
100
AcDbEntity
  8
0
100
AcDbVertex
100
AcDb2dVertex
 10
647.4917504970062
 20
466.1988808229901
 30
0.0
  0
VERTEX
  5
22F6
330
22E9
100
AcDbEntity
  8
0
100
AcDbVertex
100
AcDb2dVertex
 10
647.7710607426092
 20
465.4970431453151
 30
0.0
  0
VERTEX
  5
22F7
330
22E9
100
AcDbEntity
  8
0
100
AcDbVertex
100
AcDb2dVertex
 10
648.1758168617359
 20
464.8517420276407
 30
0.0
  0
VERTEX
  5
22F8
330
22E9
100
AcDbEntity
  8
0
100
AcDbVertex
100
AcDb2dVertex
 10
648.6913234698093
 20
464.2825123884271
 30
0.0
  0
VERTEX
  5
22F9
330
22E9
100
AcDbEntity
  8
0
100
AcDbVertex
100
AcDb2dVertex
 10
649.3216066455063
 20
463.7916505891963
 30
0.0
  0
VERTEX
  5
22FA
330
22E9
100
AcDbEntity
  8
0
100
AcDbVertex
100
AcDb2dVertex
 10
650.0371836488382
 20
463.4034406920051
 30
0.0
  0
VERTEX
  5
22FB
330
22E9
100
AcDbEntity
  8
0
100
AcDbVertex
100
AcDb2dVertex
 10
650.8231639265004
 20
463.1268660433489
 30
0.0
  0
VERTEX
  5
22FC
330
22E9
100
AcDbEntity
  8
0
100
AcDbVertex
100
AcDb2dVertex
 10
651.6536024615652
 20
462.9687386870195
 30
0.0
  0
VERTEX
  5
22FD
330
22E9
100
AcDbEntity
  8
0
100
AcDbVertex
100
AcDb2dVertex
 10
652.4837900215714
 20
462.9340506884625
 30
0.0
  0
VERTEX
  5
22FE
330
22E9
100
AcDbEntity
  8
0
100
AcDbVertex
100
AcDb2dVertex
 10
653.30908352565
 20
463.0167956894585
 30
0.0
  0
VERTEX
  5
22FF
330
22E9
100
AcDbEntity
  8
0
100
AcDbVertex
100
AcDb2dVertex
 10
654.0940434004799
 20
463.2127504431484
 30
0.0
  0
VERTEX
  5
2300
330
22E9
100
AcDbEntity
  8
0
100
AcDbVertex
100
AcDb2dVertex
 10
654.830221891724
 20
463.5163892747153
 30
0.0
  0
VERTEX
  5
2301
330
22E9
100
AcDbEntity
  8
0
100
AcDbVertex
100
AcDb2dVertex
 10
655.5090930446856
 20
463.9307402192425
 30
0.0
  0
VERTEX
  5
2302
330
22E9
100
AcDbEntity
  8
0
100
AcDbVertex
100
AcDb2dVertex
 10
656.1003569365091
 20
464.4414411820963
 30
0.0
  0
VERTEX
  5
2303
330
22E9
100
AcDbEntity
  8
0
100
AcDbVertex
100
AcDb2dVertex
 10
656.5971007344667
 20
465.0535943293784
 30
0.0
  0
VERTEX
  5
2304
330
22E9
100
AcDbEntity
  8
0
100
AcDbVertex
100
AcDb2dVertex
 10
656.9722409913463
 20
465.7417579322059
 30
0.0
  0
VERTEX
  5
2305
330
22E9
100
AcDbEntity
  8
0
100
AcDbVertex
100
AcDb2dVertex
 10
657.2113187209631
 20
466.4847073028398
 30
0.0
  0
VERTEX
  5
2306
330
22E9
100
AcDbEntity
  8
0
100
AcDbVertex
100
AcDb2dVertex
 10
657.3116434486676
 20
467.2662433479054
 30
0.0
  0
VERTEX
  5
2307
330
22E9
100
AcDbEntity
  8
0
100
AcDbVertex
100
AcDb2dVertex
 10
657.2705019468457
 20
468.0445659475268
 30
0.0
  0
VERTEX
  5
2308
330
22E9
100
AcDbEntity
  8
0
100
AcDbVertex
100
AcDb2dVertex
 10
657.0954392131855
 20
468.8158597282981
 30
0.0
  0
VERTEX
  5
2309
330
22E9
100
AcDbEntity
  8
0
100
AcDbVertex
100
AcDb2dVertex
 10
656.7918019138585
 20
469.5539808518062
 30
0.0
  0
VERTEX
  5
230A
330
22E9
100
AcDbEntity
  8
0
100
AcDbVertex
100
AcDb2dVertex
 10
656.3697034457488
 20
470.2415697369601
 30
0.0
  0
VERTEX
  5
230B
330
22E9
100
AcDbEntity
  8
0
100
AcDbVertex
100
AcDb2dVertex
 10
655.8263739436681
 20
470.8707282244083
 30
0.0
  0
VERTEX
  5
230C
330
22E9
100
AcDbEntity
  8
0
100
AcDbVertex
100
AcDb2dVertex
 10
655.1858104799646
 20
471.4073132288336
 30
0.0
  0
VERTEX
  5
230D
330
22E9
100
AcDbEntity
  8
0
100
AcDbVertex
100
AcDb2dVertex
 10
654.4512246145286
 20
471.8386677015306
 30
0.0
  0
VERTEX
  5
230E
330
22E9
100
AcDbEntity
  8
0
100
AcDbVertex
100
AcDb2dVertex
 10
653.6535950309505
 20
472.141433367448
 30
0.0
  0
VERTEX
  5
230F
330
22E9
100
AcDbEntity
  8
0
100
AcDbVertex
100
AcDb2dVertex
 10
652.9905156965075
 20
472.2808705225103
 30
0.0
  0
VERTEX
  5
2310
330
22E9
100
AcDbEntity
  8
0
100
AcDbVertex
100
AcDb2dVertex
 10
652.3144383521405
 20
472.3281079103303
 30
0.0
  0
SEQEND
  5
2311
330
22E9
100
AcDbEntity
  8
0
  0
LINE
  5
2312
330
A
100
AcDbEntity
  8
0
  6
Continuous
 62
     7
370
    15
100
AcDbLine
 10
675.8144383521405
 20
453.6077558198493
 30
0.0
 11
675.8144383521408
 21
495.6055143458383
 31
0.0
  0
LINE
  5
2313
330
A
100
AcDbEntity
  8
0
  6
Continuous
 62
     7
370
    15
100
AcDbLine
 10
641.6144383521407
 20
498.8362764593713
 30
0.0
 11
641.6144383521407
 21
502.3362764593714
 31
0.0
  0
LINE
  5
2314
330
A
100
AcDbEntity
  8
0
  6
Continuous
 62
     7
370
    15
100
AcDbLine
 10
626.8144383521407
 20
499.0862764593714
 30
0.0
 11
626.8144383521407
 21
502.0862764593715
 31
0.0
  0
LINE
  5
2315
330
A
100
AcDbEntity
  8
0
  6
Continuous
 62
     7
370
    15
100
AcDbLine
 10
638.3144383521408
 20
503.8362764593714
 30
0.0
 11
633.8144383521408
 21
503.8362764593714
 31
0.0
  0
LINE
  5
2316
330
A
100
AcDbEntity
  8
0
  6
Continuous
 62
     7
370
    15
100
AcDbLine
 10
633.8144383521408
 20
502.0862764593714
 30
0.0
 11
633.8144383521408
 21
503.8362764593714
 31
0.0
  0
LINE
  5
2317
330
A
100
AcDbEntity
  8
0
  6
Continuous
 62
     7
370
    15
100
AcDbLine
 10
633.8144383521408
 20
502.0862764593714
 30
0.0
 11
626.8144383521407
 21
502.0862764593715
 31
0.0
  0
LINE
  5
2318
330
A
100
AcDbEntity
  8
0
  6
Continuous
 62
     7
370
    15
100
AcDbLine
 10
638.3144383521405
 20
502.3362764593714
 30
0.0
 11
638.3144383521408
 21
503.8362764593714
 31
0.0
  0
LINE
  5
2319
330
A
100
AcDbEntity
  8
0
  6
Continuous
 62
     7
370
    15
100
AcDbLine
 10
641.6144383521407
 20
502.3362764593714
 30
0.0
 11
638.3144383521405
 21
502.3362764593714
 31
0.0
  0
POLYLINE
  5
231A
330
A
100
AcDbEntity
  8
0
  6
Continuous
 62
     7
370
    15
100
AcDb2dPolyline
 66
     1
 10
0.0
 20
0.0
 30
0.0
 70
   128
  0
VERTEX
  5
231B
330
231A
100
AcDbEntity
  8
0
100
AcDbVertex
100
AcDb2dVertex
 10
668.8144383521405
 20
476.882920781346
 30
0.0
  0
VERTEX
  5
231C
330
231A
100
AcDbEntity
  8
0
100
AcDbVertex
100
AcDb2dVertex
 10
667.9885124821323
 20
476.9537525089075
 30
0.0
  0
VERTEX
  5
231D
330
231A
100
AcDbEntity
  8
0
100
AcDbVertex
100
AcDb2dVertex
 10
667.1862016607758
 20
477.1612210595793
 30
0.0
  0
VERTEX
  5
231E
330
231A
100
AcDbEntity
  8
0
100
AcDbVertex
100
AcDb2dVertex
 10
666.4312256675414
 20
477.498963577375
 30
0.0
  0
VERTEX
  5
231F
330
231A
100
AcDbEntity
  8
0
100
AcDbVertex
100
AcDb2dVertex
 10
665.7419979762683
 20
477.9533480497819
 30
0.0
  0
VERTEX
  5
2320
330
231A
100
AcDbEntity
  8
0
100
AcDbVertex
100
AcDb2dVertex
 10
665.1271747353119
 20
478.521765939172
 30
0.0
  0
VERTEX
  5
2321
330
231A
100
AcDbEntity
  8
0
100
AcDbVertex
100
AcDb2dVertex
 10
664.6148885749287
 20
479.1777421350383
 30
0.0
  0
VERTEX
  5
2322
330
231A
100
AcDbEntity
  8
0
100
AcDbVertex
100
AcDb2dVertex
 10
664.2164927724752
 20
479.9117497027768
 30
0.0
  0
VERTEX
  5
2323
330
231A
100
AcDbEntity
  8
0
100
AcDbVertex
100
AcDb2dVertex
 10
663.9495169593951
 20
480.6923371688863
 30
0.0
  0
VERTEX
  5
2324
330
231A
100
AcDbEntity
  8
0
100
AcDbVertex
100
AcDb2dVertex
 10
663.8256296529955
 20
481.4805542181146
 30
0.0
  0
VERTEX
  5
2325
330
231A
100
AcDbEntity
  8
0
100
AcDbVertex
100
AcDb2dVertex
 10
663.840690719704
 20
482.2666433419639
 30
0.0
  0
VERTEX
  5
2326
330
231A
100
AcDbEntity
  8
0
100
AcDbVertex
100
AcDb2dVertex
 10
663.9917504970064
 20
483.0121478686861
 30
0.0
  0
VERTEX
  5
2327
330
231A
100
AcDbEntity
  8
0
100
AcDbVertex
100
AcDb2dVertex
 10
664.2710607426095
 20
483.7139855463614
 30
0.0
  0
VERTEX
  5
2328
330
231A
100
AcDbEntity
  8
0
100
AcDbVertex
100
AcDb2dVertex
 10
664.6758168617359
 20
484.3592866640356
 30
0.0
  0
VERTEX
  5
2329
330
231A
100
AcDbEntity
  8
0
100
AcDbVertex
100
AcDb2dVertex
 10
665.1913234698092
 20
484.9285163032495
 30
0.0
  0
VERTEX
  5
232A
330
231A
100
AcDbEntity
  8
0
100
AcDbVertex
100
AcDb2dVertex
 10
665.8216066455063
 20
485.41937810248
 30
0.0
  0
VERTEX
  5
232B
330
231A
100
AcDbEntity
  8
0
100
AcDbVertex
100
AcDb2dVertex
 10
666.5371836488382
 20
485.8075879996713
 30
0.0
  0
VERTEX
  5
232C
330
231A
100
AcDbEntity
  8
0
100
AcDbVertex
100
AcDb2dVertex
 10
667.3231639265006
 20
486.0841626483276
 30
0.0
  0
VERTEX
  5
232D
330
231A
100
AcDbEntity
  8
0
100
AcDbVertex
100
AcDb2dVertex
 10
668.1536024615654
 20
486.2422900046571
 30
0.0
  0
VERTEX
  5
232E
330
231A
100
AcDbEntity
  8
0
100
AcDbVertex
100
AcDb2dVertex
 10
668.9837900215716
 20
486.2769780032139
 30
0.0
  0
VERTEX
  5
232F
330
231A
100
AcDbEntity
  8
0
100
AcDbVertex
100
AcDb2dVertex
 10
669.80908352565
 20
486.194233002218
 30
0.0
  0
VERTEX
  5
2330
330
231A
100
AcDbEntity
  8
0
100
AcDbVertex
100
AcDb2dVertex
 10
670.5940434004799
 20
485.9982782485279
 30
0.0
  0
VERTEX
  5
2331
330
231A
100
AcDbEntity
  8
0
100
AcDbVertex
100
AcDb2dVertex
 10
671.330221891724
 20
485.6946394169612
 30
0.0
  0
VERTEX
  5
2332
330
231A
100
AcDbEntity
  8
0
100
AcDbVertex
100
AcDb2dVertex
 10
672.0090930446859
 20
485.2802884724338
 30
0.0
  0
VERTEX
  5
2333
330
231A
100
AcDbEntity
  8
0
100
AcDbVertex
100
AcDb2dVertex
 10
672.6003569365091
 20
484.7695875095801
 30
0.0
  0
VERTEX
  5
2334
330
231A
100
AcDbEntity
  8
0
100
AcDbVertex
100
AcDb2dVertex
 10
673.0971007344667
 20
484.1574343622979
 30
0.0
  0
VERTEX
  5
2335
330
231A
100
AcDbEntity
  8
0
100
AcDbVertex
100
AcDb2dVertex
 10
673.4722409913463
 20
483.4692707594705
 30
0.0
  0
VERTEX
  5
2336
330
231A
100
AcDbEntity
  8
0
100
AcDbVertex
100
AcDb2dVertex
 10
673.7113187209634
 20
482.7263213888366
 30
0.0
  0
VERTEX
  5
2337
330
231A
100
AcDbEntity
  8
0
100
AcDbVertex
100
AcDb2dVertex
 10
673.8116434486676
 20
481.944785343771
 30
0.0
  0
VERTEX
  5
2338
330
231A
100
AcDbEntity
  8
0
100
AcDbVertex
100
AcDb2dVertex
 10
673.770501946846
 20
481.1664627441497
 30
0.0
  0
VERTEX
  5
2339
330
231A
100
AcDbEntity
  8
0
100
AcDbVertex
100
AcDb2dVertex
 10
673.5954392131855
 20
480.3951689633783
 30
0.0
  0
VERTEX
  5
233A
330
231A
100
AcDbEntity
  8
0
100
AcDbVertex
100
AcDb2dVertex
 10
673.2918019138585
 20
479.6570478398701
 30
0.0
  0
VERTEX
  5
233B
330
231A
100
AcDbEntity
  8
0
100
AcDbVertex
100
AcDb2dVertex
 10
672.8697034457491
 20
478.9694589547162
 30
0.0
  0
VERTEX
  5
233C
330
231A
100
AcDbEntity
  8
0
100
AcDbVertex
100
AcDb2dVertex
 10
672.3263739436681
 20
478.340300467268
 30
0.0
  0
VERTEX
  5
233D
330
231A
100
AcDbEntity
  8
0
100
AcDbVertex
100
AcDb2dVertex
 10
671.6858104799646
 20
477.8037154628428
 30
0.0
  0
VERTEX
  5
233E
330
231A
100
AcDbEntity
  8
0
100
AcDbVertex
100
AcDb2dVertex
 10
670.9512246145289
 20
477.3723609901459
 30
0.0
  0
VERTEX
  5
233F
330
231A
100
AcDbEntity
  8
0
100
AcDbVertex
100
AcDb2dVertex
 10
670.1535950309505
 20
477.0695953242285
 30
0.0
  0
VERTEX
  5
2340
330
231A
100
AcDbEntity
  8
0
100
AcDbVertex
100
AcDb2dVertex
 10
669.4905156965075
 20
476.9301581691662
 30
0.0
  0
VERTEX
  5
2341
330
231A
100
AcDbEntity
  8
0
100
AcDbVertex
100
AcDb2dVertex
 10
668.8144383521405
 20
476.882920781346
 30
0.0
  0
SEQEND
  5
2342
330
231A
100
AcDbEntity
  8
0
  0
POLYLINE
  5
2343
330
A
100
AcDbEntity
  8
0
  6
Continuous
 62
     7
370
    15
100
AcDb2dPolyline
 66
     1
 10
0.0
 20
0.0
 30
0.0
 70
   128
  0
VERTEX
  5
2344
330
2343
100
AcDbEntity
  8
0
100
AcDbVertex
100
AcDb2dVertex
 10
673.8040022623233
 20
481.7137824826667
 30
0.0
  0
VERTEX
  5
2345
330
2343
100
AcDbEntity
  8
0
100
AcDbVertex
100
AcDb2dVertex
 10
673.8027821980933
 20
481.7310082749298
 30
0.0
  0
VERTEX
  5
2346
330
2343
100
AcDbEntity
  8
0
100
AcDbVertex
100
AcDb2dVertex
 10
673.7098587905522
 20
482.3663043842133
 30
0.0
  0
VERTEX
  5
2347
330
2343
100
AcDbEntity
  8
0
100
AcDbVertex
100
AcDb2dVertex
 10
673.5257429627347
 20
482.9837933156564
 30
0.0
  0
VERTEX
  5
2348
330
2343
100
AcDbEntity
  8
0
100
AcDbVertex
100
AcDb2dVertex
 10
673.2538644441526
 20
483.5719724188005
 30
0.0
  0
VERTEX
  5
2349
330
2343
100
AcDbEntity
  8
0
100
AcDbVertex
100
AcDb2dVertex
 10
672.8992878171927
 20
484.1198850298317
 30
0.0
  0
VERTEX
  5
234A
330
2343
100
AcDbEntity
  8
0
100
AcDbVertex
100
AcDb2dVertex
 10
672.4686181735312
 20
484.6173245734968
 30
0.0
  0
VERTEX
  5
234B
330
2343
100
AcDbEntity
  8
0
100
AcDbVertex
100
AcDb2dVertex
 10
671.969878073771
 20
485.0550246922891
 30
0.0
  0
VERTEX
  5
234C
330
2343
100
AcDbEntity
  8
0
100
AcDbVertex
100
AcDb2dVertex
 10
671.4123581023177
 20
485.4248318611559
 30
0.0
  0
VERTEX
  5
234D
330
2343
100
AcDbEntity
  8
0
100
AcDbVertex
100
AcDb2dVertex
 10
670.8064438013718
 20
485.7198572722433
 30
0.0
  0
VERTEX
  5
234E
330
2343
100
AcDbEntity
  8
0
100
AcDbVertex
100
AcDb2dVertex
 10
670.1634222079258
 20
485.9346051603523
 30
0.0
  0
VERTEX
  5
234F
330
2343
100
AcDbEntity
  8
0
100
AcDbVertex
100
AcDb2dVertex
 10
669.4952715976216
 20
486.065075178646
 30
0.0
  0
VERTEX
  5
2350
330
2343
100
AcDbEntity
  8
0
100
AcDbVertex
100
AcDb2dVertex
 10
668.8144383521405
 20
486.1088369175424
 30
0.0
  0
VERTEX
  5
2351
330
2343
100
AcDbEntity
  8
0
100
AcDbVertex
100
AcDb2dVertex
 10
668.1336051066594
 20
486.065075178646
 30
0.0
  0
VERTEX
  5
2352
330
2343
100
AcDbEntity
  8
0
100
AcDbVertex
100
AcDb2dVertex
 10
667.4654544963555
 20
485.9346051603523
 30
0.0
  0
VERTEX
  5
2353
330
2343
100
AcDbEntity
  8
0
100
AcDbVertex
100
AcDb2dVertex
 10
666.8224329029092
 20
485.7198572722433
 30
0.0
  0
VERTEX
  5
2354
330
2343
100
AcDbEntity
  8
0
100
AcDbVertex
100
AcDb2dVertex
 10
666.2165186019636
 20
485.4248318611559
 30
0.0
  0
VERTEX
  5
2355
330
2343
100
AcDbEntity
  8
0
100
AcDbVertex
100
AcDb2dVertex
 10
665.6589986305102
 20
485.0550246922891
 30
0.0
  0
VERTEX
  5
2356
330
2343
100
AcDbEntity
  8
0
100
AcDbVertex
100
AcDb2dVertex
 10
665.1602585307498
 20
484.6173245734968
 30
0.0
  0
VERTEX
  5
2357
330
2343
100
AcDbEntity
  8
0
100
AcDbVertex
100
AcDb2dVertex
 10
664.7295888870883
 20
484.1198850298317
 30
0.0
  0
VERTEX
  5
2358
330
2343
100
AcDbEntity
  8
0
100
AcDbVertex
100
AcDb2dVertex
 10
664.3750122601286
 20
483.5719724188005
 30
0.0
  0
VERTEX
  5
2359
330
2343
100
AcDbEntity
  8
0
100
AcDbVertex
100
AcDb2dVertex
 10
664.1031337415466
 20
482.9837933156563
 30
0.0
  0
VERTEX
  5
235A
330
2343
100
AcDbEntity
  8
0
100
AcDbVertex
100
AcDb2dVertex
 10
663.919017913729
 20
482.3663043842132
 30
0.0
  0
VERTEX
  5
235B
330
2343
100
AcDbEntity
  8
0
100
AcDbVertex
100
AcDb2dVertex
 10
663.8260945061879
 20
481.7310082749298
 30
0.0
  0
VERTEX
  5
235C
330
2343
100
AcDbEntity
  8
0
100
AcDbVertex
100
AcDb2dVertex
 10
663.8144383521405
 20
481.4103738136128
 30
0.0
  0
SEQEND
  5
235D
330
2343
100
AcDbEntity
  8
0
  0
POLYLINE
  5
235E
330
A
100
AcDbEntity
  8
0
  6
Continuous
 62
     7
370
    15
100
AcDb2dPolyline
 66
     1
 10
0.0
 20
0.0
 30
0.0
 70
   128
  0
VERTEX
  5
235F
330
235E
100
AcDbEntity
  8
0
100
AcDbVertex
100
AcDb2dVertex
 10
668.8144383521405
 20
479.0611422616479
 30
0.0
  0
VERTEX
  5
2360
330
235E
100
AcDbEntity
  8
0
100
AcDbVertex
100
AcDb2dVertex
 10
669.302164157181
 20
479.106282087187
 30
0.0
  0
VERTEX
  5
2361
330
235E
100
AcDbEntity
  8
0
100
AcDbVertex
100
AcDb2dVertex
 10
669.7711469330531
 20
479.2399668656228
 30
0.0
  0
VERTEX
  5
2362
330
235E
100
AcDbEntity
  8
0
100
AcDbVertex
100
AcDb2dVertex
 10
670.2033639346896
 20
479.4570591658917
 30
0.0
  0
VERTEX
  5
2363
330
235E
100
AcDbEntity
  8
0
100
AcDbVertex
100
AcDb2dVertex
 10
670.5822053051069
 20
479.7492162526411
 30
0.0
  0
VERTEX
  5
2364
330
235E
100
AcDbEntity
  8
0
100
AcDbVertex
100
AcDb2dVertex
 10
670.8931123828969
 20
480.1052106928707
 30
0.0
  0
VERTEX
  5
2365
330
235E
100
AcDbEntity
  8
0
100
AcDbVertex
100
AcDb2dVertex
 10
671.1241371834187
 20
480.5113618198865
 30
0.0
  0
VERTEX
  5
2366
330
235E
100
AcDbEntity
  8
0
100
AcDbVertex
100
AcDb2dVertex
 10
671.2664015531488
 20
480.9520614736495
 30
0.0
  0
VERTEX
  5
2367
330
235E
100
AcDbEntity
  8
0
100
AcDbVertex
100
AcDb2dVertex
 10
671.3144383521405
 20
481.4103738136128
 30
0.0
  0
VERTEX
  5
2368
330
235E
100
AcDbEntity
  8
0
100
AcDbVertex
100
AcDb2dVertex
 10
671.2664015531488
 20
481.868686153576
 30
0.0
  0
VERTEX
  5
2369
330
235E
100
AcDbEntity
  8
0
100
AcDbVertex
100
AcDb2dVertex
 10
671.1241371834187
 20
482.309385807339
 30
0.0
  0
VERTEX
  5
236A
330
235E
100
AcDbEntity
  8
0
100
AcDbVertex
100
AcDb2dVertex
 10
670.8931123828969
 20
482.7155369343548
 30
0.0
  0
VERTEX
  5
236B
330
235E
100
AcDbEntity
  8
0
100
AcDbVertex
100
AcDb2dVertex
 10
670.5822053051069
 20
483.0715313745845
 30
0.0
  0
VERTEX
  5
236C
330
235E
100
AcDbEntity
  8
0
100
AcDbVertex
100
AcDb2dVertex
 10
670.2033639346896
 20
483.3636884613339
 30
0.0
  0
VERTEX
  5
236D
330
235E
100
AcDbEntity
  8
0
100
AcDbVertex
100
AcDb2dVertex
 10
669.7711469330531
 20
483.5807807616028
 30
0.0
  0
VERTEX
  5
236E
330
235E
100
AcDbEntity
  8
0
100
AcDbVertex
100
AcDb2dVertex
 10
669.302164157181
 20
483.7144655400387
 30
0.0
  0
VERTEX
  5
236F
330
235E
100
AcDbEntity
  8
0
100
AcDbVertex
100
AcDb2dVertex
 10
668.8144383521405
 20
483.7596053655776
 30
0.0
  0
VERTEX
  5
2370
330
235E
100
AcDbEntity
  8
0
100
AcDbVertex
100
AcDb2dVertex
 10
668.3267125471002
 20
483.7144655400387
 30
0.0
  0
VERTEX
  5
2371
330
235E
100
AcDbEntity
  8
0
100
AcDbVertex
100
AcDb2dVertex
 10
667.8577297712279
 20
483.5807807616028
 30
0.0
  0
VERTEX
  5
2372
330
235E
100
AcDbEntity
  8
0
100
AcDbVertex
100
AcDb2dVertex
 10
667.4255127695917
 20
483.3636884613339
 30
0.0
  0
VERTEX
  5
2373
330
235E
100
AcDbEntity
  8
0
100
AcDbVertex
100
AcDb2dVertex
 10
667.0466713991743
 20
483.0715313745845
 30
0.0
  0
VERTEX
  5
2374
330
235E
100
AcDbEntity
  8
0
100
AcDbVertex
100
AcDb2dVertex
 10
666.7357643213843
 20
482.7155369343548
 30
0.0
  0
VERTEX
  5
2375
330
235E
100
AcDbEntity
  8
0
100
AcDbVertex
100
AcDb2dVertex
 10
666.5047395208623
 20
482.309385807339
 30
0.0
  0
VERTEX
  5
2376
330
235E
100
AcDbEntity
  8
0
100
AcDbVertex
100
AcDb2dVertex
 10
666.3624751511324
 20
481.868686153576
 30
0.0
  0
VERTEX
  5
2377
330
235E
100
AcDbEntity
  8
0
100
AcDbVertex
100
AcDb2dVertex
 10
666.3144383521405
 20
481.4103738136128
 30
0.0
  0
VERTEX
  5
2378
330
235E
100
AcDbEntity
  8
0
100
AcDbVertex
100
AcDb2dVertex
 10
666.3624751511324
 20
480.9520614736495
 30
0.0
  0
VERTEX
  5
2379
330
235E
100
AcDbEntity
  8
0
100
AcDbVertex
100
AcDb2dVertex
 10
666.5047395208623
 20
480.5113618198865
 30
0.0
  0
VERTEX
  5
237A
330
235E
100
AcDbEntity
  8
0
100
AcDbVertex
100
AcDb2dVertex
 10
666.7357643213843
 20
480.1052106928706
 30
0.0
  0
VERTEX
  5
237B
330
235E
100
AcDbEntity
  8
0
100
AcDbVertex
100
AcDb2dVertex
 10
667.0466713991743
 20
479.7492162526411
 30
0.0
  0
VERTEX
  5
237C
330
235E
100
AcDbEntity
  8
0
100
AcDbVertex
100
AcDb2dVertex
 10
667.4255127695917
 20
479.4570591658917
 30
0.0
  0
VERTEX
  5
237D
330
235E
100
AcDbEntity
  8
0
100
AcDbVertex
100
AcDb2dVertex
 10
667.8577297712279
 20
479.2399668656228
 30
0.0
  0
VERTEX
  5
237E
330
235E
100
AcDbEntity
  8
0
100
AcDbVertex
100
AcDb2dVertex
 10
668.3267125471004
 20
479.106282087187
 30
0.0
  0
VERTEX
  5
237F
330
235E
100
AcDbEntity
  8
0
100
AcDbVertex
100
AcDb2dVertex
 10
668.8144383521405
 20
479.0611422616479
 30
0.0
  0
SEQEND
  5
2380
330
235E
100
AcDbEntity
  8
0
  0
LINE
  5
2381
330
A
100
AcDbEntity
  8
0
  6
Continuous
 62
     7
370
    15
100
AcDbLine
 10
629.8144383521405
 20
478.6055143458383
 30
0.0
 11
629.8144383521405
 21
484.9457495232578
 31
0.0
  0
LINE
  5
2382
330
A
100
AcDbEntity
  8
0
  6
Continuous
 62
     7
370
    15
100
AcDbLine
 10
675.8144383521408
 20
495.6055143458383
 30
0.0
 11
644.3144383521405
 21
495.6055143458383
 31
0.0
  0
LINE
  5
2383
330
A
100
AcDbEntity
  8
0
  6
Continuous
 62
     7
370
    15
100
AcDbLine
 10
644.3144383521405
 20
490.8152972645614
 30
0.0
 11
644.3144383521405
 21
500.3152972645615
 31
0.0
  0
LINE
  5
2384
330
A
100
AcDbEntity
  8
0
  6
Continuous
 62
     7
370
    15
100
AcDbLine
 10
631.5464891597096
 20
490.8152972645615
 30
0.0
 11
631.5464891597096
 21
495.4717835921832
 31
0.0
  0
LINE
  5
2385
330
A
100
AcDbEntity
  8
0
  6
Continuous
 62
     7
370
    15
100
AcDbLine
 10
628.8144383521407
 20
493.8901240366647
 30
0.0
 11
628.8144383521407
 21
492.1580732290959
 31
0.0
  0
LINE
  5
2386
330
A
100
AcDbEntity
  8
0
  6
Continuous
 62
     7
370
    15
100
AcDbLine
 10
626.8144383521407
 20
492.1580732290959
 30
0.0
 11
626.8144383521407
 21
493.8901240366647
 31
0.0
  0
LINE
  5
2387
330
A
100
AcDbEntity
  8
0
  6
Continuous
 62
     7
370
    15
100
AcDbLine
 10
629.8144383521405
 20
487.9955942795099
 30
0.0
 11
629.8144383521405
 21
492.8539320039698
 31
0.0
  0
LINE
  5
2388
330
A
100
AcDbEntity
  8
0
  6
Continuous
 62
     7
370
    15
100
AcDbLine
 10
638.3144383521405
 20
493.1571771264612
 30
0.0
 11
633.8144383521405
 21
493.1571771264612
 31
0.0
  0
LINE
  5
2389
330
A
100
AcDbEntity
  8
0
  6
Continuous
 62
     7
370
    15
100
AcDbLine
 10
638.3144383521405
 20
497.3362764593713
 30
0.0
 11
633.8144383521408
 21
497.3362764593713
 31
0.0
  0
LINE
  5
238A
330
A
100
AcDbEntity
  8
0
  6
Continuous
 62
     7
370
    15
100
AcDbLine
 10
633.8144383521408
 20
497.3362764593713
 30
0.0
 11
633.8144383521408
 21
499.0862764593714
 31
0.0
  0
LINE
  5
238B
330
A
100
AcDbEntity
  8
0
  6
Continuous
 62
     7
370
    15
100
AcDbLine
 10
626.8144383521407
 20
499.0862764593714
 30
0.0
 11
626.8144383521407
 21
493.8901240366647
 31
0.0
  0
LINE
  5
238C
330
A
100
AcDbEntity
  8
0
  6
Continuous
 62
     7
370
    15
100
AcDbLine
 10
633.8144383521408
 20
499.0862764593714
 30
0.0
 11
626.8144383521407
 21
499.0862764593714
 31
0.0
  0
LINE
  5
238D
330
A
100
AcDbEntity
  8
0
  6
Continuous
 62
     7
370
    15
100
AcDbLine
 10
633.8144383521408
 20
497.3362764593713
 30
0.0
 11
633.8144383521405
 21
493.1571771264612
 31
0.0
  0
LINE
  5
238E
330
A
100
AcDbEntity
  8
0
  6
Continuous
 62
     7
370
    15
100
AcDbLine
 10
629.8144383521405
 20
492.8539320039698
 30
0.0
 11
631.5464891597096
 21
495.4717835921832
 31
0.0
  0
LINE
  5
238F
330
A
100
AcDbEntity
  8
0
  6
Continuous
 62
     7
370
    15
100
AcDbLine
 10
626.8144383521407
 20
493.8901240366647
 30
0.0
 11
628.8144383521407
 21
493.8901240366647
 31
0.0
  0
LINE
  5
2390
330
A
100
AcDbEntity
  8
0
  6
Continuous
 62
     7
370
    15
100
AcDbLine
 10
631.5464891597096
 20
495.4717835921832
 30
0.0
 11
633.8144383521405
 21
495.4717835921832
 31
0.0
  0
LINE
  5
2391
330
A
100
AcDbEntity
  8
0
  6
Continuous
 62
     7
370
    15
100
AcDbLine
 10
638.3144383521405
 20
497.3362764593713
 30
0.0
 11
638.3144383521405
 21
498.8362764593713
 31
0.0
  0
LINE
  5
2392
330
A
100
AcDbEntity
  8
0
  6
Continuous
 62
     7
370
    15
100
AcDbLine
 10
641.6144383521407
 20
495.1672265168034
 30
0.0
 11
641.6144383521407
 21
498.8362764593713
 31
0.0
  0
LINE
  5
2393
330
A
100
AcDbEntity
  8
0
  6
Continuous
 62
     7
370
    15
100
AcDbLine
 10
641.6144383521407
 20
500.3152972645615
 30
0.0
 11
644.3144383521405
 21
500.3152972645615
 31
0.0
  0
LINE
  5
2394
330
A
100
AcDbEntity
  8
0
  6
Continuous
 62
     7
370
    15
100
AcDbLine
 10
638.3144383521405
 20
498.8362764593713
 30
0.0
 11
641.6144383521407
 21
498.8362764593713
 31
0.0
  0
LINE
  5
2395
330
A
100
AcDbEntity
  8
0
  6
Continuous
 62
     7
370
    15
100
AcDbLine
 10
638.3144383521405
 20
495.1672265168034
 30
0.0
 11
641.6144383521407
 21
495.1672265168034
 31
0.0
  0
LINE
  5
2396
330
A
100
AcDbEntity
  8
0
  6
Continuous
 62
     7
370
    15
100
AcDbLine
 10
638.3144383521405
 20
493.1571771264612
 30
0.0
 11
638.3144383521405
 21
497.3362764593713
 31
0.0
  0
LINE
  5
2397
330
A
100
AcDbEntity
  8
0
  6
Continuous
 62
     7
370
    15
100
AcDbLine
 10
644.3144383521405
 20
484.9457495232578
 30
0.0
 11
629.8144383521405
 21
484.9457495232578
 31
0.0
  0
LINE
  5
2398
330
A
100
AcDbEntity
  8
0
  6
Continuous
 62
     7
370
    15
100
AcDbLine
 10
644.3144383521405
 20
490.8152972645614
 30
0.0
 11
631.5464891597096
 21
490.8152972645615
 31
0.0
  0
LINE
  5
2399
330
A
100
AcDbEntity
  8
0
  6
Continuous
 62
     7
370
    15
100
AcDbLine
 10
644.3144383521405
 20
487.9021206750072
 30
0.0
 11
629.8144383521405
 21
487.9021206750072
 31
0.0
  0
LINE
  5
239A
330
A
100
AcDbEntity
  8
0
  6
Continuous
 62
     7
370
    15
100
AcDbLine
 10
631.5464891597096
 20
490.8152972645615
 30
0.0
 11
629.8144383521405
 21
487.9955942795099
 31
0.0
  0
LINE
  5
239B
330
A
100
AcDbEntity
  8
0
  6
Continuous
 62
     7
370
    15
100
AcDbLine
 10
626.8144383521407
 20
492.1580732290959
 30
0.0
 11
626.8144383521405
 21
486.9619208063893
 31
0.0
  0
LINE
  5
239C
330
A
100
AcDbEntity
  8
0
  6
Continuous
 62
     7
370
    15
100
AcDbLine
 10
628.8144383521407
 20
492.1580732290959
 30
0.0
 11
626.8144383521407
 21
492.1580732290959
 31
0.0
  0
LINE
  5
239D
330
A
100
AcDbEntity
  8
0
  6
Continuous
 62
     7
370
    15
100
AcDbLine
 10
629.8144383521405
 20
487.9021206750072
 30
0.0
 11
629.8144383521405
 21
487.9955942795099
 31
0.0
  0
LINE
  5
239E
330
A
100
AcDbEntity
  8
0
  6
Continuous
 62
     7
370
    15
100
AcDbLine
 10
629.8144383521405
 20
484.9457495232578
 30
0.0
 11
629.8144383521405
 21
487.9021206750072
 31
0.0
  0
LINE
  5
239F
330
A
100
AcDbEntity
  8
0
  6
Continuous
 62
     7
370
    15
100
AcDbLine
 10
626.8144383521405
 20
486.9619208063893
 30
0.0
 11
629.8144383521408
 21
486.9619208063893
 31
0.0
  0
LINE
  5
23A0
330
A
100
AcDbEntity
  8
0
  6
Continuous
 62
     7
370
    15
100
AcDbLine
 10
644.3144383521405
 20
487.9021206750072
 30
0.0
 11
644.3144383521405
 21
490.8152972645614
 31
0.0
  0
LINE
  5
23A1
330
A
100
AcDbEntity
  8
0
  6
Continuous
 62
     7
370
    15
100
AcDbLine
 10
644.3144383521405
 20
484.9457495232578
 30
0.0
 11
644.3144383521405
 21
487.9021206750072
 31
0.0
  0
POLYLINE
  5
23A2
330
A
100
AcDbEntity
  8
0
  6
Continuous
 62
     7
370
    15
100
AcDb2dPolyline
 66
     1
 10
0.0
 20
0.0
 30
0.0
 70
   128
  0
VERTEX
  5
23A3
330
23A2
100
AcDbEntity
  8
0
100
AcDbVertex
100
AcDb2dVertex
 10
654.2194287908589
 20
469.3219738236595
 30
0.0
  0
VERTEX
  5
23A4
330
23A2
100
AcDbEntity
  8
0
100
AcDbVertex
100
AcDb2dVertex
 10
654.0822053051067
 20
469.1821352082842
 30
0.0
  0
VERTEX
  5
23A5
330
23A2
100
AcDbEntity
  8
0
100
AcDbVertex
100
AcDb2dVertex
 10
653.7033639346896
 20
468.8899781215349
 30
0.0
  0
VERTEX
  5
23A6
330
23A2
100
AcDbEntity
  8
0
100
AcDbVertex
100
AcDb2dVertex
 10
653.2711469330531
 20
468.672885821266
 30
0.0
  0
VERTEX
  5
23A7
330
23A2
100
AcDbEntity
  8
0
100
AcDbVertex
100
AcDb2dVertex
 10
652.8021641571808
 20
468.5392010428301
 30
0.0
  0
VERTEX
  5
23A8
330
23A2
100
AcDbEntity
  8
0
100
AcDbVertex
100
AcDb2dVertex
 10
652.3144383521405
 20
468.4940612172912
 30
0.0
  0
VERTEX
  5
23A9
330
23A2
100
AcDbEntity
  8
0
100
AcDbVertex
100
AcDb2dVertex
 10
651.8267125471002
 20
468.5392010428301
 30
0.0
  0
VERTEX
  5
23AA
330
23A2
100
AcDbEntity
  8
0
100
AcDbVertex
100
AcDb2dVertex
 10
651.3577297712279
 20
468.672885821266
 30
0.0
  0
VERTEX
  5
23AB
330
23A2
100
AcDbEntity
  8
0
100
AcDbVertex
100
AcDb2dVertex
 10
650.9255127695917
 20
468.8899781215349
 30
0.0
  0
VERTEX
  5
23AC
330
23A2
100
AcDbEntity
  8
0
100
AcDbVertex
100
AcDb2dVertex
 10
650.5466713991743
 20
469.1821352082842
 30
0.0
  0
VERTEX
  5
23AD
330
23A2
100
AcDbEntity
  8
0
100
AcDbVertex
100
AcDb2dVertex
 10
650.4094479134221
 20
469.3219738236595
 30
0.0
  0
SEQEND
  5
23AE
330
23A2
100
AcDbEntity
  8
0
  0
POLYLINE
  5
23AF
330
A
100
AcDbEntity
  8
0
  6
Continuous
 62
     7
370
    15
100
AcDb2dPolyline
 66
     1
 10
0.0
 20
0.0
 30
0.0
 70
   128
  0
VERTEX
  5
23B0
330
23AF
100
AcDbEntity
  8
0
100
AcDbVertex
100
AcDb2dVertex
 10
652.3144383521405
 20
470.1498864300284
 30
0.0
  0
VERTEX
  5
23B1
330
23AF
100
AcDbEntity
  8
0
100
AcDbVertex
100
AcDb2dVertex
 10
652.8021641571808
 20
470.1047466044895
 30
0.0
  0
VERTEX
  5
23B2
330
23AF
100
AcDbEntity
  8
0
100
AcDbVertex
100
AcDb2dVertex
 10
653.2711469330531
 20
469.9710618260536
 30
0.0
  0
VERTEX
  5
23B3
330
23AF
100
AcDbEntity
  8
0
100
AcDbVertex
100
AcDb2dVertex
 10
653.7033639346896
 20
469.7539695257847
 30
0.0
  0
VERTEX
  5
23B4
330
23AF
100
AcDbEntity
  8
0
100
AcDbVertex
100
AcDb2dVertex
 10
654.0822053051067
 20
469.4618124390352
 30
0.0
  0
VERTEX
  5
23B5
330
23AF
100
AcDbEntity
  8
0
100
AcDbVertex
100
AcDb2dVertex
 10
654.3931123828968
 20
469.1058179988057
 30
0.0
  0
VERTEX
  5
23B6
330
23AF
100
AcDbEntity
  8
0
100
AcDbVertex
100
AcDb2dVertex
 10
654.6241371834187
 20
468.6996668717898
 30
0.0
  0
VERTEX
  5
23B7
330
23AF
100
AcDbEntity
  8
0
100
AcDbVertex
100
AcDb2dVertex
 10
654.7664015531486
 20
468.2589672180268
 30
0.0
  0
VERTEX
  5
23B8
330
23AF
100
AcDbEntity
  8
0
100
AcDbVertex
100
AcDb2dVertex
 10
654.8144383521405
 20
467.8006548780636
 30
0.0
  0
VERTEX
  5
23B9
330
23AF
100
AcDbEntity
  8
0
100
AcDbVertex
100
AcDb2dVertex
 10
654.7664015531486
 20
467.3423425381003
 30
0.0
  0
VERTEX
  5
23BA
330
23AF
100
AcDbEntity
  8
0
100
AcDbVertex
100
AcDb2dVertex
 10
654.6241371834187
 20
466.9016428843373
 30
0.0
  0
VERTEX
  5
23BB
330
23AF
100
AcDbEntity
  8
0
100
AcDbVertex
100
AcDb2dVertex
 10
654.3931123828968
 20
466.4954917573216
 30
0.0
  0
VERTEX
  5
23BC
330
23AF
100
AcDbEntity
  8
0
100
AcDbVertex
100
AcDb2dVertex
 10
654.0822053051067
 20
466.1394973170919
 30
0.0
  0
VERTEX
  5
23BD
330
23AF
100
AcDbEntity
  8
0
100
AcDbVertex
100
AcDb2dVertex
 10
653.7033639346896
 20
465.8473402303426
 30
0.0
  0
VERTEX
  5
23BE
330
23AF
100
AcDbEntity
  8
0
100
AcDbVertex
100
AcDb2dVertex
 10
653.2711469330531
 20
465.6302479300737
 30
0.0
  0
VERTEX
  5
23BF
330
23AF
100
AcDbEntity
  8
0
100
AcDbVertex
100
AcDb2dVertex
 10
652.8021641571808
 20
465.4965631516378
 30
0.0
  0
VERTEX
  5
23C0
330
23AF
100
AcDbEntity
  8
0
100
AcDbVertex
100
AcDb2dVertex
 10
652.3144383521405
 20
465.4514233260989
 30
0.0
  0
VERTEX
  5
23C1
330
23AF
100
AcDbEntity
  8
0
100
AcDbVertex
100
AcDb2dVertex
 10
651.8267125471002
 20
465.4965631516378
 30
0.0
  0
VERTEX
  5
23C2
330
23AF
100
AcDbEntity
  8
0
100
AcDbVertex
100
AcDb2dVertex
 10
651.3577297712279
 20
465.6302479300737
 30
0.0
  0
VERTEX
  5
23C3
330
23AF
100
AcDbEntity
  8
0
100
AcDbVertex
100
AcDb2dVertex
 10
650.9255127695917
 20
465.8473402303426
 30
0.0
  0
VERTEX
  5
23C4
330
23AF
100
AcDbEntity
  8
0
100
AcDbVertex
100
AcDb2dVertex
 10
650.5466713991741
 20
466.1394973170919
 30
0.0
  0
VERTEX
  5
23C5
330
23AF
100
AcDbEntity
  8
0
100
AcDbVertex
100
AcDb2dVertex
 10
650.2357643213843
 20
466.4954917573217
 30
0.0
  0
VERTEX
  5
23C6
330
23AF
100
AcDbEntity
  8
0
100
AcDbVertex
100
AcDb2dVertex
 10
650.0047395208623
 20
466.9016428843374
 30
0.0
  0
VERTEX
  5
23C7
330
23AF
100
AcDbEntity
  8
0
100
AcDbVertex
100
AcDb2dVertex
 10
649.8624751511327
 20
467.3423425381003
 30
0.0
  0
VERTEX
  5
23C8
330
23AF
100
AcDbEntity
  8
0
100
AcDbVertex
100
AcDb2dVertex
 10
649.8144383521405
 20
467.8006548780636
 30
0.0
  0
VERTEX
  5
23C9
330
23AF
100
AcDbEntity
  8
0
100
AcDbVertex
100
AcDb2dVertex
 10
649.8624751511327
 20
468.2589672180268
 30
0.0
  0
VERTEX
  5
23CA
330
23AF
100
AcDbEntity
  8
0
100
AcDbVertex
100
AcDb2dVertex
 10
650.0047395208623
 20
468.6996668717898
 30
0.0
  0
VERTEX
  5
23CB
330
23AF
100
AcDbEntity
  8
0
100
AcDbVertex
100
AcDb2dVertex
 10
650.2357643213843
 20
469.1058179988057
 30
0.0
  0
VERTEX
  5
23CC
330
23AF
100
AcDbEntity
  8
0
100
AcDbVertex
100
AcDb2dVertex
 10
650.5466713991743
 20
469.4618124390354
 30
0.0
  0
VERTEX
  5
23CD
330
23AF
100
AcDbEntity
  8
0
100
AcDbVertex
100
AcDb2dVertex
 10
650.9255127695917
 20
469.7539695257847
 30
0.0
  0
VERTEX
  5
23CE
330
23AF
100
AcDbEntity
  8
0
100
AcDbVertex
100
AcDb2dVertex
 10
651.3577297712279
 20
469.9710618260536
 30
0.0
  0
VERTEX
  5
23CF
330
23AF
100
AcDbEntity
  8
0
100
AcDbVertex
100
AcDb2dVertex
 10
651.8267125471002
 20
470.1047466044895
 30
0.0
  0
VERTEX
  5
23D0
330
23AF
100
AcDbEntity
  8
0
100
AcDbVertex
100
AcDb2dVertex
 10
652.3144383521405
 20
470.1498864300284
 30
0.0
  0
SEQEND
  5
23D1
330
23AF
100
AcDbEntity
  8
0
  0
LINE
  5
23D2
330
A
100
AcDbEntity
  8
0
  6
Continuous
 62
     7
370
    15
100
AcDbLine
 10
637.8144383521405
 20
470.6055143458383
 30
0.0
 11
637.8144383521405
 21
478.6055143458383
 31
0.0
  0
LINE
  5
23D3
330
A
100
AcDbEntity
  8
0
  6
Continuous
 62
     7
370
    15
100
AcDbLine
 10
629.8144383521405
 20
478.6055143458383
 30
0.0
 11
629.8144383521405
 21
470.6055143458383
 31
0.0
  0
LINE
  5
23D4
330
A
100
AcDbEntity
  8
0
  6
Continuous
 62
     7
370
    15
100
AcDbLine
 10
626.8144383521407
 20
477.6055143458383
 30
0.0
 11
626.8144383521407
 21
471.6055143458382
 31
0.0
  0
LINE
  5
23D5
330
A
100
AcDbEntity
  8
0
  6
Continuous
 62
     7
370
    15
100
AcDbLine
 10
637.8144383521405
 20
478.6055143458383
 30
0.0
 11
629.8144383521405
 21
478.6055143458383
 31
0.0
  0
LINE
  5
23D6
330
A
100
AcDbEntity
  8
0
  6
Continuous
 62
     7
370
    15
100
AcDbLine
 10
626.8144383521407
 20
477.6055143458383
 30
0.0
 11
629.8144383521405
 21
477.6055143458383
 31
0.0
  0
LINE
  5
23D7
330
A
100
AcDbEntity
  8
0
  6
Continuous
 62
     7
370
    15
100
AcDbLine
 10
637.8144383521405
 20
470.6055143458383
 30
0.0
 11
629.8144383521405
 21
470.6055143458383
 31
0.0
  0
LINE
  5
23D8
330
A
100
AcDbEntity
  8
0
  6
Continuous
 62
     7
370
    15
100
AcDbLine
 10
626.8144383521407
 20
471.6055143458382
 30
0.0
 11
629.8144383521405
 21
471.6055143458382
 31
0.0
  0
POLYLINE
  5
23D9
330
A
100
AcDbEntity
  8
0
  6
Continuous
 62
     7
370
    15
100
AcDb2dPolyline
 66
     1
 10
0.0
 20
0.0
 30
0.0
 70
   128
  0
VERTEX
  5
23DA
330
23D9
100
AcDbEntity
  8
0
100
AcDbVertex
100
AcDb2dVertex
 10
670.7194287908594
 20
479.8890548680166
 30
0.0
  0
VERTEX
  5
23DB
330
23D9
100
AcDbEntity
  8
0
100
AcDbVertex
100
AcDb2dVertex
 10
670.5822053051069
 20
480.0288934833921
 30
0.0
  0
VERTEX
  5
23DC
330
23D9
100
AcDbEntity
  8
0
100
AcDbVertex
100
AcDb2dVertex
 10
670.2033639346896
 20
480.3210505701415
 30
0.0
  0
VERTEX
  5
23DD
330
23D9
100
AcDbEntity
  8
0
100
AcDbVertex
100
AcDb2dVertex
 10
669.7711469330531
 20
480.5381428704105
 30
0.0
  0
VERTEX
  5
23DE
330
23D9
100
AcDbEntity
  8
0
100
AcDbVertex
100
AcDb2dVertex
 10
669.302164157181
 20
480.6718276488465
 30
0.0
  0
VERTEX
  5
23DF
330
23D9
100
AcDbEntity
  8
0
100
AcDbVertex
100
AcDb2dVertex
 10
668.8144383521405
 20
480.7169674743853
 30
0.0
  0
VERTEX
  5
23E0
330
23D9
100
AcDbEntity
  8
0
100
AcDbVertex
100
AcDb2dVertex
 10
668.3267125471004
 20
480.6718276488465
 30
0.0
  0
VERTEX
  5
23E1
330
23D9
100
AcDbEntity
  8
0
100
AcDbVertex
100
AcDb2dVertex
 10
667.8577297712279
 20
480.5381428704105
 30
0.0
  0
VERTEX
  5
23E2
330
23D9
100
AcDbEntity
  8
0
100
AcDbVertex
100
AcDb2dVertex
 10
667.4255127695917
 20
480.3210505701415
 30
0.0
  0
VERTEX
  5
23E3
330
23D9
100
AcDbEntity
  8
0
100
AcDbVertex
100
AcDb2dVertex
 10
667.0466713991743
 20
480.0288934833921
 30
0.0
  0
VERTEX
  5
23E4
330
23D9
100
AcDbEntity
  8
0
100
AcDbVertex
100
AcDb2dVertex
 10
666.9094479134217
 20
479.8890548680166
 30
0.0
  0
SEQEND
  5
23E5
330
23D9
100
AcDbEntity
  8
0
  0
LINE
  5
23E6
330
A
100
AcDbEntity
  8
0
  6
Continuous
 62
     7
370
    15
100
AcDbLine
 10
633.8144383521405
 20
445.3747522323051
 30
0.0
 11
633.8144383521405
 21
447.124752232305
 31
0.0
  0
LINE
  5
23E7
330
A
100
AcDbEntity
  8
0
  6
Continuous
 62
     7
370
    15
100
AcDbLine
 10
638.3144383521405
 20
445.374752232305
 30
0.0
 11
638.3144383521405
 21
446.874752232305
 31
0.0
  0
LINE
  5
23E8
330
A
100
AcDbEntity
  8
0
  6
Continuous
 62
     7
370
    15
100
AcDbLine
 10
644.3144383521405
 20
453.6077558198493
 30
0.0
 11
675.8144383521405
 21
453.6077558198493
 31
0.0
  0
LINE
  5
23E9
330
A
100
AcDbEntity
  8
0
  6
Continuous
 62
     7
370
    15
100
AcDbLine
 10
633.8144383521405
 20
451.8747522323049
 30
0.0
 11
633.8144383521405
 21
456.0538515652153
 31
0.0
  0
LINE
  5
23EA
330
A
100
AcDbEntity
  8
0
  6
Continuous
 62
     7
370
    15
100
AcDbLine
 10
638.3144383521405
 20
456.0538515652153
 30
0.0
 11
638.3144383521405
 21
451.8747522323049
 31
0.0
  0
LINE
  5
23EB
330
A
100
AcDbEntity
  8
0
  6
Continuous
 62
     7
370
    15
100
AcDbLine
 10
644.3144383521405
 20
448.8957314271151
 30
0.0
 11
644.3144383521405
 21
458.3957314271152
 31
0.0
  0
LINE
  5
23EC
330
A
100
AcDbEntity
  8
0
  6
Continuous
 62
     7
370
    15
100
AcDbLine
 10
629.8144383521405
 20
456.3570966877067
 30
0.0
 11
631.5464891597094
 21
453.7392450994931
 31
0.0
  0
LINE
  5
23ED
330
A
100
AcDbEntity
  8
0
  6
Continuous
 62
     7
370
    15
100
AcDbLine
 10
631.5464891597094
 20
453.7392450994931
 30
0.0
 11
631.5464891597094
 21
458.3957314271152
 31
0.0
  0
LINE
  5
23EE
330
A
100
AcDbEntity
  8
0
  6
Continuous
 62
     7
370
    15
100
AcDbLine
 10
628.8144383521405
 20
455.3209046550117
 30
0.0
 11
628.8144383521405
 21
457.0529554625806
 31
0.0
  0
LINE
  5
23EF
330
A
100
AcDbEntity
  8
0
  6
Continuous
 62
     7
370
    15
100
AcDbLine
 10
626.8144383521405
 20
455.3209046550117
 30
0.0
 11
626.8144383521405
 21
457.0529554625806
 31
0.0
  0
LINE
  5
23F0
330
A
100
AcDbEntity
  8
0
  6
Continuous
 62
     7
370
    15
100
AcDbLine
 10
638.3144383521405
 20
456.0538515652153
 30
0.0
 11
633.8144383521405
 21
456.0538515652153
 31
0.0
  0
LINE
  5
23F1
330
A
100
AcDbEntity
  8
0
  6
Continuous
 62
     7
370
    15
100
AcDbLine
 10
644.3144383521405
 20
464.2652791684187
 30
0.0
 11
629.8144383521405
 21
464.2652791684188
 31
0.0
  0
LINE
  5
23F2
330
A
100
AcDbEntity
  8
0
  6
Continuous
 62
     7
370
    15
100
AcDbLine
 10
631.5464891597094
 20
458.3957314271152
 30
0.0
 11
644.3144383521405
 21
458.3957314271152
 31
0.0
  0
LINE
  5
23F3
330
A
100
AcDbEntity
  8
0
  6
Continuous
 62
     7
370
    15
100
AcDbLine
 10
644.3144383521405
 20
461.3089080166695
 30
0.0
 11
629.8144383521405
 21
461.3089080166695
 31
0.0
  0
LINE
  5
23F4
330
A
100
AcDbEntity
  8
0
  6
Continuous
 62
     7
370
    15
100
AcDbLine
 10
629.8144383521405
 20
461.2154344121667
 30
0.0
 11
631.5464891597094
 21
458.3957314271152
 31
0.0
  0
LINE
  5
23F5
330
A
100
AcDbEntity
  8
0
  6
Continuous
 62
     7
370
    15
100
AcDbLine
 10
626.8144383521405
 20
457.0529554625806
 30
0.0
 11
626.8144383521405
 21
462.2491078852872
 31
0.0
  0
LINE
  5
23F6
330
A
100
AcDbEntity
  8
0
  6
Continuous
 62
     7
370
    15
100
AcDbLine
 10
629.8144383521405
 20
456.3570966877067
 30
0.0
 11
629.8144383521405
 21
461.2154344121667
 31
0.0
  0
LINE
  5
23F7
330
A
100
AcDbEntity
  8
0
  6
Continuous
 62
     7
370
    15
100
AcDbLine
 10
629.8144383521405
 20
461.2154344121667
 30
0.0
 11
629.8144383521405
 21
461.3089080166695
 31
0.0
  0
LINE
  5
23F8
330
A
100
AcDbEntity
  8
0
  6
Continuous
 62
     7
370
    15
100
AcDbLine
 10
629.8144383521405
 20
461.3089080166695
 30
0.0
 11
629.8144383521405
 21
464.2652791684188
 31
0.0
  0
LINE
  5
23F9
330
A
100
AcDbEntity
  8
0
  6
Continuous
 62
     7
370
    15
100
AcDbLine
 10
626.8144383521405
 20
462.2491078852872
 30
0.0
 11
629.8144383521405
 21
462.2491078852872
 31
0.0
  0
LINE
  5
23FA
330
A
100
AcDbEntity
  8
0
  6
Continuous
 62
     7
370
    15
100
AcDbLine
 10
628.8144383521405
 20
457.0529554625806
 30
0.0
 11
626.8144383521405
 21
457.0529554625806
 31
0.0
  0
LINE
  5
23FB
330
A
100
AcDbEntity
  8
0
  6
Continuous
 62
     7
370
    15
100
AcDbLine
 10
644.3144383521405
 20
458.3957314271152
 30
0.0
 11
644.3144383521405
 21
461.3089080166695
 31
0.0
  0
LINE
  5
23FC
330
A
100
AcDbEntity
  8
0
  6
Continuous
 62
     7
370
    15
100
AcDbLine
 10
644.3144383521405
 20
461.3089080166695
 30
0.0
 11
644.3144383521405
 21
464.2652791684187
 31
0.0
  0
LINE
  5
23FD
330
A
100
AcDbEntity
  8
0
  6
Continuous
 62
     7
370
    15
100
AcDbLine
 10
638.3144383521405
 20
451.8747522323049
 30
0.0
 11
633.8144383521405
 21
451.8747522323049
 31
0.0
  0
LINE
  5
23FE
330
A
100
AcDbEntity
  8
0
  6
Continuous
 62
     7
370
    15
100
AcDbLine
 10
633.8144383521405
 20
450.1247522323049
 30
0.0
 11
633.8144383521405
 21
451.8747522323049
 31
0.0
  0
LINE
  5
23FF
330
A
100
AcDbEntity
  8
0
  6
Continuous
 62
     7
370
    15
100
AcDbLine
 10
626.8144383521405
 20
450.1247522323049
 30
0.0
 11
626.8144383521405
 21
455.3209046550117
 31
0.0
  0
LINE
  5
2400
330
A
100
AcDbEntity
  8
0
  6
Continuous
 62
     7
370
    15
100
AcDbLine
 10
626.8144383521405
 20
455.3209046550117
 30
0.0
 11
628.8144383521405
 21
455.3209046550117
 31
0.0
  0
LINE
  5
2401
330
A
100
AcDbEntity
  8
0
  6
Continuous
 62
     7
370
    15
100
AcDbLine
 10
631.5464891597094
 20
453.7392450994931
 30
0.0
 11
633.8144383521405
 21
453.7392450994931
 31
0.0
  0
LINE
  5
2402
330
A
100
AcDbEntity
  8
0
  6
Continuous
 62
     7
370
    15
100
AcDbLine
 10
626.8144383521405
 20
447.124752232305
 30
0.0
 11
626.8144383521405
 21
450.1247522323049
 31
0.0
  0
LINE
  5
2403
330
A
100
AcDbEntity
  8
0
  6
Continuous
 62
     7
370
    15
100
AcDbLine
 10
633.8144383521405
 20
447.124752232305
 30
0.0
 11
626.8144383521405
 21
447.124752232305
 31
0.0
  0
LINE
  5
2404
330
A
100
AcDbEntity
  8
0
  6
Continuous
 62
     7
370
    15
100
AcDbLine
 10
633.8144383521405
 20
450.1247522323049
 30
0.0
 11
626.8144383521405
 21
450.1247522323049
 31
0.0
  0
LINE
  5
2405
330
A
100
AcDbEntity
  8
0
  6
Continuous
 62
     7
370
    15
100
AcDbLine
 10
638.3144383521405
 20
450.374752232305
 30
0.0
 11
638.3144383521405
 21
451.8747522323049
 31
0.0
  0
LINE
  5
2406
330
A
100
AcDbEntity
  8
0
  6
Continuous
 62
     7
370
    15
100
AcDbLine
 10
641.6144383521404
 20
454.0438021748729
 30
0.0
 11
641.6144383521404
 21
450.374752232305
 31
0.0
  0
LINE
  5
2407
330
A
100
AcDbEntity
  8
0
  6
Continuous
 62
     7
370
    15
100
AcDbLine
 10
641.6144383521404
 20
454.0438021748729
 30
0.0
 11
638.3144383521405
 21
454.0438021748729
 31
0.0
  0
LINE
  5
2408
330
A
100
AcDbEntity
  8
0
  6
Continuous
 62
     7
370
    15
100
AcDbLine
 10
644.3144383521405
 20
448.8957314271151
 30
0.0
 11
641.6144383521404
 21
448.8957314271151
 31
0.0
  0
LINE
  5
2409
330
A
100
AcDbEntity
  8
0
  6
Continuous
 62
     7
370
    15
100
AcDbLine
 10
641.6144383521404
 20
450.374752232305
 30
0.0
 11
638.3144383521405
 21
450.374752232305
 31
0.0
  0
LINE
  5
240A
330
A
100
AcDbEntity
  8
0
  6
Continuous
 62
     7
370
    15
100
AcDbLine
 10
641.6144383521404
 20
446.874752232305
 30
0.0
 11
641.6144383521404
 21
450.374752232305
 31
0.0
  0
LINE
  5
240B
330
A
100
AcDbEntity
  8
0
  6
Continuous
 62
     7
370
    15
100
AcDbLine
 10
638.3144383521405
 20
446.874752232305
 30
0.0
 11
641.6144383521404
 21
446.874752232305
 31
0.0
  0
LINE
  5
240C
330
A
100
AcDbEntity
  8
0
  6
Continuous
 62
     7
370
    15
100
AcDbLine
 10
638.3144383521405
 20
445.374752232305
 30
0.0
 11
633.8144383521405
 21
445.3747522323051
 31
0.0
  0
DIMENSION
  5
240D
330
A
100
AcDbEntity
  8
AM_5
100
AcDbDimension
  2
*D4
 10
506.474681175516
 20
339.1842950882014
 30
0.0
 11
522.8228261438555
 21
350.9340335127513
 31
0.0
 70
   162
 71
     5
 42
0.8726791074537553
  3
ISO-25
100
AcDb2LineAngularDimension
 13
512.4745693862567
 23
325.4217085179813
 33
0.0
 14
521.5379071593257
 24
331.7677303488721
 34
0.0
 15
504.8004963086791
 25
320.0482744957636
 35
0.0
 16
518.003204858922
 26
353.2811439007643
 36
0.0
1001
ACAD
1000
DSTYLE
1002
{
1070
   340
1005
17
1002
}
  0
DIMENSION
  5
240E
330
A
100
AcDbEntity
  8
AM_5
100
AcDbDimension
  2
*D5
 10
521.5379071593257
 20
331.7677303488721
 30
0.0
 11
539.2578688073765
 21
329.9905368293208
 31
0.0
 70
   162
 71
     5
 42
0.6108507567414332
  3
ISO-25
100
AcDb2LineAngularDimension
 13
504.8000335772228
 23
320.0480747143287
 33
0.0
 14
523.8880650644419
 24
320.0480747143287
 34
0.0
 15
512.4745693862567
 25
325.4217085179813
 35
0.0
 16
537.7306641696543
 26
334.252604566122
 36
0.0
1001
ACAD
1000
DSTYLE
1002
{
1070
   340
1005
17
1002
}
  0
ARC
  5
240F
330
A
100
AcDbEntity
  8
0
370
     9
100
AcDbCircle
 10
504.7459763180337
 20
319.4540425047983
 30
0.0
 40
17.895
100
AcDbArc
 50
75.40207782665252
 51
79.26030000000569
  0
LINE
  5
2410
330
A
100
AcDbEntity
  8
CENTER
370
     9
100
AcDbLine
 10
504.8000335772228
 20
320.0480747143287
 30
0.0
 11
523.8880650644419
 21
320.0480747143287
 31
0.0
  0
ARC
  5
2411
330
A
100
AcDbEntity
  8
0
370
     9
100
AcDbCircle
 10
505.993533097202
 20
333.7155586668051
 30
0.0
 40
2.386
100
AcDbArc
 50
133.5540999999963
 51
36.37299999999712
  0
LINE
  5
2412
330
A
100
AcDbEntity
  8
CENTER
370
     9
100
AcDbLine
 10
504.8004963086791
 20
320.0482744957636
 30
0.0
 11
506.474681175516
 21
339.1842950882014
 31
0.0
  0
LINE
  5
2413
330
A
100
AcDbEntity
  8
CENTER
370
     9
100
AcDbLine
 10
504.8000335772228
 20
340.8686776837722
 30
0.0
 11
504.8000335772228
 21
317.6620747143287
 31
0.0
  0
LINE
  5
2414
330
A
100
AcDbEntity
  8
CENTER
370
     9
100
AcDbLine
 10
504.8000237556279
 20
320.0480992056155
 30
0.0
 11
504.8005034474296
 21
320.0484107112378
 31
0.0
  0
POINT
  5
2415
330
A
100
AcDbEntity
  8
CENTER
370
     9
100
AcDbPoint
 10
504.8000237556279
 20
320.0480992056155
 30
0.0
  0
ARC
  5
2416
330
A
100
AcDbEntity
  8
0
370
     9
100
AcDbCircle
 10
504.8005034474296
 20
320.0484107112378
 30
0.0
 40
19.08756161996962
100
AcDbArc
 50
93.98772363518139
 51
106.9523712559013
  0
LINE
  5
2417
330
A
100
AcDbEntity
  8
0
370
     9
100
AcDbLine
 10
503.473102282486
 20
339.0897608404553
 30
0.0
 11
503.3162243780723
 21
337.2918348118685
 31
0.0
  0
ARC
  5
2418
330
A
100
AcDbEntity
  8
0
370
     9
100
AcDbCircle
 10
504.7459763180337
 20
319.4540425047983
 30
0.0
 40
17.895
100
AcDbArc
 50
90.73860000000156
 51
94.5899029576115
  0
POINT
  5
2419
330
A
100
AcDbEntity
  8
0
370
     9
100
AcDbPoint
 10
505.7866186887194
 20
331.3380071127884
 30
0.0
  0
LINE
  5
241A
330
A
100
AcDbEntity
  8
0
370
     9
100
AcDbLine
 10
508.08167094448
 20
337.0347649018177
 30
0.0
 11
507.9144198085807
 21
335.1304219660319
 31
0.0
  0
LINE
  5
241B
330
A
100
AcDbEntity
  8
0
370
     9
100
AcDbLine
 10
504.5162919039781
 20
337.3466540966098
 30
0.0
 11
504.3503051554433
 21
335.4443346035815
 31
0.0
  0
DIMENSION
  5
241C
330
A
100
AcDbEntity
  8
AM_5
100
AcDbDimension
  2
*D6
 10
530.0243735990603
 20
334.0671877772142
 30
0.0
 11
533.4654967836346
 21
329.15204065545
 31
0.0
 70
   161
 71
     5
 42
4.998416543263354
  3
比例0.838
100
AcDbAlignedDimension
 13
518.5343851723802
 23
333.3041830901378
 33
0.0
 14
521.9552616746043
 24
328.4179554278468
 34
0.0
1001
ACAD
1000
DSTYLE
1002
{
1070
   140
1040
3.0
1002
}
  0
DIMENSION
  5
241D
330
A
100
AcDbEntity
  8
AM_5
100
AcDbDimension
  2
*D7
 10
524.2303721455673
 20
331.4682383730521
 30
0.0
 11
527.6713841935302
 21
326.5530134457699
 31
0.0
 70
   161
 71
     5
 42
2.998415518777209
  3
比例0.838
100
AcDbAlignedDimension
 13
517.8710475406858
 23
331.3839810462961
 33
0.0
 14
519.9230729831899
 24
328.4528182180854
 34
0.0
1001
ACAD
1000
DSTYLE
1002
{
1070
   140
1040
3.0
1002
}
  0
DIMENSION
  5
241E
330
A
100
AcDbEntity
  8
AM_5
100
AcDbDimension
  2
*D8
 10
516.6117805919543
 20
325.6010137940762
 30
0.0
 11
512.9766204139589
 21
340.2871960952452
 31
0.0
 70
   163
 71
     5
 42
3.998935999999945
  3
比例0.838
100
AcDbDiametricDimension
 15
515.46520507094
 25
330.2332215371087
 35
0.0
 40
0.0
1001
ACAD
1000
DSTYLE
1002
{
1070
   140
1040
3.0
1070
   340
1005
17
1002
}
  0
LINE
  5
241F
330
A
100
AcDbEntity
  8
CENTER
370
     9
100
AcDbLine
 10
512.4745693862567
 20
325.4217085179813
 30
0.0
 11
521.5379071593257
 21
331.7677303488721
 31
0.0
  0
ARC
  5
2420
330
A
100
AcDbEntity
  8
0
370
     9
100
AcDbCircle
 10
516.0384928314475
 20
327.9171176655922
 30
0.0
 40
2.386
100
AcDbArc
 50
83.5902999999984
 51
346.4100000000001
  0
DIMENSION
  5
2421
330
A
100
AcDbEntity
  8
AM_5
100
AcDbDimension
  2
*D9
 10
533.069241312424
 20
311.5640338565906
 30
0.0
 11
518.9348333298978
 21
302.3853329940814
 31
0.0
 70
   161
 71
     5
 42
6.498383455946934
  3
比例0.838
100
AcDbAlignedDimension
 13
514.305185510565
 23
326.2206277265263
 33
0.0
 14
520.8088301370414
 24
330.4440100299302
 34
0.0
1001
ACAD
1000
DSTYLE
1002
{
1070
   140
1040
3.0
1002
}
  0
DIMENSION
  5
2422
330
A
100
AcDbEntity
  8
AM_5
100
AcDbDimension
  2
*D10
 10
527.8112529142908
 20
316.2101256097523
 30
0.0
 11
517.8517289504468
 21
309.7425401749664
 31
0.0
 70
   161
  1
5
 71
     5
 42
4.923467134638533
  3
比例0.838
100
AcDbAlignedDimension
 13
524.7738160377005
 23
310.0998392723294
 33
0.0
 14
529.7012692714002
 24
313.2996633683963
 34
0.0
1001
ACAD
1000
DSTYLE
1002
{
1070
   140
1040
3.0
1002
}
  0
LINE
  5
2423
330
A
100
AcDbEntity
  8
AM_5
370
     9
100
AcDbLine
 10
520.2076112808566
 20
327.9190781739282
 30
0.0
 11
528.4277989800146
 21
315.2606978243273
 31
0.0
  0
POINT
  5
2424
330
A
100
AcDbEntity
  8
0
370
     9
100
AcDbPoint
 10
514.5726124963245
 20
326.8907199429118
 30
0.0
  0
ARC
  5
2425
330
A
100
AcDbEntity
  8
0
370
     9
100
AcDbCircle
 10
504.8005034474296
 20
320.0484107112378
 30
0.0
 40
19.08756161996962
100
AcDbArc
 50
359.9989914267084
 51
26.00704184122005
  0
LINE
  5
2426
330
A
100
AcDbEntity
  8
0
370
     9
100
AcDbLine
 10
521.9552616746043
 20
328.4179554278468
 30
0.0
 11
520.4761401236876
 21
327.3827505621668
 31
0.0
  0
ARC
  5
2427
330
A
100
AcDbEntity
  8
0
370
     9
100
AcDbCircle
 10
504.3114359282513
 20
319.7059437211656
 30
0.0
 40
17.895
100
AcDbArc
 50
25.40318910322307
 51
29.26100000000421
  0
LINE
  5
2428
330
A
100
AcDbEntity
  8
0
370
     9
100
AcDbLine
 10
519.9238410267924
 20
328.4522168204969
 30
0.0
 11
518.3572038783559
 21
327.355761699678
 31
0.0
  0
LINE
  5
2429
330
A
100
AcDbEntity
  8
0
370
     9
100
AcDbLine
 10
517.8710475406858
 20
331.3839810462961
 30
0.0
 11
516.3049704718235
 21
330.2885792819553
 31
0.0
  0
ARC
  5
242A
330
A
100
AcDbEntity
  8
0
370
     9
100
AcDbCircle
 10
504.8005034474296
 20
320.0484107112378
 30
0.0
 40
19.08756161996962
100
AcDbArc
 50
43.98513768692793
 51
76.00691759541978
  0
LINE
  5
242B
330
A
100
AcDbEntity
  8
0
370
     9
100
AcDbLine
 10
509.4159664244975
 20
338.5695475581879
 30
0.0
 11
509.2579959534962
 21
336.7708754660877
 31
0.0
  0
ARC
  5
242C
330
A
100
AcDbEntity
  8
0
370
     9
100
AcDbCircle
 10
504.3114359282513
 20
319.7059437211656
 30
0.0
 40
17.895
100
AcDbArc
 50
40.73999999999891
 51
44.59145658808227
  0
LINE
  5
242D
330
A
100
AcDbEntity
  8
0
370
     9
100
AcDbLine
 10
518.5343851723802
 20
333.3041830901378
 30
0.0
 11
517.0548072951897
 21
332.2692836912649
 31
0.0
  0
DIMENSION
  5
263C
330
A
100
AcDbEntity
  8
AM_5
100
AcDbDimension
  2
*D11
 10
626.8144383521407
 20
505.8901240366648
 30
0.0
 11
618.9648960293061
 21
508.6404685248537
 31
0.0
 70
    32
 71
     5
 42
2.0
  3
AM_ISO$0
100
AcDbAlignedDimension
 13
628.8144383521407
 23
493.8901240366647
 33
0.0
 14
626.8144383521407
 24
502.0862764593715
 34
0.0
 50
0.0000000000000114
100
AcDbRotatedDimension
1001
ACAD
1000
DSTYLE
1002
{
1070
   272
1070
     8
1002
}
  0
DIMENSION
  5
2668
330
A
100
AcDbEntity
  8
AM_5
100
AcDbDimension
  2
*D12
 10
626.8144383521407
 20
512.3901240366648
 30
0.0
 11
619.0419509787254
 21
515.1401240366648
 31
0.0
 70
    32
 71
     5
 42
2.999999999999772
  3
AM_ISO$0
100
AcDbAlignedDimension
 13
629.8144383521405
 23
492.8539320039698
 33
0.0
 14
626.8144383521407
 24
502.0862764593715
 34
0.0
100
AcDbRotatedDimension
1001
ACAD
1000
DSTYLE
1002
{
1070
   272
1070
     8
1002
}
  0
DIMENSION
  5
2825
330
A
100
AcDbEntity
  8
AM_5
100
AcDbDimension
  2
*D13
 10
668.8144383521405
 20
501.9799088456125
 30
0.0
 11
672.3144383521407
 21
504.7299088456126
 31
0.0
 70
    32
 71
     5
 42
7.000000000000227
  3
AM_ISO$0
100
AcDbAlignedDimension
 13
675.8144383521408
 23
495.6055143458383
 33
0.0
 14
668.8144383521405
 24
486.1088369175424
 34
0.0
 50
0.0000000000000114
100
AcDbRotatedDimension
1001
ACAD
1000
DSTYLE
1002
{
1070
   174
1070
     1
1002
}
  0
DIMENSION
  5
2857
330
A
100
AcDbEntity
  8
AM_5
100
AcDbDimension
  2
*D14
 10
652.3144383521405
 20
501.9799088456125
 30
0.0
 11
660.5644383521405
 21
501.9799088456125
 31
0.0
 70
   160
 71
     5
 42
16.5
  3
AM_ISO$0
100
AcDbAlignedDimension
 13
668.8144383521405
 23
486.1088369175424
 33
0.0
 14
652.3144383521405
 24
472.3281079103303
 34
0.0
100
AcDbRotatedDimension
1001
ACAD
1000
DSTYLE
1002
{
1070
   174
1070
     1
1002
}
  0
DIMENSION
  5
28A8
330
A
100
AcDbEntity
  8
AM_5
100
AcDbDimension
  2
*D15
 10
687.8144383521408
 20
453.6077558198493
 30
0.0
 11
685.0640938639517
 21
474.6066350828439
 31
0.0
 70
    32
  1
%%c<>
 71
     5
 42
41.99775852598896
  3
AM_ISO$0
100
AcDbAlignedDimension
 13
675.8144383521408
 23
495.6055143458383
 33
0.0
 14
675.8144383521405
 24
453.6077558198493
 34
0.0
 50
90.00000000000003
100
AcDbRotatedDimension
1001
ACAD
1000
DSTYLE
1002
{
1070
   271
1070
     0
1002
}
  0
LEADER
  5
28D6
330
A
100
AcDbEntity
  8
AM_5
100
AcDbLeader
  3
AM_ISO$7
 73
     0
 74
     0
 75
     1
 40
4.676852903476758
 41
55.29862204724413
 76
     3
 10
671.330221891724
 20
485.6946394169612
 30
0.0
 10
682.6053289275868
 20
498.2435397064389
 30
0.0
 10
685.6053289275869
 20
498.2435397064389
 30
0.0
340
28D7
1001
ACAD
1000
DSTYLE
1002
{
1070
   140
1040
3.5
1070
   174
1070
     1
1002
}
  0
MTEXT
  5
28D7
102
{ACAD_REACTORS
330
28D6
102
}
330
A
100
AcDbEntity
  8
AM_5
100
AcDbMText
 10
686.6053289275868
 20
499.2435397064389
 30
0.0
 40
3.5
 41
0.0
 71
     7
 72
     1
  1
M5*0.8(Finger Openingport)
 73
     1
 44
1.0
1001
ACAD
1000
MTEXTBEGIN
1070
    73
1070
     1
1070
    44
1040
1.0
1070
    74
1070
     0
1000
MTEXTEND
  0
DIMENSION
  5
2907
330
A
100
AcDbEntity
  8
AM_5
100
AcDbDimension
  2
*D16
 10
675.8144383521405
 20
421.8984133498639
 30
0.0
 11
651.017517614304
 21
421.8984133498639
 31
0.0
 70
   160
  1
(<>)
 71
     5
 42
49.0
  3
AM_ISO$0
100
AcDbAlignedDimension
 13
626.8144383521405
 23
412.1735680867268
 33
0.0
 14
675.8144383521405
 24
415.5754918753737
 34
0.0
 50
0.0000000000000114
100
AcDbRotatedDimension
1001
ACAD
1000
DSTYLE
1002
{
1070
   271
1070
     0
1002
}
  0
DIMENSION
  5
2945
330
A
100
AcDbEntity
  8
AM_5
100
AcDbDimension
  2
*D17
 10
644.3144383521405
 20
356.5754918753738
 30
0.0
 11
660.0644383521405
 21
359.3254918753738
 31
0.0
 70
    32
 71
     5
 42
31.5
  3
AM_ISO$0
100
AcDbAlignedDimension
 13
675.8144383521405
 23
373.5754918753737
 33
0.0
 14
644.3144383521405
 24
368.5754918753738
 34
0.0
 50
0.0000000000001132
100
AcDbRotatedDimension
  0
DIMENSION
  5
296D
330
A
100
AcDbEntity
  8
AM_5
100
AcDbDimension
  2
*D18
 10
641.6144383521404
 20
350.0754918753734
 30
0.0
 11
658.7144383521405
 21
352.8258363635623
 31
0.0
 70
    32
 71
     5
 42
34.20000000000005
  3
AM_ISO$0
100
AcDbAlignedDimension
 13
675.8144383521405
 23
373.5754918753737
 33
0.0
 14
641.6144383521404
 24
364.5754918753738
 34
0.0
 50
0.0000000000001132
100
AcDbRotatedDimension
1001
ACAD
1000
DSTYLE
1002
{
1070
   174
1070
     1
1002
}
  0
DIMENSION
  5
29AC
330
A
100
AcDbEntity
  8
AM_5
100
AcDbDimension
  2
*D19
 10
641.6144383521404
 20
350.0754918753734
 30
0.0
 11
637.7144383521405
 21
352.8254918753733
 31
0.0
 70
    32
 71
     5
 42
7.799999999999954
  3
AM_ISO$0
100
AcDbAlignedDimension
 13
633.8144383521405
 23
364.5754918753738
 33
0.0
 14
641.6144383521404
 24
364.5754918753738
 34
0.0
100
AcDbRotatedDimension
1001
ACAD
1000
DSTYLE
1002
{
1070
   174
1070
     1
1002
}
  0
DIMENSION
  5
2B5E
330
A
100
AcDbEntity
  8
AM_5
100
AcDbDimension
  2
*D20
 10
633.8144383521405
 20
356.5754918753742
 30
0.0
 11
624.1169509787253
 21
359.3254918753741
 31
0.0
 70
    32
 71
     5
 42
4.5
  3
AM_ISO$0
100
AcDbAlignedDimension
 13
638.3144383521405
 23
364.5754918753738
 33
0.0
 14
633.8144383521405
 24
364.5754918753738
 34
0.0
 50
0.0000000000001132
100
AcDbRotatedDimension
1001
ACAD
1000
DSTYLE
1002
{
1070
   173
1070
     1
1070
   343
1005
2B88
1002
}
  0
DIMENSION
  5
2BBD
330
A
100
AcDbEntity
  8
AM_5
100
AcDbDimension
  2
*D22
 10
619.420855984183
 20
372.5754918753738
 30
0.0
 11
619.4208559841829
 21
362.7259495525392
 31
0.0
 70
   160
  1
<>
 71
     5
 42
2.0
  3
AM_ISO$0
100
AcDbAlignedDimension
 13
626.8144383521405
 23
370.5754918753738
 33
0.0
 14
626.8144383521405
 24
372.5754918753738
 34
0.0
 50
90.00000000000003
100
AcDbRotatedDimension
1001
ACAD
1000
DSTYLE
1002
{
1070
   286
1070
     0
1070
   284
1070
     8
1070
    48
1040
0.1
1070
    47
1040
0.1
1070
   272
1070
     3
1070
   274
1070
     3
1002
}
  0
DIMENSION
  5
2BF4
330
A
100
AcDbEntity
  8
AM_5
100
AcDbDimension
  2
*D23
 10
614.8144383521405
 20
372.5754918753738
 30
0.0
 11
614.8144383521404
 21
375.5754918753738
 31
0.0
 70
   160
 71
     5
 42
6.0
  3
AM_ISO$0
100
AcDbAlignedDimension
 13
626.8144383521405
 23
378.5754918753738
 33
0.0
 14
626.8144383521405
 24
372.5754918753738
 34
0.0
 50
90.00000000000003
100
AcDbRotatedDimension
  0
DIMENSION
  5
2C63
330
A
100
AcDbEntity
  8
AM_5
100
AcDbDimension
  2
*D24
 10
608.3144383521405
 20
364.5754918753738
 30
0.0
 11
605.5644383521403
 21
379.5754918753738
 31
0.0
 70
    32
 71
     5
 42
30.0
  3
AM_ISO$0
100
AcDbAlignedDimension
 13
622.473483773249
 23
394.5754918753737
 33
0.0
 14
626.8144383521405
 24
364.5754918753738
 34
0.0
 50
89.99999999999992
100
AcDbRotatedDimension
  0
LINE
  5
2CD2
330
A
100
AcDbEntity
  8
CENTER
  6
CENTER
100
AcDbLine
 10
736.9311647120012
 20
411.6672632268325
 30
0.0
 11
744.0108082107554
 21
394.5754918753737
 31
0.0
  0
LINE
  5
2CD3
330
A
100
AcDbEntity
  8
CENTER
  6
CENTER
100
AcDbLine
 10
744.0108082107554
 20
394.5754918753737
 30
0.0
 11
751.1932312205943
 21
414.3090369118779
 31
0.0
  0
LINE
  5
2CD5
330
A
100
AcDbEntity
  8
CENTER
  6
CENTER
100
AcDbLine
 10
744.0108082107554
 20
394.5754918753737
 30
0.0
 11
736.8283852009163
 21
414.3090369118779
 31
0.0
  0
DIMENSION
  5
2CDB
330
A
100
AcDbEntity
  8
AM_5
100
AcDbDimension
  2
*D25
 10
736.8283852009163
 20
414.3090369118779
 30
0.0
 11
739.0615511979366
 21
422.6441231927873
 31
0.0
 70
    34
 71
     5
 42
0.3490658503988606
  3
AM_ISO$2
100
AcDb2LineAngularDimension
 13
744.0108082107554
 23
369.3591791136809
 33
0.0
 14
744.0108082107554
 24
411.7420410170613
 34
0.0
 15
744.0108082107554
 25
394.5754918753737
 35
0.0
 16
741.0212658296615
 26
420.152661570627
 36
0.0
  0
DIMENSION
  5
2D10
330
A
100
AcDbEntity
  8
AM_5
100
AcDbDimension
  2
*D26
 10
751.1932312205943
 20
414.3090369118779
 30
0.0
 11
748.9600652235737
 21
422.6441231927872
 31
0.0
 70
    34
 71
     5
 42
0.3490658503988608
  3
AM_ISO$2
100
AcDb2LineAngularDimension
 13
744.0108082107554
 23
369.3591791136809
 33
0.0
 14
744.0108082107554
 24
411.7420410170613
 34
0.0
 15
744.0108082107554
 25
394.5754918753737
 35
0.0
 16
749.9494645407501
 26
419.632653212252
 36
0.0
  0
DIMENSION
  5
2D45
330
A
100
AcDbEntity
  8
AM_5
100
AcDbDimension
  2
*D27
 10
744.0108082107554
 20
394.5754918753737
 30
0.0
 11
736.9025569845129
 21
430.3110839850139
 31
0.0
 70
    34
 71
     5
 42
0.3926990816987322
  3
AM_ISO$2
100
AcDb2LineAngularDimension
 13
744.0108082107554
 23
369.3591791136809
 33
0.0
 14
744.0108082107554
 24
411.7420410170613
 34
0.0
 15
736.9311647120012
 25
411.6672632268325
 35
0.0
 16
739.6139878382268
 26
427.9726583029208
 36
0.0
1001
ACAD
1000
DSTYLE
1002
{
1070
   179
1070
     2
1002
}
  0
DIMENSION
  5
2EB4
330
A
100
AcDbEntity
  8
AM_5
100
AcDbDimension
  2
*D28
 10
789.0725821999033
 20
392.1340419005744
 30
0.0
 11
788.1158736189902
 21
394.4437407318526
 31
0.0
 70
   161
 71
     5
 42
5.000000000000113
  3
AM_ISO$0
100
AcDbAlignedDimension
 13
749.5597179800487
 23
381.1792386539601
 33
0.0
 14
751.4731351418748
 24
376.5598409914038
 34
0.0
1001
ACAD
1000
DSTYLE
1002
{
1070
   174
1070
     1
1002
}
  0
DIMENSION
  5
2EE6
330
A
100
AcDbEntity
  8
AM_5
100
AcDbDimension
  2
*D29
 10
781.6102552687818
 20
410.1496927845417
 30
0.0
 11
786.9253788678353
 21
404.5039456128395
 31
0.0
 70
    32
 71
     5
 42
14.49999999999971
  3
AM_ISO$0
100
AcDbAlignedDimension
 13
749.5597179800488
 23
381.1792386539601
 33
0.0
 14
744.0108082107554
 24
394.5754918753737
 34
0.0
 50
112.5000000000057
100
AcDbRotatedDimension
1001
ACAD
1000
DSTYLE
1002
{
1070
   174
1070
     1
1002
}
  0
DIMENSION
  5
2F41
330
A
100
AcDbEntity
  8
AM_5
100
AcDbDimension
  2
*D30
 10
775.1046369185732
 20
425.855644837233
 30
0.0
 11
780.8981148080833
 21
419.0550482498916
 31
0.0
 70
    32
 71
     5
 42
17.00000000000028
  3
AM_ISO$0
100
AcDbAlignedDimension
 13
744.0108082107554
 23
394.5754918753737
 33
0.0
 14
737.5051898605487
 24
410.2814439280657
 34
0.0
 50
112.5000000000057
100
AcDbRotatedDimension
1001
ACAD
1000
DSTYLE
1002
{
1070
   174
1070
     1
1002
}
  0
DIMENSION
  5
2F67
330
A
100
AcDbEntity
  8
AM_5
100
AcDbDimension
  2
*D31
 10
729.2883763464196
 20
403.0754918753736
 30
0.0
 11
707.4145119475384
 21
384.8094098243827
 31
0.0
 70
   164
  1
3-M4*0.7
 71
     5
 42
1.999999999999772
  3
AM_ISO$4
100
AcDbRadialDimension
 15
728.2048183188205
 25
401.3944499363296
 35
0.0
 40
0.0
  0
MTEXT
  5
2FC3
330
A
100
AcDbEntity
  8
AM_5
100
AcDbMText
 10
699.0592236488849
 20
383.46777359798
 30
0.0
 40
3.5
 41
31.96666666666667
 71
     1
 72
     5
  1
P.C.D%%C34
 73
     1
 44
1.0
1001
ACAD
1000
MTEXTBEGIN
1070
    73
1070
     1
1070
    44
1040
1.0
1070
    74
1070
     0
1000
MTEXTEND
  0
DIMENSION
  5
3014
330
A
100
AcDbEntity
  8
AM_5
100
AcDbDimension
  2
*D32
 10
738.6946136478825
 20
409.3675122817571
 30
0.0
 11
711.7297402606141
 21
421.0672376978901
 31
0.0
 70
   163
  1
<>*3depth
 71
     5
 42
2.999999999999886
  3
AM_ISO$3
100
AcDbDiametricDimension
 15
736.3157660732152
 25
411.1953755743745
 35
0.0
 40
0.0
  0
DIMENSION
  5
305D
330
A
100
AcDbEntity
  8
AM_5
100
AcDbDimension
  2
*D33
 10
734.7531147550713
 20
403.7021074518396
 30
0.0
 11
777.6586544509861
 21
375.564116432098
 31
0.0
 70
   163
  1
<>*1.5depth
 71
     5
 42
26.0
  3
AM_ISO$3
100
AcDbDiametricDimension
 15
753.2685016664389
 25
385.4488762989078
 35
0.0
 40
0.0
1001
ACAD
1000
DSTYLE
1002
{
1070
   172
1070
     1
1002
}
  0
DIMENSION
  5
3101
330
A
100
AcDbEntity
  8
AM_5
100
AcDbDimension
  2
*D34
 10
531.2002263679148
 20
421.4677395717307
 30
0.0
 11
525.5686565075076
 21
417.213574447132
 31
0.0
 70
    33
 71
     5
 42
13.0
  3
AM_ISO$0
100
AcDbAlignedDimension
 13
535.0925312133283
 23
404.209409322533
 33
0.0
 14
541.5925312133283
 24
415.4677395717307
 34
0.0
  0
DIMENSION
  5
3129
330
A
100
AcDbEntity
  8
AM_5
100
AcDbDimension
  2
*D35
 10
527.0710612433251
 20
427.3158157830792
 30
0.0
 11
519.9394913829179
 21
420.4635744471273
 31
0.0
 70
    33
 71
     5
 42
18.99999999999954
  3
AM_ISO$0
100
AcDbAlignedDimension
 13
538.6135104081386
 23
398.712469421461
 33
0.0
 14
548.1135104081385
 24
415.1669520933649
 34
0.0
  0
DIMENSION
  5
315D
330
A
100
AcDbEntity
  8
AM_5
100
AcDbDimension
  2
*D36
 10
589.8606552630309
 20
399.7215187782807
 30
0.0
 11
525.2405578358122
 21
387.3656482228481
 31
0.0
 70
   163
 71
     5
 42
52.00000000000023
  3
AM_ISO$3
100
AcDbDiametricDimension
 15
538.7859313906924
 25
389.9556301159826
 35
0.0
 40
0.0
1001
ACAD
1000
DSTYLE
1002
{
1070
    74
1070
     0
1070
   172
1070
     1
1002
}
  0
ARC
  5
3180
330
A
100
AcDbEntity
  8
CENTER
100
AcDbCircle
 10
564.3232933268616
 20
394.8385744471316
 30
0.0
 40
26.00000000000005
100
AcDbArc
 50
172.3114871946387
 51
195.6623837549034
  0
DIMENSION
  5
319E
330
A
100
AcDbEntity
  8
AM_5
100
AcDbDimension
  2
*D37
 10
550.8152802739866
 20
388.2326934904785
 30
0.0
 11
528.9089832835363
 21
372.3739493439749
 31
0.0
 70
   163
  1
3-<>\P%%c8*8depth
 71
     5
 42
4.499999999999886
  3
AM_ISO$3
100
AcDbDiametricDimension
 15
548.3864426510647
 25
384.4444554037846
 35
0.0
 40
0.0
  0
MTEXT
  5
31E9
330
A
100
AcDbEntity
  8
AM_5
100
AcDbMText
 10
521.1828750604492
 20
371.642085818081
 30
0.0
 40
3.5
 41
61.42888888888889
 71
     1
 72
     5
  1
P.C.D%%C34
 73
     1
 44
1.0
1001
ACAD
1000
MTEXTBEGIN
1070
    73
1070
     1
1070
    44
1040
1.0
1070
    74
1070
     0
1000
MTEXTEND
  0
DIMENSION
  5
320F
330
A
100
AcDbEntity
  8
AM_5
100
AcDbDimension
  2
*D38
 10
567.3232933268616
 20
352.8385744471316
 30
0.0
 11
564.3232933268616
 21
355.5885744471317
 31
0.0
 70
    32
 71
     5
 42
6.000000000000113
  3
AM_ISO$0
100
AcDbAlignedDimension
 13
561.3232933268615
 23
364.8385744471316
 33
0.0
 14
567.3232933268616
 24
364.8385744471316
 34
0.0
 50
0.0000000000001132
100
AcDbRotatedDimension
  0
DIMENSION
  5
323B
330
A
100
AcDbEntity
  8
AM_5
100
AcDbDimension
  2
*D39
 10
582.8232933268616
 20
367.8385744471317
 30
0.0
 11
582.8232933268615
 21
357.0660870737164
 31
0.0
 70
   160
 71
     5
 42
3.0
  3
AM_ISO$0
100
AcDbAlignedDimension
 13
570.8232933268616
 23
364.8385744471316
 33
0.0
 14
564.3232933268616
 24
367.8385744471317
 34
0.0
 50
90.00000000000003
100
AcDbRotatedDimension
1001
ACAD
1000
DSTYLE
1002
{
1070
   173
1070
     1
1070
   174
1070
     1
1070
   344
1005
10CF
1002
}
  0
DIMENSION
  5
3299
330
A
100
AcDbEntity
  8
AM_5
100
AcDbDimension
  2
*D40
 10
582.8232933268616
 20
375.8385744471316
 30
0.0
 11
580.0732933268615
 21
371.8385744471317
 31
0.0
 70
    32
 71
     5
 42
8.0
  3
AM_ISO$0
100
AcDbAlignedDimension
 13
564.3232933268616
 23
367.8385744471317
 33
0.0
 14
564.3232933268616
 24
375.8385744471316
 34
0.0
 50
90.0
100
AcDbRotatedDimension
1001
ACAD
1000
DSTYLE
1002
{
1070
   173
1070
     1
1070
   174
1070
     1
1070
   343
1005
10CF
1002
}
  0
ARC
  5
32EE
330
A
100
AcDbEntity
  8
0
  6
Continuous
 62
     7
100
AcDbCircle
 10
564.3232933268616
 20
394.8385744471316
 30
0.0
 40
21.30000000000003
100
AcDbArc
 50
312.7403934474574
 51
319.1759609413338
  0
DIMENSION
  5
3304
330
A
100
AcDbEntity
  8
AM_5
100
AcDbDimension
  2
*D41
 10
576.5102057979277
 20
377.369482758593
 30
0.0
 11
534.516927401941
 21
428.2296992607885
 31
0.0
 70
   163
 71
     5
 42
42.59999999999997
  3
AM_ISO$3
100
AcDbDiametricDimension
 15
552.1363808557954
 25
412.3076661356703
 35
0.0
 40
0.0
1001
ACAD
1000
DSTYLE
1002
{
1070
   172
1070
     1
1002
}
  0
LEADER
  5
333B
330
A
100
AcDbEntity
  8
AM_5
100
AcDbLeader
  3
AM_ISO$7
 73
     0
 74
     0
 75
     1
 40
4.676852903476758
 41
55.29862204724413
 76
     3
 10
652.9385488497406
 20
462.9796454005302
 30
0.0
 10
665.8441780448713
 20
441.7646114454974
 30
0.0
 10
668.8441780448713
 20
441.7646114454974
 30
0.0
340
333C
1001
ACAD
1000
DSTYLE
1002
{
1070
   140
1040
3.5
1070
   174
1070
     1
1002
}
  0
MTEXT
  5
333C
102
{ACAD_REACTORS
330
333B
102
}
330
A
100
AcDbEntity
  8
AM_5
100
AcDbMText
 10
669.8441780448713
 20
442.7646114454975
 30
0.0
 40
3.5
 41
0.0
 71
     7
 72
     1
  1
M5*0.8(Finger Openingport)
 73
     1
 44
1.0
1001
ACAD
1000
MTEXTBEGIN
1070
    73
1070
     1
1070
    44
1040
1.0
1070
    74
1070
     0
1000
MTEXTEND
  0
ENDSEC
  0
SECTION
  2
OBJECTS
  0
DICTIONARY
  5
19
330
0
100
AcDbDictionary
281
     1
  3
ACAD_COLOR
350
ECA
  3
ACAD_GROUP
350
1A
  3
ACAD_LAYOUT
350
1E
  3
ACAD_MATERIAL
350
EC9
  3
ACAD_MLINESTYLE
350
1B
  3
ACAD_PLOTSETTINGS
350
22
  3
ACAD_PLOTSTYLENAME
350
1F
  3
ACAD_TABLESTYLE
350
ECB
  3
ACAD_WIPEOUT_VARS
350
23
  3
AcadDim
350
28D5
  3
ACDBHEADERROUNDTRIPXREC
350
3470
  3
AcDbVariableDictionary
350
1257
  3
AcmDictionary
350
F90
  3
AMG
350
ED2
  3
AMGSNAPSETTINGS
350
FD1
  3
DWGPROPS
350
346F
  3
MAPISURF_MODULE
350
F5E
  0
DICTIONARY
  5
1002
330
2
100
AcDbDictionary
280
     1
281
     1
  3
ACAD_LAYERFILTERS
360
1004
  3
ACAD_LAYERSTATES
360
1B79
  3
ACLYDICTIONARY
360
1003
  3
AMLAYER_GROUPCOLORS
360
16D2
  0
DICTIONARY
  5
9C9
330
A
100
AcDbDictionary
280
     1
281
     1
  3
ACAD_INDEX
360
124F
  3
ACAD_LAYOUTSELFREF
360
A64
  3
ACAD_SORTENTS
360
1711
  0
DICTIONARY
  5
9CB
330
B
100
AcDbDictionary
280
     1
281
     1
  3
ACAD_LAYOUTSELFREF
360
A65
  0
DICTIONARY
  5
ECA
102
{ACAD_REACTORS
330
19
102
}
330
19
100
AcDbDictionary
281
     1
  0
DICTIONARY
  5
1A
102
{ACAD_REACTORS
330
19
102
}
330
19
100
AcDbDictionary
281
     1
  0
DICTIONARY
  5
1E
102
{ACAD_REACTORS
330
19
102
}
330
19
100
AcDbDictionary
281
     1
  3
Model
350
A68
  3
配置1
350
A69
  0
DICTIONARY
  5
EC9
102
{ACAD_REACTORS
330
19
102
}
330
19
100
AcDbDictionary
281
     1
  0
DICTIONARY
  5
1B
102
{ACAD_REACTORS
330
19
102
}
330
19
100
AcDbDictionary
281
     1
  3
STANDARD
350
1C
  0
DICTIONARY
  5
22
102
{ACAD_REACTORS
330
19
102
}
330
19
100
AcDbDictionary
281
     1
  0
ACDBDICTIONARYWDFLT
  5
1F
102
{ACAD_REACTORS
330
19
102
}
330
19
100
AcDbDictionary
281
     1
  3
Normal
350
1D
100
AcDbDictionaryWithDefault
340
1D
  0
DICTIONARY
  5
ECB
102
{ACAD_REACTORS
330
19
102
}
330
19
100
AcDbDictionary
281
     1
  3
Standard
350
ECC
  0
WIPEOUTVARIABLES
  5
23
330
19
100
AcDbWipeoutVariables
 70
     1
  0
XRECORD
  5
28D5
102
{ACAD_REACTORS
330
19
102
}
330
19
100
AcDbXrecord
280
     1
 90
   990106
  3

 60
     0
 61
     0
 62
     4
 63
     4
 64
     1
 65
     0
 66
     0
 67
     3
 68
     0
 69
     0
 70
     0
 71
     0
 72
     0
 40
0.0
170
     2
340
0
  0
DICTIONARY
  5
3470
102
{ACAD_REACTORS
330
19
102
}
330
19
100
AcDbDictionary
281
     1
  0
DICTIONARY
  5
1257
102
{ACAD_REACTORS
330
19
102
}
330
19
100
AcDbDictionary
281
     1
  3
CTABLESTYLE
350
1258
  3
DIMASSOC
350
346C
  3
INDEXCTL
350
346B
  3
PROJECTNAME
350
346D
  0
DICTIONARY
  5
F90
102
{ACAD_REACTORS
330
19
102
}
330
19
100
AcDbDictionary
281
     1
  3
AcmStdDictionary
350
F9E
  3
AMDTSECTSYM_ARROWCOLOR
350
FBC
  0
DICTIONARY
  5
ED2
102
{ACAD_REACTORS
330
19
102
}
330
19
100
AcDbDictionary
281
     1
  3
AcMgSettings
350
ED3
  0
DICTIONARY
  5
FD1
102
{ACAD_REACTORS
330
19
102
}
330
19
100
AcDbDictionary
281
     1
  3
DIMENSION
350
FD6
  3
FEA
350
FD5
  3
HATCH (1)
350
FD2
  3
HATCH (2)
350
FD3
  3
SIMPLE WELD
350
FD7
  3
SYMBOLS
350
FD4
  0
XRECORD
  5
346F
102
{ACAD_REACTORS
330
19
102
}
330
19
100
AcDbXrecord
280
     1
  1
DWGPROPS COOKIE
  2

  3

  4

  6

  7

  8

  9

300
AmdtFileType=84
301
=
302
=
303
=
304
=
305
=
306
=
307
=
308
=
309
=
 40
0.2197195949074074
 41
2452359.824870255
 42
2455323.553722003
  1

 90
        1
  0
DICTIONARY
  5
1004
102
{ACAD_REACTORS
330
1002
102
}
330
1002
100
AcDbDictionary
281
     1
  0
DICTIONARY
  5
1B79
102
{ACAD_REACTORS
330
1002
102
}
330
1002
100
AcDbDictionary
281
     1
  0
DICTIONARY
  5
1003
102
{ACAD_REACTORS
330
1002
102
}
330
1002
100
AcDbDictionary
281
     1
1001
ACAD
1000
<All
  0
DICTIONARY
  5
16D2
102
{ACAD_REACTORS
330
1002
102
}
330
1002
100
AcDbDictionary
280
     1
281
     1
  0
DICTIONARY
  5
124F
102
{ACAD_REACTORS
330
9C9
102
}
330
9C9
100
AcDbDictionary
281
     1
  3
*A1
350
1250
  0
XRECORD
  5
A64
102
{ACAD_REACTORS
330
9C9
102
}
330
9C9
100
AcDbXrecord
280
     1
340
A
  0
SORTENTSTABLE
  5
1711
102
{ACAD_REACTORS
330
9C9
102
}
330
9C9
100
AcDbSortentsTable
330
A
331
1C20
  5
1C21
331
1C21
  5
1C22
331
1C40
  5
1C41
331
1C22
  5
1C23
331
1C41
  5
1C42
331
1C60
  5
1C61
331
3014
  5
305D
331
2EE6
  5
2F41
331
1C23
  5
1C24
331
1C42
  5
1C43
331
1C61
  5
1C62
331
1C80
  5
1C84
331
3129
  5
315D
331
2CD2
  5
A2F
331
1C24
  5
1C25
331
1C43
  5
1C44
331
1C62
  5
1C63
331
1C98
  5
1C99
331
3180
  5
319E
331
2F67
  5
2FC3
331
2BF4
  5
2CD2
331
2B5E
  5
2BF4
331
2CD3
  5
2CD5
331
2188
  5
218A
331
1C25
  5
1C26
331
1C44
  5
1C45
331
1C63
  5
1C64
331
1C99
  5
1C9A
331
2189
  5
218B
331
21A8
  5
21AA
331
1C26
  5
1C27
331
1C45
  5
1C46
331
1C64
  5
1C68
331
1C9A
  5
1C9B
331
2CD5
  5
2CDB
331
31E9
  5
320F
331
218A
  5
218C
331
21A9
  5
21AB
331
21C8
  5
21CA
331
1C27
  5
1C28
331
1C46
  5
1C47
331
1C84
  5
1C85
331
1C9B
  5
2171
331
218B
  5
218D
331
21AA
  5
21AC
331
1C47
  5
1C48
331
1C85
  5
1C86
331
21C9
  5
21CB
331
21E0
  5
21E2
331
1C28
  5
1C29
331
3299
  5
32EE
331
21CA
  5
21CC
331
21E1
  5
21E3
331
2200
  5
2202
331
218C
  5
218E
331
21AB
  5
21AD
331
1C29
  5
1C2A
331
1C48
  5
1C49
331
1C86
  5
1C8A
331
21E2
  5
21E4
331
2201
  5
2203
331
2220
  5
2222
331
1C2A
  5
1C2B
331
1C49
  5
1C4A
331
1C68
  5
1C6C
331
218D
  5
218F
331
21AC
  5
21AE
331
21CB
  5
21CD
331
3101
  5
3129
331
2240
  5
2242
331
1C2B
  5
1C2C
331
1C4A
  5
1C4B
331
218E
  5
2190
331
21AD
  5
21AF
331
21CC
  5
21CE
331
21E3
  5
21E5
331
2202
  5
2204
331
2221
  5
2223
331
2258
  5
225A
331
1C2C
  5
1C2D
331
1C4B
  5
1C4C
331
218F
  5
2191
331
21AE
  5
21B0
331
21CD
  5
21CF
331
21E4
  5
21E6
331
2203
  5
2205
331
2222
  5
2224
331
2241
  5
2243
331
2171
  5
2172
331
2190
  5
2192
331
21AF
  5
21B1
331
1C2D
  5
1C2E
331
1C4C
  5
1C4D
331
1C8A
  5
1C8B
331
21CE
  5
21D0
331
21E5
  5
21E7
331
2204
  5
2206
331
2223
  5
2225
331
2242
  5
2244
331
2259
  5
225B
331
2278
  5
227A
331
2172
  5
2173
331
2191
  5
2193
331
21B0
  5
21B2
331
1C2E
  5
1C2F
331
1C4D
  5
1C4E
331
1C6C
  5
1C6D
331
1C8B
  5
1C8C
331
21CF
  5
21D1
331
21E6
  5
21E8
331
2205
  5
2207
331
2224
  5
2226
331
2243
  5
2245
331
225A
  5
225C
331
2279
  5
227B
331
2298
  5
229A
331
2173
  5
2174
331
2192
  5
2194
331
21B1
  5
21B3
331
1C2F
  5
1C30
331
1C4E
  5
1C4F
331
1C6D
  5
1C71
331
1C8C
  5
1C8D
331
21D0
  5
21D2
331
21E7
  5
21E9
331
2206
  5
2208
331
2225
  5
2227
331
2244
  5
2246
331
225B
  5
225D
331
227A
  5
227C
331
2299
  5
229B
331
22B8
  5
22BA
331
2193
  5
2195
331
21B2
  5
21B4
331
21D1
  5
21D3
331
21E8
  5
21EA
331
2207
  5
2209
331
2226
  5
2228
331
2245
  5
2247
331
225C
  5
225E
331
227B
  5
227D
331
229A
  5
229C
331
22B9
  5
22BB
331
1C8D
  5
1C8E
331
2174
  5
2175
331
1C30
  5
1C31
331
1C4F
  5
1C50
331
21D2
  5
21D4
331
21E9
  5
21EB
331
2208
  5
220A
331
2227
  5
2229
331
2246
  5
2248
331
225D
  5
225F
331
227C
  5
227E
331
229B
  5
229D
331
22BA
  5
22BC
331
2175
  5
2176
331
2194
  5
2196
331
21B3
  5
21B5
331
1C31
  5
1C32
331
1C50
  5
1C51
331
1C8E
  5
1C8F
331
2209
  5
220B
331
2228
  5
222A
331
2247
  5
2249
331
225E
  5
2260
331
227D
  5
227F
331
229C
  5
229E
331
22BB
  5
22BD
331
2176
  5
2177
331
2195
  5
2197
331
21B4
  5
21B6
331
1C32
  5
1C33
331
1C51
  5
1C52
331
1C8F
  5
1C90
331
21D3
  5
21D5
331
21EA
  5
21EC
331
319E
  5
31E9
331
2248
  5
224A
331
225F
  5
2261
331
227E
  5
2280
331
229D
  5
229F
331
22BC
  5
22BE
331
2177
  5
2178
331
2196
  5
2198
331
21B5
  5
21B7
331
1C33
  5
1C34
331
1C52
  5
1C53
331
1C71
  5
1C72
331
1C90
  5
1C91
331
21D4
  5
21D6
331
21EB
  5
21ED
331
220A
  5
220C
331
2229
  5
222B
331
227F
  5
2281
331
229E
  5
22A0
331
22BD
  5
22BF
331
2312
  5
2314
331
2178
  5
2179
331
2197
  5
2199
331
21B6
  5
21B8
331
1C34
  5
1C35
331
1C53
  5
1C54
331
1C72
  5
1C73
331
1C91
  5
1C92
331
21D5
  5
21D7
331
21EC
  5
21EE
331
220B
  5
220D
331
222A
  5
222C
331
2249
  5
224B
331
2260
  5
2262
331
320F
  5
323B
331
22BE
  5
22C0
331
2313
  5
2315
331
2179
  5
217B
331
2198
  5
219A
331
21B7
  5
21B9
331
1C35
  5
1C36
331
1C54
  5
1C55
331
1C73
  5
1C74
331
1C92
  5
1C93
331
21D6
  5
21D8
331
21ED
  5
21EF
331
220C
  5
220E
331
222B
  5
222D
331
224A
  5
224C
331
2261
  5
2263
331
2280
  5
2282
331
229F
  5
22A1
331
2314
  5
2316
331
2388
  5
238A
331
217A
  5
217C
331
2199
  5
219B
331
21B8
  5
21BA
331
1C36
  5
1C37
331
1C55
  5
1C56
331
1C74
  5
1C75
331
1C93
  5
1C94
331
21D7
  5
21D9
331
21EE
  5
21F0
331
220D
  5
220F
331
222C
  5
222E
331
224B
  5
224D
331
2262
  5
2264
331
2281
  5
2283
331
22A0
  5
22A2
331
22BF
  5
22C1
331
2315
  5
2317
331
2389
  5
238B
331
217B
  5
217D
331
219A
  5
219C
331
21B9
  5
21BB
331
1C37
  5
1C38
331
1C56
  5
1C57
331
1C75
  5
1C76
331
1C94
  5
1C95
331
21D8
  5
21DA
331
21EF
  5
21F1
331
220E
  5
2210
331
222D
  5
222F
331
224C
  5
224E
331
2263
  5
2265
331
2282
  5
2284
331
22A1
  5
22A3
331
22C0
  5
22C2
331
1C11
  5
1C12
331
2316
  5
2318
331
238A
  5
238C
331
219B
  5
219D
331
21BA
  5
21BC
331
21D9
  5
21DB
331
21F0
  5
21F2
331
220F
  5
2211
331
222E
  5
2230
331
224D
  5
224F
331
2264
  5
2266
331
2283
  5
2285
331
22A2
  5
22A4
331
22C1
  5
22C3
331
1C76
  5
1C77
331
1C95
  5
1C96
331
217C
  5
217E
331
1C38
  5
1C39
331
1C57
  5
1C58
331
1C12
  5
1C13
331
238B
  5
238D
331
21DA
  5
21DC
331
21F1
  5
21F3
331
2210
  5
2212
331
222F
  5
2231
331
224E
  5
2250
331
2265
  5
2267
331
2284
  5
2286
331
22A3
  5
22A5
331
22C2
  5
22C4
331
217D
  5
217F
331
219C
  5
219E
331
21BB
  5
21BD
331
2317
  5
2319
331
1C39
  5
1C3A
331
1C58
  5
1C59
331
1C77
  5
1C78
331
1C96
  5
1C97
331
323B
  5
3299
331
1C13
  5
1C14
331
238C
  5
238E
331
2400
  5
2402
331
2211
  5
2213
331
2230
  5
2232
331
224F
  5
2251
331
2266
  5
2268
331
2285
  5
2287
331
22A4
  5
22A6
331
22C3
  5
22C5
331
2318
  5
231A
331
217E
  5
2180
331
219D
  5
219F
331
21BC
  5
21BE
331
1C3A
  5
1C3B
331
1C59
  5
1C5A
331
1C78
  5
1C7C
331
1C97
  5
1C98
331
21DB
  5
21DD
331
21F2
  5
21F4
331
18EE
  5
18EF
331
1C14
  5
1C15
331
2401
  5
2403
331
2420
  5
2422
331
2250
  5
2252
331
2267
  5
2269
331
2286
  5
2288
331
22A5
  5
22A7
331
22C4
  5
22C6
331
2319
  5
2343
331
217F
  5
2181
331
1C3B
  5
1C3C
331
1C5A
  5
1C5B
331
219E
  5
21A0
331
21BD
  5
21BF
331
21DC
  5
21DE
331
21F3
  5
21F5
331
2212
  5
2214
331
2231
  5
2233
331
238D
  5
238F
331
1C15
  5
1C16
331
18EF
  5
18FF
331
2402
  5
2404
331
2421
  5
2423
331
2287
  5
2289
331
22A6
  5
22A8
331
22C5
  5
22C7
331
231A
  5
235E
331
238E
  5
2390
331
2180
  5
2182
331
1C3C
  5
1C3D
331
1C5B
  5
1C5C
331
219F
  5
21A1
331
21BE
  5
21C0
331
21DD
  5
21DF
331
21F4
  5
21F6
331
2213
  5
2215
331
2232
  5
2234
331
2251
  5
2253
331
2268
  5
226A
331
1C16
  5
1C17
331
2422
  5
2424
331
22C6
  5
22C8
331
238F
  5
2391
331
2181
  5
2183
331
1C3D
  5
1C3E
331
1C5C
  5
1C5D
331
21A0
  5
21A2
331
21BF
  5
21C1
331
21DE
  5
21E0
331
21F5
  5
21F7
331
2214
  5
2216
331
2233
  5
2235
331
2252
  5
2254
331
2269
  5
226B
331
2288
  5
228A
331
22A7
  5
22A9
331
2403
  5
2405
331
1C17
  5
1C18
331
2390
  5
2392
331
23AF
  5
23D3
331
2404
  5
2406
331
2182
  5
2184
331
21A1
  5
21A3
331
1C3E
  5
1C3F
331
1C5D
  5
1C5E
331
1C7C
  5
1C80
331
21C0
  5
21C2
331
21DF
  5
21E1
331
21F6
  5
21F8
331
2215
  5
2217
331
2234
  5
2236
331
2253
  5
2255
331
226A
  5
226C
331
2289
  5
228B
331
22A8
  5
22AA
331
22C7
  5
22C9
331
2423
  5
2425
331
32EE
  5
217A
331
1C18
  5
1C19
331
2391
  5
2393
331
23E6
  5
23E8
331
2405
  5
2407
331
2183
  5
2185
331
1C3F
  5
1C40
331
1C5E
  5
1C5F
331
21A2
  5
21A4
331
21C1
  5
21C3
331
21F7
  5
21F9
331
2216
  5
2218
331
2235
  5
2237
331
2254
  5
2256
331
226B
  5
226D
331
228A
  5
228C
331
22A9
  5
22AB
331
22C8
  5
22CA
331
2424
  5
2426
331
315D
  5
3180
331
1C19
  5
1C1A
331
2392
  5
2394
331
23E7
  5
23E9
331
2406
  5
2408
331
21A3
  5
21A5
331
21C2
  5
21C4
331
21F8
  5
21FA
331
2217
  5
2219
331
2236
  5
2238
331
2255
  5
2257
331
226C
  5
226E
331
228B
  5
228D
331
22AA
  5
22AC
331
22C9
  5
22CB
331
2425
  5
2427
331
2184
  5
2186
331
1C5F
  5
1C60
331
1C1A
  5
1C1B
331
2393
  5
2395
331
23E8
  5
23EA
331
2407
  5
2409
331
21F9
  5
21FB
331
2218
  5
221A
331
2237
  5
2239
331
2256
  5
2258
331
226D
  5
226F
331
228C
  5
228E
331
22AB
  5
22AD
331
22CA
  5
22CC
331
2426
  5
2428
331
2185
  5
2187
331
21A4
  5
21A6
331
21C3
  5
21C5
331
1C1B
  5
1C1C
331
263C
  5
2825
331
2394
  5
2396
331
23E9
  5
23EB
331
2408
  5
240A
331
2219
  5
221B
331
2238
  5
223A
331
2257
  5
2259
331
226E
  5
2270
331
228D
  5
228F
331
22AC
  5
22AE
331
22CB
  5
22E7
331
2427
  5
2429
331
2186
  5
2188
331
21A5
  5
21A7
331
21C4
  5
21C6
331
21FA
  5
21FC
331
1C1C
  5
1C1D
331
23EA
  5
23EC
331
2409
  5
240B
331
2428
  5
242A
331
226F
  5
2271
331
228E
  5
2290
331
22AD
  5
22AF
331
22CC
  5
22E8
331
2187
  5
2189
331
21A6
  5
21A8
331
21C5
  5
21C7
331
21FB
  5
21FD
331
221A
  5
221C
331
2239
  5
223B
331
2395
  5
2397
331
1C1D
  5
1C1E
331
18FF
  5
197A
331
2825
  5
28A8
331
23EB
  5
23ED
331
240A
  5
240C
331
2429
  5
242B
331
228F
  5
2291
331
22AE
  5
22B0
331
2396
  5
2398
331
21A7
  5
21A9
331
21C6
  5
21C8
331
21FC
  5
21FE
331
221B
  5
221D
331
223A
  5
223C
331
2270
  5
2272
331
1C1E
  5
1C1F
331
242A
  5
242C
331
2397
  5
2399
331
23EC
  5
23EE
331
21C7
  5
21C9
331
21FD
  5
21FF
331
221C
  5
221E
331
223B
  5
223D
331
2271
  5
2273
331
2290
  5
2292
331
22AF
  5
22B1
331
240B
  5
240D
331
1C1F
  5
1C20
331
2343
  5
2381
331
2398
  5
239A
331
23ED
  5
23EF
331
21FE
  5
2200
331
221D
  5
221F
331
223C
  5
223E
331
2272
  5
2274
331
2291
  5
2293
331
22B0
  5
22B2
331
240C
  5
240E
331
242B
  5
242D
331
29AC
  5
2BBD
331
2945
  5
29AC
331
28D6
  5
2907
331
2399
  5
239B
331
23EE
  5
23F0
331
240D
  5
240F
331
242C
  5
263C
331
21FF
  5
2201
331
221E
  5
2220
331
223D
  5
223F
331
2273
  5
2275
331
2292
  5
2294
331
22B1
  5
22B3
331
22E7
  5
22E9
331
28D7
  5
2945
331
239A
  5
239C
331
23EF
  5
23F1
331
240E
  5
2410
331
242D
  5
2668
331
221F
  5
2221
331
223E
  5
2240
331
2274
  5
2276
331
2293
  5
2295
331
22B2
  5
22B4
331
22E8
  5
2312
331
239B
  5
239D
331
23F0
  5
23F2
331
240F
  5
2411
331
223F
  5
2241
331
2275
  5
2277
331
2294
  5
2296
331
22B3
  5
22B5
331
22E9
  5
2313
331
239C
  5
239E
331
23D2
  5
23D4
331
23F1
  5
23F3
331
2410
  5
2412
331
2276
  5
2278
331
2295
  5
2297
331
22B4
  5
22B6
331
235E
  5
2382
331
23D3
  5
23D5
331
23F2
  5
23F4
331
2411
  5
2413
331
2277
  5
2279
331
2296
  5
2298
331
22B5
  5
22B7
331
239D
  5
239F
331
23F3
  5
23F5
331
2412
  5
2414
331
2297
  5
2299
331
22B6
  5
22B8
331
239E
  5
23A0
331
23D4
  5
23D6
331
2CDB
  5
2D10
331
239F
  5
23A1
331
23D5
  5
23D7
331
23F4
  5
23F6
331
22B7
  5
22B9
331
2413
  5
2415
331
2F41
  5
2F67
331
2668
  5
2857
331
2381
  5
2383
331
23A0
  5
23A2
331
23D6
  5
23D8
331
23F5
  5
23F7
331
2414
  5
2416
331
2382
  5
2384
331
23A1
  5
23AF
331
23D7
  5
23D9
331
23F6
  5
23F8
331
2415
  5
2417
331
2EB4
  5
2EE6
331
28A8
  5
28D7
331
2907
  5
296D
331
2383
  5
2385
331
23A2
  5
23D2
331
23D8
  5
23E6
331
23F7
  5
23F9
331
2416
  5
2418
331
2384
  5
2386
331
23D9
  5
23E7
331
23F8
  5
23FA
331
2417
  5
2419
331
2385
  5
2387
331
23F9
  5
23FB
331
2418
  5
241A
331
23FA
  5
23FC
331
2419
  5
241B
331
2386
  5
2388
331
2C63
  5
2CD3
331
23FB
  5
23FD
331
241A
  5
241C
331
305D
  5
3101
331
2387
  5
2389
331
2BBD
  5
2C63
331
23FC
  5
23FE
331
241B
  5
241D
331
2857
  5
28D6
331
23FD
  5
23FF
331
241C
  5
241E
331
296D
  5
2B5E
331
23FE
  5
2400
331
241D
  5
241F
331
2D45
  5
2EB4
331
23FF
  5
2401
331
241E
  5
2420
331
241F
  5
2421
331
2FC3
  5
3014
331
2D10
  5
2D45
  0
XRECORD
  5
A65
102
{ACAD_REACTORS
330
9CB
102
}
330
9CB
100
AcDbXrecord
280
     1
340
B
  0
LAYOUT
  5
A68
102
{ACAD_XDICTIONARY
360
3471
102
}
102
{ACAD_REACTORS
330
1E
102
}
330
1E
100
AcDbPlotSettings
  1

  2
自動 設計一 上的 HP DeskJet 930C/932C/935C
  4

  6

 40
0.0
 41
0.0
 42
0.0
 43
0.0
 44
0.0
 45
0.0
 46
0.0
 47
0.0
 48
0.0
 49
0.0
140
0.0
141
0.0
142
1.0
143
1.0
 70
  1712
 72
     0
 73
     0
 74
     0
  7

 75
     0
147
1.0
148
0.0
149
0.0
100
AcDbLayout
  1
Model
 70
     1
 71
     0
 10
0.0
 20
0.0
 11
12.0
 21
9.0
 12
0.0
 22
0.0
 32
0.0
 14
0.0
 24
0.0
 34
0.0
 15
0.0
 25
0.0
 35
0.0
146
0.0
 13
0.0
 23
0.0
 33
0.0
 16
1.0
 26
0.0
 36
0.0
 17
0.0
 27
1.0
 37
0.0
 76
     0
330
A
  0
LAYOUT
  5
A69
102
{ACAD_XDICTIONARY
360
3473
102
}
102
{ACAD_REACTORS
330
1E
102
}
330
1E
100
AcDbPlotSettings
  1

  2
自動 設計一 上的 HP DeskJet 930C/932C/935C
  4

  6

 40
0.0
 41
0.0
 42
0.0
 43
0.0
 44
0.0
 45
0.0
 46
0.0
 47
0.0
 48
0.0
 49
0.0
140
0.0
141
0.0
142
1.0
143
1.0
 70
   688
 72
     0
 73
     0
 74
     5
  7

 75
    16
147
1.0
148
0.0
149
0.0
100
AcDbLayout
  1
配置1
 70
     1
 71
     1
 10
0.0
 20
0.0
 11
12.0
 21
9.0
 12
0.0
 22
0.0
 32
0.0
 14
1.000000000000000E+20
 24
1.000000000000000E+20
 34
1.000000000000000E+20
 15
-1.000000000000000E+20
 25
-1.000000000000000E+20
 35
-1.000000000000000E+20
146
0.0
 13
0.0
 23
0.0
 33
0.0
 16
1.0
 26
0.0
 36
0.0
 17
0.0
 27
1.0
 37
0.0
 76
     0
330
B
  0
MLINESTYLE
  5
1C
102
{ACAD_REACTORS
330
1B
102
}
330
1B
100
AcDbMlineStyle
  2
STANDARD
 70
     0
  3

 62
     0
 51
90.00000000000019
 52
90.00000000000019
 71
     2
 49
0.5
 62
   256
  6
BYLAYER
 49
-0.5
 62
   256
  6
BYLAYER
  0
ACDBPLACEHOLDER
  5
1D
102
{ACAD_REACTORS
330
1F
102
}
330
1F
  0
TABLESTYLE
  5
ECC
102
{ACAD_REACTORS
330
ECB
102
}
330
ECB
100
AcDbTableStyle
  3
Standard
 70
     0
 71
     0
 40
0.06
 41
0.06
280
     0
281
     0
  7
STANDARD
140
0.18
170
     2
 62
     0
 63
     7
283
     0
274
    -2
284
     1
 64
     0
275
    -2
285
     1
 65
     0
276
    -2
286
     1
 66
     0
277
    -2
287
     1
 67
     0
278
    -2
288
     1
 68
     0
279
    -2
289
     1
 69
     0
  7
STANDARD
140
0.25
170
     5
 62
     0
 63
     7
283
     0
274
    -2
284
     1
 64
     0
275
    -2
285
     1
 65
     0
276
    -2
286
     1
 66
     0
277
    -2
287
     1
 67
     0
278
    -2
288
     1
 68
     0
279
    -2
289
     1
 69
     0
  7
STANDARD
140
0.18
170
     5
 62
     0
 63
     7
283
     0
274
    -2
284
     1
 64
     0
275
    -2
285
     1
 65
     0
276
    -2
286
     1
 66
     0
277
    -2
287
     1
 67
     0
278
    -2
288
     1
 68
     0
279
    -2
289
     1
 69
     0
  0
DICTIONARYVAR
  5
1258
102
{ACAD_REACTORS
330
1257
102
}
330
1257
100
DictionaryVariables
280
     0
  1
STANDARD
  0
DICTIONARYVAR
  5
346C
102
{ACAD_REACTORS
330
1257
102
}
330
1257
100
DictionaryVariables
280
     0
  1
1
  0
DICTIONARYVAR
  5
346B
102
{ACAD_REACTORS
330
1257
102
}
330
1257
100
DictionaryVariables
280
     0
  1
1
  0
DICTIONARYVAR
  5
346D
102
{ACAD_REACTORS
330
1257
102
}
330
1257
100
DictionaryVariables
280
     0
  1

  0
DICTIONARY
  5
F9E
102
{ACAD_REACTORS
330
F90
102
}
330
F90
100
AcDbDictionary
281
     1
  0
XRECORD
  5
FBC
102
{ACAD_REACTORS
330
F90
102
}
330
F90
100
AcDbXrecord
280
     1
 90
-1023410169
  0
DICTIONARY
  5
ED3
102
{ACAD_REACTORS
330
ED2
102
}
330
ED2
100
AcDbDictionary
281
     1
  3
DWGSETTINGS
350
ED4
  3
Shaft
350
1093
  3
TRANSSETTINGS
350
ED8
  0
ACAMGFILTERDAT
  5
FD6
102
{ACAD_REACTORS
330
FD1
102
}
330
FD1
100
AcAmgFilterDat
 70
    15
  1
DIMENSION,AMDT_*_DIM
  2
*
  3
*
  4
*
  5
*
290
     1
  0
ACAMGFILTERDAT
  5
FD5
102
{ACAD_REACTORS
330
FD1
102
}
330
FD1
100
AcAmgFilterDat
 70
    15
  1
*
  2
AM_FEA-AM_*
  3
*
  4
*
  5
*
290
     1
  0
ACAMGFILTERDAT
  5
FD2
102
{ACAD_REACTORS
330
FD1
102
}
330
FD1
100
AcAmgFilterDat
 70
    15
  1
HATCH
  2
*
  3
*
  4
*
  5
*
290
     1
  0
ACAMGFILTERDAT
  5
FD3
102
{ACAD_REACTORS
330
FD1
102
}
330
FD1
100
AcAmgFilterDat
 70
    15
  1
LINE
  2
8,8N,*-8,*-8N,AM_8,AM_8N,*-AM_8,*-AM_8N
  3
*
  4
*
  5
INSERT,STDPART2D
290
     1
  0
ACAMGFILTERDAT
  5
FD7
102
{ACAD_REACTORS
330
FD1
102
}
330
FD1
100
AcAmgFilterDat
 70
    15
  1
ARC
  2
AM_5
  3
*
  4
2
  5
INSERT
290
     0
  0
ACAMGFILTERDAT
  5
FD4
102
{ACAD_REACTORS
330
FD1
102
}
330
FD1
100
AcAmgFilterDat
 70
    15
  1
ACMFCFRAME,ACMDATUMTARGET,ACMDATUMID,ACMWELDSYM,ACMSURFSYM,ACMFEATID,ACMPARTREF,ACMBALLOON,AMDTEDGESYM,AMGSCREWCALCTABLE
  2
*
  3
*
  4
*
  5
*
290
     1
  0
LAYER_INDEX
  5
1250
102
{ACAD_REACTORS
330
124F
102
}
330
124F
100
AcDbIndex
 40
2455323.553722003
100
AcDbLayerIndex
  8
0
360
1251
 90
      438
  8
CENTER
360
1252
 90
       31
  8
DIM
360
1253
 90
        9
  8
Defpoints
360
1254
 90
        0
  8
AM_5
360
1255
 90
       47
  8
LOGO
360
191C
 90
      117
  0
DICTIONARY
  5
3471
330
A68
100
AcDbDictionary
280
     1
281
     1
  3
ACAD_XREC_ROUNDTRIP
360
3472
  0
DICTIONARY
  5
3473
330
A69
100
AcDbDictionary
280
     1
281
     1
  3
ACAD_XREC_ROUNDTRIP
360
3474
  0
IDBUFFER
  5
1251
330
0
100
AcDbIdBuffer
330
32EE
330
242C
330
242B
330
242A
330
2429
330
2428
330
2427
330
2426
330
2425
330
2424
330
2420
330
241B
330
241A
330
2419
330
2418
330
2417
330
2416
330
2411
330
240F
330
240C
330
240B
330
240A
330
2409
330
2408
330
2407
330
2406
330
2405
330
2404
330
2403
330
2402
330
2401
330
2400
330
23FF
330
23FE
330
23FD
330
23FC
330
23FB
330
23FA
330
23F9
330
23F8
330
23F7
330
23F6
330
23F5
330
23F4
330
23F3
330
23F2
330
23F1
330
23F0
330
23EF
330
23EE
330
23ED
330
23EC
330
23EB
330
23EA
330
23E9
330
23E8
330
23E7
330
23E6
330
23D9
330
23D8
330
23D7
330
23D6
330
23D5
330
23D4
330
23D3
330
23D2
330
23AF
330
23A2
330
23A1
330
23A0
330
239F
330
239E
330
239D
330
239C
330
239B
330
239A
330
2399
330
2398
330
2397
330
2396
330
2395
330
2394
330
2393
330
2392
330
2391
330
2390
330
238F
330
238E
330
238D
330
238C
330
238B
330
238A
330
2389
330
2388
330
2387
330
2386
330
2385
330
2384
330
2383
330
2382
330
2381
330
235E
330
2343
330
231A
330
2319
330
2318
330
2317
330
2316
330
2315
330
2314
330
2313
330
2312
330
22E9
330
22E8
330
22E7
330
22CC
330
22CB
330
22C9
330
22C7
330
22C1
330
22BB
330
22B9
330
22B3
330
22AD
330
22AC
330
22A8
330
22A7
330
22A6
330
22A5
330
22A4
330
22A3
330
22A2
330
22A1
330
22A0
330
229F
330
229E
330
229D
330
229C
330
229B
330
229A
330
2299
330
2298
330
2297
330
2296
330
2295
330
2294
330
2293
330
2292
330
2291
330
2290
330
228F
330
228E
330
228D
330
228C
330
228B
330
228A
330
2289
330
2288
330
2287
330
2286
330
2285
330
2284
330
2283
330
2282
330
2281
330
2280
330
227F
330
227E
330
227D
330
227C
330
227B
330
227A
330
2279
330
2278
330
2277
330
2276
330
2275
330
2274
330
2273
330
2272
330
2271
330
2270
330
226F
330
226E
330
226D
330
226C
330
226B
330
226A
330
2269
330
2268
330
2267
330
2265
330
2264
330
2263
330
2262
330
2261
330
2260
330
225F
330
225E
330
225D
330
225C
330
225B
330
225A
330
2259
330
2258
330
2257
330
2256
330
2255
330
2254
330
2253
330
2252
330
2251
330
2250
330
224F
330
224E
330
224D
330
224C
330
224B
330
224A
330
2249
330
2248
330
2247
330
2246
330
2245
330
2244
330
2243
330
2242
330
2241
330
2240
330
223F
330
223E
330
223D
330
223C
330
223B
330
223A
330
2239
330
2238
330
2237
330
2236
330
2235
330
2234
330
2233
330
2232
330
2231
330
2230
330
222F
330
222E
330
222D
330
222C
330
222B
330
222A
330
2229
330
2228
330
2227
330
2226
330
2225
330
2224
330
2223
330
2222
330
2221
330
2220
330
221F
330
221E
330
221D
330
221C
330
221B
330
221A
330
2219
330
2218
330
2217
330
2216
330
2215
330
2214
330
2213
330
2212
330
2211
330
2210
330
220F
330
220E
330
220D
330
220C
330
220B
330
220A
330
2209
330
2208
330
2207
330
2206
330
2205
330
2204
330
2203
330
2202
330
2201
330
2200
330
21FF
330
21FE
330
21FD
330
21FC
330
21FB
330
21FA
330
21F9
330
21F8
330
21F7
330
21F6
330
21F5
330
21F4
330
21F3
330
21F2
330
21F1
330
21F0
330
21EF
330
21EE
330
21ED
330
21EC
330
21EB
330
21EA
330
21E9
330
21E8
330
21E7
330
21E6
330
21E5
330
21E4
330
21E3
330
21E2
330
21E1
330
21E0
330
21DF
330
21DD
330
21DC
330
21DB
330
21DA
330
21D8
330
21D7
330
21D6
330
21D5
330
21D4
330
21D3
330
21D2
330
21D1
330
21D0
330
21CF
330
21CE
330
21CD
330
21CC
330
21CB
330
21CA
330
21C9
330
21C8
330
21C7
330
21C6
330
21C5
330
21C4
330
21C3
330
21C2
330
21C1
330
21C0
330
21BF
330
21BE
330
21BD
330
21BC
330
21BB
330
21BA
330
21B9
330
21B8
330
21B7
330
21B6
330
21B5
330
21B4
330
21B3
330
21B2
330
21B1
330
21B0
330
21AF
330
21AE
330
21AD
330
21AC
330
21AB
330
21AA
330
21A9
330
21A8
330
21A7
330
21A6
330
21A5
330
21A4
330
21A3
330
21A2
330
21A1
330
21A0
330
219F
330
219E
330
219D
330
219C
330
219B
330
219A
330
2199
330
2198
330
2197
330
2196
330
2195
330
2194
330
1C11
330
1C9C
330
1C9D
330
1C9E
330
2171
330
2172
330
2173
330
2174
330
2175
330
2176
330
2177
330
242D
330
2179
330
217A
330
217B
330
217C
330
217D
330
217E
330
217F
330
2180
330
2181
330
2182
330
2183
330
2184
330
2185
330
2186
330
2187
330
2188
330
2189
330
218A
330
218B
330
218C
330
218D
330
218E
330
218F
330
2190
330
2191
330
2192
330
2193
  0
IDBUFFER
  5
1252
330
0
100
AcDbIdBuffer
330
2CD2
330
2CD3
330
2CD5
330
3180
330
2178
330
241F
330
2415
330
2414
330
2413
330
2412
330
2410
330
22C6
330
22C5
330
22C4
330
22C3
330
22C2
330
22C0
330
22BF
330
22BE
330
22BD
330
22B8
330
22B7
330
22B6
330
22B5
330
22B1
330
22B0
330
22AF
330
22AE
330
22AB
330
22AA
330
22A9
  0
IDBUFFER
  5
1253
330
0
100
AcDbIdBuffer
330
22CA
330
22C8
330
22BC
330
22BA
330
22B4
330
22B2
330
2266
330
21DE
330
21D9
  0
IDBUFFER
  5
1254
330
0
100
AcDbIdBuffer
  0
IDBUFFER
  5
1255
330
0
100
AcDbIdBuffer
330
28D6
330
28D7
330
2907
330
2945
330
296D
330
29AC
330
2B5E
330
2BBD
330
2BF4
330
2C63
330
2EB4
330
2EE6
330
2F41
330
2CDB
330
2D10
330
2D45
330
2F67
330
2FC3
330
3014
330
305D
330
323B
330
3299
330
3101
330
3129
330
315D
330
319E
330
31E9
330
320F
330
240D
330
240E
330
241C
330
241D
330
241E
330
2421
330
2422
330
2423
330
3304
330
333B
330
333C
330
2857
330
2825
330
2668
330
263C
330
28A8
330
18FF
330
18EF
330
18EE
  0
IDBUFFER
  5
191C
330
0
100
AcDbIdBuffer
330
1C12
330
1C13
330
1C14
330
1C15
330
1C16
330
1C17
330
1C18
330
1C19
330
1C1A
330
1C1B
330
1C1C
330
1C1D
330
1C1E
330
1C1F
330
1C20
330
1C21
330
1C22
330
1C23
330
1C24
330
1C25
330
1C26
330
1C27
330
1C28
330
1C29
330
1C2A
330
1C2B
330
1C2C
330
1C2D
330
1C2E
330
1C2F
330
1C30
330
1C31
330
1C32
330
1C33
330
1C34
330
1C35
330
1C36
330
1C37
330
1C38
330
1C39
330
1C3A
330
1C3B
330
1C3C
330
1C3D
330
1C3E
330
1C3F
330
1C40
330
1C41
330
1C42
330
1C43
330
1C44
330
1C45
330
1C46
330
1C47
330
1C48
330
1C49
330
1C4A
330
1C4B
330
1C4C
330
1C4D
330
1C4E
330
1C4F
330
1C50
330
1C51
330
1C52
330
1C53
330
1C54
330
1C55
330
1C56
330
1C57
330
1C58
330
1C59
330
1C5A
330
1C5B
330
1C5C
330
1C5D
330
1C5E
330
1C5F
330
1C60
330
1C61
330
1C62
330
1C63
330
1C64
330
1C68
330
1C6C
330
1C6D
330
1C71
330
1C72
330
1C73
330
1C74
330
1C75
330
1C76
330
1C77
330
1C78
330
1C7C
330
1C80
330
1C84
330
1C85
330
1C86
330
1C8A
330
1C8B
330
1C8C
330
1C8D
330
1C8E
330
1C8F
330
1C90
330
1C91
330
1C92
330
1C93
330
1C94
330
1C95
330
1C96
330
1C97
330
1C98
330
1C99
330
1C9A
330
1C9B
  0
XRECORD
  5
3472
102
{ACAD_REACTORS
330
3471
102
}
330
3471
100
AcDbXrecord
280
     1
102
SHADEPLOT
 70
     0
102
SHADEPLOTRESLEVEL
 70
     2
102
SHADEPLOTCUSTOMDPI
 70
   300
  0
XRECORD
  5
3474
102
{ACAD_REACTORS
330
3473
102
}
330
3473
100
AcDbXrecord
280
     1
102
SHADEPLOT
 70
     0
102
SHADEPLOTRESLEVEL
 70
     2
102
SHADEPLOTCUSTOMDPI
 70
   300
  0
ENDSEC
  0
EOF
