  0
SECTION
  2
HEADER
  9
$ACADVER
  1
AC1015
  9
$ACADMAINTVER
 70
    20
  9
$DWGCODEPAGE
  3
ANSI_950
  9
$INSBASE
 10
0.0
 20
0.0
 30
0.0
  9
$EXTMIN
 10
464.560284047654
 20
231.693557800261
 30
-0.0070735179099302
  9
$EXTMAX
 10
921.4952926945416
 20
561.3392594338391
 30
200.9401156434283
  9
$LIMMIN
 10
0.0
 20
0.0
  9
$LIMMAX
 10
0.0
 20
0.0
  9
$ORTHOMODE
 70
     1
  9
$REGENMODE
 70
     1
  9
$FILLMODE
 70
     1
  9
$QTEXTMODE
 70
     0
  9
$MIRRTEXT
 70
     1
  9
$LTSCALE
 40
1.0
  9
$ATTMODE
 70
     1
  9
$TEXTSIZE
 40
3.5
  9
$TRACEWID
 40
0.05
  9
$TEXTSTYLE
  7
STANDARD
  9
$CLAYER
  8
0
  9
$CELTYPE
  6
CONTINUOUS
  9
$CECOLOR
 62
   256
  9
$CELTSCALE
 40
1.0
  9
$DISPSILH
 70
     0
  9
$DIMSCALE
 40
1.0
  9
$DIMASZ
 40
3.0
  9
$DIMEXO
 40
1.0
  9
$DIMDLI
 40
6.5
  9
$DIMRND
 40
0.0
  9
$DIMDLE
 40
0.0
  9
$DIMEXE
 40
1.0
  9
$DIMTP
 40
0.1
  9
$DIMTM
 40
0.1
  9
$DIMTXT
 40
3.5
  9
$DIMCEN
 40
0.0
  9
$DIMTSZ
 40
0.0
  9
$DIMTOL
 70
     0
  9
$DIMLIM
 70
     0
  9
$DIMTIH
 70
     0
  9
$DIMTOH
 70
     0
  9
$DIMSE1
 70
     0
  9
$DIMSE2
 70
     0
  9
$DIMTAD
 70
     1
  9
$DIMZIN
 70
     8
  9
$DIMBLK
  1

  9
$DIMASO
 70
     1
  9
$DIMSHO
 70
     1
  9
$DIMPOST
  1

  9
$DIMAPOST
  1
"
  9
$DIMALT
 70
     0
  9
$DIMALTD
 70
     2
  9
$DIMALTF
 40
0.0393701
  9
$DIMLFAC
 40
1.0
  9
$DIMTOFL
 70
     1
  9
$DIMTVP
 40
0.0
  9
$DIMTIX
 70
     0
  9
$DIMSOXD
 70
     0
  9
$DIMSAH
 70
     0
  9
$DIMBLK1
  1

  9
$DIMBLK2
  1

  9
$DIMSTYLE
  2
AM_ISO
  9
$DIMCLRD
 70
   256
  9
$DIMCLRE
 70
   256
  9
$DIMCLRT
 70
   256
  9
$DIMTFAC
 40
0.71
  9
$DIMGAP
 40
1.0
  9
$DIMJUST
 70
     0
  9
$DIMSD1
 70
     0
  9
$DIMSD2
 70
     0
  9
$DIMTOLJ
 70
     0
  9
$DIMTZIN
 70
     8
  9
$DIMALTZ
 70
     0
  9
$DIMALTTZ
 70
     0
  9
$DIMUPT
 70
     0
  9
$DIMDEC
 70
     2
  9
$DIMTDEC
 70
     8
  9
$DIMALTU
 70
     2
  9
$DIMALTTD
 70
     2
  9
$DIMTXSTY
  7
STANDARD
  9
$DIMAUNIT
 70
     0
  9
$DIMADEC
 70
     0
  9
$DIMALTRND
 40
0.0
  9
$DIMAZIN
 70
     2
  9
$DIMDSEP
 70
    46
  9
$DIMATFIT
 70
     3
  9
$DIMFRAC
 70
     0
  9
$DIMLDRBLK
  1

  9
$DIMLUNIT
 70
     2
  9
$DIMLWD
 70
    -1
  9
$DIMLWE
 70
    -1
  9
$DIMTMOVE
 70
     0
  9
$LUNITS
 70
     2
  9
$LUPREC
 70
     2
  9
$SKETCHINC
 40
0.1
  9
$FILLETRAD
 40
2.5
  9
$AUNITS
 70
     0
  9
$AUPREC
 70
     0
  9
$MENU
  1
acad
  9
$ELEVATION
 40
0.0
  9
$PELEVATION
 40
0.0
  9
$THICKNESS
 40
0.0
  9
$LIMCHECK
 70
     0
  9
$CHAMFERA
 40
2.5
  9
$CHAMFERB
 40
2.5
  9
$CHAMFERC
 40
0.0
  9
$CHAMFERD
 40
0.0
  9
$SKPOLY
 70
     0
  9
$TDCREATE
 40
2452359.824870255
  9
$TDUCREATE
 40
2452359.491536922
  9
$TDUPDATE
 40
2455323.590023819
  9
$TDUUPDATE
 40
2455323.256690487
  9
$TDINDWG
 40
0.2554803704
  9
$TDUSRTIMER
 40
0.2554790972
  9
$USRTIMER
 70
     1
  9
$ANGBASE
 50
0.0
  9
$ANGDIR
 70
     0
  9
$PDMODE
 70
     0
  9
$PDSIZE
 40
-1.0
  9
$PLINEWID
 40
0.0
  9
$SPLFRAME
 70
     0
  9
$SPLINETYPE
 70
     6
  9
$SPLINESEGS
 70
     8
  9
$HANDSEED
  5
485B
  9
$SURFTAB1
 70
     6
  9
$SURFTAB2
 70
     6
  9
$SURFTYPE
 70
     6
  9
$SURFU
 70
     6
  9
$SURFV
 70
     6
  9
$UCSBASE
  2

  9
$UCSNAME
  2

  9
$UCSORG
 10
0.0
 20
0.0
 30
0.0
  9
$UCSXDIR
 10
1.0
 20
0.0
 30
0.0
  9
$UCSYDIR
 10
0.0
 20
1.0
 30
0.0
  9
$UCSORTHOREF
  2

  9
$UCSORTHOVIEW
 70
     0
  9
$UCSORGTOP
 10
0.0
 20
0.0
 30
0.0
  9
$UCSORGBOTTOM
 10
0.0
 20
0.0
 30
0.0
  9
$UCSORGLEFT
 10
0.0
 20
0.0
 30
0.0
  9
$UCSORGRIGHT
 10
0.0
 20
0.0
 30
0.0
  9
$UCSORGFRONT
 10
0.0
 20
0.0
 30
0.0
  9
$UCSORGBACK
 10
0.0
 20
0.0
 30
0.0
  9
$PUCSBASE
  2

  9
$PUCSNAME
  2

  9
$PUCSORG
 10
0.0
 20
0.0
 30
0.0
  9
$PUCSXDIR
 10
1.0
 20
0.0
 30
0.0
  9
$PUCSYDIR
 10
0.0
 20
1.0
 30
0.0
  9
$PUCSORTHOREF
  2

  9
$PUCSORTHOVIEW
 70
     0
  9
$PUCSORGTOP
 10
0.0
 20
0.0
 30
0.0
  9
$PUCSORGBOTTOM
 10
0.0
 20
0.0
 30
0.0
  9
$PUCSORGLEFT
 10
0.0
 20
0.0
 30
0.0
  9
$PUCSORGRIGHT
 10
0.0
 20
0.0
 30
0.0
  9
$PUCSORGFRONT
 10
0.0
 20
0.0
 30
0.0
  9
$PUCSORGBACK
 10
0.0
 20
0.0
 30
0.0
  9
$USERI1
 70
     0
  9
$USERI2
 70
     0
  9
$USERI3
 70
     0
  9
$USERI4
 70
     0
  9
$USERI5
 70
     0
  9
$USERR1
 40
0.0
  9
$USERR2
 40
0.0
  9
$USERR3
 40
0.0
  9
$USERR4
 40
0.0
  9
$USERR5
 40
0.0
  9
$WORLDVIEW
 70
     1
  9
$SHADEDGE
 70
     3
  9
$SHADEDIF
 70
    70
  9
$TILEMODE
 70
     1
  9
$MAXACTVP
 70
    16
  9
$PINSBASE
 10
0.0
 20
0.0
 30
0.0
  9
$PLIMCHECK
 70
     0
  9
$PEXTMIN
 10
1.000000000000000E+20
 20
1.000000000000000E+20
 30
1.000000000000000E+20
  9
$PEXTMAX
 10
-1.000000000000000E+20
 20
-1.000000000000000E+20
 30
-1.000000000000000E+20
  9
$PLIMMIN
 10
0.0
 20
0.0
  9
$PLIMMAX
 10
12.0
 20
9.0
  9
$UNITMODE
 70
     0
  9
$VISRETAIN
 70
     0
  9
$PLINEGEN
 70
     1
  9
$PSLTSCALE
 70
     1
  9
$TREEDEPTH
 70
  3020
  9
$CMLSTYLE
  2
STANDARD
  9
$CMLJUST
 70
     0
  9
$CMLSCALE
 40
1.0
  9
$PROXYGRAPHICS
 70
     0
  9
$MEASUREMENT
 70
     1
  9
$CELWEIGHT
370
     0
  9
$ENDCAPS
280
     0
  9
$JOINSTYLE
280
     0
  9
$LWDISPLAY
290
     0
  9
$INSUNITS
 70
     4
  9
$HYPERLINKBASE
  1

  9
$STYLESHEET
  1

  9
$XEDIT
290
     1
  9
$CEPSNTYPE
380
     0
  9
$PSTYLEMODE
290
     1
  9
$FINGERPRINTGUID
  2

  9
$VERSIONGUID
  2
{0F8406A4-B8EC-4A2E-B3F8-2E06598F185B}
  9
$EXTNAMES
290
     1
  9
$PSVPSCALE
 40
0.0
  9
$OLESTARTUP
290
     0
  0
ENDSEC
  0
SECTION
  2
CLASSES
  0
CLASS
  1
IMAGE
  2
AcDbRasterImage
  3
ISM
 90
    32895
280
     0
281
     1
  0
CLASS
  1
DICTIONARYVAR
  2
AcDbDictionaryVar
  3
ObjectDBX Classes
 90
        0
280
     0
281
     0
  0
CLASS
  1
RASTERVARIABLES
  2
AcDbRasterVariables
  3
ISM
 90
    32768
280
     0
281
     0
  0
CLASS
  1
IMAGEDEF
  2
AcDbRasterImageDef
  3
ISM
 90
    32768
280
     0
281
     0
  0
CLASS
  1
IMAGEDEF_REACTOR
  2
AcDbRasterImageDefReactor
  3
ISM
 90
    32769
280
     0
281
     0
  0
CLASS
  1
IDBUFFER
  2
AcDbIdBuffer
  3
ObjectDBX Classes
 90
        0
280
     0
281
     0
  0
CLASS
  1
SPATIAL_FILTER
  2
AcDbSpatialFilter
  3
ObjectDBX Classes
 90
    32768
280
     0
281
     0
  0
CLASS
  1
SORTENTSTABLE
  2
AcDbSortentsTable
  3
ObjectDBX Classes
 90
        0
280
     0
281
     0
  0
CLASS
  1
LAYER_INDEX
  2
AcDbLayerIndex
  3
ObjectDBX Classes
 90
        0
280
     0
281
     0
  0
CLASS
  1
SPATIAL_INDEX
  2
AcDbSpatialIndex
  3
ObjectDBX Classes
 90
    32768
280
     0
281
     0
  0
CLASS
  1
OBJECT_PTR
  2
CAseDLPNTableRecord
  3
"ASE-LPNTableRecord"
 90
    32769
280
     0
281
     0
  0
CLASS
  1
LAYOUT
  2
AcDbLayout
  3
ObjectDBX Classes
 90
        0
280
     0
281
     0
  0
CLASS
  1
PLOTSETTINGS
  2
AcDbPlotSettings
  3
ObjectDBX Classes
 90
    32768
280
     0
281
     0
  0
CLASS
  1
ACDBDICTIONARYWDFLT
  2
AcDbDictionaryWithDefault
  3
ObjectDBX Classes
 90
        0
280
     0
281
     0
  0
CLASS
  1
ACDBPLACEHOLDER
  2
AcDbPlaceHolder
  3
ObjectDBX Classes
 90
        0
280
     0
281
     0
  0
CLASS
  1
VBA_PROJECT
  2
AcDbVbaProject
  3
acad
 90
    32768
280
     0
281
     0
  0
CLASS
  1
WIPEOUT
  2
AcDbWipeout
  3
"WipeOut|Product Desc: Object Enabler for WipeOut entity^I^I^I^I^I^I|Company: Autodesk, Inc.^I^I^I^I^I^I|WEB Address: www.autodesk.com"
 90
    32895
280
     0
281
     1
  0
CLASS
  1
WIPEOUTVARIABLES
  2
AcDbWipeoutVariables
  3
"WipeOut|Product Desc:     WipeOut Dbx Application|Company:          Autodesk, Inc.|WEB Address:      www.autodesk.com"
 90
        0
280
     0
281
     0
  0
CLASS
  1
RTEXT
  2
RText
  3
RText|AutoCAD Express Tool|expresstools@autodesk.com
 90
    32768
280
     0
281
     1
  0
CLASS
  1
ARCALIGNEDTEXT
  2
AcDbArcAlignedText
  3
ATEXT|AutoCAD Express Tool|expresstools@autodesk.com
 90
    32768
280
     0
281
     0
  0
CLASS
  1
ACAD_PROXY_OBJECT_WRAPPER
  2
AcDbProxyObjectWrapper
  3
ObjectDBX Classes
 90
    32768
280
     0
281
     0
  0
CLASS
  1
TABLESTYLE
  2
AcDbTableStyle
  3
ObjectDBX Classes
 90
     2047
280
     0
281
     0
  0
CLASS
  1
ACME_DOCUMENT
  2
AcMeDbDoc
  3
AcMeServices
 90
        0
280
     0
281
     0
  0
CLASS
  1
AMGSETTINGSOBJ
  2
AmgSettingsObj
  3
"AcadM|Product Description: AutoCAD Mechanical 2000|Company: Autodesk"
 90
        0
280
     0
281
     0
  0
CLASS
  1
ACMESCOPE
  2
AcMeScope
  3
AcMeServices
 90
        0
280
     0
281
     0
  0
CLASS
  1
ACMECOMMANDHISTORY
  2
AcMeCommandHistory
  3
AcMeServices
 90
        0
280
     0
281
     0
  0
CLASS
  1
ACIMSYSVARMAN
  2
AcImSysVarManager
  3
AcMeServices
 90
        0
280
     0
281
     0
  0
CLASS
  1
ACIMREALSYSVAR
  2
AcImRealSysVar
  3
AcMeServices
 90
        0
280
     0
281
     0
  0
CLASS
  1
ACIMINTSYSVAR
  2
AcImIntSysVar
  3
AcMeServices
 90
        0
280
     0
281
     0
  0
CLASS
  1
ACMEDRAWINGMAN
  2
AcMeDrawingMan
  3
AcMeServices
 90
        0
280
     0
281
     0
  0
CLASS
  1
ACMEVIEW
  2
AcMeView
  3
AcMeServices
 90
        0
280
     0
281
     0
  0
CLASS
  1
ACDBENTITYCACHE
  2
AcMeEntityCache
  3
AcMeServices
 90
        0
280
     0
281
     0
  0
CLASS
  1
GSMANAGER
  2
AcMeGSManager
  3
AcMeServices
 90
        0
280
     0
281
     0
  0
CLASS
  1
AMDTINTERNALREACTOR
  2
AmdtInternalReactor
  3
AcMeServices
 90
        0
280
     0
281
     0
  0
CLASS
  1
ACMESTATEMGR
  2
AcMeStateMgr
  3
AcMeServices
 90
        0
280
     0
281
     0
  0
CLASS
  1
ACGREFMASTER
  2
AcGrefMaster
  3
AcAttribServices
 90
        0
280
     0
281
     0
  0
CLASS
  1
AM_DRAWING_MGR
  2
AcDmDwgMgr
  3
AcMechDwgViewMgmt
 90
        0
280
     0
281
     0
  0
CLASS
  1
AM_DWG_DOCUMENT
  2
AcDmDwgDocument
  3
AcMechDwgViewMgmt
 90
        0
280
     0
281
     0
  0
CLASS
  1
AM_DWG_SHEET
  2
AcDmSheet
  3
AcMechDwgViewMgmt
 90
        0
280
     0
281
     0
  0
CLASS
  1
AM_VIEWDIMPARMAP
  2
AcDmViewDimParMap
  3
AcMechDwgViewMgmt
 90
        0
280
     0
281
     0
  0
CLASS
  1
AM_DWGMGR_NAME
  2
AcDmDwgMgrName
  3
AcMechDwgViewMgmt
 90
        0
280
     0
281
     0
  0
CLASS
  1
ACME_DATABASE
  2
AcMeDbDatabase
  3
AcMeServices
 90
        0
280
     0
281
     0
  0
CLASS
  1
ACRFINSADJUSTERMGR
  2
AcRfInsAdjusterMgr
  3
AcMeServices
 90
        0
280
     0
281
     0
  0
CLASS
  1
ACGREFACADMASTER
  2
AcGrefacadMaster
  3
AcGrefServices
 90
        0
280
     0
281
     0
  0
CLASS
  1
AMDTMENUSTATEMGR
  2
AmdtMenuStateMgr
  3
McadcomServices
 90
        0
280
     0
281
     0
  0
CLASS
  1
AMDTMCOMMENUSTATE
  2
AmdtMcomMenuState
  3
McadcomServices
 90
        0
280
     0
281
     0
  0
CLASS
  1
AMIMASTER
  2
AmiMaster
  3
AmiServices
 90
        0
280
     0
281
     0
  0
CLASS
  1
ASAPP
  2
AcAsAppObject
  3
AutoSurfServices
 90
        0
280
     0
281
     0
  0
CLASS
  1
IM_STATIC_MAN
  2
AcImStaticVarManager
  3
AcMeServices
 90
        0
280
     0
281
     0
  0
CLASS
  1
ACIMSTRSYSVAR
  2
AcImStrSysVar
  3
AcMeServices
 90
        0
280
     0
281
     0
  0
CLASS
  1
ACIMDBLSTATICVAR
  2
AcImDblStaticVar
  3
AcMeServices
 90
        0
280
     0
281
     0
  0
CLASS
  1
ACIMSTRSTATICVAR
  2
AcImStrStaticVar
  3
AcMeServices
 90
        0
280
     0
281
     0
  0
CLASS
  1
ACIMINTSTATICVAR
  2
AcImIntStaticVar
  3
AcMeServices
 90
        0
280
     0
281
     0
  0
CLASS
  1
ACASGREFMASTER
  2
AcAsGrefMaster
  3
AutoSurfResolverServices
 90
        0
280
     0
281
     0
  0
CLASS
  1
ACADGREFMODULE
  2
AcAdGrefModule
  3
AdGrefServices
 90
        0
280
     0
281
     0
  0
CLASS
  1
AMDTMAPISURFMOUDULE
  2
AmdtMApiSurfModule
  3
MApiSurfServices
 90
        0
280
     0
281
     0
  0
CLASS
  1
MAPIAMMOUDLE
  2
MApiAmModule
  3
MApiAmServices
 90
        0
280
     0
281
     0
  0
CLASS
  1
AMDTADMENUSTATE
  2
AmdtAdMenuState
  3
DesignerServices
 90
        0
280
     0
281
     0
  0
CLASS
  1
ADAPPL
  2
AcAdAppl
  3
DesignerServices
 90
        0
280
     0
281
     0
  0
CLASS
  1
DEPMGR
  2
AcAdDepMgr
  3
DesignerServices
 90
        0
280
     0
281
     0
  0
CLASS
  1
PARAMMGR
  2
AcAdParamMgr
  3
DesignerServices
 90
        0
280
     0
281
     0
  0
CLASS
  1
PARAMSCOPE
  2
AcAdParamScope
  3
DesignerServices
 90
        0
280
     0
281
     0
  0
CLASS
  1
NAMEDAPPL
  2
AcAdNamedAppl
  3
DesignerServices
 90
        0
280
     0
281
     0
  0
CLASS
  1
AMDTDMMENUSTATE
  2
AmdtDmMenuState
  3
AcMechDwgViewMgmt
 90
        0
280
     0
281
     0
  0
CLASS
  1
MAPIADMODULE
  2
MApiAdModule
  3
MApiAdServices
 90
        0
280
     0
281
     0
  0
CLASS
  1
AMDTAMMENUSTATE
  2
AmdtAmMenuState
  3
DesignerAssemblies
 90
        0
280
     0
281
     0
  0
CLASS
  1
ACAMPROJECT
  2
AcAmProject
  3
DesignerAssemblies
 90
        0
280
     0
281
     0
  0
CLASS
  1
ACAMGRCOMPDEF
  2
AcAmGrCompDef
  3
DesignerAssemblies
 90
        0
280
     0
281
     0
  0
CLASS
  1
ACCMCONTEXT
  2
AcCmContext
  3
DesignerAssemblies
 90
        0
280
     0
281
     0
  0
CLASS
  1
ACAMCOMPDEF
  2
AcAmCompDef
  3
DesignerAssemblies
 90
        0
280
     0
281
     0
  0
CLASS
  1
ACAMCOMPDEFMGR
  2
AcAmCompDefMgr
  3
DesignerAssemblies
 90
        0
280
     0
281
     0
  0
CLASS
  1
AMCONTEXTMGR
  2
AcAmContextMgr
  3
DesignerAssemblies
 90
        0
280
     0
281
     0
  0
CLASS
  1
ACAMCONTEXTMODELER
  2
AcAmContextModeler
  3
DesignerAssemblies
 90
        0
280
     0
281
     0
  0
CLASS
  1
ACMDATADICTIONARY
  2
AcmDataDictionary
  3
"AcmSymBB|Product Description: AutoCAD Mechanical 2004 DX|Company: Autodesk"
 90
        0
280
     0
281
     0
  0
CLASS
  1
ACMDATAENTRYBLOCK
  2
AcmDataEntryBlock
  3
"AcmSymBB|Product Description: AutoCAD Mechanical 2004 DX|Company: Autodesk"
 90
        0
280
     0
281
     0
  0
CLASS
  1
CATALOGSTATE
  2
AcAmCatalogState
  3
DesignerAssemblies
 90
        0
280
     0
281
     0
  0
CLASS
  1
ACAMGRCOMPDEFSET
  2
AcAmGrCompDefSet
  3
DesignerAssemblies
 90
        0
280
     0
281
     0
  0
CLASS
  1
AMDTBROWSERDBTAB
  2
AmdtBrowserDbTab
  3
McadcomServices
 90
        0
280
     0
281
     0
  0
CLASS
  1
CBROWSERAPPOBJECT
  2
CBrowserAppObject
  3
McadcomServices
 90
        0
280
     0
281
     0
  0
CLASS
  1
DM_PLACEHOLDER
  2
AcDmSelsetPlaceholder
  3
AcMechDwgViewMgmt
 90
        0
280
     0
281
     0
  0
CLASS
  1
ACMSTANDARDANSI
  2
AcmStandardANSI
  3
"Amdt_StdImp|Product Description: AutoCAD Mechanical 2004 DX|Company: Autodesk"
 90
        0
280
     0
281
     0
  0
CLASS
  1
AMGOBJPROPCFG
  2
AmgObjPropCfg
  3
"AmgLay|Product Description: AutoCAD Mechanical 2000|Company: Autodesk"
 90
        1
280
     0
281
     0
  0
CLASS
  1
ACMSURFSTANDARDANSI
  2
AcmSurfTextStdANSI
  3
"Amdt_StdImp|Product Description: AutoCAD Mechanical 2004 DX|Company: Autodesk"
 90
        0
280
     0
281
     0
  0
CLASS
  1
ACMFCFSTANDARDANSI
  2
AcmFCFStdANSI
  3
"Amdt_StdImp|Product Description: AutoCAD Mechanical 2004 DX|Company: Autodesk"
 90
        0
280
     0
281
     0
  0
CLASS
  1
ACMWELDSTANDARDANSI
  2
AcmWeldingStdANSI
  3
"Amdt_StdImp|Product Description: AutoCAD Mechanical 2004 DX|Company: Autodesk"
 90
        0
280
     0
281
     0
  0
CLASS
  1
ACMIDSTANDARDANSI
  2
AcmIdStdANSI
  3
"Amdt_StdImp|Product Description: AutoCAD Mechanical 2004 DX|Company: Autodesk"
 90
        0
280
     0
281
     0
  0
CLASS
  1
ACMDATUMSTANDARDANSI
  2
AcmDatumStdANSI
  3
"Amdt_StdImp|Product Description: AutoCAD Mechanical 2004 DX|Company: Autodesk"
 90
        0
280
     0
281
     0
  0
CLASS
  1
ACMBOMSTANDARDANSI
  2
AcmBOMStdANSI
  3
"Amdt_StdImp|Product Description: AutoCAD Mechanical 2004 DX|Company: Autodesk"
 90
        0
280
     0
281
     0
  0
CLASS
  1
ACMDETAILSTANDARDANSI
  2
AmdtDetailSymStdANSI
  3
"Amdt_StdImp|Product Description: AutoCAD Mechanical 2004 DX|Company: Autodesk"
 90
        0
280
     0
281
     0
  0
CLASS
  1
ACMSECTIONSTANDARDANSI
  2
AmdtSectionSymStdANSI
  3
"Amdt_StdImp|Product Description: AutoCAD Mechanical 2004 DX|Company: Autodesk"
 90
        0
280
     0
281
     0
  0
CLASS
  1
ACMCENTERLINESTANDARDANSI
  2
AmdtCenterLineStdANSI
  3
"Amdt_StdImp|Product Description: AutoCAD Mechanical 2004 DX|Company: Autodesk"
 90
        0
280
     0
281
     0
  0
CLASS
  1
ACMTHREADLINESTANDARDANSI
  2
AmdtThreadLineStdANSI
  3
"Amdt_StdImp|Product Description: AutoCAD Mechanical 2004 DX|Company: Autodesk"
 90
        0
280
     0
281
     0
  0
CLASS
  1
ACMNOTESTANDARDANSI
  2
AmdtNoteStdANSI
  3
"Amdt_StdImp|Product Description: AutoCAD Mechanical 2004 DX|Company: Autodesk"
 90
        0
280
     0
281
     0
  0
CLASS
  1
AMDTNOTETEMPLATEDB
  2
AmdtNoteTemplateDB
  3
AMDT_STDIMP_MODULE_NAME
 90
        0
280
     0
281
     0
  0
CLASS
  1
ACAMGLAYSTD
  2
AcAmgLayStd
  3
"AcAmgLayStd|Product Description: AutoCAD Mechanical 2000|Company: Autodesk"
 90
        0
280
     0
281
     0
  0
CLASS
  1
ACAMGDIMSTD
  2
AcAmgDimStd
  3
"AcAmgDimStd|Product Description: AutoCAD Mechanical 2000|Company: Autodesk"
 90
        0
280
     0
281
     0
  0
CLASS
  1
ACAMGHOLECHARTSTDANSI
  2
AcAmgHoleChartStdANSI
  3
ACMSYMBB_MODULE_NAME
 90
        0
280
     0
281
     0
  0
CLASS
  1
ACAMGTITLESTD
  2
AcAmgTitleStd
  3
"TITLEAPP"
 90
        0
280
     0
281
     0
  0
CLASS
  1
ACAMGFILTERDAT
  2
AcAmgFilterDat
  3
"AcadM|Product Description: AutoCAD Mechanical 2000|Company: Autodesk"
 90
        0
280
     0
281
     0
  0
CLASS
  1
ACMSTANDARDISO
  2
AcmStandardISO
  3
"Amdt_StdImp|Product Description: AutoCAD Mechanical 2004 DX|Company: Autodesk"
 90
        0
280
     0
281
     0
  0
CLASS
  1
AMDTEDGESTANDARDISO13715
  2
AmdtEdgeStdISO13715
  3
"Amdt_StdImp|Product Description: AutoCAD Mechanical 2004 DX|Company: Autodesk"
 90
        0
280
     0
281
     0
  0
CLASS
  1
ACMSURFSTANDARDISO
  2
AcmSurfTextStdISO
  3
"Amdt_StdImp|Product Description: AutoCAD Mechanical 2004 DX|Company: Autodesk"
 90
        0
280
     0
281
     0
  0
CLASS
  1
ACMFCFSTANDARDISO
  2
AcmFCFStdISO
  3
"Amdt_StdImp|Product Description: AutoCAD Mechanical 2004 DX|Company: Autodesk"
 90
        0
280
     0
281
     0
  0
CLASS
  1
ACMWELDSTANDARDISO
  2
AcmWeldingStdISO
  3
"Amdt_StdImp|Product Description: AutoCAD Mechanical 2004 DX|Company: Autodesk"
 90
        0
280
     0
281
     0
  0
CLASS
  1
ACMIDSTANDARDISO
  2
AcmIdStdISO
  3
"Amdt_StdImp|Product Description: AutoCAD Mechanical 2004 DX|Company: Autodesk"
 90
        0
280
     0
281
     0
  0
CLASS
  1
ACMDATUMSTANDARDISO
  2
AcmDatumStdISO
  3
"Amdt_StdImp|Product Description: AutoCAD Mechanical 2004 DX|Company: Autodesk"
 90
        0
280
     0
281
     0
  0
CLASS
  1
ACMBOMSTANDARDISO
  2
AcmBOMStdISO
  3
"Amdt_StdImp|Product Description: AutoCAD Mechanical 2004 DX|Company: Autodesk"
 90
        0
280
     0
281
     0
  0
CLASS
  1
ACMDETAILSTANDARDISO
  2
AmdtDetailSymStdISO
  3
"Amdt_StdImp|Product Description: AutoCAD Mechanical 2004 DX|Company: Autodesk"
 90
        0
280
     0
281
     0
  0
CLASS
  1
ACMSECTIONSTANDARDISO
  2
AmdtSectionSymStdISO
  3
"Amdt_StdImp|Product Description: AutoCAD Mechanical 2004 DX|Company: Autodesk"
 90
        0
280
     0
281
     0
  0
CLASS
  1
ACMCENTERLINESTANDARDISO
  2
AmdtCenterLineStdISO
  3
"Amdt_StdImp|Product Description: AutoCAD Mechanical 2004 DX|Company: Autodesk"
 90
        0
280
     0
281
     0
  0
CLASS
  1
ACMTHREADLINESTANDARDISO
  2
AmdtThreadLineStdISO
  3
"Amdt_StdImp|Product Description: AutoCAD Mechanical 2004 DX|Company: Autodesk"
 90
        0
280
     0
281
     0
  0
CLASS
  1
ACMNOTESTANDARDISO
  2
AmdtNoteStdISO
  3
"Amdt_StdImp|Product Description: AutoCAD Mechanical 2004 DX|Company: Autodesk"
 90
        0
280
     0
281
     0
  0
CLASS
  1
ACAMGHOLECHARTSTDISO
  2
AcAmgHoleChartStdISO
  3
ACMSYMBB_MODULE_NAME
 90
        0
280
     0
281
     0
  0
CLASS
  1
ACMDIMBREAKPERSREACTOR
  2
AcmDimBreakPersReactor
  3
amgDimApp().moduleName()
 90
    33791
280
     0
281
     0
  0
ENDSEC
  0
SECTION
  2
TABLES
  0
TABLE
  2
VPORT
  5
7
330
0
100
AcDbSymbolTable
 70
   575
  0
VPORT
  5
4854
330
7
100
AcDbSymbolTableRecord
100
AcDbViewportTableRecord
  2
*Active
 70
     0
 10
0.0
 20
0.0
 11
1.0
 21
1.0
 12
30.57787822992418
 22
-9.691145179952286
 13
0.0
 23
0.0
 14
2.5
 24
2.5
 15
10.0
 25
10.0
 16
0.0
 26
0.0
 36
1.0
 17
662.4499101411736
 27
406.2075537970023
 37
0.0
 40
469.5496230209315
 41
0.9815602836879431
 42
50.0
 43
0.0
 44
0.0
 50
0.0
 51
0.0
 71
     0
 72
  2000
 73
     1
 74
     1
 75
     0
 76
     0
 77
     0
 78
     0
281
     0
 65
     0
110
0.0
120
0.0
130
0.0
111
1.0
121
0.0
131
0.0
112
0.0
122
1.0
132
0.0
 79
     0
146
0.0
  0
ENDTAB
  0
TABLE
  2
LTYPE
  5
4
330
0
100
AcDbSymbolTable
 70
    21
  0
LTYPE
  5
11
330
4
100
AcDbSymbolTableRecord
100
AcDbLinetypeTableRecord
  2
BYBLOCK
 70
     0
  3

 72
    65
 73
     0
 40
0.0
  0
LTYPE
  5
12
330
4
100
AcDbSymbolTableRecord
100
AcDbLinetypeTableRecord
  2
BYLAYER
 70
     0
  3

 72
    65
 73
     0
 40
0.0
  0
LTYPE
  5
13
330
4
100
AcDbSymbolTableRecord
100
AcDbLinetypeTableRecord
  2
CONTINUOUS
 70
     0
  3
Solid line
 72
    65
 73
     0
 40
0.0
  0
LTYPE
  5
27
330
4
100
AcDbSymbolTableRecord
100
AcDbLinetypeTableRecord
  2
CENTER
 70
     0
  3
Center ____ _ ____ _ ____ _ ____ _ ____ _ ____
 72
    65
 73
     4
 40
10.16
 49
6.349999999999997
 74
     0
 49
-1.27
 74
     0
 49
1.27
 74
     0
 49
-1.27
 74
     0
  0
LTYPE
  5
F09
330
4
100
AcDbSymbolTableRecord
100
AcDbLinetypeTableRecord
  2
HIDDEN
 70
     0
  3
Hidden __ __ __ __ __ __ __ __ __ __ __ __ __ _
 72
    65
 73
     2
 40
0.375
 49
0.25
 74
     0
 49
-0.125
 74
     0
  0
LTYPE
  5
F0A
330
4
100
AcDbSymbolTableRecord
100
AcDbLinetypeTableRecord
  2
PHANTOM2
 70
     0
  3
Phantom (.5x) ___ _ _ ___ _ _ ___ _ _ ___ _ _
 72
    65
 73
     6
 40
1.25
 49
0.625
 74
     0
 49
-0.125
 74
     0
 49
0.125
 74
     0
 49
-0.125
 74
     0
 49
0.125
 74
     0
 49
-0.125
 74
     0
  0
LTYPE
  5
FA1
330
4
100
AcDbSymbolTableRecord
100
AcDbLinetypeTableRecord
  2
AM_ISO02W050
 70
     0
  3
__ __ __ __ __ __ __ __ __ __ __ __ __ __ __
 72
    65
 73
     2
 40
7.5
 49
6.0
 74
     0
 49
-1.5
 74
     0
  0
LTYPE
  5
FA2
330
4
100
AcDbSymbolTableRecord
100
AcDbLinetypeTableRecord
  2
AM_ISO08W050
 70
     0
  3
____ . ____ . ____ . ____ . ____ . ____ . ____
 72
    65
 73
     4
 40
18.0
 49
12.0
 74
     0
 49
-1.5
 74
     0
 49
3.0
 74
     0
 49
-1.5
 74
     0
  0
LTYPE
  5
FA3
330
4
100
AcDbSymbolTableRecord
100
AcDbLinetypeTableRecord
  2
AM_ISO09W050
 70
     0
  3
_____ . . _____ . . _____ . . ____ .. ____
 72
    65
 73
     6
 40
22.5
 49
12.0
 74
     0
 49
-1.5
 74
     0
 49
3.0
 74
     0
 49
-1.5
 74
     0
 49
3.0
 74
     0
 49
-1.5
 74
     0
  0
LTYPE
  5
FA4
330
4
100
AcDbSymbolTableRecord
100
AcDbLinetypeTableRecord
  2
Amconstr
 70
     0
  3
_______________________
 72
    65
 73
     2
 40
9999.0
 49
9999.0
 74
     0
 49
0.0
 74
     0
  0
LTYPE
  5
FA5
330
4
100
AcDbSymbolTableRecord
100
AcDbLinetypeTableRecord
  2
AM_ISO08W050x2
 70
     0
  3
__ . __ . __ . __ . __ . __
 72
    65
 73
     4
 40
9.0
 49
6.0
 74
     0
 49
-0.75
 74
     0
 49
1.5
 74
     0
 49
-0.75
 74
     0
  0
LTYPE
  5
FA6
330
4
100
AcDbSymbolTableRecord
100
AcDbLinetypeTableRecord
  2
AM_ISO02W050x2
 70
     0
  3
 _ _ _ _ _ _ _ _ _ _ _ _
 72
    65
 73
     2
 40
3.75
 49
3.0
 74
     0
 49
-0.75
 74
     0
  0
LTYPE
  5
FA9
330
4
100
AcDbSymbolTableRecord
100
AcDbLinetypeTableRecord
  2
Amzigzag
 70
     0
  3
/\/-/\/-/\/-/\/-/\/-/\/
 72
    65
 73
     2
 40
11.0001
 49
0.0001
 74
     4
 75
   135
340
FA8
 46
0.04
 50
0.0
 44
0.0
 45
0.0
 49
-11.0
 74
     0
  0
LTYPE
  5
FAA
330
4
100
AcDbSymbolTableRecord
100
AcDbLinetypeTableRecord
  2
CENTER2
 70
     0
  3
Center (.5x) ___ _ ___ _ ___ _ ___ _ ___ _ ___
 72
    65
 73
     4
 40
1.125
 49
0.75
 74
     0
 49
-0.125
 74
     0
 49
0.125
 74
     0
 49
-0.125
 74
     0
  0
LTYPE
  5
FAB
330
4
100
AcDbSymbolTableRecord
100
AcDbLinetypeTableRecord
  2
HIDDEN2
 70
     0
  3
Hidden (.5x) _ _ _ _ _ _ _ _ _ _ _ _ _ _ _ _ _
 72
    65
 73
     2
 40
0.1875
 49
0.125
 74
     0
 49
-0.0625
 74
     0
  0
LTYPE
  5
FAC
330
4
100
AcDbSymbolTableRecord
100
AcDbLinetypeTableRecord
  2
Amzigzag2
 70
     0
  3
/\/-/\/-/\/-/\/-/\/-/\/
 72
    65
 73
     2
 40
0.4401
 49
0.0001
 74
     4
 75
   135
340
FA8
 46
0.0016
 50
0.0
 44
0.0
 45
0.0
 49
-0.4400000000000001
 74
     0
  0
LTYPE
  5
FBA
330
4
100
AcDbSymbolTableRecord
100
AcDbLinetypeTableRecord
  2
ACANSTGB
 70
     0
  3
__ . . __ . .
 72
    65
 73
     6
 40
0.35433070866
 49
0.15748031496
 74
     0
 49
-0.03937007874
 74
     0
 49
0.03937007874
 74
     0
 49
-0.03937007874
 74
     0
 49
0.03937007874
 74
     0
 49
-0.03937007874
 74
     0
  0
LTYPE
  5
FBB
330
4
100
AcDbSymbolTableRecord
100
AcDbLinetypeTableRecord
  2
ACANSTGL
 70
     0
  3
_ _ _ _ _
 72
    65
 73
     2
 40
0.11811023622
 49
0.07874015748
 74
     0
 49
-0.03937007874
 74
     0
  0
LTYPE
  5
10A3
330
4
100
AcDbSymbolTableRecord
100
AcDbLinetypeTableRecord
  2
ACISOWELD
 70
     0
  3
_ _ _ _ _
 72
    65
 73
     2
 40
2.0
 49
2.0
 74
     0
 49
-1.0
 74
     0
  0
LTYPE
  5
10A4
330
4
100
AcDbSymbolTableRecord
100
AcDbLinetypeTableRecord
  2
ACISOTGB
 70
     0
  3
__ . . __ . .
 72
    65
 73
     6
 40
9.0
 49
4.0
 74
     0
 49
-1.0
 74
     0
 49
1.0
 74
     0
 49
-1.0
 74
     0
 49
1.0
 74
     0
 49
-1.0
 74
     0
  0
LTYPE
  5
10A5
330
4
100
AcDbSymbolTableRecord
100
AcDbLinetypeTableRecord
  2
ACISOTGL
 70
     0
  3
_ _ _ _ _
 72
    65
 73
     2
 40
3.0
 49
2.0
 74
     0
 49
-1.0
 74
     0
  0
ENDTAB
  0
TABLE
  2
LAYER
  5
2
102
{ACAD_XDICTIONARY
360
1002
102
}
330
0
100
AcDbSymbolTable
 70
     7
  0
LAYER
  5
14
330
2
100
AcDbSymbolTableRecord
100
AcDbLayerTableRecord
  2
0
 70
     0
 62
     7
  6
CONTINUOUS
370
    -3
390
1D
  0
LAYER
  5
A05
330
2
100
AcDbSymbolTableRecord
100
AcDbLayerTableRecord
  2
CENTER
 70
     0
 62
     1
  6
CENTER
370
    -3
390
1D
  0
LAYER
  5
A16
330
2
100
AcDbSymbolTableRecord
100
AcDbLayerTableRecord
  2
DIM
 70
     0
 62
     4
  6
CONTINUOUS
370
    -3
390
1D
  0
LAYER
  5
D20
330
2
100
AcDbSymbolTableRecord
100
AcDbLayerTableRecord
  2
Defpoints
 70
     0
 62
     7
  6
CONTINUOUS
290
     0
370
    -3
390
1D
  0
LAYER
  5
FD9
330
2
100
AcDbSymbolTableRecord
100
AcDbLayerTableRecord
  2
AM_5
 70
     0
 62
     5
  6
CONTINUOUS
370
    50
390
1D
  0
LAYER
  5
1B6F
330
2
100
AcDbSymbolTableRecord
100
AcDbLayerTableRecord
  2
LOGO
 70
     0
 62
     7
  6
CONTINUOUS
370
    -3
390
1D
  0
ENDTAB
  0
TABLE
  2
STYLE
  5
3
330
0
100
AcDbSymbolTable
 70
     8
  0
STYLE
  5
17
330
3
100
AcDbSymbolTableRecord
100
AcDbTextStyleTableRecord
  2
STANDARD
 70
     0
 40
0.0
 41
1.0
 50
0.0
 71
     0
 42
3.5
  3
ISOCP.SHX
  4

  0
STYLE
  5
9F7
330
3
100
AcDbSymbolTableRecord
100
AcDbTextStyleTableRecord
  2
CHINA
 70
     0
 40
0.0
 41
1.0
 50
0.0
 71
     0
 42
2.5
  3
romans.shx
  4
chineset.shx
  0
STYLE
  5
FA8
330
3
100
AcDbSymbolTableRecord
100
AcDbTextStyleTableRecord
  2

 70
     1
 40
0.0
 41
1.0
 50
0.0
 71
     0
 42
0.2
  3
ltypeshp.shx
  4

  0
STYLE
  5
FAD
330
3
100
AcDbSymbolTableRecord
100
AcDbTextStyleTableRecord
  2
ACANSTS
 70
     0
 40
1.0
 41
1.0
 50
0.0
 71
     0
 42
0.2
  3
romans.shx
  4
chineset.shx
  0
STYLE
  5
FB9
330
3
100
AcDbSymbolTableRecord
100
AcDbTextStyleTableRecord
  2
ACANSGDT
 70
     0
 40
0.0
 41
1.0
 50
0.0
 71
     0
 42
0.2
  3
amgdtans.shx
  4

  0
STYLE
  5
1095
330
3
100
AcDbSymbolTableRecord
100
AcDbTextStyleTableRecord
  2
ACISOTS
 70
     0
 40
1.0
 41
1.0
 50
0.0
 71
     0
 42
0.2
  3
isocp.shx
  4
chineset.shx
  0
STYLE
  5
10A2
330
3
100
AcDbSymbolTableRecord
100
AcDbTextStyleTableRecord
  2
ACISOGDT
 70
     0
 40
0.0
 41
1.0
 50
0.0
 71
     0
 42
0.2
  3
amgdt.shx
  4

  0
STYLE
  5
1B70
330
3
100
AcDbSymbolTableRecord
100
AcDbTextStyleTableRecord
  2
CHINESET
 70
     0
 40
0.0
 41
0.75
 50
0.0
 71
     0
 42
3.0
  3
simplex.shx
  4
CHINESET.SHX
  0
ENDTAB
  0
TABLE
  2
VIEW
  5
5
330
0
100
AcDbSymbolTable
 70
     0
  0
ENDTAB
  0
TABLE
  2
UCS
  5
6
330
0
100
AcDbSymbolTable
 70
     0
  0
ENDTAB
  0
TABLE
  2
APPID
  5
8
330
0
100
AcDbSymbolTable
 70
    22
  0
APPID
  5
16
330
8
100
AcDbSymbolTableRecord
100
AcDbRegAppTableRecord
  2
ACAD
 70
     0
  0
APPID
  5
ED5
330
8
100
AcDbSymbolTableRecord
100
AcDbRegAppTableRecord
  2
GENIUS_GENDIM_13
 70
     0
  0
APPID
  5
ED6
330
8
100
AcDbSymbolTableRecord
100
AcDbRegAppTableRecord
  2
GENIUS_GENDTOL_13
 70
     0
  0
APPID
  5
ED7
330
8
100
AcDbSymbolTableRecord
100
AcDbRegAppTableRecord
  2
GENIUS_GE3DTOL_13
 70
     0
  0
APPID
  5
EDA
330
8
100
AcDbSymbolTableRecord
100
AcDbRegAppTableRecord
  2
MCAD_NO_VIS
 70
     0
  0
APPID
  5
EDB
330
8
100
AcDbSymbolTableRecord
100
AcDbRegAppTableRecord
  2
ACAD_TEMP_GRAPHIC
 70
     0
  0
APPID
  5
F0C
330
8
100
AcDbSymbolTableRecord
100
AcDbRegAppTableRecord
  2
AD_DRAW
 70
     0
  0
APPID
  5
F0F
330
8
100
AcDbSymbolTableRecord
100
AcDbRegAppTableRecord
  2
ACATTRIBSERVICES
 70
     0
  0
APPID
  5
F5B
330
8
100
AcDbSymbolTableRecord
100
AcDbRegAppTableRecord
  2
ASURF_PCURVE_APPNAME
 70
     0
  0
APPID
  5
F60
330
8
100
AcDbSymbolTableRecord
100
AcDbRegAppTableRecord
  2
AMG_3D2D_5.0
 70
     0
  0
APPID
  5
F8F
330
8
100
AcDbSymbolTableRecord
100
AcDbRegAppTableRecord
  2
DESIGNERASSEMBLIES
 70
     0
  0
APPID
  5
F96
330
8
100
AcDbSymbolTableRecord
100
AcDbRegAppTableRecord
  2
ACADM_DIM_EDIT
 70
     0
  0
APPID
  5
F97
330
8
100
AcDbSymbolTableRecord
100
AcDbRegAppTableRecord
  2
AMDT_DM_ADJ
 70
     0
  0
APPID
  5
1052
330
8
100
AcDbSymbolTableRecord
100
AcDbRegAppTableRecord
  2
GENIUS_GENDIMSH_14
 70
     0
  0
APPID
  5
108A
330
8
100
AcDbSymbolTableRecord
100
AcDbRegAppTableRecord
  2
ACAD_DSTYLE_DIMTEXT_FILL
 70
     0
  0
APPID
  5
1B72
330
8
100
AcDbSymbolTableRecord
100
AcDbRegAppTableRecord
  2
GENIUS_GENODEF_13
 70
     0
  0
APPID
  5
1B73
330
8
100
AcDbSymbolTableRecord
100
AcDbRegAppTableRecord
  2
GENIUS_GENOENT_13
 70
     0
  0
APPID
  5
1B74
330
8
100
AcDbSymbolTableRecord
100
AcDbRegAppTableRecord
  2
GENIUS_GENOBJ-N-CRS_13
 70
     0
  0
APPID
  5
1B75
330
8
100
AcDbSymbolTableRecord
100
AcDbRegAppTableRecord
  2
GENIUS_GENOLIS_13
 70
     0
  0
APPID
  5
1B76
330
8
100
AcDbSymbolTableRecord
100
AcDbRegAppTableRecord
  2
GENIUS_GENOREF_13
 70
     0
  0
APPID
  5
1B77
330
8
100
AcDbSymbolTableRecord
100
AcDbRegAppTableRecord
  2
GENIUS_GENREC_14
 70
     0
  0
APPID
  5
1B78
330
8
100
AcDbSymbolTableRecord
100
AcDbRegAppTableRecord
  2
GENIUS_GENOBJ-N-REC_13
 70
     0
  0
ENDTAB
  0
TABLE
  2
DIMSTYLE
  5
9
330
0
100
AcDbSymbolTable
 70
    19
100
AcDbDimStyleTable
 71
     2
340
10AE
340
9F8
  0
DIMSTYLE
105
18
330
9
100
AcDbSymbolTableRecord
100
AcDbDimStyleTableRecord
  2
STANDARD
 70
     0
340
17
  0
DIMSTYLE
105
9F8
102
{ACAD_REACTORS
330
3D43
330
3D4A
102
}
330
9
100
AcDbSymbolTableRecord
100
AcDbDimStyleTableRecord
  2
ISO-25
 70
     0
 41
2.0
 42
1.0
 44
1.0
 73
     0
 74
     0
 77
     1
 78
     8
140
2.5
141
1.0
143
0.03937007874016
147
1.0
171
     3
172
     1
174
     1
176
   256
177
   256
178
   256
271
     2
272
     2
274
     3
283
     0
284
     8
340
9F7
  0
DIMSTYLE
105
FC4
330
9
100
AcDbSymbolTableRecord
100
AcDbDimStyleTableRecord
  2
AM_ANSI
 70
     0
  4
mm
 41
0.1
 42
0.05
 43
0.5
 44
0.1
 47
0.1
 48
0.1
 78
     7
 79
     2
140
0.12
141
0.0
146
0.71
147
0.06
176
   256
177
   256
178
     2
274
     4
284
     7
340
17
371
    -1
372
    -1
  0
DIMSTYLE
105
FC5
330
9
100
AcDbSymbolTableRecord
100
AcDbDimStyleTableRecord
  2
AM_ANSI$3
 70
     0
  4
mm
 41
0.1
 42
0.05
 43
0.5
 44
0.1
 47
0.1
 48
0.1
 78
     7
 79
     2
140
0.12
141
0.0
146
0.71
147
0.06
176
   256
177
   256
178
     2
274
     4
284
     7
288
     1
289
     0
340
17
371
    -1
372
    -1
  0
DIMSTYLE
105
FC6
330
9
100
AcDbSymbolTableRecord
100
AcDbDimStyleTableRecord
  2
AM_ANSI$4
 70
     0
  4
mm
 41
0.1
 42
0.05
 43
0.5
 44
0.1
 47
0.1
 48
0.1
 78
     7
 79
     2
140
0.12
141
0.0
146
0.71
147
0.06
176
   256
177
   256
178
     2
274
     4
284
     7
288
     1
289
     0
340
17
371
    -1
372
    -1
  0
DIMSTYLE
105
FC7
330
9
100
AcDbSymbolTableRecord
100
AcDbDimStyleTableRecord
  2
AM_ANSI$7
 70
     0
  4
mm
 41
0.1
 42
0.05
 43
0.5
 44
0.1
 47
0.1
 48
0.1
 78
     7
 79
     2
140
0.24
141
0.0
146
0.71
147
0.06
176
   256
177
   256
178
     2
274
     4
284
     7
340
17
371
    -1
372
    -1
  0
DIMSTYLE
105
FC8
330
9
100
AcDbSymbolTableRecord
100
AcDbDimStyleTableRecord
  2
AM_ANSI$SF
 70
     0
  4
mm
 41
0.1
 42
0.05
 43
0.5
 44
0.1
 47
0.1
 48
0.1
 75
     1
 76
     1
 78
     7
 79
     2
140
0.12
141
0.0
146
0.71
147
0.06
176
   256
177
   256
178
     2
274
     4
284
     7
340
17
371
    -1
372
    -1
  0
DIMSTYLE
105
FCD
330
9
100
AcDbSymbolTableRecord
100
AcDbDimStyleTableRecord
  2
AM_ANSI$SH
 70
     0
  4
mm
 41
0.1
 42
0.05
 43
0.5
 44
0.1
 47
0.1
 48
0.1
 75
     1
 76
     1
 78
     7
 79
     2
140
0.12
141
0.0
146
0.71
147
0.06
173
     1
176
   256
177
   256
178
     2
274
     4
284
     7
340
17
343
FC9
371
    -1
372
    -1
  0
DIMSTYLE
105
FE5
330
9
100
AcDbSymbolTableRecord
100
AcDbDimStyleTableRecord
  2
ISO-25$0
 70
     0
 41
2.0
 42
1.0
 44
1.0
 73
     0
 74
     0
 77
     1
 78
     8
140
2.5
141
1.0
143
0.03937007874016
147
1.0
171
     3
172
     1
174
     1
176
   256
177
   256
178
   256
271
     2
272
     2
274
     3
283
     0
284
     8
340
9F7
  0
DIMSTYLE
105
10AE
330
9
100
AcDbSymbolTableRecord
100
AcDbDimStyleTableRecord
  2
AM_ISO
 70
     0
  4
"
 41
3.0
 42
1.0
 43
6.5
 44
1.0
 47
0.1
 48
0.1
 73
     0
 74
     0
 77
     1
 78
     8
 79
     2
140
3.5
141
0.0
143
0.0393701
146
0.71
147
1.0
172
     1
176
   256
177
   256
178
   256
271
     2
272
     2
283
     0
284
     8
340
17
371
    -1
372
    -1
  0
DIMSTYLE
105
10AF
102
{ACAD_REACTORS
330
3FF3
330
4158
330
41CF
330
442C
330
4582
102
}
330
9
100
AcDbSymbolTableRecord
100
AcDbDimStyleTableRecord
  2
AM_ISO$3
 70
     0
  4
"
 41
3.0
 42
1.0
 43
6.5
 44
1.0
 47
0.1
 48
0.1
 73
     0
 77
     1
 78
     8
 79
     2
140
3.5
141
0.0
143
0.0393701
146
0.71
147
1.0
176
   256
177
   256
178
   256
271
     2
272
     2
283
     0
284
     8
288
     1
289
     0
340
17
371
    -1
372
    -1
  0
DIMSTYLE
105
10B0
102
{ACAD_REACTORS
330
43DC
102
}
330
9
100
AcDbSymbolTableRecord
100
AcDbDimStyleTableRecord
  2
AM_ISO$4
 70
     0
  4
"
 41
3.0
 42
1.0
 43
6.5
 44
1.0
 47
0.1
 48
0.1
 73
     0
 77
     1
 78
     8
 79
     2
140
3.5
141
0.0
143
0.0393701
146
0.71
147
1.0
176
   256
177
   256
178
   256
271
     2
272
     2
283
     0
284
     8
288
     1
289
     0
340
17
371
    -1
372
    -1
  0
DIMSTYLE
105
10B1
330
9
100
AcDbSymbolTableRecord
100
AcDbDimStyleTableRecord
  2
AM_ISO$6
 70
     0
  4
"
 41
3.0
 42
1.0
 43
6.5
 44
1.0
 47
0.1
 48
0.1
 73
     0
 74
     0
 78
     8
 79
     2
140
3.5
141
0.0
143
0.0393701
146
0.71
147
1.0
172
     1
176
   256
177
   256
178
   256
271
     2
272
     2
283
     0
284
     8
340
17
371
    -1
372
    -1
  0
DIMSTYLE
105
10B2
102
{ACAD_REACTORS
330
18EE
330
28D6
330
3FEB
102
}
330
9
100
AcDbSymbolTableRecord
100
AcDbDimStyleTableRecord
  2
AM_ISO$7
 70
     0
  4
"
 41
3.0
 42
1.0
 43
6.5
 44
1.0
 47
0.1
 48
0.1
 73
     0
 74
     0
 77
     1
 78
     8
 79
     2
140
5.0
141
0.0
143
0.0393701
146
0.71
147
1.0
172
     1
176
   256
177
   256
178
   256
271
     2
272
     2
283
     0
284
     8
340
17
371
    -1
372
    -1
  0
DIMSTYLE
105
10B3
330
9
100
AcDbSymbolTableRecord
100
AcDbDimStyleTableRecord
  2
AM_ISO$SF
 70
     0
  4
"
 41
2.5
 42
1.0
 43
10.0
 44
1.0
 47
0.1
 48
0.1
 73
     0
 74
     0
 75
     1
 76
     1
 77
     1
 78
     8
 79
     2
140
3.5
141
0.0
143
0.0393701
146
0.71
147
1.5
172
     1
176
   256
177
   256
178
     2
271
     2
272
     3
274
     4
283
     0
284
     8
340
17
371
    -1
372
    -1
  0
DIMSTYLE
105
10B4
330
9
100
AcDbSymbolTableRecord
100
AcDbDimStyleTableRecord
  2
AM_ISO$SH
 70
     0
  4
"
 41
2.5
 42
1.0
 43
10.0
 44
1.0
 47
0.1
 48
0.1
 73
     0
 74
     0
 75
     1
 76
     1
 77
     1
 78
     8
 79
     2
140
3.5
141
0.0
143
0.0393701
144
2.0
146
0.71
147
1.5
172
     1
173
     1
176
   256
177
   256
178
     2
271
     2
272
     3
274
     4
283
     0
284
     8
340
17
343
FC9
371
    -1
372
    -1
  0
DIMSTYLE
105
1182
102
{ACAD_REACTORS
330
3E17
330
3E3A
330
3E6F
330
3E9B
330
3EC8
330
3F02
330
3F2A
330
3F68
330
4048
330
40C7
330
40EF
330
426F
330
42A4
330
42FF
330
432B
330
4357
330
4389
330
43B5
330
45DC
330
4612
330
4651
330
467D
102
}
330
9
100
AcDbSymbolTableRecord
100
AcDbDimStyleTableRecord
  2
AM_ISO$0
 70
     0
  4
"
 41
3.0
 42
1.0
 43
6.5
 44
1.0
 47
0.1
 48
0.1
 73
     0
 74
     0
 77
     1
 78
     8
 79
     2
140
3.5
141
0.0
143
0.0393701
146
0.71
147
1.0
172
     1
176
   256
177
   256
178
   256
271
     2
272
     2
283
     0
284
     8
340
17
371
    -1
372
    -1
  0
DIMSTYLE
105
2CDA
102
{ACAD_REACTORS
330
44D0
330
449B
330
446D
102
}
330
9
100
AcDbSymbolTableRecord
100
AcDbDimStyleTableRecord
  2
AM_ISO$2
 70
     0
  4
"
 41
3.0
 42
1.0
 43
6.5
 44
1.0
 47
0.1
 48
0.1
 73
     0
 74
     0
 77
     1
 78
     8
 79
     2
140
3.5
141
0.0
143
0.0393701
146
0.71
147
1.0
172
     1
176
   256
177
   256
178
   256
271
     2
272
     2
283
     0
284
     8
340
17
371
    -1
372
    -1
  0
ENDTAB
  0
TABLE
  2
BLOCK_RECORD
  5
1
330
0
100
AcDbSymbolTable
 70
    82
  0
BLOCK_RECORD
  5
A
102
{ACAD_XDICTIONARY
360
9C9
102
}
330
1
100
AcDbSymbolTableRecord
100
AcDbBlockTableRecord
  2
*MODEL_SPACE
340
A68
  0
BLOCK_RECORD
  5
B
102
{ACAD_XDICTIONARY
360
9CB
102
}
330
1
100
AcDbSymbolTableRecord
100
AcDbBlockTableRecord
  2
*PAPER_SPACE
340
A69
  0
BLOCK_RECORD
  5
FC9
330
1
100
AcDbSymbolTableRecord
100
AcDbBlockTableRecord
  2
GENAXEH
340
0
  0
BLOCK_RECORD
  5
3DA4
330
1
100
AcDbSymbolTableRecord
100
AcDbBlockTableRecord
  2
*D44
340
0
  0
BLOCK_RECORD
  5
3DB1
330
1
100
AcDbSymbolTableRecord
100
AcDbBlockTableRecord
  2
*D45
340
0
  0
BLOCK_RECORD
  5
3E18
330
1
100
AcDbSymbolTableRecord
100
AcDbBlockTableRecord
  2
*D46
340
0
  0
BLOCK_RECORD
  5
3E3B
330
1
100
AcDbSymbolTableRecord
100
AcDbBlockTableRecord
  2
*D47
340
0
  0
BLOCK_RECORD
  5
3E70
330
1
100
AcDbSymbolTableRecord
100
AcDbBlockTableRecord
  2
*D48
340
0
  0
BLOCK_RECORD
  5
3E9C
330
1
100
AcDbSymbolTableRecord
100
AcDbBlockTableRecord
  2
*D49
340
0
  0
BLOCK_RECORD
  5
3EC9
330
1
100
AcDbSymbolTableRecord
100
AcDbBlockTableRecord
  2
*D50
340
0
  0
BLOCK_RECORD
  5
3F03
330
1
100
AcDbSymbolTableRecord
100
AcDbBlockTableRecord
  2
*D51
340
0
  0
BLOCK_RECORD
  5
3F2B
330
1
100
AcDbSymbolTableRecord
100
AcDbBlockTableRecord
  2
*D52
340
0
  0
BLOCK_RECORD
  5
3F69
330
1
100
AcDbSymbolTableRecord
100
AcDbBlockTableRecord
  2
*D53
340
0
  0
BLOCK_RECORD
  5
3FF4
330
1
100
AcDbSymbolTableRecord
100
AcDbBlockTableRecord
  2
*D54
340
0
  0
BLOCK_RECORD
  5
4049
330
1
100
AcDbSymbolTableRecord
100
AcDbBlockTableRecord
  2
*D55
340
0
  0
BLOCK_RECORD
  5
40C8
330
1
100
AcDbSymbolTableRecord
100
AcDbBlockTableRecord
  2
*D57
340
0
  0
BLOCK_RECORD
  5
40F0
330
1
100
AcDbSymbolTableRecord
100
AcDbBlockTableRecord
  2
*D58
340
0
  0
BLOCK_RECORD
  5
4159
330
1
100
AcDbSymbolTableRecord
100
AcDbBlockTableRecord
  2
*D60
340
0
  0
BLOCK_RECORD
  5
41D0
330
1
100
AcDbSymbolTableRecord
100
AcDbBlockTableRecord
  2
*D62
340
0
  0
BLOCK_RECORD
  5
4270
330
1
100
AcDbSymbolTableRecord
100
AcDbBlockTableRecord
  2
*D63
340
0
  0
BLOCK_RECORD
  5
42A5
330
1
100
AcDbSymbolTableRecord
100
AcDbBlockTableRecord
  2
*D64
340
0
  0
BLOCK_RECORD
  5
4300
330
1
100
AcDbSymbolTableRecord
100
AcDbBlockTableRecord
  2
*D65
340
0
  0
BLOCK_RECORD
  5
432C
330
1
100
AcDbSymbolTableRecord
100
AcDbBlockTableRecord
  2
*D66
340
0
  0
BLOCK_RECORD
  5
4358
330
1
100
AcDbSymbolTableRecord
100
AcDbBlockTableRecord
  2
*D67
340
0
  0
BLOCK_RECORD
  5
438A
330
1
100
AcDbSymbolTableRecord
100
AcDbBlockTableRecord
  2
*D68
340
0
  0
BLOCK_RECORD
  5
43B6
330
1
100
AcDbSymbolTableRecord
100
AcDbBlockTableRecord
  2
*D69
340
0
  0
BLOCK_RECORD
  5
43DD
330
1
100
AcDbSymbolTableRecord
100
AcDbBlockTableRecord
  2
*D70
340
0
  0
BLOCK_RECORD
  5
442D
330
1
100
AcDbSymbolTableRecord
100
AcDbBlockTableRecord
  2
*D72
340
0
  0
BLOCK_RECORD
  5
446E
330
1
100
AcDbSymbolTableRecord
100
AcDbBlockTableRecord
  2
*D73
340
0
  0
BLOCK_RECORD
  5
449C
330
1
100
AcDbSymbolTableRecord
100
AcDbBlockTableRecord
  2
*D74
340
0
  0
BLOCK_RECORD
  5
44D1
330
1
100
AcDbSymbolTableRecord
100
AcDbBlockTableRecord
  2
*D75
340
0
  0
BLOCK_RECORD
  5
4583
330
1
100
AcDbSymbolTableRecord
100
AcDbBlockTableRecord
  2
*D76
340
0
  0
BLOCK_RECORD
  5
45DD
330
1
100
AcDbSymbolTableRecord
100
AcDbBlockTableRecord
  2
*D77
340
0
  0
BLOCK_RECORD
  5
4613
330
1
100
AcDbSymbolTableRecord
100
AcDbBlockTableRecord
  2
*D78
340
0
  0
BLOCK_RECORD
  5
4652
330
1
100
AcDbSymbolTableRecord
100
AcDbBlockTableRecord
  2
*D80
340
0
  0
BLOCK_RECORD
  5
467E
330
1
100
AcDbSymbolTableRecord
100
AcDbBlockTableRecord
  2
*D81
340
0
  0
ENDTAB
  0
ENDSEC
  0
SECTION
  2
BLOCKS
  0
BLOCK
  5
D
330
A
100
AcDbEntity
  8
0
100
AcDbBlockBegin
  2
*MODEL_SPACE
 70
     0
 71
     1
 10
0.0
 20
0.0
 30
0.0
  3
*MODEL_SPACE
  1

  0
ENDBLK
  5
E
330
A
100
AcDbEntity
  8
0
100
AcDbBlockEnd
  0
BLOCK
  5
F
330
B
100
AcDbEntity
 67
     1
  8
0
100
AcDbBlockBegin
  2
*PAPER_SPACE
 70
     0
 71
     1
 10
0.0
 20
0.0
 30
0.0
  3
*PAPER_SPACE
  1

  0
ENDBLK
  5
10
330
B
100
AcDbEntity
 67
     1
  8
0
100
AcDbBlockEnd
  0
BLOCK
  5
FCB
330
FC9
100
AcDbEntity
  8
0
370
     0
100
AcDbBlockBegin
  2
GENAXEH
 70
     0
 10
0.0
 20
0.0
 30
0.0
  3
GENAXEH
  1

  0
LINE
  5
FCA
330
FC9
100
AcDbEntity
  8
0
100
AcDbLine
 10
-1.0
 20
0.0
 30
0.0
 11
1.0
 21
0.0
 31
0.0
  0
ENDBLK
  5
FCC
330
FC9
100
AcDbEntity
  8
0
370
     0
100
AcDbBlockEnd
  0
BLOCK
  5
3DAF
330
3DA4
100
AcDbEntity
  8
0
370
     0
100
AcDbBlockBegin
  2
*D44
 70
     1
 10
0.0
 20
0.0
 30
0.0
  3
*D44
  1

  0
LINE
  5
46BD
330
3DA4
100
AcDbEntity
  8
AM_5
370
    -2
100
AcDbLine
 10
595.7620178198102
 20
296.7047496308459
 30
0.0
 11
591.0354154849724
 21
304.891465021961
 31
0.0
  0
LINE
  5
46BE
330
3DA4
100
AcDbEntity
  8
AM_5
370
    -2
100
AcDbLine
 10
601.7517872622912
 20
300.1629446308452
 30
0.0
 11
597.0251849274534
 21
308.3496600219602
 31
0.0
  0
LINE
  5
46BF
330
3DA4
100
AcDbEntity
  8
AM_5
370
    -2
100
AcDbLine
 10
595.7931341198843
 20
306.483634618176
 30
0.0
 11
593.2674662925412
 21
305.0254396181763
 31
0.0
  0
LINE
  5
46C0
330
3DA4
100
AcDbEntity
  8
AM_5
370
    -2
100
AcDbLine
 10
591.5354154849723
 20
304.0254396181765
 30
0.0
 11
532.2425790681542
 21
269.7927045519195
 31
0.0
  0
SOLID
  5
46C1
330
3DA4
100
AcDbEntity
  8
AM_5
370
     0
100
AcDbTrace
 10
595.6264674532177
 20
306.7723097527708
 30
0.0
 11
595.9598007865509
 21
306.1949594835811
 31
0.0
 12
597.5251849274533
 22
307.4836346181758
 32
0.0
 13
597.5251849274533
 23
307.4836346181758
 33
0.0
  0
SOLID
  5
46C2
330
3DA4
100
AcDbEntity
  8
AM_5
370
     0
100
AcDbTrace
 10
593.1007996258746
 20
305.3141147527711
 30
0.0
 11
593.4341329592078
 21
304.7367644835814
 31
0.0
 12
591.5354154849723
 22
304.0254396181765
 32
0.0
 13
591.5354154849723
 23
304.0254396181765
 33
0.0
  0
MTEXT
  5
46C3
330
3DA4
100
AcDbEntity
  8
AM_5
100
AcDbMText
 10
553.5023710957674
 20
287.8268074588893
 30
0.0
 40
2.5
 41
0.0
 71
     5
 72
     1
  1
6.92 Counter bore depth 8\P(2 positions)
  7
CHINA
 11
0.8660254037844987
 21
0.4999999999998959
 31
0.0
 73
     1
 44
1.0
1001
ACAD
1000
MTEXTBEGIN
1070
    73
1070
     1
1070
    44
1040
1.0
1070
    74
1070
     0
1000
MTEXTEND
  0
POINT
  5
46C4
330
3DA4
100
AcDbEntity
  8
Defpoints
 62
     0
370
     0
100
AcDbPoint
 10
596.26201781981
 20
295.8387242270614
 30
0.0
  0
POINT
  5
46C5
330
3DA4
100
AcDbEntity
  8
Defpoints
 62
     0
370
     0
100
AcDbPoint
 10
602.2517872622911
 20
299.2969192270607
 30
0.0
  0
POINT
  5
46C6
330
3DA4
100
AcDbEntity
  8
Defpoints
 62
     0
370
     0
100
AcDbPoint
 10
597.5251849274533
 20
307.4836346181758
 30
0.0
  0
ENDBLK
  5
3DB0
330
3DA4
100
AcDbEntity
  8
0
370
     0
100
AcDbBlockEnd
  0
BLOCK
  5
3DB7
330
3DB1
100
AcDbEntity
  8
0
370
     0
100
AcDbBlockBegin
  2
*D45
 70
     1
 10
0.0
 20
0.0
 30
0.0
  3
*D45
  1

  0
LINE
  5
46C7
330
3DB1
100
AcDbEntity
  8
AM_5
370
    -2
100
AcDbLine
 10
583.5657899987595
 20
288.141943385693
 30
0.0
 11
600.5028063636954
 21
298.3256509555726
 31
0.0
  0
MTEXT
  5
46C8
330
3DB1
100
AcDbEntity
  8
AM_5
100
AcDbMText
 10
584.997818411842
 20
291.6283769015377
 30
0.0
 40
2.5
 41
0.0
 71
     5
 72
     1
  1
R7
  7
CHINA
 11
0.8570126472168858
 21
0.5152953740431844
 31
0.0
 73
     1
 44
1.0
1001
ACAD
1000
MTEXTBEGIN
1070
    73
1070
     1
1070
    44
1040
1.0
1070
    74
1070
     0
1000
MTEXTEND
  0
SOLID
  5
46C9
330
3DB1
100
AcDbEntity
  8
AM_5
370
     0
100
AcDbTrace
 10
600.3310412390143
 20
298.6113218379781
 30
0.0
 11
600.6745714883765
 21
298.0399800731669
 31
0.0
 12
602.216831658129
 22
299.3562417036589
 32
0.0
 13
602.216831658129
 23
299.3562417036589
 33
0.0
  0
POINT
  5
46CA
330
3DB1
100
AcDbEntity
  8
Defpoints
 62
     0
370
     0
100
AcDbPoint
 10
602.216831658129
 20
299.3562417036589
 30
0.0
  0
POINT
  5
46CB
330
3DB1
100
AcDbEntity
  8
Defpoints
 62
     0
370
     0
100
AcDbPoint
 10
598.892943496567
 20
297.3576898747541
 30
0.0
  0
ENDBLK
  5
3DB8
330
3DB1
100
AcDbEntity
  8
0
370
     0
100
AcDbBlockEnd
  0
BLOCK
  5
3E22
330
3E18
100
AcDbEntity
  8
0
370
     0
100
AcDbBlockBegin
  2
*D46
 70
     1
 10
0.0
 20
0.0
 30
0.0
  3
*D46
  1

  0
LINE
  5
46CC
330
3E18
100
AcDbEntity
  8
AM_5
100
AcDbLine
 10
708.4933959577031
 20
354.9320849942672
 30
0.0
 11
708.4933959577031
 21
332.9320849942671
 31
0.0
  0
LINE
  5
46CD
330
3E18
100
AcDbEntity
  8
AM_5
100
AcDbLine
 10
672.9933959577031
 20
344.9320849942671
 30
0.0
 11
672.9933959577031
 21
332.9320849942671
 31
0.0
  0
LINE
  5
46CE
330
3E18
100
AcDbEntity
  8
AM_5
100
AcDbLine
 10
705.4933959577031
 20
333.9320849942671
 30
0.0
 11
675.9933959577031
 21
333.9320849942671
 31
0.0
  0
SOLID
  5
46CF
330
3E18
100
AcDbEntity
  8
AM_5
370
     0
100
AcDbTrace
 10
705.4933959577031
 20
334.4320849942671
 30
0.0
 11
705.4933959577031
 21
333.4320849942671
 31
0.0
 12
708.4933959577031
 22
333.9320849942671
 32
0.0
 13
708.4933959577031
 23
333.9320849942671
 33
0.0
  0
SOLID
  5
46D0
330
3E18
100
AcDbEntity
  8
AM_5
370
     0
100
AcDbTrace
 10
675.9933959577031
 20
334.4320849942671
 30
0.0
 11
675.9933959577031
 21
333.4320849942671
 31
0.0
 12
672.9933959577031
 22
333.9320849942671
 32
0.0
 13
672.9933959577031
 23
333.9320849942671
 33
0.0
  0
MTEXT
  5
46D1
330
3E18
100
AcDbEntity
  8
AM_5
100
AcDbMText
 10
690.7433959577031
 20
336.6820849942671
 30
0.0
 40
3.5
 41
0.0
 71
     5
 72
     1
  1
35.5
 73
     1
 44
1.0
1001
ACAD
1000
MTEXTBEGIN
1070
    73
1070
     1
1070
    44
1040
1.0
1070
    74
1070
     0
1000
MTEXTEND
  0
POINT
  5
46D2
330
3E18
100
AcDbEntity
  8
Defpoints
 62
     0
370
     0
100
AcDbPoint
 10
708.4933959577031
 20
355.9320849942673
 30
0.0
  0
POINT
  5
46D3
330
3E18
100
AcDbEntity
  8
Defpoints
 62
     0
370
     0
100
AcDbPoint
 10
672.9933959577031
 20
345.9320849942671
 30
0.0
  0
POINT
  5
46D4
330
3E18
100
AcDbEntity
  8
Defpoints
 62
     0
370
     0
100
AcDbPoint
 10
672.9933959577031
 20
333.9320849942671
 30
0.0
  0
ENDBLK
  5
3E23
330
3E18
100
AcDbEntity
  8
0
370
     0
100
AcDbBlockEnd
  0
BLOCK
  5
3E45
330
3E3B
100
AcDbEntity
  8
0
370
     0
100
AcDbBlockBegin
  2
*D47
 70
     1
 10
0.0
 20
0.0
 30
0.0
  3
*D47
  1

  0
LINE
  5
46D5
330
3E3B
100
AcDbEntity
  8
AM_5
100
AcDbLine
 10
708.4933959577031
 20
354.9320849942672
 30
0.0
 11
708.4933959577031
 21
326.4320849942671
 31
0.0
  0
LINE
  5
46D6
330
3E3B
100
AcDbEntity
  8
AM_5
100
AcDbLine
 10
668.8933959577032
 20
338.9320849942672
 30
0.0
 11
668.8933959577032
 21
326.4320849942671
 31
0.0
  0
LINE
  5
46D7
330
3E3B
100
AcDbEntity
  8
AM_5
100
AcDbLine
 10
705.4933959577031
 20
327.4320849942672
 30
0.0
 11
671.8933959577031
 21
327.4320849942672
 31
0.0
  0
SOLID
  5
46D8
330
3E3B
100
AcDbEntity
  8
AM_5
370
     0
100
AcDbTrace
 10
705.4933959577031
 20
327.9320849942672
 30
0.0
 11
705.4933959577031
 21
326.9320849942671
 31
0.0
 12
708.4933959577031
 22
327.4320849942672
 32
0.0
 13
708.4933959577031
 23
327.4320849942672
 33
0.0
  0
SOLID
  5
46D9
330
3E3B
100
AcDbEntity
  8
AM_5
370
     0
100
AcDbTrace
 10
671.8933959577031
 20
327.9320849942672
 30
0.0
 11
671.8933959577031
 21
326.9320849942671
 31
0.0
 12
668.8933959577032
 22
327.4320849942672
 32
0.0
 13
668.8933959577032
 23
327.4320849942672
 33
0.0
  0
MTEXT
  5
46DA
330
3E3B
100
AcDbEntity
  8
AM_5
100
AcDbMText
 10
688.6933959577032
 20
330.1820849942671
 30
0.0
 40
3.5
 41
0.0
 71
     5
 72
     1
  1
39.6
 73
     1
 44
1.0
1001
ACAD
1000
MTEXTBEGIN
1070
    73
1070
     1
1070
    44
1040
1.0
1070
    74
1070
     0
1000
MTEXTEND
  0
POINT
  5
46DB
330
3E3B
100
AcDbEntity
  8
Defpoints
 62
     0
370
     0
100
AcDbPoint
 10
708.4933959577031
 20
355.9320849942672
 30
0.0
  0
POINT
  5
46DC
330
3E3B
100
AcDbEntity
  8
Defpoints
 62
     0
370
     0
100
AcDbPoint
 10
668.8933959577032
 20
339.9320849942672
 30
0.0
  0
POINT
  5
46DD
330
3E3B
100
AcDbEntity
  8
Defpoints
 62
     0
370
     0
100
AcDbPoint
 10
668.8933959577032
 20
327.4320849942672
 30
0.0
  0
ENDBLK
  5
3E46
330
3E3B
100
AcDbEntity
  8
0
370
     0
100
AcDbBlockEnd
  0
BLOCK
  5
3E7A
330
3E70
100
AcDbEntity
  8
0
370
     0
100
AcDbBlockBegin
  2
*D48
 70
     1
 10
0.0
 20
0.0
 30
0.0
  3
*D48
  1

  0
LINE
  5
46DE
330
3E70
100
AcDbEntity
  8
AM_5
100
AcDbLine
 10
658.4933959577031
 20
338.9320849942672
 30
0.0
 11
658.4933959577031
 21
326.4320849942671
 31
0.0
  0
LINE
  5
46DF
330
3E70
100
AcDbEntity
  8
AM_5
100
AcDbLine
 10
668.8933959577032
 20
338.9320849942672
 30
0.0
 11
668.8933959577032
 21
326.4320849942671
 31
0.0
  0
LINE
  5
46E0
330
3E70
100
AcDbEntity
  8
AM_5
100
AcDbLine
 10
661.493395957703
 20
327.4320849942672
 30
0.0
 11
665.8933959577032
 21
327.4320849942672
 31
0.0
  0
SOLID
  5
46E1
330
3E70
100
AcDbEntity
  8
AM_5
370
     0
100
AcDbTrace
 10
661.493395957703
 20
327.9320849942672
 30
0.0
 11
661.493395957703
 21
326.9320849942671
 31
0.0
 12
658.4933959577031
 22
327.4320849942672
 32
0.0
 13
658.4933959577031
 23
327.4320849942672
 33
0.0
  0
SOLID
  5
46E2
330
3E70
100
AcDbEntity
  8
AM_5
370
     0
100
AcDbTrace
 10
665.8933959577032
 20
327.9320849942672
 30
0.0
 11
665.8933959577032
 21
326.9320849942671
 31
0.0
 12
668.8933959577032
 22
327.4320849942672
 32
0.0
 13
668.8933959577032
 23
327.4320849942672
 33
0.0
  0
MTEXT
  5
46E3
330
3E70
100
AcDbEntity
  8
AM_5
100
AcDbMText
 10
663.6933959577032
 20
330.1820849942671
 30
0.0
 40
3.5
 41
0.0
 71
     5
 72
     1
  1
10.4
 73
     1
 44
1.0
1001
ACAD
1000
MTEXTBEGIN
1070
    73
1070
     1
1070
    44
1040
1.0
1070
    74
1070
     0
1000
MTEXTEND
  0
POINT
  5
46E4
330
3E70
100
AcDbEntity
  8
Defpoints
 62
     0
370
     0
100
AcDbPoint
 10
658.4933959577031
 20
339.9320849942672
 30
0.0
  0
POINT
  5
46E5
330
3E70
100
AcDbEntity
  8
Defpoints
 62
     0
370
     0
100
AcDbPoint
 10
668.8933959577032
 20
339.9320849942672
 30
0.0
  0
POINT
  5
46E6
330
3E70
100
AcDbEntity
  8
Defpoints
 62
     0
370
     0
100
AcDbPoint
 10
668.8933959577032
 20
327.4320849942672
 30
0.0
  0
ENDBLK
  5
3E7B
330
3E70
100
AcDbEntity
  8
0
370
     0
100
AcDbBlockEnd
  0
BLOCK
  5
3EA8
330
3E9C
100
AcDbEntity
  8
0
370
     0
100
AcDbBlockBegin
  2
*D49
 70
     1
 10
0.0
 20
0.0
 30
0.0
  3
*D49
  1

  0
LINE
  5
46E7
330
3E9C
100
AcDbEntity
  8
AM_5
100
AcDbLine
 10
663.4933959577031
 20
338.9320849942672
 30
0.0
 11
663.4933959577031
 21
332.8605663488034
 31
0.0
  0
LINE
  5
46E8
330
3E9C
100
AcDbEntity
  8
AM_5
100
AcDbLine
 10
658.4933959577031
 20
338.9320849942671
 30
0.0
 11
658.4933959577031
 21
332.8605663488034
 31
0.0
  0
LINE
  5
46E9
330
3E9C
100
AcDbEntity
  8
AM_5
100
AcDbLine
 10
666.4933959577031
 20
333.8605663488035
 30
0.0
 11
669.493395957703
 21
333.8605663488035
 31
0.0
  0
LINE
  5
46EA
330
3E9C
100
AcDbEntity
  8
AM_5
100
AcDbLine
 10
655.4933959577031
 20
333.8605663488035
 30
0.0
 11
652.4933959577031
 21
333.8605663488035
 31
0.0
  0
LINE
  5
46EB
330
3E9C
100
AcDbEntity
  8
AM_5
100
AcDbLine
 10
663.4933959577031
 20
333.8605663488035
 30
0.0
 11
658.4933959577031
 21
333.8605663488035
 31
0.0
  0
SOLID
  5
46EC
330
3E9C
100
AcDbEntity
  8
AM_5
370
     0
100
AcDbTrace
 10
666.4933959577031
 20
334.3605663488034
 30
0.0
 11
666.4933959577031
 21
333.3605663488035
 31
0.0
 12
663.4933959577031
 22
333.8605663488035
 32
0.0
 13
663.4933959577031
 23
333.8605663488035
 33
0.0
  0
SOLID
  5
46ED
330
3E9C
100
AcDbEntity
  8
AM_5
370
     0
100
AcDbTrace
 10
655.4933959577031
 20
334.3605663488034
 30
0.0
 11
655.4933959577031
 21
333.3605663488035
 31
0.0
 12
658.4933959577031
 22
333.8605663488035
 32
0.0
 13
658.4933959577031
 23
333.8605663488035
 33
0.0
  0
MTEXT
  5
46EE
330
3E9C
100
AcDbEntity
  8
AM_5
100
AcDbMText
 10
660.9933959577031
 20
336.6105663488034
 30
0.0
 40
3.5
 41
0.0
 71
     5
 72
     1
  1
5
 73
     1
 44
1.0
1001
ACAD
1000
MTEXTBEGIN
1070
    73
1070
     1
1070
    44
1040
1.0
1070
    74
1070
     0
1000
MTEXTEND
  0
POINT
  5
46EF
330
3E9C
100
AcDbEntity
  8
Defpoints
 62
     0
370
     0
100
AcDbPoint
 10
663.4933959577031
 20
339.9320849942672
 30
0.0
  0
POINT
  5
46F0
330
3E9C
100
AcDbEntity
  8
Defpoints
 62
     0
370
     0
100
AcDbPoint
 10
658.4933959577031
 20
339.9320849942671
 30
0.0
  0
POINT
  5
46F1
330
3E9C
100
AcDbEntity
  8
Defpoints
 62
     0
370
     0
100
AcDbPoint
 10
658.4933959577031
 20
333.8605663488035
 30
0.0
  0
ENDBLK
  5
3EA9
330
3E9C
100
AcDbEntity
  8
0
370
     0
100
AcDbBlockEnd
  0
BLOCK
  5
3ED3
330
3EC9
100
AcDbEntity
  8
0
370
     0
100
AcDbBlockBegin
  2
*D50
 70
     1
 10
0.0
 20
0.0
 30
0.0
  3
*D50
  1

  0
LINE
  5
46F2
330
3EC9
100
AcDbEntity
  8
AM_5
100
AcDbLine
 10
708.4933959577031
 20
408.9320849942672
 30
0.0
 11
708.4933959577031
 21
418.4038598157486
 31
0.0
  0
LINE
  5
46F3
330
3EC9
100
AcDbEntity
  8
AM_5
100
AcDbLine
 10
650.4933959577028
 20
407.3961866094047
 30
0.0
 11
650.4933959577028
 21
418.4038598157486
 31
0.0
  0
LINE
  5
46F4
330
3EC9
100
AcDbEntity
  8
AM_5
100
AcDbLine
 10
705.4933959577031
 20
417.4038598157486
 30
0.0
 11
653.4933959577029
 21
417.4038598157486
 31
0.0
  0
SOLID
  5
46F5
330
3EC9
100
AcDbEntity
  8
AM_5
370
     0
100
AcDbTrace
 10
705.4933959577031
 20
417.9038598157486
 30
0.0
 11
705.4933959577031
 21
416.9038598157486
 31
0.0
 12
708.4933959577031
 22
417.4038598157486
 32
0.0
 13
708.4933959577031
 23
417.4038598157486
 33
0.0
  0
SOLID
  5
46F6
330
3EC9
100
AcDbEntity
  8
AM_5
370
     0
100
AcDbTrace
 10
653.4933959577029
 20
417.9038598157486
 30
0.0
 11
653.4933959577029
 21
416.9038598157486
 31
0.0
 12
650.4933959577028
 22
417.4038598157486
 32
0.0
 13
650.4933959577028
 23
417.4038598157486
 33
0.0
  0
MTEXT
  5
46F7
330
3EC9
100
AcDbEntity
  8
AM_5
100
AcDbMText
 10
679.4933959577028
 20
420.3288598157486
 30
0.0
 40
3.5
 41
0.0
 71
     5
 72
     1
  1
(58)
 73
     1
 44
1.0
1001
ACAD
1000
MTEXTBEGIN
1070
    73
1070
     1
1070
    44
1040
1.0
1070
    74
1070
     0
1000
MTEXTEND
  0
POINT
  5
46F8
330
3EC9
100
AcDbEntity
  8
Defpoints
 62
     0
370
     0
100
AcDbPoint
 10
708.4933959577031
 20
407.9320849942672
 30
0.0
  0
POINT
  5
46F9
330
3EC9
100
AcDbEntity
  8
Defpoints
 62
     0
370
     0
100
AcDbPoint
 10
650.4933959577028
 20
406.3961866094047
 30
0.0
  0
POINT
  5
46FA
330
3EC9
100
AcDbEntity
  8
Defpoints
 62
     0
370
     0
100
AcDbPoint
 10
650.4933959577028
 20
417.4038598157486
 30
0.0
  0
ENDBLK
  5
3ED4
330
3EC9
100
AcDbEntity
  8
0
370
     0
100
AcDbBlockEnd
  0
BLOCK
  5
3F0D
330
3F03
100
AcDbEntity
  8
0
370
     0
100
AcDbBlockBegin
  2
*D51
 70
     1
 10
0.0
 20
0.0
 30
0.0
  3
*D51
  1

  0
LINE
  5
46FB
330
3F03
100
AcDbEntity
  8
AM_5
100
AcDbLine
 10
649.4933959577031
 20
359.9320849942673
 30
0.0
 11
643.1102332434901
 21
359.9320849942673
 31
0.0
  0
LINE
  5
46FC
330
3F03
100
AcDbEntity
  8
AM_5
100
AcDbLine
 10
649.4933959577031
 20
350.9320849942672
 30
0.0
 11
643.1102332434901
 21
350.9320849942672
 31
0.0
  0
LINE
  5
46FD
330
3F03
100
AcDbEntity
  8
AM_5
100
AcDbLine
 10
644.1102332434901
 20
356.9320849942672
 30
0.0
 11
644.1102332434901
 21
353.9320849942672
 31
0.0
  0
SOLID
  5
46FE
330
3F03
100
AcDbEntity
  8
AM_5
370
     0
100
AcDbTrace
 10
643.6102332434901
 20
356.9320849942672
 30
0.0
 11
644.6102332434901
 21
356.9320849942672
 31
0.0
 12
644.1102332434901
 22
359.9320849942673
 32
0.0
 13
644.1102332434901
 23
359.9320849942673
 33
0.0
  0
SOLID
  5
46FF
330
3F03
100
AcDbEntity
  8
AM_5
370
     0
100
AcDbTrace
 10
643.6102332434901
 20
353.9320849942672
 30
0.0
 11
644.6102332434901
 21
353.9320849942672
 31
0.0
 12
644.1102332434901
 22
350.9320849942672
 32
0.0
 13
644.1102332434901
 23
350.9320849942672
 33
0.0
  0
MTEXT
  5
4700
330
3F03
100
AcDbEntity
  8
AM_5
100
AcDbMText
 10
641.36023324349
 20
355.4320849942674
 30
0.0
 40
3.5
 41
0.0
 71
     5
 72
     1
  1
9
 11
0.0000000000000001
 21
1.0
 31
0.0
 73
     1
 44
1.0
1001
ACAD
1000
MTEXTBEGIN
1070
    73
1070
     1
1070
    44
1040
1.0
1070
    74
1070
     0
1000
MTEXTEND
  0
POINT
  5
4701
330
3F03
100
AcDbEntity
  8
Defpoints
 62
     0
370
     0
100
AcDbPoint
 10
650.4933959577031
 20
359.9320849942673
 30
0.0
  0
POINT
  5
4702
330
3F03
100
AcDbEntity
  8
Defpoints
 62
     0
370
     0
100
AcDbPoint
 10
650.4933959577031
 20
350.9320849942672
 30
0.0
  0
POINT
  5
4703
330
3F03
100
AcDbEntity
  8
Defpoints
 62
     0
370
     0
100
AcDbPoint
 10
644.1102332434901
 20
350.9320849942672
 30
0.0
  0
ENDBLK
  5
3F0E
330
3F03
100
AcDbEntity
  8
0
370
     0
100
AcDbBlockEnd
  0
BLOCK
  5
3F35
330
3F2B
100
AcDbEntity
  8
0
370
     0
100
AcDbBlockBegin
  2
*D52
 70
     1
 10
0.0
 20
0.0
 30
0.0
  3
*D52
  1

  0
LINE
  5
4704
330
3F2B
100
AcDbEntity
  8
AM_5
100
AcDbLine
 10
649.4933959577031
 20
350.9320849942672
 30
0.0
 11
637.4933959577031
 21
350.9320849942672
 31
0.0
  0
LINE
  5
4705
330
3F2B
100
AcDbEntity
  8
AM_5
100
AcDbLine
 10
649.4933959577031
 20
348.9320849942672
 30
0.0
 11
637.4933959577031
 21
348.9320849942672
 31
0.0
  0
LINE
  5
4706
330
3F2B
100
AcDbEntity
  8
AM_5
100
AcDbLine
 10
638.4933959577031
 20
353.9320849942673
 30
0.0
 11
638.4933959577031
 21
356.9320849942672
 31
0.0
  0
LINE
  5
4707
330
3F2B
100
AcDbEntity
  8
AM_5
100
AcDbLine
 10
638.4933959577031
 20
345.9320849942673
 30
0.0
 11
638.4933959577031
 21
342.9320849942673
 31
0.0
  0
MTEXT
  5
4708
330
3F2B
100
AcDbEntity
  8
AM_5
100
AcDbMText
 10
636.3371121238972
 20
344.5529036988538
 30
0.0
 40
3.5
 41
0.0
 71
     5
 72
     1
  1
2
 11
0.0000000000000001
 21
1.0
 31
0.0
 73
     1
 44
1.0
1001
ACAD
1000
MTEXTBEGIN
1070
    73
1070
     1
1070
    44
1040
1.0
1070
    74
1070
     0
1000
MTEXTEND
  0
LINE
  5
4709
330
3F2B
100
AcDbEntity
  8
AM_5
100
AcDbLine
 10
638.4933959577031
 20
350.9320849942672
 30
0.0
 11
638.4933959577031
 21
348.9320849942672
 31
0.0
  0
SOLID
  5
470A
330
3F2B
100
AcDbEntity
  8
AM_5
370
     0
100
AcDbTrace
 10
637.9933959577031
 20
353.9320849942673
 30
0.0
 11
638.9933959577031
 21
353.9320849942673
 31
0.0
 12
638.4933959577031
 22
350.9320849942672
 32
0.0
 13
638.4933959577031
 23
350.9320849942672
 33
0.0
  0
SOLID
  5
470B
330
3F2B
100
AcDbEntity
  8
AM_5
370
     0
100
AcDbTrace
 10
637.9933959577031
 20
345.9320849942673
 30
0.0
 11
638.9933959577031
 21
345.9320849942673
 31
0.0
 12
638.4933959577031
 22
348.9320849942672
 32
0.0
 13
638.4933959577031
 23
348.9320849942672
 33
0.0
  0
POINT
  5
470C
330
3F2B
100
AcDbEntity
  8
Defpoints
 62
     0
370
     0
100
AcDbPoint
 10
650.4933959577031
 20
350.9320849942672
 30
0.0
  0
POINT
  5
470D
330
3F2B
100
AcDbEntity
  8
Defpoints
 62
     0
370
     0
100
AcDbPoint
 10
650.4933959577031
 20
348.9320849942672
 30
0.0
  0
POINT
  5
470E
330
3F2B
100
AcDbEntity
  8
Defpoints
 62
     0
370
     0
100
AcDbPoint
 10
638.4933959577031
 20
348.9320849942672
 30
0.0
  0
ENDBLK
  5
3F36
330
3F2B
100
AcDbEntity
  8
0
370
     0
100
AcDbBlockEnd
  0
BLOCK
  5
3F73
330
3F69
100
AcDbEntity
  8
0
370
     0
100
AcDbBlockBegin
  2
*D53
 70
     1
 10
0.0
 20
0.0
 30
0.0
  3
*D53
  1

  0
LINE
  5
470F
330
3F69
100
AcDbEntity
  8
AM_5
100
AcDbLine
 10
648.7908224650011
 20
381.9320849942672
 30
0.0
 11
630.9933959577031
 21
381.9320849942673
 31
0.0
  0
LINE
  5
4710
330
3F69
100
AcDbEntity
  8
AM_5
100
AcDbLine
 10
649.4933959577031
 20
339.9320849942672
 30
0.0
 11
630.9933959577031
 21
339.9320849942673
 31
0.0
  0
LINE
  5
4711
330
3F69
100
AcDbEntity
  8
AM_5
100
AcDbLine
 10
631.993395957703
 20
378.9320849942673
 30
0.0
 11
631.993395957703
 21
342.9320849942673
 31
0.0
  0
SOLID
  5
4712
330
3F69
100
AcDbEntity
  8
AM_5
370
     0
100
AcDbTrace
 10
631.4933959577031
 20
378.9320849942673
 30
0.0
 11
632.493395957703
 21
378.9320849942673
 31
0.0
 12
631.993395957703
 22
381.9320849942673
 32
0.0
 13
631.993395957703
 23
381.9320849942673
 33
0.0
  0
SOLID
  5
4713
330
3F69
100
AcDbEntity
  8
AM_5
370
     0
100
AcDbTrace
 10
631.4933959577031
 20
342.9320849942673
 30
0.0
 11
632.493395957703
 21
342.9320849942673
 31
0.0
 12
631.993395957703
 22
339.9320849942673
 32
0.0
 13
631.993395957703
 23
339.9320849942673
 33
0.0
  0
MTEXT
  5
4714
330
3F69
100
AcDbEntity
  8
AM_5
100
AcDbMText
 10
629.2430514695141
 20
360.9320849942673
 30
0.0
 40
3.5
 41
0.0
 71
     5
 72
     1
  1
42
 11
0.0000000000000001
 21
1.0
 31
0.0
 73
     1
 44
1.0
1001
ACAD
1000
MTEXTBEGIN
1070
    73
1070
     1
1070
    44
1040
1.0
1070
    74
1070
     0
1000
MTEXTEND
  0
POINT
  5
4715
330
3F69
100
AcDbEntity
  8
Defpoints
 62
     0
370
     0
100
AcDbPoint
 10
649.7908224650011
 20
381.9320849942672
 30
0.0
  0
POINT
  5
4716
330
3F69
100
AcDbEntity
  8
Defpoints
 62
     0
370
     0
100
AcDbPoint
 10
650.4933959577031
 20
339.9320849942672
 30
0.0
  0
POINT
  5
4717
330
3F69
100
AcDbEntity
  8
Defpoints
 62
     0
370
     0
100
AcDbPoint
 10
631.993395957703
 20
339.9320849942673
 30
0.0
  0
ENDBLK
  5
3F74
330
3F69
100
AcDbEntity
  8
0
370
     0
100
AcDbBlockEnd
  0
BLOCK
  5
3FFD
330
3FF4
100
AcDbEntity
  8
0
370
     0
100
AcDbBlockBegin
  2
*D54
 70
     1
 10
0.0
 20
0.0
 30
0.0
  3
*D54
  1

  0
LINE
  5
4718
330
3FF4
100
AcDbEntity
  8
AM_5
100
AcDbLine
 10
570.9013841569166
 20
408.5898291391687
 30
0.0
 11
560.2515388070959
 21
429.0673254766454
 31
0.0
  0
LINE
  5
4719
330
3FF4
100
AcDbEntity
  8
AM_5
100
AcDbLine
 10
560.2515388070959
 20
429.0673254766454
 30
0.0
 11
537.7746859036192
 21
429.0673254766454
 31
0.0
  0
SOLID
  5
471A
330
3FF4
100
AcDbEntity
  8
AM_5
370
     0
100
AcDbTrace
 10
571.3449788373834
 20
408.8205318904776
 30
0.0
 11
570.4577894764497
 21
408.3591263878597
 31
0.0
 12
572.2856006647703
 22
405.9282610563677
 32
0.0
 13
572.2856006647703
 23
405.9282610563677
 33
0.0
  0
MTEXT
  5
471B
330
3FF4
100
AcDbEntity
  8
AM_5
100
AcDbMText
 10
548.5131123553576
 20
435.1714921433122
 30
0.0
 40
3.5
 41
0.0
 71
     5
 72
     1
  1
3-\U+22054.5\P%%c8*8depth
 73
     1
 44
1.0
1001
ACAD
1000
MTEXTBEGIN
1070
    73
1070
     1
1070
    44
1040
1.0
1070
    74
1070
     0
1000
MTEXTEND
  0
POINT
  5
471C
330
3FF4
100
AcDbEntity
  8
Defpoints
 62
     0
370
     0
100
AcDbPoint
 10
572.2856006647703
 20
405.9282610563677
 30
0.0
  0
POINT
  5
471D
330
3FF4
100
AcDbEntity
  8
Defpoints
 62
     0
370
     0
100
AcDbPoint
 10
574.3619254265509
 20
401.9359089321662
 30
0.0
  0
ENDBLK
  5
3FFE
330
3FF4
100
AcDbEntity
  8
0
370
     0
100
AcDbBlockEnd
  0
BLOCK
  5
4055
330
4049
100
AcDbEntity
  8
0
370
     0
100
AcDbBlockBegin
  2
*D55
 70
     1
 10
0.0
 20
0.0
 30
0.0
  3
*D55
  1

  0
LINE
  5
471E
330
4049
100
AcDbEntity
  8
AM_5
100
AcDbLine
 10
534.08467068293
 20
399.9679833791299
 30
0.0
 11
526.7851351879295
 21
404.1823721621277
 31
0.0
  0
LINE
  5
471F
330
4049
100
AcDbEntity
  8
AM_5
100
AcDbLine
 10
538.08467068293
 20
406.8961866094052
 30
0.0
 11
530.7851351879295
 21
411.110575392403
 31
0.0
  0
LINE
  5
4720
330
4049
100
AcDbEntity
  8
AM_5
100
AcDbLine
 10
526.151160591714
 20
401.0842959507743
 30
0.0
 11
524.6511605917139
 21
398.4862197394211
 31
0.0
  0
LINE
  5
4721
330
4049
100
AcDbEntity
  8
AM_5
100
AcDbLine
 10
533.1511605917139
 20
413.2086516037563
 30
0.0
 11
534.651160591714
 21
415.8067278151096
 31
0.0
  0
LINE
  5
4722
330
4049
100
AcDbEntity
  8
AM_5
100
AcDbLine
 10
527.6511605917139
 20
403.6823721621277
 30
0.0
 11
531.6511605917139
 21
410.6105753924031
 31
0.0
  0
SOLID
  5
4723
330
4049
100
AcDbEntity
  8
AM_5
370
     0
100
AcDbTrace
 10
525.7181478898217
 20
401.3342959507743
 30
0.0
 11
526.5841732936062
 21
400.8342959507743
 31
0.0
 12
527.6511605917139
 22
403.6823721621277
 32
0.0
 13
527.6511605917139
 23
403.6823721621277
 33
0.0
  0
SOLID
  5
4724
330
4049
100
AcDbEntity
  8
AM_5
370
     0
100
AcDbTrace
 10
532.7181478898217
 20
413.4586516037563
 30
0.0
 11
533.5841732936062
 21
412.9586516037563
 31
0.0
 12
531.6511605917139
 22
410.6105753924031
 32
0.0
 13
531.6511605917139
 23
410.6105753924031
 33
0.0
  0
MTEXT
  5
4725
330
4049
100
AcDbEntity
  8
AM_5
100
AcDbMText
 10
527.2695907313067
 20
408.5214737772652
 30
0.0
 40
3.5
 41
0.0
 71
     5
 72
     1
  1
8
 11
0.5000000000000052
 21
0.8660254037844357
 31
0.0
 73
     1
 44
1.0
1001
ACAD
1000
MTEXTBEGIN
1070
    73
1070
     1
1070
    44
1040
1.0
1070
    74
1070
     0
1000
MTEXTEND
  0
POINT
  5
4726
330
4049
100
AcDbEntity
  8
Defpoints
 62
     0
370
     0
100
AcDbPoint
 10
534.9506960867144
 20
399.4679833791299
 30
0.0
  0
POINT
  5
4727
330
4049
100
AcDbEntity
  8
Defpoints
 62
     0
370
     0
100
AcDbPoint
 10
538.9506960867144
 20
406.3961866094052
 30
0.0
  0
POINT
  5
4728
330
4049
100
AcDbEntity
  8
Defpoints
 62
     0
370
     0
100
AcDbPoint
 10
531.6511605917139
 20
410.6105753924031
 30
0.0
  0
ENDBLK
  5
4056
330
4049
100
AcDbEntity
  8
0
370
     0
100
AcDbBlockEnd
  0
BLOCK
  5
40D2
330
40C8
100
AcDbEntity
  8
0
370
     0
100
AcDbBlockBegin
  2
*D57
 70
     1
 10
0.0
 20
0.0
 30
0.0
  3
*D57
  1

  0
LINE
  5
4729
330
40C8
100
AcDbEntity
  8
AM_5
100
AcDbLine
 10
565.3237630456608
 20
338.9320849942671
 30
0.0
 11
565.3237630456608
 21
329.4320849942677
 31
0.0
  0
LINE
  5
472A
330
40C8
100
AcDbEntity
  8
AM_5
100
AcDbLine
 10
581.323763045661
 20
338.9320849942671
 30
0.0
 11
581.323763045661
 21
329.4320849942677
 31
0.0
  0
LINE
  5
472B
330
40C8
100
AcDbEntity
  8
AM_5
100
AcDbLine
 10
568.3237630456608
 20
330.4320849942677
 30
0.0
 11
578.323763045661
 21
330.4320849942677
 31
0.0
  0
SOLID
  5
472C
330
40C8
100
AcDbEntity
  8
AM_5
370
     0
100
AcDbTrace
 10
568.3237630456608
 20
330.9320849942677
 30
0.0
 11
568.3237630456608
 21
329.9320849942677
 31
0.0
 12
565.3237630456608
 22
330.4320849942677
 32
0.0
 13
565.3237630456608
 23
330.4320849942677
 33
0.0
  0
SOLID
  5
472D
330
40C8
100
AcDbEntity
  8
AM_5
370
     0
100
AcDbTrace
 10
578.323763045661
 20
330.9320849942677
 30
0.0
 11
578.323763045661
 21
329.9320849942677
 31
0.0
 12
581.323763045661
 22
330.4320849942677
 32
0.0
 13
581.323763045661
 23
330.4320849942677
 33
0.0
  0
MTEXT
  5
472E
330
40C8
100
AcDbEntity
  8
AM_5
100
AcDbMText
 10
573.1914534524878
 20
333.1820849942677
 30
0.0
 40
3.5
 41
0.0
 71
     5
 72
     1
  1
16
 73
     1
 44
1.0
1001
ACAD
1000
MTEXTBEGIN
1070
    73
1070
     1
1070
    44
1040
1.0
1070
    74
1070
     0
1000
MTEXTEND
  0
POINT
  5
472F
330
40C8
100
AcDbEntity
  8
Defpoints
 62
     0
370
     0
100
AcDbPoint
 10
565.3237630456608
 20
339.9320849942671
 30
0.0
  0
POINT
  5
4730
330
40C8
100
AcDbEntity
  8
Defpoints
 62
     0
370
     0
100
AcDbPoint
 10
581.323763045661
 20
339.9320849942671
 30
0.0
  0
POINT
  5
4731
330
40C8
100
AcDbEntity
  8
Defpoints
 62
     0
370
     0
100
AcDbPoint
 10
581.323763045661
 20
330.4320849942677
 30
0.0
  0
ENDBLK
  5
40D3
330
40C8
100
AcDbEntity
  8
0
370
     0
100
AcDbBlockEnd
  0
BLOCK
  5
40FA
330
40F0
100
AcDbEntity
  8
0
370
     0
100
AcDbBlockBegin
  2
*D58
 70
     1
 10
0.0
 20
0.0
 30
0.0
  3
*D58
  1

  0
LINE
  5
4732
330
40F0
100
AcDbEntity
  8
AM_5
100
AcDbLine
 10
561.323763045661
 20
346.9909594973129
 30
0.0
 11
561.323763045661
 21
322.9320849942672
 31
0.0
  0
LINE
  5
4733
330
40F0
100
AcDbEntity
  8
AM_5
100
AcDbLine
 10
585.3237630456588
 20
346.9909594973121
 30
0.0
 11
585.3237630456588
 21
322.9320849942672
 31
0.0
  0
LINE
  5
4734
330
40F0
100
AcDbEntity
  8
AM_5
100
AcDbLine
 10
564.323763045661
 20
323.9320849942672
 30
0.0
 11
582.3237630456588
 21
323.9320849942672
 31
0.0
  0
SOLID
  5
4735
330
40F0
100
AcDbEntity
  8
AM_5
370
     0
100
AcDbTrace
 10
564.323763045661
 20
324.4320849942672
 30
0.0
 11
564.323763045661
 21
323.4320849942672
 31
0.0
 12
561.323763045661
 22
323.9320849942672
 32
0.0
 13
561.323763045661
 23
323.9320849942672
 33
0.0
  0
SOLID
  5
4736
330
40F0
100
AcDbEntity
  8
AM_5
370
     0
100
AcDbTrace
 10
582.3237630456588
 20
324.4320849942672
 30
0.0
 11
582.3237630456588
 21
323.4320849942672
 31
0.0
 12
585.3237630456588
 22
323.9320849942672
 32
0.0
 13
585.3237630456588
 23
323.9320849942672
 33
0.0
  0
MTEXT
  5
4737
330
40F0
100
AcDbEntity
  8
AM_5
100
AcDbMText
 10
573.3237630456598
 20
326.6824294824562
 30
0.0
 40
3.5
 41
0.0
 71
     5
 72
     1
  1
24
 73
     1
 44
1.0
1001
ACAD
1000
MTEXTBEGIN
1070
    73
1070
     1
1070
    44
1040
1.0
1070
    74
1070
     0
1000
MTEXTEND
  0
POINT
  5
4738
330
40F0
100
AcDbEntity
  8
Defpoints
 62
     0
370
     0
100
AcDbPoint
 10
561.323763045661
 20
347.990959497313
 30
0.0
  0
POINT
  5
4739
330
40F0
100
AcDbEntity
  8
Defpoints
 62
     0
370
     0
100
AcDbPoint
 10
585.3237630456588
 20
347.9909594973122
 30
0.0
  0
POINT
  5
473A
330
40F0
100
AcDbEntity
  8
Defpoints
 62
     0
370
     0
100
AcDbPoint
 10
585.3237630456588
 20
323.9320849942672
 30
0.0
  0
ENDBLK
  5
40FB
330
40F0
100
AcDbEntity
  8
0
370
     0
100
AcDbBlockEnd
  0
BLOCK
  5
415F
330
4159
100
AcDbEntity
  8
0
370
     0
100
AcDbBlockBegin
  2
*D60
 70
     1
 10
0.0
 20
0.0
 30
0.0
  3
*D60
  1

  0
LINE
  5
473B
330
4159
100
AcDbEntity
  8
AM_5
100
AcDbLine
 10
600.1633403068654
 20
410.2276163100046
 30
0.0
 11
602.2279231731119
 21
412.4041956419843
 31
0.0
  0
LINE
  5
473C
330
4159
100
AcDbEntity
  8
AM_5
100
AcDbLine
 10
546.4841857844578
 20
353.6365536785309
 30
0.0
 11
544.4196029182108
 21
351.4599743465506
 31
0.0
  0
LINE
  5
473D
330
4159
100
AcDbEntity
  8
AM_5
100
AcDbLine
 10
544.4196029182108
 20
351.4599743465506
 30
0.0
 11
536.2093962252974
 21
351.4599743465506
 31
0.0
  0
LINE
  5
473E
330
4159
100
AcDbEntity
  8
AM_5
100
AcDbLine
 10
598.0987574406189
 20
408.0510369780249
 30
0.0
 11
548.5487686507042
 21
355.8131330105106
 31
0.0
  0
SOLID
  5
473F
330
4159
100
AcDbEntity
  8
AM_5
370
     0
100
AcDbTrace
 10
599.8005770848688
 20
410.571713454379
 30
0.0
 11
600.526103528862
 21
409.8835191656302
 31
0.0
 12
598.0987574406189
 22
408.0510369780249
 32
0.0
 13
598.0987574406189
 23
408.0510369780249
 33
0.0
  0
SOLID
  5
4740
330
4159
100
AcDbEntity
  8
AM_5
370
     0
100
AcDbTrace
 10
546.1214225624612
 20
353.9806508229052
 30
0.0
 11
546.8469490064544
 21
353.2924565341564
 31
0.0
 12
548.5487686507042
 22
355.8131330105106
 32
0.0
 13
548.5487686507042
 23
355.8131330105106
 33
0.0
  0
MTEXT
  5
4741
330
4159
100
AcDbEntity
  8
AM_5
100
AcDbMText
 10
539.8144995717542
 20
354.2103188347395
 30
0.0
 40
3.5
 41
0.0
 71
     5
 72
     1
  1
\U+220572
 73
     1
 44
1.0
1001
ACAD
1000
MTEXTBEGIN
1070
    73
1070
     1
1070
    44
1040
1.0
1070
    74
1070
     0
1000
MTEXTEND
  0
POINT
  5
4742
330
4159
100
AcDbEntity
  8
Defpoints
 62
     0
370
     0
100
AcDbPoint
 10
548.5487686507042
 20
355.8131330105106
 30
0.0
  0
POINT
  5
4743
330
4159
100
AcDbEntity
  8
Defpoints
 62
     0
370
     0
100
AcDbPoint
 10
598.0987574406189
 20
408.0510369780249
 30
0.0
  0
ENDBLK
  5
4160
330
4159
100
AcDbEntity
  8
0
370
     0
100
AcDbBlockEnd
  0
BLOCK
  5
41D9
330
41D0
100
AcDbEntity
  8
0
370
     0
100
AcDbBlockBegin
  2
*D62
 70
     1
 10
0.0
 20
0.0
 30
0.0
  3
*D62
  1

  0
LINE
  5
4744
330
41D0
100
AcDbEntity
  8
AM_5
100
AcDbLine
 10
599.6554336466476
 20
394.7824983479762
 30
0.0
 11
602.3515091348033
 21
396.0982403295846
 31
0.0
  0
LINE
  5
4745
330
41D0
100
AcDbEntity
  8
AM_5
100
AcDbLine
 10
546.9920924446758
 20
369.0816716405592
 30
0.0
 11
539.9177361896269
 21
365.6292358469348
 31
0.0
  0
LINE
  5
4746
330
41D0
100
AcDbEntity
  8
AM_5
100
AcDbLine
 10
539.9177361896269
 20
365.6292358469348
 30
0.0
 11
528.2441141423828
 21
365.6292358469348
 31
0.0
  0
LINE
  5
4747
330
41D0
100
AcDbEntity
  8
AM_5
100
AcDbLine
 10
596.9593581584921
 20
393.4667563663678
 30
0.0
 11
549.6881679328314
 21
370.3974136221676
 31
0.0
  0
SOLID
  5
4748
330
41D0
100
AcDbEntity
  8
AM_5
370
     0
100
AcDbTrace
 10
599.4361433163795
 20
395.2318442626688
 30
0.0
 11
599.8747239769158
 21
394.3331524332836
 31
0.0
 12
596.9593581584921
 22
393.4667563663678
 32
0.0
 13
596.9593581584921
 23
393.4667563663678
 33
0.0
  0
SOLID
  5
4749
330
41D0
100
AcDbEntity
  8
AM_5
370
     0
100
AcDbTrace
 10
546.7728021144076
 20
369.5310175552518
 30
0.0
 11
547.2113827749438
 21
368.6323257258666
 31
0.0
 12
549.6881679328314
 22
370.3974136221676
 32
0.0
 13
549.6881679328314
 23
370.3974136221676
 33
0.0
  0
MTEXT
  5
474A
330
41D0
100
AcDbEntity
  8
AM_5
100
AcDbMText
 10
533.5809251660048
 20
368.3795803351239
 30
0.0
 40
3.5
 41
0.0
 71
     5
 72
     1
  1
\U+220552.6
 73
     1
 44
1.0
1001
ACAD
1000
MTEXTBEGIN
1070
    73
1070
     1
1070
    44
1040
1.0
1070
    74
1070
     0
1000
MTEXTEND
  0
POINT
  5
474B
330
41D0
100
AcDbEntity
  8
Defpoints
 62
     0
370
     0
100
AcDbPoint
 10
549.6881679328314
 20
370.3974136221676
 30
0.0
  0
POINT
  5
474C
330
41D0
100
AcDbEntity
  8
Defpoints
 62
     0
370
     0
100
AcDbPoint
 10
596.9593581584921
 20
393.4667563663678
 30
0.0
  0
ENDBLK
  5
41DA
330
41D0
100
AcDbEntity
  8
0
370
     0
100
AcDbBlockEnd
  0
BLOCK
  5
427A
330
4270
100
AcDbEntity
  8
0
370
     0
100
AcDbBlockBegin
  2
*D63
 70
     1
 10
0.0
 20
0.0
 30
0.0
  3
*D63
  1

  0
LINE
  5
474D
330
4270
100
AcDbEntity
  8
AM_5
100
AcDbLine
 10
606.2997156875773
 20
399.8160595904828
 30
0.0
 11
623.4276166013132
 21
370.149664980889
 31
0.0
  0
LINE
  5
474E
330
4270
100
AcDbEntity
  8
AM_5
100
AcDbLine
 10
596.7734362459484
 20
394.3160595904829
 30
0.0
 11
613.9013371596846
 21
364.6496649808888
 31
0.0
  0
LINE
  5
474F
330
4270
100
AcDbEntity
  8
AM_5
100
AcDbLine
 10
620.3295403899598
 20
369.5156903846734
 30
0.0
 11
615.9994133710378
 21
367.0156903846733
 31
0.0
  0
SOLID
  5
4750
330
4270
100
AcDbEntity
  8
AM_5
370
     0
100
AcDbTrace
 10
620.0795403899599
 20
369.9487030865656
 30
0.0
 11
620.57954038996
 21
369.0826776827812
 31
0.0
 12
622.9276166013131
 22
371.0156903846735
 32
0.0
 13
622.9276166013131
 23
371.0156903846735
 33
0.0
  0
SOLID
  5
4751
330
4270
100
AcDbEntity
  8
AM_5
370
     0
100
AcDbTrace
 10
615.7494133710378
 20
367.4487030865655
 30
0.0
 11
616.2494133710379
 21
366.5826776827811
 31
0.0
 12
613.4013371596845
 22
365.5156903846732
 32
0.0
 13
613.4013371596845
 23
365.5156903846732
 33
0.0
  0
MTEXT
  5
4752
330
4270
100
AcDbEntity
  8
AM_5
100
AcDbMText
 10
616.7894768804988
 20
370.6472602450805
 30
0.0
 40
3.5
 41
0.0
 71
     5
 72
     1
  1
11
 11
0.8660254037844218
 21
0.5000000000000295
 31
0.0
 73
     1
 44
1.0
1001
ACAD
1000
MTEXTBEGIN
1070
    73
1070
     1
1070
    44
1040
1.0
1070
    74
1070
     0
1000
MTEXTEND
  0
POINT
  5
4753
330
4270
100
AcDbEntity
  8
Defpoints
 62
     0
370
     0
100
AcDbPoint
 10
605.7997156875773
 20
400.6820849942672
 30
0.0
  0
POINT
  5
4754
330
4270
100
AcDbEntity
  8
Defpoints
 62
     0
370
     0
100
AcDbPoint
 10
596.2734362459484
 20
395.1820849942673
 30
0.0
  0
POINT
  5
4755
330
4270
100
AcDbEntity
  8
Defpoints
 62
     0
370
     0
100
AcDbPoint
 10
613.4013371596845
 20
365.5156903846732
 30
0.0
  0
ENDBLK
  5
427B
330
4270
100
AcDbEntity
  8
0
370
     0
100
AcDbBlockEnd
  0
BLOCK
  5
42B1
330
42A5
100
AcDbEntity
  8
0
370
     0
100
AcDbBlockBegin
  2
*D64
 70
     1
 10
0.0
 20
0.0
 30
0.0
  3
*D64
  1

  0
LINE
  5
4756
330
42A5
100
AcDbEntity
  8
AM_5
100
AcDbLine
 10
592.8763219289186
 20
392.0660595904829
 30
0.0
 11
610.0042228426527
 21
362.3996649808881
 31
0.0
  0
LINE
  5
4757
330
42A5
100
AcDbEntity
  8
AM_5
100
AcDbLine
 10
596.7734362459489
 20
394.316059590483
 30
0.0
 11
613.901337159683
 21
364.6496649808881
 31
0.0
  0
LINE
  5
4758
330
42A5
100
AcDbEntity
  8
AM_5
100
AcDbLine
 10
615.9994133710364
 20
367.0156903846724
 30
0.0
 11
618.5974895823896
 21
368.5156903846723
 31
0.0
  0
LINE
  5
4759
330
42A5
100
AcDbEntity
  8
AM_5
100
AcDbLine
 10
606.9061466312994
 20
361.7656903846726
 30
0.0
 11
597.9038344288455
 21
356.5682030112571
 31
0.0
  0
LINE
  5
475A
330
42A5
100
AcDbEntity
  8
AM_5
100
AcDbLine
 10
613.4013371596831
 20
365.5156903846725
 30
0.0
 11
609.5042228426527
 21
363.2656903846725
 31
0.0
  0
SOLID
  5
475B
330
42A5
100
AcDbEntity
  8
AM_5
370
     0
100
AcDbTrace
 10
615.7494133710364
 20
367.4487030865646
 30
0.0
 11
616.2494133710364
 21
366.5826776827802
 31
0.0
 12
613.4013371596831
 22
365.5156903846725
 32
0.0
 13
613.4013371596831
 23
365.5156903846725
 33
0.0
  0
SOLID
  5
475C
330
42A5
100
AcDbEntity
  8
AM_5
370
     0
100
AcDbTrace
 10
606.6561466312994
 20
362.1987030865648
 30
0.0
 11
607.1561466312994
 21
361.3326776827804
 31
0.0
 12
609.5042228426527
 22
363.2656903846725
 32
0.0
 13
609.5042228426527
 23
363.2656903846725
 33
0.0
  0
MTEXT
  5
475D
330
42A5
100
AcDbEntity
  8
AM_5
100
AcDbMText
 10
599.7309524243957
 20
360.7985165583719
 30
0.0
 40
3.5
 41
0.0
 71
     5
 72
     1
  1
4.5
 11
0.8660254037844522
 21
0.4999999999999764
 31
0.0
 73
     1
 44
1.0
1001
ACAD
1000
MTEXTBEGIN
1070
    73
1070
     1
1070
    44
1040
1.0
1070
    74
1070
     0
1000
MTEXTEND
  0
POINT
  5
475E
330
42A5
100
AcDbEntity
  8
Defpoints
 62
     0
370
     0
100
AcDbPoint
 10
592.3763219289186
 20
392.9320849942674
 30
0.0
  0
POINT
  5
475F
330
42A5
100
AcDbEntity
  8
Defpoints
 62
     0
370
     0
100
AcDbPoint
 10
596.2734362459489
 20
395.1820849942675
 30
0.0
  0
POINT
  5
4760
330
42A5
100
AcDbEntity
  8
Defpoints
 62
     0
370
     0
100
AcDbPoint
 10
613.4013371596831
 20
365.5156903846725
 30
0.0
  0
ENDBLK
  5
42B2
330
42A5
100
AcDbEntity
  8
0
370
     0
100
AcDbBlockEnd
  0
BLOCK
  5
430C
330
4300
100
AcDbEntity
  8
0
370
     0
100
AcDbBlockBegin
  2
*D65
 70
     1
 10
0.0
 20
0.0
 30
0.0
  3
*D65
  1

  0
LINE
  5
4761
330
4300
100
AcDbEntity
  8
AM_5
100
AcDbLine
 10
652.4933959577033
 20
528.4151337294003
 30
0.0
 11
652.4933959577033
 21
544.3061844884042
 31
0.0
  0
LINE
  5
4762
330
4300
100
AcDbEntity
  8
AM_5
100
AcDbLine
 10
650.4933959577033
 20
540.2093623634604
 30
0.0
 11
650.4933959577033
 21
544.3061844884042
 31
0.0
  0
LINE
  5
4763
330
4300
100
AcDbEntity
  8
AM_5
100
AcDbLine
 10
655.4933959577033
 20
543.3061844884043
 30
0.0
 11
658.4933959577033
 21
543.3061844884043
 31
0.0
  0
LINE
  5
4764
330
4300
100
AcDbEntity
  8
AM_5
100
AcDbLine
 10
647.4933959577033
 20
543.3061844884043
 30
0.0
 11
640.7943113120341
 21
543.3061844884043
 31
0.0
  0
LINE
  5
4765
330
4300
100
AcDbEntity
  8
AM_5
100
AcDbLine
 10
652.4933959577033
 20
543.3061844884043
 30
0.0
 11
650.4933959577033
 21
543.3061844884043
 31
0.0
  0
SOLID
  5
4766
330
4300
100
AcDbEntity
  8
AM_5
370
     0
100
AcDbTrace
 10
655.4933959577033
 20
543.8061844884042
 30
0.0
 11
655.4933959577033
 21
542.8061844884042
 31
0.0
 12
652.4933959577033
 22
543.3061844884043
 32
0.0
 13
652.4933959577033
 23
543.3061844884043
 33
0.0
  0
SOLID
  5
4767
330
4300
100
AcDbEntity
  8
AM_5
370
     0
100
AcDbTrace
 10
647.4933959577033
 20
543.8061844884042
 30
0.0
 11
647.4933959577033
 21
542.8061844884042
 31
0.0
 12
650.4933959577033
 22
543.3061844884043
 32
0.0
 13
650.4933959577033
 23
543.3061844884043
 33
0.0
  0
MTEXT
  5
4768
330
4300
100
AcDbEntity
  8
AM_5
100
AcDbMText
 10
642.6438536348687
 20
546.0565289765932
 30
0.0
 40
3.5
 41
0.0
 71
     5
 72
     1
  1
2
 73
     1
 44
1.0
1001
ACAD
1000
MTEXTBEGIN
1070
    73
1070
     1
1070
    44
1040
1.0
1070
    74
1070
     0
1000
MTEXTEND
  0
POINT
  5
4769
330
4300
100
AcDbEntity
  8
Defpoints
 62
     0
370
     0
100
AcDbPoint
 10
652.4933959577033
 20
527.4151337294004
 30
0.0
  0
POINT
  5
476A
330
4300
100
AcDbEntity
  8
Defpoints
 62
     0
370
     0
100
AcDbPoint
 10
650.4933959577033
 20
539.2093623634604
 30
0.0
  0
POINT
  5
476B
330
4300
100
AcDbEntity
  8
Defpoints
 62
     0
370
     0
100
AcDbPoint
 10
650.4933959577033
 20
543.3061844884043
 30
0.0
  0
ENDBLK
  5
430D
330
4300
100
AcDbEntity
  8
0
370
     0
100
AcDbBlockEnd
  0
BLOCK
  5
4338
330
432C
100
AcDbEntity
  8
0
370
     0
100
AcDbBlockBegin
  2
*D66
 70
     1
 10
0.0
 20
0.0
 30
0.0
  3
*D66
  1

  0
LINE
  5
476C
330
432C
100
AcDbEntity
  8
AM_5
100
AcDbLine
 10
653.4933959577031
 20
528.2044113095224
 30
0.0
 11
653.4933959577031
 21
550.8061844884036
 31
0.0
  0
LINE
  5
476D
330
432C
100
AcDbEntity
  8
AM_5
100
AcDbLine
 10
650.4933959577033
 20
540.2093623634604
 30
0.0
 11
650.4933959577033
 21
550.8061844884036
 31
0.0
  0
LINE
  5
476E
330
432C
100
AcDbEntity
  8
AM_5
100
AcDbLine
 10
656.4933959577031
 20
549.8061844884035
 30
0.0
 11
659.4933959577031
 21
549.8061844884035
 31
0.0
  0
LINE
  5
476F
330
432C
100
AcDbEntity
  8
AM_5
100
AcDbLine
 10
647.4933959577033
 20
549.8061844884035
 30
0.0
 11
640.9484212108727
 21
549.8061844884035
 31
0.0
  0
LINE
  5
4770
330
432C
100
AcDbEntity
  8
AM_5
100
AcDbLine
 10
653.4933959577031
 20
549.8061844884035
 30
0.0
 11
650.4933959577033
 21
549.8061844884035
 31
0.0
  0
SOLID
  5
4771
330
432C
100
AcDbEntity
  8
AM_5
370
     0
100
AcDbTrace
 10
656.4933959577031
 20
550.3061844884036
 30
0.0
 11
656.4933959577031
 21
549.3061844884035
 31
0.0
 12
653.4933959577031
 22
549.8061844884035
 32
0.0
 13
653.4933959577031
 23
549.8061844884035
 33
0.0
  0
SOLID
  5
4772
330
432C
100
AcDbEntity
  8
AM_5
370
     0
100
AcDbTrace
 10
647.4933959577033
 20
550.3061844884036
 30
0.0
 11
647.4933959577033
 21
549.3061844884035
 31
0.0
 12
650.4933959577033
 22
549.8061844884035
 32
0.0
 13
650.4933959577033
 23
549.8061844884035
 33
0.0
  0
MTEXT
  5
4773
330
432C
100
AcDbEntity
  8
AM_5
100
AcDbMText
 10
642.720908584288
 20
552.5561844884036
 30
0.0
 40
3.5
 41
0.0
 71
     5
 72
     1
  1
3
 73
     1
 44
1.0
1001
ACAD
1000
MTEXTBEGIN
1070
    73
1070
     1
1070
    44
1040
1.0
1070
    74
1070
     0
1000
MTEXTEND
  0
POINT
  5
4774
330
432C
100
AcDbEntity
  8
Defpoints
 62
     0
370
     0
100
AcDbPoint
 10
653.4933959577031
 20
527.2044113095224
 30
0.0
  0
POINT
  5
4775
330
432C
100
AcDbEntity
  8
Defpoints
 62
     0
370
     0
100
AcDbPoint
 10
650.4933959577033
 20
539.2093623634604
 30
0.0
  0
POINT
  5
4776
330
432C
100
AcDbEntity
  8
Defpoints
 62
     0
370
     0
100
AcDbPoint
 10
650.4933959577033
 20
549.8061844884035
 30
0.0
  0
ENDBLK
  5
4339
330
432C
100
AcDbEntity
  8
0
370
     0
100
AcDbBlockEnd
  0
BLOCK
  5
4364
330
4358
100
AcDbEntity
  8
0
370
     0
100
AcDbBlockBegin
  2
*D67
 70
     1
 10
0.0
 20
0.0
 30
0.0
  3
*D67
  1

  0
LINE
  5
4777
330
4358
100
AcDbEntity
  8
AM_5
100
AcDbLine
 10
708.4933959577031
 20
527.8362954045137
 30
0.0
 11
708.4933959577031
 21
539.8362954045137
 31
0.0
  0
LINE
  5
4778
330
4358
100
AcDbEntity
  8
AM_5
100
AcDbLine
 10
700.4933959577031
 20
515.0902903500914
 30
0.0
 11
700.4933959577031
 21
539.8362954045137
 31
0.0
  0
LINE
  5
4779
330
4358
100
AcDbEntity
  8
AM_5
100
AcDbLine
 10
711.493395957703
 20
538.8362954045137
 30
0.0
 11
714.4933959577031
 21
538.8362954045137
 31
0.0
  0
LINE
  5
477A
330
4358
100
AcDbEntity
  8
AM_5
100
AcDbLine
 10
697.4933959577031
 20
538.8362954045137
 30
0.0
 11
694.493395957703
 21
538.8362954045137
 31
0.0
  0
LINE
  5
477B
330
4358
100
AcDbEntity
  8
AM_5
100
AcDbLine
 10
708.4933959577031
 20
538.8362954045137
 30
0.0
 11
700.4933959577031
 21
538.8362954045137
 31
0.0
  0
SOLID
  5
477C
330
4358
100
AcDbEntity
  8
AM_5
370
     0
100
AcDbTrace
 10
711.493395957703
 20
539.3362954045137
 30
0.0
 11
711.493395957703
 21
538.3362954045137
 31
0.0
 12
708.4933959577031
 22
538.8362954045137
 32
0.0
 13
708.4933959577031
 23
538.8362954045137
 33
0.0
  0
SOLID
  5
477D
330
4358
100
AcDbEntity
  8
AM_5
370
     0
100
AcDbTrace
 10
697.4933959577031
 20
539.3362954045137
 30
0.0
 11
697.4933959577031
 21
538.3362954045137
 31
0.0
 12
700.4933959577031
 22
538.8362954045137
 32
0.0
 13
700.4933959577031
 23
538.8362954045137
 33
0.0
  0
MTEXT
  5
477E
330
4358
100
AcDbEntity
  8
AM_5
100
AcDbMText
 10
704.4933959577031
 20
541.5862954045137
 30
0.0
 40
3.5
 41
0.0
 71
     5
 72
     1
  1
8
 73
     1
 44
1.0
1001
ACAD
1000
MTEXTBEGIN
1070
    73
1070
     1
1070
    44
1040
1.0
1070
    74
1070
     0
1000
MTEXTEND
  0
POINT
  5
477F
330
4358
100
AcDbEntity
  8
Defpoints
 62
     0
370
     0
100
AcDbPoint
 10
708.4933959577031
 20
526.8362954045137
 30
0.0
  0
POINT
  5
4780
330
4358
100
AcDbEntity
  8
Defpoints
 62
     0
370
     0
100
AcDbPoint
 10
700.4933959577031
 20
514.0902903500914
 30
0.0
  0
POINT
  5
4781
330
4358
100
AcDbEntity
  8
Defpoints
 62
     0
370
     0
100
AcDbPoint
 10
700.4933959577031
 20
538.8362954045137
 30
0.0
  0
ENDBLK
  5
4365
330
4358
100
AcDbEntity
  8
0
370
     0
100
AcDbBlockEnd
  0
BLOCK
  5
4394
330
438A
100
AcDbEntity
  8
0
370
     0
100
AcDbBlockBegin
  2
*D68
 70
     1
 10
0.0
 20
0.0
 30
0.0
  3
*D68
  1

  0
LINE
  5
4782
330
438A
100
AcDbEntity
  8
AM_5
100
AcDbLine
 10
700.4933959577033
 20
515.0902903500915
 30
0.0
 11
700.4933959577033
 21
539.8362954045138
 31
0.0
  0
LINE
  5
4783
330
438A
100
AcDbEntity
  8
AM_5
100
AcDbLine
 10
680.4933959577031
 20
497.8082165951327
 30
0.0
 11
680.4933959577031
 21
539.8362954045138
 31
0.0
  0
LINE
  5
4784
330
438A
100
AcDbEntity
  8
AM_5
100
AcDbLine
 10
697.4933959577033
 20
538.8362954045138
 30
0.0
 11
683.4933959577031
 21
538.8362954045138
 31
0.0
  0
SOLID
  5
4785
330
438A
100
AcDbEntity
  8
AM_5
370
     0
100
AcDbTrace
 10
697.4933959577033
 20
539.3362954045138
 30
0.0
 11
697.4933959577033
 21
538.3362954045138
 31
0.0
 12
700.4933959577033
 22
538.8362954045138
 32
0.0
 13
700.4933959577033
 23
538.8362954045138
 33
0.0
  0
SOLID
  5
4786
330
438A
100
AcDbEntity
  8
AM_5
370
     0
100
AcDbTrace
 10
683.4933959577031
 20
539.3362954045138
 30
0.0
 11
683.4933959577031
 21
538.3362954045138
 31
0.0
 12
680.4933959577031
 22
538.8362954045138
 32
0.0
 13
680.4933959577031
 23
538.8362954045138
 33
0.0
  0
MTEXT
  5
4787
330
438A
100
AcDbEntity
  8
AM_5
100
AcDbMText
 10
690.4933959577032
 20
541.5866398927028
 30
0.0
 40
3.5
 41
0.0
 71
     5
 72
     1
  1
20
 73
     1
 44
1.0
1001
ACAD
1000
MTEXTBEGIN
1070
    73
1070
     1
1070
    44
1040
1.0
1070
    74
1070
     0
1000
MTEXTEND
  0
POINT
  5
4788
330
438A
100
AcDbEntity
  8
Defpoints
 62
     0
370
     0
100
AcDbPoint
 10
700.4933959577033
 20
514.0902903500915
 30
0.0
  0
POINT
  5
4789
330
438A
100
AcDbEntity
  8
Defpoints
 62
     0
370
     0
100
AcDbPoint
 10
680.4933959577031
 20
496.8082165951326
 30
0.0
  0
POINT
  5
478A
330
438A
100
AcDbEntity
  8
Defpoints
 62
     0
370
     0
100
AcDbPoint
 10
680.4933959577031
 20
538.8362954045138
 30
0.0
  0
ENDBLK
  5
4395
330
438A
100
AcDbEntity
  8
0
370
     0
100
AcDbBlockEnd
  0
BLOCK
  5
43C0
330
43B6
100
AcDbEntity
  8
0
370
     0
100
AcDbBlockBegin
  2
*D69
 70
     1
 10
0.0
 20
0.0
 30
0.0
  3
*D69
  1

  0
LINE
  5
478B
330
43B6
100
AcDbEntity
  8
AM_5
100
AcDbLine
 10
709.4933959577031
 20
526.8362954045137
 30
0.0
 11
721.4933959577033
 21
526.8362954045137
 31
0.0
  0
LINE
  5
478C
330
43B6
100
AcDbEntity
  8
AM_5
100
AcDbLine
 10
709.4933959577031
 20
474.8362954045137
 30
0.0
 11
721.4933959577033
 21
474.8362954045137
 31
0.0
  0
LINE
  5
478D
330
43B6
100
AcDbEntity
  8
AM_5
100
AcDbLine
 10
720.4933959577033
 20
523.8362954045137
 30
0.0
 11
720.4933959577033
 21
477.8362954045137
 31
0.0
  0
SOLID
  5
478E
330
43B6
100
AcDbEntity
  8
AM_5
370
     0
100
AcDbTrace
 10
719.9933959577033
 20
523.8362954045137
 30
0.0
 11
720.9933959577033
 21
523.8362954045137
 31
0.0
 12
720.4933959577033
 22
526.8362954045137
 32
0.0
 13
720.4933959577033
 23
526.8362954045137
 33
0.0
  0
SOLID
  5
478F
330
43B6
100
AcDbEntity
  8
AM_5
370
     0
100
AcDbTrace
 10
719.9933959577033
 20
477.8362954045137
 30
0.0
 11
720.9933959577033
 21
477.8362954045137
 31
0.0
 12
720.4933959577033
 22
474.8362954045137
 32
0.0
 13
720.4933959577033
 23
474.8362954045137
 33
0.0
  0
MTEXT
  5
4790
330
43B6
100
AcDbEntity
  8
AM_5
100
AcDbMText
 10
717.7430514695142
 20
500.8362954045137
 30
0.0
 40
3.5
 41
0.0
 71
     5
 72
     1
  1
%%c52
 11
0.0000000000000001
 21
1.0
 31
0.0
 73
     1
 44
1.0
1001
ACAD
1000
MTEXTBEGIN
1070
    73
1070
     1
1070
    44
1040
1.0
1070
    74
1070
     0
1000
MTEXTEND
  0
POINT
  5
4791
330
43B6
100
AcDbEntity
  8
Defpoints
 62
     0
370
     0
100
AcDbPoint
 10
708.4933959577031
 20
526.8362954045137
 30
0.0
  0
POINT
  5
4792
330
43B6
100
AcDbEntity
  8
Defpoints
 62
     0
370
     0
100
AcDbPoint
 10
708.4933959577031
 20
474.8362954045137
 30
0.0
  0
POINT
  5
4793
330
43B6
100
AcDbEntity
  8
Defpoints
 62
     0
370
     0
100
AcDbPoint
 10
720.4933959577033
 20
474.8362954045137
 30
0.0
  0
ENDBLK
  5
43C1
330
43B6
100
AcDbEntity
  8
0
370
     0
100
AcDbBlockEnd
  0
BLOCK
  5
43E4
330
43DD
100
AcDbEntity
  8
0
370
     0
100
AcDbBlockBegin
  2
*D70
 70
     1
 10
0.0
 20
0.0
 30
0.0
  3
*D70
  1

  0
LINE
  5
47F2
330
43DD
100
AcDbEntity
  8
AM_5
100
AcDbLine
 10
830.0508458377617
 20
396.4755935049097
 30
0.0
 11
845.982511413919
 21
412.4793729602287
 31
0.0
  0
LINE
  5
47F3
330
43DD
100
AcDbEntity
  8
AM_5
100
AcDbLine
 10
845.982511413919
 20
412.4793729602287
 30
0.0
 11
882.1093643173957
 21
412.4793729602287
 31
0.0
  0
SOLID
  5
47F4
330
43DD
100
AcDbEntity
  8
AM_5
370
     0
100
AcDbTrace
 10
829.6964949866977
 20
396.8283476322421
 30
0.0
 11
830.4051966888263
 21
396.1228393775773
 31
0.0
 12
827.9343210737673
 22
394.3494883985244
 32
0.0
 13
827.9343210737673
 23
394.3494883985244
 33
0.0
  0
MTEXT
  5
47F5
330
43DD
100
AcDbEntity
  8
AM_5
100
AcDbMText
 10
864.5459378656575
 20
415.6668729602286
 30
0.0
 40
3.5
 41
0.0
 71
     5
 72
     1
  1
3-M4*0.7*6depth
 73
     1
 44
1.0
1001
ACAD
1000
MTEXTBEGIN
1070
    73
1070
     1
1070
    44
1040
1.0
1070
    74
1070
     0
1000
MTEXTEND
  0
POINT
  5
47F6
330
43DD
100
AcDbEntity
  8
Defpoints
 62
     0
370
     0
100
AcDbPoint
 10
827.9343210737673
 20
394.3494883985244
 30
0.0
  0
POINT
  5
47F7
330
43DD
100
AcDbEntity
  8
Defpoints
 62
     0
370
     0
100
AcDbPoint
 10
826.5233045644377
 20
392.9320849942681
 30
0.0
  0
ENDBLK
  5
43E5
330
43DD
100
AcDbEntity
  8
0
370
     0
100
AcDbBlockEnd
  0
BLOCK
  5
4436
330
442D
100
AcDbEntity
  8
0
370
     0
100
AcDbBlockBegin
  2
*D72
 70
     1
 10
0.0
 20
0.0
 30
0.0
  3
*D72
  1

  0
LINE
  5
47F8
330
442D
100
AcDbEntity
  8
AM_5
100
AcDbLine
 10
791.8960824872421
 20
394.4791908914625
 30
0.0
 11
789.5598830081516
 21
396.3612567760419
 31
0.0
  0
LINE
  5
47F9
330
442D
100
AcDbEntity
  8
AM_5
100
AcDbLine
 10
823.0454088751159
 20
369.3849790970712
 30
0.0
 11
836.2721759340484
 21
358.7293620285384
 31
0.0
  0
LINE
  5
47FA
330
442D
100
AcDbEntity
  8
AM_5
100
AcDbLine
 10
836.2721759340484
 20
358.7293620285384
 30
0.0
 11
861.5490288375251
 21
358.7293620285383
 31
0.0
  0
LINE
  5
47FB
330
442D
100
AcDbEntity
  8
AM_5
100
AcDbLine
 10
794.2322819663326
 20
392.5971250068832
 30
0.0
 11
820.7092093960254
 21
371.2670449816505
 31
0.0
  0
SOLID
  5
47FC
330
442D
100
AcDbEntity
  8
AM_5
370
     0
100
AcDbTrace
 10
792.209760134672
 20
394.868557471311
 30
0.0
 11
791.5824048398121
 21
394.0898243116142
 31
0.0
 12
794.2322819663326
 22
392.5971250068832
 32
0.0
 13
794.2322819663326
 23
392.5971250068832
 33
0.0
  0
SOLID
  5
47FD
330
442D
100
AcDbEntity
  8
AM_5
370
     0
100
AcDbTrace
 10
823.3590865225458
 20
369.7743456769197
 30
0.0
 11
822.7317312276861
 21
368.9956125172229
 31
0.0
 12
820.7092093960254
 22
371.2670449816505
 32
0.0
 13
820.7092093960254
 23
371.2670449816505
 33
0.0
  0
MTEXT
  5
47FE
330
442D
100
AcDbEntity
  8
AM_5
100
AcDbMText
 10
849.4106023857868
 20
361.9172065167275
 30
0.0
 40
3.5
 41
0.0
 71
     5
 72
     1
  1
\U+220534*2depth
 73
     1
 44
1.0
1001
ACAD
1000
MTEXTBEGIN
1070
    73
1070
     1
1070
    44
1040
1.0
1070
    74
1070
     0
1000
MTEXTEND
  0
POINT
  5
47FF
330
442D
100
AcDbEntity
  8
Defpoints
 62
     0
370
     0
100
AcDbPoint
 10
820.7092093960254
 20
371.2670449816505
 30
0.0
  0
POINT
  5
4800
330
442D
100
AcDbEntity
  8
Defpoints
 62
     0
370
     0
100
AcDbPoint
 10
794.2322819663326
 20
392.5971250068832
 30
0.0
  0
ENDBLK
  5
4437
330
442D
100
AcDbEntity
  8
0
370
     0
100
AcDbBlockEnd
  0
BLOCK
  5
447C
330
446E
100
AcDbEntity
  8
0
370
     0
100
AcDbBlockBegin
  2
*D73
 70
     1
 10
0.0
 20
0.0
 30
0.0
  3
*D73
  1

  0
LINE
  5
4801
330
446E
100
AcDbEntity
  8
AM_5
100
AcDbLine
 10
817.6344330542894
 20
409.8565865502838
 30
0.0
 11
821.7386747741976
 21
421.1328979997148
 31
0.0
  0
LINE
  5
4802
330
446E
100
AcDbEntity
  8
AM_5
100
AcDbLine
 10
807.4707456811792
 20
411.4552569566821
 30
0.0
 11
807.4707456811793
 21
423.6487188576492
 31
0.0
  0
ARC
  5
4803
330
446E
100
AcDbEntity
  8
AM_5
100
AcDbCircle
 10
807.470745681179
 20
381.9320849942672
 30
0.0
 40
40.71663386338202
100
AcDbArc
 50
74.22250629419163
 51
85.77749370580802
  0
SOLID
  5
4804
330
446E
100
AcDbEntity
  8
AM_5
370
     0
100
AcDbTrace
 10
818.695275232897
 20
421.5905418982387
 30
0.0
 11
818.3881055184169
 21
420.6388871465003
 31
0.0
 12
821.396654630872
 22
420.1932053789288
 32
0.0
 13
821.396654630872
 23
420.1932053789288
 33
0.0
  0
SOLID
  5
4805
330
446E
100
AcDbEntity
  8
AM_5
370
     0
100
AcDbTrace
 10
810.4502892234476
 20
422.0385383272107
 30
0.0
 11
810.4871292040078
 21
423.037859504727
 31
0.0
 12
807.4707456811792
 22
422.6487188576491
 32
0.0
 13
807.4707456811792
 23
422.6487188576491
 33
0.0
  0
MTEXT
  5
4806
330
446E
100
AcDbEntity
  8
AM_5
100
AcDbMText
 10
815.0187072606174
 20
424.7387022749082
 30
0.0
 40
3.5
 41
0.0
 71
     5
 72
     1
  1
20°
 11
0.9848077530122077
 21
-0.1736481776669319
 31
0.0
 73
     1
 44
1.0
1001
ACAD
1000
MTEXTBEGIN
1070
    73
1070
     1
1070
    44
1040
1.0
1070
    74
1070
     0
1000
MTEXTEND
  0
POINT
  5
4807
330
446E
100
AcDbEntity
  8
Defpoints
 62
     0
370
     0
100
AcDbPoint
 10
816.8606476532842
 20
421.5511967223078
 30
0.0
  0
POINT
  5
4808
330
446E
100
AcDbEntity
  8
Defpoints
 62
     0
370
     0
100
AcDbPoint
 10
807.470745681179
 20
336.3806390430867
 30
0.0
  0
POINT
  5
4809
330
446E
100
AcDbEntity
  8
Defpoints
 62
     0
370
     0
100
AcDbPoint
 10
807.470745681179
 20
381.9320849942672
 30
0.0
  0
POINT
  5
480A
330
446E
100
AcDbEntity
  8
Defpoints
 62
     0
370
     0
100
AcDbPoint
 10
817.2924129109638
 20
408.9168939294978
 30
0.0
  0
POINT
  5
480B
330
446E
100
AcDbEntity
  8
Defpoints
 62
     0
370
     0
100
AcDbPoint
 10
807.470745681179
 20
410.455256956682
 30
0.0
  0
ENDBLK
  5
447D
330
446E
100
AcDbEntity
  8
0
370
     0
100
AcDbBlockEnd
  0
BLOCK
  5
44AA
330
449C
100
AcDbEntity
  8
0
370
     0
100
AcDbBlockBegin
  2
*D74
 70
     1
 10
0.0
 20
0.0
 30
0.0
  3
*D74
  1

  0
LINE
  5
480C
330
449C
100
AcDbEntity
  8
AM_5
100
AcDbLine
 10
807.470745681179
 20
411.4552569566821
 30
0.0
 11
807.470745681179
 21
423.6487188576489
 31
0.0
  0
LINE
  5
480D
330
449C
100
AcDbEntity
  8
AM_5
100
AcDbLine
 10
797.3070583080688
 20
409.8565865502837
 30
0.0
 11
793.2028165881608
 21
421.1328979997146
 31
0.0
  0
ARC
  5
480E
330
449C
100
AcDbEntity
  8
AM_5
100
AcDbCircle
 10
807.470745681179
 20
381.9320849942671
 30
0.0
 40
40.71663386338191
100
AcDbArc
 50
94.22250629419201
 51
105.7774937058081
  0
SOLID
  5
480F
330
449C
100
AcDbEntity
  8
AM_5
370
     0
100
AcDbTrace
 10
804.4543621583505
 20
423.0378595047267
 30
0.0
 11
804.4912021389105
 21
422.0385383272106
 31
0.0
 12
807.4707456811792
 22
422.648718857649
 32
0.0
 13
807.4707456811792
 23
422.648718857649
 33
0.0
  0
SOLID
  5
4810
330
449C
100
AcDbEntity
  8
AM_5
370
     0
100
AcDbTrace
 10
796.5533858439415
 20
420.6388871465001
 30
0.0
 11
796.2462161294613
 21
421.5905418982385
 31
0.0
 12
793.5448367314864
 22
420.1932053789287
 32
0.0
 13
793.5448367314864
 23
420.1932053789287
 33
0.0
  0
MTEXT
  5
4811
330
449C
100
AcDbEntity
  8
AM_5
100
AcDbMText
 10
799.9227841017409
 20
424.7387022749079
 30
0.0
 40
3.5
 41
0.0
 71
     5
 72
     1
  1
20°
 11
0.9848077530122075
 21
0.1736481776669325
 31
0.0
 73
     1
 44
1.0
1001
ACAD
1000
MTEXTBEGIN
1070
    73
1070
     1
1070
    44
1040
1.0
1070
    74
1070
     0
1000
MTEXTEND
  0
POINT
  5
4812
330
449C
100
AcDbEntity
  8
Defpoints
 62
     0
370
     0
100
AcDbPoint
 10
802.7438330026091
 20
422.3734075455125
 30
0.0
  0
POINT
  5
4813
330
449C
100
AcDbEntity
  8
Defpoints
 62
     0
370
     0
100
AcDbPoint
 10
807.470745681179
 20
381.9320849942672
 30
0.0
  0
POINT
  5
4814
330
449C
100
AcDbEntity
  8
Defpoints
 62
     0
370
     0
100
AcDbPoint
 10
807.4707456811792
 20
336.3806390430867
 30
0.0
  0
POINT
  5
4815
330
449C
100
AcDbEntity
  8
Defpoints
 62
     0
370
     0
100
AcDbPoint
 10
807.470745681179
 20
410.4552569566821
 30
0.0
  0
POINT
  5
4816
330
449C
100
AcDbEntity
  8
Defpoints
 62
     0
370
     0
100
AcDbPoint
 10
797.6490784513945
 20
408.9168939294978
 30
0.0
  0
ENDBLK
  5
44AB
330
449C
100
AcDbEntity
  8
0
370
     0
100
AcDbBlockEnd
  0
BLOCK
  5
44E0
330
44D1
100
AcDbEntity
  8
0
370
     0
100
AcDbBlockBegin
  2
*D75
 70
     1
 10
0.0
 20
0.0
 30
0.0
  3
*D75
  1

  0
LINE
  5
4817
330
44D1
100
AcDbEntity
  8
AM_5
100
AcDbLine
 10
807.470745681179
 20
411.4552569566821
 30
0.0
 11
807.470745681179
 21
430.148718857649
 31
0.0
  0
LINE
  5
4818
330
44D1
100
AcDbEntity
  8
AM_5
100
AcDbLine
 10
797.1382930073224
 20
406.8768323720722
 30
0.0
 11
789.0190387372507
 21
426.4784461472368
 31
0.0
  0
ARC
  5
4819
330
44D1
100
AcDbEntity
  8
AM_5
100
AcDbCircle
 10
807.470745681179
 20
381.9320849942672
 30
0.0
 40
47.21663386338188
100
AcDbArc
 50
93.64101059469149
 51
108.8589894053067
  0
SOLID
  5
481A
330
44D1
100
AcDbEntity
  8
AM_5
370
     0
100
AcDbTrace
 10
804.4563756837144
 20
429.5531610888571
 30
0.0
 11
804.4881441491314
 21
428.5536658339384
 31
0.0
 12
807.470745681179
 22
429.1487188576489
 32
0.0
 13
807.470745681179
 23
429.1487188576489
 33
0.0
  0
SOLID
  5
481B
330
44D1
100
AcDbEntity
  8
AM_5
370
     0
100
AcDbTrace
 10
792.3850036122642
 20
426.1462014970216
 30
0.0
 11
792.0318635724574
 21
427.08177197127
 31
0.0
 12
789.4017221696157
 22
425.5545666147255
 32
0.0
 13
789.4017221696157
 23
425.5545666147255
 33
0.0
  0
MTEXT
  5
481C
330
44D1
100
AcDbEntity
  8
AM_5
100
AcDbMText
 10
797.7226717843989
 20
430.9389618677148
 30
0.0
 40
3.5
 41
0.0
 71
     5
 72
     1
  1
22.5°
 11
0.9807852804032334
 21
0.1950903220161132
 31
0.0
 73
     1
 44
1.0
1001
ACAD
1000
MTEXTBEGIN
1070
    73
1070
     1
1070
    44
1040
1.0
1070
    74
1070
     0
1000
MTEXTEND
  0
POINT
  5
481D
330
44D1
100
AcDbEntity
  8
Defpoints
 62
     0
370
     0
100
AcDbPoint
 10
801.3077382535438
 20
428.7447740094858
 30
0.0
  0
POINT
  5
481E
330
44D1
100
AcDbEntity
  8
Defpoints
 62
     0
370
     0
100
AcDbPoint
 10
797.5209764396875
 20
405.9529528395609
 30
0.0
  0
POINT
  5
481F
330
44D1
100
AcDbEntity
  8
Defpoints
 62
     0
370
     0
100
AcDbPoint
 10
807.470745681179
 20
336.3806390430867
 30
0.0
  0
POINT
  5
4820
330
44D1
100
AcDbEntity
  8
Defpoints
 62
     0
370
     0
100
AcDbPoint
 10
807.470745681179
 20
410.4552569566821
 30
0.0
  0
POINT
  5
4821
330
44D1
100
AcDbEntity
  8
Defpoints
 62
     0
370
     0
100
AcDbPoint
 10
807.470745681179
 20
381.9320849942672
 30
0.0
  0
ENDBLK
  5
44E1
330
44D1
100
AcDbEntity
  8
0
370
     0
100
AcDbBlockEnd
  0
BLOCK
  5
458C
330
4583
100
AcDbEntity
  8
0
370
     0
100
AcDbBlockBegin
  2
*D76
 70
     1
 10
0.0
 20
0.0
 30
0.0
  3
*D76
  1

  0
LINE
  5
4822
330
4583
100
AcDbEntity
  8
AM_5
100
AcDbLine
 10
796.4416078988862
 20
405.9231360256051
 30
0.0
 11
786.4119231312571
 21
420.0091084687394
 31
0.0
  0
LINE
  5
4823
330
4583
100
AcDbEntity
  8
AM_5
100
AcDbLine
 10
786.4119231312571
 20
420.0091084687394
 30
0.0
 11
763.9350702277803
 21
420.0091084687393
 31
0.0
  0
SOLID
  5
4824
330
4583
100
AcDbEntity
  8
AM_5
370
     0
100
AcDbTrace
 10
796.8489080451185
 20
406.2131473889674
 30
0.0
 11
796.0343077526541
 21
405.6331246622428
 31
0.0
 12
798.1816760790602
 22
403.4793351482123
 32
0.0
 13
798.1816760790602
 23
403.4793351482123
 33
0.0
  0
MTEXT
  5
4825
330
4583
100
AcDbEntity
  8
AM_5
100
AcDbMText
 10
774.6734966795181
 20
423.196608468739
 30
0.0
 40
3.5
 41
0.0
 71
     5
 72
     1
  1
\U+22053*3depth
 73
     1
 44
1.0
1001
ACAD
1000
MTEXTBEGIN
1070
    73
1070
     1
1070
    44
1040
1.0
1070
    74
1070
     0
1000
MTEXTEND
  0
POINT
  5
4826
330
4583
100
AcDbEntity
  8
Defpoints
 62
     0
370
     0
100
AcDbPoint
 10
798.1816760790602
 20
403.4793351482123
 30
0.0
  0
POINT
  5
4827
330
4583
100
AcDbEntity
  8
Defpoints
 62
     0
370
     0
100
AcDbPoint
 10
799.9217442592343
 20
401.0355342708191
 30
0.0
  0
ENDBLK
  5
458D
330
4583
100
AcDbEntity
  8
0
370
     0
100
AcDbBlockEnd
  0
BLOCK
  5
45E9
330
45DD
100
AcDbEntity
  8
0
370
     0
100
AcDbBlockBegin
  2
*D77
 70
     1
 10
0.0
 20
0.0
 30
0.0
  3
*D77
  1

  0
LINE
  5
4828
330
45DD
100
AcDbEntity
  8
AM_5
100
AcDbLine
 10
815.9226102416134
 20
358.9143530153759
 30
0.0
 11
773.385124278493
 21
341.2947494201905
 31
0.0
  0
LINE
  5
4829
330
45DD
100
AcDbEntity
  8
AM_5
100
AcDbLine
 10
814.0091930797874
 20
363.533750677932
 30
0.0
 11
771.4717071166671
 21
345.9141470827465
 31
0.0
  0
LINE
  5
482A
330
45DD
100
AcDbEntity
  8
AM_5
100
AcDbLine
 10
775.4570541080997
 20
338.9057942550219
 30
0.0
 11
776.6051044051953
 21
336.1341556574881
 31
0.0
  0
LINE
  5
482B
330
45DD
100
AcDbEntity
  8
AM_5
100
AcDbLine
 10
771.2475363520826
 20
349.0684691126454
 30
0.0
 11
770.0994860549871
 21
351.8401077101791
 31
0.0
  0
LINE
  5
482C
330
45DD
100
AcDbEntity
  8
AM_5
100
AcDbLine
 10
774.3090038110042
 20
341.6774328525556
 30
0.0
 11
772.3955866491783
 21
346.2968305151116
 31
0.0
  0
SOLID
  5
482D
330
45DD
100
AcDbEntity
  8
AM_5
370
     0
100
AcDbTrace
 10
775.9189938743554
 20
339.0971359712044
 30
0.0
 11
774.995114341844
 21
338.7144525388393
 31
0.0
 12
774.3090038110042
 22
341.6774328525556
 32
0.0
 13
774.3090038110042
 23
341.6774328525556
 33
0.0
  0
SOLID
  5
482E
330
45DD
100
AcDbEntity
  8
AM_5
370
     0
100
AcDbTrace
 10
771.7094761183382
 20
349.259810828828
 30
0.0
 11
770.785596585827
 21
348.8771273964628
 31
0.0
 12
772.3955866491783
 22
346.2968305151116
 32
0.0
 13
772.3955866491783
 23
346.2968305151116
 33
0.0
  0
MTEXT
  5
482F
330
45DD
100
AcDbEntity
  8
AM_5
100
AcDbMText
 10
775.892963944497
 20
345.039511122838
 30
0.0
 40
3.5
 41
0.0
 71
     5
 72
     1
  1
5
 11
0.3826834323651985
 21
-0.9238795325112416
 31
0.0
 73
     1
 44
1.0
1001
ACAD
1000
MTEXTBEGIN
1070
    73
1070
     1
1070
    44
1040
1.0
1070
    74
1070
     0
1000
MTEXTEND
  0
POINT
  5
4830
330
45DD
100
AcDbEntity
  8
Defpoints
 62
     0
370
     0
100
AcDbPoint
 10
816.8464897741246
 20
359.2970364477411
 30
0.0
  0
POINT
  5
4831
330
45DD
100
AcDbEntity
  8
Defpoints
 62
     0
370
     0
100
AcDbPoint
 10
814.9330726122986
 20
363.9164341102971
 30
0.0
  0
POINT
  5
4832
330
45DD
100
AcDbEntity
  8
Defpoints
 62
     0
370
     0
100
AcDbPoint
 10
772.3955866491783
 20
346.2968305151116
 30
0.0
  0
ENDBLK
  5
45EA
330
45DD
100
AcDbEntity
  8
0
370
     0
100
AcDbBlockEnd
  0
BLOCK
  5
461D
330
4613
100
AcDbEntity
  8
0
370
     0
100
AcDbBlockBegin
  2
*D78
 70
     1
 10
0.0
 20
0.0
 30
0.0
  3
*D78
  1

  0
LINE
  5
4833
330
4613
100
AcDbEntity
  8
AM_5
100
AcDbLine
 10
806.5468661486677
 20
381.5494015619021
 30
0.0
 11
764.0093801855448
 21
363.9297979667162
 31
0.0
  0
LINE
  5
4834
330
4613
100
AcDbEntity
  8
AM_5
100
AcDbLine
 10
814.009193079787
 20
363.5337506779318
 30
0.0
 11
771.471707116666
 21
345.9141470827468
 31
0.0
  0
LINE
  5
4835
330
4613
100
AcDbEntity
  8
AM_5
100
AcDbLine
 10
766.0813100151516
 20
361.5408428015478
 30
0.0
 11
771.2475363520817
 21
349.0684691126457
 31
0.0
  0
SOLID
  5
4836
330
4613
100
AcDbEntity
  8
AM_5
370
     0
100
AcDbTrace
 10
766.5432497814073
 20
361.7321845177303
 30
0.0
 11
765.6193702488961
 21
361.3495010853652
 31
0.0
 12
764.9332597180561
 22
364.3124813990815
 32
0.0
 13
764.9332597180561
 23
364.3124813990815
 33
0.0
  0
SOLID
  5
4837
330
4613
100
AcDbEntity
  8
AM_5
370
     0
100
AcDbTrace
 10
771.7094761183374
 20
349.2598108288283
 30
0.0
 11
770.7855965858262
 21
348.8771273964632
 31
0.0
 12
772.3955866491772
 22
346.296830515112
 32
0.0
 13
772.3955866491772
 23
346.296830515112
 33
0.0
  0
MTEXT
  5
4838
330
4613
100
AcDbEntity
  8
AM_5
100
AcDbMText
 10
771.2050918980225
 20
356.3570353961009
 30
0.0
 40
3.5
 41
0.0
 71
     5
 72
     1
  1
19.5
 11
0.3826834323651839
 21
-0.923879532511248
 31
0.0
 73
     1
 44
1.0
1001
ACAD
1000
MTEXTBEGIN
1070
    73
1070
     1
1070
    44
1040
1.0
1070
    74
1070
     0
1000
MTEXTEND
  0
POINT
  5
4839
330
4613
100
AcDbEntity
  8
Defpoints
 62
     0
370
     0
100
AcDbPoint
 10
807.470745681179
 20
381.9320849942672
 30
0.0
  0
POINT
  5
483A
330
4613
100
AcDbEntity
  8
Defpoints
 62
     0
370
     0
100
AcDbPoint
 10
814.9330726122983
 20
363.9164341102969
 30
0.0
  0
POINT
  5
483B
330
4613
100
AcDbEntity
  8
Defpoints
 62
     0
370
     0
100
AcDbPoint
 10
772.3955866491772
 20
346.296830515112
 30
0.0
  0
ENDBLK
  5
461E
330
4613
100
AcDbEntity
  8
0
370
     0
100
AcDbBlockEnd
  0
BLOCK
  5
465C
330
4652
100
AcDbEntity
  8
0
370
     0
100
AcDbBlockBegin
  2
*D80
 70
     1
 10
0.0
 20
0.0
 30
0.0
  3
*D80
  1

  0
LINE
  5
483C
330
4652
100
AcDbEntity
  8
AM_5
100
AcDbLine
 10
798.1278306366367
 20
401.8747512771504
 30
0.0
 11
755.5903446735101
 21
384.2551476819632
 31
0.0
  0
LINE
  5
483D
330
4652
100
AcDbEntity
  8
AM_5
100
AcDbLine
 10
806.5468661486681
 20
381.5494015619022
 30
0.0
 11
764.009380185544
 21
363.9297979667159
 31
0.0
  0
LINE
  5
483E
330
4652
100
AcDbEntity
  8
AM_5
100
AcDbLine
 10
757.6622745031169
 20
381.8661925167946
 30
0.0
 11
763.7852094209597
 21
367.0841199966148
 31
0.0
  0
SOLID
  5
483F
330
4652
100
AcDbEntity
  8
AM_5
370
     0
100
AcDbTrace
 10
758.1242142693724
 20
382.0575342329771
 30
0.0
 11
757.2003347368612
 21
381.674850800612
 31
0.0
 12
756.5142242060213
 22
384.6378311143283
 32
0.0
 13
756.5142242060213
 23
384.6378311143283
 33
0.0
  0
SOLID
  5
4840
330
4652
100
AcDbEntity
  8
AM_5
370
     0
100
AcDbTrace
 10
764.2471491872153
 20
367.2754617127974
 30
0.0
 11
763.323269654704
 21
366.8927782804323
 31
0.0
 12
764.9332597180553
 22
364.3124813990811
 32
0.0
 13
764.9332597180553
 23
364.3124813990811
 33
0.0
  0
MTEXT
  5
4841
330
4652
100
AcDbEntity
  8
AM_5
100
AcDbMText
 10
763.2647289420313
 20
375.5276675256315
 30
0.0
 40
3.5
 41
0.0
 71
     5
 72
     1
  1
22
 11
0.3826834323651839
 21
-0.923879532511248
 31
0.0
 73
     1
 44
1.0
1001
ACAD
1000
MTEXTBEGIN
1070
    73
1070
     1
1070
    44
1040
1.0
1070
    74
1070
     0
1000
MTEXTEND
  0
POINT
  5
4842
330
4652
100
AcDbEntity
  8
Defpoints
 62
     0
370
     0
100
AcDbPoint
 10
799.051710169148
 20
402.2574347095156
 30
0.0
  0
POINT
  5
4843
330
4652
100
AcDbEntity
  8
Defpoints
 62
     0
370
     0
100
AcDbPoint
 10
807.4707456811793
 20
381.9320849942674
 30
0.0
  0
POINT
  5
4844
330
4652
100
AcDbEntity
  8
Defpoints
 62
     0
370
     0
100
AcDbPoint
 10
764.9332597180553
 20
364.3124813990811
 30
0.0
  0
ENDBLK
  5
465D
330
4652
100
AcDbEntity
  8
0
370
     0
100
AcDbBlockEnd
  0
BLOCK
  5
468A
330
467E
100
AcDbEntity
  8
0
370
     0
100
AcDbBlockBegin
  2
*D81
 70
     1
 10
0.0
 20
0.0
 30
0.0
  3
*D81
  1

  0
LINE
  5
4845
330
467E
100
AcDbEntity
  8
AM_5
100
AcDbLine
 10
815.2693287591743
 20
359.1849510654487
 30
0.0
 11
824.817170698722
 21
336.1344215635956
 31
0.0
  0
LINE
  5
4846
330
467E
100
AcDbEntity
  8
AM_5
100
AcDbLine
 10
818.0409673567082
 20
360.3330013625439
 30
0.0
 11
827.5888092962558
 21
337.2824718606907
 31
0.0
  0
LINE
  5
4847
330
467E
100
AcDbEntity
  8
AM_5
100
AcDbLine
 10
821.6628486688231
 20
335.9102507990117
 30
0.0
 11
818.8912100712892
 21
334.7622005019165
 31
0.0
  0
LINE
  5
4848
330
467E
100
AcDbEntity
  8
AM_5
100
AcDbLine
 10
829.9777644614248
 20
339.3544016902972
 30
0.0
 11
851.5289664168488
 21
348.2812018256745
 31
0.0
  0
LINE
  5
4849
330
467E
100
AcDbEntity
  8
AM_5
100
AcDbLine
 10
824.4344872663569
 20
337.0583010961068
 30
0.0
 11
827.2061258638908
 21
338.206351393202
 31
0.0
  0
SOLID
  5
484A
330
467E
100
AcDbEntity
  8
AM_5
370
     0
100
AcDbTrace
 10
821.4715069526405
 20
336.3721905652674
 30
0.0
 11
821.8541903850056
 21
335.448311032756
 31
0.0
 12
824.4344872663569
 22
337.0583010961068
 32
0.0
 13
824.4344872663569
 23
337.0583010961068
 33
0.0
  0
SOLID
  5
484B
330
467E
100
AcDbEntity
  8
AM_5
370
     0
100
AcDbTrace
 10
829.7864227452423
 20
339.8163414565529
 30
0.0
 11
830.1691061776073
 21
338.8924619240416
 31
0.0
 12
827.2061258638908
 22
338.206351393202
 32
0.0
 13
827.2061258638908
 23
338.206351393202
 33
0.0
  0
MTEXT
  5
484C
330
467E
100
AcDbEntity
  8
AM_5
100
AcDbMText
 10
840.91938129724
 20
347.3366929164132
 30
0.0
 40
3.5
 41
0.0
 71
     5
 72
     1
  1
3*3depth
 11
0.9238795325113006
 21
0.3826834323650561
 31
0.0
 73
     1
 44
1.0
1001
ACAD
1000
MTEXTBEGIN
1070
    73
1070
     1
1070
    44
1040
1.0
1070
    74
1070
     0
1000
MTEXTEND
  0
POINT
  5
484D
330
467E
100
AcDbEntity
  8
Defpoints
 62
     0
370
     0
100
AcDbPoint
 10
814.8866453268093
 20
360.1088305979601
 30
0.0
  0
POINT
  5
484E
330
467E
100
AcDbEntity
  8
Defpoints
 62
     0
370
     0
100
AcDbPoint
 10
817.6582839243431
 20
361.2568808950552
 30
0.0
  0
POINT
  5
484F
330
467E
100
AcDbEntity
  8
Defpoints
 62
     0
370
     0
100
AcDbPoint
 10
827.2061258638908
 20
338.206351393202
 30
0.0
  0
ENDBLK
  5
468B
330
467E
100
AcDbEntity
  8
0
370
     0
100
AcDbBlockEnd
  0
ENDSEC
  0
SECTION
  2
ENTITIES
  0
LWPOLYLINE
  5
1C11
330
A
100
AcDbEntity
  8
0
 62
     4
100
AcDbPolyline
 90
        4
 70
     1
 43
0.0
 10
464.6419655177434
 20
262.3588302750966
 10
921.3982655177433
 20
262.3588302750966
 10
921.3982655177433
 20
561.3314002139191
 10
464.6419655177434
 20
561.3314002139191
1001
GENIUS_GENREC_14
1002
{
1000
PYDIR
1011
464.6419655177434
1021
561.3314002139191
1031
0.0
1002
}
1002
{
1000
PXDIR
1011
921.3982655177433
1021
262.3588302750966
1031
0.0
1002
}
1002
{
1000
PORI
1011
464.6419655177434
1021
262.3588302750966
1031
0.0
1002
}
1002
{
1000
PINS
1011
464.6419655177434
1021
262.3588302750966
1031
0.0
1002
}
1002
{
1000
PINS2
1011
921.3982655177433
1021
561.3314002139191
1031
0.0
1002
}
1002
{
1000
C
1070
     1
1002
}
1001
GENIUS_GENODEF_13
1002
{
1000
HIER
1070
     0
1002
}
1002
{
1000
MANEDIT
1070
     0
1002
}
1002
{
1000
NOSEL
1070
     0
1002
}
1002
{
1000
BEHIND
1070
     0
1002
}
1002
{
1000
OTHER
1070
     0
1002
}
1002
{
1000
REACTOR
1002
}
1001
GENIUS_GENOBJ-N-REC_13
1002
{
1000
OWNER
1000
GEN
1002
}
  0
LWPOLYLINE
  5
1C12
330
A
100
AcDbEntity
  8
LOGO
 62
     4
100
AcDbPolyline
 90
        4
 70
     1
 43
0.0
 10
464.6419655177434
 20
262.3588302750966
 10
921.3982655177433
 20
262.3588302750966
 10
921.3982655177433
 20
231.6999102186255
 10
464.6419655177434
 20
231.6999102186255
1001
GENIUS_GENREC_14
1002
{
1000
PYDIR
1011
464.6419655177434
1021
231.6999102186255
1031
0.0
1002
}
1002
{
1000
PXDIR
1011
921.3982655177433
1021
262.3588302750966
1031
0.0
1002
}
1002
{
1000
PORI
1011
464.6419655177434
1021
262.3588302750966
1031
0.0
1002
}
1002
{
1000
PINS
1011
464.6419655177434
1021
262.3588302750966
1031
0.0
1002
}
1002
{
1000
PINS2
1011
921.3982655177433
1021
231.6999102186255
1031
0.0
1002
}
1002
{
1000
C
1070
     1
1002
}
1001
GENIUS_GENOBJ-N-REC_13
1002
{
1000
OWNER
1000
GEN
1002
}
1001
GENIUS_GENODEF_13
1002
{
1000
HIER
1070
     0
1002
}
1002
{
1000
MANEDIT
1070
     0
1002
}
1002
{
1000
NOSEL
1070
     0
1002
}
1002
{
1000
BEHIND
1070
     0
1002
}
1002
{
1000
OTHER
1070
     0
1002
}
1002
{
1000
REACTOR
1002
}
  0
LINE
  5
1C13
330
A
100
AcDbEntity
  8
LOGO
 62
     4
100
AcDbLine
 10
594.7008535053526
 20
245.4964242440381
 30
0.0
 11
594.7008535053526
 21
234.2548202233317
 31
0.0
  0
LINE
  5
1C14
330
A
100
AcDbEntity
  8
LOGO
 62
     4
100
AcDbLine
 10
574.2615734677054
 20
245.4964242440381
 30
0.0
 11
574.2615734677054
 21
234.2548202233317
 31
0.0
  0
LINE
  5
1C15
330
A
100
AcDbEntity
  8
LOGO
 62
     4
100
AcDbLine
 10
594.7008535053526
 20
234.2548202233317
 30
0.0
 11
574.2615734677054
 21
234.2548202233317
 31
0.0
  0
LINE
  5
1C16
330
A
100
AcDbEntity
  8
LOGO
 62
     4
100
AcDbLine
 10
604.2170583500182
 20
259.2929382694493
 30
0.0
 11
574.2615734677054
 21
259.2929382694493
 31
0.0
  0
LINE
  5
1C17
330
A
100
AcDbEntity
  8
LOGO
 62
     4
100
AcDbLine
 10
604.2170583500182
 20
250.0952622525083
 30
0.0
 11
574.2615734677054
 21
250.0952622525083
 31
0.0
  0
LINE
  5
1C18
330
A
100
AcDbEntity
  8
LOGO
 62
     4
100
AcDbLine
 10
574.2615734677054
 20
259.2929382694493
 30
0.0
 11
574.2615734677054
 21
250.0952622525083
 31
0.0
  0
LINE
  5
1C19
330
A
100
AcDbEntity
  8
LOGO
 62
     4
100
AcDbLine
 10
604.2170583500182
 20
259.2929382694493
 30
0.0
 11
604.2170583500182
 21
250.0952622525083
 31
0.0
  0
LINE
  5
1C1A
330
A
100
AcDbEntity
  8
LOGO
 62
     4
100
AcDbLine
 10
585.5476305331807
 20
250.0952622525083
 30
0.0
 11
585.5476305331807
 21
245.4964242440381
 31
0.0
  0
TEXT
  5
1C1B
330
A
100
AcDbEntity
  8
LOGO
  6
Continuous
100
AcDbText
 10
575.7937375528816
 20
252.7252401378273
 30
0.0
 40
4.664399999999999
  1
MCHG2L
  7
CHINESET
100
AcDbText
  0
LINE
  5
1C1C
330
A
100
AcDbEntity
  8
LOGO
 62
     4
100
AcDbLine
 10
594.7008535053526
 20
245.4964242440381
 30
0.0
 11
574.2615734677054
 21
245.4964242440381
 31
0.0
  0
TEXT
  5
1C1D
330
A
100
AcDbEntity
  8
LOGO
  6
Continuous
100
AcDbText
 10
580.8204737220104
 20
235.8415487924793
 30
200.933511288084
 40
2.299751999999999
  1
Model
 41
0.8
  7
CHINESET
100
AcDbText
  0
TEXT
  5
1C1E
330
A
100
AcDbEntity
  8
LOGO
100
AcDbText
 10
580.2083544999499
 20
240.104793368549
 30
200.933511288084
 40
3.83292
  1
型號
  7
CHINESET
100
AcDbText
  0
LINE
  5
1C1F
330
A
100
AcDbEntity
  8
LOGO
  6
Continuous
100
AcDbLine
 10
605.5202640613461
 20
254.6615206389505
 30
0.0
 11
609.5816221821419
 21
254.6615206389505
 31
0.0
  0
LINE
  5
1C20
330
A
100
AcDbEntity
  8
LOGO
 62
     4
100
AcDbLine
 10
617.8149746532071
 20
245.4964242440381
 30
0.0
 11
617.8149746532071
 21
234.2548202233317
 31
0.0
  0
LINE
  5
1C21
330
A
100
AcDbEntity
  8
LOGO
 62
     4
100
AcDbLine
 10
597.3756946155599
 20
245.4964242440381
 30
0.0
 11
597.3756946155599
 21
234.2548202233317
 31
0.0
  0
LINE
  5
1C22
330
A
100
AcDbEntity
  8
LOGO
 62
     4
100
AcDbLine
 10
617.8149746532071
 20
234.2548202233317
 30
0.0
 11
597.3756946155599
 21
234.2548202233317
 31
0.0
  0
LINE
  5
1C23
330
A
100
AcDbEntity
  8
LOGO
 62
     4
100
AcDbLine
 10
626.5792634455482
 20
259.2929382694493
 30
0.0
 11
610.8627665822902
 21
259.2929382694493
 31
0.0
  0
LINE
  5
1C24
330
A
100
AcDbEntity
  8
LOGO
 62
     4
100
AcDbLine
 10
626.5792634455482
 20
250.0952622525083
 30
0.0
 11
610.8627665822902
 21
250.0952622525083
 31
0.0
  0
LINE
  5
1C25
330
A
100
AcDbEntity
  8
LOGO
 62
     4
100
AcDbLine
 10
610.8627665822902
 20
259.2929382694493
 30
0.0
 11
610.8627665822902
 21
250.0952622525083
 31
0.0
  0
LINE
  5
1C26
330
A
100
AcDbEntity
  8
LOGO
 62
     4
100
AcDbLine
 10
626.5792634455482
 20
259.2929382694493
 30
0.0
 11
626.5792634455482
 21
250.0952622525083
 31
0.0
  0
LINE
  5
1C27
330
A
100
AcDbEntity
  8
LOGO
 62
     4
100
AcDbLine
 10
617.9295113148823
 20
250.0952622525083
 30
0.0
 11
617.9295113148823
 21
247.7958432482732
 31
0.0
  0
TEXT
  5
1C28
330
A
100
AcDbEntity
  8
LOGO
  6
Continuous
100
AcDbText
 10
614.7876489297966
 20
252.0152636740438
 30
0.0
 40
4.664399999999999
  1
32
  7
CHINESET
100
AcDbText
  0
LINE
  5
1C29
330
A
100
AcDbEntity
  8
LOGO
 62
     4
100
AcDbLine
 10
617.8149746532071
 20
245.4964242440381
 30
0.0
 11
597.3756946155599
 21
245.4964242440381
 31
0.0
  0
LINE
  5
1C2A
330
A
100
AcDbEntity
  8
LOGO
  6
Continuous
100
AcDbLine
 10
644.1863372563219
 20
254.6615206389505
 30
0.0
 11
648.2476953771183
 21
254.6615206389505
 31
0.0
  0
LINE
  5
1C2B
330
A
100
AcDbEntity
  8
LOGO
 62
     4
100
AcDbLine
 10
665.5332516170524
 20
245.4964242440381
 30
0.0
 11
665.5332516170524
 21
234.2548202233317
 31
0.0
  0
LINE
  5
1C2C
330
A
100
AcDbEntity
  8
LOGO
 62
     4
100
AcDbLine
 10
642.0040395516716
 20
245.4964242440381
 30
0.0
 11
642.0040395516716
 21
234.2548202233317
 31
0.0
  0
LINE
  5
1C2D
330
A
100
AcDbEntity
  8
LOGO
 62
     4
100
AcDbLine
 10
665.5332516170524
 20
234.2548202233317
 30
0.0
 11
642.0040395516716
 21
234.2548202233317
 31
0.0
  0
LINE
  5
1C2E
330
A
100
AcDbEntity
  8
LOGO
 62
     4
100
AcDbLine
 10
659.3149116416502
 20
259.2929382694493
 30
0.0
 11
649.5288397772658
 21
259.2929382694493
 31
0.0
  0
LINE
  5
1C2F
330
A
100
AcDbEntity
  8
LOGO
 62
     4
100
AcDbLine
 10
659.3149116416502
 20
250.0952622525083
 30
0.0
 11
649.5288397772658
 21
250.0952622525083
 31
0.0
  0
LINE
  5
1C30
330
A
100
AcDbEntity
  8
LOGO
 62
     4
100
AcDbLine
 10
649.5288397772658
 20
259.2929382694493
 30
0.0
 11
649.5288397772658
 21
250.0952622525083
 31
0.0
  0
LINE
  5
1C31
330
A
100
AcDbEntity
  8
LOGO
 62
     4
100
AcDbLine
 10
659.3149116416502
 20
259.2929382694493
 30
0.0
 11
659.3149116416502
 21
250.0952622525083
 31
0.0
  0
LINE
  5
1C32
330
A
100
AcDbEntity
  8
LOGO
 62
     4
100
AcDbLine
 10
654.4218757094579
 20
250.0952622525083
 30
0.0
 11
654.4218757094579
 21
245.4964242440381
 31
0.0
  0
LINE
  5
1C33
330
A
100
AcDbEntity
  8
LOGO
 62
     4
100
AcDbLine
 10
665.5332516170524
 20
245.4964242440381
 30
0.0
 11
642.0040395516716
 21
245.4964242440381
 31
0.0
  0
TEXT
  5
1C34
330
A
100
AcDbEntity
  8
LOGO
  6
Continuous
100
AcDbText
 10
601.6568884078558
 20
235.8415487924793
 30
200.933511288084
 40
2.299751999999999
  1
Tube I.D.
 41
0.8
  7
CHINESET
100
AcDbText
  0
TEXT
  5
1C35
330
A
100
AcDbEntity
  8
LOGO
100
AcDbText
 10
602.5841731917465
 20
240.104793368549
 30
200.933511288084
 40
3.83292
  1
內徑
  7
CHINESET
100
AcDbText
  0
TEXT
  5
1C36
330
A
100
AcDbEntity
  8
LOGO
  6
Continuous
100
AcDbText
 10
644.1414025458921
 20
235.8415487924793
 30
200.933511288084
 40
2.299751999999999
  1
Sensor switch
 41
0.8
  7
CHINESET
100
AcDbText
  0
TEXT
  5
1C37
330
A
100
AcDbEntity
  8
LOGO
100
AcDbText
 10
643.9819453021312
 20
240.104793368549
 30
200.933511288084
 40
3.83292
  1
感應器型式
  7
CHINESET
100
AcDbText
  0
LINE
  5
1C38
330
A
100
AcDbEntity
  8
LOGO
 62
     4
100
AcDbLine
 10
642.4185372554037
 20
259.2929382694493
 30
0.0
 11
627.8774932650517
 21
259.2929382694493
 31
0.0
  0
LINE
  5
1C39
330
A
100
AcDbEntity
  8
LOGO
 62
     4
100
AcDbLine
 10
642.4185372554037
 20
250.0952622525083
 30
0.0
 11
627.8774932650517
 21
250.0952622525083
 31
0.0
  0
LINE
  5
1C3A
330
A
100
AcDbEntity
  8
LOGO
 62
     4
100
AcDbLine
 10
627.8774932650517
 20
259.2929382694493
 30
0.0
 11
627.8774932650517
 21
250.0952622525083
 31
0.0
  0
LINE
  5
1C3B
330
A
100
AcDbEntity
  8
LOGO
 62
     4
100
AcDbLine
 10
642.4185372554037
 20
259.2929382694493
 30
0.0
 11
642.4185372554037
 21
250.0952622525083
 31
0.0
  0
TEXT
  5
1C3C
330
A
100
AcDbEntity
  8
LOGO
  6
Continuous
100
AcDbText
 10
629.7457078000398
 20
252.4641914820598
 30
0.0
 40
4.664399999999999
  1
(M)
  7
CHINESET
100
AcDbText
  0
LINE
  5
1C3D
330
A
100
AcDbEntity
  8
LOGO
 62
     4
100
AcDbLine
 10
638.6443400557888
 20
245.4964242440381
 30
0.0
 11
638.6443400557888
 21
234.2548202233317
 31
0.0
  0
LINE
  5
1C3E
330
A
100
AcDbEntity
  8
LOGO
 62
     4
100
AcDbLine
 10
621.9932880122757
 20
245.4964242440381
 30
0.0
 11
621.9932880122757
 21
234.2548202233317
 31
0.0
  0
LINE
  5
1C3F
330
A
100
AcDbEntity
  8
LOGO
 62
     4
100
AcDbLine
 10
638.6443400557888
 20
234.2548202233317
 30
0.0
 11
621.9932880122757
 21
234.2548202233317
 31
0.0
  0
LINE
  5
1C40
330
A
100
AcDbEntity
  8
LOGO
 62
     4
100
AcDbLine
 10
638.6443400557888
 20
245.4964242440381
 30
0.0
 11
621.9932880122757
 21
245.4964242440381
 31
0.0
  0
TEXT
  5
1C41
330
A
100
AcDbEntity
  8
LOGO
  6
Continuous
100
AcDbText
 10
625.612798198558
 20
235.8415487924793
 30
200.933511288084
 40
2.299751999999999
  1
Magnet
 41
0.8
  7
CHINESET
100
AcDbText
  0
TEXT
  5
1C42
330
A
100
AcDbEntity
  8
LOGO
100
AcDbText
 10
624.386375699843
 20
240.104793368549
 30
200.933511288084
 40
3.83292
  1
附磁石
  7
CHINESET
100
AcDbText
  0
LINE
  5
1C43
330
A
100
AcDbEntity
  8
LOGO
 62
     4
100
AcDbLine
 10
635.1480152602284
 20
250.0952622525083
 30
0.0
 11
635.1480152602284
 21
247.7958432482732
 31
0.0
  0
LINE
  5
1C44
330
A
100
AcDbEntity
  8
LOGO
 62
     4
100
AcDbLine
 10
617.9295113148823
 20
247.7958432482732
 30
0.0
 11
607.5953346343838
 21
247.7958432482732
 31
0.0
  0
LINE
  5
1C45
330
A
100
AcDbEntity
  8
LOGO
 62
     4
100
AcDbLine
 10
607.5953346343838
 20
245.4964242440381
 30
0.0
 11
607.5953346343838
 21
247.7958432482732
 31
0.0
  0
LINE
  5
1C46
330
A
100
AcDbEntity
  8
LOGO
 62
     4
100
AcDbLine
 10
635.1480152602284
 20
247.7958432482732
 30
0.0
 11
630.3188140340325
 21
247.7958432482732
 31
0.0
  0
LINE
  5
1C47
330
A
100
AcDbEntity
  8
LOGO
 62
     4
100
AcDbLine
 10
630.3188140340321
 20
245.4964242440381
 30
0.0
 11
630.3188140340325
 21
247.7958432482732
 31
0.0
  0
TEXT
  5
1C48
330
A
100
AcDbEntity
  8
LOGO
 62
     7
100
AcDbText
 10
533.8677769424609
 20
248.9276791044613
 30
0.0
 40
4.087856007529411
  1
Order example:
 41
0.8
  7
CHINESET
100
AcDbText
  0
TEXT
  5
1C49
330
A
100
AcDbEntity
  8
LOGO
 62
     7
100
AcDbText
 10
534.6011721154057
 20
254.6825339616764
 30
0.0
 40
6.131784011294116
  1
訂購代號:
  7
CHINESET
100
AcDbText
  0
LINE
  5
1C4A
330
A
100
AcDbEntity
  8
LOGO
 62
     4
100
AcDbLine
 10
532.091589641979
 20
231.6999102186258
 30
0.0
 11
532.091589641979
 21
262.3588302750966
 31
0.0
  0
TEXT
  5
1C4B
330
A
100
AcDbEntity
  8
LOGO
  6
Continuous
100
AcDbText
 10
475.6547874165399
 20
237.722808795375
 30
0.0
 40
4.598838008470588
  1
金器工業股份有限公司
  7
CHINESET
100
AcDbText
  0
TEXT
  5
1C4C
330
A
100
AcDbEntity
  8
LOGO
  6
Continuous
100
AcDbText
 10
467.207631830211
 20
233.1230697752176
 30
0.0
 40
3.065892005647058
  1
MINDMAN INDUSTRIAL CO., LTD.
 41
0.85
  7
CHINESET
100
AcDbText
  0
LINE
  5
1C4D
330
A
100
AcDbEntity
  8
LOGO
100
AcDbLine
 10
532.091589641979
 20
256.2270462638025
 30
0.0
 11
487.1251735591551
 21
256.2270462638025
 31
0.0
  0
LINE
  5
1C4E
330
A
100
AcDbEntity
  8
LOGO
100
AcDbLine
 10
532.091589641979
 20
250.0952622525084
 30
0.0
 11
487.1251735591551
 21
250.0952622525084
 31
0.0
  0
LINE
  5
1C4F
330
A
100
AcDbEntity
  8
LOGO
 62
     4
100
AcDbLine
 10
532.091589641979
 20
243.9634782412145
 30
0.0
 11
464.6419655177435
 21
243.9634782412145
 31
0.0
  0
LINE
  5
1C50
330
A
100
AcDbEntity
  8
LOGO
 62
     4
100
AcDbLine
 10
487.1251735591551
 20
243.9634782412145
 30
0.0
 11
487.1251735591551
 21
262.3588302750966
 31
0.0
  0
TEXT
  5
1C51
330
A
100
AcDbEntity
  8
LOGO
100
AcDbText
 10
517.8575965692537
 20
245.4964242440376
 30
0.0
 40
3.065892005647058
  1
mm
  7
CHINESET
 72
     1
 11
521.6534628619597
 21
247.0293702468612
 31
0.0
100
AcDbText
 73
     2
  0
TEXT
  5
1C52
330
A
100
AcDbEntity
  8
LOGO
100
AcDbText
 10
516.2516531377244
 20
257.759992266626
 30
0.0
 40
3.065892005647058
  1
1 : 1
  7
CHINESET
 72
     1
 11
521.6534628619597
 21
259.2929382694495
 31
0.0
100
AcDbText
 73
     2
  0
LINE
  5
1C53
330
A
100
AcDbEntity
  8
LOGO
 62
     4
100
AcDbLine
 10
511.6523096043317
 20
243.9634782412145
 30
0.0
 11
511.6523096043317
 21
262.3588302750966
 31
0.0
  0
CIRCLE
  5
1C54
330
A
100
AcDbEntity
  8
LOGO
  6
Continuous
100
AcDbCircle
 10
517.3291921284973
 20
253.1677122235912
 30
0.0
 40
1.780129061441821
  0
CIRCLE
  5
1C55
330
A
100
AcDbEntity
  8
LOGO
  6
Continuous
100
AcDbCircle
 10
517.3291921284973
 20
253.1677122235912
 30
0.0
 40
1.042998044095096
  0
LINE
  5
1C56
330
A
100
AcDbEntity
  8
LOGO
100
AcDbLine
 10
528.5157297080388
 20
251.3875831621492
 30
0.0
 11
528.5157297080388
 21
254.9478412850334
 31
0.0
  0
LINE
  5
1C57
330
A
100
AcDbEntity
  8
LOGO
100
AcDbLine
 10
522.9351272847029
 20
252.1247141794962
 30
0.0
 11
522.9351272847029
 21
254.2107102676865
 31
0.0
  0
LINE
  5
1C58
330
A
100
AcDbEntity
  8
LOGO
  6
Continuous
100
AcDbLine
 10
522.9351272847029
 20
254.2107102676865
 30
0.0
 11
528.5157297080388
 21
254.9478412850334
 31
0.0
  0
LINE
  5
1C59
330
A
100
AcDbEntity
  8
LOGO
  6
Continuous
100
AcDbLine
 10
522.9351272847029
 20
252.1247141794962
 30
0.0
 11
528.5157297080388
 21
251.3875831621492
 31
0.0
  0
TEXT
  5
1C5A
330
A
100
AcDbEntity
  8
LOGO
100
AcDbText
 10
489.6531657620257
 20
257.7615010717468
 30
200.933511288084
 40
3.065892005647058
  1
比例 Scale:
 41
0.9
  7
CHINESET
 72
     4
 11
499.3887415817434
 21
259.2929382694495
 31
200.933511288084
100
AcDbText
  0
TEXT
  5
1C5B
330
A
100
AcDbEntity
  8
LOGO
100
AcDbText
 10
489.4766032313434
 20
251.6713349350371
 30
200.933511288084
 40
3.065892005647058
  1
投影  View:
 41
0.9
  7
CHINESET
 72
     4
 11
499.3887415817434
 21
253.1611542581552
 31
200.933511288084
100
AcDbText
  0
TEXT
  5
1C5C
330
A
100
AcDbEntity
  8
LOGO
100
AcDbText
 10
489.7763489229669
 20
245.4964242440376
 30
200.933511288084
 40
3.065892005647058
  1
單位  Unit:
 41
0.9
  7
CHINESET
 72
     4
 11
499.3887415817434
 21
247.0293702468612
 31
200.933511288084
100
AcDbText
  0
SOLID
  5
1C5D
330
A
100
AcDbEntity
  8
LOGO
 62
     5
100
AcDbTrace
 10
467.8228776774262
 20
249.0600873052397
 30
0.0
 11
469.1484889316616
 21
249.0600873052394
 31
0.0
 12
474.6794876131271
 22
261.6305388540255
 32
0.0
 13
476.0050988673634
 23
261.6305388540247
 33
0.0
  0
SOLID
  5
1C5E
330
A
100
AcDbEntity
  8
LOGO
 62
     5
100
AcDbTrace
 10
469.6970177265194
 20
249.0600873052397
 30
0.0
 11
471.022628980755
 21
249.0600873052397
 31
0.0
 12
476.0050988673634
 22
260.6249027301221
 32
0.0
 13
474.6794876131271
 23
255.7643281312583
 33
0.0
  0
SOLID
  5
1C5F
330
A
100
AcDbEntity
  8
LOGO
 62
     2
100
AcDbTrace
 10
469.1484889316616
 20
249.0600873052394
 30
0.0
 11
469.6970177265194
 21
249.0600873052397
 31
0.0
 12
476.0050988673634
 22
261.6305388540247
 32
0.0
 13
476.5536276622204
 23
261.6305388540247
 33
0.0
  0
SOLID
  5
1C60
330
A
100
AcDbEntity
  8
LOGO
 62
     5
100
AcDbTrace
 10
465.6975977571873
 20
244.4890140147727
 30
0.0
 11
466.1547050862343
 21
244.4890140147727
 31
0.0
 12
467.4419549032211
 22
246.774550660006
 32
0.0
 13
467.8990622322669
 23
246.774550660006
 33
0.0
  0
SOLID
  5
1C61
330
A
100
AcDbEntity
  8
LOGO
 62
     5
100
AcDbTrace
 10
467.4419549032211
 20
246.774550660006
 30
0.0
 11
467.8990622322669
 21
246.774550660006
 31
0.0
 12
467.4419549032211
 22
244.4890140147727
 32
0.0
 13
467.8990622322669
 23
244.4890140147727
 33
0.0
  0
SOLID
  5
1C62
330
A
100
AcDbEntity
  8
LOGO
 62
     5
100
AcDbTrace
 10
467.4419549032211
 20
244.4890140147727
 30
0.0
 11
467.8990622322669
 21
244.4890140147727
 31
0.0
 12
469.1863120492556
 22
246.774550660006
 32
0.0
 13
469.6434193783022
 23
246.774550660006
 33
0.0
  0
SOLID
  5
1C63
330
A
100
AcDbEntity
  8
LOGO
 62
     5
100
AcDbTrace
 10
469.1863120492556
 20
246.774550660006
 30
0.0
 11
469.6434193783022
 21
246.774550660006
 31
0.0
 12
469.1863120492556
 22
244.4890140147727
 32
0.0
 13
469.6434193783022
 23
244.4890140147727
 33
0.0
  0
POLYLINE
  5
1C64
330
A
100
AcDbEntity
  8
LOGO
 62
     5
100
AcDb2dPolyline
 66
     1
 10
0.0
 20
0.0
 30
0.0
 40
0.4578398728432941
 41
0.4578398728432941
  0
VERTEX
  5
1C65
330
1C64
100
AcDbEntity
  8
LOGO
 62
     5
100
AcDbVertex
100
AcDb2dVertex
 10
484.5083940033285
 20
245.8603360019125
 30
0.0
 42
1.0
  0
VERTEX
  5
1C66
330
1C64
100
AcDbEntity
  8
LOGO
 62
     5
100
AcDbVertex
100
AcDb2dVertex
 10
483.1348743847981
 20
245.8603360019125
 30
0.0
 42
1.0
  0
SEQEND
  5
1C67
330
1C64
100
AcDbEntity
  8
LOGO
 62
     5
  0
POLYLINE
  5
1C68
330
A
100
AcDbEntity
  8
LOGO
 62
     5
100
AcDb2dPolyline
 66
     1
 10
0.0
 20
0.0
 30
0.0
 70
     1
  0
VERTEX
  5
1C69
330
1C68
100
AcDbEntity
  8
LOGO
 62
     5
100
AcDbVertex
100
AcDb2dVertex
 10
480.5457288097157
 20
245.6317823373889
 30
0.0
 42
1.000000057330635
  0
VERTEX
  5
1C6A
330
1C68
100
AcDbEntity
  8
LOGO
 62
     5
100
AcDbVertex
100
AcDb2dVertex
 10
481.9170507968562
 20
245.6317823373889
 30
0.0
 42
1.000000057330635
  0
SEQEND
  5
1C6B
330
1C68
100
AcDbEntity
  8
LOGO
 62
     5
  0
CIRCLE
  5
1C6C
330
A
100
AcDbEntity
  8
LOGO
 62
     5
100
AcDbCircle
 10
481.2313898032873
 20
245.6317823373889
 30
0.0
 40
0.6856609935701173
  0
POLYLINE
  5
1C6D
330
A
100
AcDbEntity
  8
LOGO
 62
     5
100
AcDb2dPolyline
 66
     1
 10
0.0
 20
0.0
 30
0.0
 70
     1
 40
0.4578398728432941
 41
0.4578398728432941
  0
VERTEX
  5
1C6E
330
1C6D
100
AcDbEntity
  8
LOGO
 62
     5
100
AcDbVertex
100
AcDb2dVertex
 10
480.3157100575999
 20
245.6317823373889
 30
0.0
 42
1.0
  0
VERTEX
  5
1C6F
330
1C6D
100
AcDbEntity
  8
LOGO
 62
     5
100
AcDbVertex
100
AcDb2dVertex
 10
482.1470695489728
 20
245.6317823373889
 30
0.0
 42
1.0
  0
SEQEND
  5
1C70
330
1C6D
100
AcDbEntity
  8
LOGO
 62
     5
  0
LINE
  5
1C71
330
A
100
AcDbEntity
  8
LOGO
100
AcDbLine
 10
484.7358488521559
 20
244.4890140147727
 30
0.0
 11
484.7358488521559
 21
245.8603360019125
 31
0.0
  0
SOLID
  5
1C72
330
A
100
AcDbEntity
  8
LOGO
 62
     5
100
AcDbTrace
 10
481.9170050861253
 20
246.774550660006
 30
0.0
 11
482.3741124151711
 21
246.774550660006
 31
0.0
 12
481.9170050861253
 22
244.4890140147727
 32
0.0
 13
482.3741124151711
 23
244.4890140147727
 33
0.0
  0
SOLID
  5
1C73
330
A
100
AcDbEntity
  8
LOGO
 62
     5
100
AcDbTrace
 10
482.9074195359691
 20
244.4890140147727
 30
0.0
 11
483.3645268650164
 21
244.4890140147727
 31
0.0
 12
482.9074195359691
 22
246.774550660006
 32
0.0
 13
483.3645268650164
 23
246.774550660006
 33
0.0
  0
SOLID
  5
1C74
330
A
100
AcDbEntity
  8
LOGO
 62
     5
100
AcDbTrace
 10
484.2787415231101
 20
245.8603360019125
 30
0.0
 11
484.7358488521559
 21
245.8603360019125
 31
0.0
 12
484.2787415231101
 22
244.4890140147727
 32
0.0
 13
484.7358488521559
 23
244.4890140147727
 33
0.0
  0
SOLID
  5
1C75
330
A
100
AcDbEntity
  8
LOGO
 62
     5
100
AcDbTrace
 10
482.8617088030646
 20
260.6249027301221
 30
0.0
 11
481.5360975488292
 21
255.7643281312583
 31
0.0
 12
482.8617088030646
 22
249.0600873052394
 32
0.0
 13
481.5360975488292
 23
249.0600873052394
 33
0.0
  0
SOLID
  5
1C76
330
A
100
AcDbEntity
  8
LOGO
 62
     5
100
AcDbTrace
 10
483.410237597921
 20
249.0600873052394
 30
0.0
 11
484.7358488521559
 21
249.0600873052394
 31
0.0
 12
483.410237597921
 22
261.6305388540247
 32
0.0
 13
484.7358488521559
 23
261.6305388540255
 33
0.0
  0
SOLID
  5
1C77
330
A
100
AcDbEntity
  8
LOGO
 62
     2
100
AcDbTrace
 10
482.8617088030646
 20
261.6305388540255
 30
0.0
 11
483.410237597921
 21
261.6305388540247
 31
0.0
 12
482.8617088030646
 22
249.0600873052394
 32
0.0
 13
483.410237597921
 23
249.0600873052394
 33
0.0
  0
POLYLINE
  5
1C78
330
A
100
AcDbEntity
  8
LOGO
 62
     5
100
AcDb2dPolyline
 66
     1
 10
0.0
 20
0.0
 30
0.0
 40
0.4578398728432941
 41
0.4578398728432941
  0
VERTEX
  5
1C79
330
1C78
100
AcDbEntity
  8
LOGO
 62
     5
100
AcDbVertex
100
AcDb2dVertex
 10
477.9564918131699
 20
245.8603360019125
 30
0.0
 42
1.0
  0
VERTEX
  5
1C7A
330
1C78
100
AcDbEntity
  8
LOGO
 62
     5
100
AcDbVertex
100
AcDb2dVertex
 10
476.5829721946397
 20
245.8603360019125
 30
0.0
 42
1.0
  0
SEQEND
  5
1C7B
330
1C78
100
AcDbEntity
  8
LOGO
 62
     5
  0
POLYLINE
  5
1C7C
330
A
100
AcDbEntity
  8
LOGO
 62
     5
100
AcDb2dPolyline
 66
     1
 10
0.0
 20
0.0
 30
0.0
 40
0.4578398728432941
 41
0.4578398728432941
  0
VERTEX
  5
1C7D
330
1C7C
100
AcDbEntity
  8
LOGO
 62
     5
100
AcDbVertex
100
AcDb2dVertex
 10
479.3278138003087
 20
245.8603360019125
 30
0.0
 42
1.0
  0
VERTEX
  5
1C7E
330
1C7C
100
AcDbEntity
  8
LOGO
 62
     5
100
AcDbVertex
100
AcDb2dVertex
 10
477.9542941817792
 20
245.8603360019125
 30
0.0
 42
1.0
  0
SEQEND
  5
1C7F
330
1C7C
100
AcDbEntity
  8
LOGO
 62
     5
  0
POLYLINE
  5
1C80
330
A
100
AcDbEntity
  8
LOGO
 62
     5
100
AcDb2dPolyline
 66
     1
 10
0.0
 20
0.0
 30
0.0
 40
0.4578398728432941
 41
0.4578398728432941
  0
VERTEX
  5
1C81
330
1C80
100
AcDbEntity
  8
LOGO
 62
     5
100
AcDbVertex
100
AcDb2dVertex
 10
472.7759116101502
 20
245.8603360019125
 30
0.0
 42
1.0
  0
VERTEX
  5
1C82
330
1C80
100
AcDbEntity
  8
LOGO
 62
     5
100
AcDbVertex
100
AcDb2dVertex
 10
471.4023919916209
 20
245.8603360019125
 30
0.0
 42
1.0
  0
SEQEND
  5
1C83
330
1C80
100
AcDbEntity
  8
LOGO
 62
     5
  0
SOLID
  5
1C84
330
A
100
AcDbEntity
  8
LOGO
 62
     5
100
AcDbTrace
 10
471.1749371427922
 20
246.774550660006
 30
0.0
 11
471.6320444718383
 21
246.774550660006
 31
0.0
 12
471.1749371427922
 22
244.4890140147727
 32
0.0
 13
471.6320444718383
 23
244.4890140147727
 33
0.0
  0
SOLID
  5
1C85
330
A
100
AcDbEntity
  8
LOGO
 62
     5
100
AcDbTrace
 10
472.5462591299327
 20
245.8603360019125
 30
0.0
 11
473.00336645898
 21
245.8603360019125
 31
0.0
 12
472.5462591299327
 22
244.4890140147727
 32
0.0
 13
473.00336645898
 23
244.4890140147727
 33
0.0
  0
POLYLINE
  5
1C86
330
A
100
AcDbEntity
  8
LOGO
 62
     5
100
AcDb2dPolyline
 66
     1
 10
0.0
 20
0.0
 30
0.0
 70
     1
 40
0.4578398728432941
 41
0.4578398728432941
  0
VERTEX
  5
1C87
330
1C86
100
AcDbEntity
  8
LOGO
 62
     5
100
AcDbVertex
100
AcDb2dVertex
 10
473.7638078674407
 20
245.6317823373889
 30
0.0
 42
1.0
  0
VERTEX
  5
1C88
330
1C86
100
AcDbEntity
  8
LOGO
 62
     5
100
AcDbVertex
100
AcDb2dVertex
 10
475.5951673588143
 20
245.6317823373889
 30
0.0
 42
1.0
  0
SEQEND
  5
1C89
330
1C86
100
AcDbEntity
  8
LOGO
 62
     5
  0
SOLID
  5
1C8A
330
A
100
AcDbEntity
  8
LOGO
 62
     5
100
AcDbTrace
 10
475.3651028959655
 20
247.4602116535765
 30
0.0
 11
475.8222102250119
 21
247.4602116535765
 31
0.0
 12
475.3651028959655
 22
244.4890140147727
 32
0.0
 13
475.8222102250119
 23
244.4890140147727
 33
0.0
  0
SOLID
  5
1C8B
330
A
100
AcDbEntity
  8
LOGO
 62
     5
100
AcDbTrace
 10
476.355517345812
 20
246.774550660006
 30
0.0
 11
476.8126246748578
 21
246.774550660006
 31
0.0
 12
476.355517345812
 22
244.4890140147727
 32
0.0
 13
476.8126246748578
 23
244.4890140147727
 33
0.0
  0
SOLID
  5
1C8C
330
A
100
AcDbEntity
  8
LOGO
 62
     5
100
AcDbTrace
 10
477.7268393329508
 20
245.8603360019125
 30
0.0
 11
478.1839466619983
 21
245.8603360019125
 31
0.0
 12
477.7268393329508
 22
244.4890140147727
 32
0.0
 13
478.1839466619983
 23
244.4890140147727
 33
0.0
  0
SOLID
  5
1C8D
330
A
100
AcDbEntity
  8
LOGO
 62
     5
100
AcDbTrace
 10
479.0981613200912
 20
245.8603360019125
 30
0.0
 11
479.5552686491378
 21
245.8603360019125
 31
0.0
 12
479.0981613200912
 22
244.4890140147719
 32
0.0
 13
479.5552686491378
 23
244.4890140147719
 33
0.0
  0
SOLID
  5
1C8E
330
A
100
AcDbEntity
  8
LOGO
 62
     5
100
AcDbTrace
 10
470.1845226929465
 20
247.0945257903387
 30
0.0
 11
470.6416300219945
 21
247.0945257903387
 31
0.0
 12
470.1845226929465
 22
247.4602116535765
 32
0.0
 13
470.6416300219945
 23
247.4602116535765
 33
0.0
  0
SOLID
  5
1C8F
330
A
100
AcDbEntity
  8
LOGO
 62
     5
100
AcDbTrace
 10
470.1845226929465
 20
246.774550660006
 30
0.0
 11
470.6416300219945
 21
246.774550660006
 31
0.0
 12
470.1845226929465
 22
244.4890140147719
 32
0.0
 13
470.6416300219945
 23
244.4890140147727
 33
0.0
  0
SOLID
  5
1C90
330
A
100
AcDbEntity
  8
LOGO
 62
     5
100
AcDbTrace
 10
474.6794876131271
 20
249.0600873052397
 30
0.0
 11
476.0050988673634
 21
249.0600873052397
 31
0.0
 12
474.6794876131271
 22
255.7643281312583
 32
0.0
 13
476.0050988673634
 23
260.6249027301221
 33
0.0
  0
SOLID
  5
1C91
330
A
100
AcDbEntity
  8
LOGO
 62
     5
100
AcDbTrace
 10
476.5536276622204
 20
261.6305388540247
 30
0.0
 11
477.879238916455
 21
261.6305388540255
 31
0.0
 12
476.5536276622204
 22
250.0657234291423
 32
0.0
 13
477.879238916455
 23
254.9262980280061
 33
0.0
  0
SOLID
  5
1C92
330
A
100
AcDbEntity
  8
LOGO
 62
     2
100
AcDbTrace
 10
476.0050988673634
 20
261.6305388540247
 30
0.0
 11
476.5536276622204
 21
261.6305388540247
 31
0.0
 12
476.0050988673634
 22
249.0600873052397
 32
0.0
 13
476.5536276622204
 23
249.0600873052397
 33
0.0
  0
SOLID
  5
1C93
330
A
100
AcDbEntity
  8
LOGO
 62
     5
100
AcDbTrace
 10
476.5536276622204
 20
250.0657234291423
 30
0.0
 11
477.879238916455
 21
254.9262980280061
 31
0.0
 12
482.8617088030646
 22
261.6305388540255
 32
0.0
 13
481.5360975488292
 23
261.6305388540255
 33
0.0
  0
SOLID
  5
1C94
330
A
100
AcDbEntity
  8
LOGO
 62
     5
100
AcDbTrace
 10
476.5536276622204
 20
249.0600873052397
 30
0.0
 11
477.879238916455
 21
249.0600873052397
 31
0.0
 12
482.8617088030646
 22
260.6249027301221
 32
0.0
 13
481.5360975488292
 23
255.7643281312583
 33
0.0
  0
SOLID
  5
1C95
330
A
100
AcDbEntity
  8
LOGO
 62
     2
100
AcDbTrace
 10
476.0050988673634
 20
249.0600873052397
 30
0.0
 11
476.5536276622204
 21
249.0600873052397
 31
0.0
 12
482.8617088030646
 22
261.6305388540255
 32
0.0
 13
483.410237597921
 23
261.6305388540247
 33
0.0
  0
TEXT
  5
1C96
330
A
100
AcDbEntity
  8
LOGO
100
AcDbText
 10
533.3077019613255
 20
233.3309526647486
 30
0.0
 40
3.066336
  1
01005060
 41
0.7
  7
CHINESET
 72
     1
 11
540.9735419613254
 21
233.3309526647486
 31
0.0
100
AcDbText
  0
LINE
  5
1C97
330
A
100
AcDbEntity
  8
LOGO
 62
     4
100
AcDbLine
 10
550.4896056419773
 20
237.8316942299207
 30
0.0
 11
550.4896056419788
 21
231.6999102186261
 31
0.0
  0
LINE
  5
1C98
330
A
100
AcDbEntity
  8
LOGO
 62
     4
100
AcDbLine
 10
550.4896056419773
 20
237.8316942299207
 30
0.0
 11
532.091589641979
 21
237.8316942299207
 31
0.0
  0
LINE
  5
1C99
330
A
100
AcDbEntity
  8
LOGO
  6
AM_ISO08W050x2
 48
0.2
100
AcDbLine
 10
514.875257561966
 20
253.1677122235912
 30
0.0
 11
519.7831266950286
 21
253.1677122235912
 31
0.0
1001
GENIUS_GENOREF_13
1005
1C9E
  0
LINE
  5
1C9A
330
A
100
AcDbEntity
  8
LOGO
  6
AM_ISO08W050x2
 48
0.2
100
AcDbLine
 10
517.3291921284973
 20
250.7137776570598
 30
0.0
 11
517.3291921284973
 21
255.6216467901224
 31
0.0
1001
GENIUS_GENOREF_13
1005
1C9D
  0
LINE
  5
1C9B
330
A
100
AcDbEntity
  8
LOGO
  6
AM_ISO08W050x2
 48
0.3
100
AcDbLine
 10
522.4888342029545
 20
253.1677122235912
 30
0.0
 11
529.0776783067274
 21
253.1677122235912
 31
0.0
1001
GENIUS_GENOREF_13
1005
1C9C
  0
POINT
  5
1C9C
330
A
100
AcDbEntity
  8
0
 60
     1
100
AcDbPoint
 10
-1593.379040456162
 20
-905.8533651541795
 30
0.0
1001
GENIUS_GENOBJ-N-CRS_13
1002
{
1000
OWNER
1000
GEN
1002
}
1001
GENIUS_GENOLIS_13
1002
{
1000
ENT
1005
0
1005
0
1005
0
1005
1C9B
1002
}
1001
GENIUS_GENOENT_13
1002
{
1000
MYREF
1005
1C9C
1002
}
1002
{
1000
GRP
1005
0
1002
}
1001
GENIUS_GENODEF_13
1002
{
1000
HIER
1070
    10
1002
}
1002
{
1000
MANEDIT
1070
     1
1002
}
1002
{
1000
NOSEL
1070
     0
1002
}
1002
{
1000
BEHIND
1070
     0
1002
}
1002
{
1000
OTHER
1070
     0
1002
}
1002
{
1000
REACTOR
1002
}
  0
POINT
  5
1C9D
330
A
100
AcDbEntity
  8
0
 60
     1
100
AcDbPoint
 10
-1604.703625679017
 20
-896.9777786755432
 30
0.0
1001
GENIUS_GENOBJ-N-CRS_13
1002
{
1000
OWNER
1000
GEN
1002
}
1001
GENIUS_GENOLIS_13
1002
{
1000
ENT
1005
0
1005
0
1005
0
1005
1C9A
1002
}
1001
GENIUS_GENOENT_13
1002
{
1000
MYREF
1005
1C9D
1002
}
1002
{
1000
GRP
1005
0
1002
}
1001
GENIUS_GENODEF_13
1002
{
1000
HIER
1070
    10
1002
}
1002
{
1000
MANEDIT
1070
     1
1002
}
1002
{
1000
NOSEL
1070
     0
1002
}
1002
{
1000
BEHIND
1070
     0
1002
}
1002
{
1000
OTHER
1070
     0
1002
}
1002
{
1000
REACTOR
1002
}
  0
POINT
  5
1C9E
330
A
100
AcDbEntity
  8
0
 60
     1
100
AcDbPoint
 10
-1598.34495198118
 20
-905.8533651541795
 30
0.0
1001
GENIUS_GENOBJ-N-CRS_13
1002
{
1000
OWNER
1000
GEN
1002
}
1001
GENIUS_GENOLIS_13
1002
{
1000
ENT
1005
0
1005
0
1005
0
1005
1C99
1002
}
1001
GENIUS_GENOENT_13
1002
{
1000
MYREF
1005
1C9E
1002
}
1002
{
1000
GRP
1005
0
1002
}
1001
GENIUS_GENODEF_13
1002
{
1000
HIER
1070
    10
1002
}
1002
{
1000
MANEDIT
1070
     1
1002
}
1002
{
1000
NOSEL
1070
     0
1002
}
1002
{
1000
BEHIND
1070
     0
1002
}
1002
{
1000
OTHER
1070
     0
1002
}
1002
{
1000
REACTOR
1002
}
  0
LEADER
  5
28D6
330
A
100
AcDbEntity
  8
AM_5
100
AcDbLeader
  3
AM_ISO$7
 73
     0
 74
     0
 75
     1
 40
4.676852903476758
 41
55.29862204724413
 76
     3
 10
702.680163020645
 20
513.803020439178
 30
0.0
 10
715.6860342001594
 20
532.678073919763
 30
0.0
 10
718.6860342001594
 20
532.678073919763
 30
0.0
340
28D7
1001
ACAD
1000
DSTYLE
1002
{
1070
   140
1040
3.5
1070
   174
1070
     1
1002
}
  0
MTEXT
  5
28D7
102
{ACAD_REACTORS
330
28D6
102
}
330
A
100
AcDbEntity
  8
AM_5
100
AcDbMText
 10
719.6860342001594
 20
533.678073919763
 30
0.0
 40
3.5
 41
0.0
 71
     7
 72
     1
  1
M5*0.8(Finger Openingport)
 73
     1
 44
1.0
1001
ACAD
1000
MTEXTBEGIN
1070
    73
1070
     1
1070
    44
1040
1.0
1070
    74
1070
     0
1000
MTEXTEND
  0
LEADER
  5
333B
330
A
100
AcDbEntity
  8
AM_5
100
AcDbLeader
  3
AM_ISO$7
 73
     0
 74
     0
 75
     1
 40
4.676852903476758
 41
55.29862204724413
 76
     3
 10
683.0713198280648
 20
488.0394999983705
 30
0.0
 10
707.740570528784
 20
461.448578482723
 30
0.0
 10
710.740570528784
 20
461.448578482723
 30
0.0
340
333C
1001
ACAD
1000
DSTYLE
1002
{
1070
   140
1040
3.5
1070
   174
1070
     1
1002
}
  0
MTEXT
  5
333C
102
{ACAD_REACTORS
330
333B
102
}
330
A
100
AcDbEntity
  8
AM_5
100
AcDbMText
 10
711.740570528784
 20
462.448578482723
 30
0.0
 40
3.5
 41
0.0
 71
     7
 72
     1
  1
M5*0.8(Finger Openingport)
 73
     1
 44
1.0
1001
ACAD
1000
MTEXTBEGIN
1070
    73
1070
     1
1070
    44
1040
1.0
1070
    74
1070
     0
1000
MTEXTEND
  0
LINE
  5
3A9A
330
A
100
AcDbEntity
  8
0
  6
Continuous
 62
     7
100
AcDbLine
 10
559.5521920013425
 20
361.6304561593831
 30
0.0
 11
560.3482026311646
 21
361.4900980084148
 31
0.0
  0
LINE
  5
3A9B
330
A
100
AcDbEntity
  8
0
  6
Continuous
 62
     7
100
AcDbLine
 10
560.3482026311646
 20
361.4900980084148
 30
0.0
 11
562.7265167870048
 21
364.3244624479549
 31
0.0
  0
LINE
  5
3A9C
330
A
100
AcDbEntity
  8
0
  6
Continuous
 62
     7
100
AcDbLine
 10
562.7265167870048
 20
364.3244624479549
 30
0.0
 11
557.8238323510434
 21
368.4383031499488
 31
0.0
  0
LINE
  5
3A9D
330
A
100
AcDbEntity
  8
0
  6
Continuous
 62
     7
100
AcDbLine
 10
557.8238323510434
 20
368.4383031499488
 30
0.0
 11
555.4455181952032
 21
365.6039387104086
 31
0.0
  0
LINE
  5
3A9E
330
A
100
AcDbEntity
  8
0
  6
Continuous
 62
     7
100
AcDbLine
 10
555.4455181952032
 20
365.6039387104086
 30
0.0
 11
555.7219697857476
 21
364.8443942078158
 31
0.0
  0
LINE
  5
3A9F
330
A
100
AcDbEntity
  8
0
  6
Continuous
 62
     7
100
AcDbLine
 10
555.7219697857476
 20
364.8443942078158
 30
0.0
 11
554.5798879740427
 21
363.4833141056802
 31
0.0
  0
ARC
  5
3AA0
330
A
100
AcDbEntity
  8
0
  6
Continuous
 62
     7
100
AcDbCircle
 10
573.3237630456608
 20
381.9320849942672
 30
0.0
 40
26.30000000000001
100
AcDbArc
 50
218.7481373302051
 51
224.5453975118773
  0
LINE
  5
3AA1
330
A
100
AcDbEntity
  8
0
  6
Continuous
 62
     7
100
AcDbLine
 10
552.8122659830485
 20
365.4709644901689
 30
0.0
 11
556.2712041624031
 21
367.4679833791296
 31
0.0
  0
ARC
  5
3AA2
330
A
100
AcDbEntity
  8
0
  6
Continuous
 62
     7
100
AcDbCircle
 10
554.2712041624031
 20
370.9320849942674
 30
0.0
 40
4.000000000000031
100
AcDbArc
 50
300.0000000000005
 51
120.0000000000005
  0
LINE
  5
3AA3
330
A
100
AcDbEntity
  8
0
  6
Continuous
 62
     7
100
AcDbLine
 10
552.2712041624031
 20
374.3961866094051
 30
0.0
 11
548.8122659830485
 21
372.3991677204446
 31
0.0
  0
ARC
  5
3AA4
330
A
100
AcDbEntity
  8
0
  6
Continuous
 62
     7
100
AcDbCircle
 10
573.3237630456608
 20
381.9320849942672
 30
0.0
 40
26.29999999999999
100
AcDbArc
 50
195.4546024881262
 51
201.2518626697905
  0
LINE
  5
3AA5
330
A
100
AcDbEntity
  8
0
  6
Continuous
 62
     7
100
AcDbLine
 10
547.9747212517367
 20
374.9237984611775
 30
0.0
 11
549.724492102624
 21
375.2323302722461
 31
0.0
  0
LINE
  5
3AA6
330
A
100
AcDbEntity
  8
0
  6
Continuous
 62
     7
100
AcDbLine
 10
549.724492102624
 20
375.2323302722461
 30
0.0
 11
550.244051141902
 21
374.6131439206217
 31
0.0
  0
LINE
  5
3AA7
330
A
100
AcDbEntity
  8
0
  6
Continuous
 62
     7
100
AcDbLine
 10
550.244051141902
 20
374.6131439206217
 30
0.0
 11
553.8878398280472
 21
375.2556421779894
 31
0.0
  0
LINE
  5
3AA8
330
A
100
AcDbEntity
  8
0
  6
Continuous
 62
     7
100
AcDbLine
 10
553.8878398280472
 20
375.2556421779894
 30
0.0
 11
552.776491490979
 21
381.5584117972676
 31
0.0
  0
LINE
  5
3AA9
330
A
100
AcDbEntity
  8
0
  6
Continuous
 62
     7
100
AcDbLine
 10
552.776491490979
 20
381.5584117972676
 30
0.0
 11
549.1327028048336
 21
380.9159135399
 31
0.0
  0
LINE
  5
3AAA
330
A
100
AcDbEntity
  8
0
  6
Continuous
 62
     7
100
AcDbLine
 10
549.1327028048336
 20
380.9159135399
 30
0.0
 11
548.8562512142894
 21
380.1563690373072
 31
0.0
  0
LINE
  5
3AAB
330
A
100
AcDbEntity
  8
0
  6
Continuous
 62
     7
100
AcDbLine
 10
548.8562512142894
 20
380.1563690373072
 30
0.0
 11
547.1064803634019
 21
379.8478372262386
 31
0.0
  0
ARC
  5
3AAC
330
A
100
AcDbEntity
  8
0
  6
Continuous
 62
     7
100
AcDbCircle
 10
573.3237630456608
 20
381.9320849942672
 30
0.0
 40
26.29999999999996
100
AcDbArc
 50
180.793498454243
 51
184.5453975118737
  0
ARC
  5
3AAD
330
A
100
AcDbEntity
  8
0
  6
Continuous
 62
     7
100
AcDbCircle
 10
544.0265728597676
 20
381.5263175589037
 30
0.0
 40
3.000000000000023
100
AcDbArc
 50
0.7934984542430709
 51
59.99999999999946
  0
LINE
  5
3AAE
330
A
100
AcDbEntity
  8
0
  6
Continuous
 62
     7
100
AcDbLine
 10
540.7014040217127
 20
386.9102062977936
 30
0.0
 11
545.5265728597676
 21
384.124393770257
 31
0.0
  0
ARC
  5
3AAF
330
A
100
AcDbEntity
  8
0
  6
Continuous
 62
     7
100
AcDbCircle
 10
573.3237630456608
 20
381.9320849942672
 30
0.0
 40
32.99999999999997
100
AcDbArc
 50
156.9620626910827
 51
171.3236862634967
  0
LINE
  5
3AB0
330
A
100
AcDbEntity
  8
0
  6
Continuous
 62
     7
100
AcDbLine
 10
559.1994073926787
 20
385.4679833791296
 30
0.0
 11
552.2712041624031
 21
389.4679833791296
 31
0.0
  0
LINE
  5
3AB1
330
A
100
AcDbEntity
  8
0
  6
Continuous
 62
     7
100
AcDbLine
 10
563.1994073926787
 20
392.396186609405
 30
0.0
 11
559.1994073926787
 21
385.4679833791296
 31
0.0
  0
LINE
  5
3AB2
330
A
100
AcDbEntity
  8
0
  6
Continuous
 62
     7
100
AcDbLine
 10
563.1994073926787
 20
392.396186609405
 30
0.0
 11
556.2712041624033
 21
396.3961866094051
 31
0.0
  0
ARC
  5
3AB3
330
A
100
AcDbEntity
  8
0
  6
Continuous
 62
     7
100
AcDbCircle
 10
573.3237630456608
 20
381.9320849942672
 30
0.0
 40
32.99999999999995
100
AcDbArc
 50
128.6763137365059
 51
143.0379373089166
  0
LINE
  5
3AB4
330
A
100
AcDbEntity
  8
0
  6
Continuous
 62
     7
100
AcDbLine
 10
557.5265728597678
 20
404.9090034610834
 30
0.0
 11
552.7014040217127
 21
407.6948159886199
 31
0.0
  0
ARC
  5
3AB5
330
A
100
AcDbEntity
  8
0
  6
Continuous
 62
     7
100
AcDbCircle
 10
559.0265728597678
 20
407.5070796724368
 30
0.0
 40
3.000000000000028
100
AcDbArc
 50
239.9999999999995
 51
299.206501545763
  0
ARC
  5
3AB6
330
A
100
AcDbEntity
  8
0
  6
Continuous
 62
     7
100
AcDbCircle
 10
573.3237630456608
 20
381.9320849942672
 30
0.0
 40
26.29999999999998
100
AcDbArc
 50
98.74813733020635
 51
119.2065015457629
  0
LINE
  5
3AB7
330
A
100
AcDbEntity
  8
0
  6
Continuous
 62
     7
100
AcDbLine
 10
569.323763045661
 20
407.9261227721885
 30
0.0
 11
569.323763045661
 21
403.932084994267
 31
0.0
  0
ARC
  5
3AB8
330
A
100
AcDbEntity
  8
0
  6
Continuous
 62
     7
100
AcDbCircle
 10
573.3237630456608
 20
403.932084994267
 30
0.0
 40
4.0
100
AcDbArc
 50
180.0
 51
0.0
  0
LINE
  5
3AB9
330
A
100
AcDbEntity
  8
0
  6
Continuous
 62
     7
100
AcDbLine
 10
577.3237630456608
 20
403.932084994267
 30
0.0
 11
577.3237630456608
 21
407.9261227721885
 31
0.0
  0
ARC
  5
3ABA
330
A
100
AcDbEntity
  8
0
  6
Continuous
 62
     7
100
AcDbCircle
 10
573.3237630456608
 20
381.9320849942672
 30
0.0
 40
26.29999999999998
100
AcDbArc
 50
60.79349845423704
 51
81.25186266979365
  0
ARC
  5
3ABB
330
A
100
AcDbEntity
  8
0
  6
Continuous
 62
     7
100
AcDbCircle
 10
587.620953231554
 20
407.5070796724368
 30
0.0
 40
3.000000000000031
100
AcDbArc
 50
240.793498454237
 51
300.0000000000005
  0
LINE
  5
3ABC
330
A
100
AcDbEntity
  8
0
  6
Continuous
 62
     7
100
AcDbLine
 10
593.9461220696089
 20
407.6948159886199
 30
0.0
 11
589.1209532315538
 21
404.9090034610834
 31
0.0
  0
ARC
  5
3ABD
330
A
100
AcDbEntity
  8
0
  6
Continuous
 62
     7
100
AcDbCircle
 10
573.3237630456608
 20
381.9320849942672
 30
0.0
 40
33.00000000000002
100
AcDbArc
 50
36.96206269108337
 51
51.32368626349402
  0
LINE
  5
3ABE
330
A
100
AcDbEntity
  8
0
  6
Continuous
 62
     7
100
AcDbLine
 10
583.4481186986431
 20
392.3961866094049
 30
0.0
 11
590.3763219289185
 21
396.3961866094048
 31
0.0
  0
LINE
  5
3ABF
330
A
100
AcDbEntity
  8
0
  6
Continuous
 62
     7
100
AcDbLine
 10
587.4481186986431
 20
385.4679833791293
 30
0.0
 11
583.4481186986431
 21
392.3961866094049
 31
0.0
  0
LINE
  5
3AC0
330
A
100
AcDbEntity
  8
0
  6
Continuous
 62
     7
100
AcDbLine
 10
587.4481186986431
 20
385.4679833791293
 30
0.0
 11
594.3763219289185
 21
389.4679833791293
 31
0.0
  0
ARC
  5
3AC1
330
A
100
AcDbEntity
  8
0
  6
Continuous
 62
     7
100
AcDbCircle
 10
573.3237630456608
 20
381.9320849942672
 30
0.0
 40
33.00000000000002
100
AcDbArc
 50
8.676313736503232
 51
23.03793730891726
  0
LINE
  5
3AC2
330
A
100
AcDbEntity
  8
0
  6
Continuous
 62
     7
100
AcDbLine
 10
601.1209532315542
 20
384.124393770257
 30
0.0
 11
605.9461220696091
 21
386.9102062977936
 31
0.0
  0
ARC
  5
3AC3
330
A
100
AcDbEntity
  8
0
  6
Continuous
 62
     7
100
AcDbCircle
 10
602.6209532315542
 20
381.5263175589037
 30
0.0
 40
3.000000000000028
100
AcDbArc
 50
120.0000000000005
 51
179.2065015457504
  0
ARC
  5
3AC4
330
A
100
AcDbEntity
  8
0
  6
Continuous
 62
     7
100
AcDbCircle
 10
573.3237630456608
 20
381.9320849942672
 30
0.0
 40
26.30000000000007
100
AcDbArc
 50
355.4546024881263
 51
359.2065015457504
  0
LINE
  5
3AC5
330
A
100
AcDbEntity
  8
0
  6
Continuous
 62
     7
100
AcDbLine
 10
597.7912748770322
 20
380.1563690373072
 30
0.0
 11
599.5410457279199
 21
379.8478372262386
 31
0.0
  0
LINE
  5
3AC6
330
A
100
AcDbEntity
  8
0
  6
Continuous
 62
     7
100
AcDbLine
 10
597.5148232864881
 20
380.9159135399
 30
0.0
 11
597.7912748770322
 21
380.1563690373072
 31
0.0
  0
LINE
  5
3AC7
330
A
100
AcDbEntity
  8
0
  6
Continuous
 62
     7
100
AcDbLine
 10
593.8710346003428
 20
381.5584117972676
 30
0.0
 11
597.5148232864881
 21
380.9159135399
 31
0.0
  0
LINE
  5
3AC8
330
A
100
AcDbEntity
  8
0
  6
Continuous
 62
     7
100
AcDbLine
 10
592.7596862632745
 20
375.2556421779894
 30
0.0
 11
593.8710346003428
 21
381.5584117972676
 31
0.0
  0
LINE
  5
3AC9
330
A
100
AcDbEntity
  8
0
  6
Continuous
 62
     7
100
AcDbLine
 10
596.4034749494198
 20
374.6131439206217
 30
0.0
 11
592.7596862632745
 21
375.2556421779894
 31
0.0
  0
LINE
  5
3ACA
330
A
100
AcDbEntity
  8
0
  6
Continuous
 62
     7
100
AcDbLine
 10
596.9230339886975
 20
375.2323302722461
 30
0.0
 11
596.4034749494198
 21
374.6131439206217
 31
0.0
  0
LINE
  5
3ACB
330
A
100
AcDbEntity
  8
0
  6
Continuous
 62
     7
100
AcDbLine
 10
598.6728048395851
 20
374.9237984611775
 30
0.0
 11
596.9230339886975
 21
375.2323302722461
 31
0.0
  0
ARC
  5
3ACC
330
A
100
AcDbEntity
  8
0
  6
Continuous
 62
     7
100
AcDbCircle
 10
573.3237630456608
 20
381.9320849942672
 30
0.0
 40
26.30000000000006
100
AcDbArc
 50
338.7481373302096
 51
344.5453975118738
  0
LINE
  5
3ACD
330
A
100
AcDbEntity
  8
0
  6
Continuous
 62
     7
100
AcDbLine
 10
597.8352601082731
 20
372.3991677204441
 30
0.0
 11
594.3763219289185
 21
374.3961866094048
 31
0.0
  0
ARC
  5
3ACE
330
A
100
AcDbEntity
  8
0
  6
Continuous
 62
     7
100
AcDbCircle
 10
592.3763219289185
 20
370.9320849942671
 30
0.0
 40
3.999999999999982
100
AcDbArc
 50
59.99999999999946
 51
239.9999999999995
  0
LINE
  5
3ACF
330
A
100
AcDbEntity
  8
0
  6
Continuous
 62
     7
100
AcDbLine
 10
590.3763219289185
 20
367.4679833791293
 30
0.0
 11
593.8352601082731
 21
365.4709644901688
 31
0.0
  0
ARC
  5
3AD0
330
A
100
AcDbEntity
  8
0
  6
Continuous
 62
     7
100
AcDbCircle
 10
573.3237630456608
 20
381.9320849942672
 30
0.0
 40
26.30000000000006
100
AcDbArc
 50
315.4546024881227
 51
321.2518626697948
  0
LINE
  5
3AD1
330
A
100
AcDbEntity
  8
0
  6
Continuous
 62
     7
100
AcDbLine
 10
590.9255563055744
 20
364.8443942078158
 30
0.0
 11
592.0676381172788
 21
363.4833141056802
 31
0.0
  0
LINE
  5
3AD2
330
A
100
AcDbEntity
  8
0
  6
Continuous
 62
     7
100
AcDbLine
 10
591.2020078961186
 20
365.6039387104086
 30
0.0
 11
590.9255563055744
 21
364.8443942078158
 31
0.0
  0
LINE
  5
3AD3
330
A
100
AcDbEntity
  8
0
  6
Continuous
 62
     7
100
AcDbLine
 10
588.8236937402784
 20
368.4383031499488
 30
0.0
 11
591.2020078961186
 21
365.6039387104086
 31
0.0
  0
LINE
  5
3AD4
330
A
100
AcDbEntity
  8
0
  6
Continuous
 62
     7
100
AcDbLine
 10
583.921009304317
 20
364.3244624479549
 30
0.0
 11
588.8236937402784
 21
368.4383031499488
 31
0.0
  0
LINE
  5
3AD5
330
A
100
AcDbEntity
  8
0
  6
Continuous
 62
     7
100
AcDbLine
 10
586.2993234601572
 20
361.4900980084148
 30
0.0
 11
583.921009304317
 21
364.3244624479549
 31
0.0
  0
LINE
  5
3AD6
330
A
100
AcDbEntity
  8
0
  6
Continuous
 62
     7
100
AcDbLine
 10
587.0953340899793
 20
361.6304561593831
 30
0.0
 11
586.2993234601572
 21
361.4900980084148
 31
0.0
  0
LINE
  5
3AD7
330
A
100
AcDbEntity
  8
0
  6
Continuous
 62
     7
100
AcDbLine
 10
588.237415901684
 20
360.2693760572476
 30
0.0
 11
587.0953340899793
 21
361.6304561593831
 31
0.0
  0
ARC
  5
3AD8
330
A
100
AcDbEntity
  8
0
  6
Continuous
 62
     7
100
AcDbCircle
 10
573.3237630456608
 20
381.9320849942672
 30
0.0
 40
26.30000000000006
100
AcDbArc
 50
300.793498454245
 51
304.5453975118702
  0
ARC
  5
3AD9
330
A
100
AcDbEntity
  8
0
  6
Continuous
 62
     7
100
AcDbCircle
 10
588.323763045661
 20
356.7628577514614
 30
0.0
 40
3.0
100
AcDbArc
 50
120.7934984542449
 51
180.0
  0
LINE
  5
3ADA
330
A
100
AcDbEntity
  8
0
  6
Continuous
 62
     7
100
AcDbLine
 10
585.323763045661
 20
351.1912326963884
 30
0.0
 11
585.323763045661
 21
356.7628577514614
 31
0.0
  0
ARC
  5
3ADB
330
A
100
AcDbEntity
  8
0
  6
Continuous
 62
     7
100
AcDbCircle
 10
573.3237630456608
 20
381.9320849942672
 30
0.0
 40
33.00000000000001
100
AcDbArc
 50
276.9620626910913
 51
291.3236862634923
  0
LINE
  5
3ADC
330
A
100
AcDbEntity
  8
0
  6
Continuous
 62
     7
100
AcDbLine
 10
577.3237630456608
 20
367.9320849942673
 30
0.0
 11
577.3237630456608
 21
359.9320849942673
 31
0.0
  0
LINE
  5
3ADD
330
A
100
AcDbEntity
  8
0
  6
Continuous
 62
     7
100
AcDbLine
 10
569.323763045661
 20
367.9320849942673
 30
0.0
 11
577.3237630456608
 21
367.9320849942673
 31
0.0
  0
LINE
  5
3ADE
330
A
100
AcDbEntity
  8
0
  6
Continuous
 62
     7
100
AcDbLine
 10
569.323763045661
 20
367.9320849942673
 30
0.0
 11
569.323763045661
 21
359.9320849942673
 31
0.0
  0
ARC
  5
3ADF
330
A
100
AcDbEntity
  8
0
  6
Continuous
 62
     7
100
AcDbCircle
 10
573.3237630456608
 20
381.9320849942672
 30
0.0
 40
33.0
100
AcDbArc
 50
171.3236862634974
 51
263.037937308922
  0
LINE
  5
3AE0
330
A
100
AcDbEntity
  8
0
  6
Continuous
 62
     7
100
AcDbLine
 10
561.323763045661
 20
356.7628577514614
 30
0.0
 11
561.323763045661
 21
351.1912326963884
 31
0.0
  0
ARC
  5
3AE1
330
A
100
AcDbEntity
  8
0
  6
Continuous
 62
     7
100
AcDbCircle
 10
558.323763045661
 20
356.7628577514614
 30
0.0
 40
3.0
100
AcDbArc
 50
0.0
 51
59.20650154575505
  0
ARC
  5
3AE2
330
A
100
AcDbEntity
  8
0
  6
Continuous
 62
     7
100
AcDbCircle
 10
573.3237630456608
 20
381.9320849942672
 30
0.0
 40
26.30000000000002
100
AcDbArc
 50
235.4546024881298
 51
239.206501545755
  0
LINE
  5
3AE3
330
A
100
AcDbEntity
  8
0
  6
Continuous
 62
     7
100
AcDbLine
 10
558.4101101896376
 20
360.2693760572476
 30
0.0
 11
559.5521920013425
 21
361.6304561593831
 31
0.0
  0
ARC
  5
3AE4
330
A
100
AcDbEntity
  8
0
  6
Continuous
 62
     7
100
AcDbCircle
 10
573.323763045661
 20
381.9320849942672
 30
0.0
 40
35.99999999999995
100
AcDbArc
 50
10.52877936551035
 51
23.62062979155394
  0
LINE
  5
3AE5
330
A
100
AcDbEntity
  8
0
  6
Continuous
 62
     7
100
AcDbLine
 10
608.7176399590589
 20
388.5103428973312
 30
0.0
 11
605.9461220696091
 21
386.9102062977936
 31
0.0
  0
LINE
  5
3AE6
330
A
100
AcDbEntity
  8
0
  6
Continuous
 62
     7
100
AcDbLine
 10
593.9461220696089
 20
407.6948159886199
 30
0.0
 11
596.7176399590589
 21
409.2949525881577
 31
0.0
  0
ARC
  5
3AE7
330
A
100
AcDbEntity
  8
0
  6
Continuous
 62
     7
100
AcDbCircle
 10
573.323763045661
 20
381.9320849942672
 30
0.0
 40
35.99999999999996
100
AcDbArc
 50
36.37937020843926
 51
49.47122063448855
  0
ARC
  5
3AE8
330
A
100
AcDbEntity
  8
0
  6
Continuous
 62
     7
100
AcDbCircle
 10
573.323763045661
 20
381.9320849942672
 30
0.0
 40
36.00000000000004
100
AcDbArc
 50
276.3793702084416
 51
289.4712206344868
  0
LINE
  5
3AE9
330
A
100
AcDbEntity
  8
0
  6
Continuous
 62
     7
100
AcDbLine
 10
585.323763045661
 20
351.1912326963884
 30
0.0
 11
585.323763045661
 21
347.990959497313
 31
0.0
  0
ARC
  5
3AEA
330
A
100
AcDbEntity
  8
0
  6
Continuous
 62
     7
100
AcDbCircle
 10
573.323763045661
 20
381.9320849942672
 30
0.0
 40
36.00000000000004
100
AcDbArc
 50
250.5287793655132
 51
263.6206297915588
  0
LINE
  5
3AEB
330
A
100
AcDbEntity
  8
0
  6
Continuous
 62
     7
100
AcDbLine
 10
561.323763045661
 20
347.990959497313
 30
0.0
 11
561.323763045661
 21
351.1912326963884
 31
0.0
  0
ARC
  5
3AEC
330
A
100
AcDbEntity
  8
0
  6
Continuous
 62
     7
100
AcDbCircle
 10
573.323763045661
 20
381.9320849942672
 30
0.0
 40
36.0
100
AcDbArc
 50
130.5287793655114
 51
143.6206297915607
  0
LINE
  5
3AED
330
A
100
AcDbEntity
  8
0
  6
Continuous
 62
     7
100
AcDbLine
 10
549.9298861322629
 20
409.2949525881577
 30
0.0
 11
552.7014040217127
 21
407.6948159886199
 31
0.0
  0
ARC
  5
3AEE
330
A
100
AcDbEntity
  8
0
  6
Continuous
 62
     7
100
AcDbCircle
 10
573.323763045661
 20
381.9320849942672
 30
0.0
 40
36.00000000000004
100
AcDbArc
 50
156.3793702084431
 51
169.4712206344896
  0
LINE
  5
3AEF
330
A
100
AcDbEntity
  8
0
  6
Continuous
 62
     7
100
AcDbLine
 10
540.7014040217127
 20
386.9102062977936
 30
0.0
 11
537.9298861322626
 21
388.5103428973312
 31
0.0
  0
CIRCLE
  5
3AF0
330
A
100
AcDbEntity
  8
0
  6
Continuous
 62
     7
100
AcDbCircle
 10
592.3763219289185
 20
370.9320849942671
 30
0.0
 40
2.250000000000055
  0
ARC
  5
3AF1
330
A
100
AcDbEntity
  8
0
  6
Continuous
 62
     7
100
AcDbCircle
 10
573.323763045661
 20
381.9320849942672
 30
0.0
 40
26.30000000000002
100
AcDbArc
 50
321.2518626697948
 51
338.7481373302096
  0
CIRCLE
  5
3AF2
330
A
100
AcDbEntity
  8
0
  6
Continuous
 62
     7
100
AcDbCircle
 10
573.323763045661
 20
403.932084994267
 30
0.0
 40
2.250000000000055
  0
ARC
  5
3AF3
330
A
100
AcDbEntity
  8
0
  6
Continuous
 62
     7
100
AcDbCircle
 10
573.323763045661
 20
381.9320849942672
 30
0.0
 40
26.29999999999997
100
AcDbArc
 50
81.25186266979365
 51
98.74813733020635
  0
CIRCLE
  5
3AF4
330
A
100
AcDbEntity
  8
0
  6
Continuous
 62
     7
100
AcDbCircle
 10
554.2712041624031
 20
370.9320849942674
 30
0.0
 40
2.25
  0
ARC
  5
3AF5
330
A
100
AcDbEntity
  8
0
  6
Continuous
 62
     7
100
AcDbCircle
 10
573.323763045661
 20
381.9320849942672
 30
0.0
 40
26.30000000000006
100
AcDbArc
 50
201.2518626697905
 51
218.7481373302051
  0
LINE
  5
3AF6
330
A
100
AcDbEntity
  8
0
  6
Continuous
 62
     7
100
AcDbLine
 10
548.4769755283432
 20
400.896186609405
 30
0.0
 11
544.4769755283432
 21
393.9679833791296
 31
0.0
  0
LINE
  5
3AF7
330
A
100
AcDbEntity
  8
0
  6
Continuous
 62
     7
100
AcDbLine
 10
544.4769755283432
 20
393.9679833791296
 30
0.0
 11
552.2712041624031
 21
389.4679833791296
 31
0.0
  0
LINE
  5
3AF8
330
A
100
AcDbEntity
  8
0
  6
Continuous
 62
     7
100
AcDbLine
 10
548.4769755283432
 20
400.896186609405
 30
0.0
 11
556.2712041624033
 21
396.3961866094051
 31
0.0
  0
LINE
  5
3AF9
330
A
100
AcDbEntity
  8
0
  6
Continuous
 62
     7
100
AcDbLine
 10
556.2712041624033
 20
396.3961866094051
 30
0.0
 11
552.2712041624031
 21
389.4679833791296
 31
0.0
  0
LINE
  5
3AFA
330
A
100
AcDbEntity
  8
0
  6
Continuous
 62
     7
100
AcDbLine
 10
538.9506960867144
 20
406.3961866094052
 30
0.0
 11
534.9506960867144
 21
399.4679833791297
 31
0.0
  0
LINE
  5
3AFB
330
A
100
AcDbEntity
  8
0
  6
Continuous
 62
     7
100
AcDbLine
 10
546.7449247207746
 20
401.896186609405
 30
0.0
 11
542.7449247207744
 21
394.9679833791297
 31
0.0
  0
LINE
  5
3AFC
330
A
100
AcDbEntity
  8
0
  6
Continuous
 62
     7
100
AcDbLine
 10
534.9506960867144
 20
399.4679833791297
 30
0.0
 11
542.7449247207744
 21
394.9679833791297
 31
0.0
  0
LINE
  5
3AFD
330
A
100
AcDbEntity
  8
0
  6
Continuous
 62
     7
100
AcDbLine
 10
538.9506960867144
 20
406.3961866094052
 30
0.0
 11
546.7449247207746
 21
401.896186609405
 31
0.0
  0
LINE
  5
3AFE
330
A
100
AcDbEntity
  8
0
  6
Continuous
 62
     7
100
AcDbLine
 10
542.7449247207746
 20
394.9679833791297
 30
0.0
 11
544.4769755283432
 21
393.9679833791296
 31
0.0
  0
LINE
  5
3AFF
330
A
100
AcDbEntity
  8
0
  6
Continuous
 62
     7
100
AcDbLine
 10
546.7449247207746
 20
401.896186609405
 30
0.0
 11
548.4769755283432
 21
400.896186609405
 31
0.0
  0
LINE
  5
3B00
330
A
100
AcDbEntity
  8
0
  6
Continuous
 62
     7
100
AcDbLine
 10
540.9506960867147
 20
409.8602882245429
 30
0.0
 11
546.9263947385197
 21
406.4102169993271
 31
0.0
  0
LINE
  5
3B01
330
A
100
AcDbEntity
  8
0
  6
Continuous
 62
     7
100
AcDbLine
 10
540.9506960867147
 20
409.8602882245429
 30
0.0
 11
538.9506960867144
 21
406.3961866094052
 31
0.0
  0
LINE
  5
3B02
330
A
100
AcDbEntity
  8
0
  6
Continuous
 62
     7
100
AcDbLine
 10
532.9506960867145
 20
396.0038817639919
 30
0.0
 11
538.9263947385197
 21
392.5538105387761
 31
0.0
  0
LINE
  5
3B03
330
A
100
AcDbEntity
  8
0
  6
Continuous
 62
     7
100
AcDbLine
 10
539.6902497923377
 20
399.4679833791297
 30
0.0
 11
537.6902497923376
 21
396.0038817639919
 31
0.0
  0
LINE
  5
3B04
330
A
100
AcDbEntity
  8
0
  6
Continuous
 62
     7
100
AcDbLine
 10
569.323763045661
 20
350.9320849942672
 30
0.0
 11
577.3237630456608
 21
350.9320849942672
 31
0.0
  0
LINE
  5
3B05
330
A
100
AcDbEntity
  8
0
  6
Continuous
 62
     7
100
AcDbLine
 10
577.3237630456608
 20
350.9320849942672
 30
0.0
 11
577.323763045661
 21
359.9320849942673
 31
0.0
  0
ARC
  5
3B06
330
A
100
AcDbEntity
  8
DIM
100
AcDbCircle
 10
573.323763045661
 20
355.4320849942673
 30
0.0
 40
2.0
100
AcDbArc
 50
90.0
 51
0.0
  0
LINE
  5
3B07
330
A
100
AcDbEntity
  8
0
  6
Continuous
 62
     7
100
AcDbLine
 10
569.323763045661
 20
350.9320849942672
 30
0.0
 11
569.323763045661
 21
359.9320849942673
 31
0.0
  0
LINE
  5
3B08
330
A
100
AcDbEntity
  8
0
  6
Continuous
 62
     7
100
AcDbLine
 10
569.323763045661
 20
359.9320849942673
 30
0.0
 11
577.323763045661
 21
359.9320849942673
 31
0.0
  0
LINE
  5
3B09
330
A
100
AcDbEntity
  8
0
  6
Continuous
 62
     7
100
AcDbLine
 10
569.323763045661
 20
339.9320849942672
 30
0.0
 11
577.3237630456608
 21
339.9320849942672
 31
0.0
  0
LINE
  5
3B0A
330
A
100
AcDbEntity
  8
0
  6
Continuous
 62
     7
100
AcDbLine
 10
569.323763045661
 20
348.9320849942672
 30
0.0
 11
577.3237630456608
 21
348.9320849942672
 31
0.0
  0
ARC
  5
3B0B
330
A
100
AcDbEntity
  8
DIM
100
AcDbCircle
 10
573.323763045661
 20
344.4320849942672
 30
0.0
 40
2.0
100
AcDbArc
 50
90.0
 51
0.0
  0
LINE
  5
3B0C
330
A
100
AcDbEntity
  8
0
  6
Continuous
 62
     7
100
AcDbLine
 10
577.3237630456608
 20
339.9320849942672
 30
0.0
 11
577.3237630456608
 21
348.9320849942672
 31
0.0
  0
LINE
  5
3B0D
330
A
100
AcDbEntity
  8
0
  6
Continuous
 62
     7
100
AcDbLine
 10
569.323763045661
 20
339.9320849942672
 30
0.0
 11
569.323763045661
 21
348.9320849942672
 31
0.0
  0
LINE
  5
3B0E
330
A
100
AcDbEntity
  8
0
  6
Continuous
 62
     7
100
AcDbLine
 10
577.323763045661
 20
348.9320849942672
 30
0.0
 11
577.323763045661
 21
350.9320849942672
 31
0.0
  0
LINE
  5
3B0F
330
A
100
AcDbEntity
  8
0
  6
Continuous
 62
     7
100
AcDbLine
 10
569.323763045661
 20
348.9320849942672
 30
0.0
 11
569.323763045661
 21
350.9320849942671
 31
0.0
  0
LINE
  5
3B10
330
A
100
AcDbEntity
  8
0
  6
Continuous
 62
     7
100
AcDbLine
 10
581.323763045661
 20
339.9320849942671
 30
0.0
 11
581.323763045661
 21
346.8322274446987
 31
0.0
  0
LINE
  5
3B11
330
A
100
AcDbEntity
  8
0
  6
Continuous
 62
     7
100
AcDbLine
 10
577.323763045661
 20
339.9320849942672
 30
0.0
 11
581.323763045661
 21
339.9320849942671
 31
0.0
  0
LINE
  5
3B12
330
A
100
AcDbEntity
  8
0
  6
Continuous
 62
     7
100
AcDbLine
 10
565.3237630456608
 20
339.9320849942671
 30
0.0
 11
565.3237630456608
 21
346.8322274446987
 31
0.0
  0
LINE
  5
3B13
330
A
100
AcDbEntity
  8
0
  6
Continuous
 62
     7
100
AcDbLine
 10
565.3237630456608
 20
339.9320849942671
 30
0.0
 11
569.323763045661
 21
339.9320849942672
 31
0.0
  0
LINE
  5
3B14
330
A
100
AcDbEntity
  8
0
  6
Continuous
 62
     7
100
AcDbLine
 10
602.1705505629786
 20
393.9679833791292
 30
0.0
 11
598.1705505629786
 21
400.8961866094047
 31
0.0
  0
LINE
  5
3B15
330
A
100
AcDbEntity
  8
0
  6
Continuous
 62
     7
100
AcDbLine
 10
598.1705505629786
 20
400.8961866094047
 30
0.0
 11
590.3763219289185
 21
396.3961866094049
 31
0.0
  0
LINE
  5
3B16
330
A
100
AcDbEntity
  8
0
  6
Continuous
 62
     7
100
AcDbLine
 10
602.1705505629786
 20
393.9679833791292
 30
0.0
 11
594.3763219289185
 21
389.4679833791294
 31
0.0
  0
LINE
  5
3B17
330
A
100
AcDbEntity
  8
0
  6
Continuous
 62
     7
100
AcDbLine
 10
594.3763219289185
 20
389.4679833791294
 30
0.0
 11
590.3763219289185
 21
396.3961866094049
 31
0.0
  0
LINE
  5
3B18
330
A
100
AcDbEntity
  8
0
  6
Continuous
 62
     7
100
AcDbLine
 10
611.6968300046074
 20
399.4679833791293
 30
0.0
 11
607.6968300046075
 21
406.3961866094047
 31
0.0
  0
LINE
  5
3B19
330
A
100
AcDbEntity
  8
0
  6
Continuous
 62
     7
100
AcDbLine
 10
603.9026013705474
 20
394.9679833791293
 30
0.0
 11
599.9026013705474
 21
401.8961866094048
 31
0.0
  0
LINE
  5
3B1A
330
A
100
AcDbEntity
  8
0
  6
Continuous
 62
     7
100
AcDbLine
 10
607.6968300046075
 20
406.3961866094047
 30
0.0
 11
599.9026013705474
 21
401.8961866094048
 31
0.0
  0
LINE
  5
3B1B
330
A
100
AcDbEntity
  8
0
  6
Continuous
 62
     7
100
AcDbLine
 10
611.6968300046074
 20
399.4679833791293
 30
0.0
 11
603.9026013705474
 21
394.9679833791293
 31
0.0
  0
LINE
  5
3B1C
330
A
100
AcDbEntity
  8
0
  6
Continuous
 62
     7
100
AcDbLine
 10
599.9026013705474
 20
401.8961866094048
 30
0.0
 11
598.1705505629786
 21
400.8961866094047
 31
0.0
  0
LINE
  5
3B1D
330
A
100
AcDbEntity
  8
0
  6
Continuous
 62
     7
100
AcDbLine
 10
603.9026013705474
 20
394.9679833791293
 30
0.0
 11
602.1705505629786
 21
393.9679833791292
 31
0.0
  0
LINE
  5
3B1E
330
A
100
AcDbEntity
  8
0
  6
Continuous
 62
     7
100
AcDbLine
 10
613.6968300046076
 20
396.0038817639913
 30
0.0
 11
607.7211313528023
 21
392.5538105387756
 31
0.0
  0
LINE
  5
3B1F
330
A
100
AcDbEntity
  8
0
  6
Continuous
 62
     7
100
AcDbLine
 10
613.6968300046076
 20
396.0038817639913
 30
0.0
 11
611.6968300046074
 21
399.4679833791293
 31
0.0
  0
LINE
  5
3B20
330
A
100
AcDbEntity
  8
0
  6
Continuous
 62
     7
100
AcDbLine
 10
605.6968300046078
 20
409.8602882245424
 30
0.0
 11
599.7211313528023
 21
406.4102169993266
 31
0.0
  0
LINE
  5
3B21
330
A
100
AcDbEntity
  8
0
  6
Continuous
 62
     7
100
AcDbLine
 10
607.6968300046075
 20
406.3961866094047
 30
0.0
 11
605.6968300046078
 21
409.8602882245424
 31
0.0
  0
LINE
  5
3B22
330
A
100
AcDbEntity
  8
0
  6
Continuous
 62
     7
100
AcDbLine
 10
708.4933959577031
 20
407.9320849942672
 30
0.0
 11
672.9933959577031
 21
407.932084994267
 31
0.0
  0
LINE
  5
3B23
330
A
100
AcDbEntity
  8
0
  6
Continuous
 62
     7
100
AcDbLine
 10
672.9933959577031
 20
355.9320849942673
 30
0.0
 11
708.4933959577031
 21
355.9320849942673
 31
0.0
  0
LINE
  5
3B24
330
A
100
AcDbEntity
  8
0
  6
Continuous
 62
     7
100
AcDbLine
 10
668.8933959577032
 20
345.9320849942671
 30
0.0
 11
672.9933959577031
 21
345.9320849942671
 31
0.0
  0
LINE
  5
3B25
330
A
100
AcDbEntity
  8
0
  6
Continuous
 62
     7
100
AcDbLine
 10
655.2254467652717
 20
406.3961866094047
 30
0.0
 11
655.2254467652717
 21
409.2949525881577
 31
0.0
  0
LINE
  5
3B26
330
A
100
AcDbEntity
  8
0
  6
Continuous
 62
     7
100
AcDbLine
 10
672.9933959577031
 20
409.2949525881577
 30
0.0
 11
663.4933959577031
 21
409.2949525881577
 31
0.0
  0
LINE
  5
3B27
330
A
100
AcDbEntity
  8
0
  6
Continuous
 62
     7
100
AcDbLine
 10
658.4933959577028
 20
409.2949525881577
 30
0.0
 11
655.2254467652717
 21
409.2949525881577
 31
0.0
  0
LINE
  5
3B28
330
A
100
AcDbEntity
  8
0
  6
Continuous
 62
     7
100
AcDbLine
 10
672.9933959577029
 20
388.5103428973312
 30
0.0
 11
672.9933959577031
 21
409.2949525881577
 31
0.0
  0
LINE
  5
3B29
330
A
100
AcDbEntity
  8
0
  6
Continuous
 62
     7
100
AcDbLine
 10
672.9933959577029
 20
388.5103428973312
 30
0.0
 11
655.2254467652717
 21
388.5103428973312
 31
0.0
  0
LINE
  5
3B2A
330
A
100
AcDbEntity
  8
0
  6
Continuous
 62
     7
100
AcDbLine
 10
655.2254467652717
 20
388.5103428973312
 30
0.0
 11
655.2254467652717
 21
396.3565271991274
 31
0.0
  0
LINE
  5
3B2B
330
A
100
AcDbEntity
  8
0
  6
Continuous
 62
     7
100
AcDbLine
 10
655.2254467652717
 20
396.3565271991274
 30
0.0
 11
658.4933959577028
 21
396.3565271991274
 31
0.0
  0
LINE
  5
3B2C
330
A
100
AcDbEntity
  8
0
  6
Continuous
 62
     7
100
AcDbLine
 10
663.4933959577028
 20
395.4275014453206
 30
0.0
 11
668.8933959577028
 21
395.4275014453206
 31
0.0
  0
LINE
  5
3B2D
330
A
100
AcDbEntity
  8
0
  6
Continuous
 62
     7
100
AcDbLine
 10
672.9933959577029
 20
384.124393770257
 30
0.0
 11
653.4933959577029
 21
384.124393770257
 31
0.0
  0
LINE
  5
3B2E
330
A
100
AcDbEntity
  8
0
  6
Continuous
 62
     7
100
AcDbLine
 10
653.4933959577029
 20
384.124393770257
 30
0.0
 11
653.4933959577029
 21
386.9102062977936
 31
0.0
  0
LINE
  5
3B2F
330
A
100
AcDbEntity
  8
0
  6
Continuous
 62
     7
100
AcDbLine
 10
655.2254467652717
 20
388.5103428973312
 30
0.0
 11
653.4933959577029
 21
386.9102062977936
 31
0.0
  0
LINE
  5
3B30
330
A
100
AcDbEntity
  8
0
  6
Continuous
 62
     7
100
AcDbLine
 10
672.9933959577029
 20
384.124393770257
 30
0.0
 11
672.9933959577029
 21
388.5103428973312
 31
0.0
  0
LINE
  5
3B31
330
A
100
AcDbEntity
  8
0
  6
Continuous
 62
     7
100
AcDbLine
 10
653.4933959577029
 20
386.9102062977936
 30
0.0
 11
653.4933959577029
 21
394.8463227332883
 31
0.0
  0
LINE
  5
3B32
330
A
100
AcDbEntity
  8
0
  6
Continuous
 62
     7
100
AcDbLine
 10
653.4933959577029
 20
394.8463227332883
 30
0.0
 11
655.2254467652717
 21
396.3565271991274
 31
0.0
  0
LINE
  5
3B33
330
A
100
AcDbEntity
  8
0
  6
Continuous
 62
     7
100
AcDbLine
 10
653.4933959577029
 20
407.6948159886199
 30
0.0
 11
655.2254467652717
 21
409.2949525881577
 31
0.0
  0
LINE
  5
3B34
330
A
100
AcDbEntity
  8
0
  6
Continuous
 62
     7
100
AcDbLine
 10
653.4933959577029
 20
406.3961866094047
 30
0.0
 11
653.4933959577029
 21
407.6948159886199
 31
0.0
  0
LINE
  5
3B35
330
A
100
AcDbEntity
  8
0
  6
Continuous
 62
     7
100
AcDbLine
 10
672.9933959577031
 20
381.567863712695
 30
0.0
 11
653.4933959577029
 21
381.567863712695
 31
0.0
  0
LINE
  5
3B36
330
A
100
AcDbEntity
  8
0
  6
Continuous
 62
     7
100
AcDbLine
 10
653.4933959577029
 20
381.567863712695
 30
0.0
 11
653.4933959577029
 21
384.124393770257
 31
0.0
  0
LINE
  5
3B37
330
A
100
AcDbEntity
  8
0
  6
Continuous
 62
     7
100
AcDbLine
 10
672.9933959577031
 20
381.567863712695
 30
0.0
 11
672.9933959577029
 21
384.124393770257
 31
0.0
  0
LINE
  5
3B38
330
A
100
AcDbEntity
  8
0
  6
Continuous
 62
     7
100
AcDbLine
 10
653.4933959577029
 20
379.8478372262386
 30
0.0
 11
672.9933959577031
 21
379.8478372262386
 31
0.0
  0
LINE
  5
3B39
330
A
100
AcDbEntity
  8
0
  6
Continuous
 62
     7
100
AcDbLine
 10
653.4933959577029
 20
379.8478372262386
 30
0.0
 11
653.4933959577029
 21
381.567863712695
 31
0.0
  0
LINE
  5
3B3A
330
A
100
AcDbEntity
  8
0
  6
Continuous
 62
     7
100
AcDbLine
 10
672.9933959577031
 20
379.8478372262386
 30
0.0
 11
672.9933959577031
 21
381.567863712695
 31
0.0
  0
LWPOLYLINE
  5
3B3B
330
A
100
AcDbEntity
  8
0
  6
Continuous
 62
     7
100
AcDbPolyline
 90
       38
 70
   128
 43
0.0
 10
680.4933959577031
 20
407.6181625676418
 10
679.662781994208
 20
407.6071009148013
 10
678.855794951849
 20
407.5731732615771
 10
678.0961289160318
 20
407.5143113826991
 10
677.4030905446404
 20
407.4276436215916
 10
676.7896129045789
 20
407.307944759485
 10
676.279633225248
 20
407.153379645092
 10
675.8861969190377
 20
406.9597050520233
 10
675.6238064662504
 20
406.7288459348252
 10
675.5031907075004
 20
406.466289974964
 10
675.5220848704269
 20
406.1759931146817
 10
675.6789066550092
 20
405.8702241682342
 10
675.9663051093869
 20
405.5565656264495
 10
676.3803718269573
 20
405.2454682729456
 10
676.9065707611892
 20
404.9523911922107
 10
677.5429459248609
 20
404.6874889583344
 10
678.2632122903285
 20
404.4689120642367
 10
679.0501319727777
 20
404.309437618058
 10
679.8792377813554
 20
404.2178556825111
 10
680.7132478551664
 20
404.2008697318523
 10
681.5409682904812
 20
404.2561158414065
 10
682.3315696027337
 20
404.3801665635624
 10
683.0713198280648
 20
404.5648494593808
 10
683.7472525759538
 20
404.8040713259085
 10
684.3330334909547
 20
405.0826445603357
 10
684.8175525773756
 20
405.391689831047
 10
685.1795229370261
 20
405.712738003172
 10
685.4054420211332
 20
406.0298916418679
 10
685.4925691499877
 20
406.3328454812323
 10
685.4380968414334
 20
406.6065438839215
 10
685.2482527103179
 20
406.8497391793383
 10
684.9277071213462
 20
407.0572111311858
 10
684.487196270147
 20
407.228889028616
 10
683.9282756510804
 20
407.366871749286
 10
683.2733787631994
 20
407.4713659636909
 10
682.5316698609121
 20
407.5459446146327
 10
681.7306819085949
 20
407.5931505535261
 10
680.4933959577031
 20
407.6181625676418
  0
LINE
  5
3B3C
330
A
100
AcDbEntity
  8
0
  6
Continuous
 62
     7
100
AcDbLine
 10
708.4933959577031
 20
379.9001713984014
 30
0.0
 11
708.4933959577031
 21
407.9320849942672
 31
0.0
  0
LINE
  5
3B3D
330
A
100
AcDbEntity
  8
0
  6
Continuous
 62
     7
100
AcDbLine
 10
672.9933959577031
 20
379.9001713984013
 30
0.0
 11
708.4933959577031
 21
379.9001713984014
 31
0.0
  0
LINE
  5
3B3E
330
A
100
AcDbEntity
  8
0
  6
Continuous
 62
     7
100
AcDbLine
 10
708.4933959577031
 20
374.9761326333403
 30
0.0
 11
672.9933959577031
 21
374.9761326333402
 31
0.0
  0
LINE
  5
3B3F
330
A
100
AcDbEntity
  8
0
  6
Continuous
 62
     7
100
AcDbLine
 10
672.9933959577031
 20
374.9761326333402
 30
0.0
 11
672.9933959577031
 21
374.9237984611775
 31
0.0
  0
LINE
  5
3B40
330
A
100
AcDbEntity
  8
0
  6
Continuous
 62
     7
100
AcDbLine
 10
653.4933959577029
 20
374.9237984611775
 30
0.0
 11
672.9933959577031
 21
374.9237984611775
 31
0.0
  0
LINE
  5
3B41
330
A
100
AcDbEntity
  8
0
  6
Continuous
 62
     7
100
AcDbLine
 10
653.4933959577029
 20
375.2323302722461
 30
0.0
 11
708.4933959577031
 21
375.2323302722463
 31
0.0
  0
LINE
  5
3B42
330
A
100
AcDbEntity
  8
0
  6
Continuous
 62
     7
100
AcDbLine
 10
708.4933959577031
 20
374.9761326333403
 30
0.0
 11
708.4933959577031
 21
375.2323302722463
 31
0.0
  0
LINE
  5
3B43
330
A
100
AcDbEntity
  8
0
  6
Continuous
 62
     7
100
AcDbLine
 10
653.4933959577029
 20
374.9237984611775
 30
0.0
 11
653.4933959577029
 21
375.2323302722461
 31
0.0
  0
LINE
  5
3B44
330
A
100
AcDbEntity
  8
0
  6
Continuous
 62
     7
100
AcDbLine
 10
661.4933959577029
 20
365.4709644901688
 30
0.0
 11
653.4933959577029
 21
365.4709644901688
 31
0.0
  0
LINE
  5
3B45
330
A
100
AcDbEntity
  8
0
  6
Continuous
 62
     7
100
AcDbLine
 10
661.4933959577029
 20
365.4709644901688
 30
0.0
 11
661.4933959577029
 21
372.3991677204441
 31
0.0
  0
LINE
  5
3B46
330
A
100
AcDbEntity
  8
0
  6
Continuous
 62
     7
100
AcDbLine
 10
661.4933959577029
 20
372.3991677204441
 30
0.0
 11
653.4933959577029
 21
372.3991677204441
 31
0.0
  0
LINE
  5
3B47
330
A
100
AcDbEntity
  8
0
  6
Continuous
 62
     7
100
AcDbLine
 10
653.4933959577029
 20
363.48331410568
 30
0.0
 11
672.9933959577031
 21
363.4833141056802
 31
0.0
  0
LINE
  5
3B48
330
A
100
AcDbEntity
  8
0
  6
Continuous
 62
     7
100
AcDbLine
 10
672.9933959577031
 20
363.4833141056802
 30
0.0
 11
672.9933959577031
 21
374.9237984611775
 31
0.0
  0
LINE
  5
3B49
330
A
100
AcDbEntity
  8
0
  6
Continuous
 62
     7
100
AcDbLine
 10
653.4933959577029
 20
372.3991677204441
 30
0.0
 11
653.4933959577029
 21
374.9237984611775
 31
0.0
  0
LINE
  5
3B4A
330
A
100
AcDbEntity
  8
0
  6
Continuous
 62
     7
100
AcDbLine
 10
653.4933959577029
 20
363.48331410568
 30
0.0
 11
653.4933959577029
 21
365.4709644901688
 31
0.0
  0
LINE
  5
3B4B
330
A
100
AcDbEntity
  8
0
  6
Continuous
 62
     7
100
AcDbLine
 10
672.9933959577031
 20
363.7141849521766
 30
0.0
 11
708.4933959577031
 21
363.7141849521767
 31
0.0
  0
LINE
  5
3B4C
330
A
100
AcDbEntity
  8
0
  6
Continuous
 62
     7
100
AcDbLine
 10
708.4933959577031
 20
363.7141849521767
 30
0.0
 11
708.4933959577031
 21
374.9761326333403
 31
0.0
  0
LINE
  5
3B4D
330
A
100
AcDbEntity
  8
0
  6
Continuous
 62
     7
100
AcDbLine
 10
653.4933959577029
 20
375.2556421779894
 30
0.0
 11
708.4933959577031
 21
375.2556421779894
 31
0.0
  0
LINE
  5
3B4E
330
A
100
AcDbEntity
  8
0
  6
Continuous
 62
     7
100
AcDbLine
 10
708.4933959577031
 20
375.2323302722463
 30
0.0
 11
708.4933959577031
 21
375.2556421779894
 31
0.0
  0
LINE
  5
3B4F
330
A
100
AcDbEntity
  8
0
  6
Continuous
 62
     7
100
AcDbLine
 10
653.4933959577029
 20
375.2323302722461
 30
0.0
 11
653.4933959577029
 21
375.2556421779894
 31
0.0
  0
LINE
  5
3B50
330
A
100
AcDbEntity
  8
0
  6
Continuous
 62
     7
100
AcDbLine
 10
661.493395957703
 20
367.4679833791293
 30
0.0
 11
653.4933959577029
 21
367.4679833791293
 31
0.0
  0
LINE
  5
3B51
330
A
100
AcDbEntity
  8
0
  6
Continuous
 62
     7
100
AcDbLine
 10
653.4933959577029
 20
372.3991677204441
 30
0.0
 11
653.4933959577029
 21
367.4679833791293
 31
0.0
  0
LINE
  5
3B52
330
A
100
AcDbEntity
  8
0
  6
Continuous
 62
     7
100
AcDbLine
 10
708.4933959577031
 20
375.2556421779894
 30
0.0
 11
708.4933959577031
 21
379.9001713984014
 31
0.0
  0
LINE
  5
3B53
330
A
100
AcDbEntity
  8
0
  6
Continuous
 62
     7
100
AcDbLine
 10
653.4933959577029
 20
375.2556421779894
 30
0.0
 11
653.4933959577029
 21
379.8478372262386
 31
0.0
  0
LINE
  5
3B54
330
A
100
AcDbEntity
  8
0
  6
Continuous
 62
     7
100
AcDbLine
 10
653.4933959577029
 20
367.4679833791293
 30
0.0
 11
653.4933959577029
 21
365.4709644901688
 31
0.0
  0
LINE
  5
3B55
330
A
100
AcDbEntity
  8
0
  6
Continuous
 62
     7
100
AcDbLine
 10
708.4933959577031
 20
360.5002469037438
 30
0.0
 11
672.9933959577031
 21
360.5002469037438
 31
0.0
  0
LINE
  5
3B56
330
A
100
AcDbEntity
  8
0
  6
Continuous
 62
     7
100
AcDbLine
 10
672.9933959577031
 20
360.5002469037438
 30
0.0
 11
672.9933959577031
 21
360.2693760572476
 31
0.0
  0
LINE
  5
3B57
330
A
100
AcDbEntity
  8
0
  6
Continuous
 62
     7
100
AcDbLine
 10
653.4933959577029
 20
360.2693760572476
 30
0.0
 11
672.9933959577031
 21
360.2693760572476
 31
0.0
  0
LINE
  5
3B58
330
A
100
AcDbEntity
  8
0
  6
Continuous
 62
     7
100
AcDbLine
 10
653.4933959577029
 20
361.6304561593831
 30
0.0
 11
708.4933959577031
 21
361.6304561593832
 31
0.0
  0
LINE
  5
3B59
330
A
100
AcDbEntity
  8
0
  6
Continuous
 62
     7
100
AcDbLine
 10
708.4933959577031
 20
360.5002469037438
 30
0.0
 11
708.4933959577031
 21
361.6304561593832
 31
0.0
  0
LINE
  5
3B5A
330
A
100
AcDbEntity
  8
0
  6
Continuous
 62
     7
100
AcDbLine
 10
653.4933959577029
 20
360.2693760572476
 30
0.0
 11
653.4933959577029
 21
361.6304561593831
 31
0.0
  0
LINE
  5
3B5B
330
A
100
AcDbEntity
  8
0
  6
Continuous
 62
     7
100
AcDbLine
 10
672.9933959577031
 20
359.3399117353664
 30
0.0
 11
653.4933959577029
 21
359.3399117353664
 31
0.0
  0
LINE
  5
3B5C
330
A
100
AcDbEntity
  8
0
  6
Continuous
 62
     7
100
AcDbLine
 10
672.9933959577031
 20
359.3399117353664
 30
0.0
 11
672.9933959577031
 21
360.2693760572476
 31
0.0
  0
LINE
  5
3B5D
330
A
100
AcDbEntity
  8
0
  6
Continuous
 62
     7
100
AcDbLine
 10
653.4933959577029
 20
359.3399117353664
 30
0.0
 11
653.4933959577029
 21
360.2693760572476
 31
0.0
  0
LINE
  5
3B5E
330
A
100
AcDbEntity
  8
0
  6
Continuous
 62
     7
100
AcDbLine
 10
708.4933959577031
 20
355.9320849942673
 30
0.0
 11
708.4933959577031
 21
360.5002469037438
 31
0.0
  0
LWPOLYLINE
  5
3B5F
330
A
100
AcDbEntity
  8
0
  6
Continuous
 62
     7
100
AcDbPolyline
 90
       10
 70
   128
 43
0.0
 10
680.4933959577031
 20
407.1483162572488
 10
681.2755682829042
 20
407.1272620796777
 10
682.0384809295778
 20
407.0646179706908
 10
682.7633484564005
 20
406.9619264361555
 10
683.4323222191653
 20
406.8217160824655
 10
684.0289298636357
 20
406.6474393538602
 10
684.5384809295778
 20
406.4433875217893
 10
684.9484285786449
 20
406.2145850195675
 10
685.2486785391788
 20
405.9666657241514
 10
685.3303771855999
 20
405.8713287354565
  0
LWPOLYLINE
  5
3B60
330
A
100
AcDbEntity
  8
0
  6
Continuous
 62
     7
100
AcDbPolyline
 90
       10
 70
   128
 43
0.0
 10
675.6600513644814
 20
405.8760520955163
 10
675.7381133762273
 20
405.9666657241514
 10
676.0383633367612
 20
406.2145850195675
 10
676.4483109858286
 20
406.4433875217893
 10
676.9578620517702
 20
406.6474393538603
 10
677.5544696962408
 20
406.8217160824655
 10
678.2234434590052
 20
406.9619264361555
 10
678.9483109858283
 20
407.0646179706908
 10
679.7112236325017
 20
407.1272620796777
 10
680.4933959577031
 20
407.1483162572488
  0
LINE
  5
3B61
330
A
100
AcDbEntity
  8
0
  6
Continuous
 62
     7
100
AcDbLine
 10
672.9933959577031
 20
356.7628577514614
 30
0.0
 11
653.4933959577029
 21
356.7628577514613
 31
0.0
  0
LINE
  5
3B62
330
A
100
AcDbEntity
  8
0
  6
Continuous
 62
     7
100
AcDbLine
 10
672.9933959577031
 20
356.7628577514614
 30
0.0
 11
672.9933959577031
 21
359.3399117353664
 31
0.0
  0
LINE
  5
3B63
330
A
100
AcDbEntity
  8
0
  6
Continuous
 62
     7
100
AcDbLine
 10
653.4933959577029
 20
356.7628577514613
 30
0.0
 11
653.4933959577029
 21
359.3399117353664
 31
0.0
  0
LWPOLYLINE
  5
3B64
330
A
100
AcDbEntity
  8
0
  6
Continuous
 62
     7
100
AcDbPolyline
 90
       29
 70
   128
 43
0.0
 10
680.4933959577031
 20
406.2932658989346
 10
681.049698292594
 20
406.271828001262
 10
681.5781053054968
 20
406.2085892939502
 10
682.0521204623498
 20
406.106720829846
 10
682.4479746638733
 20
405.971330719105
 10
682.745818127459
 20
405.8092079872196
 10
682.9307157381574
 20
405.6284821449322
 10
682.9933959577031
 20
405.4382155406204
 10
682.9307157381574
 20
405.2479489363086
 10
682.745818127459
 20
405.0672230940213
 10
682.4479746638733
 20
404.9051003621358
 10
682.0521204623498
 20
404.7697102513949
 10
681.5781053054968
 20
404.6678417872906
 10
681.049698292594
 20
404.6046030799788
 10
680.4933959577031
 20
404.5831651823062
 10
679.9370936228122
 20
404.6046030799788
 10
679.4086866099092
 20
404.6678417872906
 10
678.9346714530563
 20
404.7697102513949
 10
678.5388172515329
 20
404.9051003621358
 10
678.2409737879468
 20
405.0672230940214
 10
678.0560761772483
 20
405.2479489363086
 10
677.993395957703
 20
405.4382155406204
 10
678.0560761772488
 20
405.6284821449322
 10
678.240973787947
 20
405.8092079872196
 10
678.5388172515329
 20
405.971330719105
 10
678.9346714530563
 20
406.106720829846
 10
679.4086866099092
 20
406.2085892939502
 10
679.9370936228122
 20
406.271828001262
 10
680.4933959577031
 20
406.2932658989346
  0
LINE
  5
3B65
330
A
100
AcDbEntity
  8
0
  6
Continuous
 62
     7
100
AcDbLine
 10
708.4933959577031
 20
361.6304561593832
 30
0.0
 11
708.4933959577031
 21
363.7141849521767
 31
0.0
  0
LINE
  5
3B66
330
A
100
AcDbEntity
  8
0
  6
Continuous
 62
     7
100
AcDbLine
 10
653.4933959577029
 20
361.6304561593831
 30
0.0
 11
653.4933959577029
 21
363.48331410568
 31
0.0
  0
LINE
  5
3B67
330
A
100
AcDbEntity
  8
0
  6
Continuous
 62
     7
100
AcDbLine
 10
653.7437715202592
 20
407.9261227721884
 30
0.0
 11
653.4933959577029
 21
407.9261227721884
 31
0.0
  0
LINE
  5
3B68
330
A
100
AcDbEntity
  8
0
  6
Continuous
 62
     7
100
AcDbLine
 10
653.4933959577029
 20
407.7180534726691
 30
0.0
 11
653.4933959577029
 21
407.9261227721884
 31
0.0
  0
LINE
  5
3B69
330
A
100
AcDbEntity
  8
0
  6
Continuous
 62
     7
100
AcDbLine
 10
672.9933959577031
 20
347.990959497313
 30
0.0
 11
655.2254467652717
 21
347.990959497313
 31
0.0
  0
LWPOLYLINE
  5
3B6A
330
A
100
AcDbEntity
  8
0
  6
Continuous
 62
     7
100
AcDbPolyline
 90
        3
 70
   128
 43
0.0
 10
653.4933959577029
 20
351.1912326963884
 10
654.5682871511282
 20
349.2007125853977
 10
655.2254467652717
 20
347.990959497313
  0
LINE
  5
3B6B
330
A
100
AcDbEntity
  8
0
  6
Continuous
 62
     7
100
AcDbLine
 10
672.9933959577031
 20
347.990959497313
 30
0.0
 11
672.9933959577031
 21
356.7628577514614
 31
0.0
  0
LINE
  5
3B6C
330
A
100
AcDbEntity
  8
0
  6
Continuous
 62
     7
100
AcDbLine
 10
653.4933959577029
 20
351.1912326963884
 30
0.0
 11
653.4933959577029
 21
356.7628577514613
 31
0.0
  0
LINE
  5
3B6D
330
A
100
AcDbEntity
  8
0
  6
Continuous
 62
     7
100
AcDbLine
 10
668.8933959577028
 20
346.2809980543154
 30
0.0
 11
663.4933959577031
 21
346.2809980543154
 31
0.0
  0
LINE
  5
3B6E
330
A
100
AcDbEntity
  8
0
  6
Continuous
 62
     7
100
AcDbLine
 10
663.4933959577028
 20
346.8322274446987
 30
0.0
 11
658.4933959577028
 21
346.8322274446987
 31
0.0
  0
LINE
  5
3B6F
330
A
100
AcDbEntity
  8
0
  6
Continuous
 62
     7
100
AcDbLine
 10
655.2254467652717
 20
346.1549973542706
 30
0.0
 11
658.4933959577028
 21
346.1549973542706
 31
0.0
  0
LINE
  5
3B70
330
A
100
AcDbEntity
  8
0
  6
Continuous
 62
     7
100
AcDbLine
 10
655.2254467652717
 20
346.1549973542706
 30
0.0
 11
655.2254467652717
 21
347.990959497313
 31
0.0
  0
LINE
  5
3B71
330
A
100
AcDbEntity
  8
0
  6
Continuous
 62
     7
100
AcDbLine
 10
672.9933959577031
 20
345.9320849942671
 30
0.0
 11
672.9933959577031
 21
347.990959497313
 31
0.0
  0
LWPOLYLINE
  5
3B72
330
A
100
AcDbEntity
  8
0
  6
Continuous
 62
     7
100
AcDbPolyline
 90
        3
 70
   128
 43
0.0
 10
653.4933959577029
 20
349.1754062859487
 10
653.9204048289696
 20
348.4304330990353
 10
655.2254467652717
 20
346.1549973542706
  0
LINE
  5
3B73
330
A
100
AcDbEntity
  8
0
  6
Continuous
 62
     7
100
AcDbLine
 10
653.4933959577029
 20
349.1754062859487
 30
0.0
 11
653.4933959577029
 21
351.1912326963884
 31
0.0
  0
LINE
  5
3B74
330
A
100
AcDbEntity
  8
0
  6
Continuous
 62
     7
100
AcDbLine
 10
658.4933959577031
 20
339.9320849942671
 30
0.0
 11
658.4933959577031
 21
346.8322274446987
 31
0.0
  0
LINE
  5
3B75
330
A
100
AcDbEntity
  8
0
  6
Continuous
 62
     7
100
AcDbLine
 10
663.4933959577031
 20
339.9320849942671
 30
0.0
 11
658.4933959577031
 21
339.9320849942671
 31
0.0
  0
LINE
  5
3B76
330
A
100
AcDbEntity
  8
0
  6
Continuous
 62
     7
100
AcDbLine
 10
663.4933959577031
 20
346.8322274446987
 30
0.0
 11
663.4933959577031
 21
339.9320849942671
 31
0.0
  0
LINE
  5
3B77
330
A
100
AcDbEntity
  8
0
  6
Continuous
 62
     7
100
AcDbLine
 10
668.8933959577032
 20
346.2809980543154
 30
0.0
 11
668.8933959577032
 21
339.9320849942672
 31
0.0
  0
LINE
  5
3B78
330
A
100
AcDbEntity
  8
0
  6
Continuous
 62
     7
100
AcDbLine
 10
668.8933959577032
 20
339.9320849942672
 30
0.0
 11
663.4933959577031
 21
339.9320849942672
 31
0.0
  0
LINE
  5
3B79
330
A
100
AcDbEntity
  8
0
  6
Continuous
 62
     7
100
AcDbLine
 10
650.4933959577031
 20
339.9320849942672
 30
0.0
 11
650.4933959577031
 21
348.9320849942672
 31
0.0
  0
LINE
  5
3B7A
330
A
100
AcDbEntity
  8
0
  6
Continuous
 62
     7
100
AcDbLine
 10
650.4933959577031
 20
348.9320849942672
 30
0.0
 11
652.4933959577031
 21
348.9320849942672
 31
0.0
  0
LINE
  5
3B7B
330
A
100
AcDbEntity
  8
0
  6
Continuous
 62
     7
100
AcDbLine
 10
652.4933959577031
 20
348.9320849942672
 30
0.0
 11
652.4933959577031
 21
350.9320849942672
 31
0.0
  0
LINE
  5
3B7C
330
A
100
AcDbEntity
  8
0
  6
Continuous
 62
     7
100
AcDbLine
 10
652.4933959577031
 20
350.9320849942672
 30
0.0
 11
650.4933959577031
 21
350.9320849942672
 31
0.0
  0
LINE
  5
3B7D
330
A
100
AcDbEntity
  8
0
  6
Continuous
 62
     7
100
AcDbLine
 10
650.4933959577031
 20
350.9320849942672
 30
0.0
 11
650.4933959577031
 21
359.9320849942673
 31
0.0
  0
LINE
  5
3B7E
330
A
100
AcDbEntity
  8
0
  6
Continuous
 62
     7
100
AcDbLine
 10
658.4933959577031
 20
339.9320849942672
 30
0.0
 11
650.4933959577031
 21
339.9320849942672
 31
0.0
  0
LINE
  5
3B7F
330
A
100
AcDbEntity
  8
0
  6
Continuous
 62
     7
100
AcDbLine
 10
650.4933959577031
 20
359.9320849942673
 30
0.0
 11
653.4933959577031
 21
359.9320849942673
 31
0.0
  0
LINE
  5
3B80
330
A
100
AcDbEntity
  8
0
  6
Continuous
 62
     7
100
AcDbLine
 10
663.4933959577031
 20
396.0038817639914
 30
0.0
 11
658.4933959577028
 21
396.0038817639913
 31
0.0
  0
LINE
  5
3B81
330
A
100
AcDbEntity
  8
0
  6
Continuous
 62
     7
100
AcDbLine
 10
658.4933959577028
 20
396.0038817639913
 30
0.0
 11
658.4933959577028
 21
399.4679833791293
 31
0.0
  0
LINE
  5
3B82
330
A
100
AcDbEntity
  8
0
  6
Continuous
 62
     7
100
AcDbLine
 10
658.4933959577028
 20
399.4679833791293
 30
0.0
 11
650.4933959577028
 21
399.4679833791293
 31
0.0
  0
LINE
  5
3B83
330
A
100
AcDbEntity
  8
0
  6
Continuous
 62
     7
100
AcDbLine
 10
650.4933959577028
 20
399.4679833791293
 30
0.0
 11
650.4933959577028
 21
406.3961866094047
 31
0.0
  0
LINE
  5
3B84
330
A
100
AcDbEntity
  8
0
  6
Continuous
 62
     7
100
AcDbLine
 10
658.4933959577028
 20
406.3961866094047
 30
0.0
 11
650.4933959577028
 21
406.3961866094047
 31
0.0
  0
LINE
  5
3B85
330
A
100
AcDbEntity
  8
0
  6
Continuous
 62
     7
100
AcDbLine
 10
658.4933959577028
 20
406.3961866094047
 30
0.0
 11
658.4933959577028
 21
409.8602882245424
 31
0.0
  0
LINE
  5
3B86
330
A
100
AcDbEntity
  8
0
  6
Continuous
 62
     7
100
AcDbLine
 10
663.4933959577031
 20
409.8602882245424
 30
0.0
 11
658.4933959577028
 21
409.8602882245424
 31
0.0
  0
LINE
  5
3B87
330
A
100
AcDbEntity
  8
0
  6
Continuous
 62
     7
100
AcDbLine
 10
663.4933959577031
 20
407.2622120131891
 30
0.0
 11
663.4933959577031
 21
409.8602882245424
 31
0.0
  0
LINE
  5
3B88
330
A
100
AcDbEntity
  8
0
  6
Continuous
 62
     7
100
AcDbLine
 10
668.8933959577029
 20
407.2622120131891
 30
0.0
 11
663.4933959577031
 21
407.2622120131891
 31
0.0
  0
LINE
  5
3B89
330
A
100
AcDbEntity
  8
0
  6
Continuous
 62
     7
100
AcDbLine
 10
668.8933959577028
 20
398.6019579753448
 30
0.0
 11
668.8933959577029
 21
407.2622120131891
 31
0.0
  0
LINE
  5
3B8A
330
A
100
AcDbEntity
  8
0
  6
Continuous
 62
     7
100
AcDbLine
 10
663.4933959577031
 20
398.6019579753448
 30
0.0
 11
668.8933959577028
 21
398.6019579753448
 31
0.0
  0
LINE
  5
3B8B
330
A
100
AcDbEntity
  8
0
  6
Continuous
 62
     7
100
AcDbLine
 10
663.4933959577031
 20
396.0038817639914
 30
0.0
 11
663.4933959577031
 21
398.6019579753448
 31
0.0
  0
LINE
  5
3B8C
330
A
100
AcDbEntity
  8
0
  6
Continuous
 62
     7
100
AcDbLine
 10
658.4933959577028
 20
396.0038817639913
 30
0.0
 11
658.4933959577028
 21
392.5538105387756
 31
0.0
  0
LINE
  5
3B8D
330
A
100
AcDbEntity
  8
0
  6
Continuous
 62
     7
100
AcDbLine
 10
663.4933959577031
 20
392.5538105387756
 30
0.0
 11
663.4933959577031
 21
396.0038817639914
 31
0.0
  0
LINE
  5
3B8E
330
A
100
AcDbEntity
  8
0
  6
Continuous
 62
     7
100
AcDbLine
 10
668.8933959577029
 20
395.427501445321
 30
0.0
 11
668.8933959577028
 21
398.6019579753448
 31
0.0
  0
LINE
  5
3B8F
330
A
100
AcDbEntity
  8
0
  6
Continuous
 62
     7
100
AcDbLine
 10
650.4933959577031
 20
393.9679833791292
 30
0.0
 11
650.4933959577031
 21
389.4679833791294
 31
0.0
  0
LINE
  5
3B90
330
A
100
AcDbEntity
  8
0
  6
Continuous
 62
     7
100
AcDbLine
 10
652.4933959577031
 20
393.9679833791292
 30
0.0
 11
650.4933959577031
 21
393.9679833791292
 31
0.0
  0
LINE
  5
3B91
330
A
100
AcDbEntity
  8
0
  6
Continuous
 62
     7
100
AcDbLine
 10
652.4933959577031
 20
394.9679833791293
 30
0.0
 11
652.4933959577031
 21
393.9679833791292
 31
0.0
  0
LINE
  5
3B92
330
A
100
AcDbEntity
  8
0
  6
Continuous
 62
     7
100
AcDbLine
 10
650.4933959577031
 20
394.9679833791293
 30
0.0
 11
652.4933959577031
 21
394.9679833791293
 31
0.0
  0
LINE
  5
3B93
330
A
100
AcDbEntity
  8
0
  6
Continuous
 62
     7
100
AcDbLine
 10
650.4933959577028
 20
399.4679833791293
 30
0.0
 11
650.4933959577031
 21
394.9679833791293
 31
0.0
  0
LINE
  5
3B94
330
A
100
AcDbEntity
  8
0
  6
Continuous
 62
     7
100
AcDbLine
 10
650.4933959577031
 20
389.4679833791294
 30
0.0
 11
653.4933959577031
 21
389.4679833791294
 31
0.0
  0
LINE
  5
3B95
330
A
100
AcDbEntity
  8
0
  6
Continuous
 62
     7
100
AcDbLine
 10
650.4933959577031
 20
393.9679833791292
 30
0.0
 11
650.4933959577031
 21
394.9679833791293
 31
0.0
  0
ARC
  5
3B96
330
A
100
AcDbEntity
  8
0
  6
Continuous
 62
     7
100
AcDbCircle
 10
807.470745681179
 20
381.9320849942672
 30
0.0
 40
25.99999999999999
100
AcDbArc
 50
235.5177343737779
 51
304.4822656262221
  0
LINE
  5
3B97
330
A
100
AcDbEntity
  8
0
  6
Continuous
 62
     7
100
AcDbLine
 10
792.750816467301
 20
360.5002469037438
 30
0.0
 11
793.6991746368605
 21
361.6304561593832
 31
0.0
  0
LINE
  5
3B98
330
A
100
AcDbEntity
  8
0
  6
Continuous
 62
     7
100
AcDbLine
 10
793.6991746368605
 20
361.6304561593832
 30
0.0
 11
794.4951852666833
 21
361.4900980084148
 31
0.0
  0
LINE
  5
3B99
330
A
100
AcDbEntity
  8
0
  6
Continuous
 62
     7
100
AcDbLine
 10
794.4951852666833
 20
361.4900980084148
 30
0.0
 11
796.8734994225235
 21
364.324462447955
 31
0.0
  0
LINE
  5
3B9A
330
A
100
AcDbEntity
  8
0
  6
Continuous
 62
     7
100
AcDbLine
 10
796.8734994225235
 20
364.324462447955
 30
0.0
 11
791.9708149865621
 21
368.4383031499488
 31
0.0
  0
LINE
  5
3B9B
330
A
100
AcDbEntity
  8
0
  6
Continuous
 62
     7
100
AcDbLine
 10
791.9708149865621
 20
368.4383031499488
 30
0.0
 11
789.5925008307219
 21
365.6039387104086
 31
0.0
  0
LINE
  5
3B9C
330
A
100
AcDbEntity
  8
0
  6
Continuous
 62
     7
100
AcDbLine
 10
789.5925008307219
 20
365.6039387104086
 30
0.0
 11
789.8689524212661
 21
364.8443942078159
 31
0.0
  0
LINE
  5
3B9D
330
A
100
AcDbEntity
  8
0
  6
Continuous
 62
     7
100
AcDbLine
 10
789.8689524212661
 20
364.8443942078159
 30
0.0
 11
788.920594251706
 21
363.7141849521767
 31
0.0
  0
ARC
  5
3B9E
330
A
100
AcDbEntity
  8
0
  6
Continuous
 62
     7
100
AcDbCircle
 10
807.470745681179
 20
381.9320849942672
 30
0.0
 40
26.0
100
AcDbArc
 50
195.5177343737814
 51
224.482265626224
  0
LINE
  5
3B9F
330
A
100
AcDbEntity
  8
0
  6
Continuous
 62
     7
100
AcDbLine
 10
782.4185057263867
 20
374.9761326333403
 30
0.0
 11
783.8714747381425
 21
375.2323302722463
 31
0.0
  0
LINE
  5
3BA0
330
A
100
AcDbEntity
  8
0
  6
Continuous
 62
     7
100
AcDbLine
 10
783.8714747381425
 20
375.2323302722463
 30
0.0
 11
784.3910337774206
 21
374.6131439206217
 31
0.0
  0
LINE
  5
3BA1
330
A
100
AcDbEntity
  8
0
  6
Continuous
 62
     7
100
AcDbLine
 10
784.3910337774206
 20
374.6131439206217
 30
0.0
 11
788.0348224635656
 21
375.2556421779894
 31
0.0
  0
LINE
  5
3BA2
330
A
100
AcDbEntity
  8
0
  6
Continuous
 62
     7
100
AcDbLine
 10
788.0348224635656
 20
375.2556421779894
 30
0.0
 11
786.9234741264975
 21
381.5584117972676
 31
0.0
  0
LINE
  5
3BA3
330
A
100
AcDbEntity
  8
0
  6
Continuous
 62
     7
100
AcDbLine
 10
786.9234741264975
 20
381.5584117972676
 30
0.0
 11
783.2796854403523
 21
380.9159135399
 31
0.0
  0
LINE
  5
3BA4
330
A
100
AcDbEntity
  8
0
  6
Continuous
 62
     7
100
AcDbLine
 10
783.2796854403523
 20
380.9159135399
 30
0.0
 11
783.0032338498079
 21
380.1563690373072
 31
0.0
  0
LINE
  5
3BA5
330
A
100
AcDbEntity
  8
0
  6
Continuous
 62
     7
100
AcDbLine
 10
783.0032338498079
 20
380.1563690373072
 30
0.0
 11
781.5502648380522
 21
379.9001713984014
 31
0.0
  0
ARC
  5
3BA6
330
A
100
AcDbEntity
  8
0
  6
Continuous
 62
     7
100
AcDbCircle
 10
807.470745681179
 20
381.9320849942672
 30
0.0
 40
25.99999999999997
100
AcDbArc
 50
355.5177343737817
 51
184.4822656262215
  0
LINE
  5
3BA7
330
A
100
AcDbEntity
  8
0
  6
Continuous
 62
     7
100
AcDbLine
 10
831.9382575125507
 20
380.1563690373072
 30
0.0
 11
833.3912265243068
 21
379.9001713984014
 31
0.0
  0
LINE
  5
3BA8
330
A
100
AcDbEntity
  8
0
  6
Continuous
 62
     7
100
AcDbLine
 10
831.6618059220065
 20
380.9159135399
 30
0.0
 11
831.9382575125507
 21
380.1563690373072
 31
0.0
  0
LINE
  5
3BA9
330
A
100
AcDbEntity
  8
0
  6
Continuous
 62
     7
100
AcDbLine
 10
828.0180172358612
 20
381.5584117972676
 30
0.0
 11
831.6618059220065
 21
380.9159135399
 31
0.0
  0
LINE
  5
3BAA
330
A
100
AcDbEntity
  8
0
  6
Continuous
 62
     7
100
AcDbLine
 10
826.906668898793
 20
375.2556421779894
 30
0.0
 11
828.0180172358612
 21
381.5584117972676
 31
0.0
  0
LINE
  5
3BAB
330
A
100
AcDbEntity
  8
0
  6
Continuous
 62
     7
100
AcDbLine
 10
830.5504575849383
 20
374.6131439206217
 30
0.0
 11
826.906668898793
 21
375.2556421779894
 31
0.0
  0
LINE
  5
3BAC
330
A
100
AcDbEntity
  8
0
  6
Continuous
 62
     7
100
AcDbLine
 10
831.0700166242162
 20
375.2323302722463
 30
0.0
 11
830.5504575849383
 21
374.6131439206217
 31
0.0
  0
LINE
  5
3BAD
330
A
100
AcDbEntity
  8
0
  6
Continuous
 62
     7
100
AcDbLine
 10
832.5229856359722
 20
374.9761326333403
 30
0.0
 11
831.0700166242162
 21
375.2323302722463
 31
0.0
  0
ARC
  5
3BAE
330
A
100
AcDbEntity
  8
0
  6
Continuous
 62
     7
100
AcDbCircle
 10
807.470745681179
 20
381.9320849942672
 30
0.0
 40
26.0
100
AcDbArc
 50
315.517734373776
 51
344.4822656262186
  0
LINE
  5
3BAF
330
A
100
AcDbEntity
  8
0
  6
Continuous
 62
     7
100
AcDbLine
 10
825.0725389410927
 20
364.8443942078159
 30
0.0
 11
826.0208971106528
 21
363.7141849521767
 31
0.0
  0
LINE
  5
3BB0
330
A
100
AcDbEntity
  8
0
  6
Continuous
 62
     7
100
AcDbLine
 10
825.3489905316371
 20
365.6039387104086
 30
0.0
 11
825.0725389410927
 21
364.8443942078159
 31
0.0
  0
LINE
  5
3BB1
330
A
100
AcDbEntity
  8
0
  6
Continuous
 62
     7
100
AcDbLine
 10
822.9706763757967
 20
368.4383031499488
 30
0.0
 11
825.3489905316371
 21
365.6039387104086
 31
0.0
  0
LINE
  5
3BB2
330
A
100
AcDbEntity
  8
0
  6
Continuous
 62
     7
100
AcDbLine
 10
818.0679919398356
 20
364.324462447955
 30
0.0
 11
822.9706763757967
 21
368.4383031499488
 31
0.0
  0
LINE
  5
3BB3
330
A
100
AcDbEntity
  8
0
  6
Continuous
 62
     7
100
AcDbLine
 10
820.4463060956756
 20
361.4900980084148
 30
0.0
 11
818.0679919398356
 21
364.324462447955
 31
0.0
  0
LINE
  5
3BB4
330
A
100
AcDbEntity
  8
0
  6
Continuous
 62
     7
100
AcDbLine
 10
821.2423167254979
 20
361.6304561593832
 30
0.0
 11
820.4463060956756
 21
361.4900980084148
 31
0.0
  0
LINE
  5
3BB5
330
A
100
AcDbEntity
  8
0
  6
Continuous
 62
     7
100
AcDbLine
 10
822.1906748950578
 20
360.5002469037438
 30
0.0
 11
821.2423167254979
 21
361.6304561593832
 31
0.0
  0
CIRCLE
  5
3BB6
330
A
100
AcDbEntity
  8
0
  6
Continuous
 62
     7
100
AcDbCircle
 10
807.470745681179
 20
381.9320849942672
 30
0.0
 40
17.0
  0
CIRCLE
  5
3BB7
330
A
100
AcDbEntity
  8
0
  6
Continuous
 62
     7
100
AcDbCircle
 10
807.470745681179
 20
403.9320849942672
 30
0.0
 40
2.25
  0
ARC
  5
3BB8
330
A
100
AcDbEntity
  8
DIM
100
AcDbCircle
 10
807.470745681179
 20
359.9320849942673
 30
0.0
 40
2.0
100
AcDbArc
 50
90.0
 51
2.605251265057991
  0
CIRCLE
  5
3BB9
330
A
100
AcDbEntity
  8
0
  6
Continuous
 62
     7
100
AcDbCircle
 10
788.4181867979219
 20
370.9320849942671
 30
0.0
 40
2.249999999999986
  0
CIRCLE
  5
3BBA
330
A
100
AcDbEntity
  8
0
  6
Continuous
 62
     7
100
AcDbCircle
 10
826.523304564437
 20
370.9320849942674
 30
0.0
 40
2.250000000000037
  0
CIRCLE
  5
3BBB
330
A
100
AcDbEntity
  8
0
  6
Continuous
 62
     7
100
AcDbCircle
 10
799.0517101691475
 20
402.2574347095154
 30
0.0
 40
1.500000000000112
  0
ARC
  5
3BBC
330
A
100
AcDbEntity
  8
0
  6
Continuous
 62
     7
100
AcDbCircle
 10
816.2724646255764
 20
360.6828557465077
 30
0.0
 40
1.500000000000095
100
AcDbArc
 50
202.4999999999972
 51
22.5000000000203
  0
LINE
  5
3BBD
330
A
100
AcDbEntity
  8
0
  6
Continuous
 62
     7
100
AcDbLine
 10
817.6582839243433
 20
361.2568808950553
 30
0.0
 11
816.8929170596131
 21
363.1046399600779
 31
0.0
  0
ARC
  5
3BBE
330
A
100
AcDbEntity
  8
0
  6
Continuous
 62
     7
100
AcDbCircle
 10
815.5070977608462
 20
362.5306148115302
 30
0.0
 40
1.500000000000116
100
AcDbArc
 50
22.49999999999726
 51
202.5000000000233
  0
LINE
  5
3BBF
330
A
100
AcDbEntity
  8
0
  6
Continuous
 62
     7
100
AcDbLine
 10
814.1212784620796
 20
361.9565896629826
 30
0.0
 11
814.8866453268095
 21
360.1088305979601
 31
0.0
  0
ARC
  5
3BC0
330
A
100
AcDbEntity
  8
0
  6
Continuous
 62
     7
100
AcDbCircle
 10
807.4707456811797
 20
381.9320849942672
 30
0.0
 40
26.30000000000007
100
AcDbArc
 50
180.7934984542528
 51
184.5453975118737
  0
ARC
  5
3BC1
330
A
100
AcDbEntity
  8
0
  6
Continuous
 62
     7
100
AcDbCircle
 10
778.1735554952863
 20
381.5263175589037
 30
0.0
 40
3.000000000000081
100
AcDbArc
 50
0.7934984542430709
 51
59.99999999999946
  0
LINE
  5
3BC2
330
A
100
AcDbEntity
  8
0
  6
Continuous
 62
     7
100
AcDbLine
 10
779.6735554952868
 20
384.124393770257
 30
0.0
 11
772.0768687677816
 21
388.5103428973312
 31
0.0
  0
ARC
  5
3BC3
330
A
100
AcDbEntity
  8
0
  6
Continuous
 62
     7
100
AcDbCircle
 10
807.4707456811797
 20
381.9320849942672
 30
0.0
 40
36.00000000000011
100
AcDbArc
 50
130.5287793655114
 51
169.4712206344896
  0
LINE
  5
3BC4
330
A
100
AcDbEntity
  8
0
  6
Continuous
 62
     7
100
AcDbLine
 10
784.0768687677819
 20
409.2949525881577
 30
0.0
 11
791.6735554952867
 21
404.9090034610834
 31
0.0
  0
ARC
  5
3BC5
330
A
100
AcDbEntity
  8
0
  6
Continuous
 62
     7
100
AcDbCircle
 10
793.1735554952868
 20
407.5070796724368
 30
0.0
 40
3.000000000000109
100
AcDbArc
 50
240.0000000000011
 51
299.206501545763
  0
ARC
  5
3BC6
330
A
100
AcDbEntity
  8
0
  6
Continuous
 62
     7
100
AcDbCircle
 10
807.4707456811797
 20
381.9320849942672
 30
0.0
 40
26.29999999999998
100
AcDbArc
 50
60.79349845423704
 51
119.2065015457629
  0
ARC
  5
3BC7
330
A
100
AcDbEntity
  8
0
  6
Continuous
 62
     7
100
AcDbCircle
 10
821.7679358670727
 20
407.5070796724368
 30
0.0
 40
3.000000000000048
100
AcDbArc
 50
240.79349845425
 51
300.0000000000005
  0
LINE
  5
3BC8
330
A
100
AcDbEntity
  8
0
  6
Continuous
 62
     7
100
AcDbLine
 10
823.2679358670729
 20
404.9090034610834
 30
0.0
 11
830.8646225945777
 21
409.2949525881577
 31
0.0
  0
ARC
  5
3BC9
330
A
100
AcDbEntity
  8
0
  6
Continuous
 62
     7
100
AcDbCircle
 10
807.4707456811797
 20
381.9320849942672
 30
0.0
 40
36.00000000000002
100
AcDbArc
 50
10.52877936551035
 51
49.47122063448855
  0
LINE
  5
3BCA
330
A
100
AcDbEntity
  8
0
  6
Continuous
 62
     7
100
AcDbLine
 10
842.8646225945776
 20
388.5103428973312
 30
0.0
 11
835.267935867073
 21
384.124393770257
 31
0.0
  0
ARC
  5
3BCB
330
A
100
AcDbEntity
  8
0
  6
Continuous
 62
     7
100
AcDbCircle
 10
836.7679358670729
 20
381.5263175589037
 30
0.0
 40
2.999999999999966
100
AcDbArc
 50
119.9999999999989
 51
179.2065015457569
  0
ARC
  5
3BCC
330
A
100
AcDbEntity
  8
0
  6
Continuous
 62
     7
100
AcDbCircle
 10
807.4707456811797
 20
381.9320849942672
 30
0.0
 40
26.2999999999999
100
AcDbArc
 50
355.4546024881263
 51
359.2065015457569
  0
LINE
  5
3BCD
330
A
100
AcDbEntity
  8
0
  6
Continuous
 62
     7
100
AcDbLine
 10
781.2534629989211
 20
379.8478372262386
 30
0.0
 11
781.5502648380522
 21
379.9001713984013
 31
0.0
  0
LINE
  5
3BCE
330
A
100
AcDbEntity
  8
0
  6
Continuous
 62
     7
100
AcDbLine
 10
833.6880283634384
 20
379.8478372262386
 30
0.0
 11
833.3912265243073
 21
379.9001713984013
 31
0.0
  0
ARC
  5
3BCF
330
A
100
AcDbEntity
  8
0
  6
Continuous
 62
     7
100
AcDbCircle
 10
807.4707456811797
 20
381.9320849942672
 30
0.0
 40
26.29999999999999
100
AcDbArc
 50
315.4546024881227
 51
344.5453975118738
  0
LINE
  5
3BD0
330
A
100
AcDbEntity
  8
0
  6
Continuous
 62
     7
100
AcDbLine
 10
826.2146207527978
 20
363.4833141056802
 30
0.0
 11
826.0208971106532
 21
363.7141849521766
 31
0.0
  0
LINE
  5
3BD1
330
A
100
AcDbEntity
  8
0
  6
Continuous
 62
     7
100
AcDbLine
 10
832.5229856359726
 20
374.9761326333402
 30
0.0
 11
832.819787475104
 21
374.9237984611775
 31
0.0
  0
ARC
  5
3BD2
330
A
100
AcDbEntity
  8
0
  6
Continuous
 62
     7
100
AcDbCircle
 10
822.4707456811799
 20
356.7628577514614
 30
0.0
 40
3.000000000000006
100
AcDbArc
 50
120.7934984542449
 51
180.0
  0
LINE
  5
3BD3
330
A
100
AcDbEntity
  8
0
  6
Continuous
 62
     7
100
AcDbLine
 10
819.4707456811798
 20
356.7628577514614
 30
0.0
 11
819.4707456811798
 21
347.990959497313
 31
0.0
  0
ARC
  5
3BD4
330
A
100
AcDbEntity
  8
0
  6
Continuous
 62
     7
100
AcDbCircle
 10
807.4707456811797
 20
381.9320849942672
 30
0.0
 40
36.00000000000008
100
AcDbArc
 50
250.5287793655132
 51
289.4712206344868
  0
LINE
  5
3BD5
330
A
100
AcDbEntity
  8
0
  6
Continuous
 62
     7
100
AcDbLine
 10
795.4707456811798
 20
347.990959497313
 30
0.0
 11
795.4707456811798
 21
356.7628577514614
 31
0.0
  0
ARC
  5
3BD6
330
A
100
AcDbEntity
  8
0
  6
Continuous
 62
     7
100
AcDbCircle
 10
792.4707456811797
 20
356.7628577514614
 30
0.0
 40
3.000000000000006
100
AcDbArc
 50
0.0
 51
59.20650154575505
  0
ARC
  5
3BD7
330
A
100
AcDbEntity
  8
0
  6
Continuous
 62
     7
100
AcDbCircle
 10
807.4707456811797
 20
381.9320849942672
 30
0.0
 40
26.30000000000006
100
AcDbArc
 50
235.4546024881298
 51
239.206501545755
  0
ARC
  5
3BD8
330
A
100
AcDbEntity
  8
0
  6
Continuous
 62
     7
100
AcDbCircle
 10
807.4707456811797
 20
381.9320849942672
 30
0.0
 40
26.3
100
AcDbArc
 50
300.793498454245
 51
304.5453975118702
  0
LINE
  5
3BD9
330
A
100
AcDbEntity
  8
0
  6
Continuous
 62
     7
100
AcDbLine
 10
792.750816467301
 20
360.5002469037438
 30
0.0
 11
792.5570928251565
 21
360.2693760572476
 31
0.0
  0
LINE
  5
3BDA
330
A
100
AcDbEntity
  8
0
  6
Continuous
 62
     7
100
AcDbLine
 10
822.1906748950582
 20
360.5002469037438
 30
0.0
 11
822.3843985372029
 21
360.2693760572476
 31
0.0
  0
ARC
  5
3BDB
330
A
100
AcDbEntity
  8
0
  6
Continuous
 62
     7
100
AcDbCircle
 10
807.4707456811797
 20
381.9320849942672
 30
0.0
 40
26.30000000000009
100
AcDbArc
 50
195.4546024881262
 51
224.5453975118773
  0
LINE
  5
3BDC
330
A
100
AcDbEntity
  8
0
  6
Continuous
 62
     7
100
AcDbLine
 10
782.4185057263869
 20
374.9761326333402
 30
0.0
 11
782.1217038872553
 21
374.9237984611775
 31
0.0
  0
LINE
  5
3BDD
330
A
100
AcDbEntity
  8
0
  6
Continuous
 62
     7
100
AcDbLine
 10
788.7268706095617
 20
363.4833141056802
 30
0.0
 11
788.9205942517062
 21
363.7141849521766
 31
0.0
  0
LINE
  5
3BDE
330
A
100
AcDbEntity
  8
0
  6
Continuous
 62
     7
100
AcDbLine
 10
835.8454926437056
 20
404.0877554831655
 30
0.0
 11
841.3438126401263
 21
407.2622120131895
 31
0.0
  0
LINE
  5
3BDF
330
A
100
AcDbEntity
  8
0
  6
Continuous
 62
     7
100
AcDbLine
 10
840.8454926437059
 20
395.4275014453211
 30
0.0
 11
846.3438126401262
 21
398.6019579753452
 31
0.0
  0
LINE
  5
3BE0
330
A
100
AcDbEntity
  8
0
  6
Continuous
 62
     7
100
AcDbLine
 10
841.3438126401263
 20
407.2622120131895
 30
0.0
 11
846.3438126401262
 21
398.6019579753452
 31
0.0
  0
LINE
  5
3BE1
330
A
100
AcDbEntity
  8
0
  6
Continuous
 62
     7
100
AcDbLine
 10
841.8681139883208
 20
392.5538105387761
 30
0.0
 11
847.8438126401263
 21
396.0038817639919
 31
0.0
  0
LINE
  5
3BE2
330
A
100
AcDbEntity
  8
0
  6
Continuous
 62
     7
100
AcDbLine
 10
846.3438126401262
 20
398.6019579753452
 30
0.0
 11
847.8438126401263
 21
396.0038817639919
 31
0.0
  0
LINE
  5
3BE3
330
A
100
AcDbEntity
  8
0
  6
Continuous
 62
     7
100
AcDbLine
 10
833.8681139883208
 20
406.4102169993271
 30
0.0
 11
839.8438126401263
 21
409.8602882245429
 31
0.0
  0
LINE
  5
3BE4
330
A
100
AcDbEntity
  8
0
  6
Continuous
 62
     7
100
AcDbLine
 10
839.8438126401263
 20
409.8602882245429
 30
0.0
 11
841.3438126401263
 21
407.2622120131895
 31
0.0
  0
LINE
  5
3BE5
330
A
100
AcDbEntity
  8
0
  6
Continuous
 62
     7
100
AcDbLine
 10
812.4707456811799
 20
346.2809980543154
 30
0.0
 11
812.4707456811799
 21
339.9320849942671
 31
0.0
  0
LINE
  5
3BE6
330
A
100
AcDbEntity
  8
0
  6
Continuous
 62
     7
100
AcDbLine
 10
802.4707456811798
 20
346.2809980543154
 30
0.0
 11
802.4707456811798
 21
339.9320849942672
 31
0.0
  0
LINE
  5
3BE7
330
A
100
AcDbEntity
  8
0
  6
Continuous
 62
     7
100
AcDbLine
 10
812.4707456811799
 20
339.9320849942671
 30
0.0
 11
802.4707456811798
 21
339.9320849942672
 31
0.0
  0
LINE
  5
3BE8
330
A
100
AcDbEntity
  8
0
  6
Continuous
 62
     7
100
AcDbLine
 10
815.47074568118
 20
346.8322274446987
 30
0.0
 11
815.47074568118
 21
339.9320849942671
 31
0.0
  0
LINE
  5
3BE9
330
A
100
AcDbEntity
  8
0
  6
Continuous
 62
     7
100
AcDbLine
 10
815.47074568118
 20
339.9320849942671
 30
0.0
 11
812.4707456811799
 21
339.9320849942671
 31
0.0
  0
LINE
  5
3BEA
330
A
100
AcDbEntity
  8
0
  6
Continuous
 62
     7
100
AcDbLine
 10
799.4707456811798
 20
346.8322274446987
 30
0.0
 11
799.4707456811798
 21
339.9320849942671
 31
0.0
  0
LINE
  5
3BEB
330
A
100
AcDbEntity
  8
0
  6
Continuous
 62
     7
100
AcDbLine
 10
802.4707456811798
 20
339.9320849942672
 30
0.0
 11
799.4707456811798
 21
339.9320849942671
 31
0.0
  0
LINE
  5
3BEC
330
A
100
AcDbEntity
  8
0
  6
Continuous
 62
     7
100
AcDbLine
 10
774.0959987186536
 20
395.4275014453206
 30
0.0
 11
768.5976787222332
 21
398.6019579753448
 31
0.0
  0
LINE
  5
3BED
330
A
100
AcDbEntity
  8
0
  6
Continuous
 62
     7
100
AcDbLine
 10
779.0959987186536
 20
404.087755483165
 30
0.0
 11
773.5976787222332
 21
407.2622120131891
 31
0.0
  0
LINE
  5
3BEE
330
A
100
AcDbEntity
  8
0
  6
Continuous
 62
     7
100
AcDbLine
 10
768.5976787222332
 20
398.6019579753448
 30
0.0
 11
773.5976787222332
 21
407.2622120131891
 31
0.0
  0
LINE
  5
3BEF
330
A
100
AcDbEntity
  8
0
  6
Continuous
 62
     7
100
AcDbLine
 10
781.0733773740385
 20
406.4102169993266
 30
0.0
 11
775.0976787222332
 21
409.8602882245424
 31
0.0
  0
LINE
  5
3BF0
330
A
100
AcDbEntity
  8
0
  6
Continuous
 62
     7
100
AcDbLine
 10
773.5976787222332
 20
407.2622120131891
 30
0.0
 11
775.0976787222332
 21
409.8602882245424
 31
0.0
  0
LINE
  5
3BF1
330
A
100
AcDbEntity
  8
0
  6
Continuous
 62
     7
100
AcDbLine
 10
773.0733773740387
 20
392.5538105387756
 30
0.0
 11
767.0976787222332
 21
396.0038817639913
 31
0.0
  0
LINE
  5
3BF2
330
A
100
AcDbEntity
  8
0
  6
Continuous
 62
     7
100
AcDbLine
 10
767.0976787222332
 20
396.0038817639913
 30
0.0
 11
768.5976787222332
 21
398.6019579753448
 31
0.0
  0
LINE
  5
3BF3
330
A
100
AcDbEntity
  8
CENTER
100
AcDbLine
 10
776.6644302533939
 20
381.9320849942672
 30
0.0
 11
837.7938566028531
 21
381.9320849942672
 31
0.0
  0
LINE
  5
3BF4
330
A
100
AcDbEntity
  8
CENTER
100
AcDbLine
 10
807.470745681179
 20
336.3806390430867
 30
0.0
 11
807.470745681179
 21
410.4552569566821
 31
0.0
  0
CIRCLE
  5
3BF5
330
A
100
AcDbEntity
  8
CENTER
100
AcDbCircle
 10
807.470745681179
 20
381.9320849942672
 30
0.0
 40
21.99999999999994
  0
CIRCLE
  5
3BF6
330
A
100
AcDbEntity
  8
0
100
AcDbCircle
 10
807.470745681179
 20
359.9320849942673
 30
0.0
 40
1.649999999999999
  0
ARC
  5
3BF7
330
A
100
AcDbEntity
  8
DIM
100
AcDbCircle
 10
826.523304564437
 20
392.9320849942674
 30
0.0
 40
2.0
100
AcDbArc
 50
209.9999999999973
 51
122.6052512650636
  0
CIRCLE
  5
3BF8
330
A
100
AcDbEntity
  8
0
100
AcDbCircle
 10
826.523304564437
 20
392.9320849942674
 30
0.0
 40
1.649999999999999
  0
ARC
  5
3BF9
330
A
100
AcDbEntity
  8
DIM
100
AcDbCircle
 10
788.4181867979219
 20
392.9320849942674
 30
0.0
 40
2.0
100
AcDbArc
 50
330.0000000000027
 51
242.60525126506
  0
CIRCLE
  5
3BFA
330
A
100
AcDbEntity
  8
0
100
AcDbCircle
 10
788.4181867979219
 20
392.9320849942674
 30
0.0
 40
1.649999999999999
  0
LINE
  5
3BFB
330
A
100
AcDbEntity
  8
CENTER
100
AcDbLine
 10
649.7908224650011
 20
381.9320849942672
 30
0.0
 11
712.1466529907881
 21
381.9320849942672
 31
0.0
  0
LINE
  5
3BFC
330
A
100
AcDbEntity
  8
CENTER
100
AcDbLine
 10
542.157574278523
 20
381.9320849942672
 30
0.0
 11
603.9529613999556
 21
381.9320849942672
 31
0.0
  0
LINE
  5
3BFD
330
A
100
AcDbEntity
  8
CENTER
100
AcDbLine
 10
573.3237630456608
 20
336.7070692118178
 30
0.0
 11
573.3237630456608
 21
411.9160933878257
 31
0.0
  0
CIRCLE
  5
3BFE
330
A
100
AcDbEntity
  8
CENTER
100
AcDbCircle
 10
573.3237630456608
 20
381.9320849942672
 30
0.0
 40
21.99999999999994
  0
CIRCLE
  5
3BFF
330
A
100
AcDbEntity
  8
0
100
AcDbCircle
 10
573.323763045661
 20
355.4320849942673
 30
0.0
 40
1.649999999999999
  0
CIRCLE
  5
3C00
330
A
100
AcDbEntity
  8
0
100
AcDbCircle
 10
573.323763045661
 20
344.4320849942672
 30
0.0
 40
1.649999999999999
  0
LINE
  5
3C01
330
A
100
AcDbEntity
  8
CENTER
100
AcDbLine
 10
573.2337630456608
 20
355.4320849942673
 30
0.0
 11
573.413763045661
 21
355.4320849942673
 31
0.0
  0
LINE
  5
3C02
330
A
100
AcDbEntity
  8
CENTER
100
AcDbLine
 10
573.323763045661
 20
355.3420849942673
 30
0.0
 11
573.323763045661
 21
355.5220849942673
 31
0.0
  0
LINE
  5
3C03
330
A
100
AcDbEntity
  8
CENTER
100
AcDbLine
 10
573.2337630456608
 20
344.4320849942672
 30
0.0
 11
573.413763045661
 21
344.4320849942672
 31
0.0
  0
LINE
  5
3C04
330
A
100
AcDbEntity
  8
CENTER
100
AcDbLine
 10
573.323763045661
 20
344.3420849942672
 30
0.0
 11
573.323763045661
 21
344.5220849942672
 31
0.0
  0
ARC
  5
3C05
330
A
100
AcDbEntity
  8
DIM
100
AcDbCircle
 10
596.2734362459484
 20
395.1820849942673
 30
0.0
 40
2.0
100
AcDbArc
 50
209.9999999999973
 51
120.0000000000005
  0
CIRCLE
  5
3C06
330
A
100
AcDbEntity
  8
0
100
AcDbCircle
 10
596.2734362459484
 20
395.1820849942673
 30
0.0
 40
1.649999999999999
  0
ARC
  5
3C07
330
A
100
AcDbEntity
  8
DIM
100
AcDbCircle
 10
605.7997156875772
 20
400.6820849942672
 30
0.0
 40
2.0
100
AcDbArc
 50
209.9999999999973
 51
120.0000000000005
  0
CIRCLE
  5
3C08
330
A
100
AcDbEntity
  8
0
100
AcDbCircle
 10
605.7997156875772
 20
400.6820849942672
 30
0.0
 40
1.649999999999999
  0
LINE
  5
3C09
330
A
100
AcDbEntity
  8
CENTER
100
AcDbLine
 10
605.8776579739178
 20
400.7270849942672
 30
0.0
 11
605.7217734012365
 21
400.6370849942672
 31
0.0
  0
LINE
  5
3C0A
330
A
100
AcDbEntity
  8
CENTER
100
AcDbLine
 10
605.8447156875772
 20
400.6041427079265
 30
0.0
 11
605.7547156875771
 21
400.7600272806077
 31
0.0
  0
LINE
  5
3C0B
330
A
100
AcDbEntity
  8
CENTER
100
AcDbLine
 10
596.3513785322889
 20
395.2270849942673
 30
0.0
 11
596.1954939596076
 21
395.1370849942673
 31
0.0
  0
LINE
  5
3C0C
330
A
100
AcDbEntity
  8
CENTER
100
AcDbLine
 10
596.3184362459482
 20
395.1041427079267
 30
0.0
 11
596.2284362459484
 21
395.2600272806078
 31
0.0
  0
ARC
  5
3C0D
330
A
100
AcDbEntity
  8
DIM
100
AcDbCircle
 10
550.3740898453732
 20
395.1820849942671
 30
0.0
 40
2.0
100
AcDbArc
 50
330.0000000000027
 51
239.9999999999995
  0
CIRCLE
  5
3C0E
330
A
100
AcDbEntity
  8
0
100
AcDbCircle
 10
550.3740898453732
 20
395.1820849942671
 30
0.0
 40
1.649999999999999
  0
ARC
  5
3C0F
330
A
100
AcDbEntity
  8
DIM
100
AcDbCircle
 10
540.8478104037445
 20
400.6820849942671
 30
0.0
 40
2.0
100
AcDbArc
 50
330.0000000000027
 51
239.9999999999995
  0
CIRCLE
  5
3C10
330
A
100
AcDbEntity
  8
0
100
AcDbCircle
 10
540.8478104037445
 20
400.6820849942671
 30
0.0
 40
1.649999999999999
  0
LINE
  5
3C11
330
A
100
AcDbEntity
  8
CENTER
100
AcDbLine
 10
540.7698681174037
 20
400.7270849942671
 30
0.0
 11
540.9257526900851
 21
400.6370849942671
 31
0.0
  0
LINE
  5
3C12
330
A
100
AcDbEntity
  8
CENTER
100
AcDbLine
 10
540.8928104037443
 20
400.7600272806077
 30
0.0
 11
540.8028104037444
 21
400.6041427079265
 31
0.0
  0
LINE
  5
3C13
330
A
100
AcDbEntity
  8
CENTER
100
AcDbLine
 10
550.2961475590327
 20
395.2270849942671
 30
0.0
 11
550.4520321317138
 21
395.1370849942671
 31
0.0
  0
LINE
  5
3C14
330
A
100
AcDbEntity
  8
CENTER
100
AcDbLine
 10
550.4190898453733
 20
395.2600272806078
 30
0.0
 11
550.3290898453733
 21
395.1041427079267
 31
0.0
  0
LINE
  5
3C15
330
A
100
AcDbEntity
  8
CENTER
100
AcDbLine
 10
648.9083544402217
 20
500.8362954045137
 30
0.0
 11
711.6206644214962
 21
500.8362954045137
 31
0.0
  0
LINE
  5
3C16
330
A
100
AcDbEntity
  8
0
  6
Continuous
 62
     7
370
    15
100
AcDbLine
 10
708.4933959577031
 20
474.8362954045137
 30
0.0
 11
708.4933959577031
 21
526.8362954045137
 31
0.0
  0
LINE
  5
3C17
330
A
100
AcDbEntity
  8
0
  6
Continuous
 62
     7
370
    15
100
AcDbLine
 10
653.4933959577031
 20
488.0029813468693
 30
0.0
 11
653.4933959577031
 21
496.8362954045139
 31
0.0
  0
LINE
  5
3C18
330
A
100
AcDbEntity
  8
0
  6
Continuous
 62
     7
370
    15
100
AcDbLine
 10
672.9933959577031
 20
488.0029813468693
 30
0.0
 11
672.9933959577031
 21
513.6696094621586
 31
0.0
  0
POLYLINE
  5
3C19
330
A
100
AcDbEntity
  8
0
  6
Continuous
 62
     7
370
    15
100
AcDb2dPolyline
 66
     1
 10
0.0
 20
0.0
 30
0.0
 70
   128
  0
VERTEX
  5
3C1A
330
3C19
100
AcDbEntity
  8
0
100
AcDbVertex
100
AcDb2dVertex
 10
680.4933959577031
 20
496.8082165951326
 30
0.0
  0
VERTEX
  5
3C1B
330
3C19
100
AcDbEntity
  8
0
100
AcDbVertex
100
AcDb2dVertex
 10
679.662781994208
 20
496.737758395195
 30
0.0
  0
VERTEX
  5
3C1C
330
3C19
100
AcDbEntity
  8
0
100
AcDbVertex
100
AcDb2dVertex
 10
678.8557949518487
 20
496.5311133563286
 30
0.0
  0
VERTEX
  5
3C1D
330
3C19
100
AcDbEntity
  8
0
100
AcDbVertex
100
AcDb2dVertex
 10
678.0961289160318
 20
496.1939983637131
 30
0.0
  0
VERTEX
  5
3C1E
330
3C19
100
AcDbEntity
  8
0
100
AcDbVertex
100
AcDb2dVertex
 10
677.4030905446404
 20
495.7395817299327
 30
0.0
  0
VERTEX
  5
3C1F
330
3C19
100
AcDbEntity
  8
0
100
AcDbVertex
100
AcDb2dVertex
 10
676.7896129045791
 20
495.1739245725097
 30
0.0
  0
VERTEX
  5
3C20
330
3C19
100
AcDbEntity
  8
0
100
AcDbVertex
100
AcDb2dVertex
 10
676.279633225248
 20
494.5207355610579
 30
0.0
  0
VERTEX
  5
3C21
330
3C19
100
AcDbEntity
  8
0
100
AcDbVertex
100
AcDb2dVertex
 10
675.8861969190377
 20
493.7928376946508
 30
0.0
  0
VERTEX
  5
3C22
330
3C19
100
AcDbEntity
  8
0
100
AcDbVertex
100
AcDb2dVertex
 10
675.6238064662504
 20
493.0183259202542
 30
0.0
  0
VERTEX
  5
3C23
330
3C19
100
AcDbEntity
  8
0
100
AcDbVertex
100
AcDb2dVertex
 10
675.5031907075004
 20
492.2303191211149
 30
0.0
  0
VERTEX
  5
3C24
330
3C19
100
AcDbEntity
  8
0
100
AcDbVertex
100
AcDb2dVertex
 10
675.5220848704269
 20
491.4430574617759
 30
0.0
  0
VERTEX
  5
3C25
330
3C19
100
AcDbEntity
  8
0
100
AcDbVertex
100
AcDb2dVertex
 10
675.6789066550091
 20
490.6895151492791
 30
0.0
  0
VERTEX
  5
3C26
330
3C19
100
AcDbEntity
  8
0
100
AcDbVertex
100
AcDb2dVertex
 10
675.9663051093869
 20
489.9788594797827
 30
0.0
  0
VERTEX
  5
3C27
330
3C19
100
AcDbEntity
  8
0
100
AcDbVertex
100
AcDb2dVertex
 10
676.3803718269573
 20
489.326243864098
 30
0.0
  0
VERTEX
  5
3C28
330
3C19
100
AcDbEntity
  8
0
100
AcDbVertex
100
AcDb2dVertex
 10
676.9065707611892
 20
488.7505392199417
 30
0.0
  0
VERTEX
  5
3C29
330
3C19
100
AcDbEntity
  8
0
100
AcDbVertex
100
AcDb2dVertex
 10
677.5429459248607
 20
488.258890585408
 30
0.0
  0
VERTEX
  5
3C2A
330
3C19
100
AcDbEntity
  8
0
100
AcDbVertex
100
AcDb2dVertex
 10
678.2632122903285
 20
487.8712876675979
 30
0.0
  0
VERTEX
  5
3C2B
330
3C19
100
AcDbEntity
  8
0
100
AcDbVertex
100
AcDb2dVertex
 10
679.0501319727775
 20
487.597796901988
 30
0.0
  0
VERTEX
  5
3C2C
330
3C19
100
AcDbEntity
  8
0
100
AcDbVertex
100
AcDb2dVertex
 10
679.8792377813554
 20
487.4443416698635
 30
0.0
  0
VERTEX
  5
3C2D
330
3C19
100
AcDbEntity
  8
0
100
AcDbVertex
100
AcDb2dVertex
 10
680.7132478551664
 20
487.4159321562789
 30
0.0
  0
VERTEX
  5
3C2E
330
3C19
100
AcDbEntity
  8
0
100
AcDbVertex
100
AcDb2dVertex
 10
681.5409682904812
 20
487.508218021186
 30
0.0
  0
VERTEX
  5
3C2F
330
3C19
100
AcDbEntity
  8
0
100
AcDbVertex
100
AcDb2dVertex
 10
682.3315696027332
 20
487.7181314868062
 30
0.0
  0
VERTEX
  5
3C30
330
3C19
100
AcDbEntity
  8
0
100
AcDbVertex
100
AcDb2dVertex
 10
683.0713198280648
 20
488.0394999983705
 30
0.0
  0
VERTEX
  5
3C31
330
3C19
100
AcDbEntity
  8
0
100
AcDbVertex
100
AcDb2dVertex
 10
683.7472525759538
 20
488.4722047498282
 30
0.0
  0
VERTEX
  5
3C32
330
3C19
100
AcDbEntity
  8
0
100
AcDbVertex
100
AcDb2dVertex
 10
684.3330334909547
 20
489.0019558886003
 30
0.0
  0
VERTEX
  5
3C33
330
3C19
100
AcDbEntity
  8
0
100
AcDbVertex
100
AcDb2dVertex
 10
684.8175525773756
 20
489.6273432667189
 30
0.0
  0
VERTEX
  5
3C34
330
3C19
100
AcDbEntity
  8
0
100
AcDbVertex
100
AcDb2dVertex
 10
685.1795229370261
 20
490.3253229247638
 30
0.0
  0
VERTEX
  5
3C35
330
3C19
100
AcDbEntity
  8
0
100
AcDbVertex
100
AcDb2dVertex
 10
685.4054420211332
 20
491.0748382037982
 30
0.0
  0
VERTEX
  5
3C36
330
3C19
100
AcDbEntity
  8
0
100
AcDbVertex
100
AcDb2dVertex
 10
685.4925691499877
 20
491.8583843079523
 30
0.0
  0
VERTEX
  5
3C37
330
3C19
100
AcDbEntity
  8
0
100
AcDbVertex
100
AcDb2dVertex
 10
685.4380968414334
 20
492.6410645971009
 30
0.0
  0
VERTEX
  5
3C38
330
3C19
100
AcDbEntity
  8
0
100
AcDbVertex
100
AcDb2dVertex
 10
685.2482527103179
 20
493.4126500793917
 30
0.0
  0
VERTEX
  5
3C39
330
3C19
100
AcDbEntity
  8
0
100
AcDbVertex
100
AcDb2dVertex
 10
684.9277071213462
 20
494.1488642427189
 30
0.0
  0
VERTEX
  5
3C3A
330
3C19
100
AcDbEntity
  8
0
100
AcDbVertex
100
AcDb2dVertex
 10
684.4871962701472
 20
494.8303229064292
 30
0.0
  0
VERTEX
  5
3C3B
330
3C19
100
AcDbEntity
  8
0
100
AcDbVertex
100
AcDb2dVertex
 10
683.9282756510804
 20
495.4446899331633
 30
0.0
  0
VERTEX
  5
3C3C
330
3C19
100
AcDbEntity
  8
0
100
AcDbVertex
100
AcDb2dVertex
 10
683.2733787631994
 20
495.9633981590516
 30
0.0
  0
VERTEX
  5
3C3D
330
3C19
100
AcDbEntity
  8
0
100
AcDbVertex
100
AcDb2dVertex
 10
682.5316698609119
 20
496.3717061995337
 30
0.0
  0
VERTEX
  5
3C3E
330
3C19
100
AcDbEntity
  8
0
100
AcDbVertex
100
AcDb2dVertex
 10
681.7306819085949
 20
496.6518343444229
 30
0.0
  0
VERTEX
  5
3C3F
330
3C19
100
AcDbEntity
  8
0
100
AcDbVertex
100
AcDb2dVertex
 10
680.4933959577031
 20
496.8082165951326
 30
0.0
  0
SEQEND
  5
3C40
330
3C19
100
AcDbEntity
  8
0
  0
POLYLINE
  5
3C41
330
A
100
AcDbEntity
  8
0
  6
Continuous
 62
     7
370
    15
100
AcDb2dPolyline
 66
     1
 10
0.0
 20
0.0
 30
0.0
 70
   128
  0
VERTEX
  5
3C42
330
3C41
100
AcDbEntity
  8
0
100
AcDbVertex
100
AcDb2dVertex
 10
680.4933959577031
 20
494.6299951148307
 30
0.0
  0
VERTEX
  5
3C43
330
3C41
100
AcDbEntity
  8
0
100
AcDbVertex
100
AcDb2dVertex
 10
681.0496982925938
 20
494.5710949750546
 30
0.0
  0
VERTEX
  5
3C44
330
3C41
100
AcDbEntity
  8
0
100
AcDbVertex
100
AcDb2dVertex
 10
681.5781053054968
 20
494.3973480546802
 30
0.0
  0
VERTEX
  5
3C45
330
3C41
100
AcDbEntity
  8
0
100
AcDbVertex
100
AcDb2dVertex
 10
682.0521204623498
 20
494.1174667497992
 30
0.0
  0
VERTEX
  5
3C46
330
3C41
100
AcDbEntity
  8
0
100
AcDbVertex
100
AcDb2dVertex
 10
682.447974663873
 20
493.7454854777207
 30
0.0
  0
VERTEX
  5
3C47
330
3C41
100
AcDbEntity
  8
0
100
AcDbVertex
100
AcDb2dVertex
 10
682.745818127459
 20
493.3000569326853
 30
0.0
  0
VERTEX
  5
3C48
330
3C41
100
AcDbEntity
  8
0
100
AcDbVertex
100
AcDb2dVertex
 10
682.9307157381574
 20
492.8035167618886
 30
0.0
  0
VERTEX
  5
3C49
330
3C41
100
AcDbEntity
  8
0
100
AcDbVertex
100
AcDb2dVertex
 10
682.9933959577031
 20
492.2807635628658
 30
0.0
  0
VERTEX
  5
3C4A
330
3C41
100
AcDbEntity
  8
0
100
AcDbVertex
100
AcDb2dVertex
 10
682.9307157381574
 20
491.758010363843
 30
0.0
  0
VERTEX
  5
3C4B
330
3C41
100
AcDbEntity
  8
0
100
AcDbVertex
100
AcDb2dVertex
 10
682.745818127459
 20
491.2614701930465
 30
0.0
  0
VERTEX
  5
3C4C
330
3C41
100
AcDbEntity
  8
0
100
AcDbVertex
100
AcDb2dVertex
 10
682.447974663873
 20
490.8160416480111
 30
0.0
  0
VERTEX
  5
3C4D
330
3C41
100
AcDbEntity
  8
0
100
AcDbVertex
100
AcDb2dVertex
 10
682.0521204623498
 20
490.4440603759326
 30
0.0
  0
VERTEX
  5
3C4E
330
3C41
100
AcDbEntity
  8
0
100
AcDbVertex
100
AcDb2dVertex
 10
681.5781053054968
 20
490.1641790710516
 30
0.0
  0
VERTEX
  5
3C4F
330
3C41
100
AcDbEntity
  8
0
100
AcDbVertex
100
AcDb2dVertex
 10
681.0496982925938
 20
489.9904321506771
 30
0.0
  0
VERTEX
  5
3C50
330
3C41
100
AcDbEntity
  8
0
100
AcDbVertex
100
AcDb2dVertex
 10
680.4933959577031
 20
489.9315320109011
 30
0.0
  0
VERTEX
  5
3C51
330
3C41
100
AcDbEntity
  8
0
100
AcDbVertex
100
AcDb2dVertex
 10
679.9370936228122
 20
489.9904321506771
 30
0.0
  0
VERTEX
  5
3C52
330
3C41
100
AcDbEntity
  8
0
100
AcDbVertex
100
AcDb2dVertex
 10
679.4086866099092
 20
490.1641790710516
 30
0.0
  0
VERTEX
  5
3C53
330
3C41
100
AcDbEntity
  8
0
100
AcDbVertex
100
AcDb2dVertex
 10
678.9346714530563
 20
490.4440603759326
 30
0.0
  0
VERTEX
  5
3C54
330
3C41
100
AcDbEntity
  8
0
100
AcDbVertex
100
AcDb2dVertex
 10
678.5388172515329
 20
490.8160416480111
 30
0.0
  0
VERTEX
  5
3C55
330
3C41
100
AcDbEntity
  8
0
100
AcDbVertex
100
AcDb2dVertex
 10
678.240973787947
 20
491.2614701930465
 30
0.0
  0
VERTEX
  5
3C56
330
3C41
100
AcDbEntity
  8
0
100
AcDbVertex
100
AcDb2dVertex
 10
678.0560761772485
 20
491.7580103638431
 30
0.0
  0
VERTEX
  5
3C57
330
3C41
100
AcDbEntity
  8
0
100
AcDbVertex
100
AcDb2dVertex
 10
677.993395957703
 20
492.280763562866
 30
0.0
  0
VERTEX
  5
3C58
330
3C41
100
AcDbEntity
  8
0
100
AcDbVertex
100
AcDb2dVertex
 10
678.0560761772485
 20
492.8035167618888
 30
0.0
  0
VERTEX
  5
3C59
330
3C41
100
AcDbEntity
  8
0
100
AcDbVertex
100
AcDb2dVertex
 10
678.240973787947
 20
493.3000569326853
 30
0.0
  0
VERTEX
  5
3C5A
330
3C41
100
AcDbEntity
  8
0
100
AcDbVertex
100
AcDb2dVertex
 10
678.5388172515329
 20
493.7454854777207
 30
0.0
  0
VERTEX
  5
3C5B
330
3C41
100
AcDbEntity
  8
0
100
AcDbVertex
100
AcDb2dVertex
 10
678.9346714530563
 20
494.1174667497992
 30
0.0
  0
VERTEX
  5
3C5C
330
3C41
100
AcDbEntity
  8
0
100
AcDbVertex
100
AcDb2dVertex
 10
679.4086866099092
 20
494.3973480546802
 30
0.0
  0
VERTEX
  5
3C5D
330
3C41
100
AcDbEntity
  8
0
100
AcDbVertex
100
AcDb2dVertex
 10
679.9370936228122
 20
494.5710949750546
 30
0.0
  0
VERTEX
  5
3C5E
330
3C41
100
AcDbEntity
  8
0
100
AcDbVertex
100
AcDb2dVertex
 10
680.4933959577031
 20
494.6299951148307
 30
0.0
  0
SEQEND
  5
3C5F
330
3C41
100
AcDbEntity
  8
0
  0
LINE
  5
3C60
330
A
100
AcDbEntity
  8
0
  6
Continuous
 62
     7
370
    15
100
AcDbLine
 10
668.8933959577032
 20
529.2110423670398
 30
0.0
 11
668.8933959577032
 21
534.7093623634602
 31
0.0
  0
LINE
  5
3C61
330
A
100
AcDbEntity
  8
0
  6
Continuous
 62
     7
370
    15
100
AcDbLine
 10
658.4933959577033
 20
533.2093623634603
 30
0.0
 11
658.4933959577033
 21
527.2336637116552
 31
0.0
  0
LINE
  5
3C62
330
A
100
AcDbEntity
  8
0
  6
Continuous
 62
     7
370
    15
100
AcDbLine
 10
663.4933959577031
 20
527.2336637116551
 30
0.0
 11
663.4933959577033
 21
533.2093623634603
 31
0.0
  0
LINE
  5
3C63
330
A
100
AcDbEntity
  8
0
  6
Continuous
 62
     7
370
    15
100
AcDbLine
 10
650.4933959577033
 20
535.2093623634602
 30
0.0
 11
650.4933959577033
 21
527.4151337294004
 31
0.0
  0
LINE
  5
3C64
330
A
100
AcDbEntity
  8
0
  6
Continuous
 62
     7
370
    15
100
AcDbLine
 10
672.9933959577031
 20
524.2301723179118
 30
0.0
 11
672.9933959577031
 21
536.2301723179121
 31
0.0
  0
LINE
  5
3C65
330
A
100
AcDbEntity
  8
0
  6
Continuous
 62
     7
370
    15
100
AcDbLine
 10
663.4933959577033
 20
533.2093623634603
 30
0.0
 11
658.4933959577033
 21
533.2093623634603
 31
0.0
  0
LINE
  5
3C66
330
A
100
AcDbEntity
  8
0
  6
Continuous
 62
     7
370
    15
100
AcDbLine
 10
663.4933959577035
 20
541.2093623634604
 30
0.0
 11
658.4933959577035
 21
541.2093623634604
 31
0.0
  0
LINE
  5
3C67
330
A
100
AcDbEntity
  8
0
  6
Continuous
 62
     7
370
    15
100
AcDbLine
 10
658.4933959577033
 20
539.2093623634602
 30
0.0
 11
658.4933959577035
 21
541.2093623634604
 31
0.0
  0
LINE
  5
3C68
330
A
100
AcDbEntity
  8
0
  6
Continuous
 62
     7
370
    15
100
AcDbLine
 10
650.4933959577033
 20
535.2093623634602
 30
0.0
 11
650.4933959577033
 21
539.2093623634604
 31
0.0
  0
LINE
  5
3C69
330
A
100
AcDbEntity
  8
0
  6
Continuous
 62
     7
370
    15
100
AcDbLine
 10
658.4933959577033
 20
539.2093623634602
 30
0.0
 11
650.4933959577033
 21
539.2093623634604
 31
0.0
  0
LINE
  5
3C6A
330
A
100
AcDbEntity
  8
0
  6
Continuous
 62
     7
370
    15
100
AcDbLine
 10
658.4933959577033
 20
533.2093623634603
 30
0.0
 11
658.4933959577033
 21
535.2093623634602
 31
0.0
  0
LINE
  5
3C6B
330
A
100
AcDbEntity
  8
0
  6
Continuous
 62
     7
370
    15
100
AcDbLine
 10
658.4933959577033
 20
535.2093623634602
 30
0.0
 11
650.4933959577033
 21
535.2093623634602
 31
0.0
  0
LINE
  5
3C6C
330
A
100
AcDbEntity
  8
0
  6
Continuous
 62
     7
370
    15
100
AcDbLine
 10
663.4933959577035
 20
539.7093623634602
 30
0.0
 11
663.4933959577035
 21
541.2093623634604
 31
0.0
  0
LINE
  5
3C6D
330
A
100
AcDbEntity
  8
0
  6
Continuous
 62
     7
370
    15
100
AcDbLine
 10
668.8933959577032
 20
534.7093623634602
 30
0.0
 11
668.8933959577034
 21
539.7093623634602
 31
0.0
  0
LINE
  5
3C6E
330
A
100
AcDbEntity
  8
0
  6
Continuous
 62
     7
370
    15
100
AcDbLine
 10
672.9933959577031
 20
536.2301723179121
 30
0.0
 11
668.8933959577034
 21
536.2301723179121
 31
0.0
  0
LINE
  5
3C6F
330
A
100
AcDbEntity
  8
0
  6
Continuous
 62
     7
370
    15
100
AcDbLine
 10
668.8933959577034
 20
539.7093623634602
 30
0.0
 11
663.4933959577035
 21
539.7093623634602
 31
0.0
  0
LINE
  5
3C70
330
A
100
AcDbEntity
  8
0
  6
Continuous
 62
     7
370
    15
100
AcDbLine
 10
663.4933959577033
 20
533.2093623634603
 30
0.0
 11
663.4933959577033
 21
534.7093623634602
 31
0.0
  0
LINE
  5
3C71
330
A
100
AcDbEntity
  8
0
  6
Continuous
 62
     7
370
    15
100
AcDbLine
 10
663.4933959577033
 20
534.7093623634602
 30
0.0
 11
668.8933959577032
 21
534.7093623634602
 31
0.0
  0
LINE
  5
3C72
330
A
100
AcDbEntity
  8
0
  6
Continuous
 62
     7
370
    15
100
AcDbLine
 10
708.4933959577031
 20
526.8362954045137
 30
0.0
 11
672.9933959577031
 21
526.8362954045139
 31
0.0
  0
LINE
  5
3C73
330
A
100
AcDbEntity
  8
0
  6
Continuous
 62
     7
370
    15
100
AcDbLine
 10
653.4933959577031
 20
504.8362954045139
 30
0.0
 11
653.4933959577031
 21
513.6696094621586
 31
0.0
  0
LINE
  5
3C74
330
A
100
AcDbEntity
  8
0
  6
Continuous
 62
     7
370
    15
100
AcDbLine
 10
663.4933959577031
 20
527.2336637116551
 30
0.0
 11
658.4933959577031
 21
527.2336637116552
 31
0.0
  0
LINE
  5
3C75
330
A
100
AcDbEntity
  8
0
  6
Continuous
 62
     7
370
    15
100
AcDbLine
 10
672.9933959577031
 20
524.2301723179118
 30
0.0
 11
655.2254467652719
 21
524.2301723179119
 31
0.0
  0
LINE
  5
3C76
330
A
100
AcDbEntity
  8
0
  6
Continuous
 62
     7
370
    15
100
AcDbLine
 10
672.9933959577031
 20
516.6334855904069
 30
0.0
 11
653.4933959577031
 21
516.6334855904072
 31
0.0
  0
LINE
  5
3C77
330
A
100
AcDbEntity
  8
0
  6
Continuous
 62
     7
370
    15
100
AcDbLine
 10
672.9933959577031
 20
513.6696094621586
 30
0.0
 11
653.4933959577031
 21
513.6696094621586
 31
0.0
  0
LINE
  5
3C78
330
A
100
AcDbEntity
  8
0
  6
Continuous
 62
     7
370
    15
100
AcDbLine
 10
655.2254467652719
 20
524.2301723179119
 30
0.0
 11
653.4933959577031
 21
521.458654428462
 31
0.0
  0
LINE
  5
3C79
330
A
100
AcDbEntity
  8
0
  6
Continuous
 62
     7
370
    15
100
AcDbLine
 10
653.4933959577031
 20
521.458654428462
 30
0.0
 11
653.4933959577031
 21
527.2044113095224
 31
0.0
  0
LINE
  5
3C7A
330
A
100
AcDbEntity
  8
0
  6
Continuous
 62
     7
370
    15
100
AcDbLine
 10
650.4933959577033
 20
525.6830829218315
 30
0.0
 11
650.4933959577033
 21
517.8888542877716
 31
0.0
  0
LINE
  5
3C7B
330
A
100
AcDbEntity
  8
0
  6
Continuous
 62
     7
370
    15
100
AcDbLine
 10
652.4933959577033
 20
527.4151337294004
 30
0.0
 11
652.4933959577033
 21
525.6830829218315
 31
0.0
  0
LINE
  5
3C7C
330
A
100
AcDbEntity
  8
0
  6
Continuous
 62
     7
370
    15
100
AcDbLine
 10
655.2254467652719
 20
524.2301723179119
 30
0.0
 11
655.2254467652722
 21
529.8201621741732
 31
0.0
  0
LINE
  5
3C7D
330
A
100
AcDbEntity
  8
0
  6
Continuous
 62
     7
370
    15
100
AcDbLine
 10
650.4933959577033
 20
525.6830829218315
 30
0.0
 11
650.4933959577033
 21
527.4151337294004
 31
0.0
  0
LINE
  5
3C7E
330
A
100
AcDbEntity
  8
0
  6
Continuous
 62
     7
370
    15
100
AcDbLine
 10
655.2254467652722
 20
529.8201621741732
 30
0.0
 11
658.4933959577031
 21
529.8201621741732
 31
0.0
  0
LINE
  5
3C7F
330
A
100
AcDbEntity
  8
0
  6
Continuous
 62
     7
370
    15
100
AcDbLine
 10
653.4933959577031
 20
527.2044113095224
 30
0.0
 11
655.2254467652722
 21
529.8201621741732
 31
0.0
  0
LINE
  5
3C80
330
A
100
AcDbEntity
  8
0
  6
Continuous
 62
     7
370
    15
100
AcDbLine
 10
650.4933959577033
 20
527.4151337294004
 30
0.0
 11
652.4933959577033
 21
527.4151337294004
 31
0.0
  0
LINE
  5
3C81
330
A
100
AcDbEntity
  8
0
  6
Continuous
 62
     7
370
    15
100
AcDbLine
 10
652.4933959577033
 20
525.6830829218315
 30
0.0
 11
650.4933959577033
 21
525.6830829218315
 31
0.0
  0
LINE
  5
3C82
330
A
100
AcDbEntity
  8
0
  6
Continuous
 62
     7
370
    15
100
AcDbLine
 10
653.4933959577031
 20
516.6334855904072
 30
0.0
 11
653.4933959577031
 21
521.458654428462
 31
0.0
  0
LINE
  5
3C83
330
A
100
AcDbEntity
  8
0
  6
Continuous
 62
     7
370
    15
100
AcDbLine
 10
650.4933959577033
 20
517.8888542877716
 30
0.0
 11
653.4933959577031
 21
517.8888542877716
 31
0.0
  0
LINE
  5
3C84
330
A
100
AcDbEntity
  8
0
  6
Continuous
 62
     7
370
    15
100
AcDbLine
 10
653.4933959577031
 20
513.6696094621586
 30
0.0
 11
653.4933959577031
 21
516.6334855904072
 31
0.0
  0
LINE
  5
3C85
330
A
100
AcDbEntity
  8
0
  6
Continuous
 62
     7
370
    15
100
AcDbLine
 10
672.9933959577031
 20
516.6334855904069
 30
0.0
 11
672.9933959577031
 21
524.2301723179118
 31
0.0
  0
LINE
  5
3C86
330
A
100
AcDbEntity
  8
0
  6
Continuous
 62
     7
370
    15
100
AcDbLine
 10
663.4933959577031
 20
529.2110423670396
 30
0.0
 11
668.8933959577032
 21
529.2110423670396
 31
0.0
  0
LINE
  5
3C87
330
A
100
AcDbEntity
  8
0
  6
Continuous
 62
     7
370
    15
100
AcDbLine
 10
672.9933959577031
 20
513.6696094621586
 30
0.0
 11
672.9933959577031
 21
516.6334855904069
 31
0.0
  0
LINE
  5
3C88
330
A
100
AcDbEntity
  8
0
  6
Continuous
 62
     7
370
    15
100
AcDbLine
 10
661.493395957703
 20
496.8362954045139
 30
0.0
 11
661.493395957703
 21
504.8362954045139
 31
0.0
  0
LINE
  5
3C89
330
A
100
AcDbEntity
  8
0
  6
Continuous
 62
     7
370
    15
100
AcDbLine
 10
653.4933959577031
 20
504.8362954045139
 30
0.0
 11
653.4933959577031
 21
496.8362954045139
 31
0.0
  0
LINE
  5
3C8A
330
A
100
AcDbEntity
  8
0
  6
Continuous
 62
     7
370
    15
100
AcDbLine
 10
650.4933959577033
 20
504.8362954045139
 30
0.0
 11
650.4933959577033
 21
496.8362954045139
 31
0.0
  0
LINE
  5
3C8B
330
A
100
AcDbEntity
  8
0
  6
Continuous
 62
     7
370
    15
100
AcDbLine
 10
661.493395957703
 20
504.8362954045139
 30
0.0
 11
653.4933959577031
 21
504.8362954045139
 31
0.0
  0
LINE
  5
3C8C
330
A
100
AcDbEntity
  8
0
  6
Continuous
 62
     7
370
    15
100
AcDbLine
 10
650.4933959577033
 20
504.8362954045139
 30
0.0
 11
653.4933959577031
 21
504.8362954045139
 31
0.0
  0
LINE
  5
3C8D
330
A
100
AcDbEntity
  8
0
  6
Continuous
 62
     7
370
    15
100
AcDbLine
 10
661.493395957703
 20
496.8362954045139
 30
0.0
 11
653.4933959577031
 21
496.8362954045139
 31
0.0
  0
LINE
  5
3C8E
330
A
100
AcDbEntity
  8
0
  6
Continuous
 62
     7
370
    15
100
AcDbLine
 10
650.4933959577033
 20
496.8362954045139
 30
0.0
 11
653.4933959577031
 21
496.8362954045139
 31
0.0
  0
POLYLINE
  5
3C8F
330
A
100
AcDbEntity
  8
0
  6
Continuous
 62
     7
370
    15
100
AcDb2dPolyline
 66
     1
 10
0.0
 20
0.0
 30
0.0
 70
   128
  0
VERTEX
  5
3C90
330
3C8F
100
AcDbEntity
  8
0
100
AcDbVertex
100
AcDb2dVertex
 10
700.4933959577031
 20
504.864374213895
 30
0.0
  0
VERTEX
  5
3C91
330
3C8F
100
AcDbEntity
  8
0
100
AcDbVertex
100
AcDb2dVertex
 10
699.6627819942079
 20
504.9348324138326
 30
0.0
  0
VERTEX
  5
3C92
330
3C8F
100
AcDbEntity
  8
0
100
AcDbVertex
100
AcDb2dVertex
 10
698.8557949518487
 20
505.141477452699
 30
0.0
  0
VERTEX
  5
3C93
330
3C8F
100
AcDbEntity
  8
0
100
AcDbVertex
100
AcDb2dVertex
 10
698.0961289160318
 20
505.4785924453145
 30
0.0
  0
VERTEX
  5
3C94
330
3C8F
100
AcDbEntity
  8
0
100
AcDbVertex
100
AcDb2dVertex
 10
697.4030905446404
 20
505.9330090790949
 30
0.0
  0
VERTEX
  5
3C95
330
3C8F
100
AcDbEntity
  8
0
100
AcDbVertex
100
AcDb2dVertex
 10
696.7896129045791
 20
506.4986662365178
 30
0.0
  0
VERTEX
  5
3C96
330
3C8F
100
AcDbEntity
  8
0
100
AcDbVertex
100
AcDb2dVertex
 10
696.279633225248
 20
507.1518552479699
 30
0.0
  0
VERTEX
  5
3C97
330
3C8F
100
AcDbEntity
  8
0
100
AcDbVertex
100
AcDb2dVertex
 10
695.8861969190377
 20
507.8797531143768
 30
0.0
  0
VERTEX
  5
3C98
330
3C8F
100
AcDbEntity
  8
0
100
AcDbVertex
100
AcDb2dVertex
 10
695.6238064662507
 20
508.6542648887735
 30
0.0
  0
VERTEX
  5
3C99
330
3C8F
100
AcDbEntity
  8
0
100
AcDbVertex
100
AcDb2dVertex
 10
695.5031907075006
 20
509.4422716879128
 30
0.0
  0
VERTEX
  5
3C9A
330
3C8F
100
AcDbEntity
  8
0
100
AcDbVertex
100
AcDb2dVertex
 10
695.5220848704268
 20
510.2295333472519
 30
0.0
  0
VERTEX
  5
3C9B
330
3C8F
100
AcDbEntity
  8
0
100
AcDbVertex
100
AcDb2dVertex
 10
695.6789066550093
 20
510.9830756597485
 30
0.0
  0
VERTEX
  5
3C9C
330
3C8F
100
AcDbEntity
  8
0
100
AcDbVertex
100
AcDb2dVertex
 10
695.9663051093869
 20
511.6937313292451
 30
0.0
  0
VERTEX
  5
3C9D
330
3C8F
100
AcDbEntity
  8
0
100
AcDbVertex
100
AcDb2dVertex
 10
696.3803718269575
 20
512.3463469449298
 30
0.0
  0
VERTEX
  5
3C9E
330
3C8F
100
AcDbEntity
  8
0
100
AcDbVertex
100
AcDb2dVertex
 10
696.9065707611892
 20
512.9220515890859
 30
0.0
  0
VERTEX
  5
3C9F
330
3C8F
100
AcDbEntity
  8
0
100
AcDbVertex
100
AcDb2dVertex
 10
697.5429459248609
 20
513.4137002236197
 30
0.0
  0
VERTEX
  5
3CA0
330
3C8F
100
AcDbEntity
  8
0
100
AcDbVertex
100
AcDb2dVertex
 10
698.2632122903287
 20
513.8013031414297
 30
0.0
  0
VERTEX
  5
3CA1
330
3C8F
100
AcDbEntity
  8
0
100
AcDbVertex
100
AcDb2dVertex
 10
699.0501319727777
 20
514.0747939070397
 30
0.0
  0
VERTEX
  5
3CA2
330
3C8F
100
AcDbEntity
  8
0
100
AcDbVertex
100
AcDb2dVertex
 10
699.8792377813554
 20
514.2282491391641
 30
0.0
  0
VERTEX
  5
3CA3
330
3C8F
100
AcDbEntity
  8
0
100
AcDbVertex
100
AcDb2dVertex
 10
700.7132478551664
 20
514.2566586527488
 30
0.0
  0
VERTEX
  5
3CA4
330
3C8F
100
AcDbEntity
  8
0
100
AcDbVertex
100
AcDb2dVertex
 10
701.5409682904812
 20
514.1643727878416
 30
0.0
  0
VERTEX
  5
3CA5
330
3C8F
100
AcDbEntity
  8
0
100
AcDbVertex
100
AcDb2dVertex
 10
702.3315696027334
 20
513.9544593222215
 30
0.0
  0
VERTEX
  5
3CA6
330
3C8F
100
AcDbEntity
  8
0
100
AcDbVertex
100
AcDb2dVertex
 10
703.0713198280648
 20
513.6330908106572
 30
0.0
  0
VERTEX
  5
3CA7
330
3C8F
100
AcDbEntity
  8
0
100
AcDbVertex
100
AcDb2dVertex
 10
703.747252575954
 20
513.2003860591994
 30
0.0
  0
VERTEX
  5
3CA8
330
3C8F
100
AcDbEntity
  8
0
100
AcDbVertex
100
AcDb2dVertex
 10
704.3330334909547
 20
512.6706349204273
 30
0.0
  0
VERTEX
  5
3CA9
330
3C8F
100
AcDbEntity
  8
0
100
AcDbVertex
100
AcDb2dVertex
 10
704.8175525773758
 20
512.0452475423087
 30
0.0
  0
VERTEX
  5
3CAA
330
3C8F
100
AcDbEntity
  8
0
100
AcDbVertex
100
AcDb2dVertex
 10
705.1795229370261
 20
511.3472678842638
 30
0.0
  0
VERTEX
  5
3CAB
330
3C8F
100
AcDbEntity
  8
0
100
AcDbVertex
100
AcDb2dVertex
 10
705.4054420211334
 20
510.5977526052295
 30
0.0
  0
VERTEX
  5
3CAC
330
3C8F
100
AcDbEntity
  8
0
100
AcDbVertex
100
AcDb2dVertex
 10
705.4925691499877
 20
509.8142065010754
 30
0.0
  0
VERTEX
  5
3CAD
330
3C8F
100
AcDbEntity
  8
0
100
AcDbVertex
100
AcDb2dVertex
 10
705.4380968414334
 20
509.0315262119267
 30
0.0
  0
VERTEX
  5
3CAE
330
3C8F
100
AcDbEntity
  8
0
100
AcDbVertex
100
AcDb2dVertex
 10
705.2482527103181
 20
508.2599407296359
 30
0.0
  0
VERTEX
  5
3CAF
330
3C8F
100
AcDbEntity
  8
0
100
AcDbVertex
100
AcDb2dVertex
 10
704.9277071213464
 20
507.5237265663088
 30
0.0
  0
VERTEX
  5
3CB0
330
3C8F
100
AcDbEntity
  8
0
100
AcDbVertex
100
AcDb2dVertex
 10
704.4871962701474
 20
506.8422679025984
 30
0.0
  0
VERTEX
  5
3CB1
330
3C8F
100
AcDbEntity
  8
0
100
AcDbVertex
100
AcDb2dVertex
 10
703.9282756510804
 20
506.2279008758643
 30
0.0
  0
VERTEX
  5
3CB2
330
3C8F
100
AcDbEntity
  8
0
100
AcDbVertex
100
AcDb2dVertex
 10
703.2733787631993
 20
505.7091926499761
 30
0.0
  0
VERTEX
  5
3CB3
330
3C8F
100
AcDbEntity
  8
0
100
AcDbVertex
100
AcDb2dVertex
 10
702.531669860912
 20
505.300884609494
 30
0.0
  0
VERTEX
  5
3CB4
330
3C8F
100
AcDbEntity
  8
0
100
AcDbVertex
100
AcDb2dVertex
 10
701.7306819085949
 20
505.0207564646048
 30
0.0
  0
VERTEX
  5
3CB5
330
3C8F
100
AcDbEntity
  8
0
100
AcDbVertex
100
AcDb2dVertex
 10
700.4933959577031
 20
504.864374213895
 30
0.0
  0
SEQEND
  5
3CB6
330
3C8F
100
AcDbEntity
  8
0
  0
POLYLINE
  5
3CB7
330
A
100
AcDbEntity
  8
0
  6
Continuous
 62
     7
370
    15
100
AcDb2dPolyline
 66
     1
 10
0.0
 20
0.0
 30
0.0
 70
   128
  0
VERTEX
  5
3CB8
330
3CB7
100
AcDbEntity
  8
0
100
AcDbVertex
100
AcDb2dVertex
 10
705.4933959577031
 20
509.3918272461617
 30
0.0
  0
VERTEX
  5
3CB9
330
3CB7
100
AcDbEntity
  8
0
100
AcDbVertex
100
AcDb2dVertex
 10
705.4318376606786
 20
510.1268288083363
 30
0.0
  0
VERTEX
  5
3CBA
330
3CB7
100
AcDbEntity
  8
0
100
AcDbVertex
100
AcDb2dVertex
 10
705.2486785391788
 20
510.8437321927197
 30
0.0
  0
VERTEX
  5
3CBB
330
3CB7
100
AcDbEntity
  8
0
100
AcDbVertex
100
AcDb2dVertex
 10
704.948428578645
 20
511.5248848587225
 30
0.0
  0
VERTEX
  5
3CBC
330
3CB7
100
AcDbEntity
  8
0
100
AcDbVertex
100
AcDb2dVertex
 10
704.5384809295779
 20
512.1535145670918
 30
0.0
  0
VERTEX
  5
3CBD
330
3CB7
100
AcDbEntity
  8
0
100
AcDbVertex
100
AcDb2dVertex
 10
704.0289298636359
 20
512.7141423681052
 30
0.0
  0
VERTEX
  5
3CBE
330
3CB7
100
AcDbEntity
  8
0
100
AcDbVertex
100
AcDb2dVertex
 10
703.4323222191654
 20
513.1929637446844
 30
0.0
  0
VERTEX
  5
3CBF
330
3CB7
100
AcDbEntity
  8
0
100
AcDbVertex
100
AcDb2dVertex
 10
702.7633484564007
 20
513.5781885254214
 30
0.0
  0
VERTEX
  5
3CC0
330
3CB7
100
AcDbEntity
  8
0
100
AcDbVertex
100
AcDb2dVertex
 10
702.0384809295777
 20
513.8603311977262
 30
0.0
  0
VERTEX
  5
3CC1
330
3CB7
100
AcDbEntity
  8
0
100
AcDbVertex
100
AcDb2dVertex
 10
701.2755682829042
 20
514.0324444726295
 30
0.0
  0
VERTEX
  5
3CC2
330
3CB7
100
AcDbEntity
  8
0
100
AcDbVertex
100
AcDb2dVertex
 10
700.4933959577031
 20
514.0902903500914
 30
0.0
  0
VERTEX
  5
3CC3
330
3CB7
100
AcDbEntity
  8
0
100
AcDbVertex
100
AcDb2dVertex
 10
699.7112236325019
 20
514.0324444726295
 30
0.0
  0
VERTEX
  5
3CC4
330
3CB7
100
AcDbEntity
  8
0
100
AcDbVertex
100
AcDb2dVertex
 10
698.9483109858284
 20
513.8603311977262
 30
0.0
  0
VERTEX
  5
3CC5
330
3CB7
100
AcDbEntity
  8
0
100
AcDbVertex
100
AcDb2dVertex
 10
698.2234434590052
 20
513.5781885254214
 30
0.0
  0
VERTEX
  5
3CC6
330
3CB7
100
AcDbEntity
  8
0
100
AcDbVertex
100
AcDb2dVertex
 10
697.5544696962408
 20
513.1929637446844
 30
0.0
  0
VERTEX
  5
3CC7
330
3CB7
100
AcDbEntity
  8
0
100
AcDbVertex
100
AcDb2dVertex
 10
696.9578620517702
 20
512.7141423681051
 30
0.0
  0
VERTEX
  5
3CC8
330
3CB7
100
AcDbEntity
  8
0
100
AcDbVertex
100
AcDb2dVertex
 10
696.4483109858285
 20
512.1535145670918
 30
0.0
  0
VERTEX
  5
3CC9
330
3CB7
100
AcDbEntity
  8
0
100
AcDbVertex
100
AcDb2dVertex
 10
696.0383633367612
 20
511.5248848587225
 30
0.0
  0
VERTEX
  5
3CCA
330
3CB7
100
AcDbEntity
  8
0
100
AcDbVertex
100
AcDb2dVertex
 10
695.7381133762271
 20
510.8437321927197
 30
0.0
  0
VERTEX
  5
3CCB
330
3CB7
100
AcDbEntity
  8
0
100
AcDbVertex
100
AcDb2dVertex
 10
695.5549542547274
 20
510.1268288083363
 30
0.0
  0
VERTEX
  5
3CCC
330
3CB7
100
AcDbEntity
  8
0
100
AcDbVertex
100
AcDb2dVertex
 10
695.4933959577031
 20
509.3918272461617
 30
0.0
  0
VERTEX
  5
3CCD
330
3CB7
100
AcDbEntity
  8
0
100
AcDbVertex
100
AcDb2dVertex
 10
695.4933959577031
 20
509.3918272461617
 30
0.0
  0
SEQEND
  5
3CCE
330
3CB7
100
AcDbEntity
  8
0
  0
POLYLINE
  5
3CCF
330
A
100
AcDbEntity
  8
0
  6
Continuous
 62
     7
370
    15
100
AcDb2dPolyline
 66
     1
 10
0.0
 20
0.0
 30
0.0
 70
   128
  0
VERTEX
  5
3CD0
330
3CCF
100
AcDbEntity
  8
0
100
AcDbVertex
100
AcDb2dVertex
 10
700.4933959577031
 20
507.0425956941969
 30
0.0
  0
VERTEX
  5
3CD1
330
3CCF
100
AcDbEntity
  8
0
100
AcDbVertex
100
AcDb2dVertex
 10
701.049698292594
 20
507.1014958339731
 30
0.0
  0
VERTEX
  5
3CD2
330
3CCF
100
AcDbEntity
  8
0
100
AcDbVertex
100
AcDb2dVertex
 10
701.578105305497
 20
507.2752427543474
 30
0.0
  0
VERTEX
  5
3CD3
330
3CCF
100
AcDbEntity
  8
0
100
AcDbVertex
100
AcDb2dVertex
 10
702.0521204623499
 20
507.5551240592285
 30
0.0
  0
VERTEX
  5
3CD4
330
3CCF
100
AcDbEntity
  8
0
100
AcDbVertex
100
AcDb2dVertex
 10
702.4479746638733
 20
507.9271053313069
 30
0.0
  0
VERTEX
  5
3CD5
330
3CCF
100
AcDbEntity
  8
0
100
AcDbVertex
100
AcDb2dVertex
 10
702.7458181274591
 20
508.3725338763424
 30
0.0
  0
VERTEX
  5
3CD6
330
3CCF
100
AcDbEntity
  8
0
100
AcDbVertex
100
AcDb2dVertex
 10
702.9307157381577
 20
508.8690740471389
 30
0.0
  0
VERTEX
  5
3CD7
330
3CCF
100
AcDbEntity
  8
0
100
AcDbVertex
100
AcDb2dVertex
 10
702.993395957703
 20
509.3918272461617
 30
0.0
  0
VERTEX
  5
3CD8
330
3CCF
100
AcDbEntity
  8
0
100
AcDbVertex
100
AcDb2dVertex
 10
702.9307157381577
 20
509.9145804451847
 30
0.0
  0
VERTEX
  5
3CD9
330
3CCF
100
AcDbEntity
  8
0
100
AcDbVertex
100
AcDb2dVertex
 10
702.7458181274591
 20
510.4111206159812
 30
0.0
  0
VERTEX
  5
3CDA
330
3CCF
100
AcDbEntity
  8
0
100
AcDbVertex
100
AcDb2dVertex
 10
702.4479746638733
 20
510.8565491610165
 30
0.0
  0
VERTEX
  5
3CDB
330
3CCF
100
AcDbEntity
  8
0
100
AcDbVertex
100
AcDb2dVertex
 10
702.0521204623499
 20
511.2285304330951
 30
0.0
  0
VERTEX
  5
3CDC
330
3CCF
100
AcDbEntity
  8
0
100
AcDbVertex
100
AcDb2dVertex
 10
701.578105305497
 20
511.508411737976
 30
0.0
  0
VERTEX
  5
3CDD
330
3CCF
100
AcDbEntity
  8
0
100
AcDbVertex
100
AcDb2dVertex
 10
701.049698292594
 20
511.6821586583505
 30
0.0
  0
VERTEX
  5
3CDE
330
3CCF
100
AcDbEntity
  8
0
100
AcDbVertex
100
AcDb2dVertex
 10
700.4933959577031
 20
511.7410587981265
 30
0.0
  0
VERTEX
  5
3CDF
330
3CCF
100
AcDbEntity
  8
0
100
AcDbVertex
100
AcDb2dVertex
 10
699.9370936228122
 20
511.6821586583505
 30
0.0
  0
VERTEX
  5
3CE0
330
3CCF
100
AcDbEntity
  8
0
100
AcDbVertex
100
AcDb2dVertex
 10
699.4086866099092
 20
511.508411737976
 30
0.0
  0
VERTEX
  5
3CE1
330
3CCF
100
AcDbEntity
  8
0
100
AcDbVertex
100
AcDb2dVertex
 10
698.9346714530563
 20
511.2285304330951
 30
0.0
  0
VERTEX
  5
3CE2
330
3CCF
100
AcDbEntity
  8
0
100
AcDbVertex
100
AcDb2dVertex
 10
698.5388172515329
 20
510.8565491610165
 30
0.0
  0
VERTEX
  5
3CE3
330
3CCF
100
AcDbEntity
  8
0
100
AcDbVertex
100
AcDb2dVertex
 10
698.240973787947
 20
510.4111206159812
 30
0.0
  0
VERTEX
  5
3CE4
330
3CCF
100
AcDbEntity
  8
0
100
AcDbVertex
100
AcDb2dVertex
 10
698.0560761772485
 20
509.9145804451845
 30
0.0
  0
VERTEX
  5
3CE5
330
3CCF
100
AcDbEntity
  8
0
100
AcDbVertex
100
AcDb2dVertex
 10
697.9933959577031
 20
509.3918272461617
 30
0.0
  0
VERTEX
  5
3CE6
330
3CCF
100
AcDbEntity
  8
0
100
AcDbVertex
100
AcDb2dVertex
 10
698.0560761772485
 20
508.8690740471389
 30
0.0
  0
VERTEX
  5
3CE7
330
3CCF
100
AcDbEntity
  8
0
100
AcDbVertex
100
AcDb2dVertex
 10
698.240973787947
 20
508.3725338763423
 30
0.0
  0
VERTEX
  5
3CE8
330
3CCF
100
AcDbEntity
  8
0
100
AcDbVertex
100
AcDb2dVertex
 10
698.5388172515329
 20
507.9271053313069
 30
0.0
  0
VERTEX
  5
3CE9
330
3CCF
100
AcDbEntity
  8
0
100
AcDbVertex
100
AcDb2dVertex
 10
698.9346714530563
 20
507.5551240592285
 30
0.0
  0
VERTEX
  5
3CEA
330
3CCF
100
AcDbEntity
  8
0
100
AcDbVertex
100
AcDb2dVertex
 10
699.4086866099092
 20
507.2752427543474
 30
0.0
  0
VERTEX
  5
3CEB
330
3CCF
100
AcDbEntity
  8
0
100
AcDbVertex
100
AcDb2dVertex
 10
699.9370936228122
 20
507.1014958339731
 30
0.0
  0
VERTEX
  5
3CEC
330
3CCF
100
AcDbEntity
  8
0
100
AcDbVertex
100
AcDb2dVertex
 10
700.4933959577031
 20
507.0425956941969
 30
0.0
  0
SEQEND
  5
3CED
330
3CCF
100
AcDbEntity
  8
0
  0
POLYLINE
  5
3CEE
330
A
100
AcDbEntity
  8
0
  6
Continuous
 62
     7
370
    15
100
AcDb2dPolyline
 66
     1
 10
0.0
 20
0.0
 30
0.0
 70
   128
  0
VERTEX
  5
3CEF
330
3CEE
100
AcDbEntity
  8
0
100
AcDbVertex
100
AcDb2dVertex
 10
702.3798273699297
 20
507.8502224719431
 30
0.0
  0
VERTEX
  5
3CF0
330
3CEE
100
AcDbEntity
  8
0
100
AcDbVertex
100
AcDb2dVertex
 10
702.0521204623499
 20
508.1453208846577
 30
0.0
  0
VERTEX
  5
3CF1
330
3CEE
100
AcDbEntity
  8
0
100
AcDbVertex
100
AcDb2dVertex
 10
701.578105305497
 20
508.4252021895387
 30
0.0
  0
VERTEX
  5
3CF2
330
3CEE
100
AcDbEntity
  8
0
100
AcDbVertex
100
AcDb2dVertex
 10
701.049698292594
 20
508.598949109913
 30
0.0
  0
VERTEX
  5
3CF3
330
3CEE
100
AcDbEntity
  8
0
100
AcDbVertex
100
AcDb2dVertex
 10
700.4933959577031
 20
508.6578492496892
 30
0.0
  0
VERTEX
  5
3CF4
330
3CEE
100
AcDbEntity
  8
0
100
AcDbVertex
100
AcDb2dVertex
 10
699.9370936228122
 20
508.598949109913
 30
0.0
  0
VERTEX
  5
3CF5
330
3CEE
100
AcDbEntity
  8
0
100
AcDbVertex
100
AcDb2dVertex
 10
699.4086866099092
 20
508.4252021895387
 30
0.0
  0
VERTEX
  5
3CF6
330
3CEE
100
AcDbEntity
  8
0
100
AcDbVertex
100
AcDb2dVertex
 10
698.9346714530563
 20
508.1453208846577
 30
0.0
  0
VERTEX
  5
3CF7
330
3CEE
100
AcDbEntity
  8
0
100
AcDbVertex
100
AcDb2dVertex
 10
698.6069645454765
 20
507.8502224719431
 30
0.0
  0
SEQEND
  5
3CF8
330
3CEE
100
AcDbEntity
  8
0
  0
LINE
  5
3CF9
330
A
100
AcDbEntity
  8
0
  6
Continuous
 62
     7
370
    15
100
AcDbLine
 10
672.9933959577031
 20
474.8362954045139
 30
0.0
 11
708.4933959577031
 21
474.8362954045137
 31
0.0
  0
LINE
  5
3CFA
330
A
100
AcDbEntity
  8
0
  6
Continuous
 62
     7
370
    15
100
AcDbLine
 10
672.9933959577031
 20
465.4424184911158
 30
0.0
 11
672.9933959577031
 21
477.4424184911159
 31
0.0
  0
LINE
  5
3CFB
330
A
100
AcDbEntity
  8
0
  6
Continuous
 62
     7
370
    15
100
AcDbLine
 10
655.2254467652717
 20
471.8524286348545
 30
0.0
 11
655.2254467652717
 21
477.442418491116
 31
0.0
  0
LINE
  5
3CFC
330
A
100
AcDbEntity
  8
0
  6
Continuous
 62
     7
370
    15
100
AcDbLine
 10
653.4933959577031
 20
474.4681794995052
 30
0.0
 11
653.4933959577031
 21
480.2139363805658
 31
0.0
  0
LINE
  5
3CFD
330
A
100
AcDbEntity
  8
0
  6
Continuous
 62
     7
370
    15
100
AcDbLine
 10
652.4933959577031
 20
474.2574570796273
 30
0.0
 11
652.4933959577031
 21
475.9895078871961
 31
0.0
  0
LINE
  5
3CFE
330
A
100
AcDbEntity
  8
0
  6
Continuous
 62
     7
370
    15
100
AcDbLine
 10
650.4933959577031
 20
474.2574570796273
 30
0.0
 11
650.4933959577031
 21
475.9895078871961
 31
0.0
  0
LINE
  5
3CFF
330
A
100
AcDbEntity
  8
0
  6
Continuous
 62
     7
370
    15
100
AcDbLine
 10
672.9933959577031
 20
485.0391052186207
 30
0.0
 11
653.4933959577031
 21
485.0391052186209
 31
0.0
  0
LINE
  5
3D00
330
A
100
AcDbEntity
  8
0
  6
Continuous
 62
     7
370
    15
100
AcDbLine
 10
672.9933959577031
 20
477.4424184911159
 30
0.0
 11
655.2254467652717
 21
477.442418491116
 31
0.0
  0
LINE
  5
3D01
330
A
100
AcDbEntity
  8
0
  6
Continuous
 62
     7
370
    15
100
AcDbLine
 10
672.9933959577031
 20
488.0029813468693
 30
0.0
 11
653.4933959577031
 21
488.0029813468693
 31
0.0
  0
LINE
  5
3D02
330
A
100
AcDbEntity
  8
0
  6
Continuous
 62
     7
370
    15
100
AcDbLine
 10
653.4933959577031
 20
480.2139363805658
 30
0.0
 11
653.4933959577031
 21
485.0391052186209
 31
0.0
  0
LINE
  5
3D03
330
A
100
AcDbEntity
  8
0
  6
Continuous
 62
     7
370
    15
100
AcDbLine
 10
653.4933959577031
 20
485.0391052186209
 30
0.0
 11
653.4933959577031
 21
488.0029813468693
 31
0.0
  0
LINE
  5
3D04
330
A
100
AcDbEntity
  8
0
  6
Continuous
 62
     7
370
    15
100
AcDbLine
 10
653.4933959577031
 20
480.2139363805658
 30
0.0
 11
655.2254467652717
 21
477.442418491116
 31
0.0
  0
LINE
  5
3D05
330
A
100
AcDbEntity
  8
0
  6
Continuous
 62
     7
370
    15
100
AcDbLine
 10
650.4933959577031
 20
475.9895078871961
 30
0.0
 11
650.4933959577031
 21
483.7837365212561
 31
0.0
  0
LINE
  5
3D06
330
A
100
AcDbEntity
  8
0
  6
Continuous
 62
     7
370
    15
100
AcDbLine
 10
650.4933959577031
 20
483.7837365212561
 30
0.0
 11
653.4933959577031
 21
483.7837365212562
 31
0.0
  0
LINE
  5
3D07
330
A
100
AcDbEntity
  8
0
  6
Continuous
 62
     7
370
    15
100
AcDbLine
 10
652.4933959577031
 20
475.9895078871961
 30
0.0
 11
650.4933959577031
 21
475.9895078871961
 31
0.0
  0
LINE
  5
3D08
330
A
100
AcDbEntity
  8
0
  6
Continuous
 62
     7
370
    15
100
AcDbLine
 10
672.9933959577031
 20
477.4424184911159
 30
0.0
 11
672.9933959577031
 21
485.0391052186207
 31
0.0
  0
POLYLINE
  5
3D09
330
A
100
AcDbEntity
  8
0
  6
Continuous
 62
     7
370
    15
100
AcDb2dPolyline
 66
     1
 10
0.0
 20
0.0
 30
0.0
 70
   128
  0
VERTEX
  5
3D0A
330
3D09
100
AcDbEntity
  8
0
100
AcDbVertex
100
AcDb2dVertex
 10
685.4933959577031
 20
492.2807635628658
 30
0.0
  0
VERTEX
  5
3D0B
330
3D09
100
AcDbEntity
  8
0
100
AcDbVertex
100
AcDb2dVertex
 10
685.4318376606786
 20
491.5457620006914
 30
0.0
  0
VERTEX
  5
3D0C
330
3D09
100
AcDbEntity
  8
0
100
AcDbVertex
100
AcDb2dVertex
 10
685.2486785391788
 20
490.828858616308
 30
0.0
  0
VERTEX
  5
3D0D
330
3D09
100
AcDbEntity
  8
0
100
AcDbVertex
100
AcDb2dVertex
 10
684.9484285786448
 20
490.1477059503052
 30
0.0
  0
VERTEX
  5
3D0E
330
3D09
100
AcDbEntity
  8
0
100
AcDbVertex
100
AcDb2dVertex
 10
684.5384809295776
 20
489.5190762419359
 30
0.0
  0
VERTEX
  5
3D0F
330
3D09
100
AcDbEntity
  8
0
100
AcDbVertex
100
AcDb2dVertex
 10
684.0289298636357
 20
488.9584484409224
 30
0.0
  0
VERTEX
  5
3D10
330
3D09
100
AcDbEntity
  8
0
100
AcDbVertex
100
AcDb2dVertex
 10
683.4323222191653
 20
488.4796270643432
 30
0.0
  0
VERTEX
  5
3D11
330
3D09
100
AcDbEntity
  8
0
100
AcDbVertex
100
AcDb2dVertex
 10
682.7633484564008
 20
488.0944022836063
 30
0.0
  0
VERTEX
  5
3D12
330
3D09
100
AcDbEntity
  8
0
100
AcDbVertex
100
AcDb2dVertex
 10
682.0384809295776
 20
487.8122596113014
 30
0.0
  0
VERTEX
  5
3D13
330
3D09
100
AcDbEntity
  8
0
100
AcDbVertex
100
AcDb2dVertex
 10
681.275568282904
 20
487.6401463363982
 30
0.0
  0
VERTEX
  5
3D14
330
3D09
100
AcDbEntity
  8
0
100
AcDbVertex
100
AcDb2dVertex
 10
680.4933959577031
 20
487.5823004589363
 30
0.0
  0
VERTEX
  5
3D15
330
3D09
100
AcDbEntity
  8
0
100
AcDbVertex
100
AcDb2dVertex
 10
679.7112236325017
 20
487.6401463363983
 30
0.0
  0
VERTEX
  5
3D16
330
3D09
100
AcDbEntity
  8
0
100
AcDbVertex
100
AcDb2dVertex
 10
678.9483109858281
 20
487.8122596113014
 30
0.0
  0
VERTEX
  5
3D17
330
3D09
100
AcDbEntity
  8
0
100
AcDbVertex
100
AcDb2dVertex
 10
678.2234434590052
 20
488.0944022836064
 30
0.0
  0
VERTEX
  5
3D18
330
3D09
100
AcDbEntity
  8
0
100
AcDbVertex
100
AcDb2dVertex
 10
677.5544696962408
 20
488.4796270643432
 30
0.0
  0
VERTEX
  5
3D19
330
3D09
100
AcDbEntity
  8
0
100
AcDbVertex
100
AcDb2dVertex
 10
676.9578620517702
 20
488.9584484409225
 30
0.0
  0
VERTEX
  5
3D1A
330
3D09
100
AcDbEntity
  8
0
100
AcDbVertex
100
AcDb2dVertex
 10
676.4483109858281
 20
489.5190762419359
 30
0.0
  0
VERTEX
  5
3D1B
330
3D09
100
AcDbEntity
  8
0
100
AcDbVertex
100
AcDb2dVertex
 10
676.0383633367612
 20
490.1477059503052
 30
0.0
  0
VERTEX
  5
3D1C
330
3D09
100
AcDbEntity
  8
0
100
AcDbVertex
100
AcDb2dVertex
 10
675.7381133762272
 20
490.828858616308
 30
0.0
  0
VERTEX
  5
3D1D
330
3D09
100
AcDbEntity
  8
0
100
AcDbVertex
100
AcDb2dVertex
 10
675.5549542547274
 20
491.5457620006915
 30
0.0
  0
VERTEX
  5
3D1E
330
3D09
100
AcDbEntity
  8
0
100
AcDbVertex
100
AcDb2dVertex
 10
675.4933959577031
 20
492.280763562866
 30
0.0
  0
VERTEX
  5
3D1F
330
3D09
100
AcDbEntity
  8
0
100
AcDbVertex
100
AcDb2dVertex
 10
675.4933959577031
 20
492.280763562866
 30
0.0
  0
SEQEND
  5
3D20
330
3D09
100
AcDbEntity
  8
0
  0
LINE
  5
3D21
330
A
100
AcDbEntity
  8
0
  6
Continuous
 62
     7
370
    15
100
AcDbLine
 10
672.9933959577031
 20
485.0391052186207
 30
0.0
 11
672.9933959577031
 21
488.0029813468693
 31
0.0
  0
POLYLINE
  5
3D22
330
A
100
AcDbEntity
  8
0
  6
Continuous
 62
     7
370
    15
100
AcDb2dPolyline
 66
     1
 10
0.0
 20
0.0
 30
0.0
 70
   128
  0
VERTEX
  5
3D23
330
3D22
100
AcDbEntity
  8
0
100
AcDbVertex
100
AcDb2dVertex
 10
682.3798273699285
 20
493.8223683370836
 30
0.0
  0
VERTEX
  5
3D24
330
3D22
100
AcDbEntity
  8
0
100
AcDbVertex
100
AcDb2dVertex
 10
682.0521204623498
 20
493.5272699243699
 30
0.0
  0
VERTEX
  5
3D25
330
3D22
100
AcDbEntity
  8
0
100
AcDbVertex
100
AcDb2dVertex
 10
681.5781053054968
 20
493.2473886194888
 30
0.0
  0
VERTEX
  5
3D26
330
3D22
100
AcDbEntity
  8
0
100
AcDbVertex
100
AcDb2dVertex
 10
681.0496982925938
 20
493.0736416991146
 30
0.0
  0
VERTEX
  5
3D27
330
3D22
100
AcDbEntity
  8
0
100
AcDbVertex
100
AcDb2dVertex
 10
680.4933959577031
 20
493.0147415593385
 30
0.0
  0
VERTEX
  5
3D28
330
3D22
100
AcDbEntity
  8
0
100
AcDbVertex
100
AcDb2dVertex
 10
679.9370936228122
 20
493.0736416991146
 30
0.0
  0
VERTEX
  5
3D29
330
3D22
100
AcDbEntity
  8
0
100
AcDbVertex
100
AcDb2dVertex
 10
679.4086866099092
 20
493.2473886194888
 30
0.0
  0
VERTEX
  5
3D2A
330
3D22
100
AcDbEntity
  8
0
100
AcDbVertex
100
AcDb2dVertex
 10
678.9346714530563
 20
493.5272699243701
 30
0.0
  0
VERTEX
  5
3D2B
330
3D22
100
AcDbEntity
  8
0
100
AcDbVertex
100
AcDb2dVertex
 10
678.6069645454779
 20
493.8223683370832
 30
0.0
  0
SEQEND
  5
3D2C
330
3D22
100
AcDbEntity
  8
0
  0
LINE
  5
3D2D
330
A
100
AcDbEntity
  8
0
  6
Continuous
 62
     7
370
    15
100
AcDbLine
 10
663.4933959577031
 20
460.4632284455673
 30
0.0
 11
658.4933959577031
 21
460.4632284455673
 31
0.0
  0
LINE
  5
3D2E
330
A
100
AcDbEntity
  8
0
  6
Continuous
 62
     7
370
    15
100
AcDbLine
 10
663.4933959577031
 20
468.4632284455672
 30
0.0
 11
658.4933959577031
 21
468.4632284455672
 31
0.0
  0
LINE
  5
3D2F
330
A
100
AcDbEntity
  8
0
  6
Continuous
 62
     7
370
    15
100
AcDbLine
 10
663.4933959577031
 20
474.4389270973725
 30
0.0
 11
658.4933959577031
 21
474.4389270973725
 31
0.0
  0
LINE
  5
3D30
330
A
100
AcDbEntity
  8
0
  6
Continuous
 62
     7
370
    15
100
AcDbLine
 10
650.4933959577031
 20
462.4632284455674
 30
0.0
 11
650.4933959577031
 21
466.4632284455673
 31
0.0
  0
LINE
  5
3D31
330
A
100
AcDbEntity
  8
0
  6
Continuous
 62
     7
370
    15
100
AcDbLine
 10
658.4933959577031
 20
468.4632284455672
 30
0.0
 11
658.4933959577031
 21
474.4389270973725
 31
0.0
  0
LINE
  5
3D32
330
A
100
AcDbEntity
  8
0
  6
Continuous
 62
     7
370
    15
100
AcDbLine
 10
650.4933959577031
 20
466.4632284455673
 30
0.0
 11
650.4933959577031
 21
474.2574570796273
 31
0.0
  0
LINE
  5
3D33
330
A
100
AcDbEntity
  8
0
  6
Continuous
 62
     7
370
    15
100
AcDbLine
 10
655.2254467652717
 20
471.8524286348545
 30
0.0
 11
658.4933959577031
 21
471.8524286348545
 31
0.0
  0
LINE
  5
3D34
330
A
100
AcDbEntity
  8
0
  6
Continuous
 62
     7
370
    15
100
AcDbLine
 10
653.4933959577031
 20
474.4681794995052
 30
0.0
 11
655.2254467652717
 21
471.8524286348545
 31
0.0
  0
LINE
  5
3D35
330
A
100
AcDbEntity
  8
0
  6
Continuous
 62
     7
370
    15
100
AcDbLine
 10
650.4933959577031
 20
474.2574570796273
 30
0.0
 11
652.4933959577031
 21
474.2574570796273
 31
0.0
  0
LINE
  5
3D36
330
A
100
AcDbEntity
  8
0
  6
Continuous
 62
     7
370
    15
100
AcDbLine
 10
658.4933959577031
 20
466.4632284455673
 30
0.0
 11
658.4933959577031
 21
468.4632284455672
 31
0.0
  0
LINE
  5
3D37
330
A
100
AcDbEntity
  8
0
  6
Continuous
 62
     7
370
    15
100
AcDbLine
 10
658.4933959577031
 20
466.4632284455673
 30
0.0
 11
650.4933959577031
 21
466.4632284455673
 31
0.0
  0
LINE
  5
3D38
330
A
100
AcDbEntity
  8
0
  6
Continuous
 62
     7
370
    15
100
AcDbLine
 10
658.4933959577031
 20
460.4632284455673
 30
0.0
 11
658.4933959577031
 21
462.4632284455674
 31
0.0
  0
LINE
  5
3D39
330
A
100
AcDbEntity
  8
0
  6
Continuous
 62
     7
370
    15
100
AcDbLine
 10
658.4933959577031
 20
462.4632284455674
 30
0.0
 11
650.4933959577031
 21
462.4632284455674
 31
0.0
  0
LINE
  5
3D3A
330
A
100
AcDbEntity
  8
0
  6
Continuous
 62
     7
370
    15
100
AcDbLine
 10
668.8933959577032
 20
461.9632284455673
 30
0.0
 11
668.8933959577032
 21
466.9632284455672
 31
0.0
  0
LINE
  5
3D3B
330
A
100
AcDbEntity
  8
0
  6
Continuous
 62
     7
370
    15
100
AcDbLine
 10
668.8933959577029
 20
472.4615484419878
 30
0.0
 11
668.8933959577032
 21
466.9632284455672
 31
0.0
  0
LINE
  5
3D3C
330
A
100
AcDbEntity
  8
0
  6
Continuous
 62
     7
370
    15
100
AcDbLine
 10
663.4933959577031
 20
474.4389270973723
 30
0.0
 11
663.4933959577031
 21
468.4632284455672
 31
0.0
  0
LINE
  5
3D3D
330
A
100
AcDbEntity
  8
0
  6
Continuous
 62
     7
370
    15
100
AcDbLine
 10
668.8933959577029
 20
472.4615484419878
 30
0.0
 11
663.4933959577031
 21
472.4615484419878
 31
0.0
  0
LINE
  5
3D3E
330
A
100
AcDbEntity
  8
0
  6
Continuous
 62
     7
370
    15
100
AcDbLine
 10
663.4933959577031
 20
466.9632284455672
 30
0.0
 11
663.4933959577031
 21
468.4632284455672
 31
0.0
  0
LINE
  5
3D3F
330
A
100
AcDbEntity
  8
0
  6
Continuous
 62
     7
370
    15
100
AcDbLine
 10
668.8933959577032
 20
466.9632284455672
 30
0.0
 11
663.4933959577031
 21
466.9632284455672
 31
0.0
  0
LINE
  5
3D40
330
A
100
AcDbEntity
  8
0
  6
Continuous
 62
     7
370
    15
100
AcDbLine
 10
663.4933959577031
 20
460.4632284455673
 30
0.0
 11
663.4933959577031
 21
461.9632284455673
 31
0.0
  0
LINE
  5
3D41
330
A
100
AcDbEntity
  8
0
  6
Continuous
 62
     7
370
    15
100
AcDbLine
 10
672.9933959577031
 20
465.4424184911158
 30
0.0
 11
668.8933959577032
 21
465.4424184911158
 31
0.0
  0
LINE
  5
3D42
330
A
100
AcDbEntity
  8
0
  6
Continuous
 62
     7
370
    15
100
AcDbLine
 10
663.4933959577031
 20
461.9632284455673
 30
0.0
 11
668.8933959577032
 21
461.9632284455673
 31
0.0
  0
DIMENSION
  5
3D43
330
A
100
AcDbEntity
  8
AM_5
100
AcDbDimension
  2
*D44
 10
597.5251849274533
 20
307.4836346181758
 30
0.0
 11
555.9964187148145
 21
283.5069902662024
 31
0.0
 70
   161
  1
<> Counter bore depth 8\P(2 positions)
 71
     5
 42
6.916389999999978
  3
ISO-25
100
AcDbAlignedDimension
 13
596.26201781981
 23
295.8387242270614
 33
0.0
 14
602.2517872622911
 24
299.2969192270607
 34
0.0
  0
LINE
  5
3D44
330
A
100
AcDbEntity
  8
0
370
     9
100
AcDbLine
 10
611.9084487038155
 20
279.2977192270608
 30
0.0
 11
618.5748487038154
 21
279.2977192270608
 31
0.0
  0
LINE
  5
3D45
330
A
100
AcDbEntity
  8
0
370
     9
100
AcDbLine
 10
611.9084487038155
 20
280.9643192270608
 30
0.0
 11
618.5748487038154
 21
280.9643192270608
 31
0.0
  0
LINE
  5
3D46
330
A
100
AcDbEntity
  8
0
370
     9
100
AcDbLine
 10
611.9084487038155
 20
288.4640192270608
 30
0.0
 11
618.5748487038154
 21
288.4640192270608
 31
0.0
  0
LINE
  5
3D47
330
A
100
AcDbEntity
  8
0
370
     9
100
AcDbLine
 10
611.9084487038155
 20
295.1304192270608
 30
0.0
 11
618.5748487038154
 21
295.1304192270608
 31
0.0
  0
LINE
  5
3D48
330
A
100
AcDbEntity
  8
0
370
     9
100
AcDbLine
 10
611.906944179821
 20
300.9568612755015
 30
0.0
 11
618.5728406951182
 21
300.9696607179925
 31
0.0
  0
LINE
  5
3D49
330
A
100
AcDbEntity
  8
0
370
     9
100
AcDbLine
 10
611.9084487038155
 20
271.7980192270608
 30
0.0
 11
618.5748487038154
 21
271.7980192270608
 31
0.0
  0
DIMENSION
  5
3D4A
330
A
100
AcDbEntity
  8
AM_5
100
AcDbDimension
  2
*D45
 10
598.892943496567
 20
297.3576898747541
 30
0.0
 11
586.1572330034391
 21
289.7000984452997
 31
0.0
 70
   164
  1
R7
 71
     5
 42
3.878458704613422
  3
ISO-25
100
AcDbRadialDimension
 15
602.216831658129
 25
299.3562417036589
 35
0.0
 40
0.0
  0
ARC
  5
3D4B
330
A
100
AcDbEntity
  8
0
370
     9
100
AcDbCircle
 10
598.8929434965671
 20
297.3576898747541
 30
0.0
 40
3.87845870461329
100
AcDbArc
 50
332.257138073045
 51
87.74286192695411
  0
LINE
  5
3D4C
330
A
100
AcDbEntity
  8
0
370
     9
100
AcDbLine
 10
611.9084487038155
 20
300.9568641643952
 30
0.0
 11
611.9084487038155
 21
288.4640192270608
 31
0.0
  0
ARC
  5
3D4D
330
A
100
AcDbEntity
  8
0
370
     9
100
AcDbCircle
 10
615.2416487038156
 20
306.7966192270608
 30
0.0
 40
21.91579000000005
100
AcDbArc
 50
201.2518626697905
 51
218.7481373302026
  0
ARC
  5
3D4E
330
A
100
AcDbEntity
  8
0
370
     9
100
AcDbCircle
 10
615.241164980031
 20
306.7968985051178
 30
0.0
 40
11.24955
100
AcDbArc
 50
167.2369999999993
 51
252.7579999999987
  0
ARC
  5
3D4F
330
A
100
AcDbEntity
  8
0
370
     9
100
AcDbCircle
 10
615.2416487038156
 20
306.7966192270608
 30
0.0
 40
29.99880000000004
100
AcDbArc
 50
250.5287793655142
 51
263.6206297915588
  0
LINE
  5
3D50
330
A
100
AcDbEntity
  8
0
370
     9
100
AcDbLine
 10
611.9084487038155
 20
271.7980192270608
 30
0.0
 11
611.9084487038155
 21
279.2977192270608
 31
0.0
  0
LINE
  5
3D51
330
A
100
AcDbEntity
  8
0
370
     9
100
AcDbLine
 10
608.5752487038157
 20
271.7980192270608
 30
0.0
 11
611.9084487038155
 21
271.7980192270608
 31
0.0
  0
LINE
  5
3D52
330
A
100
AcDbEntity
  8
0
370
     9
100
AcDbLine
 10
608.5752487038157
 20
271.7980192270608
 30
0.0
 11
608.5752487038157
 21
277.5479079310054
 31
0.0
  0
LINE
  5
3D53
330
A
100
AcDbEntity
  8
CENTER
370
     9
100
AcDbLine
 10
616.0749487038152
 20
274.1045512891137
 30
0.0
 11
614.4083487038151
 21
276.9911871650079
 31
0.0
  0
CIRCLE
  5
3D54
330
A
100
AcDbEntity
  8
0
370
     9
100
AcDbCircle
 10
615.2416487038156
 20
275.5478692270608
 30
0.0
 40
1.6666
  0
LINE
  5
3D55
330
A
100
AcDbEntity
  8
CENTER
370
     9
100
AcDbLine
 10
616.6849666417619
 20
276.381169227061
 30
0.0
 11
613.7983307658678
 21
274.714569227061
 31
0.0
  0
ARC
  5
3D56
330
A
100
AcDbEntity
  8
DIM
100
AcDbCircle
 10
615.2416487038153
 20
275.547869227061
 30
0.0
 40
1.24995
100
AcDbArc
 50
300.0000000000005
 51
209.9999999999973
  0
LINE
  5
3D57
330
A
100
AcDbEntity
  8
0
370
     9
100
AcDbLine
 10
604.4291142104159
 20
289.7623114717498
 30
0.0
 11
606.4109633964776
 21
292.1241873592188
 31
0.0
  0
LINE
  5
3D58
330
A
100
AcDbEntity
  8
0
370
     9
100
AcDbLine
 10
606.4109633964776
 20
292.1241873592188
 30
0.0
 11
602.3255564559908
 21
295.5522508161903
 31
0.0
  0
ARC
  5
3D59
330
A
100
AcDbEntity
  8
0
370
     9
100
AcDbCircle
 10
615.2416487038156
 20
306.7966192270608
 30
0.0
 40
27.49890000000001
100
AcDbArc
 50
248.6763137365088
 51
263.037937308922
  0
ARC
  5
3D5A
330
A
100
AcDbEntity
  8
0
370
     9
100
AcDbCircle
 10
602.7421487038155
 20
285.8231021656306
 30
0.0
 40
2.4999
100
AcDbArc
 50
0.0
 51
59.20650154575505
  0
LINE
  5
3D5B
330
A
100
AcDbEntity
  8
0
370
     9
100
AcDbLine
 10
605.2420487038157
 20
285.8231021656306
 30
0.0
 11
605.2420487038157
 21
281.1802670072384
 31
0.0
  0
LINE
  5
3D5C
330
A
100
AcDbEntity
  8
0
370
     9
100
AcDbLine
 10
605.2420487038157
 20
278.5134793504487
 30
0.0
 11
605.2420487038157
 21
281.1802670072384
 31
0.0
  0
ARC
  5
3D5D
330
A
100
AcDbEntity
  8
0
370
     9
100
AcDbCircle
 10
615.2416487038156
 20
306.7966192270608
 30
0.0
 40
21.91579000000001
100
AcDbArc
 50
218.7481373302026
 51
224.5453975118773
  0
LINE
  5
3D5E
330
A
100
AcDbEntity
  8
CENTER
100
AcDbLine
 10
600.2366231419334
 20
288.9319966369619
 30
0.0
 11
605.4360096607918
 21
295.1208115871454
 31
0.0
  0
LINE
  5
3D5F
330
A
100
AcDbEntity
  8
0
370
     9
100
AcDbLine
 10
603.7657985525847
 20
289.8792719189519
 30
0.0
 11
604.4291142104159
 21
289.7623114717498
 31
0.0
  0
ARC
  5
3D60
330
A
100
AcDbEntity
  8
0
370
     9
100
AcDbCircle
 10
615.2416487038156
 20
306.7966192270608
 30
0.0
 40
21.91579000000002
100
AcDbArc
 50
235.4546024881317
 51
239.206501545755
  0
LINE
  5
3D61
330
A
100
AcDbEntity
  8
0
370
     9
100
AcDbLine
 10
602.8141017788914
 20
288.7450838698423
 30
0.0
 11
603.7657985525847
 21
289.8792719189519
 31
0.0
  0
LINE
  5
3D62
330
A
100
AcDbEntity
  8
0
370
     9
100
AcDbLine
 10
600.5740743803299
 20
292.5574464947107
 30
0.0
 11
599.6223776066362
 21
291.4232584456012
 31
0.0
  0
LINE
  5
3D63
330
A
100
AcDbEntity
  8
0
370
     9
100
AcDbLine
 10
600.3437072699293
 20
293.1903749287215
 30
0.0
 11
600.5740743803299
 21
292.5574464947107
 31
0.0
  0
LINE
  5
3D64
330
A
100
AcDbEntity
  8
0
370
     9
100
AcDbLine
 10
602.3255564559908
 20
295.5522508161903
 30
0.0
 11
600.3437072699293
 21
293.1903749287215
 31
0.0
  0
LINE
  5
3D65
330
A
100
AcDbEntity
  8
0
370
     9
100
AcDbLine
 10
611.9084487038155
 20
280.9643192270608
 30
0.0
 11
611.9084487038155
 21
288.4640192270608
 31
0.0
  0
LINE
  5
3D66
330
A
100
AcDbEntity
  8
CENTER
370
     9
100
AcDbLine
 10
616.0749487038152
 20
283.2708512891137
 30
0.0
 11
614.4083487038151
 21
286.1574871650079
 31
0.0
  0
LINE
  5
3D67
330
A
100
AcDbEntity
  8
0
370
     9
100
AcDbLine
 10
611.9084487038155
 20
279.2977192270608
 30
0.0
 11
611.9084487038155
 21
280.9643192270608
 31
0.0
  0
CIRCLE
  5
3D68
330
A
100
AcDbEntity
  8
0
370
     9
100
AcDbCircle
 10
615.2416487038156
 20
284.7141692270608
 30
0.0
 40
1.6666
  0
ARC
  5
3D69
330
A
100
AcDbEntity
  8
DIM
100
AcDbCircle
 10
615.2416487038153
 20
284.714169227061
 30
0.0
 40
1.24995
100
AcDbArc
 50
300.0000000000005
 51
209.9999999999973
  0
LINE
  5
3D6A
330
A
100
AcDbEntity
  8
CENTER
370
     9
100
AcDbLine
 10
616.6849666417619
 20
285.547469227061
 30
0.0
 11
613.7983307658678
 21
283.880869227061
 31
0.0
  0
LINE
  5
3D6B
330
A
100
AcDbEntity
  8
CENTER
100
AcDbLine
 10
600.2258521285262
 20
304.1576324645955
 30
0.0
 11
592.2647974095069
 21
302.758826394807
 31
0.0
  0
ARC
  5
3D6C
330
A
100
AcDbEntity
  8
0
370
     9
100
AcDbCircle
 10
590.8283001219106
 20
306.4584932231724
 30
0.0
 40
2.49990000000002
100
AcDbArc
 50
0.7934984542365577
 51
60.00000000000109
  0
LINE
  5
3D6D
330
A
100
AcDbEntity
  8
0
370
     9
100
AcDbLine
 10
588.0574369291593
 20
310.9448877092892
 30
0.0
 11
592.0782501219107
 21
308.6234701300932
 31
0.0
  0
LINE
  5
3D6E
330
A
100
AcDbEntity
  8
0
370
     9
100
AcDbLine
 10
599.0456938865782
 20
301.2331394282565
 30
0.0
 11
598.1196073172991
 21
306.4852373520011
 31
0.0
  0
CIRCLE
  5
3D6F
330
A
100
AcDbEntity
  8
0
370
     9
100
AcDbCircle
 10
599.3651513863969
 20
297.630319227061
 30
0.0
 40
1.874925
  0
LINE
  5
3D70
330
A
100
AcDbEntity
  8
0
370
     9
100
AcDbLine
 10
594.1182921769386
 20
300.956614059037
 30
0.0
 11
595.576376226983
 21
301.2137136172007
 31
0.0
  0
ARC
  5
3D71
330
A
100
AcDbEntity
  8
0
370
     9
100
AcDbCircle
 10
615.2416487038156
 20
306.7966192270608
 30
0.0
 40
21.91578999999999
100
AcDbArc
 50
195.454602488123
 51
201.2518626697905
  0
LINE
  5
3D72
330
A
100
AcDbEntity
  8
0
370
     9
100
AcDbLine
 10
595.576376226983
 20
301.2137136172007
 30
0.0
 11
596.0093247744135
 21
300.6977456303921
 31
0.0
  0
LINE
  5
3D73
330
A
100
AcDbEntity
  8
0
370
     9
100
AcDbLine
 10
596.0093247744135
 20
300.6977456303921
 30
0.0
 11
599.0456938865782
 21
301.2331394282565
 31
0.0
  0
LINE
  5
3D74
330
A
100
AcDbEntity
  8
0
370
     9
100
AcDbLine
 10
595.0832382051341
 20
305.9498435541367
 30
0.0
 11
594.8528710947339
 21
305.3169151201259
 31
0.0
  0
LINE
  5
3D75
330
A
100
AcDbEntity
  8
0
370
     9
100
AcDbLine
 10
598.1196073172991
 20
306.4852373520011
 30
0.0
 11
595.0832382051341
 21
305.9498435541367
 31
0.0
  0
ARC
  5
3D76
330
A
100
AcDbEntity
  8
0
370
     9
100
AcDbCircle
 10
615.2416487038156
 20
306.7966192270608
 30
0.0
 40
21.91578999999997
100
AcDbArc
 50
180.7934984542365
 51
184.5453975118801
  0
LINE
  5
3D77
330
A
100
AcDbEntity
  8
0
370
     9
100
AcDbLine
 10
594.8528710947339
 20
305.3169151201259
 30
0.0
 11
593.3947870446891
 21
305.0598155619625
 31
0.0
  0
LINE
  5
3D78
330
A
100
AcDbEntity
  8
CENTER
370
     9
100
AcDbLine
 10
610.0045924679434
 20
300.8675081535722
 30
0.0
 11
607.4878760505944
 21
305.2265888566635
 31
0.0
  0
CIRCLE
  5
3D79
330
A
100
AcDbEntity
  8
0
370
     9
100
AcDbCircle
 10
608.7462342592689
 20
303.0470485051178
 30
0.0
 40
1.6666
  0
LINE
  5
3D7A
330
A
100
AcDbEntity
  8
CENTER
370
     9
100
AcDbLine
 10
610.9257746108144
 20
304.3054067137924
 30
0.0
 11
606.5666939077232
 21
301.7886902964433
 31
0.0
  0
ARC
  5
3D7B
330
A
100
AcDbEntity
  8
0
370
     9
100
AcDbCircle
 10
631.6024932490623
 20
297.3574507323047
 30
0.0
 40
3.889095669655695
100
AcDbArc
 50
92.4841881688375
 51
207.656492133151
  0
ARC
  5
3D7C
330
A
100
AcDbEntity
  8
0
370
     9
100
AcDbCircle
 10
615.2416487038156
 20
306.7966192270608
 30
0.0
 40
21.91579000000002
100
AcDbArc
 50
321.2518626697974
 51
338.7481373302096
  0
LINE
  5
3D7D
330
A
100
AcDbEntity
  8
0
370
     9
100
AcDbLine
 10
618.5748487038154
 20
300.9696645736465
 30
0.0
 11
618.5748487038154
 21
288.4640192270608
 31
0.0
  0
ARC
  5
3D7E
330
A
100
AcDbEntity
  8
0
370
     9
100
AcDbCircle
 10
615.241164980031
 20
306.7968985051178
 30
0.0
 40
11.24955
100
AcDbArc
 50
287.2289999999967
 51
12.76689999999711
  0
ARC
  5
3D7F
330
A
100
AcDbEntity
  8
0
370
     9
100
AcDbCircle
 10
615.2416487038156
 20
306.7966192270608
 30
0.0
 40
29.99880000000003
100
AcDbArc
 50
276.3793702084412
 51
289.4712206344857
  0
LINE
  5
3D80
330
A
100
AcDbEntity
  8
0
370
     9
100
AcDbLine
 10
618.5748487038154
 20
271.7980192270608
 30
0.0
 11
618.5748487038154
 21
279.2977192270608
 31
0.0
  0
LINE
  5
3D81
330
A
100
AcDbEntity
  8
0
370
     9
100
AcDbLine
 10
618.5748487038154
 20
271.7980192270608
 30
0.0
 11
621.9080487038154
 21
271.7980192270608
 31
0.0
  0
LINE
  5
3D82
330
A
100
AcDbEntity
  8
0
370
     9
100
AcDbLine
 10
621.9080487038154
 20
271.7980192270608
 30
0.0
 11
621.9080487038154
 21
277.5479079310054
 31
0.0
  0
LINE
  5
3D83
330
A
100
AcDbEntity
  8
0
370
     9
100
AcDbLine
 10
629.9092230273013
 20
292.5574464947107
 30
0.0
 11
630.8609198009949
 21
291.4232584456012
 31
0.0
  0
ARC
  5
3D84
330
A
100
AcDbEntity
  8
0
370
     9
100
AcDbCircle
 10
627.7411487038157
 20
285.8231021656306
 30
0.0
 40
2.4999
100
AcDbArc
 50
120.7934984542449
 51
180.0
  0
LINE
  5
3D85
330
A
100
AcDbEntity
  8
0
370
     9
100
AcDbLine
 10
618.5748487038154
 20
280.9643192270608
 30
0.0
 11
618.5748487038154
 21
288.4640192270608
 31
0.0
  0
ARC
  5
3D86
330
A
100
AcDbEntity
  8
0
370
     9
100
AcDbCircle
 10
615.2416487038156
 20
306.7966192270608
 30
0.0
 40
27.49890000000001
100
AcDbArc
 50
276.9620626910913
 51
291.3236862634911
  0
LINE
  5
3D87
330
A
100
AcDbEntity
  8
0
370
     9
100
AcDbLine
 10
618.5748487038154
 20
279.2977192270608
 30
0.0
 11
618.5748487038154
 21
280.9643192270608
 31
0.0
  0
LINE
  5
3D88
330
A
100
AcDbEntity
  8
0
370
     9
100
AcDbLine
 10
625.2412487038155
 20
281.1802670072384
 30
0.0
 11
625.2412487038155
 21
285.8231021656306
 31
0.0
  0
LINE
  5
3D89
330
A
100
AcDbEntity
  8
0
370
     9
100
AcDbLine
 10
625.2412487038155
 20
281.1802670072384
 30
0.0
 11
625.2412487038155
 21
278.5134793504487
 31
0.0
  0
LINE
  5
3D8A
330
A
100
AcDbEntity
  8
0
370
     9
100
AcDbLine
 10
626.0541831972152
 20
289.7623114717498
 30
0.0
 11
624.0723340111535
 21
292.1241873592188
 31
0.0
  0
LINE
  5
3D8B
330
A
100
AcDbEntity
  8
0
370
     9
100
AcDbLine
 10
624.0723340111535
 20
292.1241873592188
 30
0.0
 11
628.1577409516403
 21
295.5522508161903
 31
0.0
  0
LINE
  5
3D8C
330
A
100
AcDbEntity
  8
CENTER
100
AcDbLine
 10
630.2431617330057
 20
288.9319966369619
 30
0.0
 11
625.0437752141474
 21
295.1208115871454
 31
0.0
  0
LINE
  5
3D8D
330
A
100
AcDbEntity
  8
0
370
     9
100
AcDbLine
 10
628.1577409516403
 20
295.5522508161903
 30
0.0
 11
630.1395901377018
 21
293.1903749287215
 31
0.0
  0
LINE
  5
3D8E
330
A
100
AcDbEntity
  8
0
370
     9
100
AcDbLine
 10
630.1395901377018
 20
293.1903749287215
 30
0.0
 11
629.9092230273013
 21
292.5574464947107
 31
0.0
  0
LINE
  5
3D8F
330
A
100
AcDbEntity
  8
0
370
     9
100
AcDbLine
 10
626.7174988550461
 20
289.8792719189519
 30
0.0
 11
626.0541831972152
 21
289.7623114717498
 31
0.0
  0
ARC
  5
3D90
330
A
100
AcDbEntity
  8
0
370
     9
100
AcDbCircle
 10
615.2416487038156
 20
306.7966192270608
 30
0.0
 40
21.91579000000004
100
AcDbArc
 50
300.793498454245
 51
304.5453975118702
  0
LINE
  5
3D91
330
A
100
AcDbEntity
  8
0
370
     9
100
AcDbLine
 10
627.6691956287395
 20
288.7450838698423
 30
0.0
 11
626.7174988550461
 21
289.8792719189519
 31
0.0
  0
ARC
  5
3D92
330
A
100
AcDbEntity
  8
0
370
     9
100
AcDbCircle
 10
615.2416487038156
 20
306.7966192270608
 30
0.0
 40
21.91579000000006
100
AcDbArc
 50
315.4546024881227
 51
321.2518626697974
  0
LINE
  5
3D93
330
A
100
AcDbEntity
  8
CENTER
100
AcDbLine
 10
630.2539327464128
 20
304.1576324645955
 30
0.0
 11
638.2149874654324
 21
302.758826394807
 31
0.0
  0
CIRCLE
  5
3D94
330
A
100
AcDbEntity
  8
0
370
     9
100
AcDbCircle
 10
631.1181460212339
 20
297.6303192270608
 30
0.0
 40
1.874925000000047
  0
CIRCLE
  5
3D95
330
A
100
AcDbEntity
  8
0
370
     9
100
AcDbCircle
 10
621.7360957007931
 20
303.0470485051178
 30
0.0
 40
1.6666
  0
LINE
  5
3D96
330
A
100
AcDbEntity
  8
CENTER
370
     9
100
AcDbLine
 10
622.9944539094677
 20
305.2265888566635
 30
0.0
 11
620.4777374921186
 21
300.8675081535722
 31
0.0
  0
LINE
  5
3D97
330
A
100
AcDbEntity
  8
CENTER
370
     9
100
AcDbLine
 10
619.5565553492474
 20
304.3054067137924
 30
0.0
 11
623.9156360523388
 21
301.7886902964433
 31
0.0
  0
LINE
  5
3D98
330
A
100
AcDbEntity
  8
0
370
     9
100
AcDbLine
 10
631.4376035210529
 20
301.2331394282565
 30
0.0
 11
632.363690090332
 21
306.4852373520011
 31
0.0
  0
ARC
  5
3D99
330
A
100
AcDbEntity
  8
0
370
     9
100
AcDbCircle
 10
615.2416487038156
 20
306.7966192270608
 30
0.0
 40
21.91579000000005
100
AcDbArc
 50
338.7481373302096
 51
344.545397511877
  0
LINE
  5
3D9A
330
A
100
AcDbEntity
  8
0
370
     9
100
AcDbLine
 10
636.3650052306925
 20
300.956614059037
 30
0.0
 11
634.9069211806481
 21
301.2137136172007
 31
0.0
  0
LINE
  5
3D9B
330
A
100
AcDbEntity
  8
0
370
     9
100
AcDbLine
 10
634.4739726332177
 20
300.6977456303921
 30
0.0
 11
631.4376035210529
 21
301.2331394282565
 31
0.0
  0
LINE
  5
3D9C
330
A
100
AcDbEntity
  8
0
370
     9
100
AcDbLine
 10
634.9069211806481
 20
301.2137136172007
 30
0.0
 11
634.4739726332177
 21
300.6977456303921
 31
0.0
  0
LINE
  5
3D9D
330
A
100
AcDbEntity
  8
0
370
     9
100
AcDbLine
 10
635.6304263128972
 20
305.3169151201259
 30
0.0
 11
637.088510362942
 21
305.0598155619625
 31
0.0
  0
ARC
  5
3D9E
330
A
100
AcDbEntity
  8
0
370
     9
100
AcDbCircle
 10
639.6549972857205
 20
306.4584932231724
 30
0.0
 40
2.499900000000023
100
AcDbArc
 50
120.0000000000005
 51
179.2065015457504
  0
LINE
  5
3D9F
330
A
100
AcDbEntity
  8
0
370
     9
100
AcDbLine
 10
635.4000592024967
 20
305.9498435541367
 30
0.0
 11
635.6304263128972
 21
305.3169151201259
 31
0.0
  0
LINE
  5
3DA0
330
A
100
AcDbEntity
  8
0
370
     9
100
AcDbLine
 10
632.363690090332
 20
306.4852373520011
 30
0.0
 11
635.4000592024967
 21
305.9498435541367
 31
0.0
  0
LINE
  5
3DA1
330
A
100
AcDbEntity
  8
0
370
     9
100
AcDbLine
 10
638.4050472857202
 20
308.6234701300932
 30
0.0
 11
642.4258604784718
 21
310.9448877092894
 31
0.0
  0
ARC
  5
3DA2
330
A
100
AcDbEntity
  8
0
370
     9
100
AcDbCircle
 10
615.2416487038156
 20
306.7966192270608
 30
0.0
 40
21.91579000000007
100
AcDbArc
 50
355.4546024881199
 51
359.2065015457504
  0
LINE
  5
3DA3
330
A
100
AcDbEntity
  8
0
370
     0
100
AcDbLine
 10
658.4933959577028
 20
392.5538105387756
 30
0.0
 11
663.4933959577031
 21
392.5538105387756
 31
0.0
  0
DIMENSION
  5
3E17
330
A
100
AcDbEntity
  8
AM_5
100
AcDbDimension
  2
*D46
 10
672.9933959577031
 20
333.9320849942671
 30
0.0
 11
690.7433959577031
 21
336.6820849942671
 31
0.0
 70
    32
 71
     5
 42
35.5
  3
AM_ISO$0
100
AcDbAlignedDimension
 13
708.4933959577031
 23
355.9320849942673
 33
0.0
 14
672.9933959577031
 24
345.9320849942671
 34
0.0
100
AcDbRotatedDimension
1001
ACAD
1000
DSTYLE
1002
{
1070
   272
1070
     8
1002
}
  0
DIMENSION
  5
3E3A
330
A
100
AcDbEntity
  8
AM_5
100
AcDbDimension
  2
*D47
 10
668.8933959577032
 20
327.4320849942672
 30
0.0
 11
688.6933959577032
 21
330.1820849942671
 31
0.0
 70
    32
 71
     5
 42
39.59999999999991
  3
AM_ISO$0
100
AcDbAlignedDimension
 13
708.4933959577031
 23
355.9320849942672
 33
0.0
 14
668.8933959577032
 24
339.9320849942672
 34
0.0
100
AcDbRotatedDimension
1001
ACAD
1000
DSTYLE
1002
{
1070
   174
1070
     1
1070
   272
1070
     8
1002
}
  0
DIMENSION
  5
3E6F
330
A
100
AcDbEntity
  8
AM_5
100
AcDbDimension
  2
*D48
 10
668.8933959577032
 20
327.4320849942672
 30
0.0
 11
663.6933959577032
 21
330.1820849942671
 31
0.0
 70
    32
 71
     5
 42
10.40000000000009
  3
AM_ISO$0
100
AcDbAlignedDimension
 13
658.4933959577031
 23
339.9320849942672
 33
0.0
 14
668.8933959577032
 24
339.9320849942672
 34
0.0
100
AcDbRotatedDimension
1001
ACAD
1000
DSTYLE
1002
{
1070
   174
1070
     1
1070
   272
1070
     8
1002
}
  0
DIMENSION
  5
3E9B
330
A
100
AcDbEntity
  8
AM_5
100
AcDbDimension
  2
*D49
 10
658.4933959577031
 20
333.8605663488035
 30
0.0
 11
660.9933959577031
 21
336.6105663488034
 31
0.0
 70
    32
 71
     5
 42
5.0
  3
AM_ISO$0
100
AcDbAlignedDimension
 13
663.4933959577031
 23
339.9320849942672
 33
0.0
 14
658.4933959577031
 24
339.9320849942671
 34
0.0
100
AcDbRotatedDimension
1001
ACAD
1000
DSTYLE
1002
{
1070
   272
1070
     8
1002
}
  0
DIMENSION
  5
3EC8
330
A
100
AcDbEntity
  8
AM_5
100
AcDbDimension
  2
*D50
 10
650.4933959577028
 20
417.4038598157486
 30
0.0
 11
679.4933959577028
 21
417.4038598157486
 31
0.0
 70
   160
  1
(<>)
 71
     5
 42
58.00000000000022
  3
AM_ISO$0
100
AcDbAlignedDimension
 13
708.4933959577031
 23
407.9320849942672
 33
0.0
 14
650.4933959577028
 24
406.3961866094047
 34
0.0
100
AcDbRotatedDimension
1001
ACAD
1000
DSTYLE
1002
{
1070
   272
1070
     8
1002
}
  0
DIMENSION
  5
3F02
330
A
100
AcDbEntity
  8
AM_5
100
AcDbDimension
  2
*D51
 10
644.1102332434901
 20
350.9320849942672
 30
0.0
 11
644.11023324349
 21
355.4320849942674
 31
0.0
 70
   160
 71
     5
 42
9.000000000000056
  3
AM_ISO$0
100
AcDbAlignedDimension
 13
650.4933959577031
 23
359.9320849942673
 33
0.0
 14
650.4933959577031
 24
350.9320849942672
 34
0.0
 50
90.0
100
AcDbRotatedDimension
1001
ACAD
1000
DSTYLE
1002
{
1070
   272
1070
     8
1002
}
  0
DIMENSION
  5
3F2A
330
A
100
AcDbEntity
  8
AM_5
100
AcDbDimension
  2
*D52
 10
638.4933959577031
 20
348.9320849942672
 30
0.0
 11
636.3371121238972
 21
344.5529036988538
 31
0.0
 70
   160
 71
     5
 42
2.0
  3
AM_ISO$0
100
AcDbAlignedDimension
 13
650.4933959577031
 23
350.9320849942672
 33
0.0
 14
650.4933959577031
 24
348.9320849942672
 34
0.0
 50
90.0
100
AcDbRotatedDimension
1001
ACAD
1000
DSTYLE
1002
{
1070
   272
1070
     8
1070
   279
1070
     2
1002
}
  0
DIMENSION
  5
3F68
330
A
100
AcDbEntity
  8
AM_5
100
AcDbDimension
  2
*D53
 10
631.993395957703
 20
339.9320849942673
 30
0.0
 11
629.2430514695141
 21
360.9320849942673
 31
0.0
 70
    32
 71
     5
 42
42.00000000000005
  3
AM_ISO$0
100
AcDbAlignedDimension
 13
649.7908224650011
 23
381.9320849942672
 33
0.0
 14
650.4933959577031
 24
339.9320849942672
 34
0.0
 50
90.0
100
AcDbRotatedDimension
1001
ACAD
1000
DSTYLE
1002
{
1070
   272
1070
     8
1002
}
  0
LEADER
  5
3FEB
330
A
100
AcDbEntity
  8
AM_5
100
AcDbLeader
  3
AM_ISO$7
 73
     0
 74
     0
 75
     1
 40
14.76455176687155
 41
95.50000000000006
 76
     3
 10
606.1565275144484
 20
402.6499989456901
 30
0.0
 10
628.7546297099345
 20
434.2667849640262
 30
0.0
 10
631.7546297099345
 20
434.2667849640262
 30
0.0
340
3FEC
213
1.512345450629709
223
9.377176379185129
233
0.0
1001
ACAD
1000
DSTYLE
1002
{
1070
   140
1040
3.5
1070
   272
1070
     8
1002
}
  0
MTEXT
  5
3FEC
102
{ACAD_REACTORS
330
3FEB
102
}
330
A
100
AcDbEntity
  8
AM_5
100
AcDbMText
 10
631.2422842593048
 20
425.8896085848411
 30
0.0
 40
5.0
 41
0.0
 71
     7
 72
     1
  1
6-M4*0.7*8depth\PThread for mounting attachment
 73
     1
 44
1.0
1001
ACAD
1000
MTEXTBEGIN
1070
    73
1070
     1
1070
    44
1040
1.0
1070
    74
1070
     0
1000
MTEXTEND
  0
DIMENSION
  5
3FF3
330
A
100
AcDbEntity
  8
AM_5
100
AcDbDimension
  2
*D54
 10
574.3619254265509
 20
401.9359089321662
 30
0.0
 11
548.5131123553576
 21
429.0673254766455
 31
0.0
 70
   163
  1
3-<>\P%%c8*8depth
 71
     5
 42
4.499999999999943
  3
AM_ISO$3
100
AcDbDiametricDimension
 15
572.2856006647703
 25
405.9282610563677
 35
0.0
 40
0.0
1001
ACAD
1000
DSTYLE
1002
{
1070
   272
1070
     8
1002
}
  0
MTEXT
  5
4036
330
A
100
AcDbEntity
  8
AM_5
100
AcDbMText
 10
531.7857112270125
 20
427.9240242373626
 30
0.0
 40
3.5
 41
61.42888888888889
 71
     1
 72
     5
  1
P.C.D%%C44\P(mounting hole)
 73
     1
 44
1.0
1001
ACAD
1000
MTEXTBEGIN
1070
    73
1070
     1
1070
    44
1040
1.0
1070
    74
1070
     0
1000
MTEXTEND
  0
DIMENSION
  5
4048
330
A
100
AcDbEntity
  8
AM_5
100
AcDbDimension
  2
*D55
 10
531.6511605917139
 20
410.6105753924031
 30
0.0
 11
529.6511605917139
 21
407.1464737772652
 31
0.0
 70
   161
 71
     5
 42
7.999999999999886
  3
AM_ISO$0
100
AcDbAlignedDimension
 13
534.9506960867144
 23
399.4679833791298
 33
0.0
 14
538.9506960867144
 24
406.3961866094052
 34
0.0
1001
ACAD
1000
DSTYLE
1002
{
1070
   272
1070
     8
1002
}
  0
DIMENSION
  5
40C7
330
A
100
AcDbEntity
  8
AM_5
100
AcDbDimension
  2
*D57
 10
581.323763045661
 20
330.4320849942677
 30
0.0
 11
573.1914534524878
 21
330.4320849942677
 31
0.0
 70
   160
 71
     5
 42
16.00000000000022
  3
AM_ISO$0
100
AcDbAlignedDimension
 13
565.3237630456608
 23
339.9320849942671
 33
0.0
 14
581.323763045661
 24
339.9320849942671
 34
0.0
 50
0.0000000000016284
100
AcDbRotatedDimension
1001
ACAD
1000
DSTYLE
1002
{
1070
   272
1070
     8
1002
}
  0
DIMENSION
  5
40EF
330
A
100
AcDbEntity
  8
AM_5
100
AcDbDimension
  2
*D58
 10
585.3237630456588
 20
323.9320849942672
 30
0.0
 11
573.3237630456598
 21
326.6824294824562
 31
0.0
 70
    32
 71
     5
 42
23.99999999999772
  3
AM_ISO$0
100
AcDbAlignedDimension
 13
561.323763045661
 23
347.990959497313
 33
0.0
 14
585.3237630456588
 24
347.9909594973122
 34
0.0
100
AcDbRotatedDimension
1001
ACAD
1000
DSTYLE
1002
{
1070
   272
1070
     8
1002
}
  0
DIMENSION
  5
4158
330
A
100
AcDbEntity
  8
AM_5
100
AcDbDimension
  2
*D60
 10
598.0987574406189
 20
408.0510369780249
 30
0.0
 11
539.8144995717542
 21
351.4599743465505
 31
0.0
 70
   163
 71
     5
 42
71.99999999999954
  3
AM_ISO$3
100
AcDbDiametricDimension
 15
548.5487686507042
 25
355.8131330105106
 35
0.0
 40
0.0
1001
ACAD
1000
DSTYLE
1002
{
1070
   172
1070
     1
1070
   272
1070
     8
1002
}
  0
DIMENSION
  5
41CF
330
A
100
AcDbEntity
  8
AM_5
100
AcDbDimension
  2
*D62
 10
596.9593581584921
 20
393.4667563663678
 30
0.0
 11
533.5809251660048
 21
365.6292358469349
 31
0.0
 70
   163
 71
     5
 42
52.60000000000002
  3
AM_ISO$3
100
AcDbDiametricDimension
 15
549.6881679328314
 25
370.3974136221676
 35
0.0
 40
0.0
1001
ACAD
1000
DSTYLE
1002
{
1070
   172
1070
     1
1070
   272
1070
     8
1002
}
  0
DIMENSION
  5
426F
330
A
100
AcDbEntity
  8
AM_5
100
AcDbDimension
  2
*D63
 10
613.4013371596845
 20
365.5156903846732
 30
0.0
 11
616.7894768804988
 21
370.6472602450805
 31
0.0
 70
    32
 71
     5
 42
10.99999999999988
  3
AM_ISO$0
100
AcDbAlignedDimension
 13
605.7997156875772
 23
400.6820849942672
 33
0.0
 14
596.2734362459484
 24
395.1820849942673
 34
0.0
 50
30.00000000000196
100
AcDbRotatedDimension
1001
ACAD
1000
DSTYLE
1002
{
1070
   174
1070
     1
1070
   272
1070
     8
1002
}
  0
DIMENSION
  5
42A4
330
A
100
AcDbEntity
  8
AM_5
100
AcDbDimension
  2
*D64
 10
613.4013371596831
 20
365.5156903846725
 30
0.0
 11
601.1059524243956
 21
358.4169466979647
 31
0.0
 70
   160
 71
     5
 42
4.500000000000227
  3
AM_ISO$0
100
AcDbAlignedDimension
 13
592.3763219289187
 23
392.9320849942674
 33
0.0
 14
596.2734362459489
 24
395.1820849942675
 34
0.0
 50
29.99999999999844
100
AcDbRotatedDimension
1001
ACAD
1000
DSTYLE
1002
{
1070
   174
1070
     1
1070
   272
1070
     8
1002
}
  0
DIMENSION
  5
42FF
330
A
100
AcDbEntity
  8
AM_5
100
AcDbDimension
  2
*D65
 10
650.4933959577033
 20
543.3061844884043
 30
0.0
 11
642.6438536348687
 21
546.0565289765932
 31
0.0
 70
    32
 71
     5
 42
2.0
  3
AM_ISO$0
100
AcDbAlignedDimension
 13
652.4933959577033
 23
527.4151337294004
 33
0.0
 14
650.4933959577033
 24
539.2093623634604
 34
0.0
100
AcDbRotatedDimension
1001
ACAD
1000
DSTYLE
1002
{
1070
   272
1070
     8
1002
}
  0
DIMENSION
  5
432B
330
A
100
AcDbEntity
  8
AM_5
100
AcDbDimension
  2
*D66
 10
650.4933959577033
 20
549.8061844884035
 30
0.0
 11
642.720908584288
 21
552.5561844884036
 31
0.0
 70
    32
 71
     5
 42
2.999999999999772
  3
AM_ISO$0
100
AcDbAlignedDimension
 13
653.4933959577031
 23
527.2044113095224
 33
0.0
 14
650.4933959577033
 24
539.2093623634604
 34
0.0
100
AcDbRotatedDimension
1001
ACAD
1000
DSTYLE
1002
{
1070
   272
1070
     8
1002
}
  0
DIMENSION
  5
4357
330
A
100
AcDbEntity
  8
AM_5
100
AcDbDimension
  2
*D67
 10
700.4933959577031
 20
538.8362954045137
 30
0.0
 11
704.4933959577031
 21
541.5862954045137
 31
0.0
 70
    32
 71
     5
 42
8.0
  3
AM_ISO$0
100
AcDbAlignedDimension
 13
708.4933959577031
 23
526.8362954045137
 33
0.0
 14
700.4933959577031
 24
514.0902903500914
 34
0.0
 50
359.9999999999992
100
AcDbRotatedDimension
1001
ACAD
1000
DSTYLE
1002
{
1070
   174
1070
     1
1070
   272
1070
     8
1002
}
  0
DIMENSION
  5
4389
330
A
100
AcDbEntity
  8
AM_5
100
AcDbDimension
  2
*D68
 10
680.4933959577031
 20
538.8362954045138
 30
0.0
 11
690.4933959577032
 21
541.5866398927028
 31
0.0
 70
    32
 71
     5
 42
20.00000000000023
  3
AM_ISO$0
100
AcDbAlignedDimension
 13
700.4933959577033
 23
514.0902903500915
 33
0.0
 14
680.4933959577031
 24
496.8082165951326
 34
0.0
100
AcDbRotatedDimension
1001
ACAD
1000
DSTYLE
1002
{
1070
   174
1070
     1
1070
   272
1070
     8
1002
}
  0
DIMENSION
  5
43B5
330
A
100
AcDbEntity
  8
AM_5
100
AcDbDimension
  2
*D69
 10
720.4933959577033
 20
474.8362954045137
 30
0.0
 11
717.7430514695142
 21
500.8362954045137
 31
0.0
 70
    32
  1
%%c<>
 71
     5
 42
51.99999999999994
  3
AM_ISO$0
100
AcDbAlignedDimension
 13
708.4933959577031
 23
526.8362954045137
 33
0.0
 14
708.4933959577031
 24
474.8362954045137
 34
0.0
 50
90.0
100
AcDbRotatedDimension
1001
ACAD
1000
DSTYLE
1002
{
1070
   272
1070
     8
1002
}
  0
DIMENSION
  5
43DC
330
A
100
AcDbEntity
  8
AM_5
100
AcDbDimension
  2
*D70
 10
826.5233045644377
 20
392.9320849942681
 30
0.0
 11
864.5459378656575
 21
412.4793729602286
 31
0.0
 70
   164
  1
3-M4*0.7*6depth
 71
     5
 42
1.999999999999545
  3
AM_ISO$4
100
AcDbRadialDimension
 15
827.9343210737673
 25
394.3494883985244
 35
0.0
 40
0.0
1001
ACAD
1000
DSTYLE
1002
{
1070
   272
1070
     8
1002
}
  0
MTEXT
  5
4412
330
A
100
AcDbEntity
  8
AM_5
100
AcDbMText
 10
850.6416001061705
 20
410.3835526964927
 30
0.0
 40
3.5
 41
38.43995361238103
 71
     1
 72
     5
  1
P.C.D%%C44
 73
     1
 44
1.0
1001
ACAD
1000
MTEXTBEGIN
1070
    73
1070
     1
1070
    44
1040
1.0
1070
    74
1070
     0
1000
MTEXTEND
  0
DIMENSION
  5
442C
330
A
100
AcDbEntity
  8
AM_5
100
AcDbDimension
  2
*D72
 10
794.2322819663326
 20
392.5971250068832
 30
0.0
 11
849.4106023857868
 21
358.7293620285385
 31
0.0
 70
   163
  1
<>*2depth
 71
     5
 42
34.00000000000062
  3
AM_ISO$3
100
AcDbDiametricDimension
 15
820.7092093960254
 25
371.2670449816505
 35
0.0
 40
0.0
1001
ACAD
1000
DSTYLE
1002
{
1070
   172
1070
     1
1070
   272
1070
     8
1002
}
  0
LINE
  5
4465
330
A
100
AcDbEntity
  8
CENTER
100
AcDbLine
 10
797.5209764396875
 20
405.9529528395609
 30
0.0
 11
807.470745681179
 21
381.9320849942672
 31
0.0
  0
LINE
  5
4466
330
A
100
AcDbEntity
  8
CENTER
100
AcDbLine
 10
807.470745681179
 20
381.9320849942672
 30
0.0
 11
817.2924129109638
 21
408.9168939294977
 31
0.0
  0
LINE
  5
4468
330
A
100
AcDbEntity
  8
CENTER
100
AcDbLine
 10
807.470745681179
 20
381.9320849942672
 30
0.0
 11
797.6490784513944
 21
408.9168939294977
 31
0.0
  0
DIMENSION
  5
446D
330
A
100
AcDbEntity
  8
AM_5
100
AcDbDimension
  2
*D73
 10
807.470745681179
 20
410.4552569566821
 30
0.0
 11
815.0187072606174
 21
424.7387022749083
 31
0.0
 70
    34
 71
     5
 42
0.3490658503988702
  3
AM_ISO$2
100
AcDb2LineAngularDimension
 13
807.470745681179
 23
381.9320849942672
 33
0.0
 14
817.2924129109638
 24
408.9168939294977
 34
0.0
 15
807.470745681179
 25
336.3806390430867
 35
0.0
 16
816.8606476532842
 26
421.5511967223078
 36
0.0
1001
ACAD
1000
DSTYLE
1002
{
1070
   179
1070
     2
1070
   272
1070
     8
1002
}
  0
DIMENSION
  5
449B
330
A
100
AcDbEntity
  8
AM_5
100
AcDbDimension
  2
*D74
 10
797.6490784513944
 20
408.9168939294977
 30
0.0
 11
799.9227841017409
 21
424.7387022749079
 31
0.0
 70
    34
 71
     5
 42
0.3490658503988653
  3
AM_ISO$2
100
AcDb2LineAngularDimension
 13
807.470745681179
 23
336.3806390430867
 33
0.0
 14
807.470745681179
 24
410.4552569566821
 34
0.0
 15
807.470745681179
 25
381.9320849942672
 35
0.0
 16
802.7438330026091
 26
422.3734075455125
 36
0.0
1001
ACAD
1000
DSTYLE
1002
{
1070
   179
1070
     2
1070
   272
1070
     8
1002
}
  0
DIMENSION
  5
44D0
330
A
100
AcDbEntity
  8
AM_5
100
AcDbDimension
  2
*D75
 10
807.470745681179
 20
381.9320849942672
 30
0.0
 11
797.7226717843988
 21
430.9389618677148
 31
0.0
 70
    34
 71
     5
 42
0.3926990816986915
  3
AM_ISO$2
100
AcDb2LineAngularDimension
 13
807.470745681179
 23
336.3806390430867
 33
0.0
 14
807.470745681179
 24
410.4552569566821
 34
0.0
 15
797.5209764396875
 25
405.9529528395609
 35
0.0
 16
801.3077382535438
 26
428.7447740094858
 36
0.0
1001
ACAD
1000
DSTYLE
1002
{
1070
   179
1070
     2
1070
   272
1070
     8
1002
}
  0
DIMENSION
  5
4582
330
A
100
AcDbEntity
  8
AM_5
100
AcDbDimension
  2
*D76
 10
799.9217442592343
 20
401.0355342708191
 30
0.0
 11
774.6734966795181
 21
420.009108468739
 31
0.0
 70
   163
  1
<>*3depth
 71
     5
 42
3.000000000000341
  3
AM_ISO$3
100
AcDbDiametricDimension
 15
798.1816760790602
 25
403.4793351482123
 35
0.0
 40
0.0
1001
ACAD
1000
DSTYLE
1002
{
1070
   272
1070
     8
1002
}
  0
DIMENSION
  5
45DC
330
A
100
AcDbEntity
  8
AM_5
100
AcDbDimension
  2
*D77
 10
772.3955866491783
 20
346.2968305151116
 30
0.0
 11
775.892963944497
 21
345.039511122838
 31
0.0
 70
    33
 71
     5
 42
4.999999999999829
  3
AM_ISO$0
100
AcDbAlignedDimension
 13
816.8464897741243
 23
359.297036447741
 33
0.0
 14
814.9330726122984
 24
363.916434110297
 34
0.0
1001
ACAD
1000
DSTYLE
1002
{
1070
   174
1070
     1
1070
   272
1070
     8
1002
}
  0
DIMENSION
  5
4612
330
A
100
AcDbEntity
  8
AM_5
100
AcDbDimension
  2
*D78
 10
772.3955866491772
 20
346.296830515112
 30
0.0
 11
771.2050918980225
 21
356.3570353961009
 31
0.0
 70
    32
 71
     5
 42
19.50000000000017
  3
AM_ISO$0
100
AcDbAlignedDimension
 13
807.470745681179
 23
381.9320849942672
 33
0.0
 14
814.9330726122983
 24
363.9164341102969
 34
0.0
 50
112.5000000000058
100
AcDbRotatedDimension
1001
ACAD
1000
DSTYLE
1002
{
1070
   174
1070
     1
1070
   272
1070
     8
1002
}
  0
DIMENSION
  5
4651
330
A
100
AcDbEntity
  8
AM_5
100
AcDbDimension
  2
*D80
 10
764.9332597180553
 20
364.3124813990811
 30
0.0
 11
763.2647289420313
 21
375.5276675256315
 31
0.0
 70
    32
 71
     5
 42
21.99999999999972
  3
AM_ISO$0
100
AcDbAlignedDimension
 13
799.051710169148
 23
402.2574347095156
 33
0.0
 14
807.4707456811793
 24
381.9320849942673
 34
0.0
 50
112.5000000000058
100
AcDbRotatedDimension
1001
ACAD
1000
DSTYLE
1002
{
1070
   174
1070
     1
1070
   272
1070
     8
1002
}
  0
DIMENSION
  5
467D
330
A
100
AcDbEntity
  8
AM_5
100
AcDbDimension
  2
*D81
 10
827.2061258638908
 20
338.206351393202
 30
0.0
 11
840.91938129724
 21
347.3366929164132
 31
0.0
 70
    33
  1
<>*3depth
 71
     5
 42
3.0
  3
AM_ISO$0
100
AcDbAlignedDimension
 13
814.8866453268093
 23
360.1088305979601
 33
0.0
 14
817.6582839243431
 24
361.2568808950552
 34
0.0
1001
ACAD
1000
DSTYLE
1002
{
1070
   272
1070
     8
1002
}
  0
ENDSEC
  0
SECTION
  2
OBJECTS
  0
DICTIONARY
  5
19
330
0
100
AcDbDictionary
281
     1
  3
ACAD_COLOR
350
ECA
  3
ACAD_GROUP
350
1A
  3
ACAD_LAYOUT
350
1E
  3
ACAD_MATERIAL
350
EC9
  3
ACAD_MLINESTYLE
350
1B
  3
ACAD_PLOTSETTINGS
350
22
  3
ACAD_PLOTSTYLENAME
350
1F
  3
ACAD_TABLESTYLE
350
ECB
  3
ACAD_WIPEOUT_VARS
350
23
  3
AcadDim
350
28D5
  3
ACDBHEADERROUNDTRIPXREC
350
4856
  3
AcDbVariableDictionary
350
1257
  3
AcmDictionary
350
F90
  3
AMG
350
ED2
  3
AMGSNAPSETTINGS
350
FD1
  3
DWGPROPS
350
4855
  3
MAPISURF_MODULE
350
F5E
  0
DICTIONARY
  5
1002
330
2
100
AcDbDictionary
280
     1
281
     1
  3
ACAD_LAYERFILTERS
360
1004
  3
ACAD_LAYERSTATES
360
1B79
  3
ACLYDICTIONARY
360
1003
  3
AMLAYER_GROUPCOLORS
360
16D2
  0
DICTIONARY
  5
9C9
330
A
100
AcDbDictionary
280
     1
281
     1
  3
ACAD_INDEX
360
124F
  3
ACAD_LAYOUTSELFREF
360
A64
  3
ACAD_SORTENTS
360
1711
  0
DICTIONARY
  5
9CB
330
B
100
AcDbDictionary
280
     1
281
     1
  3
ACAD_LAYOUTSELFREF
360
A65
  0
DICTIONARY
  5
ECA
102
{ACAD_REACTORS
330
19
102
}
330
19
100
AcDbDictionary
281
     1
  0
DICTIONARY
  5
1A
102
{ACAD_REACTORS
330
19
102
}
330
19
100
AcDbDictionary
281
     1
  0
DICTIONARY
  5
1E
102
{ACAD_REACTORS
330
19
102
}
330
19
100
AcDbDictionary
281
     1
  3
Model
350
A68
  3
配置1
350
A69
  0
DICTIONARY
  5
EC9
102
{ACAD_REACTORS
330
19
102
}
330
19
100
AcDbDictionary
281
     1
  0
DICTIONARY
  5
1B
102
{ACAD_REACTORS
330
19
102
}
330
19
100
AcDbDictionary
281
     1
  3
STANDARD
350
1C
  0
DICTIONARY
  5
22
102
{ACAD_REACTORS
330
19
102
}
330
19
100
AcDbDictionary
281
     1
  0
ACDBDICTIONARYWDFLT
  5
1F
102
{ACAD_REACTORS
330
19
102
}
330
19
100
AcDbDictionary
281
     1
  3
Normal
350
1D
100
AcDbDictionaryWithDefault
340
1D
  0
DICTIONARY
  5
ECB
102
{ACAD_REACTORS
330
19
102
}
330
19
100
AcDbDictionary
281
     1
  3
Standard
350
ECC
  0
WIPEOUTVARIABLES
  5
23
330
19
100
AcDbWipeoutVariables
 70
     1
  0
XRECORD
  5
28D5
102
{ACAD_REACTORS
330
19
102
}
330
19
100
AcDbXrecord
280
     1
 90
   990106
  3

 60
     0
 61
     0
 62
     4
 63
     4
 64
     1
 65
     0
 66
     0
 67
     3
 68
     0
 69
     0
 70
     0
 71
     0
 72
     0
 40
0.0
170
     2
340
3FEC
  0
DICTIONARY
  5
4856
102
{ACAD_REACTORS
330
19
102
}
330
19
100
AcDbDictionary
281
     1
  0
DICTIONARY
  5
1257
102
{ACAD_REACTORS
330
19
102
}
330
19
100
AcDbDictionary
281
     1
  3
CTABLESTYLE
350
1258
  3
DIMASSOC
350
4852
  3
INDEXCTL
350
4851
  3
PROJECTNAME
350
4853
  0
DICTIONARY
  5
F90
102
{ACAD_REACTORS
330
19
102
}
330
19
100
AcDbDictionary
281
     1
  3
AcmStdDictionary
350
F9E
  3
AMDTSECTSYM_ARROWCOLOR
350
FBC
  0
DICTIONARY
  5
ED2
102
{ACAD_REACTORS
330
19
102
}
330
19
100
AcDbDictionary
281
     1
  3
AcMgSettings
350
ED3
  0
DICTIONARY
  5
FD1
102
{ACAD_REACTORS
330
19
102
}
330
19
100
AcDbDictionary
281
     1
  3
DIMENSION
350
FD6
  3
FEA
350
FD5
  3
HATCH (1)
350
FD2
  3
HATCH (2)
350
FD3
  3
SIMPLE WELD
350
FD7
  3
SYMBOLS
350
FD4
  0
XRECORD
  5
4855
102
{ACAD_REACTORS
330
19
102
}
330
19
100
AcDbXrecord
280
     1
  1
DWGPROPS COOKIE
  2

  3

  4

  6

  7

  8

  9

300
AmdtFileType=84
301
=
302
=
303
=
304
=
305
=
306
=
307
=
308
=
309
=
 40
0.2554794675925926
 41
2452359.824870255
 42
2455323.590023819
  1

 90
        1
  0
DICTIONARY
  5
1004
102
{ACAD_REACTORS
330
1002
102
}
330
1002
100
AcDbDictionary
281
     1
  0
DICTIONARY
  5
1B79
102
{ACAD_REACTORS
330
1002
102
}
330
1002
100
AcDbDictionary
281
     1
  0
DICTIONARY
  5
1003
102
{ACAD_REACTORS
330
1002
102
}
330
1002
100
AcDbDictionary
281
     1
1001
ACAD
1000
<All
  0
DICTIONARY
  5
16D2
102
{ACAD_REACTORS
330
1002
102
}
330
1002
100
AcDbDictionary
280
     1
281
     1
  0
DICTIONARY
  5
124F
102
{ACAD_REACTORS
330
9C9
102
}
330
9C9
100
AcDbDictionary
281
     1
  3
*A1
350
1250
  0
XRECORD
  5
A64
102
{ACAD_REACTORS
330
9C9
102
}
330
9C9
100
AcDbXrecord
280
     1
340
A
  0
SORTENTSTABLE
  5
1711
102
{ACAD_REACTORS
330
9C9
102
}
330
9C9
100
AcDbSortentsTable
330
A
331
1C15
  5
1C16
331
1C1D
  5
1C1E
331
1C44
  5
1C45
331
1C4C
  5
1C4D
331
1C8B
  5
1C8C
331
1C54
  5
1C55
331
1C93
  5
1C94
331
1C5C
  5
1C5D
331
3D40
  5
3D40
331
3D01
  5
3D01
331
3C8B
  5
3C8B
331
3D7F
  5
3D7F
331
3D48
  5
3D48
331
3D09
  5
3D09
331
3D87
  5
3D87
331
3D50
  5
3D50
331
3D8F
  5
3D8F
331
3D58
  5
3D58
331
3D97
  5
3D97
331
4466
  5
4466
331
3C11
  5
3C11
331
3BDA
  5
3BDA
331
3B9B
  5
3B9B
331
3B64
  5
3B64
331
3B25
  5
3B25
331
3AEE
  5
3AEE
331
3AAF
  5
3AAF
331
3C19
  5
3C19
331
3BE2
  5
3BE2
331
3BA3
  5
3BA3
331
3B6C
  5
3B6C
331
3B2D
  5
3B2D
331
3AF6
  5
3AF6
331
3AB7
  5
3AB7
331
3C60
  5
3C60
331
3BEA
  5
3BEA
331
3BAB
  5
3BAB
331
3B74
  5
3B74
331
3B35
  5
3B35
331
3AFE
  5
3AFE
331
3ABF
  5
3ABF
331
3C68
  5
3C68
331
3BF2
  5
3BF2
331
3BB3
  5
3BB3
331
3B7C
  5
3B7C
331
3B3D
  5
3B3D
331
3B06
  5
3B06
331
3AC7
  5
3AC7
331
1C25
  5
1C26
331
1C64
  5
1C68
331
1C9B
  5
2171
331
1C2D
  5
1C2E
331
1C6C
  5
1C6D
331
1C35
  5
1C36
331
1C74
  5
1C75
331
1C3D
  5
1C3E
331
1C7C
  5
1C80
331
3D60
  5
3D60
331
3D21
  5
3D21
331
3AA0
  5
3AA0
331
3D9F
  5
3D9F
331
3D68
  5
3D68
331
3D70
  5
3D70
331
3D31
  5
3D31
331
3CFA
  5
3CFA
331
4412
  5
4412
331
3D39
  5
3D39
331
3C70
  5
3C70
331
3BFA
  5
3BFA
331
3BBB
  5
3BBB
331
3B84
  5
3B84
331
3B45
  5
3B45
331
3B0E
  5
3B0E
331
3ACF
  5
3ACF
331
3C78
  5
3C78
331
3C02
  5
3C02
331
3BC3
  5
3BC3
331
3B8C
  5
3B8C
331
3B4D
  5
3B4D
331
3B16
  5
3B16
331
3AD7
  5
3AD7
331
3C80
  5
3C80
331
3C41
  5
3C41
331
3C0A
  5
3C0A
331
3BCB
  5
3BCB
331
3B94
  5
3B94
331
3B55
  5
3B55
331
3B1E
  5
3B1E
331
3ADF
  5
3ADF
331
3BD3
  5
3BD3
331
3B5D
  5
3B5D
331
3AE7
  5
3AE7
331
3E9B
  5
3E9B
331
1C16
  5
1C17
331
1C1E
  5
1C1F
331
1C45
  5
1C46
331
1C84
  5
1C85
331
1C4D
  5
1C4E
331
1C8C
  5
1C8D
331
1C55
  5
1C56
331
1C94
  5
1C95
331
1C5D
  5
1C5E
331
3D78
  5
3D78
331
3D41
  5
3D41
331
3D02
  5
3D02
331
3C8C
  5
3C8C
331
3D80
  5
3D80
331
3D49
  5
3D49
331
42FF
  5
42FF
331
3D88
  5
3D88
331
3D51
  5
3D51
331
3D90
  5
3D90
331
3D59
  5
3D59
331
4582
  5
4582
331
3AA8
  5
3AA8
331
3C12
  5
3C12
331
3BDB
  5
3BDB
331
3B9C
  5
3B9C
331
3B65
  5
3B65
331
3B26
  5
3B26
331
3AEF
  5
3AEF
331
3AB0
  5
3AB0
331
3BE3
  5
3BE3
331
3BA4
  5
3BA4
331
3B6D
  5
3B6D
331
3B2E
  5
3B2E
331
3AF7
  5
3AF7
331
3AB8
  5
3AB8
331
3C61
  5
3C61
331
3BEB
  5
3BEB
331
3BAC
  5
3BAC
331
3B75
  5
3B75
331
3B36
  5
3B36
331
3AFF
  5
3AFF
331
3AC0
  5
3AC0
331
3C69
  5
3C69
331
3BF3
  5
3BF3
331
3BB4
  5
3BB4
331
3B7D
  5
3B7D
331
3B3E
  5
3B3E
331
3B07
  5
3B07
331
3F68
  5
3F68
331
3F02
  5
3F02
331
1C26
  5
1C27
331
1C2E
  5
1C2F
331
1C6D
  5
1C71
331
1C36
  5
1C37
331
1C75
  5
1C76
331
1C3E
  5
1C3F
331
3D98
  5
3D98
331
3D61
  5
3D61
331
3D22
  5
3D22
331
3AA1
  5
3AA1
331
3DA0
  5
3DA0
331
3D69
  5
3D69
331
3D71
  5
3D71
331
3D32
  5
3D32
331
3CFB
  5
3CFB
331
40C7
  5
40C7
331
3D3A
  5
3D3A
331
43DC
  5
43DC
331
3AC8
  5
3AC8
331
3C71
  5
3C71
331
3BFB
  5
3BFB
331
3BBC
  5
3BBC
331
3B85
  5
3B85
331
3B46
  5
3B46
331
3B0F
  5
3B0F
331
3AD0
  5
3AD0
331
3C79
  5
3C79
331
3C03
  5
3C03
331
3BC4
  5
3BC4
331
3B8D
  5
3B8D
331
3B4E
  5
3B4E
331
3B17
  5
3B17
331
3AD8
  5
3AD8
331
3C81
  5
3C81
331
3C0B
  5
3C0B
331
3BCC
  5
3BCC
331
3B95
  5
3B95
331
3B56
  5
3B56
331
3B1F
  5
3B1F
331
3AE0
  5
3AE0
331
3BD4
  5
3BD4
331
3B5E
  5
3B5E
331
3F2A
  5
3F2A
331
1C17
  5
1C18
331
1C1F
  5
1C20
331
1C46
  5
1C47
331
1C85
  5
1C86
331
1C4E
  5
1C4F
331
1C8D
  5
1C8E
331
1C56
  5
1C57
331
1C95
  5
1C96
331
1C5E
  5
1C5F
331
28D6
  5
2907
331
3D79
  5
3D79
331
3D42
  5
3D42
331
3D03
  5
3D03
331
3C8D
  5
3C8D
331
3D81
  5
3D81
331
3D4A
  5
3D4A
331
3D89
  5
3D89
331
3D52
  5
3D52
331
43B5
  5
43B5
331
3E17
  5
3E17
331
3D91
  5
3D91
331
3D5A
  5
3D5A
331
40EF
  5
40EF
331
4468
  5
4468
331
3AE8
  5
3AE8
331
3AA9
  5
3AA9
331
3C13
  5
3C13
331
3BDC
  5
3BDC
331
3B9D
  5
3B9D
331
3B66
  5
3B66
331
3B27
  5
3B27
331
3AF0
  5
3AF0
331
3AB1
  5
3AB1
331
3BE4
  5
3BE4
331
3BA5
  5
3BA5
331
3B6E
  5
3B6E
331
3B2F
  5
3B2F
331
3AF8
  5
3AF8
331
3AB9
  5
3AB9
331
3C62
  5
3C62
331
3BEC
  5
3BEC
331
3BAD
  5
3BAD
331
3B76
  5
3B76
331
3B37
  5
3B37
331
3B00
  5
3B00
331
3AC1
  5
3AC1
331
3C6A
  5
3C6A
331
3BF4
  5
3BF4
331
3BB5
  5
3BB5
331
3B7E
  5
3B7E
331
3B3F
  5
3B3F
331
4036
  5
4036
331
1C27
  5
1C28
331
1C2F
  5
1C30
331
1C37
  5
1C38
331
1C76
  5
1C77
331
1C3F
  5
1C40
331
3A9A
  5
3A9A
331
3D99
  5
3D99
331
3D62
  5
3D62
331
3AA2
  5
3AA2
331
3DA1
  5
3DA1
331
3D6A
  5
3D6A
331
4357
  5
4357
331
3D72
  5
3D72
331
3D33
  5
3D33
331
3CFC
  5
3CFC
331
3D3B
  5
3D3B
331
3B08
  5
3B08
331
3AC9
  5
3AC9
331
3C72
  5
3C72
331
3BFC
  5
3BFC
331
3BBD
  5
3BBD
331
3B86
  5
3B86
331
3B47
  5
3B47
331
3B10
  5
3B10
331
3AD1
  5
3AD1
331
3C7A
  5
3C7A
331
3C04
  5
3C04
331
3BC5
  5
3BC5
331
3B8E
  5
3B8E
331
3B4F
  5
3B4F
331
3B18
  5
3B18
331
3AD9
  5
3AD9
331
3C82
  5
3C82
331
3C0C
  5
3C0C
331
3BCD
  5
3BCD
331
3B96
  5
3B96
331
3B57
  5
3B57
331
3AE1
  5
3AE1
331
3BD5
  5
3BD5
331
3B5F
  5
3B5F
331
1C18
  5
1C19
331
1C47
  5
1C48
331
1C86
  5
1C8A
331
1C4F
  5
1C50
331
1C8E
  5
1C8F
331
1C57
  5
1C58
331
1C96
  5
1C97
331
1C5F
  5
1C60
331
28D7
  5
2945
331
3D7A
  5
3D7A
331
3D43
  5
3D43
331
3D04
  5
3D04
331
3C8E
  5
3C8E
331
3D82
  5
3D82
331
3D4B
  5
3D4B
331
3D8A
  5
3D8A
331
3D53
  5
3D53
331
3D92
  5
3D92
331
3D5B
  5
3D5B
331
3B20
  5
3B20
331
3AE9
  5
3AE9
331
3AAA
  5
3AAA
331
3C14
  5
3C14
331
3BDD
  5
3BDD
331
3B9E
  5
3B9E
331
3B67
  5
3B67
331
3B28
  5
3B28
331
3AF1
  5
3AF1
331
3AB2
  5
3AB2
331
3BE5
  5
3BE5
331
3BA6
  5
3BA6
331
3B6F
  5
3B6F
331
3B30
  5
3B30
331
3AF9
  5
3AF9
331
3ABA
  5
3ABA
331
3C63
  5
3C63
331
3BED
  5
3BED
331
3BAE
  5
3BAE
331
3B77
  5
3B77
331
3B38
  5
3B38
331
3B01
  5
3B01
331
3AC2
  5
3AC2
331
3C6B
  5
3C6B
331
3BF5
  5
3BF5
331
3BB6
  5
3BB6
331
3B7F
  5
3B7F
331
1C20
  5
1C21
331
1C28
  5
1C29
331
1C30
  5
1C31
331
1C38
  5
1C39
331
1C77
  5
1C78
331
3A9B
  5
3A9B
331
3D9A
  5
3D9A
331
3D63
  5
3D63
331
3AA3
  5
3AA3
331
3DA2
  5
3DA2
331
3D6B
  5
3D6B
331
3E6F
  5
3E6F
331
3D73
  5
3D73
331
3D34
  5
3D34
331
3CFD
  5
3CFD
331
3D3C
  5
3D3C
331
3B40
  5
3B40
331
3B09
  5
3B09
331
3ACA
  5
3ACA
331
3C73
  5
3C73
331
3BFD
  5
3BFD
331
3BBE
  5
3BBE
331
3B87
  5
3B87
331
3B48
  5
3B48
331
3B11
  5
3B11
331
3AD2
  5
3AD2
331
3C7B
  5
3C7B
331
3C05
  5
3C05
331
3BC6
  5
3BC6
331
3B8F
  5
3B8F
331
3B50
  5
3B50
331
3B19
  5
3B19
331
3ADA
  5
3ADA
331
3C83
  5
3C83
331
3C0D
  5
3C0D
331
3BCE
  5
3BCE
331
3B97
  5
3B97
331
3B58
  5
3B58
331
3AE2
  5
3AE2
331
3BD6
  5
3BD6
331
1C11
  5
1C12
331
1C19
  5
1C1A
331
1C40
  5
1C41
331
1C48
  5
1C49
331
1C50
  5
1C51
331
1C8F
  5
1C90
331
1C58
  5
1C59
331
1C97
  5
1C98
331
3D7B
  5
3D7B
331
3D44
  5
3D44
331
3D05
  5
3D05
331
3C8F
  5
3C8F
331
3D83
  5
3D83
331
3D4C
  5
3D4C
331
3D8B
  5
3D8B
331
3D54
  5
3D54
331
3D93
  5
3D93
331
3D5C
  5
3D5C
331
44D0
  5
44D0
331
3B60
  5
3B60
331
3B21
  5
3B21
331
3AEA
  5
3AEA
331
3AAB
  5
3AAB
331
3C15
  5
3C15
331
3BDE
  5
3BDE
331
3B9F
  5
3B9F
331
3B68
  5
3B68
331
3B29
  5
3B29
331
3AF2
  5
3AF2
331
3AB3
  5
3AB3
331
3BE6
  5
3BE6
331
3BA7
  5
3BA7
331
3B70
  5
3B70
331
3B31
  5
3B31
331
3AFA
  5
3AFA
331
3ABB
  5
3ABB
331
3C64
  5
3C64
331
3BEE
  5
3BEE
331
3BAF
  5
3BAF
331
3B78
  5
3B78
331
3B39
  5
3B39
331
3B02
  5
3B02
331
3AC3
  5
3AC3
331
3C6C
  5
3C6C
331
3BF6
  5
3BF6
331
3BB7
  5
3BB7
331
1C21
  5
1C22
331
1C60
  5
1C61
331
1C29
  5
1C2A
331
1C68
  5
1C6C
331
1C31
  5
1C32
331
1C39
  5
1C3A
331
1C78
  5
1C7C
331
333B
  5
333B
331
3A9C
  5
3A9C
331
3D9B
  5
3D9B
331
3D64
  5
3D64
331
3CEE
  5
3CEE
331
3AA4
  5
3AA4
331
42A4
  5
42A4
331
3DA3
  5
3DA3
331
3D6C
  5
3D6C
331
3D2D
  5
3D2D
331
3CB7
  5
3CB7
331
3D74
  5
3D74
331
3D35
  5
3D35
331
3CFE
  5
3CFE
331
3D3D
  5
3D3D
331
3B80
  5
3B80
331
3B41
  5
3B41
331
3B0A
  5
3B0A
331
3ACB
  5
3ACB
331
3C74
  5
3C74
331
3BFE
  5
3BFE
331
3BBF
  5
3BBF
331
3B88
  5
3B88
331
3B49
  5
3B49
331
3B12
  5
3B12
331
3AD3
  5
3AD3
331
3C7C
  5
3C7C
331
3C06
  5
3C06
331
3BC7
  5
3BC7
331
3B90
  5
3B90
331
3B51
  5
3B51
331
3B1A
  5
3B1A
331
3ADB
  5
3ADB
331
3C84
  5
3C84
331
3C0E
  5
3C0E
331
3BCF
  5
3BCF
331
3B59
  5
3B59
331
3AE3
  5
3AE3
331
3BD7
  5
3BD7
331
4048
  5
4048
331
1C12
  5
1C13
331
1C1A
  5
1C1B
331
1C41
  5
1C42
331
1C80
  5
1C84
331
1C49
  5
1C4A
331
1C51
  5
1C52
331
1C90
  5
1C91
331
1C59
  5
1C5A
331
3C88
  5
3C88
331
3D7C
  5
3D7C
331
3D45
  5
3D45
331
3D06
  5
3D06
331
3CCF
  5
3CCF
331
3D84
  5
3D84
331
3D4D
  5
3D4D
331
3D8C
  5
3D8C
331
3D55
  5
3D55
331
4158
  5
4158
331
3D94
  5
3D94
331
3D5D
  5
3D5D
331
442C
  5
442C
331
3B98
  5
3B98
331
3B61
  5
3B61
331
3B22
  5
3B22
331
3AEB
  5
3AEB
331
3AAC
  5
3AAC
331
3C16
  5
3C16
331
3BDF
  5
3BDF
331
3BA0
  5
3BA0
331
3B69
  5
3B69
331
3B2A
  5
3B2A
331
3AF3
  5
3AF3
331
3AB4
  5
3AB4
331
3BE7
  5
3BE7
331
3BA8
  5
3BA8
331
3B71
  5
3B71
331
3B32
  5
3B32
331
3AFB
  5
3AFB
331
3ABC
  5
3ABC
331
3C65
  5
3C65
331
3BEF
  5
3BEF
331
3BB0
  5
3BB0
331
3B79
  5
3B79
331
3B3A
  5
3B3A
331
3B03
  5
3B03
331
3AC4
  5
3AC4
331
3C6D
  5
3C6D
331
3BF7
  5
3BF7
331
1C22
  5
1C23
331
1C61
  5
1C62
331
1C98
  5
1C99
331
1C2A
  5
1C2B
331
1C32
  5
1C33
331
1C71
  5
1C72
331
1C3A
  5
1C3B
331
333C
  5
333C
331
3A9D
  5
3A9D
331
4389
  5
4389
331
3D9C
  5
3D9C
331
3D65
  5
3D65
331
3AA5
  5
3AA5
331
3D6D
  5
3D6D
331
3D2E
  5
3D2E
331
3D75
  5
3D75
331
3D36
  5
3D36
331
3CFF
  5
3CFF
331
3E3A
  5
3E3A
331
3D3E
  5
3D3E
331
3BB8
  5
3BB8
331
3B81
  5
3B81
331
3B42
  5
3B42
331
3B0B
  5
3B0B
331
3ACC
  5
3ACC
331
3C75
  5
3C75
331
3BFF
  5
3BFF
331
3BC0
  5
3BC0
331
3B89
  5
3B89
331
3B4A
  5
3B4A
331
3B13
  5
3B13
331
3AD4
  5
3AD4
331
3C7D
  5
3C7D
331
3C07
  5
3C07
331
3BC8
  5
3BC8
331
3B91
  5
3B91
331
3B52
  5
3B52
331
3B1B
  5
3B1B
331
3ADC
  5
3ADC
331
3C85
  5
3C85
331
3C0F
  5
3C0F
331
3BD0
  5
3BD0
331
3B5A
  5
3B5A
331
3AE4
  5
3AE4
331
1C13
  5
1C14
331
1C1B
  5
1C1C
331
1C42
  5
1C43
331
1C4A
  5
1C4B
331
1C52
  5
1C53
331
1C91
  5
1C92
331
1C5A
  5
1C5B
331
3C89
  5
3C89
331
432B
  5
432B
331
3D7D
  5
3D7D
331
3D46
  5
3D46
331
3D07
  5
3D07
331
3D85
  5
3D85
331
3D4E
  5
3D4E
331
3D8D
  5
3D8D
331
3D56
  5
3D56
331
41CF
  5
41CF
331
3D95
  5
3D95
331
3D5E
  5
3D5E
331
449B
  5
449B
331
3BD8
  5
3BD8
331
3B99
  5
3B99
331
3B62
  5
3B62
331
3B23
  5
3B23
331
3AEC
  5
3AEC
331
3AAD
  5
3AAD
331
3C17
  5
3C17
331
3BE0
  5
3BE0
331
3BA1
  5
3BA1
331
3B6A
  5
3B6A
331
3B2B
  5
3B2B
331
3AF4
  5
3AF4
331
3AB5
  5
3AB5
331
3BE8
  5
3BE8
331
3BA9
  5
3BA9
331
3B72
  5
3B72
331
3B33
  5
3B33
331
3AFC
  5
3AFC
331
3ABD
  5
3ABD
331
3C66
  5
3C66
331
3BF0
  5
3BF0
331
3BB1
  5
3BB1
331
3B7A
  5
3B7A
331
3B3B
  5
3B3B
331
3B04
  5
3B04
331
3AC5
  5
3AC5
331
3C6E
  5
3C6E
331
3FEB
  5
3FEB
331
3EC8
  5
3EC8
331
3FF3
  5
3FF3
331
1C23
  5
1C24
331
1C62
  5
1C63
331
1C99
  5
1C9A
331
1C2B
  5
1C2C
331
1C33
  5
1C34
331
1C72
  5
1C73
331
1C3B
  5
1C3C
331
3A9E
  5
3A9E
331
3D9D
  5
3D9D
331
3D66
  5
3D66
331
3AA6
  5
3AA6
331
3D6E
  5
3D6E
331
3D2F
  5
3D2F
331
426F
  5
426F
331
3D76
  5
3D76
331
3D37
  5
3D37
331
3D3F
  5
3D3F
331
3BF8
  5
3BF8
331
3BB9
  5
3BB9
331
3B82
  5
3B82
331
3B43
  5
3B43
331
3B0C
  5
3B0C
331
3ACD
  5
3ACD
331
3C76
  5
3C76
331
3C00
  5
3C00
331
3BC1
  5
3BC1
331
3B8A
  5
3B8A
331
3B4B
  5
3B4B
331
3B14
  5
3B14
331
3AD5
  5
3AD5
331
3C7E
  5
3C7E
331
3C08
  5
3C08
331
3BC9
  5
3BC9
331
3B92
  5
3B92
331
3B53
  5
3B53
331
3B1C
  5
3B1C
331
3ADD
  5
3ADD
331
3C86
  5
3C86
331
3BD1
  5
3BD1
331
3B5B
  5
3B5B
331
3AE5
  5
3AE5
331
1C14
  5
1C15
331
1C1C
  5
1C1D
331
1C43
  5
1C44
331
1C4B
  5
1C4C
331
1C8A
  5
1C8B
331
1C53
  5
1C54
331
1C92
  5
1C93
331
1C5B
  5
1C5C
331
3D00
  5
3D00
331
3C8A
  5
3C8A
331
3D7E
  5
3D7E
331
3D47
  5
3D47
331
3D08
  5
3D08
331
3D86
  5
3D86
331
3D4F
  5
3D4F
331
3D8E
  5
3D8E
331
3D57
  5
3D57
331
3D96
  5
3D96
331
3D5F
  5
3D5F
331
4465
  5
4465
331
446D
  5
446D
331
3C10
  5
3C10
331
3BD9
  5
3BD9
331
3B9A
  5
3B9A
331
3B63
  5
3B63
331
3B24
  5
3B24
331
3AED
  5
3AED
331
3AAE
  5
3AAE
331
3C18
  5
3C18
331
3BE1
  5
3BE1
331
3BA2
  5
3BA2
331
3B6B
  5
3B6B
331
3B2C
  5
3B2C
331
3AF5
  5
3AF5
331
3AB6
  5
3AB6
331
3BE9
  5
3BE9
331
3BAA
  5
3BAA
331
3B73
  5
3B73
331
3B34
  5
3B34
331
3AFD
  5
3AFD
331
3ABE
  5
3ABE
331
3C67
  5
3C67
331
3BF1
  5
3BF1
331
3BB2
  5
3BB2
331
3B7B
  5
3B7B
331
3B3C
  5
3B3C
331
3B05
  5
3B05
331
3AC6
  5
3AC6
331
3C6F
  5
3C6F
331
3FEC
  5
3FEC
331
1C24
  5
1C25
331
1C63
  5
1C64
331
1C9A
  5
1C9B
331
1C2C
  5
1C2D
331
1C34
  5
1C35
331
1C73
  5
1C74
331
1C3C
  5
1C3D
331
3A9F
  5
3A9F
331
3D9E
  5
3D9E
331
3D67
  5
3D67
331
3AA7
  5
3AA7
331
3D6F
  5
3D6F
331
3D30
  5
3D30
331
3CF9
  5
3CF9
331
3D77
  5
3D77
331
3D38
  5
3D38
331
3BF9
  5
3BF9
331
3BBA
  5
3BBA
331
3B83
  5
3B83
331
3B44
  5
3B44
331
3B0D
  5
3B0D
331
3ACE
  5
3ACE
331
3C77
  5
3C77
331
3C01
  5
3C01
331
3BC2
  5
3BC2
331
3B8B
  5
3B8B
331
3B4C
  5
3B4C
331
3B15
  5
3B15
331
3AD6
  5
3AD6
331
3C7F
  5
3C7F
331
3C09
  5
3C09
331
3BCA
  5
3BCA
331
3B93
  5
3B93
331
3B54
  5
3B54
331
3B1D
  5
3B1D
331
3ADE
  5
3ADE
331
3C87
  5
3C87
331
3BD2
  5
3BD2
331
3B5C
  5
3B5C
331
3AE6
  5
3AE6
  0
XRECORD
  5
A65
102
{ACAD_REACTORS
330
9CB
102
}
330
9CB
100
AcDbXrecord
280
     1
340
B
  0
LAYOUT
  5
A68
102
{ACAD_XDICTIONARY
360
4857
102
}
102
{ACAD_REACTORS
330
1E
102
}
330
1E
100
AcDbPlotSettings
  1

  2
自動 設計一 上的 HP DeskJet 930C/932C/935C
  4

  6

 40
0.0
 41
0.0
 42
0.0
 43
0.0
 44
0.0
 45
0.0
 46
0.0
 47
0.0
 48
0.0
 49
0.0
140
0.0
141
0.0
142
1.0
143
1.0
 70
  1712
 72
     0
 73
     0
 74
     0
  7

 75
     0
147
1.0
148
0.0
149
0.0
100
AcDbLayout
  1
Model
 70
     1
 71
     0
 10
0.0
 20
0.0
 11
12.0
 21
9.0
 12
0.0
 22
0.0
 32
0.0
 14
0.0
 24
0.0
 34
0.0
 15
0.0
 25
0.0
 35
0.0
146
0.0
 13
0.0
 23
0.0
 33
0.0
 16
1.0
 26
0.0
 36
0.0
 17
0.0
 27
1.0
 37
0.0
 76
     0
330
A
  0
LAYOUT
  5
A69
102
{ACAD_XDICTIONARY
360
4859
102
}
102
{ACAD_REACTORS
330
1E
102
}
330
1E
100
AcDbPlotSettings
  1

  2
自動 設計一 上的 HP DeskJet 930C/932C/935C
  4

  6

 40
0.0
 41
0.0
 42
0.0
 43
0.0
 44
0.0
 45
0.0
 46
0.0
 47
0.0
 48
0.0
 49
0.0
140
0.0
141
0.0
142
1.0
143
1.0
 70
   688
 72
     0
 73
     0
 74
     5
  7

 75
    16
147
1.0
148
0.0
149
0.0
100
AcDbLayout
  1
配置1
 70
     1
 71
     1
 10
0.0
 20
0.0
 11
12.0
 21
9.0
 12
0.0
 22
0.0
 32
0.0
 14
1.000000000000000E+20
 24
1.000000000000000E+20
 34
1.000000000000000E+20
 15
-1.000000000000000E+20
 25
-1.000000000000000E+20
 35
-1.000000000000000E+20
146
0.0
 13
0.0
 23
0.0
 33
0.0
 16
1.0
 26
0.0
 36
0.0
 17
0.0
 27
1.0
 37
0.0
 76
     0
330
B
  0
MLINESTYLE
  5
1C
102
{ACAD_REACTORS
330
1B
102
}
330
1B
100
AcDbMlineStyle
  2
STANDARD
 70
     0
  3

 62
     0
 51
90.00000000000019
 52
90.00000000000019
 71
     2
 49
0.5
 62
   256
  6
BYLAYER
 49
-0.5
 62
   256
  6
BYLAYER
  0
ACDBPLACEHOLDER
  5
1D
102
{ACAD_REACTORS
330
1F
102
}
330
1F
  0
TABLESTYLE
  5
ECC
102
{ACAD_REACTORS
330
ECB
102
}
330
ECB
100
AcDbTableStyle
  3
Standard
 70
     0
 71
     0
 40
0.06
 41
0.06
280
     0
281
     0
  7
STANDARD
140
0.18
170
     2
 62
     0
 63
     7
283
     0
274
    -2
284
     1
 64
     0
275
    -2
285
     1
 65
     0
276
    -2
286
     1
 66
     0
277
    -2
287
     1
 67
     0
278
    -2
288
     1
 68
     0
279
    -2
289
     1
 69
     0
  7
STANDARD
140
0.25
170
     5
 62
     0
 63
     7
283
     0
274
    -2
284
     1
 64
     0
275
    -2
285
     1
 65
     0
276
    -2
286
     1
 66
     0
277
    -2
287
     1
 67
     0
278
    -2
288
     1
 68
     0
279
    -2
289
     1
 69
     0
  7
STANDARD
140
0.18
170
     5
 62
     0
 63
     7
283
     0
274
    -2
284
     1
 64
     0
275
    -2
285
     1
 65
     0
276
    -2
286
     1
 66
     0
277
    -2
287
     1
 67
     0
278
    -2
288
     1
 68
     0
279
    -2
289
     1
 69
     0
  0
DICTIONARYVAR
  5
1258
102
{ACAD_REACTORS
330
1257
102
}
330
1257
100
DictionaryVariables
280
     0
  1
STANDARD
  0
DICTIONARYVAR
  5
4852
102
{ACAD_REACTORS
330
1257
102
}
330
1257
100
DictionaryVariables
280
     0
  1
1
  0
DICTIONARYVAR
  5
4851
102
{ACAD_REACTORS
330
1257
102
}
330
1257
100
DictionaryVariables
280
     0
  1
1
  0
DICTIONARYVAR
  5
4853
102
{ACAD_REACTORS
330
1257
102
}
330
1257
100
DictionaryVariables
280
     0
  1

  0
DICTIONARY
  5
F9E
102
{ACAD_REACTORS
330
F90
102
}
330
F90
100
AcDbDictionary
281
     1
  0
XRECORD
  5
FBC
102
{ACAD_REACTORS
330
F90
102
}
330
F90
100
AcDbXrecord
280
     1
 90
-1023410169
  0
DICTIONARY
  5
ED3
102
{ACAD_REACTORS
330
ED2
102
}
330
ED2
100
AcDbDictionary
281
     1
  3
DWGSETTINGS
350
ED4
  3
Shaft
350
1093
  3
TRANSSETTINGS
350
ED8
  0
ACAMGFILTERDAT
  5
FD6
102
{ACAD_REACTORS
330
FD1
102
}
330
FD1
100
AcAmgFilterDat
 70
    15
  1
DIMENSION,AMDT_*_DIM
  2
*
  3
*
  4
*
  5
*
290
     1
  0
ACAMGFILTERDAT
  5
FD5
102
{ACAD_REACTORS
330
FD1
102
}
330
FD1
100
AcAmgFilterDat
 70
    15
  1
*
  2
AM_FEA-AM_*
  3
*
  4
*
  5
*
290
     1
  0
ACAMGFILTERDAT
  5
FD2
102
{ACAD_REACTORS
330
FD1
102
}
330
FD1
100
AcAmgFilterDat
 70
    15
  1
HATCH
  2
*
  3
*
  4
*
  5
*
290
     1
  0
ACAMGFILTERDAT
  5
FD3
102
{ACAD_REACTORS
330
FD1
102
}
330
FD1
100
AcAmgFilterDat
 70
    15
  1
LINE
  2
8,8N,*-8,*-8N,AM_8,AM_8N,*-AM_8,*-AM_8N
  3
*
  4
*
  5
INSERT,STDPART2D
290
     1
  0
ACAMGFILTERDAT
  5
FD7
102
{ACAD_REACTORS
330
FD1
102
}
330
FD1
100
AcAmgFilterDat
 70
    15
  1
ARC
  2
AM_5
  3
*
  4
2
  5
INSERT
290
     0
  0
ACAMGFILTERDAT
  5
FD4
102
{ACAD_REACTORS
330
FD1
102
}
330
FD1
100
AcAmgFilterDat
 70
    15
  1
ACMFCFRAME,ACMDATUMTARGET,ACMDATUMID,ACMWELDSYM,ACMSURFSYM,ACMFEATID,ACMPARTREF,ACMBALLOON,AMDTEDGESYM,AMGSCREWCALCTABLE
  2
*
  3
*
  4
*
  5
*
290
     1
  0
LAYER_INDEX
  5
1250
102
{ACAD_REACTORS
330
124F
102
}
330
124F
100
AcDbIndex
 40
2455323.590023819
100
AcDbLayerIndex
  8
0
360
1251
 90
      533
  8
CENTER
360
1252
 90
       35
  8
DIM
360
1253
 90
       11
  8
Defpoints
360
1254
 90
        0
  8
AM_5
360
1255
 90
       41
  8
LOGO
360
191C
 90
      117
  0
DICTIONARY
  5
4857
330
A68
100
AcDbDictionary
280
     1
281
     1
  3
ACAD_XREC_ROUNDTRIP
360
4858
  0
DICTIONARY
  5
4859
330
A69
100
AcDbDictionary
280
     1
281
     1
  3
ACAD_XREC_ROUNDTRIP
360
485A
  0
IDBUFFER
  5
1251
330
0
100
AcDbIdBuffer
330
1C11
330
1C9C
330
1C9D
330
1C9E
330
3A9A
330
3A9B
330
3A9C
330
3A9D
330
3A9E
330
3A9F
330
3AA0
330
3AA1
330
3AA2
330
3AA3
330
3AA4
330
3AA5
330
3AA6
330
3AA7
330
3AA8
330
3AA9
330
3AAA
330
3AAB
330
3AAC
330
3AAD
330
3AAE
330
3AAF
330
3AB0
330
3AB1
330
3AB2
330
3AB3
330
3AB4
330
3AB5
330
3AB6
330
3AB7
330
3AB8
330
3AB9
330
3ABA
330
3ABB
330
3ABC
330
3ABD
330
3ABE
330
3ABF
330
3AC0
330
3AC1
330
3AC2
330
3AC3
330
3AC4
330
3AC5
330
3AC6
330
3AC7
330
3AC8
330
3AC9
330
3ACA
330
3ACB
330
3ACC
330
3ACD
330
3ACE
330
3ACF
330
3AD0
330
3AD1
330
3AD2
330
3AD3
330
3AD4
330
3AD5
330
3AD6
330
3AD7
330
3AD8
330
3AD9
330
3ADA
330
3ADB
330
3ADC
330
3ADD
330
3ADE
330
3ADF
330
3AE0
330
3AE1
330
3AE2
330
3AE3
330
3AE4
330
3AE5
330
3AE6
330
3AE7
330
3AE8
330
3AE9
330
3AEA
330
3AEB
330
3AEC
330
3AED
330
3AEE
330
3AEF
330
3AF0
330
3AF1
330
3AF2
330
3AF3
330
3AF4
330
3AF5
330
3AF6
330
3AF7
330
3AF8
330
3AF9
330
3AFA
330
3AFB
330
3AFC
330
3AFD
330
3AFE
330
3AFF
330
3B00
330
3B01
330
3B02
330
3B03
330
3B04
330
3B05
330
3B07
330
3B08
330
3B09
330
3B0A
330
3B0C
330
3B0D
330
3B0E
330
3B0F
330
3B10
330
3B11
330
3B12
330
3B13
330
3B14
330
3B15
330
3B16
330
3B17
330
3B18
330
3B19
330
3B1A
330
3B1B
330
3B1C
330
3B1D
330
3B1E
330
3B1F
330
3B20
330
3B21
330
3B22
330
3B23
330
3B24
330
3B25
330
3B26
330
3B27
330
3B28
330
3B29
330
3B2A
330
3B2B
330
3B2C
330
3B2D
330
3B2E
330
3B2F
330
3B30
330
3B31
330
3B32
330
3B33
330
3B34
330
3B35
330
3B36
330
3B37
330
3B38
330
3B39
330
3B3A
330
3B3B
330
3B3C
330
3B3D
330
3B3E
330
3B3F
330
3B40
330
3B41
330
3B42
330
3B43
330
3B44
330
3B45
330
3B46
330
3B47
330
3B48
330
3B49
330
3B4A
330
3B4B
330
3B4C
330
3B4D
330
3B4E
330
3B4F
330
3B50
330
3B51
330
3B52
330
3B53
330
3B54
330
3B55
330
3B56
330
3B57
330
3B58
330
3B59
330
3B5A
330
3B5B
330
3B5C
330
3B5D
330
3B5E
330
3B5F
330
3B60
330
3B61
330
3B62
330
3B63
330
3B64
330
3B65
330
3B66
330
3B67
330
3B68
330
3B69
330
3B6A
330
3B6B
330
3B6C
330
3B6D
330
3B6E
330
3B6F
330
3B70
330
3B71
330
3B72
330
3B73
330
3B74
330
3B75
330
3B76
330
3B77
330
3B78
330
3B79
330
3B7A
330
3B7B
330
3B7C
330
3B7D
330
3B7E
330
3B7F
330
3B80
330
3B81
330
3B82
330
3B83
330
3B84
330
3B85
330
3B86
330
3B87
330
3B88
330
3B89
330
3B8A
330
3B8B
330
3B8C
330
3B8D
330
3B8E
330
3B8F
330
3B90
330
3B91
330
3B92
330
3B93
330
3B94
330
3B95
330
3B96
330
3B97
330
3B98
330
3B99
330
3B9A
330
3B9B
330
3B9C
330
3B9D
330
3B9E
330
3B9F
330
3BA0
330
3BA1
330
3BA2
330
3BA3
330
3BA4
330
3BA5
330
3BA6
330
3BA7
330
3BA8
330
3BA9
330
3BAA
330
3BAB
330
3BAC
330
3BAD
330
3BAE
330
3BAF
330
3BB0
330
3BB1
330
3BB2
330
3BB3
330
3BB4
330
3BB5
330
3BB6
330
3BB7
330
3BB9
330
3BBA
330
3BBB
330
3BBC
330
3BBD
330
3BBE
330
3BBF
330
3BC0
330
3BC1
330
3BC2
330
3BC3
330
3BC4
330
3BC5
330
3BC6
330
3BC7
330
3BC8
330
3BC9
330
3BCA
330
3BCB
330
3BCC
330
3BCD
330
3BCE
330
3BCF
330
3BD0
330
3BD1
330
3BD2
330
3BD3
330
3BD4
330
3BD5
330
3BD6
330
3BD7
330
3BD8
330
3BD9
330
3BDA
330
3BDB
330
3BDC
330
3BDD
330
3BDE
330
3BDF
330
3BE0
330
3BE1
330
3BE2
330
3BE3
330
3BE4
330
3BE5
330
3BE6
330
3BE7
330
3BE8
330
3BE9
330
3BEA
330
3BEB
330
3BEC
330
3BED
330
3BEE
330
3BEF
330
3BF0
330
3BF1
330
3BF2
330
3BF6
330
3BF8
330
3BFA
330
3BFF
330
3C00
330
3C06
330
3C08
330
3C0E
330
3C10
330
3C16
330
3C17
330
3C18
330
3C19
330
3C41
330
3C60
330
3C61
330
3C62
330
3C63
330
3C64
330
3C65
330
3C66
330
3C67
330
3C68
330
3C69
330
3C6A
330
3C6B
330
3C6C
330
3C6D
330
3C6E
330
3C6F
330
3C70
330
3C71
330
3C72
330
3C73
330
3C74
330
3C75
330
3C76
330
3C77
330
3C78
330
3C79
330
3C7A
330
3C7B
330
3C7C
330
3C7D
330
3C7E
330
3C7F
330
3C80
330
3C81
330
3C82
330
3C83
330
3C84
330
3C85
330
3C86
330
3C87
330
3C88
330
3C89
330
3C8A
330
3C8B
330
3C8C
330
3C8D
330
3C8E
330
3C8F
330
3CB7
330
3CCF
330
3CEE
330
3CF9
330
3CFA
330
3CFB
330
3CFC
330
3CFD
330
3CFE
330
3CFF
330
3D00
330
3D01
330
3D02
330
3D03
330
3D04
330
3D05
330
3D06
330
3D07
330
3D08
330
3D09
330
3D21
330
3D22
330
3D2D
330
3D2E
330
3D2F
330
3D30
330
3D31
330
3D32
330
3D33
330
3D34
330
3D35
330
3D36
330
3D37
330
3D38
330
3D39
330
3D3A
330
3D3B
330
3D3C
330
3D3D
330
3D3E
330
3D3F
330
3D40
330
3D41
330
3D42
330
3D44
330
3D45
330
3D46
330
3D47
330
3D48
330
3D49
330
3D4B
330
3D4C
330
3D4D
330
3D4E
330
3D4F
330
3D50
330
3D51
330
3D52
330
3D54
330
3D57
330
3D58
330
3D59
330
3D5A
330
3D5B
330
3D5C
330
3D5D
330
3D5F
330
3D60
330
3D61
330
3D62
330
3D63
330
3D64
330
3D65
330
3D67
330
3D68
330
3D6C
330
3D6D
330
3D6E
330
3D6F
330
3D70
330
3D71
330
3D72
330
3D73
330
3D74
330
3D75
330
3D76
330
3D77
330
3D79
330
3D7B
330
3D7C
330
3D7D
330
3D7E
330
3D7F
330
3D80
330
3D81
330
3D82
330
3D83
330
3D84
330
3D85
330
3D86
330
3D87
330
3D88
330
3D89
330
3D8A
330
3D8B
330
3D8D
330
3D8E
330
3D8F
330
3D90
330
3D91
330
3D92
330
3D94
330
3D95
330
3D98
330
3D99
330
3D9A
330
3D9B
330
3D9C
330
3D9D
330
3D9E
330
3D9F
330
3DA0
330
3DA1
330
3DA2
330
3DA3
  0
IDBUFFER
  5
1252
330
0
100
AcDbIdBuffer
330
3BF3
330
3BF4
330
3BF5
330
3BFB
330
3BFC
330
3BFD
330
3BFE
330
3C01
330
3C02
330
3C03
330
3C04
330
3C09
330
3C0A
330
3C0B
330
3C0C
330
3C11
330
3C12
330
3C13
330
3C14
330
3C15
330
3D53
330
3D55
330
3D5E
330
3D66
330
3D6A
330
3D6B
330
3D78
330
3D7A
330
3D8C
330
3D93
330
3D96
330
3D97
330
4465
330
4466
330
4468
  0
IDBUFFER
  5
1253
330
0
100
AcDbIdBuffer
330
3B06
330
3B0B
330
3BB8
330
3BF7
330
3BF9
330
3C05
330
3C07
330
3C0D
330
3C0F
330
3D56
330
3D69
  0
IDBUFFER
  5
1254
330
0
100
AcDbIdBuffer
  0
IDBUFFER
  5
1255
330
0
100
AcDbIdBuffer
330
28D6
330
28D7
330
333B
330
333C
330
3D43
330
3D4A
330
3E17
330
3E3A
330
3E6F
330
3E9B
330
3EC8
330
3F02
330
3F2A
330
3F68
330
3FEB
330
3FEC
330
3FF3
330
4036
330
4048
330
40C7
330
40EF
330
4158
330
41CF
330
426F
330
42A4
330
42FF
330
432B
330
4357
330
4389
330
43B5
330
43DC
330
4412
330
442C
330
446D
330
449B
330
44D0
330
4582
330
45DC
330
4612
330
4651
330
467D
  0
IDBUFFER
  5
191C
330
0
100
AcDbIdBuffer
330
1C12
330
1C13
330
1C14
330
1C15
330
1C16
330
1C17
330
1C18
330
1C19
330
1C1A
330
1C1B
330
1C1C
330
1C1D
330
1C1E
330
1C1F
330
1C20
330
1C21
330
1C22
330
1C23
330
1C24
330
1C25
330
1C26
330
1C27
330
1C28
330
1C29
330
1C2A
330
1C2B
330
1C2C
330
1C2D
330
1C2E
330
1C2F
330
1C30
330
1C31
330
1C32
330
1C33
330
1C34
330
1C35
330
1C36
330
1C37
330
1C38
330
1C39
330
1C3A
330
1C3B
330
1C3C
330
1C3D
330
1C3E
330
1C3F
330
1C40
330
1C41
330
1C42
330
1C43
330
1C44
330
1C45
330
1C46
330
1C47
330
1C48
330
1C49
330
1C4A
330
1C4B
330
1C4C
330
1C4D
330
1C4E
330
1C4F
330
1C50
330
1C51
330
1C52
330
1C53
330
1C54
330
1C55
330
1C56
330
1C57
330
1C58
330
1C59
330
1C5A
330
1C5B
330
1C5C
330
1C5D
330
1C5E
330
1C5F
330
1C60
330
1C61
330
1C62
330
1C63
330
1C64
330
1C68
330
1C6C
330
1C6D
330
1C71
330
1C72
330
1C73
330
1C74
330
1C75
330
1C76
330
1C77
330
1C78
330
1C7C
330
1C80
330
1C84
330
1C85
330
1C86
330
1C8A
330
1C8B
330
1C8C
330
1C8D
330
1C8E
330
1C8F
330
1C90
330
1C91
330
1C92
330
1C93
330
1C94
330
1C95
330
1C96
330
1C97
330
1C98
330
1C99
330
1C9A
330
1C9B
  0
XRECORD
  5
4858
102
{ACAD_REACTORS
330
4857
102
}
330
4857
100
AcDbXrecord
280
     1
102
SHADEPLOT
 70
     0
102
SHADEPLOTRESLEVEL
 70
     2
102
SHADEPLOTCUSTOMDPI
 70
   300
  0
XRECORD
  5
485A
102
{ACAD_REACTORS
330
4859
102
}
330
4859
100
AcDbXrecord
280
     1
102
SHADEPLOT
 70
     0
102
SHADEPLOTRESLEVEL
 70
     2
102
SHADEPLOTCUSTOMDPI
 70
   300
  0
ENDSEC
  0
EOF
