  0
SECTION
  2
HEADER
  9
$ACADVER
  1
AC1015
  9
$ACADMAINTVER
 70
    20
  9
$DWGCODEPAGE
  3
ANSI_950
  9
$INSBASE
 10
0.0
 20
0.0
 30
0.0
  9
$EXTMIN
 10
464.6357735423812
 20
231.6725435838878
 30
-0.0061315363010408
  9
$EXTMAX
 10
921.4263865066255
 20
561.3485319957505
 30
200.9396437600547
  9
$LIMMIN
 10
0.0
 20
0.0
  9
$LIMMAX
 10
0.0
 20
0.0
  9
$ORTHOMODE
 70
     0
  9
$REGENMODE
 70
     1
  9
$FILLMODE
 70
     1
  9
$QTEXTMODE
 70
     0
  9
$MIRRTEXT
 70
     1
  9
$LTSCALE
 40
1.0
  9
$ATTMODE
 70
     1
  9
$TEXTSIZE
 40
3.5
  9
$TRACEWID
 40
0.05
  9
$TEXTSTYLE
  7
STANDARD
  9
$CLAYER
  8
0
  9
$CELTYPE
  6
CONTINUOUS
  9
$CECOLOR
 62
   256
  9
$CELTSCALE
 40
1.0
  9
$DISPSILH
 70
     0
  9
$DIMSCALE
 40
1.0
  9
$DIMASZ
 40
3.0
  9
$DIMEXO
 40
1.0
  9
$DIMDLI
 40
6.5
  9
$DIMRND
 40
0.0
  9
$DIMDLE
 40
0.0
  9
$DIMEXE
 40
1.0
  9
$DIMTP
 40
0.1
  9
$DIMTM
 40
0.1
  9
$DIMTXT
 40
3.5
  9
$DIMCEN
 40
0.0
  9
$DIMTSZ
 40
0.0
  9
$DIMTOL
 70
     0
  9
$DIMLIM
 70
     0
  9
$DIMTIH
 70
     0
  9
$DIMTOH
 70
     0
  9
$DIMSE1
 70
     0
  9
$DIMSE2
 70
     0
  9
$DIMTAD
 70
     1
  9
$DIMZIN
 70
     8
  9
$DIMBLK
  1

  9
$DIMASO
 70
     1
  9
$DIMSHO
 70
     1
  9
$DIMPOST
  1

  9
$DIMAPOST
  1
"
  9
$DIMALT
 70
     0
  9
$DIMALTD
 70
     2
  9
$DIMALTF
 40
0.0393701
  9
$DIMLFAC
 40
1.0
  9
$DIMTOFL
 70
     1
  9
$DIMTVP
 40
0.0
  9
$DIMTIX
 70
     0
  9
$DIMSOXD
 70
     0
  9
$DIMSAH
 70
     0
  9
$DIMBLK1
  1

  9
$DIMBLK2
  1

  9
$DIMSTYLE
  2
AM_ISO
  9
$DIMCLRD
 70
   256
  9
$DIMCLRE
 70
   256
  9
$DIMCLRT
 70
   256
  9
$DIMTFAC
 40
0.71
  9
$DIMGAP
 40
1.0
  9
$DIMJUST
 70
     0
  9
$DIMSD1
 70
     0
  9
$DIMSD2
 70
     0
  9
$DIMTOLJ
 70
     0
  9
$DIMTZIN
 70
     8
  9
$DIMALTZ
 70
     0
  9
$DIMALTTZ
 70
     0
  9
$DIMUPT
 70
     0
  9
$DIMDEC
 70
     2
  9
$DIMTDEC
 70
     8
  9
$DIMALTU
 70
     2
  9
$DIMALTTD
 70
     2
  9
$DIMTXSTY
  7
STANDARD
  9
$DIMAUNIT
 70
     0
  9
$DIMADEC
 70
     0
  9
$DIMALTRND
 40
0.0
  9
$DIMAZIN
 70
     2
  9
$DIMDSEP
 70
    46
  9
$DIMATFIT
 70
     3
  9
$DIMFRAC
 70
     0
  9
$DIMLDRBLK
  1

  9
$DIMLUNIT
 70
     2
  9
$DIMLWD
 70
    -1
  9
$DIMLWE
 70
    -1
  9
$DIMTMOVE
 70
     0
  9
$LUNITS
 70
     2
  9
$LUPREC
 70
     2
  9
$SKETCHINC
 40
0.1
  9
$FILLETRAD
 40
2.5
  9
$AUNITS
 70
     0
  9
$AUPREC
 70
     0
  9
$MENU
  1
acad
  9
$ELEVATION
 40
0.0
  9
$PELEVATION
 40
0.0
  9
$THICKNESS
 40
0.0
  9
$LIMCHECK
 70
     0
  9
$CHAMFERA
 40
2.5
  9
$CHAMFERB
 40
2.5
  9
$CHAMFERC
 40
0.0
  9
$CHAMFERD
 40
0.0
  9
$SKPOLY
 70
     0
  9
$TDCREATE
 40
2452359.824870255
  9
$TDUCREATE
 40
2452359.491536922
  9
$TDUPDATE
 40
2455323.606964132
  9
$TDUUPDATE
 40
2455323.273630799
  9
$TDINDWG
 40
0.2716928356
  9
$TDUSRTIMER
 40
0.2716915625
  9
$USRTIMER
 70
     1
  9
$ANGBASE
 50
0.0
  9
$ANGDIR
 70
     0
  9
$PDMODE
 70
     0
  9
$PDSIZE
 40
-1.0
  9
$PLINEWID
 40
0.0
  9
$SPLFRAME
 70
     0
  9
$SPLINETYPE
 70
     6
  9
$SPLINESEGS
 70
     8
  9
$HANDSEED
  5
5821
  9
$SURFTAB1
 70
     6
  9
$SURFTAB2
 70
     6
  9
$SURFTYPE
 70
     6
  9
$SURFU
 70
     6
  9
$SURFV
 70
     6
  9
$UCSBASE
  2

  9
$UCSNAME
  2

  9
$UCSORG
 10
0.0
 20
0.0
 30
0.0
  9
$UCSXDIR
 10
1.0
 20
0.0
 30
0.0
  9
$UCSYDIR
 10
0.0
 20
1.0
 30
0.0
  9
$UCSORTHOREF
  2

  9
$UCSORTHOVIEW
 70
     0
  9
$UCSORGTOP
 10
0.0
 20
0.0
 30
0.0
  9
$UCSORGBOTTOM
 10
0.0
 20
0.0
 30
0.0
  9
$UCSORGLEFT
 10
0.0
 20
0.0
 30
0.0
  9
$UCSORGRIGHT
 10
0.0
 20
0.0
 30
0.0
  9
$UCSORGFRONT
 10
0.0
 20
0.0
 30
0.0
  9
$UCSORGBACK
 10
0.0
 20
0.0
 30
0.0
  9
$PUCSBASE
  2

  9
$PUCSNAME
  2

  9
$PUCSORG
 10
0.0
 20
0.0
 30
0.0
  9
$PUCSXDIR
 10
1.0
 20
0.0
 30
0.0
  9
$PUCSYDIR
 10
0.0
 20
1.0
 30
0.0
  9
$PUCSORTHOREF
  2

  9
$PUCSORTHOVIEW
 70
     0
  9
$PUCSORGTOP
 10
0.0
 20
0.0
 30
0.0
  9
$PUCSORGBOTTOM
 10
0.0
 20
0.0
 30
0.0
  9
$PUCSORGLEFT
 10
0.0
 20
0.0
 30
0.0
  9
$PUCSORGRIGHT
 10
0.0
 20
0.0
 30
0.0
  9
$PUCSORGFRONT
 10
0.0
 20
0.0
 30
0.0
  9
$PUCSORGBACK
 10
0.0
 20
0.0
 30
0.0
  9
$USERI1
 70
     0
  9
$USERI2
 70
     0
  9
$USERI3
 70
     0
  9
$USERI4
 70
     0
  9
$USERI5
 70
     0
  9
$USERR1
 40
0.0
  9
$USERR2
 40
0.0
  9
$USERR3
 40
0.0
  9
$USERR4
 40
0.0
  9
$USERR5
 40
0.0
  9
$WORLDVIEW
 70
     1
  9
$SHADEDGE
 70
     3
  9
$SHADEDIF
 70
    70
  9
$TILEMODE
 70
     1
  9
$MAXACTVP
 70
    16
  9
$PINSBASE
 10
0.0
 20
0.0
 30
0.0
  9
$PLIMCHECK
 70
     0
  9
$PEXTMIN
 10
1.000000000000000E+20
 20
1.000000000000000E+20
 30
1.000000000000000E+20
  9
$PEXTMAX
 10
-1.000000000000000E+20
 20
-1.000000000000000E+20
 30
-1.000000000000000E+20
  9
$PLIMMIN
 10
0.0
 20
0.0
  9
$PLIMMAX
 10
12.0
 20
9.0
  9
$UNITMODE
 70
     0
  9
$VISRETAIN
 70
     0
  9
$PLINEGEN
 70
     1
  9
$PSLTSCALE
 70
     1
  9
$TREEDEPTH
 70
  3020
  9
$CMLSTYLE
  2
STANDARD
  9
$CMLJUST
 70
     0
  9
$CMLSCALE
 40
1.0
  9
$PROXYGRAPHICS
 70
     0
  9
$MEASUREMENT
 70
     1
  9
$CELWEIGHT
370
     0
  9
$ENDCAPS
280
     0
  9
$JOINSTYLE
280
     0
  9
$LWDISPLAY
290
     0
  9
$INSUNITS
 70
     4
  9
$HYPERLINKBASE
  1

  9
$STYLESHEET
  1

  9
$XEDIT
290
     1
  9
$CEPSNTYPE
380
     0
  9
$PSTYLEMODE
290
     1
  9
$FINGERPRINTGUID
  2

  9
$VERSIONGUID
  2
{D2A98972-2C06-4A48-B69B-FD2A20567478}
  9
$EXTNAMES
290
     1
  9
$PSVPSCALE
 40
0.0
  9
$OLESTARTUP
290
     0
  0
ENDSEC
  0
SECTION
  2
CLASSES
  0
CLASS
  1
IMAGE
  2
AcDbRasterImage
  3
ISM
 90
    32895
280
     0
281
     1
  0
CLASS
  1
DICTIONARYVAR
  2
AcDbDictionaryVar
  3
ObjectDBX Classes
 90
        0
280
     0
281
     0
  0
CLASS
  1
RASTERVARIABLES
  2
AcDbRasterVariables
  3
ISM
 90
    32768
280
     0
281
     0
  0
CLASS
  1
IMAGEDEF
  2
AcDbRasterImageDef
  3
ISM
 90
    32768
280
     0
281
     0
  0
CLASS
  1
IMAGEDEF_REACTOR
  2
AcDbRasterImageDefReactor
  3
ISM
 90
    32769
280
     0
281
     0
  0
CLASS
  1
IDBUFFER
  2
AcDbIdBuffer
  3
ObjectDBX Classes
 90
        0
280
     0
281
     0
  0
CLASS
  1
SPATIAL_FILTER
  2
AcDbSpatialFilter
  3
ObjectDBX Classes
 90
    32768
280
     0
281
     0
  0
CLASS
  1
SORTENTSTABLE
  2
AcDbSortentsTable
  3
ObjectDBX Classes
 90
        0
280
     0
281
     0
  0
CLASS
  1
LAYER_INDEX
  2
AcDbLayerIndex
  3
ObjectDBX Classes
 90
        0
280
     0
281
     0
  0
CLASS
  1
SPATIAL_INDEX
  2
AcDbSpatialIndex
  3
ObjectDBX Classes
 90
    32768
280
     0
281
     0
  0
CLASS
  1
OBJECT_PTR
  2
CAseDLPNTableRecord
  3
"ASE-LPNTableRecord"
 90
    32769
280
     0
281
     0
  0
CLASS
  1
LAYOUT
  2
AcDbLayout
  3
ObjectDBX Classes
 90
        0
280
     0
281
     0
  0
CLASS
  1
PLOTSETTINGS
  2
AcDbPlotSettings
  3
ObjectDBX Classes
 90
    32768
280
     0
281
     0
  0
CLASS
  1
ACDBDICTIONARYWDFLT
  2
AcDbDictionaryWithDefault
  3
ObjectDBX Classes
 90
        0
280
     0
281
     0
  0
CLASS
  1
ACDBPLACEHOLDER
  2
AcDbPlaceHolder
  3
ObjectDBX Classes
 90
        0
280
     0
281
     0
  0
CLASS
  1
VBA_PROJECT
  2
AcDbVbaProject
  3
acad
 90
    32768
280
     0
281
     0
  0
CLASS
  1
WIPEOUT
  2
AcDbWipeout
  3
"WipeOut|Product Desc: Object Enabler for WipeOut entity^I^I^I^I^I^I|Company: Autodesk, Inc.^I^I^I^I^I^I|WEB Address: www.autodesk.com"
 90
    32895
280
     0
281
     1
  0
CLASS
  1
WIPEOUTVARIABLES
  2
AcDbWipeoutVariables
  3
"WipeOut|Product Desc:     WipeOut Dbx Application|Company:          Autodesk, Inc.|WEB Address:      www.autodesk.com"
 90
        0
280
     0
281
     0
  0
CLASS
  1
RTEXT
  2
RText
  3
RText|AutoCAD Express Tool|expresstools@autodesk.com
 90
    32768
280
     0
281
     1
  0
CLASS
  1
ARCALIGNEDTEXT
  2
AcDbArcAlignedText
  3
ATEXT|AutoCAD Express Tool|expresstools@autodesk.com
 90
    32768
280
     0
281
     0
  0
CLASS
  1
ACAD_PROXY_OBJECT_WRAPPER
  2
AcDbProxyObjectWrapper
  3
ObjectDBX Classes
 90
    32768
280
     0
281
     0
  0
CLASS
  1
TABLESTYLE
  2
AcDbTableStyle
  3
ObjectDBX Classes
 90
     2047
280
     0
281
     0
  0
CLASS
  1
ACME_DOCUMENT
  2
AcMeDbDoc
  3
AcMeServices
 90
        0
280
     0
281
     0
  0
CLASS
  1
AMGSETTINGSOBJ
  2
AmgSettingsObj
  3
"AcadM|Product Description: AutoCAD Mechanical 2000|Company: Autodesk"
 90
        0
280
     0
281
     0
  0
CLASS
  1
ACMESCOPE
  2
AcMeScope
  3
AcMeServices
 90
        0
280
     0
281
     0
  0
CLASS
  1
ACMECOMMANDHISTORY
  2
AcMeCommandHistory
  3
AcMeServices
 90
        0
280
     0
281
     0
  0
CLASS
  1
ACIMSYSVARMAN
  2
AcImSysVarManager
  3
AcMeServices
 90
        0
280
     0
281
     0
  0
CLASS
  1
ACIMREALSYSVAR
  2
AcImRealSysVar
  3
AcMeServices
 90
        0
280
     0
281
     0
  0
CLASS
  1
ACIMINTSYSVAR
  2
AcImIntSysVar
  3
AcMeServices
 90
        0
280
     0
281
     0
  0
CLASS
  1
ACMEDRAWINGMAN
  2
AcMeDrawingMan
  3
AcMeServices
 90
        0
280
     0
281
     0
  0
CLASS
  1
ACMEVIEW
  2
AcMeView
  3
AcMeServices
 90
        0
280
     0
281
     0
  0
CLASS
  1
ACDBENTITYCACHE
  2
AcMeEntityCache
  3
AcMeServices
 90
        0
280
     0
281
     0
  0
CLASS
  1
GSMANAGER
  2
AcMeGSManager
  3
AcMeServices
 90
        0
280
     0
281
     0
  0
CLASS
  1
AMDTINTERNALREACTOR
  2
AmdtInternalReactor
  3
AcMeServices
 90
        0
280
     0
281
     0
  0
CLASS
  1
ACMESTATEMGR
  2
AcMeStateMgr
  3
AcMeServices
 90
        0
280
     0
281
     0
  0
CLASS
  1
ACGREFMASTER
  2
AcGrefMaster
  3
AcAttribServices
 90
        0
280
     0
281
     0
  0
CLASS
  1
AM_DRAWING_MGR
  2
AcDmDwgMgr
  3
AcMechDwgViewMgmt
 90
        0
280
     0
281
     0
  0
CLASS
  1
AM_DWG_DOCUMENT
  2
AcDmDwgDocument
  3
AcMechDwgViewMgmt
 90
        0
280
     0
281
     0
  0
CLASS
  1
AM_DWG_SHEET
  2
AcDmSheet
  3
AcMechDwgViewMgmt
 90
        0
280
     0
281
     0
  0
CLASS
  1
AM_VIEWDIMPARMAP
  2
AcDmViewDimParMap
  3
AcMechDwgViewMgmt
 90
        0
280
     0
281
     0
  0
CLASS
  1
AM_DWGMGR_NAME
  2
AcDmDwgMgrName
  3
AcMechDwgViewMgmt
 90
        0
280
     0
281
     0
  0
CLASS
  1
ACME_DATABASE
  2
AcMeDbDatabase
  3
AcMeServices
 90
        0
280
     0
281
     0
  0
CLASS
  1
ACRFINSADJUSTERMGR
  2
AcRfInsAdjusterMgr
  3
AcMeServices
 90
        0
280
     0
281
     0
  0
CLASS
  1
ACGREFACADMASTER
  2
AcGrefacadMaster
  3
AcGrefServices
 90
        0
280
     0
281
     0
  0
CLASS
  1
AMDTMENUSTATEMGR
  2
AmdtMenuStateMgr
  3
McadcomServices
 90
        0
280
     0
281
     0
  0
CLASS
  1
AMDTMCOMMENUSTATE
  2
AmdtMcomMenuState
  3
McadcomServices
 90
        0
280
     0
281
     0
  0
CLASS
  1
AMIMASTER
  2
AmiMaster
  3
AmiServices
 90
        0
280
     0
281
     0
  0
CLASS
  1
ASAPP
  2
AcAsAppObject
  3
AutoSurfServices
 90
        0
280
     0
281
     0
  0
CLASS
  1
IM_STATIC_MAN
  2
AcImStaticVarManager
  3
AcMeServices
 90
        0
280
     0
281
     0
  0
CLASS
  1
ACIMSTRSYSVAR
  2
AcImStrSysVar
  3
AcMeServices
 90
        0
280
     0
281
     0
  0
CLASS
  1
ACIMDBLSTATICVAR
  2
AcImDblStaticVar
  3
AcMeServices
 90
        0
280
     0
281
     0
  0
CLASS
  1
ACIMSTRSTATICVAR
  2
AcImStrStaticVar
  3
AcMeServices
 90
        0
280
     0
281
     0
  0
CLASS
  1
ACIMINTSTATICVAR
  2
AcImIntStaticVar
  3
AcMeServices
 90
        0
280
     0
281
     0
  0
CLASS
  1
ACASGREFMASTER
  2
AcAsGrefMaster
  3
AutoSurfResolverServices
 90
        0
280
     0
281
     0
  0
CLASS
  1
ACADGREFMODULE
  2
AcAdGrefModule
  3
AdGrefServices
 90
        0
280
     0
281
     0
  0
CLASS
  1
AMDTMAPISURFMOUDULE
  2
AmdtMApiSurfModule
  3
MApiSurfServices
 90
        0
280
     0
281
     0
  0
CLASS
  1
MAPIAMMOUDLE
  2
MApiAmModule
  3
MApiAmServices
 90
        0
280
     0
281
     0
  0
CLASS
  1
AMDTADMENUSTATE
  2
AmdtAdMenuState
  3
DesignerServices
 90
        0
280
     0
281
     0
  0
CLASS
  1
ADAPPL
  2
AcAdAppl
  3
DesignerServices
 90
        0
280
     0
281
     0
  0
CLASS
  1
DEPMGR
  2
AcAdDepMgr
  3
DesignerServices
 90
        0
280
     0
281
     0
  0
CLASS
  1
PARAMMGR
  2
AcAdParamMgr
  3
DesignerServices
 90
        0
280
     0
281
     0
  0
CLASS
  1
PARAMSCOPE
  2
AcAdParamScope
  3
DesignerServices
 90
        0
280
     0
281
     0
  0
CLASS
  1
NAMEDAPPL
  2
AcAdNamedAppl
  3
DesignerServices
 90
        0
280
     0
281
     0
  0
CLASS
  1
AMDTDMMENUSTATE
  2
AmdtDmMenuState
  3
AcMechDwgViewMgmt
 90
        0
280
     0
281
     0
  0
CLASS
  1
MAPIADMODULE
  2
MApiAdModule
  3
MApiAdServices
 90
        0
280
     0
281
     0
  0
CLASS
  1
AMDTAMMENUSTATE
  2
AmdtAmMenuState
  3
DesignerAssemblies
 90
        0
280
     0
281
     0
  0
CLASS
  1
ACAMPROJECT
  2
AcAmProject
  3
DesignerAssemblies
 90
        0
280
     0
281
     0
  0
CLASS
  1
ACAMGRCOMPDEF
  2
AcAmGrCompDef
  3
DesignerAssemblies
 90
        0
280
     0
281
     0
  0
CLASS
  1
ACCMCONTEXT
  2
AcCmContext
  3
DesignerAssemblies
 90
        0
280
     0
281
     0
  0
CLASS
  1
ACAMCOMPDEF
  2
AcAmCompDef
  3
DesignerAssemblies
 90
        0
280
     0
281
     0
  0
CLASS
  1
ACAMCOMPDEFMGR
  2
AcAmCompDefMgr
  3
DesignerAssemblies
 90
        0
280
     0
281
     0
  0
CLASS
  1
AMCONTEXTMGR
  2
AcAmContextMgr
  3
DesignerAssemblies
 90
        0
280
     0
281
     0
  0
CLASS
  1
ACAMCONTEXTMODELER
  2
AcAmContextModeler
  3
DesignerAssemblies
 90
        0
280
     0
281
     0
  0
CLASS
  1
ACMDATADICTIONARY
  2
AcmDataDictionary
  3
"AcmSymBB|Product Description: AutoCAD Mechanical 2004 DX|Company: Autodesk"
 90
        0
280
     0
281
     0
  0
CLASS
  1
ACMDATAENTRYBLOCK
  2
AcmDataEntryBlock
  3
"AcmSymBB|Product Description: AutoCAD Mechanical 2004 DX|Company: Autodesk"
 90
        0
280
     0
281
     0
  0
CLASS
  1
CATALOGSTATE
  2
AcAmCatalogState
  3
DesignerAssemblies
 90
        0
280
     0
281
     0
  0
CLASS
  1
ACAMGRCOMPDEFSET
  2
AcAmGrCompDefSet
  3
DesignerAssemblies
 90
        0
280
     0
281
     0
  0
CLASS
  1
AMDTBROWSERDBTAB
  2
AmdtBrowserDbTab
  3
McadcomServices
 90
        0
280
     0
281
     0
  0
CLASS
  1
CBROWSERAPPOBJECT
  2
CBrowserAppObject
  3
McadcomServices
 90
        0
280
     0
281
     0
  0
CLASS
  1
DM_PLACEHOLDER
  2
AcDmSelsetPlaceholder
  3
AcMechDwgViewMgmt
 90
        0
280
     0
281
     0
  0
CLASS
  1
ACMSTANDARDANSI
  2
AcmStandardANSI
  3
"Amdt_StdImp|Product Description: AutoCAD Mechanical 2004 DX|Company: Autodesk"
 90
        0
280
     0
281
     0
  0
CLASS
  1
AMGOBJPROPCFG
  2
AmgObjPropCfg
  3
"AmgLay|Product Description: AutoCAD Mechanical 2000|Company: Autodesk"
 90
        1
280
     0
281
     0
  0
CLASS
  1
ACMSURFSTANDARDANSI
  2
AcmSurfTextStdANSI
  3
"Amdt_StdImp|Product Description: AutoCAD Mechanical 2004 DX|Company: Autodesk"
 90
        0
280
     0
281
     0
  0
CLASS
  1
ACMFCFSTANDARDANSI
  2
AcmFCFStdANSI
  3
"Amdt_StdImp|Product Description: AutoCAD Mechanical 2004 DX|Company: Autodesk"
 90
        0
280
     0
281
     0
  0
CLASS
  1
ACMWELDSTANDARDANSI
  2
AcmWeldingStdANSI
  3
"Amdt_StdImp|Product Description: AutoCAD Mechanical 2004 DX|Company: Autodesk"
 90
        0
280
     0
281
     0
  0
CLASS
  1
ACMIDSTANDARDANSI
  2
AcmIdStdANSI
  3
"Amdt_StdImp|Product Description: AutoCAD Mechanical 2004 DX|Company: Autodesk"
 90
        0
280
     0
281
     0
  0
CLASS
  1
ACMDATUMSTANDARDANSI
  2
AcmDatumStdANSI
  3
"Amdt_StdImp|Product Description: AutoCAD Mechanical 2004 DX|Company: Autodesk"
 90
        0
280
     0
281
     0
  0
CLASS
  1
ACMBOMSTANDARDANSI
  2
AcmBOMStdANSI
  3
"Amdt_StdImp|Product Description: AutoCAD Mechanical 2004 DX|Company: Autodesk"
 90
        0
280
     0
281
     0
  0
CLASS
  1
ACMDETAILSTANDARDANSI
  2
AmdtDetailSymStdANSI
  3
"Amdt_StdImp|Product Description: AutoCAD Mechanical 2004 DX|Company: Autodesk"
 90
        0
280
     0
281
     0
  0
CLASS
  1
ACMSECTIONSTANDARDANSI
  2
AmdtSectionSymStdANSI
  3
"Amdt_StdImp|Product Description: AutoCAD Mechanical 2004 DX|Company: Autodesk"
 90
        0
280
     0
281
     0
  0
CLASS
  1
ACMCENTERLINESTANDARDANSI
  2
AmdtCenterLineStdANSI
  3
"Amdt_StdImp|Product Description: AutoCAD Mechanical 2004 DX|Company: Autodesk"
 90
        0
280
     0
281
     0
  0
CLASS
  1
ACMTHREADLINESTANDARDANSI
  2
AmdtThreadLineStdANSI
  3
"Amdt_StdImp|Product Description: AutoCAD Mechanical 2004 DX|Company: Autodesk"
 90
        0
280
     0
281
     0
  0
CLASS
  1
ACMNOTESTANDARDANSI
  2
AmdtNoteStdANSI
  3
"Amdt_StdImp|Product Description: AutoCAD Mechanical 2004 DX|Company: Autodesk"
 90
        0
280
     0
281
     0
  0
CLASS
  1
AMDTNOTETEMPLATEDB
  2
AmdtNoteTemplateDB
  3
AMDT_STDIMP_MODULE_NAME
 90
        0
280
     0
281
     0
  0
CLASS
  1
ACAMGLAYSTD
  2
AcAmgLayStd
  3
"AcAmgLayStd|Product Description: AutoCAD Mechanical 2000|Company: Autodesk"
 90
        0
280
     0
281
     0
  0
CLASS
  1
ACAMGDIMSTD
  2
AcAmgDimStd
  3
"AcAmgDimStd|Product Description: AutoCAD Mechanical 2000|Company: Autodesk"
 90
        0
280
     0
281
     0
  0
CLASS
  1
ACAMGHOLECHARTSTDANSI
  2
AcAmgHoleChartStdANSI
  3
ACMSYMBB_MODULE_NAME
 90
        0
280
     0
281
     0
  0
CLASS
  1
ACAMGTITLESTD
  2
AcAmgTitleStd
  3
"TITLEAPP"
 90
        0
280
     0
281
     0
  0
CLASS
  1
ACAMGFILTERDAT
  2
AcAmgFilterDat
  3
"AcadM|Product Description: AutoCAD Mechanical 2000|Company: Autodesk"
 90
        0
280
     0
281
     0
  0
CLASS
  1
ACMSTANDARDISO
  2
AcmStandardISO
  3
"Amdt_StdImp|Product Description: AutoCAD Mechanical 2004 DX|Company: Autodesk"
 90
        0
280
     0
281
     0
  0
CLASS
  1
AMDTEDGESTANDARDISO13715
  2
AmdtEdgeStdISO13715
  3
"Amdt_StdImp|Product Description: AutoCAD Mechanical 2004 DX|Company: Autodesk"
 90
        0
280
     0
281
     0
  0
CLASS
  1
ACMSURFSTANDARDISO
  2
AcmSurfTextStdISO
  3
"Amdt_StdImp|Product Description: AutoCAD Mechanical 2004 DX|Company: Autodesk"
 90
        0
280
     0
281
     0
  0
CLASS
  1
ACMFCFSTANDARDISO
  2
AcmFCFStdISO
  3
"Amdt_StdImp|Product Description: AutoCAD Mechanical 2004 DX|Company: Autodesk"
 90
        0
280
     0
281
     0
  0
CLASS
  1
ACMWELDSTANDARDISO
  2
AcmWeldingStdISO
  3
"Amdt_StdImp|Product Description: AutoCAD Mechanical 2004 DX|Company: Autodesk"
 90
        0
280
     0
281
     0
  0
CLASS
  1
ACMIDSTANDARDISO
  2
AcmIdStdISO
  3
"Amdt_StdImp|Product Description: AutoCAD Mechanical 2004 DX|Company: Autodesk"
 90
        0
280
     0
281
     0
  0
CLASS
  1
ACMDATUMSTANDARDISO
  2
AcmDatumStdISO
  3
"Amdt_StdImp|Product Description: AutoCAD Mechanical 2004 DX|Company: Autodesk"
 90
        0
280
     0
281
     0
  0
CLASS
  1
ACMBOMSTANDARDISO
  2
AcmBOMStdISO
  3
"Amdt_StdImp|Product Description: AutoCAD Mechanical 2004 DX|Company: Autodesk"
 90
        0
280
     0
281
     0
  0
CLASS
  1
ACMDETAILSTANDARDISO
  2
AmdtDetailSymStdISO
  3
"Amdt_StdImp|Product Description: AutoCAD Mechanical 2004 DX|Company: Autodesk"
 90
        0
280
     0
281
     0
  0
CLASS
  1
ACMSECTIONSTANDARDISO
  2
AmdtSectionSymStdISO
  3
"Amdt_StdImp|Product Description: AutoCAD Mechanical 2004 DX|Company: Autodesk"
 90
        0
280
     0
281
     0
  0
CLASS
  1
ACMCENTERLINESTANDARDISO
  2
AmdtCenterLineStdISO
  3
"Amdt_StdImp|Product Description: AutoCAD Mechanical 2004 DX|Company: Autodesk"
 90
        0
280
     0
281
     0
  0
CLASS
  1
ACMTHREADLINESTANDARDISO
  2
AmdtThreadLineStdISO
  3
"Amdt_StdImp|Product Description: AutoCAD Mechanical 2004 DX|Company: Autodesk"
 90
        0
280
     0
281
     0
  0
CLASS
  1
ACMNOTESTANDARDISO
  2
AmdtNoteStdISO
  3
"Amdt_StdImp|Product Description: AutoCAD Mechanical 2004 DX|Company: Autodesk"
 90
        0
280
     0
281
     0
  0
CLASS
  1
ACAMGHOLECHARTSTDISO
  2
AcAmgHoleChartStdISO
  3
ACMSYMBB_MODULE_NAME
 90
        0
280
     0
281
     0
  0
CLASS
  1
ACMDIMBREAKPERSREACTOR
  2
AcmDimBreakPersReactor
  3
amgDimApp().moduleName()
 90
    33791
280
     0
281
     0
  0
ENDSEC
  0
SECTION
  2
TABLES
  0
TABLE
  2
VPORT
  5
7
330
0
100
AcDbSymbolTable
 70
   504
  0
VPORT
  5
581A
330
7
100
AcDbSymbolTableRecord
100
AcDbViewportTableRecord
  2
*Active
 70
     0
 10
0.0
 20
0.0
 11
1.0
 21
1.0
 12
30.58116988332972
 22
-9.697016007183151
 13
0.0
 23
0.0
 14
2.5
 24
2.5
 15
10.0
 25
10.0
 16
0.0
 26
0.0
 36
1.0
 17
662.4499101411736
 27
406.2075537970023
 37
0.0
 40
469.4012410036469
 41
0.9815602836879431
 42
50.0
 43
0.0
 44
0.0
 50
0.0
 51
0.0
 71
     0
 72
  2000
 73
     1
 74
     1
 75
     0
 76
     0
 77
     0
 78
     0
281
     0
 65
     0
110
0.0
120
0.0
130
0.0
111
1.0
121
0.0
131
0.0
112
0.0
122
1.0
132
0.0
 79
     0
146
0.0
  0
ENDTAB
  0
TABLE
  2
LTYPE
  5
4
330
0
100
AcDbSymbolTable
 70
    21
  0
LTYPE
  5
11
330
4
100
AcDbSymbolTableRecord
100
AcDbLinetypeTableRecord
  2
BYBLOCK
 70
     0
  3

 72
    65
 73
     0
 40
0.0
  0
LTYPE
  5
12
330
4
100
AcDbSymbolTableRecord
100
AcDbLinetypeTableRecord
  2
BYLAYER
 70
     0
  3

 72
    65
 73
     0
 40
0.0
  0
LTYPE
  5
13
330
4
100
AcDbSymbolTableRecord
100
AcDbLinetypeTableRecord
  2
CONTINUOUS
 70
     0
  3
Solid line
 72
    65
 73
     0
 40
0.0
  0
LTYPE
  5
27
330
4
100
AcDbSymbolTableRecord
100
AcDbLinetypeTableRecord
  2
CENTER
 70
     0
  3
Center ____ _ ____ _ ____ _ ____ _ ____ _ ____
 72
    65
 73
     4
 40
10.16
 49
6.349999999999997
 74
     0
 49
-1.27
 74
     0
 49
1.27
 74
     0
 49
-1.27
 74
     0
  0
LTYPE
  5
F09
330
4
100
AcDbSymbolTableRecord
100
AcDbLinetypeTableRecord
  2
HIDDEN
 70
     0
  3
Hidden __ __ __ __ __ __ __ __ __ __ __ __ __ _
 72
    65
 73
     2
 40
0.375
 49
0.25
 74
     0
 49
-0.125
 74
     0
  0
LTYPE
  5
F0A
330
4
100
AcDbSymbolTableRecord
100
AcDbLinetypeTableRecord
  2
PHANTOM2
 70
     0
  3
Phantom (.5x) ___ _ _ ___ _ _ ___ _ _ ___ _ _
 72
    65
 73
     6
 40
1.25
 49
0.625
 74
     0
 49
-0.125
 74
     0
 49
0.125
 74
     0
 49
-0.125
 74
     0
 49
0.125
 74
     0
 49
-0.125
 74
     0
  0
LTYPE
  5
FA1
330
4
100
AcDbSymbolTableRecord
100
AcDbLinetypeTableRecord
  2
AM_ISO02W050
 70
     0
  3
__ __ __ __ __ __ __ __ __ __ __ __ __ __ __
 72
    65
 73
     2
 40
7.5
 49
6.0
 74
     0
 49
-1.5
 74
     0
  0
LTYPE
  5
FA2
330
4
100
AcDbSymbolTableRecord
100
AcDbLinetypeTableRecord
  2
AM_ISO08W050
 70
     0
  3
____ . ____ . ____ . ____ . ____ . ____ . ____
 72
    65
 73
     4
 40
18.0
 49
12.0
 74
     0
 49
-1.5
 74
     0
 49
3.0
 74
     0
 49
-1.5
 74
     0
  0
LTYPE
  5
FA3
330
4
100
AcDbSymbolTableRecord
100
AcDbLinetypeTableRecord
  2
AM_ISO09W050
 70
     0
  3
_____ . . _____ . . _____ . . ____ .. ____
 72
    65
 73
     6
 40
22.5
 49
12.0
 74
     0
 49
-1.5
 74
     0
 49
3.0
 74
     0
 49
-1.5
 74
     0
 49
3.0
 74
     0
 49
-1.5
 74
     0
  0
LTYPE
  5
FA4
330
4
100
AcDbSymbolTableRecord
100
AcDbLinetypeTableRecord
  2
Amconstr
 70
     0
  3
_______________________
 72
    65
 73
     2
 40
9999.0
 49
9999.0
 74
     0
 49
0.0
 74
     0
  0
LTYPE
  5
FA5
330
4
100
AcDbSymbolTableRecord
100
AcDbLinetypeTableRecord
  2
AM_ISO08W050x2
 70
     0
  3
__ . __ . __ . __ . __ . __
 72
    65
 73
     4
 40
9.0
 49
6.0
 74
     0
 49
-0.75
 74
     0
 49
1.5
 74
     0
 49
-0.75
 74
     0
  0
LTYPE
  5
FA6
330
4
100
AcDbSymbolTableRecord
100
AcDbLinetypeTableRecord
  2
AM_ISO02W050x2
 70
     0
  3
 _ _ _ _ _ _ _ _ _ _ _ _
 72
    65
 73
     2
 40
3.75
 49
3.0
 74
     0
 49
-0.75
 74
     0
  0
LTYPE
  5
FA9
330
4
100
AcDbSymbolTableRecord
100
AcDbLinetypeTableRecord
  2
Amzigzag
 70
     0
  3
/\/-/\/-/\/-/\/-/\/-/\/
 72
    65
 73
     2
 40
11.0001
 49
0.0001
 74
     4
 75
   135
340
FA8
 46
0.04
 50
0.0
 44
0.0
 45
0.0
 49
-11.0
 74
     0
  0
LTYPE
  5
FAA
330
4
100
AcDbSymbolTableRecord
100
AcDbLinetypeTableRecord
  2
CENTER2
 70
     0
  3
Center (.5x) ___ _ ___ _ ___ _ ___ _ ___ _ ___
 72
    65
 73
     4
 40
1.125
 49
0.75
 74
     0
 49
-0.125
 74
     0
 49
0.125
 74
     0
 49
-0.125
 74
     0
  0
LTYPE
  5
FAB
330
4
100
AcDbSymbolTableRecord
100
AcDbLinetypeTableRecord
  2
HIDDEN2
 70
     0
  3
Hidden (.5x) _ _ _ _ _ _ _ _ _ _ _ _ _ _ _ _ _
 72
    65
 73
     2
 40
0.1875
 49
0.125
 74
     0
 49
-0.0625
 74
     0
  0
LTYPE
  5
FAC
330
4
100
AcDbSymbolTableRecord
100
AcDbLinetypeTableRecord
  2
Amzigzag2
 70
     0
  3
/\/-/\/-/\/-/\/-/\/-/\/
 72
    65
 73
     2
 40
0.4401
 49
0.0001
 74
     4
 75
   135
340
FA8
 46
0.0016
 50
0.0
 44
0.0
 45
0.0
 49
-0.4400000000000001
 74
     0
  0
LTYPE
  5
FBA
330
4
100
AcDbSymbolTableRecord
100
AcDbLinetypeTableRecord
  2
ACANSTGB
 70
     0
  3
__ . . __ . .
 72
    65
 73
     6
 40
0.35433070866
 49
0.15748031496
 74
     0
 49
-0.03937007874
 74
     0
 49
0.03937007874
 74
     0
 49
-0.03937007874
 74
     0
 49
0.03937007874
 74
     0
 49
-0.03937007874
 74
     0
  0
LTYPE
  5
FBB
330
4
100
AcDbSymbolTableRecord
100
AcDbLinetypeTableRecord
  2
ACANSTGL
 70
     0
  3
_ _ _ _ _
 72
    65
 73
     2
 40
0.11811023622
 49
0.07874015748
 74
     0
 49
-0.03937007874
 74
     0
  0
LTYPE
  5
10A3
330
4
100
AcDbSymbolTableRecord
100
AcDbLinetypeTableRecord
  2
ACISOWELD
 70
     0
  3
_ _ _ _ _
 72
    65
 73
     2
 40
2.0
 49
2.0
 74
     0
 49
-1.0
 74
     0
  0
LTYPE
  5
10A4
330
4
100
AcDbSymbolTableRecord
100
AcDbLinetypeTableRecord
  2
ACISOTGB
 70
     0
  3
__ . . __ . .
 72
    65
 73
     6
 40
9.0
 49
4.0
 74
     0
 49
-1.0
 74
     0
 49
1.0
 74
     0
 49
-1.0
 74
     0
 49
1.0
 74
     0
 49
-1.0
 74
     0
  0
LTYPE
  5
10A5
330
4
100
AcDbSymbolTableRecord
100
AcDbLinetypeTableRecord
  2
ACISOTGL
 70
     0
  3
_ _ _ _ _
 72
    65
 73
     2
 40
3.0
 49
2.0
 74
     0
 49
-1.0
 74
     0
  0
ENDTAB
  0
TABLE
  2
LAYER
  5
2
102
{ACAD_XDICTIONARY
360
1002
102
}
330
0
100
AcDbSymbolTable
 70
     7
  0
LAYER
  5
14
330
2
100
AcDbSymbolTableRecord
100
AcDbLayerTableRecord
  2
0
 70
     0
 62
     7
  6
CONTINUOUS
370
    -3
390
1D
  0
LAYER
  5
A05
330
2
100
AcDbSymbolTableRecord
100
AcDbLayerTableRecord
  2
CENTER
 70
     0
 62
     1
  6
CENTER
370
    -3
390
1D
  0
LAYER
  5
A16
330
2
100
AcDbSymbolTableRecord
100
AcDbLayerTableRecord
  2
DIM
 70
     0
 62
     4
  6
CONTINUOUS
370
    -3
390
1D
  0
LAYER
  5
D20
330
2
100
AcDbSymbolTableRecord
100
AcDbLayerTableRecord
  2
Defpoints
 70
     0
 62
     7
  6
CONTINUOUS
290
     0
370
    -3
390
1D
  0
LAYER
  5
FD9
330
2
100
AcDbSymbolTableRecord
100
AcDbLayerTableRecord
  2
AM_5
 70
     0
 62
     5
  6
CONTINUOUS
370
    50
390
1D
  0
LAYER
  5
1B6F
330
2
100
AcDbSymbolTableRecord
100
AcDbLayerTableRecord
  2
LOGO
 70
     0
 62
     7
  6
CONTINUOUS
370
    -3
390
1D
  0
ENDTAB
  0
TABLE
  2
STYLE
  5
3
330
0
100
AcDbSymbolTable
 70
     8
  0
STYLE
  5
17
330
3
100
AcDbSymbolTableRecord
100
AcDbTextStyleTableRecord
  2
STANDARD
 70
     0
 40
0.0
 41
1.0
 50
0.0
 71
     0
 42
3.5
  3
ISOCP.SHX
  4

  0
STYLE
  5
9F7
330
3
100
AcDbSymbolTableRecord
100
AcDbTextStyleTableRecord
  2
CHINA
 70
     0
 40
0.0
 41
1.0
 50
0.0
 71
     0
 42
2.5
  3
romans.shx
  4
chineset.shx
  0
STYLE
  5
FA8
330
3
100
AcDbSymbolTableRecord
100
AcDbTextStyleTableRecord
  2

 70
     1
 40
0.0
 41
1.0
 50
0.0
 71
     0
 42
0.2
  3
ltypeshp.shx
  4

  0
STYLE
  5
FAD
330
3
100
AcDbSymbolTableRecord
100
AcDbTextStyleTableRecord
  2
ACANSTS
 70
     0
 40
1.0
 41
1.0
 50
0.0
 71
     0
 42
0.2
  3
romans.shx
  4
chineset.shx
  0
STYLE
  5
FB9
330
3
100
AcDbSymbolTableRecord
100
AcDbTextStyleTableRecord
  2
ACANSGDT
 70
     0
 40
0.0
 41
1.0
 50
0.0
 71
     0
 42
0.2
  3
amgdtans.shx
  4

  0
STYLE
  5
1095
330
3
100
AcDbSymbolTableRecord
100
AcDbTextStyleTableRecord
  2
ACISOTS
 70
     0
 40
1.0
 41
1.0
 50
0.0
 71
     0
 42
0.2
  3
isocp.shx
  4
chineset.shx
  0
STYLE
  5
10A2
330
3
100
AcDbSymbolTableRecord
100
AcDbTextStyleTableRecord
  2
ACISOGDT
 70
     0
 40
0.0
 41
1.0
 50
0.0
 71
     0
 42
0.2
  3
amgdt.shx
  4

  0
STYLE
  5
1B70
330
3
100
AcDbSymbolTableRecord
100
AcDbTextStyleTableRecord
  2
CHINESET
 70
     0
 40
0.0
 41
0.75
 50
0.0
 71
     0
 42
3.0
  3
simplex.shx
  4
CHINESET.SHX
  0
ENDTAB
  0
TABLE
  2
VIEW
  5
5
330
0
100
AcDbSymbolTable
 70
     0
  0
ENDTAB
  0
TABLE
  2
UCS
  5
6
330
0
100
AcDbSymbolTable
 70
     0
  0
ENDTAB
  0
TABLE
  2
APPID
  5
8
330
0
100
AcDbSymbolTable
 70
    22
  0
APPID
  5
16
330
8
100
AcDbSymbolTableRecord
100
AcDbRegAppTableRecord
  2
ACAD
 70
     0
  0
APPID
  5
ED5
330
8
100
AcDbSymbolTableRecord
100
AcDbRegAppTableRecord
  2
GENIUS_GENDIM_13
 70
     0
  0
APPID
  5
ED6
330
8
100
AcDbSymbolTableRecord
100
AcDbRegAppTableRecord
  2
GENIUS_GENDTOL_13
 70
     0
  0
APPID
  5
ED7
330
8
100
AcDbSymbolTableRecord
100
AcDbRegAppTableRecord
  2
GENIUS_GE3DTOL_13
 70
     0
  0
APPID
  5
EDA
330
8
100
AcDbSymbolTableRecord
100
AcDbRegAppTableRecord
  2
MCAD_NO_VIS
 70
     0
  0
APPID
  5
EDB
330
8
100
AcDbSymbolTableRecord
100
AcDbRegAppTableRecord
  2
ACAD_TEMP_GRAPHIC
 70
     0
  0
APPID
  5
F0C
330
8
100
AcDbSymbolTableRecord
100
AcDbRegAppTableRecord
  2
AD_DRAW
 70
     0
  0
APPID
  5
F0F
330
8
100
AcDbSymbolTableRecord
100
AcDbRegAppTableRecord
  2
ACATTRIBSERVICES
 70
     0
  0
APPID
  5
F5B
330
8
100
AcDbSymbolTableRecord
100
AcDbRegAppTableRecord
  2
ASURF_PCURVE_APPNAME
 70
     0
  0
APPID
  5
F60
330
8
100
AcDbSymbolTableRecord
100
AcDbRegAppTableRecord
  2
AMG_3D2D_5.0
 70
     0
  0
APPID
  5
F8F
330
8
100
AcDbSymbolTableRecord
100
AcDbRegAppTableRecord
  2
DESIGNERASSEMBLIES
 70
     0
  0
APPID
  5
F96
330
8
100
AcDbSymbolTableRecord
100
AcDbRegAppTableRecord
  2
ACADM_DIM_EDIT
 70
     0
  0
APPID
  5
F97
330
8
100
AcDbSymbolTableRecord
100
AcDbRegAppTableRecord
  2
AMDT_DM_ADJ
 70
     0
  0
APPID
  5
1052
330
8
100
AcDbSymbolTableRecord
100
AcDbRegAppTableRecord
  2
GENIUS_GENDIMSH_14
 70
     0
  0
APPID
  5
108A
330
8
100
AcDbSymbolTableRecord
100
AcDbRegAppTableRecord
  2
ACAD_DSTYLE_DIMTEXT_FILL
 70
     0
  0
APPID
  5
1B72
330
8
100
AcDbSymbolTableRecord
100
AcDbRegAppTableRecord
  2
GENIUS_GENODEF_13
 70
     0
  0
APPID
  5
1B73
330
8
100
AcDbSymbolTableRecord
100
AcDbRegAppTableRecord
  2
GENIUS_GENOENT_13
 70
     0
  0
APPID
  5
1B74
330
8
100
AcDbSymbolTableRecord
100
AcDbRegAppTableRecord
  2
GENIUS_GENOBJ-N-CRS_13
 70
     0
  0
APPID
  5
1B75
330
8
100
AcDbSymbolTableRecord
100
AcDbRegAppTableRecord
  2
GENIUS_GENOLIS_13
 70
     0
  0
APPID
  5
1B76
330
8
100
AcDbSymbolTableRecord
100
AcDbRegAppTableRecord
  2
GENIUS_GENOREF_13
 70
     0
  0
APPID
  5
1B77
330
8
100
AcDbSymbolTableRecord
100
AcDbRegAppTableRecord
  2
GENIUS_GENREC_14
 70
     0
  0
APPID
  5
1B78
330
8
100
AcDbSymbolTableRecord
100
AcDbRegAppTableRecord
  2
GENIUS_GENOBJ-N-REC_13
 70
     0
  0
ENDTAB
  0
TABLE
  2
DIMSTYLE
  5
9
330
0
100
AcDbSymbolTable
 70
    18
100
AcDbDimStyleTable
 71
     2
340
10AE
340
9F8
  0
DIMSTYLE
105
18
330
9
100
AcDbSymbolTableRecord
100
AcDbDimStyleTableRecord
  2
STANDARD
 70
     0
340
17
  0
DIMSTYLE
105
9F8
330
9
100
AcDbSymbolTableRecord
100
AcDbDimStyleTableRecord
  2
ISO-25
 70
     0
 41
2.0
 42
1.0
 44
1.0
 73
     0
 74
     0
 77
     1
 78
     8
140
2.5
141
1.0
143
0.03937007874016
147
1.0
171
     3
172
     1
174
     1
176
   256
177
   256
178
   256
271
     2
272
     2
274
     3
283
     0
284
     8
340
9F7
  0
DIMSTYLE
105
FC4
330
9
100
AcDbSymbolTableRecord
100
AcDbDimStyleTableRecord
  2
AM_ANSI
 70
     0
  4
mm
 41
0.1
 42
0.05
 43
0.5
 44
0.1
 47
0.1
 48
0.1
 78
     7
 79
     2
140
0.12
141
0.0
146
0.71
147
0.06
176
   256
177
   256
178
     2
274
     4
284
     7
340
17
371
    -1
372
    -1
  0
DIMSTYLE
105
FC5
330
9
100
AcDbSymbolTableRecord
100
AcDbDimStyleTableRecord
  2
AM_ANSI$3
 70
     0
  4
mm
 41
0.1
 42
0.05
 43
0.5
 44
0.1
 47
0.1
 48
0.1
 78
     7
 79
     2
140
0.12
141
0.0
146
0.71
147
0.06
176
   256
177
   256
178
     2
274
     4
284
     7
288
     1
289
     0
340
17
371
    -1
372
    -1
  0
DIMSTYLE
105
FC6
330
9
100
AcDbSymbolTableRecord
100
AcDbDimStyleTableRecord
  2
AM_ANSI$4
 70
     0
  4
mm
 41
0.1
 42
0.05
 43
0.5
 44
0.1
 47
0.1
 48
0.1
 78
     7
 79
     2
140
0.12
141
0.0
146
0.71
147
0.06
176
   256
177
   256
178
     2
274
     4
284
     7
288
     1
289
     0
340
17
371
    -1
372
    -1
  0
DIMSTYLE
105
FC7
330
9
100
AcDbSymbolTableRecord
100
AcDbDimStyleTableRecord
  2
AM_ANSI$7
 70
     0
  4
mm
 41
0.1
 42
0.05
 43
0.5
 44
0.1
 47
0.1
 48
0.1
 78
     7
 79
     2
140
0.24
141
0.0
146
0.71
147
0.06
176
   256
177
   256
178
     2
274
     4
284
     7
340
17
371
    -1
372
    -1
  0
DIMSTYLE
105
FC8
330
9
100
AcDbSymbolTableRecord
100
AcDbDimStyleTableRecord
  2
AM_ANSI$SF
 70
     0
  4
mm
 41
0.1
 42
0.05
 43
0.5
 44
0.1
 47
0.1
 48
0.1
 75
     1
 76
     1
 78
     7
 79
     2
140
0.12
141
0.0
146
0.71
147
0.06
176
   256
177
   256
178
     2
274
     4
284
     7
340
17
371
    -1
372
    -1
  0
DIMSTYLE
105
FCD
330
9
100
AcDbSymbolTableRecord
100
AcDbDimStyleTableRecord
  2
AM_ANSI$SH
 70
     0
  4
mm
 41
0.1
 42
0.05
 43
0.5
 44
0.1
 47
0.1
 48
0.1
 75
     1
 76
     1
 78
     7
 79
     2
140
0.12
141
0.0
146
0.71
147
0.06
173
     1
176
   256
177
   256
178
     2
274
     4
284
     7
340
17
343
FC9
371
    -1
372
    -1
  0
DIMSTYLE
105
FE5
330
9
100
AcDbSymbolTableRecord
100
AcDbDimStyleTableRecord
  2
ISO-25$0
 70
     0
 41
2.0
 42
1.0
 44
1.0
 73
     0
 74
     0
 77
     1
 78
     8
140
2.5
141
1.0
143
0.03937007874016
147
1.0
171
     3
172
     1
174
     1
176
   256
177
   256
178
   256
271
     2
272
     2
274
     3
283
     0
284
     8
340
9F7
  0
DIMSTYLE
105
10AE
330
9
100
AcDbSymbolTableRecord
100
AcDbDimStyleTableRecord
  2
AM_ISO
 70
     0
  4
"
 41
3.0
 42
1.0
 43
6.5
 44
1.0
 47
0.1
 48
0.1
 73
     0
 74
     0
 77
     1
 78
     8
 79
     2
140
3.5
141
0.0
143
0.0393701
146
0.71
147
1.0
172
     1
176
   256
177
   256
178
   256
271
     2
272
     2
283
     0
284
     8
340
17
371
    -1
372
    -1
  0
DIMSTYLE
105
10AF
102
{ACAD_REACTORS
330
511B
330
519C
330
55AB
330
5641
330
567E
102
}
330
9
100
AcDbSymbolTableRecord
100
AcDbDimStyleTableRecord
  2
AM_ISO$3
 70
     0
  4
"
 41
3.0
 42
1.0
 43
6.5
 44
1.0
 47
0.1
 48
0.1
 73
     0
 77
     1
 78
     8
 79
     2
140
3.5
141
0.0
143
0.0393701
146
0.71
147
1.0
176
   256
177
   256
178
   256
271
     2
272
     2
283
     0
284
     8
288
     1
289
     0
340
17
371
    -1
372
    -1
  0
DIMSTYLE
105
10B0
102
{ACAD_REACTORS
330
515E
102
}
330
9
100
AcDbSymbolTableRecord
100
AcDbDimStyleTableRecord
  2
AM_ISO$4
 70
     0
  4
"
 41
3.0
 42
1.0
 43
6.5
 44
1.0
 47
0.1
 48
0.1
 73
     0
 77
     1
 78
     8
 79
     2
140
3.5
141
0.0
143
0.0393701
146
0.71
147
1.0
176
   256
177
   256
178
   256
271
     2
272
     2
283
     0
284
     8
288
     1
289
     0
340
17
371
    -1
372
    -1
  0
DIMSTYLE
105
10B1
330
9
100
AcDbSymbolTableRecord
100
AcDbDimStyleTableRecord
  2
AM_ISO$6
 70
     0
  4
"
 41
3.0
 42
1.0
 43
6.5
 44
1.0
 47
0.1
 48
0.1
 73
     0
 74
     0
 78
     8
 79
     2
140
3.5
141
0.0
143
0.0393701
146
0.71
147
1.0
172
     1
176
   256
177
   256
178
   256
271
     2
272
     2
283
     0
284
     8
340
17
371
    -1
372
    -1
  0
DIMSTYLE
105
10B2
102
{ACAD_REACTORS
330
28D6
330
3FEB
102
}
330
9
100
AcDbSymbolTableRecord
100
AcDbDimStyleTableRecord
  2
AM_ISO$7
 70
     0
  4
"
 41
3.0
 42
1.0
 43
6.5
 44
1.0
 47
0.1
 48
0.1
 73
     0
 74
     0
 77
     1
 78
     8
 79
     2
140
5.0
141
0.0
143
0.0393701
146
0.71
147
1.0
172
     1
176
   256
177
   256
178
   256
271
     2
272
     2
283
     0
284
     8
340
17
371
    -1
372
    -1
  0
DIMSTYLE
105
10B3
330
9
100
AcDbSymbolTableRecord
100
AcDbDimStyleTableRecord
  2
AM_ISO$SF
 70
     0
  4
"
 41
2.5
 42
1.0
 43
10.0
 44
1.0
 47
0.1
 48
0.1
 73
     0
 74
     0
 75
     1
 76
     1
 77
     1
 78
     8
 79
     2
140
3.5
141
0.0
143
0.0393701
146
0.71
147
1.5
172
     1
176
   256
177
   256
178
     2
271
     2
272
     3
274
     4
283
     0
284
     8
340
17
371
    -1
372
    -1
  0
DIMSTYLE
105
10B4
330
9
100
AcDbSymbolTableRecord
100
AcDbDimStyleTableRecord
  2
AM_ISO$SH
 70
     0
  4
"
 41
2.5
 42
1.0
 43
10.0
 44
1.0
 47
0.1
 48
0.1
 73
     0
 74
     0
 75
     1
 76
     1
 77
     1
 78
     8
 79
     2
140
3.5
141
0.0
143
0.0393701
144
2.0
146
0.71
147
1.5
172
     1
173
     1
176
   256
177
   256
178
     2
271
     2
272
     3
274
     4
283
     0
284
     8
340
17
343
FC9
371
    -1
372
    -1
  0
DIMSTYLE
105
1182
102
{ACAD_REACTORS
330
4FDC
330
500E
330
502A
330
5052
330
51DC
330
51FF
330
5234
330
52B9
330
5311
330
5342
330
5372
330
53C5
330
53ED
330
5445
330
5471
330
54B6
330
54E2
330
550E
330
5536
330
5605
330
56B6
330
56DA
102
}
330
9
100
AcDbSymbolTableRecord
100
AcDbDimStyleTableRecord
  2
AM_ISO$0
 70
     0
  4
"
 41
3.0
 42
1.0
 43
6.5
 44
1.0
 47
0.1
 48
0.1
 73
     0
 74
     0
 77
     1
 78
     8
 79
     2
140
3.5
141
0.0
143
0.0393701
146
0.71
147
1.0
172
     1
176
   256
177
   256
178
   256
271
     2
272
     2
283
     0
284
     8
340
17
371
    -1
372
    -1
  0
DIMSTYLE
105
2CDA
102
{ACAD_REACTORS
330
4F0F
330
4F10
330
4F11
102
}
330
9
100
AcDbSymbolTableRecord
100
AcDbDimStyleTableRecord
  2
AM_ISO$2
 70
     0
  4
"
 41
3.0
 42
1.0
 43
6.5
 44
1.0
 47
0.1
 48
0.1
 73
     0
 74
     0
 77
     1
 78
     8
 79
     2
140
3.5
141
0.0
143
0.0393701
146
0.71
147
1.0
172
     1
176
   256
177
   256
178
   256
271
     2
272
     2
283
     0
284
     8
340
17
371
    -1
372
    -1
  0
ENDTAB
  0
TABLE
  2
BLOCK_RECORD
  5
1
330
0
100
AcDbSymbolTable
 70
    71
  0
BLOCK_RECORD
  5
A
102
{ACAD_XDICTIONARY
360
9C9
102
}
330
1
100
AcDbSymbolTableRecord
100
AcDbBlockTableRecord
  2
*MODEL_SPACE
340
A68
  0
BLOCK_RECORD
  5
B
102
{ACAD_XDICTIONARY
360
9CB
102
}
330
1
100
AcDbSymbolTableRecord
100
AcDbBlockTableRecord
  2
*PAPER_SPACE
340
A69
  0
BLOCK_RECORD
  5
FC9
330
1
100
AcDbSymbolTableRecord
100
AcDbBlockTableRecord
  2
GENAXEH
340
0
  0
BLOCK_RECORD
  5
4F12
330
1
100
AcDbSymbolTableRecord
100
AcDbBlockTableRecord
  2
*D36
340
0
  0
BLOCK_RECORD
  5
4F20
330
1
100
AcDbSymbolTableRecord
100
AcDbBlockTableRecord
  2
*D37
340
0
  0
BLOCK_RECORD
  5
4F2E
330
1
100
AcDbSymbolTableRecord
100
AcDbBlockTableRecord
  2
*D38
340
0
  0
BLOCK_RECORD
  5
4FDD
330
1
100
AcDbSymbolTableRecord
100
AcDbBlockTableRecord
  2
*D39
340
0
  0
BLOCK_RECORD
  5
500F
330
1
100
AcDbSymbolTableRecord
100
AcDbBlockTableRecord
  2
*D40
340
0
  0
BLOCK_RECORD
  5
502B
330
1
100
AcDbSymbolTableRecord
100
AcDbBlockTableRecord
  2
*D41
340
0
  0
BLOCK_RECORD
  5
5053
330
1
100
AcDbSymbolTableRecord
100
AcDbBlockTableRecord
  2
*D42
340
0
  0
BLOCK_RECORD
  5
511C
330
1
100
AcDbSymbolTableRecord
100
AcDbBlockTableRecord
  2
*D44
340
0
  0
BLOCK_RECORD
  5
515F
330
1
100
AcDbSymbolTableRecord
100
AcDbBlockTableRecord
  2
*D45
340
0
  0
BLOCK_RECORD
  5
519D
330
1
100
AcDbSymbolTableRecord
100
AcDbBlockTableRecord
  2
*D46
340
0
  0
BLOCK_RECORD
  5
51DD
330
1
100
AcDbSymbolTableRecord
100
AcDbBlockTableRecord
  2
*D47
340
0
  0
BLOCK_RECORD
  5
5200
330
1
100
AcDbSymbolTableRecord
100
AcDbBlockTableRecord
  2
*D48
340
0
  0
BLOCK_RECORD
  5
5235
330
1
100
AcDbSymbolTableRecord
100
AcDbBlockTableRecord
  2
*D49
340
0
  0
BLOCK_RECORD
  5
52BA
330
1
100
AcDbSymbolTableRecord
100
AcDbBlockTableRecord
  2
*D50
340
0
  0
BLOCK_RECORD
  5
5312
330
1
100
AcDbSymbolTableRecord
100
AcDbBlockTableRecord
  2
*D51
340
0
  0
BLOCK_RECORD
  5
5343
330
1
100
AcDbSymbolTableRecord
100
AcDbBlockTableRecord
  2
*D52
340
0
  0
BLOCK_RECORD
  5
5373
330
1
100
AcDbSymbolTableRecord
100
AcDbBlockTableRecord
  2
*D53
340
0
  0
BLOCK_RECORD
  5
538C
330
1
100
AcDbSymbolTableRecord
100
AcDbBlockTableRecord
  2
GENDOT
340
0
102
{BLKREFS
331
5784
331
578E
102
}
  0
BLOCK_RECORD
  5
53C6
330
1
100
AcDbSymbolTableRecord
100
AcDbBlockTableRecord
  2
*D55
340
0
  0
BLOCK_RECORD
  5
53EE
330
1
100
AcDbSymbolTableRecord
100
AcDbBlockTableRecord
  2
*D56
340
0
  0
BLOCK_RECORD
  5
5446
330
1
100
AcDbSymbolTableRecord
100
AcDbBlockTableRecord
  2
*D57
340
0
  0
BLOCK_RECORD
  5
5472
330
1
100
AcDbSymbolTableRecord
100
AcDbBlockTableRecord
  2
*D58
340
0
  0
BLOCK_RECORD
  5
54B7
330
1
100
AcDbSymbolTableRecord
100
AcDbBlockTableRecord
  2
*D59
340
0
  0
BLOCK_RECORD
  5
54E3
330
1
100
AcDbSymbolTableRecord
100
AcDbBlockTableRecord
  2
*D60
340
0
  0
BLOCK_RECORD
  5
550F
330
1
100
AcDbSymbolTableRecord
100
AcDbBlockTableRecord
  2
*D61
340
0
  0
BLOCK_RECORD
  5
5537
330
1
100
AcDbSymbolTableRecord
100
AcDbBlockTableRecord
  2
*D62
340
0
  0
BLOCK_RECORD
  5
55AC
330
1
100
AcDbSymbolTableRecord
100
AcDbBlockTableRecord
  2
*D63
340
0
  0
BLOCK_RECORD
  5
5606
330
1
100
AcDbSymbolTableRecord
100
AcDbBlockTableRecord
  2
*D64
340
0
  0
BLOCK_RECORD
  5
5642
330
1
100
AcDbSymbolTableRecord
100
AcDbBlockTableRecord
  2
*D66
340
0
  0
BLOCK_RECORD
  5
567F
330
1
100
AcDbSymbolTableRecord
100
AcDbBlockTableRecord
  2
*D68
340
0
  0
BLOCK_RECORD
  5
56B7
330
1
100
AcDbSymbolTableRecord
100
AcDbBlockTableRecord
  2
*D69
340
0
  0
BLOCK_RECORD
  5
56DB
330
1
100
AcDbSymbolTableRecord
100
AcDbBlockTableRecord
  2
*D70
340
0
  0
ENDTAB
  0
ENDSEC
  0
SECTION
  2
BLOCKS
  0
BLOCK
  5
D
330
A
100
AcDbEntity
  8
0
100
AcDbBlockBegin
  2
*MODEL_SPACE
 70
     0
 71
     1
 10
0.0
 20
0.0
 30
0.0
  3
*MODEL_SPACE
  1

  0
ENDBLK
  5
E
330
A
100
AcDbEntity
  8
0
100
AcDbBlockEnd
  0
BLOCK
  5
F
330
B
100
AcDbEntity
 67
     1
  8
0
100
AcDbBlockBegin
  2
*PAPER_SPACE
 70
     0
 71
     1
 10
0.0
 20
0.0
 30
0.0
  3
*PAPER_SPACE
  1

  0
ENDBLK
  5
10
330
B
100
AcDbEntity
 67
     1
  8
0
100
AcDbBlockEnd
  0
BLOCK
  5
FCB
330
FC9
100
AcDbEntity
  8
0
370
     0
100
AcDbBlockBegin
  2
GENAXEH
 70
     0
 10
0.0
 20
0.0
 30
0.0
  3
GENAXEH
  1

  0
LINE
  5
FCA
330
FC9
100
AcDbEntity
  8
0
100
AcDbLine
 10
-1.0
 20
0.0
 30
0.0
 11
1.0
 21
0.0
 31
0.0
  0
ENDBLK
  5
FCC
330
FC9
100
AcDbEntity
  8
0
370
     0
100
AcDbBlockEnd
  0
BLOCK
  5
4F1E
330
4F12
100
AcDbEntity
  8
0
370
     0
100
AcDbBlockBegin
  2
*D36
 70
     1
 10
0.0
 20
0.0
 30
0.0
  3
*D36
  1

  0
LINE
  5
56F3
330
4F12
100
AcDbEntity
  8
AM_5
100
AcDbLine
 10
833.368934081094
 20
385.0445511935792
 30
0.0
 11
837.4731758010018
 21
396.3208626430102
 31
0.0
  0
LINE
  5
56F4
330
4F12
100
AcDbEntity
  8
AM_5
100
AcDbLine
 10
823.2052467079837
 20
386.6432215999775
 30
0.0
 11
823.2052467079837
 21
398.8366835009446
 31
0.0
  0
ARC
  5
56F5
330
4F12
100
AcDbEntity
  8
AM_5
100
AcDbCircle
 10
823.2052467079839
 20
357.1200496375626
 30
0.0
 40
40.716633863382
100
AcDbArc
 50
74.22250629419233
 51
85.77749370580809
  0
SOLID
  5
56F6
330
4F12
100
AcDbEntity
  8
AM_5
370
     0
100
AcDbTrace
 10
834.4297762597014
 20
396.7785065415342
 30
0.0
 11
834.1226065452211
 21
395.8268517897959
 31
0.0
 12
837.1311556576761
 22
395.3811700222244
 32
0.0
 13
837.1311556576761
 23
395.3811700222244
 33
0.0
  0
SOLID
  5
56F7
330
4F12
100
AcDbEntity
  8
AM_5
370
     0
100
AcDbTrace
 10
826.1847902502521
 20
397.2265029705062
 30
0.0
 11
826.2216302308123
 21
398.2258241480224
 31
0.0
 12
823.2052467079839
 22
397.8366835009446
 32
0.0
 13
823.2052467079839
 23
397.8366835009446
 33
0.0
  0
MTEXT
  5
56F8
330
4F12
100
AcDbEntity
  8
AM_5
100
AcDbMText
 10
830.7532082874219
 20
399.9266669182034
 30
0.0
 40
3.5
 41
0.0
 71
     5
 72
     1
  1
20°
 11
0.9848077530122086
 21
-0.1736481776669284
 31
0.0
 73
     1
 44
1.0
1001
ACAD
1000
MTEXTBEGIN
1070
    73
1070
     1
1070
    44
1040
1.0
1070
    74
1070
     0
1000
MTEXTEND
  0
POINT
  5
56F9
330
4F12
100
AcDbEntity
  8
Defpoints
 62
     0
370
     0
100
AcDbPoint
 10
832.5951486800887
 20
396.7391613656033
 30
0.0
  0
POINT
  5
56FA
330
4F12
100
AcDbEntity
  8
Defpoints
 62
     0
370
     0
100
AcDbPoint
 10
823.2052467079839
 20
311.5686036863821
 30
0.0
  0
POINT
  5
56FB
330
4F12
100
AcDbEntity
  8
Defpoints
 62
     0
370
     0
100
AcDbPoint
 10
823.2052467079839
 20
357.1200496375627
 30
0.0
  0
POINT
  5
56FC
330
4F12
100
AcDbEntity
  8
Defpoints
 62
     0
370
     0
100
AcDbPoint
 10
833.0269139377683
 20
384.1048585727932
 30
0.0
  0
POINT
  5
56FD
330
4F12
100
AcDbEntity
  8
Defpoints
 62
     0
370
     0
100
AcDbPoint
 10
823.2052467079837
 20
385.6432215999776
 30
0.0
  0
ENDBLK
  5
4F1F
330
4F12
100
AcDbEntity
  8
0
370
     0
100
AcDbBlockEnd
  0
BLOCK
  5
4F2C
330
4F20
100
AcDbEntity
  8
0
370
     0
100
AcDbBlockBegin
  2
*D37
 70
     1
 10
0.0
 20
0.0
 30
0.0
  3
*D37
  1

  0
LINE
  5
56FE
330
4F20
100
AcDbEntity
  8
AM_5
100
AcDbLine
 10
823.2052467079837
 20
386.6432215999775
 30
0.0
 11
823.2052467079837
 21
398.8366835009444
 31
0.0
  0
LINE
  5
56FF
330
4F20
100
AcDbEntity
  8
AM_5
100
AcDbLine
 10
813.0415593348732
 20
385.0445511935792
 30
0.0
 11
808.9373176149649
 21
396.3208626430098
 31
0.0
  0
ARC
  5
5700
330
4F20
100
AcDbEntity
  8
AM_5
100
AcDbCircle
 10
823.2052467079837
 20
357.1200496375628
 30
0.0
 40
40.71663386338156
100
AcDbArc
 50
94.22250629419194
 51
105.7774937058089
  0
SOLID
  5
5701
330
4F20
100
AcDbEntity
  8
AM_5
370
     0
100
AcDbTrace
 10
820.188863185155
 20
398.2258241480222
 30
0.0
 11
820.2257031657152
 21
397.226502970506
 31
0.0
 12
823.2052467079839
 22
397.8366835009444
 32
0.0
 13
823.2052467079839
 23
397.8366835009444
 33
0.0
  0
SOLID
  5
5702
330
4F20
100
AcDbEntity
  8
AM_5
370
     0
100
AcDbTrace
 10
812.2878868707458
 20
395.8268517897955
 30
0.0
 11
811.9807171562653
 21
396.7785065415339
 31
0.0
 12
809.2793377582907
 22
395.381170022224
 32
0.0
 13
809.2793377582907
 23
395.381170022224
 33
0.0
  0
MTEXT
  5
5703
330
4F20
100
AcDbEntity
  8
AM_5
100
AcDbMText
 10
815.6572851285453
 20
399.9266669182033
 30
0.0
 40
3.5
 41
0.0
 71
     5
 72
     1
  1
20°
 11
0.984807753012207
 21
0.1736481776669367
 31
0.0
 73
     1
 44
1.0
1001
ACAD
1000
MTEXTBEGIN
1070
    73
1070
     1
1070
    44
1040
1.0
1070
    74
1070
     0
1000
MTEXTEND
  0
POINT
  5
5704
330
4F20
100
AcDbEntity
  8
Defpoints
 62
     0
370
     0
100
AcDbPoint
 10
818.4783340294137
 20
397.5613721888079
 30
0.0
  0
POINT
  5
5705
330
4F20
100
AcDbEntity
  8
Defpoints
 62
     0
370
     0
100
AcDbPoint
 10
823.2052467079839
 20
357.1200496375626
 30
0.0
  0
POINT
  5
5706
330
4F20
100
AcDbEntity
  8
Defpoints
 62
     0
370
     0
100
AcDbPoint
 10
823.2052467079837
 20
311.5686036863821
 30
0.0
  0
POINT
  5
5707
330
4F20
100
AcDbEntity
  8
Defpoints
 62
     0
370
     0
100
AcDbPoint
 10
823.2052467079839
 20
385.6432215999776
 30
0.0
  0
POINT
  5
5708
330
4F20
100
AcDbEntity
  8
Defpoints
 62
     0
370
     0
100
AcDbPoint
 10
813.3835794781989
 20
384.1048585727932
 30
0.0
  0
ENDBLK
  5
4F2D
330
4F20
100
AcDbEntity
  8
0
370
     0
100
AcDbBlockEnd
  0
BLOCK
  5
4F3A
330
4F2E
100
AcDbEntity
  8
0
370
     0
100
AcDbBlockBegin
  2
*D38
 70
     1
 10
0.0
 20
0.0
 30
0.0
  3
*D38
  1

  0
LINE
  5
5709
330
4F2E
100
AcDbEntity
  8
AM_5
100
AcDbLine
 10
823.2052467079839
 20
386.6432215999775
 30
0.0
 11
823.2052467079839
 21
405.3366835009446
 31
0.0
  0
LINE
  5
570A
330
4F2E
100
AcDbEntity
  8
AM_5
100
AcDbLine
 10
812.8727940341271
 20
382.0647970153677
 30
0.0
 11
804.7535397640551
 21
401.6664107905321
 31
0.0
  0
ARC
  5
570B
330
4F2E
100
AcDbEntity
  8
AM_5
100
AcDbCircle
 10
823.2052467079839
 20
357.1200496375628
 30
0.0
 40
47.21663386338164
100
AcDbArc
 50
93.64101059469144
 51
108.8589894053073
  0
SOLID
  5
570C
330
4F2E
100
AcDbEntity
  8
AM_5
370
     0
100
AcDbTrace
 10
820.1908767105193
 20
404.7411257321526
 30
0.0
 11
820.2226451759363
 21
403.7416304772339
 31
0.0
 12
823.2052467079839
 22
404.3366835009445
 32
0.0
 13
823.2052467079839
 23
404.3366835009445
 33
0.0
  0
SOLID
  5
570D
330
4F2E
100
AcDbEntity
  8
AM_5
370
     0
100
AcDbTrace
 10
808.1195046390686
 20
401.3341661403169
 30
0.0
 11
807.7663645992618
 21
402.2697366145653
 31
0.0
 12
805.1362231964201
 22
400.7425312580209
 32
0.0
 13
805.1362231964201
 23
400.7425312580209
 33
0.0
  0
MTEXT
  5
570E
330
4F2E
100
AcDbEntity
  8
AM_5
100
AcDbMText
 10
813.4571728112035
 20
406.1269265110102
 30
0.0
 40
3.5
 41
0.0
 71
     5
 72
     1
  1
22.5°
 11
0.9807852804032334
 21
0.1950903220161132
 31
0.0
 73
     1
 44
1.0
1001
ACAD
1000
MTEXTBEGIN
1070
    73
1070
     1
1070
    44
1040
1.0
1070
    74
1070
     0
1000
MTEXTEND
  0
POINT
  5
570F
330
4F2E
100
AcDbEntity
  8
Defpoints
 62
     0
370
     0
100
AcDbPoint
 10
817.0422392803486
 20
403.9327386527812
 30
0.0
  0
POINT
  5
5710
330
4F2E
100
AcDbEntity
  8
Defpoints
 62
     0
370
     0
100
AcDbPoint
 10
813.2554774664921
 20
381.1409174828564
 30
0.0
  0
POINT
  5
5711
330
4F2E
100
AcDbEntity
  8
Defpoints
 62
     0
370
     0
100
AcDbPoint
 10
823.2052467079839
 20
311.5686036863822
 30
0.0
  0
POINT
  5
5712
330
4F2E
100
AcDbEntity
  8
Defpoints
 62
     0
370
     0
100
AcDbPoint
 10
823.2052467079839
 20
385.6432215999775
 30
0.0
  0
POINT
  5
5713
330
4F2E
100
AcDbEntity
  8
Defpoints
 62
     0
370
     0
100
AcDbPoint
 10
823.2052467079839
 20
357.1200496375627
 30
0.0
  0
ENDBLK
  5
4F3B
330
4F2E
100
AcDbEntity
  8
0
370
     0
100
AcDbBlockEnd
  0
BLOCK
  5
4FE9
330
4FDD
100
AcDbEntity
  8
0
370
     0
100
AcDbBlockBegin
  2
*D39
 70
     1
 10
0.0
 20
0.0
 30
0.0
  3
*D39
  1

  0
LINE
  5
5714
330
4FDD
100
AcDbEntity
  8
AM_5
100
AcDbLine
 10
833.570528430242
 20
329.4829199961148
 30
0.0
 11
784.8643379388159
 21
309.3081553230447
 31
0.0
  0
LINE
  5
5715
330
4FDD
100
AcDbEntity
  8
AM_5
100
AcDbLine
 10
831.274427836052
 20
335.0261971911828
 30
0.0
 11
782.5682373446259
 21
314.8514325181127
 31
0.0
  0
LINE
  5
5716
330
4FDD
100
AcDbEntity
  8
AM_5
100
AcDbLine
 10
786.936267768422
 20
306.9192001578758
 30
0.0
 11
788.084318065517
 21
304.1475615603418
 31
0.0
  0
LINE
  5
5717
330
4FDD
100
AcDbEntity
  8
AM_5
100
AcDbLine
 10
782.3440665800421
 20
318.0057545480117
 30
0.0
 11
781.1960162829472
 21
320.7773931455457
 31
0.0
  0
LINE
  5
5718
330
4FDD
100
AcDbEntity
  8
AM_5
100
AcDbLine
 10
785.7882174713271
 20
309.6908387554098
 30
0.0
 11
783.4921168771371
 21
315.2341159504777
 31
0.0
  0
SOLID
  5
5719
330
4FDD
100
AcDbEntity
  8
AM_5
370
     0
100
AcDbTrace
 10
787.3982075346776
 20
307.1105418740582
 30
0.0
 11
786.4743280021664
 21
306.7278584416933
 31
0.0
 12
785.7882174713271
 22
309.6908387554098
 32
0.0
 13
785.7882174713271
 23
309.6908387554098
 33
0.0
  0
SOLID
  5
571A
330
4FDD
100
AcDbEntity
  8
AM_5
370
     0
100
AcDbTrace
 10
782.8060063462978
 20
318.1970962641941
 30
0.0
 11
781.8821268137866
 21
317.8144128318292
 31
0.0
 12
783.4921168771371
 22
315.2341159504777
 32
0.0
 13
783.4921168771371
 23
315.2341159504777
 33
0.0
  0
MTEXT
  5
571B
330
4FDD
100
AcDbEntity
  8
AM_5
100
AcDbMText
 10
787.1808358886384
 20
313.5148567919474
 30
0.0
 40
3.5
 41
0.0
 71
     5
 72
     1
  1
6
 11
0.3826834323649909
 21
-0.9238795325113276
 31
0.0
 73
     1
 44
1.0
1001
ACAD
1000
MTEXTBEGIN
1070
    73
1070
     1
1070
    44
1040
1.0
1070
    74
1070
     0
1000
MTEXTEND
  0
POINT
  5
571C
330
4FDD
100
AcDbEntity
  8
Defpoints
 62
     0
370
     0
100
AcDbPoint
 10
834.4944079627534
 20
329.8656034284799
 30
0.0
  0
POINT
  5
571D
330
4FDD
100
AcDbEntity
  8
Defpoints
 62
     0
370
     0
100
AcDbPoint
 10
832.1983073685634
 20
335.4088806235478
 30
0.0
  0
POINT
  5
571E
330
4FDD
100
AcDbEntity
  8
Defpoints
 62
     0
370
     0
100
AcDbPoint
 10
783.4921168771371
 20
315.2341159504777
 30
0.0
  0
ENDBLK
  5
4FEA
330
4FDD
100
AcDbEntity
  8
0
370
     0
100
AcDbBlockEnd
  0
BLOCK
  5
5019
330
500F
100
AcDbEntity
  8
0
370
     0
100
AcDbBlockBegin
  2
*D40
 70
     1
 10
0.0
 20
0.0
 30
0.0
  3
*D40
  1

  0
LINE
  5
571F
330
500F
100
AcDbEntity
  8
AM_5
100
AcDbLine
 10
822.2813671754723
 20
356.7373662051977
 30
0.0
 11
773.5751766840483
 21
336.5626015321304
 31
0.0
  0
LINE
  5
5720
330
500F
100
AcDbEntity
  8
AM_5
100
AcDbLine
 10
831.2744278360522
 20
335.026197191183
 30
0.0
 11
782.5682373446246
 21
314.8514325181143
 31
0.0
  0
LINE
  5
5721
330
500F
100
AcDbEntity
  8
AM_5
100
AcDbLine
 10
775.6471065136544
 20
334.1736463669613
 30
0.0
 11
782.344066580041
 21
318.0057545480133
 31
0.0
  0
SOLID
  5
5722
330
500F
100
AcDbEntity
  8
AM_5
370
     0
100
AcDbTrace
 10
776.1090462799101
 20
334.3649880831438
 30
0.0
 11
775.1851667473988
 21
333.9823046507789
 31
0.0
 12
774.4990562165595
 22
336.9452849644954
 32
0.0
 13
774.4990562165595
 23
336.9452849644954
 33
0.0
  0
SOLID
  5
5723
330
500F
100
AcDbEntity
  8
AM_5
370
     0
100
AcDbTrace
 10
782.8060063462967
 20
318.1970962641957
 30
0.0
 11
781.8821268137854
 21
317.8144128318308
 31
0.0
 12
783.4921168771359
 22
315.2341159504792
 32
0.0
 13
783.4921168771359
 23
315.2341159504792
 33
0.0
  0
MTEXT
  5
5724
330
500F
100
AcDbEntity
  8
AM_5
100
AcDbMText
 10
781.5365735268408
 20
327.1422117264136
 30
0.0
 40
3.5
 41
0.0
 71
     5
 72
     1
  1
23.5
 11
0.382683432364959
 21
-0.9238795325113409
 31
0.0
 73
     1
 44
1.0
1001
ACAD
1000
MTEXTBEGIN
1070
    73
1070
     1
1070
    44
1040
1.0
1070
    74
1070
     0
1000
MTEXTEND
  0
POINT
  5
5725
330
500F
100
AcDbEntity
  8
Defpoints
 62
     0
370
     0
100
AcDbPoint
 10
823.2052467079835
 20
357.1200496375626
 30
0.0
  0
POINT
  5
5726
330
500F
100
AcDbEntity
  8
Defpoints
 62
     0
370
     0
100
AcDbPoint
 10
832.1983073685636
 20
335.4088806235479
 30
0.0
  0
POINT
  5
5727
330
500F
100
AcDbEntity
  8
Defpoints
 62
     0
370
     0
100
AcDbPoint
 10
783.4921168771359
 20
315.2341159504792
 30
0.0
  0
ENDBLK
  5
501A
330
500F
100
AcDbEntity
  8
0
370
     0
100
AcDbBlockEnd
  0
BLOCK
  5
5035
330
502B
100
AcDbEntity
  8
0
370
     0
100
AcDbBlockBegin
  2
*D41
 70
     1
 10
0.0
 20
0.0
 30
0.0
  3
*D41
  1

  0
LINE
  5
5728
330
502B
100
AcDbEntity
  8
AM_5
100
AcDbLine
 10
812.1402562177976
 20
381.2201738167469
 30
0.0
 11
763.4340657263756
 21
361.0454091436805
 31
0.0
  0
LINE
  5
5729
330
502B
100
AcDbEntity
  8
AM_5
100
AcDbLine
 10
822.2813671754723
 20
356.7373662051977
 30
0.0
 11
773.575176684047
 21
336.5626015321299
 31
0.0
  0
LINE
  5
572A
330
502B
100
AcDbEntity
  8
AM_5
100
AcDbLine
 10
765.5059955559817
 20
358.6564539785114
 30
0.0
 11
773.3510059194634
 21
339.7169235620289
 31
0.0
  0
SOLID
  5
572B
330
502B
100
AcDbEntity
  8
AM_5
370
     0
100
AcDbTrace
 10
765.9679353222373
 20
358.8477956946939
 30
0.0
 11
765.044055789726
 21
358.4651122623289
 31
0.0
 12
764.3579452588868
 22
361.4280925760454
 32
0.0
 13
764.3579452588868
 23
361.4280925760454
 33
0.0
  0
SOLID
  5
572C
330
502B
100
AcDbEntity
  8
AM_5
370
     0
100
AcDbTrace
 10
773.8129456857191
 20
339.9082652782114
 30
0.0
 11
772.8890661532077
 21
339.5255818458464
 31
0.0
 12
774.4990562165583
 22
336.9452849644949
 32
0.0
 13
774.4990562165583
 23
336.9452849644949
 33
0.0
  0
MTEXT
  5
572D
330
502B
100
AcDbEntity
  8
AM_5
100
AcDbMText
 10
771.9694877177158
 20
350.2392000391964
 30
0.0
 40
3.5
 41
0.0
 71
     5
 72
     1
  1
26.5
 11
0.382683432364959
 21
-0.9238795325113409
 31
0.0
 73
     1
 44
1.0
1001
ACAD
1000
MTEXTBEGIN
1070
    73
1070
     1
1070
    44
1040
1.0
1070
    74
1070
     0
1000
MTEXTEND
  0
POINT
  5
572E
330
502B
100
AcDbEntity
  8
Defpoints
 62
     0
370
     0
100
AcDbPoint
 10
813.064135750309
 20
381.6028572491119
 30
0.0
  0
POINT
  5
572F
330
502B
100
AcDbEntity
  8
Defpoints
 62
     0
370
     0
100
AcDbPoint
 10
823.2052467079835
 20
357.1200496375626
 30
0.0
  0
POINT
  5
5730
330
502B
100
AcDbEntity
  8
Defpoints
 62
     0
370
     0
100
AcDbPoint
 10
774.4990562165583
 20
336.9452849644949
 30
0.0
  0
ENDBLK
  5
5036
330
502B
100
AcDbEntity
  8
0
370
     0
100
AcDbBlockEnd
  0
BLOCK
  5
505F
330
5053
100
AcDbEntity
  8
0
370
     0
100
AcDbBlockBegin
  2
*D42
 70
     1
 10
0.0
 20
0.0
 30
0.0
  3
*D42
  1

  0
LINE
  5
5731
330
5053
100
AcDbEntity
  8
AM_5
100
AcDbLine
 10
832.2639654653663
 20
330.0241160962605
 30
0.0
 11
844.275036136333
 21
301.0268263837956
 31
0.0
  0
LINE
  5
5732
330
5053
100
AcDbEntity
  8
AM_5
100
AcDbLine
 10
835.9594835954117
 20
331.5548498257213
 30
0.0
 11
847.9705542663785
 21
302.5575601132563
 31
0.0
  0
LINE
  5
5733
330
5053
100
AcDbEntity
  8
AM_5
100
AcDbLine
 10
850.3595094315471
 20
304.629489942863
 30
0.0
 11
853.1311480290808
 21
305.7775402399585
 31
0.0
  0
LINE
  5
5734
330
5053
100
AcDbEntity
  8
AM_5
100
AcDbLine
 10
841.1207141064341
 20
300.8026556192114
 30
0.0
 11
817.0188571627857
 21
290.8193395947746
 31
0.0
  0
LINE
  5
5735
330
5053
100
AcDbEntity
  8
AM_5
100
AcDbLine
 10
847.5878708340133
 20
303.4814396457676
 30
0.0
 11
843.8923527039678
 21
301.9507059163069
 31
0.0
  0
SOLID
  5
5736
330
5053
100
AcDbEntity
  8
AM_5
370
     0
100
AcDbTrace
 10
850.1681677153646
 20
305.0914297091186
 30
0.0
 11
850.5508511477298
 21
304.1675501766074
 31
0.0
 12
847.5878708340133
 22
303.4814396457676
 32
0.0
 13
847.5878708340133
 23
303.4814396457676
 33
0.0
  0
SOLID
  5
5737
330
5053
100
AcDbEntity
  8
AM_5
370
     0
100
AcDbTrace
 10
840.9293723902516
 20
301.264595385467
 30
0.0
 11
841.3120558226166
 21
300.3407158529558
 31
0.0
 12
843.8923527039678
 22
301.9507059163069
 32
0.0
 13
843.8923527039678
 23
301.9507059163069
 33
0.0
  0
MTEXT
  5
5738
330
5053
100
AcDbEntity
  8
AM_5
100
AcDbMText
 10
825.5121932374455
 20
297.7875197251238
 30
0.0
 40
3.5
 41
0.0
 71
     5
 72
     1
  1
4*4depth
 11
0.9238795325112649
 21
0.3826834323651427
 31
0.0
 73
     1
 44
1.0
1001
ACAD
1000
MTEXTBEGIN
1070
    73
1070
     1
1070
    44
1040
1.0
1070
    74
1070
     0
1000
MTEXTEND
  0
POINT
  5
5739
330
5053
100
AcDbEntity
  8
Defpoints
 62
     0
370
     0
100
AcDbPoint
 10
831.8812820330011
 20
330.9479956287717
 30
0.0
  0
POINT
  5
573A
330
5053
100
AcDbEntity
  8
Defpoints
 62
     0
370
     0
100
AcDbPoint
 10
835.5768001630465
 20
332.4787293582326
 30
0.0
  0
POINT
  5
573B
330
5053
100
AcDbEntity
  8
Defpoints
 62
     0
370
     0
100
AcDbPoint
 10
847.5878708340133
 20
303.4814396457676
 30
0.0
  0
ENDBLK
  5
5060
330
5053
100
AcDbEntity
  8
0
370
     0
100
AcDbBlockEnd
  0
BLOCK
  5
5122
330
511C
100
AcDbEntity
  8
0
370
     0
100
AcDbBlockBegin
  2
*D44
 70
     1
 10
0.0
 20
0.0
 30
0.0
  3
*D44
  1

  0
LINE
  5
573C
330
511C
100
AcDbEntity
  8
AM_5
100
AcDbLine
 10
804.6234473460604
 20
372.3094121150734
 30
0.0
 11
802.3007224258199
 21
374.2080824247623
 31
0.0
  0
LINE
  5
573D
330
511C
100
AcDbEntity
  8
AM_5
100
AcDbLine
 10
841.7870460699072
 20
341.9306871600518
 30
0.0
 11
852.0830361591473
 21
333.5144125849001
 31
0.0
  0
LINE
  5
573E
330
511C
100
AcDbEntity
  8
AM_5
100
AcDbLine
 10
852.0830361591473
 20
333.5144125849001
 30
0.0
 11
877.359889062624
 21
333.5144125849001
 31
0.0
  0
LINE
  5
573F
330
511C
100
AcDbEntity
  8
AM_5
100
AcDbLine
 10
806.9461722663007
 20
370.4107418053845
 30
0.0
 11
839.4643211496667
 21
343.8293574697406
 31
0.0
  0
SOLID
  5
5740
330
511C
100
AcDbEntity
  8
AM_5
370
     0
100
AcDbTrace
 10
804.9398923976751
 20
372.6965329351135
 30
0.0
 11
804.3070022944455
 21
371.9222912950333
 31
0.0
 12
806.9461722663007
 22
370.4107418053845
 32
0.0
 13
806.9461722663007
 23
370.4107418053845
 33
0.0
  0
SOLID
  5
5741
330
511C
100
AcDbEntity
  8
AM_5
370
     0
100
AcDbTrace
 10
842.1034911215219
 20
342.3178079800917
 30
0.0
 11
841.4706010182923
 21
341.5435663400117
 31
0.0
 12
839.4643211496667
 22
343.8293574697406
 32
0.0
 13
839.4643211496667
 23
343.8293574697406
 33
0.0
  0
MTEXT
  5
5742
330
511C
100
AcDbEntity
  8
AM_5
100
AcDbMText
 10
865.2214626108857
 20
336.7022570730891
 30
0.0
 40
3.5
 41
0.0
 71
     5
 72
     1
  1
\U+220542*2depth
 73
     1
 44
1.0
1001
ACAD
1000
MTEXTBEGIN
1070
    73
1070
     1
1070
    44
1040
1.0
1070
    74
1070
     0
1000
MTEXTEND
  0
POINT
  5
5743
330
511C
100
AcDbEntity
  8
Defpoints
 62
     0
370
     0
100
AcDbPoint
 10
839.4643211496667
 20
343.8293574697406
 30
0.0
  0
POINT
  5
5744
330
511C
100
AcDbEntity
  8
Defpoints
 62
     0
370
     0
100
AcDbPoint
 10
806.9461722663007
 20
370.4107418053845
 30
0.0
  0
ENDBLK
  5
5123
330
511C
100
AcDbEntity
  8
0
370
     0
100
AcDbBlockEnd
  0
BLOCK
  5
5165
330
515F
100
AcDbEntity
  8
0
370
     0
100
AcDbBlockBegin
  2
*D45
 70
     1
 10
0.0
 20
0.0
 30
0.0
  3
*D45
  1

  0
LINE
  5
5745
330
515F
100
AcDbEntity
  8
AM_5
100
AcDbLine
 10
848.7511760335806
 20
375.2187045161643
 30
0.0
 11
859.0744620125882
 21
394.4980238550198
 31
0.0
  0
LINE
  5
5746
330
515F
100
AcDbEntity
  8
AM_5
100
AcDbLine
 10
859.0744620125882
 20
394.4980238550198
 30
0.0
 11
896.6013149160652
 21
394.4980238550197
 31
0.0
  0
SOLID
  5
5747
330
515F
100
AcDbEntity
  8
AM_5
370
     0
100
AcDbTrace
 10
848.3103892264351
 20
375.4547278002835
 30
0.0
 11
849.1919628407263
 21
374.9826812320453
 31
0.0
 12
847.3350363288659
 22
372.5739836732907
 32
0.0
 13
847.3350363288659
 23
372.5739836732907
 33
0.0
  0
MTEXT
  5
5748
330
515F
100
AcDbEntity
  8
AM_5
100
AcDbMText
 10
878.3378884643266
 20
397.6855238550198
 30
0.0
 40
3.5
 41
0.0
 71
     5
 72
     1
  1
3-M5*0.8*10depth
 73
     1
 44
1.0
1001
ACAD
1000
MTEXTBEGIN
1070
    73
1070
     1
1070
    44
1040
1.0
1070
    74
1070
     0
1000
MTEXTEND
  0
POINT
  5
5749
330
515F
100
AcDbEntity
  8
Defpoints
 62
     0
370
     0
100
AcDbPoint
 10
847.3350363288659
 20
372.5739836732907
 30
0.0
  0
POINT
  5
574A
330
515F
100
AcDbEntity
  8
Defpoints
 62
     0
370
     0
100
AcDbPoint
 10
846.1549199082705
 20
370.370049637563
 30
0.0
  0
ENDBLK
  5
5166
330
515F
100
AcDbEntity
  8
0
370
     0
100
AcDbBlockEnd
  0
BLOCK
  5
51A6
330
519D
100
AcDbEntity
  8
0
370
     0
100
AcDbBlockBegin
  2
*D46
 70
     1
 10
0.0
 20
0.0
 30
0.0
  3
*D46
  1

  0
LINE
  5
574B
330
519D
100
AcDbEntity
  8
AM_5
100
AcDbLine
 10
809.5359903699829
 20
385.1457642723461
 30
0.0
 11
800.9485852274083
 21
393.7690988323788
 31
0.0
  0
LINE
  5
574C
330
519D
100
AcDbEntity
  8
AM_5
100
AcDbLine
 10
800.9485852274083
 20
393.7690988323788
 30
0.0
 11
777.7717323239315
 21
393.7690988323788
 31
0.0
  0
SOLID
  5
574D
330
519D
100
AcDbEntity
  8
AM_5
370
     0
100
AcDbTrace
 10
809.8902810723064
 20
385.4985788103787
 30
0.0
 11
809.1816996676593
 21
384.7929497343134
 31
0.0
 12
811.6528775981786
 22
383.0200200584055
 32
0.0
 13
811.6528775981786
 23
383.0200200584055
 33
0.0
  0
MTEXT
  5
574E
330
519D
100
AcDbEntity
  8
AM_5
100
AcDbMText
 10
788.86015877567
 20
396.9565988323787
 30
0.0
 40
3.5
 41
0.0
 71
     5
 72
     1
  1
\U+22054*4depth
 73
     1
 44
1.0
1001
ACAD
1000
MTEXTBEGIN
1070
    73
1070
     1
1070
    44
1040
1.0
1070
    74
1070
     0
1000
MTEXTEND
  0
POINT
  5
574F
330
519D
100
AcDbEntity
  8
Defpoints
 62
     0
370
     0
100
AcDbPoint
 10
811.6528775981786
 20
383.0200200584055
 30
0.0
  0
POINT
  5
5750
330
519D
100
AcDbEntity
  8
Defpoints
 62
     0
370
     0
100
AcDbPoint
 10
814.4753939024392
 20
380.1856944398182
 30
0.0
  0
ENDBLK
  5
51A7
330
519D
100
AcDbEntity
  8
0
370
     0
100
AcDbBlockEnd
  0
BLOCK
  5
51E7
330
51DD
100
AcDbEntity
  8
0
370
     0
100
AcDbBlockBegin
  2
*D47
 70
     1
 10
0.0
 20
0.0
 30
0.0
  3
*D47
  1

  0
LINE
  5
5751
330
51DD
100
AcDbEntity
  8
AM_5
100
AcDbLine
 10
727.2989910982273
 20
325.1200496375627
 30
0.0
 11
727.2989910982273
 21
296.6200496375628
 31
0.0
  0
LINE
  5
5752
330
51DD
100
AcDbEntity
  8
AM_5
100
AcDbLine
 10
688.7989910982273
 20
315.1200496375627
 30
0.0
 11
688.7989910982273
 21
296.6200496375628
 31
0.0
  0
LINE
  5
5753
330
51DD
100
AcDbEntity
  8
AM_5
100
AcDbLine
 10
724.2989910982274
 20
297.6200496375628
 30
0.0
 11
691.7989910982274
 21
297.6200496375628
 31
0.0
  0
SOLID
  5
5754
330
51DD
100
AcDbEntity
  8
AM_5
370
     0
100
AcDbTrace
 10
724.2989910982274
 20
298.1200496375628
 30
0.0
 11
724.2989910982274
 21
297.1200496375628
 31
0.0
 12
727.2989910982273
 22
297.6200496375628
 32
0.0
 13
727.2989910982273
 23
297.6200496375628
 33
0.0
  0
SOLID
  5
5755
330
51DD
100
AcDbEntity
  8
AM_5
370
     0
100
AcDbTrace
 10
691.7989910982274
 20
298.1200496375628
 30
0.0
 11
691.7989910982274
 21
297.1200496375628
 31
0.0
 12
688.7989910982273
 22
297.6200496375628
 32
0.0
 13
688.7989910982273
 23
297.6200496375628
 33
0.0
  0
MTEXT
  5
5756
330
51DD
100
AcDbEntity
  8
AM_5
100
AcDbMText
 10
708.0489910982273
 20
300.3700496375628
 30
0.0
 40
3.5
 41
0.0
 71
     5
 72
     1
  1
38.5
 73
     1
 44
1.0
1001
ACAD
1000
MTEXTBEGIN
1070
    73
1070
     1
1070
    44
1040
1.0
1070
    74
1070
     0
1000
MTEXTEND
  0
POINT
  5
5757
330
51DD
100
AcDbEntity
  8
Defpoints
 62
     0
370
     0
100
AcDbPoint
 10
727.2989910982273
 20
326.1200496375626
 30
0.0
  0
POINT
  5
5758
330
51DD
100
AcDbEntity
  8
Defpoints
 62
     0
370
     0
100
AcDbPoint
 10
688.7989910982273
 20
316.1200496375627
 30
0.0
  0
POINT
  5
5759
330
51DD
100
AcDbEntity
  8
Defpoints
 62
     0
370
     0
100
AcDbPoint
 10
688.7989910982273
 20
297.6200496375628
 30
0.0
  0
ENDBLK
  5
51E8
330
51DD
100
AcDbEntity
  8
0
370
     0
100
AcDbBlockEnd
  0
BLOCK
  5
520A
330
5200
100
AcDbEntity
  8
0
370
     0
100
AcDbBlockBegin
  2
*D48
 70
     1
 10
0.0
 20
0.0
 30
0.0
  3
*D48
  1

  0
LINE
  5
575A
330
5200
100
AcDbEntity
  8
AM_5
100
AcDbLine
 10
727.2989910982273
 20
325.1200496375627
 30
0.0
 11
727.2989910982273
 21
290.1200496375628
 31
0.0
  0
LINE
  5
575B
330
5200
100
AcDbEntity
  8
AM_5
100
AcDbLine
 10
684.7989910982273
 20
308.6200496375628
 30
0.0
 11
684.7989910982273
 21
290.1200496375628
 31
0.0
  0
LINE
  5
575C
330
5200
100
AcDbEntity
  8
AM_5
100
AcDbLine
 10
724.2989910982274
 20
291.1200496375628
 30
0.0
 11
687.7989910982273
 21
291.1200496375628
 31
0.0
  0
SOLID
  5
575D
330
5200
100
AcDbEntity
  8
AM_5
370
     0
100
AcDbTrace
 10
724.2989910982274
 20
291.6200496375628
 30
0.0
 11
724.2989910982274
 21
290.6200496375628
 31
0.0
 12
727.2989910982273
 22
291.1200496375628
 32
0.0
 13
727.2989910982273
 23
291.1200496375628
 33
0.0
  0
SOLID
  5
575E
330
5200
100
AcDbEntity
  8
AM_5
370
     0
100
AcDbTrace
 10
687.7989910982273
 20
291.6200496375628
 30
0.0
 11
687.7989910982273
 21
290.6200496375628
 31
0.0
 12
684.7989910982273
 22
291.1200496375628
 32
0.0
 13
684.7989910982273
 23
291.1200496375628
 33
0.0
  0
MTEXT
  5
575F
330
5200
100
AcDbEntity
  8
AM_5
100
AcDbMText
 10
706.0489910982274
 20
293.8703941257518
 30
0.0
 40
3.5
 41
0.0
 71
     5
 72
     1
  1
42.5
 73
     1
 44
1.0
1001
ACAD
1000
MTEXTBEGIN
1070
    73
1070
     1
1070
    44
1040
1.0
1070
    74
1070
     0
1000
MTEXTEND
  0
POINT
  5
5760
330
5200
100
AcDbEntity
  8
Defpoints
 62
     0
370
     0
100
AcDbPoint
 10
727.2989910982273
 20
326.1200496375626
 30
0.0
  0
POINT
  5
5761
330
5200
100
AcDbEntity
  8
Defpoints
 62
     0
370
     0
100
AcDbPoint
 10
684.7989910982273
 20
309.6200496375628
 30
0.0
  0
POINT
  5
5762
330
5200
100
AcDbEntity
  8
Defpoints
 62
     0
370
     0
100
AcDbPoint
 10
684.7989910982273
 20
291.1200496375628
 30
0.0
  0
ENDBLK
  5
520B
330
5200
100
AcDbEntity
  8
0
370
     0
100
AcDbBlockEnd
  0
BLOCK
  5
523F
330
5235
100
AcDbEntity
  8
0
370
     0
100
AcDbBlockBegin
  2
*D49
 70
     1
 10
0.0
 20
0.0
 30
0.0
  3
*D49
  1

  0
LINE
  5
5763
330
5235
100
AcDbEntity
  8
AM_5
100
AcDbLine
 10
671.2989910982271
 20
308.6200496375628
 30
0.0
 11
671.2989910982271
 21
290.1200496375628
 31
0.0
  0
LINE
  5
5764
330
5235
100
AcDbEntity
  8
AM_5
100
AcDbLine
 10
684.7989910982273
 20
308.6200496375628
 30
0.0
 11
684.7989910982273
 21
290.1200496375628
 31
0.0
  0
LINE
  5
5765
330
5235
100
AcDbEntity
  8
AM_5
100
AcDbLine
 10
674.2989910982271
 20
291.1200496375628
 30
0.0
 11
681.7989910982273
 21
291.1200496375628
 31
0.0
  0
SOLID
  5
5766
330
5235
100
AcDbEntity
  8
AM_5
370
     0
100
AcDbTrace
 10
674.2989910982271
 20
291.6200496375628
 30
0.0
 11
674.2989910982271
 21
290.6200496375628
 31
0.0
 12
671.2989910982271
 22
291.1200496375628
 32
0.0
 13
671.2989910982271
 23
291.1200496375628
 33
0.0
  0
SOLID
  5
5767
330
5235
100
AcDbEntity
  8
AM_5
370
     0
100
AcDbTrace
 10
681.7989910982273
 20
291.6200496375628
 30
0.0
 11
681.7989910982273
 21
290.6200496375628
 31
0.0
 12
684.7989910982273
 22
291.1200496375628
 32
0.0
 13
684.7989910982273
 23
291.1200496375628
 33
0.0
  0
MTEXT
  5
5768
330
5235
100
AcDbEntity
  8
AM_5
100
AcDbMText
 10
678.0489910982272
 20
293.8700496375627
 30
0.0
 40
3.5
 41
0.0
 71
     5
 72
     1
  1
13.5
 73
     1
 44
1.0
1001
ACAD
1000
MTEXTBEGIN
1070
    73
1070
     1
1070
    44
1040
1.0
1070
    74
1070
     0
1000
MTEXTEND
  0
POINT
  5
5769
330
5235
100
AcDbEntity
  8
Defpoints
 62
     0
370
     0
100
AcDbPoint
 10
671.2989910982271
 20
309.6200496375628
 30
0.0
  0
POINT
  5
576A
330
5235
100
AcDbEntity
  8
Defpoints
 62
     0
370
     0
100
AcDbPoint
 10
684.7989910982273
 20
309.6200496375628
 30
0.0
  0
POINT
  5
576B
330
5235
100
AcDbEntity
  8
Defpoints
 62
     0
370
     0
100
AcDbPoint
 10
684.7989910982273
 20
291.1200496375628
 30
0.0
  0
ENDBLK
  5
5240
330
5235
100
AcDbEntity
  8
0
370
     0
100
AcDbBlockEnd
  0
BLOCK
  5
52C6
330
52BA
100
AcDbEntity
  8
0
370
     0
100
AcDbBlockBegin
  2
*D50
 70
     1
 10
0.0
 20
0.0
 30
0.0
  3
*D50
  1

  0
LINE
  5
576C
330
52BA
100
AcDbEntity
  8
AM_5
100
AcDbLine
 10
671.2989910982271
 20
308.6200496375628
 30
0.0
 11
671.2989910982271
 21
296.6200496375629
 31
0.0
  0
LINE
  5
576D
330
52BA
100
AcDbEntity
  8
AM_5
100
AcDbLine
 10
678.2989910982271
 20
308.6200496375628
 30
0.0
 11
678.2989910982271
 21
296.6200496375629
 31
0.0
  0
LINE
  5
576E
330
52BA
100
AcDbEntity
  8
AM_5
100
AcDbLine
 10
668.2989910982271
 20
297.6200496375629
 30
0.0
 11
665.2989910982271
 21
297.6200496375629
 31
0.0
  0
LINE
  5
576F
330
52BA
100
AcDbEntity
  8
AM_5
100
AcDbLine
 10
681.2989910982271
 20
297.6200496375629
 30
0.0
 11
684.2989910982271
 21
297.6200496375629
 31
0.0
  0
LINE
  5
5770
330
52BA
100
AcDbEntity
  8
AM_5
100
AcDbLine
 10
671.2989910982271
 20
297.6200496375629
 30
0.0
 11
678.2989910982271
 21
297.6200496375629
 31
0.0
  0
SOLID
  5
5771
330
52BA
100
AcDbEntity
  8
AM_5
370
     0
100
AcDbTrace
 10
668.2989910982271
 20
298.1200496375629
 30
0.0
 11
668.2989910982271
 21
297.1200496375629
 31
0.0
 12
671.2989910982271
 22
297.6200496375629
 32
0.0
 13
671.2989910982271
 23
297.6200496375629
 33
0.0
  0
SOLID
  5
5772
330
52BA
100
AcDbEntity
  8
AM_5
370
     0
100
AcDbTrace
 10
681.2989910982271
 20
298.1200496375629
 30
0.0
 11
681.2989910982271
 21
297.1200496375629
 31
0.0
 12
678.2989910982271
 22
297.6200496375629
 32
0.0
 13
678.2989910982271
 23
297.6200496375629
 33
0.0
  0
MTEXT
  5
5773
330
52BA
100
AcDbEntity
  8
AM_5
100
AcDbMText
 10
674.7989910982271
 20
300.3700496375629
 30
0.0
 40
3.5
 41
0.0
 71
     5
 72
     1
  1
7
 73
     1
 44
1.0
1001
ACAD
1000
MTEXTBEGIN
1070
    73
1070
     1
1070
    44
1040
1.0
1070
    74
1070
     0
1000
MTEXTEND
  0
POINT
  5
5774
330
52BA
100
AcDbEntity
  8
Defpoints
 62
     0
370
     0
100
AcDbPoint
 10
671.2989910982271
 20
309.6200496375628
 30
0.0
  0
POINT
  5
5775
330
52BA
100
AcDbEntity
  8
Defpoints
 62
     0
370
     0
100
AcDbPoint
 10
678.2989910982271
 20
309.6200496375628
 30
0.0
  0
POINT
  5
5776
330
52BA
100
AcDbEntity
  8
Defpoints
 62
     0
370
     0
100
AcDbPoint
 10
678.2989910982271
 20
297.6200496375629
 30
0.0
  0
ENDBLK
  5
52C7
330
52BA
100
AcDbEntity
  8
0
370
     0
100
AcDbBlockEnd
  0
BLOCK
  5
531C
330
5312
100
AcDbEntity
  8
0
370
     0
100
AcDbBlockBegin
  2
*D51
 70
     1
 10
0.0
 20
0.0
 30
0.0
  3
*D51
  1

  0
LINE
  5
5777
330
5312
100
AcDbEntity
  8
AM_5
100
AcDbLine
 10
727.2989910982273
 20
389.1200496375627
 30
0.0
 11
727.2989910982273
 21
401.1200496375627
 31
0.0
  0
LINE
  5
5778
330
5312
100
AcDbEntity
  8
AM_5
100
AcDbLine
 10
663.2989910982269
 20
385.3341512527001
 30
0.0
 11
663.2989910982269
 21
401.1200496375627
 31
0.0
  0
LINE
  5
5779
330
5312
100
AcDbEntity
  8
AM_5
100
AcDbLine
 10
724.2989910982274
 20
400.1200496375627
 30
0.0
 11
666.2989910982268
 21
400.1200496375627
 31
0.0
  0
SOLID
  5
577A
330
5312
100
AcDbEntity
  8
AM_5
370
     0
100
AcDbTrace
 10
724.2989910982274
 20
400.6200496375627
 30
0.0
 11
724.2989910982274
 21
399.6200496375627
 31
0.0
 12
727.2989910982273
 22
400.1200496375627
 32
0.0
 13
727.2989910982273
 23
400.1200496375627
 33
0.0
  0
SOLID
  5
577B
330
5312
100
AcDbEntity
  8
AM_5
370
     0
100
AcDbTrace
 10
666.2989910982268
 20
400.6200496375627
 30
0.0
 11
666.2989910982268
 21
399.6200496375627
 31
0.0
 12
663.2989910982269
 22
400.1200496375627
 32
0.0
 13
663.2989910982269
 23
400.1200496375627
 33
0.0
  0
MTEXT
  5
577C
330
5312
100
AcDbEntity
  8
AM_5
100
AcDbMText
 10
695.2989910982271
 20
403.0450496375626
 30
0.0
 40
3.5
 41
0.0
 71
     5
 72
     1
  1
(64)
 73
     1
 44
1.0
1001
ACAD
1000
MTEXTBEGIN
1070
    73
1070
     1
1070
    44
1040
1.0
1070
    74
1070
     0
1000
MTEXTEND
  0
POINT
  5
577D
330
5312
100
AcDbEntity
  8
Defpoints
 62
     0
370
     0
100
AcDbPoint
 10
727.2989910982273
 20
388.1200496375627
 30
0.0
  0
POINT
  5
577E
330
5312
100
AcDbEntity
  8
Defpoints
 62
     0
370
     0
100
AcDbPoint
 10
663.2989910982269
 20
384.3341512527
 30
0.0
  0
POINT
  5
577F
330
5312
100
AcDbEntity
  8
Defpoints
 62
     0
370
     0
100
AcDbPoint
 10
663.2989910982269
 20
400.1200496375627
 30
0.0
  0
ENDBLK
  5
531D
330
5312
100
AcDbEntity
  8
0
370
     0
100
AcDbBlockEnd
  0
BLOCK
  5
534D
330
5343
100
AcDbEntity
  8
0
370
     0
100
AcDbBlockBegin
  2
*D52
 70
     1
 10
0.0
 20
0.0
 30
0.0
  3
*D52
  1

  0
LINE
  5
5780
330
5343
100
AcDbEntity
  8
AM_5
100
AcDbLine
 10
662.2989910982271
 20
330.6200496375627
 30
0.0
 11
650.298990098227
 21
330.6200496375627
 31
0.0
  0
LINE
  5
5781
330
5343
100
AcDbEntity
  8
AM_5
100
AcDbLine
 10
662.2989910982271
 20
321.6200496375626
 30
0.0
 11
650.298990098227
 21
321.6200496375626
 31
0.0
  0
LINE
  5
5782
330
5343
100
AcDbEntity
  8
AM_5
100
AcDbLine
 10
651.298990098227
 20
327.6200496375627
 30
0.0
 11
651.298990098227
 21
324.6200496375627
 31
0.0
  0
SOLID
  5
5783
330
5343
100
AcDbEntity
  8
AM_5
370
     0
100
AcDbTrace
 10
650.798990098227
 20
327.6200496375627
 30
0.0
 11
651.798990098227
 21
327.6200496375627
 31
0.0
 12
651.298990098227
 22
330.6200496375627
 32
0.0
 13
651.298990098227
 23
330.6200496375627
 33
0.0
  0
INSERT
  5
5784
330
5343
100
AcDbEntity
  8
AM_5
100
AcDbBlockReference
  2
GENDOT
 10
651.298990098227
 20
321.6200496375626
 30
0.0
 41
3.0
 42
3.0
 43
3.0
 50
270.0
  0
MTEXT
  5
5785
330
5343
100
AcDbEntity
  8
AM_5
100
AcDbMText
 10
648.5489900982269
 20
326.1200496375628
 30
0.0
 40
3.5
 41
0.0
 71
     5
 72
     1
  1
9
 11
0.0000000000000001
 21
1.0
 31
0.0
 73
     1
 44
1.0
1001
ACAD
1000
MTEXTBEGIN
1070
    73
1070
     1
1070
    44
1040
1.0
1070
    74
1070
     0
1000
MTEXTEND
  0
POINT
  5
5786
330
5343
100
AcDbEntity
  8
Defpoints
 62
     0
370
     0
100
AcDbPoint
 10
663.2989910982271
 20
330.6200496375627
 30
0.0
  0
POINT
  5
5787
330
5343
100
AcDbEntity
  8
Defpoints
 62
     0
370
     0
100
AcDbPoint
 10
663.2989910982271
 20
321.6200496375626
 30
0.0
  0
POINT
  5
5788
330
5343
100
AcDbEntity
  8
Defpoints
 62
     0
370
     0
100
AcDbPoint
 10
651.298990098227
 20
321.6200496375626
 30
0.0
  0
ENDBLK
  5
534E
330
5343
100
AcDbEntity
  8
0
370
     0
100
AcDbBlockEnd
  0
BLOCK
  5
537F
330
5373
100
AcDbEntity
  8
0
370
     0
100
AcDbBlockBegin
  2
*D53
 70
     1
 10
0.0
 20
0.0
 30
0.0
  3
*D53
  1

  0
LINE
  5
5789
330
5373
100
AcDbEntity
  8
AM_5
100
AcDbLine
 10
662.2989910982271
 20
321.6200496375626
 30
0.0
 11
650.298990098227
 21
321.6200496375626
 31
0.0
  0
LINE
  5
578A
330
5373
100
AcDbEntity
  8
AM_5
100
AcDbLine
 10
662.2989910982271
 20
318.6200496375628
 30
0.0
 11
650.298990098227
 21
318.6200496375628
 31
0.0
  0
LINE
  5
578B
330
5373
100
AcDbEntity
  8
AM_5
100
AcDbLine
 10
651.298990098227
 20
324.6200496375627
 30
0.0
 11
651.298990098227
 21
327.6200496375627
 31
0.0
  0
LINE
  5
578C
330
5373
100
AcDbEntity
  8
AM_5
100
AcDbLine
 10
651.298990098227
 20
315.6200496375628
 30
0.0
 11
651.298990098227
 21
312.6200496375628
 31
0.0
  0
LINE
  5
578D
330
5373
100
AcDbEntity
  8
AM_5
100
AcDbLine
 10
651.298990098227
 20
321.6200496375626
 30
0.0
 11
651.298990098227
 21
318.6200496375628
 31
0.0
  0
INSERT
  5
578E
330
5373
100
AcDbEntity
  8
AM_5
100
AcDbBlockReference
  2
GENDOT
 10
651.298990098227
 20
321.6200496375626
 30
0.0
 41
3.0
 42
3.0
 43
3.0
 50
270.0
  0
SOLID
  5
578F
330
5373
100
AcDbEntity
  8
AM_5
370
     0
100
AcDbTrace
 10
650.798990098227
 20
315.6200496375628
 30
0.0
 11
651.798990098227
 21
315.6200496375628
 31
0.0
 12
651.298990098227
 22
318.6200496375628
 32
0.0
 13
651.298990098227
 23
318.6200496375628
 33
0.0
  0
MTEXT
  5
5790
330
5373
100
AcDbEntity
  8
AM_5
100
AcDbMText
 10
648.5489900982269
 20
320.1200496375628
 30
0.0
 40
3.5
 41
0.0
 71
     5
 72
     1
  1
3
 11
0.0000000000000001
 21
1.0
 31
0.0
 73
     1
 44
1.0
1001
ACAD
1000
MTEXTBEGIN
1070
    73
1070
     1
1070
    44
1040
1.0
1070
    74
1070
     0
1000
MTEXTEND
  0
POINT
  5
5791
330
5373
100
AcDbEntity
  8
Defpoints
 62
     0
370
     0
100
AcDbPoint
 10
663.2989910982271
 20
321.6200496375626
 30
0.0
  0
POINT
  5
5792
330
5373
100
AcDbEntity
  8
Defpoints
 62
     0
370
     0
100
AcDbPoint
 10
663.2989910982271
 20
318.6200496375628
 30
0.0
  0
POINT
  5
5793
330
5373
100
AcDbEntity
  8
Defpoints
 62
     0
370
     0
100
AcDbPoint
 10
651.298990098227
 20
318.6200496375628
 30
0.0
  0
ENDBLK
  5
5380
330
5373
100
AcDbEntity
  8
0
370
     0
100
AcDbBlockEnd
  0
BLOCK
  5
538F
330
538C
100
AcDbEntity
  8
0
370
     0
100
AcDbBlockBegin
  2
GENDOT
 70
     0
 10
0.0
 20
0.0
 30
0.0
  3
GENDOT
  1

  0
LINE
  5
538D
330
538C
100
AcDbEntity
  8
0
100
AcDbLine
 10
0.0
 20
0.0
 30
0.0
 11
-1.0
 21
0.0
 31
0.0
  0
LWPOLYLINE
  5
538E
330
538C
100
AcDbEntity
  8
0
100
AcDbPolyline
 90
        2
 70
     1
 43
0.25
 10
-0.125
 20
0.0
 42
1.0
 10
0.125
 20
0.0
 42
1.0
  0
ENDBLK
  5
5390
330
538C
100
AcDbEntity
  8
0
370
     0
100
AcDbBlockEnd
  0
BLOCK
  5
53D0
330
53C6
100
AcDbEntity
  8
0
370
     0
100
AcDbBlockBegin
  2
*D55
 70
     1
 10
0.0
 20
0.0
 30
0.0
  3
*D55
  1

  0
LINE
  5
5794
330
53C6
100
AcDbEntity
  8
AM_5
100
AcDbLine
 10
662.2989910982274
 20
309.6200496375626
 30
0.0
 11
643.0082631579664
 21
309.6200496375626
 31
0.0
  0
LINE
  5
5795
330
53C6
100
AcDbEntity
  8
AM_5
100
AcDbLine
 10
651.1955317283782
 20
357.1200496375627
 30
0.0
 11
643.0082631579664
 21
357.1200496375627
 31
0.0
  0
LINE
  5
5796
330
53C6
100
AcDbEntity
  8
AM_5
100
AcDbLine
 10
644.0082631579664
 20
312.6200496375627
 30
0.0
 11
644.0082631579664
 21
354.1200496375627
 31
0.0
  0
SOLID
  5
5797
330
53C6
100
AcDbEntity
  8
AM_5
370
     0
100
AcDbTrace
 10
643.5082631579664
 20
312.6200496375627
 30
0.0
 11
644.5082631579664
 21
312.6200496375627
 31
0.0
 12
644.0082631579664
 22
309.6200496375626
 32
0.0
 13
644.0082631579664
 23
309.6200496375626
 33
0.0
  0
SOLID
  5
5798
330
53C6
100
AcDbEntity
  8
AM_5
370
     0
100
AcDbTrace
 10
643.5082631579664
 20
354.1200496375627
 30
0.0
 11
644.5082631579664
 21
354.1200496375627
 31
0.0
 12
644.0082631579664
 22
357.1200496375627
 32
0.0
 13
644.0082631579664
 23
357.1200496375627
 33
0.0
  0
MTEXT
  5
5799
330
53C6
100
AcDbEntity
  8
AM_5
100
AcDbMText
 10
641.2582631579663
 20
333.3700496375628
 30
0.0
 40
3.5
 41
0.0
 71
     5
 72
     1
  1
47.5
 11
0.0000000000000001
 21
1.0
 31
0.0
 73
     1
 44
1.0
1001
ACAD
1000
MTEXTBEGIN
1070
    73
1070
     1
1070
    44
1040
1.0
1070
    74
1070
     0
1000
MTEXTEND
  0
POINT
  5
579A
330
53C6
100
AcDbEntity
  8
Defpoints
 62
     0
370
     0
100
AcDbPoint
 10
663.2989910982273
 20
309.6200496375626
 30
0.0
  0
POINT
  5
579B
330
53C6
100
AcDbEntity
  8
Defpoints
 62
     0
370
     0
100
AcDbPoint
 10
652.1955317283782
 20
357.1200496375627
 30
0.0
  0
POINT
  5
579C
330
53C6
100
AcDbEntity
  8
Defpoints
 62
     0
370
     0
100
AcDbPoint
 10
644.0082631579664
 20
357.1200496375627
 30
0.0
  0
ENDBLK
  5
53D1
330
53C6
100
AcDbEntity
  8
0
370
     0
100
AcDbBlockEnd
  0
BLOCK
  5
53F8
330
53EE
100
AcDbEntity
  8
0
370
     0
100
AcDbBlockBegin
  2
*D56
 70
     1
 10
0.0
 20
0.0
 30
0.0
  3
*D56
  1

  0
LINE
  5
579D
330
53EE
100
AcDbEntity
  8
AM_5
100
AcDbLine
 10
728.2989910982275
 20
507.6610827517135
 30
0.0
 11
740.2989910982276
 21
507.6610827517135
 31
0.0
  0
LINE
  5
579E
330
53EE
100
AcDbEntity
  8
AM_5
100
AcDbLine
 10
728.2989910982273
 20
445.6610827517133
 30
0.0
 11
740.2989910982276
 21
445.6610827517133
 31
0.0
  0
LINE
  5
579F
330
53EE
100
AcDbEntity
  8
AM_5
100
AcDbLine
 10
739.2989910982276
 20
504.6610827517135
 30
0.0
 11
739.2989910982276
 21
448.6610827517133
 31
0.0
  0
SOLID
  5
57A0
330
53EE
100
AcDbEntity
  8
AM_5
370
     0
100
AcDbTrace
 10
738.7989910982276
 20
504.6610827517135
 30
0.0
 11
739.7989910982276
 21
504.6610827517135
 31
0.0
 12
739.2989910982276
 22
507.6610827517135
 32
0.0
 13
739.2989910982276
 23
507.6610827517135
 33
0.0
  0
SOLID
  5
57A1
330
53EE
100
AcDbEntity
  8
AM_5
370
     0
100
AcDbTrace
 10
738.7989910982276
 20
448.6610827517133
 30
0.0
 11
739.7989910982276
 21
448.6610827517133
 31
0.0
 12
739.2989910982276
 22
445.6610827517133
 32
0.0
 13
739.2989910982276
 23
445.6610827517133
 33
0.0
  0
MTEXT
  5
57A2
330
53EE
100
AcDbEntity
  8
AM_5
100
AcDbMText
 10
736.5486466100385
 20
476.6610827517135
 30
0.0
 40
3.5
 41
0.0
 71
     5
 72
     1
  1
%%c62
 11
0.0000000000000001
 21
1.0
 31
0.0
 73
     1
 44
1.0
1001
ACAD
1000
MTEXTBEGIN
1070
    73
1070
     1
1070
    44
1040
1.0
1070
    74
1070
     0
1000
MTEXTEND
  0
POINT
  5
57A3
330
53EE
100
AcDbEntity
  8
Defpoints
 62
     0
370
     0
100
AcDbPoint
 10
727.2989910982276
 20
507.6610827517135
 30
0.0
  0
POINT
  5
57A4
330
53EE
100
AcDbEntity
  8
Defpoints
 62
     0
370
     0
100
AcDbPoint
 10
727.2989910982273
 20
445.6610827517133
 30
0.0
  0
POINT
  5
57A5
330
53EE
100
AcDbEntity
  8
Defpoints
 62
     0
370
     0
100
AcDbPoint
 10
739.2989910982276
 20
445.6610827517133
 30
0.0
  0
ENDBLK
  5
53F9
330
53EE
100
AcDbEntity
  8
0
370
     0
100
AcDbBlockEnd
  0
BLOCK
  5
5450
330
5446
100
AcDbEntity
  8
0
370
     0
100
AcDbBlockBegin
  2
*D57
 70
     1
 10
0.0
 20
0.0
 30
0.0
  3
*D57
  1

  0
LINE
  5
57A6
330
5446
100
AcDbEntity
  8
AM_5
100
AcDbLine
 10
727.2989910982276
 20
508.6610827517135
 30
0.0
 11
727.2989910982276
 21
520.6610827517135
 31
0.0
  0
LINE
  5
57A7
330
5446
100
AcDbEntity
  8
AM_5
100
AcDbLine
 10
718.2989910982273
 20
490.3031085411714
 30
0.0
 11
718.2989910982273
 21
520.6610827517135
 31
0.0
  0
LINE
  5
57A8
330
5446
100
AcDbEntity
  8
AM_5
100
AcDbLine
 10
724.2989910982275
 20
519.6610827517134
 30
0.0
 11
721.2989910982273
 21
519.6610827517134
 31
0.0
  0
SOLID
  5
57A9
330
5446
100
AcDbEntity
  8
AM_5
370
     0
100
AcDbTrace
 10
724.2989910982275
 20
520.1610827517135
 30
0.0
 11
724.2989910982275
 21
519.1610827517134
 31
0.0
 12
727.2989910982276
 22
519.6610827517134
 32
0.0
 13
727.2989910982276
 23
519.6610827517134
 33
0.0
  0
SOLID
  5
57AA
330
5446
100
AcDbEntity
  8
AM_5
370
     0
100
AcDbTrace
 10
721.2989910982273
 20
520.1610827517135
 30
0.0
 11
721.2989910982273
 21
519.1610827517134
 31
0.0
 12
718.2989910982273
 22
519.6610827517134
 32
0.0
 13
718.2989910982273
 23
519.6610827517134
 33
0.0
  0
MTEXT
  5
57AB
330
5446
100
AcDbEntity
  8
AM_5
100
AcDbMText
 10
722.7989910982274
 20
522.4110827517135
 30
0.0
 40
3.5
 41
0.0
 71
     5
 72
     1
  1
9
 73
     1
 44
1.0
1001
ACAD
1000
MTEXTBEGIN
1070
    73
1070
     1
1070
    44
1040
1.0
1070
    74
1070
     0
1000
MTEXTEND
  0
POINT
  5
57AC
330
5446
100
AcDbEntity
  8
Defpoints
 62
     0
370
     0
100
AcDbPoint
 10
727.2989910982276
 20
507.6610827517135
 30
0.0
  0
POINT
  5
57AD
330
5446
100
AcDbEntity
  8
Defpoints
 62
     0
370
     0
100
AcDbPoint
 10
718.2989910982273
 20
489.3031085411714
 30
0.0
  0
POINT
  5
57AE
330
5446
100
AcDbEntity
  8
Defpoints
 62
     0
370
     0
100
AcDbPoint
 10
718.2989910982273
 20
519.6610827517134
 30
0.0
  0
ENDBLK
  5
5451
330
5446
100
AcDbEntity
  8
0
370
     0
100
AcDbBlockEnd
  0
BLOCK
  5
547C
330
5472
100
AcDbEntity
  8
0
370
     0
100
AcDbBlockBegin
  2
*D58
 70
     1
 10
0.0
 20
0.0
 30
0.0
  3
*D58
  1

  0
LINE
  5
57AF
330
5472
100
AcDbEntity
  8
AM_5
100
AcDbLine
 10
718.2989910982273
 20
490.3031085411714
 30
0.0
 11
718.2989910982273
 21
520.6610827517135
 31
0.0
  0
LINE
  5
57B0
330
5472
100
AcDbEntity
  8
AM_5
100
AcDbLine
 10
696.2989910982273
 20
471.895741546487
 30
0.0
 11
696.2989910982273
 21
520.6610827517135
 31
0.0
  0
LINE
  5
57B1
330
5472
100
AcDbEntity
  8
AM_5
100
AcDbLine
 10
715.2989910982273
 20
519.6610827517134
 30
0.0
 11
699.2989910982274
 21
519.6610827517134
 31
0.0
  0
SOLID
  5
57B2
330
5472
100
AcDbEntity
  8
AM_5
370
     0
100
AcDbTrace
 10
715.2989910982273
 20
520.1610827517135
 30
0.0
 11
715.2989910982273
 21
519.1610827517134
 31
0.0
 12
718.2989910982273
 22
519.6610827517134
 32
0.0
 13
718.2989910982273
 23
519.6610827517134
 33
0.0
  0
SOLID
  5
57B3
330
5472
100
AcDbEntity
  8
AM_5
370
     0
100
AcDbTrace
 10
699.2989910982274
 20
520.1610827517135
 30
0.0
 11
699.2989910982274
 21
519.1610827517134
 31
0.0
 12
696.2989910982273
 22
519.6610827517134
 32
0.0
 13
696.2989910982273
 23
519.6610827517134
 33
0.0
  0
MTEXT
  5
57B4
330
5472
100
AcDbEntity
  8
AM_5
100
AcDbMText
 10
707.2989910982273
 20
522.4114272399024
 30
0.0
 40
3.5
 41
0.0
 71
     5
 72
     1
  1
22
 73
     1
 44
1.0
1001
ACAD
1000
MTEXTBEGIN
1070
    73
1070
     1
1070
    44
1040
1.0
1070
    74
1070
     0
1000
MTEXTEND
  0
POINT
  5
57B5
330
5472
100
AcDbEntity
  8
Defpoints
 62
     0
370
     0
100
AcDbPoint
 10
718.2989910982273
 20
489.3031085411714
 30
0.0
  0
POINT
  5
57B6
330
5472
100
AcDbEntity
  8
Defpoints
 62
     0
370
     0
100
AcDbPoint
 10
696.2989910982273
 20
470.895741546487
 30
0.0
  0
POINT
  5
57B7
330
5472
100
AcDbEntity
  8
Defpoints
 62
     0
370
     0
100
AcDbPoint
 10
696.2989910982273
 20
519.6610827517134
 30
0.0
  0
ENDBLK
  5
547D
330
5472
100
AcDbEntity
  8
0
370
     0
100
AcDbBlockEnd
  0
BLOCK
  5
54C3
330
54B7
100
AcDbEntity
  8
0
370
     0
100
AcDbBlockBegin
  2
*D59
 70
     1
 10
0.0
 20
0.0
 30
0.0
  3
*D59
  1

  0
LINE
  5
57B8
330
54B7
100
AcDbEntity
  8
AM_5
100
AcDbLine
 10
665.2989910982276
 20
509.0030607974143
 30
0.0
 11
665.2989910982276
 21
529.222486788538
 31
0.0
  0
LINE
  5
57B9
330
54B7
100
AcDbEntity
  8
AM_5
100
AcDbLine
 10
663.2989910982275
 20
520.7972894314742
 30
0.0
 11
663.2989910982275
 21
529.222486788538
 31
0.0
  0
LINE
  5
57BA
330
54B7
100
AcDbEntity
  8
AM_5
100
AcDbLine
 10
668.2989910982276
 20
528.222486788538
 30
0.0
 11
671.2989910982275
 21
528.222486788538
 31
0.0
  0
LINE
  5
57BB
330
54B7
100
AcDbEntity
  8
AM_5
100
AcDbLine
 10
660.2989910982276
 20
528.222486788538
 30
0.0
 11
653.5999064525583
 21
528.222486788538
 31
0.0
  0
LINE
  5
57BC
330
54B7
100
AcDbEntity
  8
AM_5
100
AcDbLine
 10
665.2989910982276
 20
528.222486788538
 30
0.0
 11
663.2989910982275
 21
528.222486788538
 31
0.0
  0
SOLID
  5
57BD
330
54B7
100
AcDbEntity
  8
AM_5
370
     0
100
AcDbTrace
 10
668.2989910982276
 20
528.722486788538
 30
0.0
 11
668.2989910982276
 21
527.722486788538
 31
0.0
 12
665.2989910982276
 22
528.222486788538
 32
0.0
 13
665.2989910982276
 23
528.222486788538
 33
0.0
  0
SOLID
  5
57BE
330
54B7
100
AcDbEntity
  8
AM_5
370
     0
100
AcDbTrace
 10
660.2989910982276
 20
528.722486788538
 30
0.0
 11
660.2989910982276
 21
527.722486788538
 31
0.0
 12
663.2989910982275
 22
528.222486788538
 32
0.0
 13
663.2989910982275
 23
528.222486788538
 33
0.0
  0
MTEXT
  5
57BF
330
54B7
100
AcDbEntity
  8
AM_5
100
AcDbMText
 10
655.4494487753929
 20
530.9728312767269
 30
0.0
 40
3.5
 41
0.0
 71
     5
 72
     1
  1
2
 73
     1
 44
1.0
1001
ACAD
1000
MTEXTBEGIN
1070
    73
1070
     1
1070
    44
1040
1.0
1070
    74
1070
     0
1000
MTEXTEND
  0
POINT
  5
57C0
330
54B7
100
AcDbEntity
  8
Defpoints
 62
     0
370
     0
100
AcDbPoint
 10
665.2989910982276
 20
508.0030607974143
 30
0.0
  0
POINT
  5
57C1
330
54B7
100
AcDbEntity
  8
Defpoints
 62
     0
370
     0
100
AcDbPoint
 10
663.2989910982275
 20
519.7972894314743
 30
0.0
  0
POINT
  5
57C2
330
54B7
100
AcDbEntity
  8
Defpoints
 62
     0
370
     0
100
AcDbPoint
 10
663.2989910982275
 20
528.222486788538
 30
0.0
  0
ENDBLK
  5
54C4
330
54B7
100
AcDbEntity
  8
0
370
     0
100
AcDbBlockEnd
  0
BLOCK
  5
54EF
330
54E3
100
AcDbEntity
  8
0
370
     0
100
AcDbBlockBegin
  2
*D60
 70
     1
 10
0.0
 20
0.0
 30
0.0
  3
*D60
  1

  0
LINE
  5
57C3
330
54E3
100
AcDbEntity
  8
AM_5
100
AcDbLine
 10
666.2989910982275
 20
508.3872190956206
 30
0.0
 11
666.2989910982275
 21
535.7224867885374
 31
0.0
  0
LINE
  5
57C4
330
54E3
100
AcDbEntity
  8
AM_5
100
AcDbLine
 10
663.2989910982275
 20
520.7972894314742
 30
0.0
 11
663.2989910982275
 21
535.7224867885374
 31
0.0
  0
LINE
  5
57C5
330
54E3
100
AcDbEntity
  8
AM_5
100
AcDbLine
 10
669.2989910982276
 20
534.7224867885374
 30
0.0
 11
672.2989910982276
 21
534.7224867885374
 31
0.0
  0
LINE
  5
57C6
330
54E3
100
AcDbEntity
  8
AM_5
100
AcDbLine
 10
660.2989910982276
 20
534.7224867885374
 30
0.0
 11
653.754016351397
 21
534.7224867885374
 31
0.0
  0
LINE
  5
57C7
330
54E3
100
AcDbEntity
  8
AM_5
100
AcDbLine
 10
666.2989910982275
 20
534.7224867885374
 30
0.0
 11
663.2989910982275
 21
534.7224867885374
 31
0.0
  0
SOLID
  5
57C8
330
54E3
100
AcDbEntity
  8
AM_5
370
     0
100
AcDbTrace
 10
669.2989910982276
 20
535.2224867885374
 30
0.0
 11
669.2989910982276
 21
534.2224867885374
 31
0.0
 12
666.2989910982275
 22
534.7224867885374
 32
0.0
 13
666.2989910982275
 23
534.7224867885374
 33
0.0
  0
SOLID
  5
57C9
330
54E3
100
AcDbEntity
  8
AM_5
370
     0
100
AcDbTrace
 10
660.2989910982276
 20
535.2224867885374
 30
0.0
 11
660.2989910982276
 21
534.2224867885374
 31
0.0
 12
663.2989910982275
 22
534.7224867885374
 32
0.0
 13
663.2989910982275
 23
534.7224867885374
 33
0.0
  0
MTEXT
  5
57CA
330
54E3
100
AcDbEntity
  8
AM_5
100
AcDbMText
 10
655.5265037248123
 20
537.4724867885374
 30
0.0
 40
3.5
 41
0.0
 71
     5
 72
     1
  1
3
 73
     1
 44
1.0
1001
ACAD
1000
MTEXTBEGIN
1070
    73
1070
     1
1070
    44
1040
1.0
1070
    74
1070
     0
1000
MTEXTEND
  0
POINT
  5
57CB
330
54E3
100
AcDbEntity
  8
Defpoints
 62
     0
370
     0
100
AcDbPoint
 10
666.2989910982275
 20
507.3872190956207
 30
0.0
  0
POINT
  5
57CC
330
54E3
100
AcDbEntity
  8
Defpoints
 62
     0
370
     0
100
AcDbPoint
 10
663.2989910982275
 20
519.7972894314743
 30
0.0
  0
POINT
  5
57CD
330
54E3
100
AcDbEntity
  8
Defpoints
 62
     0
370
     0
100
AcDbPoint
 10
663.2989910982275
 20
534.7224867885374
 30
0.0
  0
ENDBLK
  5
54F0
330
54E3
100
AcDbEntity
  8
0
370
     0
100
AcDbBlockEnd
  0
BLOCK
  5
5519
330
550F
100
AcDbEntity
  8
0
370
     0
100
AcDbBlockBegin
  2
*D61
 70
     1
 10
0.0
 20
0.0
 30
0.0
  3
*D61
  1

  0
LINE
  5
57CE
330
550F
100
AcDbEntity
  8
AM_5
100
AcDbLine
 10
605.0907215893494
 20
377.7540242337784
 30
0.0
 11
624.5012838620112
 21
344.1339441740485
 31
0.0
  0
LINE
  5
57CF
330
550F
100
AcDbEntity
  8
AM_5
100
AcDbLine
 10
594.6984167439359
 20
371.7540242337782
 30
0.0
 11
614.1089790165977
 21
338.1339441740483
 31
0.0
  0
LINE
  5
57D0
330
550F
100
AcDbEntity
  8
AM_5
100
AcDbLine
 10
621.4032076506579
 20
343.499969577833
 30
0.0
 11
616.2070552279509
 21
340.4999695778328
 31
0.0
  0
SOLID
  5
57D1
330
550F
100
AcDbEntity
  8
AM_5
370
     0
100
AcDbTrace
 10
621.1532076506578
 20
343.9329822797252
 30
0.0
 11
621.6532076506579
 21
343.0669568759408
 31
0.0
 12
624.0012838620112
 22
344.999969577833
 32
0.0
 13
624.0012838620112
 23
344.999969577833
 33
0.0
  0
SOLID
  5
57D2
330
550F
100
AcDbEntity
  8
AM_5
370
     0
100
AcDbTrace
 10
615.9570552279509
 20
340.932982279725
 30
0.0
 11
616.4570552279509
 21
340.0669568759406
 31
0.0
 12
613.6089790165977
 22
338.9999695778328
 32
0.0
 13
613.6089790165977
 23
338.9999695778328
 33
0.0
  0
MTEXT
  5
57D3
330
550F
100
AcDbEntity
  8
AM_5
100
AcDbMText
 10
617.4299591952099
 20
344.381837773763
 30
0.0
 40
3.5
 41
0.0
 71
     5
 72
     1
  1
12
 11
0.866025403784439
 21
0.4999999999999996
 31
0.0
 73
     1
 44
1.0
1001
ACAD
1000
MTEXTBEGIN
1070
    73
1070
     1
1070
    44
1040
1.0
1070
    74
1070
     0
1000
MTEXTEND
  0
POINT
  5
57D4
330
550F
100
AcDbEntity
  8
Defpoints
 62
     0
370
     0
100
AcDbPoint
 10
604.5907215893493
 20
378.6200496375628
 30
0.0
  0
POINT
  5
57D5
330
550F
100
AcDbEntity
  8
Defpoints
 62
     0
370
     0
100
AcDbPoint
 10
594.1984167439358
 20
372.6200496375627
 30
0.0
  0
POINT
  5
57D6
330
550F
100
AcDbEntity
  8
Defpoints
 62
     0
370
     0
100
AcDbPoint
 10
613.6089790165977
 20
338.9999695778328
 30
0.0
  0
ENDBLK
  5
551A
330
550F
100
AcDbEntity
  8
0
370
     0
100
AcDbBlockEnd
  0
BLOCK
  5
5543
330
5537
100
AcDbEntity
  8
0
370
     0
100
AcDbBlockBegin
  2
*D62
 70
     1
 10
0.0
 20
0.0
 30
0.0
  3
*D62
  1

  0
LINE
  5
57D7
330
5537
100
AcDbEntity
  8
AM_5
100
AcDbLine
 10
590.8013024269061
 20
369.5040242337774
 30
0.0
 11
610.2118646995664
 21
335.8839441740483
 31
0.0
  0
LINE
  5
57D8
330
5537
100
AcDbEntity
  8
AM_5
100
AcDbLine
 10
594.6984167439361
 20
371.7540242337783
 30
0.0
 11
614.1089790165968
 21
338.1339441740484
 31
0.0
  0
LINE
  5
57D9
330
5537
100
AcDbEntity
  8
AM_5
100
AcDbLine
 10
616.2070552279502
 20
340.4999695778328
 30
0.0
 11
618.8051314393035
 21
341.9999695778328
 31
0.0
  0
LINE
  5
57DA
330
5537
100
AcDbEntity
  8
AM_5
100
AcDbLine
 10
607.113788488213
 20
335.2499695778328
 30
0.0
 11
598.1114762857591
 21
330.0524822044173
 31
0.0
  0
LINE
  5
57DB
330
5537
100
AcDbEntity
  8
AM_5
100
AcDbLine
 10
613.6089790165968
 20
338.9999695778329
 30
0.0
 11
609.7118646995664
 21
336.7499695778328
 31
0.0
  0
SOLID
  5
57DC
330
5537
100
AcDbEntity
  8
AM_5
370
     0
100
AcDbTrace
 10
615.9570552279501
 20
340.932982279725
 30
0.0
 11
616.4570552279501
 21
340.0669568759405
 31
0.0
 12
613.6089790165968
 22
338.9999695778329
 32
0.0
 13
613.6089790165968
 23
338.9999695778329
 33
0.0
  0
SOLID
  5
57DD
330
5537
100
AcDbEntity
  8
AM_5
370
     0
100
AcDbTrace
 10
606.863788488213
 20
335.682982279725
 30
0.0
 11
607.3637884882129
 21
334.8169568759406
 31
0.0
 12
609.7118646995664
 22
336.7499695778328
 32
0.0
 13
609.7118646995664
 23
336.7499695778328
 33
0.0
  0
MTEXT
  5
57DE
330
5537
100
AcDbEntity
  8
AM_5
100
AcDbMText
 10
599.9385942813091
 20
334.2827957515321
 30
0.0
 40
3.5
 41
0.0
 71
     5
 72
     1
  1
4.5
 11
0.8660254037844522
 21
0.4999999999999764
 31
0.0
 73
     1
 44
1.0
1001
ACAD
1000
MTEXTBEGIN
1070
    73
1070
     1
1070
    44
1040
1.0
1070
    74
1070
     0
1000
MTEXTEND
  0
POINT
  5
57DF
330
5537
100
AcDbEntity
  8
Defpoints
 62
     0
370
     0
100
AcDbPoint
 10
590.3013024269061
 20
370.3700496375619
 30
0.0
  0
POINT
  5
57E0
330
5537
100
AcDbEntity
  8
Defpoints
 62
     0
370
     0
100
AcDbPoint
 10
594.1984167439361
 20
372.6200496375628
 30
0.0
  0
POINT
  5
57E1
330
5537
100
AcDbEntity
  8
Defpoints
 62
     0
370
     0
100
AcDbPoint
 10
613.6089790165968
 20
338.9999695778329
 30
0.0
  0
ENDBLK
  5
5544
330
5537
100
AcDbEntity
  8
0
370
     0
100
AcDbBlockEnd
  0
BLOCK
  5
55B2
330
55AC
100
AcDbEntity
  8
0
370
     0
100
AcDbBlockBegin
  2
*D63
 70
     1
 10
0.0
 20
0.0
 30
0.0
  3
*D63
  1

  0
LINE
  5
57E2
330
55AC
100
AcDbEntity
  8
AM_5
100
AcDbLine
 10
564.6718447855622
 20
388.707411955058
 30
0.0
 11
554.9942942822614
 21
407.0794888288039
 31
0.0
  0
LINE
  5
57E3
330
55AC
100
AcDbEntity
  8
AM_5
100
AcDbLine
 10
554.9942942822614
 20
407.0794888288039
 30
0.0
 11
525.4929810653246
 21
407.0794888288039
 31
0.0
  0
SOLID
  5
57E4
330
55AC
100
AcDbEntity
  8
AM_5
370
     0
100
AcDbTrace
 10
565.1142241175183
 20
388.9404366890628
 30
0.0
 11
564.229465453606
 21
388.474387221053
 31
0.0
 12
566.0699931895915
 22
386.0531359633212
 32
0.0
 13
566.0699931895915
 23
386.0531359633212
 33
0.0
  0
MTEXT
  5
57E5
330
55AC
100
AcDbEntity
  8
AM_5
100
AcDbMText
 10
539.7436376737927
 20
413.1819637389015
 30
0.0
 40
3.5
 41
0.0
 71
     5
 72
     1
  1
3-\U+22055.5\P%%c9.5*9.5depth
 73
     1
 44
1.0
1001
ACAD
1000
MTEXTBEGIN
1070
    73
1070
     1
1070
    44
1040
1.0
1070
    74
1070
     0
1000
MTEXTEND
  0
POINT
  5
57E6
330
55AC
100
AcDbEntity
  8
Defpoints
 62
     0
370
     0
100
AcDbPoint
 10
566.0699931895915
 20
386.0531359633212
 30
0.0
  0
POINT
  5
57E7
330
55AC
100
AcDbEntity
  8
Defpoints
 62
     0
370
     0
100
AcDbPoint
 10
568.6332652636451
 20
381.1869633118039
 30
0.0
  0
ENDBLK
  5
55B3
330
55AC
100
AcDbEntity
  8
0
370
     0
100
AcDbBlockEnd
  0
BLOCK
  5
5612
330
5606
100
AcDbEntity
  8
0
370
     0
100
AcDbBlockBegin
  2
*D64
 70
     1
 10
0.0
 20
0.0
 30
0.0
  3
*D64
  1

  0
LINE
  5
57E8
330
5606
100
AcDbEntity
  8
AM_5
100
AcDbLine
 10
523.3493971430735
 20
377.9059480224252
 30
0.0
 11
513.7353519998705
 21
383.4566195738547
 31
0.0
  0
LINE
  5
57E9
330
5606
100
AcDbEntity
  8
AM_5
100
AcDbLine
 10
527.3493971430735
 20
384.8341512527006
 30
0.0
 11
517.7353519998705
 21
390.3848228041302
 31
0.0
  0
LINE
  5
57EA
330
5606
100
AcDbEntity
  8
AM_5
100
AcDbLine
 10
516.101377403655
 20
385.554695785208
 30
0.0
 11
517.1013774036549
 21
387.2867465927769
 31
0.0
  0
SOLID
  5
57EB
330
5606
100
AcDbEntity
  8
AM_5
370
     0
100
AcDbTrace
 10
515.6683647017627
 20
385.804695785208
 30
0.0
 11
516.5343901055471
 21
385.304695785208
 31
0.0
 12
514.6013774036549
 22
382.9566195738547
 32
0.0
 13
514.6013774036549
 23
382.9566195738547
 33
0.0
  0
SOLID
  5
57EC
330
5606
100
AcDbEntity
  8
AM_5
370
     0
100
AcDbTrace
 10
516.6683647017626
 20
387.5367465927769
 30
0.0
 11
517.534390105547
 21
387.0367465927769
 31
0.0
 12
518.6013774036549
 22
389.8848228041302
 32
0.0
 13
518.6013774036549
 23
389.8848228041302
 33
0.0
  0
MTEXT
  5
57ED
330
5606
100
AcDbEntity
  8
AM_5
100
AcDbMText
 10
514.2519953863564
 20
387.8514721686426
 30
0.0
 40
3.5
 41
0.0
 71
     5
 72
     1
  1
8
 11
0.500000000000002
 21
0.8660254037844374
 31
0.0
 73
     1
 44
1.0
1001
ACAD
1000
MTEXTBEGIN
1070
    73
1070
     1
1070
    44
1040
1.0
1070
    74
1070
     0
1000
MTEXTEND
  0
POINT
  5
57EE
330
5606
100
AcDbEntity
  8
Defpoints
 62
     0
370
     0
100
AcDbPoint
 10
524.215422546858
 20
377.4059480224252
 30
0.0
  0
POINT
  5
57EF
330
5606
100
AcDbEntity
  8
Defpoints
 62
     0
370
     0
100
AcDbPoint
 10
528.215422546858
 20
384.3341512527006
 30
0.0
  0
POINT
  5
57F0
330
5606
100
AcDbEntity
  8
Defpoints
 62
     0
370
     0
100
AcDbPoint
 10
518.6013774036549
 20
389.8848228041302
 30
0.0
  0
ENDBLK
  5
5613
330
5606
100
AcDbEntity
  8
0
370
     0
100
AcDbBlockEnd
  0
BLOCK
  5
564B
330
5642
100
AcDbEntity
  8
0
370
     0
100
AcDbBlockBegin
  2
*D66
 70
     1
 10
0.0
 20
0.0
 30
0.0
  3
*D66
  1

  0
LINE
  5
57F1
330
5642
100
AcDbEntity
  8
AM_5
100
AcDbLine
 10
598.6692425882767
 20
371.1092273592754
 30
0.0
 11
601.4083924449815
 21
372.3327706002416
 31
0.0
  0
LINE
  5
57F2
330
5642
100
AcDbEntity
  8
AM_5
100
AcDbLine
 10
536.0340158649598
 20
343.13087191585
 30
0.0
 11
533.2948660082548
 21
341.9073286748838
 31
0.0
  0
LINE
  5
57F3
330
5642
100
AcDbEntity
  8
AM_5
100
AcDbLine
 10
533.2948660082548
 20
341.9073286748838
 30
0.0
 11
521.6212439610107
 21
341.9073286748838
 31
0.0
  0
LINE
  5
57F4
330
5642
100
AcDbEntity
  8
AM_5
100
AcDbLine
 10
595.9300927315719
 20
369.8856841183093
 30
0.0
 11
538.7731657216646
 21
344.3544151568161
 31
0.0
  0
SOLID
  5
57F5
330
5642
100
AcDbEntity
  8
AM_5
370
     0
100
AcDbTrace
 10
598.4653187147824
 20
371.5657523353929
 30
0.0
 11
598.8731664617711
 21
370.652702383158
 31
0.0
 12
595.9300927315719
 22
369.8856841183093
 32
0.0
 13
595.9300927315719
 23
369.8856841183093
 33
0.0
  0
SOLID
  5
57F6
330
5642
100
AcDbEntity
  8
AM_5
370
     0
100
AcDbTrace
 10
535.8300919914654
 20
343.5873968919675
 30
0.0
 11
536.2379397384541
 21
342.6743469397325
 31
0.0
 12
538.7731657216646
 22
344.3544151568161
 32
0.0
 13
538.7731657216646
 23
344.3544151568161
 33
0.0
  0
MTEXT
  5
57F7
330
5642
100
AcDbEntity
  8
AM_5
100
AcDbMText
 10
526.9580549846327
 20
344.6576731630728
 30
0.0
 40
3.5
 41
0.0
 71
     5
 72
     1
  1
\U+220562.6
 73
     1
 44
1.0
1001
ACAD
1000
MTEXTBEGIN
1070
    73
1070
     1
1070
    44
1040
1.0
1070
    74
1070
     0
1000
MTEXTEND
  0
POINT
  5
57F8
330
5642
100
AcDbEntity
  8
Defpoints
 62
     0
370
     0
100
AcDbPoint
 10
538.7731657216646
 20
344.3544151568161
 30
0.0
  0
POINT
  5
57F9
330
5642
100
AcDbEntity
  8
Defpoints
 62
     0
370
     0
100
AcDbPoint
 10
595.9300927315719
 20
369.8856841183093
 30
0.0
  0
ENDBLK
  5
564C
330
5642
100
AcDbEntity
  8
0
370
     0
100
AcDbBlockEnd
  0
BLOCK
  5
5688
330
567F
100
AcDbEntity
  8
0
370
     0
100
AcDbBlockBegin
  2
*D68
 70
     1
 10
0.0
 20
0.0
 30
0.0
  3
*D68
  1

  0
LINE
  5
57FA
330
567F
100
AcDbEntity
  8
AM_5
100
AcDbLine
 10
596.8420782961152
 20
389.7745043670393
 30
0.0
 11
598.8527907326718
 21
392.0009444622309
 31
0.0
  0
LINE
  5
57FB
330
567F
100
AcDbEntity
  8
AM_5
100
AcDbLine
 10
537.8611801571221
 20
324.4655949080859
 30
0.0
 11
535.8504677205652
 21
322.2391548128941
 31
0.0
  0
LINE
  5
57FC
330
567F
100
AcDbEntity
  8
AM_5
100
AcDbLine
 10
535.8504677205652
 20
322.2391548128941
 30
0.0
 11
527.6402610276518
 21
322.2391548128942
 31
0.0
  0
LINE
  5
57FD
330
567F
100
AcDbEntity
  8
AM_5
100
AcDbLine
 10
594.8313658595585
 20
387.5480642718477
 30
0.0
 11
539.8718925936787
 21
326.6920350032776
 31
0.0
  0
SOLID
  5
57FE
330
567F
100
AcDbEntity
  8
AM_5
370
     0
100
AcDbTrace
 10
596.4710049469165
 20
390.1096231064654
 30
0.0
 11
597.2131516453138
 21
389.4393856276132
 31
0.0
 12
594.8313658595585
 22
387.5480642718477
 32
0.0
 13
594.8313658595585
 23
387.5480642718477
 33
0.0
  0
SOLID
  5
57FF
330
567F
100
AcDbEntity
  8
AM_5
370
     0
100
AcDbTrace
 10
537.4901068079234
 20
324.8007136475121
 30
0.0
 11
538.2322535063207
 21
324.1304761686599
 31
0.0
 12
539.8718925936787
 22
326.6920350032776
 32
0.0
 13
539.8718925936787
 23
326.6920350032776
 33
0.0
  0
MTEXT
  5
5800
330
567F
100
AcDbEntity
  8
AM_5
100
AcDbMText
 10
531.2453643741084
 20
324.9894993010831
 30
0.0
 40
3.5
 41
0.0
 71
     5
 72
     1
  1
\U+220582
 73
     1
 44
1.0
1001
ACAD
1000
MTEXTBEGIN
1070
    73
1070
     1
1070
    44
1040
1.0
1070
    74
1070
     0
1000
MTEXTEND
  0
POINT
  5
5801
330
567F
100
AcDbEntity
  8
Defpoints
 62
     0
370
     0
100
AcDbPoint
 10
539.8718925936787
 20
326.6920350032776
 30
0.0
  0
POINT
  5
5802
330
567F
100
AcDbEntity
  8
Defpoints
 62
     0
370
     0
100
AcDbPoint
 10
594.8313658595585
 20
387.5480642718477
 30
0.0
  0
ENDBLK
  5
5689
330
567F
100
AcDbEntity
  8
0
370
     0
100
AcDbBlockEnd
  0
BLOCK
  5
56C1
330
56B7
100
AcDbEntity
  8
0
370
     0
100
AcDbBlockBegin
  2
*D69
 70
     1
 10
0.0
 20
0.0
 30
0.0
  3
*D69
  1

  0
LINE
  5
5803
330
56B7
100
AcDbEntity
  8
AM_5
100
AcDbLine
 10
558.3516292266183
 20
308.6200496375628
 30
0.0
 11
558.3516292266183
 21
296.6200496375628
 31
0.0
  0
LINE
  5
5804
330
56B7
100
AcDbEntity
  8
AM_5
100
AcDbLine
 10
576.3516292266183
 20
308.6200496375628
 30
0.0
 11
576.3516292266183
 21
296.6200496375628
 31
0.0
  0
LINE
  5
5805
330
56B7
100
AcDbEntity
  8
AM_5
100
AcDbLine
 10
561.3516292266183
 20
297.6200496375628
 30
0.0
 11
573.3516292266183
 21
297.6200496375628
 31
0.0
  0
SOLID
  5
5806
330
56B7
100
AcDbEntity
  8
AM_5
370
     0
100
AcDbTrace
 10
561.3516292266183
 20
298.1200496375628
 30
0.0
 11
561.3516292266183
 21
297.1200496375628
 31
0.0
 12
558.3516292266183
 22
297.6200496375628
 32
0.0
 13
558.3516292266183
 23
297.6200496375628
 33
0.0
  0
SOLID
  5
5807
330
56B7
100
AcDbEntity
  8
AM_5
370
     0
100
AcDbTrace
 10
573.3516292266183
 20
298.1200496375628
 30
0.0
 11
573.3516292266183
 21
297.1200496375628
 31
0.0
 12
576.3516292266183
 22
297.6200496375628
 32
0.0
 13
576.3516292266183
 23
297.6200496375628
 33
0.0
  0
MTEXT
  5
5808
330
56B7
100
AcDbEntity
  8
AM_5
100
AcDbMText
 10
567.3516292266183
 20
300.3700496375628
 30
0.0
 40
3.5
 41
0.0
 71
     5
 72
     1
  1
18
 73
     1
 44
1.0
1001
ACAD
1000
MTEXTBEGIN
1070
    73
1070
     1
1070
    44
1040
1.0
1070
    74
1070
     0
1000
MTEXTEND
  0
POINT
  5
5809
330
56B7
100
AcDbEntity
  8
Defpoints
 62
     0
370
     0
100
AcDbPoint
 10
558.3516292266183
 20
309.6200496375628
 30
0.0
  0
POINT
  5
580A
330
56B7
100
AcDbEntity
  8
Defpoints
 62
     0
370
     0
100
AcDbPoint
 10
576.3516292266183
 20
309.6200496375628
 30
0.0
  0
POINT
  5
580B
330
56B7
100
AcDbEntity
  8
Defpoints
 62
     0
370
     0
100
AcDbPoint
 10
576.3516292266183
 20
297.6200496375628
 30
0.0
  0
ENDBLK
  5
56C2
330
56B7
100
AcDbEntity
  8
0
370
     0
100
AcDbBlockEnd
  0
BLOCK
  5
56E5
330
56DB
100
AcDbEntity
  8
0
370
     0
100
AcDbBlockBegin
  2
*D70
 70
     1
 10
0.0
 20
0.0
 30
0.0
  3
*D70
  1

  0
LINE
  5
580C
330
56DB
100
AcDbEntity
  8
AM_5
100
AcDbLine
 10
552.3516292266186
 20
317.9624815808848
 30
0.0
 11
552.3516292266186
 21
290.120049637562
 31
0.0
  0
LINE
  5
580D
330
56DB
100
AcDbEntity
  8
AM_5
100
AcDbLine
 10
582.3516292266228
 20
317.9624815808866
 30
0.0
 11
582.3516292266228
 21
290.120049637562
 31
0.0
  0
LINE
  5
580E
330
56DB
100
AcDbEntity
  8
AM_5
100
AcDbLine
 10
555.3516292266185
 20
291.120049637562
 30
0.0
 11
579.3516292266229
 21
291.120049637562
 31
0.0
  0
SOLID
  5
580F
330
56DB
100
AcDbEntity
  8
AM_5
370
     0
100
AcDbTrace
 10
555.3516292266185
 20
291.6200496375619
 30
0.0
 11
555.3516292266185
 21
290.620049637562
 31
0.0
 12
552.3516292266186
 22
291.120049637562
 32
0.0
 13
552.3516292266186
 23
291.120049637562
 33
0.0
  0
SOLID
  5
5810
330
56DB
100
AcDbEntity
  8
AM_5
370
     0
100
AcDbTrace
 10
579.3516292266229
 20
291.6200496375619
 30
0.0
 11
579.3516292266229
 21
290.620049637562
 31
0.0
 12
582.3516292266228
 22
291.120049637562
 32
0.0
 13
582.3516292266228
 23
291.120049637562
 33
0.0
  0
MTEXT
  5
5811
330
56DB
100
AcDbEntity
  8
AM_5
100
AcDbMText
 10
567.3516292266207
 20
293.870049637562
 30
0.0
 40
3.5
 41
0.0
 71
     5
 72
     1
  1
30
 73
     1
 44
1.0
1001
ACAD
1000
MTEXTBEGIN
1070
    73
1070
     1
1070
    44
1040
1.0
1070
    74
1070
     0
1000
MTEXTEND
  0
POINT
  5
5812
330
56DB
100
AcDbEntity
  8
Defpoints
 62
     0
370
     0
100
AcDbPoint
 10
552.3516292266186
 20
318.9624815808847
 30
0.0
  0
POINT
  5
5813
330
56DB
100
AcDbEntity
  8
Defpoints
 62
     0
370
     0
100
AcDbPoint
 10
582.3516292266228
 20
318.9624815808866
 30
0.0
  0
POINT
  5
5814
330
56DB
100
AcDbEntity
  8
Defpoints
 62
     0
370
     0
100
AcDbPoint
 10
582.3516292266228
 20
291.120049637562
 30
0.0
  0
ENDBLK
  5
56E6
330
56DB
100
AcDbEntity
  8
0
370
     0
100
AcDbBlockEnd
  0
ENDSEC
  0
SECTION
  2
ENTITIES
  0
LWPOLYLINE
  5
1C11
330
A
100
AcDbEntity
  8
0
 62
     4
100
AcDbPolyline
 90
        4
 70
     1
 43
0.0
 10
464.6419655177434
 20
262.3588302750966
 10
921.3982655177433
 20
262.3588302750966
 10
921.3982655177433
 20
561.3314002139191
 10
464.6419655177434
 20
561.3314002139191
1001
GENIUS_GENREC_14
1002
{
1000
PYDIR
1011
464.6419655177434
1021
561.3314002139191
1031
0.0
1002
}
1002
{
1000
PXDIR
1011
921.3982655177433
1021
262.3588302750966
1031
0.0
1002
}
1002
{
1000
PORI
1011
464.6419655177434
1021
262.3588302750966
1031
0.0
1002
}
1002
{
1000
PINS
1011
464.6419655177434
1021
262.3588302750966
1031
0.0
1002
}
1002
{
1000
PINS2
1011
921.3982655177433
1021
561.3314002139191
1031
0.0
1002
}
1002
{
1000
C
1070
     1
1002
}
1001
GENIUS_GENODEF_13
1002
{
1000
HIER
1070
     0
1002
}
1002
{
1000
MANEDIT
1070
     0
1002
}
1002
{
1000
NOSEL
1070
     0
1002
}
1002
{
1000
BEHIND
1070
     0
1002
}
1002
{
1000
OTHER
1070
     0
1002
}
1002
{
1000
REACTOR
1002
}
1001
GENIUS_GENOBJ-N-REC_13
1002
{
1000
OWNER
1000
GEN
1002
}
  0
LWPOLYLINE
  5
1C12
330
A
100
AcDbEntity
  8
LOGO
 62
     4
100
AcDbPolyline
 90
        4
 70
     1
 43
0.0
 10
464.6419655177434
 20
262.3588302750966
 10
921.3982655177433
 20
262.3588302750966
 10
921.3982655177433
 20
231.6999102186255
 10
464.6419655177434
 20
231.6999102186255
1001
GENIUS_GENREC_14
1002
{
1000
PYDIR
1011
464.6419655177434
1021
231.6999102186255
1031
0.0
1002
}
1002
{
1000
PXDIR
1011
921.3982655177433
1021
262.3588302750966
1031
0.0
1002
}
1002
{
1000
PORI
1011
464.6419655177434
1021
262.3588302750966
1031
0.0
1002
}
1002
{
1000
PINS
1011
464.6419655177434
1021
262.3588302750966
1031
0.0
1002
}
1002
{
1000
PINS2
1011
921.3982655177433
1021
231.6999102186255
1031
0.0
1002
}
1002
{
1000
C
1070
     1
1002
}
1001
GENIUS_GENOBJ-N-REC_13
1002
{
1000
OWNER
1000
GEN
1002
}
1001
GENIUS_GENODEF_13
1002
{
1000
HIER
1070
     0
1002
}
1002
{
1000
MANEDIT
1070
     0
1002
}
1002
{
1000
NOSEL
1070
     0
1002
}
1002
{
1000
BEHIND
1070
     0
1002
}
1002
{
1000
OTHER
1070
     0
1002
}
1002
{
1000
REACTOR
1002
}
  0
LINE
  5
1C13
330
A
100
AcDbEntity
  8
LOGO
 62
     4
100
AcDbLine
 10
594.7008535053526
 20
245.4964242440381
 30
0.0
 11
594.7008535053526
 21
234.2548202233317
 31
0.0
  0
LINE
  5
1C14
330
A
100
AcDbEntity
  8
LOGO
 62
     4
100
AcDbLine
 10
574.2615734677054
 20
245.4964242440381
 30
0.0
 11
574.2615734677054
 21
234.2548202233317
 31
0.0
  0
LINE
  5
1C15
330
A
100
AcDbEntity
  8
LOGO
 62
     4
100
AcDbLine
 10
594.7008535053526
 20
234.2548202233317
 30
0.0
 11
574.2615734677054
 21
234.2548202233317
 31
0.0
  0
LINE
  5
1C16
330
A
100
AcDbEntity
  8
LOGO
 62
     4
100
AcDbLine
 10
604.2170583500182
 20
259.2929382694493
 30
0.0
 11
574.2615734677054
 21
259.2929382694493
 31
0.0
  0
LINE
  5
1C17
330
A
100
AcDbEntity
  8
LOGO
 62
     4
100
AcDbLine
 10
604.2170583500182
 20
250.0952622525083
 30
0.0
 11
574.2615734677054
 21
250.0952622525083
 31
0.0
  0
LINE
  5
1C18
330
A
100
AcDbEntity
  8
LOGO
 62
     4
100
AcDbLine
 10
574.2615734677054
 20
259.2929382694493
 30
0.0
 11
574.2615734677054
 21
250.0952622525083
 31
0.0
  0
LINE
  5
1C19
330
A
100
AcDbEntity
  8
LOGO
 62
     4
100
AcDbLine
 10
604.2170583500182
 20
259.2929382694493
 30
0.0
 11
604.2170583500182
 21
250.0952622525083
 31
0.0
  0
LINE
  5
1C1A
330
A
100
AcDbEntity
  8
LOGO
 62
     4
100
AcDbLine
 10
585.5476305331807
 20
250.0952622525083
 30
0.0
 11
585.5476305331807
 21
245.4964242440381
 31
0.0
  0
TEXT
  5
1C1B
330
A
100
AcDbEntity
  8
LOGO
  6
Continuous
100
AcDbText
 10
575.7937375528816
 20
252.7252401378273
 30
0.0
 40
4.664399999999999
  1
MCHG2L
  7
CHINESET
100
AcDbText
  0
LINE
  5
1C1C
330
A
100
AcDbEntity
  8
LOGO
 62
     4
100
AcDbLine
 10
594.7008535053526
 20
245.4964242440381
 30
0.0
 11
574.2615734677054
 21
245.4964242440381
 31
0.0
  0
TEXT
  5
1C1D
330
A
100
AcDbEntity
  8
LOGO
  6
Continuous
100
AcDbText
 10
580.8204737220104
 20
235.8415487924793
 30
200.933511288084
 40
2.299751999999999
  1
Model
 41
0.8
  7
CHINESET
100
AcDbText
  0
TEXT
  5
1C1E
330
A
100
AcDbEntity
  8
LOGO
100
AcDbText
 10
580.2083544999499
 20
240.104793368549
 30
200.933511288084
 40
3.83292
  1
型號
  7
CHINESET
100
AcDbText
  0
LINE
  5
1C1F
330
A
100
AcDbEntity
  8
LOGO
  6
Continuous
100
AcDbLine
 10
605.5202640613461
 20
254.6615206389505
 30
0.0
 11
609.5816221821419
 21
254.6615206389505
 31
0.0
  0
LINE
  5
1C20
330
A
100
AcDbEntity
  8
LOGO
 62
     4
100
AcDbLine
 10
617.8149746532071
 20
245.4964242440381
 30
0.0
 11
617.8149746532071
 21
234.2548202233317
 31
0.0
  0
LINE
  5
1C21
330
A
100
AcDbEntity
  8
LOGO
 62
     4
100
AcDbLine
 10
597.3756946155599
 20
245.4964242440381
 30
0.0
 11
597.3756946155599
 21
234.2548202233317
 31
0.0
  0
LINE
  5
1C22
330
A
100
AcDbEntity
  8
LOGO
 62
     4
100
AcDbLine
 10
617.8149746532071
 20
234.2548202233317
 30
0.0
 11
597.3756946155599
 21
234.2548202233317
 31
0.0
  0
LINE
  5
1C23
330
A
100
AcDbEntity
  8
LOGO
 62
     4
100
AcDbLine
 10
626.5792634455482
 20
259.2929382694493
 30
0.0
 11
610.8627665822902
 21
259.2929382694493
 31
0.0
  0
LINE
  5
1C24
330
A
100
AcDbEntity
  8
LOGO
 62
     4
100
AcDbLine
 10
626.5792634455482
 20
250.0952622525083
 30
0.0
 11
610.8627665822902
 21
250.0952622525083
 31
0.0
  0
LINE
  5
1C25
330
A
100
AcDbEntity
  8
LOGO
 62
     4
100
AcDbLine
 10
610.8627665822902
 20
259.2929382694493
 30
0.0
 11
610.8627665822902
 21
250.0952622525083
 31
0.0
  0
LINE
  5
1C26
330
A
100
AcDbEntity
  8
LOGO
 62
     4
100
AcDbLine
 10
626.5792634455482
 20
259.2929382694493
 30
0.0
 11
626.5792634455482
 21
250.0952622525083
 31
0.0
  0
LINE
  5
1C27
330
A
100
AcDbEntity
  8
LOGO
 62
     4
100
AcDbLine
 10
617.9295113148823
 20
250.0952622525083
 30
0.0
 11
617.9295113148823
 21
247.7958432482732
 31
0.0
  0
TEXT
  5
1C28
330
A
100
AcDbEntity
  8
LOGO
  6
Continuous
100
AcDbText
 10
614.3393888425323
 20
252.295432227962
 30
0.0
 40
4.664399999999999
  1
40
  7
CHINESET
100
AcDbText
  0
LINE
  5
1C29
330
A
100
AcDbEntity
  8
LOGO
 62
     4
100
AcDbLine
 10
617.8149746532071
 20
245.4964242440381
 30
0.0
 11
597.3756946155599
 21
245.4964242440381
 31
0.0
  0
LINE
  5
1C2A
330
A
100
AcDbEntity
  8
LOGO
  6
Continuous
100
AcDbLine
 10
644.1863372563219
 20
254.6615206389505
 30
0.0
 11
648.2476953771183
 21
254.6615206389505
 31
0.0
  0
LINE
  5
1C2B
330
A
100
AcDbEntity
  8
LOGO
 62
     4
100
AcDbLine
 10
665.5332516170524
 20
245.4964242440381
 30
0.0
 11
665.5332516170524
 21
234.2548202233317
 31
0.0
  0
LINE
  5
1C2C
330
A
100
AcDbEntity
  8
LOGO
 62
     4
100
AcDbLine
 10
642.0040395516716
 20
245.4964242440381
 30
0.0
 11
642.0040395516716
 21
234.2548202233317
 31
0.0
  0
LINE
  5
1C2D
330
A
100
AcDbEntity
  8
LOGO
 62
     4
100
AcDbLine
 10
665.5332516170524
 20
234.2548202233317
 30
0.0
 11
642.0040395516716
 21
234.2548202233317
 31
0.0
  0
LINE
  5
1C2E
330
A
100
AcDbEntity
  8
LOGO
 62
     4
100
AcDbLine
 10
659.3149116416502
 20
259.2929382694493
 30
0.0
 11
649.5288397772658
 21
259.2929382694493
 31
0.0
  0
LINE
  5
1C2F
330
A
100
AcDbEntity
  8
LOGO
 62
     4
100
AcDbLine
 10
659.3149116416502
 20
250.0952622525083
 30
0.0
 11
649.5288397772658
 21
250.0952622525083
 31
0.0
  0
LINE
  5
1C30
330
A
100
AcDbEntity
  8
LOGO
 62
     4
100
AcDbLine
 10
649.5288397772658
 20
259.2929382694493
 30
0.0
 11
649.5288397772658
 21
250.0952622525083
 31
0.0
  0
LINE
  5
1C31
330
A
100
AcDbEntity
  8
LOGO
 62
     4
100
AcDbLine
 10
659.3149116416502
 20
259.2929382694493
 30
0.0
 11
659.3149116416502
 21
250.0952622525083
 31
0.0
  0
LINE
  5
1C32
330
A
100
AcDbEntity
  8
LOGO
 62
     4
100
AcDbLine
 10
654.4218757094579
 20
250.0952622525083
 30
0.0
 11
654.4218757094579
 21
245.4964242440381
 31
0.0
  0
LINE
  5
1C33
330
A
100
AcDbEntity
  8
LOGO
 62
     4
100
AcDbLine
 10
665.5332516170524
 20
245.4964242440381
 30
0.0
 11
642.0040395516716
 21
245.4964242440381
 31
0.0
  0
TEXT
  5
1C34
330
A
100
AcDbEntity
  8
LOGO
  6
Continuous
100
AcDbText
 10
601.6568884078558
 20
235.8415487924793
 30
200.933511288084
 40
2.299751999999999
  1
Tube I.D.
 41
0.8
  7
CHINESET
100
AcDbText
  0
TEXT
  5
1C35
330
A
100
AcDbEntity
  8
LOGO
100
AcDbText
 10
602.5841731917465
 20
240.104793368549
 30
200.933511288084
 40
3.83292
  1
內徑
  7
CHINESET
100
AcDbText
  0
TEXT
  5
1C36
330
A
100
AcDbEntity
  8
LOGO
  6
Continuous
100
AcDbText
 10
644.1414025458921
 20
235.8415487924793
 30
200.933511288084
 40
2.299751999999999
  1
Sensor switch
 41
0.8
  7
CHINESET
100
AcDbText
  0
TEXT
  5
1C37
330
A
100
AcDbEntity
  8
LOGO
100
AcDbText
 10
643.9819453021312
 20
240.104793368549
 30
200.933511288084
 40
3.83292
  1
感應器型式
  7
CHINESET
100
AcDbText
  0
LINE
  5
1C38
330
A
100
AcDbEntity
  8
LOGO
 62
     4
100
AcDbLine
 10
642.4185372554037
 20
259.2929382694493
 30
0.0
 11
627.8774932650517
 21
259.2929382694493
 31
0.0
  0
LINE
  5
1C39
330
A
100
AcDbEntity
  8
LOGO
 62
     4
100
AcDbLine
 10
642.4185372554037
 20
250.0952622525083
 30
0.0
 11
627.8774932650517
 21
250.0952622525083
 31
0.0
  0
LINE
  5
1C3A
330
A
100
AcDbEntity
  8
LOGO
 62
     4
100
AcDbLine
 10
627.8774932650517
 20
259.2929382694493
 30
0.0
 11
627.8774932650517
 21
250.0952622525083
 31
0.0
  0
LINE
  5
1C3B
330
A
100
AcDbEntity
  8
LOGO
 62
     4
100
AcDbLine
 10
642.4185372554037
 20
259.2929382694493
 30
0.0
 11
642.4185372554037
 21
250.0952622525083
 31
0.0
  0
TEXT
  5
1C3C
330
A
100
AcDbEntity
  8
LOGO
  6
Continuous
100
AcDbText
 10
629.7457078000398
 20
252.4641914820598
 30
0.0
 40
4.664399999999999
  1
(M)
  7
CHINESET
100
AcDbText
  0
LINE
  5
1C3D
330
A
100
AcDbEntity
  8
LOGO
 62
     4
100
AcDbLine
 10
638.6443400557888
 20
245.4964242440381
 30
0.0
 11
638.6443400557888
 21
234.2548202233317
 31
0.0
  0
LINE
  5
1C3E
330
A
100
AcDbEntity
  8
LOGO
 62
     4
100
AcDbLine
 10
621.9932880122757
 20
245.4964242440381
 30
0.0
 11
621.9932880122757
 21
234.2548202233317
 31
0.0
  0
LINE
  5
1C3F
330
A
100
AcDbEntity
  8
LOGO
 62
     4
100
AcDbLine
 10
638.6443400557888
 20
234.2548202233317
 30
0.0
 11
621.9932880122757
 21
234.2548202233317
 31
0.0
  0
LINE
  5
1C40
330
A
100
AcDbEntity
  8
LOGO
 62
     4
100
AcDbLine
 10
638.6443400557888
 20
245.4964242440381
 30
0.0
 11
621.9932880122757
 21
245.4964242440381
 31
0.0
  0
TEXT
  5
1C41
330
A
100
AcDbEntity
  8
LOGO
  6
Continuous
100
AcDbText
 10
625.612798198558
 20
235.8415487924793
 30
200.933511288084
 40
2.299751999999999
  1
Magnet
 41
0.8
  7
CHINESET
100
AcDbText
  0
TEXT
  5
1C42
330
A
100
AcDbEntity
  8
LOGO
100
AcDbText
 10
624.386375699843
 20
240.104793368549
 30
200.933511288084
 40
3.83292
  1
附磁石
  7
CHINESET
100
AcDbText
  0
LINE
  5
1C43
330
A
100
AcDbEntity
  8
LOGO
 62
     4
100
AcDbLine
 10
635.1480152602284
 20
250.0952622525083
 30
0.0
 11
635.1480152602284
 21
247.7958432482732
 31
0.0
  0
LINE
  5
1C44
330
A
100
AcDbEntity
  8
LOGO
 62
     4
100
AcDbLine
 10
617.9295113148823
 20
247.7958432482732
 30
0.0
 11
607.5953346343838
 21
247.7958432482732
 31
0.0
  0
LINE
  5
1C45
330
A
100
AcDbEntity
  8
LOGO
 62
     4
100
AcDbLine
 10
607.5953346343838
 20
245.4964242440381
 30
0.0
 11
607.5953346343838
 21
247.7958432482732
 31
0.0
  0
LINE
  5
1C46
330
A
100
AcDbEntity
  8
LOGO
 62
     4
100
AcDbLine
 10
635.1480152602284
 20
247.7958432482732
 30
0.0
 11
630.3188140340325
 21
247.7958432482732
 31
0.0
  0
LINE
  5
1C47
330
A
100
AcDbEntity
  8
LOGO
 62
     4
100
AcDbLine
 10
630.3188140340321
 20
245.4964242440381
 30
0.0
 11
630.3188140340325
 21
247.7958432482732
 31
0.0
  0
TEXT
  5
1C48
330
A
100
AcDbEntity
  8
LOGO
 62
     7
100
AcDbText
 10
533.8677769424609
 20
248.9276791044613
 30
0.0
 40
4.087856007529411
  1
Order example:
 41
0.8
  7
CHINESET
100
AcDbText
  0
TEXT
  5
1C49
330
A
100
AcDbEntity
  8
LOGO
 62
     7
100
AcDbText
 10
534.6011721154057
 20
254.6825339616764
 30
0.0
 40
6.131784011294116
  1
訂購代號:
  7
CHINESET
100
AcDbText
  0
LINE
  5
1C4A
330
A
100
AcDbEntity
  8
LOGO
 62
     4
100
AcDbLine
 10
532.091589641979
 20
231.6999102186258
 30
0.0
 11
532.091589641979
 21
262.3588302750966
 31
0.0
  0
TEXT
  5
1C4B
330
A
100
AcDbEntity
  8
LOGO
  6
Continuous
100
AcDbText
 10
475.6547874165399
 20
237.722808795375
 30
0.0
 40
4.598838008470588
  1
金器工業股份有限公司
  7
CHINESET
100
AcDbText
  0
TEXT
  5
1C4C
330
A
100
AcDbEntity
  8
LOGO
  6
Continuous
100
AcDbText
 10
467.207631830211
 20
233.1230697752176
 30
0.0
 40
3.065892005647058
  1
MINDMAN INDUSTRIAL CO., LTD.
 41
0.85
  7
CHINESET
100
AcDbText
  0
LINE
  5
1C4D
330
A
100
AcDbEntity
  8
LOGO
100
AcDbLine
 10
532.091589641979
 20
256.2270462638025
 30
0.0
 11
487.1251735591551
 21
256.2270462638025
 31
0.0
  0
LINE
  5
1C4E
330
A
100
AcDbEntity
  8
LOGO
100
AcDbLine
 10
532.091589641979
 20
250.0952622525084
 30
0.0
 11
487.1251735591551
 21
250.0952622525084
 31
0.0
  0
LINE
  5
1C4F
330
A
100
AcDbEntity
  8
LOGO
 62
     4
100
AcDbLine
 10
532.091589641979
 20
243.9634782412145
 30
0.0
 11
464.6419655177435
 21
243.9634782412145
 31
0.0
  0
LINE
  5
1C50
330
A
100
AcDbEntity
  8
LOGO
 62
     4
100
AcDbLine
 10
487.1251735591551
 20
243.9634782412145
 30
0.0
 11
487.1251735591551
 21
262.3588302750966
 31
0.0
  0
TEXT
  5
1C51
330
A
100
AcDbEntity
  8
LOGO
100
AcDbText
 10
517.8575965692537
 20
245.4964242440376
 30
0.0
 40
3.065892005647058
  1
mm
  7
CHINESET
 72
     1
 11
521.6534628619597
 21
247.0293702468612
 31
0.0
100
AcDbText
 73
     2
  0
TEXT
  5
1C52
330
A
100
AcDbEntity
  8
LOGO
100
AcDbText
 10
516.2516531377244
 20
257.759992266626
 30
0.0
 40
3.065892005647058
  1
1 : 1
  7
CHINESET
 72
     1
 11
521.6534628619597
 21
259.2929382694495
 31
0.0
100
AcDbText
 73
     2
  0
LINE
  5
1C53
330
A
100
AcDbEntity
  8
LOGO
 62
     4
100
AcDbLine
 10
511.6523096043317
 20
243.9634782412145
 30
0.0
 11
511.6523096043317
 21
262.3588302750966
 31
0.0
  0
CIRCLE
  5
1C54
330
A
100
AcDbEntity
  8
LOGO
  6
Continuous
100
AcDbCircle
 10
517.3291921284973
 20
253.1677122235912
 30
0.0
 40
1.780129061441821
  0
CIRCLE
  5
1C55
330
A
100
AcDbEntity
  8
LOGO
  6
Continuous
100
AcDbCircle
 10
517.3291921284973
 20
253.1677122235912
 30
0.0
 40
1.042998044095096
  0
LINE
  5
1C56
330
A
100
AcDbEntity
  8
LOGO
100
AcDbLine
 10
528.5157297080388
 20
251.3875831621492
 30
0.0
 11
528.5157297080388
 21
254.9478412850334
 31
0.0
  0
LINE
  5
1C57
330
A
100
AcDbEntity
  8
LOGO
100
AcDbLine
 10
522.9351272847029
 20
252.1247141794962
 30
0.0
 11
522.9351272847029
 21
254.2107102676865
 31
0.0
  0
LINE
  5
1C58
330
A
100
AcDbEntity
  8
LOGO
  6
Continuous
100
AcDbLine
 10
522.9351272847029
 20
254.2107102676865
 30
0.0
 11
528.5157297080388
 21
254.9478412850334
 31
0.0
  0
LINE
  5
1C59
330
A
100
AcDbEntity
  8
LOGO
  6
Continuous
100
AcDbLine
 10
522.9351272847029
 20
252.1247141794962
 30
0.0
 11
528.5157297080388
 21
251.3875831621492
 31
0.0
  0
TEXT
  5
1C5A
330
A
100
AcDbEntity
  8
LOGO
100
AcDbText
 10
489.6531657620257
 20
257.7615010717468
 30
200.933511288084
 40
3.065892005647058
  1
比例 Scale:
 41
0.9
  7
CHINESET
 72
     4
 11
499.3887415817434
 21
259.2929382694495
 31
200.933511288084
100
AcDbText
  0
TEXT
  5
1C5B
330
A
100
AcDbEntity
  8
LOGO
100
AcDbText
 10
489.4766032313434
 20
251.6713349350371
 30
200.933511288084
 40
3.065892005647058
  1
投影  View:
 41
0.9
  7
CHINESET
 72
     4
 11
499.3887415817434
 21
253.1611542581552
 31
200.933511288084
100
AcDbText
  0
TEXT
  5
1C5C
330
A
100
AcDbEntity
  8
LOGO
100
AcDbText
 10
489.7763489229669
 20
245.4964242440376
 30
200.933511288084
 40
3.065892005647058
  1
單位  Unit:
 41
0.9
  7
CHINESET
 72
     4
 11
499.3887415817434
 21
247.0293702468612
 31
200.933511288084
100
AcDbText
  0
SOLID
  5
1C5D
330
A
100
AcDbEntity
  8
LOGO
 62
     5
100
AcDbTrace
 10
467.8228776774262
 20
249.0600873052397
 30
0.0
 11
469.1484889316616
 21
249.0600873052394
 31
0.0
 12
474.6794876131271
 22
261.6305388540255
 32
0.0
 13
476.0050988673634
 23
261.6305388540247
 33
0.0
  0
SOLID
  5
1C5E
330
A
100
AcDbEntity
  8
LOGO
 62
     5
100
AcDbTrace
 10
469.6970177265194
 20
249.0600873052397
 30
0.0
 11
471.022628980755
 21
249.0600873052397
 31
0.0
 12
476.0050988673634
 22
260.6249027301221
 32
0.0
 13
474.6794876131271
 23
255.7643281312583
 33
0.0
  0
SOLID
  5
1C5F
330
A
100
AcDbEntity
  8
LOGO
 62
     2
100
AcDbTrace
 10
469.1484889316616
 20
249.0600873052394
 30
0.0
 11
469.6970177265194
 21
249.0600873052397
 31
0.0
 12
476.0050988673634
 22
261.6305388540247
 32
0.0
 13
476.5536276622204
 23
261.6305388540247
 33
0.0
  0
SOLID
  5
1C60
330
A
100
AcDbEntity
  8
LOGO
 62
     5
100
AcDbTrace
 10
465.6975977571873
 20
244.4890140147727
 30
0.0
 11
466.1547050862343
 21
244.4890140147727
 31
0.0
 12
467.4419549032211
 22
246.774550660006
 32
0.0
 13
467.8990622322669
 23
246.774550660006
 33
0.0
  0
SOLID
  5
1C61
330
A
100
AcDbEntity
  8
LOGO
 62
     5
100
AcDbTrace
 10
467.4419549032211
 20
246.774550660006
 30
0.0
 11
467.8990622322669
 21
246.774550660006
 31
0.0
 12
467.4419549032211
 22
244.4890140147727
 32
0.0
 13
467.8990622322669
 23
244.4890140147727
 33
0.0
  0
SOLID
  5
1C62
330
A
100
AcDbEntity
  8
LOGO
 62
     5
100
AcDbTrace
 10
467.4419549032211
 20
244.4890140147727
 30
0.0
 11
467.8990622322669
 21
244.4890140147727
 31
0.0
 12
469.1863120492556
 22
246.774550660006
 32
0.0
 13
469.6434193783022
 23
246.774550660006
 33
0.0
  0
SOLID
  5
1C63
330
A
100
AcDbEntity
  8
LOGO
 62
     5
100
AcDbTrace
 10
469.1863120492556
 20
246.774550660006
 30
0.0
 11
469.6434193783022
 21
246.774550660006
 31
0.0
 12
469.1863120492556
 22
244.4890140147727
 32
0.0
 13
469.6434193783022
 23
244.4890140147727
 33
0.0
  0
POLYLINE
  5
1C64
330
A
100
AcDbEntity
  8
LOGO
 62
     5
100
AcDb2dPolyline
 66
     1
 10
0.0
 20
0.0
 30
0.0
 40
0.4578398728432941
 41
0.4578398728432941
  0
VERTEX
  5
1C65
330
1C64
100
AcDbEntity
  8
LOGO
 62
     5
100
AcDbVertex
100
AcDb2dVertex
 10
484.5083940033285
 20
245.8603360019125
 30
0.0
 42
1.0
  0
VERTEX
  5
1C66
330
1C64
100
AcDbEntity
  8
LOGO
 62
     5
100
AcDbVertex
100
AcDb2dVertex
 10
483.1348743847981
 20
245.8603360019125
 30
0.0
 42
1.0
  0
SEQEND
  5
1C67
330
1C64
100
AcDbEntity
  8
LOGO
 62
     5
  0
POLYLINE
  5
1C68
330
A
100
AcDbEntity
  8
LOGO
 62
     5
100
AcDb2dPolyline
 66
     1
 10
0.0
 20
0.0
 30
0.0
 70
     1
  0
VERTEX
  5
1C69
330
1C68
100
AcDbEntity
  8
LOGO
 62
     5
100
AcDbVertex
100
AcDb2dVertex
 10
480.5457288097157
 20
245.6317823373889
 30
0.0
 42
1.000000057330635
  0
VERTEX
  5
1C6A
330
1C68
100
AcDbEntity
  8
LOGO
 62
     5
100
AcDbVertex
100
AcDb2dVertex
 10
481.9170507968562
 20
245.6317823373889
 30
0.0
 42
1.000000057330635
  0
SEQEND
  5
1C6B
330
1C68
100
AcDbEntity
  8
LOGO
 62
     5
  0
CIRCLE
  5
1C6C
330
A
100
AcDbEntity
  8
LOGO
 62
     5
100
AcDbCircle
 10
481.2313898032873
 20
245.6317823373889
 30
0.0
 40
0.6856609935701173
  0
POLYLINE
  5
1C6D
330
A
100
AcDbEntity
  8
LOGO
 62
     5
100
AcDb2dPolyline
 66
     1
 10
0.0
 20
0.0
 30
0.0
 70
     1
 40
0.4578398728432941
 41
0.4578398728432941
  0
VERTEX
  5
1C6E
330
1C6D
100
AcDbEntity
  8
LOGO
 62
     5
100
AcDbVertex
100
AcDb2dVertex
 10
480.3157100575999
 20
245.6317823373889
 30
0.0
 42
1.0
  0
VERTEX
  5
1C6F
330
1C6D
100
AcDbEntity
  8
LOGO
 62
     5
100
AcDbVertex
100
AcDb2dVertex
 10
482.1470695489728
 20
245.6317823373889
 30
0.0
 42
1.0
  0
SEQEND
  5
1C70
330
1C6D
100
AcDbEntity
  8
LOGO
 62
     5
  0
LINE
  5
1C71
330
A
100
AcDbEntity
  8
LOGO
100
AcDbLine
 10
484.7358488521559
 20
244.4890140147727
 30
0.0
 11
484.7358488521559
 21
245.8603360019125
 31
0.0
  0
SOLID
  5
1C72
330
A
100
AcDbEntity
  8
LOGO
 62
     5
100
AcDbTrace
 10
481.9170050861253
 20
246.774550660006
 30
0.0
 11
482.3741124151711
 21
246.774550660006
 31
0.0
 12
481.9170050861253
 22
244.4890140147727
 32
0.0
 13
482.3741124151711
 23
244.4890140147727
 33
0.0
  0
SOLID
  5
1C73
330
A
100
AcDbEntity
  8
LOGO
 62
     5
100
AcDbTrace
 10
482.9074195359691
 20
244.4890140147727
 30
0.0
 11
483.3645268650164
 21
244.4890140147727
 31
0.0
 12
482.9074195359691
 22
246.774550660006
 32
0.0
 13
483.3645268650164
 23
246.774550660006
 33
0.0
  0
SOLID
  5
1C74
330
A
100
AcDbEntity
  8
LOGO
 62
     5
100
AcDbTrace
 10
484.2787415231101
 20
245.8603360019125
 30
0.0
 11
484.7358488521559
 21
245.8603360019125
 31
0.0
 12
484.2787415231101
 22
244.4890140147727
 32
0.0
 13
484.7358488521559
 23
244.4890140147727
 33
0.0
  0
SOLID
  5
1C75
330
A
100
AcDbEntity
  8
LOGO
 62
     5
100
AcDbTrace
 10
482.8617088030646
 20
260.6249027301221
 30
0.0
 11
481.5360975488292
 21
255.7643281312583
 31
0.0
 12
482.8617088030646
 22
249.0600873052394
 32
0.0
 13
481.5360975488292
 23
249.0600873052394
 33
0.0
  0
SOLID
  5
1C76
330
A
100
AcDbEntity
  8
LOGO
 62
     5
100
AcDbTrace
 10
483.410237597921
 20
249.0600873052394
 30
0.0
 11
484.7358488521559
 21
249.0600873052394
 31
0.0
 12
483.410237597921
 22
261.6305388540247
 32
0.0
 13
484.7358488521559
 23
261.6305388540255
 33
0.0
  0
SOLID
  5
1C77
330
A
100
AcDbEntity
  8
LOGO
 62
     2
100
AcDbTrace
 10
482.8617088030646
 20
261.6305388540255
 30
0.0
 11
483.410237597921
 21
261.6305388540247
 31
0.0
 12
482.8617088030646
 22
249.0600873052394
 32
0.0
 13
483.410237597921
 23
249.0600873052394
 33
0.0
  0
POLYLINE
  5
1C78
330
A
100
AcDbEntity
  8
LOGO
 62
     5
100
AcDb2dPolyline
 66
     1
 10
0.0
 20
0.0
 30
0.0
 40
0.4578398728432941
 41
0.4578398728432941
  0
VERTEX
  5
1C79
330
1C78
100
AcDbEntity
  8
LOGO
 62
     5
100
AcDbVertex
100
AcDb2dVertex
 10
477.9564918131699
 20
245.8603360019125
 30
0.0
 42
1.0
  0
VERTEX
  5
1C7A
330
1C78
100
AcDbEntity
  8
LOGO
 62
     5
100
AcDbVertex
100
AcDb2dVertex
 10
476.5829721946397
 20
245.8603360019125
 30
0.0
 42
1.0
  0
SEQEND
  5
1C7B
330
1C78
100
AcDbEntity
  8
LOGO
 62
     5
  0
POLYLINE
  5
1C7C
330
A
100
AcDbEntity
  8
LOGO
 62
     5
100
AcDb2dPolyline
 66
     1
 10
0.0
 20
0.0
 30
0.0
 40
0.4578398728432941
 41
0.4578398728432941
  0
VERTEX
  5
1C7D
330
1C7C
100
AcDbEntity
  8
LOGO
 62
     5
100
AcDbVertex
100
AcDb2dVertex
 10
479.3278138003087
 20
245.8603360019125
 30
0.0
 42
1.0
  0
VERTEX
  5
1C7E
330
1C7C
100
AcDbEntity
  8
LOGO
 62
     5
100
AcDbVertex
100
AcDb2dVertex
 10
477.9542941817792
 20
245.8603360019125
 30
0.0
 42
1.0
  0
SEQEND
  5
1C7F
330
1C7C
100
AcDbEntity
  8
LOGO
 62
     5
  0
POLYLINE
  5
1C80
330
A
100
AcDbEntity
  8
LOGO
 62
     5
100
AcDb2dPolyline
 66
     1
 10
0.0
 20
0.0
 30
0.0
 40
0.4578398728432941
 41
0.4578398728432941
  0
VERTEX
  5
1C81
330
1C80
100
AcDbEntity
  8
LOGO
 62
     5
100
AcDbVertex
100
AcDb2dVertex
 10
472.7759116101502
 20
245.8603360019125
 30
0.0
 42
1.0
  0
VERTEX
  5
1C82
330
1C80
100
AcDbEntity
  8
LOGO
 62
     5
100
AcDbVertex
100
AcDb2dVertex
 10
471.4023919916209
 20
245.8603360019125
 30
0.0
 42
1.0
  0
SEQEND
  5
1C83
330
1C80
100
AcDbEntity
  8
LOGO
 62
     5
  0
SOLID
  5
1C84
330
A
100
AcDbEntity
  8
LOGO
 62
     5
100
AcDbTrace
 10
471.1749371427922
 20
246.774550660006
 30
0.0
 11
471.6320444718383
 21
246.774550660006
 31
0.0
 12
471.1749371427922
 22
244.4890140147727
 32
0.0
 13
471.6320444718383
 23
244.4890140147727
 33
0.0
  0
SOLID
  5
1C85
330
A
100
AcDbEntity
  8
LOGO
 62
     5
100
AcDbTrace
 10
472.5462591299327
 20
245.8603360019125
 30
0.0
 11
473.00336645898
 21
245.8603360019125
 31
0.0
 12
472.5462591299327
 22
244.4890140147727
 32
0.0
 13
473.00336645898
 23
244.4890140147727
 33
0.0
  0
POLYLINE
  5
1C86
330
A
100
AcDbEntity
  8
LOGO
 62
     5
100
AcDb2dPolyline
 66
     1
 10
0.0
 20
0.0
 30
0.0
 70
     1
 40
0.4578398728432941
 41
0.4578398728432941
  0
VERTEX
  5
1C87
330
1C86
100
AcDbEntity
  8
LOGO
 62
     5
100
AcDbVertex
100
AcDb2dVertex
 10
473.7638078674407
 20
245.6317823373889
 30
0.0
 42
1.0
  0
VERTEX
  5
1C88
330
1C86
100
AcDbEntity
  8
LOGO
 62
     5
100
AcDbVertex
100
AcDb2dVertex
 10
475.5951673588143
 20
245.6317823373889
 30
0.0
 42
1.0
  0
SEQEND
  5
1C89
330
1C86
100
AcDbEntity
  8
LOGO
 62
     5
  0
SOLID
  5
1C8A
330
A
100
AcDbEntity
  8
LOGO
 62
     5
100
AcDbTrace
 10
475.3651028959655
 20
247.4602116535765
 30
0.0
 11
475.8222102250119
 21
247.4602116535765
 31
0.0
 12
475.3651028959655
 22
244.4890140147727
 32
0.0
 13
475.8222102250119
 23
244.4890140147727
 33
0.0
  0
SOLID
  5
1C8B
330
A
100
AcDbEntity
  8
LOGO
 62
     5
100
AcDbTrace
 10
476.355517345812
 20
246.774550660006
 30
0.0
 11
476.8126246748578
 21
246.774550660006
 31
0.0
 12
476.355517345812
 22
244.4890140147727
 32
0.0
 13
476.8126246748578
 23
244.4890140147727
 33
0.0
  0
SOLID
  5
1C8C
330
A
100
AcDbEntity
  8
LOGO
 62
     5
100
AcDbTrace
 10
477.7268393329508
 20
245.8603360019125
 30
0.0
 11
478.1839466619983
 21
245.8603360019125
 31
0.0
 12
477.7268393329508
 22
244.4890140147727
 32
0.0
 13
478.1839466619983
 23
244.4890140147727
 33
0.0
  0
SOLID
  5
1C8D
330
A
100
AcDbEntity
  8
LOGO
 62
     5
100
AcDbTrace
 10
479.0981613200912
 20
245.8603360019125
 30
0.0
 11
479.5552686491378
 21
245.8603360019125
 31
0.0
 12
479.0981613200912
 22
244.4890140147719
 32
0.0
 13
479.5552686491378
 23
244.4890140147719
 33
0.0
  0
SOLID
  5
1C8E
330
A
100
AcDbEntity
  8
LOGO
 62
     5
100
AcDbTrace
 10
470.1845226929465
 20
247.0945257903387
 30
0.0
 11
470.6416300219945
 21
247.0945257903387
 31
0.0
 12
470.1845226929465
 22
247.4602116535765
 32
0.0
 13
470.6416300219945
 23
247.4602116535765
 33
0.0
  0
SOLID
  5
1C8F
330
A
100
AcDbEntity
  8
LOGO
 62
     5
100
AcDbTrace
 10
470.1845226929465
 20
246.774550660006
 30
0.0
 11
470.6416300219945
 21
246.774550660006
 31
0.0
 12
470.1845226929465
 22
244.4890140147719
 32
0.0
 13
470.6416300219945
 23
244.4890140147727
 33
0.0
  0
SOLID
  5
1C90
330
A
100
AcDbEntity
  8
LOGO
 62
     5
100
AcDbTrace
 10
474.6794876131271
 20
249.0600873052397
 30
0.0
 11
476.0050988673634
 21
249.0600873052397
 31
0.0
 12
474.6794876131271
 22
255.7643281312583
 32
0.0
 13
476.0050988673634
 23
260.6249027301221
 33
0.0
  0
SOLID
  5
1C91
330
A
100
AcDbEntity
  8
LOGO
 62
     5
100
AcDbTrace
 10
476.5536276622204
 20
261.6305388540247
 30
0.0
 11
477.879238916455
 21
261.6305388540255
 31
0.0
 12
476.5536276622204
 22
250.0657234291423
 32
0.0
 13
477.879238916455
 23
254.9262980280061
 33
0.0
  0
SOLID
  5
1C92
330
A
100
AcDbEntity
  8
LOGO
 62
     2
100
AcDbTrace
 10
476.0050988673634
 20
261.6305388540247
 30
0.0
 11
476.5536276622204
 21
261.6305388540247
 31
0.0
 12
476.0050988673634
 22
249.0600873052397
 32
0.0
 13
476.5536276622204
 23
249.0600873052397
 33
0.0
  0
SOLID
  5
1C93
330
A
100
AcDbEntity
  8
LOGO
 62
     5
100
AcDbTrace
 10
476.5536276622204
 20
250.0657234291423
 30
0.0
 11
477.879238916455
 21
254.9262980280061
 31
0.0
 12
482.8617088030646
 22
261.6305388540255
 32
0.0
 13
481.5360975488292
 23
261.6305388540255
 33
0.0
  0
SOLID
  5
1C94
330
A
100
AcDbEntity
  8
LOGO
 62
     5
100
AcDbTrace
 10
476.5536276622204
 20
249.0600873052397
 30
0.0
 11
477.879238916455
 21
249.0600873052397
 31
0.0
 12
482.8617088030646
 22
260.6249027301221
 32
0.0
 13
481.5360975488292
 23
255.7643281312583
 33
0.0
  0
SOLID
  5
1C95
330
A
100
AcDbEntity
  8
LOGO
 62
     2
100
AcDbTrace
 10
476.0050988673634
 20
249.0600873052397
 30
0.0
 11
476.5536276622204
 21
249.0600873052397
 31
0.0
 12
482.8617088030646
 22
261.6305388540255
 32
0.0
 13
483.410237597921
 23
261.6305388540247
 33
0.0
  0
TEXT
  5
1C96
330
A
100
AcDbEntity
  8
LOGO
100
AcDbText
 10
533.3077019613255
 20
233.3309526647486
 30
0.0
 40
3.066336
  1
01005060
 41
0.7
  7
CHINESET
 72
     1
 11
540.9735419613254
 21
233.3309526647486
 31
0.0
100
AcDbText
  0
LINE
  5
1C97
330
A
100
AcDbEntity
  8
LOGO
 62
     4
100
AcDbLine
 10
550.4896056419773
 20
237.8316942299207
 30
0.0
 11
550.4896056419788
 21
231.6999102186261
 31
0.0
  0
LINE
  5
1C98
330
A
100
AcDbEntity
  8
LOGO
 62
     4
100
AcDbLine
 10
550.4896056419773
 20
237.8316942299207
 30
0.0
 11
532.091589641979
 21
237.8316942299207
 31
0.0
  0
LINE
  5
1C99
330
A
100
AcDbEntity
  8
LOGO
  6
AM_ISO08W050x2
 48
0.2
100
AcDbLine
 10
514.875257561966
 20
253.1677122235912
 30
0.0
 11
519.7831266950286
 21
253.1677122235912
 31
0.0
1001
GENIUS_GENOREF_13
1005
1C9E
  0
LINE
  5
1C9A
330
A
100
AcDbEntity
  8
LOGO
  6
AM_ISO08W050x2
 48
0.2
100
AcDbLine
 10
517.3291921284973
 20
250.7137776570598
 30
0.0
 11
517.3291921284973
 21
255.6216467901224
 31
0.0
1001
GENIUS_GENOREF_13
1005
1C9D
  0
LINE
  5
1C9B
330
A
100
AcDbEntity
  8
LOGO
  6
AM_ISO08W050x2
 48
0.3
100
AcDbLine
 10
522.4888342029545
 20
253.1677122235912
 30
0.0
 11
529.0776783067274
 21
253.1677122235912
 31
0.0
1001
GENIUS_GENOREF_13
1005
1C9C
  0
POINT
  5
1C9C
330
A
100
AcDbEntity
  8
0
 60
     1
100
AcDbPoint
 10
-1593.379040456162
 20
-905.8533651541795
 30
0.0
1001
GENIUS_GENOBJ-N-CRS_13
1002
{
1000
OWNER
1000
GEN
1002
}
1001
GENIUS_GENOLIS_13
1002
{
1000
ENT
1005
0
1005
0
1005
0
1005
1C9B
1002
}
1001
GENIUS_GENOENT_13
1002
{
1000
MYREF
1005
1C9C
1002
}
1002
{
1000
GRP
1005
0
1002
}
1001
GENIUS_GENODEF_13
1002
{
1000
HIER
1070
    10
1002
}
1002
{
1000
MANEDIT
1070
     1
1002
}
1002
{
1000
NOSEL
1070
     0
1002
}
1002
{
1000
BEHIND
1070
     0
1002
}
1002
{
1000
OTHER
1070
     0
1002
}
1002
{
1000
REACTOR
1002
}
  0
POINT
  5
1C9D
330
A
100
AcDbEntity
  8
0
 60
     1
100
AcDbPoint
 10
-1604.703625679017
 20
-896.9777786755432
 30
0.0
1001
GENIUS_GENOBJ-N-CRS_13
1002
{
1000
OWNER
1000
GEN
1002
}
1001
GENIUS_GENOLIS_13
1002
{
1000
ENT
1005
0
1005
0
1005
0
1005
1C9A
1002
}
1001
GENIUS_GENOENT_13
1002
{
1000
MYREF
1005
1C9D
1002
}
1002
{
1000
GRP
1005
0
1002
}
1001
GENIUS_GENODEF_13
1002
{
1000
HIER
1070
    10
1002
}
1002
{
1000
MANEDIT
1070
     1
1002
}
1002
{
1000
NOSEL
1070
     0
1002
}
1002
{
1000
BEHIND
1070
     0
1002
}
1002
{
1000
OTHER
1070
     0
1002
}
1002
{
1000
REACTOR
1002
}
  0
POINT
  5
1C9E
330
A
100
AcDbEntity
  8
0
 60
     1
100
AcDbPoint
 10
-1598.34495198118
 20
-905.8533651541795
 30
0.0
1001
GENIUS_GENOBJ-N-CRS_13
1002
{
1000
OWNER
1000
GEN
1002
}
1001
GENIUS_GENOLIS_13
1002
{
1000
ENT
1005
0
1005
0
1005
0
1005
1C99
1002
}
1001
GENIUS_GENOENT_13
1002
{
1000
MYREF
1005
1C9E
1002
}
1002
{
1000
GRP
1005
0
1002
}
1001
GENIUS_GENODEF_13
1002
{
1000
HIER
1070
    10
1002
}
1002
{
1000
MANEDIT
1070
     1
1002
}
1002
{
1000
NOSEL
1070
     0
1002
}
1002
{
1000
BEHIND
1070
     0
1002
}
1002
{
1000
OTHER
1070
     0
1002
}
1002
{
1000
REACTOR
1002
}
  0
LEADER
  5
28D6
330
A
100
AcDbEntity
  8
AM_5
100
AcDbLeader
  3
AM_ISO$7
 73
     0
 74
     0
 75
     1
 40
4.676852903476758
 41
55.29862204724413
 76
     3
 10
721.0053715656595
 20
491.1072865262771
 30
0.0
 10
734.0112427451741
 20
514.7418755349173
 30
0.0
 10
737.011242745174
 20
514.7418755349173
 30
0.0
340
28D7
1001
ACAD
1000
DSTYLE
1002
{
1070
   140
1040
3.5
1070
   174
1070
     1
1002
}
  0
MTEXT
  5
28D7
102
{ACAD_REACTORS
330
28D6
102
}
330
A
100
AcDbEntity
  8
AM_5
100
AcDbMText
 10
738.0112427451741
 20
515.7418755349173
 30
0.0
 40
3.5
 41
0.0
 71
     7
 72
     1
  1
M5*0.8(Finger Openingport)
 73
     1
 44
1.0
1001
ACAD
1000
MTEXTBEGIN
1070
    73
1070
     1
1070
    44
1040
1.0
1070
    74
1070
     0
1000
MTEXTEND
  0
LEADER
  5
333B
330
A
100
AcDbEntity
  8
AM_5
100
AcDbLeader
  3
AM_ISO$7
 73
     0
 74
     0
 75
     1
 40
4.676852903476758
 41
55.29862204724413
 76
     3
 10
698.3263590875131
 20
461.8910779221912
 30
0.0
 10
722.9956097882323
 20
432.4163011926949
 30
0.0
 10
725.9956097882323
 20
432.4163011926949
 30
0.0
340
333C
1001
ACAD
1000
DSTYLE
1002
{
1070
   140
1040
3.5
1070
   174
1070
     1
1002
}
  0
MTEXT
  5
333C
102
{ACAD_REACTORS
330
333B
102
}
330
A
100
AcDbEntity
  8
AM_5
100
AcDbMText
 10
726.9956097882323
 20
433.4163011926949
 30
0.0
 40
3.5
 41
0.0
 71
     7
 72
     1
  1
M5*0.8(Finger Openingport)
 73
     1
 44
1.0
1001
ACAD
1000
MTEXTBEGIN
1070
    73
1070
     1
1070
    44
1040
1.0
1070
    74
1070
     0
1000
MTEXTEND
  0
LEADER
  5
3FEB
330
A
100
AcDbEntity
  8
AM_5
100
AcDbLeader
  3
AM_ISO$7
 73
     0
 74
     0
 75
     1
 40
14.76455176687155
 41
95.50000000000006
 76
     3
 10
605.5497897464106
 20
380.3750961526473
 30
0.0
 10
628.1478919418969
 20
417.1318290802433
 30
0.0
 10
631.1478919418968
 20
417.1318290802433
 30
0.0
340
3FEC
213
1.512345450629709
223
9.377176379185129
233
0.0
1001
ACAD
1000
DSTYLE
1002
{
1070
   140
1040
3.5
1070
   272
1070
     8
1002
}
  0
MTEXT
  5
3FEC
102
{ACAD_REACTORS
330
3FEB
102
}
330
A
100
AcDbEntity
  8
AM_5
100
AcDbMText
 10
630.6355464912671
 20
408.7546527010582
 30
0.0
 40
5.0
 41
0.0
 71
     7
 72
     1
  1
6-M4*0.7*8depth\PThread for mounting attachment
 73
     1
 44
1.0
1001
ACAD
1000
MTEXTBEGIN
1070
    73
1070
     1
1070
    44
1040
1.0
1070
    74
1070
     0
1000
MTEXTEND
  0
MTEXT
  5
4036
330
A
100
AcDbEntity
  8
AM_5
100
AcDbMText
 10
524.9613742571341
 20
406.2352941148147
 30
0.0
 40
3.5
 41
61.42888888888889
 71
     1
 72
     5
  1
P.C.D%%C44\P(mounting hole)
 73
     1
 44
1.0
1001
ACAD
1000
MTEXTBEGIN
1070
    73
1070
     1
1070
    44
1040
1.0
1070
    74
1070
     0
1000
MTEXTEND
  0
MTEXT
  5
4412
330
A
100
AcDbEntity
  8
AM_5
100
AcDbMText
 10
865.0273376885321
 20
393.2378690922834
 30
0.0
 40
3.5
 41
38.43995361238103
 71
     1
 72
     5
  1
P.C.D%%C53
 73
     1
 44
1.0
1001
ACAD
1000
MTEXTBEGIN
1070
    73
1070
     1
1070
    44
1040
1.0
1070
    74
1070
     0
1000
MTEXTEND
  0
LINE
  5
4B36
330
A
100
AcDbEntity
  8
0
100
AcDbLine
 10
551.6516953532402
 20
334.5202874733218
 30
0.0
 11
552.4477059830624
 21
334.3799293223534
 31
0.0
  0
LINE
  5
4B37
330
A
100
AcDbEntity
  8
0
100
AcDbLine
 10
552.4477059830624
 20
334.3799293223534
 30
0.0
 11
554.8260201389025
 21
337.2142937618936
 31
0.0
  0
LINE
  5
4B38
330
A
100
AcDbEntity
  8
0
100
AcDbLine
 10
554.8260201389025
 20
337.2142937618936
 30
0.0
 11
549.9233357029413
 21
341.3281344638874
 31
0.0
  0
LINE
  5
4B39
330
A
100
AcDbEntity
  8
0
100
AcDbLine
 10
549.9233357029413
 20
341.3281344638874
 30
0.0
 11
547.5450215471012
 21
338.4937700243471
 31
0.0
  0
LINE
  5
4B3A
330
A
100
AcDbEntity
  8
0
100
AcDbLine
 10
547.5450215471012
 20
338.4937700243471
 30
0.0
 11
547.8214731376453
 21
337.7342255217545
 31
0.0
  0
LINE
  5
4B3B
330
A
100
AcDbEntity
  8
0
100
AcDbLine
 10
547.8214731376453
 20
337.7342255217545
 30
0.0
 11
545.3815446966009
 21
334.8264320364669
 31
0.0
  0
ARC
  5
4B3C
330
A
100
AcDbEntity
  8
0
100
AcDbCircle
 10
567.3516292266183
 20
357.1200496375627
 30
0.0
 40
31.30000000000002
100
AcDbArc
 50
218.7287719531535
 51
225.4187799147262
  0
LINE
  5
4B3D
330
A
100
AcDbEntity
  8
0
100
AcDbLine
 10
542.9339879794397
 20
337.5376903332274
 30
0.0
 11
546.7769560263307
 21
339.7564289695867
 31
0.0
  0
ARC
  5
4B3E
330
A
100
AcDbEntity
  8
0
100
AcDbCircle
 10
544.4019560263306
 20
343.8700496375629
 30
0.0
 40
4.750000000000016
100
AcDbArc
 50
300.0000000000005
 51
120.0000000000005
  0
LINE
  5
4B3F
330
A
100
AcDbEntity
  8
0
100
AcDbLine
 10
542.0269560263307
 20
347.9836703055391
 30
0.0
 11
538.1839879794399
 21
345.7649316691795
 31
0.0
  0
ARC
  5
4B40
330
A
100
AcDbEntity
  8
0
100
AcDbCircle
 10
567.3516292266183
 20
357.1200496375627
 30
0.0
 40
31.30000000000001
100
AcDbArc
 50
194.581220085278
 51
201.2712280468471
  0
LINE
  5
4B41
330
A
100
AcDbEntity
  8
0
100
AcDbLine
 10
537.0597477768049
 20
349.2402071118239
 30
0.0
 11
540.797935024545
 21
349.8993503825409
 31
0.0
  0
LINE
  5
4B42
330
A
100
AcDbEntity
  8
0
100
AcDbLine
 10
540.797935024545
 20
349.8993503825409
 30
0.0
 11
541.317494063823
 21
349.2801640309165
 31
0.0
  0
LINE
  5
4B43
330
A
100
AcDbEntity
  8
0
100
AcDbLine
 10
541.317494063823
 20
349.2801640309165
 30
0.0
 11
544.9612827499682
 21
349.9226622882841
 31
0.0
  0
LINE
  5
4B44
330
A
100
AcDbEntity
  8
0
100
AcDbLine
 10
544.9612827499682
 20
349.9226622882841
 30
0.0
 11
543.8499344128997
 21
356.2254319075622
 31
0.0
  0
LINE
  5
4B45
330
A
100
AcDbEntity
  8
0
100
AcDbLine
 10
543.8499344128997
 20
356.2254319075622
 30
0.0
 11
540.2061457267546
 21
355.5829336501945
 31
0.0
  0
LINE
  5
4B46
330
A
100
AcDbEntity
  8
0
100
AcDbLine
 10
540.2061457267546
 20
355.5829336501945
 30
0.0
 11
539.9296941362104
 21
354.8233891476018
 31
0.0
  0
LINE
  5
4B47
330
A
100
AcDbEntity
  8
0
100
AcDbLine
 10
539.9296941362104
 20
354.8233891476018
 30
0.0
 11
536.1915068884703
 21
354.164245876885
 31
0.0
  0
ARC
  5
4B48
330
A
100
AcDbEntity
  8
0
100
AcDbCircle
 10
567.3516292266183
 20
357.1200496375627
 30
0.0
 40
31.29999999999999
100
AcDbArc
 50
181.6535244114751
 51
185.4187799147241
  0
ARC
  5
4B49
330
A
100
AcDbEntity
  8
0
100
AcDbCircle
 10
533.0659119142697
 20
356.1303080663801
 30
0.0
 40
3.0
100
AcDbArc
 50
1.653524411478424
 51
59.99999999999946
  0
LINE
  5
4B4A
330
A
100
AcDbEntity
  8
0
100
AcDbLine
 10
529.6150619611366
 20
361.5867588308923
 30
0.0
 11
534.5659119142696
 21
358.7283842777335
 31
0.0
  0
ARC
  5
4B4B
330
A
100
AcDbEntity
  8
0
100
AcDbCircle
 10
567.3516292266183
 20
357.1200496375627
 30
0.0
 40
38.00000000000002
100
AcDbArc
 50
156.0423284190544
 51
173.2495625905862
  0
LINE
  5
4B4C
330
A
100
AcDbEntity
  8
0
100
AcDbLine
 10
551.0622100641751
 20
361.9059480224251
 30
0.0
 11
542.4019560263309
 21
366.9059480224251
 31
0.0
  0
LINE
  5
4B4D
330
A
100
AcDbEntity
  8
0
100
AcDbLine
 10
555.0622100641751
 20
368.8341512527005
 30
0.0
 11
551.0622100641751
 21
361.9059480224251
 31
0.0
  0
LINE
  5
4B4E
330
A
100
AcDbEntity
  8
0
100
AcDbLine
 10
555.0622100641751
 20
368.8341512527005
 30
0.0
 11
546.4019560263309
 21
373.8341512527006
 31
0.0
  0
ARC
  5
4B4F
330
A
100
AcDbEntity
  8
0
100
AcDbCircle
 10
567.3516292266183
 20
357.1200496375627
 30
0.0
 40
37.99999999999998
100
AcDbArc
 50
126.7504374094143
 51
143.9576715809447
  0
LINE
  5
4B50
330
A
100
AcDbEntity
  8
0
100
AcDbLine
 10
549.5659119142701
 20
384.7091463912666
 30
0.0
 11
544.6150619611366
 21
387.5675209444255
 31
0.0
  0
ARC
  5
4B51
330
A
100
AcDbEntity
  8
0
100
AcDbCircle
 10
551.0659119142701
 20
387.3072226026198
 30
0.0
 40
3.000000000000028
100
AcDbArc
 50
239.9999999999995
 51
298.3464755885263
  0
ARC
  5
4B52
330
A
100
AcDbEntity
  8
0
100
AcDbCircle
 10
567.3516292266183
 20
357.1200496375627
 30
0.0
 40
31.29999999999995
100
AcDbArc
 50
98.72877195314673
 51
118.3464755885262
  0
LINE
  5
4B53
330
A
100
AcDbEntity
  8
0
100
AcDbLine
 10
562.6016292266183
 20
388.0575269102815
 30
0.0
 11
562.6016292266183
 21
383.6200496375627
 31
0.0
  0
ARC
  5
4B54
330
A
100
AcDbEntity
  8
0
100
AcDbCircle
 10
567.3516292266183
 20
383.6200496375627
 30
0.0
 40
4.750000000000056
100
AcDbArc
 50
180.0
 51
0.0
  0
LINE
  5
4B55
330
A
100
AcDbEntity
  8
0
100
AcDbLine
 10
572.1016292266186
 20
383.6200496375627
 30
0.0
 11
572.1016292266186
 21
388.0575269102815
 31
0.0
  0
ARC
  5
4B56
330
A
100
AcDbEntity
  8
0
100
AcDbCircle
 10
567.3516292266183
 20
357.1200496375627
 30
0.0
 40
31.3
100
AcDbArc
 50
61.65352441147379
 51
81.27122804685326
  0
ARC
  5
4B57
330
A
100
AcDbEntity
  8
0
100
AcDbCircle
 10
583.6373465389668
 20
387.3072226026198
 30
0.0
 40
3.0
100
AcDbArc
 50
241.6535244114738
 51
300.0000000000005
  0
LINE
  5
4B58
330
A
100
AcDbEntity
  8
0
100
AcDbLine
 10
590.0881964921
 20
387.5675209444255
 30
0.0
 11
585.1373465389667
 21
384.7091463912666
 31
0.0
  0
ARC
  5
4B59
330
A
100
AcDbEntity
  8
0
100
AcDbCircle
 10
567.3516292266183
 20
357.1200496375627
 30
0.0
 40
38.00000000000002
100
AcDbArc
 50
36.04232841905265
 51
53.24956259058566
  0
LINE
  5
4B5A
330
A
100
AcDbEntity
  8
0
100
AcDbLine
 10
579.6410483890618
 20
368.8341512527003
 30
0.0
 11
588.3013024269062
 21
373.8341512527003
 31
0.0
  0
LINE
  5
4B5B
330
A
100
AcDbEntity
  8
0
100
AcDbLine
 10
583.6410483890618
 20
361.9059480224249
 30
0.0
 11
579.6410483890618
 21
368.8341512527003
 31
0.0
  0
LINE
  5
4B5C
330
A
100
AcDbEntity
  8
0
100
AcDbLine
 10
583.6410483890618
 20
361.9059480224249
 30
0.0
 11
592.3013024269062
 21
366.9059480224248
 31
0.0
  0
ARC
  5
4B5D
330
A
100
AcDbEntity
  8
0
100
AcDbCircle
 10
567.3516292266183
 20
357.1200496375627
 30
0.0
 40
38.00000000000002
100
AcDbArc
 50
6.750437409413844
 51
23.95767158094256
  0
LINE
  5
4B5E
330
A
100
AcDbEntity
  8
0
100
AcDbLine
 10
600.1373465389668
 20
358.7283842777335
 30
0.0
 11
605.0881964921002
 21
361.5867588308923
 31
0.0
  0
ARC
  5
4B5F
330
A
100
AcDbEntity
  8
0
100
AcDbCircle
 10
601.6373465389669
 20
356.1303080663801
 30
0.0
 40
3.00000000000005
100
AcDbArc
 50
120.0000000000005
 51
178.346475588528
  0
ARC
  5
4B60
330
A
100
AcDbEntity
  8
0
100
AcDbCircle
 10
567.3516292266183
 20
357.1200496375627
 30
0.0
 40
31.30000000000004
100
AcDbArc
 50
354.5812200852791
 51
358.3464755885248
  0
LINE
  5
4B61
330
A
100
AcDbEntity
  8
0
100
AcDbLine
 10
594.7735643170265
 20
354.8233891476018
 30
0.0
 11
598.5117515647666
 21
354.164245876885
 31
0.0
  0
LINE
  5
4B62
330
A
100
AcDbEntity
  8
0
100
AcDbLine
 10
594.497112726482
 20
355.5829336501945
 30
0.0
 11
594.7735643170265
 21
354.8233891476018
 31
0.0
  0
LINE
  5
4B63
330
A
100
AcDbEntity
  8
0
100
AcDbLine
 10
590.8533240403371
 20
356.2254319075622
 30
0.0
 11
594.497112726482
 21
355.5829336501945
 31
0.0
  0
LINE
  5
4B64
330
A
100
AcDbEntity
  8
0
100
AcDbLine
 10
589.7419757032685
 20
349.9226622882841
 30
0.0
 11
590.8533240403371
 21
356.2254319075622
 31
0.0
  0
LINE
  5
4B65
330
A
100
AcDbEntity
  8
0
100
AcDbLine
 10
593.3857643894139
 20
349.2801640309165
 30
0.0
 11
589.7419757032685
 21
349.9226622882841
 31
0.0
  0
LINE
  5
4B66
330
A
100
AcDbEntity
  8
0
100
AcDbLine
 10
593.9053234286919
 20
349.8993503825409
 30
0.0
 11
593.3857643894139
 21
349.2801640309165
 31
0.0
  0
LINE
  5
4B67
330
A
100
AcDbEntity
  8
0
100
AcDbLine
 10
597.643510676432
 20
349.2402071118239
 30
0.0
 11
593.9053234286919
 21
349.8993503825409
 31
0.0
  0
ARC
  5
4B68
330
A
100
AcDbEntity
  8
0
100
AcDbCircle
 10
567.3516292266183
 20
357.1200496375627
 30
0.0
 40
31.30000000000009
100
AcDbArc
 50
338.7287719531528
 51
345.4187799147219
  0
LINE
  5
4B69
330
A
100
AcDbEntity
  8
0
100
AcDbLine
 10
596.5192704737967
 20
345.7649316691791
 30
0.0
 11
592.6763024269059
 21
347.9836703055387
 31
0.0
  0
ARC
  5
4B6A
330
A
100
AcDbEntity
  8
0
100
AcDbCircle
 10
590.301302426906
 20
343.8700496375625
 30
0.0
 40
4.750000000000044
100
AcDbArc
 50
59.99999999999946
 51
239.9999999999995
  0
LINE
  5
4B6B
330
A
100
AcDbEntity
  8
0
100
AcDbLine
 10
587.9263024269059
 20
339.7564289695866
 30
0.0
 11
591.7692704737965
 21
337.537690333227
 31
0.0
  0
ARC
  5
4B6C
330
A
100
AcDbEntity
  8
0
100
AcDbCircle
 10
567.3516292266183
 20
357.1200496375627
 30
0.0
 40
31.30000000000006
100
AcDbArc
 50
314.5812200852738
 51
321.2712280468466
  0
LINE
  5
4B6D
330
A
100
AcDbEntity
  8
0
100
AcDbLine
 10
586.8817853155912
 20
337.7342255217545
 30
0.0
 11
589.3217137566357
 21
334.8264320364669
 31
0.0
  0
LINE
  5
4B6E
330
A
100
AcDbEntity
  8
0
100
AcDbLine
 10
587.1582369061356
 20
338.4937700243471
 30
0.0
 11
586.8817853155912
 21
337.7342255217545
 31
0.0
  0
LINE
  5
4B6F
330
A
100
AcDbEntity
  8
0
100
AcDbLine
 10
584.7799227502955
 20
341.3281344638874
 30
0.0
 11
587.1582369061356
 21
338.4937700243471
 31
0.0
  0
LINE
  5
4B70
330
A
100
AcDbEntity
  8
0
100
AcDbLine
 10
579.8772383143338
 20
337.2142937618936
 30
0.0
 11
584.7799227502955
 21
341.3281344638874
 31
0.0
  0
LINE
  5
4B71
330
A
100
AcDbEntity
  8
0
100
AcDbLine
 10
582.2555524701742
 20
334.3799293223534
 30
0.0
 11
579.8772383143338
 21
337.2142937618936
 31
0.0
  0
LINE
  5
4B72
330
A
100
AcDbEntity
  8
0
100
AcDbLine
 10
583.0515630999964
 20
334.5202874733218
 30
0.0
 11
582.2555524701742
 21
334.3799293223534
 31
0.0
  0
LINE
  5
4B73
330
A
100
AcDbEntity
  8
0
100
AcDbLine
 10
585.4914915410408
 20
331.6124939880342
 30
0.0
 11
583.0515630999964
 21
334.5202874733218
 31
0.0
  0
ARC
  5
4B74
330
A
100
AcDbEntity
  8
0
100
AcDbCircle
 10
567.3516292266183
 20
357.1200496375627
 30
0.0
 40
31.30000000000006
100
AcDbArc
 50
301.6535244114734
 51
305.4187799147205
  0
ARC
  5
4B75
330
A
100
AcDbEntity
  8
0
100
AcDbCircle
 10
585.3516292266183
 20
327.9226182436884
 30
0.0
 40
3.0
100
AcDbArc
 50
121.6535244114734
 51
180.0
  0
LINE
  5
4B76
330
A
100
AcDbEntity
  8
0
100
AcDbLine
 10
582.3516292266183
 20
322.2058691373705
 30
0.0
 11
582.3516292266183
 21
327.9226182436884
 31
0.0
  0
ARC
  5
4B77
330
A
100
AcDbEntity
  8
0
100
AcDbCircle
 10
567.3516292266183
 20
357.1200496375627
 30
0.0
 40
38.00000000000004
100
AcDbArc
 50
276.0423284190575
 51
293.249562590584
  0
LINE
  5
4B78
330
A
100
AcDbEntity
  8
0
100
AcDbLine
 10
571.3516292266183
 20
340.6200496375627
 30
0.0
 11
571.3516292266183
 21
330.6200496375627
 31
0.0
  0
LINE
  5
4B79
330
A
100
AcDbEntity
  8
0
100
AcDbLine
 10
563.3516292266183
 20
340.6200496375627
 30
0.0
 11
571.3516292266183
 21
340.6200496375627
 31
0.0
  0
LINE
  5
4B7A
330
A
100
AcDbEntity
  8
0
100
AcDbLine
 10
563.3516292266183
 20
340.6200496375627
 30
0.0
 11
563.3516292266183
 21
330.6200496375627
 31
0.0
  0
ARC
  5
4B7B
330
A
100
AcDbEntity
  8
0
100
AcDbCircle
 10
567.3516292266183
 20
357.1200496375627
 30
0.0
 40
38.00000000000004
100
AcDbArc
 50
246.750437409416
 51
263.9576715809425
  0
LINE
  5
4B7C
330
A
100
AcDbEntity
  8
0
100
AcDbLine
 10
552.3516292266183
 20
327.9226182436884
 30
0.0
 11
552.3516292266183
 21
322.2058691373705
 31
0.0
  0
ARC
  5
4B7D
330
A
100
AcDbEntity
  8
0
100
AcDbCircle
 10
549.3516292266183
 20
327.9226182436884
 30
0.0
 40
3.0
100
AcDbArc
 50
0.0
 51
58.34647558852653
  0
ARC
  5
4B7E
330
A
100
AcDbEntity
  8
0
100
AcDbCircle
 10
567.3516292266183
 20
357.1200496375627
 30
0.0
 40
31.30000000000003
100
AcDbArc
 50
234.5812200852795
 51
238.3464755885265
  0
LINE
  5
4B7F
330
A
100
AcDbEntity
  8
0
100
AcDbLine
 10
549.2117669121958
 20
331.6124939880342
 30
0.0
 11
551.6516953532402
 21
334.5202874733218
 31
0.0
  0
ARC
  5
4B80
330
A
100
AcDbEntity
  8
0
100
AcDbCircle
 10
567.3516292266183
 20
357.1200496375627
 30
0.0
 40
41.0
100
AcDbArc
 50
8.539872250576822
 51
24.40126218377356
  0
LINE
  5
4B81
330
A
100
AcDbEntity
  8
0
100
AcDbLine
 10
607.897052510335
 20
363.2084526091353
 30
0.0
 11
605.0881964921002
 21
361.5867588308923
 31
0.0
  0
LINE
  5
4B82
330
A
100
AcDbEntity
  8
0
100
AcDbLine
 10
590.0881964921
 20
387.5675209444255
 30
0.0
 11
592.8970525103347
 21
389.1892147226682
 31
0.0
  0
ARC
  5
4B83
330
A
100
AcDbEntity
  8
0
100
AcDbCircle
 10
567.3516292266183
 20
357.1200496375627
 30
0.0
 40
40.99999999999997
100
AcDbArc
 50
35.59873781622944
 51
51.46012774942358
  0
ARC
  5
4B84
330
A
100
AcDbEntity
  8
0
100
AcDbCircle
 10
567.3516292266183
 20
357.1200496375627
 30
0.0
 40
41.00000000000004
100
AcDbArc
 50
275.5987378162365
 51
291.4601277494325
  0
LINE
  5
4B85
330
A
100
AcDbEntity
  8
0
100
AcDbLine
 10
582.3516292266183
 20
322.2058691373705
 30
0.0
 11
582.3516292266183
 21
318.9624815808849
 31
0.0
  0
ARC
  5
4B86
330
A
100
AcDbEntity
  8
CENTER
100
AcDbCircle
 10
567.3516292266183
 20
357.1200496375627
 30
0.0
 40
41.00000000000009
100
AcDbArc
 50
218.2994459699557
 51
247.1520682536224
  0
LINE
  5
4B87
330
A
100
AcDbEntity
  8
0
100
AcDbLine
 10
552.3516292266186
 20
318.9624815808849
 30
0.0
 11
552.3516292266183
 21
322.2058691373705
 31
0.0
  0
ARC
  5
4B88
330
A
100
AcDbEntity
  8
0
100
AcDbCircle
 10
567.3516292266183
 20
357.1200496375627
 30
0.0
 40
40.99999999999996
100
AcDbArc
 50
128.5398722505764
 51
144.4012621837705
  0
LINE
  5
4B89
330
A
100
AcDbEntity
  8
0
100
AcDbLine
 10
541.8062059429018
 20
389.1892147226682
 30
0.0
 11
544.6150619611366
 21
387.5675209444255
 31
0.0
  0
ARC
  5
4B8A
330
A
100
AcDbEntity
  8
0
100
AcDbCircle
 10
567.3516292266183
 20
357.1200496375627
 30
0.0
 40
40.99999999999996
100
AcDbArc
 50
155.5987378162264
 51
171.4601277494264
  0
LINE
  5
4B8B
330
A
100
AcDbEntity
  8
0
100
AcDbLine
 10
529.6150619611366
 20
361.5867588308923
 30
0.0
 11
526.8062059429016
 21
363.2084526091353
 31
0.0
  0
CIRCLE
  5
4B8C
330
A
100
AcDbEntity
  8
0
100
AcDbCircle
 10
590.301302426906
 20
343.8700496375625
 30
0.0
 40
2.749999999999943
  0
ARC
  5
4B8D
330
A
100
AcDbEntity
  8
0
100
AcDbCircle
 10
567.3516292266185
 20
357.1200496375627
 30
0.0
 40
31.30000000000006
100
AcDbArc
 50
321.2712280468466
 51
338.7287719531528
  0
CIRCLE
  5
4B8E
330
A
100
AcDbEntity
  8
0
100
AcDbCircle
 10
567.3516292266185
 20
383.6200496375627
 30
0.0
 40
2.75
  0
ARC
  5
4B8F
330
A
100
AcDbEntity
  8
0
100
AcDbCircle
 10
567.3516292266185
 20
357.1200496375627
 30
0.0
 40
31.29999999999995
100
AcDbArc
 50
81.27122804685326
 51
98.72877195314673
  0
CIRCLE
  5
4B90
330
A
100
AcDbEntity
  8
0
100
AcDbCircle
 10
544.4019560263306
 20
343.8700496375629
 30
0.0
 40
2.750000000000055
  0
ARC
  5
4B91
330
A
100
AcDbEntity
  8
0
100
AcDbCircle
 10
567.3516292266185
 20
357.1200496375627
 30
0.0
 40
31.30000000000002
100
AcDbArc
 50
201.2712280468471
 51
218.7287719531535
  0
LINE
  5
4B92
330
A
100
AcDbEntity
  8
0
100
AcDbLine
 10
610.4878359063794
 20
377.4059480224245
 30
0.0
 11
606.4878359063794
 21
384.3341512527
 31
0.0
  0
LINE
  5
4B93
330
A
100
AcDbEntity
  8
0
100
AcDbLine
 10
602.6936072723194
 20
372.9059480224245
 30
0.0
 11
598.6936072723194
 21
379.8341512527002
 31
0.0
  0
LINE
  5
4B94
330
A
100
AcDbEntity
  8
0
100
AcDbLine
 10
606.4878359063794
 20
384.3341512527
 30
0.0
 11
598.6936072723194
 21
379.8341512527002
 31
0.0
  0
LINE
  5
4B95
330
A
100
AcDbEntity
  8
0
100
AcDbLine
 10
610.4878359063794
 20
377.4059480224245
 30
0.0
 11
602.6936072723194
 21
372.9059480224245
 31
0.0
  0
LINE
  5
4B96
330
A
100
AcDbEntity
  8
0
100
AcDbLine
 10
592.3013024269059
 20
366.9059480224248
 30
0.0
 11
588.3013024269062
 21
373.8341512527003
 31
0.0
  0
LINE
  5
4B97
330
A
100
AcDbEntity
  8
0
100
AcDbLine
 10
600.095531060966
 20
371.4059480224245
 30
0.0
 11
596.095531060966
 21
378.3341512527002
 31
0.0
  0
LINE
  5
4B98
330
A
100
AcDbEntity
  8
0
100
AcDbLine
 10
596.095531060966
 20
378.3341512527002
 30
0.0
 11
588.3013024269062
 21
373.8341512527003
 31
0.0
  0
LINE
  5
4B99
330
A
100
AcDbEntity
  8
0
100
AcDbLine
 10
600.095531060966
 20
371.4059480224245
 30
0.0
 11
592.3013024269059
 21
366.9059480224248
 31
0.0
  0
LINE
  5
4B9A
330
A
100
AcDbEntity
  8
0
100
AcDbLine
 10
598.6936072723194
 20
379.8341512527002
 30
0.0
 11
596.095531060966
 21
378.3341512527002
 31
0.0
  0
LINE
  5
4B9B
330
A
100
AcDbEntity
  8
0
100
AcDbLine
 10
602.6936072723194
 20
372.9059480224245
 30
0.0
 11
600.095531060966
 21
371.4059480224245
 31
0.0
  0
LINE
  5
4B9C
330
A
100
AcDbEntity
  8
0
100
AcDbLine
 10
612.9878359063793
 20
373.0758210035022
 30
0.0
 11
606.492645377996
 21
369.3258210035025
 31
0.0
  0
LINE
  5
4B9D
330
A
100
AcDbEntity
  8
0
100
AcDbLine
 10
612.9878359063793
 20
373.0758210035022
 30
0.0
 11
610.4878359063794
 21
377.4059480224245
 31
0.0
  0
LINE
  5
4B9E
330
A
100
AcDbEntity
  8
0
100
AcDbLine
 10
603.9878359063796
 20
388.6642782716224
 30
0.0
 11
597.4926453779962
 21
384.9142782716224
 31
0.0
  0
LINE
  5
4B9F
330
A
100
AcDbEntity
  8
0
100
AcDbLine
 10
606.4878359063794
 20
384.3341512527
 30
0.0
 11
603.9878359063796
 21
388.6642782716224
 31
0.0
  0
LINE
  5
4BA0
330
A
100
AcDbEntity
  8
0
100
AcDbLine
 10
563.3516292266183
 20
330.6200496375627
 30
0.0
 11
571.3516292266183
 21
330.6200496375627
 31
0.0
  0
ARC
  5
4BA1
330
A
100
AcDbEntity
  8
DIM
100
AcDbCircle
 10
567.3516292266183
 20
326.1200496375628
 30
0.0
 40
2.0
100
AcDbArc
 50
90.0
 51
0.0
  0
LINE
  5
4BA2
330
A
100
AcDbEntity
  8
0
100
AcDbLine
 10
563.3516292266183
 20
321.6200496375626
 30
0.0
 11
571.3516292266183
 21
321.6200496375626
 31
0.0
  0
LINE
  5
4BA3
330
A
100
AcDbEntity
  8
0
100
AcDbLine
 10
571.3516292266183
 20
321.6200496375626
 30
0.0
 11
571.3516292266183
 21
330.6200496375627
 31
0.0
  0
LINE
  5
4BA4
330
A
100
AcDbEntity
  8
0
100
AcDbLine
 10
563.3516292266183
 20
321.6200496375626
 30
0.0
 11
563.3516292266183
 21
330.6200496375627
 31
0.0
  0
LINE
  5
4BA5
330
A
100
AcDbEntity
  8
0
100
AcDbLine
 10
563.3516292266183
 20
309.6200496375628
 30
0.0
 11
571.3516292266183
 21
309.6200496375628
 31
0.0
  0
LINE
  5
4BA6
330
A
100
AcDbEntity
  8
0
100
AcDbLine
 10
563.3516292266183
 20
318.6200496375627
 30
0.0
 11
571.3516292266183
 21
318.6200496375627
 31
0.0
  0
LINE
  5
4BA7
330
A
100
AcDbEntity
  8
0
100
AcDbLine
 10
571.3516292266183
 20
309.6200496375628
 30
0.0
 11
571.3516292266183
 21
318.6200496375627
 31
0.0
  0
ARC
  5
4BA8
330
A
100
AcDbEntity
  8
DIM
100
AcDbCircle
 10
567.3516292266183
 20
314.1200496375627
 30
0.0
 40
2.0
100
AcDbArc
 50
90.0
 51
0.0
  0
LINE
  5
4BA9
330
A
100
AcDbEntity
  8
0
100
AcDbLine
 10
563.3516292266183
 20
309.6200496375628
 30
0.0
 11
563.3516292266183
 21
318.6200496375627
 31
0.0
  0
LINE
  5
4BAA
330
A
100
AcDbEntity
  8
0
100
AcDbLine
 10
571.3516292266183
 20
318.6200496375627
 30
0.0
 11
571.3516292266183
 21
321.6200496375628
 31
0.0
  0
LINE
  5
4BAB
330
A
100
AcDbEntity
  8
0
100
AcDbLine
 10
563.3516292266183
 20
318.6200496375627
 30
0.0
 11
563.3516292266183
 21
321.6200496375628
 31
0.0
  0
LINE
  5
4BAC
330
A
100
AcDbEntity
  8
0
100
AcDbLine
 10
576.3516292266183
 20
309.6200496375628
 30
0.0
 11
576.3516292266183
 21
317.1200496375627
 31
0.0
  0
LINE
  5
4BAD
330
A
100
AcDbEntity
  8
0
100
AcDbLine
 10
571.3516292266183
 20
309.6200496375628
 30
0.0
 11
576.3516292266183
 21
309.6200496375628
 31
0.0
  0
LINE
  5
4BAE
330
A
100
AcDbEntity
  8
0
100
AcDbLine
 10
558.3516292266183
 20
309.6200496375628
 30
0.0
 11
558.3516292266183
 21
317.1200496375627
 31
0.0
  0
LINE
  5
4BAF
330
A
100
AcDbEntity
  8
0
100
AcDbLine
 10
558.3516292266183
 20
309.6200496375628
 30
0.0
 11
563.3516292266183
 21
309.6200496375628
 31
0.0
  0
LINE
  5
4BB0
330
A
100
AcDbEntity
  8
0
100
AcDbLine
 10
546.4019560263309
 20
373.8341512527006
 30
0.0
 11
542.4019560263307
 21
366.9059480224251
 31
0.0
  0
LINE
  5
4BB1
330
A
100
AcDbEntity
  8
0
100
AcDbLine
 10
538.607727392271
 20
378.3341512527006
 30
0.0
 11
534.6077273922708
 21
371.4059480224251
 31
0.0
  0
LINE
  5
4BB2
330
A
100
AcDbEntity
  8
0
100
AcDbLine
 10
534.6077273922708
 20
371.4059480224251
 30
0.0
 11
542.4019560263307
 21
366.9059480224251
 31
0.0
  0
LINE
  5
4BB3
330
A
100
AcDbEntity
  8
0
100
AcDbLine
 10
538.607727392271
 20
378.3341512527006
 30
0.0
 11
546.4019560263309
 21
373.8341512527006
 31
0.0
  0
LINE
  5
4BB4
330
A
100
AcDbEntity
  8
0
100
AcDbLine
 10
528.2154225468578
 20
384.3341512527006
 30
0.0
 11
524.2154225468578
 21
377.4059480224252
 31
0.0
  0
LINE
  5
4BB5
330
A
100
AcDbEntity
  8
0
100
AcDbLine
 10
536.0096511809174
 20
379.8341512527006
 30
0.0
 11
532.0096511809176
 21
372.9059480224251
 31
0.0
  0
LINE
  5
4BB6
330
A
100
AcDbEntity
  8
0
100
AcDbLine
 10
524.2154225468578
 20
377.4059480224252
 30
0.0
 11
532.0096511809176
 21
372.9059480224251
 31
0.0
  0
LINE
  5
4BB7
330
A
100
AcDbEntity
  8
0
100
AcDbLine
 10
528.2154225468578
 20
384.3341512527006
 30
0.0
 11
536.0096511809174
 21
379.8341512527006
 31
0.0
  0
LINE
  5
4BB8
330
A
100
AcDbEntity
  8
0
100
AcDbLine
 10
532.0096511809176
 20
372.9059480224251
 30
0.0
 11
534.6077273922708
 21
371.4059480224251
 31
0.0
  0
LINE
  5
4BB9
330
A
100
AcDbEntity
  8
0
100
AcDbLine
 10
536.0096511809176
 20
379.8341512527006
 30
0.0
 11
538.607727392271
 21
378.3341512527006
 31
0.0
  0
LINE
  5
4BBA
330
A
100
AcDbEntity
  8
0
100
AcDbLine
 10
530.7154225468577
 20
388.6642782716228
 30
0.0
 11
537.2106130752411
 21
384.9142782716228
 31
0.0
  0
LINE
  5
4BBB
330
A
100
AcDbEntity
  8
0
100
AcDbLine
 10
530.7154225468577
 20
388.6642782716228
 30
0.0
 11
528.2154225468578
 21
384.3341512527006
 31
0.0
  0
LINE
  5
4BBC
330
A
100
AcDbEntity
  8
0
100
AcDbLine
 10
521.7154225468575
 20
373.075821003503
 30
0.0
 11
528.2106130752408
 21
369.3258210035029
 31
0.0
  0
LINE
  5
4BBD
330
A
100
AcDbEntity
  8
0
100
AcDbLine
 10
524.2154225468578
 20
377.4059480224252
 30
0.0
 11
521.7154225468575
 21
373.075821003503
 31
0.0
  0
LINE
  5
4BBE
330
A
100
AcDbEntity
  8
0
100
AcDbLine
 10
727.2989910982273
 20
388.1200496375627
 30
0.0
 11
688.7989910982273
 21
388.1200496375627
 31
0.0
  0
LINE
  5
4BBF
330
A
100
AcDbEntity
  8
0
100
AcDbLine
 10
688.7989910982273
 20
326.1200496375626
 30
0.0
 11
727.2989910982273
 21
326.1200496375626
 31
0.0
  0
LINE
  5
4BC0
330
A
100
AcDbEntity
  8
0
100
AcDbLine
 10
684.7989910982273
 20
316.1200496375627
 30
0.0
 11
688.7989910982273
 21
316.1200496375627
 31
0.0
  0
LINE
  5
4BC1
330
A
100
AcDbEntity
  8
0
100
AcDbLine
 10
668.031041905796
 20
384.3341512527
 30
0.0
 11
668.0310419057962
 21
389.1892147226682
 31
0.0
  0
LINE
  5
4BC2
330
A
100
AcDbEntity
  8
0
100
AcDbLine
 10
688.7989910982271
 20
389.1892147226682
 30
0.0
 11
668.0310419057962
 21
389.1892147226682
 31
0.0
  0
LINE
  5
4BC3
330
A
100
AcDbEntity
  8
0
100
AcDbLine
 10
688.7989910982269
 20
363.2084526091353
 30
0.0
 11
688.7989910982271
 21
389.1892147226682
 31
0.0
  0
LINE
  5
4BC4
330
A
100
AcDbEntity
  8
0
100
AcDbLine
 10
688.7989910982269
 20
363.2084526091353
 30
0.0
 11
668.031041905796
 21
363.2084526091353
 31
0.0
  0
LINE
  5
4BC5
330
A
100
AcDbEntity
  8
0
100
AcDbLine
 10
668.031041905796
 20
363.2084526091353
 30
0.0
 11
668.031041905796
 21
374.0581537855277
 31
0.0
  0
LINE
  5
4BC6
330
A
100
AcDbEntity
  8
0
100
AcDbLine
 10
668.031041905796
 20
374.0581537855277
 30
0.0
 11
671.2989910982269
 21
374.0581537855277
 31
0.0
  0
LINE
  5
4BC7
330
A
100
AcDbEntity
  8
0
100
AcDbLine
 10
678.2989910982268
 20
369.3258210035025
 30
0.0
 11
671.2989910982269
 21
369.3258210035025
 31
0.0
  0
LINE
  5
4BC8
330
A
100
AcDbEntity
  8
0
100
AcDbLine
 10
678.2989910982268
 20
373.136912568016
 30
0.0
 11
684.7989910982269
 21
373.136912568016
 31
0.0
  0
LINE
  5
4BC9
330
A
100
AcDbEntity
  8
0
100
AcDbLine
 10
688.7989910982269
 20
358.7283842777335
 30
0.0
 11
666.2989910982271
 21
358.7283842777335
 31
0.0
  0
LINE
  5
4BCA
330
A
100
AcDbEntity
  8
0
100
AcDbLine
 10
666.2989910982271
 20
358.7283842777335
 30
0.0
 11
666.2989910982268
 21
361.5867588308923
 31
0.0
  0
LINE
  5
4BCB
330
A
100
AcDbEntity
  8
0
100
AcDbLine
 10
668.031041905796
 20
363.2084526091353
 30
0.0
 11
666.2989910982268
 21
361.5867588308923
 31
0.0
  0
LINE
  5
4BCC
330
A
100
AcDbEntity
  8
0
100
AcDbLine
 10
688.7989910982269
 20
358.7283842777335
 30
0.0
 11
688.7989910982269
 21
363.2084526091353
 31
0.0
  0
LINE
  5
4BCD
330
A
100
AcDbEntity
  8
0
100
AcDbLine
 10
666.2989910982268
 20
361.5867588308923
 30
0.0
 11
666.2989910982271
 21
372.5503916501159
 31
0.0
  0
LINE
  5
4BCE
330
A
100
AcDbEntity
  8
0
100
AcDbLine
 10
666.2989910982271
 20
372.5503916501159
 30
0.0
 11
668.031041905796
 21
374.0581537855277
 31
0.0
  0
LINE
  5
4BCF
330
A
100
AcDbEntity
  8
0
100
AcDbLine
 10
666.2989910982271
 20
387.5675209444256
 30
0.0
 11
668.0310419057962
 21
389.1892147226682
 31
0.0
  0
LINE
  5
4BD0
330
A
100
AcDbEntity
  8
0
100
AcDbLine
 10
666.2989910982271
 20
384.3341512527
 30
0.0
 11
666.2989910982271
 21
387.5675209444256
 31
0.0
  0
LINE
  5
4BD1
330
A
100
AcDbEntity
  8
0
100
AcDbLine
 10
688.7989910982269
 20
356.2168743845594
 30
0.0
 11
666.2989910982271
 21
356.2168743845594
 31
0.0
  0
LINE
  5
4BD2
330
A
100
AcDbEntity
  8
0
100
AcDbLine
 10
666.2989910982271
 20
356.2168743845594
 30
0.0
 11
666.2989910982271
 21
358.7283842777335
 31
0.0
  0
LINE
  5
4BD3
330
A
100
AcDbEntity
  8
0
100
AcDbLine
 10
688.7989910982269
 20
356.2168743845594
 30
0.0
 11
688.7989910982269
 21
358.7283842777335
 31
0.0
  0
LINE
  5
4BD4
330
A
100
AcDbEntity
  8
0
100
AcDbLine
 10
666.2989910982271
 20
354.164245876885
 30
0.0
 11
688.7989910982269
 21
354.164245876885
 31
0.0
  0
LINE
  5
4BD5
330
A
100
AcDbEntity
  8
0
100
AcDbLine
 10
666.2989910982271
 20
354.164245876885
 30
0.0
 11
666.2989910982271
 21
356.2168743845594
 31
0.0
  0
LINE
  5
4BD6
330
A
100
AcDbEntity
  8
0
100
AcDbLine
 10
688.7989910982269
 20
354.164245876885
 30
0.0
 11
688.7989910982269
 21
356.2168743845594
 31
0.0
  0
LWPOLYLINE
  5
4BD7
330
A
100
AcDbEntity
  8
0
100
AcDbPolyline
 90
       38
 70
   128
 43
0.0
 10
696.2989910982271
 20
387.5792164151901
 10
695.4657789941234
 20
387.5659349304683
 10
694.6562021578902
 20
387.5256942955567
 10
693.8939411141443
 20
387.4569878994851
 10
693.1988025624246
 20
387.3580385167896
 10
692.5861023570969
 20
387.2251861426582
 10
692.0774287132721
 20
387.0578779744887
 10
691.686722172737
 20
386.853762677374
 10
691.426853433943
 20
386.6156461720811
 10
691.3080493067798
 20
386.3489551772063
 10
691.3290943805577
 20
386.0586000324722
 10
691.4892066902296
 20
385.7555845599914
 10
691.7812392685607
 20
385.4481240880825
 10
692.2005494397255
 20
385.1466459067895
 10
692.7327313123798
 20
384.8651525789157
 10
693.3723607091369
 20
384.6140855917047
 10
694.0950388910462
 20
384.4086127434273
 10
694.8825353572251
 20
384.2601919816234
 10
695.7109861785866
 20
384.1761908222791
 10
696.5472922247413
 20
384.1624025795672
 10
697.376529778128
 20
384.2170245004732
 10
698.1701510034224
 20
384.3372895255937
 10
698.9117300642417
 20
384.5157121613607
 10
699.5856968715202
 20
384.746079156219
 10
700.1681083554195
 20
385.014925072227
 10
700.6457160632996
 20
385.3130149956608
 10
701.0003031336337
 20
385.6243649472443
 10
701.2189608422134
 20
385.9346867337184
 10
701.2987584041084
 20
386.2339873095587
 10
701.2367138229267
 20
386.5090439411782
 10
701.038399353786
 20
386.7569053109201
 10
700.7082376379144
 20
386.9721500728482
 10
700.2573080699928
 20
387.1535399653081
 10
699.689931891323
 20
387.3017159677988
 10
699.0274480306325
 20
387.4162579800572
 10
698.2820197747489
 20
387.4992237798162
 10
697.4794227762486
 20
387.5522667746202
 10
696.2989910982271
 20
387.5792164151901
  0
LINE
  5
4BD8
330
A
100
AcDbEntity
  8
0
100
AcDbLine
 10
727.2989910982271
 20
354.2165089232975
 30
0.0
 11
727.2989910982273
 21
388.1200496375627
 31
0.0
  0
LINE
  5
4BD9
330
A
100
AcDbEntity
  8
0
100
AcDbLine
 10
688.7989910982269
 20
354.2165089232975
 30
0.0
 11
727.2989910982271
 21
354.2165089232975
 31
0.0
  0
LINE
  5
4BDA
330
A
100
AcDbEntity
  8
0
100
AcDbLine
 10
727.2989910982271
 20
349.2924701582365
 30
0.0
 11
688.7989910982269
 21
349.2924701582365
 31
0.0
  0
LINE
  5
4BDB
330
A
100
AcDbEntity
  8
0
100
AcDbLine
 10
688.7989910982269
 20
349.2924701582365
 30
0.0
 11
688.7989910982269
 21
349.2402071118239
 31
0.0
  0
LINE
  5
4BDC
330
A
100
AcDbEntity
  8
0
100
AcDbLine
 10
666.2989910982271
 20
349.2402071118239
 30
0.0
 11
688.7989910982269
 21
349.2402071118239
 31
0.0
  0
LINE
  5
4BDD
330
A
100
AcDbEntity
  8
0
100
AcDbLine
 10
666.2989910982271
 20
349.8993503825409
 30
0.0
 11
727.2989910982271
 21
349.8993503825409
 31
0.0
  0
LINE
  5
4BDE
330
A
100
AcDbEntity
  8
0
100
AcDbLine
 10
727.2989910982271
 20
349.2924701582365
 30
0.0
 11
727.2989910982271
 21
349.8993503825409
 31
0.0
  0
LINE
  5
4BDF
330
A
100
AcDbEntity
  8
0
100
AcDbLine
 10
666.2989910982271
 20
349.2402071118239
 30
0.0
 11
666.2989910982271
 21
349.8993503825409
 31
0.0
  0
LINE
  5
4BE0
330
A
100
AcDbEntity
  8
0
100
AcDbLine
 10
675.7989910982271
 20
337.537690333227
 30
0.0
 11
666.2989910982271
 21
337.537690333227
 31
0.0
  0
LINE
  5
4BE1
330
A
100
AcDbEntity
  8
0
100
AcDbLine
 10
675.7989910982271
 20
337.537690333227
 30
0.0
 11
675.7989910982269
 21
345.7649316691791
 31
0.0
  0
LINE
  5
4BE2
330
A
100
AcDbEntity
  8
0
100
AcDbLine
 10
675.7989910982269
 20
345.7649316691791
 30
0.0
 11
666.2989910982271
 21
345.7649316691791
 31
0.0
  0
LINE
  5
4BE3
330
A
100
AcDbEntity
  8
0
100
AcDbLine
 10
666.2989910982271
 20
334.8264320364669
 30
0.0
 11
688.7989910982271
 21
334.8264320364669
 31
0.0
  0
LINE
  5
4BE4
330
A
100
AcDbEntity
  8
0
100
AcDbLine
 10
688.7989910982271
 20
334.8264320364669
 30
0.0
 11
688.7989910982269
 21
349.2402071118239
 31
0.0
  0
LINE
  5
4BE5
330
A
100
AcDbEntity
  8
0
100
AcDbLine
 10
666.2989910982271
 20
345.7649316691791
 30
0.0
 11
666.2989910982271
 21
349.2402071118239
 31
0.0
  0
LINE
  5
4BE6
330
A
100
AcDbEntity
  8
0
100
AcDbLine
 10
666.2989910982271
 20
334.8264320364669
 30
0.0
 11
666.2989910982271
 21
337.537690333227
 31
0.0
  0
LINE
  5
4BE7
330
A
100
AcDbEntity
  8
0
100
AcDbLine
 10
688.7989910982271
 20
335.056989113556
 30
0.0
 11
727.2989910982271
 21
335.056989113556
 31
0.0
  0
LINE
  5
4BE8
330
A
100
AcDbEntity
  8
0
100
AcDbLine
 10
727.2989910982271
 20
335.056989113556
 30
0.0
 11
727.2989910982271
 21
349.2924701582365
 31
0.0
  0
LINE
  5
4BE9
330
A
100
AcDbEntity
  8
0
100
AcDbLine
 10
666.2989910982271
 20
349.9226622882842
 30
0.0
 11
727.2989910982271
 21
349.9226622882842
 31
0.0
  0
LINE
  5
4BEA
330
A
100
AcDbEntity
  8
0
100
AcDbLine
 10
727.2989910982271
 20
349.8993503825409
 30
0.0
 11
727.2989910982271
 21
349.9226622882842
 31
0.0
  0
LINE
  5
4BEB
330
A
100
AcDbEntity
  8
0
100
AcDbLine
 10
666.2989910982271
 20
349.8993503825409
 30
0.0
 11
666.2989910982271
 21
349.9226622882842
 31
0.0
  0
LINE
  5
4BEC
330
A
100
AcDbEntity
  8
0
100
AcDbLine
 10
675.7989910982271
 20
339.7564289695865
 30
0.0
 11
666.2989910982271
 21
339.7564289695865
 31
0.0
  0
LINE
  5
4BED
330
A
100
AcDbEntity
  8
0
100
AcDbLine
 10
666.2989910982271
 20
345.7649316691791
 30
0.0
 11
666.2989910982271
 21
339.7564289695865
 31
0.0
  0
LINE
  5
4BEE
330
A
100
AcDbEntity
  8
0
100
AcDbLine
 10
666.2989910982271
 20
339.7564289695865
 30
0.0
 11
666.2989910982271
 21
337.537690333227
 31
0.0
  0
LINE
  5
4BEF
330
A
100
AcDbEntity
  8
0
100
AcDbLine
 10
727.2989910982271
 20
349.9226622882842
 30
0.0
 11
727.2989910982271
 21
354.2165089232975
 31
0.0
  0
LINE
  5
4BF0
330
A
100
AcDbEntity
  8
0
100
AcDbLine
 10
666.2989910982271
 20
349.9226622882842
 30
0.0
 11
666.2989910982271
 21
354.164245876885
 31
0.0
  0
LINE
  5
4BF1
330
A
100
AcDbEntity
  8
0
100
AcDbLine
 10
727.2989910982271
 20
331.8430510651233
 30
0.0
 11
688.7989910982271
 21
331.8430510651233
 31
0.0
  0
LINE
  5
4BF2
330
A
100
AcDbEntity
  8
0
100
AcDbLine
 10
688.7989910982271
 20
331.8430510651233
 30
0.0
 11
688.7989910982271
 21
331.6124939880342
 31
0.0
  0
LINE
  5
4BF3
330
A
100
AcDbEntity
  8
0
100
AcDbLine
 10
666.2989910982271
 20
331.6124939880342
 30
0.0
 11
688.7989910982271
 21
331.6124939880342
 31
0.0
  0
LINE
  5
4BF4
330
A
100
AcDbEntity
  8
0
100
AcDbLine
 10
666.2989910982271
 20
334.5202874733218
 30
0.0
 11
727.2989910982271
 21
334.5202874733218
 31
0.0
  0
LINE
  5
4BF5
330
A
100
AcDbEntity
  8
0
100
AcDbLine
 10
727.2989910982271
 20
331.8430510651233
 30
0.0
 11
727.2989910982271
 21
334.5202874733218
 31
0.0
  0
LINE
  5
4BF6
330
A
100
AcDbEntity
  8
0
100
AcDbLine
 10
666.2989910982271
 20
331.6124939880342
 30
0.0
 11
666.2989910982271
 21
334.5202874733218
 31
0.0
  0
LINE
  5
4BF7
330
A
100
AcDbEntity
  8
0
100
AcDbLine
 10
688.7989910982271
 20
330.4763294443187
 30
0.0
 11
688.7989910982271
 21
331.6124939880342
 31
0.0
  0
LINE
  5
4BF8
330
A
100
AcDbEntity
  8
0
100
AcDbLine
 10
688.7989910982271
 20
330.4763294443187
 30
0.0
 11
666.2989910982271
 21
330.4763294443187
 31
0.0
  0
LINE
  5
4BF9
330
A
100
AcDbEntity
  8
0
100
AcDbLine
 10
666.2989910982271
 20
330.4763294443187
 30
0.0
 11
666.2989910982271
 21
331.6124939880342
 31
0.0
  0
LINE
  5
4BFA
330
A
100
AcDbEntity
  8
0
100
AcDbLine
 10
727.2989910982273
 20
326.1200496375626
 30
0.0
 11
727.2989910982271
 21
331.8430510651233
 31
0.0
  0
LINE
  5
4BFB
330
A
100
AcDbEntity
  8
0
100
AcDbLine
 10
688.7989910982271
 20
327.9226182436884
 30
0.0
 11
666.2989910982271
 21
327.9226182436884
 31
0.0
  0
LINE
  5
4BFC
330
A
100
AcDbEntity
  8
0
100
AcDbLine
 10
688.7989910982271
 20
327.9226182436884
 30
0.0
 11
688.7989910982271
 21
330.4763294443187
 31
0.0
  0
LINE
  5
4BFD
330
A
100
AcDbEntity
  8
0
100
AcDbLine
 10
666.2989910982271
 20
327.9226182436884
 30
0.0
 11
666.2989910982271
 21
330.4763294443187
 31
0.0
  0
LWPOLYLINE
  5
4BFE
330
A
100
AcDbEntity
  8
0
100
AcDbPolyline
 90
        9
 70
   128
 43
0.0
 10
696.2989910982271
 20
387.109370104797
 10
697.1439951998365
 20
387.0847718627746
 10
697.9646900719376
 20
387.0116847833444
 10
698.7374658172955
 20
386.8922114487124
 10
699.4400910847055
 20
386.7297888891912
 10
700.0523526244911
 20
386.5290897060963
 10
700.5566367868939
 20
386.2958876495134
 10
700.9384362347097
 20
386.0368915180204
 10
701.1433772277014
 20
385.8225907231175
  0
LWPOLYLINE
  5
4BFF
330
A
100
AcDbEntity
  8
0
100
AcDbPolyline
 90
        9
 70
   128
 43
0.0
 10
691.4480812976965
 20
385.8137597189406
 10
691.6595459617447
 20
386.0368915180205
 10
692.0413454095608
 20
386.2958876495134
 10
692.5456295719636
 20
386.5290897060963
 10
693.1578911117489
 20
386.7297888891912
 10
693.8605163791589
 20
386.8922114487124
 10
694.633292124517
 20
387.0116847833444
 10
695.4539869966181
 20
387.0847718627746
 10
696.2989910982271
 20
387.109370104797
  0
LINE
  5
4C00
330
A
100
AcDbEntity
  8
0
100
AcDbLine
 10
688.7989910982271
 20
318.9624815808847
 30
0.0
 11
668.0310419057962
 21
318.9624815808847
 31
0.0
  0
LWPOLYLINE
  5
4C01
330
A
100
AcDbEntity
  8
0
100
AcDbPolyline
 90
        3
 70
   128
 43
0.0
 10
666.2989910982271
 20
322.2058691373705
 10
667.3713646822975
 20
320.1929217264108
 10
668.0310419057962
 20
318.9624815808847
  0
LINE
  5
4C02
330
A
100
AcDbEntity
  8
0
100
AcDbLine
 10
688.7989910982271
 20
318.9624815808847
 30
0.0
 11
688.7989910982271
 21
327.9226182436884
 31
0.0
  0
LINE
  5
4C03
330
A
100
AcDbEntity
  8
0
100
AcDbLine
 10
666.2989910982271
 20
322.2058691373705
 30
0.0
 11
666.2989910982271
 21
327.9226182436884
 31
0.0
  0
LINE
  5
4C04
330
A
100
AcDbEntity
  8
0
100
AcDbLine
 10
684.7989910982273
 20
316.4260697388111
 30
0.0
 11
678.2989910982271
 21
316.4260697388111
 31
0.0
  0
LINE
  5
4C05
330
A
100
AcDbEntity
  8
0
100
AcDbLine
 10
678.2989910982271
 20
317.1200496375627
 30
0.0
 11
671.2989910982271
 21
317.1200496375627
 31
0.0
  0
LINE
  5
4C06
330
A
100
AcDbEntity
  8
0
100
AcDbLine
 10
668.0310419057962
 20
316.3156381113564
 30
0.0
 11
671.2989910982271
 21
316.3156381113564
 31
0.0
  0
LINE
  5
4C07
330
A
100
AcDbEntity
  8
0
100
AcDbLine
 10
668.0310419057962
 20
316.3156381113564
 30
0.0
 11
668.0310419057962
 21
318.9624815808847
 31
0.0
  0
LINE
  5
4C08
330
A
100
AcDbEntity
  8
0
100
AcDbLine
 10
688.7989910982273
 20
316.1200496375627
 30
0.0
 11
688.7989910982271
 21
318.9624815808847
 31
0.0
  0
LWPOLYLINE
  5
4C09
330
A
100
AcDbEntity
  8
0
100
AcDbPolyline
 90
        3
 70
   128
 43
0.0
 10
666.2989910982271
 20
319.3311623821803
 10
666.5778857575872
 20
318.8454381384129
 10
668.0310419057962
 20
316.3156381113564
  0
LINE
  5
4C0A
330
A
100
AcDbEntity
  8
0
100
AcDbLine
 10
666.2989910982271
 20
319.3311623821803
 30
0.0
 11
666.2989910982271
 21
322.2058691373705
 31
0.0
  0
LWPOLYLINE
  5
4C0B
330
A
100
AcDbEntity
  8
0
100
AcDbPolyline
 90
       27
 70
   128
 43
0.0
 10
696.2989910982271
 20
386.254319746483
 10
696.8972802589462
 20
386.2294735370611
 10
697.4607990283366
 20
386.156378880175
 10
697.9567977438291
 20
386.0392837715946
 10
698.3564507629615
 20
385.8849933534069
 10
698.6365317049408
 20
385.7024744238943
 10
698.7807632834724
 20
385.5023343198111
 10
698.7807632834724
 20
385.2962044565265
 10
698.6365317049408
 20
385.0960643524431
 10
698.3564507629615
 20
384.9135454229307
 10
697.9567977438291
 20
384.7592550047431
 10
697.4607990283366
 20
384.6421598961628
 10
696.8972802589462
 20
384.5690652392764
 10
696.2989910982271
 20
384.5442190298546
 10
695.7007019375082
 20
384.5690652392764
 10
695.1371831681179
 20
384.6421598961628
 10
694.6411844526253
 20
384.7592550047431
 10
694.241531433493
 20
384.9135454229307
 10
693.9614504915136
 20
385.0960643524431
 10
693.817218912982
 20
385.2962044565265
 10
693.817218912982
 20
385.5023343198111
 10
693.9614504915136
 20
385.7024744238943
 10
694.241531433493
 20
385.8849933534069
 10
694.6411844526253
 20
386.0392837715946
 10
695.1371831681179
 20
386.156378880175
 10
695.7007019375084
 20
386.2294735370611
 10
696.2989910982271
 20
386.254319746483
  0
LINE
  5
4C0C
330
A
100
AcDbEntity
  8
0
100
AcDbLine
 10
727.2989910982271
 20
334.5202874733218
 30
0.0
 11
727.2989910982271
 21
335.056989113556
 31
0.0
  0
LINE
  5
4C0D
330
A
100
AcDbEntity
  8
0
100
AcDbLine
 10
666.2989910982271
 20
334.5202874733218
 30
0.0
 11
666.2989910982271
 21
334.8264320364669
 31
0.0
  0
LINE
  5
4C0E
330
A
100
AcDbEntity
  8
0
100
AcDbLine
 10
666.822342202031
 20
388.0575269102817
 30
0.0
 11
666.2989910982274
 21
388.0575269102817
 31
0.0
  0
LINE
  5
4C0F
330
A
100
AcDbEntity
  8
0
100
AcDbLine
 10
666.2989910982271
 20
387.5734068755708
 30
0.0
 11
666.2989910982274
 21
388.0575269102817
 31
0.0
  0
LINE
  5
4C10
330
A
100
AcDbEntity
  8
0
100
AcDbLine
 10
678.2989910982268
 20
373.0758210035024
 30
0.0
 11
671.2989910982269
 21
373.0758210035024
 31
0.0
  0
LINE
  5
4C11
330
A
100
AcDbEntity
  8
0
100
AcDbLine
 10
671.2989910982269
 20
373.0758210035024
 30
0.0
 11
671.2989910982269
 21
377.4059480224245
 31
0.0
  0
LINE
  5
4C12
330
A
100
AcDbEntity
  8
0
100
AcDbLine
 10
671.2989910982269
 20
377.4059480224245
 30
0.0
 11
663.2989910982269
 21
377.4059480224245
 31
0.0
  0
LINE
  5
4C13
330
A
100
AcDbEntity
  8
0
100
AcDbLine
 10
663.2989910982269
 20
377.4059480224245
 30
0.0
 11
663.2989910982269
 21
384.3341512527
 31
0.0
  0
LINE
  5
4C14
330
A
100
AcDbEntity
  8
0
100
AcDbLine
 10
671.2989910982271
 20
384.3341512527
 30
0.0
 11
663.2989910982269
 21
384.3341512527
 31
0.0
  0
LINE
  5
4C15
330
A
100
AcDbEntity
  8
0
100
AcDbLine
 10
671.2989910982271
 20
384.3341512527
 30
0.0
 11
671.2989910982271
 21
388.6642782716224
 31
0.0
  0
LINE
  5
4C16
330
A
100
AcDbEntity
  8
0
100
AcDbLine
 10
678.2989910982271
 20
388.6642782716224
 30
0.0
 11
671.2989910982271
 21
388.6642782716224
 31
0.0
  0
LINE
  5
4C17
330
A
100
AcDbEntity
  8
0
100
AcDbLine
 10
678.2989910982268
 20
385.2001766564845
 30
0.0
 11
678.2989910982271
 21
388.6642782716224
 31
0.0
  0
LINE
  5
4C18
330
A
100
AcDbEntity
  8
0
100
AcDbLine
 10
684.7989910982269
 20
385.2001766564845
 30
0.0
 11
678.2989910982271
 21
385.2001766564845
 31
0.0
  0
LINE
  5
4C19
330
A
100
AcDbEntity
  8
0
100
AcDbLine
 10
684.7989910982269
 20
376.5399226186401
 30
0.0
 11
684.7989910982269
 21
385.2001766564845
 31
0.0
  0
LINE
  5
4C1A
330
A
100
AcDbEntity
  8
0
100
AcDbLine
 10
678.2989910982268
 20
376.5399226186401
 30
0.0
 11
684.7989910982269
 21
376.5399226186401
 31
0.0
  0
LINE
  5
4C1B
330
A
100
AcDbEntity
  8
0
100
AcDbLine
 10
678.2989910982268
 20
373.0758210035024
 30
0.0
 11
678.2989910982268
 21
376.5399226186401
 31
0.0
  0
LINE
  5
4C1C
330
A
100
AcDbEntity
  8
0
100
AcDbLine
 10
671.2989910982269
 20
373.0758210035024
 30
0.0
 11
671.2989910982269
 21
369.3258210035025
 31
0.0
  0
LINE
  5
4C1D
330
A
100
AcDbEntity
  8
0
100
AcDbLine
 10
678.2989910982271
 20
369.3258210035025
 30
0.0
 11
678.2989910982268
 21
373.0758210035024
 31
0.0
  0
LINE
  5
4C1E
330
A
100
AcDbEntity
  8
0
100
AcDbLine
 10
684.7989910982269
 20
373.136912568016
 30
0.0
 11
684.7989910982269
 21
376.5399226186401
 31
0.0
  0
LINE
  5
4C1F
330
A
100
AcDbEntity
  8
0
100
AcDbLine
 10
663.2989910982269
 20
371.4059480224245
 30
0.0
 11
663.2989910982269
 21
366.9059480224247
 31
0.0
  0
LINE
  5
4C20
330
A
100
AcDbEntity
  8
0
100
AcDbLine
 10
665.2989910982271
 20
371.4059480224245
 30
0.0
 11
663.2989910982269
 21
371.4059480224245
 31
0.0
  0
LINE
  5
4C21
330
A
100
AcDbEntity
  8
0
100
AcDbLine
 10
665.2989910982271
 20
372.9059480224245
 30
0.0
 11
665.2989910982271
 21
371.4059480224245
 31
0.0
  0
LINE
  5
4C22
330
A
100
AcDbEntity
  8
0
100
AcDbLine
 10
663.2989910982269
 20
372.9059480224247
 30
0.0
 11
665.2989910982271
 21
372.9059480224245
 31
0.0
  0
LINE
  5
4C23
330
A
100
AcDbEntity
  8
0
100
AcDbLine
 10
663.2989910982269
 20
377.4059480224245
 30
0.0
 11
663.2989910982269
 21
372.9059480224247
 31
0.0
  0
LINE
  5
4C24
330
A
100
AcDbEntity
  8
0
100
AcDbLine
 10
663.2989910982269
 20
366.9059480224247
 30
0.0
 11
666.2989910982274
 21
366.9059480224247
 31
0.0
  0
LINE
  5
4C25
330
A
100
AcDbEntity
  8
0
100
AcDbLine
 10
663.2989910982269
 20
371.4059480224245
 30
0.0
 11
663.2989910982273
 21
372.9059480224251
 31
0.0
  0
LINE
  5
4C26
330
A
100
AcDbEntity
  8
0
100
AcDbLine
 10
671.2989910982271
 20
309.6200496375628
 30
0.0
 11
671.2989910982271
 21
317.1200496375627
 31
0.0
  0
LINE
  5
4C27
330
A
100
AcDbEntity
  8
0
100
AcDbLine
 10
678.2989910982273
 20
317.1200496375627
 30
0.0
 11
678.2989910982271
 21
309.6200496375628
 31
0.0
  0
LINE
  5
4C28
330
A
100
AcDbEntity
  8
0
100
AcDbLine
 10
678.2989910982271
 20
309.6200496375628
 30
0.0
 11
671.2989910982271
 21
309.6200496375628
 31
0.0
  0
LINE
  5
4C29
330
A
100
AcDbEntity
  8
0
100
AcDbLine
 10
684.7989910982273
 20
316.4260697388111
 30
0.0
 11
684.7989910982273
 21
309.6200496375628
 31
0.0
  0
LINE
  5
4C2A
330
A
100
AcDbEntity
  8
0
100
AcDbLine
 10
684.7989910982273
 20
309.6200496375628
 30
0.0
 11
678.2989910982273
 21
309.6200496375628
 31
0.0
  0
LINE
  5
4C2B
330
A
100
AcDbEntity
  8
0
100
AcDbLine
 10
663.2989910982273
 20
309.6200496375626
 30
0.0
 11
663.2989910982271
 21
318.6200496375628
 31
0.0
  0
LINE
  5
4C2C
330
A
100
AcDbEntity
  8
0
100
AcDbLine
 10
663.2989910982271
 20
318.6200496375628
 30
0.0
 11
665.2989910982273
 21
318.6200496375628
 31
0.0
  0
LINE
  5
4C2D
330
A
100
AcDbEntity
  8
0
100
AcDbLine
 10
665.2989910982273
 20
318.6200496375628
 30
0.0
 11
665.2989910982273
 21
321.6200496375628
 31
0.0
  0
LINE
  5
4C2E
330
A
100
AcDbEntity
  8
0
100
AcDbLine
 10
665.2989910982273
 20
321.6200496375628
 30
0.0
 11
663.2989910982271
 21
321.6200496375626
 31
0.0
  0
LINE
  5
4C2F
330
A
100
AcDbEntity
  8
0
100
AcDbLine
 10
663.2989910982271
 20
321.6200496375626
 30
0.0
 11
663.2989910982271
 21
330.6200496375627
 31
0.0
  0
LINE
  5
4C30
330
A
100
AcDbEntity
  8
0
100
AcDbLine
 10
671.2989910982273
 20
309.6200496375628
 30
0.0
 11
663.2989910982273
 21
309.6200496375626
 31
0.0
  0
LINE
  5
4C31
330
A
100
AcDbEntity
  8
0
100
AcDbLine
 10
663.2989910982271
 20
330.6200496375627
 30
0.0
 11
666.2989910982274
 21
330.6200496375627
 31
0.0
  0
ARC
  5
4C32
330
A
100
AcDbEntity
  8
0
100
AcDbCircle
 10
823.2052467079839
 20
357.1200496375627
 30
0.0
 40
31.00000000000003
100
AcDbArc
 50
234.625650579522
 51
305.374349420478
  0
LINE
  5
4C33
330
A
100
AcDbEntity
  8
0
100
AcDbLine
 10
805.258844751912
 20
331.8430510651233
 30
0.0
 11
807.5053128346057
 21
334.5202874733218
 31
0.0
  0
LINE
  5
4C34
330
A
100
AcDbEntity
  8
0
100
AcDbLine
 10
807.5053128346057
 20
334.5202874733218
 30
0.0
 11
808.3013234644282
 21
334.3799293223534
 31
0.0
  0
LINE
  5
4C35
330
A
100
AcDbEntity
  8
0
100
AcDbLine
 10
808.3013234644282
 20
334.3799293223534
 30
0.0
 11
810.679637620268
 21
337.2142937618937
 31
0.0
  0
LINE
  5
4C36
330
A
100
AcDbEntity
  8
0
100
AcDbLine
 10
810.679637620268
 20
337.2142937618937
 30
0.0
 11
805.7769531843069
 21
341.3281344638874
 31
0.0
  0
LINE
  5
4C37
330
A
100
AcDbEntity
  8
0
100
AcDbLine
 10
805.7769531843069
 20
341.3281344638874
 30
0.0
 11
803.3986390284667
 21
338.4937700243471
 31
0.0
  0
LINE
  5
4C38
330
A
100
AcDbEntity
  8
0
100
AcDbLine
 10
803.3986390284667
 20
338.4937700243471
 30
0.0
 11
803.6750906190109
 21
337.7342255217545
 31
0.0
  0
LINE
  5
4C39
330
A
100
AcDbEntity
  8
0
100
AcDbLine
 10
803.6750906190109
 20
337.7342255217545
 30
0.0
 11
801.4286225363171
 21
335.056989113556
 31
0.0
  0
ARC
  5
4C3A
330
A
100
AcDbEntity
  8
0
100
AcDbCircle
 10
823.2052467079839
 20
357.1200496375627
 30
0.0
 40
31.0
100
AcDbArc
 50
194.6256505795233
 51
225.3743494204815
  0
LINE
  5
4C3B
330
A
100
AcDbEntity
  8
0
100
AcDbLine
 10
793.2097637231268
 20
349.2924701582365
 30
0.0
 11
796.6515525059103
 21
349.8993503825409
 31
0.0
  0
LINE
  5
4C3C
330
A
100
AcDbEntity
  8
0
100
AcDbLine
 10
796.6515525059103
 20
349.8993503825409
 30
0.0
 11
797.1711115451882
 21
349.2801640309165
 31
0.0
  0
LINE
  5
4C3D
330
A
100
AcDbEntity
  8
0
100
AcDbLine
 10
797.1711115451882
 20
349.2801640309165
 30
0.0
 11
800.8149002313334
 21
349.9226622882842
 31
0.0
  0
LINE
  5
4C3E
330
A
100
AcDbEntity
  8
0
100
AcDbLine
 10
800.8149002313334
 20
349.9226622882842
 30
0.0
 11
799.703551894265
 21
356.2254319075623
 31
0.0
  0
LINE
  5
4C3F
330
A
100
AcDbEntity
  8
0
100
AcDbLine
 10
799.703551894265
 20
356.2254319075623
 30
0.0
 11
796.0597632081198
 21
355.5829336501947
 31
0.0
  0
LINE
  5
4C40
330
A
100
AcDbEntity
  8
0
100
AcDbLine
 10
796.0597632081198
 20
355.5829336501947
 30
0.0
 11
795.7833116175756
 21
354.8233891476018
 31
0.0
  0
LINE
  5
4C41
330
A
100
AcDbEntity
  8
0
100
AcDbLine
 10
795.7833116175756
 20
354.8233891476018
 30
0.0
 11
792.3415228347923
 21
354.2165089232975
 31
0.0
  0
ARC
  5
4C42
330
A
100
AcDbEntity
  8
0
100
AcDbCircle
 10
823.2052467079839
 20
357.1200496375627
 30
0.0
 40
31.00000000000009
100
AcDbArc
 50
354.6256505795233
 51
185.3743494204799
  0
LINE
  5
4C43
330
A
100
AcDbEntity
  8
0
100
AcDbLine
 10
850.6271817983915
 20
354.8233891476018
 30
0.0
 11
854.068970581175
 21
354.2165089232975
 31
0.0
  0
LINE
  5
4C44
330
A
100
AcDbEntity
  8
0
100
AcDbLine
 10
850.3507302078476
 20
355.5829336501947
 30
0.0
 11
850.6271817983915
 21
354.8233891476018
 31
0.0
  0
LINE
  5
4C45
330
A
100
AcDbEntity
  8
0
100
AcDbLine
 10
846.7069415217022
 20
356.2254319075623
 30
0.0
 11
850.3507302078476
 21
355.5829336501947
 31
0.0
  0
LINE
  5
4C46
330
A
100
AcDbEntity
  8
0
100
AcDbLine
 10
845.5955931846343
 20
349.9226622882842
 30
0.0
 11
846.7069415217022
 21
356.2254319075623
 31
0.0
  0
LINE
  5
4C47
330
A
100
AcDbEntity
  8
0
100
AcDbLine
 10
849.2393818707792
 20
349.2801640309165
 30
0.0
 11
845.5955931846343
 21
349.9226622882842
 31
0.0
  0
LINE
  5
4C48
330
A
100
AcDbEntity
  8
0
100
AcDbLine
 10
849.7589409100569
 20
349.8993503825409
 30
0.0
 11
849.2393818707792
 21
349.2801640309165
 31
0.0
  0
LINE
  5
4C49
330
A
100
AcDbEntity
  8
0
100
AcDbLine
 10
853.2007296928405
 20
349.2924701582365
 30
0.0
 11
849.7589409100569
 21
349.8993503825409
 31
0.0
  0
ARC
  5
4C4A
330
A
100
AcDbEntity
  8
0
100
AcDbCircle
 10
823.2052467079839
 20
357.1200496375627
 30
0.0
 40
31.0
100
AcDbArc
 50
314.6256505795208
 51
345.3743494204767
  0
LINE
  5
4C4B
330
A
100
AcDbEntity
  8
0
100
AcDbLine
 10
842.7354027969567
 20
337.7342255217545
 30
0.0
 11
844.9818708796504
 21
335.056989113556
 31
0.0
  0
LINE
  5
4C4C
330
A
100
AcDbEntity
  8
0
100
AcDbLine
 10
843.0118543875009
 20
338.4937700243471
 30
0.0
 11
842.7354027969567
 21
337.7342255217545
 31
0.0
  0
LINE
  5
4C4D
330
A
100
AcDbEntity
  8
0
100
AcDbLine
 10
840.6335402316608
 20
341.3281344638874
 30
0.0
 11
843.0118543875009
 21
338.4937700243471
 31
0.0
  0
LINE
  5
4C4E
330
A
100
AcDbEntity
  8
0
100
AcDbLine
 10
835.7308557956994
 20
337.2142937618937
 30
0.0
 11
840.6335402316608
 21
341.3281344638874
 31
0.0
  0
LINE
  5
4C4F
330
A
100
AcDbEntity
  8
0
100
AcDbLine
 10
838.1091699515396
 20
334.3799293223534
 30
0.0
 11
835.7308557956994
 21
337.2142937618937
 31
0.0
  0
LINE
  5
4C50
330
A
100
AcDbEntity
  8
0
100
AcDbLine
 10
838.9051805813618
 20
334.5202874733218
 30
0.0
 11
838.1091699515396
 21
334.3799293223534
 31
0.0
  0
LINE
  5
4C51
330
A
100
AcDbEntity
  8
0
100
AcDbLine
 10
841.1516486640552
 20
331.8430510651233
 30
0.0
 11
838.9051805813618
 21
334.5202874733218
 31
0.0
  0
CIRCLE
  5
4C52
330
A
100
AcDbEntity
  8
0
100
AcDbCircle
 10
823.2052467079839
 20
357.1200496375627
 30
0.0
 40
21.0
  0
CIRCLE
  5
4C53
330
A
100
AcDbEntity
  8
0
100
AcDbCircle
 10
823.2052467079839
 20
383.6200496375627
 30
0.0
 40
2.75
  0
ARC
  5
4C54
330
A
100
AcDbEntity
  8
DIM
100
AcDbCircle
 10
823.2052467079839
 20
330.6200496375627
 30
0.0
 40
2.5
100
AcDbArc
 50
90.0
 51
2.703634335607079
  0
CIRCLE
  5
4C55
330
A
100
AcDbEntity
  8
0
100
AcDbCircle
 10
800.2555735076962
 20
343.8700496375627
 30
0.0
 40
2.749999999999979
  0
CIRCLE
  5
4C56
330
A
100
AcDbEntity
  8
0
100
AcDbCircle
 10
846.1549199082714
 20
343.8700496375629
 30
0.0
 40
2.750000000000085
  0
CIRCLE
  5
4C57
330
A
100
AcDbEntity
  8
0
100
AcDbCircle
 10
813.0641357503089
 20
381.6028572491119
 30
0.0
 40
2.0
  0
LINE
  5
4C58
330
A
100
AcDbEntity
  8
0
100
AcDbLine
 10
831.1159151682709
 20
332.7957546937947
 30
0.0
 11
831.8812820330013
 21
330.9479956287722
 31
0.0
  0
ARC
  5
4C59
330
A
100
AcDbEntity
  8
0
100
AcDbCircle
 10
833.7290410980235
 20
331.7133624935024
 30
0.0
 40
2.000000000000023
100
AcDbArc
 50
202.5000000000113
 51
22.49999999999726
  0
LINE
  5
4C5A
330
A
100
AcDbEntity
  8
0
100
AcDbLine
 10
835.5768001630462
 20
332.4787293582326
 30
0.0
 11
834.8114332983159
 21
334.3264884232551
 31
0.0
  0
ARC
  5
4C5B
330
A
100
AcDbEntity
  8
0
100
AcDbCircle
 10
832.9636742332937
 20
333.561121558525
 30
0.0
 40
2.000000000000023
100
AcDbArc
 50
22.49999999999726
 51
202.5000000000113
  0
ARC
  5
4C5C
330
A
100
AcDbEntity
  8
0
100
AcDbCircle
 10
823.205246707984
 20
357.1200496375627
 30
0.0
 40
31.30000000000009
100
AcDbArc
 50
181.6535244114751
 51
185.4187799147241
  0
ARC
  5
4C5D
330
A
100
AcDbEntity
  8
0
100
AcDbCircle
 10
788.9195293956354
 20
356.1303080663801
 30
0.0
 40
3.0
100
AcDbArc
 50
1.653524411478424
 51
59.99999999999946
  0
LINE
  5
4C5E
330
A
100
AcDbEntity
  8
0
100
AcDbLine
 10
790.4195293956354
 20
358.7283842777335
 30
0.0
 11
782.6598234242676
 21
363.2084526091353
 31
0.0
  0
ARC
  5
4C5F
330
A
100
AcDbEntity
  8
0
100
AcDbCircle
 10
823.205246707984
 20
357.1200496375627
 30
0.0
 40
41.0000000000001
100
AcDbArc
 50
128.5398722505764
 51
171.4601277494232
  0
LINE
  5
4C60
330
A
100
AcDbEntity
  8
0
100
AcDbLine
 10
797.6598234242676
 20
389.1892147226682
 30
0.0
 11
805.4195293956356
 21
384.7091463912666
 31
0.0
  0
ARC
  5
4C61
330
A
100
AcDbEntity
  8
0
100
AcDbCircle
 10
806.9195293956358
 20
387.3072226026199
 30
0.0
 40
3.000000000000055
100
AcDbArc
 50
239.9999999999995
 51
298.3464755885263
  0
ARC
  5
4C62
330
A
100
AcDbEntity
  8
0
100
AcDbCircle
 10
823.205246707984
 20
357.1200496375627
 30
0.0
 40
31.3
100
AcDbArc
 50
61.65352441147379
 51
118.3464755885262
  0
ARC
  5
4C63
330
A
100
AcDbEntity
  8
0
100
AcDbCircle
 10
839.4909640203323
 20
387.3072226026199
 30
0.0
 40
3.000000000000055
100
AcDbArc
 50
241.6535244114738
 51
300.0000000000005
  0
LINE
  5
4C64
330
A
100
AcDbEntity
  8
0
100
AcDbLine
 10
840.9909640203322
 20
384.7091463912666
 30
0.0
 11
848.7506699917007
 21
389.1892147226682
 31
0.0
  0
ARC
  5
4C65
330
A
100
AcDbEntity
  8
0
100
AcDbCircle
 10
823.205246707984
 20
357.1200496375627
 30
0.0
 40
41.0
100
AcDbArc
 50
8.539872250576822
 51
51.46012774942358
  0
LINE
  5
4C66
330
A
100
AcDbEntity
  8
0
100
AcDbLine
 10
863.7506699917008
 20
363.2084526091353
 30
0.0
 11
855.9909640203327
 21
358.7283842777335
 31
0.0
  0
ARC
  5
4C67
330
A
100
AcDbEntity
  8
0
100
AcDbCircle
 10
857.4909640203328
 20
356.1303080663801
 30
0.0
 40
3.0
100
AcDbArc
 50
120.0000000000005
 51
178.3464755885215
  0
ARC
  5
4C68
330
A
100
AcDbEntity
  8
0
100
AcDbCircle
 10
823.205246707984
 20
357.1200496375627
 30
0.0
 40
31.29999999999998
100
AcDbArc
 50
354.5812200852791
 51
358.3464755885248
  0
LINE
  5
4C69
330
A
100
AcDbEntity
  8
0
100
AcDbLine
 10
792.0451243698358
 20
354.164245876885
 30
0.0
 11
792.3415228347928
 21
354.2165089232975
 31
0.0
  0
LINE
  5
4C6A
330
A
100
AcDbEntity
  8
0
100
AcDbLine
 10
854.3653690461324
 20
354.164245876885
 30
0.0
 11
854.0689705811756
 21
354.2165089232975
 31
0.0
  0
ARC
  5
4C6B
330
A
100
AcDbEntity
  8
0
100
AcDbCircle
 10
823.205246707984
 20
357.1200496375627
 30
0.0
 40
31.29999999999999
100
AcDbArc
 50
314.5812200852738
 51
345.4187799147219
  0
LINE
  5
4C6C
330
A
100
AcDbEntity
  8
0
100
AcDbLine
 10
845.1753312380015
 20
334.8264320364669
 30
0.0
 11
844.9818708796506
 21
335.056989113556
 31
0.0
  0
LINE
  5
4C6D
330
A
100
AcDbEntity
  8
0
100
AcDbLine
 10
853.2007296928409
 20
349.2924701582365
 30
0.0
 11
853.4971281577975
 21
349.2402071118239
 31
0.0
  0
ARC
  5
4C6E
330
A
100
AcDbEntity
  8
0
100
AcDbCircle
 10
823.205246707984
 20
357.1200496375627
 30
0.0
 40
31.30000000000002
100
AcDbArc
 50
301.6535244114734
 51
305.4187799147205
  0
ARC
  5
4C6F
330
A
100
AcDbEntity
  8
0
100
AcDbCircle
 10
841.2052467079842
 20
327.9226182436884
 30
0.0
 40
3.0
100
AcDbArc
 50
121.6535244114734
 51
180.0
  0
LINE
  5
4C70
330
A
100
AcDbEntity
  8
0
100
AcDbLine
 10
838.2052467079841
 20
327.9226182436884
 30
0.0
 11
838.2052467079841
 21
318.9624815808847
 31
0.0
  0
ARC
  5
4C71
330
A
100
AcDbEntity
  8
0
100
AcDbCircle
 10
823.205246707984
 20
357.1200496375627
 30
0.0
 40
41.00000000000007
100
AcDbArc
 50
248.5398722505676
 51
291.4601277494325
  0
LINE
  5
4C72
330
A
100
AcDbEntity
  8
0
100
AcDbLine
 10
808.205246707984
 20
318.9624815808847
 30
0.0
 11
808.205246707984
 21
327.9226182436884
 31
0.0
  0
ARC
  5
4C73
330
A
100
AcDbEntity
  8
0
100
AcDbCircle
 10
805.2052467079841
 20
327.9226182436884
 30
0.0
 40
3.000000000000069
100
AcDbArc
 50
0.0
 51
58.34647558852482
  0
ARC
  5
4C74
330
A
100
AcDbEntity
  8
0
100
AcDbCircle
 10
823.205246707984
 20
357.1200496375627
 30
0.0
 40
31.30000000000008
100
AcDbArc
 50
234.5812200852795
 51
238.3464755885265
  0
LINE
  5
4C75
330
A
100
AcDbEntity
  8
0
100
AcDbLine
 10
805.2588447519124
 20
331.8430510651233
 30
0.0
 11
805.0653843935615
 21
331.6124939880342
 31
0.0
  0
LINE
  5
4C76
330
A
100
AcDbEntity
  8
0
100
AcDbLine
 10
841.1516486640559
 20
331.8430510651233
 30
0.0
 11
841.3451090224066
 21
331.6124939880342
 31
0.0
  0
ARC
  5
4C77
330
A
100
AcDbEntity
  8
0
100
AcDbCircle
 10
823.205246707984
 20
357.1200496375627
 30
0.0
 40
31.30000000000007
100
AcDbArc
 50
194.581220085278
 51
225.4187799147262
  0
LINE
  5
4C78
330
A
100
AcDbEntity
  8
0
100
AcDbLine
 10
793.2097637231272
 20
349.2924701582365
 30
0.0
 11
792.9133652581704
 21
349.2402071118239
 31
0.0
  0
LINE
  5
4C79
330
A
100
AcDbEntity
  8
0
100
AcDbLine
 10
801.2351621779666
 20
334.8264320364669
 30
0.0
 11
801.4286225363175
 21
335.056989113556
 31
0.0
  0
LINE
  5
4C7A
330
A
100
AcDbEntity
  8
0
100
AcDbLine
 10
779.569040028223
 20
376.5399226186401
 30
0.0
 11
784.569040028223
 21
385.2001766564845
 31
0.0
  0
LINE
  5
4C7B
330
A
100
AcDbEntity
  8
0
100
AcDbLine
 10
785.463226334572
 20
373.136912568016
 30
0.0
 11
779.569040028223
 21
376.5399226186401
 31
0.0
  0
LINE
  5
4C7C
330
A
100
AcDbEntity
  8
0
100
AcDbLine
 10
790.463226334572
 20
381.7971666058604
 30
0.0
 11
784.569040028223
 21
385.2001766564845
 31
0.0
  0
LINE
  5
4C7D
330
A
100
AcDbEntity
  8
0
100
AcDbLine
 10
793.0642305566066
 20
384.9142782716223
 30
0.0
 11
786.5690400282231
 21
388.6642782716224
 31
0.0
  0
LINE
  5
4C7E
330
A
100
AcDbEntity
  8
0
100
AcDbLine
 10
784.569040028223
 20
385.2001766564845
 30
0.0
 11
786.5690400282231
 21
388.6642782716224
 31
0.0
  0
LINE
  5
4C7F
330
A
100
AcDbEntity
  8
0
100
AcDbLine
 10
784.0642305566066
 20
369.3258210035024
 30
0.0
 11
777.5690400282233
 21
373.0758210035024
 31
0.0
  0
LINE
  5
4C80
330
A
100
AcDbEntity
  8
0
100
AcDbLine
 10
777.5690400282233
 20
373.0758210035024
 30
0.0
 11
779.5690400282233
 21
376.5399226186401
 31
0.0
  0
LINE
  5
4C81
330
A
100
AcDbEntity
  8
0
100
AcDbLine
 10
828.2052467079843
 20
309.6200496375628
 30
0.0
 11
818.205246707984
 21
309.6200496375628
 31
0.0
  0
LINE
  5
4C82
330
A
100
AcDbEntity
  8
0
100
AcDbLine
 10
828.2052467079843
 20
316.4260697388111
 30
0.0
 11
828.2052467079843
 21
309.6200496375628
 31
0.0
  0
LINE
  5
4C83
330
A
100
AcDbEntity
  8
0
100
AcDbLine
 10
818.205246707984
 20
316.4260697388111
 30
0.0
 11
818.205246707984
 21
309.6200496375628
 31
0.0
  0
LINE
  5
4C84
330
A
100
AcDbEntity
  8
0
100
AcDbLine
 10
832.2052467079842
 20
317.1200496375627
 30
0.0
 11
832.2052467079846
 21
309.6200496375628
 31
0.0
  0
LINE
  5
4C85
330
A
100
AcDbEntity
  8
0
100
AcDbLine
 10
832.2052467079846
 20
309.6200496375628
 30
0.0
 11
828.2052467079845
 21
309.6200496375628
 31
0.0
  0
LINE
  5
4C86
330
A
100
AcDbEntity
  8
0
100
AcDbLine
 10
814.2052467079841
 20
317.1200496375627
 30
0.0
 11
814.2052467079841
 21
309.6200496375628
 31
0.0
  0
LINE
  5
4C87
330
A
100
AcDbEntity
  8
0
100
AcDbLine
 10
818.205246707984
 20
309.6200496375628
 30
0.0
 11
814.2052467079841
 21
309.6200496375628
 31
0.0
  0
LINE
  5
4C88
330
A
100
AcDbEntity
  8
0
100
AcDbLine
 10
861.8414533877448
 20
385.2001766564851
 30
0.0
 11
866.8414533877449
 21
376.5399226186407
 31
0.0
  0
LINE
  5
4C89
330
A
100
AcDbEntity
  8
0
100
AcDbLine
 10
855.9472670813963
 20
381.797166605861
 30
0.0
 11
861.8414533877448
 21
385.2001766564851
 31
0.0
  0
LINE
  5
4C8A
330
A
100
AcDbEntity
  8
0
100
AcDbLine
 10
860.9472670813964
 20
373.1369125680166
 30
0.0
 11
866.8414533877449
 21
376.5399226186407
 31
0.0
  0
LINE
  5
4C8B
330
A
100
AcDbEntity
  8
0
100
AcDbLine
 10
862.3462628593616
 20
369.3258210035029
 30
0.0
 11
868.8414533877448
 21
373.075821003503
 31
0.0
  0
LINE
  5
4C8C
330
A
100
AcDbEntity
  8
0
100
AcDbLine
 10
866.8414533877449
 20
376.5399226186407
 30
0.0
 11
868.8414533877448
 21
373.075821003503
 31
0.0
  0
LINE
  5
4C8D
330
A
100
AcDbEntity
  8
0
100
AcDbLine
 10
853.3462628593616
 20
384.9142782716228
 30
0.0
 11
859.8414533877448
 21
388.6642782716228
 31
0.0
  0
LINE
  5
4C8E
330
A
100
AcDbEntity
  8
0
100
AcDbLine
 10
859.8414533877448
 20
388.6642782716228
 30
0.0
 11
861.8414533877448
 21
385.2001766564851
 31
0.0
  0
CIRCLE
  5
4C8F
330
A
100
AcDbEntity
  8
CENTER
100
AcDbCircle
 10
823.2052467079839
 20
357.1200496375627
 30
0.0
 40
26.49999999999988
  0
LINE
  5
4C90
330
A
100
AcDbEntity
  8
CENTER
100
AcDbLine
 10
779.536267966791
 20
357.1200496375627
 30
0.0
 11
866.8742254491762
 21
357.1200496375627
 31
0.0
  0
LINE
  5
4C91
330
A
100
AcDbEntity
  8
CENTER
100
AcDbLine
 10
823.2052467079839
 20
313.4510708963702
 30
0.0
 11
823.2052467079839
 21
400.7890283787553
 31
0.0
  0
CIRCLE
  5
4C92
330
A
100
AcDbEntity
  8
0
100
AcDbCircle
 10
823.2052467079839
 20
330.6200496375629
 30
0.0
 40
2.1
  0
ARC
  5
4C93
330
A
100
AcDbEntity
  8
DIM
100
AcDbCircle
 10
846.1549199082714
 20
370.370049637563
 30
0.0
 40
2.5
100
AcDbArc
 50
209.9999999999973
 51
122.7036343356151
  0
CIRCLE
  5
4C94
330
A
100
AcDbEntity
  8
0
100
AcDbCircle
 10
846.1549199082714
 20
370.3700496375629
 30
0.0
 40
2.1
  0
ARC
  5
4C95
330
A
100
AcDbEntity
  8
DIM
100
AcDbCircle
 10
800.2555735076962
 20
370.3700496375627
 30
0.0
 40
2.5
100
AcDbArc
 50
330.0000000000027
 51
242.70363433561
  0
CIRCLE
  5
4C96
330
A
100
AcDbEntity
  8
0
100
AcDbCircle
 10
800.2555735076962
 20
370.3700496375625
 30
0.0
 40
2.1
  0
LINE
  5
4C97
330
A
100
AcDbEntity
  8
CENTER
100
AcDbLine
 10
523.6826504854259
 20
357.1200496375627
 30
0.0
 11
611.020607967811
 21
357.1200496375627
 31
0.0
  0
LINE
  5
4C98
330
A
100
AcDbEntity
  8
CENTER
100
AcDbLine
 10
567.3516292266185
 20
313.4510708963702
 30
0.0
 11
567.3516292266185
 21
400.7890283787551
 31
0.0
  0
CIRCLE
  5
4C99
330
A
100
AcDbEntity
  8
CENTER
100
AcDbCircle
 10
567.3516292266185
 20
357.1200496375627
 30
0.0
 40
26.49999999999988
  0
LINE
  5
4C9A
330
A
100
AcDbEntity
  8
CENTER
100
AcDbLine
 10
652.1955317283782
 20
357.1200496375627
 30
0.0
 11
739.533489210763
 21
357.1200496375627
 31
0.0
  0
CIRCLE
  5
4C9B
330
A
100
AcDbEntity
  8
0
100
AcDbCircle
 10
567.3516292266183
 20
326.1200496375628
 30
0.0
 40
1.649999999999999
  0
CIRCLE
  5
4C9C
330
A
100
AcDbEntity
  8
0
100
AcDbCircle
 10
567.3516292266183
 20
314.1200496375627
 30
0.0
 40
1.649999999999999
  0
LINE
  5
4C9D
330
A
100
AcDbEntity
  8
CENTER
100
AcDbLine
 10
567.2616292266184
 20
326.1200496375628
 30
0.0
 11
567.4416292266182
 21
326.1200496375628
 31
0.0
  0
LINE
  5
4C9E
330
A
100
AcDbEntity
  8
CENTER
100
AcDbLine
 10
567.3516292266183
 20
326.0300496375628
 30
0.0
 11
567.3516292266183
 21
326.2100496375627
 31
0.0
  0
LINE
  5
4C9F
330
A
100
AcDbEntity
  8
CENTER
100
AcDbLine
 10
567.2616292266184
 20
314.1200496375627
 30
0.0
 11
567.4416292266182
 21
314.1200496375627
 31
0.0
  0
LINE
  5
4CA0
330
A
100
AcDbEntity
  8
CENTER
100
AcDbLine
 10
567.3516292266183
 20
314.0300496375628
 30
0.0
 11
567.3516292266183
 21
314.2100496375627
 31
0.0
  0
ARC
  5
4CA1
330
A
100
AcDbEntity
  8
DIM
100
AcDbCircle
 10
604.5907215893493
 20
378.6200496375627
 30
0.0
 40
2.0
100
AcDbArc
 50
209.9999999999973
 51
120.0000000000005
  0
CIRCLE
  5
4CA2
330
A
100
AcDbEntity
  8
0
100
AcDbCircle
 10
604.5907215893493
 20
378.6200496375627
 30
0.0
 40
1.649999999999999
  0
ARC
  5
4CA3
330
A
100
AcDbEntity
  8
DIM
100
AcDbCircle
 10
594.1984167439361
 20
372.6200496375627
 30
0.0
 40
2.0
100
AcDbArc
 50
209.9999999999973
 51
120.0000000000005
  0
LINE
  5
4CA4
330
A
100
AcDbEntity
  8
CENTER
100
AcDbLine
 10
604.6686638756898
 20
378.6650496375626
 30
0.0
 11
604.5127793030087
 21
378.5750496375627
 31
0.0
  0
LINE
  5
4CA5
330
A
100
AcDbEntity
  8
CENTER
100
AcDbLine
 10
604.6357215893492
 20
378.5421073512221
 30
0.0
 11
604.5457215893493
 21
378.6979919239032
 31
0.0
  0
LINE
  5
4CA6
330
A
100
AcDbEntity
  8
CENTER
100
AcDbLine
 10
594.2763590302766
 20
372.6650496375626
 30
0.0
 11
594.1204744575954
 21
372.5750496375627
 31
0.0
  0
LINE
  5
4CA7
330
A
100
AcDbEntity
  8
CENTER
100
AcDbLine
 10
594.2434167439362
 20
372.5421073512222
 30
0.0
 11
594.153416743936
 21
372.6979919239032
 31
0.0
  0
CIRCLE
  5
4CA8
330
A
100
AcDbEntity
  8
0
100
AcDbCircle
 10
594.1984167439361
 20
372.6200496375627
 30
0.0
 40
1.649999999999999
  0
ARC
  5
4CA9
330
A
100
AcDbEntity
  8
DIM
100
AcDbCircle
 10
530.1125368638874
 20
378.6200496375629
 30
0.0
 40
2.0
100
AcDbArc
 50
330.0000000000027
 51
239.9999999999995
  0
CIRCLE
  5
4CAA
330
A
100
AcDbEntity
  8
0
100
AcDbCircle
 10
530.1125368638874
 20
378.6200496375629
 30
0.0
 40
1.649999999999999
  0
ARC
  5
4CAB
330
A
100
AcDbEntity
  8
DIM
100
AcDbCircle
 10
540.5048417093007
 20
372.6200496375629
 30
0.0
 40
2.0
100
AcDbArc
 50
330.0000000000027
 51
239.9999999999995
  0
LINE
  5
4CAC
330
A
100
AcDbEntity
  8
CENTER
100
AcDbLine
 10
530.034594577547
 20
378.6650496375628
 30
0.0
 11
530.1904791502281
 21
378.5750496375627
 31
0.0
  0
LINE
  5
4CAD
330
A
100
AcDbEntity
  8
CENTER
100
AcDbLine
 10
530.1575368638878
 20
378.6979919239035
 30
0.0
 11
530.0675368638876
 21
378.5421073512222
 31
0.0
  0
LINE
  5
4CAE
330
A
100
AcDbEntity
  8
CENTER
100
AcDbLine
 10
540.42689942296
 20
372.6650496375628
 30
0.0
 11
540.5827839956414
 21
372.5750496375627
 31
0.0
  0
LINE
  5
4CAF
330
A
100
AcDbEntity
  8
CENTER
100
AcDbLine
 10
540.5498417093008
 20
372.6979919239035
 30
0.0
 11
540.4598417093009
 21
372.5421073512222
 31
0.0
  0
CIRCLE
  5
4CB0
330
A
100
AcDbEntity
  8
0
100
AcDbCircle
 10
540.5048417093007
 20
372.6200496375629
 30
0.0
 40
1.649999999999999
  0
LINE
  5
4CB1
330
A
100
AcDbEntity
  8
0
  6
Continuous
 62
     7
370
    15
100
AcDbLine
 10
727.2989910982273
 20
445.6610827517133
 30
0.0
 11
727.2989910982276
 21
507.6610827517135
 31
0.0
  0
LINE
  5
4CB2
330
A
100
AcDbEntity
  8
0
  6
Continuous
 62
     7
370
    15
100
AcDbLine
 10
675.7989910982273
 20
471.9110827517136
 30
0.0
 11
675.7989910982273
 21
481.4110827517136
 31
0.0
  0
LINE
  5
4CB3
330
A
100
AcDbEntity
  8
0
  6
Continuous
 62
     7
370
    15
100
AcDbLine
 10
666.2989910982274
 20
481.4110827517136
 30
0.0
 11
666.2989910982274
 21
471.9110827517136
 31
0.0
  0
LINE
  5
4CB4
330
A
100
AcDbEntity
  8
0
  6
Continuous
 62
     7
370
    15
100
AcDbLine
 10
688.7989910982273
 20
461.7997722013782
 30
0.0
 11
688.7989910982273
 21
491.5223933020489
 31
0.0
  0
LINE
  5
4CB5
330
A
100
AcDbEntity
  8
0
  6
Continuous
 62
     7
370
    15
100
AcDbLine
 10
668.0310419057964
 20
502.2065060354301
 30
0.0
 11
668.0310419057964
 21
509.9987397198828
 31
0.0
  0
LINE
  5
4CB6
330
A
100
AcDbEntity
  8
0
  6
Continuous
 62
     7
370
    15
100
AcDbLine
 10
666.2989910982275
 20
507.3872190956207
 30
0.0
 11
668.0310419057964
 21
509.9987397198828
 31
0.0
  0
LINE
  5
4CB7
330
A
100
AcDbEntity
  8
0
  6
Continuous
 62
     7
370
    15
100
AcDbLine
 10
688.7989910982273
 20
502.20650603543
 30
0.0
 11
688.7989910982276
 21
517.2065060354301
 31
0.0
  0
LINE
  5
4CB8
330
A
100
AcDbEntity
  8
0
  6
Continuous
 62
     7
370
    15
100
AcDbLine
 10
671.2989910982275
 20
513.2972894314742
 30
0.0
 11
671.2989910982273
 21
506.8020989030909
 31
0.0
  0
LINE
  5
4CB9
330
A
100
AcDbEntity
  8
0
  6
Continuous
 62
     7
370
    15
100
AcDbLine
 10
678.2989910982275
 20
506.8020989030909
 30
0.0
 11
678.2989910982275
 21
513.2972894314742
 31
0.0
  0
LINE
  5
4CBA
330
A
100
AcDbEntity
  8
0
  6
Continuous
 62
     7
370
    15
100
AcDbLine
 10
663.2989910982275
 20
515.7972894314743
 30
0.0
 11
663.2989910982273
 21
508.0030607974143
 31
0.0
  0
LINE
  5
4CBB
330
A
100
AcDbEntity
  8
0
  6
Continuous
 62
     7
370
    15
100
AcDbLine
 10
678.2989910982275
 20
513.2972894314742
 30
0.0
 11
671.2989910982275
 21
513.2972894314742
 31
0.0
  0
LINE
  5
4CBC
330
A
100
AcDbEntity
  8
0
  6
Continuous
 62
     7
370
    15
100
AcDbLine
 10
678.2989910982275
 20
522.2972894314742
 30
0.0
 11
671.2989910982275
 21
522.2972894314742
 31
0.0
  0
LINE
  5
4CBD
330
A
100
AcDbEntity
  8
0
  6
Continuous
 62
     7
370
    15
100
AcDbLine
 10
663.2989910982275
 20
515.7972894314743
 30
0.0
 11
663.2989910982275
 21
519.7972894314743
 31
0.0
  0
LINE
  5
4CBE
330
A
100
AcDbEntity
  8
0
  6
Continuous
 62
     7
370
    15
100
AcDbLine
 10
671.2989910982275
 20
519.7972894314743
 30
0.0
 11
671.2989910982275
 21
522.2972894314742
 31
0.0
  0
LINE
  5
4CBF
330
A
100
AcDbEntity
  8
0
  6
Continuous
 62
     7
370
    15
100
AcDbLine
 10
671.2989910982275
 20
519.7972894314743
 30
0.0
 11
663.2989910982275
 21
519.7972894314743
 31
0.0
  0
LINE
  5
4CC0
330
A
100
AcDbEntity
  8
0
  6
Continuous
 62
     7
370
    15
100
AcDbLine
 10
671.2989910982275
 20
513.2972894314742
 30
0.0
 11
671.2989910982275
 21
515.7972894314743
 31
0.0
  0
LINE
  5
4CC1
330
A
100
AcDbEntity
  8
0
  6
Continuous
 62
     7
370
    15
100
AcDbLine
 10
671.2989910982275
 20
515.7972894314743
 30
0.0
 11
663.2989910982275
 21
515.7972894314743
 31
0.0
  0
LINE
  5
4CC2
330
A
100
AcDbEntity
  8
0
  6
Continuous
 62
     7
370
    15
100
AcDbLine
 10
668.0310419057964
 20
509.9987397198828
 30
0.0
 11
671.2989910982275
 21
509.9987397198828
 31
0.0
  0
LINE
  5
4CC3
330
A
100
AcDbEntity
  8
0
  6
Continuous
 62
     7
370
    15
100
AcDbLine
 10
684.7989910982273
 20
515.2972894314742
 30
0.0
 11
684.7989910982276
 21
520.2972894314743
 31
0.0
  0
LINE
  5
4CC4
330
A
100
AcDbEntity
  8
0
  6
Continuous
 62
     7
370
    15
100
AcDbLine
 10
684.7989910982276
 20
520.2972894314743
 30
0.0
 11
678.2989910982275
 21
520.2972894314743
 31
0.0
  0
LINE
  5
4CC5
330
A
100
AcDbEntity
  8
0
  6
Continuous
 62
     7
370
    15
100
AcDbLine
 10
678.2989910982275
 20
520.2972894314743
 30
0.0
 11
678.2989910982275
 21
522.2972894314742
 31
0.0
  0
LINE
  5
4CC6
330
A
100
AcDbEntity
  8
0
  6
Continuous
 62
     7
370
    15
100
AcDbLine
 10
688.7989910982276
 20
517.2065060354301
 30
0.0
 11
684.7989910982273
 21
517.2065060354301
 31
0.0
  0
LINE
  5
4CC7
330
A
100
AcDbEntity
  8
0
  6
Continuous
 62
     7
370
    15
100
AcDbLine
 10
678.2989910982273
 20
513.2972894314742
 30
0.0
 11
678.2989910982275
 21
515.2972894314742
 31
0.0
  0
LINE
  5
4CC8
330
A
100
AcDbEntity
  8
0
  6
Continuous
 62
     7
370
    15
100
AcDbLine
 10
684.7989910982273
 20
509.4031031251256
 30
0.0
 11
684.7989910982273
 21
515.2972894314742
 31
0.0
  0
LINE
  5
4CC9
330
A
100
AcDbEntity
  8
0
  6
Continuous
 62
     7
370
    15
100
AcDbLine
 10
678.2989910982275
 20
515.2972894314742
 30
0.0
 11
684.7989910982273
 21
515.2972894314742
 31
0.0
  0
LINE
  5
4CCA
330
A
100
AcDbEntity
  8
0
  6
Continuous
 62
     7
370
    15
100
AcDbLine
 10
678.2989910982275
 20
509.4031031251257
 30
0.0
 11
684.7989910982273
 21
509.4031031251256
 31
0.0
  0
LINE
  5
4CCB
330
A
100
AcDbEntity
  8
0
  6
Continuous
 62
     7
370
    15
100
AcDbLine
 10
727.2989910982276
 20
507.6610827517135
 30
0.0
 11
688.7989910982276
 21
507.6610827517135
 31
0.0
  0
LINE
  5
4CCC
330
A
100
AcDbEntity
  8
0
  6
Continuous
 62
     7
370
    15
100
AcDbLine
 10
666.2989910982274
 20
481.4110827517136
 30
0.0
 11
666.2989910982274
 21
491.5223933020489
 31
0.0
  0
LINE
  5
4CCD
330
A
100
AcDbEntity
  8
0
  6
Continuous
 62
     7
370
    15
100
AcDbLine
 10
678.2989910982273
 20
506.8020989030909
 30
0.0
 11
671.2989910982273
 21
506.8020989030911
 31
0.0
  0
LINE
  5
4CCE
330
A
100
AcDbEntity
  8
0
  6
Continuous
 62
     7
370
    15
100
AcDbLine
 10
688.7989910982273
 20
502.20650603543
 30
0.0
 11
668.0310419057964
 21
502.2065060354301
 31
0.0
  0
LINE
  5
4CCF
330
A
100
AcDbEntity
  8
0
  6
Continuous
 62
     7
370
    15
100
AcDbLine
 10
688.7989910982273
 20
494.4468000640618
 30
0.0
 11
666.2989910982274
 21
494.446800064062
 31
0.0
  0
LINE
  5
4CD0
330
A
100
AcDbEntity
  8
0
  6
Continuous
 62
     7
370
    15
100
AcDbLine
 10
688.7989910982273
 20
491.5223933020489
 30
0.0
 11
666.2989910982274
 21
491.5223933020489
 31
0.0
  0
LINE
  5
4CD1
330
A
100
AcDbEntity
  8
0
  6
Continuous
 62
     7
370
    15
100
AcDbLine
 10
668.0310419057964
 20
502.2065060354301
 30
0.0
 11
666.2989910982274
 21
499.3976500171951
 31
0.0
  0
LINE
  5
4CD2
330
A
100
AcDbEntity
  8
0
  6
Continuous
 62
     7
370
    15
100
AcDbLine
 10
666.2989910982274
 20
499.3976500171951
 30
0.0
 11
666.2989910982275
 21
507.3872190956207
 31
0.0
  0
LINE
  5
4CD3
330
A
100
AcDbEntity
  8
0
  6
Continuous
 62
     7
370
    15
100
AcDbLine
 10
663.2989910982273
 20
505.404984586061
 30
0.0
 11
663.2989910982273
 21
497.6107559520011
 31
0.0
  0
LINE
  5
4CD4
330
A
100
AcDbEntity
  8
0
  6
Continuous
 62
     7
370
    15
100
AcDbLine
 10
665.2989910982276
 20
505.404984586061
 30
0.0
 11
663.2989910982273
 21
505.404984586061
 31
0.0
  0
LINE
  5
4CD5
330
A
100
AcDbEntity
  8
0
  6
Continuous
 62
     7
370
    15
100
AcDbLine
 10
665.2989910982276
 20
508.0030607974143
 30
0.0
 11
665.2989910982276
 21
505.404984586061
 31
0.0
  0
LINE
  5
4CD6
330
A
100
AcDbEntity
  8
0
  6
Continuous
 62
     7
370
    15
100
AcDbLine
 10
663.2989910982273
 20
508.0030607974143
 30
0.0
 11
665.2989910982276
 21
508.0030607974143
 31
0.0
  0
LINE
  5
4CD7
330
A
100
AcDbEntity
  8
0
  6
Continuous
 62
     7
370
    15
100
AcDbLine
 10
663.2989910982273
 20
505.404984586061
 30
0.0
 11
663.2989910982275
 21
508.0030607974143
 31
0.0
  0
LINE
  5
4CD8
330
A
100
AcDbEntity
  8
0
  6
Continuous
 62
     7
370
    15
100
AcDbLine
 10
666.2989910982274
 20
494.446800064062
 30
0.0
 11
666.2989910982274
 21
499.3976500171951
 31
0.0
  0
LINE
  5
4CD9
330
A
100
AcDbEntity
  8
0
  6
Continuous
 62
     7
370
    15
100
AcDbLine
 10
663.2989910982273
 20
497.6107559520011
 30
0.0
 11
666.2989910982278
 21
497.6107559520011
 31
0.0
  0
LINE
  5
4CDA
330
A
100
AcDbEntity
  8
0
  6
Continuous
 62
     7
370
    15
100
AcDbLine
 10
666.2989910982274
 20
491.5223933020489
 30
0.0
 11
666.2989910982274
 21
494.446800064062
 31
0.0
  0
LINE
  5
4CDB
330
A
100
AcDbEntity
  8
0
  6
Continuous
 62
     7
370
    15
100
AcDbLine
 10
688.7989910982273
 20
494.4468000640618
 30
0.0
 11
688.7989910982273
 21
502.20650603543
 31
0.0
  0
LINE
  5
4CDC
330
A
100
AcDbEntity
  8
0
  6
Continuous
 62
     7
370
    15
100
AcDbLine
 10
688.7989910982273
 20
491.5223933020489
 30
0.0
 11
688.7989910982273
 21
494.4468000640618
 31
0.0
  0
LINE
  5
4CDD
330
A
100
AcDbEntity
  8
0
  6
Continuous
 62
     7
370
    15
100
AcDbLine
 10
675.7989910982273
 20
481.4110827517136
 30
0.0
 11
666.2989910982274
 21
481.4110827517136
 31
0.0
  0
LINE
  5
4CDE
330
A
100
AcDbEntity
  8
0
  6
Continuous
 62
     7
370
    15
100
AcDbLine
 10
663.2989910982275
 20
480.6610827517137
 30
0.0
 11
663.2989910982275
 21
472.6610827517137
 31
0.0
  0
LINE
  5
4CDF
330
A
100
AcDbEntity
  8
0
  6
Continuous
 62
     7
370
    15
100
AcDbLine
 10
663.2989910982275
 20
480.6610827517137
 30
0.0
 11
666.2989910982274
 21
480.6610827517137
 31
0.0
  0
LINE
  5
4CE0
330
A
100
AcDbEntity
  8
0
  6
Continuous
 62
     7
370
    15
100
AcDbLine
 10
663.2989910982275
 20
472.6610827517137
 30
0.0
 11
666.2989910982274
 21
472.6610827517137
 31
0.0
  0
POLYLINE
  5
4CE1
330
A
100
AcDbEntity
  8
0
  6
Continuous
 62
     7
370
    15
100
AcDb2dPolyline
 66
     1
 10
0.0
 20
0.0
 30
0.0
 70
   128
  0
VERTEX
  5
4CE2
330
4CE1
100
AcDbEntity
  8
0
100
AcDbVertex
100
AcDb2dVertex
 10
718.2989910982273
 20
482.4264239569401
 30
0.0
  0
VERTEX
  5
4CE3
330
4CE1
100
AcDbEntity
  8
0
100
AcDbVertex
100
AcDb2dVertex
 10
717.4657789941234
 20
482.4965385980797
 30
0.0
  0
VERTEX
  5
4CE4
330
4CE1
100
AcDbEntity
  8
0
100
AcDbVertex
100
AcDb2dVertex
 10
716.6562021578902
 20
482.7023386585432
 30
0.0
  0
VERTEX
  5
4CE5
330
4CE1
100
AcDbEntity
  8
0
100
AcDbVertex
100
AcDb2dVertex
 10
715.8939411141446
 20
483.0385015164303
 30
0.0
  0
VERTEX
  5
4CE6
330
4CE1
100
AcDbEntity
  8
0
100
AcDbVertex
100
AcDb2dVertex
 10
715.1988025624248
 20
483.4921901685055
 30
0.0
  0
VERTEX
  5
4CE7
330
4CE1
100
AcDbEntity
  8
0
100
AcDbVertex
100
AcDb2dVertex
 10
714.5861023570969
 20
484.0555018061288
 30
0.0
  0
VERTEX
  5
4CE8
330
4CE1
100
AcDbEntity
  8
0
100
AcDbVertex
100
AcDb2dVertex
 10
714.0774287132721
 20
484.7063567973095
 30
0.0
  0
VERTEX
  5
4CE9
330
4CE1
100
AcDbEntity
  8
0
100
AcDbVertex
100
AcDb2dVertex
 10
713.6867221727372
 20
485.4302560535415
 30
0.0
  0
VERTEX
  5
4CEA
330
4CE1
100
AcDbEntity
  8
0
100
AcDbVertex
100
AcDb2dVertex
 10
713.4268534339435
 20
486.2009876292741
 30
0.0
  0
VERTEX
  5
4CEB
330
4CE1
100
AcDbEntity
  8
0
100
AcDbVertex
100
AcDb2dVertex
 10
713.30804930678
 20
486.9887700488312
 30
0.0
  0
VERTEX
  5
4CEC
330
4CE1
100
AcDbEntity
  8
0
100
AcDbVertex
100
AcDb2dVertex
 10
713.3290943805577
 20
487.7768508781757
 30
0.0
  0
VERTEX
  5
4CED
330
4CE1
100
AcDbEntity
  8
0
100
AcDbVertex
100
AcDb2dVertex
 10
713.4892066902298
 20
488.535326379939
 30
0.0
  0
VERTEX
  5
4CEE
330
4CE1
100
AcDbEntity
  8
0
100
AcDbVertex
100
AcDb2dVertex
 10
713.7812392685609
 20
489.2515632002828
 30
0.0
  0
VERTEX
  5
4CEF
330
4CE1
100
AcDbEntity
  8
0
100
AcDbVertex
100
AcDb2dVertex
 10
714.2005494397258
 20
489.9089130838879
 30
0.0
  0
VERTEX
  5
4CF0
330
4CE1
100
AcDbEntity
  8
0
100
AcDbVertex
100
AcDb2dVertex
 10
714.7327313123801
 20
490.4889265016883
 30
0.0
  0
VERTEX
  5
4CF1
330
4CE1
100
AcDbEntity
  8
0
100
AcDbVertex
100
AcDb2dVertex
 10
715.3723607091372
 20
490.9816155860954
 30
0.0
  0
VERTEX
  5
4CF2
330
4CE1
100
AcDbEntity
  8
0
100
AcDbVertex
100
AcDb2dVertex
 10
716.0950388910464
 20
491.3693907311259
 30
0.0
  0
VERTEX
  5
4CF3
330
4CE1
100
AcDbEntity
  8
0
100
AcDbVertex
100
AcDb2dVertex
 10
716.8825353572255
 20
491.6416190097339
 30
0.0
  0
VERTEX
  5
4CF4
330
4CE1
100
AcDbEntity
  8
0
100
AcDbVertex
100
AcDb2dVertex
 10
717.7109861785866
 20
491.7926796334934
 30
0.0
  0
VERTEX
  5
4CF5
330
4CE1
100
AcDbEntity
  8
0
100
AcDbVertex
100
AcDb2dVertex
 10
718.5472922247417
 20
491.8174695616671
 30
0.0
  0
VERTEX
  5
4CF6
330
4CE1
100
AcDbEntity
  8
0
100
AcDbVertex
100
AcDb2dVertex
 10
719.3765297781283
 20
491.7194343639848
 30
0.0
  0
VERTEX
  5
4CF7
330
4CE1
100
AcDbEntity
  8
0
100
AcDbVertex
100
AcDb2dVertex
 10
720.1701510034227
 20
491.5010447589517
 30
0.0
  0
VERTEX
  5
4CF8
330
4CE1
100
AcDbEntity
  8
0
100
AcDbVertex
100
AcDb2dVertex
 10
720.9117300642419
 20
491.1689314854909
 30
0.0
  0
VERTEX
  5
4CF9
330
4CE1
100
AcDbEntity
  8
0
100
AcDbVertex
100
AcDb2dVertex
 10
721.5856968715201
 20
490.7252536747217
 30
0.0
  0
VERTEX
  5
4CFA
330
4CE1
100
AcDbEntity
  8
0
100
AcDbVertex
100
AcDb2dVertex
 10
722.1681083554194
 20
490.1842452695775
 30
0.0
  0
VERTEX
  5
4CFB
330
4CE1
100
AcDbEntity
  8
0
100
AcDbVertex
100
AcDb2dVertex
 10
722.6457160632999
 20
489.5510121947251
 30
0.0
  0
VERTEX
  5
4CFC
330
4CE1
100
AcDbEntity
  8
0
100
AcDbVertex
100
AcDb2dVertex
 10
723.0003031336341
 20
488.8473048375874
 30
0.0
  0
VERTEX
  5
4CFD
330
4CE1
100
AcDbEntity
  8
0
100
AcDbVertex
100
AcDb2dVertex
 10
723.2189608422136
 20
488.0938004990744
 30
0.0
  0
VERTEX
  5
4CFE
330
4CE1
100
AcDbEntity
  8
0
100
AcDbVertex
100
AcDb2dVertex
 10
723.2987584041086
 20
487.3090230798303
 30
0.0
  0
VERTEX
  5
4CFF
330
4CE1
100
AcDbEntity
  8
0
100
AcDbVertex
100
AcDb2dVertex
 10
723.2367138229269
 20
486.5240274890608
 30
0.0
  0
VERTEX
  5
4D00
330
4CE1
100
AcDbEntity
  8
0
100
AcDbVertex
100
AcDb2dVertex
 10
723.0383993537862
 20
485.7526604913899
 30
0.0
  0
VERTEX
  5
4D01
330
4CE1
100
AcDbEntity
  8
0
100
AcDbVertex
100
AcDb2dVertex
 10
722.7082376379148
 20
485.0184612834623
 30
0.0
  0
VERTEX
  5
4D02
330
4CE1
100
AcDbEntity
  8
0
100
AcDbVertex
100
AcDb2dVertex
 10
722.2573080699929
 20
484.3415422909097
 30
0.0
  0
VERTEX
  5
4D03
330
4CE1
100
AcDbEntity
  8
0
100
AcDbVertex
100
AcDb2dVertex
 10
721.6899318913233
 20
483.7367456279124
 30
0.0
  0
VERTEX
  5
4D04
330
4CE1
100
AcDbEntity
  8
0
100
AcDbVertex
100
AcDb2dVertex
 10
721.0274480306327
 20
483.229169236236
 30
0.0
  0
VERTEX
  5
4D05
330
4CE1
100
AcDbEntity
  8
0
100
AcDbVertex
100
AcDb2dVertex
 10
720.2820197747492
 20
482.834276392723
 30
0.0
  0
VERTEX
  5
4D06
330
4CE1
100
AcDbEntity
  8
0
100
AcDbVertex
100
AcDb2dVertex
 10
719.4794227762488
 20
482.5670255319128
 30
0.0
  0
VERTEX
  5
4D07
330
4CE1
100
AcDbEntity
  8
0
100
AcDbVertex
100
AcDb2dVertex
 10
718.2989910982273
 20
482.4264239569401
 30
0.0
  0
SEQEND
  5
4D08
330
4CE1
100
AcDbEntity
  8
0
  0
POLYLINE
  5
4D09
330
A
100
AcDbEntity
  8
0
  6
Continuous
 62
     7
370
    15
100
AcDb2dPolyline
 66
     1
 10
0.0
 20
0.0
 30
0.0
 70
   128
  0
VERTEX
  5
4D0A
330
4D09
100
AcDbEntity
  8
0
100
AcDbVertex
100
AcDb2dVertex
 10
723.2989910982273
 20
486.9538769892066
 30
0.0
  0
VERTEX
  5
4D0B
330
4D09
100
AcDbEntity
  8
0
100
AcDbVertex
100
AcDb2dVertex
 10
723.2584932745218
 20
487.550665528829
 30
0.0
  0
VERTEX
  5
4D0C
330
4D09
100
AcDbEntity
  8
0
100
AcDbVertex
100
AcDb2dVertex
 10
723.0798247719235
 20
488.32969397604
 30
0.0
  0
VERTEX
  5
4D0D
330
4D09
100
AcDbEntity
  8
0
100
AcDbVertex
100
AcDb2dVertex
 10
722.7636203889751
 20
489.0691426734835
 30
0.0
  0
VERTEX
  5
4D0E
330
4D09
100
AcDbEntity
  8
0
100
AcDbVertex
100
AcDb2dVertex
 10
722.318976750062
 20
489.7477390284448
 30
0.0
  0
VERTEX
  5
4D0F
330
4D09
100
AcDbEntity
  8
0
100
AcDbVertex
100
AcDb2dVertex
 10
721.7586854431151
 20
490.3459610593093
 30
0.0
  0
VERTEX
  5
4D10
330
4D09
100
AcDbEntity
  8
0
100
AcDbVertex
100
AcDb2dVertex
 10
721.0988650289155
 20
490.8465990074285
 30
0.0
  0
VERTEX
  5
4D11
330
4D09
100
AcDbEntity
  8
0
100
AcDbVertex
100
AcDb2dVertex
 10
720.3584973394472
 20
491.2352504305448
 30
0.0
  0
VERTEX
  5
4D12
330
4D09
100
AcDbEntity
  8
0
100
AcDbVertex
100
AcDb2dVertex
 10
719.558881405153
 20
491.5007345348308
 30
0.0
  0
VERTEX
  5
4D13
330
4D09
100
AcDbEntity
  8
0
100
AcDbVertex
100
AcDb2dVertex
 10
718.723020720605
 20
491.6354138259719
 30
0.0
  0
VERTEX
  5
4D14
330
4D09
100
AcDbEntity
  8
0
100
AcDbVertex
100
AcDb2dVertex
 10
717.8749614758499
 20
491.6354138259719
 30
0.0
  0
VERTEX
  5
4D15
330
4D09
100
AcDbEntity
  8
0
100
AcDbVertex
100
AcDb2dVertex
 10
717.0391007913017
 20
491.5007345348308
 30
0.0
  0
VERTEX
  5
4D16
330
4D09
100
AcDbEntity
  8
0
100
AcDbVertex
100
AcDb2dVertex
 10
716.2394848570074
 20
491.2352504305448
 30
0.0
  0
VERTEX
  5
4D17
330
4D09
100
AcDbEntity
  8
0
100
AcDbVertex
100
AcDb2dVertex
 10
715.4991171675394
 20
490.8465990074285
 30
0.0
  0
VERTEX
  5
4D18
330
4D09
100
AcDbEntity
  8
0
100
AcDbVertex
100
AcDb2dVertex
 10
714.8392967533395
 20
490.3459610593091
 30
0.0
  0
VERTEX
  5
4D19
330
4D09
100
AcDbEntity
  8
0
100
AcDbVertex
100
AcDb2dVertex
 10
714.2790054463926
 20
489.7477390284448
 30
0.0
  0
VERTEX
  5
4D1A
330
4D09
100
AcDbEntity
  8
0
100
AcDbVertex
100
AcDb2dVertex
 10
713.8343618074795
 20
489.0691426734835
 30
0.0
  0
VERTEX
  5
4D1B
330
4D09
100
AcDbEntity
  8
0
100
AcDbVertex
100
AcDb2dVertex
 10
713.5181574245311
 20
488.32969397604
 30
0.0
  0
VERTEX
  5
4D1C
330
4D09
100
AcDbEntity
  8
0
100
AcDbVertex
100
AcDb2dVertex
 10
713.339488921933
 20
487.550665528829
 30
0.0
  0
VERTEX
  5
4D1D
330
4D09
100
AcDbEntity
  8
0
100
AcDbVertex
100
AcDb2dVertex
 10
713.2989910982273
 20
486.9538769892066
 30
0.0
  0
SEQEND
  5
4D1E
330
4D09
100
AcDbEntity
  8
0
  0
POLYLINE
  5
4D1F
330
A
100
AcDbEntity
  8
0
  6
Continuous
 62
     7
370
    15
100
AcDb2dPolyline
 66
     1
 10
0.0
 20
0.0
 30
0.0
 70
   128
  0
VERTEX
  5
4D20
330
4D1F
100
AcDbEntity
  8
0
100
AcDbVertex
100
AcDb2dVertex
 10
718.2989910982273
 20
484.6046454372419
 30
0.0
  0
VERTEX
  5
4D21
330
4D1F
100
AcDbEntity
  8
0
100
AcDbVertex
100
AcDb2dVertex
 10
718.8972802589464
 20
484.6729098365874
 30
0.0
  0
VERTEX
  5
4D22
330
4D1F
100
AcDbEntity
  8
0
100
AcDbVertex
100
AcDb2dVertex
 10
719.4607990283368
 20
484.8737357558649
 30
0.0
  0
VERTEX
  5
4D23
330
4D1F
100
AcDbEntity
  8
0
100
AcDbVertex
100
AcDb2dVertex
 10
719.9567977438293
 20
485.1954519226183
 30
0.0
  0
VERTEX
  5
4D24
330
4D1F
100
AcDbEntity
  8
0
100
AcDbVertex
100
AcDb2dVertex
 10
720.3564507629616
 20
485.619361362627
 30
0.0
  0
VERTEX
  5
4D25
330
4D1F
100
AcDbEntity
  8
0
100
AcDbVertex
100
AcDb2dVertex
 10
720.6365317049407
 20
486.1208280000855
 30
0.0
  0
VERTEX
  5
4D26
330
4D1F
100
AcDbEntity
  8
0
100
AcDbVertex
100
AcDb2dVertex
 10
720.7807632834724
 20
486.670708416782
 30
0.0
  0
VERTEX
  5
4D27
330
4D1F
100
AcDbEntity
  8
0
100
AcDbVertex
100
AcDb2dVertex
 10
720.7807632834724
 20
487.2370455616317
 30
0.0
  0
VERTEX
  5
4D28
330
4D1F
100
AcDbEntity
  8
0
100
AcDbVertex
100
AcDb2dVertex
 10
720.636531704941
 20
487.7869259783279
 30
0.0
  0
VERTEX
  5
4D29
330
4D1F
100
AcDbEntity
  8
0
100
AcDbVertex
100
AcDb2dVertex
 10
720.3564507629616
 20
488.2883926157865
 30
0.0
  0
VERTEX
  5
4D2A
330
4D1F
100
AcDbEntity
  8
0
100
AcDbVertex
100
AcDb2dVertex
 10
719.9567977438293
 20
488.7123020557951
 30
0.0
  0
VERTEX
  5
4D2B
330
4D1F
100
AcDbEntity
  8
0
100
AcDbVertex
100
AcDb2dVertex
 10
719.4607990283368
 20
489.0340182225486
 30
0.0
  0
VERTEX
  5
4D2C
330
4D1F
100
AcDbEntity
  8
0
100
AcDbVertex
100
AcDb2dVertex
 10
718.8972802589464
 20
489.234844141826
 30
0.0
  0
VERTEX
  5
4D2D
330
4D1F
100
AcDbEntity
  8
0
100
AcDbVertex
100
AcDb2dVertex
 10
718.2989910982273
 20
489.3031085411714
 30
0.0
  0
VERTEX
  5
4D2E
330
4D1F
100
AcDbEntity
  8
0
100
AcDbVertex
100
AcDb2dVertex
 10
717.7007019375087
 20
489.234844141826
 30
0.0
  0
VERTEX
  5
4D2F
330
4D1F
100
AcDbEntity
  8
0
100
AcDbVertex
100
AcDb2dVertex
 10
717.1371831681181
 20
489.0340182225486
 30
0.0
  0
VERTEX
  5
4D30
330
4D1F
100
AcDbEntity
  8
0
100
AcDbVertex
100
AcDb2dVertex
 10
716.6411844526256
 20
488.7123020557951
 30
0.0
  0
VERTEX
  5
4D31
330
4D1F
100
AcDbEntity
  8
0
100
AcDbVertex
100
AcDb2dVertex
 10
716.2415314334932
 20
488.2883926157865
 30
0.0
  0
VERTEX
  5
4D32
330
4D1F
100
AcDbEntity
  8
0
100
AcDbVertex
100
AcDb2dVertex
 10
715.9614504915139
 20
487.7869259783279
 30
0.0
  0
VERTEX
  5
4D33
330
4D1F
100
AcDbEntity
  8
0
100
AcDbVertex
100
AcDb2dVertex
 10
715.8172189129823
 20
487.2370455616317
 30
0.0
  0
VERTEX
  5
4D34
330
4D1F
100
AcDbEntity
  8
0
100
AcDbVertex
100
AcDb2dVertex
 10
715.8172189129823
 20
486.6707084167818
 30
0.0
  0
VERTEX
  5
4D35
330
4D1F
100
AcDbEntity
  8
0
100
AcDbVertex
100
AcDb2dVertex
 10
715.9614504915139
 20
486.1208280000855
 30
0.0
  0
VERTEX
  5
4D36
330
4D1F
100
AcDbEntity
  8
0
100
AcDbVertex
100
AcDb2dVertex
 10
716.2415314334935
 20
485.6193613626269
 30
0.0
  0
VERTEX
  5
4D37
330
4D1F
100
AcDbEntity
  8
0
100
AcDbVertex
100
AcDb2dVertex
 10
716.6411844526256
 20
485.1954519226183
 30
0.0
  0
VERTEX
  5
4D38
330
4D1F
100
AcDbEntity
  8
0
100
AcDbVertex
100
AcDb2dVertex
 10
717.1371831681181
 20
484.8737357558649
 30
0.0
  0
VERTEX
  5
4D39
330
4D1F
100
AcDbEntity
  8
0
100
AcDbVertex
100
AcDb2dVertex
 10
717.7007019375087
 20
484.6729098365874
 30
0.0
  0
VERTEX
  5
4D3A
330
4D1F
100
AcDbEntity
  8
0
100
AcDbVertex
100
AcDb2dVertex
 10
718.2989910982273
 20
484.6046454372419
 30
0.0
  0
SEQEND
  5
4D3B
330
4D1F
100
AcDbEntity
  8
0
  0
POLYLINE
  5
4D3C
330
A
100
AcDbEntity
  8
0
  6
Continuous
 62
     7
370
    15
100
AcDb2dPolyline
 66
     1
 10
0.0
 20
0.0
 30
0.0
 70
   128
  0
VERTEX
  5
4D3D
330
4D3C
100
AcDbEntity
  8
0
100
AcDbVertex
100
AcDb2dVertex
 10
720.1727560207084
 20
485.3986913753795
 30
0.0
  0
VERTEX
  5
4D3E
330
4D3C
100
AcDbEntity
  8
0
100
AcDbVertex
100
AcDb2dVertex
 10
719.9567977438296
 20
485.6019308281406
 30
0.0
  0
VERTEX
  5
4D3F
330
4D3C
100
AcDbEntity
  8
0
100
AcDbVertex
100
AcDb2dVertex
 10
719.4607990283368
 20
485.9236469948942
 30
0.0
  0
VERTEX
  5
4D40
330
4D3C
100
AcDbEntity
  8
0
100
AcDbVertex
100
AcDb2dVertex
 10
718.8972802589464
 20
486.1244729141716
 30
0.0
  0
VERTEX
  5
4D41
330
4D3C
100
AcDbEntity
  8
0
100
AcDbVertex
100
AcDb2dVertex
 10
718.2989910982273
 20
486.1927373135171
 30
0.0
  0
VERTEX
  5
4D42
330
4D3C
100
AcDbEntity
  8
0
100
AcDbVertex
100
AcDb2dVertex
 10
717.7007019375087
 20
486.1244729141716
 30
0.0
  0
VERTEX
  5
4D43
330
4D3C
100
AcDbEntity
  8
0
100
AcDbVertex
100
AcDb2dVertex
 10
717.1371831681181
 20
485.9236469948942
 30
0.0
  0
VERTEX
  5
4D44
330
4D3C
100
AcDbEntity
  8
0
100
AcDbVertex
100
AcDb2dVertex
 10
716.6411844526256
 20
485.6019308281406
 30
0.0
  0
VERTEX
  5
4D45
330
4D3C
100
AcDbEntity
  8
0
100
AcDbVertex
100
AcDb2dVertex
 10
716.4252261757464
 20
485.3986913753795
 30
0.0
  0
SEQEND
  5
4D46
330
4D3C
100
AcDbEntity
  8
0
  0
LINE
  5
4D47
330
A
100
AcDbEntity
  8
0
  6
Continuous
 62
     7
370
    15
100
AcDbLine
 10
684.7989910982273
 20
433.0248760719525
 30
0.0
 11
684.7989910982273
 21
438.0248760719524
 31
0.0
  0
LINE
  5
4D48
330
A
100
AcDbEntity
  8
0
  6
Continuous
 62
     7
370
    15
100
AcDbLine
 10
663.2989910982273
 20
433.5248760719525
 30
0.0
 11
663.2989910982273
 21
437.5248760719525
 31
0.0
  0
LINE
  5
4D49
330
A
100
AcDbEntity
  8
0
  6
Continuous
 62
     7
370
    15
100
AcDbLine
 10
688.7989910982273
 20
445.6610827517136
 30
0.0
 11
727.2989910982273
 21
445.6610827517133
 31
0.0
  0
LINE
  5
4D4A
330
A
100
AcDbEntity
  8
0
  6
Continuous
 62
     7
370
    15
100
AcDbLine
 10
688.7989910982273
 20
451.1156594679971
 30
0.0
 11
688.7989910982273
 21
458.8753654393652
 31
0.0
  0
LINE
  5
4D4B
330
A
100
AcDbEntity
  8
0
  6
Continuous
 62
     7
370
    15
100
AcDbLine
 10
663.2989910982273
 20
447.9171809173658
 30
0.0
 11
663.2989910982273
 21
455.7114095514259
 31
0.0
  0
LINE
  5
4D4C
330
A
100
AcDbEntity
  8
0
  6
Continuous
 62
     7
370
    15
100
AcDbLine
 10
666.2989910982274
 20
453.924515486232
 30
0.0
 11
666.2989910982274
 21
458.8753654393652
 31
0.0
  0
LINE
  5
4D4D
330
A
100
AcDbEntity
  8
0
  6
Continuous
 62
     7
370
    15
100
AcDbLine
 10
688.7989910982273
 20
458.8753654393652
 30
0.0
 11
666.2989910982274
 21
458.8753654393652
 31
0.0
  0
LINE
  5
4D4E
330
A
100
AcDbEntity
  8
0
  6
Continuous
 62
     7
370
    15
100
AcDbLine
 10
688.7989910982273
 20
461.7997722013782
 30
0.0
 11
666.2989910982274
 21
461.7997722013782
 31
0.0
  0
LINE
  5
4D4F
330
A
100
AcDbEntity
  8
0
  6
Continuous
 62
     7
370
    15
100
AcDbLine
 10
675.7989910982273
 20
471.9110827517136
 30
0.0
 11
666.2989910982274
 21
471.9110827517136
 31
0.0
  0
LINE
  5
4D50
330
A
100
AcDbEntity
  8
0
  6
Continuous
 62
     7
370
    15
100
AcDbLine
 10
666.2989910982274
 20
461.7997722013782
 30
0.0
 11
666.2989910982274
 21
471.9110827517136
 31
0.0
  0
LINE
  5
4D51
330
A
100
AcDbEntity
  8
0
  6
Continuous
 62
     7
370
    15
100
AcDbLine
 10
666.2989910982274
 20
458.8753654393652
 30
0.0
 11
666.2989910982274
 21
461.7997722013782
 31
0.0
  0
LINE
  5
4D52
330
A
100
AcDbEntity
  8
0
  6
Continuous
 62
     7
370
    15
100
AcDbLine
 10
663.2989910982273
 20
455.7114095514259
 30
0.0
 11
666.2989910982274
 21
455.7114095514259
 31
0.0
  0
POLYLINE
  5
4D53
330
A
100
AcDbEntity
  8
0
  6
Continuous
 62
     7
370
    15
100
AcDb2dPolyline
 66
     1
 10
0.0
 20
0.0
 30
0.0
 70
   128
  0
VERTEX
  5
4D54
330
4D53
100
AcDbEntity
  8
0
100
AcDbVertex
100
AcDb2dVertex
 10
701.2989910982273
 20
466.36828851422
 30
0.0
  0
VERTEX
  5
4D55
330
4D53
100
AcDbEntity
  8
0
100
AcDbVertex
100
AcDb2dVertex
 10
701.2584932745217
 20
465.7714999745978
 30
0.0
  0
VERTEX
  5
4D56
330
4D53
100
AcDbEntity
  8
0
100
AcDbVertex
100
AcDb2dVertex
 10
701.0798247719235
 20
464.9924715273868
 30
0.0
  0
VERTEX
  5
4D57
330
4D53
100
AcDbEntity
  8
0
100
AcDbVertex
100
AcDb2dVertex
 10
700.7636203889751
 20
464.2530228299434
 30
0.0
  0
VERTEX
  5
4D58
330
4D53
100
AcDbEntity
  8
0
100
AcDbVertex
100
AcDb2dVertex
 10
700.3189767500621
 20
463.5744264749821
 30
0.0
  0
VERTEX
  5
4D59
330
4D53
100
AcDbEntity
  8
0
100
AcDbVertex
100
AcDb2dVertex
 10
699.7586854431151
 20
462.9762044441177
 30
0.0
  0
VERTEX
  5
4D5A
330
4D53
100
AcDbEntity
  8
0
100
AcDbVertex
100
AcDb2dVertex
 10
699.0988650289152
 20
462.4755664959984
 30
0.0
  0
VERTEX
  5
4D5B
330
4D53
100
AcDbEntity
  8
0
100
AcDbVertex
100
AcDb2dVertex
 10
698.3584973394472
 20
462.0869150728821
 30
0.0
  0
VERTEX
  5
4D5C
330
4D53
100
AcDbEntity
  8
0
100
AcDbVertex
100
AcDb2dVertex
 10
697.558881405153
 20
461.8214309685961
 30
0.0
  0
VERTEX
  5
4D5D
330
4D53
100
AcDbEntity
  8
0
100
AcDbVertex
100
AcDb2dVertex
 10
696.7230207206048
 20
461.686751677455
 30
0.0
  0
VERTEX
  5
4D5E
330
4D53
100
AcDbEntity
  8
0
100
AcDbVertex
100
AcDb2dVertex
 10
695.8749614758499
 20
461.686751677455
 30
0.0
  0
VERTEX
  5
4D5F
330
4D53
100
AcDbEntity
  8
0
100
AcDbVertex
100
AcDb2dVertex
 10
695.0391007913017
 20
461.8214309685961
 30
0.0
  0
VERTEX
  5
4D60
330
4D53
100
AcDbEntity
  8
0
100
AcDbVertex
100
AcDb2dVertex
 10
694.2394848570074
 20
462.0869150728822
 30
0.0
  0
VERTEX
  5
4D61
330
4D53
100
AcDbEntity
  8
0
100
AcDbVertex
100
AcDb2dVertex
 10
693.4991171675392
 20
462.4755664959984
 30
0.0
  0
VERTEX
  5
4D62
330
4D53
100
AcDbEntity
  8
0
100
AcDbVertex
100
AcDb2dVertex
 10
692.8392967533396
 20
462.9762044441179
 30
0.0
  0
VERTEX
  5
4D63
330
4D53
100
AcDbEntity
  8
0
100
AcDbVertex
100
AcDb2dVertex
 10
692.2790054463925
 20
463.5744264749821
 30
0.0
  0
VERTEX
  5
4D64
330
4D53
100
AcDbEntity
  8
0
100
AcDbVertex
100
AcDb2dVertex
 10
691.8343618074795
 20
464.2530228299436
 30
0.0
  0
VERTEX
  5
4D65
330
4D53
100
AcDbEntity
  8
0
100
AcDbVertex
100
AcDb2dVertex
 10
691.5181574245312
 20
464.9924715273869
 30
0.0
  0
VERTEX
  5
4D66
330
4D53
100
AcDbEntity
  8
0
100
AcDbVertex
100
AcDb2dVertex
 10
691.339488921933
 20
465.7714999745979
 30
0.0
  0
VERTEX
  5
4D67
330
4D53
100
AcDbEntity
  8
0
100
AcDbVertex
100
AcDb2dVertex
 10
691.2989910982274
 20
466.3682885142202
 30
0.0
  0
SEQEND
  5
4D68
330
4D53
100
AcDbEntity
  8
0
  0
POLYLINE
  5
4D69
330
A
100
AcDbEntity
  8
0
  6
Continuous
 62
     7
370
    15
100
AcDb2dPolyline
 66
     1
 10
0.0
 20
0.0
 30
0.0
 70
   128
  0
VERTEX
  5
4D6A
330
4D69
100
AcDbEntity
  8
0
100
AcDbVertex
100
AcDb2dVertex
 10
696.2989910982273
 20
470.895741546487
 30
0.0
  0
VERTEX
  5
4D6B
330
4D69
100
AcDbEntity
  8
0
100
AcDbVertex
100
AcDb2dVertex
 10
695.4657789941234
 20
470.8256269053472
 30
0.0
  0
VERTEX
  5
4D6C
330
4D69
100
AcDbEntity
  8
0
100
AcDbVertex
100
AcDb2dVertex
 10
694.6562021578902
 20
470.6198268448838
 30
0.0
  0
VERTEX
  5
4D6D
330
4D69
100
AcDbEntity
  8
0
100
AcDbVertex
100
AcDb2dVertex
 10
693.8939411141443
 20
470.2836639869966
 30
0.0
  0
VERTEX
  5
4D6E
330
4D69
100
AcDbEntity
  8
0
100
AcDbVertex
100
AcDb2dVertex
 10
693.1988025624248
 20
469.8299753349215
 30
0.0
  0
VERTEX
  5
4D6F
330
4D69
100
AcDbEntity
  8
0
100
AcDbVertex
100
AcDb2dVertex
 10
692.5861023570969
 20
469.2666636972981
 30
0.0
  0
VERTEX
  5
4D70
330
4D69
100
AcDbEntity
  8
0
100
AcDbVertex
100
AcDb2dVertex
 10
692.0774287132721
 20
468.6158087061174
 30
0.0
  0
VERTEX
  5
4D71
330
4D69
100
AcDbEntity
  8
0
100
AcDbVertex
100
AcDb2dVertex
 10
691.686722172737
 20
467.8919094498856
 30
0.0
  0
VERTEX
  5
4D72
330
4D69
100
AcDbEntity
  8
0
100
AcDbVertex
100
AcDb2dVertex
 10
691.4268534339434
 20
467.1211778741529
 30
0.0
  0
VERTEX
  5
4D73
330
4D69
100
AcDbEntity
  8
0
100
AcDbVertex
100
AcDb2dVertex
 10
691.30804930678
 20
466.3333954545958
 30
0.0
  0
VERTEX
  5
4D74
330
4D69
100
AcDbEntity
  8
0
100
AcDbVertex
100
AcDb2dVertex
 10
691.3290943805577
 20
465.5453146252511
 30
0.0
  0
VERTEX
  5
4D75
330
4D69
100
AcDbEntity
  8
0
100
AcDbVertex
100
AcDb2dVertex
 10
691.4892066902297
 20
464.7868391234879
 30
0.0
  0
VERTEX
  5
4D76
330
4D69
100
AcDbEntity
  8
0
100
AcDbVertex
100
AcDb2dVertex
 10
691.7812392685609
 20
464.0706023031442
 30
0.0
  0
VERTEX
  5
4D77
330
4D69
100
AcDbEntity
  8
0
100
AcDbVertex
100
AcDb2dVertex
 10
692.2005494397258
 20
463.413252419539
 30
0.0
  0
VERTEX
  5
4D78
330
4D69
100
AcDbEntity
  8
0
100
AcDbVertex
100
AcDb2dVertex
 10
692.7327313123798
 20
462.8332390017385
 30
0.0
  0
VERTEX
  5
4D79
330
4D69
100
AcDbEntity
  8
0
100
AcDbVertex
100
AcDb2dVertex
 10
693.3723607091369
 20
462.3405499173316
 30
0.0
  0
VERTEX
  5
4D7A
330
4D69
100
AcDbEntity
  8
0
100
AcDbVertex
100
AcDb2dVertex
 10
694.0950388910464
 20
461.9527747723011
 30
0.0
  0
VERTEX
  5
4D7B
330
4D69
100
AcDbEntity
  8
0
100
AcDbVertex
100
AcDb2dVertex
 10
694.8825353572253
 20
461.6805464936931
 30
0.0
  0
VERTEX
  5
4D7C
330
4D69
100
AcDbEntity
  8
0
100
AcDbVertex
100
AcDb2dVertex
 10
695.7109861785866
 20
461.5294858699335
 30
0.0
  0
VERTEX
  5
4D7D
330
4D69
100
AcDbEntity
  8
0
100
AcDbVertex
100
AcDb2dVertex
 10
696.5472922247415
 20
461.5046959417598
 30
0.0
  0
VERTEX
  5
4D7E
330
4D69
100
AcDbEntity
  8
0
100
AcDbVertex
100
AcDb2dVertex
 10
697.3765297781283
 20
461.6027311394421
 30
0.0
  0
VERTEX
  5
4D7F
330
4D69
100
AcDbEntity
  8
0
100
AcDbVertex
100
AcDb2dVertex
 10
698.1701510034227
 20
461.8211207444751
 30
0.0
  0
VERTEX
  5
4D80
330
4D69
100
AcDbEntity
  8
0
100
AcDbVertex
100
AcDb2dVertex
 10
698.9117300642419
 20
462.153234017936
 30
0.0
  0
VERTEX
  5
4D81
330
4D69
100
AcDbEntity
  8
0
100
AcDbVertex
100
AcDb2dVertex
 10
699.5856968715202
 20
462.5969118287052
 30
0.0
  0
VERTEX
  5
4D82
330
4D69
100
AcDbEntity
  8
0
100
AcDbVertex
100
AcDb2dVertex
 10
700.1681083554195
 20
463.1379202338494
 30
0.0
  0
VERTEX
  5
4D83
330
4D69
100
AcDbEntity
  8
0
100
AcDbVertex
100
AcDb2dVertex
 10
700.6457160632999
 20
463.7711533087018
 30
0.0
  0
VERTEX
  5
4D84
330
4D69
100
AcDbEntity
  8
0
100
AcDbVertex
100
AcDb2dVertex
 10
701.0003031336337
 20
464.4748606658395
 30
0.0
  0
VERTEX
  5
4D85
330
4D69
100
AcDbEntity
  8
0
100
AcDbVertex
100
AcDb2dVertex
 10
701.2189608422136
 20
465.2283650043525
 30
0.0
  0
VERTEX
  5
4D86
330
4D69
100
AcDbEntity
  8
0
100
AcDbVertex
100
AcDb2dVertex
 10
701.2987584041084
 20
466.0131424235965
 30
0.0
  0
VERTEX
  5
4D87
330
4D69
100
AcDbEntity
  8
0
100
AcDbVertex
100
AcDb2dVertex
 10
701.2367138229267
 20
466.798138014366
 30
0.0
  0
VERTEX
  5
4D88
330
4D69
100
AcDbEntity
  8
0
100
AcDbVertex
100
AcDb2dVertex
 10
701.038399353786
 20
467.5695050120368
 30
0.0
  0
VERTEX
  5
4D89
330
4D69
100
AcDbEntity
  8
0
100
AcDbVertex
100
AcDb2dVertex
 10
700.7082376379148
 20
468.3037042199646
 30
0.0
  0
VERTEX
  5
4D8A
330
4D69
100
AcDbEntity
  8
0
100
AcDbVertex
100
AcDb2dVertex
 10
700.2573080699926
 20
468.9806232125172
 30
0.0
  0
VERTEX
  5
4D8B
330
4D69
100
AcDbEntity
  8
0
100
AcDbVertex
100
AcDb2dVertex
 10
699.6899318913233
 20
469.5854198755145
 30
0.0
  0
VERTEX
  5
4D8C
330
4D69
100
AcDbEntity
  8
0
100
AcDbVertex
100
AcDb2dVertex
 10
699.0274480306325
 20
470.0929962671909
 30
0.0
  0
VERTEX
  5
4D8D
330
4D69
100
AcDbEntity
  8
0
100
AcDbVertex
100
AcDb2dVertex
 10
698.2820197747492
 20
470.4878891107039
 30
0.0
  0
VERTEX
  5
4D8E
330
4D69
100
AcDbEntity
  8
0
100
AcDbVertex
100
AcDb2dVertex
 10
697.4794227762486
 20
470.7551399715142
 30
0.0
  0
VERTEX
  5
4D8F
330
4D69
100
AcDbEntity
  8
0
100
AcDbVertex
100
AcDb2dVertex
 10
696.2989910982273
 20
470.895741546487
 30
0.0
  0
SEQEND
  5
4D90
330
4D69
100
AcDbEntity
  8
0
  0
POLYLINE
  5
4D91
330
A
100
AcDbEntity
  8
0
  6
Continuous
 62
     7
370
    15
100
AcDb2dPolyline
 66
     1
 10
0.0
 20
0.0
 30
0.0
 70
   128
  0
VERTEX
  5
4D92
330
4D91
100
AcDbEntity
  8
0
100
AcDbVertex
100
AcDb2dVertex
 10
696.2989910982273
 20
468.7175200661849
 30
0.0
  0
VERTEX
  5
4D93
330
4D91
100
AcDbEntity
  8
0
100
AcDbVertex
100
AcDb2dVertex
 10
696.8972802589462
 20
468.6492556668395
 30
0.0
  0
VERTEX
  5
4D94
330
4D91
100
AcDbEntity
  8
0
100
AcDbVertex
100
AcDb2dVertex
 10
697.4607990283368
 20
468.448429747562
 30
0.0
  0
VERTEX
  5
4D95
330
4D91
100
AcDbEntity
  8
0
100
AcDbVertex
100
AcDb2dVertex
 10
697.9567977438294
 20
468.1267135808085
 30
0.0
  0
VERTEX
  5
4D96
330
4D91
100
AcDbEntity
  8
0
100
AcDbVertex
100
AcDb2dVertex
 10
698.3564507629615
 20
467.7028041407999
 30
0.0
  0
VERTEX
  5
4D97
330
4D91
100
AcDbEntity
  8
0
100
AcDbVertex
100
AcDb2dVertex
 10
698.6365317049408
 20
467.2013375033413
 30
0.0
  0
VERTEX
  5
4D98
330
4D91
100
AcDbEntity
  8
0
100
AcDbVertex
100
AcDb2dVertex
 10
698.7807632834724
 20
466.651457086645
 30
0.0
  0
VERTEX
  5
4D99
330
4D91
100
AcDbEntity
  8
0
100
AcDbVertex
100
AcDb2dVertex
 10
698.7807632834724
 20
466.0851199417952
 30
0.0
  0
VERTEX
  5
4D9A
330
4D91
100
AcDbEntity
  8
0
100
AcDbVertex
100
AcDb2dVertex
 10
698.6365317049408
 20
465.5352395250989
 30
0.0
  0
VERTEX
  5
4D9B
330
4D91
100
AcDbEntity
  8
0
100
AcDbVertex
100
AcDb2dVertex
 10
698.3564507629615
 20
465.0337728876404
 30
0.0
  0
VERTEX
  5
4D9C
330
4D91
100
AcDbEntity
  8
0
100
AcDbVertex
100
AcDb2dVertex
 10
697.9567977438294
 20
464.6098634476317
 30
0.0
  0
VERTEX
  5
4D9D
330
4D91
100
AcDbEntity
  8
0
100
AcDbVertex
100
AcDb2dVertex
 10
697.4607990283368
 20
464.2881472808783
 30
0.0
  0
VERTEX
  5
4D9E
330
4D91
100
AcDbEntity
  8
0
100
AcDbVertex
100
AcDb2dVertex
 10
696.8972802589462
 20
464.087321361601
 30
0.0
  0
VERTEX
  5
4D9F
330
4D91
100
AcDbEntity
  8
0
100
AcDbVertex
100
AcDb2dVertex
 10
696.2989910982273
 20
464.0190569622554
 30
0.0
  0
VERTEX
  5
4DA0
330
4D91
100
AcDbEntity
  8
0
100
AcDbVertex
100
AcDb2dVertex
 10
695.7007019375084
 20
464.087321361601
 30
0.0
  0
VERTEX
  5
4DA1
330
4D91
100
AcDbEntity
  8
0
100
AcDbVertex
100
AcDb2dVertex
 10
695.1371831681179
 20
464.2881472808783
 30
0.0
  0
VERTEX
  5
4DA2
330
4D91
100
AcDbEntity
  8
0
100
AcDbVertex
100
AcDb2dVertex
 10
694.6411844526253
 20
464.6098634476319
 30
0.0
  0
VERTEX
  5
4DA3
330
4D91
100
AcDbEntity
  8
0
100
AcDbVertex
100
AcDb2dVertex
 10
694.2415314334932
 20
465.0337728876404
 30
0.0
  0
VERTEX
  5
4DA4
330
4D91
100
AcDbEntity
  8
0
100
AcDbVertex
100
AcDb2dVertex
 10
693.9614504915139
 20
465.535239525099
 30
0.0
  0
VERTEX
  5
4DA5
330
4D91
100
AcDbEntity
  8
0
100
AcDbVertex
100
AcDb2dVertex
 10
693.8172189129822
 20
466.0851199417954
 30
0.0
  0
VERTEX
  5
4DA6
330
4D91
100
AcDbEntity
  8
0
100
AcDbVertex
100
AcDb2dVertex
 10
693.8172189129822
 20
466.6514570866451
 30
0.0
  0
VERTEX
  5
4DA7
330
4D91
100
AcDbEntity
  8
0
100
AcDbVertex
100
AcDb2dVertex
 10
693.9614504915139
 20
467.2013375033413
 30
0.0
  0
VERTEX
  5
4DA8
330
4D91
100
AcDbEntity
  8
0
100
AcDbVertex
100
AcDb2dVertex
 10
694.2415314334932
 20
467.7028041408
 30
0.0
  0
VERTEX
  5
4DA9
330
4D91
100
AcDbEntity
  8
0
100
AcDbVertex
100
AcDb2dVertex
 10
694.6411844526253
 20
468.1267135808085
 30
0.0
  0
VERTEX
  5
4DAA
330
4D91
100
AcDbEntity
  8
0
100
AcDbVertex
100
AcDb2dVertex
 10
695.137183168118
 20
468.4484297475621
 30
0.0
  0
VERTEX
  5
4DAB
330
4D91
100
AcDbEntity
  8
0
100
AcDbVertex
100
AcDb2dVertex
 10
695.7007019375087
 20
468.6492556668395
 30
0.0
  0
VERTEX
  5
4DAC
330
4D91
100
AcDbEntity
  8
0
100
AcDbVertex
100
AcDb2dVertex
 10
696.2989910982273
 20
468.7175200661849
 30
0.0
  0
SEQEND
  5
4DAD
330
4D91
100
AcDbEntity
  8
0
  0
POLYLINE
  5
4DAE
330
A
100
AcDbEntity
  8
0
  6
Continuous
 62
     7
370
    15
100
AcDb2dPolyline
 66
     1
 10
0.0
 20
0.0
 30
0.0
 70
   128
  0
VERTEX
  5
4DAF
330
4DAE
100
AcDbEntity
  8
0
100
AcDbVertex
100
AcDb2dVertex
 10
698.1727560207082
 20
467.9234741280473
 30
0.0
  0
VERTEX
  5
4DB0
330
4DAE
100
AcDbEntity
  8
0
100
AcDbVertex
100
AcDb2dVertex
 10
697.9567977438294
 20
467.7202346752863
 30
0.0
  0
VERTEX
  5
4DB1
330
4DAE
100
AcDbEntity
  8
0
100
AcDbVertex
100
AcDb2dVertex
 10
697.4607990283368
 20
467.3985185085327
 30
0.0
  0
VERTEX
  5
4DB2
330
4DAE
100
AcDbEntity
  8
0
100
AcDbVertex
100
AcDb2dVertex
 10
696.8972802589462
 20
467.1976925892553
 30
0.0
  0
VERTEX
  5
4DB3
330
4DAE
100
AcDbEntity
  8
0
100
AcDbVertex
100
AcDb2dVertex
 10
696.2989910982273
 20
467.1294281899098
 30
0.0
  0
VERTEX
  5
4DB4
330
4DAE
100
AcDbEntity
  8
0
100
AcDbVertex
100
AcDb2dVertex
 10
695.7007019375084
 20
467.1976925892553
 30
0.0
  0
VERTEX
  5
4DB5
330
4DAE
100
AcDbEntity
  8
0
100
AcDbVertex
100
AcDb2dVertex
 10
695.1371831681179
 20
467.3985185085327
 30
0.0
  0
VERTEX
  5
4DB6
330
4DAE
100
AcDbEntity
  8
0
100
AcDbVertex
100
AcDb2dVertex
 10
694.6411844526253
 20
467.7202346752863
 30
0.0
  0
VERTEX
  5
4DB7
330
4DAE
100
AcDbEntity
  8
0
100
AcDbVertex
100
AcDb2dVertex
 10
694.4252261757465
 20
467.9234741280474
 30
0.0
  0
SEQEND
  5
4DB8
330
4DAE
100
AcDbEntity
  8
0
  0
LINE
  5
4DB9
330
A
100
AcDbEntity
  8
0
  6
Continuous
 62
     7
370
    15
100
AcDbLine
 10
688.7989910982273
 20
458.8753654393652
 30
0.0
 11
688.7989910982273
 21
461.7997722013782
 31
0.0
  0
LINE
  5
4DBA
330
A
100
AcDbEntity
  8
0
  6
Continuous
 62
     7
370
    15
100
AcDbLine
 10
678.2989910982273
 20
440.0248760719525
 30
0.0
 11
671.2989910982273
 21
440.0248760719525
 31
0.0
  0
LINE
  5
4DBB
330
A
100
AcDbEntity
  8
0
  6
Continuous
 62
     7
370
    15
100
AcDbLine
 10
678.2989910982273
 20
446.5200666003357
 30
0.0
 11
671.2989910982273
 21
446.5200666003359
 31
0.0
  0
LINE
  5
4DBC
330
A
100
AcDbEntity
  8
0
  6
Continuous
 62
     7
370
    15
100
AcDbLine
 10
688.7989910982273
 20
451.1156594679971
 30
0.0
 11
668.0310419057962
 21
451.1156594679971
 31
0.0
  0
LINE
  5
4DBD
330
A
100
AcDbEntity
  8
0
  6
Continuous
 62
     7
370
    15
100
AcDbLine
 10
663.2989910982273
 20
437.5248760719525
 30
0.0
 11
663.2989910982273
 21
445.3191047060125
 31
0.0
  0
LINE
  5
4DBE
330
A
100
AcDbEntity
  8
0
  6
Continuous
 62
     7
370
    15
100
AcDbLine
 10
668.0310419057962
 20
443.3234257835441
 30
0.0
 11
668.0310419057962
 21
451.1156594679971
 31
0.0
  0
LINE
  5
4DBF
330
A
100
AcDbEntity
  8
0
  6
Continuous
 62
     7
370
    15
100
AcDbLine
 10
666.2989910982274
 20
445.9349464078063
 30
0.0
 11
668.0310419057962
 21
443.3234257835441
 31
0.0
  0
LINE
  5
4DC0
330
A
100
AcDbEntity
  8
0
  6
Continuous
 62
     7
370
    15
100
AcDbLine
 10
671.2989910982273
 20
440.0248760719525
 30
0.0
 11
671.2989910982273
 21
446.5200666003357
 31
0.0
  0
LINE
  5
4DC1
330
A
100
AcDbEntity
  8
0
  6
Continuous
 62
     7
370
    15
100
AcDbLine
 10
666.2989910982274
 20
445.9349464078063
 30
0.0
 11
666.2989910982274
 21
453.924515486232
 31
0.0
  0
LINE
  5
4DC2
330
A
100
AcDbEntity
  8
0
  6
Continuous
 62
     7
370
    15
100
AcDbLine
 10
666.2989910982274
 20
453.924515486232
 30
0.0
 11
668.0310419057962
 21
451.1156594679971
 31
0.0
  0
LINE
  5
4DC3
330
A
100
AcDbEntity
  8
0
  6
Continuous
 62
     7
370
    15
100
AcDbLine
 10
663.2989910982273
 20
445.3191047060125
 30
0.0
 11
665.2989910982273
 21
445.3191047060125
 31
0.0
  0
LINE
  5
4DC4
330
A
100
AcDbEntity
  8
0
  6
Continuous
 62
     7
370
    15
100
AcDbLine
 10
665.2989910982273
 20
447.9171809173659
 30
0.0
 11
663.2989910982273
 21
447.9171809173658
 31
0.0
  0
LINE
  5
4DC5
330
A
100
AcDbEntity
  8
0
  6
Continuous
 62
     7
370
    15
100
AcDbLine
 10
665.2989910982273
 20
445.3191047060125
 30
0.0
 11
665.2989910982273
 21
447.9171809173659
 31
0.0
  0
LINE
  5
4DC6
330
A
100
AcDbEntity
  8
0
  6
Continuous
 62
     7
370
    15
100
AcDbLine
 10
663.2989910982273
 20
445.3191047060125
 30
0.0
 11
663.2989910982273
 21
447.9171809173658
 31
0.0
  0
LINE
  5
4DC7
330
A
100
AcDbEntity
  8
0
  6
Continuous
 62
     7
370
    15
100
AcDbLine
 10
668.0310419057962
 20
443.3234257835441
 30
0.0
 11
671.2989910982273
 21
443.3234257835441
 31
0.0
  0
LINE
  5
4DC8
330
A
100
AcDbEntity
  8
0
  6
Continuous
 62
     7
370
    15
100
AcDbLine
 10
671.2989910982273
 20
437.5248760719525
 30
0.0
 11
671.2989910982273
 21
440.0248760719525
 31
0.0
  0
LINE
  5
4DC9
330
A
100
AcDbEntity
  8
0
  6
Continuous
 62
     7
370
    15
100
AcDbLine
 10
671.2989910982273
 20
437.5248760719525
 30
0.0
 11
663.2989910982273
 21
437.5248760719525
 31
0.0
  0
LINE
  5
4DCA
330
A
100
AcDbEntity
  8
0
  6
Continuous
 62
     7
370
    15
100
AcDbLine
 10
688.7989910982273
 20
436.1156594679969
 30
0.0
 11
688.7989910982273
 21
451.1156594679971
 31
0.0
  0
LINE
  5
4DCB
330
A
100
AcDbEntity
  8
0
  6
Continuous
 62
     7
370
    15
100
AcDbLine
 10
678.2989910982273
 20
446.5200666003357
 30
0.0
 11
678.2989910982273
 21
440.0248760719525
 31
0.0
  0
LINE
  5
4DCC
330
A
100
AcDbEntity
  8
0
  6
Continuous
 62
     7
370
    15
100
AcDbLine
 10
688.7989910982273
 20
436.1156594679969
 30
0.0
 11
684.7989910982273
 21
436.1156594679969
 31
0.0
  0
LINE
  5
4DCD
330
A
100
AcDbEntity
  8
0
  6
Continuous
 62
     7
370
    15
100
AcDbLine
 10
684.7989910982273
 20
443.919062378301
 30
0.0
 11
684.7989910982273
 21
438.0248760719524
 31
0.0
  0
LINE
  5
4DCE
330
A
100
AcDbEntity
  8
0
  6
Continuous
 62
     7
370
    15
100
AcDbLine
 10
684.7989910982273
 20
443.919062378301
 30
0.0
 11
678.2989910982273
 21
443.9190623783011
 31
0.0
  0
LINE
  5
4DCF
330
A
100
AcDbEntity
  8
0
  6
Continuous
 62
     7
370
    15
100
AcDbLine
 10
678.2989910982273
 20
438.0248760719525
 30
0.0
 11
678.2989910982273
 21
440.0248760719525
 31
0.0
  0
LINE
  5
4DD0
330
A
100
AcDbEntity
  8
0
  6
Continuous
 62
     7
370
    15
100
AcDbLine
 10
684.7989910982273
 20
438.0248760719524
 30
0.0
 11
678.2989910982273
 21
438.0248760719525
 31
0.0
  0
LINE
  5
4DD1
330
A
100
AcDbEntity
  8
0
  6
Continuous
 62
     7
370
    15
100
AcDbLine
 10
678.2989910982273
 20
431.0248760719526
 30
0.0
 11
671.2989910982273
 21
431.0248760719527
 31
0.0
  0
LINE
  5
4DD2
330
A
100
AcDbEntity
  8
0
  6
Continuous
 62
     7
370
    15
100
AcDbLine
 10
671.2989910982273
 20
431.0248760719527
 30
0.0
 11
671.2989910982273
 21
433.5248760719525
 31
0.0
  0
LINE
  5
4DD3
330
A
100
AcDbEntity
  8
0
  6
Continuous
 62
     7
370
    15
100
AcDbLine
 10
671.2989910982273
 20
433.5248760719525
 30
0.0
 11
663.2989910982273
 21
433.5248760719525
 31
0.0
  0
LINE
  5
4DD4
330
A
100
AcDbEntity
  8
0
  6
Continuous
 62
     7
370
    15
100
AcDbLine
 10
678.2989910982273
 20
433.0248760719525
 30
0.0
 11
684.7989910982273
 21
433.0248760719525
 31
0.0
  0
LINE
  5
4DD5
330
A
100
AcDbEntity
  8
0
  6
Continuous
 62
     7
370
    15
100
AcDbLine
 10
678.2989910982273
 20
431.0248760719526
 30
0.0
 11
678.2989910982273
 21
433.0248760719525
 31
0.0
  0
LINE
  5
4DD6
330
A
100
AcDbEntity
  8
CENTER
370
     0
100
AcDbLine
 10
729.7503838419138
 20
476.6610827517133
 30
0.0
 11
656.8553782112189
 21
476.6610827517133
 31
0.0
  0
LINE
  5
4F0C
330
A
100
AcDbEntity
  8
CENTER
100
AcDbLine
 10
813.2554774664923
 20
381.1409174828564
 30
0.0
 11
823.2052467079839
 21
357.1200496375627
 31
0.0
  0
LINE
  5
4F0D
330
A
100
AcDbEntity
  8
CENTER
100
AcDbLine
 10
823.2052467079839
 20
357.1200496375627
 30
0.0
 11
833.0269139377683
 21
384.1048585727932
 31
0.0
  0
LINE
  5
4F0E
330
A
100
AcDbEntity
  8
CENTER
100
AcDbLine
 10
823.2052467079839
 20
357.1200496375627
 30
0.0
 11
813.3835794781989
 21
384.1048585727932
 31
0.0
  0
DIMENSION
  5
4F0F
330
A
100
AcDbEntity
  8
AM_5
100
AcDbDimension
  2
*D36
 10
823.2052467079839
 20
385.6432215999776
 30
0.0
 11
830.7532082874217
 21
399.9266669182033
 31
0.0
 70
    34
 71
     5
 42
0.3490658503988593
  3
AM_ISO$2
100
AcDb2LineAngularDimension
 13
823.2052467079839
 23
357.1200496375627
 33
0.0
 14
833.0269139377683
 24
384.1048585727932
 34
0.0
 15
823.2052467079839
 25
311.5686036863822
 35
0.0
 16
832.5951486800887
 26
396.7391613656033
 36
0.0
1001
ACAD
1000
DSTYLE
1002
{
1070
   179
1070
     2
1070
   272
1070
     8
1002
}
  0
DIMENSION
  5
4F10
330
A
100
AcDbEntity
  8
AM_5
100
AcDbDimension
  2
*D37
 10
813.3835794781989
 20
384.1048585727932
 30
0.0
 11
815.6572851285453
 21
399.9266669182033
 31
0.0
 70
    34
 71
     5
 42
0.3490658503988822
  3
AM_ISO$2
100
AcDb2LineAngularDimension
 13
823.2052467079839
 23
311.5686036863822
 33
0.0
 14
823.2052467079839
 24
385.6432215999776
 34
0.0
 15
823.2052467079839
 25
357.1200496375627
 35
0.0
 16
818.4783340294137
 26
397.5613721888079
 36
0.0
1001
ACAD
1000
DSTYLE
1002
{
1070
   179
1070
     2
1070
   272
1070
     8
1002
}
  0
DIMENSION
  5
4F11
330
A
100
AcDbEntity
  8
AM_5
100
AcDbDimension
  2
*D38
 10
823.2052467079839
 20
357.1200496375627
 30
0.0
 11
813.4571728112035
 21
406.1269265110102
 31
0.0
 70
    34
 71
     5
 42
0.3926990816987039
  3
AM_ISO$2
100
AcDb2LineAngularDimension
 13
823.2052467079839
 23
311.5686036863822
 33
0.0
 14
823.2052467079839
 24
385.6432215999776
 34
0.0
 15
813.2554774664923
 25
381.1409174828564
 35
0.0
 16
817.0422392803486
 26
403.9327386527812
 36
0.0
1001
ACAD
1000
DSTYLE
1002
{
1070
   179
1070
     2
1070
   272
1070
     8
1002
}
  0
DIMENSION
  5
4FDC
330
A
100
AcDbEntity
  8
AM_5
100
AcDbDimension
  2
*D39
 10
783.4921168771371
 20
315.2341159504777
 30
0.0
 11
787.1808358886384
 21
313.5148567919474
 31
0.0
 70
    33
 71
     5
 42
6.0
  3
AM_ISO$0
100
AcDbAlignedDimension
 13
834.4944079627534
 23
329.8656034284799
 33
0.0
 14
832.1983073685634
 24
335.4088806235479
 34
0.0
1001
ACAD
1000
DSTYLE
1002
{
1070
   174
1070
     1
1070
   272
1070
     8
1002
}
  0
DIMENSION
  5
500E
330
A
100
AcDbEntity
  8
AM_5
100
AcDbDimension
  2
*D40
 10
783.4921168771359
 20
315.2341159504792
 30
0.0
 11
781.5365735268408
 21
327.1422117264136
 31
0.0
 70
    32
 71
     5
 42
23.4999999999996
  3
AM_ISO$0
100
AcDbAlignedDimension
 13
823.2052467079835
 23
357.1200496375626
 33
0.0
 14
832.1983073685634
 24
335.4088806235479
 34
0.0
 50
112.4999999999918
100
AcDbRotatedDimension
1001
ACAD
1000
DSTYLE
1002
{
1070
   174
1070
     1
1070
   272
1070
     8
1002
}
  0
DIMENSION
  5
502A
330
A
100
AcDbEntity
  8
AM_5
100
AcDbDimension
  2
*D41
 10
774.4990562165583
 20
336.9452849644949
 30
0.0
 11
771.9694877177158
 21
350.2392000391964
 31
0.0
 70
    32
 71
     5
 42
26.50000000000006
  3
AM_ISO$0
100
AcDbAlignedDimension
 13
813.0641357503089
 23
381.6028572491118
 33
0.0
 14
823.2052467079835
 24
357.1200496375626
 34
0.0
 50
112.4999999999918
100
AcDbRotatedDimension
1001
ACAD
1000
DSTYLE
1002
{
1070
   174
1070
     1
1070
   272
1070
     8
1002
}
  0
DIMENSION
  5
5052
330
A
100
AcDbEntity
  8
AM_5
100
AcDbDimension
  2
*D42
 10
847.5878708340133
 20
303.4814396457676
 30
0.0
 11
826.7319966781094
 21
294.8426537152442
 31
0.0
 70
   161
  1
<>*4depth
 71
     5
 42
4.000000000000454
  3
AM_ISO$0
100
AcDbAlignedDimension
 13
831.8812820330011
 23
330.9479956287717
 33
0.0
 14
835.5768001630465
 24
332.4787293582325
 34
0.0
1001
ACAD
1000
DSTYLE
1002
{
1070
   272
1070
     8
1002
}
  0
DIMENSION
  5
511B
330
A
100
AcDbEntity
  8
AM_5
100
AcDbDimension
  2
*D44
 10
806.9461722663007
 20
370.4107418053845
 30
0.0
 11
865.2214626108857
 21
333.5144125849001
 31
0.0
 70
   163
  1
<>*2depth
 71
     5
 42
41.99999999999977
  3
AM_ISO$3
100
AcDbDiametricDimension
 15
839.4643211496667
 25
343.8293574697406
 35
0.0
 40
0.0
1001
ACAD
1000
DSTYLE
1002
{
1070
   172
1070
     1
1070
   272
1070
     8
1002
}
  0
DIMENSION
  5
515E
330
A
100
AcDbEntity
  8
AM_5
100
AcDbDimension
  2
*D45
 10
846.1549199082705
 20
370.370049637563
 30
0.0
 11
878.3378884643266
 21
394.4980238550198
 31
0.0
 70
   164
  1
3-M5*0.8*10depth
 71
     5
 42
2.499999999999545
  3
AM_ISO$4
100
AcDbRadialDimension
 15
847.3350363288659
 25
372.5739836732907
 35
0.0
 40
0.0
1001
ACAD
1000
DSTYLE
1002
{
1070
   272
1070
     8
1002
}
  0
DIMENSION
  5
519C
330
A
100
AcDbEntity
  8
AM_5
100
AcDbDimension
  2
*D46
 10
814.4753939024392
 20
380.1856944398182
 30
0.0
 11
788.86015877567
 21
393.7690988323787
 31
0.0
 70
   163
  1
<>*4depth
 71
     5
 42
3.999999999999886
  3
AM_ISO$3
100
AcDbDiametricDimension
 15
811.6528775981786
 25
383.0200200584055
 35
0.0
 40
0.0
1001
ACAD
1000
DSTYLE
1002
{
1070
   272
1070
     8
1002
}
  0
DIMENSION
  5
51DC
330
A
100
AcDbEntity
  8
AM_5
100
AcDbDimension
  2
*D47
 10
688.7989910982273
 20
297.6200496375628
 30
0.0
 11
708.0489910982273
 21
300.3700496375628
 31
0.0
 70
    32
 71
     5
 42
38.5
  3
AM_ISO$0
100
AcDbAlignedDimension
 13
727.2989910982273
 23
326.1200496375626
 33
0.0
 14
688.7989910982273
 24
316.1200496375627
 34
0.0
 50
0.0000000000002036
100
AcDbRotatedDimension
1001
ACAD
1000
DSTYLE
1002
{
1070
   272
1070
     8
1002
}
  0
DIMENSION
  5
51FF
330
A
100
AcDbEntity
  8
AM_5
100
AcDbDimension
  2
*D48
 10
684.7989910982273
 20
291.1200496375628
 30
0.0
 11
706.0489910982274
 21
293.8703941257518
 31
0.0
 70
    32
 71
     5
 42
42.5
  3
AM_ISO$0
100
AcDbAlignedDimension
 13
727.2989910982273
 23
326.1200496375626
 33
0.0
 14
684.7989910982273
 24
309.6200496375628
 34
0.0
100
AcDbRotatedDimension
1001
ACAD
1000
DSTYLE
1002
{
1070
   174
1070
     1
1070
   272
1070
     8
1002
}
  0
DIMENSION
  5
5234
330
A
100
AcDbEntity
  8
AM_5
100
AcDbDimension
  2
*D49
 10
684.7989910982273
 20
291.1200496375628
 30
0.0
 11
678.0489910982272
 21
293.8700496375627
 31
0.0
 70
    32
 71
     5
 42
13.50000000000022
  3
AM_ISO$0
100
AcDbAlignedDimension
 13
671.2989910982271
 23
309.6200496375628
 33
0.0
 14
684.7989910982273
 24
309.6200496375628
 34
0.0
100
AcDbRotatedDimension
1001
ACAD
1000
DSTYLE
1002
{
1070
   174
1070
     1
1070
   272
1070
     8
1002
}
  0
DIMENSION
  5
52B9
330
A
100
AcDbEntity
  8
AM_5
100
AcDbDimension
  2
*D50
 10
678.2989910982271
 20
297.6200496375629
 30
0.0
 11
674.7989910982271
 21
300.3700496375629
 31
0.0
 70
    32
 71
     5
 42
7.0
  3
AM_ISO$0
100
AcDbAlignedDimension
 13
671.2989910982271
 23
309.6200496375628
 33
0.0
 14
678.2989910982271
 24
309.6200496375628
 34
0.0
 50
0.0000000000010178
100
AcDbRotatedDimension
1001
ACAD
1000
DSTYLE
1002
{
1070
   272
1070
     8
1002
}
  0
DIMENSION
  5
5311
330
A
100
AcDbEntity
  8
AM_5
100
AcDbDimension
  2
*D51
 10
663.2989910982269
 20
400.1200496375627
 30
0.0
 11
695.2989910982271
 21
403.0450496375626
 31
0.0
 70
    32
  1
(<>)
 71
     5
 42
64.00000000000045
  3
AM_ISO$0
100
AcDbAlignedDimension
 13
727.2989910982273
 23
388.1200496375627
 33
0.0
 14
663.2989910982269
 24
384.3341512527
 34
0.0
100
AcDbRotatedDimension
1001
ACAD
1000
DSTYLE
1002
{
1070
   272
1070
     8
1002
}
  0
DIMENSION
  5
5342
330
A
100
AcDbEntity
  8
AM_5
100
AcDbDimension
  2
*D52
 10
651.298990098227
 20
321.6200496375626
 30
0.0
 11
648.5489900982269
 21
326.1200496375628
 31
0.0
 70
    32
 71
     5
 42
9.000000000000056
  3
AM_ISO$0
100
AcDbAlignedDimension
 13
663.2989910982271
 23
330.6200496375627
 33
0.0
 14
663.2989910982271
 24
321.6200496375626
 34
0.0
 50
90.0
100
AcDbRotatedDimension
1001
ACAD
1000
DSTYLE
1002
{
1070
   173
1070
     1
1070
   174
1070
     1
1070
   272
1070
     8
1070
   344
1005
538C
1002
}
  0
DIMENSION
  5
5372
330
A
100
AcDbEntity
  8
AM_5
100
AcDbDimension
  2
*D53
 10
651.298990098227
 20
318.6200496375628
 30
0.0
 11
648.5489900982269
 21
320.1200496375628
 31
0.0
 70
    32
 71
     5
 42
2.999999999999886
  3
AM_ISO$0
100
AcDbAlignedDimension
 13
663.2989910982271
 23
321.6200496375626
 33
0.0
 14
663.2989910982271
 24
318.6200496375628
 34
0.0
 50
90.0
100
AcDbRotatedDimension
1001
ACAD
1000
DSTYLE
1002
{
1070
   173
1070
     1
1070
   174
1070
     1
1070
   272
1070
     8
1070
   343
1005
538C
1002
}
  0
DIMENSION
  5
53C5
330
A
100
AcDbEntity
  8
AM_5
100
AcDbDimension
  2
*D55
 10
644.0082631579664
 20
357.1200496375627
 30
0.0
 11
641.2582631579663
 21
333.3700496375628
 31
0.0
 70
    32
 71
     5
 42
47.50000000000006
  3
AM_ISO$0
100
AcDbAlignedDimension
 13
663.2989910982273
 23
309.6200496375626
 33
0.0
 14
652.1955317283782
 24
357.1200496375627
 34
0.0
 50
90.0
100
AcDbRotatedDimension
1001
ACAD
1000
DSTYLE
1002
{
1070
   272
1070
     8
1002
}
  0
DIMENSION
  5
53ED
330
A
100
AcDbEntity
  8
AM_5
100
AcDbDimension
  2
*D56
 10
739.2989910982276
 20
445.6610827517133
 30
0.0
 11
736.5486466100385
 21
476.6610827517135
 31
0.0
 70
    32
  1
%%c<>
 71
     5
 42
62.00000000000011
  3
AM_ISO$0
100
AcDbAlignedDimension
 13
727.2989910982276
 23
507.6610827517135
 33
0.0
 14
727.2989910982273
 24
445.6610827517133
 34
0.0
 50
90.0
100
AcDbRotatedDimension
1001
ACAD
1000
DSTYLE
1002
{
1070
   272
1070
     8
1002
}
  0
DIMENSION
  5
5445
330
A
100
AcDbEntity
  8
AM_5
100
AcDbDimension
  2
*D57
 10
718.2989910982273
 20
519.6610827517134
 30
0.0
 11
722.7989910982274
 21
522.4110827517135
 31
0.0
 70
    32
 71
     5
 42
9.000000000000227
  3
AM_ISO$0
100
AcDbAlignedDimension
 13
727.2989910982276
 23
507.6610827517135
 33
0.0
 14
718.2989910982273
 24
489.3031085411714
 34
0.0
100
AcDbRotatedDimension
1001
ACAD
1000
DSTYLE
1002
{
1070
   174
1070
     1
1070
   272
1070
     8
1002
}
  0
DIMENSION
  5
5471
330
A
100
AcDbEntity
  8
AM_5
100
AcDbDimension
  2
*D58
 10
696.2989910982273
 20
519.6610827517134
 30
0.0
 11
707.2989910982273
 21
522.4114272399024
 31
0.0
 70
    32
 71
     5
 42
22.0
  3
AM_ISO$0
100
AcDbAlignedDimension
 13
718.2989910982273
 23
489.3031085411714
 33
0.0
 14
696.2989910982273
 24
470.895741546487
 34
0.0
100
AcDbRotatedDimension
1001
ACAD
1000
DSTYLE
1002
{
1070
   174
1070
     1
1070
   272
1070
     8
1002
}
  0
DIMENSION
  5
54B6
330
A
100
AcDbEntity
  8
AM_5
100
AcDbDimension
  2
*D59
 10
663.2989910982275
 20
528.222486788538
 30
0.0
 11
655.4494487753929
 21
530.9728312767269
 31
0.0
 70
    32
 71
     5
 42
2.0
  3
AM_ISO$0
100
AcDbAlignedDimension
 13
665.2989910982276
 23
508.0030607974143
 33
0.0
 14
663.2989910982275
 24
519.7972894314743
 34
0.0
100
AcDbRotatedDimension
1001
ACAD
1000
DSTYLE
1002
{
1070
   272
1070
     8
1002
}
  0
DIMENSION
  5
54E2
330
A
100
AcDbEntity
  8
AM_5
100
AcDbDimension
  2
*D60
 10
663.2989910982275
 20
534.7224867885374
 30
0.0
 11
655.5265037248123
 21
537.4724867885374
 31
0.0
 70
    32
 71
     5
 42
3.0
  3
AM_ISO$0
100
AcDbAlignedDimension
 13
666.2989910982275
 23
507.3872190956207
 33
0.0
 14
663.2989910982275
 24
519.7972894314743
 34
0.0
100
AcDbRotatedDimension
1001
ACAD
1000
DSTYLE
1002
{
1070
   272
1070
     8
1002
}
  0
DIMENSION
  5
550E
330
A
100
AcDbEntity
  8
AM_5
100
AcDbDimension
  2
*D61
 10
613.6089790165977
 20
338.9999695778328
 30
0.0
 11
617.4299591952099
 21
344.381837773763
 31
0.0
 70
    33
 71
     5
 42
12.00000000000034
  3
AM_ISO$0
100
AcDbAlignedDimension
 13
604.5907215893493
 23
378.6200496375628
 33
0.0
 14
594.1984167439358
 24
372.6200496375627
 34
0.0
1001
ACAD
1000
DSTYLE
1002
{
1070
   174
1070
     1
1070
   272
1070
     8
1002
}
  0
DIMENSION
  5
5536
330
A
100
AcDbEntity
  8
AM_5
100
AcDbDimension
  2
*D62
 10
613.6089790165968
 20
338.9999695778329
 30
0.0
 11
601.313594281309
 21
331.9012258911249
 31
0.0
 70
   160
 71
     5
 42
4.500000000000454
  3
AM_ISO$0
100
AcDbAlignedDimension
 13
590.3013024269061
 23
370.3700496375619
 33
0.0
 14
594.1984167439361
 24
372.6200496375627
 34
0.0
 50
29.99999999999844
100
AcDbRotatedDimension
1001
ACAD
1000
DSTYLE
1002
{
1070
   174
1070
     1
1070
   272
1070
     8
1002
}
  0
DIMENSION
  5
55AB
330
A
100
AcDbEntity
  8
AM_5
100
AcDbDimension
  2
*D63
 10
568.6332652636451
 20
381.1869633118039
 30
0.0
 11
539.7436376737927
 21
407.0794888288038
 31
0.0
 70
   163
  1
3-<>\P%%c9.5*9.5depth
 71
     5
 42
5.499999999999886
  3
AM_ISO$3
100
AcDbDiametricDimension
 15
566.0699931895915
 25
386.0531359633212
 35
0.0
 40
0.0
1001
ACAD
1000
DSTYLE
1002
{
1070
   272
1070
     8
1002
}
  0
DIMENSION
  5
5605
330
A
100
AcDbEntity
  8
AM_5
100
AcDbDimension
  2
*D64
 10
518.6013774036549
 20
389.8848228041302
 30
0.0
 11
516.6335652467635
 21
386.4764721686425
 31
0.0
 70
   161
 71
     5
 42
8.0
  3
AM_ISO$0
100
AcDbAlignedDimension
 13
524.215422546858
 23
377.4059480224252
 33
0.0
 14
528.215422546858
 24
384.3341512527007
 34
0.0
1001
ACAD
1000
DSTYLE
1002
{
1070
   272
1070
     8
1002
}
  0
DIMENSION
  5
5641
330
A
100
AcDbEntity
  8
AM_5
100
AcDbDimension
  2
*D66
 10
595.9300927315719
 20
369.8856841183093
 30
0.0
 11
526.9580549846327
 21
341.9073286748838
 31
0.0
 70
   163
 71
     5
 42
62.5999999999998
  3
AM_ISO$3
100
AcDbDiametricDimension
 15
538.7731657216646
 25
344.3544151568161
 35
0.0
 40
0.0
1001
ACAD
1000
DSTYLE
1002
{
1070
   172
1070
     1
1070
   272
1070
     8
1002
}
  0
DIMENSION
  5
567E
330
A
100
AcDbEntity
  8
AM_5
100
AcDbDimension
  2
*D68
 10
594.8313658595585
 20
387.5480642718477
 30
0.0
 11
531.2453643741084
 21
322.2391548128941
 31
0.0
 70
   163
 71
     5
 42
82.00000000000045
  3
AM_ISO$3
100
AcDbDiametricDimension
 15
539.8718925936787
 25
326.6920350032776
 35
0.0
 40
0.0
1001
ACAD
1000
DSTYLE
1002
{
1070
   172
1070
     1
1070
   272
1070
     8
1002
}
  0
ARC
  5
56A5
330
A
100
AcDbEntity
  8
0
100
AcDbCircle
 10
567.3516292266183
 20
357.1200496375627
 30
0.0
 40
41.00000000000009
100
AcDbArc
 50
248.5398722505747
 51
264.4012621837764
  0
DIMENSION
  5
56B6
330
A
100
AcDbEntity
  8
AM_5
100
AcDbDimension
  2
*D69
 10
576.3516292266183
 20
297.6200496375628
 30
0.0
 11
567.3516292266183
 21
300.3700496375628
 31
0.0
 70
    32
 71
     5
 42
18.0
  3
AM_ISO$0
100
AcDbAlignedDimension
 13
558.3516292266183
 23
309.6200496375628
 33
0.0
 14
576.3516292266183
 24
309.6200496375628
 34
0.0
 50
0.0000000000002036
100
AcDbRotatedDimension
1001
ACAD
1000
DSTYLE
1002
{
1070
   272
1070
     8
1002
}
  0
DIMENSION
  5
56DA
330
A
100
AcDbEntity
  8
AM_5
100
AcDbDimension
  2
*D70
 10
582.3516292266228
 20
291.120049637562
 30
0.0
 11
567.3516292266207
 21
293.870049637562
 31
0.0
 70
    32
 71
     5
 42
30.00000000000432
  3
AM_ISO$0
100
AcDbAlignedDimension
 13
552.3516292266186
 23
318.9624815808847
 33
0.0
 14
582.3516292266228
 24
318.9624815808866
 34
0.0
 50
0.0000000000002036
100
AcDbRotatedDimension
1001
ACAD
1000
DSTYLE
1002
{
1070
   272
1070
     8
1002
}
  0
ENDSEC
  0
SECTION
  2
OBJECTS
  0
DICTIONARY
  5
19
330
0
100
AcDbDictionary
281
     1
  3
ACAD_COLOR
350
ECA
  3
ACAD_GROUP
350
1A
  3
ACAD_LAYOUT
350
1E
  3
ACAD_MATERIAL
350
EC9
  3
ACAD_MLINESTYLE
350
1B
  3
ACAD_PLOTSETTINGS
350
22
  3
ACAD_PLOTSTYLENAME
350
1F
  3
ACAD_TABLESTYLE
350
ECB
  3
ACAD_WIPEOUT_VARS
350
23
  3
AcadDim
350
28D5
  3
ACDBHEADERROUNDTRIPXREC
350
581C
  3
AcDbVariableDictionary
350
1257
  3
AcmDictionary
350
F90
  3
AMG
350
ED2
  3
AMGSNAPSETTINGS
350
FD1
  3
DWGPROPS
350
581B
  3
MAPISURF_MODULE
350
F5E
  0
DICTIONARY
  5
1002
330
2
100
AcDbDictionary
280
     1
281
     1
  3
ACAD_LAYERFILTERS
360
1004
  3
ACAD_LAYERSTATES
360
1B79
  3
ACLYDICTIONARY
360
1003
  3
AMLAYER_GROUPCOLORS
360
16D2
  0
DICTIONARY
  5
9C9
330
A
100
AcDbDictionary
280
     1
281
     1
  3
ACAD_INDEX
360
124F
  3
ACAD_LAYOUTSELFREF
360
A64
  3
ACAD_SORTENTS
360
1711
  0
DICTIONARY
  5
9CB
330
B
100
AcDbDictionary
280
     1
281
     1
  3
ACAD_LAYOUTSELFREF
360
A65
  0
DICTIONARY
  5
ECA
102
{ACAD_REACTORS
330
19
102
}
330
19
100
AcDbDictionary
281
     1
  0
DICTIONARY
  5
1A
102
{ACAD_REACTORS
330
19
102
}
330
19
100
AcDbDictionary
281
     1
  0
DICTIONARY
  5
1E
102
{ACAD_REACTORS
330
19
102
}
330
19
100
AcDbDictionary
281
     1
  3
Model
350
A68
  3
配置1
350
A69
  0
DICTIONARY
  5
EC9
102
{ACAD_REACTORS
330
19
102
}
330
19
100
AcDbDictionary
281
     1
  0
DICTIONARY
  5
1B
102
{ACAD_REACTORS
330
19
102
}
330
19
100
AcDbDictionary
281
     1
  3
STANDARD
350
1C
  0
DICTIONARY
  5
22
102
{ACAD_REACTORS
330
19
102
}
330
19
100
AcDbDictionary
281
     1
  0
ACDBDICTIONARYWDFLT
  5
1F
102
{ACAD_REACTORS
330
19
102
}
330
19
100
AcDbDictionary
281
     1
  3
Normal
350
1D
100
AcDbDictionaryWithDefault
340
1D
  0
DICTIONARY
  5
ECB
102
{ACAD_REACTORS
330
19
102
}
330
19
100
AcDbDictionary
281
     1
  3
Standard
350
ECC
  0
WIPEOUTVARIABLES
  5
23
330
19
100
AcDbWipeoutVariables
 70
     1
  0
XRECORD
  5
28D5
102
{ACAD_REACTORS
330
19
102
}
330
19
100
AcDbXrecord
280
     1
 90
   990106
  3

 60
     0
 61
     0
 62
     4
 63
     4
 64
     1
 65
     0
 66
     0
 67
     3
 68
     0
 69
     0
 70
     0
 71
     0
 72
     0
 40
0.0
170
     2
340
3FEC
  0
DICTIONARY
  5
581C
102
{ACAD_REACTORS
330
19
102
}
330
19
100
AcDbDictionary
281
     1
  0
DICTIONARY
  5
1257
102
{ACAD_REACTORS
330
19
102
}
330
19
100
AcDbDictionary
281
     1
  3
CTABLESTYLE
350
1258
  3
DIMASSOC
350
5818
  3
INDEXCTL
350
5817
  3
PROJECTNAME
350
5819
  0
DICTIONARY
  5
F90
102
{ACAD_REACTORS
330
19
102
}
330
19
100
AcDbDictionary
281
     1
  3
AcmStdDictionary
350
F9E
  3
AMDTSECTSYM_ARROWCOLOR
350
FBC
  0
DICTIONARY
  5
ED2
102
{ACAD_REACTORS
330
19
102
}
330
19
100
AcDbDictionary
281
     1
  3
AcMgSettings
350
ED3
  0
DICTIONARY
  5
FD1
102
{ACAD_REACTORS
330
19
102
}
330
19
100
AcDbDictionary
281
     1
  3
DIMENSION
350
FD6
  3
FEA
350
FD5
  3
HATCH (1)
350
FD2
  3
HATCH (2)
350
FD3
  3
SIMPLE WELD
350
FD7
  3
SYMBOLS
350
FD4
  0
XRECORD
  5
581B
102
{ACAD_REACTORS
330
19
102
}
330
19
100
AcDbXrecord
280
     1
  1
DWGPROPS COOKIE
  2

  3

  4

  6

  7

  8

  9

300
AmdtFileType=84
301
=
302
=
303
=
304
=
305
=
306
=
307
=
308
=
309
=
 40
0.2716921064814814
 41
2452359.824870255
 42
2455323.606964132
  1

 90
        1
  0
DICTIONARY
  5
1004
102
{ACAD_REACTORS
330
1002
102
}
330
1002
100
AcDbDictionary
281
     1
  0
DICTIONARY
  5
1B79
102
{ACAD_REACTORS
330
1002
102
}
330
1002
100
AcDbDictionary
281
     1
  0
DICTIONARY
  5
1003
102
{ACAD_REACTORS
330
1002
102
}
330
1002
100
AcDbDictionary
281
     1
1001
ACAD
1000
<All
  0
DICTIONARY
  5
16D2
102
{ACAD_REACTORS
330
1002
102
}
330
1002
100
AcDbDictionary
280
     1
281
     1
  0
DICTIONARY
  5
124F
102
{ACAD_REACTORS
330
9C9
102
}
330
9C9
100
AcDbDictionary
281
     1
  3
*A1
350
1250
  0
XRECORD
  5
A64
102
{ACAD_REACTORS
330
9C9
102
}
330
9C9
100
AcDbXrecord
280
     1
340
A
  0
SORTENTSTABLE
  5
1711
102
{ACAD_REACTORS
330
9C9
102
}
330
9C9
100
AcDbSortentsTable
330
A
331
1C3D
  5
1C3E
331
1C45
  5
1C46
331
1C4D
  5
1C4E
331
333B
  5
333B
331
1C74
  5
1C75
331
1C16
  5
1C17
331
1C7C
  5
1C80
331
1C84
  5
1C85
331
1C8C
  5
1C8D
331
5372
  5
53C5
331
5605
  5
5641
331
4BD8
  5
4BD9
331
4B99
  5
4B9A
331
4B62
  5
4B62
331
4CC8
  5
4CC9
331
4C89
  5
4C8A
331
4C56
  5
4C57
331
4C17
  5
4C18
331
4BE0
  5
4BE1
331
4BA1
  5
4BA2
331
4B6A
  5
4B6A
331
4DBC
  5
4DBD
331
4CD0
  5
4CD1
331
4C91
  5
4C92
331
4C5E
  5
4C5F
331
4C1F
  5
4C20
331
4BE8
  5
4BE9
331
4BA9
  5
4BAA
331
4B72
  5
4B72
331
4DC4
  5
4DC5
331
4D4E
  5
4D4F
331
4CD8
  5
4CD9
331
4C99
  5
4C9A
331
4C66
  5
4C67
331
4C27
  5
4C28
331
4BF0
  5
4BF1
331
4BB1
  5
4BB2
331
4B7A
  5
4B7A
331
4B3B
  5
4B3B
331
4DCC
  5
4DCD
331
4CE0
  5
4CE1
331
4CA1
  5
4CA2
331
4C6E
  5
4C6F
331
4C2F
  5
4C30
331
4DD4
  5
4DD5
331
4D1F
  5
4D3C
331
1C1E
  5
1C1F
331
1C26
  5
1C27
331
1C2E
  5
1C2F
331
1C94
  5
1C95
331
1C55
  5
1C56
331
1C36
  5
1C37
331
1C5D
  5
1C5E
331
1C6D
  5
1C71
331
4BF8
  5
4BF9
331
4BB9
  5
4BBA
331
4B82
  5
4B82
331
4F0D
  5
4F0E
331
4B43
  5
4B43
331
4CA9
  5
4CAA
331
4C76
  5
4C77
331
4C37
  5
4C38
331
4C00
  5
4C01
331
4BC1
  5
4BC2
331
4B8A
  5
4B8B
331
4B4B
  5
4B4B
331
4CB1
  5
4CB2
331
4C7E
  5
4C7F
331
4C3F
  5
4C40
331
4C08
  5
4C09
331
4BC9
  5
4BCA
331
4B92
  5
4B93
331
4B53
  5
4B53
331
4CB9
  5
4CBA
331
4C86
  5
4C87
331
4C47
  5
4C48
331
4BD1
  5
4BD2
331
4B5B
  5
4B5B
331
4CC1
  5
4CC2
331
4C4F
  5
4C50
331
3FEC
  5
3FEC
331
1C3E
  5
1C3F
331
1C46
  5
1C47
331
1C4E
  5
1C4F
331
333C
  5
333C
331
1C75
  5
1C76
331
1C17
  5
1C18
331
1C85
  5
1C86
331
1C8D
  5
1C8E
331
4C10
  5
4C11
331
4BD9
  5
4BDA
331
4B9A
  5
4B9B
331
4B63
  5
4B63
331
4CC9
  5
4CCA
331
4C8A
  5
4C8B
331
4C57
  5
4C58
331
4C18
  5
4C19
331
4BE1
  5
4BE2
331
4BA2
  5
4BA3
331
4B6B
  5
4B6B
331
4DBD
  5
4DBE
331
4D47
  5
4D48
331
4CD1
  5
4CD2
331
4C92
  5
4C93
331
4C5F
  5
4C60
331
4C20
  5
4C21
331
4BE9
  5
4BEA
331
4BAA
  5
4BAB
331
4B73
  5
4B73
331
4DC5
  5
4DC6
331
4D4F
  5
4D50
331
4CD9
  5
4CDA
331
4C9A
  5
4C9B
331
4C67
  5
4C68
331
4C28
  5
4C29
331
4BF1
  5
4BF2
331
4BB2
  5
4BB3
331
4B7B
  5
4B7B
331
4B3C
  5
4B3C
331
4DCD
  5
4DCE
331
4CE1
  5
4D09
331
4CA2
  5
4CA3
331
4C6F
  5
4C70
331
4DD5
  5
4DD6
331
1C1F
  5
1C20
331
1C27
  5
1C28
331
1C2F
  5
1C30
331
1C95
  5
1C96
331
1C56
  5
1C57
331
1C37
  5
1C38
331
1C5E
  5
1C5F
331
4C30
  5
4C31
331
4BF9
  5
4BFA
331
4BBA
  5
4BBB
331
4B83
  5
4B83
331
54B6
  5
54E2
331
4F0E
  5
4F0F
331
4B44
  5
4B44
331
4CAA
  5
4CAB
331
4C77
  5
4C78
331
4C38
  5
4C39
331
4C01
  5
4C02
331
4BC2
  5
4BC3
331
4B8B
  5
4B8C
331
4B4C
  5
4B4C
331
4CB2
  5
4CB3
331
4C7F
  5
4C80
331
4C40
  5
4C41
331
4C09
  5
4C0A
331
4BCA
  5
4BCB
331
4B93
  5
4B94
331
4B54
  5
4B54
331
4CBA
  5
4CBB
331
4C87
  5
4C88
331
4C48
  5
4C49
331
4BD2
  5
4BD3
331
4B5C
  5
4B5C
331
4DAE
  5
4DB9
331
4CC2
  5
4CC3
331
1C3F
  5
1C40
331
1C47
  5
1C48
331
1C4F
  5
1C50
331
1C76
  5
1C77
331
1C86
  5
1C8A
331
1C8E
  5
1C8F
331
4C50
  5
4C51
331
4C11
  5
4C12
331
4BDA
  5
4BDB
331
4B9B
  5
4B9C
331
4B64
  5
4B64
331
4CCA
  5
4CCB
331
4C8B
  5
4C8C
331
4C58
  5
4C59
331
4C19
  5
4C1A
331
4BE2
  5
4BE3
331
4BA3
  5
4BA4
331
4B6C
  5
4B6C
331
4DBE
  5
4DBF
331
4D48
  5
4D49
331
4D09
  5
4D1F
331
4CD2
  5
4CD3
331
4C93
  5
4C94
331
4C60
  5
4C61
331
4C21
  5
4C22
331
4BEA
  5
4BEB
331
4BAB
  5
4BAC
331
502A
  5
5052
331
4B74
  5
4B74
331
4DC6
  5
4DC7
331
4D50
  5
4D51
331
4CDA
  5
4CDB
331
4C9B
  5
4C9C
331
4C68
  5
4C69
331
4C29
  5
4C2A
331
4BF2
  5
4BF3
331
4BB3
  5
4BB4
331
4B7C
  5
4B7C
331
4B3D
  5
4B3D
331
4DCE
  5
4DCF
331
4CA3
  5
4CA4
331
4DD6
  5
4F0C
331
1C18
  5
1C19
331
1C20
  5
1C21
331
1C28
  5
1C29
331
1C30
  5
1C31
331
1C96
  5
1C97
331
1C57
  5
1C58
331
1C5F
  5
1C60
331
28D6
  5
2907
331
4C70
  5
4C71
331
4C31
  5
4C32
331
4BFA
  5
4BFB
331
4BBB
  5
4BBC
331
4B84
  5
4B84
331
4F0F
  5
4F10
331
4B45
  5
4B45
331
4CAB
  5
4CAC
331
4C78
  5
4C79
331
4C39
  5
4C3A
331
4C02
  5
4C03
331
4BC3
  5
4BC4
331
4B8C
  5
4B8D
331
55AB
  5
5605
331
4B4D
  5
4B4D
331
4CB3
  5
4CB4
331
4C80
  5
4C81
331
4C41
  5
4C42
331
4C0A
  5
4C0B
331
4BCB
  5
4BCC
331
4B94
  5
4B95
331
4B55
  5
4B55
331
4CBB
  5
4CBC
331
4C49
  5
4C4A
331
4BD3
  5
4BD4
331
4B5D
  5
4B5D
331
4CC3
  5
4CC4
331
1C38
  5
1C39
331
1C40
  5
1C41
331
1C48
  5
1C49
331
1C11
  5
1C12
331
1C77
  5
1C78
331
1C8F
  5
1C90
331
56A5
  5
4B87
331
567E
  5
56A5
331
4C51
  5
4C52
331
4C12
  5
4C13
331
4BDB
  5
4BDC
331
4B9C
  5
4B9D
331
550E
  5
5536
331
4FDC
  5
500E
331
4B65
  5
4B65
331
4CCB
  5
4CCC
331
4C8C
  5
4C8D
331
4C59
  5
4C5A
331
4C1A
  5
4C1B
331
4BE3
  5
4BE4
331
4BA4
  5
4BA5
331
4B6D
  5
4B6D
331
4DBF
  5
4DC0
331
4D49
  5
4D4A
331
4CD3
  5
4CD4
331
4C94
  5
4C95
331
4C61
  5
4C62
331
4C22
  5
4C23
331
4BEB
  5
4BEC
331
4BAC
  5
4BAD
331
4B75
  5
4B75
331
4B36
  5
4B36
331
4DC7
  5
4DC8
331
4D51
  5
4D52
331
4CDB
  5
4CDC
331
4C9C
  5
4C9D
331
4C69
  5
4C6A
331
4C2A
  5
4C2B
331
4BF3
  5
4BF4
331
4BB4
  5
4BB5
331
4B7D
  5
4B7D
331
4B3E
  5
4B3E
331
51FF
  5
5234
331
4DCF
  5
4DD0
331
4CA4
  5
4CA5
331
511B
  5
515E
331
4036
  5
4036
331
1C19
  5
1C1A
331
4412
  5
4412
331
1C21
  5
1C22
331
1C29
  5
1C2A
331
1C50
  5
1C51
331
1C31
  5
1C32
331
1C97
  5
1C98
331
1C58
  5
1C59
331
1C60
  5
1C61
331
28D7
  5
2945
331
1C68
  5
1C6C
331
5471
  5
54B6
331
4C71
  5
4C72
331
4C32
  5
4C33
331
4BFB
  5
4BFC
331
4BBC
  5
4BBD
331
4B85
  5
4B85
331
4F10
  5
4F11
331
4B46
  5
4B46
331
4CAC
  5
4CAD
331
4C79
  5
4C7A
331
4C3A
  5
4C3B
331
4C03
  5
4C04
331
4BC4
  5
4BC5
331
4B8D
  5
4B8E
331
5536
  5
55AB
331
4B4E
  5
4B4E
331
4D69
  5
4D91
331
4CB4
  5
4CB5
331
4C81
  5
4C82
331
4C42
  5
4C43
331
4C0B
  5
4C0C
331
4BCC
  5
4BCD
331
4B95
  5
4B96
331
4B56
  5
4B56
331
4CBC
  5
4CBD
331
4C4A
  5
4C4B
331
4BD4
  5
4BD5
331
4B5E
  5
4B5E
331
4CC4
  5
4CC5
331
1C39
  5
1C3A
331
1C41
  5
1C42
331
1C49
  5
1C4A
331
1C12
  5
1C13
331
1C78
  5
1C7C
331
1C80
  5
1C84
331
52B9
  5
5311
331
4C52
  5
4C53
331
4C13
  5
4C14
331
4BDC
  5
4BDD
331
4B9D
  5
4B9E
331
4B66
  5
4B66
331
4CCC
  5
4CCD
331
4C8D
  5
4C8E
331
4C5A
  5
4C5B
331
4C1B
  5
4C1C
331
4BE4
  5
4BE5
331
4BA5
  5
4BA6
331
4B6E
  5
4B6E
331
4DC0
  5
4DC1
331
4D4A
  5
4D4B
331
4CD4
  5
4CD5
331
4C95
  5
4C96
331
4C62
  5
4C63
331
4C23
  5
4C24
331
4BEC
  5
4BED
331
4BAD
  5
4BAE
331
4B76
  5
4B76
331
4B37
  5
4B37
331
4DC8
  5
4DC9
331
4D52
  5
4D53
331
4CDC
  5
4CDD
331
4C9D
  5
4C9E
331
4C6A
  5
4C6B
331
4C2B
  5
4C2C
331
4BF4
  5
4BF5
331
4BB5
  5
4BB6
331
4B7E
  5
4B7E
331
4B3F
  5
4B3F
331
4DD0
  5
4DD1
331
4D91
  5
4DAE
331
4CA5
  5
4CA6
331
1C1A
  5
1C1B
331
1C22
  5
1C23
331
1C2A
  5
1C2B
331
1C90
  5
1C91
331
1C51
  5
1C52
331
1C32
  5
1C33
331
1C98
  5
1C99
331
1C59
  5
1C5A
331
1C61
  5
1C62
331
53C5
  5
53ED
331
4C72
  5
4C73
331
4C33
  5
4C34
331
4BFC
  5
4BFD
331
4BBD
  5
4BBE
331
4B86
  5
4B86
331
4F11
  5
4FDC
331
4B47
  5
4B47
331
4CAD
  5
4CAE
331
4C7A
  5
4C7B
331
4C3B
  5
4C3C
331
4C04
  5
4C05
331
4BC5
  5
4BC6
331
4B8E
  5
4B8F
331
4B4F
  5
4B4F
331
4CB5
  5
4CB6
331
4C82
  5
4C83
331
4C43
  5
4C44
331
4C0C
  5
4C0D
331
4BCD
  5
4BCE
331
4B96
  5
4B97
331
4B57
  5
4B57
331
4CBD
  5
4CBE
331
4C4B
  5
4C4C
331
4BD5
  5
4BD6
331
4B5F
  5
4B5F
331
4CC5
  5
4CC6
331
1C3A
  5
1C3B
331
1C42
  5
1C43
331
1C4A
  5
1C4B
331
1C71
  5
1C72
331
1C13
  5
1C14
331
5234
  5
52B9
331
53ED
  5
5445
331
5641
  5
567E
331
4C53
  5
4C54
331
4C14
  5
4C15
331
4BDD
  5
4BDE
331
4B9E
  5
4B9F
331
4B67
  5
4B67
331
4DB9
  5
4DBA
331
4CCD
  5
4CCE
331
4C8E
  5
4C8F
331
4C5B
  5
4C5C
331
4C1C
  5
4C1D
331
4BE5
  5
4BE6
331
4BA6
  5
4BA7
331
4B6F
  5
4B6F
331
4DC1
  5
4DC2
331
4D4B
  5
4D4C
331
4CD5
  5
4CD6
331
4C96
  5
4C97
331
4C63
  5
4C64
331
4C24
  5
4C25
331
4BED
  5
4BEE
331
4BAE
  5
4BAF
331
4B77
  5
4B77
331
4B38
  5
4B38
331
4DC9
  5
4DCA
331
4D53
  5
4D69
331
4CDD
  5
4CDE
331
4C9E
  5
4C9F
331
4C6B
  5
4C6C
331
4C2C
  5
4C2D
331
4BF5
  5
4BF6
331
4BB6
  5
4BB7
331
4B7F
  5
4B7F
331
4DD1
  5
4DD2
331
4CA6
  5
4CA7
331
1C1B
  5
1C1C
331
1C23
  5
1C24
331
1C2B
  5
1C2C
331
1C91
  5
1C92
331
1C52
  5
1C53
331
1C33
  5
1C34
331
1C99
  5
1C9A
331
1C5A
  5
1C5B
331
1C62
  5
1C63
331
5311
  5
5342
331
4B40
  5
4B40
331
4C73
  5
4C74
331
4C34
  5
4C35
331
4BFD
  5
4BFE
331
4BBE
  5
4BBF
331
4B87
  5
4B88
331
4B48
  5
4B48
331
4CAE
  5
4CAF
331
4C7B
  5
4C7C
331
4C3C
  5
4C3D
331
4C05
  5
4C06
331
4BC6
  5
4BC7
331
4B8F
  5
4B90
331
4B50
  5
4B50
331
4CB6
  5
4CB7
331
4C83
  5
4C84
331
4C44
  5
4C45
331
4C0D
  5
4C0E
331
4BCE
  5
4BCF
331
4B97
  5
4B98
331
500E
  5
502A
331
4B58
  5
4B58
331
4CBE
  5
4CBF
331
4C4C
  5
4C4D
331
4BD6
  5
4BD7
331
4D3C
  5
4D47
331
4CC6
  5
4CC7
331
1C3B
  5
1C3C
331
1C43
  5
1C44
331
1C4B
  5
1C4C
331
1C72
  5
1C73
331
1C14
  5
1C15
331
1C8A
  5
1C8B
331
4B60
  5
4B60
331
4C54
  5
4C55
331
4C15
  5
4C16
331
4BDE
  5
4BDF
331
4B9F
  5
4BA0
331
4B68
  5
4B68
331
4DBA
  5
4DBB
331
4CCE
  5
4CCF
331
4C8F
  5
4C90
331
4C5C
  5
4C5D
331
4C1D
  5
4C1E
331
4BE6
  5
4BE7
331
4BA7
  5
4BA8
331
4B70
  5
4B70
331
4DC2
  5
4DC3
331
4D4C
  5
4D4D
331
4CD6
  5
4CD7
331
4C97
  5
4C98
331
4C64
  5
4C65
331
4C25
  5
4C26
331
4BEE
  5
4BEF
331
4BAF
  5
4BB0
331
4B78
  5
4B78
331
4B39
  5
4B39
331
4DCA
  5
4DCB
331
4CDE
  5
4CDF
331
4C9F
  5
4CA0
331
4C6C
  5
4C6D
331
4C2D
  5
4C2E
331
4BF6
  5
4BF7
331
4BB7
  5
4BB8
331
4DD2
  5
4DD3
331
4CA7
  5
4CA8
331
1C1C
  5
1C1D
331
1C24
  5
1C25
331
1C2C
  5
1C2D
331
1C92
  5
1C93
331
1C53
  5
1C54
331
1C34
  5
1C35
331
1C9A
  5
1C9B
331
1C5B
  5
1C5C
331
1C63
  5
1C64
331
54E2
  5
550E
331
4B80
  5
4B80
331
4B41
  5
4B41
331
4C74
  5
4C75
331
4C35
  5
4C36
331
4BFE
  5
4BFF
331
4BBF
  5
4BC0
331
4B88
  5
4B89
331
5445
  5
5471
331
4B49
  5
4B49
331
4CAF
  5
4CB0
331
4C7C
  5
4C7D
331
4C3D
  5
4C3E
331
4C06
  5
4C07
331
4BC7
  5
4BC8
331
4B90
  5
4B91
331
4B51
  5
4B51
331
519C
  5
51DC
331
4CB7
  5
4CB8
331
4C84
  5
4C85
331
4C45
  5
4C46
331
4C0E
  5
4C0F
331
4BCF
  5
4BD0
331
4B59
  5
4B59
331
4CBF
  5
4CC0
331
4C4D
  5
4C4E
331
4BD7
  5
4BD8
331
4CC7
  5
4CC8
331
1C3C
  5
1C3D
331
1C44
  5
1C45
331
1C4C
  5
1C4D
331
1C73
  5
1C74
331
1C15
  5
1C16
331
1C8B
  5
1C8C
331
4B98
  5
4B99
331
4B61
  5
4B61
331
4C88
  5
4C89
331
4C55
  5
4C56
331
4C16
  5
4C17
331
4BDF
  5
4BE0
331
4BA0
  5
4BA1
331
4B69
  5
4B69
331
4DBB
  5
4DBC
331
4CCF
  5
4CD0
331
4C90
  5
4C91
331
4C5D
  5
4C5E
331
4C1E
  5
4C1F
331
4BE7
  5
4BE8
331
4BA8
  5
4BA9
331
4B71
  5
4B71
331
5052
  5
511B
331
4DC3
  5
4DC4
331
4D4D
  5
4D4E
331
4CD7
  5
4CD8
331
4C98
  5
4C99
331
4C65
  5
4C66
331
4C26
  5
4C27
331
4BEF
  5
4BF0
331
4BB0
  5
4BB1
331
4B79
  5
4B79
331
4B3A
  5
4B3A
331
4DCB
  5
4DCC
331
4CDF
  5
4CE0
331
4CA0
  5
4CA1
331
4C6D
  5
4C6E
331
4C2E
  5
4C2F
331
4BF7
  5
4BF8
331
4DD3
  5
4DD4
331
1C1D
  5
1C1E
331
1C25
  5
1C26
331
1C2D
  5
1C2E
331
1C93
  5
1C94
331
1C54
  5
1C55
331
1C35
  5
1C36
331
1C9B
  5
2171
331
1C5C
  5
1C5D
331
1C64
  5
1C68
331
1C6C
  5
1C6D
331
5342
  5
5372
331
4BB8
  5
4BB9
331
4B81
  5
4B81
331
4F0C
  5
4F0D
331
4B42
  5
4B42
331
4CA8
  5
4CA9
331
4C75
  5
4C76
331
4C36
  5
4C37
331
4BFF
  5
4C00
331
4BC0
  5
4BC1
331
4B89
  5
4B8A
331
4B4A
  5
4B4A
331
4CB0
  5
4CB1
331
4C7D
  5
4C7E
331
4C3E
  5
4C3F
331
4C07
  5
4C08
331
4BC8
  5
4BC9
331
4B91
  5
4B92
331
4B52
  5
4B52
331
515E
  5
519C
331
4CB8
  5
4CB9
331
4C85
  5
4C86
331
4C46
  5
4C47
331
4C0F
  5
4C10
331
4BD0
  5
4BD1
331
4B5A
  5
4B5A
331
51DC
  5
51FF
331
4CC0
  5
4CC1
331
4C4E
  5
4C4F
331
3FEB
  5
3FEB
  0
XRECORD
  5
A65
102
{ACAD_REACTORS
330
9CB
102
}
330
9CB
100
AcDbXrecord
280
     1
340
B
  0
LAYOUT
  5
A68
102
{ACAD_XDICTIONARY
360
581D
102
}
102
{ACAD_REACTORS
330
1E
102
}
330
1E
100
AcDbPlotSettings
  1

  2
自動 設計一 上的 HP DeskJet 930C/932C/935C
  4

  6

 40
0.0
 41
0.0
 42
0.0
 43
0.0
 44
0.0
 45
0.0
 46
0.0
 47
0.0
 48
0.0
 49
0.0
140
0.0
141
0.0
142
1.0
143
1.0
 70
  1712
 72
     0
 73
     0
 74
     0
  7

 75
     0
147
1.0
148
0.0
149
0.0
100
AcDbLayout
  1
Model
 70
     1
 71
     0
 10
0.0
 20
0.0
 11
12.0
 21
9.0
 12
0.0
 22
0.0
 32
0.0
 14
0.0
 24
0.0
 34
0.0
 15
0.0
 25
0.0
 35
0.0
146
0.0
 13
0.0
 23
0.0
 33
0.0
 16
1.0
 26
0.0
 36
0.0
 17
0.0
 27
1.0
 37
0.0
 76
     0
330
A
  0
LAYOUT
  5
A69
102
{ACAD_XDICTIONARY
360
581F
102
}
102
{ACAD_REACTORS
330
1E
102
}
330
1E
100
AcDbPlotSettings
  1

  2
自動 設計一 上的 HP DeskJet 930C/932C/935C
  4

  6

 40
0.0
 41
0.0
 42
0.0
 43
0.0
 44
0.0
 45
0.0
 46
0.0
 47
0.0
 48
0.0
 49
0.0
140
0.0
141
0.0
142
1.0
143
1.0
 70
   688
 72
     0
 73
     0
 74
     5
  7

 75
    16
147
1.0
148
0.0
149
0.0
100
AcDbLayout
  1
配置1
 70
     1
 71
     1
 10
0.0
 20
0.0
 11
12.0
 21
9.0
 12
0.0
 22
0.0
 32
0.0
 14
1.000000000000000E+20
 24
1.000000000000000E+20
 34
1.000000000000000E+20
 15
-1.000000000000000E+20
 25
-1.000000000000000E+20
 35
-1.000000000000000E+20
146
0.0
 13
0.0
 23
0.0
 33
0.0
 16
1.0
 26
0.0
 36
0.0
 17
0.0
 27
1.0
 37
0.0
 76
     0
330
B
  0
MLINESTYLE
  5
1C
102
{ACAD_REACTORS
330
1B
102
}
330
1B
100
AcDbMlineStyle
  2
STANDARD
 70
     0
  3

 62
     0
 51
90.00000000000019
 52
90.00000000000019
 71
     2
 49
0.5
 62
   256
  6
BYLAYER
 49
-0.5
 62
   256
  6
BYLAYER
  0
ACDBPLACEHOLDER
  5
1D
102
{ACAD_REACTORS
330
1F
102
}
330
1F
  0
TABLESTYLE
  5
ECC
102
{ACAD_REACTORS
330
ECB
102
}
330
ECB
100
AcDbTableStyle
  3
Standard
 70
     0
 71
     0
 40
0.06
 41
0.06
280
     0
281
     0
  7
STANDARD
140
0.18
170
     2
 62
     0
 63
     7
283
     0
274
    -2
284
     1
 64
     0
275
    -2
285
     1
 65
     0
276
    -2
286
     1
 66
     0
277
    -2
287
     1
 67
     0
278
    -2
288
     1
 68
     0
279
    -2
289
     1
 69
     0
  7
STANDARD
140
0.25
170
     5
 62
     0
 63
     7
283
     0
274
    -2
284
     1
 64
     0
275
    -2
285
     1
 65
     0
276
    -2
286
     1
 66
     0
277
    -2
287
     1
 67
     0
278
    -2
288
     1
 68
     0
279
    -2
289
     1
 69
     0
  7
STANDARD
140
0.18
170
     5
 62
     0
 63
     7
283
     0
274
    -2
284
     1
 64
     0
275
    -2
285
     1
 65
     0
276
    -2
286
     1
 66
     0
277
    -2
287
     1
 67
     0
278
    -2
288
     1
 68
     0
279
    -2
289
     1
 69
     0
  0
DICTIONARYVAR
  5
1258
102
{ACAD_REACTORS
330
1257
102
}
330
1257
100
DictionaryVariables
280
     0
  1
STANDARD
  0
DICTIONARYVAR
  5
5818
102
{ACAD_REACTORS
330
1257
102
}
330
1257
100
DictionaryVariables
280
     0
  1
1
  0
DICTIONARYVAR
  5
5817
102
{ACAD_REACTORS
330
1257
102
}
330
1257
100
DictionaryVariables
280
     0
  1
1
  0
DICTIONARYVAR
  5
5819
102
{ACAD_REACTORS
330
1257
102
}
330
1257
100
DictionaryVariables
280
     0
  1

  0
DICTIONARY
  5
F9E
102
{ACAD_REACTORS
330
F90
102
}
330
F90
100
AcDbDictionary
281
     1
  0
XRECORD
  5
FBC
102
{ACAD_REACTORS
330
F90
102
}
330
F90
100
AcDbXrecord
280
     1
 90
-1023410169
  0
DICTIONARY
  5
ED3
102
{ACAD_REACTORS
330
ED2
102
}
330
ED2
100
AcDbDictionary
281
     1
  3
DWGSETTINGS
350
ED4
  3
Shaft
350
1093
  3
TRANSSETTINGS
350
ED8
  0
ACAMGFILTERDAT
  5
FD6
102
{ACAD_REACTORS
330
FD1
102
}
330
FD1
100
AcAmgFilterDat
 70
    15
  1
DIMENSION,AMDT_*_DIM
  2
*
  3
*
  4
*
  5
*
290
     1
  0
ACAMGFILTERDAT
  5
FD5
102
{ACAD_REACTORS
330
FD1
102
}
330
FD1
100
AcAmgFilterDat
 70
    15
  1
*
  2
AM_FEA-AM_*
  3
*
  4
*
  5
*
290
     1
  0
ACAMGFILTERDAT
  5
FD2
102
{ACAD_REACTORS
330
FD1
102
}
330
FD1
100
AcAmgFilterDat
 70
    15
  1
HATCH
  2
*
  3
*
  4
*
  5
*
290
     1
  0
ACAMGFILTERDAT
  5
FD3
102
{ACAD_REACTORS
330
FD1
102
}
330
FD1
100
AcAmgFilterDat
 70
    15
  1
LINE
  2
8,8N,*-8,*-8N,AM_8,AM_8N,*-AM_8,*-AM_8N
  3
*
  4
*
  5
INSERT,STDPART2D
290
     1
  0
ACAMGFILTERDAT
  5
FD7
102
{ACAD_REACTORS
330
FD1
102
}
330
FD1
100
AcAmgFilterDat
 70
    15
  1
ARC
  2
AM_5
  3
*
  4
2
  5
INSERT
290
     0
  0
ACAMGFILTERDAT
  5
FD4
102
{ACAD_REACTORS
330
FD1
102
}
330
FD1
100
AcAmgFilterDat
 70
    15
  1
ACMFCFRAME,ACMDATUMTARGET,ACMDATUMID,ACMWELDSYM,ACMSURFSYM,ACMFEATID,ACMPARTREF,ACMBALLOON,AMDTEDGESYM,AMGSCREWCALCTABLE
  2
*
  3
*
  4
*
  5
*
290
     1
  0
LAYER_INDEX
  5
1250
102
{ACAD_REACTORS
330
124F
102
}
330
124F
100
AcDbIndex
 40
2455323.606964132
100
AcDbLayerIndex
  8
0
360
1251
 90
      452
  8
CENTER
360
1252
 90
       24
  8
DIM
360
1253
 90
        9
  8
Defpoints
360
1254
 90
        0
  8
AM_5
360
1255
 90
       39
  8
LOGO
360
191C
 90
      117
  0
DICTIONARY
  5
581D
330
A68
100
AcDbDictionary
280
     1
281
     1
  3
ACAD_XREC_ROUNDTRIP
360
581E
  0
DICTIONARY
  5
581F
330
A69
100
AcDbDictionary
280
     1
281
     1
  3
ACAD_XREC_ROUNDTRIP
360
5820
  0
IDBUFFER
  5
1251
330
0
100
AcDbIdBuffer
330
1C11
330
1C9C
330
1C9D
330
1C9E
330
4B36
330
4B37
330
4B38
330
4B39
330
4B3A
330
4B3B
330
4B3C
330
4B3D
330
4B3E
330
4B3F
330
4B40
330
4B41
330
4B42
330
4B43
330
4B44
330
4B45
330
4B46
330
4B47
330
4B48
330
4B49
330
4B4A
330
4B4B
330
4B4C
330
4B4D
330
4B4E
330
4B4F
330
4B50
330
4B51
330
4B52
330
4B53
330
4B54
330
4B55
330
4B56
330
4B57
330
4B58
330
4B59
330
4B5A
330
4B5B
330
4B5C
330
4B5D
330
4B5E
330
4B5F
330
4B60
330
4B61
330
4B62
330
4B63
330
4B64
330
4B65
330
4B66
330
4B67
330
4B68
330
4B69
330
4B6A
330
4B6B
330
4B6C
330
4B6D
330
4B6E
330
4B6F
330
4B70
330
4B71
330
4B72
330
4B73
330
4B74
330
4B75
330
4B76
330
4B77
330
4B78
330
4B79
330
4B7A
330
4B7B
330
4B7C
330
4B7D
330
4B7E
330
4B7F
330
4B80
330
4B81
330
4B82
330
4B83
330
4B84
330
4B85
330
4B87
330
4B88
330
4B89
330
4B8A
330
4B8B
330
4B8C
330
4B8D
330
4B8E
330
4B8F
330
4B90
330
4B91
330
4B92
330
4B93
330
4B94
330
4B95
330
4B96
330
4B97
330
4B98
330
4B99
330
4B9A
330
4B9B
330
4B9C
330
4B9D
330
4B9E
330
4B9F
330
4BA0
330
4BA2
330
4BA3
330
4BA4
330
4BA5
330
4BA6
330
4BA7
330
4BA9
330
4BAA
330
4BAB
330
4BAC
330
4BAD
330
4BAE
330
4BAF
330
4BB0
330
4BB1
330
4BB2
330
4BB3
330
4BB4
330
4BB5
330
4BB6
330
4BB7
330
4BB8
330
4BB9
330
4BBA
330
4BBB
330
4BBC
330
4BBD
330
4BBE
330
4BBF
330
4BC0
330
4BC1
330
4BC2
330
4BC3
330
4BC4
330
4BC5
330
4BC6
330
4BC7
330
4BC8
330
4BC9
330
4BCA
330
4BCB
330
4BCC
330
4BCD
330
4BCE
330
4BCF
330
4BD0
330
4BD1
330
4BD2
330
4BD3
330
4BD4
330
4BD5
330
4BD6
330
4BD7
330
4BD8
330
4BD9
330
4BDA
330
4BDB
330
4BDC
330
4BDD
330
4BDE
330
4BDF
330
4BE0
330
4BE1
330
4BE2
330
4BE3
330
4BE4
330
4BE5
330
4BE6
330
4BE7
330
4BE8
330
4BE9
330
4BEA
330
4BEB
330
4BEC
330
4BED
330
4BEE
330
4BEF
330
4BF0
330
4BF1
330
4BF2
330
4BF3
330
4BF4
330
4BF5
330
4BF6
330
4BF7
330
4BF8
330
4BF9
330
4BFA
330
4BFB
330
4BFC
330
4BFD
330
4BFE
330
4BFF
330
4C00
330
4C01
330
4C02
330
4C03
330
4C04
330
4C05
330
4C06
330
4C07
330
4C08
330
4C09
330
4C0A
330
4C0B
330
4C0C
330
4C0D
330
4C0E
330
4C0F
330
4C10
330
4C11
330
4C12
330
4C13
330
4C14
330
4C15
330
4C16
330
4C17
330
4C18
330
4C19
330
4C1A
330
4C1B
330
4C1C
330
4C1D
330
4C1E
330
4C1F
330
4C20
330
4C21
330
4C22
330
4C23
330
4C24
330
4C25
330
4C26
330
4C27
330
4C28
330
4C29
330
4C2A
330
4C2B
330
4C2C
330
4C2D
330
4C2E
330
4C2F
330
4C30
330
4C31
330
4C32
330
4C33
330
4C34
330
4C35
330
4C36
330
4C37
330
4C38
330
4C39
330
4C3A
330
4C3B
330
4C3C
330
4C3D
330
4C3E
330
4C3F
330
4C40
330
4C41
330
4C42
330
4C43
330
4C44
330
4C45
330
4C46
330
4C47
330
4C48
330
4C49
330
4C4A
330
4C4B
330
4C4C
330
4C4D
330
4C4E
330
4C4F
330
4C50
330
4C51
330
4C52
330
4C53
330
4C55
330
4C56
330
4C57
330
4C58
330
4C59
330
4C5A
330
4C5B
330
4C5C
330
4C5D
330
4C5E
330
4C5F
330
4C60
330
4C61
330
4C62
330
4C63
330
4C64
330
4C65
330
4C66
330
4C67
330
4C68
330
4C69
330
4C6A
330
4C6B
330
4C6C
330
4C6D
330
4C6E
330
4C6F
330
4C70
330
4C71
330
4C72
330
4C73
330
4C74
330
4C75
330
4C76
330
4C77
330
4C78
330
4C79
330
4C7A
330
4C7B
330
4C7C
330
4C7D
330
4C7E
330
4C7F
330
4C80
330
4C81
330
4C82
330
4C83
330
4C84
330
4C85
330
4C86
330
4C87
330
4C88
330
4C89
330
4C8A
330
4C8B
330
4C8C
330
4C8D
330
4C8E
330
4C92
330
4C94
330
4C96
330
4C9B
330
4C9C
330
4CA2
330
4CA8
330
4CAA
330
4CB0
330
4CB1
330
4CB2
330
4CB3
330
4CB4
330
4CB5
330
4CB6
330
4CB7
330
4CB8
330
4CB9
330
4CBA
330
4CBB
330
4CBC
330
4CBD
330
4CBE
330
4CBF
330
4CC0
330
4CC1
330
4CC2
330
4CC3
330
4CC4
330
4CC5
330
4CC6
330
4CC7
330
4CC8
330
4CC9
330
4CCA
330
4CCB
330
4CCC
330
4CCD
330
4CCE
330
4CCF
330
4CD0
330
4CD1
330
4CD2
330
4CD3
330
4CD4
330
4CD5
330
4CD6
330
4CD7
330
4CD8
330
4CD9
330
4CDA
330
4CDB
330
4CDC
330
4CDD
330
4CDE
330
4CDF
330
4CE0
330
4CE1
330
4D09
330
4D1F
330
4D3C
330
4D47
330
4D48
330
4D49
330
4D4A
330
4D4B
330
4D4C
330
4D4D
330
4D4E
330
4D4F
330
4D50
330
4D51
330
4D52
330
4D53
330
4D69
330
4D91
330
4DAE
330
4DB9
330
4DBA
330
4DBB
330
4DBC
330
4DBD
330
4DBE
330
4DBF
330
4DC0
330
4DC1
330
4DC2
330
4DC3
330
4DC4
330
4DC5
330
4DC6
330
4DC7
330
4DC8
330
4DC9
330
4DCA
330
4DCB
330
4DCC
330
4DCD
330
4DCE
330
4DCF
330
4DD0
330
4DD1
330
4DD2
330
4DD3
330
4DD4
330
4DD5
330
56A5
  0
IDBUFFER
  5
1252
330
0
100
AcDbIdBuffer
330
4B86
330
4C8F
330
4C90
330
4C91
330
4C97
330
4C98
330
4C99
330
4C9A
330
4C9D
330
4C9E
330
4C9F
330
4CA0
330
4CA4
330
4CA5
330
4CA6
330
4CA7
330
4CAC
330
4CAD
330
4CAE
330
4CAF
330
4DD6
330
4F0C
330
4F0D
330
4F0E
  0
IDBUFFER
  5
1253
330
0
100
AcDbIdBuffer
330
4BA1
330
4BA8
330
4C54
330
4C93
330
4C95
330
4CA1
330
4CA3
330
4CA9
330
4CAB
  0
IDBUFFER
  5
1254
330
0
100
AcDbIdBuffer
  0
IDBUFFER
  5
1255
330
0
100
AcDbIdBuffer
330
28D6
330
28D7
330
333B
330
333C
330
3FEB
330
3FEC
330
4036
330
4412
330
4F0F
330
4F10
330
4F11
330
4FDC
330
500E
330
502A
330
5052
330
511B
330
515E
330
519C
330
51DC
330
51FF
330
5234
330
52B9
330
5311
330
5342
330
5372
330
53C5
330
53ED
330
5445
330
5471
330
54B6
330
54E2
330
550E
330
5536
330
55AB
330
5605
330
5641
330
567E
330
56B6
330
56DA
  0
IDBUFFER
  5
191C
330
0
100
AcDbIdBuffer
330
1C12
330
1C13
330
1C14
330
1C15
330
1C16
330
1C17
330
1C18
330
1C19
330
1C1A
330
1C1B
330
1C1C
330
1C1D
330
1C1E
330
1C1F
330
1C20
330
1C21
330
1C22
330
1C23
330
1C24
330
1C25
330
1C26
330
1C27
330
1C28
330
1C29
330
1C2A
330
1C2B
330
1C2C
330
1C2D
330
1C2E
330
1C2F
330
1C30
330
1C31
330
1C32
330
1C33
330
1C34
330
1C35
330
1C36
330
1C37
330
1C38
330
1C39
330
1C3A
330
1C3B
330
1C3C
330
1C3D
330
1C3E
330
1C3F
330
1C40
330
1C41
330
1C42
330
1C43
330
1C44
330
1C45
330
1C46
330
1C47
330
1C48
330
1C49
330
1C4A
330
1C4B
330
1C4C
330
1C4D
330
1C4E
330
1C4F
330
1C50
330
1C51
330
1C52
330
1C53
330
1C54
330
1C55
330
1C56
330
1C57
330
1C58
330
1C59
330
1C5A
330
1C5B
330
1C5C
330
1C5D
330
1C5E
330
1C5F
330
1C60
330
1C61
330
1C62
330
1C63
330
1C64
330
1C68
330
1C6C
330
1C6D
330
1C71
330
1C72
330
1C73
330
1C74
330
1C75
330
1C76
330
1C77
330
1C78
330
1C7C
330
1C80
330
1C84
330
1C85
330
1C86
330
1C8A
330
1C8B
330
1C8C
330
1C8D
330
1C8E
330
1C8F
330
1C90
330
1C91
330
1C92
330
1C93
330
1C94
330
1C95
330
1C96
330
1C97
330
1C98
330
1C99
330
1C9A
330
1C9B
  0
XRECORD
  5
581E
102
{ACAD_REACTORS
330
581D
102
}
330
581D
100
AcDbXrecord
280
     1
102
SHADEPLOT
 70
     0
102
SHADEPLOTRESLEVEL
 70
     2
102
SHADEPLOTCUSTOMDPI
 70
   300
  0
XRECORD
  5
5820
102
{ACAD_REACTORS
330
581F
102
}
330
581F
100
AcDbXrecord
280
     1
102
SHADEPLOT
 70
     0
102
SHADEPLOTRESLEVEL
 70
     2
102
SHADEPLOTCUSTOMDPI
 70
   300
  0
ENDSEC
  0
EOF
