  0
SECTION
  2
HEADER
  9
$ACADVER
  1
AC1015
  9
$ACADMAINTVER
 70
    20
  9
$DWGCODEPAGE
  3
ANSI_950
  9
$INSBASE
 10
0.0
 20
0.0
 30
0.0
  9
$EXTMIN
 10
1060.85793094818
 20
206.2829101172911
 30
-0.0122634468413026
  9
$EXTMAX
 10
1563.357000494463
 20
568.9033032886525
 30
221.0293158782239
  9
$LIMMIN
 10
0.0
 20
0.0
  9
$LIMMAX
 10
0.0
 20
0.0
  9
$ORTHOMODE
 70
     1
  9
$REGENMODE
 70
     1
  9
$FILLMODE
 70
     1
  9
$QTEXTMODE
 70
     0
  9
$MIRRTEXT
 70
     1
  9
$LTSCALE
 40
1.0
  9
$ATTMODE
 70
     1
  9
$TEXTSIZE
 40
3.5
  9
$TRACEWID
 40
0.05
  9
$TEXTSTYLE
  7
STANDARD
  9
$CLAYER
  8
0
  9
$CELTYPE
  6
CONTINUOUS
  9
$CECOLOR
 62
   256
  9
$CELTSCALE
 40
1.0
  9
$DISPSILH
 70
     0
  9
$DIMSCALE
 40
1.0
  9
$DIMASZ
 40
3.0
  9
$DIMEXO
 40
1.0
  9
$DIMDLI
 40
6.5
  9
$DIMRND
 40
0.0
  9
$DIMDLE
 40
0.0
  9
$DIMEXE
 40
1.0
  9
$DIMTP
 40
0.1
  9
$DIMTM
 40
0.1
  9
$DIMTXT
 40
3.5
  9
$DIMCEN
 40
0.0
  9
$DIMTSZ
 40
0.0
  9
$DIMTOL
 70
     0
  9
$DIMLIM
 70
     0
  9
$DIMTIH
 70
     0
  9
$DIMTOH
 70
     0
  9
$DIMSE1
 70
     0
  9
$DIMSE2
 70
     0
  9
$DIMTAD
 70
     1
  9
$DIMZIN
 70
     8
  9
$DIMBLK
  1

  9
$DIMASO
 70
     1
  9
$DIMSHO
 70
     1
  9
$DIMPOST
  1

  9
$DIMAPOST
  1
"
  9
$DIMALT
 70
     0
  9
$DIMALTD
 70
     2
  9
$DIMALTF
 40
0.0393701
  9
$DIMLFAC
 40
1.0
  9
$DIMTOFL
 70
     1
  9
$DIMTVP
 40
0.0
  9
$DIMTIX
 70
     0
  9
$DIMSOXD
 70
     0
  9
$DIMSAH
 70
     0
  9
$DIMBLK1
  1

  9
$DIMBLK2
  1

  9
$DIMSTYLE
  2
AM_ISO
  9
$DIMCLRD
 70
   256
  9
$DIMCLRE
 70
   256
  9
$DIMCLRT
 70
   256
  9
$DIMTFAC
 40
0.71
  9
$DIMGAP
 40
1.0
  9
$DIMJUST
 70
     0
  9
$DIMSD1
 70
     0
  9
$DIMSD2
 70
     0
  9
$DIMTOLJ
 70
     0
  9
$DIMTZIN
 70
     8
  9
$DIMALTZ
 70
     0
  9
$DIMALTTZ
 70
     0
  9
$DIMUPT
 70
     0
  9
$DIMDEC
 70
     2
  9
$DIMTDEC
 70
     8
  9
$DIMALTU
 70
     2
  9
$DIMALTTD
 70
     2
  9
$DIMTXSTY
  7
STANDARD
  9
$DIMAUNIT
 70
     0
  9
$DIMADEC
 70
     0
  9
$DIMALTRND
 40
0.0
  9
$DIMAZIN
 70
     2
  9
$DIMDSEP
 70
    46
  9
$DIMATFIT
 70
     3
  9
$DIMFRAC
 70
     0
  9
$DIMLDRBLK
  1

  9
$DIMLUNIT
 70
     2
  9
$DIMLWD
 70
    -1
  9
$DIMLWE
 70
    -1
  9
$DIMTMOVE
 70
     0
  9
$LUNITS
 70
     2
  9
$LUPREC
 70
     2
  9
$SKETCHINC
 40
0.1
  9
$FILLETRAD
 40
2.5
  9
$AUNITS
 70
     0
  9
$AUPREC
 70
     0
  9
$MENU
  1
acad
  9
$ELEVATION
 40
0.0
  9
$PELEVATION
 40
0.0
  9
$THICKNESS
 40
0.0
  9
$LIMCHECK
 70
     0
  9
$CHAMFERA
 40
2.5
  9
$CHAMFERB
 40
2.5
  9
$CHAMFERC
 40
0.0
  9
$CHAMFERD
 40
0.0
  9
$SKPOLY
 70
     0
  9
$TDCREATE
 40
2452359.824870255
  9
$TDUCREATE
 40
2452359.491536922
  9
$TDUPDATE
 40
2455323.634939630
  9
$TDUUPDATE
 40
2455323.301606296
  9
$TDINDWG
 40
0.2993525810
  9
$TDUSRTIMER
 40
0.2993513079
  9
$USRTIMER
 70
     1
  9
$ANGBASE
 50
0.0
  9
$ANGDIR
 70
     0
  9
$PDMODE
 70
     0
  9
$PDSIZE
 40
-1.0
  9
$PLINEWID
 40
0.0
  9
$SPLFRAME
 70
     0
  9
$SPLINETYPE
 70
     6
  9
$SPLINESEGS
 70
     8
  9
$HANDSEED
  5
656C
  9
$SURFTAB1
 70
     6
  9
$SURFTAB2
 70
     6
  9
$SURFTYPE
 70
     6
  9
$SURFU
 70
     6
  9
$SURFV
 70
     6
  9
$UCSBASE
  2

  9
$UCSNAME
  2

  9
$UCSORG
 10
0.0
 20
0.0
 30
0.0
  9
$UCSXDIR
 10
1.0
 20
0.0
 30
0.0
  9
$UCSYDIR
 10
0.0
 20
1.0
 30
0.0
  9
$UCSORTHOREF
  2

  9
$UCSORTHOVIEW
 70
     0
  9
$UCSORGTOP
 10
0.0
 20
0.0
 30
0.0
  9
$UCSORGBOTTOM
 10
0.0
 20
0.0
 30
0.0
  9
$UCSORGLEFT
 10
0.0
 20
0.0
 30
0.0
  9
$UCSORGRIGHT
 10
0.0
 20
0.0
 30
0.0
  9
$UCSORGFRONT
 10
0.0
 20
0.0
 30
0.0
  9
$UCSORGBACK
 10
0.0
 20
0.0
 30
0.0
  9
$PUCSBASE
  2

  9
$PUCSNAME
  2

  9
$PUCSORG
 10
0.0
 20
0.0
 30
0.0
  9
$PUCSXDIR
 10
1.0
 20
0.0
 30
0.0
  9
$PUCSYDIR
 10
0.0
 20
1.0
 30
0.0
  9
$PUCSORTHOREF
  2

  9
$PUCSORTHOVIEW
 70
     0
  9
$PUCSORGTOP
 10
0.0
 20
0.0
 30
0.0
  9
$PUCSORGBOTTOM
 10
0.0
 20
0.0
 30
0.0
  9
$PUCSORGLEFT
 10
0.0
 20
0.0
 30
0.0
  9
$PUCSORGRIGHT
 10
0.0
 20
0.0
 30
0.0
  9
$PUCSORGFRONT
 10
0.0
 20
0.0
 30
0.0
  9
$PUCSORGBACK
 10
0.0
 20
0.0
 30
0.0
  9
$USERI1
 70
     0
  9
$USERI2
 70
     0
  9
$USERI3
 70
     0
  9
$USERI4
 70
     0
  9
$USERI5
 70
     0
  9
$USERR1
 40
0.0
  9
$USERR2
 40
0.0
  9
$USERR3
 40
0.0
  9
$USERR4
 40
0.0
  9
$USERR5
 40
0.0
  9
$WORLDVIEW
 70
     1
  9
$SHADEDGE
 70
     3
  9
$SHADEDIF
 70
    70
  9
$TILEMODE
 70
     1
  9
$MAXACTVP
 70
    16
  9
$PINSBASE
 10
0.0
 20
0.0
 30
0.0
  9
$PLIMCHECK
 70
     0
  9
$PEXTMIN
 10
1.000000000000000E+20
 20
1.000000000000000E+20
 30
1.000000000000000E+20
  9
$PEXTMAX
 10
-1.000000000000000E+20
 20
-1.000000000000000E+20
 30
-1.000000000000000E+20
  9
$PLIMMIN
 10
0.0
 20
0.0
  9
$PLIMMAX
 10
12.0
 20
9.0
  9
$UNITMODE
 70
     0
  9
$VISRETAIN
 70
     0
  9
$PLINEGEN
 70
     1
  9
$PSLTSCALE
 70
     1
  9
$TREEDEPTH
 70
  3020
  9
$CMLSTYLE
  2
STANDARD
  9
$CMLJUST
 70
     0
  9
$CMLSCALE
 40
1.0
  9
$PROXYGRAPHICS
 70
     0
  9
$MEASUREMENT
 70
     1
  9
$CELWEIGHT
370
     0
  9
$ENDCAPS
280
     0
  9
$JOINSTYLE
280
     0
  9
$LWDISPLAY
290
     0
  9
$INSUNITS
 70
     4
  9
$HYPERLINKBASE
  1

  9
$STYLESHEET
  1

  9
$XEDIT
290
     1
  9
$CEPSNTYPE
380
     0
  9
$PSTYLEMODE
290
     1
  9
$FINGERPRINTGUID
  2

  9
$VERSIONGUID
  2
{BEEA3D65-3BD8-4C7D-BDB4-D3DD02C435C6}
  9
$EXTNAMES
290
     1
  9
$PSVPSCALE
 40
0.0
  9
$OLESTARTUP
290
     0
  0
ENDSEC
  0
SECTION
  2
CLASSES
  0
CLASS
  1
IMAGE
  2
AcDbRasterImage
  3
ISM
 90
    32895
280
     0
281
     1
  0
CLASS
  1
DICTIONARYVAR
  2
AcDbDictionaryVar
  3
ObjectDBX Classes
 90
        0
280
     0
281
     0
  0
CLASS
  1
RASTERVARIABLES
  2
AcDbRasterVariables
  3
ISM
 90
    32768
280
     0
281
     0
  0
CLASS
  1
IMAGEDEF
  2
AcDbRasterImageDef
  3
ISM
 90
    32768
280
     0
281
     0
  0
CLASS
  1
IMAGEDEF_REACTOR
  2
AcDbRasterImageDefReactor
  3
ISM
 90
    32769
280
     0
281
     0
  0
CLASS
  1
IDBUFFER
  2
AcDbIdBuffer
  3
ObjectDBX Classes
 90
        0
280
     0
281
     0
  0
CLASS
  1
SPATIAL_FILTER
  2
AcDbSpatialFilter
  3
ObjectDBX Classes
 90
    32768
280
     0
281
     0
  0
CLASS
  1
SORTENTSTABLE
  2
AcDbSortentsTable
  3
ObjectDBX Classes
 90
        0
280
     0
281
     0
  0
CLASS
  1
LAYER_INDEX
  2
AcDbLayerIndex
  3
ObjectDBX Classes
 90
        0
280
     0
281
     0
  0
CLASS
  1
SPATIAL_INDEX
  2
AcDbSpatialIndex
  3
ObjectDBX Classes
 90
    32768
280
     0
281
     0
  0
CLASS
  1
OBJECT_PTR
  2
CAseDLPNTableRecord
  3
"ASE-LPNTableRecord"
 90
    32769
280
     0
281
     0
  0
CLASS
  1
LAYOUT
  2
AcDbLayout
  3
ObjectDBX Classes
 90
        0
280
     0
281
     0
  0
CLASS
  1
PLOTSETTINGS
  2
AcDbPlotSettings
  3
ObjectDBX Classes
 90
    32768
280
     0
281
     0
  0
CLASS
  1
ACDBDICTIONARYWDFLT
  2
AcDbDictionaryWithDefault
  3
ObjectDBX Classes
 90
        0
280
     0
281
     0
  0
CLASS
  1
ACDBPLACEHOLDER
  2
AcDbPlaceHolder
  3
ObjectDBX Classes
 90
        0
280
     0
281
     0
  0
CLASS
  1
VBA_PROJECT
  2
AcDbVbaProject
  3
acad
 90
    32768
280
     0
281
     0
  0
CLASS
  1
WIPEOUT
  2
AcDbWipeout
  3
"WipeOut|Product Desc: Object Enabler for WipeOut entity^I^I^I^I^I^I|Company: Autodesk, Inc.^I^I^I^I^I^I|WEB Address: www.autodesk.com"
 90
    32895
280
     0
281
     1
  0
CLASS
  1
WIPEOUTVARIABLES
  2
AcDbWipeoutVariables
  3
"WipeOut|Product Desc:     WipeOut Dbx Application|Company:          Autodesk, Inc.|WEB Address:      www.autodesk.com"
 90
        0
280
     0
281
     0
  0
CLASS
  1
RTEXT
  2
RText
  3
RText|AutoCAD Express Tool|expresstools@autodesk.com
 90
    32768
280
     0
281
     1
  0
CLASS
  1
ARCALIGNEDTEXT
  2
AcDbArcAlignedText
  3
ATEXT|AutoCAD Express Tool|expresstools@autodesk.com
 90
    32768
280
     0
281
     0
  0
CLASS
  1
ACAD_PROXY_OBJECT_WRAPPER
  2
AcDbProxyObjectWrapper
  3
ObjectDBX Classes
 90
    32768
280
     0
281
     0
  0
CLASS
  1
TABLESTYLE
  2
AcDbTableStyle
  3
ObjectDBX Classes
 90
     2047
280
     0
281
     0
  0
CLASS
  1
ACME_DOCUMENT
  2
AcMeDbDoc
  3
AcMeServices
 90
        0
280
     0
281
     0
  0
CLASS
  1
AMGSETTINGSOBJ
  2
AmgSettingsObj
  3
"AcadM|Product Description: AutoCAD Mechanical 2000|Company: Autodesk"
 90
        0
280
     0
281
     0
  0
CLASS
  1
ACMESCOPE
  2
AcMeScope
  3
AcMeServices
 90
        0
280
     0
281
     0
  0
CLASS
  1
ACMECOMMANDHISTORY
  2
AcMeCommandHistory
  3
AcMeServices
 90
        0
280
     0
281
     0
  0
CLASS
  1
ACIMSYSVARMAN
  2
AcImSysVarManager
  3
AcMeServices
 90
        0
280
     0
281
     0
  0
CLASS
  1
ACIMREALSYSVAR
  2
AcImRealSysVar
  3
AcMeServices
 90
        0
280
     0
281
     0
  0
CLASS
  1
ACIMINTSYSVAR
  2
AcImIntSysVar
  3
AcMeServices
 90
        0
280
     0
281
     0
  0
CLASS
  1
ACMEDRAWINGMAN
  2
AcMeDrawingMan
  3
AcMeServices
 90
        0
280
     0
281
     0
  0
CLASS
  1
ACMEVIEW
  2
AcMeView
  3
AcMeServices
 90
        0
280
     0
281
     0
  0
CLASS
  1
ACDBENTITYCACHE
  2
AcMeEntityCache
  3
AcMeServices
 90
        0
280
     0
281
     0
  0
CLASS
  1
GSMANAGER
  2
AcMeGSManager
  3
AcMeServices
 90
        0
280
     0
281
     0
  0
CLASS
  1
AMDTINTERNALREACTOR
  2
AmdtInternalReactor
  3
AcMeServices
 90
        0
280
     0
281
     0
  0
CLASS
  1
ACMESTATEMGR
  2
AcMeStateMgr
  3
AcMeServices
 90
        0
280
     0
281
     0
  0
CLASS
  1
ACGREFMASTER
  2
AcGrefMaster
  3
AcAttribServices
 90
        0
280
     0
281
     0
  0
CLASS
  1
AM_DRAWING_MGR
  2
AcDmDwgMgr
  3
AcMechDwgViewMgmt
 90
        0
280
     0
281
     0
  0
CLASS
  1
AM_DWG_DOCUMENT
  2
AcDmDwgDocument
  3
AcMechDwgViewMgmt
 90
        0
280
     0
281
     0
  0
CLASS
  1
AM_DWG_SHEET
  2
AcDmSheet
  3
AcMechDwgViewMgmt
 90
        0
280
     0
281
     0
  0
CLASS
  1
AM_VIEWDIMPARMAP
  2
AcDmViewDimParMap
  3
AcMechDwgViewMgmt
 90
        0
280
     0
281
     0
  0
CLASS
  1
AM_DWGMGR_NAME
  2
AcDmDwgMgrName
  3
AcMechDwgViewMgmt
 90
        0
280
     0
281
     0
  0
CLASS
  1
ACME_DATABASE
  2
AcMeDbDatabase
  3
AcMeServices
 90
        0
280
     0
281
     0
  0
CLASS
  1
ACRFINSADJUSTERMGR
  2
AcRfInsAdjusterMgr
  3
AcMeServices
 90
        0
280
     0
281
     0
  0
CLASS
  1
ACGREFACADMASTER
  2
AcGrefacadMaster
  3
AcGrefServices
 90
        0
280
     0
281
     0
  0
CLASS
  1
AMDTMENUSTATEMGR
  2
AmdtMenuStateMgr
  3
McadcomServices
 90
        0
280
     0
281
     0
  0
CLASS
  1
AMDTMCOMMENUSTATE
  2
AmdtMcomMenuState
  3
McadcomServices
 90
        0
280
     0
281
     0
  0
CLASS
  1
AMIMASTER
  2
AmiMaster
  3
AmiServices
 90
        0
280
     0
281
     0
  0
CLASS
  1
ASAPP
  2
AcAsAppObject
  3
AutoSurfServices
 90
        0
280
     0
281
     0
  0
CLASS
  1
IM_STATIC_MAN
  2
AcImStaticVarManager
  3
AcMeServices
 90
        0
280
     0
281
     0
  0
CLASS
  1
ACIMSTRSYSVAR
  2
AcImStrSysVar
  3
AcMeServices
 90
        0
280
     0
281
     0
  0
CLASS
  1
ACIMDBLSTATICVAR
  2
AcImDblStaticVar
  3
AcMeServices
 90
        0
280
     0
281
     0
  0
CLASS
  1
ACIMSTRSTATICVAR
  2
AcImStrStaticVar
  3
AcMeServices
 90
        0
280
     0
281
     0
  0
CLASS
  1
ACIMINTSTATICVAR
  2
AcImIntStaticVar
  3
AcMeServices
 90
        0
280
     0
281
     0
  0
CLASS
  1
ACASGREFMASTER
  2
AcAsGrefMaster
  3
AutoSurfResolverServices
 90
        0
280
     0
281
     0
  0
CLASS
  1
ACADGREFMODULE
  2
AcAdGrefModule
  3
AdGrefServices
 90
        0
280
     0
281
     0
  0
CLASS
  1
AMDTMAPISURFMOUDULE
  2
AmdtMApiSurfModule
  3
MApiSurfServices
 90
        0
280
     0
281
     0
  0
CLASS
  1
MAPIAMMOUDLE
  2
MApiAmModule
  3
MApiAmServices
 90
        0
280
     0
281
     0
  0
CLASS
  1
AMDTADMENUSTATE
  2
AmdtAdMenuState
  3
DesignerServices
 90
        0
280
     0
281
     0
  0
CLASS
  1
ADAPPL
  2
AcAdAppl
  3
DesignerServices
 90
        0
280
     0
281
     0
  0
CLASS
  1
DEPMGR
  2
AcAdDepMgr
  3
DesignerServices
 90
        0
280
     0
281
     0
  0
CLASS
  1
PARAMMGR
  2
AcAdParamMgr
  3
DesignerServices
 90
        0
280
     0
281
     0
  0
CLASS
  1
PARAMSCOPE
  2
AcAdParamScope
  3
DesignerServices
 90
        0
280
     0
281
     0
  0
CLASS
  1
NAMEDAPPL
  2
AcAdNamedAppl
  3
DesignerServices
 90
        0
280
     0
281
     0
  0
CLASS
  1
AMDTDMMENUSTATE
  2
AmdtDmMenuState
  3
AcMechDwgViewMgmt
 90
        0
280
     0
281
     0
  0
CLASS
  1
MAPIADMODULE
  2
MApiAdModule
  3
MApiAdServices
 90
        0
280
     0
281
     0
  0
CLASS
  1
AMDTAMMENUSTATE
  2
AmdtAmMenuState
  3
DesignerAssemblies
 90
        0
280
     0
281
     0
  0
CLASS
  1
ACAMPROJECT
  2
AcAmProject
  3
DesignerAssemblies
 90
        0
280
     0
281
     0
  0
CLASS
  1
ACAMGRCOMPDEF
  2
AcAmGrCompDef
  3
DesignerAssemblies
 90
        0
280
     0
281
     0
  0
CLASS
  1
ACCMCONTEXT
  2
AcCmContext
  3
DesignerAssemblies
 90
        0
280
     0
281
     0
  0
CLASS
  1
ACAMCOMPDEF
  2
AcAmCompDef
  3
DesignerAssemblies
 90
        0
280
     0
281
     0
  0
CLASS
  1
ACAMCOMPDEFMGR
  2
AcAmCompDefMgr
  3
DesignerAssemblies
 90
        0
280
     0
281
     0
  0
CLASS
  1
AMCONTEXTMGR
  2
AcAmContextMgr
  3
DesignerAssemblies
 90
        0
280
     0
281
     0
  0
CLASS
  1
ACAMCONTEXTMODELER
  2
AcAmContextModeler
  3
DesignerAssemblies
 90
        0
280
     0
281
     0
  0
CLASS
  1
ACMDATADICTIONARY
  2
AcmDataDictionary
  3
"AcmSymBB|Product Description: AutoCAD Mechanical 2004 DX|Company: Autodesk"
 90
        0
280
     0
281
     0
  0
CLASS
  1
ACMDATAENTRYBLOCK
  2
AcmDataEntryBlock
  3
"AcmSymBB|Product Description: AutoCAD Mechanical 2004 DX|Company: Autodesk"
 90
        0
280
     0
281
     0
  0
CLASS
  1
CATALOGSTATE
  2
AcAmCatalogState
  3
DesignerAssemblies
 90
        0
280
     0
281
     0
  0
CLASS
  1
ACAMGRCOMPDEFSET
  2
AcAmGrCompDefSet
  3
DesignerAssemblies
 90
        0
280
     0
281
     0
  0
CLASS
  1
AMDTBROWSERDBTAB
  2
AmdtBrowserDbTab
  3
McadcomServices
 90
        0
280
     0
281
     0
  0
CLASS
  1
CBROWSERAPPOBJECT
  2
CBrowserAppObject
  3
McadcomServices
 90
        0
280
     0
281
     0
  0
CLASS
  1
DM_PLACEHOLDER
  2
AcDmSelsetPlaceholder
  3
AcMechDwgViewMgmt
 90
        0
280
     0
281
     0
  0
CLASS
  1
ACMSTANDARDANSI
  2
AcmStandardANSI
  3
"Amdt_StdImp|Product Description: AutoCAD Mechanical 2004 DX|Company: Autodesk"
 90
        0
280
     0
281
     0
  0
CLASS
  1
AMGOBJPROPCFG
  2
AmgObjPropCfg
  3
"AmgLay|Product Description: AutoCAD Mechanical 2000|Company: Autodesk"
 90
        1
280
     0
281
     0
  0
CLASS
  1
ACMSURFSTANDARDANSI
  2
AcmSurfTextStdANSI
  3
"Amdt_StdImp|Product Description: AutoCAD Mechanical 2004 DX|Company: Autodesk"
 90
        0
280
     0
281
     0
  0
CLASS
  1
ACMFCFSTANDARDANSI
  2
AcmFCFStdANSI
  3
"Amdt_StdImp|Product Description: AutoCAD Mechanical 2004 DX|Company: Autodesk"
 90
        0
280
     0
281
     0
  0
CLASS
  1
ACMWELDSTANDARDANSI
  2
AcmWeldingStdANSI
  3
"Amdt_StdImp|Product Description: AutoCAD Mechanical 2004 DX|Company: Autodesk"
 90
        0
280
     0
281
     0
  0
CLASS
  1
ACMIDSTANDARDANSI
  2
AcmIdStdANSI
  3
"Amdt_StdImp|Product Description: AutoCAD Mechanical 2004 DX|Company: Autodesk"
 90
        0
280
     0
281
     0
  0
CLASS
  1
ACMDATUMSTANDARDANSI
  2
AcmDatumStdANSI
  3
"Amdt_StdImp|Product Description: AutoCAD Mechanical 2004 DX|Company: Autodesk"
 90
        0
280
     0
281
     0
  0
CLASS
  1
ACMBOMSTANDARDANSI
  2
AcmBOMStdANSI
  3
"Amdt_StdImp|Product Description: AutoCAD Mechanical 2004 DX|Company: Autodesk"
 90
        0
280
     0
281
     0
  0
CLASS
  1
ACMDETAILSTANDARDANSI
  2
AmdtDetailSymStdANSI
  3
"Amdt_StdImp|Product Description: AutoCAD Mechanical 2004 DX|Company: Autodesk"
 90
        0
280
     0
281
     0
  0
CLASS
  1
ACMSECTIONSTANDARDANSI
  2
AmdtSectionSymStdANSI
  3
"Amdt_StdImp|Product Description: AutoCAD Mechanical 2004 DX|Company: Autodesk"
 90
        0
280
     0
281
     0
  0
CLASS
  1
ACMCENTERLINESTANDARDANSI
  2
AmdtCenterLineStdANSI
  3
"Amdt_StdImp|Product Description: AutoCAD Mechanical 2004 DX|Company: Autodesk"
 90
        0
280
     0
281
     0
  0
CLASS
  1
ACMTHREADLINESTANDARDANSI
  2
AmdtThreadLineStdANSI
  3
"Amdt_StdImp|Product Description: AutoCAD Mechanical 2004 DX|Company: Autodesk"
 90
        0
280
     0
281
     0
  0
CLASS
  1
ACMNOTESTANDARDANSI
  2
AmdtNoteStdANSI
  3
"Amdt_StdImp|Product Description: AutoCAD Mechanical 2004 DX|Company: Autodesk"
 90
        0
280
     0
281
     0
  0
CLASS
  1
AMDTNOTETEMPLATEDB
  2
AmdtNoteTemplateDB
  3
AMDT_STDIMP_MODULE_NAME
 90
        0
280
     0
281
     0
  0
CLASS
  1
ACAMGLAYSTD
  2
AcAmgLayStd
  3
"AcAmgLayStd|Product Description: AutoCAD Mechanical 2000|Company: Autodesk"
 90
        0
280
     0
281
     0
  0
CLASS
  1
ACAMGDIMSTD
  2
AcAmgDimStd
  3
"AcAmgDimStd|Product Description: AutoCAD Mechanical 2000|Company: Autodesk"
 90
        0
280
     0
281
     0
  0
CLASS
  1
ACAMGHOLECHARTSTDANSI
  2
AcAmgHoleChartStdANSI
  3
ACMSYMBB_MODULE_NAME
 90
        0
280
     0
281
     0
  0
CLASS
  1
ACAMGTITLESTD
  2
AcAmgTitleStd
  3
"TITLEAPP"
 90
        0
280
     0
281
     0
  0
CLASS
  1
ACAMGFILTERDAT
  2
AcAmgFilterDat
  3
"AcadM|Product Description: AutoCAD Mechanical 2000|Company: Autodesk"
 90
        0
280
     0
281
     0
  0
CLASS
  1
ACMSTANDARDISO
  2
AcmStandardISO
  3
"Amdt_StdImp|Product Description: AutoCAD Mechanical 2004 DX|Company: Autodesk"
 90
        0
280
     0
281
     0
  0
CLASS
  1
AMDTEDGESTANDARDISO13715
  2
AmdtEdgeStdISO13715
  3
"Amdt_StdImp|Product Description: AutoCAD Mechanical 2004 DX|Company: Autodesk"
 90
        0
280
     0
281
     0
  0
CLASS
  1
ACMSURFSTANDARDISO
  2
AcmSurfTextStdISO
  3
"Amdt_StdImp|Product Description: AutoCAD Mechanical 2004 DX|Company: Autodesk"
 90
        0
280
     0
281
     0
  0
CLASS
  1
ACMFCFSTANDARDISO
  2
AcmFCFStdISO
  3
"Amdt_StdImp|Product Description: AutoCAD Mechanical 2004 DX|Company: Autodesk"
 90
        0
280
     0
281
     0
  0
CLASS
  1
ACMWELDSTANDARDISO
  2
AcmWeldingStdISO
  3
"Amdt_StdImp|Product Description: AutoCAD Mechanical 2004 DX|Company: Autodesk"
 90
        0
280
     0
281
     0
  0
CLASS
  1
ACMIDSTANDARDISO
  2
AcmIdStdISO
  3
"Amdt_StdImp|Product Description: AutoCAD Mechanical 2004 DX|Company: Autodesk"
 90
        0
280
     0
281
     0
  0
CLASS
  1
ACMDATUMSTANDARDISO
  2
AcmDatumStdISO
  3
"Amdt_StdImp|Product Description: AutoCAD Mechanical 2004 DX|Company: Autodesk"
 90
        0
280
     0
281
     0
  0
CLASS
  1
ACMBOMSTANDARDISO
  2
AcmBOMStdISO
  3
"Amdt_StdImp|Product Description: AutoCAD Mechanical 2004 DX|Company: Autodesk"
 90
        0
280
     0
281
     0
  0
CLASS
  1
ACMDETAILSTANDARDISO
  2
AmdtDetailSymStdISO
  3
"Amdt_StdImp|Product Description: AutoCAD Mechanical 2004 DX|Company: Autodesk"
 90
        0
280
     0
281
     0
  0
CLASS
  1
ACMSECTIONSTANDARDISO
  2
AmdtSectionSymStdISO
  3
"Amdt_StdImp|Product Description: AutoCAD Mechanical 2004 DX|Company: Autodesk"
 90
        0
280
     0
281
     0
  0
CLASS
  1
ACMCENTERLINESTANDARDISO
  2
AmdtCenterLineStdISO
  3
"Amdt_StdImp|Product Description: AutoCAD Mechanical 2004 DX|Company: Autodesk"
 90
        0
280
     0
281
     0
  0
CLASS
  1
ACMTHREADLINESTANDARDISO
  2
AmdtThreadLineStdISO
  3
"Amdt_StdImp|Product Description: AutoCAD Mechanical 2004 DX|Company: Autodesk"
 90
        0
280
     0
281
     0
  0
CLASS
  1
ACMNOTESTANDARDISO
  2
AmdtNoteStdISO
  3
"Amdt_StdImp|Product Description: AutoCAD Mechanical 2004 DX|Company: Autodesk"
 90
        0
280
     0
281
     0
  0
CLASS
  1
ACAMGHOLECHARTSTDISO
  2
AcAmgHoleChartStdISO
  3
ACMSYMBB_MODULE_NAME
 90
        0
280
     0
281
     0
  0
CLASS
  1
ACMDIMBREAKPERSREACTOR
  2
AcmDimBreakPersReactor
  3
amgDimApp().moduleName()
 90
    33791
280
     0
281
     0
  0
ENDSEC
  0
SECTION
  2
TABLES
  0
TABLE
  2
VPORT
  5
7
330
0
100
AcDbSymbolTable
 70
   507
  0
VPORT
  5
6565
330
7
100
AcDbSymbolTableRecord
100
AcDbViewportTableRecord
  2
*Active
 70
     0
 10
0.0
 20
0.0
 11
1.0
 21
1.0
 12
649.6575555801483
 22
-18.61444709403054
 13
0.0
 23
0.0
 14
2.5
 24
2.5
 15
10.0
 25
10.0
 16
0.0
 26
0.0
 36
1.0
 17
662.4499101411736
 27
406.2075537970023
 37
0.0
 40
516.3715719058923
 41
0.9815602836879431
 42
50.0
 43
0.0
 44
0.0
 50
0.0
 51
0.0
 71
     0
 72
  2000
 73
     1
 74
     1
 75
     0
 76
     0
 77
     0
 78
     0
281
     0
 65
     0
110
0.0
120
0.0
130
0.0
111
1.0
121
0.0
131
0.0
112
0.0
122
1.0
132
0.0
 79
     0
146
0.0
  0
ENDTAB
  0
TABLE
  2
LTYPE
  5
4
330
0
100
AcDbSymbolTable
 70
    21
  0
LTYPE
  5
11
330
4
100
AcDbSymbolTableRecord
100
AcDbLinetypeTableRecord
  2
BYBLOCK
 70
     0
  3

 72
    65
 73
     0
 40
0.0
  0
LTYPE
  5
12
330
4
100
AcDbSymbolTableRecord
100
AcDbLinetypeTableRecord
  2
BYLAYER
 70
     0
  3

 72
    65
 73
     0
 40
0.0
  0
LTYPE
  5
13
330
4
100
AcDbSymbolTableRecord
100
AcDbLinetypeTableRecord
  2
CONTINUOUS
 70
     0
  3
Solid line
 72
    65
 73
     0
 40
0.0
  0
LTYPE
  5
27
330
4
100
AcDbSymbolTableRecord
100
AcDbLinetypeTableRecord
  2
CENTER
 70
     0
  3
Center ____ _ ____ _ ____ _ ____ _ ____ _ ____
 72
    65
 73
     4
 40
10.16
 49
6.349999999999997
 74
     0
 49
-1.27
 74
     0
 49
1.27
 74
     0
 49
-1.27
 74
     0
  0
LTYPE
  5
F09
330
4
100
AcDbSymbolTableRecord
100
AcDbLinetypeTableRecord
  2
HIDDEN
 70
     0
  3
Hidden __ __ __ __ __ __ __ __ __ __ __ __ __ _
 72
    65
 73
     2
 40
0.375
 49
0.25
 74
     0
 49
-0.125
 74
     0
  0
LTYPE
  5
F0A
330
4
100
AcDbSymbolTableRecord
100
AcDbLinetypeTableRecord
  2
PHANTOM2
 70
     0
  3
Phantom (.5x) ___ _ _ ___ _ _ ___ _ _ ___ _ _
 72
    65
 73
     6
 40
1.25
 49
0.625
 74
     0
 49
-0.125
 74
     0
 49
0.125
 74
     0
 49
-0.125
 74
     0
 49
0.125
 74
     0
 49
-0.125
 74
     0
  0
LTYPE
  5
FA1
330
4
100
AcDbSymbolTableRecord
100
AcDbLinetypeTableRecord
  2
AM_ISO02W050
 70
     0
  3
__ __ __ __ __ __ __ __ __ __ __ __ __ __ __
 72
    65
 73
     2
 40
7.5
 49
6.0
 74
     0
 49
-1.5
 74
     0
  0
LTYPE
  5
FA2
330
4
100
AcDbSymbolTableRecord
100
AcDbLinetypeTableRecord
  2
AM_ISO08W050
 70
     0
  3
____ . ____ . ____ . ____ . ____ . ____ . ____
 72
    65
 73
     4
 40
18.0
 49
12.0
 74
     0
 49
-1.5
 74
     0
 49
3.0
 74
     0
 49
-1.5
 74
     0
  0
LTYPE
  5
FA3
330
4
100
AcDbSymbolTableRecord
100
AcDbLinetypeTableRecord
  2
AM_ISO09W050
 70
     0
  3
_____ . . _____ . . _____ . . ____ .. ____
 72
    65
 73
     6
 40
22.5
 49
12.0
 74
     0
 49
-1.5
 74
     0
 49
3.0
 74
     0
 49
-1.5
 74
     0
 49
3.0
 74
     0
 49
-1.5
 74
     0
  0
LTYPE
  5
FA4
330
4
100
AcDbSymbolTableRecord
100
AcDbLinetypeTableRecord
  2
Amconstr
 70
     0
  3
_______________________
 72
    65
 73
     2
 40
9999.0
 49
9999.0
 74
     0
 49
0.0
 74
     0
  0
LTYPE
  5
FA5
330
4
100
AcDbSymbolTableRecord
100
AcDbLinetypeTableRecord
  2
AM_ISO08W050x2
 70
     0
  3
__ . __ . __ . __ . __ . __
 72
    65
 73
     4
 40
9.0
 49
6.0
 74
     0
 49
-0.75
 74
     0
 49
1.5
 74
     0
 49
-0.75
 74
     0
  0
LTYPE
  5
FA6
330
4
100
AcDbSymbolTableRecord
100
AcDbLinetypeTableRecord
  2
AM_ISO02W050x2
 70
     0
  3
 _ _ _ _ _ _ _ _ _ _ _ _
 72
    65
 73
     2
 40
3.75
 49
3.0
 74
     0
 49
-0.75
 74
     0
  0
LTYPE
  5
FA9
330
4
100
AcDbSymbolTableRecord
100
AcDbLinetypeTableRecord
  2
Amzigzag
 70
     0
  3
/\/-/\/-/\/-/\/-/\/-/\/
 72
    65
 73
     2
 40
11.0001
 49
0.0001
 74
     4
 75
   135
340
FA8
 46
0.04
 50
0.0
 44
0.0
 45
0.0
 49
-11.0
 74
     0
  0
LTYPE
  5
FAA
330
4
100
AcDbSymbolTableRecord
100
AcDbLinetypeTableRecord
  2
CENTER2
 70
     0
  3
Center (.5x) ___ _ ___ _ ___ _ ___ _ ___ _ ___
 72
    65
 73
     4
 40
1.125
 49
0.75
 74
     0
 49
-0.125
 74
     0
 49
0.125
 74
     0
 49
-0.125
 74
     0
  0
LTYPE
  5
FAB
330
4
100
AcDbSymbolTableRecord
100
AcDbLinetypeTableRecord
  2
HIDDEN2
 70
     0
  3
Hidden (.5x) _ _ _ _ _ _ _ _ _ _ _ _ _ _ _ _ _
 72
    65
 73
     2
 40
0.1875
 49
0.125
 74
     0
 49
-0.0625
 74
     0
  0
LTYPE
  5
FAC
330
4
100
AcDbSymbolTableRecord
100
AcDbLinetypeTableRecord
  2
Amzigzag2
 70
     0
  3
/\/-/\/-/\/-/\/-/\/-/\/
 72
    65
 73
     2
 40
0.4401
 49
0.0001
 74
     4
 75
   135
340
FA8
 46
0.0016
 50
0.0
 44
0.0
 45
0.0
 49
-0.4400000000000001
 74
     0
  0
LTYPE
  5
FBA
330
4
100
AcDbSymbolTableRecord
100
AcDbLinetypeTableRecord
  2
ACANSTGB
 70
     0
  3
__ . . __ . .
 72
    65
 73
     6
 40
0.35433070866
 49
0.15748031496
 74
     0
 49
-0.03937007874
 74
     0
 49
0.03937007874
 74
     0
 49
-0.03937007874
 74
     0
 49
0.03937007874
 74
     0
 49
-0.03937007874
 74
     0
  0
LTYPE
  5
FBB
330
4
100
AcDbSymbolTableRecord
100
AcDbLinetypeTableRecord
  2
ACANSTGL
 70
     0
  3
_ _ _ _ _
 72
    65
 73
     2
 40
0.11811023622
 49
0.07874015748
 74
     0
 49
-0.03937007874
 74
     0
  0
LTYPE
  5
10A3
330
4
100
AcDbSymbolTableRecord
100
AcDbLinetypeTableRecord
  2
ACISOWELD
 70
     0
  3
_ _ _ _ _
 72
    65
 73
     2
 40
2.0
 49
2.0
 74
     0
 49
-1.0
 74
     0
  0
LTYPE
  5
10A4
330
4
100
AcDbSymbolTableRecord
100
AcDbLinetypeTableRecord
  2
ACISOTGB
 70
     0
  3
__ . . __ . .
 72
    65
 73
     6
 40
9.0
 49
4.0
 74
     0
 49
-1.0
 74
     0
 49
1.0
 74
     0
 49
-1.0
 74
     0
 49
1.0
 74
     0
 49
-1.0
 74
     0
  0
LTYPE
  5
10A5
330
4
100
AcDbSymbolTableRecord
100
AcDbLinetypeTableRecord
  2
ACISOTGL
 70
     0
  3
_ _ _ _ _
 72
    65
 73
     2
 40
3.0
 49
2.0
 74
     0
 49
-1.0
 74
     0
  0
ENDTAB
  0
TABLE
  2
LAYER
  5
2
102
{ACAD_XDICTIONARY
360
1002
102
}
330
0
100
AcDbSymbolTable
 70
     7
  0
LAYER
  5
14
330
2
100
AcDbSymbolTableRecord
100
AcDbLayerTableRecord
  2
0
 70
     0
 62
     7
  6
CONTINUOUS
370
    -3
390
1D
  0
LAYER
  5
A05
330
2
100
AcDbSymbolTableRecord
100
AcDbLayerTableRecord
  2
CENTER
 70
     0
 62
     1
  6
CENTER
370
    -3
390
1D
  0
LAYER
  5
A16
330
2
100
AcDbSymbolTableRecord
100
AcDbLayerTableRecord
  2
DIM
 70
     0
 62
     4
  6
CONTINUOUS
370
    -3
390
1D
  0
LAYER
  5
D20
330
2
100
AcDbSymbolTableRecord
100
AcDbLayerTableRecord
  2
Defpoints
 70
     0
 62
     7
  6
CONTINUOUS
290
     0
370
    -3
390
1D
  0
LAYER
  5
FD9
330
2
100
AcDbSymbolTableRecord
100
AcDbLayerTableRecord
  2
AM_5
 70
     0
 62
     5
  6
CONTINUOUS
370
    50
390
1D
  0
LAYER
  5
1B6F
330
2
100
AcDbSymbolTableRecord
100
AcDbLayerTableRecord
  2
LOGO
 70
     0
 62
     7
  6
CONTINUOUS
370
    -3
390
1D
  0
ENDTAB
  0
TABLE
  2
STYLE
  5
3
330
0
100
AcDbSymbolTable
 70
     8
  0
STYLE
  5
17
330
3
100
AcDbSymbolTableRecord
100
AcDbTextStyleTableRecord
  2
STANDARD
 70
     0
 40
0.0
 41
1.0
 50
0.0
 71
     0
 42
3.5
  3
ISOCP.SHX
  4

  0
STYLE
  5
9F7
330
3
100
AcDbSymbolTableRecord
100
AcDbTextStyleTableRecord
  2
CHINA
 70
     0
 40
0.0
 41
1.0
 50
0.0
 71
     0
 42
2.5
  3
romans.shx
  4
chineset.shx
  0
STYLE
  5
FA8
330
3
100
AcDbSymbolTableRecord
100
AcDbTextStyleTableRecord
  2

 70
     1
 40
0.0
 41
1.0
 50
0.0
 71
     0
 42
0.2
  3
ltypeshp.shx
  4

  0
STYLE
  5
FAD
330
3
100
AcDbSymbolTableRecord
100
AcDbTextStyleTableRecord
  2
ACANSTS
 70
     0
 40
1.0
 41
1.0
 50
0.0
 71
     0
 42
0.2
  3
romans.shx
  4
chineset.shx
  0
STYLE
  5
FB9
330
3
100
AcDbSymbolTableRecord
100
AcDbTextStyleTableRecord
  2
ACANSGDT
 70
     0
 40
0.0
 41
1.0
 50
0.0
 71
     0
 42
0.2
  3
amgdtans.shx
  4

  0
STYLE
  5
1095
330
3
100
AcDbSymbolTableRecord
100
AcDbTextStyleTableRecord
  2
ACISOTS
 70
     0
 40
1.0
 41
1.0
 50
0.0
 71
     0
 42
0.2
  3
isocp.shx
  4
chineset.shx
  0
STYLE
  5
10A2
330
3
100
AcDbSymbolTableRecord
100
AcDbTextStyleTableRecord
  2
ACISOGDT
 70
     0
 40
0.0
 41
1.0
 50
0.0
 71
     0
 42
0.2
  3
amgdt.shx
  4

  0
STYLE
  5
1B70
330
3
100
AcDbSymbolTableRecord
100
AcDbTextStyleTableRecord
  2
CHINESET
 70
     0
 40
0.0
 41
0.75
 50
0.0
 71
     0
 42
3.0
  3
simplex.shx
  4
CHINESET.SHX
  0
ENDTAB
  0
TABLE
  2
VIEW
  5
5
330
0
100
AcDbSymbolTable
 70
     0
  0
ENDTAB
  0
TABLE
  2
UCS
  5
6
330
0
100
AcDbSymbolTable
 70
     0
  0
ENDTAB
  0
TABLE
  2
APPID
  5
8
330
0
100
AcDbSymbolTable
 70
    22
  0
APPID
  5
16
330
8
100
AcDbSymbolTableRecord
100
AcDbRegAppTableRecord
  2
ACAD
 70
     0
  0
APPID
  5
ED5
330
8
100
AcDbSymbolTableRecord
100
AcDbRegAppTableRecord
  2
GENIUS_GENDIM_13
 70
     0
  0
APPID
  5
ED6
330
8
100
AcDbSymbolTableRecord
100
AcDbRegAppTableRecord
  2
GENIUS_GENDTOL_13
 70
     0
  0
APPID
  5
ED7
330
8
100
AcDbSymbolTableRecord
100
AcDbRegAppTableRecord
  2
GENIUS_GE3DTOL_13
 70
     0
  0
APPID
  5
EDA
330
8
100
AcDbSymbolTableRecord
100
AcDbRegAppTableRecord
  2
MCAD_NO_VIS
 70
     0
  0
APPID
  5
EDB
330
8
100
AcDbSymbolTableRecord
100
AcDbRegAppTableRecord
  2
ACAD_TEMP_GRAPHIC
 70
     0
  0
APPID
  5
F0C
330
8
100
AcDbSymbolTableRecord
100
AcDbRegAppTableRecord
  2
AD_DRAW
 70
     0
  0
APPID
  5
F0F
330
8
100
AcDbSymbolTableRecord
100
AcDbRegAppTableRecord
  2
ACATTRIBSERVICES
 70
     0
  0
APPID
  5
F5B
330
8
100
AcDbSymbolTableRecord
100
AcDbRegAppTableRecord
  2
ASURF_PCURVE_APPNAME
 70
     0
  0
APPID
  5
F60
330
8
100
AcDbSymbolTableRecord
100
AcDbRegAppTableRecord
  2
AMG_3D2D_5.0
 70
     0
  0
APPID
  5
F8F
330
8
100
AcDbSymbolTableRecord
100
AcDbRegAppTableRecord
  2
DESIGNERASSEMBLIES
 70
     0
  0
APPID
  5
F96
330
8
100
AcDbSymbolTableRecord
100
AcDbRegAppTableRecord
  2
ACADM_DIM_EDIT
 70
     0
  0
APPID
  5
F97
330
8
100
AcDbSymbolTableRecord
100
AcDbRegAppTableRecord
  2
AMDT_DM_ADJ
 70
     0
  0
APPID
  5
1052
330
8
100
AcDbSymbolTableRecord
100
AcDbRegAppTableRecord
  2
GENIUS_GENDIMSH_14
 70
     0
  0
APPID
  5
108A
330
8
100
AcDbSymbolTableRecord
100
AcDbRegAppTableRecord
  2
ACAD_DSTYLE_DIMTEXT_FILL
 70
     0
  0
APPID
  5
1B72
330
8
100
AcDbSymbolTableRecord
100
AcDbRegAppTableRecord
  2
GENIUS_GENODEF_13
 70
     0
  0
APPID
  5
1B73
330
8
100
AcDbSymbolTableRecord
100
AcDbRegAppTableRecord
  2
GENIUS_GENOENT_13
 70
     0
  0
APPID
  5
1B74
330
8
100
AcDbSymbolTableRecord
100
AcDbRegAppTableRecord
  2
GENIUS_GENOBJ-N-CRS_13
 70
     0
  0
APPID
  5
1B75
330
8
100
AcDbSymbolTableRecord
100
AcDbRegAppTableRecord
  2
GENIUS_GENOLIS_13
 70
     0
  0
APPID
  5
1B76
330
8
100
AcDbSymbolTableRecord
100
AcDbRegAppTableRecord
  2
GENIUS_GENOREF_13
 70
     0
  0
APPID
  5
1B77
330
8
100
AcDbSymbolTableRecord
100
AcDbRegAppTableRecord
  2
GENIUS_GENREC_14
 70
     0
  0
APPID
  5
1B78
330
8
100
AcDbSymbolTableRecord
100
AcDbRegAppTableRecord
  2
GENIUS_GENOBJ-N-REC_13
 70
     0
  0
ENDTAB
  0
TABLE
  2
DIMSTYLE
  5
9
330
0
100
AcDbSymbolTable
 70
    18
100
AcDbDimStyleTable
 71
     2
340
10AE
340
9F8
  0
DIMSTYLE
105
18
330
9
100
AcDbSymbolTableRecord
100
AcDbDimStyleTableRecord
  2
STANDARD
 70
     0
340
17
  0
DIMSTYLE
105
9F8
330
9
100
AcDbSymbolTableRecord
100
AcDbDimStyleTableRecord
  2
ISO-25
 70
     0
 41
2.0
 42
1.0
 44
1.0
 73
     0
 74
     0
 77
     1
 78
     8
140
2.5
141
1.0
143
0.03937007874016
147
1.0
171
     3
172
     1
174
     1
176
   256
177
   256
178
   256
271
     2
272
     2
274
     3
283
     0
284
     8
340
9F7
  0
DIMSTYLE
105
FC4
330
9
100
AcDbSymbolTableRecord
100
AcDbDimStyleTableRecord
  2
AM_ANSI
 70
     0
  4
mm
 41
0.1
 42
0.05
 43
0.5
 44
0.1
 47
0.1
 48
0.1
 78
     7
 79
     2
140
0.12
141
0.0
146
0.71
147
0.06
176
   256
177
   256
178
     2
274
     4
284
     7
340
17
371
    -1
372
    -1
  0
DIMSTYLE
105
FC5
330
9
100
AcDbSymbolTableRecord
100
AcDbDimStyleTableRecord
  2
AM_ANSI$3
 70
     0
  4
mm
 41
0.1
 42
0.05
 43
0.5
 44
0.1
 47
0.1
 48
0.1
 78
     7
 79
     2
140
0.12
141
0.0
146
0.71
147
0.06
176
   256
177
   256
178
     2
274
     4
284
     7
288
     1
289
     0
340
17
371
    -1
372
    -1
  0
DIMSTYLE
105
FC6
330
9
100
AcDbSymbolTableRecord
100
AcDbDimStyleTableRecord
  2
AM_ANSI$4
 70
     0
  4
mm
 41
0.1
 42
0.05
 43
0.5
 44
0.1
 47
0.1
 48
0.1
 78
     7
 79
     2
140
0.12
141
0.0
146
0.71
147
0.06
176
   256
177
   256
178
     2
274
     4
284
     7
288
     1
289
     0
340
17
371
    -1
372
    -1
  0
DIMSTYLE
105
FC7
330
9
100
AcDbSymbolTableRecord
100
AcDbDimStyleTableRecord
  2
AM_ANSI$7
 70
     0
  4
mm
 41
0.1
 42
0.05
 43
0.5
 44
0.1
 47
0.1
 48
0.1
 78
     7
 79
     2
140
0.24
141
0.0
146
0.71
147
0.06
176
   256
177
   256
178
     2
274
     4
284
     7
340
17
371
    -1
372
    -1
  0
DIMSTYLE
105
FC8
330
9
100
AcDbSymbolTableRecord
100
AcDbDimStyleTableRecord
  2
AM_ANSI$SF
 70
     0
  4
mm
 41
0.1
 42
0.05
 43
0.5
 44
0.1
 47
0.1
 48
0.1
 75
     1
 76
     1
 78
     7
 79
     2
140
0.12
141
0.0
146
0.71
147
0.06
176
   256
177
   256
178
     2
274
     4
284
     7
340
17
371
    -1
372
    -1
  0
DIMSTYLE
105
FCD
330
9
100
AcDbSymbolTableRecord
100
AcDbDimStyleTableRecord
  2
AM_ANSI$SH
 70
     0
  4
mm
 41
0.1
 42
0.05
 43
0.5
 44
0.1
 47
0.1
 48
0.1
 75
     1
 76
     1
 78
     7
 79
     2
140
0.12
141
0.0
146
0.71
147
0.06
173
     1
176
   256
177
   256
178
     2
274
     4
284
     7
340
17
343
FC9
371
    -1
372
    -1
  0
DIMSTYLE
105
FE5
330
9
100
AcDbSymbolTableRecord
100
AcDbDimStyleTableRecord
  2
ISO-25$0
 70
     0
 41
2.0
 42
1.0
 44
1.0
 73
     0
 74
     0
 77
     1
 78
     8
140
2.5
141
1.0
143
0.03937007874016
147
1.0
171
     3
172
     1
174
     1
176
   256
177
   256
178
   256
271
     2
272
     2
274
     3
283
     0
284
     8
340
9F7
  0
DIMSTYLE
105
10AE
330
9
100
AcDbSymbolTableRecord
100
AcDbDimStyleTableRecord
  2
AM_ISO
 70
     0
  4
"
 41
3.0
 42
1.0
 43
6.5
 44
1.0
 47
0.1
 48
0.1
 73
     0
 74
     0
 77
     1
 78
     8
 79
     2
140
3.5
141
0.0
143
0.0393701
146
0.71
147
1.0
172
     1
176
   256
177
   256
178
   256
271
     2
272
     2
283
     0
284
     8
340
17
371
    -1
372
    -1
  0
DIMSTYLE
105
10AF
102
{ACAD_REACTORS
330
61C5
330
620E
330
63FC
330
64C7
330
6500
102
}
330
9
100
AcDbSymbolTableRecord
100
AcDbDimStyleTableRecord
  2
AM_ISO$3
 70
     0
  4
"
 41
3.0
 42
1.0
 43
6.5
 44
1.0
 47
0.1
 48
0.1
 73
     0
 77
     1
 78
     8
 79
     2
140
3.5
141
0.0
143
0.0393701
146
0.71
147
1.0
176
   256
177
   256
178
   256
271
     2
272
     2
283
     0
284
     8
288
     1
289
     0
340
17
371
    -1
372
    -1
  0
DIMSTYLE
105
10B0
102
{ACAD_REACTORS
330
62B6
102
}
330
9
100
AcDbSymbolTableRecord
100
AcDbDimStyleTableRecord
  2
AM_ISO$4
 70
     0
  4
"
 41
3.0
 42
1.0
 43
6.5
 44
1.0
 47
0.1
 48
0.1
 73
     0
 77
     1
 78
     8
 79
     2
140
3.5
141
0.0
143
0.0393701
146
0.71
147
1.0
176
   256
177
   256
178
   256
271
     2
272
     2
283
     0
284
     8
288
     1
289
     0
340
17
371
    -1
372
    -1
  0
DIMSTYLE
105
10B1
330
9
100
AcDbSymbolTableRecord
100
AcDbDimStyleTableRecord
  2
AM_ISO$6
 70
     0
  4
"
 41
3.0
 42
1.0
 43
6.5
 44
1.0
 47
0.1
 48
0.1
 73
     0
 74
     0
 78
     8
 79
     2
140
3.5
141
0.0
143
0.0393701
146
0.71
147
1.0
172
     1
176
   256
177
   256
178
   256
271
     2
272
     2
283
     0
284
     8
340
17
371
    -1
372
    -1
  0
DIMSTYLE
105
10B2
102
{ACAD_REACTORS
330
28D6
330
3FEB
102
}
330
9
100
AcDbSymbolTableRecord
100
AcDbDimStyleTableRecord
  2
AM_ISO$7
 70
     0
  4
"
 41
3.0
 42
1.0
 43
6.5
 44
1.0
 47
0.1
 48
0.1
 73
     0
 74
     0
 77
     1
 78
     8
 79
     2
140
5.0
141
0.0
143
0.0393701
146
0.71
147
1.0
172
     1
176
   256
177
   256
178
   256
271
     2
272
     2
283
     0
284
     8
340
17
371
    -1
372
    -1
  0
DIMSTYLE
105
10B3
330
9
100
AcDbSymbolTableRecord
100
AcDbDimStyleTableRecord
  2
AM_ISO$SF
 70
     0
  4
"
 41
2.5
 42
1.0
 43
10.0
 44
1.0
 47
0.1
 48
0.1
 73
     0
 74
     0
 75
     1
 76
     1
 77
     1
 78
     8
 79
     2
140
3.5
141
0.0
143
0.0393701
146
0.71
147
1.5
172
     1
176
   256
177
   256
178
     2
271
     2
272
     3
274
     4
283
     0
284
     8
340
17
371
    -1
372
    -1
  0
DIMSTYLE
105
10B4
330
9
100
AcDbSymbolTableRecord
100
AcDbDimStyleTableRecord
  2
AM_ISO$SH
 70
     0
  4
"
 41
2.5
 42
1.0
 43
10.0
 44
1.0
 47
0.1
 48
0.1
 73
     0
 74
     0
 75
     1
 76
     1
 77
     1
 78
     8
 79
     2
140
3.5
141
0.0
143
0.0393701
144
2.0
146
0.71
147
1.5
172
     1
173
     1
176
   256
177
   256
178
     2
271
     2
272
     3
274
     4
283
     0
284
     8
340
17
343
FC9
371
    -1
372
    -1
  0
DIMSTYLE
105
1182
102
{ACAD_REACTORS
330
5E60
330
5E91
330
5EBD
330
5EE9
330
5F15
330
5F41
330
5F72
330
5F91
330
6005
330
603E
330
606C
330
6094
330
60C4
330
6267
330
6299
330
62F5
330
6321
330
637C
330
63DB
330
644C
330
6474
330
6498
102
}
330
9
100
AcDbSymbolTableRecord
100
AcDbDimStyleTableRecord
  2
AM_ISO$0
 70
     0
  4
"
 41
3.0
 42
1.0
 43
6.5
 44
1.0
 47
0.1
 48
0.1
 73
     0
 74
     0
 77
     1
 78
     8
 79
     2
140
3.5
141
0.0
143
0.0393701
146
0.71
147
1.0
172
     1
176
   256
177
   256
178
   256
271
     2
272
     2
283
     0
284
     8
340
17
371
    -1
372
    -1
  0
DIMSTYLE
105
2CDA
102
{ACAD_REACTORS
330
4F0F
330
4F10
330
4F11
102
}
330
9
100
AcDbSymbolTableRecord
100
AcDbDimStyleTableRecord
  2
AM_ISO$2
 70
     0
  4
"
 41
3.0
 42
1.0
 43
6.5
 44
1.0
 47
0.1
 48
0.1
 73
     0
 74
     0
 77
     1
 78
     8
 79
     2
140
3.5
141
0.0
143
0.0393701
146
0.71
147
1.0
172
     1
176
   256
177
   256
178
   256
271
     2
272
     2
283
     0
284
     8
340
17
371
    -1
372
    -1
  0
ENDTAB
  0
TABLE
  2
BLOCK_RECORD
  5
1
330
0
100
AcDbSymbolTable
 70
    67
  0
BLOCK_RECORD
  5
A
102
{ACAD_XDICTIONARY
360
9C9
102
}
330
1
100
AcDbSymbolTableRecord
100
AcDbBlockTableRecord
  2
*MODEL_SPACE
340
A68
  0
BLOCK_RECORD
  5
B
102
{ACAD_XDICTIONARY
360
9CB
102
}
330
1
100
AcDbSymbolTableRecord
100
AcDbBlockTableRecord
  2
*PAPER_SPACE
340
A69
  0
BLOCK_RECORD
  5
FC9
330
1
100
AcDbSymbolTableRecord
100
AcDbBlockTableRecord
  2
GENAXEH
340
0
  0
BLOCK_RECORD
  5
4F12
330
1
100
AcDbSymbolTableRecord
100
AcDbBlockTableRecord
  2
*D2
340
0
  0
BLOCK_RECORD
  5
4F20
330
1
100
AcDbSymbolTableRecord
100
AcDbBlockTableRecord
  2
*D3
340
0
  0
BLOCK_RECORD
  5
4F2E
330
1
100
AcDbSymbolTableRecord
100
AcDbBlockTableRecord
  2
*D4
340
0
  0
BLOCK_RECORD
  5
5E61
330
1
100
AcDbSymbolTableRecord
100
AcDbBlockTableRecord
  2
*D35
340
0
  0
BLOCK_RECORD
  5
5E92
330
1
100
AcDbSymbolTableRecord
100
AcDbBlockTableRecord
  2
*D36
340
0
  0
BLOCK_RECORD
  5
5EBE
330
1
100
AcDbSymbolTableRecord
100
AcDbBlockTableRecord
  2
*D37
340
0
  0
BLOCK_RECORD
  5
5EEA
330
1
100
AcDbSymbolTableRecord
100
AcDbBlockTableRecord
  2
*D38
340
0
  0
BLOCK_RECORD
  5
5F16
330
1
100
AcDbSymbolTableRecord
100
AcDbBlockTableRecord
  2
*D39
340
0
  0
BLOCK_RECORD
  5
5F42
330
1
100
AcDbSymbolTableRecord
100
AcDbBlockTableRecord
  2
*D40
340
0
  0
BLOCK_RECORD
  5
5F73
330
1
100
AcDbSymbolTableRecord
100
AcDbBlockTableRecord
  2
*D41
340
0
  0
BLOCK_RECORD
  5
5F92
330
1
100
AcDbSymbolTableRecord
100
AcDbBlockTableRecord
  2
*D42
340
0
  0
BLOCK_RECORD
  5
6006
330
1
100
AcDbSymbolTableRecord
100
AcDbBlockTableRecord
  2
*D43
340
0
  0
BLOCK_RECORD
  5
603F
330
1
100
AcDbSymbolTableRecord
100
AcDbBlockTableRecord
  2
*D44
340
0
  0
BLOCK_RECORD
  5
606D
330
1
100
AcDbSymbolTableRecord
100
AcDbBlockTableRecord
  2
*D45
340
0
  0
BLOCK_RECORD
  5
6095
330
1
100
AcDbSymbolTableRecord
100
AcDbBlockTableRecord
  2
*D46
340
0
  0
BLOCK_RECORD
  5
60C5
330
1
100
AcDbSymbolTableRecord
100
AcDbBlockTableRecord
  2
*D47
340
0
  0
BLOCK_RECORD
  5
61C6
330
1
100
AcDbSymbolTableRecord
100
AcDbBlockTableRecord
  2
*D48
340
0
  0
BLOCK_RECORD
  5
620F
330
1
100
AcDbSymbolTableRecord
100
AcDbBlockTableRecord
  2
*D50
340
0
  0
BLOCK_RECORD
  5
6268
330
1
100
AcDbSymbolTableRecord
100
AcDbBlockTableRecord
  2
*D51
340
0
  0
BLOCK_RECORD
  5
629A
330
1
100
AcDbSymbolTableRecord
100
AcDbBlockTableRecord
  2
*D52
340
0
  0
BLOCK_RECORD
  5
62B7
330
1
100
AcDbSymbolTableRecord
100
AcDbBlockTableRecord
  2
*D53
340
0
  0
BLOCK_RECORD
  5
62F6
330
1
100
AcDbSymbolTableRecord
100
AcDbBlockTableRecord
  2
*D54
340
0
  0
BLOCK_RECORD
  5
6322
330
1
100
AcDbSymbolTableRecord
100
AcDbBlockTableRecord
  2
*D55
340
0
  0
BLOCK_RECORD
  5
637D
330
1
100
AcDbSymbolTableRecord
100
AcDbBlockTableRecord
  2
*D56
340
0
  0
BLOCK_RECORD
  5
63DC
330
1
100
AcDbSymbolTableRecord
100
AcDbBlockTableRecord
  2
*D58
340
0
  0
BLOCK_RECORD
  5
63FD
330
1
100
AcDbSymbolTableRecord
100
AcDbBlockTableRecord
  2
*D59
340
0
  0
BLOCK_RECORD
  5
644D
330
1
100
AcDbSymbolTableRecord
100
AcDbBlockTableRecord
  2
*D60
340
0
  0
BLOCK_RECORD
  5
6475
330
1
100
AcDbSymbolTableRecord
100
AcDbBlockTableRecord
  2
*D61
340
0
  0
BLOCK_RECORD
  5
6499
330
1
100
AcDbSymbolTableRecord
100
AcDbBlockTableRecord
  2
*D62
340
0
  0
BLOCK_RECORD
  5
64C8
330
1
100
AcDbSymbolTableRecord
100
AcDbBlockTableRecord
  2
*D64
340
0
  0
BLOCK_RECORD
  5
6501
330
1
100
AcDbSymbolTableRecord
100
AcDbBlockTableRecord
  2
*D66
340
0
  0
ENDTAB
  0
ENDSEC
  0
SECTION
  2
BLOCKS
  0
BLOCK
  5
D
330
A
100
AcDbEntity
  8
0
100
AcDbBlockBegin
  2
*MODEL_SPACE
 70
     0
 71
     1
 10
0.0
 20
0.0
 30
0.0
  3
*MODEL_SPACE
  1

  0
ENDBLK
  5
E
330
A
100
AcDbEntity
  8
0
100
AcDbBlockEnd
  0
BLOCK
  5
F
330
B
100
AcDbEntity
 67
     1
  8
0
100
AcDbBlockBegin
  2
*PAPER_SPACE
 70
     0
 71
     1
 10
0.0
 20
0.0
 30
0.0
  3
*PAPER_SPACE
  1

  0
ENDBLK
  5
10
330
B
100
AcDbEntity
 67
     1
  8
0
100
AcDbBlockEnd
  0
BLOCK
  5
FCB
330
FC9
100
AcDbEntity
  8
0
370
     0
100
AcDbBlockBegin
  2
GENAXEH
 70
     0
 10
0.0
 20
0.0
 30
0.0
  3
GENAXEH
  1

  0
LINE
  5
FCA
330
FC9
100
AcDbEntity
  8
0
100
AcDbLine
 10
-1.0
 20
0.0
 30
0.0
 11
1.0
 21
0.0
 31
0.0
  0
ENDBLK
  5
FCC
330
FC9
100
AcDbEntity
  8
0
370
     0
100
AcDbBlockEnd
  0
BLOCK
  5
4F1E
330
4F12
100
AcDbEntity
  8
0
370
     0
100
AcDbBlockBegin
  2
*D2
 70
     1
 10
0.0
 20
0.0
 30
0.0
  3
*D2
  1

  0
LINE
  5
61B5
330
4F12
100
AcDbEntity
  8
AM_5
100
AcDbLine
 10
1471.989772857641
 20
369.9132496077222
 30
0.0
 11
1477.110695808467
 21
383.9828697818836
 31
0.0
  0
LINE
  5
61B6
330
4F12
100
AcDbEntity
  8
AM_5
100
AcDbLine
 10
1459.677047697917
 20
375.0568923159499
 30
0.0
 11
1459.677047697917
 21
387.0568923159507
 31
0.0
  0
ARC
  5
61B7
330
4F12
100
AcDbEntity
  8
AM_5
100
AcDbCircle
 10
1459.677047697917
 20
336.0843152594295
 30
0.0
 40
49.97257705652103
100
AcDbArc
 50
73.44014998909361
 51
86.55985001090638
  0
SOLID
  5
61B8
330
4F12
100
AcDbEntity
  8
AM_5
370
     0
100
AcDbTrace
 10
1474.076899252958
 20
384.4589242242471
 30
0.0
 11
1473.763239470974
 21
383.5093887898555
 31
0.0
 12
1476.768675665141
 22
383.0431771610977
 32
0.0
 13
1476.768675665141
 23
383.0431771610977
 33
0.0
  0
SOLID
  5
61B9
330
4F12
100
AcDbEntity
  8
AM_5
370
     0
100
AcDbTrace
 10
1462.660687679907
 20
385.4670682253336
 30
0.0
 11
1462.690704142702
 21
386.4666176297961
 31
0.0
 12
1459.677047697917
 22
386.0568923159507
 32
0.0
 13
1459.677047697917
 23
386.0568923159507
 33
0.0
  0
MTEXT
  5
61BA
330
4F12
100
AcDbEntity
  8
AM_5
100
AcDbMText
 10
1468.832286945432
 20
388.0062571581143
 30
0.0
 40
3.5
 41
0.0
 71
     5
 72
     1
  1
20°
 11
0.9848077530122081
 21
-0.1736481776669301
 31
0.0
 73
     1
 44
1.0
1001
ACAD
1000
MTEXTBEGIN
1070
    73
1070
     1
1070
    44
1040
1.0
1070
    74
1070
     0
1000
MTEXTEND
  0
POINT
  5
61BB
330
4F12
100
AcDbEntity
  8
Defpoints
 62
     0
370
     0
100
AcDbPoint
 10
1471.20151706905
 20
384.7098750339323
 30
0.0
  0
POINT
  5
61BC
330
4F12
100
AcDbEntity
  8
Defpoints
 62
     0
370
     0
100
AcDbPoint
 10
1459.677047697917
 20
290.5328693082489
 30
0.0
  0
POINT
  5
61BD
330
4F12
100
AcDbEntity
  8
Defpoints
 62
     0
370
     0
100
AcDbPoint
 10
1459.677047697917
 20
336.0843152594295
 30
0.0
  0
POINT
  5
61BE
330
4F12
100
AcDbEntity
  8
Defpoints
 62
     0
370
     0
100
AcDbPoint
 10
1471.647752714315
 20
368.9735569869363
 30
0.0
  0
POINT
  5
61BF
330
4F12
100
AcDbEntity
  8
Defpoints
 62
     0
370
     0
100
AcDbPoint
 10
1459.677047697917
 20
374.0568923159499
 30
0.0
  0
ENDBLK
  5
4F1F
330
4F12
100
AcDbEntity
  8
0
370
     0
100
AcDbBlockEnd
  0
BLOCK
  5
4F2C
330
4F20
100
AcDbEntity
  8
0
370
     0
100
AcDbBlockBegin
  2
*D3
 70
     1
 10
0.0
 20
0.0
 30
0.0
  3
*D3
  1

  0
LINE
  5
61AA
330
4F20
100
AcDbEntity
  8
AM_5
100
AcDbLine
 10
1459.677047697917
 20
375.0568923159499
 30
0.0
 11
1459.677047697917
 21
387.0568923159498
 31
0.0
  0
LINE
  5
61AB
330
4F20
100
AcDbEntity
  8
AM_5
100
AcDbLine
 10
1447.364322538192
 20
369.9132496077221
 30
0.0
 11
1442.243399587366
 21
383.9828697818827
 31
0.0
  0
ARC
  5
61AC
330
4F20
100
AcDbEntity
  8
AM_5
100
AcDbCircle
 10
1459.677047697917
 20
336.0843152594292
 30
0.0
 40
49.97257705652066
100
AcDbArc
 50
93.4401499890934
 51
106.5598500109067
  0
SOLID
  5
61AD
330
4F20
100
AcDbEntity
  8
AM_5
370
     0
100
AcDbTrace
 10
1456.663391253132
 20
386.4666176297953
 30
0.0
 11
1456.693407715927
 21
385.4670682253328
 31
0.0
 12
1459.677047697917
 22
386.0568923159498
 32
0.0
 13
1459.677047697917
 23
386.0568923159498
 33
0.0
  0
SOLID
  5
61AE
330
4F20
100
AcDbEntity
  8
AM_5
370
     0
100
AcDbTrace
 10
1445.59085592486
 20
383.5093887898545
 30
0.0
 11
1445.277196142875
 21
384.4589242242463
 31
0.0
 12
1442.585419730692
 22
383.0431771610967
 32
0.0
 13
1442.585419730692
 23
383.0431771610967
 33
0.0
  0
MTEXT
  5
61AF
330
4F20
100
AcDbEntity
  8
AM_5
100
AcDbMText
 10
1450.521808450401
 20
388.0062571581135
 30
0.0
 40
3.5
 41
0.0
 71
     5
 72
     1
  1
20°
 11
0.9848077530122075
 21
0.1736481776669325
 31
0.0
 73
     1
 44
1.0
1001
ACAD
1000
MTEXTBEGIN
1070
    73
1070
     1
1070
    44
1040
1.0
1070
    74
1070
     0
1000
MTEXTEND
  0
POINT
  5
61B0
330
4F20
100
AcDbEntity
  8
Defpoints
 62
     0
370
     0
100
AcDbPoint
 10
1453.875585601078
 20
385.7189956271804
 30
0.0
  0
POINT
  5
61B1
330
4F20
100
AcDbEntity
  8
Defpoints
 62
     0
370
     0
100
AcDbPoint
 10
1459.677047697917
 20
336.0843152594295
 30
0.0
  0
POINT
  5
61B2
330
4F20
100
AcDbEntity
  8
Defpoints
 62
     0
370
     0
100
AcDbPoint
 10
1459.677047697917
 20
290.5328693082489
 30
0.0
  0
POINT
  5
61B3
330
4F20
100
AcDbEntity
  8
Defpoints
 62
     0
370
     0
100
AcDbPoint
 10
1459.677047697917
 20
374.0568923159499
 30
0.0
  0
POINT
  5
61B4
330
4F20
100
AcDbEntity
  8
Defpoints
 62
     0
370
     0
100
AcDbPoint
 10
1447.706342681518
 20
368.9735569869362
 30
0.0
  0
ENDBLK
  5
4F2D
330
4F20
100
AcDbEntity
  8
0
370
     0
100
AcDbBlockEnd
  0
BLOCK
  5
4F3A
330
4F2E
100
AcDbEntity
  8
0
370
     0
100
AcDbBlockBegin
  2
*D4
 70
     1
 10
0.0
 20
0.0
 30
0.0
  3
*D4
  1

  0
LINE
  5
619F
330
4F2E
100
AcDbEntity
  8
AM_5
100
AcDbLine
 10
1459.677047697917
 20
375.0568923159498
 30
0.0
 11
1459.677047697917
 21
393.5568923159499
 31
0.0
  0
LINE
  5
61A0
330
4F2E
100
AcDbEntity
  8
AM_5
100
AcDbLine
 10
1447.431177862234
 20
365.6484602997906
 30
0.0
 11
1437.683244643061
 21
389.1820528826265
 31
0.0
  0
ARC
  5
61A1
330
4F2E
100
AcDbEntity
  8
AM_5
100
AcDbCircle
 10
1459.677047697917
 20
336.0843152594293
 30
0.0
 40
56.47257705652062
100
AcDbArc
 50
93.04408910455141
 51
109.4559108954484
  0
SOLID
  5
61A2
330
4F2E
100
AcDbEntity
  8
AM_5
370
     0
100
AcDbTrace
 10
1456.664825377438
 20
392.9770312120437
 30
0.0
 11
1456.691386941975
 21
391.9773840326403
 31
0.0
 12
1459.677047697917
 22
392.5568923159499
 32
0.0
 13
1459.677047697917
 23
392.5568923159499
 33
0.0
  0
SOLID
  5
61A3
330
4F2E
100
AcDbEntity
  8
AM_5
370
     0
100
AcDbTrace
 10
1441.046087157804
 20
388.8653404142064
 30
0.0
 11
1440.688078429862
 21
389.7990586536756
 31
0.0
 12
1438.065928075425
 22
388.2581733501152
 32
0.0
 13
1438.065928075425
 23
388.2581733501152
 33
0.0
  0
MTEXT
  5
61A4
330
4F2E
100
AcDbEntity
  8
AM_5
100
AcDbMText
 10
1448.123228863023
 20
394.1692849729558
 30
0.0
 40
3.5
 41
0.0
 71
     5
 72
     1
  1
22.5°
 11
0.9807852804032304
 21
0.1950903220161282
 31
0.0
 73
     1
 44
1.0
1001
ACAD
1000
MTEXTBEGIN
1070
    73
1070
     1
1070
    44
1040
1.0
1070
    74
1070
     0
1000
MTEXTEND
  0
POINT
  5
61A5
330
4F2E
100
AcDbEntity
  8
Defpoints
 62
     0
370
     0
100
AcDbPoint
 10
1452.305897249876
 20
392.0737615906532
 30
0.0
  0
POINT
  5
61A6
330
4F2E
100
AcDbEntity
  8
Defpoints
 62
     0
370
     0
100
AcDbPoint
 10
1447.813861294599
 20
364.7245807672792
 30
0.0
  0
POINT
  5
61A7
330
4F2E
100
AcDbEntity
  8
Defpoints
 62
     0
370
     0
100
AcDbPoint
 10
1459.677047697917
 20
290.5328693082489
 30
0.0
  0
POINT
  5
61A8
330
4F2E
100
AcDbEntity
  8
Defpoints
 62
     0
370
     0
100
AcDbPoint
 10
1459.677047697917
 20
374.0568923159499
 30
0.0
  0
POINT
  5
61A9
330
4F2E
100
AcDbEntity
  8
Defpoints
 62
     0
370
     0
100
AcDbPoint
 10
1459.677047697917
 20
336.0843152594295
 30
0.0
  0
ENDBLK
  5
4F3B
330
4F2E
100
AcDbEntity
  8
0
370
     0
100
AcDbBlockEnd
  0
BLOCK
  5
5E6B
330
5E61
100
AcDbEntity
  8
0
370
     0
100
AcDbBlockBegin
  2
*D35
 70
     1
 10
0.0
 20
0.0
 30
0.0
  3
*D35
  1

  0
LINE
  5
652F
330
5E61
100
AcDbEntity
  8
AM_5
100
AcDbLine
 10
1350.72218695995
 20
514.9264916208836
 30
0.0
 11
1368.743288446669
 21
514.9264916208836
 31
0.0
  0
LINE
  5
6530
330
5E61
100
AcDbEntity
  8
AM_5
100
AcDbLine
 10
1350.72218695995
 20
444.9264916208835
 30
0.0
 11
1368.743288446669
 21
444.9264916208835
 31
0.0
  0
LINE
  5
6531
330
5E61
100
AcDbEntity
  8
AM_5
100
AcDbLine
 10
1367.743288446669
 20
511.9264916208837
 30
0.0
 11
1367.743288446669
 21
447.9264916208835
 31
0.0
  0
SOLID
  5
6532
330
5E61
100
AcDbEntity
  8
AM_5
370
     0
100
AcDbTrace
 10
1367.243288446669
 20
511.9264916208837
 30
0.0
 11
1368.243288446669
 21
511.9264916208837
 31
0.0
 12
1367.743288446669
 22
514.9264916208836
 32
0.0
 13
1367.743288446669
 23
514.9264916208836
 33
0.0
  0
SOLID
  5
6533
330
5E61
100
AcDbEntity
  8
AM_5
370
     0
100
AcDbTrace
 10
1367.243288446669
 20
447.9264916208835
 30
0.0
 11
1368.243288446669
 21
447.9264916208835
 31
0.0
 12
1367.743288446669
 22
444.9264916208835
 32
0.0
 13
1367.743288446669
 23
444.9264916208835
 33
0.0
  0
MTEXT
  5
6534
330
5E61
100
AcDbEntity
  8
AM_5
100
AcDbMText
 10
1364.993288446669
 20
479.9264916208838
 30
0.0
 40
3.5
 41
0.0
 71
     5
 72
     1
  1
%%c70
 11
0.0000000000000001
 21
1.0
 31
0.0
 73
     1
 44
1.0
1001
ACAD
1000
MTEXTBEGIN
1070
    73
1070
     1
1070
    44
1040
1.0
1070
    74
1070
     0
1000
MTEXTEND
  0
POINT
  5
6535
330
5E61
100
AcDbEntity
  8
Defpoints
 62
     0
370
     0
100
AcDbPoint
 10
1349.72218695995
 20
514.9264916208836
 30
0.0
  0
POINT
  5
6536
330
5E61
100
AcDbEntity
  8
Defpoints
 62
     0
370
     0
100
AcDbPoint
 10
1349.72218695995
 20
444.9264916208835
 30
0.0
  0
POINT
  5
6537
330
5E61
100
AcDbEntity
  8
Defpoints
 62
     0
370
     0
100
AcDbPoint
 10
1367.743288446669
 20
444.9264916208835
 30
0.0
  0
ENDBLK
  5
5E6C
330
5E61
100
AcDbEntity
  8
0
370
     0
100
AcDbBlockEnd
  0
BLOCK
  5
5E9C
330
5E92
100
AcDbEntity
  8
0
370
     0
100
AcDbBlockBegin
  2
*D36
 70
     1
 10
0.0
 20
0.0
 30
0.0
  3
*D36
  1

  0
LINE
  5
6538
330
5E92
100
AcDbEntity
  8
AM_5
100
AcDbLine
 10
1349.72218695995
 20
515.9264916208837
 30
0.0
 11
1349.72218695995
 21
527.9264926208837
 31
0.0
  0
LINE
  5
6539
330
5E92
100
AcDbEntity
  8
AM_5
100
AcDbLine
 10
1340.72218695995
 20
497.3018699621912
 30
0.0
 11
1340.72218695995
 21
527.9264926208837
 31
0.0
  0
LINE
  5
653A
330
5E92
100
AcDbEntity
  8
AM_5
100
AcDbLine
 10
1346.72218695995
 20
526.9264926208836
 30
0.0
 11
1343.72218695995
 21
526.9264926208836
 31
0.0
  0
SOLID
  5
653B
330
5E92
100
AcDbEntity
  8
AM_5
370
     0
100
AcDbTrace
 10
1346.72218695995
 20
527.4264926208836
 30
0.0
 11
1346.72218695995
 21
526.4264926208836
 31
0.0
 12
1349.72218695995
 22
526.9264926208836
 32
0.0
 13
1349.72218695995
 23
526.9264926208836
 33
0.0
  0
SOLID
  5
653C
330
5E92
100
AcDbEntity
  8
AM_5
370
     0
100
AcDbTrace
 10
1343.72218695995
 20
527.4264926208836
 30
0.0
 11
1343.72218695995
 21
526.4264926208836
 31
0.0
 12
1340.72218695995
 22
526.9264926208836
 32
0.0
 13
1340.72218695995
 23
526.9264926208836
 33
0.0
  0
MTEXT
  5
653D
330
5E92
100
AcDbEntity
  8
AM_5
100
AcDbMText
 10
1345.22218695995
 20
529.6764926208836
 30
0.0
 40
3.5
 41
0.0
 71
     5
 72
     1
  1
9
 73
     1
 44
1.0
1001
ACAD
1000
MTEXTBEGIN
1070
    73
1070
     1
1070
    44
1040
1.0
1070
    74
1070
     0
1000
MTEXTEND
  0
POINT
  5
653E
330
5E92
100
AcDbEntity
  8
Defpoints
 62
     0
370
     0
100
AcDbPoint
 10
1349.72218695995
 20
514.9264916208836
 30
0.0
  0
POINT
  5
653F
330
5E92
100
AcDbEntity
  8
Defpoints
 62
     0
370
     0
100
AcDbPoint
 10
1340.72218695995
 20
496.3018699621911
 30
0.0
  0
POINT
  5
6540
330
5E92
100
AcDbEntity
  8
Defpoints
 62
     0
370
     0
100
AcDbPoint
 10
1340.72218695995
 20
526.9264926208836
 30
0.0
  0
ENDBLK
  5
5E9D
330
5E92
100
AcDbEntity
  8
0
370
     0
100
AcDbBlockEnd
  0
BLOCK
  5
5EC8
330
5EBE
100
AcDbEntity
  8
0
370
     0
100
AcDbBlockBegin
  2
*D37
 70
     1
 10
0.0
 20
0.0
 30
0.0
  3
*D37
  1

  0
LINE
  5
6541
330
5EBE
100
AcDbEntity
  8
AM_5
100
AcDbLine
 10
1340.72218695995
 20
497.3018699621912
 30
0.0
 11
1340.72218695995
 21
527.9264926208838
 31
0.0
  0
LINE
  5
6542
330
5EBE
100
AcDbEntity
  8
AM_5
100
AcDbLine
 10
1311.72218695995
 20
473.7770294157725
 30
0.0
 11
1311.72218695995
 21
527.9264926208838
 31
0.0
  0
LINE
  5
6543
330
5EBE
100
AcDbEntity
  8
AM_5
100
AcDbLine
 10
1337.72218695995
 20
526.9264926208839
 30
0.0
 11
1314.72218695995
 21
526.9264926208839
 31
0.0
  0
SOLID
  5
6544
330
5EBE
100
AcDbEntity
  8
AM_5
370
     0
100
AcDbTrace
 10
1337.72218695995
 20
527.4264926208839
 30
0.0
 11
1337.72218695995
 21
526.4264926208839
 31
0.0
 12
1340.72218695995
 22
526.9264926208839
 32
0.0
 13
1340.72218695995
 23
526.9264926208839
 33
0.0
  0
SOLID
  5
6545
330
5EBE
100
AcDbEntity
  8
AM_5
370
     0
100
AcDbTrace
 10
1314.72218695995
 20
527.4264926208839
 30
0.0
 11
1314.72218695995
 21
526.4264926208839
 31
0.0
 12
1311.72218695995
 22
526.9264926208839
 32
0.0
 13
1311.72218695995
 23
526.9264926208839
 33
0.0
  0
MTEXT
  5
6546
330
5EBE
100
AcDbEntity
  8
AM_5
100
AcDbMText
 10
1326.22218695995
 20
529.6768371090728
 30
0.0
 40
3.5
 41
0.0
 71
     5
 72
     1
  1
29
 73
     1
 44
1.0
1001
ACAD
1000
MTEXTBEGIN
1070
    73
1070
     1
1070
    44
1040
1.0
1070
    74
1070
     0
1000
MTEXTEND
  0
POINT
  5
6547
330
5EBE
100
AcDbEntity
  8
Defpoints
 62
     0
370
     0
100
AcDbPoint
 10
1340.72218695995
 20
496.3018699621912
 30
0.0
  0
POINT
  5
6548
330
5EBE
100
AcDbEntity
  8
Defpoints
 62
     0
370
     0
100
AcDbPoint
 10
1311.72218695995
 20
472.7770294157726
 30
0.0
  0
POINT
  5
6549
330
5EBE
100
AcDbEntity
  8
Defpoints
 62
     0
370
     0
100
AcDbPoint
 10
1311.72218695995
 20
526.9264926208839
 30
0.0
  0
ENDBLK
  5
5EC9
330
5EBE
100
AcDbEntity
  8
0
370
     0
100
AcDbBlockEnd
  0
BLOCK
  5
5EF6
330
5EEA
100
AcDbEntity
  8
0
370
     0
100
AcDbBlockBegin
  2
*D38
 70
     1
 10
0.0
 20
0.0
 30
0.0
  3
*D38
  1

  0
LINE
  5
654A
330
5EEA
100
AcDbEntity
  8
AM_5
100
AcDbLine
 10
1274.22218695995
 20
521.7277618101056
 30
0.0
 11
1274.22218695995
 21
544.3642764615836
 31
0.0
  0
LINE
  5
654B
330
5EEA
100
AcDbEntity
  8
AM_5
100
AcDbLine
 10
1272.22218695995
 20
535.38801584795
 30
0.0
 11
1272.22218695995
 21
544.3642764615836
 31
0.0
  0
LINE
  5
654C
330
5EEA
100
AcDbEntity
  8
AM_5
100
AcDbLine
 10
1277.22218695995
 20
543.3642764615837
 30
0.0
 11
1280.22218695995
 21
543.3642764615837
 31
0.0
  0
LINE
  5
654D
330
5EEA
100
AcDbEntity
  8
AM_5
100
AcDbLine
 10
1269.22218695995
 20
543.3642764615837
 30
0.0
 11
1262.523102314281
 21
543.3642764615837
 31
0.0
  0
LINE
  5
654E
330
5EEA
100
AcDbEntity
  8
AM_5
100
AcDbLine
 10
1274.22218695995
 20
543.3642764615837
 30
0.0
 11
1272.22218695995
 21
543.3642764615837
 31
0.0
  0
SOLID
  5
654F
330
5EEA
100
AcDbEntity
  8
AM_5
370
     0
100
AcDbTrace
 10
1277.22218695995
 20
543.8642764615837
 30
0.0
 11
1277.22218695995
 21
542.8642764615837
 31
0.0
 12
1274.22218695995
 22
543.3642764615837
 32
0.0
 13
1274.22218695995
 23
543.3642764615837
 33
0.0
  0
SOLID
  5
6550
330
5EEA
100
AcDbEntity
  8
AM_5
370
     0
100
AcDbTrace
 10
1269.22218695995
 20
543.8642764615837
 30
0.0
 11
1269.22218695995
 21
542.8642764615837
 31
0.0
 12
1272.22218695995
 22
543.3642764615837
 32
0.0
 13
1272.22218695995
 23
543.3642764615837
 33
0.0
  0
MTEXT
  5
6551
330
5EEA
100
AcDbEntity
  8
AM_5
100
AcDbMText
 10
1264.372644637115
 20
546.1146209497726
 30
0.0
 40
3.5
 41
0.0
 71
     5
 72
     1
  1
2
 73
     1
 44
1.0
1001
ACAD
1000
MTEXTBEGIN
1070
    73
1070
     1
1070
    44
1040
1.0
1070
    74
1070
     0
1000
MTEXTEND
  0
POINT
  5
6552
330
5EEA
100
AcDbEntity
  8
Defpoints
 62
     0
370
     0
100
AcDbPoint
 10
1274.22218695995
 20
520.7277618101056
 30
0.0
  0
POINT
  5
6553
330
5EEA
100
AcDbEntity
  8
Defpoints
 62
     0
370
     0
100
AcDbPoint
 10
1272.22218695995
 20
534.3880158479501
 30
0.0
  0
POINT
  5
6554
330
5EEA
100
AcDbEntity
  8
Defpoints
 62
     0
370
     0
100
AcDbPoint
 10
1272.22218695995
 20
543.3642764615837
 30
0.0
  0
ENDBLK
  5
5EF7
330
5EEA
100
AcDbEntity
  8
0
370
     0
100
AcDbBlockEnd
  0
BLOCK
  5
5F22
330
5F16
100
AcDbEntity
  8
0
370
     0
100
AcDbBlockBegin
  2
*D39
 70
     1
 10
0.0
 20
0.0
 30
0.0
  3
*D39
  1

  0
LINE
  5
6555
330
5F16
100
AcDbEntity
  8
AM_5
100
AcDbLine
 10
1275.22218695995
 20
520.6402334592945
 30
0.0
 11
1275.22218695995
 21
550.864276461583
 31
0.0
  0
LINE
  5
6556
330
5F16
100
AcDbEntity
  8
AM_5
100
AcDbLine
 10
1272.22218695995
 20
535.38801584795
 30
0.0
 11
1272.22218695995
 21
550.864276461583
 31
0.0
  0
LINE
  5
6557
330
5F16
100
AcDbEntity
  8
AM_5
100
AcDbLine
 10
1278.22218695995
 20
549.864276461583
 30
0.0
 11
1281.22218695995
 21
549.864276461583
 31
0.0
  0
LINE
  5
6558
330
5F16
100
AcDbEntity
  8
AM_5
100
AcDbLine
 10
1269.22218695995
 20
549.864276461583
 30
0.0
 11
1262.67721221312
 21
549.864276461583
 31
0.0
  0
LINE
  5
6559
330
5F16
100
AcDbEntity
  8
AM_5
100
AcDbLine
 10
1275.22218695995
 20
549.864276461583
 30
0.0
 11
1272.22218695995
 21
549.864276461583
 31
0.0
  0
SOLID
  5
655A
330
5F16
100
AcDbEntity
  8
AM_5
370
     0
100
AcDbTrace
 10
1278.22218695995
 20
550.364276461583
 30
0.0
 11
1278.22218695995
 21
549.364276461583
 31
0.0
 12
1275.22218695995
 22
549.864276461583
 32
0.0
 13
1275.22218695995
 23
549.864276461583
 33
0.0
  0
SOLID
  5
655B
330
5F16
100
AcDbEntity
  8
AM_5
370
     0
100
AcDbTrace
 10
1269.22218695995
 20
550.364276461583
 30
0.0
 11
1269.22218695995
 21
549.364276461583
 31
0.0
 12
1272.22218695995
 22
549.864276461583
 32
0.0
 13
1272.22218695995
 23
549.864276461583
 33
0.0
  0
MTEXT
  5
655C
330
5F16
100
AcDbEntity
  8
AM_5
100
AcDbMText
 10
1264.449699586535
 20
552.614276461583
 30
0.0
 40
3.5
 41
0.0
 71
     5
 72
     1
  1
3
 73
     1
 44
1.0
1001
ACAD
1000
MTEXTBEGIN
1070
    73
1070
     1
1070
    44
1040
1.0
1070
    74
1070
     0
1000
MTEXTEND
  0
POINT
  5
655D
330
5F16
100
AcDbEntity
  8
Defpoints
 62
     0
370
     0
100
AcDbPoint
 10
1275.22218695995
 20
519.6402334592945
 30
0.0
  0
POINT
  5
655E
330
5F16
100
AcDbEntity
  8
Defpoints
 62
     0
370
     0
100
AcDbPoint
 10
1272.22218695995
 20
534.3880158479501
 30
0.0
  0
POINT
  5
655F
330
5F16
100
AcDbEntity
  8
Defpoints
 62
     0
370
     0
100
AcDbPoint
 10
1272.22218695995
 20
549.864276461583
 30
0.0
  0
ENDBLK
  5
5F23
330
5F16
100
AcDbEntity
  8
0
370
     0
100
AcDbBlockEnd
  0
BLOCK
  5
5F4C
330
5F42
100
AcDbEntity
  8
0
370
     0
100
AcDbBlockBegin
  2
*D40
 70
     1
 10
0.0
 20
0.0
 30
0.0
  3
*D40
  1

  0
LINE
  5
5F57
330
5F42
100
AcDbEntity
  8
AM_5
100
AcDbLine
 10
1349.72218695995
 20
372.0843152594294
 30
0.0
 11
1349.72218695995
 21
384.0843152594294
 31
0.0
  0
LINE
  5
5F58
330
5F42
100
AcDbEntity
  8
AM_5
100
AcDbLine
 10
1272.22218695995
 20
371.4144422783513
 30
0.0
 11
1272.22218695995
 21
384.0843152594294
 31
0.0
  0
LINE
  5
5F59
330
5F42
100
AcDbEntity
  8
AM_5
100
AcDbLine
 10
1346.72218695995
 20
383.0843152594294
 30
0.0
 11
1275.22218695995
 21
383.0843152594294
 31
0.0
  0
SOLID
  5
5F5A
330
5F42
100
AcDbEntity
  8
AM_5
370
     0
100
AcDbTrace
 10
1346.72218695995
 20
383.5843152594295
 30
0.0
 11
1346.72218695995
 21
382.5843152594294
 31
0.0
 12
1349.72218695995
 22
383.0843152594294
 32
0.0
 13
1349.72218695995
 23
383.0843152594294
 33
0.0
  0
SOLID
  5
5F5B
330
5F42
100
AcDbEntity
  8
AM_5
370
     0
100
AcDbTrace
 10
1275.22218695995
 20
383.5843152594295
 30
0.0
 11
1275.22218695995
 21
382.5843152594294
 31
0.0
 12
1272.22218695995
 22
383.0843152594294
 32
0.0
 13
1272.22218695995
 23
383.0843152594294
 33
0.0
  0
MTEXT
  5
5F5C
330
5F42
100
AcDbEntity
  8
AM_5
100
AcDbMText
 10
1310.97218695995
 20
386.0093152594295
 30
0.0
 40
3.5
 41
0.0
 71
     5
 72
     1
  1
(77.5)
 73
     1
 44
1.0
1001
ACAD
1000
MTEXTBEGIN
1070
    73
1070
     1
1070
    44
1040
1.0
1070
    74
1070
     0
1000
MTEXTEND
  0
POINT
  5
5F5D
330
5F42
100
AcDbEntity
  8
Defpoints
 62
     0
370
     0
100
AcDbPoint
 10
1349.72218695995
 20
371.0843152594295
 30
0.0
  0
POINT
  5
5F5E
330
5F42
100
AcDbEntity
  8
Defpoints
 62
     0
370
     0
100
AcDbPoint
 10
1272.22218695995
 20
370.4144422783512
 30
0.0
  0
POINT
  5
5F5F
330
5F42
100
AcDbEntity
  8
Defpoints
 62
     0
370
     0
100
AcDbPoint
 10
1272.22218695995
 20
383.0843152594294
 30
0.0
  0
ENDBLK
  5
5F4D
330
5F42
100
AcDbEntity
  8
0
370
     0
100
AcDbBlockEnd
  0
BLOCK
  5
5F7D
330
5F73
100
AcDbEntity
  8
0
370
     0
100
AcDbBlockBegin
  2
*D41
 70
     1
 10
0.0
 20
0.0
 30
0.0
  3
*D41
  1

  0
LINE
  5
602B
330
5F73
100
AcDbEntity
  8
AM_5
100
AcDbLine
 10
1349.72218695995
 20
300.0843152594294
 30
0.0
 11
1349.72218695995
 21
263.0843152594295
 31
0.0
  0
LINE
  5
602C
330
5F73
100
AcDbEntity
  8
AM_5
100
AcDbLine
 10
1303.22218695995
 20
283.0843152594294
 30
0.0
 11
1303.22218695995
 21
263.0843152594295
 31
0.0
  0
LINE
  5
602D
330
5F73
100
AcDbEntity
  8
AM_5
100
AcDbLine
 10
1346.72218695995
 20
264.0843152594294
 30
0.0
 11
1306.22218695995
 21
264.0843152594294
 31
0.0
  0
SOLID
  5
602E
330
5F73
100
AcDbEntity
  8
AM_5
370
     0
100
AcDbTrace
 10
1346.72218695995
 20
264.5843152594295
 30
0.0
 11
1346.72218695995
 21
263.5843152594294
 31
0.0
 12
1349.72218695995
 22
264.0843152594294
 32
0.0
 13
1349.72218695995
 23
264.0843152594294
 33
0.0
  0
SOLID
  5
602F
330
5F73
100
AcDbEntity
  8
AM_5
370
     0
100
AcDbTrace
 10
1306.22218695995
 20
264.5843152594295
 30
0.0
 11
1306.22218695995
 21
263.5843152594294
 31
0.0
 12
1303.22218695995
 22
264.0843152594294
 32
0.0
 13
1303.22218695995
 23
264.0843152594294
 33
0.0
  0
MTEXT
  5
6030
330
5F73
100
AcDbEntity
  8
AM_5
100
AcDbMText
 10
1326.47218695995
 20
266.8343152594295
 30
0.0
 40
3.5
 41
0.0
 71
     5
 72
     1
  1
46.5
 73
     1
 44
1.0
1001
ACAD
1000
MTEXTBEGIN
1070
    73
1070
     1
1070
    44
1040
1.0
1070
    74
1070
     0
1000
MTEXTEND
  0
POINT
  5
6031
330
5F73
100
AcDbEntity
  8
Defpoints
 62
     0
370
     0
100
AcDbPoint
 10
1349.72218695995
 20
301.0843152594294
 30
0.0
  0
POINT
  5
6032
330
5F73
100
AcDbEntity
  8
Defpoints
 62
     0
370
     0
100
AcDbPoint
 10
1303.22218695995
 20
284.0843152594294
 30
0.0
  0
POINT
  5
6033
330
5F73
100
AcDbEntity
  8
Defpoints
 62
     0
370
     0
100
AcDbPoint
 10
1303.22218695995
 20
264.0843152594294
 30
0.0
  0
ENDBLK
  5
5F7E
330
5F73
100
AcDbEntity
  8
0
370
     0
100
AcDbBlockEnd
  0
BLOCK
  5
5F9C
330
5F92
100
AcDbEntity
  8
0
370
     0
100
AcDbBlockBegin
  2
*D42
 70
     1
 10
0.0
 20
0.0
 30
0.0
  3
*D42
  1

  0
LINE
  5
6022
330
5F92
100
AcDbEntity
  8
AM_5
100
AcDbLine
 10
1349.72218695995
 20
300.0843152594294
 30
0.0
 11
1349.72218695995
 21
256.5843152594295
 31
0.0
  0
LINE
  5
6023
330
5F92
100
AcDbEntity
  8
AM_5
100
AcDbLine
 10
1298.42218695995
 20
275.0843152594294
 30
0.0
 11
1298.42218695995
 21
256.5843152594295
 31
0.0
  0
LINE
  5
6024
330
5F92
100
AcDbEntity
  8
AM_5
100
AcDbLine
 10
1346.72218695995
 20
257.5843152594295
 30
0.0
 11
1301.42218695995
 21
257.5843152594295
 31
0.0
  0
SOLID
  5
6025
330
5F92
100
AcDbEntity
  8
AM_5
370
     0
100
AcDbTrace
 10
1346.72218695995
 20
258.0843152594295
 30
0.0
 11
1346.72218695995
 21
257.0843152594295
 31
0.0
 12
1349.72218695995
 22
257.5843152594295
 32
0.0
 13
1349.72218695995
 23
257.5843152594295
 33
0.0
  0
SOLID
  5
6026
330
5F92
100
AcDbEntity
  8
AM_5
370
     0
100
AcDbTrace
 10
1301.42218695995
 20
258.0843152594295
 30
0.0
 11
1301.42218695995
 21
257.0843152594295
 31
0.0
 12
1298.42218695995
 22
257.5843152594295
 32
0.0
 13
1298.42218695995
 23
257.5843152594295
 33
0.0
  0
MTEXT
  5
6027
330
5F92
100
AcDbEntity
  8
AM_5
100
AcDbMText
 10
1324.07218695995
 20
260.3343152594295
 30
0.0
 40
3.5
 41
0.0
 71
     5
 72
     1
  1
51.3
 73
     1
 44
1.0
1001
ACAD
1000
MTEXTBEGIN
1070
    73
1070
     1
1070
    44
1040
1.0
1070
    74
1070
     0
1000
MTEXTEND
  0
POINT
  5
6028
330
5F92
100
AcDbEntity
  8
Defpoints
 62
     0
370
     0
100
AcDbPoint
 10
1349.72218695995
 20
301.0843152594294
 30
0.0
  0
POINT
  5
6029
330
5F92
100
AcDbEntity
  8
Defpoints
 62
     0
370
     0
100
AcDbPoint
 10
1298.42218695995
 20
276.0843152594294
 30
0.0
  0
POINT
  5
602A
330
5F92
100
AcDbEntity
  8
Defpoints
 62
     0
370
     0
100
AcDbPoint
 10
1298.42218695995
 20
257.5843152594295
 30
0.0
  0
ENDBLK
  5
5F9D
330
5F92
100
AcDbEntity
  8
0
370
     0
100
AcDbBlockEnd
  0
BLOCK
  5
6012
330
6006
100
AcDbEntity
  8
0
370
     0
100
AcDbBlockBegin
  2
*D43
 70
     1
 10
0.0
 20
0.0
 30
0.0
  3
*D43
  1

  0
LINE
  5
6014
330
6006
100
AcDbEntity
  8
AM_5
100
AcDbLine
 10
1288.72218695995
 20
275.0843152594294
 30
0.0
 11
1288.72218695995
 21
263.0843152594293
 31
0.0
  0
LINE
  5
6015
330
6006
100
AcDbEntity
  8
AM_5
100
AcDbLine
 10
1280.72218695995
 20
275.0843152594293
 30
0.0
 11
1280.72218695995
 21
263.0843152594293
 31
0.0
  0
LINE
  5
6016
330
6006
100
AcDbEntity
  8
AM_5
100
AcDbLine
 10
1291.722186959949
 20
264.0843152594293
 30
0.0
 11
1294.72218695995
 21
264.0843152594293
 31
0.0
  0
LINE
  5
6017
330
6006
100
AcDbEntity
  8
AM_5
100
AcDbLine
 10
1277.72218695995
 20
264.0843152594293
 30
0.0
 11
1274.72218695995
 21
264.0843152594293
 31
0.0
  0
LINE
  5
6018
330
6006
100
AcDbEntity
  8
AM_5
100
AcDbLine
 10
1288.72218695995
 20
264.0843152594293
 30
0.0
 11
1280.72218695995
 21
264.0843152594293
 31
0.0
  0
SOLID
  5
6019
330
6006
100
AcDbEntity
  8
AM_5
370
     0
100
AcDbTrace
 10
1291.722186959949
 20
264.5843152594293
 30
0.0
 11
1291.722186959949
 21
263.5843152594293
 31
0.0
 12
1288.72218695995
 22
264.0843152594293
 32
0.0
 13
1288.72218695995
 23
264.0843152594293
 33
0.0
  0
SOLID
  5
601A
330
6006
100
AcDbEntity
  8
AM_5
370
     0
100
AcDbTrace
 10
1277.72218695995
 20
264.5843152594293
 30
0.0
 11
1277.72218695995
 21
263.5843152594293
 31
0.0
 12
1280.72218695995
 22
264.0843152594293
 32
0.0
 13
1280.72218695995
 23
264.0843152594293
 33
0.0
  0
MTEXT
  5
601B
330
6006
100
AcDbEntity
  8
AM_5
100
AcDbMText
 10
1284.72218695995
 20
266.8343152594293
 30
0.0
 40
3.5
 41
0.0
 71
     5
 72
     1
  1
8
 73
     1
 44
1.0
1001
ACAD
1000
MTEXTBEGIN
1070
    73
1070
     1
1070
    44
1040
1.0
1070
    74
1070
     0
1000
MTEXTEND
  0
POINT
  5
601C
330
6006
100
AcDbEntity
  8
Defpoints
 62
     0
370
     0
100
AcDbPoint
 10
1288.72218695995
 20
276.0843152594294
 30
0.0
  0
POINT
  5
601D
330
6006
100
AcDbEntity
  8
Defpoints
 62
     0
370
     0
100
AcDbPoint
 10
1280.72218695995
 20
276.0843152594293
 30
0.0
  0
POINT
  5
601E
330
6006
100
AcDbEntity
  8
Defpoints
 62
     0
370
     0
100
AcDbPoint
 10
1280.72218695995
 20
264.0843152594293
 30
0.0
  0
ENDBLK
  5
6013
330
6006
100
AcDbEntity
  8
0
370
     0
100
AcDbBlockEnd
  0
BLOCK
  5
6049
330
603F
100
AcDbEntity
  8
0
370
     0
100
AcDbBlockBegin
  2
*D44
 70
     1
 10
0.0
 20
0.0
 30
0.0
  3
*D44
  1

  0
LINE
  5
604B
330
603F
100
AcDbEntity
  8
AM_5
100
AcDbLine
 10
1280.72218695995
 20
275.0843152594293
 30
0.0
 11
1280.72218695995
 21
256.5843152594295
 31
0.0
  0
LINE
  5
604C
330
603F
100
AcDbEntity
  8
AM_5
100
AcDbLine
 10
1298.42218695995
 20
275.0843152594294
 30
0.0
 11
1298.42218695995
 21
256.5843152594295
 31
0.0
  0
LINE
  5
604D
330
603F
100
AcDbEntity
  8
AM_5
100
AcDbLine
 10
1283.722186959949
 20
257.5843152594295
 30
0.0
 11
1295.42218695995
 21
257.5843152594295
 31
0.0
  0
SOLID
  5
604E
330
603F
100
AcDbEntity
  8
AM_5
370
     0
100
AcDbTrace
 10
1283.722186959949
 20
258.0843152594295
 30
0.0
 11
1283.722186959949
 21
257.0843152594295
 31
0.0
 12
1280.72218695995
 22
257.5843152594295
 32
0.0
 13
1280.72218695995
 23
257.5843152594295
 33
0.0
  0
SOLID
  5
604F
330
603F
100
AcDbEntity
  8
AM_5
370
     0
100
AcDbTrace
 10
1295.42218695995
 20
258.0843152594295
 30
0.0
 11
1295.42218695995
 21
257.0843152594295
 31
0.0
 12
1298.42218695995
 22
257.5843152594295
 32
0.0
 13
1298.42218695995
 23
257.5843152594295
 33
0.0
  0
MTEXT
  5
6050
330
603F
100
AcDbEntity
  8
AM_5
100
AcDbMText
 10
1289.57218695995
 20
260.3343152594295
 30
0.0
 40
3.5
 41
0.0
 71
     5
 72
     1
  1
17.7
 73
     1
 44
1.0
1001
ACAD
1000
MTEXTBEGIN
1070
    73
1070
     1
1070
    44
1040
1.0
1070
    74
1070
     0
1000
MTEXTEND
  0
POINT
  5
6051
330
603F
100
AcDbEntity
  8
Defpoints
 62
     0
370
     0
100
AcDbPoint
 10
1280.72218695995
 20
276.0843152594293
 30
0.0
  0
POINT
  5
6052
330
603F
100
AcDbEntity
  8
Defpoints
 62
     0
370
     0
100
AcDbPoint
 10
1298.42218695995
 20
276.0843152594294
 30
0.0
  0
POINT
  5
6053
330
603F
100
AcDbEntity
  8
Defpoints
 62
     0
370
     0
100
AcDbPoint
 10
1298.42218695995
 20
257.5843152594295
 30
0.0
  0
ENDBLK
  5
604A
330
603F
100
AcDbEntity
  8
0
370
     0
100
AcDbBlockEnd
  0
BLOCK
  5
6077
330
606D
100
AcDbEntity
  8
0
370
     0
100
AcDbBlockBegin
  2
*D45
 70
     1
 10
0.0
 20
0.0
 30
0.0
  3
*D45
  1

  0
LINE
  5
608B
330
606D
100
AcDbEntity
  8
AM_5
100
AcDbLine
 10
1271.22218695995
 20
300.0843152594294
 30
0.0
 11
1259.22218695995
 21
300.0843152594294
 31
0.0
  0
LINE
  5
608C
330
606D
100
AcDbEntity
  8
AM_5
100
AcDbLine
 10
1271.22218695995
 20
290.0843152594293
 30
0.0
 11
1259.22218695995
 21
290.0843152594293
 31
0.0
  0
LINE
  5
608D
330
606D
100
AcDbEntity
  8
AM_5
100
AcDbLine
 10
1260.22218695995
 20
297.0843152594294
 30
0.0
 11
1260.22218695995
 21
293.0843152594293
 31
0.0
  0
SOLID
  5
608E
330
606D
100
AcDbEntity
  8
AM_5
370
     0
100
AcDbTrace
 10
1259.722186959949
 20
297.0843152594294
 30
0.0
 11
1260.72218695995
 21
297.0843152594294
 31
0.0
 12
1260.22218695995
 22
300.0843152594294
 32
0.0
 13
1260.22218695995
 23
300.0843152594294
 33
0.0
  0
SOLID
  5
608F
330
606D
100
AcDbEntity
  8
AM_5
370
     0
100
AcDbTrace
 10
1259.722186959949
 20
293.0843152594293
 30
0.0
 11
1260.72218695995
 21
293.0843152594293
 31
0.0
 12
1260.22218695995
 22
290.0843152594293
 32
0.0
 13
1260.22218695995
 23
290.0843152594293
 33
0.0
  0
MTEXT
  5
6090
330
606D
100
AcDbEntity
  8
AM_5
100
AcDbMText
 10
1257.47218695995
 20
295.0843152594296
 30
0.0
 40
3.5
 41
0.0
 71
     5
 72
     1
  1
10
 11
0.0000000000000001
 21
1.0
 31
0.0
 73
     1
 44
1.0
1001
ACAD
1000
MTEXTBEGIN
1070
    73
1070
     1
1070
    44
1040
1.0
1070
    74
1070
     0
1000
MTEXTEND
  0
POINT
  5
6091
330
606D
100
AcDbEntity
  8
Defpoints
 62
     0
370
     0
100
AcDbPoint
 10
1272.22218695995
 20
300.0843152594294
 30
0.0
  0
POINT
  5
6092
330
606D
100
AcDbEntity
  8
Defpoints
 62
     0
370
     0
100
AcDbPoint
 10
1272.22218695995
 20
290.0843152594293
 30
0.0
  0
POINT
  5
6093
330
606D
100
AcDbEntity
  8
Defpoints
 62
     0
370
     0
100
AcDbPoint
 10
1260.22218695995
 20
290.0843152594293
 30
0.0
  0
ENDBLK
  5
6078
330
606D
100
AcDbEntity
  8
0
370
     0
100
AcDbBlockEnd
  0
BLOCK
  5
60A1
330
6095
100
AcDbEntity
  8
0
370
     0
100
AcDbBlockBegin
  2
*D46
 70
     1
 10
0.0
 20
0.0
 30
0.0
  3
*D46
  1

  0
LINE
  5
60A3
330
6095
100
AcDbEntity
  8
AM_5
100
AcDbLine
 10
1271.22218695995
 20
290.0843152594293
 30
0.0
 11
1259.22218695995
 21
290.0843152594293
 31
0.0
  0
LINE
  5
60A4
330
6095
100
AcDbEntity
  8
AM_5
100
AcDbLine
 10
1271.22218695995
 20
286.0843152594294
 30
0.0
 11
1259.22218695995
 21
286.0843152594294
 31
0.0
  0
LINE
  5
60A5
330
6095
100
AcDbEntity
  8
AM_5
100
AcDbLine
 10
1260.22218695995
 20
293.0843152594293
 30
0.0
 11
1260.22218695995
 21
296.0843152594293
 31
0.0
  0
LINE
  5
60A6
330
6095
100
AcDbEntity
  8
AM_5
100
AcDbLine
 10
1260.22218695995
 20
283.0843152594294
 30
0.0
 11
1260.22218695995
 21
280.0843152594294
 31
0.0
  0
LINE
  5
60A7
330
6095
100
AcDbEntity
  8
AM_5
100
AcDbLine
 10
1260.22218695995
 20
290.0843152594293
 30
0.0
 11
1260.22218695995
 21
286.0843152594294
 31
0.0
  0
SOLID
  5
60A8
330
6095
100
AcDbEntity
  8
AM_5
370
     0
100
AcDbTrace
 10
1259.722186959949
 20
293.0843152594293
 30
0.0
 11
1260.72218695995
 21
293.0843152594293
 31
0.0
 12
1260.22218695995
 22
290.0843152594293
 32
0.0
 13
1260.22218695995
 23
290.0843152594293
 33
0.0
  0
SOLID
  5
60A9
330
6095
100
AcDbEntity
  8
AM_5
370
     0
100
AcDbTrace
 10
1259.722186959949
 20
283.0843152594294
 30
0.0
 11
1260.72218695995
 21
283.0843152594294
 31
0.0
 12
1260.22218695995
 22
286.0843152594294
 32
0.0
 13
1260.22218695995
 23
286.0843152594294
 33
0.0
  0
MTEXT
  5
60AA
330
6095
100
AcDbEntity
  8
AM_5
100
AcDbMText
 10
1257.47218695995
 20
288.0843152594295
 30
0.0
 40
3.5
 41
0.0
 71
     5
 72
     1
  1
4
 11
0.0000000000000001
 21
1.0
 31
0.0
 73
     1
 44
1.0
1001
ACAD
1000
MTEXTBEGIN
1070
    73
1070
     1
1070
    44
1040
1.0
1070
    74
1070
     0
1000
MTEXTEND
  0
POINT
  5
60AB
330
6095
100
AcDbEntity
  8
Defpoints
 62
     0
370
     0
100
AcDbPoint
 10
1272.22218695995
 20
290.0843152594293
 30
0.0
  0
POINT
  5
60AC
330
6095
100
AcDbEntity
  8
Defpoints
 62
     0
370
     0
100
AcDbPoint
 10
1272.22218695995
 20
286.0843152594294
 30
0.0
  0
POINT
  5
60AD
330
6095
100
AcDbEntity
  8
Defpoints
 62
     0
370
     0
100
AcDbPoint
 10
1260.22218695995
 20
286.0843152594294
 30
0.0
  0
ENDBLK
  5
60A2
330
6095
100
AcDbEntity
  8
0
370
     0
100
AcDbBlockEnd
  0
BLOCK
  5
60CF
330
60C5
100
AcDbEntity
  8
0
370
     0
100
AcDbBlockBegin
  2
*D47
 70
     1
 10
0.0
 20
0.0
 30
0.0
  3
*D47
  1

  0
LINE
  5
60D1
330
60C5
100
AcDbEntity
  8
AM_5
100
AcDbLine
 10
1266.825693900883
 20
336.0843152594295
 30
0.0
 11
1252.722186959949
 21
336.0843152594295
 31
0.0
  0
LINE
  5
60D2
330
60C5
100
AcDbEntity
  8
AM_5
100
AcDbLine
 10
1271.22218695995
 20
276.0843152594294
 30
0.0
 11
1252.722186959949
 21
276.0843152594294
 31
0.0
  0
LINE
  5
60D3
330
60C5
100
AcDbEntity
  8
AM_5
100
AcDbLine
 10
1253.722186959949
 20
333.0843152594294
 30
0.0
 11
1253.722186959949
 21
279.0843152594294
 31
0.0
  0
SOLID
  5
60D4
330
60C5
100
AcDbEntity
  8
AM_5
370
     0
100
AcDbTrace
 10
1253.22218695995
 20
333.0843152594294
 30
0.0
 11
1254.222186959949
 21
333.0843152594294
 31
0.0
 12
1253.722186959949
 22
336.0843152594295
 32
0.0
 13
1253.722186959949
 23
336.0843152594295
 33
0.0
  0
SOLID
  5
60D5
330
60C5
100
AcDbEntity
  8
AM_5
370
     0
100
AcDbTrace
 10
1253.22218695995
 20
279.0843152594294
 30
0.0
 11
1254.222186959949
 21
279.0843152594294
 31
0.0
 12
1253.722186959949
 22
276.0843152594294
 32
0.0
 13
1253.722186959949
 23
276.0843152594294
 33
0.0
  0
MTEXT
  5
60D6
330
60C5
100
AcDbEntity
  8
AM_5
100
AcDbMText
 10
1250.972186959949
 20
306.0843152594296
 30
0.0
 40
3.5
 41
0.0
 71
     5
 72
     1
  1
60
 11
0.0000000000000001
 21
1.0
 31
0.0
 73
     1
 44
1.0
1001
ACAD
1000
MTEXTBEGIN
1070
    73
1070
     1
1070
    44
1040
1.0
1070
    74
1070
     0
1000
MTEXTEND
  0
POINT
  5
60D7
330
60C5
100
AcDbEntity
  8
Defpoints
 62
     0
370
     0
100
AcDbPoint
 10
1267.825693900883
 20
336.0843152594295
 30
0.0
  0
POINT
  5
60D8
330
60C5
100
AcDbEntity
  8
Defpoints
 62
     0
370
     0
100
AcDbPoint
 10
1272.22218695995
 20
276.0843152594294
 30
0.0
  0
POINT
  5
60D9
330
60C5
100
AcDbEntity
  8
Defpoints
 62
     0
370
     0
100
AcDbPoint
 10
1253.722186959949
 20
276.0843152594294
 30
0.0
  0
ENDBLK
  5
60D0
330
60C5
100
AcDbEntity
  8
0
370
     0
100
AcDbBlockEnd
  0
BLOCK
  5
61CC
330
61C6
100
AcDbEntity
  8
0
370
     0
100
AcDbBlockBegin
  2
*D48
 70
     1
 10
0.0
 20
0.0
 30
0.0
  3
*D48
  1

  0
LINE
  5
61F1
330
61C6
100
AcDbEntity
  8
AM_5
100
AcDbLine
 10
1444.294411053604
 20
368.2761255017803
 30
0.0
 11
1430.651545052937
 21
382.0434032270867
 31
0.0
  0
LINE
  5
61F2
330
61C6
100
AcDbEntity
  8
AM_5
100
AcDbLine
 10
1430.651545052937
 20
382.0434032270867
 30
0.0
 11
1407.47469214946
 21
382.0434032270869
 31
0.0
  0
SOLID
  5
61F3
330
61C6
100
AcDbEntity
  8
AM_5
370
     0
100
AcDbTrace
 10
1444.649565527054
 20
368.6280705258798
 30
0.0
 11
1443.939256580154
 21
367.9241804776808
 31
0.0
 12
1446.406081198201
 22
366.1451986610797
 32
0.0
 13
1446.406081198201
 23
366.1451986610797
 33
0.0
  0
MTEXT
  5
61F4
330
61C6
100
AcDbEntity
  8
AM_5
100
AcDbMText
 10
1418.563118601199
 20
385.230903227087
 30
0.0
 40
3.5
 41
0.0
 71
     5
 72
     1
  1
\U+22054*4depth
 73
     1
 44
1.0
1001
ACAD
1000
MTEXTBEGIN
1070
    73
1070
     1
1070
    44
1040
1.0
1070
    74
1070
     0
1000
MTEXTEND
  0
POINT
  5
61F5
330
61C6
100
AcDbEntity
  8
Defpoints
 62
     0
370
     0
100
AcDbPoint
 10
1446.406081198201
 20
366.1451986610797
 30
0.0
  0
POINT
  5
61F6
330
61C6
100
AcDbEntity
  8
Defpoints
 62
     0
370
     0
100
AcDbPoint
 10
1449.221641390997
 20
363.3039628734788
 30
0.0
  0
ENDBLK
  5
61CD
330
61C6
100
AcDbEntity
  8
0
370
     0
100
AcDbBlockEnd
  0
BLOCK
  5
6215
330
620F
100
AcDbEntity
  8
0
370
     0
100
AcDbBlockBegin
  2
*D50
 70
     1
 10
0.0
 20
0.0
 30
0.0
  3
*D50
  1

  0
LINE
  5
623D
330
620F
100
AcDbEntity
  8
AM_5
100
AcDbLine
 10
1437.287777737223
 20
354.5158260663923
 30
0.0
 11
1434.971646361979
 21
356.4225340809056
 31
0.0
  0
LINE
  5
623E
330
620F
100
AcDbEntity
  8
AM_5
100
AcDbLine
 10
1482.066317658611
 20
317.6528044524666
 30
0.0
 11
1496.182607347118
 21
306.0318562748474
 31
0.0
  0
LINE
  5
623F
330
620F
100
AcDbEntity
  8
AM_5
100
AcDbLine
 10
1496.182607347118
 20
306.0318562748474
 30
0.0
 11
1521.109460250595
 21
306.0318562748475
 31
0.0
  0
LINE
  5
6240
330
620F
100
AcDbEntity
  8
AM_5
100
AcDbLine
 10
1439.603909112467
 20
352.6091180518789
 30
0.0
 11
1479.750186283367
 21
319.55951246698
 31
0.0
  0
SOLID
  5
6241
330
620F
100
AcDbEntity
  8
AM_5
370
     0
100
AcDbTrace
 10
1437.605562406309
 20
354.9018479622663
 30
0.0
 11
1436.969993068138
 21
354.1298041705183
 31
0.0
 12
1439.603909112467
 22
352.6091180518789
 32
0.0
 13
1439.603909112467
 23
352.6091180518789
 33
0.0
  0
SOLID
  5
6242
330
620F
100
AcDbEntity
  8
AM_5
370
     0
100
AcDbTrace
 10
1482.384102327696
 20
318.0388263483406
 30
0.0
 11
1481.748532989525
 21
317.2667825565926
 31
0.0
 12
1479.750186283367
 22
319.55951246698
 32
0.0
 13
1479.750186283367
 23
319.55951246698
 33
0.0
  0
MTEXT
  5
6243
330
620F
100
AcDbEntity
  8
AM_5
100
AcDbMText
 10
1509.146033798857
 20
309.2197007630367
 30
0.0
 40
3.5
 41
0.0
 71
     5
 72
     1
  1
\U+220552*2depth
 73
     1
 44
1.0
1001
ACAD
1000
MTEXTBEGIN
1070
    73
1070
     1
1070
    44
1040
1.0
1070
    74
1070
     0
1000
MTEXTEND
  0
POINT
  5
6244
330
620F
100
AcDbEntity
  8
Defpoints
 62
     0
370
     0
100
AcDbPoint
 10
1479.750186283367
 20
319.55951246698
 30
0.0
  0
POINT
  5
6245
330
620F
100
AcDbEntity
  8
Defpoints
 62
     0
370
     0
100
AcDbPoint
 10
1439.603909112467
 20
352.6091180518789
 30
0.0
  0
ENDBLK
  5
6216
330
620F
100
AcDbEntity
  8
0
370
     0
100
AcDbBlockEnd
  0
BLOCK
  5
6274
330
6268
100
AcDbEntity
  8
0
370
     0
100
AcDbBlockBegin
  2
*D51
 70
     1
 10
0.0
 20
0.0
 30
0.0
  3
*D51
  1

  0
LINE
  5
628E
330
6268
100
AcDbEntity
  8
AM_5
100
AcDbLine
 10
1469.468304271627
 20
309.8330049167481
 30
0.0
 11
1415.459575663765
 21
287.4618570408399
 31
0.0
  0
LINE
  5
628F
330
6268
100
AcDbEntity
  8
AM_5
100
AcDbLine
 10
1471.764404865818
 20
304.2897277216807
 30
0.0
 11
1417.755676257957
 21
281.9185798457723
 31
0.0
  0
LINE
  5
6290
330
6268
100
AcDbEntity
  8
AM_5
100
AcDbLine
 10
1415.235404899181
 20
290.6161790707388
 30
0.0
 11
1414.087354602086
 21
293.3878176682725
 31
0.0
  0
LINE
  5
6291
330
6268
100
AcDbEntity
  8
AM_5
100
AcDbLine
 10
1419.827606087563
 20
279.5296246806037
 30
0.0
 11
1420.975656384659
 21
276.7579860830699
 31
0.0
  0
LINE
  5
6292
330
6268
100
AcDbEntity
  8
AM_5
100
AcDbLine
 10
1416.383455196277
 20
287.844540473205
 30
0.0
 11
1418.679555790468
 21
282.3012632781375
 31
0.0
  0
SOLID
  5
6293
330
6268
100
AcDbEntity
  8
AM_5
370
     0
100
AcDbTrace
 10
1415.697344665437
 20
290.8075207869213
 30
0.0
 11
1414.773465132926
 21
290.4248373545562
 31
0.0
 12
1416.383455196277
 22
287.844540473205
 32
0.0
 13
1416.383455196277
 23
287.844540473205
 33
0.0
  0
SOLID
  5
6294
330
6268
100
AcDbEntity
  8
AM_5
370
     0
100
AcDbTrace
 10
1420.289545853819
 20
279.7209663967863
 30
0.0
 11
1419.365666321308
 21
279.3382829644211
 31
0.0
 12
1418.679555790468
 22
282.3012632781375
 32
0.0
 13
1418.679555790468
 23
282.3012632781375
 33
0.0
  0
MTEXT
  5
6295
330
6268
100
AcDbEntity
  8
AM_5
100
AcDbMText
 10
1420.072174207778
 20
286.1252813146752
 30
0.0
 40
3.5
 41
0.0
 71
     5
 72
     1
  1
6
 11
0.3826834323651509
 21
-0.9238795325112613
 31
0.0
 73
     1
 44
1.0
1001
ACAD
1000
MTEXTBEGIN
1070
    73
1070
     1
1070
    44
1040
1.0
1070
    74
1070
     0
1000
MTEXTEND
  0
POINT
  5
6296
330
6268
100
AcDbEntity
  8
Defpoints
 62
     0
370
     0
100
AcDbPoint
 10
1470.392183804138
 20
310.2156883491133
 30
0.0
  0
POINT
  5
6297
330
6268
100
AcDbEntity
  8
Defpoints
 62
     0
370
     0
100
AcDbPoint
 10
1472.688284398329
 20
304.6724111540458
 30
0.0
  0
POINT
  5
6298
330
6268
100
AcDbEntity
  8
Defpoints
 62
     0
370
     0
100
AcDbPoint
 10
1418.679555790468
 20
282.3012632781375
 30
0.0
  0
ENDBLK
  5
6275
330
6268
100
AcDbEntity
  8
0
370
     0
100
AcDbBlockEnd
  0
BLOCK
  5
62A4
330
629A
100
AcDbEntity
  8
0
370
     0
100
AcDbBlockBegin
  2
*D52
 70
     1
 10
0.0
 20
0.0
 30
0.0
  3
*D52
  1

  0
LINE
  5
62A6
330
629A
100
AcDbEntity
  8
AM_5
100
AcDbLine
 10
1458.753168165405
 20
335.7016318270642
 30
0.0
 11
1404.744439557541
 21
313.330483951153
 31
0.0
  0
LINE
  5
62A7
330
629A
100
AcDbEntity
  8
AM_5
100
AcDbLine
 10
1469.468304271627
 20
309.8330049167481
 30
0.0
 11
1415.459575663767
 21
287.461857040838
 31
0.0
  0
LINE
  5
62A8
330
629A
100
AcDbEntity
  8
AM_5
100
AcDbLine
 10
1406.816369387148
 20
310.9415287859845
 30
0.0
 11
1415.235404899182
 21
290.616179070737
 31
0.0
  0
SOLID
  5
62A9
330
629A
100
AcDbEntity
  8
AM_5
370
     0
100
AcDbTrace
 10
1407.278309153404
 20
311.1328705021671
 30
0.0
 11
1406.354429620893
 21
310.7501870698019
 31
0.0
 12
1405.668319090053
 22
313.7131673835182
 32
0.0
 13
1405.668319090053
 23
313.7131673835182
 33
0.0
  0
SOLID
  5
62AA
330
629A
100
AcDbEntity
  8
AM_5
370
     0
100
AcDbTrace
 10
1415.697344665438
 20
290.8075207869195
 30
0.0
 11
1414.773465132927
 21
290.4248373545544
 31
0.0
 12
1416.383455196278
 22
287.8445404732032
 32
0.0
 13
1416.383455196278
 23
287.8445404732032
 33
0.0
  0
MTEXT
  5
62AB
330
629A
100
AcDbEntity
  8
AM_5
100
AcDbMText
 10
1413.566874123159
 20
301.8313651972877
 30
0.0
 40
3.5
 41
0.0
 71
     5
 72
     1
  1
28
 11
0.3826834323651821
 21
-0.9238795325112485
 31
0.0
 73
     1
 44
1.0
1001
ACAD
1000
MTEXTBEGIN
1070
    73
1070
     1
1070
    44
1040
1.0
1070
    74
1070
     0
1000
MTEXTEND
  0
POINT
  5
62AC
330
629A
100
AcDbEntity
  8
Defpoints
 62
     0
370
     0
100
AcDbPoint
 10
1459.677047697916
 20
336.0843152594295
 30
0.0
  0
POINT
  5
62AD
330
629A
100
AcDbEntity
  8
Defpoints
 62
     0
370
     0
100
AcDbPoint
 10
1470.392183804139
 20
310.2156883491133
 30
0.0
  0
POINT
  5
62AE
330
629A
100
AcDbEntity
  8
Defpoints
 62
     0
370
     0
100
AcDbPoint
 10
1416.383455196278
 20
287.8445404732032
 30
0.0
  0
ENDBLK
  5
62A5
330
629A
100
AcDbEntity
  8
0
370
     0
100
AcDbBlockEnd
  0
BLOCK
  5
62BE
330
62B7
100
AcDbEntity
  8
0
370
     0
100
AcDbBlockBegin
  2
*D53
 70
     1
 10
0.0
 20
0.0
 30
0.0
  3
*D53
  1

  0
LINE
  5
62E1
330
62B7
100
AcDbEntity
  8
AM_5
100
AcDbLine
 10
1489.555601189359
 20
356.1732579566244
 30
0.0
 11
1504.150551987923
 21
378.264472600039
 31
0.0
  0
LINE
  5
62E2
330
62B7
100
AcDbEntity
  8
AM_5
100
AcDbLine
 10
1504.150551987923
 20
378.264472600039
 30
0.0
 11
1541.6774048914
 21
378.264472600039
 31
0.0
  0
SOLID
  5
62E3
330
62B7
100
AcDbEntity
  8
AM_5
370
     0
100
AcDbTrace
 10
1489.138424580524
 20
356.4488730451813
 30
0.0
 11
1489.972777798195
 21
355.8976428680676
 31
0.0
 12
1487.901910658019
 22
353.6701983036089
 32
0.0
 13
1487.901910658019
 23
353.6701983036089
 33
0.0
  0
MTEXT
  5
62E4
330
62B7
100
AcDbEntity
  8
AM_5
100
AcDbMText
 10
1523.413978439662
 20
381.4519726000385
 30
0.0
 40
3.5
 41
0.0
 71
     5
 72
     1
  1
3-M5*0.8*10depth
 73
     1
 44
1.0
1001
ACAD
1000
MTEXTBEGIN
1070
    73
1070
     1
1070
    44
1040
1.0
1070
    74
1070
     0
1000
MTEXTEND
  0
POINT
  5
62E5
330
62B7
100
AcDbEntity
  8
Defpoints
 62
     0
370
     0
100
AcDbPoint
 10
1487.901910658019
 20
353.6701983036089
 30
0.0
  0
POINT
  5
62E6
330
62B7
100
AcDbEntity
  8
Defpoints
 62
     0
370
     0
100
AcDbPoint
 10
1486.523835215234
 20
351.584315259429
 30
0.0
  0
ENDBLK
  5
62BF
330
62B7
100
AcDbEntity
  8
0
370
     0
100
AcDbBlockEnd
  0
BLOCK
  5
6300
330
62F6
100
AcDbEntity
  8
0
370
     0
100
AcDbBlockBegin
  2
*D54
 70
     1
 10
0.0
 20
0.0
 30
0.0
  3
*D54
  1

  0
LINE
  5
6302
330
62F6
100
AcDbEntity
  8
AM_5
100
AcDbLine
 10
1446.889981762088
 20
364.3418973349139
 30
0.0
 11
1392.88125315422
 21
341.9707494590011
 31
0.0
  0
LINE
  5
6303
330
62F6
100
AcDbEntity
  8
AM_5
100
AcDbLine
 10
1458.753168165405
 20
335.7016318270642
 30
0.0
 11
1404.74443955754
 21
313.3304839511526
 31
0.0
  0
LINE
  5
6304
330
62F6
100
AcDbEntity
  8
AM_5
100
AcDbLine
 10
1394.953182983827
 20
339.5817942938326
 30
0.0
 11
1404.520268792956
 21
316.4848059810515
 31
0.0
  0
SOLID
  5
6305
330
62F6
100
AcDbEntity
  8
AM_5
370
     0
100
AcDbTrace
 10
1395.415122750082
 20
339.7731360100152
 30
0.0
 11
1394.491243217571
 21
339.39045257765
 31
0.0
 12
1393.805132686731
 22
342.3534328913663
 32
0.0
 13
1393.805132686731
 23
342.3534328913663
 33
0.0
  0
SOLID
  5
6306
330
62F6
100
AcDbEntity
  8
AM_5
370
     0
100
AcDbTrace
 10
1404.982208559212
 20
316.6761476972341
 30
0.0
 11
1404.058329026701
 21
316.2934642648689
 31
0.0
 12
1405.668319090052
 22
313.7131673835178
 32
0.0
 13
1405.668319090052
 23
313.7131673835178
 33
0.0
  0
MTEXT
  5
6307
330
62F6
100
AcDbEntity
  8
AM_5
100
AcDbMText
 10
1402.277394602798
 20
329.0856795764463
 30
0.0
 40
3.5
 41
0.0
 71
     5
 72
     1
  1
31
 11
0.3826834323651821
 21
-0.9238795325112485
 31
0.0
 73
     1
 44
1.0
1001
ACAD
1000
MTEXTBEGIN
1070
    73
1070
     1
1070
    44
1040
1.0
1070
    74
1070
     0
1000
MTEXTEND
  0
POINT
  5
6308
330
62F6
100
AcDbEntity
  8
Defpoints
 62
     0
370
     0
100
AcDbPoint
 10
1447.813861294599
 20
364.7245807672791
 30
0.0
  0
POINT
  5
6309
330
62F6
100
AcDbEntity
  8
Defpoints
 62
     0
370
     0
100
AcDbPoint
 10
1459.677047697917
 20
336.0843152594295
 30
0.0
  0
POINT
  5
630A
330
62F6
100
AcDbEntity
  8
Defpoints
 62
     0
370
     0
100
AcDbPoint
 10
1405.668319090052
 20
313.7131673835178
 30
0.0
  0
ENDBLK
  5
6301
330
62F6
100
AcDbEntity
  8
0
370
     0
100
AcDbBlockEnd
  0
BLOCK
  5
632E
330
6322
100
AcDbEntity
  8
0
370
     0
100
AcDbBlockBegin
  2
*D55
 70
     1
 10
0.0
 20
0.0
 30
0.0
  3
*D55
  1

  0
LINE
  5
6360
330
6322
100
AcDbEntity
  8
AM_5
100
AcDbLine
 10
1474.153360030987
 20
306.3616575512873
 30
0.0
 11
1489.720852830576
 21
268.7784053023803
 31
0.0
  0
LINE
  5
6361
330
6322
100
AcDbEntity
  8
AM_5
100
AcDbLine
 10
1470.457841900943
 20
304.830923821827
 30
0.0
 11
1486.025334700531
 21
267.24767157292
 31
0.0
  0
LINE
  5
6362
330
6322
100
AcDbEntity
  8
AM_5
100
AcDbLine
 10
1492.109807995744
 20
270.8503351319869
 30
0.0
 11
1494.881446593278
 21
271.9983854290823
 31
0.0
  0
LINE
  5
6363
330
6322
100
AcDbEntity
  8
AM_5
100
AcDbLine
 10
1482.871012670632
 20
267.0235008083358
 30
0.0
 11
1460.673095042451
 21
257.8288222703014
 31
0.0
  0
LINE
  5
6364
330
6322
100
AcDbEntity
  8
AM_5
100
AcDbLine
 10
1489.33816939821
 20
269.7022848348916
 30
0.0
 11
1485.642651268166
 21
268.1715511054313
 31
0.0
  0
SOLID
  5
6365
330
6322
100
AcDbEntity
  8
AM_5
370
     0
100
AcDbTrace
 10
1491.918466279561
 20
271.3122748982426
 30
0.0
 11
1492.301149711926
 21
270.3883953657312
 31
0.0
 12
1489.33816939821
 22
269.7022848348916
 32
0.0
 13
1489.33816939821
 23
269.7022848348916
 33
0.0
  0
SOLID
  5
6366
330
6322
100
AcDbEntity
  8
AM_5
370
     0
100
AcDbTrace
 10
1482.679670954449
 20
267.4854405745915
 30
0.0
 11
1483.062354386814
 21
266.5615610420802
 31
0.0
 12
1485.642651268166
 22
268.1715511054313
 32
0.0
 13
1485.642651268166
 23
268.1715511054313
 33
0.0
  0
MTEXT
  5
6367
330
6322
100
AcDbEntity
  8
AM_5
100
AcDbMText
 10
1469.166431117111
 20
264.7970024006507
 30
0.0
 40
3.5
 41
0.0
 71
     5
 72
     1
  1
4*4depth
 11
0.9238795325112716
 21
0.3826834323651262
 31
0.0
 73
     1
 44
1.0
1001
ACAD
1000
MTEXTBEGIN
1070
    73
1070
     1
1070
    44
1040
1.0
1070
    74
1070
     0
1000
MTEXTEND
  0
POINT
  5
6368
330
6322
100
AcDbEntity
  8
Defpoints
 62
     0
370
     0
100
AcDbPoint
 10
1473.770676598622
 20
307.2855370837985
 30
0.0
  0
POINT
  5
6369
330
6322
100
AcDbEntity
  8
Defpoints
 62
     0
370
     0
100
AcDbPoint
 10
1470.075158468578
 20
305.7548033543382
 30
0.0
  0
POINT
  5
636A
330
6322
100
AcDbEntity
  8
Defpoints
 62
     0
370
     0
100
AcDbPoint
 10
1485.642651268166
 20
268.1715511054313
 30
0.0
  0
ENDBLK
  5
632F
330
6322
100
AcDbEntity
  8
0
370
     0
100
AcDbBlockEnd
  0
BLOCK
  5
6387
330
637D
100
AcDbEntity
  8
0
370
     0
100
AcDbBlockBegin
  2
*D56
 70
     1
 10
0.0
 20
0.0
 30
0.0
  3
*D56
  1

  0
LINE
  5
63D2
330
637D
100
AcDbEntity
  8
AM_5
100
AcDbLine
 10
1200.488278248339
 20
362.7182898556449
 30
0.0
 11
1219.266019993275
 21
330.1942871020074
 31
0.0
  0
LINE
  5
63D3
330
637D
100
AcDbEntity
  8
AM_5
100
AcDbLine
 10
1188.363922595357
 20
355.7182898556449
 30
0.0
 11
1207.141664340293
 21
323.1942871020075
 31
0.0
  0
LINE
  5
63D4
330
637D
100
AcDbEntity
  8
AM_5
100
AcDbLine
 10
1216.167943781922
 20
329.5603125057919
 30
0.0
 11
1209.239740551647
 21
325.560312505792
 31
0.0
  0
SOLID
  5
63D5
330
637D
100
AcDbEntity
  8
AM_5
370
     0
100
AcDbTrace
 10
1215.917943781922
 20
329.9933252076841
 30
0.0
 11
1216.417943781922
 21
329.1272998038996
 31
0.0
 12
1218.766019993276
 22
331.0603125057919
 32
0.0
 13
1218.766019993276
 23
331.0603125057919
 33
0.0
  0
SOLID
  5
63D6
330
637D
100
AcDbEntity
  8
AM_5
370
     0
100
AcDbTrace
 10
1208.989740551647
 20
325.9933252076842
 30
0.0
 11
1209.489740551647
 21
325.1272998038997
 31
0.0
 12
1206.641664340293
 22
324.060312505792
 32
0.0
 13
1206.641664340293
 23
324.060312505792
 33
0.0
  0
MTEXT
  5
63D7
330
637D
100
AcDbEntity
  8
AM_5
100
AcDbMText
 10
1211.328842166784
 20
329.9418823661991
 30
0.0
 40
3.5
 41
0.0
 71
     5
 72
     1
  1
14
 11
0.8660254037844415
 21
0.4999999999999949
 31
0.0
 73
     1
 44
1.0
1001
ACAD
1000
MTEXTBEGIN
1070
    73
1070
     1
1070
    44
1040
1.0
1070
    74
1070
     0
1000
MTEXTEND
  0
POINT
  5
63D8
330
637D
100
AcDbEntity
  8
Defpoints
 62
     0
370
     0
100
AcDbPoint
 10
1199.988278248339
 20
363.5843152594294
 30
0.0
  0
POINT
  5
63D9
330
637D
100
AcDbEntity
  8
Defpoints
 62
     0
370
     0
100
AcDbPoint
 10
1187.863922595357
 20
356.5843152594293
 30
0.0
  0
POINT
  5
63DA
330
637D
100
AcDbEntity
  8
Defpoints
 62
     0
370
     0
100
AcDbPoint
 10
1206.641664340293
 20
324.060312505792
 30
0.0
  0
ENDBLK
  5
6388
330
637D
100
AcDbEntity
  8
0
370
     0
100
AcDbBlockEnd
  0
BLOCK
  5
63E8
330
63DC
100
AcDbEntity
  8
0
370
     0
100
AcDbBlockBegin
  2
*D58
 70
     1
 10
0.0
 20
0.0
 30
0.0
  3
*D58
  1

  0
LINE
  5
63EA
330
63DC
100
AcDbEntity
  8
AM_5
100
AcDbLine
 10
1186.533795576435
 20
348.8881628367226
 30
0.0
 11
1202.81153732137
 21
320.6942871020071
 31
0.0
  0
LINE
  5
63EB
330
63DC
100
AcDbEntity
  8
AM_5
100
AcDbLine
 10
1188.363922595357
 20
355.718289855645
 30
0.0
 11
1207.141664340292
 21
323.1942871020069
 31
0.0
  0
LINE
  5
63EC
330
63DC
100
AcDbEntity
  8
AM_5
100
AcDbLine
 10
1199.713461110017
 20
320.0603125057917
 30
0.0
 11
1197.115384898663
 21
318.5603125057919
 31
0.0
  0
LINE
  5
63ED
330
63DC
100
AcDbEntity
  8
AM_5
100
AcDbLine
 10
1209.239740551646
 20
325.5603125057913
 30
0.0
 11
1211.837816762999
 21
327.0603125057911
 31
0.0
  0
LINE
  5
63EE
330
63DC
100
AcDbEntity
  8
AM_5
100
AcDbLine
 10
1202.31153732137
 20
321.5603125057916
 30
0.0
 11
1206.641664340292
 21
324.0603125057914
 31
0.0
  0
SOLID
  5
63EF
330
63DC
100
AcDbEntity
  8
AM_5
370
     0
100
AcDbTrace
 10
1199.463461110017
 20
320.4933252076839
 30
0.0
 11
1199.963461110017
 21
319.6272998038995
 31
0.0
 12
1202.31153732137
 22
321.5603125057916
 32
0.0
 13
1202.31153732137
 23
321.5603125057916
 33
0.0
  0
SOLID
  5
63F0
330
63DC
100
AcDbEntity
  8
AM_5
370
     0
100
AcDbTrace
 10
1208.989740551646
 20
325.9933252076835
 30
0.0
 11
1209.489740551646
 21
325.127299803899
 31
0.0
 12
1206.641664340292
 22
324.0603125057914
 32
0.0
 13
1206.641664340292
 23
324.0603125057914
 33
0.0
  0
MTEXT
  5
63F1
330
63DC
100
AcDbEntity
  8
AM_5
100
AcDbMText
 10
1203.101600830831
 20
325.1918823661989
 30
0.0
 40
3.5
 41
0.0
 71
     5
 72
     1
  1
5
 11
0.8660254037844621
 21
0.4999999999999591
 31
0.0
 73
     1
 44
1.0
1001
ACAD
1000
MTEXTBEGIN
1070
    73
1070
     1
1070
    44
1040
1.0
1070
    74
1070
     0
1000
MTEXTEND
  0
POINT
  5
63F2
330
63DC
100
AcDbEntity
  8
Defpoints
 62
     0
370
     0
100
AcDbPoint
 10
1186.033795576435
 20
349.7541882405071
 30
0.0
  0
POINT
  5
63F3
330
63DC
100
AcDbEntity
  8
Defpoints
 62
     0
370
     0
100
AcDbPoint
 10
1187.863922595357
 20
356.5843152594295
 30
0.0
  0
POINT
  5
63F4
330
63DC
100
AcDbEntity
  8
Defpoints
 62
     0
370
     0
100
AcDbPoint
 10
1206.641664340292
 20
324.0603125057914
 30
0.0
  0
ENDBLK
  5
63E9
330
63DC
100
AcDbEntity
  8
0
370
     0
100
AcDbBlockEnd
  0
BLOCK
  5
6403
330
63FD
100
AcDbEntity
  8
0
370
     0
100
AcDbBlockBegin
  2
*D59
 70
     1
 10
0.0
 20
0.0
 30
0.0
  3
*D59
  1

  0
LINE
  5
6436
330
63FD
100
AcDbEntity
  8
AM_5
100
AcDbLine
 10
1149.532226784145
 20
372.092691077375
 30
0.0
 11
1138.987482339909
 21
390.7895078533877
 31
0.0
  0
LINE
  5
6437
330
63FD
100
AcDbEntity
  8
AM_5
100
AcDbLine
 10
1138.987482339909
 20
390.7895078533877
 30
0.0
 11
1109.486169122972
 21
390.7895078533877
 31
0.0
  0
SOLID
  5
6438
330
63FD
100
AcDbEntity
  8
AM_5
370
     0
100
AcDbTrace
 10
1149.967737724836
 20
372.3383131865966
 30
0.0
 11
1149.096715843454
 21
371.8470689681533
 31
0.0
 12
1151.005959439475
 22
369.4796254332293
 32
0.0
 13
1151.005959439475
 23
369.4796254332293
 33
0.0
  0
MTEXT
  5
6439
330
63FD
100
AcDbEntity
  8
AM_5
100
AcDbMText
 10
1123.73682573144
 20
396.8919827634853
 30
0.0
 40
3.5
 41
0.0
 71
     5
 72
     1
  1
3-\U+22055.5\P%%c9.5*9.5depth
 73
     1
 44
1.0
1001
ACAD
1000
MTEXTBEGIN
1070
    73
1070
     1
1070
    44
1040
1.0
1070
    74
1070
     0
1000
MTEXTEND
  0
POINT
  5
643A
330
63FD
100
AcDbEntity
  8
Defpoints
 62
     0
370
     0
100
AcDbPoint
 10
1151.005959439475
 20
369.4796254332293
 30
0.0
  0
POINT
  5
643B
330
63FD
100
AcDbEntity
  8
Defpoints
 62
     0
370
     0
100
AcDbPoint
 10
1153.707802640913
 20
364.6890050856284
 30
0.0
  0
ENDBLK
  5
6404
330
63FD
100
AcDbEntity
  8
0
370
     0
100
AcDbBlockEnd
  0
BLOCK
  5
6457
330
644D
100
AcDbEntity
  8
0
370
     0
100
AcDbBlockBegin
  2
*D60
 70
     1
 10
0.0
 20
0.0
 30
0.0
  3
*D60
  1

  0
LINE
  5
6459
330
644D
100
AcDbEntity
  8
AM_5
100
AcDbLine
 10
1097.029331409344
 20
362.2541882405075
 30
0.0
 11
1086.637026563931
 21
368.2541882405076
 31
0.0
  0
LINE
  5
645A
330
644D
100
AcDbEntity
  8
AM_5
100
AcDbLine
 10
1102.029331409344
 20
370.9144422783519
 30
0.0
 11
1091.637026563931
 21
376.914442278352
 31
0.0
  0
LINE
  5
645B
330
644D
100
AcDbEntity
  8
AM_5
100
AcDbLine
 10
1089.003051967715
 20
370.352264451861
 30
0.0
 11
1091.003051967715
 21
373.8163660669986
 31
0.0
  0
SOLID
  5
645C
330
644D
100
AcDbEntity
  8
AM_5
370
     0
100
AcDbTrace
 10
1088.570039265823
 20
370.6022644518609
 30
0.0
 11
1089.436064669607
 21
370.102264451861
 31
0.0
 12
1087.503051967715
 22
367.7541882405076
 32
0.0
 13
1087.503051967715
 23
367.7541882405076
 33
0.0
  0
SOLID
  5
645D
330
644D
100
AcDbEntity
  8
AM_5
370
     0
100
AcDbTrace
 10
1090.570039265823
 20
374.0663660669986
 30
0.0
 11
1091.436064669607
 21
373.5663660669986
 31
0.0
 12
1092.503051967715
 22
376.414442278352
 32
0.0
 13
1092.503051967715
 23
376.414442278352
 33
0.0
  0
MTEXT
  5
645E
330
644D
100
AcDbEntity
  8
AM_5
100
AcDbMText
 10
1087.621482107308
 20
373.4593152594298
 30
0.0
 40
3.5
 41
0.0
 71
     5
 72
     1
  1
10
 11
0.5000000000000034
 21
0.8660254037844367
 31
0.0
 73
     1
 44
1.0
1001
ACAD
1000
MTEXTBEGIN
1070
    73
1070
     1
1070
    44
1040
1.0
1070
    74
1070
     0
1000
MTEXTEND
  0
POINT
  5
645F
330
644D
100
AcDbEntity
  8
Defpoints
 62
     0
370
     0
100
AcDbPoint
 10
1097.895356813128
 20
361.7541882405074
 30
0.0
  0
POINT
  5
6460
330
644D
100
AcDbEntity
  8
Defpoints
 62
     0
370
     0
100
AcDbPoint
 10
1102.895356813129
 20
370.4144422783519
 30
0.0
  0
POINT
  5
6461
330
644D
100
AcDbEntity
  8
Defpoints
 62
     0
370
     0
100
AcDbPoint
 10
1092.503051967715
 20
376.414442278352
 30
0.0
  0
ENDBLK
  5
6458
330
644D
100
AcDbEntity
  8
0
370
     0
100
AcDbBlockEnd
  0
BLOCK
  5
647F
330
6475
100
AcDbEntity
  8
0
370
     0
100
AcDbBlockBegin
  2
*D61
 70
     1
 10
0.0
 20
0.0
 30
0.0
  3
*D61
  1

  0
LINE
  5
6481
330
6475
100
AcDbEntity
  8
AM_5
100
AcDbLine
 10
1142.356881040194
 20
275.0843152594294
 30
0.0
 11
1142.356881040194
 21
263.0843152594293
 31
0.0
  0
LINE
  5
6482
330
6475
100
AcDbEntity
  8
AM_5
100
AcDbLine
 10
1162.356881040195
 20
275.0843152594294
 30
0.0
 11
1162.356881040195
 21
263.0843152594293
 31
0.0
  0
LINE
  5
6483
330
6475
100
AcDbEntity
  8
AM_5
100
AcDbLine
 10
1145.356881040195
 20
264.0843152594293
 30
0.0
 11
1159.356881040195
 21
264.0843152594293
 31
0.0
  0
SOLID
  5
6484
330
6475
100
AcDbEntity
  8
AM_5
370
     0
100
AcDbTrace
 10
1145.356881040195
 20
264.5843152594293
 30
0.0
 11
1145.356881040195
 21
263.5843152594294
 31
0.0
 12
1142.356881040194
 22
264.0843152594293
 32
0.0
 13
1142.356881040194
 23
264.0843152594293
 33
0.0
  0
SOLID
  5
6485
330
6475
100
AcDbEntity
  8
AM_5
370
     0
100
AcDbTrace
 10
1159.356881040195
 20
264.5843152594293
 30
0.0
 11
1159.356881040195
 21
263.5843152594294
 31
0.0
 12
1162.356881040195
 22
264.0843152594293
 32
0.0
 13
1162.356881040195
 23
264.0843152594293
 33
0.0
  0
MTEXT
  5
6486
330
6475
100
AcDbEntity
  8
AM_5
100
AcDbMText
 10
1152.356881040195
 20
266.8346597476183
 30
0.0
 40
3.5
 41
0.0
 71
     5
 72
     1
  1
20
 73
     1
 44
1.0
1001
ACAD
1000
MTEXTBEGIN
1070
    73
1070
     1
1070
    44
1040
1.0
1070
    74
1070
     0
1000
MTEXTEND
  0
POINT
  5
6487
330
6475
100
AcDbEntity
  8
Defpoints
 62
     0
370
     0
100
AcDbPoint
 10
1142.356881040194
 20
276.0843152594294
 30
0.0
  0
POINT
  5
6488
330
6475
100
AcDbEntity
  8
Defpoints
 62
     0
370
     0
100
AcDbPoint
 10
1162.356881040195
 20
276.0843152594294
 30
0.0
  0
POINT
  5
6489
330
6475
100
AcDbEntity
  8
Defpoints
 62
     0
370
     0
100
AcDbPoint
 10
1162.356881040195
 20
264.0843152594293
 30
0.0
  0
ENDBLK
  5
6480
330
6475
100
AcDbEntity
  8
0
370
     0
100
AcDbBlockEnd
  0
BLOCK
  5
64A3
330
6499
100
AcDbEntity
  8
0
370
     0
100
AcDbBlockBegin
  2
*D62
 70
     1
 10
0.0
 20
0.0
 30
0.0
  3
*D62
  1

  0
LINE
  5
64A5
330
6499
100
AcDbEntity
  8
AM_5
100
AcDbLine
 10
1136.356881040195
 20
285.6070477520174
 30
0.0
 11
1136.356881040195
 21
256.5843152594285
 31
0.0
  0
LINE
  5
64A6
330
6499
100
AcDbEntity
  8
AM_5
100
AcDbLine
 10
1168.356881040198
 20
285.6070477520186
 30
0.0
 11
1168.356881040198
 21
256.5843152594285
 31
0.0
  0
LINE
  5
64A7
330
6499
100
AcDbEntity
  8
AM_5
100
AcDbLine
 10
1139.356881040195
 20
257.5843152594285
 30
0.0
 11
1165.356881040198
 21
257.5843152594285
 31
0.0
  0
SOLID
  5
64A8
330
6499
100
AcDbEntity
  8
AM_5
370
     0
100
AcDbTrace
 10
1139.356881040195
 20
258.0843152594285
 30
0.0
 11
1139.356881040195
 21
257.0843152594285
 31
0.0
 12
1136.356881040195
 22
257.5843152594285
 32
0.0
 13
1136.356881040195
 23
257.5843152594285
 33
0.0
  0
SOLID
  5
64A9
330
6499
100
AcDbEntity
  8
AM_5
370
     0
100
AcDbTrace
 10
1165.356881040198
 20
258.0843152594285
 30
0.0
 11
1165.356881040198
 21
257.0843152594285
 31
0.0
 12
1168.356881040198
 22
257.5843152594285
 32
0.0
 13
1168.356881040198
 23
257.5843152594285
 33
0.0
  0
MTEXT
  5
64AA
330
6499
100
AcDbEntity
  8
AM_5
100
AcDbMText
 10
1152.356881040196
 20
260.3346597476175
 30
0.0
 40
3.5
 41
0.0
 71
     5
 72
     1
  1
32
 73
     1
 44
1.0
1001
ACAD
1000
MTEXTBEGIN
1070
    73
1070
     1
1070
    44
1040
1.0
1070
    74
1070
     0
1000
MTEXTEND
  0
POINT
  5
64AB
330
6499
100
AcDbEntity
  8
Defpoints
 62
     0
370
     0
100
AcDbPoint
 10
1136.356881040195
 20
286.6070477520174
 30
0.0
  0
POINT
  5
64AC
330
6499
100
AcDbEntity
  8
Defpoints
 62
     0
370
     0
100
AcDbPoint
 10
1168.356881040198
 20
286.6070477520186
 30
0.0
  0
POINT
  5
64AD
330
6499
100
AcDbEntity
  8
Defpoints
 62
     0
370
     0
100
AcDbPoint
 10
1168.356881040198
 20
257.5843152594285
 30
0.0
  0
ENDBLK
  5
64A4
330
6499
100
AcDbEntity
  8
0
370
     0
100
AcDbBlockEnd
  0
BLOCK
  5
64CE
330
64C8
100
AcDbEntity
  8
0
370
     0
100
AcDbBlockBegin
  2
*D64
 70
     1
 10
0.0
 20
0.0
 30
0.0
  3
*D64
  1

  0
LINE
  5
64DE
330
64C8
100
AcDbEntity
  8
AM_5
100
AcDbLine
 10
1186.767867809001
 20
352.9002002970072
 30
0.0
 11
1189.463245362693
 21
354.2173714487757
 31
0.0
  0
LINE
  5
64DF
330
64C8
100
AcDbEntity
  8
AM_5
100
AcDbLine
 10
1117.945894271388
 20
319.2684302218517
 30
0.0
 11
1113.559090112926
 21
317.1246964513938
 31
0.0
  0
LINE
  5
64E0
330
64C8
100
AcDbEntity
  8
AM_5
100
AcDbLine
 10
1113.559090112926
 20
317.1246964513938
 30
0.0
 11
1101.885468065682
 21
317.1246964513938
 31
0.0
  0
LINE
  5
64E1
330
64C8
100
AcDbEntity
  8
AM_5
100
AcDbLine
 10
1184.072490255309
 20
351.5830291452387
 30
0.0
 11
1120.641271825081
 21
320.5856013736202
 31
0.0
  0
SOLID
  5
64E2
330
64C8
100
AcDbEntity
  8
AM_5
370
     0
100
AcDbTrace
 10
1186.548339283706
 20
353.3494298892893
 30
0.0
 11
1186.987396334296
 21
352.4509707047251
 31
0.0
 12
1184.072490255309
 22
351.5830291452387
 32
0.0
 13
1184.072490255309
 23
351.5830291452387
 33
0.0
  0
SOLID
  5
64E3
330
64C8
100
AcDbEntity
  8
AM_5
370
     0
100
AcDbTrace
 10
1117.726365746094
 20
319.7176598141338
 30
0.0
 11
1118.165422796683
 21
318.8192006295696
 31
0.0
 12
1120.641271825081
 22
320.5856013736202
 32
0.0
 13
1120.641271825081
 23
320.5856013736202
 33
0.0
  0
MTEXT
  5
64E4
330
64C8
100
AcDbEntity
  8
AM_5
100
AcDbMText
 10
1107.222279089304
 20
319.8746964513937
 30
0.0
 40
3.5
 41
0.0
 71
     5
 72
     1
  1
\U+220570.6
 73
     1
 44
1.0
1001
ACAD
1000
MTEXTBEGIN
1070
    73
1070
     1
1070
    44
1040
1.0
1070
    74
1070
     0
1000
MTEXTEND
  0
POINT
  5
64E5
330
64C8
100
AcDbEntity
  8
Defpoints
 62
     0
370
     0
100
AcDbPoint
 10
1120.641271825081
 20
320.5856013736202
 30
0.0
  0
POINT
  5
64E6
330
64C8
100
AcDbEntity
  8
Defpoints
 62
     0
370
     0
100
AcDbPoint
 10
1184.072490255309
 20
351.5830291452387
 30
0.0
  0
ENDBLK
  5
64CF
330
64C8
100
AcDbEntity
  8
0
370
     0
100
AcDbBlockEnd
  0
BLOCK
  5
6507
330
6501
100
AcDbEntity
  8
0
370
     0
100
AcDbBlockBegin
  2
*D66
 70
     1
 10
0.0
 20
0.0
 30
0.0
  3
*D66
  1

  0
LINE
  5
6517
330
6501
100
AcDbEntity
  8
AM_5
100
AcDbLine
 10
1192.310408075507
 20
373.8826707453305
 30
0.0
 11
1194.489691368342
 21
375.9443992263797
 31
0.0
  0
LINE
  5
6518
330
6501
100
AcDbEntity
  8
AM_5
100
AcDbLine
 10
1112.403354004882
 20
298.2859597735282
 30
0.0
 11
1110.224070712047
 21
296.2242312924791
 31
0.0
  0
LINE
  5
6519
330
6501
100
AcDbEntity
  8
AM_5
100
AcDbLine
 10
1110.224070712047
 20
296.2242312924791
 30
0.0
 11
1100.124070712047
 21
296.2242312924791
 31
0.0
  0
LINE
  5
651A
330
6501
100
AcDbEntity
  8
AM_5
100
AcDbLine
 10
1190.131124782672
 20
371.8209422642814
 30
0.0
 11
1114.582637297717
 21
300.3476882545774
 31
0.0
  0
SOLID
  5
651B
330
6501
100
AcDbEntity
  8
AM_5
370
     0
100
AcDbTrace
 10
1191.966786661999
 20
374.2458846274697
 30
0.0
 11
1192.654029489015
 21
373.5194568631913
 31
0.0
 12
1190.131124782672
 22
371.8209422642814
 32
0.0
 13
1190.131124782672
 23
371.8209422642814
 33
0.0
  0
SOLID
  5
651C
330
6501
100
AcDbEntity
  8
AM_5
370
     0
100
AcDbTrace
 10
1112.059732591374
 20
298.6491736556675
 30
0.0
 11
1112.74697541839
 21
297.9227458913891
 31
0.0
 12
1114.582637297717
 22
300.3476882545774
 32
0.0
 13
1114.582637297717
 23
300.3476882545774
 33
0.0
  0
MTEXT
  5
651D
330
6501
100
AcDbEntity
  8
AM_5
100
AcDbMText
 10
1104.674070712047
 20
298.9742312924791
 30
0.0
 40
3.5
 41
0.0
 71
     5
 72
     1
  1
\U+2205104
 73
     1
 44
1.0
1001
ACAD
1000
MTEXTBEGIN
1070
    73
1070
     1
1070
    44
1040
1.0
1070
    74
1070
     0
1000
MTEXTEND
  0
POINT
  5
651E
330
6501
100
AcDbEntity
  8
Defpoints
 62
     0
370
     0
100
AcDbPoint
 10
1114.582637297717
 20
300.3476882545774
 30
0.0
  0
POINT
  5
651F
330
6501
100
AcDbEntity
  8
Defpoints
 62
     0
370
     0
100
AcDbPoint
 10
1190.131124782672
 20
371.8209422642814
 30
0.0
  0
ENDBLK
  5
6508
330
6501
100
AcDbEntity
  8
0
370
     0
100
AcDbBlockEnd
  0
ENDSEC
  0
SECTION
  2
ENTITIES
  0
LWPOLYLINE
  5
1C11
330
A
100
AcDbEntity
  8
0
 62
     4
100
AcDbPolyline
 90
        4
 70
     1
 43
0.0
 10
1060.877723064923
 20
240.0202664908586
 10
1563.309653064923
 20
240.0202664908586
 10
1563.309653064923
 20
568.8900934235634
 10
1060.877723064923
 20
568.8900934235634
1001
GENIUS_GENREC_14
1002
{
1000
PYDIR
1011
1060.877723064923
1021
568.8900934235634
1031
0.0
1002
}
1002
{
1000
PXDIR
1011
1563.309653064923
1021
240.0202664908586
1031
0.0
1002
}
1002
{
1000
PORI
1011
1060.877723064923
1021
240.0202664908586
1031
0.0
1002
}
1002
{
1000
PINS
1011
1060.877723064923
1021
240.0202664908586
1031
0.0
1002
}
1002
{
1000
PINS2
1011
1563.309653064923
1021
568.8900934235634
1031
0.0
1002
}
1002
{
1000
C
1070
     1
1002
}
1001
GENIUS_GENODEF_13
1002
{
1000
HIER
1070
     0
1002
}
1002
{
1000
MANEDIT
1070
     0
1002
}
1002
{
1000
NOSEL
1070
     0
1002
}
1002
{
1000
BEHIND
1070
     0
1002
}
1002
{
1000
OTHER
1070
     0
1002
}
1002
{
1000
REACTOR
1002
}
1001
GENIUS_GENOBJ-N-REC_13
1002
{
1000
OWNER
1000
GEN
1002
}
  0
LWPOLYLINE
  5
1C12
330
A
100
AcDbEntity
  8
LOGO
 62
     4
100
AcDbPolyline
 90
        4
 70
     1
 43
0.0
 10
1060.877723064923
 20
240.0202664908586
 10
1563.309653064923
 20
240.0202664908586
 10
1563.309653064923
 20
206.2954544287403
 10
1060.877723064923
 20
206.2954544287403
1001
GENIUS_GENREC_14
1002
{
1000
PYDIR
1011
1060.877723064923
1021
206.2954544287403
1031
0.0
1002
}
1002
{
1000
PXDIR
1011
1563.309653064923
1021
240.0202664908586
1031
0.0
1002
}
1002
{
1000
PORI
1011
1060.877723064923
1021
240.0202664908586
1031
0.0
1002
}
1002
{
1000
PINS
1011
1060.877723064923
1021
240.0202664908586
1031
0.0
1002
}
1002
{
1000
PINS2
1011
1563.309653064923
1021
206.2954544287403
1031
0.0
1002
}
1002
{
1000
C
1070
     1
1002
}
1001
GENIUS_GENOBJ-N-REC_13
1002
{
1000
OWNER
1000
GEN
1002
}
1001
GENIUS_GENODEF_13
1002
{
1000
HIER
1070
     0
1002
}
1002
{
1000
MANEDIT
1070
     0
1002
}
1002
{
1000
NOSEL
1070
     0
1002
}
1002
{
1000
BEHIND
1070
     0
1002
}
1002
{
1000
OTHER
1070
     0
1002
}
1002
{
1000
REACTOR
1002
}
  0
LINE
  5
1C13
330
A
100
AcDbEntity
  8
LOGO
 62
     4
100
AcDbLine
 10
1203.942499851293
 20
221.4716198566942
 30
0.0
 11
1203.942499851293
 21
209.1058554339172
 31
0.0
  0
LINE
  5
1C14
330
A
100
AcDbEntity
  8
LOGO
 62
     4
100
AcDbLine
 10
1181.459291809881
 20
221.4716198566942
 30
0.0
 11
1181.459291809881
 21
209.1058554339172
 31
0.0
  0
LINE
  5
1C15
330
A
100
AcDbEntity
  8
LOGO
 62
     4
100
AcDbLine
 10
1203.942499851293
 20
209.1058554339172
 30
0.0
 11
1181.459291809881
 21
209.1058554339172
 31
0.0
  0
LINE
  5
1C16
330
A
100
AcDbEntity
  8
LOGO
 62
     4
100
AcDbLine
 10
1214.410325180425
 20
236.6477852846466
 30
0.0
 11
1181.459291809881
 21
236.6477852846466
 31
0.0
  0
LINE
  5
1C17
330
A
100
AcDbEntity
  8
LOGO
 62
     4
100
AcDbLine
 10
1214.410325180425
 20
226.5303416660115
 30
0.0
 11
1181.459291809881
 21
226.5303416660115
 31
0.0
  0
LINE
  5
1C18
330
A
100
AcDbEntity
  8
LOGO
 62
     4
100
AcDbLine
 10
1181.459291809881
 20
236.6477852846466
 30
0.0
 11
1181.459291809881
 21
226.5303416660115
 31
0.0
  0
LINE
  5
1C19
330
A
100
AcDbEntity
  8
LOGO
 62
     4
100
AcDbLine
 10
1214.410325180425
 20
236.6477852846466
 30
0.0
 11
1214.410325180425
 21
226.5303416660115
 31
0.0
  0
LINE
  5
1C1A
330
A
100
AcDbEntity
  8
LOGO
 62
     4
100
AcDbLine
 10
1193.873954581904
 20
226.5303416660115
 30
0.0
 11
1193.873954581904
 21
221.4716198566942
 31
0.0
  0
TEXT
  5
1C1B
330
A
100
AcDbEntity
  8
LOGO
  6
Continuous
100
AcDbText
 10
1183.144672303575
 20
229.4233173398623
 30
0.0
 40
5.13084
  1
MCHG2L
  7
CHINESET
100
AcDbText
  0
LINE
  5
1C1C
330
A
100
AcDbEntity
  8
LOGO
 62
     4
100
AcDbLine
 10
1203.942499851293
 20
221.4716198566942
 30
0.0
 11
1181.459291809881
 21
221.4716198566942
 31
0.0
  0
TEXT
  5
1C1D
330
A
100
AcDbEntity
  8
LOGO
  6
Continuous
100
AcDbText
 10
1188.674082089617
 20
210.8512568599795
 30
221.0268624168925
 40
2.529727199999999
  1
Model
 41
0.8
  7
CHINESET
100
AcDbText
  0
TEXT
  5
1C1E
330
A
100
AcDbEntity
  8
LOGO
100
AcDbText
 10
1188.00075094535
 20
215.5408258936562
 30
221.0268624168925
 40
4.216212
  1
型號
  7
CHINESET
100
AcDbText
  0
LINE
  5
1C1F
330
A
100
AcDbEntity
  8
LOGO
  6
Continuous
100
AcDbLine
 10
1215.843851462886
 20
231.5532258910979
 30
0.0
 11
1220.311345395761
 21
231.5532258910979
 31
0.0
  0
LINE
  5
1C20
330
A
100
AcDbEntity
  8
LOGO
 62
     4
100
AcDbLine
 10
1229.368033113933
 20
221.4716198566942
 30
0.0
 11
1229.368033113933
 21
209.1058554339172
 31
0.0
  0
LINE
  5
1C21
330
A
100
AcDbEntity
  8
LOGO
 62
     4
100
AcDbLine
 10
1206.884825072521
 20
221.4716198566942
 30
0.0
 11
1206.884825072521
 21
209.1058554339172
 31
0.0
  0
LINE
  5
1C22
330
A
100
AcDbEntity
  8
LOGO
 62
     4
100
AcDbLine
 10
1229.368033113933
 20
209.1058554339172
 30
0.0
 11
1206.884825072521
 21
209.1058554339172
 31
0.0
  0
LINE
  5
1C23
330
A
100
AcDbEntity
  8
LOGO
 62
     4
100
AcDbLine
 10
1239.008750785508
 20
236.6477852846466
 30
0.0
 11
1221.720604235925
 21
236.6477852846466
 31
0.0
  0
LINE
  5
1C24
330
A
100
AcDbEntity
  8
LOGO
 62
     4
100
AcDbLine
 10
1239.008750785508
 20
226.5303416660115
 30
0.0
 11
1221.720604235925
 21
226.5303416660115
 31
0.0
  0
LINE
  5
1C25
330
A
100
AcDbEntity
  8
LOGO
 62
     4
100
AcDbLine
 10
1221.720604235925
 20
236.6477852846466
 30
0.0
 11
1221.720604235925
 21
226.5303416660115
 31
0.0
  0
LINE
  5
1C26
330
A
100
AcDbEntity
  8
LOGO
 62
     4
100
AcDbLine
 10
1239.008750785508
 20
236.6477852846466
 30
0.0
 11
1239.008750785508
 21
226.5303416660115
 31
0.0
  0
LINE
  5
1C27
330
A
100
AcDbEntity
  8
LOGO
 62
     4
100
AcDbLine
 10
1229.494023441776
 20
226.5303416660115
 30
0.0
 11
1229.494023441776
 21
224.0009807613529
 31
0.0
  0
TEXT
  5
1C28
330
A
100
AcDbEntity
  8
LOGO
  6
Continuous
100
AcDbText
 10
1225.544888722191
 20
228.9505286390105
 30
0.0
 40
5.13084
  1
50
  7
CHINESET
100
AcDbText
  0
LINE
  5
1C29
330
A
100
AcDbEntity
  8
LOGO
 62
     4
100
AcDbLine
 10
1229.368033113933
 20
221.4716198566942
 30
0.0
 11
1206.884825072521
 21
221.4716198566942
 31
0.0
  0
LINE
  5
1C2A
330
A
100
AcDbEntity
  8
LOGO
  6
Continuous
100
AcDbLine
 10
1258.376531977359
 20
231.5532258910979
 30
0.0
 11
1262.844025910235
 21
231.5532258910979
 31
0.0
  0
LINE
  5
1C2B
330
A
100
AcDbEntity
  8
LOGO
 62
     4
100
AcDbLine
 10
1281.858137774163
 20
221.4716198566942
 30
0.0
 11
1281.858137774163
 21
209.1058554339172
 31
0.0
  0
LINE
  5
1C2C
330
A
100
AcDbEntity
  8
LOGO
 62
     4
100
AcDbLine
 10
1255.976004502244
 20
221.4716198566942
 30
0.0
 11
1255.976004502244
 21
209.1058554339172
 31
0.0
  0
LINE
  5
1C2D
330
A
100
AcDbEntity
  8
LOGO
 62
     4
100
AcDbLine
 10
1281.858137774163
 20
209.1058554339172
 30
0.0
 11
1255.976004502244
 21
209.1058554339172
 31
0.0
  0
LINE
  5
1C2E
330
A
100
AcDbEntity
  8
LOGO
 62
     4
100
AcDbLine
 10
1275.017963801221
 20
236.6477852846466
 30
0.0
 11
1264.253284750398
 21
236.6477852846466
 31
0.0
  0
LINE
  5
1C2F
330
A
100
AcDbEntity
  8
LOGO
 62
     4
100
AcDbLine
 10
1275.017963801221
 20
226.5303416660115
 30
0.0
 11
1264.253284750398
 21
226.5303416660115
 31
0.0
  0
LINE
  5
1C30
330
A
100
AcDbEntity
  8
LOGO
 62
     4
100
AcDbLine
 10
1264.253284750398
 20
236.6477852846466
 30
0.0
 11
1264.253284750398
 21
226.5303416660115
 31
0.0
  0
LINE
  5
1C31
330
A
100
AcDbEntity
  8
LOGO
 62
     4
100
AcDbLine
 10
1275.017963801221
 20
236.6477852846466
 30
0.0
 11
1275.017963801221
 21
226.5303416660115
 31
0.0
  0
LINE
  5
1C32
330
A
100
AcDbEntity
  8
LOGO
 62
     4
100
AcDbLine
 10
1269.635624275809
 20
226.5303416660115
 30
0.0
 11
1269.635624275809
 21
221.4716198566942
 31
0.0
  0
LINE
  5
1C33
330
A
100
AcDbEntity
  8
LOGO
 62
     4
100
AcDbLine
 10
1281.858137774163
 20
221.4716198566942
 30
0.0
 11
1255.976004502244
 21
221.4716198566942
 31
0.0
  0
TEXT
  5
1C34
330
A
100
AcDbEntity
  8
LOGO
  6
Continuous
100
AcDbText
 10
1211.594138244047
 20
210.8512568599795
 30
221.0268624168925
 40
2.529727199999999
  1
Tube I.D.
 41
0.8
  7
CHINESET
100
AcDbText
  0
TEXT
  5
1C35
330
A
100
AcDbEntity
  8
LOGO
100
AcDbText
 10
1212.614151506326
 20
215.5408258936562
 30
221.0268624168925
 40
4.216212
  1
內徑
  7
CHINESET
100
AcDbText
  0
TEXT
  5
1C36
330
A
100
AcDbEntity
  8
LOGO
  6
Continuous
100
AcDbText
 10
1258.327103795886
 20
210.8512568599795
 30
221.0268624168925
 40
2.529727199999999
  1
Sensor switch
 41
0.8
  7
CHINESET
100
AcDbText
  0
TEXT
  5
1C37
330
A
100
AcDbEntity
  8
LOGO
100
AcDbText
 10
1258.15170082775
 20
215.5408258936562
 30
221.0268624168925
 40
4.216212
  1
感應器型式
  7
CHINESET
100
AcDbText
  0
LINE
  5
1C38
330
A
100
AcDbEntity
  8
LOGO
 62
     4
100
AcDbLine
 10
1256.431951976349
 20
236.6477852846466
 30
0.0
 11
1240.436803586962
 21
236.6477852846466
 31
0.0
  0
LINE
  5
1C39
330
A
100
AcDbEntity
  8
LOGO
 62
     4
100
AcDbLine
 10
1256.431951976349
 20
226.5303416660115
 30
0.0
 11
1240.436803586962
 21
226.5303416660115
 31
0.0
  0
LINE
  5
1C3A
330
A
100
AcDbEntity
  8
LOGO
 62
     4
100
AcDbLine
 10
1240.436803586962
 20
236.6477852846466
 30
0.0
 11
1240.436803586962
 21
226.5303416660115
 31
0.0
  0
LINE
  5
1C3B
330
A
100
AcDbEntity
  8
LOGO
 62
     4
100
AcDbLine
 10
1256.431951976349
 20
236.6477852846466
 30
0.0
 11
1256.431951976349
 21
226.5303416660115
 31
0.0
  0
TEXT
  5
1C3C
330
A
100
AcDbEntity
  8
LOGO
  6
Continuous
100
AcDbText
 10
1242.491839575449
 20
229.1361638185181
 30
0.0
 40
5.13084
  1
(M)
  7
CHINESET
100
AcDbText
  0
LINE
  5
1C3D
330
A
100
AcDbEntity
  8
LOGO
 62
     4
100
AcDbLine
 10
1252.280335056773
 20
221.4716198566942
 30
0.0
 11
1252.280335056773
 21
209.1058554339172
 31
0.0
  0
LINE
  5
1C3E
330
A
100
AcDbEntity
  8
LOGO
 62
     4
100
AcDbLine
 10
1233.964177808909
 20
221.4716198566942
 30
0.0
 11
1233.964177808909
 21
209.1058554339172
 31
0.0
  0
LINE
  5
1C3F
330
A
100
AcDbEntity
  8
LOGO
 62
     4
100
AcDbLine
 10
1252.280335056773
 20
209.1058554339172
 30
0.0
 11
1233.964177808909
 21
209.1058554339172
 31
0.0
  0
LINE
  5
1C40
330
A
100
AcDbEntity
  8
LOGO
 62
     4
100
AcDbLine
 10
1252.280335056773
 20
221.4716198566942
 30
0.0
 11
1233.964177808909
 21
221.4716198566942
 31
0.0
  0
TEXT
  5
1C41
330
A
100
AcDbEntity
  8
LOGO
  6
Continuous
100
AcDbText
 10
1237.945639013819
 20
210.8512568599795
 30
221.0268624168925
 40
2.529727199999999
  1
Magnet
 41
0.8
  7
CHINESET
100
AcDbText
  0
TEXT
  5
1C42
330
A
100
AcDbEntity
  8
LOGO
100
AcDbText
 10
1236.596574265232
 20
215.5408258936562
 30
221.0268624168925
 40
4.216212
  1
附磁石
  7
CHINESET
100
AcDbText
  0
LINE
  5
1C43
330
A
100
AcDbEntity
  8
LOGO
 62
     4
100
AcDbLine
 10
1248.434377781656
 20
226.5303416660115
 30
0.0
 11
1248.434377781656
 21
224.0009807613529
 31
0.0
  0
LINE
  5
1C44
330
A
100
AcDbEntity
  8
LOGO
 62
     4
100
AcDbLine
 10
1229.494023441776
 20
224.0009807613529
 30
0.0
 11
1218.126429093227
 21
224.0009807613529
 31
0.0
  0
LINE
  5
1C45
330
A
100
AcDbEntity
  8
LOGO
 62
     4
100
AcDbLine
 10
1218.126429093227
 20
221.4716198566942
 30
0.0
 11
1218.126429093227
 21
224.0009807613529
 31
0.0
  0
LINE
  5
1C46
330
A
100
AcDbEntity
  8
LOGO
 62
     4
100
AcDbLine
 10
1248.434377781656
 20
224.0009807613529
 30
0.0
 11
1243.122256432841
 21
224.0009807613529
 31
0.0
  0
LINE
  5
1C47
330
A
100
AcDbEntity
  8
LOGO
 62
     4
100
AcDbLine
 10
1243.122256432841
 20
221.4716198566942
 30
0.0
 11
1243.122256432841
 21
224.0009807613529
 31
0.0
  0
TEXT
  5
1C48
330
A
100
AcDbEntity
  8
LOGO
 62
     7
100
AcDbText
 10
1137.026115632112
 20
225.2460002031597
 30
0.0
 40
4.496641608282352
  1
Order example:
 41
0.8
  7
CHINESET
100
AcDbText
  0
TEXT
  5
1C49
330
A
100
AcDbEntity
  8
LOGO
 62
     7
100
AcDbText
 10
1137.832850322351
 20
231.5763405460963
 30
0.0
 40
6.744962412423528
  1
訂購代號:
  7
CHINESET
100
AcDbText
  0
LINE
  5
1C4A
330
A
100
AcDbEntity
  8
LOGO
 62
     4
100
AcDbLine
 10
1135.072309601582
 20
206.2954544287407
 30
0.0
 11
1135.072309601582
 21
240.0202664908586
 31
0.0
  0
TEXT
  5
1C4B
330
A
100
AcDbEntity
  8
LOGO
  6
Continuous
100
AcDbText
 10
1072.991827153599
 20
212.9206428631648
 30
0.0
 40
5.058721809317647
  1
金器工業股份有限公司
  7
CHINESET
100
AcDbText
  0
TEXT
  5
1C4C
330
A
100
AcDbEntity
  8
LOGO
  6
Continuous
100
AcDbText
 10
1063.699956008637
 20
207.8609299409917
 30
0.0
 40
3.372481206211764
  1
MINDMAN INDUSTRIAL CO., LTD.
 41
0.85
  7
CHINESET
100
AcDbText
  0
LINE
  5
1C4D
330
A
100
AcDbEntity
  8
LOGO
100
AcDbLine
 10
1135.072309601582
 20
233.275304078435
 30
0.0
 11
1085.609251910476
 21
233.275304078435
 31
0.0
  0
LINE
  5
1C4E
330
A
100
AcDbEntity
  8
LOGO
100
AcDbLine
 10
1135.072309601582
 20
226.5303416660116
 30
0.0
 11
1085.609251910476
 21
226.5303416660116
 31
0.0
  0
LINE
  5
1C4F
330
A
100
AcDbEntity
  8
LOGO
 62
     4
100
AcDbLine
 10
1135.072309601582
 20
219.7853792535883
 30
0.0
 11
1060.877723064923
 21
219.7853792535883
 31
0.0
  0
LINE
  5
1C50
330
A
100
AcDbEntity
  8
LOGO
 62
     4
100
AcDbLine
 10
1085.609251910476
 20
219.7853792535883
 30
0.0
 11
1085.609251910476
 21
240.0202664908586
 31
0.0
  0
TEXT
  5
1C51
330
A
100
AcDbEntity
  8
LOGO
100
AcDbText
 10
1119.414917221584
 20
221.4716198566937
 30
0.0
 40
3.372481206211764
  1
mm
  7
CHINESET
 72
     1
 11
1123.590370143561
 21
223.1578604597995
 31
0.0
100
AcDbText
 73
     2
  0
TEXT
  5
1C52
330
A
100
AcDbEntity
  8
LOGO
100
AcDbText
 10
1117.648379446902
 20
234.9615446815408
 30
0.0
 40
3.372481206211764
  1
1 : 1
  7
CHINESET
 72
     1
 11
1123.590370143561
 21
236.6477852846467
 31
0.0
100
AcDbText
 73
     2
  0
LINE
  5
1C53
330
A
100
AcDbEntity
  8
LOGO
 62
     4
100
AcDbLine
 10
1112.58910156017
 20
219.7853792535883
 30
0.0
 11
1112.58910156017
 21
240.0202664908586
 31
0.0
  0
CIRCLE
  5
1C54
330
A
100
AcDbEntity
  8
LOGO
  6
Continuous
100
AcDbCircle
 10
1118.833672336752
 20
229.9100366342027
 30
0.0
 40
1.958141967586004
  0
CIRCLE
  5
1C55
330
A
100
AcDbEntity
  8
LOGO
  6
Continuous
100
AcDbCircle
 10
1118.833672336752
 20
229.9100366342027
 30
0.0
 40
1.147297848504605
  0
LINE
  5
1C56
330
A
100
AcDbEntity
  8
LOGO
100
AcDbLine
 10
1131.138863674248
 20
227.9518946666164
 30
0.0
 11
1131.138863674248
 21
231.868178601789
 31
0.0
  0
LINE
  5
1C57
330
A
100
AcDbEntity
  8
LOGO
100
AcDbLine
 10
1125.000201008578
 20
228.7627387856982
 30
0.0
 11
1125.000201008578
 21
231.0573344827075
 31
0.0
  0
LINE
  5
1C58
330
A
100
AcDbEntity
  8
LOGO
  6
Continuous
100
AcDbLine
 10
1125.000201008578
 20
231.0573344827075
 30
0.0
 11
1131.138863674248
 21
231.868178601789
 31
0.0
  0
LINE
  5
1C59
330
A
100
AcDbEntity
  8
LOGO
  6
Continuous
100
AcDbLine
 10
1125.000201008578
 20
228.7627387856982
 30
0.0
 11
1131.138863674248
 21
227.9518946666164
 31
0.0
  0
TEXT
  5
1C5A
330
A
100
AcDbEntity
  8
LOGO
100
AcDbText
 10
1088.390043333633
 20
234.9632043671738
 30
221.0268624168925
 40
3.372481206211764
  1
比例 Scale:
 41
0.9
  7
CHINESET
 72
     4
 11
1099.099176735323
 21
236.6477852846467
 31
221.0268624168925
100
AcDbText
  0
TEXT
  5
1C5B
330
A
100
AcDbEntity
  8
LOGO
100
AcDbText
 10
1088.195824549883
 20
228.2640216167931
 30
221.0268624168925
 40
3.372481206211764
  1
投影  View:
 41
0.9
  7
CHINESET
 72
     4
 11
1099.099176735323
 21
229.9028228722231
 31
221.0268624168925
100
AcDbText
  0
TEXT
  5
1C5C
330
A
100
AcDbEntity
  8
LOGO
100
AcDbText
 10
1088.525544810669
 20
221.4716198566937
 30
221.0268624168925
 40
3.372481206211764
  1
單位  Unit:
 41
0.9
  7
CHINESET
 72
     4
 11
1099.099176735323
 21
223.1578604597995
 31
221.0268624168925
100
AcDbText
  0
SOLID
  5
1C5D
330
A
100
AcDbEntity
  8
LOGO
 62
     5
100
AcDbTrace
 10
1064.376726440574
 20
225.3916492240159
 30
0.0
 11
1065.834898820233
 21
225.3916492240156
 31
0.0
 12
1071.918997369845
 22
239.2191459276803
 32
0.0
 13
1073.377169749505
 23
239.2191459276795
 33
0.0
  0
SOLID
  5
1C5E
330
A
100
AcDbEntity
  8
LOGO
 62
     5
100
AcDbTrace
 10
1066.438280494576
 20
225.3916492240159
 30
0.0
 11
1067.896452874236
 21
225.3916492240159
 31
0.0
 12
1073.377169749505
 22
238.1129461913867
 32
0.0
 13
1071.918997369845
 23
232.7663141326364
 33
0.0
  0
SOLID
  5
1C5F
330
A
100
AcDbEntity
  8
LOGO
 62
     2
100
AcDbTrace
 10
1065.834898820233
 20
225.3916492240156
 30
0.0
 11
1066.438280494576
 21
225.3916492240159
 31
0.0
 12
1073.377169749505
 22
239.2191459276795
 32
0.0
 13
1073.980551423848
 23
239.2191459276795
 33
0.0
  0
SOLID
  5
1C60
330
A
100
AcDbEntity
  8
LOGO
 62
     5
100
AcDbTrace
 10
1062.038918528311
 20
220.3634686045023
 30
0.0
 11
1062.541736590263
 21
220.3634686045023
 31
0.0
 12
1063.957711388948
 22
222.8775589142589
 32
0.0
 13
1064.460529450899
 23
222.8775589142589
 33
0.0
  0
SOLID
  5
1C61
330
A
100
AcDbEntity
  8
LOGO
 62
     5
100
AcDbTrace
 10
1063.957711388948
 20
222.8775589142589
 30
0.0
 11
1064.460529450899
 21
222.8775589142589
 31
0.0
 12
1063.957711388948
 22
220.3634686045023
 32
0.0
 13
1064.460529450899
 23
220.3634686045023
 33
0.0
  0
SOLID
  5
1C62
330
A
100
AcDbEntity
  8
LOGO
 62
     5
100
AcDbTrace
 10
1063.957711388948
 20
220.3634686045023
 30
0.0
 11
1064.460529450899
 21
220.3634686045023
 31
0.0
 12
1065.876504249586
 22
222.8775589142589
 32
0.0
 13
1066.379322311538
 23
222.8775589142589
 33
0.0
  0
SOLID
  5
1C63
330
A
100
AcDbEntity
  8
LOGO
 62
     5
100
AcDbTrace
 10
1065.876504249586
 20
222.8775589142589
 30
0.0
 11
1066.379322311538
 21
222.8775589142589
 31
0.0
 12
1065.876504249586
 22
220.3634686045023
 32
0.0
 13
1066.379322311538
 23
220.3634686045023
 33
0.0
  0
POLYLINE
  5
1C64
330
A
100
AcDbEntity
  8
LOGO
 62
     5
100
AcDb2dPolyline
 66
     1
 10
0.0
 20
0.0
 30
0.0
 40
0.5036238601276235
 41
0.5036238601276235
  0
VERTEX
  5
1C65
330
1C64
100
AcDbEntity
  8
LOGO
 62
     5
100
AcDbVertex
100
AcDb2dVertex
 10
1082.730794399067
 20
221.8719227903561
 30
0.0
 42
1.0
  0
VERTEX
  5
1C66
330
1C64
100
AcDbEntity
  8
LOGO
 62
     5
100
AcDbVertex
100
AcDb2dVertex
 10
1081.219922818683
 20
221.8719227903561
 30
0.0
 42
1.0
  0
SEQEND
  5
1C67
330
1C64
100
AcDbEntity
  8
LOGO
 62
     5
  0
POLYLINE
  5
1C68
330
A
100
AcDbEntity
  8
LOGO
 62
     5
100
AcDb2dPolyline
 66
     1
 10
0.0
 20
0.0
 30
0.0
 70
     1
  0
VERTEX
  5
1C69
330
1C68
100
AcDbEntity
  8
LOGO
 62
     5
100
AcDbVertex
100
AcDb2dVertex
 10
1078.371862686092
 20
221.6205137593802
 30
0.0
 42
1.000000057330635
  0
VERTEX
  5
1C6A
330
1C68
100
AcDbEntity
  8
LOGO
 62
     5
100
AcDbVertex
100
AcDb2dVertex
 10
1079.880316871947
 20
221.6205137593802
 30
0.0
 42
1.000000057330635
  0
SEQEND
  5
1C6B
330
1C68
100
AcDbEntity
  8
LOGO
 62
     5
  0
CIRCLE
  5
1C6C
330
A
100
AcDbEntity
  8
LOGO
 62
     5
100
AcDbCircle
 10
1079.126089779021
 20
221.6205137593802
 30
0.0
 40
0.754227092927129
  0
POLYLINE
  5
1C6D
330
A
100
AcDbEntity
  8
LOGO
 62
     5
100
AcDb2dPolyline
 66
     1
 10
0.0
 20
0.0
 30
0.0
 70
     1
 40
0.5036238601276235
 41
0.5036238601276235
  0
VERTEX
  5
1C6E
330
1C6D
100
AcDbEntity
  8
LOGO
 62
     5
100
AcDbVertex
100
AcDb2dVertex
 10
1078.118842058765
 20
221.6205137593802
 30
0.0
 42
1.0
  0
VERTEX
  5
1C6F
330
1C6D
100
AcDbEntity
  8
LOGO
 62
     5
100
AcDbVertex
100
AcDb2dVertex
 10
1080.133337499275
 20
221.6205137593802
 30
0.0
 42
1.0
  0
SEQEND
  5
1C70
330
1C6D
100
AcDbEntity
  8
LOGO
 62
     5
  0
LINE
  5
1C71
330
A
100
AcDbEntity
  8
LOGO
100
AcDbLine
 10
1082.980994732777
 20
220.3634686045023
 30
0.0
 11
1082.980994732777
 21
221.8719227903561
 31
0.0
  0
SOLID
  5
1C72
330
A
100
AcDbEntity
  8
LOGO
 62
     5
100
AcDbTrace
 10
1079.880266590143
 20
222.8775589142589
 30
0.0
 11
1080.383084652093
 21
222.8775589142589
 31
0.0
 12
1079.880266590143
 22
220.3634686045023
 32
0.0
 13
1080.383084652093
 23
220.3634686045023
 33
0.0
  0
SOLID
  5
1C73
330
A
100
AcDbEntity
  8
LOGO
 62
     5
100
AcDbTrace
 10
1080.969722484971
 20
220.3634686045023
 30
0.0
 11
1081.472540546923
 21
220.3634686045023
 31
0.0
 12
1080.969722484971
 22
222.8775589142589
 32
0.0
 13
1081.472540546923
 23
222.8775589142589
 33
0.0
  0
SOLID
  5
1C74
330
A
100
AcDbEntity
  8
LOGO
 62
     5
100
AcDbTrace
 10
1082.478176670826
 20
221.8719227903561
 30
0.0
 11
1082.980994732777
 21
221.8719227903561
 31
0.0
 12
1082.478176670826
 22
220.3634686045023
 32
0.0
 13
1082.980994732777
 23
220.3634686045023
 33
0.0
  0
SOLID
  5
1C75
330
A
100
AcDbEntity
  8
LOGO
 62
     5
100
AcDbTrace
 10
1080.919440678776
 20
238.1129461913867
 30
0.0
 11
1079.461268299117
 21
232.7663141326364
 31
0.0
 12
1080.919440678776
 22
225.3916492240156
 32
0.0
 13
1079.461268299117
 23
225.3916492240156
 33
0.0
  0
SOLID
  5
1C76
330
A
100
AcDbEntity
  8
LOGO
 62
     5
100
AcDbTrace
 10
1081.522822353118
 20
225.3916492240156
 30
0.0
 11
1082.980994732777
 21
225.3916492240156
 31
0.0
 12
1081.522822353118
 22
239.2191459276795
 32
0.0
 13
1082.980994732777
 23
239.2191459276803
 33
0.0
  0
SOLID
  5
1C77
330
A
100
AcDbEntity
  8
LOGO
 62
     2
100
AcDbTrace
 10
1080.919440678776
 20
239.2191459276803
 30
0.0
 11
1081.522822353118
 21
239.2191459276795
 31
0.0
 12
1080.919440678776
 22
225.3916492240156
 32
0.0
 13
1081.522822353118
 23
225.3916492240156
 33
0.0
  0
POLYLINE
  5
1C78
330
A
100
AcDbEntity
  8
LOGO
 62
     5
100
AcDb2dPolyline
 66
     1
 10
0.0
 20
0.0
 30
0.0
 40
0.5036238601276235
 41
0.5036238601276235
  0
VERTEX
  5
1C79
330
1C78
100
AcDbEntity
  8
LOGO
 62
     5
100
AcDbVertex
100
AcDb2dVertex
 10
1075.523701989892
 20
221.8719227903561
 30
0.0
 42
1.0
  0
VERTEX
  5
1C7A
330
1C78
100
AcDbEntity
  8
LOGO
 62
     5
100
AcDbVertex
100
AcDb2dVertex
 10
1074.012830409509
 20
221.8719227903561
 30
0.0
 42
1.0
  0
SEQEND
  5
1C7B
330
1C78
100
AcDbEntity
  8
LOGO
 62
     5
  0
POLYLINE
  5
1C7C
330
A
100
AcDbEntity
  8
LOGO
 62
     5
100
AcDb2dPolyline
 66
     1
 10
0.0
 20
0.0
 30
0.0
 40
0.5036238601276235
 41
0.5036238601276235
  0
VERTEX
  5
1C7D
330
1C7C
100
AcDbEntity
  8
LOGO
 62
     5
100
AcDbVertex
100
AcDb2dVertex
 10
1077.032156175745
 20
221.8719227903561
 30
0.0
 42
1.0
  0
VERTEX
  5
1C7E
330
1C7C
100
AcDbEntity
  8
LOGO
 62
     5
100
AcDbVertex
100
AcDb2dVertex
 10
1075.521284595362
 20
221.8719227903561
 30
0.0
 42
1.0
  0
SEQEND
  5
1C7F
330
1C7C
100
AcDbEntity
  8
LOGO
 62
     5
  0
POLYLINE
  5
1C80
330
A
100
AcDbEntity
  8
LOGO
 62
     5
100
AcDb2dPolyline
 66
     1
 10
0.0
 20
0.0
 30
0.0
 40
0.5036238601276235
 41
0.5036238601276235
  0
VERTEX
  5
1C81
330
1C80
100
AcDbEntity
  8
LOGO
 62
     5
100
AcDbVertex
100
AcDb2dVertex
 10
1069.82506376657
 20
221.8719227903561
 30
0.0
 42
1.0
  0
VERTEX
  5
1C82
330
1C80
100
AcDbEntity
  8
LOGO
 62
     5
100
AcDbVertex
100
AcDb2dVertex
 10
1068.314192186188
 20
221.8719227903561
 30
0.0
 42
1.0
  0
SEQEND
  5
1C83
330
1C80
100
AcDbEntity
  8
LOGO
 62
     5
  0
SOLID
  5
1C84
330
A
100
AcDbEntity
  8
LOGO
 62
     5
100
AcDbTrace
 10
1068.063991852477
 20
222.8775589142589
 30
0.0
 11
1068.566809914427
 21
222.8775589142589
 31
0.0
 12
1068.063991852477
 22
220.3634686045023
 32
0.0
 13
1068.566809914427
 23
220.3634686045023
 33
0.0
  0
SOLID
  5
1C85
330
A
100
AcDbEntity
  8
LOGO
 62
     5
100
AcDbTrace
 10
1069.572446038331
 20
221.8719227903561
 30
0.0
 11
1070.075264100283
 21
221.8719227903561
 31
0.0
 12
1069.572446038331
 22
220.3634686045023
 32
0.0
 13
1070.075264100283
 23
220.3634686045023
 33
0.0
  0
POLYLINE
  5
1C86
330
A
100
AcDbEntity
  8
LOGO
 62
     5
100
AcDb2dPolyline
 66
     1
 10
0.0
 20
0.0
 30
0.0
 70
     1
 40
0.5036238601276235
 41
0.5036238601276235
  0
VERTEX
  5
1C87
330
1C86
100
AcDbEntity
  8
LOGO
 62
     5
100
AcDbVertex
100
AcDb2dVertex
 10
1070.91174964959
 20
221.6205137593802
 30
0.0
 42
1.0
  0
VERTEX
  5
1C88
330
1C86
100
AcDbEntity
  8
LOGO
 62
     5
100
AcDbVertex
100
AcDb2dVertex
 10
1072.926245090101
 20
221.6205137593802
 30
0.0
 42
1.0
  0
SEQEND
  5
1C89
330
1C86
100
AcDbEntity
  8
LOGO
 62
     5
  0
SOLID
  5
1C8A
330
A
100
AcDbEntity
  8
LOGO
 62
     5
100
AcDbTrace
 10
1072.673174180967
 20
223.6317860071864
 30
0.0
 11
1073.175992242918
 21
223.6317860071864
 31
0.0
 12
1072.673174180967
 22
220.3634686045023
 32
0.0
 13
1073.175992242918
 23
220.3634686045023
 33
0.0
  0
SOLID
  5
1C8B
330
A
100
AcDbEntity
  8
LOGO
 62
     5
100
AcDbTrace
 10
1073.762630075798
 20
222.8775589142589
 30
0.0
 11
1074.265448137749
 21
222.8775589142589
 31
0.0
 12
1073.762630075798
 22
220.3634686045023
 32
0.0
 13
1074.265448137749
 23
220.3634686045023
 33
0.0
  0
SOLID
  5
1C8C
330
A
100
AcDbEntity
  8
LOGO
 62
     5
100
AcDbTrace
 10
1075.271084261651
 20
221.8719227903561
 30
0.0
 11
1075.773902323603
 21
221.8719227903561
 31
0.0
 12
1075.271084261651
 22
220.3634686045023
 32
0.0
 13
1075.773902323603
 23
220.3634686045023
 33
0.0
  0
SOLID
  5
1C8D
330
A
100
AcDbEntity
  8
LOGO
 62
     5
100
AcDbTrace
 10
1076.779538447506
 20
221.8719227903561
 30
0.0
 11
1077.282356509457
 21
221.8719227903561
 31
0.0
 12
1076.779538447506
 22
220.3634686045014
 32
0.0
 13
1077.282356509457
 23
220.3634686045014
 33
0.0
  0
SOLID
  5
1C8E
330
A
100
AcDbEntity
  8
LOGO
 62
     5
100
AcDbTrace
 10
1066.974535957646
 20
223.2295315576249
 30
0.0
 11
1067.477354019599
 21
223.2295315576249
 31
0.0
 12
1066.974535957646
 22
223.6317860071864
 32
0.0
 13
1067.477354019599
 23
223.6317860071864
 33
0.0
  0
SOLID
  5
1C8F
330
A
100
AcDbEntity
  8
LOGO
 62
     5
100
AcDbTrace
 10
1066.974535957646
 20
222.8775589142589
 30
0.0
 11
1067.477354019599
 21
222.8775589142589
 31
0.0
 12
1066.974535957646
 22
220.3634686045014
 32
0.0
 13
1067.477354019599
 23
220.3634686045023
 33
0.0
  0
SOLID
  5
1C90
330
A
100
AcDbEntity
  8
LOGO
 62
     5
100
AcDbTrace
 10
1071.918997369845
 20
225.3916492240159
 30
0.0
 11
1073.377169749505
 21
225.3916492240159
 31
0.0
 12
1071.918997369845
 22
232.7663141326364
 32
0.0
 13
1073.377169749505
 23
238.1129461913867
 33
0.0
  0
SOLID
  5
1C91
330
A
100
AcDbEntity
  8
LOGO
 62
     5
100
AcDbTrace
 10
1073.980551423848
 20
239.2191459276795
 30
0.0
 11
1075.438723803506
 21
239.2191459276803
 31
0.0
 12
1073.980551423848
 22
226.4978489603089
 32
0.0
 13
1075.438723803506
 23
231.8444810190591
 33
0.0
  0
SOLID
  5
1C92
330
A
100
AcDbEntity
  8
LOGO
 62
     2
100
AcDbTrace
 10
1073.377169749505
 20
239.2191459276795
 30
0.0
 11
1073.980551423848
 21
239.2191459276795
 31
0.0
 12
1073.377169749505
 22
225.3916492240159
 32
0.0
 13
1073.980551423848
 23
225.3916492240159
 33
0.0
  0
SOLID
  5
1C93
330
A
100
AcDbEntity
  8
LOGO
 62
     5
100
AcDbTrace
 10
1073.980551423848
 20
226.4978489603089
 30
0.0
 11
1075.438723803506
 21
231.8444810190591
 31
0.0
 12
1080.919440678776
 22
239.2191459276803
 32
0.0
 13
1079.461268299117
 23
239.2191459276803
 33
0.0
  0
SOLID
  5
1C94
330
A
100
AcDbEntity
  8
LOGO
 62
     5
100
AcDbTrace
 10
1073.980551423848
 20
225.3916492240159
 30
0.0
 11
1075.438723803506
 21
225.3916492240159
 31
0.0
 12
1080.919440678776
 22
238.1129461913867
 32
0.0
 13
1079.461268299117
 23
232.7663141326364
 33
0.0
  0
SOLID
  5
1C95
330
A
100
AcDbEntity
  8
LOGO
 62
     2
100
AcDbTrace
 10
1073.377169749505
 20
225.3916492240159
 30
0.0
 11
1073.980551423848
 21
225.3916492240159
 31
0.0
 12
1080.919440678776
 22
239.2191459276803
 32
0.0
 13
1081.522822353118
 23
239.2191459276795
 33
0.0
  0
TEXT
  5
1C96
330
A
100
AcDbEntity
  8
LOGO
100
AcDbText
 10
1136.410033152863
 20
208.0896011194758
 30
0.0
 40
3.3729696
  1
01005060
 41
0.7
  7
CHINESET
 72
     1
 11
1144.842457152863
 21
208.0896011194758
 31
0.0
100
AcDbText
  0
LINE
  5
1C97
330
A
100
AcDbEntity
  8
LOGO
 62
     4
100
AcDbLine
 10
1155.31012720158
 20
213.0404168411651
 30
0.0
 11
1155.310127201582
 21
206.295454428741
 31
0.0
  0
LINE
  5
1C98
330
A
100
AcDbEntity
  8
LOGO
 62
     4
100
AcDbLine
 10
1155.31012720158
 20
213.0404168411651
 30
0.0
 11
1135.072309601582
 21
213.0404168411651
 31
0.0
  0
LINE
  5
1C99
330
A
100
AcDbEntity
  8
LOGO
  6
AM_ISO08W050x2
 48
0.2
100
AcDbLine
 10
1116.134344313568
 20
229.9100366342027
 30
0.0
 11
1121.533000359937
 21
229.9100366342027
 31
0.0
1001
GENIUS_GENOREF_13
1005
1C9E
  0
LINE
  5
1C9A
330
A
100
AcDbEntity
  8
LOGO
  6
AM_ISO08W050x2
 48
0.2
100
AcDbLine
 10
1118.833672336752
 20
227.2107086110181
 30
0.0
 11
1118.833672336752
 21
232.609364657387
 31
0.0
1001
GENIUS_GENOREF_13
1005
1C9D
  0
LINE
  5
1C9B
330
A
100
AcDbEntity
  8
LOGO
  6
AM_ISO08W050x2
 48
0.3
100
AcDbLine
 10
1124.509278618655
 20
229.9100366342027
 30
0.0
 11
1131.757007132805
 21
229.9100366342027
 31
0.0
1001
GENIUS_GENOREF_13
1005
1C9C
  0
POINT
  5
1C9C
330
A
100
AcDbEntity
  8
0
 60
     1
100
AcDbPoint
 10
-1593.379040456162
 20
-905.8533651541795
 30
0.0
1001
GENIUS_GENOBJ-N-CRS_13
1002
{
1000
OWNER
1000
GEN
1002
}
1001
GENIUS_GENOLIS_13
1002
{
1000
ENT
1005
0
1005
0
1005
0
1005
1C9B
1002
}
1001
GENIUS_GENOENT_13
1002
{
1000
MYREF
1005
1C9C
1002
}
1002
{
1000
GRP
1005
0
1002
}
1001
GENIUS_GENODEF_13
1002
{
1000
HIER
1070
    10
1002
}
1002
{
1000
MANEDIT
1070
     1
1002
}
1002
{
1000
NOSEL
1070
     0
1002
}
1002
{
1000
BEHIND
1070
     0
1002
}
1002
{
1000
OTHER
1070
     0
1002
}
1002
{
1000
REACTOR
1002
}
  0
POINT
  5
1C9D
330
A
100
AcDbEntity
  8
0
 60
     1
100
AcDbPoint
 10
-1604.703625679017
 20
-896.9777786755432
 30
0.0
1001
GENIUS_GENOBJ-N-CRS_13
1002
{
1000
OWNER
1000
GEN
1002
}
1001
GENIUS_GENOLIS_13
1002
{
1000
ENT
1005
0
1005
0
1005
0
1005
1C9A
1002
}
1001
GENIUS_GENOENT_13
1002
{
1000
MYREF
1005
1C9D
1002
}
1002
{
1000
GRP
1005
0
1002
}
1001
GENIUS_GENODEF_13
1002
{
1000
HIER
1070
    10
1002
}
1002
{
1000
MANEDIT
1070
     1
1002
}
1002
{
1000
NOSEL
1070
     0
1002
}
1002
{
1000
BEHIND
1070
     0
1002
}
1002
{
1000
OTHER
1070
     0
1002
}
1002
{
1000
REACTOR
1002
}
  0
POINT
  5
1C9E
330
A
100
AcDbEntity
  8
0
 60
     1
100
AcDbPoint
 10
-1598.34495198118
 20
-905.8533651541795
 30
0.0
1001
GENIUS_GENOBJ-N-CRS_13
1002
{
1000
OWNER
1000
GEN
1002
}
1001
GENIUS_GENOLIS_13
1002
{
1000
ENT
1005
0
1005
0
1005
0
1005
1C99
1002
}
1001
GENIUS_GENOENT_13
1002
{
1000
MYREF
1005
1C9E
1002
}
1002
{
1000
GRP
1005
0
1002
}
1001
GENIUS_GENODEF_13
1002
{
1000
HIER
1070
    10
1002
}
1002
{
1000
MANEDIT
1070
     1
1002
}
1002
{
1000
NOSEL
1070
     0
1002
}
1002
{
1000
BEHIND
1070
     0
1002
}
1002
{
1000
OTHER
1070
     0
1002
}
1002
{
1000
REACTOR
1002
}
  0
LEADER
  5
28D6
330
A
100
AcDbEntity
  8
AM_5
100
AcDbLeader
  3
AM_ISO$7
 73
     0
 74
     0
 75
     1
 40
4.676852903476758
 41
55.29862204724413
 76
     3
 10
1343.600428733077
 20
495.6072317562156
 30
0.0
 10
1356.606299912592
 20
524.9719558980156
 30
0.0
 10
1359.606299912592
 20
524.9719558980156
 30
0.0
340
28D7
1001
ACAD
1000
DSTYLE
1002
{
1070
   140
1040
3.5
1070
   174
1070
     1
1002
}
  0
MTEXT
  5
28D7
102
{ACAD_REACTORS
330
28D6
102
}
330
A
100
AcDbEntity
  8
AM_5
100
AcDbMText
 10
1360.606299912592
 20
525.9719558980155
 30
0.0
 40
3.5
 41
0.0
 71
     7
 72
     1
  1
M5*0.8(Finger Openingport)
 73
     1
 44
1.0
1001
ACAD
1000
MTEXTBEGIN
1070
    73
1070
     1
1070
    44
1040
1.0
1070
    74
1070
     0
1000
MTEXTEND
  0
LEADER
  5
333B
330
A
100
AcDbEntity
  8
AM_5
100
AcDbLeader
  3
AM_ISO$7
 73
     0
 74
     0
 75
     1
 40
4.676852903476758
 41
55.29862204724413
 76
     3
 10
1313.686385859517
 20
463.8056964304301
 30
0.0
 10
1338.355636560236
 20
428.8904262620839
 30
0.0
 10
1341.355636560237
 20
428.8904262620839
 30
0.0
340
333C
1001
ACAD
1000
DSTYLE
1002
{
1070
   140
1040
3.5
1070
   174
1070
     1
1002
}
  0
MTEXT
  5
333C
102
{ACAD_REACTORS
330
333B
102
}
330
A
100
AcDbEntity
  8
AM_5
100
AcDbMText
 10
1342.355636560237
 20
429.8904262620839
 30
0.0
 40
3.5
 41
0.0
 71
     7
 72
     1
  1
M5*0.8(Finger Openingport)
 73
     1
 44
1.0
1001
ACAD
1000
MTEXTBEGIN
1070
    73
1070
     1
1070
    44
1040
1.0
1070
    74
1070
     0
1000
MTEXTEND
  0
LEADER
  5
3FEB
330
A
100
AcDbEntity
  8
AM_5
100
AcDbLeader
  3
AM_ISO$7
 73
     0
 74
     0
 75
     1
 40
14.76455176687155
 41
95.50000000000006
 76
     3
 10
1200.586725803577
 20
366.0116307567701
 30
0.0
 10
1223.184827999064
 20
402.7683636843661
 30
0.0
 10
1226.184827999063
 20
402.7683636843661
 30
0.0
340
3FEC
213
1.512345450629709
223
9.377176379185129
233
0.0
1001
ACAD
1000
DSTYLE
1002
{
1070
   140
1040
3.5
1070
   272
1070
     8
1002
}
  0
MTEXT
  5
3FEC
102
{ACAD_REACTORS
330
3FEB
102
}
330
A
100
AcDbEntity
  8
AM_5
100
AcDbMText
 10
1225.672482548434
 20
394.3911873051809
 30
0.0
 40
5.0
 41
0.0
 71
     7
 72
     1
  1
6-M5*0.8*10depth\PThread for mounting attachment
 73
     1
 44
1.0
1001
ACAD
1000
MTEXTBEGIN
1070
    73
1070
     1
1070
    44
1040
1.0
1070
    74
1070
     0
1000
MTEXTEND
  0
MTEXT
  5
4036
330
A
100
AcDbEntity
  8
AM_5
100
AcDbMText
 10
1110.492908264363
 20
390.1999458232664
 30
0.0
 40
3.5
 41
61.42888888888889
 71
     1
 72
     5
  1
P.C.D%%C62\P(mounting hole)
 73
     1
 44
1.0
1001
ACAD
1000
MTEXTBEGIN
1070
    73
1070
     1
1070
    44
1040
1.0
1070
    74
1070
     0
1000
MTEXTEND
  0
MTEXT
  5
4412
330
A
100
AcDbEntity
  8
AM_5
100
AcDbMText
 10
1517.49907369167
 20
376.4150464075998
 30
0.0
 40
3.5
 41
38.43995361238103
 71
     1
 72
     5
  1
P.C.D%%C62
 73
     1
 44
1.0
1001
ACAD
1000
MTEXTBEGIN
1070
    73
1070
     1
1070
    44
1040
1.0
1070
    74
1070
     0
1000
MTEXTEND
  0
LINE
  5
4F0C
330
A
100
AcDbEntity
  8
CENTER
100
AcDbLine
 10
1447.8138612946
 20
364.7245807672796
 30
0.0
 11
1459.677047697917
 21
336.0843152594295
 31
0.0
  0
LINE
  5
4F0D
330
A
100
AcDbEntity
  8
CENTER
100
AcDbLine
 10
1459.677047697917
 20
336.0843152594295
 30
0.0
 11
1471.647752714315
 21
368.9735569869363
 31
0.0
  0
LINE
  5
4F0E
330
A
100
AcDbEntity
  8
CENTER
100
AcDbLine
 10
1459.677047697917
 20
336.0843152594295
 30
0.0
 11
1447.706342681518
 21
368.9735569869362
 31
0.0
  0
DIMENSION
  5
4F0F
330
A
100
AcDbEntity
  8
AM_5
100
AcDbDimension
  2
*D2
 10
1459.677047697917
 20
374.0568923159499
 30
0.0
 11
1468.832286945432
 21
388.0062571581143
 31
0.0
 70
    34
 71
     5
 42
0.3490658503988613
  3
AM_ISO$2
100
AcDb2LineAngularDimension
 13
1459.677047697917
 23
336.0843152594295
 33
0.0
 14
1471.647752714315
 24
368.9735569869363
 34
0.0
 15
1459.677047697917
 25
290.5328693082489
 35
0.0
 16
1471.20151706905
 26
384.7098750339323
 36
0.0
1001
ACAD
1000
DSTYLE
1002
{
1070
   179
1070
     2
1070
   272
1070
     8
1002
}
  0
DIMENSION
  5
4F10
330
A
100
AcDbEntity
  8
AM_5
100
AcDbDimension
  2
*D3
 10
1447.706342681518
 20
368.9735569869362
 30
0.0
 11
1450.521808450401
 21
388.0062571581135
 31
0.0
 70
    34
 71
     5
 42
0.3490658503988724
  3
AM_ISO$2
100
AcDb2LineAngularDimension
 13
1459.677047697917
 23
290.5328693082489
 33
0.0
 14
1459.677047697917
 24
374.0568923159499
 34
0.0
 15
1459.677047697917
 25
336.0843152594295
 35
0.0
 16
1453.875585601078
 26
385.7189956271804
 36
0.0
1001
ACAD
1000
DSTYLE
1002
{
1070
   179
1070
     2
1070
   272
1070
     8
1002
}
  0
DIMENSION
  5
4F11
330
A
100
AcDbEntity
  8
AM_5
100
AcDbDimension
  2
*D4
 10
1459.677047697917
 20
336.0843152594295
 30
0.0
 11
1448.123228863023
 21
394.1692849729559
 31
0.0
 70
    34
 71
     5
 42
0.3926990816987297
  3
AM_ISO$2
100
AcDb2LineAngularDimension
 13
1459.677047697917
 23
290.5328693082489
 33
0.0
 14
1459.677047697917
 24
374.0568923159499
 34
0.0
 15
1447.813861294599
 25
364.7245807672792
 35
0.0
 16
1452.305897249876
 26
392.0737615906532
 36
0.0
1001
ACAD
1000
DSTYLE
1002
{
1070
   179
1070
     2
1070
   272
1070
     8
1002
}
  0
ARC
  5
5BD9
330
A
100
AcDbEntity
  8
0
100
AcDbCircle
 10
1152.356881040195
 20
336.0843152594295
 30
0.0
 40
52.00000000000005
100
AcDbArc
 50
12.07978686060807
 51
24.48226562622204
  0
ARC
  5
5BDA
330
A
100
AcDbEntity
  8
0
100
AcDbCircle
 10
1152.356881040195
 20
336.0843152594295
 30
0.0
 40
49.00000000000009
100
AcDbArc
 50
10.94166751711087
 51
24.14329809008334
  0
LINE
  5
5BDB
330
A
100
AcDbEntity
  8
0
100
AcDbLine
 10
1203.205451611452
 20
346.9665425525847
 30
0.0
 11
1200.466106911557
 21
345.3849811526974
 31
0.0
  0
LINE
  5
5BDC
330
A
100
AcDbEntity
  8
0
100
AcDbLine
 10
1133.443009118384
 20
309.6543308795937
 30
0.0
 11
1134.239019748206
 21
309.5139727286252
 31
0.0
  0
LINE
  5
5BDD
330
A
100
AcDbEntity
  8
0
100
AcDbLine
 10
1134.239019748206
 20
309.5139727286252
 30
0.0
 11
1136.617333904046
 21
312.3483371681654
 31
0.0
  0
LINE
  5
5BDE
330
A
100
AcDbEntity
  8
0
100
AcDbLine
 10
1136.617333904046
 20
312.3483371681654
 30
0.0
 11
1131.714649468085
 21
316.4621778701592
 31
0.0
  0
LINE
  5
5BDF
330
A
100
AcDbEntity
  8
0
100
AcDbLine
 10
1131.714649468085
 20
316.4621778701592
 30
0.0
 11
1129.336335312245
 21
313.627813430619
 31
0.0
  0
LINE
  5
5BE0
330
A
100
AcDbEntity
  8
0
100
AcDbLine
 10
1129.336335312245
 20
313.627813430619
 30
0.0
 11
1129.612786902789
 21
312.8682689280263
 31
0.0
  0
LINE
  5
5BE1
330
A
100
AcDbEntity
  8
0
100
AcDbLine
 10
1129.612786902789
 20
312.8682689280263
 30
0.0
 11
1127.808342845438
 21
310.7178162400424
 31
0.0
  0
ARC
  5
5BE2
330
A
100
AcDbEntity
  8
0
100
AcDbCircle
 10
1152.356881040195
 20
336.0843152594295
 30
0.0
 40
35.29999999999997
100
AcDbArc
 50
217.7332300146523
 51
225.9388254784469
  0
LINE
  5
5BE3
330
A
100
AcDbEntity
  8
0
100
AcDbLine
 10
1124.439214848524
 20
314.4812156112209
 30
0.0
 11
1127.885093522877
 21
316.4706945914534
 31
0.0
  0
ARC
  5
5BE4
330
A
100
AcDbEntity
  8
0
100
AcDbCircle
 10
1125.510093522877
 20
320.5843152594297
 30
0.0
 40
4.750000000000044
100
AcDbArc
 50
300.0000000000005
 51
120.0000000000005
  0
LINE
  5
5BE5
330
A
100
AcDbEntity
  8
0
100
AcDbLine
 10
1123.135093522877
 20
324.6979359274058
 30
0.0
 11
1119.689214848524
 21
322.7084569471732
 31
0.0
  0
ARC
  5
5BE6
330
A
100
AcDbEntity
  8
0
100
AcDbCircle
 10
1152.356881040195
 20
336.0843152594295
 30
0.0
 40
35.29999999999999
100
AcDbArc
 50
194.0611745215515
 51
202.2667699853514
  0
LINE
  5
5BE7
330
A
100
AcDbEntity
  8
0
100
AcDbLine
 10
1118.114579386954
 20
327.5079070666905
 30
0.0
 11
1120.87914807306
 21
327.9953751160729
 31
0.0
  0
LINE
  5
5BE8
330
A
100
AcDbEntity
  8
0
100
AcDbLine
 10
1120.87914807306
 20
327.9953751160729
 30
0.0
 11
1121.398707112338
 21
327.3761887644484
 31
0.0
  0
LINE
  5
5BE9
330
A
100
AcDbEntity
  8
0
100
AcDbLine
 10
1121.398707112338
 20
327.3761887644484
 30
0.0
 11
1125.042495798483
 21
328.0186870218162
 31
0.0
  0
LINE
  5
5BEA
330
A
100
AcDbEntity
  8
0
100
AcDbLine
 10
1125.042495798483
 20
328.0186870218162
 30
0.0
 11
1123.931147461415
 21
334.3214566410943
 31
0.0
  0
LINE
  5
5BEB
330
A
100
AcDbEntity
  8
0
100
AcDbLine
 10
1123.931147461415
 20
334.3214566410943
 30
0.0
 11
1120.28735877527
 21
333.6789583837267
 31
0.0
  0
LINE
  5
5BEC
330
A
100
AcDbEntity
  8
0
100
AcDbLine
 10
1120.28735877527
 20
333.6789583837267
 30
0.0
 11
1120.010907184726
 21
332.919413881134
 31
0.0
  0
LINE
  5
5BED
330
A
100
AcDbEntity
  8
0
100
AcDbLine
 10
1120.010907184726
 20
332.919413881134
 30
0.0
 11
1117.246338498619
 21
332.4319458317516
 31
0.0
  0
ARC
  5
5BEE
330
A
100
AcDbEntity
  8
0
100
AcDbCircle
 10
1152.356881040195
 20
336.0843152594295
 30
0.0
 40
35.29999999999998
100
AcDbArc
 50
180.5909765702932
 51
185.9388254784492
  0
ARC
  5
5BEF
330
A
100
AcDbEntity
  8
0
100
AcDbCircle
 10
1113.058971558459
 20
335.6789631097145
 30
0.0
 40
4.000000000000011
100
AcDbArc
 50
0.590976570312785
 51
59.99999999999946
  0
LINE
  5
5BF0
330
A
100
AcDbEntity
  8
0
100
AcDbLine
 10
1104.247655168832
 20
345.3849811526974
 30
0.0
 11
1115.058971558459
 21
339.1430647248522
 31
0.0
  0
ARC
  5
5BF1
330
A
100
AcDbEntity
  8
0
100
AcDbCircle
 10
1152.356881040195
 20
336.0843152594295
 30
0.0
 40
48.99999999999998
100
AcDbArc
 50
155.8567019099166
 51
169.0583324828948
  0
LINE
  5
5BF2
330
A
100
AcDbEntity
  8
0
100
AcDbLine
 10
1130.804322156937
 20
342.7541882405074
 30
0.0
 11
1118.679966503955
 21
349.7541882405074
 31
0.0
  0
LINE
  5
5BF3
330
A
100
AcDbEntity
  8
0
100
AcDbLine
 10
1135.804322156937
 20
351.4144422783517
 30
0.0
 11
1130.804322156937
 21
342.7541882405074
 31
0.0
  0
LINE
  5
5BF4
330
A
100
AcDbEntity
  8
0
100
AcDbLine
 10
1135.804322156937
 20
351.4144422783517
 30
0.0
 11
1123.679966503955
 21
358.4144422783517
 31
0.0
  0
ARC
  5
5BF5
330
A
100
AcDbEntity
  8
0
100
AcDbCircle
 10
1152.356881040195
 20
336.0843152594295
 30
0.0
 40
49.00000000000001
100
AcDbArc
 50
130.9416675171059
 51
144.1432980900795
  0
LINE
  5
5BF6
330
A
100
AcDbEntity
  8
0
100
AcDbLine
 10
1131.058971558459
 20
366.8558776459542
 30
0.0
 11
1120.247655168832
 21
373.0977940737994
 31
0.0
  0
ARC
  5
5BF7
330
A
100
AcDbEntity
  8
0
100
AcDbCircle
 10
1133.058971558459
 20
370.3199792610918
 30
0.0
 40
3.999999999999993
100
AcDbArc
 50
239.9999999999995
 51
299.4090234297102
  0
ARC
  5
5BF8
330
A
100
AcDbEntity
  8
0
100
AcDbCircle
 10
1152.356881040195
 20
336.0843152594295
 30
0.0
 40
35.3
100
AcDbArc
 50
97.73323001465092
 51
119.4090234297102
  0
LINE
  5
5BF9
330
A
100
AcDbEntity
  8
0
100
AcDbLine
 10
1147.606881040195
 20
371.0632732198948
 30
0.0
 11
1147.606881040195
 21
367.0843152594295
 31
0.0
  0
ARC
  5
5BFA
330
A
100
AcDbEntity
  8
0
100
AcDbCircle
 10
1152.356881040195
 20
367.0843152594295
 30
0.0
 40
4.750000000000056
100
AcDbArc
 50
180.0
 51
0.0
  0
LINE
  5
5BFB
330
A
100
AcDbEntity
  8
0
100
AcDbLine
 10
1157.106881040195
 20
367.0843152594295
 30
0.0
 11
1157.106881040195
 21
371.0632732198948
 31
0.0
  0
ARC
  5
5BFC
330
A
100
AcDbEntity
  8
0
100
AcDbCircle
 10
1152.356881040195
 20
336.0843152594295
 30
0.0
 40
35.30000000000003
100
AcDbArc
 50
60.59097657028974
 51
82.26676998534909
  0
ARC
  5
5BFD
330
A
100
AcDbEntity
  8
0
100
AcDbCircle
 10
1171.654790521931
 20
370.3199792610918
 30
0.0
 40
3.999999999999965
100
AcDbArc
 50
240.5909765702898
 51
300.0000000000005
  0
LINE
  5
5BFE
330
A
100
AcDbEntity
  8
0
100
AcDbLine
 10
1184.466106911557
 20
373.0977940737994
 30
0.0
 11
1173.654790521931
 21
366.8558776459542
 31
0.0
  0
ARC
  5
5BFF
330
A
100
AcDbEntity
  8
0
100
AcDbCircle
 10
1152.356881040195
 20
336.0843152594295
 30
0.0
 40
49.00000000000003
100
AcDbArc
 50
35.8567019099205
 51
49.05833248289404
  0
LINE
  5
5C00
330
A
100
AcDbEntity
  8
0
100
AcDbLine
 10
1168.909439923452
 20
351.4144422783514
 30
0.0
 11
1181.033795576435
 21
358.4144422783513
 31
0.0
  0
LINE
  5
5C01
330
A
100
AcDbEntity
  8
0
100
AcDbLine
 10
1173.909439923453
 20
342.754188240507
 30
0.0
 11
1168.909439923452
 21
351.4144422783514
 31
0.0
  0
LINE
  5
5C02
330
A
100
AcDbEntity
  8
0
100
AcDbLine
 10
1173.909439923453
 20
342.754188240507
 30
0.0
 11
1186.033795576435
 21
349.7541882405069
 31
0.0
  0
ARC
  5
5C03
330
A
100
AcDbEntity
  8
0
100
AcDbCircle
 10
1191.654790521931
 20
335.6789631097145
 30
0.0
 40
4.000000000000011
100
AcDbArc
 50
120.0000000000005
 51
179.4090234296872
  0
ARC
  5
5C04
330
A
100
AcDbEntity
  8
0
100
AcDbCircle
 10
1152.356881040195
 20
336.0843152594295
 30
0.0
 40
35.30000000000003
100
AcDbArc
 50
354.061174521554
 51
359.40902342971
  0
LINE
  5
5C05
330
A
100
AcDbEntity
  8
0
100
AcDbLine
 10
1184.702854895664
 20
332.919413881134
 30
0.0
 11
1187.46742358177
 21
332.4319458317516
 31
0.0
  0
LINE
  5
5C06
330
A
100
AcDbEntity
  8
0
100
AcDbLine
 10
1184.42640330512
 20
333.6789583837267
 30
0.0
 11
1184.702854895664
 21
332.919413881134
 31
0.0
  0
LINE
  5
5C07
330
A
100
AcDbEntity
  8
0
100
AcDbLine
 10
1180.782614618974
 20
334.3214566410943
 30
0.0
 11
1184.42640330512
 21
333.6789583837267
 31
0.0
  0
LINE
  5
5C08
330
A
100
AcDbEntity
  8
0
100
AcDbLine
 10
1179.671266281906
 20
328.0186870218162
 30
0.0
 11
1180.782614618974
 21
334.3214566410943
 31
0.0
  0
LINE
  5
5C09
330
A
100
AcDbEntity
  8
0
100
AcDbLine
 10
1183.315054968051
 20
327.3761887644484
 30
0.0
 11
1179.671266281906
 21
328.0186870218162
 31
0.0
  0
LINE
  5
5C0A
330
A
100
AcDbEntity
  8
0
100
AcDbLine
 10
1183.834614007329
 20
327.9953751160729
 30
0.0
 11
1183.315054968051
 21
327.3761887644484
 31
0.0
  0
LINE
  5
5C0B
330
A
100
AcDbEntity
  8
0
100
AcDbLine
 10
1186.599182693435
 20
327.5079070666905
 30
0.0
 11
1183.834614007329
 21
327.9953751160729
 31
0.0
  0
ARC
  5
5C0C
330
A
100
AcDbEntity
  8
0
100
AcDbCircle
 10
1152.356881040195
 20
336.0843152594295
 30
0.0
 40
35.30000000000005
100
AcDbArc
 50
337.7332300146487
 51
345.9388254784485
  0
LINE
  5
5C0D
330
A
100
AcDbEntity
  8
0
100
AcDbLine
 10
1185.024547231865
 20
322.7084569471728
 30
0.0
 11
1181.578668557512
 21
324.6979359274055
 31
0.0
  0
ARC
  5
5C0E
330
A
100
AcDbEntity
  8
0
100
AcDbCircle
 10
1179.203668557512
 20
320.5843152594293
 30
0.0
 40
4.750000000000023
100
AcDbArc
 50
59.99999999999946
 51
239.9999999999995
  0
LINE
  5
5C0F
330
A
100
AcDbEntity
  8
0
100
AcDbLine
 10
1176.828668557512
 20
316.4706945914532
 30
0.0
 11
1180.274547231865
 21
314.4812156112205
 31
0.0
  0
ARC
  5
5C10
330
A
100
AcDbEntity
  8
0
100
AcDbCircle
 10
1152.356881040195
 20
336.0843152594295
 30
0.0
 40
35.29999999999998
100
AcDbArc
 50
314.0611745215531
 51
322.2667699853476
  0
LINE
  5
5C11
330
A
100
AcDbEntity
  8
0
100
AcDbLine
 10
1175.1009751776
 20
312.8682689280263
 30
0.0
 11
1176.905419234952
 21
310.7178162400424
 31
0.0
  0
LINE
  5
5C12
330
A
100
AcDbEntity
  8
0
100
AcDbLine
 10
1175.377426768144
 20
313.627813430619
 30
0.0
 11
1175.1009751776
 21
312.8682689280263
 31
0.0
  0
LINE
  5
5C13
330
A
100
AcDbEntity
  8
0
100
AcDbLine
 10
1172.999112612304
 20
316.4621778701592
 30
0.0
 11
1175.377426768144
 21
313.627813430619
 31
0.0
  0
LINE
  5
5C14
330
A
100
AcDbEntity
  8
0
100
AcDbLine
 10
1168.096428176343
 20
312.3483371681654
 30
0.0
 11
1172.999112612304
 21
316.4621778701592
 31
0.0
  0
LINE
  5
5C15
330
A
100
AcDbEntity
  8
0
100
AcDbLine
 10
1170.474742332183
 20
309.5139727286252
 30
0.0
 11
1168.096428176343
 21
312.3483371681654
 31
0.0
  0
LINE
  5
5C16
330
A
100
AcDbEntity
  8
0
100
AcDbLine
 10
1171.270752962005
 20
309.6543308795937
 30
0.0
 11
1170.474742332183
 21
309.5139727286252
 31
0.0
  0
LINE
  5
5C17
330
A
100
AcDbEntity
  8
0
100
AcDbLine
 10
1173.075197019357
 20
307.5038781916098
 30
0.0
 11
1171.270752962005
 21
309.6543308795937
 31
0.0
  0
ARC
  5
5C18
330
A
100
AcDbEntity
  8
0
100
AcDbCircle
 10
1152.356881040195
 20
336.0843152594295
 30
0.0
 40
35.30000000000004
100
AcDbArc
 50
300.5909765702877
 51
305.9388254784464
  0
ARC
  5
5C19
330
A
100
AcDbEntity
  8
0
100
AcDbCircle
 10
1172.356881040195
 20
302.2540034074822
 30
0.0
 40
4.0
100
AcDbArc
 50
120.5909765702877
 51
180.0
  0
LINE
  5
5C1A
330
A
100
AcDbEntity
  8
0
100
AcDbLine
 10
1168.356881040195
 20
289.7701705517917
 30
0.0
 11
1168.356881040195
 21
302.2540034074822
 31
0.0
  0
ARC
  5
5C1B
330
A
100
AcDbEntity
  8
0
100
AcDbCircle
 10
1152.356881040195
 20
336.0843152594295
 30
0.0
 40
48.99999999999999
100
AcDbArc
 50
275.8567019099171
 51
289.0583324829017
  0
LINE
  5
5C1C
330
A
100
AcDbEntity
  8
0
100
AcDbLine
 10
1157.356881040195
 20
314.0843152594294
 30
0.0
 11
1157.356881040195
 21
300.0843152594294
 31
0.0
  0
LINE
  5
5C1D
330
A
100
AcDbEntity
  8
0
100
AcDbLine
 10
1147.356881040195
 20
314.0843152594294
 30
0.0
 11
1157.356881040195
 21
314.0843152594294
 31
0.0
  0
LINE
  5
5C1E
330
A
100
AcDbEntity
  8
0
100
AcDbLine
 10
1147.356881040195
 20
314.0843152594294
 30
0.0
 11
1147.356881040195
 21
300.0843152594294
 31
0.0
  0
ARC
  5
5C1F
330
A
100
AcDbEntity
  8
0
100
AcDbCircle
 10
1152.356881040195
 20
336.0843152594295
 30
0.0
 40
48.99999999999999
100
AcDbArc
 50
250.9416675171117
 51
264.1432980900829
  0
LINE
  5
5C20
330
A
100
AcDbEntity
  8
0
100
AcDbLine
 10
1136.356881040195
 20
302.2540034074822
 30
0.0
 11
1136.356881040195
 21
289.7701705517917
 31
0.0
  0
ARC
  5
5C21
330
A
100
AcDbEntity
  8
0
100
AcDbCircle
 10
1132.356881040195
 20
302.2540034074822
 30
0.0
 40
4.0
100
AcDbArc
 50
0.0
 51
59.40902342971233
  0
ARC
  5
5C22
330
A
100
AcDbEntity
  8
0
100
AcDbCircle
 10
1152.356881040195
 20
336.0843152594295
 30
0.0
 40
35.30000000000001
100
AcDbArc
 50
234.0611745215536
 51
239.4090234297123
  0
LINE
  5
5C23
330
A
100
AcDbEntity
  8
0
100
AcDbLine
 10
1131.638565061032
 20
307.5038781916098
 30
0.0
 11
1133.443009118384
 21
309.6543308795937
 31
0.0
  0
LINE
  5
5C24
330
A
100
AcDbEntity
  8
0
100
AcDbLine
 10
1189.654790521931
 20
339.1430647248522
 30
0.0
 11
1200.466106911557
 21
345.3849811526974
 31
0.0
  0
LINE
  5
5C25
330
A
100
AcDbEntity
  8
0
100
AcDbLine
 10
1184.466106911557
 20
373.0977940737994
 30
0.0
 11
1187.205451611451
 21
374.6793554736866
 31
0.0
  0
ARC
  5
5C26
330
A
100
AcDbEntity
  8
0
100
AcDbCircle
 10
1152.356881040195
 20
336.0843152594295
 30
0.0
 40
52.00000000000003
100
AcDbArc
 50
35.51773437378205
 51
47.92021313938769
  0
ARC
  5
5C27
330
A
100
AcDbEntity
  8
0
100
AcDbCircle
 10
1152.356881040195
 20
336.0843152594295
 30
0.0
 40
51.99999999999999
100
AcDbArc
 50
275.5177343737785
 51
287.9202131393961
  0
LINE
  5
5C28
330
A
100
AcDbEntity
  8
0
100
AcDbLine
 10
1168.356881040195
 20
289.7701705517917
 30
0.0
 11
1168.356881040195
 21
286.6070477520175
 31
0.0
  0
ARC
  5
5C29
330
A
100
AcDbEntity
  8
CENTER
100
AcDbCircle
 10
1152.356881040195
 20
336.0843152594295
 30
0.0
 40
52.00000000000002
100
AcDbArc
 50
220.1630193705831
 51
247.728462724143
  0
LINE
  5
5C2A
330
A
100
AcDbEntity
  8
0
100
AcDbLine
 10
1136.356881040195
 20
286.6070477520174
 30
0.0
 11
1136.356881040195
 21
289.7701705517917
 31
0.0
  0
ARC
  5
5C2B
330
A
100
AcDbEntity
  8
0
100
AcDbCircle
 10
1152.356881040195
 20
336.0843152594295
 30
0.0
 40
52.00000000000003
100
AcDbArc
 50
132.0797868606123
 51
144.4822656262179
  0
LINE
  5
5C2C
330
A
100
AcDbEntity
  8
0
100
AcDbLine
 10
1117.508310468938
 20
374.6793554736866
 30
0.0
 11
1120.247655168832
 21
373.0977940737994
 31
0.0
  0
ARC
  5
5C2D
330
A
100
AcDbEntity
  8
0
100
AcDbCircle
 10
1152.356881040195
 20
336.0843152594295
 30
0.0
 40
51.99999999999999
100
AcDbArc
 50
155.5177343737779
 51
167.9202131393919
  0
LINE
  5
5C2E
330
A
100
AcDbEntity
  8
0
100
AcDbLine
 10
1104.247655168832
 20
345.3849811526974
 30
0.0
 11
1101.508310468938
 21
346.9665425525847
 31
0.0
  0
CIRCLE
  5
5C2F
330
A
100
AcDbEntity
  8
0
100
AcDbCircle
 10
1179.203668557512
 20
320.5843152594293
 30
0.0
 40
2.75
  0
ARC
  5
5C30
330
A
100
AcDbEntity
  8
0
100
AcDbCircle
 10
1152.356881040195
 20
336.0843152594295
 30
0.0
 40
35.3
100
AcDbArc
 50
322.2667699853476
 51
337.7332300146487
  0
CIRCLE
  5
5C31
330
A
100
AcDbEntity
  8
0
100
AcDbCircle
 10
1152.356881040195
 20
367.0843152594295
 30
0.0
 40
2.750000000000055
  0
ARC
  5
5C32
330
A
100
AcDbEntity
  8
0
100
AcDbCircle
 10
1152.356881040195
 20
336.0843152594295
 30
0.0
 40
35.30000000000001
100
AcDbArc
 50
82.26676998534909
 51
97.73323001465092
  0
CIRCLE
  5
5C33
330
A
100
AcDbEntity
  8
0
100
AcDbCircle
 10
1125.510093522877
 20
320.5843152594297
 30
0.0
 40
2.75
  0
ARC
  5
5C34
330
A
100
AcDbEntity
  8
0
100
AcDbCircle
 10
1152.356881040195
 20
336.0843152594295
 30
0.0
 40
35.29999999999999
100
AcDbArc
 50
202.2667699853514
 51
217.7332300146523
  0
LINE
  5
5C35
330
A
100
AcDbEntity
  8
0
100
AcDbLine
 10
1147.356881040195
 20
290.0843152594294
 30
0.0
 11
1157.356881040195
 21
290.0843152594294
 31
0.0
  0
LINE
  5
5C36
330
A
100
AcDbEntity
  8
0
100
AcDbLine
 10
1147.356881040195
 20
290.0843152594294
 30
0.0
 11
1147.356881040195
 21
300.0843152594294
 31
0.0
  0
ARC
  5
5C37
330
A
100
AcDbEntity
  8
DIM
100
AcDbCircle
 10
1152.356881040195
 20
295.0843152594294
 30
0.0
 40
2.5
100
AcDbArc
 50
90.0
 51
0.0
  0
LINE
  5
5C38
330
A
100
AcDbEntity
  8
0
100
AcDbLine
 10
1157.356881040195
 20
290.0843152594294
 30
0.0
 11
1157.356881040195
 21
300.0843152594294
 31
0.0
  0
LINE
  5
5C39
330
A
100
AcDbEntity
  8
0
100
AcDbLine
 10
1147.356881040195
 20
300.0843152594294
 30
0.0
 11
1157.356881040195
 21
300.0843152594294
 31
0.0
  0
LINE
  5
5C3A
330
A
100
AcDbEntity
  8
0
100
AcDbLine
 10
1147.356881040195
 20
276.0843152594294
 30
0.0
 11
1147.356881040195
 21
286.0843152594294
 31
0.0
  0
LINE
  5
5C3B
330
A
100
AcDbEntity
  8
0
100
AcDbLine
 10
1147.356881040195
 20
286.0843152594294
 30
0.0
 11
1157.356881040195
 21
286.0843152594294
 31
0.0
  0
ARC
  5
5C3C
330
A
100
AcDbEntity
  8
DIM
100
AcDbCircle
 10
1152.356881040195
 20
281.0843152594294
 30
0.0
 40
2.5
100
AcDbArc
 50
90.0
 51
0.0
  0
LINE
  5
5C3D
330
A
100
AcDbEntity
  8
0
100
AcDbLine
 10
1157.356881040195
 20
276.0843152594294
 30
0.0
 11
1157.356881040195
 21
286.0843152594294
 31
0.0
  0
LINE
  5
5C3E
330
A
100
AcDbEntity
  8
0
100
AcDbLine
 10
1147.356881040195
 20
276.0843152594294
 30
0.0
 11
1157.356881040195
 21
276.0843152594294
 31
0.0
  0
LINE
  5
5C3F
330
A
100
AcDbEntity
  8
0
100
AcDbLine
 10
1147.356881040195
 20
286.0843152594294
 30
0.0
 11
1147.356881040195
 21
290.0843152594294
 31
0.0
  0
LINE
  5
5C40
330
A
100
AcDbEntity
  8
0
100
AcDbLine
 10
1157.356881040195
 20
286.0843152594294
 30
0.0
 11
1157.356881040195
 21
290.0843152594294
 31
0.0
  0
LINE
  5
5C41
330
A
100
AcDbEntity
  8
0
100
AcDbLine
 10
1162.356881040195
 20
276.0843152594294
 30
0.0
 11
1162.356881040195
 21
285.0549119707371
 31
0.0
  0
LINE
  5
5C42
330
A
100
AcDbEntity
  8
0
100
AcDbLine
 10
1157.356881040195
 20
276.0843152594294
 30
0.0
 11
1162.356881040195
 21
276.0843152594294
 31
0.0
  0
LINE
  5
5C43
330
A
100
AcDbEntity
  8
0
100
AcDbLine
 10
1142.356881040194
 20
276.0843152594294
 30
0.0
 11
1142.356881040194
 21
285.0549119707371
 31
0.0
  0
LINE
  5
5C44
330
A
100
AcDbEntity
  8
0
100
AcDbLine
 10
1142.356881040194
 20
276.0843152594294
 30
0.0
 11
1147.356881040195
 21
276.0843152594294
 31
0.0
  0
LINE
  5
5C45
330
A
100
AcDbEntity
  8
0
100
AcDbLine
 10
1206.818405267261
 20
361.7541882405067
 30
0.0
 11
1198.158151229417
 21
356.7541882405068
 31
0.0
  0
LINE
  5
5C46
330
A
100
AcDbEntity
  8
0
100
AcDbLine
 10
1198.158151229417
 20
356.7541882405068
 30
0.0
 11
1193.158151229417
 21
365.4144422783513
 31
0.0
  0
LINE
  5
5C47
330
A
100
AcDbEntity
  8
0
100
AcDbLine
 10
1201.818405267262
 20
370.4144422783511
 30
0.0
 11
1193.158151229417
 21
365.4144422783513
 31
0.0
  0
LINE
  5
5C48
330
A
100
AcDbEntity
  8
0
100
AcDbLine
 10
1206.818405267261
 20
361.7541882405067
 30
0.0
 11
1201.818405267262
 21
370.4144422783511
 31
0.0
  0
LINE
  5
5C49
330
A
100
AcDbEntity
  8
0
100
AcDbLine
 10
1194.694049614279
 20
354.7541882405068
 30
0.0
 11
1189.694049614279
 21
363.4144422783513
 31
0.0
  0
LINE
  5
5C4A
330
A
100
AcDbEntity
  8
0
100
AcDbLine
 10
1194.694049614279
 20
354.7541882405068
 30
0.0
 11
1186.033795576435
 21
349.7541882405069
 31
0.0
  0
LINE
  5
5C4B
330
A
100
AcDbEntity
  8
0
100
AcDbLine
 10
1189.694049614279
 20
363.4144422783513
 30
0.0
 11
1181.033795576435
 21
358.4144422783513
 31
0.0
  0
LINE
  5
5C4C
330
A
100
AcDbEntity
  8
0
100
AcDbLine
 10
1186.033795576435
 20
349.7541882405069
 30
0.0
 11
1181.033795576435
 21
358.4144422783513
 31
0.0
  0
LINE
  5
5C4D
330
A
100
AcDbEntity
  8
0
100
AcDbLine
 10
1198.158151229417
 20
356.7541882405068
 30
0.0
 11
1194.694049614279
 21
354.7541882405068
 31
0.0
  0
LINE
  5
5C4E
330
A
100
AcDbEntity
  8
0
100
AcDbLine
 10
1193.158151229417
 20
365.4144422783513
 30
0.0
 11
1189.694049614279
 21
363.4144422783513
 31
0.0
  0
LINE
  5
5C4F
330
A
100
AcDbEntity
  8
0
100
AcDbLine
 10
1209.318405267261
 20
357.4240612215845
 30
0.0
 11
1201.549640628164
 21
352.9387628659307
 31
0.0
  0
LINE
  5
5C50
330
A
100
AcDbEntity
  8
0
100
AcDbLine
 10
1209.318405267261
 20
357.4240612215845
 30
0.0
 11
1206.818405267261
 21
361.7541882405067
 31
0.0
  0
LINE
  5
5C51
330
A
100
AcDbEntity
  8
0
100
AcDbLine
 10
1199.318405267261
 20
374.7445692972734
 30
0.0
 11
1191.549640628164
 21
370.2592709416196
 31
0.0
  0
LINE
  5
5C52
330
A
100
AcDbEntity
  8
0
100
AcDbLine
 10
1201.818405267262
 20
370.4144422783511
 30
0.0
 11
1199.318405267261
 21
374.7445692972734
 31
0.0
  0
LINE
  5
5C53
330
A
100
AcDbEntity
  8
0
100
AcDbLine
 10
1115.019712466111
 20
363.4144422783518
 30
0.0
 11
1110.019712466111
 21
354.7541882405075
 31
0.0
  0
LINE
  5
5C54
330
A
100
AcDbEntity
  8
0
100
AcDbLine
 10
1115.019712466111
 20
363.4144422783518
 30
0.0
 11
1123.679966503955
 21
358.4144422783518
 31
0.0
  0
LINE
  5
5C55
330
A
100
AcDbEntity
  8
0
100
AcDbLine
 10
1110.019712466111
 20
354.7541882405075
 30
0.0
 11
1118.679966503955
 21
349.7541882405074
 31
0.0
  0
LINE
  5
5C56
330
A
100
AcDbEntity
  8
0
100
AcDbLine
 10
1123.679966503955
 20
358.4144422783518
 30
0.0
 11
1118.679966503955
 21
349.7541882405074
 31
0.0
  0
LINE
  5
5C57
330
A
100
AcDbEntity
  8
0
100
AcDbLine
 10
1102.895356813129
 20
370.4144422783518
 30
0.0
 11
1111.555610850973
 21
365.4144422783518
 31
0.0
  0
LINE
  5
5C58
330
A
100
AcDbEntity
  8
0
100
AcDbLine
 10
1111.555610850973
 20
365.4144422783518
 30
0.0
 11
1106.555610850973
 21
356.7541882405075
 31
0.0
  0
LINE
  5
5C59
330
A
100
AcDbEntity
  8
0
100
AcDbLine
 10
1097.895356813128
 20
361.7541882405074
 30
0.0
 11
1106.555610850973
 21
356.7541882405075
 31
0.0
  0
LINE
  5
5C5A
330
A
100
AcDbEntity
  8
0
100
AcDbLine
 10
1102.895356813129
 20
370.4144422783518
 30
0.0
 11
1097.895356813128
 21
361.7541882405074
 31
0.0
  0
LINE
  5
5C5B
330
A
100
AcDbEntity
  8
0
100
AcDbLine
 10
1111.555610850973
 20
365.4144422783519
 30
0.0
 11
1115.019712466111
 21
363.4144422783518
 31
0.0
  0
LINE
  5
5C5C
330
A
100
AcDbEntity
  8
0
100
AcDbLine
 10
1106.555610850973
 20
356.7541882405075
 30
0.0
 11
1110.019712466111
 21
354.7541882405075
 31
0.0
  0
LINE
  5
5C5D
330
A
100
AcDbEntity
  8
0
100
AcDbLine
 10
1105.395356813128
 20
374.744569297274
 30
0.0
 11
1113.164121452226
 21
370.2592709416201
 31
0.0
  0
LINE
  5
5C5E
330
A
100
AcDbEntity
  8
0
100
AcDbLine
 10
1105.395356813128
 20
374.744569297274
 30
0.0
 11
1102.895356813129
 21
370.4144422783518
 31
0.0
  0
LINE
  5
5C5F
330
A
100
AcDbEntity
  8
0
100
AcDbLine
 10
1095.395356813129
 20
357.4240612215853
 30
0.0
 11
1103.164121452226
 21
352.9387628659315
 31
0.0
  0
LINE
  5
5C60
330
A
100
AcDbEntity
  8
0
100
AcDbLine
 10
1097.895356813128
 20
361.7541882405074
 30
0.0
 11
1095.395356813129
 21
357.4240612215853
 31
0.0
  0
LINE
  5
5C61
330
A
100
AcDbEntity
  8
0
100
AcDbLine
 10
1349.72218695995
 20
371.0843152594295
 30
0.0
 11
1303.22218695995
 21
371.0843152594295
 31
0.0
  0
LINE
  5
5C62
330
A
100
AcDbEntity
  8
0
100
AcDbLine
 10
1303.22218695995
 20
301.0843152594294
 30
0.0
 11
1349.72218695995
 21
301.0843152594294
 31
0.0
  0
LINE
  5
5C63
330
A
100
AcDbEntity
  8
0
100
AcDbLine
 10
1298.42218695995
 20
284.0843152594294
 30
0.0
 11
1303.22218695995
 21
284.0843152594294
 31
0.0
  0
LINE
  5
5C64
330
A
100
AcDbEntity
  8
0
100
AcDbLine
 10
1276.954237767519
 20
370.4144422783512
 30
0.0
 11
1276.954237767519
 21
374.6793554736866
 31
0.0
  0
LINE
  5
5C65
330
A
100
AcDbEntity
  8
0
100
AcDbLine
 10
1276.954237767519
 20
374.6793554736866
 30
0.0
 11
1280.72218695995
 21
374.6793554736866
 31
0.0
  0
LINE
  5
5C66
330
A
100
AcDbEntity
  8
0
100
AcDbLine
 10
1288.72218695995
 20
374.6793554736866
 30
0.0
 11
1303.22218695995
 21
374.6793554736866
 31
0.0
  0
LINE
  5
5C67
330
A
100
AcDbEntity
  8
0
100
AcDbLine
 10
1303.22218695995
 20
346.9665425525847
 30
0.0
 11
1303.22218695995
 21
374.6793554736866
 31
0.0
  0
LINE
  5
5C68
330
A
100
AcDbEntity
  8
0
100
AcDbLine
 10
1303.22218695995
 20
346.9665425525847
 30
0.0
 11
1276.954237767518
 21
346.9665425525846
 31
0.0
  0
LINE
  5
5C69
330
A
100
AcDbEntity
  8
0
100
AcDbLine
 10
1276.954237767518
 20
346.9665425525846
 30
0.0
 11
1276.954237767518
 21
357.6337168297219
 31
0.0
  0
LINE
  5
5C6A
330
A
100
AcDbEntity
  8
0
100
AcDbLine
 10
1276.954237767518
 20
357.6337168297219
 30
0.0
 11
1280.72218695995
 21
357.6337168297219
 31
0.0
  0
LINE
  5
5C6B
330
A
100
AcDbEntity
  8
0
100
AcDbLine
 10
1288.72218695995
 20
352.9387628659307
 30
0.0
 11
1280.72218695995
 21
352.9387628659307
 31
0.0
  0
LINE
  5
5C6C
330
A
100
AcDbEntity
  8
0
100
AcDbLine
 10
1303.22218695995
 20
339.1430647248522
 30
0.0
 11
1275.22218695995
 21
339.1430647248522
 31
0.0
  0
LINE
  5
5C6D
330
A
100
AcDbEntity
  8
0
100
AcDbLine
 10
1275.22218695995
 20
339.1430647248522
 30
0.0
 11
1275.22218695995
 21
345.3849811526974
 31
0.0
  0
LINE
  5
5C6E
330
A
100
AcDbEntity
  8
0
100
AcDbLine
 10
1276.954237767518
 20
346.9665425525846
 30
0.0
 11
1275.22218695995
 21
345.3849811526974
 31
0.0
  0
LINE
  5
5C6F
330
A
100
AcDbEntity
  8
0
100
AcDbLine
 10
1303.22218695995
 20
339.1430647248522
 30
0.0
 11
1303.22218695995
 21
346.9665425525847
 31
0.0
  0
LINE
  5
5C70
330
A
100
AcDbEntity
  8
0
100
AcDbLine
 10
1275.22218695995
 20
345.3849811526974
 30
0.0
 11
1275.22218695995
 21
356.1263034544146
 31
0.0
  0
LINE
  5
5C71
330
A
100
AcDbEntity
  8
0
100
AcDbLine
 10
1275.22218695995
 20
356.1263034544146
 30
0.0
 11
1276.954237767518
 21
357.6337168297219
 31
0.0
  0
LINE
  5
5C72
330
A
100
AcDbEntity
  8
0
100
AcDbLine
 10
1275.22218695995
 20
373.0977940737994
 30
0.0
 11
1276.954237767519
 21
374.6793554736866
 31
0.0
  0
LINE
  5
5C73
330
A
100
AcDbEntity
  8
0
100
AcDbLine
 10
1275.22218695995
 20
370.4144422783512
 30
0.0
 11
1275.22218695995
 21
373.0977940737994
 31
0.0
  0
LINE
  5
5C74
330
A
100
AcDbEntity
  8
0
100
AcDbLine
 10
1303.22218695995
 20
335.7202203259705
 30
0.0
 11
1275.22218695995
 21
335.7202203259705
 31
0.0
  0
LINE
  5
5C75
330
A
100
AcDbEntity
  8
0
100
AcDbLine
 10
1275.22218695995
 20
335.7202203259705
 30
0.0
 11
1275.22218695995
 21
339.1430647248522
 31
0.0
  0
LINE
  5
5C76
330
A
100
AcDbEntity
  8
0
100
AcDbLine
 10
1303.22218695995
 20
335.7202203259705
 30
0.0
 11
1303.22218695995
 21
339.1430647248522
 31
0.0
  0
LINE
  5
5C77
330
A
100
AcDbEntity
  8
0
100
AcDbLine
 10
1275.22218695995
 20
332.4319458317516
 30
0.0
 11
1303.22218695995
 21
332.4319458317516
 31
0.0
  0
LINE
  5
5C78
330
A
100
AcDbEntity
  8
0
100
AcDbLine
 10
1275.22218695995
 20
332.4319458317516
 30
0.0
 11
1275.22218695995
 21
335.7202203259705
 31
0.0
  0
LINE
  5
5C79
330
A
100
AcDbEntity
  8
0
100
AcDbLine
 10
1303.22218695995
 20
332.4319458317516
 30
0.0
 11
1303.22218695995
 21
335.7202203259705
 31
0.0
  0
LWPOLYLINE
  5
5C7A
330
A
100
AcDbEntity
  8
0
100
AcDbPolyline
 90
       20
 70
   128
 43
0.0
 10
1311.72218695995
 20
370.3463232300327
 10
1310.076752530345
 20
370.2877713277173
 10
1308.61696261557
 20
370.1070780131838
 10
1307.496667677545
 20
369.791724666871
 10
1306.848760290502
 20
369.3391225074655
 10
1306.753029691522
 20
368.779777158446
 10
1307.20928725854
 20
368.1750574451572
 10
1308.166541313824
 20
367.6049429175337
 10
1309.531653076382
 20
367.1639914557411
 10
1311.147604631392
 20
366.9419284866194
 10
1312.815186001681
 20
366.9836805924842
 10
1314.352782558067
 20
367.2756577759735
 10
1315.606254602607
 20
367.7632961431554
 10
1316.431103365624
 20
368.3606259342478
 10
1316.722117594834
 20
368.964539833784
 10
1316.453440306889
 20
369.4915357802445
 10
1315.662010404609
 20
369.899022305344
 10
1314.42413342231
 20
370.1739960080301
 10
1312.873502162465
 20
370.3183436780663
 10
1311.72218695995
 20
370.3463232300327
  0
LINE
  5
5C7B
330
A
100
AcDbEntity
  8
0
100
AcDbLine
 10
1349.72218695995
 20
332.4841725516998
 30
0.0
 11
1349.72218695995
 21
371.0843152594295
 31
0.0
  0
LINE
  5
5C7C
330
A
100
AcDbEntity
  8
0
100
AcDbLine
 10
1303.22218695995
 20
332.4841725516998
 30
0.0
 11
1349.72218695995
 21
332.4841725516998
 31
0.0
  0
LINE
  5
5C7D
330
A
100
AcDbEntity
  8
0
100
AcDbLine
 10
1349.72218695995
 20
327.5601337866387
 30
0.0
 11
1303.22218695995
 21
327.5601337866387
 31
0.0
  0
LINE
  5
5C7E
330
A
100
AcDbEntity
  8
0
100
AcDbLine
 10
1303.22218695995
 20
327.5601337866387
 30
0.0
 11
1303.22218695995
 21
327.5079070666905
 31
0.0
  0
LINE
  5
5C7F
330
A
100
AcDbEntity
  8
0
100
AcDbLine
 10
1275.22218695995
 20
327.5079070666905
 30
0.0
 11
1303.22218695995
 21
327.5079070666905
 31
0.0
  0
LINE
  5
5C80
330
A
100
AcDbEntity
  8
0
100
AcDbLine
 10
1275.22218695995
 20
327.9953751160729
 30
0.0
 11
1349.72218695995
 21
327.9953751160729
 31
0.0
  0
LINE
  5
5C81
330
A
100
AcDbEntity
  8
0
100
AcDbLine
 10
1349.72218695995
 20
327.5601337866387
 30
0.0
 11
1349.72218695995
 21
327.9953751160729
 31
0.0
  0
LINE
  5
5C82
330
A
100
AcDbEntity
  8
0
100
AcDbLine
 10
1275.22218695995
 20
327.5079070666905
 30
0.0
 11
1275.22218695995
 21
327.9953751160729
 31
0.0
  0
LINE
  5
5C83
330
A
100
AcDbEntity
  8
0
100
AcDbLine
 10
1284.72218695995
 20
314.4812156112205
 30
0.0
 11
1275.22218695995
 21
314.4812156112205
 31
0.0
  0
LINE
  5
5C84
330
A
100
AcDbEntity
  8
0
100
AcDbLine
 10
1284.72218695995
 20
314.4812156112205
 30
0.0
 11
1284.72218695995
 21
322.7084569471726
 31
0.0
  0
LINE
  5
5C85
330
A
100
AcDbEntity
  8
0
100
AcDbLine
 10
1284.72218695995
 20
322.7084569471726
 30
0.0
 11
1275.22218695995
 21
322.7084569471726
 31
0.0
  0
LINE
  5
5C86
330
A
100
AcDbEntity
  8
0
100
AcDbLine
 10
1275.22218695995
 20
310.7178162400424
 30
0.0
 11
1303.22218695995
 21
310.7178162400424
 31
0.0
  0
LINE
  5
5C87
330
A
100
AcDbEntity
  8
0
100
AcDbLine
 10
1303.22218695995
 20
310.7178162400424
 30
0.0
 11
1303.22218695995
 21
327.5079070666905
 31
0.0
  0
LINE
  5
5C88
330
A
100
AcDbEntity
  8
0
100
AcDbLine
 10
1275.22218695995
 20
322.7084569471726
 30
0.0
 11
1275.22218695995
 21
327.5079070666905
 31
0.0
  0
LINE
  5
5C89
330
A
100
AcDbEntity
  8
0
100
AcDbLine
 10
1275.22218695995
 20
310.7178162400424
 30
0.0
 11
1275.22218695995
 21
314.4812156112205
 31
0.0
  0
LINE
  5
5C8A
330
A
100
AcDbEntity
  8
0
100
AcDbLine
 10
1303.22218695995
 20
310.9482130638739
 30
0.0
 11
1349.72218695995
 21
310.9482130638739
 31
0.0
  0
LINE
  5
5C8B
330
A
100
AcDbEntity
  8
0
100
AcDbLine
 10
1349.72218695995
 20
310.9482130638739
 30
0.0
 11
1349.72218695995
 21
327.5601337866387
 31
0.0
  0
LINE
  5
5C8C
330
A
100
AcDbEntity
  8
0
100
AcDbLine
 10
1275.22218695995
 20
328.0186870218162
 30
0.0
 11
1349.72218695995
 21
328.0186870218162
 31
0.0
  0
LINE
  5
5C8D
330
A
100
AcDbEntity
  8
0
100
AcDbLine
 10
1349.72218695995
 20
327.9953751160729
 30
0.0
 11
1349.72218695995
 21
328.0186870218162
 31
0.0
  0
LINE
  5
5C8E
330
A
100
AcDbEntity
  8
0
100
AcDbLine
 10
1275.22218695995
 20
327.9953751160729
 30
0.0
 11
1275.22218695995
 21
328.0186870218162
 31
0.0
  0
LINE
  5
5C8F
330
A
100
AcDbEntity
  8
0
100
AcDbLine
 10
1284.72218695995
 20
316.4706945914532
 30
0.0
 11
1275.22218695995
 21
316.4706945914532
 31
0.0
  0
LINE
  5
5C90
330
A
100
AcDbEntity
  8
0
100
AcDbLine
 10
1275.22218695995
 20
322.7084569471726
 30
0.0
 11
1275.22218695995
 21
316.4706945914532
 31
0.0
  0
LINE
  5
5C91
330
A
100
AcDbEntity
  8
0
100
AcDbLine
 10
1349.72218695995
 20
328.0186870218162
 30
0.0
 11
1349.72218695995
 21
332.4841725516998
 31
0.0
  0
LINE
  5
5C92
330
A
100
AcDbEntity
  8
0
100
AcDbLine
 10
1275.22218695995
 20
328.0186870218162
 30
0.0
 11
1275.22218695995
 21
332.4319458317516
 31
0.0
  0
LINE
  5
5C93
330
A
100
AcDbEntity
  8
0
100
AcDbLine
 10
1275.22218695995
 20
316.4706945914532
 30
0.0
 11
1275.22218695995
 21
314.4812156112205
 31
0.0
  0
LINE
  5
5C94
330
A
100
AcDbEntity
  8
0
100
AcDbLine
 10
1349.72218695995
 20
307.7342750154413
 30
0.0
 11
1303.22218695995
 21
307.7342750154413
 31
0.0
  0
LINE
  5
5C95
330
A
100
AcDbEntity
  8
0
100
AcDbLine
 10
1303.22218695995
 20
307.7342750154413
 30
0.0
 11
1303.22218695995
 21
307.5038781916098
 31
0.0
  0
LINE
  5
5C96
330
A
100
AcDbEntity
  8
0
100
AcDbLine
 10
1275.22218695995
 20
307.5038781916098
 30
0.0
 11
1303.22218695995
 21
307.5038781916098
 31
0.0
  0
LINE
  5
5C97
330
A
100
AcDbEntity
  8
0
100
AcDbLine
 10
1275.22218695995
 20
309.6543308795937
 30
0.0
 11
1349.72218695995
 21
309.6543308795937
 31
0.0
  0
LINE
  5
5C98
330
A
100
AcDbEntity
  8
0
100
AcDbLine
 10
1349.72218695995
 20
307.7342750154413
 30
0.0
 11
1349.72218695995
 21
309.6543308795937
 31
0.0
  0
LINE
  5
5C99
330
A
100
AcDbEntity
  8
0
100
AcDbLine
 10
1275.22218695995
 20
307.5038781916098
 30
0.0
 11
1275.22218695995
 21
309.6543308795937
 31
0.0
  0
LINE
  5
5C9A
330
A
100
AcDbEntity
  8
0
100
AcDbLine
 10
1303.22218695995
 20
305.6972921455939
 30
0.0
 11
1303.22218695995
 21
307.5038781916098
 31
0.0
  0
LINE
  5
5C9B
330
A
100
AcDbEntity
  8
0
100
AcDbLine
 10
1303.22218695995
 20
305.6972921455939
 30
0.0
 11
1275.22218695995
 21
305.6972921455939
 31
0.0
  0
LINE
  5
5C9C
330
A
100
AcDbEntity
  8
0
100
AcDbLine
 10
1275.22218695995
 20
305.6972921455939
 30
0.0
 11
1275.22218695995
 21
307.5038781916098
 31
0.0
  0
LINE
  5
5C9D
330
A
100
AcDbEntity
  8
0
100
AcDbLine
 10
1349.72218695995
 20
301.0843152594294
 30
0.0
 11
1349.72218695995
 21
307.7342750154413
 31
0.0
  0
LINE
  5
5C9E
330
A
100
AcDbEntity
  8
0
100
AcDbLine
 10
1349.72218695995
 20
309.6543308795937
 30
0.0
 11
1349.72218695995
 21
310.9482130638739
 31
0.0
  0
LINE
  5
5C9F
330
A
100
AcDbEntity
  8
0
100
AcDbLine
 10
1275.22218695995
 20
309.6543308795937
 30
0.0
 11
1275.22218695995
 21
310.7178162400424
 31
0.0
  0
LINE
  5
5CA0
330
A
100
AcDbEntity
  8
0
100
AcDbLine
 10
1303.22218695995
 20
302.2540034074822
 30
0.0
 11
1275.22218695995
 21
302.2540034074822
 31
0.0
  0
LINE
  5
5CA1
330
A
100
AcDbEntity
  8
0
100
AcDbLine
 10
1303.22218695995
 20
302.2540034074822
 30
0.0
 11
1303.22218695995
 21
305.6972921455939
 31
0.0
  0
LINE
  5
5CA2
330
A
100
AcDbEntity
  8
0
100
AcDbLine
 10
1275.22218695995
 20
302.2540034074822
 30
0.0
 11
1275.22218695995
 21
305.6972921455939
 31
0.0
  0
LWPOLYLINE
  5
5CA3
330
A
100
AcDbEntity
  8
0
100
AcDbPolyline
 90
        9
 70
   128
 43
0.0
 10
1311.72218695995
 20
369.8764769196397
 10
1312.640934549033
 20
369.8473592052073
 10
1313.528395290886
 20
369.760997630752
 10
1314.354347774337
 20
369.6203331361124
 10
1315.090665178183
 20
369.4301558819453
 10
1315.712273096351
 20
369.1969421265486
 10
1316.198003416725
 20
368.9286336846537
 10
1316.531315175814
 20
368.6343674784484
 10
1316.594288488033
 20
368.5506928255664
  0
LWPOLYLINE
  5
5CA4
330
A
100
AcDbEntity
  8
0
100
AcDbPolyline
 90
        9
 70
   128
 43
0.0
 10
1306.851229153247
 20
368.5523849984367
 10
1306.913058744086
 20
368.6343674784484
 10
1307.246370503174
 20
368.9286336846537
 10
1307.732100823549
 20
369.1969421265486
 10
1308.353708741717
 20
369.4301558819453
 10
1309.090026145563
 20
369.6203331361124
 10
1309.915978629014
 20
369.760997630752
 10
1310.803439370867
 20
369.8473592052073
 10
1311.72218695995
 20
369.8764769196397
  0
LWPOLYLINE
  5
5CA5
330
A
100
AcDbEntity
  8
0
100
AcDbPolyline
 90
       25
 70
   128
 43
0.0
 10
1311.72218695995
 20
369.0214265613256
 10
1312.369234572706
 20
368.9922914268849
 10
1312.97218695995
 20
368.9068715348265
 10
1313.489953912916
 20
368.7709881096314
 10
1313.887250469411
 20
368.5939013821685
 10
1314.137001525673
 20
368.387679520265
 10
1314.22218695995
 20
368.1663762030114
 10
1314.137001525673
 20
367.945072885758
 10
1313.887250469411
 20
367.7388510238544
 10
1313.489953912916
 20
367.5617642963915
 10
1312.97218695995
 20
367.4258808711964
 10
1312.369234572706
 20
367.3404609791381
 10
1311.72218695995
 20
367.3113258446973
 10
1311.075139347194
 20
367.3404609791381
 10
1310.47218695995
 20
367.4258808711964
 10
1309.954420006983
 20
367.5617642963915
 10
1309.557123450489
 20
367.7388510238544
 10
1309.307372394227
 20
367.945072885758
 10
1309.22218695995
 20
368.1663762030114
 10
1309.307372394227
 20
368.387679520265
 10
1309.557123450489
 20
368.5939013821686
 10
1309.954420006983
 20
368.7709881096314
 10
1310.47218695995
 20
368.9068715348265
 10
1311.075139347194
 20
368.9922914268849
 10
1311.72218695995
 20
369.0214265613256
  0
LINE
  5
5CA6
330
A
100
AcDbEntity
  8
0
100
AcDbLine
 10
1303.22218695995
 20
286.6070477520174
 30
0.0
 11
1276.954237767519
 21
286.6070477520174
 31
0.0
  0
LWPOLYLINE
  5
5CA7
330
A
100
AcDbEntity
  8
0
100
AcDbPolyline
 90
        3
 70
   128
 43
0.0
 10
1275.22218695995
 20
289.7701705517917
 10
1275.929427832273
 20
288.4760352326144
 10
1276.954237767519
 20
286.6070477520174
  0
LINE
  5
5CA8
330
A
100
AcDbEntity
  8
0
100
AcDbLine
 10
1303.22218695995
 20
286.6070477520174
 30
0.0
 11
1303.22218695995
 21
302.2540034074822
 31
0.0
  0
LINE
  5
5CA9
330
A
100
AcDbEntity
  8
0
100
AcDbLine
 10
1275.22218695995
 20
289.7701705517917
 30
0.0
 11
1275.22218695995
 21
302.2540034074822
 31
0.0
  0
LINE
  5
5CAA
330
A
100
AcDbEntity
  8
0
100
AcDbLine
 10
1298.42218695995
 20
284.4316289788494
 30
0.0
 11
1288.72218695995
 21
284.4316289788494
 31
0.0
  0
LINE
  5
5CAB
330
A
100
AcDbEntity
  8
0
100
AcDbLine
 10
1288.72218695995
 20
285.0549119707371
 30
0.0
 11
1280.72218695995
 21
285.0549119707371
 31
0.0
  0
LINE
  5
5CAC
330
A
100
AcDbEntity
  8
0
100
AcDbLine
 10
1276.954237767519
 20
284.3252580809992
 30
0.0
 11
1280.72218695995
 21
284.3252580809992
 31
0.0
  0
LINE
  5
5CAD
330
A
100
AcDbEntity
  8
0
100
AcDbLine
 10
1276.954237767519
 20
284.3252580809992
 30
0.0
 11
1276.954237767519
 21
286.6070477520174
 31
0.0
  0
LINE
  5
5CAE
330
A
100
AcDbEntity
  8
0
100
AcDbLine
 10
1303.22218695995
 20
284.0843152594294
 30
0.0
 11
1303.22218695995
 21
286.6070477520174
 31
0.0
  0
LWPOLYLINE
  5
5CAF
330
A
100
AcDbEntity
  8
0
100
AcDbPolyline
 90
        3
 70
   128
 43
0.0
 10
1275.22218695995
 20
287.3400848316136
 10
1275.223528595249
 20
287.3377488584065
 10
1276.954237767519
 20
284.3252580809992
  0
LINE
  5
5CB0
330
A
100
AcDbEntity
  8
0
100
AcDbLine
 10
1275.22218695995
 20
287.3400848316136
 30
0.0
 11
1275.22218695995
 21
289.7701705517917
 31
0.0
  0
LINE
  5
5CB1
330
A
100
AcDbEntity
  8
0
100
AcDbLine
 10
1280.72218695995
 20
276.0843152594293
 30
0.0
 11
1280.72218695995
 21
285.0549119707371
 31
0.0
  0
LINE
  5
5CB2
330
A
100
AcDbEntity
  8
0
100
AcDbLine
 10
1288.72218695995
 20
285.0549119707371
 30
0.0
 11
1288.72218695995
 21
276.0843152594294
 31
0.0
  0
LINE
  5
5CB3
330
A
100
AcDbEntity
  8
0
100
AcDbLine
 10
1288.72218695995
 20
276.0843152594294
 30
0.0
 11
1280.72218695995
 21
276.0843152594293
 31
0.0
  0
LINE
  5
5CB4
330
A
100
AcDbEntity
  8
0
100
AcDbLine
 10
1298.42218695995
 20
284.4316289788494
 30
0.0
 11
1298.42218695995
 21
276.0843152594294
 31
0.0
  0
LINE
  5
5CB5
330
A
100
AcDbEntity
  8
0
100
AcDbLine
 10
1298.42218695995
 20
276.0843152594294
 30
0.0
 11
1288.72218695995
 21
276.0843152594294
 31
0.0
  0
LINE
  5
5CB6
330
A
100
AcDbEntity
  8
0
100
AcDbLine
 10
1272.22218695995
 20
276.0843152594294
 30
0.0
 11
1272.22218695995
 21
286.0843152594294
 31
0.0
  0
LINE
  5
5CB7
330
A
100
AcDbEntity
  8
0
100
AcDbLine
 10
1272.22218695995
 20
286.0843152594294
 30
0.0
 11
1274.22218695995
 21
286.0843152594294
 31
0.0
  0
LINE
  5
5CB8
330
A
100
AcDbEntity
  8
0
100
AcDbLine
 10
1274.22218695995
 20
286.0843152594294
 30
0.0
 11
1274.22218695995
 21
290.0843152594293
 31
0.0
  0
LINE
  5
5CB9
330
A
100
AcDbEntity
  8
0
100
AcDbLine
 10
1274.22218695995
 20
290.0843152594293
 30
0.0
 11
1272.22218695995
 21
290.0843152594293
 31
0.0
  0
LINE
  5
5CBA
330
A
100
AcDbEntity
  8
0
100
AcDbLine
 10
1272.22218695995
 20
290.0843152594293
 30
0.0
 11
1272.22218695995
 21
300.0843152594294
 31
0.0
  0
LINE
  5
5CBB
330
A
100
AcDbEntity
  8
0
100
AcDbLine
 10
1280.72218695995
 20
276.0843152594293
 30
0.0
 11
1272.22218695995
 21
276.0843152594294
 31
0.0
  0
LINE
  5
5CBC
330
A
100
AcDbEntity
  8
0
100
AcDbLine
 10
1272.22218695995
 20
300.0843152594294
 30
0.0
 11
1275.22218695995
 21
300.0843152594294
 31
0.0
  0
LINE
  5
5CBD
330
A
100
AcDbEntity
  8
0
100
AcDbLine
 10
1288.722186959949
 20
357.4240612215845
 30
0.0
 11
1280.722186959949
 21
357.4240612215846
 31
0.0
  0
LINE
  5
5CBE
330
A
100
AcDbEntity
  8
0
100
AcDbLine
 10
1280.722186959949
 20
357.4240612215846
 30
0.0
 11
1280.722186959949
 21
361.7541882405067
 31
0.0
  0
LINE
  5
5CBF
330
A
100
AcDbEntity
  8
0
100
AcDbLine
 10
1280.722186959949
 20
361.7541882405067
 30
0.0
 11
1272.22218695995
 21
361.7541882405067
 31
0.0
  0
LINE
  5
5CC0
330
A
100
AcDbEntity
  8
0
100
AcDbLine
 10
1272.22218695995
 20
361.7541882405067
 30
0.0
 11
1272.22218695995
 21
370.4144422783512
 31
0.0
  0
LINE
  5
5CC1
330
A
100
AcDbEntity
  8
0
100
AcDbLine
 10
1280.722186959949
 20
370.4144422783512
 30
0.0
 11
1272.22218695995
 21
370.4144422783512
 31
0.0
  0
LINE
  5
5CC2
330
A
100
AcDbEntity
  8
0
100
AcDbLine
 10
1280.722186959949
 20
370.4144422783512
 30
0.0
 11
1280.72218695995
 21
374.7445692972734
 31
0.0
  0
LINE
  5
5CC3
330
A
100
AcDbEntity
  8
0
100
AcDbLine
 10
1288.722186959949
 20
374.7445692972734
 30
0.0
 11
1280.72218695995
 21
374.7445692972734
 31
0.0
  0
LINE
  5
5CC4
330
A
100
AcDbEntity
  8
0
100
AcDbLine
 10
1288.722186959949
 20
371.2804676821356
 30
0.0
 11
1288.722186959949
 21
374.7445692972734
 31
0.0
  0
LINE
  5
5CC5
330
A
100
AcDbEntity
  8
0
100
AcDbLine
 10
1298.422186959949
 20
371.2804676821356
 30
0.0
 11
1288.722186959949
 21
371.2804676821356
 31
0.0
  0
LINE
  5
5CC6
330
A
100
AcDbEntity
  8
0
100
AcDbLine
 10
1298.422186959949
 20
360.8881628367222
 30
0.0
 11
1298.422186959949
 21
371.2804676821356
 31
0.0
  0
LINE
  5
5CC7
330
A
100
AcDbEntity
  8
0
100
AcDbLine
 10
1288.722186959949
 20
360.8881628367222
 30
0.0
 11
1298.422186959949
 21
360.8881628367222
 31
0.0
  0
LINE
  5
5CC8
330
A
100
AcDbEntity
  8
0
100
AcDbLine
 10
1288.722186959949
 20
357.4240612215845
 30
0.0
 11
1288.722186959949
 21
360.8881628367222
 31
0.0
  0
LINE
  5
5CC9
330
A
100
AcDbEntity
  8
0
100
AcDbLine
 10
1280.722186959949
 20
357.4240612215846
 30
0.0
 11
1280.72218695995
 21
352.9387628659307
 31
0.0
  0
LINE
  5
5CCA
330
A
100
AcDbEntity
  8
0
100
AcDbLine
 10
1288.72218695995
 20
352.9387628659307
 30
0.0
 11
1288.722186959949
 21
357.4240612215845
 31
0.0
  0
LINE
  5
5CCB
330
A
100
AcDbEntity
  8
0
100
AcDbLine
 10
1298.422186959949
 20
356.7145059770123
 30
0.0
 11
1298.422186959949
 21
360.8881628367222
 31
0.0
  0
LINE
  5
5CCC
330
A
100
AcDbEntity
  8
0
100
AcDbLine
 10
1272.22218695995
 20
354.7541882405068
 30
0.0
 11
1272.22218695995
 21
349.7541882405069
 31
0.0
  0
LINE
  5
5CCD
330
A
100
AcDbEntity
  8
0
100
AcDbLine
 10
1274.22218695995
 20
354.7541882405068
 30
0.0
 11
1272.22218695995
 21
354.7541882405068
 31
0.0
  0
LINE
  5
5CCE
330
A
100
AcDbEntity
  8
0
100
AcDbLine
 10
1274.22218695995
 20
356.7541882405068
 30
0.0
 11
1274.22218695995
 21
354.7541882405068
 31
0.0
  0
LINE
  5
5CCF
330
A
100
AcDbEntity
  8
0
100
AcDbLine
 10
1272.22218695995
 20
356.7541882405068
 30
0.0
 11
1274.22218695995
 21
356.7541882405068
 31
0.0
  0
LINE
  5
5CD0
330
A
100
AcDbEntity
  8
0
100
AcDbLine
 10
1272.22218695995
 20
361.7541882405067
 30
0.0
 11
1272.22218695995
 21
356.7541882405068
 31
0.0
  0
LINE
  5
5CD1
330
A
100
AcDbEntity
  8
0
100
AcDbLine
 10
1272.22218695995
 20
349.7541882405069
 30
0.0
 11
1275.22218695995
 21
349.7541882405069
 31
0.0
  0
LINE
  5
5CD2
330
A
100
AcDbEntity
  8
0
100
AcDbLine
 10
1272.22218695995
 20
354.7541882405068
 30
0.0
 11
1272.22218695995
 21
356.7541882405075
 31
0.0
  0
ARC
  5
5CD3
330
A
100
AcDbEntity
  8
0
100
AcDbCircle
 10
1459.677047697917
 20
336.0843152594295
 30
0.0
 40
35.00000000000003
100
AcDbArc
 50
234.0960437581498
 51
305.9039562418501
  0
LINE
  5
5CD4
330
A
100
AcDbEntity
  8
0
100
AcDbLine
 10
1439.152057608656
 20
307.7342750154413
 30
0.0
 11
1440.763175776106
 21
309.6543308795937
 31
0.0
  0
LINE
  5
5CD5
330
A
100
AcDbEntity
  8
0
100
AcDbLine
 10
1440.763175776106
 20
309.6543308795937
 30
0.0
 11
1441.559186405928
 21
309.5139727286252
 31
0.0
  0
LINE
  5
5CD6
330
A
100
AcDbEntity
  8
0
100
AcDbLine
 10
1441.559186405928
 20
309.5139727286252
 30
0.0
 11
1443.937500561768
 21
312.3483371681654
 31
0.0
  0
LINE
  5
5CD7
330
A
100
AcDbEntity
  8
0
100
AcDbLine
 10
1443.937500561768
 20
312.3483371681654
 30
0.0
 11
1439.034816125807
 21
316.4621778701592
 31
0.0
  0
LINE
  5
5CD8
330
A
100
AcDbEntity
  8
0
100
AcDbLine
 10
1439.034816125807
 20
316.4621778701592
 30
0.0
 11
1436.656501969967
 21
313.627813430619
 31
0.0
  0
LINE
  5
5CD9
330
A
100
AcDbEntity
  8
0
100
AcDbLine
 10
1436.656501969967
 20
313.627813430619
 30
0.0
 11
1436.932953560511
 21
312.8682689280263
 31
0.0
  0
LINE
  5
5CDA
330
A
100
AcDbEntity
  8
0
100
AcDbLine
 10
1436.932953560511
 20
312.8682689280263
 30
0.0
 11
1435.321835393061
 21
310.9482130638739
 31
0.0
  0
ARC
  5
5CDB
330
A
100
AcDbEntity
  8
0
100
AcDbCircle
 10
1459.677047697917
 20
336.0843152594295
 30
0.0
 40
35.00000000000002
100
AcDbArc
 50
194.0960437581541
 51
225.9039562418514
  0
LINE
  5
5CDC
330
A
100
AcDbEntity
  8
0
100
AcDbLine
 10
1425.730938492016
 20
327.5601337866387
 30
0.0
 11
1428.199314730782
 21
327.9953751160729
 31
0.0
  0
LINE
  5
5CDD
330
A
100
AcDbEntity
  8
0
100
AcDbLine
 10
1428.199314730782
 20
327.9953751160729
 30
0.0
 11
1428.71887377006
 21
327.3761887644486
 31
0.0
  0
LINE
  5
5CDE
330
A
100
AcDbEntity
  8
0
100
AcDbLine
 10
1428.71887377006
 20
327.3761887644486
 30
0.0
 11
1432.362662456205
 21
328.0186870218162
 31
0.0
  0
LINE
  5
5CDF
330
A
100
AcDbEntity
  8
0
100
AcDbLine
 10
1432.362662456205
 20
328.0186870218162
 30
0.0
 11
1431.251314119137
 21
334.3214566410943
 31
0.0
  0
LINE
  5
5CE0
330
A
100
AcDbEntity
  8
0
100
AcDbLine
 10
1431.251314119137
 20
334.3214566410943
 30
0.0
 11
1427.607525432992
 21
333.6789583837267
 31
0.0
  0
LINE
  5
5CE1
330
A
100
AcDbEntity
  8
0
100
AcDbLine
 10
1427.607525432992
 20
333.6789583837267
 30
0.0
 11
1427.331073842448
 21
332.919413881134
 31
0.0
  0
LINE
  5
5CE2
330
A
100
AcDbEntity
  8
0
100
AcDbLine
 10
1427.331073842448
 20
332.919413881134
 30
0.0
 11
1424.862697603681
 21
332.4841725516998
 31
0.0
  0
ARC
  5
5CE3
330
A
100
AcDbEntity
  8
0
100
AcDbCircle
 10
1459.677047697917
 20
336.0843152594295
 30
0.0
 40
35.00000000000005
100
AcDbArc
 50
354.0960437581518
 51
185.9039562418482
  0
LINE
  5
5CE4
330
A
100
AcDbEntity
  8
0
100
AcDbLine
 10
1492.023021553386
 20
332.919413881134
 30
0.0
 11
1494.491397792152
 21
332.4841725516998
 31
0.0
  0
LINE
  5
5CE5
330
A
100
AcDbEntity
  8
0
100
AcDbLine
 10
1491.746569962842
 20
333.6789583837267
 30
0.0
 11
1492.023021553386
 21
332.919413881134
 31
0.0
  0
LINE
  5
5CE6
330
A
100
AcDbEntity
  8
0
100
AcDbLine
 10
1488.102781276696
 20
334.3214566410943
 30
0.0
 11
1491.746569962842
 21
333.6789583837267
 31
0.0
  0
LINE
  5
5CE7
330
A
100
AcDbEntity
  8
0
100
AcDbLine
 10
1486.991432939628
 20
328.0186870218162
 30
0.0
 11
1488.102781276696
 21
334.3214566410943
 31
0.0
  0
LINE
  5
5CE8
330
A
100
AcDbEntity
  8
0
100
AcDbLine
 10
1490.635221625773
 20
327.3761887644486
 30
0.0
 11
1486.991432939628
 21
328.0186870218162
 31
0.0
  0
LINE
  5
5CE9
330
A
100
AcDbEntity
  8
0
100
AcDbLine
 10
1491.154780665051
 20
327.9953751160729
 30
0.0
 11
1490.635221625773
 21
327.3761887644486
 31
0.0
  0
LINE
  5
5CEA
330
A
100
AcDbEntity
  8
0
100
AcDbLine
 10
1493.623156903817
 20
327.5601337866387
 30
0.0
 11
1491.154780665051
 21
327.9953751160729
 31
0.0
  0
ARC
  5
5CEB
330
A
100
AcDbEntity
  8
0
100
AcDbCircle
 10
1459.677047697917
 20
336.0843152594295
 30
0.0
 40
35.00000000000002
100
AcDbArc
 50
314.0960437581486
 51
345.9039562418459
  0
LINE
  5
5CEC
330
A
100
AcDbEntity
  8
0
100
AcDbLine
 10
1482.421141835322
 20
312.8682689280263
 30
0.0
 11
1484.032260002772
 21
310.9482130638739
 31
0.0
  0
LINE
  5
5CED
330
A
100
AcDbEntity
  8
0
100
AcDbLine
 10
1482.697593425867
 20
313.627813430619
 30
0.0
 11
1482.421141835322
 21
312.8682689280263
 31
0.0
  0
LINE
  5
5CEE
330
A
100
AcDbEntity
  8
0
100
AcDbLine
 10
1480.319279270027
 20
316.4621778701592
 30
0.0
 11
1482.697593425867
 21
313.627813430619
 31
0.0
  0
LINE
  5
5CEF
330
A
100
AcDbEntity
  8
0
100
AcDbLine
 10
1475.416594834065
 20
312.3483371681654
 30
0.0
 11
1480.319279270027
 21
316.4621778701592
 31
0.0
  0
LINE
  5
5CF0
330
A
100
AcDbEntity
  8
0
100
AcDbLine
 10
1477.794908989905
 20
309.5139727286252
 30
0.0
 11
1475.416594834065
 21
312.3483371681654
 31
0.0
  0
LINE
  5
5CF1
330
A
100
AcDbEntity
  8
0
100
AcDbLine
 10
1478.590919619728
 20
309.6543308795937
 30
0.0
 11
1477.794908989905
 21
309.5139727286252
 31
0.0
  0
LINE
  5
5CF2
330
A
100
AcDbEntity
  8
0
100
AcDbLine
 10
1480.202037787178
 20
307.7342750154413
 30
0.0
 11
1478.590919619728
 21
309.6543308795937
 31
0.0
  0
CIRCLE
  5
5CF3
330
A
100
AcDbEntity
  8
0
100
AcDbCircle
 10
1459.677047697917
 20
336.0843152594295
 30
0.0
 40
26.0
  0
CIRCLE
  5
5CF4
330
A
100
AcDbEntity
  8
0
100
AcDbCircle
 10
1459.677047697917
 20
367.0843152594295
 30
0.0
 40
2.75
  0
ARC
  5
5CF5
330
A
100
AcDbEntity
  8
DIM
100
AcDbCircle
 10
1459.677047697917
 20
305.0843152594294
 30
0.0
 40
2.5
100
AcDbArc
 50
89.99999999998697
 51
2.310940209100486
  0
CIRCLE
  5
5CF6
330
A
100
AcDbEntity
  8
0
100
AcDbCircle
 10
1432.830260180599
 20
320.5843152594293
 30
0.0
 40
2.74999999999993
  0
CIRCLE
  5
5CF7
330
A
100
AcDbEntity
  8
0
100
AcDbCircle
 10
1486.523835215234
 20
320.5843152594297
 30
0.0
 40
2.750000000000078
  0
CIRCLE
  5
5CF8
330
A
100
AcDbEntity
  8
0
100
AcDbCircle
 10
1447.813861294599
 20
364.7245807672792
 30
0.0
 40
2.0
  0
LINE
  5
5CF9
330
A
100
AcDbEntity
  8
0
100
AcDbLine
 10
1469.309791603847
 20
307.6025624193607
 30
0.0
 11
1470.075158468577
 21
305.7548033543382
 31
0.0
  0
ARC
  5
5CFA
330
A
100
AcDbEntity
  8
0
100
AcDbCircle
 10
1471.922917533599
 20
306.5201702190683
 30
0.0
 40
2.000000000000065
100
AcDbArc
 50
202.5000000000003
 51
22.50000000000027
  0
LINE
  5
5CFB
330
A
100
AcDbEntity
  8
0
100
AcDbLine
 10
1473.770676598622
 20
307.2855370837985
 30
0.0
 11
1473.005309733892
 21
309.133296148821
 31
0.0
  0
ARC
  5
5CFC
330
A
100
AcDbEntity
  8
0
100
AcDbCircle
 10
1471.157550668869
 20
308.3679292840909
 30
0.0
 40
2.000000000000043
100
AcDbArc
 50
22.50000000001127
 51
202.5000000000003
  0
ARC
  5
5CFD
330
A
100
AcDbEntity
  8
0
100
AcDbCircle
 10
1459.677047697917
 20
336.0843152594295
 30
0.0
 40
35.3000000000001
100
AcDbArc
 50
180.590976570303
 51
185.9388254784492
  0
ARC
  5
5CFE
330
A
100
AcDbEntity
  8
0
100
AcDbCircle
 10
1420.379138216181
 20
335.6789631097145
 30
0.0
 40
4.000000000000053
100
AcDbArc
 50
0.590976570289988
 51
59.99999999999946
  0
LINE
  5
5CFF
330
A
100
AcDbEntity
  8
0
100
AcDbLine
 10
1422.379138216181
 20
339.1430647248522
 30
0.0
 11
1408.82847712666
 21
346.9665425525847
 31
0.0
  0
ARC
  5
5D00
330
A
100
AcDbEntity
  8
0
100
AcDbCircle
 10
1459.677047697917
 20
336.0843152594295
 30
0.0
 40
52.00000000000003
100
AcDbArc
 50
132.0797868606123
 51
167.9202131393919
  0
LINE
  5
5D01
330
A
100
AcDbEntity
  8
0
100
AcDbLine
 10
1424.82847712666
 20
374.6793554736866
 30
0.0
 11
1438.379138216181
 21
366.8558776459542
 31
0.0
  0
ARC
  5
5D02
330
A
100
AcDbEntity
  8
0
100
AcDbCircle
 10
1440.379138216181
 20
370.3199792610918
 30
0.0
 40
3.999999999999993
100
AcDbArc
 50
239.9999999999995
 51
299.4090234297102
  0
ARC
  5
5D03
330
A
100
AcDbEntity
  8
0
100
AcDbCircle
 10
1459.677047697917
 20
336.0843152594295
 30
0.0
 40
35.30000000000003
100
AcDbArc
 50
60.59097657028974
 51
119.4090234297102
  0
ARC
  5
5D04
330
A
100
AcDbEntity
  8
0
100
AcDbCircle
 10
1478.974957179653
 20
370.3199792610918
 30
0.0
 40
4.000000000000049
100
AcDbArc
 50
240.5909765702898
 51
300.0000000000005
  0
LINE
  5
5D05
330
A
100
AcDbEntity
  8
0
100
AcDbLine
 10
1480.974957179653
 20
366.8558776459542
 30
0.0
 11
1494.525618269174
 21
374.6793554736866
 31
0.0
  0
ARC
  5
5D06
330
A
100
AcDbEntity
  8
0
100
AcDbCircle
 10
1459.677047697917
 20
336.0843152594295
 30
0.0
 40
51.99999999999997
100
AcDbArc
 50
12.07978686060807
 51
47.92021313938769
  0
LINE
  5
5D07
330
A
100
AcDbEntity
  8
0
100
AcDbLine
 10
1510.525618269174
 20
346.9665425525846
 30
0.0
 11
1496.974957179653
 21
339.1430647248522
 31
0.0
  0
ARC
  5
5D08
330
A
100
AcDbEntity
  8
0
100
AcDbCircle
 10
1498.974957179653
 20
335.6789631097145
 30
0.0
 40
4.000000000000053
100
AcDbArc
 50
120.0000000000005
 51
179.40902342971
  0
ARC
  5
5D09
330
A
100
AcDbEntity
  8
0
100
AcDbCircle
 10
1459.677047697917
 20
336.0843152594295
 30
0.0
 40
35.29999999999993
100
AcDbArc
 50
354.061174521554
 51
359.40902342971
  0
LINE
  5
5D0A
330
A
100
AcDbEntity
  8
0
100
AcDbLine
 10
1424.566505156342
 20
332.4319458317516
 30
0.0
 11
1424.862697603682
 21
332.4841725516998
 31
0.0
  0
LINE
  5
5D0B
330
A
100
AcDbEntity
  8
0
100
AcDbLine
 10
1494.787590239492
 20
332.4319458317516
 30
0.0
 11
1494.491397792153
 21
332.4841725516998
 31
0.0
  0
ARC
  5
5D0C
330
A
100
AcDbEntity
  8
0
100
AcDbCircle
 10
1459.677047697917
 20
336.0843152594295
 30
0.0
 40
35.30000000000001
100
AcDbArc
 50
314.0611745215531
 51
345.9388254784485
  0
LINE
  5
5D0D
330
A
100
AcDbEntity
  8
0
100
AcDbLine
 10
1484.225585892674
 20
310.7178162400424
 30
0.0
 11
1484.032260002773
 21
310.9482130638739
 31
0.0
  0
LINE
  5
5D0E
330
A
100
AcDbEntity
  8
0
100
AcDbLine
 10
1493.623156903818
 20
327.5601337866387
 30
0.0
 11
1493.919349351158
 21
327.5079070666905
 31
0.0
  0
ARC
  5
5D0F
330
A
100
AcDbEntity
  8
0
100
AcDbCircle
 10
1479.677047697917
 20
302.2540034074822
 30
0.0
 40
4.000000000000023
100
AcDbArc
 50
120.5909765702877
 51
180.0
  0
LINE
  5
5D10
330
A
100
AcDbEntity
  8
0
100
AcDbLine
 10
1475.677047697917
 20
302.2540034074822
 30
0.0
 11
1475.677047697917
 21
286.6070477520174
 31
0.0
  0
ARC
  5
5D11
330
A
100
AcDbEntity
  8
0
100
AcDbCircle
 10
1459.677047697917
 20
336.0843152594295
 30
0.0
 40
52.00000000000006
100
AcDbArc
 50
252.0797868606039
 51
287.9202131393961
  0
LINE
  5
5D12
330
A
100
AcDbEntity
  8
0
100
AcDbLine
 10
1443.677047697917
 20
286.6070477520174
 30
0.0
 11
1443.677047697917
 21
302.2540034074822
 31
0.0
  0
ARC
  5
5D13
330
A
100
AcDbEntity
  8
0
100
AcDbCircle
 10
1439.677047697917
 20
302.2540034074822
 30
0.0
 40
4.000000000000023
100
AcDbArc
 50
0.0
 51
59.40902342971233
  0
ARC
  5
5D14
330
A
100
AcDbEntity
  8
0
100
AcDbCircle
 10
1459.677047697917
 20
336.0843152594295
 30
0.0
 40
35.30000000000004
100
AcDbArc
 50
234.0611745215536
 51
239.4090234297123
  0
ARC
  5
5D15
330
A
100
AcDbEntity
  8
0
100
AcDbCircle
 10
1459.677047697917
 20
336.0843152594295
 30
0.0
 40
35.29999999999999
100
AcDbArc
 50
300.5909765702877
 51
305.9388254784464
  0
LINE
  5
5D16
330
A
100
AcDbEntity
  8
0
100
AcDbLine
 10
1439.152057608656
 20
307.7342750154413
 30
0.0
 11
1438.958731718755
 21
307.5038781916098
 31
0.0
  0
LINE
  5
5D17
330
A
100
AcDbEntity
  8
0
100
AcDbLine
 10
1480.202037787178
 20
307.7342750154413
 30
0.0
 11
1480.395363677079
 21
307.5038781916098
 31
0.0
  0
ARC
  5
5D18
330
A
100
AcDbEntity
  8
0
100
AcDbCircle
 10
1459.677047697917
 20
336.0843152594295
 30
0.0
 40
35.30000000000011
100
AcDbArc
 50
194.0611745215515
 51
225.9388254784469
  0
LINE
  5
5D19
330
A
100
AcDbEntity
  8
0
100
AcDbLine
 10
1425.730938492016
 20
327.5601337866387
 30
0.0
 11
1425.434746044676
 21
327.5079070666905
 31
0.0
  0
LINE
  5
5D1A
330
A
100
AcDbEntity
  8
0
100
AcDbLine
 10
1435.12850950316
 20
310.7178162400424
 30
0.0
 11
1435.321835393062
 21
310.9482130638739
 31
0.0
  0
LINE
  5
5D1B
330
A
100
AcDbEntity
  8
0
100
AcDbLine
 10
1453.677047697917
 20
284.4316289788494
 30
0.0
 11
1453.677047697917
 21
276.0843152594294
 31
0.0
  0
LINE
  5
5D1C
330
A
100
AcDbEntity
  8
0
100
AcDbLine
 10
1465.677047697917
 20
284.4316289788494
 30
0.0
 11
1465.677047697917
 21
276.0843152594293
 31
0.0
  0
LINE
  5
5D1D
330
A
100
AcDbEntity
  8
0
100
AcDbLine
 10
1465.677047697917
 20
276.0843152594293
 30
0.0
 11
1453.677047697917
 21
276.0843152594294
 31
0.0
  0
LINE
  5
5D1E
330
A
100
AcDbEntity
  8
0
100
AcDbLine
 10
1469.677047697917
 20
285.0549119707371
 30
0.0
 11
1469.677047697917
 21
276.0843152594294
 31
0.0
  0
LINE
  5
5D1F
330
A
100
AcDbEntity
  8
0
100
AcDbLine
 10
1469.677047697917
 20
276.0843152594294
 30
0.0
 11
1465.677047697918
 21
276.0843152594294
 31
0.0
  0
LINE
  5
5D20
330
A
100
AcDbEntity
  8
0
100
AcDbLine
 10
1449.677047697917
 20
285.0549119707371
 30
0.0
 11
1449.677047697917
 21
276.0843152594294
 31
0.0
  0
LINE
  5
5D21
330
A
100
AcDbEntity
  8
0
100
AcDbLine
 10
1453.677047697917
 20
276.0843152594294
 30
0.0
 11
1449.677047697917
 21
276.0843152594295
 31
0.0
  0
LINE
  5
5D22
330
A
100
AcDbEntity
  8
0
100
AcDbLine
 10
1417.944509205227
 20
367.1068108224255
 30
0.0
 11
1410.71552347085
 21
371.2804676821356
 31
0.0
  0
LINE
  5
5D23
330
A
100
AcDbEntity
  8
0
100
AcDbLine
 10
1411.944509205227
 20
356.7145059770122
 30
0.0
 11
1404.71552347085
 21
360.8881628367222
 31
0.0
  0
LINE
  5
5D24
330
A
100
AcDbEntity
  8
0
100
AcDbLine
 10
1404.71552347085
 20
360.8881628367222
 30
0.0
 11
1410.71552347085
 21
371.2804676821356
 31
0.0
  0
LINE
  5
5D25
330
A
100
AcDbEntity
  8
0
100
AcDbLine
 10
1420.484288109948
 20
370.2592709416196
 30
0.0
 11
1412.71552347085
 21
374.7445692972734
 31
0.0
  0
LINE
  5
5D26
330
A
100
AcDbEntity
  8
0
100
AcDbLine
 10
1410.71552347085
 20
371.2804676821356
 30
0.0
 11
1412.71552347085
 21
374.7445692972734
 31
0.0
  0
LINE
  5
5D27
330
A
100
AcDbEntity
  8
0
100
AcDbLine
 10
1410.484288109948
 20
352.9387628659307
 30
0.0
 11
1402.715523470851
 21
357.4240612215845
 31
0.0
  0
LINE
  5
5D28
330
A
100
AcDbEntity
  8
0
100
AcDbLine
 10
1402.715523470851
 20
357.4240612215845
 30
0.0
 11
1404.715523470851
 21
360.8881628367222
 31
0.0
  0
LINE
  5
5D29
330
A
100
AcDbEntity
  8
0
100
AcDbLine
 10
1507.409586190607
 20
356.714505977013
 30
0.0
 11
1514.638571924983
 21
360.8881628367231
 31
0.0
  0
LINE
  5
5D2A
330
A
100
AcDbEntity
  8
0
100
AcDbLine
 10
1501.409586190608
 20
367.1068108224262
 30
0.0
 11
1508.638571924984
 21
371.2804676821364
 31
0.0
  0
LINE
  5
5D2B
330
A
100
AcDbEntity
  8
0
100
AcDbLine
 10
1508.638571924984
 20
371.2804676821364
 30
0.0
 11
1514.638571924983
 21
360.8881628367231
 31
0.0
  0
LINE
  5
5D2C
330
A
100
AcDbEntity
  8
0
100
AcDbLine
 10
1508.869807285886
 20
352.9387628659315
 30
0.0
 11
1516.638571924984
 21
357.4240612215853
 31
0.0
  0
LINE
  5
5D2D
330
A
100
AcDbEntity
  8
0
100
AcDbLine
 10
1514.638571924983
 20
360.8881628367231
 30
0.0
 11
1516.638571924984
 21
357.4240612215853
 31
0.0
  0
LINE
  5
5D2E
330
A
100
AcDbEntity
  8
0
100
AcDbLine
 10
1498.869807285886
 20
370.2592709416202
 30
0.0
 11
1506.638571924983
 21
374.744569297274
 31
0.0
  0
LINE
  5
5D2F
330
A
100
AcDbEntity
  8
0
100
AcDbLine
 10
1506.638571924983
 20
374.744569297274
 30
0.0
 11
1508.638571924984
 21
371.2804676821364
 31
0.0
  0
LINE
  5
5D30
330
A
100
AcDbEntity
  8
CENTER
100
AcDbLine
 10
1419.579919889719
 20
336.0843152594295
 30
0.0
 11
1499.774175506115
 21
336.0843152594295
 31
0.0
  0
LINE
  5
5D31
330
A
100
AcDbEntity
  8
CENTER
100
AcDbLine
 10
1459.677047697917
 20
273.8140727954554
 30
0.0
 11
1459.677047697917
 21
374.0568923159499
 31
0.0
  0
CIRCLE
  5
5D32
330
A
100
AcDbEntity
  8
CENTER
100
AcDbCircle
 10
1459.677047697917
 20
336.0843152594295
 30
0.0
 40
31.0
  0
CIRCLE
  5
5D33
330
A
100
AcDbEntity
  8
0
100
AcDbCircle
 10
1459.677047697917
 20
305.0843152594294
 30
0.0
 40
2.1
  0
ARC
  5
5D34
330
A
100
AcDbEntity
  8
DIM
100
AcDbCircle
 10
1486.523835215235
 20
351.5843152594293
 30
0.0
 40
2.5
100
AcDbArc
 50
209.9999999999888
 51
122.310940209095
  0
CIRCLE
  5
5D35
330
A
100
AcDbEntity
  8
0
100
AcDbCircle
 10
1486.523835215235
 20
351.5843152594293
 30
0.0
 40
2.1
  0
ARC
  5
5D36
330
A
100
AcDbEntity
  8
DIM
100
AcDbCircle
 10
1432.8302601806
 20
351.5843152594301
 30
0.0
 40
2.5
100
AcDbArc
 50
329.9999999999877
 51
242.3109402091
  0
CIRCLE
  5
5D37
330
A
100
AcDbEntity
  8
0
100
AcDbCircle
 10
1432.8302601806
 20
351.5843152594301
 30
0.0
 40
2.1
  0
LINE
  5
5D38
330
A
100
AcDbEntity
  8
CENTER
100
AcDbLine
 10
1109.753682743985
 20
336.0843152594295
 30
0.0
 11
1194.960079336405
 21
336.0843152594295
 31
0.0
  0
LINE
  5
5D39
330
A
100
AcDbEntity
  8
CENTER
100
AcDbLine
 10
1152.356881040195
 20
273.4828041447677
 30
0.0
 11
1152.356881040195
 21
373.7256236652622
 31
0.0
  0
CIRCLE
  5
5D3A
330
A
100
AcDbEntity
  8
CENTER
100
AcDbCircle
 10
1152.356881040195
 20
336.0843152594295
 30
0.0
 40
31.0
  0
LINE
  5
5D3B
330
A
100
AcDbEntity
  8
CENTER
100
AcDbLine
 10
1267.825693900883
 20
336.0843152594295
 30
0.0
 11
1352.137053626102
 21
336.0843152594295
 31
0.0
  0
CIRCLE
  5
5D3C
330
A
100
AcDbEntity
  8
0
100
AcDbCircle
 10
1152.356881040195
 20
295.0843152594294
 30
0.0
 40
2.1
  0
CIRCLE
  5
5D3D
330
A
100
AcDbEntity
  8
0
100
AcDbCircle
 10
1152.356881040195
 20
281.0843152594294
 30
0.0
 40
2.1
  0
LINE
  5
5D3E
330
A
100
AcDbEntity
  8
CENTER
100
AcDbLine
 10
1152.266881040195
 20
295.0843152594294
 30
0.0
 11
1152.446881040194
 21
295.0843152594294
 31
0.0
  0
LINE
  5
5D3F
330
A
100
AcDbEntity
  8
CENTER
100
AcDbLine
 10
1152.356881040195
 20
294.9943152594294
 30
0.0
 11
1152.356881040195
 21
295.1743152594294
 31
0.0
  0
LINE
  5
5D40
330
A
100
AcDbEntity
  8
CENTER
100
AcDbLine
 10
1152.266881040195
 20
281.0843152594294
 30
0.0
 11
1152.446881040194
 21
281.0843152594294
 31
0.0
  0
LINE
  5
5D41
330
A
100
AcDbEntity
  8
CENTER
100
AcDbLine
 10
1152.356881040195
 20
280.9943152594294
 30
0.0
 11
1152.356881040195
 21
281.1743152594294
 31
0.0
  0
ARC
  5
5D42
330
A
100
AcDbEntity
  8
DIM
100
AcDbCircle
 10
1199.988278248339
 20
363.5843152594294
 30
0.0
 40
2.5
100
AcDbArc
 50
209.9999999999973
 51
120.0000000000005
  0
CIRCLE
  5
5D43
330
A
100
AcDbEntity
  8
0
100
AcDbCircle
 10
1199.988278248339
 20
363.5843152594294
 30
0.0
 40
2.1
  0
LINE
  5
5D44
330
A
100
AcDbEntity
  8
CENTER
100
AcDbLine
 10
1200.06622053468
 20
363.6293152594293
 30
0.0
 11
1199.910335961998
 21
363.5393152594294
 31
0.0
  0
LINE
  5
5D45
330
A
100
AcDbEntity
  8
CENTER
100
AcDbLine
 10
1200.033278248339
 20
363.5063729730888
 30
0.0
 11
1199.943278248339
 21
363.66225754577
 31
0.0
  0
ARC
  5
5D46
330
A
100
AcDbEntity
  8
DIM
100
AcDbCircle
 10
1187.863922595357
 20
356.5843152594295
 30
0.0
 40
2.5
100
AcDbArc
 50
209.9999999999973
 51
120.0000000000005
  0
CIRCLE
  5
5D47
330
A
100
AcDbEntity
  8
0
100
AcDbCircle
 10
1187.863922595357
 20
356.5843152594295
 30
0.0
 40
2.1
  0
LINE
  5
5D48
330
A
100
AcDbEntity
  8
CENTER
100
AcDbLine
 10
1187.941864881698
 20
356.6293152594294
 30
0.0
 11
1187.785980309016
 21
356.5393152594294
 31
0.0
  0
LINE
  5
5D49
330
A
100
AcDbEntity
  8
CENTER
100
AcDbLine
 10
1187.908922595357
 20
356.5063729730888
 30
0.0
 11
1187.818922595357
 21
356.66225754577
 31
0.0
  0
ARC
  5
5D4A
330
A
100
AcDbEntity
  8
DIM
100
AcDbCircle
 10
1104.725483832051
 20
363.5843152594296
 30
0.0
 40
2.5
100
AcDbArc
 50
330.0000000000027
 51
239.9999999999995
  0
CIRCLE
  5
5D4B
330
A
100
AcDbEntity
  8
0
100
AcDbCircle
 10
1104.725483832051
 20
363.5843152594296
 30
0.0
 40
2.1
  0
LINE
  5
5D4C
330
A
100
AcDbEntity
  8
CENTER
100
AcDbLine
 10
1104.64754154571
 20
363.6293152594296
 30
0.0
 11
1104.803426118391
 21
363.5393152594296
 31
0.0
  0
LINE
  5
5D4D
330
A
100
AcDbEntity
  8
CENTER
100
AcDbLine
 10
1104.770483832051
 20
363.6622575457702
 30
0.0
 11
1104.680483832051
 21
363.5063729730891
 31
0.0
  0
ARC
  5
5D4E
330
A
100
AcDbEntity
  8
DIM
100
AcDbCircle
 10
1116.849839485033
 20
356.5843152594296
 30
0.0
 40
2.5
100
AcDbArc
 50
330.0000000000027
 51
239.9999999999995
  0
CIRCLE
  5
5D4F
330
A
100
AcDbEntity
  8
0
100
AcDbCircle
 10
1116.849839485033
 20
356.5843152594296
 30
0.0
 40
2.1
  0
LINE
  5
5D50
330
A
100
AcDbEntity
  8
CENTER
100
AcDbLine
 10
1116.771897198692
 20
356.6293152594296
 30
0.0
 11
1116.927781771373
 21
356.5393152594298
 31
0.0
  0
LINE
  5
5D51
330
A
100
AcDbEntity
  8
CENTER
100
AcDbLine
 10
1116.894839485033
 20
356.6622575457702
 30
0.0
 11
1116.804839485033
 21
356.5063729730891
 31
0.0
  0
LINE
  5
5D52
330
A
100
AcDbEntity
  8
0
  6
Continuous
 62
     7
370
    15
100
AcDbLine
 10
1349.72218695995
 20
444.9264916208835
 30
0.0
 11
1349.72218695995
 21
514.9264916208836
 31
0.0
  0
LINE
  5
5D53
330
A
100
AcDbEntity
  8
0
  6
Continuous
 62
     7
370
    15
100
AcDbLine
 10
1284.72218695995
 20
475.1764916208838
 30
0.0
 11
1284.72218695995
 21
484.6764916208838
 31
0.0
  0
LINE
  5
5D54
330
A
100
AcDbEntity
  8
0
  6
Continuous
 62
     7
370
    15
100
AcDbLine
 10
1275.22218695995
 20
484.6764916208838
 30
0.0
 11
1275.22218695995
 21
475.1764916208838
 31
0.0
  0
LINE
  5
5D55
330
A
100
AcDbEntity
  8
0
  6
Continuous
 62
     7
370
    15
100
AcDbLine
 10
1272.22218695995
 20
484.9264916208839
 30
0.0
 11
1272.22218695995
 21
474.9264916208838
 31
0.0
  0
LINE
  5
5D56
330
A
100
AcDbEntity
  8
0
  6
Continuous
 62
     7
370
    15
100
AcDbLine
 10
1303.22218695995
 20
462.5927459540828
 30
0.0
 11
1303.22218695995
 21
497.2602372876847
 31
0.0
  0
LINE
  5
5D57
330
A
100
AcDbEntity
  8
0
  6
Continuous
 62
     7
370
    15
100
AcDbLine
 10
1303.22218695995
 20
501.2244011026195
 30
0.0
 11
1303.22218695995
 21
514.7750621921407
 31
0.0
  0
LINE
  5
5D58
330
A
100
AcDbEntity
  8
0
  6
Continuous
 62
     7
370
    15
100
AcDbLine
 10
1276.954237767519
 20
514.7750621921407
 30
0.0
 11
1275.22218695995
 21
512.0357174922465
 31
0.0
  0
LINE
  5
5D59
330
A
100
AcDbEntity
  8
0
  6
Continuous
 62
     7
370
    15
100
AcDbLine
 10
1275.22218695995
 20
512.0357174922465
 30
0.0
 11
1275.22218695995
 21
519.6402334592945
 31
0.0
  0
LINE
  5
5D5A
330
A
100
AcDbEntity
  8
0
  6
Continuous
 62
     7
370
    15
100
AcDbLine
 10
1272.22218695995
 20
517.263660194968
 30
0.0
 11
1272.22218695995
 21
508.6034061571236
 31
0.0
  0
LINE
  5
5D5B
330
A
100
AcDbEntity
  8
0
  6
Continuous
 62
     7
370
    15
100
AcDbLine
 10
1349.72218695995
 20
514.9264916208836
 30
0.0
 11
1303.22218695995
 21
514.9264916208838
 31
0.0
  0
LINE
  5
5D5C
330
A
100
AcDbEntity
  8
0
  6
Continuous
 62
     7
370
    15
100
AcDbLine
 10
1298.42218695995
 20
528.8880158479499
 30
0.0
 11
1298.42218695995
 21
534.88801584795
 31
0.0
  0
LINE
  5
5D5D
330
A
100
AcDbEntity
  8
0
  6
Continuous
 62
     7
370
    15
100
AcDbLine
 10
1272.22218695995
 20
529.38801584795
 30
0.0
 11
1272.22218695995
 21
534.3880158479501
 31
0.0
  0
LINE
  5
5D5E
330
A
100
AcDbEntity
  8
0
  6
Continuous
 62
     7
370
    15
100
AcDbLine
 10
1298.42218695995
 20
534.88801584795
 30
0.0
 11
1288.72218695995
 21
534.88801584795
 31
0.0
  0
LINE
  5
5D5F
330
A
100
AcDbEntity
  8
0
  6
Continuous
 62
     7
370
    15
100
AcDbLine
 10
1288.72218695995
 20
536.8880158479501
 30
0.0
 11
1280.72218695995
 21
536.8880158479502
 31
0.0
  0
LINE
  5
5D60
330
A
100
AcDbEntity
  8
0
  6
Continuous
 62
     7
370
    15
100
AcDbLine
 10
1280.72218695995
 20
534.38801584795
 30
0.0
 11
1280.72218695995
 21
536.8880158479502
 31
0.0
  0
LINE
  5
5D61
330
A
100
AcDbEntity
  8
0
  6
Continuous
 62
     7
370
    15
100
AcDbLine
 10
1280.72218695995
 20
534.38801584795
 30
0.0
 11
1272.22218695995
 21
534.3880158479501
 31
0.0
  0
LINE
  5
5D62
330
A
100
AcDbEntity
  8
0
  6
Continuous
 62
     7
370
    15
100
AcDbLine
 10
1288.72218695995
 20
534.88801584795
 30
0.0
 11
1288.72218695995
 21
536.8880158479499
 31
0.0
  0
LINE
  5
5D63
330
A
100
AcDbEntity
  8
0
  6
Continuous
 62
     7
370
    15
100
AcDbLine
 10
1303.22218695995
 20
514.7750621921407
 30
0.0
 11
1276.954237767519
 21
514.7750621921407
 31
0.0
  0
LINE
  5
5D64
330
A
100
AcDbEntity
  8
0
  6
Continuous
 62
     7
370
    15
100
AcDbLine
 10
1288.72218695995
 20
521.6590301135737
 30
0.0
 11
1298.42218695995
 21
521.6590301135737
 31
0.0
  0
LINE
  5
5D65
330
A
100
AcDbEntity
  8
0
  6
Continuous
 62
     7
370
    15
100
AcDbLine
 10
1288.72218695995
 20
528.8880158479499
 30
0.0
 11
1298.42218695995
 21
528.8880158479499
 31
0.0
  0
LINE
  5
5D66
330
A
100
AcDbEntity
  8
0
  6
Continuous
 62
     7
370
    15
100
AcDbLine
 10
1280.72218695995
 20
526.8880158479499
 30
0.0
 11
1280.72218695995
 21
519.1192512088524
 31
0.0
  0
LINE
  5
5D67
330
A
100
AcDbEntity
  8
0
  6
Continuous
 62
     7
370
    15
100
AcDbLine
 10
1288.72218695995
 20
519.1192512088523
 30
0.0
 11
1288.72218695995
 21
526.8880158479499
 31
0.0
  0
LINE
  5
5D68
330
A
100
AcDbEntity
  8
0
  6
Continuous
 62
     7
370
    15
100
AcDbLine
 10
1272.22218695995
 20
529.38801584795
 30
0.0
 11
1272.22218695995
 21
520.7277618101056
 31
0.0
  0
LINE
  5
5D69
330
A
100
AcDbEntity
  8
0
  6
Continuous
 62
     7
370
    15
100
AcDbLine
 10
1288.72218695995
 20
526.8880158479499
 30
0.0
 11
1280.72218695995
 21
526.8880158479499
 31
0.0
  0
LINE
  5
5D6A
330
A
100
AcDbEntity
  8
0
  6
Continuous
 62
     7
370
    15
100
AcDbLine
 10
1280.72218695995
 20
526.8880158479499
 30
0.0
 11
1280.72218695995
 21
529.38801584795
 31
0.0
  0
LINE
  5
5D6B
330
A
100
AcDbEntity
  8
0
  6
Continuous
 62
     7
370
    15
100
AcDbLine
 10
1280.72218695995
 20
529.38801584795
 30
0.0
 11
1272.22218695995
 21
529.38801584795
 31
0.0
  0
LINE
  5
5D6C
330
A
100
AcDbEntity
  8
0
  6
Continuous
 62
     7
370
    15
100
AcDbLine
 10
1288.72218695995
 20
526.8880158479499
 30
0.0
 11
1288.72218695995
 21
528.8880158479499
 31
0.0
  0
LINE
  5
5D6D
330
A
100
AcDbEntity
  8
0
  6
Continuous
 62
     7
370
    15
100
AcDbLine
 10
1288.72218695995
 20
519.1192512088524
 30
0.0
 11
1280.72218695995
 21
519.1192512088524
 31
0.0
  0
LINE
  5
5D6E
330
A
100
AcDbEntity
  8
0
  6
Continuous
 62
     7
370
    15
100
AcDbLine
 10
1276.954237767519
 20
514.7750621921407
 30
0.0
 11
1276.954237767519
 21
522.2511500133355
 31
0.0
  0
LINE
  5
5D6F
330
A
100
AcDbEntity
  8
0
  6
Continuous
 62
     7
370
    15
100
AcDbLine
 10
1274.22218695995
 20
520.7277618101056
 30
0.0
 11
1274.22218695995
 21
517.2636601949679
 31
0.0
  0
LINE
  5
5D70
330
A
100
AcDbEntity
  8
0
  6
Continuous
 62
     7
370
    15
100
AcDbLine
 10
1272.22218695995
 20
517.263660194968
 30
0.0
 11
1272.22218695995
 21
520.7277618101056
 31
0.0
  0
LINE
  5
5D71
330
A
100
AcDbEntity
  8
0
  6
Continuous
 62
     7
370
    15
100
AcDbLine
 10
1276.954237767519
 20
522.2511500133355
 30
0.0
 11
1280.72218695995
 21
522.2511500133355
 31
0.0
  0
LINE
  5
5D72
330
A
100
AcDbEntity
  8
0
  6
Continuous
 62
     7
370
    15
100
AcDbLine
 10
1275.22218695995
 20
519.6402334592945
 30
0.0
 11
1276.954237767519
 21
522.2511500133355
 31
0.0
  0
LINE
  5
5D73
330
A
100
AcDbEntity
  8
0
  6
Continuous
 62
     7
370
    15
100
AcDbLine
 10
1272.22218695995
 20
520.7277618101056
 30
0.0
 11
1274.22218695995
 21
520.7277618101056
 31
0.0
  0
LINE
  5
5D74
330
A
100
AcDbEntity
  8
0
  6
Continuous
 62
     7
370
    15
100
AcDbLine
 10
1274.22218695995
 20
517.2636601949679
 30
0.0
 11
1272.22218695995
 21
517.263660194968
 31
0.0
  0
LINE
  5
5D75
330
A
100
AcDbEntity
  8
0
  6
Continuous
 62
     7
370
    15
100
AcDbLine
 10
1303.22218695995
 20
514.7750621921407
 30
0.0
 11
1303.22218695995
 21
530.7750621921408
 31
0.0
  0
LINE
  5
5D76
330
A
100
AcDbEntity
  8
0
  6
Continuous
 62
     7
370
    15
100
AcDbLine
 10
1298.42218695995
 20
521.6590301135737
 30
0.0
 11
1298.42218695995
 21
528.8880158479499
 31
0.0
  0
LINE
  5
5D77
330
A
100
AcDbEntity
  8
0
  6
Continuous
 62
     7
370
    15
100
AcDbLine
 10
1298.42218695995
 20
530.7750621921408
 30
0.0
 11
1303.22218695995
 21
530.7750621921408
 31
0.0
  0
LINE
  5
5D78
330
A
100
AcDbEntity
  8
0
  6
Continuous
 62
     7
370
    15
100
AcDbLine
 10
1275.22218695995
 20
484.6764916208838
 30
0.0
 11
1275.22218695995
 21
497.2602372876847
 31
0.0
  0
LINE
  5
5D79
330
A
100
AcDbEntity
  8
0
  6
Continuous
 62
     7
370
    15
100
AcDbLine
 10
1303.22218695995
 20
501.2244011026195
 30
0.0
 11
1275.22218695995
 21
501.2244011026198
 31
0.0
  0
LINE
  5
5D7A
330
A
100
AcDbEntity
  8
0
  6
Continuous
 62
     7
370
    15
100
AcDbLine
 10
1303.22218695995
 20
497.2602372876847
 30
0.0
 11
1275.22218695995
 21
497.2602372876847
 31
0.0
  0
LINE
  5
5D7B
330
A
100
AcDbEntity
  8
0
  6
Continuous
 62
     7
370
    15
100
AcDbLine
 10
1275.22218695995
 20
501.2244011026198
 30
0.0
 11
1275.22218695995
 21
512.0357174922465
 31
0.0
  0
LINE
  5
5D7C
330
A
100
AcDbEntity
  8
0
  6
Continuous
 62
     7
370
    15
100
AcDbLine
 10
1272.22218695995
 20
508.6034061571236
 30
0.0
 11
1275.22218695995
 21
508.6034061571235
 31
0.0
  0
LINE
  5
5D7D
330
A
100
AcDbEntity
  8
0
  6
Continuous
 62
     7
370
    15
100
AcDbLine
 10
1275.22218695995
 20
497.2602372876847
 30
0.0
 11
1275.22218695995
 21
501.2244011026198
 31
0.0
  0
LINE
  5
5D7E
330
A
100
AcDbEntity
  8
0
  6
Continuous
 62
     7
370
    15
100
AcDbLine
 10
1303.22218695995
 20
497.2602372876847
 30
0.0
 11
1303.22218695995
 21
501.2244011026195
 31
0.0
  0
LINE
  5
5D7F
330
A
100
AcDbEntity
  8
0
  6
Continuous
 62
     7
370
    15
100
AcDbLine
 10
1284.72218695995
 20
484.6764916208838
 30
0.0
 11
1275.22218695995
 21
484.6764916208838
 31
0.0
  0
LINE
  5
5D80
330
A
100
AcDbEntity
  8
0
  6
Continuous
 62
     7
370
    15
100
AcDbLine
 10
1272.22218695995
 20
484.9264916208839
 30
0.0
 11
1275.22218695995
 21
484.9264916208839
 31
0.0
  0
POLYLINE
  5
5D81
330
A
100
AcDbEntity
  8
0
  6
Continuous
 62
     7
370
    15
100
AcDb2dPolyline
 66
     1
 10
0.0
 20
0.0
 30
0.0
 70
   128
  0
VERTEX
  5
5D82
330
5D81
100
AcDbEntity
  8
0
100
AcDbVertex
100
AcDb2dVertex
 10
1340.72218695995
 20
487.0759538259949
 30
0.0
  0
VERTEX
  5
5D83
330
5D81
100
AcDbEntity
  8
0
100
AcDbVertex
100
AcDb2dVertex
 10
1339.076752530345
 20
487.3510180693988
 30
0.0
  0
VERTEX
  5
5D84
330
5D81
100
AcDbEntity
  8
0
100
AcDbVertex
100
AcDb2dVertex
 10
1337.61696261557
 20
488.1393848140123
 30
0.0
  0
VERTEX
  5
5D85
330
5D81
100
AcDbEntity
  8
0
100
AcDbVertex
100
AcDb2dVertex
 10
1336.496667677545
 20
489.3504266291016
 30
0.0
  0
VERTEX
  5
5D86
330
5D81
100
AcDbEntity
  8
0
100
AcDbVertex
100
AcDb2dVertex
 10
1335.848760290503
 20
490.8406015202738
 30
0.0
  0
VERTEX
  5
5D87
330
5D81
100
AcDbEntity
  8
0
100
AcDbVertex
100
AcDb2dVertex
 10
1335.753029691522
 20
492.4167586800765
 30
0.0
  0
VERTEX
  5
5D88
330
5D81
100
AcDbEntity
  8
0
100
AcDbVertex
100
AcDb2dVertex
 10
1336.20928725854
 20
493.8973278868038
 30
0.0
  0
VERTEX
  5
5D89
330
5D81
100
AcDbEntity
  8
0
100
AcDbVertex
100
AcDb2dVertex
 10
1337.166541313824
 20
495.1399735378925
 30
0.0
  0
VERTEX
  5
5D8A
330
5D81
100
AcDbEntity
  8
0
100
AcDbVertex
100
AcDb2dVertex
 10
1338.531653076382
 20
496.0216377069687
 30
0.0
  0
VERTEX
  5
5D8B
330
5D81
100
AcDbEntity
  8
0
100
AcDbVertex
100
AcDb2dVertex
 10
1340.147604631393
 20
496.4433831541338
 30
0.0
  0
VERTEX
  5
5D8C
330
5D81
100
AcDbEntity
  8
0
100
AcDbVertex
100
AcDb2dVertex
 10
1341.815186001681
 20
496.3651418700496
 30
0.0
  0
VERTEX
  5
5D8D
330
5D81
100
AcDbEntity
  8
0
100
AcDbVertex
100
AcDb2dVertex
 10
1343.352782558068
 20
495.804153665896
 30
0.0
  0
VERTEX
  5
5D8E
330
5D81
100
AcDbEntity
  8
0
100
AcDbVertex
100
AcDb2dVertex
 10
1344.606254602607
 20
494.8074247290098
 30
0.0
  0
VERTEX
  5
5D8F
330
5D81
100
AcDbEntity
  8
0
100
AcDbVertex
100
AcDb2dVertex
 10
1345.431103365624
 20
493.4631001039049
 30
0.0
  0
VERTEX
  5
5D90
330
5D81
100
AcDbEntity
  8
0
100
AcDbVertex
100
AcDb2dVertex
 10
1345.722117594834
 20
491.9219420892907
 30
0.0
  0
VERTEX
  5
5D91
330
5D81
100
AcDbEntity
  8
0
100
AcDbVertex
100
AcDb2dVertex
 10
1345.453440306889
 20
490.3647681583984
 30
0.0
  0
VERTEX
  5
5D92
330
5D81
100
AcDbEntity
  8
0
100
AcDbVertex
100
AcDb2dVertex
 10
1344.662010404609
 20
488.9578584830464
 30
0.0
  0
VERTEX
  5
5D93
330
5D81
100
AcDbEntity
  8
0
100
AcDbVertex
100
AcDb2dVertex
 10
1343.42413342231
 20
487.8570443417527
 30
0.0
  0
VERTEX
  5
5D94
330
5D81
100
AcDbEntity
  8
0
100
AcDbVertex
100
AcDb2dVertex
 10
1341.873502162465
 20
487.208750764306
 30
0.0
  0
VERTEX
  5
5D95
330
5D81
100
AcDbEntity
  8
0
100
AcDbVertex
100
AcDb2dVertex
 10
1340.72218695995
 20
487.0759538259949
 30
0.0
  0
SEQEND
  5
5D96
330
5D81
100
AcDbEntity
  8
0
  0
POLYLINE
  5
5D97
330
A
100
AcDbEntity
  8
0
  6
Continuous
 62
     7
370
    15
100
AcDb2dPolyline
 66
     1
 10
0.0
 20
0.0
 30
0.0
 70
   128
  0
VERTEX
  5
5D98
330
5D97
100
AcDbEntity
  8
0
100
AcDbVertex
100
AcDb2dVertex
 10
1345.72218695995
 20
491.6034068582616
 30
0.0
  0
VERTEX
  5
5D99
330
5D97
100
AcDbEntity
  8
0
100
AcDbVertex
100
AcDb2dVertex
 10
1345.700857841425
 20
492.0369263408599
 30
0.0
  0
VERTEX
  5
5D9A
330
5D97
100
AcDbEntity
  8
0
100
AcDbVertex
100
AcDb2dVertex
 10
1345.531315175814
 20
492.8892023200262
 30
0.0
  0
VERTEX
  5
5D9B
330
5D97
100
AcDbEntity
  8
0
100
AcDbVertex
100
AcDb2dVertex
 10
1345.198003416725
 20
493.6976920768838
 30
0.0
  0
VERTEX
  5
5D9C
330
5D97
100
AcDbEntity
  8
0
100
AcDbVertex
100
AcDb2dVertex
 10
1344.712273096351
 20
494.4348634624396
 30
0.0
  0
VERTEX
  5
5D9D
330
5D97
100
AcDbEntity
  8
0
100
AcDbVertex
100
AcDb2dVertex
 10
1344.090665178183
 20
495.0756129892977
 30
0.0
  0
VERTEX
  5
5D9E
330
5D97
100
AcDbEntity
  8
0
100
AcDbVertex
100
AcDb2dVertex
 10
1343.354347774337
 20
495.5981207008157
 30
0.0
  0
VERTEX
  5
5D9F
330
5D97
100
AcDbEntity
  8
0
100
AcDbVertex
100
AcDb2dVertex
 10
1342.528395290886
 20
495.9845932235569
 30
0.0
  0
VERTEX
  5
5DA0
330
5D97
100
AcDbEntity
  8
0
100
AcDbVertex
100
AcDb2dVertex
 10
1341.640934549033
 20
496.2218696992815
 30
0.0
  0
VERTEX
  5
5DA1
330
5D97
100
AcDbEntity
  8
0
100
AcDbVertex
100
AcDb2dVertex
 10
1340.72218695995
 20
496.3018699621911
 30
0.0
  0
VERTEX
  5
5DA2
330
5D97
100
AcDbEntity
  8
0
100
AcDbVertex
100
AcDb2dVertex
 10
1339.803439370867
 20
496.2218696992815
 30
0.0
  0
VERTEX
  5
5DA3
330
5D97
100
AcDbEntity
  8
0
100
AcDbVertex
100
AcDb2dVertex
 10
1338.915978629014
 20
495.9845932235569
 30
0.0
  0
VERTEX
  5
5DA4
330
5D97
100
AcDbEntity
  8
0
100
AcDbVertex
100
AcDb2dVertex
 10
1338.090026145563
 20
495.5981207008157
 30
0.0
  0
VERTEX
  5
5DA5
330
5D97
100
AcDbEntity
  8
0
100
AcDbVertex
100
AcDb2dVertex
 10
1337.353708741717
 20
495.0756129892977
 30
0.0
  0
VERTEX
  5
5DA6
330
5D97
100
AcDbEntity
  8
0
100
AcDbVertex
100
AcDb2dVertex
 10
1336.732100823549
 20
494.4348634624394
 30
0.0
  0
VERTEX
  5
5DA7
330
5D97
100
AcDbEntity
  8
0
100
AcDbVertex
100
AcDb2dVertex
 10
1336.246370503175
 20
493.6976920768838
 30
0.0
  0
VERTEX
  5
5DA8
330
5D97
100
AcDbEntity
  8
0
100
AcDbVertex
100
AcDb2dVertex
 10
1335.913058744086
 20
492.8892023200262
 30
0.0
  0
VERTEX
  5
5DA9
330
5D97
100
AcDbEntity
  8
0
100
AcDbVertex
100
AcDb2dVertex
 10
1335.743516078475
 20
492.0369263408599
 30
0.0
  0
VERTEX
  5
5DAA
330
5D97
100
AcDbEntity
  8
0
100
AcDbVertex
100
AcDb2dVertex
 10
1335.72218695995
 20
491.6034068582614
 30
0.0
  0
SEQEND
  5
5DAB
330
5D97
100
AcDbEntity
  8
0
  0
POLYLINE
  5
5DAC
330
A
100
AcDbEntity
  8
0
  6
Continuous
 62
     7
370
    15
100
AcDb2dPolyline
 66
     1
 10
0.0
 20
0.0
 30
0.0
 70
   128
  0
VERTEX
  5
5DAD
330
5DAC
100
AcDbEntity
  8
0
100
AcDbVertex
100
AcDb2dVertex
 10
1340.72218695995
 20
489.2541753062968
 30
0.0
  0
VERTEX
  5
5DAE
330
5DAC
100
AcDbEntity
  8
0
100
AcDbVertex
100
AcDb2dVertex
 10
1341.369234572706
 20
489.3342234302856
 30
0.0
  0
VERTEX
  5
5DAF
330
5DAC
100
AcDbEntity
  8
0
100
AcDbVertex
100
AcDb2dVertex
 10
1341.97218695995
 20
489.5689126548882
 30
0.0
  0
VERTEX
  5
5DB0
330
5DAC
100
AcDbEntity
  8
0
100
AcDbVertex
100
AcDb2dVertex
 10
1342.489953912916
 20
489.9422492972899
 30
0.0
  0
VERTEX
  5
5DB1
330
5DAC
100
AcDbEntity
  8
0
100
AcDbVertex
100
AcDb2dVertex
 10
1342.887250469411
 20
490.4287910822792
 30
0.0
  0
VERTEX
  5
5DB2
330
5DAC
100
AcDbEntity
  8
0
100
AcDbVertex
100
AcDb2dVertex
 10
1343.137001525673
 20
490.9953809912573
 30
0.0
  0
VERTEX
  5
5DB3
330
5DAC
100
AcDbEntity
  8
0
100
AcDbVertex
100
AcDb2dVertex
 10
1343.22218695995
 20
491.6034068582615
 30
0.0
  0
VERTEX
  5
5DB4
330
5DAC
100
AcDbEntity
  8
0
100
AcDbVertex
100
AcDb2dVertex
 10
1343.137001525673
 20
492.2114327252656
 30
0.0
  0
VERTEX
  5
5DB5
330
5DAC
100
AcDbEntity
  8
0
100
AcDbVertex
100
AcDb2dVertex
 10
1342.887250469411
 20
492.7780226342439
 30
0.0
  0
VERTEX
  5
5DB6
330
5DAC
100
AcDbEntity
  8
0
100
AcDbVertex
100
AcDb2dVertex
 10
1342.489953912916
 20
493.2645644192332
 30
0.0
  0
VERTEX
  5
5DB7
330
5DAC
100
AcDbEntity
  8
0
100
AcDbVertex
100
AcDb2dVertex
 10
1341.97218695995
 20
493.6379010616349
 30
0.0
  0
VERTEX
  5
5DB8
330
5DAC
100
AcDbEntity
  8
0
100
AcDbVertex
100
AcDb2dVertex
 10
1341.369234572706
 20
493.8725902862374
 30
0.0
  0
VERTEX
  5
5DB9
330
5DAC
100
AcDbEntity
  8
0
100
AcDbVertex
100
AcDb2dVertex
 10
1340.72218695995
 20
493.9526384102263
 30
0.0
  0
VERTEX
  5
5DBA
330
5DAC
100
AcDbEntity
  8
0
100
AcDbVertex
100
AcDb2dVertex
 10
1340.075139347194
 20
493.8725902862374
 30
0.0
  0
VERTEX
  5
5DBB
330
5DAC
100
AcDbEntity
  8
0
100
AcDbVertex
100
AcDb2dVertex
 10
1339.47218695995
 20
493.6379010616349
 30
0.0
  0
VERTEX
  5
5DBC
330
5DAC
100
AcDbEntity
  8
0
100
AcDbVertex
100
AcDb2dVertex
 10
1338.954420006984
 20
493.2645644192332
 30
0.0
  0
VERTEX
  5
5DBD
330
5DAC
100
AcDbEntity
  8
0
100
AcDbVertex
100
AcDb2dVertex
 10
1338.557123450489
 20
492.7780226342439
 30
0.0
  0
VERTEX
  5
5DBE
330
5DAC
100
AcDbEntity
  8
0
100
AcDbVertex
100
AcDb2dVertex
 10
1338.307372394227
 20
492.2114327252656
 30
0.0
  0
VERTEX
  5
5DBF
330
5DAC
100
AcDbEntity
  8
0
100
AcDbVertex
100
AcDb2dVertex
 10
1338.22218695995
 20
491.6034068582615
 30
0.0
  0
VERTEX
  5
5DC0
330
5DAC
100
AcDbEntity
  8
0
100
AcDbVertex
100
AcDb2dVertex
 10
1338.307372394227
 20
490.9953809912573
 30
0.0
  0
VERTEX
  5
5DC1
330
5DAC
100
AcDbEntity
  8
0
100
AcDbVertex
100
AcDb2dVertex
 10
1338.557123450489
 20
490.4287910822792
 30
0.0
  0
VERTEX
  5
5DC2
330
5DAC
100
AcDbEntity
  8
0
100
AcDbVertex
100
AcDb2dVertex
 10
1338.954420006984
 20
489.9422492972899
 30
0.0
  0
VERTEX
  5
5DC3
330
5DAC
100
AcDbEntity
  8
0
100
AcDbVertex
100
AcDb2dVertex
 10
1339.47218695995
 20
489.568912654888
 30
0.0
  0
VERTEX
  5
5DC4
330
5DAC
100
AcDbEntity
  8
0
100
AcDbVertex
100
AcDb2dVertex
 10
1340.075139347194
 20
489.3342234302856
 30
0.0
  0
VERTEX
  5
5DC5
330
5DAC
100
AcDbEntity
  8
0
100
AcDbVertex
100
AcDb2dVertex
 10
1340.72218695995
 20
489.2541753062968
 30
0.0
  0
SEQEND
  5
5DC6
330
5DAC
100
AcDbEntity
  8
0
  0
POLYLINE
  5
5DC7
330
A
100
AcDbEntity
  8
0
  6
Continuous
 62
     7
370
    15
100
AcDb2dPolyline
 66
     1
 10
0.0
 20
0.0
 30
0.0
 70
   128
  0
VERTEX
  5
5DC8
330
5DC7
100
AcDbEntity
  8
0
100
AcDbVertex
100
AcDb2dVertex
 10
1342.588378701284
 20
490.0402010311434
 30
0.0
  0
VERTEX
  5
5DC9
330
5DC7
100
AcDbEntity
  8
0
100
AcDbVertex
100
AcDb2dVertex
 10
1342.489953912916
 20
490.1381527649968
 30
0.0
  0
VERTEX
  5
5DCA
330
5DC7
100
AcDbEntity
  8
0
100
AcDbVertex
100
AcDb2dVertex
 10
1341.97218695995
 20
490.5114894073987
 30
0.0
  0
VERTEX
  5
5DCB
330
5DC7
100
AcDbEntity
  8
0
100
AcDbVertex
100
AcDb2dVertex
 10
1341.369234572706
 20
490.7461786320011
 30
0.0
  0
VERTEX
  5
5DCC
330
5DC7
100
AcDbEntity
  8
0
100
AcDbVertex
100
AcDb2dVertex
 10
1340.72218695995
 20
490.82622675599
 30
0.0
  0
VERTEX
  5
5DCD
330
5DC7
100
AcDbEntity
  8
0
100
AcDbVertex
100
AcDb2dVertex
 10
1340.075139347194
 20
490.7461786320011
 30
0.0
  0
VERTEX
  5
5DCE
330
5DC7
100
AcDbEntity
  8
0
100
AcDbVertex
100
AcDb2dVertex
 10
1339.47218695995
 20
490.5114894073987
 30
0.0
  0
VERTEX
  5
5DCF
330
5DC7
100
AcDbEntity
  8
0
100
AcDbVertex
100
AcDb2dVertex
 10
1338.954420006984
 20
490.1381527649968
 30
0.0
  0
VERTEX
  5
5DD0
330
5DC7
100
AcDbEntity
  8
0
100
AcDbVertex
100
AcDb2dVertex
 10
1338.855995218617
 20
490.0402010311434
 30
0.0
  0
SEQEND
  5
5DD1
330
5DC7
100
AcDbEntity
  8
0
  0
LINE
  5
5DD2
330
A
100
AcDbEntity
  8
0
  6
Continuous
 62
     7
370
    15
100
AcDbLine
 10
1303.22218695995
 20
429.0779210496266
 30
0.0
 11
1303.22218695995
 21
445.0779210496269
 31
0.0
  0
LINE
  5
5DD3
330
A
100
AcDbEntity
  8
0
  6
Continuous
 62
     7
370
    15
100
AcDbLine
 10
1275.22218695995
 20
440.2127497824728
 30
0.0
 11
1275.22218695995
 21
447.8172657495213
 31
0.0
  0
LINE
  5
5DD4
330
A
100
AcDbEntity
  8
0
  6
Continuous
 62
     7
370
    15
100
AcDbLine
 10
1276.954237767519
 20
437.6018332284318
 30
0.0
 11
1276.954237767519
 21
445.077921049627
 31
0.0
  0
LINE
  5
5DD5
330
A
100
AcDbEntity
  8
0
  6
Continuous
 62
     7
370
    15
100
AcDbLine
 10
1280.72218695995
 20
432.9649673938172
 30
0.0
 11
1280.72218695995
 21
440.7337320329149
 31
0.0
  0
LINE
  5
5DD6
330
A
100
AcDbEntity
  8
0
  6
Continuous
 62
     7
370
    15
100
AcDbLine
 10
1288.72218695995
 20
440.7337320329147
 30
0.0
 11
1288.72218695995
 21
432.9649673938172
 31
0.0
  0
LINE
  5
5DD7
330
A
100
AcDbEntity
  8
0
  6
Continuous
 62
     7
370
    15
100
AcDbLine
 10
1274.22218695995
 20
439.1252214316616
 30
0.0
 11
1274.22218695995
 21
442.5893230467993
 31
0.0
  0
LINE
  5
5DD8
330
A
100
AcDbEntity
  8
0
  6
Continuous
 62
     7
370
    15
100
AcDbLine
 10
1272.22218695995
 20
439.1252214316616
 30
0.0
 11
1272.22218695995
 21
442.5893230467993
 31
0.0
  0
LINE
  5
5DD9
330
A
100
AcDbEntity
  8
0
  6
Continuous
 62
     7
370
    15
100
AcDbLine
 10
1303.22218695995
 20
444.9264916208838
 30
0.0
 11
1349.72218695995
 21
444.9264916208835
 31
0.0
  0
LINE
  5
5DDA
330
A
100
AcDbEntity
  8
0
  6
Continuous
 62
     7
370
    15
100
AcDbLine
 10
1303.22218695995
 20
458.6285821391479
 30
0.0
 11
1303.22218695995
 21
462.5927459540828
 31
0.0
  0
LINE
  5
5DDB
330
A
100
AcDbEntity
  8
0
  6
Continuous
 62
     7
370
    15
100
AcDbLine
 10
1275.22218695995
 20
458.6285821391479
 30
0.0
 11
1275.22218695995
 21
462.5927459540829
 31
0.0
  0
LINE
  5
5DDC
330
A
100
AcDbEntity
  8
0
  6
Continuous
 62
     7
370
    15
100
AcDbLine
 10
1303.22218695995
 20
462.5927459540828
 30
0.0
 11
1275.22218695995
 21
462.5927459540829
 31
0.0
  0
LINE
  5
5DDD
330
A
100
AcDbEntity
  8
0
  6
Continuous
 62
     7
370
    15
100
AcDbLine
 10
1275.22218695995
 20
462.5927459540829
 30
0.0
 11
1275.22218695995
 21
475.1764916208838
 31
0.0
  0
LINE
  5
5DDE
330
A
100
AcDbEntity
  8
0
  6
Continuous
 62
     7
370
    15
100
AcDbLine
 10
1284.72218695995
 20
475.1764916208838
 30
0.0
 11
1275.22218695995
 21
475.1764916208838
 31
0.0
  0
LINE
  5
5DDF
330
A
100
AcDbEntity
  8
0
  6
Continuous
 62
     7
370
    15
100
AcDbLine
 10
1272.22218695995
 20
474.9264916208838
 30
0.0
 11
1275.22218695995
 21
474.9264916208838
 31
0.0
  0
POLYLINE
  5
5DE0
330
A
100
AcDbEntity
  8
0
  6
Continuous
 62
     7
370
    15
100
AcDb2dPolyline
 66
     1
 10
0.0
 20
0.0
 30
0.0
 70
   128
  0
VERTEX
  5
5DE1
330
5DE0
100
AcDbEntity
  8
0
100
AcDbVertex
100
AcDb2dVertex
 10
1311.72218695995
 20
470.5988079354706
 30
0.0
  0
VERTEX
  5
5DE2
330
5DE0
100
AcDbEntity
  8
0
100
AcDbVertex
100
AcDb2dVertex
 10
1312.369234572706
 20
470.5187598114816
 30
0.0
  0
VERTEX
  5
5DE3
330
5DE0
100
AcDbEntity
  8
0
100
AcDbVertex
100
AcDb2dVertex
 10
1312.97218695995
 20
470.2840705868792
 30
0.0
  0
VERTEX
  5
5DE4
330
5DE0
100
AcDbEntity
  8
0
100
AcDbVertex
100
AcDb2dVertex
 10
1313.489953912916
 20
469.9107339444774
 30
0.0
  0
VERTEX
  5
5DE5
330
5DE0
100
AcDbEntity
  8
0
100
AcDbVertex
100
AcDb2dVertex
 10
1313.887250469411
 20
469.4241921594882
 30
0.0
  0
VERTEX
  5
5DE6
330
5DE0
100
AcDbEntity
  8
0
100
AcDbVertex
100
AcDb2dVertex
 10
1314.137001525673
 20
468.8576022505101
 30
0.0
  0
VERTEX
  5
5DE7
330
5DE0
100
AcDbEntity
  8
0
100
AcDbVertex
100
AcDb2dVertex
 10
1314.22218695995
 20
468.2495763835058
 30
0.0
  0
VERTEX
  5
5DE8
330
5DE0
100
AcDbEntity
  8
0
100
AcDbVertex
100
AcDb2dVertex
 10
1314.137001525673
 20
467.6415505165016
 30
0.0
  0
VERTEX
  5
5DE9
330
5DE0
100
AcDbEntity
  8
0
100
AcDbVertex
100
AcDb2dVertex
 10
1313.887250469411
 20
467.0749606075234
 30
0.0
  0
VERTEX
  5
5DEA
330
5DE0
100
AcDbEntity
  8
0
100
AcDbVertex
100
AcDb2dVertex
 10
1313.489953912916
 20
466.5884188225341
 30
0.0
  0
VERTEX
  5
5DEB
330
5DE0
100
AcDbEntity
  8
0
100
AcDbVertex
100
AcDb2dVertex
 10
1312.97218695995
 20
466.2150821801324
 30
0.0
  0
VERTEX
  5
5DEC
330
5DE0
100
AcDbEntity
  8
0
100
AcDbVertex
100
AcDb2dVertex
 10
1312.369234572706
 20
465.9803929555298
 30
0.0
  0
VERTEX
  5
5DED
330
5DE0
100
AcDbEntity
  8
0
100
AcDbVertex
100
AcDb2dVertex
 10
1311.72218695995
 20
465.9003448315411
 30
0.0
  0
VERTEX
  5
5DEE
330
5DE0
100
AcDbEntity
  8
0
100
AcDbVertex
100
AcDb2dVertex
 10
1311.075139347194
 20
465.9803929555298
 30
0.0
  0
VERTEX
  5
5DEF
330
5DE0
100
AcDbEntity
  8
0
100
AcDbVertex
100
AcDb2dVertex
 10
1310.47218695995
 20
466.2150821801324
 30
0.0
  0
VERTEX
  5
5DF0
330
5DE0
100
AcDbEntity
  8
0
100
AcDbVertex
100
AcDb2dVertex
 10
1309.954420006983
 20
466.5884188225341
 30
0.0
  0
VERTEX
  5
5DF1
330
5DE0
100
AcDbEntity
  8
0
100
AcDbVertex
100
AcDb2dVertex
 10
1309.557123450489
 20
467.0749606075235
 30
0.0
  0
VERTEX
  5
5DF2
330
5DE0
100
AcDbEntity
  8
0
100
AcDbVertex
100
AcDb2dVertex
 10
1309.307372394227
 20
467.6415505165016
 30
0.0
  0
VERTEX
  5
5DF3
330
5DE0
100
AcDbEntity
  8
0
100
AcDbVertex
100
AcDb2dVertex
 10
1309.22218695995
 20
468.2495763835058
 30
0.0
  0
VERTEX
  5
5DF4
330
5DE0
100
AcDbEntity
  8
0
100
AcDbVertex
100
AcDb2dVertex
 10
1309.307372394227
 20
468.8576022505101
 30
0.0
  0
VERTEX
  5
5DF5
330
5DE0
100
AcDbEntity
  8
0
100
AcDbVertex
100
AcDb2dVertex
 10
1309.557123450489
 20
469.4241921594882
 30
0.0
  0
VERTEX
  5
5DF6
330
5DE0
100
AcDbEntity
  8
0
100
AcDbVertex
100
AcDb2dVertex
 10
1309.954420006984
 20
469.9107339444775
 30
0.0
  0
VERTEX
  5
5DF7
330
5DE0
100
AcDbEntity
  8
0
100
AcDbVertex
100
AcDb2dVertex
 10
1310.47218695995
 20
470.2840705868792
 30
0.0
  0
VERTEX
  5
5DF8
330
5DE0
100
AcDbEntity
  8
0
100
AcDbVertex
100
AcDb2dVertex
 10
1311.075139347194
 20
470.5187598114816
 30
0.0
  0
VERTEX
  5
5DF9
330
5DE0
100
AcDbEntity
  8
0
100
AcDbVertex
100
AcDb2dVertex
 10
1311.72218695995
 20
470.5988079354706
 30
0.0
  0
SEQEND
  5
5DFA
330
5DE0
100
AcDbEntity
  8
0
  0
POLYLINE
  5
5DFB
330
A
100
AcDbEntity
  8
0
  6
Continuous
 62
     7
370
    15
100
AcDb2dPolyline
 66
     1
 10
0.0
 20
0.0
 30
0.0
 70
   128
  0
VERTEX
  5
5DFC
330
5DFB
100
AcDbEntity
  8
0
100
AcDbVertex
100
AcDb2dVertex
 10
1316.72218695995
 20
468.2495763835057
 30
0.0
  0
VERTEX
  5
5DFD
330
5DFB
100
AcDbEntity
  8
0
100
AcDbVertex
100
AcDb2dVertex
 10
1316.700857841425
 20
467.8160569009073
 30
0.0
  0
VERTEX
  5
5DFE
330
5DFB
100
AcDbEntity
  8
0
100
AcDbVertex
100
AcDb2dVertex
 10
1316.531315175814
 20
466.9637809217411
 30
0.0
  0
VERTEX
  5
5DFF
330
5DFB
100
AcDbEntity
  8
0
100
AcDbVertex
100
AcDb2dVertex
 10
1316.198003416725
 20
466.1552911648835
 30
0.0
  0
VERTEX
  5
5E00
330
5DFB
100
AcDbEntity
  8
0
100
AcDbVertex
100
AcDb2dVertex
 10
1315.712273096351
 20
465.4181197793278
 30
0.0
  0
VERTEX
  5
5E01
330
5DFB
100
AcDbEntity
  8
0
100
AcDbVertex
100
AcDb2dVertex
 10
1315.090665178183
 20
464.7773702524696
 30
0.0
  0
VERTEX
  5
5E02
330
5DFB
100
AcDbEntity
  8
0
100
AcDbVertex
100
AcDb2dVertex
 10
1314.354347774337
 20
464.2548625409515
 30
0.0
  0
VERTEX
  5
5E03
330
5DFB
100
AcDbEntity
  8
0
100
AcDbVertex
100
AcDb2dVertex
 10
1313.528395290886
 20
463.8683900182104
 30
0.0
  0
VERTEX
  5
5E04
330
5DFB
100
AcDbEntity
  8
0
100
AcDbVertex
100
AcDb2dVertex
 10
1312.640934549033
 20
463.6311135424858
 30
0.0
  0
VERTEX
  5
5E05
330
5DFB
100
AcDbEntity
  8
0
100
AcDbVertex
100
AcDb2dVertex
 10
1311.72218695995
 20
463.5511132795763
 30
0.0
  0
VERTEX
  5
5E06
330
5DFB
100
AcDbEntity
  8
0
100
AcDbVertex
100
AcDb2dVertex
 10
1310.803439370867
 20
463.6311135424858
 30
0.0
  0
VERTEX
  5
5E07
330
5DFB
100
AcDbEntity
  8
0
100
AcDbVertex
100
AcDb2dVertex
 10
1309.915978629014
 20
463.8683900182106
 30
0.0
  0
VERTEX
  5
5E08
330
5DFB
100
AcDbEntity
  8
0
100
AcDbVertex
100
AcDb2dVertex
 10
1309.090026145563
 20
464.2548625409515
 30
0.0
  0
VERTEX
  5
5E09
330
5DFB
100
AcDbEntity
  8
0
100
AcDbVertex
100
AcDb2dVertex
 10
1308.353708741717
 20
464.7773702524696
 30
0.0
  0
VERTEX
  5
5E0A
330
5DFB
100
AcDbEntity
  8
0
100
AcDbVertex
100
AcDb2dVertex
 10
1307.732100823549
 20
465.4181197793279
 30
0.0
  0
VERTEX
  5
5E0B
330
5DFB
100
AcDbEntity
  8
0
100
AcDbVertex
100
AcDb2dVertex
 10
1307.246370503175
 20
466.1552911648836
 30
0.0
  0
VERTEX
  5
5E0C
330
5DFB
100
AcDbEntity
  8
0
100
AcDbVertex
100
AcDb2dVertex
 10
1306.913058744086
 20
466.9637809217411
 30
0.0
  0
VERTEX
  5
5E0D
330
5DFB
100
AcDbEntity
  8
0
100
AcDbVertex
100
AcDb2dVertex
 10
1306.743516078475
 20
467.8160569009073
 30
0.0
  0
VERTEX
  5
5E0E
330
5DFB
100
AcDbEntity
  8
0
100
AcDbVertex
100
AcDb2dVertex
 10
1306.72218695995
 20
468.2495763835058
 30
0.0
  0
SEQEND
  5
5E0F
330
5DFB
100
AcDbEntity
  8
0
  0
POLYLINE
  5
5E10
330
A
100
AcDbEntity
  8
0
  6
Continuous
 62
     7
370
    15
100
AcDb2dPolyline
 66
     1
 10
0.0
 20
0.0
 30
0.0
 70
   128
  0
VERTEX
  5
5E11
330
5E10
100
AcDbEntity
  8
0
100
AcDbVertex
100
AcDb2dVertex
 10
1311.72218695995
 20
472.7770294157725
 30
0.0
  0
VERTEX
  5
5E12
330
5E10
100
AcDbEntity
  8
0
100
AcDbVertex
100
AcDb2dVertex
 10
1310.076752530345
 20
472.5019651723686
 30
0.0
  0
VERTEX
  5
5E13
330
5E10
100
AcDbEntity
  8
0
100
AcDbVertex
100
AcDb2dVertex
 10
1308.61696261557
 20
471.713598427755
 30
0.0
  0
VERTEX
  5
5E14
330
5E10
100
AcDbEntity
  8
0
100
AcDbVertex
100
AcDb2dVertex
 10
1307.496667677545
 20
470.5025566126657
 30
0.0
  0
VERTEX
  5
5E15
330
5E10
100
AcDbEntity
  8
0
100
AcDbVertex
100
AcDb2dVertex
 10
1306.848760290503
 20
469.0123817214936
 30
0.0
  0
VERTEX
  5
5E16
330
5E10
100
AcDbEntity
  8
0
100
AcDbVertex
100
AcDb2dVertex
 10
1306.753029691522
 20
467.436224561691
 30
0.0
  0
VERTEX
  5
5E17
330
5E10
100
AcDbEntity
  8
0
100
AcDbVertex
100
AcDb2dVertex
 10
1307.209287258541
 20
465.9556553549635
 30
0.0
  0
VERTEX
  5
5E18
330
5E10
100
AcDbEntity
  8
0
100
AcDbVertex
100
AcDb2dVertex
 10
1308.166541313824
 20
464.7130097038748
 30
0.0
  0
VERTEX
  5
5E19
330
5E10
100
AcDbEntity
  8
0
100
AcDbVertex
100
AcDb2dVertex
 10
1309.531653076382
 20
463.8313455347986
 30
0.0
  0
VERTEX
  5
5E1A
330
5E10
100
AcDbEntity
  8
0
100
AcDbVertex
100
AcDb2dVertex
 10
1311.147604631393
 20
463.4096000876336
 30
0.0
  0
VERTEX
  5
5E1B
330
5E10
100
AcDbEntity
  8
0
100
AcDbVertex
100
AcDb2dVertex
 10
1312.815186001681
 20
463.4878413717176
 30
0.0
  0
VERTEX
  5
5E1C
330
5E10
100
AcDbEntity
  8
0
100
AcDbVertex
100
AcDb2dVertex
 10
1314.352782558067
 20
464.0488295758713
 30
0.0
  0
VERTEX
  5
5E1D
330
5E10
100
AcDbEntity
  8
0
100
AcDbVertex
100
AcDb2dVertex
 10
1315.606254602607
 20
465.0455585127574
 30
0.0
  0
VERTEX
  5
5E1E
330
5E10
100
AcDbEntity
  8
0
100
AcDbVertex
100
AcDb2dVertex
 10
1316.431103365624
 20
466.3898831378624
 30
0.0
  0
VERTEX
  5
5E1F
330
5E10
100
AcDbEntity
  8
0
100
AcDbVertex
100
AcDb2dVertex
 10
1316.722117594834
 20
467.9310411524766
 30
0.0
  0
VERTEX
  5
5E20
330
5E10
100
AcDbEntity
  8
0
100
AcDbVertex
100
AcDb2dVertex
 10
1316.453440306889
 20
469.488215083369
 30
0.0
  0
VERTEX
  5
5E21
330
5E10
100
AcDbEntity
  8
0
100
AcDbVertex
100
AcDb2dVertex
 10
1315.662010404609
 20
470.8951247587209
 30
0.0
  0
VERTEX
  5
5E22
330
5E10
100
AcDbEntity
  8
0
100
AcDbVertex
100
AcDb2dVertex
 10
1314.42413342231
 20
471.9959389000146
 30
0.0
  0
VERTEX
  5
5E23
330
5E10
100
AcDbEntity
  8
0
100
AcDbVertex
100
AcDb2dVertex
 10
1312.873502162465
 20
472.6442324774613
 30
0.0
  0
VERTEX
  5
5E24
330
5E10
100
AcDbEntity
  8
0
100
AcDbVertex
100
AcDb2dVertex
 10
1311.72218695995
 20
472.7770294157725
 30
0.0
  0
SEQEND
  5
5E25
330
5E10
100
AcDbEntity
  8
0
  0
POLYLINE
  5
5E26
330
A
100
AcDbEntity
  8
0
  6
Continuous
 62
     7
370
    15
100
AcDb2dPolyline
 66
     1
 10
0.0
 20
0.0
 30
0.0
 70
   128
  0
VERTEX
  5
5E27
330
5E26
100
AcDbEntity
  8
0
100
AcDbVertex
100
AcDb2dVertex
 10
1313.588378701287
 20
469.8127822106285
 30
0.0
  0
VERTEX
  5
5E28
330
5E26
100
AcDbEntity
  8
0
100
AcDbVertex
100
AcDb2dVertex
 10
1313.489953912916
 20
469.7148304767704
 30
0.0
  0
VERTEX
  5
5E29
330
5E26
100
AcDbEntity
  8
0
100
AcDbVertex
100
AcDb2dVertex
 10
1312.97218695995
 20
469.3414938343687
 30
0.0
  0
VERTEX
  5
5E2A
330
5E26
100
AcDbEntity
  8
0
100
AcDbVertex
100
AcDb2dVertex
 10
1312.369234572706
 20
469.1068046097662
 30
0.0
  0
VERTEX
  5
5E2B
330
5E26
100
AcDbEntity
  8
0
100
AcDbVertex
100
AcDb2dVertex
 10
1311.72218695995
 20
469.0267564857775
 30
0.0
  0
VERTEX
  5
5E2C
330
5E26
100
AcDbEntity
  8
0
100
AcDbVertex
100
AcDb2dVertex
 10
1311.075139347194
 20
469.1068046097662
 30
0.0
  0
VERTEX
  5
5E2D
330
5E26
100
AcDbEntity
  8
0
100
AcDbVertex
100
AcDb2dVertex
 10
1310.47218695995
 20
469.3414938343687
 30
0.0
  0
VERTEX
  5
5E2E
330
5E26
100
AcDbEntity
  8
0
100
AcDbVertex
100
AcDb2dVertex
 10
1309.954420006984
 20
469.7148304767705
 30
0.0
  0
VERTEX
  5
5E2F
330
5E26
100
AcDbEntity
  8
0
100
AcDbVertex
100
AcDb2dVertex
 10
1309.855995218611
 20
469.8127822106296
 30
0.0
  0
SEQEND
  5
5E30
330
5E26
100
AcDbEntity
  8
0
  0
LINE
  5
5E31
330
A
100
AcDbEntity
  8
0
  6
Continuous
 62
     7
370
    15
100
AcDbLine
 10
1276.954237767519
 20
445.077921049627
 30
0.0
 11
1303.22218695995
 21
445.0779210496269
 31
0.0
  0
LINE
  5
5E32
330
A
100
AcDbEntity
  8
0
  6
Continuous
 62
     7
370
    15
100
AcDbLine
 10
1303.22218695995
 20
458.6285821391479
 30
0.0
 11
1275.22218695995
 21
458.6285821391479
 31
0.0
  0
LINE
  5
5E33
330
A
100
AcDbEntity
  8
0
  6
Continuous
 62
     7
370
    15
100
AcDbLine
 10
1275.22218695995
 20
447.8172657495213
 30
0.0
 11
1275.22218695995
 21
458.6285821391479
 31
0.0
  0
LINE
  5
5E34
330
A
100
AcDbEntity
  8
0
  6
Continuous
 62
     7
370
    15
100
AcDbLine
 10
1272.22218695995
 20
442.5893230467993
 30
0.0
 11
1272.22218695995
 21
451.2495770846437
 31
0.0
  0
LINE
  5
5E35
330
A
100
AcDbEntity
  8
0
  6
Continuous
 62
     7
370
    15
100
AcDbLine
 10
1272.22218695995
 20
451.2495770846437
 30
0.0
 11
1275.22218695995
 21
451.2495770846437
 31
0.0
  0
LINE
  5
5E36
330
A
100
AcDbEntity
  8
0
  6
Continuous
 62
     7
370
    15
100
AcDbLine
 10
1288.72218695995
 20
440.7337320329147
 30
0.0
 11
1280.72218695995
 21
440.7337320329149
 31
0.0
  0
LINE
  5
5E37
330
A
100
AcDbEntity
  8
0
  6
Continuous
 62
     7
370
    15
100
AcDbLine
 10
1275.22218695995
 20
447.8172657495213
 30
0.0
 11
1276.954237767519
 21
445.077921049627
 31
0.0
  0
LINE
  5
5E38
330
A
100
AcDbEntity
  8
0
  6
Continuous
 62
     7
370
    15
100
AcDbLine
 10
1274.22218695995
 20
442.5893230467993
 30
0.0
 11
1272.22218695995
 21
442.5893230467993
 31
0.0
  0
LINE
  5
5E39
330
A
100
AcDbEntity
  8
0
  6
Continuous
 62
     7
370
    15
100
AcDbLine
 10
1303.22218695995
 20
445.0779210496269
 30
0.0
 11
1303.22218695995
 21
458.6285821391479
 31
0.0
  0
LINE
  5
5E3A
330
A
100
AcDbEntity
  8
0
  6
Continuous
 62
     7
370
    15
100
AcDbLine
 10
1288.72218695995
 20
424.9649673938172
 30
0.0
 11
1298.42218695995
 21
424.9649673938172
 31
0.0
  0
LINE
  5
5E3B
330
A
100
AcDbEntity
  8
0
  6
Continuous
 62
     7
370
    15
100
AcDbLine
 10
1298.42218695995
 20
438.1939531281934
 30
0.0
 11
1288.72218695995
 21
438.1939531281934
 31
0.0
  0
LINE
  5
5E3C
330
A
100
AcDbEntity
  8
0
  6
Continuous
 62
     7
370
    15
100
AcDbLine
 10
1298.42218695995
 20
430.9649673938172
 30
0.0
 11
1288.72218695995
 21
430.9649673938172
 31
0.0
  0
LINE
  5
5E3D
330
A
100
AcDbEntity
  8
0
  6
Continuous
 62
     7
370
    15
100
AcDbLine
 10
1280.72218695995
 20
430.4649673938172
 30
0.0
 11
1280.72218695995
 21
432.9649673938172
 31
0.0
  0
LINE
  5
5E3E
330
A
100
AcDbEntity
  8
0
  6
Continuous
 62
     7
370
    15
100
AcDbLine
 10
1288.72218695995
 20
430.9649673938172
 30
0.0
 11
1288.72218695995
 21
432.9649673938172
 31
0.0
  0
LINE
  5
5E3F
330
A
100
AcDbEntity
  8
0
  6
Continuous
 62
     7
370
    15
100
AcDbLine
 10
1272.22218695995
 20
430.4649673938172
 30
0.0
 11
1272.22218695995
 21
439.1252214316616
 31
0.0
  0
LINE
  5
5E40
330
A
100
AcDbEntity
  8
0
  6
Continuous
 62
     7
370
    15
100
AcDbLine
 10
1288.72218695995
 20
432.9649673938172
 30
0.0
 11
1280.72218695995
 21
432.9649673938172
 31
0.0
  0
LINE
  5
5E41
330
A
100
AcDbEntity
  8
0
  6
Continuous
 62
     7
370
    15
100
AcDbLine
 10
1276.954237767519
 20
437.6018332284318
 30
0.0
 11
1280.72218695995
 21
437.6018332284318
 31
0.0
  0
LINE
  5
5E42
330
A
100
AcDbEntity
  8
0
  6
Continuous
 62
     7
370
    15
100
AcDbLine
 10
1275.22218695995
 20
440.2127497824728
 30
0.0
 11
1276.954237767519
 21
437.6018332284318
 31
0.0
  0
LINE
  5
5E43
330
A
100
AcDbEntity
  8
0
  6
Continuous
 62
     7
370
    15
100
AcDbLine
 10
1272.22218695995
 20
439.1252214316616
 30
0.0
 11
1274.22218695995
 21
439.1252214316616
 31
0.0
  0
LINE
  5
5E44
330
A
100
AcDbEntity
  8
0
  6
Continuous
 62
     7
370
    15
100
AcDbLine
 10
1288.72218695995
 20
422.9649673938172
 30
0.0
 11
1280.72218695995
 21
422.9649673938172
 31
0.0
  0
LINE
  5
5E45
330
A
100
AcDbEntity
  8
0
  6
Continuous
 62
     7
370
    15
100
AcDbLine
 10
1272.22218695995
 20
425.4649673938173
 30
0.0
 11
1272.22218695995
 21
430.4649673938172
 31
0.0
  0
LINE
  5
5E46
330
A
100
AcDbEntity
  8
0
  6
Continuous
 62
     7
370
    15
100
AcDbLine
 10
1280.72218695995
 20
430.4649673938172
 30
0.0
 11
1272.22218695995
 21
430.4649673938172
 31
0.0
  0
LINE
  5
5E47
330
A
100
AcDbEntity
  8
0
  6
Continuous
 62
     7
370
    15
100
AcDbLine
 10
1280.72218695995
 20
422.9649673938172
 30
0.0
 11
1280.72218695995
 21
425.4649673938172
 31
0.0
  0
LINE
  5
5E48
330
A
100
AcDbEntity
  8
0
  6
Continuous
 62
     7
370
    15
100
AcDbLine
 10
1280.72218695995
 20
425.4649673938172
 30
0.0
 11
1272.22218695995
 21
425.4649673938173
 31
0.0
  0
LINE
  5
5E49
330
A
100
AcDbEntity
  8
0
  6
Continuous
 62
     7
370
    15
100
AcDbLine
 10
1288.72218695995
 20
422.9649673938172
 30
0.0
 11
1288.72218695995
 21
424.9649673938172
 31
0.0
  0
LINE
  5
5E4A
330
A
100
AcDbEntity
  8
0
  6
Continuous
 62
     7
370
    15
100
AcDbLine
 10
1298.42218695995
 20
438.1939531281934
 30
0.0
 11
1298.42218695995
 21
430.9649673938172
 31
0.0
  0
LINE
  5
5E4B
330
A
100
AcDbEntity
  8
0
  6
Continuous
 62
     7
370
    15
100
AcDbLine
 10
1298.42218695995
 20
424.9649673938172
 30
0.0
 11
1298.42218695995
 21
430.9649673938172
 31
0.0
  0
LINE
  5
5E4C
330
A
100
AcDbEntity
  8
0
  6
Continuous
 62
     7
370
    15
100
AcDbLine
 10
1303.22218695995
 20
429.0779210496266
 30
0.0
 11
1298.42218695995
 21
429.0779210496266
 31
0.0
  0
LINE
  5
5E4D
330
A
100
AcDbEntity
  8
CENTER
370
     0
100
AcDbLine
 10
1355.743287446669
 20
479.9264916208836
 30
0.0
 11
1259.598694375845
 21
479.9264916208836
 31
0.0
  0
LINE
  5
5E4E
330
A
100
AcDbEntity
  8
0
370
     0
100
AcDbLine
 10
1298.422186959949
 20
356.7145059770123
 30
0.0
 11
1288.72218695995
 21
356.7145059770123
 31
0.0
  0
DIMENSION
  5
5E60
330
A
100
AcDbEntity
  8
AM_5
100
AcDbDimension
  2
*D35
 10
1367.743288446669
 20
444.9264916208835
 30
0.0
 11
1364.993288446669
 21
479.9264916208838
 31
0.0
 70
    32
  1
%%c<>
 71
     5
 42
70.00000000000017
  3
AM_ISO$0
100
AcDbAlignedDimension
 13
1349.72218695995
 23
514.9264916208836
 33
0.0
 14
1349.72218695995
 24
444.9264916208835
 34
0.0
 50
89.99999999999982
100
AcDbRotatedDimension
1001
ACAD
1000
DSTYLE
1002
{
1070
   272
1070
     8
1002
}
  0
DIMENSION
  5
5E91
330
A
100
AcDbEntity
  8
AM_5
100
AcDbDimension
  2
*D36
 10
1340.72218695995
 20
526.9264926208836
 30
0.0
 11
1345.22218695995
 21
529.6764926208836
 31
0.0
 70
    32
 71
     5
 42
9.0
  3
AM_ISO$0
100
AcDbAlignedDimension
 13
1349.72218695995
 23
514.9264916208836
 33
0.0
 14
1340.72218695995
 24
496.3018699621911
 34
0.0
 50
359.9999999999998
100
AcDbRotatedDimension
1001
ACAD
1000
DSTYLE
1002
{
1070
   174
1070
     1
1070
   272
1070
     8
1002
}
  0
DIMENSION
  5
5EBD
330
A
100
AcDbEntity
  8
AM_5
100
AcDbDimension
  2
*D37
 10
1311.72218695995
 20
526.9264926208839
 30
0.0
 11
1326.22218695995
 21
529.6768371090728
 31
0.0
 70
    32
 71
     5
 42
29.0
  3
AM_ISO$0
100
AcDbAlignedDimension
 13
1340.72218695995
 23
496.3018699621912
 33
0.0
 14
1311.72218695995
 24
472.7770294157726
 34
0.0
100
AcDbRotatedDimension
1001
ACAD
1000
DSTYLE
1002
{
1070
   174
1070
     1
1070
   272
1070
     8
1002
}
  0
DIMENSION
  5
5EE9
330
A
100
AcDbEntity
  8
AM_5
100
AcDbDimension
  2
*D38
 10
1272.22218695995
 20
543.3642764615837
 30
0.0
 11
1264.372644637115
 21
546.1146209497726
 31
0.0
 70
    32
 71
     5
 42
2.0
  3
AM_ISO$0
100
AcDbAlignedDimension
 13
1274.22218695995
 23
520.7277618101056
 33
0.0
 14
1272.22218695995
 24
534.3880158479501
 34
0.0
100
AcDbRotatedDimension
1001
ACAD
1000
DSTYLE
1002
{
1070
   272
1070
     8
1002
}
  0
DIMENSION
  5
5F15
330
A
100
AcDbEntity
  8
AM_5
100
AcDbDimension
  2
*D39
 10
1272.22218695995
 20
549.864276461583
 30
0.0
 11
1264.449699586535
 21
552.614276461583
 31
0.0
 70
    32
 71
     5
 42
3.0
  3
AM_ISO$0
100
AcDbAlignedDimension
 13
1275.22218695995
 23
519.6402334592945
 33
0.0
 14
1272.22218695995
 24
534.3880158479501
 34
0.0
100
AcDbRotatedDimension
1001
ACAD
1000
DSTYLE
1002
{
1070
   272
1070
     8
1002
}
  0
DIMENSION
  5
5F41
330
A
100
AcDbEntity
  8
AM_5
100
AcDbDimension
  2
*D40
 10
1272.22218695995
 20
383.0843152594294
 30
0.0
 11
1310.97218695995
 21
386.0093152594295
 31
0.0
 70
    32
  1
(<>)
 71
     5
 42
77.50000000000046
  3
AM_ISO$0
100
AcDbAlignedDimension
 13
1349.72218695995
 23
371.0843152594295
 33
0.0
 14
1272.22218695995
 24
370.4144422783512
 34
0.0
100
AcDbRotatedDimension
1001
ACAD
1000
DSTYLE
1002
{
1070
   272
1070
     8
1002
}
  0
DIMENSION
  5
5F72
330
A
100
AcDbEntity
  8
AM_5
100
AcDbDimension
  2
*D41
 10
1303.22218695995
 20
264.0843152594294
 30
0.0
 11
1326.47218695995
 21
266.8343152594295
 31
0.0
 70
    32
 71
     5
 42
46.5
  3
AM_ISO$0
100
AcDbAlignedDimension
 13
1349.72218695995
 23
301.0843152594294
 33
0.0
 14
1303.22218695995
 24
284.0843152594294
 34
0.0
 50
0.0000000000001132
100
AcDbRotatedDimension
1001
ACAD
1000
DSTYLE
1002
{
1070
   272
1070
     8
1002
}
  0
DIMENSION
  5
5F91
330
A
100
AcDbEntity
  8
AM_5
100
AcDbDimension
  2
*D42
 10
1298.42218695995
 20
257.5843152594295
 30
0.0
 11
1324.07218695995
 21
260.3343152594295
 31
0.0
 70
    32
 71
     5
 42
51.30000000000018
  3
AM_ISO$0
100
AcDbAlignedDimension
 13
1349.72218695995
 23
301.0843152594294
 33
0.0
 14
1298.42218695995
 24
276.0843152594294
 34
0.0
100
AcDbRotatedDimension
1001
ACAD
1000
DSTYLE
1002
{
1070
   174
1070
     1
1070
   272
1070
     8
1002
}
  0
DIMENSION
  5
6005
330
A
100
AcDbEntity
  8
AM_5
100
AcDbDimension
  2
*D43
 10
1280.72218695995
 20
264.0843152594293
 30
0.0
 11
1284.72218695995
 21
266.8343152594293
 31
0.0
 70
    32
 71
     5
 42
8.0
  3
AM_ISO$0
100
AcDbAlignedDimension
 13
1288.72218695995
 23
276.0843152594294
 33
0.0
 14
1280.72218695995
 24
276.0843152594293
 34
0.0
 50
0.0000000000001132
100
AcDbRotatedDimension
1001
ACAD
1000
DSTYLE
1002
{
1070
   272
1070
     8
1002
}
  0
DIMENSION
  5
603E
330
A
100
AcDbEntity
  8
AM_5
100
AcDbDimension
  2
*D44
 10
1298.42218695995
 20
257.5843152594295
 30
0.0
 11
1289.57218695995
 21
260.3343152594295
 31
0.0
 70
    32
 71
     5
 42
17.70000000000027
  3
AM_ISO$0
100
AcDbAlignedDimension
 13
1280.72218695995
 23
276.0843152594293
 33
0.0
 14
1298.42218695995
 24
276.0843152594294
 34
0.0
100
AcDbRotatedDimension
1001
ACAD
1000
DSTYLE
1002
{
1070
   174
1070
     1
1070
   272
1070
     8
1002
}
  0
DIMENSION
  5
606C
330
A
100
AcDbEntity
  8
AM_5
100
AcDbDimension
  2
*D45
 10
1260.22218695995
 20
290.0843152594293
 30
0.0
 11
1257.47218695995
 21
295.0843152594296
 31
0.0
 70
    32
 71
     5
 42
10.00000000000011
  3
AM_ISO$0
100
AcDbAlignedDimension
 13
1272.22218695995
 23
300.0843152594294
 33
0.0
 14
1272.22218695995
 24
290.0843152594293
 34
0.0
 50
90.00000000000003
100
AcDbRotatedDimension
1001
ACAD
1000
DSTYLE
1002
{
1070
   174
1070
     1
1070
   272
1070
     8
1002
}
  0
DIMENSION
  5
6094
330
A
100
AcDbEntity
  8
AM_5
100
AcDbDimension
  2
*D46
 10
1260.22218695995
 20
286.0843152594294
 30
0.0
 11
1257.47218695995
 21
288.0843152594295
 31
0.0
 70
    32
 71
     5
 42
3.999999999999886
  3
AM_ISO$0
100
AcDbAlignedDimension
 13
1272.22218695995
 23
290.0843152594293
 33
0.0
 14
1272.22218695995
 24
286.0843152594294
 34
0.0
 50
90.0
100
AcDbRotatedDimension
1001
ACAD
1000
DSTYLE
1002
{
1070
   174
1070
     1
1070
   272
1070
     8
1002
}
  0
DIMENSION
  5
60C4
330
A
100
AcDbEntity
  8
AM_5
100
AcDbDimension
  2
*D47
 10
1253.722186959949
 20
276.0843152594294
 30
0.0
 11
1250.972186959949
 21
306.0843152594296
 31
0.0
 70
    32
 71
     5
 42
60.00000000000006
  3
AM_ISO$0
100
AcDbAlignedDimension
 13
1267.825693900883
 23
336.0843152594295
 33
0.0
 14
1272.22218695995
 24
276.0843152594294
 34
0.0
 50
90.00000000000003
100
AcDbRotatedDimension
1001
ACAD
1000
DSTYLE
1002
{
1070
   272
1070
     8
1002
}
  0
DIMENSION
  5
61C5
330
A
100
AcDbEntity
  8
AM_5
100
AcDbDimension
  2
*D48
 10
1449.221641390997
 20
363.3039628734788
 30
0.0
 11
1418.563118601199
 21
382.043403227087
 31
0.0
 70
   163
  1
<>*4depth
 71
     5
 42
4.000000000000227
  3
AM_ISO$3
100
AcDbDiametricDimension
 15
1446.406081198201
 25
366.1451986610797
 35
0.0
 40
0.0
1001
ACAD
1000
DSTYLE
1002
{
1070
   272
1070
     8
1002
}
  0
DIMENSION
  5
620E
330
A
100
AcDbEntity
  8
AM_5
100
AcDbDimension
  2
*D50
 10
1439.603909112467
 20
352.6091180518789
 30
0.0
 11
1509.146033798857
 21
306.0318562748477
 31
0.0
 70
   163
  1
<>*2depth
 71
     5
 42
52.00000000000023
  3
AM_ISO$3
100
AcDbDiametricDimension
 15
1479.750186283367
 25
319.55951246698
 35
0.0
 40
0.0
1001
ACAD
1000
DSTYLE
1002
{
1070
   172
1070
     1
1070
   272
1070
     8
1002
}
  0
DIMENSION
  5
6267
330
A
100
AcDbEntity
  8
AM_5
100
AcDbDimension
  2
*D51
 10
1418.679555790468
 20
282.3012632781375
 30
0.0
 11
1420.072174207778
 21
286.1252813146752
 31
0.0
 70
    33
 71
     5
 42
5.999999999999943
  3
AM_ISO$0
100
AcDbAlignedDimension
 13
1470.392183804139
 23
310.2156883491133
 33
0.0
 14
1472.68828439833
 24
304.6724111540458
 34
0.0
1001
ACAD
1000
DSTYLE
1002
{
1070
   174
1070
     1
1070
   272
1070
     8
1002
}
  0
DIMENSION
  5
6299
330
A
100
AcDbEntity
  8
AM_5
100
AcDbDimension
  2
*D52
 10
1416.383455196278
 20
287.8445404732032
 30
0.0
 11
1413.566874123159
 21
301.8313651972877
 31
0.0
 70
    32
 71
     5
 42
28.0
  3
AM_ISO$0
100
AcDbAlignedDimension
 13
1459.677047697917
 23
336.0843152594295
 33
0.0
 14
1470.392183804139
 24
310.2156883491133
 34
0.0
 50
112.5000000000057
100
AcDbRotatedDimension
1001
ACAD
1000
DSTYLE
1002
{
1070
   174
1070
     1
1070
   272
1070
     8
1002
}
  0
DIMENSION
  5
62B6
330
A
100
AcDbEntity
  8
AM_5
100
AcDbDimension
  2
*D53
 10
1486.523835215234
 20
351.584315259429
 30
0.0
 11
1523.413978439662
 21
378.2644726000385
 31
0.0
 70
   164
  1
3-M5*0.8*10depth
 71
     5
 42
2.500000000000227
  3
AM_ISO$4
100
AcDbRadialDimension
 15
1487.901910658019
 25
353.6701983036089
 35
0.0
 40
0.0
1001
ACAD
1000
DSTYLE
1002
{
1070
   272
1070
     8
1002
}
  0
DIMENSION
  5
62F5
330
A
100
AcDbEntity
  8
AM_5
100
AcDbDimension
  2
*D54
 10
1405.668319090052
 20
313.7131673835178
 30
0.0
 11
1402.277394602798
 21
329.0856795764463
 31
0.0
 70
    32
 71
     5
 42
30.99999999999983
  3
AM_ISO$0
100
AcDbAlignedDimension
 13
1447.813861294599
 23
364.7245807672792
 33
0.0
 14
1459.677047697917
 24
336.0843152594295
 34
0.0
 50
112.5000000000057
100
AcDbRotatedDimension
1001
ACAD
1000
DSTYLE
1002
{
1070
   174
1070
     1
1070
   272
1070
     8
1002
}
  0
DIMENSION
  5
6321
330
A
100
AcDbEntity
  8
AM_5
100
AcDbDimension
  2
*D55
 10
1485.642651268166
 20
268.1715511054313
 30
0.0
 11
1470.386234557774
 21
261.852136390771
 31
0.0
 70
   161
  1
<>*4depth
 71
     5
 42
3.999999999999545
  3
AM_ISO$0
100
AcDbAlignedDimension
 13
1473.770676598622
 23
307.2855370837984
 33
0.0
 14
1470.075158468578
 24
305.7548033543382
 34
0.0
1001
ACAD
1000
DSTYLE
1002
{
1070
   272
1070
     8
1002
}
  0
DIMENSION
  5
637C
330
A
100
AcDbEntity
  8
AM_5
100
AcDbDimension
  2
*D56
 10
1206.641664340293
 20
324.060312505792
 30
0.0
 11
1211.328842166784
 21
329.9418823661991
 31
0.0
 70
    33
 71
     5
 42
14.0
  3
AM_ISO$0
100
AcDbAlignedDimension
 13
1199.988278248339
 23
363.5843152594294
 33
0.0
 14
1187.863922595357
 24
356.5843152594295
 34
0.0
1001
ACAD
1000
DSTYLE
1002
{
1070
   174
1070
     1
1070
   272
1070
     8
1002
}
  0
DIMENSION
  5
63DB
330
A
100
AcDbEntity
  8
AM_5
100
AcDbDimension
  2
*D58
 10
1206.641664340292
 20
324.0603125057914
 30
0.0
 11
1203.101600830831
 21
325.1918823661989
 31
0.0
 70
    32
 71
     5
 42
5.0
  3
AM_ISO$0
100
AcDbAlignedDimension
 13
1186.033795576435
 23
349.754188240507
 33
0.0
 14
1187.863922595357
 24
356.5843152594295
 34
0.0
 50
29.99999999999729
100
AcDbRotatedDimension
1001
ACAD
1000
DSTYLE
1002
{
1070
   174
1070
     1
1070
   272
1070
     8
1002
}
  0
DIMENSION
  5
63FC
330
A
100
AcDbEntity
  8
AM_5
100
AcDbDimension
  2
*D59
 10
1153.707802640913
 20
364.6890050856284
 30
0.0
 11
1123.73682573144
 21
390.7895078533876
 31
0.0
 70
   163
  1
3-<>\P%%c9.5*9.5depth
 71
     5
 42
5.500000000000568
  3
AM_ISO$3
100
AcDbDiametricDimension
 15
1151.005959439475
 25
369.4796254332293
 35
0.0
 40
0.0
1001
ACAD
1000
DSTYLE
1002
{
1070
   272
1070
     8
1002
}
  0
DIMENSION
  5
644C
330
A
100
AcDbEntity
  8
AM_5
100
AcDbDimension
  2
*D60
 10
1092.503051967715
 20
376.414442278352
 30
0.0
 11
1087.621482107308
 21
373.4593152594298
 31
0.0
 70
    33
 71
     5
 42
10.0
  3
AM_ISO$0
100
AcDbAlignedDimension
 13
1097.895356813128
 23
361.7541882405075
 33
0.0
 14
1102.895356813129
 24
370.4144422783518
 34
0.0
1001
ACAD
1000
DSTYLE
1002
{
1070
   272
1070
     8
1002
}
  0
DIMENSION
  5
6474
330
A
100
AcDbEntity
  8
AM_5
100
AcDbDimension
  2
*D61
 10
1162.356881040195
 20
264.0843152594293
 30
0.0
 11
1152.356881040195
 21
266.8346597476183
 31
0.0
 70
    32
 71
     5
 42
20.0
  3
AM_ISO$0
100
AcDbAlignedDimension
 13
1142.356881040194
 23
276.0843152594294
 33
0.0
 14
1162.356881040195
 24
276.0843152594294
 34
0.0
 50
0.0000000000001132
100
AcDbRotatedDimension
1001
ACAD
1000
DSTYLE
1002
{
1070
   272
1070
     8
1002
}
  0
DIMENSION
  5
6498
330
A
100
AcDbEntity
  8
AM_5
100
AcDbDimension
  2
*D62
 10
1168.356881040198
 20
257.5843152594285
 30
0.0
 11
1152.356881040196
 21
260.3346597476175
 31
0.0
 70
    32
 71
     5
 42
32.00000000000341
  3
AM_ISO$0
100
AcDbAlignedDimension
 13
1136.356881040195
 23
286.6070477520174
 33
0.0
 14
1168.356881040198
 24
286.6070477520186
 34
0.0
 50
0.0000000000001132
100
AcDbRotatedDimension
1001
ACAD
1000
DSTYLE
1002
{
1070
   272
1070
     8
1002
}
  0
ARC
  5
64B1
330
A
100
AcDbEntity
  8
0
100
AcDbCircle
 10
1152.356881040195
 20
336.0843152594295
 30
0.0
 40
52.00000000000002
100
AcDbArc
 50
252.0797868606077
 51
264.4822656262215
  0
DIMENSION
  5
64C7
330
A
100
AcDbEntity
  8
AM_5
100
AcDbDimension
  2
*D64
 10
1184.072490255309
 20
351.5830291452387
 30
0.0
 11
1107.222279089304
 21
317.1246964513937
 31
0.0
 70
   163
 71
     5
 42
70.60000000000013
  3
AM_ISO$3
100
AcDbDiametricDimension
 15
1120.641271825081
 25
320.5856013736202
 35
0.0
 40
0.0
1001
ACAD
1000
DSTYLE
1002
{
1070
   172
1070
     1
1070
   272
1070
     8
1002
}
  0
DIMENSION
  5
6500
330
A
100
AcDbEntity
  8
AM_5
100
AcDbDimension
  2
*D66
 10
1190.131124782672
 20
371.8209422642814
 30
0.0
 11
1104.674070712047
 21
296.2242312924792
 31
0.0
 70
   163
 71
     5
 42
104.0
  3
AM_ISO$3
100
AcDbDiametricDimension
 15
1114.582637297717
 25
300.3476882545774
 35
0.0
 40
0.0
1001
ACAD
1000
DSTYLE
1002
{
1070
   172
1070
     1
1070
   272
1070
     8
1002
}
  0
ENDSEC
  0
SECTION
  2
OBJECTS
  0
DICTIONARY
  5
19
330
0
100
AcDbDictionary
281
     1
  3
ACAD_COLOR
350
ECA
  3
ACAD_GROUP
350
1A
  3
ACAD_LAYOUT
350
1E
  3
ACAD_MATERIAL
350
EC9
  3
ACAD_MLINESTYLE
350
1B
  3
ACAD_PLOTSETTINGS
350
22
  3
ACAD_PLOTSTYLENAME
350
1F
  3
ACAD_TABLESTYLE
350
ECB
  3
ACAD_WIPEOUT_VARS
350
23
  3
AcadDim
350
28D5
  3
ACDBHEADERROUNDTRIPXREC
350
6567
  3
AcDbVariableDictionary
350
1257
  3
AcmDictionary
350
F90
  3
AMG
350
ED2
  3
AMGSNAPSETTINGS
350
FD1
  3
DWGPROPS
350
6566
  3
MAPISURF_MODULE
350
F5E
  0
DICTIONARY
  5
1002
330
2
100
AcDbDictionary
280
     1
281
     1
  3
ACAD_LAYERFILTERS
360
1004
  3
ACAD_LAYERSTATES
360
1B79
  3
ACLYDICTIONARY
360
1003
  3
AMLAYER_GROUPCOLORS
360
16D2
  0
DICTIONARY
  5
9C9
330
A
100
AcDbDictionary
280
     1
281
     1
  3
ACAD_INDEX
360
124F
  3
ACAD_LAYOUTSELFREF
360
A64
  3
ACAD_SORTENTS
360
1711
  0
DICTIONARY
  5
9CB
330
B
100
AcDbDictionary
280
     1
281
     1
  3
ACAD_LAYOUTSELFREF
360
A65
  0
DICTIONARY
  5
ECA
102
{ACAD_REACTORS
330
19
102
}
330
19
100
AcDbDictionary
281
     1
  0
DICTIONARY
  5
1A
102
{ACAD_REACTORS
330
19
102
}
330
19
100
AcDbDictionary
281
     1
  0
DICTIONARY
  5
1E
102
{ACAD_REACTORS
330
19
102
}
330
19
100
AcDbDictionary
281
     1
  3
Model
350
A68
  3
配置1
350
A69
  0
DICTIONARY
  5
EC9
102
{ACAD_REACTORS
330
19
102
}
330
19
100
AcDbDictionary
281
     1
  0
DICTIONARY
  5
1B
102
{ACAD_REACTORS
330
19
102
}
330
19
100
AcDbDictionary
281
     1
  3
STANDARD
350
1C
  0
DICTIONARY
  5
22
102
{ACAD_REACTORS
330
19
102
}
330
19
100
AcDbDictionary
281
     1
  0
ACDBDICTIONARYWDFLT
  5
1F
102
{ACAD_REACTORS
330
19
102
}
330
19
100
AcDbDictionary
281
     1
  3
Normal
350
1D
100
AcDbDictionaryWithDefault
340
1D
  0
DICTIONARY
  5
ECB
102
{ACAD_REACTORS
330
19
102
}
330
19
100
AcDbDictionary
281
     1
  3
Standard
350
ECC
  0
WIPEOUTVARIABLES
  5
23
330
19
100
AcDbWipeoutVariables
 70
     1
  0
XRECORD
  5
28D5
102
{ACAD_REACTORS
330
19
102
}
330
19
100
AcDbXrecord
280
     1
 90
   990106
  3

 60
     0
 61
     0
 62
     4
 63
     4
 64
     1
 65
     0
 66
     0
 67
     3
 68
     0
 69
     0
 70
     0
 71
     0
 72
     0
 40
0.0
170
     2
340
3FEC
  0
DICTIONARY
  5
6567
102
{ACAD_REACTORS
330
19
102
}
330
19
100
AcDbDictionary
281
     1
  0
DICTIONARY
  5
1257
102
{ACAD_REACTORS
330
19
102
}
330
19
100
AcDbDictionary
281
     1
  3
CTABLESTYLE
350
1258
  3
DIMASSOC
350
6563
  3
INDEXCTL
350
6562
  3
PROJECTNAME
350
6564
  0
DICTIONARY
  5
F90
102
{ACAD_REACTORS
330
19
102
}
330
19
100
AcDbDictionary
281
     1
  3
AcmStdDictionary
350
F9E
  3
AMDTSECTSYM_ARROWCOLOR
350
FBC
  0
DICTIONARY
  5
ED2
102
{ACAD_REACTORS
330
19
102
}
330
19
100
AcDbDictionary
281
     1
  3
AcMgSettings
350
ED3
  0
DICTIONARY
  5
FD1
102
{ACAD_REACTORS
330
19
102
}
330
19
100
AcDbDictionary
281
     1
  3
DIMENSION
350
FD6
  3
FEA
350
FD5
  3
HATCH (1)
350
FD2
  3
HATCH (2)
350
FD3
  3
SIMPLE WELD
350
FD7
  3
SYMBOLS
350
FD4
  0
XRECORD
  5
6566
102
{ACAD_REACTORS
330
19
102
}
330
19
100
AcDbXrecord
280
     1
  1
DWGPROPS COOKIE
  2

  3

  4

  6

  7

  8

  9

300
AmdtFileType=84
301
=
302
=
303
=
304
=
305
=
306
=
307
=
308
=
309
=
 40
0.2993518634259259
 41
2452359.824870255
 42
2455323.63493963
  1

 90
        1
  0
DICTIONARY
  5
1004
102
{ACAD_REACTORS
330
1002
102
}
330
1002
100
AcDbDictionary
281
     1
  0
DICTIONARY
  5
1B79
102
{ACAD_REACTORS
330
1002
102
}
330
1002
100
AcDbDictionary
281
     1
  0
DICTIONARY
  5
1003
102
{ACAD_REACTORS
330
1002
102
}
330
1002
100
AcDbDictionary
281
     1
1001
ACAD
1000
<All
  0
DICTIONARY
  5
16D2
102
{ACAD_REACTORS
330
1002
102
}
330
1002
100
AcDbDictionary
280
     1
281
     1
  0
DICTIONARY
  5
124F
102
{ACAD_REACTORS
330
9C9
102
}
330
9C9
100
AcDbDictionary
281
     1
  3
*A1
350
1250
  0
XRECORD
  5
A64
102
{ACAD_REACTORS
330
9C9
102
}
330
9C9
100
AcDbXrecord
280
     1
340
A
  0
SORTENTSTABLE
  5
1711
102
{ACAD_REACTORS
330
9C9
102
}
330
9C9
100
AcDbSortentsTable
330
A
331
1C2D
  5
1C2E
331
1C4C
  5
1C4D
331
5E40
  5
5E41
331
5D77
  5
5D78
331
5D58
  5
5D59
331
5D41
  5
5D42
331
5D22
  5
5D23
331
5D03
  5
5D04
331
5CE4
  5
5CE5
331
1C54
  5
1C55
331
1C73
  5
1C74
331
1C92
  5
1C93
331
1C2E
  5
1C2F
331
1C4D
  5
1C4E
331
5E60
  5
5E91
331
5E41
  5
5E42
331
5D97
  5
5DAC
331
5D78
  5
5D79
331
5D59
  5
5D5A
331
5D42
  5
5D43
331
5D23
  5
5D24
331
5D04
  5
5D05
331
5CE5
  5
5CE6
331
60C4
  5
61C5
331
1C93
  5
1C94
331
1C55
  5
1C56
331
1C74
  5
1C75
331
1C2F
  5
1C30
331
1C4E
  5
1C4F
331
5E42
  5
5E43
331
5D79
  5
5D7A
331
5D5A
  5
5D5B
331
5D43
  5
5D44
331
5D24
  5
5D25
331
5D05
  5
5D06
331
5CE6
  5
5CE7
331
4412
  5
4412
331
1C56
  5
1C57
331
1C75
  5
1C76
331
1C94
  5
1C95
331
333B
  5
333B
331
1C11
  5
1C12
331
1C30
  5
1C31
331
1C4F
  5
1C50
331
63DB
  5
63FC
331
5E43
  5
5E44
331
5D7A
  5
5D7B
331
5D5B
  5
5D5C
331
5D44
  5
5D45
331
5D25
  5
5D26
331
5D06
  5
5D07
331
5CE7
  5
5CE8
331
1C57
  5
1C58
331
1C76
  5
1C77
331
1C95
  5
1C96
331
333C
  5
333C
331
1C12
  5
1C13
331
1C31
  5
1C32
331
5E44
  5
5E45
331
5D7B
  5
5D7C
331
5D5C
  5
5D5D
331
5D45
  5
5D46
331
5D26
  5
5D27
331
5D07
  5
5D08
331
5CE8
  5
5CE9
331
1C58
  5
1C59
331
1C77
  5
1C78
331
1C96
  5
1C97
331
1C13
  5
1C14
331
1C32
  5
1C33
331
63FC
  5
644C
331
62F5
  5
6321
331
5E45
  5
5E46
331
5D7C
  5
5D7D
331
5D5D
  5
5D5E
331
5D46
  5
5D47
331
5D27
  5
5D28
331
5D08
  5
5D09
331
5CE9
  5
5CEA
331
1C59
  5
1C5A
331
1C78
  5
1C7C
331
1C97
  5
1C98
331
1C14
  5
1C15
331
1C33
  5
1C34
331
5E46
  5
5E47
331
5E10
  5
5E26
331
5DD2
  5
5DD3
331
5D7D
  5
5D7E
331
5D5E
  5
5D5F
331
5D47
  5
5D48
331
5D28
  5
5D29
331
5D09
  5
5D0A
331
5CEA
  5
5CEB
331
1C5A
  5
1C5B
331
1C98
  5
1C99
331
1C15
  5
1C16
331
1C34
  5
1C35
331
5E47
  5
5E48
331
5DD3
  5
5DD4
331
5D7E
  5
5D7F
331
5D5F
  5
5D60
331
5D29
  5
5D2A
331
5D0A
  5
5D0B
331
5CEB
  5
5CEC
331
1C5B
  5
1C5C
331
1C99
  5
1C9A
331
1C35
  5
1C36
331
1C16
  5
1C17
331
5E48
  5
5E49
331
64B1
  5
5C2A
331
5E31
  5
5E32
331
5DD4
  5
5DD5
331
5D7F
  5
5D80
331
5D60
  5
5D61
331
5D2A
  5
5D2B
331
5D0B
  5
5D0C
331
5CEC
  5
5CED
331
1C5C
  5
1C5D
331
1C9A
  5
1C9B
331
1C17
  5
1C18
331
1C36
  5
1C37
331
6474
  5
6498
331
5E49
  5
5E4A
331
5E32
  5
5E33
331
5DD5
  5
5DD6
331
5D80
  5
5D81
331
5D61
  5
5D62
331
5D2B
  5
5D2C
331
5D0C
  5
5D0D
331
5CED
  5
5CEE
331
1C9B
  5
2171
331
1C5D
  5
1C5E
331
1C7C
  5
1C80
331
1C37
  5
1C38
331
5E4A
  5
5E4B
331
5E33
  5
5E34
331
5DD6
  5
5DD7
331
5D81
  5
5D97
331
5D62
  5
5D63
331
5D2C
  5
5D2D
331
5D0D
  5
5D0E
331
5CEE
  5
5CEF
331
6267
  5
6299
331
3FEB
  5
3FEB
331
1C5E
  5
1C5F
331
5E4B
  5
5E4C
331
5E34
  5
5E35
331
5DD7
  5
5DD8
331
5D63
  5
5D64
331
5D2D
  5
5D2E
331
5D0E
  5
5D0F
331
5CEF
  5
5CF0
331
1C5F
  5
1C60
331
3FEC
  5
3FEC
331
5E4C
  5
5E4D
331
5E35
  5
5E36
331
5DD8
  5
5DD9
331
5D64
  5
5D65
331
5D2E
  5
5D2F
331
5D0F
  5
5D10
331
1C60
  5
1C61
331
5E4D
  5
5E4E
331
5E36
  5
5E37
331
5DD9
  5
5DDA
331
5D65
  5
5D66
331
5D2F
  5
5D30
331
1C61
  5
1C62
331
1C80
  5
1C84
331
6498
  5
64B1
331
5E4E
  5
5E60
331
5E37
  5
5E38
331
5DDA
  5
5DDB
331
5D66
  5
5D67
331
620E
  5
6267
331
1C62
  5
1C63
331
5DDB
  5
5DDC
331
5D67
  5
5D68
331
1C63
  5
1C64
331
5DFB
  5
5E10
331
5DDC
  5
5DDD
331
1C64
  5
1C68
331
5DDD
  5
5DDE
331
1C84
  5
1C85
331
6321
  5
637C
331
5DDE
  5
5DDF
331
4F0C
  5
4F0D
331
1C85
  5
1C86
331
5E91
  5
5EBD
331
5DDF
  5
5DE0
331
1C86
  5
1C8A
331
4F0D
  5
4F0E
331
5BE0
  5
5BE0
331
1C68
  5
1C6C
331
28D6
  5
2907
331
4F0E
  5
4F0F
331
5C00
  5
5C00
331
5BE1
  5
5BE1
331
28D7
  5
2945
331
4036
  5
4036
331
4F0F
  5
4F10
331
5C20
  5
5C20
331
5C01
  5
5C01
331
5BE2
  5
5BE2
331
5C40
  5
5C41
331
5C21
  5
5C21
331
5C02
  5
5C02
331
5BE3
  5
5BE3
331
644C
  5
6474
331
1C8A
  5
1C8B
331
5C58
  5
5C59
331
5C41
  5
5C42
331
5C22
  5
5C22
331
5C03
  5
5C03
331
5BE4
  5
5BE4
331
637C
  5
63DB
331
1C6C
  5
1C6D
331
1C8B
  5
1C8C
331
5C78
  5
5C79
331
5C59
  5
5C5A
331
5C42
  5
5C43
331
5C23
  5
5C23
331
5C04
  5
5C04
331
5BE5
  5
5BE5
331
1C6D
  5
1C71
331
1C8C
  5
1C8D
331
5C98
  5
5C99
331
5C79
  5
5C7A
331
5C5A
  5
5C5B
331
5C43
  5
5C44
331
5C24
  5
5C24
331
5C05
  5
5C05
331
5BE6
  5
5BE6
331
1C8D
  5
1C8E
331
5CB8
  5
5CB9
331
5C99
  5
5C9A
331
5C7A
  5
5C7B
331
5C5B
  5
5C5C
331
5C44
  5
5C45
331
5C25
  5
5C25
331
5C06
  5
5C06
331
5BE7
  5
5BE7
331
1C8E
  5
1C8F
331
5CB9
  5
5CBA
331
5C9A
  5
5C9B
331
5C7B
  5
5C7C
331
5C5C
  5
5C5D
331
5C45
  5
5C46
331
5C26
  5
5C26
331
5C07
  5
5C07
331
5BE8
  5
5BE8
331
5F15
  5
5F41
331
1C8F
  5
1C90
331
5CBA
  5
5CBB
331
5C9B
  5
5C9C
331
5C7C
  5
5C7D
331
5C5D
  5
5C5E
331
5C46
  5
5C47
331
5C27
  5
5C27
331
5C08
  5
5C08
331
5BE9
  5
5BE9
331
5CBB
  5
5CBC
331
5C9C
  5
5C9D
331
5C7D
  5
5C7E
331
5C5E
  5
5C5F
331
5C47
  5
5C48
331
5C28
  5
5C28
331
5C09
  5
5C09
331
5BEA
  5
5BEA
331
5CBC
  5
5CBD
331
5C9D
  5
5C9E
331
5C7E
  5
5C7F
331
5C5F
  5
5C60
331
5C48
  5
5C49
331
5C29
  5
5C29
331
5C0A
  5
5C0A
331
5BEB
  5
5BEB
331
5CBD
  5
5CBE
331
5C9E
  5
5C9F
331
5C7F
  5
5C80
331
5C60
  5
5C61
331
5C49
  5
5C4A
331
5C2A
  5
5C2B
331
5C0B
  5
5C0B
331
5BEC
  5
5BEC
331
5CBE
  5
5CBF
331
5C9F
  5
5CA0
331
5C80
  5
5C81
331
5C61
  5
5C62
331
5C4A
  5
5C4B
331
5C2B
  5
5C2C
331
5C0C
  5
5C0C
331
5BED
  5
5BED
331
5EBD
  5
5EE9
331
5CBF
  5
5CC0
331
5CA0
  5
5CA1
331
5C81
  5
5C82
331
5C62
  5
5C63
331
5C4B
  5
5C4C
331
5C2C
  5
5C2D
331
5C0D
  5
5C0D
331
5BEE
  5
5BEE
331
5CC0
  5
5CC1
331
5CA1
  5
5CA2
331
5C82
  5
5C83
331
5C63
  5
5C64
331
5C4C
  5
5C4D
331
5C2D
  5
5C2E
331
5C0E
  5
5C0E
331
5BEF
  5
5BEF
331
5CC1
  5
5CC2
331
5CA2
  5
5CA3
331
5C83
  5
5C84
331
5C64
  5
5C65
331
5C4D
  5
5C4E
331
5C2E
  5
5C2F
331
5C0F
  5
5C0F
331
5BF0
  5
5BF0
331
5BD9
  5
5BD9
331
6005
  5
603E
331
5F91
  5
6005
331
5F72
  5
5F91
331
5CC2
  5
5CC3
331
5CA3
  5
5CA4
331
5C84
  5
5C85
331
5C65
  5
5C66
331
5C4E
  5
5C4F
331
5C2F
  5
5C30
331
5C10
  5
5C10
331
5BF1
  5
5BF1
331
5BDA
  5
5BDA
331
5CC3
  5
5CC4
331
5CA4
  5
5CA5
331
5C85
  5
5C86
331
5C66
  5
5C67
331
5C4F
  5
5C50
331
5C30
  5
5C31
331
5C11
  5
5C11
331
5BF2
  5
5BF2
331
5BDB
  5
5BDB
331
5CC4
  5
5CC5
331
5CA5
  5
5CA6
331
5C86
  5
5C87
331
5C67
  5
5C68
331
5C50
  5
5C51
331
5C31
  5
5C32
331
5C12
  5
5C12
331
5BF3
  5
5BF3
331
5BDC
  5
5BDC
331
603E
  5
606C
331
5CC5
  5
5CC6
331
5CA6
  5
5CA7
331
5C87
  5
5C88
331
5C68
  5
5C69
331
5C51
  5
5C52
331
5C32
  5
5C33
331
5C13
  5
5C13
331
5BF4
  5
5BF4
331
5BDD
  5
5BDD
331
5CC6
  5
5CC7
331
5CA7
  5
5CA8
331
5C88
  5
5C89
331
5C69
  5
5C6A
331
5C52
  5
5C53
331
5C33
  5
5C34
331
5C14
  5
5C14
331
5BF5
  5
5BF5
331
5BDE
  5
5BDE
331
5CC7
  5
5CC8
331
5CA8
  5
5CA9
331
5C89
  5
5C8A
331
5C6A
  5
5C6B
331
5C53
  5
5C54
331
5C34
  5
5C35
331
5C15
  5
5C15
331
5BF6
  5
5BF6
331
5BDF
  5
5BDF
331
1C18
  5
1C19
331
5CC8
  5
5CC9
331
5CA9
  5
5CAA
331
5C8A
  5
5C8B
331
5C6B
  5
5C6C
331
5C54
  5
5C55
331
5C35
  5
5C36
331
5C16
  5
5C16
331
5BF7
  5
5BF7
331
1C19
  5
1C1A
331
1C38
  5
1C39
331
5CC9
  5
5CCA
331
5CAA
  5
5CAB
331
5C8B
  5
5C8C
331
5C6C
  5
5C6D
331
5C55
  5
5C56
331
5C36
  5
5C37
331
5C17
  5
5C17
331
5BF8
  5
5BF8
331
5CD0
  5
5CD1
331
1C1A
  5
1C1B
331
1C39
  5
1C3A
331
5CCA
  5
5CCB
331
5CAB
  5
5CAC
331
5C8C
  5
5C8D
331
5C6D
  5
5C6E
331
5C56
  5
5C57
331
5C37
  5
5C38
331
5C18
  5
5C18
331
5BF9
  5
5BF9
331
5CF0
  5
5CF1
331
5CD1
  5
5CD2
331
1C1B
  5
1C1C
331
1C3A
  5
1C3B
331
5CCB
  5
5CCC
331
5CAC
  5
5CAD
331
5C8D
  5
5C8E
331
5C6E
  5
5C6F
331
5C57
  5
5C58
331
5C38
  5
5C39
331
5C19
  5
5C19
331
5BFA
  5
5BFA
331
5D10
  5
5D11
331
5CF1
  5
5CF2
331
5EE9
  5
5F15
331
5CD2
  5
5CD3
331
1C1C
  5
1C1D
331
1C3B
  5
1C3C
331
5CCC
  5
5CCD
331
5CAD
  5
5CAE
331
5C8E
  5
5C8F
331
5C6F
  5
5C70
331
5C39
  5
5C3A
331
5C1A
  5
5C1A
331
5BFB
  5
5BFB
331
5D30
  5
5D31
331
5D11
  5
5D12
331
5CF2
  5
5CF3
331
5CD3
  5
5CD4
331
1C1D
  5
1C1E
331
1C3C
  5
1C3D
331
5CCD
  5
5CCE
331
5CAE
  5
5CAF
331
5C8F
  5
5C90
331
5C70
  5
5C71
331
5C3A
  5
5C3B
331
5C1B
  5
5C1B
331
5BFC
  5
5BFC
331
5D48
  5
5D49
331
5D31
  5
5D32
331
5D12
  5
5D13
331
5CF3
  5
5CF4
331
5CD4
  5
5CD5
331
6094
  5
60C4
331
1C1E
  5
1C1F
331
1C3D
  5
1C3E
331
5CCE
  5
5CCF
331
5CAF
  5
5CB0
331
5C90
  5
5C91
331
5C71
  5
5C72
331
5C3B
  5
5C3C
331
5C1C
  5
5C1C
331
5BFD
  5
5BFD
331
5D68
  5
5D69
331
5D49
  5
5D4A
331
5D32
  5
5D33
331
5D13
  5
5D14
331
5CF4
  5
5CF5
331
5F41
  5
5F72
331
5CD5
  5
5CD6
331
1C1F
  5
1C20
331
1C3E
  5
1C3F
331
5CCF
  5
5CD0
331
5CB0
  5
5CB1
331
5C91
  5
5C92
331
5C72
  5
5C73
331
5C3C
  5
5C3D
331
5C1D
  5
5C1D
331
5BFE
  5
5BFE
331
5D69
  5
5D6A
331
5D4A
  5
5D4B
331
5D33
  5
5D34
331
5D14
  5
5D15
331
5CF5
  5
5CF6
331
5CD6
  5
5CD7
331
1C20
  5
1C21
331
1C3F
  5
1C40
331
5CB1
  5
5CB2
331
5C92
  5
5C93
331
5C73
  5
5C74
331
5C3D
  5
5C3E
331
5C1E
  5
5C1E
331
5BFF
  5
5BFF
331
5D6A
  5
5D6B
331
5D4B
  5
5D4C
331
5D34
  5
5D35
331
5D15
  5
5D16
331
5CF6
  5
5CF7
331
5CD7
  5
5CD8
331
1C21
  5
1C22
331
1C40
  5
1C41
331
5CB2
  5
5CB3
331
5C93
  5
5C94
331
5C74
  5
5C75
331
5C3E
  5
5C3F
331
5C1F
  5
5C1F
331
5D6B
  5
5D6C
331
5D4C
  5
5D4D
331
5D35
  5
5D36
331
5D16
  5
5D17
331
5CF7
  5
5CF8
331
5CD8
  5
5CD9
331
1C22
  5
1C23
331
1C41
  5
1C42
331
5CB3
  5
5CB4
331
5C94
  5
5C95
331
5C75
  5
5C76
331
5C3F
  5
5C40
331
5DE0
  5
5DFB
331
5D6C
  5
5D6D
331
5D4D
  5
5D4E
331
5D36
  5
5D37
331
5D17
  5
5D18
331
5CF8
  5
5CF9
331
5CD9
  5
5CDA
331
1C23
  5
1C24
331
1C42
  5
1C43
331
5CB4
  5
5CB5
331
5C95
  5
5C96
331
5C76
  5
5C77
331
5D6D
  5
5D6E
331
5D4E
  5
5D4F
331
5D37
  5
5D38
331
5D18
  5
5D19
331
5CF9
  5
5CFA
331
606C
  5
6094
331
5CDA
  5
5CDB
331
1C24
  5
1C25
331
1C43
  5
1C44
331
5CB5
  5
5CB6
331
5C96
  5
5C97
331
5C77
  5
5C78
331
5DAC
  5
5DC7
331
5D6E
  5
5D6F
331
5D4F
  5
5D50
331
5D38
  5
5D39
331
5D19
  5
5D1A
331
5CFA
  5
5CFB
331
5CDB
  5
5CDC
331
4F10
  5
4F11
331
1C25
  5
1C26
331
1C44
  5
1C45
331
5CB6
  5
5CB7
331
5C97
  5
5C98
331
5E38
  5
5E39
331
5D6F
  5
5D70
331
5D50
  5
5D51
331
5D39
  5
5D3A
331
5D1A
  5
5D1B
331
5CFB
  5
5CFC
331
5CDC
  5
5CDD
331
4F11
  5
4FDC
331
1C26
  5
1C27
331
1C45
  5
1C46
331
5CB7
  5
5CB8
331
5E39
  5
5E3A
331
5D70
  5
5D71
331
5D51
  5
5D52
331
5D3A
  5
5D3B
331
5D1B
  5
5D1C
331
5CFC
  5
5CFD
331
5CDD
  5
5CDE
331
1C27
  5
1C28
331
1C46
  5
1C47
331
5E3A
  5
5E3B
331
5D71
  5
5D72
331
5D52
  5
5D53
331
5D3B
  5
5D3C
331
5D1C
  5
5D1D
331
5CFD
  5
5CFE
331
5CDE
  5
5CDF
331
1C28
  5
1C29
331
1C47
  5
1C48
331
5E3B
  5
5E3C
331
5DC7
  5
5DD2
331
5D72
  5
5D73
331
5D53
  5
5D54
331
5D3C
  5
5D3D
331
5D1D
  5
5D1E
331
5CFE
  5
5CFF
331
5CDF
  5
5CE0
331
61C5
  5
620E
331
1C29
  5
1C2A
331
1C48
  5
1C49
331
62B6
  5
62F5
331
5E3C
  5
5E3D
331
5D73
  5
5D74
331
5D54
  5
5D55
331
5D3D
  5
5D3E
331
5D1E
  5
5D1F
331
5CFF
  5
5D00
331
5CE0
  5
5CE1
331
1C50
  5
1C51
331
1C2A
  5
1C2B
331
1C49
  5
1C4A
331
5E3D
  5
5E3E
331
5E26
  5
5E31
331
5D74
  5
5D75
331
5D55
  5
5D56
331
5D3E
  5
5D3F
331
5D1F
  5
5D20
331
5D00
  5
5D01
331
5CE1
  5
5CE2
331
1C51
  5
1C52
331
1C2B
  5
1C2C
331
1C4A
  5
1C4B
331
6299
  5
62B6
331
5E3E
  5
5E3F
331
5D75
  5
5D76
331
5D56
  5
5D57
331
5D3F
  5
5D40
331
5D20
  5
5D21
331
5D01
  5
5D02
331
5CE2
  5
5CE3
331
1C52
  5
1C53
331
1C71
  5
1C72
331
1C90
  5
1C91
331
1C2C
  5
1C2D
331
1C4B
  5
1C4C
331
5E3F
  5
5E40
331
5D76
  5
5D77
331
5D57
  5
5D58
331
5D40
  5
5D41
331
5D21
  5
5D22
331
5D02
  5
5D03
331
5CE3
  5
5CE4
331
1C53
  5
1C54
331
1C72
  5
1C73
331
1C91
  5
1C92
  0
XRECORD
  5
A65
102
{ACAD_REACTORS
330
9CB
102
}
330
9CB
100
AcDbXrecord
280
     1
340
B
  0
LAYOUT
  5
A68
102
{ACAD_XDICTIONARY
360
6568
102
}
102
{ACAD_REACTORS
330
1E
102
}
330
1E
100
AcDbPlotSettings
  1

  2
自動 設計一 上的 HP DeskJet 930C/932C/935C
  4

  6

 40
0.0
 41
0.0
 42
0.0
 43
0.0
 44
0.0
 45
0.0
 46
0.0
 47
0.0
 48
0.0
 49
0.0
140
0.0
141
0.0
142
1.0
143
1.0
 70
  1712
 72
     0
 73
     0
 74
     0
  7

 75
     0
147
1.0
148
0.0
149
0.0
100
AcDbLayout
  1
Model
 70
     1
 71
     0
 10
0.0
 20
0.0
 11
12.0
 21
9.0
 12
0.0
 22
0.0
 32
0.0
 14
0.0
 24
0.0
 34
0.0
 15
0.0
 25
0.0
 35
0.0
146
0.0
 13
0.0
 23
0.0
 33
0.0
 16
1.0
 26
0.0
 36
0.0
 17
0.0
 27
1.0
 37
0.0
 76
     0
330
A
  0
LAYOUT
  5
A69
102
{ACAD_XDICTIONARY
360
656A
102
}
102
{ACAD_REACTORS
330
1E
102
}
330
1E
100
AcDbPlotSettings
  1

  2
自動 設計一 上的 HP DeskJet 930C/932C/935C
  4

  6

 40
0.0
 41
0.0
 42
0.0
 43
0.0
 44
0.0
 45
0.0
 46
0.0
 47
0.0
 48
0.0
 49
0.0
140
0.0
141
0.0
142
1.0
143
1.0
 70
   688
 72
     0
 73
     0
 74
     5
  7

 75
    16
147
1.0
148
0.0
149
0.0
100
AcDbLayout
  1
配置1
 70
     1
 71
     1
 10
0.0
 20
0.0
 11
12.0
 21
9.0
 12
0.0
 22
0.0
 32
0.0
 14
1.000000000000000E+20
 24
1.000000000000000E+20
 34
1.000000000000000E+20
 15
-1.000000000000000E+20
 25
-1.000000000000000E+20
 35
-1.000000000000000E+20
146
0.0
 13
0.0
 23
0.0
 33
0.0
 16
1.0
 26
0.0
 36
0.0
 17
0.0
 27
1.0
 37
0.0
 76
     0
330
B
  0
MLINESTYLE
  5
1C
102
{ACAD_REACTORS
330
1B
102
}
330
1B
100
AcDbMlineStyle
  2
STANDARD
 70
     0
  3

 62
     0
 51
90.00000000000019
 52
90.00000000000019
 71
     2
 49
0.5
 62
   256
  6
BYLAYER
 49
-0.5
 62
   256
  6
BYLAYER
  0
ACDBPLACEHOLDER
  5
1D
102
{ACAD_REACTORS
330
1F
102
}
330
1F
  0
TABLESTYLE
  5
ECC
102
{ACAD_REACTORS
330
ECB
102
}
330
ECB
100
AcDbTableStyle
  3
Standard
 70
     0
 71
     0
 40
0.06
 41
0.06
280
     0
281
     0
  7
STANDARD
140
0.18
170
     2
 62
     0
 63
     7
283
     0
274
    -2
284
     1
 64
     0
275
    -2
285
     1
 65
     0
276
    -2
286
     1
 66
     0
277
    -2
287
     1
 67
     0
278
    -2
288
     1
 68
     0
279
    -2
289
     1
 69
     0
  7
STANDARD
140
0.25
170
     5
 62
     0
 63
     7
283
     0
274
    -2
284
     1
 64
     0
275
    -2
285
     1
 65
     0
276
    -2
286
     1
 66
     0
277
    -2
287
     1
 67
     0
278
    -2
288
     1
 68
     0
279
    -2
289
     1
 69
     0
  7
STANDARD
140
0.18
170
     5
 62
     0
 63
     7
283
     0
274
    -2
284
     1
 64
     0
275
    -2
285
     1
 65
     0
276
    -2
286
     1
 66
     0
277
    -2
287
     1
 67
     0
278
    -2
288
     1
 68
     0
279
    -2
289
     1
 69
     0
  0
DICTIONARYVAR
  5
1258
102
{ACAD_REACTORS
330
1257
102
}
330
1257
100
DictionaryVariables
280
     0
  1
STANDARD
  0
DICTIONARYVAR
  5
6563
102
{ACAD_REACTORS
330
1257
102
}
330
1257
100
DictionaryVariables
280
     0
  1
1
  0
DICTIONARYVAR
  5
6562
102
{ACAD_REACTORS
330
1257
102
}
330
1257
100
DictionaryVariables
280
     0
  1
1
  0
DICTIONARYVAR
  5
6564
102
{ACAD_REACTORS
330
1257
102
}
330
1257
100
DictionaryVariables
280
     0
  1

  0
DICTIONARY
  5
F9E
102
{ACAD_REACTORS
330
F90
102
}
330
F90
100
AcDbDictionary
281
     1
  0
XRECORD
  5
FBC
102
{ACAD_REACTORS
330
F90
102
}
330
F90
100
AcDbXrecord
280
     1
 90
-1023410169
  0
DICTIONARY
  5
ED3
102
{ACAD_REACTORS
330
ED2
102
}
330
ED2
100
AcDbDictionary
281
     1
  3
DWGSETTINGS
350
ED4
  3
Shaft
350
1093
  3
TRANSSETTINGS
350
ED8
  0
ACAMGFILTERDAT
  5
FD6
102
{ACAD_REACTORS
330
FD1
102
}
330
FD1
100
AcAmgFilterDat
 70
    15
  1
DIMENSION,AMDT_*_DIM
  2
*
  3
*
  4
*
  5
*
290
     1
  0
ACAMGFILTERDAT
  5
FD5
102
{ACAD_REACTORS
330
FD1
102
}
330
FD1
100
AcAmgFilterDat
 70
    15
  1
*
  2
AM_FEA-AM_*
  3
*
  4
*
  5
*
290
     1
  0
ACAMGFILTERDAT
  5
FD2
102
{ACAD_REACTORS
330
FD1
102
}
330
FD1
100
AcAmgFilterDat
 70
    15
  1
HATCH
  2
*
  3
*
  4
*
  5
*
290
     1
  0
ACAMGFILTERDAT
  5
FD3
102
{ACAD_REACTORS
330
FD1
102
}
330
FD1
100
AcAmgFilterDat
 70
    15
  1
LINE
  2
8,8N,*-8,*-8N,AM_8,AM_8N,*-AM_8,*-AM_8N
  3
*
  4
*
  5
INSERT,STDPART2D
290
     1
  0
ACAMGFILTERDAT
  5
FD7
102
{ACAD_REACTORS
330
FD1
102
}
330
FD1
100
AcAmgFilterDat
 70
    15
  1
ARC
  2
AM_5
  3
*
  4
2
  5
INSERT
290
     0
  0
ACAMGFILTERDAT
  5
FD4
102
{ACAD_REACTORS
330
FD1
102
}
330
FD1
100
AcAmgFilterDat
 70
    15
  1
ACMFCFRAME,ACMDATUMTARGET,ACMDATUMID,ACMWELDSYM,ACMSURFSYM,ACMFEATID,ACMPARTREF,ACMBALLOON,AMDTEDGESYM,AMGSCREWCALCTABLE
  2
*
  3
*
  4
*
  5
*
290
     1
  0
LAYER_INDEX
  5
1250
102
{ACAD_REACTORS
330
124F
102
}
330
124F
100
AcDbIndex
 40
2455323.63493963
100
AcDbLayerIndex
  8
0
360
1251
 90
      451
  8
CENTER
360
1252
 90
       24
  8
DIM
360
1253
 90
        9
  8
Defpoints
360
1254
 90
        0
  8
AM_5
360
1255
 90
       39
  8
LOGO
360
191C
 90
      117
  0
DICTIONARY
  5
6568
330
A68
100
AcDbDictionary
280
     1
281
     1
  3
ACAD_XREC_ROUNDTRIP
360
6569
  0
DICTIONARY
  5
656A
330
A69
100
AcDbDictionary
280
     1
281
     1
  3
ACAD_XREC_ROUNDTRIP
360
656B
  0
IDBUFFER
  5
1251
330
0
100
AcDbIdBuffer
330
64B1
330
1C11
330
1C9C
330
1C9D
330
1C9E
330
5E4E
330
5E4C
330
5E4B
330
5E4A
330
5E49
330
5E48
330
5E47
330
5E46
330
5E45
330
5E44
330
5E43
330
5E42
330
5E41
330
5E40
330
5E3F
330
5E3E
330
5E3D
330
5E3C
330
5E3B
330
5E3A
330
5E39
330
5E38
330
5E37
330
5E36
330
5E35
330
5E34
330
5E33
330
5E32
330
5E31
330
5E26
330
5E10
330
5DFB
330
5DE0
330
5DDF
330
5DDE
330
5DDD
330
5DDC
330
5DDB
330
5DDA
330
5DD9
330
5DD8
330
5DD7
330
5DD6
330
5DD5
330
5DD4
330
5DD3
330
5DD2
330
5DC7
330
5DAC
330
5D97
330
5D81
330
5D80
330
5D7F
330
5D7E
330
5D7D
330
5D7C
330
5D7B
330
5D7A
330
5D79
330
5D78
330
5D77
330
5D76
330
5D75
330
5D74
330
5D73
330
5D72
330
5D71
330
5D70
330
5D6F
330
5D6E
330
5D6D
330
5D6C
330
5D6B
330
5D6A
330
5D69
330
5D68
330
5D67
330
5D66
330
5D65
330
5D64
330
5D63
330
5D62
330
5D61
330
5D60
330
5D5F
330
5D5E
330
5D5D
330
5D5C
330
5D5B
330
5D5A
330
5D59
330
5D58
330
5D57
330
5D56
330
5D55
330
5D54
330
5D53
330
5D52
330
5D4F
330
5D4B
330
5D47
330
5D43
330
5D3D
330
5D3C
330
5D37
330
5D35
330
5D33
330
5D2F
330
5D2E
330
5D2D
330
5D2C
330
5D2B
330
5D2A
330
5D29
330
5D28
330
5D27
330
5D26
330
5D25
330
5D24
330
5D23
330
5D22
330
5D21
330
5D20
330
5D1F
330
5D1E
330
5D1D
330
5D1C
330
5D1B
330
5D1A
330
5D19
330
5D18
330
5D17
330
5D16
330
5D15
330
5D14
330
5D13
330
5D12
330
5D11
330
5D10
330
5D0F
330
5D0E
330
5D0D
330
5D0C
330
5D0B
330
5D0A
330
5D09
330
5D08
330
5D07
330
5D06
330
5D05
330
5D04
330
5D03
330
5D02
330
5D01
330
5D00
330
5CFF
330
5CFE
330
5CFD
330
5CFC
330
5CFB
330
5CFA
330
5CF9
330
5CF8
330
5CF7
330
5CF6
330
5CF4
330
5CF3
330
5CF2
330
5CF1
330
5CF0
330
5CEF
330
5CEE
330
5CED
330
5CEC
330
5CEB
330
5CEA
330
5CE9
330
5CE8
330
5CE7
330
5CE6
330
5CE5
330
5CE4
330
5CE3
330
5CE2
330
5CE1
330
5CE0
330
5CDF
330
5CDE
330
5CDD
330
5CDC
330
5CDB
330
5CDA
330
5CD9
330
5CD8
330
5CD7
330
5CD6
330
5CD5
330
5CD4
330
5CD3
330
5CD2
330
5CD1
330
5CD0
330
5CCF
330
5CCE
330
5CCD
330
5CCC
330
5CCB
330
5CCA
330
5CC9
330
5CC8
330
5CC7
330
5CC6
330
5CC5
330
5CC4
330
5CC3
330
5CC2
330
5CC1
330
5CC0
330
5CBF
330
5CBE
330
5CBD
330
5CBC
330
5CBB
330
5CBA
330
5CB9
330
5CB8
330
5CB7
330
5CB6
330
5CB5
330
5CB4
330
5CB3
330
5CB2
330
5CB1
330
5CB0
330
5CAF
330
5CAE
330
5CAD
330
5CAC
330
5CAB
330
5CAA
330
5CA9
330
5CA8
330
5CA7
330
5CA6
330
5CA5
330
5CA4
330
5CA3
330
5CA2
330
5CA1
330
5CA0
330
5C9F
330
5C9E
330
5C9D
330
5C9C
330
5C9B
330
5C9A
330
5C99
330
5C98
330
5C97
330
5C96
330
5C95
330
5C94
330
5C93
330
5C92
330
5C91
330
5C90
330
5C8F
330
5C8E
330
5C8D
330
5C8C
330
5C8B
330
5C8A
330
5C89
330
5C88
330
5C87
330
5C86
330
5C85
330
5C84
330
5C83
330
5C82
330
5C81
330
5C80
330
5C7F
330
5C7E
330
5C7D
330
5C7C
330
5C7B
330
5C7A
330
5C79
330
5C78
330
5C77
330
5C76
330
5C75
330
5C74
330
5C73
330
5C72
330
5C71
330
5C70
330
5C6F
330
5C6E
330
5C6D
330
5C6C
330
5C6B
330
5C6A
330
5C69
330
5C68
330
5C67
330
5C66
330
5C65
330
5C64
330
5C63
330
5C62
330
5C61
330
5C60
330
5C5F
330
5C5E
330
5C5D
330
5C5C
330
5C5B
330
5C5A
330
5C59
330
5C58
330
5C57
330
5C56
330
5C55
330
5C54
330
5C53
330
5C52
330
5C51
330
5C50
330
5C4F
330
5C4E
330
5C4D
330
5C4C
330
5C4B
330
5C4A
330
5C49
330
5C48
330
5C47
330
5C46
330
5C45
330
5C44
330
5C43
330
5C42
330
5C41
330
5C40
330
5C3F
330
5C3E
330
5C3D
330
5C3B
330
5C3A
330
5C39
330
5C38
330
5C36
330
5C35
330
5C34
330
5C33
330
5C32
330
5C31
330
5C30
330
5C2F
330
5C2E
330
5C2D
330
5C2C
330
5C2B
330
5C2A
330
5C28
330
5C27
330
5C26
330
5C25
330
5C24
330
5C23
330
5C22
330
5C21
330
5C20
330
5C1F
330
5C1E
330
5C1D
330
5C1C
330
5C1B
330
5C1A
330
5C19
330
5C18
330
5C17
330
5C16
330
5C15
330
5C14
330
5C13
330
5C12
330
5C11
330
5C10
330
5C0F
330
5C0E
330
5C0D
330
5C0C
330
5C0B
330
5C0A
330
5C09
330
5C08
330
5C07
330
5C06
330
5C05
330
5C04
330
5C03
330
5C02
330
5C01
330
5C00
330
5BFF
330
5BFE
330
5BFD
330
5BFC
330
5BFB
330
5BFA
330
5BF9
330
5BF8
330
5BF7
330
5BF6
330
5BF5
330
5BF4
330
5BF3
330
5BF2
330
5BF1
330
5BF0
330
5BEF
330
5BEE
330
5BED
330
5BEC
330
5BEB
330
5BEA
330
5BE9
330
5BE8
330
5BE7
330
5BE6
330
5BE5
330
5BE4
330
5BE3
330
5BE2
330
5BE1
330
5BE0
330
5BDF
330
5BDE
330
5BDD
330
5BDC
330
5BDB
330
5BDA
330
5BD9
  0
IDBUFFER
  5
1252
330
0
100
AcDbIdBuffer
330
5C29
330
5E4D
330
5D51
330
5D50
330
5D4D
330
5D4C
330
5D49
330
5D48
330
5D45
330
5D44
330
5D41
330
5D40
330
5D3F
330
5D3E
330
5D3B
330
5D3A
330
5D39
330
5D38
330
5D32
330
5D31
330
5D30
330
4F0E
330
4F0C
330
4F0D
  0
IDBUFFER
  5
1253
330
0
100
AcDbIdBuffer
330
5D4E
330
5D4A
330
5D46
330
5D42
330
5D36
330
5D34
330
5CF5
330
5C3C
330
5C37
  0
IDBUFFER
  5
1254
330
0
100
AcDbIdBuffer
  0
IDBUFFER
  5
1255
330
0
100
AcDbIdBuffer
330
5E60
330
5E91
330
5EBD
330
5EE9
330
5F15
330
5F41
330
5F72
330
5F91
330
6005
330
603E
330
606C
330
6094
330
60C4
330
61C5
330
620E
330
6267
330
6299
330
62B6
330
62F5
330
6321
330
6474
330
6498
330
64C7
330
6500
330
637C
330
63DB
330
63FC
330
644C
330
28D6
330
28D7
330
333B
330
333C
330
3FEB
330
3FEC
330
4036
330
4412
330
4F0F
330
4F10
330
4F11
  0
IDBUFFER
  5
191C
330
0
100
AcDbIdBuffer
330
1C12
330
1C13
330
1C14
330
1C15
330
1C16
330
1C17
330
1C18
330
1C19
330
1C1A
330
1C1B
330
1C1C
330
1C1D
330
1C1E
330
1C1F
330
1C20
330
1C21
330
1C22
330
1C23
330
1C24
330
1C25
330
1C26
330
1C27
330
1C28
330
1C29
330
1C2A
330
1C2B
330
1C2C
330
1C2D
330
1C2E
330
1C2F
330
1C30
330
1C31
330
1C32
330
1C33
330
1C34
330
1C35
330
1C36
330
1C37
330
1C38
330
1C39
330
1C3A
330
1C3B
330
1C3C
330
1C3D
330
1C3E
330
1C3F
330
1C40
330
1C41
330
1C42
330
1C43
330
1C44
330
1C45
330
1C46
330
1C47
330
1C48
330
1C49
330
1C4A
330
1C4B
330
1C4C
330
1C4D
330
1C4E
330
1C4F
330
1C50
330
1C51
330
1C52
330
1C53
330
1C54
330
1C55
330
1C56
330
1C57
330
1C58
330
1C59
330
1C5A
330
1C5B
330
1C5C
330
1C5D
330
1C5E
330
1C5F
330
1C60
330
1C61
330
1C62
330
1C63
330
1C64
330
1C68
330
1C6C
330
1C6D
330
1C71
330
1C72
330
1C73
330
1C74
330
1C75
330
1C76
330
1C77
330
1C78
330
1C7C
330
1C80
330
1C84
330
1C85
330
1C86
330
1C8A
330
1C8B
330
1C8C
330
1C8D
330
1C8E
330
1C8F
330
1C90
330
1C91
330
1C92
330
1C93
330
1C94
330
1C95
330
1C96
330
1C97
330
1C98
330
1C99
330
1C9A
330
1C9B
  0
XRECORD
  5
6569
102
{ACAD_REACTORS
330
6568
102
}
330
6568
100
AcDbXrecord
280
     1
102
SHADEPLOT
 70
     0
102
SHADEPLOTRESLEVEL
 70
     2
102
SHADEPLOTCUSTOMDPI
 70
   300
  0
XRECORD
  5
656B
102
{ACAD_REACTORS
330
656A
102
}
330
656A
100
AcDbXrecord
280
     1
102
SHADEPLOT
 70
     0
102
SHADEPLOTRESLEVEL
 70
     2
102
SHADEPLOTCUSTOMDPI
 70
   300
  0
ENDSEC
  0
EOF
