  0
SECTION
  2
HEADER
  9
$ACADVER
  1
AC1015
  9
$ACADMAINTVER
 70
    20
  9
$DWGCODEPAGE
  3
ANSI_950
  9
$INSBASE
 10
0.0
 20
0.0
 30
0.0
  9
$EXTMIN
 10
636.5888285060369
 20
52.58852823838278
 30
0.0
  9
$EXTMAX
 10
965.958504315035
 20
444.5708573288505
 30
144.2599568222141
  9
$LIMMIN
 10
0.0
 20
0.0
  9
$LIMMAX
 10
420.0
 20
297.0
  9
$ORTHOMODE
 70
     0
  9
$REGENMODE
 70
     1
  9
$FILLMODE
 70
     1
  9
$QTEXTMODE
 70
     0
  9
$MIRRTEXT
 70
     1
  9
$LTSCALE
 40
1.0
  9
$ATTMODE
 70
     1
  9
$TEXTSIZE
 40
3.0
  9
$TRACEWID
 40
1.0
  9
$TEXTSTYLE
  7
STANDARD
  9
$CLAYER
  8
AM_REFDIM
  9
$CELTYPE
  6
ByLayer
  9
$CECOLOR
 62
   256
  9
$CELTSCALE
 40
1.0
  9
$DISPSILH
 70
     0
  9
$DIMSCALE
 40
1.0
  9
$DIMASZ
 40
3.5
  9
$DIMEXO
 40
1.0
  9
$DIMDLI
 40
12.0
  9
$DIMRND
 40
0.0
  9
$DIMDLE
 40
0.0
  9
$DIMEXE
 40
1.0
  9
$DIMTP
 40
0.1
  9
$DIMTM
 40
0.1
  9
$DIMTXT
 40
3.5
  9
$DIMCEN
 40
0.0
  9
$DIMTSZ
 40
0.0
  9
$DIMTOL
 70
     0
  9
$DIMLIM
 70
     0
  9
$DIMTIH
 70
     0
  9
$DIMTOH
 70
     0
  9
$DIMSE1
 70
     0
  9
$DIMSE2
 70
     0
  9
$DIMTAD
 70
     1
  9
$DIMZIN
 70
     8
  9
$DIMBLK
  1

  9
$DIMASO
 70
     1
  9
$DIMSHO
 70
     1
  9
$DIMPOST
  1

  9
$DIMAPOST
  1
"
  9
$DIMALT
 70
     0
  9
$DIMALTD
 70
     2
  9
$DIMALTF
 40
0.0393701
  9
$DIMLFAC
 40
1.0
  9
$DIMTOFL
 70
     1
  9
$DIMTVP
 40
0.0
  9
$DIMTIX
 70
     0
  9
$DIMSOXD
 70
     0
  9
$DIMSAH
 70
     0
  9
$DIMBLK1
  1

  9
$DIMBLK2
  1

  9
$DIMSTYLE
  2
AM_ISO
  9
$DIMCLRD
 70
   256
  9
$DIMCLRE
 70
   256
  9
$DIMCLRT
 70
   256
  9
$DIMTFAC
 40
0.6
  9
$DIMGAP
 40
1.0
  9
$DIMJUST
 70
     0
  9
$DIMSD1
 70
     0
  9
$DIMSD2
 70
     0
  9
$DIMTOLJ
 70
     0
  9
$DIMTZIN
 70
     8
  9
$DIMALTZ
 70
     0
  9
$DIMALTTZ
 70
     0
  9
$DIMUPT
 70
     0
  9
$DIMDEC
 70
     1
  9
$DIMTDEC
 70
     8
  9
$DIMALTU
 70
     2
  9
$DIMALTTD
 70
     2
  9
$DIMTXSTY
  7
STANDARD
  9
$DIMAUNIT
 70
     0
  9
$DIMADEC
 70
     0
  9
$DIMALTRND
 40
0.0
  9
$DIMAZIN
 70
     2
  9
$DIMDSEP
 70
    46
  9
$DIMATFIT
 70
     3
  9
$DIMFRAC
 70
     0
  9
$DIMLDRBLK
  1

  9
$DIMLUNIT
 70
     2
  9
$DIMLWD
 70
    -1
  9
$DIMLWE
 70
    -1
  9
$DIMTMOVE
 70
     0
  9
$LUNITS
 70
     2
  9
$LUPREC
 70
     2
  9
$SKETCHINC
 40
1.0
  9
$FILLETRAD
 40
2.5
  9
$AUNITS
 70
     0
  9
$AUPREC
 70
     0
  9
$MENU
  1
.
  9
$ELEVATION
 40
0.0
  9
$PELEVATION
 40
0.0
  9
$THICKNESS
 40
0.0
  9
$LIMCHECK
 70
     0
  9
$CHAMFERA
 40
0.2
  9
$CHAMFERB
 40
0.2
  9
$CHAMFERC
 40
20.0
  9
$CHAMFERD
 40
0.0
  9
$SKPOLY
 70
     0
  9
$TDCREATE
 40
2454422.344345151
  9
$TDUCREATE
 40
2454422.011011817
  9
$TDUPDATE
 40
2456893.652771991
  9
$TDUUPDATE
 40
2456893.319438657
  9
$TDINDWG
 40
1.1134217940
  9
$TDUSRTIMER
 40
1.1134217940
  9
$USRTIMER
 70
     1
  9
$ANGBASE
 50
0.0
  9
$ANGDIR
 70
     0
  9
$PDMODE
 70
     0
  9
$PDSIZE
 40
0.0
  9
$PLINEWID
 40
0.0
  9
$SPLFRAME
 70
     0
  9
$SPLINETYPE
 70
     6
  9
$SPLINESEGS
 70
     8
  9
$HANDSEED
  5
C0F3
  9
$SURFTAB1
 70
     6
  9
$SURFTAB2
 70
     6
  9
$SURFTYPE
 70
     6
  9
$SURFU
 70
     6
  9
$SURFV
 70
     6
  9
$UCSBASE
  2

  9
$UCSNAME
  2

  9
$UCSORG
 10
0.0
 20
0.0
 30
0.0
  9
$UCSXDIR
 10
1.0
 20
0.0
 30
0.0
  9
$UCSYDIR
 10
0.0
 20
1.0
 30
0.0
  9
$UCSORTHOREF
  2

  9
$UCSORTHOVIEW
 70
     0
  9
$UCSORGTOP
 10
0.0
 20
0.0
 30
0.0
  9
$UCSORGBOTTOM
 10
0.0
 20
0.0
 30
0.0
  9
$UCSORGLEFT
 10
0.0
 20
0.0
 30
0.0
  9
$UCSORGRIGHT
 10
0.0
 20
0.0
 30
0.0
  9
$UCSORGFRONT
 10
0.0
 20
0.0
 30
0.0
  9
$UCSORGBACK
 10
0.0
 20
0.0
 30
0.0
  9
$PUCSBASE
  2

  9
$PUCSNAME
  2

  9
$PUCSORG
 10
0.0
 20
0.0
 30
0.0
  9
$PUCSXDIR
 10
1.0
 20
0.0
 30
0.0
  9
$PUCSYDIR
 10
0.0
 20
1.0
 30
0.0
  9
$PUCSORTHOREF
  2

  9
$PUCSORTHOVIEW
 70
     0
  9
$PUCSORGTOP
 10
0.0
 20
0.0
 30
0.0
  9
$PUCSORGBOTTOM
 10
0.0
 20
0.0
 30
0.0
  9
$PUCSORGLEFT
 10
0.0
 20
0.0
 30
0.0
  9
$PUCSORGRIGHT
 10
0.0
 20
0.0
 30
0.0
  9
$PUCSORGFRONT
 10
0.0
 20
0.0
 30
0.0
  9
$PUCSORGBACK
 10
0.0
 20
0.0
 30
0.0
  9
$USERI1
 70
     0
  9
$USERI2
 70
     0
  9
$USERI3
 70
     0
  9
$USERI4
 70
     0
  9
$USERI5
 70
     0
  9
$USERR1
 40
0.0
  9
$USERR2
 40
0.0
  9
$USERR3
 40
0.0
  9
$USERR4
 40
0.0
  9
$USERR5
 40
0.0
  9
$WORLDVIEW
 70
     1
  9
$SHADEDGE
 70
     3
  9
$SHADEDIF
 70
    70
  9
$TILEMODE
 70
     1
  9
$MAXACTVP
 70
    64
  9
$PINSBASE
 10
0.0
 20
0.0
 30
0.0
  9
$PLIMCHECK
 70
     0
  9
$PEXTMIN
 10
1.000000000000000E+20
 20
1.000000000000000E+20
 30
1.000000000000000E+20
  9
$PEXTMAX
 10
-1.000000000000000E+20
 20
-1.000000000000000E+20
 30
-1.000000000000000E+20
  9
$PLIMMIN
 10
0.0
 20
0.0
  9
$PLIMMAX
 10
420.0
 20
297.0
  9
$UNITMODE
 70
     0
  9
$VISRETAIN
 70
     1
  9
$PLINEGEN
 70
     0
  9
$PSLTSCALE
 70
     1
  9
$TREEDEPTH
 70
  3020
  9
$CMLSTYLE
  2
Standard
  9
$CMLJUST
 70
     0
  9
$CMLSCALE
 40
20.0
  9
$PROXYGRAPHICS
 70
     1
  9
$MEASUREMENT
 70
     1
  9
$CELWEIGHT
370
    -1
  9
$ENDCAPS
280
     0
  9
$JOINSTYLE
280
     0
  9
$LWDISPLAY
290
     0
  9
$INSUNITS
 70
     4
  9
$HYPERLINKBASE
  1

  9
$STYLESHEET
  1
acad.ctb
  9
$XEDIT
290
     1
  9
$CEPSNTYPE
380
     0
  9
$PSTYLEMODE
290
     1
  9
$FINGERPRINTGUID
  2
{B705A112-77C7-4534-AADA-B7988B84DA3D}
  9
$VERSIONGUID
  2
{4C961E51-2175-4E2B-A8E1-AB9B96A592BE}
  9
$EXTNAMES
290
     1
  9
$PSVPSCALE
 40
0.0
  9
$OLESTARTUP
290
     0
  0
ENDSEC
  0
SECTION
  2
CLASSES
  0
CLASS
  1
ACDBDICTIONARYWDFLT
  2
AcDbDictionaryWithDefault
  3
ObjectDBX Classes
 90
        0
280
     0
281
     0
  0
CLASS
  1
ACDBPLACEHOLDER
  2
AcDbPlaceHolder
  3
ObjectDBX Classes
 90
        0
280
     0
281
     0
  0
CLASS
  1
LAYOUT
  2
AcDbLayout
  3
ObjectDBX Classes
 90
        0
280
     0
281
     0
  0
CLASS
  1
ACME_DOCUMENT
  2
AcMeDbDoc
  3
AcMeServices
 90
        0
280
     0
281
     0
  0
CLASS
  1
AMGSETTINGSOBJ
  2
AmgSettingsObj
  3
"AcadM|Product Description: AutoCAD Mechanical 2000|Company: Autodesk"
 90
        0
280
     0
281
     0
  0
CLASS
  1
ACMESCOPE
  2
AcMeScope
  3
AcMeServices
 90
        0
280
     0
281
     0
  0
CLASS
  1
ACMECOMMANDHISTORY
  2
AcMeCommandHistory
  3
AcMeServices
 90
        0
280
     0
281
     0
  0
CLASS
  1
ACIMSYSVARMAN
  2
AcImSysVarManager
  3
AcMeServices
 90
        0
280
     0
281
     0
  0
CLASS
  1
ACIMREALSYSVAR
  2
AcImRealSysVar
  3
AcMeServices
 90
        0
280
     0
281
     0
  0
CLASS
  1
ACIMINTSYSVAR
  2
AcImIntSysVar
  3
AcMeServices
 90
        0
280
     0
281
     0
  0
CLASS
  1
ACMEDRAWINGMAN
  2
AcMeDrawingMan
  3
AcMeServices
 90
        0
280
     0
281
     0
  0
CLASS
  1
ACMEVIEW
  2
AcMeView
  3
AcMeServices
 90
        0
280
     0
281
     0
  0
CLASS
  1
ACDBENTITYCACHE
  2
AcMeEntityCache
  3
AcMeServices
 90
        0
280
     0
281
     0
  0
CLASS
  1
GSMANAGER
  2
AcMeGSManager
  3
AcMeServices
 90
        0
280
     0
281
     0
  0
CLASS
  1
AMDTINTERNALREACTOR
  2
AmdtInternalReactor
  3
AcMeServices
 90
        0
280
     0
281
     0
  0
CLASS
  1
ACMESTATEMGR
  2
AcMeStateMgr
  3
AcMeServices
 90
        0
280
     0
281
     0
  0
CLASS
  1
ACGREFMASTER
  2
AcGrefMaster
  3
AcAttribServices
 90
        0
280
     0
281
     0
  0
CLASS
  1
ACME_DATABASE
  2
AcMeDbDatabase
  3
AcMeServices
 90
        0
280
     0
281
     0
  0
CLASS
  1
ACRFINSADJUSTERMGR
  2
AcRfInsAdjusterMgr
  3
AcMeServices
 90
        0
280
     0
281
     0
  0
CLASS
  1
ACGREFACADMASTER
  2
AcGrefacadMaster
  3
AcGrefServices
 90
        0
280
     0
281
     0
  0
CLASS
  1
AMIMASTER
  2
AmiMaster
  3
AmiServices
 90
        0
280
     0
281
     0
  0
CLASS
  1
ACMDATADICTIONARY
  2
AcmDataDictionary
  3
"AcmSymBB|Product Description: AutoCAD Mechanical 2004 DX|Company: Autodesk"
 90
        0
280
     0
281
     0
  0
CLASS
  1
ACMDATAENTRYBLOCK
  2
AcmDataEntryBlock
  3
"AcmSymBB|Product Description: AutoCAD Mechanical 2004 DX|Company: Autodesk"
 90
        0
280
     0
281
     0
  0
CLASS
  1
ACIMSTRSYSVAR
  2
AcImStrSysVar
  3
AcMeServices
 90
        0
280
     0
281
     0
  0
CLASS
  1
ACMSTANDARDISO
  2
AcmStandardISO
  3
"Amdt_StdImp|Product Description: AutoCAD Mechanical 2004 DX|Company: Autodesk"
 90
        0
280
     0
281
     0
  0
CLASS
  1
AMGOBJPROPCFG
  2
AmgObjPropCfg
  3
"AmgLay|Product Description: AutoCAD Mechanical 2000|Company: Autodesk"
 90
        1
280
     0
281
     0
  0
CLASS
  1
AMDTEDGESTANDARDISO
  2
AmdtEdgeStdISO
  3
"Amdt_StdImp|Product Description: AutoCAD Mechanical 2004 DX|Company: Autodesk"
 90
    32768
280
     0
281
     0
  0
CLASS
  1
ACMSURFSTANDARDISO
  2
AcmSurfTextStdISO
  3
"Amdt_StdImp|Product Description: AutoCAD Mechanical 2004 DX|Company: Autodesk"
 90
        0
280
     0
281
     0
  0
CLASS
  1
ACMFCFSTANDARDISO
  2
AcmFCFStdISO
  3
"Amdt_StdImp|Product Description: AutoCAD Mechanical 2004 DX|Company: Autodesk"
 90
        0
280
     0
281
     0
  0
CLASS
  1
ACMWELDSTANDARDISO
  2
AcmWeldingStdISO
  3
"Amdt_StdImp|Product Description: AutoCAD Mechanical 2004 DX|Company: Autodesk"
 90
        0
280
     0
281
     0
  0
CLASS
  1
ACMIDSTANDARDISO
  2
AcmIdStdISO
  3
"Amdt_StdImp|Product Description: AutoCAD Mechanical 2004 DX|Company: Autodesk"
 90
        0
280
     0
281
     0
  0
CLASS
  1
ACMDATUMSTANDARDISO
  2
AcmDatumStdISO
  3
"Amdt_StdImp|Product Description: AutoCAD Mechanical 2004 DX|Company: Autodesk"
 90
        0
280
     0
281
     0
  0
CLASS
  1
ACMBOMSTANDARDISO
  2
AcmBOMStdISO
  3
"Amdt_StdImp|Product Description: AutoCAD Mechanical 2004 DX|Company: Autodesk"
 90
        0
280
     0
281
     0
  0
CLASS
  1
ACMDETAILSTANDARDISO
  2
AmdtDetailSymStdISO
  3
"Amdt_StdImp|Product Description: AutoCAD Mechanical 2004 DX|Company: Autodesk"
 90
        0
280
     0
281
     0
  0
CLASS
  1
ACMSECTIONSTANDARDISO
  2
AmdtSectionSymStdISO
  3
"Amdt_StdImp|Product Description: AutoCAD Mechanical 2004 DX|Company: Autodesk"
 90
        0
280
     0
281
     0
  0
CLASS
  1
ACMCENTERLINESTANDARDISO
  2
AmdtCenterLineStdISO
  3
"Amdt_StdImp|Product Description: AutoCAD Mechanical 2004 DX|Company: Autodesk"
 90
        0
280
     0
281
     0
  0
CLASS
  1
ACMNOTESTANDARDISO
  2
AmdtNoteStdISO
  3
"Amdt_StdImp|Product Description: AutoCAD Mechanical 2004 DX|Company: Autodesk"
 90
        0
280
     0
281
     0
  0
CLASS
  1
ACAMGLAYSTD
  2
AcAmgLayStd
  3
"AcAmgLayStd|Product Description: AutoCAD Mechanical 2000|Company: Autodesk"
 90
        0
280
     0
281
     0
  0
CLASS
  1
ACAMGDIMSTD
  2
AcAmgDimStd
  3
"AcAmgDimStd|Product Description: AutoCAD Mechanical 2000|Company: Autodesk"
 90
        0
280
     0
281
     0
  0
CLASS
  1
ACAMGHOLECHARTSTDISO
  2
AcAmgHoleChartStdISO
  3
ACMSYMBB_MODULE_NAME
 90
        0
280
     0
281
     0
  0
CLASS
  1
ACAMGTITLESTD
  2
AcAmgTitleStd
  3
"TITLEAPP"
 90
        0
280
     0
281
     0
  0
CLASS
  1
LAYER_INDEX
  2
AcDbLayerIndex
  3
ObjectDBX Classes
 90
        0
280
     0
281
     0
  0
CLASS
  1
IDBUFFER
  2
AcDbIdBuffer
  3
ObjectDBX Classes
 90
        0
280
     0
281
     0
  0
CLASS
  1
DICTIONARYVAR
  2
AcDbDictionaryVar
  3
ObjectDBX Classes
 90
        0
280
     0
281
     0
  0
CLASS
  1
AM_DRAWING_MGR
  2
AcDmDwgMgr
  3
AcMechDwgViewMgmt
 90
        0
280
     0
281
     0
  0
CLASS
  1
AM_DWG_DOCUMENT
  2
AcDmDwgDocument
  3
AcMechDwgViewMgmt
 90
        0
280
     0
281
     0
  0
CLASS
  1
AM_DWG_SHEET
  2
AcDmSheet
  3
AcMechDwgViewMgmt
 90
        0
280
     0
281
     0
  0
CLASS
  1
AM_VIEWDIMPARMAP
  2
AcDmViewDimParMap
  3
AcMechDwgViewMgmt
 90
        0
280
     0
281
     0
  0
CLASS
  1
AM_DWGMGR_NAME
  2
AcDmDwgMgrName
  3
AcMechDwgViewMgmt
 90
        0
280
     0
281
     0
  0
CLASS
  1
AMDTMENUSTATEMGR
  2
AmdtMenuStateMgr
  3
McadcomServices
 90
        0
280
     0
281
     0
  0
CLASS
  1
AMDTMCOMMENUSTATE
  2
AmdtMcomMenuState
  3
McadcomServices
 90
        0
280
     0
281
     0
  0
CLASS
  1
MAPIAMMOUDLE
  2
MApiAmModule
  3
MApiAmServices
 90
        0
280
     0
281
     0
  0
CLASS
  1
AMDTADMENUSTATE
  2
AmdtAdMenuState
  3
DesignerServices
 90
        0
280
     0
281
     0
  0
CLASS
  1
ADAPPL
  2
AcAdAppl
  3
DesignerServices
 90
        0
280
     0
281
     0
  0
CLASS
  1
DEPMGR
  2
AcAdDepMgr
  3
DesignerServices
 90
        0
280
     0
281
     0
  0
CLASS
  1
PARAMMGR
  2
AcAdParamMgr
  3
DesignerServices
 90
        0
280
     0
281
     0
  0
CLASS
  1
PARAMSCOPE
  2
AcAdParamScope
  3
DesignerServices
 90
        0
280
     0
281
     0
  0
CLASS
  1
NAMEDAPPL
  2
AcAdNamedAppl
  3
DesignerServices
 90
        0
280
     0
281
     0
  0
CLASS
  1
AMDTDMMENUSTATE
  2
AmdtDmMenuState
  3
AcMechDwgViewMgmt
 90
        0
280
     0
281
     0
  0
CLASS
  1
AMDTAMMENUSTATE
  2
AmdtAmMenuState
  3
DesignerAssemblies
 90
        0
280
     0
281
     0
  0
CLASS
  1
ACAMPROJECT
  2
AcAmProject
  3
DesignerAssemblies
 90
        0
280
     0
281
     0
  0
CLASS
  1
ACAMGRCOMPDEF
  2
AcAmGrCompDef
  3
DesignerAssemblies
 90
        0
280
     0
281
     0
  0
CLASS
  1
ACCMCONTEXT
  2
AcCmContext
  3
DesignerAssemblies
 90
        0
280
     0
281
     0
  0
CLASS
  1
ACAMCOMPDEF
  2
AcAmCompDef
  3
DesignerAssemblies
 90
        0
280
     0
281
     0
  0
CLASS
  1
ACAMCOMPDEFMGR
  2
AcAmCompDefMgr
  3
DesignerAssemblies
 90
        0
280
     0
281
     0
  0
CLASS
  1
AMCONTEXTMGR
  2
AcAmContextMgr
  3
DesignerAssemblies
 90
        0
280
     0
281
     0
  0
CLASS
  1
ACAMCONTEXTMODELER
  2
AcAmContextModeler
  3
DesignerAssemblies
 90
        0
280
     0
281
     0
  0
CLASS
  1
ACMTHREADLINESTANDARDISO
  2
AmdtThreadLineStdISO
  3
"Amdt_StdImp|Product Description: AutoCAD Mechanical 2004 DX|Company: Autodesk"
 90
        0
280
     0
281
     0
  0
CLASS
  1
CATALOGSTATE
  2
AcAmCatalogState
  3
DesignerAssemblies
 90
        0
280
     0
281
     0
  0
CLASS
  1
ACAMGRCOMPDEFSET
  2
AcAmGrCompDefSet
  3
DesignerAssemblies
 90
        0
280
     0
281
     0
  0
CLASS
  1
AMDTBROWSERDBTAB
  2
AmdtBrowserDbTab
  3
McadcomServices
 90
        0
280
     0
281
     0
  0
CLASS
  1
CBROWSERAPPOBJECT
  2
CBrowserAppObject
  3
McadcomServices
 90
        0
280
     0
281
     0
  0
CLASS
  1
DM_PLACEHOLDER
  2
AcDmSelsetPlaceholder
  3
AcMechDwgViewMgmt
 90
        0
280
     0
281
     0
  0
CLASS
  1
TABLESTYLE
  2
AcDbTableStyle
  3
ObjectDBX Classes
 90
     2047
280
     0
281
     0
  0
CLASS
  1
VAACXREFPANELOBJECT
  2
VaAcXREFPanelObject
  3
VAAC_ADDIN
 90
    32768
280
     0
281
     0
  0
CLASS
  1
VAACIMAGEINVENTORY
  2
VaAcImageInventory
  3
VAAC_ADDIN
 90
    32768
280
     0
281
     0
  0
CLASS
  1
AMDTNOTETEMPLATEDB
  2
AmdtNoteTemplateDB
  3
AMDT_STDIMP_MODULE_NAME
 90
        0
280
     0
281
     0
  0
CLASS
  1
ACMBOM
  2
AcmBom
  3
"AcmSymBB|Product Description: AutoCAD Mechanical 2004 DX|Company: Autodesk"
 90
    32768
280
     0
281
     0
  0
CLASS
  1
AMDTFORMULAUPDATEDISPATCHER
  2
AmdtFormulaUpdateDispatcher
  3
AcMeServices
 90
    32768
280
     0
281
     0
  0
CLASS
  1
ACMPARTLIST
  2
AcmPartList
  3
"AcmSymBB|Product Description: AutoCAD Mechanical 2004 DX|Company: Autodesk"
 90
    33791
280
     0
281
     1
  0
CLASS
  1
ACAMGFILTERDAT
  2
AcAmgFilterDat
  3
"AcadM|Product Description: AutoCAD Mechanical 2000|Company: Autodesk"
 90
    32768
280
     0
281
     0
  0
CLASS
  1
DIMASSOC
  2
AcDbDimAssoc
  3
"AcDbDimAssoc|Product Desc:     AcDim ARX App For Dimension|Company:          Autodesk, Inc.|WEB Address:      www.autodesk.com"
 90
        0
280
     0
281
     0
  0
CLASS
  1
SORTENTSTABLE
  2
AcDbSortentsTable
  3
ObjectDBX Classes
 90
        0
280
     0
281
     0
  0
CLASS
  1
STDPART2D
  2
AmgStdPart
  3
"AmgStdPart|Product Description: AutoCAD Mechanical 2000|Company: Autodesk"
 90
    33791
280
     0
281
     1
  0
CLASS
  1
ACAMSTDPCOMPDEF
  2
AcAmStdpCompDef
  3
DesignerAssemblies
 90
    32768
280
     0
281
     0
  0
CLASS
  1
ACRFATTGENMGR
  2
AcRfAttGeneralMgr
  3
AcAttribServices
 90
    32768
280
     0
281
     0
  0
CLASS
  1
ACRFOBJATTMGR
  2
AcRfObjAttGroupMgr
  3
AcAttribServices
 90
    32768
280
     0
281
     0
  0
CLASS
  1
ACRFMCADAPIATTHOLDER
  2
AcRfMCADAPIAttHolder
  3
AcAttribServices
 90
    32768
280
     0
281
     0
  0
CLASS
  1
AMDTSYSATTR
  2
AmdtSystemAttribute
  3
AcAttribServices
 90
    32768
280
     0
281
     0
  0
CLASS
  1
ACAMCOMP
  2
AcAmComp
  3
DesignerAssemblies
 90
    32768
280
     0
281
     0
  0
CLASS
  1
AC_AM_STDP_VIEW_DEF
  2
AcAmStdpViewDef
  3
DesignerAssemblies
 90
    32768
280
     0
281
     0
  0
CLASS
  1
AC_AM_MVD_DEP_MGR
  2
AcAmMVDdepMgr
  3
DesignerAssemblies
 90
    32768
280
     0
281
     0
  0
CLASS
  1
AC_AM_MASTER_VIEW_DEF
  2
AcAmMasterViewDef
  3
DesignerAssemblies
 90
    32768
280
     0
281
     0
  0
CLASS
  1
AC_AM_DIRTY_NODES
  2
AcAmDirtyNodes
  3
DesignerAssemblies
 90
    32768
280
     0
281
     0
  0
CLASS
  1
AC_AM_MAPPER_CACHE
  2
AcAmMapperCache
  3
DesignerAssemblies
 90
    32768
280
     0
281
     0
  0
CLASS
  1
ACAMMVDBACKUPOBJECT
  2
AcAmMVDBackupObject
  3
DesignerAssemblies
 90
    32768
280
     0
281
     0
  0
CLASS
  1
AC_AM_COMP_VIEW_INST
  2
AcAmCompView
  3
DesignerAssemblies
 90
    32768
280
     0
281
     0
  0
CLASS
  1
AC_AM_2D_XREF_MGR
  2
AcAmXrefMgr2d
  3
DesignerAssemblies
 90
    32768
280
     0
281
     0
  0
CLASS
  1
AMDTNOTE
  2
AmdtNote
  3
"AcmSymBB|Product Description: AutoCAD Mechanical 2004 DX|Company: Autodesk"
 90
    33791
280
     0
281
     1
  0
CLASS
  1
AMDTEDGESTANDARDISO13715
  2
AmdtEdgeStdISO13715
  3
"Amdt_StdImp|Product Description: AutoCAD Mechanical 2004 DX|Company: Autodesk"
 90
        0
280
     0
281
     0
  0
CLASS
  1
ASAPP
  2
AcAsAppObject
  3
AutoSurfServices
 90
        0
280
     0
281
     0
  0
CLASS
  1
IM_STATIC_MAN
  2
AcImStaticVarManager
  3
AcMeServices
 90
        0
280
     0
281
     0
  0
CLASS
  1
ACIMDBLSTATICVAR
  2
AcImDblStaticVar
  3
AcMeServices
 90
        0
280
     0
281
     0
  0
CLASS
  1
ACIMSTRSTATICVAR
  2
AcImStrStaticVar
  3
AcMeServices
 90
        0
280
     0
281
     0
  0
CLASS
  1
ACIMINTSTATICVAR
  2
AcImIntStaticVar
  3
AcMeServices
 90
        0
280
     0
281
     0
  0
CLASS
  1
ACASGREFMASTER
  2
AcAsGrefMaster
  3
AutoSurfResolverServices
 90
        0
280
     0
281
     0
  0
CLASS
  1
ACADGREFMODULE
  2
AcAdGrefModule
  3
AdGrefServices
 90
        0
280
     0
281
     0
  0
CLASS
  1
AMDTMAPISURFMOUDULE
  2
AmdtMApiSurfModule
  3
MApiSurfServices
 90
        0
280
     0
281
     0
  0
CLASS
  1
MAPIADMODULE
  2
MApiAdModule
  3
MApiAdServices
 90
        0
280
     0
281
     0
  0
ENDSEC
  0
SECTION
  2
TABLES
  0
TABLE
  2
VPORT
  5
8
330
0
100
AcDbSymbolTable
 70
    16
  0
VPORT
  5
C0EA
330
8
100
AcDbSymbolTableRecord
100
AcDbViewportTableRecord
  2
*Active
 70
     0
 10
0.0
 20
0.0
 11
1.0
 21
1.0
 12
299.7342088482452
 22
-180.6265138703185
 13
0.0
 23
0.0
 14
2.5
 24
2.5
 15
10.0
 25
10.0
 16
0.0
 26
0.0
 36
1.0
 17
493.6788805944727
 27
316.1094665189255
 37
0.0
 40
264.7824007603329
 41
1.263157894736842
 42
50.0
 43
0.0
 44
0.0
 50
0.0
 51
0.0
 71
     0
 72
  2000
 73
     1
 74
     3
 75
     0
 76
     0
 77
     0
 78
     0
281
     0
 65
     0
110
0.0
120
0.0
130
0.0
111
1.0
121
0.0
131
0.0
112
0.0
122
1.0
132
0.0
 79
     0
146
0.0
  0
ENDTAB
  0
TABLE
  2
LTYPE
  5
5
330
0
100
AcDbSymbolTable
 70
    16
  0
LTYPE
  5
14
330
5
100
AcDbSymbolTableRecord
100
AcDbLinetypeTableRecord
  2
ByBlock
 70
     0
  3

 72
    65
 73
     0
 40
0.0
  0
LTYPE
  5
15
330
5
100
AcDbSymbolTableRecord
100
AcDbLinetypeTableRecord
  2
ByLayer
 70
     0
  3

 72
    65
 73
     0
 40
0.0
  0
LTYPE
  5
16
330
5
100
AcDbSymbolTableRecord
100
AcDbLinetypeTableRecord
  2
Continuous
 70
     0
  3
Solid line
 72
    65
 73
     0
 40
0.0
  0
LTYPE
  5
64
330
5
100
AcDbSymbolTableRecord
100
AcDbLinetypeTableRecord
  2
AM_ISO02W050
 70
     0
  3
__ __ __ __ __ __ __ __ __ __ __ __ __ __ __
 72
    65
 73
     2
 40
7.5
 49
6.0
 74
     0
 49
-1.5
 74
     0
  0
LTYPE
  5
65
330
5
100
AcDbSymbolTableRecord
100
AcDbLinetypeTableRecord
  2
AM_ISO08W050
 70
     0
  3
____ . ____ . ____ . ____ . ____ . ____ . ____
 72
    65
 73
     4
 40
18.0
 49
12.0
 74
     0
 49
-1.5
 74
     0
 49
3.0
 74
     0
 49
-1.5
 74
     0
  0
LTYPE
  5
66
330
5
100
AcDbSymbolTableRecord
100
AcDbLinetypeTableRecord
  2
AM_ISO09W050
 70
     0
  3
_____ . . _____ . . _____ . . ____ .. ____
 72
    65
 73
     6
 40
22.5
 49
12.0
 74
     0
 49
-1.5
 74
     0
 49
3.0
 74
     0
 49
-1.5
 74
     0
 49
3.0
 74
     0
 49
-1.5
 74
     0
  0
LTYPE
  5
67
330
5
100
AcDbSymbolTableRecord
100
AcDbLinetypeTableRecord
  2
Amconstr
 70
     0
  3
_______________________
 72
    65
 73
     2
 40
9999.0
 49
9999.0
 74
     0
 49
0.0
 74
     0
  0
LTYPE
  5
68
330
5
100
AcDbSymbolTableRecord
100
AcDbLinetypeTableRecord
  2
AM_ISO08W050x2
 70
     0
  3
__ . __ . __ . __ . __ . __
 72
    65
 73
     4
 40
9.0
 49
6.0
 74
     0
 49
-0.75
 74
     0
 49
1.5
 74
     0
 49
-0.75
 74
     0
  0
LTYPE
  5
69
330
5
100
AcDbSymbolTableRecord
100
AcDbLinetypeTableRecord
  2
AM_ISO02W050x2
 70
     0
  3
 _ _ _ _ _ _ _ _ _ _ _ _
 72
    65
 73
     2
 40
3.75
 49
3.0
 74
     0
 49
-0.75
 74
     0
  0
LTYPE
  5
6C
330
5
100
AcDbSymbolTableRecord
100
AcDbLinetypeTableRecord
  2
Amzigzag
 70
     0
  3
/\/-/\/-/\/-/\/-/\/-/\/
 72
    65
 73
     2
 40
11.0001
 49
0.0001
 74
     4
 75
   135
340
6B
 46
0.04
 50
0.0
 44
0.0
 45
0.0
 49
-11.0
 74
     0
  0
LTYPE
  5
7A
330
5
100
AcDbSymbolTableRecord
100
AcDbLinetypeTableRecord
  2
ACISOWELD
 70
     0
  3
_ _ _ _ _
 72
    65
 73
     2
 40
2.0
 49
2.0
 74
     0
 49
-1.0
 74
     0
  0
LTYPE
  5
7B
330
5
100
AcDbSymbolTableRecord
100
AcDbLinetypeTableRecord
  2
ACISOTGB
 70
     0
  3
__ . . __ . .
 72
    65
 73
     6
 40
9.0
 49
4.0
 74
     0
 49
-1.0
 74
     0
 49
1.0
 74
     0
 49
-1.0
 74
     0
 49
1.0
 74
     0
 49
-1.0
 74
     0
  0
LTYPE
  5
7C
330
5
100
AcDbSymbolTableRecord
100
AcDbLinetypeTableRecord
  2
ACISOTGL
 70
     0
  3
_ _ _ _ _
 72
    65
 73
     2
 40
3.0
 49
2.0
 74
     0
 49
-1.0
 74
     0
  0
LTYPE
  5
7E
330
5
100
AcDbSymbolTableRecord
100
AcDbLinetypeTableRecord
  2
CENTER
 70
     0
  3
__ . __
 72
    65
 73
     4
 40
7.0
 49
4.0
 74
     0
 49
-1.0
 74
     0
 49
1.0
 74
     0
 49
-1.0
 74
     0
  0
LTYPE
  5
D8
330
5
100
AcDbSymbolTableRecord
100
AcDbLinetypeTableRecord
  2
HIDDEN
 70
     0
  3
Hidden __ __ __ __ __ __ __ __ __ __ __ __ __ _
 72
    65
 73
     2
 40
9.524999999999998
 49
6.349999999999999
 74
     0
 49
-3.174999999999999
 74
     0
  0
LTYPE
  5
D9
330
5
100
AcDbSymbolTableRecord
100
AcDbLinetypeTableRecord
  2
PHANTOM2
 70
     0
  3
Phantom (.5x) ___ _ _ ___ _ _ ___ _ _ ___ _ _
 72
    65
 73
     6
 40
31.75
 49
15.875
 74
     0
 49
-3.174999999999999
 74
     0
 49
3.174999999999999
 74
     0
 49
-3.174999999999999
 74
     0
 49
3.174999999999999
 74
     0
 49
-3.174999999999999
 74
     0
  0
LTYPE
  5
7C98
330
5
100
AcDbSymbolTableRecord
100
AcDbLinetypeTableRecord
  2
ASULTYPE
 70
     0
  3
實線
 72
    65
 73
     2
 40
3.0
 49
2.5
 74
     0
 49
0.5
 74
     0
  0
LTYPE
  5
7C99
330
5
100
AcDbSymbolTableRecord
100
AcDbLinetypeTableRecord
  2
ASVLTYPE
 70
     0
  3
__ __ __ __ __ __ __ __ __ __ __ __ __ __ __ __ __ __ __ __ __
 72
    65
 73
     2
 40
0.75
 49
0.5
 74
     0
 49
-0.25
 74
     0
  0
ENDTAB
  0
TABLE
  2
LAYER
  5
2
102
{ACAD_XDICTIONARY
360
3F9
102
}
330
0
100
AcDbSymbolTable
 70
    13
  0
LAYER
  5
10
330
2
100
AcDbSymbolTableRecord
100
AcDbLayerTableRecord
  2
0
 70
     0
 62
     7
  6
Continuous
370
    -3
390
F
  0
LAYER
  5
C92
330
2
100
AcDbSymbolTableRecord
100
AcDbLayerTableRecord
  2
Defpoints
 70
     0
 62
     7
  6
Continuous
290
     0
370
    -3
390
F
  0
LAYER
  5
C93
330
2
100
AcDbSymbolTableRecord
100
AcDbLayerTableRecord
  2
AM_5
 70
     0
 62
     3
  6
Continuous
370
    25
390
F
  0
LAYER
  5
C94
330
2
100
AcDbSymbolTableRecord
100
AcDbLayerTableRecord
  2
AM_4
 70
     0
 62
     3
  6
Continuous
370
    25
390
F
  0
LAYER
  5
C95
330
2
100
AcDbSymbolTableRecord
100
AcDbLayerTableRecord
  2
AM_VIS
 70
     0
 62
     7
  6
Continuous
370
    50
390
F
  0
LAYER
  5
C96
330
2
100
AcDbSymbolTableRecord
100
AcDbLayerTableRecord
  2
AM_HID
 70
     0
 62
     3
  6
AM_ISO02W050x2
370
    25
390
F
  0
LAYER
  5
C97
330
2
100
AcDbSymbolTableRecord
100
AcDbLayerTableRecord
  2
AM_7
 70
     0
 62
     1
  6
CENTER
370
    25
390
F
  0
LAYER
  5
C99
330
2
100
AcDbSymbolTableRecord
100
AcDbLayerTableRecord
  2
LOGO
 70
     0
 62
     7
  6
Continuous
370
    -3
390
F
  0
LAYER
  5
2AA5
330
2
100
AcDbSymbolTableRecord
100
AcDbLayerTableRecord
  2
AM_REFDIM
 70
     0
 62
     5
  6
Continuous
370
    25
390
F
  0
LAYER
  5
79D1
330
2
100
AcDbSymbolTableRecord
100
AcDbLayerTableRecord
  2
CEN
 70
     0
 62
     1
  6
CENTER
370
    -3
390
F
  0
LAYER
  5
79D3
330
2
100
AcDbSymbolTableRecord
100
AcDbLayerTableRecord
  2
HATCH
 70
     0
 62
     4
  6
Continuous
370
    -3
390
F
  0
LAYER
  5
7BB8
330
2
100
AcDbSymbolTableRecord
100
AcDbLayerTableRecord
  2
SL
 70
     0
 62
     2
  6
Continuous
370
    -3
390
F
1001
AcAecLayerStandard
1000

1000

  0
LAYER
  5
7DF7
330
2
100
AcDbSymbolTableRecord
100
AcDbLayerTableRecord
  2
AM_10
 70
     0
 62
     7
  6
AM_ISO08W050
370
    50
390
F
  0
ENDTAB
  0
TABLE
  2
STYLE
  5
3
330
0
100
AcDbSymbolTable
 70
     6
  0
STYLE
  5
11
330
3
100
AcDbSymbolTableRecord
100
AcDbTextStyleTableRecord
  2
STANDARD
 70
     0
 40
0.0
 41
1.0
 50
0.0
 71
     0
 42
3.0
  3
ISOCP.SHX
  4
CHINESET.SHX
  0
STYLE
  5
6B
330
3
100
AcDbSymbolTableRecord
100
AcDbTextStyleTableRecord
  2

 70
     1
 40
0.0
 41
1.0
 50
0.0
 71
     0
 42
2.5
  3
ltypeshp.shx
  4

  0
STYLE
  5
6D
330
3
100
AcDbSymbolTableRecord
100
AcDbTextStyleTableRecord
  2
ACISOTS
 70
     0
 40
1.0
 41
1.0
 50
0.0
 71
     0
 42
1.0
  3
isocp.shx
  4
chineset.shx
  0
STYLE
  5
79
330
3
100
AcDbSymbolTableRecord
100
AcDbTextStyleTableRecord
  2
ACISOGDT
 70
     0
 40
0.0
 41
1.0
 50
0.0
 71
     0
 42
2.5
  3
amgdt.shx
  4
chineset.shx
  0
STYLE
  5
C9B
330
3
100
AcDbSymbolTableRecord
100
AcDbTextStyleTableRecord
  2
CHINESET
 70
     0
 40
0.0
 41
1.0
 50
0.0
 71
     0
 42
2.5
  3
simplex.shx
  4
CHINESET.shx
  0
STYLE
  5
7DF8
330
3
100
AcDbSymbolTableRecord
100
AcDbTextStyleTableRecord
  2
DAYUS
 70
     0
 40
0.0
 41
1.0
 50
0.0
 71
     0
 42
2.0
  3
simplex.shx
  4
dayus.shx
  0
ENDTAB
  0
TABLE
  2
VIEW
  5
6
330
0
100
AcDbSymbolTable
 70
     0
  0
ENDTAB
  0
TABLE
  2
UCS
  5
7
330
0
100
AcDbSymbolTable
 70
     0
  0
ENDTAB
  0
TABLE
  2
APPID
  5
9
330
0
100
AcDbSymbolTable
 70
    38
  0
APPID
  5
12
330
9
100
AcDbSymbolTableRecord
100
AcDbRegAppTableRecord
  2
ACAD
 70
     0
  0
APPID
  5
46
330
9
100
AcDbSymbolTableRecord
100
AcDbRegAppTableRecord
  2
MCAD_NO_VIS
 70
     0
  0
APPID
  5
47
330
9
100
AcDbSymbolTableRecord
100
AcDbRegAppTableRecord
  2
ACAD_TEMP_GRAPHIC
 70
     0
  0
APPID
  5
58
330
9
100
AcDbSymbolTableRecord
100
AcDbRegAppTableRecord
  2
ACATTRIBSERVICES
 70
     0
  0
APPID
  5
EE
330
9
100
AcDbSymbolTableRecord
100
AcDbRegAppTableRecord
  2
AD_DRAW
 70
     0
  0
APPID
  5
10C
330
9
100
AcDbSymbolTableRecord
100
AcDbRegAppTableRecord
  2
DESIGNERASSEMBLIES
 70
     0
  0
APPID
  5
111
330
9
100
AcDbSymbolTableRecord
100
AcDbRegAppTableRecord
  2
ACADM_DIM_EDIT
 70
     0
  0
APPID
  5
112
330
9
100
AcDbSymbolTableRecord
100
AcDbRegAppTableRecord
  2
AMDT_DM_ADJ
 70
     0
  0
APPID
  5
22C
330
9
100
AcDbSymbolTableRecord
100
AcDbRegAppTableRecord
  2
ACAD_DSTYLE_DIMTEXT_FILL
 70
     0
  0
APPID
  5
452
330
9
100
AcDbSymbolTableRecord
100
AcDbRegAppTableRecord
  2
GENIUS_GENOENT_13
 70
     0
  0
APPID
  5
453
330
9
100
AcDbSymbolTableRecord
100
AcDbRegAppTableRecord
  2
GENIUS_GENOBJ-N-CRS_13
 70
     0
  0
APPID
  5
454
330
9
100
AcDbSymbolTableRecord
100
AcDbRegAppTableRecord
  2
GENIUS_GENOLIS_13
 70
     0
  0
APPID
  5
455
330
9
100
AcDbSymbolTableRecord
100
AcDbRegAppTableRecord
  2
GENIUS_GENODEF_13
 70
     0
  0
APPID
  5
456
330
9
100
AcDbSymbolTableRecord
100
AcDbRegAppTableRecord
  2
GENIUS_GENOREF_13
 70
     0
  0
APPID
  5
6F3
330
9
100
AcDbSymbolTableRecord
100
AcDbRegAppTableRecord
  2
ACAD_PSEXT
 70
     0
  0
APPID
  5
808
330
9
100
AcDbSymbolTableRecord
100
AcDbRegAppTableRecord
  2
GENIUS_GENDTOL_13
 70
     0
  0
APPID
  5
C9C
330
9
100
AcDbSymbolTableRecord
100
AcDbRegAppTableRecord
  2
GENIUS_GENOBJ-N-CEN_13
 70
     0
  0
APPID
  5
C9D
330
9
100
AcDbSymbolTableRecord
100
AcDbRegAppTableRecord
  2
GENIUS_GENCEN_19
 70
     0
  0
APPID
  5
C9E
330
9
100
AcDbSymbolTableRecord
100
AcDbRegAppTableRecord
  2
GENIUS_GENREC_14
 70
     0
  0
APPID
  5
C9F
330
9
100
AcDbSymbolTableRecord
100
AcDbRegAppTableRecord
  2
GENIUS_GENOBJ-N-REC_13
 70
     0
  0
APPID
  5
18AD
330
9
100
AcDbSymbolTableRecord
100
AcDbRegAppTableRecord
  2
GEVID1195260822
 70
     0
  0
APPID
  5
18AE
330
9
100
AcDbSymbolTableRecord
100
AcDbRegAppTableRecord
  2
GEVDC
 70
     0
  0
APPID
  5
18AF
330
9
100
AcDbSymbolTableRecord
100
AcDbRegAppTableRecord
  2
GEVRADREF
 70
     0
  0
APPID
  5
18B8
330
9
100
AcDbSymbolTableRecord
100
AcDbRegAppTableRecord
  2
AMG_2DHIDE
 70
     0
  0
APPID
  5
18B9
330
9
100
AcDbSymbolTableRecord
100
AcDbRegAppTableRecord
  2
AMG_2DSTRUCT_BTR
 70
     0
  0
APPID
  5
18CA
330
9
100
AcDbSymbolTableRecord
100
AcDbRegAppTableRecord
  2
ACADM_2DVIEW_IGN_NOTIFY
 70
     0
  0
APPID
  5
3621
330
9
100
AcDbSymbolTableRecord
100
AcDbRegAppTableRecord
  2
GENIUS_GENDIMSH_14
 70
     0
  0
APPID
  5
3FD8
330
9
100
AcDbSymbolTableRecord
100
AcDbRegAppTableRecord
  2
AD_SKETCHDIM
 70
     0
  0
APPID
  5
42D5
330
9
100
AcDbSymbolTableRecord
100
AcDbRegAppTableRecord
  2
ACAD_DSTYLE_DIMEXT_LENGTH
 70
     0
  0
APPID
  5
42D6
330
9
100
AcDbSymbolTableRecord
100
AcDbRegAppTableRecord
  2
ACAD_DSTYLE_DIMEXT_ENABLED
 70
     0
  0
APPID
  5
42D7
330
9
100
AcDbSymbolTableRecord
100
AcDbRegAppTableRecord
  2
ACAD_DSTYLE_DIM_EXT1_LINETYPE
 70
     0
  0
APPID
  5
42D8
330
9
100
AcDbSymbolTableRecord
100
AcDbRegAppTableRecord
  2
ACAD_DSTYLE_DIMJOGGED_JOGANGLE_SYMBOL
 70
     0
  0
APPID
  5
42D9
330
9
100
AcDbSymbolTableRecord
100
AcDbRegAppTableRecord
  2
ACAD_DSTYLE_DIMARC_LENGTH_SYMBOL
 70
     0
  0
APPID
  5
5E72
330
9
100
AcDbSymbolTableRecord
100
AcDbRegAppTableRecord
  2
AcAecLayerStandard
 70
     0
  0
APPID
  5
7C19
330
9
100
AcDbSymbolTableRecord
100
AcDbRegAppTableRecord
  2
GENIUS_GENDIM_13
 70
     0
  0
APPID
  5
7C1A
330
9
100
AcDbSymbolTableRecord
100
AcDbRegAppTableRecord
  2
GENIUS_GE3DTOL_13
 70
     0
  0
APPID
  5
7C9A
330
9
100
AcDbSymbolTableRecord
100
AcDbRegAppTableRecord
  2
ASURF_PCURVE_APPNAME
 70
     0
  0
APPID
  5
7C9F
330
9
100
AcDbSymbolTableRecord
100
AcDbRegAppTableRecord
  2
AMG_3D2D_5.0
 70
     0
  0
ENDTAB
  0
TABLE
  2
DIMSTYLE
  5
A
330
0
100
AcDbSymbolTable
 70
    16
100
AcDbDimStyleTable
 71
     3
340
81
340
8B
340
86
  0
DIMSTYLE
105
81
330
A
100
AcDbSymbolTableRecord
100
AcDbDimStyleTableRecord
  2
AM_ISO
 70
     0
  4
"
 41
3.5
 42
1.0
 43
8.0
 44
1.0
 47
0.1
 48
0.1
 73
     0
 74
     0
 77
     1
 78
     8
 79
     2
140
3.5
141
0.0
143
0.0393701
146
0.6
147
1.0
172
     1
176
   256
177
   256
178
   256
271
     2
272
     2
283
     0
284
     8
340
11
371
    -1
372
    -1
  0
DIMSTYLE
105
82
330
A
100
AcDbSymbolTableRecord
100
AcDbDimStyleTableRecord
  2
AM_ISO$3
 70
     0
  4
"
 41
3.5
 42
1.0
 43
8.0
 44
1.0
 47
0.1
 48
0.1
 73
     0
 77
     1
 78
     8
 79
     2
140
3.5
141
0.0
143
0.0393701
146
0.6
147
1.0
176
   256
177
   256
178
   256
271
     2
272
     2
283
     0
284
     8
288
     1
289
     0
340
11
371
    -1
372
    -1
  0
DIMSTYLE
105
83
330
A
100
AcDbSymbolTableRecord
100
AcDbDimStyleTableRecord
  2
AM_ISO$4
 70
     0
  4
"
 41
3.5
 42
1.0
 43
8.0
 44
1.0
 47
0.1
 48
0.1
 73
     0
 77
     1
 78
     8
 79
     2
140
3.5
141
0.0
143
0.0393701
146
0.6
147
1.0
176
   256
177
   256
178
   256
271
     2
272
     2
283
     0
284
     8
288
     1
289
     0
340
11
371
    -1
372
    -1
  0
DIMSTYLE
105
84
330
A
100
AcDbSymbolTableRecord
100
AcDbDimStyleTableRecord
  2
AM_ISO$6
 70
     0
  4
"
 41
3.5
 42
1.0
 43
8.0
 44
1.0
 47
0.1
 48
0.1
 73
     0
 74
     0
 78
     8
 79
     2
140
3.5
141
0.0
143
0.0393701
146
0.6
147
1.0
172
     1
176
   256
177
   256
178
   256
271
     2
272
     2
283
     0
284
     8
340
11
371
    -1
372
    -1
  0
DIMSTYLE
105
85
330
A
100
AcDbSymbolTableRecord
100
AcDbDimStyleTableRecord
  2
AM_ISO$7
 70
     0
  4
"
 41
3.5
 42
1.0
 43
8.0
 44
1.0
 47
0.1
 48
0.1
 73
     0
 74
     0
 77
     1
 78
     8
 79
     2
140
3.5
141
0.0
143
0.0393701
146
0.6
147
1.0
172
     1
176
   256
177
   256
178
   256
271
     2
272
     2
283
     0
284
     8
340
11
371
    -1
372
    -1
  0
DIMSTYLE
105
86
330
A
100
AcDbSymbolTableRecord
100
AcDbDimStyleTableRecord
  2
AM_ISO$SF
 70
     0
  4
"
 41
2.5
 42
1.0
 43
10.0
 44
1.0
 47
0.1
 48
0.1
 73
     0
 74
     0
 75
     1
 76
     1
 77
     1
 78
     8
 79
     2
140
3.5
141
0.0
143
0.0393701
146
0.71
147
1.5
172
     1
176
   256
177
   256
178
     2
271
     2
272
     3
274
     4
283
     0
284
     8
340
11
371
    -1
372
    -1
  0
DIMSTYLE
105
8B
330
A
100
AcDbSymbolTableRecord
100
AcDbDimStyleTableRecord
  2
AM_ISO$SH
 70
     0
  4
"
 41
2.5
 42
1.0
 43
10.0
 44
1.0
 47
0.1
 48
0.1
 73
     0
 74
     0
 75
     1
 76
     1
 77
     1
 78
     8
 79
     2
140
3.5
141
0.0
143
0.0393701
144
2.0
146
0.71
147
1.5
172
     1
173
     1
176
   256
177
   256
178
     2
271
     2
272
     3
274
     4
283
     0
284
     8
340
11
343
87
371
    -1
372
    -1
  0
DIMSTYLE
105
40B
102
{ACAD_REACTORS
330
A57E
330
A516
330
A540
330
A724
330
A67B
330
A6A1
330
A7A5
330
A77B
330
A7CB
330
A622
102
}
330
A
100
AcDbSymbolTableRecord
100
AcDbDimStyleTableRecord
  2
AM_ISO$0
 70
     0
  4
"
 41
3.5
 42
1.0
 43
8.0
 44
1.0
 47
0.1
 48
0.1
 73
     0
 74
     0
 77
     1
 78
     8
 79
     2
140
3.5
141
0.0
143
0.0393701
146
0.6
147
1.0
172
     1
176
   256
177
   256
178
   256
271
     2
272
     2
283
     0
284
     8
340
11
371
    -1
372
    -1
  0
DIMSTYLE
105
2AAB
330
A
100
AcDbSymbolTableRecord
100
AcDbDimStyleTableRecord
  2
AM_ISO$SH$3
 70
     0
  4
"
 40
1.3
 41
2.5
 42
1.0
 43
10.0
 44
1.0
 47
0.1
 48
0.1
 73
     0
 74
     0
 75
     1
 76
     1
 77
     1
 78
     8
 79
     2
140
3.5
141
0.0
143
0.0393701
144
2.0
146
0.71
147
1.5
172
     1
173
     1
176
   256
177
   256
178
     2
271
     2
272
     3
274
     4
283
     0
284
     8
340
11
343
87
371
    -1
372
    -1
  0
DIMSTYLE
105
3FD7
330
A
100
AcDbSymbolTableRecord
100
AcDbDimStyleTableRecord
  2
AM_ISO$2
 70
     0
  4
"
 41
2.5
 42
1.0
 43
10.0
 44
1.0
 47
0.1
 48
0.1
 73
     0
 74
     0
 77
     1
 78
     8
 79
     2
140
3.5
141
0.0
143
0.0393701
146
0.71
147
1.5
172
     1
176
   256
177
   256
178
     2
271
     2
272
     3
274
     4
283
     0
284
     8
340
11
371
    -1
372
    -1
  0
DIMSTYLE
105
6430
330
A
100
AcDbSymbolTableRecord
100
AcDbDimStyleTableRecord
  2
AM_ISO$SH$0
 70
     0
  4
"
 40
1.5
 41
2.5
 42
1.0
 43
10.0
 44
1.0
 47
0.1
 48
0.1
 73
     0
 74
     0
 75
     1
 76
     1
 77
     1
 78
     8
 79
     2
140
3.5
141
0.0
143
0.0393701
144
2.0
146
0.71
147
1.5
172
     1
173
     1
176
   256
177
   256
178
     2
271
     2
272
     3
274
     4
283
     0
284
     8
340
11
343
87
371
    -1
372
    -1
  0
DIMSTYLE
105
7DF9
330
A
100
AcDbSymbolTableRecord
100
AcDbDimStyleTableRecord
  2
STANDARD
 70
     0
 41
2.5
 42
0.625
 43
3.75
 44
1.25
 73
     0
 74
     0
 77
     1
 78
     8
140
2.5
141
2.5
143
0.0394
147
0.625
171
     4
172
     1
273
     8
274
     4
277
     6
340
11
  0
DIMSTYLE
105
7DFA
330
A
100
AcDbSymbolTableRecord
100
AcDbDimStyleTableRecord
  2
AM_ANSI
 70
     0
  4
mm
 41
0.1
 42
0.05
 43
0.5
 44
0.1
 47
0.1
 48
0.1
 78
     7
 79
     2
140
0.12
141
0.0
146
0.71
147
0.06
176
   256
177
   256
178
     2
274
     4
284
     7
340
11
371
    -1
372
    -1
  0
DIMSTYLE
105
7DFB
330
A
100
AcDbSymbolTableRecord
100
AcDbDimStyleTableRecord
  2
DAYUS
 70
     0
  4
"
 40
0.6666666666666666
 41
3.0
 42
2.0
 43
10.0
 44
1.0
 47
0.1
 48
0.1
 73
     0
 74
     0
 77
     1
 78
     8
 79
     2
140
3.5
141
0.0
143
0.0393701
146
0.71
147
1.5
172
     1
176
   256
177
   256
178
     3
271
     2
272
     8
283
     0
284
     8
340
7DF8
371
    -1
372
    -1
  0
DIMSTYLE
105
857F
330
A
100
AcDbSymbolTableRecord
100
AcDbDimStyleTableRecord
  2
ISO-25$0
 70
     0
 40
5.0
 41
2.5
 42
0.625
 43
3.75
 44
1.25
 73
     0
 74
     0
 77
     1
 78
     8
140
2.5
141
2.5
143
0.03937007874016
147
0.625
171
     3
172
     1
271
     2
272
     2
274
     3
278
    44
283
     0
284
     8
340
11
  0
DIMSTYLE
105
968B
330
A
100
AcDbSymbolTableRecord
100
AcDbDimStyleTableRecord
  2
ISO-25
 70
     0
 41
2.5
 42
0.625
 43
3.75
 44
1.25
 73
     0
 74
     0
 77
     1
 78
     8
140
2.5
141
2.5
143
0.03937007874016
147
0.625
171
     3
172
     1
271
     2
272
     2
274
     3
278
    44
283
     0
284
     8
340
11
  0
ENDTAB
  0
TABLE
  2
BLOCK_RECORD
  5
1
330
0
100
AcDbSymbolTable
 70
    17
  0
BLOCK_RECORD
  5
1F
102
{ACAD_XDICTIONARY
360
8F
102
}
330
1
100
AcDbSymbolTableRecord
100
AcDbBlockTableRecord
  2
*Model_Space
340
22
  0
BLOCK_RECORD
  5
1B
330
1
100
AcDbSymbolTableRecord
100
AcDbBlockTableRecord
  2
*Paper_Space
340
1E
  0
BLOCK_RECORD
  5
23
330
1
100
AcDbSymbolTableRecord
100
AcDbBlockTableRecord
  2
*Paper_Space0
340
26
  0
BLOCK_RECORD
  5
87
330
1
100
AcDbSymbolTableRecord
100
AcDbBlockTableRecord
  2
GENAXEH
340
0
  0
BLOCK_RECORD
  5
7CF2
102
{ACAD_XDICTIONARY
360
7CF3
102
}
330
1
100
AcDbSymbolTableRecord
100
AcDbBlockTableRecord
  2
S2
340
0
1001
ACAD
1000
DesignCenter Data
1002
{
1070
     1
1070
     4
1002
}
  0
BLOCK_RECORD
  5
8569
330
1
100
AcDbSymbolTableRecord
100
AcDbBlockTableRecord
  2
SW_CENTERMARKSYMBOL_0
340
0
  0
BLOCK_RECORD
  5
8574
330
1
100
AcDbSymbolTableRecord
100
AcDbBlockTableRecord
  2
SW_CENTERMARKSYMBOL_1
340
0
  0
BLOCK_RECORD
  5
A517
330
1
100
AcDbSymbolTableRecord
100
AcDbBlockTableRecord
  2
*D6
340
0
  0
BLOCK_RECORD
  5
A541
330
1
100
AcDbSymbolTableRecord
100
AcDbBlockTableRecord
  2
*D7
340
0
  0
BLOCK_RECORD
  5
A57F
330
1
100
AcDbSymbolTableRecord
100
AcDbBlockTableRecord
  2
*D8
340
0
  0
BLOCK_RECORD
  5
A623
330
1
100
AcDbSymbolTableRecord
100
AcDbBlockTableRecord
  2
*D9
340
0
  0
BLOCK_RECORD
  5
A67C
330
1
100
AcDbSymbolTableRecord
100
AcDbBlockTableRecord
  2
*D10
340
0
  0
BLOCK_RECORD
  5
A6A2
330
1
100
AcDbSymbolTableRecord
100
AcDbBlockTableRecord
  2
*D11
340
0
  0
BLOCK_RECORD
  5
A725
330
1
100
AcDbSymbolTableRecord
100
AcDbBlockTableRecord
  2
*D12
340
0
  0
BLOCK_RECORD
  5
A77C
330
1
100
AcDbSymbolTableRecord
100
AcDbBlockTableRecord
  2
*D13
340
0
  0
BLOCK_RECORD
  5
A7A6
330
1
100
AcDbSymbolTableRecord
100
AcDbBlockTableRecord
  2
*D14
340
0
  0
BLOCK_RECORD
  5
A7CC
330
1
100
AcDbSymbolTableRecord
100
AcDbBlockTableRecord
  2
*D15
340
0
  0
ENDTAB
  0
ENDSEC
  0
SECTION
  2
BLOCKS
  0
BLOCK
  5
20
330
1F
100
AcDbEntity
  8
0
100
AcDbBlockBegin
  2
*Model_Space
 70
     0
 10
0.0
 20
0.0
 30
0.0
  3
*Model_Space
  1

  0
ENDBLK
  5
21
330
1F
100
AcDbEntity
  8
0
100
AcDbBlockEnd
  0
BLOCK
  5
1C
330
1B
100
AcDbEntity
 67
     1
  8
0
100
AcDbBlockBegin
  2
*Paper_Space
 70
     0
 10
0.0
 20
0.0
 30
0.0
  3
*Paper_Space
  1

  0
ENDBLK
  5
1D
330
1B
100
AcDbEntity
 67
     1
  8
0
100
AcDbBlockEnd
  0
BLOCK
  5
24
330
23
100
AcDbEntity
  8
0
100
AcDbBlockBegin
  2
*Paper_Space0
 70
     0
 10
0.0
 20
0.0
 30
0.0
  3
*Paper_Space0
  1

  0
ENDBLK
  5
25
330
23
100
AcDbEntity
  8
0
100
AcDbBlockEnd
  0
BLOCK
  5
89
330
87
100
AcDbEntity
  8
0
100
AcDbBlockBegin
  2
GENAXEH
 70
     0
 10
0.0
 20
0.0
 30
0.0
  3
GENAXEH
  1

  0
LINE
  5
88
330
87
100
AcDbEntity
  8
0
100
AcDbLine
 10
-1.0
 20
0.0
 30
0.0
 11
1.0
 21
0.0
 31
0.0
  0
ENDBLK
  5
8A
330
87
100
AcDbEntity
  8
0
100
AcDbBlockEnd
  0
BLOCK
  5
7CF4
330
7CF2
100
AcDbEntity
  8
0
100
AcDbBlockBegin
  2
S2
 70
     0
 10
0.0
 20
0.0
 30
0.0
  3
S2
  1

  0
LINE
  5
7CF5
330
7CF2
100
AcDbEntity
  8
AM_5
100
AcDbLine
 10
0.0000000000000284
 20
4.000000000000028
 30
0.0
 11
4.0
 21
4.0
 31
0.0
  0
LINE
  5
7CF6
330
7CF2
100
AcDbEntity
  8
AM_5
100
AcDbLine
 10
0.0000000000000284
 20
0.0
 30
0.0
 11
4.0
 21
0.0
 31
0.0
  0
TEXT
  5
7CF7
330
7CF2
100
AcDbEntity
  8
AM_5
100
AcDbText
 10
1.099999999999999
 20
0.5
 30
0.0
 40
3.0
  1
2
 41
0.9
  7
DAYUS
 72
     4
 11
2.0
 21
2.0
 31
0.0
100
AcDbText
  0
LINE
  5
7CF8
330
7CF2
100
AcDbEntity
  8
AM_5
100
AcDbLine
 10
0.0
 20
4.0
 30
0.0
 11
0.0
 21
0.0
 31
0.0
  0
LINE
  5
7CF9
330
7CF2
100
AcDbEntity
  8
AM_5
100
AcDbLine
 10
4.0
 20
4.0
 30
0.0
 11
4.0
 21
0.0
 31
0.0
  0
ENDBLK
  5
7CFA
330
7CF2
100
AcDbEntity
  8
0
100
AcDbBlockEnd
  0
BLOCK
  5
856A
330
8569
100
AcDbEntity
  8
0
100
AcDbBlockBegin
  2
SW_CENTERMARKSYMBOL_0
 70
     0
 10
0.0
 20
0.0
 30
0.0
  3
SW_CENTERMARKSYMBOL_0
  1

  0
LINE
  5
856B
330
8569
100
AcDbEntity
  8
0
  6
Continuous
 62
     0
370
     0
100
AcDbLine
 10
0.0
 20
0.0
 30
0.0
 11
0.0
 21
2.500000000000002
 31
0.0
  0
LINE
  5
856C
330
8569
100
AcDbEntity
  8
0
  6
Continuous
 62
     0
370
     0
100
AcDbLine
 10
0.0
 20
0.0
 30
0.0
 11
-2.500000000000002
 21
0.0
 31
0.0
  0
LINE
  5
856D
330
8569
100
AcDbEntity
  8
0
  6
Continuous
 62
     0
370
     0
100
AcDbLine
 10
0.0
 20
0.0
 30
0.0
 11
0.0
 21
-2.500000000000002
 31
0.0
  0
LINE
  5
856E
330
8569
100
AcDbEntity
  8
0
  6
Continuous
 62
     0
370
     0
100
AcDbLine
 10
0.0
 20
0.0
 30
0.0
 11
2.500000000000002
 21
0.0
 31
0.0
  0
LINE
  5
856F
330
8569
100
AcDbEntity
  8
0
  6
Continuous
 62
     0
370
     0
100
AcDbLine
 10
0.0
 20
2.500000000000002
 30
0.0
 11
0.0
 21
4.500000000000003
 31
0.0
  0
LINE
  5
8570
330
8569
100
AcDbEntity
  8
0
  6
Continuous
 62
     0
370
     0
100
AcDbLine
 10
-2.500000000000002
 20
0.0
 30
0.0
 11
-4.500000000000003
 21
0.0
 31
0.0
  0
LINE
  5
8571
330
8569
100
AcDbEntity
  8
0
  6
Continuous
 62
     0
370
     0
100
AcDbLine
 10
0.0
 20
-2.500000000000002
 30
0.0
 11
0.0
 21
-4.500000000000003
 31
0.0
  0
LINE
  5
8572
330
8569
100
AcDbEntity
  8
0
  6
Continuous
 62
     0
370
     0
100
AcDbLine
 10
2.500000000000002
 20
0.0
 30
0.0
 11
4.500000000000003
 21
0.0
 31
0.0
  0
ENDBLK
  5
8573
330
8569
100
AcDbEntity
  8
0
100
AcDbBlockEnd
  0
BLOCK
  5
8575
330
8574
100
AcDbEntity
  8
0
100
AcDbBlockBegin
  2
SW_CENTERMARKSYMBOL_1
 70
     0
 10
0.0
 20
0.0
 30
0.0
  3
SW_CENTERMARKSYMBOL_1
  1

  0
LINE
  5
8576
330
8574
100
AcDbEntity
  8
0
  6
Continuous
 62
     0
370
     0
100
AcDbLine
 10
0.0
 20
0.0
 30
0.0
 11
0.0
 21
2.500000000000002
 31
0.0
  0
LINE
  5
8577
330
8574
100
AcDbEntity
  8
0
  6
Continuous
 62
     0
370
     0
100
AcDbLine
 10
0.0
 20
0.0
 30
0.0
 11
-2.500000000000002
 21
0.0
 31
0.0
  0
LINE
  5
8578
330
8574
100
AcDbEntity
  8
0
  6
Continuous
 62
     0
370
     0
100
AcDbLine
 10
0.0
 20
0.0
 30
0.0
 11
0.0
 21
-2.500000000000002
 31
0.0
  0
LINE
  5
8579
330
8574
100
AcDbEntity
  8
0
  6
Continuous
 62
     0
370
     0
100
AcDbLine
 10
0.0
 20
0.0
 30
0.0
 11
2.500000000000002
 21
0.0
 31
0.0
  0
LINE
  5
857A
330
8574
100
AcDbEntity
  8
0
  6
Continuous
 62
     0
370
     0
100
AcDbLine
 10
0.0
 20
5.000000000000004
 30
0.0
 11
0.0
 21
5.500000000000005
 31
0.0
  0
LINE
  5
857B
330
8574
100
AcDbEntity
  8
0
  6
Continuous
 62
     0
370
     0
100
AcDbLine
 10
-5.000000000000004
 20
0.0
 30
0.0
 11
-5.500000000000005
 21
0.0
 31
0.0
  0
LINE
  5
857C
330
8574
100
AcDbEntity
  8
0
  6
Continuous
 62
     0
370
     0
100
AcDbLine
 10
0.0
 20
-5.000000000000004
 30
0.0
 11
0.0
 21
-5.500000000000005
 31
0.0
  0
LINE
  5
857D
330
8574
100
AcDbEntity
  8
0
  6
Continuous
 62
     0
370
     0
100
AcDbLine
 10
5.000000000000004
 20
0.0
 30
0.0
 11
5.500000000000005
 21
0.0
 31
0.0
  0
ENDBLK
  5
857E
330
8574
100
AcDbEntity
  8
0
100
AcDbBlockEnd
  0
BLOCK
  5
A523
330
A517
100
AcDbEntity
  8
0
100
AcDbBlockBegin
  2
*D6
 70
     1
 10
0.0
 20
0.0
 30
0.0
  3
*D6
  1

  0
LINE
  5
BCD7
330
A517
100
AcDbEntity
  8
AM_REFDIM
100
AcDbLine
 10
707.6149861812972
 20
108.7296861275236
 30
0.0
 11
707.6149861812972
 21
94.95587297071409
 31
0.0
  0
LINE
  5
BCD8
330
A517
100
AcDbEntity
  8
AM_REFDIM
100
AcDbLine
 10
721.8149857913296
 20
108.7296837821474
 30
0.0
 11
721.8149857913296
 21
94.95587297071409
 31
0.0
  0
LINE
  5
BCD9
330
A517
100
AcDbEntity
  8
AM_REFDIM
100
AcDbLine
 10
711.1354080714344
 20
95.96170779646758
 30
0.0
 11
718.2945639011924
 21
95.96170779646758
 31
0.0
  0
SOLID
  5
BCDA
330
A517
100
AcDbEntity
  8
AM_REFDIM
100
AcDbTrace
 10
711.1354080714344
 20
96.54844477815711
 30
0.0
 11
711.1354080714344
 21
95.37497081477805
 31
0.0
 12
707.6149861812972
 22
95.96170779646758
 32
0.0
 13
707.6149861812972
 23
95.96170779646758
 33
0.0
  0
SOLID
  5
BCDB
330
A517
100
AcDbEntity
  8
AM_REFDIM
100
AcDbTrace
 10
718.2945639011924
 20
96.54844477815711
 30
0.0
 11
718.2945639011924
 21
95.37497081477805
 31
0.0
 12
721.8149857913296
 22
95.96170779646758
 32
0.0
 13
721.8149857913296
 23
95.96170779646758
 33
0.0
  0
MTEXT
  5
BCDC
330
A517
100
AcDbEntity
  8
AM_REFDIM
100
AcDbMText
 10
714.7149860237033
 20
98.7281000655072
 30
0.0
 40
3.520421890137194
 41
0.0
 71
     5
 72
     1
  1
14.2
 73
     1
 44
1.0
1001
ACAD
1000
MTEXTBEGIN
1070
    73
1070
     1
1070
    44
1040
1.0
1070
    74
1070
     0
1000
MTEXTEND
  0
POINT
  5
BCDD
330
A517
100
AcDbEntity
  8
Defpoints
 62
     0
100
AcDbPoint
 10
707.6149861812972
 20
109.7355209532771
 30
0.0
  0
POINT
  5
BCDE
330
A517
100
AcDbEntity
  8
Defpoints
 62
     0
100
AcDbPoint
 10
721.8149857913296
 20
109.7355186079009
 30
0.0
  0
POINT
  5
BCDF
330
A517
100
AcDbEntity
  8
Defpoints
 62
     0
100
AcDbPoint
 10
721.8149857913296
 20
95.96170779646758
 30
0.0
  0
ENDBLK
  5
A524
330
A517
100
AcDbEntity
  8
0
100
AcDbBlockEnd
  0
BLOCK
  5
A54B
330
A541
100
AcDbEntity
  8
0
100
AcDbBlockBegin
  2
*D7
 70
     1
 10
0.0
 20
0.0
 30
0.0
  3
*D7
  1

  0
LINE
  5
BCE0
330
A541
100
AcDbEntity
  8
AM_REFDIM
100
AcDbLine
 10
701.2149860463808
 20
106.1475534200563
 30
0.0
 11
701.2149860463808
 21
86.02372843609435
 31
0.0
  0
LINE
  5
BCE1
330
A541
100
AcDbEntity
  8
AM_REFDIM
100
AcDbLine
 10
728.2149848469884
 20
106.1475531606379
 30
0.0
 11
728.2149848469884
 21
86.02372843609435
 31
0.0
  0
LINE
  5
BCE2
330
A541
100
AcDbEntity
  8
AM_REFDIM
100
AcDbLine
 10
704.735407936518
 20
87.02956326184784
 30
0.0
 11
724.6945629568512
 21
87.02956326184784
 31
0.0
  0
SOLID
  5
BCE3
330
A541
100
AcDbEntity
  8
AM_REFDIM
100
AcDbTrace
 10
704.735407936518
 20
87.61630024353737
 30
0.0
 11
704.735407936518
 21
86.44282628015831
 31
0.0
 12
701.2149860463808
 22
87.02956326184784
 32
0.0
 13
701.2149860463808
 23
87.02956326184784
 33
0.0
  0
SOLID
  5
BCE4
330
A541
100
AcDbEntity
  8
AM_REFDIM
100
AcDbTrace
 10
724.6945629568512
 20
87.61630024353737
 30
0.0
 11
724.6945629568512
 21
86.44282628015831
 31
0.0
 12
728.2149848469884
 22
87.02956326184784
 32
0.0
 13
728.2149848469884
 23
87.02956326184784
 33
0.0
  0
MTEXT
  5
BCE5
330
A541
100
AcDbEntity
  8
AM_REFDIM
100
AcDbMText
 10
714.7149854466846
 20
89.79595553088746
 30
0.0
 40
3.520421890137194
 41
0.0
 71
     5
 72
     1
  1
27
 73
     1
 44
1.0
1001
ACAD
1000
MTEXTBEGIN
1070
    73
1070
     1
1070
    44
1040
1.0
1070
    74
1070
     0
1000
MTEXTEND
  0
POINT
  5
BCE6
330
A541
100
AcDbEntity
  8
Defpoints
 62
     0
100
AcDbPoint
 10
701.2149860463808
 20
107.1533882458098
 30
0.0
  0
POINT
  5
BCE7
330
A541
100
AcDbEntity
  8
Defpoints
 62
     0
100
AcDbPoint
 10
728.2149848469884
 20
107.1533879863914
 30
0.0
  0
POINT
  5
BCE8
330
A541
100
AcDbEntity
  8
Defpoints
 62
     0
100
AcDbPoint
 10
728.2149848469884
 20
87.02956326184784
 30
0.0
  0
ENDBLK
  5
A54C
330
A541
100
AcDbEntity
  8
0
100
AcDbBlockEnd
  0
BLOCK
  5
A589
330
A57F
100
AcDbEntity
  8
0
100
AcDbBlockBegin
  2
*D8
 70
     1
 10
0.0
 20
0.0
 30
0.0
  3
*D8
  1

  0
LINE
  5
BCE9
330
A57F
100
AcDbEntity
  8
AM_REFDIM
100
AcDbLine
 10
772.3681515316894
 20
159.2288529550932
 30
0.0
 11
792.1223963642181
 21
159.2288529550932
 31
0.0
  0
LINE
  5
BCEA
330
A57F
100
AcDbEntity
  8
AM_REFDIM
100
AcDbLine
 10
729.2208196727418
 20
107.1533879863914
 30
0.0
 11
792.1223963642181
 21
107.1533879863914
 31
0.0
  0
LINE
  5
BCEB
330
A57F
100
AcDbEntity
  8
AM_REFDIM
100
AcDbLine
 10
791.1165615384646
 20
155.708431064956
 30
0.0
 11
791.1165615384646
 21
110.6738098765286
 31
0.0
  0
SOLID
  5
BCEC
330
A57F
100
AcDbEntity
  8
AM_REFDIM
100
AcDbTrace
 10
790.5298245567751
 20
155.708431064956
 30
0.0
 11
791.7032985201542
 21
155.708431064956
 31
0.0
 12
791.1165615384646
 22
159.2288529550932
 32
0.0
 13
791.1165615384646
 23
159.2288529550932
 33
0.0
  0
SOLID
  5
BCED
330
A57F
100
AcDbEntity
  8
AM_REFDIM
100
AcDbTrace
 10
790.5298245567751
 20
110.6738098765286
 30
0.0
 11
791.7032985201542
 21
110.6738098765286
 31
0.0
 12
791.1165615384646
 22
107.1533879863914
 32
0.0
 13
791.1165615384646
 23
107.1533879863914
 33
0.0
  0
MTEXT
  5
BCEE
330
A57F
100
AcDbEntity
  8
AM_REFDIM
100
AcDbMText
 10
788.350169269425
 20
138.2288523828638
 30
0.0
 40
3.520421890137194
 41
0.0
 71
     5
 72
     1
  1
52
 11
0.0000000000000001
 21
1.0
 31
0.0
 73
     1
 44
1.0
1001
ACAD
1000
MTEXTBEGIN
1070
    73
1070
     1
1070
    44
1040
1.0
1070
    74
1070
     0
1000
MTEXTEND
  0
POINT
  5
BCEF
330
A57F
100
AcDbEntity
  8
Defpoints
 62
     0
100
AcDbPoint
 10
771.362316705936
 20
159.2288529550932
 30
0.0
  0
POINT
  5
BCF0
330
A57F
100
AcDbEntity
  8
Defpoints
 62
     0
100
AcDbPoint
 10
728.2149848469884
 20
107.1533879863914
 30
0.0
  0
POINT
  5
BCF1
330
A57F
100
AcDbEntity
  8
Defpoints
 62
     0
100
AcDbPoint
 10
791.1165615384646
 20
107.1533879863914
 30
0.0
  0
ENDBLK
  5
A58A
330
A57F
100
AcDbEntity
  8
0
100
AcDbBlockEnd
  0
BLOCK
  5
A62D
330
A623
100
AcDbEntity
  8
0
100
AcDbBlockBegin
  2
*D9
 70
     1
 10
0.0
 20
0.0
 30
0.0
  3
*D9
  1

  0
LINE
  5
BCF2
330
A623
100
AcDbEntity
  8
AM_REFDIM
100
AcDbLine
 10
820.3823024144488
 20
209.147773964403
 30
0.0
 11
820.3823024144488
 21
221.394534463626
 31
0.0
  0
LINE
  5
BCF3
330
A623
100
AcDbEntity
  8
AM_REFDIM
100
AcDbLine
 10
885.3823012223559
 20
209.7303136020697
 30
0.0
 11
885.3823012223559
 21
221.394534463626
 31
0.0
  0
LINE
  5
BCF4
330
A623
100
AcDbEntity
  8
AM_REFDIM
100
AcDbLine
 10
823.902724304586
 20
220.3886996378725
 30
0.0
 11
881.8618793322187
 21
220.3886996378725
 31
0.0
  0
SOLID
  5
BCF5
330
A623
100
AcDbEntity
  8
AM_REFDIM
100
AcDbTrace
 10
823.902724304586
 20
220.9754366195621
 30
0.0
 11
823.902724304586
 21
219.801962656183
 31
0.0
 12
820.3823024144488
 22
220.3886996378725
 32
0.0
 13
820.3823024144488
 23
220.3886996378725
 33
0.0
  0
SOLID
  5
BCF6
330
A623
100
AcDbEntity
  8
AM_REFDIM
100
AcDbTrace
 10
881.8618793322187
 20
220.9754366195621
 30
0.0
 11
881.8618793322187
 21
219.801962656183
 31
0.0
 12
885.3823012223559
 22
220.3886996378725
 32
0.0
 13
885.3823012223559
 23
220.3886996378725
 33
0.0
  0
MTEXT
  5
BCF7
330
A623
100
AcDbEntity
  8
AM_REFDIM
100
AcDbMText
 10
852.8823018184024
 20
223.1547454086946
 30
0.0
 40
3.520421890137194
 41
0.0
 71
     5
 72
     1
  1
65
 73
     1
 44
1.0
1001
ACAD
1000
MTEXTBEGIN
1070
    73
1070
     1
1070
    44
1040
1.0
1070
    74
1070
     0
1000
MTEXTEND
  0
POINT
  5
BCF8
330
A623
100
AcDbEntity
  8
Defpoints
 62
     0
100
AcDbPoint
 10
820.3823024144488
 20
208.1419391386496
 30
0.0
  0
POINT
  5
BCF9
330
A623
100
AcDbEntity
  8
Defpoints
 62
     0
100
AcDbPoint
 10
885.3823012223559
 20
208.7244787763163
 30
0.0
  0
POINT
  5
BCFA
330
A623
100
AcDbEntity
  8
Defpoints
 62
     0
100
AcDbPoint
 10
885.3823012223559
 20
220.3886996378725
 30
0.0
  0
ENDBLK
  5
A62E
330
A623
100
AcDbEntity
  8
0
100
AcDbBlockEnd
  0
BLOCK
  5
A686
330
A67C
100
AcDbEntity
  8
0
100
AcDbBlockBegin
  2
*D10
 70
     1
 10
0.0
 20
0.0
 30
0.0
  3
*D10
  1

  0
LINE
  5
BCFB
330
A67C
100
AcDbEntity
  8
AM_REFDIM
100
AcDbLine
 10
885.8881387601208
 20
209.2288516914879
 30
0.0
 11
895.4607696709569
 21
209.2288516914879
 31
0.0
  0
LINE
  5
BCFC
330
A67C
100
AcDbEntity
  8
AM_REFDIM
100
AcDbLine
 10
885.8881372402027
 20
109.2288529550935
 30
0.0
 11
895.4607696709569
 21
109.2288529550935
 31
0.0
  0
LINE
  5
BCFD
330
A67C
100
AcDbEntity
  8
AM_REFDIM
100
AcDbLine
 10
894.4549348452033
 20
205.7084298013507
 30
0.0
 11
894.4549348452033
 21
112.7492748452307
 31
0.0
  0
SOLID
  5
BCFE
330
A67C
100
AcDbEntity
  8
AM_REFDIM
100
AcDbTrace
 10
893.8681978635138
 20
205.7084298013507
 30
0.0
 11
895.0416718268929
 21
205.7084298013507
 31
0.0
 12
894.4549348452033
 22
209.2288516914879
 32
0.0
 13
894.4549348452033
 23
209.2288516914879
 33
0.0
  0
SOLID
  5
BCFF
330
A67C
100
AcDbEntity
  8
AM_REFDIM
100
AcDbTrace
 10
893.8681978635138
 20
112.7492748452307
 30
0.0
 11
895.0416718268929
 21
112.7492748452307
 31
0.0
 12
894.4549348452033
 22
109.2288529550935
 32
0.0
 13
894.4549348452033
 23
109.2288529550935
 33
0.0
  0
MTEXT
  5
BD00
330
A67C
100
AcDbEntity
  8
AM_REFDIM
100
AcDbMText
 10
891.6888890743813
 20
159.2288523232907
 30
0.0
 40
3.520421890137194
 41
0.0
 71
     5
 72
     1
  1
100
 11
0.0000000000000001
 21
1.0
 31
0.0
 73
     1
 44
1.0
1001
ACAD
1000
MTEXTBEGIN
1070
    73
1070
     1
1070
    44
1040
1.0
1070
    74
1070
     0
1000
MTEXTEND
  0
POINT
  5
BD01
330
A67C
100
AcDbEntity
  8
Defpoints
 62
     0
100
AcDbPoint
 10
884.8823039343672
 20
209.2288516914879
 30
0.0
  0
POINT
  5
BD02
330
A67C
100
AcDbEntity
  8
Defpoints
 62
     0
100
AcDbPoint
 10
884.8823024144492
 20
109.2288529550935
 30
0.0
  0
POINT
  5
BD03
330
A67C
100
AcDbEntity
  8
Defpoints
 62
     0
100
AcDbPoint
 10
894.4549348452033
 20
109.2288529550935
 30
0.0
  0
ENDBLK
  5
A687
330
A67C
100
AcDbEntity
  8
0
100
AcDbBlockEnd
  0
BLOCK
  5
A6AC
330
A6A2
100
AcDbEntity
  8
0
100
AcDbBlockBegin
  2
*D11
 70
     1
 10
0.0
 20
0.0
 30
0.0
  3
*D11
  1

  0
LINE
  5
BD04
330
A6A2
100
AcDbEntity
  8
AM_REFDIM
100
AcDbLine
 10
885.3823024144492
 20
108.72301812934
 30
0.0
 11
885.3823024144492
 21
98.3870593587846
 31
0.0
  0
LINE
  5
BD05
330
A6A2
100
AcDbEntity
  8
AM_REFDIM
100
AcDbLine
 10
839.8823021462282
 20
106.1475528055074
 30
0.0
 11
839.8823021462282
 21
98.3870593587846
 31
0.0
  0
LINE
  5
BD06
330
A6A2
100
AcDbEntity
  8
AM_REFDIM
100
AcDbLine
 10
881.861880524312
 20
99.39289418453808
 30
0.0
 11
843.4027240363654
 21
99.39289418453808
 31
0.0
  0
SOLID
  5
BD07
330
A6A2
100
AcDbEntity
  8
AM_REFDIM
100
AcDbTrace
 10
881.861880524312
 20
99.97963116622761
 30
0.0
 11
881.861880524312
 21
98.80615720284856
 31
0.0
 12
885.3823024144492
 22
99.39289418453808
 32
0.0
 13
885.3823024144492
 23
99.39289418453808
 33
0.0
  0
SOLID
  5
BD08
330
A6A2
100
AcDbEntity
  8
AM_REFDIM
100
AcDbTrace
 10
843.4027240363654
 20
99.97963116622761
 30
0.0
 11
843.4027240363654
 21
98.80615720284856
 31
0.0
 12
839.8823021462282
 22
99.39289418453808
 32
0.0
 13
839.8823021462282
 23
99.39289418453808
 33
0.0
  0
MTEXT
  5
BD09
330
A6A2
100
AcDbEntity
  8
AM_REFDIM
100
AcDbMText
 10
862.6323022803388
 20
102.1589399553601
 30
0.0
 40
3.520421890137194
 41
0.0
 71
     5
 72
     1
  1
46
 73
     1
 44
1.0
1001
ACAD
1000
MTEXTBEGIN
1070
    73
1070
     1
1070
    44
1040
1.0
1070
    74
1070
     0
1000
MTEXTEND
  0
POINT
  5
BD0A
330
A6A2
100
AcDbEntity
  8
Defpoints
 62
     0
100
AcDbPoint
 10
885.3823024144492
 20
109.7288529550935
 30
0.0
  0
POINT
  5
BD0B
330
A6A2
100
AcDbEntity
  8
Defpoints
 62
     0
100
AcDbPoint
 10
839.8823021462282
 20
107.1533876312609
 30
0.0
  0
POINT
  5
BD0C
330
A6A2
100
AcDbEntity
  8
Defpoints
 62
     0
100
AcDbPoint
 10
839.8823021462282
 20
99.39289418453808
 30
0.0
  0
ENDBLK
  5
A6AD
330
A6A2
100
AcDbEntity
  8
0
100
AcDbBlockEnd
  0
BLOCK
  5
A731
330
A725
100
AcDbEntity
  8
0
100
AcDbBlockBegin
  2
*D12
 70
     1
 10
0.0
 20
0.0
 30
0.0
  3
*D12
  1

  0
LINE
  5
BD0D
330
A725
100
AcDbEntity
  8
AM_REFDIM
100
AcDbLine
 10
818.3823032787163
 20
180.2346862899332
 30
0.0
 11
818.3823032787163
 21
221.394534463626
 31
0.0
  0
LINE
  5
BD0E
330
A725
100
AcDbEntity
  8
AM_REFDIM
100
AcDbLine
 10
820.3823024144487
 20
209.1477739644031
 30
0.0
 11
820.3823024144487
 21
221.394534463626
 31
0.0
  0
LINE
  5
BD0F
330
A725
100
AcDbEntity
  8
AM_REFDIM
100
AcDbLine
 10
814.8618813885791
 20
220.3886996378725
 30
0.0
 11
811.3414594984419
 21
220.3886996378725
 31
0.0
  0
LINE
  5
BD10
330
A725
100
AcDbEntity
  8
AM_REFDIM
100
AcDbLine
 10
823.9027243045859
 20
220.3886996378725
 30
0.0
 11
827.4231461947231
 21
220.3886996378725
 31
0.0
  0
LINE
  5
BD11
330
A725
100
AcDbEntity
  8
AM_REFDIM
100
AcDbLine
 10
818.3823032787163
 20
220.3886996378725
 30
0.0
 11
820.3823024144487
 21
220.3886996378725
 31
0.0
  0
SOLID
  5
BD12
330
A725
100
AcDbEntity
  8
AM_REFDIM
100
AcDbTrace
 10
814.8618813885791
 20
220.9754366195621
 30
0.0
 11
814.8618813885791
 21
219.801962656183
 31
0.0
 12
818.3823032787163
 22
220.3886996378725
 32
0.0
 13
818.3823032787163
 23
220.3886996378725
 33
0.0
  0
SOLID
  5
BD13
330
A725
100
AcDbEntity
  8
AM_REFDIM
100
AcDbTrace
 10
823.9027243045859
 20
220.9754366195621
 30
0.0
 11
823.9027243045859
 21
219.801962656183
 31
0.0
 12
820.3823024144487
 22
220.3886996378725
 32
0.0
 13
820.3823024144487
 23
220.3886996378725
 33
0.0
  0
MTEXT
  5
BD14
330
A725
100
AcDbEntity
  8
AM_REFDIM
100
AcDbMText
 10
819.3823028465825
 20
223.1550919069122
 30
0.0
 40
3.520421890137194
 41
0.0
 71
     5
 72
     1
  1
2
 73
     1
 44
1.0
1001
ACAD
1000
MTEXTBEGIN
1070
    73
1070
     1
1070
    44
1040
1.0
1070
    74
1070
     0
1000
MTEXTEND
  0
POINT
  5
BD15
330
A725
100
AcDbEntity
  8
Defpoints
 62
     0
100
AcDbPoint
 10
818.3823032787163
 20
179.2288514641797
 30
0.0
  0
POINT
  5
BD16
330
A725
100
AcDbEntity
  8
Defpoints
 62
     0
100
AcDbPoint
 10
820.3823024144487
 20
208.1419391386496
 30
0.0
  0
POINT
  5
BD17
330
A725
100
AcDbEntity
  8
Defpoints
 62
     0
100
AcDbPoint
 10
820.3823024144487
 20
220.3886996378725
 30
0.0
  0
ENDBLK
  5
A732
330
A725
100
AcDbEntity
  8
0
100
AcDbBlockEnd
  0
BLOCK
  5
A788
330
A77C
100
AcDbEntity
  8
0
100
AcDbBlockBegin
  2
*D13
 70
     1
 10
0.0
 20
0.0
 30
0.0
  3
*D13
  1

  0
LINE
  5
BD18
330
A77C
100
AcDbEntity
  8
AM_REFDIM
100
AcDbLine
 10
715.7208208971957
 20
133.1533871635902
 30
0.0
 11
770.6016295440369
 21
133.1533871635902
 31
0.0
  0
LINE
  5
BD19
330
A77C
100
AcDbEntity
  8
AM_REFDIM
100
AcDbLine
 10
715.7208208971957
 20
123.1533871635902
 30
0.0
 11
770.6016295440369
 21
123.1533871635902
 31
0.0
  0
LINE
  5
BD1A
330
A77C
100
AcDbEntity
  8
AM_REFDIM
100
AcDbLine
 10
769.5957947182834
 20
129.632965273453
 30
0.0
 11
769.5957947182834
 21
126.6738090537274
 31
0.0
  0
SOLID
  5
BD1B
330
A77C
100
AcDbEntity
  8
AM_REFDIM
100
AcDbTrace
 10
769.0090577365938
 20
129.632965273453
 30
0.0
 11
770.1825316999729
 21
129.632965273453
 31
0.0
 12
769.5957947182834
 22
133.1533871635902
 32
0.0
 13
769.5957947182834
 23
133.1533871635902
 33
0.0
  0
SOLID
  5
BD1C
330
A77C
100
AcDbEntity
  8
AM_REFDIM
100
AcDbTrace
 10
769.0090577365938
 20
126.6738090537274
 30
0.0
 11
770.1825316999729
 21
126.6738090537274
 31
0.0
 12
769.5957947182834
 22
123.1533871635902
 32
0.0
 13
769.5957947182834
 23
123.1533871635902
 33
0.0
  0
MTEXT
  5
BD1D
330
A77C
100
AcDbEntity
  8
AM_REFDIM
100
AcDbMText
 10
766.8297489474613
 20
128.1533871635902
 30
0.0
 40
3.520421890137194
 41
0.0
 71
     5
 72
     1
  1
10
 11
0.0000000000000001
 21
1.0
 31
0.0
 73
     1
 44
1.0
1001
ACAD
1000
MTEXTBEGIN
1070
    73
1070
     1
1070
    44
1040
1.0
1070
    74
1070
     0
1000
MTEXTEND
  0
POINT
  5
BD1E
330
A77C
100
AcDbEntity
  8
Defpoints
 62
     0
100
AcDbPoint
 10
714.7149860714422
 20
133.1533871635902
 30
0.0
  0
POINT
  5
BD1F
330
A77C
100
AcDbEntity
  8
Defpoints
 62
     0
100
AcDbPoint
 10
714.7149860714422
 20
123.1533871635902
 30
0.0
  0
POINT
  5
BD20
330
A77C
100
AcDbEntity
  8
Defpoints
 62
     0
100
AcDbPoint
 10
769.5957947182834
 20
123.1533871635902
 30
0.0
  0
ENDBLK
  5
A789
330
A77C
100
AcDbEntity
  8
0
100
AcDbBlockEnd
  0
BLOCK
  5
A7B0
330
A7A6
100
AcDbEntity
  8
0
100
AcDbBlockBegin
  2
*D14
 70
     1
 10
0.0
 20
0.0
 30
0.0
  3
*D14
  1

  0
LINE
  5
BD21
330
A7A6
100
AcDbEntity
  8
AM_REFDIM
100
AcDbLine
 10
715.7208208971957
 20
133.1533871635902
 30
0.0
 11
779.4209865584709
 21
133.1533871635902
 31
0.0
  0
LINE
  5
BD22
330
A7A6
100
AcDbEntity
  8
AM_REFDIM
100
AcDbLine
 10
715.7208208971957
 20
113.1533871635902
 30
0.0
 11
779.4209865584709
 21
113.1533871635902
 31
0.0
  0
LINE
  5
BD23
330
A7A6
100
AcDbEntity
  8
AM_REFDIM
100
AcDbLine
 10
778.4151517327174
 20
129.632965273453
 30
0.0
 11
778.4151517327174
 21
116.6738090537274
 31
0.0
  0
SOLID
  5
BD24
330
A7A6
100
AcDbEntity
  8
AM_REFDIM
100
AcDbTrace
 10
777.8284147510277
 20
129.632965273453
 30
0.0
 11
779.001888714407
 21
129.632965273453
 31
0.0
 12
778.4151517327174
 22
133.1533871635902
 32
0.0
 13
778.4151517327174
 23
133.1533871635902
 33
0.0
  0
SOLID
  5
BD25
330
A7A6
100
AcDbEntity
  8
AM_REFDIM
100
AcDbTrace
 10
777.8284147510277
 20
116.6738090537274
 30
0.0
 11
779.001888714407
 21
116.6738090537274
 31
0.0
 12
778.4151517327174
 22
113.1533871635902
 32
0.0
 13
778.4151517327174
 23
113.1533871635902
 33
0.0
  0
MTEXT
  5
BD26
330
A7A6
100
AcDbEntity
  8
AM_REFDIM
100
AcDbMText
 10
775.6487594636777
 20
123.1533871635902
 30
0.0
 40
3.520421890137194
 41
0.0
 71
     5
 72
     1
  1
20
 11
0.0000000000000001
 21
1.0
 31
0.0
 73
     1
 44
1.0
1001
ACAD
1000
MTEXTBEGIN
1070
    73
1070
     1
1070
    44
1040
1.0
1070
    74
1070
     0
1000
MTEXTEND
  0
POINT
  5
BD27
330
A7A6
100
AcDbEntity
  8
Defpoints
 62
     0
100
AcDbPoint
 10
714.7149860714422
 20
133.1533871635902
 30
0.0
  0
POINT
  5
BD28
330
A7A6
100
AcDbEntity
  8
Defpoints
 62
     0
100
AcDbPoint
 10
714.7149860714422
 20
113.1533871635902
 30
0.0
  0
POINT
  5
BD29
330
A7A6
100
AcDbEntity
  8
Defpoints
 62
     0
100
AcDbPoint
 10
778.4151517327174
 20
113.1533871635902
 30
0.0
  0
ENDBLK
  5
A7B1
330
A7A6
100
AcDbEntity
  8
0
100
AcDbBlockEnd
  0
BLOCK
  5
A7D8
330
A7CC
100
AcDbEntity
  8
0
100
AcDbBlockBegin
  2
*D15
 70
     1
 10
0.0
 20
0.0
 30
0.0
  3
*D15
  1

  0
LINE
  5
BD2A
330
A7CC
100
AcDbEntity
  8
AM_REFDIM
100
AcDbLine
 10
715.7208208971958
 20
113.1533871635902
 30
0.0
 11
779.420986558471
 21
113.1533871635902
 31
0.0
  0
LINE
  5
BD2B
330
A7CC
100
AcDbEntity
  8
AM_REFDIM
100
AcDbLine
 10
729.2208196727418
 20
107.1533879863914
 30
0.0
 11
779.420986558471
 21
107.1533879863914
 31
0.0
  0
LINE
  5
BD2C
330
A7CC
100
AcDbEntity
  8
AM_REFDIM
100
AcDbLine
 10
778.4151517327175
 20
116.6738090537274
 30
0.0
 11
778.4151517327175
 21
120.1942309438645
 31
0.0
  0
LINE
  5
BD2D
330
A7CC
100
AcDbEntity
  8
AM_REFDIM
100
AcDbLine
 10
778.4151517327175
 20
103.6329660962542
 30
0.0
 11
778.4151517327175
 21
100.112544206117
 31
0.0
  0
LINE
  5
BD2E
330
A7CC
100
AcDbEntity
  8
AM_REFDIM
100
AcDbLine
 10
778.4151517327175
 20
113.1533871635902
 30
0.0
 11
778.4151517327175
 21
107.1533879863914
 31
0.0
  0
SOLID
  5
BD2F
330
A7CC
100
AcDbEntity
  8
AM_REFDIM
100
AcDbTrace
 10
777.8284147510279
 20
116.6738090537274
 30
0.0
 11
779.001888714407
 21
116.6738090537274
 31
0.0
 12
778.4151517327175
 22
113.1533871635902
 32
0.0
 13
778.4151517327175
 23
113.1533871635902
 33
0.0
  0
SOLID
  5
BD30
330
A7CC
100
AcDbEntity
  8
AM_REFDIM
100
AcDbTrace
 10
777.8284147510279
 20
103.6329660962542
 30
0.0
 11
779.001888714407
 21
103.6329660962542
 31
0.0
 12
778.4151517327175
 22
107.1533879863914
 32
0.0
 13
778.4151517327175
 23
107.1533879863914
 33
0.0
  0
MTEXT
  5
BD31
330
A7CC
100
AcDbEntity
  8
AM_REFDIM
100
AcDbMText
 10
775.6491059618954
 20
110.1533875749909
 30
0.0
 40
3.520421890137194
 41
0.0
 71
     5
 72
     1
  1
6
 11
0.0000000000000001
 21
1.0
 31
0.0
 73
     1
 44
1.0
1001
ACAD
1000
MTEXTBEGIN
1070
    73
1070
     1
1070
    44
1040
1.0
1070
    74
1070
     0
1000
MTEXTEND
  0
POINT
  5
BD32
330
A7CC
100
AcDbEntity
  8
Defpoints
 62
     0
100
AcDbPoint
 10
714.7149860714423
 20
113.1533871635902
 30
0.0
  0
POINT
  5
BD33
330
A7CC
100
AcDbEntity
  8
Defpoints
 62
     0
100
AcDbPoint
 10
728.2149848469884
 20
107.1533879863914
 30
0.0
  0
POINT
  5
BD34
330
A7CC
100
AcDbEntity
  8
Defpoints
 62
     0
100
AcDbPoint
 10
778.4151517327175
 20
107.1533879863914
 30
0.0
  0
ENDBLK
  5
A7D9
330
A7CC
100
AcDbEntity
  8
0
100
AcDbBlockEnd
  0
ENDSEC
  0
SECTION
  2
ENTITIES
  0
TEXT
  5
1599
330
1F
100
AcDbEntity
  8
LOGO
 62
     7
100
AcDbText
 10
685.7432508194457
 20
64.82126354193482
 30
0.0
 40
2.90261965031674
  1
Order example:
 41
0.8
  7
CHINESET
100
AcDbText
  0
TEXT
  5
159A
330
1F
100
AcDbEntity
  8
LOGO
 62
     7
100
AcDbText
 10
686.2640047884005
 20
68.90755101451357
 30
0.0
 40
4.353929475475112
  1
訂購代號：
  7
CHINESET
100
AcDbText
  0
LINE
  5
159B
330
1F
100
AcDbEntity
  8
LOGO
 62
     4
100
AcDbLine
 10
684.4820527362632
 20
52.58852823838303
 30
0.0
 11
684.4820527362632
 21
74.35817561575873
 31
0.0
  0
TEXT
  5
159C
330
1F
100
AcDbEntity
  8
LOGO
  6
Continuous
100
AcDbText
 10
644.4085837004485
 20
56.86514261240609
 30
0.0
 40
3.265447106606334
  1
金器工業股份有限公司
  7
CHINESET
100
AcDbText
  0
TEXT
  5
159D
330
1F
100
AcDbEntity
  8
LOGO
  6
Continuous
100
AcDbText
 10
638.4106034024638
 20
53.59905573418784
 30
0.0
 40
2.176964737737556
  1
MINDMAN INDUSTRIAL CO., LTD.
 41
0.85
  7
CHINESET
100
AcDbText
  0
LINE
  5
159E
330
1F
100
AcDbEntity
  8
LOGO
 62
     4
100
AcDbLine
 10
684.4820527362632
 20
70.00424614028358
 30
0.0
 11
652.5532365827788
 21
70.00424614028358
 31
0.0
  0
LINE
  5
159F
330
1F
100
AcDbEntity
  8
LOGO
 62
     4
100
AcDbLine
 10
684.4820527362632
 20
65.65031666480845
 30
0.0
 11
652.5532365827788
 21
65.65031666480845
 31
0.0
  0
LINE
  5
15A0
330
1F
100
AcDbEntity
  8
LOGO
 62
     4
100
AcDbLine
 10
684.4820527362632
 20
61.29638718933355
 30
0.0
 11
636.5888285060369
 21
61.29638718933355
 31
0.0
  0
LINE
  5
15A1
330
1F
100
AcDbEntity
  8
LOGO
 62
     4
100
AcDbLine
 10
652.5532365827788
 20
61.29638718933355
 30
0.0
 11
652.5532365827788
 21
74.35817561575873
 31
0.0
  0
TEXT
  5
15A2
330
1F
100
AcDbEntity
  8
LOGO
100
AcDbText
 10
674.3750754065177
 20
62.38486955820197
 30
0.0
 40
2.176964737737556
  1
mm
  7
CHINESET
 72
     1
 11
677.0703650818119
 21
63.47335192707075
 31
0.0
100
AcDbText
 73
     2
  0
TEXT
  5
15A3
330
1F
100
AcDbEntity
  8
LOGO
100
AcDbText
 10
673.2347605438933
 20
71.09272850915225
 30
0.0
 40
2.176964737737556
  1
1 : 1
  7
CHINESET
 72
     1
 11
677.0703650818119
 21
72.18121087802103
 31
0.0
100
AcDbText
 73
     2
  0
LINE
  5
15A4
330
1F
100
AcDbEntity
  8
LOGO
 62
     4
100
AcDbLine
 10
669.9689544846795
 20
61.29638718933355
 30
0.0
 11
669.9689544846795
 21
74.35817561575873
 31
0.0
  0
TEXT
  5
15A5
330
1F
100
AcDbEntity
  8
LOGO
100
AcDbText
 10
654.3482606321544
 20
71.09379985006651
 30
142.6746825714206
 40
2.176964737737556
  1
比例 Scale:
 41
0.9
  7
CHINESET
 72
     4
 11
661.2610955337292
 21
72.18121087802103
 31
142.6746825714206
100
AcDbText
  0
TEXT
  5
15A6
330
1F
100
AcDbEntity
  8
LOGO
100
AcDbText
 10
654.2228907878829
 20
66.7694215281425
 30
142.6746825714206
 40
2.176964737737556
  1
投影  View:
 41
0.9
  7
CHINESET
 72
     4
 11
661.2610955337292
 21
67.82728140254589
 31
142.6746825714206
100
AcDbText
  0
TEXT
  5
15A7
330
1F
100
AcDbEntity
  8
LOGO
100
AcDbText
 10
654.4357279653671
 20
62.38486955820197
 30
142.6746825714206
 40
2.176964737737556
  1
單位  Unit:
 41
0.9
  7
CHINESET
 72
     4
 11
661.2610955337292
 21
63.47335192707075
 31
142.6746825714206
100
AcDbText
  0
LWPOLYLINE
  5
15A8
330
1F
100
AcDbEntity
  8
LOGO
 62
     4
100
AcDbPolyline
 90
        4
 70
     1
 43
0.0
 10
636.5888285060369
 20
74.35817561575871
 10
917.4037161399448
 20
74.35817561575873
 10
917.4037161399448
 20
237.6586793623644
 10
636.5888285060369
 20
237.6586793623644
1001
GENIUS_GENREC_14
1002
{
1000
PYDIR
1011
636.5888285060369
1021
237.6586793623644
1031
0.0
1002
}
1002
{
1000
PXDIR
1011
917.4037161399448
1021
74.35817561575873
1031
0.0
1002
}
1002
{
1000
PORI
1011
636.5888285060369
1021
74.35817561575871
1031
0.0
1002
}
1002
{
1000
PINS
1011
636.5888285060369
1021
74.35817561575871
1031
0.0
1002
}
1002
{
1000
PINS2
1011
917.4037161399448
1021
237.6586793623644
1031
0.0
1002
}
1002
{
1000
C
1070
     1
1002
}
1001
GENIUS_GENODEF_13
1002
{
1000
HIER
1070
     0
1002
}
1002
{
1000
MANEDIT
1070
     0
1002
}
1002
{
1000
NOSEL
1070
     0
1002
}
1002
{
1000
BEHIND
1070
     0
1002
}
1002
{
1000
OTHER
1070
     0
1002
}
1002
{
1000
REACTOR
1002
}
1001
GENIUS_GENOBJ-N-REC_13
1002
{
1000
OWNER
1000
GEN
1002
}
  0
SOLID
  5
15A9
330
1F
100
AcDbEntity
  8
LOGO
 62
     5
100
AcDbTrace
 10
638.8474643590662
 20
64.91528119929225
 30
0.0
 11
639.7887267881092
 21
64.91528119929199
 31
0.0
 12
643.7160631299781
 22
73.84104561263123
 32
0.0
 13
644.6573255590216
 23
73.84104561263076
 33
0.0
  0
SOLID
  5
15AA
330
1F
100
AcDbEntity
  8
LOGO
 62
     5
100
AcDbTrace
 10
640.1782146897832
 20
64.91528119929225
 30
0.0
 11
641.1194771188262
 21
64.91528119929225
 31
0.0
 12
644.6573255590216
 22
73.12698445956377
 32
0.0
 13
643.7160631299781
 23
69.67568888640602
 33
0.0
  0
SOLID
  5
15AB
330
1F
100
AcDbEntity
  8
LOGO
 62
     2
100
AcDbTrace
 10
639.7887267881092
 20
64.91528119929199
 30
0.0
 11
640.1782146897832
 21
64.91528119929225
 31
0.0
 12
644.6573255590216
 22
73.84104561263076
 32
0.0
 13
645.0468134606949
 23
73.84104561263076
 33
0.0
  0
SOLID
  5
15AC
330
1F
100
AcDbEntity
  8
LOGO
 62
     5
100
AcDbTrace
 10
637.3383898594881
 20
61.66954868535109
 30
0.0
 11
637.6629631108826
 21
61.66954868535109
 31
0.0
 12
638.5769866495714
 22
63.29241494232153
 32
0.0
 13
638.9015599009649
 23
63.29241494232153
 33
0.0
  0
SOLID
  5
15AD
330
1F
100
AcDbEntity
  8
LOGO
 62
     5
100
AcDbTrace
 10
638.5769866495714
 20
63.29241494232153
 30
0.0
 11
638.9015599009649
 21
63.29241494232153
 31
0.0
 12
638.5769866495714
 22
61.66954868535109
 32
0.0
 13
638.9015599009649
 23
61.66954868535109
 33
0.0
  0
SOLID
  5
15AE
330
1F
100
AcDbEntity
  8
LOGO
 62
     5
100
AcDbTrace
 10
638.5769866495714
 20
61.66954868535109
 30
0.0
 11
638.9015599009649
 21
61.66954868535109
 31
0.0
 12
639.8155834396551
 22
63.29241494232153
 32
0.0
 13
640.140156691049
 23
63.29241494232153
 33
0.0
  0
SOLID
  5
15AF
330
1F
100
AcDbEntity
  8
LOGO
 62
     5
100
AcDbTrace
 10
639.8155834396551
 20
63.29241494232153
 30
0.0
 11
640.140156691049
 21
63.29241494232153
 31
0.0
 12
639.8155834396551
 22
61.66954868535109
 32
0.0
 13
640.140156691049
 23
61.66954868535109
 33
0.0
  0
POLYLINE
  5
15B0
330
1F
100
AcDbEntity
  8
LOGO
 62
     5
100
AcDb2dPolyline
 66
     1
 10
0.0
 20
0.0
 30
0.0
 40
0.325093400835475
 41
0.325093400835475
  0
VERTEX
  5
15B1
330
15B0
100
AcDbEntity
  8
LOGO
 62
     5
100
AcDbVertex
100
AcDb2dVertex
 10
650.695168259115
 20
62.64326843953331
 30
0.0
 42
1.0
  0
VERTEX
  5
15B2
330
15B0
100
AcDbEntity
  8
LOGO
 62
     5
100
AcDbVertex
100
AcDb2dVertex
 10
649.7198880566083
 20
62.64326843953331
 30
0.0
 42
1.0
  0
SEQEND
  5
15B3
330
15B0
100
AcDbEntity
  8
LOGO
 62
     5
  0
POLYLINE
  5
15B4
330
1F
100
AcDbEntity
  8
LOGO
 62
     5
100
AcDb2dPolyline
 66
     1
 10
0.0
 20
0.0
 30
0.0
 70
     1
  0
VERTEX
  5
15B5
330
15B4
100
AcDbEntity
  8
LOGO
 62
     5
100
AcDbVertex
100
AcDb2dVertex
 10
647.8814414944198
 20
62.48098181383606
 30
0.0
 42
1.000000057330635
  0
VERTEX
  5
15B6
330
15B4
100
AcDbEntity
  8
LOGO
 62
     5
100
AcDbVertex
100
AcDb2dVertex
 10
648.8551612486022
 20
62.48098181383606
 30
0.0
 42
1.000000057330635
  0
SEQEND
  5
15B7
330
15B4
100
AcDbEntity
  8
LOGO
 62
     5
  0
CIRCLE
  5
15B8
330
1F
100
AcDbEntity
  8
LOGO
 62
     5
100
AcDbCircle
 10
648.3683013715117
 20
62.48098181383606
 30
0.0
 40
0.4868598770912075
  0
POLYLINE
  5
15B9
330
1F
100
AcDbEntity
  8
LOGO
 62
     5
100
AcDb2dPolyline
 66
     1
 10
0.0
 20
0.0
 30
0.0
 70
     1
 40
0.325093400835475
 41
0.325093400835475
  0
VERTEX
  5
15BA
330
15B9
100
AcDbEntity
  8
LOGO
 62
     5
100
AcDbVertex
100
AcDb2dVertex
 10
647.7181145698402
 20
62.48098181383606
 30
0.0
 42
1.0
  0
VERTEX
  5
15BB
330
15B9
100
AcDbEntity
  8
LOGO
 62
     5
100
AcDbVertex
100
AcDb2dVertex
 10
649.0184881731822
 20
62.48098181383606
 30
0.0
 42
1.0
  0
SEQEND
  5
15BC
330
15B9
100
AcDbEntity
  8
LOGO
 62
     5
  0
LINE
  5
15BD
330
1F
100
AcDbEntity
  8
LOGO
100
AcDbLine
 10
650.8566746606493
 20
61.66954868535109
 30
0.0
 11
650.8566746606493
 21
62.64326843953331
 31
0.0
  0
SOLID
  5
15BE
330
1F
100
AcDbEntity
  8
LOGO
 62
     5
100
AcDbTrace
 10
648.8551287912785
 20
63.29241494232153
 30
0.0
 11
649.179702042672
 21
63.29241494232153
 31
0.0
 12
648.8551287912785
 22
61.66954868535109
 32
0.0
 13
649.179702042672
 23
61.66954868535109
 33
0.0
  0
SOLID
  5
15BF
330
1F
100
AcDbEntity
  8
LOGO
 62
     5
100
AcDbTrace
 10
649.5583816550729
 20
61.66954868535109
 30
0.0
 11
649.8829549064672
 21
61.66954868535109
 31
0.0
 12
649.5583816550729
 22
63.29241494232153
 32
0.0
 13
649.8829549064672
 23
63.29241494232153
 33
0.0
  0
SOLID
  5
15C0
330
1F
100
AcDbEntity
  8
LOGO
 62
     5
100
AcDbTrace
 10
650.5321014092559
 20
62.64326843953331
 30
0.0
 11
650.8566746606493
 21
62.64326843953331
 31
0.0
 12
650.5321014092559
 22
61.66954868535109
 32
0.0
 13
650.8566746606493
 23
61.66954868535109
 33
0.0
  0
SOLID
  5
15C1
330
1F
100
AcDbEntity
  8
LOGO
 62
     5
100
AcDbTrace
 10
649.5259243299334
 20
73.12698445956377
 30
0.0
 11
648.584661900891
 21
69.67568888640602
 31
0.0
 12
649.5259243299334
 22
64.91528119929199
 32
0.0
 13
648.584661900891
 23
64.91528119929199
 33
0.0
  0
SOLID
  5
15C2
330
1F
100
AcDbEntity
  8
LOGO
 62
     5
100
AcDbTrace
 10
649.9154122316069
 20
64.91528119929199
 30
0.0
 11
650.8566746606493
 21
64.91528119929199
 31
0.0
 12
649.9154122316069
 22
73.84104561263076
 32
0.0
 13
650.8566746606493
 23
73.84104561263123
 33
0.0
  0
SOLID
  5
15C3
330
1F
100
AcDbEntity
  8
LOGO
 62
     2
100
AcDbTrace
 10
649.5259243299334
 20
73.84104561263123
 30
0.0
 11
649.9154122316069
 21
73.84104561263076
 31
0.0
 12
649.5259243299334
 22
64.91528119929199
 32
0.0
 13
649.9154122316069
 23
64.91528119929199
 33
0.0
  0
POLYLINE
  5
15C4
330
1F
100
AcDbEntity
  8
LOGO
 62
     5
100
AcDb2dPolyline
 66
     1
 10
0.0
 20
0.0
 30
0.0
 40
0.325093400835475
 41
0.325093400835475
  0
VERTEX
  5
15C5
330
15C4
100
AcDbEntity
  8
LOGO
 62
     5
100
AcDbVertex
100
AcDb2dVertex
 10
646.0429300175823
 20
62.64326843953331
 30
0.0
 42
1.0
  0
VERTEX
  5
15C6
330
15C4
100
AcDbEntity
  8
LOGO
 62
     5
100
AcDbVertex
100
AcDb2dVertex
 10
645.0676498150756
 20
62.64326843953331
 30
0.0
 42
1.0
  0
SEQEND
  5
15C7
330
15C4
100
AcDbEntity
  8
LOGO
 62
     5
  0
POLYLINE
  5
15C8
330
1F
100
AcDbEntity
  8
LOGO
 62
     5
100
AcDb2dPolyline
 66
     1
 10
0.0
 20
0.0
 30
0.0
 40
0.325093400835475
 41
0.325093400835475
  0
VERTEX
  5
15C9
330
15C8
100
AcDbEntity
  8
LOGO
 62
     5
100
AcDbVertex
100
AcDb2dVertex
 10
647.0166497717638
 20
62.64326843953331
 30
0.0
 42
1.0
  0
VERTEX
  5
15CA
330
15C8
100
AcDbEntity
  8
LOGO
 62
     5
100
AcDbVertex
100
AcDb2dVertex
 10
646.0413695692578
 20
62.64326843953331
 30
0.0
 42
1.0
  0
SEQEND
  5
15CB
330
15C8
100
AcDbEntity
  8
LOGO
 62
     5
  0
POLYLINE
  5
15CC
330
1F
100
AcDbEntity
  8
LOGO
 62
     5
100
AcDb2dPolyline
 66
     1
 10
0.0
 20
0.0
 30
0.0
 40
0.325093400835475
 41
0.325093400835475
  0
VERTEX
  5
15CD
330
15CC
100
AcDbEntity
  8
LOGO
 62
     5
100
AcDbVertex
100
AcDb2dVertex
 10
642.3644115302311
 20
62.64326843953331
 30
0.0
 42
1.0
  0
VERTEX
  5
15CE
330
15CC
100
AcDbEntity
  8
LOGO
 62
     5
100
AcDbVertex
100
AcDb2dVertex
 10
641.3891313277249
 20
62.64326843953331
 30
0.0
 42
1.0
  0
SEQEND
  5
15CF
330
15CC
100
AcDbEntity
  8
LOGO
 62
     5
  0
SOLID
  5
15D0
330
1F
100
AcDbEntity
  8
LOGO
 62
     5
100
AcDbTrace
 10
641.2276249261902
 20
63.29241494232153
 30
0.0
 11
641.5521981775838
 21
63.29241494232153
 31
0.0
 12
641.2276249261902
 22
61.66954868535109
 32
0.0
 13
641.5521981775838
 23
61.66954868535109
 33
0.0
  0
SOLID
  5
15D1
330
1F
100
AcDbEntity
  8
LOGO
 62
     5
100
AcDbTrace
 10
642.2013446803724
 20
62.64326843953331
 30
0.0
 11
642.5259179317671
 21
62.64326843953331
 31
0.0
 12
642.2013446803724
 22
61.66954868535109
 32
0.0
 13
642.5259179317671
 23
61.66954868535109
 33
0.0
  0
POLYLINE
  5
15D2
330
1F
100
AcDbEntity
  8
LOGO
 62
     5
100
AcDb2dPolyline
 66
     1
 10
0.0
 20
0.0
 30
0.0
 70
     1
 40
0.325093400835475
 41
0.325093400835475
  0
VERTEX
  5
15D3
330
15D2
100
AcDbEntity
  8
LOGO
 62
     5
100
AcDbVertex
100
AcDb2dVertex
 10
643.0658763283072
 20
62.48098181383606
 30
0.0
 42
1.0
  0
VERTEX
  5
15D4
330
15D2
100
AcDbEntity
  8
LOGO
 62
     5
100
AcDbVertex
100
AcDb2dVertex
 10
644.3662499316494
 20
62.48098181383606
 30
0.0
 42
1.0
  0
SEQEND
  5
15D5
330
15D2
100
AcDbEntity
  8
LOGO
 62
     5
  0
SOLID
  5
15D6
330
1F
100
AcDbEntity
  8
LOGO
 62
     5
100
AcDbTrace
 10
644.2028905497446
 20
63.77927481941303
 30
0.0
 11
644.5274638011389
 21
63.77927481941303
 31
0.0
 12
644.2028905497446
 22
61.66954868535109
 32
0.0
 13
644.5274638011389
 23
61.66954868535109
 33
0.0
  0
SOLID
  5
15D7
330
1F
100
AcDbEntity
  8
LOGO
 62
     5
100
AcDbTrace
 10
644.9061434135411
 20
63.29241494232153
 30
0.0
 11
645.2307166649347
 21
63.29241494232153
 31
0.0
 12
644.9061434135411
 22
61.66954868535109
 32
0.0
 13
645.2307166649347
 23
61.66954868535109
 33
0.0
  0
SOLID
  5
15D8
330
1F
100
AcDbEntity
  8
LOGO
 62
     5
100
AcDbTrace
 10
645.8798631677228
 20
62.64326843953331
 30
0.0
 11
646.2044364191172
 21
62.64326843953331
 31
0.0
 12
645.8798631677228
 22
61.66954868535109
 32
0.0
 13
646.2044364191172
 23
61.66954868535109
 33
0.0
  0
SOLID
  5
15D9
330
1F
100
AcDbEntity
  8
LOGO
 62
     5
100
AcDbTrace
 10
646.8535829219052
 20
62.64326843953331
 30
0.0
 11
647.1781561732991
 21
62.64326843953331
 31
0.0
 12
646.8535829219052
 22
61.66954868535059
 32
0.0
 13
647.1781561732991
 23
61.66954868535059
 33
0.0
  0
SOLID
  5
15DA
330
1F
100
AcDbEntity
  8
LOGO
 62
     5
100
AcDbTrace
 10
640.5243720623943
 20
63.51961621829754
 30
0.0
 11
640.8489453137891
 21
63.51961621829754
 31
0.0
 12
640.5243720623943
 22
63.77927481941303
 32
0.0
 13
640.8489453137891
 23
63.77927481941303
 33
0.0
  0
SOLID
  5
15DB
330
1F
100
AcDbEntity
  8
LOGO
 62
     5
100
AcDbTrace
 10
640.5243720623943
 20
63.29241494232153
 30
0.0
 11
640.8489453137891
 21
63.29241494232153
 31
0.0
 12
640.5243720623943
 22
61.66954868535059
 32
0.0
 13
640.8489453137891
 23
61.66954868535109
 33
0.0
  0
SOLID
  5
15DC
330
1F
100
AcDbEntity
  8
LOGO
 62
     5
100
AcDbTrace
 10
643.7160631299781
 20
64.91528119929225
 30
0.0
 11
644.6573255590216
 21
64.91528119929225
 31
0.0
 12
643.7160631299781
 22
69.67568888640602
 32
0.0
 13
644.6573255590216
 23
73.12698445956377
 33
0.0
  0
SOLID
  5
15DD
330
1F
100
AcDbEntity
  8
LOGO
 62
     5
100
AcDbTrace
 10
645.0468134606949
 20
73.84104561263076
 30
0.0
 11
645.9880758897376
 21
73.84104561263123
 31
0.0
 12
645.0468134606949
 22
65.62934235235923
 32
0.0
 13
645.9880758897376
 23
69.08063792551697
 33
0.0
  0
SOLID
  5
15DE
330
1F
100
AcDbEntity
  8
LOGO
 62
     2
100
AcDbTrace
 10
644.6573255590216
 20
73.84104561263076
 30
0.0
 11
645.0468134606949
 21
73.84104561263076
 31
0.0
 12
644.6573255590216
 22
64.91528119929225
 32
0.0
 13
645.0468134606949
 23
64.91528119929225
 33
0.0
  0
SOLID
  5
15DF
330
1F
100
AcDbEntity
  8
LOGO
 62
     5
100
AcDbTrace
 10
645.0468134606949
 20
65.62934235235923
 30
0.0
 11
645.9880758897376
 21
69.08063792551697
 31
0.0
 12
649.5259243299334
 22
73.84104561263123
 32
0.0
 13
648.584661900891
 23
73.84104561263123
 33
0.0
  0
SOLID
  5
15E0
330
1F
100
AcDbEntity
  8
LOGO
 62
     5
100
AcDbTrace
 10
645.0468134606949
 20
64.91528119929225
 30
0.0
 11
645.9880758897376
 21
64.91528119929225
 31
0.0
 12
649.5259243299334
 22
73.12698445956377
 32
0.0
 13
648.584661900891
 23
69.67568888640602
 33
0.0
  0
SOLID
  5
15E1
330
1F
100
AcDbEntity
  8
LOGO
 62
     2
100
AcDbTrace
 10
644.6573255590216
 20
64.91528119929225
 30
0.0
 11
645.0468134606949
 21
64.91528119929225
 31
0.0
 12
649.5259243299334
 22
73.84104561263123
 32
0.0
 13
649.9154122316069
 23
73.84104561263076
 33
0.0
  0
LWPOLYLINE
  5
15E2
330
1F
100
AcDbEntity
  8
LOGO
 62
     4
100
AcDbPolyline
 90
        4
 70
     1
 43
0.0
 10
636.5888285060369
 20
74.35817561575871
 10
917.4037161399448
 20
74.35817561575873
 10
917.4037161399448
 20
52.58852823838278
 10
636.5888285060369
 20
52.58852823838278
1001
GENIUS_GENREC_14
1002
{
1000
PYDIR
1011
636.5888285060369
1021
52.58852823838278
1031
0.0
1002
}
1002
{
1000
PXDIR
1011
917.4037161399448
1021
74.35817561575873
1031
0.0
1002
}
1002
{
1000
PORI
1011
636.5888285060369
1021
74.35817561575871
1031
0.0
1002
}
1002
{
1000
PINS
1011
636.5888285060369
1021
74.35817561575871
1031
0.0
1002
}
1002
{
1000
PINS2
1011
917.4037161399448
1021
52.58852823838278
1031
0.0
1002
}
1002
{
1000
C
1070
     1
1002
}
1001
GENIUS_GENOBJ-N-REC_13
1002
{
1000
OWNER
1000
GEN
1002
}
1001
GENIUS_GENODEF_13
1002
{
1000
HIER
1070
     0
1002
}
1002
{
1000
MANEDIT
1070
     0
1002
}
1002
{
1000
NOSEL
1070
     0
1002
}
1002
{
1000
BEHIND
1070
     0
1002
}
1002
{
1000
OTHER
1070
     0
1002
}
1002
{
1000
REACTOR
1002
}
  0
LINE
  5
15E3
330
1F
100
AcDbEntity
  8
LOGO
 62
     4
100
AcDbLine
 10
731.2236208850057
 20
62.3848695582024
 30
0.0
 11
731.2236208850057
 21
54.40266551983095
 31
0.0
  0
LINE
  5
15E4
330
1F
100
AcDbEntity
  8
LOGO
 62
     4
100
AcDbLine
 10
721.5537830043548
 20
62.3848695582024
 30
0.0
 11
721.5537830043548
 21
54.40266551983095
 31
0.0
  0
LINE
  5
15E5
330
1F
100
AcDbEntity
  8
LOGO
 62
     4
100
AcDbLine
 10
731.2236208850057
 20
54.40266551983095
 30
0.0
 11
721.5537830043548
 21
54.40266551983095
 31
0.0
  0
LINE
  5
15E6
330
1F
100
AcDbEntity
  8
LOGO
 62
     4
100
AcDbLine
 10
738.3416186085043
 20
72.18121087802103
 30
0.0
 11
714.4252365178441
 21
72.18121087802103
 31
0.0
  0
LINE
  5
15E7
330
1F
100
AcDbEntity
  8
LOGO
 62
     4
100
AcDbLine
 10
738.3416186085043
 20
65.65031666480845
 30
0.0
 11
714.4252365178441
 21
65.65031666480845
 31
0.0
  0
LINE
  5
15E8
330
1F
100
AcDbEntity
  8
LOGO
 62
     4
100
AcDbLine
 10
714.4252365178441
 20
72.18121087802103
 30
0.0
 11
714.4252365178441
 21
65.65031666480845
 31
0.0
  0
LINE
  5
15E9
330
1F
100
AcDbEntity
  8
LOGO
 62
     4
100
AcDbLine
 10
738.3416186085043
 20
72.18121087802103
 30
0.0
 11
738.3416186085043
 21
65.65031666480845
 31
0.0
  0
LINE
  5
15EA
330
1F
100
AcDbEntity
  8
LOGO
 62
     4
100
AcDbLine
 10
726.4261579304767
 20
65.65031666480845
 30
0.0
 11
726.4261579304767
 21
62.3848695582024
 31
0.0
  0
TEXT
  5
15EB
330
1F
100
AcDbEntity
  8
LOGO
  6
Continuous
100
AcDbText
 10
717.655453979963
 20
67.01363128365021
 30
0.0
 40
3.810239999999999
  1
MCHGF
  7
CHINESET
100
AcDbText
  0
LINE
  5
15EC
330
1F
100
AcDbEntity
  8
LOGO
 62
     4
100
AcDbLine
 10
731.2236208850057
 20
62.3848695582024
 30
0.0
 11
721.5537830043548
 21
62.3848695582024
 31
0.0
  0
TEXT
  5
15ED
330
1F
100
AcDbEntity
  8
LOGO
  6
Continuous
100
AcDbText
 10
724.0535367484567
 20
55.52933669319018
 30
142.6746825714206
 40
1.632959999999999
  1
Model
 41
0.8
  7
CHINESET
100
AcDbText
  0
TEXT
  5
15EE
330
1F
100
AcDbEntity
  8
LOGO
100
AcDbText
 10
723.6188958807214
 20
58.55649260519239
 30
142.6746825714206
 40
2.721599999999999
  1
型號
  7
CHINESET
100
AcDbText
  0
TEXT
  5
15F0
330
1F
100
AcDbEntity
  8
LOGO
100
AcDbText
 10
685.4907164423083
 20
53.74666488651757
 30
0.0
 40
2.177279999999999
  1
01206190
 41
0.7
  7
CHINESET
 72
     1
 11
690.7887644423083
 21
53.74666488651757
 31
0.0
100
AcDbText
  0
LINE
  5
15F1
330
1F
100
AcDbEntity
  8
LOGO
 62
     4
100
AcDbLine
 10
697.5457327362623
 20
56.94245771385866
 30
0.0
 11
697.5457327362633
 21
52.58852823838328
 31
0.0
  0
LINE
  5
15F2
330
1F
100
AcDbEntity
  8
LOGO
 62
     4
100
AcDbLine
 10
697.5457327362623
 20
56.94245771385866
 30
0.0
 11
684.4820527362632
 21
56.94245771385866
 31
0.0
  0
CIRCLE
  5
15F3
330
1F
100
AcDbEntity
  8
LOGO
  6
Continuous
100
AcDbCircle
 10
673.9998769870454
 20
67.83193794605073
 30
0.0
 40
1.263996966704251
  0
CIRCLE
  5
15F4
330
1F
100
AcDbEntity
  8
LOGO
  6
Continuous
100
AcDbCircle
 10
673.9998769870454
 20
67.83193794605073
 30
0.0
 40
0.7405903271681157
  0
LINE
  5
15F5
330
1F
100
AcDbEntity
  8
LOGO
100
AcDbLine
 10
681.9429805938207
 20
66.56794097934623
 30
0.0
 11
681.9429805938207
 21
69.09593491275522
 31
0.0
  0
LINE
  5
15F6
330
1F
100
AcDbEntity
  8
LOGO
100
AcDbLine
 10
677.9804226600909
 20
67.09134761888275
 30
0.0
 11
677.9804226600909
 21
68.57252827321897
 31
0.0
  0
LINE
  5
15F7
330
1F
100
AcDbEntity
  8
LOGO
  6
Continuous
100
AcDbLine
 10
677.9804226600909
 20
68.57252827321897
 30
0.0
 11
681.9429805938207
 21
69.09593491275522
 31
0.0
  0
LINE
  5
15F8
330
1F
100
AcDbEntity
  8
LOGO
  6
Continuous
100
AcDbLine
 10
677.9804226600909
 20
67.09134761888275
 30
0.0
 11
681.9429805938207
 21
66.56794097934623
 31
0.0
  0
LINE
  5
15F9
330
1F
100
AcDbEntity
  8
LOGO
  6
AM_ISO08W050x2
 48
0.3
100
AcDbLine
 10
672.2574382415796
 20
67.83193794605073
 30
0.0
 11
675.7423157325115
 21
67.83193794605073
 31
0.0
1001
GENIUS_GENOREF_13
1005
16B6
  0
LINE
  5
15FA
330
1F
100
AcDbEntity
  8
LOGO
  6
AM_ISO08W050x2
 48
0.3
100
AcDbLine
 10
673.9998769870454
 20
66.08949920058474
 30
0.0
 11
673.9998769870454
 21
69.57437669151672
 31
0.0
1001
GENIUS_GENOREF_13
1005
16B5
  0
LINE
  5
15FB
330
1F
100
AcDbEntity
  8
LOGO
  6
CENTER
 48
0.5
100
AcDbLine
 10
677.6635281641748
 20
67.83193794605073
 30
0.0
 11
682.341997350286
 21
67.83193794605073
 31
0.0
1001
GENIUS_GENOREF_13
1005
16B4
  0
POINT
  5
16B4
330
1F
100
AcDbEntity
  8
0
 60
     1
100
AcDbPoint
 10
-1930.92695728958
 20
-494.9154325062304
 30
0.0
1001
GENIUS_GENOBJ-N-CRS_13
1002
{
1000
OWNER
1000
GEN
1002
}
1001
GENIUS_GENOLIS_13
1002
{
1000
ENT
1005
0
1005
0
1005
0
1005
15FB
1002
}
1001
GENIUS_GENOENT_13
1002
{
1000
MYREF
1005
16B4
1002
}
1002
{
1000
GRP
1005
0
1002
}
1001
GENIUS_GENODEF_13
1002
{
1000
HIER
1070
    10
1002
}
1002
{
1000
MANEDIT
1070
     1
1002
}
1002
{
1000
NOSEL
1070
     0
1002
}
1002
{
1000
BEHIND
1070
     0
1002
}
1002
{
1000
OTHER
1070
     0
1002
}
1002
{
1000
REACTOR
1002
}
  0
POINT
  5
16B5
330
1F
100
AcDbEntity
  8
0
 60
     1
100
AcDbPoint
 10
-1942.251542512434
 20
-486.0398460275941
 30
0.0
1001
GENIUS_GENOBJ-N-CRS_13
1002
{
1000
OWNER
1000
GEN
1002
}
1001
GENIUS_GENOLIS_13
1002
{
1000
ENT
1005
0
1005
0
1005
0
1005
15FA
1002
}
1001
GENIUS_GENOENT_13
1002
{
1000
MYREF
1005
16B5
1002
}
1002
{
1000
GRP
1005
0
1002
}
1001
GENIUS_GENODEF_13
1002
{
1000
HIER
1070
    10
1002
}
1002
{
1000
MANEDIT
1070
     1
1002
}
1002
{
1000
NOSEL
1070
     0
1002
}
1002
{
1000
BEHIND
1070
     0
1002
}
1002
{
1000
OTHER
1070
     0
1002
}
1002
{
1000
REACTOR
1002
}
  0
POINT
  5
16B6
330
1F
100
AcDbEntity
  8
0
 60
     1
100
AcDbPoint
 10
-1935.892868814597
 20
-494.9154325062304
 30
0.0
1001
GENIUS_GENOBJ-N-CRS_13
1002
{
1000
OWNER
1000
GEN
1002
}
1001
GENIUS_GENOLIS_13
1002
{
1000
ENT
1005
0
1005
0
1005
0
1005
15F9
1002
}
1001
GENIUS_GENOENT_13
1002
{
1000
MYREF
1005
16B6
1002
}
1002
{
1000
GRP
1005
0
1002
}
1001
GENIUS_GENODEF_13
1002
{
1000
HIER
1070
    10
1002
}
1002
{
1000
MANEDIT
1070
     1
1002
}
1002
{
1000
NOSEL
1070
     0
1002
}
1002
{
1000
BEHIND
1070
     0
1002
}
1002
{
1000
OTHER
1070
     0
1002
}
1002
{
1000
REACTOR
1002
}
  0
MTEXT
  5
7BA1
330
1F
100
AcDbEntity
  8
AM_VIS
100
AcDbMText
 10
315.4333775501655
 20
376.163241097652
 30
0.0
 40
3.5
 41
0.0
 71
     9
 72
     1
  1

 73
     1
 44
1.0
1001
ACAD
1000
MTEXTBEGIN
1070
    73
1070
     1
1070
    44
1040
1.0
1070
    74
1070
     0
1000
MTEXTEND
  0
LINE
  5
99DA
102
{ACAD_REACTORS
330
A58C
102
}
330
1F
100
AcDbEntity
  8
AM_7
100
AcDbLine
 10
658.0676554369484
 20
159.2288529550932
 30
0.0
 11
771.362316705936
 21
159.2288529550932
 31
0.0
  0
LINE
  5
99DB
330
1F
100
AcDbEntity
  8
AM_7
100
AcDbLine
 10
714.7149860714422
 20
215.876183589587
 30
0.0
 11
714.7149860714422
 21
102.5815223205994
 31
0.0
  0
LINE
  5
9C94
330
1F
100
AcDbEntity
  8
LOGO
  6
Continuous
 62
     7
100
AcDbLine
 10
740.1308317634408
 20
68.85609052791936
 30
0.0
 11
743.0466786193966
 21
68.85609052791936
 31
0.0
  0
LINE
  5
9C95
330
1F
100
AcDbEntity
  8
LOGO
 62
     4
100
AcDbLine
 10
759.7381541709228
 20
62.27602132131552
 30
0.0
 11
759.7381541709228
 21
54.2051261269624
 31
0.0
  0
LINE
  5
9C96
330
1F
100
AcDbEntity
  8
LOGO
 62
     4
100
AcDbLine
 10
742.9689673737697
 20
62.27602132131552
 30
0.0
 11
742.9689673737697
 21
54.2051261269624
 31
0.0
  0
LINE
  5
9C97
330
1F
100
AcDbEntity
  8
LOGO
 62
     4
100
AcDbLine
 10
759.7381541709228
 20
54.2051261269624
 30
0.0
 11
742.9689673737697
 21
54.2051261269624
 31
0.0
  0
LINE
  5
9C98
330
1F
100
AcDbEntity
  8
LOGO
 62
     4
100
AcDbLine
 10
756.7475731881753
 20
72.18121087802102
 30
0.0
 11
744.9102905612078
 21
72.18121087802103
 31
0.0
  0
LINE
  5
9C99
330
1F
100
AcDbEntity
  8
LOGO
 62
     4
100
AcDbLine
 10
756.7475731881753
 20
65.57775117355053
 30
0.0
 11
744.9102905612078
 21
65.57775117355053
 31
0.0
  0
LINE
  5
9C9A
330
1F
100
AcDbEntity
  8
LOGO
 62
     4
100
AcDbLine
 10
744.9102905612078
 20
72.18121087802103
 30
0.0
 11
744.9102905612078
 21
65.57775117355053
 31
0.0
  0
LINE
  5
9C9B
330
1F
100
AcDbEntity
  8
LOGO
 62
     4
100
AcDbLine
 10
756.7475731881753
 20
72.18121087802103
 30
0.0
 11
756.7475731881753
 21
65.57775117355053
 31
0.0
  0
LINE
  5
9C9C
330
1F
100
AcDbEntity
  8
LOGO
 62
     4
100
AcDbLine
 10
750.8289318746916
 20
65.57775117355053
 30
0.0
 11
750.8289318746916
 21
62.27602132131552
 31
0.0
  0
LINE
  5
9C9E
330
1F
100
AcDbEntity
  8
LOGO
 62
     4
100
AcDbLine
 10
759.7381541709228
 20
62.27602132131552
 30
0.0
 11
742.9689673737697
 21
62.27602132131552
 31
0.0
  0
TEXT
  5
9C9F
330
1F
100
AcDbEntity
  8
LOGO
  6
Continuous
100
AcDbText
 10
744.4186208063678
 20
55.34431586891454
 30
144.2599568222141
 40
1.651103999999999
  1
Body diameter
 41
0.8
  7
CHINESET
100
AcDbText
  0
TEXT
  5
9CA0
330
1F
100
AcDbEntity
  8
LOGO
100
AcDbText
 10
745.754249023808
 20
58.40510684660539
 30
144.2599568222141
 40
2.75184
  1
本體寬度
  7
CHINESET
100
AcDbText
  0
TEXT
  5
9CA2
330
1F
100
AcDbEntity
  8
LOGO
  6
Continuous
 62
     7
100
AcDbText
 10
745.9053593526784
 20
66.95621373260191
 30
0.0
 40
3.852575999999999
  1
100
  7
CHINESET
100
AcDbText
  0
DIMENSION
  5
A516
330
1F
100
AcDbEntity
  8
AM_REFDIM
100
AcDbDimension
  2
*D6
 10
721.8149857913296
 20
95.96170779646758
 30
0.0
 11
714.7149860237033
 21
95.96170779646758
 31
0.0
 70
   160
 71
     5
 42
14.19999961003236
  3
AM_ISO$0
100
AcDbAlignedDimension
 13
707.6149861812972
 23
109.7355209532771
 33
0.0
 14
721.8149857913296
 24
109.7355186079009
 34
0.0
100
AcDbRotatedDimension
1001
ACAD
1000
DSTYLE
1002
{
1070
    40
1040
1.005834825753484
1002
}
  0
DIMENSION
  5
A540
330
1F
100
AcDbEntity
  8
AM_REFDIM
100
AcDbDimension
  2
*D7
 10
728.2149848469884
 20
87.02956326184784
 30
0.0
 11
714.7149854466846
 21
87.02956326184784
 31
0.0
 70
   160
 71
     5
 42
26.9999988006075
  3
AM_ISO$0
100
AcDbAlignedDimension
 13
701.2149860463808
 23
107.1533882458098
 33
0.0
 14
728.2149848469884
 24
107.1533879863914
 34
0.0
100
AcDbRotatedDimension
1001
ACAD
1000
DSTYLE
1002
{
1070
    40
1040
1.005834825753484
1002
}
  0
DIMENSION
  5
A57E
102
{ACAD_XDICTIONARY
360
A58B
102
}
102
{ACAD_REACTORS
330
A58C
102
}
330
1F
100
AcDbEntity
  8
AM_REFDIM
100
AcDbDimension
  2
*D8
 10
791.1165615384646
 20
107.1533879863914
 30
0.0
 11
791.1165615384646
 21
138.2288523828638
 31
0.0
 70
   160
 71
     5
 42
52.07546496870175
  3
AM_ISO$0
100
AcDbAlignedDimension
 13
771.362316705936
 23
159.2288529550932
 33
0.0
 14
728.2149848469884
 24
107.1533879863914
 34
0.0
 50
89.9999999999998
100
AcDbRotatedDimension
1001
ACAD
1000
DSTYLE
1002
{
1070
    40
1040
1.005834825753484
1070
   271
1070
     0
1002
}
  0
DIMENSION
  5
A622
330
1F
100
AcDbEntity
  8
AM_REFDIM
100
AcDbDimension
  2
*D9
 10
885.3823012223559
 20
220.3886996378725
 30
0.0
 11
852.8823018184024
 21
220.3886996378725
 31
0.0
 70
   160
  1
<>
 71
     5
 42
64.9999988079071
  3
AM_ISO$0
100
AcDbAlignedDimension
 13
820.3823024144488
 23
208.1419391386496
 33
0.0
 14
885.3823012223559
 24
208.7244787763163
 34
0.0
100
AcDbRotatedDimension
1001
ACAD
1000
DSTYLE
1002
{
1070
    40
1040
1.005834825753484
1070
   271
1070
     1
1002
}
  0
DIMENSION
  5
A67B
330
1F
100
AcDbEntity
  8
AM_REFDIM
100
AcDbDimension
  2
*D10
 10
894.4549348452033
 20
109.2288529550935
 30
0.0
 11
894.4549348452033
 21
159.2288523232907
 31
0.0
 70
   160
 71
     5
 42
99.99999873639433
  3
AM_ISO$0
100
AcDbAlignedDimension
 13
884.8823039343672
 23
209.2288516914879
 33
0.0
 14
884.8823024144492
 24
109.2288529550935
 34
0.0
 50
90.0
100
AcDbRotatedDimension
1001
ACAD
1000
DSTYLE
1002
{
1070
    40
1040
1.005834825753484
1002
}
  0
DIMENSION
  5
A6A1
330
1F
100
AcDbEntity
  8
AM_REFDIM
100
AcDbDimension
  2
*D11
 10
839.8823021462282
 20
99.39289418453808
 30
0.0
 11
862.6323022803388
 21
99.39289418453808
 31
0.0
 70
   160
 71
     5
 42
45.5000002682209
  3
AM_ISO$0
100
AcDbAlignedDimension
 13
885.3823024144492
 23
109.7288529550935
 33
0.0
 14
839.8823021462282
 24
107.1533876312609
 34
0.0
100
AcDbRotatedDimension
1001
ACAD
1000
DSTYLE
1002
{
1070
    40
1040
1.005834825753484
1070
   271
1070
     0
1002
}
  0
DIMENSION
  5
A724
330
1F
100
AcDbEntity
  8
AM_REFDIM
100
AcDbDimension
  2
*D12
 10
820.3823024144487
 20
220.3886996378725
 30
0.0
 11
819.3823028465825
 21
220.3886996378725
 31
0.0
 70
   160
 71
     5
 42
1.999999135732423
  3
AM_ISO$0
100
AcDbAlignedDimension
 13
818.3823032787163
 23
179.2288514641797
 33
0.0
 14
820.3823024144487
 24
208.1419391386496
 34
0.0
100
AcDbRotatedDimension
1001
ACAD
1000
DSTYLE
1002
{
1070
    40
1040
1.005834825753484
1002
}
  0
DIMENSION
  5
A77B
330
1F
100
AcDbEntity
  8
AM_REFDIM
100
AcDbDimension
  2
*D13
 10
769.5957947182834
 20
123.1533871635902
 30
0.0
 11
769.5957947182834
 21
128.1533871635902
 31
0.0
 70
   160
 71
     5
 42
10.00000000000001
  3
AM_ISO$0
100
AcDbAlignedDimension
 13
714.7149860714422
 23
133.1533871635902
 33
0.0
 14
714.7149860714422
 24
123.1533871635902
 34
0.0
 50
90.0
100
AcDbRotatedDimension
1001
ACAD
1000
DSTYLE
1002
{
1070
    40
1040
1.005834825753484
1002
}
  0
DIMENSION
  5
A7A5
330
1F
100
AcDbEntity
  8
AM_REFDIM
100
AcDbDimension
  2
*D14
 10
778.4151517327174
 20
113.1533871635902
 30
0.0
 11
778.4151517327174
 21
123.1533871635902
 31
0.0
 70
   160
 71
     5
 42
20.00000000000001
  3
AM_ISO$0
100
AcDbAlignedDimension
 13
714.7149860714422
 23
133.1533871635902
 33
0.0
 14
714.7149860714422
 24
113.1533871635902
 34
0.0
 50
90.0
100
AcDbRotatedDimension
1001
ACAD
1000
DSTYLE
1002
{
1070
    40
1040
1.005834825753484
1002
}
  0
DIMENSION
  5
A7CB
330
1F
100
AcDbEntity
  8
AM_REFDIM
100
AcDbDimension
  2
*D15
 10
778.4151517327175
 20
107.1533879863914
 30
0.0
 11
778.4151517327175
 21
110.1533875749909
 31
0.0
 70
   160
 71
     5
 42
5.999999177198731
  3
AM_ISO$0
100
AcDbAlignedDimension
 13
714.7149860714423
 23
113.1533871635902
 33
0.0
 14
728.2149848469884
 24
107.1533879863914
 34
0.0
 50
90.0
100
AcDbRotatedDimension
1001
ACAD
1000
DSTYLE
1002
{
1070
    40
1040
1.005834825753484
1002
}
  0
LEADER
  5
A889
330
1F
100
AcDbEntity
  8
AM_REFDIM
100
AcDbLeader
  3
AM_ISO$7
 76
     3
 10
717.2113833002998
 20
206.9562736673072
 30
0.0
 10
723.5737592065914
 20
218.5105650243662
 30
0.0
 10
754.1930603451632
 20
218.5105650243662
 30
0.0
1001
ACAD
1000
DSTYLE
1002
{
1070
   147
1040
1.0
1070
    77
1070
     1
1070
    43
1040
12.0
1070
   271
1070
     1
1070
   272
1070
     8
1002
}
  0
MTEXT
  5
A88C
330
1F
100
AcDbEntity
  8
AM_REFDIM
100
AcDbMText
 10
724.4053466093211
 20
222.475142302767
 30
0.0
 40
3.0
 41
33.65203381816716
 71
     1
 72
     5
  1
4X2-M6X1.0 DP12
 73
     1
 44
1.0
1001
ACAD
1000
MTEXTBEGIN
1070
    73
1070
     1
1070
    44
1040
1.0
1070
    74
1070
     0
1000
MTEXTEND
  0
LEADER
  5
A890
330
1F
100
AcDbEntity
  8
AM_REFDIM
100
AcDbLeader
  3
AM_ISO$7
 76
     3
 10
748.8492123990433
 20
193.3255150266921
 30
0.0
 10
759.5699122735172
 20
206.3014227750406
 30
0.0
 10
799.4413483846034
 20
206.3014227750406
 30
0.0
1001
ACAD
1000
DSTYLE
1002
{
1070
   147
1040
1.0
1070
    77
1070
     1
1070
    43
1040
12.0
1070
   271
1070
     1
1070
   272
1070
     8
1002
}
  0
MTEXT
  5
A895
330
1F
100
AcDbEntity
  8
AM_REFDIM
100
AcDbMText
 10
761.4657546827514
 20
210.318960849989
 30
0.0
 40
3.0
 41
38.59614173293908
 71
     1
 72
     5
  1
%%C6.6 thru\P%%C11 C/B DP7 P.C.D 90
 73
     1
 44
1.0
1001
ACAD
1000
MTEXTBEGIN
1070
    73
1070
     1
1070
    44
1040
1.0
1070
    74
1070
     0
1000
MTEXTEND
  0
LINE
  5
B8AC
330
1F
100
AcDbEntity
  8
0
  6
Continuous
 62
     7
370
    15
100
AcDbLine
 10
702.7149861443882
 20
139.2288531081731
 30
0.0
 11
726.7149856095337
 21
139.2288530668304
 31
0.0
  0
ARC
  5
B8AD
330
1F
100
AcDbEntity
  8
0
  6
Continuous
 62
     7
370
    15
100
AcDbCircle
 10
702.7149860714422
 20
147.228852955093
 30
0.0
 40
8.0
100
AcDbArc
 50
180.0
 51
270.0
  0
LINE
  5
B8AE
330
1F
100
AcDbEntity
  8
0
  6
Continuous
 62
     7
370
    15
100
AcDbLine
 10
694.7149862728481
 20
171.2288536582459
 30
0.0
 11
694.7149857025195
 21
147.228853259217
 31
0.0
  0
ARC
  5
B8AF
330
1F
100
AcDbEntity
  8
0
  6
Continuous
 62
     7
370
    15
100
AcDbCircle
 10
702.7149860714423
 20
171.228852955093
 30
0.0
 40
8.000000000000028
100
AcDbArc
 50
90.0
 51
180.0
  0
LINE
  5
B8B0
330
1F
100
AcDbEntity
  8
0
  6
Continuous
 62
     7
370
    15
100
AcDbLine
 10
726.7149852175253
 20
179.2288514641794
 30
0.0
 11
702.7149855361027
 21
179.2288527889901
 31
0.0
  0
ARC
  5
B8B1
330
1F
100
AcDbEntity
  8
0
  6
Continuous
 62
     7
370
    15
100
AcDbCircle
 10
726.7149860714422
 20
171.2288529550929
 30
0.0
 40
8.000000000000014
100
AcDbArc
 50
0.0
 51
90.0
  0
LINE
  5
B8B2
330
1F
100
AcDbEntity
  8
0
  6
Continuous
 62
     7
370
    15
100
AcDbLine
 10
734.7149861037819
 20
147.2288530385674
 30
0.0
 11
734.7149855111901
 21
171.2288528192607
 31
0.0
  0
ARC
  5
B8B3
330
1F
100
AcDbEntity
  8
0
  6
Continuous
 62
     7
370
    15
100
AcDbCircle
 10
726.7149860714422
 20
147.228852955093
 30
0.0
 40
8.0
100
AcDbArc
 50
270.0
 51
0.0
  0
LINE
  5
B8B4
330
1F
100
AcDbEntity
  8
0
  6
Continuous
 62
     7
370
    15
100
AcDbLine
 10
721.8149864367786
 20
208.7221871305335
 30
0.0
 11
721.814986171729
 21
179.2288525990069
 31
0.0
  0
SPLINE
  5
B8B5
330
1F
100
AcDbEntity
  8
0
  6
Continuous
 62
     7
370
    15
100
AcDbSpline
210
0.0
220
0.0
230
1.0
 70
     8
 71
     3
 72
    14
 73
    10
 74
     0
 42
0.0000000001
 43
0.0000000001
 40
0.0
 40
0.0
 40
0.0
 40
0.0
 40
0.25
 40
0.25
 40
0.5
 40
0.5
 40
0.75
 40
0.75
 40
1.0
 40
1.0
 40
1.0
 40
1.0
 10
721.8149860714426
 20
208.7221858394321
 30
0.0
 10
721.8735433540977
 20
208.7137855826173
 30
0.0
 10
721.930161583489
 20
208.6954750815418
 30
0.0
 10
722.0395957957935
 20
208.6394213015296
 30
0.0
 10
722.0925622398638
 20
208.6012263672458
 30
0.0
 10
722.1871885027534
 20
208.5051811107215
 30
0.0
 10
722.2300877801111
 20
208.4461527226724
 30
0.0
 10
722.2940166256378
 20
208.3071923889981
 30
0.0
 10
722.3149860714426
 20
208.2258613586869
 30
0.0
 10
722.3149860714426
 20
208.1419391386493
 30
0.0
  0
LINE
  5
B8B6
330
1F
100
AcDbEntity
  8
0
  6
Continuous
 62
     7
370
    15
100
AcDbLine
 10
722.3149865695113
 20
179.2288545578287
 30
0.0
 11
722.314985814109
 21
208.1419382965972
 31
0.0
  0
LINE
  5
B8B7
330
1F
100
AcDbEntity
  8
0
  6
Continuous
 62
     7
370
    15
100
AcDbLine
 10
665.2216520303668
 20
166.328853163965
 30
0.0
 11
694.7149857563565
 21
166.3288534495291
 31
0.0
  0
SPLINE
  5
B8B8
330
1F
100
AcDbEntity
  8
0
  6
Continuous
 62
     7
370
    15
100
AcDbSpline
210
0.0
220
0.0
230
1.0
 70
     8
 71
     3
 72
    14
 73
    10
 74
     0
 42
0.0000000001
 43
0.0000000001
 40
0.0
 40
0.0
 40
0.0
 40
0.0
 40
0.25
 40
0.25
 40
0.5
 40
0.5
 40
0.75
 40
0.75
 40
1.0
 40
1.0
 40
1.0
 40
1.0
 10
665.2216531871032
 20
166.3288529550932
 30
0.0
 10
665.2300534439181
 20
166.3874102377484
 30
0.0
 10
665.2483639449936
 20
166.4440284671397
 30
0.0
 10
665.3044177250058
 20
166.5534626794442
 30
0.0
 10
665.3426126592895
 20
166.6064291235145
 30
0.0
 10
665.4386579158138
 20
166.7010553864041
 30
0.0
 10
665.497686303863
 20
166.7439546637617
 30
0.0
 10
665.6366466375373
 20
166.8078835092884
 30
0.0
 10
665.7179776678484
 20
166.8288529550932
 30
0.0
 10
665.801899887886
 20
166.8288529550932
 30
0.0
  0
LINE
  5
B8B9
330
1F
100
AcDbEntity
  8
0
  6
Continuous
 62
     7
370
    15
100
AcDbLine
 10
694.7149864694194
 20
166.8288530304343
 30
0.0
 11
665.8019008409029
 21
166.828852464757
 31
0.0
  0
LINE
  5
B8BA
330
1F
100
AcDbEntity
  8
0
  6
Continuous
 62
     7
370
    15
100
AcDbLine
 10
764.2083180204222
 20
152.1288522961767
 30
0.0
 11
734.7149855934993
 21
152.1288530742625
 31
0.0
  0
SPLINE
  5
B8BB
330
1F
100
AcDbEntity
  8
0
  6
Continuous
 62
     7
370
    15
100
AcDbSpline
210
0.0
220
0.0
230
1.0
 70
     8
 71
     3
 72
    14
 73
    10
 74
     0
 42
0.0000000001
 43
0.0000000001
 40
0.0
 40
0.0
 40
0.0
 40
0.0
 40
0.25
 40
0.25
 40
0.5
 40
0.5
 40
0.75
 40
0.75
 40
1.0
 40
1.0
 40
1.0
 40
1.0
 10
764.2083189557813
 20
152.1288529550929
 30
0.0
 10
764.1999186989664
 20
152.0702956724378
 30
0.0
 10
764.1816081978909
 20
152.0136774430465
 30
0.0
 10
764.1255544178788
 20
151.904243230742
 30
0.0
 10
764.087359483595
 20
151.8512767866717
 30
0.0
 10
763.9913142270707
 20
151.756650523782
 30
0.0
 10
763.9322858390215
 20
151.7137512464244
 30
0.0
 10
763.7933255053472
 20
151.6498224008977
 30
0.0
 10
763.7119944750361
 20
151.6288529550929
 30
0.0
 10
763.6280722549985
 20
151.6288529550929
 30
0.0
  0
LINE
  5
B8BC
330
1F
100
AcDbEntity
  8
0
  6
Continuous
 62
     7
370
    15
100
AcDbLine
 10
734.7149857710647
 20
151.628853221065
 30
0.0
 11
763.6280727723989
 21
151.6288519062153
 31
0.0
  0
LINE
  5
B8BD
330
1F
100
AcDbEntity
  8
0
  6
Continuous
 62
     7
370
    15
100
AcDbLine
 10
707.6149861812972
 20
109.7355209532771
 30
0.0
 11
707.6149857964625
 21
139.2288527618642
 31
0.0
  0
SPLINE
  5
B8BE
330
1F
100
AcDbEntity
  8
0
  6
Continuous
 62
     7
370
    15
100
AcDbSpline
210
0.0
220
0.0
230
1.0
 70
     8
 71
     3
 72
    14
 73
    10
 74
     0
 42
0.0000000001
 43
0.0000000001
 40
0.0
 40
0.0
 40
0.0
 40
0.0
 40
0.25
 40
0.25
 40
0.5
 40
0.5
 40
0.75
 40
0.75
 40
1.0
 40
1.0
 40
1.0
 40
1.0
 10
707.6149860714423
 20
109.735520070754
 30
0.0
 10
707.5564287887872
 20
109.7439203275688
 30
0.0
 10
707.4998105593959
 20
109.7622308286444
 30
0.0
 10
707.3903763470914
 20
109.8182846086566
 30
0.0
 10
707.337409903021
 20
109.8564795429403
 30
0.0
 10
707.2427836401315
 20
109.9525247994647
 30
0.0
 10
707.1998843627738
 20
110.0115531875138
 30
0.0
 10
707.135955517247
 20
110.1505135211881
 30
0.0
 10
707.1149860714423
 20
110.2318445514992
 30
0.0
 10
707.1149860714423
 20
110.3157667715368
 30
0.0
  0
LINE
  5
B8BF
330
1F
100
AcDbEntity
  8
0
  6
Continuous
 62
     7
370
    15
100
AcDbLine
 10
707.1149859432649
 20
139.2288525842988
 30
0.0
 11
707.1149857913358
 21
110.3157662013004
 31
0.0
  0
LINE
  5
B8C0
330
1F
100
AcDbEntity
  8
0
  6
Continuous
 62
     7
370
    15
100
AcDbLine
 10
707.1149861639145
 20
179.2288529855614
 30
0.0
 11
707.114986588136
 21
208.141940259188
 31
0.0
  0
SPLINE
  5
B8C1
330
1F
100
AcDbEntity
  8
0
  6
Continuous
 62
     7
370
    15
100
AcDbSpline
210
0.0
220
0.0
230
1.0
 70
     8
 71
     3
 72
    12
 73
     8
 74
     0
 42
0.0000000001
 43
0.0000000001
 40
0.0
 40
0.0
 40
0.0
 40
0.0
 40
0.2499999999999937
 40
0.2499999999999937
 40
0.4999999999999874
 40
0.4999999999999874
 40
1.0
 40
1.0
 40
1.0
 40
1.0
 10
707.1149860714426
 20
208.1419391386494
 30
0.0
 10
707.1149860714426
 20
208.2258934328173
 30
0.0
 10
707.1356366684368
 20
208.3062146075004
 30
0.0
 10
707.19942102916
 20
208.4454268321784
 30
0.0
 10
707.2418282634847
 20
208.5040637980715
 30
0.0
 10
707.3846436748424
 20
208.6494606028558
 30
0.0
 10
707.497945343961
 20
208.7053959181097
 30
0.0
 10
707.6149860714426
 20
208.7221858394323
 30
0.0
  0
LINE
  5
B8C2
330
1F
100
AcDbEntity
  8
0
  6
Continuous
 62
     7
370
    15
100
AcDbLine
 10
707.614986017112
 20
179.2288531631267
 30
0.0
 11
707.6149859045695
 21
208.722185862342
 31
0.0
  0
LINE
  5
B8C3
330
1F
100
AcDbEntity
  8
0
  6
Continuous
 62
     7
370
    15
100
AcDbLine
 10
734.7149857077612
 20
166.8288521914489
 30
0.0
 11
763.6280714724239
 21
166.8288532024403
 31
0.0
  0
SPLINE
  5
B8C4
330
1F
100
AcDbEntity
  8
0
  6
Continuous
 62
     7
370
    15
100
AcDbSpline
210
0.0
220
0.0
230
1.0
 70
     8
 71
     3
 72
    12
 73
     8
 74
     0
 42
0.0000000001
 43
0.0000000001
 40
0.0
 40
0.0
 40
0.0
 40
0.0
 40
0.2499999999999912
 40
0.2499999999999912
 40
0.4999999999999825
 40
0.4999999999999825
 40
1.0
 40
1.0
 40
1.0
 40
1.0
 10
763.6280722549986
 20
166.8288529550926
 30
0.0
 10
763.7120265491666
 20
166.8288529550926
 30
0.0
 10
763.7923477238496
 20
166.8082023580984
 30
0.0
 10
763.9315599485277
 20
166.7444179973752
 30
0.0
 10
763.9901969144205
 20
166.7020107630505
 30
0.0
 10
764.135593719205
 20
166.5591953516929
 30
0.0
 10
764.1915290344589
 20
166.4458936825742
 30
0.0
 10
764.2083189557815
 20
166.3288529550926
 30
0.0
  0
LINE
  5
B8C5
330
1F
100
AcDbEntity
  8
0
  6
Continuous
 62
     7
370
    15
100
AcDbLine
 10
734.7149858853266
 20
166.3288523382514
 30
0.0
 11
764.208320093506
 21
166.3288510155808
 31
0.0
  0
LINE
  5
B8C6
330
1F
100
AcDbEntity
  8
0
  6
Continuous
 62
     7
370
    15
100
AcDbLine
 10
665.8018989868036
 20
151.6288535936437
 30
0.0
 11
694.7149861838481
 21
151.628852918933
 31
0.0
  0
SPLINE
  5
B8C7
330
1F
100
AcDbEntity
  8
0
  6
Continuous
 62
     7
370
    15
100
AcDbSpline
210
0.0
220
0.0
230
1.0
 70
     8
 71
     3
 72
    12
 73
     8
 74
     0
 42
0.0000000001
 43
0.0000000001
 40
0.0
 40
0.0
 40
0.0
 40
0.0
 40
0.2499999999999996
 40
0.2499999999999996
 40
0.4999999999999993
 40
0.4999999999999993
 40
1.0
 40
1.0
 40
1.0
 40
1.0
 10
665.801899887886
 20
151.6288529550932
 30
0.0
 10
665.7179455937181
 20
151.6288529550932
 30
0.0
 10
665.6376244190351
 20
151.6495035520875
 30
0.0
 10
665.498412194357
 20
151.7132879128106
 30
0.0
 10
665.439775228464
 20
151.7556951471354
 30
0.0
 10
665.2943784236796
 20
151.898510558493
 30
0.0
 10
665.2384431084257
 20
152.0118122276116
 30
0.0
 10
665.2216531871032
 20
152.1288529550933
 30
0.0
  0
LINE
  5
B8C8
330
1F
100
AcDbEntity
  8
0
  6
Continuous
 62
     7
370
    15
100
AcDbLine
 10
694.7149860658466
 20
152.1288529669554
 30
0.0
 11
665.2216533836496
 21
152.1288529100773
 31
0.0
  0
LINE
  5
B8C9
330
1F
100
AcDbEntity
  8
0
  6
Continuous
 62
     7
370
    15
100
AcDbLine
 10
722.3149861969326
 20
110.3157677735677
 30
0.0
 11
722.3149868991246
 21
139.2288527709886
 31
0.0
  0
SPLINE
  5
B8CA
330
1F
100
AcDbEntity
  8
0
  6
Continuous
 62
     7
370
    15
100
AcDbSpline
210
0.0
220
0.0
230
1.0
 70
     8
 71
     3
 72
    12
 73
     8
 74
     0
 42
0.0000000001
 43
0.0000000001
 40
0.0
 40
0.0
 40
0.0
 40
0.0
 40
0.2500000000000067
 40
0.2500000000000067
 40
0.5000000000000135
 40
0.5000000000000135
 40
1.0
 40
1.0
 40
1.0
 40
1.0
 10
722.3149860714423
 20
110.3157667715368
 30
0.0
 10
722.3149860714423
 20
110.2318124773689
 30
0.0
 10
722.2943354744481
 20
110.1514913026859
 30
0.0
 10
722.2305511137249
 20
110.0122790780078
 30
0.0
 10
722.1881438794001
 20
109.9536421121148
 30
0.0
 10
722.0453284680425
 20
109.8082453073305
 30
0.0
 10
721.9320267989239
 20
109.7523099920765
 30
0.0
 10
721.8149860714422
 20
109.735520070754
 30
0.0
  0
LINE
  5
B8CB
330
1F
100
AcDbEntity
  8
0
  6
Continuous
 62
     7
370
    15
100
AcDbLine
 10
721.8149857913296
 20
109.7355186079009
 30
0.0
 11
721.8149852646706
 21
139.2288531380079
 31
0.0
  0
SPLINE
  5
B8CC
330
1F
100
AcDbEntity
  8
0
  6
Continuous
 62
     7
370
    15
100
AcDbSpline
210
0.0
220
0.0
230
1.0
 70
     8
 71
     3
 72
     8
 73
     4
 74
     0
 42
0.0000000001
 43
0.0000000001
 40
0.0
 40
0.0
 40
0.0
 40
0.0
 40
1.0
 40
1.0
 40
1.0
 40
1.0
 10
665.801899887886
 20
166.8288529550933
 30
0.0
 10
667.1264408264788
 20
175.353508887071
 30
0.0
 10
670.6562427916196
 20
183.3846246889725
 30
0.0
 10
676.0408445130645
 20
190.1248199204197
 30
0.0
  0
ARC
  5
B8CD
330
1F
100
AcDbEntity
  8
0
  6
Continuous
 62
     7
370
    15
100
AcDbCircle
 10
682.8975621571465
 20
191.0462768693896
 30
0.0
 40
5.500000000000007
100
AcDbArc
 50
225.0
 51
45.0
  0
SPLINE
  5
B8CE
330
1F
100
AcDbEntity
  8
0
  6
Continuous
 62
     7
370
    15
100
AcDbSpline
210
0.0
220
0.0
230
1.0
 70
     8
 71
     3
 72
     8
 73
     4
 74
     0
 42
0.0000000001
 43
0.0000000001
 40
0.0
 40
0.0
 40
0.0
 40
0.0
 40
1.0
 40
1.0
 40
1.0
 40
1.0
 10
683.8190191061165
 20
197.9029945134716
 30
0.0
 10
690.5592143375637
 20
203.2875962349162
 30
0.0
 10
698.5903301394651
 20
206.8173982000569
 30
0.0
 10
707.1149860714426
 20
208.1419391386494
 30
0.0
  0
LINE
  5
B8CF
330
1F
100
AcDbEntity
  8
0
  6
Continuous
 62
     7
370
    15
100
AcDbLine
 10
686.7866492959786
 20
194.9353649332531
 30
0.0
 11
683.8190171756457
 21
197.9029939063102
 31
0.0
  0
LINE
  5
B8D0
330
1F
100
AcDbEntity
  8
0
  6
Continuous
 62
     7
370
    15
100
AcDbLine
 10
679.008476104806
 20
187.1571892760327
 30
0.0
 11
676.0408457657296
 21
190.1248177045049
 31
0.0
  0
SPLINE
  5
B8D1
330
1F
100
AcDbEntity
  8
0
  6
Continuous
 62
     7
370
    15
100
AcDbSpline
210
0.0
220
0.0
230
1.0
 70
     8
 71
     3
 72
     8
 73
     4
 74
     0
 42
0.0000000001
 43
0.0000000001
 40
0.0
 40
0.0
 40
0.0
 40
0.0
 40
1.0
 40
1.0
 40
1.0
 40
1.0
 10
763.6280722549985
 20
151.6288529550929
 30
0.0
 10
763.2666929428483
 20
149.3030401340208
 30
0.0
 10
762.7402327724637
 20
147.0073276987291
 30
0.0
 10
762.0520714916125
 20
144.7564535713176
 30
0.0
  0
SPLINE
  5
B8D2
330
1F
100
AcDbEntity
  8
0
  6
Continuous
 62
     7
370
    15
100
AcDbSpline
210
0.0
220
0.0
230
1.0
 70
     8
 71
     3
 72
     8
 73
     4
 74
     0
 42
0.0000000001
 43
0.0000000001
 40
0.0
 40
0.0
 40
0.0
 40
0.0
 40
0.8465055593429331
 40
0.8465055593429331
 40
0.8465055593429331
 40
0.8465055593429331
 10
762.0520714916125
 20
144.7564535713176
 30
0.0
 10
761.3621073015842
 20
142.4996823937035
 30
0.0
 10
760.5119398622878
 20
140.2959840335202
 30
0.0
 10
758.2140470416931
 20
135.8467088286787
 30
0.0
  0
SPLINE
  5
B8DA
330
1F
100
AcDbEntity
  8
0
  6
Continuous
 62
     7
370
    15
100
AcDbSpline
210
0.0
220
0.0
230
1.0
 70
     8
 71
     3
 72
     8
 73
     4
 74
     0
 42
0.0000000001
 43
0.0000000001
 40
0.0562732733496234
 40
0.0562732733496234
 40
0.0562732733496234
 40
0.0562732733496234
 40
1.0
 40
1.0
 40
1.0
 40
1.0
 10
756.8135582127958
 20
133.1911806394573
 30
0.0
 10
755.7702340305475
 20
131.5042680141647
 30
0.0
 10
754.6274097885903
 20
129.8829102874761
 30
0.0
 10
753.3891276298203
 20
128.3328859897667
 30
0.0
  0
ARC
  5
B8DB
330
1F
100
AcDbEntity
  8
0
  6
Continuous
 62
     7
370
    15
100
AcDbCircle
 10
746.5324099857383
 20
127.4114290407967
 30
0.0
 40
5.500000000000004
100
AcDbArc
 50
45.0
 51
225.0
  0
SPLINE
  5
B8DC
330
1F
100
AcDbEntity
  8
0
  6
Continuous
 62
     7
370
    15
100
AcDbSpline
210
0.0
220
0.0
230
1.0
 70
     8
 71
     3
 72
     8
 73
     4
 74
     0
 42
0.0000000001
 43
0.0000000001
 40
0.0
 40
0.0
 40
0.0
 40
0.0
 40
0.8576426689757122
 40
0.8576426689757122
 40
0.8576426689757122
 40
0.8576426689757122
 10
745.6109530367682
 20
120.5547113967147
 30
0.0
 10
743.4296501897765
 20
118.8121139404714
 30
0.0
 10
741.1054770539566
 20
117.2577026474398
 30
0.0
 10
736.1597059232499
 20
114.7511136780515
 30
0.0
  0
SPLINE
  5
B8E4
330
1F
100
AcDbEntity
  8
0
  6
Continuous
 62
     7
370
    15
100
AcDbSpline
210
0.0
220
0.0
230
1.0
 70
     8
 71
     3
 72
     8
 73
     4
 74
     0
 42
0.0000000001
 43
0.0000000001
 40
0.0
 40
0.0
 40
0.0
 40
0.0
 40
1.0
 40
1.0
 40
1.0
 40
1.0
 10
733.468884866355
 20
113.4190147194914
 30
0.0
 10
730.1141184607847
 20
112.0160788434159
 30
0.0
 10
726.2588184956561
 20
110.9285501545265
 30
0.0
 10
722.3149860714422
 20
110.3157667715368
 30
0.0
  0
LINE
  5
B8E5
330
1F
100
AcDbEntity
  8
0
  6
Continuous
 62
     7
370
    15
100
AcDbLine
 10
742.6433229445053
 20
123.5223413182463
 30
0.0
 11
745.610952738997
 21
120.5547111085175
 31
0.0
  0
LINE
  5
B8EA
330
1F
100
AcDbEntity
  8
0
  6
Continuous
 62
     7
370
    15
100
AcDbLine
 10
753.3891275752798
 20
128.3328857758391
 30
0.0
 11
750.4214978488612
 21
131.3005162082249
 31
0.0
  0
SPLINE
  5
B8EB
330
1F
100
AcDbEntity
  8
0
  6
Continuous
 62
     7
370
    15
100
AcDbSpline
210
0.0
220
0.0
230
1.0
 70
     8
 71
     3
 72
     8
 73
     4
 74
     0
 42
0.0000000001
 43
0.0000000001
 40
0.0
 40
0.0
 40
0.0
 40
0.0
 40
1.0
 40
1.0
 40
1.0
 40
1.0
 10
722.3149860714426
 20
208.1419391386493
 30
0.0
 10
730.83964200342
 20
206.8173982000566
 30
0.0
 10
738.8707578053214
 20
203.2875962349159
 30
0.0
 10
745.6109530367686
 20
197.9029945134712
 30
0.0
  0
ARC
  5
B8EC
330
1F
100
AcDbEntity
  8
0
  6
Continuous
 62
     7
370
    15
100
AcDbCircle
 10
746.5324099857386
 20
191.0462768693892
 30
0.0
 40
5.500000000000014
100
AcDbArc
 50
135.0
 51
315.0
  0
SPLINE
  5
B8ED
330
1F
100
AcDbEntity
  8
0
  6
Continuous
 62
     7
370
    15
100
AcDbSpline
210
0.0
220
0.0
230
1.0
 70
     8
 71
     3
 72
     8
 73
     4
 74
     0
 42
0.0000000001
 43
0.0000000001
 40
0.0
 40
0.0
 40
0.0
 40
0.0
 40
1.0
 40
1.0
 40
1.0
 40
1.0
 10
753.3891276298206
 20
190.1248199204192
 30
0.0
 10
758.7737293512653
 20
183.384624688972
 30
0.0
 10
762.303531316406
 20
175.3535088870703
 30
0.0
 10
763.6280722549986
 20
166.8288529550926
 30
0.0
  0
LINE
  5
B8EE
330
1F
100
AcDbEntity
  8
0
  6
Continuous
 62
     7
370
    15
100
AcDbLine
 10
750.4214956019043
 20
187.1571887133414
 30
0.0
 11
753.3891286820589
 21
190.1248215257612
 31
0.0
  0
LINE
  5
B8EF
330
1F
100
AcDbEntity
  8
0
  6
Continuous
 62
     7
370
    15
100
AcDbLine
 10
742.6433222705249
 20
194.9353631411856
 30
0.0
 11
745.6109524802537
 21
197.9029929356773
 31
0.0
  0
SPLINE
  5
B8F0
330
1F
100
AcDbEntity
  8
0
  6
Continuous
 62
     7
370
    15
100
AcDbSpline
210
0.0
220
0.0
230
1.0
 70
     8
 71
     3
 72
     8
 73
     4
 74
     0
 42
0.0000000001
 43
0.0000000001
 40
0.0
 40
0.0
 40
0.0
 40
0.0
 40
1.0
 40
1.0
 40
1.0
 40
1.0
 10
707.1149860714423
 20
110.3157667715368
 30
0.0
 10
698.5903301394646
 20
111.6403077101295
 30
0.0
 10
690.5592143375629
 20
115.1701096752703
 30
0.0
 10
683.8190191061157
 20
120.5547113967152
 30
0.0
  0
ARC
  5
B8F1
330
1F
100
AcDbEntity
  8
0
  6
Continuous
 62
     7
370
    15
100
AcDbCircle
 10
682.8975621571458
 20
127.4114290407971
 30
0.0
 40
5.499999999999999
100
AcDbArc
 50
315.0
 51
135.0
  0
SPLINE
  5
B8F2
330
1F
100
AcDbEntity
  8
0
  6
Continuous
 62
     7
370
    15
100
AcDbSpline
210
0.0
220
0.0
230
1.0
 70
     8
 71
     3
 72
     8
 73
     4
 74
     0
 42
0.0000000001
 43
0.0000000001
 40
0.0
 40
0.0
 40
0.0
 40
0.0
 40
0.8035948116667498
 40
0.8035948116667498
 40
0.8035948116667498
 40
0.8035948116667498
 10
676.0408445130638
 20
128.3328859897673
 30
0.0
 10
675.2750957676586
 20
129.2914148298319
 30
0.0
 10
674.5471061681978
 20
130.2754454920473
 30
0.0
 10
672.6938777562398
 20
133.2359042736847
 30
0.0
  0
SPLINE
  5
B8FA
330
1F
100
AcDbEntity
  8
0
  6
Continuous
 62
     7
370
    15
100
AcDbSpline
210
0.0
220
0.0
230
1.0
 70
     8
 71
     3
 72
     8
 73
     4
 74
     0
 42
0.0000000001
 43
0.0000000001
 40
0.0
 40
0.0
 40
0.0
 40
0.0
 40
1.0
 40
1.0
 40
1.0
 40
1.0
 10
671.1164156289011
 20
135.7892570306485
 30
0.0
 10
668.5368855862052
 20
140.5032471326517
 30
0.0
 10
666.68142133909
 20
145.9683123573261
 30
0.0
 10
665.801899887886
 20
151.6288529550933
 30
0.0
  0
LINE
  5
B8FB
330
1F
100
AcDbEntity
  8
0
  6
Continuous
 62
     7
370
    15
100
AcDbLine
 10
679.0084743127384
 20
131.3005163014862
 30
0.0
 11
676.0408441030098
 21
128.3328865069945
 31
0.0
  0
LINE
  5
B8FE
330
1F
100
AcDbEntity
  8
0
  6
Continuous
 62
     7
370
    15
100
AcDbLine
 10
683.8190192156455
 20
120.5547115345656
 30
0.0
 11
686.7866494253743
 21
123.5223413290574
 31
0.0
  0
ARC
  5
B8FF
330
1F
100
AcDbEntity
  8
0
  6
Continuous
 62
     7
370
    15
100
AcDbCircle
 10
714.7149860714422
 20
159.2288529550931
 30
0.0
 40
50.00000000000002
100
AcDbArc
 50
211.7191301706347
 51
218.6846844306435
  0
SPLINE
  5
B901
330
1F
100
AcDbEntity
  8
0
  6
Continuous
 62
     7
370
    15
100
AcDbSpline
210
0.0
220
0.0
230
1.0
 70
    24
 71
     3
 72
    10
 73
     6
 74
     0
 42
0.0000000001
 43
0.0000000001
 40
0.0
 40
0.0
 40
0.0
 40
0.0
 40
0.5
 40
0.5
 40
1.0
 40
1.0
 40
1.0
 40
1.0
 10
675.6851105082877
 20
127.9771519849911
 30
0.0
 10
675.6851105082877
 20
127.9771519849911
 30
0.0
 10
675.7239329494077
 20
128.0159744261112
 30
0.0
 10
675.8552629624935
 20
128.1473044391969
 30
0.0
 10
675.9471923566124
 20
128.2392338333158
 30
0.0
 10
676.0408445130638
 20
128.3328859897673
 30
0.0
  0
ARC
  5
B903
330
1F
100
AcDbEntity
  8
0
  6
Continuous
 62
     7
370
    15
100
AcDbCircle
 10
714.7149860714422
 20
159.2288529550931
 30
0.0
 40
50.00000000000001
100
AcDbArc
 50
98.16359419578356
 51
128.6846844306435
  0
SPLINE
  5
B904
330
1F
100
AcDbEntity
  8
0
  6
Continuous
 62
     7
370
    15
100
AcDbSpline
210
0.0
220
0.0
230
1.0
 70
    24
 71
     3
 72
    10
 73
     6
 74
     0
 42
0.0000000001
 43
0.0000000001
 40
0.0
 40
0.0
 40
0.0
 40
0.0
 40
0.5
 40
0.5
 40
1.0
 40
1.0
 40
1.0
 40
1.0
 10
683.4632851013404
 20
198.2587285182477
 30
0.0
 10
683.4632851013404
 20
198.2587285182477
 30
0.0
 10
683.5021075424605
 20
198.2199060771277
 30
0.0
 10
683.6334375555463
 20
198.088576064042
 30
0.0
 10
683.7253669496651
 20
197.9966466699231
 30
0.0
 10
683.8190191061165
 20
197.9029945134716
 30
0.0
  0
ARC
  5
B905
330
1F
100
AcDbEntity
  8
0
  6
Continuous
 62
     7
370
    15
100
AcDbCircle
 10
714.7149860714422
 20
159.2288529550931
 30
0.0
 40
50.0
100
AcDbArc
 50
8.163594195786782
 51
38.68468443064352
  0
SPLINE
  5
B906
330
1F
100
AcDbEntity
  8
0
  6
Continuous
 62
     7
370
    15
100
AcDbSpline
210
0.0
220
0.0
230
1.0
 70
    24
 71
     3
 72
    10
 73
     6
 74
     0
 42
0.0000000001
 43
0.0000000001
 40
0.0
 40
0.0
 40
0.0
 40
0.0
 40
0.5
 40
0.5
 40
1.0
 40
1.0
 40
1.0
 40
1.0
 10
753.7448616345966
 20
190.4805539251953
 30
0.0
 10
753.7448616345966
 20
190.4805539251953
 30
0.0
 10
753.7060391934765
 20
190.4417314840752
 30
0.0
 10
753.5747091803909
 20
190.3104014709896
 30
0.0
 10
753.4827797862719
 20
190.2184720768707
 30
0.0
 10
753.3891276298206
 20
190.1248199204192
 30
0.0
  0
ARC
  5
B908
330
1F
100
AcDbEntity
  8
0
  6
Continuous
 62
     7
370
    15
100
AcDbCircle
 10
714.7149668511704
 20
159.2289462756014
 30
0.0
 40
50.00009510413861
100
AcDbArc
 50
278.1636008122873
 51
292.2808470636279
  0
ARC
  5
B90B
330
1F
100
AcDbEntity
  8
0
  6
Continuous
 62
     7
370
    15
100
AcDbCircle
 10
714.7149891693959
 20
159.2288536781694
 30
0.0
 40
50.00000316923793
100
AcDbArc
 50
188.1635945118758
 51
208.2808679808298
  0
ARC
  5
B90E
330
1F
100
AcDbEntity
  8
0
  6
Continuous
 62
     7
370
    15
100
AcDbCircle
 10
714.7149832444625
 20
159.2288535889613
 30
0.0
 40
50.00000288834223
100
AcDbArc
 50
331.7191319620737
 51
351.8364055452204
  0
ARC
  5
B911
330
1F
100
AcDbEntity
  8
0
  6
Continuous
 62
     7
370
    15
100
AcDbCircle
 10
714.7149523285926
 20
159.2288783806008
 30
0.0
 40
50.00004223139181
100
AcDbArc
 50
321.3153169941189
 51
328.280865380332
  0
SPLINE
  5
B915
330
1F
100
AcDbEntity
  8
0
  6
Continuous
 62
     7
370
    15
100
AcDbSpline
210
0.0
220
0.0
230
1.0
 70
    24
 71
     3
 72
    10
 73
     6
 74
     0
 42
0.0000000001
 43
0.0000000001
 40
0.0
 40
0.0
 40
0.0
 40
0.0
 40
0.5
 40
0.5
 40
1.0
 40
1.0
 40
1.0
 40
1.0
 10
753.3891276298203
 20
128.3328859897667
 30
0.0
 10
753.4827896042799
 20
128.239224015307
 30
0.0
 10
753.5744491852242
 20
128.1475644343628
 30
0.0
 10
753.7059387557111
 20
128.0160748638758
 30
0.0
 10
753.7448616345963
 20
127.9771519849906
 30
0.0
 10
753.7448616345963
 20
127.9771519849906
 30
0.0
  0
ARC
  5
B916
330
1F
100
AcDbEntity
  8
0
  6
Continuous
 62
     7
370
    15
100
AcDbCircle
 10
714.7149860714422
 20
159.2288529550931
 30
0.0
 40
50.00000000000002
100
AcDbArc
 50
231.3153155693565
 51
261.8364058042164
  0
SPLINE
  5
B917
330
1F
100
AcDbEntity
  8
0
  6
Continuous
 62
     7
370
    15
100
AcDbSpline
210
0.0
220
0.0
230
1.0
 70
    24
 71
     3
 72
    10
 73
     6
 74
     0
 42
0.0000000001
 43
0.0000000001
 40
0.0
 40
0.0
 40
0.0
 40
0.0
 40
0.5
 40
0.5
 40
1.0
 40
1.0
 40
1.0
 40
1.0
 10
683.8190191061157
 20
120.5547113967151
 30
0.0
 10
683.725357131656
 20
120.4610494222555
 30
0.0
 10
683.6336975507118
 20
120.3693898413113
 30
0.0
 10
683.5022079802248
 20
120.2379002708243
 30
0.0
 10
683.4632851013396
 20
120.1989773919391
 30
0.0
 10
683.4632851013396
 20
120.1989773919391
 30
0.0
  0
ARC
  5
B918
330
1F
100
AcDbEntity
  8
0
  6
Continuous
 62
     7
370
    15
100
AcDbCircle
 10
714.948458218717
 20
158.8581319133644
 30
0.0
 40
49.56471272605896
100
AcDbArc
 50
295.6619506554291
 51
308.7418655152384
  0
SPLINE
  5
B91A
330
1F
100
AcDbEntity
  8
0
  6
Continuous
 62
     7
370
    15
100
AcDbSpline
210
0.0
220
0.0
230
1.0
 70
    24
 71
     3
 72
    10
 73
     6
 74
     0
 42
0.0000000001
 43
0.0000000001
 40
0.0
 40
0.0
 40
0.0
 40
0.0
 40
0.5
 40
0.5
 40
1.0
 40
1.0
 40
1.0
 40
1.0
 10
745.9666870415443
 20
120.1989773919386
 30
0.0
 10
745.9666870415443
 20
120.1989773919386
 30
0.0
 10
745.9278646004243
 20
120.2377998330587
 30
0.0
 10
745.7965345873386
 20
120.3691298461443
 30
0.0
 10
745.7046051932196
 20
120.4610592402633
 30
0.0
 10
745.6109530367682
 20
120.5547113967147
 30
0.0
  0
ARC
  5
B91C
330
1F
100
AcDbEntity
  8
0
  6
Continuous
 62
     7
370
    15
100
AcDbCircle
 10
714.7149860714422
 20
159.2288529550931
 30
0.0
 40
50.0
100
AcDbArc
 50
51.31531556935648
 51
81.83640580421
  0
SPLINE
  5
B91D
330
1F
100
AcDbEntity
  8
0
  6
Continuous
 62
     7
370
    15
100
AcDbSpline
210
0.0
220
0.0
230
1.0
 70
    24
 71
     3
 72
    10
 73
     6
 74
     0
 42
0.0000000001
 43
0.0000000001
 40
0.0
 40
0.0
 40
0.0
 40
0.0
 40
0.5
 40
0.5
 40
1.0
 40
1.0
 40
1.0
 40
1.0
 10
745.6109530367686
 20
197.9029945134713
 30
0.0
 10
745.7046150112282
 20
197.996656487931
 30
0.0
 10
745.7962745921723
 20
198.0883160688752
 30
0.0
 10
745.9277641626593
 20
198.2198056393621
 30
0.0
 10
745.9666870415446
 20
198.2587285182474
 30
0.0
 10
745.9666870415446
 20
198.2587285182474
 30
0.0
  0
ARC
  5
B91E
330
1F
100
AcDbEntity
  8
0
  6
Continuous
 62
     7
370
    15
100
AcDbCircle
 10
714.7149860714422
 20
159.2288529550931
 30
0.0
 40
50.0
100
AcDbArc
 50
141.3153155693565
 51
171.8364058042132
  0
SPLINE
  5
B91F
330
1F
100
AcDbEntity
  8
0
  6
Continuous
 62
     7
370
    15
100
AcDbSpline
210
0.0
220
0.0
230
1.0
 70
    24
 71
     3
 72
    10
 73
     6
 74
     0
 42
0.0000000001
 43
0.0000000001
 40
0.0
 40
0.0
 40
0.0
 40
0.0
 40
0.5
 40
0.5
 40
1.0
 40
1.0
 40
1.0
 40
1.0
 10
676.0408445130645
 20
190.1248199204198
 30
0.0
 10
675.9471825386047
 20
190.2184818948794
 30
0.0
 10
675.8555229576606
 20
190.3101414758237
 30
0.0
 10
675.7240333871735
 20
190.4416310463106
 30
0.0
 10
675.6851105082883
 20
190.4805539251958
 30
0.0
 10
675.6851105082883
 20
190.4805539251958
 30
0.0
  0
LINE
  5
B920
330
1F
100
AcDbEntity
  8
0
  6
Continuous
 62
     7
370
    15
100
AcDbLine
 10
707.7904516806593
 20
179.2288529304901
 30
0.0
 11
707.714986357443
 21
179.3043195422166
 31
0.0
  0
LINE
  5
B921
330
1F
100
AcDbEntity
  8
0
  6
Continuous
 62
     7
370
    15
100
AcDbLine
 10
707.714986357443
 20
179.3043195422166
 30
0.0
 11
721.7149855116736
 21
179.3043176726702
 31
0.0
  0
LINE
  5
B922
330
1F
100
AcDbEntity
  8
0
  6
Continuous
 62
     7
370
    15
100
AcDbLine
 10
721.6395200628676
 20
179.2288529677897
 30
0.0
 11
721.7149855116736
 21
179.3043176726702
 31
0.0
  0
LINE
  5
B923
330
1F
100
AcDbEntity
  8
0
  6
Continuous
 62
     7
370
    15
100
AcDbLine
 10
721.7149859934635
 20
179.2288537956231
 30
0.0
 11
721.7149855116736
 21
179.3043176726702
 31
0.0
  0
LINE
  5
B924
330
1F
100
AcDbEntity
  8
0
  6
Continuous
 62
     7
370
    15
100
AcDbLine
 10
707.7149857500634
 20
179.2288521026567
 30
0.0
 11
707.714986357443
 21
179.3043195422166
 31
0.0
  0
LINE
  5
B925
330
1F
100
AcDbEntity
  8
0
  6
Continuous
 62
     7
370
    15
100
AcDbLine
 10
734.7149857888362
 20
166.1533871200182
 30
0.0
 11
734.7904526728552
 21
166.2288533338627
 31
0.0
  0
LINE
  5
B926
330
1F
100
AcDbEntity
  8
0
  6
Continuous
 62
     7
370
    15
100
AcDbLine
 10
734.7904526728552
 20
166.2288533338627
 30
0.0
 11
734.7904524484189
 21
152.2288531897333
 31
0.0
  0
LINE
  5
B927
330
1F
100
AcDbEntity
  8
0
  6
Continuous
 62
     7
370
    15
100
AcDbLine
 10
734.714985962282
 20
152.304319183124
 30
0.0
 11
734.7904524484189
 21
152.2288531897333
 31
0.0
  0
LINE
  5
B928
330
1F
100
AcDbEntity
  8
0
  6
Continuous
 62
     7
370
    15
100
AcDbLine
 10
694.7149863155016
 20
152.304318686167
 30
0.0
 11
694.6395205263301
 21
152.2288528680013
 31
0.0
  0
LINE
  5
B929
330
1F
100
AcDbEntity
  8
0
  6
Continuous
 62
     7
370
    15
100
AcDbLine
 10
694.6395205263301
 20
152.2288528680013
 30
0.0
 11
694.6395206826933
 21
166.2288527894737
 31
0.0
  0
LINE
  5
B92A
330
1F
100
AcDbEntity
  8
0
  6
Continuous
 62
     7
370
    15
100
AcDbLine
 10
694.7149862782018
 20
166.1533870683753
 30
0.0
 11
694.6395206826933
 21
166.2288527894737
 31
0.0
  0
LINE
  5
B92B
330
1F
100
AcDbEntity
  8
0
  6
Continuous
 62
     7
370
    15
100
AcDbLine
 10
694.7149863409967
 20
166.2288527266788
 30
0.0
 11
694.6395206826933
 21
166.2288527894737
 31
0.0
  0
LINE
  5
B92C
330
1F
100
AcDbEntity
  8
0
  6
Continuous
 62
     7
370
    15
100
AcDbLine
 10
734.714986517823
 20
152.2288523618999
 30
0.0
 11
734.7904524484189
 21
152.2288531897333
 31
0.0
  0
LINE
  5
B92D
330
1F
100
AcDbEntity
  8
0
  6
Continuous
 62
     7
370
    15
100
AcDbLine
 10
734.7149867422593
 20
166.2288525060294
 30
0.0
 11
734.7904526728552
 21
166.2288533338627
 31
0.0
  0
LINE
  5
B92E
330
1F
100
AcDbEntity
  8
0
  6
Continuous
 62
     7
370
    15
100
AcDbLine
 10
694.7149862186702
 20
152.228852916535
 30
0.0
 11
694.6395205263301
 21
152.2288528680013
 31
0.0
  0
LINE
  5
B92F
330
1F
100
AcDbEntity
  8
0
  6
Continuous
 62
     7
370
    15
100
AcDbLine
 10
721.6395199783643
 20
139.2288530118413
 30
0.0
 11
721.7149864645011
 21
139.1533870184506
 31
0.0
  0
LINE
  5
B930
330
1F
100
AcDbEntity
  8
0
  6
Continuous
 62
     7
370
    15
100
AcDbLine
 10
721.7149864645011
 20
139.1533870184506
 30
0.0
 11
707.7149861842256
 21
139.1533867975727
 31
0.0
  0
LINE
  5
B931
330
1F
100
AcDbEntity
  8
0
  6
Continuous
 62
     7
370
    15
100
AcDbLine
 10
707.7904521776162
 20
139.2288532837096
 30
0.0
 11
707.7149861842256
 21
139.1533867975727
 31
0.0
  0
LINE
  5
B932
330
1F
100
AcDbEntity
  8
0
  6
Continuous
 62
     7
370
    15
100
AcDbLine
 10
707.7149858017063
 20
139.2288525920224
 30
0.0
 11
707.7149861842256
 21
139.1533867975727
 31
0.0
  0
LINE
  5
B933
330
1F
100
AcDbEntity
  8
0
  6
Continuous
 62
     7
370
    15
100
AcDbLine
 10
721.7149856366678
 20
139.2288529490465
 30
0.0
 11
721.7149864645011
 21
139.1533870184506
 31
0.0
  0
CIRCLE
  5
B934
330
1F
100
AcDbEntity
  8
0
  6
Continuous
 62
     7
370
    15
100
AcDbCircle
 10
740.7904518629452
 20
159.2288529550932
 30
0.0
 40
3.000000000001323
  0
LINE
  5
B935
330
1F
100
AcDbEntity
  8
0
  6
Continuous
 62
     7
370
    15
100
AcDbLine
 10
746.5904505647773
 20
152.4288525314558
 30
0.0
 11
746.5904501098463
 21
166.0288526546098
 31
0.0
  0
LINE
  5
B936
330
1F
100
AcDbEntity
  8
0
  6
Continuous
 62
     7
370
    15
100
AcDbLine
 10
734.7904525158102
 20
152.4288523095928
 30
0.0
 11
746.5904505647773
 21
152.4288525314558
 31
0.0
  0
LINE
  5
B937
330
1F
100
AcDbEntity
  8
0
  6
Continuous
 62
     7
370
    15
100
AcDbLine
 10
746.5904501098463
 20
166.0288526546098
 30
0.0
 11
734.7904520608791
 21
166.0288524327468
 31
0.0
  0
CIRCLE
  5
B938
330
1F
100
AcDbEntity
  8
0
  6
Continuous
 62
     7
370
    15
100
AcDbCircle
 10
740.7904518629452
 20
159.2288529550932
 30
0.0
 40
2.499999999980488
  0
CIRCLE
  5
B939
330
1F
100
AcDbEntity
  8
0
  6
Continuous
 62
     7
370
    15
100
AcDbCircle
 10
714.7149860714421
 20
185.3043187465961
 30
0.0
 40
3.000000000022548
  0
LINE
  5
B93A
330
1F
100
AcDbEntity
  8
0
  6
Continuous
 62
     7
370
    15
100
AcDbLine
 10
721.5149863684924
 20
191.1043196238338
 30
0.0
 11
707.9149862453383
 21
191.1043191689028
 31
0.0
  0
LINE
  5
B93B
330
1F
100
AcDbEntity
  8
0
  6
Continuous
 62
     7
370
    15
100
AcDbLine
 10
721.5149864910848
 20
179.304319657464
 30
0.0
 11
721.5149863684924
 21
191.1043196238338
 31
0.0
  0
LINE
  5
B93C
330
1F
100
AcDbEntity
  8
0
  6
Continuous
 62
     7
370
    15
100
AcDbLine
 10
707.9149862453383
 20
191.1043191689028
 30
0.0
 11
707.9149863679307
 21
179.304319202533
 31
0.0
  0
CIRCLE
  5
B93D
330
1F
100
AcDbEntity
  8
0
  6
Continuous
 62
     7
370
    15
100
AcDbCircle
 10
714.7149860714421
 20
185.3043187465961
 30
0.0
 40
2.499999999966576
  0
CIRCLE
  5
B93E
330
1F
100
AcDbEntity
  8
0
  6
Continuous
 62
     7
370
    15
100
AcDbCircle
 10
714.7149860714422
 20
133.1533871635902
 30
0.0
 40
2.999999999984698
  0
LINE
  5
B93F
330
1F
100
AcDbEntity
  8
0
  6
Continuous
 62
     7
370
    15
100
AcDbLine
 10
707.9149858719915
 20
127.3533866276655
 30
0.0
 11
721.5149868857738
 21
127.3533868103042
 31
0.0
  0
LINE
  5
B940
330
1F
100
AcDbEntity
  8
0
  6
Continuous
 62
     7
370
    15
100
AcDbLine
 10
707.9149860216915
 20
139.1533874846635
 30
0.0
 11
707.9149858719915
 21
127.3533866276655
 31
0.0
  0
LINE
  5
B941
330
1F
100
AcDbEntity
  8
0
  6
Continuous
 62
     7
370
    15
100
AcDbLine
 10
721.5149868857738
 20
127.3533868103042
 30
0.0
 11
721.5149854272391
 21
139.1533871851125
 31
0.0
  0
CIRCLE
  5
B942
330
1F
100
AcDbEntity
  8
0
  6
Continuous
 62
     7
370
    15
100
AcDbCircle
 10
714.7149860714422
 20
133.1533871635902
 30
0.0
 40
2.499999999961275
  0
LINE
  5
B943
330
1F
100
AcDbEntity
  8
0
  6
Continuous
 62
     7
370
    15
100
AcDbLine
 10
721.514985142173
 20
211.1043158506747
 30
0.0
 11
707.9149857742028
 21
211.1043190603662
 31
0.0
  0
LINE
  5
B944
330
1F
100
AcDbEntity
  8
0
  6
Continuous
 62
     7
370
    15
100
AcDbLine
 10
707.9149857742028
 20
211.1043190603662
 30
0.0
 11
707.714986375691
 21
211.3043203011656
 31
0.0
  0
LINE
  5
B945
330
1F
100
AcDbEntity
  8
0
  6
Continuous
 62
     7
370
    15
100
AcDbLine
 10
721.714985430651
 20
211.3043165142167
 30
0.0
 11
707.714986375691
 21
211.3043203011656
 31
0.0
  0
LINE
  5
B946
330
1F
100
AcDbEntity
  8
0
  6
Continuous
 62
     7
370
    15
100
AcDbLine
 10
721.514985142173
 20
211.1043158506747
 30
0.0
 11
721.714985430651
 21
211.3043165142167
 31
0.0
  0
CIRCLE
  5
B947
330
1F
100
AcDbEntity
  8
0
  6
Continuous
 62
     7
370
    15
100
AcDbCircle
 10
714.714986071442
 20
205.3043187465961
 30
0.0
 40
2.999999999936322
  0
LINE
  5
B948
330
1F
100
AcDbEntity
  8
0
  6
Continuous
 62
     7
370
    15
100
AcDbLine
 10
721.5149860873404
 20
199.5043186687869
 30
0.0
 11
707.9149855188723
 21
199.504318350002
 31
0.0
  0
LINE
  5
B949
330
1F
100
AcDbEntity
  8
0
  6
Continuous
 62
     7
370
    15
100
AcDbLine
 10
707.9149857742028
 20
211.1043190603662
 30
0.0
 11
707.9149855188723
 21
199.504318350002
 31
0.0
  0
LINE
  5
B94A
330
1F
100
AcDbEntity
  8
0
  6
Continuous
 62
     7
370
    15
100
AcDbLine
 10
721.514985142173
 20
211.1043158506747
 30
0.0
 11
721.5149860873404
 21
199.5043186687869
 31
0.0
  0
LINE
  5
B94B
330
1F
100
AcDbEntity
  8
0
  6
Continuous
 62
     7
370
    15
100
AcDbLine
 10
707.9149855188723
 20
199.504318350002
 30
0.0
 11
707.7149857870368
 21
199.3043175162774
 31
0.0
  0
LINE
  5
B94C
330
1F
100
AcDbEntity
  8
0
  6
Continuous
 62
     7
370
    15
100
AcDbLine
 10
707.714986375691
 20
211.3043203011656
 30
0.0
 11
707.7149857870368
 21
199.3043175162774
 31
0.0
  0
LINE
  5
B94D
330
1F
100
AcDbEntity
  8
0
  6
Continuous
 62
     7
370
    15
100
AcDbLine
 10
721.7149857085092
 20
199.3043173599143
 30
0.0
 11
721.5149860873404
 21
199.5043186687869
 31
0.0
  0
LINE
  5
B94E
330
1F
100
AcDbEntity
  8
0
  6
Continuous
 62
     7
370
    15
100
AcDbLine
 10
721.7149857085092
 20
199.3043173599143
 30
0.0
 11
721.714985430651
 21
211.3043165142167
 31
0.0
  0
LINE
  5
B94F
330
1F
100
AcDbEntity
  8
0
  6
Continuous
 62
     7
370
    15
100
AcDbLine
 10
707.7149857870368
 20
199.3043175162774
 30
0.0
 11
721.7149857085092
 21
199.3043173599143
 31
0.0
  0
LINE
  5
B950
330
1F
100
AcDbEntity
  8
0
  6
Continuous
 62
     7
370
    15
100
AcDbLine
 10
721.714986545642
 20
191.3043203214123
 30
0.0
 11
707.7149868468266
 21
191.3043204097023
 31
0.0
  0
LINE
  5
B951
330
1F
100
AcDbEntity
  8
0
  6
Continuous
 62
     7
370
    15
100
AcDbLine
 10
721.5149863684924
 20
191.1043196238338
 30
0.0
 11
721.714986545642
 21
191.3043203214123
 31
0.0
  0
LINE
  5
B952
330
1F
100
AcDbEntity
  8
0
  6
Continuous
 62
     7
370
    15
100
AcDbLine
 10
707.7149868468266
 20
191.3043204097023
 30
0.0
 11
707.9149862453383
 21
191.1043191689028
 31
0.0
  0
LINE
  5
B953
330
1F
100
AcDbEntity
  8
0
  6
Continuous
 62
     7
370
    15
100
AcDbLine
 10
707.7149868468266
 20
191.3043204097023
 30
0.0
 11
707.714986357443
 21
179.3043195422166
 31
0.0
  0
LINE
  5
B954
330
1F
100
AcDbEntity
  8
0
  6
Continuous
 62
     7
370
    15
100
AcDbLine
 10
721.7149855116736
 20
179.3043176726702
 30
0.0
 11
721.714986545642
 21
191.3043203214123
 31
0.0
  0
LINE
  5
B955
330
1F
100
AcDbEntity
  8
0
  6
Continuous
 62
     7
370
    15
100
AcDbLine
 10
694.6395203430096
 20
166.028852778986
 30
0.0
 11
682.8395196221578
 21
166.0288533740001
 31
0.0
  0
LINE
  5
B956
330
1F
100
AcDbEntity
  8
0
  6
Continuous
 62
     7
370
    15
100
AcDbLine
 10
682.8395196221578
 20
166.0288533740001
 30
0.0
 11
682.6395205696895
 21
166.2288525612508
 31
0.0
  0
LINE
  5
B957
330
1F
100
AcDbEntity
  8
0
  6
Continuous
 62
     7
370
    15
100
AcDbLine
 10
694.6395206826933
 20
166.2288527894737
 30
0.0
 11
682.6395205696895
 21
166.2288525612508
 31
0.0
  0
CIRCLE
  5
B958
330
1F
100
AcDbEntity
  8
0
  6
Continuous
 62
     7
370
    15
100
AcDbCircle
 10
688.6395202799393
 20
159.2288529550928
 30
0.0
 40
2.999999999875985
  0
LINE
  5
B959
330
1F
100
AcDbEntity
  8
0
  6
Continuous
 62
     7
370
    15
100
AcDbLine
 10
682.8395196221578
 20
166.0288533740001
 30
0.0
 11
682.8395200090158
 21
152.428853028189
 31
0.0
  0
LINE
  5
B95A
330
1F
100
AcDbEntity
  8
0
  6
Continuous
 62
     7
370
    15
100
AcDbLine
 10
682.8395200090158
 20
152.428853028189
 30
0.0
 11
694.639519941349
 21
152.4288530394528
 31
0.0
  0
LINE
  5
B95B
330
1F
100
AcDbEntity
  8
0
  6
Continuous
 62
     7
370
    15
100
AcDbLine
 10
746.7904516229381
 20
166.2288529437497
 30
0.0
 11
746.5904501098463
 21
166.0288526546098
 31
0.0
  0
LINE
  5
B95C
330
1F
100
AcDbEntity
  8
0
  6
Continuous
 62
     7
370
    15
100
AcDbLine
 10
746.7904516229381
 20
166.2288529437497
 30
0.0
 11
734.7904526728552
 21
166.2288533338627
 31
0.0
  0
LINE
  5
B95D
330
1F
100
AcDbEntity
  8
0
  6
Continuous
 62
     7
370
    15
100
AcDbLine
 10
674.6395216818581
 20
166.2288520460458
 30
0.0
 11
674.4395204410586
 21
166.0288526475341
 31
0.0
  0
LINE
  5
B95E
330
1F
100
AcDbEntity
  8
0
  6
Continuous
 62
     7
370
    15
100
AcDbLine
 10
662.8395197306945
 20
166.0288529028646
 30
0.0
 11
674.4395204410586
 21
166.0288526475341
 31
0.0
  0
LINE
  5
B95F
330
1F
100
AcDbEntity
  8
0
  6
Continuous
 62
     7
370
    15
100
AcDbLine
 10
662.8395197306945
 20
166.0288529028646
 30
0.0
 11
662.6395191692623
 21
166.2288535253282
 31
0.0
  0
LINE
  5
B960
330
1F
100
AcDbEntity
  8
0
  6
Continuous
 62
     7
370
    15
100
AcDbLine
 10
674.6395216818581
 20
166.2288520460458
 30
0.0
 11
662.6395191692623
 21
166.2288535253282
 31
0.0
  0
CIRCLE
  5
B961
330
1F
100
AcDbEntity
  8
0
  6
Continuous
 62
     7
370
    15
100
AcDbCircle
 10
668.6395202799393
 20
159.2288529550926
 30
0.0
 40
2.999999999976378
  0
LINE
  5
B962
330
1F
100
AcDbEntity
  8
0
  6
Continuous
 62
     7
370
    15
100
AcDbLine
 10
674.4395204410586
 20
166.0288526475341
 30
0.0
 11
674.4395208959896
 21
152.42885252438
 31
0.0
  0
LINE
  5
B963
330
1F
100
AcDbEntity
  8
0
  6
Continuous
 62
     7
370
    15
100
AcDbLine
 10
662.8395201856256
 20
152.4288527797105
 30
0.0
 11
674.4395208959896
 21
152.42885252438
 31
0.0
  0
LINE
  5
B964
330
1F
100
AcDbEntity
  8
0
  6
Continuous
 62
     7
370
    15
100
AcDbLine
 10
662.8395197306945
 20
166.0288529028646
 30
0.0
 11
662.8395201856256
 21
152.4288527797105
 31
0.0
  0
LINE
  5
B965
330
1F
100
AcDbEntity
  8
0
  6
Continuous
 62
     7
370
    15
100
AcDbLine
 10
682.6395205696895
 20
166.2288525612508
 30
0.0
 11
682.6395204813995
 21
152.2288528624355
 31
0.0
  0
LINE
  5
B966
330
1F
100
AcDbEntity
  8
0
  6
Continuous
 62
     7
370
    15
100
AcDbLine
 10
682.6395204813995
 20
152.2288528624355
 30
0.0
 11
682.8395200090158
 21
152.428853028189
 31
0.0
  0
LINE
  5
B967
330
1F
100
AcDbEntity
  8
0
  6
Continuous
 62
     7
370
    15
100
AcDbLine
 10
662.8395201856256
 20
152.4288527797105
 30
0.0
 11
662.639518944826
 21
152.2288533811988
 31
0.0
  0
LINE
  5
B968
330
1F
100
AcDbEntity
  8
0
  6
Continuous
 62
     7
370
    15
100
AcDbLine
 10
662.6395191692623
 20
166.2288535253282
 30
0.0
 11
662.639518944826
 21
152.2288533811988
 31
0.0
  0
LINE
  5
B969
330
1F
100
AcDbEntity
  8
0
  6
Continuous
 62
     7
370
    15
100
AcDbLine
 10
766.5904497290171
 20
166.0288522351172
 30
0.0
 11
766.7904512421091
 21
166.2288525242571
 31
0.0
  0
LINE
  5
B96A
330
1F
100
AcDbEntity
  8
0
  6
Continuous
 62
     7
370
    15
100
AcDbLine
 10
766.5904497290171
 20
166.0288522351172
 30
0.0
 11
754.9904525811659
 21
166.0288514012782
 31
0.0
  0
LINE
  5
B96B
330
1F
100
AcDbEntity
  8
0
  6
Continuous
 62
     7
370
    15
100
AcDbLine
 10
754.9904525811659
 20
166.0288514012782
 30
0.0
 11
754.790452292026
 21
166.2288529143701
 31
0.0
  0
LINE
  5
B96C
330
1F
100
AcDbEntity
  8
0
  6
Continuous
 62
     7
370
    15
100
AcDbLine
 10
766.7904512421091
 20
166.2288525242571
 30
0.0
 11
754.790452292026
 21
166.2288529143701
 31
0.0
  0
LINE
  5
B96D
330
1F
100
AcDbEntity
  8
0
  6
Continuous
 62
     7
370
    15
100
AcDbLine
 10
674.6395198123117
 20
152.2288528918152
 30
0.0
 11
674.6395216818581
 21
166.2288520460458
 31
0.0
  0
LINE
  5
B96E
330
1F
100
AcDbEntity
  8
0
  6
Continuous
 62
     7
370
    15
100
AcDbLine
 10
674.4395208959896
 20
152.42885252438
 30
0.0
 11
674.6395198123117
 21
152.2288528918152
 31
0.0
  0
CIRCLE
  5
B96F
330
1F
100
AcDbEntity
  8
0
  6
Continuous
 62
     7
370
    15
100
AcDbCircle
 10
760.7904518629452
 20
159.2288529550933
 30
0.0
 40
2.999999999993016
  0
LINE
  5
B970
330
1F
100
AcDbEntity
  8
0
  6
Continuous
 62
     7
370
    15
100
AcDbLine
 10
754.9904535806818
 20
152.4288530593805
 30
0.0
 11
754.9904525811659
 21
166.0288514012782
 31
0.0
  0
LINE
  5
B971
330
1F
100
AcDbEntity
  8
0
  6
Continuous
 62
     7
370
    15
100
AcDbLine
 10
766.590450728533
 20
152.4288538932195
 30
0.0
 11
766.5904497290171
 21
166.0288522351172
 31
0.0
  0
LINE
  5
B972
330
1F
100
AcDbEntity
  8
0
  6
Continuous
 62
     7
370
    15
100
AcDbLine
 10
766.590450728533
 20
152.4288538932195
 30
0.0
 11
754.9904535806818
 21
152.4288530593805
 31
0.0
  0
LINE
  5
B973
330
1F
100
AcDbEntity
  8
0
  6
Continuous
 62
     7
370
    15
100
AcDbLine
 10
746.7904513985019
 20
152.2288527996203
 30
0.0
 11
746.7904516229381
 21
166.2288529437497
 31
0.0
  0
LINE
  5
B974
330
1F
100
AcDbEntity
  8
0
  6
Continuous
 62
     7
370
    15
100
AcDbLine
 10
746.5904505647773
 20
152.4288525314558
 30
0.0
 11
746.7904513985019
 21
152.2288527996203
 31
0.0
  0
LINE
  5
B975
330
1F
100
AcDbEntity
  8
0
  6
Continuous
 62
     7
370
    15
100
AcDbLine
 10
754.790452292026
 20
166.2288529143701
 30
0.0
 11
754.7904520675899
 21
152.2288527702406
 31
0.0
  0
LINE
  5
B976
330
1F
100
AcDbEntity
  8
0
  6
Continuous
 62
     7
370
    15
100
AcDbLine
 10
754.7904520675899
 20
152.2288527702406
 30
0.0
 11
754.9904535806818
 21
152.4288530593805
 31
0.0
  0
LINE
  5
B977
330
1F
100
AcDbEntity
  8
0
  6
Continuous
 62
     7
370
    15
100
AcDbLine
 10
766.7904510176729
 20
152.2288523801277
 30
0.0
 11
766.7904512421091
 21
166.2288525242571
 31
0.0
  0
LINE
  5
B978
330
1F
100
AcDbEntity
  8
0
  6
Continuous
 62
     7
370
    15
100
AcDbLine
 10
766.590450728533
 20
152.4288538932195
 30
0.0
 11
766.7904510176729
 21
152.2288523801277
 31
0.0
  0
LINE
  5
B979
330
1F
100
AcDbEntity
  8
0
  6
Continuous
 62
     7
370
    15
100
AcDbLine
 10
682.6395204813995
 20
152.2288528624355
 30
0.0
 11
694.6395205263301
 21
152.2288528680013
 31
0.0
  0
LINE
  5
B97A
330
1F
100
AcDbEntity
  8
0
  6
Continuous
 62
     7
370
    15
100
AcDbLine
 10
734.7904524484189
 20
152.2288531897333
 30
0.0
 11
746.7904513985019
 21
152.2288527996203
 31
0.0
  0
LINE
  5
B97B
330
1F
100
AcDbEntity
  8
0
  6
Continuous
 62
     7
370
    15
100
AcDbLine
 10
662.639518944826
 20
152.2288533811988
 30
0.0
 11
674.6395198123117
 21
152.2288528918152
 31
0.0
  0
LINE
  5
B97C
330
1F
100
AcDbEntity
  8
0
  6
Continuous
 62
     7
370
    15
100
AcDbLine
 10
754.7904520675899
 20
152.2288527702406
 30
0.0
 11
766.7904510176729
 21
152.2288523801277
 31
0.0
  0
LINE
  5
B97D
330
1F
100
AcDbEntity
  8
0
  6
Continuous
 62
     7
370
    15
100
AcDbLine
 10
707.9149858719915
 20
127.3533866276655
 30
0.0
 11
707.7149857941126
 21
127.1533878474897
 31
0.0
  0
LINE
  5
B97E
330
1F
100
AcDbEntity
  8
0
  6
Continuous
 62
     7
370
    15
100
AcDbLine
 10
707.7149861842256
 20
139.1533867975727
 30
0.0
 11
707.7149857941126
 21
127.1533878474897
 31
0.0
  0
LINE
  5
B97F
330
1F
100
AcDbEntity
  8
0
  6
Continuous
 62
     7
370
    15
100
AcDbLine
 10
721.7149859382421
 20
127.1533876230535
 30
0.0
 11
721.5149868857738
 21
127.3533868103042
 31
0.0
  0
LINE
  5
B980
330
1F
100
AcDbEntity
  8
0
  6
Continuous
 62
     7
370
    15
100
AcDbLine
 10
721.7149859382421
 20
127.1533876230535
 30
0.0
 11
721.7149864645011
 21
139.1533870184506
 31
0.0
  0
LINE
  5
B981
330
1F
100
AcDbEntity
  8
0
  6
Continuous
 62
     7
370
    15
100
AcDbLine
 10
707.7149857941126
 20
127.1533878474897
 30
0.0
 11
721.7149859382421
 21
127.1533876230535
 31
0.0
  0
CIRCLE
  5
B982
330
1F
100
AcDbEntity
  8
0
  6
Continuous
 62
     7
370
    15
100
AcDbCircle
 10
714.7149860714423
 20
113.1533871635902
 30
0.0
 40
2.999999999993005
  0
LINE
  5
B983
330
1F
100
AcDbEntity
  8
0
  6
Continuous
 62
     7
370
    15
100
AcDbLine
 10
707.9149865984576
 20
118.9533874465663
 30
0.0
 11
721.5149867216116
 21
118.9533879014973
 31
0.0
  0
LINE
  5
B984
330
1F
100
AcDbEntity
  8
0
  6
Continuous
 62
     7
370
    15
100
AcDbLine
 10
721.5149859216964
 20
107.3533854098768
 30
0.0
 11
721.5149867216116
 21
118.9533879014973
 31
0.0
  0
LINE
  5
B985
330
1F
100
AcDbEntity
  8
0
  6
Continuous
 62
     7
370
    15
100
AcDbLine
 10
707.9149868877118
 20
107.3533885174586
 30
0.0
 11
721.5149859216964
 21
107.3533854098768
 31
0.0
  0
LINE
  5
B986
330
1F
100
AcDbEntity
  8
0
  6
Continuous
 62
     7
370
    15
100
AcDbLine
 10
707.9149865984576
 20
118.9533874465663
 30
0.0
 11
707.9149868877118
 21
107.3533885174586
 31
0.0
  0
LINE
  5
B987
330
1F
100
AcDbEntity
  8
0
  6
Continuous
 62
     7
370
    15
100
AcDbLine
 10
721.7149859088623
 20
119.1533869539656
 30
0.0
 11
707.7149857647328
 21
119.1533871784018
 31
0.0
  0
LINE
  5
B988
330
1F
100
AcDbEntity
  8
0
  6
Continuous
 62
     7
370
    15
100
AcDbLine
 10
721.5149867216116
 20
118.9533879014973
 30
0.0
 11
721.7149859088623
 21
119.1533869539656
 31
0.0
  0
LINE
  5
B989
330
1F
100
AcDbEntity
  8
0
  6
Continuous
 62
     7
370
    15
100
AcDbLine
 10
707.9149865984576
 20
118.9533874465663
 30
0.0
 11
707.7149857647328
 21
119.1533871784018
 31
0.0
  0
LINE
  5
B98A
330
1F
100
AcDbEntity
  8
0
  6
Continuous
 62
     7
370
    15
100
AcDbLine
 10
707.9149868877118
 20
107.3533885174586
 30
0.0
 11
707.7149871558764
 21
107.1533876837339
 31
0.0
  0
LINE
  5
B98B
330
1F
100
AcDbEntity
  8
0
  6
Continuous
 62
     7
370
    15
100
AcDbLine
 10
707.7149857647328
 20
119.1533871784018
 30
0.0
 11
707.7149871558764
 21
107.1533876837339
 31
0.0
  0
LINE
  5
B98C
330
1F
100
AcDbEntity
  8
0
  6
Continuous
 62
     7
370
    15
100
AcDbLine
 10
721.7149855187493
 20
107.1533880038825
 30
0.0
 11
721.5149859216964
 21
107.3533854098768
 31
0.0
  0
LINE
  5
B98D
330
1F
100
AcDbEntity
  8
0
  6
Continuous
 62
     7
370
    15
100
AcDbLine
 10
721.7149855187493
 20
107.1533880038825
 30
0.0
 11
721.7149859088623
 21
119.1533869539656
 31
0.0
  0
LINE
  5
B98E
330
1F
100
AcDbEntity
  8
0
  6
Continuous
 62
     7
370
    15
100
AcDbLine
 10
707.7149871558764
 20
107.1533876837339
 30
0.0
 11
721.7149855187493
 21
107.1533880038825
 31
0.0
  0
CIRCLE
  5
B98F
330
1F
100
AcDbEntity
  8
0
  6
Continuous
 62
     7
370
    15
100
AcDbCircle
 10
714.714986071442
 20
205.3043187465961
 30
0.0
 40
2.500000000006565
  0
CIRCLE
  5
B990
330
1F
100
AcDbEntity
  8
0
  6
Continuous
 62
     7
370
    15
100
AcDbCircle
 10
714.7149860714422
 20
113.1533871635902
 30
0.0
 40
2.50000000000125
  0
CIRCLE
  5
B991
330
1F
100
AcDbEntity
  8
0
  6
Continuous
 62
     7
370
    15
100
AcDbCircle
 10
760.7904518629452
 20
159.2288529550933
 30
0.0
 40
2.500000000020463
  0
CIRCLE
  5
B992
330
1F
100
AcDbEntity
  8
0
  6
Continuous
 62
     7
370
    15
100
AcDbCircle
 10
668.6395202799393
 20
159.2288529550926
 30
0.0
 40
2.499999999987352
  0
CIRCLE
  5
B993
330
1F
100
AcDbEntity
  8
0
  6
Continuous
 62
     7
370
    15
100
AcDbCircle
 10
688.6395202799393
 20
159.2288529550928
 30
0.0
 40
2.500000000018346
  0
CIRCLE
  5
B994
330
1F
100
AcDbEntity
  8
0
  6
Continuous
 62
     7
370
    15
100
AcDbCircle
 10
678.6395202799393
 20
159.2288529550927
 30
0.0
 40
3.500000000022448
  0
LINE
  5
B995
330
1F
100
AcDbEntity
  8
0
  6
Continuous
 62
     7
370
    15
100
AcDbLine
 10
674.6395208809063
 20
152.2895128875726
 30
0.0
 11
682.639519768738
 21
152.2895134027777
 31
0.0
  0
LINE
  5
B996
330
1F
100
AcDbEntity
  8
0
  6
Continuous
 62
     7
370
    15
100
AcDbLine
 10
682.639519637241
 20
166.1681930108075
 30
0.0
 11
674.639518968153
 21
166.1681930401872
 31
0.0
  0
CIRCLE
  5
B997
330
1F
100
AcDbEntity
  8
0
  6
Continuous
 62
     7
370
    15
100
AcDbCircle
 10
678.6395202799393
 20
159.2288529550927
 30
0.0
 40
3.00000000001501
  0
CIRCLE
  5
B998
330
1F
100
AcDbEntity
  8
0
  6
Continuous
 62
     7
370
    15
100
AcDbCircle
 10
750.7904518629452
 20
159.2288529550932
 30
0.0
 40
3.50000000004066
  0
LINE
  5
B999
330
1F
100
AcDbEntity
  8
0
  6
Continuous
 62
     7
370
    15
100
AcDbLine
 10
746.7904508219865
 20
152.2895137852766
 30
0.0
 11
754.7904514910745
 21
152.2895137558969
 31
0.0
  0
LINE
  5
B99A
330
1F
100
AcDbEntity
  8
0
  6
Continuous
 62
     7
370
    15
100
AcDbLine
 10
754.7904528685416
 20
166.1681919287139
 30
0.0
 11
746.7904521994536
 21
166.1681919580935
 31
0.0
  0
CIRCLE
  5
B99B
330
1F
100
AcDbEntity
  8
0
  6
Continuous
 62
     7
370
    15
100
AcDbCircle
 10
750.7904518629452
 20
159.2288529550932
 30
0.0
 40
3.000000000002074
  0
CIRCLE
  5
B99C
330
1F
100
AcDbEntity
  8
0
  6
Continuous
 62
     7
370
    15
100
AcDbCircle
 10
714.714986071442
 20
195.3043187465961
 30
0.0
 40
3.49999999998633
  0
LINE
  5
B99D
330
1F
100
AcDbEntity
  8
0
  6
Continuous
 62
     7
370
    15
100
AcDbLine
 10
707.7756458820648
 20
199.3043183650852
 30
0.0
 11
707.7756458526851
 21
191.3043176959974
 31
0.0
  0
LINE
  5
B99E
330
1F
100
AcDbEntity
  8
0
  6
Continuous
 62
     7
370
    15
100
AcDbLine
 10
721.6543260052998
 20
191.3043196087507
 30
0.0
 11
721.6543262573366
 21
199.3043202097654
 31
0.0
  0
CIRCLE
  5
B99F
330
1F
100
AcDbEntity
  8
0
  6
Continuous
 62
     7
370
    15
100
AcDbCircle
 10
714.714986071442
 20
195.3043187465961
 30
0.0
 40
2.999999999979877
  0
CIRCLE
  5
B9A0
330
1F
100
AcDbEntity
  8
0
  6
Continuous
 62
     7
370
    15
100
AcDbCircle
 10
714.7149860714422
 20
123.1533871635902
 30
0.0
 40
3.499999999994622
  0
LINE
  5
B9A1
330
1F
100
AcDbEntity
  8
0
  6
Continuous
 62
     7
370
    15
100
AcDbLine
 10
721.6543254677908
 20
119.1533881587065
 30
0.0
 11
721.6543249525858
 21
127.153387046538
 31
0.0
  0
LINE
  5
B9A2
330
1F
100
AcDbEntity
  8
0
  6
Continuous
 62
     7
370
    15
100
AcDbLine
 10
707.7756462351841
 20
127.1533866427487
 30
0.0
 11
707.7756467503892
 21
119.1533877549173
 31
0.0
  0
CIRCLE
  5
B9A3
330
1F
100
AcDbEntity
  8
0
  6
Continuous
 62
     7
370
    15
100
AcDbCircle
 10
714.7149860714422
 20
123.1533871635902
 30
0.0
 40
2.999999999991175
  0
CIRCLE
  5
B9A4
330
1F
100
AcDbEntity
  8
0
  6
Continuous
 62
     7
370
    15
100
AcDbCircle
 10
682.8975621571465
 20
191.0462768693897
 30
0.0
 40
3.250000000000004
  0
ARC
  5
B9A5
330
1F
100
AcDbEntity
  8
0
  6
Continuous
 62
     7
370
    15
100
AcDbCircle
 10
714.7149860714422
 20
159.2288529550931
 30
0.0
 40
50.00000000000002
100
AcDbArc
 50
128.6846844306435
 51
141.3153155693565
  0
CIRCLE
  5
B9A6
330
1F
100
AcDbEntity
  8
0
  6
Continuous
 62
     7
370
    15
100
AcDbCircle
 10
746.5324099857386
 20
191.0462768693893
 30
0.0
 40
3.250000000000006
  0
ARC
  5
B9A7
330
1F
100
AcDbEntity
  8
0
  6
Continuous
 62
     7
370
    15
100
AcDbCircle
 10
714.7149860714422
 20
159.2288529550931
 30
0.0
 40
50.0
100
AcDbArc
 50
38.68468443064352
 51
51.31531556935648
  0
CIRCLE
  5
B9A8
330
1F
100
AcDbEntity
  8
0
  6
Continuous
 62
     7
370
    15
100
AcDbCircle
 10
682.8975621571458
 20
127.4114290407972
 30
0.0
 40
3.250000000000007
  0
ARC
  5
B9A9
330
1F
100
AcDbEntity
  8
0
  6
Continuous
 62
     7
370
    15
100
AcDbCircle
 10
714.7149860714422
 20
159.2288529550931
 30
0.0
 40
50.0
100
AcDbArc
 50
218.6846844306435
 51
231.3153155693565
  0
CIRCLE
  5
B9AA
330
1F
100
AcDbEntity
  8
0
  6
Continuous
 62
     7
370
    15
100
AcDbCircle
 10
746.5324099857383
 20
127.4114290407967
 30
0.0
 40
3.25000000000001
  0
ARC
  5
B9AB
330
1F
100
AcDbEntity
  8
0
  6
Continuous
 62
     7
370
    15
100
AcDbCircle
 10
714.7149860714422
 20
159.2288529550931
 30
0.0
 40
50.00000000000004
100
AcDbArc
 50
308.6846844306435
 51
321.3153155693565
  0
LINE
  5
B9AC
330
1F
100
AcDbEntity
  8
0
  6
Continuous
 62
     7
370
    15
100
AcDbLine
 10
707.3614331085501
 20
211.3043198998528
 30
0.0
 11
707.3614325250336
 21
208.6851497838609
 31
0.0
  0
LINE
  5
B9AD
330
1F
100
AcDbEntity
  8
0
  6
Continuous
 62
     7
370
    15
100
AcDbLine
 10
707.3614331085501
 20
211.3043198998528
 30
0.0
 11
707.714986375691
 21
211.3043203011657
 31
0.0
  0
LINE
  5
B9AE
330
1F
100
AcDbEntity
  8
0
  6
Continuous
 62
     7
370
    15
100
AcDbLine
 10
722.0685397322555
 20
208.6851502003769
 30
0.0
 11
722.0685389204491
 21
211.3043168474564
 31
0.0
  0
LINE
  5
B9AF
330
1F
100
AcDbEntity
  8
0
  6
Continuous
 62
     7
370
    15
100
AcDbLine
 10
722.0685389204491
 20
211.3043168474564
 30
0.0
 11
721.714985430651
 21
211.3043165142167
 31
0.0
  0
LINE
  5
B9B0
330
1F
100
AcDbEntity
  8
0
  6
Continuous
 62
     7
370
    15
100
AcDbLine
 10
665.2586890200873
 20
166.5824066542669
 30
0.0
 11
662.6395187679492
 21
166.5824067924692
 31
0.0
  0
LINE
  5
B9B1
330
1F
100
AcDbEntity
  8
0
  6
Continuous
 62
     7
370
    15
100
AcDbLine
 10
662.6395187679492
 20
166.5824067924692
 30
0.0
 11
662.6395191692623
 21
166.2288535253283
 31
0.0
  0
LINE
  5
B9B2
330
1F
100
AcDbEntity
  8
0
  6
Continuous
 62
     7
370
    15
100
AcDbLine
 10
766.7904505685039
 20
166.5824049007699
 30
0.0
 11
764.171280452512
 21
166.5824054842864
 31
0.0
  0
LINE
  5
B9B3
330
1F
100
AcDbEntity
  8
0
  6
Continuous
 62
     7
370
    15
100
AcDbLine
 10
766.7904505685039
 20
166.5824049007699
 30
0.0
 11
766.7904512421091
 21
166.2288525242571
 31
0.0
  0
LINE
  5
B9B4
330
1F
100
AcDbEntity
  8
0
  6
Continuous
 62
     7
370
    15
100
AcDbLine
 10
662.6395193461388
 20
151.8753001140578
 30
0.0
 11
665.2586894621308
 21
151.8752995305414
 31
0.0
  0
LINE
  5
B9B5
330
1F
100
AcDbEntity
  8
0
  6
Continuous
 62
     7
370
    15
100
AcDbLine
 10
662.6395193461388
 20
151.8753001140578
 30
0.0
 11
662.639518944826
 21
152.2288533811988
 31
0.0
  0
LINE
  5
B9B6
330
1F
100
AcDbEntity
  8
0
  6
Continuous
 62
     7
370
    15
100
AcDbLine
 10
764.1712815752863
 20
151.8753005871313
 30
0.0
 11
766.7904516912782
 21
151.8753000036149
 31
0.0
  0
LINE
  5
B9B7
330
1F
100
AcDbEntity
  8
0
  6
Continuous
 62
     7
370
    15
100
AcDbLine
 10
766.7904516912782
 20
151.8753000036149
 30
0.0
 11
766.7904510176729
 21
152.2288523801277
 31
0.0
  0
LINE
  5
B9B8
330
1F
100
AcDbEntity
  8
0
  6
Continuous
 62
     7
370
    15
100
AcDbLine
 10
722.068540260035
 20
109.7725582488949
 30
0.0
 11
722.0685396765186
 21
107.153388132903
 31
0.0
  0
LINE
  5
B9B9
330
1F
100
AcDbEntity
  8
0
  6
Continuous
 62
     7
370
    15
100
AcDbLine
 10
722.0685396765186
 20
107.153388132903
 30
0.0
 11
721.7149855187493
 21
107.1533880038825
 31
0.0
  0
LINE
  5
B9BA
330
1F
100
AcDbEntity
  8
0
  6
Continuous
 62
     7
370
    15
100
AcDbLine
 10
707.3614329981071
 20
107.1533875547134
 30
0.0
 11
707.3614326909954
 21
109.7725579429977
 31
0.0
  0
LINE
  5
B9BB
330
1F
100
AcDbEntity
  8
0
  6
Continuous
 62
     7
370
    15
100
AcDbLine
 10
707.7149871558764
 20
107.1533876837339
 30
0.0
 11
707.3614329981071
 21
107.1533875547134
 31
0.0
  0
LINE
  5
B9BC
330
1F
100
AcDbEntity
  8
0
  6
Continuous
 62
     7
370
    15
100
AcDbLine
 10
722.7756454457384
 20
208.5748305422749
 30
0.0
 11
722.775645872213
 21
211.3043175224452
 31
0.0
  0
LINE
  5
B9BD
330
1F
100
AcDbEntity
  8
0
  6
Continuous
 62
     7
370
    15
100
AcDbLine
 10
727.2149852751521
 20
211.3043160735217
 30
0.0
 11
727.2149866835734
 21
207.641146017721
 31
0.0
  0
LINE
  5
B9BE
330
1F
100
AcDbEntity
  8
0
  6
Continuous
 62
     7
370
    15
100
AcDbLine
 10
722.775645872213
 20
211.3043175224452
 30
0.0
 11
727.2149852751521
 21
211.3043160735217
 31
0.0
  0
LINE
  5
B9BF
330
1F
100
AcDbEntity
  8
0
  6
Continuous
 62
     7
370
    15
100
AcDbLine
 10
722.0685389204491
 20
211.3043168474564
 30
0.0
 11
722.775645872213
 21
211.3043175224452
 31
0.0
  0
LINE
  5
B9C0
330
1F
100
AcDbEntity
  8
0
  6
Continuous
 62
     7
370
    15
100
AcDbLine
 10
702.2149862065864
 20
207.6411434248881
 30
0.0
 11
702.2149847740494
 21
211.3043173835671
 31
0.0
  0
LINE
  5
B9C1
330
1F
100
AcDbEntity
  8
0
  6
Continuous
 62
     7
370
    15
100
AcDbLine
 10
706.6543265742681
 20
211.304319097227
 30
0.0
 11
706.654326036465
 21
208.5748321510934
 31
0.0
  0
LINE
  5
B9C2
330
1F
100
AcDbEntity
  8
0
  6
Continuous
 62
     7
370
    15
100
AcDbLine
 10
702.2149847740494
 20
211.3043173835671
 30
0.0
 11
706.6543265742681
 21
211.304319097227
 31
0.0
  0
LINE
  5
B9C3
330
1F
100
AcDbEntity
  8
0
  6
Continuous
 62
     7
370
    15
100
AcDbLine
 10
701.214987114279
 20
207.3718699698098
 30
0.0
 11
701.2149861568238
 21
211.3043205909491
 31
0.0
  0
LINE
  5
B9C4
330
1F
100
AcDbEntity
  8
0
  6
Continuous
 62
     7
370
    15
100
AcDbLine
 10
702.2149847740494
 20
211.3043173835671
 30
0.0
 11
701.2149861568238
 21
211.3043205909491
 31
0.0
  0
LINE
  5
B9C5
330
1F
100
AcDbEntity
  8
0
  6
Continuous
 62
     7
370
    15
100
AcDbLine
 10
707.3614331085501
 20
211.3043198998528
 30
0.0
 11
706.6543265742681
 21
211.304319097227
 31
0.0
  0
LINE
  5
B9C6
330
1F
100
AcDbEntity
  8
0
  6
Continuous
 62
     7
370
    15
100
AcDbLine
 10
728.2149863602007
 20
207.3718695742452
 30
0.0
 11
728.2149862933737
 21
211.3043199230922
 31
0.0
  0
LINE
  5
B9C7
330
1F
100
AcDbEntity
  8
0
  6
Continuous
 62
     7
370
    15
100
AcDbLine
 10
727.2149852751521
 20
211.3043160735217
 30
0.0
 11
728.2149862933737
 21
211.3043199230922
 31
0.0
  0
LINE
  5
B9C8
330
1F
100
AcDbEntity
  8
0
  6
Continuous
 62
     7
370
    15
100
AcDbLine
 10
662.639519541884
 20
171.7288531471723
 30
0.0
 11
666.3026932282706
 21
171.7288536890811
 31
0.0
  0
LINE
  5
B9C9
330
1F
100
AcDbEntity
  8
0
  6
Continuous
 62
     7
370
    15
100
AcDbLine
 10
666.5719695356003
 20
172.7288529203943
 30
0.0
 11
662.6395191867533
 21
172.7288528535673
 31
0.0
  0
LINE
  5
B9CA
330
1F
100
AcDbEntity
  8
0
  6
Continuous
 62
     7
370
    15
100
AcDbLine
 10
662.639519541884
 20
171.7288531471723
 30
0.0
 11
662.6395191867533
 21
172.7288528535673
 31
0.0
  0
LINE
  5
B9CB
330
1F
100
AcDbEntity
  8
0
  6
Continuous
 62
     7
370
    15
100
AcDbLine
 10
762.8580017276304
 20
172.7288544575538
 30
0.0
 11
766.7904518041849
 21
172.7288536337526
 31
0.0
  0
LINE
  5
B9CC
330
1F
100
AcDbEntity
  8
0
  6
Continuous
 62
     7
370
    15
100
AcDbLine
 10
763.1272782006369
 20
171.7288524948205
 30
0.0
 11
766.7904521593158
 21
171.7288539273576
 31
0.0
  0
LINE
  5
B9CD
330
1F
100
AcDbEntity
  8
0
  6
Continuous
 62
     7
370
    15
100
AcDbLine
 10
766.7904521593158
 20
171.7288539273576
 30
0.0
 11
766.7904518041849
 21
172.7288536337526
 31
0.0
  0
LINE
  5
B9CE
330
1F
100
AcDbEntity
  8
0
  6
Continuous
 62
     7
370
    15
100
AcDbLine
 10
665.3690050476034
 20
167.2895132342623
 30
0.0
 11
662.6395216639825
 21
167.2895126828959
 31
0.0
  0
LINE
  5
B9CF
330
1F
100
AcDbEntity
  8
0
  6
Continuous
 62
     7
370
    15
100
AcDbLine
 10
662.6395187679492
 20
166.5824067924692
 30
0.0
 11
662.6395216639825
 21
167.2895126828959
 31
0.0
  0
LINE
  5
B9D0
330
1F
100
AcDbEntity
  8
0
  6
Continuous
 62
     7
370
    15
100
AcDbLine
 10
766.7904503104629
 20
167.2895132163083
 30
0.0
 11
764.060966926842
 21
167.289512664942
 31
0.0
  0
LINE
  5
B9D1
330
1F
100
AcDbEntity
  8
0
  6
Continuous
 62
     7
370
    15
100
AcDbLine
 10
766.7904505685039
 20
166.5824049007699
 30
0.0
 11
766.7904503104629
 21
167.2895132163083
 31
0.0
  0
LINE
  5
B9D2
330
1F
100
AcDbEntity
  8
0
  6
Continuous
 62
     7
370
    15
100
AcDbLine
 10
662.6395216639825
 20
167.2895126828959
 30
0.0
 11
662.639519541884
 21
171.7288531471723
 31
0.0
  0
LINE
  5
B9D3
330
1F
100
AcDbEntity
  8
0
  6
Continuous
 62
     7
370
    15
100
AcDbLine
 10
766.7904521593158
 20
171.7288539273576
 30
0.0
 11
766.7904503104629
 21
167.2895132163083
 31
0.0
  0
LINE
  5
B9D4
330
1F
100
AcDbEntity
  8
0
  6
Continuous
 62
     7
370
    15
100
AcDbLine
 10
764.0609650031855
 20
151.1681922258796
 30
0.0
 11
766.7904524939039
 21
151.1681934693329
 31
0.0
  0
LINE
  5
B9D5
330
1F
100
AcDbEntity
  8
0
  6
Continuous
 62
     7
370
    15
100
AcDbLine
 10
766.7904516912782
 20
151.8753000036149
 30
0.0
 11
766.7904524939039
 21
151.1681934693329
 31
0.0
  0
LINE
  5
B9D6
330
1F
100
AcDbEntity
  8
0
  6
Continuous
 62
     7
370
    15
100
AcDbLine
 10
662.6395198764722
 20
151.1681926891476
 30
0.0
 11
665.369006822606
 21
151.1681921513445
 31
0.0
  0
LINE
  5
B9D7
330
1F
100
AcDbEntity
  8
0
  6
Continuous
 62
     7
370
    15
100
AcDbLine
 10
662.6395198764722
 20
151.1681926891476
 30
0.0
 11
662.6395193461388
 21
151.8753001140578
 31
0.0
  0
LINE
  5
B9D8
330
1F
100
AcDbEntity
  8
0
  6
Continuous
 62
     7
370
    15
100
AcDbLine
 10
666.5719690038895
 20
145.7288532291586
 30
0.0
 11
662.6395186550426
 21
145.7288531623316
 31
0.0
  0
LINE
  5
B9D9
330
1F
100
AcDbEntity
  8
0
  6
Continuous
 62
     7
370
    15
100
AcDbLine
 10
666.3026955488112
 20
146.7288523214659
 30
0.0
 11
662.639522134717
 21
146.7288526701853
 31
0.0
  0
LINE
  5
B9DA
330
1F
100
AcDbEntity
  8
0
  6
Continuous
 62
     7
370
    15
100
AcDbLine
 10
662.6395186550426
 20
145.7288531623316
 30
0.0
 11
662.639522134717
 21
146.7288526701853
 31
0.0
  0
LINE
  5
B9DB
330
1F
100
AcDbEntity
  8
0
  6
Continuous
 62
     7
370
    15
100
AcDbLine
 10
662.6395198764722
 20
151.1681926891476
 30
0.0
 11
662.639522134717
 21
146.7288526701853
 31
0.0
  0
LINE
  5
B9DC
330
1F
100
AcDbEntity
  8
0
  6
Continuous
 62
     7
370
    15
100
AcDbLine
 10
722.7756462108005
 20
107.1533889355288
 30
0.0
 11
722.7756456594342
 21
109.8828723191497
 31
0.0
  0
LINE
  5
B9DD
330
1F
100
AcDbEntity
  8
0
  6
Continuous
 62
     7
370
    15
100
AcDbLine
 10
722.0685396765186
 20
107.153388132903
 30
0.0
 11
722.7756462108005
 21
107.1533889355288
 31
0.0
  0
LINE
  5
B9DE
330
1F
100
AcDbEntity
  8
0
  6
Continuous
 62
     7
370
    15
100
AcDbLine
 10
766.7904506450511
 20
146.7288527582836
 30
0.0
 11
763.1272772309569
 21
146.728853107003
 31
0.0
  0
LINE
  5
B9DF
330
1F
100
AcDbEntity
  8
0
  6
Continuous
 62
     7
370
    15
100
AcDbLine
 10
762.8580006513349
 20
145.7288529850617
 30
0.0
 11
766.7904510001818
 21
145.7288530518886
 31
0.0
  0
LINE
  5
B9E0
330
1F
100
AcDbEntity
  8
0
  6
Continuous
 62
     7
370
    15
100
AcDbLine
 10
766.7904506450511
 20
146.7288527582836
 30
0.0
 11
766.7904510001818
 21
145.7288530518886
 31
0.0
  0
LINE
  5
B9E1
330
1F
100
AcDbEntity
  8
0
  6
Continuous
 62
     7
370
    15
100
AcDbLine
 10
766.7904524939039
 20
151.1681934693329
 30
0.0
 11
766.7904506450511
 21
146.7288527582836
 31
0.0
  0
LINE
  5
B9E2
330
1F
100
AcDbEntity
  8
0
  6
Continuous
 62
     7
370
    15
100
AcDbLine
 10
706.654326111
 20
109.8828739705138
 30
0.0
 11
706.654325573197
 21
107.1533870243801
 31
0.0
  0
LINE
  5
B9E3
330
1F
100
AcDbEntity
  8
0
  6
Continuous
 62
     7
370
    15
100
AcDbLine
 10
706.654325573197
 20
107.1533870243801
 30
0.0
 11
707.3614329981071
 21
107.1533875547134
 31
0.0
  0
LINE
  5
B9E4
330
1F
100
AcDbEntity
  8
0
  6
Continuous
 62
     7
370
    15
100
AcDbLine
 10
728.2149851262048
 20
111.0858362816896
 30
0.0
 11
728.2149848469884
 21
107.1533879863914
 31
0.0
  0
LINE
  5
B9E5
330
1F
100
AcDbEntity
  8
0
  6
Continuous
 62
     7
370
    15
100
AcDbLine
 10
727.2149872705691
 20
110.8165605007701
 30
0.0
 11
727.2149851405933
 21
107.1533876312606
 31
0.0
  0
LINE
  5
B9E6
330
1F
100
AcDbEntity
  8
0
  6
Continuous
 62
     7
370
    15
100
AcDbLine
 10
727.2149851405933
 20
107.1533876312606
 30
0.0
 11
728.2149848469884
 21
107.1533879863914
 31
0.0
  0
LINE
  5
B9E7
330
1F
100
AcDbEntity
  8
0
  6
Continuous
 62
     7
370
    15
100
AcDbLine
 10
702.2149866434041
 20
107.1533883286482
 30
0.0
 11
702.2149861014952
 21
110.8165620150348
 31
0.0
  0
LINE
  5
B9E8
330
1F
100
AcDbEntity
  8
0
  6
Continuous
 62
     7
370
    15
100
AcDbLine
 10
701.2149868701822
 20
111.0858383223644
 30
0.0
 11
701.2149860463808
 21
107.1533882458098
 31
0.0
  0
LINE
  5
B9E9
330
1F
100
AcDbEntity
  8
0
  6
Continuous
 62
     7
370
    15
100
AcDbLine
 10
701.2149860463808
 20
107.1533882458098
 30
0.0
 11
702.2149866434041
 21
107.1533883286482
 31
0.0
  0
LINE
  5
B9EA
330
1F
100
AcDbEntity
  8
0
  6
Continuous
 62
     7
370
    15
100
AcDbLine
 10
706.654325573197
 20
107.1533870243801
 30
0.0
 11
702.2149866434041
 21
107.1533883286482
 31
0.0
  0
LINE
  5
B9EB
330
1F
100
AcDbEntity
  8
0
  6
Continuous
 62
     7
370
    15
100
AcDbLine
 10
727.2149851405933
 20
107.1533876312606
 30
0.0
 11
722.7756462108005
 21
107.1533889355288
 31
0.0
  0
ARC
  5
B9EC
330
1F
100
AcDbEntity
  8
0
  6
Continuous
 62
     7
370
    15
100
AcDbCircle
 10
884.8823024144488
 20
208.7288529550936
 30
0.0
 40
0.5
100
AcDbArc
 50
0.0
 51
90.0
  0
SPLINE
  5
B9ED
330
1F
100
AcDbEntity
  8
0
  6
Continuous
 62
     7
370
    15
100
AcDbSpline
210
0.0
220
0.0
230
1.0
 70
    24
 71
     1
 72
     4
 73
     2
 74
     0
 42
0.0000000001
 43
0.0000000001
 40
0.0
 40
0.0
 40
1.0
 40
1.0
 10
884.8823039343672
 20
209.2288516914879
 30
0.0
 10
839.8823021462279
 20
209.2288516914877
 30
0.0
  0
ARC
  5
B9F0
330
1F
100
AcDbEntity
  8
0
  6
Continuous
 62
     7
370
    15
100
AcDbCircle
 10
884.8823024144492
 20
109.7288529550935
 30
0.0
 40
0.5000000000000071
100
AcDbArc
 50
270.0
 51
359.9999999999968
  0
SPLINE
  5
B9F1
330
1F
100
AcDbEntity
  8
0
  6
Continuous
 62
     7
370
    15
100
AcDbSpline
210
0.0
220
0.0
230
1.0
 70
    24
 71
     1
 72
     4
 73
     2
 74
     0
 42
0.0000000001
 43
0.0000000001
 40
0.0
 40
0.0
 40
1.0
 40
1.0
 10
839.8823021462282
 20
109.2288526426095
 30
0.0
 10
884.8823039343676
 20
109.2288526426097
 30
0.0
  0
SPLINE
  5
B9F2
330
1F
100
AcDbEntity
  8
0
  6
Continuous
 62
     7
370
    15
100
AcDbSpline
210
0.0
220
0.0
230
1.0
 70
    24
 71
     3
 72
    33
 73
    29
 74
     0
 42
0.0000000001
 43
0.0000000001
 40
0.0
 40
0.0
 40
0.0
 40
0.0
 40
0.0392072208958099
 40
0.0783599130675216
 40
0.1187844568092651
 40
0.1602828669896043
 40
0.2018476652872446
 40
0.2379409501294271
 40
0.2739546474480939
 40
0.3100530011737771
 40
0.3469158988003252
 40
0.3836938138441079
 40
0.4205618756726566
 40
0.45742476317669
 40
0.4942027095062993
 40
0.5310707824605091
 40
0.5671640848708432
 40
0.6031777642946191
 40
0.6392761053897109
 40
0.6808354657485683
 40
0.7223356752539801
 40
0.7627629492331183
 40
0.8019152039336246
 40
0.8411238157531668
 40
0.8803269116193277
 40
0.9194809986779567
 40
0.9599083194407711
 40
1.0
 40
1.0
 40
1.0
 40
1.0
 10
885.3823012223561
 20
144.7564535481024
 30
0.0
 10
885.3823012223559
 20
145.9192291114457
 30
0.0
 10
885.3823012223559
 20
148.2431630700077
 30
0.0
 10
885.3823012223559
 20
151.8465468128422
 30
0.0
 10
885.3823012223559
 20
155.5551937993872
 30
0.0
 10
885.3823012223559
 20
159.3611827797726
 30
0.0
 10
885.3823012223559
 20
163.0325410174421
 30
0.0
 10
885.3823012223559
 20
166.5144251494103
 30
0.0
 10
885.3823012223559
 20
169.795841003512
 30
0.0
 10
885.3823012223559
 20
173.0520218135368
 30
0.0
 10
885.3823012223559
 20
176.2674872518873
 30
0.0
 10
885.3823012223559
 20
179.4246228720685
 30
0.0
 10
885.3823012223559
 20
182.485742155106
 30
0.0
 10
885.3823012223559
 20
185.4378126056946
 30
0.0
 10
885.3823012223559
 20
188.2654191488752
 30
0.0
 10
885.3823012223559
 20
190.9363154636857
 30
0.0
 10
885.3823012223559
 20
193.4433708586387
 30
0.0
 10
885.3823012223559
 20
195.7769556033857
 30
0.0
 10
885.3823012223559
 20
198.0534990602658
 30
0.0
 10
885.3823012223559
 20
200.2338240837566
 30
0.0
 10
885.3823012223559
 20
202.247280477997
 30
0.0
 10
885.3823012223559
 20
203.9740097153317
 30
0.0
 10
885.3823012223559
 20
205.4228367244072
 30
0.0
 10
885.3823012223559
 20
206.6076332633049
 30
0.0
 10
885.3823012223559
 20
207.54210639037
 30
0.0
 10
885.3823012223559
 20
208.2176221002228
 30
0.0
 10
885.3823012223559
 20
208.6499937785543
 30
0.0
 10
885.3823012223559
 20
208.6997195370005
 30
0.0
 10
885.3823012223559
 20
208.7244787763162
 30
0.0
  0
SPLINE
  5
B9F3
330
1F
100
AcDbEntity
  8
0
  6
Continuous
 62
     7
370
    15
100
AcDbSpline
210
0.0
220
0.0
230
1.0
 70
    24
 71
     3
 72
     8
 73
     4
 74
     0
 42
0.0000000001
 43
0.0000000001
 40
0.0
 40
0.0
 40
0.0
 40
0.0
 40
1.0
 40
1.0
 40
1.0
 40
1.0
 10
885.3823024144489
 20
137.007445952446
 30
0.0
 10
885.3823024144489
 20
139.4985483562391
 30
0.0
 10
885.3823024144489
 20
142.0904685075392
 30
0.0
 10
885.3823024144489
 20
144.756453571318
 30
0.0
  0
LINE
  5
B9F8
330
1F
100
AcDbEntity
  8
0
  6
Continuous
 62
     7
370
    15
100
AcDbLine
 10
827.6823023816662
 20
152.128852296177
 30
0.0
 11
820.8823008945303
 21
152.1288522961769
 31
0.0
  0
LINE
  5
B9F9
330
1F
100
AcDbEntity
  8
0
  6
Continuous
 62
     7
370
    15
100
AcDbLine
 10
827.8823020419197
 20
151.9288530375784
 30
0.0
 11
827.6823023816662
 21
152.128852296177
 31
0.0
  0
LINE
  5
B9FA
330
1F
100
AcDbEntity
  8
0
  6
Continuous
 62
     7
370
    15
100
AcDbLine
 10
827.8823020419197
 20
151.1681922258798
 30
0.0
 11
827.8823020419197
 21
151.9288530375784
 31
0.0
  0
LINE
  5
B9FB
330
1F
100
AcDbEntity
  8
0
  6
Continuous
 62
     7
370
    15
100
AcDbLine
 10
827.8823020419199
 20
145.7288529850619
 30
0.0
 11
827.8823020419199
 21
146.7288531070032
 31
0.0
  0
LINE
  5
B9FC
330
1F
100
AcDbEntity
  8
0
  6
Continuous
 62
     7
370
    15
100
AcDbLine
 10
828.8823022058327
 20
145.7288529850619
 30
0.0
 11
827.8823020419199
 21
145.7288529850619
 31
0.0
  0
LINE
  5
B9FD
330
1F
100
AcDbEntity
  8
0
  6
Continuous
 62
     7
370
    15
100
AcDbLine
 10
839.882302146228
 20
145.7288529850619
 30
0.0
 11
838.8823019823153
 21
145.7288529850619
 31
0.0
  0
LINE
  5
B9FE
330
1F
100
AcDbEntity
  8
0
  6
Continuous
 62
     7
370
    15
100
AcDbLine
 10
839.8823021462279
 20
146.7288531070032
 30
0.0
 11
839.882302146228
 21
145.7288529850619
 31
0.0
  0
LINE
  5
B9FF
330
1F
100
AcDbEntity
  8
0
  6
Continuous
 62
     7
370
    15
100
AcDbLine
 10
839.8823021462279
 20
172.728854457554
 30
0.0
 11
839.8823021462279
 21
171.7288524948208
 31
0.0
  0
LINE
  5
BA00
330
1F
100
AcDbEntity
  8
0
  6
Continuous
 62
     7
370
    15
100
AcDbLine
 10
838.8823019823151
 20
172.728854457554
 30
0.0
 11
839.8823021462279
 21
172.728854457554
 31
0.0
  0
LINE
  5
BA01
330
1F
100
AcDbEntity
  8
0
  6
Continuous
 62
     7
370
    15
100
AcDbLine
 10
827.8823020419197
 20
172.728854457554
 30
0.0
 11
828.8823022058325
 21
172.728854457554
 31
0.0
  0
LINE
  5
BA02
330
1F
100
AcDbEntity
  8
0
  6
Continuous
 62
     7
370
    15
100
AcDbLine
 10
827.8823020419197
 20
171.7288524948208
 30
0.0
 11
827.8823020419197
 21
172.728854457554
 31
0.0
  0
LINE
  5
BA03
330
1F
100
AcDbEntity
  8
0
  6
Continuous
 62
     7
370
    15
100
AcDbLine
 10
827.8823020419197
 20
166.5288546483838
 30
0.0
 11
827.8823020419197
 21
167.2895126649422
 31
0.0
  0
LINE
  5
BA04
330
1F
100
AcDbEntity
  8
0
  6
Continuous
 62
     7
370
    15
100
AcDbLine
 10
827.6823023816662
 20
166.3288510155811
 30
0.0
 11
827.8823020419197
 21
166.5288546483838
 31
0.0
  0
LINE
  5
BA05
330
1F
100
AcDbEntity
  8
0
  6
Continuous
 62
     7
370
    15
100
AcDbLine
 10
820.8823008945303
 20
166.3288510155811
 30
0.0
 11
827.6823023816662
 21
166.3288510155811
 31
0.0
  0
LINE
  5
BA06
330
1F
100
AcDbEntity
  8
0
  6
Continuous
 62
     7
370
    15
100
AcDbLine
 10
820.8823008945303
 20
190.4805550858322
 30
0.0
 11
820.8823008945303
 21
166.3288510155811
 31
0.0
  0
LINE
  5
BA07
330
1F
100
AcDbEntity
  8
0
  6
Continuous
 62
     7
370
    15
100
AcDbLine
 10
827.3823028912859
 20
190.4805550858323
 30
0.0
 11
820.8823008945303
 21
190.4805550858322
 31
0.0
  0
LINE
  5
BA08
330
1F
100
AcDbEntity
  8
0
  6
Continuous
 62
     7
370
    15
100
AcDbLine
 10
827.3823028912859
 20
198.2587300582611
 30
0.0
 11
827.3823028912859
 21
190.4805550858323
 31
0.0
  0
LINE
  5
BA09
330
1F
100
AcDbEntity
  8
0
  6
Continuous
 62
     7
370
    15
100
AcDbLine
 10
820.8823008945303
 20
198.2587300582611
 30
0.0
 11
827.3823028912859
 21
198.2587300582611
 31
0.0
  0
LINE
  5
BA0A
330
1F
100
AcDbEntity
  8
0
  6
Continuous
 62
     7
370
    15
100
AcDbLine
 10
820.8823008945303
 20
208.7221871305337
 30
0.0
 11
820.8823008945303
 21
198.2587300582611
 31
0.0
  0
LINE
  5
BA0B
330
1F
100
AcDbEntity
  8
0
  6
Continuous
 62
     7
370
    15
100
AcDbLine
 10
827.6823023816662
 20
208.7221871305338
 30
0.0
 11
820.8823008945303
 21
208.7221871305337
 31
0.0
  0
ARC
  5
BA0C
330
1F
100
AcDbEntity
  8
0
  6
Continuous
 62
     7
370
    15
100
AcDbCircle
 10
820.5823024144489
 20
159.2288529550933
 30
0.0
 40
49.99999999999997
100
AcDbArc
 50
81.60480874333172
 51
81.83640580421
  0
LINE
  5
BA0D
330
1F
100
AcDbEntity
  8
0
  6
Continuous
 62
     7
370
    15
100
AcDbLine
 10
827.8823020419197
 20
207.3718695742455
 30
0.0
 11
827.8823020419197
 21
207.6411460177212
 31
0.0
  0
LINE
  5
BA0E
330
1F
100
AcDbEntity
  8
0
  6
Continuous
 62
     7
370
    15
100
AcDbLine
 10
828.8823022058325
 20
207.3718695742455
 30
0.0
 11
827.8823020419197
 21
207.3718695742455
 31
0.0
  0
LINE
  5
BA0F
330
1F
100
AcDbEntity
  8
0
  6
Continuous
 62
     7
370
    15
100
AcDbLine
 10
838.8823019823151
 20
207.3718695742455
 30
0.0
 11
828.8823022058325
 21
207.3718695742455
 31
0.0
  0
LINE
  5
BA10
330
1F
100
AcDbEntity
  8
0
  6
Continuous
 62
     7
370
    15
100
AcDbLine
 10
839.8823021462279
 20
207.3718695742455
 30
0.0
 11
838.8823019823151
 21
207.3718695742455
 31
0.0
  0
LINE
  5
BA11
330
1F
100
AcDbEntity
  8
0
  6
Continuous
 62
     7
370
    15
100
AcDbLine
 10
839.8823021462279
 20
207.6411460177213
 30
0.0
 11
839.8823021462279
 21
207.3718695742455
 31
0.0
  0
LINE
  5
BA13
330
1F
100
AcDbEntity
  8
0
  6
Continuous
 62
     7
370
    15
100
AcDbLine
 10
820.8823008945303
 20
152.1288522961769
 30
0.0
 11
820.8823008945305
 21
135.5391440963651
 31
0.0
  0
LINE
  5
BA14
330
1F
100
AcDbEntity
  8
0
  6
Continuous
 62
     7
370
    15
100
AcDbLine
 10
839.8823021462279
 20
146.7288527582839
 30
0.0
 11
839.8823021462279
 21
171.7288539273578
 31
0.0
  0
LINE
  5
BA15
330
1F
100
AcDbEntity
  8
0
  6
Continuous
 62
     7
370
    15
100
AcDbLine
 10
839.8823021462279
 20
146.7288527582839
 30
0.0
 11
838.8823019823151
 21
145.7288530518889
 31
0.0
  0
LINE
  5
BA16
330
1F
100
AcDbEntity
  8
0
  6
Continuous
 62
     7
370
    15
100
AcDbLine
 10
828.8823022058325
 20
145.7288530518889
 30
0.0
 11
838.8823019823151
 21
145.7288530518889
 31
0.0
  0
LINE
  5
BA17
330
1F
100
AcDbEntity
  8
0
  6
Continuous
 62
     7
370
    15
100
AcDbLine
 10
827.8823020419197
 20
146.7288527582839
 30
0.0
 11
828.8823022058325
 21
145.7288530518889
 31
0.0
  0
LINE
  5
BA18
330
1F
100
AcDbEntity
  8
0
  6
Continuous
 62
     7
370
    15
100
AcDbLine
 10
827.8823020419197
 20
151.1681934693331
 30
0.0
 11
827.8823020419197
 21
146.7288527582839
 31
0.0
  0
LINE
  5
BA19
330
1F
100
AcDbEntity
  8
0
  6
Continuous
 62
     7
370
    15
100
AcDbLine
 10
828.5894087066965
 20
151.8753000036151
 30
0.0
 11
827.8823020419197
 21
151.1681934693331
 31
0.0
  0
LINE
  5
BA1A
330
1F
100
AcDbEntity
  8
0
  6
Continuous
 62
     7
370
    15
100
AcDbLine
 10
828.5894087066965
 20
151.8753000036151
 30
0.0
 11
827.5287496408539
 21
152.9359606956663
 31
0.0
  0
LINE
  5
BA1B
330
1F
100
AcDbEntity
  8
0
  6
Continuous
 62
     7
370
    15
100
AcDbLine
 10
826.8216429760771
 20
152.2288523801279
 30
0.0
 11
827.5287496408539
 21
152.9359606956663
 31
0.0
  0
LINE
  5
BA1C
330
1F
100
AcDbEntity
  8
0
  6
Continuous
 62
     7
370
    15
100
AcDbLine
 10
826.8216429760771
 20
152.2288523801279
 30
0.0
 11
824.0823029091673
 21
152.2288523801279
 31
0.0
  0
LINE
  5
BA1D
330
1F
100
AcDbEntity
  8
0
  6
Continuous
 62
     7
370
    15
100
AcDbLine
 10
824.0823029091673
 20
152.2288523801279
 30
0.0
 11
824.0823029091673
 21
166.2288525242573
 31
0.0
  0
LINE
  5
BA1E
330
1F
100
AcDbEntity
  8
0
  6
Continuous
 62
     7
370
    15
100
AcDbLine
 10
824.0823029091673
 20
166.2288525242573
 30
0.0
 11
826.8216429760771
 21
166.2288525242574
 31
0.0
  0
LINE
  5
BA1F
330
1F
100
AcDbEntity
  8
0
  6
Continuous
 62
     7
370
    15
100
AcDbLine
 10
827.5287496408539
 20
165.5217477712317
 30
0.0
 11
826.8216429760771
 21
166.2288525242574
 31
0.0
  0
LINE
  5
BA20
330
1F
100
AcDbEntity
  8
0
  6
Continuous
 62
     7
370
    15
100
AcDbLine
 10
828.5894087066965
 20
166.5824049007701
 30
0.0
 11
827.5287496408539
 21
165.5217477712317
 31
0.0
  0
LINE
  5
BA21
330
1F
100
AcDbEntity
  8
0
  6
Continuous
 62
     7
370
    15
100
AcDbLine
 10
828.5894087066965
 20
166.5824049007701
 30
0.0
 11
827.8823020419197
 21
167.2895132163086
 31
0.0
  0
LINE
  5
BA22
330
1F
100
AcDbEntity
  8
0
  6
Continuous
 62
     7
370
    15
100
AcDbLine
 10
827.8823020419197
 20
171.7288539273578
 30
0.0
 11
827.8823020419197
 21
167.2895132163086
 31
0.0
  0
LINE
  5
BA23
330
1F
100
AcDbEntity
  8
0
  6
Continuous
 62
     7
370
    15
100
AcDbLine
 10
827.8823020419197
 20
171.7288539273578
 30
0.0
 11
828.8823022058325
 21
172.7288536337528
 31
0.0
  0
LINE
  5
BA24
330
1F
100
AcDbEntity
  8
0
  6
Continuous
 62
     7
370
    15
100
AcDbLine
 10
828.8823022058325
 20
172.7288536337528
 30
0.0
 11
838.8823019823151
 21
172.7288536337528
 31
0.0
  0
LINE
  5
BA25
330
1F
100
AcDbEntity
  8
0
  6
Continuous
 62
     7
370
    15
100
AcDbLine
 10
838.8823019823151
 20
172.7288536337528
 30
0.0
 11
839.8823021462279
 21
171.7288539273578
 31
0.0
  0
LINE
  5
BA26
330
1F
100
AcDbEntity
  8
0
  6
Continuous
 62
     7
370
    15
100
AcDbLine
 10
823.8823032489138
 20
152.4288538932197
 30
0.0
 11
823.8823032489138
 21
166.0288522351174
 31
0.0
  0
LINE
  5
BA27
330
1F
100
AcDbEntity
  8
0
  6
Continuous
 62
     7
370
    15
100
AcDbLine
 10
823.8823032489138
 20
166.0288522351174
 30
0.0
 11
824.0823029091673
 21
166.2288525242573
 31
0.0
  0
LINE
  5
BA28
330
1F
100
AcDbEntity
  8
0
  6
Continuous
 62
     7
370
    15
100
AcDbLine
 10
823.8823032489138
 20
152.4288538932197
 30
0.0
 11
824.0823029091673
 21
152.2288523801279
 31
0.0
  0
SPLINE
  5
BA29
330
1F
100
AcDbEntity
  8
0
  6
Continuous
 62
     7
370
    15
100
AcDbSpline
210
0.0
220
0.0
230
1.0
 70
    24
 71
     3
 72
    12
 73
     8
 74
     0
 42
0.0000000001
 43
0.0000000001
 40
0.0
 40
0.0
 40
0.0
 40
0.0
 40
0.2499999999999912
 40
0.2499999999999912
 40
0.4999999999999825
 40
0.4999999999999825
 40
1.0
 40
1.0
 40
1.0
 40
1.0
 10
820.3823024144488
 20
166.8288529550928
 30
0.0
 10
820.3823024144488
 20
166.8288529550928
 30
0.0
 10
820.4029530114432
 20
166.8082023580986
 30
0.0
 10
820.4667373721663
 20
166.7444179973754
 30
0.0
 10
820.5091446064908
 20
166.7020107630507
 30
0.0
 10
820.6519600178486
 20
166.5591953516931
 30
0.0
 10
820.7652616869673
 20
166.4458936825744
 30
0.0
 10
820.8823024144489
 20
166.3288529550928
 30
0.0
  0
SPLINE
  5
BA2A
330
1F
100
AcDbEntity
  8
0
  6
Continuous
 62
     7
370
    15
100
AcDbSpline
210
0.0
220
0.0
230
1.0
 70
     8
 71
     3
 72
    10
 73
     6
 74
     0
 42
0.0000000001
 43
0.0000000001
 40
0.0
 40
0.0
 40
0.0
 40
0.0
 40
0.5
 40
0.5
 40
1.0
 40
1.0
 40
1.0
 40
1.0
 10
820.8823024144489
 20
190.4805539251955
 30
0.0
 10
820.7498354832877
 20
190.4805539251955
 30
0.0
 10
820.6204056765233
 20
190.4417314840755
 30
0.0
 10
820.4362501919627
 20
190.3104014709898
 30
0.0
 10
820.3823024144488
 20
190.2184720768709
 30
0.0
 10
820.3823024144488
 20
190.1248199204194
 30
0.0
  0
SPLINE
  5
BA2B
330
1F
100
AcDbEntity
  8
0
  6
Continuous
 62
     7
370
    15
100
AcDbSpline
210
0.0
220
0.0
230
1.0
 70
    24
 71
     3
 72
     8
 73
     4
 74
     0
 42
0.0000000001
 43
0.0000000001
 40
0.0
 40
0.0
 40
0.0
 40
0.0
 40
1.0
 40
1.0
 40
1.0
 40
1.0
 10
820.3823024144488
 20
190.1248199204194
 30
0.0
 10
820.3823024144488
 20
183.3846246889722
 30
0.0
 10
820.3823024144488
 20
175.3535088870705
 30
0.0
 10
820.3823024144488
 20
166.8288529550929
 30
0.0
  0
SPLINE
  5
BA2E
330
1F
100
AcDbEntity
  8
0
  6
Continuous
 62
     7
370
    15
100
AcDbSpline
210
0.0
220
0.0
230
1.0
 70
    24
 71
     3
 72
     8
 73
     4
 74
     0
 42
0.0000000001
 43
0.0000000001
 40
0.0
 40
0.0
 40
0.0
 40
0.0
 40
1.0
 40
1.0
 40
1.0
 40
1.0
 10
820.382302414449
 20
144.7564535713178
 30
0.0
 10
820.382302414449
 20
142.0904685075389
 30
0.0
 10
820.382302414449
 20
139.4985483562388
 30
0.0
 10
820.382302414449
 20
137.0074459524458
 30
0.0
  0
SPLINE
  5
BA2F
330
1F
100
AcDbEntity
  8
0
  6
Continuous
 62
     7
370
    15
100
AcDbSpline
210
0.0
220
0.0
230
1.0
 70
    24
 71
     3
 72
     8
 73
     4
 74
     0
 42
0.0000000001
 43
0.0000000001
 40
0.0
 40
0.0
 40
0.0
 40
0.0
 40
1.0
 40
1.0
 40
1.0
 40
1.0
 10
820.3823024144488
 20
151.6288529550932
 30
0.0
 10
820.382302414449
 20
149.3030401340211
 30
0.0
 10
820.382302414449
 20
147.0073276987293
 30
0.0
 10
820.382302414449
 20
144.7564535713178
 30
0.0
  0
SPLINE
  5
BA30
330
1F
100
AcDbEntity
  8
0
  6
Continuous
 62
     7
370
    15
100
AcDbSpline
210
0.0
220
0.0
230
1.0
 70
    24
 71
     3
 72
    14
 73
    10
 74
     0
 42
0.0000000001
 43
0.0000000001
 40
0.0
 40
0.0
 40
0.0
 40
0.0
 40
0.25
 40
0.25
 40
0.5
 40
0.5
 40
0.75
 40
0.75
 40
1.0
 40
1.0
 40
1.0
 40
1.0
 10
820.8823024144489
 20
152.1288529550932
 30
0.0
 10
820.8237451317938
 20
152.0702956724381
 30
0.0
 10
820.7671269024025
 20
152.0136774430468
 30
0.0
 10
820.6576926900979
 20
151.9042432307422
 30
0.0
 10
820.6047262460277
 20
151.851276786672
 30
0.0
 10
820.510099983138
 20
151.7566505237823
 30
0.0
 10
820.4672007057805
 20
151.7137512464246
 30
0.0
 10
820.4032718602537
 20
151.6498224008979
 30
0.0
 10
820.3823024144488
 20
151.6288529550932
 30
0.0
 10
820.3823024144488
 20
151.6288529550932
 30
0.0
  0
LINE
  5
BA38
330
1F
100
AcDbEntity
  8
0
  6
Continuous
 62
     7
370
    15
100
AcDbLine
 10
884.8823039343674
 20
132.9410689002181
 30
0.0
 11
884.8823039343676
 21
114.1822448050882
 31
0.0
  0
SPLINE
  5
BA3B
330
1F
100
AcDbEntity
  8
0
  6
Continuous
 62
     7
370
    15
100
AcDbSpline
210
0.0
220
0.0
230
1.0
 70
     8
 71
     3
 72
     8
 73
     4
 74
     0
 42
0.0000000001
 43
0.0000000001
 40
0.0
 40
0.0
 40
0.0
 40
0.0
 40
1.0
 40
1.0
 40
1.0
 40
1.0
 10
885.3823012223562
 20
112.9620334184076
 30
0.0
 10
885.3823024144489
 20
119.4225497522105
 30
0.0
 10
885.3823024144489
 20
125.7337933239396
 30
0.0
 10
885.3823024144489
 20
137.007445952446
 30
0.0
  0
LINE
  5
BA3D
330
1F
100
AcDbEntity
  8
0
  6
Continuous
 62
     7
370
    15
100
AcDbLine
 10
820.8823008945305
 20
127.9771520725547
 30
0.0
 11
820.8823008945305
 21
132.9410689002181
 31
0.0
  0
SPLINE
  5
BA3E
330
1F
100
AcDbEntity
  8
0
  6
Continuous
 62
     7
370
    15
100
AcDbSpline
210
0.0
220
0.0
230
1.0
 70
     8
 71
     3
 72
    10
 73
     6
 74
     0
 42
0.0000000001
 43
0.0000000001
 40
0.0
 40
0.0
 40
0.0
 40
0.0
 40
0.5
 40
0.5
 40
1.0
 40
1.0
 40
1.0
 40
1.0
 10
820.382302414449
 20
128.3328859897669
 30
0.0
 10
820.382302414449
 20
128.2392240153072
 30
0.0
 10
820.4360176077074
 20
128.147564434363
 30
0.0
 10
820.6201332106997
 20
128.016074863876
 30
0.0
 10
820.7498211106456
 20
127.9771519849908
 30
0.0
 10
820.8823024144489
 20
127.9771519849908
 30
0.0
  0
SPLINE
  5
BA41
330
1F
100
AcDbEntity
  8
0
  6
Continuous
 62
     7
370
    15
100
AcDbSpline
210
0.0
220
0.0
230
1.0
 70
    24
 71
     3
 72
     8
 73
     4
 74
     0
 42
0.0000000001
 43
0.0000000001
 40
0.0
 40
0.0
 40
0.0
 40
0.0
 40
1.0
 40
1.0
 40
1.0
 40
1.0
 10
820.382302414449
 20
137.0074459524458
 30
0.0
 10
820.382302414449
 20
131.6978808130159
 30
0.0
 10
820.382302414449
 20
129.9753363452962
 30
0.0
 10
820.382302414449
 20
128.3328859897669
 30
0.0
  0
LINE
  5
BA48
330
1F
100
AcDbEntity
  8
0
  6
Continuous
 62
     7
370
    15
100
AcDbLine
 10
820.8823008945307
 20
114.1822448050882
 30
0.0
 11
820.8823008945307
 21
120.198977405233
 31
0.0
  0
LINE
  5
BA49
330
1F
100
AcDbEntity
  8
0
  6
Continuous
 62
     7
370
    15
100
AcDbLine
 10
820.8823008945307
 20
120.198977405233
 30
0.0
 11
827.3823028912863
 21
120.1989774052331
 31
0.0
  0
LINE
  5
BA4A
330
1F
100
AcDbEntity
  8
0
  6
Continuous
 62
     7
370
    15
100
AcDbLine
 10
827.3823028912861
 20
127.9771520725547
 30
0.0
 11
827.3823028912863
 21
120.1989774052331
 31
0.0
  0
LINE
  5
BA4B
330
1F
100
AcDbEntity
  8
0
  6
Continuous
 62
     7
370
    15
100
AcDbLine
 10
820.8823008945305
 20
127.9771520725547
 30
0.0
 11
827.3823028912861
 21
127.9771520725547
 31
0.0
  0
LINE
  5
BA53
330
1F
100
AcDbEntity
  8
0
  6
Continuous
 62
     7
370
    15
100
AcDbLine
 10
827.3823028912859
 20
194.9353631411858
 30
0.0
 11
820.3823036065417
 21
194.9353631411858
 31
0.0
  0
LINE
  5
BA54
330
1F
100
AcDbEntity
  8
0
  6
Continuous
 62
     7
370
    15
100
AcDbLine
 10
820.3823036065417
 20
194.9353631411858
 30
0.0
 11
820.3823036065417
 21
190.2298903846549
 31
0.0
  0
LINE
  5
BA55
330
1F
100
AcDbEntity
  8
0
  6
Continuous
 62
     7
370
    15
100
AcDbLine
 10
827.3823028912863
 20
123.5223413182465
 30
0.0
 11
820.382303606542
 21
123.5223413182465
 31
0.0
  0
LINE
  5
BA56
330
1F
100
AcDbEntity
  8
0
  6
Continuous
 62
     7
370
    15
100
AcDbLine
 10
820.382303606542
 20
128.2284974538565
 30
0.0
 11
820.382303606542
 21
123.5223413182465
 31
0.0
  0
SPLINE
  5
BA58
330
1F
100
AcDbEntity
  8
0
  6
Continuous
 62
     7
370
    15
100
AcDbSpline
210
0.0
220
0.0
230
1.0
 70
     8
 71
     3
 72
    14
 73
    10
 74
     0
 42
0.0000000001
 43
0.0000000001
 40
0.0
 40
0.0
 40
0.0
 40
0.0
 40
0.25
 40
0.25
 40
0.5
 40
0.5
 40
0.75
 40
0.75
 40
1.0
 40
1.0
 40
1.0
 40
1.0
 10
820.8823024144489
 20
208.7221858394324
 30
0.0
 10
820.8237451317938
 20
208.7137855826175
 30
0.0
 10
820.7671269024025
 20
208.695475081542
 30
0.0
 10
820.6576926900979
 20
208.6394213015299
 30
0.0
 10
820.6047262460277
 20
208.601226367246
 30
0.0
 10
820.510099983138
 20
208.5051811107217
 30
0.0
 10
820.4672007057803
 20
208.4461527226726
 30
0.0
 10
820.4032718602537
 20
208.3071923889983
 30
0.0
 10
820.3823024144488
 20
208.2258613586871
 30
0.0
 10
820.3823024144488
 20
208.1419391386496
 30
0.0
  0
SPLINE
  5
BA59
330
1F
100
AcDbEntity
  8
0
  6
Continuous
 62
     7
370
    15
100
AcDbSpline
210
0.0
220
0.0
230
1.0
 70
     8
 71
     3
 72
    10
 73
     6
 74
     0
 42
0.0000000001
 43
0.0000000001
 40
0.0
 40
0.0
 40
0.0
 40
0.0
 40
0.5
 40
0.5
 40
1.0
 40
1.0
 40
1.0
 40
1.0
 10
820.3823024144488
 20
197.9029945134715
 30
0.0
 10
820.3823024144488
 20
197.9966564879312
 30
0.0
 10
820.4360176077072
 20
198.0883160688754
 30
0.0
 10
820.6201332106996
 20
198.2198056393623
 30
0.0
 10
820.7498211106454
 20
198.2587285182476
 30
0.0
 10
820.8823024144489
 20
198.2587285182476
 30
0.0
  0
SPLINE
  5
BA5A
330
1F
100
AcDbEntity
  8
0
  6
Continuous
 62
     7
370
    15
100
AcDbSpline
210
0.0
220
0.0
230
1.0
 70
    24
 71
     3
 72
     8
 73
     4
 74
     0
 42
0.0000000001
 43
0.0000000001
 40
0.0
 40
0.0
 40
0.0
 40
0.0
 40
1.0
 40
1.0
 40
1.0
 40
1.0
 10
820.3823024144488
 20
208.1419391386496
 30
0.0
 10
820.3823024144488
 20
206.8173982000569
 30
0.0
 10
820.3823024144488
 20
203.2875962349161
 30
0.0
 10
820.3823024144488
 20
197.9029945134714
 30
0.0
  0
SPLINE
  5
BA5C
330
1F
100
AcDbEntity
  8
0
  6
Continuous
 62
     7
370
    15
100
AcDbSpline
210
0.0
220
0.0
230
1.0
 70
     8
 71
     3
 72
    10
 73
     6
 74
     0
 42
0.0000000001
 43
0.0000000001
 40
0.0
 40
0.0
 40
0.0
 40
0.0
 40
0.5
 40
0.5
 40
1.0
 40
1.0
 40
1.0
 40
1.0
 10
820.8823024144491
 20
120.1989773919389
 30
0.0
 10
820.7498354832878
 20
120.1989773919389
 30
0.0
 10
820.6204056765235
 20
120.2377998330589
 30
0.0
 10
820.4362501919629
 20
120.3691298461446
 30
0.0
 10
820.382302414449
 20
120.4610592402635
 30
0.0
 10
820.382302414449
 20
120.554711396715
 30
0.0
  0
LINE
  5
BA5D
330
1F
100
AcDbEntity
  8
0
  6
Continuous
 62
     7
370
    15
100
AcDbLine
 10
820.382303606542
 20
123.5223413182465
 30
0.0
 11
820.382303606542
 21
120.5547111085177
 31
0.0
  0
SPLINE
  5
BA60
330
1F
100
AcDbEntity
  8
0
  6
Continuous
 62
     7
370
    15
100
AcDbSpline
210
0.0
220
0.0
230
1.0
 70
    24
 71
     3
 72
     8
 73
     4
 74
     0
 42
0.0000000001
 43
0.0000000001
 40
0.0
 40
0.0
 40
0.0
 40
0.0
 40
1.0
 40
1.0
 40
1.0
 40
1.0
 10
820.382302414449
 20
120.554711396715
 30
0.0
 10
820.382302414449
 20
118.5228658282983
 30
0.0
 10
820.382302414449
 20
116.746864078469
 30
0.0
 10
820.382302414449
 20
113.5546341482037
 30
0.0
  0
LINE
  5
BA61
330
1F
100
AcDbEntity
  8
0
  6
Continuous
 62
     7
370
    15
100
AcDbLine
 10
820.3823036065417
 20
194.9353631411858
 30
0.0
 11
820.3823036065417
 21
197.9029929356775
 31
0.0
  0
LINE
  5
BA62
330
1F
100
AcDbEntity
  8
0
  6
Continuous
 62
     7
370
    15
100
AcDbLine
 10
821.0068373492081
 20
166.1533871200184
 30
0.0
 11
821.0068373492081
 21
152.3043191831242
 31
0.0
  0
LINE
  5
BA63
330
1F
100
AcDbEntity
  8
0
  6
Continuous
 62
     7
370
    15
100
AcDbLine
 10
820.3823036065418
 20
147.2288530385677
 30
0.0
 11
818.3823032787163
 21
147.2288530385677
 31
0.0
  0
LINE
  5
BA64
330
1F
100
AcDbEntity
  8
0
  6
Continuous
 62
     7
370
    15
100
AcDbLine
 10
818.3823032787163
 20
171.2288528192609
 30
0.0
 11
820.3823036065418
 21
171.2288528192609
 31
0.0
  0
LINE
  5
BA65
330
1F
100
AcDbEntity
  8
0
  6
Continuous
 62
     7
370
    15
100
AcDbLine
 10
818.3823032787163
 20
147.2288530385677
 30
0.0
 11
818.3823032787163
 21
171.2288528192609
 31
0.0
  0
LINE
  5
BA66
330
1F
100
AcDbEntity
  8
0
  6
Continuous
 62
     7
370
    15
100
AcDbLine
 10
821.082300554784
 20
166.2288533338629
 30
0.0
 11
821.082300554784
 21
152.2288531897335
 31
0.0
  0
LINE
  5
BA67
330
1F
100
AcDbEntity
  8
0
  6
Continuous
 62
     7
370
    15
100
AcDbLine
 10
824.0823029091675
 20
166.2288533338629
 30
0.0
 11
821.082300554784
 21
166.2288533338629
 31
0.0
  0
LINE
  5
BA68
330
1F
100
AcDbEntity
  8
0
  6
Continuous
 62
     7
370
    15
100
AcDbLine
 10
821.082300554784
 20
152.2288531897335
 30
0.0
 11
824.0823029091675
 21
152.2288531897336
 31
0.0
  0
LINE
  5
BA69
330
1F
100
AcDbEntity
  8
0
  6
Continuous
 62
     7
370
    15
100
AcDbLine
 10
821.0068373492081
 20
166.1533871200184
 30
0.0
 11
821.082300554784
 21
166.2288533338629
 31
0.0
  0
LINE
  5
BA6A
330
1F
100
AcDbEntity
  8
0
  6
Continuous
 62
     7
370
    15
100
AcDbLine
 10
821.0068373492081
 20
152.3043191831242
 30
0.0
 11
821.082300554784
 21
152.2288531897335
 31
0.0
  0
LINE
  5
BA6B
330
1F
100
AcDbEntity
  8
0
  6
Continuous
 62
     7
370
    15
100
AcDbLine
 10
839.8823021462282
 20
107.1533876312609
 30
0.0
 11
839.8823021462282
 21
110.8165605007704
 31
0.0
  0
LINE
  5
BA6C
330
1F
100
AcDbEntity
  8
0
  6
Continuous
 62
     7
370
    15
100
AcDbLine
 10
839.8823021462282
 20
107.1533876312609
 30
0.0
 11
838.8823019823155
 21
107.1533879863917
 31
0.0
  0
LINE
  5
BA6D
330
1F
100
AcDbEntity
  8
0
  6
Continuous
 62
     7
370
    15
100
AcDbLine
 10
838.8823019823155
 20
107.1533879863917
 30
0.0
 11
838.8823019823155
 21
111.0858362816898
 31
0.0
  0
LINE
  5
BA6E
330
1F
100
AcDbEntity
  8
0
  6
Continuous
 62
     7
370
    15
100
AcDbLine
 10
828.8823022058329
 20
111.0858362816898
 30
0.0
 11
828.8823022058329
 21
107.1533879863917
 31
0.0
  0
LINE
  5
BA6F
330
1F
100
AcDbEntity
  8
0
  6
Continuous
 62
     7
370
    15
100
AcDbLine
 10
827.8823020419201
 20
107.1533876312609
 30
0.0
 11
828.8823022058329
 21
107.1533879863917
 31
0.0
  0
LINE
  5
BA70
330
1F
100
AcDbEntity
  8
0
  6
Continuous
 62
     7
370
    15
100
AcDbLine
 10
827.8823020419201
 20
110.8165605007704
 30
0.0
 11
827.8823020419201
 21
107.1533876312609
 31
0.0
  0
LINE
  5
BA71
330
1F
100
AcDbEntity
  8
0
  6
Continuous
 62
     7
370
    15
100
AcDbLine
 10
827.8823020419197
 20
211.3043160735219
 30
0.0
 11
827.8823020419197
 21
207.6411460177212
 31
0.0
  0
LINE
  5
BA72
330
1F
100
AcDbEntity
  8
0
  6
Continuous
 62
     7
370
    15
100
AcDbLine
 10
827.8823020419197
 20
211.3043160735219
 30
0.0
 11
828.8823022058325
 21
211.3043199230924
 31
0.0
  0
LINE
  5
BA73
330
1F
100
AcDbEntity
  8
0
  6
Continuous
 62
     7
370
    15
100
AcDbLine
 10
828.8823022058325
 20
207.3718695742455
 30
0.0
 11
828.8823022058325
 21
211.3043199230924
 31
0.0
  0
LINE
  5
BA74
330
1F
100
AcDbEntity
  8
0
  6
Continuous
 62
     7
370
    15
100
AcDbLine
 10
838.8823019823151
 20
211.3043199230925
 30
0.0
 11
838.8823019823151
 21
207.3718695742455
 31
0.0
  0
LINE
  5
BA75
330
1F
100
AcDbEntity
  8
0
  6
Continuous
 62
     7
370
    15
100
AcDbLine
 10
839.8823021462279
 20
211.3043160735219
 30
0.0
 11
838.8823019823151
 21
211.3043199230925
 31
0.0
  0
LINE
  5
BA76
330
1F
100
AcDbEntity
  8
0
  6
Continuous
 62
     7
370
    15
100
AcDbLine
 10
839.8823021462279
 20
207.6411460177213
 30
0.0
 11
839.8823021462279
 21
211.3043160735219
 31
0.0
  0
LINE
  5
BA77
330
1F
100
AcDbEntity
  8
0
  6
Continuous
 62
     7
370
    15
100
AcDbLine
 10
820.3823036065418
 20
179.2288514641797
 30
0.0
 11
818.3823032787163
 21
179.2288514641797
 31
0.0
  0
LINE
  5
BA78
330
1F
100
AcDbEntity
  8
0
  6
Continuous
 62
     7
370
    15
100
AcDbLine
 10
818.3823032787163
 20
179.2288514641797
 30
0.0
 11
818.3823032787163
 21
171.2288528192609
 31
0.0
  0
LINE
  5
BA79
330
1F
100
AcDbEntity
  8
0
  6
Continuous
 62
     7
370
    15
100
AcDbLine
 10
818.3823032787165
 20
139.2288530668306
 30
0.0
 11
820.382303606542
 21
139.2288530668306
 31
0.0
  0
LINE
  5
BA7A
330
1F
100
AcDbEntity
  8
0
  6
Continuous
 62
     7
370
    15
100
AcDbLine
 10
818.3823032787163
 20
147.2288530385677
 30
0.0
 11
818.3823032787165
 21
139.2288530668306
 31
0.0
  0
SPLINE
  5
BA7E
330
1F
100
AcDbEntity
  8
0
  6
Continuous
 62
     7
370
    15
100
AcDbSpline
210
0.0
220
0.0
230
1.0
 70
    24
 71
     3
 72
    12
 73
     8
 74
     0
 42
0.0000000001
 43
0.0000000001
 40
0.0
 40
0.0
 40
0.0
 40
0.0
 40
0.1521624288275515
 40
0.3689026627985398
 40
0.585669396509529
 40
0.7928151250095378
 40
1.0
 40
1.0
 40
1.0
 40
1.0
 10
885.3823012223562
 20
109.7443889915404
 30
0.0
 10
885.3823012223562
 20
109.7558399962724
 30
0.0
 10
885.3823012223562
 20
109.7836018174387
 30
0.0
 10
885.3823012223562
 20
110.1991745618331
 30
0.0
 10
885.3823012223562
 20
110.9842359119076
 30
0.0
 10
885.3823012223562
 20
112.0787749368634
 30
0.0
 10
885.3823012223562
 20
113.0626504611116
 30
0.0
 10
885.3823012223562
 20
112.9620334184076
 30
0.0
  0
LINE
  5
BA85
330
1F
100
AcDbEntity
  8
0
  6
Continuous
 62
     7
370
    15
100
AcDbLine
 10
820.8823008945307
 20
109.7355186079011
 30
0.0
 11
820.8823008945307
 21
112.9620334184076
 31
0.0
  0
SPLINE
  5
BA86
330
1F
100
AcDbEntity
  8
0
  6
Continuous
 62
     7
370
    15
100
AcDbSpline
210
0.0
220
0.0
230
1.0
 70
     8
 71
     3
 72
    12
 73
     8
 74
     0
 42
0.0000000001
 43
0.0000000001
 40
0.0
 40
0.0
 40
0.0
 40
0.0
 40
0.2500000000000067
 40
0.2500000000000067
 40
0.5000000000000135
 40
0.5000000000000135
 40
1.0
 40
1.0
 40
1.0
 40
1.0
 10
820.3823024144492
 20
110.3157667715371
 30
0.0
 10
820.3823024144492
 20
110.2318124773692
 30
0.0
 10
820.4029530114436
 20
110.1514913026861
 30
0.0
 10
820.4667373721667
 20
110.012279078008
 30
0.0
 10
820.5091446064912
 20
109.953642112115
 30
0.0
 10
820.651960017849
 20
109.8082453073307
 30
0.0
 10
820.7652616869676
 20
109.7523099920768
 30
0.0
 10
820.8823024144491
 20
109.7355200707542
 30
0.0
  0
SPLINE
  5
BA88
330
1F
100
AcDbEntity
  8
0
  6
Continuous
 62
     7
370
    15
100
AcDbSpline
210
0.0
220
0.0
230
1.0
 70
    24
 71
     3
 72
     8
 73
     4
 74
     0
 42
0.0000000001
 43
0.0000000001
 40
0.0
 40
0.0
 40
0.0
 40
0.0
 40
1.0
 40
1.0
 40
1.0
 40
1.0
 10
820.382302414449
 20
113.5546341482037
 30
0.0
 10
820.3823024144492
 20
112.0160788434161
 30
0.0
 10
820.3823024144492
 20
110.9285501545267
 30
0.0
 10
820.3823024144492
 20
110.3157667715371
 30
0.0
  0
LINE
  5
BA8C
330
1F
100
AcDbEntity
  8
0
  6
Continuous
 62
     7
370
    15
100
AcDbLine
 10
828.8823022058329
 20
111.0858362816898
 30
0.0
 11
838.8823019823155
 21
111.0858362816898
 31
0.0
  0
ARC
  5
BA8D
330
1F
100
AcDbEntity
  8
0
  6
Continuous
 62
     7
370
    15
100
AcDbCircle
 10
820.5823024144489
 20
159.2288529550933
 30
0.0
 40
50.0
100
AcDbArc
 50
278.16359419579
 51
278.3951912566747
  0
LINE
  5
BA8E
330
1F
100
AcDbEntity
  8
0
  6
Continuous
 62
     7
370
    15
100
AcDbLine
 10
820.8823008945307
 20
109.7355186079011
 30
0.0
 11
827.6823023816666
 21
109.7355186079011
 31
0.0
  0
LINE
  5
BA8F
330
1F
100
AcDbEntity
  8
0
  6
Continuous
 62
     7
370
    15
100
AcDbLine
 10
827.8823020419201
 20
110.8165605007704
 30
0.0
 11
827.8823020419201
 21
111.0858362816898
 31
0.0
  0
LINE
  5
BA90
330
1F
100
AcDbEntity
  8
0
  6
Continuous
 62
     7
370
    15
100
AcDbLine
 10
839.8823021462282
 20
111.0858362816898
 30
0.0
 11
839.8823021462282
 21
110.8165605007704
 31
0.0
  0
LINE
  5
BA91
330
1F
100
AcDbEntity
  8
0
  6
Continuous
 62
     7
370
    15
100
AcDbLine
 10
827.8823020419201
 20
111.0858362816898
 30
0.0
 11
828.8823022058329
 21
111.0858362816898
 31
0.0
  0
LINE
  5
BA92
330
1F
100
AcDbEntity
  8
0
  6
Continuous
 62
     7
370
    15
100
AcDbLine
 10
838.8823019823155
 20
111.0858362816898
 30
0.0
 11
839.8823021462282
 21
111.0858362816898
 31
0.0
  0
LINE
  5
BA93
330
1F
100
AcDbEntity
  8
0
  6
Continuous
 62
     7
370
    15
100
AcDbLine
 10
827.5287496408539
 20
208.7221875075059
 30
0.0
 11
827.5287496408539
 21
211.3043158477373
 31
0.0
  0
LINE
  5
BA94
330
1F
100
AcDbEntity
  8
0
  6
Continuous
 62
     7
370
    15
100
AcDbLine
 10
827.8823020419197
 20
211.3043161809772
 30
0.0
 11
827.5287496408539
 21
211.3043158477373
 31
0.0
  0
LINE
  5
BA95
330
1F
100
AcDbEntity
  8
0
  6
Continuous
 62
     7
370
    15
100
AcDbLine
 10
827.8823020419201
 20
107.1533873302775
 30
0.0
 11
827.5287496408543
 21
107.153387201257
 31
0.0
  0
LINE
  5
BA96
330
1F
100
AcDbEntity
  8
0
  6
Continuous
 62
     7
370
    15
100
AcDbLine
 10
827.5287496408543
 20
109.7355192741839
 30
0.0
 11
827.5287496408543
 21
107.153387201257
 31
0.0
  0
LINE
  5
BA97
330
1F
100
AcDbEntity
  8
0
  6
Continuous
 62
     7
370
    15
100
AcDbLine
 10
826.8216429760771
 20
211.3043165142169
 30
0.0
 11
826.8216429760771
 21
208.7221881739855
 31
0.0
  0
LINE
  5
BA98
330
1F
100
AcDbEntity
  8
0
  6
Continuous
 62
     7
370
    15
100
AcDbLine
 10
826.8216429760771
 20
211.3043165142169
 30
0.0
 11
827.5287496408539
 21
211.3043158477373
 31
0.0
  0
LINE
  5
BA99
330
1F
100
AcDbEntity
  8
0
  6
Continuous
 62
     7
370
    15
100
AcDbLine
 10
826.8216429760775
 20
107.1533880038827
 30
0.0
 11
827.5287496408543
 21
107.153387201257
 31
0.0
  0
LINE
  5
BA9A
330
1F
100
AcDbEntity
  8
0
  6
Continuous
 62
     7
370
    15
100
AcDbLine
 10
826.8216429760775
 20
107.1533880038827
 30
0.0
 11
826.8216429760775
 21
109.735519532225
 31
0.0
  0
LINE
  5
BA9B
330
1F
100
AcDbEntity
  8
0
  6
Continuous
 62
     7
370
    15
100
AcDbLine
 10
828.8823022058325
 20
211.3043199230924
 30
0.0
 11
838.8823019823151
 21
211.3043199230925
 31
0.0
  0
LINE
  5
BA9C
330
1F
100
AcDbEntity
  8
0
  6
Continuous
 62
     7
370
    15
100
AcDbLine
 10
828.8823022058329
 20
107.1533879863917
 30
0.0
 11
838.8823019823155
 21
107.1533879863917
 31
0.0
  0
LINE
  5
BA9D
330
1F
100
AcDbEntity
  8
0
  6
Continuous
 62
     7
370
    15
100
AcDbLine
 10
824.0823029091673
 20
208.7221881739855
 30
0.0
 11
824.0823029091673
 21
211.3043165142169
 31
0.0
  0
LINE
  5
BA9E
330
1F
100
AcDbEntity
  8
0
  6
Continuous
 62
     7
370
    15
100
AcDbLine
 10
826.8216429760771
 20
211.3043165142169
 30
0.0
 11
824.0823029091673
 21
211.3043165142169
 31
0.0
  0
LINE
  5
BA9F
330
1F
100
AcDbEntity
  8
0
  6
Continuous
 62
     7
370
    15
100
AcDbLine
 10
824.0823029091677
 20
107.1533880038827
 30
0.0
 11
824.0823029091677
 21
109.735519532225
 31
0.0
  0
LINE
  5
BAA0
330
1F
100
AcDbEntity
  8
0
  6
Continuous
 62
     7
370
    15
100
AcDbLine
 10
826.8216429760775
 20
107.1533880038827
 30
0.0
 11
824.0823029091677
 21
107.1533880038827
 31
0.0
  0
LINE
  5
BAA1
330
1F
100
AcDbEntity
  8
0
  6
Continuous
 62
     7
370
    15
100
AcDbLine
 10
824.0823029091677
 20
107.1533880038827
 30
0.0
 11
823.8823032489142
 21
107.3533854098771
 31
0.0
  0
LINE
  5
BAA2
330
1F
100
AcDbEntity
  8
0
  6
Continuous
 62
     7
370
    15
100
AcDbLine
 10
823.8823032489142
 20
107.3533854098771
 30
0.0
 11
823.8823032489142
 21
109.7355219254573
 31
0.0
  0
LINE
  5
BAA3
330
1F
100
AcDbEntity
  8
0
  6
Continuous
 62
     7
370
    15
100
AcDbLine
 10
823.8823032489138
 20
211.1043158506749
 30
0.0
 11
823.8823032489138
 21
208.7221866983761
 31
0.0
  0
LINE
  5
BAA4
330
1F
100
AcDbEntity
  8
0
  6
Continuous
 62
     7
370
    15
100
AcDbLine
 10
823.8823032489138
 20
211.1043158506749
 30
0.0
 11
824.0823029091673
 21
211.3043165142169
 31
0.0
  0
LINE
  5
BAA5
330
1F
100
AcDbEntity
  8
0
  6
Continuous
 62
     7
370
    15
100
AcDbLine
 10
884.8823039343674
 20
135.5391440963651
 30
0.0
 11
884.8823039343672
 21
209.2288516914879
 31
0.0
  0
LINE
  5
BAA6
330
1F
100
AcDbEntity
  8
0
  6
Continuous
 62
     7
370
    15
100
AcDbLine
 10
884.8823039343676
 20
112.9620334184076
 30
0.0
 11
884.8823039343676
 21
109.2288526426097
 31
0.0
  0
LINE
  5
BFF5
330
1F
100
AcDbEntity
  8
0
  6
Continuous
 62
     7
370
    15
100
AcDbLine
 10
735.7916951035009
 20
115.5776819264791
 30
0.0
 11
736.412982255672
 21
114.1822440600298
 31
0.0
  0
LINE
  5
BFF6
330
1F
100
AcDbEntity
  8
0
  6
Continuous
 62
     7
370
    15
100
AcDbLine
 10
736.3854989264951
 20
115.8420583283804
 30
0.0
 11
735.7916951035009
 21
115.5776819264791
 31
0.0
  0
LINE
  5
BFF7
330
1F
100
AcDbEntity
  8
0
  6
Continuous
 62
     7
370
    15
100
AcDbLine
 10
734.6772055928455
 20
119.6789508736036
 30
0.0
 11
736.3854989264951
 21
115.8420583283804
 31
0.0
  0
LINE
  5
BFF8
330
1F
100
AcDbEntity
  8
0
  6
Continuous
 62
     7
370
    15
100
AcDbLine
 10
730.7489596162782
 20
117.9299829578302
 30
0.0
 11
734.6772055928455
 21
119.6789508736036
 31
0.0
  0
LINE
  5
BFF9
330
1F
100
AcDbEntity
  8
0
  6
Continuous
 62
     7
370
    15
100
AcDbLine
 10
732.4572529499278
 20
114.093090412607
 30
0.0
 11
730.7489596162782
 21
117.9299829578302
 31
0.0
  0
LINE
  5
BFFA
330
1F
100
AcDbEntity
  8
0
  6
Continuous
 62
     7
370
    15
100
AcDbLine
 10
733.0510586355672
 20
114.3574705397985
 30
0.0
 11
732.4572529499278
 21
114.093090412607
 31
0.0
  0
LINE
  5
BFFB
330
1F
100
AcDbEntity
  8
0
  6
Continuous
 62
     7
370
    15
100
AcDbLine
 10
733.6723457877384
 20
112.9620326733492
 30
0.0
 11
733.0510586355672
 21
114.3574705397985
 31
0.0
  0
LINE
  5
C000
330
1F
100
AcDbEntity
  8
0
  6
Continuous
 62
     7
370
    15
100
AcDbLine
 10
757.4239156995759
 20
136.3028911924265
 30
0.0
 11
758.7467662845598
 21
135.5391433513067
 31
0.0
  0
LINE
  5
C001
330
1F
100
AcDbEntity
  8
0
  6
Continuous
 62
     7
370
    15
100
AcDbLine
 10
757.7489174757944
 20
136.865806770911
 30
0.0
 11
757.4239156995759
 21
136.3028911924265
 31
0.0
  0
LINE
  5
C002
330
1F
100
AcDbEntity
  8
0
  6
Continuous
 62
     7
370
    15
100
AcDbLine
 10
754.1116110836015
 20
138.9658069288633
 30
0.0
 11
757.7489174757944
 21
136.865806770911
 31
0.0
  0
LINE
  5
C003
330
1F
100
AcDbEntity
  8
0
  6
Continuous
 62
     7
370
    15
100
AcDbLine
 10
751.9616119419084
 20
135.2418987131021
 30
0.0
 11
754.1116110836015
 21
138.9658069288633
 31
0.0
  0
LINE
  5
C004
330
1F
100
AcDbEntity
  8
0
  6
Continuous
 62
     7
370
    15
100
AcDbLine
 10
755.5989183341012
 20
133.1418985551498
 30
0.0
 11
751.9616119419084
 21
135.2418987131021
 31
0.0
  0
LINE
  5
C005
330
1F
100
AcDbEntity
  8
0
  6
Continuous
 62
     7
370
    15
100
AcDbLine
 10
755.9239163850294
 20
133.7048141336344
 30
0.0
 11
755.5989183341012
 21
133.1418985551498
 31
0.0
  0
LINE
  5
C006
330
1F
100
AcDbEntity
  8
0
  6
Continuous
 62
     7
370
    15
100
AcDbLine
 10
757.2467669700132
 20
132.9410681551598
 30
0.0
 11
755.9239163850294
 21
133.7048141336344
 31
0.0
  0
LINE
  5
C00C
330
1F
100
AcDbEntity
  8
0
  6
Continuous
 62
     7
370
    15
100
AcDbLine
 10
673.506055757855
 20
133.7048141336344
 30
0.0
 11
672.1832051728712
 21
132.9410681551598
 31
0.0
  0
LINE
  5
C00D
330
1F
100
AcDbEntity
  8
0
  6
Continuous
 62
     7
370
    15
100
AcDbLine
 10
673.8310538087831
 20
133.1418985551498
 30
0.0
 11
673.506055757855
 21
133.7048141336344
 31
0.0
  0
LINE
  5
C00E
330
1F
100
AcDbEntity
  8
0
  6
Continuous
 62
     7
370
    15
100
AcDbLine
 10
677.4683602009759
 20
135.2418987131021
 30
0.0
 11
673.8310538087831
 21
133.1418985551498
 31
0.0
  0
LINE
  5
C00F
330
1F
100
AcDbEntity
  8
0
  6
Continuous
 62
     7
370
    15
100
AcDbLine
 10
675.3183610592828
 20
138.9658069288633
 30
0.0
 11
677.4683602009759
 21
135.2418987131021
 31
0.0
  0
LINE
  5
C010
330
1F
100
AcDbEntity
  8
0
  6
Continuous
 62
     7
370
    15
100
AcDbLine
 10
671.68105466709
 20
136.865806770911
 30
0.0
 11
675.3183610592828
 21
138.9658069288633
 31
0.0
  0
LINE
  5
C011
330
1F
100
AcDbEntity
  8
0
  6
Continuous
 62
     7
370
    15
100
AcDbLine
 10
672.0060564433084
 20
136.3028911924265
 30
0.0
 11
671.68105466709
 21
136.865806770911
 31
0.0
  0
LINE
  5
C012
330
1F
100
AcDbEntity
  8
0
  6
Continuous
 62
     7
370
    15
100
AcDbLine
 10
670.6832058583246
 20
135.5391433513067
 30
0.0
 11
672.0060564433084
 21
136.3028911924265
 31
0.0
  0
SPLINE
  5
C06D
330
1F
100
AcDbEntity
  8
0
  6
Continuous
 62
     7
370
    15
100
AcDbSpline
210
0.0
220
0.0
230
1.0
 70
    11
 71
     3
 72
    82
 73
    78
 74
     0
 42
0.0000000001
 43
0.0000000001
 40
0.0
 40
0.0
 40
0.0
 40
0.0
 40
0.0312500000000011
 40
0.0312500000000011
 40
0.0468750000000014
 40
0.0468750000000014
 40
0.0625000000000018
 40
0.0625000000000018
 40
0.0937500000000026
 40
0.0937500000000026
 40
0.1250000000000034
 40
0.1250000000000034
 40
0.1562500000000042
 40
0.1562500000000042
 40
0.187500000000005
 40
0.187500000000005
 40
0.2187500000000058
 40
0.2187500000000058
 40
0.2500000000000067
 40
0.2500000000000067
 40
0.2812500000000075
 40
0.2812500000000075
 40
0.3125000000000083
 40
0.3125000000000083
 40
0.3281250000000084
 40
0.3281250000000084
 40
0.3437500000000085
 40
0.3437500000000085
 40
0.3750000000000083
 40
0.3750000000000083
 40
0.4062500000000081
 40
0.4062500000000081
 40
0.4218750000000081
 40
0.4218750000000081
 40
0.437500000000008
 40
0.437500000000008
 40
0.4687500000000078
 40
0.4687500000000078
 40
0.5000000000000075
 40
0.5000000000000075
 40
0.5312500000000071
 40
0.5312500000000071
 40
0.5468750000000071
 40
0.5468750000000071
 40
0.562500000000007
 40
0.562500000000007
 40
0.5937500000000067
 40
0.5937500000000067
 40
0.6250000000000064
 40
0.6250000000000064
 40
0.6562500000000063
 40
0.6562500000000063
 40
0.6875000000000062
 40
0.6875000000000062
 40
0.7187500000000061
 40
0.7187500000000061
 40
0.7500000000000058
 40
0.7500000000000058
 40
0.7812500000000055
 40
0.7812500000000055
 40
0.8125000000000055
 40
0.8125000000000055
 40
0.8281250000000049
 40
0.8281250000000049
 40
0.8437500000000044
 40
0.8437500000000044
 40
0.8750000000000033
 40
0.8750000000000033
 40
0.9062500000000024
 40
0.9062500000000024
 40
0.9218750000000019
 40
0.9218750000000019
 40
0.9375000000000014
 40
0.9375000000000014
 40
0.9687500000000007
 40
0.9687500000000007
 40
1.0
 40
1.0
 40
1.0
 40
1.0
 10
858.8823024144494
 20
199.8130735491868
 30
0.0
 10
858.5517911433662
 20
199.8130735491867
 30
0.0
 10
858.2268439204256
 20
199.8321483125908
 30
0.0
 10
857.7474182252446
 20
199.8879472123793
 30
0.0
 10
857.588952034972
 20
199.9111073046924
 30
0.0
 10
857.2747631632093
 20
199.9666558849801
 30
0.0
 10
857.1186566314802
 20
199.9991916453327
 30
0.0
 10
856.6646396325772
 20
200.1084356494951
 30
0.0
 10
856.3775579757102
 20
200.1971579019714
 30
0.0
 10
855.8342401311737
 20
200.4047560811764
 30
0.0
 10
855.577147025164
 20
200.5246308257985
 30
0.0
 10
855.1162490454283
 20
200.7833845119685
 30
0.0
 10
854.909351009468
 20
200.9232163517232
 30
0.0
 10
854.5438131454464
 20
201.2227547607654
 30
0.0
 10
854.3885862080061
 20
201.3801352483167
 30
0.0
 10
854.1391089513181
 20
201.7008333224036
 30
0.0
 10
854.0429908512059
 20
201.8665202763511
 30
0.0
 10
853.9143907622401
 20
202.2001590291057
 30
0.0
 10
853.8825345995078
 20
202.3652008633078
 30
0.0
 10
853.8820727343141
 20
202.6915076849941
 30
0.0
 10
853.914508598951
 20
202.8543910405103
 30
0.0
 10
854.042006331136
 20
203.1642501904268
 30
0.0
 10
854.136366088408
 20
203.3121937496484
 30
0.0
 10
854.3241114553836
 20
203.5242473033079
 30
0.0
 10
854.3948995977819
 20
203.5936186321862
 30
0.0
 10
854.5495481858294
 20
203.7265260249283
 30
0.0
 10
854.6334871845084
 20
203.7902678640886
 30
0.0
 10
854.9046948164834
 20
203.9738177040128
 30
0.0
 10
855.1111619840536
 20
204.0860137656886
 30
0.0
 10
855.5775905054563
 20
204.2908901982433
 30
0.0
 10
855.8299022364012
 20
204.380218025053
 30
0.0
 10
856.2356876941114
 20
204.4964510289935
 30
0.0
 10
856.3755486271132
 20
204.5322157947372
 30
0.0
 10
856.6646902517076
 20
204.5978336550935
 30
0.0
 10
856.8144962028227
 20
204.6277396052578
 30
0.0
 10
857.268527110579
 20
204.7068120498033
 30
0.0
 10
857.5801202301237
 20
204.7461888448034
 30
0.0
 10
858.2209954969197
 20
204.7994050739604
 30
0.0
 10
858.5518061864028
 20
204.8130739391486
 30
0.0
 10
859.2128272142534
 20
204.8130731592082
 30
0.0
 10
859.5377737079356
 20
204.7996991007309
 30
0.0
 10
860.017198336102
 20
204.7601720863073
 30
0.0
 10
860.175664175288
 20
204.743723444053
 30
0.0
 10
860.4898523524195
 20
204.7040337891551
 30
0.0
 10
860.6459584522518
 20
204.6806848930113
 30
0.0
 10
861.0999741229937
 20
204.60168809565
 30
0.0
 10
861.3870549616793
 20
204.5368508798341
 30
0.0
 10
861.9303712668093
 20
204.3816890890777
 30
0.0
 10
862.187463541829
 20
204.290550222179
 30
0.0
 10
862.6483600061911
 20
204.0883876091061
 30
0.0
 10
862.8552573743599
 20
203.9766864591151
 30
0.0
 10
863.2207940534561
 20
203.7298520190543
 30
0.0
 10
863.3760204049071
 20
203.5965520323206
 30
0.0
 10
863.6254967893814
 20
203.3157970348773
 30
0.0
 10
863.7216145589041
 20
203.1662662914278
 30
0.0
 10
863.8502141802613
 20
202.8544770402978
 30
0.0
 10
863.8820702298056
 20
202.6950064060588
 30
0.0
 10
863.8825320941691
 20
202.3687801692806
 30
0.0
 10
863.8500963482439
 20
202.2002271384273
 30
0.0
 10
863.7225990683347
 20
201.8687049982775
 30
0.0
 10
863.6282396435246
 20
201.7048886121847
 30
0.0
 10
863.4404949507622
 20
201.4627614405644
 30
0.0
 10
863.3697070613306
 20
201.3822539279821
 30
0.0
 10
863.2150589906592
 20
201.2256948676795
 30
0.0
 10
863.1311202721867
 20
201.1494223162763
 30
0.0
 10
862.8599135487688
 20
200.9267444763007
 30
0.0
 10
862.653447075796
 20
200.7864066580376
 30
0.0
 10
862.1870201728667
 20
200.5242229274036
 30
0.0
 10
861.9347090812839
 20
200.4067026835734
 30
0.0
 10
861.5289248526019
 20
200.2512295424235
 30
0.0
 10
861.389064346546
 20
200.2028892944238
 30
0.0
 10
861.0999236168467
 20
200.1135188680528
 30
0.0
 10
860.9501180687873
 20
200.0724125883268
 30
0.0
 10
860.4960882702151
 20
199.9630680698812
 30
0.0
 10
860.1844959157032
 20
199.9076868330901
 30
0.0
 10
859.5436222534001
 20
199.8325690072082
 30
0.0
 10
859.2128136855322
 20
199.8130735491868
 30
0.0
 10
858.8823024144494
 20
199.8130735491868
 30
0.0
  0
SPLINE
  5
C06E
330
1F
100
AcDbEntity
  8
0
  6
Continuous
 62
     7
370
    15
100
AcDbSpline
210
0.0
220
0.0
230
1.0
 70
    11
 71
     3
 72
    82
 73
    78
 74
     0
 42
0.0000000001
 43
0.0000000001
 40
0.0
 40
0.0
 40
0.0
 40
0.0
 40
0.0312499999999994
 40
0.0312499999999994
 40
0.0468749999999991
 40
0.0468749999999991
 40
0.0624999999999988
 40
0.0624999999999988
 40
0.0937499999999981
 40
0.0937499999999981
 40
0.1249999999999975
 40
0.1249999999999975
 40
0.1562499999999969
 40
0.1562499999999969
 40
0.1874999999999962
 40
0.1874999999999962
 40
0.2187499999999956
 40
0.2187499999999956
 40
0.249999999999995
 40
0.249999999999995
 40
0.2812499999999944
 40
0.2812499999999944
 40
0.3124999999999938
 40
0.3124999999999938
 40
0.3281249999999937
 40
0.3281249999999937
 40
0.3437499999999936
 40
0.3437499999999936
 40
0.3749999999999939
 40
0.3749999999999939
 40
0.4062499999999942
 40
0.4062499999999942
 40
0.4218749999999944
 40
0.4218749999999944
 40
0.4374999999999945
 40
0.4374999999999945
 40
0.4687499999999947
 40
0.4687499999999947
 40
0.4999999999999949
 40
0.4999999999999949
 40
0.5312499999999952
 40
0.5312499999999952
 40
0.5468749999999952
 40
0.5468749999999952
 40
0.5624999999999955
 40
0.5624999999999955
 40
0.593749999999996
 40
0.593749999999996
 40
0.6249999999999963
 40
0.6249999999999963
 40
0.6562499999999967
 40
0.6562499999999967
 40
0.6874999999999972
 40
0.6874999999999972
 40
0.7187499999999976
 40
0.7187499999999976
 40
0.7499999999999981
 40
0.7499999999999981
 40
0.7812499999999984
 40
0.7812499999999984
 40
0.8124999999999989
 40
0.8124999999999989
 40
0.8281249999999989
 40
0.8281249999999989
 40
0.8437499999999989
 40
0.8437499999999989
 40
0.8749999999999989
 40
0.8749999999999989
 40
0.9062499999999991
 40
0.9062499999999991
 40
0.9218749999999992
 40
0.9218749999999992
 40
0.9374999999999992
 40
0.9374999999999992
 40
0.9687499999999996
 40
0.9687499999999996
 40
1.0
 40
1.0
 40
1.0
 40
1.0
 10
875.3823024144493
 20
179.7734126088948
 30
0.0
 10
875.0517911433661
 20
179.7734126088948
 30
0.0
 10
874.7268439204257
 20
179.8031595782374
 30
0.0
 10
874.2474182252445
 20
179.8904112846523
 30
0.0
 10
874.0889520349721
 20
179.9266508077286
 30
0.0
 10
873.7747631632094
 20
180.0137074733271
 30
0.0
 10
873.6186566314801
 20
180.0647569647097
 30
0.0
 10
873.1646396325771
 20
180.2365097491525
 30
0.0
 10
872.8775579757103
 20
180.3763910935651
 30
0.0
 10
872.3342401311738
 20
180.7056874180282
 30
0.0
 10
872.0771470251639
 20
180.8967258856504
 30
0.0
 10
871.6162490454282
 20
181.3122275772397
 30
0.0
 10
871.4093510094679
 20
181.5381822027532
 30
0.0
 10
871.0438131454463
 20
182.0265694044486
 30
0.0
 10
870.8885862080062
 20
182.2852576335817
 30
0.0
 10
870.639108951318
 20
182.8176620705877
 30
0.0
 10
870.5429908512059
 20
183.0953126229155
 30
0.0
 10
870.4143907622402
 20
183.6605773877059
 30
0.0
 10
870.3825345995079
 20
183.943221858168
 30
0.0
 10
870.382072734314
 20
184.5083556656767
 30
0.0
 10
870.4145085989509
 20
184.7937514809643
 30
0.0
 10
870.5420063311359
 20
185.342950741505
 30
0.0
 10
870.6363660884079
 20
185.6083608476658
 30
0.0
 10
870.8241114553835
 20
185.9930116244816
 30
0.0
 10
870.8948995977818
 20
186.1195958439058
 30
0.0
 10
871.0495481858293
 20
186.3634536184072
 30
0.0
 10
871.1334871845084
 20
186.4810923887599
 30
0.0
 10
871.4046948164833
 20
186.8216007533172
 30
0.0
 10
871.6111619840535
 20
187.0321777680478
 30
0.0
 10
872.0775905054562
 20
187.4201206596007
 30
0.0
 10
872.3299022364013
 20
187.591117853542
 30
0.0
 10
872.7356876941113
 20
187.8150945694347
 30
0.0
 10
872.8755486271131
 20
187.8843013916685
 30
0.0
 10
873.1646902517075
 20
188.0116683353821
 30
0.0
 10
873.3144962028227
 20
188.0699334145011
 30
0.0
 10
873.7685271105789
 20
188.2243682790496
 30
0.0
 10
874.0801202301238
 20
188.3018108803216
 30
0.0
 10
874.7209954969196
 20
188.4066285406769
 30
0.0
 10
875.0518061864028
 20
188.4336674170793
 30
0.0
 10
875.7128272142535
 20
188.433665876366
 30
0.0
 10
876.0377737079357
 20
188.4072097592708
 30
0.0
 10
876.5171983361017
 20
188.329352043478
 30
0.0
 10
876.6756641752879
 20
188.2969871976923
 30
0.0
 10
876.9898523524194
 20
188.2190863517733
 30
0.0
 10
877.1459584522515
 20
188.1733407603176
 30
0.0
 10
877.5999741229936
 20
188.0190508742033
 30
0.0
 10
877.8870549616792
 20
187.8929594085457
 30
0.0
 10
878.4303712668092
 20
187.5939370400866
 30
0.0
 10
878.6874635418287
 20
187.419489233516
 30
0.0
 10
879.1483600061912
 20
187.0366605384111
 30
0.0
 10
879.3552573743598
 20
186.8269472829958
 30
0.0
 10
879.720794053456
 20
186.3689890272642
 30
0.0
 10
879.876020404907
 20
186.1242039526523
 30
0.0
 10
880.1254967893813
 20
185.6148611853517
 30
0.0
 10
880.2216145589042
 20
185.3465387013946
 30
0.0
 10
880.3502141802614
 20
184.7938894158121
 30
0.0
 10
880.3820702298056
 20
184.5144618147888
 30
0.0
 10
880.3825320941692
 20
183.949375211502
 30
0.0
 10
880.3500963482436
 20
183.6607063540393
 30
0.0
 10
880.222599068335
 20
183.0990005896628
 30
0.0
 10
880.1282396435246
 20
182.8244265994377
 30
0.0
 10
879.940494950762
 20
182.422413226936
 30
0.0
 10
879.8697070613307
 20
182.2893996573436
 30
0.0
 10
879.7150589906591
 20
182.0318867888185
 30
0.0
 10
879.6311202721867
 20
181.90701350085
 30
0.0
 10
879.3599135487687
 20
181.5439148245104
 30
0.0
 10
879.1534470757959
 20
181.3170902890054
 30
0.0
 10
878.6870201728666
 20
180.8960611798144
 30
0.0
 10
878.434709081284
 20
180.7087869956178
 30
0.0
 10
878.0289248526017
 20
180.4621548541985
 30
0.0
 10
877.8890643465459
 20
180.3856875193943
 30
0.0
 10
877.5999236168466
 20
180.244606883244
 30
0.0
 10
877.4501180687874
 20
180.1798751828143
 30
0.0
 10
876.996088270215
 20
180.0079623411106
 30
0.0
 10
876.6844959157031
 20
179.9212792622116
 30
0.0
 10
876.0436222534
 20
179.80381594327
 30
0.0
 10
875.7128136855321
 20
179.7734126088948
 30
0.0
 10
875.3823024144493
 20
179.7734126088948
 30
0.0
  0
LINE
  5
C06F
330
1F
100
AcDbEntity
  8
0
  6
Continuous
 62
     7
370
    15
100
AcDbLine
 10
820.382304798635
 20
135.5391440963651
 30
0.0
 11
885.3823024144492
 21
135.5391440963651
 31
0.0
  0
LWPOLYLINE
  5
C085
330
1F
100
AcDbEntity
  8
0
  6
Continuous
 62
     7
370
    15
100
AcDbPolyline
 90
       23
 70
   128
 43
0.0
 10
880.3823025262079
 20
183.7288530594016
 10
880.3683215117178
 20
184.0524448132421
 10
880.2569418510518
 20
184.6923975324537
 10
880.0366710236392
 20
185.3108273869659
 10
879.7124292066417
 20
185.8939172750617
 10
879.2914597613833
 20
186.4286435818578
 10
878.7831662519
 20
186.9030611640121
 10
878.1989028973601
 20
187.3065734332706
 10
877.5517207866631
 20
187.6301633244659
 10
876.8560787027798
 20
187.8666056370641
 10
876.1275134345613
 20
188.0106160467769
 10
875.3823026379667
 20
188.0589814907218
 10
874.6370909100495
 20
188.0106160467769
 10
873.9085265731535
 20
187.8666056370641
 10
873.2128835579477
 20
187.6301633244659
 10
872.5657019129119
 20
187.3065734332706
 10
871.981438558372
 20
186.9030611640121
 10
871.4731450488887
 20
186.4286435818578
 10
871.052175137969
 20
185.8939172750617
 10
870.7279333209715
 20
185.3108273869659
 10
870.5076624935589
 20
184.6923975324537
 10
870.3962837642155
 20
184.0524448132421
 10
870.3823027497254
 20
183.7288530594016
  0
LWPOLYLINE
  5
C086
330
1F
100
AcDbEntity
  8
0
  6
Continuous
 62
     7
370
    15
100
AcDbPolyline
 90
       30
 70
   128
 43
0.0
 10
875.3823026379667
 20
181.5637907063867
 10
874.8448764270268
 20
181.614408088317
 10
874.3325800931177
 20
181.7638946747686
 10
873.8693672528587
 20
182.0052618211414
 10
873.4768976753674
 20
182.3272218978311
 10
873.1735221406541
 20
182.7147191440965
 10
872.973427485498
 20
183.1496374732162
 10
872.885968845161
 20
183.6116386628057
 10
872.9152356570683
 20
184.0791216170694
 10
873.0598607396803
 20
184.5302263325359
 10
873.3130798971377
 20
184.9438602155353
 10
873.6630541568718
 20
185.3006796961929
 10
874.0934173872791
 20
185.5840047871972
 10
874.5840483641348
 20
185.7805827683116
 10
875.112004887136
 20
185.8812252110149
 10
875.6526003887973
 20
185.8812252110149
 10
876.1805559804759
 20
185.7805827683116
 10
876.6711869573317
 20
185.5840047871972
 10
877.1015511190615
 20
185.3006796961929
 10
877.4515244474731
 20
184.9438602155353
 10
877.7047440705917
 20
184.5302263325359
 10
877.8493686875425
 20
184.0791216170694
 10
877.878635965111
 20
183.6116386628057
 10
877.791177324774
 20
183.1496374732162
 10
877.5910826696179
 20
182.7147191440965
 10
877.2877076005659
 20
182.3272218978311
 10
876.8952380230746
 20
182.0052618211414
 10
876.4320251828156
 20
181.7638946747686
 10
875.9197288489065
 20
181.614408088317
 10
875.3823026379667
 20
181.5637907063867
  0
ARC
  5
C087
330
1F
100
AcDbEntity
  8
0
  6
Continuous
 62
     7
370
    15
100
AcDbCircle
 10
875.3823021723054
 20
180.694813602916
 30
0.0
 40
2.71099029616913
100
AcDbArc
 50
41.15338633176342
 51
138.8466136682366
  0
LINE
  5
C088
330
1F
100
AcDbEntity
  8
0
  6
Continuous
 62
     7
370
    15
100
AcDbLine
 10
820.382304798635
 20
133.7048148786928
 30
0.0
 11
885.3823024144492
 21
133.7048148786928
 31
0.0
  0
LINE
  5
C089
330
1F
100
AcDbEntity
  8
0
  6
Continuous
 62
     7
370
    15
100
AcDbLine
 10
885.3823024144492
 20
132.9410689002181
 30
0.0
 11
820.382304798635
 21
132.9410689002181
 31
0.0
  0
LINE
  5
C08C
330
1F
100
AcDbEntity
  8
0
  6
Continuous
 62
     7
370
    15
100
AcDbLine
 10
820.382304798635
 20
114.1822448050882
 30
0.0
 11
885.3823024144492
 21
114.1822448050882
 31
0.0
  0
LINE
  5
C093
330
1F
100
AcDbEntity
  8
0
  6
Continuous
 62
     7
370
    15
100
AcDbLine
 10
885.3823024144492
 20
135.2418994581605
 30
0.0
 11
820.382304798635
 21
135.2418994581605
 31
0.0
  0
LWPOLYLINE
  5
C09E
330
1F
100
AcDbEntity
  8
0
  6
Continuous
 62
     7
370
    15
100
AcDbPolyline
 90
       21
 70
   128
 43
0.0
 10
863.813860650929
 20
202.0763268744852
 10
863.7569419404588
 20
202.2204024767782
 10
863.5366711130462
 20
202.577449200144
 10
863.2124292960487
 20
202.9140999591257
 10
862.7914603164516
 20
203.2228222167398
 10
862.2831668069682
 20
203.4967279112245
 10
861.6989034524284
 20
203.7296963906194
 10
861.0517218073926
 20
203.9165196990873
 10
860.3560778608642
 20
204.0530292367841
 10
859.6275135239682
 20
204.1361739909555
 10
858.8823027273736
 20
204.1640987670328
 10
858.137091930779
 20
204.1361739909555
 10
857.4085257312379
 20
204.0530292367841
 10
856.7128836473546
 20
203.9165196990873
 10
856.0657020023189
 20
203.7296963906194
 10
855.481438647779
 20
203.4967279112245
 10
854.9731451382957
 20
203.2228222167398
 10
854.5521761586986
 20
202.9140999591257
 10
854.2279343417011
 20
202.577449200144
 10
854.0076616516433
 20
202.2204024767782
 10
853.9383936038337
 20
202.0375093495752
  0
LWPOLYLINE
  5
C09F
330
1F
100
AcDbEntity
  8
0
  6
Continuous
 62
     7
370
    15
100
AcDbPolyline
 90
       30
 70
   128
 43
0.0
 10
858.8823027273736
 20
200.4140986180212
 10
858.3448755851112
 20
200.4433235204126
 10
857.8325792512021
 20
200.5296310460474
 10
857.3693673422656
 20
200.6689829802419
 10
856.9768968334518
 20
200.8548637902643
 10
856.6735222300611
 20
201.0785860991384
 10
856.4734275749049
 20
201.3296892917062
 10
856.3859689345679
 20
201.5964238023664
 10
856.4152366777978
 20
201.8663248097803
 10
856.5598598977647
 20
202.1267710304166
 10
856.8130790552221
 20
202.3655807649995
 10
857.1630533149562
 20
202.5715930437948
 10
857.593417476686
 20
202.7351705408003
 10
858.0840493848644
 20
202.8486652350332
 10
858.612004976543
 20
202.9067723131086
 10
859.1526004782043
 20
202.9067723131086
 10
859.6805560698829
 20
202.8486652350332
 10
860.1711879780612
 20
202.7351705408003
 10
860.6015502771459
 20
202.5715930437948
 10
860.95152453688
 20
202.3655807649995
 10
861.2047436943374
 20
202.1267710304166
 10
861.3493687769494
 20
201.8663248097803
 10
861.3786365201793
 20
201.5964238023664
 10
861.2911778798423
 20
201.3296892917062
 10
861.0910832246862
 20
201.0785860991384
 10
860.7877067586503
 20
200.8548637902643
 10
860.3952381124816
 20
200.6689829802419
 10
859.9320243409
 20
200.5296310460474
 10
859.4197280069909
 20
200.4433235204126
 10
858.8823027273736
 20
200.4140986180212
  0
LINE
  5
C0A2
330
1F
100
AcDbEntity
  8
0
  6
Continuous
 62
     7
370
    15
100
AcDbLine
 10
885.3823024144492
 20
112.9620334184076
 30
0.0
 11
820.382304798635
 21
112.9620334184076
 31
0.0
  0
ENDSEC
  0
SECTION
  2
OBJECTS
  0
DICTIONARY
  5
C
330
0
100
AcDbDictionary
281
     1
  3
ACAD_COLOR
350
BE
  3
ACAD_GROUP
350
D
  3
ACAD_LAYOUT
350
1A
  3
ACAD_MATERIAL
350
BD
  3
ACAD_MLINESTYLE
350
17
  3
ACAD_PLOTSETTINGS
350
19
  3
ACAD_PLOTSTYLENAME
350
E
  3
ACAD_TABLESTYLE
350
11A
  3
AcadDim
350
7BA5
  3
ACDBHEADERROUNDTRIPXREC
350
C0EC
  3
AcDbVariableDictionary
350
94
  3
AcmDictionary
350
5B
  3
AMG
350
41
  3
AMGSNAPSETTINGS
350
1B8
  3
DWGPROPS
350
C0EB
  3
MAPISURF_MODULE
350
7C9D
  0
DICTIONARY
  5
3F9
330
2
100
AcDbDictionary
280
     1
281
     1
  3
ACAD_LAYERFILTERS
360
99D5
  3
ACAD_LAYERSTATES
360
CA0
  3
ACLYDICTIONARY
360
99D4
  3
AMLAYER_GROUPCOLORS
360
18A7
  0
DICTIONARY
  5
8F
330
1F
100
AcDbDictionary
280
     1
281
     1
  3
ACAD_INDEX
360
853B
  3
ACAD_SORTENTS
360
18D9
  0
DICTIONARY
  5
7CF3
330
7CF2
100
AcDbDictionary
280
     1
281
     1
  0
DICTIONARY
  5
A58B
330
A57E
100
AcDbDictionary
280
     1
281
     1
  3
ACAD_DIMASSOC
360
A58C
  0
DICTIONARY
  5
BE
102
{ACAD_REACTORS
330
C
102
}
330
C
100
AcDbDictionary
281
     1
  0
DICTIONARY
  5
D
102
{ACAD_REACTORS
330
C
102
}
330
C
100
AcDbDictionary
281
     1
  0
DICTIONARY
  5
1A
102
{ACAD_REACTORS
330
C
102
}
330
C
100
AcDbDictionary
281
     1
  3
Model
350
22
  3
配置1
350
1E
  3
配置2
350
26
  0
DICTIONARY
  5
BD
102
{ACAD_REACTORS
330
C
102
}
330
C
100
AcDbDictionary
281
     1
  0
DICTIONARY
  5
17
102
{ACAD_REACTORS
330
C
102
}
330
C
100
AcDbDictionary
281
     1
  3
Standard
350
18
  0
DICTIONARY
  5
19
102
{ACAD_REACTORS
330
C
102
}
330
C
100
AcDbDictionary
281
     1
  0
ACDBDICTIONARYWDFLT
  5
E
102
{ACAD_REACTORS
330
C
102
}
330
C
100
AcDbDictionary
281
     1
  3
Normal
350
F
100
AcDbDictionaryWithDefault
340
F
  0
DICTIONARY
  5
11A
102
{ACAD_REACTORS
330
C
102
}
330
C
100
AcDbDictionary
281
     1
  3
Standard
350
11B
  0
XRECORD
  5
7BA5
102
{ACAD_REACTORS
330
C
102
}
330
C
100
AcDbXrecord
280
     1
 90
   990106
  3

 60
     4
 61
     0
 62
     4
 63
     4
 64
     1
 65
     0
 66
     0
 67
     3
 68
     0
 69
     0
 70
     0
 71
     0
 72
     0
 40
0.0
170
     0
340
7BA1
  0
DICTIONARY
  5
C0EC
102
{ACAD_REACTORS
330
C
102
}
330
C
100
AcDbDictionary
281
     1
  0
DICTIONARY
  5
94
102
{ACAD_REACTORS
330
C
102
}
330
C
100
AcDbDictionary
281
     1
  3
CTABLESTYLE
350
138
  3
DIMASSOC
350
96
  3
INDEXCTL
350
95
  3
PROJECTNAME
350
1BA0
  0
DICTIONARY
  5
5B
102
{ACAD_REACTORS
330
C
102
}
330
C
100
AcDbDictionary
281
     1
  3
AcmBOM
350
1B5
  3
AcmStdDictionary
350
61
  3
AMDTSECTSYM_ARROWCOLOR
350
123
  0
DICTIONARY
  5
41
102
{ACAD_REACTORS
330
C
102
}
330
C
100
AcDbDictionary
281
     1
  3
AcMgSettings
350
7C17
  0
DICTIONARY
  5
1B8
102
{ACAD_REACTORS
330
C
102
}
330
C
100
AcDbDictionary
281
     1
  0
XRECORD
  5
C0EB
102
{ACAD_REACTORS
330
C
102
}
330
C
100
AcDbXrecord
280
     1
  1
DWGPROPS COOKIE
  2

  3

  4

  6

  7

  8

  9

300
AmdtFileType=84
301
=
302
=
303
=
304
=
305
=
306
=
307
=
308
=
309
=
 40
1.113420532407407
 41
2454422.344345151
 42
2456893.652771991
  1

 90
        1
  0
DICTIONARY
  5
99D5
102
{ACAD_REACTORS
330
3F9
102
}
330
3F9
100
AcDbDictionary
281
     1
  0
DICTIONARY
  5
CA0
102
{ACAD_REACTORS
330
3F9
102
}
330
3F9
100
AcDbDictionary
281
     1
  0
DICTIONARY
  5
99D4
102
{ACAD_REACTORS
330
3F9
102
}
330
3F9
100
AcDbDictionary
281
     1
1001
ACAD
1000
<All
  0
DICTIONARY
  5
18A7
102
{ACAD_REACTORS
330
3F9
102
}
330
3F9
100
AcDbDictionary
280
     1
281
     1
  0
DICTIONARY
  5
853B
102
{ACAD_REACTORS
330
8F
102
}
330
8F
100
AcDbDictionary
281
     1
  3
*A1
350
853C
  0
SORTENTSTABLE
  5
18D9
102
{ACAD_REACTORS
330
8F
102
}
330
8F
100
AcDbSortentsTable
330
1F
331
15E6
  5
15E6
331
15AB
  5
15AB
331
15F1
  5
15F1
331
15A1
  5
15A1
331
15BF
  5
15BF
331
15DD
  5
15DD
331
15FB
  5
15FB
331
15E7
  5
15E7
331
15E8
  5
15E8
331
15AC
  5
15AC
331
15F2
  5
15F2
331
15A2
  5
15A2
331
15C0
  5
15C0
331
15DE
  5
15DE
331
15AD
  5
15AD
331
15E9
  5
15E9
331
1599
  5
1599
331
15F3
  5
15F3
331
15C1
  5
15C1
331
15DF
  5
15DF
331
15A3
  5
15A3
331
15AE
  5
15AE
331
15CC
  5
15CC
331
15EA
  5
15EA
331
159A
  5
159A
331
15B8
  5
15B8
331
15D6
  5
15D6
331
15F4
  5
15F4
331
15E0
  5
15E0
331
15A4
  5
15A4
331
15C2
  5
15C2
331
15AF
  5
15AF
331
15EB
  5
15EB
331
15B9
  5
15B9
331
15D7
  5
15D7
331
15F5
  5
15F5
331
159B
  5
159B
331
15E1
  5
15E1
331
15A5
  5
15A5
331
15C3
  5
15C3
331
15B0
  5
15B0
331
15EC
  5
15EC
331
15D8
  5
15D8
331
15F6
  5
15F6
331
159C
  5
159C
331
15A6
  5
15A6
331
15C4
  5
15C4
331
15E2
  5
15E2
331
15ED
  5
15ED
331
15D9
  5
15D9
331
15F7
  5
15F7
331
159D
  5
159D
331
15A7
  5
15A7
331
15E3
  5
15E3
331
15A8
  5
15A8
331
15D0
  5
15D0
331
15EE
  5
15EE
331
15F8
  5
15F8
331
159E
  5
159E
331
15DA
  5
15DA
331
15E4
  5
15E4
331
15A9
  5
15A9
331
15D1
  5
15D1
331
159F
  5
159F
331
15BD
  5
15BD
331
15DB
  5
15DB
331
15F9
  5
15F9
331
15E5
  5
15E5
331
7BA1
  5
7BA1
331
15C8
  5
15C8
331
15AA
  5
15AA
331
15F0
  5
15F0
331
15B4
  5
15B4
331
15D2
  5
15D2
331
15A0
  5
15A0
331
15BE
  5
15BE
331
15DC
  5
15DC
331
15FA
  5
15FA
  0
DIMASSOC
  5
A58C
102
{ACAD_REACTORS
330
A58B
102
}
330
A58B
100
AcDbDimAssoc
330
A57E
 90
        1
 70
     0
 71
     0
  1
AcDbOsnapPointRef
 72
     1
331
99DA
 73
     0
 91
        0
 40
0.0
 10
0.0
 20
0.0
 30
2.000000000000000E+50
 75
     0
  0
LAYOUT
  5
22
102
{ACAD_XDICTIONARY
360
C0EF
102
}
102
{ACAD_REACTORS
330
1A
102
}
330
1A
100
AcDbPlotSettings
  1

  2
\\RD\EPSON Stylus C63 Series單色
  4
A4
  6

 40
3.757083177566528
 41
3.757076978683471
 42
3.757080078125
 43
3.757080078125
 44
209.9733276367187
 45
296.9683227539062
 46
0.0
 47
0.0
 48
0.0
 49
0.0
140
0.0
141
0.0
142
1.0
143
0.3405120737814363
 70
 11952
 72
     1
 73
     0
 74
     0
  7
acad.ctb
 75
     0
147
2.936753428137963
148
-2047.07469463503
149
-1261.649717473083
100
AcDbLayout
  1
Model
 70
     1
 71
     0
 10
0.0
 20
0.0
 11
12.0
 21
9.0
 12
0.0
 22
0.0
 32
0.0
 14
0.0
 24
0.0
 34
0.0
 15
0.0
 25
0.0
 35
0.0
146
0.0
 13
0.0
 23
0.0
 33
0.0
 16
1.0
 26
0.0
 36
0.0
 17
0.0
 27
1.0
 37
0.0
 76
     0
330
1F
1001
ACAD_PSEXT
1000
\\RD\EPSON Stylus C63 Series單色
1000
EPSON Stylus C63 Series
1000
\\RD
1000

1070
     0
  0
LAYOUT
  5
1E
102
{ACAD_XDICTIONARY
360
C0ED
102
}
102
{ACAD_REACTORS
330
1A
102
}
330
1A
100
AcDbPlotSettings
  1

  2

  4

  6

 40
0.0
 41
0.0
 42
0.0
 43
0.0
 44
0.0
 45
0.0
 46
0.0
 47
0.0
 48
0.0
 49
0.0
140
0.0
141
0.0
142
1.0
143
1.0
 70
   688
 72
     0
 73
     0
 74
     5
  7
acad.ctb
 75
    16
147
1.0
148
0.0
149
0.0
100
AcDbLayout
  1
配置1
 70
     1
 71
     1
 10
0.0
 20
0.0
 11
420.0
 21
297.0
 12
0.0
 22
0.0
 32
0.0
 14
1.000000000000000E+20
 24
1.000000000000000E+20
 34
1.000000000000000E+20
 15
-1.000000000000000E+20
 25
-1.000000000000000E+20
 35
-1.000000000000000E+20
146
0.0
 13
0.0
 23
0.0
 33
0.0
 16
1.0
 26
0.0
 36
0.0
 17
0.0
 27
1.0
 37
0.0
 76
     0
330
1B
  0
LAYOUT
  5
26
102
{ACAD_XDICTIONARY
360
C0F1
102
}
102
{ACAD_REACTORS
330
1A
102
}
330
1A
100
AcDbPlotSettings
  1

  2

  4

  6

 40
0.0
 41
0.0
 42
0.0
 43
0.0
 44
0.0
 45
0.0
 46
0.0
 47
0.0
 48
0.0
 49
0.0
140
0.0
141
0.0
142
1.0
143
1.0
 70
   688
 72
     0
 73
     0
 74
     5
  7
acad.ctb
 75
    16
147
1.0
148
0.0
149
0.0
100
AcDbLayout
  1
配置2
 70
     1
 71
     2
 10
0.0
 20
0.0
 11
12.0
 21
9.0
 12
0.0
 22
0.0
 32
0.0
 14
0.0
 24
0.0
 34
0.0
 15
0.0
 25
0.0
 35
0.0
146
0.0
 13
0.0
 23
0.0
 33
0.0
 16
1.0
 26
0.0
 36
0.0
 17
0.0
 27
1.0
 37
0.0
 76
     0
330
23
  0
MLINESTYLE
  5
18
102
{ACAD_REACTORS
330
17
102
}
330
17
100
AcDbMlineStyle
  2
STANDARD
 70
     0
  3

 62
   256
 51
90.0
 52
90.0
 71
     2
 49
0.5
 62
   256
  6
BYLAYER
 49
-0.5
 62
   256
  6
BYLAYER
  0
ACDBPLACEHOLDER
  5
F
102
{ACAD_REACTORS
330
E
102
}
330
E
  0
TABLESTYLE
  5
11B
102
{ACAD_REACTORS
330
11A
102
}
330
11A
100
AcDbTableStyle
  3
Standard
 70
     0
 71
     0
 40
1.5
 41
1.5
280
     0
281
     0
  7
STANDARD
140
4.5
170
     2
 62
     0
 63
     7
283
     0
274
    -2
284
     1
 64
     0
275
    -2
285
     1
 65
     0
276
    -2
286
     1
 66
     0
277
    -2
287
     1
 67
     0
278
    -2
288
     1
 68
     0
279
    -2
289
     1
 69
     0
  7
STANDARD
140
6.0
170
     5
 62
     0
 63
     7
283
     0
274
    -2
284
     1
 64
     0
275
    -2
285
     1
 65
     0
276
    -2
286
     1
 66
     0
277
    -2
287
     1
 67
     0
278
    -2
288
     1
 68
     0
279
    -2
289
     1
 69
     0
  7
STANDARD
140
4.5
170
     5
 62
     0
 63
     7
283
     0
274
    -2
284
     1
 64
     0
275
    -2
285
     1
 65
     0
276
    -2
286
     1
 66
     0
277
    -2
287
     1
 67
     0
278
    -2
288
     1
 68
     0
279
    -2
289
     1
 69
     0
  0
DICTIONARYVAR
  5
138
102
{ACAD_REACTORS
330
94
102
}
330
94
100
DictionaryVariables
280
     0
  1
STANDARD
  0
DICTIONARYVAR
  5
96
102
{ACAD_REACTORS
330
94
102
}
330
94
100
DictionaryVariables
280
     0
  1
2
  0
DICTIONARYVAR
  5
95
102
{ACAD_REACTORS
330
94
102
}
330
94
100
DictionaryVariables
280
     0
  1
1
  0
DICTIONARYVAR
  5
1BA0
102
{ACAD_REACTORS
330
94
102
}
330
94
100
DictionaryVariables
280
     0
  1

  0
DICTIONARY
  5
1B5
102
{ACAD_REACTORS
330
5B
102
}
330
5B
100
AcDbDictionary
281
     1
  0
DICTIONARY
  5
61
102
{ACAD_REACTORS
330
5B
102
}
330
5B
100
AcDbDictionary
281
     1
  0
XRECORD
  5
123
102
{ACAD_REACTORS
330
5B
102
}
330
5B
100
AcDbXrecord
280
     1
 90
-1023410169
  0
DICTIONARY
  5
7C17
102
{ACAD_REACTORS
330
41
102
}
330
41
100
AcDbDictionary
281
     1
  3
DWGSETTINGS
350
7C18
  3
Shaft
350
8D15
  3
TRANSSETTINGS
350
7C1B
  0
LAYER_INDEX
  5
853C
102
{ACAD_REACTORS
330
853B
102
}
330
853B
100
AcDbIndex
 40
2456893.652771991
100
AcDbLayerIndex
  8
0
360
A8E5
 90
      452
  8
Defpoints
360
A8E6
 90
        0
  8
AM_5
360
A8E7
 90
        0
  8
AM_4
360
A8E8
 90
        0
  8
AM_VIS
360
A8E9
 90
        1
  8
AM_HID
360
A8EA
 90
        0
  8
AM_7
360
A8EB
 90
        2
  8
LOGO
360
A8EC
 90
       90
  8
AM_REFDIM
360
A8ED
 90
       14
  8
CEN
360
A8EE
 90
        0
  8
HATCH
360
A8EF
 90
        0
  8
SL
360
A8F0
 90
        0
  8
AM_10
360
A8F1
 90
        0
  0
DICTIONARY
  5
C0EF
330
22
100
AcDbDictionary
280
     1
281
     1
  3
ACAD_XREC_ROUNDTRIP
360
C0F0
  0
DICTIONARY
  5
C0ED
330
1E
100
AcDbDictionary
280
     1
281
     1
  3
ACAD_XREC_ROUNDTRIP
360
C0EE
  0
DICTIONARY
  5
C0F1
330
26
100
AcDbDictionary
280
     1
281
     1
  3
ACAD_XREC_ROUNDTRIP
360
C0F2
  0
IDBUFFER
  5
A8E5
330
0
100
AcDbIdBuffer
330
16B4
330
16B5
330
16B6
330
B8AC
330
B8AD
330
B8AE
330
B8AF
330
B8B0
330
B8B1
330
B8B2
330
B8B3
330
B8B4
330
B8B5
330
B8B6
330
B8B7
330
B8B8
330
B8B9
330
B8BA
330
B8BB
330
B8BC
330
B8BD
330
B8BE
330
B8BF
330
B8C0
330
B8C1
330
B8C2
330
B8C3
330
B8C4
330
B8C5
330
B8C6
330
B8C7
330
B8C8
330
B8C9
330
B8CA
330
B8CB
330
B8CC
330
B8CD
330
B8CE
330
B8CF
330
B8D0
330
B8D1
330
B8D2
330
B8DA
330
B8DB
330
B8DC
330
B8E4
330
B8E5
330
B8EA
330
B8EB
330
B8EC
330
B8ED
330
B8EE
330
B8EF
330
B8F0
330
B8F1
330
B8F2
330
B8FA
330
B8FB
330
B8FE
330
B8FF
330
B901
330
B903
330
B904
330
B905
330
B906
330
B908
330
B90B
330
B90E
330
B911
330
B915
330
B916
330
B917
330
B918
330
B91A
330
B91C
330
B91D
330
B91E
330
B91F
330
B920
330
B921
330
B922
330
B923
330
B924
330
B925
330
B926
330
B927
330
B928
330
B929
330
B92A
330
B92B
330
B92C
330
B92D
330
B92E
330
B92F
330
B930
330
B931
330
B932
330
B933
330
B934
330
B935
330
B936
330
B937
330
B938
330
B939
330
B93A
330
B93B
330
B93C
330
B93D
330
B93E
330
B93F
330
B940
330
B941
330
B942
330
B943
330
B944
330
B945
330
B946
330
B947
330
B948
330
B949
330
B94A
330
B94B
330
B94C
330
B94D
330
B94E
330
B94F
330
B950
330
B951
330
B952
330
B953
330
B954
330
B955
330
B956
330
B957
330
B958
330
B959
330
B95A
330
B95B
330
B95C
330
B95D
330
B95E
330
B95F
330
B960
330
B961
330
B962
330
B963
330
B964
330
B965
330
B966
330
B967
330
B968
330
B969
330
B96A
330
B96B
330
B96C
330
B96D
330
B96E
330
B96F
330
B970
330
B971
330
B972
330
B973
330
B974
330
B975
330
B976
330
B977
330
B978
330
B979
330
B97A
330
B97B
330
B97C
330
B97D
330
B97E
330
B97F
330
B980
330
B981
330
B982
330
B983
330
B984
330
B985
330
B986
330
B987
330
B988
330
B989
330
B98A
330
B98B
330
B98C
330
B98D
330
B98E
330
B98F
330
B990
330
B991
330
B992
330
B993
330
B994
330
B995
330
B996
330
B997
330
B998
330
B999
330
B99A
330
B99B
330
B99C
330
B99D
330
B99E
330
B99F
330
B9A0
330
B9A1
330
B9A2
330
B9A3
330
B9A4
330
B9A5
330
B9A6
330
B9A7
330
B9A8
330
B9A9
330
B9AA
330
B9AB
330
B9AC
330
B9AD
330
B9AE
330
B9AF
330
B9B0
330
B9B1
330
B9B2
330
B9B3
330
B9B4
330
B9B5
330
B9B6
330
B9B7
330
B9B8
330
B9B9
330
B9BA
330
B9BB
330
B9BC
330
B9BD
330
B9BE
330
B9BF
330
B9C0
330
B9C1
330
B9C2
330
B9C3
330
B9C4
330
B9C5
330
B9C6
330
B9C7
330
B9C8
330
B9C9
330
B9CA
330
B9CB
330
B9CC
330
B9CD
330
B9CE
330
B9CF
330
B9D0
330
B9D1
330
B9D2
330
B9D3
330
B9D4
330
B9D5
330
B9D6
330
B9D7
330
B9D8
330
B9D9
330
B9DA
330
B9DB
330
B9DC
330
B9DD
330
B9DE
330
B9DF
330
B9E0
330
B9E1
330
B9E2
330
B9E3
330
B9E4
330
B9E5
330
B9E6
330
B9E7
330
B9E8
330
B9E9
330
B9EA
330
B9EB
330
B9EC
330
B9ED
330
B9F0
330
B9F1
330
B9F2
330
B9F3
330
B9F8
330
B9F9
330
B9FA
330
B9FB
330
B9FC
330
B9FD
330
B9FE
330
B9FF
330
BA00
330
BA01
330
BA02
330
BA03
330
BA04
330
BA05
330
BA06
330
BA07
330
BA08
330
BA09
330
BA0A
330
BA0B
330
BA0C
330
BA0D
330
BA0E
330
BA0F
330
BA10
330
BA11
330
BA13
330
BA14
330
BA15
330
BA16
330
BA17
330
BA18
330
BA19
330
BA1A
330
BA1B
330
BA1C
330
BA1D
330
BA1E
330
BA1F
330
BA20
330
BA21
330
BA22
330
BA23
330
BA24
330
BA25
330
BA26
330
BA27
330
BA28
330
BA29
330
BA2A
330
BA2B
330
BA2E
330
BA2F
330
BA30
330
BA38
330
BA3B
330
BA3D
330
BA3E
330
BA41
330
BA48
330
BA49
330
BA4A
330
BA4B
330
BA53
330
BA54
330
BA55
330
BA56
330
BA58
330
BA59
330
BA5A
330
BA5C
330
BA5D
330
BA60
330
BA61
330
BA62
330
BA63
330
BA64
330
BA65
330
BA66
330
BA67
330
BA68
330
BA69
330
BA6A
330
BA6B
330
BA6C
330
BA6D
330
BA6E
330
BA6F
330
BA70
330
BA71
330
BA72
330
BA73
330
BA74
330
BA75
330
BA76
330
BA77
330
BA78
330
BA79
330
BA7A
330
BA7E
330
BA85
330
BA86
330
BA88
330
BA8C
330
BA8D
330
BA8E
330
BA8F
330
BA90
330
BA91
330
BA92
330
BA93
330
BA94
330
BA95
330
BA96
330
BA97
330
BA98
330
BA99
330
BA9A
330
BA9B
330
BA9C
330
BA9D
330
BA9E
330
BA9F
330
BAA0
330
BAA1
330
BAA2
330
BAA3
330
BAA4
330
BAA5
330
BAA6
330
BFF5
330
BFF6
330
BFF7
330
BFF8
330
BFF9
330
BFFA
330
BFFB
330
C000
330
C001
330
C002
330
C003
330
C004
330
C005
330
C006
330
C00C
330
C00D
330
C00E
330
C00F
330
C010
330
C011
330
C012
330
C06D
330
C06E
330
C06F
330
C085
330
C086
330
C087
330
C088
330
C089
330
C08C
330
C093
330
C09E
330
C09F
330
C0A2
  0
IDBUFFER
  5
A8E6
330
0
100
AcDbIdBuffer
  0
IDBUFFER
  5
A8E7
330
0
100
AcDbIdBuffer
  0
IDBUFFER
  5
A8E8
330
0
100
AcDbIdBuffer
  0
IDBUFFER
  5
A8E9
330
0
100
AcDbIdBuffer
330
7BA1
  0
IDBUFFER
  5
A8EA
330
0
100
AcDbIdBuffer
  0
IDBUFFER
  5
A8EB
330
0
100
AcDbIdBuffer
330
99DA
330
99DB
  0
IDBUFFER
  5
A8EC
330
0
100
AcDbIdBuffer
330
1599
330
159A
330
159B
330
159C
330
159D
330
159E
330
159F
330
15A0
330
15A1
330
15A2
330
15A3
330
15A4
330
15A5
330
15A6
330
15A7
330
15A8
330
15A9
330
15AA
330
15AB
330
15AC
330
15AD
330
15AE
330
15AF
330
15B0
330
15B4
330
15B8
330
15B9
330
15BD
330
15BE
330
15BF
330
15C0
330
15C1
330
15C2
330
15C3
330
15C4
330
15C8
330
15CC
330
15D0
330
15D1
330
15D2
330
15D6
330
15D7
330
15D8
330
15D9
330
15DA
330
15DB
330
15DC
330
15DD
330
15DE
330
15DF
330
15E0
330
15E1
330
15E2
330
15E3
330
15E4
330
15E5
330
15E6
330
15E7
330
15E8
330
15E9
330
15EA
330
15EB
330
15EC
330
15ED
330
15EE
330
15F0
330
15F1
330
15F2
330
15F3
330
15F4
330
15F5
330
15F6
330
15F7
330
15F8
330
15F9
330
15FA
330
15FB
330
9C94
330
9C95
330
9C96
330
9C97
330
9C98
330
9C99
330
9C9A
330
9C9B
330
9C9C
330
9C9E
330
9C9F
330
9CA0
330
9CA2
  0
IDBUFFER
  5
A8ED
330
0
100
AcDbIdBuffer
330
A516
330
A540
330
A57E
330
A622
330
A67B
330
A6A1
330
A724
330
A77B
330
A7A5
330
A7CB
330
A889
330
A88C
330
A890
330
A895
  0
IDBUFFER
  5
A8EE
330
0
100
AcDbIdBuffer
  0
IDBUFFER
  5
A8EF
330
0
100
AcDbIdBuffer
  0
IDBUFFER
  5
A8F0
330
0
100
AcDbIdBuffer
  0
IDBUFFER
  5
A8F1
330
0
100
AcDbIdBuffer
  0
XRECORD
  5
C0F0
102
{ACAD_REACTORS
330
C0EF
102
}
330
C0EF
100
AcDbXrecord
280
     1
102
SHADEPLOT
 70
     0
102
SHADEPLOTRESLEVEL
 70
     2
102
SHADEPLOTCUSTOMDPI
 70
   300
  0
XRECORD
  5
C0EE
102
{ACAD_REACTORS
330
C0ED
102
}
330
C0ED
100
AcDbXrecord
280
     1
102
SHADEPLOT
 70
     0
102
SHADEPLOTRESLEVEL
 70
     2
102
SHADEPLOTCUSTOMDPI
 70
   300
  0
XRECORD
  5
C0F2
102
{ACAD_REACTORS
330
C0F1
102
}
330
C0F1
100
AcDbXrecord
280
     1
102
SHADEPLOT
 70
     0
102
SHADEPLOTRESLEVEL
 70
     2
102
SHADEPLOTCUSTOMDPI
 70
   300
  0
ENDSEC
  0
EOF
