  0
SECTION
  2
HEADER
  9
$ACADVER
  1
AC1015
  9
$ACADMAINTVER
 70
    20
  9
$DWGCODEPAGE
  3
ANSI_950
  9
$INSBASE
 10
0.0
 20
0.0
 30
0.0
  9
$EXTMIN
 10
644.0207125496731
 20
44.38050916602423
 30
-0.0052825543516519
  9
$EXTMAX
 10
981.0526778355438
 20
266.4869849089149
 30
173.1172315471239
  9
$LIMMIN
 10
0.0
 20
0.0
  9
$LIMMAX
 10
420.0
 20
297.0
  9
$ORTHOMODE
 70
     0
  9
$REGENMODE
 70
     1
  9
$FILLMODE
 70
     1
  9
$QTEXTMODE
 70
     0
  9
$MIRRTEXT
 70
     1
  9
$LTSCALE
 40
1.0
  9
$ATTMODE
 70
     1
  9
$TEXTSIZE
 40
3.0
  9
$TRACEWID
 40
1.0
  9
$TEXTSTYLE
  7
STANDARD
  9
$CLAYER
  8
AM_REFDIM
  9
$CELTYPE
  6
ByLayer
  9
$CECOLOR
 62
   256
  9
$CELTSCALE
 40
1.0
  9
$DISPSILH
 70
     0
  9
$DIMSCALE
 40
1.0
  9
$DIMASZ
 40
3.5
  9
$DIMEXO
 40
1.0
  9
$DIMDLI
 40
12.0
  9
$DIMRND
 40
0.0
  9
$DIMDLE
 40
0.0
  9
$DIMEXE
 40
1.0
  9
$DIMTP
 40
0.1
  9
$DIMTM
 40
0.1
  9
$DIMTXT
 40
3.5
  9
$DIMCEN
 40
0.0
  9
$DIMTSZ
 40
0.0
  9
$DIMTOL
 70
     0
  9
$DIMLIM
 70
     0
  9
$DIMTIH
 70
     0
  9
$DIMTOH
 70
     0
  9
$DIMSE1
 70
     0
  9
$DIMSE2
 70
     0
  9
$DIMTAD
 70
     1
  9
$DIMZIN
 70
     8
  9
$DIMBLK
  1

  9
$DIMASO
 70
     1
  9
$DIMSHO
 70
     1
  9
$DIMPOST
  1

  9
$DIMAPOST
  1
"
  9
$DIMALT
 70
     0
  9
$DIMALTD
 70
     2
  9
$DIMALTF
 40
0.0393701
  9
$DIMLFAC
 40
1.0
  9
$DIMTOFL
 70
     1
  9
$DIMTVP
 40
0.0
  9
$DIMTIX
 70
     0
  9
$DIMSOXD
 70
     0
  9
$DIMSAH
 70
     0
  9
$DIMBLK1
  1

  9
$DIMBLK2
  1

  9
$DIMSTYLE
  2
AM_ISO
  9
$DIMCLRD
 70
   256
  9
$DIMCLRE
 70
   256
  9
$DIMCLRT
 70
   256
  9
$DIMTFAC
 40
0.6
  9
$DIMGAP
 40
1.0
  9
$DIMJUST
 70
     0
  9
$DIMSD1
 70
     0
  9
$DIMSD2
 70
     0
  9
$DIMTOLJ
 70
     0
  9
$DIMTZIN
 70
     8
  9
$DIMALTZ
 70
     0
  9
$DIMALTTZ
 70
     0
  9
$DIMUPT
 70
     0
  9
$DIMDEC
 70
     1
  9
$DIMTDEC
 70
     8
  9
$DIMALTU
 70
     2
  9
$DIMALTTD
 70
     2
  9
$DIMTXSTY
  7
STANDARD
  9
$DIMAUNIT
 70
     0
  9
$DIMADEC
 70
     0
  9
$DIMALTRND
 40
0.0
  9
$DIMAZIN
 70
     2
  9
$DIMDSEP
 70
    46
  9
$DIMATFIT
 70
     3
  9
$DIMFRAC
 70
     0
  9
$DIMLDRBLK
  1

  9
$DIMLUNIT
 70
     2
  9
$DIMLWD
 70
    -1
  9
$DIMLWE
 70
    -1
  9
$DIMTMOVE
 70
     0
  9
$LUNITS
 70
     2
  9
$LUPREC
 70
     2
  9
$SKETCHINC
 40
1.0
  9
$FILLETRAD
 40
2.5
  9
$AUNITS
 70
     0
  9
$AUPREC
 70
     0
  9
$MENU
  1
.
  9
$ELEVATION
 40
0.0
  9
$PELEVATION
 40
0.0
  9
$THICKNESS
 40
0.0
  9
$LIMCHECK
 70
     0
  9
$CHAMFERA
 40
0.2
  9
$CHAMFERB
 40
0.2
  9
$CHAMFERC
 40
20.0
  9
$CHAMFERD
 40
0.0
  9
$SKPOLY
 70
     0
  9
$TDCREATE
 40
2454422.344345151
  9
$TDUCREATE
 40
2454422.011011817
  9
$TDUPDATE
 40
2456893.603631539
  9
$TDUUPDATE
 40
2456893.270298206
  9
$TDINDWG
 40
1.1348665625
  9
$TDUSRTIMER
 40
1.1348665625
  9
$USRTIMER
 70
     1
  9
$ANGBASE
 50
0.0
  9
$ANGDIR
 70
     0
  9
$PDMODE
 70
     0
  9
$PDSIZE
 40
0.0
  9
$PLINEWID
 40
0.0
  9
$SPLFRAME
 70
     0
  9
$SPLINETYPE
 70
     6
  9
$SPLINESEGS
 70
     8
  9
$HANDSEED
  5
C417
  9
$SURFTAB1
 70
     6
  9
$SURFTAB2
 70
     6
  9
$SURFTYPE
 70
     6
  9
$SURFU
 70
     6
  9
$SURFV
 70
     6
  9
$UCSBASE
  2

  9
$UCSNAME
  2

  9
$UCSORG
 10
0.0
 20
0.0
 30
0.0
  9
$UCSXDIR
 10
1.0
 20
0.0
 30
0.0
  9
$UCSYDIR
 10
0.0
 20
1.0
 30
0.0
  9
$UCSORTHOREF
  2

  9
$UCSORTHOVIEW
 70
     0
  9
$UCSORGTOP
 10
0.0
 20
0.0
 30
0.0
  9
$UCSORGBOTTOM
 10
0.0
 20
0.0
 30
0.0
  9
$UCSORGLEFT
 10
0.0
 20
0.0
 30
0.0
  9
$UCSORGRIGHT
 10
0.0
 20
0.0
 30
0.0
  9
$UCSORGFRONT
 10
0.0
 20
0.0
 30
0.0
  9
$UCSORGBACK
 10
0.0
 20
0.0
 30
0.0
  9
$PUCSBASE
  2

  9
$PUCSNAME
  2

  9
$PUCSORG
 10
0.0
 20
0.0
 30
0.0
  9
$PUCSXDIR
 10
1.0
 20
0.0
 30
0.0
  9
$PUCSYDIR
 10
0.0
 20
1.0
 30
0.0
  9
$PUCSORTHOREF
  2

  9
$PUCSORTHOVIEW
 70
     0
  9
$PUCSORGTOP
 10
0.0
 20
0.0
 30
0.0
  9
$PUCSORGBOTTOM
 10
0.0
 20
0.0
 30
0.0
  9
$PUCSORGLEFT
 10
0.0
 20
0.0
 30
0.0
  9
$PUCSORGRIGHT
 10
0.0
 20
0.0
 30
0.0
  9
$PUCSORGFRONT
 10
0.0
 20
0.0
 30
0.0
  9
$PUCSORGBACK
 10
0.0
 20
0.0
 30
0.0
  9
$USERI1
 70
     0
  9
$USERI2
 70
     0
  9
$USERI3
 70
     0
  9
$USERI4
 70
     0
  9
$USERI5
 70
     0
  9
$USERR1
 40
0.0
  9
$USERR2
 40
0.0
  9
$USERR3
 40
0.0
  9
$USERR4
 40
0.0
  9
$USERR5
 40
0.0
  9
$WORLDVIEW
 70
     1
  9
$SHADEDGE
 70
     3
  9
$SHADEDIF
 70
    70
  9
$TILEMODE
 70
     1
  9
$MAXACTVP
 70
    64
  9
$PINSBASE
 10
0.0
 20
0.0
 30
0.0
  9
$PLIMCHECK
 70
     0
  9
$PEXTMIN
 10
1.000000000000000E+20
 20
1.000000000000000E+20
 30
1.000000000000000E+20
  9
$PEXTMAX
 10
-1.000000000000000E+20
 20
-1.000000000000000E+20
 30
-1.000000000000000E+20
  9
$PLIMMIN
 10
0.0
 20
0.0
  9
$PLIMMAX
 10
420.0
 20
297.0
  9
$UNITMODE
 70
     0
  9
$VISRETAIN
 70
     1
  9
$PLINEGEN
 70
     0
  9
$PSLTSCALE
 70
     1
  9
$TREEDEPTH
 70
  3020
  9
$CMLSTYLE
  2
Standard
  9
$CMLJUST
 70
     0
  9
$CMLSCALE
 40
20.0
  9
$PROXYGRAPHICS
 70
     1
  9
$MEASUREMENT
 70
     1
  9
$CELWEIGHT
370
    -1
  9
$ENDCAPS
280
     0
  9
$JOINSTYLE
280
     0
  9
$LWDISPLAY
290
     0
  9
$INSUNITS
 70
     4
  9
$HYPERLINKBASE
  1

  9
$STYLESHEET
  1
彩色出圖.ctb
  9
$XEDIT
290
     1
  9
$CEPSNTYPE
380
     0
  9
$PSTYLEMODE
290
     1
  9
$FINGERPRINTGUID
  2
{B705A112-77C7-4534-AADA-B7988B84DA3D}
  9
$VERSIONGUID
  2
{406B9528-F27C-4AC2-B98B-0165295D8D3D}
  9
$EXTNAMES
290
     1
  9
$PSVPSCALE
 40
0.0
  9
$OLESTARTUP
290
     0
  0
ENDSEC
  0
SECTION
  2
CLASSES
  0
CLASS
  1
ACDBDICTIONARYWDFLT
  2
AcDbDictionaryWithDefault
  3
ObjectDBX Classes
 90
        0
280
     0
281
     0
  0
CLASS
  1
ACDBPLACEHOLDER
  2
AcDbPlaceHolder
  3
ObjectDBX Classes
 90
        0
280
     0
281
     0
  0
CLASS
  1
LAYOUT
  2
AcDbLayout
  3
ObjectDBX Classes
 90
        0
280
     0
281
     0
  0
CLASS
  1
ACME_DOCUMENT
  2
AcMeDbDoc
  3
AcMeServices
 90
        0
280
     0
281
     0
  0
CLASS
  1
AMGSETTINGSOBJ
  2
AmgSettingsObj
  3
"AcadM|Product Description: AutoCAD Mechanical 2000|Company: Autodesk"
 90
        0
280
     0
281
     0
  0
CLASS
  1
ACMESCOPE
  2
AcMeScope
  3
AcMeServices
 90
        0
280
     0
281
     0
  0
CLASS
  1
ACMECOMMANDHISTORY
  2
AcMeCommandHistory
  3
AcMeServices
 90
        0
280
     0
281
     0
  0
CLASS
  1
ACIMSYSVARMAN
  2
AcImSysVarManager
  3
AcMeServices
 90
        0
280
     0
281
     0
  0
CLASS
  1
ACIMREALSYSVAR
  2
AcImRealSysVar
  3
AcMeServices
 90
        0
280
     0
281
     0
  0
CLASS
  1
ACIMINTSYSVAR
  2
AcImIntSysVar
  3
AcMeServices
 90
        0
280
     0
281
     0
  0
CLASS
  1
ACMEDRAWINGMAN
  2
AcMeDrawingMan
  3
AcMeServices
 90
        0
280
     0
281
     0
  0
CLASS
  1
ACMEVIEW
  2
AcMeView
  3
AcMeServices
 90
        0
280
     0
281
     0
  0
CLASS
  1
ACDBENTITYCACHE
  2
AcMeEntityCache
  3
AcMeServices
 90
        0
280
     0
281
     0
  0
CLASS
  1
GSMANAGER
  2
AcMeGSManager
  3
AcMeServices
 90
        0
280
     0
281
     0
  0
CLASS
  1
AMDTINTERNALREACTOR
  2
AmdtInternalReactor
  3
AcMeServices
 90
        0
280
     0
281
     0
  0
CLASS
  1
ACMESTATEMGR
  2
AcMeStateMgr
  3
AcMeServices
 90
        0
280
     0
281
     0
  0
CLASS
  1
ACGREFMASTER
  2
AcGrefMaster
  3
AcAttribServices
 90
        0
280
     0
281
     0
  0
CLASS
  1
ACME_DATABASE
  2
AcMeDbDatabase
  3
AcMeServices
 90
        0
280
     0
281
     0
  0
CLASS
  1
ACRFINSADJUSTERMGR
  2
AcRfInsAdjusterMgr
  3
AcMeServices
 90
        0
280
     0
281
     0
  0
CLASS
  1
ACGREFACADMASTER
  2
AcGrefacadMaster
  3
AcGrefServices
 90
        0
280
     0
281
     0
  0
CLASS
  1
AMIMASTER
  2
AmiMaster
  3
AmiServices
 90
        0
280
     0
281
     0
  0
CLASS
  1
ACMDATADICTIONARY
  2
AcmDataDictionary
  3
"AcmSymBB|Product Description: AutoCAD Mechanical 2004 DX|Company: Autodesk"
 90
        0
280
     0
281
     0
  0
CLASS
  1
ACMDATAENTRYBLOCK
  2
AcmDataEntryBlock
  3
"AcmSymBB|Product Description: AutoCAD Mechanical 2004 DX|Company: Autodesk"
 90
        0
280
     0
281
     0
  0
CLASS
  1
ACIMSTRSYSVAR
  2
AcImStrSysVar
  3
AcMeServices
 90
        0
280
     0
281
     0
  0
CLASS
  1
ACMSTANDARDISO
  2
AcmStandardISO
  3
"Amdt_StdImp|Product Description: AutoCAD Mechanical 2004 DX|Company: Autodesk"
 90
        0
280
     0
281
     0
  0
CLASS
  1
AMGOBJPROPCFG
  2
AmgObjPropCfg
  3
"AmgLay|Product Description: AutoCAD Mechanical 2000|Company: Autodesk"
 90
        1
280
     0
281
     0
  0
CLASS
  1
AMDTEDGESTANDARDISO
  2
AmdtEdgeStdISO
  3
"Amdt_StdImp|Product Description: AutoCAD Mechanical 2004 DX|Company: Autodesk"
 90
    32768
280
     0
281
     0
  0
CLASS
  1
ACMSURFSTANDARDISO
  2
AcmSurfTextStdISO
  3
"Amdt_StdImp|Product Description: AutoCAD Mechanical 2004 DX|Company: Autodesk"
 90
        0
280
     0
281
     0
  0
CLASS
  1
ACMFCFSTANDARDISO
  2
AcmFCFStdISO
  3
"Amdt_StdImp|Product Description: AutoCAD Mechanical 2004 DX|Company: Autodesk"
 90
        0
280
     0
281
     0
  0
CLASS
  1
ACMWELDSTANDARDISO
  2
AcmWeldingStdISO
  3
"Amdt_StdImp|Product Description: AutoCAD Mechanical 2004 DX|Company: Autodesk"
 90
        0
280
     0
281
     0
  0
CLASS
  1
ACMIDSTANDARDISO
  2
AcmIdStdISO
  3
"Amdt_StdImp|Product Description: AutoCAD Mechanical 2004 DX|Company: Autodesk"
 90
        0
280
     0
281
     0
  0
CLASS
  1
ACMDATUMSTANDARDISO
  2
AcmDatumStdISO
  3
"Amdt_StdImp|Product Description: AutoCAD Mechanical 2004 DX|Company: Autodesk"
 90
        0
280
     0
281
     0
  0
CLASS
  1
ACMBOMSTANDARDISO
  2
AcmBOMStdISO
  3
"Amdt_StdImp|Product Description: AutoCAD Mechanical 2004 DX|Company: Autodesk"
 90
        0
280
     0
281
     0
  0
CLASS
  1
ACMDETAILSTANDARDISO
  2
AmdtDetailSymStdISO
  3
"Amdt_StdImp|Product Description: AutoCAD Mechanical 2004 DX|Company: Autodesk"
 90
        0
280
     0
281
     0
  0
CLASS
  1
ACMSECTIONSTANDARDISO
  2
AmdtSectionSymStdISO
  3
"Amdt_StdImp|Product Description: AutoCAD Mechanical 2004 DX|Company: Autodesk"
 90
        0
280
     0
281
     0
  0
CLASS
  1
ACMCENTERLINESTANDARDISO
  2
AmdtCenterLineStdISO
  3
"Amdt_StdImp|Product Description: AutoCAD Mechanical 2004 DX|Company: Autodesk"
 90
        0
280
     0
281
     0
  0
CLASS
  1
ACMNOTESTANDARDISO
  2
AmdtNoteStdISO
  3
"Amdt_StdImp|Product Description: AutoCAD Mechanical 2004 DX|Company: Autodesk"
 90
        0
280
     0
281
     0
  0
CLASS
  1
ACAMGLAYSTD
  2
AcAmgLayStd
  3
"AcAmgLayStd|Product Description: AutoCAD Mechanical 2000|Company: Autodesk"
 90
        0
280
     0
281
     0
  0
CLASS
  1
ACAMGDIMSTD
  2
AcAmgDimStd
  3
"AcAmgDimStd|Product Description: AutoCAD Mechanical 2000|Company: Autodesk"
 90
        0
280
     0
281
     0
  0
CLASS
  1
ACAMGHOLECHARTSTDISO
  2
AcAmgHoleChartStdISO
  3
ACMSYMBB_MODULE_NAME
 90
        0
280
     0
281
     0
  0
CLASS
  1
ACAMGTITLESTD
  2
AcAmgTitleStd
  3
"TITLEAPP"
 90
        0
280
     0
281
     0
  0
CLASS
  1
LAYER_INDEX
  2
AcDbLayerIndex
  3
ObjectDBX Classes
 90
        0
280
     0
281
     0
  0
CLASS
  1
IDBUFFER
  2
AcDbIdBuffer
  3
ObjectDBX Classes
 90
        0
280
     0
281
     0
  0
CLASS
  1
DICTIONARYVAR
  2
AcDbDictionaryVar
  3
ObjectDBX Classes
 90
        0
280
     0
281
     0
  0
CLASS
  1
AM_DRAWING_MGR
  2
AcDmDwgMgr
  3
AcMechDwgViewMgmt
 90
        0
280
     0
281
     0
  0
CLASS
  1
AM_DWG_DOCUMENT
  2
AcDmDwgDocument
  3
AcMechDwgViewMgmt
 90
        0
280
     0
281
     0
  0
CLASS
  1
AM_DWG_SHEET
  2
AcDmSheet
  3
AcMechDwgViewMgmt
 90
        0
280
     0
281
     0
  0
CLASS
  1
AM_VIEWDIMPARMAP
  2
AcDmViewDimParMap
  3
AcMechDwgViewMgmt
 90
        0
280
     0
281
     0
  0
CLASS
  1
AM_DWGMGR_NAME
  2
AcDmDwgMgrName
  3
AcMechDwgViewMgmt
 90
        0
280
     0
281
     0
  0
CLASS
  1
AMDTMENUSTATEMGR
  2
AmdtMenuStateMgr
  3
McadcomServices
 90
        0
280
     0
281
     0
  0
CLASS
  1
AMDTMCOMMENUSTATE
  2
AmdtMcomMenuState
  3
McadcomServices
 90
        0
280
     0
281
     0
  0
CLASS
  1
MAPIAMMOUDLE
  2
MApiAmModule
  3
MApiAmServices
 90
        0
280
     0
281
     0
  0
CLASS
  1
AMDTADMENUSTATE
  2
AmdtAdMenuState
  3
DesignerServices
 90
        0
280
     0
281
     0
  0
CLASS
  1
ADAPPL
  2
AcAdAppl
  3
DesignerServices
 90
        0
280
     0
281
     0
  0
CLASS
  1
DEPMGR
  2
AcAdDepMgr
  3
DesignerServices
 90
        0
280
     0
281
     0
  0
CLASS
  1
PARAMMGR
  2
AcAdParamMgr
  3
DesignerServices
 90
        0
280
     0
281
     0
  0
CLASS
  1
PARAMSCOPE
  2
AcAdParamScope
  3
DesignerServices
 90
        0
280
     0
281
     0
  0
CLASS
  1
NAMEDAPPL
  2
AcAdNamedAppl
  3
DesignerServices
 90
        0
280
     0
281
     0
  0
CLASS
  1
AMDTDMMENUSTATE
  2
AmdtDmMenuState
  3
AcMechDwgViewMgmt
 90
        0
280
     0
281
     0
  0
CLASS
  1
AMDTAMMENUSTATE
  2
AmdtAmMenuState
  3
DesignerAssemblies
 90
        0
280
     0
281
     0
  0
CLASS
  1
ACAMPROJECT
  2
AcAmProject
  3
DesignerAssemblies
 90
        0
280
     0
281
     0
  0
CLASS
  1
ACAMGRCOMPDEF
  2
AcAmGrCompDef
  3
DesignerAssemblies
 90
        0
280
     0
281
     0
  0
CLASS
  1
ACCMCONTEXT
  2
AcCmContext
  3
DesignerAssemblies
 90
        0
280
     0
281
     0
  0
CLASS
  1
ACAMCOMPDEF
  2
AcAmCompDef
  3
DesignerAssemblies
 90
        0
280
     0
281
     0
  0
CLASS
  1
ACAMCOMPDEFMGR
  2
AcAmCompDefMgr
  3
DesignerAssemblies
 90
        0
280
     0
281
     0
  0
CLASS
  1
AMCONTEXTMGR
  2
AcAmContextMgr
  3
DesignerAssemblies
 90
        0
280
     0
281
     0
  0
CLASS
  1
ACAMCONTEXTMODELER
  2
AcAmContextModeler
  3
DesignerAssemblies
 90
        0
280
     0
281
     0
  0
CLASS
  1
ACMTHREADLINESTANDARDISO
  2
AmdtThreadLineStdISO
  3
"Amdt_StdImp|Product Description: AutoCAD Mechanical 2004 DX|Company: Autodesk"
 90
        0
280
     0
281
     0
  0
CLASS
  1
CATALOGSTATE
  2
AcAmCatalogState
  3
DesignerAssemblies
 90
        0
280
     0
281
     0
  0
CLASS
  1
ACAMGRCOMPDEFSET
  2
AcAmGrCompDefSet
  3
DesignerAssemblies
 90
        0
280
     0
281
     0
  0
CLASS
  1
AMDTBROWSERDBTAB
  2
AmdtBrowserDbTab
  3
McadcomServices
 90
        0
280
     0
281
     0
  0
CLASS
  1
CBROWSERAPPOBJECT
  2
CBrowserAppObject
  3
McadcomServices
 90
        0
280
     0
281
     0
  0
CLASS
  1
DM_PLACEHOLDER
  2
AcDmSelsetPlaceholder
  3
AcMechDwgViewMgmt
 90
        0
280
     0
281
     0
  0
CLASS
  1
TABLESTYLE
  2
AcDbTableStyle
  3
ObjectDBX Classes
 90
     2047
280
     0
281
     0
  0
CLASS
  1
VAACXREFPANELOBJECT
  2
VaAcXREFPanelObject
  3
VAAC_ADDIN
 90
    32768
280
     0
281
     0
  0
CLASS
  1
VAACIMAGEINVENTORY
  2
VaAcImageInventory
  3
VAAC_ADDIN
 90
    32768
280
     0
281
     0
  0
CLASS
  1
AMDTNOTETEMPLATEDB
  2
AmdtNoteTemplateDB
  3
AMDT_STDIMP_MODULE_NAME
 90
        0
280
     0
281
     0
  0
CLASS
  1
ACMBOM
  2
AcmBom
  3
"AcmSymBB|Product Description: AutoCAD Mechanical 2004 DX|Company: Autodesk"
 90
    32768
280
     0
281
     0
  0
CLASS
  1
AMDTFORMULAUPDATEDISPATCHER
  2
AmdtFormulaUpdateDispatcher
  3
AcMeServices
 90
    32768
280
     0
281
     0
  0
CLASS
  1
ACMPARTLIST
  2
AcmPartList
  3
"AcmSymBB|Product Description: AutoCAD Mechanical 2004 DX|Company: Autodesk"
 90
    33791
280
     0
281
     1
  0
CLASS
  1
ACAMGFILTERDAT
  2
AcAmgFilterDat
  3
"AcadM|Product Description: AutoCAD Mechanical 2000|Company: Autodesk"
 90
    32768
280
     0
281
     0
  0
CLASS
  1
DIMASSOC
  2
AcDbDimAssoc
  3
"AcDbDimAssoc|Product Desc:     AcDim ARX App For Dimension|Company:          Autodesk, Inc.|WEB Address:      www.autodesk.com"
 90
        0
280
     0
281
     0
  0
CLASS
  1
SORTENTSTABLE
  2
AcDbSortentsTable
  3
ObjectDBX Classes
 90
        0
280
     0
281
     0
  0
CLASS
  1
STDPART2D
  2
AmgStdPart
  3
"AmgStdPart|Product Description: AutoCAD Mechanical 2000|Company: Autodesk"
 90
    33791
280
     0
281
     1
  0
CLASS
  1
ACAMSTDPCOMPDEF
  2
AcAmStdpCompDef
  3
DesignerAssemblies
 90
    32768
280
     0
281
     0
  0
CLASS
  1
ACRFATTGENMGR
  2
AcRfAttGeneralMgr
  3
AcAttribServices
 90
    32768
280
     0
281
     0
  0
CLASS
  1
ACRFOBJATTMGR
  2
AcRfObjAttGroupMgr
  3
AcAttribServices
 90
    32768
280
     0
281
     0
  0
CLASS
  1
ACRFMCADAPIATTHOLDER
  2
AcRfMCADAPIAttHolder
  3
AcAttribServices
 90
    32768
280
     0
281
     0
  0
CLASS
  1
AMDTSYSATTR
  2
AmdtSystemAttribute
  3
AcAttribServices
 90
    32768
280
     0
281
     0
  0
CLASS
  1
ACAMCOMP
  2
AcAmComp
  3
DesignerAssemblies
 90
    32768
280
     0
281
     0
  0
CLASS
  1
AC_AM_STDP_VIEW_DEF
  2
AcAmStdpViewDef
  3
DesignerAssemblies
 90
    32768
280
     0
281
     0
  0
CLASS
  1
AC_AM_MVD_DEP_MGR
  2
AcAmMVDdepMgr
  3
DesignerAssemblies
 90
    32768
280
     0
281
     0
  0
CLASS
  1
AC_AM_MASTER_VIEW_DEF
  2
AcAmMasterViewDef
  3
DesignerAssemblies
 90
    32768
280
     0
281
     0
  0
CLASS
  1
AC_AM_DIRTY_NODES
  2
AcAmDirtyNodes
  3
DesignerAssemblies
 90
    32768
280
     0
281
     0
  0
CLASS
  1
AC_AM_MAPPER_CACHE
  2
AcAmMapperCache
  3
DesignerAssemblies
 90
    32768
280
     0
281
     0
  0
CLASS
  1
ACAMMVDBACKUPOBJECT
  2
AcAmMVDBackupObject
  3
DesignerAssemblies
 90
    32768
280
     0
281
     0
  0
CLASS
  1
AC_AM_COMP_VIEW_INST
  2
AcAmCompView
  3
DesignerAssemblies
 90
    32768
280
     0
281
     0
  0
CLASS
  1
AC_AM_2D_XREF_MGR
  2
AcAmXrefMgr2d
  3
DesignerAssemblies
 90
    32768
280
     0
281
     0
  0
CLASS
  1
AMDTNOTE
  2
AmdtNote
  3
"AcmSymBB|Product Description: AutoCAD Mechanical 2004 DX|Company: Autodesk"
 90
    33791
280
     0
281
     1
  0
CLASS
  1
AMDTEDGESTANDARDISO13715
  2
AmdtEdgeStdISO13715
  3
"Amdt_StdImp|Product Description: AutoCAD Mechanical 2004 DX|Company: Autodesk"
 90
        0
280
     0
281
     0
  0
CLASS
  1
ASAPP
  2
AcAsAppObject
  3
AutoSurfServices
 90
        0
280
     0
281
     0
  0
CLASS
  1
IM_STATIC_MAN
  2
AcImStaticVarManager
  3
AcMeServices
 90
        0
280
     0
281
     0
  0
CLASS
  1
ACIMDBLSTATICVAR
  2
AcImDblStaticVar
  3
AcMeServices
 90
        0
280
     0
281
     0
  0
CLASS
  1
ACIMSTRSTATICVAR
  2
AcImStrStaticVar
  3
AcMeServices
 90
        0
280
     0
281
     0
  0
CLASS
  1
ACIMINTSTATICVAR
  2
AcImIntStaticVar
  3
AcMeServices
 90
        0
280
     0
281
     0
  0
CLASS
  1
ACASGREFMASTER
  2
AcAsGrefMaster
  3
AutoSurfResolverServices
 90
        0
280
     0
281
     0
  0
CLASS
  1
ACADGREFMODULE
  2
AcAdGrefModule
  3
AdGrefServices
 90
        0
280
     0
281
     0
  0
CLASS
  1
AMDTMAPISURFMOUDULE
  2
AmdtMApiSurfModule
  3
MApiSurfServices
 90
        0
280
     0
281
     0
  0
CLASS
  1
MAPIADMODULE
  2
MApiAdModule
  3
MApiAdServices
 90
        0
280
     0
281
     0
  0
ENDSEC
  0
SECTION
  2
TABLES
  0
TABLE
  2
VPORT
  5
8
330
0
100
AcDbSymbolTable
 70
    17
  0
VPORT
  5
C40E
330
8
100
AcDbSymbolTableRecord
100
AcDbViewportTableRecord
  2
*Active
 70
     0
 10
0.0
 20
0.0
 11
1.0
 21
1.0
 12
353.1107071798222
 22
-143.0926290793215
 13
0.0
 23
0.0
 14
2.5
 24
2.5
 15
10.0
 25
10.0
 16
0.0
 26
0.0
 36
1.0
 17
493.6788805944727
 27
316.1094665189255
 37
0.0
 40
346.5989130701228
 41
1.263157894736842
 42
50.0
 43
0.0
 44
0.0
 50
0.0
 51
0.0
 71
     0
 72
  2000
 73
     1
 74
     3
 75
     0
 76
     0
 77
     0
 78
     0
281
     0
 65
     0
110
0.0
120
0.0
130
0.0
111
1.0
121
0.0
131
0.0
112
0.0
122
1.0
132
0.0
 79
     0
146
0.0
  0
ENDTAB
  0
TABLE
  2
LTYPE
  5
5
330
0
100
AcDbSymbolTable
 70
    16
  0
LTYPE
  5
14
330
5
100
AcDbSymbolTableRecord
100
AcDbLinetypeTableRecord
  2
ByBlock
 70
     0
  3

 72
    65
 73
     0
 40
0.0
  0
LTYPE
  5
15
330
5
100
AcDbSymbolTableRecord
100
AcDbLinetypeTableRecord
  2
ByLayer
 70
     0
  3

 72
    65
 73
     0
 40
0.0
  0
LTYPE
  5
16
330
5
100
AcDbSymbolTableRecord
100
AcDbLinetypeTableRecord
  2
Continuous
 70
     0
  3
Solid line
 72
    65
 73
     0
 40
0.0
  0
LTYPE
  5
64
330
5
100
AcDbSymbolTableRecord
100
AcDbLinetypeTableRecord
  2
AM_ISO02W050
 70
     0
  3
__ __ __ __ __ __ __ __ __ __ __ __ __ __ __
 72
    65
 73
     2
 40
7.5
 49
6.0
 74
     0
 49
-1.5
 74
     0
  0
LTYPE
  5
65
330
5
100
AcDbSymbolTableRecord
100
AcDbLinetypeTableRecord
  2
AM_ISO08W050
 70
     0
  3
____ . ____ . ____ . ____ . ____ . ____ . ____
 72
    65
 73
     4
 40
18.0
 49
12.0
 74
     0
 49
-1.5
 74
     0
 49
3.0
 74
     0
 49
-1.5
 74
     0
  0
LTYPE
  5
66
330
5
100
AcDbSymbolTableRecord
100
AcDbLinetypeTableRecord
  2
AM_ISO09W050
 70
     0
  3
_____ . . _____ . . _____ . . ____ .. ____
 72
    65
 73
     6
 40
22.5
 49
12.0
 74
     0
 49
-1.5
 74
     0
 49
3.0
 74
     0
 49
-1.5
 74
     0
 49
3.0
 74
     0
 49
-1.5
 74
     0
  0
LTYPE
  5
67
330
5
100
AcDbSymbolTableRecord
100
AcDbLinetypeTableRecord
  2
Amconstr
 70
     0
  3
_______________________
 72
    65
 73
     2
 40
9999.0
 49
9999.0
 74
     0
 49
0.0
 74
     0
  0
LTYPE
  5
68
330
5
100
AcDbSymbolTableRecord
100
AcDbLinetypeTableRecord
  2
AM_ISO08W050x2
 70
     0
  3
__ . __ . __ . __ . __ . __
 72
    65
 73
     4
 40
9.0
 49
6.0
 74
     0
 49
-0.75
 74
     0
 49
1.5
 74
     0
 49
-0.75
 74
     0
  0
LTYPE
  5
69
330
5
100
AcDbSymbolTableRecord
100
AcDbLinetypeTableRecord
  2
AM_ISO02W050x2
 70
     0
  3
 _ _ _ _ _ _ _ _ _ _ _ _
 72
    65
 73
     2
 40
3.75
 49
3.0
 74
     0
 49
-0.75
 74
     0
  0
LTYPE
  5
6C
330
5
100
AcDbSymbolTableRecord
100
AcDbLinetypeTableRecord
  2
Amzigzag
 70
     0
  3
/\/-/\/-/\/-/\/-/\/-/\/
 72
    65
 73
     2
 40
11.0001
 49
0.0001
 74
     4
 75
   135
340
6B
 46
0.04
 50
0.0
 44
0.0
 45
0.0
 49
-11.0
 74
     0
  0
LTYPE
  5
7A
330
5
100
AcDbSymbolTableRecord
100
AcDbLinetypeTableRecord
  2
ACISOWELD
 70
     0
  3
_ _ _ _ _
 72
    65
 73
     2
 40
2.0
 49
2.0
 74
     0
 49
-1.0
 74
     0
  0
LTYPE
  5
7B
330
5
100
AcDbSymbolTableRecord
100
AcDbLinetypeTableRecord
  2
ACISOTGB
 70
     0
  3
__ . . __ . .
 72
    65
 73
     6
 40
9.0
 49
4.0
 74
     0
 49
-1.0
 74
     0
 49
1.0
 74
     0
 49
-1.0
 74
     0
 49
1.0
 74
     0
 49
-1.0
 74
     0
  0
LTYPE
  5
7C
330
5
100
AcDbSymbolTableRecord
100
AcDbLinetypeTableRecord
  2
ACISOTGL
 70
     0
  3
_ _ _ _ _
 72
    65
 73
     2
 40
3.0
 49
2.0
 74
     0
 49
-1.0
 74
     0
  0
LTYPE
  5
7E
330
5
100
AcDbSymbolTableRecord
100
AcDbLinetypeTableRecord
  2
CENTER
 70
     0
  3
__ . __
 72
    65
 73
     4
 40
7.0
 49
4.0
 74
     0
 49
-1.0
 74
     0
 49
1.0
 74
     0
 49
-1.0
 74
     0
  0
LTYPE
  5
D8
330
5
100
AcDbSymbolTableRecord
100
AcDbLinetypeTableRecord
  2
HIDDEN
 70
     0
  3
Hidden __ __ __ __ __ __ __ __ __ __ __ __ __ _
 72
    65
 73
     2
 40
9.524999999999998
 49
6.349999999999999
 74
     0
 49
-3.174999999999999
 74
     0
  0
LTYPE
  5
D9
330
5
100
AcDbSymbolTableRecord
100
AcDbLinetypeTableRecord
  2
PHANTOM2
 70
     0
  3
Phantom (.5x) ___ _ _ ___ _ _ ___ _ _ ___ _ _
 72
    65
 73
     6
 40
31.75
 49
15.875
 74
     0
 49
-3.174999999999999
 74
     0
 49
3.174999999999999
 74
     0
 49
-3.174999999999999
 74
     0
 49
3.174999999999999
 74
     0
 49
-3.174999999999999
 74
     0
  0
LTYPE
  5
7C98
330
5
100
AcDbSymbolTableRecord
100
AcDbLinetypeTableRecord
  2
ASULTYPE
 70
     0
  3
實線
 72
    65
 73
     2
 40
3.0
 49
2.5
 74
     0
 49
0.5
 74
     0
  0
LTYPE
  5
7C99
330
5
100
AcDbSymbolTableRecord
100
AcDbLinetypeTableRecord
  2
ASVLTYPE
 70
     0
  3
__ __ __ __ __ __ __ __ __ __ __ __ __ __ __ __ __ __ __ __ __
 72
    65
 73
     2
 40
0.75
 49
0.5
 74
     0
 49
-0.25
 74
     0
  0
ENDTAB
  0
TABLE
  2
LAYER
  5
2
102
{ACAD_XDICTIONARY
360
3F9
102
}
330
0
100
AcDbSymbolTable
 70
    13
  0
LAYER
  5
10
330
2
100
AcDbSymbolTableRecord
100
AcDbLayerTableRecord
  2
0
 70
     0
 62
     7
  6
Continuous
370
    -3
390
F
  0
LAYER
  5
C92
330
2
100
AcDbSymbolTableRecord
100
AcDbLayerTableRecord
  2
Defpoints
 70
     0
 62
     7
  6
Continuous
290
     0
370
    -3
390
F
  0
LAYER
  5
C93
330
2
100
AcDbSymbolTableRecord
100
AcDbLayerTableRecord
  2
AM_5
 70
     0
 62
     3
  6
Continuous
370
    25
390
F
  0
LAYER
  5
C94
330
2
100
AcDbSymbolTableRecord
100
AcDbLayerTableRecord
  2
AM_4
 70
     0
 62
     3
  6
Continuous
370
    25
390
F
  0
LAYER
  5
C95
330
2
100
AcDbSymbolTableRecord
100
AcDbLayerTableRecord
  2
AM_VIS
 70
     0
 62
     7
  6
Continuous
370
    50
390
F
  0
LAYER
  5
C96
330
2
100
AcDbSymbolTableRecord
100
AcDbLayerTableRecord
  2
AM_HID
 70
     0
 62
     3
  6
AM_ISO02W050x2
370
    25
390
F
  0
LAYER
  5
C97
330
2
100
AcDbSymbolTableRecord
100
AcDbLayerTableRecord
  2
AM_7
 70
     0
 62
     1
  6
CENTER
370
    25
390
F
  0
LAYER
  5
C99
330
2
100
AcDbSymbolTableRecord
100
AcDbLayerTableRecord
  2
LOGO
 70
     0
 62
     7
  6
Continuous
370
    -3
390
F
  0
LAYER
  5
2AA5
330
2
100
AcDbSymbolTableRecord
100
AcDbLayerTableRecord
  2
AM_REFDIM
 70
     0
 62
     5
  6
Continuous
370
    25
390
F
  0
LAYER
  5
79D1
330
2
100
AcDbSymbolTableRecord
100
AcDbLayerTableRecord
  2
CEN
 70
     0
 62
     1
  6
CENTER
370
    -3
390
F
  0
LAYER
  5
79D3
330
2
100
AcDbSymbolTableRecord
100
AcDbLayerTableRecord
  2
HATCH
 70
     0
 62
     4
  6
Continuous
370
    -3
390
F
  0
LAYER
  5
7BB8
330
2
100
AcDbSymbolTableRecord
100
AcDbLayerTableRecord
  2
SL
 70
     0
 62
     2
  6
Continuous
370
    -3
390
F
1001
AcAecLayerStandard
1000

1000

  0
LAYER
  5
7DF7
330
2
100
AcDbSymbolTableRecord
100
AcDbLayerTableRecord
  2
AM_10
 70
     0
 62
     7
  6
AM_ISO08W050
370
    50
390
F
  0
ENDTAB
  0
TABLE
  2
STYLE
  5
3
330
0
100
AcDbSymbolTable
 70
     7
  0
STYLE
  5
11
330
3
100
AcDbSymbolTableRecord
100
AcDbTextStyleTableRecord
  2
STANDARD
 70
     0
 40
0.0
 41
1.0
 50
0.0
 71
     0
 42
3.0
  3
ISOCP.SHX
  4
CHINESET.SHX
  0
STYLE
  5
6B
330
3
100
AcDbSymbolTableRecord
100
AcDbTextStyleTableRecord
  2

 70
     1
 40
0.0
 41
1.0
 50
0.0
 71
     0
 42
2.5
  3
ltypeshp.shx
  4

  0
STYLE
  5
6D
330
3
100
AcDbSymbolTableRecord
100
AcDbTextStyleTableRecord
  2
ACISOTS
 70
     0
 40
1.0
 41
1.0
 50
0.0
 71
     0
 42
1.0
  3
isocp.shx
  4
chineset.shx
  0
STYLE
  5
79
330
3
100
AcDbSymbolTableRecord
100
AcDbTextStyleTableRecord
  2
ACISOGDT
 70
     0
 40
0.0
 41
1.0
 50
0.0
 71
     0
 42
2.5
  3
amgdt.shx
  4
chineset.shx
  0
STYLE
  5
C9B
330
3
100
AcDbSymbolTableRecord
100
AcDbTextStyleTableRecord
  2
CHINESET
 70
     0
 40
0.0
 41
1.0
 50
0.0
 71
     0
 42
2.5
  3
simplex.shx
  4
CHINESET.shx
  0
STYLE
  5
7DF8
330
3
100
AcDbSymbolTableRecord
100
AcDbTextStyleTableRecord
  2
DAYUS
 70
     0
 40
0.0
 41
1.0
 50
0.0
 71
     0
 42
2.0
  3
simplex.shx
  4
dayus.shx
  0
ENDTAB
  0
TABLE
  2
VIEW
  5
6
330
0
100
AcDbSymbolTable
 70
     0
  0
ENDTAB
  0
TABLE
  2
UCS
  5
7
330
0
100
AcDbSymbolTable
 70
     0
  0
ENDTAB
  0
TABLE
  2
APPID
  5
9
330
0
100
AcDbSymbolTable
 70
    38
  0
APPID
  5
12
330
9
100
AcDbSymbolTableRecord
100
AcDbRegAppTableRecord
  2
ACAD
 70
     0
  0
APPID
  5
46
330
9
100
AcDbSymbolTableRecord
100
AcDbRegAppTableRecord
  2
MCAD_NO_VIS
 70
     0
  0
APPID
  5
47
330
9
100
AcDbSymbolTableRecord
100
AcDbRegAppTableRecord
  2
ACAD_TEMP_GRAPHIC
 70
     0
  0
APPID
  5
58
330
9
100
AcDbSymbolTableRecord
100
AcDbRegAppTableRecord
  2
ACATTRIBSERVICES
 70
     0
  0
APPID
  5
EE
330
9
100
AcDbSymbolTableRecord
100
AcDbRegAppTableRecord
  2
AD_DRAW
 70
     0
  0
APPID
  5
10C
330
9
100
AcDbSymbolTableRecord
100
AcDbRegAppTableRecord
  2
DESIGNERASSEMBLIES
 70
     0
  0
APPID
  5
111
330
9
100
AcDbSymbolTableRecord
100
AcDbRegAppTableRecord
  2
ACADM_DIM_EDIT
 70
     0
  0
APPID
  5
112
330
9
100
AcDbSymbolTableRecord
100
AcDbRegAppTableRecord
  2
AMDT_DM_ADJ
 70
     0
  0
APPID
  5
22C
330
9
100
AcDbSymbolTableRecord
100
AcDbRegAppTableRecord
  2
ACAD_DSTYLE_DIMTEXT_FILL
 70
     0
  0
APPID
  5
452
330
9
100
AcDbSymbolTableRecord
100
AcDbRegAppTableRecord
  2
GENIUS_GENOENT_13
 70
     0
  0
APPID
  5
453
330
9
100
AcDbSymbolTableRecord
100
AcDbRegAppTableRecord
  2
GENIUS_GENOBJ-N-CRS_13
 70
     0
  0
APPID
  5
454
330
9
100
AcDbSymbolTableRecord
100
AcDbRegAppTableRecord
  2
GENIUS_GENOLIS_13
 70
     0
  0
APPID
  5
455
330
9
100
AcDbSymbolTableRecord
100
AcDbRegAppTableRecord
  2
GENIUS_GENODEF_13
 70
     0
  0
APPID
  5
456
330
9
100
AcDbSymbolTableRecord
100
AcDbRegAppTableRecord
  2
GENIUS_GENOREF_13
 70
     0
  0
APPID
  5
6F3
330
9
100
AcDbSymbolTableRecord
100
AcDbRegAppTableRecord
  2
ACAD_PSEXT
 70
     0
  0
APPID
  5
808
330
9
100
AcDbSymbolTableRecord
100
AcDbRegAppTableRecord
  2
GENIUS_GENDTOL_13
 70
     0
  0
APPID
  5
C9C
330
9
100
AcDbSymbolTableRecord
100
AcDbRegAppTableRecord
  2
GENIUS_GENOBJ-N-CEN_13
 70
     0
  0
APPID
  5
C9D
330
9
100
AcDbSymbolTableRecord
100
AcDbRegAppTableRecord
  2
GENIUS_GENCEN_19
 70
     0
  0
APPID
  5
C9E
330
9
100
AcDbSymbolTableRecord
100
AcDbRegAppTableRecord
  2
GENIUS_GENREC_14
 70
     0
  0
APPID
  5
C9F
330
9
100
AcDbSymbolTableRecord
100
AcDbRegAppTableRecord
  2
GENIUS_GENOBJ-N-REC_13
 70
     0
  0
APPID
  5
18AD
330
9
100
AcDbSymbolTableRecord
100
AcDbRegAppTableRecord
  2
GEVID1195260822
 70
     0
  0
APPID
  5
18AE
330
9
100
AcDbSymbolTableRecord
100
AcDbRegAppTableRecord
  2
GEVDC
 70
     0
  0
APPID
  5
18AF
330
9
100
AcDbSymbolTableRecord
100
AcDbRegAppTableRecord
  2
GEVRADREF
 70
     0
  0
APPID
  5
18B8
330
9
100
AcDbSymbolTableRecord
100
AcDbRegAppTableRecord
  2
AMG_2DHIDE
 70
     0
  0
APPID
  5
18B9
330
9
100
AcDbSymbolTableRecord
100
AcDbRegAppTableRecord
  2
AMG_2DSTRUCT_BTR
 70
     0
  0
APPID
  5
18CA
330
9
100
AcDbSymbolTableRecord
100
AcDbRegAppTableRecord
  2
ACADM_2DVIEW_IGN_NOTIFY
 70
     0
  0
APPID
  5
3621
330
9
100
AcDbSymbolTableRecord
100
AcDbRegAppTableRecord
  2
GENIUS_GENDIMSH_14
 70
     0
  0
APPID
  5
3FD8
330
9
100
AcDbSymbolTableRecord
100
AcDbRegAppTableRecord
  2
AD_SKETCHDIM
 70
     0
  0
APPID
  5
42D5
330
9
100
AcDbSymbolTableRecord
100
AcDbRegAppTableRecord
  2
ACAD_DSTYLE_DIMEXT_LENGTH
 70
     0
  0
APPID
  5
42D6
330
9
100
AcDbSymbolTableRecord
100
AcDbRegAppTableRecord
  2
ACAD_DSTYLE_DIMEXT_ENABLED
 70
     0
  0
APPID
  5
42D7
330
9
100
AcDbSymbolTableRecord
100
AcDbRegAppTableRecord
  2
ACAD_DSTYLE_DIM_EXT1_LINETYPE
 70
     0
  0
APPID
  5
42D8
330
9
100
AcDbSymbolTableRecord
100
AcDbRegAppTableRecord
  2
ACAD_DSTYLE_DIMJOGGED_JOGANGLE_SYMBOL
 70
     0
  0
APPID
  5
42D9
330
9
100
AcDbSymbolTableRecord
100
AcDbRegAppTableRecord
  2
ACAD_DSTYLE_DIMARC_LENGTH_SYMBOL
 70
     0
  0
APPID
  5
5E72
330
9
100
AcDbSymbolTableRecord
100
AcDbRegAppTableRecord
  2
AcAecLayerStandard
 70
     0
  0
APPID
  5
7C19
330
9
100
AcDbSymbolTableRecord
100
AcDbRegAppTableRecord
  2
GENIUS_GENDIM_13
 70
     0
  0
APPID
  5
7C1A
330
9
100
AcDbSymbolTableRecord
100
AcDbRegAppTableRecord
  2
GENIUS_GE3DTOL_13
 70
     0
  0
APPID
  5
7C9A
330
9
100
AcDbSymbolTableRecord
100
AcDbRegAppTableRecord
  2
ASURF_PCURVE_APPNAME
 70
     0
  0
APPID
  5
7C9F
330
9
100
AcDbSymbolTableRecord
100
AcDbRegAppTableRecord
  2
AMG_3D2D_5.0
 70
     0
  0
ENDTAB
  0
TABLE
  2
DIMSTYLE
  5
A
330
0
100
AcDbSymbolTable
 70
    17
100
AcDbDimStyleTable
 71
     3
340
81
340
8B
340
86
  0
DIMSTYLE
105
81
330
A
100
AcDbSymbolTableRecord
100
AcDbDimStyleTableRecord
  2
AM_ISO
 70
     0
  4
"
 41
3.5
 42
1.0
 43
8.0
 44
1.0
 47
0.1
 48
0.1
 73
     0
 74
     0
 77
     1
 78
     8
 79
     2
140
3.5
141
0.0
143
0.0393701
146
0.6
147
1.0
172
     1
176
   256
177
   256
178
   256
271
     2
272
     2
283
     0
284
     8
340
11
371
    -1
372
    -1
  0
DIMSTYLE
105
82
330
A
100
AcDbSymbolTableRecord
100
AcDbDimStyleTableRecord
  2
AM_ISO$3
 70
     0
  4
"
 41
3.5
 42
1.0
 43
8.0
 44
1.0
 47
0.1
 48
0.1
 73
     0
 77
     1
 78
     8
 79
     2
140
3.5
141
0.0
143
0.0393701
146
0.6
147
1.0
176
   256
177
   256
178
   256
271
     2
272
     2
283
     0
284
     8
288
     1
289
     0
340
11
371
    -1
372
    -1
  0
DIMSTYLE
105
83
330
A
100
AcDbSymbolTableRecord
100
AcDbDimStyleTableRecord
  2
AM_ISO$4
 70
     0
  4
"
 41
3.5
 42
1.0
 43
8.0
 44
1.0
 47
0.1
 48
0.1
 73
     0
 77
     1
 78
     8
 79
     2
140
3.5
141
0.0
143
0.0393701
146
0.6
147
1.0
176
   256
177
   256
178
   256
271
     2
272
     2
283
     0
284
     8
288
     1
289
     0
340
11
371
    -1
372
    -1
  0
DIMSTYLE
105
84
330
A
100
AcDbSymbolTableRecord
100
AcDbDimStyleTableRecord
  2
AM_ISO$6
 70
     0
  4
"
 41
3.5
 42
1.0
 43
8.0
 44
1.0
 47
0.1
 48
0.1
 73
     0
 74
     0
 78
     8
 79
     2
140
3.5
141
0.0
143
0.0393701
146
0.6
147
1.0
172
     1
176
   256
177
   256
178
   256
271
     2
272
     2
283
     0
284
     8
340
11
371
    -1
372
    -1
  0
DIMSTYLE
105
85
330
A
100
AcDbSymbolTableRecord
100
AcDbDimStyleTableRecord
  2
AM_ISO$7
 70
     0
  4
"
 41
3.5
 42
1.0
 43
8.0
 44
1.0
 47
0.1
 48
0.1
 73
     0
 74
     0
 77
     1
 78
     8
 79
     2
140
3.5
141
0.0
143
0.0393701
146
0.6
147
1.0
172
     1
176
   256
177
   256
178
   256
271
     2
272
     2
283
     0
284
     8
340
11
371
    -1
372
    -1
  0
DIMSTYLE
105
86
330
A
100
AcDbSymbolTableRecord
100
AcDbDimStyleTableRecord
  2
AM_ISO$SF
 70
     0
  4
"
 41
2.5
 42
1.0
 43
10.0
 44
1.0
 47
0.1
 48
0.1
 73
     0
 74
     0
 75
     1
 76
     1
 77
     1
 78
     8
 79
     2
140
3.5
141
0.0
143
0.0393701
146
0.71
147
1.5
172
     1
176
   256
177
   256
178
     2
271
     2
272
     3
274
     4
283
     0
284
     8
340
11
371
    -1
372
    -1
  0
DIMSTYLE
105
8B
330
A
100
AcDbSymbolTableRecord
100
AcDbDimStyleTableRecord
  2
AM_ISO$SH
 70
     0
  4
"
 41
2.5
 42
1.0
 43
10.0
 44
1.0
 47
0.1
 48
0.1
 73
     0
 74
     0
 75
     1
 76
     1
 77
     1
 78
     8
 79
     2
140
3.5
141
0.0
143
0.0393701
144
2.0
146
0.71
147
1.5
172
     1
173
     1
176
   256
177
   256
178
     2
271
     2
272
     3
274
     4
283
     0
284
     8
340
11
343
87
371
    -1
372
    -1
  0
DIMSTYLE
105
40B
102
{ACAD_REACTORS
330
A57E
330
A516
330
A540
330
A724
330
A67B
330
A6A1
330
A7A5
330
A77B
330
A7CB
330
A622
102
}
330
A
100
AcDbSymbolTableRecord
100
AcDbDimStyleTableRecord
  2
AM_ISO$0
 70
     0
  4
"
 41
3.5
 42
1.0
 43
8.0
 44
1.0
 47
0.1
 48
0.1
 73
     0
 74
     0
 77
     1
 78
     8
 79
     2
140
3.5
141
0.0
143
0.0393701
146
0.6
147
1.0
172
     1
176
   256
177
   256
178
   256
271
     2
272
     2
283
     0
284
     8
340
11
371
    -1
372
    -1
  0
DIMSTYLE
105
2AAB
330
A
100
AcDbSymbolTableRecord
100
AcDbDimStyleTableRecord
  2
AM_ISO$SH$3
 70
     0
  4
"
 40
1.3
 41
2.5
 42
1.0
 43
10.0
 44
1.0
 47
0.1
 48
0.1
 73
     0
 74
     0
 75
     1
 76
     1
 77
     1
 78
     8
 79
     2
140
3.5
141
0.0
143
0.0393701
144
2.0
146
0.71
147
1.5
172
     1
173
     1
176
   256
177
   256
178
     2
271
     2
272
     3
274
     4
283
     0
284
     8
340
11
343
87
371
    -1
372
    -1
  0
DIMSTYLE
105
3FD7
330
A
100
AcDbSymbolTableRecord
100
AcDbDimStyleTableRecord
  2
AM_ISO$2
 70
     0
  4
"
 41
2.5
 42
1.0
 43
10.0
 44
1.0
 47
0.1
 48
0.1
 73
     0
 74
     0
 77
     1
 78
     8
 79
     2
140
3.5
141
0.0
143
0.0393701
146
0.71
147
1.5
172
     1
176
   256
177
   256
178
     2
271
     2
272
     3
274
     4
283
     0
284
     8
340
11
371
    -1
372
    -1
  0
DIMSTYLE
105
6430
330
A
100
AcDbSymbolTableRecord
100
AcDbDimStyleTableRecord
  2
AM_ISO$SH$0
 70
     0
  4
"
 40
1.5
 41
2.5
 42
1.0
 43
10.0
 44
1.0
 47
0.1
 48
0.1
 73
     0
 74
     0
 75
     1
 76
     1
 77
     1
 78
     8
 79
     2
140
3.5
141
0.0
143
0.0393701
144
2.0
146
0.71
147
1.5
172
     1
173
     1
176
   256
177
   256
178
     2
271
     2
272
     3
274
     4
283
     0
284
     8
340
11
343
87
371
    -1
372
    -1
  0
DIMSTYLE
105
7DF9
330
A
100
AcDbSymbolTableRecord
100
AcDbDimStyleTableRecord
  2
STANDARD
 70
     0
 41
2.5
 42
0.625
 43
3.75
 44
1.25
 73
     0
 74
     0
 77
     1
 78
     8
140
2.5
141
2.5
143
0.0394
147
0.625
171
     4
172
     1
273
     8
274
     4
277
     6
340
11
  0
DIMSTYLE
105
7DFA
330
A
100
AcDbSymbolTableRecord
100
AcDbDimStyleTableRecord
  2
AM_ANSI
 70
     0
  4
mm
 41
0.1
 42
0.05
 43
0.5
 44
0.1
 47
0.1
 48
0.1
 78
     7
 79
     2
140
0.12
141
0.0
146
0.71
147
0.06
176
   256
177
   256
178
     2
274
     4
284
     7
340
11
371
    -1
372
    -1
  0
DIMSTYLE
105
7DFB
330
A
100
AcDbSymbolTableRecord
100
AcDbDimStyleTableRecord
  2
DAYUS
 70
     0
  4
"
 40
0.6666666666666666
 41
3.0
 42
2.0
 43
10.0
 44
1.0
 47
0.1
 48
0.1
 73
     0
 74
     0
 77
     1
 78
     8
 79
     2
140
3.5
141
0.0
143
0.0393701
146
0.71
147
1.5
172
     1
176
   256
177
   256
178
     3
271
     2
272
     8
283
     0
284
     8
340
7DF8
371
    -1
372
    -1
  0
DIMSTYLE
105
857F
330
A
100
AcDbSymbolTableRecord
100
AcDbDimStyleTableRecord
  2
ISO-25$0
 70
     0
 40
5.0
 41
2.5
 42
0.625
 43
3.75
 44
1.25
 73
     0
 74
     0
 77
     1
 78
     8
140
2.5
141
2.5
143
0.03937007874016
147
0.625
171
     3
172
     1
271
     2
272
     2
274
     3
278
    44
283
     0
284
     8
340
11
  0
DIMSTYLE
105
968B
330
A
100
AcDbSymbolTableRecord
100
AcDbDimStyleTableRecord
  2
ISO-25
 70
     0
 41
2.5
 42
0.625
 43
3.75
 44
1.25
 73
     0
 74
     0
 77
     1
 78
     8
140
2.5
141
2.5
143
0.03937007874016
147
0.625
171
     3
172
     1
271
     2
272
     2
274
     3
278
    44
283
     0
284
     8
340
11
  0
ENDTAB
  0
TABLE
  2
BLOCK_RECORD
  5
1
330
0
100
AcDbSymbolTable
 70
    19
  0
BLOCK_RECORD
  5
1F
102
{ACAD_XDICTIONARY
360
8F
102
}
330
1
100
AcDbSymbolTableRecord
100
AcDbBlockTableRecord
  2
*Model_Space
340
22
  0
BLOCK_RECORD
  5
1B
330
1
100
AcDbSymbolTableRecord
100
AcDbBlockTableRecord
  2
*Paper_Space
340
1E
  0
BLOCK_RECORD
  5
23
330
1
100
AcDbSymbolTableRecord
100
AcDbBlockTableRecord
  2
*Paper_Space0
340
26
  0
BLOCK_RECORD
  5
87
330
1
100
AcDbSymbolTableRecord
100
AcDbBlockTableRecord
  2
GENAXEH
340
0
  0
BLOCK_RECORD
  5
7CF2
102
{ACAD_XDICTIONARY
360
7CF3
102
}
330
1
100
AcDbSymbolTableRecord
100
AcDbBlockTableRecord
  2
S2
340
0
1001
ACAD
1000
DesignCenter Data
1002
{
1070
     1
1070
     4
1002
}
  0
BLOCK_RECORD
  5
8569
330
1
100
AcDbSymbolTableRecord
100
AcDbBlockTableRecord
  2
SW_CENTERMARKSYMBOL_0
340
0
  0
BLOCK_RECORD
  5
8574
330
1
100
AcDbSymbolTableRecord
100
AcDbBlockTableRecord
  2
SW_CENTERMARKSYMBOL_1
340
0
  0
BLOCK_RECORD
  5
A517
330
1
100
AcDbSymbolTableRecord
100
AcDbBlockTableRecord
  2
*D6
340
0
  0
BLOCK_RECORD
  5
A541
330
1
100
AcDbSymbolTableRecord
100
AcDbBlockTableRecord
  2
*D7
340
0
  0
BLOCK_RECORD
  5
A57F
330
1
100
AcDbSymbolTableRecord
100
AcDbBlockTableRecord
  2
*D8
340
0
  0
BLOCK_RECORD
  5
A623
330
1
100
AcDbSymbolTableRecord
100
AcDbBlockTableRecord
  2
*D9
340
0
  0
BLOCK_RECORD
  5
A67C
330
1
100
AcDbSymbolTableRecord
100
AcDbBlockTableRecord
  2
*D10
340
0
  0
BLOCK_RECORD
  5
A6A2
330
1
100
AcDbSymbolTableRecord
100
AcDbBlockTableRecord
  2
*D11
340
0
  0
BLOCK_RECORD
  5
A725
330
1
100
AcDbSymbolTableRecord
100
AcDbBlockTableRecord
  2
*D12
340
0
  0
BLOCK_RECORD
  5
A77C
330
1
100
AcDbSymbolTableRecord
100
AcDbBlockTableRecord
  2
*D13
340
0
  0
BLOCK_RECORD
  5
A7A6
330
1
100
AcDbSymbolTableRecord
100
AcDbBlockTableRecord
  2
*D14
340
0
  0
BLOCK_RECORD
  5
A7CC
330
1
100
AcDbSymbolTableRecord
100
AcDbBlockTableRecord
  2
*D15
340
0
  0
ENDTAB
  0
ENDSEC
  0
SECTION
  2
BLOCKS
  0
BLOCK
  5
20
330
1F
100
AcDbEntity
  8
0
100
AcDbBlockBegin
  2
*Model_Space
 70
     0
 10
0.0
 20
0.0
 30
0.0
  3
*Model_Space
  1

  0
ENDBLK
  5
21
330
1F
100
AcDbEntity
  8
0
100
AcDbBlockEnd
  0
BLOCK
  5
1C
330
1B
100
AcDbEntity
 67
     1
  8
0
100
AcDbBlockBegin
  2
*Paper_Space
 70
     0
 10
0.0
 20
0.0
 30
0.0
  3
*Paper_Space
  1

  0
ENDBLK
  5
1D
330
1B
100
AcDbEntity
 67
     1
  8
0
100
AcDbBlockEnd
  0
BLOCK
  5
24
330
23
100
AcDbEntity
  8
0
100
AcDbBlockBegin
  2
*Paper_Space0
 70
     0
 10
0.0
 20
0.0
 30
0.0
  3
*Paper_Space0
  1

  0
ENDBLK
  5
25
330
23
100
AcDbEntity
  8
0
100
AcDbBlockEnd
  0
BLOCK
  5
89
330
87
100
AcDbEntity
  8
0
100
AcDbBlockBegin
  2
GENAXEH
 70
     0
 10
0.0
 20
0.0
 30
0.0
  3
GENAXEH
  1

  0
LINE
  5
88
330
87
100
AcDbEntity
  8
0
100
AcDbLine
 10
-1.0
 20
0.0
 30
0.0
 11
1.0
 21
0.0
 31
0.0
  0
ENDBLK
  5
8A
330
87
100
AcDbEntity
  8
0
100
AcDbBlockEnd
  0
BLOCK
  5
7CF4
330
7CF2
100
AcDbEntity
  8
0
100
AcDbBlockBegin
  2
S2
 70
     0
 10
0.0
 20
0.0
 30
0.0
  3
S2
  1

  0
LINE
  5
7CF5
330
7CF2
100
AcDbEntity
  8
AM_5
100
AcDbLine
 10
0.0000000000000284
 20
4.000000000000028
 30
0.0
 11
4.0
 21
4.0
 31
0.0
  0
LINE
  5
7CF6
330
7CF2
100
AcDbEntity
  8
AM_5
100
AcDbLine
 10
0.0000000000000284
 20
0.0
 30
0.0
 11
4.0
 21
0.0
 31
0.0
  0
TEXT
  5
7CF7
330
7CF2
100
AcDbEntity
  8
AM_5
100
AcDbText
 10
1.099999999999999
 20
0.5
 30
0.0
 40
3.0
  1
2
 41
0.9
  7
DAYUS
 72
     4
 11
2.0
 21
2.0
 31
0.0
100
AcDbText
  0
LINE
  5
7CF8
330
7CF2
100
AcDbEntity
  8
AM_5
100
AcDbLine
 10
0.0
 20
4.0
 30
0.0
 11
0.0
 21
0.0
 31
0.0
  0
LINE
  5
7CF9
330
7CF2
100
AcDbEntity
  8
AM_5
100
AcDbLine
 10
4.0
 20
4.0
 30
0.0
 11
4.0
 21
0.0
 31
0.0
  0
ENDBLK
  5
7CFA
330
7CF2
100
AcDbEntity
  8
0
100
AcDbBlockEnd
  0
BLOCK
  5
856A
330
8569
100
AcDbEntity
  8
0
100
AcDbBlockBegin
  2
SW_CENTERMARKSYMBOL_0
 70
     0
 10
0.0
 20
0.0
 30
0.0
  3
SW_CENTERMARKSYMBOL_0
  1

  0
LINE
  5
856B
330
8569
100
AcDbEntity
  8
0
  6
Continuous
 62
     0
370
     0
100
AcDbLine
 10
0.0
 20
0.0
 30
0.0
 11
0.0
 21
2.500000000000002
 31
0.0
  0
LINE
  5
856C
330
8569
100
AcDbEntity
  8
0
  6
Continuous
 62
     0
370
     0
100
AcDbLine
 10
0.0
 20
0.0
 30
0.0
 11
-2.500000000000002
 21
0.0
 31
0.0
  0
LINE
  5
856D
330
8569
100
AcDbEntity
  8
0
  6
Continuous
 62
     0
370
     0
100
AcDbLine
 10
0.0
 20
0.0
 30
0.0
 11
0.0
 21
-2.500000000000002
 31
0.0
  0
LINE
  5
856E
330
8569
100
AcDbEntity
  8
0
  6
Continuous
 62
     0
370
     0
100
AcDbLine
 10
0.0
 20
0.0
 30
0.0
 11
2.500000000000002
 21
0.0
 31
0.0
  0
LINE
  5
856F
330
8569
100
AcDbEntity
  8
0
  6
Continuous
 62
     0
370
     0
100
AcDbLine
 10
0.0
 20
2.500000000000002
 30
0.0
 11
0.0
 21
4.500000000000003
 31
0.0
  0
LINE
  5
8570
330
8569
100
AcDbEntity
  8
0
  6
Continuous
 62
     0
370
     0
100
AcDbLine
 10
-2.500000000000002
 20
0.0
 30
0.0
 11
-4.500000000000003
 21
0.0
 31
0.0
  0
LINE
  5
8571
330
8569
100
AcDbEntity
  8
0
  6
Continuous
 62
     0
370
     0
100
AcDbLine
 10
0.0
 20
-2.500000000000002
 30
0.0
 11
0.0
 21
-4.500000000000003
 31
0.0
  0
LINE
  5
8572
330
8569
100
AcDbEntity
  8
0
  6
Continuous
 62
     0
370
     0
100
AcDbLine
 10
2.500000000000002
 20
0.0
 30
0.0
 11
4.500000000000003
 21
0.0
 31
0.0
  0
ENDBLK
  5
8573
330
8569
100
AcDbEntity
  8
0
100
AcDbBlockEnd
  0
BLOCK
  5
8575
330
8574
100
AcDbEntity
  8
0
100
AcDbBlockBegin
  2
SW_CENTERMARKSYMBOL_1
 70
     0
 10
0.0
 20
0.0
 30
0.0
  3
SW_CENTERMARKSYMBOL_1
  1

  0
LINE
  5
8576
330
8574
100
AcDbEntity
  8
0
  6
Continuous
 62
     0
370
     0
100
AcDbLine
 10
0.0
 20
0.0
 30
0.0
 11
0.0
 21
2.500000000000002
 31
0.0
  0
LINE
  5
8577
330
8574
100
AcDbEntity
  8
0
  6
Continuous
 62
     0
370
     0
100
AcDbLine
 10
0.0
 20
0.0
 30
0.0
 11
-2.500000000000002
 21
0.0
 31
0.0
  0
LINE
  5
8578
330
8574
100
AcDbEntity
  8
0
  6
Continuous
 62
     0
370
     0
100
AcDbLine
 10
0.0
 20
0.0
 30
0.0
 11
0.0
 21
-2.500000000000002
 31
0.0
  0
LINE
  5
8579
330
8574
100
AcDbEntity
  8
0
  6
Continuous
 62
     0
370
     0
100
AcDbLine
 10
0.0
 20
0.0
 30
0.0
 11
2.500000000000002
 21
0.0
 31
0.0
  0
LINE
  5
857A
330
8574
100
AcDbEntity
  8
0
  6
Continuous
 62
     0
370
     0
100
AcDbLine
 10
0.0
 20
5.000000000000004
 30
0.0
 11
0.0
 21
5.500000000000005
 31
0.0
  0
LINE
  5
857B
330
8574
100
AcDbEntity
  8
0
  6
Continuous
 62
     0
370
     0
100
AcDbLine
 10
-5.000000000000004
 20
0.0
 30
0.0
 11
-5.500000000000005
 21
0.0
 31
0.0
  0
LINE
  5
857C
330
8574
100
AcDbEntity
  8
0
  6
Continuous
 62
     0
370
     0
100
AcDbLine
 10
0.0
 20
-5.000000000000004
 30
0.0
 11
0.0
 21
-5.500000000000005
 31
0.0
  0
LINE
  5
857D
330
8574
100
AcDbEntity
  8
0
  6
Continuous
 62
     0
370
     0
100
AcDbLine
 10
5.000000000000004
 20
0.0
 30
0.0
 11
5.500000000000005
 21
0.0
 31
0.0
  0
ENDBLK
  5
857E
330
8574
100
AcDbEntity
  8
0
100
AcDbBlockEnd
  0
BLOCK
  5
A523
330
A517
100
AcDbEntity
  8
0
100
AcDbBlockBegin
  2
*D6
 70
     1
 10
0.0
 20
0.0
 30
0.0
  3
*D6
  1

  0
LINE
  5
C2A6
330
A517
100
AcDbEntity
  8
AM_REFDIM
100
AcDbLine
 10
717.9741222255549
 20
106.810108996512
 30
0.0
 11
717.9741222255549
 21
93.66368465509431
 31
0.0
  0
LINE
  5
C2A7
330
A517
100
AcDbEntity
  8
AM_REFDIM
100
AcDbLine
 10
734.1741214234068
 20
103.2382271168265
 30
0.0
 11
734.1741214234068
 21
93.66368465509431
 31
0.0
  0
LINE
  5
C2A8
330
A517
100
AcDbEntity
  8
AM_REFDIM
100
AcDbLine
 10
721.4945441156921
 20
94.6695194808478
 30
0.0
 11
730.6536995332696
 21
94.6695194808478
 31
0.0
  0
SOLID
  5
C2A9
330
A517
100
AcDbEntity
  8
AM_REFDIM
100
AcDbTrace
 10
721.4945441156921
 20
95.25625646253732
 30
0.0
 11
721.4945441156921
 21
94.08278249915827
 31
0.0
 12
717.9741222255549
 22
94.6695194808478
 32
0.0
 13
717.9741222255549
 23
94.6695194808478
 33
0.0
  0
SOLID
  5
C2AA
330
A517
100
AcDbEntity
  8
AM_REFDIM
100
AcDbTrace
 10
730.6536995332696
 20
95.25625646253732
 30
0.0
 11
730.6536995332696
 21
94.08278249915827
 31
0.0
 12
734.1741214234068
 22
94.6695194808478
 32
0.0
 13
734.1741214234068
 23
94.6695194808478
 33
0.0
  0
MTEXT
  5
C2AB
330
A517
100
AcDbEntity
  8
AM_REFDIM
100
AcDbMText
 10
726.0741213641103
 20
97.43591174988742
 30
0.0
 40
3.520421890137194
 41
0.0
 71
     5
 72
     1
  1
16.2
 73
     1
 44
1.0
1001
ACAD
1000
MTEXTBEGIN
1070
    73
1070
     1
1070
    44
1040
1.0
1070
    74
1070
     0
1000
MTEXTEND
  0
POINT
  5
C2AC
330
A517
100
AcDbEntity
  8
Defpoints
 62
     0
100
AcDbPoint
 10
717.9741222255549
 20
107.8159438222655
 30
0.0
  0
POINT
  5
C2AD
330
A517
100
AcDbEntity
  8
Defpoints
 62
     0
100
AcDbPoint
 10
734.1741214234068
 20
104.24406194258
 30
0.0
  0
POINT
  5
C2AE
330
A517
100
AcDbEntity
  8
Defpoints
 62
     0
100
AcDbPoint
 10
734.1741214234068
 20
94.6695194808478
 30
0.0
  0
ENDBLK
  5
A524
330
A517
100
AcDbEntity
  8
0
100
AcDbBlockEnd
  0
BLOCK
  5
A54B
330
A541
100
AcDbEntity
  8
0
100
AcDbBlockBegin
  2
*D7
 70
     1
 10
0.0
 20
0.0
 30
0.0
  3
*D7
  1

  0
LINE
  5
C2AF
330
A541
100
AcDbEntity
  8
AM_REFDIM
100
AcDbLine
 10
711.0741209082923
 20
103.2382271168265
 30
0.0
 11
711.0741209082923
 21
86.24743502613064
 31
0.0
  0
LINE
  5
C2B0
330
A541
100
AcDbEntity
  8
AM_REFDIM
100
AcDbLine
 10
741.0741216347239
 20
103.2382271168265
 30
0.0
 11
741.0741216347239
 21
86.24743502613064
 31
0.0
  0
LINE
  5
C2B1
330
A541
100
AcDbEntity
  8
AM_REFDIM
100
AcDbLine
 10
714.5945427984295
 20
87.25326985188413
 30
0.0
 11
737.5536997445867
 21
87.25326985188413
 31
0.0
  0
SOLID
  5
C2B2
330
A541
100
AcDbEntity
  8
AM_REFDIM
100
AcDbTrace
 10
714.5945427984295
 20
87.84000683357366
 30
0.0
 11
714.5945427984295
 21
86.6665328701946
 31
0.0
 12
711.0741209082923
 22
87.25326985188413
 32
0.0
 13
711.0741209082923
 23
87.25326985188413
 33
0.0
  0
SOLID
  5
C2B3
330
A541
100
AcDbEntity
  8
AM_REFDIM
100
AcDbTrace
 10
737.5536997445867
 20
87.84000683357366
 30
0.0
 11
737.5536997445867
 21
86.6665328701946
 31
0.0
 12
741.0741216347239
 22
87.25326985188413
 32
0.0
 13
741.0741216347239
 23
87.25326985188413
 33
0.0
  0
MTEXT
  5
C2B4
330
A541
100
AcDbEntity
  8
AM_REFDIM
100
AcDbMText
 10
726.0741207870916
 20
90.0193156227062
 30
0.0
 40
3.520421890137194
 41
0.0
 71
     5
 72
     1
  1
30
 73
     1
 44
1.0
1001
ACAD
1000
MTEXTBEGIN
1070
    73
1070
     1
1070
    44
1040
1.0
1070
    74
1070
     0
1000
MTEXTEND
  0
POINT
  5
C2B5
330
A541
100
AcDbEntity
  8
Defpoints
 62
     0
100
AcDbPoint
 10
711.0741209082923
 20
104.24406194258
 30
0.0
  0
POINT
  5
C2B6
330
A541
100
AcDbEntity
  8
Defpoints
 62
     0
100
AcDbPoint
 10
741.0741216347239
 20
104.24406194258
 30
0.0
  0
POINT
  5
C2B7
330
A541
100
AcDbEntity
  8
Defpoints
 62
     0
100
AcDbPoint
 10
741.0741216347239
 20
87.25326985188413
 30
0.0
  0
ENDBLK
  5
A54C
330
A541
100
AcDbEntity
  8
0
100
AcDbBlockEnd
  0
BLOCK
  5
A589
330
A57F
100
AcDbEntity
  8
0
100
AcDbBlockBegin
  2
*D8
 70
     1
 10
0.0
 20
0.0
 30
0.0
  3
*D8
  1

  0
LINE
  5
C2B8
330
A57F
100
AcDbEntity
  8
AM_REFDIM
100
AcDbLine
 10
795.9740287367051
 20
169.7888412305845
 30
0.0
 11
815.7282735692337
 21
169.7888412305845
 31
0.0
  0
LINE
  5
C2B9
330
A57F
100
AcDbEntity
  8
AM_REFDIM
100
AcDbLine
 10
742.0799564604774
 20
104.24406194258
 30
0.0
 11
815.7282735692337
 21
104.24406194258
 31
0.0
  0
LINE
  5
C2BA
330
A57F
100
AcDbEntity
  8
AM_REFDIM
100
AcDbLine
 10
814.7224387434803
 20
166.2684193404473
 30
0.0
 11
814.7224387434803
 21
107.7644838327172
 31
0.0
  0
SOLID
  5
C2BB
330
A57F
100
AcDbEntity
  8
AM_REFDIM
100
AcDbTrace
 10
814.1357017617908
 20
166.2684193404473
 30
0.0
 11
815.3091757251699
 21
166.2684193404473
 31
0.0
 12
814.7224387434803
 22
169.7888412305845
 32
0.0
 13
814.7224387434803
 23
169.7888412305845
 33
0.0
  0
SOLID
  5
C2BC
330
A57F
100
AcDbEntity
  8
AM_REFDIM
100
AcDbTrace
 10
814.1357017617908
 20
107.7644838327172
 30
0.0
 11
815.3091757251699
 21
107.7644838327172
 31
0.0
 12
814.7224387434803
 22
104.24406194258
 32
0.0
 13
814.7224387434803
 23
104.24406194258
 33
0.0
  0
MTEXT
  5
C2BD
330
A57F
100
AcDbEntity
  8
AM_REFDIM
100
AcDbMText
 10
811.9563929726583
 20
148.788840658355
 30
0.0
 40
3.520421890137194
 41
0.0
 71
     5
 72
     1
  1
66
 11
0.0000000000000001
 21
1.0
 31
0.0
 73
     1
 44
1.0
1001
ACAD
1000
MTEXTBEGIN
1070
    73
1070
     1
1070
    44
1040
1.0
1070
    74
1070
     0
1000
MTEXTEND
  0
POINT
  5
C2BE
330
A57F
100
AcDbEntity
  8
Defpoints
 62
     0
100
AcDbPoint
 10
794.9681939109516
 20
169.7888412305845
 30
0.0
  0
POINT
  5
C2BF
330
A57F
100
AcDbEntity
  8
Defpoints
 62
     0
100
AcDbPoint
 10
741.0741216347239
 20
104.24406194258
 30
0.0
  0
POINT
  5
C2C0
330
A57F
100
AcDbEntity
  8
Defpoints
 62
     0
100
AcDbPoint
 10
814.7224387434803
 20
104.24406194258
 30
0.0
  0
ENDBLK
  5
A58A
330
A57F
100
AcDbEntity
  8
0
100
AcDbBlockEnd
  0
BLOCK
  5
A62D
330
A623
100
AcDbEntity
  8
0
100
AcDbBlockBegin
  2
*D9
 70
     1
 10
0.0
 20
0.0
 30
0.0
  3
*D9
  1

  0
LINE
  5
C2C1
330
A623
100
AcDbEntity
  8
AM_REFDIM
100
AcDbLine
 10
865.0201238711549
 20
231.7589278765646
 30
0.0
 11
865.0201238711549
 21
246.566489831179
 31
0.0
  0
LINE
  5
C2C2
330
A623
100
AcDbEntity
  8
AM_REFDIM
100
AcDbLine
 10
941.0201248304167
 20
232.294676056338
 30
0.0
 11
941.0201248304167
 21
246.566489831179
 31
0.0
  0
LINE
  5
C2C3
330
A623
100
AcDbEntity
  8
AM_REFDIM
100
AcDbLine
 10
868.5405457612921
 20
245.5606550054255
 30
0.0
 11
937.4997029402795
 21
245.5606550054255
 31
0.0
  0
SOLID
  5
C2C4
330
A623
100
AcDbEntity
  8
AM_REFDIM
100
AcDbTrace
 10
868.5405457612921
 20
246.1473919871151
 30
0.0
 11
868.5405457612921
 21
244.973918023736
 31
0.0
 12
865.0201238711549
 22
245.5606550054255
 32
0.0
 13
865.0201238711549
 23
245.5606550054255
 33
0.0
  0
SOLID
  5
C2C5
330
A623
100
AcDbEntity
  8
AM_REFDIM
100
AcDbTrace
 10
937.4997029402795
 20
246.1473919871151
 30
0.0
 11
937.4997029402795
 21
244.973918023736
 31
0.0
 12
941.0201248304167
 22
245.5606550054255
 32
0.0
 13
941.0201248304167
 23
245.5606550054255
 33
0.0
  0
MTEXT
  5
C2C6
330
A623
100
AcDbEntity
  8
AM_REFDIM
100
AcDbMText
 10
903.0201243507859
 20
248.3267007762476
 30
0.0
 40
3.520421890137194
 41
0.0
 71
     5
 72
     1
  1
76
 73
     1
 44
1.0
1001
ACAD
1000
MTEXTBEGIN
1070
    73
1070
     1
1070
    44
1040
1.0
1070
    74
1070
     0
1000
MTEXTEND
  0
POINT
  5
C2C7
330
A623
100
AcDbEntity
  8
Defpoints
 62
     0
100
AcDbPoint
 10
865.0201238711549
 20
230.7530930508112
 30
0.0
  0
POINT
  5
C2C8
330
A623
100
AcDbEntity
  8
Defpoints
 62
     0
100
AcDbPoint
 10
941.0201248304167
 20
231.2888412305845
 30
0.0
  0
POINT
  5
C2C9
330
A623
100
AcDbEntity
  8
Defpoints
 62
     0
100
AcDbPoint
 10
941.0201248304167
 20
245.5606550054255
 30
0.0
  0
ENDBLK
  5
A62E
330
A623
100
AcDbEntity
  8
0
100
AcDbBlockEnd
  0
BLOCK
  5
A686
330
A67C
100
AcDbEntity
  8
0
100
AcDbBlockBegin
  2
*D10
 70
     1
 10
0.0
 20
0.0
 30
0.0
  3
*D10
  1

  0
LINE
  5
C2CA
330
A67C
100
AcDbEntity
  8
AM_REFDIM
100
AcDbLine
 10
941.0259626364032
 20
232.288842286351
 30
0.0
 11
953.6310898984707
 21
232.288842286351
 31
0.0
  0
LINE
  5
C2CB
330
A67C
100
AcDbEntity
  8
AM_REFDIM
100
AcDbLine
 10
941.0259626364032
 20
107.2888412305845
 30
0.0
 11
953.6310898984707
 21
107.2888412305845
 31
0.0
  0
LINE
  5
C2CC
330
A67C
100
AcDbEntity
  8
AM_REFDIM
100
AcDbLine
 10
952.6252550727173
 20
228.7684203962138
 30
0.0
 11
952.6252550727173
 21
110.8092631207217
 31
0.0
  0
SOLID
  5
C2CD
330
A67C
100
AcDbEntity
  8
AM_REFDIM
100
AcDbTrace
 10
952.0385180910277
 20
228.7684203962138
 30
0.0
 11
953.2119920544069
 21
228.7684203962138
 31
0.0
 12
952.6252550727173
 22
232.288842286351
 32
0.0
 13
952.6252550727173
 23
232.288842286351
 33
0.0
  0
SOLID
  5
C2CE
330
A67C
100
AcDbEntity
  8
AM_REFDIM
100
AcDbTrace
 10
952.0385180910277
 20
110.8092631207217
 30
0.0
 11
953.2119920544069
 21
110.8092631207217
 31
0.0
 12
952.6252550727173
 22
107.2888412305845
 32
0.0
 13
952.6252550727173
 23
107.2888412305845
 33
0.0
  0
MTEXT
  5
C2CF
330
A67C
100
AcDbEntity
  8
AM_REFDIM
100
AcDbMText
 10
949.8588628036776
 20
169.7888417584677
 30
0.0
 40
3.520421890137194
 41
0.0
 71
     5
 72
     1
  1
125
 11
0.0000000000000001
 21
1.0
 31
0.0
 73
     1
 44
1.0
1001
ACAD
1000
MTEXTBEGIN
1070
    73
1070
     1
1070
    44
1040
1.0
1070
    74
1070
     0
1000
MTEXTEND
  0
POINT
  5
C2D0
330
A67C
100
AcDbEntity
  8
Defpoints
 62
     0
100
AcDbPoint
 10
940.0201278106496
 20
232.288842286351
 30
0.0
  0
POINT
  5
C2D1
330
A67C
100
AcDbEntity
  8
Defpoints
 62
     0
100
AcDbPoint
 10
940.0201278106496
 20
107.2888412305845
 30
0.0
  0
POINT
  5
C2D2
330
A67C
100
AcDbEntity
  8
Defpoints
 62
     0
100
AcDbPoint
 10
952.6252550727173
 20
107.2888412305845
 30
0.0
  0
ENDBLK
  5
A687
330
A67C
100
AcDbEntity
  8
0
100
AcDbBlockEnd
  0
BLOCK
  5
A6AC
330
A6A2
100
AcDbEntity
  8
0
100
AcDbBlockBegin
  2
*D11
 70
     1
 10
0.0
 20
0.0
 30
0.0
  3
*D11
  1

  0
LINE
  5
C2D3
330
A6A2
100
AcDbEntity
  8
AM_REFDIM
100
AcDbLine
 10
941.0201248304167
 20
107.283006404831
 30
0.0
 11
941.0201248304167
 21
94.4710276458704
 31
0.0
  0
LINE
  5
C2D4
330
A6A2
100
AcDbEntity
  8
AM_REFDIM
100
AcDbLine
 10
887.0201247112079
 20
103.2382271168265
 30
0.0
 11
887.0201247112079
 21
94.4710276458704
 31
0.0
  0
LINE
  5
C2D5
330
A6A2
100
AcDbEntity
  8
AM_REFDIM
100
AcDbLine
 10
937.4997029402795
 20
95.47686247162387
 30
0.0
 11
890.5405466013451
 21
95.47686247162387
 31
0.0
  0
SOLID
  5
C2D6
330
A6A2
100
AcDbEntity
  8
AM_REFDIM
100
AcDbTrace
 10
937.4997029402795
 20
96.06359945331341
 30
0.0
 11
937.4997029402795
 21
94.89012548993434
 31
0.0
 12
941.0201248304167
 22
95.47686247162387
 32
0.0
 13
941.0201248304167
 23
95.47686247162387
 33
0.0
  0
SOLID
  5
C2D7
330
A6A2
100
AcDbEntity
  8
AM_REFDIM
100
AcDbTrace
 10
890.5405466013451
 20
96.06359945331341
 30
0.0
 11
890.5405466013451
 21
94.89012548993434
 31
0.0
 12
887.0201247112079
 22
95.47686247162387
 32
0.0
 13
887.0201247112079
 23
95.47686247162387
 33
0.0
  0
MTEXT
  5
C2D8
330
A6A2
100
AcDbEntity
  8
AM_REFDIM
100
AcDbMText
 10
914.0201247708125
 20
98.24290824244595
 30
0.0
 40
3.520421890137194
 41
0.0
 71
     5
 72
     1
  1
54
 73
     1
 44
1.0
1001
ACAD
1000
MTEXTBEGIN
1070
    73
1070
     1
1070
    44
1040
1.0
1070
    74
1070
     0
1000
MTEXTEND
  0
POINT
  5
C2D9
330
A6A2
100
AcDbEntity
  8
Defpoints
 62
     0
100
AcDbPoint
 10
941.0201248304167
 20
108.2888412305845
 30
0.0
  0
POINT
  5
C2DA
330
A6A2
100
AcDbEntity
  8
Defpoints
 62
     0
100
AcDbPoint
 10
887.0201247112079
 20
104.24406194258
 30
0.0
  0
POINT
  5
C2DB
330
A6A2
100
AcDbEntity
  8
Defpoints
 62
     0
100
AcDbPoint
 10
887.0201247112079
 20
95.47686247162387
 30
0.0
  0
ENDBLK
  5
A6AD
330
A6A2
100
AcDbEntity
  8
0
100
AcDbBlockEnd
  0
BLOCK
  5
A731
330
A725
100
AcDbEntity
  8
0
100
AcDbBlockBegin
  2
*D12
 70
     1
 10
0.0
 20
0.0
 30
0.0
  3
*D12
  1

  0
LINE
  5
C2DC
330
A725
100
AcDbEntity
  8
AM_REFDIM
100
AcDbLine
 10
863.0201247354223
 20
190.7946766650696
 30
0.0
 11
863.0201247354223
 21
246.566489831179
 31
0.0
  0
LINE
  5
C2DD
330
A725
100
AcDbEntity
  8
AM_REFDIM
100
AcDbLine
 10
865.0201248304167
 20
231.7589261865635
 30
0.0
 11
865.0201248304167
 21
246.566489831179
 31
0.0
  0
LINE
  5
C2DE
330
A725
100
AcDbEntity
  8
AM_REFDIM
100
AcDbLine
 10
859.4997028452851
 20
245.5606550054255
 30
0.0
 11
855.9792809551479
 21
245.5606550054255
 31
0.0
  0
LINE
  5
C2DF
330
A725
100
AcDbEntity
  8
AM_REFDIM
100
AcDbLine
 10
868.5405467205539
 20
245.5606550054255
 30
0.0
 11
872.0609686106909
 21
245.5606550054255
 31
0.0
  0
LINE
  5
C2E0
330
A725
100
AcDbEntity
  8
AM_REFDIM
100
AcDbLine
 10
863.0201247354223
 20
245.5606550054255
 30
0.0
 11
865.0201248304167
 21
245.5606550054255
 31
0.0
  0
SOLID
  5
C2E1
330
A725
100
AcDbEntity
  8
AM_REFDIM
100
AcDbTrace
 10
859.4997028452851
 20
246.1473919871151
 30
0.0
 11
859.4997028452851
 21
244.973918023736
 31
0.0
 12
863.0201247354223
 22
245.5606550054255
 32
0.0
 13
863.0201247354223
 23
245.5606550054255
 33
0.0
  0
SOLID
  5
C2E2
330
A725
100
AcDbEntity
  8
AM_REFDIM
100
AcDbTrace
 10
868.5405467205539
 20
246.1473919871151
 30
0.0
 11
868.5405467205539
 21
244.973918023736
 31
0.0
 12
865.0201248304167
 22
245.5606550054255
 32
0.0
 13
865.0201248304167
 23
245.5606550054255
 33
0.0
  0
MTEXT
  5
C2E3
330
A725
100
AcDbEntity
  8
AM_REFDIM
100
AcDbMText
 10
864.0201247829194
 20
248.3270472744651
 30
0.0
 40
3.520421890137194
 41
0.0
 71
     5
 72
     1
  1
2
 73
     1
 44
1.0
1001
ACAD
1000
MTEXTBEGIN
1070
    73
1070
     1
1070
    44
1040
1.0
1070
    74
1070
     0
1000
MTEXTEND
  0
POINT
  5
C2E4
330
A725
100
AcDbEntity
  8
Defpoints
 62
     0
100
AcDbPoint
 10
863.0201247354223
 20
189.7888418393161
 30
0.0
  0
POINT
  5
C2E5
330
A725
100
AcDbEntity
  8
Defpoints
 62
     0
100
AcDbPoint
 10
865.0201248304167
 20
230.7530913608101
 30
0.0
  0
POINT
  5
C2E6
330
A725
100
AcDbEntity
  8
Defpoints
 62
     0
100
AcDbPoint
 10
865.0201248304167
 20
245.5606550054255
 30
0.0
  0
ENDBLK
  5
A732
330
A725
100
AcDbEntity
  8
0
100
AcDbBlockEnd
  0
BLOCK
  5
A788
330
A77C
100
AcDbEntity
  8
0
100
AcDbBlockBegin
  2
*D13
 70
     1
 10
0.0
 20
0.0
 30
0.0
  3
*D13
  1

  0
LINE
  5
C2E7
330
A77C
100
AcDbEntity
  8
AM_REFDIM
100
AcDbLine
 10
727.079956237603
 20
136.7440617265599
 30
0.0
 11
790.780121898878
 21
136.7440617265599
 31
0.0
  0
LINE
  5
C2E8
330
A77C
100
AcDbEntity
  8
AM_REFDIM
100
AcDbLine
 10
727.017884774873
 20
124.7439011893825
 30
0.0
 11
790.780121898878
 21
124.7439011893825
 31
0.0
  0
LINE
  5
C2E9
330
A77C
100
AcDbEntity
  8
AM_REFDIM
100
AcDbLine
 10
789.7742870731244
 20
133.2236398364227
 30
0.0
 11
789.7742870731244
 21
128.2643230795197
 31
0.0
  0
SOLID
  5
C2EA
330
A77C
100
AcDbEntity
  8
AM_REFDIM
100
AcDbTrace
 10
789.1875500914348
 20
133.2236398364227
 30
0.0
 11
790.361024054814
 21
133.2236398364227
 31
0.0
 12
789.7742870731244
 22
136.7440617265599
 32
0.0
 13
789.7742870731244
 23
136.7440617265599
 33
0.0
  0
SOLID
  5
C2EB
330
A77C
100
AcDbEntity
  8
AM_REFDIM
100
AcDbTrace
 10
789.1875500914348
 20
128.2643230795197
 30
0.0
 11
790.361024054814
 21
128.2643230795197
 31
0.0
 12
789.7742870731244
 22
124.7439011893825
 32
0.0
 13
789.7742870731244
 23
124.7439011893825
 33
0.0
  0
MTEXT
  5
C2EC
330
A77C
100
AcDbEntity
  8
AM_REFDIM
100
AcDbMText
 10
787.0078948040847
 20
130.7439814579712
 30
0.0
 40
3.520421890137194
 41
0.0
 71
     5
 72
     1
  1
12
 11
0.0000000000000001
 21
1.0
 31
0.0
 73
     1
 44
1.0
1001
ACAD
1000
MTEXTBEGIN
1070
    73
1070
     1
1070
    44
1040
1.0
1070
    74
1070
     0
1000
MTEXTEND
  0
POINT
  5
C2ED
330
A77C
100
AcDbEntity
  8
Defpoints
 62
     0
100
AcDbPoint
 10
726.0741214118495
 20
136.7440617265599
 30
0.0
  0
POINT
  5
C2EE
330
A77C
100
AcDbEntity
  8
Defpoints
 62
     0
100
AcDbPoint
 10
726.0120499491194
 20
124.7439011893825
 30
0.0
  0
POINT
  5
C2EF
330
A77C
100
AcDbEntity
  8
Defpoints
 62
     0
100
AcDbPoint
 10
789.7742870731244
 20
124.7439011893825
 30
0.0
  0
ENDBLK
  5
A789
330
A77C
100
AcDbEntity
  8
0
100
AcDbBlockEnd
  0
BLOCK
  5
A7B0
330
A7A6
100
AcDbEntity
  8
0
100
AcDbBlockBegin
  2
*D14
 70
     1
 10
0.0
 20
0.0
 30
0.0
  3
*D14
  1

  0
LINE
  5
C2F0
330
A7A6
100
AcDbEntity
  8
AM_REFDIM
100
AcDbLine
 10
727.079956237603
 20
136.7440617265599
 30
0.0
 11
806.7289913461051
 21
136.7440617265599
 31
0.0
  0
LINE
  5
C2F1
330
A7A6
100
AcDbEntity
  8
AM_REFDIM
100
AcDbLine
 10
727.0799562376031
 20
112.7440617265599
 30
0.0
 11
806.7289913461051
 21
112.7440617265599
 31
0.0
  0
LINE
  5
C2F2
330
A7A6
100
AcDbEntity
  8
AM_REFDIM
100
AcDbLine
 10
805.7231565203515
 20
133.2236398364227
 30
0.0
 11
805.7231565203515
 21
116.2644836166971
 31
0.0
  0
SOLID
  5
C2F3
330
A7A6
100
AcDbEntity
  8
AM_REFDIM
100
AcDbTrace
 10
805.136419538662
 20
133.2236398364227
 30
0.0
 11
806.3098935020411
 21
133.2236398364227
 31
0.0
 12
805.7231565203515
 22
136.7440617265599
 32
0.0
 13
805.7231565203515
 23
136.7440617265599
 33
0.0
  0
SOLID
  5
C2F4
330
A7A6
100
AcDbEntity
  8
AM_REFDIM
100
AcDbTrace
 10
805.136419538662
 20
116.2644836166971
 30
0.0
 11
806.3098935020411
 21
116.2644836166971
 31
0.0
 12
805.7231565203515
 22
112.7440617265599
 32
0.0
 13
805.7231565203515
 23
112.7440617265599
 33
0.0
  0
MTEXT
  5
C2F5
330
A7A6
100
AcDbEntity
  8
AM_REFDIM
100
AcDbMText
 10
802.956764251312
 20
124.7440617265599
 30
0.0
 40
3.520421890137194
 41
0.0
 71
     5
 72
     1
  1
24
 11
0.0000000000000001
 21
1.0
 31
0.0
 73
     1
 44
1.0
1001
ACAD
1000
MTEXTBEGIN
1070
    73
1070
     1
1070
    44
1040
1.0
1070
    74
1070
     0
1000
MTEXTEND
  0
POINT
  5
C2F6
330
A7A6
100
AcDbEntity
  8
Defpoints
 62
     0
100
AcDbPoint
 10
726.0741214118495
 20
136.7440617265599
 30
0.0
  0
POINT
  5
C2F7
330
A7A6
100
AcDbEntity
  8
Defpoints
 62
     0
100
AcDbPoint
 10
726.0741214118496
 20
112.7440617265599
 30
0.0
  0
POINT
  5
C2F8
330
A7A6
100
AcDbEntity
  8
Defpoints
 62
     0
100
AcDbPoint
 10
805.7231565203515
 20
112.7440617265599
 30
0.0
  0
ENDBLK
  5
A7B1
330
A7A6
100
AcDbEntity
  8
0
100
AcDbBlockEnd
  0
BLOCK
  5
A7D8
330
A7CC
100
AcDbEntity
  8
0
100
AcDbBlockBegin
  2
*D15
 70
     1
 10
0.0
 20
0.0
 30
0.0
  3
*D15
  1

  0
LINE
  5
C2F9
330
A7CC
100
AcDbEntity
  8
AM_REFDIM
100
AcDbLine
 10
727.0799562376031
 20
112.7440617265599
 30
0.0
 11
790.780121898878
 21
112.7440617265599
 31
0.0
  0
LINE
  5
C2FA
330
A7CC
100
AcDbEntity
  8
AM_REFDIM
100
AcDbLine
 10
742.0799564604774
 20
104.24406194258
 30
0.0
 11
790.780121898878
 21
104.24406194258
 31
0.0
  0
LINE
  5
C2FB
330
A7CC
100
AcDbEntity
  8
AM_REFDIM
100
AcDbLine
 10
789.7742870731244
 20
116.2644836166971
 30
0.0
 11
789.7742870731244
 21
119.7849055068343
 31
0.0
  0
LINE
  5
C2FC
330
A7CC
100
AcDbEntity
  8
AM_REFDIM
100
AcDbLine
 10
789.7742870731244
 20
100.7236400524428
 30
0.0
 11
789.7742870731244
 21
97.20321816230564
 31
0.0
  0
LINE
  5
C2FD
330
A7CC
100
AcDbEntity
  8
AM_REFDIM
100
AcDbLine
 10
789.7742870731244
 20
112.7440617265599
 30
0.0
 11
789.7742870731244
 21
104.24406194258
 31
0.0
  0
SOLID
  5
C2FE
330
A7CC
100
AcDbEntity
  8
AM_REFDIM
100
AcDbTrace
 10
789.1875500914348
 20
116.2644836166971
 30
0.0
 11
790.361024054814
 21
116.2644836166971
 31
0.0
 12
789.7742870731244
 22
112.7440617265599
 32
0.0
 13
789.7742870731244
 23
112.7440617265599
 33
0.0
  0
SOLID
  5
C2FF
330
A7CC
100
AcDbEntity
  8
AM_REFDIM
100
AcDbTrace
 10
789.1875500914348
 20
100.7236400524428
 30
0.0
 11
790.361024054814
 21
100.7236400524428
 31
0.0
 12
789.7742870731244
 22
104.24406194258
 32
0.0
 13
789.7742870731244
 23
104.24406194258
 33
0.0
  0
MTEXT
  5
C300
330
A7CC
100
AcDbEntity
  8
AM_REFDIM
100
AcDbMText
 10
787.0082413023023
 20
108.4940618345701
 30
0.0
 40
3.520421890137194
 41
0.0
 71
     5
 72
     1
  1
8.5
 11
0.0000000000000001
 21
1.0
 31
0.0
 73
     1
 44
1.0
1001
ACAD
1000
MTEXTBEGIN
1070
    73
1070
     1
1070
    44
1040
1.0
1070
    74
1070
     0
1000
MTEXTEND
  0
POINT
  5
C301
330
A7CC
100
AcDbEntity
  8
Defpoints
 62
     0
100
AcDbPoint
 10
726.0741214118496
 20
112.7440617265599
 30
0.0
  0
POINT
  5
C302
330
A7CC
100
AcDbEntity
  8
Defpoints
 62
     0
100
AcDbPoint
 10
741.0741216347239
 20
104.24406194258
 30
0.0
  0
POINT
  5
C303
330
A7CC
100
AcDbEntity
  8
Defpoints
 62
     0
100
AcDbPoint
 10
789.7742870731244
 20
104.24406194258
 30
0.0
  0
ENDBLK
  5
A7D9
330
A7CC
100
AcDbEntity
  8
0
100
AcDbBlockEnd
  0
ENDSEC
  0
SECTION
  2
ENTITIES
  0
TEXT
  5
1599
330
1F
100
AcDbEntity
  8
LOGO
 62
     7
100
AcDbText
 10
703.0301787287664
 20
59.07034102265315
 30
0.0
 40
3.483143580380088
  1
Order example:
 41
0.8
  7
CHINESET
100
AcDbText
  0
TEXT
  5
159A
330
1F
100
AcDbEntity
  8
LOGO
 62
     7
100
AcDbText
 10
703.6550834915122
 20
63.97388598974766
 30
0.0
 40
5.224715370570135
  1
訂購代號：
  7
CHINESET
100
AcDbText
  0
LINE
  5
159B
330
1F
100
AcDbEntity
  8
LOGO
 62
     4
100
AcDbLine
 10
701.5167410289474
 20
44.391058658391
 30
0.0
 11
701.5167410289474
 21
70.51463551124185
 31
0.0
  0
TEXT
  5
159C
330
1F
100
AcDbEntity
  8
LOGO
  6
Continuous
100
AcDbText
 10
653.4285781859698
 20
49.52299590721867
 30
0.0
 40
3.918536527927601
  1
金器工業股份有限公司
  7
CHINESET
100
AcDbText
  0
TEXT
  5
159D
330
1F
100
AcDbEntity
  8
LOGO
  6
Continuous
100
AcDbText
 10
646.2310018283882
 20
45.60369165335678
 30
0.0
 40
2.612357685285067
  1
MINDMAN INDUSTRIAL CO., LTD.
 41
0.85
  7
CHINESET
100
AcDbText
  0
LINE
  5
159E
330
1F
100
AcDbEntity
  8
LOGO
 62
     4
100
AcDbLine
 10
701.5167410289474
 20
65.28992014067167
 30
0.0
 11
663.2021616447661
 21
65.28992014067167
 31
0.0
  0
LINE
  5
159F
330
1F
100
AcDbEntity
  8
LOGO
 62
     4
100
AcDbLine
 10
701.5167410289474
 20
60.0652047701015
 30
0.0
 11
663.2021616447661
 21
60.0652047701015
 31
0.0
  0
LINE
  5
15A0
330
1F
100
AcDbEntity
  8
LOGO
 62
     4
100
AcDbLine
 10
701.5167410289474
 20
54.84048939953163
 30
0.0
 11
644.0448719526759
 21
54.84048939953163
 31
0.0
  0
LINE
  5
15A1
330
1F
100
AcDbEntity
  8
LOGO
 62
     4
100
AcDbLine
 10
663.2021616447661
 20
54.84048939953163
 30
0.0
 11
663.2021616447661
 21
70.51463551124185
 31
0.0
  0
TEXT
  5
15A2
330
1F
100
AcDbEntity
  8
LOGO
100
AcDbText
 10
689.3883682332528
 20
56.14666824217374
 30
0.0
 40
2.612357685285067
  1
mm
  7
CHINESET
 72
     1
 11
692.6227158436058
 21
57.45284708481626
 31
0.0
100
AcDbText
 73
     2
  0
TEXT
  5
15A3
330
1F
100
AcDbEntity
  8
LOGO
100
AcDbText
 10
688.0199903981035
 20
66.59609898331407
 30
0.0
 40
2.612357685285067
  1
1 : 1
  7
CHINESET
 72
     1
 11
692.6227158436058
 21
67.9022778259566
 31
0.0
100
AcDbText
 73
     2
  0
LINE
  5
15A4
330
1F
100
AcDbEntity
  8
LOGO
 62
     4
100
AcDbLine
 10
684.101023127047
 20
54.84048939953163
 30
0.0
 11
684.101023127047
 21
70.51463551124185
 31
0.0
  0
TEXT
  5
15A5
330
1F
100
AcDbEntity
  8
LOGO
100
AcDbText
 10
665.356190504017
 20
66.59738459241116
 30
171.2096190857047
 40
2.612357685285067
  1
比例 Scale:
 41
0.9
  7
CHINESET
 72
     4
 11
673.6515923859066
 21
67.9022778259566
 31
171.2096190857047
100
AcDbText
  0
TEXT
  5
15A6
330
1F
100
AcDbEntity
  8
LOGO
100
AcDbText
 10
665.2057466908912
 20
61.40813060610237
 30
171.2096190857047
 40
2.612357685285067
  1
投影  View:
 41
0.9
  7
CHINESET
 72
     4
 11
673.6515923859066
 21
62.67756245538643
 31
171.2096190857047
100
AcDbText
  0
TEXT
  5
15A7
330
1F
100
AcDbEntity
  8
LOGO
100
AcDbText
 10
665.4611513038722
 20
56.14666824217374
 30
171.2096190857047
 40
2.612357685285067
  1
單位  Unit:
 41
0.9
  7
CHINESET
 72
     4
 11
673.6515923859066
 21
57.45284708481626
 31
171.2096190857047
100
AcDbText
  0
LWPOLYLINE
  5
15A8
330
1F
100
AcDbEntity
  8
LOGO
 62
     4
100
AcDbPolyline
 90
        4
 70
     1
 43
0.0
 10
644.0448719526759
 20
70.51463551124182
 10
981.0227371133652
 20
70.51463551124186
 10
981.0227371133652
 20
266.4752400071687
 10
644.0448719526759
 20
266.4752400071687
1001
GENIUS_GENREC_14
1002
{
1000
PYDIR
1011
644.0448719526759
1021
266.4752400071687
1031
0.0
1002
}
1002
{
1000
PXDIR
1011
981.0227371133652
1021
70.51463551124186
1031
0.0
1002
}
1002
{
1000
PORI
1011
644.0448719526759
1021
70.51463551124182
1031
0.0
1002
}
1002
{
1000
PINS
1011
644.0448719526759
1021
70.51463551124182
1031
0.0
1002
}
1002
{
1000
PINS2
1011
981.0227371133652
1021
266.4752400071687
1031
0.0
1002
}
1002
{
1000
C
1070
     1
1002
}
1001
GENIUS_GENODEF_13
1002
{
1000
HIER
1070
     0
1002
}
1002
{
1000
MANEDIT
1070
     0
1002
}
1002
{
1000
NOSEL
1070
     0
1002
}
1002
{
1000
BEHIND
1070
     0
1002
}
1002
{
1000
OTHER
1070
     0
1002
}
1002
{
1000
REACTOR
1002
}
1001
GENIUS_GENOBJ-N-REC_13
1002
{
1000
OWNER
1000
GEN
1002
}
  0
SOLID
  5
15A9
330
1F
100
AcDbEntity
  8
LOGO
 62
     5
100
AcDbTrace
 10
646.7552349763111
 20
59.18316221148207
 30
0.0
 11
647.8847498911626
 21
59.18316221148176
 31
0.0
 12
652.5975535014054
 22
69.89407950748885
 32
0.0
 13
653.7270684162575
 23
69.89407950748828
 33
0.0
  0
SOLID
  5
15AA
330
1F
100
AcDbEntity
  8
LOGO
 62
     5
100
AcDbTrace
 10
648.3521353731714
 20
59.18316221148207
 30
0.0
 11
649.481650288023
 21
59.18316221148207
 31
0.0
 12
653.7270684162575
 22
69.03720612380789
 32
0.0
 13
652.5975535014054
 23
64.89565143601859
 33
0.0
  0
SOLID
  5
15AB
330
1F
100
AcDbEntity
  8
LOGO
 62
     2
100
AcDbTrace
 10
647.8847498911626
 20
59.18316221148176
 30
0.0
 11
648.3521353731714
 21
59.18316221148207
 31
0.0
 12
653.7270684162575
 22
69.89407950748828
 32
0.0
 13
654.1944538982654
 23
69.89407950748828
 33
0.0
  0
SOLID
  5
15AC
330
1F
100
AcDbEntity
  8
LOGO
 62
     5
100
AcDbTrace
 10
644.9443455768174
 20
55.28828319475268
 30
0.0
 11
645.3338334784907
 21
55.28828319475268
 31
0.0
 12
646.4306617249174
 22
57.2357227031172
 32
0.0
 13
646.8201496265894
 23
57.2357227031172
 33
0.0
  0
SOLID
  5
15AD
330
1F
100
AcDbEntity
  8
LOGO
 62
     5
100
AcDbTrace
 10
646.4306617249174
 20
57.2357227031172
 30
0.0
 11
646.8201496265894
 21
57.2357227031172
 31
0.0
 12
646.4306617249174
 22
55.28828319475268
 32
0.0
 13
646.8201496265894
 23
55.28828319475268
 33
0.0
  0
SOLID
  5
15AE
330
1F
100
AcDbEntity
  8
LOGO
 62
     5
100
AcDbTrace
 10
646.4306617249174
 20
55.28828319475268
 30
0.0
 11
646.8201496265894
 21
55.28828319475268
 31
0.0
 12
647.9169778730177
 22
57.2357227031172
 32
0.0
 13
648.3064657746904
 23
57.2357227031172
 33
0.0
  0
SOLID
  5
15AF
330
1F
100
AcDbEntity
  8
LOGO
 62
     5
100
AcDbTrace
 10
647.9169778730177
 20
57.2357227031172
 30
0.0
 11
648.3064657746904
 21
57.2357227031172
 31
0.0
 12
647.9169778730177
 22
55.28828319475268
 32
0.0
 13
648.3064657746904
 23
55.28828319475268
 33
0.0
  0
POLYLINE
  5
15B0
330
1F
100
AcDbEntity
  8
LOGO
 62
     5
100
AcDb2dPolyline
 66
     1
 10
0.0
 20
0.0
 30
0.0
 40
0.39011208100257
 41
0.39011208100257
  0
VERTEX
  5
15B1
330
15B0
100
AcDbEntity
  8
LOGO
 62
     5
100
AcDbVertex
100
AcDb2dVertex
 10
660.9724796563696
 20
56.45674689977134
 30
0.0
 42
1.0
  0
VERTEX
  5
15B2
330
15B0
100
AcDbEntity
  8
LOGO
 62
     5
100
AcDbVertex
100
AcDb2dVertex
 10
659.8021434133616
 20
56.45674689977134
 30
0.0
 42
1.0
  0
SEQEND
  5
15B3
330
15B0
100
AcDbEntity
  8
LOGO
 62
     5
  0
POLYLINE
  5
15B4
330
1F
100
AcDbEntity
  8
LOGO
 62
     5
100
AcDb2dPolyline
 66
     1
 10
0.0
 20
0.0
 30
0.0
 70
     1
  0
VERTEX
  5
15B5
330
15B4
100
AcDbEntity
  8
LOGO
 62
     5
100
AcDbVertex
100
AcDb2dVertex
 10
657.5960075387354
 20
56.26200294893464
 30
0.0
 42
1.000000057330635
  0
VERTEX
  5
15B6
330
15B4
100
AcDbEntity
  8
LOGO
 62
     5
100
AcDbVertex
100
AcDb2dVertex
 10
658.7644712437543
 20
56.26200294893464
 30
0.0
 42
1.000000057330635
  0
SEQEND
  5
15B7
330
15B4
100
AcDbEntity
  8
LOGO
 62
     5
  0
CIRCLE
  5
15B8
330
1F
100
AcDbEntity
  8
LOGO
 62
     5
100
AcDbCircle
 10
658.1802393912457
 20
56.26200294893464
 30
0.0
 40
0.5842318525094489
  0
POLYLINE
  5
15B9
330
1F
100
AcDbEntity
  8
LOGO
 62
     5
100
AcDb2dPolyline
 66
     1
 10
0.0
 20
0.0
 30
0.0
 70
     1
 40
0.39011208100257
 41
0.39011208100257
  0
VERTEX
  5
15BA
330
15B9
100
AcDbEntity
  8
LOGO
 62
     5
100
AcDbVertex
100
AcDb2dVertex
 10
657.4000152292398
 20
56.26200294893464
 30
0.0
 42
1.0
  0
VERTEX
  5
15BB
330
15B9
100
AcDbEntity
  8
LOGO
 62
     5
100
AcDbVertex
100
AcDb2dVertex
 10
658.9604635532502
 20
56.26200294893464
 30
0.0
 42
1.0
  0
SEQEND
  5
15BC
330
15B9
100
AcDbEntity
  8
LOGO
 62
     5
  0
LINE
  5
15BD
330
1F
100
AcDbEntity
  8
LOGO
100
AcDbLine
 10
661.1662873382108
 20
55.28828319475268
 30
0.0
 11
661.1662873382108
 21
56.45674689977134
 31
0.0
  0
SOLID
  5
15BE
330
1F
100
AcDbEntity
  8
LOGO
 62
     5
100
AcDbTrace
 10
658.7644322949658
 20
57.2357227031172
 30
0.0
 11
659.153920196638
 21
57.2357227031172
 31
0.0
 12
658.7644322949658
 22
55.28828319475268
 32
0.0
 13
659.153920196638
 23
55.28828319475268
 33
0.0
  0
SOLID
  5
15BF
330
1F
100
AcDbEntity
  8
LOGO
 62
     5
100
AcDbTrace
 10
659.608335731519
 20
55.28828319475268
 30
0.0
 11
659.9978236331923
 21
55.28828319475268
 31
0.0
 12
659.608335731519
 22
57.2357227031172
 32
0.0
 13
659.9978236331923
 23
57.2357227031172
 33
0.0
  0
SOLID
  5
15C0
330
1F
100
AcDbEntity
  8
LOGO
 62
     5
100
AcDbTrace
 10
660.7767994365387
 20
56.45674689977134
 30
0.0
 11
661.1662873382108
 21
56.45674689977134
 31
0.0
 12
660.7767994365387
 22
55.28828319475268
 32
0.0
 13
661.1662873382108
 23
55.28828319475268
 33
0.0
  0
SOLID
  5
15C1
330
1F
100
AcDbEntity
  8
LOGO
 62
     5
100
AcDbTrace
 10
659.5693869413516
 20
69.03720612380789
 30
0.0
 11
658.4398720265007
 21
64.89565143601859
 31
0.0
 12
659.5693869413516
 22
59.18316221148176
 32
0.0
 13
658.4398720265007
 23
59.18316221148176
 33
0.0
  0
SOLID
  5
15C2
330
1F
100
AcDbEntity
  8
LOGO
 62
     5
100
AcDbTrace
 10
660.0367724233598
 20
59.18316221148176
 30
0.0
 11
661.1662873382108
 21
59.18316221148176
 31
0.0
 12
660.0367724233598
 22
69.89407950748828
 32
0.0
 13
661.1662873382108
 23
69.89407950748885
 33
0.0
  0
SOLID
  5
15C3
330
1F
100
AcDbEntity
  8
LOGO
 62
     2
100
AcDbTrace
 10
659.5693869413516
 20
69.89407950748885
 30
0.0
 11
660.0367724233598
 21
69.89407950748828
 31
0.0
 12
659.5693869413516
 22
59.18316221148176
 32
0.0
 13
660.0367724233598
 23
59.18316221148176
 33
0.0
  0
POLYLINE
  5
15C4
330
1F
100
AcDbEntity
  8
LOGO
 62
     5
100
AcDb2dPolyline
 66
     1
 10
0.0
 20
0.0
 30
0.0
 40
0.39011208100257
 41
0.39011208100257
  0
VERTEX
  5
15C5
330
15C4
100
AcDbEntity
  8
LOGO
 62
     5
100
AcDbVertex
100
AcDb2dVertex
 10
655.3897937665303
 20
56.45674689977134
 30
0.0
 42
1.0
  0
VERTEX
  5
15C6
330
15C4
100
AcDbEntity
  8
LOGO
 62
     5
100
AcDbVertex
100
AcDb2dVertex
 10
654.2194575235225
 20
56.45674689977134
 30
0.0
 42
1.0
  0
SEQEND
  5
15C7
330
15C4
100
AcDbEntity
  8
LOGO
 62
     5
  0
POLYLINE
  5
15C8
330
1F
100
AcDbEntity
  8
LOGO
 62
     5
100
AcDb2dPolyline
 66
     1
 10
0.0
 20
0.0
 30
0.0
 40
0.39011208100257
 41
0.39011208100257
  0
VERTEX
  5
15C9
330
15C8
100
AcDbEntity
  8
LOGO
 62
     5
100
AcDbVertex
100
AcDb2dVertex
 10
656.5582574715481
 20
56.45674689977134
 30
0.0
 42
1.0
  0
VERTEX
  5
15CA
330
15C8
100
AcDbEntity
  8
LOGO
 62
     5
100
AcDbVertex
100
AcDb2dVertex
 10
655.3879212285409
 20
56.45674689977134
 30
0.0
 42
1.0
  0
SEQEND
  5
15CB
330
15C8
100
AcDbEntity
  8
LOGO
 62
     5
  0
POLYLINE
  5
15CC
330
1F
100
AcDbEntity
  8
LOGO
 62
     5
100
AcDb2dPolyline
 66
     1
 10
0.0
 20
0.0
 30
0.0
 40
0.39011208100257
 41
0.39011208100257
  0
VERTEX
  5
15CD
330
15CC
100
AcDbEntity
  8
LOGO
 62
     5
100
AcDbVertex
100
AcDb2dVertex
 10
650.9755715817089
 20
56.45674689977134
 30
0.0
 42
1.0
  0
VERTEX
  5
15CE
330
15CC
100
AcDbEntity
  8
LOGO
 62
     5
100
AcDbVertex
100
AcDb2dVertex
 10
649.8052353387016
 20
56.45674689977134
 30
0.0
 42
1.0
  0
SEQEND
  5
15CF
330
15CC
100
AcDbEntity
  8
LOGO
 62
     5
  0
SOLID
  5
15D0
330
1F
100
AcDbEntity
  8
LOGO
 62
     5
100
AcDbTrace
 10
649.6114276568598
 20
57.2357227031172
 30
0.0
 11
650.0009155585321
 21
57.2357227031172
 31
0.0
 12
649.6114276568598
 22
55.28828319475268
 32
0.0
 13
650.0009155585321
 23
55.28828319475268
 33
0.0
  0
SOLID
  5
15D1
330
1F
100
AcDbEntity
  8
LOGO
 62
     5
100
AcDbTrace
 10
650.7798913618785
 20
56.45674689977134
 30
0.0
 11
651.1693792635521
 21
56.45674689977134
 31
0.0
 12
650.7798913618785
 22
55.28828319475268
 32
0.0
 13
651.1693792635521
 23
55.28828319475268
 33
0.0
  0
POLYLINE
  5
15D2
330
1F
100
AcDbEntity
  8
LOGO
 62
     5
100
AcDb2dPolyline
 66
     1
 10
0.0
 20
0.0
 30
0.0
 70
     1
 40
0.39011208100257
 41
0.39011208100257
  0
VERTEX
  5
15D3
330
15D2
100
AcDbEntity
  8
LOGO
 62
     5
100
AcDbVertex
100
AcDb2dVertex
 10
651.8173293394003
 20
56.26200294893464
 30
0.0
 42
1.0
  0
VERTEX
  5
15D4
330
15D2
100
AcDbEntity
  8
LOGO
 62
     5
100
AcDbVertex
100
AcDb2dVertex
 10
653.3777776634109
 20
56.26200294893464
 30
0.0
 42
1.0
  0
SEQEND
  5
15D5
330
15D2
100
AcDbEntity
  8
LOGO
 62
     5
  0
SOLID
  5
15D6
330
1F
100
AcDbEntity
  8
LOGO
 62
     5
100
AcDbTrace
 10
653.1817464051251
 20
57.819954555627
 30
0.0
 11
653.5712343067983
 21
57.819954555627
 31
0.0
 12
653.1817464051251
 22
55.28828319475268
 32
0.0
 13
653.5712343067983
 23
55.28828319475268
 33
0.0
  0
SOLID
  5
15D7
330
1F
100
AcDbEntity
  8
LOGO
 62
     5
100
AcDbTrace
 10
654.025649841681
 20
57.2357227031172
 30
0.0
 11
654.4151377433534
 21
57.2357227031172
 31
0.0
 12
654.025649841681
 22
55.28828319475268
 32
0.0
 13
654.4151377433534
 23
55.28828319475268
 33
0.0
  0
SOLID
  5
15D8
330
1F
100
AcDbEntity
  8
LOGO
 62
     5
100
AcDbTrace
 10
655.194113546699
 20
56.45674689977134
 30
0.0
 11
655.5836014483722
 21
56.45674689977134
 31
0.0
 12
655.194113546699
 22
55.28828319475268
 32
0.0
 13
655.5836014483722
 23
55.28828319475268
 33
0.0
  0
SOLID
  5
15D9
330
1F
100
AcDbEntity
  8
LOGO
 62
     5
100
AcDbTrace
 10
656.362577251718
 20
56.45674689977134
 30
0.0
 11
656.7520651533905
 21
56.45674689977134
 31
0.0
 12
656.362577251718
 22
55.28828319475208
 32
0.0
 13
656.7520651533905
 23
55.28828319475208
 33
0.0
  0
SOLID
  5
15DA
330
1F
100
AcDbEntity
  8
LOGO
 62
     5
100
AcDbTrace
 10
648.7675242203047
 20
57.5083642342884
 30
0.0
 11
649.1570121219786
 21
57.5083642342884
 31
0.0
 12
648.7675242203047
 22
57.819954555627
 32
0.0
 13
649.1570121219786
 23
57.819954555627
 33
0.0
  0
SOLID
  5
15DB
330
1F
100
AcDbEntity
  8
LOGO
 62
     5
100
AcDbTrace
 10
648.7675242203047
 20
57.2357227031172
 30
0.0
 11
649.1570121219786
 21
57.2357227031172
 31
0.0
 12
648.7675242203047
 22
55.28828319475208
 32
0.0
 13
649.1570121219786
 23
55.28828319475268
 33
0.0
  0
SOLID
  5
15DC
330
1F
100
AcDbEntity
  8
LOGO
 62
     5
100
AcDbTrace
 10
652.5975535014054
 20
59.18316221148207
 30
0.0
 11
653.7270684162575
 21
59.18316221148207
 31
0.0
 12
652.5975535014054
 22
64.89565143601859
 32
0.0
 13
653.7270684162575
 23
69.03720612380789
 33
0.0
  0
SOLID
  5
15DD
330
1F
100
AcDbEntity
  8
LOGO
 62
     5
100
AcDbTrace
 10
654.1944538982654
 20
69.89407950748828
 30
0.0
 11
655.3239688131167
 21
69.89407950748885
 31
0.0
 12
654.1944538982654
 22
60.04003559516245
 32
0.0
 13
655.3239688131167
 23
64.18159028295173
 33
0.0
  0
SOLID
  5
15DE
330
1F
100
AcDbEntity
  8
LOGO
 62
     2
100
AcDbTrace
 10
653.7270684162575
 20
69.89407950748828
 30
0.0
 11
654.1944538982654
 21
69.89407950748828
 31
0.0
 12
653.7270684162575
 22
59.18316221148207
 32
0.0
 13
654.1944538982654
 23
59.18316221148207
 33
0.0
  0
SOLID
  5
15DF
330
1F
100
AcDbEntity
  8
LOGO
 62
     5
100
AcDbTrace
 10
654.1944538982654
 20
60.04003559516245
 30
0.0
 11
655.3239688131167
 21
64.18159028295173
 31
0.0
 12
659.5693869413516
 22
69.89407950748885
 32
0.0
 13
658.4398720265007
 23
69.89407950748885
 33
0.0
  0
SOLID
  5
15E0
330
1F
100
AcDbEntity
  8
LOGO
 62
     5
100
AcDbTrace
 10
654.1944538982654
 20
59.18316221148207
 30
0.0
 11
655.3239688131167
 21
59.18316221148207
 31
0.0
 12
659.5693869413516
 22
69.03720612380789
 32
0.0
 13
658.4398720265007
 23
64.89565143601859
 33
0.0
  0
SOLID
  5
15E1
330
1F
100
AcDbEntity
  8
LOGO
 62
     2
100
AcDbTrace
 10
653.7270684162575
 20
59.18316221148207
 30
0.0
 11
654.1944538982654
 21
59.18316221148207
 31
0.0
 12
659.5693869413516
 22
69.89407950748885
 32
0.0
 13
660.0367724233598
 23
69.89407950748828
 33
0.0
  0
LWPOLYLINE
  5
15E2
330
1F
100
AcDbEntity
  8
LOGO
 62
     4
100
AcDbPolyline
 90
        4
 70
     1
 43
0.0
 10
644.0448719526759
 20
70.51463551124182
 10
981.0227371133652
 20
70.51463551124186
 10
981.0227371133652
 20
44.3910586583907
 10
644.0448719526759
 20
44.3910586583907
1001
GENIUS_GENREC_14
1002
{
1000
PYDIR
1011
644.0448719526759
1021
44.3910586583907
1031
0.0
1002
}
1002
{
1000
PXDIR
1011
981.0227371133652
1021
70.51463551124186
1031
0.0
1002
}
1002
{
1000
PORI
1011
644.0448719526759
1021
70.51463551124182
1031
0.0
1002
}
1002
{
1000
PINS
1011
644.0448719526759
1021
70.51463551124182
1031
0.0
1002
}
1002
{
1000
PINS2
1011
981.0227371133652
1021
44.3910586583907
1031
0.0
1002
}
1002
{
1000
C
1070
     1
1002
}
1001
GENIUS_GENOBJ-N-REC_13
1002
{
1000
OWNER
1000
GEN
1002
}
1001
GENIUS_GENODEF_13
1002
{
1000
HIER
1070
     0
1002
}
1002
{
1000
MANEDIT
1070
     0
1002
}
1002
{
1000
NOSEL
1070
     0
1002
}
1002
{
1000
BEHIND
1070
     0
1002
}
1002
{
1000
OTHER
1070
     0
1002
}
1002
{
1000
REACTOR
1002
}
  0
LINE
  5
15E3
330
1F
100
AcDbEntity
  8
LOGO
 62
     4
100
AcDbLine
 10
757.6066228074385
 20
56.14666824217426
 30
0.0
 11
757.6066228074385
 21
46.56802339612851
 31
0.0
  0
LINE
  5
15E4
330
1F
100
AcDbEntity
  8
LOGO
 62
     4
100
AcDbLine
 10
746.0028173506574
 20
56.14666824217426
 30
0.0
 11
746.0028173506574
 21
46.56802339612851
 31
0.0
  0
LINE
  5
15E5
330
1F
100
AcDbEntity
  8
LOGO
 62
     4
100
AcDbLine
 10
757.6066228074385
 20
46.56802339612851
 30
0.0
 11
746.0028173506574
 21
46.56802339612851
 31
0.0
  0
LINE
  5
15E6
330
1F
100
AcDbEntity
  8
LOGO
 62
     4
100
AcDbLine
 10
766.1482200756369
 20
67.9022778259566
 30
0.0
 11
737.4485615668445
 21
67.9022778259566
 31
0.0
  0
LINE
  5
15E7
330
1F
100
AcDbEntity
  8
LOGO
 62
     4
100
AcDbLine
 10
766.1482200756369
 20
60.0652047701015
 30
0.0
 11
737.4485615668445
 21
60.0652047701015
 31
0.0
  0
LINE
  5
15E8
330
1F
100
AcDbEntity
  8
LOGO
 62
     4
100
AcDbLine
 10
737.4485615668445
 20
67.9022778259566
 30
0.0
 11
737.4485615668445
 21
60.0652047701015
 31
0.0
  0
LINE
  5
15E9
330
1F
100
AcDbEntity
  8
LOGO
 62
     4
100
AcDbLine
 10
766.1482200756369
 20
67.9022778259566
 30
0.0
 11
766.1482200756369
 21
60.0652047701015
 31
0.0
  0
LINE
  5
15EA
330
1F
100
AcDbEntity
  8
LOGO
 62
     4
100
AcDbLine
 10
751.8496672620036
 20
60.0652047701015
 30
0.0
 11
751.8496672620036
 21
56.14666824217426
 31
0.0
  0
TEXT
  5
15EB
330
1F
100
AcDbEntity
  8
LOGO
  6
Continuous
100
AcDbText
 10
741.3248225213871
 20
61.70118231271162
 30
0.0
 40
4.572287999999999
  1
MCHGF
  7
CHINESET
100
AcDbText
  0
LINE
  5
15EC
330
1F
100
AcDbEntity
  8
LOGO
 62
     4
100
AcDbLine
 10
757.6066228074385
 20
56.14666824217426
 30
0.0
 11
746.0028173506574
 21
56.14666824217426
 31
0.0
  0
TEXT
  5
15ED
330
1F
100
AcDbEntity
  8
LOGO
  6
Continuous
100
AcDbText
 10
749.0025218435796
 20
47.92002880415958
 30
171.2096190857047
 40
1.959551999999999
  1
Model
 41
0.8
  7
CHINESET
100
AcDbText
  0
TEXT
  5
15EE
330
1F
100
AcDbEntity
  8
LOGO
100
AcDbText
 10
748.4809528022973
 20
51.55261589856223
 30
171.2096190857047
 40
3.265919999999999
  1
型號
  7
CHINESET
100
AcDbText
  0
TEXT
  5
15F0
330
1F
100
AcDbEntity
  8
LOGO
100
AcDbText
 10
702.7271374762015
 20
45.78082263615246
 30
0.0
 40
2.612735999999999
  1
01206190
 41
0.7
  7
CHINESET
 72
     1
 11
709.0847950762015
 21
45.78082263615246
 31
0.0
100
AcDbText
  0
LINE
  5
15F1
330
1F
100
AcDbEntity
  8
LOGO
 62
     4
100
AcDbLine
 10
717.1931570289464
 20
49.61577402896176
 30
0.0
 11
717.1931570289475
 21
44.3910586583913
 31
0.0
  0
LINE
  5
15F2
330
1F
100
AcDbEntity
  8
LOGO
 62
     4
100
AcDbLine
 10
717.1931570289464
 20
49.61577402896176
 30
0.0
 11
701.5167410289474
 21
49.61577402896176
 31
0.0
  0
CIRCLE
  5
15F3
330
1F
100
AcDbEntity
  8
LOGO
  6
Continuous
100
AcDbCircle
 10
688.9381301298861
 20
62.68315030759224
 30
0.0
 40
1.516796360045102
  0
CIRCLE
  5
15F4
330
1F
100
AcDbEntity
  8
LOGO
  6
Continuous
100
AcDbCircle
 10
688.9381301298861
 20
62.68315030759224
 30
0.0
 40
0.8887083926017385
  0
LINE
  5
15F5
330
1F
100
AcDbEntity
  8
LOGO
100
AcDbLine
 10
698.4698544580164
 20
61.16635394754685
 30
0.0
 11
698.4698544580164
 21
64.19994666763763
 31
0.0
  0
LINE
  5
15F6
330
1F
100
AcDbEntity
  8
LOGO
100
AcDbLine
 10
693.7147849375407
 20
61.79444191499067
 30
0.0
 11
693.7147849375407
 21
63.57185870019413
 31
0.0
  0
LINE
  5
15F7
330
1F
100
AcDbEntity
  8
LOGO
  6
Continuous
100
AcDbLine
 10
693.7147849375407
 20
63.57185870019413
 30
0.0
 11
698.4698544580164
 21
64.19994666763763
 31
0.0
  0
LINE
  5
15F8
330
1F
100
AcDbEntity
  8
LOGO
  6
Continuous
100
AcDbLine
 10
693.7147849375407
 20
61.79444191499067
 30
0.0
 11
698.4698544580164
 21
61.16635394754685
 31
0.0
  0
LINE
  5
15F9
330
1F
100
AcDbEntity
  8
LOGO
  6
AM_ISO08W050x2
 48
0.3
100
AcDbLine
 10
686.8472036353271
 20
62.68315030759224
 30
0.0
 11
691.0290566244455
 21
62.68315030759224
 31
0.0
1001
GENIUS_GENOREF_13
1005
16B6
  0
LINE
  5
15FA
330
1F
100
AcDbEntity
  8
LOGO
  6
AM_ISO08W050x2
 48
0.3
100
AcDbLine
 10
688.9381301298861
 20
60.59222381303306
 30
0.0
 11
688.9381301298861
 21
64.77407680215143
 31
0.0
1001
GENIUS_GENOREF_13
1005
16B5
  0
LINE
  5
15FB
330
1F
100
AcDbEntity
  8
LOGO
  6
CENTER
 48
0.5
100
AcDbLine
 10
693.3345115424414
 20
62.68315030759224
 30
0.0
 11
698.9486745657748
 21
62.68315030759224
 31
0.0
1001
GENIUS_GENOREF_13
1005
16B4
  0
POINT
  5
16B4
330
1F
100
AcDbEntity
  8
0
 60
     1
100
AcDbPoint
 10
-1930.92695728958
 20
-494.9154325062304
 30
0.0
1001
GENIUS_GENOBJ-N-CRS_13
1002
{
1000
OWNER
1000
GEN
1002
}
1001
GENIUS_GENOLIS_13
1002
{
1000
ENT
1005
0
1005
0
1005
0
1005
15FB
1002
}
1001
GENIUS_GENOENT_13
1002
{
1000
MYREF
1005
16B4
1002
}
1002
{
1000
GRP
1005
0
1002
}
1001
GENIUS_GENODEF_13
1002
{
1000
HIER
1070
    10
1002
}
1002
{
1000
MANEDIT
1070
     1
1002
}
1002
{
1000
NOSEL
1070
     0
1002
}
1002
{
1000
BEHIND
1070
     0
1002
}
1002
{
1000
OTHER
1070
     0
1002
}
1002
{
1000
REACTOR
1002
}
  0
POINT
  5
16B5
330
1F
100
AcDbEntity
  8
0
 60
     1
100
AcDbPoint
 10
-1942.251542512434
 20
-486.0398460275941
 30
0.0
1001
GENIUS_GENOBJ-N-CRS_13
1002
{
1000
OWNER
1000
GEN
1002
}
1001
GENIUS_GENOLIS_13
1002
{
1000
ENT
1005
0
1005
0
1005
0
1005
15FA
1002
}
1001
GENIUS_GENOENT_13
1002
{
1000
MYREF
1005
16B5
1002
}
1002
{
1000
GRP
1005
0
1002
}
1001
GENIUS_GENODEF_13
1002
{
1000
HIER
1070
    10
1002
}
1002
{
1000
MANEDIT
1070
     1
1002
}
1002
{
1000
NOSEL
1070
     0
1002
}
1002
{
1000
BEHIND
1070
     0
1002
}
1002
{
1000
OTHER
1070
     0
1002
}
1002
{
1000
REACTOR
1002
}
  0
POINT
  5
16B6
330
1F
100
AcDbEntity
  8
0
 60
     1
100
AcDbPoint
 10
-1935.892868814597
 20
-494.9154325062304
 30
0.0
1001
GENIUS_GENOBJ-N-CRS_13
1002
{
1000
OWNER
1000
GEN
1002
}
1001
GENIUS_GENOLIS_13
1002
{
1000
ENT
1005
0
1005
0
1005
0
1005
15F9
1002
}
1001
GENIUS_GENOENT_13
1002
{
1000
MYREF
1005
16B6
1002
}
1002
{
1000
GRP
1005
0
1002
}
1001
GENIUS_GENODEF_13
1002
{
1000
HIER
1070
    10
1002
}
1002
{
1000
MANEDIT
1070
     1
1002
}
1002
{
1000
NOSEL
1070
     0
1002
}
1002
{
1000
BEHIND
1070
     0
1002
}
1002
{
1000
OTHER
1070
     0
1002
}
1002
{
1000
REACTOR
1002
}
  0
MTEXT
  5
7BA1
330
1F
100
AcDbEntity
  8
AM_VIS
100
AcDbMText
 10
315.4333775501655
 20
376.163241097652
 30
0.0
 40
3.5
 41
0.0
 71
     9
 72
     1
  1

 73
     1
 44
1.0
1001
ACAD
1000
MTEXTBEGIN
1070
    73
1070
     1
1070
    44
1040
1.0
1070
    74
1070
     0
1000
MTEXTEND
  0
LINE
  5
99DA
102
{ACAD_REACTORS
330
A58C
102
}
330
1F
100
AcDbEntity
  8
AM_7
100
AcDbLine
 10
657.1800489127467
 20
169.7888412305845
 30
0.0
 11
794.9681939109516
 21
169.7888412305845
 31
0.0
  0
LINE
  5
99DB
330
1F
100
AcDbEntity
  8
AM_7
100
AcDbLine
 10
726.0741214118492
 20
238.6829137296869
 30
0.0
 11
726.0741214118492
 21
100.8947687314821
 31
0.0
  0
LINE
  5
9C94
330
1F
100
AcDbEntity
  8
LOGO
  6
Continuous
 62
     7
100
AcDbLine
 10
768.2952758615605
 20
63.91213340583461
 30
0.0
 11
771.7942920887074
 21
63.91213340583461
 31
0.0
  0
LINE
  5
9C95
330
1F
100
AcDbEntity
  8
LOGO
 62
     4
100
AcDbLine
 10
791.8240627505389
 20
56.01605035791
 30
0.0
 11
791.8240627505389
 21
46.33097612468626
 31
0.0
  0
LINE
  5
9C96
330
1F
100
AcDbEntity
  8
LOGO
 62
     4
100
AcDbLine
 10
771.7010385939552
 20
56.01605035791
 30
0.0
 11
771.7010385939552
 21
46.33097612468626
 31
0.0
  0
LINE
  5
9C97
330
1F
100
AcDbEntity
  8
LOGO
 62
     4
100
AcDbLine
 10
791.8240627505389
 20
46.33097612468626
 30
0.0
 11
771.7010385939552
 21
46.33097612468626
 31
0.0
  0
LINE
  5
9C98
330
1F
100
AcDbEntity
  8
LOGO
 62
     4
100
AcDbLine
 10
788.235365571242
 20
67.90227782595659
 30
0.0
 11
774.0306264188809
 21
67.9022778259566
 31
0.0
  0
LINE
  5
9C99
330
1F
100
AcDbEntity
  8
LOGO
 62
     4
100
AcDbLine
 10
788.235365571242
 20
59.97812618059199
 30
0.0
 11
774.0306264188809
 21
59.97812618059199
 31
0.0
  0
LINE
  5
9C9A
330
1F
100
AcDbEntity
  8
LOGO
 62
     4
100
AcDbLine
 10
774.0306264188809
 20
67.9022778259566
 30
0.0
 11
774.0306264188809
 21
59.97812618059199
 31
0.0
  0
LINE
  5
9C9B
330
1F
100
AcDbEntity
  8
LOGO
 62
     4
100
AcDbLine
 10
788.235365571242
 20
67.9022778259566
 30
0.0
 11
788.235365571242
 21
59.97812618059199
 31
0.0
  0
LINE
  5
9C9C
330
1F
100
AcDbEntity
  8
LOGO
 62
     4
100
AcDbLine
 10
781.1329959950616
 20
59.97812618059199
 30
0.0
 11
781.1329959950616
 21
56.01605035791
 31
0.0
  0
LINE
  5
9C9E
330
1F
100
AcDbEntity
  8
LOGO
 62
     4
100
AcDbLine
 10
791.8240627505389
 20
56.01605035791
 30
0.0
 11
771.7010385939552
 21
56.01605035791
 31
0.0
  0
TEXT
  5
9C9F
330
1F
100
AcDbEntity
  8
LOGO
  6
Continuous
100
AcDbText
 10
773.4406227130729
 20
47.69800381502881
 30
173.111948186657
 40
1.981324799999999
  1
Body diameter
 41
0.8
  7
CHINESET
100
AcDbText
  0
TEXT
  5
9CA0
330
1F
100
AcDbEntity
  8
LOGO
100
AcDbText
 10
775.0433765740011
 20
51.37095298825784
 30
173.111948186657
 40
3.302207999999999
  1
本體寬度
  7
CHINESET
100
AcDbText
  0
TEXT
  5
9CA2
330
1F
100
AcDbEntity
  8
LOGO
  6
Continuous
 62
     7
100
AcDbText
 10
775.2247089686456
 20
61.63228125145366
 30
0.0
 40
4.623091199999998
  1
125
  7
CHINESET
100
AcDbText
  0
DIMENSION
  5
A516
330
1F
100
AcDbEntity
  8
AM_REFDIM
100
AcDbDimension
  2
*D6
 10
734.1741214234068
 20
94.6695194808478
 30
0.0
 11
726.0741213641103
 21
94.6695194808478
 31
0.0
 70
   160
 71
     5
 42
16.19999919785186
  3
AM_ISO$0
100
AcDbAlignedDimension
 13
717.9741222255549
 23
107.8159438222655
 33
0.0
 14
734.1741214234068
 24
104.24406194258
 34
0.0
100
AcDbRotatedDimension
1001
ACAD
1000
DSTYLE
1002
{
1070
    40
1040
1.005834825753484
1002
}
  0
DIMENSION
  5
A540
330
1F
100
AcDbEntity
  8
AM_REFDIM
100
AcDbDimension
  2
*D7
 10
741.0741216347239
 20
87.25326985188413
 30
0.0
 11
726.0741207870916
 21
87.25326985188413
 31
0.0
 70
   160
 71
     5
 42
30.00000072643161
  3
AM_ISO$0
100
AcDbAlignedDimension
 13
711.0741209082923
 23
104.24406194258
 33
0.0
 14
741.0741216347239
 24
104.24406194258
 34
0.0
100
AcDbRotatedDimension
1001
ACAD
1000
DSTYLE
1002
{
1070
    40
1040
1.005834825753484
1002
}
  0
DIMENSION
  5
A57E
102
{ACAD_XDICTIONARY
360
A58B
102
}
102
{ACAD_REACTORS
330
A58C
102
}
330
1F
100
AcDbEntity
  8
AM_REFDIM
100
AcDbDimension
  2
*D8
 10
814.7224387434803
 20
104.24406194258
 30
0.0
 11
814.7224387434803
 21
148.788840658355
 31
0.0
 70
   160
 71
     5
 42
65.54477928800451
  3
AM_ISO$0
100
AcDbAlignedDimension
 13
794.9681939109516
 23
169.7888412305845
 33
0.0
 14
741.0741216347239
 24
104.24406194258
 34
0.0
 50
89.9999999999998
100
AcDbRotatedDimension
1001
ACAD
1000
DSTYLE
1002
{
1070
    40
1040
1.005834825753484
1070
   271
1070
     0
1002
}
  0
DIMENSION
  5
A622
330
1F
100
AcDbEntity
  8
AM_REFDIM
100
AcDbDimension
  2
*D9
 10
941.0201248304167
 20
245.5606550054255
 30
0.0
 11
903.0201243507859
 21
245.5606550054255
 31
0.0
 70
   160
  1
<>
 71
     5
 42
76.0000009592618
  3
AM_ISO$0
100
AcDbAlignedDimension
 13
865.0201238711549
 23
230.7530930508112
 33
0.0
 14
941.0201248304167
 24
231.2888412305845
 34
0.0
100
AcDbRotatedDimension
1001
ACAD
1000
DSTYLE
1002
{
1070
    40
1040
1.005834825753484
1070
   271
1070
     1
1002
}
  0
DIMENSION
  5
A67B
330
1F
100
AcDbEntity
  8
AM_REFDIM
100
AcDbDimension
  2
*D10
 10
952.6252550727173
 20
107.2888412305845
 30
0.0
 11
952.6252550727173
 21
169.7888417584677
 31
0.0
 70
   160
 71
     5
 42
125.0000010557664
  3
AM_ISO$0
100
AcDbAlignedDimension
 13
940.0201278106496
 23
232.288842286351
 33
0.0
 14
940.0201278106496
 24
107.2888412305845
 34
0.0
 50
90.0
100
AcDbRotatedDimension
1001
ACAD
1000
DSTYLE
1002
{
1070
    40
1040
1.005834825753484
1002
}
  0
DIMENSION
  5
A6A1
330
1F
100
AcDbEntity
  8
AM_REFDIM
100
AcDbDimension
  2
*D11
 10
887.0201247112079
 20
95.47686247162387
 30
0.0
 11
914.0201247708125
 21
95.47686247162387
 31
0.0
 70
   160
 71
     5
 42
54.00000011920872
  3
AM_ISO$0
100
AcDbAlignedDimension
 13
941.0201248304167
 23
108.2888412305845
 33
0.0
 14
887.0201247112079
 24
104.24406194258
 34
0.0
100
AcDbRotatedDimension
1001
ACAD
1000
DSTYLE
1002
{
1070
    40
1040
1.005834825753484
1070
   271
1070
     0
1002
}
  0
DIMENSION
  5
A724
330
1F
100
AcDbEntity
  8
AM_REFDIM
100
AcDbDimension
  2
*D12
 10
865.0201248304167
 20
245.5606550054255
 30
0.0
 11
864.0201247829194
 21
245.5606550054255
 31
0.0
 70
   160
 71
     5
 42
2.00000009499422
  3
AM_ISO$0
100
AcDbAlignedDimension
 13
863.0201247354223
 23
189.7888418393161
 33
0.0
 14
865.0201248304167
 24
230.7530913608101
 34
0.0
100
AcDbRotatedDimension
1001
ACAD
1000
DSTYLE
1002
{
1070
    40
1040
1.005834825753484
1002
}
  0
DIMENSION
  5
A77B
330
1F
100
AcDbEntity
  8
AM_REFDIM
100
AcDbDimension
  2
*D13
 10
789.7742870731244
 20
124.7439011893825
 30
0.0
 11
789.7742870731244
 21
130.7439814579712
 31
0.0
 70
   160
 71
     5
 42
12.00016053717742
  3
AM_ISO$0
100
AcDbAlignedDimension
 13
726.0741214118495
 23
136.7440617265599
 33
0.0
 14
726.0120499491194
 24
124.7439011893825
 34
0.0
 50
90.0
100
AcDbRotatedDimension
1001
ACAD
1000
DSTYLE
1002
{
1070
    40
1040
1.005834825753484
1002
}
  0
DIMENSION
  5
A7A5
330
1F
100
AcDbEntity
  8
AM_REFDIM
100
AcDbDimension
  2
*D14
 10
805.7231565203515
 20
112.7440617265599
 30
0.0
 11
805.7231565203515
 21
124.7440617265599
 31
0.0
 70
   160
 71
     5
 42
24.0
  3
AM_ISO$0
100
AcDbAlignedDimension
 13
726.0741214118495
 23
136.7440617265599
 33
0.0
 14
726.0741214118496
 24
112.7440617265599
 34
0.0
 50
90.0
100
AcDbRotatedDimension
1001
ACAD
1000
DSTYLE
1002
{
1070
    40
1040
1.005834825753484
1002
}
  0
DIMENSION
  5
A7CB
330
1F
100
AcDbEntity
  8
AM_REFDIM
100
AcDbDimension
  2
*D15
 10
789.7742870731244
 20
104.24406194258
 30
0.0
 11
789.7742870731244
 21
108.4940618345701
 31
0.0
 70
   160
 71
     5
 42
8.49999978397993
  3
AM_ISO$0
100
AcDbAlignedDimension
 13
726.0741214118496
 23
112.7440617265599
 33
0.0
 14
741.0741216347239
 24
104.24406194258
 34
0.0
 50
90.0
100
AcDbRotatedDimension
1001
ACAD
1000
DSTYLE
1002
{
1070
    40
1040
1.005834825753484
1002
}
  0
LEADER
  5
A889
330
1F
100
AcDbEntity
  8
AM_REFDIM
100
AcDbLeader
  3
AM_ISO$7
 76
     3
 10
727.8480126976655
 20
228.5952420634134
 30
0.0
 10
734.2103886039572
 20
240.3061393470192
 30
0.0
 10
764.8296897425288
 20
240.3061393470192
 30
0.0
1001
ACAD
1000
DSTYLE
1002
{
1070
   147
1040
1.0
1070
    77
1070
     1
1070
    43
1040
12.0
1070
   271
1070
     1
1070
   272
1070
     8
1002
}
  0
MTEXT
  5
A88C
330
1F
100
AcDbEntity
  8
AM_REFDIM
100
AcDbMText
 10
735.0419760066868
 20
244.2707166254199
 30
0.0
 40
3.0
 41
33.65203381816716
 71
     1
 72
     5
  1
4X2-M6X1.0 DP12
 73
     1
 44
1.0
1001
ACAD
1000
MTEXTBEGIN
1070
    73
1070
     1
1070
    44
1040
1.0
1070
    74
1070
     0
1000
MTEXTEND
  0
LEADER
  5
A890
330
1F
100
AcDbEntity
  8
AM_REFDIM
100
AcDbLeader
  3
AM_ISO$7
 76
     3
 10
768.3317279781634
 20
212.7017697215884
 30
0.0
 10
779.1234725486552
 20
225.6776774699369
 30
0.0
 10
818.9949086597415
 20
225.6776774699369
 30
0.0
1001
ACAD
1000
DSTYLE
1002
{
1070
   147
1040
1.0
1070
    77
1070
     1
1070
    43
1040
12.0
1070
   271
1070
     1
1070
   272
1070
     8
1002
}
  0
MTEXT
  5
A895
330
1F
100
AcDbEntity
  8
AM_REFDIM
100
AcDbMText
 10
781.0193149578894
 20
229.6952155448854
 30
0.0
 40
3.0
 41
38.59614173293908
 71
     1
 72
     5
  1
%%C6.6 thru\P%%C11 C/B DP7 P.C.D 90
 73
     1
 44
1.0
1001
ACAD
1000
MTEXTBEGIN
1070
    73
1070
     1
1070
    44
1040
1.0
1070
    74
1070
     0
1000
MTEXTEND
  0
LINE
  5
BE93
330
1F
100
AcDbEntity
  8
0
  6
Continuous
 62
     7
370
    15
100
AcDbLine
 10
714.0741214000306
 20
149.7888412199866
 30
0.0
 11
738.0741213758162
 21
149.7888412199866
 31
0.0
  0
ARC
  5
BE94
330
1F
100
AcDbEntity
  8
0
  6
Continuous
 62
     7
370
    15
100
AcDbCircle
 10
714.0741214118492
 20
157.7888412305844
 30
0.0
 40
8.0
100
AcDbArc
 50
180.0
 51
270.0
  0
ARC
  5
BE95
330
1F
100
AcDbEntity
  8
0
  6
Continuous
 62
     7
370
    15
100
AcDbCircle
 10
714.0741214118492
 20
181.7888412305844
 30
0.0
 40
8.0
100
AcDbArc
 50
90.0
 51
180.0
  0
LINE
  5
BE96
330
1F
100
AcDbEntity
  8
0
  6
Continuous
 62
     7
370
    15
100
AcDbLine
 10
738.0741213758162
 20
189.7888418393161
 30
0.0
 11
714.0741214000306
 21
189.7888418393161
 31
0.0
  0
ARC
  5
BE97
330
1F
100
AcDbEntity
  8
0
  6
Continuous
 62
     7
370
    15
100
AcDbCircle
 10
738.0741214118492
 20
181.7888412305844
 30
0.0
 40
8.0
100
AcDbArc
 50
0.0
 51
90.0
  0
LINE
  5
BE98
330
1F
100
AcDbEntity
  8
0
  6
Continuous
 62
     7
370
    15
100
AcDbLine
 10
746.0741210573039
 20
157.7888412507203
 30
0.0
 11
746.0741210573039
 21
181.7888405280139
 31
0.0
  0
ARC
  5
BE99
330
1F
100
AcDbEntity
  8
0
  6
Continuous
 62
     7
370
    15
100
AcDbCircle
 10
738.0741214118492
 20
157.7888412305844
 30
0.0
 40
8.0
100
AcDbArc
 50
270.0
 51
0.0
  0
LINE
  5
BE9A
330
1F
100
AcDbEntity
  8
0
  6
Continuous
 62
     7
370
    15
100
AcDbLine
 10
706.0741219513736
 20
181.7888405280139
 30
0.0
 11
706.0741219513736
 21
157.7888412507203
 31
0.0
  0
SPLINE
  5
BE9D
330
1F
100
AcDbEntity
  8
0
  6
Continuous
 62
     7
370
    15
100
AcDbSpline
210
0.0
220
0.0
230
1.0
 70
    24
 71
     3
 72
    14
 73
    10
 74
     0
 42
0.0000000001
 43
0.0000000001
 40
0.0
 40
0.0
 40
0.0
 40
0.0
 40
0.25
 40
0.25
 40
0.5
 40
0.5
 40
0.75
 40
0.75
 40
1.0
 40
1.0
 40
1.0
 40
1.0
 10
674.0361525144205
 20
137.0019569027584
 30
0.0
 10
673.9522005305124
 20
136.8947794273558
 30
0.0
 10
673.870132593008
 20
136.7900072237249
 30
0.0
 10
673.7136062104566
 20
136.5901774908839
 30
0.0
 10
673.6418782852491
 20
136.4986058855244
 30
0.0
 10
673.5187366036507
 20
136.3413968008046
 30
0.0
 10
673.4685514918716
 20
136.2773278731522
 30
0.0
 10
673.3999133636729
 20
136.1897008635895
 30
0.0
 10
673.3815381557088
 20
136.1662421160065
 30
0.0
 10
673.3815381557088
 20
136.1662421160065
 30
0.0
  0
SPLINE
  5
BE9F
330
1F
100
AcDbEntity
  8
0
  6
Continuous
 62
     7
370
    15
100
AcDbSpline
210
0.0
220
0.0
230
1.0
 70
    24
 71
     3
 72
    14
 73
    10
 74
     0
 42
0.0000000001
 43
0.0000000001
 40
0.0
 40
0.0
 40
0.0
 40
0.0
 40
0.25
 40
0.25
 40
0.5
 40
0.5
 40
0.75
 40
0.75
 40
1.0
 40
1.0
 40
1.0
 40
1.0
 10
788.0470187138151
 20
161.6888412305849
 30
0.0
 10
788.0470187138151
 20
161.6888412305849
 30
0.0
 10
788.0207718835554
 20
161.6888412305849
 30
0.0
 10
787.9185455421023
 20
161.6888412305849
 30
0.0
 10
787.8438292575107
 20
161.6888412305849
 30
0.0
 10
787.6558354646281
 20
161.6888412305849
 30
0.0
 10
787.5441544481293
 20
161.6888412305849
 30
0.0
 10
787.3011913212851
 20
161.6888412305849
 30
0.0
 10
787.1692137701637
 20
161.6888412305849
 30
0.0
 10
787.0383732320759
 20
161.6888412305849
 30
0.0
  0
ARC
  5
BEA0
330
1F
100
AcDbEntity
  8
0
  6
Continuous
 62
     7
370
    15
100
AcDbCircle
 10
726.0741214118529
 20
169.7888412305833
 30
0.0
 40
62.4999999999961
100
AcDbArc
 50
332.5417715871586
 51
352.5535215342023
  0
ARC
  5
BEA2
330
1F
100
AcDbEntity
  8
0
  6
Continuous
 62
     7
370
    15
100
AcDbCircle
 10
726.0741214118492
 20
169.7888412305845
 30
0.0
 40
61.50000000000001
100
AcDbArc
 50
332.2136008346638
 51
352.4317372094087
  0
SPLINE
  5
BEA3
330
1F
100
AcDbEntity
  8
0
  6
Continuous
 62
     7
370
    15
100
AcDbSpline
210
0.0
220
0.0
230
1.0
 70
    24
 71
     3
 72
    10
 73
     6
 74
     0
 42
0.0000000001
 43
0.0000000001
 40
0.0
 40
0.0
 40
0.0
 40
0.0
 40
0.5
 40
0.5
 40
1.0
 40
1.0
 40
1.0
 40
1.0
 10
774.5399059805629
 20
131.9296583796693
 30
0.0
 10
774.7260020515597
 20
131.7435623086724
 30
0.0
 10
774.9103996980502
 20
131.5591646621819
 30
0.0
 10
775.1749773887744
 20
131.2945869714577
 30
0.0
 10
775.252244207709
 20
131.2173201525231
 30
0.0
 10
775.252244207709
 20
131.2173201525231
 30
0.0
  0
ARC
  5
BEA4
330
1F
100
AcDbEntity
  8
0
  6
Continuous
 62
     7
370
    15
100
AcDbCircle
 10
727.5728776288603
 20
168.6664918123785
 30
0.0
 40
59.6279857353262
100
AcDbArc
 50
321.9680698720741
 51
327.804102220983
  0
ARC
  5
BEA5
330
1F
100
AcDbEntity
  8
0
  6
Continuous
 62
     7
370
    15
100
AcDbCircle
 10
727.7823367933499
 20
168.5018808211473
 30
0.0
 40
60.36166477310029
100
AcDbArc
 50
321.8526433352963
 51
327.4880201006744
  0
ARC
  5
BEA7
330
1F
100
AcDbEntity
  8
0
  6
Continuous
 62
     7
370
    15
100
AcDbCircle
 10
726.0741214118507
 20
169.7888412305847
 30
0.0
 40
62.50000000000146
100
AcDbArc
 50
187.4464784658016
 51
207.3350325811341
  0
ARC
  5
BEA8
330
1F
100
AcDbEntity
  8
0
  6
Continuous
 62
     7
370
    15
100
AcDbCircle
 10
726.0741214118492
 20
169.7888412305845
 30
0.0
 40
61.50000000000002
100
AcDbArc
 50
187.5682627905913
 51
207.6635660883625
  0
SPLINE
  5
BEA9
330
1F
100
AcDbEntity
  8
0
  6
Continuous
 62
     7
370
    15
100
AcDbSpline
210
0.0
220
0.0
230
1.0
 70
    24
 71
     3
 72
    10
 73
     6
 74
     0
 42
0.0000000001
 43
0.0000000001
 40
0.0
 40
0.0
 40
0.0
 40
0.0
 40
0.5
 40
0.5
 40
1.0
 40
1.0
 40
1.0
 40
1.0
 10
677.6083368431356
 20
131.9296583796693
 30
0.0
 10
677.4222404859405
 20
131.7435620224743
 30
0.0
 10
677.2378429002811
 20
131.5591644368149
 30
0.0
 10
676.9732655948551
 20
131.2945871313889
 30
0.0
 10
676.8959986159893
 20
131.2173201525231
 30
0.0
 10
676.8959986159893
 20
131.2173201525231
 30
0.0
  0
SPLINE
  5
BEAA
330
1F
100
AcDbEntity
  8
0
  6
Continuous
 62
     7
370
    15
100
AcDbSpline
210
0.0
220
0.0
230
1.0
 70
    24
 71
     3
 72
    14
 73
    10
 74
     0
 42
0.0000000001
 43
0.0000000001
 40
0.0
 40
0.0
 40
0.0
 40
0.0
 40
0.25
 40
0.25
 40
0.5
 40
0.5
 40
0.75
 40
0.75
 40
1.0
 40
1.0
 40
1.0
 40
1.0
 10
665.1098695916227
 20
161.6888412305845
 30
0.0
 10
664.9788283898288
 20
161.6888412305845
 30
0.0
 10
664.847468612703
 20
161.6888412305845
 30
0.0
 10
664.6037422744673
 20
161.6888412305845
 30
0.0
 10
664.492872385064
 20
161.6888412305845
 30
0.0
 10
664.304043120818
 20
161.6888412305845
 30
0.0
 10
664.2298529095455
 20
161.6888412305845
 30
0.0
 10
664.1275721508907
 20
161.6888412305845
 30
0.0
 10
664.1012241098835
 20
161.6888412305845
 30
0.0
 10
664.1012241098835
 20
161.6888412305845
 30
0.0
  0
SPLINE
  5
BEAB
330
1F
100
AcDbEntity
  8
0
  6
Continuous
 62
     7
370
    15
100
AcDbSpline
210
0.0
220
0.0
230
1.0
 70
    24
 71
     3
 72
    14
 73
    10
 74
     0
 42
0.0000000001
 43
0.0000000001
 40
0.0
 40
0.0
 40
0.0
 40
0.0
 40
0.25
 40
0.25
 40
0.5
 40
0.5
 40
0.75
 40
0.75
 40
1.0
 40
1.0
 40
1.0
 40
1.0
 10
717.9741214118489
 20
230.7530930508111
 30
0.0
 10
717.9741214118489
 20
230.885806031295
 30
0.0
 10
717.9741214118489
 20
231.0160243852134
 30
0.0
 10
717.9741214118489
 20
231.2599600068076
 30
0.0
 10
717.9741214118489
 20
231.3717332497446
 30
0.0
 10
717.9741214118489
 20
231.5583383651108
 30
0.0
 10
717.9741214118489
 20
231.6338339787125
 30
0.0
 10
717.9741214118489
 20
231.7350546171498
 30
0.0
 10
717.9741214118489
 20
231.7617385325503
 30
0.0
 10
717.9741214118489
 20
231.7617385325503
 30
0.0
  0
ARC
  5
BEAC
330
1F
100
AcDbEntity
  8
0
  6
Continuous
 62
     7
370
    15
100
AcDbCircle
 10
726.0741214118492
 20
169.7888412305845
 30
0.0
 40
61.50000000000002
100
AcDbArc
 50
97.56826279059087
 51
127.9952735909212
  0
SPLINE
  5
BEAD
330
1F
100
AcDbEntity
  8
0
  6
Continuous
 62
     7
370
    15
100
AcDbSpline
210
0.0
220
0.0
230
1.0
 70
    24
 71
     3
 72
    14
 73
    10
 74
     0
 42
0.0000000001
 43
0.0000000001
 40
0.0
 40
0.0
 40
0.0
 40
0.0
 40
0.25
 40
0.25
 40
0.5
 40
0.5
 40
0.75
 40
0.75
 40
1.0
 40
1.0
 40
1.0
 40
1.0
 10
687.5026003337875
 20
218.9669640264441
 30
0.0
 10
687.5026003337875
 20
218.9669640264441
 30
0.0
 10
687.5214106526018
 20
218.9481537076299
 30
0.0
 10
687.5929810037957
 20
218.876583356436
 30
0.0
 10
687.6463766533329
 20
218.8231877068989
 30
0.0
 10
687.7779258155491
 20
218.6916385446825
 30
0.0
 10
687.8573619041674
 20
218.6122024560644
 30
0.0
 10
688.0289031339554
 20
218.4406612262764
 30
0.0
 10
688.1218085120496
 20
218.3477558481822
 30
0.0
 10
688.2149385609338
 20
218.254625799298
 30
0.0
  0
ARC
  5
BEAE
330
1F
100
AcDbEntity
  8
0
  6
Continuous
 62
     7
370
    15
100
AcDbCircle
 10
726.0741214118492
 20
169.7888412305845
 30
0.0
 40
62.5
100
AcDbArc
 50
97.44647846579795
 51
128.1078974206545
  0
ARC
  5
BEAF
330
1F
100
AcDbEntity
  8
0
  6
Continuous
 62
     7
370
    15
100
AcDbCircle
 10
726.0741214118492
 20
169.7888412305845
 30
0.0
 40
61.50000000000002
100
AcDbArc
 50
277.5682627905909
 51
291.6635660883616
  0
SPLINE
  5
BEB0
330
1F
100
AcDbEntity
  8
0
  6
Continuous
 62
     7
370
    15
100
AcDbSpline
210
0.0
220
0.0
230
1.0
 70
    24
 71
     3
 72
    14
 73
    10
 74
     0
 42
0.0000000001
 43
0.0000000001
 40
0.0
 40
0.0
 40
0.0
 40
0.0
 40
0.25
 40
0.25
 40
0.5
 40
0.5
 40
0.75
 40
0.75
 40
1.0
 40
1.0
 40
1.0
 40
1.0
 10
764.6456424899108
 20
120.6107184347249
 30
0.0
 10
764.6456424899108
 20
120.6107184347249
 30
0.0
 10
764.6268321729824
 20
120.6295287516534
 30
0.0
 10
764.5552618125087
 20
120.701099112127
 30
0.0
 10
764.5018661637155
 20
120.7544947609202
 30
0.0
 10
764.3703170016499
 20
120.8860439229858
 30
0.0
 10
764.2908809026057
 20
120.9654800220299
 30
0.0
 10
764.1193396942242
 20
121.1370212304115
 30
0.0
 10
764.0264342892686
 20
121.229926635367
 30
0.0
 10
763.9333042627647
 20
121.323056661871
 30
0.0
  0
ARC
  5
BEB1
330
1F
100
AcDbEntity
  8
0
  6
Continuous
 62
     7
370
    15
100
AcDbCircle
 10
726.0741587480268
 20
169.7886957183105
 30
0.0
 40
62.49985087615859
100
AcDbArc
 50
277.4464618152317
 51
291.3350492316994
  0
SPLINE
  5
BEB2
330
1F
100
AcDbEntity
  8
0
  6
Continuous
 62
     7
370
    15
100
AcDbSpline
210
0.0
220
0.0
230
1.0
 70
    24
 71
     3
 72
    14
 73
    10
 74
     0
 42
0.0000000001
 43
0.0000000001
 40
0.0
 40
0.0
 40
0.0
 40
0.0
 40
0.25
 40
0.25
 40
0.5
 40
0.5
 40
0.75
 40
0.75
 40
1.0
 40
1.0
 40
1.0
 40
1.0
 10
734.1741214118494
 20
108.824589410358
 30
0.0
 10
734.1741214118494
 20
108.6938236861642
 30
0.0
 10
734.1741214118494
 20
108.5617761342
 30
0.0
 10
734.1741214118494
 20
108.3191859641962
 30
0.0
 10
734.1741214118494
 20
108.2072709816817
 30
0.0
 10
734.1741214118494
 20
108.0197665309329
 30
0.0
 10
734.1741214118494
 20
107.9450727836232
 30
0.0
 10
734.1741214118494
 20
107.8422267764415
 30
0.0
 10
734.1741214118494
 20
107.8159439286187
 30
0.0
 10
734.1741214118494
 20
107.8159439286187
 30
0.0
  0
ARC
  5
BEB3
330
1F
100
AcDbEntity
  8
0
  6
Continuous
 62
     7
370
    15
100
AcDbCircle
 10
726.0741214118492
 20
169.7888412305845
 30
0.0
 40
62.50000000000003
100
AcDbArc
 50
7.446478465798363
 51
38.10789742065458
  0
SPLINE
  5
BEB4
330
1F
100
AcDbEntity
  8
0
  6
Continuous
 62
     7
370
    15
100
AcDbSpline
210
0.0
220
0.0
230
1.0
 70
    24
 71
     3
 72
    14
 73
    10
 74
     0
 42
0.0000000001
 43
0.0000000001
 40
0.0
 40
0.0
 40
0.0
 40
0.0
 40
0.25
 40
0.25
 40
0.5
 40
0.5
 40
0.75
 40
0.75
 40
1.0
 40
1.0
 40
1.0
 40
1.0
 10
787.038373232076
 20
177.888841230585
 30
0.0
 10
787.1697388341697
 20
177.888841230585
 30
0.0
 10
787.3017318152451
 20
177.888841230585
 30
0.0
 10
787.5441636011081
 20
177.888841230585
 30
0.0
 10
787.6568107411595
 20
177.888841230585
 30
0.0
 10
787.8431349359595
 20
177.888841230585
 30
0.0
 10
787.9187877316471
 20
177.888841230585
 30
0.0
 10
788.0203679234208
 20
177.888841230585
 30
0.0
 10
788.047018713815
 20
177.888841230585
 30
0.0
 10
788.047018713815
 20
177.888841230585
 30
0.0
  0
ARC
  5
BEB5
330
1F
100
AcDbEntity
  8
0
  6
Continuous
 62
     7
370
    15
100
AcDbCircle
 10
726.0741214118492
 20
169.7888412305845
 30
0.0
 40
61.50000000000039
100
AcDbArc
 50
7.568262790591306
 51
37.9952735909238
  0
SPLINE
  5
BEB6
330
1F
100
AcDbEntity
  8
0
  6
Continuous
 62
     7
370
    15
100
AcDbSpline
210
0.0
220
0.0
230
1.0
 70
    24
 71
     3
 72
    10
 73
     6
 74
     0
 42
0.0000000001
 43
0.0000000001
 40
0.0
 40
0.0
 40
0.0
 40
0.0
 40
0.5
 40
0.5
 40
1.0
 40
1.0
 40
1.0
 40
1.0
 10
774.5399059805629
 20
207.6480240814998
 30
0.0
 10
774.7260010749268
 20
207.8341191758639
 30
0.0
 10
774.9103989285564
 20
208.0185170294933
 30
0.0
 10
775.1749779348615
 20
208.2830960357985
 30
0.0
 10
775.252244207709
 20
208.360362308646
 30
0.0
 10
775.252244207709
 20
208.360362308646
 30
0.0
  0
SPLINE
  5
BEB7
330
1F
100
AcDbEntity
  8
0
  6
Continuous
 62
     7
370
    15
100
AcDbSpline
210
0.0
220
0.0
230
1.0
 70
    24
 71
     3
 72
    14
 73
    10
 74
     0
 42
0.0000000001
 43
0.0000000001
 40
0.0
 40
0.0
 40
0.0
 40
0.0
 40
0.25
 40
0.25
 40
0.5
 40
0.5
 40
0.75
 40
0.75
 40
1.0
 40
1.0
 40
1.0
 40
1.0
 10
687.5026003337875
 20
120.6107184347249
 30
0.0
 10
687.5026003337876
 20
120.6107184347249
 30
0.0
 10
687.5214106620211
 20
120.6295287629584
 30
0.0
 10
687.5929809668596
 20
120.7010990677969
 30
0.0
 10
687.6463766201077
 20
120.754494721045
 30
0.0
 10
687.7779257830841
 20
120.8860438840213
 30
0.0
 10
687.8573618196083
 20
120.9654799205456
 30
0.0
 10
688.0289031563468
 20
121.1370212572842
 30
0.0
 10
688.1218084002381
 20
121.2299265011754
 30
0.0
 10
688.2149385609338
 20
121.323056661871
 30
0.0
  0
ARC
  5
BEB8
330
1F
100
AcDbEntity
  8
0
  6
Continuous
 62
     7
370
    15
100
AcDbCircle
 10
726.074121411848
 20
169.7888412305827
 30
0.0
 40
61.49999999999785
100
AcDbArc
 50
232.0047264090786
 51
262.4317372094097
  0
SPLINE
  5
BEB9
330
1F
100
AcDbEntity
  8
0
  6
Continuous
 62
     7
370
    15
100
AcDbSpline
210
0.0
220
0.0
230
1.0
 70
    24
 71
     3
 72
    14
 73
    10
 74
     0
 42
0.0000000001
 43
0.0000000001
 40
0.0
 40
0.0
 40
0.0
 40
0.0
 40
0.2500000000000001
 40
0.2500000000000001
 40
0.5000000000000001
 40
0.5000000000000001
 40
0.7500000000000001
 40
0.7500000000000001
 40
1.0
 40
1.0
 40
1.0
 40
1.0
 10
670.5530818688806
 20
141.0892912677693
 30
0.0
 10
670.5530818688806
 20
141.0892912677693
 30
0.0
 10
670.5824736274221
 20
141.0933845854313
 30
0.0
 10
670.6922207139796
 20
141.108668791278
 30
0.0
 10
670.7733035478846
 20
141.1199609974122
 30
0.0
 10
670.9700446642277
 20
141.147360647052
 30
0.0
 10
671.0862079912077
 20
141.1635384268648
 30
0.0
 10
671.3368556656327
 20
141.1984455097863
 30
0.0
 10
671.4691738789315
 20
141.21687314074
 30
0.0
 10
671.6038553068316
 20
141.2356298907579
 30
0.0
  0
ARC
  5
BEBA
330
1F
100
AcDbEntity
  8
0
  6
Continuous
 62
     7
370
    15
100
AcDbCircle
 10
726.0741214118491
 20
169.7888412305843
 30
0.0
 40
62.49999999999984
100
AcDbArc
 50
231.8921025793474
 51
262.5535222864961
  0
SPLINE
  5
BEBB
330
1F
100
AcDbEntity
  8
0
  6
Continuous
 62
     7
370
    15
100
AcDbSpline
210
0.0
220
0.0
230
1.0
 70
    24
 71
     3
 72
    14
 73
    10
 74
     0
 42
0.0000000001
 43
0.0000000001
 40
0.0
 40
0.0
 40
0.0
 40
0.0
 40
0.25
 40
0.25
 40
0.5
 40
0.5
 40
0.75
 40
0.75
 40
1.0
 40
1.0
 40
1.0
 40
1.0
 10
664.1012241098835
 20
177.8888412305845
 30
0.0
 10
664.1012241098835
 20
177.8888412305845
 30
0.0
 10
664.1283133104024
 20
177.8888412305845
 30
0.0
 10
664.229748492476
 20
177.8888412305845
 30
0.0
 10
664.305367941901
 20
177.8888412305845
 30
0.0
 10
664.4917839660871
 20
177.8888412305845
 30
0.0
 10
664.6037370782297
 20
177.8888412305845
 30
0.0
 10
664.8471118534604
 20
177.8888412305845
 30
0.0
 10
664.9775103687802
 20
177.8888412305845
 30
0.0
 10
665.1098695916225
 20
177.8888412305845
 30
0.0
  0
ARC
  5
BEBC
330
1F
100
AcDbEntity
  8
0
  6
Continuous
 62
     7
370
    15
100
AcDbCircle
 10
726.0741214118492
 20
169.7888412305845
 30
0.0
 40
62.50000000000001
100
AcDbArc
 50
141.8921025793454
 51
172.5535215342016
  0
SPLINE
  5
BEBD
330
1F
100
AcDbEntity
  8
0
  6
Continuous
 62
     7
370
    15
100
AcDbSpline
210
0.0
220
0.0
230
1.0
 70
    24
 71
     3
 72
    10
 73
     6
 74
     0
 42
0.0000000001
 43
0.0000000001
 40
0.0
 40
0.0
 40
0.0
 40
0.0
 40
0.5
 40
0.5
 40
1.0
 40
1.0
 40
1.0
 40
1.0
 10
677.6083368431356
 20
207.6480240814998
 30
0.0
 10
677.4222407244078
 20
207.8341202002274
 30
0.0
 10
677.2378430880584
 20
208.0185178365769
 30
0.0
 10
676.9732654615997
 20
208.2830954630357
 30
0.0
 10
676.8959986159894
 20
208.360362308646
 30
0.0
 10
676.8959986159894
 20
208.360362308646
 30
0.0
  0
ARC
  5
BEBE
330
1F
100
AcDbEntity
  8
0
  6
Continuous
 62
     7
370
    15
100
AcDbCircle
 10
726.0741214118492
 20
169.7888412305845
 30
0.0
 40
61.50000000000011
100
AcDbArc
 50
142.0047264090762
 51
172.4317372094087
  0
ARC
  5
BEBF
330
1F
100
AcDbEntity
  8
0
  6
Continuous
 62
     7
370
    15
100
AcDbCircle
 10
726.0741214118492
 20
169.7888412305845
 30
0.0
 40
61.50000000000002
100
AcDbArc
 50
52.00472640907878
 51
82.43173720940914
  0
SPLINE
  5
BEC0
330
1F
100
AcDbEntity
  8
0
  6
Continuous
 62
     7
370
    15
100
AcDbSpline
210
0.0
220
0.0
230
1.0
 70
    24
 71
     3
 72
    14
 73
    10
 74
     0
 42
0.0000000001
 43
0.0000000001
 40
0.0
 40
0.0
 40
0.0
 40
0.0
 40
0.25
 40
0.25
 40
0.5
 40
0.5
 40
0.75
 40
0.75
 40
1.0
 40
1.0
 40
1.0
 40
1.0
 10
734.1741214118485
 20
231.7617385325505
 30
0.0
 10
734.1741214118485
 20
231.7617385325505
 30
0.0
 10
734.1741214118485
 20
231.7354917022908
 30
0.0
 10
734.1741214118485
 20
231.6332653608376
 30
0.0
 10
734.1741214118485
 20
231.558549076246
 30
0.0
 10
734.1741214118485
 20
231.3705552833634
 30
0.0
 10
734.1741214118485
 20
231.2588742668647
 30
0.0
 10
734.1741214118485
 20
231.0159111400206
 30
0.0
 10
734.1741214118485
 20
230.8839335888991
 30
0.0
 10
734.1741214118485
 20
230.7530930508112
 30
0.0
  0
ARC
  5
BEC1
330
1F
100
AcDbEntity
  8
0
  6
Continuous
 62
     7
370
    15
100
AcDbCircle
 10
726.0741214118492
 20
169.7888412305845
 30
0.0
 40
62.49999999999999
100
AcDbArc
 50
51.89210257934544
 51
82.55352153420206
  0
SPLINE
  5
BEC2
330
1F
100
AcDbEntity
  8
0
  6
Continuous
 62
     7
370
    15
100
AcDbSpline
210
0.0
220
0.0
230
1.0
 70
    24
 71
     3
 72
    14
 73
    10
 74
     0
 42
0.0000000001
 43
0.0000000001
 40
0.0
 40
0.0
 40
0.0
 40
0.0
 40
0.25
 40
0.25
 40
0.5
 40
0.5
 40
0.75
 40
0.75
 40
1.0
 40
1.0
 40
1.0
 40
1.0
 10
764.6456424899108
 20
218.9669640264441
 30
0.0
 10
764.6456424899108
 20
218.9669640264441
 30
0.0
 10
764.6268322116049
 20
218.9481537481383
 30
0.0
 10
764.5552616611577
 20
218.8765831976911
 30
0.0
 10
764.501866027667
 20
218.8231875642005
 30
0.0
 10
764.3703168685853
 20
218.6916384051187
 30
0.0
 10
764.290880556282
 20
218.6122020928154
 30
0.0
 10
764.1193397858671
 20
218.4406613224005
 30
0.0
 10
764.0264338313142
 20
218.3477553678476
 30
0.0
 10
763.9333042627647
 20
218.254625799298
 30
0.0
  0
ARC
  5
BEC3
330
1F
100
AcDbEntity
  8
0
  6
Continuous
 62
     7
370
    15
100
AcDbCircle
 10
686.4761416654024
 20
209.3868209770311
 30
0.0
 40
7.49999999999999
100
AcDbArc
 50
225.0
 51
45.0
  0
LINE
  5
BEC4
330
1F
100
AcDbEntity
  8
0
  6
Continuous
 62
     7
370
    15
100
AcDbLine
 10
734.1741214234068
 20
195.3336197989013
 30
0.0
 11
717.9741222255549
 21
195.3336197989013
 31
0.0
  0
ARC
  5
BEC5
330
1F
100
AcDbEntity
  8
0
  6
Continuous
 62
     7
370
    15
100
AcDbCircle
 10
765.6721011582959
 20
209.3868209770311
 30
0.0
 40
7.5
100
AcDbArc
 50
135.0
 51
315.0
  0
LINE
  5
BEC6
330
1F
100
AcDbEntity
  8
0
  6
Continuous
 62
     7
370
    15
100
AcDbLine
 10
751.6189008795342
 20
161.688841144922
 30
0.0
 11
751.6189008795342
 21
177.8888415651348
 31
0.0
  0
ARC
  5
BECE
330
1F
100
AcDbEntity
  8
0
  6
Continuous
 62
     7
370
    15
100
AcDbCircle
 10
765.6721011582959
 20
130.190861484138
 30
0.0
 40
7.50000000000002
100
AcDbArc
 50
45.0
 51
225.0
  0
LINE
  5
BECF
330
1F
100
AcDbEntity
  8
0
  6
Continuous
 62
     7
370
    15
100
AcDbLine
 10
717.9741222255549
 20
144.2440615141716
 30
0.0
 11
734.1741214234068
 21
144.2440615141716
 31
0.0
  0
LINE
  5
BED0
330
1F
100
AcDbEntity
  8
0
  6
Continuous
 62
     7
370
    15
100
AcDbLine
 10
678.1466394427526
 20
140.3919052554853
 30
0.0
 11
675.4964188457836
 21
138.8662074725133
 31
0.0
  0
LINE
  5
BED1
330
1F
100
AcDbEntity
  8
0
  6
Continuous
 62
     7
370
    15
100
AcDbLine
 10
678.4709342718916
 20
139.8285806900938
 30
0.0
 11
678.1466394427526
 21
140.3919052554853
 31
0.0
  0
LINE
  5
BED2
330
1F
100
AcDbEntity
  8
0
  6
Continuous
 62
     7
370
    15
100
AcDbLine
 10
682.1108620718279
 20
141.924037560483
 30
0.0
 11
678.4709342718916
 21
139.8285806900938
 31
0.0
  0
LINE
  5
BED3
330
1F
100
AcDbEntity
  8
0
  6
Continuous
 62
     7
370
    15
100
AcDbLine
 10
679.9655154690569
 20
145.6506292332396
 30
0.0
 11
682.1108620718279
 21
141.924037560483
 31
0.0
  0
LINE
  5
BED4
330
1F
100
AcDbEntity
  8
0
  6
Continuous
 62
     7
370
    15
100
AcDbLine
 10
676.3255876691204
 20
143.5551723628504
 30
0.0
 11
679.9655154690569
 21
145.6506292332396
 31
0.0
  0
LINE
  5
BED5
330
1F
100
AcDbEntity
  8
0
  6
Continuous
 62
     7
370
    15
100
AcDbLine
 10
676.6498860202817
 20
142.9918521357053
 30
0.0
 11
676.3255876691204
 21
143.5551723628504
 31
0.0
  0
LINE
  5
BED6
330
1F
100
AcDbEntity
  8
0
  6
Continuous
 62
     7
370
    15
100
AcDbLine
 10
674.2359813801498
 20
141.6021996168649
 30
0.0
 11
676.6498860202817
 21
142.9918521357053
 31
0.0
  0
ARC
  5
BED7
330
1F
100
AcDbEntity
  8
0
  6
Continuous
 62
     7
370
    15
100
AcDbCircle
 10
686.4761416654024
 20
130.190861484138
 30
0.0
 40
7.50000000000001
100
AcDbArc
 50
315.0
 51
135.0
  0
LINE
  5
BED8
330
1F
100
AcDbEntity
  8
0
  6
Continuous
 62
     7
370
    15
100
AcDbLine
 10
700.5293402664981
 20
177.8888415651348
 30
0.0
 11
700.5293402664981
 21
161.688841144922
 31
0.0
  0
LINE
  5
BED9
330
1F
100
AcDbEntity
  8
0
  6
Continuous
 62
     7
370
    15
100
AcDbLine
 10
691.7794417434058
 20
124.8875606911209
 30
0.0
 11
688.2149386995158
 21
121.3230557845857
 31
0.0
  0
LINE
  5
BEDA
330
1F
100
AcDbEntity
  8
0
  6
Continuous
 62
     7
370
    15
100
AcDbLine
 10
691.7794417434058
 20
214.6901238815811
 30
0.0
 11
688.2149386995158
 21
218.2546232001808
 31
0.0
  0
LINE
  5
BEDB
330
1F
100
AcDbEntity
  8
0
  6
Continuous
 62
     7
370
    15
100
AcDbLine
 10
760.3687994026265
 20
124.8875606911209
 30
0.0
 11
763.9333043091617
 21
121.3230557845857
 31
0.0
  0
LINE
  5
BEDC
330
1F
100
AcDbEntity
  8
0
  6
Continuous
 62
     7
370
    15
100
AcDbLine
 10
760.3687994026265
 20
214.6901238815811
 30
0.0
 11
763.9333043091617
 21
218.2546232001808
 31
0.0
  0
LINE
  5
BEDD
330
1F
100
AcDbEntity
  8
0
  6
Continuous
 62
     7
370
    15
100
AcDbLine
 10
665.1098724298797
 20
177.8888415651348
 30
0.0
 11
700.5293402664981
 21
177.8888415651348
 31
0.0
  0
LINE
  5
BEDE
330
1F
100
AcDbEntity
  8
0
  6
Continuous
 62
     7
370
    15
100
AcDbLine
 10
734.1741214234068
 20
230.7530913608101
 30
0.0
 11
734.1741214234068
 21
195.3336197989013
 31
0.0
  0
LINE
  5
BEDF
330
1F
100
AcDbEntity
  8
0
  6
Continuous
 62
     7
370
    15
100
AcDbLine
 10
787.0383743040881
 20
161.688841144922
 30
0.0
 11
751.6189008795342
 21
161.688841144922
 31
0.0
  0
LINE
  5
BEE0
330
1F
100
AcDbEntity
  8
0
  6
Continuous
 62
     7
370
    15
100
AcDbLine
 10
717.9741222255549
 20
107.8159447865512
 30
0.0
 11
717.9741222255549
 21
144.2440615141716
 31
0.0
  0
LINE
  5
BEE1
330
1F
100
AcDbEntity
  8
0
  6
Continuous
 62
     7
370
    15
100
AcDbLine
 10
677.6083368652186
 20
131.9296576188829
 30
0.0
 11
681.1728399091086
 21
135.494162525418
 31
0.0
  0
LINE
  5
BEE2
330
1F
100
AcDbEntity
  8
0
  6
Continuous
 62
     7
370
    15
100
AcDbLine
 10
677.6083368652186
 20
207.6480250911739
 30
0.0
 11
681.1728399091086
 21
204.0835183219936
 31
0.0
  0
LINE
  5
BEE3
330
1F
100
AcDbEntity
  8
0
  6
Continuous
 62
     7
370
    15
100
AcDbLine
 10
774.5399061434588
 20
131.9296576188829
 30
0.0
 11
770.9754030995688
 21
135.494162525418
 31
0.0
  0
LINE
  5
BEE4
330
1F
100
AcDbEntity
  8
0
  6
Continuous
 62
     7
370
    15
100
AcDbLine
 10
774.5399061434588
 20
207.6480250911739
 30
0.0
 11
770.9754030995688
 21
204.0835183219936
 31
0.0
  0
LINE
  5
BEE5
330
1F
100
AcDbEntity
  8
0
  6
Continuous
 62
     7
370
    15
100
AcDbLine
 10
671.6038552913786
 20
141.2356322149724
 30
0.0
 11
674.2359813801498
 21
141.6021996168649
 31
0.0
  0
LINE
  5
BEE6
330
1F
100
AcDbEntity
  8
0
  6
Continuous
 62
     7
370
    15
100
AcDbLine
 10
787.0383743040881
 20
177.8888415651348
 30
0.0
 11
751.6189008795342
 21
177.8888415651348
 31
0.0
  0
LINE
  5
BEE7
330
1F
100
AcDbEntity
  8
0
  6
Continuous
 62
     7
370
    15
100
AcDbLine
 10
734.1741214234068
 20
108.8245894866016
 30
0.0
 11
734.1741214234068
 21
144.2440615141716
 31
0.0
  0
LINE
  5
BEE8
330
1F
100
AcDbEntity
  8
0
  6
Continuous
 62
     7
370
    15
100
AcDbLine
 10
717.9741222255549
 20
195.3336197989013
 30
0.0
 11
717.9741222255549
 21
230.7530913608101
 31
0.0
  0
LINE
  5
BEE9
330
1F
100
AcDbEntity
  8
0
  6
Continuous
 62
     7
370
    15
100
AcDbLine
 10
665.1098724298797
 20
161.688841144922
 30
0.0
 11
700.5293402664981
 21
161.688841144922
 31
0.0
  0
LINE
  5
BEEC
330
1F
100
AcDbEntity
  8
0
  6
Continuous
 62
     7
370
    15
100
AcDbLine
 10
675.4964188457836
 20
138.8662074725133
 30
0.0
 11
674.0361532168771
 21
137.0019568554981
 31
0.0
  0
LINE
  5
BEED
330
1F
100
AcDbEntity
  8
0
  6
Continuous
 62
     7
370
    15
100
AcDbLine
 10
734.1741214234068
 20
218.8336227195289
 30
0.0
 11
717.9741222255549
 21
218.8336227195289
 31
0.0
  0
LINE
  5
BEEE
330
1F
100
AcDbEntity
  8
0
  6
Continuous
 62
     7
370
    15
100
AcDbLine
 10
717.9741222255549
 20
235.3336189048317
 30
0.0
 11
717.9741222255549
 21
231.7617360608604
 31
0.0
  0
CIRCLE
  5
BEEF
330
1F
100
AcDbEntity
  8
0
  6
Continuous
 62
     7
370
    15
100
AcDbCircle
 10
726.0741214118485
 20
226.8336207346079
 30
0.0
 40
2.5
  0
LINE
  5
BEF0
330
1F
100
AcDbEntity
  8
0
  6
Continuous
 62
     7
370
    15
100
AcDbLine
 10
734.1741214234068
 20
235.3336189048317
 30
0.0
 11
734.1741214234068
 21
231.7617360608604
 31
0.0
  0
LINE
  5
BEF1
330
1F
100
AcDbEntity
  8
0
  6
Continuous
 62
     7
370
    15
100
AcDbLine
 10
717.9741222255549
 20
235.3336189048317
 30
0.0
 11
734.1741214234068
 21
235.3336189048317
 31
0.0
  0
CIRCLE
  5
BEF2
330
1F
100
AcDbEntity
  8
0
  6
Continuous
 62
     7
370
    15
100
AcDbCircle
 10
726.0741214118487
 20
202.8336207346079
 30
0.0
 40
2.5
  0
LINE
  5
BEF3
330
1F
100
AcDbEntity
  8
0
  6
Continuous
 62
     7
370
    15
100
AcDbLine
 10
734.1741214234068
 20
210.8336214082267
 30
0.0
 11
717.9741222255549
 21
210.8336214082267
 31
0.0
  0
LINE
  5
BEF4
330
1F
100
AcDbEntity
  8
0
  6
Continuous
 62
     7
370
    15
100
AcDbLine
 10
660.5293448858581
 20
177.8888415651348
 30
0.0
 11
664.1012277298293
 21
177.8888415651348
 31
0.0
  0
LINE
  5
BEF5
330
1F
100
AcDbEntity
  8
0
  6
Continuous
 62
     7
370
    15
100
AcDbLine
 10
660.5293448858581
 20
161.688841144922
 30
0.0
 11
664.1012277298293
 21
161.688841144922
 31
0.0
  0
LINE
  5
BEF6
330
1F
100
AcDbEntity
  8
0
  6
Continuous
 62
     7
370
    15
100
AcDbLine
 10
660.5293448858581
 20
161.688841144922
 30
0.0
 11
660.5293448858581
 21
177.8888415651348
 31
0.0
  0
CIRCLE
  5
BEF7
330
1F
100
AcDbEntity
  8
0
  6
Continuous
 62
     7
370
    15
100
AcDbCircle
 10
669.0293419078245
 20
169.7888412305846
 30
0.0
 40
2.500000000000014
  0
LINE
  5
BEF8
330
1F
100
AcDbEntity
  8
0
  6
Continuous
 62
     7
370
    15
100
AcDbLine
 10
677.0293410711608
 20
177.8888415651348
 30
0.0
 11
677.0293410711608
 21
161.688841144922
 31
0.0
  0
CIRCLE
  5
BEF9
330
1F
100
AcDbEntity
  8
0
  6
Continuous
 62
     7
370
    15
100
AcDbCircle
 10
693.0293419078245
 20
169.7888412305846
 30
0.0
 40
2.500000000000014
  0
LINE
  5
BEFA
330
1F
100
AcDbEntity
  8
0
  6
Continuous
 62
     7
370
    15
100
AcDbLine
 10
685.029342382463
 20
177.8888415651348
 30
0.0
 11
685.029342382463
 21
161.688841144922
 31
0.0
  0
LINE
  5
BEFB
330
1F
100
AcDbEntity
  8
0
  6
Continuous
 62
     7
370
    15
100
AcDbLine
 10
775.1189019375167
 20
161.688841144922
 30
0.0
 11
775.1189019375167
 21
177.8888415651348
 31
0.0
  0
LINE
  5
BEFC
330
1F
100
AcDbEntity
  8
0
  6
Continuous
 62
     7
370
    15
100
AcDbLine
 10
791.6189018481097
 20
177.8888415651348
 30
0.0
 11
788.0470190041385
 21
177.8888415651348
 31
0.0
  0
CIRCLE
  5
BEFD
330
1F
100
AcDbEntity
  8
0
  6
Continuous
 62
     7
370
    15
100
AcDbCircle
 10
783.1189009158739
 20
169.7888412305848
 30
0.0
 40
2.499999999999985
  0
LINE
  5
BEFE
330
1F
100
AcDbEntity
  8
0
  6
Continuous
 62
     7
370
    15
100
AcDbLine
 10
791.6189018481097
 20
161.688841144922
 30
0.0
 11
788.0470190041385
 21
161.688841144922
 31
0.0
  0
LINE
  5
BEFF
330
1F
100
AcDbEntity
  8
0
  6
Continuous
 62
     7
370
    15
100
AcDbLine
 10
791.6189018481097
 20
177.8888415651348
 30
0.0
 11
791.6189018481097
 21
161.688841144922
 31
0.0
  0
LINE
  5
BF00
330
1F
100
AcDbEntity
  8
0
  6
Continuous
 62
     7
370
    15
100
AcDbLine
 10
767.1189006262145
 20
161.688841144922
 30
0.0
 11
767.1189006262145
 21
177.8888415651348
 31
0.0
  0
CIRCLE
  5
BF01
330
1F
100
AcDbEntity
  8
0
  6
Continuous
 62
     7
370
    15
100
AcDbCircle
 10
759.1189009158739
 20
169.7888412305846
 30
0.0
 40
2.499999999999985
  0
LINE
  5
BF02
330
1F
100
AcDbEntity
  8
0
  6
Continuous
 62
     7
370
    15
100
AcDbLine
 10
717.9741222255549
 20
128.74406130183
 30
0.0
 11
734.1741214234068
 21
128.74406130183
 31
0.0
  0
CIRCLE
  5
BF03
330
1F
100
AcDbEntity
  8
0
  6
Continuous
 62
     7
370
    15
100
AcDbCircle
 10
726.0741214118495
 20
136.7440617265599
 30
0.0
 40
2.499999999999985
  0
LINE
  5
BF04
330
1F
100
AcDbEntity
  8
0
  6
Continuous
 62
     7
370
    15
100
AcDbLine
 10
734.1741214234068
 20
104.24406194258
 30
0.0
 11
734.1741214234068
 21
107.8159447865512
 31
0.0
  0
CIRCLE
  5
BF05
330
1F
100
AcDbEntity
  8
0
  6
Continuous
 62
     7
370
    15
100
AcDbCircle
 10
726.0741214118496
 20
112.7440617265599
 30
0.0
 40
2.5
  0
LINE
  5
BF06
330
1F
100
AcDbEntity
  8
0
  6
Continuous
 62
     7
370
    15
100
AcDbLine
 10
734.1741214234068
 20
104.24406194258
 30
0.0
 11
717.9741222255549
 21
104.24406194258
 31
0.0
  0
LINE
  5
BF07
330
1F
100
AcDbEntity
  8
0
  6
Continuous
 62
     7
370
    15
100
AcDbLine
 10
717.9741222255549
 20
104.24406194258
 30
0.0
 11
717.9741222255549
 21
107.8159447865512
 31
0.0
  0
LINE
  5
BF08
330
1F
100
AcDbEntity
  8
0
  6
Continuous
 62
     7
370
    15
100
AcDbLine
 10
717.9741222255549
 20
120.744061853173
 30
0.0
 11
734.1741214234068
 21
120.744061853173
 31
0.0
  0
CIRCLE
  5
BF09
330
1F
100
AcDbEntity
  8
0
  6
Continuous
 62
     7
370
    15
100
AcDbCircle
 10
726.1361928745786
 20
214.8337812717853
 30
0.0
 40
3.0
  0
CIRCLE
  5
BF0A
330
1F
100
AcDbEntity
  8
0
  6
Continuous
 62
     7
370
    15
100
AcDbCircle
 10
681.0291813706471
 20
169.8509126933147
 30
0.0
 40
3.000000000000014
  0
CIRCLE
  5
BF0B
330
1F
100
AcDbEntity
  8
0
  6
Continuous
 62
     7
370
    15
100
AcDbCircle
 10
771.1190614530513
 20
169.7267697678547
 30
0.0
 40
3.000000000000014
  0
CIRCLE
  5
BF0C
330
1F
100
AcDbEntity
  8
0
  6
Continuous
 62
     7
370
    15
100
AcDbCircle
 10
726.0120499491194
 20
124.7439011893825
 30
0.0
 40
3.000000000000014
  0
LINE
  5
BF0D
330
1F
100
AcDbEntity
  8
0
  6
Continuous
 62
     7
370
    15
100
AcDbLine
 10
734.5211435360986
 20
231.7153934495475
 30
0.0
 11
734.5211435360986
 21
235.3336189048317
 31
0.0
  0
LINE
  5
BF0E
330
1F
100
AcDbEntity
  8
0
  6
Continuous
 62
     7
370
    15
100
AcDbLine
 10
734.5211435360986
 20
235.3336189048317
 30
0.0
 11
734.1741214234068
 21
235.3336189048317
 31
0.0
  0
LINE
  5
BF0F
330
1F
100
AcDbEntity
  8
0
  6
Continuous
 62
     7
370
    15
100
AcDbLine
 10
717.6270983957372
 20
231.7153934495475
 30
0.0
 11
717.6270983957372
 21
235.3336189048317
 31
0.0
  0
LINE
  5
BF10
330
1F
100
AcDbEntity
  8
0
  6
Continuous
 62
     7
370
    15
100
AcDbLine
 10
717.9741222255549
 20
235.3336189048317
 30
0.0
 11
717.6270983957372
 21
235.3336189048317
 31
0.0
  0
LINE
  5
BF11
330
1F
100
AcDbEntity
  8
0
  6
Continuous
 62
     7
370
    15
100
AcDbLine
 10
664.1475703411422
 20
161.3418191777494
 30
0.0
 11
660.5293448858581
 21
161.3418191777494
 31
0.0
  0
LINE
  5
BF12
330
1F
100
AcDbEntity
  8
0
  6
Continuous
 62
     7
370
    15
100
AcDbLine
 10
660.5293448858581
 20
161.688841144922
 30
0.0
 11
660.5293448858581
 21
161.3418191777494
 31
0.0
  0
LINE
  5
BF13
330
1F
100
AcDbEntity
  8
0
  6
Continuous
 62
     7
370
    15
100
AcDbLine
 10
664.1475703411422
 20
178.2358635323074
 30
0.0
 11
660.5293448858581
 21
178.2358635323074
 31
0.0
  0
LINE
  5
BF14
330
1F
100
AcDbEntity
  8
0
  6
Continuous
 62
     7
370
    15
100
AcDbLine
 10
660.5293448858581
 20
178.2358635323074
 30
0.0
 11
660.5293448858581
 21
177.8888415651348
 31
0.0
  0
LINE
  5
BF15
330
1F
100
AcDbEntity
  8
0
  6
Continuous
 62
     7
370
    15
100
AcDbLine
 10
788.0006726675353
 20
161.3418191777494
 30
0.0
 11
791.6189018481097
 21
161.3418191777494
 31
0.0
  0
LINE
  5
BF16
330
1F
100
AcDbEntity
  8
0
  6
Continuous
 62
     7
370
    15
100
AcDbLine
 10
791.6189018481097
 20
161.3418191777494
 30
0.0
 11
791.6189018481097
 21
161.688841144922
 31
0.0
  0
LINE
  5
BF17
330
1F
100
AcDbEntity
  8
0
  6
Continuous
 62
     7
370
    15
100
AcDbLine
 10
788.0006726675353
 20
178.2358635323074
 30
0.0
 11
791.6189018481097
 21
178.2358635323074
 31
0.0
  0
LINE
  5
BF18
330
1F
100
AcDbEntity
  8
0
  6
Continuous
 62
     7
370
    15
100
AcDbLine
 10
791.6189018481097
 20
177.8888415651348
 30
0.0
 11
791.6189018481097
 21
178.2358635323074
 31
0.0
  0
LINE
  5
BF19
330
1F
100
AcDbEntity
  8
0
  6
Continuous
 62
     7
370
    15
100
AcDbLine
 10
717.6270983957372
 20
107.8622911231544
 30
0.0
 11
717.6270983957372
 21
104.24406194258
 31
0.0
  0
LINE
  5
BF1A
330
1F
100
AcDbEntity
  8
0
  6
Continuous
 62
     7
370
    15
100
AcDbLine
 10
717.6270983957372
 20
104.24406194258
 30
0.0
 11
717.9741222255549
 21
104.24406194258
 31
0.0
  0
LINE
  5
BF1B
330
1F
100
AcDbEntity
  8
0
  6
Continuous
 62
     7
370
    15
100
AcDbLine
 10
734.5211435360986
 20
107.8622911231544
 30
0.0
 11
734.5211435360986
 21
104.24406194258
 31
0.0
  0
LINE
  5
BF1C
330
1F
100
AcDbEntity
  8
0
  6
Continuous
 62
     7
370
    15
100
AcDbLine
 10
734.1741214234068
 20
104.24406194258
 30
0.0
 11
734.5211435360986
 21
104.24406194258
 31
0.0
  0
LINE
  5
BF1D
330
1F
100
AcDbEntity
  8
0
  6
Continuous
 62
     7
370
    15
100
AcDbLine
 10
735.3054922616727
 20
231.6033367173698
 30
0.0
 11
735.3054922616727
 21
235.3336189048317
 31
0.0
  0
LINE
  5
BF1E
330
1F
100
AcDbEntity
  8
0
  6
Continuous
 62
     7
370
    15
100
AcDbLine
 10
740.0741214708111
 20
230.7006616251495
 30
0.0
 11
740.0741214708111
 21
235.3336189048317
 31
0.0
  0
LINE
  5
BF1F
330
1F
100
AcDbEntity
  8
0
  6
Continuous
 62
     7
370
    15
100
AcDbLine
 10
740.0741214708111
 20
235.3336189048317
 30
0.0
 11
735.3054922616727
 21
235.3336189048317
 31
0.0
  0
LINE
  5
BF20
330
1F
100
AcDbEntity
  8
0
  6
Continuous
 62
     7
370
    15
100
AcDbLine
 10
741.0741216347239
 20
230.4621461885002
 30
0.0
 11
741.0741216347239
 21
235.3336189048317
 31
0.0
  0
LINE
  5
BF21
330
1F
100
AcDbEntity
  8
0
  6
Continuous
 62
     7
370
    15
100
AcDbLine
 10
741.0741216347239
 20
235.3336189048317
 30
0.0
 11
740.0741214708111
 21
235.3336189048317
 31
0.0
  0
LINE
  5
BF22
330
1F
100
AcDbEntity
  8
0
  6
Continuous
 62
     7
370
    15
100
AcDbLine
 10
735.3054922616727
 20
235.3336189048317
 30
0.0
 11
734.5211435360986
 21
235.3336189048317
 31
0.0
  0
LINE
  5
BF23
330
1F
100
AcDbEntity
  8
0
  6
Continuous
 62
     7
370
    15
100
AcDbLine
 10
716.8427496992669
 20
231.6033367173698
 30
0.0
 11
716.8427496992669
 21
235.3336189048317
 31
0.0
  0
LINE
  5
BF24
330
1F
100
AcDbEntity
  8
0
  6
Continuous
 62
     7
370
    15
100
AcDbLine
 10
717.6270983957372
 20
235.3336189048317
 30
0.0
 11
716.8427496992669
 21
235.3336189048317
 31
0.0
  0
LINE
  5
BF25
330
1F
100
AcDbEntity
  8
0
  6
Continuous
 62
     7
370
    15
100
AcDbLine
 10
712.0741210722051
 20
230.7006616251495
 30
0.0
 11
712.0741210722051
 21
235.3336189048317
 31
0.0
  0
LINE
  5
BF26
330
1F
100
AcDbEntity
  8
0
  6
Continuous
 62
     7
370
    15
100
AcDbLine
 10
716.8427496992669
 20
235.3336189048317
 30
0.0
 11
712.0741210722051
 21
235.3336189048317
 31
0.0
  0
LINE
  5
BF27
330
1F
100
AcDbEntity
  8
0
  6
Continuous
 62
     7
370
    15
100
AcDbLine
 10
711.0741209082923
 20
230.4621461885002
 30
0.0
 11
711.0741209082923
 21
235.3336189048317
 31
0.0
  0
LINE
  5
BF28
330
1F
100
AcDbEntity
  8
0
  6
Continuous
 62
     7
370
    15
100
AcDbLine
 10
712.0741210722051
 20
235.3336189048317
 30
0.0
 11
711.0741209082923
 21
235.3336189048317
 31
0.0
  0
LINE
  5
BF29
330
1F
100
AcDbEntity
  8
0
  6
Continuous
 62
     7
370
    15
100
AcDbLine
 10
664.2596270733199
 20
179.0202122287776
 30
0.0
 11
660.5293448858581
 21
179.0202122287776
 31
0.0
  0
LINE
  5
BF2A
330
1F
100
AcDbEntity
  8
0
  6
Continuous
 62
     7
370
    15
100
AcDbLine
 10
660.5293448858581
 20
179.0202122287776
 30
0.0
 11
660.5293448858581
 21
178.2358635323074
 31
0.0
  0
LINE
  5
BF2B
330
1F
100
AcDbEntity
  8
0
  6
Continuous
 62
     7
370
    15
100
AcDbLine
 10
665.1623021655402
 20
183.7888408558395
 30
0.0
 11
660.5293448858581
 21
183.7888408558395
 31
0.0
  0
LINE
  5
BF2C
330
1F
100
AcDbEntity
  8
0
  6
Continuous
 62
     7
370
    15
100
AcDbLine
 10
665.4008176021895
 20
184.7888428823974
 30
0.0
 11
660.5293448858581
 21
184.7888428823974
 31
0.0
  0
LINE
  5
BF2D
330
1F
100
AcDbEntity
  8
0
  6
Continuous
 62
     7
370
    15
100
AcDbLine
 10
660.5293448858581
 20
184.7888428823974
 30
0.0
 11
660.5293448858581
 21
183.7888408558395
 31
0.0
  0
LINE
  5
BF2E
330
1F
100
AcDbEntity
  8
0
  6
Continuous
 62
     7
370
    15
100
AcDbLine
 10
660.5293448858581
 20
183.7888408558395
 30
0.0
 11
660.5293448858581
 21
179.0202122287776
 31
0.0
  0
LINE
  5
BF2F
330
1F
100
AcDbEntity
  8
0
  6
Continuous
 62
     7
370
    15
100
AcDbLine
 10
664.2596270733199
 20
160.5574704812791
 30
0.0
 11
660.5293448858581
 21
160.5574704812791
 31
0.0
  0
LINE
  5
BF30
330
1F
100
AcDbEntity
  8
0
  6
Continuous
 62
     7
370
    15
100
AcDbLine
 10
660.5293448858581
 20
161.3418191777494
 30
0.0
 11
660.5293448858581
 21
160.5574704812791
 31
0.0
  0
LINE
  5
BF31
330
1F
100
AcDbEntity
  8
0
  6
Continuous
 62
     7
370
    15
100
AcDbLine
 10
665.1623021655402
 20
155.788841388556
 30
0.0
 11
660.5293448858581
 21
155.788841388556
 31
0.0
  0
LINE
  5
BF32
330
1F
100
AcDbEntity
  8
0
  6
Continuous
 62
     7
370
    15
100
AcDbLine
 10
660.5293448858581
 20
160.5574704812791
 30
0.0
 11
660.5293448858581
 21
155.788841388556
 31
0.0
  0
LINE
  5
BF33
330
1F
100
AcDbEntity
  8
0
  6
Continuous
 62
     7
370
    15
100
AcDbLine
 10
665.4008176021895
 20
154.7888412246432
 30
0.0
 11
660.5293448858581
 21
154.7888412246432
 31
0.0
  0
LINE
  5
BF34
330
1F
100
AcDbEntity
  8
0
  6
Continuous
 62
     7
370
    15
100
AcDbLine
 10
660.5293448858581
 20
155.788841388556
 30
0.0
 11
660.5293448858581
 21
154.7888412246432
 31
0.0
  0
LINE
  5
BF35
330
1F
100
AcDbEntity
  8
0
  6
Continuous
 62
     7
370
    15
100
AcDbLine
 10
786.9859445684276
 20
155.788841388556
 30
0.0
 11
791.6189018481097
 21
155.788841388556
 31
0.0
  0
LINE
  5
BF36
330
1F
100
AcDbEntity
  8
0
  6
Continuous
 62
     7
370
    15
100
AcDbLine
 10
786.7474254064879
 20
154.7888412246432
 30
0.0
 11
791.6189018481097
 21
154.7888412246432
 31
0.0
  0
LINE
  5
BF37
330
1F
100
AcDbEntity
  8
0
  6
Continuous
 62
     7
370
    15
100
AcDbLine
 10
791.6189018481097
 20
154.7888412246432
 30
0.0
 11
791.6189018481097
 21
155.788841388556
 31
0.0
  0
LINE
  5
BF38
330
1F
100
AcDbEntity
  8
0
  6
Continuous
 62
     7
370
    15
100
AcDbLine
 10
787.8886159353576
 20
160.5574704812791
 30
0.0
 11
791.6189018481097
 21
160.5574704812791
 31
0.0
  0
LINE
  5
BF39
330
1F
100
AcDbEntity
  8
0
  6
Continuous
 62
     7
370
    15
100
AcDbLine
 10
791.6189018481097
 20
155.788841388556
 30
0.0
 11
791.6189018481097
 21
160.5574704812791
 31
0.0
  0
LINE
  5
BF3A
330
1F
100
AcDbEntity
  8
0
  6
Continuous
 62
     7
370
    15
100
AcDbLine
 10
791.6189018481097
 20
160.5574704812791
 30
0.0
 11
791.6189018481097
 21
161.3418191777494
 31
0.0
  0
LINE
  5
BF3B
330
1F
100
AcDbEntity
  8
0
  6
Continuous
 62
     7
370
    15
100
AcDbLine
 10
787.8886159353576
 20
179.0202122287776
 30
0.0
 11
791.6189018481097
 21
179.0202122287776
 31
0.0
  0
LINE
  5
BF3C
330
1F
100
AcDbEntity
  8
0
  6
Continuous
 62
     7
370
    15
100
AcDbLine
 10
791.6189018481097
 20
178.2358635323074
 30
0.0
 11
791.6189018481097
 21
179.0202122287776
 31
0.0
  0
LINE
  5
BF3D
330
1F
100
AcDbEntity
  8
0
  6
Continuous
 62
     7
370
    15
100
AcDbLine
 10
786.9859445684276
 20
183.7888408558395
 30
0.0
 11
791.6189018481097
 21
183.7888408558395
 31
0.0
  0
LINE
  5
BF3E
330
1F
100
AcDbEntity
  8
0
  6
Continuous
 62
     7
370
    15
100
AcDbLine
 10
791.6189018481097
 20
179.0202122287776
 30
0.0
 11
791.6189018481097
 21
183.7888408558395
 31
0.0
  0
LINE
  5
BF3F
330
1F
100
AcDbEntity
  8
0
  6
Continuous
 62
     7
370
    15
100
AcDbLine
 10
786.7474254064879
 20
184.7888428823974
 30
0.0
 11
791.6189018481097
 21
184.7888428823974
 31
0.0
  0
LINE
  5
BF40
330
1F
100
AcDbEntity
  8
0
  6
Continuous
 62
     7
370
    15
100
AcDbLine
 10
791.6189018481097
 20
183.7888408558395
 30
0.0
 11
791.6189018481097
 21
184.7888428823974
 31
0.0
  0
LINE
  5
BF41
330
1F
100
AcDbEntity
  8
0
  6
Continuous
 62
     7
370
    15
100
AcDbLine
 10
716.8427496992669
 20
107.9743478553321
 30
0.0
 11
716.8427496992669
 21
104.24406194258
 31
0.0
  0
LINE
  5
BF42
330
1F
100
AcDbEntity
  8
0
  6
Continuous
 62
     7
370
    15
100
AcDbLine
 10
712.0741210722051
 20
108.8770192222622
 30
0.0
 11
712.0741210722051
 21
104.24406194258
 31
0.0
  0
LINE
  5
BF43
330
1F
100
AcDbEntity
  8
0
  6
Continuous
 62
     7
370
    15
100
AcDbLine
 10
712.0741210722051
 20
104.24406194258
 30
0.0
 11
716.8427496992669
 21
104.24406194258
 31
0.0
  0
LINE
  5
BF44
330
1F
100
AcDbEntity
  8
0
  6
Continuous
 62
     7
370
    15
100
AcDbLine
 10
711.0741209082923
 20
109.1155346589115
 30
0.0
 11
711.0741209082923
 21
104.24406194258
 31
0.0
  0
LINE
  5
BF45
330
1F
100
AcDbEntity
  8
0
  6
Continuous
 62
     7
370
    15
100
AcDbLine
 10
711.0741209082923
 20
104.24406194258
 30
0.0
 11
712.0741210722051
 21
104.24406194258
 31
0.0
  0
LINE
  5
BF46
330
1F
100
AcDbEntity
  8
0
  6
Continuous
 62
     7
370
    15
100
AcDbLine
 10
716.8427496992669
 20
104.24406194258
 30
0.0
 11
717.6270983957372
 21
104.24406194258
 31
0.0
  0
LINE
  5
BF47
330
1F
100
AcDbEntity
  8
0
  6
Continuous
 62
     7
370
    15
100
AcDbLine
 10
735.3054922616727
 20
107.9743478553321
 30
0.0
 11
735.3054922616727
 21
104.24406194258
 31
0.0
  0
LINE
  5
BF48
330
1F
100
AcDbEntity
  8
0
  6
Continuous
 62
     7
370
    15
100
AcDbLine
 10
734.5211435360986
 20
104.24406194258
 30
0.0
 11
735.3054922616727
 21
104.24406194258
 31
0.0
  0
LINE
  5
BF49
330
1F
100
AcDbEntity
  8
0
  6
Continuous
 62
     7
370
    15
100
AcDbLine
 10
740.0741214708111
 20
108.8770192222622
 30
0.0
 11
740.0741214708111
 21
104.24406194258
 31
0.0
  0
LINE
  5
BF4A
330
1F
100
AcDbEntity
  8
0
  6
Continuous
 62
     7
370
    15
100
AcDbLine
 10
735.3054922616727
 20
104.24406194258
 30
0.0
 11
740.0741214708111
 21
104.24406194258
 31
0.0
  0
LINE
  5
BF4B
330
1F
100
AcDbEntity
  8
0
  6
Continuous
 62
     7
370
    15
100
AcDbLine
 10
741.0741216347239
 20
109.1155346589115
 30
0.0
 11
741.0741216347239
 21
104.24406194258
 31
0.0
  0
LINE
  5
BF4C
330
1F
100
AcDbEntity
  8
0
  6
Continuous
 62
     7
370
    15
100
AcDbLine
 10
740.0741214708111
 20
104.24406194258
 30
0.0
 11
741.0741216347239
 21
104.24406194258
 31
0.0
  0
CIRCLE
  5
BF4D
330
1F
100
AcDbEntity
  8
0
  6
Continuous
 62
     7
370
    15
100
AcDbCircle
 10
765.6721011582959
 20
130.190861484138
 30
0.0
 40
4.250000000000028
  0
ARC
  5
BF4E
330
1F
100
AcDbEntity
  8
0
  6
Continuous
 62
     7
370
    15
100
AcDbCircle
 10
726.0741214118492
 20
169.7888412305845
 30
0.0
 40
62.5
100
AcDbArc
 50
308.1078974206546
 51
321.8921025793454
  0
CIRCLE
  5
BF4F
330
1F
100
AcDbEntity
  8
0
  6
Continuous
 62
     7
370
    15
100
AcDbCircle
 10
686.4761416654024
 20
209.3868209770311
 30
0.0
 40
4.25
  0
ARC
  5
BF50
330
1F
100
AcDbEntity
  8
0
  6
Continuous
 62
     7
370
    15
100
AcDbCircle
 10
726.0741214118492
 20
169.7888412305845
 30
0.0
 40
62.49999999999999
100
AcDbArc
 50
128.1078974206545
 51
141.8921025793454
  0
CIRCLE
  5
BF51
330
1F
100
AcDbEntity
  8
0
  6
Continuous
 62
     7
370
    15
100
AcDbCircle
 10
686.4761416654024
 20
130.1908614841379
 30
0.0
 40
4.25
  0
ARC
  5
BF52
330
1F
100
AcDbEntity
  8
0
  6
Continuous
 62
     7
370
    15
100
AcDbCircle
 10
726.0741214118492
 20
169.7888412305845
 30
0.0
 40
62.5
100
AcDbArc
 50
218.1078974206545
 51
231.8921025793474
  0
CIRCLE
  5
BF53
330
1F
100
AcDbEntity
  8
0
  6
Continuous
 62
     7
370
    15
100
AcDbCircle
 10
765.6721011582959
 20
209.3868209770312
 30
0.0
 40
4.25
  0
ARC
  5
BF54
330
1F
100
AcDbEntity
  8
0
  6
Continuous
 62
     7
370
    15
100
AcDbCircle
 10
726.0741214118492
 20
169.7888412305845
 30
0.0
 40
62.5
100
AcDbArc
 50
38.10789742065458
 51
51.89210257934544
  0
ARC
  5
BF55
330
1F
100
AcDbEntity
  8
0
  6
Continuous
 62
     7
370
    15
100
AcDbCircle
 10
940.0201248304167
 20
231.2888412305845
 30
0.0
 40
1.0
100
AcDbArc
 50
0.0
 51
90.0
  0
SPLINE
  5
BF56
330
1F
100
AcDbEntity
  8
0
  6
Continuous
 62
     7
370
    15
100
AcDbSpline
210
0.0
220
0.0
230
1.0
 70
    24
 71
     1
 72
     4
 73
     2
 74
     0
 42
0.0000000001
 43
0.0000000001
 40
0.0
 40
0.0
 40
1.0
 40
1.0
 10
940.0201278106496
 20
232.288842286351
 30
0.0
 10
887.0201247112079
 20
232.288842286351
 30
0.0
  0
ARC
  5
BF57
330
1F
100
AcDbEntity
  8
0
  6
Continuous
 62
     7
370
    15
100
AcDbCircle
 10
940.0201248304167
 20
108.2888412305845
 30
0.0
 40
1.0
100
AcDbArc
 50
270.0
 51
0.0
  0
SPLINE
  5
BF58
330
1F
100
AcDbEntity
  8
0
  6
Continuous
 62
     7
370
    15
100
AcDbSpline
210
0.0
220
0.0
230
1.0
 70
    24
 71
     1
 72
     4
 73
     2
 74
     0
 42
0.0000000001
 43
0.0000000001
 40
0.0
 40
0.0
 40
1.0
 40
1.0
 10
887.0201247112079
 20
107.288842286351
 30
0.0
 10
940.0201278106496
 20
107.288842286351
 30
0.0
  0
LINE
  5
BF59
330
1F
100
AcDbEntity
  8
0
  6
Continuous
 62
     7
370
    15
100
AcDbLine
 10
871.8887540810925
 20
177.8888415651348
 30
0.0
 11
872.6731027775628
 21
177.1044928686645
 31
0.0
  0
LINE
  5
BF5A
330
1F
100
AcDbEntity
  8
0
  6
Continuous
 62
     7
370
    15
100
AcDbLine
 10
872.6731027775628
 20
177.1044928686645
 30
0.0
 11
873.8044739068669
 21
178.2358635323074
 31
0.0
  0
LINE
  5
BF5B
330
1F
100
AcDbEntity
  8
0
  6
Continuous
 62
     7
370
    15
100
AcDbLine
 10
873.8044739068669
 20
178.2358635323074
 30
0.0
 11
873.0201252103967
 21
179.0202122287776
 31
0.0
  0
LINE
  5
BF5C
330
1F
100
AcDbEntity
  8
0
  6
Continuous
 62
     7
370
    15
100
AcDbLine
 10
873.0201252103967
 20
179.0202122287776
 30
0.0
 11
873.0201252103967
 21
183.7888408558395
 31
0.0
  0
LINE
  5
BF5D
330
1F
100
AcDbEntity
  8
0
  6
Continuous
 62
     7
370
    15
100
AcDbLine
 10
873.0201252103967
 20
183.7888408558395
 30
0.0
 11
874.0201244429869
 21
184.7888428823974
 31
0.0
  0
LINE
  5
BF5E
330
1F
100
AcDbEntity
  8
0
  6
Continuous
 62
     7
370
    15
100
AcDbLine
 10
874.0201244429869
 20
184.7888428823974
 30
0.0
 11
886.020124547295
 21
184.7888428823974
 31
0.0
  0
LINE
  5
BF5F
330
1F
100
AcDbEntity
  8
0
  6
Continuous
 62
     7
370
    15
100
AcDbLine
 10
886.020124547295
 20
184.7888428823974
 30
0.0
 11
887.0201247112078
 21
183.7888408558395
 31
0.0
  0
LINE
  5
BF60
330
1F
100
AcDbEntity
  8
0
  6
Continuous
 62
     7
370
    15
100
AcDbLine
 10
887.0201247112078
 20
183.7888408558395
 30
0.0
 11
887.0201247112078
 21
155.788841388556
 31
0.0
  0
LINE
  5
BF61
330
1F
100
AcDbEntity
  8
0
  6
Continuous
 62
     7
370
    15
100
AcDbLine
 10
886.020124547295
 20
154.7888412246432
 30
0.0
 11
874.0201244429869
 21
154.7888412246432
 31
0.0
  0
LINE
  5
BF62
330
1F
100
AcDbEntity
  8
0
  6
Continuous
 62
     7
370
    15
100
AcDbLine
 10
874.0201244429869
 20
154.7888412246432
 30
0.0
 11
873.0201252103967
 21
155.788841388556
 31
0.0
  0
LINE
  5
BF63
330
1F
100
AcDbEntity
  8
0
  6
Continuous
 62
     7
370
    15
100
AcDbLine
 10
873.0201252103967
 20
155.788841388556
 30
0.0
 11
873.0201252103967
 21
160.5574704812791
 31
0.0
  0
LINE
  5
BF64
330
1F
100
AcDbEntity
  8
0
  6
Continuous
 62
     7
370
    15
100
AcDbLine
 10
873.0201252103967
 20
160.5574704812791
 30
0.0
 11
873.8044739068669
 21
161.3418191777494
 31
0.0
  0
LINE
  5
BF65
330
1F
100
AcDbEntity
  8
0
  6
Continuous
 62
     7
370
    15
100
AcDbLine
 10
873.8044739068669
 20
161.3418191777494
 30
0.0
 11
872.6731027775628
 21
162.4731898413923
 31
0.0
  0
LINE
  5
BF66
330
1F
100
AcDbEntity
  8
0
  6
Continuous
 62
     7
370
    15
100
AcDbLine
 10
872.6731027775628
 20
162.4731898413923
 30
0.0
 11
871.8887540810925
 21
161.688841144922
 31
0.0
  0
LINE
  5
BF67
330
1F
100
AcDbEntity
  8
0
  6
Continuous
 62
     7
370
    15
100
AcDbLine
 10
871.8887540810925
 20
161.688841144922
 30
0.0
 11
868.0201248564941
 21
161.688841144922
 31
0.0
  0
LINE
  5
BF68
330
1F
100
AcDbEntity
  8
0
  6
Continuous
 62
     7
370
    15
100
AcDbLine
 10
868.0201248564941
 20
177.8888415651348
 30
0.0
 11
868.0201248564941
 21
161.688841144922
 31
0.0
  0
LINE
  5
BF69
330
1F
100
AcDbEntity
  8
0
  6
Continuous
 62
     7
370
    15
100
AcDbLine
 10
868.0201248564941
 20
177.8888415651348
 30
0.0
 11
871.8887540810925
 21
177.8888415651348
 31
0.0
  0
LINE
  5
BF6A
330
1F
100
AcDbEntity
  8
0
  6
Continuous
 62
     7
370
    15
100
AcDbLine
 10
887.0201247112078
 20
155.788841388556
 30
0.0
 11
886.020124547295
 21
154.7888412246432
 31
0.0
  0
SPLINE
  5
BF6B
330
1F
100
AcDbEntity
  8
0
  6
Continuous
 62
     7
370
    15
100
AcDbSpline
210
0.0
220
0.0
230
1.0
 70
     8
 71
     3
 72
    14
 73
    10
 74
     0
 42
0.0000000001
 43
0.0000000001
 40
0.0
 40
0.0
 40
0.0
 40
0.0
 40
0.25
 40
0.25
 40
0.5
 40
0.5
 40
0.75
 40
0.75
 40
1.0
 40
1.0
 40
1.0
 40
1.0
 10
940.0201248304165
 20
140.9231643899047
 30
0.0
 10
940.1564445192054
 20
140.9231643899047
 30
0.0
 10
940.2903549937677
 20
140.9278061075322
 30
0.0
 10
940.5360194831267
 20
140.9452305271903
 30
0.0
 10
940.6473230407602
 20
140.9580610657979
 30
0.0
 10
940.8287505779608
 20
140.9891201607262
 30
0.0
 10
940.9003955812902
 20
141.0075831668644
 30
0.0
 10
940.9956932185124
 20
141.0469865464371
 30
0.0
 10
941.0201248304165
 20
141.068118170961
 30
0.0
 10
941.0201248304165
 20
141.0892311363977
 30
0.0
  0
LINE
  5
BF6C
330
1F
100
AcDbEntity
  8
0
  6
Continuous
 62
     7
370
    15
100
AcDbLine
 10
941.0201223866268
 20
140.1840115072157
 30
0.0
 11
941.020122386627
 21
231.2888402597931
 31
0.0
  0
SPLINE
  5
BF6D
330
1F
100
AcDbEntity
  8
0
  6
Continuous
 62
     7
370
    15
100
AcDbSpline
210
0.0
220
0.0
230
1.0
 70
    11
 71
     3
 72
    89
 73
    85
 74
     0
 42
0.0000000001
 43
0.0000000001
 40
0.0
 40
0.0
 40
0.0
 40
0.0
 40
0.0312499999999993
 40
0.0312499999999993
 40
0.0468749999999991
 40
0.0468749999999991
 40
0.0624999999999988
 40
0.0624999999999988
 40
0.0937499999999982
 40
0.0937499999999982
 40
0.1249999999999976
 40
0.1249999999999976
 40
0.156249999999997
 40
0.156249999999997
 40
0.171874999999997
 40
0.171874999999997
 40
0.1874999999999969
 40
0.2031249999999969
 40
0.2031249999999969
 40
0.2187499999999968
 40
0.2187499999999968
 40
0.2499999999999968
 40
0.2499999999999968
 40
0.2812499999999967
 40
0.2812499999999967
 40
0.3124999999999967
 40
0.3124999999999967
 40
0.3281249999999968
 40
0.3281249999999968
 40
0.343749999999997
 40
0.343749999999997
 40
0.3749999999999972
 40
0.3749999999999972
 40
0.4062499999999974
 40
0.4062499999999974
 40
0.4218749999999976
 40
0.4218749999999976
 40
0.4374999999999978
 40
0.4374999999999978
 40
0.4687499999999979
 40
0.4687499999999979
 40
0.4999999999999979
 40
0.4999999999999979
 40
0.5312499999999979
 40
0.5312499999999979
 40
0.5468749999999979
 40
0.5468749999999979
 40
0.5624999999999979
 40
0.5781249999999979
 40
0.5781249999999979
 40
0.5937499999999979
 40
0.5937499999999979
 40
0.6249999999999976
 40
0.6249999999999976
 40
0.6562499999999973
 40
0.6562499999999973
 40
0.6874999999999969
 40
0.6874999999999969
 40
0.703124999999997
 40
0.703124999999997
 40
0.7187499999999972
 40
0.7187499999999972
 40
0.7499999999999978
 40
0.7499999999999978
 40
0.7812499999999984
 40
0.7812499999999984
 40
0.7968749999999988
 40
0.7968749999999988
 40
0.8124999999999991
 40
0.8124999999999991
 40
0.8437499999999992
 40
0.8437499999999992
 40
0.8749999999999996
 40
0.8749999999999996
 40
0.9062499999999998
 40
0.9062499999999998
 40
0.9218749999999998
 40
0.9218749999999998
 40
0.9375
 40
0.9531250000000001
 40
0.9531250000000001
 40
0.9687500000000001
 40
0.9687500000000001
 40
1.0
 40
1.0
 40
1.0
 40
1.0
 10
899.0201248304167
 20
227.2743043810963
 30
0.0
 10
898.5241600455678
 20
227.2743043810963
 30
0.0
 10
898.0365733227149
 20
227.2550955123837
 30
0.0
 10
897.3172254858047
 20
227.1982408019217
 30
0.0
 10
897.0794630398561
 20
227.1745726750748
 30
0.0
 10
896.6080652895465
 20
227.1174123701817
 30
0.0
 10
896.3738860753348
 20
227.08376834701
 30
0.0
 10
895.6928591473698
 20
226.9698250229838
 30
0.0
 10
895.2622600435921
 20
226.87616748693
 30
0.0
 10
894.4473348898991
 20
226.6513172108708
 30
0.0
 10
894.0618368351431
 20
226.5189665887374
 30
0.0
 10
893.3707037245374
 20
226.2243046803642
 30
0.0
 10
893.0604073379647
 20
226.0610043935931
 30
0.0
 10
892.6491872073297
 20
225.7892318511173
 30
0.0
 10
892.521648322149
 20
225.6942818830847
 30
0.0
 10
892.2903629170299
 20
225.4992031540873
 30
0.0
 10
892.0813225057669
 20
225.2979721181938
 30
0.0
 10
891.9161704749253
 20
225.0840347526017
 30
0.0
 10
891.7733031507978
 20
224.8634084708779
 30
0.0
 10
891.7127718152995
 20
224.7490976235964
 30
0.0
 10
891.5681457696813
 20
224.4007251577516
 30
0.0
 10
891.5203968954578
 20
224.1622784328445
 30
0.0
 10
891.5198550617393
 20
223.672729290327
 30
0.0
 10
891.5686370983038
 20
223.4189227930038
 30
0.0
 10
891.7601397060018
 20
222.9182875597542
 30
0.0
 10
891.901827618534
 20
222.6701216209772
 30
0.0
 10
892.1837323928048
 20
222.3023080202178
 30
0.0
 10
892.2900037085666
 20
222.1798617985548
 30
0.0
 10
892.5220422264995
 20
221.9415505388064
 30
0.0
 10
892.6479842030865
 20
221.8252909112515
 30
0.0
 10
893.0549155793514
 20
221.4854643297336
 30
0.0
 10
893.3649601966703
 20
221.2706016874185
 30
0.0
 10
894.0644982524757
 20
220.8689445521272
 30
0.0
 10
894.4428191428697
 20
220.6885440648524
 30
0.0
 10
895.0515672736251
 20
220.4494730428184
 30
0.0
 10
895.2614123359641
 20
220.3750719824461
 30
0.0
 10
895.6953145623399
 20
220.2374295558321
 30
0.0
 10
895.920025730151
 20
220.1741116329915
 30
0.0
 10
896.6009908319744
 20
220.0056292619419
 30
0.0
 10
897.068460127172
 20
219.9201651577267
 30
0.0
 10
898.0302706316322
 20
219.8042534071522
 30
0.0
 10
898.5276602979292
 20
219.7744153645904
 30
0.0
 10
899.5069829218858
 20
219.7741940311486
 30
0.0
 10
899.9939545848205
 20
219.8028498874663
 30
0.0
 10
900.7202819180152
 20
219.8896013672234
 30
0.0
 10
900.9612336616706
 20
219.9259024419067
 30
0.0
 10
901.4311222458747
 20
220.0113959074012
 30
0.0
 10
901.8917037856624
 20
220.1100668626286
 30
0.0
 10
902.3339732079309
 20
220.2342339726225
 30
0.0
 10
902.7669725648411
 20
220.3710409747548
 30
0.0
 10
902.9799616934708
 20
220.446229294789
 30
0.0
 10
903.5947914044461
 20
220.6871541645412
 30
0.0
 10
903.9723205852492
 20
220.8674819687645
 30
0.0
 10
904.6643682468307
 20
221.2638341099316
 30
0.0
 10
904.9812344449311
 20
221.4823750634998
 30
0.0
 10
905.525936820155
 20
221.9365886573024
 30
0.0
 10
905.7566818812908
 20
222.1732158353777
 30
0.0
 10
906.0397540444501
 20
222.5408247497368
 30
0.0
 10
906.1238307989913
 20
222.6661509757152
 30
0.0
 10
906.267159581287
 20
222.9160013448182
 30
0.0
 10
906.3268112264781
 20
223.0408731376497
 30
0.0
 10
906.4705160536949
 20
223.4150801582651
 30
0.0
 10
906.5196676823223
 20
223.6639805147453
 30
0.0
 10
906.5205756931277
 20
224.1600108822498
 30
0.0
 10
906.4723049490849
 20
224.3988086098964
 30
0.0
 10
906.3298661845838
 20
224.7440422055695
 30
0.0
 10
906.2706273182069
 20
224.856958945382
 30
0.0
 10
906.1281021148603
 20
225.0785474329961
 30
0.0
 10
906.0444480701182
 20
225.1874510433669
 30
0.0
 10
905.7626054472835
 20
225.501000861126
 30
0.0
 10
905.5325881920166
 20
225.694994600219
 30
0.0
 10
904.989011525452
 20
226.0556310011145
 30
0.0
 10
904.6728784633591
 20
226.2226665257419
 30
0.0
 10
903.9822361013316
 20
226.5175516552549
 30
0.0
 10
903.6052271955494
 20
226.6474900136686
 30
0.0
 10
902.9907764394049
 20
226.8176634820375
 30
0.0
 10
902.7781638472424
 20
226.8700352618032
 30
0.0
 10
902.3457857540723
 20
226.9645191219136
 30
0.0
 10
901.9040628406806
 20
227.049377109646
 30
0.0
 10
901.4438688749612
 20
227.1158067561882
 30
0.0
 10
900.9742812761297
 20
227.1731152831373
 30
0.0
 10
900.7336484135695
 20
227.1972891893177
 30
0.0
 10
900.0064416221206
 20
227.2550953223174
 30
0.0
 10
899.5160896152654
 20
227.2743043810963
 30
0.0
 10
899.0201248304167
 20
227.2743043810963
 30
0.0
  0
SPLINE
  5
BF6E
330
1F
100
AcDbEntity
  8
0
  6
Continuous
 62
     7
370
    15
100
AcDbSpline
210
0.0
220
0.0
230
1.0
 70
    11
 71
     3
 72
    89
 73
    85
 74
     0
 42
0.0000000001
 43
0.0000000001
 40
0.0
 40
0.0
 40
0.0
 40
0.0
 40
0.0312500000000004
 40
0.0312500000000004
 40
0.0468750000000005
 40
0.0468750000000005
 40
0.0625000000000007
 40
0.0625000000000007
 40
0.0937500000000009
 40
0.0937500000000009
 40
0.125000000000001
 40
0.125000000000001
 40
0.1562500000000012
 40
0.1562500000000012
 40
0.1718750000000015
 40
0.1718750000000015
 40
0.1875000000000018
 40
0.2031250000000022
 40
0.2031250000000022
 40
0.2187500000000025
 40
0.2187500000000025
 40
0.2500000000000031
 40
0.2500000000000031
 40
0.2812500000000036
 40
0.2812500000000036
 40
0.3125000000000041
 40
0.3125000000000041
 40
0.3281250000000042
 40
0.3281250000000042
 40
0.3437500000000043
 40
0.3437500000000043
 40
0.3750000000000043
 40
0.3750000000000043
 40
0.4062500000000044
 40
0.4062500000000044
 40
0.4218750000000043
 40
0.4218750000000043
 40
0.4375000000000043
 40
0.4375000000000043
 40
0.4687500000000046
 40
0.4687500000000046
 40
0.5000000000000049
 40
0.5000000000000049
 40
0.5312500000000053
 40
0.5312500000000053
 40
0.546875000000005
 40
0.546875000000005
 40
0.5625000000000048
 40
0.5781250000000045
 40
0.5781250000000045
 40
0.5937500000000043
 40
0.5937500000000043
 40
0.6250000000000038
 40
0.6250000000000038
 40
0.6562500000000035
 40
0.6562500000000035
 40
0.6875000000000031
 40
0.6875000000000031
 40
0.7031250000000031
 40
0.7031250000000031
 40
0.7187500000000031
 40
0.7187500000000031
 40
0.7500000000000031
 40
0.7500000000000031
 40
0.7812500000000031
 40
0.7812500000000031
 40
0.7968750000000026
 40
0.7968750000000026
 40
0.8125000000000021
 40
0.8125000000000021
 40
0.8437500000000015
 40
0.8437500000000015
 40
0.875000000000001
 40
0.875000000000001
 40
0.9062500000000003
 40
0.9062500000000003
 40
0.9218750000000003
 40
0.9218750000000003
 40
0.9375000000000001
 40
0.9531250000000001
 40
0.9531250000000001
 40
0.9687500000000001
 40
0.9687500000000001
 40
1.0
 40
1.0
 40
1.0
 40
1.0
 10
927.5201248304165
 20
207.308215873945
 30
0.0
 10
927.0241600455678
 20
207.308215873945
 30
0.0
 10
926.5365733227147
 20
207.2690023279732
 30
0.0
 10
925.8172254858047
 20
207.1535693847153
 30
0.0
 10
925.5794630398559
 20
207.1055811617853
 30
0.0
 10
925.1080652895463
 20
206.990052387457
 30
0.0
 10
924.8738860753347
 20
206.9222090254235
 30
0.0
 10
924.1928591473698
 20
206.6933511281267
 30
0.0
 10
923.7622600435921
 20
206.5062614769916
 30
0.0
 10
922.9473348898991
 20
206.0622260323565
 30
0.0
 10
922.5618368351431
 20
205.8030914589283
 30
0.0
 10
921.8707037245374
 20
205.2338591056252
 30
0.0
 10
921.5604073379646
 20
204.9217584987127
 30
0.0
 10
921.1491872073297
 20
204.4099272011845
 30
0.0
 10
921.021648322149
 20
204.2322700762292
 30
0.0
 10
920.7903628431276
 20
203.8698688430664
 30
0.0
 10
920.5813225057667
 20
203.4985399657956
 30
0.0
 10
920.4161704749251
 20
203.1092539389782
 30
0.0
 10
920.2733031507978
 20
202.7107059431834
 30
0.0
 10
920.2127718152993
 20
202.5056409450573
 30
0.0
 10
920.0681457696811
 20
201.8852165646968
 30
0.0
 10
920.0203968954578
 20
201.4664296948545
 30
0.0
 10
920.0198550617392
 20
200.618440687176
 30
0.0
 10
920.0686370983037
 20
200.1847425615228
 30
0.0
 10
920.2601397060018
 20
199.3401613700912
 30
0.0
 10
920.4018276185342
 20
198.9268396264479
 30
0.0
 10
920.6837323928048
 20
198.3210599526109
 30
0.0
 10
920.7900037085664
 20
198.1205626335595
 30
0.0
 10
921.0220422264994
 20
197.7323904410489
 30
0.0
 10
921.1479842030863
 20
197.5440541133019
 30
0.0
 10
921.5549155793514
 20
196.996152937732
 30
0.0
 10
921.8649601966701
 20
196.6532960554914
 30
0.0
 10
922.5644982524757
 20
196.0172014709595
 30
0.0
 10
922.9428191428697
 20
195.7340572949406
 30
0.0
 10
923.5515672736251
 20
195.3608077246733
 30
0.0
 10
923.7614123359639
 20
195.2450304171621
 30
0.0
 10
924.19531456234
 20
195.0313539131562
 30
0.0
 10
924.420025730151
 20
194.9333388097847
 30
0.0
 10
925.1009908319744
 20
194.6730166952583
 30
0.0
 10
925.5684601271719
 20
194.5416486101524
 30
0.0
 10
926.5302706316322
 20
194.3636753796267
 30
0.0
 10
927.027660297929
 20
194.3180048609938
 30
0.0
 10
928.0069829218858
 20
194.317665744054
 30
0.0
 10
928.4939545848205
 20
194.361523722924
 30
0.0
 10
929.2202819180152
 20
194.4947187494831
 30
0.0
 10
929.4612336616705
 20
194.5504991970928
 30
0.0
 10
929.9311222104503
 20
194.6821094932317
 30
0.0
 10
930.3917037856622
 20
194.8342076823793
 30
0.0
 10
930.8339732079309
 20
195.0264030208369
 30
0.0
 10
931.2669725648412
 20
195.2387632403215
 30
0.0
 10
931.4799616934706
 20
195.3557520365261
 30
0.0
 10
932.0947914044461
 20
195.7318705038535
 30
0.0
 10
932.4723205852492
 20
196.0149204910164
 30
0.0
 10
933.1643682468305
 20
196.6425438559893
 30
0.0
 10
933.4812344449309
 20
196.9911989614068
 30
0.0
 10
934.0259368201548
 20
197.7234725303182
 30
0.0
 10
934.2566818812908
 20
198.1085323225355
 30
0.0
 10
934.5397540444501
 20
198.7138506744789
 30
0.0
 10
934.6238307989914
 20
198.9213849043844
 30
0.0
 10
934.7671595812869
 20
199.3376734009835
 30
0.0
 10
934.8268112264781
 20
199.5469870763357
 30
0.0
 10
934.9705160536949
 20
200.1782177344556
 30
0.0
 10
935.0196676823223
 20
200.6033745933495
 30
0.0
 10
935.0205756931275
 20
201.4624154307128
 30
0.0
 10
934.9723049490847
 20
201.8818708292009
 30
0.0
 10
934.8298661845836
 20
202.496604767373
 30
0.0
 10
934.7706273182067
 20
202.6991077460519
 30
0.0
 10
934.6281021148602
 20
203.0992917028698
 30
0.0
 10
934.5444480701182
 20
203.2974134208588
 30
0.0
 10
934.2626054472834
 20
203.8717829742351
 30
0.0
 10
934.0325881920167
 20
204.2325261795727
 30
0.0
 10
933.4890115254518
 20
204.911563932777
 30
0.0
 10
933.1728784633591
 20
205.2307181134403
 30
0.0
 10
932.4822361013316
 20
205.8003346924095
 30
0.0
 10
932.1052271955492
 20
206.0547051289062
 30
0.0
 10
931.4907764394048
 20
206.3907096231394
 30
0.0
 10
931.2781638472422
 20
206.4946748831491
 30
0.0
 10
930.8457858172705
 20
206.6829665067035
 30
0.0
 10
930.4040628406804
 20
206.8528699444915
 30
0.0
 10
929.9438688749612
 20
206.9868129715936
 30
0.0
 10
929.4742812761297
 20
207.1026301240859
 30
0.0
 10
929.2336484135695
 20
207.1516389297058
 30
0.0
 10
928.5064416221205
 20
207.268998784971
 30
0.0
 10
928.0160896152652
 20
207.308215873945
 30
0.0
 10
927.5201248304165
 20
207.308215873945
 30
0.0
  0
LINE
  5
BF6F
330
1F
100
AcDbEntity
  8
0
  6
Continuous
 62
     7
370
    15
100
AcDbLine
 10
866.0201248779147
 20
140.9231643899047
 30
0.0
 11
940.0201278106495
 21
140.9231643899047
 31
0.0
  0
LINE
  5
BF70
330
1F
100
AcDbEntity
  8
0
  6
Continuous
 62
     7
370
    15
100
AcDbLine
 10
866.0201248304167
 20
140.9231643899047
 30
0.0
 11
866.0201248779147
 21
161.688841144922
 31
0.0
  0
LINE
  5
BF71
330
1F
100
AcDbEntity
  8
0
  6
Continuous
 62
     7
370
    15
100
AcDbLine
 10
868.0201248564943
 20
161.688841144922
 30
0.0
 11
866.0201248779147
 21
161.688841144922
 31
0.0
  0
LINE
  5
BF72
330
1F
100
AcDbEntity
  8
0
  6
Continuous
 62
     7
370
    15
100
AcDbLine
 10
873.0201252103968
 20
161.688841144922
 30
0.0
 11
871.8887540810927
 21
161.688841144922
 31
0.0
  0
LINE
  5
BF73
330
1F
100
AcDbEntity
  8
0
  6
Continuous
 62
     7
370
    15
100
AcDbLine
 10
873.0201252103968
 20
160.5574704812791
 30
0.0
 11
873.0201252103968
 21
161.688841144922
 31
0.0
  0
LINE
  5
BF74
330
1F
100
AcDbEntity
  8
0
  6
Continuous
 62
     7
370
    15
100
AcDbLine
 10
873.0201252103968
 20
154.7888412246432
 30
0.0
 11
873.0201252103968
 21
155.788841388556
 31
0.0
  0
LINE
  5
BF75
330
1F
100
AcDbEntity
  8
0
  6
Continuous
 62
     7
370
    15
100
AcDbLine
 10
874.020124442987
 20
154.7888412246432
 30
0.0
 11
873.0201252103968
 21
154.7888412246432
 31
0.0
  0
LINE
  5
BF76
330
1F
100
AcDbEntity
  8
0
  6
Continuous
 62
     7
370
    15
100
AcDbLine
 10
887.0201247112079
 20
154.7888412246432
 30
0.0
 11
886.0201245472952
 21
154.7888412246432
 31
0.0
  0
LINE
  5
BF77
330
1F
100
AcDbEntity
  8
0
  6
Continuous
 62
     7
370
    15
100
AcDbLine
 10
887.0201247112079
 20
155.788841388556
 30
0.0
 11
887.0201247112079
 21
154.7888412246432
 31
0.0
  0
LINE
  5
BF78
330
1F
100
AcDbEntity
  8
0
  6
Continuous
 62
     7
370
    15
100
AcDbLine
 10
887.0201247112079
 20
184.7888428823974
 30
0.0
 11
887.0201247112079
 21
183.7888408558395
 31
0.0
  0
LINE
  5
BF79
330
1F
100
AcDbEntity
  8
0
  6
Continuous
 62
     7
370
    15
100
AcDbLine
 10
886.0201245472952
 20
184.7888428823974
 30
0.0
 11
887.0201247112079
 21
184.7888428823974
 31
0.0
  0
LINE
  5
BF7A
330
1F
100
AcDbEntity
  8
0
  6
Continuous
 62
     7
370
    15
100
AcDbLine
 10
873.0201252103968
 20
184.7888428823974
 30
0.0
 11
874.020124442987
 21
184.7888428823974
 31
0.0
  0
LINE
  5
BF7B
330
1F
100
AcDbEntity
  8
0
  6
Continuous
 62
     7
370
    15
100
AcDbLine
 10
873.0201252103968
 20
183.7888408558395
 30
0.0
 11
873.0201252103968
 21
184.7888428823974
 31
0.0
  0
LINE
  5
BF7C
330
1F
100
AcDbEntity
  8
0
  6
Continuous
 62
     7
370
    15
100
AcDbLine
 10
873.0201252103968
 20
177.8888415651348
 30
0.0
 11
873.0201252103968
 21
179.0202122287776
 31
0.0
  0
LINE
  5
BF7D
330
1F
100
AcDbEntity
  8
0
  6
Continuous
 62
     7
370
    15
100
AcDbLine
 10
871.8887540810927
 20
177.8888415651348
 30
0.0
 11
873.0201252103968
 21
177.8888415651348
 31
0.0
  0
LINE
  5
BF7E
330
1F
100
AcDbEntity
  8
0
  6
Continuous
 62
     7
370
    15
100
AcDbLine
 10
866.0201248779147
 20
177.8888415651348
 30
0.0
 11
868.0201248564943
 21
177.8888415651348
 31
0.0
  0
LINE
  5
BF7F
330
1F
100
AcDbEntity
  8
0
  6
Continuous
 62
     7
370
    15
100
AcDbLine
 10
866.0201248779147
 20
177.8888415651348
 30
0.0
 11
866.0201248779147
 21
208.3603639261749
 31
0.0
  0
LINE
  5
BF80
330
1F
100
AcDbEntity
  8
0
  6
Continuous
 62
     7
370
    15
100
AcDbLine
 10
866.0201248779147
 20
208.3603639261749
 30
0.0
 11
874.020124442987
 21
208.3603639261749
 31
0.0
  0
LINE
  5
BF81
330
1F
100
AcDbEntity
  8
0
  6
Continuous
 62
     7
370
    15
100
AcDbLine
 10
874.020124442987
 20
208.3603639261749
 30
0.0
 11
874.020124442987
 21
218.9669657604721
 31
0.0
  0
LINE
  5
BF82
330
1F
100
AcDbEntity
  8
0
  6
Continuous
 62
     7
370
    15
100
AcDbLine
 10
874.020124442987
 20
218.9669657604721
 30
0.0
 11
866.0201248779147
 21
218.9669657604721
 31
0.0
  0
LINE
  5
BF83
330
1F
100
AcDbEntity
  8
0
  6
Continuous
 62
     7
370
    15
100
AcDbLine
 10
866.0201248779147
 20
218.9669657604721
 30
0.0
 11
866.0201248779147
 21
231.7617360608604
 31
0.0
  0
LINE
  5
BF84
330
1F
100
AcDbEntity
  8
0
  6
Continuous
 62
     7
370
    15
100
AcDbLine
 10
868.0201248564943
 20
231.7617360608604
 30
0.0
 11
866.0201248779147
 21
231.7617360608604
 31
0.0
  0
LINE
  5
BF85
330
1F
100
AcDbEntity
  8
0
  6
Continuous
 62
     7
370
    15
100
AcDbLine
 10
871.8887540810927
 20
231.7617360608604
 30
0.0
 11
868.0201248564943
 21
231.7617360608604
 31
0.0
  0
LINE
  5
BF86
330
1F
100
AcDbEntity
  8
0
  6
Continuous
 62
     7
370
    15
100
AcDbLine
 10
873.0201252103968
 20
231.7617360608604
 30
0.0
 11
871.8887540810927
 21
231.7617360608604
 31
0.0
  0
LINE
  5
BF87
330
1F
100
AcDbEntity
  8
0
  6
Continuous
 62
     7
370
    15
100
AcDbLine
 10
873.0201252103968
 20
230.4621461885002
 30
0.0
 11
873.0201252103968
 21
230.7006616251495
 31
0.0
  0
LINE
  5
BF88
330
1F
100
AcDbEntity
  8
0
  6
Continuous
 62
     7
370
    15
100
AcDbLine
 10
874.020124442987
 20
230.4621461885002
 30
0.0
 11
873.0201252103968
 21
230.4621461885002
 31
0.0
  0
LINE
  5
BF89
330
1F
100
AcDbEntity
  8
0
  6
Continuous
 62
     7
370
    15
100
AcDbLine
 10
886.0201245472952
 20
230.4621461885002
 30
0.0
 11
874.020124442987
 21
230.4621461885002
 31
0.0
  0
LINE
  5
BF8A
330
1F
100
AcDbEntity
  8
0
  6
Continuous
 62
     7
370
    15
100
AcDbLine
 10
887.0201247112079
 20
230.4621461885002
 30
0.0
 11
886.0201245472952
 21
230.4621461885002
 31
0.0
  0
LINE
  5
BF8B
330
1F
100
AcDbEntity
  8
0
  6
Continuous
 62
     7
370
    15
100
AcDbLine
 10
887.0201247112079
 20
230.7006616251495
 30
0.0
 11
887.0201247112079
 21
230.4621461885002
 31
0.0
  0
LINE
  5
BF8C
330
1F
100
AcDbEntity
  8
0
  6
Continuous
 62
     7
370
    15
100
AcDbLine
 10
865.0201248304165
 20
177.8888415651348
 30
0.0
 11
865.0201248304165
 21
207.6480250911739
 31
0.0
  0
SPLINE
  5
BF8D
330
1F
100
AcDbEntity
  8
0
  6
Continuous
 62
     7
370
    15
100
AcDbSpline
210
0.0
220
0.0
230
1.0
 70
     8
 71
     3
 72
    10
 73
     6
 74
     0
 42
0.0000000001
 43
0.0000000001
 40
0.0
 40
0.0
 40
0.0
 40
0.0
 40
0.5
 40
0.5
 40
1.0
 40
1.0
 40
1.0
 40
1.0
 10
865.0201248304165
 20
207.6480240814998
 30
0.0
 10
865.0201248304165
 20
207.8341191758639
 30
0.0
 10
865.1266750427174
 20
208.0185170294933
 30
0.0
 10
865.4967424512669
 20
208.2830960357985
 30
0.0
 10
865.7562327735147
 20
208.360362308646
 30
0.0
 10
866.0201248304165
 20
208.360362308646
 30
0.0
  0
SPLINE
  5
BF8E
330
1F
100
AcDbEntity
  8
0
  6
Continuous
 62
     7
370
    15
100
AcDbSpline
210
0.0
220
0.0
230
1.0
 70
    24
 71
     3
 72
    14
 73
    10
 74
     0
 42
0.0000000001
 43
0.0000000001
 40
0.0
 40
0.0
 40
0.0
 40
0.0
 40
0.25
 40
0.25
 40
0.5
 40
0.5
 40
0.75
 40
0.75
 40
1.0
 40
1.0
 40
1.0
 40
1.0
 10
865.0201248304165
 20
177.8888412305849
 30
0.0
 10
865.0201248304165
 20
177.8888412305849
 30
0.0
 10
865.0460925226186
 20
177.8888412305849
 30
0.0
 10
865.145209093494
 20
177.8888412305849
 30
0.0
 10
865.2194431767368
 20
177.8888412305849
 30
0.0
 10
865.4033293402404
 20
177.8888412305849
 30
0.0
 10
865.5148499777174
 20
177.888841230585
 30
0.0
 10
865.7568225498019
 20
177.8888412305849
 30
0.0
 10
865.8881284092499
 20
177.888841230585
 30
0.0
 10
866.0201248304165
 20
177.8888412305849
 30
0.0
  0
SPLINE
  5
BF8F
330
1F
100
AcDbEntity
  8
0
  6
Continuous
 62
     7
370
    15
100
AcDbSpline
210
0.0
220
0.0
230
1.0
 70
     8
 71
     3
 72
    14
 73
    10
 74
     0
 42
0.0000000001
 43
0.0000000001
 40
0.0
 40
0.0
 40
0.0
 40
0.0
 40
0.25
 40
0.25
 40
0.5
 40
0.5
 40
0.75
 40
0.75
 40
1.0
 40
1.0
 40
1.0
 40
1.0
 10
865.0201248304167
 20
141.0892311363977
 30
0.0
 10
865.0201248304167
 20
141.0679301196813
 30
0.0
 10
865.044232521614
 20
141.0471110857906
 30
0.0
 10
865.1403000598788
 20
141.0074081706097
 30
0.0
 10
865.2109901993613
 20
140.9892069080035
 30
0.0
 10
865.3934519737033
 20
140.9579714989876
 30
0.0
 10
865.5042011491209
 20
140.945237681491
 30
0.0
 10
865.7495349083589
 20
140.9278265370918
 30
0.0
 10
865.8843839784099
 20
140.9231643899047
 30
0.0
 10
866.0201248304167
 20
140.9231643899047
 30
0.0
  0
LINE
  5
BF90
330
1F
100
AcDbEntity
  8
0
  6
Continuous
 62
     7
370
    15
100
AcDbLine
 10
865.0201248304165
 20
140.1840115072157
 30
0.0
 11
865.0201248304165
 21
161.688841144922
 31
0.0
  0
SPLINE
  5
BF91
330
1F
100
AcDbEntity
  8
0
  6
Continuous
 62
     7
370
    15
100
AcDbSpline
210
0.0
220
0.0
230
1.0
 70
    24
 71
     3
 72
    14
 73
    10
 74
     0
 42
0.0000000001
 43
0.0000000001
 40
0.0
 40
0.0
 40
0.0
 40
0.0
 40
0.25
 40
0.25
 40
0.5
 40
0.5
 40
0.75
 40
0.75
 40
1.0
 40
1.0
 40
1.0
 40
1.0
 10
866.0201248304165
 20
161.6888412305849
 30
0.0
 10
865.8888968448898
 20
161.6888412305849
 30
0.0
 10
865.7578565536221
 20
161.6888412305849
 30
0.0
 10
865.5142014384695
 20
161.6888412305849
 30
0.0
 10
865.4039781494736
 20
161.6888412305849
 30
0.0
 10
865.2185171432739
 20
161.6888412305849
 30
0.0
 10
865.1451638708975
 20
161.6888412305849
 30
0.0
 10
865.0459131197903
 20
161.6888412305849
 30
0.0
 10
865.0201248304165
 20
161.6888412305849
 30
0.0
 10
865.0201248304165
 20
161.6888412305849
 30
0.0
  0
ARC
  5
BF92
330
1F
100
AcDbEntity
  8
0
  6
Continuous
 62
     7
370
    15
100
AcDbCircle
 10
927.0299894265127
 20
200.0222670769939
 30
0.0
 40
7.028872934820585
100
AcDbArc
 50
86.00142171038783
 51
175.7853513068036
  0
ARC
  5
BF93
330
1F
100
AcDbEntity
  8
0
  6
Continuous
 62
     7
370
    15
100
AcDbCircle
 10
928.0102636820066
 20
200.0222710580388
 30
0.0
 40
7.028869203880414
100
AcDbArc
 50
4.214618394929902
 51
93.99860858787855
  0
LWPOLYLINE
  5
BF94
330
1F
100
AcDbEntity
  8
0
  6
Continuous
 62
     7
370
    15
100
AcDbPolyline
 90
       37
 70
   128
 43
0.0
 10
927.5201248304172
 20
204.4887963788536
 10
926.728113211803
 20
204.4287856774356
 10
925.9601669685169
 20
204.2505826907184
 10
925.2396175936981
 20
203.9596002655056
 10
924.588362343721
 20
203.5646822409656
 10
924.0261862353607
 20
203.0778240518596
 10
923.5701697246357
 20
202.5138188259628
 10
923.2341746167465
 20
201.8898066239383
 10
923.0284044818207
 20
201.2247417228248
 10
922.959110356979
 20
200.538841273072
 10
923.0284044818207
 20
199.8529408233192
 10
923.2341746167465
 20
199.1878759222057
 10
923.5701697246357
 20
198.5638637201812
 10
924.0261862353607
 20
197.9998584942844
 10
924.588362343721
 20
197.5130003051784
 10
925.2396175936981
 20
197.1180822806385
 10
925.9601669685169
 20
196.8270998554256
 10
926.728113211803
 20
196.6488968687084
 10
927.5201248304172
 20
196.5888861672904
 10
928.3121364490314
 20
196.6488968687084
 10
929.0800826923176
 20
196.8270998554256
 10
929.8006283418461
 20
197.1180822806385
 10
930.4518910424038
 20
197.5130003051784
 10
931.0140671507641
 20
197.9998584942844
 10
931.4700799361988
 20
198.5638637201812
 10
931.8060787693783
 20
199.1878759222057
 10
932.0118489043041
 20
199.8529408233192
 10
932.0811393038555
 20
200.538841273072
 10
932.0118489043041
 20
201.2247417228248
 10
931.8060787693783
 20
201.8898066239383
 10
931.4700799361988
 20
202.5138188259628
 10
931.0140671507641
 20
203.0778240518596
 10
930.4518910424038
 20
203.5646822409656
 10
929.8006283418461
 20
203.9596002655056
 10
929.0800826923176
 20
204.2505826907184
 10
928.3121364490314
 20
204.4287856774356
 10
927.5201248304172
 20
204.4887963788536
  0
ARC
  5
BF95
330
1F
100
AcDbEntity
  8
0
  6
Continuous
 62
     7
370
    15
100
AcDbCircle
 10
927.3501833856002
 20
196.4584567637109
 30
0.0
 40
4.344424035031855
100
AcDbArc
 50
87.75818098181771
 51
150.7627798111366
  0
ARC
  5
BF96
330
1F
100
AcDbEntity
  8
0
  6
Continuous
 62
     7
370
    15
100
AcDbCircle
 10
927.6428415617825
 20
196.3741671393041
 30
0.0
 40
4.427089725610258
100
AcDbArc
 50
29.89062515805677
 51
91.58841404898847
  0
LINE
  5
BF97
330
1F
100
AcDbEntity
  8
0
  6
Continuous
 62
     7
370
    15
100
AcDbLine
 10
865.0201248304163
 20
139.0286186485254
 30
0.0
 11
941.0201223866268
 21
139.0286186485255
 31
0.0
  0
SPLINE
  5
BF98
330
1F
100
AcDbEntity
  8
0
  6
Continuous
 62
     7
370
    15
100
AcDbSpline
210
0.0
220
0.0
230
1.0
 70
     8
 71
     3
 72
    14
 73
    10
 74
     0
 42
0.0000000001
 43
0.0000000001
 40
0.0
 40
0.0
 40
0.0
 40
0.0
 40
0.25
 40
0.25
 40
0.5
 40
0.5
 40
0.75
 40
0.75
 40
1.0
 40
1.0
 40
1.0
 40
1.0
 10
941.0201248304165
 20
136.9062222459128
 30
0.0
 10
941.0201248304165
 20
136.7984386863768
 30
0.0
 10
940.9959356598433
 20
136.6911994475467
 30
0.0
 10
940.9001496395557
 20
136.4891336946612
 30
0.0
 10
940.8297907640482
 20
136.3963892810425
 30
0.0
 10
940.646536991708
 20
136.2362692841203
 30
0.0
 10
940.5369269537787
 20
136.1718707679549
 30
0.0
 10
940.2897462378115
 20
136.0823804207463
 30
0.0
 10
940.1564788806405
 20
136.058938164949
 30
0.0
 10
940.0201248304165
 20
136.058938164949
 30
0.0
  0
LINE
  5
BF99
330
1F
100
AcDbEntity
  8
0
  6
Continuous
 62
     7
370
    15
100
AcDbLine
 10
940.0201248304163
 20
136.0589382945263
 30
0.0
 11
866.0201248779147
 21
136.0589381210707
 31
0.0
  0
SPLINE
  5
BF9A
330
1F
100
AcDbEntity
  8
0
  6
Continuous
 62
     7
370
    15
100
AcDbSpline
210
0.0
220
0.0
230
1.0
 70
     8
 71
     3
 72
    14
 73
    10
 74
     0
 42
0.0000000001
 43
0.0000000001
 40
0.0
 40
0.0
 40
0.0
 40
0.0
 40
0.25
 40
0.25
 40
0.5
 40
0.5
 40
0.75
 40
0.75
 40
1.0
 40
1.0
 40
1.0
 40
1.0
 10
866.0201248304165
 20
136.0589382945263
 30
0.0
 10
865.8850193896851
 20
136.0589382945263
 30
0.0
 10
865.7500410586681
 20
136.0826377359229
 30
0.0
 10
865.5051280955341
 20
136.1711279689286
 30
0.0
 10
865.3935933038171
 20
136.2365050344508
 30
0.0
 10
865.2117250901122
 20
136.395152562137
 30
0.0
 10
865.1403066866214
 20
136.4888075876267
 30
0.0
 10
865.0443868621842
 20
136.6909364569637
 30
0.0
 10
865.0201248304165
 20
136.7976070251817
 30
0.0
 10
865.0201248304165
 20
136.9062223754901
 30
0.0
  0
LINE
  5
BF9B
330
1F
100
AcDbEntity
  8
0
  6
Continuous
 62
     7
370
    15
100
AcDbLine
 10
865.0201248304165
 20
136.001003171685
 30
0.0
 11
865.0201248304165
 21
138.1233988435891
 31
0.0
  0
LINE
  5
BF9C
330
1F
100
AcDbEntity
  8
0
  6
Continuous
 62
     7
370
    15
100
AcDbLine
 10
941.0201223866268
 20
138.1233988435891
 30
0.0
 11
941.0201223866268
 21
136.001003171685
 31
0.0
  0
LINE
  5
BF9D
330
1F
100
AcDbEntity
  8
0
  6
Continuous
 62
     7
370
    15
100
AcDbLine
 10
941.020122386627
 20
108.2888405876186
 30
0.0
 11
941.0201223866268
 21
136.001003171685
 31
0.0
  0
SPLINE
  5
BF9E
330
1F
100
AcDbEntity
  8
0
  6
Continuous
 62
     7
370
    15
100
AcDbSpline
210
0.0
220
0.0
230
1.0
 70
     8
 71
     3
 72
    10
 73
     6
 74
     0
 42
0.0000000001
 43
0.0000000001
 40
0.0
 40
0.0
 40
0.0
 40
0.0
 40
0.5
 40
0.5
 40
1.0
 40
1.0
 40
1.0
 40
1.0
 10
865.0201248304165
 20
131.9296583796692
 30
0.0
 10
865.0201248304165
 20
131.7435623086724
 30
0.0
 10
865.1266760370829
 20
131.5591646621818
 30
0.0
 10
865.4967417693812
 20
131.2945869714577
 30
0.0
 10
865.7562339351047
 20
131.2173201525231
 30
0.0
 10
866.0201248304165
 20
131.2173201525231
 30
0.0
  0
LINE
  5
BF9F
330
1F
100
AcDbEntity
  8
0
  6
Continuous
 62
     7
370
    15
100
AcDbLine
 10
866.0201248779147
 20
131.217320646527
 30
0.0
 11
866.0201248779147
 21
136.0589381210707
 31
0.0
  0
LINE
  5
BFA0
330
1F
100
AcDbEntity
  8
0
  6
Continuous
 62
     7
370
    15
100
AcDbLine
 10
865.0201248304165
 20
131.9296576188829
 30
0.0
 11
865.0201248304165
 21
136.001003171685
 31
0.0
  0
LINE
  5
BFA1
330
1F
100
AcDbEntity
  8
0
  6
Continuous
 62
     7
370
    15
100
AcDbLine
 10
887.0201247112079
 20
109.1155346589115
 30
0.0
 11
887.0201247112079
 21
108.8770192222622
 31
0.0
  0
LINE
  5
BFA2
330
1F
100
AcDbEntity
  8
0
  6
Continuous
 62
     7
370
    15
100
AcDbLine
 10
886.0201245472952
 20
109.1155346589115
 30
0.0
 11
887.0201247112079
 21
109.1155346589115
 31
0.0
  0
LINE
  5
BFA3
330
1F
100
AcDbEntity
  8
0
  6
Continuous
 62
     7
370
    15
100
AcDbLine
 10
874.020124442987
 20
109.1155346589115
 30
0.0
 11
886.0201245472952
 21
109.1155346589115
 31
0.0
  0
LINE
  5
BFA4
330
1F
100
AcDbEntity
  8
0
  6
Continuous
 62
     7
370
    15
100
AcDbLine
 10
873.0201252103968
 20
109.1155346589115
 30
0.0
 11
874.020124442987
 21
109.1155346589115
 31
0.0
  0
LINE
  5
BFA5
330
1F
100
AcDbEntity
  8
0
  6
Continuous
 62
     7
370
    15
100
AcDbLine
 10
873.0201252103968
 20
108.8770192222622
 30
0.0
 11
873.0201252103968
 21
109.1155346589115
 31
0.0
  0
LINE
  5
BFA6
330
1F
100
AcDbEntity
  8
0
  6
Continuous
 62
     7
370
    15
100
AcDbLine
 10
871.8887540810927
 20
107.8159447865512
 30
0.0
 11
873.0201252103968
 21
107.8159447865512
 31
0.0
  0
LINE
  5
BFA7
330
1F
100
AcDbEntity
  8
0
  6
Continuous
 62
     7
370
    15
100
AcDbLine
 10
868.0201248564943
 20
107.8159447865512
 30
0.0
 11
871.8887540810927
 21
107.8159447865512
 31
0.0
  0
LINE
  5
BFA8
330
1F
100
AcDbEntity
  8
0
  6
Continuous
 62
     7
370
    15
100
AcDbLine
 10
866.0201248779147
 20
107.8159447865512
 30
0.0
 11
868.0201248564943
 21
107.8159447865512
 31
0.0
  0
LINE
  5
BFA9
330
1F
100
AcDbEntity
  8
0
  6
Continuous
 62
     7
370
    15
100
AcDbLine
 10
866.0201248779147
 20
107.8159447865512
 30
0.0
 11
866.0201248779149
 21
111.5720318996902
 31
0.0
  0
LINE
  5
BFAA
330
1F
100
AcDbEntity
  8
0
  6
Continuous
 62
     7
370
    15
100
AcDbLine
 10
874.020124442987
 20
120.6107188122299
 30
0.0
 11
866.0201248779147
 21
120.6107188122299
 31
0.0
  0
LINE
  5
BFAB
330
1F
100
AcDbEntity
  8
0
  6
Continuous
 62
     7
370
    15
100
AcDbLine
 10
874.020124442987
 20
120.6107188122299
 30
0.0
 11
874.020124442987
 21
131.217320646527
 31
0.0
  0
LINE
  5
BFAC
330
1F
100
AcDbEntity
  8
0
  6
Continuous
 62
     7
370
    15
100
AcDbLine
 10
866.0201248779147
 20
131.217320646527
 30
0.0
 11
874.020124442987
 21
131.217320646527
 31
0.0
  0
LINE
  5
BFAD
330
1F
100
AcDbEntity
  8
0
  6
Continuous
 62
     7
370
    15
100
AcDbLine
 10
865.0201248304165
 20
140.4631702004635
 30
0.0
 11
941.0201223866268
 21
140.4631702004635
 31
0.0
  0
LINE
  5
BFAE
330
1F
100
AcDbEntity
  8
0
  6
Continuous
 62
     7
370
    15
100
AcDbLine
 10
865.0201248304165
 20
138.1233988435891
 30
0.0
 11
865.0201248304165
 21
139.5579503955271
 31
0.0
  0
LINE
  5
BFAF
330
1F
100
AcDbEntity
  8
0
  6
Continuous
 62
     7
370
    15
100
AcDbLine
 10
941.0201223866268
 20
138.1233988435891
 30
0.0
 11
941.0201223866268
 21
139.5579503955271
 31
0.0
  0
ARC
  5
BFB0
330
1F
100
AcDbEntity
  8
0
  6
Continuous
 62
     7
370
    15
100
AcDbCircle
 10
927.3425421752163
 20
196.5649812062647
 30
0.0
 40
3.898706861549449
100
AcDbArc
 50
87.38932456329767
 51
154.6912752070332
  0
ARC
  5
BFB1
330
1F
100
AcDbEntity
  8
0
  6
Continuous
 62
     7
370
    15
100
AcDbCircle
 10
927.6489324507299
 20
196.4839350954967
 30
0.0
 40
3.977792556626035
100
AcDbArc
 50
26.06374202589851
 51
91.85565820376872
  0
ARC
  5
BFB2
330
1F
100
AcDbEntity
  8
0
  6
Continuous
 62
     7
370
    15
100
AcDbCircle
 10
927.4051736111509
 20
195.9300400918529
 30
0.0
 40
4.0312397524514
100
AcDbArc
 50
88.36598341953179
 51
148.2504362487648
  0
ARC
  5
BFB3
330
1F
100
AcDbEntity
  8
0
  6
Continuous
 62
     7
370
    15
100
AcDbCircle
 10
927.6350884026552
 20
195.9300697177521
 30
0.0
 40
4.031210490867112
100
AcDbArc
 50
31.74932593760086
 51
91.63420408939819
  0
LINE
  5
BFB4
330
1F
100
AcDbEntity
  8
0
  6
Continuous
 62
     7
370
    15
100
AcDbLine
 10
865.0201248304165
 20
139.5579503955271
 30
0.0
 11
865.0201248304165
 21
140.1840115072157
 31
0.0
  0
LINE
  5
BFB5
330
1F
100
AcDbEntity
  8
0
  6
Continuous
 62
     7
370
    15
100
AcDbLine
 10
941.0201223866268
 20
139.5579503955271
 30
0.0
 11
941.0201223866268
 21
140.1840115072157
 31
0.0
  0
LINE
  5
BFB6
330
1F
100
AcDbEntity
  8
0
  6
Continuous
 62
     7
370
    15
100
AcDbLine
 10
874.020124442987
 20
214.6901238815811
 30
0.0
 11
865.0201248304165
 21
214.6901238815811
 31
0.0
  0
LINE
  5
BFB7
330
1F
100
AcDbEntity
  8
0
  6
Continuous
 62
     7
370
    15
100
AcDbLine
 10
865.0201248304167
 20
207.6368156926658
 30
0.0
 11
865.0201248304165
 21
214.6901238815811
 31
0.0
  0
LINE
  5
BFB8
330
1F
100
AcDbEntity
  8
0
  6
Continuous
 62
     7
370
    15
100
AcDbLine
 10
874.020124442987
 20
124.8875606911209
 30
0.0
 11
865.0201248304165
 21
124.8875606911209
 31
0.0
  0
LINE
  5
BFB9
330
1F
100
AcDbEntity
  8
0
  6
Continuous
 62
     7
370
    15
100
AcDbLine
 10
865.0201248304167
 20
131.940867017391
 30
0.0
 11
865.0201248304165
 21
124.8875606911209
 31
0.0
  0
SPLINE
  5
BFBA
330
1F
100
AcDbEntity
  8
0
  6
Continuous
 62
     7
370
    15
100
AcDbSpline
210
0.0
220
0.0
230
1.0
 70
     8
 71
     3
 72
    14
 73
    10
 74
     0
 42
0.0000000001
 43
0.0000000001
 40
0.0
 40
0.0
 40
0.0
 40
0.0
 40
0.25
 40
0.25
 40
0.5
 40
0.5
 40
0.75
 40
0.75
 40
1.0
 40
1.0
 40
1.0
 40
1.0
 10
866.0201248304165
 20
218.9669640264441
 30
0.0
 10
865.8885104260328
 20
218.9669640264441
 30
0.0
 10
865.756982839002
 20
218.9481537481383
 30
0.0
 10
865.515342562908
 20
218.8765831976911
 30
0.0
 10
865.4037161867236
 20
218.8231875642005
 30
0.0
 10
865.2197145509065
 20
218.6916384051187
 30
0.0
 10
865.1454709640352
 20
218.6122020928154
 30
0.0
 10
865.0460742819046
 20
218.4406613224005
 30
0.0
 10
865.0201248304165
 20
218.3477553678476
 30
0.0
 10
865.0201248304165
 20
218.254625799298
 30
0.0
  0
LINE
  5
BFBB
330
1F
100
AcDbEntity
  8
0
  6
Continuous
 62
     7
370
    15
100
AcDbLine
 10
865.0201248304165
 20
214.6901238815811
 30
0.0
 11
865.0201248304165
 21
218.2546232001808
 31
0.0
  0
SPLINE
  5
BFBC
330
1F
100
AcDbEntity
  8
0
  6
Continuous
 62
     7
370
    15
100
AcDbSpline
210
0.0
220
0.0
230
1.0
 70
     8
 71
     3
 72
    14
 73
    10
 74
     0
 42
0.0000000001
 43
0.0000000001
 40
0.0
 40
0.0
 40
0.0
 40
0.0
 40
0.25
 40
0.25
 40
0.5
 40
0.5
 40
0.75
 40
0.75
 40
1.0
 40
1.0
 40
1.0
 40
1.0
 10
866.0201248304167
 20
231.7617385325505
 30
0.0
 10
865.8888968448898
 20
231.7617385325504
 30
0.0
 10
865.7578565536223
 20
231.7354917022908
 30
0.0
 10
865.5142014384699
 20
231.6332653608376
 30
0.0
 10
865.4039781494738
 20
231.558549076246
 30
0.0
 10
865.2185171432741
 20
231.3705552833634
 30
0.0
 10
865.1451638708977
 20
231.2588742668647
 30
0.0
 10
865.0459131197905
 20
231.0159111400206
 30
0.0
 10
865.0201248304167
 20
230.8839335888991
 30
0.0
 10
865.0201248304167
 20
230.7530930508112
 30
0.0
  0
LINE
  5
BFBD
330
1F
100
AcDbEntity
  8
0
  6
Continuous
 62
     7
370
    15
100
AcDbLine
 10
865.0201248304165
 20
218.2546232001808
 30
0.0
 11
865.0201248304167
 21
230.7530913608101
 31
0.0
  0
SPLINE
  5
BFBE
330
1F
100
AcDbEntity
  8
0
  6
Continuous
 62
     7
370
    15
100
AcDbSpline
210
0.0
220
0.0
230
1.0
 70
     8
 71
     3
 72
    14
 73
    10
 74
     0
 42
0.0000000001
 43
0.0000000001
 40
0.0
 40
0.0
 40
0.0
 40
0.0
 40
0.25
 40
0.25
 40
0.5
 40
0.5
 40
0.75
 40
0.75
 40
1.0
 40
1.0
 40
1.0
 40
1.0
 10
866.0201248304165
 20
120.6107184347249
 30
0.0
 10
865.8885110417498
 20
120.6107184347249
 30
0.0
 10
865.7569827788401
 20
120.6295287516534
 30
0.0
 10
865.5153430036696
 20
120.701099112127
 30
0.0
 10
865.4037164260884
 20
120.7544947609202
 30
0.0
 10
865.2197146879577
 20
120.8860439229858
 30
0.0
 10
865.1454711919612
 20
120.9654800220299
 30
0.0
 10
865.0460742015495
 20
121.1370212304114
 30
0.0
 10
865.0201248304165
 20
121.229926635367
 30
0.0
 10
865.0201248304165
 20
121.323056661871
 30
0.0
  0
LINE
  5
BFBF
330
1F
100
AcDbEntity
  8
0
  6
Continuous
 62
     7
370
    15
100
AcDbLine
 10
865.0201248304165
 20
124.8875606911209
 30
0.0
 11
865.0201248304165
 21
121.3230557845857
 31
0.0
  0
SPLINE
  5
BFC0
330
1F
100
AcDbEntity
  8
0
  6
Continuous
 62
     7
370
    15
100
AcDbSpline
210
0.0
220
0.0
230
1.0
 70
     8
 71
     3
 72
    14
 73
    10
 74
     0
 42
0.0000000001
 43
0.0000000001
 40
0.0
 40
0.0
 40
0.0
 40
0.0
 40
0.25
 40
0.25
 40
0.5
 40
0.5
 40
0.75
 40
0.75
 40
1.0
 40
1.0
 40
1.0
 40
1.0
 10
865.0201248304167
 20
108.824589410358
 30
0.0
 10
865.0201248304167
 20
108.6938236861642
 30
0.0
 10
865.0459400283788
 20
108.5617761342
 30
0.0
 10
865.1449807221867
 20
108.3191859641962
 30
0.0
 10
865.2184759223564
 20
108.2072709816817
 30
0.0
 10
865.403253304418
 20
108.0197665309329
 30
0.0
 10
865.5129472523917
 20
107.9450727836232
 30
0.0
 10
865.7574641509276
 20
107.8422267764415
 30
0.0
 10
865.8893364165479
 20
107.8159439286187
 30
0.0
 10
866.0201248304167
 20
107.8159439286187
 30
0.0
  0
LINE
  5
BFC1
330
1F
100
AcDbEntity
  8
0
  6
Continuous
 62
     7
370
    15
100
AcDbLine
 10
865.0201248304167
 20
108.8245894866016
 30
0.0
 11
865.0201248304165
 21
121.3230557845857
 31
0.0
  0
LWPOLYLINE
  5
BFC2
330
1F
100
AcDbEntity
  8
0
  6
Continuous
 62
     7
370
    15
100
AcDbPolyline
 90
       12
 70
   128
 43
0.0
 10
899.0201266781612
 20
226.7994035141494
 10
897.9988755957409
 20
226.7644751923111
 10
896.9966495708748
 20
226.6603458778885
 10
896.0321160332485
 20
226.4889452712562
 10
895.1232457832619
 20
226.253477122071
 10
894.2869646773859
 20
225.9583223717239
 10
893.5388556049391
 20
225.6089795486953
 10
892.8928511516376
 20
225.2119530098465
 10
892.3609858677908
 20
224.7746486322906
 10
891.9531671629473
 20
224.3052024500396
 10
891.6769946293159
 20
223.8123614447143
 10
891.5471701250597
 20
223.3675766842392
  0
LWPOLYLINE
  5
BFC3
330
1F
100
AcDbEntity
  8
0
  6
Continuous
 62
     7
370
    15
100
AcDbPolyline
 90
       12
 70
   128
 43
0.0
 10
906.485422171764
 20
223.409724618676
 10
906.3632550017162
 20
223.8123614447143
 10
906.0870806054397
 20
224.3052024500396
 10
905.6792656258865
 20
224.7746486322906
 10
905.1473984793945
 20
225.2119530098465
 10
904.5013958887382
 20
225.6089795486953
 10
903.7532830910011
 20
225.9583223717239
 10
902.9170038477703
 20
226.253477122071
 10
902.0081335977836
 20
226.4889452712562
 10
901.0436000601574
 20
226.6603458778885
 10
900.0413740352913
 20
226.7644751923111
 10
899.0201266781612
 20
226.7994035141494
  0
LWPOLYLINE
  5
BFC4
330
1F
100
AcDbEntity
  8
0
  6
Continuous
 62
     7
370
    15
100
AcDbPolyline
 90
       37
 70
   128
 43
0.0
 10
899.0201266781612
 20
225.329910601857
 10
898.2281113342567
 20
225.2952654020813
 10
897.4601650909706
 20
225.1923803346183
 10
896.7396194414421
 20
225.0243771927383
 10
896.0883623288198
 20
224.7963745253112
 10
895.5261862204595
 20
224.5152864711311
 10
895.0701715723797
 20
224.1896588461425
 10
894.7341746018453
 20
223.8293860213783
 10
894.5284026042743
 20
223.4454128997352
 10
894.459112204723
 20
223.0494070904281
 10
894.5284026042743
 20
222.653401281121
 10
894.7341746018453
 20
222.2694207088974
 10
895.0701715723797
 20
221.9091478841331
 10
895.5261862204595
 20
221.5835202591446
 10
896.0883623288198
 20
221.3024322049644
 10
896.7396194414421
 20
221.0744295375373
 10
897.4601650909706
 20
220.9064263956573
 10
898.2281113342567
 20
220.8035413281944
 10
899.0201266781612
 20
220.7688961284187
 10
899.8121382967754
 20
220.8035413281944
 10
900.5800845400615
 20
220.9064263956573
 10
901.3006301895901
 20
221.0744295375373
 10
901.9518891648575
 20
221.3024322049644
 10
902.5140652732178
 20
221.5835202591446
 10
902.9700780586525
 20
221.9091478841331
 10
903.3060768918319
 20
222.2694207088974
 10
903.5118470267578
 20
222.653401281121
 10
903.5811374263092
 20
223.0494070904281
 10
903.5118470267578
 20
223.4454128997352
 10
903.3060768918319
 20
223.8293860213783
 10
902.9700780586525
 20
224.1896588461425
 10
902.5140652732178
 20
224.5152864711311
 10
901.9518891648575
 20
224.7963745253112
 10
901.3006301895901
 20
225.0243771927383
 10
900.5800845400615
 20
225.1923803346183
 10
899.8121382967754
 20
225.2952654020813
 10
899.0201266781612
 20
225.329910601857
  0
LINE
  5
BFC5
330
1F
100
AcDbEntity
  8
0
  6
Continuous
 62
     7
370
    15
100
AcDbLine
 10
865.0201248304167
 20
161.688841144922
 30
0.0
 11
865.0201248304167
 21
177.8888415651348
 31
0.0
  0
LINE
  5
BFC6
330
1F
100
AcDbEntity
  8
0
  6
Continuous
 62
     7
370
    15
100
AcDbLine
 10
863.0201247354223
 20
181.7888405280139
 30
0.0
 11
865.0201248304167
 21
181.7888405280139
 31
0.0
  0
LINE
  5
BFC7
330
1F
100
AcDbEntity
  8
0
  6
Continuous
 62
     7
370
    15
100
AcDbLine
 10
863.0201247354223
 20
181.7888405280139
 30
0.0
 11
863.0201247354223
 21
189.7888418393161
 31
0.0
  0
LINE
  5
BFC8
330
1F
100
AcDbEntity
  8
0
  6
Continuous
 62
     7
370
    15
100
AcDbLine
 10
863.0201247354223
 20
189.7888418393161
 30
0.0
 11
865.0201248304167
 21
189.7888418393161
 31
0.0
  0
LINE
  5
BFC9
330
1F
100
AcDbEntity
  8
0
  6
Continuous
 62
     7
370
    15
100
AcDbLine
 10
863.0201247354223
 20
157.7888412507203
 30
0.0
 11
865.0201248304167
 21
157.7888412507203
 31
0.0
  0
LINE
  5
BFCA
330
1F
100
AcDbEntity
  8
0
  6
Continuous
 62
     7
370
    15
100
AcDbLine
 10
863.0201247354223
 20
157.7888412507203
 30
0.0
 11
863.0201247354223
 21
181.7888405280139
 31
0.0
  0
LINE
  5
BFCB
330
1F
100
AcDbEntity
  8
0
  6
Continuous
 62
     7
370
    15
100
AcDbLine
 10
863.0201247354223
 20
149.7888412199866
 30
0.0
 11
865.0201248304167
 21
149.7888412199866
 31
0.0
  0
LINE
  5
BFCC
330
1F
100
AcDbEntity
  8
0
  6
Continuous
 62
     7
370
    15
100
AcDbLine
 10
863.0201247354223
 20
149.7888412199866
 30
0.0
 11
863.0201247354223
 21
157.7888412507203
 31
0.0
  0
LINE
  5
BFCD
330
1F
100
AcDbEntity
  8
0
  6
Continuous
 62
     7
370
    15
100
AcDbLine
 10
886.0201245472952
 20
109.1155346589115
 30
0.0
 11
886.0201245472952
 21
104.24406194258
 31
0.0
  0
LINE
  5
BFCE
330
1F
100
AcDbEntity
  8
0
  6
Continuous
 62
     7
370
    15
100
AcDbLine
 10
874.020124442987
 20
109.1155346589115
 30
0.0
 11
874.020124442987
 21
104.24406194258
 31
0.0
  0
LINE
  5
BFCF
330
1F
100
AcDbEntity
  8
0
  6
Continuous
 62
     7
370
    15
100
AcDbLine
 10
874.020124442987
 20
104.24406194258
 30
0.0
 11
886.0201245472952
 21
104.24406194258
 31
0.0
  0
LINE
  5
BFD0
330
1F
100
AcDbEntity
  8
0
  6
Continuous
 62
     7
370
    15
100
AcDbLine
 10
887.0201247112079
 20
108.8770192222622
 30
0.0
 11
887.0201247112079
 21
104.24406194258
 31
0.0
  0
LINE
  5
BFD1
330
1F
100
AcDbEntity
  8
0
  6
Continuous
 62
     7
370
    15
100
AcDbLine
 10
886.0201245472952
 20
104.24406194258
 30
0.0
 11
887.0201247112079
 21
104.24406194258
 31
0.0
  0
LINE
  5
BFD2
330
1F
100
AcDbEntity
  8
0
  6
Continuous
 62
     7
370
    15
100
AcDbLine
 10
873.0201252103968
 20
108.8770192222622
 30
0.0
 11
873.0201252103968
 21
104.24406194258
 31
0.0
  0
LINE
  5
BFD3
330
1F
100
AcDbEntity
  8
0
  6
Continuous
 62
     7
370
    15
100
AcDbLine
 10
873.0201252103968
 20
104.24406194258
 30
0.0
 11
874.020124442987
 21
104.24406194258
 31
0.0
  0
LINE
  5
BFD4
330
1F
100
AcDbEntity
  8
0
  6
Continuous
 62
     7
370
    15
100
AcDbLine
 10
886.0201245472952
 20
230.4621461885002
 30
0.0
 11
886.0201245472952
 21
235.3336189048317
 31
0.0
  0
LINE
  5
BFD5
330
1F
100
AcDbEntity
  8
0
  6
Continuous
 62
     7
370
    15
100
AcDbLine
 10
887.0201247112079
 20
235.3336189048317
 30
0.0
 11
886.0201245472952
 21
235.3336189048317
 31
0.0
  0
LINE
  5
BFD6
330
1F
100
AcDbEntity
  8
0
  6
Continuous
 62
     7
370
    15
100
AcDbLine
 10
887.0201247112079
 20
230.7006616251495
 30
0.0
 11
887.0201247112079
 21
235.3336189048317
 31
0.0
  0
LINE
  5
BFD7
330
1F
100
AcDbEntity
  8
0
  6
Continuous
 62
     7
370
    15
100
AcDbLine
 10
873.0201252103968
 20
230.7006616251495
 30
0.0
 11
873.0201252103968
 21
235.3336189048317
 31
0.0
  0
LINE
  5
BFD8
330
1F
100
AcDbEntity
  8
0
  6
Continuous
 62
     7
370
    15
100
AcDbLine
 10
874.020124442987
 20
235.3336189048317
 30
0.0
 11
873.0201252103968
 21
235.3336189048317
 31
0.0
  0
LINE
  5
BFD9
330
1F
100
AcDbEntity
  8
0
  6
Continuous
 62
     7
370
    15
100
AcDbLine
 10
874.020124442987
 20
230.4621461885002
 30
0.0
 11
874.020124442987
 21
235.3336189048317
 31
0.0
  0
LINE
  5
BFDA
330
1F
100
AcDbEntity
  8
0
  6
Continuous
 62
     7
370
    15
100
AcDbLine
 10
886.0201245472952
 20
235.3336189048317
 30
0.0
 11
874.020124442987
 21
235.3336189048317
 31
0.0
  0
LINE
  5
BFDB
330
1F
100
AcDbEntity
  8
0
  6
Continuous
 62
     7
370
    15
100
AcDbLine
 10
872.6731027775629
 20
107.8159447865512
 30
0.0
 11
872.6731027775629
 21
104.24406194258
 31
0.0
  0
LINE
  5
BFDC
330
1F
100
AcDbEntity
  8
0
  6
Continuous
 62
     7
370
    15
100
AcDbLine
 10
872.6731027775629
 20
104.24406194258
 30
0.0
 11
873.0201252103968
 21
104.24406194258
 31
0.0
  0
LINE
  5
BFDD
330
1F
100
AcDbEntity
  8
0
  6
Continuous
 62
     7
370
    15
100
AcDbLine
 10
872.6731027775629
 20
231.7617360608604
 30
0.0
 11
872.6731027775629
 21
235.3336189048317
 31
0.0
  0
LINE
  5
BFDE
330
1F
100
AcDbEntity
  8
0
  6
Continuous
 62
     7
370
    15
100
AcDbLine
 10
873.0201252103968
 20
235.3336189048317
 30
0.0
 11
872.6731027775629
 21
235.3336189048317
 31
0.0
  0
LINE
  5
BFDF
330
1F
100
AcDbEntity
  8
0
  6
Continuous
 62
     7
370
    15
100
AcDbLine
 10
871.8887540810927
 20
107.8159447865512
 30
0.0
 11
871.8887540810927
 21
104.24406194258
 31
0.0
  0
LINE
  5
BFE0
330
1F
100
AcDbEntity
  8
0
  6
Continuous
 62
     7
370
    15
100
AcDbLine
 10
871.8887540810927
 20
104.24406194258
 30
0.0
 11
872.6731027775629
 21
104.24406194258
 31
0.0
  0
LINE
  5
BFE1
330
1F
100
AcDbEntity
  8
0
  6
Continuous
 62
     7
370
    15
100
AcDbLine
 10
868.0201248564943
 20
104.24406194258
 30
0.0
 11
868.0201248564943
 21
107.8159447865512
 31
0.0
  0
LINE
  5
BFE2
330
1F
100
AcDbEntity
  8
0
  6
Continuous
 62
     7
370
    15
100
AcDbLine
 10
868.0201248564943
 20
104.24406194258
 30
0.0
 11
871.8887540810927
 21
104.24406194258
 31
0.0
  0
LINE
  5
BFE3
330
1F
100
AcDbEntity
  8
0
  6
Continuous
 62
     7
370
    15
100
AcDbLine
 10
871.8887540810927
 20
231.7617360608604
 30
0.0
 11
871.8887540810927
 21
235.3336189048317
 31
0.0
  0
LINE
  5
BFE4
330
1F
100
AcDbEntity
  8
0
  6
Continuous
 62
     7
370
    15
100
AcDbLine
 10
872.6731027775629
 20
235.3336189048317
 30
0.0
 11
871.8887540810927
 21
235.3336189048317
 31
0.0
  0
LINE
  5
BFE5
330
1F
100
AcDbEntity
  8
0
  6
Continuous
 62
     7
370
    15
100
AcDbLine
 10
868.0201248564943
 20
235.3336189048317
 30
0.0
 11
868.0201248564943
 21
231.7617360608604
 31
0.0
  0
LINE
  5
BFE6
330
1F
100
AcDbEntity
  8
0
  6
Continuous
 62
     7
370
    15
100
AcDbLine
 10
871.8887540810927
 20
235.3336189048317
 30
0.0
 11
868.0201248564943
 21
235.3336189048317
 31
0.0
  0
LINE
  5
BFE7
330
1F
100
AcDbEntity
  8
0
  6
Continuous
 62
     7
370
    15
100
AcDbLine
 10
940.0201278106495
 20
140.9231643899047
 30
0.0
 11
940.0201278106496
 21
232.288842286351
 31
0.0
  0
LINE
  5
BFE8
330
1F
100
AcDbEntity
  8
0
  6
Continuous
 62
     7
370
    15
100
AcDbLine
 10
940.0201278106496
 20
107.288842286351
 30
0.0
 11
940.0201273669633
 21
111.5720320685813
 31
0.0
  0
ARC
  5
C38B
330
1F
100
AcDbEntity
  8
0
  6
Continuous
 62
     7
370
    15
100
AcDbCircle
 10
726.0741214118492
 20
169.7888412305845
 30
0.0
 40
61.50000000000002
100
AcDbArc
 50
212.2114188102119
 51
217.9952735909238
  0
ARC
  5
C38F
330
1F
100
AcDbEntity
  8
0
  6
Continuous
 62
     7
370
    15
100
AcDbCircle
 10
724.8147131062531
 20
168.9689879350898
 30
0.0
 40
61.00320990541967
100
AcDbArc
 50
212.5286749980158
 51
218.2320022563031
  0
SPLINE
  5
C391
330
1F
100
AcDbEntity
  8
0
  6
Continuous
 62
     7
370
    15
100
AcDbSpline
210
0.0
220
0.0
230
1.0
 70
    24
 71
     3
 72
    14
 73
    10
 74
     0
 42
0.0000000001
 43
0.0000000001
 40
0.0
 40
0.0
 40
0.0
 40
0.0
 40
0.25
 40
0.25
 40
0.5
 40
0.5
 40
0.75
 40
0.75
 40
1.0
 40
1.0
 40
1.0
 40
1.0
 10
753.2419468363602
 20
114.6087791374763
 30
0.0
 10
753.3397618104722
 20
114.5140839545193
 30
0.0
 10
753.4353816256183
 20
114.4215139163247
 30
0.0
 10
753.6177552080452
 20
114.2449571067856
 30
0.0
 10
753.7013275647739
 20
114.1640502754702
 30
0.0
 10
753.844803630937
 20
114.0251503528505
 30
0.0
 10
753.9032758096868
 20
113.9685431338142
 30
0.0
 10
753.9832481512604
 20
113.8911214958131
 30
0.0
 10
754.0046576571187
 20
113.8703948423257
 30
0.0
 10
754.0046576571187
 20
113.8703948423257
 30
0.0
  0
SPLINE
  5
C392
330
1F
100
AcDbEntity
  8
0
  6
Continuous
 62
     7
370
    15
100
AcDbSpline
210
0.0
220
0.0
230
1.0
 70
    24
 71
     3
 72
    14
 73
    10
 74
     0
 42
0.0000000001
 43
0.0000000001
 40
0.0
 40
0.0
 40
0.0
 40
0.0
 40
0.2500000000000001
 40
0.2500000000000001
 40
0.5000000000000001
 40
0.5000000000000001
 40
0.7500000000000001
 40
0.7500000000000001
 40
1.0
 40
1.0
 40
1.0
 40
1.0
 10
748.8129232946347
 20
111.5720318974079
 30
0.0
 10
748.8129232946347
 20
111.5720318974079
 30
0.0
 10
748.8119246759481
 20
111.6016905130258
 30
0.0
 10
748.8081958928862
 20
111.7124340281094
 30
0.0
 10
748.8054410106643
 20
111.7942530387207
 30
0.0
 10
748.798756505725
 20
111.992780429914
 30
0.0
 10
748.7948097235402
 20
112.1099984404972
 30
0.0
 10
748.7862936815004
 20
112.3629218244712
 30
0.0
 10
748.7817980185355
 20
112.496441396698
 30
0.0
 10
748.777222062646
 20
112.6323456398994
 30
0.0
  0
LINE
  5
C393
330
1F
100
AcDbEntity
  8
0
  6
Continuous
 62
     7
370
    15
100
AcDbLine
 10
750.3002318573058
 20
119.0510944801947
 30
0.0
 11
751.540548221865
 21
116.2559132242882
 31
0.0
  0
LINE
  5
C394
330
1F
100
AcDbEntity
  8
0
  6
Continuous
 62
     7
370
    15
100
AcDbLine
 10
750.8943685119221
 20
119.314729337187
 30
0.0
 11
750.3002318573058
 21
119.0510944801947
 31
0.0
  0
LINE
  5
C395
330
1F
100
AcDbEntity
  8
0
  6
Continuous
 62
     7
370
    15
100
AcDbLine
 10
749.1908668328528
 20
123.1537521182886
 30
0.0
 11
750.8943685119221
 21
119.314729337187
 31
0.0
  0
LINE
  5
C396
330
1F
100
AcDbEntity
  8
0
  6
Continuous
 62
     7
370
    15
100
AcDbLine
 10
745.2604400356351
 20
121.4096928494583
 30
0.0
 11
749.1908668328528
 21
123.1537521182886
 31
0.0
  0
LINE
  5
C397
330
1F
100
AcDbEntity
  8
0
  6
Continuous
 62
     7
370
    15
100
AcDbLine
 10
746.9639417147045
 20
117.5706700683564
 30
0.0
 11
745.2604400356351
 21
121.4096928494583
 31
0.0
  0
LINE
  5
C398
330
1F
100
AcDbEntity
  8
0
  6
Continuous
 62
     7
370
    15
100
AcDbLine
 10
747.5580744229914
 20
117.8343088815471
 30
0.0
 11
746.9639417147045
 21
117.5706700683564
 31
0.0
  0
LINE
  5
C399
330
1F
100
AcDbEntity
  8
0
  6
Continuous
 62
     7
370
    15
100
AcDbLine
 10
748.6877925374241
 20
115.2883696213343
 30
0.0
 11
747.5580744229914
 21
117.8343088815471
 31
0.0
  0
LINE
  5
C39A
330
1F
100
AcDbEntity
  8
0
  6
Continuous
 62
     7
370
    15
100
AcDbLine
 10
748.7772197495484
 20
112.6323458674775
 30
0.0
 11
748.6877925374241
 21
115.2883696213343
 31
0.0
  0
LINE
  5
C39B
330
1F
100
AcDbEntity
  8
0
  6
Continuous
 62
     7
370
    15
100
AcDbLine
 10
751.540548221865
 20
116.2559132242882
 30
0.0
 11
753.2419469567883
 21
114.6087798311445
 31
0.0
  0
SPLINE
  5
C39C
330
1F
100
AcDbEntity
  8
0
  6
Continuous
 62
     7
370
    15
100
AcDbSpline
210
0.0
220
0.0
230
1.0
 70
    24
 71
     3
 72
    14
 73
    10
 74
     0
 42
0.0000000001
 43
0.0000000001
 40
0.0
 40
0.0
 40
0.0
 40
0.0
 40
0.25
 40
0.25
 40
0.5
 40
0.5
 40
0.75
 40
0.75
 40
1.0
 40
1.0
 40
1.0
 40
1.0
 10
780.4822662495462
 20
141.119033139245
 30
0.0
 10
780.6170606579122
 20
141.0999173261839
 30
0.0
 10
780.7488300166193
 20
141.0812305092842
 30
0.0
 10
781.0001508329666
 20
141.0455895520526
 30
0.0
 10
781.1153181320771
 20
141.0292571493421
 30
0.0
 10
781.3130360339493
 20
141.001217867173
 30
0.0
 10
781.3936139087791
 20
140.9897907493067
 30
0.0
 10
781.5038201892175
 20
140.9741618913998
 30
0.0
 10
781.5333236645472
 20
140.9699778682945
 30
0.0
 10
781.5333236645472
 20
140.9699778682945
 30
0.0
  0
SPLINE
  5
C39D
330
1F
100
AcDbEntity
  8
0
  6
Continuous
 62
     7
370
    15
100
AcDbSpline
210
0.0
220
0.0
230
1.0
 70
    24
 71
     3
 72
    14
 73
    10
 74
     0
 42
0.0000000001
 43
0.0000000001
 40
0.0
 40
0.0
 40
0.0
 40
0.0
 40
0.2500000000000001
 40
0.2500000000000001
 40
0.5000000000000001
 40
0.5000000000000001
 40
0.7500000000000001
 40
0.7500000000000001
 40
1.0
 40
1.0
 40
1.0
 40
1.0
 10
778.6840661784554
 20
136.0589382945263
 30
0.0
 10
778.6840661784554
 20
136.0589382945263
 30
0.0
 10
778.6658253821037
 20
136.082345645254
 30
0.0
 10
778.5977153282849
 20
136.1697473072807
 30
0.0
 10
778.5473945739554
 20
136.2343209981863
 30
0.0
 10
778.4252952231411
 20
136.3910039780884
 30
0.0
 10
778.3532031913563
 20
136.4835154803347
 30
0.0
 10
778.1976489335619
 20
136.6831291923256
 30
0.0
 10
778.1155310303751
 20
136.7885063109489
 30
0.0
 10
778.0319464944169
 20
136.8957654739193
 30
0.0
  0
LINE
  5
C39E
330
1F
100
AcDbEntity
  8
0
  6
Continuous
 62
     7
370
    15
100
AcDbLine
 10
775.4912413944012
 20
142.9838450647411
 30
0.0
 11
778.1376447314372
 21
141.4515355936192
 31
0.0
  0
LINE
  5
C39F
330
1F
100
AcDbEntity
  8
0
  6
Continuous
 62
     7
370
    15
100
AcDbLine
 10
775.8169473640367
 20
143.5463549077873
 30
0.0
 11
775.4912413944012
 21
142.9838450647411
 31
0.0
  0
LINE
  5
C3A0
330
1F
100
AcDbEntity
  8
0
  6
Continuous
 62
     7
370
    15
100
AcDbLine
 10
772.1822645817771
 20
145.6508964152786
 30
0.0
 11
775.8169473640367
 21
143.5463549077873
 31
0.0
  0
LINE
  5
C3A1
330
1F
100
AcDbEntity
  8
0
  6
Continuous
 62
     7
370
    15
100
AcDbLine
 10
770.0276148250236
 20
141.9296759209779
 30
0.0
 11
772.1822645817771
 21
145.6508964152786
 31
0.0
  0
LINE
  5
C3A2
330
1F
100
AcDbEntity
  8
0
  6
Continuous
 62
     7
370
    15
100
AcDbLine
 10
773.6622976072835
 20
139.8251344134863
 30
0.0
 11
770.0276148250236
 21
141.9296759209779
 31
0.0
  0
LINE
  5
C3A3
330
1F
100
AcDbEntity
  8
0
  6
Continuous
 62
     7
370
    15
100
AcDbLine
 10
773.9879980588761
 20
140.38764513757
 30
0.0
 11
773.6622976072835
 21
139.8251344134863
 31
0.0
  0
LINE
  5
C3A4
330
1F
100
AcDbEntity
  8
0
  6
Continuous
 62
     7
370
    15
100
AcDbLine
 10
776.3984247626908
 20
138.9919686563229
 30
0.0
 11
773.9879980588761
 21
140.38764513757
 31
0.0
  0
LINE
  5
C3A5
330
1F
100
AcDbEntity
  8
0
  6
Continuous
 62
     7
370
    15
100
AcDbLine
 10
778.0319444893145
 20
136.8957642984294
 30
0.0
 11
776.3984247626908
 21
138.9919686563229
 31
0.0
  0
LINE
  5
C3A6
330
1F
100
AcDbEntity
  8
0
  6
Continuous
 62
     7
370
    15
100
AcDbLine
 10
778.1376447314372
 20
141.4515355936192
 30
0.0
 11
780.4822659392465
 21
141.1190337712204
 31
0.0
  0
ARC
  5
C3AA
330
1F
100
AcDbEntity
  8
0
  6
Continuous
 62
     7
370
    15
100
AcDbCircle
 10
726.0741214118492
 20
169.7888412305845
 30
0.0
 40
61.50000000000002
100
AcDbArc
 50
296.2114188102112
 51
307.9952735909212
  0
ARC
  5
C3AB
330
1F
100
AcDbEntity
  8
0
  6
Continuous
 62
     7
370
    15
100
AcDbCircle
 10
729.3592954713415
 20
164.5969783697986
 30
0.0
 40
56.39075588242075
100
AcDbArc
 50
295.9104884904395
 51
308.7370372020341
  0
LINE
  5
C3CC
330
1F
100
AcDbEntity
  8
0
  6
Continuous
 62
     7
370
    15
100
AcDbLine
 10
941.020122386627
 20
111.5720320708636
 30
0.0
 11
865.0201248304167
 21
111.5720318974079
 31
0.0
  0
LINE
  5
C3CD
330
1F
100
AcDbEntity
  8
0
  6
Continuous
 62
     7
370
    15
100
AcDbLine
 10
941.020122386627
 20
113.8747453033362
 30
0.0
 11
865.0201248304167
 21
113.8747451298805
 31
0.0
  0
LINE
  5
C3CE
330
1F
100
AcDbEntity
  8
0
  6
Continuous
 62
     7
370
    15
100
AcDbLine
 10
866.0201248779149
 20
113.8747451321628
 30
0.0
 11
866.0201248779147
 21
120.6107188122299
 31
0.0
  0
LINE
  5
C3CF
330
1F
100
AcDbEntity
  8
0
  6
Continuous
 62
     7
370
    15
100
AcDbLine
 10
940.02012712843
 20
113.8747453010539
 30
0.0
 11
940.0201248304163
 21
136.058938164949
 31
0.0
  0
ENDSEC
  0
SECTION
  2
OBJECTS
  0
DICTIONARY
  5
C
330
0
100
AcDbDictionary
281
     1
  3
ACAD_COLOR
350
BE
  3
ACAD_GROUP
350
D
  3
ACAD_LAYOUT
350
1A
  3
ACAD_MATERIAL
350
BD
  3
ACAD_MLINESTYLE
350
17
  3
ACAD_PLOTSETTINGS
350
19
  3
ACAD_PLOTSTYLENAME
350
E
  3
ACAD_TABLESTYLE
350
11A
  3
AcadDim
350
7BA5
  3
ACDBHEADERROUNDTRIPXREC
350
C410
  3
AcDbVariableDictionary
350
94
  3
AcmDictionary
350
5B
  3
AMG
350
41
  3
AMGSNAPSETTINGS
350
1B8
  3
DWGPROPS
350
C40F
  3
MAPISURF_MODULE
350
7C9D
  0
DICTIONARY
  5
3F9
330
2
100
AcDbDictionary
280
     1
281
     1
  3
ACAD_LAYERFILTERS
360
99D5
  3
ACAD_LAYERSTATES
360
CA0
  3
ACLYDICTIONARY
360
99D4
  3
AMLAYER_GROUPCOLORS
360
18A7
  0
DICTIONARY
  5
8F
330
1F
100
AcDbDictionary
280
     1
281
     1
  3
ACAD_INDEX
360
853B
  3
ACAD_SORTENTS
360
18D9
  0
DICTIONARY
  5
7CF3
330
7CF2
100
AcDbDictionary
280
     1
281
     1
  0
DICTIONARY
  5
A58B
330
A57E
100
AcDbDictionary
280
     1
281
     1
  3
ACAD_DIMASSOC
360
A58C
  0
DICTIONARY
  5
BE
102
{ACAD_REACTORS
330
C
102
}
330
C
100
AcDbDictionary
281
     1
  0
DICTIONARY
  5
D
102
{ACAD_REACTORS
330
C
102
}
330
C
100
AcDbDictionary
281
     1
  0
DICTIONARY
  5
1A
102
{ACAD_REACTORS
330
C
102
}
330
C
100
AcDbDictionary
281
     1
  3
Model
350
22
  3
配置1
350
1E
  3
配置2
350
26
  0
DICTIONARY
  5
BD
102
{ACAD_REACTORS
330
C
102
}
330
C
100
AcDbDictionary
281
     1
  0
DICTIONARY
  5
17
102
{ACAD_REACTORS
330
C
102
}
330
C
100
AcDbDictionary
281
     1
  3
Standard
350
18
  0
DICTIONARY
  5
19
102
{ACAD_REACTORS
330
C
102
}
330
C
100
AcDbDictionary
281
     1
  0
ACDBDICTIONARYWDFLT
  5
E
102
{ACAD_REACTORS
330
C
102
}
330
C
100
AcDbDictionary
281
     1
  3
Normal
350
F
100
AcDbDictionaryWithDefault
340
F
  0
DICTIONARY
  5
11A
102
{ACAD_REACTORS
330
C
102
}
330
C
100
AcDbDictionary
281
     1
  3
Standard
350
11B
  0
XRECORD
  5
7BA5
102
{ACAD_REACTORS
330
C
102
}
330
C
100
AcDbXrecord
280
     1
 90
   990106
  3

 60
     4
 61
     0
 62
     4
 63
     4
 64
     1
 65
     0
 66
     0
 67
     3
 68
     0
 69
     0
 70
     0
 71
     0
 72
     0
 40
0.0
170
     0
340
7BA1
  0
DICTIONARY
  5
C410
102
{ACAD_REACTORS
330
C
102
}
330
C
100
AcDbDictionary
281
     1
  0
DICTIONARY
  5
94
102
{ACAD_REACTORS
330
C
102
}
330
C
100
AcDbDictionary
281
     1
  3
CTABLESTYLE
350
138
  3
DIMASSOC
350
96
  3
INDEXCTL
350
95
  3
PROJECTNAME
350
1BA0
  0
DICTIONARY
  5
5B
102
{ACAD_REACTORS
330
C
102
}
330
C
100
AcDbDictionary
281
     1
  3
AcmBOM
350
1B5
  3
AcmStdDictionary
350
61
  3
AMDTSECTSYM_ARROWCOLOR
350
123
  0
DICTIONARY
  5
41
102
{ACAD_REACTORS
330
C
102
}
330
C
100
AcDbDictionary
281
     1
  3
AcMgSettings
350
7C17
  0
DICTIONARY
  5
1B8
102
{ACAD_REACTORS
330
C
102
}
330
C
100
AcDbDictionary
281
     1
  0
XRECORD
  5
C40F
102
{ACAD_REACTORS
330
C
102
}
330
C
100
AcDbXrecord
280
     1
  1
DWGPROPS COOKIE
  2

  3

  4

  6

  7

  8

  9

300
AmdtFileType=84
301
=
302
=
303
=
304
=
305
=
306
=
307
=
308
=
309
=
 40
1.134866377314814
 41
2454422.344345151
 42
2456893.603631539
  1

 90
        1
  0
DICTIONARY
  5
99D5
102
{ACAD_REACTORS
330
3F9
102
}
330
3F9
100
AcDbDictionary
281
     1
  0
DICTIONARY
  5
CA0
102
{ACAD_REACTORS
330
3F9
102
}
330
3F9
100
AcDbDictionary
281
     1
  0
DICTIONARY
  5
99D4
102
{ACAD_REACTORS
330
3F9
102
}
330
3F9
100
AcDbDictionary
281
     1
1001
ACAD
1000
<All
  0
DICTIONARY
  5
18A7
102
{ACAD_REACTORS
330
3F9
102
}
330
3F9
100
AcDbDictionary
280
     1
281
     1
  0
DICTIONARY
  5
853B
102
{ACAD_REACTORS
330
8F
102
}
330
8F
100
AcDbDictionary
281
     1
  3
*A1
350
853C
  0
SORTENTSTABLE
  5
18D9
102
{ACAD_REACTORS
330
8F
102
}
330
8F
100
AcDbSortentsTable
330
1F
331
BFB8
  5
BFBB
331
BF81
  5
BF83
331
BF42
  5
BF44
331
BF0B
  5
BF0D
331
BFC0
  5
BFC3
331
BF89
  5
BF8B
331
BF13
  5
BF15
331
BED4
  5
BED6
331
BF4A
  5
BF4C
331
BFC8
  5
BFCB
331
BF52
  5
BF54
331
BF1B
  5
BF1D
331
BEDC
  5
BEDE
331
BF91
  5
BF93
331
BFD0
  5
BFD3
331
BF5A
  5
BF5C
331
BEE4
  5
BEE6
331
15AA
  5
15AA
331
15E9
  5
15E9
331
15F1
  5
15F1
331
A540
  5
A540
331
15F9
  5
15F9
331
BE95
  5
BE95
331
15C2
  5
15C2
331
BE9D
  5
BE9D
331
BEA5
  5
BEA5
331
C391
  5
C394
331
C399
  5
C39C
331
C3A1
  5
C3A4
331
BFD8
  5
BFDB
331
BF99
  5
BF9B
331
BF62
  5
BF64
331
BEEC
  5
BEEE
331
BEAD
  5
BEAE
331
BF23
  5
BF25
331
BFE0
  5
BFE3
331
BFA1
  5
BFA3
331
BF6A
  5
BF6C
331
BEF4
  5
BEF6
331
BEB5
  5
BEB7
331
BF2B
  5
BF2D
331
BFE8
  5
C391
331
BFA9
  5
BFAB
331
BF33
  5
BF35
331
BEFC
  5
BEFE
331
BEBD
  5
BEBF
331
BF72
  5
BF74
331
BFB1
  5
BFB4
331
BF3B
  5
BF3D
331
BF04
  5
BF06
331
BEC5
  5
BEC7
331
BF7A
  5
BF7C
331
15D2
  5
15D2
331
9C99
  5
9C99
331
15DA
  5
15DA
331
159B
  5
159B
331
15E2
  5
15E2
331
15A3
  5
15A3
331
BFB9
  5
BFBC
331
BF82
  5
BF84
331
BF43
  5
BF45
331
BF0C
  5
BF0E
331
BFC1
  5
BFC4
331
BF8A
  5
BF8C
331
BF14
  5
BF16
331
BED5
  5
BED7
331
BF4B
  5
BF4D
331
BFC9
  5
BFCC
331
BF92
  5
BF94
331
BF1C
  5
BF1E
331
BEDD
  5
BEDF
331
BF53
  5
BF55
331
BFD1
  5
BFD4
331
BF5B
  5
BF5D
331
BEE5
  5
BEE7
331
15AB
  5
15AB
331
15EA
  5
15EA
331
15F2
  5
15F2
331
BE96
  5
BE96
331
15FA
  5
15FA
331
99DA
  5
99DA
331
15C3
  5
15C3
331
C392
  5
C395
331
C39A
  5
C39D
331
C3A2
  5
C3A5
331
BFD9
  5
BFDC
331
BF9A
  5
BF9C
331
BF63
  5
BF65
331
BF24
  5
BF26
331
BEAE
  5
BEAF
331
BEED
  5
BEEF
331
BFE1
  5
BFE4
331
BFA2
  5
BFA4
331
BF6B
  5
BF6D
331
BEF5
  5
BEF7
331
BEB6
  5
BEB8
331
BF2C
  5
BF2E
331
BFAA
  5
BFAD
331
BF34
  5
BF36
331
BEFD
  5
BEFF
331
BEBE
  5
BEC0
331
BF73
  5
BF75
331
BFB2
  5
BFB5
331
BF3C
  5
BF3E
331
BF05
  5
BF07
331
BEC6
  5
BECF
331
BF7B
  5
BF7D
331
9C9A
  5
9C9A
331
15DB
  5
15DB
331
9CA2
  5
9CA2
331
159C
  5
159C
331
15E3
  5
15E3
331
15A4
  5
15A4
331
C3AA
  5
BEB1
331
BFBA
  5
BFBD
331
BF83
  5
BF85
331
BF44
  5
BF46
331
BECE
  5
BED0
331
BF0D
  5
BF0F
331
BFC2
  5
BFC5
331
BF8B
  5
BF8D
331
BF4C
  5
BF4E
331
BED6
  5
BED8
331
BF15
  5
BF17
331
BFCA
  5
BFCD
331
BF93
  5
BF95
331
BF1D
  5
BF1F
331
BEDE
  5
BEE0
331
BF54
  5
BF56
331
BFD2
  5
BFD5
331
BEE6
  5
BEE8
331
BF5C
  5
BF5E
331
15AC
  5
15AC
331
15EB
  5
15EB
331
A6A1
  5
A6A1
331
15B4
  5
15B4
331
15F3
  5
15F3
331
BE97
  5
BE97
331
15FB
  5
15FB
331
99DB
  5
99DB
331
15C4
  5
15C4
331
BE9F
  5
BE9F
331
BEA7
  5
BEA7
331
C38B
  5
BEA9
331
C393
  5
C396
331
C39B
  5
C39E
331
C3A3
  5
C3A6
331
BFDA
  5
BFDD
331
BF64
  5
BF66
331
BF25
  5
BF27
331
BEAF
  5
BEB0
331
BEEE
  5
BEF0
331
BF9B
  5
BF9D
331
BFE2
  5
BFE5
331
BFA3
  5
BFA5
331
BF6C
  5
BF6E
331
BEF6
  5
BEF8
331
BEB7
  5
BEB9
331
BF2D
  5
BF2F
331
BFAB
  5
BFAE
331
BF74
  5
BF76
331
BEFE
  5
BF00
331
BEBF
  5
BEC1
331
BF35
  5
BF37
331
BFB3
  5
BFB6
331
BF3D
  5
BF3F
331
BF06
  5
BF08
331
BF7C
  5
BF7E
331
15CC
  5
15CC
331
A890
  5
A890
331
9C9B
  5
9C9B
331
A622
  5
A622
331
15DC
  5
15DC
331
7BA1
  5
7BA1
331
159D
  5
159D
331
15E4
  5
15E4
331
15A5
  5
15A5
331
C3AB
  5
C3CD
331
BFBB
  5
BFBE
331
BF84
  5
BF86
331
BF45
  5
BF47
331
BF0E
  5
BF10
331
BECF
  5
BED1
331
BFC3
  5
BFC6
331
BF8C
  5
BF8E
331
BF4D
  5
BF4F
331
BED7
  5
BED9
331
BF16
  5
BF18
331
BFCB
  5
BFCE
331
BF94
  5
BF96
331
BF1E
  5
BF20
331
BEDF
  5
BEE1
331
BF55
  5
BF57
331
BFD3
  5
BFD6
331
BEE7
  5
BEE9
331
BF5D
  5
BF5F
331
15EC
  5
15EC
331
15AD
  5
15AD
331
15F4
  5
15F4
331
15BD
  5
15BD
331
BE98
  5
BE98
331
BEA0
  5
BEA0
331
9C94
  5
9C94
331
A889
  5
A889
331
C394
  5
C397
331
C39C
  5
C39F
331
C3A4
  5
C3A7
331
BEA8
  5
BEA8
331
BFDB
  5
BFDE
331
BF65
  5
BF67
331
BF26
  5
BF28
331
BEB0
  5
BEB2
331
BEEF
  5
BEF1
331
BF9C
  5
BF9E
331
BFE3
  5
BFE6
331
BFA4
  5
BFA6
331
BF6D
  5
BF6F
331
BF2E
  5
BF30
331
BEB8
  5
BEBA
331
BEF7
  5
BEF9
331
BFAC
  5
BFAF
331
BF75
  5
BF77
331
BEFF
  5
BF01
331
BEC0
  5
BEC2
331
BF36
  5
BF38
331
BFB4
  5
BFB7
331
BF7D
  5
BF7F
331
BF07
  5
BF09
331
BF3E
  5
BF40
331
9C9C
  5
9C9C
331
15DD
  5
15DD
331
159E
  5
159E
331
A67B
  5
A67B
331
15E5
  5
15E5
331
15A6
  5
15A6
331
BFBC
  5
BFBF
331
BF46
  5
BF48
331
BF0F
  5
BF11
331
BED0
  5
BED2
331
BF85
  5
BF87
331
BFC4
  5
BFC7
331
BF8D
  5
BF8F
331
BF4E
  5
BF50
331
BED8
  5
BEDA
331
BF17
  5
BF19
331
BFCC
  5
BFCF
331
BF95
  5
BF97
331
BF56
  5
BF58
331
BEE0
  5
BEE2
331
BF1F
  5
BF21
331
BFD4
  5
BFD7
331
BF5E
  5
BF60
331
15ED
  5
15ED
331
15AE
  5
15AE
331
15F5
  5
15F5
331
15BE
  5
15BE
331
BE99
  5
BE99
331
9C95
  5
9C95
331
C3CC
  5
C3CE
331
C395
  5
C398
331
C39D
  5
C3A0
331
C3A5
  5
C3AB
331
BEE8
  5
BEEA
331
BEA9
  5
BEAA
331
BFDC
  5
BFDF
331
BF66
  5
BF68
331
BF27
  5
BF29
331
BEF0
  5
BEF2
331
BF9D
  5
BF9F
331
BEB1
  5
BEB3
331
BFE4
  5
BFE7
331
BF6E
  5
BF70
331
BF2F
  5
BF31
331
BEB9
  5
BEBB
331
BEF8
  5
BEFA
331
BFA5
  5
BFA7
331
BFAD
  5
BFB0
331
BF76
  5
BF78
331
BF00
  5
BF02
331
BEC1
  5
BEC3
331
BF37
  5
BF39
331
BFB5
  5
BFB8
331
BF7E
  5
BF80
331
BF3F
  5
BF41
331
15D6
  5
15D6
331
A77B
  5
A77B
331
159F
  5
159F
331
15DE
  5
15DE
331
15E6
  5
15E6
331
15A7
  5
15A7
331
BF08
  5
BF0A
331
BFBD
  5
BFC0
331
BF47
  5
BF49
331
BF10
  5
BF12
331
BED1
  5
BED3
331
BF86
  5
BF88
331
BFC5
  5
BFC8
331
BF8E
  5
BF90
331
BF4F
  5
BF51
331
BF18
  5
BF1A
331
BED9
  5
BEDB
331
BFCD
  5
BFD0
331
BF96
  5
BF98
331
BEE1
  5
BEE3
331
BF57
  5
BF59
331
BFD5
  5
BFD8
331
BF5F
  5
BF61
331
15EE
  5
15EE
331
15AF
  5
15AF
331
15F6
  5
15F6
331
BE9A
  5
BE9A
331
15BF
  5
15BF
331
A7CB
  5
A7CB
331
BEA2
  5
BEA2
331
9C96
  5
9C96
331
A724
  5
A724
331
C3CD
  5
C3CF
331
C396
  5
C399
331
C39E
  5
C3A1
331
C3A6
  5
C3CC
331
BF20
  5
BF22
331
BEE9
  5
BEED
331
BEAA
  5
BEAB
331
BFDD
  5
BFE0
331
BF9E
  5
BFA0
331
BF28
  5
BF2A
331
BEF1
  5
BEF3
331
BEB2
  5
BEB4
331
BF67
  5
BF69
331
BFE5
  5
BFE8
331
BF6F
  5
BF71
331
BF30
  5
BF32
331
BEBA
  5
BEBC
331
BEF9
  5
BEFB
331
BFA6
  5
BFA8
331
BFAE
  5
BFB1
331
BF77
  5
BF79
331
BF38
  5
BF3A
331
BEC2
  5
BEC4
331
BF01
  5
BF03
331
BFB6
  5
BFB9
331
BF7F
  5
BF81
331
15D7
  5
15D7
331
9C9E
  5
9C9E
331
15A0
  5
15A0
331
15DF
  5
15DF
331
15E7
  5
15E7
331
A516
  5
A516
331
BF09
  5
BF0B
331
BF40
  5
BF42
331
BFBE
  5
BFC1
331
BF48
  5
BF4A
331
BF11
  5
BF13
331
BED2
  5
BED4
331
BF87
  5
BF89
331
BFC6
  5
BFC9
331
BF50
  5
BF52
331
BF19
  5
BF1B
331
BEDA
  5
BEDC
331
BF8F
  5
BF91
331
BFCE
  5
BFD1
331
BF97
  5
BF99
331
BEE2
  5
BEE4
331
BF58
  5
BF5A
331
BFD6
  5
BFD9
331
15A8
  5
15A8
331
15B0
  5
15B0
331
15F7
  5
15F7
331
15B8
  5
15B8
331
BE93
  5
BE93
331
15C0
  5
15C0
331
A57E
  5
A57E
331
BEA3
  5
BEA3
331
9C97
  5
9C97
331
A88C
  5
A88C
331
C38F
  5
C393
331
C3CE
  5
BFAC
331
C397
  5
C39A
331
C39F
  5
C3A2
331
BF60
  5
BF62
331
BEAB
  5
BEAC
331
BF21
  5
BF23
331
BFDE
  5
BFE1
331
BF9F
  5
BFA1
331
BF29
  5
BF2B
331
BEF2
  5
BEF4
331
BEB3
  5
BEB5
331
BF68
  5
BF6A
331
BFE6
  5
C38B
331
BF70
  5
BF72
331
BF31
  5
BF33
331
BEFA
  5
BEFC
331
BFA7
  5
BFA9
331
BEBB
  5
BEBD
331
BFAF
  5
BFB2
331
BF78
  5
BF7A
331
BF39
  5
BF3B
331
BEC3
  5
BEC5
331
BF02
  5
BF04
331
BFB7
  5
BFBA
331
15C8
  5
15C8
331
15D0
  5
15D0
331
15D8
  5
15D8
331
9C9F
  5
9C9F
331
1599
  5
1599
331
15A1
  5
15A1
331
15E0
  5
15E0
331
A7A5
  5
A7A5
331
BF80
  5
BF82
331
BF0A
  5
BF0C
331
BF41
  5
BF43
331
BFBF
  5
BFC2
331
BF88
  5
BF8A
331
BF12
  5
BF14
331
BED3
  5
BED5
331
BF49
  5
BF4B
331
BFC7
  5
BFCA
331
BF51
  5
BF53
331
BF1A
  5
BF1C
331
BEDB
  5
BEDD
331
BF90
  5
BF92
331
BFCF
  5
BFD2
331
BF59
  5
BF5B
331
BEE3
  5
BEE5
331
15E8
  5
15E8
331
BFD7
  5
BFDA
331
15A9
  5
15A9
331
15F0
  5
15F0
331
15F8
  5
15F8
331
15B9
  5
15B9
331
BE94
  5
BE94
331
15C1
  5
15C1
331
BEA4
  5
BEA4
331
C3CF
  5
C392
331
C398
  5
C39B
331
C3A0
  5
C3A3
331
BF98
  5
BF9A
331
BF61
  5
BF63
331
BEAC
  5
BEAD
331
BF22
  5
BF24
331
BFDF
  5
BFE2
331
BFA0
  5
BFA2
331
BF2A
  5
BF2C
331
BEF3
  5
BEF5
331
BEB4
  5
BEB6
331
BF69
  5
BF6B
331
BFE7
  5
C38F
331
BFA8
  5
BFAA
331
BF32
  5
BF34
331
BEFB
  5
BEFD
331
BEBC
  5
BEBE
331
BF71
  5
BF73
331
BFB0
  5
BFB3
331
BF79
  5
BF7B
331
BF3A
  5
BF3C
331
BEC4
  5
BEC6
331
BF03
  5
BF05
331
15D1
  5
15D1
331
9C98
  5
9C98
331
15D9
  5
15D9
331
9CA0
  5
9CA0
331
159A
  5
159A
331
A895
  5
A895
331
15E1
  5
15E1
331
15A2
  5
15A2
  0
DIMASSOC
  5
A58C
102
{ACAD_REACTORS
330
A58B
102
}
330
A58B
100
AcDbDimAssoc
330
A57E
 90
        1
 70
     0
 71
     0
  1
AcDbOsnapPointRef
 72
     1
331
99DA
 73
     0
 91
        0
 40
0.0
 10
0.0
 20
0.0
 30
2.000000000000000E+50
 75
     0
  0
LAYOUT
  5
22
102
{ACAD_XDICTIONARY
360
C413
102
}
102
{ACAD_REACTORS
330
1A
102
}
330
1A
100
AcDbPlotSettings
  1

  2
\\RD\EPSON Stylus C63 Series單色
  4
A4
  6

 40
3.757083177566528
 41
3.757076978683471
 42
3.757080078125
 43
3.757080078125
 44
209.9733276367187
 45
296.9683227539062
 46
0.0
 47
0.0
 48
0.0
 49
0.0
140
0.0
141
0.0
142
1.0
143
0.3405120737814363
 70
 11952
 72
     1
 73
     0
 74
     0
  7
acad.ctb
 75
     0
147
2.936753428137963
148
-2047.07469463503
149
-1261.649717473083
100
AcDbLayout
  1
Model
 70
     1
 71
     0
 10
0.0
 20
0.0
 11
12.0
 21
9.0
 12
0.0
 22
0.0
 32
0.0
 14
0.0
 24
0.0
 34
0.0
 15
0.0
 25
0.0
 35
0.0
146
0.0
 13
0.0
 23
0.0
 33
0.0
 16
1.0
 26
0.0
 36
0.0
 17
0.0
 27
1.0
 37
0.0
 76
     0
330
1F
1001
ACAD_PSEXT
1000
\\RD\EPSON Stylus C63 Series單色
1000
EPSON Stylus C63 Series
1000
\\RD
1000

1070
     0
  0
LAYOUT
  5
1E
102
{ACAD_XDICTIONARY
360
C411
102
}
102
{ACAD_REACTORS
330
1A
102
}
330
1A
100
AcDbPlotSettings
  1

  2

  4

  6

 40
0.0
 41
0.0
 42
0.0
 43
0.0
 44
0.0
 45
0.0
 46
0.0
 47
0.0
 48
0.0
 49
0.0
140
0.0
141
0.0
142
1.0
143
1.0
 70
   688
 72
     0
 73
     0
 74
     5
  7
acad.ctb
 75
    16
147
1.0
148
0.0
149
0.0
100
AcDbLayout
  1
配置1
 70
     1
 71
     1
 10
0.0
 20
0.0
 11
420.0
 21
297.0
 12
0.0
 22
0.0
 32
0.0
 14
1.000000000000000E+20
 24
1.000000000000000E+20
 34
1.000000000000000E+20
 15
-1.000000000000000E+20
 25
-1.000000000000000E+20
 35
-1.000000000000000E+20
146
0.0
 13
0.0
 23
0.0
 33
0.0
 16
1.0
 26
0.0
 36
0.0
 17
0.0
 27
1.0
 37
0.0
 76
     0
330
1B
  0
LAYOUT
  5
26
102
{ACAD_XDICTIONARY
360
C415
102
}
102
{ACAD_REACTORS
330
1A
102
}
330
1A
100
AcDbPlotSettings
  1

  2

  4

  6

 40
0.0
 41
0.0
 42
0.0
 43
0.0
 44
0.0
 45
0.0
 46
0.0
 47
0.0
 48
0.0
 49
0.0
140
0.0
141
0.0
142
1.0
143
1.0
 70
   688
 72
     0
 73
     0
 74
     5
  7
acad.ctb
 75
    16
147
1.0
148
0.0
149
0.0
100
AcDbLayout
  1
配置2
 70
     1
 71
     2
 10
0.0
 20
0.0
 11
12.0
 21
9.0
 12
0.0
 22
0.0
 32
0.0
 14
0.0
 24
0.0
 34
0.0
 15
0.0
 25
0.0
 35
0.0
146
0.0
 13
0.0
 23
0.0
 33
0.0
 16
1.0
 26
0.0
 36
0.0
 17
0.0
 27
1.0
 37
0.0
 76
     0
330
23
  0
MLINESTYLE
  5
18
102
{ACAD_REACTORS
330
17
102
}
330
17
100
AcDbMlineStyle
  2
STANDARD
 70
     0
  3

 62
   256
 51
90.0
 52
90.0
 71
     2
 49
0.5
 62
   256
  6
BYLAYER
 49
-0.5
 62
   256
  6
BYLAYER
  0
ACDBPLACEHOLDER
  5
F
102
{ACAD_REACTORS
330
E
102
}
330
E
  0
TABLESTYLE
  5
11B
102
{ACAD_REACTORS
330
11A
102
}
330
11A
100
AcDbTableStyle
  3
Standard
 70
     0
 71
     0
 40
1.5
 41
1.5
280
     0
281
     0
  7
STANDARD
140
4.5
170
     2
 62
     0
 63
     7
283
     0
274
    -2
284
     1
 64
     0
275
    -2
285
     1
 65
     0
276
    -2
286
     1
 66
     0
277
    -2
287
     1
 67
     0
278
    -2
288
     1
 68
     0
279
    -2
289
     1
 69
     0
  7
STANDARD
140
6.0
170
     5
 62
     0
 63
     7
283
     0
274
    -2
284
     1
 64
     0
275
    -2
285
     1
 65
     0
276
    -2
286
     1
 66
     0
277
    -2
287
     1
 67
     0
278
    -2
288
     1
 68
     0
279
    -2
289
     1
 69
     0
  7
STANDARD
140
4.5
170
     5
 62
     0
 63
     7
283
     0
274
    -2
284
     1
 64
     0
275
    -2
285
     1
 65
     0
276
    -2
286
     1
 66
     0
277
    -2
287
     1
 67
     0
278
    -2
288
     1
 68
     0
279
    -2
289
     1
 69
     0
  0
DICTIONARYVAR
  5
138
102
{ACAD_REACTORS
330
94
102
}
330
94
100
DictionaryVariables
280
     0
  1
STANDARD
  0
DICTIONARYVAR
  5
96
102
{ACAD_REACTORS
330
94
102
}
330
94
100
DictionaryVariables
280
     0
  1
2
  0
DICTIONARYVAR
  5
95
102
{ACAD_REACTORS
330
94
102
}
330
94
100
DictionaryVariables
280
     0
  1
1
  0
DICTIONARYVAR
  5
1BA0
102
{ACAD_REACTORS
330
94
102
}
330
94
100
DictionaryVariables
280
     0
  1

  0
DICTIONARY
  5
1B5
102
{ACAD_REACTORS
330
5B
102
}
330
5B
100
AcDbDictionary
281
     1
  0
DICTIONARY
  5
61
102
{ACAD_REACTORS
330
5B
102
}
330
5B
100
AcDbDictionary
281
     1
  0
XRECORD
  5
123
102
{ACAD_REACTORS
330
5B
102
}
330
5B
100
AcDbXrecord
280
     1
 90
-1023410169
  0
DICTIONARY
  5
7C17
102
{ACAD_REACTORS
330
41
102
}
330
41
100
AcDbDictionary
281
     1
  3
DWGSETTINGS
350
7C18
  3
Shaft
350
8D15
  3
TRANSSETTINGS
350
7C1B
  0
LAYER_INDEX
  5
853C
102
{ACAD_REACTORS
330
853B
102
}
330
853B
100
AcDbIndex
 40
2456893.603631539
100
AcDbLayerIndex
  8
0
360
A8E5
 90
      361
  8
Defpoints
360
A8E6
 90
        0
  8
AM_5
360
A8E7
 90
        0
  8
AM_4
360
A8E8
 90
        0
  8
AM_VIS
360
A8E9
 90
        1
  8
AM_HID
360
A8EA
 90
        0
  8
AM_7
360
A8EB
 90
        2
  8
LOGO
360
A8EC
 90
       90
  8
AM_REFDIM
360
A8ED
 90
       14
  8
CEN
360
A8EE
 90
        0
  8
HATCH
360
A8EF
 90
        0
  8
SL
360
A8F0
 90
        0
  8
AM_10
360
A8F1
 90
        0
  0
DICTIONARY
  5
C413
330
22
100
AcDbDictionary
280
     1
281
     1
  3
ACAD_XREC_ROUNDTRIP
360
C414
  0
DICTIONARY
  5
C411
330
1E
100
AcDbDictionary
280
     1
281
     1
  3
ACAD_XREC_ROUNDTRIP
360
C412
  0
DICTIONARY
  5
C415
330
26
100
AcDbDictionary
280
     1
281
     1
  3
ACAD_XREC_ROUNDTRIP
360
C416
  0
IDBUFFER
  5
A8E5
330
0
100
AcDbIdBuffer
330
C3CC
330
C3CD
330
C3CE
330
C3CF
330
C38B
330
C38F
330
C391
330
C392
330
C393
330
C394
330
C395
330
C396
330
C397
330
C398
330
C399
330
C39A
330
C39B
330
C39C
330
C39D
330
C39E
330
C39F
330
C3A0
330
C3A1
330
C3A2
330
C3A3
330
C3A4
330
C3A5
330
C3A6
330
C3AA
330
C3AB
330
16B4
330
16B5
330
16B6
330
BE93
330
BE94
330
BE95
330
BE96
330
BE97
330
BE98
330
BE99
330
BE9A
330
BFE8
330
BFE7
330
BE9D
330
BFE6
330
BE9F
330
BEA0
330
BFE5
330
BEA2
330
BEA3
330
BEA4
330
BEA5
330
BFE4
330
BEA7
330
BEA8
330
BEA9
330
BEAA
330
BEAB
330
BEAC
330
BEAD
330
BEAE
330
BEAF
330
BEB0
330
BEB1
330
BEB2
330
BEB3
330
BEB4
330
BEB5
330
BEB6
330
BEB7
330
BEB8
330
BEB9
330
BEBA
330
BEBB
330
BEBC
330
BEBD
330
BEBE
330
BEBF
330
BEC0
330
BEC1
330
BEC2
330
BEC3
330
BEC4
330
BEC5
330
BEC6
330
BFE3
330
BFE2
330
BFE1
330
BFE0
330
BFDF
330
BFDE
330
BFDD
330
BECE
330
BECF
330
BED0
330
BED1
330
BED2
330
BED3
330
BED4
330
BED5
330
BED6
330
BED7
330
BED8
330
BED9
330
BEDA
330
BEDB
330
BEDC
330
BEDD
330
BEDE
330
BEDF
330
BEE0
330
BEE1
330
BEE2
330
BEE3
330
BEE4
330
BEE5
330
BEE6
330
BEE7
330
BEE8
330
BEE9
330
BFDC
330
BFDB
330
BEEC
330
BEED
330
BEEE
330
BEEF
330
BEF0
330
BEF1
330
BEF2
330
BEF3
330
BEF4
330
BEF5
330
BEF6
330
BEF7
330
BEF8
330
BEF9
330
BEFA
330
BEFB
330
BEFC
330
BEFD
330
BEFE
330
BEFF
330
BF00
330
BF01
330
BF02
330
BF03
330
BF04
330
BF05
330
BF06
330
BF07
330
BF08
330
BF09
330
BF0A
330
BF0B
330
BF0C
330
BF0D
330
BF0E
330
BF0F
330
BF10
330
BF11
330
BF12
330
BF13
330
BF14
330
BF15
330
BF16
330
BF17
330
BF18
330
BF19
330
BF1A
330
BF1B
330
BF1C
330
BF1D
330
BF1E
330
BF1F
330
BF20
330
BF21
330
BF22
330
BF23
330
BF24
330
BF25
330
BF26
330
BF27
330
BF28
330
BF29
330
BF2A
330
BF2B
330
BF2C
330
BF2D
330
BF2E
330
BF2F
330
BF30
330
BF31
330
BF32
330
BF33
330
BF34
330
BF35
330
BF36
330
BF37
330
BF38
330
BF39
330
BF3A
330
BF3B
330
BF3C
330
BF3D
330
BF3E
330
BF3F
330
BF40
330
BF41
330
BF42
330
BF43
330
BF44
330
BF45
330
BF46
330
BF47
330
BF48
330
BF49
330
BF4A
330
BF4B
330
BF4C
330
BF4D
330
BF4E
330
BF4F
330
BF50
330
BF51
330
BF52
330
BF53
330
BF54
330
BF55
330
BF56
330
BF57
330
BF58
330
BF59
330
BF5A
330
BF5B
330
BF5C
330
BF5D
330
BF5E
330
BF5F
330
BF60
330
BF61
330
BF62
330
BF63
330
BF64
330
BF65
330
BF66
330
BF67
330
BF68
330
BF69
330
BF6A
330
BF6B
330
BF6C
330
BF6D
330
BF6E
330
BF6F
330
BF70
330
BF71
330
BF72
330
BF73
330
BF74
330
BF75
330
BF76
330
BF77
330
BF78
330
BF79
330
BF7A
330
BF7B
330
BF7C
330
BF7D
330
BF7E
330
BF7F
330
BF80
330
BF81
330
BF82
330
BF83
330
BF84
330
BF85
330
BF86
330
BF87
330
BF88
330
BF89
330
BF8A
330
BF8B
330
BF8C
330
BF8D
330
BF8E
330
BF8F
330
BF90
330
BF91
330
BF92
330
BF93
330
BF94
330
BF95
330
BF96
330
BF97
330
BF98
330
BF99
330
BF9A
330
BF9B
330
BF9C
330
BF9D
330
BF9E
330
BF9F
330
BFA0
330
BFA1
330
BFA2
330
BFA3
330
BFA4
330
BFA5
330
BFA6
330
BFA7
330
BFA8
330
BFA9
330
BFAA
330
BFAB
330
BFAC
330
BFAD
330
BFAE
330
BFAF
330
BFB0
330
BFB1
330
BFB2
330
BFB3
330
BFB4
330
BFB5
330
BFB6
330
BFB7
330
BFB8
330
BFB9
330
BFBA
330
BFBB
330
BFBC
330
BFBD
330
BFBE
330
BFBF
330
BFC0
330
BFC1
330
BFC2
330
BFC3
330
BFC4
330
BFC5
330
BFC6
330
BFC7
330
BFC8
330
BFC9
330
BFCA
330
BFCB
330
BFCC
330
BFCD
330
BFCE
330
BFCF
330
BFD0
330
BFD1
330
BFD2
330
BFD3
330
BFD4
330
BFD5
330
BFD6
330
BFD7
330
BFD8
330
BFD9
330
BFDA
  0
IDBUFFER
  5
A8E6
330
0
100
AcDbIdBuffer
  0
IDBUFFER
  5
A8E7
330
0
100
AcDbIdBuffer
  0
IDBUFFER
  5
A8E8
330
0
100
AcDbIdBuffer
  0
IDBUFFER
  5
A8E9
330
0
100
AcDbIdBuffer
330
7BA1
  0
IDBUFFER
  5
A8EA
330
0
100
AcDbIdBuffer
  0
IDBUFFER
  5
A8EB
330
0
100
AcDbIdBuffer
330
99DA
330
99DB
  0
IDBUFFER
  5
A8EC
330
0
100
AcDbIdBuffer
330
1599
330
159A
330
159B
330
159C
330
159D
330
159E
330
159F
330
15A0
330
15A1
330
15A2
330
15A3
330
15A4
330
15A5
330
15A6
330
15A7
330
15A8
330
15A9
330
15AA
330
15AB
330
15AC
330
15AD
330
15AE
330
15AF
330
15B0
330
15B4
330
15B8
330
15B9
330
15BD
330
15BE
330
15BF
330
15C0
330
15C1
330
15C2
330
15C3
330
15C4
330
15C8
330
15CC
330
15D0
330
15D1
330
15D2
330
15D6
330
15D7
330
15D8
330
15D9
330
15DA
330
15DB
330
15DC
330
15DD
330
15DE
330
15DF
330
15E0
330
15E1
330
15E2
330
15E3
330
15E4
330
15E5
330
15E6
330
15E7
330
15E8
330
15E9
330
15EA
330
15EB
330
15EC
330
15ED
330
15EE
330
15F0
330
15F1
330
15F2
330
15F3
330
15F4
330
15F5
330
15F6
330
15F7
330
15F8
330
15F9
330
15FA
330
15FB
330
9C94
330
9C95
330
9C96
330
9C97
330
9C98
330
9C99
330
9C9A
330
9C9B
330
9C9C
330
9C9E
330
9C9F
330
9CA0
330
9CA2
  0
IDBUFFER
  5
A8ED
330
0
100
AcDbIdBuffer
330
A516
330
A540
330
A57E
330
A622
330
A67B
330
A6A1
330
A724
330
A77B
330
A7A5
330
A7CB
330
A889
330
A88C
330
A890
330
A895
  0
IDBUFFER
  5
A8EE
330
0
100
AcDbIdBuffer
  0
IDBUFFER
  5
A8EF
330
0
100
AcDbIdBuffer
  0
IDBUFFER
  5
A8F0
330
0
100
AcDbIdBuffer
  0
IDBUFFER
  5
A8F1
330
0
100
AcDbIdBuffer
  0
XRECORD
  5
C414
102
{ACAD_REACTORS
330
C413
102
}
330
C413
100
AcDbXrecord
280
     1
102
SHADEPLOT
 70
     0
102
SHADEPLOTRESLEVEL
 70
     2
102
SHADEPLOTCUSTOMDPI
 70
   300
  0
XRECORD
  5
C412
102
{ACAD_REACTORS
330
C411
102
}
330
C411
100
AcDbXrecord
280
     1
102
SHADEPLOT
 70
     0
102
SHADEPLOTRESLEVEL
 70
     2
102
SHADEPLOTCUSTOMDPI
 70
   300
  0
XRECORD
  5
C416
102
{ACAD_REACTORS
330
C415
102
}
330
C415
100
AcDbXrecord
280
     1
102
SHADEPLOT
 70
     0
102
SHADEPLOTRESLEVEL
 70
     2
102
SHADEPLOTCUSTOMDPI
 70
   300
  0
ENDSEC
  0
EOF
