  0
SECTION
  2
HEADER
  9
$ACADVER
  1
AC1015
  9
$ACADMAINTVER
 70
    20
  9
$DWGCODEPAGE
  3
ANSI_950
  9
$INSBASE
 10
0.0
 20
0.0
 30
0.0
  9
$EXTMIN
 10
636.5788502557365
 20
52.57431555144137
 30
-0.0030570337683002
  9
$EXTMAX
 10
831.6444529896907
 20
181.1351574594203
 30
100.1835830712523
  9
$LIMMIN
 10
0.0
 20
0.0
  9
$LIMMAX
 10
420.0
 20
297.0
  9
$ORTHOMODE
 70
     0
  9
$REGENMODE
 70
     1
  9
$FILLMODE
 70
     1
  9
$QTEXTMODE
 70
     0
  9
$MIRRTEXT
 70
     1
  9
$LTSCALE
 40
1.0
  9
$ATTMODE
 70
     1
  9
$TEXTSIZE
 40
3.0
  9
$TRACEWID
 40
1.0
  9
$TEXTSTYLE
  7
STANDARD
  9
$CLAYER
  8
AM_REFDIM
  9
$CELTYPE
  6
ByLayer
  9
$CECOLOR
 62
   256
  9
$CELTSCALE
 40
1.0
  9
$DISPSILH
 70
     0
  9
$DIMSCALE
 40
1.0
  9
$DIMASZ
 40
3.5
  9
$DIMEXO
 40
1.0
  9
$DIMDLI
 40
12.0
  9
$DIMRND
 40
0.0
  9
$DIMDLE
 40
0.0
  9
$DIMEXE
 40
1.0
  9
$DIMTP
 40
0.1
  9
$DIMTM
 40
0.1
  9
$DIMTXT
 40
3.5
  9
$DIMCEN
 40
0.0
  9
$DIMTSZ
 40
0.0
  9
$DIMTOL
 70
     0
  9
$DIMLIM
 70
     0
  9
$DIMTIH
 70
     0
  9
$DIMTOH
 70
     0
  9
$DIMSE1
 70
     0
  9
$DIMSE2
 70
     0
  9
$DIMTAD
 70
     1
  9
$DIMZIN
 70
     8
  9
$DIMBLK
  1

  9
$DIMASO
 70
     1
  9
$DIMSHO
 70
     1
  9
$DIMPOST
  1

  9
$DIMAPOST
  1
"
  9
$DIMALT
 70
     0
  9
$DIMALTD
 70
     2
  9
$DIMALTF
 40
0.0393701
  9
$DIMLFAC
 40
1.0
  9
$DIMTOFL
 70
     1
  9
$DIMTVP
 40
0.0
  9
$DIMTIX
 70
     0
  9
$DIMSOXD
 70
     0
  9
$DIMSAH
 70
     0
  9
$DIMBLK1
  1

  9
$DIMBLK2
  1

  9
$DIMSTYLE
  2
AM_ISO
  9
$DIMCLRD
 70
   256
  9
$DIMCLRE
 70
   256
  9
$DIMCLRT
 70
   256
  9
$DIMTFAC
 40
0.6
  9
$DIMGAP
 40
1.0
  9
$DIMJUST
 70
     0
  9
$DIMSD1
 70
     0
  9
$DIMSD2
 70
     0
  9
$DIMTOLJ
 70
     0
  9
$DIMTZIN
 70
     8
  9
$DIMALTZ
 70
     0
  9
$DIMALTTZ
 70
     0
  9
$DIMUPT
 70
     0
  9
$DIMDEC
 70
     1
  9
$DIMTDEC
 70
     8
  9
$DIMALTU
 70
     2
  9
$DIMALTTD
 70
     2
  9
$DIMTXSTY
  7
STANDARD
  9
$DIMAUNIT
 70
     0
  9
$DIMADEC
 70
     0
  9
$DIMALTRND
 40
0.0
  9
$DIMAZIN
 70
     2
  9
$DIMDSEP
 70
    46
  9
$DIMATFIT
 70
     3
  9
$DIMFRAC
 70
     0
  9
$DIMLDRBLK
  1

  9
$DIMLUNIT
 70
     2
  9
$DIMLWD
 70
    -1
  9
$DIMLWE
 70
    -1
  9
$DIMTMOVE
 70
     0
  9
$LUNITS
 70
     2
  9
$LUPREC
 70
     2
  9
$SKETCHINC
 40
1.0
  9
$FILLETRAD
 40
2.5
  9
$AUNITS
 70
     0
  9
$AUPREC
 70
     0
  9
$MENU
  1
.
  9
$ELEVATION
 40
0.0
  9
$PELEVATION
 40
0.0
  9
$THICKNESS
 40
0.0
  9
$LIMCHECK
 70
     0
  9
$CHAMFERA
 40
0.2
  9
$CHAMFERB
 40
0.2
  9
$CHAMFERC
 40
20.0
  9
$CHAMFERD
 40
0.0
  9
$SKPOLY
 70
     0
  9
$TDCREATE
 40
2454422.344345151
  9
$TDUCREATE
 40
2454422.011011817
  9
$TDUPDATE
 40
2456758.602658958
  9
$TDUUPDATE
 40
2456758.269325625
  9
$TDINDWG
 40
1.0802942708
  9
$TDUSRTIMER
 40
1.0802942708
  9
$USRTIMER
 70
     1
  9
$ANGBASE
 50
0.0
  9
$ANGDIR
 70
     0
  9
$PDMODE
 70
     0
  9
$PDSIZE
 40
0.0
  9
$PLINEWID
 40
0.0
  9
$SPLFRAME
 70
     0
  9
$SPLINETYPE
 70
     6
  9
$SPLINESEGS
 70
     8
  9
$HANDSEED
  5
AE9F
  9
$SURFTAB1
 70
     6
  9
$SURFTAB2
 70
     6
  9
$SURFTYPE
 70
     6
  9
$SURFU
 70
     6
  9
$SURFV
 70
     6
  9
$UCSBASE
  2

  9
$UCSNAME
  2

  9
$UCSORG
 10
0.0
 20
0.0
 30
0.0
  9
$UCSXDIR
 10
1.0
 20
0.0
 30
0.0
  9
$UCSYDIR
 10
0.0
 20
1.0
 30
0.0
  9
$UCSORTHOREF
  2

  9
$UCSORTHOVIEW
 70
     0
  9
$UCSORGTOP
 10
0.0
 20
0.0
 30
0.0
  9
$UCSORGBOTTOM
 10
0.0
 20
0.0
 30
0.0
  9
$UCSORGLEFT
 10
0.0
 20
0.0
 30
0.0
  9
$UCSORGRIGHT
 10
0.0
 20
0.0
 30
0.0
  9
$UCSORGFRONT
 10
0.0
 20
0.0
 30
0.0
  9
$UCSORGBACK
 10
0.0
 20
0.0
 30
0.0
  9
$PUCSBASE
  2

  9
$PUCSNAME
  2

  9
$PUCSORG
 10
0.0
 20
0.0
 30
0.0
  9
$PUCSXDIR
 10
1.0
 20
0.0
 30
0.0
  9
$PUCSYDIR
 10
0.0
 20
1.0
 30
0.0
  9
$PUCSORTHOREF
  2

  9
$PUCSORTHOVIEW
 70
     0
  9
$PUCSORGTOP
 10
0.0
 20
0.0
 30
0.0
  9
$PUCSORGBOTTOM
 10
0.0
 20
0.0
 30
0.0
  9
$PUCSORGLEFT
 10
0.0
 20
0.0
 30
0.0
  9
$PUCSORGRIGHT
 10
0.0
 20
0.0
 30
0.0
  9
$PUCSORGFRONT
 10
0.0
 20
0.0
 30
0.0
  9
$PUCSORGBACK
 10
0.0
 20
0.0
 30
0.0
  9
$USERI1
 70
     0
  9
$USERI2
 70
     0
  9
$USERI3
 70
     0
  9
$USERI4
 70
     0
  9
$USERI5
 70
     0
  9
$USERR1
 40
0.0
  9
$USERR2
 40
0.0
  9
$USERR3
 40
0.0
  9
$USERR4
 40
0.0
  9
$USERR5
 40
0.0
  9
$WORLDVIEW
 70
     1
  9
$SHADEDGE
 70
     3
  9
$SHADEDIF
 70
    70
  9
$TILEMODE
 70
     1
  9
$MAXACTVP
 70
    64
  9
$PINSBASE
 10
0.0
 20
0.0
 30
0.0
  9
$PLIMCHECK
 70
     0
  9
$PEXTMIN
 10
1.000000000000000E+20
 20
1.000000000000000E+20
 30
1.000000000000000E+20
  9
$PEXTMAX
 10
-1.000000000000000E+20
 20
-1.000000000000000E+20
 30
-1.000000000000000E+20
  9
$PLIMMIN
 10
0.0
 20
0.0
  9
$PLIMMAX
 10
420.0
 20
297.0
  9
$UNITMODE
 70
     0
  9
$VISRETAIN
 70
     1
  9
$PLINEGEN
 70
     0
  9
$PSLTSCALE
 70
     1
  9
$TREEDEPTH
 70
  3020
  9
$CMLSTYLE
  2
Standard
  9
$CMLJUST
 70
     0
  9
$CMLSCALE
 40
20.0
  9
$PROXYGRAPHICS
 70
     1
  9
$MEASUREMENT
 70
     1
  9
$CELWEIGHT
370
    -1
  9
$ENDCAPS
280
     0
  9
$JOINSTYLE
280
     0
  9
$LWDISPLAY
290
     0
  9
$INSUNITS
 70
     4
  9
$HYPERLINKBASE
  1

  9
$STYLESHEET
  1
彩色出圖.ctb
  9
$XEDIT
290
     1
  9
$CEPSNTYPE
380
     0
  9
$PSTYLEMODE
290
     1
  9
$FINGERPRINTGUID
  2
{B705A112-77C7-4534-AADA-B7988B84DA3D}
  9
$VERSIONGUID
  2
{15BF2E5E-5695-413E-AF10-F9B024D84E0E}
  9
$EXTNAMES
290
     1
  9
$PSVPSCALE
 40
0.0
  9
$OLESTARTUP
290
     0
  0
ENDSEC
  0
SECTION
  2
CLASSES
  0
CLASS
  1
ACDBDICTIONARYWDFLT
  2
AcDbDictionaryWithDefault
  3
ObjectDBX Classes
 90
        0
280
     0
281
     0
  0
CLASS
  1
ACDBPLACEHOLDER
  2
AcDbPlaceHolder
  3
ObjectDBX Classes
 90
        0
280
     0
281
     0
  0
CLASS
  1
LAYOUT
  2
AcDbLayout
  3
ObjectDBX Classes
 90
        0
280
     0
281
     0
  0
CLASS
  1
ACME_DOCUMENT
  2
AcMeDbDoc
  3
AcMeServices
 90
        0
280
     0
281
     0
  0
CLASS
  1
AMGSETTINGSOBJ
  2
AmgSettingsObj
  3
"AcadM|Product Description: AutoCAD Mechanical 2000|Company: Autodesk"
 90
        0
280
     0
281
     0
  0
CLASS
  1
ACMESCOPE
  2
AcMeScope
  3
AcMeServices
 90
        0
280
     0
281
     0
  0
CLASS
  1
ACMECOMMANDHISTORY
  2
AcMeCommandHistory
  3
AcMeServices
 90
        0
280
     0
281
     0
  0
CLASS
  1
ACIMSYSVARMAN
  2
AcImSysVarManager
  3
AcMeServices
 90
        0
280
     0
281
     0
  0
CLASS
  1
ACIMREALSYSVAR
  2
AcImRealSysVar
  3
AcMeServices
 90
        0
280
     0
281
     0
  0
CLASS
  1
ACIMINTSYSVAR
  2
AcImIntSysVar
  3
AcMeServices
 90
        0
280
     0
281
     0
  0
CLASS
  1
ACMEDRAWINGMAN
  2
AcMeDrawingMan
  3
AcMeServices
 90
        0
280
     0
281
     0
  0
CLASS
  1
ACMEVIEW
  2
AcMeView
  3
AcMeServices
 90
        0
280
     0
281
     0
  0
CLASS
  1
ACDBENTITYCACHE
  2
AcMeEntityCache
  3
AcMeServices
 90
        0
280
     0
281
     0
  0
CLASS
  1
GSMANAGER
  2
AcMeGSManager
  3
AcMeServices
 90
        0
280
     0
281
     0
  0
CLASS
  1
AMDTINTERNALREACTOR
  2
AmdtInternalReactor
  3
AcMeServices
 90
        0
280
     0
281
     0
  0
CLASS
  1
ACMESTATEMGR
  2
AcMeStateMgr
  3
AcMeServices
 90
        0
280
     0
281
     0
  0
CLASS
  1
ACGREFMASTER
  2
AcGrefMaster
  3
AcAttribServices
 90
        0
280
     0
281
     0
  0
CLASS
  1
ACME_DATABASE
  2
AcMeDbDatabase
  3
AcMeServices
 90
        0
280
     0
281
     0
  0
CLASS
  1
ACRFINSADJUSTERMGR
  2
AcRfInsAdjusterMgr
  3
AcMeServices
 90
        0
280
     0
281
     0
  0
CLASS
  1
ACGREFACADMASTER
  2
AcGrefacadMaster
  3
AcGrefServices
 90
        0
280
     0
281
     0
  0
CLASS
  1
AMIMASTER
  2
AmiMaster
  3
AmiServices
 90
        0
280
     0
281
     0
  0
CLASS
  1
ACMDATADICTIONARY
  2
AcmDataDictionary
  3
"AcmSymBB|Product Description: AutoCAD Mechanical 2004 DX|Company: Autodesk"
 90
        0
280
     0
281
     0
  0
CLASS
  1
ACMDATAENTRYBLOCK
  2
AcmDataEntryBlock
  3
"AcmSymBB|Product Description: AutoCAD Mechanical 2004 DX|Company: Autodesk"
 90
        0
280
     0
281
     0
  0
CLASS
  1
ACIMSTRSYSVAR
  2
AcImStrSysVar
  3
AcMeServices
 90
        0
280
     0
281
     0
  0
CLASS
  1
ACMSTANDARDISO
  2
AcmStandardISO
  3
"Amdt_StdImp|Product Description: AutoCAD Mechanical 2004 DX|Company: Autodesk"
 90
        0
280
     0
281
     0
  0
CLASS
  1
AMGOBJPROPCFG
  2
AmgObjPropCfg
  3
"AmgLay|Product Description: AutoCAD Mechanical 2000|Company: Autodesk"
 90
        1
280
     0
281
     0
  0
CLASS
  1
AMDTEDGESTANDARDISO
  2
AmdtEdgeStdISO
  3
"Amdt_StdImp|Product Description: AutoCAD Mechanical 2004 DX|Company: Autodesk"
 90
    32768
280
     0
281
     0
  0
CLASS
  1
ACMSURFSTANDARDISO
  2
AcmSurfTextStdISO
  3
"Amdt_StdImp|Product Description: AutoCAD Mechanical 2004 DX|Company: Autodesk"
 90
        0
280
     0
281
     0
  0
CLASS
  1
ACMFCFSTANDARDISO
  2
AcmFCFStdISO
  3
"Amdt_StdImp|Product Description: AutoCAD Mechanical 2004 DX|Company: Autodesk"
 90
        0
280
     0
281
     0
  0
CLASS
  1
ACMWELDSTANDARDISO
  2
AcmWeldingStdISO
  3
"Amdt_StdImp|Product Description: AutoCAD Mechanical 2004 DX|Company: Autodesk"
 90
        0
280
     0
281
     0
  0
CLASS
  1
ACMIDSTANDARDISO
  2
AcmIdStdISO
  3
"Amdt_StdImp|Product Description: AutoCAD Mechanical 2004 DX|Company: Autodesk"
 90
        0
280
     0
281
     0
  0
CLASS
  1
ACMDATUMSTANDARDISO
  2
AcmDatumStdISO
  3
"Amdt_StdImp|Product Description: AutoCAD Mechanical 2004 DX|Company: Autodesk"
 90
        0
280
     0
281
     0
  0
CLASS
  1
ACMBOMSTANDARDISO
  2
AcmBOMStdISO
  3
"Amdt_StdImp|Product Description: AutoCAD Mechanical 2004 DX|Company: Autodesk"
 90
        0
280
     0
281
     0
  0
CLASS
  1
ACMDETAILSTANDARDISO
  2
AmdtDetailSymStdISO
  3
"Amdt_StdImp|Product Description: AutoCAD Mechanical 2004 DX|Company: Autodesk"
 90
        0
280
     0
281
     0
  0
CLASS
  1
ACMSECTIONSTANDARDISO
  2
AmdtSectionSymStdISO
  3
"Amdt_StdImp|Product Description: AutoCAD Mechanical 2004 DX|Company: Autodesk"
 90
        0
280
     0
281
     0
  0
CLASS
  1
ACMCENTERLINESTANDARDISO
  2
AmdtCenterLineStdISO
  3
"Amdt_StdImp|Product Description: AutoCAD Mechanical 2004 DX|Company: Autodesk"
 90
        0
280
     0
281
     0
  0
CLASS
  1
ACMNOTESTANDARDISO
  2
AmdtNoteStdISO
  3
"Amdt_StdImp|Product Description: AutoCAD Mechanical 2004 DX|Company: Autodesk"
 90
        0
280
     0
281
     0
  0
CLASS
  1
ACAMGLAYSTD
  2
AcAmgLayStd
  3
"AcAmgLayStd|Product Description: AutoCAD Mechanical 2000|Company: Autodesk"
 90
        0
280
     0
281
     0
  0
CLASS
  1
ACAMGDIMSTD
  2
AcAmgDimStd
  3
"AcAmgDimStd|Product Description: AutoCAD Mechanical 2000|Company: Autodesk"
 90
        0
280
     0
281
     0
  0
CLASS
  1
ACAMGHOLECHARTSTDISO
  2
AcAmgHoleChartStdISO
  3
ACMSYMBB_MODULE_NAME
 90
        0
280
     0
281
     0
  0
CLASS
  1
ACAMGTITLESTD
  2
AcAmgTitleStd
  3
"TITLEAPP"
 90
        0
280
     0
281
     0
  0
CLASS
  1
LAYER_INDEX
  2
AcDbLayerIndex
  3
ObjectDBX Classes
 90
        0
280
     0
281
     0
  0
CLASS
  1
IDBUFFER
  2
AcDbIdBuffer
  3
ObjectDBX Classes
 90
        0
280
     0
281
     0
  0
CLASS
  1
DICTIONARYVAR
  2
AcDbDictionaryVar
  3
ObjectDBX Classes
 90
        0
280
     0
281
     0
  0
CLASS
  1
AM_DRAWING_MGR
  2
AcDmDwgMgr
  3
AcMechDwgViewMgmt
 90
        0
280
     0
281
     0
  0
CLASS
  1
AM_DWG_DOCUMENT
  2
AcDmDwgDocument
  3
AcMechDwgViewMgmt
 90
        0
280
     0
281
     0
  0
CLASS
  1
AM_DWG_SHEET
  2
AcDmSheet
  3
AcMechDwgViewMgmt
 90
        0
280
     0
281
     0
  0
CLASS
  1
AM_VIEWDIMPARMAP
  2
AcDmViewDimParMap
  3
AcMechDwgViewMgmt
 90
        0
280
     0
281
     0
  0
CLASS
  1
AM_DWGMGR_NAME
  2
AcDmDwgMgrName
  3
AcMechDwgViewMgmt
 90
        0
280
     0
281
     0
  0
CLASS
  1
AMDTMENUSTATEMGR
  2
AmdtMenuStateMgr
  3
McadcomServices
 90
        0
280
     0
281
     0
  0
CLASS
  1
AMDTMCOMMENUSTATE
  2
AmdtMcomMenuState
  3
McadcomServices
 90
        0
280
     0
281
     0
  0
CLASS
  1
MAPIAMMOUDLE
  2
MApiAmModule
  3
MApiAmServices
 90
        0
280
     0
281
     0
  0
CLASS
  1
AMDTADMENUSTATE
  2
AmdtAdMenuState
  3
DesignerServices
 90
        0
280
     0
281
     0
  0
CLASS
  1
ADAPPL
  2
AcAdAppl
  3
DesignerServices
 90
        0
280
     0
281
     0
  0
CLASS
  1
DEPMGR
  2
AcAdDepMgr
  3
DesignerServices
 90
        0
280
     0
281
     0
  0
CLASS
  1
PARAMMGR
  2
AcAdParamMgr
  3
DesignerServices
 90
        0
280
     0
281
     0
  0
CLASS
  1
PARAMSCOPE
  2
AcAdParamScope
  3
DesignerServices
 90
        0
280
     0
281
     0
  0
CLASS
  1
NAMEDAPPL
  2
AcAdNamedAppl
  3
DesignerServices
 90
        0
280
     0
281
     0
  0
CLASS
  1
AMDTDMMENUSTATE
  2
AmdtDmMenuState
  3
AcMechDwgViewMgmt
 90
        0
280
     0
281
     0
  0
CLASS
  1
AMDTAMMENUSTATE
  2
AmdtAmMenuState
  3
DesignerAssemblies
 90
        0
280
     0
281
     0
  0
CLASS
  1
ACAMPROJECT
  2
AcAmProject
  3
DesignerAssemblies
 90
        0
280
     0
281
     0
  0
CLASS
  1
ACAMGRCOMPDEF
  2
AcAmGrCompDef
  3
DesignerAssemblies
 90
        0
280
     0
281
     0
  0
CLASS
  1
ACCMCONTEXT
  2
AcCmContext
  3
DesignerAssemblies
 90
        0
280
     0
281
     0
  0
CLASS
  1
ACAMCOMPDEF
  2
AcAmCompDef
  3
DesignerAssemblies
 90
        0
280
     0
281
     0
  0
CLASS
  1
ACAMCOMPDEFMGR
  2
AcAmCompDefMgr
  3
DesignerAssemblies
 90
        0
280
     0
281
     0
  0
CLASS
  1
AMCONTEXTMGR
  2
AcAmContextMgr
  3
DesignerAssemblies
 90
        0
280
     0
281
     0
  0
CLASS
  1
ACAMCONTEXTMODELER
  2
AcAmContextModeler
  3
DesignerAssemblies
 90
        0
280
     0
281
     0
  0
CLASS
  1
ACMTHREADLINESTANDARDISO
  2
AmdtThreadLineStdISO
  3
"Amdt_StdImp|Product Description: AutoCAD Mechanical 2004 DX|Company: Autodesk"
 90
        0
280
     0
281
     0
  0
CLASS
  1
CATALOGSTATE
  2
AcAmCatalogState
  3
DesignerAssemblies
 90
        0
280
     0
281
     0
  0
CLASS
  1
ACAMGRCOMPDEFSET
  2
AcAmGrCompDefSet
  3
DesignerAssemblies
 90
        0
280
     0
281
     0
  0
CLASS
  1
AMDTBROWSERDBTAB
  2
AmdtBrowserDbTab
  3
McadcomServices
 90
        0
280
     0
281
     0
  0
CLASS
  1
CBROWSERAPPOBJECT
  2
CBrowserAppObject
  3
McadcomServices
 90
        0
280
     0
281
     0
  0
CLASS
  1
DM_PLACEHOLDER
  2
AcDmSelsetPlaceholder
  3
AcMechDwgViewMgmt
 90
        0
280
     0
281
     0
  0
CLASS
  1
TABLESTYLE
  2
AcDbTableStyle
  3
ObjectDBX Classes
 90
     2047
280
     0
281
     0
  0
CLASS
  1
VAACXREFPANELOBJECT
  2
VaAcXREFPanelObject
  3
VAAC_ADDIN
 90
    32768
280
     0
281
     0
  0
CLASS
  1
VAACIMAGEINVENTORY
  2
VaAcImageInventory
  3
VAAC_ADDIN
 90
    32768
280
     0
281
     0
  0
CLASS
  1
AMDTNOTETEMPLATEDB
  2
AmdtNoteTemplateDB
  3
AMDT_STDIMP_MODULE_NAME
 90
        0
280
     0
281
     0
  0
CLASS
  1
ACMBOM
  2
AcmBom
  3
"AcmSymBB|Product Description: AutoCAD Mechanical 2004 DX|Company: Autodesk"
 90
    32768
280
     0
281
     0
  0
CLASS
  1
AMDTFORMULAUPDATEDISPATCHER
  2
AmdtFormulaUpdateDispatcher
  3
AcMeServices
 90
    32768
280
     0
281
     0
  0
CLASS
  1
ACMPARTLIST
  2
AcmPartList
  3
"AcmSymBB|Product Description: AutoCAD Mechanical 2004 DX|Company: Autodesk"
 90
    33791
280
     0
281
     1
  0
CLASS
  1
ACAMGFILTERDAT
  2
AcAmgFilterDat
  3
"AcadM|Product Description: AutoCAD Mechanical 2000|Company: Autodesk"
 90
    32768
280
     0
281
     0
  0
CLASS
  1
DIMASSOC
  2
AcDbDimAssoc
  3
"AcDbDimAssoc|Product Desc:     AcDim ARX App For Dimension|Company:          Autodesk, Inc.|WEB Address:      www.autodesk.com"
 90
        0
280
     0
281
     0
  0
CLASS
  1
SORTENTSTABLE
  2
AcDbSortentsTable
  3
ObjectDBX Classes
 90
        0
280
     0
281
     0
  0
CLASS
  1
STDPART2D
  2
AmgStdPart
  3
"AmgStdPart|Product Description: AutoCAD Mechanical 2000|Company: Autodesk"
 90
    33791
280
     0
281
     1
  0
CLASS
  1
ACAMSTDPCOMPDEF
  2
AcAmStdpCompDef
  3
DesignerAssemblies
 90
    32768
280
     0
281
     0
  0
CLASS
  1
ACRFATTGENMGR
  2
AcRfAttGeneralMgr
  3
AcAttribServices
 90
    32768
280
     0
281
     0
  0
CLASS
  1
ACRFOBJATTMGR
  2
AcRfObjAttGroupMgr
  3
AcAttribServices
 90
    32768
280
     0
281
     0
  0
CLASS
  1
ACRFMCADAPIATTHOLDER
  2
AcRfMCADAPIAttHolder
  3
AcAttribServices
 90
    32768
280
     0
281
     0
  0
CLASS
  1
AMDTSYSATTR
  2
AmdtSystemAttribute
  3
AcAttribServices
 90
    32768
280
     0
281
     0
  0
CLASS
  1
ACAMCOMP
  2
AcAmComp
  3
DesignerAssemblies
 90
    32768
280
     0
281
     0
  0
CLASS
  1
AC_AM_STDP_VIEW_DEF
  2
AcAmStdpViewDef
  3
DesignerAssemblies
 90
    32768
280
     0
281
     0
  0
CLASS
  1
AC_AM_MVD_DEP_MGR
  2
AcAmMVDdepMgr
  3
DesignerAssemblies
 90
    32768
280
     0
281
     0
  0
CLASS
  1
AC_AM_MASTER_VIEW_DEF
  2
AcAmMasterViewDef
  3
DesignerAssemblies
 90
    32768
280
     0
281
     0
  0
CLASS
  1
AC_AM_DIRTY_NODES
  2
AcAmDirtyNodes
  3
DesignerAssemblies
 90
    32768
280
     0
281
     0
  0
CLASS
  1
AC_AM_MAPPER_CACHE
  2
AcAmMapperCache
  3
DesignerAssemblies
 90
    32768
280
     0
281
     0
  0
CLASS
  1
ACAMMVDBACKUPOBJECT
  2
AcAmMVDBackupObject
  3
DesignerAssemblies
 90
    32768
280
     0
281
     0
  0
CLASS
  1
AC_AM_COMP_VIEW_INST
  2
AcAmCompView
  3
DesignerAssemblies
 90
    32768
280
     0
281
     0
  0
CLASS
  1
AC_AM_2D_XREF_MGR
  2
AcAmXrefMgr2d
  3
DesignerAssemblies
 90
    32768
280
     0
281
     0
  0
CLASS
  1
AMDTNOTE
  2
AmdtNote
  3
"AcmSymBB|Product Description: AutoCAD Mechanical 2004 DX|Company: Autodesk"
 90
    33791
280
     0
281
     1
  0
CLASS
  1
AMDTEDGESTANDARDISO13715
  2
AmdtEdgeStdISO13715
  3
"Amdt_StdImp|Product Description: AutoCAD Mechanical 2004 DX|Company: Autodesk"
 90
        0
280
     0
281
     0
  0
CLASS
  1
ASAPP
  2
AcAsAppObject
  3
AutoSurfServices
 90
        0
280
     0
281
     0
  0
CLASS
  1
IM_STATIC_MAN
  2
AcImStaticVarManager
  3
AcMeServices
 90
        0
280
     0
281
     0
  0
CLASS
  1
ACIMDBLSTATICVAR
  2
AcImDblStaticVar
  3
AcMeServices
 90
        0
280
     0
281
     0
  0
CLASS
  1
ACIMSTRSTATICVAR
  2
AcImStrStaticVar
  3
AcMeServices
 90
        0
280
     0
281
     0
  0
CLASS
  1
ACIMINTSTATICVAR
  2
AcImIntStaticVar
  3
AcMeServices
 90
        0
280
     0
281
     0
  0
CLASS
  1
ACASGREFMASTER
  2
AcAsGrefMaster
  3
AutoSurfResolverServices
 90
        0
280
     0
281
     0
  0
CLASS
  1
ACADGREFMODULE
  2
AcAdGrefModule
  3
AdGrefServices
 90
        0
280
     0
281
     0
  0
CLASS
  1
AMDTMAPISURFMOUDULE
  2
AmdtMApiSurfModule
  3
MApiSurfServices
 90
        0
280
     0
281
     0
  0
CLASS
  1
MAPIADMODULE
  2
MApiAdModule
  3
MApiAdServices
 90
        0
280
     0
281
     0
  0
ENDSEC
  0
SECTION
  2
TABLES
  0
TABLE
  2
VPORT
  5
8
330
0
100
AcDbSymbolTable
 70
     5
  0
VPORT
  5
AE96
330
8
100
AcDbSymbolTableRecord
100
AcDbViewportTableRecord
  2
*Active
 70
     0
 10
0.0
 20
0.0
 11
1.0
 21
1.0
 12
224.4287112774035
 22
-201.1327293909356
 13
0.0
 23
0.0
 14
2.5
 24
2.5
 15
10.0
 25
10.0
 16
0.0
 26
0.0
 36
1.0
 17
493.6788805944727
 27
316.1094665189255
 37
0.0
 40
289.8702681994043
 41
1.263157894736842
 42
50.0
 43
0.0
 44
0.0
 50
0.0
 51
0.0
 71
     0
 72
  2000
 73
     1
 74
     3
 75
     0
 76
     0
 77
     0
 78
     0
281
     0
 65
     0
110
0.0
120
0.0
130
0.0
111
1.0
121
0.0
131
0.0
112
0.0
122
1.0
132
0.0
 79
     0
146
0.0
  0
ENDTAB
  0
TABLE
  2
LTYPE
  5
5
330
0
100
AcDbSymbolTable
 70
    16
  0
LTYPE
  5
14
330
5
100
AcDbSymbolTableRecord
100
AcDbLinetypeTableRecord
  2
ByBlock
 70
     0
  3

 72
    65
 73
     0
 40
0.0
  0
LTYPE
  5
15
330
5
100
AcDbSymbolTableRecord
100
AcDbLinetypeTableRecord
  2
ByLayer
 70
     0
  3

 72
    65
 73
     0
 40
0.0
  0
LTYPE
  5
16
330
5
100
AcDbSymbolTableRecord
100
AcDbLinetypeTableRecord
  2
Continuous
 70
     0
  3
Solid line
 72
    65
 73
     0
 40
0.0
  0
LTYPE
  5
64
330
5
100
AcDbSymbolTableRecord
100
AcDbLinetypeTableRecord
  2
AM_ISO02W050
 70
     0
  3
__ __ __ __ __ __ __ __ __ __ __ __ __ __ __
 72
    65
 73
     2
 40
7.5
 49
6.0
 74
     0
 49
-1.5
 74
     0
  0
LTYPE
  5
65
330
5
100
AcDbSymbolTableRecord
100
AcDbLinetypeTableRecord
  2
AM_ISO08W050
 70
     0
  3
____ . ____ . ____ . ____ . ____ . ____ . ____
 72
    65
 73
     4
 40
18.0
 49
12.0
 74
     0
 49
-1.5
 74
     0
 49
3.0
 74
     0
 49
-1.5
 74
     0
  0
LTYPE
  5
66
330
5
100
AcDbSymbolTableRecord
100
AcDbLinetypeTableRecord
  2
AM_ISO09W050
 70
     0
  3
_____ . . _____ . . _____ . . ____ .. ____
 72
    65
 73
     6
 40
22.5
 49
12.0
 74
     0
 49
-1.5
 74
     0
 49
3.0
 74
     0
 49
-1.5
 74
     0
 49
3.0
 74
     0
 49
-1.5
 74
     0
  0
LTYPE
  5
67
330
5
100
AcDbSymbolTableRecord
100
AcDbLinetypeTableRecord
  2
Amconstr
 70
     0
  3
_______________________
 72
    65
 73
     2
 40
9999.0
 49
9999.0
 74
     0
 49
0.0
 74
     0
  0
LTYPE
  5
68
330
5
100
AcDbSymbolTableRecord
100
AcDbLinetypeTableRecord
  2
AM_ISO08W050x2
 70
     0
  3
__ . __ . __ . __ . __ . __
 72
    65
 73
     4
 40
9.0
 49
6.0
 74
     0
 49
-0.75
 74
     0
 49
1.5
 74
     0
 49
-0.75
 74
     0
  0
LTYPE
  5
69
330
5
100
AcDbSymbolTableRecord
100
AcDbLinetypeTableRecord
  2
AM_ISO02W050x2
 70
     0
  3
 _ _ _ _ _ _ _ _ _ _ _ _
 72
    65
 73
     2
 40
3.75
 49
3.0
 74
     0
 49
-0.75
 74
     0
  0
LTYPE
  5
6C
330
5
100
AcDbSymbolTableRecord
100
AcDbLinetypeTableRecord
  2
Amzigzag
 70
     0
  3
/\/-/\/-/\/-/\/-/\/-/\/
 72
    65
 73
     2
 40
11.0001
 49
0.0001
 74
     4
 75
   135
340
6B
 46
0.04
 50
0.0
 44
0.0
 45
0.0
 49
-11.0
 74
     0
  0
LTYPE
  5
7A
330
5
100
AcDbSymbolTableRecord
100
AcDbLinetypeTableRecord
  2
ACISOWELD
 70
     0
  3
_ _ _ _ _
 72
    65
 73
     2
 40
2.0
 49
2.0
 74
     0
 49
-1.0
 74
     0
  0
LTYPE
  5
7B
330
5
100
AcDbSymbolTableRecord
100
AcDbLinetypeTableRecord
  2
ACISOTGB
 70
     0
  3
__ . . __ . .
 72
    65
 73
     6
 40
9.0
 49
4.0
 74
     0
 49
-1.0
 74
     0
 49
1.0
 74
     0
 49
-1.0
 74
     0
 49
1.0
 74
     0
 49
-1.0
 74
     0
  0
LTYPE
  5
7C
330
5
100
AcDbSymbolTableRecord
100
AcDbLinetypeTableRecord
  2
ACISOTGL
 70
     0
  3
_ _ _ _ _
 72
    65
 73
     2
 40
3.0
 49
2.0
 74
     0
 49
-1.0
 74
     0
  0
LTYPE
  5
7E
330
5
100
AcDbSymbolTableRecord
100
AcDbLinetypeTableRecord
  2
CENTER
 70
     0
  3
__ . __
 72
    65
 73
     4
 40
7.0
 49
4.0
 74
     0
 49
-1.0
 74
     0
 49
1.0
 74
     0
 49
-1.0
 74
     0
  0
LTYPE
  5
D8
330
5
100
AcDbSymbolTableRecord
100
AcDbLinetypeTableRecord
  2
HIDDEN
 70
     0
  3
Hidden __ __ __ __ __ __ __ __ __ __ __ __ __ _
 72
    65
 73
     2
 40
9.524999999999998
 49
6.349999999999999
 74
     0
 49
-3.174999999999999
 74
     0
  0
LTYPE
  5
D9
330
5
100
AcDbSymbolTableRecord
100
AcDbLinetypeTableRecord
  2
PHANTOM2
 70
     0
  3
Phantom (.5x) ___ _ _ ___ _ _ ___ _ _ ___ _ _
 72
    65
 73
     6
 40
31.75
 49
15.875
 74
     0
 49
-3.174999999999999
 74
     0
 49
3.174999999999999
 74
     0
 49
-3.174999999999999
 74
     0
 49
3.174999999999999
 74
     0
 49
-3.174999999999999
 74
     0
  0
LTYPE
  5
7C98
330
5
100
AcDbSymbolTableRecord
100
AcDbLinetypeTableRecord
  2
ASULTYPE
 70
     0
  3
實線
 72
    65
 73
     2
 40
3.0
 49
2.5
 74
     0
 49
0.5
 74
     0
  0
LTYPE
  5
7C99
330
5
100
AcDbSymbolTableRecord
100
AcDbLinetypeTableRecord
  2
ASVLTYPE
 70
     0
  3
__ __ __ __ __ __ __ __ __ __ __ __ __ __ __ __ __ __ __ __ __
 72
    65
 73
     2
 40
0.75
 49
0.5
 74
     0
 49
-0.25
 74
     0
  0
ENDTAB
  0
TABLE
  2
LAYER
  5
2
102
{ACAD_XDICTIONARY
360
3F9
102
}
330
0
100
AcDbSymbolTable
 70
    13
  0
LAYER
  5
10
330
2
100
AcDbSymbolTableRecord
100
AcDbLayerTableRecord
  2
0
 70
     0
 62
     7
  6
Continuous
370
    -3
390
F
  0
LAYER
  5
C92
330
2
100
AcDbSymbolTableRecord
100
AcDbLayerTableRecord
  2
Defpoints
 70
     0
 62
     7
  6
Continuous
290
     0
370
    -3
390
F
  0
LAYER
  5
C93
330
2
100
AcDbSymbolTableRecord
100
AcDbLayerTableRecord
  2
AM_5
 70
     0
 62
     3
  6
Continuous
370
    25
390
F
  0
LAYER
  5
C94
330
2
100
AcDbSymbolTableRecord
100
AcDbLayerTableRecord
  2
AM_4
 70
     0
 62
     3
  6
Continuous
370
    25
390
F
  0
LAYER
  5
C95
330
2
100
AcDbSymbolTableRecord
100
AcDbLayerTableRecord
  2
AM_VIS
 70
     0
 62
     7
  6
Continuous
370
    50
390
F
  0
LAYER
  5
C96
330
2
100
AcDbSymbolTableRecord
100
AcDbLayerTableRecord
  2
AM_HID
 70
     0
 62
     3
  6
AM_ISO02W050x2
370
    25
390
F
  0
LAYER
  5
C97
330
2
100
AcDbSymbolTableRecord
100
AcDbLayerTableRecord
  2
AM_7
 70
     0
 62
     1
  6
CENTER
370
    25
390
F
  0
LAYER
  5
C99
330
2
100
AcDbSymbolTableRecord
100
AcDbLayerTableRecord
  2
LOGO
 70
     0
 62
     7
  6
Continuous
370
    -3
390
F
  0
LAYER
  5
2AA5
330
2
100
AcDbSymbolTableRecord
100
AcDbLayerTableRecord
  2
AM_REFDIM
 70
     0
 62
     5
  6
Continuous
370
    25
390
F
  0
LAYER
  5
79D1
330
2
100
AcDbSymbolTableRecord
100
AcDbLayerTableRecord
  2
CEN
 70
     0
 62
     1
  6
CENTER
370
    -3
390
F
  0
LAYER
  5
79D3
330
2
100
AcDbSymbolTableRecord
100
AcDbLayerTableRecord
  2
HATCH
 70
     0
 62
     4
  6
Continuous
370
    -3
390
F
  0
LAYER
  5
7BB8
330
2
100
AcDbSymbolTableRecord
100
AcDbLayerTableRecord
  2
SL
 70
     0
 62
     2
  6
Continuous
370
    -3
390
F
1001
AcAecLayerStandard
1000

1000

  0
LAYER
  5
7DF7
330
2
100
AcDbSymbolTableRecord
100
AcDbLayerTableRecord
  2
AM_10
 70
     0
 62
     7
  6
AM_ISO08W050
370
    50
390
F
  0
ENDTAB
  0
TABLE
  2
STYLE
  5
3
330
0
100
AcDbSymbolTable
 70
     8
  0
STYLE
  5
11
330
3
100
AcDbSymbolTableRecord
100
AcDbTextStyleTableRecord
  2
STANDARD
 70
     0
 40
0.0
 41
1.0
 50
0.0
 71
     0
 42
3.0
  3
ISOCP.SHX
  4
CHINESET.SHX
  0
STYLE
  5
6B
330
3
100
AcDbSymbolTableRecord
100
AcDbTextStyleTableRecord
  2

 70
     1
 40
0.0
 41
1.0
 50
0.0
 71
     0
 42
2.5
  3
ltypeshp.shx
  4

  0
STYLE
  5
6D
330
3
100
AcDbSymbolTableRecord
100
AcDbTextStyleTableRecord
  2
ACISOTS
 70
     0
 40
1.0
 41
1.0
 50
0.0
 71
     0
 42
1.0
  3
isocp.shx
  4
chineset.shx
  0
STYLE
  5
79
330
3
100
AcDbSymbolTableRecord
100
AcDbTextStyleTableRecord
  2
ACISOGDT
 70
     0
 40
0.0
 41
1.0
 50
0.0
 71
     0
 42
2.5
  3
amgdt.shx
  4
chineset.shx
  0
STYLE
  5
C9B
330
3
100
AcDbSymbolTableRecord
100
AcDbTextStyleTableRecord
  2
CHINESET
 70
     0
 40
0.0
 41
1.0
 50
0.0
 71
     0
 42
2.5
  3
simplex.shx
  4
CHINESET.shx
  0
STYLE
  5
7DF8
330
3
100
AcDbSymbolTableRecord
100
AcDbTextStyleTableRecord
  2
DAYUS
 70
     0
 40
0.0
 41
1.0
 50
0.0
 71
     0
 42
2.0
  3
simplex.shx
  4
dayus.shx
  0
ENDTAB
  0
TABLE
  2
VIEW
  5
6
330
0
100
AcDbSymbolTable
 70
     0
  0
ENDTAB
  0
TABLE
  2
UCS
  5
7
330
0
100
AcDbSymbolTable
 70
     0
  0
ENDTAB
  0
TABLE
  2
APPID
  5
9
330
0
100
AcDbSymbolTable
 70
    38
  0
APPID
  5
12
330
9
100
AcDbSymbolTableRecord
100
AcDbRegAppTableRecord
  2
ACAD
 70
     0
  0
APPID
  5
46
330
9
100
AcDbSymbolTableRecord
100
AcDbRegAppTableRecord
  2
MCAD_NO_VIS
 70
     0
  0
APPID
  5
47
330
9
100
AcDbSymbolTableRecord
100
AcDbRegAppTableRecord
  2
ACAD_TEMP_GRAPHIC
 70
     0
  0
APPID
  5
58
330
9
100
AcDbSymbolTableRecord
100
AcDbRegAppTableRecord
  2
ACATTRIBSERVICES
 70
     0
  0
APPID
  5
EE
330
9
100
AcDbSymbolTableRecord
100
AcDbRegAppTableRecord
  2
AD_DRAW
 70
     0
  0
APPID
  5
10C
330
9
100
AcDbSymbolTableRecord
100
AcDbRegAppTableRecord
  2
DESIGNERASSEMBLIES
 70
     0
  0
APPID
  5
111
330
9
100
AcDbSymbolTableRecord
100
AcDbRegAppTableRecord
  2
ACADM_DIM_EDIT
 70
     0
  0
APPID
  5
112
330
9
100
AcDbSymbolTableRecord
100
AcDbRegAppTableRecord
  2
AMDT_DM_ADJ
 70
     0
  0
APPID
  5
22C
330
9
100
AcDbSymbolTableRecord
100
AcDbRegAppTableRecord
  2
ACAD_DSTYLE_DIMTEXT_FILL
 70
     0
  0
APPID
  5
452
330
9
100
AcDbSymbolTableRecord
100
AcDbRegAppTableRecord
  2
GENIUS_GENOENT_13
 70
     0
  0
APPID
  5
453
330
9
100
AcDbSymbolTableRecord
100
AcDbRegAppTableRecord
  2
GENIUS_GENOBJ-N-CRS_13
 70
     0
  0
APPID
  5
454
330
9
100
AcDbSymbolTableRecord
100
AcDbRegAppTableRecord
  2
GENIUS_GENOLIS_13
 70
     0
  0
APPID
  5
455
330
9
100
AcDbSymbolTableRecord
100
AcDbRegAppTableRecord
  2
GENIUS_GENODEF_13
 70
     0
  0
APPID
  5
456
330
9
100
AcDbSymbolTableRecord
100
AcDbRegAppTableRecord
  2
GENIUS_GENOREF_13
 70
     0
  0
APPID
  5
6F3
330
9
100
AcDbSymbolTableRecord
100
AcDbRegAppTableRecord
  2
ACAD_PSEXT
 70
     0
  0
APPID
  5
808
330
9
100
AcDbSymbolTableRecord
100
AcDbRegAppTableRecord
  2
GENIUS_GENDTOL_13
 70
     0
  0
APPID
  5
C9C
330
9
100
AcDbSymbolTableRecord
100
AcDbRegAppTableRecord
  2
GENIUS_GENOBJ-N-CEN_13
 70
     0
  0
APPID
  5
C9D
330
9
100
AcDbSymbolTableRecord
100
AcDbRegAppTableRecord
  2
GENIUS_GENCEN_19
 70
     0
  0
APPID
  5
C9E
330
9
100
AcDbSymbolTableRecord
100
AcDbRegAppTableRecord
  2
GENIUS_GENREC_14
 70
     0
  0
APPID
  5
C9F
330
9
100
AcDbSymbolTableRecord
100
AcDbRegAppTableRecord
  2
GENIUS_GENOBJ-N-REC_13
 70
     0
  0
APPID
  5
18AD
330
9
100
AcDbSymbolTableRecord
100
AcDbRegAppTableRecord
  2
GEVID1195260822
 70
     0
  0
APPID
  5
18AE
330
9
100
AcDbSymbolTableRecord
100
AcDbRegAppTableRecord
  2
GEVDC
 70
     0
  0
APPID
  5
18AF
330
9
100
AcDbSymbolTableRecord
100
AcDbRegAppTableRecord
  2
GEVRADREF
 70
     0
  0
APPID
  5
18B8
330
9
100
AcDbSymbolTableRecord
100
AcDbRegAppTableRecord
  2
AMG_2DHIDE
 70
     0
  0
APPID
  5
18B9
330
9
100
AcDbSymbolTableRecord
100
AcDbRegAppTableRecord
  2
AMG_2DSTRUCT_BTR
 70
     0
  0
APPID
  5
18CA
330
9
100
AcDbSymbolTableRecord
100
AcDbRegAppTableRecord
  2
ACADM_2DVIEW_IGN_NOTIFY
 70
     0
  0
APPID
  5
3621
330
9
100
AcDbSymbolTableRecord
100
AcDbRegAppTableRecord
  2
GENIUS_GENDIMSH_14
 70
     0
  0
APPID
  5
3FD8
330
9
100
AcDbSymbolTableRecord
100
AcDbRegAppTableRecord
  2
AD_SKETCHDIM
 70
     0
  0
APPID
  5
42D5
330
9
100
AcDbSymbolTableRecord
100
AcDbRegAppTableRecord
  2
ACAD_DSTYLE_DIMEXT_LENGTH
 70
     0
  0
APPID
  5
42D6
330
9
100
AcDbSymbolTableRecord
100
AcDbRegAppTableRecord
  2
ACAD_DSTYLE_DIMEXT_ENABLED
 70
     0
  0
APPID
  5
42D7
330
9
100
AcDbSymbolTableRecord
100
AcDbRegAppTableRecord
  2
ACAD_DSTYLE_DIM_EXT1_LINETYPE
 70
     0
  0
APPID
  5
42D8
330
9
100
AcDbSymbolTableRecord
100
AcDbRegAppTableRecord
  2
ACAD_DSTYLE_DIMJOGGED_JOGANGLE_SYMBOL
 70
     0
  0
APPID
  5
42D9
330
9
100
AcDbSymbolTableRecord
100
AcDbRegAppTableRecord
  2
ACAD_DSTYLE_DIMARC_LENGTH_SYMBOL
 70
     0
  0
APPID
  5
5E72
330
9
100
AcDbSymbolTableRecord
100
AcDbRegAppTableRecord
  2
AcAecLayerStandard
 70
     0
  0
APPID
  5
7C19
330
9
100
AcDbSymbolTableRecord
100
AcDbRegAppTableRecord
  2
GENIUS_GENDIM_13
 70
     0
  0
APPID
  5
7C1A
330
9
100
AcDbSymbolTableRecord
100
AcDbRegAppTableRecord
  2
GENIUS_GE3DTOL_13
 70
     0
  0
APPID
  5
7C9A
330
9
100
AcDbSymbolTableRecord
100
AcDbRegAppTableRecord
  2
ASURF_PCURVE_APPNAME
 70
     0
  0
APPID
  5
7C9F
330
9
100
AcDbSymbolTableRecord
100
AcDbRegAppTableRecord
  2
AMG_3D2D_5.0
 70
     0
  0
ENDTAB
  0
TABLE
  2
DIMSTYLE
  5
A
330
0
100
AcDbSymbolTable
 70
    18
100
AcDbDimStyleTable
 71
     3
340
81
340
8B
340
86
  0
DIMSTYLE
105
81
330
A
100
AcDbSymbolTableRecord
100
AcDbDimStyleTableRecord
  2
AM_ISO
 70
     0
  4
"
 41
3.5
 42
1.0
 43
8.0
 44
1.0
 47
0.1
 48
0.1
 73
     0
 74
     0
 77
     1
 78
     8
 79
     2
140
3.5
141
0.0
143
0.0393701
146
0.6
147
1.0
172
     1
176
   256
177
   256
178
   256
271
     2
272
     2
283
     0
284
     8
340
11
371
    -1
372
    -1
  0
DIMSTYLE
105
82
330
A
100
AcDbSymbolTableRecord
100
AcDbDimStyleTableRecord
  2
AM_ISO$3
 70
     0
  4
"
 41
3.5
 42
1.0
 43
8.0
 44
1.0
 47
0.1
 48
0.1
 73
     0
 77
     1
 78
     8
 79
     2
140
3.5
141
0.0
143
0.0393701
146
0.6
147
1.0
176
   256
177
   256
178
   256
271
     2
272
     2
283
     0
284
     8
288
     1
289
     0
340
11
371
    -1
372
    -1
  0
DIMSTYLE
105
83
330
A
100
AcDbSymbolTableRecord
100
AcDbDimStyleTableRecord
  2
AM_ISO$4
 70
     0
  4
"
 41
3.5
 42
1.0
 43
8.0
 44
1.0
 47
0.1
 48
0.1
 73
     0
 77
     1
 78
     8
 79
     2
140
3.5
141
0.0
143
0.0393701
146
0.6
147
1.0
176
   256
177
   256
178
   256
271
     2
272
     2
283
     0
284
     8
288
     1
289
     0
340
11
371
    -1
372
    -1
  0
DIMSTYLE
105
84
330
A
100
AcDbSymbolTableRecord
100
AcDbDimStyleTableRecord
  2
AM_ISO$6
 70
     0
  4
"
 41
3.5
 42
1.0
 43
8.0
 44
1.0
 47
0.1
 48
0.1
 73
     0
 74
     0
 78
     8
 79
     2
140
3.5
141
0.0
143
0.0393701
146
0.6
147
1.0
172
     1
176
   256
177
   256
178
   256
271
     2
272
     2
283
     0
284
     8
340
11
371
    -1
372
    -1
  0
DIMSTYLE
105
85
330
A
100
AcDbSymbolTableRecord
100
AcDbDimStyleTableRecord
  2
AM_ISO$7
 70
     0
  4
"
 41
3.5
 42
1.0
 43
8.0
 44
1.0
 47
0.1
 48
0.1
 73
     0
 74
     0
 77
     1
 78
     8
 79
     2
140
3.5
141
0.0
143
0.0393701
146
0.6
147
1.0
172
     1
176
   256
177
   256
178
   256
271
     2
272
     2
283
     0
284
     8
340
11
371
    -1
372
    -1
  0
DIMSTYLE
105
86
330
A
100
AcDbSymbolTableRecord
100
AcDbDimStyleTableRecord
  2
AM_ISO$SF
 70
     0
  4
"
 41
2.5
 42
1.0
 43
10.0
 44
1.0
 47
0.1
 48
0.1
 73
     0
 74
     0
 75
     1
 76
     1
 77
     1
 78
     8
 79
     2
140
3.5
141
0.0
143
0.0393701
146
0.71
147
1.5
172
     1
176
   256
177
   256
178
     2
271
     2
272
     3
274
     4
283
     0
284
     8
340
11
371
    -1
372
    -1
  0
DIMSTYLE
105
8B
330
A
100
AcDbSymbolTableRecord
100
AcDbDimStyleTableRecord
  2
AM_ISO$SH
 70
     0
  4
"
 41
2.5
 42
1.0
 43
10.0
 44
1.0
 47
0.1
 48
0.1
 73
     0
 74
     0
 75
     1
 76
     1
 77
     1
 78
     8
 79
     2
140
3.5
141
0.0
143
0.0393701
144
2.0
146
0.71
147
1.5
172
     1
173
     1
176
   256
177
   256
178
     2
271
     2
272
     3
274
     4
283
     0
284
     8
340
11
343
87
371
    -1
372
    -1
  0
DIMSTYLE
105
40B
102
{ACAD_REACTORS
330
A57E
330
A516
330
A540
330
A622
330
A724
330
A67B
330
A6A1
330
A7A5
330
A77B
330
A7CB
102
}
330
A
100
AcDbSymbolTableRecord
100
AcDbDimStyleTableRecord
  2
AM_ISO$0
 70
     0
  4
"
 41
3.5
 42
1.0
 43
8.0
 44
1.0
 47
0.1
 48
0.1
 73
     0
 74
     0
 77
     1
 78
     8
 79
     2
140
3.5
141
0.0
143
0.0393701
146
0.6
147
1.0
172
     1
176
   256
177
   256
178
   256
271
     2
272
     2
283
     0
284
     8
340
11
371
    -1
372
    -1
  0
DIMSTYLE
105
2AAB
330
A
100
AcDbSymbolTableRecord
100
AcDbDimStyleTableRecord
  2
AM_ISO$SH$3
 70
     0
  4
"
 40
1.3
 41
2.5
 42
1.0
 43
10.0
 44
1.0
 47
0.1
 48
0.1
 73
     0
 74
     0
 75
     1
 76
     1
 77
     1
 78
     8
 79
     2
140
3.5
141
0.0
143
0.0393701
144
2.0
146
0.71
147
1.5
172
     1
173
     1
176
   256
177
   256
178
     2
271
     2
272
     3
274
     4
283
     0
284
     8
340
11
343
87
371
    -1
372
    -1
  0
DIMSTYLE
105
3FD7
102
{ACAD_REACTORS
330
AB9D
330
ABB9
330
AC0E
330
ACC6
330
ACFE
330
ADBD
102
}
330
A
100
AcDbSymbolTableRecord
100
AcDbDimStyleTableRecord
  2
AM_ISO$2
 70
     0
  4
"
 41
2.5
 42
1.0
 43
10.0
 44
1.0
 47
0.1
 48
0.1
 73
     0
 74
     0
 77
     1
 78
     8
 79
     2
140
3.5
141
0.0
143
0.0393701
146
0.71
147
1.5
172
     1
176
   256
177
   256
178
     2
271
     2
272
     3
274
     4
283
     0
284
     8
340
11
371
    -1
372
    -1
  0
DIMSTYLE
105
6430
330
A
100
AcDbSymbolTableRecord
100
AcDbDimStyleTableRecord
  2
AM_ISO$SH$0
 70
     0
  4
"
 40
1.5
 41
2.5
 42
1.0
 43
10.0
 44
1.0
 47
0.1
 48
0.1
 73
     0
 74
     0
 75
     1
 76
     1
 77
     1
 78
     8
 79
     2
140
3.5
141
0.0
143
0.0393701
144
2.0
146
0.71
147
1.5
172
     1
173
     1
176
   256
177
   256
178
     2
271
     2
272
     3
274
     4
283
     0
284
     8
340
11
343
87
371
    -1
372
    -1
  0
DIMSTYLE
105
7DF9
330
A
100
AcDbSymbolTableRecord
100
AcDbDimStyleTableRecord
  2
STANDARD
 70
     0
 41
2.5
 42
0.625
 43
3.75
 44
1.25
 73
     0
 74
     0
 77
     1
 78
     8
140
2.5
141
2.5
143
0.0394
147
0.625
171
     4
172
     1
273
     8
274
     4
277
     6
340
11
  0
DIMSTYLE
105
7DFA
330
A
100
AcDbSymbolTableRecord
100
AcDbDimStyleTableRecord
  2
AM_ANSI
 70
     0
  4
mm
 41
0.1
 42
0.05
 43
0.5
 44
0.1
 47
0.1
 48
0.1
 78
     7
 79
     2
140
0.12
141
0.0
146
0.71
147
0.06
176
   256
177
   256
178
     2
274
     4
284
     7
340
11
371
    -1
372
    -1
  0
DIMSTYLE
105
7DFB
330
A
100
AcDbSymbolTableRecord
100
AcDbDimStyleTableRecord
  2
DAYUS
 70
     0
  4
"
 40
0.6666666666666666
 41
3.0
 42
2.0
 43
10.0
 44
1.0
 47
0.1
 48
0.1
 73
     0
 74
     0
 77
     1
 78
     8
 79
     2
140
3.5
141
0.0
143
0.0393701
146
0.71
147
1.5
172
     1
176
   256
177
   256
178
     3
271
     2
272
     8
283
     0
284
     8
340
7DF8
371
    -1
372
    -1
  0
DIMSTYLE
105
857F
330
A
100
AcDbSymbolTableRecord
100
AcDbDimStyleTableRecord
  2
ISO-25$0
 70
     0
 40
5.0
 41
2.5
 42
0.625
 43
3.75
 44
1.25
 73
     0
 74
     0
 77
     1
 78
     8
140
2.5
141
2.5
143
0.03937007874016
147
0.625
171
     3
172
     1
271
     2
272
     2
274
     3
278
    44
283
     0
284
     8
340
11
  0
DIMSTYLE
105
968B
330
A
100
AcDbSymbolTableRecord
100
AcDbDimStyleTableRecord
  2
ISO-25
 70
     0
 41
2.5
 42
0.625
 43
3.75
 44
1.25
 73
     0
 74
     0
 77
     1
 78
     8
140
2.5
141
2.5
143
0.03937007874016
147
0.625
171
     3
172
     1
271
     2
272
     2
274
     3
278
    44
283
     0
284
     8
340
11
  0
ENDTAB
  0
TABLE
  2
BLOCK_RECORD
  5
1
330
0
100
AcDbSymbolTable
 70
    26
  0
BLOCK_RECORD
  5
1F
102
{ACAD_XDICTIONARY
360
8F
102
}
330
1
100
AcDbSymbolTableRecord
100
AcDbBlockTableRecord
  2
*Model_Space
340
22
  0
BLOCK_RECORD
  5
1B
330
1
100
AcDbSymbolTableRecord
100
AcDbBlockTableRecord
  2
*Paper_Space
340
1E
  0
BLOCK_RECORD
  5
23
330
1
100
AcDbSymbolTableRecord
100
AcDbBlockTableRecord
  2
*Paper_Space0
340
26
  0
BLOCK_RECORD
  5
87
330
1
100
AcDbSymbolTableRecord
100
AcDbBlockTableRecord
  2
GENAXEH
340
0
  0
BLOCK_RECORD
  5
7CF2
102
{ACAD_XDICTIONARY
360
7CF3
102
}
330
1
100
AcDbSymbolTableRecord
100
AcDbBlockTableRecord
  2
S2
340
0
1001
ACAD
1000
DesignCenter Data
1002
{
1070
     1
1070
     4
1002
}
  0
BLOCK_RECORD
  5
8569
330
1
100
AcDbSymbolTableRecord
100
AcDbBlockTableRecord
  2
SW_CENTERMARKSYMBOL_0
340
0
  0
BLOCK_RECORD
  5
8574
330
1
100
AcDbSymbolTableRecord
100
AcDbBlockTableRecord
  2
SW_CENTERMARKSYMBOL_1
340
0
  0
BLOCK_RECORD
  5
A517
330
1
100
AcDbSymbolTableRecord
100
AcDbBlockTableRecord
  2
*D6
340
0
  0
BLOCK_RECORD
  5
A541
330
1
100
AcDbSymbolTableRecord
100
AcDbBlockTableRecord
  2
*D7
340
0
  0
BLOCK_RECORD
  5
A57F
330
1
100
AcDbSymbolTableRecord
100
AcDbBlockTableRecord
  2
*D8
340
0
  0
BLOCK_RECORD
  5
A623
330
1
100
AcDbSymbolTableRecord
100
AcDbBlockTableRecord
  2
*D9
340
0
  0
BLOCK_RECORD
  5
A67C
330
1
100
AcDbSymbolTableRecord
100
AcDbBlockTableRecord
  2
*D10
340
0
  0
BLOCK_RECORD
  5
A6A2
330
1
100
AcDbSymbolTableRecord
100
AcDbBlockTableRecord
  2
*D11
340
0
  0
BLOCK_RECORD
  5
A725
330
1
100
AcDbSymbolTableRecord
100
AcDbBlockTableRecord
  2
*D12
340
0
  0
BLOCK_RECORD
  5
A77C
330
1
100
AcDbSymbolTableRecord
100
AcDbBlockTableRecord
  2
*D13
340
0
  0
BLOCK_RECORD
  5
A7A6
330
1
100
AcDbSymbolTableRecord
100
AcDbBlockTableRecord
  2
*D14
340
0
  0
BLOCK_RECORD
  5
A7CC
330
1
100
AcDbSymbolTableRecord
100
AcDbBlockTableRecord
  2
*D15
340
0
  0
BLOCK_RECORD
  5
A931
330
1
100
AcDbSymbolTableRecord
100
AcDbBlockTableRecord
  2
A$C0A1C40CF
340
0
102
{BLKREFS
331
AA56
102
}
  0
BLOCK_RECORD
  5
A9DE
330
1
100
AcDbSymbolTableRecord
100
AcDbBlockTableRecord
  2
A$C08257646
340
0
102
{BLKREFS
331
AA57
102
}
  0
BLOCK_RECORD
  5
AB9E
330
1
100
AcDbSymbolTableRecord
100
AcDbBlockTableRecord
  2
*D18
340
0
  0
BLOCK_RECORD
  5
ABBA
330
1
100
AcDbSymbolTableRecord
100
AcDbBlockTableRecord
  2
*D19
340
0
  0
BLOCK_RECORD
  5
AC0F
330
1
100
AcDbSymbolTableRecord
100
AcDbBlockTableRecord
  2
*D20
340
0
  0
BLOCK_RECORD
  5
ACC7
330
1
100
AcDbSymbolTableRecord
100
AcDbBlockTableRecord
  2
*D21
340
0
  0
BLOCK_RECORD
  5
ACFF
330
1
100
AcDbSymbolTableRecord
100
AcDbBlockTableRecord
  2
*D22
340
0
  0
BLOCK_RECORD
  5
ADBE
330
1
100
AcDbSymbolTableRecord
100
AcDbBlockTableRecord
  2
*D23
340
0
  0
ENDTAB
  0
ENDSEC
  0
SECTION
  2
BLOCKS
  0
BLOCK
  5
20
330
1F
100
AcDbEntity
  8
0
100
AcDbBlockBegin
  2
*Model_Space
 70
     0
 10
0.0
 20
0.0
 30
0.0
  3
*Model_Space
  1

  0
ENDBLK
  5
21
330
1F
100
AcDbEntity
  8
0
100
AcDbBlockEnd
  0
BLOCK
  5
1C
330
1B
100
AcDbEntity
 67
     1
  8
0
100
AcDbBlockBegin
  2
*Paper_Space
 70
     0
 10
0.0
 20
0.0
 30
0.0
  3
*Paper_Space
  1

  0
ENDBLK
  5
1D
330
1B
100
AcDbEntity
 67
     1
  8
0
100
AcDbBlockEnd
  0
BLOCK
  5
24
330
23
100
AcDbEntity
  8
0
100
AcDbBlockBegin
  2
*Paper_Space0
 70
     0
 10
0.0
 20
0.0
 30
0.0
  3
*Paper_Space0
  1

  0
ENDBLK
  5
25
330
23
100
AcDbEntity
  8
0
100
AcDbBlockEnd
  0
BLOCK
  5
89
330
87
100
AcDbEntity
  8
0
100
AcDbBlockBegin
  2
GENAXEH
 70
     0
 10
0.0
 20
0.0
 30
0.0
  3
GENAXEH
  1

  0
LINE
  5
88
330
87
100
AcDbEntity
  8
0
100
AcDbLine
 10
-1.0
 20
0.0
 30
0.0
 11
1.0
 21
0.0
 31
0.0
  0
ENDBLK
  5
8A
330
87
100
AcDbEntity
  8
0
100
AcDbBlockEnd
  0
BLOCK
  5
7CF4
330
7CF2
100
AcDbEntity
  8
0
100
AcDbBlockBegin
  2
S2
 70
     0
 10
0.0
 20
0.0
 30
0.0
  3
S2
  1

  0
LINE
  5
7CF5
330
7CF2
100
AcDbEntity
  8
AM_5
100
AcDbLine
 10
0.0000000000000284
 20
4.000000000000028
 30
0.0
 11
4.0
 21
4.0
 31
0.0
  0
LINE
  5
7CF6
330
7CF2
100
AcDbEntity
  8
AM_5
100
AcDbLine
 10
0.0000000000000284
 20
0.0
 30
0.0
 11
4.0
 21
0.0
 31
0.0
  0
TEXT
  5
7CF7
330
7CF2
100
AcDbEntity
  8
AM_5
100
AcDbText
 10
1.099999999999999
 20
0.5
 30
0.0
 40
3.0
  1
2
 41
0.9
  7
DAYUS
 72
     4
 11
2.0
 21
2.0
 31
0.0
100
AcDbText
  0
LINE
  5
7CF8
330
7CF2
100
AcDbEntity
  8
AM_5
100
AcDbLine
 10
0.0
 20
4.0
 30
0.0
 11
0.0
 21
0.0
 31
0.0
  0
LINE
  5
7CF9
330
7CF2
100
AcDbEntity
  8
AM_5
100
AcDbLine
 10
4.0
 20
4.0
 30
0.0
 11
4.0
 21
0.0
 31
0.0
  0
ENDBLK
  5
7CFA
330
7CF2
100
AcDbEntity
  8
0
100
AcDbBlockEnd
  0
BLOCK
  5
856A
330
8569
100
AcDbEntity
  8
0
100
AcDbBlockBegin
  2
SW_CENTERMARKSYMBOL_0
 70
     0
 10
0.0
 20
0.0
 30
0.0
  3
SW_CENTERMARKSYMBOL_0
  1

  0
LINE
  5
856B
330
8569
100
AcDbEntity
  8
0
  6
Continuous
 62
     0
370
     0
100
AcDbLine
 10
0.0
 20
0.0
 30
0.0
 11
0.0
 21
2.500000000000002
 31
0.0
  0
LINE
  5
856C
330
8569
100
AcDbEntity
  8
0
  6
Continuous
 62
     0
370
     0
100
AcDbLine
 10
0.0
 20
0.0
 30
0.0
 11
-2.500000000000002
 21
0.0
 31
0.0
  0
LINE
  5
856D
330
8569
100
AcDbEntity
  8
0
  6
Continuous
 62
     0
370
     0
100
AcDbLine
 10
0.0
 20
0.0
 30
0.0
 11
0.0
 21
-2.500000000000002
 31
0.0
  0
LINE
  5
856E
330
8569
100
AcDbEntity
  8
0
  6
Continuous
 62
     0
370
     0
100
AcDbLine
 10
0.0
 20
0.0
 30
0.0
 11
2.500000000000002
 21
0.0
 31
0.0
  0
LINE
  5
856F
330
8569
100
AcDbEntity
  8
0
  6
Continuous
 62
     0
370
     0
100
AcDbLine
 10
0.0
 20
2.500000000000002
 30
0.0
 11
0.0
 21
4.500000000000003
 31
0.0
  0
LINE
  5
8570
330
8569
100
AcDbEntity
  8
0
  6
Continuous
 62
     0
370
     0
100
AcDbLine
 10
-2.500000000000002
 20
0.0
 30
0.0
 11
-4.500000000000003
 21
0.0
 31
0.0
  0
LINE
  5
8571
330
8569
100
AcDbEntity
  8
0
  6
Continuous
 62
     0
370
     0
100
AcDbLine
 10
0.0
 20
-2.500000000000002
 30
0.0
 11
0.0
 21
-4.500000000000003
 31
0.0
  0
LINE
  5
8572
330
8569
100
AcDbEntity
  8
0
  6
Continuous
 62
     0
370
     0
100
AcDbLine
 10
2.500000000000002
 20
0.0
 30
0.0
 11
4.500000000000003
 21
0.0
 31
0.0
  0
ENDBLK
  5
8573
330
8569
100
AcDbEntity
  8
0
100
AcDbBlockEnd
  0
BLOCK
  5
8575
330
8574
100
AcDbEntity
  8
0
100
AcDbBlockBegin
  2
SW_CENTERMARKSYMBOL_1
 70
     0
 10
0.0
 20
0.0
 30
0.0
  3
SW_CENTERMARKSYMBOL_1
  1

  0
LINE
  5
8576
330
8574
100
AcDbEntity
  8
0
  6
Continuous
 62
     0
370
     0
100
AcDbLine
 10
0.0
 20
0.0
 30
0.0
 11
0.0
 21
2.500000000000002
 31
0.0
  0
LINE
  5
8577
330
8574
100
AcDbEntity
  8
0
  6
Continuous
 62
     0
370
     0
100
AcDbLine
 10
0.0
 20
0.0
 30
0.0
 11
-2.500000000000002
 21
0.0
 31
0.0
  0
LINE
  5
8578
330
8574
100
AcDbEntity
  8
0
  6
Continuous
 62
     0
370
     0
100
AcDbLine
 10
0.0
 20
0.0
 30
0.0
 11
0.0
 21
-2.500000000000002
 31
0.0
  0
LINE
  5
8579
330
8574
100
AcDbEntity
  8
0
  6
Continuous
 62
     0
370
     0
100
AcDbLine
 10
0.0
 20
0.0
 30
0.0
 11
2.500000000000002
 21
0.0
 31
0.0
  0
LINE
  5
857A
330
8574
100
AcDbEntity
  8
0
  6
Continuous
 62
     0
370
     0
100
AcDbLine
 10
0.0
 20
5.000000000000004
 30
0.0
 11
0.0
 21
5.500000000000005
 31
0.0
  0
LINE
  5
857B
330
8574
100
AcDbEntity
  8
0
  6
Continuous
 62
     0
370
     0
100
AcDbLine
 10
-5.000000000000004
 20
0.0
 30
0.0
 11
-5.500000000000005
 21
0.0
 31
0.0
  0
LINE
  5
857C
330
8574
100
AcDbEntity
  8
0
  6
Continuous
 62
     0
370
     0
100
AcDbLine
 10
0.0
 20
-5.000000000000004
 30
0.0
 11
0.0
 21
-5.500000000000005
 31
0.0
  0
LINE
  5
857D
330
8574
100
AcDbEntity
  8
0
  6
Continuous
 62
     0
370
     0
100
AcDbLine
 10
5.000000000000004
 20
0.0
 30
0.0
 11
5.500000000000005
 21
0.0
 31
0.0
  0
ENDBLK
  5
857E
330
8574
100
AcDbEntity
  8
0
100
AcDbBlockEnd
  0
BLOCK
  5
A523
330
A517
100
AcDbEntity
  8
0
100
AcDbBlockBegin
  2
*D6
 70
     1
 10
0.0
 20
0.0
 30
0.0
  3
*D6
  1

  0
LINE
  5
AD3F
330
A517
100
AcDbEntity
  8
AM_REFDIM
100
AcDbLine
 10
687.1301634167856
 20
152.3846508392515
 30
0.0
 11
687.1301634167856
 21
162.2009141528165
 31
0.0
  0
LINE
  5
AD40
330
A517
100
AcDbEntity
  8
AM_REFDIM
100
AcDbLine
 10
695.3301636529691
 20
152.3846508392516
 30
0.0
 11
695.3301636529691
 21
162.2009141528165
 31
0.0
  0
LINE
  5
AD41
330
A517
100
AcDbEntity
  8
AM_REFDIM
100
AcDbLine
 10
683.6097415266484
 20
161.195079327063
 30
0.0
 11
680.0893196365112
 21
161.195079327063
 31
0.0
  0
LINE
  5
AD42
330
A517
100
AcDbEntity
  8
AM_REFDIM
100
AcDbLine
 10
698.8505855431063
 20
161.195079327063
 30
0.0
 11
702.3710074332435
 21
161.195079327063
 31
0.0
  0
LINE
  5
AD43
330
A517
100
AcDbEntity
  8
AM_REFDIM
100
AcDbLine
 10
687.1301634167856
 20
161.195079327063
 30
0.0
 11
695.3301636529691
 21
161.195079327063
 31
0.0
  0
SOLID
  5
AD44
330
A517
100
AcDbEntity
  8
AM_REFDIM
100
AcDbTrace
 10
683.6097415266484
 20
161.7818163087526
 30
0.0
 11
683.6097415266484
 21
160.6083423453735
 31
0.0
 12
687.1301634167856
 22
161.195079327063
 32
0.0
 13
687.1301634167856
 23
161.195079327063
 33
0.0
  0
SOLID
  5
AD45
330
A517
100
AcDbEntity
  8
AM_REFDIM
100
AcDbTrace
 10
698.8505855431063
 20
161.7818163087526
 30
0.0
 11
698.8505855431063
 21
160.6083423453735
 31
0.0
 12
695.3301636529691
 22
161.195079327063
 32
0.0
 13
695.3301636529691
 23
161.195079327063
 33
0.0
  0
MTEXT
  5
AD46
330
A517
100
AcDbEntity
  8
AM_REFDIM
100
AcDbMText
 10
691.2301635348774
 20
163.9614715961027
 30
0.0
 40
3.520421890137194
 41
0.0
 71
     5
 72
     1
  1
8.2
 73
     1
 44
1.0
1001
ACAD
1000
MTEXTBEGIN
1070
    73
1070
     1
1070
    44
1040
1.0
1070
    74
1070
     0
1000
MTEXTEND
  0
POINT
  5
AD47
330
A517
100
AcDbEntity
  8
Defpoints
 62
     0
100
AcDbPoint
 10
687.1301634167856
 20
151.378816013498
 30
0.0
  0
POINT
  5
AD48
330
A517
100
AcDbEntity
  8
Defpoints
 62
     0
100
AcDbPoint
 10
695.3301636529691
 20
151.3788160134981
 30
0.0
  0
POINT
  5
AD49
330
A517
100
AcDbEntity
  8
Defpoints
 62
     0
100
AcDbPoint
 10
695.3301636529691
 20
161.195079327063
 30
0.0
  0
ENDBLK
  5
A524
330
A517
100
AcDbEntity
  8
0
100
AcDbBlockEnd
  0
BLOCK
  5
A54B
330
A541
100
AcDbEntity
  8
0
100
AcDbBlockBegin
  2
*D7
 70
     1
 10
0.0
 20
0.0
 30
0.0
  3
*D7
  1

  0
LINE
  5
AD4A
330
A541
100
AcDbEntity
  8
AM_REFDIM
100
AcDbLine
 10
684.2301634167856
 20
152.3846508392515
 30
0.0
 11
684.2301634167856
 21
170.1716089590945
 31
0.0
  0
LINE
  5
AD4B
330
A541
100
AcDbEntity
  8
AM_REFDIM
100
AcDbLine
 10
698.2301634167856
 20
152.3846508392516
 30
0.0
 11
698.2301634167856
 21
170.1716089590945
 31
0.0
  0
LINE
  5
AD4C
330
A541
100
AcDbEntity
  8
AM_REFDIM
100
AcDbLine
 10
687.7505853069228
 20
169.1657741333411
 30
0.0
 11
694.7097415266484
 21
169.1657741333411
 31
0.0
  0
SOLID
  5
AD4D
330
A541
100
AcDbEntity
  8
AM_REFDIM
100
AcDbTrace
 10
687.7505853069228
 20
169.7525111150306
 30
0.0
 11
687.7505853069228
 21
168.5790371516515
 31
0.0
 12
684.2301634167856
 22
169.1657741333411
 32
0.0
 13
684.2301634167856
 23
169.1657741333411
 33
0.0
  0
SOLID
  5
AD4E
330
A541
100
AcDbEntity
  8
AM_REFDIM
100
AcDbTrace
 10
694.7097415266484
 20
169.7525111150306
 30
0.0
 11
694.7097415266484
 21
168.5790371516515
 31
0.0
 12
698.2301634167856
 22
169.1657741333411
 32
0.0
 13
698.2301634167856
 23
169.1657741333411
 33
0.0
  0
MTEXT
  5
AD4F
330
A541
100
AcDbEntity
  8
AM_REFDIM
100
AcDbMText
 10
691.2301634167857
 20
171.9318199041631
 30
0.0
 40
3.520421890137194
 41
0.0
 71
     5
 72
     1
  1
14
 73
     1
 44
1.0
1001
ACAD
1000
MTEXTBEGIN
1070
    73
1070
     1
1070
    44
1040
1.0
1070
    74
1070
     0
1000
MTEXTEND
  0
POINT
  5
AD50
330
A541
100
AcDbEntity
  8
Defpoints
 62
     0
100
AcDbPoint
 10
684.2301634167856
 20
151.378816013498
 30
0.0
  0
POINT
  5
AD51
330
A541
100
AcDbEntity
  8
Defpoints
 62
     0
100
AcDbPoint
 10
698.2301634167856
 20
151.3788160134981
 30
0.0
  0
POINT
  5
AD52
330
A541
100
AcDbEntity
  8
Defpoints
 62
     0
100
AcDbPoint
 10
698.2301634167856
 20
169.1657741333411
 30
0.0
  0
ENDBLK
  5
A54C
330
A541
100
AcDbEntity
  8
0
100
AcDbBlockEnd
  0
BLOCK
  5
A589
330
A57F
100
AcDbEntity
  8
0
100
AcDbBlockBegin
  2
*D8
 70
     1
 10
0.0
 20
0.0
 30
0.0
  3
*D8
  1

  0
LINE
  5
AE22
330
A57F
100
AcDbEntity
  8
AM_REFDIM
100
AcDbLine
 10
724.7071973735467
 20
124.878816013498
 30
0.0
 11
753.4986917204084
 21
124.8788160134979
 31
0.0
  0
LINE
  5
AE23
330
A57F
100
AcDbEntity
  8
AM_REFDIM
100
AcDbLine
 10
699.2359982425393
 20
98.37881601349806
 30
0.0
 11
753.4986917204084
 21
98.37881601349806
 31
0.0
  0
LINE
  5
AE24
330
A57F
100
AcDbEntity
  8
AM_REFDIM
100
AcDbLine
 10
752.4928568946549
 20
121.3583941233608
 30
0.0
 11
752.4928568946549
 21
101.8992379036352
 31
0.0
  0
SOLID
  5
AE25
330
A57F
100
AcDbEntity
  8
AM_REFDIM
100
AcDbTrace
 10
751.9061199129652
 20
121.3583941233608
 30
0.0
 11
753.0795938763445
 21
121.3583941233608
 31
0.0
 12
752.4928568946549
 22
124.8788160134979
 32
0.0
 13
752.4928568946549
 23
124.8788160134979
 33
0.0
  0
SOLID
  5
AE26
330
A57F
100
AcDbEntity
  8
AM_REFDIM
100
AcDbTrace
 10
751.9061199129652
 20
101.8992379036352
 30
0.0
 11
753.0795938763445
 21
101.8992379036352
 31
0.0
 12
752.4928568946549
 22
98.37881601349806
 32
0.0
 13
752.4928568946549
 23
98.37881601349806
 33
0.0
  0
MTEXT
  5
AE27
330
A57F
100
AcDbEntity
  8
AM_REFDIM
100
AcDbMText
 10
746.7927797171675
 20
111.628816013498
 30
0.0
 40
3.520421890137194
 41
0.0
 71
     5
 72
     1
  1
MIN:26.5\PMAX:30.5\P
 11
0.0000000000000001
 21
1.0
 31
0.0
 73
     1
 44
1.0
1001
ACAD
1000
MTEXTBEGIN
1070
    73
1070
     1
1070
    44
1040
1.0
1070
    74
1070
     0
1000
MTEXTEND
  0
POINT
  5
AE28
330
A57F
100
AcDbEntity
  8
Defpoints
 62
     0
100
AcDbPoint
 10
723.7013625477932
 20
124.878816013498
 30
0.0
  0
POINT
  5
AE29
330
A57F
100
AcDbEntity
  8
Defpoints
 62
     0
100
AcDbPoint
 10
698.2301634167858
 20
98.37881601349806
 30
0.0
  0
POINT
  5
AE2A
330
A57F
100
AcDbEntity
  8
Defpoints
 62
     0
100
AcDbPoint
 10
752.4928568946549
 20
98.37881601349806
 30
0.0
  0
ENDBLK
  5
A58A
330
A57F
100
AcDbEntity
  8
0
100
AcDbBlockEnd
  0
BLOCK
  5
A62D
330
A623
100
AcDbEntity
  8
0
100
AcDbBlockBegin
  2
*D9
 70
     1
 10
0.0
 20
0.0
 30
0.0
  3
*D9
  1

  0
LINE
  5
AAFC
330
A623
100
AcDbEntity
  8
AM_REFDIM
100
AcDbLine
 10
763.4789231111072
 20
150.0391537377062
 30
0.0
 11
763.4789231111072
 21
160.3550366326899
 31
0.0
  0
LINE
  5
AAFD
330
A623
100
AcDbEntity
  8
AM_REFDIM
100
AcDbLine
 10
802.47892391577
 20
150.8846512117806
 30
0.0
 11
802.47892391577
 21
160.3550366326899
 31
0.0
  0
LINE
  5
AAFE
330
A623
100
AcDbEntity
  8
AM_REFDIM
100
AcDbLine
 10
766.9993450012444
 20
159.3492018069364
 30
0.0
 11
798.9585020256328
 21
159.3492018069364
 31
0.0
  0
SOLID
  5
AAFF
330
A623
100
AcDbEntity
  8
AM_REFDIM
100
AcDbTrace
 10
766.9993450012444
 20
159.935938788626
 30
0.0
 11
766.9993450012444
 21
158.7624648252469
 31
0.0
 12
763.4789231111072
 22
159.3492018069364
 32
0.0
 13
763.4789231111072
 23
159.3492018069364
 33
0.0
  0
SOLID
  5
AB00
330
A623
100
AcDbEntity
  8
AM_REFDIM
100
AcDbTrace
 10
798.9585020256328
 20
159.935938788626
 30
0.0
 11
798.9585020256328
 21
158.7624648252469
 31
0.0
 12
802.47892391577
 22
159.3492018069364
 32
0.0
 13
802.47892391577
 23
159.3492018069364
 33
0.0
  0
MTEXT
  5
AB01
330
A623
100
AcDbEntity
  8
AM_REFDIM
100
AcDbMText
 10
782.9789235134386
 20
162.1152475777585
 30
0.0
 40
3.520421890137194
 41
0.0
 71
     5
 72
     1
  1
39
 73
     1
 44
1.0
1001
ACAD
1000
MTEXTBEGIN
1070
    73
1070
     1
1070
    44
1040
1.0
1070
    74
1070
     0
1000
MTEXTEND
  0
POINT
  5
AB02
330
A623
100
AcDbEntity
  8
Defpoints
 62
     0
100
AcDbPoint
 10
763.4789231111072
 20
149.0333189119527
 30
0.0
  0
POINT
  5
AB03
330
A623
100
AcDbEntity
  8
Defpoints
 62
     0
100
AcDbPoint
 10
802.47892391577
 20
149.8788163860271
 30
0.0
  0
POINT
  5
AB04
330
A623
100
AcDbEntity
  8
Defpoints
 62
     0
100
AcDbPoint
 10
802.47892391577
 20
159.3492018069364
 30
0.0
  0
ENDBLK
  5
A62E
330
A623
100
AcDbEntity
  8
0
100
AcDbBlockEnd
  0
BLOCK
  5
A686
330
A67C
100
AcDbEntity
  8
0
100
AcDbBlockBegin
  2
*D10
 70
     1
 10
0.0
 20
0.0
 30
0.0
  3
*D10
  1

  0
LINE
  5
AB05
330
A67C
100
AcDbEntity
  8
AM_REFDIM
100
AcDbLine
 10
803.4847587415235
 20
149.8788163860271
 30
0.0
 11
815.4847597415235
 21
149.8788163860271
 31
0.0
  0
LINE
  5
AB06
330
A67C
100
AcDbEntity
  8
AM_REFDIM
100
AcDbLine
 10
803.4847587415235
 20
99.87881564096907
 30
0.0
 11
815.4847597415235
 21
99.87881564096907
 31
0.0
  0
LINE
  5
AB07
330
A67C
100
AcDbEntity
  8
AM_REFDIM
100
AcDbLine
 10
814.4789249157701
 20
146.3583944958899
 30
0.0
 11
814.4789249157701
 21
103.3992375311062
 31
0.0
  0
SOLID
  5
AB08
330
A67C
100
AcDbEntity
  8
AM_REFDIM
100
AcDbTrace
 10
813.8921879340806
 20
146.3583944958899
 30
0.0
 11
815.0656618974597
 21
146.3583944958899
 31
0.0
 12
814.4789249157701
 22
149.8788163860271
 32
0.0
 13
814.4789249157701
 23
149.8788163860271
 33
0.0
  0
SOLID
  5
AB09
330
A67C
100
AcDbEntity
  8
AM_REFDIM
100
AcDbTrace
 10
813.8921879340806
 20
103.3992375311062
 30
0.0
 11
815.0656618974597
 21
103.3992375311062
 31
0.0
 12
814.4789249157701
 22
99.87881564096907
 32
0.0
 13
814.4789249157701
 23
99.87881564096907
 33
0.0
  0
MTEXT
  5
AB0A
330
A67C
100
AcDbEntity
  8
AM_REFDIM
100
AcDbMText
 10
811.7128791449481
 20
124.8788160134982
 30
0.0
 40
3.520421890137194
 41
0.0
 71
     5
 72
     1
  1
50
 11
0.0000000000000001
 21
1.0
 31
0.0
 73
     1
 44
1.0
1001
ACAD
1000
MTEXTBEGIN
1070
    73
1070
     1
1070
    44
1040
1.0
1070
    74
1070
     0
1000
MTEXTEND
  0
POINT
  5
AB0B
330
A67C
100
AcDbEntity
  8
Defpoints
 62
     0
100
AcDbPoint
 10
802.47892391577
 20
149.8788163860271
 30
0.0
  0
POINT
  5
AB0C
330
A67C
100
AcDbEntity
  8
Defpoints
 62
     0
100
AcDbPoint
 10
802.47892391577
 20
99.87881564096907
 30
0.0
  0
POINT
  5
AB0D
330
A67C
100
AcDbEntity
  8
Defpoints
 62
     0
100
AcDbPoint
 10
814.4789249157701
 20
99.87881564096907
 30
0.0
  0
ENDBLK
  5
A687
330
A67C
100
AcDbEntity
  8
0
100
AcDbBlockEnd
  0
BLOCK
  5
A6AC
330
A6A2
100
AcDbEntity
  8
0
100
AcDbBlockBegin
  2
*D11
 70
     1
 10
0.0
 20
0.0
 30
0.0
  3
*D11
  1

  0
LINE
  5
AB0E
330
A6A2
100
AcDbEntity
  8
AM_REFDIM
100
AcDbLine
 10
802.47892391577
 20
98.87298081521558
 30
0.0
 11
802.47892391577
 21
85.37298150066892
 31
0.0
  0
LINE
  5
AB0F
330
A6A2
100
AcDbEntity
  8
AM_REFDIM
100
AcDbLine
 10
774.4789230515026
 20
97.372981500669
 30
0.0
 11
774.4789230515026
 21
85.37298150066892
 31
0.0
  0
LINE
  5
AB10
330
A6A2
100
AcDbEntity
  8
AM_REFDIM
100
AcDbLine
 10
798.9585020256328
 20
86.37881632642239
 30
0.0
 11
777.9993449416398
 21
86.37881632642239
 31
0.0
  0
SOLID
  5
AB11
330
A6A2
100
AcDbEntity
  8
AM_REFDIM
100
AcDbTrace
 10
798.9585020256328
 20
86.96555330811191
 30
0.0
 11
798.9585020256328
 21
85.79207934473286
 31
0.0
 12
802.47892391577
 22
86.37881632642239
 32
0.0
 13
802.47892391577
 23
86.37881632642239
 33
0.0
  0
SOLID
  5
AB12
330
A6A2
100
AcDbEntity
  8
AM_REFDIM
100
AcDbTrace
 10
777.9993449416398
 20
86.96555330811191
 30
0.0
 11
777.9993449416398
 21
85.79207934473286
 31
0.0
 12
774.4789230515026
 22
86.37881632642239
 32
0.0
 13
774.4789230515026
 23
86.37881632642239
 33
0.0
  0
MTEXT
  5
AB13
330
A6A2
100
AcDbEntity
  8
AM_REFDIM
100
AcDbMText
 10
788.4789234836363
 20
89.145208595462
 30
0.0
 40
3.520421890137194
 41
0.0
 71
     5
 72
     1
  1
28
 73
     1
 44
1.0
1001
ACAD
1000
MTEXTBEGIN
1070
    73
1070
     1
1070
    44
1040
1.0
1070
    74
1070
     0
1000
MTEXTEND
  0
POINT
  5
AB14
330
A6A2
100
AcDbEntity
  8
Defpoints
 62
     0
100
AcDbPoint
 10
802.47892391577
 20
99.87881564096907
 30
0.0
  0
POINT
  5
AB15
330
A6A2
100
AcDbEntity
  8
Defpoints
 62
     0
100
AcDbPoint
 10
774.4789230515026
 20
98.37881632642249
 30
0.0
  0
POINT
  5
AB16
330
A6A2
100
AcDbEntity
  8
Defpoints
 62
     0
100
AcDbPoint
 10
774.4789230515026
 20
86.37881632642239
 30
0.0
  0
ENDBLK
  5
A6AD
330
A6A2
100
AcDbEntity
  8
0
100
AcDbBlockEnd
  0
BLOCK
  5
A731
330
A725
100
AcDbEntity
  8
0
100
AcDbBlockBegin
  2
*D12
 70
     1
 10
0.0
 20
0.0
 30
0.0
  3
*D12
  1

  0
LINE
  5
AB17
330
A725
100
AcDbEntity
  8
AM_REFDIM
100
AcDbLine
 10
761.4789230161123
 20
135.8846506157341
 30
0.0
 11
761.4789230161123
 21
160.3550366326895
 31
0.0
  0
LINE
  5
AB18
330
A725
100
AcDbEntity
  8
AM_REFDIM
100
AcDbLine
 10
763.4789231111072
 20
150.0391535250864
 30
0.0
 11
763.4789231111072
 21
160.3550366326895
 31
0.0
  0
LINE
  5
AB19
330
A725
100
AcDbEntity
  8
AM_REFDIM
100
AcDbLine
 10
757.9585011259752
 20
159.349201806936
 30
0.0
 11
754.438079235838
 21
159.349201806936
 31
0.0
  0
LINE
  5
AB1A
330
A725
100
AcDbEntity
  8
AM_REFDIM
100
AcDbLine
 10
766.9993450012444
 20
159.349201806936
 30
0.0
 11
770.5197668913816
 21
159.349201806936
 31
0.0
  0
LINE
  5
AB1B
330
A725
100
AcDbEntity
  8
AM_REFDIM
100
AcDbLine
 10
761.4789230161123
 20
159.349201806936
 30
0.0
 11
763.4789231111072
 21
159.349201806936
 31
0.0
  0
SOLID
  5
AB1C
330
A725
100
AcDbEntity
  8
AM_REFDIM
100
AcDbTrace
 10
757.9585011259752
 20
159.9359387886256
 30
0.0
 11
757.9585011259752
 21
158.7624648252465
 31
0.0
 12
761.4789230161123
 22
159.349201806936
 32
0.0
 13
761.4789230161123
 23
159.349201806936
 33
0.0
  0
SOLID
  5
AB1D
330
A725
100
AcDbEntity
  8
AM_REFDIM
100
AcDbTrace
 10
766.9993450012444
 20
159.9359387886256
 30
0.0
 11
766.9993450012444
 21
158.7624648252465
 31
0.0
 12
763.4789231111072
 22
159.349201806936
 32
0.0
 13
763.4789231111072
 23
159.349201806936
 33
0.0
  0
MTEXT
  5
AB1E
330
A725
100
AcDbEntity
  8
AM_REFDIM
100
AcDbMText
 10
762.4789230636098
 20
162.1155940759757
 30
0.0
 40
3.520421890137194
 41
0.0
 71
     5
 72
     1
  1
2
 73
     1
 44
1.0
1001
ACAD
1000
MTEXTBEGIN
1070
    73
1070
     1
1070
    44
1040
1.0
1070
    74
1070
     0
1000
MTEXTEND
  0
POINT
  5
AB1F
330
A725
100
AcDbEntity
  8
Defpoints
 62
     0
100
AcDbPoint
 10
761.4789230161123
 20
134.8788157899807
 30
0.0
  0
POINT
  5
AB20
330
A725
100
AcDbEntity
  8
Defpoints
 62
     0
100
AcDbPoint
 10
763.4789231111072
 20
149.0333186993329
 30
0.0
  0
POINT
  5
AB21
330
A725
100
AcDbEntity
  8
Defpoints
 62
     0
100
AcDbPoint
 10
763.4789231111072
 20
159.349201806936
 30
0.0
  0
ENDBLK
  5
A732
330
A725
100
AcDbEntity
  8
0
100
AcDbBlockEnd
  0
BLOCK
  5
A788
330
A77C
100
AcDbEntity
  8
0
100
AcDbBlockBegin
  2
*D13
 70
     1
 10
0.0
 20
0.0
 30
0.0
  3
*D13
  1

  0
LINE
  5
AE4A
330
A77C
100
AcDbEntity
  8
AM_REFDIM
100
AcDbLine
 10
692.235998458606
 20
113.3788157005737
 30
0.0
 11
729.9511949388412
 21
113.3788157005737
 31
0.0
  0
LINE
  5
AE4B
330
A77C
100
AcDbEntity
  8
AM_REFDIM
100
AcDbLine
 10
692.235998458606
 20
107.3788157005737
 30
0.0
 11
729.9511949388412
 21
107.3788157005737
 31
0.0
  0
LINE
  5
AE4C
330
A77C
100
AcDbEntity
  8
AM_REFDIM
100
AcDbLine
 10
728.9453601130877
 20
116.8992375907109
 30
0.0
 11
728.9453601130877
 21
120.419659480848
 31
0.0
  0
LINE
  5
AE4D
330
A77C
100
AcDbEntity
  8
AM_REFDIM
100
AcDbLine
 10
728.9453601130877
 20
103.8583938104365
 30
0.0
 11
728.9453601130877
 21
100.3379719202993
 31
0.0
  0
LINE
  5
AE4E
330
A77C
100
AcDbEntity
  8
AM_REFDIM
100
AcDbLine
 10
728.9453601130877
 20
113.3788157005737
 30
0.0
 11
728.9453601130877
 21
107.3788157005737
 31
0.0
  0
SOLID
  5
AE4F
330
A77C
100
AcDbEntity
  8
AM_REFDIM
100
AcDbTrace
 10
728.3586231313981
 20
116.8992375907109
 30
0.0
 11
729.5320970947773
 21
116.8992375907109
 31
0.0
 12
728.9453601130877
 22
113.3788157005737
 32
0.0
 13
728.9453601130877
 23
113.3788157005737
 33
0.0
  0
SOLID
  5
AE50
330
A77C
100
AcDbEntity
  8
AM_REFDIM
100
AcDbTrace
 10
728.3586231313981
 20
103.8583938104365
 30
0.0
 11
729.5320970947773
 21
103.8583938104365
 31
0.0
 12
728.9453601130877
 22
107.3788157005737
 32
0.0
 13
728.9453601130877
 23
107.3788157005737
 33
0.0
  0
MTEXT
  5
AE51
330
A77C
100
AcDbEntity
  8
AM_REFDIM
100
AcDbMText
 10
726.1793143422656
 20
110.3788157005738
 30
0.0
 40
3.520421890137194
 41
0.0
 71
     5
 72
     1
  1
6
 11
0.0000000000000001
 21
1.0
 31
0.0
 73
     1
 44
1.0
1001
ACAD
1000
MTEXTBEGIN
1070
    73
1070
     1
1070
    44
1040
1.0
1070
    74
1070
     0
1000
MTEXTEND
  0
POINT
  5
AE52
330
A77C
100
AcDbEntity
  8
Defpoints
 62
     0
100
AcDbPoint
 10
691.2301636328526
 20
113.3788157005737
 30
0.0
  0
POINT
  5
AE53
330
A77C
100
AcDbEntity
  8
Defpoints
 62
     0
100
AcDbPoint
 10
691.2301636328526
 20
107.3788157005737
 30
0.0
  0
POINT
  5
AE54
330
A77C
100
AcDbEntity
  8
Defpoints
 62
     0
100
AcDbPoint
 10
728.9453601130877
 20
107.3788157005737
 30
0.0
  0
ENDBLK
  5
A789
330
A77C
100
AcDbEntity
  8
0
100
AcDbBlockEnd
  0
BLOCK
  5
A7B0
330
A7A6
100
AcDbEntity
  8
0
100
AcDbBlockBegin
  2
*D14
 70
     1
 10
0.0
 20
0.0
 30
0.0
  3
*D14
  1

  0
LINE
  5
AE2B
330
A7A6
100
AcDbEntity
  8
AM_REFDIM
100
AcDbLine
 10
692.235998458606
 20
113.3788157005737
 30
0.0
 11
737.1088166843751
 21
113.3788157005736
 31
0.0
  0
LINE
  5
AE2C
330
A7A6
100
AcDbEntity
  8
AM_REFDIM
100
AcDbLine
 10
692.235998458606
 20
101.3788157005736
 30
0.0
 11
737.1088166843751
 21
101.3788157005736
 31
0.0
  0
LINE
  5
AE2D
330
A7A6
100
AcDbEntity
  8
AM_REFDIM
100
AcDbLine
 10
736.1029818586216
 20
109.8583938104364
 30
0.0
 11
736.1029818586216
 21
104.8992375907108
 31
0.0
  0
SOLID
  5
AE2E
330
A7A6
100
AcDbEntity
  8
AM_REFDIM
100
AcDbTrace
 10
735.5162448769321
 20
109.8583938104365
 30
0.0
 11
736.6897188403112
 21
109.8583938104364
 31
0.0
 12
736.1029818586216
 22
113.3788157005736
 32
0.0
 13
736.1029818586216
 23
113.3788157005736
 33
0.0
  0
SOLID
  5
AE2F
330
A7A6
100
AcDbEntity
  8
AM_REFDIM
100
AcDbTrace
 10
735.5162448769321
 20
104.8992375907109
 30
0.0
 11
736.6897188403112
 21
104.8992375907108
 31
0.0
 12
736.1029818586216
 22
101.3788157005736
 32
0.0
 13
736.1029818586216
 23
101.3788157005736
 33
0.0
  0
MTEXT
  5
AE30
330
A7A6
100
AcDbEntity
  8
AM_REFDIM
100
AcDbMText
 10
733.336589589582
 20
107.3788157005736
 30
0.0
 40
3.520421890137194
 41
0.0
 71
     5
 72
     1
  1
12
 11
0.0000000000000001
 21
1.0
 31
0.0
 73
     1
 44
1.0
1001
ACAD
1000
MTEXTBEGIN
1070
    73
1070
     1
1070
    44
1040
1.0
1070
    74
1070
     0
1000
MTEXTEND
  0
POINT
  5
AE31
330
A7A6
100
AcDbEntity
  8
Defpoints
 62
     0
100
AcDbPoint
 10
691.2301636328526
 20
113.3788157005737
 30
0.0
  0
POINT
  5
AE32
330
A7A6
100
AcDbEntity
  8
Defpoints
 62
     0
100
AcDbPoint
 10
691.2301636328526
 20
101.3788157005736
 30
0.0
  0
POINT
  5
AE33
330
A7A6
100
AcDbEntity
  8
Defpoints
 62
     0
100
AcDbPoint
 10
736.1029818586216
 20
101.3788157005736
 30
0.0
  0
ENDBLK
  5
A7B1
330
A7A6
100
AcDbEntity
  8
0
100
AcDbBlockEnd
  0
BLOCK
  5
A7D8
330
A7CC
100
AcDbEntity
  8
0
100
AcDbBlockBegin
  2
*D15
 70
     1
 10
0.0
 20
0.0
 30
0.0
  3
*D15
  1

  0
LINE
  5
AE3F
330
A7CC
100
AcDbEntity
  8
AM_REFDIM
100
AcDbLine
 10
692.235998458606
 20
101.3788157005736
 30
0.0
 11
727.3731798072272
 21
101.3788157005736
 31
0.0
  0
LINE
  5
AE40
330
A7CC
100
AcDbEntity
  8
AM_REFDIM
100
AcDbLine
 10
699.2359986746729
 20
98.37881601349806
 30
0.0
 11
727.3731798072272
 21
98.37881601349806
 31
0.0
  0
LINE
  5
AE41
330
A7CC
100
AcDbEntity
  8
AM_REFDIM
100
AcDbLine
 10
726.3673449814738
 20
104.8992375907109
 30
0.0
 11
726.3673449814738
 21
108.419659480848
 31
0.0
  0
LINE
  5
AE42
330
A7CC
100
AcDbEntity
  8
AM_REFDIM
100
AcDbLine
 10
726.3673449814738
 20
94.85839412336087
 30
0.0
 11
726.3673449814738
 21
91.33797223322368
 31
0.0
  0
LINE
  5
AE43
330
A7CC
100
AcDbEntity
  8
AM_REFDIM
100
AcDbLine
 10
726.3673449814738
 20
101.3788157005736
 30
0.0
 11
726.3673449814738
 21
98.37881601349806
 31
0.0
  0
SOLID
  5
AE44
330
A7CC
100
AcDbEntity
  8
AM_REFDIM
100
AcDbTrace
 10
725.7806079997842
 20
104.8992375907109
 30
0.0
 11
726.9540819631633
 21
104.8992375907109
 31
0.0
 12
726.3673449814738
 22
101.3788157005736
 32
0.0
 13
726.3673449814738
 23
101.3788157005736
 33
0.0
  0
SOLID
  5
AE45
330
A7CC
100
AcDbEntity
  8
AM_REFDIM
100
AcDbTrace
 10
725.7806079997842
 20
94.85839412336087
 30
0.0
 11
726.9540819631633
 21
94.85839412336087
 31
0.0
 12
726.3673449814738
 22
98.37881601349806
 32
0.0
 13
726.3673449814738
 23
98.37881601349806
 33
0.0
  0
MTEXT
  5
AE46
330
A7CC
100
AcDbEntity
  8
AM_REFDIM
100
AcDbMText
 10
723.6012992106517
 20
99.87881585703599
 30
0.0
 40
3.520421890137194
 41
0.0
 71
     5
 72
     1
  1
3
 11
0.0000000000000001
 21
1.0
 31
0.0
 73
     1
 44
1.0
1001
ACAD
1000
MTEXTBEGIN
1070
    73
1070
     1
1070
    44
1040
1.0
1070
    74
1070
     0
1000
MTEXTEND
  0
POINT
  5
AE47
330
A7CC
100
AcDbEntity
  8
Defpoints
 62
     0
100
AcDbPoint
 10
691.2301636328526
 20
101.3788157005736
 30
0.0
  0
POINT
  5
AE48
330
A7CC
100
AcDbEntity
  8
Defpoints
 62
     0
100
AcDbPoint
 10
698.2301638489194
 20
98.37881601349806
 30
0.0
  0
POINT
  5
AE49
330
A7CC
100
AcDbEntity
  8
Defpoints
 62
     0
100
AcDbPoint
 10
726.3673449814738
 20
98.37881601349806
 30
0.0
  0
ENDBLK
  5
A7D9
330
A7CC
100
AcDbEntity
  8
0
100
AcDbBlockEnd
  0
BLOCK
  5
A932
330
A931
100
AcDbEntity
  8
0
100
AcDbBlockBegin
  2
A$C0A1C40CF
 70
     0
 10
0.0
 20
0.0
 30
0.0
  3
A$C0A1C40CF
  1

  0
ARC
  5
A933
330
A931
100
AcDbEntity
  8
0
  6
Continuous
 62
     7
370
    15
100
AcDbCircle
 10
26.49999957675938
 20
26.49999993151762
 30
0.0
 40
24.50000000000001
100
AcDbArc
 50
9.633600144859316
 51
51.78678929826144
  0
ARC
  5
A934
330
A931
100
AcDbEntity
  8
0
  6
Continuous
 62
     7
370
    15
100
AcDbCircle
 10
26.49999957675938
 20
26.49999993151762
 30
0.0
 40
25.00000000000002
100
AcDbArc
 50
9.439147370636138
 51
51.95215375268834
  0
CIRCLE
  5
A935
330
A931
100
AcDbEntity
  8
0
  6
Continuous
 62
     7
370
    15
100
AcDbCircle
 10
26.49999957675929
 20
37.99999993151764
 30
0.0
 40
1.250000000000014
  0
CIRCLE
  5
A936
330
A931
100
AcDbEntity
  8
0
  6
Continuous
 62
     7
370
    15
100
AcDbCircle
 10
7.447440693501732
 20
37.49999993151762
 30
0.0
 40
1.700000000000002
  0
ARC
  5
A937
330
A931
100
AcDbEntity
  8
0
  6
Continuous
 62
     7
370
    15
100
AcDbCircle
 10
26.49999957675938
 20
26.49999993151762
 30
0.0
 40
25.0
100
AcDbArc
 50
141.9521537526887
 51
158.0478462473115
  0
ARC
  5
A938
330
A931
100
AcDbEntity
  8
0
  6
Continuous
 62
     7
370
    15
100
AcDbCircle
 10
7.447440693501761
 20
37.49999993151771
 30
0.0
 40
3.500000000000067
100
AcDbArc
 50
240.0000000000009
 51
60.0
  0
LINE
  5
A939
330
A931
100
AcDbEntity
  8
0
  6
Continuous
 62
     7
370
    15
100
AcDbLine
 10
22.39999957675935
 20
34.49999993151761
 30
0.0
 11
22.3999995767593
 21
50.65450261735239
 31
0.0
  0
LINE
  5
A93A
330
A931
100
AcDbEntity
  8
0
  6
Continuous
 62
     7
370
    15
100
AcDbLine
 10
30.59999957675922
 20
50.65450261735245
 30
0.0
 11
30.59999957675922
 21
34.49999993151762
 31
0.0
  0
ARC
  5
A93B
330
A931
100
AcDbEntity
  8
0
  6
Continuous
 62
     7
370
    15
100
AcDbCircle
 10
21.49999957675938
 20
31.49999993151761
 30
0.0
 40
5.0
100
AcDbArc
 50
90.0
 51
180.0
  0
ARC
  5
A93C
330
A931
100
AcDbEntity
  8
0
  6
Continuous
 62
     7
370
    15
100
AcDbCircle
 10
26.49999957675938
 20
26.49999993151762
 30
0.0
 40
24.50000000000002
100
AcDbArc
 50
248.213210701739
 51
260.3663998551413
  0
ARC
  5
A93D
330
A931
100
AcDbEntity
  8
0
  6
Continuous
 62
     7
370
    15
100
AcDbCircle
 10
26.49999957675938
 20
26.49999993151762
 30
0.0
 40
25.00000000000001
100
AcDbArc
 50
248.0478462473119
 51
260.5608526293646
  0
LINE
  5
A93E
330
A931
100
AcDbEntity
  8
0
  6
Continuous
 62
     7
370
    15
100
AcDbLine
 10
22.39999957675937
 20
-0.0000000684823789
 30
0.0
 11
19.99999957675939
 21
-0.0000000684823789
 31
0.0
  0
ARC
  5
A93F
330
A931
100
AcDbEntity
  8
0
  6
Continuous
 62
     7
370
    15
100
AcDbCircle
 10
21.49999957675939
 20
21.49999993151761
 30
0.0
 40
5.0
100
AcDbArc
 50
180.0
 51
270.0000000000008
  0
LINE
  5
A940
330
A931
100
AcDbEntity
  8
0
  6
Continuous
 62
     7
370
    15
100
AcDbLine
 10
18.53108849000489
 20
5.697441048259946
 30
0.0
 11
17.40673283702276
 21
3.749999931517606
 31
0.0
  0
ARC
  5
A941
330
A931
100
AcDbEntity
  8
0
  6
Continuous
 62
     7
370
    15
100
AcDbCircle
 10
26.49999957675938
 20
26.49999993151762
 30
0.0
 40
25.00000000000001
100
AcDbArc
 50
231.9521537526893
 51
248.0478462473119
  0
LINE
  5
A942
330
A931
100
AcDbEntity
  8
0
  6
Continuous
 62
     7
370
    15
100
AcDbLine
 10
19.99999957675939
 20
-0.0000000684823789
 30
0.0
 11
19.99999957675939
 21
2.359784522370986
 31
0.0
  0
LINE
  5
A943
330
A931
100
AcDbEntity
  8
0
  6
Continuous
 62
     7
370
    15
100
AcDbLine
 10
19.49999957675938
 20
2.499999931517621
 30
0.0
 11
19.49999957675938
 21
-0.0000000684823789
 31
0.0
  0
LINE
  5
A944
330
A931
100
AcDbEntity
  8
0
  6
Continuous
 62
     7
370
    15
100
AcDbLine
 10
19.99999957675939
 20
-0.0000000684823789
 30
0.0
 11
19.49999957675938
 21
-0.0000000684823789
 31
0.0
  0
LINE
  5
A945
330
A931
100
AcDbEntity
  8
0
  6
Continuous
 62
     7
370
    15
100
AcDbLine
 10
17.40673283702276
 20
3.749999931517621
 30
0.0
 11
17.15419469551832
 21
3.31259103958294
 31
0.0
  0
LINE
  5
A946
330
A931
100
AcDbEntity
  8
0
  6
Continuous
 62
     7
370
    15
100
AcDbLine
 10
-0.000000423240536
 20
19.99999993151753
 30
0.0
 11
-0.0000004232405644
 21
22.39999993151743
 31
0.0
  0
ARC
  5
A947
330
A931
100
AcDbEntity
  8
0
  6
Continuous
 62
     7
370
    15
100
AcDbCircle
 10
26.49999957675938
 20
26.49999993151762
 30
0.0
 40
24.5
100
AcDbArc
 50
189.6336001448604
 51
216.4898998995161
  0
ARC
  5
A948
330
A931
100
AcDbEntity
  8
0
  6
Continuous
 62
     7
370
    15
100
AcDbCircle
 10
26.49999957675938
 20
26.49999993151762
 30
0.0
 40
25.0
100
AcDbArc
 50
189.4391473706372
 51
216.5601872324863
  0
LINE
  5
A949
330
A931
100
AcDbEntity
  8
0
  6
Continuous
 62
     7
370
    15
100
AcDbLine
 10
9.918250746445508
 20
9.779634931662357
 30
0.0
 11
9.500438800149268
 21
10.27756381968969
 31
0.0
  0
LINE
  5
A94A
330
A931
100
AcDbEntity
  8
0
  6
Continuous
 62
     7
370
    15
100
AcDbLine
 10
7.154264024793363
 20
13.07362603707395
 30
0.0
 11
10.37165068589306
 21
15.77333399775745
 31
0.0
  0
ARC
  5
A94B
330
A931
100
AcDbEntity
  8
0
  6
Continuous
 62
     7
370
    15
100
AcDbCircle
 10
26.49999957675938
 20
26.49999993151762
 30
0.0
 40
24.50000000000001
100
AcDbArc
 50
223.5101001004863
 51
231.7867892982625
  0
ARC
  5
A94C
330
A931
100
AcDbEntity
  8
0
  6
Continuous
 62
     7
370
    15
100
AcDbCircle
 10
26.49999957675938
 20
26.49999993151762
 30
0.0
 40
25.0
100
AcDbArc
 50
223.439812767516
 51
231.9521537526893
  0
LINE
  5
A94D
330
A931
100
AcDbEntity
  8
0
  6
Continuous
 62
     7
370
    15
100
AcDbLine
 10
7.572075971089617
 20
12.57569714904663
 30
0.0
 11
7.154264024793363
 21
13.07362603707395
 31
0.0
  0
LINE
  5
A94E
330
A931
100
AcDbEntity
  8
0
  6
Continuous
 62
     7
370
    15
100
AcDbLine
 10
6.419210164966116
 20
11.60832787633149
 30
0.0
 11
6.802937841189546
 21
11.93031362792307
 31
0.0
  0
LINE
  5
A94F
330
A931
100
AcDbEntity
  8
0
  6
Continuous
 62
     7
370
    15
100
AcDbLine
 10
9.500438800149268
 20
10.27756381968969
 30
0.0
 11
8.731300670249169
 21
9.63218029856614
 31
0.0
  0
LINE
  5
A950
330
A931
100
AcDbEntity
  8
0
  6
Continuous
 62
     7
370
    15
100
AcDbLine
 10
6.802937841189546
 20
11.93031362792307
 30
0.0
 11
7.572075971089617
 21
12.57569714904663
 31
0.0
  0
LINE
  5
A951
330
A931
100
AcDbEntity
  8
0
  6
Continuous
 62
     7
370
    15
100
AcDbLine
 10
8.731300670249169
 20
9.63218029856614
 30
0.0
 11
8.347572994025753
 21
9.310194546974557
 31
0.0
  0
LINE
  5
A952
330
A931
100
AcDbEntity
  8
0
  6
Continuous
 62
     7
370
    15
100
AcDbLine
 10
2.359784167612787
 20
19.99999993151753
 30
0.0
 11
-0.0000004232405502
 21
19.99999993151753
 31
0.0
  0
LINE
  5
A953
330
A931
100
AcDbEntity
  8
0
  6
Continuous
 62
     7
370
    15
100
AcDbLine
 10
-0.000000423240536
 20
19.49999993151752
 30
0.0
 11
2.499999576759435
 21
19.49999993151752
 31
0.0
  0
LINE
  5
A954
330
A931
100
AcDbEntity
  8
0
  6
Continuous
 62
     7
370
    15
100
AcDbLine
 10
-0.0000004232405502
 20
19.49999993151738
 30
0.0
 11
-0.0000004232405502
 21
19.99999993151753
 31
0.0
  0
LINE
  5
A955
330
A931
100
AcDbEntity
  8
0
  6
Continuous
 62
     7
370
    15
100
AcDbLine
 10
10.37165068589306
 20
15.77333399775745
 30
0.0
 11
13.1356374075452
 21
12.47934289234585
 31
0.0
  0
CIRCLE
  5
A956
330
A931
100
AcDbEntity
  8
0
  6
Continuous
 62
     7
370
    15
100
AcDbCircle
 10
15.49999957675936
 20
7.447441048259946
 30
0.0
 40
1.700000000000002
  0
ARC
  5
A957
330
A931
100
AcDbEntity
  8
0
  6
Continuous
 62
     7
370
    15
100
AcDbCircle
 10
15.49999957675936
 20
7.447441048259946
 30
0.0
 40
3.500000000000011
100
AcDbArc
 50
330.000000000001
 51
149.9999999999997
  0
LINE
  5
A958
330
A931
100
AcDbEntity
  8
0
  6
Continuous
 62
     7
370
    15
100
AcDbLine
 10
11.34455501053169
 20
7.249999931517621
 30
0.0
 11
12.46891066351382
 21
9.19744104825996
 31
0.0
  0
LINE
  5
A959
330
A931
100
AcDbEntity
  8
0
  6
Continuous
 62
     7
370
    15
100
AcDbLine
 10
11.09201686902727
 20
6.812591039582954
 30
0.0
 11
11.34455501053169
 21
7.249999931517635
 31
0.0
  0
LINE
  5
A95A
330
A931
100
AcDbEntity
  8
0
  6
Continuous
 62
     7
370
    15
100
AcDbLine
 10
13.1356374075452
 20
12.47934289234585
 30
0.0
 11
9.918250746445508
 21
9.779634931662357
 31
0.0
  0
CIRCLE
  5
A95B
330
A931
100
AcDbEntity
  8
0
  6
Continuous
 62
     7
370
    15
100
AcDbCircle
 10
8.999999576759378
 20
26.49999993151744
 30
0.0
 40
2.0
  0
LINE
  5
A95C
330
A931
100
AcDbEntity
  8
0
  6
Continuous
 62
     7
370
    15
100
AcDbLine
 10
2.34549689092455
 20
30.59999993151736
 30
0.0
 11
18.49999957675939
 21
30.59999993151736
 31
0.0
  0
LINE
  5
A95D
330
A931
100
AcDbEntity
  8
0
  6
Continuous
 62
     7
370
    15
100
AcDbLine
 10
2.345496890924607
 20
22.39999993151753
 30
0.0
 11
18.49999957675939
 21
22.39999993151759
 31
0.0
  0
LINE
  5
A95E
330
A931
100
AcDbEntity
  8
0
  6
Continuous
 62
     7
370
    15
100
AcDbLine
 10
6.499999576759336
 20
30.59999993151736
 30
0.0
 11
6.499999576759336
 21
22.39999993151756
 31
0.0
  0
LINE
  5
A95F
330
A931
100
AcDbEntity
  8
0
  6
Continuous
 62
     7
370
    15
100
AcDbLine
 10
-0.0000004232405644
 20
22.39999993151734
 30
0.0
 11
-0.0000004232406496
 21
30.59999993151734
 31
0.0
  0
CIRCLE
  5
A960
330
A931
100
AcDbEntity
  8
0
  6
Continuous
 62
     7
370
    15
100
AcDbCircle
 10
2.999999576759378
 20
26.49999993151737
 30
0.0
 40
1.25
  0
LINE
  5
A961
330
A931
100
AcDbEntity
  8
0
  6
Continuous
 62
     7
370
    15
100
AcDbLine
 10
1.939869283945384
 20
22.39999993151754
 30
0.0
 11
-0.0000004232405644
 21
22.39999993151753
 31
0.0
  0
LINE
  5
A962
330
A931
100
AcDbEntity
  8
0
  6
Continuous
 62
     7
370
    15
100
AcDbLine
 10
2.345496890924607
 20
22.39999993151753
 30
0.0
 11
1.939869283945384
 21
22.39999993151754
 31
0.0
  0
LINE
  5
A963
330
A931
100
AcDbEntity
  8
0
  6
Continuous
 62
     7
370
    15
100
AcDbLine
 10
5.697440693501732
 20
34.46891101827211
 30
0.0
 11
3.749999576759392
 21
35.59326667125424
 31
0.0
  0
ARC
  5
A964
330
A931
100
AcDbEntity
  8
0
  6
Continuous
 62
     7
370
    15
100
AcDbCircle
 10
26.49999957675938
 20
26.49999993151762
 30
0.0
 40
24.5
100
AcDbArc
 50
158.2132107017382
 51
170.3663998551414
  0
ARC
  5
A965
330
A931
100
AcDbEntity
  8
0
  6
Continuous
 62
     7
370
    15
100
AcDbCircle
 10
26.49999957675938
 20
26.49999993151762
 30
0.0
 40
24.99999999999999
100
AcDbArc
 50
158.0478462473115
 51
170.5608526293646
  0
LINE
  5
A966
330
A931
100
AcDbEntity
  8
0
  6
Continuous
 62
     7
370
    15
100
AcDbLine
 10
1.939869283945327
 20
30.59999993151736
 30
0.0
 11
-0.0000004232406496
 21
30.59999993151734
 31
0.0
  0
LINE
  5
A967
330
A931
100
AcDbEntity
  8
0
  6
Continuous
 62
     7
370
    15
100
AcDbLine
 10
2.359784167612687
 20
32.99999993151736
 30
0.0
 11
-0.0000004232406781
 21
32.99999993151736
 31
0.0
  0
LINE
  5
A968
330
A931
100
AcDbEntity
  8
0
  6
Continuous
 62
     7
370
    15
100
AcDbLine
 10
2.499999576759307
 20
33.49999993151738
 30
0.0
 11
-0.0000004232406923
 21
33.49999993151735
 31
0.0
  0
LINE
  5
A969
330
A931
100
AcDbEntity
  8
0
  6
Continuous
 62
     7
370
    15
100
AcDbLine
 10
-0.0000004232406781
 20
32.99999993151736
 30
0.0
 11
-0.0000004232406781
 21
30.59999993151734
 31
0.0
  0
LINE
  5
A96A
330
A931
100
AcDbEntity
  8
0
  6
Continuous
 62
     7
370
    15
100
AcDbLine
 10
-0.0000004232406781
 20
32.99999993151735
 30
0.0
 11
-0.0000004232406781
 21
33.49999993151735
 31
0.0
  0
LINE
  5
A96B
330
A931
100
AcDbEntity
  8
0
  6
Continuous
 62
     7
370
    15
100
AcDbLine
 10
2.34549689092455
 20
30.59999993151736
 30
0.0
 11
1.939869283945327
 21
30.59999993151736
 31
0.0
  0
LINE
  5
A96C
330
A931
100
AcDbEntity
  8
0
  6
Continuous
 62
     7
370
    15
100
AcDbLine
 10
3.749999576759392
 20
35.59326667125424
 30
0.0
 11
3.312590684824712
 21
35.84580481275866
 31
0.0
  0
LINE
  5
A96D
330
A931
100
AcDbEntity
  8
0
  6
Continuous
 62
     7
370
    15
100
AcDbLine
 10
18.49999957675939
 20
30.99999993151761
 30
0.0
 11
18.49999957675939
 21
21.99999993151762
 31
0.0
  0
LINE
  5
A96E
330
A931
100
AcDbEntity
  8
0
  6
Continuous
 62
     7
370
    15
100
AcDbLine
 10
11.49999957675942
 20
22.39999993151759
 30
0.0
 11
11.49999957675942
 21
30.59999993151747
 31
0.0
  0
CIRCLE
  5
A96F
330
A931
100
AcDbEntity
  8
0
  6
Continuous
 62
     7
370
    15
100
AcDbCircle
 10
14.99999957675939
 20
26.49999993151749
 30
0.0
 40
1.25
  0
LINE
  5
A970
330
A931
100
AcDbEntity
  8
0
  6
Continuous
 62
     7
370
    15
100
AcDbLine
 10
18.49999957675939
 20
21.99999993151762
 30
0.0
 11
16.49999957675939
 21
21.99999993151762
 31
0.0
  0
LINE
  5
A971
330
A931
100
AcDbEntity
  8
0
  6
Continuous
 62
     7
370
    15
100
AcDbLine
 10
16.49999957675939
 20
21.49999993151761
 30
0.0
 11
16.49999957675939
 21
21.99999993151762
 31
0.0
  0
LINE
  5
A972
330
A931
100
AcDbEntity
  8
0
  6
Continuous
 62
     7
370
    15
100
AcDbLine
 10
18.49999957675939
 20
30.99999993151761
 30
0.0
 11
16.49999957675939
 21
30.99999993151761
 31
0.0
  0
LINE
  5
A973
330
A931
100
AcDbEntity
  8
0
  6
Continuous
 62
     7
370
    15
100
AcDbLine
 10
16.49999957675939
 20
31.49999993151761
 30
0.0
 11
16.49999957675939
 21
30.99999993151761
 31
0.0
  0
LINE
  5
A974
330
A931
100
AcDbEntity
  8
0
  6
Continuous
 62
     7
370
    15
100
AcDbLine
 10
37.42798073172025
 20
4.572181346970268
 30
0.0
 11
36.92596147108276
 21
5.441704212772535
 31
0.0
  0
LINE
  5
A975
330
A931
100
AcDbEntity
  8
0
  6
Continuous
 62
     7
370
    15
100
AcDbLine
 10
30.59999957675939
 20
18.49999993151761
 30
0.0
 11
30.59999957675939
 21
2.345497245682821
 31
0.0
  0
LINE
  5
A976
330
A931
100
AcDbEntity
  8
0
  6
Continuous
 62
     7
370
    15
100
AcDbLine
 10
22.39999957675939
 20
2.345497245682821
 30
0.0
 11
22.39999957675939
 21
18.49999993151761
 31
0.0
  0
LINE
  5
A977
330
A931
100
AcDbEntity
  8
0
  6
Continuous
 62
     7
370
    15
100
AcDbLine
 10
30.59999957675938
 20
-0.0000000684823789
 30
0.0
 11
32.99999957675938
 21
-0.0000000684823789
 31
0.0
  0
ARC
  5
A978
330
A931
100
AcDbEntity
  8
0
  6
Continuous
 62
     7
370
    15
100
AcDbCircle
 10
26.49999957675938
 20
26.49999993151762
 30
0.0
 40
24.50000000000001
100
AcDbArc
 50
279.6336001448604
 51
296.4898998995151
  0
ARC
  5
A979
330
A931
100
AcDbEntity
  8
0
  6
Continuous
 62
     7
370
    15
100
AcDbCircle
 10
26.49999957675938
 20
26.49999993151762
 30
0.0
 40
25.00000000000002
100
AcDbArc
 50
279.4391473706371
 51
296.5601872324854
  0
CIRCLE
  5
A97A
330
A931
100
AcDbEntity
  8
0
  6
Continuous
 62
     7
370
    15
100
AcDbCircle
 10
26.49999957675938
 20
2.999999931517621
 30
0.0
 40
1.25
  0
LINE
  5
A97B
330
A931
100
AcDbEntity
  8
0
  6
Continuous
 62
     7
370
    15
100
AcDbLine
 10
30.59999957675938
 20
-0.0000000684823789
 30
0.0
 11
22.39999957675937
 21
-0.0000000684823789
 31
0.0
  0
LINE
  5
A97C
330
A931
100
AcDbEntity
  8
0
  6
Continuous
 62
     7
370
    15
100
AcDbLine
 10
22.39999957675939
 20
1.939869638703612
 30
0.0
 11
22.39999957675937
 21
-0.0000000684823789
 31
0.0
  0
LINE
  5
A97D
330
A931
100
AcDbEntity
  8
0
  6
Continuous
 62
     7
370
    15
100
AcDbLine
 10
22.39999957675939
 20
1.939869638703612
 30
0.0
 11
22.39999957675939
 21
2.345497245682821
 31
0.0
  0
LINE
  5
A97E
330
A931
100
AcDbEntity
  8
0
  6
Continuous
 62
     7
370
    15
100
AcDbLine
 10
30.59999957675938
 20
-0.0000000684823789
 30
0.0
 11
30.59999957675939
 21
1.939869638703612
 31
0.0
  0
LINE
  5
A97F
330
A931
100
AcDbEntity
  8
0
  6
Continuous
 62
     7
370
    15
100
AcDbLine
 10
30.59999957675939
 20
2.345497245682821
 30
0.0
 11
30.59999957675939
 21
1.939869638703612
 31
0.0
  0
LINE
  5
A980
330
A931
100
AcDbEntity
  8
0
  6
Continuous
 62
     7
370
    15
100
AcDbLine
 10
32.99999957675938
 20
-0.0000000684823789
 30
0.0
 11
32.99999957675938
 21
2.359784522370986
 31
0.0
  0
LINE
  5
A981
330
A931
100
AcDbEntity
  8
0
  6
Continuous
 62
     7
370
    15
100
AcDbLine
 10
33.49999957675939
 20
2.499999931517606
 30
0.0
 11
33.49999957675938
 21
-0.0000000684823789
 31
0.0
  0
LINE
  5
A982
330
A931
100
AcDbEntity
  8
0
  6
Continuous
 62
     7
370
    15
100
AcDbLine
 10
33.49999957675938
 20
-0.0000000684823789
 30
0.0
 11
32.99999957675938
 21
-0.0000000684823789
 31
0.0
  0
LINE
  5
A983
330
A931
100
AcDbEntity
  8
0
  6
Continuous
 62
     7
370
    15
100
AcDbLine
 10
37.67844118455055
 20
4.138371117381481
 30
0.0
 11
37.42798073172025
 21
4.572181346970268
 31
0.0
  0
CIRCLE
  5
A984
330
A931
100
AcDbEntity
  8
0
  6
Continuous
 62
     7
370
    15
100
AcDbCircle
 10
43.99999957675937
 20
26.49999993151768
 30
0.0
 40
2.0
  0
LINE
  5
A985
330
A931
100
AcDbEntity
  8
0
  6
Continuous
 62
     7
370
    15
100
AcDbLine
 10
34.49999957675938
 20
30.59999993151763
 30
0.0
 11
50.65450226259418
 21
30.59999993151767
 31
0.0
  0
LINE
  5
A986
330
A931
100
AcDbEntity
  8
0
  6
Continuous
 62
     7
370
    15
100
AcDbLine
 10
50.65450226259418
 20
22.3999999315177
 30
0.0
 11
34.49999957675939
 21
22.3999999315177
 31
0.0
  0
LINE
  5
A987
330
A931
100
AcDbEntity
  8
0
  6
Continuous
 62
     7
370
    15
100
AcDbLine
 10
45.74999957675937
 20
11.34455536528991
 30
0.0
 11
43.80255846001704
 21
12.46891101827204
 31
0.0
  0
ARC
  5
A988
330
A931
100
AcDbEntity
  8
0
  6
Continuous
 62
     7
370
    15
100
AcDbCircle
 10
26.49999957675938
 20
26.49999993151762
 30
0.0
 40
24.50000000000003
100
AcDbArc
 50
303.5101001004865
 51
321.7867892982624
  0
ARC
  5
A989
330
A931
100
AcDbEntity
  8
0
  6
Continuous
 62
     7
370
    15
100
AcDbCircle
 10
26.49999957675938
 20
26.49999993151762
 30
0.0
 40
25.00000000000002
100
AcDbArc
 50
303.439812767516
 51
321.9521537526889
  0
CIRCLE
  5
A98A
330
A931
100
AcDbEntity
  8
0
  6
Continuous
 62
     7
370
    15
100
AcDbCircle
 10
45.55255846001705
 20
15.49999993151758
 30
0.0
 40
1.700000000000002
  0
ARC
  5
A98B
330
A931
100
AcDbEntity
  8
0
  6
Continuous
 62
     7
370
    15
100
AcDbCircle
 10
45.55255846001692
 20
15.49999993151738
 30
0.0
 40
3.50000000000024
100
AcDbArc
 50
60.0
 51
240.0000000000009
  0
ARC
  5
A98C
330
A931
100
AcDbEntity
  8
0
  6
Continuous
 62
     7
370
    15
100
AcDbCircle
 10
31.4999995767594
 20
21.49999993151761
 30
0.0
 40
5.0
100
AcDbArc
 50
270.0000000000008
 51
0.0
  0
CIRCLE
  5
A98D
330
A931
100
AcDbEntity
  8
0
  6
Continuous
 62
     7
370
    15
100
AcDbCircle
 10
26.49999957675938
 20
8.999999931517621
 30
0.0
 40
2.0
  0
LINE
  5
A98E
330
A931
100
AcDbEntity
  8
0
  6
Continuous
 62
     7
370
    15
100
AcDbLine
 10
22.39999957675937
 20
6.499999931517621
 30
0.0
 11
30.59999957675938
 21
6.499999931517621
 31
0.0
  0
LINE
  5
A98F
330
A931
100
AcDbEntity
  8
0
  6
Continuous
 62
     7
370
    15
100
AcDbLine
 10
30.59999957675939
 20
11.49999993151762
 30
0.0
 11
22.39999957675937
 21
11.49999993151762
 31
0.0
  0
LINE
  5
A990
330
A931
100
AcDbEntity
  8
0
  6
Continuous
 62
     7
370
    15
100
AcDbLine
 10
21.99999957675939
 20
18.49999993151761
 30
0.0
 11
30.99999957675939
 21
18.49999993151761
 31
0.0
  0
CIRCLE
  5
A991
330
A931
100
AcDbEntity
  8
0
  6
Continuous
 62
     7
370
    15
100
AcDbCircle
 10
26.49999957675938
 20
14.99999993151762
 30
0.0
 40
1.25
  0
LINE
  5
A992
330
A931
100
AcDbEntity
  8
0
  6
Continuous
 62
     7
370
    15
100
AcDbLine
 10
21.99999957675939
 20
16.49999993151761
 30
0.0
 11
21.99999957675939
 21
18.49999993151761
 31
0.0
  0
LINE
  5
A993
330
A931
100
AcDbEntity
  8
0
  6
Continuous
 62
     7
370
    15
100
AcDbLine
 10
21.99999957675939
 20
16.49999993151761
 30
0.0
 11
21.49999957675939
 21
16.49999993151761
 31
0.0
  0
LINE
  5
A994
330
A931
100
AcDbEntity
  8
0
  6
Continuous
 62
     7
370
    15
100
AcDbLine
 10
30.99999957675939
 20
16.49999993151762
 30
0.0
 11
30.99999957675939
 21
18.49999993151761
 31
0.0
  0
LINE
  5
A995
330
A931
100
AcDbEntity
  8
0
  6
Continuous
 62
     7
370
    15
100
AcDbLine
 10
30.99999957675939
 20
16.49999993151762
 30
0.0
 11
31.4999995767594
 21
16.49999993151762
 31
0.0
  0
LINE
  5
A996
330
A931
100
AcDbEntity
  8
0
  6
Continuous
 62
     7
370
    15
100
AcDbLine
 10
37.98695419489596
 20
10.90401090866719
 30
0.0
 11
40.08695419489597
 21
7.266704212772538
 31
0.0
  0
LINE
  5
A997
330
A931
100
AcDbEntity
  8
0
  6
Continuous
 62
     7
370
    15
100
AcDbLine
 10
34.26304495862287
 20
8.754010908667183
 30
0.0
 11
37.98695419489596
 21
10.90401090866719
 31
0.0
  0
LINE
  5
A998
330
A931
100
AcDbEntity
  8
0
  6
Continuous
 62
     7
370
    15
100
AcDbLine
 10
36.36304495862288
 20
5.116704212772546
 30
0.0
 11
34.26304495862287
 21
8.754010908667183
 31
0.0
  0
LINE
  5
A999
330
A931
100
AcDbEntity
  8
0
  6
Continuous
 62
     7
370
    15
100
AcDbLine
 10
36.92596147108276
 20
5.441704212772535
 30
0.0
 11
36.36304495862288
 21
5.116704212772546
 31
0.0
  0
LINE
  5
A99A
330
A931
100
AcDbEntity
  8
0
  6
Continuous
 62
     7
370
    15
100
AcDbLine
 10
39.52403768243608
 20
6.941704212772549
 30
0.0
 11
40.02605694307357
 21
6.072181346970268
 31
0.0
  0
LINE
  5
A99B
330
A931
100
AcDbEntity
  8
0
  6
Continuous
 62
     7
370
    15
100
AcDbLine
 10
40.08695419489597
 20
7.266704212772538
 30
0.0
 11
39.52403768243608
 21
6.941704212772549
 31
0.0
  0
LINE
  5
A99C
330
A931
100
AcDbEntity
  8
0
  6
Continuous
 62
     7
370
    15
100
AcDbLine
 10
40.02605694307357
 20
6.072181346970268
 30
0.0
 11
40.27651739590386
 21
5.638371117381481
 31
0.0
  0
ARC
  5
A99D
330
A931
100
AcDbEntity
  8
0
  6
Continuous
 62
     7
370
    15
100
AcDbCircle
 10
31.4999995767594
 20
31.49999993151762
 30
0.0
 40
4.999999999999985
100
AcDbArc
 50
0.0
 51
90.0
  0
LINE
  5
A99E
330
A931
100
AcDbEntity
  8
0
  6
Continuous
 62
     7
370
    15
100
AcDbLine
 10
30.99999957675938
 20
34.49999993151762
 30
0.0
 11
21.99999957675938
 21
34.49999993151762
 31
0.0
  0
LINE
  5
A99F
330
A931
100
AcDbEntity
  8
0
  6
Continuous
 62
     7
370
    15
100
AcDbLine
 10
21.99999957675938
 20
36.49999993151761
 30
0.0
 11
21.49999957675938
 21
36.49999993151761
 31
0.0
  0
LINE
  5
A9A0
330
A931
100
AcDbEntity
  8
0
  6
Continuous
 62
     7
370
    15
100
AcDbLine
 10
21.99999957675938
 20
36.49999993151761
 30
0.0
 11
21.99999957675938
 21
34.49999993151762
 31
0.0
  0
LINE
  5
A9A1
330
A931
100
AcDbEntity
  8
0
  6
Continuous
 62
     7
370
    15
100
AcDbLine
 10
30.99999957675938
 20
34.49999993151762
 30
0.0
 11
30.99999957675938
 21
36.49999993151761
 31
0.0
  0
LINE
  5
A9A2
330
A931
100
AcDbEntity
  8
0
  6
Continuous
 62
     7
370
    15
100
AcDbLine
 10
31.49999957675938
 20
36.49999993151761
 30
0.0
 11
30.99999957675938
 21
36.49999993151761
 31
0.0
  0
LINE
  5
A9A3
330
A931
100
AcDbEntity
  8
0
  6
Continuous
 62
     7
370
    15
100
AcDbLine
 10
41.49999957675936
 20
30.59999993151767
 30
0.0
 11
41.49999957675937
 21
22.39999993151767
 31
0.0
  0
LINE
  5
A9A4
330
A931
100
AcDbEntity
  8
0
  6
Continuous
 62
     7
370
    15
100
AcDbLine
 10
34.49999957675939
 20
21.99999993151762
 30
0.0
 11
34.49999957675939
 21
30.99999993151762
 31
0.0
  0
CIRCLE
  5
A9A5
330
A931
100
AcDbEntity
  8
0
  6
Continuous
 62
     7
370
    15
100
AcDbCircle
 10
37.99999957675938
 20
26.49999993151766
 30
0.0
 40
1.25
  0
LINE
  5
A9A6
330
A931
100
AcDbEntity
  8
0
  6
Continuous
 62
     7
370
    15
100
AcDbLine
 10
34.49999957675939
 20
21.99999993151762
 30
0.0
 11
36.4999995767594
 21
21.99999993151762
 31
0.0
  0
LINE
  5
A9A7
330
A931
100
AcDbEntity
  8
0
  6
Continuous
 62
     7
370
    15
100
AcDbLine
 10
36.4999995767594
 20
21.49999993151761
 30
0.0
 11
36.4999995767594
 21
21.99999993151762
 31
0.0
  0
LINE
  5
A9A8
330
A931
100
AcDbEntity
  8
0
  6
Continuous
 62
     7
370
    15
100
AcDbLine
 10
36.49999957675938
 20
30.99999993151762
 30
0.0
 11
34.49999957675939
 21
30.99999993151762
 31
0.0
  0
LINE
  5
A9A9
330
A931
100
AcDbEntity
  8
0
  6
Continuous
 62
     7
370
    15
100
AcDbLine
 10
36.49999957675938
 20
30.99999993151762
 30
0.0
 11
36.49999957675938
 21
31.49999993151762
 31
0.0
  0
LINE
  5
A9AA
330
A931
100
AcDbEntity
  8
0
  6
Continuous
 62
     7
370
    15
100
AcDbLine
 10
52.99999957675942
 20
19.9999999315177
 30
0.0
 11
52.99999957675942
 21
22.39999993151771
 31
0.0
  0
ARC
  5
A9AB
330
A931
100
AcDbEntity
  8
0
  6
Continuous
 62
     7
370
    15
100
AcDbCircle
 10
26.49999957675938
 20
26.49999993151762
 30
0.0
 40
24.50000000000001
100
AcDbArc
 50
338.2132107017388
 51
350.3663998551414
  0
ARC
  5
A9AC
330
A931
100
AcDbEntity
  8
0
  6
Continuous
 62
     7
370
    15
100
AcDbCircle
 10
26.49999957675938
 20
26.49999993151762
 30
0.0
 40
25.00000000000002
100
AcDbArc
 50
338.047846247312
 51
350.5608526293646
  0
ARC
  5
A9AD
330
A931
100
AcDbEntity
  8
0
  6
Continuous
 62
     7
370
    15
100
AcDbCircle
 10
26.49999957675938
 20
26.49999993151762
 30
0.0
 40
25.00000000000003
100
AcDbArc
 50
321.9521537526889
 51
338.047846247312
  0
LINE
  5
A9AE
330
A931
100
AcDbEntity
  8
0
  6
Continuous
 62
     7
370
    15
100
AcDbLine
 10
46.18740846869406
 20
11.09201722378549
 30
0.0
 11
45.74999957675937
 21
11.34455536528991
 31
0.0
  0
LINE
  5
A9AF
330
A931
100
AcDbEntity
  8
0
  6
Continuous
 62
     7
370
    15
100
AcDbLine
 10
47.30255846001705
 20
18.53108884476312
 30
0.0
 11
49.24999957675936
 21
17.40673319178099
 31
0.0
  0
LINE
  5
A9B0
330
A931
100
AcDbEntity
  8
0
  6
Continuous
 62
     7
370
    15
100
AcDbLine
 10
49.24999957675936
 20
17.40673319178099
 30
0.0
 11
49.68740846869406
 21
17.15419505027655
 31
0.0
  0
LINE
  5
A9B1
330
A931
100
AcDbEntity
  8
0
  6
Continuous
 62
     7
370
    15
100
AcDbLine
 10
50.64021498590602
 20
19.9999999315177
 30
0.0
 11
52.99999957675942
 21
19.9999999315177
 31
0.0
  0
LINE
  5
A9B2
330
A931
100
AcDbEntity
  8
0
  6
Continuous
 62
     7
370
    15
100
AcDbLine
 10
50.49999957675942
 20
19.49999993151769
 30
0.0
 11
52.99999957675942
 21
19.4999999315177
 31
0.0
  0
LINE
  5
A9B3
330
A931
100
AcDbEntity
  8
0
  6
Continuous
 62
     7
370
    15
100
AcDbLine
 10
52.99999957675942
 20
19.9999999315177
 30
0.0
 11
52.99999957675942
 21
19.4999999315177
 31
0.0
  0
LINE
  5
A9B4
330
A931
100
AcDbEntity
  8
0
  6
Continuous
 62
     7
370
    15
100
AcDbLine
 10
52.99999957675936
 20
30.59999993151772
 30
0.0
 11
52.9999995767594
 21
22.39999993151771
 31
0.0
  0
LINE
  5
A9B5
330
A931
100
AcDbEntity
  8
0
  6
Continuous
 62
     7
370
    15
100
AcDbLine
 10
46.4999995767594
 20
22.3999999315177
 30
0.0
 11
46.4999995767594
 21
30.59999993151767
 31
0.0
  0
CIRCLE
  5
A9B6
330
A931
100
AcDbEntity
  8
0
  6
Continuous
 62
     7
370
    15
100
AcDbCircle
 10
49.99999957675936
 20
26.49999993151771
 30
0.0
 40
1.25
  0
LINE
  5
A9B7
330
A931
100
AcDbEntity
  8
0
  6
Continuous
 62
     7
370
    15
100
AcDbLine
 10
50.65450226259418
 20
22.3999999315177
 30
0.0
 11
51.06012986957342
 21
22.3999999315177
 31
0.0
  0
LINE
  5
A9B8
330
A931
100
AcDbEntity
  8
0
  6
Continuous
 62
     7
370
    15
100
AcDbLine
 10
51.06012986957342
 20
22.39999993151771
 30
0.0
 11
52.9999995767594
 21
22.39999993151771
 31
0.0
  0
LINE
  5
A9B9
330
A931
100
AcDbEntity
  8
0
  6
Continuous
 62
     7
370
    15
100
AcDbLine
 10
50.65450226259418
 20
30.5999999315177
 30
0.0
 11
51.06012986957336
 21
30.59999993151772
 31
0.0
  0
LINE
  5
A9BA
330
A931
100
AcDbEntity
  8
0
  6
Continuous
 62
     7
370
    15
100
AcDbLine
 10
52.99999957675936
 20
30.59999993151772
 30
0.0
 11
51.06012986957338
 21
30.59999993151769
 31
0.0
  0
LINE
  5
A9BB
330
A931
100
AcDbEntity
  8
0
  6
Continuous
 62
     7
370
    15
100
AcDbLine
 10
52.99999957675936
 20
32.99999993151772
 30
0.0
 11
50.64021498590597
 21
32.99999993151771
 31
0.0
  0
LINE
  5
A9BC
330
A931
100
AcDbEntity
  8
0
  6
Continuous
 62
     7
370
    15
100
AcDbLine
 10
52.99999957675936
 20
30.5999999315177
 30
0.0
 11
52.99999957675936
 21
32.99999993151772
 31
0.0
  0
LINE
  5
A9BD
330
A931
100
AcDbEntity
  8
0
  6
Continuous
 62
     7
370
    15
100
AcDbLine
 10
50.49999957675936
 20
33.49999993151771
 30
0.0
 11
52.99999957675936
 21
33.49999993151772
 31
0.0
  0
LINE
  5
A9BE
330
A931
100
AcDbEntity
  8
0
  6
Continuous
 62
     7
370
    15
100
AcDbLine
 10
52.99999957675936
 20
33.49999993151771
 30
0.0
 11
52.99999957675936
 21
32.99999993151772
 31
0.0
  0
LINE
  5
A9BF
330
A931
100
AcDbEntity
  8
0
  6
Continuous
 62
     7
370
    15
100
AcDbLine
 10
22.39999957675921
 20
52.99999993151757
 30
0.0
 11
19.99999957675919
 21
52.99999993151757
 31
0.0
  0
ARC
  5
A9C0
330
A931
100
AcDbEntity
  8
0
  6
Continuous
 62
     7
370
    15
100
AcDbCircle
 10
26.49999957675938
 20
26.49999993151762
 30
0.0
 40
24.50000000000001
100
AcDbArc
 50
99.63360014485949
 51
141.7867892982621
  0
ARC
  5
A9C1
330
A931
100
AcDbEntity
  8
0
  6
Continuous
 62
     7
370
    15
100
AcDbCircle
 10
26.49999957675938
 20
26.49999993151762
 30
0.0
 40
25.0
100
AcDbArc
 50
99.4391473706363
 51
141.9521537526887
  0
LINE
  5
A9C2
330
A931
100
AcDbEntity
  8
0
  6
Continuous
 62
     7
370
    15
100
AcDbLine
 10
6.812590684824712
 20
41.90798263924972
 30
0.0
 11
7.249999576759392
 21
41.65544449774531
 31
0.0
  0
LINE
  5
A9C3
330
A931
100
AcDbEntity
  8
0
  6
Continuous
 62
     7
370
    15
100
AcDbLine
 10
7.249999576759392
 20
41.65544449774531
 30
0.0
 11
9.197440693501746
 21
40.53108884476318
 31
0.0
  0
LINE
  5
A9C4
330
A931
100
AcDbEntity
  8
0
  6
Continuous
 62
     7
370
    15
100
AcDbLine
 10
19.99999957675919
 20
52.99999993151757
 30
0.0
 11
19.99999957675921
 21
50.64021534066418
 31
0.0
  0
LINE
  5
A9C5
330
A931
100
AcDbEntity
  8
0
  6
Continuous
 62
     7
370
    15
100
AcDbLine
 10
19.49999957675922
 20
50.49999993151755
 30
0.0
 11
19.49999957675919
 21
52.99999993151755
 31
0.0
  0
LINE
  5
A9C6
330
A931
100
AcDbEntity
  8
0
  6
Continuous
 62
     7
370
    15
100
AcDbLine
 10
19.49999957675919
 20
52.99999993151755
 30
0.0
 11
19.99999957675919
 21
52.99999993151757
 31
0.0
  0
LINE
  5
A9C7
330
A931
100
AcDbEntity
  8
0
  6
Continuous
 62
     7
370
    15
100
AcDbLine
 10
32.99999957675922
 20
52.99999993151766
 30
0.0
 11
30.5999995767592
 21
52.99999993151766
 31
0.0
  0
ARC
  5
A9C8
330
A931
100
AcDbEntity
  8
0
  6
Continuous
 62
     7
370
    15
100
AcDbCircle
 10
26.49999957675938
 20
26.49999993151762
 30
0.0
 40
24.50000000000001
100
AcDbArc
 50
68.21321070173819
 51
80.3663998551405
  0
ARC
  5
A9C9
330
A931
100
AcDbEntity
  8
0
  6
Continuous
 62
     7
370
    15
100
AcDbCircle
 10
26.49999957675938
 20
26.49999993151762
 30
0.0
 40
25.00000000000002
100
AcDbArc
 50
68.04784624731111
 51
80.56085262936454
  0
CIRCLE
  5
A9CA
330
A931
100
AcDbEntity
  8
0
  6
Continuous
 62
     7
370
    15
100
AcDbCircle
 10
26.49999957675927
 20
43.99999993151761
 30
0.0
 40
2.0
  0
LINE
  5
A9CB
330
A931
100
AcDbEntity
  8
0
  6
Continuous
 62
     7
370
    15
100
AcDbLine
 10
22.39999957675928
 20
41.49999993151758
 30
0.0
 11
30.59999957675927
 21
41.49999993151758
 31
0.0
  0
LINE
  5
A9CC
330
A931
100
AcDbEntity
  8
0
  6
Continuous
 62
     7
370
    15
100
AcDbLine
 10
22.3999995767592
 20
52.99999993151757
 30
0.0
 11
30.5999995767592
 21
52.99999993151764
 31
0.0
  0
LINE
  5
A9CD
330
A931
100
AcDbEntity
  8
0
  6
Continuous
 62
     7
370
    15
100
AcDbLine
 10
30.5999995767592
 20
46.49999993151763
 30
0.0
 11
22.39999957675924
 21
46.49999993151763
 31
0.0
  0
CIRCLE
  5
A9CE
330
A931
100
AcDbEntity
  8
0
  6
Continuous
 62
     7
370
    15
100
AcDbCircle
 10
26.49999957675922
 20
49.9999999315176
 30
0.0
 40
1.25
  0
LINE
  5
A9CF
330
A931
100
AcDbEntity
  8
0
  6
Continuous
 62
     7
370
    15
100
AcDbLine
 10
22.39999957675921
 20
50.65450261735239
 30
0.0
 11
22.39999957675921
 21
51.0601302243316
 31
0.0
  0
LINE
  5
A9D0
330
A931
100
AcDbEntity
  8
0
  6
Continuous
 62
     7
370
    15
100
AcDbLine
 10
22.3999995767592
 20
52.99999993151757
 30
0.0
 11
22.39999957675923
 21
51.0601302243316
 31
0.0
  0
LINE
  5
A9D1
330
A931
100
AcDbEntity
  8
0
  6
Continuous
 62
     7
370
    15
100
AcDbLine
 10
30.59999957675922
 20
50.65450261735245
 30
0.0
 11
30.59999957675922
 21
51.06013022433166
 31
0.0
  0
LINE
  5
A9D2
330
A931
100
AcDbEntity
  8
0
  6
Continuous
 62
     7
370
    15
100
AcDbLine
 10
30.5999995767592
 20
51.06013022433166
 30
0.0
 11
30.5999995767592
 21
52.99999993151764
 31
0.0
  0
LINE
  5
A9D3
330
A931
100
AcDbEntity
  8
0
  6
Continuous
 62
     7
370
    15
100
AcDbLine
 10
41.90798228449151
 20
46.18740882345227
 30
0.0
 11
41.65544414298709
 21
45.7499999315176
 31
0.0
  0
CIRCLE
  5
A9D4
330
A931
100
AcDbEntity
  8
0
  6
Continuous
 62
     7
370
    15
100
AcDbCircle
 10
37.49999957675942
 20
45.55255881477527
 30
0.0
 40
1.699999999999988
  0
ARC
  5
A9D5
330
A931
100
AcDbEntity
  8
0
  6
Continuous
 62
     7
370
    15
100
AcDbCircle
 10
37.49999957675955
 20
45.55255881477521
 30
0.0
 40
3.500000000000143
100
AcDbArc
 50
149.9999999999999
 51
330.000000000001
  0
LINE
  5
A9D6
330
A931
100
AcDbEntity
  8
0
  6
Continuous
 62
     7
370
    15
100
AcDbLine
 10
41.65544414298709
 20
45.7499999315176
 30
0.0
 11
40.53108849000496
 21
43.80255881477526
 31
0.0
  0
ARC
  5
A9D7
330
A931
100
AcDbEntity
  8
0
  6
Continuous
 62
     7
370
    15
100
AcDbCircle
 10
26.49999957675938
 20
26.49999993151762
 30
0.0
 40
25.0
100
AcDbArc
 50
51.95215375268834
 51
68.04784624731111
  0
LINE
  5
A9D8
330
A931
100
AcDbEntity
  8
0
  6
Continuous
 62
     7
370
    15
100
AcDbLine
 10
35.59326631649601
 20
49.24999993151761
 30
0.0
 11
35.84580445800043
 21
49.68740882345227
 31
0.0
  0
LINE
  5
A9D9
330
A931
100
AcDbEntity
  8
0
  6
Continuous
 62
     7
370
    15
100
AcDbLine
 10
34.46891066351388
 20
47.30255881477527
 30
0.0
 11
35.59326631649601
 21
49.24999993151761
 31
0.0
  0
LINE
  5
A9DA
330
A931
100
AcDbEntity
  8
0
  6
Continuous
 62
     7
370
    15
100
AcDbLine
 10
32.99999957675922
 20
50.64021534066426
 30
0.0
 11
32.99999957675922
 21
52.99999993151766
 31
0.0
  0
LINE
  5
A9DB
330
A931
100
AcDbEntity
  8
0
  6
Continuous
 62
     7
370
    15
100
AcDbLine
 10
33.49999957675922
 20
50.49999993151766
 30
0.0
 11
33.49999957675919
 21
52.99999993151766
 31
0.0
  0
LINE
  5
A9DC
330
A931
100
AcDbEntity
  8
0
  6
Continuous
 62
     7
370
    15
100
AcDbLine
 10
32.99999957675921
 20
52.99999993151766
 30
0.0
 11
33.49999957675921
 21
52.99999993151766
 31
0.0
  0
ENDBLK
  5
A9DD
330
A931
100
AcDbEntity
  8
0
100
AcDbBlockEnd
  0
BLOCK
  5
A9DF
330
A9DE
100
AcDbEntity
  8
0
100
AcDbBlockBegin
  2
A$C08257646
 70
     0
 10
0.0
 20
0.0
 30
0.0
  3
A$C08257646
  1

  0
LINE
  5
A9E0
330
A9DE
100
AcDbEntity
  8
0
  6
Continuous
 62
     7
370
    15
100
AcDbLine
 10
2.499999915242341
 20
46.18740882345227
 30
0.0
 11
2.499999915242312
 21
30.59999993151772
 31
0.0
  0
LINE
  5
A9E1
330
A9DE
100
AcDbEntity
  8
0
  6
Continuous
 62
     7
370
    15
100
AcDbLine
 10
1.999999915242341
 20
45.7499999315176
 30
0.0
 11
1.999999915242312
 21
30.59999993151767
 31
0.0
  0
LINE
  5
A9E2
330
A9DE
100
AcDbEntity
  8
0
  6
Continuous
 62
     7
370
    15
100
AcDbLine
 10
40.99999991524234
 20
5.638371117381481
 30
0.0
 11
40.99999991524239
 21
51.49999993151761
 31
0.0
  0
LINE
  5
A9E3
330
A9DE
100
AcDbEntity
  8
0
  6
Continuous
 62
     7
370
    15
100
AcDbLine
 10
12.99999991524237
 20
1.499999931517606
 30
0.0
 11
40.99999991524239
 21
1.499999931517606
 31
0.0
  0
LINE
  5
A9E4
330
A9DE
100
AcDbEntity
  8
0
  6
Continuous
 62
     7
370
    15
100
AcDbLine
 10
2.499999915242341
 20
5.638371117381481
 30
0.0
 11
40.99999991524234
 21
5.638371117381481
 31
0.0
  0
LINE
  5
A9E5
330
A9DE
100
AcDbEntity
  8
0
  6
Continuous
 62
     7
370
    15
100
AcDbLine
 10
40.99999991524237
 20
5.441704212772535
 30
0.0
 11
1.999999915242369
 21
5.441704212772535
 31
0.0
  0
LINE
  5
A9E6
330
A9DE
100
AcDbEntity
  8
0
  6
Continuous
 62
     7
370
    15
100
AcDbLine
 10
40.99999991524234
 20
4.138371117381481
 30
0.0
 11
2.499999915242341
 21
4.138371117381481
 31
0.0
  0
LINE
  5
A9E7
330
A9DE
100
AcDbEntity
  8
0
  6
Continuous
 62
     7
370
    15
100
AcDbLine
 10
1.999999915242341
 20
4.572181346970268
 30
0.0
 11
1.999999915242369
 21
5.441704212772535
 31
0.0
  0
LINE
  5
A9E8
330
A9DE
100
AcDbEntity
  8
0
  6
Continuous
 62
     7
370
    15
100
AcDbLine
 10
6.499999915242369
 20
2.499999931517606
 30
0.0
 11
12.49999991524237
 21
2.499999931517621
 31
0.0
  0
LINE
  5
A9E9
330
A9DE
100
AcDbEntity
  8
0
  6
Continuous
 62
     7
370
    15
100
AcDbLine
 10
6.499999915242369
 20
-0.0000000684823789
 30
0.0
 11
12.49999991524237
 21
-0.0000000684823789
 31
0.0
  0
LINE
  5
A9EA
330
A9DE
100
AcDbEntity
  8
0
  6
Continuous
 62
     7
370
    15
100
AcDbLine
 10
2.499999915242369
 20
1.838491461839595
 30
0.0
 11
5.999999915242369
 21
1.838491461839595
 31
0.0
  0
LINE
  5
A9EB
330
A9DE
100
AcDbEntity
  8
0
  6
Continuous
 62
     7
370
    15
100
AcDbLine
 10
5.999999915242369
 20
-0.0000000684823789
 30
0.0
 11
2.399999915242375
 21
-0.0000000684823789
 31
0.0
  0
LINE
  5
A9EC
330
A9DE
100
AcDbEntity
  8
0
  6
Continuous
 62
     7
370
    15
100
AcDbLine
 10
2.399999915242375
 20
-0.0000000684823789
 30
0.0
 11
2.399999915242375
 21
1.939869638703612
 31
0.0
  0
LWPOLYLINE
  5
A9ED
330
A9DE
100
AcDbEntity
  8
0
  6
Continuous
 62
     7
370
    15
100
AcDbPolyline
 90
        4
 70
   128
 43
0.0
 10
2.399999915242375
 20
1.939869638703612
 10
2.449999210480228
 20
1.889179855129043
 10
2.474999387211937
 20
1.863835485222793
 10
2.499999915242369
 20
1.838491461839595
  0
LINE
  5
A9EE
330
A9DE
100
AcDbEntity
  8
0
  6
Continuous
 62
     7
370
    15
100
AcDbLine
 10
2.499999915242341
 20
4.138371117381481
 30
0.0
 11
1.999999915242369
 21
4.572181346970268
 31
0.0
  0
LINE
  5
A9EF
330
A9DE
100
AcDbEntity
  8
0
  6
Continuous
 62
     7
370
    15
100
AcDbLine
 10
1.999999915242369
 20
2.345497245682821
 30
0.0
 11
1.999999915242341
 21
4.572181346970268
 31
0.0
  0
LINE
  5
A9F0
330
A9DE
100
AcDbEntity
  8
0
  6
Continuous
 62
     7
370
    15
100
AcDbLine
 10
1.999999915242369
 20
2.345497245682821
 30
0.0
 11
2.399999915242375
 21
1.939869638703612
 31
0.0
  0
LINE
  5
A9F1
330
A9DE
100
AcDbEntity
  8
0
  6
Continuous
 62
     7
370
    15
100
AcDbLine
 10
2.499999915242341
 20
4.138371117381481
 30
0.0
 11
2.499999915242369
 21
1.838491461839595
 31
0.0
  0
LINE
  5
A9F2
330
A9DE
100
AcDbEntity
  8
0
  6
Continuous
 62
     7
370
    15
100
AcDbLine
 10
6.499999915242369
 20
2.499999931517606
 30
0.0
 11
6.499999915242369
 21
-0.0000000684823789
 31
0.0
  0
LINE
  5
A9F3
330
A9DE
100
AcDbEntity
  8
0
  6
Continuous
 62
     7
370
    15
100
AcDbLine
 10
5.999999915242369
 20
-0.0000000684823789
 30
0.0
 11
5.999999915242369
 21
2.359784522370986
 31
0.0
  0
LINE
  5
A9F4
330
A9DE
100
AcDbEntity
  8
0
  6
Continuous
 62
     7
370
    15
100
AcDbLine
 10
6.499999915242369
 20
-0.0000000684823789
 30
0.0
 11
5.999999915242369
 21
-0.0000000684823789
 31
0.0
  0
ARC
  5
A9F5
330
A9DE
100
AcDbEntity
  8
0
  6
Continuous
 62
     7
370
    15
100
AcDbCircle
 10
-0.5000000847575734
 20
26.49999993151762
 30
0.0
 40
25.0
100
AcDbArc
 50
285.0700621448883
 51
286.2602047083137
  0
LINE
  5
A9F6
330
A9DE
100
AcDbEntity
  8
0
  6
Continuous
 62
     7
370
    15
100
AcDbLine
 10
12.99999991524237
 20
-0.0000000684823789
 30
0.0
 11
12.99999991524237
 21
2.359784522370986
 31
0.0
  0
LINE
  5
A9F7
330
A9DE
100
AcDbEntity
  8
0
  6
Continuous
 62
     7
370
    15
100
AcDbLine
 10
12.49999991524237
 20
-0.0000000684823931
 30
0.0
 11
12.49999991524237
 21
2.499999931517621
 31
0.0
  0
LINE
  5
A9F8
330
A9DE
100
AcDbEntity
  8
0
  6
Continuous
 62
     7
370
    15
100
AcDbLine
 10
12.99999991524237
 20
-0.0000000684823789
 30
0.0
 11
12.49999991524237
 21
-0.0000000684823789
 31
0.0
  0
ARC
  5
A9F9
330
A9DE
100
AcDbEntity
  8
0
  6
Continuous
 62
     7
370
    15
100
AcDbCircle
 10
19.49999991524237
 20
26.49999993151762
 30
0.0
 40
25.00000000000001
100
AcDbArc
 50
253.7397952916896
 51
254.9299378551117
  0
LINE
  5
A9FA
330
A9DE
100
AcDbEntity
  8
0
  6
Continuous
 62
     7
370
    15
100
AcDbLine
 10
5.999999915242284
 20
19.9999999315177
 30
0.0
 11
5.999999915242284
 21
22.39999993151771
 31
0.0
  0
LINE
  5
A9FB
330
A9DE
100
AcDbEntity
  8
0
  6
Continuous
 62
     7
370
    15
100
AcDbLine
 10
12.99999991524228
 20
19.99999993151769
 30
0.0
 11
12.99999991524228
 21
32.99999993151771
 31
0.0
  0
LINE
  5
A9FC
330
A9DE
100
AcDbEntity
  8
0
  6
Continuous
 62
     7
370
    15
100
AcDbLine
 10
2.499999915242312
 20
22.3999999315177
 30
0.0
 11
2.499999915242312
 21
17.15419505027655
 31
0.0
  0
LINE
  5
A9FD
330
A9DE
100
AcDbEntity
  8
0
  6
Continuous
 62
     7
370
    15
100
AcDbLine
 10
1.999999915242312
 20
22.3999999315177
 30
0.0
 11
1.999999915242312
 21
17.40673319178099
 31
0.0
  0
LINE
  5
A9FE
330
A9DE
100
AcDbEntity
  8
0
  6
Continuous
 62
     7
370
    15
100
AcDbLine
 10
-0.0000000847576302
 20
21.49999993151761
 30
0.0
 11
-0.0000000847576302
 21
16.49999993151762
 31
0.0
  0
LINE
  5
A9FF
330
A9DE
100
AcDbEntity
  8
0
  6
Continuous
 62
     7
370
    15
100
AcDbLine
 10
6.499999915242312
 20
19.4999999315177
 30
0.0
 11
12.49999991524228
 21
19.4999999315177
 31
0.0
  0
LINE
  5
AA00
330
A9DE
100
AcDbEntity
  8
0
  6
Continuous
 62
     7
370
    15
100
AcDbLine
 10
6.999999915242312
 20
17.15419505027657
 30
0.0
 11
6.999999915242312
 21
11.09201722378547
 31
0.0
  0
LINE
  5
AA01
330
A9DE
100
AcDbEntity
  8
0
  6
Continuous
 62
     7
370
    15
100
AcDbLine
 10
1.999999915242341
 20
12.46891101827204
 30
0.0
 11
1.999999915242341
 21
17.42093537320667
 31
0.0
  0
LINE
  5
AA02
330
A9DE
100
AcDbEntity
  8
0
  6
Continuous
 62
     7
370
    15
100
AcDbLine
 10
6.999999915242312
 20
11.09201722378547
 30
0.0
 11
2.499999915242312
 21
11.09201722378549
 31
0.0
  0
LINE
  5
AA03
330
A9DE
100
AcDbEntity
  8
0
  6
Continuous
 62
     7
370
    15
100
AcDbLine
 10
2.499999915242312
 20
11.09201722378549
 30
0.0
 11
2.499999915242341
 21
5.638371117381481
 31
0.0
  0
LINE
  5
AA04
330
A9DE
100
AcDbEntity
  8
0
  6
Continuous
 62
     7
370
    15
100
AcDbLine
 10
1.999999915242312
 20
11.34455536528991
 30
0.0
 11
1.999999915242341
 21
6.072181346970268
 31
0.0
  0
LWPOLYLINE
  5
AA05
330
A9DE
100
AcDbEntity
  8
0
  6
Continuous
 62
     7
370
    15
100
AcDbPolyline
 90
        4
 70
   128
 43
0.0
 10
1.999999915242341
 20
6.072181346970268
 10
2.24999758325444
 20
5.855274216403785
 10
2.374998175067247
 20
5.74682217055124
 10
2.499999915242341
 20
5.638371117381481
  0
LINE
  5
AA06
330
A9DE
100
AcDbEntity
  8
0
  6
Continuous
 62
     7
370
    15
100
AcDbLine
 10
1.999999915242369
 20
5.441704212772535
 30
0.0
 11
1.999999915242369
 21
6.072181346970253
 31
0.0
  0
LINE
  5
AA07
330
A9DE
100
AcDbEntity
  8
0
  6
Continuous
 62
     7
370
    15
100
AcDbLine
 10
2.499999915242312
 20
11.09201722378549
 30
0.0
 11
1.999999915242312
 21
11.34455536528991
 31
0.0
  0
LINE
  5
AA08
330
A9DE
100
AcDbEntity
  8
0
  6
Continuous
 62
     7
370
    15
100
AcDbLine
 10
1.999999915242312
 20
11.34455536528991
 30
0.0
 11
1.999999915242341
 21
12.46891101827204
 31
0.0
  0
LINE
  5
AA09
330
A9DE
100
AcDbEntity
  8
0
  6
Continuous
 62
     7
370
    15
100
AcDbLine
 10
2.499999915242312
 20
17.15419505027655
 30
0.0
 11
6.999999915242312
 21
17.15419505027657
 31
0.0
  0
LINE
  5
AA0A
330
A9DE
100
AcDbEntity
  8
0
  6
Continuous
 62
     7
370
    15
100
AcDbLine
 10
-0.0000000847576302
 20
16.49999993151762
 30
0.0
 11
1.999999915242369
 21
16.49999993151762
 31
0.0
  0
LWPOLYLINE
  5
AA0B
330
A9DE
100
AcDbEntity
  8
0
  6
Continuous
 62
     7
370
    15
100
AcDbPolyline
 90
        4
 70
   128
 43
0.0
 10
1.999999915242312
 20
17.40673319178099
 10
2.249986899790542
 20
17.28045768005054
 10
2.374990203531581
 20
17.21732477927033
 10
2.499999915242312
 20
17.15419505027655
  0
LINE
  5
AA0C
330
A9DE
100
AcDbEntity
  8
0
  6
Continuous
 62
     7
370
    15
100
AcDbLine
 10
5.999999915242312
 20
19.9999999315177
 30
0.0
 11
6.499999915242312
 21
19.4999999315177
 31
0.0
  0
LINE
  5
AA0D
330
A9DE
100
AcDbEntity
  8
0
  6
Continuous
 62
     7
370
    15
100
AcDbLine
 10
12.49999991524228
 20
19.4999999315177
 30
0.0
 11
12.99999991524228
 21
19.9999999315177
 31
0.0
  0
LINE
  5
AA0E
330
A9DE
100
AcDbEntity
  8
0
  6
Continuous
 62
     7
370
    15
100
AcDbLine
 10
6.499999915242312
 20
33.49999993151772
 30
0.0
 11
12.49999991524228
 21
33.49999993151771
 31
0.0
  0
LINE
  5
AA0F
330
A9DE
100
AcDbEntity
  8
0
  6
Continuous
 62
     7
370
    15
100
AcDbLine
 10
2.39999991524229
 20
30.59999993151772
 30
0.0
 11
2.39999991524229
 21
22.39999993151771
 31
0.0
  0
LINE
  5
AA10
330
A9DE
100
AcDbEntity
  8
0
  6
Continuous
 62
     7
370
    15
100
AcDbLine
 10
-0.0000000847576302
 20
21.99999993151762
 30
0.0
 11
-0.0000000847576302
 21
30.99999993151762
 31
0.0
  0
LINE
  5
AA11
330
A9DE
100
AcDbEntity
  8
0
  6
Continuous
 62
     7
370
    15
100
AcDbLine
 10
2.39999991524229
 20
22.39999993151771
 30
0.0
 11
5.999999915242284
 21
22.39999993151771
 31
0.0
  0
LINE
  5
AA12
330
A9DE
100
AcDbEntity
  8
0
  6
Continuous
 62
     7
370
    15
100
AcDbLine
 10
-0.0000000847576302
 20
21.99999993151762
 30
0.0
 11
1.999999915242369
 21
21.99999993151762
 31
0.0
  0
LINE
  5
AA13
330
A9DE
100
AcDbEntity
  8
0
  6
Continuous
 62
     7
370
    15
100
AcDbLine
 10
-0.0000000847576302
 20
21.49999993151761
 30
0.0
 11
-0.0000000847576302
 21
21.99999993151762
 31
0.0
  0
LINE
  5
AA14
330
A9DE
100
AcDbEntity
  8
0
  6
Continuous
 62
     7
370
    15
100
AcDbLine
 10
1.999999915242312
 20
22.3999999315177
 30
0.0
 11
2.399999915242318
 21
22.3999999315177
 31
0.0
  0
LINE
  5
AA15
330
A9DE
100
AcDbEntity
  8
0
  6
Continuous
 62
     7
370
    15
100
AcDbLine
 10
5.999999915242284
 20
30.59999993151772
 30
0.0
 11
2.39999991524229
 21
30.59999993151772
 31
0.0
  0
LINE
  5
AA16
330
A9DE
100
AcDbEntity
  8
0
  6
Continuous
 62
     7
370
    15
100
AcDbLine
 10
-0.0000000847576302
 20
36.49999993151761
 30
0.0
 11
-0.0000000847576302
 21
31.49999993151762
 31
0.0
  0
LINE
  5
AA17
330
A9DE
100
AcDbEntity
  8
0
  6
Continuous
 62
     7
370
    15
100
AcDbLine
 10
1.999999915242369
 20
30.99999993151762
 30
0.0
 11
-0.0000000847576302
 21
30.99999993151762
 31
0.0
  0
LINE
  5
AA18
330
A9DE
100
AcDbEntity
  8
0
  6
Continuous
 62
     7
370
    15
100
AcDbLine
 10
-0.0000000847576302
 20
30.99999993151762
 30
0.0
 11
-0.0000000847576302
 21
31.49999993151762
 31
0.0
  0
LINE
  5
AA19
330
A9DE
100
AcDbEntity
  8
0
  6
Continuous
 62
     7
370
    15
100
AcDbLine
 10
1.999999915242312
 20
30.5999999315177
 30
0.0
 11
2.39999991524229
 21
30.59999993151772
 31
0.0
  0
LINE
  5
AA1A
330
A9DE
100
AcDbEntity
  8
0
  6
Continuous
 62
     7
370
    15
100
AcDbLine
 10
1.999999915242369
 20
36.49999993151761
 30
0.0
 11
-0.0000000847576302
 21
36.49999993151761
 31
0.0
  0
LINE
  5
AA1B
330
A9DE
100
AcDbEntity
  8
0
  6
Continuous
 62
     7
370
    15
100
AcDbLine
 10
5.999999915242284
 20
30.5999999315177
 30
0.0
 11
5.999999915242284
 21
32.99999993151772
 31
0.0
  0
LINE
  5
AA1C
330
A9DE
100
AcDbEntity
  8
0
  6
Continuous
 62
     7
370
    15
100
AcDbLine
 10
6.499999915242312
 20
33.49999993151771
 30
0.0
 11
5.999999915242284
 21
32.99999993151772
 31
0.0
  0
LINE
  5
AA1D
330
A9DE
100
AcDbEntity
  8
0
  6
Continuous
 62
     7
370
    15
100
AcDbLine
 10
12.49999991524228
 20
33.49999993151771
 30
0.0
 11
12.99999991524228
 21
32.99999993151771
 31
0.0
  0
LINE
  5
AA1E
330
A9DE
100
AcDbEntity
  8
0
  6
Continuous
 62
     7
370
    15
100
AcDbLine
 10
40.99999991524237
 20
5.441704212772535
 30
0.0
 11
40.99999991524234
 21
4.138371117381481
 31
0.0
  0
LINE
  5
AA1F
330
A9DE
100
AcDbEntity
  8
0
  6
Continuous
 62
     7
370
    15
100
AcDbLine
 10
40.99999991524239
 20
1.499999931517606
 30
0.0
 11
40.99999991524234
 21
4.138371117381481
 31
0.0
  0
LINE
  5
AA20
330
A9DE
100
AcDbEntity
  8
0
  6
Continuous
 62
     7
370
    15
100
AcDbLine
 10
40.99999991524234
 20
5.441704212772535
 30
0.0
 11
40.99999991524234
 21
5.638371117381481
 31
0.0
  0
LINE
  5
AA21
330
A9DE
100
AcDbEntity
  8
0
  6
Continuous
 62
     7
370
    15
100
AcDbLine
 10
40.99999991524239
 20
51.49999993151761
 30
0.0
 11
12.9999999152424
 21
51.49999993151761
 31
0.0
  0
LINE
  5
AA22
330
A9DE
100
AcDbEntity
  8
0
  6
Continuous
 62
     7
370
    15
100
AcDbLine
 10
12.49999991524237
 20
50.49999993151766
 30
0.0
 11
6.499999915242369
 21
50.49999993151766
 31
0.0
  0
LINE
  5
AA23
330
A9DE
100
AcDbEntity
  8
0
  6
Continuous
 62
     7
370
    15
100
AcDbLine
 10
6.499999915242369
 20
52.99999993151766
 30
0.0
 11
12.49999991524237
 21
52.99999993151766
 31
0.0
  0
LINE
  5
AA24
330
A9DE
100
AcDbEntity
  8
0
  6
Continuous
 62
     7
370
    15
100
AcDbLine
 10
1.999999915242369
 20
45.75218709860158
 30
0.0
 11
1.999999915242369
 21
47.30255881477527
 31
0.0
  0
LINE
  5
AA25
330
A9DE
100
AcDbEntity
  8
0
  6
Continuous
 62
     7
370
    15
100
AcDbLine
 10
2.499999915242341
 20
46.18740882345227
 30
0.0
 11
1.999999915242341
 21
45.7499999315176
 31
0.0
  0
LINE
  5
AA26
330
A9DE
100
AcDbEntity
  8
0
  6
Continuous
 62
     7
370
    15
100
AcDbLine
 10
5.999999915242369
 20
51.16150840119567
 30
0.0
 11
2.499999915242369
 21
51.16150840119567
 31
0.0
  0
LINE
  5
AA27
330
A9DE
100
AcDbEntity
  8
0
  6
Continuous
 62
     7
370
    15
100
AcDbLine
 10
2.399999915242375
 20
52.99999993151764
 30
0.0
 11
5.999999915242369
 21
52.99999993151764
 31
0.0
  0
LINE
  5
AA28
330
A9DE
100
AcDbEntity
  8
0
  6
Continuous
 62
     7
370
    15
100
AcDbLine
 10
6.999999915242341
 20
46.18740882345227
 30
0.0
 11
2.499999915242341
 21
46.18740882345227
 31
0.0
  0
LINE
  5
AA29
330
A9DE
100
AcDbEntity
  8
0
  6
Continuous
 62
     7
370
    15
100
AcDbLine
 10
2.499999915242369
 20
49.68740882345227
 30
0.0
 11
6.999999915242369
 21
49.68740882345227
 31
0.0
  0
LINE
  5
AA2A
330
A9DE
100
AcDbEntity
  8
0
  6
Continuous
 62
     7
370
    15
100
AcDbLine
 10
2.499999915242369
 20
51.16150840119567
 30
0.0
 11
2.499999915242369
 21
49.68740882345227
 31
0.0
  0
LINE
  5
AA2B
330
A9DE
100
AcDbEntity
  8
0
  6
Continuous
 62
     7
370
    15
100
AcDbLine
 10
1.999999915242369
 20
50.65450261735245
 30
0.0
 11
1.999999915242369
 21
49.24999993151761
 31
0.0
  0
LWPOLYLINE
  5
AA2C
330
A9DE
100
AcDbEntity
  8
0
  6
Continuous
 62
     7
370
    15
100
AcDbPolyline
 90
        4
 70
   128
 43
0.0
 10
1.999999915242369
 20
49.24999993151761
 10
2.249986899790599
 20
49.46871553358644
 10
2.374990203531609
 20
49.57806492536701
 10
2.499999915242369
 20
49.68740882345227
  0
LINE
  5
AA2D
330
A9DE
100
AcDbEntity
  8
0
  6
Continuous
 62
     7
370
    15
100
AcDbLine
 10
1.999999915242369
 20
47.30255881477527
 30
0.0
 11
1.999999915242369
 21
49.24999993151761
 31
0.0
  0
LWPOLYLINE
  5
AA2E
330
A9DE
100
AcDbEntity
  8
0
  6
Continuous
 62
     7
370
    15
100
AcDbPolyline
 90
        4
 70
   128
 43
0.0
 10
2.499999915242369
 20
51.16150840119567
 10
2.449999210518882
 20
51.11082000794539
 10
2.424999386157537
 20
51.08547529045918
 10
2.399999915242375
 20
51.06013022433166
  0
LINE
  5
AA2F
330
A9DE
100
AcDbEntity
  8
0
  6
Continuous
 62
     7
370
    15
100
AcDbLine
 10
2.399999915242375
 20
51.06013022433166
 30
0.0
 11
2.399999915242375
 21
52.99999993151764
 31
0.0
  0
LINE
  5
AA30
330
A9DE
100
AcDbEntity
  8
0
  6
Continuous
 62
     7
370
    15
100
AcDbLine
 10
1.999999915242369
 20
50.65450261735245
 30
0.0
 11
2.399999915242375
 21
51.06013022433166
 31
0.0
  0
LINE
  5
AA31
330
A9DE
100
AcDbEntity
  8
0
  6
Continuous
 62
     7
370
    15
100
AcDbLine
 10
6.999999915242369
 20
49.68740882345227
 30
0.0
 11
6.999999915242341
 21
46.18740882345227
 31
0.0
  0
ARC
  5
AA32
330
A9DE
100
AcDbEntity
  8
0
  6
Continuous
 62
     7
370
    15
100
AcDbCircle
 10
-0.500000084757545
 20
26.49999993151762
 30
0.0
 40
25.00000000000002
100
AcDbArc
 50
73.73979529168798
 51
74.92993785511171
  0
LINE
  5
AA33
330
A9DE
100
AcDbEntity
  8
0
  6
Continuous
 62
     7
370
    15
100
AcDbLine
 10
6.499999915242369
 20
50.49999993151766
 30
0.0
 11
6.499999915242369
 21
52.99999993151766
 31
0.0
  0
LINE
  5
AA34
330
A9DE
100
AcDbEntity
  8
0
  6
Continuous
 62
     7
370
    15
100
AcDbLine
 10
5.999999915242369
 20
50.64021534066426
 30
0.0
 11
5.999999915242369
 21
52.99999993151766
 31
0.0
  0
LINE
  5
AA35
330
A9DE
100
AcDbEntity
  8
0
  6
Continuous
 62
     7
370
    15
100
AcDbLine
 10
5.999999915242369
 20
52.99999993151766
 30
0.0
 11
6.499999915242369
 21
52.99999993151766
 31
0.0
  0
SPLINE
  5
AA36
330
A9DE
100
AcDbEntity
  8
0
  6
Continuous
 62
     7
370
    15
100
AcDbSpline
210
0.0
220
0.0
230
1.0
 70
    11
 71
     3
 72
    70
 73
    66
 74
     0
 42
0.0000000001
 43
0.0000000001
 40
0.0
 40
0.0
 40
0.0
 40
0.0
 40
0.0312500000000002
 40
0.0312500000000002
 40
0.0625000000000003
 40
0.0625000000000003
 40
0.0937500000000005
 40
0.0937500000000005
 40
0.1250000000000007
 40
0.1250000000000007
 40
0.1562500000000008
 40
0.1562500000000008
 40
0.187500000000001
 40
0.187500000000001
 40
0.2187500000000011
 40
0.2187500000000011
 40
0.2500000000000013
 40
0.2500000000000013
 40
0.2812500000000015
 40
0.2812500000000015
 40
0.3125000000000017
 40
0.3125000000000017
 40
0.3437500000000018
 40
0.3437500000000018
 40
0.375000000000002
 40
0.375000000000002
 40
0.4062500000000022
 40
0.4062500000000022
 40
0.4375000000000023
 40
0.4375000000000023
 40
0.4687500000000025
 40
0.4687500000000025
 40
0.5000000000000027
 40
0.5000000000000027
 40
0.5312500000000025
 40
0.5312500000000025
 40
0.5625000000000023
 40
0.5625000000000023
 40
0.5937500000000022
 40
0.5937500000000022
 40
0.625000000000002
 40
0.625000000000002
 40
0.6562500000000018
 40
0.6562500000000018
 40
0.6875000000000017
 40
0.6875000000000017
 40
0.7187500000000015
 40
0.7187500000000015
 40
0.7500000000000014
 40
0.7500000000000014
 40
0.7812500000000011
 40
0.7812500000000011
 40
0.812500000000001
 40
0.812500000000001
 40
0.8437500000000007
 40
0.8437500000000007
 40
0.8750000000000007
 40
0.8750000000000007
 40
0.9062500000000003
 40
0.9062500000000003
 40
0.9375000000000003
 40
0.9375000000000003
 40
0.9687500000000001
 40
0.9687500000000001
 40
1.0
 40
1.0
 40
1.0
 40
1.0
 10
18.09999991524233
 20
47.07091370913625
 30
0.0
 10
18.39790387414922
 20
47.07091370913625
 30
0.0
 10
18.69070628233408
 20
47.05402891772024
 30
0.0
 10
19.26656414039345
 20
46.9875026035275
 30
0.0
 10
19.55264663275776
 20
46.93702097755227
 30
0.0
 10
20.09723012915563
 20
46.80414980379623
 30
0.0
 10
20.35542465415625
 20
46.7223543133023
 30
0.0
 10
20.8440716383596
 20
46.52646663043646
 30
0.0
 10
21.07496052142167
 20
46.41149974824474
 30
0.0
 10
21.48908056261999
 20
46.15624215743915
 30
0.0
 10
21.67513833736311
 20
46.01504594553768
 30
0.0
 10
22.00414840860859
 20
45.70243669079752
 30
0.0
 10
22.14359049559141
 20
45.53385729014022
 30
0.0
 10
22.36828070581296
 20
45.17771798770633
 30
0.0
 10
22.45504863250005
 20
44.98750741800679
 30
0.0
 10
22.57098418381966
 20
44.59111552053116
 30
0.0
 10
22.59976697522919
 20
44.38810352664669
 30
0.0
 10
22.6002300659184
 20
43.97224543285403
 30
0.0
 10
22.57094320423389
 20
43.75718763313279
 30
0.0
 10
22.45602638335311
 20
43.33443840352848
 30
0.0
 10
22.3709776693405
 20
43.12537070060844
 30
0.0
 10
22.14524837949236
 20
42.71300050415428
 30
0.0
 10
22.00470227067237
 20
42.51125231695789
 30
0.0
 10
21.67949242513393
 20
42.13235703266827
 30
0.0
 10
21.49299179334619
 20
41.9524275149958
 30
0.0
 10
21.07454259717215
 20
41.6182164691447
 30
0.0
 10
20.84807167403537
 20
41.46810845331453
 30
0.0
 10
20.36156514611306
 20
41.20275463341875
 30
0.0
 10
20.0983047611501
 20
41.08656535372097
 30
0.0
 10
19.55433764224992
 20
40.89984513621402
 30
0.0
 10
19.27393244861085
 20
40.82868358068156
 30
0.0
 10
18.69617562765592
 20
40.7320389429932
 30
0.0
 10
18.39792224788252
 20
40.70695365917106
 30
0.0
 10
17.8021130010035
 20
40.70695169780194
 30
0.0
 10
17.50930940867289
 20
40.73148730872202
 30
0.0
 10
16.93344978298052
 20
40.82709086471644
 30
0.0
 10
16.64736643526387
 20
40.89934697397817
 30
0.0
 10
16.10278074380955
 20
41.08610630115904
 30
0.0
 10
15.84458520597823
 20
41.19977865007044
 30
0.0
 10
15.35593631757379
 20
41.46555141094697
 30
0.0
 10
15.12504639674313
 20
41.6187169501041
 30
0.0
 10
14.71092448910514
 20
41.94912858846893
 30
0.0
 10
14.52486589131723
 20
42.12766311077857
 30
0.0
 10
14.1958543580792
 20
42.51022524172987
 30
0.0
 10
14.05641154322589
 20
42.71066642311183
 30
0.0
 10
13.83172025558966
 20
43.11975653397669
 30
0.0
 10
13.74495191830431
 20
43.33141425995475
 30
0.0
 10
13.62901578784212
 20
43.75676710949861
 30
0.0
 10
13.60023285583042
 20
43.96717558370312
 30
0.0
 10
13.59976976399136
 20
44.38315259144144
 30
0.0
 10
13.62905677287449
 20
44.59068830553616
 30
0.0
 10
13.74397415441771
 20
44.98473006532228
 30
0.0
 10
13.82902328063323
 20
45.17275795403489
 30
0.0
 10
14.05475368616319
 20
45.53190700652232
 30
0.0
 10
14.1953004343548
 20
45.70155695859853
 30
0.0
 10
14.52051178044397
 20
46.01126394874319
 30
0.0
 10
14.7070133925026
 20
46.15368223378922
 30
0.0
 10
15.1254643154808
 20
46.41191285262746
 30
0.0
 10
15.35193617184492
 20
46.52456108564916
 30
0.0
 10
15.83844474447952
 20
46.72019571044896
 30
0.0
 10
16.10170626917781
 20
46.80382645516624
 30
0.0
 10
16.64567524084034
 20
46.93667514237652
 30
0.0
 10
16.92608139579022
 20
46.98639498289032
 30
0.0
 10
17.50384024102053
 20
47.05365127690413
 30
0.0
 10
17.80209595633545
 20
47.07091370913625
 30
0.0
 10
18.09999991524233
 20
47.07091370913625
 30
0.0
  0
LWPOLYLINE
  5
AA37
330
A9DE
100
AcDbEntity
  8
0
  6
Continuous
 62
     7
370
    15
100
AcDbPolyline
 90
       28
 70
   128
 43
0.0
 10
22.5805279266005
 20
43.76625571291492
 10
22.55419640370653
 20
43.923405722424
 10
22.45216076140113
 20
44.27948046604046
 10
22.29338804669388
 20
44.6250097292355
 10
22.0799481047325
 20
44.95548900964448
 10
21.81462345157482
 20
45.26661000444429
 10
21.5008729998365
 20
45.55431677566954
 10
21.1427869664754
 20
45.81485862556647
 10
20.74503355055845
 20
46.04483899267433
 10
20.31279807614752
 20
46.24125973119814
 10
19.85171539367058
 20
46.40156019642449
 10
19.36779642102877
 20
46.52365062664119
 10
18.86734978208912
 20
46.60593938637709
 10
18.35689956412474
 20
46.64735371580462
 10
17.84310026635984
 20
46.64735371580462
 10
17.33265004839549
 20
46.60593938637709
 10
16.83220340945587
 20
46.52365062664119
 10
16.34828443681405
 20
46.40156019642446
 10
15.8872017543371
 20
46.24125973119811
 10
15.45496627992617
 20
46.0448389926743
 10
15.05721286400921
 20
45.81485862556644
 10
14.69912683064814
 20
45.55431677566952
 10
14.38537637890982
 20
45.26661000444426
 10
14.12005172575215
 20
44.95548900964442
 10
13.90661178379076
 20
44.62500972923544
 10
13.74783906908351
 20
44.27948046604041
 10
13.64580342677811
 20
43.92340572242398
 10
13.6246560575135
 20
43.80320163974599
  0
LWPOLYLINE
  5
AA38
330
A9DE
100
AcDbEntity
  8
0
  6
Continuous
 62
     7
370
    15
100
AcDbPolyline
 90
       42
 70
   128
 43
0.0
 10
18.09999991524233
 20
45.25600730250491
 10
17.71456047258815
 20
45.2350826481655
 10
17.33815540378646
 20
45.17279914131015
 10
16.9796073246238
 20
45.07061665455043
 10
16.64732029818455
 20
44.93093025877016
 10
16.34908285073496
 20
44.75701408469368
 10
16.09188541526896
 20
44.55294458003692
 10
15.88175648168342
 20
44.32350496102768
 10
15.72362129408449
 20
44.07407309787155
 10
15.62118640724046
 20
43.81049546203226
 10
15.57685280807902
 20
43.53895008989584
 10
15.59165963858919
 20
43.26580177483399
 10
15.66525983921349
 20
42.99745288184195
 10
15.7959282836299
 20
42.74019328152954
 10
15.98060221425075
 20
42.5000529208849
 10
16.21495303066464
 20
42.28266048642808
 10
16.49348774836141
 20
42.09311147256937
 10
16.80967774963326
 20
41.93584874753938
 10
17.15611180884067
 20
41.81455841632311
 10
17.52466980525963
 20
41.73208342148334
 10
17.90671305182943
 20
41.69035690699653
 10
18.29328677865527
 20
41.69035690699653
 10
18.67533002522504
 20
41.73208342148334
 10
19.04388802164402
 20
41.81455841632311
 10
19.3903220808514
 20
41.9358487475394
 10
19.70651208212325
 20
42.09311147256937
 10
19.98504679982002
 20
42.28266048642808
 10
20.21939761623392
 20
42.50005292088494
 10
20.40407154685476
 20
42.74019328152957
 10
20.53473999127118
 20
42.99745288184197
 10
20.60834019189545
 20
43.26580177483402
 10
20.62314702240565
 20
43.53895008989588
 10
20.57881342324421
 20
43.81049546203229
 10
20.47637853640015
 20
44.07407309787157
 10
20.31824334880125
 20
44.3235049610277
 10
20.10811441521568
 20
44.55294458003694
 10
19.85091697974965
 20
44.75701408469371
 10
19.55267953230009
 20
44.93093025877016
 10
19.22039250586084
 20
45.07061665455043
 10
18.86184442669818
 20
45.17279914131015
 10
18.48543935789649
 20
45.23508264816553
 10
18.09999991524233
 20
45.25600730250491
  0
LWPOLYLINE
  5
AA39
330
A9DE
100
AcDbEntity
  8
0
  6
Continuous
 62
     7
370
    15
100
AcDbPolyline
 90
       38
 70
   128
 43
0.0
 10
18.09999991524233
 20
44.65496653848896
 10
17.74509819256565
 20
44.63360725508681
 10
17.40040634628243
 20
44.57014387257513
 10
17.07584053323137
 20
44.46640211692124
 10
16.78073792091848
 20
44.3253664495532
 10
16.52358807420802
 20
44.15109420983819
 10
16.3117887259983
 20
43.94859889281611
 10
16.1514329579152
 20
43.72370592007544
 10
16.04713391344751
 20
43.48288505298029
 10
16.0018920862077
 20
43.23306426941556
 10
16.01700900119394
 20
42.98143045847683
 10
16.09204977228532
 20
42.73522266675633
 10
16.22485561312396
 20
42.50152384415239
 10
16.41160594146791
 20
42.28705708029695
 10
16.64692829038617
 20
42.09799219350756
 10
16.9240528643507
 20
41.93976823634753
 10
17.23500729392799
 20
41.81693702398667
 10
17.57084598633239
 20
41.73303218676648
 10
17.92190747384336
 20
41.69046751408854
 10
18.27809235664133
 20
41.69046751408854
 10
18.62915384415231
 20
41.73303218676648
 10
18.96499253655671
 20
41.81693702398669
 10
19.27594696613397
 20
41.93976823634753
 10
19.5530715400985
 20
42.09799219350759
 10
19.78839388901676
 20
42.28705708029699
 10
19.9751442173607
 20
42.50152384415239
 10
20.10795005819935
 20
42.73522266675633
 10
20.18299082929073
 20
42.98143045847687
 10
20.19810774427694
 20
43.23306426941559
 10
20.15286591703716
 20
43.48288505298032
 10
20.04856687256947
 20
43.72370592007547
 10
19.88821110448634
 20
43.94859889281613
 10
19.67641175627662
 20
44.15109420983819
 10
19.41926190956616
 20
44.3253664495532
 10
19.12415929725327
 20
44.46640211692124
 10
18.79959348420223
 20
44.57014387257513
 10
18.45490163791899
 20
44.63360725508684
 10
18.09999991524233
 20
44.65496653848896
  0
ARC
  5
AA3A
330
A9DE
100
AcDbEntity
  8
0
  6
Continuous
 62
     7
370
    15
100
AcDbCircle
 10
19.49999991524237
 20
26.49999993151762
 30
0.0
 40
25.00000000000004
100
AcDbArc
 50
105.0700621448899
 51
106.260204708312
  0
LINE
  5
AA3B
330
A9DE
100
AcDbEntity
  8
0
  6
Continuous
 62
     7
370
    15
100
AcDbLine
 10
12.49999991524237
 20
52.99999993151766
 30
0.0
 11
12.49999991524237
 21
50.49999993151766
 31
0.0
  0
LINE
  5
AA3C
330
A9DE
100
AcDbEntity
  8
0
  6
Continuous
 62
     7
370
    15
100
AcDbLine
 10
12.49999991524237
 20
52.99999993151766
 30
0.0
 11
12.99999991524237
 21
52.99999993151766
 31
0.0
  0
LINE
  5
AA3D
330
A9DE
100
AcDbEntity
  8
0
  6
Continuous
 62
     7
370
    15
100
AcDbLine
 10
12.99999991524237
 20
50.64021534066426
 30
0.0
 11
12.99999991524237
 21
52.99999993151766
 31
0.0
  0
ARC
  5
AA3E
330
A9DE
100
AcDbEntity
  8
0
  6
Continuous
 62
     7
370
    15
100
AcDbCircle
 10
33.33045746500693
 20
47.15286339576303
 30
0.0
 40
2.867057618417842
100
AcDbArc
 50
54.56232335849446
 51
98.63498969728786
  0
LWPOLYLINE
  5
AA3F
330
A9DE
100
AcDbEntity
  8
0
  6
Continuous
 62
     7
370
    15
100
AcDbPolyline
 90
       42
 70
   128
 43
0.0
 10
32.89999991524238
 20
50.50793913550279
 10
32.51456047259194
 20
50.50028018044926
 10
32.13815540379392
 20
50.47748283470361
 10
31.77960732463478
 20
50.44008144872805
 10
31.44732029819875
 20
50.38895267930988
 10
31.14908285075208
 20
50.32529494146953
 10
30.89188541528859
 20
50.25060031862816
 10
30.68175648170507
 20
50.16661958943697
 10
30.52362129410773
 20
50.07532119100943
 10
30.42118640726466
 20
49.97884508042375
 10
30.37685280810365
 20
49.87945257594271
 10
30.39165963861368
 20
49.77947335363012
 10
30.46525983923726
 20
49.68125084171856
 10
30.5959282836524
 20
49.5870872926377
 10
30.78060221427146
 20
49.49918982016868
 10
31.01495303068305
 20
49.41961866656768
 10
31.29348774837709
 20
49.3502389122338
 10
31.60967774964587
 20
49.29267675980503
 10
31.9561118088499
 20
49.24828141734687
 10
32.32466980526528
 20
49.21809347405883
 10
32.70671305183134
 20
49.20282050974543
 10
33.09328677865341
 20
49.20282050974543
 10
33.47533002521948
 20
49.21809347405883
 10
33.84388802163485
 20
49.24828141734687
 10
34.19032208083886
 20
49.29267675980503
 10
34.50651208210763
 20
49.3502389122338
 10
34.78504679980168
 20
49.41961866656768
 10
35.0193976162133
 20
49.49918982016868
 10
35.20407154683232
 20
49.58708729263773
 10
35.33473999124749
 20
49.68125084171856
 10
35.40834019187102
 20
49.77947335363012
 10
35.42314702238107
 20
49.87945257594271
 10
35.37881342322009
 20
49.97884508042378
 10
35.27637853637699
 20
50.07532119100943
 10
35.11824334877963
 20
50.166619589437
 10
34.90811441519614
 20
50.25060031862816
 10
34.65091697973264
 20
50.32529494146953
 10
34.35267953228598
 20
50.38895267930988
 10
34.02039250584994
 20
50.44008144872805
 10
33.66184442669081
 20
50.47748283470361
 10
33.28543935789279
 20
50.50028018044926
 10
32.89999991524238
 20
50.50793913550279
  0
SPLINE
  5
AA40
330
A9DE
100
AcDbEntity
  8
0
  6
Continuous
 62
     7
370
    15
100
AcDbSpline
210
0.0
220
0.0
230
1.0
 70
    11
 71
     3
 72
    70
 73
    66
 74
     0
 42
0.0000000001
 43
0.0000000001
 40
0.0
 40
0.0
 40
0.0
 40
0.0
 40
0.03125
 40
0.03125
 40
0.0625
 40
0.0625
 40
0.09375
 40
0.09375
 40
0.125
 40
0.125
 40
0.15625
 40
0.15625
 40
0.1875
 40
0.1875
 40
0.21875
 40
0.21875
 40
0.25
 40
0.25
 40
0.28125
 40
0.28125
 40
0.3125
 40
0.3125
 40
0.34375
 40
0.34375
 40
0.375
 40
0.375
 40
0.40625
 40
0.40625
 40
0.4375
 40
0.4375
 40
0.46875
 40
0.46875
 40
0.5
 40
0.5
 40
0.53125
 40
0.53125
 40
0.5625
 40
0.5625
 40
0.59375
 40
0.59375
 40
0.625
 40
0.625
 40
0.65625
 40
0.65625
 40
0.6875
 40
0.6875
 40
0.71875
 40
0.71875
 40
0.75
 40
0.75
 40
0.78125
 40
0.78125
 40
0.8125
 40
0.8125
 40
0.84375
 40
0.84375
 40
0.875
 40
0.875
 40
0.90625
 40
0.90625
 40
0.9375
 40
0.9375
 40
0.96875
 40
0.96875
 40
1.0
 40
1.0
 40
1.0
 40
1.0
 10
32.8999999152424
 20
51.41841021546458
 30
0.0
 10
33.19790387414929
 20
51.41841021546454
 30
0.0
 10
33.49070628233412
 20
51.41605576785796
 30
0.0
 10
34.06656414039347
 20
51.40624476305174
 30
0.0
 10
34.35264663275777
 20
51.39865474932716
 30
0.0
 10
34.89723012915567
 20
51.37696497823379
 30
0.0
 10
35.15542465415629
 20
51.36296430280447
 30
0.0
 10
35.64407163835958
 20
51.3262071247147
 30
0.0
 10
35.87496052142169
 20
51.30322563597369
 30
0.0
 10
36.28908056262003
 20
51.24737175456542
 30
0.0
 10
36.47513833736312
 20
51.21435939853637
 30
0.0
 10
36.80414840860863
 20
51.13491262558639
 30
0.0
 10
36.94359049559145
 20
51.08913892834852
 30
0.0
 10
37.168280705813
 20
50.98525784752394
 30
0.0
 10
37.25504863250009
 20
50.92635929084739
 30
0.0
 10
37.3709841838197
 20
50.79574972459349
 30
0.0
 10
37.39976697522923
 20
50.72514015411184
 30
0.0
 10
37.40023006591844
 20
50.57298446921868
 30
0.0
 10
37.37094320423393
 20
50.49050655559629
 30
0.0
 10
37.25602638335309
 20
50.32141542003978
 30
0.0
 10
37.17097766934055
 20
50.23437122203643
 30
0.0
 10
36.9452483794924
 20
50.05682232187783
 30
0.0
 10
36.80470227067241
 20
49.96692812640393
 30
0.0
 10
36.47949242513397
 20
49.79364848959505
 30
0.0
 10
36.29299179334623
 20
49.70903399627508
 30
0.0
 10
35.87454259717219
 20
49.54871405970513
 30
0.0
 10
35.64807167403538
 20
49.47504085335331
 30
0.0
 10
35.1615651461131
 20
49.34305514588237
 30
0.0
 10
34.89830476115017
 20
49.28424775336217
 30
0.0
 10
34.35433764224996
 20
49.18896798285721
 30
0.0
 10
34.07393244861086
 20
49.15220038494769
 30
0.0
 10
33.49617562765596
 20
49.10213230184033
 30
0.0
 10
33.19792224788259
 20
49.08903932020823
 30
0.0
 10
32.60211300100355
 20
49.0890382989059
 30
0.0
 10
32.30930940867296
 20
49.10184464579237
 30
0.0
 10
31.73344978298053
 20
49.1513770893028
 30
0.0
 10
31.44736643526392
 20
49.18871212364911
 30
0.0
 10
30.90278074380959
 20
49.28401515562251
 30
0.0
 10
30.64458520597828
 20
49.34156066132672
 30
0.0
 10
30.15593631757383
 20
49.47378294414358
 30
0.0
 10
29.92504639674317
 20
49.54894476964509
 30
0.0
 10
29.51092448910518
 20
49.70746080220482
 30
0.0
 10
29.32486589131727
 20
49.79147807598085
 30
0.0
 10
28.99585435807924
 20
49.96648181207484
 30
0.0
 10
28.85641154322593
 20
50.0557790962495
 30
0.0
 10
28.63172025558973
 20
50.23199153702475
 30
0.0
 10
28.54495191830435
 20
50.320187034686
 30
0.0
 10
28.42901578784219
 20
50.49035699223122
 30
0.0
 10
28.40023285583044
 20
50.57106983375859
 30
0.0
 10
28.3997697639914
 20
50.72338692793173
 30
0.0
 10
28.42905677287456
 20
50.79558895678002
 30
0.0
 10
28.54397415441776
 20
50.92546400423597
 30
0.0
 10
28.62902328063328
 20
50.98376683098178
 30
0.0
 10
28.85475368616324
 20
51.08861345435446
 30
0.0
 10
28.99530043435485
 20
51.13466034889936
 30
0.0
 10
29.32051178044401
 20
51.21342651076736
 30
0.0
 10
29.50701339250267
 20
51.24679942842883
 30
0.0
 10
29.92546431548081
 20
51.30332810760458
 30
0.0
 10
30.15193617184499
 20
51.32583033325397
 30
0.0
 10
30.63844474447956
 20
51.36257808537078
 30
0.0
 10
30.90170626917785
 20
51.37690990784529
 30
0.0
 10
31.44567524084039
 20
51.39860057125957
 30
0.0
 10
31.72608139579029
 20
51.40607870635562
 30
0.0
 10
32.3038402410206
 20
51.4160027256143
 30
0.0
 10
32.60209595633552
 20
51.41841021546458
 30
0.0
 10
32.8999999152424
 20
51.41841021546458
 30
0.0
  0
ARC
  5
AA41
330
A9DE
100
AcDbEntity
  8
0
  6
Continuous
 62
     7
370
    15
100
AcDbCircle
 10
32.89930194211689
 20
40.37488939108725
 30
0.0
 40
10.73542639175309
100
AcDbArc
 50
66.59745219644573
 51
113.3838512220387
  0
ARC
  5
AA42
330
A9DE
100
AcDbEntity
  8
0
  6
Continuous
 62
     7
370
    15
100
AcDbCircle
 10
32.43210294303623
 20
47.31000129771246
 30
0.0
 40
2.717997833024486
100
AcDbArc
 50
80.08728780156081
 51
126.7153991426569
  0
ENDBLK
  5
AA43
330
A9DE
100
AcDbEntity
  8
0
100
AcDbBlockEnd
  0
BLOCK
  5
ABAA
330
AB9E
100
AcDbEntity
  8
0
100
AcDbBlockBegin
  2
*D18
 70
     1
 10
0.0
 20
0.0
 30
0.0
  3
*D18
  1

  0
LINE
  5
ADB2
330
AB9E
100
AcDbEntity
  8
AM_REFDIM
100
AcDbLine
 10
670.6537503807875
 20
107.6131554240403
 30
0.0
 11
657.8028230402162
 21
96.82994703228084
 31
0.0
  0
LINE
  5
ADB3
330
AB9E
100
AcDbEntity
  8
AM_REFDIM
100
AcDbLine
 10
691.2301634167854
 20
85.92119351608483
 30
0.0
 11
691.2301634167854
 21
81.24252222293288
 31
0.0
  0
ARC
  5
ADB4
330
AB9E
100
AcDbEntity
  8
AM_REFDIM
100
AcDbCircle
 10
691.2301634167854
 20
124.8788160134978
 30
0.0
 40
42.63629379056498
100
AcDbArc
 50
223.3600475969841
 51
266.6399524030162
  0
SOLID
  5
ADB5
330
AB9E
100
AcDbEntity
  8
AM_REFDIM
100
AcDbTrace
 10
659.9200966170756
 20
95.32848863480248
 30
0.0
 11
660.5424883418997
 21
95.88263030018666
 31
0.0
 12
658.5688674833352
 22
97.4727346419673
 32
0.0
 13
658.5688674833352
 23
97.4727346419673
 33
0.0
  0
SOLID
  5
ADB6
330
AB9E
100
AcDbEntity
  8
AM_REFDIM
100
AcDbTrace
 10
688.7434537876806
 20
82.7323041454546
 30
0.0
 11
688.7190223333009
 21
81.8993290266898
 31
0.0
 12
691.2301634167853
 22
82.24252222293285
 32
0.0
 13
691.2301634167853
 23
82.24252222293285
 33
0.0
  0
MTEXT
  5
ADB7
330
AB9E
100
AcDbEntity
  8
AM_REFDIM
 62
     2
100
AcDbMText
 10
674.4436475559077
 20
89.24887040858289
 30
0.0
 40
3.5
 41
0.0
 71
     5
 72
     1
  1
50°
 11
0.9046280361989815
 21
-0.4262019663525431
 31
0.0
 73
     1
 44
1.0
1001
ACAD
1000
MTEXTBEGIN
1070
    73
1070
     1
1070
    44
1040
1.0
1070
    74
1070
     0
1000
MTEXTEND
  0
POINT
  5
ADB8
330
AB9E
100
AcDbEntity
  8
Defpoints
 62
     0
100
AcDbPoint
 10
679.0019365268316
 20
84.03369371813454
 30
0.0
  0
POINT
  5
ADB9
330
AB9E
100
AcDbEntity
  8
Defpoints
 62
     0
100
AcDbPoint
 10
671.4197948239065
 20
108.2559430337268
 30
0.0
  0
POINT
  5
ADBA
330
AB9E
100
AcDbEntity
  8
Defpoints
 62
     0
100
AcDbPoint
 10
691.2301634167855
 20
157.3500151445057
 30
0.0
  0
POINT
  5
ADBB
330
AB9E
100
AcDbEntity
  8
Defpoints
 62
     0
100
AcDbPoint
 10
691.2301634167854
 20
86.9211935160848
 30
0.0
  0
POINT
  5
ADBC
330
AB9E
100
AcDbEntity
  8
Defpoints
 62
     0
100
AcDbPoint
 10
691.2301634167854
 20
124.8788160134979
 30
0.0
  0
ENDBLK
  5
ABAB
330
AB9E
100
AcDbEntity
  8
0
100
AcDbBlockEnd
  0
BLOCK
  5
ABC6
330
ABBA
100
AcDbEntity
  8
0
100
AcDbBlockBegin
  2
*D19
 70
     1
 10
0.0
 20
0.0
 30
0.0
  3
*D19
  1

  0
LINE
  5
AD86
330
ABBA
100
AcDbEntity
  8
AM_REFDIM
100
AcDbLine
 10
691.2301634167854
 20
91.40761688249027
 30
0.0
 11
691.2301634167854
 21
90.26181873106883
 31
0.0
  0
LINE
  5
AD87
330
ABBA
100
AcDbEntity
  8
AM_REFDIM
100
AcDbLine
 10
706.0519500229767
 20
99.20672855263141
 30
0.0
 11
708.5386620580003
 21
94.89961696417756
 31
0.0
  0
ARC
  5
AD88
330
ABBA
100
AcDbEntity
  8
AM_REFDIM
100
AcDbCircle
 10
691.2301634167854
 20
124.8788160134984
 30
0.0
 40
33.61699728242959
100
AcDbArc
 50
274.2619058360409
 51
295.7380941639592
  0
SOLID
  5
AD89
330
ABBA
100
AcDbEntity
  8
AM_REFDIM
100
AcDbTrace
 10
693.7439277010792
 20
90.93839913654852
 30
0.0
 11
693.712941392043
 21
91.7711561798071
 31
0.0
 12
691.2301634167854
 22
91.26181873106883
 32
0.0
 13
691.2301634167854
 23
91.26181873106883
 33
0.0
  0
SOLID
  5
AD8A
330
ABBA
100
AcDbEntity
  8
AM_REFDIM
100
AcDbTrace
 10
705.6338445351016
 20
94.9653525500393
 30
0.0
 11
706.0233881259359
 21
94.22867064087883
 31
0.0
 12
708.0386620580003
 22
95.76564236796199
 32
0.0
 13
708.0386620580003
 23
95.76564236796199
 33
0.0
  0
MTEXT
  5
AD8B
330
ABBA
100
AcDbEntity
  8
AM_REFDIM
 62
     2
100
AcDbMText
 10
699.0897206560546
 20
95.54654907154974
 30
0.0
 40
3.5
 41
0.0
 71
     5
 72
     1
  1
30°
 11
0.9659258262890681
 21
0.2588190451025214
 31
0.0
 73
     1
 44
1.0
1001
ACAD
1000
MTEXTBEGIN
1070
    73
1070
     1
1070
    44
1040
1.0
1070
    74
1070
     0
1000
MTEXTEND
  0
POINT
  5
AD8C
330
ABBA
100
AcDbEntity
  8
Defpoints
 62
     0
100
AcDbPoint
 10
697.0676937335134
 20
91.77253645677144
 30
0.0
  0
POINT
  5
AD8D
330
ABBA
100
AcDbEntity
  8
Defpoints
 62
     0
100
AcDbPoint
 10
691.2301634167855
 20
157.3500151445057
 30
0.0
  0
POINT
  5
AD8E
330
ABBA
100
AcDbEntity
  8
Defpoints
 62
     0
100
AcDbPoint
 10
705.5519500229767
 20
100.0727539564158
 30
0.0
  0
POINT
  5
AD8F
330
ABBA
100
AcDbEntity
  8
Defpoints
 62
     0
100
AcDbPoint
 10
691.2301634167855
 20
124.878816013498
 30
0.0
  0
POINT
  5
AD90
330
ABBA
100
AcDbEntity
  8
Defpoints
 62
     0
100
AcDbPoint
 10
691.2301634167854
 20
92.40761688249026
 30
0.0
  0
ENDBLK
  5
ABC7
330
ABBA
100
AcDbEntity
  8
0
100
AcDbBlockEnd
  0
BLOCK
  5
AC1B
330
AC0F
100
AcDbEntity
  8
0
100
AcDbBlockBegin
  2
*D20
 70
     1
 10
0.0
 20
0.0
 30
0.0
  3
*D20
  1

  0
LINE
  5
AD91
330
AC0F
100
AcDbEntity
  8
AM_REFDIM
100
AcDbLine
 10
676.6555044171757
 20
99.63476612318263
 30
0.0
 11
673.8581417750609
 21
94.78959189984463
 31
0.0
  0
LINE
  5
AD92
330
AC0F
100
AcDbEntity
  8
AM_REFDIM
100
AcDbLine
 10
691.2301634167855
 20
91.40761688249028
 30
0.0
 11
691.2301634167855
 21
90.13477273004852
 31
0.0
  0
ARC
  5
AD93
330
AC0F
100
AcDbEntity
  8
AM_REFDIM
100
AcDbCircle
 10
691.2301634167854
 20
124.8788160134976
 30
0.0
 40
33.74404328344919
100
AcDbArc
 50
244.2458524403332
 51
265.7541475596668
  0
SOLID
  5
AD94
330
AC0F
100
AcDbEntity
  8
AM_REFDIM
100
AcDbTrace
 10
676.3732003694371
 20
94.11836326725738
 30
0.0
 11
676.7628471599157
 21
94.8549905971293
 31
0.0
 12
674.3581417750609
 22
95.65561730362905
 32
0.0
 13
674.3581417750609
 23
95.65561730362905
 33
0.0
  0
SOLID
  5
AD95
330
AC0F
100
AcDbEntity
  8
AM_REFDIM
100
AcDbTrace
 10
688.747314111634
 20
91.64376235569893
 30
0.0
 11
688.7164444657555
 21
90.81100097966871
 31
0.0
 12
691.2301634167855
 22
91.13477273004852
 32
0.0
 13
691.2301634167855
 23
91.13477273004852
 33
0.0
  0
MTEXT
  5
AD96
330
AC0F
100
AcDbEntity
  8
AM_REFDIM
 62
     2
100
AcDbMText
 10
683.3377242528481
 20
95.42383205803739
 30
0.0
 40
3.5
 41
0.0
 71
     5
 72
     1
  1
30°
 11
0.9659258262890681
 21
-0.2588190451025214
 31
0.0
 73
     1
 44
1.0
1001
ACAD
1000
MTEXTBEGIN
1070
    73
1070
     1
1070
    44
1040
1.0
1070
    74
1070
     0
1000
MTEXTEND
  0
POINT
  5
AD97
330
AC0F
100
AcDbEntity
  8
Defpoints
 62
     0
100
AcDbPoint
 10
679.6890208965926
 20
93.16978754456016
 30
0.0
  0
POINT
  5
AD98
330
AC0F
100
AcDbEntity
  8
Defpoints
 62
     0
100
AcDbPoint
 10
705.3048224163951
 20
149.2568405000282
 30
0.0
  0
POINT
  5
AD99
330
AC0F
100
AcDbEntity
  8
Defpoints
 62
     0
100
AcDbPoint
 10
691.2301634167854
 20
157.3500151445056
 30
0.0
  0
POINT
  5
AD9A
330
AC0F
100
AcDbEntity
  8
Defpoints
 62
     0
100
AcDbPoint
 10
691.2301634167855
 20
92.40761688249028
 30
0.0
  0
POINT
  5
AD9B
330
AC0F
100
AcDbEntity
  8
Defpoints
 62
     0
100
AcDbPoint
 10
677.1555044171757
 20
100.500791526967
 30
0.0
  0
ENDBLK
  5
AC1C
330
AC0F
100
AcDbEntity
  8
0
100
AcDbBlockEnd
  0
BLOCK
  5
ACD3
330
ACC7
100
AcDbEntity
  8
0
100
AcDbBlockBegin
  2
*D21
 70
     1
 10
0.0
 20
0.0
 30
0.0
  3
*D21
  1

  0
LINE
  5
AD9C
330
ACC7
100
AcDbEntity
  8
AM_REFDIM
100
AcDbLine
 10
657.7589642857778
 20
124.878816013498
 30
0.0
 11
647.5938696262203
 21
124.8788160134981
 31
0.0
  0
LINE
  5
AD9D
330
ACC7
100
AcDbEntity
  8
AM_REFDIM
100
AcDbLine
 10
670.6537503807876
 20
107.6131554240403
 30
0.0
 11
657.8028230402162
 21
96.82994703228064
 31
0.0
  0
ARC
  5
AD9E
330
ACC7
100
AcDbEntity
  8
AM_REFDIM
100
AcDbCircle
 10
691.2301634167857
 20
124.878816013498
 30
0.0
 40
42.63629379056533
100
AcDbArc
 50
183.3600475969835
 51
216.6399524030169
  0
SOLID
  5
AD9F
330
ACC7
100
AcDbEntity
  8
AM_REFDIM
100
AcDbTrace
 10
648.2506764299771
 20
122.3676749300136
 30
0.0
 11
649.0836515487419
 21
122.3921063843933
 31
0.0
 12
648.5938696262203
 22
124.8788160134981
 32
0.0
 13
648.5938696262203
 23
124.8788160134981
 33
0.0
  0
SOLID
  5
ADA0
330
ACC7
100
AcDbEntity
  8
AM_REFDIM
100
AcDbTrace
 10
657.3456360649463
 20
99.69249048623872
 30
0.0
 11
656.6918358677981
 21
99.1757799805844
 31
0.0
 12
658.5688674833352
 22
97.47273464196718
 32
0.0
 13
658.5688674833352
 23
97.47273464196718
 33
0.0
  0
MTEXT
  5
ADA1
330
ACC7
100
AcDbEntity
  8
AM_REFDIM
 62
     2
100
AcDbMText
 10
654.2191537816856
 20
111.4079101661818
 30
0.0
 40
3.5
 41
0.0
 71
     5
 72
     1
  1
40°
 11
0.3420201433256735
 21
-0.9396926207859069
 31
0.0
 73
     1
 44
1.0
1001
ACAD
1000
MTEXTBEGIN
1070
    73
1070
     1
1070
    44
1040
1.0
1070
    74
1070
     0
1000
MTEXTEND
  0
POINT
  5
ADA2
330
ACC7
100
AcDbEntity
  8
Defpoints
 62
     0
100
AcDbPoint
 10
649.7431364433416
 20
115.0462099957562
 30
0.0
  0
POINT
  5
ADA3
330
ACC7
100
AcDbEntity
  8
Defpoints
 62
     0
100
AcDbPoint
 10
658.7589642857778
 20
124.878816013498
 30
0.0
  0
POINT
  5
ADA4
330
ACC7
100
AcDbEntity
  8
Defpoints
 62
     0
100
AcDbPoint
 10
671.4197948239066
 20
108.2559430337269
 30
0.0
  0
POINT
  5
ADA5
330
ACC7
100
AcDbEntity
  8
Defpoints
 62
     0
100
AcDbPoint
 10
691.2301634167855
 20
124.8788160134979
 30
0.0
  0
POINT
  5
ADA6
330
ACC7
100
AcDbEntity
  8
Defpoints
 62
     0
100
AcDbPoint
 10
723.701362547793
 20
124.8788160134979
 30
0.0
  0
ENDBLK
  5
ACD4
330
ACC7
100
AcDbEntity
  8
0
100
AcDbBlockEnd
  0
BLOCK
  5
AD0B
330
ACFF
100
AcDbEntity
  8
0
100
AcDbBlockBegin
  2
*D22
 70
     1
 10
0.0
 20
0.0
 30
0.0
  3
*D22
  1

  0
LINE
  5
ADA7
330
ACFF
100
AcDbEntity
  8
AM_REFDIM
100
AcDbLine
 10
665.9861135264708
 20
139.453475013108
 30
0.0
 11
653.1888658057162
 21
146.841969429572
 31
0.0
  0
LINE
  5
ADA8
330
ACFF
100
AcDbEntity
  8
AM_REFDIM
100
AcDbLine
 10
657.7589642857779
 20
124.878816013498
 30
0.0
 11
647.3038565846382
 21
124.8788160134981
 31
0.0
  0
ARC
  5
ADA9
330
ACFF
100
AcDbEntity
  8
AM_REFDIM
100
AcDbCircle
 10
691.2301634167862
 20
124.878816013498
 30
0.0
 40
42.92630683214793
100
AcDbArc
 50
153.3373404451878
 51
176.6626595548121
  0
SOLID
  5
ADAA
330
ACFF
100
AcDbEntity
  8
AM_REFDIM
100
AcDbTrace
 10
652.5017097399981
 20
144.3391617918031
 30
0.0
 11
653.2352247289773
 21
143.9436871334655
 31
0.0
 12
654.0548912095005
 22
146.341969429572
 32
0.0
 13
654.0548912095005
 23
146.341969429572
 33
0.0
  0
SOLID
  5
ADAB
330
ACFF
100
AcDbEntity
  8
AM_REFDIM
100
AcDbTrace
 10
648.7931457379278
 20
127.3656226476344
 30
0.0
 11
647.9601657942463
 21
127.3898890414506
 31
0.0
 12
648.3038565846381
 22
124.878816013498
 32
0.0
 13
648.3038565846381
 23
124.878816013498
 33
0.0
  0
MTEXT
  5
ADAC
330
ACFF
100
AcDbEntity
  8
AM_REFDIM
 62
     2
100
AcDbMText
 10
646.627276084966
 20
136.8301236541554
 30
0.0
 40
3.5
 41
0.0
 71
     5
 72
     1
  1
30°
 11
0.2588190451025214
 21
0.9659258262890681
 31
0.0
 73
     1
 44
1.0
1001
ACAD
1000
MTEXTBEGIN
1070
    73
1070
     1
1070
    44
1040
1.0
1070
    74
1070
     0
1000
MTEXTEND
  0
POINT
  5
ADAD
330
ACFF
100
AcDbEntity
  8
Defpoints
 62
     0
100
AcDbPoint
 10
650.8926296490251
 20
139.5604776286709
 30
0.0
  0
POINT
  5
ADAE
330
ACFF
100
AcDbEntity
  8
Defpoints
 62
     0
100
AcDbPoint
 10
666.8521389302553
 20
138.9534750131079
 30
0.0
  0
POINT
  5
ADAF
330
ACFF
100
AcDbEntity
  8
Defpoints
 62
     0
100
AcDbPoint
 10
658.7589642857779
 20
124.8788160134981
 30
0.0
  0
POINT
  5
ADB0
330
ACFF
100
AcDbEntity
  8
Defpoints
 62
     0
100
AcDbPoint
 10
723.7013625477933
 20
124.878816013498
 30
0.0
  0
POINT
  5
ADB1
330
ACFF
100
AcDbEntity
  8
Defpoints
 62
     0
100
AcDbPoint
 10
715.6081879033165
 20
110.8041570138885
 30
0.0
  0
ENDBLK
  5
AD0C
330
ACFF
100
AcDbEntity
  8
0
100
AcDbBlockEnd
  0
BLOCK
  5
ADCA
330
ADBE
100
AcDbEntity
  8
0
100
AcDbBlockBegin
  2
*D23
 70
     1
 10
0.0
 20
0.0
 30
0.0
  3
*D23
  1

  0
LINE
  5
ADCD
330
ADBE
100
AcDbEntity
  8
AM_REFDIM
100
AcDbLine
 10
706.0519500229766
 20
99.20672855263132
 30
0.0
 11
708.5446317857936
 21
94.889277092332
 31
0.0
  0
LINE
  5
ADCE
330
ADBE
100
AcDbEntity
  8
AM_REFDIM
100
AcDbLine
 10
716.4742133071008
 20
110.3041570138884
 30
0.0
 11
721.2197023379518
 21
107.5643476444901
 31
0.0
  0
ARC
  5
ADCF
330
ADBE
100
AcDbEntity
  8
AM_REFDIM
100
AcDbCircle
 10
691.2301634167857
 20
124.8788160134983
 30
0.0
 40
33.62893673801622
100
AcDbArc
 50
304.2603920118435
 51
325.7396079881563
  0
SOLID
  5
ADD0
330
ADBE
100
AcDbEntity
  8
AM_REFDIM
100
AcDbTrace
 10
710.383338216198
 20
96.73206415767777
 30
0.0
 11
709.9401340864806
 21
97.43776561285972
 31
0.0
 12
708.0446317857936
 22
95.75530249611643
 32
0.0
 13
708.0446317857936
 23
95.75530249611643
 33
0.0
  0
SOLID
  5
ADD1
330
ADBE
100
AcDbEntity
  8
AM_REFDIM
100
AcDbTrace
 10
718.671213817424
 20
106.1688453438031
 30
0.0
 11
719.376915272606
 21
105.7256412140857
 31
0.0
 12
720.3536769341674
 22
108.0643476444901
 32
0.0
 13
720.3536769341674
 23
108.0643476444901
 33
0.0
  0
MTEXT
  5
ADD2
330
ADBE
100
AcDbEntity
  8
AM_REFDIM
 62
     2
100
AcDbMText
 10
712.7113155894741
 20
103.3976638408098
 30
0.0
 40
3.5
 41
0.0
 71
     5
 72
     1
  1
30°
 11
0.7071067811865461
 21
0.7071067811865492
 31
0.0
 73
     1
 44
1.0
1001
ACAD
1000
MTEXTBEGIN
1070
    73
1070
     1
1070
    44
1040
1.0
1070
    74
1070
     0
1000
MTEXTEND
  0
POINT
  5
ADD3
330
ADBE
100
AcDbEntity
  8
Defpoints
 62
     0
100
AcDbPoint
 10
712.8464272789149
 20
99.11755589734134
 30
0.0
  0
POINT
  5
ADD4
330
ADBE
100
AcDbEntity
  8
Defpoints
 62
     0
100
AcDbPoint
 10
666.8521389302551
 20
138.9534750131079
 30
0.0
  0
POINT
  5
ADD5
330
ADBE
100
AcDbEntity
  8
Defpoints
 62
     0
100
AcDbPoint
 10
705.5519500229767
 20
100.0727539564158
 30
0.0
  0
POINT
  5
ADD6
330
ADBE
100
AcDbEntity
  8
Defpoints
 62
     0
100
AcDbPoint
 10
691.2301634167857
 20
124.878816013498
 30
0.0
  0
POINT
  5
ADD7
330
ADBE
100
AcDbEntity
  8
Defpoints
 62
     0
100
AcDbPoint
 10
715.6081879033163
 20
110.8041570138884
 30
0.0
  0
ENDBLK
  5
ADCB
330
ADBE
100
AcDbEntity
  8
0
100
AcDbBlockEnd
  0
ENDSEC
  0
SECTION
  2
ENTITIES
  0
TEXT
  5
1599
330
1F
100
AcDbEntity
  8
LOGO
 62
     7
100
AcDbText
 10
670.7238440014597
 20
61.08348331029392
 30
0.0
 40
2.015708090497736
  1
Order example:
 41
0.8
  7
CHINESET
100
AcDbText
  0
TEXT
  5
159A
330
1F
100
AcDbEntity
  8
LOGO
 62
     7
100
AcDbText
 10
671.0854787021228
 20
63.92118294402916
 30
0.0
 40
3.023562135746606
  1
訂購代號：
  7
CHINESET
100
AcDbText
  0
LINE
  5
159B
330
1F
100
AcDbEntity
  8
LOGO
 62
     4
100
AcDbLine
 10
669.8480119992495
 20
52.58852823838295
 30
0.0
 11
669.8480119992495
 21
67.70633891711608
 31
0.0
  0
TEXT
  5
159C
330
1F
100
AcDbEntity
  8
LOGO
  6
Continuous
100
AcDbText
 10
642.0192140577117
 20
55.55839933145453
 30
0.0
 40
2.267671601809954
  1
金器工業股份有限公司
  7
CHINESET
100
AcDbText
  0
TEXT
  5
159D
330
1F
100
AcDbEntity
  8
LOGO
  6
Continuous
100
AcDbText
 10
637.8539499618889
 20
53.29028344380296
 30
0.0
 40
1.511781067873303
  1
MINDMAN INDUSTRIAL CO., LTD.
 41
0.85
  7
CHINESET
100
AcDbText
  0
LINE
  5
159E
330
1F
100
AcDbEntity
  8
LOGO
 62
     4
100
AcDbLine
 10
669.8480119992495
 20
64.68277678136946
 30
0.0
 11
647.6752230037743
 21
64.68277678136946
 31
0.0
  0
LINE
  5
159F
330
1F
100
AcDbEntity
  8
LOGO
 62
     4
100
AcDbLine
 10
669.8480119992495
 20
61.65921464562282
 30
0.0
 11
647.6752230037743
 21
61.65921464562282
 31
0.0
  0
LINE
  5
15A0
330
1F
100
AcDbEntity
  8
LOGO
 62
     4
100
AcDbLine
 10
669.8480119992495
 20
58.63565250987637
 30
0.0
 11
636.5888285060369
 21
58.63565250987637
 31
0.0
  0
LINE
  5
15A1
330
1F
100
AcDbEntity
  8
LOGO
 62
     4
100
AcDbLine
 10
647.6752230037743
 20
58.63565250987637
 30
0.0
 11
647.6752230037743
 21
67.70633891711608
 31
0.0
  0
TEXT
  5
15A2
330
1F
100
AcDbEntity
  8
LOGO
100
AcDbText
 10
662.8292777424819
 20
59.39154304381277
 30
0.0
 40
1.511781067873303
  1
mm
  7
CHINESET
 72
     1
 11
664.7010066836584
 21
60.14743357774943
 31
0.0
100
AcDbText
 73
     2
  0
TEXT
  5
15A3
330
1F
100
AcDbEntity
  8
LOGO
100
AcDbText
 10
662.037392421215
 20
65.43866731530603
 30
0.0
 40
1.511781067873303
  1
1 : 1
  7
CHINESET
 72
     1
 11
664.7010066836584
 21
66.19455784924269
 31
0.0
100
AcDbText
 73
     2
  0
LINE
  5
15A4
330
1F
100
AcDbEntity
  8
LOGO
 62
     4
100
AcDbLine
 10
659.769471546761
 20
58.63565250987637
 30
0.0
 11
659.769471546761
 21
67.70633891711608
 31
0.0
  0
TEXT
  5
15A5
330
1F
100
AcDbEntity
  8
LOGO
100
AcDbText
 10
648.9217674825074
 20
65.43941130205204
 30
99.07964067459765
 40
1.511781067873303
  1
比例 Scale:
 41
0.9
  7
CHINESET
 72
     4
 11
653.7223472752677
 21
66.19455784924269
 31
99.07964067459765
100
AcDbText
  0
TEXT
  5
15A6
330
1F
100
AcDbEntity
  8
LOGO
100
AcDbText
 10
648.8347050906522
 20
62.43637080071592
 30
99.07964067459765
 40
1.511781067873303
  1
投影  View:
 41
0.9
  7
CHINESET
 72
     4
 11
653.7223472752677
 21
63.17099571349605
 31
99.07964067459765
100
AcDbText
  0
TEXT
  5
15A7
330
1F
100
AcDbEntity
  8
LOGO
100
AcDbText
 10
648.9825086861274
 20
59.39154304381277
 30
99.07964067459765
 40
1.511781067873303
  1
單位  Unit:
 41
0.9
  7
CHINESET
 72
     4
 11
653.7223472752677
 21
60.14743357774943
 31
99.07964067459765
100
AcDbText
  0
LWPOLYLINE
  5
15A8
330
1F
100
AcDbEntity
  8
LOGO
 62
     4
100
AcDbPolyline
 90
        4
 70
     1
 43
0.0
 10
636.5888285060369
 20
67.70633891711606
 10
831.5991671406953
 20
67.70633891711608
 10
831.5991671406953
 20
181.1094665189256
 10
636.5888285060369
 20
181.1094665189256
1001
GENIUS_GENREC_14
1002
{
1000
PYDIR
1011
636.5888285060369
1021
181.1094665189256
1031
0.0
1002
}
1002
{
1000
PXDIR
1011
831.5991671406953
1021
67.70633891711608
1031
0.0
1002
}
1002
{
1000
PORI
1011
636.5888285060369
1021
67.70633891711606
1031
0.0
1002
}
1002
{
1000
PINS
1011
636.5888285060369
1021
67.70633891711606
1031
0.0
1002
}
1002
{
1000
PINS2
1011
831.5991671406953
1021
181.1094665189256
1031
0.0
1002
}
1002
{
1000
C
1070
     1
1002
}
1001
GENIUS_GENODEF_13
1002
{
1000
HIER
1070
     0
1002
}
1002
{
1000
MANEDIT
1070
     0
1002
}
1002
{
1000
NOSEL
1070
     0
1002
}
1002
{
1000
BEHIND
1070
     0
1002
}
1002
{
1000
OTHER
1070
     0
1002
}
1002
{
1000
REACTOR
1002
}
1001
GENIUS_GENOBJ-N-REC_13
1002
{
1000
OWNER
1000
GEN
1002
}
  0
SOLID
  5
15A9
330
1F
100
AcDbEntity
  8
LOGO
 62
     5
100
AcDbTrace
 10
638.1573256261962
 20
61.14877335012547
 30
0.0
 11
638.8109800908093
 21
61.14877335012529
 31
0.0
 12
641.5382969948849
 22
67.34722085938866
 32
0.0
 13
642.1919514594986
 23
67.34722085938833
 33
0.0
  0
SOLID
  5
15AA
330
1F
100
AcDbEntity
  8
LOGO
 62
     5
100
AcDbTrace
 10
639.0814578003052
 20
61.14877335012547
 30
0.0
 11
639.7351122649183
 21
61.14877335012547
 31
0.0
 12
642.1919514594986
 22
66.85134505864737
 32
0.0
 13
641.5382969948849
 23
64.45461202173226
 33
0.0
  0
SOLID
  5
15AB
330
1F
100
AcDbEntity
  8
LOGO
 62
     2
100
AcDbTrace
 10
638.8109800908093
 20
61.14877335012529
 30
0.0
 11
639.0814578003052
 21
61.14877335012547
 31
0.0
 12
642.1919514594986
 22
67.34722085938833
 32
0.0
 13
642.4624291689939
 23
67.34722085938833
 33
0.0
  0
SOLID
  5
15AC
330
1F
100
AcDbEntity
  8
LOGO
 62
     5
100
AcDbTrace
 10
637.1093572237114
 20
58.89479243766633
 30
0.0
 11
637.3347553149575
 21
58.89479243766633
 31
0.0
 12
637.9694938834915
 22
60.0217828938958
 32
0.0
 13
638.1948919747369
 23
60.0217828938958
 33
0.0
  0
SOLID
  5
15AD
330
1F
100
AcDbEntity
  8
LOGO
 62
     5
100
AcDbTrace
 10
637.9694938834915
 20
60.0217828938958
 30
0.0
 11
638.1948919747369
 21
60.0217828938958
 31
0.0
 12
637.9694938834915
 22
58.89479243766633
 32
0.0
 13
638.1948919747369
 23
58.89479243766633
 33
0.0
  0
SOLID
  5
15AE
330
1F
100
AcDbEntity
  8
LOGO
 62
     5
100
AcDbTrace
 10
637.9694938834915
 20
58.89479243766633
 30
0.0
 11
638.1948919747369
 21
58.89479243766633
 31
0.0
 12
638.8296305432718
 22
60.0217828938958
 32
0.0
 13
639.0550286345176
 23
60.0217828938958
 33
0.0
  0
SOLID
  5
15AF
330
1F
100
AcDbEntity
  8
LOGO
 62
     5
100
AcDbTrace
 10
638.8296305432718
 20
60.0217828938958
 30
0.0
 11
639.0550286345176
 21
60.0217828938958
 31
0.0
 12
638.8296305432718
 22
58.89479243766633
 32
0.0
 13
639.0550286345176
 23
58.89479243766633
 33
0.0
  0
POLYLINE
  5
15B0
330
1F
100
AcDbEntity
  8
LOGO
 62
     5
100
AcDb2dPolyline
 66
     1
 10
0.0
 20
0.0
 30
0.0
 40
0.2257593061357465
 41
0.2257593061357465
  0
VERTEX
  5
15B1
330
15B0
100
AcDbEntity
  8
LOGO
 62
     5
100
AcDbVertex
100
AcDb2dVertex
 10
646.3848977790078
 20
59.57098671140398
 30
0.0
 42
1.0
  0
VERTEX
  5
15B2
330
15B0
100
AcDbEntity
  8
LOGO
 62
     5
100
AcDbVertex
100
AcDb2dVertex
 10
645.7076198606004
 20
59.57098671140398
 30
0.0
 42
1.0
  0
SEQEND
  5
15B3
330
15B0
100
AcDbEntity
  8
LOGO
 62
     5
  0
POLYLINE
  5
15B4
330
1F
100
AcDbEntity
  8
LOGO
 62
     5
100
AcDb2dPolyline
 66
     1
 10
0.0
 20
0.0
 30
0.0
 70
     1
  0
VERTEX
  5
15B5
330
15B4
100
AcDbEntity
  8
LOGO
 62
     5
100
AcDbVertex
100
AcDb2dVertex
 10
644.4309208590806
 20
59.45828766578089
 30
0.0
 42
1.000000057330635
  0
VERTEX
  5
15B6
330
15B4
100
AcDbEntity
  8
LOGO
 62
     5
100
AcDbVertex
100
AcDb2dVertex
 10
645.1071151328184
 20
59.45828766578089
 30
0.0
 42
1.000000057330635
  0
SEQEND
  5
15B7
330
15B4
100
AcDbEntity
  8
LOGO
 62
     5
  0
CIRCLE
  5
15B8
330
1F
100
AcDbEntity
  8
LOGO
 62
     5
100
AcDbCircle
 10
644.76901799595
 20
59.45828766578089
 30
0.0
 40
0.3380971368688941
  0
POLYLINE
  5
15B9
330
1F
100
AcDbEntity
  8
LOGO
 62
     5
100
AcDb2dPolyline
 66
     1
 10
0.0
 20
0.0
 30
0.0
 70
     1
 40
0.2257593061357465
 41
0.2257593061357465
  0
VERTEX
  5
15BA
330
15B9
100
AcDbEntity
  8
LOGO
 62
     5
100
AcDbVertex
100
AcDb2dVertex
 10
644.3174993836781
 20
59.45828766578089
 30
0.0
 42
1.0
  0
VERTEX
  5
15BB
330
15B9
100
AcDbEntity
  8
LOGO
 62
     5
100
AcDbVertex
100
AcDb2dVertex
 10
645.2205366082211
 20
59.45828766578089
 30
0.0
 42
1.0
  0
SEQEND
  5
15BC
330
15B9
100
AcDbEntity
  8
LOGO
 62
     5
  0
LINE
  5
15BD
330
1F
100
AcDbEntity
  8
LOGO
100
AcDbLine
 10
646.4970550022956
 20
58.89479243766633
 30
0.0
 11
646.4970550022956
 21
59.57098671140398
 31
0.0
  0
SOLID
  5
15BE
330
1F
100
AcDbEntity
  8
LOGO
 62
     5
100
AcDbTrace
 10
645.1070925930102
 20
60.0217828938958
 30
0.0
 11
645.3324906842557
 21
60.0217828938958
 31
0.0
 12
645.1070925930102
 22
58.89479243766633
 32
0.0
 13
645.3324906842557
 23
58.89479243766633
 33
0.0
  0
SOLID
  5
15BF
330
1F
100
AcDbEntity
  8
LOGO
 62
     5
100
AcDbTrace
 10
645.5954626373119
 20
58.89479243766633
 30
0.0
 11
645.820860728558
 21
58.89479243766633
 31
0.0
 12
645.5954626373119
 22
60.0217828938958
 32
0.0
 13
645.820860728558
 23
60.0217828938958
 33
0.0
  0
SOLID
  5
15C0
330
1F
100
AcDbEntity
  8
LOGO
 62
     5
100
AcDbTrace
 10
646.27165691105
 20
59.57098671140398
 30
0.0
 11
646.4970550022956
 21
59.57098671140398
 31
0.0
 12
646.27165691105
 22
58.89479243766633
 32
0.0
 13
646.4970550022956
 23
58.89479243766633
 33
0.0
  0
SOLID
  5
15C1
330
1F
100
AcDbEntity
  8
LOGO
 62
     5
100
AcDbTrace
 10
645.5729228281873
 20
66.85134505864737
 30
0.0
 11
644.9192683635744
 21
64.45461202173226
 31
0.0
 12
645.5729228281873
 22
61.14877335012529
 32
0.0
 13
644.9192683635744
 23
61.14877335012529
 33
0.0
  0
SOLID
  5
15C2
330
1F
100
AcDbEntity
  8
LOGO
 62
     5
100
AcDbTrace
 10
645.8434005376828
 20
61.14877335012529
 30
0.0
 11
646.4970550022956
 21
61.14877335012529
 31
0.0
 12
645.8434005376828
 22
67.34722085938833
 32
0.0
 13
646.4970550022956
 23
67.34722085938866
 33
0.0
  0
SOLID
  5
15C3
330
1F
100
AcDbEntity
  8
LOGO
 62
     2
100
AcDbTrace
 10
645.5729228281873
 20
67.34722085938866
 30
0.0
 11
645.8434005376828
 21
67.34722085938833
 31
0.0
 12
645.5729228281873
 22
61.14877335012529
 32
0.0
 13
645.8434005376828
 23
61.14877335012529
 33
0.0
  0
POLYLINE
  5
15C4
330
1F
100
AcDbEntity
  8
LOGO
 62
     5
100
AcDb2dPolyline
 66
     1
 10
0.0
 20
0.0
 30
0.0
 40
0.2257593061357465
 41
0.2257593061357465
  0
VERTEX
  5
15C5
330
15C4
100
AcDbEntity
  8
LOGO
 62
     5
100
AcDbVertex
100
AcDb2dVertex
 10
643.1541767779434
 20
59.57098671140398
 30
0.0
 42
1.0
  0
VERTEX
  5
15C6
330
15C4
100
AcDbEntity
  8
LOGO
 62
     5
100
AcDbVertex
100
AcDb2dVertex
 10
642.476898859536
 20
59.57098671140398
 30
0.0
 42
1.0
  0
SEQEND
  5
15C7
330
15C4
100
AcDbEntity
  8
LOGO
 62
     5
  0
POLYLINE
  5
15C8
330
1F
100
AcDbEntity
  8
LOGO
 62
     5
100
AcDb2dPolyline
 66
     1
 10
0.0
 20
0.0
 30
0.0
 40
0.2257593061357465
 41
0.2257593061357465
  0
VERTEX
  5
15C9
330
15C8
100
AcDbEntity
  8
LOGO
 62
     5
100
AcDbVertex
100
AcDb2dVertex
 10
643.8303710516805
 20
59.57098671140398
 30
0.0
 42
1.0
  0
VERTEX
  5
15CA
330
15C8
100
AcDbEntity
  8
LOGO
 62
     5
100
AcDbVertex
100
AcDb2dVertex
 10
643.1530931332736
 20
59.57098671140398
 30
0.0
 42
1.0
  0
SEQEND
  5
15CB
330
15C8
100
AcDbEntity
  8
LOGO
 62
     5
  0
POLYLINE
  5
15CC
330
1F
100
AcDbEntity
  8
LOGO
 62
     5
100
AcDb2dPolyline
 66
     1
 10
0.0
 20
0.0
 30
0.0
 40
0.2257593061357465
 41
0.2257593061357465
  0
VERTEX
  5
15CD
330
15CC
100
AcDbEntity
  8
LOGO
 62
     5
100
AcDbVertex
100
AcDb2dVertex
 10
640.5996500506162
 20
59.57098671140398
 30
0.0
 42
1.0
  0
VERTEX
  5
15CE
330
15CC
100
AcDbEntity
  8
LOGO
 62
     5
100
AcDbVertex
100
AcDb2dVertex
 10
639.9223721322091
 20
59.57098671140398
 30
0.0
 42
1.0
  0
SEQEND
  5
15CF
330
15CC
100
AcDbEntity
  8
LOGO
 62
     5
  0
SOLID
  5
15D0
330
1F
100
AcDbEntity
  8
LOGO
 62
     5
100
AcDbTrace
 10
639.8102149089211
 20
60.0217828938958
 30
0.0
 11
640.0356130001666
 21
60.0217828938958
 31
0.0
 12
639.8102149089211
 22
58.89479243766633
 32
0.0
 13
640.0356130001666
 23
58.89479243766633
 33
0.0
  0
SOLID
  5
15D1
330
1F
100
AcDbEntity
  8
LOGO
 62
     5
100
AcDbTrace
 10
640.4864091826588
 20
59.57098671140398
 30
0.0
 11
640.7118072739051
 21
59.57098671140398
 31
0.0
 12
640.4864091826588
 22
58.89479243766633
 32
0.0
 13
640.7118072739051
 23
58.89479243766633
 33
0.0
  0
POLYLINE
  5
15D2
330
1F
100
AcDbEntity
  8
LOGO
 62
     5
100
AcDb2dPolyline
 66
     1
 10
0.0
 20
0.0
 30
0.0
 70
     1
 40
0.2257593061357465
 41
0.2257593061357465
  0
VERTEX
  5
15D3
330
15D2
100
AcDbEntity
  8
LOGO
 62
     5
100
AcDbVertex
100
AcDb2dVertex
 10
641.0867783826136
 20
59.45828766578089
 30
0.0
 42
1.0
  0
VERTEX
  5
15D4
330
15D2
100
AcDbEntity
  8
LOGO
 62
     5
100
AcDbVertex
100
AcDb2dVertex
 10
641.9898156071567
 20
59.45828766578089
 30
0.0
 42
1.0
  0
SEQEND
  5
15D5
330
15D2
100
AcDbEntity
  8
LOGO
 62
     5
  0
SOLID
  5
15D6
330
1F
100
AcDbEntity
  8
LOGO
 62
     5
100
AcDbTrace
 10
641.8763715919451
 20
60.35988003076489
 30
0.0
 11
642.101769683191
 21
60.35988003076489
 31
0.0
 12
641.8763715919451
 22
58.89479243766633
 32
0.0
 13
642.101769683191
 23
58.89479243766633
 33
0.0
  0
SOLID
  5
15D7
330
1F
100
AcDbEntity
  8
LOGO
 62
     5
100
AcDbTrace
 10
642.3647416362483
 20
60.0217828938958
 30
0.0
 11
642.5901397274937
 21
60.0217828938958
 31
0.0
 12
642.3647416362483
 22
58.89479243766633
 32
0.0
 13
642.5901397274937
 23
58.89479243766633
 33
0.0
  0
SOLID
  5
15D8
330
1F
100
AcDbEntity
  8
LOGO
 62
     5
100
AcDbTrace
 10
643.0409359099854
 20
59.57098671140398
 30
0.0
 11
643.2663340012315
 21
59.57098671140398
 31
0.0
 12
643.0409359099854
 22
58.89479243766633
 32
0.0
 13
643.2663340012315
 23
58.89479243766633
 33
0.0
  0
SOLID
  5
15D9
330
1F
100
AcDbEntity
  8
LOGO
 62
     5
100
AcDbTrace
 10
643.7171301837232
 20
59.57098671140398
 30
0.0
 11
643.942528274969
 21
59.57098671140398
 31
0.0
 12
643.7171301837232
 22
58.89479243766598
 32
0.0
 13
643.942528274969
 23
58.89479243766598
 33
0.0
  0
SOLID
  5
15DA
330
1F
100
AcDbEntity
  8
LOGO
 62
     5
100
AcDbTrace
 10
639.3218448646183
 20
60.17956155776802
 30
0.0
 11
639.5472429558649
 21
60.17956155776802
 31
0.0
 12
639.3218448646183
 22
60.35988003076489
 32
0.0
 13
639.5472429558649
 23
60.35988003076489
 33
0.0
  0
SOLID
  5
15DB
330
1F
100
AcDbEntity
  8
LOGO
 62
     5
100
AcDbTrace
 10
639.3218448646183
 20
60.0217828938958
 30
0.0
 11
639.5472429558649
 21
60.0217828938958
 31
0.0
 12
639.3218448646183
 22
58.89479243766598
 32
0.0
 13
639.5472429558649
 23
58.89479243766633
 33
0.0
  0
SOLID
  5
15DC
330
1F
100
AcDbEntity
  8
LOGO
 62
     5
100
AcDbTrace
 10
641.5382969948849
 20
61.14877335012547
 30
0.0
 11
642.1919514594986
 21
61.14877335012547
 31
0.0
 12
641.5382969948849
 22
64.45461202173226
 32
0.0
 13
642.1919514594986
 23
66.85134505864737
 33
0.0
  0
SOLID
  5
15DD
330
1F
100
AcDbEntity
  8
LOGO
 62
     5
100
AcDbTrace
 10
642.4624291689939
 20
67.34722085938833
 30
0.0
 11
643.1160836336069
 21
67.34722085938866
 31
0.0
 12
642.4624291689939
 22
61.64464915086643
 32
0.0
 13
643.1160836336069
 23
64.04138218778152
 33
0.0
  0
SOLID
  5
15DE
330
1F
100
AcDbEntity
  8
LOGO
 62
     2
100
AcDbTrace
 10
642.1919514594986
 20
67.34722085938833
 30
0.0
 11
642.4624291689939
 21
67.34722085938833
 31
0.0
 12
642.1919514594986
 22
61.14877335012547
 32
0.0
 13
642.4624291689939
 23
61.14877335012547
 33
0.0
  0
SOLID
  5
15DF
330
1F
100
AcDbEntity
  8
LOGO
 62
     5
100
AcDbTrace
 10
642.4624291689939
 20
61.64464915086643
 30
0.0
 11
643.1160836336069
 21
64.04138218778152
 31
0.0
 12
645.5729228281873
 22
67.34722085938866
 32
0.0
 13
644.9192683635744
 23
67.34722085938866
 33
0.0
  0
SOLID
  5
15E0
330
1F
100
AcDbEntity
  8
LOGO
 62
     5
100
AcDbTrace
 10
642.4624291689939
 20
61.14877335012547
 30
0.0
 11
643.1160836336069
 21
61.14877335012547
 31
0.0
 12
645.5729228281873
 22
66.85134505864737
 32
0.0
 13
644.9192683635744
 23
64.45461202173226
 33
0.0
  0
SOLID
  5
15E1
330
1F
100
AcDbEntity
  8
LOGO
 62
     2
100
AcDbTrace
 10
642.1919514594986
 20
61.14877335012547
 30
0.0
 11
642.4624291689939
 21
61.14877335012547
 31
0.0
 12
645.5729228281873
 22
67.34722085938866
 32
0.0
 13
645.8434005376828
 23
67.34722085938833
 33
0.0
  0
LWPOLYLINE
  5
15E2
330
1F
100
AcDbEntity
  8
LOGO
 62
     4
100
AcDbPolyline
 90
        4
 70
     1
 43
0.0
 10
636.5888285060369
 20
67.70633891711606
 10
831.5991671406953
 20
67.70633891711608
 10
831.5991671406953
 20
52.58852823838278
 10
636.5888285060369
 20
52.58852823838278
1001
GENIUS_GENREC_14
1002
{
1000
PYDIR
1011
636.5888285060369
1021
52.58852823838278
1031
0.0
1002
}
1002
{
1000
PXDIR
1011
831.5991671406953
1021
67.70633891711608
1031
0.0
1002
}
1002
{
1000
PORI
1011
636.5888285060369
1021
67.70633891711606
1031
0.0
1002
}
1002
{
1000
PINS
1011
636.5888285060369
1021
67.70633891711606
1031
0.0
1002
}
1002
{
1000
PINS2
1011
831.5991671406953
1021
52.58852823838278
1031
0.0
1002
}
1002
{
1000
C
1070
     1
1002
}
1001
GENIUS_GENOBJ-N-REC_13
1002
{
1000
OWNER
1000
GEN
1002
}
1001
GENIUS_GENODEF_13
1002
{
1000
HIER
1070
     0
1002
}
1002
{
1000
MANEDIT
1070
     0
1002
}
1002
{
1000
NOSEL
1070
     0
1002
}
1002
{
1000
BEHIND
1070
     0
1002
}
1002
{
1000
OTHER
1070
     0
1002
}
1002
{
1000
REACTOR
1002
}
  0
LINE
  5
15E3
330
1F
100
AcDbEntity
  8
LOGO
 62
     4
100
AcDbLine
 10
702.3074343247652
 20
59.39154304381307
 30
0.0
 11
702.3074343247652
 21
53.848345794944
 31
0.0
  0
LINE
  5
15E4
330
1F
100
AcDbEntity
  8
LOGO
 62
     4
100
AcDbLine
 10
695.5922691298688
 20
59.39154304381307
 30
0.0
 11
695.5922691298688
 21
53.848345794944
 31
0.0
  0
LINE
  5
15E5
330
1F
100
AcDbEntity
  8
LOGO
 62
     4
100
AcDbLine
 10
702.3074343247652
 20
53.848345794944
 30
0.0
 11
695.5922691298688
 21
53.848345794944
 31
0.0
  0
LINE
  5
15E6
330
1F
100
AcDbEntity
  8
LOGO
 62
     4
100
AcDbLine
 10
707.2504882994171
 20
66.19455784924269
 30
0.0
 11
690.6418896253475
 21
66.19455784924269
 31
0.0
  0
LINE
  5
15E7
330
1F
100
AcDbEntity
  8
LOGO
 62
     4
100
AcDbLine
 10
707.2504882994171
 20
61.65921464562282
 30
0.0
 11
690.6418896253475
 21
61.65921464562282
 31
0.0
  0
LINE
  5
15E8
330
1F
100
AcDbEntity
  8
LOGO
 62
     4
100
AcDbLine
 10
690.6418896253475
 20
66.19455784924269
 30
0.0
 11
690.6418896253475
 21
61.65921464562282
 31
0.0
  0
LINE
  5
15E9
330
1F
100
AcDbEntity
  8
LOGO
 62
     4
100
AcDbLine
 10
707.2504882994171
 20
66.19455784924269
 30
0.0
 11
707.2504882994171
 21
61.65921464562282
 31
0.0
  0
LINE
  5
15EA
330
1F
100
AcDbEntity
  8
LOGO
 62
     4
100
AcDbLine
 10
698.9758628285645
 20
61.65921464562282
 30
0.0
 11
698.9758628285645
 21
59.39154304381307
 31
0.0
  0
TEXT
  5
15EB
330
1F
100
AcDbEntity
  8
LOGO
  6
Continuous
100
AcDbText
 10
692.8850961962633
 20
62.60596090870738
 30
0.0
 40
2.645999999999999
  1
MCHGF
  7
CHINESET
100
AcDbText
  0
LINE
  5
15EC
330
1F
100
AcDbEntity
  8
LOGO
 62
     4
100
AcDbLine
 10
702.3074343247652
 20
59.39154304381307
 30
0.0
 11
695.5922691298688
 21
59.39154304381307
 31
0.0
  0
TEXT
  5
15ED
330
1F
100
AcDbEntity
  8
LOGO
  6
Continuous
100
AcDbText
 10
697.3282092299395
 20
54.63075633199903
 30
99.07964067459765
 40
1.133999999999999
  1
Model
 41
0.8
  7
CHINESET
100
AcDbText
  0
TEXT
  5
15EE
330
1F
100
AcDbEntity
  8
LOGO
100
AcDbText
 10
697.0263752940122
 20
56.73294793755612
 30
99.07964067459765
 40
1.889999999999999
  1
型號
  7
CHINESET
100
AcDbText
  0
TEXT
  5
15F0
330
1F
100
AcDbEntity
  8
LOGO
100
AcDbText
 10
670.5484729062253
 20
53.39278979958749
 30
0.0
 40
1.511999999999999
  1
01206190
 41
0.7
  7
CHINESET
 72
     1
 11
674.2276729062254
 21
53.39278979958749
 31
0.0
100
AcDbText
  0
LINE
  5
15F1
330
1F
100
AcDbEntity
  8
LOGO
 62
     4
100
AcDbLine
 10
678.920011999249
 20
55.61209037412992
 30
0.0
 11
678.9200119992496
 21
52.58852823838312
 31
0.0
  0
LINE
  5
15F2
330
1F
100
AcDbEntity
  8
LOGO
 62
     4
100
AcDbLine
 10
678.920011999249
 20
55.61209037412992
 30
0.0
 11
669.8480119992495
 21
55.61209037412992
 31
0.0
  0
CIRCLE
  5
15F3
330
1F
100
AcDbEntity
  8
LOGO
  6
Continuous
100
AcDbCircle
 10
662.568723284515
 20
63.1742294242633
 30
0.0
 40
0.8777756713223972
  0
CIRCLE
  5
15F4
330
1F
100
AcDbEntity
  8
LOGO
  6
Continuous
100
AcDbCircle
 10
662.568723284515
 20
63.1742294242633
 30
0.0
 40
0.5142988383111914
  0
LINE
  5
15F5
330
1F
100
AcDbEntity
  8
LOGO
100
AcDbLine
 10
668.0847674558868
 20
62.29645375294073
 30
0.0
 11
668.0847674558868
 21
64.05200509558587
 31
0.0
  0
LINE
  5
15F6
330
1F
100
AcDbEntity
  8
LOGO
100
AcDbLine
 10
665.3329911130189
 20
62.65993058595221
 30
0.0
 11
665.3329911130189
 21
63.68852826257458
 31
0.0
  0
LINE
  5
15F7
330
1F
100
AcDbEntity
  8
LOGO
  6
Continuous
100
AcDbLine
 10
665.3329911130189
 20
63.68852826257458
 30
0.0
 11
668.0847674558868
 21
64.05200509558587
 31
0.0
  0
LINE
  5
15F8
330
1F
100
AcDbEntity
  8
LOGO
  6
Continuous
100
AcDbLine
 10
665.3329911130189
 20
62.65993058595221
 30
0.0
 11
668.0847674558868
 21
62.29645375294073
 31
0.0
  0
LINE
  5
15F9
330
1F
100
AcDbEntity
  8
LOGO
  6
AM_ISO08W050x2
 48
0.3
100
AcDbLine
 10
661.3586963779416
 20
63.1742294242633
 30
0.0
 11
663.7787501910887
 21
63.1742294242633
 31
0.0
1001
GENIUS_GENOREF_13
1005
16B6
  0
LINE
  5
15FA
330
1F
100
AcDbEntity
  8
LOGO
  6
AM_ISO08W050x2
 48
0.3
100
AcDbLine
 10
662.568723284515
 20
61.96420251768969
 30
0.0
 11
662.568723284515
 21
64.3842563308369
 31
0.0
1001
GENIUS_GENOREF_13
1005
16B5
  0
LINE
  5
15FB
330
1F
100
AcDbEntity
  8
LOGO
  6
CENTER
 48
0.5
100
AcDbLine
 10
665.112925490855
 20
63.1742294242633
 30
0.0
 11
668.3618624256543
 21
63.1742294242633
 31
0.0
1001
GENIUS_GENOREF_13
1005
16B4
  0
POINT
  5
16B4
330
1F
100
AcDbEntity
  8
0
 60
     1
100
AcDbPoint
 10
-1930.92695728958
 20
-494.9154325062304
 30
0.0
1001
GENIUS_GENOBJ-N-CRS_13
1002
{
1000
OWNER
1000
GEN
1002
}
1001
GENIUS_GENOLIS_13
1002
{
1000
ENT
1005
0
1005
0
1005
0
1005
15FB
1002
}
1001
GENIUS_GENOENT_13
1002
{
1000
MYREF
1005
16B4
1002
}
1002
{
1000
GRP
1005
0
1002
}
1001
GENIUS_GENODEF_13
1002
{
1000
HIER
1070
    10
1002
}
1002
{
1000
MANEDIT
1070
     1
1002
}
1002
{
1000
NOSEL
1070
     0
1002
}
1002
{
1000
BEHIND
1070
     0
1002
}
1002
{
1000
OTHER
1070
     0
1002
}
1002
{
1000
REACTOR
1002
}
  0
POINT
  5
16B5
330
1F
100
AcDbEntity
  8
0
 60
     1
100
AcDbPoint
 10
-1942.251542512434
 20
-486.0398460275941
 30
0.0
1001
GENIUS_GENOBJ-N-CRS_13
1002
{
1000
OWNER
1000
GEN
1002
}
1001
GENIUS_GENOLIS_13
1002
{
1000
ENT
1005
0
1005
0
1005
0
1005
15FA
1002
}
1001
GENIUS_GENOENT_13
1002
{
1000
MYREF
1005
16B5
1002
}
1002
{
1000
GRP
1005
0
1002
}
1001
GENIUS_GENODEF_13
1002
{
1000
HIER
1070
    10
1002
}
1002
{
1000
MANEDIT
1070
     1
1002
}
1002
{
1000
NOSEL
1070
     0
1002
}
1002
{
1000
BEHIND
1070
     0
1002
}
1002
{
1000
OTHER
1070
     0
1002
}
1002
{
1000
REACTOR
1002
}
  0
POINT
  5
16B6
330
1F
100
AcDbEntity
  8
0
 60
     1
100
AcDbPoint
 10
-1935.892868814597
 20
-494.9154325062304
 30
0.0
1001
GENIUS_GENOBJ-N-CRS_13
1002
{
1000
OWNER
1000
GEN
1002
}
1001
GENIUS_GENOLIS_13
1002
{
1000
ENT
1005
0
1005
0
1005
0
1005
15F9
1002
}
1001
GENIUS_GENOENT_13
1002
{
1000
MYREF
1005
16B6
1002
}
1002
{
1000
GRP
1005
0
1002
}
1001
GENIUS_GENODEF_13
1002
{
1000
HIER
1070
    10
1002
}
1002
{
1000
MANEDIT
1070
     1
1002
}
1002
{
1000
NOSEL
1070
     0
1002
}
1002
{
1000
BEHIND
1070
     0
1002
}
1002
{
1000
OTHER
1070
     0
1002
}
1002
{
1000
REACTOR
1002
}
  0
MTEXT
  5
7BA1
330
1F
100
AcDbEntity
  8
AM_VIS
100
AcDbMText
 10
315.4333775501655
 20
376.163241097652
 30
0.0
 40
3.5
 41
0.0
 71
     9
 72
     1
  1

 73
     1
 44
1.0
1001
ACAD
1000
MTEXTBEGIN
1070
    73
1070
     1
1070
    44
1040
1.0
1070
    74
1070
     0
1000
MTEXTEND
  0
LINE
  5
99DA
102
{ACAD_REACTORS
330
A58C
330
ACE1
330
AD19
102
}
330
1F
100
AcDbEntity
  8
AM_7
100
AcDbLine
 10
658.7589642857778
 20
124.8788160134981
 30
0.0
 11
723.7013625477932
 21
124.878816013498
 31
0.0
  0
LINE
  5
99DB
102
{ACAD_REACTORS
330
ABD4
330
ABB8
330
AC29
102
}
330
1F
100
AcDbEntity
  8
AM_7
100
AcDbLine
 10
691.2301634167855
 20
157.3500151445057
 30
0.0
 11
691.2301634167855
 21
92.40761688249028
 31
0.0
  0
LINE
  5
9C94
330
1F
100
AcDbEntity
  8
LOGO
  6
Continuous
 62
     7
100
AcDbLine
 10
708.4929974347897
 20
63.88544649500541
 30
0.0
 11
710.5178910847589
 21
63.88544649500541
 31
0.0
  0
LINE
  5
9C95
330
1F
100
AcDbEntity
  8
LOGO
 62
     4
100
AcDbLine
 10
720.8037047760893
 20
59.31595399041941
 30
0.0
 11
720.8037047760893
 21
53.71116566100752
 31
0.0
  0
LINE
  5
9C96
330
1F
100
AcDbEntity
  8
LOGO
 62
     4
100
AcDbLine
 10
709.1584361669553
 20
59.31595399041941
 30
0.0
 11
709.1584361669553
 21
53.71116566100752
 31
0.0
  0
LINE
  5
9C97
330
1F
100
AcDbEntity
  8
LOGO
 62
     4
100
AcDbLine
 10
720.8037047760893
 20
53.71116566100752
 30
0.0
 11
709.1584361669553
 21
53.71116566100752
 31
0.0
  0
LINE
  5
9C98
330
1F
100
AcDbEntity
  8
LOGO
 62
     4
100
AcDbLine
 10
717.9201950598057
 20
66.19455784924269
 30
0.0
 11
711.8120660443501
 21
66.19455784924269
 31
0.0
  0
LINE
  5
9C99
330
1F
100
AcDbEntity
  8
LOGO
 62
     4
100
AcDbLine
 10
717.9201950598057
 20
61.60882194336038
 30
0.0
 11
711.8120660443501
 21
61.60882194336038
 31
0.0
  0
LINE
  5
9C9A
330
1F
100
AcDbEntity
  8
LOGO
 62
     4
100
AcDbLine
 10
711.8120660443501
 20
66.19455784924269
 30
0.0
 11
711.8120660443501
 21
61.60882194336038
 31
0.0
  0
LINE
  5
9C9B
330
1F
100
AcDbEntity
  8
LOGO
 62
     4
100
AcDbLine
 10
717.9201950598057
 20
66.19455784924269
 30
0.0
 11
717.9201950598057
 21
61.60882194336038
 31
0.0
  0
LINE
  5
9C9C
330
1F
100
AcDbEntity
  8
LOGO
 62
     4
100
AcDbLine
 10
714.616744848151
 20
61.60882194336038
 30
0.0
 11
714.616744848151
 21
59.31595399041941
 31
0.0
  0
LINE
  5
9C9E
330
1F
100
AcDbEntity
  8
LOGO
 62
     4
100
AcDbLine
 10
720.8037047760893
 20
59.31595399041941
 30
0.0
 11
709.1584361669553
 21
59.31595399041941
 31
0.0
  0
TEXT
  5
9C9F
330
1F
100
AcDbEntity
  8
LOGO
  6
Continuous
100
AcDbText
 10
710.1651399395928
 20
54.50226964847427
 30
100.180525570982
 40
1.1466
  1
Body diameter
 41
0.8
  7
CHINESET
100
AcDbText
  0
TEXT
  5
9CA0
330
1F
100
AcDbEntity
  8
LOGO
100
AcDbText
 10
711.0926595350374
 20
56.62781893853737
 30
100.180525570982
 40
1.911
  1
本體寬度
  7
CHINESET
100
AcDbText
  0
TEXT
  5
9CA2
330
1F
100
AcDbEntity
  8
LOGO
  6
Continuous
 62
     7
100
AcDbText
 10
712.9558089728233
 20
62.56608760936828
 30
0.0
 40
2.675399999999999
  1
50
  7
CHINESET
100
AcDbText
  0
DIMENSION
  5
A516
330
1F
100
AcDbEntity
  8
AM_REFDIM
100
AcDbDimension
  2
*D6
 10
695.3301636529691
 20
161.195079327063
 30
0.0
 11
691.2301635348774
 21
163.9614715961027
 31
0.0
 70
    32
 71
     5
 42
8.200000236183541
  3
AM_ISO$0
100
AcDbAlignedDimension
 13
687.1301634167856
 23
151.378816013498
 33
0.0
 14
695.3301636529691
 24
151.3788160134981
 34
0.0
100
AcDbRotatedDimension
1001
ACAD
1000
DSTYLE
1002
{
1070
    40
1040
1.005834825753484
1002
}
  0
DIMENSION
  5
A540
330
1F
100
AcDbEntity
  8
AM_REFDIM
100
AcDbDimension
  2
*D7
 10
698.2301634167856
 20
169.1657741333411
 30
0.0
 11
691.2301634167857
 21
171.9318199041631
 31
0.0
 70
    32
 71
     5
 42
14.0
  3
AM_ISO$0
100
AcDbAlignedDimension
 13
684.2301634167856
 23
151.378816013498
 33
0.0
 14
698.2301634167856
 24
151.3788160134981
 34
0.0
100
AcDbRotatedDimension
1001
ACAD
1000
DSTYLE
1002
{
1070
    40
1040
1.005834825753484
1002
}
  0
DIMENSION
  5
A57E
102
{ACAD_XDICTIONARY
360
A58B
102
}
102
{ACAD_REACTORS
330
A58C
102
}
330
1F
100
AcDbEntity
  8
AM_REFDIM
100
AcDbDimension
  2
*D8
 10
752.4928568946549
 20
98.37881601349806
 30
0.0
 11
752.4928568946549
 21
111.628816013498
 31
0.0
 70
   160
  1
MIN:<>\PMAX:30.5\P
 71
     5
 42
26.49999999999991
  3
AM_ISO$0
100
AcDbAlignedDimension
 13
723.7013625477932
 23
124.878816013498
 33
0.0
 14
698.2301634167858
 24
98.37881601349806
 34
0.0
 50
89.9999999999998
100
AcDbRotatedDimension
1001
ACAD
1000
DSTYLE
1002
{
1070
    40
1040
1.005834825753484
1002
}
  0
DIMENSION
  5
A622
330
1F
100
AcDbEntity
  8
AM_REFDIM
100
AcDbDimension
  2
*D9
 10
802.47892391577
 20
159.3492018069364
 30
0.0
 11
782.9789235134386
 21
162.1152475777585
 31
0.0
 70
    32
 71
     5
 42
39.0000008046627
  3
AM_ISO$0
100
AcDbAlignedDimension
 13
763.4789231111072
 23
149.0333189119527
 33
0.0
 14
802.47892391577
 24
149.8788163860271
 34
0.0
100
AcDbRotatedDimension
1001
ACAD
1000
DSTYLE
1002
{
1070
    40
1040
1.005834825753484
1002
}
  0
DIMENSION
  5
A67B
330
1F
100
AcDbEntity
  8
AM_REFDIM
100
AcDbDimension
  2
*D10
 10
814.4789249157701
 20
99.87881564096907
 30
0.0
 11
811.7128791449481
 21
124.8788160134982
 31
0.0
 70
    32
 71
     5
 42
50.00000074505805
  3
AM_ISO$0
100
AcDbAlignedDimension
 13
802.47892391577
 23
149.8788163860271
 33
0.0
 14
802.47892391577
 24
99.87881564096907
 34
0.0
 50
90.0
100
AcDbRotatedDimension
1001
ACAD
1000
DSTYLE
1002
{
1070
    40
1040
1.005834825753484
1002
}
  0
DIMENSION
  5
A6A1
330
1F
100
AcDbEntity
  8
AM_REFDIM
100
AcDbDimension
  2
*D11
 10
774.4789230515026
 20
86.37881632642239
 30
0.0
 11
788.4789234836363
 21
89.145208595462
 31
0.0
 70
    32
 71
     5
 42
28.00000086426735
  3
AM_ISO$0
100
AcDbAlignedDimension
 13
802.47892391577
 23
99.87881564096907
 33
0.0
 14
774.4789230515026
 24
98.37881632642249
 34
0.0
100
AcDbRotatedDimension
1001
ACAD
1000
DSTYLE
1002
{
1070
    40
1040
1.005834825753484
1002
}
  0
DIMENSION
  5
A724
330
1F
100
AcDbEntity
  8
AM_REFDIM
100
AcDbDimension
  2
*D12
 10
763.4789231111072
 20
159.349201806936
 30
0.0
 11
762.4789230636098
 21
159.349201806936
 31
0.0
 70
   160
 71
     5
 42
2.000000094994902
  3
AM_ISO$0
100
AcDbAlignedDimension
 13
761.4789230161123
 23
134.8788157899807
 33
0.0
 14
763.4789231111072
 24
149.0333186993329
 34
0.0
100
AcDbRotatedDimension
1001
ACAD
1000
DSTYLE
1002
{
1070
    40
1040
1.005834825753484
1002
}
  0
DIMENSION
  5
A77B
330
1F
100
AcDbEntity
  8
AM_REFDIM
100
AcDbDimension
  2
*D13
 10
728.9453601130877
 20
107.3788157005737
 30
0.0
 11
728.9453601130877
 21
110.3788157005738
 31
0.0
 70
   160
 71
     5
 42
6.0
  3
AM_ISO$0
100
AcDbAlignedDimension
 13
691.2301636328526
 23
113.3788157005737
 33
0.0
 14
691.2301636328526
 24
107.3788157005737
 34
0.0
 50
90.0
100
AcDbRotatedDimension
1001
ACAD
1000
DSTYLE
1002
{
1070
    40
1040
1.005834825753484
1002
}
  0
DIMENSION
  5
A7A5
330
1F
100
AcDbEntity
  8
AM_REFDIM
100
AcDbDimension
  2
*D14
 10
736.1029818586216
 20
101.3788157005736
 30
0.0
 11
736.1029818586216
 21
107.3788157005736
 31
0.0
 70
   160
 71
     5
 42
12.0
  3
AM_ISO$0
100
AcDbAlignedDimension
 13
691.2301636328526
 23
113.3788157005737
 33
0.0
 14
691.2301636328526
 24
101.3788157005736
 34
0.0
 50
90.0
100
AcDbRotatedDimension
1001
ACAD
1000
DSTYLE
1002
{
1070
    40
1040
1.005834825753484
1002
}
  0
DIMENSION
  5
A7CB
330
1F
100
AcDbEntity
  8
AM_REFDIM
100
AcDbDimension
  2
*D15
 10
726.3673449814738
 20
98.37881601349806
 30
0.0
 11
726.3673449814738
 21
99.87881585703599
 31
0.0
 70
   160
 71
     5
 42
2.999999687075614
  3
AM_ISO$0
100
AcDbAlignedDimension
 13
691.2301636328526
 23
101.3788157005736
 33
0.0
 14
698.2301638489194
 24
98.37881601349806
 34
0.0
 50
90.0
100
AcDbRotatedDimension
1001
ACAD
1000
DSTYLE
1002
{
1070
    40
1040
1.005834825753484
1002
}
  0
LEADER
  5
A889
330
1F
100
AcDbEntity
  8
AM_REFDIM
100
AcDbLeader
  3
AM_ISO$7
 76
     3
 10
692.1842600422877
 20
149.1864047883121
 30
0.0
 10
703.7076407799694
 20
160.8487096210383
 30
0.0
 10
734.1008623101198
 20
160.8487096210383
 30
0.0
1001
ACAD
1000
DSTYLE
1002
{
1070
   147
1040
1.0
1070
    77
1070
     1
1070
    43
1040
12.0
1070
   271
1070
     1
1070
   272
1070
     8
1002
}
  0
MTEXT
  5
A88C
330
1F
100
AcDbEntity
  8
AM_REFDIM
100
AcDbMText
 10
704.518801582157
 20
164.6725540252369
 30
0.0
 40
3.0
 41
33.65203381816716
 71
     1
 72
     5
  1
4X2-M3X0.5 DP7
 73
     1
 44
1.0
1001
ACAD
1000
MTEXTBEGIN
1070
    73
1070
     1
1070
    44
1040
1.0
1070
    74
1070
     0
1000
MTEXTEND
  0
LEADER
  5
A890
330
1F
100
AcDbEntity
  8
AM_REFDIM
100
AcDbLeader
  3
AM_ISO$7
 76
     3
 10
703.7301634167858
 20
144.7313748967557
 30
0.0
 10
709.4960912652734
 20
151.9524994739736
 30
0.0
 10
746.9460380659685
 20
151.9524994739736
 30
0.0
1001
ACAD
1000
DSTYLE
1002
{
1070
   147
1040
1.0
1070
    77
1070
     1
1070
    43
1040
12.0
1070
   271
1070
     1
1070
   272
1070
     8
1002
}
  0
MTEXT
  5
A895
330
1F
100
AcDbEntity
  8
AM_REFDIM
100
AcDbMText
 10
711.42442997306
 20
156.2170888617789
 30
0.0
 40
3.0
 41
38.59614173293908
 71
     1
 72
     5
  1
%%C3.4 thru\P%%C7 C/B DP5 P.C.D 44
 73
     1
 44
1.0
1001
ACAD
1000
MTEXTBEGIN
1070
    73
1070
     1
1070
    44
1040
1.0
1070
    74
1070
     0
1000
MTEXTEND
  0
LINE
  5
AA50
330
1F
100
AcDbEntity
  8
0
  6
Continuous
 62
     7
370
    15
100
AcDbLine
 10
802.47892391577
 20
149.8788163860271
 30
0.0
 11
774.4789230515026
 21
149.8788163860271
 31
0.0
  0
LINE
  5
AA51
330
1F
100
AcDbEntity
  8
0
  6
Continuous
 62
     7
370
    15
100
AcDbLine
 10
774.4789230515026
 20
99.87881564096905
 30
0.0
 11
802.47892391577
 21
99.87881564096905
 31
0.0
  0
LINE
  5
AA52
330
1F
100
AcDbEntity
  8
0
  6
Continuous
 62
     7
370
    15
100
AcDbLine
 10
763.9789231348559
 20
114.0923413311074
 30
0.0
 11
802.4789239157698
 21
114.0923413311074
 31
0.0
  0
LINE
  5
AA53
330
1F
100
AcDbEntity
  8
0
  6
Continuous
 62
     7
370
    15
100
AcDbLine
 10
802.4789239157698
 20
112.1981010635326
 30
0.0
 11
763.4789231111072
 21
112.1981010635326
 31
0.0
  0
LINE
  5
AA54
330
1F
100
AcDbEntity
  8
0
  6
Continuous
 62
     7
370
    15
100
AcDbLine
 10
802.4789239157698
 20
111.4684824694822
 30
0.0
 11
763.9789231348559
 21
111.4684824694822
 31
0.0
  0
LINE
  5
AA55
330
1F
100
AcDbEntity
  8
0
  6
Continuous
 62
     7
370
    15
100
AcDbLine
 10
802.47892391577
 20
113.6657983859012
 30
0.0
 11
763.4789231111072
 21
113.6657983859012
 31
0.0
  0
INSERT
  5
AA56
330
1F
100
AcDbEntity
  8
0
100
AcDbBlockReference
  2
A$C0A1C40CF
 10
664.7301638400264
 20
98.37881608198046
 30
0.0
  0
INSERT
  5
AA57
330
1F
100
AcDbEntity
  8
0
100
AcDbBlockReference
  2
A$C08257646
 10
761.4789231857599
 20
98.37881639490484
 30
0.0
  0
LINE
  5
AB9A
102
{ACAD_REACTORS
330
A58C
330
ABB8
330
ACE1
102
}
330
1F
100
AcDbEntity
  8
AM_7
100
AcDbLine
 10
671.4197948239066
 20
108.2559430337269
 30
0.0
 11
691.2301634167855
 21
124.8788160134979
 31
0.0
  0
LINE
  5
AB9B
102
{ACAD_REACTORS
330
ABD4
330
ADD8
102
}
330
1F
100
AcDbEntity
  8
AM_7
100
AcDbLine
 10
705.5519500229768
 20
100.0727539564158
 30
0.0
 11
691.2301634167858
 21
124.8788160134981
 31
0.0
  0
DIMENSION
  5
AB9D
102
{ACAD_XDICTIONARY
360
ABAC
102
}
102
{ACAD_REACTORS
330
ABB8
102
}
330
1F
100
AcDbEntity
  8
AM_REFDIM
100
AcDbDimension
  2
*D18
 10
691.2301634167855
 20
124.8788160134979
 30
0.0
 11
673.058491165262
 21
86.30882929093619
 31
0.0
 70
   162
 71
     5
 42
0.8726646259971557
  3
AM_ISO$2
100
AcDb2LineAngularDimension
 13
691.2301634167855
 23
157.3500151445057
 33
0.0
 14
691.2301634167854
 24
86.92119351608488
 34
0.0
 15
671.4197948239066
 25
108.2559430337269
 35
0.0
 16
679.0019365268316
 26
84.03369371813454
 36
0.0
1001
ACAD
1000
DSTYLE
1002
{
1070
    43
1040
12.0
1070
   271
1070
     1
1070
   272
1070
     8
1002
}
  0
DIMENSION
  5
ABB9
102
{ACAD_XDICTIONARY
360
ABC8
102
}
102
{ACAD_REACTORS
330
ABD4
102
}
330
1F
100
AcDbEntity
  8
AM_REFDIM
100
AcDbDimension
  2
*D19
 10
691.2301634167855
 20
92.40761688249028
 30
0.0
 11
699.0897206560545
 21
95.54654907154974
 31
0.0
 70
    34
 71
     5
 42
0.5235987755983027
  3
AM_ISO$2
100
AcDb2LineAngularDimension
 13
705.5519500229768
 23
100.0727539564158
 33
0.0
 14
691.2301634167858
 24
124.8788160134981
 34
0.0
 15
691.2301634167855
 25
157.3500151445057
 35
0.0
 16
697.0676937335134
 26
91.77253645677144
 36
0.0
1001
ACAD
1000
DSTYLE
1002
{
1070
    43
1040
12.0
1070
   271
1070
     1
1070
   272
1070
     8
1002
}
  0
LINE
  5
ABF6
102
{ACAD_REACTORS
330
ABD4
330
ABB8
330
AC29
102
}
330
1F
100
AcDbEntity
  8
AM_7
100
AcDbLine
 10
705.3048224163952
 20
149.2568405000282
 30
0.0
 11
677.1555044171757
 21
100.500791526967
 31
0.0
  0
LINE
  5
ABF8
102
{ACAD_REACTORS
330
AD19
330
ADD8
102
}
330
1F
100
AcDbEntity
  8
AM_7
100
AcDbLine
 10
666.8521389302553
 20
138.9534750131079
 30
0.0
 11
715.6081879033165
 21
110.8041570138885
 31
0.0
  0
DIMENSION
  5
AC0E
102
{ACAD_XDICTIONARY
360
AC1D
102
}
102
{ACAD_REACTORS
330
AC29
102
}
330
1F
100
AcDbEntity
  8
AM_REFDIM
100
AcDbDimension
  2
*D20
 10
677.1555044171757
 20
100.500791526967
 30
0.0
 11
683.337724252848
 21
95.42383205803742
 31
0.0
 70
    34
 71
     5
 42
0.5235987755983019
  3
AM_ISO$2
100
AcDb2LineAngularDimension
 13
691.2301634167855
 23
157.3500151445057
 33
0.0
 14
691.2301634167855
 24
92.40761688249028
 34
0.0
 15
705.3048224163952
 25
149.2568405000282
 35
0.0
 16
679.6890208965926
 26
93.16978754456016
 36
0.0
1001
ACAD
1000
DSTYLE
1002
{
1070
    43
1040
12.0
1070
   271
1070
     1
1070
   272
1070
     8
1002
}
  0
DIMENSION
  5
ACC6
102
{ACAD_XDICTIONARY
360
ACD5
102
}
102
{ACAD_REACTORS
330
ACE1
102
}
330
1F
100
AcDbEntity
  8
AM_REFDIM
100
AcDbDimension
  2
*D21
 10
723.7013625477932
 20
124.878816013498
 30
0.0
 11
654.2191537816856
 21
111.4079101661818
 31
0.0
 70
    34
 71
     5
 42
0.6981317007977435
  3
AM_ISO$2
100
AcDb2LineAngularDimension
 13
671.4197948239066
 23
108.2559430337269
 33
0.0
 14
691.2301634167855
 24
124.8788160134979
 34
0.0
 15
658.7589642857778
 25
124.8788160134981
 35
0.0
 16
649.7431364433416
 26
115.0462099957562
 36
0.0
1001
ACAD
1000
DSTYLE
1002
{
1070
    43
1040
12.0
1070
   271
1070
     1
1070
   272
1070
     8
1002
}
  0
DIMENSION
  5
ACFE
102
{ACAD_XDICTIONARY
360
AD0D
102
}
102
{ACAD_REACTORS
330
AD19
102
}
330
1F
100
AcDbEntity
  8
AM_REFDIM
100
AcDbDimension
  2
*D22
 10
715.6081879033165
 20
110.8041570138885
 30
0.0
 11
646.627276084966
 21
136.8301236541556
 31
0.0
 70
    34
 71
     5
 42
0.523598775598297
  3
AM_ISO$2
100
AcDb2LineAngularDimension
 13
658.7589642857778
 23
124.8788160134981
 33
0.0
 14
723.7013625477932
 24
124.878816013498
 34
0.0
 15
666.8521389302553
 25
138.9534750131079
 35
0.0
 16
650.8926296490251
 26
139.5604776286709
 36
0.0
1001
ACAD
1000
DSTYLE
1002
{
1070
    43
1040
12.0
1070
   271
1070
     1
1070
   272
1070
     8
1002
}
  0
DIMENSION
  5
ADBD
102
{ACAD_XDICTIONARY
360
ADCC
102
}
102
{ACAD_REACTORS
330
ADD8
102
}
330
1F
100
AcDbEntity
  8
AM_REFDIM
100
AcDbDimension
  2
*D23
 10
715.6081879033165
 20
110.8041570138885
 30
0.0
 11
712.7113155894741
 21
103.3976638408098
 31
0.0
 70
    34
 71
     5
 42
0.5235987755982983
  3
AM_ISO$2
100
AcDb2LineAngularDimension
 13
705.5519500229768
 23
100.0727539564158
 33
0.0
 14
691.2301634167858
 24
124.8788160134981
 34
0.0
 15
666.8521389302553
 25
138.9534750131079
 35
0.0
 16
712.8464272789149
 26
99.11755589734134
 36
0.0
1001
ACAD
1000
DSTYLE
1002
{
1070
    43
1040
12.0
1070
   271
1070
     1
1070
   272
1070
     8
1002
}
  0
ENDSEC
  0
SECTION
  2
OBJECTS
  0
DICTIONARY
  5
C
330
0
100
AcDbDictionary
281
     1
  3
ACAD_COLOR
350
BE
  3
ACAD_GROUP
350
D
  3
ACAD_LAYOUT
350
1A
  3
ACAD_MATERIAL
350
BD
  3
ACAD_MLINESTYLE
350
17
  3
ACAD_PLOTSETTINGS
350
19
  3
ACAD_PLOTSTYLENAME
350
E
  3
ACAD_TABLESTYLE
350
11A
  3
AcadDim
350
7BA5
  3
ACDBHEADERROUNDTRIPXREC
350
AE98
  3
AcDbVariableDictionary
350
94
  3
AcmDictionary
350
5B
  3
AMG
350
41
  3
AMGSNAPSETTINGS
350
1B8
  3
DWGPROPS
350
AE97
  3
MAPISURF_MODULE
350
7C9D
  0
DICTIONARY
  5
3F9
330
2
100
AcDbDictionary
280
     1
281
     1
  3
ACAD_LAYERFILTERS
360
99D5
  3
ACAD_LAYERSTATES
360
CA0
  3
ACLYDICTIONARY
360
99D4
  3
AMLAYER_GROUPCOLORS
360
18A7
  0
DICTIONARY
  5
8F
330
1F
100
AcDbDictionary
280
     1
281
     1
  3
ACAD_INDEX
360
853B
  3
ACAD_SORTENTS
360
18D9
  0
DICTIONARY
  5
7CF3
330
7CF2
100
AcDbDictionary
280
     1
281
     1
  0
DICTIONARY
  5
A58B
330
A57E
100
AcDbDictionary
280
     1
281
     1
  3
ACAD_DIMASSOC
360
A58C
  0
DICTIONARY
  5
ABAC
330
AB9D
100
AcDbDictionary
280
     1
281
     1
  3
ACAD_DIMASSOC
360
ABB8
  0
DICTIONARY
  5
ABC8
330
ABB9
100
AcDbDictionary
280
     1
281
     1
  3
ACAD_DIMASSOC
360
ABD4
  0
DICTIONARY
  5
AC1D
330
AC0E
100
AcDbDictionary
280
     1
281
     1
  3
ACAD_DIMASSOC
360
AC29
  0
DICTIONARY
  5
ACD5
330
ACC6
100
AcDbDictionary
280
     1
281
     1
  3
ACAD_DIMASSOC
360
ACE1
  0
DICTIONARY
  5
AD0D
330
ACFE
100
AcDbDictionary
280
     1
281
     1
  3
ACAD_DIMASSOC
360
AD19
  0
DICTIONARY
  5
ADCC
330
ADBD
100
AcDbDictionary
280
     1
281
     1
  3
ACAD_DIMASSOC
360
ADD8
  0
DICTIONARY
  5
BE
102
{ACAD_REACTORS
330
C
102
}
330
C
100
AcDbDictionary
281
     1
  0
DICTIONARY
  5
D
102
{ACAD_REACTORS
330
C
102
}
330
C
100
AcDbDictionary
281
     1
  0
DICTIONARY
  5
1A
102
{ACAD_REACTORS
330
C
102
}
330
C
100
AcDbDictionary
281
     1
  3
Model
350
22
  3
配置1
350
1E
  3
配置2
350
26
  0
DICTIONARY
  5
BD
102
{ACAD_REACTORS
330
C
102
}
330
C
100
AcDbDictionary
281
     1
  0
DICTIONARY
  5
17
102
{ACAD_REACTORS
330
C
102
}
330
C
100
AcDbDictionary
281
     1
  3
Standard
350
18
  0
DICTIONARY
  5
19
102
{ACAD_REACTORS
330
C
102
}
330
C
100
AcDbDictionary
281
     1
  0
ACDBDICTIONARYWDFLT
  5
E
102
{ACAD_REACTORS
330
C
102
}
330
C
100
AcDbDictionary
281
     1
  3
Normal
350
F
100
AcDbDictionaryWithDefault
340
F
  0
DICTIONARY
  5
11A
102
{ACAD_REACTORS
330
C
102
}
330
C
100
AcDbDictionary
281
     1
  3
Standard
350
11B
  0
XRECORD
  5
7BA5
102
{ACAD_REACTORS
330
C
102
}
330
C
100
AcDbXrecord
280
     1
 90
   990106
  3

 60
     4
 61
     0
 62
     4
 63
     4
 64
     1
 65
     0
 66
     0
 67
     3
 68
     0
 69
     0
 70
     0
 71
     0
 72
     0
 40
0.0
170
     0
340
7BA1
  0
DICTIONARY
  5
AE98
102
{ACAD_REACTORS
330
C
102
}
330
C
100
AcDbDictionary
281
     1
  0
DICTIONARY
  5
94
102
{ACAD_REACTORS
330
C
102
}
330
C
100
AcDbDictionary
281
     1
  3
CTABLESTYLE
350
138
  3
DIMASSOC
350
96
  3
INDEXCTL
350
95
  3
PROJECTNAME
350
1BA0
  0
DICTIONARY
  5
5B
102
{ACAD_REACTORS
330
C
102
}
330
C
100
AcDbDictionary
281
     1
  3
AcmBOM
350
1B5
  3
AcmStdDictionary
350
61
  3
AMDTSECTSYM_ARROWCOLOR
350
123
  0
DICTIONARY
  5
41
102
{ACAD_REACTORS
330
C
102
}
330
C
100
AcDbDictionary
281
     1
  3
AcMgSettings
350
7C17
  0
DICTIONARY
  5
1B8
102
{ACAD_REACTORS
330
C
102
}
330
C
100
AcDbDictionary
281
     1
  0
XRECORD
  5
AE97
102
{ACAD_REACTORS
330
C
102
}
330
C
100
AcDbXrecord
280
     1
  1
DWGPROPS COOKIE
  2

  3

  4

  6

  7

  8

  9

300
AmdtFileType=84
301
=
302
=
303
=
304
=
305
=
306
=
307
=
308
=
309
=
 40
1.080294085648148
 41
2454422.344345151
 42
2456758.602658958
  1

 90
        1
  0
DICTIONARY
  5
99D5
102
{ACAD_REACTORS
330
3F9
102
}
330
3F9
100
AcDbDictionary
281
     1
  0
DICTIONARY
  5
CA0
102
{ACAD_REACTORS
330
3F9
102
}
330
3F9
100
AcDbDictionary
281
     1
  0
DICTIONARY
  5
99D4
102
{ACAD_REACTORS
330
3F9
102
}
330
3F9
100
AcDbDictionary
281
     1
1001
ACAD
1000
<All
  0
DICTIONARY
  5
18A7
102
{ACAD_REACTORS
330
3F9
102
}
330
3F9
100
AcDbDictionary
280
     1
281
     1
  0
DICTIONARY
  5
853B
102
{ACAD_REACTORS
330
8F
102
}
330
8F
100
AcDbDictionary
281
     1
  3
*A1
350
853C
  0
SORTENTSTABLE
  5
18D9
102
{ACAD_REACTORS
330
8F
102
}
330
8F
100
AcDbSortentsTable
330
1F
331
15E2
  5
15E2
331
15C4
  5
15C4
331
15A6
  5
15A6
331
15ED
  5
15ED
331
15F7
  5
15F7
331
159D
  5
159D
331
15D9
  5
15D9
331
15E3
  5
15E3
331
15A7
  5
15A7
331
15A8
  5
15A8
331
15EE
  5
15EE
331
15D0
  5
15D0
331
15DA
  5
15DA
331
159E
  5
159E
331
15F8
  5
15F8
331
15E4
  5
15E4
331
15A9
  5
15A9
331
15D1
  5
15D1
331
15F9
  5
15F9
331
15DB
  5
15DB
331
15BD
  5
15BD
331
159F
  5
159F
331
7BA1
  5
7BA1
331
15E5
  5
15E5
331
15AA
  5
15AA
331
15C8
  5
15C8
331
15D2
  5
15D2
331
15B4
  5
15B4
331
15F0
  5
15F0
331
15FA
  5
15FA
331
15DC
  5
15DC
331
15BE
  5
15BE
331
15A0
  5
15A0
331
15E6
  5
15E6
331
15AB
  5
15AB
331
15F1
  5
15F1
331
15FB
  5
15FB
331
15DD
  5
15DD
331
15BF
  5
15BF
331
15A1
  5
15A1
331
15E7
  5
15E7
331
15AC
  5
15AC
331
15E8
  5
15E8
331
15F2
  5
15F2
331
15DE
  5
15DE
331
15C0
  5
15C0
331
15A2
  5
15A2
331
15E9
  5
15E9
331
15AD
  5
15AD
331
15F3
  5
15F3
331
1599
  5
1599
331
15DF
  5
15DF
331
15A3
  5
15A3
331
15C1
  5
15C1
331
15EA
  5
15EA
331
15CC
  5
15CC
331
15AE
  5
15AE
331
15F4
  5
15F4
331
15D6
  5
15D6
331
15B8
  5
15B8
331
159A
  5
159A
331
15C2
  5
15C2
331
15A4
  5
15A4
331
15E0
  5
15E0
331
15EB
  5
15EB
331
15AF
  5
15AF
331
15F5
  5
15F5
331
15D7
  5
15D7
331
159B
  5
159B
331
15B9
  5
15B9
331
15C3
  5
15C3
331
15A5
  5
15A5
331
15E1
  5
15E1
331
15EC
  5
15EC
331
15B0
  5
15B0
331
15F6
  5
15F6
331
159C
  5
159C
331
15D8
  5
15D8
  0
DIMASSOC
  5
A58C
102
{ACAD_REACTORS
330
A58B
102
}
330
A58B
100
AcDbDimAssoc
330
A57E
 90
        1
 70
     0
 71
     0
  1
AcDbOsnapPointRef
 72
     1
331
99DA
 73
     0
 91
        0
 40
0.0
 10
0.0
 20
0.0
 30
2.000000000000000E+50
 75
     0
  0
DIMASSOC
  5
ABB8
102
{ACAD_REACTORS
330
ABAC
102
}
330
ABAC
100
AcDbDimAssoc
330
AB9D
 90
       13
 70
     0
 71
     0
  1
AcDbOsnapPointRef
 72
    13
331
99DB
 73
     2
 91
        0
 40
0.0
 10
0.0
 20
0.0
 30
2.000000000000000E+50
 75
     0
  1
AcDbOsnapPointRef
 72
    13
331
AB9A
 73
     2
 91
        0
 40
0.0
 10
0.0
 20
0.0
 30
2.000000000000000E+50
 75
     0
  1
AcDbOsnapPointRef
 72
     1
331
AB9A
 73
     2
 91
        0
 40
1.0
 10
0.0
 20
0.0
 30
2.000000000000000E+50
 75
     0
  0
DIMASSOC
  5
ABD4
102
{ACAD_REACTORS
330
ABC8
102
}
330
ABC8
100
AcDbDimAssoc
330
ABB9
 90
       15
 70
     0
 71
     0
  1
AcDbOsnapPointRef
 72
    13
331
AB9B
 73
     2
 91
        0
 40
0.0
 10
0.0
 20
0.0
 30
2.000000000000000E+50
 75
     0
  1
AcDbOsnapPointRef
 72
     1
331
AB9B
 73
     2
 91
        0
 40
1.0
 10
0.0
 20
0.0
 30
2.000000000000000E+50
 75
     0
  1
AcDbOsnapPointRef
 72
    13
331
99DB
 73
     2
 91
        0
 40
0.0
 10
0.0
 20
0.0
 30
2.000000000000000E+50
 75
     0
  1
AcDbOsnapPointRef
 72
     1
331
99DB
 73
     2
 91
        0
 40
1.0
 10
0.0
 20
0.0
 30
2.000000000000000E+50
 75
     0
  0
DIMASSOC
  5
AC29
102
{ACAD_REACTORS
330
AC1D
102
}
330
AC1D
100
AcDbDimAssoc
330
AC0E
 90
       15
 70
     0
 71
     0
  1
AcDbOsnapPointRef
 72
    13
331
99DB
 73
     2
 91
        0
 40
0.0
 10
0.0
 20
0.0
 30
2.000000000000000E+50
 75
     0
  1
AcDbOsnapPointRef
 72
     1
331
99DB
 73
     2
 91
        0
 40
1.0
 10
0.0
 20
0.0
 30
2.000000000000000E+50
 75
     0
  1
AcDbOsnapPointRef
 72
    13
331
ABF6
 73
     2
 91
        0
 40
0.0
 10
0.0
 20
0.0
 30
2.000000000000000E+50
 75
     0
  1
AcDbOsnapPointRef
 72
     1
331
ABF6
 73
     2
 91
        0
 40
1.0
 10
0.0
 20
0.0
 30
2.000000000000000E+50
 75
     0
  0
DIMASSOC
  5
ACE1
102
{ACAD_REACTORS
330
ACD5
102
}
330
ACD5
100
AcDbDimAssoc
330
ACC6
 90
       15
 70
     0
 71
     0
  1
AcDbOsnapPointRef
 72
    13
331
AB9A
 73
     2
 91
        0
 40
0.0
 10
0.0
 20
0.0
 30
2.000000000000000E+50
 75
     0
  1
AcDbOsnapPointRef
 72
     1
331
AB9A
 73
     2
 91
        0
 40
1.0
 10
0.0
 20
0.0
 30
2.000000000000000E+50
 75
     0
  1
AcDbOsnapPointRef
 72
    13
331
99DA
 73
     2
 91
        0
 40
0.0
 10
0.0
 20
0.0
 30
2.000000000000000E+50
 75
     0
  1
AcDbOsnapPointRef
 72
     1
331
99DA
 73
     2
 91
        0
 40
1.0
 10
0.0
 20
0.0
 30
2.000000000000000E+50
 75
     0
  0
DIMASSOC
  5
AD19
102
{ACAD_REACTORS
330
AD0D
102
}
330
AD0D
100
AcDbDimAssoc
330
ACFE
 90
       15
 70
     0
 71
     0
  1
AcDbOsnapPointRef
 72
    13
331
99DA
 73
     2
 91
        0
 40
0.0
 10
0.0
 20
0.0
 30
2.000000000000000E+50
 75
     0
  1
AcDbOsnapPointRef
 72
     1
331
99DA
 73
     2
 91
        0
 40
1.0
 10
0.0
 20
0.0
 30
2.000000000000000E+50
 75
     0
  1
AcDbOsnapPointRef
 72
    13
331
ABF8
 73
     2
 91
        0
 40
0.0
 10
0.0
 20
0.0
 30
2.000000000000000E+50
 75
     0
  1
AcDbOsnapPointRef
 72
     1
331
ABF8
 73
     2
 91
        0
 40
0.9999999999999998
 10
0.0
 20
0.0
 30
2.000000000000000E+50
 75
     0
  0
DIMASSOC
  5
ADD8
102
{ACAD_REACTORS
330
ADCC
102
}
330
ADCC
100
AcDbDimAssoc
330
ADBD
 90
       15
 70
     0
 71
     0
  1
AcDbOsnapPointRef
 72
    13
331
AB9B
 73
     2
 91
        0
 40
0.0
 10
0.0
 20
0.0
 30
2.000000000000000E+50
 75
     0
  1
AcDbOsnapPointRef
 72
     1
331
AB9B
 73
     2
 91
        0
 40
1.0
 10
0.0
 20
0.0
 30
2.000000000000000E+50
 75
     0
  1
AcDbOsnapPointRef
 72
    13
331
ABF8
 73
     2
 91
        0
 40
0.0
 10
0.0
 20
0.0
 30
2.000000000000000E+50
 75
     0
  1
AcDbOsnapPointRef
 72
     1
331
ABF8
 73
     2
 91
        0
 40
0.9999999999999998
 10
0.0
 20
0.0
 30
2.000000000000000E+50
 75
     0
  0
LAYOUT
  5
22
102
{ACAD_XDICTIONARY
360
AE9B
102
}
102
{ACAD_REACTORS
330
1A
102
}
330
1A
100
AcDbPlotSettings
  1

  2
\\RD\EPSON Stylus C63 Series單色
  4
A4
  6

 40
3.757083177566528
 41
3.757076978683471
 42
3.757080078125
 43
3.757080078125
 44
209.9733276367187
 45
296.9683227539062
 46
0.0
 47
0.0
 48
0.0
 49
0.0
140
0.0
141
0.0
142
1.0
143
0.3405120737814363
 70
 11952
 72
     1
 73
     0
 74
     0
  7
彩色出圖.ctb
 75
     0
147
2.936753428137963
148
-2047.07469463503
149
-1261.649717473083
100
AcDbLayout
  1
Model
 70
     1
 71
     0
 10
0.0
 20
0.0
 11
12.0
 21
9.0
 12
0.0
 22
0.0
 32
0.0
 14
0.0
 24
0.0
 34
0.0
 15
0.0
 25
0.0
 35
0.0
146
0.0
 13
0.0
 23
0.0
 33
0.0
 16
1.0
 26
0.0
 36
0.0
 17
0.0
 27
1.0
 37
0.0
 76
     0
330
1F
1001
ACAD_PSEXT
1000
\\RD\EPSON Stylus C63 Series單色
1000
EPSON Stylus C63 Series
1000
\\RD
1000

1070
     0
  0
LAYOUT
  5
1E
102
{ACAD_XDICTIONARY
360
AE99
102
}
102
{ACAD_REACTORS
330
1A
102
}
330
1A
100
AcDbPlotSettings
  1

  2

  4

  6

 40
0.0
 41
0.0
 42
0.0
 43
0.0
 44
0.0
 45
0.0
 46
0.0
 47
0.0
 48
0.0
 49
0.0
140
0.0
141
0.0
142
1.0
143
1.0
 70
   688
 72
     0
 73
     0
 74
     5
  7
彩色出圖.ctb
 75
    16
147
1.0
148
0.0
149
0.0
100
AcDbLayout
  1
配置1
 70
     1
 71
     1
 10
0.0
 20
0.0
 11
420.0
 21
297.0
 12
0.0
 22
0.0
 32
0.0
 14
1.000000000000000E+20
 24
1.000000000000000E+20
 34
1.000000000000000E+20
 15
-1.000000000000000E+20
 25
-1.000000000000000E+20
 35
-1.000000000000000E+20
146
0.0
 13
0.0
 23
0.0
 33
0.0
 16
1.0
 26
0.0
 36
0.0
 17
0.0
 27
1.0
 37
0.0
 76
     0
330
1B
  0
LAYOUT
  5
26
102
{ACAD_XDICTIONARY
360
AE9D
102
}
102
{ACAD_REACTORS
330
1A
102
}
330
1A
100
AcDbPlotSettings
  1

  2

  4

  6

 40
0.0
 41
0.0
 42
0.0
 43
0.0
 44
0.0
 45
0.0
 46
0.0
 47
0.0
 48
0.0
 49
0.0
140
0.0
141
0.0
142
1.0
143
1.0
 70
   688
 72
     0
 73
     0
 74
     5
  7
彩色出圖.ctb
 75
    16
147
1.0
148
0.0
149
0.0
100
AcDbLayout
  1
配置2
 70
     1
 71
     2
 10
0.0
 20
0.0
 11
12.0
 21
9.0
 12
0.0
 22
0.0
 32
0.0
 14
0.0
 24
0.0
 34
0.0
 15
0.0
 25
0.0
 35
0.0
146
0.0
 13
0.0
 23
0.0
 33
0.0
 16
1.0
 26
0.0
 36
0.0
 17
0.0
 27
1.0
 37
0.0
 76
     0
330
23
  0
MLINESTYLE
  5
18
102
{ACAD_REACTORS
330
17
102
}
330
17
100
AcDbMlineStyle
  2
STANDARD
 70
     0
  3

 62
   256
 51
90.0
 52
90.0
 71
     2
 49
0.5
 62
   256
  6
BYLAYER
 49
-0.5
 62
   256
  6
BYLAYER
  0
ACDBPLACEHOLDER
  5
F
102
{ACAD_REACTORS
330
E
102
}
330
E
  0
TABLESTYLE
  5
11B
102
{ACAD_REACTORS
330
11A
102
}
330
11A
100
AcDbTableStyle
  3
Standard
 70
     0
 71
     0
 40
1.5
 41
1.5
280
     0
281
     0
  7
STANDARD
140
4.5
170
     2
 62
     0
 63
     7
283
     0
274
    -2
284
     1
 64
     0
275
    -2
285
     1
 65
     0
276
    -2
286
     1
 66
     0
277
    -2
287
     1
 67
     0
278
    -2
288
     1
 68
     0
279
    -2
289
     1
 69
     0
  7
STANDARD
140
6.0
170
     5
 62
     0
 63
     7
283
     0
274
    -2
284
     1
 64
     0
275
    -2
285
     1
 65
     0
276
    -2
286
     1
 66
     0
277
    -2
287
     1
 67
     0
278
    -2
288
     1
 68
     0
279
    -2
289
     1
 69
     0
  7
STANDARD
140
4.5
170
     5
 62
     0
 63
     7
283
     0
274
    -2
284
     1
 64
     0
275
    -2
285
     1
 65
     0
276
    -2
286
     1
 66
     0
277
    -2
287
     1
 67
     0
278
    -2
288
     1
 68
     0
279
    -2
289
     1
 69
     0
  0
DICTIONARYVAR
  5
138
102
{ACAD_REACTORS
330
94
102
}
330
94
100
DictionaryVariables
280
     0
  1
STANDARD
  0
DICTIONARYVAR
  5
96
102
{ACAD_REACTORS
330
94
102
}
330
94
100
DictionaryVariables
280
     0
  1
2
  0
DICTIONARYVAR
  5
95
102
{ACAD_REACTORS
330
94
102
}
330
94
100
DictionaryVariables
280
     0
  1
1
  0
DICTIONARYVAR
  5
1BA0
102
{ACAD_REACTORS
330
94
102
}
330
94
100
DictionaryVariables
280
     0
  1

  0
DICTIONARY
  5
1B5
102
{ACAD_REACTORS
330
5B
102
}
330
5B
100
AcDbDictionary
281
     1
  0
DICTIONARY
  5
61
102
{ACAD_REACTORS
330
5B
102
}
330
5B
100
AcDbDictionary
281
     1
  0
XRECORD
  5
123
102
{ACAD_REACTORS
330
5B
102
}
330
5B
100
AcDbXrecord
280
     1
 90
-1023410169
  0
DICTIONARY
  5
7C17
102
{ACAD_REACTORS
330
41
102
}
330
41
100
AcDbDictionary
281
     1
  3
DWGSETTINGS
350
7C18
  3
Shaft
350
8D15
  3
TRANSSETTINGS
350
7C1B
  0
LAYER_INDEX
  5
853C
102
{ACAD_REACTORS
330
853B
102
}
330
853B
100
AcDbIndex
 40
2456758.602658958
100
AcDbLayerIndex
  8
0
360
A8E5
 90
       11
  8
Defpoints
360
A8E6
 90
        0
  8
AM_5
360
A8E7
 90
        0
  8
AM_4
360
A8E8
 90
        0
  8
AM_VIS
360
A8E9
 90
        1
  8
AM_HID
360
A8EA
 90
        0
  8
AM_7
360
A8EB
 90
        6
  8
LOGO
360
A8EC
 90
       90
  8
AM_REFDIM
360
A8ED
 90
       20
  8
CEN
360
A8EE
 90
        0
  8
HATCH
360
A8EF
 90
        0
  8
SL
360
A8F0
 90
        0
  8
AM_10
360
A8F1
 90
        0
  0
DICTIONARY
  5
AE9B
330
22
100
AcDbDictionary
280
     1
281
     1
  3
ACAD_XREC_ROUNDTRIP
360
AE9C
  0
DICTIONARY
  5
AE99
330
1E
100
AcDbDictionary
280
     1
281
     1
  3
ACAD_XREC_ROUNDTRIP
360
AE9A
  0
DICTIONARY
  5
AE9D
330
26
100
AcDbDictionary
280
     1
281
     1
  3
ACAD_XREC_ROUNDTRIP
360
AE9E
  0
IDBUFFER
  5
A8E5
330
0
100
AcDbIdBuffer
330
16B4
330
16B5
330
16B6
330
AA50
330
AA51
330
AA52
330
AA53
330
AA54
330
AA55
330
AA56
330
AA57
  0
IDBUFFER
  5
A8E6
330
0
100
AcDbIdBuffer
  0
IDBUFFER
  5
A8E7
330
0
100
AcDbIdBuffer
  0
IDBUFFER
  5
A8E8
330
0
100
AcDbIdBuffer
  0
IDBUFFER
  5
A8E9
330
0
100
AcDbIdBuffer
330
7BA1
  0
IDBUFFER
  5
A8EA
330
0
100
AcDbIdBuffer
  0
IDBUFFER
  5
A8EB
330
0
100
AcDbIdBuffer
330
99DA
330
99DB
330
AB9A
330
AB9B
330
ABF6
330
ABF8
  0
IDBUFFER
  5
A8EC
330
0
100
AcDbIdBuffer
330
1599
330
159A
330
159B
330
159C
330
159D
330
159E
330
159F
330
15A0
330
15A1
330
15A2
330
15A3
330
15A4
330
15A5
330
15A6
330
15A7
330
15A8
330
15A9
330
15AA
330
15AB
330
15AC
330
15AD
330
15AE
330
15AF
330
15B0
330
15B4
330
15B8
330
15B9
330
15BD
330
15BE
330
15BF
330
15C0
330
15C1
330
15C2
330
15C3
330
15C4
330
15C8
330
15CC
330
15D0
330
15D1
330
15D2
330
15D6
330
15D7
330
15D8
330
15D9
330
15DA
330
15DB
330
15DC
330
15DD
330
15DE
330
15DF
330
15E0
330
15E1
330
15E2
330
15E3
330
15E4
330
15E5
330
15E6
330
15E7
330
15E8
330
15E9
330
15EA
330
15EB
330
15EC
330
15ED
330
15EE
330
15F0
330
15F1
330
15F2
330
15F3
330
15F4
330
15F5
330
15F6
330
15F7
330
15F8
330
15F9
330
15FA
330
15FB
330
9C94
330
9C95
330
9C96
330
9C97
330
9C98
330
9C99
330
9C9A
330
9C9B
330
9C9C
330
9C9E
330
9C9F
330
9CA0
330
9CA2
  0
IDBUFFER
  5
A8ED
330
0
100
AcDbIdBuffer
330
A516
330
A540
330
A57E
330
A622
330
A67B
330
A6A1
330
A724
330
A77B
330
A7A5
330
A7CB
330
A889
330
A88C
330
A890
330
A895
330
AB9D
330
ABB9
330
AC0E
330
ACC6
330
ACFE
330
ADBD
  0
IDBUFFER
  5
A8EE
330
0
100
AcDbIdBuffer
  0
IDBUFFER
  5
A8EF
330
0
100
AcDbIdBuffer
  0
IDBUFFER
  5
A8F0
330
0
100
AcDbIdBuffer
  0
IDBUFFER
  5
A8F1
330
0
100
AcDbIdBuffer
  0
XRECORD
  5
AE9C
102
{ACAD_REACTORS
330
AE9B
102
}
330
AE9B
100
AcDbXrecord
280
     1
102
SHADEPLOT
 70
     0
102
SHADEPLOTRESLEVEL
 70
     2
102
SHADEPLOTCUSTOMDPI
 70
   300
  0
XRECORD
  5
AE9A
102
{ACAD_REACTORS
330
AE99
102
}
330
AE99
100
AcDbXrecord
280
     1
102
SHADEPLOT
 70
     0
102
SHADEPLOTRESLEVEL
 70
     2
102
SHADEPLOTCUSTOMDPI
 70
   300
  0
XRECORD
  5
AE9E
102
{ACAD_REACTORS
330
AE9D
102
}
330
AE9D
100
AcDbXrecord
280
     1
102
SHADEPLOT
 70
     0
102
SHADEPLOTRESLEVEL
 70
     2
102
SHADEPLOTCUSTOMDPI
 70
   300
  0
ENDSEC
  0
EOF
