  0
SECTION
  2
HEADER
  9
$ACADVER
  1
AC1015
  9
$ACADMAINTVER
 70
    20
  9
$DWGCODEPAGE
  3
ANSI_950
  9
$INSBASE
 10
0.0
 20
0.0
 30
0.0
  9
$EXTMIN
 10
636.5888285060369
 20
52.58852823838278
 30
0.0
  9
$EXTMAX
 10
870.6012348676269
 20
206.8136541750342
 30
120.2166306851784
  9
$LIMMIN
 10
0.0
 20
0.0
  9
$LIMMAX
 10
420.0
 20
297.0
  9
$ORTHOMODE
 70
     0
  9
$REGENMODE
 70
     1
  9
$FILLMODE
 70
     1
  9
$QTEXTMODE
 70
     0
  9
$MIRRTEXT
 70
     1
  9
$LTSCALE
 40
1.0
  9
$ATTMODE
 70
     1
  9
$TEXTSIZE
 40
3.0
  9
$TRACEWID
 40
1.0
  9
$TEXTSTYLE
  7
STANDARD
  9
$CLAYER
  8
AM_REFDIM
  9
$CELTYPE
  6
ByLayer
  9
$CECOLOR
 62
   256
  9
$CELTSCALE
 40
1.0
  9
$DISPSILH
 70
     0
  9
$DIMSCALE
 40
1.0
  9
$DIMASZ
 40
3.5
  9
$DIMEXO
 40
1.0
  9
$DIMDLI
 40
12.0
  9
$DIMRND
 40
0.0
  9
$DIMDLE
 40
0.0
  9
$DIMEXE
 40
1.0
  9
$DIMTP
 40
0.1
  9
$DIMTM
 40
0.1
  9
$DIMTXT
 40
3.5
  9
$DIMCEN
 40
0.0
  9
$DIMTSZ
 40
0.0
  9
$DIMTOL
 70
     0
  9
$DIMLIM
 70
     0
  9
$DIMTIH
 70
     0
  9
$DIMTOH
 70
     0
  9
$DIMSE1
 70
     0
  9
$DIMSE2
 70
     0
  9
$DIMTAD
 70
     1
  9
$DIMZIN
 70
     8
  9
$DIMBLK
  1

  9
$DIMASO
 70
     1
  9
$DIMSHO
 70
     1
  9
$DIMPOST
  1

  9
$DIMAPOST
  1
"
  9
$DIMALT
 70
     0
  9
$DIMALTD
 70
     2
  9
$DIMALTF
 40
0.0393701
  9
$DIMLFAC
 40
1.0
  9
$DIMTOFL
 70
     1
  9
$DIMTVP
 40
0.0
  9
$DIMTIX
 70
     0
  9
$DIMSOXD
 70
     0
  9
$DIMSAH
 70
     0
  9
$DIMBLK1
  1

  9
$DIMBLK2
  1

  9
$DIMSTYLE
  2
AM_ISO
  9
$DIMCLRD
 70
   256
  9
$DIMCLRE
 70
   256
  9
$DIMCLRT
 70
   256
  9
$DIMTFAC
 40
0.6
  9
$DIMGAP
 40
1.0
  9
$DIMJUST
 70
     0
  9
$DIMSD1
 70
     0
  9
$DIMSD2
 70
     0
  9
$DIMTOLJ
 70
     0
  9
$DIMTZIN
 70
     8
  9
$DIMALTZ
 70
     0
  9
$DIMALTTZ
 70
     0
  9
$DIMUPT
 70
     0
  9
$DIMDEC
 70
     1
  9
$DIMTDEC
 70
     8
  9
$DIMALTU
 70
     2
  9
$DIMALTTD
 70
     2
  9
$DIMTXSTY
  7
STANDARD
  9
$DIMAUNIT
 70
     0
  9
$DIMADEC
 70
     0
  9
$DIMALTRND
 40
0.0
  9
$DIMAZIN
 70
     2
  9
$DIMDSEP
 70
    46
  9
$DIMATFIT
 70
     3
  9
$DIMFRAC
 70
     0
  9
$DIMLDRBLK
  1

  9
$DIMLUNIT
 70
     2
  9
$DIMLWD
 70
    -1
  9
$DIMLWE
 70
    -1
  9
$DIMTMOVE
 70
     0
  9
$LUNITS
 70
     2
  9
$LUPREC
 70
     2
  9
$SKETCHINC
 40
1.0
  9
$FILLETRAD
 40
2.5
  9
$AUNITS
 70
     0
  9
$AUPREC
 70
     0
  9
$MENU
  1
.
  9
$ELEVATION
 40
0.0
  9
$PELEVATION
 40
0.0
  9
$THICKNESS
 40
0.0
  9
$LIMCHECK
 70
     0
  9
$CHAMFERA
 40
0.2
  9
$CHAMFERB
 40
0.2
  9
$CHAMFERC
 40
20.0
  9
$CHAMFERD
 40
0.0
  9
$SKPOLY
 70
     0
  9
$TDCREATE
 40
2454422.344345151
  9
$TDUCREATE
 40
2454422.011011817
  9
$TDUPDATE
 40
2456893.572549549
  9
$TDUUPDATE
 40
2456893.239216216
  9
$TDINDWG
 40
1.0897819329
  9
$TDUSRTIMER
 40
1.0897819329
  9
$USRTIMER
 70
     1
  9
$ANGBASE
 50
0.0
  9
$ANGDIR
 70
     0
  9
$PDMODE
 70
     0
  9
$PDSIZE
 40
0.0
  9
$PLINEWID
 40
0.0
  9
$SPLFRAME
 70
     0
  9
$SPLINETYPE
 70
     6
  9
$SPLINESEGS
 70
     8
  9
$HANDSEED
  5
B3D0
  9
$SURFTAB1
 70
     6
  9
$SURFTAB2
 70
     6
  9
$SURFTYPE
 70
     6
  9
$SURFU
 70
     6
  9
$SURFV
 70
     6
  9
$UCSBASE
  2

  9
$UCSNAME
  2

  9
$UCSORG
 10
0.0
 20
0.0
 30
0.0
  9
$UCSXDIR
 10
1.0
 20
0.0
 30
0.0
  9
$UCSYDIR
 10
0.0
 20
1.0
 30
0.0
  9
$UCSORTHOREF
  2

  9
$UCSORTHOVIEW
 70
     0
  9
$UCSORGTOP
 10
0.0
 20
0.0
 30
0.0
  9
$UCSORGBOTTOM
 10
0.0
 20
0.0
 30
0.0
  9
$UCSORGLEFT
 10
0.0
 20
0.0
 30
0.0
  9
$UCSORGRIGHT
 10
0.0
 20
0.0
 30
0.0
  9
$UCSORGFRONT
 10
0.0
 20
0.0
 30
0.0
  9
$UCSORGBACK
 10
0.0
 20
0.0
 30
0.0
  9
$PUCSBASE
  2

  9
$PUCSNAME
  2

  9
$PUCSORG
 10
0.0
 20
0.0
 30
0.0
  9
$PUCSXDIR
 10
1.0
 20
0.0
 30
0.0
  9
$PUCSYDIR
 10
0.0
 20
1.0
 30
0.0
  9
$PUCSORTHOREF
  2

  9
$PUCSORTHOVIEW
 70
     0
  9
$PUCSORGTOP
 10
0.0
 20
0.0
 30
0.0
  9
$PUCSORGBOTTOM
 10
0.0
 20
0.0
 30
0.0
  9
$PUCSORGLEFT
 10
0.0
 20
0.0
 30
0.0
  9
$PUCSORGRIGHT
 10
0.0
 20
0.0
 30
0.0
  9
$PUCSORGFRONT
 10
0.0
 20
0.0
 30
0.0
  9
$PUCSORGBACK
 10
0.0
 20
0.0
 30
0.0
  9
$USERI1
 70
     0
  9
$USERI2
 70
     0
  9
$USERI3
 70
     0
  9
$USERI4
 70
     0
  9
$USERI5
 70
     0
  9
$USERR1
 40
0.0
  9
$USERR2
 40
0.0
  9
$USERR3
 40
0.0
  9
$USERR4
 40
0.0
  9
$USERR5
 40
0.0
  9
$WORLDVIEW
 70
     1
  9
$SHADEDGE
 70
     3
  9
$SHADEDIF
 70
    70
  9
$TILEMODE
 70
     1
  9
$MAXACTVP
 70
    64
  9
$PINSBASE
 10
0.0
 20
0.0
 30
0.0
  9
$PLIMCHECK
 70
     0
  9
$PEXTMIN
 10
1.000000000000000E+20
 20
1.000000000000000E+20
 30
1.000000000000000E+20
  9
$PEXTMAX
 10
-1.000000000000000E+20
 20
-1.000000000000000E+20
 30
-1.000000000000000E+20
  9
$PLIMMIN
 10
0.0
 20
0.0
  9
$PLIMMAX
 10
420.0
 20
297.0
  9
$UNITMODE
 70
     0
  9
$VISRETAIN
 70
     1
  9
$PLINEGEN
 70
     0
  9
$PSLTSCALE
 70
     1
  9
$TREEDEPTH
 70
  3020
  9
$CMLSTYLE
  2
Standard
  9
$CMLJUST
 70
     0
  9
$CMLSCALE
 40
20.0
  9
$PROXYGRAPHICS
 70
     1
  9
$MEASUREMENT
 70
     1
  9
$CELWEIGHT
370
    -1
  9
$ENDCAPS
280
     0
  9
$JOINSTYLE
280
     0
  9
$LWDISPLAY
290
     0
  9
$INSUNITS
 70
     4
  9
$HYPERLINKBASE
  1

  9
$STYLESHEET
  1
acad.ctb
  9
$XEDIT
290
     1
  9
$CEPSNTYPE
380
     0
  9
$PSTYLEMODE
290
     1
  9
$FINGERPRINTGUID
  2
{B705A112-77C7-4534-AADA-B7988B84DA3D}
  9
$VERSIONGUID
  2
{4BD1DA72-1F51-4DBE-B90B-D5EDBE8DADA0}
  9
$EXTNAMES
290
     1
  9
$PSVPSCALE
 40
0.0
  9
$OLESTARTUP
290
     0
  0
ENDSEC
  0
SECTION
  2
CLASSES
  0
CLASS
  1
ACDBDICTIONARYWDFLT
  2
AcDbDictionaryWithDefault
  3
ObjectDBX Classes
 90
        0
280
     0
281
     0
  0
CLASS
  1
ACDBPLACEHOLDER
  2
AcDbPlaceHolder
  3
ObjectDBX Classes
 90
        0
280
     0
281
     0
  0
CLASS
  1
LAYOUT
  2
AcDbLayout
  3
ObjectDBX Classes
 90
        0
280
     0
281
     0
  0
CLASS
  1
ACME_DOCUMENT
  2
AcMeDbDoc
  3
AcMeServices
 90
        0
280
     0
281
     0
  0
CLASS
  1
AMGSETTINGSOBJ
  2
AmgSettingsObj
  3
"AcadM|Product Description: AutoCAD Mechanical 2000|Company: Autodesk"
 90
        0
280
     0
281
     0
  0
CLASS
  1
ACMESCOPE
  2
AcMeScope
  3
AcMeServices
 90
        0
280
     0
281
     0
  0
CLASS
  1
ACMECOMMANDHISTORY
  2
AcMeCommandHistory
  3
AcMeServices
 90
        0
280
     0
281
     0
  0
CLASS
  1
ACIMSYSVARMAN
  2
AcImSysVarManager
  3
AcMeServices
 90
        0
280
     0
281
     0
  0
CLASS
  1
ACIMREALSYSVAR
  2
AcImRealSysVar
  3
AcMeServices
 90
        0
280
     0
281
     0
  0
CLASS
  1
ACIMINTSYSVAR
  2
AcImIntSysVar
  3
AcMeServices
 90
        0
280
     0
281
     0
  0
CLASS
  1
ACMEDRAWINGMAN
  2
AcMeDrawingMan
  3
AcMeServices
 90
        0
280
     0
281
     0
  0
CLASS
  1
ACMEVIEW
  2
AcMeView
  3
AcMeServices
 90
        0
280
     0
281
     0
  0
CLASS
  1
ACDBENTITYCACHE
  2
AcMeEntityCache
  3
AcMeServices
 90
        0
280
     0
281
     0
  0
CLASS
  1
GSMANAGER
  2
AcMeGSManager
  3
AcMeServices
 90
        0
280
     0
281
     0
  0
CLASS
  1
AMDTINTERNALREACTOR
  2
AmdtInternalReactor
  3
AcMeServices
 90
        0
280
     0
281
     0
  0
CLASS
  1
ACMESTATEMGR
  2
AcMeStateMgr
  3
AcMeServices
 90
        0
280
     0
281
     0
  0
CLASS
  1
ACGREFMASTER
  2
AcGrefMaster
  3
AcAttribServices
 90
        0
280
     0
281
     0
  0
CLASS
  1
ACME_DATABASE
  2
AcMeDbDatabase
  3
AcMeServices
 90
        0
280
     0
281
     0
  0
CLASS
  1
ACRFINSADJUSTERMGR
  2
AcRfInsAdjusterMgr
  3
AcMeServices
 90
        0
280
     0
281
     0
  0
CLASS
  1
ACGREFACADMASTER
  2
AcGrefacadMaster
  3
AcGrefServices
 90
        0
280
     0
281
     0
  0
CLASS
  1
AMIMASTER
  2
AmiMaster
  3
AmiServices
 90
        0
280
     0
281
     0
  0
CLASS
  1
ACMDATADICTIONARY
  2
AcmDataDictionary
  3
"AcmSymBB|Product Description: AutoCAD Mechanical 2004 DX|Company: Autodesk"
 90
        0
280
     0
281
     0
  0
CLASS
  1
ACMDATAENTRYBLOCK
  2
AcmDataEntryBlock
  3
"AcmSymBB|Product Description: AutoCAD Mechanical 2004 DX|Company: Autodesk"
 90
        0
280
     0
281
     0
  0
CLASS
  1
ACIMSTRSYSVAR
  2
AcImStrSysVar
  3
AcMeServices
 90
        0
280
     0
281
     0
  0
CLASS
  1
ACMSTANDARDISO
  2
AcmStandardISO
  3
"Amdt_StdImp|Product Description: AutoCAD Mechanical 2004 DX|Company: Autodesk"
 90
        0
280
     0
281
     0
  0
CLASS
  1
AMGOBJPROPCFG
  2
AmgObjPropCfg
  3
"AmgLay|Product Description: AutoCAD Mechanical 2000|Company: Autodesk"
 90
        1
280
     0
281
     0
  0
CLASS
  1
AMDTEDGESTANDARDISO
  2
AmdtEdgeStdISO
  3
"Amdt_StdImp|Product Description: AutoCAD Mechanical 2004 DX|Company: Autodesk"
 90
    32768
280
     0
281
     0
  0
CLASS
  1
ACMSURFSTANDARDISO
  2
AcmSurfTextStdISO
  3
"Amdt_StdImp|Product Description: AutoCAD Mechanical 2004 DX|Company: Autodesk"
 90
        0
280
     0
281
     0
  0
CLASS
  1
ACMFCFSTANDARDISO
  2
AcmFCFStdISO
  3
"Amdt_StdImp|Product Description: AutoCAD Mechanical 2004 DX|Company: Autodesk"
 90
        0
280
     0
281
     0
  0
CLASS
  1
ACMWELDSTANDARDISO
  2
AcmWeldingStdISO
  3
"Amdt_StdImp|Product Description: AutoCAD Mechanical 2004 DX|Company: Autodesk"
 90
        0
280
     0
281
     0
  0
CLASS
  1
ACMIDSTANDARDISO
  2
AcmIdStdISO
  3
"Amdt_StdImp|Product Description: AutoCAD Mechanical 2004 DX|Company: Autodesk"
 90
        0
280
     0
281
     0
  0
CLASS
  1
ACMDATUMSTANDARDISO
  2
AcmDatumStdISO
  3
"Amdt_StdImp|Product Description: AutoCAD Mechanical 2004 DX|Company: Autodesk"
 90
        0
280
     0
281
     0
  0
CLASS
  1
ACMBOMSTANDARDISO
  2
AcmBOMStdISO
  3
"Amdt_StdImp|Product Description: AutoCAD Mechanical 2004 DX|Company: Autodesk"
 90
        0
280
     0
281
     0
  0
CLASS
  1
ACMDETAILSTANDARDISO
  2
AmdtDetailSymStdISO
  3
"Amdt_StdImp|Product Description: AutoCAD Mechanical 2004 DX|Company: Autodesk"
 90
        0
280
     0
281
     0
  0
CLASS
  1
ACMSECTIONSTANDARDISO
  2
AmdtSectionSymStdISO
  3
"Amdt_StdImp|Product Description: AutoCAD Mechanical 2004 DX|Company: Autodesk"
 90
        0
280
     0
281
     0
  0
CLASS
  1
ACMCENTERLINESTANDARDISO
  2
AmdtCenterLineStdISO
  3
"Amdt_StdImp|Product Description: AutoCAD Mechanical 2004 DX|Company: Autodesk"
 90
        0
280
     0
281
     0
  0
CLASS
  1
ACMNOTESTANDARDISO
  2
AmdtNoteStdISO
  3
"Amdt_StdImp|Product Description: AutoCAD Mechanical 2004 DX|Company: Autodesk"
 90
        0
280
     0
281
     0
  0
CLASS
  1
ACAMGLAYSTD
  2
AcAmgLayStd
  3
"AcAmgLayStd|Product Description: AutoCAD Mechanical 2000|Company: Autodesk"
 90
        0
280
     0
281
     0
  0
CLASS
  1
ACAMGDIMSTD
  2
AcAmgDimStd
  3
"AcAmgDimStd|Product Description: AutoCAD Mechanical 2000|Company: Autodesk"
 90
        0
280
     0
281
     0
  0
CLASS
  1
ACAMGHOLECHARTSTDISO
  2
AcAmgHoleChartStdISO
  3
ACMSYMBB_MODULE_NAME
 90
        0
280
     0
281
     0
  0
CLASS
  1
ACAMGTITLESTD
  2
AcAmgTitleStd
  3
"TITLEAPP"
 90
        0
280
     0
281
     0
  0
CLASS
  1
LAYER_INDEX
  2
AcDbLayerIndex
  3
ObjectDBX Classes
 90
        0
280
     0
281
     0
  0
CLASS
  1
IDBUFFER
  2
AcDbIdBuffer
  3
ObjectDBX Classes
 90
        0
280
     0
281
     0
  0
CLASS
  1
DICTIONARYVAR
  2
AcDbDictionaryVar
  3
ObjectDBX Classes
 90
        0
280
     0
281
     0
  0
CLASS
  1
AM_DRAWING_MGR
  2
AcDmDwgMgr
  3
AcMechDwgViewMgmt
 90
        0
280
     0
281
     0
  0
CLASS
  1
AM_DWG_DOCUMENT
  2
AcDmDwgDocument
  3
AcMechDwgViewMgmt
 90
        0
280
     0
281
     0
  0
CLASS
  1
AM_DWG_SHEET
  2
AcDmSheet
  3
AcMechDwgViewMgmt
 90
        0
280
     0
281
     0
  0
CLASS
  1
AM_VIEWDIMPARMAP
  2
AcDmViewDimParMap
  3
AcMechDwgViewMgmt
 90
        0
280
     0
281
     0
  0
CLASS
  1
AM_DWGMGR_NAME
  2
AcDmDwgMgrName
  3
AcMechDwgViewMgmt
 90
        0
280
     0
281
     0
  0
CLASS
  1
AMDTMENUSTATEMGR
  2
AmdtMenuStateMgr
  3
McadcomServices
 90
        0
280
     0
281
     0
  0
CLASS
  1
AMDTMCOMMENUSTATE
  2
AmdtMcomMenuState
  3
McadcomServices
 90
        0
280
     0
281
     0
  0
CLASS
  1
MAPIAMMOUDLE
  2
MApiAmModule
  3
MApiAmServices
 90
        0
280
     0
281
     0
  0
CLASS
  1
AMDTADMENUSTATE
  2
AmdtAdMenuState
  3
DesignerServices
 90
        0
280
     0
281
     0
  0
CLASS
  1
ADAPPL
  2
AcAdAppl
  3
DesignerServices
 90
        0
280
     0
281
     0
  0
CLASS
  1
DEPMGR
  2
AcAdDepMgr
  3
DesignerServices
 90
        0
280
     0
281
     0
  0
CLASS
  1
PARAMMGR
  2
AcAdParamMgr
  3
DesignerServices
 90
        0
280
     0
281
     0
  0
CLASS
  1
PARAMSCOPE
  2
AcAdParamScope
  3
DesignerServices
 90
        0
280
     0
281
     0
  0
CLASS
  1
NAMEDAPPL
  2
AcAdNamedAppl
  3
DesignerServices
 90
        0
280
     0
281
     0
  0
CLASS
  1
AMDTDMMENUSTATE
  2
AmdtDmMenuState
  3
AcMechDwgViewMgmt
 90
        0
280
     0
281
     0
  0
CLASS
  1
AMDTAMMENUSTATE
  2
AmdtAmMenuState
  3
DesignerAssemblies
 90
        0
280
     0
281
     0
  0
CLASS
  1
ACAMPROJECT
  2
AcAmProject
  3
DesignerAssemblies
 90
        0
280
     0
281
     0
  0
CLASS
  1
ACAMGRCOMPDEF
  2
AcAmGrCompDef
  3
DesignerAssemblies
 90
        0
280
     0
281
     0
  0
CLASS
  1
ACCMCONTEXT
  2
AcCmContext
  3
DesignerAssemblies
 90
        0
280
     0
281
     0
  0
CLASS
  1
ACAMCOMPDEF
  2
AcAmCompDef
  3
DesignerAssemblies
 90
        0
280
     0
281
     0
  0
CLASS
  1
ACAMCOMPDEFMGR
  2
AcAmCompDefMgr
  3
DesignerAssemblies
 90
        0
280
     0
281
     0
  0
CLASS
  1
AMCONTEXTMGR
  2
AcAmContextMgr
  3
DesignerAssemblies
 90
        0
280
     0
281
     0
  0
CLASS
  1
ACAMCONTEXTMODELER
  2
AcAmContextModeler
  3
DesignerAssemblies
 90
        0
280
     0
281
     0
  0
CLASS
  1
ACMTHREADLINESTANDARDISO
  2
AmdtThreadLineStdISO
  3
"Amdt_StdImp|Product Description: AutoCAD Mechanical 2004 DX|Company: Autodesk"
 90
        0
280
     0
281
     0
  0
CLASS
  1
CATALOGSTATE
  2
AcAmCatalogState
  3
DesignerAssemblies
 90
        0
280
     0
281
     0
  0
CLASS
  1
ACAMGRCOMPDEFSET
  2
AcAmGrCompDefSet
  3
DesignerAssemblies
 90
        0
280
     0
281
     0
  0
CLASS
  1
AMDTBROWSERDBTAB
  2
AmdtBrowserDbTab
  3
McadcomServices
 90
        0
280
     0
281
     0
  0
CLASS
  1
CBROWSERAPPOBJECT
  2
CBrowserAppObject
  3
McadcomServices
 90
        0
280
     0
281
     0
  0
CLASS
  1
DM_PLACEHOLDER
  2
AcDmSelsetPlaceholder
  3
AcMechDwgViewMgmt
 90
        0
280
     0
281
     0
  0
CLASS
  1
TABLESTYLE
  2
AcDbTableStyle
  3
ObjectDBX Classes
 90
     2047
280
     0
281
     0
  0
CLASS
  1
VAACXREFPANELOBJECT
  2
VaAcXREFPanelObject
  3
VAAC_ADDIN
 90
    32768
280
     0
281
     0
  0
CLASS
  1
VAACIMAGEINVENTORY
  2
VaAcImageInventory
  3
VAAC_ADDIN
 90
    32768
280
     0
281
     0
  0
CLASS
  1
AMDTNOTETEMPLATEDB
  2
AmdtNoteTemplateDB
  3
AMDT_STDIMP_MODULE_NAME
 90
        0
280
     0
281
     0
  0
CLASS
  1
ACMBOM
  2
AcmBom
  3
"AcmSymBB|Product Description: AutoCAD Mechanical 2004 DX|Company: Autodesk"
 90
    32768
280
     0
281
     0
  0
CLASS
  1
AMDTFORMULAUPDATEDISPATCHER
  2
AmdtFormulaUpdateDispatcher
  3
AcMeServices
 90
    32768
280
     0
281
     0
  0
CLASS
  1
ACMPARTLIST
  2
AcmPartList
  3
"AcmSymBB|Product Description: AutoCAD Mechanical 2004 DX|Company: Autodesk"
 90
    33791
280
     0
281
     1
  0
CLASS
  1
ACAMGFILTERDAT
  2
AcAmgFilterDat
  3
"AcadM|Product Description: AutoCAD Mechanical 2000|Company: Autodesk"
 90
    32768
280
     0
281
     0
  0
CLASS
  1
DIMASSOC
  2
AcDbDimAssoc
  3
"AcDbDimAssoc|Product Desc:     AcDim ARX App For Dimension|Company:          Autodesk, Inc.|WEB Address:      www.autodesk.com"
 90
        0
280
     0
281
     0
  0
CLASS
  1
SORTENTSTABLE
  2
AcDbSortentsTable
  3
ObjectDBX Classes
 90
        0
280
     0
281
     0
  0
CLASS
  1
STDPART2D
  2
AmgStdPart
  3
"AmgStdPart|Product Description: AutoCAD Mechanical 2000|Company: Autodesk"
 90
    33791
280
     0
281
     1
  0
CLASS
  1
ACAMSTDPCOMPDEF
  2
AcAmStdpCompDef
  3
DesignerAssemblies
 90
    32768
280
     0
281
     0
  0
CLASS
  1
ACRFATTGENMGR
  2
AcRfAttGeneralMgr
  3
AcAttribServices
 90
    32768
280
     0
281
     0
  0
CLASS
  1
ACRFOBJATTMGR
  2
AcRfObjAttGroupMgr
  3
AcAttribServices
 90
    32768
280
     0
281
     0
  0
CLASS
  1
ACRFMCADAPIATTHOLDER
  2
AcRfMCADAPIAttHolder
  3
AcAttribServices
 90
    32768
280
     0
281
     0
  0
CLASS
  1
AMDTSYSATTR
  2
AmdtSystemAttribute
  3
AcAttribServices
 90
    32768
280
     0
281
     0
  0
CLASS
  1
ACAMCOMP
  2
AcAmComp
  3
DesignerAssemblies
 90
    32768
280
     0
281
     0
  0
CLASS
  1
AC_AM_STDP_VIEW_DEF
  2
AcAmStdpViewDef
  3
DesignerAssemblies
 90
    32768
280
     0
281
     0
  0
CLASS
  1
AC_AM_MVD_DEP_MGR
  2
AcAmMVDdepMgr
  3
DesignerAssemblies
 90
    32768
280
     0
281
     0
  0
CLASS
  1
AC_AM_MASTER_VIEW_DEF
  2
AcAmMasterViewDef
  3
DesignerAssemblies
 90
    32768
280
     0
281
     0
  0
CLASS
  1
AC_AM_DIRTY_NODES
  2
AcAmDirtyNodes
  3
DesignerAssemblies
 90
    32768
280
     0
281
     0
  0
CLASS
  1
AC_AM_MAPPER_CACHE
  2
AcAmMapperCache
  3
DesignerAssemblies
 90
    32768
280
     0
281
     0
  0
CLASS
  1
ACAMMVDBACKUPOBJECT
  2
AcAmMVDBackupObject
  3
DesignerAssemblies
 90
    32768
280
     0
281
     0
  0
CLASS
  1
AC_AM_COMP_VIEW_INST
  2
AcAmCompView
  3
DesignerAssemblies
 90
    32768
280
     0
281
     0
  0
CLASS
  1
AC_AM_2D_XREF_MGR
  2
AcAmXrefMgr2d
  3
DesignerAssemblies
 90
    32768
280
     0
281
     0
  0
CLASS
  1
AMDTNOTE
  2
AmdtNote
  3
"AcmSymBB|Product Description: AutoCAD Mechanical 2004 DX|Company: Autodesk"
 90
    33791
280
     0
281
     1
  0
CLASS
  1
AMDTEDGESTANDARDISO13715
  2
AmdtEdgeStdISO13715
  3
"Amdt_StdImp|Product Description: AutoCAD Mechanical 2004 DX|Company: Autodesk"
 90
        0
280
     0
281
     0
  0
CLASS
  1
ASAPP
  2
AcAsAppObject
  3
AutoSurfServices
 90
        0
280
     0
281
     0
  0
CLASS
  1
IM_STATIC_MAN
  2
AcImStaticVarManager
  3
AcMeServices
 90
        0
280
     0
281
     0
  0
CLASS
  1
ACIMDBLSTATICVAR
  2
AcImDblStaticVar
  3
AcMeServices
 90
        0
280
     0
281
     0
  0
CLASS
  1
ACIMSTRSTATICVAR
  2
AcImStrStaticVar
  3
AcMeServices
 90
        0
280
     0
281
     0
  0
CLASS
  1
ACIMINTSTATICVAR
  2
AcImIntStaticVar
  3
AcMeServices
 90
        0
280
     0
281
     0
  0
CLASS
  1
ACASGREFMASTER
  2
AcAsGrefMaster
  3
AutoSurfResolverServices
 90
        0
280
     0
281
     0
  0
CLASS
  1
ACADGREFMODULE
  2
AcAdGrefModule
  3
AdGrefServices
 90
        0
280
     0
281
     0
  0
CLASS
  1
AMDTMAPISURFMOUDULE
  2
AmdtMApiSurfModule
  3
MApiSurfServices
 90
        0
280
     0
281
     0
  0
CLASS
  1
MAPIADMODULE
  2
MApiAdModule
  3
MApiAdServices
 90
        0
280
     0
281
     0
  0
ENDSEC
  0
SECTION
  2
TABLES
  0
TABLE
  2
VPORT
  5
8
330
0
100
AcDbSymbolTable
 70
    46
  0
VPORT
  5
B3C7
330
8
100
AcDbSymbolTableRecord
100
AcDbViewportTableRecord
  2
*Active
 70
     0
 10
0.0
 20
0.0
 11
1.0
 21
1.0
 12
269.0618328520023
 22
-185.887855120351
 13
0.0
 23
0.0
 14
2.5
 24
2.5
 15
10.0
 25
10.0
 16
0.0
 26
0.0
 36
1.0
 17
493.6788805944727
 27
316.1094665189255
 37
0.0
 40
265.1237950632861
 41
1.263157894736842
 42
50.0
 43
0.0
 44
0.0
 50
0.0
 51
0.0
 71
     0
 72
  2000
 73
     1
 74
     3
 75
     0
 76
     0
 77
     0
 78
     0
281
     0
 65
     0
110
0.0
120
0.0
130
0.0
111
1.0
121
0.0
131
0.0
112
0.0
122
1.0
132
0.0
 79
     0
146
0.0
  0
ENDTAB
  0
TABLE
  2
LTYPE
  5
5
330
0
100
AcDbSymbolTable
 70
    16
  0
LTYPE
  5
14
330
5
100
AcDbSymbolTableRecord
100
AcDbLinetypeTableRecord
  2
ByBlock
 70
     0
  3

 72
    65
 73
     0
 40
0.0
  0
LTYPE
  5
15
330
5
100
AcDbSymbolTableRecord
100
AcDbLinetypeTableRecord
  2
ByLayer
 70
     0
  3

 72
    65
 73
     0
 40
0.0
  0
LTYPE
  5
16
330
5
100
AcDbSymbolTableRecord
100
AcDbLinetypeTableRecord
  2
Continuous
 70
     0
  3
Solid line
 72
    65
 73
     0
 40
0.0
  0
LTYPE
  5
64
330
5
100
AcDbSymbolTableRecord
100
AcDbLinetypeTableRecord
  2
AM_ISO02W050
 70
     0
  3
__ __ __ __ __ __ __ __ __ __ __ __ __ __ __
 72
    65
 73
     2
 40
7.5
 49
6.0
 74
     0
 49
-1.5
 74
     0
  0
LTYPE
  5
65
330
5
100
AcDbSymbolTableRecord
100
AcDbLinetypeTableRecord
  2
AM_ISO08W050
 70
     0
  3
____ . ____ . ____ . ____ . ____ . ____ . ____
 72
    65
 73
     4
 40
18.0
 49
12.0
 74
     0
 49
-1.5
 74
     0
 49
3.0
 74
     0
 49
-1.5
 74
     0
  0
LTYPE
  5
66
330
5
100
AcDbSymbolTableRecord
100
AcDbLinetypeTableRecord
  2
AM_ISO09W050
 70
     0
  3
_____ . . _____ . . _____ . . ____ .. ____
 72
    65
 73
     6
 40
22.5
 49
12.0
 74
     0
 49
-1.5
 74
     0
 49
3.0
 74
     0
 49
-1.5
 74
     0
 49
3.0
 74
     0
 49
-1.5
 74
     0
  0
LTYPE
  5
67
330
5
100
AcDbSymbolTableRecord
100
AcDbLinetypeTableRecord
  2
Amconstr
 70
     0
  3
_______________________
 72
    65
 73
     2
 40
9999.0
 49
9999.0
 74
     0
 49
0.0
 74
     0
  0
LTYPE
  5
68
330
5
100
AcDbSymbolTableRecord
100
AcDbLinetypeTableRecord
  2
AM_ISO08W050x2
 70
     0
  3
__ . __ . __ . __ . __ . __
 72
    65
 73
     4
 40
9.0
 49
6.0
 74
     0
 49
-0.75
 74
     0
 49
1.5
 74
     0
 49
-0.75
 74
     0
  0
LTYPE
  5
69
330
5
100
AcDbSymbolTableRecord
100
AcDbLinetypeTableRecord
  2
AM_ISO02W050x2
 70
     0
  3
 _ _ _ _ _ _ _ _ _ _ _ _
 72
    65
 73
     2
 40
3.75
 49
3.0
 74
     0
 49
-0.75
 74
     0
  0
LTYPE
  5
6C
330
5
100
AcDbSymbolTableRecord
100
AcDbLinetypeTableRecord
  2
Amzigzag
 70
     0
  3
/\/-/\/-/\/-/\/-/\/-/\/
 72
    65
 73
     2
 40
11.0001
 49
0.0001
 74
     4
 75
   135
340
6B
 46
0.04
 50
0.0
 44
0.0
 45
0.0
 49
-11.0
 74
     0
  0
LTYPE
  5
7A
330
5
100
AcDbSymbolTableRecord
100
AcDbLinetypeTableRecord
  2
ACISOWELD
 70
     0
  3
_ _ _ _ _
 72
    65
 73
     2
 40
2.0
 49
2.0
 74
     0
 49
-1.0
 74
     0
  0
LTYPE
  5
7B
330
5
100
AcDbSymbolTableRecord
100
AcDbLinetypeTableRecord
  2
ACISOTGB
 70
     0
  3
__ . . __ . .
 72
    65
 73
     6
 40
9.0
 49
4.0
 74
     0
 49
-1.0
 74
     0
 49
1.0
 74
     0
 49
-1.0
 74
     0
 49
1.0
 74
     0
 49
-1.0
 74
     0
  0
LTYPE
  5
7C
330
5
100
AcDbSymbolTableRecord
100
AcDbLinetypeTableRecord
  2
ACISOTGL
 70
     0
  3
_ _ _ _ _
 72
    65
 73
     2
 40
3.0
 49
2.0
 74
     0
 49
-1.0
 74
     0
  0
LTYPE
  5
7E
330
5
100
AcDbSymbolTableRecord
100
AcDbLinetypeTableRecord
  2
CENTER
 70
     0
  3
__ . __
 72
    65
 73
     4
 40
7.0
 49
4.0
 74
     0
 49
-1.0
 74
     0
 49
1.0
 74
     0
 49
-1.0
 74
     0
  0
LTYPE
  5
D8
330
5
100
AcDbSymbolTableRecord
100
AcDbLinetypeTableRecord
  2
HIDDEN
 70
     0
  3
Hidden __ __ __ __ __ __ __ __ __ __ __ __ __ _
 72
    65
 73
     2
 40
9.524999999999998
 49
6.349999999999999
 74
     0
 49
-3.174999999999999
 74
     0
  0
LTYPE
  5
D9
330
5
100
AcDbSymbolTableRecord
100
AcDbLinetypeTableRecord
  2
PHANTOM2
 70
     0
  3
Phantom (.5x) ___ _ _ ___ _ _ ___ _ _ ___ _ _
 72
    65
 73
     6
 40
31.75
 49
15.875
 74
     0
 49
-3.174999999999999
 74
     0
 49
3.174999999999999
 74
     0
 49
-3.174999999999999
 74
     0
 49
3.174999999999999
 74
     0
 49
-3.174999999999999
 74
     0
  0
LTYPE
  5
7C98
330
5
100
AcDbSymbolTableRecord
100
AcDbLinetypeTableRecord
  2
ASULTYPE
 70
     0
  3
實線
 72
    65
 73
     2
 40
3.0
 49
2.5
 74
     0
 49
0.5
 74
     0
  0
LTYPE
  5
7C99
330
5
100
AcDbSymbolTableRecord
100
AcDbLinetypeTableRecord
  2
ASVLTYPE
 70
     0
  3
__ __ __ __ __ __ __ __ __ __ __ __ __ __ __ __ __ __ __ __ __
 72
    65
 73
     2
 40
0.75
 49
0.5
 74
     0
 49
-0.25
 74
     0
  0
ENDTAB
  0
TABLE
  2
LAYER
  5
2
102
{ACAD_XDICTIONARY
360
3F9
102
}
330
0
100
AcDbSymbolTable
 70
    13
  0
LAYER
  5
10
330
2
100
AcDbSymbolTableRecord
100
AcDbLayerTableRecord
  2
0
 70
     0
 62
     7
  6
Continuous
370
    -3
390
F
  0
LAYER
  5
C92
330
2
100
AcDbSymbolTableRecord
100
AcDbLayerTableRecord
  2
Defpoints
 70
     0
 62
     7
  6
Continuous
290
     0
370
    -3
390
F
  0
LAYER
  5
C93
330
2
100
AcDbSymbolTableRecord
100
AcDbLayerTableRecord
  2
AM_5
 70
     0
 62
     3
  6
Continuous
370
    25
390
F
  0
LAYER
  5
C94
330
2
100
AcDbSymbolTableRecord
100
AcDbLayerTableRecord
  2
AM_4
 70
     0
 62
     3
  6
Continuous
370
    25
390
F
  0
LAYER
  5
C95
330
2
100
AcDbSymbolTableRecord
100
AcDbLayerTableRecord
  2
AM_VIS
 70
     0
 62
     7
  6
Continuous
370
    50
390
F
  0
LAYER
  5
C96
330
2
100
AcDbSymbolTableRecord
100
AcDbLayerTableRecord
  2
AM_HID
 70
     0
 62
     3
  6
AM_ISO02W050x2
370
    25
390
F
  0
LAYER
  5
C97
330
2
100
AcDbSymbolTableRecord
100
AcDbLayerTableRecord
  2
AM_7
 70
     0
 62
     1
  6
CENTER
370
    25
390
F
  0
LAYER
  5
C99
330
2
100
AcDbSymbolTableRecord
100
AcDbLayerTableRecord
  2
LOGO
 70
     0
 62
     7
  6
Continuous
370
    -3
390
F
  0
LAYER
  5
2AA5
330
2
100
AcDbSymbolTableRecord
100
AcDbLayerTableRecord
  2
AM_REFDIM
 70
     0
 62
     5
  6
Continuous
370
    25
390
F
  0
LAYER
  5
79D1
330
2
100
AcDbSymbolTableRecord
100
AcDbLayerTableRecord
  2
CEN
 70
     0
 62
     1
  6
CENTER
370
    -3
390
F
  0
LAYER
  5
79D3
330
2
100
AcDbSymbolTableRecord
100
AcDbLayerTableRecord
  2
HATCH
 70
     0
 62
     4
  6
Continuous
370
    -3
390
F
  0
LAYER
  5
7BB8
330
2
100
AcDbSymbolTableRecord
100
AcDbLayerTableRecord
  2
SL
 70
     0
 62
     2
  6
Continuous
370
    -3
390
F
1001
AcAecLayerStandard
1000

1000

  0
LAYER
  5
7DF7
330
2
100
AcDbSymbolTableRecord
100
AcDbLayerTableRecord
  2
AM_10
 70
     0
 62
     7
  6
AM_ISO08W050
370
    50
390
F
  0
ENDTAB
  0
TABLE
  2
STYLE
  5
3
330
0
100
AcDbSymbolTable
 70
     6
  0
STYLE
  5
11
330
3
100
AcDbSymbolTableRecord
100
AcDbTextStyleTableRecord
  2
STANDARD
 70
     0
 40
0.0
 41
1.0
 50
0.0
 71
     0
 42
3.0
  3
ISOCP.SHX
  4
CHINESET.SHX
  0
STYLE
  5
6B
330
3
100
AcDbSymbolTableRecord
100
AcDbTextStyleTableRecord
  2

 70
     1
 40
0.0
 41
1.0
 50
0.0
 71
     0
 42
2.5
  3
ltypeshp.shx
  4

  0
STYLE
  5
6D
330
3
100
AcDbSymbolTableRecord
100
AcDbTextStyleTableRecord
  2
ACISOTS
 70
     0
 40
1.0
 41
1.0
 50
0.0
 71
     0
 42
1.0
  3
isocp.shx
  4
chineset.shx
  0
STYLE
  5
79
330
3
100
AcDbSymbolTableRecord
100
AcDbTextStyleTableRecord
  2
ACISOGDT
 70
     0
 40
0.0
 41
1.0
 50
0.0
 71
     0
 42
2.5
  3
amgdt.shx
  4
chineset.shx
  0
STYLE
  5
C9B
330
3
100
AcDbSymbolTableRecord
100
AcDbTextStyleTableRecord
  2
CHINESET
 70
     0
 40
0.0
 41
1.0
 50
0.0
 71
     0
 42
2.5
  3
simplex.shx
  4
CHINESET.shx
  0
STYLE
  5
7DF8
330
3
100
AcDbSymbolTableRecord
100
AcDbTextStyleTableRecord
  2
DAYUS
 70
     0
 40
0.0
 41
1.0
 50
0.0
 71
     0
 42
2.0
  3
simplex.shx
  4
dayus.shx
  0
ENDTAB
  0
TABLE
  2
VIEW
  5
6
330
0
100
AcDbSymbolTable
 70
     0
  0
ENDTAB
  0
TABLE
  2
UCS
  5
7
330
0
100
AcDbSymbolTable
 70
     0
  0
ENDTAB
  0
TABLE
  2
APPID
  5
9
330
0
100
AcDbSymbolTable
 70
    38
  0
APPID
  5
12
330
9
100
AcDbSymbolTableRecord
100
AcDbRegAppTableRecord
  2
ACAD
 70
     0
  0
APPID
  5
46
330
9
100
AcDbSymbolTableRecord
100
AcDbRegAppTableRecord
  2
MCAD_NO_VIS
 70
     0
  0
APPID
  5
47
330
9
100
AcDbSymbolTableRecord
100
AcDbRegAppTableRecord
  2
ACAD_TEMP_GRAPHIC
 70
     0
  0
APPID
  5
58
330
9
100
AcDbSymbolTableRecord
100
AcDbRegAppTableRecord
  2
ACATTRIBSERVICES
 70
     0
  0
APPID
  5
EE
330
9
100
AcDbSymbolTableRecord
100
AcDbRegAppTableRecord
  2
AD_DRAW
 70
     0
  0
APPID
  5
10C
330
9
100
AcDbSymbolTableRecord
100
AcDbRegAppTableRecord
  2
DESIGNERASSEMBLIES
 70
     0
  0
APPID
  5
111
330
9
100
AcDbSymbolTableRecord
100
AcDbRegAppTableRecord
  2
ACADM_DIM_EDIT
 70
     0
  0
APPID
  5
112
330
9
100
AcDbSymbolTableRecord
100
AcDbRegAppTableRecord
  2
AMDT_DM_ADJ
 70
     0
  0
APPID
  5
22C
330
9
100
AcDbSymbolTableRecord
100
AcDbRegAppTableRecord
  2
ACAD_DSTYLE_DIMTEXT_FILL
 70
     0
  0
APPID
  5
452
330
9
100
AcDbSymbolTableRecord
100
AcDbRegAppTableRecord
  2
GENIUS_GENOENT_13
 70
     0
  0
APPID
  5
453
330
9
100
AcDbSymbolTableRecord
100
AcDbRegAppTableRecord
  2
GENIUS_GENOBJ-N-CRS_13
 70
     0
  0
APPID
  5
454
330
9
100
AcDbSymbolTableRecord
100
AcDbRegAppTableRecord
  2
GENIUS_GENOLIS_13
 70
     0
  0
APPID
  5
455
330
9
100
AcDbSymbolTableRecord
100
AcDbRegAppTableRecord
  2
GENIUS_GENODEF_13
 70
     0
  0
APPID
  5
456
330
9
100
AcDbSymbolTableRecord
100
AcDbRegAppTableRecord
  2
GENIUS_GENOREF_13
 70
     0
  0
APPID
  5
6F3
330
9
100
AcDbSymbolTableRecord
100
AcDbRegAppTableRecord
  2
ACAD_PSEXT
 70
     0
  0
APPID
  5
808
330
9
100
AcDbSymbolTableRecord
100
AcDbRegAppTableRecord
  2
GENIUS_GENDTOL_13
 70
     0
  0
APPID
  5
C9C
330
9
100
AcDbSymbolTableRecord
100
AcDbRegAppTableRecord
  2
GENIUS_GENOBJ-N-CEN_13
 70
     0
  0
APPID
  5
C9D
330
9
100
AcDbSymbolTableRecord
100
AcDbRegAppTableRecord
  2
GENIUS_GENCEN_19
 70
     0
  0
APPID
  5
C9E
330
9
100
AcDbSymbolTableRecord
100
AcDbRegAppTableRecord
  2
GENIUS_GENREC_14
 70
     0
  0
APPID
  5
C9F
330
9
100
AcDbSymbolTableRecord
100
AcDbRegAppTableRecord
  2
GENIUS_GENOBJ-N-REC_13
 70
     0
  0
APPID
  5
18AD
330
9
100
AcDbSymbolTableRecord
100
AcDbRegAppTableRecord
  2
GEVID1195260822
 70
     0
  0
APPID
  5
18AE
330
9
100
AcDbSymbolTableRecord
100
AcDbRegAppTableRecord
  2
GEVDC
 70
     0
  0
APPID
  5
18AF
330
9
100
AcDbSymbolTableRecord
100
AcDbRegAppTableRecord
  2
GEVRADREF
 70
     0
  0
APPID
  5
18B8
330
9
100
AcDbSymbolTableRecord
100
AcDbRegAppTableRecord
  2
AMG_2DHIDE
 70
     0
  0
APPID
  5
18B9
330
9
100
AcDbSymbolTableRecord
100
AcDbRegAppTableRecord
  2
AMG_2DSTRUCT_BTR
 70
     0
  0
APPID
  5
18CA
330
9
100
AcDbSymbolTableRecord
100
AcDbRegAppTableRecord
  2
ACADM_2DVIEW_IGN_NOTIFY
 70
     0
  0
APPID
  5
3621
330
9
100
AcDbSymbolTableRecord
100
AcDbRegAppTableRecord
  2
GENIUS_GENDIMSH_14
 70
     0
  0
APPID
  5
3FD8
330
9
100
AcDbSymbolTableRecord
100
AcDbRegAppTableRecord
  2
AD_SKETCHDIM
 70
     0
  0
APPID
  5
42D5
330
9
100
AcDbSymbolTableRecord
100
AcDbRegAppTableRecord
  2
ACAD_DSTYLE_DIMEXT_LENGTH
 70
     0
  0
APPID
  5
42D6
330
9
100
AcDbSymbolTableRecord
100
AcDbRegAppTableRecord
  2
ACAD_DSTYLE_DIMEXT_ENABLED
 70
     0
  0
APPID
  5
42D7
330
9
100
AcDbSymbolTableRecord
100
AcDbRegAppTableRecord
  2
ACAD_DSTYLE_DIM_EXT1_LINETYPE
 70
     0
  0
APPID
  5
42D8
330
9
100
AcDbSymbolTableRecord
100
AcDbRegAppTableRecord
  2
ACAD_DSTYLE_DIMJOGGED_JOGANGLE_SYMBOL
 70
     0
  0
APPID
  5
42D9
330
9
100
AcDbSymbolTableRecord
100
AcDbRegAppTableRecord
  2
ACAD_DSTYLE_DIMARC_LENGTH_SYMBOL
 70
     0
  0
APPID
  5
5E72
330
9
100
AcDbSymbolTableRecord
100
AcDbRegAppTableRecord
  2
AcAecLayerStandard
 70
     0
  0
APPID
  5
7C19
330
9
100
AcDbSymbolTableRecord
100
AcDbRegAppTableRecord
  2
GENIUS_GENDIM_13
 70
     0
  0
APPID
  5
7C1A
330
9
100
AcDbSymbolTableRecord
100
AcDbRegAppTableRecord
  2
GENIUS_GE3DTOL_13
 70
     0
  0
APPID
  5
7C9A
330
9
100
AcDbSymbolTableRecord
100
AcDbRegAppTableRecord
  2
ASURF_PCURVE_APPNAME
 70
     0
  0
APPID
  5
7C9F
330
9
100
AcDbSymbolTableRecord
100
AcDbRegAppTableRecord
  2
AMG_3D2D_5.0
 70
     0
  0
ENDTAB
  0
TABLE
  2
DIMSTYLE
  5
A
330
0
100
AcDbSymbolTable
 70
    16
100
AcDbDimStyleTable
 71
     3
340
81
340
8B
340
86
  0
DIMSTYLE
105
81
330
A
100
AcDbSymbolTableRecord
100
AcDbDimStyleTableRecord
  2
AM_ISO
 70
     0
  4
"
 41
3.5
 42
1.0
 43
8.0
 44
1.0
 47
0.1
 48
0.1
 73
     0
 74
     0
 77
     1
 78
     8
 79
     2
140
3.5
141
0.0
143
0.0393701
146
0.6
147
1.0
172
     1
176
   256
177
   256
178
   256
271
     2
272
     2
283
     0
284
     8
340
11
371
    -1
372
    -1
  0
DIMSTYLE
105
82
330
A
100
AcDbSymbolTableRecord
100
AcDbDimStyleTableRecord
  2
AM_ISO$3
 70
     0
  4
"
 41
3.5
 42
1.0
 43
8.0
 44
1.0
 47
0.1
 48
0.1
 73
     0
 77
     1
 78
     8
 79
     2
140
3.5
141
0.0
143
0.0393701
146
0.6
147
1.0
176
   256
177
   256
178
   256
271
     2
272
     2
283
     0
284
     8
288
     1
289
     0
340
11
371
    -1
372
    -1
  0
DIMSTYLE
105
83
330
A
100
AcDbSymbolTableRecord
100
AcDbDimStyleTableRecord
  2
AM_ISO$4
 70
     0
  4
"
 41
3.5
 42
1.0
 43
8.0
 44
1.0
 47
0.1
 48
0.1
 73
     0
 77
     1
 78
     8
 79
     2
140
3.5
141
0.0
143
0.0393701
146
0.6
147
1.0
176
   256
177
   256
178
   256
271
     2
272
     2
283
     0
284
     8
288
     1
289
     0
340
11
371
    -1
372
    -1
  0
DIMSTYLE
105
84
330
A
100
AcDbSymbolTableRecord
100
AcDbDimStyleTableRecord
  2
AM_ISO$6
 70
     0
  4
"
 41
3.5
 42
1.0
 43
8.0
 44
1.0
 47
0.1
 48
0.1
 73
     0
 74
     0
 78
     8
 79
     2
140
3.5
141
0.0
143
0.0393701
146
0.6
147
1.0
172
     1
176
   256
177
   256
178
   256
271
     2
272
     2
283
     0
284
     8
340
11
371
    -1
372
    -1
  0
DIMSTYLE
105
85
330
A
100
AcDbSymbolTableRecord
100
AcDbDimStyleTableRecord
  2
AM_ISO$7
 70
     0
  4
"
 41
3.5
 42
1.0
 43
8.0
 44
1.0
 47
0.1
 48
0.1
 73
     0
 74
     0
 77
     1
 78
     8
 79
     2
140
3.5
141
0.0
143
0.0393701
146
0.6
147
1.0
172
     1
176
   256
177
   256
178
   256
271
     2
272
     2
283
     0
284
     8
340
11
371
    -1
372
    -1
  0
DIMSTYLE
105
86
330
A
100
AcDbSymbolTableRecord
100
AcDbDimStyleTableRecord
  2
AM_ISO$SF
 70
     0
  4
"
 41
2.5
 42
1.0
 43
10.0
 44
1.0
 47
0.1
 48
0.1
 73
     0
 74
     0
 75
     1
 76
     1
 77
     1
 78
     8
 79
     2
140
3.5
141
0.0
143
0.0393701
146
0.71
147
1.5
172
     1
176
   256
177
   256
178
     2
271
     2
272
     3
274
     4
283
     0
284
     8
340
11
371
    -1
372
    -1
  0
DIMSTYLE
105
8B
330
A
100
AcDbSymbolTableRecord
100
AcDbDimStyleTableRecord
  2
AM_ISO$SH
 70
     0
  4
"
 41
2.5
 42
1.0
 43
10.0
 44
1.0
 47
0.1
 48
0.1
 73
     0
 74
     0
 75
     1
 76
     1
 77
     1
 78
     8
 79
     2
140
3.5
141
0.0
143
0.0393701
144
2.0
146
0.71
147
1.5
172
     1
173
     1
176
   256
177
   256
178
     2
271
     2
272
     3
274
     4
283
     0
284
     8
340
11
343
87
371
    -1
372
    -1
  0
DIMSTYLE
105
40B
102
{ACAD_REACTORS
330
A57E
330
A516
330
A540
330
A724
330
A67B
330
A6A1
330
A7A5
330
A77B
330
A7CB
330
A622
102
}
330
A
100
AcDbSymbolTableRecord
100
AcDbDimStyleTableRecord
  2
AM_ISO$0
 70
     0
  4
"
 41
3.5
 42
1.0
 43
8.0
 44
1.0
 47
0.1
 48
0.1
 73
     0
 74
     0
 77
     1
 78
     8
 79
     2
140
3.5
141
0.0
143
0.0393701
146
0.6
147
1.0
172
     1
176
   256
177
   256
178
   256
271
     2
272
     2
283
     0
284
     8
340
11
371
    -1
372
    -1
  0
DIMSTYLE
105
2AAB
330
A
100
AcDbSymbolTableRecord
100
AcDbDimStyleTableRecord
  2
AM_ISO$SH$3
 70
     0
  4
"
 40
1.3
 41
2.5
 42
1.0
 43
10.0
 44
1.0
 47
0.1
 48
0.1
 73
     0
 74
     0
 75
     1
 76
     1
 77
     1
 78
     8
 79
     2
140
3.5
141
0.0
143
0.0393701
144
2.0
146
0.71
147
1.5
172
     1
173
     1
176
   256
177
   256
178
     2
271
     2
272
     3
274
     4
283
     0
284
     8
340
11
343
87
371
    -1
372
    -1
  0
DIMSTYLE
105
3FD7
330
A
100
AcDbSymbolTableRecord
100
AcDbDimStyleTableRecord
  2
AM_ISO$2
 70
     0
  4
"
 41
2.5
 42
1.0
 43
10.0
 44
1.0
 47
0.1
 48
0.1
 73
     0
 74
     0
 77
     1
 78
     8
 79
     2
140
3.5
141
0.0
143
0.0393701
146
0.71
147
1.5
172
     1
176
   256
177
   256
178
     2
271
     2
272
     3
274
     4
283
     0
284
     8
340
11
371
    -1
372
    -1
  0
DIMSTYLE
105
6430
330
A
100
AcDbSymbolTableRecord
100
AcDbDimStyleTableRecord
  2
AM_ISO$SH$0
 70
     0
  4
"
 40
1.5
 41
2.5
 42
1.0
 43
10.0
 44
1.0
 47
0.1
 48
0.1
 73
     0
 74
     0
 75
     1
 76
     1
 77
     1
 78
     8
 79
     2
140
3.5
141
0.0
143
0.0393701
144
2.0
146
0.71
147
1.5
172
     1
173
     1
176
   256
177
   256
178
     2
271
     2
272
     3
274
     4
283
     0
284
     8
340
11
343
87
371
    -1
372
    -1
  0
DIMSTYLE
105
7DF9
330
A
100
AcDbSymbolTableRecord
100
AcDbDimStyleTableRecord
  2
STANDARD
 70
     0
 41
2.5
 42
0.625
 43
3.75
 44
1.25
 73
     0
 74
     0
 77
     1
 78
     8
140
2.5
141
2.5
143
0.0394
147
0.625
171
     4
172
     1
273
     8
274
     4
277
     6
340
11
  0
DIMSTYLE
105
7DFA
330
A
100
AcDbSymbolTableRecord
100
AcDbDimStyleTableRecord
  2
AM_ANSI
 70
     0
  4
mm
 41
0.1
 42
0.05
 43
0.5
 44
0.1
 47
0.1
 48
0.1
 78
     7
 79
     2
140
0.12
141
0.0
146
0.71
147
0.06
176
   256
177
   256
178
     2
274
     4
284
     7
340
11
371
    -1
372
    -1
  0
DIMSTYLE
105
7DFB
330
A
100
AcDbSymbolTableRecord
100
AcDbDimStyleTableRecord
  2
DAYUS
 70
     0
  4
"
 40
0.6666666666666666
 41
3.0
 42
2.0
 43
10.0
 44
1.0
 47
0.1
 48
0.1
 73
     0
 74
     0
 77
     1
 78
     8
 79
     2
140
3.5
141
0.0
143
0.0393701
146
0.71
147
1.5
172
     1
176
   256
177
   256
178
     3
271
     2
272
     8
283
     0
284
     8
340
7DF8
371
    -1
372
    -1
  0
DIMSTYLE
105
857F
330
A
100
AcDbSymbolTableRecord
100
AcDbDimStyleTableRecord
  2
ISO-25$0
 70
     0
 40
5.0
 41
2.5
 42
0.625
 43
3.75
 44
1.25
 73
     0
 74
     0
 77
     1
 78
     8
140
2.5
141
2.5
143
0.03937007874016
147
0.625
171
     3
172
     1
271
     2
272
     2
274
     3
278
    44
283
     0
284
     8
340
11
  0
DIMSTYLE
105
968B
330
A
100
AcDbSymbolTableRecord
100
AcDbDimStyleTableRecord
  2
ISO-25
 70
     0
 41
2.5
 42
0.625
 43
3.75
 44
1.25
 73
     0
 74
     0
 77
     1
 78
     8
140
2.5
141
2.5
143
0.03937007874016
147
0.625
171
     3
172
     1
271
     2
272
     2
274
     3
278
    44
283
     0
284
     8
340
11
  0
ENDTAB
  0
TABLE
  2
BLOCK_RECORD
  5
1
330
0
100
AcDbSymbolTable
 70
    20
  0
BLOCK_RECORD
  5
1F
102
{ACAD_XDICTIONARY
360
8F
102
}
330
1
100
AcDbSymbolTableRecord
100
AcDbBlockTableRecord
  2
*Model_Space
340
22
  0
BLOCK_RECORD
  5
1B
330
1
100
AcDbSymbolTableRecord
100
AcDbBlockTableRecord
  2
*Paper_Space
340
1E
  0
BLOCK_RECORD
  5
23
330
1
100
AcDbSymbolTableRecord
100
AcDbBlockTableRecord
  2
*Paper_Space0
340
26
  0
BLOCK_RECORD
  5
87
330
1
100
AcDbSymbolTableRecord
100
AcDbBlockTableRecord
  2
GENAXEH
340
0
  0
BLOCK_RECORD
  5
7CF2
102
{ACAD_XDICTIONARY
360
7CF3
102
}
330
1
100
AcDbSymbolTableRecord
100
AcDbBlockTableRecord
  2
S2
340
0
1001
ACAD
1000
DesignCenter Data
1002
{
1070
     1
1070
     4
1002
}
  0
BLOCK_RECORD
  5
8569
330
1
100
AcDbSymbolTableRecord
100
AcDbBlockTableRecord
  2
SW_CENTERMARKSYMBOL_0
340
0
  0
BLOCK_RECORD
  5
8574
330
1
100
AcDbSymbolTableRecord
100
AcDbBlockTableRecord
  2
SW_CENTERMARKSYMBOL_1
340
0
  0
BLOCK_RECORD
  5
A517
330
1
100
AcDbSymbolTableRecord
100
AcDbBlockTableRecord
  2
*D6
340
0
  0
BLOCK_RECORD
  5
A541
330
1
100
AcDbSymbolTableRecord
100
AcDbBlockTableRecord
  2
*D7
340
0
  0
BLOCK_RECORD
  5
A57F
330
1
100
AcDbSymbolTableRecord
100
AcDbBlockTableRecord
  2
*D8
340
0
  0
BLOCK_RECORD
  5
A623
330
1
100
AcDbSymbolTableRecord
100
AcDbBlockTableRecord
  2
*D9
340
0
  0
BLOCK_RECORD
  5
A67C
330
1
100
AcDbSymbolTableRecord
100
AcDbBlockTableRecord
  2
*D10
340
0
  0
BLOCK_RECORD
  5
A6A2
330
1
100
AcDbSymbolTableRecord
100
AcDbBlockTableRecord
  2
*D11
340
0
  0
BLOCK_RECORD
  5
A725
330
1
100
AcDbSymbolTableRecord
100
AcDbBlockTableRecord
  2
*D12
340
0
  0
BLOCK_RECORD
  5
A77C
330
1
100
AcDbSymbolTableRecord
100
AcDbBlockTableRecord
  2
*D13
340
0
  0
BLOCK_RECORD
  5
A7A6
330
1
100
AcDbSymbolTableRecord
100
AcDbBlockTableRecord
  2
*D14
340
0
  0
BLOCK_RECORD
  5
A7CC
330
1
100
AcDbSymbolTableRecord
100
AcDbBlockTableRecord
  2
*D15
340
0
  0
BLOCK_RECORD
  5
B1D6
330
1
100
AcDbSymbolTableRecord
100
AcDbBlockTableRecord
  2
*D16
340
0
  0
BLOCK_RECORD
  5
B1F3
330
1
100
AcDbSymbolTableRecord
100
AcDbBlockTableRecord
  2
*D17
340
0
  0
BLOCK_RECORD
  5
B21E
330
1
100
AcDbSymbolTableRecord
100
AcDbBlockTableRecord
  2
*D18
340
0
  0
BLOCK_RECORD
  5
B23D
330
1
100
AcDbSymbolTableRecord
100
AcDbBlockTableRecord
  2
*D19
340
0
  0
ENDTAB
  0
ENDSEC
  0
SECTION
  2
BLOCKS
  0
BLOCK
  5
20
330
1F
100
AcDbEntity
  8
0
100
AcDbBlockBegin
  2
*Model_Space
 70
     0
 10
0.0
 20
0.0
 30
0.0
  3
*Model_Space
  1

  0
ENDBLK
  5
21
330
1F
100
AcDbEntity
  8
0
100
AcDbBlockEnd
  0
BLOCK
  5
1C
330
1B
100
AcDbEntity
 67
     1
  8
0
100
AcDbBlockBegin
  2
*Paper_Space
 70
     0
 10
0.0
 20
0.0
 30
0.0
  3
*Paper_Space
  1

  0
ENDBLK
  5
1D
330
1B
100
AcDbEntity
 67
     1
  8
0
100
AcDbBlockEnd
  0
BLOCK
  5
24
330
23
100
AcDbEntity
  8
0
100
AcDbBlockBegin
  2
*Paper_Space0
 70
     0
 10
0.0
 20
0.0
 30
0.0
  3
*Paper_Space0
  1

  0
ENDBLK
  5
25
330
23
100
AcDbEntity
  8
0
100
AcDbBlockEnd
  0
BLOCK
  5
89
330
87
100
AcDbEntity
  8
0
100
AcDbBlockBegin
  2
GENAXEH
 70
     0
 10
0.0
 20
0.0
 30
0.0
  3
GENAXEH
  1

  0
LINE
  5
88
330
87
100
AcDbEntity
  8
0
100
AcDbLine
 10
-1.0
 20
0.0
 30
0.0
 11
1.0
 21
0.0
 31
0.0
  0
ENDBLK
  5
8A
330
87
100
AcDbEntity
  8
0
100
AcDbBlockEnd
  0
BLOCK
  5
7CF4
330
7CF2
100
AcDbEntity
  8
0
100
AcDbBlockBegin
  2
S2
 70
     0
 10
0.0
 20
0.0
 30
0.0
  3
S2
  1

  0
LINE
  5
7CF5
330
7CF2
100
AcDbEntity
  8
AM_5
100
AcDbLine
 10
0.0000000000000284
 20
4.000000000000028
 30
0.0
 11
4.0
 21
4.0
 31
0.0
  0
LINE
  5
7CF6
330
7CF2
100
AcDbEntity
  8
AM_5
100
AcDbLine
 10
0.0000000000000284
 20
0.0
 30
0.0
 11
4.0
 21
0.0
 31
0.0
  0
TEXT
  5
7CF7
330
7CF2
100
AcDbEntity
  8
AM_5
100
AcDbText
 10
1.099999999999999
 20
0.5
 30
0.0
 40
3.0
  1
2
 41
0.9
  7
DAYUS
 72
     4
 11
2.0
 21
2.0
 31
0.0
100
AcDbText
  0
LINE
  5
7CF8
330
7CF2
100
AcDbEntity
  8
AM_5
100
AcDbLine
 10
0.0
 20
4.0
 30
0.0
 11
0.0
 21
0.0
 31
0.0
  0
LINE
  5
7CF9
330
7CF2
100
AcDbEntity
  8
AM_5
100
AcDbLine
 10
4.0
 20
4.0
 30
0.0
 11
4.0
 21
0.0
 31
0.0
  0
ENDBLK
  5
7CFA
330
7CF2
100
AcDbEntity
  8
0
100
AcDbBlockEnd
  0
BLOCK
  5
856A
330
8569
100
AcDbEntity
  8
0
100
AcDbBlockBegin
  2
SW_CENTERMARKSYMBOL_0
 70
     0
 10
0.0
 20
0.0
 30
0.0
  3
SW_CENTERMARKSYMBOL_0
  1

  0
LINE
  5
856B
330
8569
100
AcDbEntity
  8
0
  6
Continuous
 62
     0
370
     0
100
AcDbLine
 10
0.0
 20
0.0
 30
0.0
 11
0.0
 21
2.500000000000002
 31
0.0
  0
LINE
  5
856C
330
8569
100
AcDbEntity
  8
0
  6
Continuous
 62
     0
370
     0
100
AcDbLine
 10
0.0
 20
0.0
 30
0.0
 11
-2.500000000000002
 21
0.0
 31
0.0
  0
LINE
  5
856D
330
8569
100
AcDbEntity
  8
0
  6
Continuous
 62
     0
370
     0
100
AcDbLine
 10
0.0
 20
0.0
 30
0.0
 11
0.0
 21
-2.500000000000002
 31
0.0
  0
LINE
  5
856E
330
8569
100
AcDbEntity
  8
0
  6
Continuous
 62
     0
370
     0
100
AcDbLine
 10
0.0
 20
0.0
 30
0.0
 11
2.500000000000002
 21
0.0
 31
0.0
  0
LINE
  5
856F
330
8569
100
AcDbEntity
  8
0
  6
Continuous
 62
     0
370
     0
100
AcDbLine
 10
0.0
 20
2.500000000000002
 30
0.0
 11
0.0
 21
4.500000000000003
 31
0.0
  0
LINE
  5
8570
330
8569
100
AcDbEntity
  8
0
  6
Continuous
 62
     0
370
     0
100
AcDbLine
 10
-2.500000000000002
 20
0.0
 30
0.0
 11
-4.500000000000003
 21
0.0
 31
0.0
  0
LINE
  5
8571
330
8569
100
AcDbEntity
  8
0
  6
Continuous
 62
     0
370
     0
100
AcDbLine
 10
0.0
 20
-2.500000000000002
 30
0.0
 11
0.0
 21
-4.500000000000003
 31
0.0
  0
LINE
  5
8572
330
8569
100
AcDbEntity
  8
0
  6
Continuous
 62
     0
370
     0
100
AcDbLine
 10
2.500000000000002
 20
0.0
 30
0.0
 11
4.500000000000003
 21
0.0
 31
0.0
  0
ENDBLK
  5
8573
330
8569
100
AcDbEntity
  8
0
100
AcDbBlockEnd
  0
BLOCK
  5
8575
330
8574
100
AcDbEntity
  8
0
100
AcDbBlockBegin
  2
SW_CENTERMARKSYMBOL_1
 70
     0
 10
0.0
 20
0.0
 30
0.0
  3
SW_CENTERMARKSYMBOL_1
  1

  0
LINE
  5
8576
330
8574
100
AcDbEntity
  8
0
  6
Continuous
 62
     0
370
     0
100
AcDbLine
 10
0.0
 20
0.0
 30
0.0
 11
0.0
 21
2.500000000000002
 31
0.0
  0
LINE
  5
8577
330
8574
100
AcDbEntity
  8
0
  6
Continuous
 62
     0
370
     0
100
AcDbLine
 10
0.0
 20
0.0
 30
0.0
 11
-2.500000000000002
 21
0.0
 31
0.0
  0
LINE
  5
8578
330
8574
100
AcDbEntity
  8
0
  6
Continuous
 62
     0
370
     0
100
AcDbLine
 10
0.0
 20
0.0
 30
0.0
 11
0.0
 21
-2.500000000000002
 31
0.0
  0
LINE
  5
8579
330
8574
100
AcDbEntity
  8
0
  6
Continuous
 62
     0
370
     0
100
AcDbLine
 10
0.0
 20
0.0
 30
0.0
 11
2.500000000000002
 21
0.0
 31
0.0
  0
LINE
  5
857A
330
8574
100
AcDbEntity
  8
0
  6
Continuous
 62
     0
370
     0
100
AcDbLine
 10
0.0
 20
5.000000000000004
 30
0.0
 11
0.0
 21
5.500000000000005
 31
0.0
  0
LINE
  5
857B
330
8574
100
AcDbEntity
  8
0
  6
Continuous
 62
     0
370
     0
100
AcDbLine
 10
-5.000000000000004
 20
0.0
 30
0.0
 11
-5.500000000000005
 21
0.0
 31
0.0
  0
LINE
  5
857C
330
8574
100
AcDbEntity
  8
0
  6
Continuous
 62
     0
370
     0
100
AcDbLine
 10
0.0
 20
-5.000000000000004
 30
0.0
 11
0.0
 21
-5.500000000000005
 31
0.0
  0
LINE
  5
857D
330
8574
100
AcDbEntity
  8
0
  6
Continuous
 62
     0
370
     0
100
AcDbLine
 10
5.000000000000004
 20
0.0
 30
0.0
 11
5.500000000000005
 21
0.0
 31
0.0
  0
ENDBLK
  5
857E
330
8574
100
AcDbEntity
  8
0
100
AcDbBlockEnd
  0
BLOCK
  5
A523
330
A517
100
AcDbEntity
  8
0
100
AcDbBlockBegin
  2
*D6
 70
     1
 10
0.0
 20
0.0
 30
0.0
  3
*D6
  1

  0
LINE
  5
B136
330
A517
100
AcDbEntity
  8
AM_REFDIM
100
AcDbLine
 10
692.388294663135
 20
108.8554493915378
 30
0.0
 11
692.388294663135
 21
99.78558640121391
 31
0.0
  0
LINE
  5
B137
330
A517
100
AcDbEntity
  8
AM_REFDIM
100
AcDbLine
 10
702.5882946631335
 20
108.8554493915381
 30
0.0
 11
702.5882946631335
 21
99.78558640121391
 31
0.0
  0
LINE
  5
B138
330
A517
100
AcDbEntity
  8
AM_REFDIM
100
AcDbLine
 10
695.9087165532721
 20
100.7914212269674
 30
0.0
 11
699.0678727729963
 21
100.7914212269674
 31
0.0
  0
SOLID
  5
B139
330
A517
100
AcDbEntity
  8
AM_REFDIM
100
AcDbTrace
 10
695.9087165532721
 20
101.3781582086569
 30
0.0
 11
695.9087165532721
 21
100.2046842452779
 31
0.0
 12
692.388294663135
 22
100.7914212269674
 32
0.0
 13
692.388294663135
 23
100.7914212269674
 33
0.0
  0
SOLID
  5
B13A
330
A517
100
AcDbEntity
  8
AM_REFDIM
100
AcDbTrace
 10
699.0678727729963
 20
101.3781582086569
 30
0.0
 11
699.0678727729963
 21
100.2046842452779
 31
0.0
 12
702.5882946631335
 22
100.7914212269674
 32
0.0
 13
702.5882946631335
 23
100.7914212269674
 33
0.0
  0
MTEXT
  5
B13B
330
A517
100
AcDbEntity
  8
AM_REFDIM
100
AcDbMText
 10
697.4882946631343
 20
103.557813496007
 30
0.0
 40
3.520421890137194
 41
0.0
 71
     5
 72
     1
  1
10.2
 73
     1
 44
1.0
1001
ACAD
1000
MTEXTBEGIN
1070
    73
1070
     1
1070
    44
1040
1.0
1070
    74
1070
     0
1000
MTEXTEND
  0
POINT
  5
B13C
330
A517
100
AcDbEntity
  8
Defpoints
 62
     0
100
AcDbPoint
 10
692.388294663135
 20
109.8612842172913
 30
0.0
  0
POINT
  5
B13D
330
A517
100
AcDbEntity
  8
Defpoints
 62
     0
100
AcDbPoint
 10
702.5882946631335
 20
109.8612842172915
 30
0.0
  0
POINT
  5
B13E
330
A517
100
AcDbEntity
  8
Defpoints
 62
     0
100
AcDbPoint
 10
702.5882946631335
 20
100.7914212269674
 30
0.0
  0
ENDBLK
  5
A524
330
A517
100
AcDbEntity
  8
0
100
AcDbBlockEnd
  0
BLOCK
  5
A54B
330
A541
100
AcDbEntity
  8
0
100
AcDbBlockBegin
  2
*D7
 70
     1
 10
0.0
 20
0.0
 30
0.0
  3
*D7
  1

  0
LINE
  5
B13F
330
A541
100
AcDbEntity
  8
AM_REFDIM
100
AcDbLine
 10
688.9882953033588
 20
108.2321591502345
 30
0.0
 11
688.9882953033588
 21
90.3478592616813
 31
0.0
  0
LINE
  5
B140
330
A541
100
AcDbEntity
  8
AM_REFDIM
100
AcDbLine
 10
705.9882940220884
 20
108.2321582099343
 30
0.0
 11
705.9882940220884
 21
90.3478592616813
 31
0.0
  0
LINE
  5
B141
330
A541
100
AcDbEntity
  8
AM_REFDIM
100
AcDbLine
 10
692.508717193496
 20
91.35369408743477
 30
0.0
 11
702.4678721319512
 21
91.35369408743477
 31
0.0
  0
SOLID
  5
B142
330
A541
100
AcDbEntity
  8
AM_REFDIM
100
AcDbTrace
 10
692.508717193496
 20
91.94043106912429
 30
0.0
 11
692.508717193496
 21
90.76695710574524
 31
0.0
 12
688.9882953033588
 22
91.35369408743477
 32
0.0
 13
688.9882953033588
 23
91.35369408743477
 33
0.0
  0
SOLID
  5
B143
330
A541
100
AcDbEntity
  8
AM_REFDIM
100
AcDbTrace
 10
702.4678721319512
 20
91.94043106912429
 30
0.0
 11
702.4678721319512
 21
90.76695710574524
 31
0.0
 12
705.9882940220884
 22
91.35369408743477
 32
0.0
 13
705.9882940220884
 23
91.35369408743477
 33
0.0
  0
MTEXT
  5
B144
330
A541
100
AcDbEntity
  8
AM_REFDIM
100
AcDbMText
 10
697.4882946627237
 20
94.11973985825685
 30
0.0
 40
3.520421890137194
 41
0.0
 71
     5
 72
     1
  1
17
 73
     1
 44
1.0
1001
ACAD
1000
MTEXTBEGIN
1070
    73
1070
     1
1070
    44
1040
1.0
1070
    74
1070
     0
1000
MTEXTEND
  0
POINT
  5
B145
330
A541
100
AcDbEntity
  8
Defpoints
 62
     0
100
AcDbPoint
 10
688.9882953033588
 20
109.237993975988
 30
0.0
  0
POINT
  5
B146
330
A541
100
AcDbEntity
  8
Defpoints
 62
     0
100
AcDbPoint
 10
705.9882940220884
 20
109.2379930356877
 30
0.0
  0
POINT
  5
B147
330
A541
100
AcDbEntity
  8
Defpoints
 62
     0
100
AcDbPoint
 10
705.9882940220884
 20
91.35369408743477
 30
0.0
  0
ENDBLK
  5
A54C
330
A541
100
AcDbEntity
  8
0
100
AcDbBlockEnd
  0
BLOCK
  5
A589
330
A57F
100
AcDbEntity
  8
0
100
AcDbBlockBegin
  2
*D8
 70
     1
 10
0.0
 20
0.0
 30
0.0
  3
*D8
  1

  0
LINE
  5
B148
330
A57F
100
AcDbEntity
  8
AM_REFDIM
100
AcDbLine
 10
733.4946496272486
 20
141.452263942523
 30
0.0
 11
753.2488944597774
 21
141.452263942523
 31
0.0
  0
LINE
  5
B149
330
A57F
100
AcDbEntity
  8
AM_REFDIM
100
AcDbLine
 10
706.9941288478418
 20
109.2379930356877
 30
0.0
 11
753.2488944597774
 21
109.2379930356877
 31
0.0
  0
LINE
  5
B14A
330
A57F
100
AcDbEntity
  8
AM_REFDIM
100
AcDbLine
 10
752.2430596340239
 20
137.9318420523859
 30
0.0
 11
752.2430596340239
 21
112.7584149258249
 31
0.0
  0
SOLID
  5
B14B
330
A57F
100
AcDbEntity
  8
AM_REFDIM
100
AcDbTrace
 10
751.6563226523343
 20
137.9318420523859
 30
0.0
 11
752.8297966157134
 21
137.9318420523859
 31
0.0
 12
752.2430596340239
 22
141.452263942523
 32
0.0
 13
752.2430596340239
 23
141.452263942523
 33
0.0
  0
SOLID
  5
B14C
330
A57F
100
AcDbEntity
  8
AM_REFDIM
100
AcDbTrace
 10
751.6563226523343
 20
112.7584149258249
 30
0.0
 11
752.8297966157134
 21
112.7584149258249
 31
0.0
 12
752.2430596340239
 22
109.2379930356877
 32
0.0
 13
752.2430596340239
 23
109.2379930356877
 33
0.0
  0
MTEXT
  5
B14D
330
A57F
100
AcDbEntity
  8
AM_REFDIM
100
AcDbMText
 10
749.4766673649841
 20
125.3451284891054
 30
0.0
 40
3.520421890137194
 41
0.0
 71
     5
 72
     1
  1
32
 11
0.0000000000000001
 21
1.0
 31
0.0
 73
     1
 44
1.0
1001
ACAD
1000
MTEXTBEGIN
1070
    73
1070
     1
1070
    44
1040
1.0
1070
    74
1070
     0
1000
MTEXTEND
  0
POINT
  5
B14E
330
A57F
100
AcDbEntity
  8
Defpoints
 62
     0
100
AcDbPoint
 10
732.4888148014951
 20
141.452263942523
 30
0.0
  0
POINT
  5
B14F
330
A57F
100
AcDbEntity
  8
Defpoints
 62
     0
100
AcDbPoint
 10
705.9882940220884
 20
109.2379930356877
 30
0.0
  0
POINT
  5
B150
330
A57F
100
AcDbEntity
  8
Defpoints
 62
     0
100
AcDbPoint
 10
752.2430596340239
 20
109.2379930356877
 30
0.0
  0
ENDBLK
  5
A58A
330
A57F
100
AcDbEntity
  8
0
100
AcDbBlockEnd
  0
BLOCK
  5
A62D
330
A623
100
AcDbEntity
  8
0
100
AcDbBlockBegin
  2
*D9
 70
     1
 10
0.0
 20
0.0
 30
0.0
  3
*D9
  1

  0
LINE
  5
B151
330
A623
100
AcDbEntity
  8
AM_REFDIM
100
AcDbLine
 10
785.1548302280169
 20
173.3282287345722
 30
0.0
 11
785.1548302280169
 21
183.714213368717
 31
0.0
  0
LINE
  5
B152
330
A623
100
AcDbEntity
  8
AM_REFDIM
100
AcDbLine
 10
832.7548295281127
 20
173.7410462952231
 30
0.0
 11
832.7548295281127
 21
183.714213368717
 31
0.0
  0
LINE
  5
B153
330
A623
100
AcDbEntity
  8
AM_REFDIM
100
AcDbLine
 10
788.6752521181541
 20
182.7083785429635
 30
0.0
 11
829.2344076379755
 21
182.7083785429635
 31
0.0
  0
SOLID
  5
B154
330
A623
100
AcDbEntity
  8
AM_REFDIM
100
AcDbTrace
 10
788.6752521181541
 20
183.295115524653
 30
0.0
 11
788.6752521181541
 21
182.1216415612739
 31
0.0
 12
785.1548302280169
 22
182.7083785429635
 32
0.0
 13
785.1548302280169
 23
182.7083785429635
 33
0.0
  0
SOLID
  5
B155
330
A623
100
AcDbEntity
  8
AM_REFDIM
100
AcDbTrace
 10
829.2344076379755
 20
183.295115524653
 30
0.0
 11
829.2344076379755
 21
182.1216415612739
 31
0.0
 12
832.7548295281127
 22
182.7083785429635
 32
0.0
 13
832.7548295281127
 23
182.7083785429635
 33
0.0
  0
MTEXT
  5
B156
330
A623
100
AcDbEntity
  8
AM_REFDIM
100
AcDbMText
 10
808.9548298780648
 20
185.4744243137855
 30
0.0
 40
3.520421890137194
 41
0.0
 71
     5
 72
     1
  1
47.5
 73
     1
 44
1.0
1001
ACAD
1000
MTEXTBEGIN
1070
    73
1070
     1
1070
    44
1040
1.0
1070
    74
1070
     0
1000
MTEXTEND
  0
POINT
  5
B157
330
A623
100
AcDbEntity
  8
Defpoints
 62
     0
100
AcDbPoint
 10
785.1548302280169
 20
172.3223939088187
 30
0.0
  0
POINT
  5
B158
330
A623
100
AcDbEntity
  8
Defpoints
 62
     0
100
AcDbPoint
 10
832.7548295281127
 20
172.7352114694697
 30
0.0
  0
POINT
  5
B159
330
A623
100
AcDbEntity
  8
Defpoints
 62
     0
100
AcDbPoint
 10
832.7548295281127
 20
182.7083785429635
 30
0.0
  0
ENDBLK
  5
A62E
330
A623
100
AcDbEntity
  8
0
100
AcDbBlockEnd
  0
BLOCK
  5
A686
330
A67C
100
AcDbEntity
  8
0
100
AcDbBlockBegin
  2
*D10
 70
     1
 10
0.0
 20
0.0
 30
0.0
  3
*D10
  1

  0
LINE
  5
B15A
330
A67C
100
AcDbEntity
  8
AM_REFDIM
100
AcDbLine
 10
833.2606652032323
 20
173.2379931220541
 30
0.0
 11
844.2548313774789
 21
173.2379931220541
 31
0.0
  0
LINE
  5
B15B
330
A67C
100
AcDbEntity
  8
AM_REFDIM
100
AcDbLine
 10
833.2606652032326
 20
109.2379931131202
 30
0.0
 11
844.2548313774789
 21
109.2379931131202
 31
0.0
  0
LINE
  5
B15C
330
A67C
100
AcDbEntity
  8
AM_REFDIM
100
AcDbLine
 10
843.2489965517255
 20
169.7175712319169
 30
0.0
 11
843.2489965517255
 21
112.7584150032574
 31
0.0
  0
SOLID
  5
B15D
330
A67C
100
AcDbEntity
  8
AM_REFDIM
100
AcDbTrace
 10
842.662259570036
 20
169.7175712319169
 30
0.0
 11
843.8357335334151
 21
169.7175712319169
 31
0.0
 12
843.2489965517255
 22
173.2379931220541
 32
0.0
 13
843.2489965517255
 23
173.2379931220541
 33
0.0
  0
SOLID
  5
B15E
330
A67C
100
AcDbEntity
  8
AM_REFDIM
100
AcDbTrace
 10
842.662259570036
 20
112.7584150032574
 30
0.0
 11
843.8357335334151
 21
112.7584150032574
 31
0.0
 12
843.2489965517255
 22
109.2379931131202
 32
0.0
 13
843.2489965517255
 23
109.2379931131202
 33
0.0
  0
MTEXT
  5
B15F
330
A67C
100
AcDbEntity
  8
AM_REFDIM
100
AcDbMText
 10
840.4829507809035
 20
141.2379931175873
 30
0.0
 40
3.520421890137194
 41
0.0
 71
     5
 72
     1
  1
64
 11
0.0000000000000001
 21
1.0
 31
0.0
 73
     1
 44
1.0
1001
ACAD
1000
MTEXTBEGIN
1070
    73
1070
     1
1070
    44
1040
1.0
1070
    74
1070
     0
1000
MTEXTEND
  0
POINT
  5
B160
330
A67C
100
AcDbEntity
  8
Defpoints
 62
     0
100
AcDbPoint
 10
832.2548303774789
 20
173.2379931220541
 30
0.0
  0
POINT
  5
B161
330
A67C
100
AcDbEntity
  8
Defpoints
 62
     0
100
AcDbPoint
 10
832.2548303774793
 20
109.2379931131202
 30
0.0
  0
POINT
  5
B162
330
A67C
100
AcDbEntity
  8
Defpoints
 62
     0
100
AcDbPoint
 10
843.2489965517255
 20
109.2379931131202
 30
0.0
  0
ENDBLK
  5
A687
330
A67C
100
AcDbEntity
  8
0
100
AcDbBlockEnd
  0
BLOCK
  5
A6AC
330
A6A2
100
AcDbEntity
  8
0
100
AcDbBlockBegin
  2
*D11
 70
     1
 10
0.0
 20
0.0
 30
0.0
  3
*D11
  1

  0
LINE
  5
B163
330
A6A2
100
AcDbEntity
  8
AM_REFDIM
100
AcDbLine
 10
832.7548295281129
 20
108.7511463355986
 30
0.0
 11
832.7548295281129
 21
92.70073792707211
 31
0.0
  0
LINE
  5
B164
330
A6A2
100
AcDbEntity
  8
AM_REFDIM
100
AcDbLine
 10
800.2548297888832
 20
108.0178867658917
 30
0.0
 11
800.2548297888832
 21
92.70073792707211
 31
0.0
  0
LINE
  5
B165
330
A6A2
100
AcDbEntity
  8
AM_REFDIM
100
AcDbLine
 10
829.2344076379757
 20
93.70657275282558
 30
0.0
 11
803.7752516790204
 21
93.70657275282558
 31
0.0
  0
SOLID
  5
B166
330
A6A2
100
AcDbEntity
  8
AM_REFDIM
100
AcDbTrace
 10
829.2344076379757
 20
94.29330973451511
 30
0.0
 11
829.2344076379757
 21
93.11983577113606
 31
0.0
 12
832.7548295281129
 22
93.70657275282558
 32
0.0
 13
832.7548295281129
 23
93.70657275282558
 33
0.0
  0
SOLID
  5
B167
330
A6A2
100
AcDbEntity
  8
AM_REFDIM
100
AcDbTrace
 10
803.7752516790204
 20
94.29330973451511
 30
0.0
 11
803.7752516790204
 21
93.11983577113606
 31
0.0
 12
800.2548297888832
 22
93.70657275282558
 32
0.0
 13
800.2548297888832
 23
93.70657275282558
 33
0.0
  0
MTEXT
  5
B168
330
A6A2
100
AcDbEntity
  8
AM_REFDIM
100
AcDbMText
 10
815.7519126703043
 20
96.4729650218652
 30
0.0
 40
3.520421890137194
 41
0.0
 71
     5
 72
     1
  1
32
 73
     1
 44
1.0
1001
ACAD
1000
MTEXTBEGIN
1070
    73
1070
     1
1070
    44
1040
1.0
1070
    74
1070
     0
1000
MTEXTEND
  0
POINT
  5
B169
330
A6A2
100
AcDbEntity
  8
Defpoints
 62
     0
100
AcDbPoint
 10
832.7548295281129
 20
109.7569811613521
 30
0.0
  0
POINT
  5
B16A
330
A6A2
100
AcDbEntity
  8
Defpoints
 62
     0
100
AcDbPoint
 10
800.2548297888832
 20
109.0237215916452
 30
0.0
  0
POINT
  5
B16B
330
A6A2
100
AcDbEntity
  8
Defpoints
 62
     0
100
AcDbPoint
 10
800.2548297888832
 20
93.70657275282558
 30
0.0
  0
ENDBLK
  5
A6AD
330
A6A2
100
AcDbEntity
  8
0
100
AcDbBlockEnd
  0
BLOCK
  5
A731
330
A725
100
AcDbEntity
  8
0
100
AcDbBlockBegin
  2
*D12
 70
     1
 10
0.0
 20
0.0
 30
0.0
  3
*D12
  1

  0
LINE
  5
B16C
330
A725
100
AcDbEntity
  8
AM_REFDIM
100
AcDbLine
 10
783.154829966207
 20
154.2438282992568
 30
0.0
 11
783.154829966207
 21
183.7142133687166
 31
0.0
  0
LINE
  5
B16D
330
A725
100
AcDbEntity
  8
AM_REFDIM
100
AcDbLine
 10
785.1548302280169
 20
173.3282287345722
 30
0.0
 11
785.1548302280169
 21
183.7142133687166
 31
0.0
  0
LINE
  5
B16E
330
A725
100
AcDbEntity
  8
AM_REFDIM
100
AcDbLine
 10
779.6344080760698
 20
182.7083785429631
 30
0.0
 11
776.1139861859326
 21
182.7083785429631
 31
0.0
  0
LINE
  5
B16F
330
A725
100
AcDbEntity
  8
AM_REFDIM
100
AcDbLine
 10
788.6752521181541
 20
182.7083785429631
 30
0.0
 11
792.1956740082912
 21
182.7083785429631
 31
0.0
  0
LINE
  5
B170
330
A725
100
AcDbEntity
  8
AM_REFDIM
100
AcDbLine
 10
783.154829966207
 20
182.7083785429631
 30
0.0
 11
785.1548302280169
 21
182.7083785429631
 31
0.0
  0
SOLID
  5
B171
330
A725
100
AcDbEntity
  8
AM_REFDIM
100
AcDbTrace
 10
779.6344080760698
 20
183.2951155246526
 30
0.0
 11
779.6344080760698
 21
182.1216415612735
 31
0.0
 12
783.154829966207
 22
182.7083785429631
 32
0.0
 13
783.154829966207
 23
182.7083785429631
 33
0.0
  0
SOLID
  5
B172
330
A725
100
AcDbEntity
  8
AM_REFDIM
100
AcDbTrace
 10
788.6752521181541
 20
183.2951155246526
 30
0.0
 11
788.6752521181541
 21
182.1216415612735
 31
0.0
 12
785.1548302280169
 22
182.7083785429631
 32
0.0
 13
785.1548302280169
 23
182.7083785429631
 33
0.0
  0
MTEXT
  5
B173
330
A725
100
AcDbEntity
  8
AM_REFDIM
100
AcDbMText
 10
784.1548300971119
 20
185.4747708120027
 30
0.0
 40
3.520421890137194
 41
0.0
 71
     5
 72
     1
  1
2
 73
     1
 44
1.0
1001
ACAD
1000
MTEXTBEGIN
1070
    73
1070
     1
1070
    44
1040
1.0
1070
    74
1070
     0
1000
MTEXTEND
  0
POINT
  5
B174
330
A725
100
AcDbEntity
  8
Defpoints
 62
     0
100
AcDbPoint
 10
783.154829966207
 20
153.2379934735033
 30
0.0
  0
POINT
  5
B175
330
A725
100
AcDbEntity
  8
Defpoints
 62
     0
100
AcDbPoint
 10
785.1548302280169
 20
172.3223939088187
 30
0.0
  0
POINT
  5
B176
330
A725
100
AcDbEntity
  8
Defpoints
 62
     0
100
AcDbPoint
 10
785.1548302280169
 20
182.7083785429631
 30
0.0
  0
ENDBLK
  5
A732
330
A725
100
AcDbEntity
  8
0
100
AcDbBlockEnd
  0
BLOCK
  5
A788
330
A77C
100
AcDbEntity
  8
0
100
AcDbBlockBegin
  2
*D13
 70
     1
 10
0.0
 20
0.0
 30
0.0
  3
*D13
  1

  0
LINE
  5
B177
330
A77C
100
AcDbEntity
  8
AM_REFDIM
100
AcDbLine
 10
698.4941294888869
 20
126.2379933560641
 30
0.0
 11
735.7914137018155
 21
126.2379933560641
 31
0.0
  0
LINE
  5
B178
330
A77C
100
AcDbEntity
  8
AM_REFDIM
100
AcDbLine
 10
698.4941294888869
 20
119.7379933560641
 30
0.0
 11
735.7914137018155
 21
119.7379933560641
 31
0.0
  0
LINE
  5
B179
330
A77C
100
AcDbEntity
  8
AM_REFDIM
100
AcDbLine
 10
734.785578876062
 20
129.7584152462013
 30
0.0
 11
734.785578876062
 21
133.2788371363385
 31
0.0
  0
LINE
  5
B17A
330
A77C
100
AcDbEntity
  8
AM_REFDIM
100
AcDbLine
 10
734.785578876062
 20
116.2175714659269
 30
0.0
 11
734.785578876062
 21
112.6971495757897
 31
0.0
  0
LINE
  5
B17B
330
A77C
100
AcDbEntity
  8
AM_REFDIM
100
AcDbLine
 10
734.785578876062
 20
126.2379933560641
 30
0.0
 11
734.785578876062
 21
119.7379933560641
 31
0.0
  0
SOLID
  5
B17C
330
A77C
100
AcDbEntity
  8
AM_REFDIM
100
AcDbTrace
 10
734.1988418943724
 20
129.7584152462013
 30
0.0
 11
735.3723158577516
 21
129.7584152462013
 31
0.0
 12
734.785578876062
 22
126.2379933560641
 32
0.0
 13
734.785578876062
 23
126.2379933560641
 33
0.0
  0
SOLID
  5
B17D
330
A77C
100
AcDbEntity
  8
AM_REFDIM
100
AcDbTrace
 10
734.1988418943724
 20
116.2175714659269
 30
0.0
 11
735.3723158577516
 21
116.2175714659269
 31
0.0
 12
734.785578876062
 22
119.7379933560641
 32
0.0
 13
734.785578876062
 23
119.7379933560641
 33
0.0
  0
MTEXT
  5
B17E
330
A77C
100
AcDbEntity
  8
AM_REFDIM
100
AcDbMText
 10
732.0195331052399
 20
122.9879933560642
 30
0.0
 40
3.520421890137194
 41
0.0
 71
     5
 72
     1
  1
6.5
 11
0.0000000000000001
 21
1.0
 31
0.0
 73
     1
 44
1.0
1001
ACAD
1000
MTEXTBEGIN
1070
    73
1070
     1
1070
    44
1040
1.0
1070
    74
1070
     0
1000
MTEXTEND
  0
POINT
  5
B17F
330
A77C
100
AcDbEntity
  8
Defpoints
 62
     0
100
AcDbPoint
 10
697.4882946631335
 20
126.2379933560641
 30
0.0
  0
POINT
  5
B180
330
A77C
100
AcDbEntity
  8
Defpoints
 62
     0
100
AcDbPoint
 10
697.4882946631335
 20
119.7379933560641
 30
0.0
  0
POINT
  5
B181
330
A77C
100
AcDbEntity
  8
Defpoints
 62
     0
100
AcDbPoint
 10
734.785578876062
 20
119.7379933560641
 30
0.0
  0
ENDBLK
  5
A789
330
A77C
100
AcDbEntity
  8
0
100
AcDbBlockEnd
  0
BLOCK
  5
A7B0
330
A7A6
100
AcDbEntity
  8
0
100
AcDbBlockBegin
  2
*D14
 70
     1
 10
0.0
 20
0.0
 30
0.0
  3
*D14
  1

  0
LINE
  5
B182
330
A7A6
100
AcDbEntity
  8
AM_REFDIM
100
AcDbLine
 10
698.4941294888869
 20
126.2379933560641
 30
0.0
 11
744.5431374259797
 21
126.2379933560641
 31
0.0
  0
LINE
  5
B183
330
A7A6
100
AcDbEntity
  8
AM_REFDIM
100
AcDbLine
 10
698.4941294888869
 20
113.2379933560641
 30
0.0
 11
744.5431374259797
 21
113.2379933560641
 31
0.0
  0
LINE
  5
B184
330
A7A6
100
AcDbEntity
  8
AM_REFDIM
100
AcDbLine
 10
743.5373026002261
 20
122.7175714659269
 30
0.0
 11
743.5373026002261
 21
116.7584152462013
 31
0.0
  0
SOLID
  5
B185
330
A7A6
100
AcDbEntity
  8
AM_REFDIM
100
AcDbTrace
 10
742.9505656185366
 20
122.7175714659269
 30
0.0
 11
744.1240395819157
 21
122.7175714659269
 31
0.0
 12
743.5373026002261
 22
126.2379933560641
 32
0.0
 13
743.5373026002261
 23
126.2379933560641
 33
0.0
  0
SOLID
  5
B186
330
A7A6
100
AcDbEntity
  8
AM_REFDIM
100
AcDbTrace
 10
742.9505656185366
 20
116.7584152462013
 30
0.0
 11
744.1240395819157
 21
116.7584152462013
 31
0.0
 12
743.5373026002261
 22
113.2379933560641
 32
0.0
 13
743.5373026002261
 23
113.2379933560641
 33
0.0
  0
MTEXT
  5
B187
330
A7A6
100
AcDbEntity
  8
AM_REFDIM
100
AcDbMText
 10
740.7712568294041
 20
119.7379933560641
 30
0.0
 40
3.520421890137194
 41
0.0
 71
     5
 72
     1
  1
13
 11
0.0000000000000001
 21
1.0
 31
0.0
 73
     1
 44
1.0
1001
ACAD
1000
MTEXTBEGIN
1070
    73
1070
     1
1070
    44
1040
1.0
1070
    74
1070
     0
1000
MTEXTEND
  0
POINT
  5
B188
330
A7A6
100
AcDbEntity
  8
Defpoints
 62
     0
100
AcDbPoint
 10
697.4882946631335
 20
126.2379933560641
 30
0.0
  0
POINT
  5
B189
330
A7A6
100
AcDbEntity
  8
Defpoints
 62
     0
100
AcDbPoint
 10
697.4882946631335
 20
113.2379933560641
 30
0.0
  0
POINT
  5
B18A
330
A7A6
100
AcDbEntity
  8
Defpoints
 62
     0
100
AcDbPoint
 10
743.5373026002261
 20
113.2379933560641
 30
0.0
  0
ENDBLK
  5
A7B1
330
A7A6
100
AcDbEntity
  8
0
100
AcDbBlockEnd
  0
BLOCK
  5
A7D8
330
A7CC
100
AcDbEntity
  8
0
100
AcDbBlockBegin
  2
*D15
 70
     1
 10
0.0
 20
0.0
 30
0.0
  3
*D15
  1

  0
LINE
  5
B18B
330
A7CC
100
AcDbEntity
  8
AM_REFDIM
100
AcDbLine
 10
698.4941294888869
 20
113.2379933560641
 30
0.0
 11
735.7914137018154
 21
113.2379933560641
 31
0.0
  0
LINE
  5
B18C
330
A7CC
100
AcDbEntity
  8
AM_REFDIM
100
AcDbLine
 10
704.0598160332216
 20
109.2379929294993
 30
0.0
 11
735.7914137018154
 21
109.2379929294993
 31
0.0
  0
LINE
  5
B18D
330
A7CC
100
AcDbEntity
  8
AM_REFDIM
100
AcDbLine
 10
734.7855788760618
 20
116.7584152462013
 30
0.0
 11
734.7855788760618
 21
120.2788371363385
 31
0.0
  0
LINE
  5
B18E
330
A7CC
100
AcDbEntity
  8
AM_REFDIM
100
AcDbLine
 10
734.7855788760618
 20
105.7175710393621
 30
0.0
 11
734.7855788760618
 21
102.1971491492249
 31
0.0
  0
LINE
  5
B18F
330
A7CC
100
AcDbEntity
  8
AM_REFDIM
100
AcDbLine
 10
734.7855788760618
 20
113.2379933560641
 30
0.0
 11
734.7855788760618
 21
109.2379929294993
 31
0.0
  0
SOLID
  5
B190
330
A7CC
100
AcDbEntity
  8
AM_REFDIM
100
AcDbTrace
 10
734.1988418943723
 20
116.7584152462013
 30
0.0
 11
735.3723158577515
 21
116.7584152462013
 31
0.0
 12
734.7855788760618
 22
113.2379933560641
 32
0.0
 13
734.7855788760618
 23
113.2379933560641
 33
0.0
  0
SOLID
  5
B191
330
A7CC
100
AcDbEntity
  8
AM_REFDIM
100
AcDbTrace
 10
734.1988418943723
 20
105.7175710393621
 30
0.0
 11
735.3723158577515
 21
105.7175710393621
 31
0.0
 12
734.7855788760618
 22
109.2379929294993
 32
0.0
 13
734.7855788760618
 23
109.2379929294993
 33
0.0
  0
MTEXT
  5
B192
330
A7CC
100
AcDbEntity
  8
AM_REFDIM
100
AcDbMText
 10
732.0195331052397
 20
111.2379931427818
 30
0.0
 40
3.520421890137194
 41
0.0
 71
     5
 72
     1
  1
4
 11
0.0000000000000001
 21
1.0
 31
0.0
 73
     1
 44
1.0
1001
ACAD
1000
MTEXTBEGIN
1070
    73
1070
     1
1070
    44
1040
1.0
1070
    74
1070
     0
1000
MTEXTEND
  0
POINT
  5
B193
330
A7CC
100
AcDbEntity
  8
Defpoints
 62
     0
100
AcDbPoint
 10
697.4882946631335
 20
113.2379933560641
 30
0.0
  0
POINT
  5
B194
330
A7CC
100
AcDbEntity
  8
Defpoints
 62
     0
100
AcDbPoint
 10
703.0539812074681
 20
109.2379929294993
 30
0.0
  0
POINT
  5
B195
330
A7CC
100
AcDbEntity
  8
Defpoints
 62
     0
100
AcDbPoint
 10
734.7855788760618
 20
109.2379929294993
 30
0.0
  0
ENDBLK
  5
A7D9
330
A7CC
100
AcDbEntity
  8
0
100
AcDbBlockEnd
  0
BLOCK
  5
B1E2
330
B1D6
100
AcDbEntity
  8
0
100
AcDbBlockBegin
  2
*D16
 70
     1
 10
0.0
 20
0.0
 30
0.0
  3
*D16
  1

  0
LINE
  5
B1E5
330
B1D6
100
AcDbEntity
  8
AM_REFDIM
100
AcDbLine
 10
697.4882946631336
 20
105.4517438041613
 30
0.0
 11
697.4882946631336
 21
95.86807315656249
 31
0.0
  0
LINE
  5
B1E6
330
B1D6
100
AcDbEntity
  8
AM_REFDIM
100
AcDbLine
 10
717.9943913175433
 20
120.9461672881133
 30
0.0
 11
729.7211850827876
 21
109.219373522869
 31
0.0
  0
ARC
  5
B1E7
330
B1D6
100
AcDbEntity
  8
AM_REFDIM
100
AcDbCircle
 10
697.4882946631336
 20
141.4522639425231
 30
0.0
 40
44.5841907859606
100
AcDbArc
 50
273.2132067176473
 51
311.7867932823527
  0
SOLID
  5
B1E8
330
B1D6
100
AcDbEntity
  8
AM_REFDIM
100
AcDbTrace
 10
699.998993907506
 20
96.5216623954446
 30
0.0
 11
699.9756298708755
 21
97.35466813746374
 31
0.0
 12
697.4882946631335
 22
96.86807315656251
 32
0.0
 13
697.4882946631335
 23
96.86807315656251
 33
0.0
  0
SOLID
  5
B1E9
330
B1D6
100
AcDbEntity
  8
AM_REFDIM
100
AcDbTrace
 10
726.9111920984361
 20
108.5117433222637
 30
0.0
 11
727.4836952386479
 21
107.9061984445773
 31
0.0
 12
729.0140783016012
 22
109.9264803040555
 32
0.0
 13
729.0140783016012
 23
109.9264803040555
 33
0.0
  0
MTEXT
  5
B1EA
330
B1D6
100
AcDbEntity
  8
AM_REFDIM
 62
     2
100
AcDbMText
 10
713.3062046671383
 20
103.2644510824574
 30
0.0
 40
3.5
 41
0.0
 71
     5
 72
     1
  1
45°
 11
0.9238795325112862
 21
0.382683432365091
 31
0.0
 73
     1
 44
1.0
1001
ACAD
1000
MTEXTBEGIN
1070
    73
1070
     1
1070
    44
1040
1.0
1070
    74
1070
     0
1000
MTEXTEND
  0
POINT
  5
B1EB
330
B1D6
100
AcDbEntity
  8
Defpoints
 62
     0
100
AcDbPoint
 10
709.0275323490244
 20
98.38724261816464
 30
0.0
  0
POINT
  5
B1EC
330
B1D6
100
AcDbEntity
  8
Defpoints
 62
     0
100
AcDbPoint
 10
697.4882946631336
 20
141.452263942523
 30
0.0
  0
POINT
  5
B1ED
330
B1D6
100
AcDbEntity
  8
Defpoints
 62
     0
100
AcDbPoint
 10
697.4882946631336
 20
176.4527840808848
 30
0.0
  0
POINT
  5
B1EE
330
B1D6
100
AcDbEntity
  8
Defpoints
 62
     0
100
AcDbPoint
 10
697.4882946631335
 20
106.4517438041613
 30
0.0
  0
POINT
  5
B1EF
330
B1D6
100
AcDbEntity
  8
Defpoints
 62
     0
100
AcDbPoint
 10
717.2872845363569
 20
121.6532740692998
 30
0.0
  0
ENDBLK
  5
B1E3
330
B1D6
100
AcDbEntity
  8
0
100
AcDbBlockEnd
  0
BLOCK
  5
B1FF
330
B1F3
100
AcDbEntity
  8
0
100
AcDbBlockBegin
  2
*D17
 70
     1
 10
0.0
 20
0.0
 30
0.0
  3
*D17
  1

  0
LINE
  5
B202
330
B1F3
100
AcDbEntity
  8
AM_REFDIM
100
AcDbLine
 10
697.4882946631332
 20
105.4517438041612
 30
0.0
 11
697.4882946631332
 21
78.66239316207873
 31
0.0
  0
LINE
  5
B203
330
B1F3
100
AcDbEntity
  8
AM_REFDIM
100
AcDbLine
 10
720.6977753084652
 20
128.0522640339157
 30
0.0
 11
751.8659178489177
 21
110.0573285342482
 31
0.0
  0
ARC
  5
B204
330
B1F3
100
AcDbEntity
  8
AM_REFDIM
100
AcDbCircle
 10
697.4882946631335
 20
141.4522639425231
 30
0.0
 40
61.78987078044438
100
AcDbArc
 50
272.3183285354759
 51
327.6816714455025
  0
SOLID
  5
B205
330
B1F3
100
AcDbEntity
  8
AM_REFDIM
100
AcDbTrace
 10
699.996212157494
 20
79.29638639630588
 30
0.0
 11
699.9793539466979
 21
80.12954919262686
 31
0.0
 12
697.4882946631332
 22
79.6623931620787
 32
0.0
 13
697.4882946631332
 23
79.6623931620787
 33
0.0
  0
SOLID
  5
B206
330
B1F3
100
AcDbEntity
  8
AM_REFDIM
100
AcDbTrace
 10
749.3497938128926
 20
108.6335859284574
 30
0.0
 11
750.0629048544533
 21
108.2024048912486
 31
0.0
 12
750.9998924452993
 22
110.5573285345356
 32
0.0
 13
750.9998924452993
 23
110.5573285345356
 33
0.0
  0
MTEXT
  5
B207
330
B1F3
100
AcDbEntity
  8
AM_REFDIM
 62
     2
100
AcDbMText
 10
726.7582300449402
 20
90.75524870754126
 30
0.0
 40
3.5
 41
0.0
 71
     5
 72
     1
  1
60°
 11
0.8660254038674361
 21
0.4999999998562442
 31
0.0
 73
     1
 44
1.0
1001
ACAD
1000
MTEXTBEGIN
1070
    73
1070
     1
1070
    44
1040
1.0
1070
    74
1070
     0
1000
MTEXTEND
  0
POINT
  5
B208
330
B1F3
100
AcDbEntity
  8
Defpoints
 62
     0
100
AcDbPoint
 10
718.62167511711
 20
83.388778328486
 30
0.0
  0
POINT
  5
B209
330
B1F3
100
AcDbEntity
  8
Defpoints
 62
     0
100
AcDbPoint
 10
697.4882946631335
 20
141.452263942523
 30
0.0
  0
POINT
  5
B20A
330
B1F3
100
AcDbEntity
  8
Defpoints
 62
     0
100
AcDbPoint
 10
697.4882946631334
 20
176.4527840808848
 30
0.0
  0
POINT
  5
B20B
330
B1F3
100
AcDbEntity
  8
Defpoints
 62
     0
100
AcDbPoint
 10
697.4882946631334
 20
106.4517438041613
 30
0.0
  0
POINT
  5
B20C
330
B1F3
100
AcDbEntity
  8
Defpoints
 62
     0
100
AcDbPoint
 10
719.8317499048466
 20
128.5522640342032
 30
0.0
  0
ENDBLK
  5
B200
330
B1F3
100
AcDbEntity
  8
0
100
AcDbBlockEnd
  0
BLOCK
  5
B22A
330
B21E
100
AcDbEntity
  8
0
100
AcDbBlockBegin
  2
*D18
 70
     1
 10
0.0
 20
0.0
 30
0.0
  3
*D18
  1

  0
LINE
  5
B22E
330
B21E
100
AcDbEntity
  8
AM_5
100
AcDbLine
 10
792.1548295787767
 20
167.8225404376948
 30
0.0
 11
792.1548295787767
 21
191.7083785429699
 31
0.0
  0
LINE
  5
B22F
330
B21E
100
AcDbEntity
  8
AM_5
100
AcDbLine
 10
785.1548302280169
 20
166.3421724570889
 30
0.0
 11
785.1548302280169
 21
191.7083785429699
 31
0.0
  0
LINE
  5
B230
330
B21E
100
AcDbEntity
  8
AM_5
100
AcDbLine
 10
795.6548295787767
 20
190.7083785429699
 30
0.0
 11
799.1548295787766
 21
190.7083785429699
 31
0.0
  0
LINE
  5
B231
330
B21E
100
AcDbEntity
  8
AM_5
100
AcDbLine
 10
781.6548302280168
 20
190.7083785429699
 30
0.0
 11
778.1548302280168
 21
190.7083785429699
 31
0.0
  0
LINE
  5
B232
330
B21E
100
AcDbEntity
  8
AM_5
100
AcDbLine
 10
792.1548295787767
 20
190.7083785429699
 30
0.0
 11
785.1548302280169
 21
190.7083785429699
 31
0.0
  0
SOLID
  5
B233
330
B21E
100
AcDbEntity
  8
AM_5
100
AcDbTrace
 10
795.6548295787767
 20
191.2917118763032
 30
0.0
 11
795.6548295787767
 21
190.1250452096365
 31
0.0
 12
792.1548295787767
 22
190.7083785429699
 32
0.0
 13
792.1548295787767
 23
190.7083785429699
 33
0.0
  0
SOLID
  5
B234
330
B21E
100
AcDbEntity
  8
AM_5
100
AcDbTrace
 10
781.6548302280168
 20
191.2917118763032
 30
0.0
 11
781.6548302280168
 21
190.1250452096365
 31
0.0
 12
785.1548302280169
 22
190.7083785429699
 32
0.0
 13
785.1548302280169
 23
190.7083785429699
 33
0.0
  0
MTEXT
  5
B235
330
B21E
100
AcDbEntity
  8
AM_5
100
AcDbMText
 10
788.6548299033968
 20
193.4583785429699
 30
0.0
 40
3.5
 41
0.0
 71
     5
 72
     1
  1
7
 73
     1
 44
1.0
1001
ACAD
1000
MTEXTBEGIN
1070
    73
1070
     1
1070
    44
1040
1.0
1070
    74
1070
     0
1000
MTEXTEND
  0
POINT
  5
B236
330
B21E
100
AcDbEntity
  8
Defpoints
 62
     0
100
AcDbPoint
 10
792.1548295787767
 20
166.8225404376948
 30
0.0
  0
POINT
  5
B237
330
B21E
100
AcDbEntity
  8
Defpoints
 62
     0
100
AcDbPoint
 10
785.1548302280169
 20
165.3421724570889
 30
0.0
  0
POINT
  5
B238
330
B21E
100
AcDbEntity
  8
Defpoints
 62
     0
100
AcDbPoint
 10
785.1548302280169
 20
190.7083785429699
 30
0.0
  0
ENDBLK
  5
B22B
330
B21E
100
AcDbEntity
  8
0
100
AcDbBlockEnd
  0
BLOCK
  5
B244
330
B23D
100
AcDbEntity
  8
0
100
AcDbBlockBegin
  2
*D19
 70
     1
 10
0.0
 20
0.0
 30
0.0
  3
*D19
  1

  0
LINE
  5
B247
330
B23D
100
AcDbEntity
  8
AM_REFDIM
100
AcDbLine
 10
744.4710397116692
 20
151.9193842510264
 30
0.0
 11
738.6704625351629
 21
151.9193842510264
 31
0.0
  0
LINE
  5
B248
330
B23D
100
AcDbEntity
  8
AM_REFDIM
100
AcDbLine
 10
738.6704625351629
 20
151.9193842510264
 30
0.0
 11
716.3707613143446
 21
161.6512352947078
 31
0.0
  0
MTEXT
  5
B249
330
B23D
100
AcDbEntity
  8
AM_REFDIM
100
AcDbMText
 10
742.070751123416
 20
154.6693842510264
 30
0.0
 40
3.5
 41
0.0
 71
     5
 72
     1
  1
\U+22059
 73
     1
 44
1.0
1001
ACAD
1000
MTEXTBEGIN
1070
    73
1070
     1
1070
    44
1040
1.0
1070
    74
1070
     0
1000
MTEXTEND
  0
SOLID
  5
B24A
330
B23D
100
AcDbEntity
  8
AM_REFDIM
100
AcDbTrace
 10
716.6040838437387
 20
162.1858738408817
 30
0.0
 11
716.1374387849505
 21
161.1165967485339
 31
0.0
 12
713.1629300373015
 22
163.0511704710725
 32
0.0
 13
713.1629300373015
 23
163.0511704710725
 33
0.0
  0
POINT
  5
B24B
330
B23D
100
AcDbEntity
  8
Defpoints
 62
     0
100
AcDbPoint
 10
713.1629300373015
 20
163.0511704710725
 30
0.0
  0
POINT
  5
B24C
330
B23D
100
AcDbEntity
  8
Defpoints
 62
     0
100
AcDbPoint
 10
721.4116390354127
 20
159.4513371604203
 30
0.0
  0
ENDBLK
  5
B245
330
B23D
100
AcDbEntity
  8
0
100
AcDbBlockEnd
  0
ENDSEC
  0
SECTION
  2
ENTITIES
  0
TEXT
  5
1599
330
1F
100
AcDbEntity
  8
LOGO
 62
     7
100
AcDbText
 10
677.5508471005442
 20
62.78247432467615
 30
0.0
 40
2.418849708597284
  1
Order example:
 41
0.8
  7
CHINESET
100
AcDbText
  0
TEXT
  5
159A
330
1F
100
AcDbEntity
  8
LOGO
 62
     7
100
AcDbText
 10
677.9848087413399
 20
66.18771388515845
 30
0.0
 40
3.628274562895926
  1
訂購代號：
  7
CHINESET
100
AcDbText
  0
LINE
  5
159B
330
1F
100
AcDbEntity
  8
LOGO
 62
     4
100
AcDbLine
 10
676.4998486978921
 20
52.58852823838298
 30
0.0
 11
676.4998486978921
 21
70.72990105286274
 31
0.0
  0
TEXT
  5
159C
330
1F
100
AcDbEntity
  8
LOGO
  6
Continuous
100
AcDbText
 10
643.1052911680466
 20
56.15237355006887
 30
0.0
 40
2.721205922171945
  1
金器工業股份有限公司
  7
CHINESET
100
AcDbText
  0
TEXT
  5
159D
330
1F
100
AcDbEntity
  8
LOGO
  6
Continuous
100
AcDbText
 10
638.1069742530593
 20
53.430634484887
 30
0.0
 40
1.814137281447963
  1
MINDMAN INDUSTRIAL CO., LTD.
 41
0.85
  7
CHINESET
100
AcDbText
  0
LINE
  5
159E
330
1F
100
AcDbEntity
  8
LOGO
 62
     4
100
AcDbLine
 10
676.4998486978921
 20
67.10162648996679
 30
0.0
 11
649.8925019033219
 21
67.10162648996679
 31
0.0
  0
LINE
  5
159F
330
1F
100
AcDbEntity
  8
LOGO
 62
     4
100
AcDbLine
 10
676.4998486978921
 20
63.47335192707084
 30
0.0
 11
649.8925019033219
 21
63.47335192707084
 31
0.0
  0
LINE
  5
15A0
330
1F
100
AcDbEntity
  8
LOGO
 62
     4
100
AcDbLine
 10
676.4998486978921
 20
59.84507736417508
 30
0.0
 11
636.5888285060369
 21
59.84507736417508
 31
0.0
  0
LINE
  5
15A1
330
1F
100
AcDbEntity
  8
LOGO
 62
     4
100
AcDbLine
 10
649.8925019033219
 20
59.84507736417508
 30
0.0
 11
649.8925019033219
 21
70.72990105286274
 31
0.0
  0
TEXT
  5
15A2
330
1F
100
AcDbEntity
  8
LOGO
100
AcDbText
 10
668.0773675897709
 20
60.75214600489877
 30
0.0
 40
1.814137281447963
  1
mm
  7
CHINESET
 72
     1
 11
670.3234423191827
 21
61.65921464562275
 31
0.0
100
AcDbText
 73
     2
  0
TEXT
  5
15A3
330
1F
100
AcDbEntity
  8
LOGO
100
AcDbText
 10
667.1271052042506
 20
68.00869513069068
 30
0.0
 40
1.814137281447963
  1
1 : 1
  7
CHINESET
 72
     1
 11
670.3234423191827
 21
68.91576377141466
 31
0.0
100
AcDbText
 73
     2
  0
LINE
  5
15A4
330
1F
100
AcDbEntity
  8
LOGO
 62
     4
100
AcDbLine
 10
664.4056001549057
 20
59.84507736417508
 30
0.0
 11
664.4056001549057
 21
70.72990105286274
 31
0.0
  0
TEXT
  5
15A5
330
1F
100
AcDbEntity
  8
LOGO
100
AcDbText
 10
651.3883552778016
 20
68.00958791478588
 30
118.8955688095171
 40
1.814137281447963
  1
比例 Scale:
 41
0.9
  7
CHINESET
 72
     4
 11
657.1490510291138
 21
68.91576377141466
 31
118.8955688095171
100
AcDbText
  0
TEXT
  5
15A6
330
1F
100
AcDbEntity
  8
LOGO
100
AcDbText
 10
651.2838804075753
 20
64.40593931318254
 30
118.8955688095171
 40
1.814137281447963
  1
投影  View:
 41
0.9
  7
CHINESET
 72
     4
 11
657.1490510291138
 21
65.28748920851871
 31
118.8955688095171
100
AcDbText
  0
TEXT
  5
15A7
330
1F
100
AcDbEntity
  8
LOGO
100
AcDbText
 10
651.4612447221455
 20
60.75214600489877
 30
118.8955688095171
 40
1.814137281447963
  1
單位  Unit:
 41
0.9
  7
CHINESET
 72
     4
 11
657.1490510291138
 21
61.65921464562275
 31
118.8955688095171
100
AcDbText
  0
LWPOLYLINE
  5
15A8
330
1F
100
AcDbEntity
  8
LOGO
 62
     4
100
AcDbPolyline
 90
        4
 70
     1
 43
0.0
 10
636.5888285060369
 20
70.72990105286272
 10
870.6012348676269
 20
70.72990105286274
 10
870.6012348676269
 20
206.8136541750342
 10
636.5888285060369
 20
206.8136541750342
1001
GENIUS_GENREC_14
1002
{
1000
PYDIR
1011
636.5888285060369
1021
206.8136541750342
1031
0.0
1002
}
1002
{
1000
PXDIR
1011
870.6012348676269
1021
70.72990105286274
1031
0.0
1002
}
1002
{
1000
PORI
1011
636.5888285060369
1021
70.72990105286272
1031
0.0
1002
}
1002
{
1000
PINS
1011
636.5888285060369
1021
70.72990105286272
1031
0.0
1002
}
1002
{
1000
PINS2
1011
870.6012348676269
1021
206.8136541750342
1031
0.0
1002
}
1002
{
1000
C
1070
     1
1002
}
1001
GENIUS_GENODEF_13
1002
{
1000
HIER
1070
     0
1002
}
1002
{
1000
MANEDIT
1070
     0
1002
}
1002
{
1000
NOSEL
1070
     0
1002
}
1002
{
1000
BEHIND
1070
     0
1002
}
1002
{
1000
OTHER
1070
     0
1002
}
1002
{
1000
REACTOR
1002
}
1001
GENIUS_GENOBJ-N-REC_13
1002
{
1000
OWNER
1000
GEN
1002
}
  0
SOLID
  5
15A9
330
1F
100
AcDbEntity
  8
LOGO
 62
     5
100
AcDbTrace
 10
638.471025050228
 20
62.860822372474
 30
0.0
 11
639.2554104077638
 21
62.8608223724738
 31
0.0
 12
642.5281906926545
 22
70.29895938358983
 32
0.0
 13
643.3125760501908
 23
70.29895938358944
 33
0.0
  0
SOLID
  5
15AA
330
1F
100
AcDbEntity
  8
LOGO
 62
     5
100
AcDbTrace
 10
639.5799836591589
 20
62.860822372474
 30
0.0
 11
640.3643690166947
 21
62.860822372474
 31
0.0
 12
643.3125760501908
 22
69.70390842270028
 32
0.0
 13
642.5281906926545
 23
66.82782877840215
 33
0.0
  0
SOLID
  5
15AB
330
1F
100
AcDbEntity
  8
LOGO
 62
     2
100
AcDbTrace
 10
639.2554104077638
 20
62.8608223724738
 30
0.0
 11
639.5799836591589
 21
62.860822372474
 31
0.0
 12
643.3125760501908
 22
70.29895938358944
 32
0.0
 13
643.6371493015853
 23
70.29895938358944
 33
0.0
  0
SOLID
  5
15AC
330
1F
100
AcDbEntity
  8
LOGO
 62
     5
100
AcDbTrace
 10
637.2134629672463
 20
60.15604527752303
 30
0.0
 11
637.4839406767416
 21
60.15604527752303
 31
0.0
 12
638.2456269589823
 22
61.5084338249984
 32
0.0
 13
638.5161046684769
 23
61.5084338249984
 33
0.0
  0
SOLID
  5
15AD
330
1F
100
AcDbEntity
  8
LOGO
 62
     5
100
AcDbTrace
 10
638.2456269589823
 20
61.5084338249984
 30
0.0
 11
638.5161046684769
 21
61.5084338249984
 31
0.0
 12
638.2456269589823
 22
60.15604527752303
 32
0.0
 13
638.5161046684769
 23
60.15604527752303
 33
0.0
  0
SOLID
  5
15AE
330
1F
100
AcDbEntity
  8
LOGO
 62
     5
100
AcDbTrace
 10
638.2456269589823
 20
60.15604527752303
 30
0.0
 11
638.5161046684769
 21
60.15604527752303
 31
0.0
 12
639.2777909507188
 22
61.5084338249984
 32
0.0
 13
639.5482686602137
 23
61.5084338249984
 33
0.0
  0
SOLID
  5
15AF
330
1F
100
AcDbEntity
  8
LOGO
 62
     5
100
AcDbTrace
 10
639.2777909507188
 20
61.5084338249984
 30
0.0
 11
639.5482686602137
 21
61.5084338249984
 31
0.0
 12
639.2777909507188
 22
60.15604527752303
 32
0.0
 13
639.5482686602137
 23
60.15604527752303
 33
0.0
  0
POLYLINE
  5
15B0
330
1F
100
AcDbEntity
  8
LOGO
 62
     5
100
AcDb2dPolyline
 66
     1
 10
0.0
 20
0.0
 30
0.0
 40
0.2709111673628958
 41
0.2709111673628958
  0
VERTEX
  5
15B1
330
15B0
100
AcDbEntity
  8
LOGO
 62
     5
100
AcDbVertex
100
AcDb2dVertex
 10
648.3441116336019
 20
60.96747840600823
 30
0.0
 42
1.0
  0
VERTEX
  5
15B2
330
15B0
100
AcDbEntity
  8
LOGO
 62
     5
100
AcDbVertex
100
AcDb2dVertex
 10
647.531378131513
 20
60.96747840600823
 30
0.0
 42
1.0
  0
SEQEND
  5
15B3
330
15B0
100
AcDbEntity
  8
LOGO
 62
     5
  0
POLYLINE
  5
15B4
330
1F
100
AcDbEntity
  8
LOGO
 62
     5
100
AcDb2dPolyline
 66
     1
 10
0.0
 20
0.0
 30
0.0
 70
     1
  0
VERTEX
  5
15B5
330
15B4
100
AcDbEntity
  8
LOGO
 62
     5
100
AcDbVertex
100
AcDb2dVertex
 10
645.9993393296894
 20
60.83223955126051
 30
0.0
 42
1.000000057330635
  0
VERTEX
  5
15B6
330
15B4
100
AcDbEntity
  8
LOGO
 62
     5
100
AcDbVertex
100
AcDb2dVertex
 10
646.8107724581747
 20
60.83223955126051
 30
0.0
 42
1.000000057330635
  0
SEQEND
  5
15B7
330
15B4
100
AcDbEntity
  8
LOGO
 62
     5
  0
CIRCLE
  5
15B8
330
1F
100
AcDbEntity
  8
LOGO
 62
     5
100
AcDbCircle
 10
646.4050558939326
 20
60.83223955126051
 30
0.0
 40
0.4057165642426729
  0
POLYLINE
  5
15B9
330
1F
100
AcDbEntity
  8
LOGO
 62
     5
100
AcDb2dPolyline
 66
     1
 10
0.0
 20
0.0
 30
0.0
 70
     1
 40
0.2709111673628958
 41
0.2709111673628958
  0
VERTEX
  5
15BA
330
15B9
100
AcDbEntity
  8
LOGO
 62
     5
100
AcDbVertex
100
AcDb2dVertex
 10
645.8632335592064
 20
60.83223955126051
 30
0.0
 42
1.0
  0
VERTEX
  5
15BB
330
15B9
100
AcDbEntity
  8
LOGO
 62
     5
100
AcDbVertex
100
AcDb2dVertex
 10
646.9468782286581
 20
60.83223955126051
 30
0.0
 42
1.0
  0
SEQEND
  5
15BC
330
15B9
100
AcDbEntity
  8
LOGO
 62
     5
  0
LINE
  5
15BD
330
1F
100
AcDbEntity
  8
LOGO
100
AcDbLine
 10
648.4787003015473
 20
60.15604527752303
 30
0.0
 11
648.4787003015473
 21
60.96747840600823
 31
0.0
  0
SOLID
  5
15BE
330
1F
100
AcDbEntity
  8
LOGO
 62
     5
100
AcDbTrace
 10
646.8107454104049
 20
61.5084338249984
 30
0.0
 11
647.0812231198995
 21
61.5084338249984
 31
0.0
 12
646.8107454104049
 22
60.15604527752303
 32
0.0
 13
647.0812231198995
 23
60.15604527752303
 33
0.0
  0
SOLID
  5
15BF
330
1F
100
AcDbEntity
  8
LOGO
 62
     5
100
AcDbTrace
 10
647.3967894635669
 20
60.15604527752303
 30
0.0
 11
647.6672671730621
 21
60.15604527752303
 31
0.0
 12
647.3967894635669
 22
61.5084338249984
 32
0.0
 13
647.6672671730621
 23
61.5084338249984
 33
0.0
  0
SOLID
  5
15C0
330
1F
100
AcDbEntity
  8
LOGO
 62
     5
100
AcDbTrace
 10
648.2082225920527
 20
60.96747840600823
 30
0.0
 11
648.4787003015473
 21
60.96747840600823
 31
0.0
 12
648.2082225920527
 22
60.15604527752303
 32
0.0
 13
648.4787003015473
 23
60.15604527752303
 33
0.0
  0
SOLID
  5
15C1
330
1F
100
AcDbEntity
  8
LOGO
 62
     5
100
AcDbTrace
 10
647.3697416926174
 20
69.70390842270028
 30
0.0
 11
646.585356335082
 21
66.82782877840215
 31
0.0
 12
647.3697416926174
 22
62.8608223724738
 32
0.0
 13
646.585356335082
 23
62.8608223724738
 33
0.0
  0
SOLID
  5
15C2
330
1F
100
AcDbEntity
  8
LOGO
 62
     5
100
AcDbTrace
 10
647.6943149440119
 20
62.8608223724738
 30
0.0
 11
648.4787003015473
 21
62.8608223724738
 31
0.0
 12
647.6943149440119
 22
70.29895938358944
 32
0.0
 13
648.4787003015473
 23
70.29895938358983
 33
0.0
  0
SOLID
  5
15C3
330
1F
100
AcDbEntity
  8
LOGO
 62
     2
100
AcDbTrace
 10
647.3697416926174
 20
70.29895938358983
 30
0.0
 11
647.6943149440119
 21
70.29895938358944
 31
0.0
 12
647.3697416926174
 22
62.8608223724738
 32
0.0
 13
647.6943149440119
 23
62.8608223724738
 33
0.0
  0
POLYLINE
  5
15C4
330
1F
100
AcDbEntity
  8
LOGO
 62
     5
100
AcDb2dPolyline
 66
     1
 10
0.0
 20
0.0
 30
0.0
 40
0.2709111673628958
 41
0.2709111673628958
  0
VERTEX
  5
15C5
330
15C4
100
AcDbEntity
  8
LOGO
 62
     5
100
AcDbVertex
100
AcDb2dVertex
 10
644.4672464323247
 20
60.96747840600823
 30
0.0
 42
1.0
  0
VERTEX
  5
15C6
330
15C4
100
AcDbEntity
  8
LOGO
 62
     5
100
AcDbVertex
100
AcDb2dVertex
 10
643.6545129302359
 20
60.96747840600823
 30
0.0
 42
1.0
  0
SEQEND
  5
15C7
330
15C4
100
AcDbEntity
  8
LOGO
 62
     5
  0
POLYLINE
  5
15C8
330
1F
100
AcDbEntity
  8
LOGO
 62
     5
100
AcDb2dPolyline
 66
     1
 10
0.0
 20
0.0
 30
0.0
 40
0.2709111673628958
 41
0.2709111673628958
  0
VERTEX
  5
15C9
330
15C8
100
AcDbEntity
  8
LOGO
 62
     5
100
AcDbVertex
100
AcDb2dVertex
 10
645.2786795608093
 20
60.96747840600823
 30
0.0
 42
1.0
  0
VERTEX
  5
15CA
330
15C8
100
AcDbEntity
  8
LOGO
 62
     5
100
AcDbVertex
100
AcDb2dVertex
 10
644.4659460587209
 20
60.96747840600823
 30
0.0
 42
1.0
  0
SEQEND
  5
15CB
330
15C8
100
AcDbEntity
  8
LOGO
 62
     5
  0
POLYLINE
  5
15CC
330
1F
100
AcDbEntity
  8
LOGO
 62
     5
100
AcDb2dPolyline
 66
     1
 10
0.0
 20
0.0
 30
0.0
 40
0.2709111673628958
 41
0.2709111673628958
  0
VERTEX
  5
15CD
330
15CC
100
AcDbEntity
  8
LOGO
 62
     5
100
AcDbVertex
100
AcDb2dVertex
 10
641.401814359532
 20
60.96747840600823
 30
0.0
 42
1.0
  0
VERTEX
  5
15CE
330
15CC
100
AcDbEntity
  8
LOGO
 62
     5
100
AcDbVertex
100
AcDb2dVertex
 10
640.5890808574436
 20
60.96747840600823
 30
0.0
 42
1.0
  0
SEQEND
  5
15CF
330
15CC
100
AcDbEntity
  8
LOGO
 62
     5
  0
SOLID
  5
15D0
330
1F
100
AcDbEntity
  8
LOGO
 62
     5
100
AcDbTrace
 10
640.4544921894979
 20
61.5084338249984
 30
0.0
 11
640.7249698989926
 21
61.5084338249984
 31
0.0
 12
640.4544921894979
 22
60.15604527752303
 32
0.0
 13
640.7249698989926
 23
60.15604527752303
 33
0.0
  0
SOLID
  5
15D1
330
1F
100
AcDbEntity
  8
LOGO
 62
     5
100
AcDbTrace
 10
641.2659253179832
 20
60.96747840600823
 30
0.0
 11
641.5364030274787
 21
60.96747840600823
 31
0.0
 12
641.2659253179832
 22
60.15604527752303
 32
0.0
 13
641.5364030274787
 23
60.15604527752303
 33
0.0
  0
POLYLINE
  5
15D2
330
1F
100
AcDbEntity
  8
LOGO
 62
     5
100
AcDb2dPolyline
 66
     1
 10
0.0
 20
0.0
 30
0.0
 70
     1
 40
0.2709111673628958
 41
0.2709111673628958
  0
VERTEX
  5
15D3
330
15D2
100
AcDbEntity
  8
LOGO
 62
     5
100
AcDbVertex
100
AcDb2dVertex
 10
641.9863683579288
 20
60.83223955126051
 30
0.0
 42
1.0
  0
VERTEX
  5
15D4
330
15D2
100
AcDbEntity
  8
LOGO
 62
     5
100
AcDbVertex
100
AcDb2dVertex
 10
643.0700130273806
 20
60.83223955126051
 30
0.0
 42
1.0
  0
SEQEND
  5
15D5
330
15D2
100
AcDbEntity
  8
LOGO
 62
     5
  0
SOLID
  5
15D6
330
1F
100
AcDbEntity
  8
LOGO
 62
     5
100
AcDbTrace
 10
642.9338802091267
 20
61.91415038924132
 30
0.0
 11
643.2043579186219
 21
61.91415038924132
 31
0.0
 12
642.9338802091267
 22
60.15604527752303
 32
0.0
 13
643.2043579186219
 23
60.15604527752303
 33
0.0
  0
SOLID
  5
15D7
330
1F
100
AcDbEntity
  8
LOGO
 62
     5
100
AcDbTrace
 10
643.5199242622904
 20
61.5084338249984
 30
0.0
 11
643.7904019717851
 21
61.5084338249984
 31
0.0
 12
643.5199242622904
 22
60.15604527752303
 32
0.0
 13
643.7904019717851
 23
60.15604527752303
 33
0.0
  0
SOLID
  5
15D8
330
1F
100
AcDbEntity
  8
LOGO
 62
     5
100
AcDbTrace
 10
644.3313573907752
 20
60.96747840600823
 30
0.0
 11
644.6018351002704
 21
60.96747840600823
 31
0.0
 12
644.3313573907752
 22
60.15604527752303
 32
0.0
 13
644.6018351002704
 23
60.15604527752303
 33
0.0
  0
SOLID
  5
15D9
330
1F
100
AcDbEntity
  8
LOGO
 62
     5
100
AcDbTrace
 10
645.1427905192605
 20
60.96747840600823
 30
0.0
 11
645.4132682287554
 21
60.96747840600823
 31
0.0
 12
645.1427905192605
 22
60.15604527752262
 32
0.0
 13
645.4132682287554
 23
60.15604527752262
 33
0.0
  0
SOLID
  5
15DA
330
1F
100
AcDbEntity
  8
LOGO
 62
     5
100
AcDbTrace
 10
639.8684481363346
 20
61.69776822164507
 30
0.0
 11
640.1389258458305
 21
61.69776822164507
 31
0.0
 12
639.8684481363346
 22
61.91415038924132
 32
0.0
 13
640.1389258458305
 23
61.91415038924132
 33
0.0
  0
SOLID
  5
15DB
330
1F
100
AcDbEntity
  8
LOGO
 62
     5
100
AcDbTrace
 10
639.8684481363346
 20
61.5084338249984
 30
0.0
 11
640.1389258458305
 21
61.5084338249984
 31
0.0
 12
639.8684481363346
 22
60.15604527752262
 32
0.0
 13
640.1389258458305
 23
60.15604527752303
 33
0.0
  0
SOLID
  5
15DC
330
1F
100
AcDbEntity
  8
LOGO
 62
     5
100
AcDbTrace
 10
642.5281906926545
 20
62.860822372474
 30
0.0
 11
643.3125760501908
 21
62.860822372474
 31
0.0
 12
642.5281906926545
 22
66.82782877840215
 32
0.0
 13
643.3125760501908
 23
69.70390842270028
 33
0.0
  0
SOLID
  5
15DD
330
1F
100
AcDbEntity
  8
LOGO
 62
     5
100
AcDbTrace
 10
643.6371493015853
 20
70.29895938358944
 30
0.0
 11
644.4215346591208
 21
70.29895938358983
 31
0.0
 12
643.6371493015853
 22
63.45587333336315
 32
0.0
 13
644.4215346591208
 23
66.33195297766127
 33
0.0
  0
SOLID
  5
15DE
330
1F
100
AcDbEntity
  8
LOGO
 62
     2
100
AcDbTrace
 10
643.3125760501908
 20
70.29895938358944
 30
0.0
 11
643.6371493015853
 21
70.29895938358944
 31
0.0
 12
643.3125760501908
 22
62.860822372474
 32
0.0
 13
643.6371493015853
 23
62.860822372474
 33
0.0
  0
SOLID
  5
15DF
330
1F
100
AcDbEntity
  8
LOGO
 62
     5
100
AcDbTrace
 10
643.6371493015853
 20
63.45587333336315
 30
0.0
 11
644.4215346591208
 21
66.33195297766127
 31
0.0
 12
647.3697416926174
 22
70.29895938358983
 32
0.0
 13
646.585356335082
 23
70.29895938358983
 33
0.0
  0
SOLID
  5
15E0
330
1F
100
AcDbEntity
  8
LOGO
 62
     5
100
AcDbTrace
 10
643.6371493015853
 20
62.860822372474
 30
0.0
 11
644.4215346591208
 21
62.860822372474
 31
0.0
 12
647.3697416926174
 22
69.70390842270028
 32
0.0
 13
646.585356335082
 23
66.82782877840215
 33
0.0
  0
SOLID
  5
15E1
330
1F
100
AcDbEntity
  8
LOGO
 62
     2
100
AcDbTrace
 10
643.3125760501908
 20
62.860822372474
 30
0.0
 11
643.6371493015853
 21
62.860822372474
 31
0.0
 12
647.3697416926174
 22
70.29895938358983
 32
0.0
 13
647.6943149440119
 23
70.29895938358944
 33
0.0
  0
LWPOLYLINE
  5
15E2
330
1F
100
AcDbEntity
  8
LOGO
 62
     4
100
AcDbPolyline
 90
        4
 70
     1
 43
0.0
 10
636.5888285060369
 20
70.72990105286272
 10
870.6012348676269
 20
70.72990105286274
 10
870.6012348676269
 20
52.58852823838278
 10
636.5888285060369
 20
52.58852823838278
1001
GENIUS_GENREC_14
1002
{
1000
PYDIR
1011
636.5888285060369
1021
52.58852823838278
1031
0.0
1002
}
1002
{
1000
PXDIR
1011
870.6012348676269
1021
70.72990105286274
1031
0.0
1002
}
1002
{
1000
PORI
1011
636.5888285060369
1021
70.72990105286272
1031
0.0
1002
}
1002
{
1000
PINS
1011
636.5888285060369
1021
70.72990105286272
1031
0.0
1002
}
1002
{
1000
PINS2
1011
870.6012348676269
1021
52.58852823838278
1031
0.0
1002
}
1002
{
1000
C
1070
     1
1002
}
1001
GENIUS_GENOBJ-N-REC_13
1002
{
1000
OWNER
1000
GEN
1002
}
1001
GENIUS_GENODEF_13
1002
{
1000
HIER
1070
     0
1002
}
1002
{
1000
MANEDIT
1070
     0
1002
}
1002
{
1000
NOSEL
1070
     0
1002
}
1002
{
1000
BEHIND
1070
     0
1002
}
1002
{
1000
OTHER
1070
     0
1002
}
1002
{
1000
REACTOR
1002
}
  0
LINE
  5
15E3
330
1F
100
AcDbEntity
  8
LOGO
 62
     4
100
AcDbLine
 10
715.4511554885109
 20
60.75214600489913
 30
0.0
 11
715.4511554885109
 21
54.10030930625625
 31
0.0
  0
LINE
  5
15E4
330
1F
100
AcDbEntity
  8
LOGO
 62
     4
100
AcDbLine
 10
707.3929572546352
 20
60.75214600489913
 30
0.0
 11
707.3929572546352
 21
54.10030930625625
 31
0.0
  0
LINE
  5
15E5
330
1F
100
AcDbEntity
  8
LOGO
 62
     4
100
AcDbLine
 10
715.4511554885109
 20
54.10030930625625
 30
0.0
 11
707.3929572546352
 21
54.10030930625625
 31
0.0
  0
LINE
  5
15E6
330
1F
100
AcDbEntity
  8
LOGO
 62
     4
100
AcDbLine
 10
721.3828202580931
 20
68.91576377141466
 30
0.0
 11
701.4525018492096
 21
68.91576377141466
 31
0.0
  0
LINE
  5
15E7
330
1F
100
AcDbEntity
  8
LOGO
 62
     4
100
AcDbLine
 10
721.3828202580931
 20
63.47335192707084
 30
0.0
 11
701.4525018492096
 21
63.47335192707084
 31
0.0
  0
LINE
  5
15E8
330
1F
100
AcDbEntity
  8
LOGO
 62
     4
100
AcDbLine
 10
701.4525018492096
 20
68.91576377141466
 30
0.0
 11
701.4525018492096
 21
63.47335192707084
 31
0.0
  0
LINE
  5
15E9
330
1F
100
AcDbEntity
  8
LOGO
 62
     4
100
AcDbLine
 10
721.3828202580931
 20
68.91576377141466
 30
0.0
 11
721.3828202580931
 21
63.47335192707084
 31
0.0
  0
LINE
  5
15EA
330
1F
100
AcDbEntity
  8
LOGO
 62
     4
100
AcDbLine
 10
711.4532696930701
 20
63.47335192707084
 30
0.0
 11
711.4532696930701
 21
60.75214600489913
 31
0.0
  0
TEXT
  5
15EB
330
1F
100
AcDbEntity
  8
LOGO
  6
Continuous
100
AcDbText
 10
704.1443497343086
 20
64.60944744277231
 30
0.0
 40
3.175199999999999
  1
MCHGF
  7
CHINESET
100
AcDbText
  0
LINE
  5
15EC
330
1F
100
AcDbEntity
  8
LOGO
 62
     4
100
AcDbLine
 10
715.4511554885109
 20
60.75214600489913
 30
0.0
 11
707.3929572546352
 21
60.75214600489913
 31
0.0
  0
TEXT
  5
15ED
330
1F
100
AcDbEntity
  8
LOGO
  6
Continuous
100
AcDbText
 10
709.4760853747201
 20
55.03920195072228
 30
118.8955688095171
 40
1.360799999999999
  1
Model
 41
0.8
  7
CHINESET
100
AcDbText
  0
TEXT
  5
15EE
330
1F
100
AcDbEntity
  8
LOGO
100
AcDbText
 10
709.1138846516074
 20
57.56183187739079
 30
118.8955688095171
 40
2.267999999999999
  1
型號
  7
CHINESET
100
AcDbText
  0
TEXT
  5
15F0
330
1F
100
AcDbEntity
  8
LOGO
100
AcDbText
 10
677.3404017862631
 20
53.55364211182844
 30
0.0
 40
1.814399999999999
  1
01206190
 41
0.7
  7
CHINESET
 72
     1
 11
681.7554417862631
 21
53.55364211182844
 31
0.0
100
AcDbText
  0
LINE
  5
15F1
330
1F
100
AcDbEntity
  8
LOGO
 62
     4
100
AcDbLine
 10
687.3862486978914
 20
56.21680280127935
 30
0.0
 11
687.3862486978922
 21
52.58852823838319
 31
0.0
  0
LINE
  5
15F2
330
1F
100
AcDbEntity
  8
LOGO
 62
     4
100
AcDbLine
 10
687.3862486978914
 20
56.21680280127935
 30
0.0
 11
676.4998486978921
 21
56.21680280127935
 31
0.0
  0
CIRCLE
  5
15F3
330
1F
100
AcDbEntity
  8
LOGO
  6
Continuous
100
AcDbCircle
 10
667.7647022402107
 20
65.29136966143941
 30
0.0
 40
1.053330805586876
  0
CIRCLE
  5
15F4
330
1F
100
AcDbEntity
  8
LOGO
  6
Continuous
100
AcDbCircle
 10
667.7647022402107
 20
65.29136966143941
 30
0.0
 40
0.6171586059734297
  0
LINE
  5
15F5
330
1F
100
AcDbEntity
  8
LOGO
100
AcDbLine
 10
674.3839552458568
 20
64.23803885585233
 30
0.0
 11
674.3839552458568
 21
66.34470046702649
 31
0.0
  0
LINE
  5
15F6
330
1F
100
AcDbEntity
  8
LOGO
100
AcDbLine
 10
671.0818236344152
 20
64.67421105546609
 30
0.0
 11
671.0818236344152
 21
65.90852826741294
 31
0.0
  0
LINE
  5
15F7
330
1F
100
AcDbEntity
  8
LOGO
  6
Continuous
100
AcDbLine
 10
671.0818236344152
 20
65.90852826741294
 30
0.0
 11
674.3839552458568
 21
66.34470046702649
 31
0.0
  0
LINE
  5
15F8
330
1F
100
AcDbEntity
  8
LOGO
  6
Continuous
100
AcDbLine
 10
671.0818236344152
 20
64.67421105546609
 30
0.0
 11
674.3839552458568
 21
64.23803885585233
 31
0.0
  0
LINE
  5
15F9
330
1F
100
AcDbEntity
  8
LOGO
  6
AM_ISO08W050x2
 48
0.3
100
AcDbLine
 10
666.3126699523225
 20
65.29136966143941
 30
0.0
 11
669.216734528099
 21
65.29136966143941
 31
0.0
1001
GENIUS_GENOREF_13
1005
16B6
  0
LINE
  5
15FA
330
1F
100
AcDbEntity
  8
LOGO
  6
AM_ISO08W050x2
 48
0.3
100
AcDbLine
 10
667.7647022402107
 20
63.83933737355108
 30
0.0
 11
667.7647022402107
 21
66.74340194932773
 31
0.0
1001
GENIUS_GENOREF_13
1005
16B5
  0
LINE
  5
15FB
330
1F
100
AcDbEntity
  8
LOGO
  6
CENTER
 48
0.5
100
AcDbLine
 10
670.8177448878185
 20
65.29136966143941
 30
0.0
 11
674.7164692095777
 21
65.29136966143941
 31
0.0
1001
GENIUS_GENOREF_13
1005
16B4
  0
POINT
  5
16B4
330
1F
100
AcDbEntity
  8
0
 60
     1
100
AcDbPoint
 10
-1930.92695728958
 20
-494.9154325062304
 30
0.0
1001
GENIUS_GENOBJ-N-CRS_13
1002
{
1000
OWNER
1000
GEN
1002
}
1001
GENIUS_GENOLIS_13
1002
{
1000
ENT
1005
0
1005
0
1005
0
1005
15FB
1002
}
1001
GENIUS_GENOENT_13
1002
{
1000
MYREF
1005
16B4
1002
}
1002
{
1000
GRP
1005
0
1002
}
1001
GENIUS_GENODEF_13
1002
{
1000
HIER
1070
    10
1002
}
1002
{
1000
MANEDIT
1070
     1
1002
}
1002
{
1000
NOSEL
1070
     0
1002
}
1002
{
1000
BEHIND
1070
     0
1002
}
1002
{
1000
OTHER
1070
     0
1002
}
1002
{
1000
REACTOR
1002
}
  0
POINT
  5
16B5
330
1F
100
AcDbEntity
  8
0
 60
     1
100
AcDbPoint
 10
-1942.251542512434
 20
-486.0398460275941
 30
0.0
1001
GENIUS_GENOBJ-N-CRS_13
1002
{
1000
OWNER
1000
GEN
1002
}
1001
GENIUS_GENOLIS_13
1002
{
1000
ENT
1005
0
1005
0
1005
0
1005
15FA
1002
}
1001
GENIUS_GENOENT_13
1002
{
1000
MYREF
1005
16B5
1002
}
1002
{
1000
GRP
1005
0
1002
}
1001
GENIUS_GENODEF_13
1002
{
1000
HIER
1070
    10
1002
}
1002
{
1000
MANEDIT
1070
     1
1002
}
1002
{
1000
NOSEL
1070
     0
1002
}
1002
{
1000
BEHIND
1070
     0
1002
}
1002
{
1000
OTHER
1070
     0
1002
}
1002
{
1000
REACTOR
1002
}
  0
POINT
  5
16B6
330
1F
100
AcDbEntity
  8
0
 60
     1
100
AcDbPoint
 10
-1935.892868814597
 20
-494.9154325062304
 30
0.0
1001
GENIUS_GENOBJ-N-CRS_13
1002
{
1000
OWNER
1000
GEN
1002
}
1001
GENIUS_GENOLIS_13
1002
{
1000
ENT
1005
0
1005
0
1005
0
1005
15F9
1002
}
1001
GENIUS_GENOENT_13
1002
{
1000
MYREF
1005
16B6
1002
}
1002
{
1000
GRP
1005
0
1002
}
1001
GENIUS_GENODEF_13
1002
{
1000
HIER
1070
    10
1002
}
1002
{
1000
MANEDIT
1070
     1
1002
}
1002
{
1000
NOSEL
1070
     0
1002
}
1002
{
1000
BEHIND
1070
     0
1002
}
1002
{
1000
OTHER
1070
     0
1002
}
1002
{
1000
REACTOR
1002
}
  0
MTEXT
  5
7BA1
330
1F
100
AcDbEntity
  8
AM_VIS
100
AcDbMText
 10
315.4333775501655
 20
376.163241097652
 30
0.0
 40
3.5
 41
0.0
 71
     9
 72
     1
  1

 73
     1
 44
1.0
1001
ACAD
1000
MTEXTBEGIN
1070
    73
1070
     1
1070
    44
1040
1.0
1070
    74
1070
     0
1000
MTEXTEND
  0
LINE
  5
99DA
102
{ACAD_REACTORS
330
A58C
102
}
330
1F
100
AcDbEntity
  8
AM_7
100
AcDbLine
 10
662.4877745247718
 20
141.4522639425231
 30
0.0
 11
732.4888148014951
 21
141.452263942523
 31
0.0
  0
LINE
  5
99DB
330
1F
100
AcDbEntity
  8
AM_7
100
AcDbLine
 10
697.4882946631335
 20
176.4527840808848
 30
0.0
 11
697.4882946631335
 21
106.4517438041613
 31
0.0
  0
LINE
  5
9C94
330
1F
100
AcDbEntity
  8
LOGO
  6
Continuous
 62
     7
100
AcDbLine
 10
722.8738312205401
 20
66.14483014632994
 30
0.0
 11
725.3037036005033
 21
66.14483014632994
 31
0.0
  0
LINE
  5
9C95
330
1F
100
AcDbEntity
  8
LOGO
 62
     4
100
AcDbLine
 10
737.6466800300999
 20
60.66143914082673
 30
0.0
 11
737.6466800300999
 21
53.93569314553246
 31
0.0
  0
LINE
  5
9C96
330
1F
100
AcDbEntity
  8
LOGO
 62
     4
100
AcDbLine
 10
723.6723576991389
 20
60.66143914082673
 30
0.0
 11
723.6723576991389
 21
53.93569314553246
 31
0.0
  0
LINE
  5
9C97
330
1F
100
AcDbEntity
  8
LOGO
 62
     4
100
AcDbLine
 10
737.6466800300999
 20
53.93569314553246
 30
0.0
 11
723.6723576991389
 21
53.93569314553246
 31
0.0
  0
LINE
  5
9C98
330
1F
100
AcDbEntity
  8
LOGO
 62
     4
100
AcDbLine
 10
734.1864683705595
 20
68.91576377141466
 30
0.0
 11
726.8567135520127
 21
68.91576377141466
 31
0.0
  0
LINE
  5
9C99
330
1F
100
AcDbEntity
  8
LOGO
 62
     4
100
AcDbLine
 10
734.1864683705595
 20
63.41288068435591
 30
0.0
 11
726.8567135520127
 21
63.41288068435591
 31
0.0
  0
LINE
  5
9C9A
330
1F
100
AcDbEntity
  8
LOGO
 62
     4
100
AcDbLine
 10
726.8567135520127
 20
68.91576377141466
 30
0.0
 11
726.8567135520127
 21
63.41288068435591
 31
0.0
  0
LINE
  5
9C9B
330
1F
100
AcDbEntity
  8
LOGO
 62
     4
100
AcDbLine
 10
734.1864683705595
 20
68.91576377141466
 30
0.0
 11
734.1864683705595
 21
63.41288068435591
 31
0.0
  0
LINE
  5
9C9C
330
1F
100
AcDbEntity
  8
LOGO
 62
     4
100
AcDbLine
 10
730.2223281165738
 20
63.41288068435591
 30
0.0
 11
730.2223281165738
 21
60.66143914082673
 31
0.0
  0
LINE
  5
9C9E
330
1F
100
AcDbEntity
  8
LOGO
 62
     4
100
AcDbLine
 10
737.6466800300999
 20
60.66143914082673
 30
0.0
 11
723.6723576991389
 21
60.66143914082673
 31
0.0
  0
TEXT
  5
9C9F
330
1F
100
AcDbEntity
  8
LOGO
  6
Continuous
100
AcDbText
 10
724.880402226304
 20
54.88501793049257
 30
120.2166306851784
 40
1.37592
  1
Body diameter
 41
0.8
  7
CHINESET
100
AcDbText
  0
TEXT
  5
9CA0
330
1F
100
AcDbEntity
  8
LOGO
100
AcDbText
 10
725.9934257408375
 20
57.43567707856829
 30
120.2166306851784
 40
2.2932
  1
本體寬度
  7
CHINESET
100
AcDbText
  0
TEXT
  5
9CA2
330
1F
100
AcDbEntity
  8
LOGO
  6
Continuous
 62
     7
100
AcDbText
 10
728.2292050661806
 20
64.56159948356539
 30
0.0
 40
3.210479999999999
  1
64
  7
CHINESET
100
AcDbText
  0
DIMENSION
  5
A516
330
1F
100
AcDbEntity
  8
AM_REFDIM
100
AcDbDimension
  2
*D6
 10
702.5882946631335
 20
100.7914212269674
 30
0.0
 11
697.4882946631343
 21
100.7914212269674
 31
0.0
 70
   160
 71
     5
 42
10.19999999999857
  3
AM_ISO$0
100
AcDbAlignedDimension
 13
692.388294663135
 23
109.8612842172913
 33
0.0
 14
702.5882946631335
 24
109.8612842172915
 34
0.0
100
AcDbRotatedDimension
1001
ACAD
1000
DSTYLE
1002
{
1070
    40
1040
1.005834825753484
1002
}
  0
DIMENSION
  5
A540
330
1F
100
AcDbEntity
  8
AM_REFDIM
100
AcDbDimension
  2
*D7
 10
705.9882940220884
 20
91.35369408743477
 30
0.0
 11
697.4882946627237
 21
91.35369408743477
 31
0.0
 70
   160
 71
     5
 42
16.99999871872956
  3
AM_ISO$0
100
AcDbAlignedDimension
 13
688.9882953033588
 23
109.237993975988
 33
0.0
 14
705.9882940220884
 24
109.2379930356877
 34
0.0
100
AcDbRotatedDimension
1001
ACAD
1000
DSTYLE
1002
{
1070
    40
1040
1.005834825753484
1002
}
  0
DIMENSION
  5
A57E
102
{ACAD_XDICTIONARY
360
A58B
102
}
102
{ACAD_REACTORS
330
A58C
102
}
330
1F
100
AcDbEntity
  8
AM_REFDIM
100
AcDbDimension
  2
*D8
 10
752.2430596340239
 20
109.2379930356877
 30
0.0
 11
752.2430596340239
 21
125.3451284891054
 31
0.0
 70
   160
 71
     5
 42
32.21427090683532
  3
AM_ISO$0
100
AcDbAlignedDimension
 13
732.4888148014951
 23
141.452263942523
 33
0.0
 14
705.9882940220884
 24
109.2379930356877
 34
0.0
 50
89.9999999999998
100
AcDbRotatedDimension
1001
ACAD
1000
DSTYLE
1002
{
1070
    40
1040
1.005834825753484
1070
   271
1070
     0
1002
}
  0
DIMENSION
  5
A622
330
1F
100
AcDbEntity
  8
AM_REFDIM
100
AcDbDimension
  2
*D9
 10
832.7548295281127
 20
182.7083785429635
 30
0.0
 11
808.9548298780648
 21
185.4744243137855
 31
0.0
 70
    32
  1
47.5
 71
     5
 42
47.59999930009587
  3
AM_ISO$0
100
AcDbAlignedDimension
 13
785.1548302280169
 23
172.3223939088187
 33
0.0
 14
832.7548295281127
 24
172.7352114694697
 34
0.0
100
AcDbRotatedDimension
1001
ACAD
1000
DSTYLE
1002
{
1070
    40
1040
1.005834825753484
1070
   271
1070
     1
1002
}
  0
DIMENSION
  5
A67B
330
1F
100
AcDbEntity
  8
AM_REFDIM
100
AcDbDimension
  2
*D10
 10
843.2489965517255
 20
109.2379931131202
 30
0.0
 11
840.4829507809035
 21
141.2379931175873
 31
0.0
 70
    32
 71
     5
 42
64.00000000893396
  3
AM_ISO$0
100
AcDbAlignedDimension
 13
832.2548303774789
 23
173.2379931220541
 33
0.0
 14
832.2548303774793
 24
109.2379931131202
 34
0.0
 50
90.0
100
AcDbRotatedDimension
1001
ACAD
1000
DSTYLE
1002
{
1070
    40
1040
1.005834825753484
1002
}
  0
DIMENSION
  5
A6A1
330
1F
100
AcDbEntity
  8
AM_REFDIM
100
AcDbDimension
  2
*D11
 10
800.2548297888832
 20
93.70657275282558
 30
0.0
 11
815.7519126703043
 21
93.70657275282558
 31
0.0
 70
   160
 71
     5
 42
32.49999973922968
  3
AM_ISO$0
100
AcDbAlignedDimension
 13
832.7548295281129
 23
109.7569811613521
 33
0.0
 14
800.2548297888832
 24
109.0237215916452
 34
0.0
100
AcDbRotatedDimension
1001
ACAD
1000
DSTYLE
1002
{
1070
    40
1040
1.005834825753484
1070
   271
1070
     0
1002
}
  0
DIMENSION
  5
A724
330
1F
100
AcDbEntity
  8
AM_REFDIM
100
AcDbDimension
  2
*D12
 10
785.1548302280169
 20
182.7083785429631
 30
0.0
 11
784.1548300971119
 21
182.7083785429631
 31
0.0
 70
   160
 71
     5
 42
2.000000261809873
  3
AM_ISO$0
100
AcDbAlignedDimension
 13
783.154829966207
 23
153.2379934735033
 33
0.0
 14
785.1548302280169
 24
172.3223939088187
 34
0.0
100
AcDbRotatedDimension
1001
ACAD
1000
DSTYLE
1002
{
1070
    40
1040
1.005834825753484
1002
}
  0
DIMENSION
  5
A77B
330
1F
100
AcDbEntity
  8
AM_REFDIM
100
AcDbDimension
  2
*D13
 10
734.785578876062
 20
119.7379933560641
 30
0.0
 11
734.785578876062
 21
122.9879933560642
 31
0.0
 70
   160
 71
     5
 42
6.5
  3
AM_ISO$0
100
AcDbAlignedDimension
 13
697.4882946631335
 23
126.2379933560641
 33
0.0
 14
697.4882946631335
 24
119.7379933560641
 34
0.0
 50
90.0
100
AcDbRotatedDimension
1001
ACAD
1000
DSTYLE
1002
{
1070
    40
1040
1.005834825753484
1002
}
  0
DIMENSION
  5
A7A5
330
1F
100
AcDbEntity
  8
AM_REFDIM
100
AcDbDimension
  2
*D14
 10
743.5373026002261
 20
113.2379933560641
 30
0.0
 11
743.5373026002261
 21
119.7379933560641
 31
0.0
 70
   160
 71
     5
 42
13.0
  3
AM_ISO$0
100
AcDbAlignedDimension
 13
697.4882946631335
 23
126.2379933560641
 33
0.0
 14
697.4882946631335
 24
113.2379933560641
 34
0.0
 50
90.0
100
AcDbRotatedDimension
1001
ACAD
1000
DSTYLE
1002
{
1070
    40
1040
1.005834825753484
1002
}
  0
DIMENSION
  5
A7CB
330
1F
100
AcDbEntity
  8
AM_REFDIM
100
AcDbDimension
  2
*D15
 10
734.7855788760618
 20
109.2379929294993
 30
0.0
 11
734.7855788760618
 21
111.2379931427818
 31
0.0
 70
   160
 71
     5
 42
4.000000426564838
  3
AM_ISO$0
100
AcDbAlignedDimension
 13
697.4882946631335
 23
113.2379933560641
 33
0.0
 14
703.0539812074681
 24
109.2379929294993
 34
0.0
 50
90.0
100
AcDbRotatedDimension
1001
ACAD
1000
DSTYLE
1002
{
1070
    40
1040
1.005834825753484
1002
}
  0
LEADER
  5
A889
330
1F
100
AcDbEntity
  8
AM_REFDIM
100
AcDbLeader
  3
AM_ISO$7
 76
     3
 10
698.8234442757267
 20
171.0716975714189
 30
0.0
 10
702.7076920876689
 20
178.369262068612
 30
0.0
 10
732.9239777083268
 20
178.369262068612
 30
0.0
1001
ACAD
1000
DSTYLE
1002
{
1070
   147
1040
1.0
1070
    77
1070
     1
1070
    43
1040
12.0
1070
   271
1070
     1
1070
   272
1070
     8
1002
}
  0
MTEXT
  5
A88C
330
1F
100
AcDbEntity
  8
AM_REFDIM
100
AcDbMText
 10
703.5244354081884
 20
182.0934289017832
 30
0.0
 40
3.0
 41
33.65203381816716
 71
     1
 72
     5
  1
4X2-M4X0.7 DP8
 73
     1
 44
1.0
1001
ACAD
1000
MTEXTBEGIN
1070
    73
1070
     1
1070
    44
1040
1.0
1070
    74
1070
     0
1000
MTEXTEND
  0
LEADER
  5
A890
330
1F
100
AcDbEntity
  8
AM_REFDIM
100
AcDbLeader
  3
AM_ISO$7
 76
     3
 10
719.0304942544845
 20
163.3781576402354
 30
0.0
 10
724.7964221029721
 20
170.5992822174533
 30
0.0
 10
762.2463689036671
 20
170.5992822174533
 30
0.0
1001
ACAD
1000
DSTYLE
1002
{
1070
   147
1040
1.0
1070
    77
1070
     1
1070
    43
1040
12.0
1070
   271
1070
     1
1070
   272
1070
     8
1002
}
  0
MTEXT
  5
A895
330
1F
100
AcDbEntity
  8
AM_REFDIM
100
AcDbMText
 10
726.7247608107586
 20
174.8638716052586
 30
0.0
 40
3.0
 41
38.59614173293908
 71
     1
 72
     5
  1
%%C5.5 thru\P%%C10 C/B DP6 P.C.D 56
 73
     1
 44
1.0
1001
ACAD
1000
MTEXTBEGIN
1070
    73
1070
     1
1070
    44
1040
1.0
1070
    74
1070
     0
1000
MTEXTEND
  0
LINE
  5
AAE2
330
1F
100
AcDbEntity
  8
0
  6
Continuous
 62
     7
370
    15
100
AcDbLine
 10
705.4882951541432
 20
129.452263846002
 30
0.0
 11
689.4882940201867
 21
129.4522645727325
 31
0.0
  0
ARC
  5
AAE3
330
1F
100
AcDbEntity
  8
0
  6
Continuous
 62
     7
370
    15
100
AcDbCircle
 10
689.4882946631335
 20
133.4522639425229
 30
0.0
 40
4.0
100
AcDbArc
 50
179.9999999999984
 51
270.0
  0
LINE
  5
AAE4
330
1F
100
AcDbEntity
  8
0
  6
Continuous
 62
     7
370
    15
100
AcDbLine
 10
685.4882949957636
 20
149.4522639343009
 30
0.0
 11
685.4882944548146
 21
133.4522642043598
 31
0.0
  0
ARC
  5
AAE5
330
1F
100
AcDbEntity
  8
0
  6
Continuous
 62
     7
370
    15
100
AcDbCircle
 10
689.4882946631335
 20
149.4522639425229
 30
0.0
 40
4.0
100
AcDbArc
 50
90.0
 51
179.9999999999984
  0
LINE
  5
AAE6
330
1F
100
AcDbEntity
  8
0
  6
Continuous
 62
     7
370
    15
100
AcDbLine
 10
689.4882941820768
 20
153.4522636358192
 30
0.0
 11
705.4882949019168
 21
153.4522647399804
 31
0.0
  0
ARC
  5
AAE7
330
1F
100
AcDbEntity
  8
0
  6
Continuous
 62
     7
370
    15
100
AcDbCircle
 10
705.4882946631336
 20
149.4522639425228
 30
0.0
 40
4.0
100
AcDbArc
 50
0.0
 51
90.0
  0
LINE
  5
AAE8
330
1F
100
AcDbEntity
  8
0
  6
Continuous
 62
     7
370
    15
100
AcDbLine
 10
709.4882958401067
 20
149.4522632278261
 30
0.0
 11
709.488296257859
 21
133.4522634482496
 31
0.0
  0
ARC
  5
AAE9
330
1F
100
AcDbEntity
  8
0
  6
Continuous
 62
     7
370
    15
100
AcDbCircle
 10
705.4882946631335
 20
133.4522639425228
 30
0.0
 40
4.0
100
AcDbArc
 50
270.0
 51
0.0
  0
LINE
  5
AAEA
330
1F
100
AcDbEntity
  8
0
  6
Continuous
 62
     7
370
    15
100
AcDbLine
 10
685.488294931931
 20
146.5522637567099
 30
0.0
 11
669.5335963787778
 21
146.5522638334243
 31
0.0
  0
LINE
  5
AAEB
330
1F
100
AcDbEntity
  8
0
  6
Continuous
 62
     7
370
    15
100
AcDbLine
 10
667.8773740840231
 20
146.7263399450592
 30
0.0
 11
669.5335963787778
 21
146.5522638334243
 31
0.0
  0
LINE
  5
AAEC
330
1F
100
AcDbEntity
  8
0
  6
Continuous
 62
     7
370
    15
100
AcDbLine
 10
667.8590778872718
 20
146.5522639384025
 30
0.0
 11
667.8773740840231
 21
146.7263399450592
 31
0.0
  0
SPLINE
  5
AAED
330
1F
100
AcDbEntity
  8
0
  6
Continuous
 62
     7
370
    15
100
AcDbSpline
210
0.0
220
0.0
230
1.0
 70
     8
 71
     3
 72
     8
 73
     4
 74
     0
 42
0.0000000001
 43
0.0000000001
 40
0.0
 40
0.0
 40
0.0
 40
0.0
 40
0.9699926822698525
 40
0.9699926822698525
 40
0.9699926822698525
 40
0.9699926822698525
 10
666.4038934303609
 20
146.5522639425234
 30
0.0
 10
667.1982614532664
 20
151.3939216583041
 30
0.0
 10
669.1123752785266
 20
155.9811790819268
 30
0.0
 10
671.9909870915704
 20
159.9492185192381
 30
0.0
  0
SPLINE
  5
AAEF
330
1F
100
AcDbEntity
  8
0
  6
Continuous
 62
     7
370
    15
100
AcDbSpline
210
0.0
220
0.0
230
1.0
 70
     8
 71
     3
 72
     8
 73
     4
 74
     0
 42
0.0000000001
 43
0.0000000001
 40
0.0300075943537921
 40
0.0300075943537921
 40
0.0300075943537921
 40
0.0300075943537921
 40
1.0
 40
1.0
 40
1.0
 40
1.0
 10
678.9913434812496
 20
166.949573976864
 30
0.0
 10
682.9593821401292
 20
169.8281844188687
 30
0.0
 10
687.5466383281026
 20
171.7422973789292
 30
0.0
 10
692.3882946631337
 20
172.5366651752959
 30
0.0
  0
LINE
  5
AAF0
330
1F
100
AcDbEntity
  8
0
  6
Continuous
 62
     7
370
    15
100
AcDbLine
 10
667.8590778872718
 20
146.5522639384025
 30
0.0
 11
666.4038933493473
 21
146.5522639100079
 31
0.0
  0
LINE
  5
AAF3
330
1F
100
AcDbEntity
  8
0
  6
Continuous
 62
     7
370
    15
100
AcDbLine
 10
692.3882943596678
 20
153.4522635719866
 30
0.0
 11
692.3882943768196
 21
172.5366647092561
 31
0.0
  0
SPLINE
  5
AAF4
330
1F
100
AcDbEntity
  8
0
  6
Continuous
 62
     7
370
    15
100
AcDbSpline
210
0.0
220
0.0
230
1.0
 70
     8
 71
     3
 72
     8
 73
     4
 74
     0
 42
0.0000000001
 43
0.0000000001
 40
0.0
 40
0.0
 40
0.0
 40
0.0
 40
0.969992405646164
 40
0.969992405646164
 40
0.969992405646164
 40
0.969992405646164
 10
702.5882946631337
 20
172.5366651752958
 30
0.0
 10
707.4299509981646
 20
171.7422973789291
 30
0.0
 10
712.017207186138
 20
169.8281844188686
 30
0.0
 10
715.9852458450174
 20
166.9495739768639
 30
0.0
  0
ARC
  5
AAF5
330
1F
100
AcDbEntity
  8
0
  6
Continuous
 62
     7
370
    15
100
AcDbCircle
 10
717.2872845363571
 20
161.2512538157463
 30
0.0
 40
4.949999999999996
100
AcDbArc
 50
135.0
 51
315.0
  0
SPLINE
  5
AAF6
330
1F
100
AcDbEntity
  8
0
  6
Continuous
 62
     7
370
    15
100
AcDbSpline
210
0.0
220
0.0
230
1.0
 70
     8
 71
     3
 72
     8
 73
     4
 74
     0
 42
0.0000000001
 43
0.0000000001
 40
0.0300073177301112
 40
0.0300073177301112
 40
0.0300073177301112
 40
0.0300073177301112
 40
0.9999999999999998
 40
0.9999999999999998
 40
0.9999999999999998
 40
0.9999999999999998
 10
722.9856022346967
 20
159.9492185192381
 30
0.0
 10
725.8642140477406
 20
155.9811790819266
 30
0.0
 10
727.7783278730007
 20
151.3939216583038
 30
0.0
 10
728.5726958959062
 20
146.5522639425229
 30
0.0
  0
LINE
  5
AAF7
330
1F
100
AcDbEntity
  8
0
  6
Continuous
 62
     7
370
    15
100
AcDbLine
 10
702.5882944691852
 20
172.5366650504545
 30
0.0
 11
702.5882956149539
 21
153.4522645315207
 31
0.0
  0
LINE
  5
AAF8
330
1F
100
AcDbEntity
  8
0
  6
Continuous
 62
     7
370
    15
100
AcDbLine
 10
720.7874631032304
 20
157.7510752488729
 30
0.0
 11
723.3435321486119
 21
160.3071491071034
 31
0.0
  0
LINE
  5
AAF9
330
1F
100
AcDbEntity
  8
0
  6
Continuous
 62
     7
370
    15
100
AcDbLine
 10
713.7871059694837
 20
164.7514323826197
 30
0.0
 11
716.3431758887639
 21
167.3075043004733
 31
0.0
  0
LINE
  5
AAFA
330
1F
100
AcDbEntity
  8
0
  6
Continuous
 62
     7
370
    15
100
AcDbLine
 10
709.48829426731
 20
146.552264485448
 30
0.0
 11
728.572694241659
 21
146.5522638499603
 31
0.0
  0
SPLINE
  5
AAFB
330
1F
100
AcDbEntity
  8
0
  6
Continuous
 62
     7
370
    15
100
AcDbSpline
210
0.0
220
0.0
230
1.0
 70
     8
 71
     3
 72
     8
 73
     4
 74
     0
 42
0.0000000001
 43
0.0000000001
 40
0.0
 40
0.0
 40
0.0
 40
0.0
 40
1.0
 40
1.0
 40
1.0
 40
1.0
 10
692.3882946631334
 20
110.3678627097506
 30
0.0
 10
687.3968573004815
 20
111.1868049939817
 30
0.0
 10
682.675803751858
 20
113.1958447353137
 30
0.0
 10
678.6248674934243
 20
116.2248757421353
 30
0.0
  0
SPLINE
  5
AAFD
330
1F
100
AcDbEntity
  8
0
  6
Continuous
 62
     7
370
    15
100
AcDbSpline
210
0.0
220
0.0
230
1.0
 70
     8
 71
     3
 72
     8
 73
     4
 74
     0
 42
0.0000000001
 43
0.0000000001
 40
0.0
 40
0.0
 40
0.0
 40
0.0
 40
1.0
 40
1.0
 40
1.0
 40
1.0
 10
672.2609064627453
 20
122.5888367728142
 30
0.0
 10
671.8146832309604
 20
123.1856024925847
 30
0.0
 10
671.3923218234845
 20
123.7942502929312
 30
0.0
 10
670.9894414762559
 20
124.4210931142946
 30
0.0
  0
LINE
  5
AAFE
330
1F
100
AcDbEntity
  8
0
  6
Continuous
 62
     7
370
    15
100
AcDbLine
 10
672.2575326128635
 20
125.1532264419165
 30
0.0
 11
672.5825324226235
 21
124.5903086300489
 31
0.0
  0
LINE
  5
AAFF
330
1F
100
AcDbEntity
  8
0
  6
Continuous
 62
     7
370
    15
100
AcDbLine
 10
672.5825324226235
 20
124.5903086300489
 30
0.0
 11
676.2198391601982
 21
126.6903093557224
 31
0.0
  0
LINE
  5
AB00
330
1F
100
AcDbEntity
  8
0
  6
Continuous
 62
     7
370
    15
100
AcDbLine
 10
676.2198391601982
 20
126.6903093557224
 30
0.0
 11
674.0698394619851
 21
130.4142187906038
 31
0.0
  0
LINE
  5
AB01
330
1F
100
AcDbEntity
  8
0
  6
Continuous
 62
     7
370
    15
100
AcDbLine
 10
670.4325325017532
 20
128.3142181330035
 30
0.0
 11
674.0698394619851
 21
130.4142187906038
 31
0.0
  0
LINE
  5
AB02
330
1F
100
AcDbEntity
  8
0
  6
Continuous
 62
     7
370
    15
100
AcDbLine
 10
670.4325325017532
 20
128.3142181330035
 30
0.0
 11
670.7575326334409
 21
127.7513021704653
 31
0.0
  0
SPLINE
  5
AB03
330
1F
100
AcDbEntity
  8
0
  6
Continuous
 62
     7
370
    15
100
AcDbSpline
210
0.0
220
0.0
230
1.0
 70
     8
 71
     3
 72
     8
 73
     4
 74
     0
 42
0.0000000001
 43
0.0000000001
 40
0.0
 40
0.0
 40
0.0
 40
0.0
 40
1.0
 40
1.0
 40
1.0
 40
1.0
 10
669.4894414762559
 20
127.0191693256479
 30
0.0
 10
667.9788895120995
 20
129.9494988078723
 30
0.0
 10
666.9376538761761
 20
133.0990043621496
 30
0.0
 10
666.4038934303607
 20
136.3522639425233
 30
0.0
  0
LINE
  5
AB04
330
1F
100
AcDbEntity
  8
0
  6
Continuous
 62
     7
370
    15
100
AcDbLine
 10
692.3882939083334
 20
110.3678624810021
 30
0.0
 11
692.3882949522597
 21
129.4522637912934
 31
0.0
  0
LINE
  5
AB06
330
1F
100
AcDbEntity
  8
0
  6
Continuous
 62
     7
370
    15
100
AcDbLine
 10
670.7575326334409
 20
127.7513021704653
 30
0.0
 11
669.4894414377486
 21
127.0191692655638
 31
0.0
  0
LINE
  5
AB07
330
1F
100
AcDbEntity
  8
0
  6
Continuous
 62
     7
370
    15
100
AcDbLine
 10
670.9894416398281
 20
124.421093468942
 30
0.0
 11
672.2575326128635
 21
125.1532264419165
 31
0.0
  0
LINE
  5
AB09
330
1F
100
AcDbEntity
  8
0
  6
Continuous
 62
     7
370
    15
100
AcDbLine
 10
666.4038932452315
 20
136.3522639537886
 30
0.0
 11
685.488294382501
 21
136.3522639366368
 31
0.0
  0
SPLINE
  5
AB0A
330
1F
100
AcDbEntity
  8
0
  6
Continuous
 62
     7
370
    15
100
AcDbSpline
210
0.0
220
0.0
230
1.0
 70
     8
 71
     3
 72
     8
 73
     4
 74
     0
 42
0.0000000001
 43
0.0000000001
 40
0.0
 40
0.0
 40
0.0
 40
0.0
 40
1.0
 40
1.0
 40
1.0
 40
1.0
 10
728.572695895906
 20
136.3522639425231
 30
0.0
 10
728.3446028005273
 20
134.9620409434682
 30
0.0
 10
728.0237907435453
 20
133.5898072291026
 30
0.0
 10
727.6118944759692
 20
132.242555243757
 30
0.0
  0
SPLINE
  5
AB0B
330
1F
100
AcDbEntity
  8
0
  6
Continuous
 62
     7
370
    15
100
AcDbSpline
210
0.0
220
0.0
230
1.0
 70
     8
 71
     3
 72
     8
 73
     4
 74
     0
 42
0.0000000001
 43
0.0000000001
 40
0.0
 40
0.0
 40
0.0
 40
0.0
 40
1.0
 40
1.0
 40
1.0
 40
1.0
 10
727.6118944759692
 20
132.242555243757
 30
0.0
 10
727.0612125835382
 20
130.4413559339477
 30
0.0
 10
726.3501549349493
 20
128.6933223269157
 30
0.0
 10
725.4871478500109
 20
127.0191693256476
 30
0.0
  0
LINE
  5
AB0C
330
1F
100
AcDbEntity
  8
0
  6
Continuous
 62
     7
370
    15
100
AcDbLine
 10
724.2190557228467
 20
127.7513023699805
 30
0.0
 11
724.5440552100638
 21
128.3142190559596
 31
0.0
  0
LINE
  5
AB0D
330
1F
100
AcDbEntity
  8
0
  6
Continuous
 62
     7
370
    15
100
AcDbLine
 10
724.5440552100638
 20
128.3142190559596
 30
0.0
 11
720.9067484496214
 21
130.414219034121
 31
0.0
  0
LINE
  5
AB0E
330
1F
100
AcDbEntity
  8
0
  6
Continuous
 62
     7
370
    15
100
AcDbLine
 10
720.9067484496214
 20
130.414219034121
 30
0.0
 11
718.756751360072
 21
126.6903090342853
 31
0.0
  0
LINE
  5
AB0F
330
1F
100
AcDbEntity
  8
0
  6
Continuous
 62
     7
370
    15
100
AcDbLine
 10
718.756751360072
 20
126.6903090342853
 30
0.0
 11
722.3940580524412
 21
124.5903088334669
 31
0.0
  0
LINE
  5
AB10
330
1F
100
AcDbEntity
  8
0
  6
Continuous
 62
     7
370
    15
100
AcDbLine
 10
722.7190575407218
 20
125.1532255229251
 30
0.0
 11
722.3940580524412
 21
124.5903088334669
 31
0.0
  0
SPLINE
  5
AB11
330
1F
100
AcDbEntity
  8
0
  6
Continuous
 62
     7
370
    15
100
AcDbSpline
210
0.0
220
0.0
230
1.0
 70
     8
 71
     3
 72
     8
 73
     4
 74
     0
 42
0.0000000001
 43
0.0000000001
 40
0.0
 40
0.0
 40
0.0
 40
0.0
 40
1.0
 40
1.0
 40
1.0
 40
1.0
 10
723.9871478500109
 20
124.4210931142943
 30
0.0
 10
723.5842675027823
 20
123.794250292931
 30
0.0
 10
723.1619060953065
 20
123.1856024925845
 30
0.0
 10
722.7156828635216
 20
122.588836772814
 30
0.0
  0
SPLINE
  5
AB13
330
1F
100
AcDbEntity
  8
0
  6
Continuous
 62
     7
370
    15
100
AcDbSpline
210
0.0
220
0.0
230
1.0
 70
     8
 71
     3
 72
     8
 73
     4
 74
     0
 42
0.0000000001
 43
0.0000000001
 40
0.0
 40
0.0
 40
0.0
 40
0.0
 40
0.9999999999999998
 40
0.9999999999999998
 40
0.9999999999999998
 40
0.9999999999999998
 10
716.3517218328426
 20
116.2248757421351
 30
0.0
 10
714.8746258014884
 20
115.1203978156532
 30
0.0
 10
713.3035604522745
 20
114.1478860482229
 30
0.0
 10
711.656282553585
 20
113.3183321317006
 30
0.0
  0
LINE
  5
AB14
330
1F
100
AcDbEntity
  8
0
  6
Continuous
 62
     7
370
    15
100
AcDbLine
 10
711.0607113550186
 20
114.65600530121
 30
0.0
 11
711.6545156134826
 21
114.9203835141803
 31
0.0
  0
LINE
  5
AB15
330
1F
100
AcDbEntity
  8
0
  6
Continuous
 62
     7
370
    15
100
AcDbLine
 10
711.6545156134826
 20
114.9203835141803
 30
0.0
 11
709.9462215305893
 21
118.7572748685257
 31
0.0
  0
LINE
  5
AB16
330
1F
100
AcDbEntity
  8
0
  6
Continuous
 62
     7
370
    15
100
AcDbLine
 10
709.9462215305893
 20
118.7572748685257
 30
0.0
 11
706.0179779187476
 21
117.0083072026279
 31
0.0
  0
LINE
  5
AB17
330
1F
100
AcDbEntity
  8
0
  6
Continuous
 62
     7
370
    15
100
AcDbLine
 10
706.0179779187476
 20
117.0083072026279
 30
0.0
 11
707.7262722739334
 21
113.1714167389107
 31
0.0
  0
LINE
  5
AB18
330
1F
100
AcDbEntity
  8
0
  6
Continuous
 62
     7
370
    15
100
AcDbLine
 10
708.3200765323974
 20
113.4357949518809
 30
0.0
 11
707.7262722739334
 21
113.1714167389107
 31
0.0
  0
SPLINE
  5
AB19
330
1F
100
AcDbEntity
  8
0
  6
Continuous
 62
     7
370
    15
100
AcDbSpline
210
0.0
220
0.0
230
1.0
 70
     8
 71
     3
 72
     8
 73
     4
 74
     0
 42
0.0000000001
 43
0.0000000001
 40
0.0
 40
0.0
 40
0.0
 40
0.0
 40
1.0
 40
1.0
 40
1.0
 40
1.0
 10
708.9156461806571
 20
112.0981222024732
 30
0.0
 10
706.872510141282
 20
111.3027443669765
 30
0.0
 10
704.7518619369955
 20
110.722837959686
 30
0.0
 10
702.5882946631335
 20
110.3678627097505
 30
0.0
  0
LINE
  5
AB1A
330
1F
100
AcDbEntity
  8
0
  6
Continuous
 62
     7
370
    15
100
AcDbLine
 10
728.5726948551497
 20
136.352264648223
 30
0.0
 11
709.4882944723621
 21
136.3522639477684
 31
0.0
  0
LINE
  5
AB1C
330
1F
100
AcDbEntity
  8
0
  6
Continuous
 62
     7
370
    15
100
AcDbLine
 10
708.9156469656114
 20
112.0981227680009
 30
0.0
 11
708.3200765323974
 21
113.4357949518809
 31
0.0
  0
LINE
  5
AB1D
330
1F
100
AcDbEntity
  8
0
  6
Continuous
 62
     7
370
    15
100
AcDbLine
 10
711.6562817882326
 20
113.31833311733
 30
0.0
 11
711.0607113550186
 21
114.65600530121
 31
0.0
  0
LINE
  5
AB1E
330
1F
100
AcDbEntity
  8
0
  6
Continuous
 62
     7
370
    15
100
AcDbLine
 10
725.4871480790896
 20
127.0191692640609
 30
0.0
 11
724.2190557228467
 21
127.7513023699805
 31
0.0
  0
LINE
  5
AB1F
330
1F
100
AcDbEntity
  8
0
  6
Continuous
 62
     7
370
    15
100
AcDbLine
 10
723.9871463270064
 20
124.4210934818218
 30
0.0
 11
722.7190575407218
 21
125.1532255229251
 31
0.0
  0
LINE
  5
AB21
330
1F
100
AcDbEntity
  8
0
  6
Continuous
 62
     7
370
    15
100
AcDbLine
 10
702.5882948913272
 20
110.367862549908
 30
0.0
 11
702.5882940178509
 21
129.45226395947
 31
0.0
  0
ARC
  5
AB22
330
1F
100
AcDbEntity
  8
0
  6
Continuous
 62
     7
370
    15
100
AcDbCircle
 10
697.4882946631335
 20
141.4522639425232
 30
0.0
 40
31.99999999999999
100
AcDbArc
 50
99.17062085912982
 51
126.915986092898
  0
SPLINE
  5
AB24
330
1F
100
AcDbEntity
  8
0
  6
Continuous
 62
     7
370
    15
100
AcDbSpline
210
0.0
220
0.0
230
1.0
 70
    24
 71
     3
 72
    10
 73
     6
 74
     0
 42
0.0000000001
 43
0.0000000001
 40
0.0
 40
0.0
 40
0.0
 40
0.0
 40
0.5
 40
0.5
 40
1.0
 40
1.0
 40
1.0
 40
1.0
 10
692.3882946631337
 20
172.5366651752959
 30
0.0
 10
692.3882946631337
 20
172.6695825187053
 30
0.0
 10
692.3882946631337
 20
172.7997622291018
 30
0.0
 10
692.3882946631337
 20
172.9873923404072
 30
0.0
 10
692.3882946631337
 20
173.0432436677549
 30
0.0
 10
692.3882946631337
 20
173.0432436677549
 30
0.0
  0
ARC
  5
AB25
330
1F
100
AcDbEntity
  8
0
  6
Continuous
 62
     7
370
    15
100
AcDbCircle
 10
697.4882946631335
 20
141.4522639425232
 30
0.0
 40
32.0
100
AcDbArc
 50
9.170620859131441
 51
36.91598609289837
  0
SPLINE
  5
AB27
330
1F
100
AcDbEntity
  8
0
  6
Continuous
 62
     7
370
    15
100
AcDbSpline
210
0.0
220
0.0
230
1.0
 70
    24
 71
     3
 72
    10
 73
     6
 74
     0
 42
0.0000000001
 43
0.0000000001
 40
0.0
 40
0.0
 40
0.0
 40
0.0
 40
0.5
 40
0.5
 40
1.0
 40
1.0
 40
1.0
 40
1.0
 10
728.5726958959062
 20
146.5522639425229
 30
0.0
 10
728.7056132393156
 20
146.5522639425229
 30
0.0
 10
728.8357929497122
 20
146.5522639425229
 30
0.0
 10
729.0234230610176
 20
146.5522639425229
 30
0.0
 10
729.0792743883653
 20
146.5522639425229
 30
0.0
 10
729.0792743883653
 20
146.5522639425229
 30
0.0
  0
ARC
  5
AB28
330
1F
100
AcDbEntity
  8
0
  6
Continuous
 62
     7
370
    15
100
AcDbCircle
 10
697.4882946631335
 20
141.4522639425232
 30
0.0
 40
32.0
100
AcDbArc
 50
233.084013907102
 51
260.8293791408702
  0
SPLINE
  5
AB29
330
1F
100
AcDbEntity
  8
0
  6
Continuous
 62
     7
370
    15
100
AcDbSpline
210
0.0
220
0.0
230
1.0
 70
    24
 71
     3
 72
    10
 73
     6
 74
     0
 42
0.0000000001
 43
0.0000000001
 40
0.0
 40
0.0
 40
0.0
 40
0.0
 40
0.5
 40
0.5
 40
1.0
 40
1.0
 40
1.0
 40
1.0
 10
692.3882946631334
 20
109.8612842172915
 30
0.0
 10
692.3882946631334
 20
109.8612842172915
 30
0.0
 10
692.3882946631335
 20
109.9170454226611
 30
0.0
 10
692.3882946631334
 20
110.1043411455043
 30
0.0
 10
692.3882946631334
 20
110.2349744725513
 30
0.0
 10
692.3882946631334
 20
110.3678627097505
 30
0.0
  0
SPLINE
  5
AB2A
330
1F
100
AcDbEntity
  8
0
  6
Continuous
 62
     7
370
    15
100
AcDbSpline
210
0.0
220
0.0
230
1.0
 70
    24
 71
     3
 72
    10
 73
     6
 74
     0
 42
0.0000000001
 43
0.0000000001
 40
0.0
 40
0.0
 40
0.0
 40
0.0
 40
0.5
 40
0.5
 40
1.0
 40
1.0
 40
1.0
 40
1.0
 10
678.6248674934243
 20
116.2248757421353
 30
0.0
 10
678.5310182431102
 20
116.1310264918212
 30
0.0
 10
678.4391316568555
 20
116.0391399055666
 30
0.0
 10
678.3069592811633
 20
115.9069675298744
 30
0.0
 10
678.2677083612529
 20
115.867716609964
 30
0.0
 10
678.2677083612529
 20
115.867716609964
 30
0.0
  0
ARC
  5
AB2B
330
1F
100
AcDbEntity
  8
0
  6
Continuous
 62
     7
370
    15
100
AcDbCircle
 10
697.4882946631335
 20
141.4522639425232
 30
0.0
 40
32.0
100
AcDbArc
 50
143.0840139071003
 51
170.8293791408669
  0
SPLINE
  5
AB2C
330
1F
100
AcDbEntity
  8
0
  6
Continuous
 62
     7
370
    15
100
AcDbSpline
210
0.0
220
0.0
230
1.0
 70
    24
 71
     3
 72
    10
 73
     6
 74
     0
 42
0.0000000001
 43
0.0000000001
 40
0.0
 40
0.0
 40
0.0
 40
0.0
 40
0.5
 40
0.5
 40
1.0
 40
1.0
 40
1.0
 40
1.0
 10
665.8973149379018
 20
146.5522639425233
 30
0.0
 10
665.8973149379018
 20
146.5522639425233
 30
0.0
 10
665.9530761432714
 20
146.5522639425233
 30
0.0
 10
666.1403718661146
 20
146.5522639425233
 30
0.0
 10
666.2710051931616
 20
146.5522639425233
 30
0.0
 10
666.4038934303609
 20
146.5522639425233
 30
0.0
  0
ARC
  5
AB2E
330
1F
100
AcDbEntity
  8
0
  6
Continuous
 62
     7
370
    15
100
AcDbCircle
 10
697.4882946631335
 20
141.4522639425232
 30
0.0
 40
32.0
100
AcDbArc
 50
53.08401390709576
 51
80.82937914087017
  0
SPLINE
  5
AB2F
330
1F
100
AcDbEntity
  8
0
  6
Continuous
 62
     7
370
    15
100
AcDbSpline
210
0.0
220
0.0
230
1.0
 70
    24
 71
     3
 72
    10
 73
     6
 74
     0
 42
0.0000000001
 43
0.0000000001
 40
0.0
 40
0.0
 40
0.0
 40
0.0
 40
0.5
 40
0.5
 40
1.0
 40
1.0
 40
1.0
 40
1.0
 10
702.5882946631337
 20
173.0432436677549
 30
0.0
 10
702.5882946631337
 20
173.0432436677549
 30
0.0
 10
702.5882946631337
 20
172.9874824623853
 30
0.0
 10
702.5882946631337
 20
172.8001867395421
 30
0.0
 10
702.5882946631337
 20
172.669553412495
 30
0.0
 10
702.5882946631337
 20
172.5366651752959
 30
0.0
  0
ARC
  5
AB31
330
1F
100
AcDbEntity
  8
0
  6
Continuous
 62
     7
370
    15
100
AcDbCircle
 10
697.4882946631335
 20
141.4522639425232
 30
0.0
 40
32.0
100
AcDbArc
 50
189.170620859133
 51
207.3132758143086
  0
SPLINE
  5
AB32
330
1F
100
AcDbEntity
  8
0
  6
Continuous
 62
     7
370
    15
100
AcDbSpline
210
0.0
220
0.0
230
1.0
 70
    24
 71
     3
 72
    10
 73
     6
 74
     0
 42
0.0000000001
 43
0.0000000001
 40
0.0
 40
0.0
 40
0.0
 40
0.0
 40
0.5
 40
0.5
 40
1.0
 40
1.0
 40
1.0
 40
1.0
 10
669.0559446906328
 20
126.7688898397756
 30
0.0
 10
669.0559446906328
 20
126.7688898397756
 30
0.0
 10
669.1029542164358
 20
126.7960308021524
 30
0.0
 10
669.262822523432
 20
126.8883308122316
 30
0.0
 10
669.3750179708522
 20
126.9531068840014
 30
0.0
 10
669.4894414762559
 20
127.0191693256479
 30
0.0
  0
SPLINE
  5
AB33
330
1F
100
AcDbEntity
  8
0
  6
Continuous
 62
     7
370
    15
100
AcDbSpline
210
0.0
220
0.0
230
1.0
 70
    24
 71
     3
 72
    10
 73
     6
 74
     0
 42
0.0000000001
 43
0.0000000001
 40
0.0
 40
0.0
 40
0.0
 40
0.0
 40
0.5
 40
0.5
 40
1.0
 40
1.0
 40
1.0
 40
1.0
 10
666.4038934303607
 20
136.3522639425233
 30
0.0
 10
666.2709760869513
 20
136.3522639425233
 30
0.0
 10
666.1407963765547
 20
136.3522639425233
 30
0.0
 10
665.9531662652494
 20
136.3522639425233
 30
0.0
 10
665.8973149379018
 20
136.3522639425233
 30
0.0
 10
665.8973149379018
 20
136.3522639425233
 30
0.0
  0
ARC
  5
AB34
330
1F
100
AcDbEntity
  8
0
  6
Continuous
 62
     7
370
    15
100
AcDbCircle
 10
697.4882946631335
 20
141.4522639425232
 30
0.0
 40
32.00000000000001
100
AcDbArc
 50
323.0840139071016
 51
327.3132758143083
  0
SPLINE
  5
AB35
330
1F
100
AcDbEntity
  8
0
  6
Continuous
 62
     7
370
    15
100
AcDbSpline
210
0.0
220
0.0
230
1.0
 70
    24
 71
     3
 72
    10
 73
     6
 74
     0
 42
0.0000000001
 43
0.0000000001
 40
0.0
 40
0.0
 40
0.0
 40
0.0
 40
0.5
 40
0.5
 40
1.0
 40
1.0
 40
1.0
 40
1.0
 10
724.420644635634
 20
124.1708136284219
 30
0.0
 10
724.420644635634
 20
124.1708136284219
 30
0.0
 10
724.373635109831
 20
124.1979545907988
 30
0.0
 10
724.2137668028346
 20
124.290254600878
 30
0.0
 10
724.1015713554146
 20
124.3550306726478
 30
0.0
 10
723.9871478500109
 20
124.4210931142943
 30
0.0
  0
SPLINE
  5
AB36
330
1F
100
AcDbEntity
  8
0
  6
Continuous
 62
     7
370
    15
100
AcDbSpline
210
0.0
220
0.0
230
1.0
 70
    24
 71
     3
 72
    10
 73
     6
 74
     0
 42
0.0000000001
 43
0.0000000001
 40
0.0
 40
0.0
 40
0.0
 40
0.0
 40
0.5
 40
0.5
 40
1.0
 40
1.0
 40
1.0
 40
1.0
 10
722.7156828635216
 20
122.588836772814
 30
0.0
 10
722.8095321138355
 20
122.4949875225
 30
0.0
 10
722.9014187000903
 20
122.4031009362454
 30
0.0
 10
723.0335910757824
 20
122.2709285605532
 30
0.0
 10
723.0728419956927
 20
122.2316776406428
 30
0.0
 10
723.0728419956927
 20
122.2316776406428
 30
0.0
  0
ARC
  5
AB37
330
1F
100
AcDbEntity
  8
0
  6
Continuous
 62
     7
370
    15
100
AcDbCircle
 10
697.4882946631335
 20
141.4522639425232
 30
0.0
 40
32.0
100
AcDbArc
 50
279.1706208591362
 51
291.3132758143088
  0
SPLINE
  5
AB38
330
1F
100
AcDbEntity
  8
0
  6
Continuous
 62
     7
370
    15
100
AcDbSpline
210
0.0
220
0.0
230
1.0
 70
    24
 71
     3
 72
    10
 73
     6
 74
     0
 42
0.0000000001
 43
0.0000000001
 40
0.0
 40
0.0
 40
0.0
 40
0.0
 40
0.5
 40
0.5
 40
1.0
 40
1.0
 40
1.0
 40
1.0
 10
709.1192418564861
 20
111.6408388275536
 30
0.0
 10
709.1192418564861
 20
111.6408388275536
 30
0.0
 10
709.0971634086321
 20
111.6904278333444
 30
0.0
 10
709.0220798161212
 20
111.8590683432408
 30
0.0
 10
708.9693862121545
 20
111.9774201154994
 30
0.0
 10
708.9156461806571
 20
112.0981222024732
 30
0.0
  0
SPLINE
  5
AB39
330
1F
100
AcDbEntity
  8
0
  6
Continuous
 62
     7
370
    15
100
AcDbSpline
210
0.0
220
0.0
230
1.0
 70
    24
 71
     3
 72
    10
 73
     6
 74
     0
 42
0.0000000001
 43
0.0000000001
 40
0.0
 40
0.0
 40
0.0
 40
0.0
 40
0.5
 40
0.5
 40
1.0
 40
1.0
 40
1.0
 40
1.0
 10
702.5882946631335
 20
110.3678627097506
 30
0.0
 10
702.5882946631335
 20
110.2349453663411
 30
0.0
 10
702.5882946631335
 20
110.1047656559446
 30
0.0
 10
702.5882946631335
 20
109.9171355446392
 30
0.0
 10
702.5882946631334
 20
109.8612842172915
 30
0.0
 10
702.5882946631335
 20
109.8612842172915
 30
0.0
  0
ARC
  5
AB3A
330
1F
100
AcDbEntity
  8
0
  6
Continuous
 62
     7
370
    15
100
AcDbCircle
 10
697.4882946631335
 20
141.4522639425232
 30
0.0
 40
32.00000000000001
100
AcDbArc
 50
296.6867241856919
 51
306.9159860929042
  0
SPLINE
  5
AB3B
330
1F
100
AcDbEntity
  8
0
  6
Continuous
 62
     7
370
    15
100
AcDbSpline
210
0.0
220
0.0
230
1.0
 70
    24
 71
     3
 72
    10
 73
     6
 74
     0
 42
0.0000000001
 43
0.0000000001
 40
0.0
 40
0.0
 40
0.0
 40
0.0
 40
0.5
 40
0.5
 40
1.0
 40
1.0
 40
1.0
 40
1.0
 10
716.7088809650139
 20
115.8677166099639
 30
0.0
 10
716.7088809650138
 20
115.8677166099639
 30
0.0
 10
716.6697094441315
 20
115.9068881308462
 30
0.0
 10
716.5377407891367
 20
116.0388567858411
 30
0.0
 10
716.4455550351163
 20
116.1310425398613
 30
0.0
 10
716.3517218328426
 20
116.2248757421351
 30
0.0
  0
SPLINE
  5
AB3C
330
1F
100
AcDbEntity
  8
0
  6
Continuous
 62
     7
370
    15
100
AcDbSpline
210
0.0
220
0.0
230
1.0
 70
    24
 71
     3
 72
    10
 73
     6
 74
     0
 42
0.0000000001
 43
0.0000000001
 40
0.0
 40
0.0
 40
0.0
 40
0.0
 40
0.5
 40
0.5
 40
1.0
 40
1.0
 40
1.0
 40
1.0
 10
711.859878229414
 20
112.861048756781
 30
0.0
 10
711.859878229414
 20
112.861048756781
 30
0.0
 10
711.8377997815599
 20
112.9106377625718
 30
0.0
 10
711.762716189049
 20
113.0792782724682
 30
0.0
 10
711.7100225850824
 20
113.1976300447268
 30
0.0
 10
711.656282553585
 20
113.3183321317006
 30
0.0
  0
ARC
  5
AB3D
330
1F
100
AcDbEntity
  8
0
  6
Continuous
 62
     7
370
    15
100
AcDbCircle
 10
697.4882946631335
 20
141.4522639425232
 30
0.0
 40
32.0
100
AcDbArc
 50
212.6867241856917
 51
216.9159860928997
  0
SPLINE
  5
AB3E
330
1F
100
AcDbEntity
  8
0
  6
Continuous
 62
     7
370
    15
100
AcDbSpline
210
0.0
220
0.0
230
1.0
 70
    24
 71
     3
 72
    10
 73
     6
 74
     0
 42
0.0000000001
 43
0.0000000001
 40
0.0
 40
0.0
 40
0.0
 40
0.0
 40
0.5
 40
0.5
 40
1.0
 40
1.0
 40
1.0
 40
1.0
 10
671.9037473305741
 20
122.231677640643
 30
0.0
 10
671.9037473305741
 20
122.231677640643
 30
0.0
 10
671.9429188514563
 20
122.2708491615253
 30
0.0
 10
672.0748875064513
 20
122.4028178165202
 30
0.0
 10
672.1670732604715
 20
122.4950035705404
 30
0.0
 10
672.2609064627453
 20
122.5888367728142
 30
0.0
  0
SPLINE
  5
AB3F
330
1F
100
AcDbEntity
  8
0
  6
Continuous
 62
     7
370
    15
100
AcDbSpline
210
0.0
220
0.0
230
1.0
 70
    24
 71
     3
 72
    10
 73
     6
 74
     0
 42
0.0000000001
 43
0.0000000001
 40
0.0
 40
0.0
 40
0.0
 40
0.0
 40
0.5
 40
0.5
 40
1.0
 40
1.0
 40
1.0
 40
1.0
 10
670.9894414762559
 20
124.4210931142946
 30
0.0
 10
670.8750157750225
 20
124.3550294048853
 30
0.0
 10
670.7631062176609
 20
124.2904183918177
 30
0.0
 10
670.6031090690321
 20
124.1980439949872
 30
0.0
 10
670.5559446906327
 20
124.1708136284222
 30
0.0
 10
670.5559446906327
 20
124.1708136284222
 30
0.0
  0
ARC
  5
AB40
330
1F
100
AcDbEntity
  8
0
  6
Continuous
 62
     7
370
    15
100
AcDbCircle
 10
697.4882946631335
 20
141.4522639425232
 30
0.0
 40
32.0
100
AcDbArc
 50
332.6867241856914
 51
350.8293791408686
  0
SPLINE
  5
AB41
330
1F
100
AcDbEntity
  8
0
  6
Continuous
 62
     7
370
    15
100
AcDbSpline
210
0.0
220
0.0
230
1.0
 70
    24
 71
     3
 72
    10
 73
     6
 74
     0
 42
0.0000000001
 43
0.0000000001
 40
0.0
 40
0.0
 40
0.0
 40
0.0
 40
0.5
 40
0.5
 40
1.0
 40
1.0
 40
1.0
 40
1.0
 10
729.0792743883652
 20
136.3522639425231
 30
0.0
 10
729.0792743883652
 20
136.3522639425231
 30
0.0
 10
729.0235131829956
 20
136.3522639425231
 30
0.0
 10
728.8362174601523
 20
136.3522639425231
 30
0.0
 10
728.7055841331054
 20
136.3522639425231
 30
0.0
 10
728.5726958959062
 20
136.3522639425231
 30
0.0
  0
SPLINE
  5
AB42
330
1F
100
AcDbEntity
  8
0
  6
Continuous
 62
     7
370
    15
100
AcDbSpline
210
0.0
220
0.0
230
1.0
 70
    24
 71
     3
 72
    10
 73
     6
 74
     0
 42
0.0000000001
 43
0.0000000001
 40
0.0
 40
0.0
 40
0.0
 40
0.0
 40
0.5
 40
0.5
 40
1.0
 40
1.0
 40
1.0
 40
1.0
 10
725.9206446356341
 20
126.7688898397753
 30
0.0
 10
725.9206446356341
 20
126.7688898397753
 30
0.0
 10
725.8736351098311
 20
126.7960308021521
 30
0.0
 10
725.7137668028347
 20
126.8883308122313
 30
0.0
 10
725.6015713554146
 20
126.9531068840011
 30
0.0
 10
725.4871478500109
 20
127.0191693256476
 30
0.0
  0
LINE
  5
AB43
330
1F
100
AcDbEntity
  8
0
  6
Continuous
 62
     7
370
    15
100
AcDbLine
 10
692.6882949787163
 20
153.466534061879
 30
0.0
 11
692.6882950930059
 21
153.4522638169432
 31
0.0
  0
LINE
  5
AB44
330
1F
100
AcDbEntity
  8
0
  6
Continuous
 62
     7
370
    15
100
AcDbLine
 10
692.6882949787163
 20
153.466534061879
 30
0.0
 11
702.288294495034
 21
153.4665336408716
 31
0.0
  0
LINE
  5
AB45
330
1F
100
AcDbEntity
  8
0
  6
Continuous
 62
     7
370
    15
100
AcDbLine
 10
702.288294495034
 20
153.4665336408716
 30
0.0
 11
702.2882948816159
 21
153.4522642865641
 31
0.0
  0
LINE
  5
AB46
330
1F
100
AcDbEntity
  8
0
  6
Continuous
 62
     7
370
    15
100
AcDbLine
 10
692.6882949787163
 20
153.466534061879
 30
0.0
 11
692.4882944172841
 21
153.6665346843427
 31
0.0
  0
LINE
  5
AB47
330
1F
100
AcDbEntity
  8
0
  6
Continuous
 62
     7
370
    15
100
AcDbLine
 10
692.4882944172841
 20
153.6665346843427
 30
0.0
 11
702.4882942268695
 21
153.6665344745964
 31
0.0
  0
LINE
  5
AB48
330
1F
100
AcDbEntity
  8
0
  6
Continuous
 62
     7
370
    15
100
AcDbLine
 10
702.288294495034
 20
153.4665336408716
 30
0.0
 11
702.4882942268695
 21
153.6665344745964
 31
0.0
  0
LINE
  5
AB49
330
1F
100
AcDbEntity
  8
0
  6
Continuous
 62
     7
370
    15
100
AcDbLine
 10
702.4882942268695
 20
153.6665344745964
 30
0.0
 11
702.4882940014754
 21
153.4522642191729
 31
0.0
  0
LINE
  5
AB4A
330
1F
100
AcDbEntity
  8
0
  6
Continuous
 62
     7
370
    15
100
AcDbLine
 10
685.4740243136159
 20
146.252264072003
 30
0.0
 11
685.4882945585517
 21
146.2522641862925
 31
0.0
  0
LINE
  5
AB4B
330
1F
100
AcDbEntity
  8
0
  6
Continuous
 62
     7
370
    15
100
AcDbLine
 10
685.4740243136159
 20
146.252264072003
 30
0.0
 11
685.2740245066656
 21
146.4522639768602
 31
0.0
  0
LINE
  5
AB4C
330
1F
100
AcDbEntity
  8
0
  6
Continuous
 62
     7
370
    15
100
AcDbLine
 10
685.2740245066656
 20
146.4522639768602
 30
0.0
 11
685.4882947620891
 21
146.4522637514661
 31
0.0
  0
LINE
  5
AB4D
330
1F
100
AcDbEntity
  8
0
  6
Continuous
 62
     7
370
    15
100
AcDbLine
 10
685.4740237564624
 20
136.6522641103712
 30
0.0
 11
685.4882948920264
 21
136.6522639523683
 31
0.0
  0
LINE
  5
AB4E
330
1F
100
AcDbEntity
  8
0
  6
Continuous
 62
     7
370
    15
100
AcDbLine
 10
685.4740237564624
 20
136.6522641103712
 30
0.0
 11
685.4740243136159
 21
146.252264072003
 31
0.0
  0
LINE
  5
AB4F
330
1F
100
AcDbEntity
  8
0
  6
Continuous
 62
     7
370
    15
100
AcDbLine
 10
685.4740237564624
 20
136.6522641103712
 30
0.0
 11
685.2740242288462
 21
136.4522639446177
 31
0.0
  0
LINE
  5
AB50
330
1F
100
AcDbEntity
  8
0
  6
Continuous
 62
     7
370
    15
100
AcDbLine
 10
685.2740242288462
 20
136.4522639446177
 30
0.0
 11
685.2740245066656
 21
146.4522639768602
 31
0.0
  0
LINE
  5
AB51
330
1F
100
AcDbEntity
  8
0
  6
Continuous
 62
     7
370
    15
100
AcDbLine
 10
692.4882944172841
 20
153.6665346843427
 30
0.0
 11
692.4882941918899
 21
153.4522644289192
 31
0.0
  0
LINE
  5
AB52
330
1F
100
AcDbEntity
  8
0
  6
Continuous
 62
     7
370
    15
100
AcDbLine
 10
685.2740242288462
 20
136.4522639446177
 30
0.0
 11
685.4882945523428
 21
136.4522639418806
 31
0.0
  0
LINE
  5
AB53
330
1F
100
AcDbEntity
  8
0
  6
Continuous
 62
     7
370
    15
100
AcDbLine
 10
702.2882935349485
 20
129.4379939148917
 30
0.0
 11
702.2882934206591
 21
129.4522641598274
 31
0.0
  0
LINE
  5
AB54
330
1F
100
AcDbEntity
  8
0
  6
Continuous
 62
     7
370
    15
100
AcDbLine
 10
702.2882935349485
 20
129.4379939148917
 30
0.0
 11
692.6882937463384
 21
129.4379934452708
 31
0.0
  0
LINE
  5
AB55
330
1F
100
AcDbEntity
  8
0
  6
Continuous
 62
     7
370
    15
100
AcDbLine
 10
692.6882937463384
 20
129.4379934452708
 30
0.0
 11
692.6882937681952
 21
129.4522641355207
 31
0.0
  0
LINE
  5
AB56
330
1F
100
AcDbEntity
  8
0
  6
Continuous
 62
     7
370
    15
100
AcDbLine
 10
702.2882935349485
 20
129.4379939148917
 30
0.0
 11
702.4882940963808
 21
129.237993292428
 31
0.0
  0
LINE
  5
AB57
330
1F
100
AcDbEntity
  8
0
  6
Continuous
 62
     7
370
    15
100
AcDbLine
 10
702.4882940963808
 20
129.237993292428
 30
0.0
 11
692.4882941506491
 21
129.2379930568602
 31
0.0
  0
LINE
  5
AB58
330
1F
100
AcDbEntity
  8
0
  6
Continuous
 62
     7
370
    15
100
AcDbLine
 10
692.6882937463384
 20
129.4379934452708
 30
0.0
 11
692.4882941506491
 21
129.2379930568602
 31
0.0
  0
LINE
  5
AB59
330
1F
100
AcDbEntity
  8
0
  6
Continuous
 62
     7
370
    15
100
AcDbLine
 10
692.4882941506491
 20
129.2379930568602
 30
0.0
 11
692.4882945121894
 21
129.4522637575978
 31
0.0
  0
LINE
  5
AB5A
330
1F
100
AcDbEntity
  8
0
  6
Continuous
 62
     7
370
    15
100
AcDbLine
 10
702.4882940963808
 20
129.237993292428
 30
0.0
 11
702.4882962391775
 21
129.4522634485808
 31
0.0
  0
LINE
  5
AB5B
330
1F
100
AcDbEntity
  8
0
  6
Continuous
 62
     7
370
    15
100
AcDbLine
 10
709.5025638665743
 20
146.2522641386919
 30
0.0
 11
709.4882945122667
 21
146.25226375211
 31
0.0
  0
LINE
  5
AB5C
330
1F
100
AcDbEntity
  8
0
  6
Continuous
 62
     7
370
    15
100
AcDbLine
 10
709.5025638665743
 20
146.2522641386919
 30
0.0
 11
709.5025670080797
 21
136.6522635332047
 31
0.0
  0
LINE
  5
AB5D
330
1F
100
AcDbEntity
  8
0
  6
Continuous
 62
     7
370
    15
100
AcDbLine
 10
709.5025670080797
 20
136.6522635332047
 30
0.0
 11
709.4882940912594
 21
136.6522642357923
 31
0.0
  0
LINE
  5
AB5E
330
1F
100
AcDbEntity
  8
0
  6
Continuous
 62
     7
370
    15
100
AcDbLine
 10
709.5025638665743
 20
146.2522641386919
 30
0.0
 11
709.7025651073737
 21
146.4522635372036
 31
0.0
  0
LINE
  5
AB5F
330
1F
100
AcDbEntity
  8
0
  6
Continuous
 62
     7
370
    15
100
AcDbLine
 10
709.7025651073737
 20
146.4522635372036
 30
0.0
 11
709.7025641431454
 21
136.4522644452246
 31
0.0
  0
LINE
  5
AB60
330
1F
100
AcDbEntity
  8
0
  6
Continuous
 62
     7
370
    15
100
AcDbLine
 10
709.5025670080797
 20
136.6522635332047
 30
0.0
 11
709.7025641431454
 21
136.4522644452246
 31
0.0
  0
LINE
  5
AB61
330
1F
100
AcDbEntity
  8
0
  6
Continuous
 62
     7
370
    15
100
AcDbLine
 10
709.7025651073737
 20
146.4522635372036
 30
0.0
 11
709.4882930706939
 21
146.4522643071824
 31
0.0
  0
LINE
  5
AB62
330
1F
100
AcDbEntity
  8
0
  6
Continuous
 62
     7
370
    15
100
AcDbLine
 10
709.7025641431454
 20
136.4522644452246
 30
0.0
 11
709.4882955328321
 21
136.4522636807198
 31
0.0
  0
LINE
  5
AB63
330
1F
100
AcDbEntity
  8
0
  6
Continuous
 62
     7
370
    15
100
AcDbLine
 10
702.2882949145268
 20
173.4665332600427
 30
0.0
 11
692.6882945075808
 21
173.4665339533423
 31
0.0
  0
LINE
  5
AB64
330
1F
100
AcDbEntity
  8
0
  6
Continuous
 62
     7
370
    15
100
AcDbLine
 10
702.2882943278426
 20
165.8665349377713
 30
0.0
 11
702.2882949145268
 21
173.4665332600427
 31
0.0
  0
LINE
  5
AB65
330
1F
100
AcDbEntity
  8
0
  6
Continuous
 62
     7
370
    15
100
AcDbLine
 10
702.2882943278426
 20
165.8665349377713
 30
0.0
 11
692.6882948115249
 21
165.8665353587786
 31
0.0
  0
LINE
  5
AB66
330
1F
100
AcDbEntity
  8
0
  6
Continuous
 62
     7
370
    15
100
AcDbLine
 10
692.6882945075808
 20
173.4665339533423
 30
0.0
 11
692.6882948115249
 21
165.8665353587786
 31
0.0
  0
CIRCLE
  5
AB67
330
1F
100
AcDbEntity
  8
0
  6
Continuous
 62
     7
370
    15
100
AcDbCircle
 10
697.4882946631336
 20
169.6665345289827
 30
0.0
 40
1.999999999978719
  0
CIRCLE
  5
AB68
330
1F
100
AcDbEntity
  8
0
  6
Continuous
 62
     7
370
    15
100
AcDbCircle
 10
697.4882946631336
 20
169.6665345289827
 30
0.0
 40
1.650000000017328
  0
LINE
  5
AB69
330
1F
100
AcDbEntity
  8
0
  6
Continuous
 62
     7
370
    15
100
AcDbLine
 10
716.5025648292671
 20
146.2522637541814
 30
0.0
 11
716.5025644082598
 21
136.6522642378637
 31
0.0
  0
LINE
  5
AB6A
330
1F
100
AcDbEntity
  8
0
  6
Continuous
 62
     7
370
    15
100
AcDbLine
 10
709.7025661279392
 20
136.6522634658134
 30
0.0
 11
716.5025644082598
 21
136.6522642378637
 31
0.0
  0
LINE
  5
AB6B
330
1F
100
AcDbEntity
  8
0
  6
Continuous
 62
     7
370
    15
100
AcDbLine
 10
716.5025648292671
 20
146.2522637541814
 30
0.0
 11
709.7025668212389
 21
146.2522638727594
 31
0.0
  0
CIRCLE
  5
AB6C
330
1F
100
AcDbEntity
  8
0
  6
Continuous
 62
     7
370
    15
100
AcDbCircle
 10
712.7025652495932
 20
141.4522639425231
 30
0.0
 40
1.999999999930938
  0
LINE
  5
AB6D
330
1F
100
AcDbEntity
  8
0
  6
Continuous
 62
     7
370
    15
100
AcDbLine
 10
729.5025666272508
 20
136.652263113712
 30
0.0
 11
729.5025634857452
 21
146.2522637191992
 31
0.0
  0
LINE
  5
AB6E
330
1F
100
AcDbEntity
  8
0
  6
Continuous
 62
     7
370
    15
100
AcDbLine
 10
721.9025644701742
 20
136.6522638989374
 30
0.0
 11
729.5025666272508
 21
136.652263113712
 31
0.0
  0
LINE
  5
AB6F
330
1F
100
AcDbEntity
  8
0
  6
Continuous
 62
     7
370
    15
100
AcDbLine
 10
721.9025644701742
 20
136.6522638989374
 30
0.0
 11
721.9025651634738
 21
146.2522643058834
 31
0.0
  0
LINE
  5
AB70
330
1F
100
AcDbEntity
  8
0
  6
Continuous
 62
     7
370
    15
100
AcDbLine
 10
729.5025634857452
 20
146.2522637191992
 30
0.0
 11
721.9025651634738
 21
146.2522643058834
 31
0.0
  0
CIRCLE
  5
AB71
330
1F
100
AcDbEntity
  8
0
  6
Continuous
 62
     7
370
    15
100
AcDbCircle
 10
725.7025652495932
 20
141.452263942523
 30
0.0
 40
1.999999999934768
  0
CIRCLE
  5
AB72
330
1F
100
AcDbEntity
  8
0
  6
Continuous
 62
     7
370
    15
100
AcDbCircle
 10
712.7025652495932
 20
141.4522639425231
 30
0.0
 40
1.64999999997785
  0
LINE
  5
AB73
330
1F
100
AcDbEntity
  8
0
  6
Continuous
 62
     7
370
    15
100
AcDbLine
 10
678.4740241297117
 20
136.6522640864431
 30
0.0
 11
678.474024105405
 21
146.2522637389071
 31
0.0
  0
LINE
  5
AB74
330
1F
100
AcDbEntity
  8
0
  6
Continuous
 62
     7
370
    15
100
AcDbLine
 10
685.2740241669821
 20
146.2522639663725
 30
0.0
 11
678.474024105405
 21
146.2522637389071
 31
0.0
  0
LINE
  5
AB75
330
1F
100
AcDbEntity
  8
0
  6
Continuous
 62
     7
370
    15
100
AcDbLine
 10
678.4740241297117
 20
136.6522640864431
 30
0.0
 11
685.2740236098285
 21
136.6522640047407
 31
0.0
  0
CIRCLE
  5
AB76
330
1F
100
AcDbEntity
  8
0
  6
Continuous
 62
     7
370
    15
100
AcDbCircle
 10
682.2740240766743
 20
141.4522639425233
 30
0.0
 40
1.999999999969634
  0
CIRCLE
  5
AB77
330
1F
100
AcDbEntity
  8
0
  6
Continuous
 62
     7
370
    15
100
AcDbCircle
 10
725.7025652495932
 20
141.452263942523
 30
0.0
 40
1.649999999981687
  0
CIRCLE
  5
AB78
330
1F
100
AcDbEntity
  8
0
  6
Continuous
 62
     7
370
    15
100
AcDbCircle
 10
682.2740240766743
 20
141.4522639425233
 30
0.0
 40
1.649999999955497
  0
LINE
  5
AB79
330
1F
100
AcDbEntity
  8
0
  6
Continuous
 62
     7
370
    15
100
AcDbLine
 10
702.2882950678408
 20
122.4379928529281
 30
0.0
 11
692.6882955515229
 21
122.4379932739354
 31
0.0
  0
LINE
  5
AB7A
330
1F
100
AcDbEntity
  8
0
  6
Continuous
 62
     7
370
    15
100
AcDbLine
 10
692.6882953240574
 20
129.2379933355125
 30
0.0
 11
692.6882955515229
 21
122.4379932739354
 31
0.0
  0
LINE
  5
AB7B
330
1F
100
AcDbEntity
  8
0
  6
Continuous
 62
     7
370
    15
100
AcDbLine
 10
702.2882950678408
 20
122.4379928529281
 30
0.0
 11
702.2882949765213
 21
129.2379933598192
 31
0.0
  0
CIRCLE
  5
AB7C
330
1F
100
AcDbEntity
  8
0
  6
Continuous
 62
     7
370
    15
100
AcDbCircle
 10
697.4882946631335
 20
126.2379933560641
 30
0.0
 40
2.000000000050027
  0
CIRCLE
  5
AB7D
330
1F
100
AcDbEntity
  8
0
  6
Continuous
 62
     7
370
    15
100
AcDbCircle
 10
697.4882946631335
 20
126.2379933560641
 30
0.0
 40
1.650000000036754
  0
LINE
  5
AB7E
330
1F
100
AcDbEntity
  8
0
  6
Continuous
 62
     7
370
    15
100
AcDbLine
 10
702.4882946463621
 20
173.6665340937673
 30
0.0
 11
702.2882949145268
 21
173.4665332600427
 31
0.0
  0
LINE
  5
AB7F
330
1F
100
AcDbEntity
  8
0
  6
Continuous
 62
     7
370
    15
100
AcDbLine
 10
692.6882945075808
 20
173.4665339533423
 30
0.0
 11
692.488295109069
 21
173.6665351941419
 31
0.0
  0
LINE
  5
AB80
330
1F
100
AcDbEntity
  8
0
  6
Continuous
 62
     7
370
    15
100
AcDbLine
 10
702.4882946463621
 20
173.6665340937673
 30
0.0
 11
692.488295109069
 21
173.6665351941419
 31
0.0
  0
LINE
  5
AB81
330
1F
100
AcDbEntity
  8
0
  6
Continuous
 62
     7
370
    15
100
AcDbLine
 10
702.4882951615673
 20
165.6665352059359
 30
0.0
 11
702.2882943278426
 21
165.8665349377713
 31
0.0
  0
LINE
  5
AB82
330
1F
100
AcDbEntity
  8
0
  6
Continuous
 62
     7
370
    15
100
AcDbLine
 10
702.4882951615673
 20
165.6665352059359
 30
0.0
 11
702.4882946463621
 21
173.6665340937673
 31
0.0
  0
LINE
  5
AB83
330
1F
100
AcDbEntity
  8
0
  6
Continuous
 62
     7
370
    15
100
AcDbLine
 10
692.4882950796894
 20
165.666534525054
 30
0.0
 11
702.4882951615673
 21
165.6665352059359
 31
0.0
  0
LINE
  5
AB84
330
1F
100
AcDbEntity
  8
0
  6
Continuous
 62
     7
370
    15
100
AcDbLine
 10
692.6882948115249
 20
165.8665353587786
 30
0.0
 11
692.4882950796894
 21
165.666534525054
 31
0.0
  0
LINE
  5
AB85
330
1F
100
AcDbEntity
  8
0
  6
Continuous
 62
     7
370
    15
100
AcDbLine
 10
692.488295109069
 20
173.6665351941419
 30
0.0
 11
692.4882950796894
 21
165.666534525054
 31
0.0
  0
LINE
  5
AB86
330
1F
100
AcDbEntity
  8
0
  6
Continuous
 62
     7
370
    15
100
AcDbLine
 10
702.2882948795445
 20
160.4665346035646
 30
0.0
 11
702.48829461138
 21
160.6665354372893
 31
0.0
  0
LINE
  5
AB87
330
1F
100
AcDbEntity
  8
0
  6
Continuous
 62
     7
370
    15
100
AcDbLine
 10
692.6882944725986
 20
160.4665352968644
 30
0.0
 11
702.2882948795445
 21
160.4665346035646
 31
0.0
  0
LINE
  5
AB88
330
1F
100
AcDbEntity
  8
0
  6
Continuous
 62
     7
370
    15
100
AcDbLine
 10
692.6882944725986
 20
160.4665352968644
 30
0.0
 11
692.4882945295021
 21
160.6665347564074
 31
0.0
  0
LINE
  5
AB89
330
1F
100
AcDbEntity
  8
0
  6
Continuous
 62
     7
370
    15
100
AcDbLine
 10
702.48829461138
 20
160.6665354372893
 30
0.0
 11
692.4882945295021
 21
160.6665347564074
 31
0.0
  0
LINE
  5
AB8A
330
1F
100
AcDbEntity
  8
0
  6
Continuous
 62
     7
370
    15
100
AcDbLine
 10
702.28829510701
 20
153.6665345419875
 30
0.0
 11
702.2882948795445
 21
160.4665346035646
 31
0.0
  0
LINE
  5
AB8B
330
1F
100
AcDbEntity
  8
0
  6
Continuous
 62
     7
370
    15
100
AcDbLine
 10
692.6882944725986
 20
160.4665352968644
 30
0.0
 11
692.6882953183999
 21
153.6665340723667
 31
0.0
  0
CIRCLE
  5
AB8C
330
1F
100
AcDbEntity
  8
0
  6
Continuous
 62
     7
370
    15
100
AcDbCircle
 10
697.4882946631335
 20
156.6665345289827
 30
0.0
 40
2.000000000024332
  0
LINE
  5
AB8D
330
1F
100
AcDbEntity
  8
0
  6
Continuous
 62
     7
370
    15
100
AcDbLine
 10
702.4882942268695
 20
153.6665344745964
 30
0.0
 11
702.48829461138
 21
160.6665354372893
 31
0.0
  0
LINE
  5
AB8E
330
1F
100
AcDbEntity
  8
0
  6
Continuous
 62
     7
370
    15
100
AcDbLine
 10
692.4882945295021
 20
160.6665347564074
 30
0.0
 11
692.4882944172841
 21
153.6665346843427
 31
0.0
  0
LINE
  5
AB8F
330
1F
100
AcDbEntity
  8
0
  6
Continuous
 62
     7
370
    15
100
AcDbLine
 10
673.2740240596764
 20
146.452263850747
 30
0.0
 11
673.074024031082
 21
146.2522638381579
 31
0.0
  0
LINE
  5
AB90
330
1F
100
AcDbEntity
  8
0
  6
Continuous
 62
     7
370
    15
100
AcDbLine
 10
673.074024031082
 20
146.2522638381579
 30
0.0
 11
665.4740240449116
 21
146.2522639596707
 31
0.0
  0
LINE
  5
AB91
330
1F
100
AcDbEntity
  8
0
  6
Continuous
 62
     7
370
    15
100
AcDbLine
 10
665.2740237926471
 20
146.4522640006741
 30
0.0
 11
665.4740240449116
 21
146.2522639596707
 31
0.0
  0
LINE
  5
AB92
330
1F
100
AcDbEntity
  8
0
  6
Continuous
 62
     7
370
    15
100
AcDbLine
 10
673.2740240596764
 20
146.452263850747
 30
0.0
 11
665.2740237926471
 21
146.4522640006741
 31
0.0
  0
LINE
  5
AB93
330
1F
100
AcDbEntity
  8
0
  6
Continuous
 62
     7
370
    15
100
AcDbLine
 10
678.474024105405
 20
146.2522637389071
 30
0.0
 11
678.2740238531406
 21
146.4522637799104
 31
0.0
  0
LINE
  5
AB94
330
1F
100
AcDbEntity
  8
0
  6
Continuous
 62
     7
370
    15
100
AcDbLine
 10
685.2740245066656
 20
146.4522639768602
 30
0.0
 11
678.2740238531406
 21
146.4522637799104
 31
0.0
  0
LINE
  5
AB95
330
1F
100
AcDbEntity
  8
0
  6
Continuous
 62
     7
370
    15
100
AcDbLine
 10
665.4740240449116
 20
146.2522639596707
 30
0.0
 11
665.4740240011452
 21
136.6522640845497
 31
0.0
  0
LINE
  5
AB96
330
1F
100
AcDbEntity
  8
0
  6
Continuous
 62
     7
370
    15
100
AcDbLine
 10
673.074024031082
 20
146.2522638381579
 30
0.0
 11
673.0740241543084
 21
136.6522639119821
 31
0.0
  0
LINE
  5
AB97
330
1F
100
AcDbEntity
  8
0
  6
Continuous
 62
     7
370
    15
100
AcDbLine
 10
665.4740240011452
 20
136.6522640845497
 30
0.0
 11
673.0740241543084
 21
136.6522639119821
 31
0.0
  0
CIRCLE
  5
AB98
330
1F
100
AcDbEntity
  8
0
  6
Continuous
 62
     7
370
    15
100
AcDbCircle
 10
669.2740240766743
 20
141.4522639425233
 30
0.0
 40
2.000000000026886
  0
LINE
  5
AB99
330
1F
100
AcDbEntity
  8
0
  6
Continuous
 62
     7
370
    15
100
AcDbLine
 10
665.4740240011452
 20
136.6522640845497
 30
0.0
 11
665.2740240962881
 21
136.4522642775995
 31
0.0
  0
LINE
  5
AB9A
330
1F
100
AcDbEntity
  8
0
  6
Continuous
 62
     7
370
    15
100
AcDbLine
 10
665.2740237926471
 20
146.4522640006741
 30
0.0
 11
665.2740240962881
 21
136.4522642775995
 31
0.0
  0
LINE
  5
AB9B
330
1F
100
AcDbEntity
  8
0
  6
Continuous
 62
     7
370
    15
100
AcDbLine
 10
673.2740241839157
 20
136.4522639390519
 30
0.0
 11
673.2740240596764
 21
146.452263850747
 31
0.0
  0
LINE
  5
AB9C
330
1F
100
AcDbEntity
  8
0
  6
Continuous
 62
     7
370
    15
100
AcDbLine
 10
673.0740241543084
 20
136.6522639119821
 30
0.0
 11
673.2740241839157
 21
136.4522639390519
 31
0.0
  0
LINE
  5
AB9D
330
1F
100
AcDbEntity
  8
0
  6
Continuous
 62
     7
370
    15
100
AcDbLine
 10
678.4740241297117
 20
136.6522640864431
 30
0.0
 11
678.2740240887085
 21
136.4522638341787
 31
0.0
  0
LINE
  5
AB9E
330
1F
100
AcDbEntity
  8
0
  6
Continuous
 62
     7
370
    15
100
AcDbLine
 10
678.2740238531406
 20
146.4522637799104
 30
0.0
 11
678.2740240887085
 21
136.4522638341787
 31
0.0
  0
LINE
  5
AB9F
330
1F
100
AcDbEntity
  8
0
  6
Continuous
 62
     7
370
    15
100
AcDbLine
 10
678.2740240887085
 20
136.4522638341787
 30
0.0
 11
685.2740242288462
 21
136.4522639446177
 31
0.0
  0
LINE
  5
ABA0
330
1F
100
AcDbEntity
  8
0
  6
Continuous
 62
     7
370
    15
100
AcDbLine
 10
665.2740240962881
 20
136.4522642775995
 30
0.0
 11
673.2740241839157
 21
136.4522639390519
 31
0.0
  0
LINE
  5
ABA1
330
1F
100
AcDbEntity
  8
0
  6
Continuous
 62
     7
370
    15
100
AcDbLine
 10
692.6882955515229
 20
122.4379932739354
 30
0.0
 11
692.4882943107235
 21
122.2379938754237
 31
0.0
  0
LINE
  5
ABA2
330
1F
100
AcDbEntity
  8
0
  6
Continuous
 62
     7
370
    15
100
AcDbLine
 10
692.4882941506491
 20
129.2379930568602
 30
0.0
 11
692.4882943107235
 21
122.2379938754237
 31
0.0
  0
LINE
  5
ABA3
330
1F
100
AcDbEntity
  8
0
  6
Continuous
 62
     7
370
    15
100
AcDbLine
 10
702.2882950678408
 20
122.4379928529281
 30
0.0
 11
702.4882959015654
 21
122.2379931210927
 31
0.0
  0
LINE
  5
ABA4
330
1F
100
AcDbEntity
  8
0
  6
Continuous
 62
     7
370
    15
100
AcDbLine
 10
702.4882959015654
 20
122.2379931210927
 30
0.0
 11
702.4882940963808
 21
129.237993292428
 31
0.0
  0
LINE
  5
ABA5
330
1F
100
AcDbEntity
  8
0
  6
Continuous
 62
     7
370
    15
100
AcDbLine
 10
692.4882943107235
 20
122.2379938754237
 30
0.0
 11
702.4882959015654
 21
122.2379931210927
 31
0.0
  0
LINE
  5
ABA6
330
1F
100
AcDbEntity
  8
0
  6
Continuous
 62
     7
370
    15
100
AcDbLine
 10
702.2882947605661
 20
109.4379933058219
 30
0.0
 11
692.6882952442483
 21
109.4379937268292
 31
0.0
  0
LINE
  5
ABA7
330
1F
100
AcDbEntity
  8
0
  6
Continuous
 62
     7
370
    15
100
AcDbLine
 10
692.6882940496762
 20
117.0379925936853
 30
0.0
 11
692.6882952442483
 21
109.4379937268292
 31
0.0
  0
LINE
  5
ABA8
330
1F
100
AcDbEntity
  8
0
  6
Continuous
 62
     7
370
    15
100
AcDbLine
 10
702.288295891835
 20
117.0379934093497
 30
0.0
 11
692.6882940496762
 21
117.0379925936853
 31
0.0
  0
LINE
  5
ABA9
330
1F
100
AcDbEntity
  8
0
  6
Continuous
 62
     7
370
    15
100
AcDbLine
 10
702.2882947605661
 20
109.4379933058219
 30
0.0
 11
702.288295891835
 21
117.0379934093497
 31
0.0
  0
CIRCLE
  5
ABAA
330
1F
100
AcDbEntity
  8
0
  6
Continuous
 62
     7
370
    15
100
AcDbCircle
 10
697.4882946631335
 20
113.2379933560641
 30
0.0
 40
1.999999999973189
  0
LINE
  5
ABAB
330
1F
100
AcDbEntity
  8
0
  6
Continuous
 62
     7
370
    15
100
AcDbLine
 10
692.4882955417926
 20
117.2379935621924
 30
0.0
 11
692.6882940496762
 21
117.0379925936853
 31
0.0
  0
LINE
  5
ABAC
330
1F
100
AcDbEntity
  8
0
  6
Continuous
 62
     7
370
    15
100
AcDbLine
 10
702.4882932978293
 20
117.2379930064026
 30
0.0
 11
692.4882955417926
 21
117.2379935621924
 31
0.0
  0
LINE
  5
ABAD
330
1F
100
AcDbEntity
  8
0
  6
Continuous
 62
     7
370
    15
100
AcDbLine
 10
702.288295891835
 20
117.0379934093497
 30
0.0
 11
702.4882932978293
 21
117.2379930064026
 31
0.0
  0
LINE
  5
ABAE
330
1F
100
AcDbEntity
  8
0
  6
Continuous
 62
     7
370
    15
100
AcDbLine
 10
692.6882952442483
 20
109.4379937268292
 30
0.0
 11
692.4882937311565
 21
109.2379934376893
 31
0.0
  0
LINE
  5
ABAF
330
1F
100
AcDbEntity
  8
0
  6
Continuous
 62
     7
370
    15
100
AcDbLine
 10
692.4882955417926
 20
117.2379935621924
 30
0.0
 11
692.4882937311565
 21
109.2379934376893
 31
0.0
  0
LINE
  5
ABB0
330
1F
100
AcDbEntity
  8
0
  6
Continuous
 62
     7
370
    15
100
AcDbLine
 10
702.2882947605661
 20
109.4379933058219
 30
0.0
 11
702.4882955942907
 21
109.2379935739864
 31
0.0
  0
LINE
  5
ABB1
330
1F
100
AcDbEntity
  8
0
  6
Continuous
 62
     7
370
    15
100
AcDbLine
 10
702.4882955942907
 20
109.2379935739864
 30
0.0
 11
702.4882932978293
 21
117.2379930064026
 31
0.0
  0
LINE
  5
ABB2
330
1F
100
AcDbEntity
  8
0
  6
Continuous
 62
     7
370
    15
100
AcDbLine
 10
692.4882937311565
 20
109.2379934376893
 30
0.0
 11
702.4882955942907
 21
109.2379935739864
 31
0.0
  0
LINE
  5
ABB3
330
1F
100
AcDbEntity
  8
0
  6
Continuous
 62
     7
370
    15
100
AcDbLine
 10
721.7025667918875
 20
136.4522634112562
 30
0.0
 11
721.9025644701742
 21
136.6522638989374
 31
0.0
  0
LINE
  5
ABB4
330
1F
100
AcDbEntity
  8
0
  6
Continuous
 62
     7
370
    15
100
AcDbLine
 10
721.7025643297492
 20
146.4522640377188
 30
0.0
 11
721.7025667918875
 21
136.4522634112562
 31
0.0
  0
LINE
  5
ABB5
330
1F
100
AcDbEntity
  8
0
  6
Continuous
 62
     7
370
    15
100
AcDbLine
 10
721.9025651634738
 20
146.2522643058834
 30
0.0
 11
721.7025643297492
 21
146.4522640377188
 31
0.0
  0
LINE
  5
ABB6
330
1F
100
AcDbEntity
  8
0
  6
Continuous
 62
     7
370
    15
100
AcDbLine
 10
716.5025644082598
 20
136.6522642378637
 30
0.0
 11
716.7025651058383
 21
136.4522640607142
 31
0.0
  0
LINE
  5
ABB7
330
1F
100
AcDbEntity
  8
0
  6
Continuous
 62
     7
370
    15
100
AcDbLine
 10
716.5025648292671
 20
146.2522637541814
 30
0.0
 11
716.7025663423591
 21
146.4522640433213
 31
0.0
  0
LINE
  5
ABB8
330
1F
100
AcDbEntity
  8
0
  6
Continuous
 62
     7
370
    15
100
AcDbLine
 10
716.7025651058383
 20
136.4522640607142
 30
0.0
 11
716.7025663423591
 21
146.4522640433213
 31
0.0
  0
LINE
  5
ABB9
330
1F
100
AcDbEntity
  8
0
  6
Continuous
 62
     7
370
    15
100
AcDbLine
 10
729.7025638984625
 20
136.4522644710461
 30
0.0
 11
729.5025666272508
 21
136.652263113712
 31
0.0
  0
LINE
  5
ABBA
330
1F
100
AcDbEntity
  8
0
  6
Continuous
 62
     7
370
    15
100
AcDbLine
 10
729.5025634857452
 20
146.2522637191992
 30
0.0
 11
729.7025649988371
 21
146.4522640083391
 31
0.0
  0
LINE
  5
ABBB
330
1F
100
AcDbEntity
  8
0
  6
Continuous
 62
     7
370
    15
100
AcDbLine
 10
729.7025638984625
 20
136.4522644710461
 30
0.0
 11
729.7025649988371
 21
146.4522640083391
 31
0.0
  0
LINE
  5
ABBC
330
1F
100
AcDbEntity
  8
0
  6
Continuous
 62
     7
370
    15
100
AcDbLine
 10
716.7025663423591
 20
146.4522640433213
 30
0.0
 11
709.7025651073737
 21
146.4522635372036
 31
0.0
  0
LINE
  5
ABBD
330
1F
100
AcDbEntity
  8
0
  6
Continuous
 62
     7
370
    15
100
AcDbLine
 10
729.7025649988371
 20
146.4522640083391
 30
0.0
 11
721.7025643297492
 21
146.4522640377188
 31
0.0
  0
LINE
  5
ABBE
330
1F
100
AcDbEntity
  8
0
  6
Continuous
 62
     7
370
    15
100
AcDbLine
 10
721.7025667918875
 20
136.4522634112562
 30
0.0
 11
729.7025638984625
 21
136.4522644710461
 31
0.0
  0
LINE
  5
ABBF
330
1F
100
AcDbEntity
  8
0
  6
Continuous
 62
     7
370
    15
100
AcDbLine
 10
709.7025641431454
 20
136.4522644452246
 30
0.0
 11
716.7025651058383
 21
136.4522640607142
 31
0.0
  0
CIRCLE
  5
ABC0
330
1F
100
AcDbEntity
  8
0
  6
Continuous
 62
     7
370
    15
100
AcDbCircle
 10
697.4882946631335
 20
156.6665345289827
 30
0.0
 40
1.650000000013534
  0
CIRCLE
  5
ABC1
330
1F
100
AcDbEntity
  8
0
  6
Continuous
 62
     7
370
    15
100
AcDbCircle
 10
669.2740240766743
 20
141.4522639425233
 30
0.0
 40
1.650000000013605
  0
CIRCLE
  5
ABC2
330
1F
100
AcDbEntity
  8
0
  6
Continuous
 62
     7
370
    15
100
AcDbCircle
 10
697.4882946631335
 20
113.2379933560641
 30
0.0
 40
1.650000000048777
  0
CIRCLE
  5
ABC3
330
1F
100
AcDbEntity
  8
0
  6
Continuous
 62
     7
370
    15
100
AcDbCircle
 10
697.4882946631335
 20
119.7379933560641
 30
0.0
 40
2.200000000118975
  0
LINE
  5
ABC4
330
1F
100
AcDbEntity
  8
0
  6
Continuous
 62
     7
370
    15
100
AcDbLine
 10
702.4882932978293
 20
117.2379930064026
 30
0.0
 11
702.4882959015654
 21
122.2379931210927
 31
0.0
  0
LINE
  5
ABC5
330
1F
100
AcDbEntity
  8
0
  6
Continuous
 62
     7
370
    15
100
AcDbLine
 10
692.4882943107235
 20
122.2379938754237
 30
0.0
 11
692.4882955417926
 21
117.2379935621924
 31
0.0
  0
CIRCLE
  5
ABC6
330
1F
100
AcDbEntity
  8
0
  6
Continuous
 62
     7
370
    15
100
AcDbCircle
 10
697.4882946631335
 20
119.7379933560641
 30
0.0
 40
1.999999999967855
  0
CIRCLE
  5
ABC7
330
1F
100
AcDbEntity
  8
0
  6
Continuous
 62
     7
370
    15
100
AcDbCircle
 10
719.2025652495932
 20
141.452263942523
 30
0.0
 40
2.200000000005815
  0
LINE
  5
ABC8
330
1F
100
AcDbEntity
  8
0
  6
Continuous
 62
     7
370
    15
100
AcDbLine
 10
721.7025643297492
 20
146.4522640377188
 30
0.0
 11
716.7025663423591
 21
146.4522640433213
 31
0.0
  0
LINE
  5
ABC9
330
1F
100
AcDbEntity
  8
0
  6
Continuous
 62
     7
370
    15
100
AcDbLine
 10
716.7025651058383
 20
136.4522640607142
 30
0.0
 11
721.7025667918875
 21
136.4522634112562
 31
0.0
  0
CIRCLE
  5
ABCA
330
1F
100
AcDbEntity
  8
0
  6
Continuous
 62
     7
370
    15
100
AcDbCircle
 10
719.2025652495932
 20
141.452263942523
 30
0.0
 40
1.999999999971691
  0
CIRCLE
  5
ABCB
330
1F
100
AcDbEntity
  8
0
  6
Continuous
 62
     7
370
    15
100
AcDbCircle
 10
697.4882946631336
 20
163.1665345289827
 30
0.0
 40
2.200000000034703
  0
LINE
  5
ABCC
330
1F
100
AcDbEntity
  8
0
  6
Continuous
 62
     7
370
    15
100
AcDbLine
 10
692.4882950796894
 20
165.666534525054
 30
0.0
 11
692.4882945295021
 21
160.6665347564074
 31
0.0
  0
LINE
  5
ABCD
330
1F
100
AcDbEntity
  8
0
  6
Continuous
 62
     7
370
    15
100
AcDbLine
 10
702.48829461138
 20
160.6665354372893
 30
0.0
 11
702.4882951615673
 21
165.6665352059359
 31
0.0
  0
CIRCLE
  5
ABCE
330
1F
100
AcDbEntity
  8
0
  6
Continuous
 62
     7
370
    15
100
AcDbCircle
 10
675.7740240766743
 20
141.4522639425233
 30
0.0
 40
2.199999999980045
  0
LINE
  5
ABCF
330
1F
100
AcDbEntity
  8
0
  6
Continuous
 62
     7
370
    15
100
AcDbLine
 10
673.2740241839157
 20
136.4522639390519
 30
0.0
 11
678.2740240887085
 21
136.4522638341787
 31
0.0
  0
LINE
  5
ABD0
330
1F
100
AcDbEntity
  8
0
  6
Continuous
 62
     7
370
    15
100
AcDbLine
 10
678.2740238531406
 20
146.4522637799104
 30
0.0
 11
673.2740240596764
 21
146.452263850747
 31
0.0
  0
CIRCLE
  5
ABD1
330
1F
100
AcDbEntity
  8
0
  6
Continuous
 62
     7
370
    15
100
AcDbCircle
 10
675.7740240766743
 20
141.4522639425233
 30
0.0
 40
2.000000000003652
  0
CIRCLE
  5
ABD2
330
1F
100
AcDbEntity
  8
0
  6
Continuous
 62
     7
370
    15
100
AcDbCircle
 10
697.4882946631336
 20
163.1665345289827
 30
0.0
 40
2.000000000007347
  0
LINE
  5
ABD3
330
1F
100
AcDbEntity
  8
0
  6
Continuous
 62
     7
370
    15
100
AcDbLine
 10
729.0005663203215
 20
147.0179494853535
 30
0.0
 11
729.7025638620677
 21
147.0179501661012
 31
0.0
  0
LINE
  5
ABD4
330
1F
100
AcDbEntity
  8
0
  6
Continuous
 62
     7
370
    15
100
AcDbLine
 10
729.7025638620677
 20
147.0179501661012
 30
0.0
 11
729.7025649988371
 21
146.4522640083391
 31
0.0
  0
LINE
  5
ABD5
330
1F
100
AcDbEntity
  8
0
  6
Continuous
 62
     7
370
    15
100
AcDbLine
 10
703.0539816158899
 20
109.9399940337583
 30
0.0
 11
703.0539812074681
 21
109.2379929294993
 31
0.0
  0
LINE
  5
ABD6
330
1F
100
AcDbEntity
  8
0
  6
Continuous
 62
     7
370
    15
100
AcDbLine
 10
702.4882955942907
 20
109.2379935739864
 30
0.0
 11
703.0539812074681
 21
109.2379929294993
 31
0.0
  0
LINE
  5
ABD7
330
1F
100
AcDbEntity
  8
0
  6
Continuous
 62
     7
370
    15
100
AcDbLine
 10
691.9226085428852
 20
172.9645329531135
 30
0.0
 11
691.9226089513069
 21
173.6665340573726
 31
0.0
  0
LINE
  5
ABD8
330
1F
100
AcDbEntity
  8
0
  6
Continuous
 62
     7
370
    15
100
AcDbLine
 10
691.9226089513069
 20
173.6665340573726
 30
0.0
 11
692.488295109069
 21
173.6665351941419
 31
0.0
  0
LINE
  5
ABD9
330
1F
100
AcDbEntity
  8
0
  6
Continuous
 62
     7
370
    15
100
AcDbLine
 10
691.9226103076574
 20
109.9399946418508
 30
0.0
 11
691.9226098992355
 21
109.2379935375917
 31
0.0
  0
LINE
  5
ABDA
330
1F
100
AcDbEntity
  8
0
  6
Continuous
 62
     7
370
    15
100
AcDbLine
 10
692.4882937311565
 20
109.2379934376893
 30
0.0
 11
691.9226098992355
 21
109.2379935375917
 31
0.0
  0
LINE
  5
ABDB
330
1F
100
AcDbEntity
  8
0
  6
Continuous
 62
     7
370
    15
100
AcDbLine
 10
703.0539808041242
 20
173.6665352305367
 30
0.0
 11
703.0539803957025
 21
172.9645341262775
 31
0.0
  0
LINE
  5
ABDC
330
1F
100
AcDbEntity
  8
0
  6
Continuous
 62
     7
370
    15
100
AcDbLine
 10
703.0539808041242
 20
173.6665352305367
 30
0.0
 11
702.4882946463621
 21
173.6665340937673
 31
0.0
  0
LINE
  5
ABDD
330
1F
100
AcDbEntity
  8
0
  6
Continuous
 62
     7
370
    15
100
AcDbLine
 10
705.4882955468035
 20
173.6665346145749
 30
0.0
 11
705.4882950224014
 21
172.4361316173164
 31
0.0
  0
LINE
  5
ABDE
330
1F
100
AcDbEntity
  8
0
  6
Continuous
 62
     7
370
    15
100
AcDbLine
 10
703.0539808041242
 20
173.6665352305367
 30
0.0
 11
705.4882955468035
 21
173.6665346145749
 31
0.0
  0
LINE
  5
ABDF
330
1F
100
AcDbEntity
  8
0
  6
Continuous
 62
     7
370
    15
100
AcDbLine
 10
705.9882951295872
 20
172.3027087110471
 30
0.0
 11
705.9882948554164
 21
173.6665330108839
 31
0.0
  0
LINE
  5
ABE0
330
1F
100
AcDbEntity
  8
0
  6
Continuous
 62
     7
370
    15
100
AcDbLine
 10
705.9882948554164
 20
173.6665330108839
 30
0.0
 11
705.4882955468035
 21
173.6665346145749
 31
0.0
  0
LINE
  5
ABE1
330
1F
100
AcDbEntity
  8
0
  6
Continuous
 62
     7
370
    15
100
AcDbLine
 10
689.4882946539419
 20
173.6665345371881
 30
0.0
 11
689.4882950201679
 21
172.4361312676373
 31
0.0
  0
LINE
  5
ABE2
330
1F
100
AcDbEntity
  8
0
  6
Continuous
 62
     7
370
    15
100
AcDbLine
 10
689.4882946539419
 20
173.6665345371881
 30
0.0
 11
691.9226089513069
 21
173.6665340573726
 31
0.0
  0
LINE
  5
ABE3
330
1F
100
AcDbEntity
  8
0
  6
Continuous
 62
     7
370
    15
100
AcDbLine
 10
665.2740243350247
 20
147.0179492798658
 30
0.0
 11
665.9760250960793
 21
147.0179493415758
 31
0.0
  0
LINE
  5
ABE4
330
1F
100
AcDbEntity
  8
0
  6
Continuous
 62
     7
370
    15
100
AcDbLine
 10
665.2740243350247
 20
147.0179492798658
 30
0.0
 11
665.2740237926471
 21
146.4522640006741
 31
0.0
  0
LINE
  5
ABE5
330
1F
100
AcDbEntity
  8
0
  6
Continuous
 62
     7
370
    15
100
AcDbLine
 10
666.6378489711482
 20
149.9522638159279
 30
0.0
 11
665.2740237806831
 21
149.9522638140494
 31
0.0
  0
LINE
  5
ABE6
330
1F
100
AcDbEntity
  8
0
  6
Continuous
 62
     7
370
    15
100
AcDbLine
 10
665.2740239582485
 20
149.4522639608519
 30
0.0
 11
666.5044280503544
 21
149.4522638321285
 31
0.0
  0
LINE
  5
ABE7
330
1F
100
AcDbEntity
  8
0
  6
Continuous
 62
     7
370
    15
100
AcDbLine
 10
665.2740237806831
 20
149.9522638140494
 30
0.0
 11
665.2740239582485
 21
149.4522639608519
 31
0.0
  0
LINE
  5
ABE8
330
1F
100
AcDbEntity
  8
0
  6
Continuous
 62
     7
370
    15
100
AcDbLine
 10
688.9882940850164
 20
172.3027084146757
 30
0.0
 11
688.9882953453291
 21
173.6665361408791
 31
0.0
  0
LINE
  5
ABE9
330
1F
100
AcDbEntity
  8
0
  6
Continuous
 62
     7
370
    15
100
AcDbLine
 10
689.4882946539419
 20
173.6665345371881
 30
0.0
 11
688.9882953453291
 21
173.6665361408791
 31
0.0
  0
LINE
  5
ABEA
330
1F
100
AcDbEntity
  8
0
  6
Continuous
 62
     7
370
    15
100
AcDbLine
 10
665.2740243350247
 20
147.0179492798658
 30
0.0
 11
665.2740239582485
 21
149.4522639608519
 31
0.0
  0
LINE
  5
ABEB
330
1F
100
AcDbEntity
  8
0
  6
Continuous
 62
     7
370
    15
100
AcDbLine
 10
729.7025650352318
 20
135.886578313284
 30
0.0
 11
729.0005639309728
 21
135.8865787217058
 31
0.0
  0
LINE
  5
ABEC
330
1F
100
AcDbEntity
  8
0
  6
Continuous
 62
     7
370
    15
100
AcDbLine
 10
729.7025650352318
 20
135.886578313284
 30
0.0
 11
729.7025638984625
 21
136.4522644710461
 31
0.0
  0
LINE
  5
ABED
330
1F
100
AcDbEntity
  8
0
  6
Continuous
 62
     7
370
    15
100
AcDbLine
 10
665.9760250013741
 20
135.8865781198542
 30
0.0
 11
665.274023897115
 21
135.886578528276
 31
0.0
  0
LINE
  5
ABEE
330
1F
100
AcDbEntity
  8
0
  6
Continuous
 62
     7
370
    15
100
AcDbLine
 10
665.274023897115
 20
135.886578528276
 30
0.0
 11
665.2740240962881
 21
136.4522642775995
 31
0.0
  0
LINE
  5
ABEF
330
1F
100
AcDbEntity
  8
0
  6
Continuous
 62
     7
370
    15
100
AcDbLine
 10
665.2740239040329
 20
132.952263796253
 30
0.0
 11
666.6378488718408
 21
132.9522638662046
 31
0.0
  0
LINE
  5
ABF0
330
1F
100
AcDbEntity
  8
0
  6
Continuous
 62
     7
370
    15
100
AcDbLine
 10
666.5044278866465
 20
133.4522637433842
 30
0.0
 11
665.2740241717815
 21
133.4522635133043
 31
0.0
  0
LINE
  5
ABF1
330
1F
100
AcDbEntity
  8
0
  6
Continuous
 62
     7
370
    15
100
AcDbLine
 10
665.2740239040329
 20
132.952263796253
 30
0.0
 11
665.2740241717815
 21
133.4522635133043
 31
0.0
  0
LINE
  5
ABF2
330
1F
100
AcDbEntity
  8
0
  6
Continuous
 62
     7
370
    15
100
AcDbLine
 10
665.274023897115
 20
135.886578528276
 30
0.0
 11
665.2740241717815
 21
133.4522635133043
 31
0.0
  0
LINE
  5
ABF3
330
1F
100
AcDbEntity
  8
0
  6
Continuous
 62
     7
370
    15
100
AcDbLine
 10
705.9882940220884
 20
109.2379930356877
 30
0.0
 11
705.9882942925023
 21
110.601819116781
 31
0.0
  0
LINE
  5
ABF4
330
1F
100
AcDbEntity
  8
0
  6
Continuous
 62
     7
370
    15
100
AcDbLine
 10
705.4882934566214
 20
110.468398181222
 30
0.0
 11
705.488294168891
 21
109.2379928581223
 31
0.0
  0
LINE
  5
ABF5
330
1F
100
AcDbEntity
  8
0
  6
Continuous
 62
     7
370
    15
100
AcDbLine
 10
705.9882940220884
 20
109.2379930356877
 30
0.0
 11
705.488294168891
 21
109.2379928581223
 31
0.0
  0
LINE
  5
ABF6
330
1F
100
AcDbEntity
  8
0
  6
Continuous
 62
     7
370
    15
100
AcDbLine
 10
688.9882953033588
 20
109.237993975988
 30
0.0
 11
688.988295029188
 21
110.6018182758248
 31
0.0
  0
LINE
  5
ABF7
330
1F
100
AcDbEntity
  8
0
  6
Continuous
 62
     7
370
    15
100
AcDbLine
 10
689.4882951565563
 20
109.2379941535534
 30
0.0
 11
689.488293899702
 21
110.4683976953966
 31
0.0
  0
LINE
  5
ABF8
330
1F
100
AcDbEntity
  8
0
  6
Continuous
 62
     7
370
    15
100
AcDbLine
 10
688.9882953033588
 20
109.237993975988
 30
0.0
 11
689.4882951565563
 21
109.2379941535534
 31
0.0
  0
LINE
  5
ABF9
330
1F
100
AcDbEntity
  8
0
  6
Continuous
 62
     7
370
    15
100
AcDbLine
 10
703.0539812074681
 20
109.2379929294993
 30
0.0
 11
705.488294168891
 21
109.2379928581223
 31
0.0
  0
LINE
  5
ABFA
330
1F
100
AcDbEntity
  8
0
  6
Continuous
 62
     7
370
    15
100
AcDbLine
 10
689.4882951565563
 20
109.2379941535534
 30
0.0
 11
691.9226098992355
 21
109.2379935375917
 31
0.0
  0
LINE
  5
ABFB
330
1F
100
AcDbEntity
  8
0
  6
Continuous
 62
     7
370
    15
100
AcDbLine
 10
728.3387386518884
 20
132.9522644331352
 30
0.0
 11
729.7025665142381
 21
132.9522636181366
 31
0.0
  0
LINE
  5
ABFC
330
1F
100
AcDbEntity
  8
0
  6
Continuous
 62
     7
370
    15
100
AcDbLine
 10
729.7025645554163
 20
133.4522640159188
 30
0.0
 11
728.4721614220117
 21
133.4522640950069
 31
0.0
  0
LINE
  5
ABFD
330
1F
100
AcDbEntity
  8
0
  6
Continuous
 62
     7
370
    15
100
AcDbLine
 10
729.7025665142381
 20
132.9522636181366
 30
0.0
 11
729.7025645554163
 21
133.4522640159188
 31
0.0
  0
LINE
  5
ABFE
330
1F
100
AcDbEntity
  8
0
  6
Continuous
 62
     7
370
    15
100
AcDbLine
 10
729.7025644780295
 20
149.4522649087804
 30
0.0
 11
728.4721609361863
 21
149.4522636519262
 31
0.0
  0
LINE
  5
ABFF
330
1F
100
AcDbEntity
  8
0
  6
Continuous
 62
     7
370
    15
100
AcDbLine
 10
729.7025644780295
 20
149.4522649087804
 30
0.0
 11
729.7025638620677
 21
147.0179501661012
 31
0.0
  0
LINE
  5
AC00
330
1F
100
AcDbEntity
  8
0
  6
Continuous
 62
     7
370
    15
100
AcDbLine
 10
729.7025650352318
 20
135.886578313284
 30
0.0
 11
729.7025645554163
 21
133.4522640159188
 31
0.0
  0
LINE
  5
AC01
330
1F
100
AcDbEntity
  8
0
  6
Continuous
 62
     7
370
    15
100
AcDbLine
 10
728.3387417818837
 20
149.9522639432224
 30
0.0
 11
729.7025660817205
 21
149.9522642173933
 31
0.0
  0
LINE
  5
AC02
330
1F
100
AcDbEntity
  8
0
  6
Continuous
 62
     7
370
    15
100
AcDbLine
 10
729.7025644780295
 20
149.4522649087804
 30
0.0
 11
729.7025660817205
 21
149.9522642173933
 31
0.0
  0
CIRCLE
  5
AC05
330
1F
100
AcDbEntity
  8
0
  6
Continuous
 62
     7
370
    15
100
AcDbCircle
 10
717.2872845363571
 20
161.2512538157463
 30
0.0
 40
2.749999999999984
  0
ARC
  5
AC06
330
1F
100
AcDbEntity
  8
0
  6
Continuous
 62
     7
370
    15
100
AcDbCircle
 10
697.4882946631335
 20
141.4522639425232
 30
0.0
 40
32.0
100
AcDbArc
 50
36.91598609289837
 51
53.08401390709576
  0
ARC
  5
AC0B
330
1F
100
AcDbEntity
  8
0
  6
Continuous
 62
     7
370
    15
100
AcDbCircle
 10
832.2548302280168
 20
172.7379926760462
 30
0.0
 40
0.5
100
AcDbArc
 50
0.0
 51
90.0
  0
SPLINE
  5
AC0C
330
1F
100
AcDbEntity
  8
0
  6
Continuous
 62
     7
370
    15
100
AcDbSpline
210
0.0
220
0.0
230
1.0
 70
    24
 71
     1
 72
     4
 73
     2
 74
     0
 42
0.0000000001
 43
0.0000000001
 40
0.0
 40
0.0
 40
1.0
 40
1.0
 10
832.2548303774789
 20
173.2379931220541
 30
0.0
 10
800.254829788883
 20
173.237993122054
 30
0.0
  0
ARC
  5
AC0D
330
1F
100
AcDbEntity
  8
0
  6
Continuous
 62
     7
370
    15
100
AcDbCircle
 10
832.2548302280171
 20
109.7379926760462
 30
0.0
 40
0.5
100
AcDbArc
 50
270.0
 51
0.0000000000016284
  0
SPLINE
  5
AC0E
330
1F
100
AcDbEntity
  8
0
  6
Continuous
 62
     7
370
    15
100
AcDbSpline
210
0.0
220
0.0
230
1.0
 70
    24
 71
     1
 72
     4
 73
     2
 74
     0
 42
0.0000000001
 43
0.0000000001
 40
0.0
 40
0.0
 40
1.0
 40
1.0
 10
800.2548297888834
 20
109.2379931131201
 30
0.0
 10
832.2548303774793
 20
109.2379931131202
 30
0.0
  0
SPLINE
  5
AC0F
330
1F
100
AcDbEntity
  8
0
  6
Continuous
 62
     7
370
    15
100
AcDbSpline
210
0.0
220
0.0
230
1.0
 70
    24
 71
     3
 72
    33
 73
    29
 74
     0
 42
0.0000000001
 43
0.0000000001
 40
0.0
 40
0.0
 40
0.0
 40
0.0
 40
0.0392079952714862
 40
0.0783604315832066
 40
0.1187834010913213
 40
0.1602812854830772
 40
0.2018476438993086
 40
0.2379394893455734
 40
0.2739531764387614
 40
0.3100529978534571
 40
0.3469144064807394
 40
0.3836923366130423
 40
0.4205618685401664
 40
0.4574232925331211
 40
0.4942012226654242
 40
0.5310707562800108
 40
0.5671626611990864
 40
0.603176292051169
 40
0.6392760792764531
 40
0.6808338862775127
 40
0.722334644082419
 40
0.7627619155574975
 40
0.8019136496013379
 40
0.8411238124720965
 40
0.8803253390658099
 40
0.9194799654981524
 40
0.9599072889624631
 40
1.0
 40
1.0
 40
1.0
 40
1.0
 10
832.7548295281129
 20
132.0282838253798
 30
0.0
 10
832.7548295281129
 20
132.7682480530035
 30
0.0
 10
832.7548295281129
 20
134.2471279557181
 30
0.0
 10
832.7548295281127
 20
136.5401681829055
 30
0.0
 10
832.7548295281129
 20
138.9001684165163
 30
0.0
 10
832.7548295281127
 20
141.3221514115611
 30
0.0
 10
832.7548295281127
 20
143.6584620409618
 30
0.0
 10
832.7548295281127
 20
145.8742100646048
 30
0.0
 10
832.7548295281127
 20
147.9623838370642
 30
0.0
 10
832.7548295281127
 20
150.0344990455589
 30
0.0
 10
832.7548295281127
 20
152.0807083933194
 30
0.0
 10
832.7548295281127
 20
154.0897906968029
 30
0.0
 10
832.7548295281127
 20
156.0377827921969
 30
0.0
 10
832.7548295281127
 20
157.9163735291031
 30
0.0
 10
832.7548295281127
 20
159.7157587338205
 30
0.0
 10
832.7548295281127
 20
161.415427030638
 30
0.0
 10
832.7548295281127
 20
163.0108297996337
 30
0.0
 10
832.7548295281127
 20
164.4958333331774
 30
0.0
 10
832.7548295281127
 20
165.9445498192955
 30
0.0
 10
832.7548295281127
 20
167.3320392788331
 30
0.0
 10
832.7548295281127
 20
168.6133121265615
 30
0.0
 10
832.7548295281127
 20
169.7121624528464
 30
0.0
 10
832.7548295281127
 20
170.6341442229448
 30
0.0
 10
832.7548295281127
 20
171.3881015972076
 30
0.0
 10
832.7548295281127
 20
171.9827845820701
 30
0.0
 10
832.7548295281127
 20
172.4126454010295
 30
0.0
 10
832.7548295281127
 20
172.68781068495
 30
0.0
 10
832.7548295281127
 20
172.7194550421683
 30
0.0
 10
832.7548295281127
 20
172.7352114694696
 30
0.0
  0
SPLINE
  5
AC10
330
1F
100
AcDbEntity
  8
0
  6
Continuous
 62
     7
370
    15
100
AcDbSpline
210
0.0
220
0.0
230
1.0
 70
    24
 71
     3
 72
     8
 73
     4
 74
     0
 42
0.0000000001
 43
0.0000000001
 40
0.0
 40
0.0
 40
0.0
 40
0.0
 40
1.0
 40
1.0
 40
1.0
 40
1.0
 10
832.754830228017
 20
126.8048980591706
 30
0.0
 10
832.754830228017
 20
128.4790510604387
 30
0.0
 10
832.754830228017
 20
130.2270846674707
 30
0.0
 10
832.7548302280169
 20
132.02828397728
 30
0.0
  0
SPLINE
  5
AC11
330
1F
100
AcDbEntity
  8
0
  6
Continuous
 62
     7
370
    15
100
AcDbSpline
210
0.0
220
0.0
230
1.0
 70
     8
 71
     3
 72
    10
 73
     6
 74
     0
 42
0.0000000001
 43
0.0000000001
 40
0.0
 40
0.0
 40
0.0
 40
0.0
 40
0.5
 40
0.5
 40
1.0
 40
1.0
 40
1.0
 40
1.0
 10
832.754830228017
 20
126.8048980591706
 30
0.0
 10
832.754830228017
 20
126.7388343497614
 30
0.0
 10
832.7007637168593
 20
126.6742233366937
 30
0.0
 10
832.5164559713062
 20
126.5818489398633
 30
0.0
 10
832.3869618430073
 20
126.5546185732983
 30
0.0
 10
832.254830228017
 20
126.5546185732983
 30
0.0
  0
SPLINE
  5
AC12
330
1F
100
AcDbEntity
  8
0
  6
Continuous
 62
     7
370
    15
100
AcDbSpline
210
0.0
220
0.0
230
1.0
 70
    11
 71
     3
 72
    70
 73
    66
 74
     0
 42
0.0000000001
 43
0.0000000001
 40
0.0
 40
0.0
 40
0.0
 40
0.0
 40
0.03125
 40
0.03125
 40
0.0625
 40
0.0625
 40
0.09375
 40
0.09375
 40
0.125
 40
0.125
 40
0.15625
 40
0.15625
 40
0.1875
 40
0.1875
 40
0.21875
 40
0.21875
 40
0.25
 40
0.25
 40
0.28125
 40
0.28125
 40
0.3125
 40
0.3125
 40
0.34375
 40
0.34375
 40
0.3750000000000001
 40
0.3750000000000001
 40
0.40625
 40
0.40625
 40
0.4374999999999999
 40
0.4374999999999999
 40
0.4687499999999997
 40
0.4687499999999997
 40
0.4999999999999995
 40
0.4999999999999995
 40
0.5312499999999993
 40
0.5312499999999993
 40
0.5624999999999992
 40
0.5624999999999992
 40
0.5937499999999992
 40
0.5937499999999992
 40
0.6249999999999992
 40
0.6249999999999992
 40
0.6562499999999992
 40
0.6562499999999992
 40
0.6874999999999992
 40
0.6874999999999992
 40
0.7187499999999992
 40
0.7187499999999992
 40
0.7499999999999992
 40
0.7499999999999992
 40
0.7812499999999993
 40
0.7812499999999993
 40
0.8124999999999992
 40
0.8124999999999992
 40
0.8437499999999992
 40
0.8437499999999992
 40
0.8749999999999992
 40
0.8749999999999992
 40
0.9062499999999992
 40
0.9062499999999992
 40
0.9374999999999992
 40
0.9374999999999992
 40
0.9687499999999996
 40
0.9687499999999996
 40
1.0
 40
1.0
 40
1.0
 40
1.0
 10
822.7548302280169
 20
153.1818852714571
 30
0.0
 10
822.4571773392341
 20
153.1818852714571
 30
0.0
 10
822.1645725611287
 20
153.2093046593781
 30
0.0
 10
821.5890231362305
 20
153.3164377091927
 30
0.0
 10
821.303068745224
 20
153.3974723105079
 30
0.0
 10
820.7583500389866
 20
153.6079452791972
 30
0.0
 10
820.5000536777971
 20
153.7363991378199
 30
0.0
 10
820.0112140548329
 20
154.0383496577927
 30
0.0
 10
819.7800424854735
 20
154.213224825426
 30
0.0
 10
819.3655361779711
 20
154.5929230878504
 30
0.0
 10
819.1793944944972
 20
154.7991548017716
 30
0.0
 10
818.8504010998769
 20
155.2442272866292
 30
0.0
 10
818.7108091538924
 20
155.4793386276113
 30
0.0
 10
818.4862118336164
 20
155.9626514441501
 30
0.0
 10
818.39959189784
 20
156.2144284529541
 30
0.0
 10
818.2837680060293
 20
156.7255452133241
 30
0.0
 10
818.2550492592271
 20
156.9806177086053
 30
0.0
 10
818.2546136690611
 20
157.4895903223747
 30
0.0
 10
818.2838478412033
 20
157.7460462961139
 30
0.0
 10
818.3986691797288
 20
158.2381475633759
 30
0.0
 10
818.4836468475294
 20
158.4754112466446
 30
0.0
 10
818.7091287759491
 20
158.9329340190382
 30
0.0
 10
818.8497957454032
 20
159.1518455743585
 30
0.0
 10
819.1751355572904
 20
159.5547102219504
 30
0.0
 10
819.3612477254788
 20
159.7414700210518
 30
0.0
 10
819.7804907597943
 20
160.0840366783934
 30
0.0
 10
820.00727700199
 20
160.2347769531142
 30
0.0
 10
820.4940220448444
 20
160.4979313270009
 30
0.0
 10
820.7571453316864
 20
160.6112485084492
 30
0.0
 10
821.3015989939398
 20
160.7922003065453
 30
0.0
 10
821.5820176053963
 20
160.8602488787065
 30
0.0
 10
822.159217485259
 20
160.9523705718538
 30
0.0
 10
822.4571874178426
 20
160.9761144087841
 30
0.0
 10
823.0524921793229
 20
160.9761134022337
 30
0.0
 10
823.3450964682562
 20
160.9528858157002
 30
0.0
 10
823.9206449391108
 20
160.8616966410526
 30
0.0
 10
824.2065988719394
 20
160.7926033788558
 30
0.0
 10
824.7513163918487
 20
160.6117295348634
 30
0.0
 10
825.0096122052411
 20
160.5007965846818
 30
0.0
 10
825.4984507978639
 20
160.2372879411587
 30
0.0
 10
825.7296218086846
 20
160.0834560111235
 30
0.0
 10
826.1441271038345
 20
159.745181136591
 30
0.0
 10
826.330268341058
 20
159.5595357191362
 30
0.0
 10
826.6592609434809
 20
159.1530320271569
 30
0.0
 10
826.7988524965479
 20
158.9355192249369
 30
0.0
 10
827.0234492334006
 20
158.4814211879909
 30
0.0
 10
827.1100689475218
 20
158.2414681980965
 30
0.0
 10
827.2258925261908
 20
157.746331506198
 30
0.0
 10
827.2546111970978
 20
157.4953365013352
 30
0.0
 10
827.2550467866812
 20
156.9864258242194
 30
0.0
 10
827.225812694078
 20
156.7258215207258
 30
0.0
 10
827.1109916585473
 20
156.2178783141181
 30
0.0
 10
827.026014213489
 20
155.9690056960147
 30
0.0
 10
826.8005328876101
 20
155.4821394372632
 30
0.0
 10
826.6598662663898
 20
155.2455018225668
 30
0.0
 10
826.3345272657904
 20
154.8044728682239
 30
0.0
 10
826.1484156339436
 20
154.5970810674836
 30
0.0
 10
825.7291735329163
 20
154.2125927929114
 30
0.0
 10
825.5023877943605
 20
154.041214434587
 30
0.0
 10
825.015643852468
 20
153.7397066702949
 30
0.0
 10
824.7525211914629
 20
153.6085084393739
 30
0.0
 10
824.2080685245438
 20
153.3979480725101
 30
0.0
 10
823.9276504286356
 20
153.3181399644936
 30
0.0
 10
823.3504516318927
 20
153.209914654077
 30
0.0
 10
823.0524831167995
 20
153.1818852714571
 30
0.0
 10
822.7548302280169
 20
153.1818852714571
 30
0.0
  0
SPLINE
  5
AC13
330
1F
100
AcDbEntity
  8
0
  6
Continuous
 62
     7
370
    15
100
AcDbSpline
210
0.0
220
0.0
230
1.0
 70
    11
 71
     3
 72
    70
 73
    66
 74
     0
 42
0.0000000001
 43
0.0000000001
 40
0.0
 40
0.0
 40
0.0
 40
0.0
 40
0.0312499999999999
 40
0.0312499999999999
 40
0.0624999999999998
 40
0.0624999999999998
 40
0.0937499999999998
 40
0.0937499999999998
 40
0.1249999999999996
 40
0.1249999999999996
 40
0.1562499999999996
 40
0.1562499999999996
 40
0.1874999999999994
 40
0.1874999999999994
 40
0.2187499999999994
 40
0.2187499999999994
 40
0.2499999999999992
 40
0.2499999999999992
 40
0.2812499999999992
 40
0.2812499999999992
 40
0.3124999999999991
 40
0.3124999999999991
 40
0.343749999999999
 40
0.343749999999999
 40
0.3749999999999989
 40
0.3749999999999989
 40
0.406249999999999
 40
0.406249999999999
 40
0.4374999999999989
 40
0.4374999999999989
 40
0.4687499999999988
 40
0.4687499999999988
 40
0.4999999999999986
 40
0.4999999999999986
 40
0.5312499999999984
 40
0.5312499999999984
 40
0.5624999999999984
 40
0.5624999999999984
 40
0.5937499999999984
 40
0.5937499999999984
 40
0.6249999999999984
 40
0.6249999999999984
 40
0.6562499999999983
 40
0.6562499999999983
 40
0.6874999999999982
 40
0.6874999999999982
 40
0.7187499999999982
 40
0.7187499999999982
 40
0.7499999999999981
 40
0.7499999999999981
 40
0.7812499999999983
 40
0.7812499999999983
 40
0.8124999999999985
 40
0.8124999999999985
 40
0.8437499999999987
 40
0.8437499999999987
 40
0.8749999999999989
 40
0.8749999999999989
 40
0.9062499999999992
 40
0.9062499999999992
 40
0.9374999999999996
 40
0.9374999999999996
 40
0.9687499999999998
 40
0.9687499999999998
 40
1.0
 40
1.0
 40
1.0
 40
1.0
 10
806.2548302280168
 20
170.9254214914435
 30
0.0
 10
806.5524831167996
 20
170.9254214914435
 30
0.0
 10
806.845087894905
 20
170.9144316567152
 30
0.0
 10
807.4206373198032
 20
170.8709896010434
 30
0.0
 10
807.7065917108097
 20
170.8379932962958
 30
0.0
 10
808.2513104170471
 20
170.7506552854324
 30
0.0
 10
808.5096067782364
 20
170.6967239909511
 30
0.0
 10
808.9984464012008
 20
170.5667818755224
 30
0.0
 10
809.2296179705602
 20
170.4901163044637
 30
0.0
 10
809.6441242780624
 20
170.3187289081018
 30
0.0
 10
809.8302659615365
 20
170.223431874919
 30
0.0
 10
810.1592593561566
 20
170.0110042630363
 30
0.0
 10
810.2988513021413
 20
169.8955834190249
 30
0.0
 10
810.5234486224173
 20
169.6502763904384
 30
0.0
 10
810.6100685581937
 20
169.5185657642631
 30
0.0
 10
810.7258924500044
 20
169.2419238140647
 30
0.0
 10
810.7546111968066
 20
169.0993655376563
 30
0.0
 10
810.7550467869726
 20
168.8055807930953
 30
0.0
 10
810.7258126148304
 20
168.6527253808988
 30
0.0
 10
810.6109912763049
 20
168.3503171320633
 30
0.0
 10
810.5260136085041
 20
168.1999276759238
 30
0.0
 10
810.3005316800846
 20
167.9018931556029
 30
0.0
 10
810.1598647106305
 20
167.7550359669819
 30
0.0
 10
809.8345248987431
 20
167.4783731782282
 30
0.0
 10
809.6484127305547
 20
167.34672332782
 30
0.0
 10
809.2291696962393
 20
167.1005353887341
 30
0.0
 10
809.0023834540435
 20
166.9896746625933
 30
0.0
 10
808.5156384111893
 20
166.7934559112757
 30
0.0
 10
808.2525151243473
 20
166.7073851120033
 30
0.0
 10
807.7080614620937
 20
166.5687241409655
 30
0.0
 10
807.4276428506374
 20
166.5158579186775
 30
0.0
 10
806.8504429707747
 20
166.4440775344442
 30
0.0
 10
806.5524730381911
 20
166.4254210970584
 30
0.0
 10
805.9571682767108
 20
166.4254218858413
 30
0.0
 10
805.6645639877775
 20
166.4436731810552
 30
0.0
 10
805.0890155169227
 20
166.5147326541833
 30
0.0
 10
804.8030615840941
 20
166.5684127677129
 30
0.0
 10
804.258344064185
 20
166.7070189998784
 30
0.0
 10
804.0000482507924
 20
166.7912977535489
 30
0.0
 10
803.5112096581697
 20
166.9878236315213
 30
0.0
 10
803.2800386473493
 20
167.1009371673
 30
0.0
 10
802.8655333521992
 20
167.3440716875963
 30
0.0
 10
802.6793921149756
 20
167.4750249812971
 30
0.0
 10
802.3503995125528
 20
167.7542550204026
 30
0.0
 10
802.2108079594856
 20
167.9001567965856
 30
0.0
 10
801.9862112226331
 20
168.1960640961741
 30
0.0
 10
801.8995915085117
 20
168.3482538832921
 30
0.0
 10
801.7837679298429
 20
168.6525725857032
 30
0.0
 10
801.7550492589357
 20
168.802192504164
 30
0.0
 10
801.7546136693525
 20
169.0960829515046
 30
0.0
 10
801.7838477619555
 20
169.2417524426979
 30
0.0
 10
801.8986687974864
 20
169.516720187388
 30
0.0
 10
801.9836462425447
 20
169.6470016898203
 30
0.0
 10
802.2091275684234
 20
169.8942105141366
 30
0.0
 10
802.3497941896438
 20
170.0103648057504
 30
0.0
 10
802.6751331902433
 20
170.2209243023549
 30
0.0
 10
802.8612448220901
 20
170.3168380355743
 30
0.0
 10
803.2804869231174
 20
170.4904155141809
 30
0.0
 10
803.507272661673
 20
170.5655300877902
 30
0.0
 10
803.9940166035657
 20
170.6953191881658
 30
0.0
 10
804.2571392645708
 20
170.750419421773
 30
0.0
 10
804.8015919314899
 20
170.8377980373766
 30
0.0
 10
805.082010027398
 20
170.8702968599799
 30
0.0
 10
805.659208824141
 20
170.9141867364661
 30
0.0
 10
805.9571773392342
 20
170.9254214914435
 30
0.0
 10
806.2548302280168
 20
170.9254214914435
 30
0.0
  0
LINE
  5
AC14
330
1F
100
AcDbEntity
  8
0
  6
Continuous
 62
     7
370
    15
100
AcDbLine
 10
791.6548304281429
 20
136.1379930993161
 30
0.0
 11
785.6548294446663
 21
136.1379930993161
 31
0.0
  0
LINE
  5
AC15
330
1F
100
AcDbEntity
  8
0
  6
Continuous
 62
     7
370
    15
100
AcDbLine
 10
791.6548304281429
 20
135.6723074552286
 30
0.0
 11
791.6548304281429
 21
136.1379930993161
 31
0.0
  0
LINE
  5
AC16
330
1F
100
AcDbEntity
  8
0
  6
Continuous
 62
     7
370
    15
100
AcDbLine
 10
791.6548304281429
 20
132.737993166658
 30
0.0
 11
791.6548304281429
 21
133.2379928285297
 31
0.0
  0
LINE
  5
AC17
330
1F
100
AcDbEntity
  8
0
  6
Continuous
 62
     7
370
    15
100
AcDbLine
 10
792.1548295787768
 20
132.737993166658
 30
0.0
 11
791.6548304281429
 21
132.737993166658
 31
0.0
  0
LINE
  5
AC18
330
1F
100
AcDbEntity
  8
0
  6
Continuous
 62
     7
370
    15
100
AcDbLine
 10
800.2548297888832
 20
132.7379931666581
 30
0.0
 11
799.7548306382493
 21
132.7379931666581
 31
0.0
  0
LINE
  5
AC19
330
1F
100
AcDbEntity
  8
0
  6
Continuous
 62
     7
370
    15
100
AcDbLine
 10
800.2548297888832
 20
132.7379931666581
 30
0.0
 11
800.2548297888832
 21
133.2379928285297
 31
0.0
  0
LINE
  5
AC1A
330
1F
100
AcDbEntity
  8
0
  6
Continuous
 62
     7
370
    15
100
AcDbLine
 10
800.254829788883
 20
149.2379923854491
 30
0.0
 11
800.254829788883
 21
149.7379926767453
 31
0.0
  0
LINE
  5
AC1B
330
1F
100
AcDbEntity
  8
0
  6
Continuous
 62
     7
370
    15
100
AcDbLine
 10
799.7548306382492
 20
149.7379926767453
 30
0.0
 11
800.254829788883
 21
149.7379926767453
 31
0.0
  0
LINE
  5
AC1C
330
1F
100
AcDbEntity
  8
0
  6
Continuous
 62
     7
370
    15
100
AcDbLine
 10
791.6548304281429
 20
149.7379926767452
 30
0.0
 11
792.1548295787767
 21
149.7379926767452
 31
0.0
  0
LINE
  5
AC1D
330
1F
100
AcDbEntity
  8
0
  6
Continuous
 62
     7
370
    15
100
AcDbLine
 10
791.6548304281429
 20
149.2379923854491
 30
0.0
 11
791.6548304281429
 21
149.7379926767452
 31
0.0
  0
LINE
  5
AC1E
330
1F
100
AcDbEntity
  8
0
  6
Continuous
 62
     7
370
    15
100
AcDbLine
 10
791.6548304281429
 20
146.3379931916817
 30
0.0
 11
791.6548304281429
 21
146.8036782188763
 31
0.0
  0
LINE
  5
AC1F
330
1F
100
AcDbEntity
  8
0
  6
Continuous
 62
     7
370
    15
100
AcDbLine
 10
785.6548294446662
 20
146.3379931916816
 30
0.0
 11
791.6548304281429
 21
146.3379931916817
 31
0.0
  0
LINE
  5
AC20
330
1F
100
AcDbEntity
  8
0
  6
Continuous
 62
     7
370
    15
100
AcDbLine
 10
785.6548294446662
 20
160.4585787098348
 30
0.0
 11
785.6548294446662
 21
146.3379931916816
 31
0.0
  0
LINE
  5
AC21
330
1F
100
AcDbEntity
  8
0
  6
Continuous
 62
     7
370
    15
100
AcDbLine
 10
791.1548295787767
 20
160.4585787098348
 30
0.0
 11
785.6548294446662
 21
160.4585787098348
 31
0.0
  0
LINE
  5
AC22
330
1F
100
AcDbEntity
  8
0
  6
Continuous
 62
     7
370
    15
100
AcDbLine
 10
791.1548295787767
 20
166.8225404376948
 30
0.0
 11
791.1548295787767
 21
160.4585787098348
 31
0.0
  0
LINE
  5
AC23
330
1F
100
AcDbEntity
  8
0
  6
Continuous
 62
     7
370
    15
100
AcDbLine
 10
785.6548294446662
 20
166.8225404376947
 30
0.0
 11
791.1548295787767
 21
166.8225404376948
 31
0.0
  0
LINE
  5
AC24
330
1F
100
AcDbEntity
  8
0
  6
Continuous
 62
     7
370
    15
100
AcDbLine
 10
785.6548294446662
 20
172.8289727327934
 30
0.0
 11
785.6548294446662
 21
166.8225404376947
 31
0.0
  0
LINE
  5
AC25
330
1F
100
AcDbEntity
  8
0
  6
Continuous
 62
     7
370
    15
100
AcDbLine
 10
791.6548304281429
 20
172.8289727327934
 30
0.0
 11
785.6548294446662
 21
172.8289727327934
 31
0.0
  0
LINE
  5
AC26
330
1F
100
AcDbEntity
  8
0
  6
Continuous
 62
     7
370
    15
100
AcDbLine
 10
791.6548304281429
 20
172.0884374445699
 30
0.0
 11
791.6548304281429
 21
172.2218603508393
 31
0.0
  0
LINE
  5
AC27
330
1F
100
AcDbEntity
  8
0
  6
Continuous
 62
     7
370
    15
100
AcDbLine
 10
792.1548295787767
 20
172.0884374445699
 30
0.0
 11
791.6548304281429
 21
172.0884374445699
 31
0.0
  0
LINE
  5
AC28
330
1F
100
AcDbEntity
  8
0
  6
Continuous
 62
     7
370
    15
100
AcDbLine
 10
799.7548306382492
 20
172.08843744457
 30
0.0
 11
792.1548295787767
 21
172.0884374445699
 31
0.0
  0
LINE
  5
AC29
330
1F
100
AcDbEntity
  8
0
  6
Continuous
 62
     7
370
    15
100
AcDbLine
 10
800.254829788883
 20
172.08843744457
 30
0.0
 11
799.7548306382492
 21
172.08843744457
 31
0.0
  0
LINE
  5
AC2A
330
1F
100
AcDbEntity
  8
0
  6
Continuous
 62
     7
370
    15
100
AcDbLine
 10
800.254829788883
 20
172.08843744457
 30
0.0
 11
800.254829788883
 21
172.2218603508394
 31
0.0
  0
LINE
  5
AC2B
330
1F
100
AcDbEntity
  8
0
  6
Continuous
 62
     7
370
    15
100
AcDbLine
 10
785.6548294446663
 20
126.5546184481201
 30
0.0
 11
832.2548303774791
 21
126.5546184481203
 31
0.0
  0
LINE
  5
AC2C
330
1F
100
AcDbEntity
  8
0
  6
Continuous
 62
     7
370
    15
100
AcDbLine
 10
785.6548294446663
 20
136.1379930993161
 30
0.0
 11
785.6548294446663
 21
126.5546184481201
 31
0.0
  0
LINE
  5
AC2D
330
1F
100
AcDbEntity
  8
0
  6
Continuous
 62
     7
370
    15
100
AcDbLine
 10
799.7548306382493
 20
132.7379923516594
 30
0.0
 11
792.1548295787768
 21
132.7379923516594
 31
0.0
  0
LINE
  5
AC2E
330
1F
100
AcDbEntity
  8
0
  6
Continuous
 62
     7
370
    15
100
AcDbLine
 10
792.1548295787768
 20
132.7379923516594
 30
0.0
 11
791.6548304281429
 21
133.2379927494417
 31
0.0
  0
LINE
  5
AC2F
330
1F
100
AcDbEntity
  8
0
  6
Continuous
 62
     7
370
    15
100
AcDbLine
 10
791.6548304281429
 20
135.6723070468068
 30
0.0
 11
791.6548304281429
 21
133.2379927494417
 31
0.0
  0
LINE
  5
AC30
330
1F
100
AcDbEntity
  8
0
  6
Continuous
 62
     7
370
    15
100
AcDbLine
 10
791.6548304281429
 20
135.6723070468068
 30
0.0
 11
792.2205157599644
 21
136.2379932045689
 31
0.0
  0
LINE
  5
AC31
330
1F
100
AcDbEntity
  8
0
  6
Continuous
 62
     7
370
    15
100
AcDbLine
 10
791.6548304281429
 20
136.8036773825333
 30
0.0
 11
792.2205157599644
 21
136.2379932045689
 31
0.0
  0
LINE
  5
AC32
330
1F
100
AcDbEntity
  8
0
  6
Continuous
 62
     7
370
    15
100
AcDbLine
 10
791.0891450963215
 20
136.2379932045689
 30
0.0
 11
791.6548304281429
 21
136.8036773825333
 31
0.0
  0
LINE
  5
AC33
330
1F
100
AcDbEntity
  8
0
  6
Continuous
 62
     7
370
    15
100
AcDbLine
 10
791.0891450963215
 20
136.2379932045689
 30
0.0
 11
787.9548311255173
 21
136.2379932045689
 31
0.0
  0
LINE
  5
AC34
330
1F
100
AcDbEntity
  8
0
  6
Continuous
 62
     7
370
    15
100
AcDbLine
 10
787.9548311255173
 20
136.2379932045689
 30
0.0
 11
787.9548311255172
 21
146.237992741862
 31
0.0
  0
LINE
  5
AC35
330
1F
100
AcDbEntity
  8
0
  6
Continuous
 62
     7
370
    15
100
AcDbLine
 10
787.9548311255172
 20
146.237992741862
 30
0.0
 11
791.0891450963214
 21
146.237992741862
 31
0.0
  0
LINE
  5
AC36
330
1F
100
AcDbEntity
  8
0
  6
Continuous
 62
     7
370
    15
100
AcDbLine
 10
791.6548304281429
 20
145.6723065840999
 30
0.0
 11
791.0891450963214
 21
146.237992741862
 31
0.0
  0
LINE
  5
AC37
330
1F
100
AcDbEntity
  8
0
  6
Continuous
 62
     7
370
    15
100
AcDbLine
 10
792.2205157599643
 20
146.237992741862
 30
0.0
 11
791.6548304281429
 21
145.6723065840999
 31
0.0
  0
LINE
  5
AC38
330
1F
100
AcDbEntity
  8
0
  6
Continuous
 62
     7
370
    15
100
AcDbLine
 10
791.6548304281429
 20
146.803678899624
 30
0.0
 11
792.2205157599643
 21
146.237992741862
 31
0.0
  0
LINE
  5
AC39
330
1F
100
AcDbEntity
  8
0
  6
Continuous
 62
     7
370
    15
100
AcDbLine
 10
791.6548304281429
 20
149.2379936423033
 30
0.0
 11
791.6548304281429
 21
146.803678899624
 31
0.0
  0
LINE
  5
AC3A
330
1F
100
AcDbEntity
  8
0
  6
Continuous
 62
     7
370
    15
100
AcDbLine
 10
791.6548304281429
 20
149.2379936423033
 30
0.0
 11
792.1548295787767
 21
149.7379929509161
 31
0.0
  0
LINE
  5
AC3B
330
1F
100
AcDbEntity
  8
0
  6
Continuous
 62
     7
370
    15
100
AcDbLine
 10
799.7548306382492
 20
149.7379929509161
 30
0.0
 11
792.1548295787767
 21
149.7379929509161
 31
0.0
  0
LINE
  5
AC3C
330
1F
100
AcDbEntity
  8
0
  6
Continuous
 62
     7
370
    15
100
AcDbLine
 10
799.7548306382492
 20
149.7379929509161
 30
0.0
 11
800.254829788883
 21
149.2379936423033
 31
0.0
  0
LINE
  5
AC3D
330
1F
100
AcDbEntity
  8
0
  6
Continuous
 62
     7
370
    15
100
AcDbLine
 10
800.2548297888832
 20
133.2379927494417
 30
0.0
 11
800.254829788883
 21
149.2379936423033
 31
0.0
  0
LINE
  5
AC3E
330
1F
100
AcDbEntity
  8
0
  6
Continuous
 62
     7
370
    15
100
AcDbLine
 10
800.2548297888832
 20
133.2379927494417
 30
0.0
 11
799.7548306382493
 21
132.7379923516594
 31
0.0
  0
SPLINE
  5
AC3F
330
1F
100
AcDbEntity
  8
0
  6
Continuous
 62
     7
370
    15
100
AcDbSpline
210
0.0
220
0.0
230
1.0
 70
    24
 71
     3
 72
    10
 73
     6
 74
     0
 42
0.0000000001
 43
0.0000000001
 40
0.0
 40
0.0
 40
0.0
 40
0.0
 40
0.5
 40
0.5
 40
1.0
 40
1.0
 40
1.0
 40
1.0
 10
785.1548302280169
 20
146.3379926760457
 30
0.0
 10
785.1548302280169
 20
146.3379926760457
 30
0.0
 10
785.2080552110036
 20
146.3379926760457
 30
0.0
 10
785.3919123093151
 20
146.3379926760457
 30
0.0
 10
785.5218626135713
 20
146.3379926760457
 30
0.0
 10
785.6548302280168
 20
146.3379926760457
 30
0.0
  0
SPLINE
  5
AC40
330
1F
100
AcDbEntity
  8
0
  6
Continuous
 62
     7
370
    15
100
AcDbSpline
210
0.0
220
0.0
230
1.0
 70
     8
 71
     3
 72
    10
 73
     6
 74
     0
 42
0.0000000001
 43
0.0000000001
 40
0.0
 40
0.0
 40
0.0
 40
0.0
 40
0.5
 40
0.5
 40
1.0
 40
1.0
 40
1.0
 40
1.0
 10
785.6548302280168
 20
160.4585789779261
 30
0.0
 10
785.5220925656412
 20
160.4585789779261
 30
0.0
 10
785.3924698956661
 20
160.4194074570438
 30
0.0
 10
785.2085240611836
 20
160.2874388020489
 30
0.0
 10
785.1548302280169
 20
160.1952530480287
 30
0.0
 10
785.1548302280169
 20
160.1014198457549
 30
0.0
  0
SPLINE
  5
AC41
330
1F
100
AcDbEntity
  8
0
  6
Continuous
 62
     7
370
    15
100
AcDbSpline
210
0.0
220
0.0
230
1.0
 70
    24
 71
     3
 72
     8
 73
     4
 74
     0
 42
0.0000000001
 43
0.0000000001
 40
0.0
 40
0.0
 40
0.0
 40
0.0
 40
0.9999999999999998
 40
0.9999999999999998
 40
0.9999999999999998
 40
0.9999999999999998
 10
785.1548302280169
 20
160.1014198457549
 30
0.0
 10
785.1548302280169
 20
156.0504835873211
 30
0.0
 10
785.1548302280169
 20
151.3294300386977
 30
0.0
 10
785.1548302280169
 20
146.3379926760457
 30
0.0
  0
LINE
  5
AC42
330
1F
100
AcDbEntity
  8
0
  6
Continuous
 62
     7
370
    15
100
AcDbLine
 10
787.9548311255173
 20
136.2379932045689
 30
0.0
 11
787.7548296026186
 21
136.4379918472348
 31
0.0
  0
LINE
  5
AC43
330
1F
100
AcDbEntity
  8
0
  6
Continuous
 62
     7
370
    15
100
AcDbLine
 10
787.7548296026186
 20
136.4379918472348
 30
0.0
 11
787.7548296026185
 21
146.037992452722
 31
0.0
  0
LINE
  5
AC44
330
1F
100
AcDbEntity
  8
0
  6
Continuous
 62
     7
370
    15
100
AcDbLine
 10
787.7548296026185
 20
146.037992452722
 30
0.0
 11
787.9548311255172
 21
146.237992741862
 31
0.0
  0
SPLINE
  5
AC45
330
1F
100
AcDbEntity
  8
0
  6
Continuous
 62
     7
370
    15
100
AcDbSpline
210
0.0
220
0.0
230
1.0
 70
     8
 71
     3
 72
    10
 73
     6
 74
     0
 42
0.0000000001
 43
0.0000000001
 40
0.0
 40
0.0
 40
0.0
 40
0.0
 40
0.5
 40
0.5
 40
1.0
 40
1.0
 40
1.0
 40
1.0
 10
785.6548302280169
 20
126.5546185732981
 30
0.0
 10
785.5227011839725
 20
126.5546185732981
 30
0.0
 10
785.3935148439181
 20
126.5817595356749
 30
0.0
 10
785.209091922754
 20
126.6740595457541
 30
0.0
 10
785.1548302280169
 20
126.738835617524
 30
0.0
 10
785.1548302280169
 20
126.8048980591705
 30
0.0
  0
SPLINE
  5
AC46
330
1F
100
AcDbEntity
  8
0
  6
Continuous
 62
     7
370
    15
100
AcDbSpline
210
0.0
220
0.0
230
1.0
 70
    24
 71
     3
 72
     8
 73
     4
 74
     0
 42
0.0000000001
 43
0.0000000001
 40
0.0
 40
0.0
 40
0.0
 40
0.0
 40
1.0
 40
1.0
 40
1.0
 40
1.0
 10
785.1548302280169
 20
132.0282839772798
 30
0.0
 10
785.1548302280169
 20
130.2270846674705
 30
0.0
 10
785.1548302280169
 20
128.4790510604385
 30
0.0
 10
785.1548302280169
 20
126.8048980591704
 30
0.0
  0
SPLINE
  5
AC47
330
1F
100
AcDbEntity
  8
0
  6
Continuous
 62
     7
370
    15
100
AcDbSpline
210
0.0
220
0.0
230
1.0
 70
    24
 71
     3
 72
     8
 73
     4
 74
     0
 42
0.0000000001
 43
0.0000000001
 40
0.0
 40
0.0
 40
0.0
 40
0.0
 40
1.0
 40
1.0
 40
1.0
 40
1.0
 10
785.1548302280169
 20
136.137992676046
 30
0.0
 10
785.1548302280169
 20
134.747769676991
 30
0.0
 10
785.1548302280169
 20
133.3755359626254
 30
0.0
 10
785.1548302280169
 20
132.0282839772798
 30
0.0
  0
SPLINE
  5
AC48
330
1F
100
AcDbEntity
  8
0
  6
Continuous
 62
     7
370
    15
100
AcDbSpline
210
0.0
220
0.0
230
1.0
 70
    24
 71
     3
 72
    10
 73
     6
 74
     0
 42
0.0000000001
 43
0.0000000001
 40
0.0
 40
0.0
 40
0.0
 40
0.0
 40
0.5
 40
0.5
 40
1.0
 40
1.0
 40
1.0
 40
1.0
 10
785.6548302280169
 20
136.137992676046
 30
0.0
 10
785.5218938391198
 20
136.137992676046
 30
0.0
 10
785.3921323317289
 20
136.137992676046
 30
0.0
 10
785.2083398336592
 20
136.137992676046
 30
0.0
 10
785.1548302280169
 20
136.137992676046
 30
0.0
 10
785.1548302280169
 20
136.137992676046
 30
0.0
  0
ARC
  5
AC49
330
1F
100
AcDbEntity
  8
0
  6
Continuous
 62
     7
370
    15
100
AcDbCircle
 10
822.453065493066
 20
156.6783217381856
 30
0.0
 40
4.217595396617944
100
AcDbArc
 50
85.89703227096103
 51
174.2444629030576
  0
ARC
  5
AC4A
330
1F
100
AcDbEntity
  8
0
  6
Continuous
 62
     7
370
    15
100
AcDbCircle
 10
823.0454384445037
 20
156.6740405982435
 30
0.0
 40
4.221082749529807
100
AcDbArc
 50
4.265438026346489
 51
93.94775013292401
  0
LWPOLYLINE
  5
AC4B
330
1F
100
AcDbEntity
  8
0
  6
Continuous
 62
     7
370
    15
100
AcDbPolyline
 90
       34
 70
   128
 43
0.0
 10
822.7548306829527
 20
158.8066454037981
 10
823.1522576905087
 20
158.773779444154
 10
823.5353218413189
 20
158.6763720100392
 10
823.8901762313441
 20
158.5179423711577
 10
824.2039965487316
 20
158.3042131287558
 10
824.4654392845228
 20
158.0429147428873
 10
824.6650580338434
 20
157.7434877226677
 10
824.7956350467399
 20
157.416757008513
 10
824.8524513117269
 20
157.0745281607924
 10
824.833456056495
 20
156.729170489677
 10
824.7393328718141
 20
156.3931695973957
 10
824.5734829477266
 20
156.0786653754347
 10
824.341904001613
 20
155.7970278052047
 10
824.0529639668062
 20
155.5584343470382
 10
823.7171057633355
 20
155.3715091852302
 10
823.3464682496384
 20
155.2430067094856
 10
822.9544475696281
 20
155.1775743811994
 10
822.5552128649548
 20
155.1775743811994
 10
822.1631921849445
 20
155.2430067094856
 10
821.7925546712473
 20
155.3715091852302
 10
821.4566964677766
 20
155.5584343470382
 10
821.1677564329699
 20
155.7970278052047
 10
820.9361765555337
 20
156.0786653754347
 10
820.7703284940913
 20
156.3931695973957
 10
820.6762053094104
 20
156.729170489677
 10
820.657209122856
 20
157.0745281607924
 10
820.7140263191655
 20
157.416757008513
 10
820.8446033320621
 20
157.7434877226677
 10
821.04422115006
 20
158.0429147428873
 10
821.3056638858512
 20
158.3042131287558
 10
821.6194842032388
 20
158.5179423711577
 10
821.9743395245865
 20
158.6763720100392
 10
822.3574027440742
 20
158.773779444154
 10
822.7548306829527
 20
158.8066454037981
  0
LWPOLYLINE
  5
AC4C
330
1F
100
AcDbEntity
  8
0
  6
Continuous
 62
     7
370
    15
100
AcDbPolyline
 90
        3
 70
   128
 43
0.0
 10
822.7548306829527
 20
155.3066468870253
 10
822.3574027440742
 20
155.2737809273811
 10
822.1832826755241
 20
155.2379923046157
  0
LWPOLYLINE
  5
AC4D
330
1F
100
AcDbEntity
  8
0
  6
Continuous
 62
     7
370
    15
100
AcDbPolyline
 90
        3
 70
   128
 43
0.0
 10
823.3263777590588
 20
155.2379923046157
 10
823.1522576905087
 20
155.2737809273811
 10
822.7548306829527
 20
155.3066468870253
  0
LINE
  5
AC4E
330
1F
100
AcDbEntity
  8
0
  6
Continuous
 62
     7
370
    15
100
AcDbLine
 10
832.2548303774791
 20
123.956542832874
 30
0.0
 11
785.6548294446663
 21
123.9565428328738
 31
0.0
  0
SPLINE
  5
AC4F
330
1F
100
AcDbEntity
  8
0
  6
Continuous
 62
     7
370
    15
100
AcDbSpline
210
0.0
220
0.0
230
1.0
 70
     8
 71
     3
 72
    10
 73
     6
 74
     0
 42
0.0000000001
 43
0.0000000001
 40
0.0
 40
0.0
 40
0.0
 40
0.0
 40
0.5
 40
0.5
 40
1.0
 40
1.0
 40
1.0
 40
1.0
 10
785.6548302280169
 20
123.9565423619447
 30
0.0
 10
785.5227011839726
 20
123.9565423619447
 30
0.0
 10
785.3935148439181
 20
123.9836833243216
 30
0.0
 10
785.209091922754
 20
124.0759833344008
 30
0.0
 10
785.1548302280169
 20
124.1407594061706
 30
0.0
 10
785.1548302280169
 20
124.2068218478171
 30
0.0
  0
LINE
  5
AC50
330
1F
100
AcDbEntity
  8
0
  6
Continuous
 62
     7
370
    15
100
AcDbLine
 10
832.7548295281129
 20
124.9389542564481
 30
0.0
 11
785.1548302940326
 21
124.9389542564479
 31
0.0
  0
SPLINE
  5
AC51
330
1F
100
AcDbEntity
  8
0
  6
Continuous
 62
     7
370
    15
100
AcDbSpline
210
0.0
220
0.0
230
1.0
 70
     8
 71
     3
 72
    10
 73
     6
 74
     0
 42
0.0000000001
 43
0.0000000001
 40
0.0
 40
0.0
 40
0.0
 40
0.0
 40
0.5
 40
0.5
 40
1.0
 40
1.0
 40
1.0
 40
1.0
 10
832.754830228017
 20
124.2068218478173
 30
0.0
 10
832.754830228017
 20
124.140758138408
 30
0.0
 10
832.7007637168593
 20
124.0761471253404
 30
0.0
 10
832.5164559713062
 20
123.9837727285099
 30
0.0
 10
832.3869618430073
 20
123.9565423619449
 30
0.0
 10
832.254830228017
 20
123.9565423619449
 30
0.0
  0
LINE
  5
AC52
330
1F
100
AcDbEntity
  8
0
  6
Continuous
 62
     7
370
    15
100
AcDbLine
 10
785.1548302940326
 20
124.2068222153446
 30
0.0
 11
785.1548302940326
 21
124.9389542564479
 31
0.0
  0
LINE
  5
AC53
330
1F
100
AcDbEntity
  8
0
  6
Continuous
 62
     7
370
    15
100
AcDbLine
 10
832.7548295281129
 20
124.9389542564481
 30
0.0
 11
832.7548295281129
 21
124.2068222153448
 31
0.0
  0
SPLINE
  5
AC54
330
1F
100
AcDbEntity
  8
0
  6
Continuous
 62
     7
370
    15
100
AcDbSpline
210
0.0
220
0.0
230
1.0
 70
     8
 71
     3
 72
    10
 73
     6
 74
     0
 42
0.0000000001
 43
0.0000000001
 40
0.0
 40
0.0
 40
0.0
 40
0.0
 40
0.5
 40
0.5
 40
1.0
 40
1.0
 40
1.0
 40
1.0
 10
832.754830228017
 20
113.1040608652236
 30
0.0
 10
832.754830228017
 20
112.9833564619318
 30
0.0
 10
832.7007637168595
 20
112.8653062669286
 30
0.0
 10
832.5164559713064
 20
112.6965298456748
 30
0.0
 10
832.3869618430075
 20
112.646777490304
 30
0.0
 10
832.2548302280171
 20
112.646777490304
 30
0.0
  0
LINE
  5
AC55
330
1F
100
AcDbEntity
  8
0
  6
Continuous
 62
     7
370
    15
100
AcDbLine
 10
832.2548303774791
 20
123.956542832874
 30
0.0
 11
832.2548303774791
 21
112.6467774305569
 31
0.0
  0
SPLINE
  5
AC56
330
1F
100
AcDbEntity
  8
0
  6
Continuous
 62
     7
370
    15
100
AcDbSpline
210
0.0
220
0.0
230
1.0
 70
    24
 71
     3
 72
     8
 73
     4
 74
     0
 42
0.0000000001
 43
0.0000000001
 40
0.0
 40
0.0
 40
0.0
 40
0.0
 40
1.0
 40
1.0
 40
1.0
 40
1.0
 10
832.754830228017
 20
113.1040608652236
 30
0.0
 10
832.754830228017
 20
115.6363670703927
 30
0.0
 10
832.754830228017
 20
119.4705663629985
 30
0.0
 10
832.754830228017
 20
124.2068218478173
 30
0.0
  0
SPLINE
  5
AC57
330
1F
100
AcDbEntity
  8
0
  6
Continuous
 62
     7
370
    15
100
AcDbSpline
210
0.0
220
0.0
230
1.0
 70
     8
 71
     3
 72
    10
 73
     6
 74
     0
 42
0.0000000001
 43
0.0000000001
 40
0.0
 40
0.0
 40
0.0
 40
0.0
 40
0.5
 40
0.5
 40
1.0
 40
1.0
 40
1.0
 40
1.0
 10
785.1548302280169
 20
122.3745655063368
 30
0.0
 10
785.1548302280169
 20
122.2807162560228
 30
0.0
 10
785.2082614308154
 20
122.1888296697682
 30
0.0
 10
785.392227587307
 20
122.056657294076
 30
0.0
 10
785.5220685506735
 20
122.0174063741656
 30
0.0
 10
785.6548302280169
 20
122.0174063741656
 30
0.0
  0
LINE
  5
AC58
330
1F
100
AcDbEntity
  8
0
  6
Continuous
 62
     7
370
    15
100
AcDbLine
 10
785.6548294446664
 20
122.017406469466
 30
0.0
 11
785.6548294446663
 21
123.9565428328738
 31
0.0
  0
SPLINE
  5
AC59
330
1F
100
AcDbEntity
  8
0
  6
Continuous
 62
     7
370
    15
100
AcDbSpline
210
0.0
220
0.0
230
1.0
 70
    24
 71
     3
 72
     8
 73
     4
 74
     0
 42
0.0000000001
 43
0.0000000001
 40
0.0
 40
0.0
 40
0.0
 40
0.0
 40
1.0
 40
1.0
 40
1.0
 40
1.0
 10
785.1548302280169
 20
124.2068218478171
 30
0.0
 10
785.1548302280169
 20
123.5799790264538
 30
0.0
 10
785.1548302280169
 20
122.9713312261073
 30
0.0
 10
785.1548302280169
 20
122.3745655063368
 30
0.0
  0
LINE
  5
AC5A
330
1F
100
AcDbEntity
  8
0
  6
Continuous
 62
     7
370
    15
100
AcDbLine
 10
785.6548294446664
 20
112.6467774305567
 30
0.0
 11
832.2548303774791
 21
112.6467774305569
 31
0.0
  0
LINE
  5
AC5B
330
1F
100
AcDbEntity
  8
0
  6
Continuous
 62
     7
370
    15
100
AcDbLine
 10
785.6548294446664
 20
112.6467774305567
 30
0.0
 11
785.6548294446664
 21
115.6534449414763
 31
0.0
  0
LINE
  5
AC5C
330
1F
100
AcDbEntity
  8
0
  6
Continuous
 62
     7
370
    15
100
AcDbLine
 10
785.6548294446664
 20
115.6534449414763
 30
0.0
 11
791.1548295787768
 21
115.6534449414763
 31
0.0
  0
LINE
  5
AC5D
330
1F
100
AcDbEntity
  8
0
  6
Continuous
 62
     7
370
    15
100
AcDbLine
 10
791.1548295787769
 20
122.017406469466
 30
0.0
 11
791.1548295787769
 21
115.6534449414763
 31
0.0
  0
LINE
  5
AC5E
330
1F
100
AcDbEntity
  8
0
  6
Continuous
 62
     7
370
    15
100
AcDbLine
 10
785.6548294446664
 20
122.017406469466
 30
0.0
 11
791.1548295787768
 21
122.017406469466
 31
0.0
  0
LINE
  5
AC5F
330
1F
100
AcDbEntity
  8
0
  6
Continuous
 62
     7
370
    15
100
AcDbLine
 10
785.1548302940326
 20
126.4760377678082
 30
0.0
 11
832.7548295281129
 21
126.4760377678083
 31
0.0
  0
LINE
  5
AC60
330
1F
100
AcDbEntity
  8
0
  6
Continuous
 62
     7
370
    15
100
AcDbLine
 10
785.1548302940326
 20
126.4760377678082
 30
0.0
 11
785.1548302940326
 21
124.9389543243317
 31
0.0
  0
LINE
  5
AC61
330
1F
100
AcDbEntity
  8
0
  6
Continuous
 62
     7
370
    15
100
AcDbLine
 10
832.7548295281129
 20
124.9389543243318
 30
0.0
 11
832.7548295281129
 21
126.4760377678083
 31
0.0
  0
LINE
  5
AC62
330
1F
100
AcDbEntity
  8
0
  6
Continuous
 62
     7
370
    15
100
AcDbLine
 10
791.1548295787767
 20
164.2189642686396
 30
0.0
 11
785.1548302940324
 21
164.2189642686396
 31
0.0
  0
LINE
  5
AC63
330
1F
100
AcDbEntity
  8
0
  6
Continuous
 62
     7
370
    15
100
AcDbLine
 10
785.1548302940324
 20
164.2189642686396
 30
0.0
 11
785.1548302940324
 21
160.1715921095424
 31
0.0
  0
LINE
  5
AC64
330
1F
100
AcDbEntity
  8
0
  6
Continuous
 62
     7
370
    15
100
AcDbLine
 10
785.1548302940326
 20
126.7685655092762
 30
0.0
 11
785.1548302940326
 21
126.4760377678082
 31
0.0
  0
LINE
  5
AC65
330
1F
100
AcDbEntity
  8
0
  6
Continuous
 62
     7
370
    15
100
AcDbLine
 10
832.7548295281129
 20
126.4760377678083
 30
0.0
 11
832.7548295281129
 21
126.7685655092764
 31
0.0
  0
LINE
  5
AC66
330
1F
100
AcDbEntity
  8
0
  6
Continuous
 62
     7
370
    15
100
AcDbLine
 10
791.1548295787769
 20
118.2570214383559
 30
0.0
 11
785.1548302940326
 21
118.2570214383559
 31
0.0
  0
LINE
  5
AC67
330
1F
100
AcDbEntity
  8
0
  6
Continuous
 62
     7
370
    15
100
AcDbLine
 10
785.1548302940326
 20
122.3089359126903
 30
0.0
 11
785.1548302940326
 21
118.2570214383559
 31
0.0
  0
LWPOLYLINE
  5
AC68
330
1F
100
AcDbEntity
  8
0
  6
Continuous
 62
     7
370
    15
100
AcDbPolyline
 90
       13
 70
   128
 43
0.0
 10
806.2548303066984
 20
170.7677939686002
 10
805.6793830844805
 20
170.7493208132539
 10
805.1133845954433
 20
170.6942074273057
 10
804.5661287403897
 20
170.6033567572311
 10
804.04660115235
 20
170.4782601521149
 10
803.5633327461079
 20
170.3209755348373
 10
803.1242588556603
 20
170.1340776631671
 10
802.736588383396
 20
169.9206451051515
 10
802.4066878504351
 20
169.684177144268
 10
802.1399733632103
 20
169.4285536843098
 10
801.9408249317899
 20
169.1579793158896
 10
801.8125124297336
 20
168.8768912132319
 10
801.7721340081886
 20
168.7149201147243
  0
LWPOLYLINE
  5
AC69
330
1F
100
AcDbEntity
  8
0
  6
Continuous
 62
     7
370
    15
100
AcDbPolyline
 90
       13
 70
   128
 43
0.0
 10
810.7427235015899
 20
168.6827274508807
 10
810.6971483000785
 20
168.8768912132319
 10
810.5688355651915
 20
169.1579793158897
 10
810.3696870173559
 20
169.4285536843098
 10
810.1029726465464
 20
169.6841771442681
 10
809.7730718807548
 20
169.9206451051516
 10
809.3854016995289
 20
170.1340776631671
 10
808.9463276162684
 20
170.3209755348373
 10
808.4630591991123
 20
170.4782601521149
 10
807.9435317565918
 20
170.6033567572311
 10
807.3962759015381
 20
170.6942074273057
 10
806.8302775289163
 20
170.7493208132539
 10
806.2548303066984
 20
170.7677939686002
  0
LWPOLYLINE
  5
AC6A
330
1F
100
AcDbEntity
  8
0
  6
Continuous
 62
     7
370
    15
100
AcDbPolyline
 90
       34
 70
   128
 43
0.0
 10
806.2548303066984
 20
169.5677921925316
 10
805.8574026006505
 20
169.5488193794284
 10
805.4743391483322
 20
169.4925805154993
 10
805.1194845254764
 20
169.4011097660525
 10
804.8056644409195
 20
169.2777122923144
 10
804.5442207738057
 20
169.1268528835987
 10
804.3446029558078
 20
168.9539789667623
 10
804.2140259429112
 20
168.7653391002518
 10
804.1572087466017
 20
168.5677549513261
 10
804.1762053988174
 20
168.3683613469368
 10
804.2703285834983
 20
168.1743709671925
 10
804.436177110602
 20
167.9927927715822
 10
804.6677560567156
 20
167.8301884782447
 10
804.9566965571836
 20
167.6924369624296
 10
805.2925545278236
 20
167.584514107487
 10
805.6631918086901
 20
167.5103233252018
 10
806.0552124887005
 20
167.4725469745045
 10
806.4544478918657
 20
167.4725469745045
 10
806.846468571876
 20
167.5103233252018
 10
807.2171059691578
 20
167.584514107487
 10
807.5529640562132
 20
167.6924369624296
 10
807.8419043238506
 20
167.8301884782447
 10
808.0734835610025
 20
167.9927927715822
 10
808.2393319716908
 20
168.1743709671925
 10
808.3334552727871
 20
168.3683613469368
 10
808.3524516339645
 20
168.5677549513261
 10
808.2956344958626
 20
168.7653391002518
 10
808.1650574247584
 20
168.9539789667624
 10
807.9654397231758
 20
169.1268528835987
 10
807.7039961724773
 20
169.2777122923145
 10
807.3901759715051
 20
169.4011097660525
 10
807.0353213486493
 20
169.4925805154993
 10
806.6522577799156
 20
169.5488193794284
 10
806.2548303066984
 20
169.5677921925316
  0
SPLINE
  5
AC6B
330
1F
100
AcDbEntity
  8
0
  6
Continuous
 62
     7
370
    15
100
AcDbSpline
210
0.0
220
0.0
230
1.0
 70
     8
 71
     3
 72
    10
 73
     6
 74
     0
 42
0.0000000001
 43
0.0000000001
 40
0.0
 40
0.0
 40
0.0
 40
0.0
 40
0.5
 40
0.5
 40
1.0
 40
1.0
 40
1.0
 40
1.0
 10
785.6548302280168
 20
172.8289724012777
 30
0.0
 10
785.5218938391197
 20
172.8289724012777
 30
0.0
 10
785.3921323317288
 20
172.7732111959082
 30
0.0
 10
785.2083398336591
 20
172.5859154730649
 30
0.0
 10
785.1548302280169
 20
172.4552821460179
 30
0.0
 10
785.1548302280169
 20
172.3223939088187
 30
0.0
  0
SPLINE
  5
AC6C
330
1F
100
AcDbEntity
  8
0
  6
Continuous
 62
     7
370
    15
100
AcDbSpline
210
0.0
220
0.0
230
1.0
 70
     8
 71
     3
 72
    10
 73
     6
 74
     0
 42
0.0000000001
 43
0.0000000001
 40
0.0
 40
0.0
 40
0.0
 40
0.0
 40
0.5
 40
0.5
 40
1.0
 40
1.0
 40
1.0
 40
1.0
 10
785.1548302280169
 20
166.4653808764338
 30
0.0
 10
785.1548302280169
 20
166.5592301267479
 30
0.0
 10
785.2082614308153
 20
166.6511167130026
 30
0.0
 10
785.3922275873068
 20
166.7832890886948
 30
0.0
 10
785.5220685506732
 20
166.8225400086052
 30
0.0
 10
785.6548302280168
 20
166.8225400086052
 30
0.0
  0
SPLINE
  5
AC6D
330
1F
100
AcDbEntity
  8
0
  6
Continuous
 62
     7
370
    15
100
AcDbSpline
210
0.0
220
0.0
230
1.0
 70
    24
 71
     3
 72
     8
 73
     4
 74
     0
 42
0.0000000001
 43
0.0000000001
 40
0.0
 40
0.0
 40
0.0
 40
0.0
 40
1.0
 40
1.0
 40
1.0
 40
1.0
 10
785.1548302280169
 20
172.3223939088187
 30
0.0
 10
785.1548302280169
 20
171.5034516245875
 30
0.0
 10
785.1548302280169
 20
169.4944118832554
 30
0.0
 10
785.1548302280169
 20
166.4653808764338
 30
0.0
  0
SPLINE
  5
AC6E
330
1F
100
AcDbEntity
  8
0
  6
Continuous
 62
     7
370
    15
100
AcDbSpline
210
0.0
220
0.0
230
1.0
 70
     8
 71
     3
 72
    10
 73
     6
 74
     0
 42
0.0000000001
 43
0.0000000001
 40
0.0
 40
0.0
 40
0.0
 40
0.0
 40
0.5
 40
0.5
 40
1.0
 40
1.0
 40
1.0
 40
1.0
 10
785.6548302280169
 20
115.6534453434867
 30
0.0
 10
785.5220925656412
 20
115.6534453434867
 30
0.0
 10
785.3924698956664
 20
115.6926168643691
 30
0.0
 10
785.2085240611838
 20
115.8245855193639
 30
0.0
 10
785.1548302280169
 20
115.9167712733841
 30
0.0
 10
785.1548302280169
 20
116.0106044756579
 30
0.0
  0
LINE
  5
AC6F
330
1F
100
AcDbEntity
  8
0
  6
Continuous
 62
     7
370
    15
100
AcDbLine
 10
785.1548302940326
 20
118.2570214383559
 30
0.0
 11
785.1548302940326
 21
116.010605036657
 31
0.0
  0
SPLINE
  5
AC70
330
1F
100
AcDbEntity
  8
0
  6
Continuous
 62
     7
370
    15
100
AcDbSpline
210
0.0
220
0.0
230
1.0
 70
     8
 71
     3
 72
    10
 73
     6
 74
     0
 42
0.0000000001
 43
0.0000000001
 40
0.0
 40
0.0
 40
0.0
 40
0.0
 40
0.5
 40
0.5
 40
1.0
 40
1.0
 40
1.0
 40
1.0
 10
785.654830228017
 20
112.6467774903038
 30
0.0
 10
785.5227011839728
 20
112.6467774903038
 30
0.0
 10
785.3935148439183
 20
112.6963664960946
 30
0.0
 10
785.2090919227541
 20
112.865007005991
 30
0.0
 10
785.154830228017
 20
112.9833587782496
 30
0.0
 10
785.154830228017
 20
113.1040608652234
 30
0.0
  0
SPLINE
  5
AC71
330
1F
100
AcDbEntity
  8
0
  6
Continuous
 62
     7
370
    15
100
AcDbSpline
210
0.0
220
0.0
230
1.0
 70
    24
 71
     3
 72
     8
 73
     4
 74
     0
 42
0.0000000001
 43
0.0000000001
 40
0.0
 40
0.0
 40
0.0
 40
0.0
 40
0.9999999999999998
 40
0.9999999999999998
 40
0.9999999999999998
 40
0.9999999999999998
 10
785.1548302280169
 20
116.0106044756579
 30
0.0
 10
785.154830228017
 20
114.9061265491761
 30
0.0
 10
785.154830228017
 20
113.9336147817457
 30
0.0
 10
785.154830228017
 20
113.1040608652234
 30
0.0
  0
LINE
  5
AC72
330
1F
100
AcDbEntity
  8
0
  6
Continuous
 62
     7
370
    15
100
AcDbLine
 10
785.1548302940324
 20
164.2189642686396
 30
0.0
 11
785.1548302940324
 21
166.4653806455381
 31
0.0
  0
LINE
  5
AC73
330
1F
100
AcDbEntity
  8
0
  6
Continuous
 62
     7
370
    15
100
AcDbLine
 10
783.154829966207
 20
133.2379921817725
 30
0.0
 11
785.1548302940326
 21
133.2379921817725
 31
0.0
  0
LINE
  5
AC74
330
1F
100
AcDbEntity
  8
0
  6
Continuous
 62
     7
370
    15
100
AcDbLine
 10
785.1548302940325
 20
149.2379919613489
 30
0.0
 11
783.154829966207
 21
149.2379919613489
 31
0.0
  0
LINE
  5
AC75
330
1F
100
AcDbEntity
  8
0
  6
Continuous
 62
     7
370
    15
100
AcDbLine
 10
783.154829966207
 20
149.2379919613489
 30
0.0
 11
783.154829966207
 21
133.2379921817725
 31
0.0
  0
LINE
  5
AC76
330
1F
100
AcDbEntity
  8
0
  6
Continuous
 62
     7
370
    15
100
AcDbLine
 10
786.254830288072
 20
146.2379922707264
 30
0.0
 11
786.2548302880721
 21
136.2379931787474
 31
0.0
  0
LINE
  5
AC77
330
1F
100
AcDbEntity
  8
0
  6
Continuous
 62
     7
370
    15
100
AcDbLine
 10
786.254830288072
 20
146.2379922707264
 30
0.0
 11
787.9548311255173
 21
146.2379922707264
 31
0.0
  0
LINE
  5
AC78
330
1F
100
AcDbEntity
  8
0
  6
Continuous
 62
     7
370
    15
100
AcDbLine
 10
787.9548311255174
 20
136.2379931787474
 30
0.0
 11
786.2548302880721
 21
136.2379931787474
 31
0.0
  0
LINE
  5
AC79
330
1F
100
AcDbEntity
  8
0
  6
Continuous
 62
     7
370
    15
100
AcDbLine
 10
786.0548306278185
 20
146.0379928722147
 30
0.0
 11
786.254830288072
 21
146.2379922707264
 31
0.0
  0
LINE
  5
AC7A
330
1F
100
AcDbEntity
  8
0
  6
Continuous
 62
     7
370
    15
100
AcDbLine
 10
786.0548306278186
 20
136.4379922667275
 30
0.0
 11
786.2548302880721
 21
136.2379931787474
 31
0.0
  0
LINE
  5
AC7B
330
1F
100
AcDbEntity
  8
0
  6
Continuous
 62
     7
370
    15
100
AcDbLine
 10
786.0548306278185
 20
146.0379928722147
 30
0.0
 11
786.0548306278186
 21
136.4379922667275
 31
0.0
  0
LINE
  5
AC7C
330
1F
100
AcDbEntity
  8
0
  6
Continuous
 62
     7
370
    15
100
AcDbLine
 10
800.2548297888832
 20
109.0237215916452
 30
0.0
 11
800.2548297888832
 21
110.2541269147448
 31
0.0
  0
LINE
  5
AC7D
330
1F
100
AcDbEntity
  8
0
  6
Continuous
 62
     7
370
    15
100
AcDbLine
 10
800.2548297888832
 20
109.0237215916452
 30
0.0
 11
799.7548306382494
 21
109.0237217692106
 31
0.0
  0
LINE
  5
AC7E
330
1F
100
AcDbEntity
  8
0
  6
Continuous
 62
     7
370
    15
100
AcDbLine
 10
799.7548306382494
 20
110.3875478503038
 30
0.0
 11
799.7548306382494
 21
109.0237217692106
 31
0.0
  0
LINE
  5
AC7F
330
1F
100
AcDbEntity
  8
0
  6
Continuous
 62
     7
370
    15
100
AcDbLine
 10
792.1548295787768
 20
109.0237217692106
 30
0.0
 11
792.1548295787768
 21
110.3875478503038
 31
0.0
  0
LINE
  5
AC80
330
1F
100
AcDbEntity
  8
0
  6
Continuous
 62
     7
370
    15
100
AcDbLine
 10
792.1548295787768
 20
109.0237217692106
 30
0.0
 11
791.654830428143
 21
109.0237215916452
 31
0.0
  0
LINE
  5
AC81
330
1F
100
AcDbEntity
  8
0
  6
Continuous
 62
     7
370
    15
100
AcDbLine
 10
791.654830428143
 20
110.2541269147448
 30
0.0
 11
791.654830428143
 21
109.0237215916452
 31
0.0
  0
LINE
  5
AC82
330
1F
100
AcDbEntity
  8
0
  6
Continuous
 62
     7
370
    15
100
AcDbLine
 10
800.254829788883
 20
172.2218603508394
 30
0.0
 11
800.254829788883
 21
173.4522633480978
 31
0.0
  0
LINE
  5
AC83
330
1F
100
AcDbEntity
  8
0
  6
Continuous
 62
     7
370
    15
100
AcDbLine
 10
799.7548306382492
 20
173.4522617444067
 30
0.0
 11
799.7548306382492
 21
172.08843744457
 31
0.0
  0
LINE
  5
AC84
330
1F
100
AcDbEntity
  8
0
  6
Continuous
 62
     7
370
    15
100
AcDbLine
 10
800.254829788883
 20
173.4522633480978
 30
0.0
 11
799.7548306382492
 21
173.4522617444067
 31
0.0
  0
LINE
  5
AC85
330
1F
100
AcDbEntity
  8
0
  6
Continuous
 62
     7
370
    15
100
AcDbLine
 10
792.1548295787767
 20
172.0884374445699
 30
0.0
 11
792.1548295787767
 21
173.4522617444067
 31
0.0
  0
LINE
  5
AC86
330
1F
100
AcDbEntity
  8
0
  6
Continuous
 62
     7
370
    15
100
AcDbLine
 10
791.6548304281429
 20
173.4522633480977
 30
0.0
 11
791.6548304281429
 21
172.2218603508393
 31
0.0
  0
LINE
  5
AC87
330
1F
100
AcDbEntity
  8
0
  6
Continuous
 62
     7
370
    15
100
AcDbLine
 10
792.1548295787767
 20
173.4522617444067
 30
0.0
 11
791.6548304281429
 21
173.4522633480977
 31
0.0
  0
LINE
  5
AC88
330
1F
100
AcDbEntity
  8
0
  6
Continuous
 62
     7
370
    15
100
AcDbLine
 10
783.154829966207
 20
153.2379934735033
 30
0.0
 11
785.1548302940325
 21
153.2379934735033
 31
0.0
  0
LINE
  5
AC89
330
1F
100
AcDbEntity
  8
0
  6
Continuous
 62
     7
370
    15
100
AcDbLine
 10
783.154829966207
 20
149.2379919613489
 30
0.0
 11
783.154829966207
 21
153.2379934735033
 31
0.0
  0
SPLINE
  5
AC8A
330
1F
100
AcDbEntity
  8
0
  6
Continuous
 62
     7
370
    15
100
AcDbSpline
210
0.0
220
0.0
230
1.0
 70
     8
 71
     3
 72
    10
 73
     6
 74
     0
 42
0.0000000001
 43
0.0000000001
 40
0.0
 40
0.0
 40
0.0
 40
0.0
 40
0.5
 40
0.5
 40
1.0
 40
1.0
 40
1.0
 40
1.0
 10
832.754830228017
 20
111.8838509359962
 30
0.0
 10
832.754830228017
 20
111.7631465327045
 30
0.0
 10
832.7007637168595
 20
111.6450963377012
 30
0.0
 10
832.5164559713064
 20
111.4763199164474
 30
0.0
 10
832.3869618430075
 20
111.4265675610766
 30
0.0
 10
832.2548302280171
 20
111.4265675610766
 30
0.0
  0
SPLINE
  5
AC8B
330
1F
100
AcDbEntity
  8
0
  6
Continuous
 62
     7
370
    15
100
AcDbSpline
210
0.0
220
0.0
230
1.0
 70
    24
 71
     3
 72
    12
 73
     8
 74
     0
 42
0.0000000001
 43
0.0000000001
 40
0.0
 40
0.0
 40
0.0
 40
0.0
 40
0.1048068940169678
 40
0.3335418129267678
 40
0.5623210167989765
 40
0.7811274930297198
 40
1.0
 40
1.0
 40
1.0
 40
1.0
 10
832.7548295281129
 20
109.7569811613521
 30
0.0
 10
832.7548295281129
 20
109.7544204863979
 30
0.0
 10
832.7548295281129
 20
109.7462712880601
 30
0.0
 10
832.7548295281129
 20
109.9464819138357
 30
0.0
 10
832.7548295281129
 20
110.3794651939749
 30
0.0
 10
832.7548295281129
 20
111.0115032218024
 30
0.0
 10
832.7548295281129
 20
111.5930394969939
 30
0.0
 10
832.7548295281129
 20
111.8838515015239
 30
0.0
  0
LINE
  5
AC8C
330
1F
100
AcDbEntity
  8
0
  6
Continuous
 62
     7
370
    15
100
AcDbLine
 10
783.154829966207
 20
129.2379925795248
 30
0.0
 11
785.1548302940326
 21
129.2379925795248
 31
0.0
  0
LINE
  5
AC8D
330
1F
100
AcDbEntity
  8
0
  6
Continuous
 62
     7
370
    15
100
AcDbLine
 10
783.154829966207
 20
133.2379921817725
 30
0.0
 11
783.154829966207
 21
129.2379925795248
 31
0.0
  0
LINE
  5
AC8E
330
1F
100
AcDbEntity
  8
0
  6
Continuous
 62
     7
370
    15
100
AcDbLine
 10
832.2548303774791
 20
111.4265670812278
 30
0.0
 11
785.6548294446664
 21
111.4265670812276
 31
0.0
  0
SPLINE
  5
AC8F
330
1F
100
AcDbEntity
  8
0
  6
Continuous
 62
     7
370
    15
100
AcDbSpline
210
0.0
220
0.0
230
1.0
 70
     8
 71
     3
 72
    10
 73
     6
 74
     0
 42
0.0000000001
 43
0.0000000001
 40
0.0
 40
0.0
 40
0.0
 40
0.0
 40
0.5
 40
0.5
 40
1.0
 40
1.0
 40
1.0
 40
1.0
 10
785.654830228017
 20
111.4265675610764
 30
0.0
 10
785.5227011839728
 20
111.4265675610764
 30
0.0
 10
785.3935148439183
 20
111.4761565668672
 30
0.0
 10
785.2090919227541
 20
111.6447970767637
 30
0.0
 10
785.154830228017
 20
111.7631488490222
 30
0.0
 10
785.154830228017
 20
111.883850935996
 30
0.0
  0
LINE
  5
AC90
330
1F
100
AcDbEntity
  8
0
  6
Continuous
 62
     7
370
    15
100
AcDbLine
 10
785.1548302940326
 20
111.8838515015237
 30
0.0
 11
785.1548302940326
 21
113.104060635106
 31
0.0
  0
LINE
  5
AC91
330
1F
100
AcDbEntity
  8
0
  6
Continuous
 62
     7
370
    15
100
AcDbLine
 10
832.7548295281129
 20
113.1040606351062
 30
0.0
 11
832.7548295281129
 21
111.8838515015239
 31
0.0
  0
LINE
  5
AC92
330
1F
100
AcDbEntity
  8
0
  6
Continuous
 62
     7
370
    15
100
AcDbLine
 10
785.6548294446664
 20
109.64701179003
 30
0.0
 11
791.654830428143
 21
109.64701179003
 31
0.0
  0
LINE
  5
AC93
330
1F
100
AcDbEntity
  8
0
  6
Continuous
 62
     7
370
    15
100
AcDbLine
 10
785.6548294446664
 20
109.64701179003
 30
0.0
 11
785.6548294446664
 21
111.4265670812276
 31
0.0
  0
LINE
  5
AC94
330
1F
100
AcDbEntity
  8
0
  6
Continuous
 62
     7
370
    15
100
AcDbLine
 10
792.1548295787768
 20
110.3875478503038
 30
0.0
 11
799.7548306382494
 21
110.3875478503038
 31
0.0
  0
LINE
  5
AC95
330
1F
100
AcDbEntity
  8
0
  6
Continuous
 62
     7
370
    15
100
AcDbLine
 10
791.654830428143
 20
110.2541269147448
 30
0.0
 11
791.654830428143
 21
110.3875478503038
 31
0.0
  0
LINE
  5
AC96
330
1F
100
AcDbEntity
  8
0
  6
Continuous
 62
     7
370
    15
100
AcDbLine
 10
800.2548297888832
 20
110.2541269147448
 30
0.0
 11
800.2548297888832
 21
110.3875478503038
 31
0.0
  0
LINE
  5
AC97
330
1F
100
AcDbEntity
  8
0
  6
Continuous
 62
     7
370
    15
100
AcDbLine
 10
799.7548306382494
 20
110.3875478503038
 30
0.0
 11
800.2548297888832
 21
110.3875478503038
 31
0.0
  0
LINE
  5
AC98
330
1F
100
AcDbEntity
  8
0
  6
Continuous
 62
     7
370
    15
100
AcDbLine
 10
791.654830428143
 20
110.3875478503038
 30
0.0
 11
792.1548295787768
 21
110.3875478503038
 31
0.0
  0
SPLINE
  5
AC99
330
1F
100
AcDbEntity
  8
0
  6
Continuous
 62
     7
370
    15
100
AcDbSpline
210
0.0
220
0.0
230
1.0
 70
     8
 71
     3
 72
    10
 73
     6
 74
     0
 42
0.0000000001
 43
0.0000000001
 40
0.0
 40
0.0
 40
0.0
 40
0.0
 40
0.5
 40
0.5
 40
1.0
 40
1.0
 40
1.0
 40
1.0
 10
785.154830228017
 20
110.1535914432734
 30
0.0
 10
785.154830228017
 20
110.020674099864
 30
0.0
 10
785.2080552110038
 20
109.8904943894674
 30
0.0
 10
785.3919123093154
 20
109.702864278162
 30
0.0
 10
785.5218626135715
 20
109.6470129508144
 30
0.0
 10
785.654830228017
 20
109.6470129508144
 30
0.0
  0
SPLINE
  5
AC9A
330
1F
100
AcDbEntity
  8
0
  6
Continuous
 62
     7
370
    15
100
AcDbSpline
210
0.0
220
0.0
230
1.0
 70
    24
 71
     3
 72
     8
 73
     4
 74
     0
 42
0.0000000001
 43
0.0000000001
 40
0.0
 40
0.0
 40
0.0
 40
0.0
 40
1.0
 40
1.0
 40
1.0
 40
1.0
 10
785.154830228017
 20
111.883850935996
 30
0.0
 10
785.154830228017
 20
111.0884731004993
 30
0.0
 10
785.154830228017
 20
110.5085666932088
 30
0.0
 10
785.154830228017
 20
110.1535914432734
 30
0.0
  0
LINE
  5
AC9B
330
1F
100
AcDbEntity
  8
0
  6
Continuous
 62
     7
370
    15
100
AcDbLine
 10
787.9548311255172
 20
172.828974201702
 30
0.0
 11
787.9548311255172
 21
173.4522628272901
 31
0.0
  0
LINE
  5
AC9C
330
1F
100
AcDbEntity
  8
0
  6
Continuous
 62
     7
370
    15
100
AcDbLine
 10
791.0891450963214
 20
173.4522628272901
 30
0.0
 11
787.9548311255172
 21
173.4522628272901
 31
0.0
  0
LINE
  5
AC9D
330
1F
100
AcDbEntity
  8
0
  6
Continuous
 62
     7
370
    15
100
AcDbLine
 10
791.0891450963214
 20
173.4522628272901
 30
0.0
 11
791.0891450963214
 21
172.828974201702
 31
0.0
  0
LINE
  5
AC9E
330
1F
100
AcDbEntity
  8
0
  6
Continuous
 62
     7
370
    15
100
AcDbLine
 10
791.0891450963214
 20
173.4522628272901
 30
0.0
 11
791.6548304281429
 21
173.4522616905209
 31
0.0
  0
LINE
  5
AC9F
330
1F
100
AcDbEntity
  8
0
  6
Continuous
 62
     7
370
    15
100
AcDbLine
 10
791.0891450963216
 20
109.0237223075093
 30
0.0
 11
791.654830428143
 21
109.02372117074
 31
0.0
  0
LINE
  5
ACA0
330
1F
100
AcDbEntity
  8
0
  6
Continuous
 62
     7
370
    15
100
AcDbLine
 10
791.0891450963216
 20
109.6470132589386
 30
0.0
 11
791.0891450963216
 21
109.0237223075093
 31
0.0
  0
LINE
  5
ACA1
330
1F
100
AcDbEntity
  8
0
  6
Continuous
 62
     7
370
    15
100
AcDbLine
 10
791.0891450963216
 20
109.0237223075093
 30
0.0
 11
787.9548311255174
 21
109.0237223075093
 31
0.0
  0
LINE
  5
ACA2
330
1F
100
AcDbEntity
  8
0
  6
Continuous
 62
     7
370
    15
100
AcDbLine
 10
787.9548311255174
 20
109.0237223075093
 30
0.0
 11
787.9548311255174
 21
109.6470132589385
 31
0.0
  0
LINE
  5
ACA3
330
1F
100
AcDbEntity
  8
0
  6
Continuous
 62
     7
370
    15
100
AcDbLine
 10
799.7548306382492
 20
173.4522617444067
 30
0.0
 11
792.1548295787767
 21
173.4522617444067
 31
0.0
  0
LINE
  5
ACA4
330
1F
100
AcDbEntity
  8
0
  6
Continuous
 62
     7
370
    15
100
AcDbLine
 10
792.1548295787768
 20
109.0237217692106
 30
0.0
 11
799.7548306382494
 21
109.0237217692106
 31
0.0
  0
LINE
  5
ACA5
330
1F
100
AcDbEntity
  8
0
  6
Continuous
 62
     7
370
    15
100
AcDbLine
 10
787.7548296026185
 20
172.8289724878368
 30
0.0
 11
787.7548296026185
 21
173.2522619935655
 31
0.0
  0
LINE
  5
ACA6
330
1F
100
AcDbEntity
  8
0
  6
Continuous
 62
     7
370
    15
100
AcDbLine
 10
787.9548311255172
 20
173.4522628272901
 30
0.0
 11
787.7548296026185
 21
173.2522619935655
 31
0.0
  0
LINE
  5
ACA7
330
1F
100
AcDbEntity
  8
0
  6
Continuous
 62
     7
370
    15
100
AcDbLine
 10
787.7548296026187
 20
109.2237220393447
 30
0.0
 11
787.9548311255174
 21
109.0237223075093
 31
0.0
  0
LINE
  5
ACA8
330
1F
100
AcDbEntity
  8
0
  6
Continuous
 62
     7
370
    15
100
AcDbLine
 10
787.7548296026187
 20
109.2237220393447
 30
0.0
 11
787.7548296026187
 21
109.6470133263298
 31
0.0
  0
LINE
  5
ACA9
330
1F
100
AcDbEntity
  8
0
  6
Continuous
 62
     7
370
    15
100
AcDbLine
 10
832.2548303774791
 20
126.5546184481203
 30
0.0
 11
832.2548303774789
 21
173.2379931220541
 31
0.0
  0
LINE
  5
ACAA
330
1F
100
AcDbEntity
  8
0
  6
Continuous
 62
     7
370
    15
100
AcDbLine
 10
832.2548303774791
 20
111.4265670812278
 30
0.0
 11
832.2548303774793
 21
109.2379931131202
 31
0.0
  0
ARC
  5
B279
330
1F
100
AcDbEntity
  8
0
  6
Continuous
 62
     7
370
    15
100
AcDbCircle
 10
677.68930478991
 20
161.2512538157463
 30
0.0
 40
4.949999999999996
100
AcDbArc
 50
225.0
 51
45.00000000000001
  0
LINE
  5
B27A
330
1F
100
AcDbEntity
  8
0
  6
Continuous
 62
     7
370
    15
100
AcDbLine
 10
674.1891262230366
 20
157.7510752488729
 30
0.0
 11
671.6330571776551
 21
160.3071491071034
 31
0.0
  0
LINE
  5
B27B
330
1F
100
AcDbEntity
  8
0
  6
Continuous
 62
     7
370
    15
100
AcDbLine
 10
681.1894833567833
 20
164.7514323826197
 30
0.0
 11
678.6334134375032
 21
167.3075043004733
 31
0.0
  0
CIRCLE
  5
B27C
330
1F
100
AcDbEntity
  8
0
  6
Continuous
 62
     7
370
    15
100
AcDbCircle
 10
677.68930478991
 20
161.2512538157463
 30
0.0
 40
2.749999999999984
  0
ARC
  5
B27D
330
1F
100
AcDbEntity
  8
0
  6
Continuous
 62
     7
370
    15
100
AcDbCircle
 10
697.4882946631336
 20
141.4522639425232
 30
0.0
 40
32.0
100
AcDbArc
 50
126.9159860929042
 51
143.0840139071016
  0
ARC
  5
B27E
330
1F
100
AcDbEntity
  8
0
  6
Continuous
 62
     7
370
    15
100
AcDbCircle
 10
717.2872841179144
 20
121.6532736508572
 30
0.0
 40
4.949999999999996
100
AcDbArc
 50
44.99999878907954
 51
224.9999987890795
  0
LINE
  5
B27F
330
1F
100
AcDbEntity
  8
0
  6
Continuous
 62
     7
370
    15
100
AcDbLine
 10
720.7874627587624
 20
125.1534521437559
 30
0.0
 11
723.3435317501224
 21
122.597378231504
 31
0.0
  0
LINE
  5
B280
330
1F
100
AcDbEntity
  8
0
  6
Continuous
 62
     7
370
    15
100
AcDbLine
 10
713.7871054770662
 20
118.1530951579584
 30
0.0
 11
716.343175342325
 21
115.5970231860835
 31
0.0
  0
CIRCLE
  5
B281
330
1F
100
AcDbEntity
  8
0
  6
Continuous
 62
     7
370
    15
100
AcDbCircle
 10
717.2872841179144
 20
121.6532736508572
 30
0.0
 40
2.749999999999984
  0
ARC
  5
B282
330
1F
100
AcDbEntity
  8
0
  6
Continuous
 62
     7
370
    15
100
AcDbCircle
 10
697.4882946631335
 20
141.452263942523
 30
0.0
 40
32.0
100
AcDbArc
 50
306.9159848819838
 51
323.0840126961812
  0
ARC
  5
B283
330
1F
100
AcDbEntity
  8
0
  6
Continuous
 62
     7
370
    15
100
AcDbCircle
 10
677.6893043714673
 20
121.6532744877426
 30
0.0
 40
4.949999999999996
100
AcDbArc
 50
314.9999987890796
 51
134.9999987890795
  0
LINE
  5
B284
330
1F
100
AcDbEntity
  8
0
  6
Continuous
 62
     7
370
    15
100
AcDbLine
 10
674.1891258785686
 20
125.1534531285907
 30
0.0
 11
671.6330567791656
 21
122.5973793243816
 31
0.0
  0
LINE
  5
B285
330
1F
100
AcDbEntity
  8
0
  6
Continuous
 62
     7
370
    15
100
AcDbLine
 10
681.1894828643659
 20
118.1530958468945
 30
0.0
 11
678.6334128910644
 21
115.5970239830623
 31
0.0
  0
CIRCLE
  5
B286
330
1F
100
AcDbEntity
  8
0
  6
Continuous
 62
     7
370
    15
100
AcDbCircle
 10
677.6893043714673
 20
121.6532744877426
 30
0.0
 40
2.749999999999984
  0
ARC
  5
B287
330
1F
100
AcDbEntity
  8
0
  6
Continuous
 62
     7
370
    15
100
AcDbCircle
 10
697.4882946631336
 20
141.452263942523
 30
0.0
 40
32.0
100
AcDbArc
 50
216.9159848819779
 51
233.0840126961753
  0
ENDSEC
  0
SECTION
  2
OBJECTS
  0
DICTIONARY
  5
C
330
0
100
AcDbDictionary
281
     1
  3
ACAD_COLOR
350
BE
  3
ACAD_GROUP
350
D
  3
ACAD_LAYOUT
350
1A
  3
ACAD_MATERIAL
350
BD
  3
ACAD_MLINESTYLE
350
17
  3
ACAD_PLOTSETTINGS
350
19
  3
ACAD_PLOTSTYLENAME
350
E
  3
ACAD_TABLESTYLE
350
11A
  3
AcadDim
350
7BA5
  3
ACDBHEADERROUNDTRIPXREC
350
B3C9
  3
AcDbVariableDictionary
350
94
  3
AcmDictionary
350
5B
  3
AMG
350
41
  3
AMGSNAPSETTINGS
350
1B8
  3
DWGPROPS
350
B3C8
  3
MAPISURF_MODULE
350
7C9D
  0
DICTIONARY
  5
3F9
330
2
100
AcDbDictionary
280
     1
281
     1
  3
ACAD_LAYERFILTERS
360
99D5
  3
ACAD_LAYERSTATES
360
CA0
  3
ACLYDICTIONARY
360
99D4
  3
AMLAYER_GROUPCOLORS
360
18A7
  0
DICTIONARY
  5
8F
330
1F
100
AcDbDictionary
280
     1
281
     1
  3
ACAD_INDEX
360
853B
  3
ACAD_SORTENTS
360
18D9
  0
DICTIONARY
  5
7CF3
330
7CF2
100
AcDbDictionary
280
     1
281
     1
  0
DICTIONARY
  5
A58B
330
A57E
100
AcDbDictionary
280
     1
281
     1
  3
ACAD_DIMASSOC
360
A58C
  0
DICTIONARY
  5
BE
102
{ACAD_REACTORS
330
C
102
}
330
C
100
AcDbDictionary
281
     1
  0
DICTIONARY
  5
D
102
{ACAD_REACTORS
330
C
102
}
330
C
100
AcDbDictionary
281
     1
  0
DICTIONARY
  5
1A
102
{ACAD_REACTORS
330
C
102
}
330
C
100
AcDbDictionary
281
     1
  3
Model
350
22
  3
配置1
350
1E
  3
配置2
350
26
  0
DICTIONARY
  5
BD
102
{ACAD_REACTORS
330
C
102
}
330
C
100
AcDbDictionary
281
     1
  0
DICTIONARY
  5
17
102
{ACAD_REACTORS
330
C
102
}
330
C
100
AcDbDictionary
281
     1
  3
Standard
350
18
  0
DICTIONARY
  5
19
102
{ACAD_REACTORS
330
C
102
}
330
C
100
AcDbDictionary
281
     1
  0
ACDBDICTIONARYWDFLT
  5
E
102
{ACAD_REACTORS
330
C
102
}
330
C
100
AcDbDictionary
281
     1
  3
Normal
350
F
100
AcDbDictionaryWithDefault
340
F
  0
DICTIONARY
  5
11A
102
{ACAD_REACTORS
330
C
102
}
330
C
100
AcDbDictionary
281
     1
  3
Standard
350
11B
  0
XRECORD
  5
7BA5
102
{ACAD_REACTORS
330
C
102
}
330
C
100
AcDbXrecord
280
     1
 90
   990106
  3

 60
     4
 61
     0
 62
     4
 63
     4
 64
     1
 65
     0
 66
     0
 67
     3
 68
     0
 69
     0
 70
     0
 71
     0
 72
     0
 40
0.0
170
     0
340
7BA1
  0
DICTIONARY
  5
B3C9
102
{ACAD_REACTORS
330
C
102
}
330
C
100
AcDbDictionary
281
     1
  0
DICTIONARY
  5
94
102
{ACAD_REACTORS
330
C
102
}
330
C
100
AcDbDictionary
281
     1
  3
CTABLESTYLE
350
138
  3
DIMASSOC
350
96
  3
INDEXCTL
350
95
  3
PROJECTNAME
350
1BA0
  0
DICTIONARY
  5
5B
102
{ACAD_REACTORS
330
C
102
}
330
C
100
AcDbDictionary
281
     1
  3
AcmBOM
350
1B5
  3
AcmStdDictionary
350
61
  3
AMDTSECTSYM_ARROWCOLOR
350
123
  0
DICTIONARY
  5
41
102
{ACAD_REACTORS
330
C
102
}
330
C
100
AcDbDictionary
281
     1
  3
AcMgSettings
350
7C17
  0
DICTIONARY
  5
1B8
102
{ACAD_REACTORS
330
C
102
}
330
C
100
AcDbDictionary
281
     1
  0
XRECORD
  5
B3C8
102
{ACAD_REACTORS
330
C
102
}
330
C
100
AcDbXrecord
280
     1
  1
DWGPROPS COOKIE
  2

  3

  4

  6

  7

  8

  9

300
AmdtFileType=84
301
=
302
=
303
=
304
=
305
=
306
=
307
=
308
=
309
=
 40
1.089781030092592
 41
2454422.344345151
 42
2456893.572549549
  1

 90
        1
  0
DICTIONARY
  5
99D5
102
{ACAD_REACTORS
330
3F9
102
}
330
3F9
100
AcDbDictionary
281
     1
  0
DICTIONARY
  5
CA0
102
{ACAD_REACTORS
330
3F9
102
}
330
3F9
100
AcDbDictionary
281
     1
  0
DICTIONARY
  5
99D4
102
{ACAD_REACTORS
330
3F9
102
}
330
3F9
100
AcDbDictionary
281
     1
1001
ACAD
1000
<All
  0
DICTIONARY
  5
18A7
102
{ACAD_REACTORS
330
3F9
102
}
330
3F9
100
AcDbDictionary
280
     1
281
     1
  0
DICTIONARY
  5
853B
102
{ACAD_REACTORS
330
8F
102
}
330
8F
100
AcDbDictionary
281
     1
  3
*A1
350
853C
  0
SORTENTSTABLE
  5
18D9
102
{ACAD_REACTORS
330
8F
102
}
330
8F
100
AcDbSortentsTable
330
1F
331
15E2
  5
15E2
331
15C4
  5
15C4
331
15A6
  5
15A6
331
15ED
  5
15ED
331
15F7
  5
15F7
331
159D
  5
159D
331
15D9
  5
15D9
331
15E3
  5
15E3
331
15A7
  5
15A7
331
15A8
  5
15A8
331
15EE
  5
15EE
331
15D0
  5
15D0
331
15DA
  5
15DA
331
159E
  5
159E
331
15F8
  5
15F8
331
15E4
  5
15E4
331
15A9
  5
15A9
331
15D1
  5
15D1
331
15F9
  5
15F9
331
15DB
  5
15DB
331
15BD
  5
15BD
331
159F
  5
159F
331
7BA1
  5
7BA1
331
15E5
  5
15E5
331
15AA
  5
15AA
331
15C8
  5
15C8
331
15D2
  5
15D2
331
15B4
  5
15B4
331
15F0
  5
15F0
331
15FA
  5
15FA
331
15DC
  5
15DC
331
15BE
  5
15BE
331
15A0
  5
15A0
331
15E6
  5
15E6
331
15AB
  5
15AB
331
15F1
  5
15F1
331
15FB
  5
15FB
331
15DD
  5
15DD
331
15BF
  5
15BF
331
15A1
  5
15A1
331
15E7
  5
15E7
331
15AC
  5
15AC
331
15E8
  5
15E8
331
15F2
  5
15F2
331
15DE
  5
15DE
331
15C0
  5
15C0
331
15A2
  5
15A2
331
15E9
  5
15E9
331
15AD
  5
15AD
331
15F3
  5
15F3
331
1599
  5
1599
331
15DF
  5
15DF
331
15A3
  5
15A3
331
15C1
  5
15C1
331
15EA
  5
15EA
331
15CC
  5
15CC
331
15AE
  5
15AE
331
15F4
  5
15F4
331
15D6
  5
15D6
331
15B8
  5
15B8
331
159A
  5
159A
331
15C2
  5
15C2
331
15A4
  5
15A4
331
15E0
  5
15E0
331
15EB
  5
15EB
331
15AF
  5
15AF
331
15F5
  5
15F5
331
15D7
  5
15D7
331
159B
  5
159B
331
15B9
  5
15B9
331
15C3
  5
15C3
331
15A5
  5
15A5
331
15E1
  5
15E1
331
15EC
  5
15EC
331
15B0
  5
15B0
331
15F6
  5
15F6
331
159C
  5
159C
331
15D8
  5
15D8
  0
DIMASSOC
  5
A58C
102
{ACAD_REACTORS
330
A58B
102
}
330
A58B
100
AcDbDimAssoc
330
A57E
 90
        1
 70
     0
 71
     0
  1
AcDbOsnapPointRef
 72
     1
331
99DA
 73
     0
 91
        0
 40
0.0
 10
0.0
 20
0.0
 30
2.000000000000000E+50
 75
     0
  0
LAYOUT
  5
22
102
{ACAD_XDICTIONARY
360
B3CC
102
}
102
{ACAD_REACTORS
330
1A
102
}
330
1A
100
AcDbPlotSettings
  1

  2
\\RD\EPSON Stylus C63 Series單色
  4
A4
  6

 40
3.757083177566528
 41
3.757076978683471
 42
3.757080078125
 43
3.757080078125
 44
209.9733276367187
 45
296.9683227539062
 46
0.0
 47
0.0
 48
0.0
 49
0.0
140
0.0
141
0.0
142
1.0
143
0.3405120737814363
 70
 11952
 72
     1
 73
     0
 74
     0
  7
acad.ctb
 75
     0
147
2.936753428137963
148
-2047.07469463503
149
-1261.649717473083
100
AcDbLayout
  1
Model
 70
     1
 71
     0
 10
0.0
 20
0.0
 11
12.0
 21
9.0
 12
0.0
 22
0.0
 32
0.0
 14
0.0
 24
0.0
 34
0.0
 15
0.0
 25
0.0
 35
0.0
146
0.0
 13
0.0
 23
0.0
 33
0.0
 16
1.0
 26
0.0
 36
0.0
 17
0.0
 27
1.0
 37
0.0
 76
     0
330
1F
1001
ACAD_PSEXT
1000
\\RD\EPSON Stylus C63 Series單色
1000
EPSON Stylus C63 Series
1000
\\RD
1000

1070
     0
  0
LAYOUT
  5
1E
102
{ACAD_XDICTIONARY
360
B3CA
102
}
102
{ACAD_REACTORS
330
1A
102
}
330
1A
100
AcDbPlotSettings
  1

  2

  4

  6

 40
0.0
 41
0.0
 42
0.0
 43
0.0
 44
0.0
 45
0.0
 46
0.0
 47
0.0
 48
0.0
 49
0.0
140
0.0
141
0.0
142
1.0
143
1.0
 70
   688
 72
     0
 73
     0
 74
     5
  7
acad.ctb
 75
    16
147
1.0
148
0.0
149
0.0
100
AcDbLayout
  1
配置1
 70
     1
 71
     1
 10
0.0
 20
0.0
 11
420.0
 21
297.0
 12
0.0
 22
0.0
 32
0.0
 14
1.000000000000000E+20
 24
1.000000000000000E+20
 34
1.000000000000000E+20
 15
-1.000000000000000E+20
 25
-1.000000000000000E+20
 35
-1.000000000000000E+20
146
0.0
 13
0.0
 23
0.0
 33
0.0
 16
1.0
 26
0.0
 36
0.0
 17
0.0
 27
1.0
 37
0.0
 76
     0
330
1B
  0
LAYOUT
  5
26
102
{ACAD_XDICTIONARY
360
B3CE
102
}
102
{ACAD_REACTORS
330
1A
102
}
330
1A
100
AcDbPlotSettings
  1

  2

  4

  6

 40
0.0
 41
0.0
 42
0.0
 43
0.0
 44
0.0
 45
0.0
 46
0.0
 47
0.0
 48
0.0
 49
0.0
140
0.0
141
0.0
142
1.0
143
1.0
 70
   688
 72
     0
 73
     0
 74
     5
  7
acad.ctb
 75
    16
147
1.0
148
0.0
149
0.0
100
AcDbLayout
  1
配置2
 70
     1
 71
     2
 10
0.0
 20
0.0
 11
12.0
 21
9.0
 12
0.0
 22
0.0
 32
0.0
 14
0.0
 24
0.0
 34
0.0
 15
0.0
 25
0.0
 35
0.0
146
0.0
 13
0.0
 23
0.0
 33
0.0
 16
1.0
 26
0.0
 36
0.0
 17
0.0
 27
1.0
 37
0.0
 76
     0
330
23
  0
MLINESTYLE
  5
18
102
{ACAD_REACTORS
330
17
102
}
330
17
100
AcDbMlineStyle
  2
STANDARD
 70
     0
  3

 62
   256
 51
90.0
 52
90.0
 71
     2
 49
0.5
 62
   256
  6
BYLAYER
 49
-0.5
 62
   256
  6
BYLAYER
  0
ACDBPLACEHOLDER
  5
F
102
{ACAD_REACTORS
330
E
102
}
330
E
  0
TABLESTYLE
  5
11B
102
{ACAD_REACTORS
330
11A
102
}
330
11A
100
AcDbTableStyle
  3
Standard
 70
     0
 71
     0
 40
1.5
 41
1.5
280
     0
281
     0
  7
STANDARD
140
4.5
170
     2
 62
     0
 63
     7
283
     0
274
    -2
284
     1
 64
     0
275
    -2
285
     1
 65
     0
276
    -2
286
     1
 66
     0
277
    -2
287
     1
 67
     0
278
    -2
288
     1
 68
     0
279
    -2
289
     1
 69
     0
  7
STANDARD
140
6.0
170
     5
 62
     0
 63
     7
283
     0
274
    -2
284
     1
 64
     0
275
    -2
285
     1
 65
     0
276
    -2
286
     1
 66
     0
277
    -2
287
     1
 67
     0
278
    -2
288
     1
 68
     0
279
    -2
289
     1
 69
     0
  7
STANDARD
140
4.5
170
     5
 62
     0
 63
     7
283
     0
274
    -2
284
     1
 64
     0
275
    -2
285
     1
 65
     0
276
    -2
286
     1
 66
     0
277
    -2
287
     1
 67
     0
278
    -2
288
     1
 68
     0
279
    -2
289
     1
 69
     0
  0
DICTIONARYVAR
  5
138
102
{ACAD_REACTORS
330
94
102
}
330
94
100
DictionaryVariables
280
     0
  1
STANDARD
  0
DICTIONARYVAR
  5
96
102
{ACAD_REACTORS
330
94
102
}
330
94
100
DictionaryVariables
280
     0
  1
2
  0
DICTIONARYVAR
  5
95
102
{ACAD_REACTORS
330
94
102
}
330
94
100
DictionaryVariables
280
     0
  1
1
  0
DICTIONARYVAR
  5
1BA0
102
{ACAD_REACTORS
330
94
102
}
330
94
100
DictionaryVariables
280
     0
  1

  0
DICTIONARY
  5
1B5
102
{ACAD_REACTORS
330
5B
102
}
330
5B
100
AcDbDictionary
281
     1
  0
DICTIONARY
  5
61
102
{ACAD_REACTORS
330
5B
102
}
330
5B
100
AcDbDictionary
281
     1
  0
XRECORD
  5
123
102
{ACAD_REACTORS
330
5B
102
}
330
5B
100
AcDbXrecord
280
     1
 90
-1023410169
  0
DICTIONARY
  5
7C17
102
{ACAD_REACTORS
330
41
102
}
330
41
100
AcDbDictionary
281
     1
  3
DWGSETTINGS
350
7C18
  3
Shaft
350
8D15
  3
TRANSSETTINGS
350
7C1B
  0
LAYER_INDEX
  5
853C
102
{ACAD_REACTORS
330
853B
102
}
330
853B
100
AcDbIndex
 40
2456893.572549549
100
AcDbLayerIndex
  8
0
360
B3B9
 90
      456
  8
Defpoints
360
B3BA
 90
        0
  8
AM_5
360
B3BB
 90
        0
  8
AM_4
360
B3BC
 90
        0
  8
AM_VIS
360
B3BD
 90
        1
  8
AM_HID
360
B3BE
 90
        0
  8
AM_7
360
B3BF
 90
        2
  8
LOGO
360
B3C0
 90
       90
  8
AM_REFDIM
360
B3C1
 90
       14
  8
CEN
360
B3C2
 90
        0
  8
HATCH
360
B3C3
 90
        0
  8
SL
360
B3C4
 90
        0
  8
AM_10
360
B3C5
 90
        0
  0
DICTIONARY
  5
B3CC
330
22
100
AcDbDictionary
280
     1
281
     1
  3
ACAD_XREC_ROUNDTRIP
360
B3CD
  0
DICTIONARY
  5
B3CA
330
1E
100
AcDbDictionary
280
     1
281
     1
  3
ACAD_XREC_ROUNDTRIP
360
B3CB
  0
DICTIONARY
  5
B3CE
330
26
100
AcDbDictionary
280
     1
281
     1
  3
ACAD_XREC_ROUNDTRIP
360
B3CF
  0
IDBUFFER
  5
B3B9
330
0
100
AcDbIdBuffer
330
ABDC
330
ABDD
330
ABDE
330
ABDF
330
ABE0
330
ABE1
330
ABE2
330
ABE3
330
ABE4
330
ABE5
330
ABE6
330
ABE7
330
ABE8
330
ABE9
330
ABEA
330
ABEB
330
ABEC
330
ABED
330
ABEE
330
ABEF
330
ABF0
330
ABF1
330
ABF2
330
ABF3
330
ABF4
330
ABF5
330
ABF6
330
ABF7
330
ABF8
330
ABF9
330
ABFA
330
ABFB
330
ABFC
330
ABFD
330
ABFE
330
ABFF
330
AC00
330
AC01
330
AC02
330
AC05
330
AC06
330
AC0B
330
AC0C
330
AC0D
330
AC0E
330
AC0F
330
AC10
330
AC11
330
AC12
330
AC13
330
AC14
330
AC15
330
AC16
330
AC17
330
AC18
330
AC19
330
AC1A
330
AC1B
330
AC1C
330
AC1D
330
AC1E
330
AC1F
330
AC20
330
AC21
330
AC22
330
AC23
330
AC24
330
AC25
330
AC26
330
AC27
330
AC28
330
AC29
330
AC2A
330
AC2B
330
AC2C
330
AC2D
330
AC2E
330
AC2F
330
AC30
330
AC31
330
AC32
330
AC33
330
AC34
330
AC35
330
AC36
330
AC37
330
AC38
330
AC39
330
AC3A
330
AC3B
330
AC3C
330
AC3D
330
AC3E
330
AC3F
330
AC40
330
AC41
330
AC42
330
AC43
330
AC44
330
AC45
330
AC46
330
AC47
330
AC48
330
AC49
330
AC4A
330
AC4B
330
AC4C
330
AC4D
330
AC4E
330
AC4F
330
AC50
330
AC51
330
AC52
330
AC53
330
AC54
330
AC55
330
AC56
330
AC57
330
AC58
330
AC59
330
AC5A
330
AC5B
330
AC5C
330
AC5D
330
AC5E
330
AC5F
330
AC60
330
AC61
330
AC62
330
AC63
330
AC64
330
AC65
330
AC66
330
AC67
330
AC68
330
AC69
330
AC6A
330
AC6B
330
AC6C
330
AC6D
330
AC6E
330
AC6F
330
AC70
330
AC71
330
AC72
330
AC73
330
AC74
330
AC75
330
AC76
330
AC77
330
AC78
330
AC79
330
AC7A
330
AC7B
330
AC7C
330
AC7D
330
AC7E
330
AC7F
330
AC80
330
AC81
330
AC82
330
AC83
330
AC84
330
AC85
330
AC86
330
AC87
330
AC88
330
AC89
330
AC8A
330
AC8B
330
AC8C
330
AC8D
330
AC8E
330
AC8F
330
AC90
330
AC91
330
AC92
330
AC93
330
AC94
330
AC95
330
AC96
330
AC97
330
AC98
330
AC99
330
AC9A
330
AC9B
330
AC9C
330
AC9D
330
AC9E
330
AC9F
330
ACA0
330
ACA1
330
ACA2
330
ACA3
330
ACA4
330
ACA5
330
ACA6
330
ACA7
330
ACA8
330
ACA9
330
ACAA
330
B279
330
B27A
330
B27B
330
B27C
330
B27D
330
B27E
330
B27F
330
B280
330
B281
330
B282
330
B283
330
B284
330
B285
330
B286
330
B287
330
16B4
330
16B5
330
16B6
330
AAE2
330
AAE3
330
AAE4
330
AAE5
330
AAE6
330
AAE7
330
AAE8
330
AAE9
330
AAEA
330
AAEB
330
AAEC
330
AAED
330
AAEF
330
AAF0
330
AAF3
330
AAF4
330
AAF5
330
AAF6
330
AAF7
330
AAF8
330
AAF9
330
AAFA
330
AAFB
330
AAFD
330
AAFE
330
AAFF
330
AB00
330
AB01
330
AB02
330
AB03
330
AB04
330
AB06
330
AB07
330
AB09
330
AB0A
330
AB0B
330
AB0C
330
AB0D
330
AB0E
330
AB0F
330
AB10
330
AB11
330
AB13
330
AB14
330
AB15
330
AB16
330
AB17
330
AB18
330
AB19
330
AB1A
330
AB1C
330
AB1D
330
AB1E
330
AB1F
330
AB21
330
AB22
330
AB24
330
AB25
330
AB27
330
AB28
330
AB29
330
AB2A
330
AB2B
330
AB2C
330
AB2E
330
AB2F
330
AB31
330
AB32
330
AB33
330
AB34
330
AB35
330
AB36
330
AB37
330
AB38
330
AB39
330
AB3A
330
AB3B
330
AB3C
330
AB3D
330
AB3E
330
AB3F
330
AB40
330
AB41
330
AB42
330
AB43
330
AB44
330
AB45
330
AB46
330
AB47
330
AB48
330
AB49
330
AB4A
330
AB4B
330
AB4C
330
AB4D
330
AB4E
330
AB4F
330
AB50
330
AB51
330
AB52
330
AB53
330
AB54
330
AB55
330
AB56
330
AB57
330
AB58
330
AB59
330
AB5A
330
AB5B
330
AB5C
330
AB5D
330
AB5E
330
AB5F
330
AB60
330
AB61
330
AB62
330
AB63
330
AB64
330
AB65
330
AB66
330
AB67
330
AB68
330
AB69
330
AB6A
330
AB6B
330
AB6C
330
AB6D
330
AB6E
330
AB6F
330
AB70
330
AB71
330
AB72
330
AB73
330
AB74
330
AB75
330
AB76
330
AB77
330
AB78
330
AB79
330
AB7A
330
AB7B
330
AB7C
330
AB7D
330
AB7E
330
AB7F
330
AB80
330
AB81
330
AB82
330
AB83
330
AB84
330
AB85
330
AB86
330
AB87
330
AB88
330
AB89
330
AB8A
330
AB8B
330
AB8C
330
AB8D
330
AB8E
330
AB8F
330
AB90
330
AB91
330
AB92
330
AB93
330
AB94
330
AB95
330
AB96
330
AB97
330
AB98
330
AB99
330
AB9A
330
AB9B
330
AB9C
330
AB9D
330
AB9E
330
AB9F
330
ABA0
330
ABA1
330
ABA2
330
ABA3
330
ABA4
330
ABA5
330
ABA6
330
ABA7
330
ABA8
330
ABA9
330
ABAA
330
ABAB
330
ABAC
330
ABAD
330
ABAE
330
ABAF
330
ABB0
330
ABB1
330
ABB2
330
ABB3
330
ABB4
330
ABB5
330
ABB6
330
ABB7
330
ABB8
330
ABB9
330
ABBA
330
ABBB
330
ABBC
330
ABBD
330
ABBE
330
ABBF
330
ABC0
330
ABC1
330
ABC2
330
ABC3
330
ABC4
330
ABC5
330
ABC6
330
ABC7
330
ABC8
330
ABC9
330
ABCA
330
ABCB
330
ABCC
330
ABCD
330
ABCE
330
ABCF
330
ABD0
330
ABD1
330
ABD2
330
ABD3
330
ABD4
330
ABD5
330
ABD6
330
ABD7
330
ABD8
330
ABD9
330
ABDA
330
ABDB
  0
IDBUFFER
  5
B3BA
330
0
100
AcDbIdBuffer
  0
IDBUFFER
  5
B3BB
330
0
100
AcDbIdBuffer
  0
IDBUFFER
  5
B3BC
330
0
100
AcDbIdBuffer
  0
IDBUFFER
  5
B3BD
330
0
100
AcDbIdBuffer
330
7BA1
  0
IDBUFFER
  5
B3BE
330
0
100
AcDbIdBuffer
  0
IDBUFFER
  5
B3BF
330
0
100
AcDbIdBuffer
330
99DA
330
99DB
  0
IDBUFFER
  5
B3C0
330
0
100
AcDbIdBuffer
330
15DE
330
15DF
330
15E0
330
15E1
330
15E2
330
15E3
330
15E4
330
15E5
330
15E6
330
15E7
330
15E8
330
15E9
330
15EA
330
15EB
330
15EC
330
15ED
330
15EE
330
15F0
330
15F1
330
15F2
330
15F3
330
15F4
330
15F5
330
15F6
330
15F7
330
15F8
330
15F9
330
15FA
330
15FB
330
9C94
330
9C95
330
9C96
330
9C97
330
9C98
330
9C99
330
9C9A
330
9C9B
330
9C9C
330
9C9E
330
9C9F
330
9CA0
330
9CA2
330
1599
330
159A
330
159B
330
159C
330
159D
330
159E
330
159F
330
15A0
330
15A1
330
15A2
330
15A3
330
15A4
330
15A5
330
15A6
330
15A7
330
15A8
330
15A9
330
15AA
330
15AB
330
15AC
330
15AD
330
15AE
330
15AF
330
15B0
330
15B4
330
15B8
330
15B9
330
15BD
330
15BE
330
15BF
330
15C0
330
15C1
330
15C2
330
15C3
330
15C4
330
15C8
330
15CC
330
15D0
330
15D1
330
15D2
330
15D6
330
15D7
330
15D8
330
15D9
330
15DA
330
15DB
330
15DC
330
15DD
  0
IDBUFFER
  5
B3C1
330
0
100
AcDbIdBuffer
330
A516
330
A540
330
A57E
330
A622
330
A67B
330
A6A1
330
A724
330
A77B
330
A7A5
330
A7CB
330
A889
330
A88C
330
A890
330
A895
  0
IDBUFFER
  5
B3C2
330
0
100
AcDbIdBuffer
  0
IDBUFFER
  5
B3C3
330
0
100
AcDbIdBuffer
  0
IDBUFFER
  5
B3C4
330
0
100
AcDbIdBuffer
  0
IDBUFFER
  5
B3C5
330
0
100
AcDbIdBuffer
  0
XRECORD
  5
B3CD
102
{ACAD_REACTORS
330
B3CC
102
}
330
B3CC
100
AcDbXrecord
280
     1
102
SHADEPLOT
 70
     0
102
SHADEPLOTRESLEVEL
 70
     2
102
SHADEPLOTCUSTOMDPI
 70
   300
  0
XRECORD
  5
B3CB
102
{ACAD_REACTORS
330
B3CA
102
}
330
B3CA
100
AcDbXrecord
280
     1
102
SHADEPLOT
 70
     0
102
SHADEPLOTRESLEVEL
 70
     2
102
SHADEPLOTCUSTOMDPI
 70
   300
  0
XRECORD
  5
B3CF
102
{ACAD_REACTORS
330
B3CE
102
}
330
B3CE
100
AcDbXrecord
280
     1
102
SHADEPLOT
 70
     0
102
SHADEPLOTRESLEVEL
 70
     2
102
SHADEPLOTCUSTOMDPI
 70
   300
  0
ENDSEC
  0
EOF
