  0
SECTION
  2
HEADER
  9
$ACADVER
  1
AC1015
  9
$ACADMAINTVER
 70
    20
  9
$DWGCODEPAGE
  3
ANSI_950
  9
$INSBASE
 10
0.0
 20
0.0
 30
0.0
  9
$EXTMIN
 10
636.5888285060369
 20
-70.46923820485403
 30
0.0
  9
$EXTMAX
 10
948.3704317228239
 20
351.9019546929265
 30
120.2166306851784
  9
$LIMMIN
 10
0.0
 20
0.0
  9
$LIMMAX
 10
420.0
 20
297.0
  9
$ORTHOMODE
 70
     0
  9
$REGENMODE
 70
     1
  9
$FILLMODE
 70
     1
  9
$QTEXTMODE
 70
     0
  9
$MIRRTEXT
 70
     1
  9
$LTSCALE
 40
1.0
  9
$ATTMODE
 70
     1
  9
$TEXTSIZE
 40
3.0
  9
$TRACEWID
 40
1.0
  9
$TEXTSTYLE
  7
STANDARD
  9
$CLAYER
  8
AM_REFDIM
  9
$CELTYPE
  6
ByLayer
  9
$CECOLOR
 62
   256
  9
$CELTSCALE
 40
1.0
  9
$DISPSILH
 70
     0
  9
$DIMSCALE
 40
1.0
  9
$DIMASZ
 40
3.5
  9
$DIMEXO
 40
1.0
  9
$DIMDLI
 40
12.0
  9
$DIMRND
 40
0.0
  9
$DIMDLE
 40
0.0
  9
$DIMEXE
 40
1.0
  9
$DIMTP
 40
0.1
  9
$DIMTM
 40
0.1
  9
$DIMTXT
 40
3.5
  9
$DIMCEN
 40
0.0
  9
$DIMTSZ
 40
0.0
  9
$DIMTOL
 70
     0
  9
$DIMLIM
 70
     0
  9
$DIMTIH
 70
     0
  9
$DIMTOH
 70
     0
  9
$DIMSE1
 70
     0
  9
$DIMSE2
 70
     0
  9
$DIMTAD
 70
     1
  9
$DIMZIN
 70
     8
  9
$DIMBLK
  1

  9
$DIMASO
 70
     1
  9
$DIMSHO
 70
     1
  9
$DIMPOST
  1

  9
$DIMAPOST
  1
"
  9
$DIMALT
 70
     0
  9
$DIMALTD
 70
     2
  9
$DIMALTF
 40
0.0393701
  9
$DIMLFAC
 40
1.0
  9
$DIMTOFL
 70
     1
  9
$DIMTVP
 40
0.0
  9
$DIMTIX
 70
     0
  9
$DIMSOXD
 70
     0
  9
$DIMSAH
 70
     0
  9
$DIMBLK1
  1

  9
$DIMBLK2
  1

  9
$DIMSTYLE
  2
AM_ISO
  9
$DIMCLRD
 70
   256
  9
$DIMCLRE
 70
   256
  9
$DIMCLRT
 70
   256
  9
$DIMTFAC
 40
0.6
  9
$DIMGAP
 40
1.0
  9
$DIMJUST
 70
     0
  9
$DIMSD1
 70
     0
  9
$DIMSD2
 70
     0
  9
$DIMTOLJ
 70
     0
  9
$DIMTZIN
 70
     8
  9
$DIMALTZ
 70
     0
  9
$DIMALTTZ
 70
     0
  9
$DIMUPT
 70
     0
  9
$DIMDEC
 70
     1
  9
$DIMTDEC
 70
     8
  9
$DIMALTU
 70
     2
  9
$DIMALTTD
 70
     2
  9
$DIMTXSTY
  7
STANDARD
  9
$DIMAUNIT
 70
     0
  9
$DIMADEC
 70
     0
  9
$DIMALTRND
 40
0.0
  9
$DIMAZIN
 70
     2
  9
$DIMDSEP
 70
    46
  9
$DIMATFIT
 70
     3
  9
$DIMFRAC
 70
     0
  9
$DIMLDRBLK
  1

  9
$DIMLUNIT
 70
     2
  9
$DIMLWD
 70
    -1
  9
$DIMLWE
 70
    -1
  9
$DIMTMOVE
 70
     0
  9
$LUNITS
 70
     2
  9
$LUPREC
 70
     2
  9
$SKETCHINC
 40
1.0
  9
$FILLETRAD
 40
2.5
  9
$AUNITS
 70
     0
  9
$AUPREC
 70
     0
  9
$MENU
  1
.
  9
$ELEVATION
 40
0.0
  9
$PELEVATION
 40
0.0
  9
$THICKNESS
 40
0.0
  9
$LIMCHECK
 70
     0
  9
$CHAMFERA
 40
0.2
  9
$CHAMFERB
 40
0.2
  9
$CHAMFERC
 40
20.0
  9
$CHAMFERD
 40
0.0
  9
$SKPOLY
 70
     0
  9
$TDCREATE
 40
2454422.344345151
  9
$TDUCREATE
 40
2454422.011011817
  9
$TDUPDATE
 40
2456893.583595556
  9
$TDUUPDATE
 40
2456893.250262222
  9
$TDINDWG
 40
1.1124996644
  9
$TDUSRTIMER
 40
1.1124996644
  9
$USRTIMER
 70
     1
  9
$ANGBASE
 50
0.0
  9
$ANGDIR
 70
     0
  9
$PDMODE
 70
     0
  9
$PDSIZE
 40
0.0
  9
$PLINEWID
 40
0.0
  9
$SPLFRAME
 70
     0
  9
$SPLINETYPE
 70
     6
  9
$SPLINESEGS
 70
     8
  9
$HANDSEED
  5
BAED
  9
$SURFTAB1
 70
     6
  9
$SURFTAB2
 70
     6
  9
$SURFTYPE
 70
     6
  9
$SURFU
 70
     6
  9
$SURFV
 70
     6
  9
$UCSBASE
  2

  9
$UCSNAME
  2

  9
$UCSORG
 10
0.0
 20
0.0
 30
0.0
  9
$UCSXDIR
 10
1.0
 20
0.0
 30
0.0
  9
$UCSYDIR
 10
0.0
 20
1.0
 30
0.0
  9
$UCSORTHOREF
  2

  9
$UCSORTHOVIEW
 70
     0
  9
$UCSORGTOP
 10
0.0
 20
0.0
 30
0.0
  9
$UCSORGBOTTOM
 10
0.0
 20
0.0
 30
0.0
  9
$UCSORGLEFT
 10
0.0
 20
0.0
 30
0.0
  9
$UCSORGRIGHT
 10
0.0
 20
0.0
 30
0.0
  9
$UCSORGFRONT
 10
0.0
 20
0.0
 30
0.0
  9
$UCSORGBACK
 10
0.0
 20
0.0
 30
0.0
  9
$PUCSBASE
  2

  9
$PUCSNAME
  2

  9
$PUCSORG
 10
0.0
 20
0.0
 30
0.0
  9
$PUCSXDIR
 10
1.0
 20
0.0
 30
0.0
  9
$PUCSYDIR
 10
0.0
 20
1.0
 30
0.0
  9
$PUCSORTHOREF
  2

  9
$PUCSORTHOVIEW
 70
     0
  9
$PUCSORGTOP
 10
0.0
 20
0.0
 30
0.0
  9
$PUCSORGBOTTOM
 10
0.0
 20
0.0
 30
0.0
  9
$PUCSORGLEFT
 10
0.0
 20
0.0
 30
0.0
  9
$PUCSORGRIGHT
 10
0.0
 20
0.0
 30
0.0
  9
$PUCSORGFRONT
 10
0.0
 20
0.0
 30
0.0
  9
$PUCSORGBACK
 10
0.0
 20
0.0
 30
0.0
  9
$USERI1
 70
     0
  9
$USERI2
 70
     0
  9
$USERI3
 70
     0
  9
$USERI4
 70
     0
  9
$USERI5
 70
     0
  9
$USERR1
 40
0.0
  9
$USERR2
 40
0.0
  9
$USERR3
 40
0.0
  9
$USERR4
 40
0.0
  9
$USERR5
 40
0.0
  9
$WORLDVIEW
 70
     1
  9
$SHADEDGE
 70
     3
  9
$SHADEDIF
 70
    70
  9
$TILEMODE
 70
     1
  9
$MAXACTVP
 70
    64
  9
$PINSBASE
 10
0.0
 20
0.0
 30
0.0
  9
$PLIMCHECK
 70
     0
  9
$PEXTMIN
 10
1.000000000000000E+20
 20
1.000000000000000E+20
 30
1.000000000000000E+20
  9
$PEXTMAX
 10
-1.000000000000000E+20
 20
-1.000000000000000E+20
 30
-1.000000000000000E+20
  9
$PLIMMIN
 10
0.0
 20
0.0
  9
$PLIMMAX
 10
420.0
 20
297.0
  9
$UNITMODE
 70
     0
  9
$VISRETAIN
 70
     1
  9
$PLINEGEN
 70
     0
  9
$PSLTSCALE
 70
     1
  9
$TREEDEPTH
 70
  3020
  9
$CMLSTYLE
  2
Standard
  9
$CMLJUST
 70
     0
  9
$CMLSCALE
 40
20.0
  9
$PROXYGRAPHICS
 70
     1
  9
$MEASUREMENT
 70
     1
  9
$CELWEIGHT
370
    -1
  9
$ENDCAPS
280
     0
  9
$JOINSTYLE
280
     0
  9
$LWDISPLAY
290
     0
  9
$INSUNITS
 70
     4
  9
$HYPERLINKBASE
  1

  9
$STYLESHEET
  1
acad.ctb
  9
$XEDIT
290
     1
  9
$CEPSNTYPE
380
     0
  9
$PSTYLEMODE
290
     1
  9
$FINGERPRINTGUID
  2
{B705A112-77C7-4534-AADA-B7988B84DA3D}
  9
$VERSIONGUID
  2
{4C8C5717-FD63-4A2C-AF79-B8B4E22966FE}
  9
$EXTNAMES
290
     1
  9
$PSVPSCALE
 40
0.0
  9
$OLESTARTUP
290
     0
  0
ENDSEC
  0
SECTION
  2
CLASSES
  0
CLASS
  1
ACDBDICTIONARYWDFLT
  2
AcDbDictionaryWithDefault
  3
ObjectDBX Classes
 90
        0
280
     0
281
     0
  0
CLASS
  1
ACDBPLACEHOLDER
  2
AcDbPlaceHolder
  3
ObjectDBX Classes
 90
        0
280
     0
281
     0
  0
CLASS
  1
LAYOUT
  2
AcDbLayout
  3
ObjectDBX Classes
 90
        0
280
     0
281
     0
  0
CLASS
  1
ACME_DOCUMENT
  2
AcMeDbDoc
  3
AcMeServices
 90
        0
280
     0
281
     0
  0
CLASS
  1
AMGSETTINGSOBJ
  2
AmgSettingsObj
  3
"AcadM|Product Description: AutoCAD Mechanical 2000|Company: Autodesk"
 90
        0
280
     0
281
     0
  0
CLASS
  1
ACMESCOPE
  2
AcMeScope
  3
AcMeServices
 90
        0
280
     0
281
     0
  0
CLASS
  1
ACMECOMMANDHISTORY
  2
AcMeCommandHistory
  3
AcMeServices
 90
        0
280
     0
281
     0
  0
CLASS
  1
ACIMSYSVARMAN
  2
AcImSysVarManager
  3
AcMeServices
 90
        0
280
     0
281
     0
  0
CLASS
  1
ACIMREALSYSVAR
  2
AcImRealSysVar
  3
AcMeServices
 90
        0
280
     0
281
     0
  0
CLASS
  1
ACIMINTSYSVAR
  2
AcImIntSysVar
  3
AcMeServices
 90
        0
280
     0
281
     0
  0
CLASS
  1
ACMEDRAWINGMAN
  2
AcMeDrawingMan
  3
AcMeServices
 90
        0
280
     0
281
     0
  0
CLASS
  1
ACMEVIEW
  2
AcMeView
  3
AcMeServices
 90
        0
280
     0
281
     0
  0
CLASS
  1
ACDBENTITYCACHE
  2
AcMeEntityCache
  3
AcMeServices
 90
        0
280
     0
281
     0
  0
CLASS
  1
GSMANAGER
  2
AcMeGSManager
  3
AcMeServices
 90
        0
280
     0
281
     0
  0
CLASS
  1
AMDTINTERNALREACTOR
  2
AmdtInternalReactor
  3
AcMeServices
 90
        0
280
     0
281
     0
  0
CLASS
  1
ACMESTATEMGR
  2
AcMeStateMgr
  3
AcMeServices
 90
        0
280
     0
281
     0
  0
CLASS
  1
ACGREFMASTER
  2
AcGrefMaster
  3
AcAttribServices
 90
        0
280
     0
281
     0
  0
CLASS
  1
ACME_DATABASE
  2
AcMeDbDatabase
  3
AcMeServices
 90
        0
280
     0
281
     0
  0
CLASS
  1
ACRFINSADJUSTERMGR
  2
AcRfInsAdjusterMgr
  3
AcMeServices
 90
        0
280
     0
281
     0
  0
CLASS
  1
ACGREFACADMASTER
  2
AcGrefacadMaster
  3
AcGrefServices
 90
        0
280
     0
281
     0
  0
CLASS
  1
AMIMASTER
  2
AmiMaster
  3
AmiServices
 90
        0
280
     0
281
     0
  0
CLASS
  1
ACMDATADICTIONARY
  2
AcmDataDictionary
  3
"AcmSymBB|Product Description: AutoCAD Mechanical 2004 DX|Company: Autodesk"
 90
        0
280
     0
281
     0
  0
CLASS
  1
ACMDATAENTRYBLOCK
  2
AcmDataEntryBlock
  3
"AcmSymBB|Product Description: AutoCAD Mechanical 2004 DX|Company: Autodesk"
 90
        0
280
     0
281
     0
  0
CLASS
  1
ACIMSTRSYSVAR
  2
AcImStrSysVar
  3
AcMeServices
 90
        0
280
     0
281
     0
  0
CLASS
  1
ACMSTANDARDISO
  2
AcmStandardISO
  3
"Amdt_StdImp|Product Description: AutoCAD Mechanical 2004 DX|Company: Autodesk"
 90
        0
280
     0
281
     0
  0
CLASS
  1
AMGOBJPROPCFG
  2
AmgObjPropCfg
  3
"AmgLay|Product Description: AutoCAD Mechanical 2000|Company: Autodesk"
 90
        1
280
     0
281
     0
  0
CLASS
  1
AMDTEDGESTANDARDISO
  2
AmdtEdgeStdISO
  3
"Amdt_StdImp|Product Description: AutoCAD Mechanical 2004 DX|Company: Autodesk"
 90
    32768
280
     0
281
     0
  0
CLASS
  1
ACMSURFSTANDARDISO
  2
AcmSurfTextStdISO
  3
"Amdt_StdImp|Product Description: AutoCAD Mechanical 2004 DX|Company: Autodesk"
 90
        0
280
     0
281
     0
  0
CLASS
  1
ACMFCFSTANDARDISO
  2
AcmFCFStdISO
  3
"Amdt_StdImp|Product Description: AutoCAD Mechanical 2004 DX|Company: Autodesk"
 90
        0
280
     0
281
     0
  0
CLASS
  1
ACMWELDSTANDARDISO
  2
AcmWeldingStdISO
  3
"Amdt_StdImp|Product Description: AutoCAD Mechanical 2004 DX|Company: Autodesk"
 90
        0
280
     0
281
     0
  0
CLASS
  1
ACMIDSTANDARDISO
  2
AcmIdStdISO
  3
"Amdt_StdImp|Product Description: AutoCAD Mechanical 2004 DX|Company: Autodesk"
 90
        0
280
     0
281
     0
  0
CLASS
  1
ACMDATUMSTANDARDISO
  2
AcmDatumStdISO
  3
"Amdt_StdImp|Product Description: AutoCAD Mechanical 2004 DX|Company: Autodesk"
 90
        0
280
     0
281
     0
  0
CLASS
  1
ACMBOMSTANDARDISO
  2
AcmBOMStdISO
  3
"Amdt_StdImp|Product Description: AutoCAD Mechanical 2004 DX|Company: Autodesk"
 90
        0
280
     0
281
     0
  0
CLASS
  1
ACMDETAILSTANDARDISO
  2
AmdtDetailSymStdISO
  3
"Amdt_StdImp|Product Description: AutoCAD Mechanical 2004 DX|Company: Autodesk"
 90
        0
280
     0
281
     0
  0
CLASS
  1
ACMSECTIONSTANDARDISO
  2
AmdtSectionSymStdISO
  3
"Amdt_StdImp|Product Description: AutoCAD Mechanical 2004 DX|Company: Autodesk"
 90
        0
280
     0
281
     0
  0
CLASS
  1
ACMCENTERLINESTANDARDISO
  2
AmdtCenterLineStdISO
  3
"Amdt_StdImp|Product Description: AutoCAD Mechanical 2004 DX|Company: Autodesk"
 90
        0
280
     0
281
     0
  0
CLASS
  1
ACMNOTESTANDARDISO
  2
AmdtNoteStdISO
  3
"Amdt_StdImp|Product Description: AutoCAD Mechanical 2004 DX|Company: Autodesk"
 90
        0
280
     0
281
     0
  0
CLASS
  1
ACAMGLAYSTD
  2
AcAmgLayStd
  3
"AcAmgLayStd|Product Description: AutoCAD Mechanical 2000|Company: Autodesk"
 90
        0
280
     0
281
     0
  0
CLASS
  1
ACAMGDIMSTD
  2
AcAmgDimStd
  3
"AcAmgDimStd|Product Description: AutoCAD Mechanical 2000|Company: Autodesk"
 90
        0
280
     0
281
     0
  0
CLASS
  1
ACAMGHOLECHARTSTDISO
  2
AcAmgHoleChartStdISO
  3
ACMSYMBB_MODULE_NAME
 90
        0
280
     0
281
     0
  0
CLASS
  1
ACAMGTITLESTD
  2
AcAmgTitleStd
  3
"TITLEAPP"
 90
        0
280
     0
281
     0
  0
CLASS
  1
LAYER_INDEX
  2
AcDbLayerIndex
  3
ObjectDBX Classes
 90
        0
280
     0
281
     0
  0
CLASS
  1
IDBUFFER
  2
AcDbIdBuffer
  3
ObjectDBX Classes
 90
        0
280
     0
281
     0
  0
CLASS
  1
DICTIONARYVAR
  2
AcDbDictionaryVar
  3
ObjectDBX Classes
 90
        0
280
     0
281
     0
  0
CLASS
  1
AM_DRAWING_MGR
  2
AcDmDwgMgr
  3
AcMechDwgViewMgmt
 90
        0
280
     0
281
     0
  0
CLASS
  1
AM_DWG_DOCUMENT
  2
AcDmDwgDocument
  3
AcMechDwgViewMgmt
 90
        0
280
     0
281
     0
  0
CLASS
  1
AM_DWG_SHEET
  2
AcDmSheet
  3
AcMechDwgViewMgmt
 90
        0
280
     0
281
     0
  0
CLASS
  1
AM_VIEWDIMPARMAP
  2
AcDmViewDimParMap
  3
AcMechDwgViewMgmt
 90
        0
280
     0
281
     0
  0
CLASS
  1
AM_DWGMGR_NAME
  2
AcDmDwgMgrName
  3
AcMechDwgViewMgmt
 90
        0
280
     0
281
     0
  0
CLASS
  1
AMDTMENUSTATEMGR
  2
AmdtMenuStateMgr
  3
McadcomServices
 90
        0
280
     0
281
     0
  0
CLASS
  1
AMDTMCOMMENUSTATE
  2
AmdtMcomMenuState
  3
McadcomServices
 90
        0
280
     0
281
     0
  0
CLASS
  1
MAPIAMMOUDLE
  2
MApiAmModule
  3
MApiAmServices
 90
        0
280
     0
281
     0
  0
CLASS
  1
AMDTADMENUSTATE
  2
AmdtAdMenuState
  3
DesignerServices
 90
        0
280
     0
281
     0
  0
CLASS
  1
ADAPPL
  2
AcAdAppl
  3
DesignerServices
 90
        0
280
     0
281
     0
  0
CLASS
  1
DEPMGR
  2
AcAdDepMgr
  3
DesignerServices
 90
        0
280
     0
281
     0
  0
CLASS
  1
PARAMMGR
  2
AcAdParamMgr
  3
DesignerServices
 90
        0
280
     0
281
     0
  0
CLASS
  1
PARAMSCOPE
  2
AcAdParamScope
  3
DesignerServices
 90
        0
280
     0
281
     0
  0
CLASS
  1
NAMEDAPPL
  2
AcAdNamedAppl
  3
DesignerServices
 90
        0
280
     0
281
     0
  0
CLASS
  1
AMDTDMMENUSTATE
  2
AmdtDmMenuState
  3
AcMechDwgViewMgmt
 90
        0
280
     0
281
     0
  0
CLASS
  1
AMDTAMMENUSTATE
  2
AmdtAmMenuState
  3
DesignerAssemblies
 90
        0
280
     0
281
     0
  0
CLASS
  1
ACAMPROJECT
  2
AcAmProject
  3
DesignerAssemblies
 90
        0
280
     0
281
     0
  0
CLASS
  1
ACAMGRCOMPDEF
  2
AcAmGrCompDef
  3
DesignerAssemblies
 90
        0
280
     0
281
     0
  0
CLASS
  1
ACCMCONTEXT
  2
AcCmContext
  3
DesignerAssemblies
 90
        0
280
     0
281
     0
  0
CLASS
  1
ACAMCOMPDEF
  2
AcAmCompDef
  3
DesignerAssemblies
 90
        0
280
     0
281
     0
  0
CLASS
  1
ACAMCOMPDEFMGR
  2
AcAmCompDefMgr
  3
DesignerAssemblies
 90
        0
280
     0
281
     0
  0
CLASS
  1
AMCONTEXTMGR
  2
AcAmContextMgr
  3
DesignerAssemblies
 90
        0
280
     0
281
     0
  0
CLASS
  1
ACAMCONTEXTMODELER
  2
AcAmContextModeler
  3
DesignerAssemblies
 90
        0
280
     0
281
     0
  0
CLASS
  1
ACMTHREADLINESTANDARDISO
  2
AmdtThreadLineStdISO
  3
"Amdt_StdImp|Product Description: AutoCAD Mechanical 2004 DX|Company: Autodesk"
 90
        0
280
     0
281
     0
  0
CLASS
  1
CATALOGSTATE
  2
AcAmCatalogState
  3
DesignerAssemblies
 90
        0
280
     0
281
     0
  0
CLASS
  1
ACAMGRCOMPDEFSET
  2
AcAmGrCompDefSet
  3
DesignerAssemblies
 90
        0
280
     0
281
     0
  0
CLASS
  1
AMDTBROWSERDBTAB
  2
AmdtBrowserDbTab
  3
McadcomServices
 90
        0
280
     0
281
     0
  0
CLASS
  1
CBROWSERAPPOBJECT
  2
CBrowserAppObject
  3
McadcomServices
 90
        0
280
     0
281
     0
  0
CLASS
  1
DM_PLACEHOLDER
  2
AcDmSelsetPlaceholder
  3
AcMechDwgViewMgmt
 90
        0
280
     0
281
     0
  0
CLASS
  1
TABLESTYLE
  2
AcDbTableStyle
  3
ObjectDBX Classes
 90
     2047
280
     0
281
     0
  0
CLASS
  1
VAACXREFPANELOBJECT
  2
VaAcXREFPanelObject
  3
VAAC_ADDIN
 90
    32768
280
     0
281
     0
  0
CLASS
  1
VAACIMAGEINVENTORY
  2
VaAcImageInventory
  3
VAAC_ADDIN
 90
    32768
280
     0
281
     0
  0
CLASS
  1
AMDTNOTETEMPLATEDB
  2
AmdtNoteTemplateDB
  3
AMDT_STDIMP_MODULE_NAME
 90
        0
280
     0
281
     0
  0
CLASS
  1
ACMBOM
  2
AcmBom
  3
"AcmSymBB|Product Description: AutoCAD Mechanical 2004 DX|Company: Autodesk"
 90
    32768
280
     0
281
     0
  0
CLASS
  1
AMDTFORMULAUPDATEDISPATCHER
  2
AmdtFormulaUpdateDispatcher
  3
AcMeServices
 90
    32768
280
     0
281
     0
  0
CLASS
  1
ACMPARTLIST
  2
AcmPartList
  3
"AcmSymBB|Product Description: AutoCAD Mechanical 2004 DX|Company: Autodesk"
 90
    33791
280
     0
281
     1
  0
CLASS
  1
ACAMGFILTERDAT
  2
AcAmgFilterDat
  3
"AcadM|Product Description: AutoCAD Mechanical 2000|Company: Autodesk"
 90
    32768
280
     0
281
     0
  0
CLASS
  1
DIMASSOC
  2
AcDbDimAssoc
  3
"AcDbDimAssoc|Product Desc:     AcDim ARX App For Dimension|Company:          Autodesk, Inc.|WEB Address:      www.autodesk.com"
 90
        0
280
     0
281
     0
  0
CLASS
  1
SORTENTSTABLE
  2
AcDbSortentsTable
  3
ObjectDBX Classes
 90
        0
280
     0
281
     0
  0
CLASS
  1
STDPART2D
  2
AmgStdPart
  3
"AmgStdPart|Product Description: AutoCAD Mechanical 2000|Company: Autodesk"
 90
    33791
280
     0
281
     1
  0
CLASS
  1
ACAMSTDPCOMPDEF
  2
AcAmStdpCompDef
  3
DesignerAssemblies
 90
    32768
280
     0
281
     0
  0
CLASS
  1
ACRFATTGENMGR
  2
AcRfAttGeneralMgr
  3
AcAttribServices
 90
    32768
280
     0
281
     0
  0
CLASS
  1
ACRFOBJATTMGR
  2
AcRfObjAttGroupMgr
  3
AcAttribServices
 90
    32768
280
     0
281
     0
  0
CLASS
  1
ACRFMCADAPIATTHOLDER
  2
AcRfMCADAPIAttHolder
  3
AcAttribServices
 90
    32768
280
     0
281
     0
  0
CLASS
  1
AMDTSYSATTR
  2
AmdtSystemAttribute
  3
AcAttribServices
 90
    32768
280
     0
281
     0
  0
CLASS
  1
ACAMCOMP
  2
AcAmComp
  3
DesignerAssemblies
 90
    32768
280
     0
281
     0
  0
CLASS
  1
AC_AM_STDP_VIEW_DEF
  2
AcAmStdpViewDef
  3
DesignerAssemblies
 90
    32768
280
     0
281
     0
  0
CLASS
  1
AC_AM_MVD_DEP_MGR
  2
AcAmMVDdepMgr
  3
DesignerAssemblies
 90
    32768
280
     0
281
     0
  0
CLASS
  1
AC_AM_MASTER_VIEW_DEF
  2
AcAmMasterViewDef
  3
DesignerAssemblies
 90
    32768
280
     0
281
     0
  0
CLASS
  1
AC_AM_DIRTY_NODES
  2
AcAmDirtyNodes
  3
DesignerAssemblies
 90
    32768
280
     0
281
     0
  0
CLASS
  1
AC_AM_MAPPER_CACHE
  2
AcAmMapperCache
  3
DesignerAssemblies
 90
    32768
280
     0
281
     0
  0
CLASS
  1
ACAMMVDBACKUPOBJECT
  2
AcAmMVDBackupObject
  3
DesignerAssemblies
 90
    32768
280
     0
281
     0
  0
CLASS
  1
AC_AM_COMP_VIEW_INST
  2
AcAmCompView
  3
DesignerAssemblies
 90
    32768
280
     0
281
     0
  0
CLASS
  1
AC_AM_2D_XREF_MGR
  2
AcAmXrefMgr2d
  3
DesignerAssemblies
 90
    32768
280
     0
281
     0
  0
CLASS
  1
AMDTNOTE
  2
AmdtNote
  3
"AcmSymBB|Product Description: AutoCAD Mechanical 2004 DX|Company: Autodesk"
 90
    33791
280
     0
281
     1
  0
CLASS
  1
AMDTEDGESTANDARDISO13715
  2
AmdtEdgeStdISO13715
  3
"Amdt_StdImp|Product Description: AutoCAD Mechanical 2004 DX|Company: Autodesk"
 90
        0
280
     0
281
     0
  0
CLASS
  1
ASAPP
  2
AcAsAppObject
  3
AutoSurfServices
 90
        0
280
     0
281
     0
  0
CLASS
  1
IM_STATIC_MAN
  2
AcImStaticVarManager
  3
AcMeServices
 90
        0
280
     0
281
     0
  0
CLASS
  1
ACIMDBLSTATICVAR
  2
AcImDblStaticVar
  3
AcMeServices
 90
        0
280
     0
281
     0
  0
CLASS
  1
ACIMSTRSTATICVAR
  2
AcImStrStaticVar
  3
AcMeServices
 90
        0
280
     0
281
     0
  0
CLASS
  1
ACIMINTSTATICVAR
  2
AcImIntStaticVar
  3
AcMeServices
 90
        0
280
     0
281
     0
  0
CLASS
  1
ACASGREFMASTER
  2
AcAsGrefMaster
  3
AutoSurfResolverServices
 90
        0
280
     0
281
     0
  0
CLASS
  1
ACADGREFMODULE
  2
AcAdGrefModule
  3
AdGrefServices
 90
        0
280
     0
281
     0
  0
CLASS
  1
AMDTMAPISURFMOUDULE
  2
AmdtMApiSurfModule
  3
MApiSurfServices
 90
        0
280
     0
281
     0
  0
CLASS
  1
MAPIADMODULE
  2
MApiAdModule
  3
MApiAdServices
 90
        0
280
     0
281
     0
  0
ENDSEC
  0
SECTION
  2
TABLES
  0
TABLE
  2
VPORT
  5
8
330
0
100
AcDbSymbolTable
 70
    17
  0
VPORT
  5
BAE4
330
8
100
AcDbSymbolTableRecord
100
AcDbViewportTableRecord
  2
*Active
 70
     0
 10
0.0
 20
0.0
 11
1.0
 21
1.0
 12
260.8821251869214
 22
-206.2186985556839
 13
0.0
 23
0.0
 14
2.5
 24
2.5
 15
10.0
 25
10.0
 16
0.0
 26
0.0
 36
1.0
 17
493.6788805944727
 27
316.1094665189255
 37
0.0
 40
307.7886967260397
 41
1.312169312169312
 42
50.0
 43
0.0
 44
0.0
 50
0.0
 51
0.0
 71
     0
 72
  2000
 73
     1
 74
     3
 75
     0
 76
     0
 77
     0
 78
     0
281
     0
 65
     0
110
0.0
120
0.0
130
0.0
111
1.0
121
0.0
131
0.0
112
0.0
122
1.0
132
0.0
 79
     0
146
0.0
  0
ENDTAB
  0
TABLE
  2
LTYPE
  5
5
330
0
100
AcDbSymbolTable
 70
    16
  0
LTYPE
  5
14
330
5
100
AcDbSymbolTableRecord
100
AcDbLinetypeTableRecord
  2
ByBlock
 70
     0
  3

 72
    65
 73
     0
 40
0.0
  0
LTYPE
  5
15
330
5
100
AcDbSymbolTableRecord
100
AcDbLinetypeTableRecord
  2
ByLayer
 70
     0
  3

 72
    65
 73
     0
 40
0.0
  0
LTYPE
  5
16
330
5
100
AcDbSymbolTableRecord
100
AcDbLinetypeTableRecord
  2
Continuous
 70
     0
  3
Solid line
 72
    65
 73
     0
 40
0.0
  0
LTYPE
  5
64
330
5
100
AcDbSymbolTableRecord
100
AcDbLinetypeTableRecord
  2
AM_ISO02W050
 70
     0
  3
__ __ __ __ __ __ __ __ __ __ __ __ __ __ __
 72
    65
 73
     2
 40
7.5
 49
6.0
 74
     0
 49
-1.5
 74
     0
  0
LTYPE
  5
65
330
5
100
AcDbSymbolTableRecord
100
AcDbLinetypeTableRecord
  2
AM_ISO08W050
 70
     0
  3
____ . ____ . ____ . ____ . ____ . ____ . ____
 72
    65
 73
     4
 40
18.0
 49
12.0
 74
     0
 49
-1.5
 74
     0
 49
3.0
 74
     0
 49
-1.5
 74
     0
  0
LTYPE
  5
66
330
5
100
AcDbSymbolTableRecord
100
AcDbLinetypeTableRecord
  2
AM_ISO09W050
 70
     0
  3
_____ . . _____ . . _____ . . ____ .. ____
 72
    65
 73
     6
 40
22.5
 49
12.0
 74
     0
 49
-1.5
 74
     0
 49
3.0
 74
     0
 49
-1.5
 74
     0
 49
3.0
 74
     0
 49
-1.5
 74
     0
  0
LTYPE
  5
67
330
5
100
AcDbSymbolTableRecord
100
AcDbLinetypeTableRecord
  2
Amconstr
 70
     0
  3
_______________________
 72
    65
 73
     2
 40
9999.0
 49
9999.0
 74
     0
 49
0.0
 74
     0
  0
LTYPE
  5
68
330
5
100
AcDbSymbolTableRecord
100
AcDbLinetypeTableRecord
  2
AM_ISO08W050x2
 70
     0
  3
__ . __ . __ . __ . __ . __
 72
    65
 73
     4
 40
9.0
 49
6.0
 74
     0
 49
-0.75
 74
     0
 49
1.5
 74
     0
 49
-0.75
 74
     0
  0
LTYPE
  5
69
330
5
100
AcDbSymbolTableRecord
100
AcDbLinetypeTableRecord
  2
AM_ISO02W050x2
 70
     0
  3
 _ _ _ _ _ _ _ _ _ _ _ _
 72
    65
 73
     2
 40
3.75
 49
3.0
 74
     0
 49
-0.75
 74
     0
  0
LTYPE
  5
6C
330
5
100
AcDbSymbolTableRecord
100
AcDbLinetypeTableRecord
  2
Amzigzag
 70
     0
  3
/\/-/\/-/\/-/\/-/\/-/\/
 72
    65
 73
     2
 40
11.0001
 49
0.0001
 74
     4
 75
   135
340
6B
 46
0.04
 50
0.0
 44
0.0
 45
0.0
 49
-11.0
 74
     0
  0
LTYPE
  5
7A
330
5
100
AcDbSymbolTableRecord
100
AcDbLinetypeTableRecord
  2
ACISOWELD
 70
     0
  3
_ _ _ _ _
 72
    65
 73
     2
 40
2.0
 49
2.0
 74
     0
 49
-1.0
 74
     0
  0
LTYPE
  5
7B
330
5
100
AcDbSymbolTableRecord
100
AcDbLinetypeTableRecord
  2
ACISOTGB
 70
     0
  3
__ . . __ . .
 72
    65
 73
     6
 40
9.0
 49
4.0
 74
     0
 49
-1.0
 74
     0
 49
1.0
 74
     0
 49
-1.0
 74
     0
 49
1.0
 74
     0
 49
-1.0
 74
     0
  0
LTYPE
  5
7C
330
5
100
AcDbSymbolTableRecord
100
AcDbLinetypeTableRecord
  2
ACISOTGL
 70
     0
  3
_ _ _ _ _
 72
    65
 73
     2
 40
3.0
 49
2.0
 74
     0
 49
-1.0
 74
     0
  0
LTYPE
  5
7E
330
5
100
AcDbSymbolTableRecord
100
AcDbLinetypeTableRecord
  2
CENTER
 70
     0
  3
__ . __
 72
    65
 73
     4
 40
7.0
 49
4.0
 74
     0
 49
-1.0
 74
     0
 49
1.0
 74
     0
 49
-1.0
 74
     0
  0
LTYPE
  5
D8
330
5
100
AcDbSymbolTableRecord
100
AcDbLinetypeTableRecord
  2
HIDDEN
 70
     0
  3
Hidden __ __ __ __ __ __ __ __ __ __ __ __ __ _
 72
    65
 73
     2
 40
9.524999999999998
 49
6.349999999999999
 74
     0
 49
-3.174999999999999
 74
     0
  0
LTYPE
  5
D9
330
5
100
AcDbSymbolTableRecord
100
AcDbLinetypeTableRecord
  2
PHANTOM2
 70
     0
  3
Phantom (.5x) ___ _ _ ___ _ _ ___ _ _ ___ _ _
 72
    65
 73
     6
 40
31.75
 49
15.875
 74
     0
 49
-3.174999999999999
 74
     0
 49
3.174999999999999
 74
     0
 49
-3.174999999999999
 74
     0
 49
3.174999999999999
 74
     0
 49
-3.174999999999999
 74
     0
  0
LTYPE
  5
7C98
330
5
100
AcDbSymbolTableRecord
100
AcDbLinetypeTableRecord
  2
ASULTYPE
 70
     0
  3
實線
 72
    65
 73
     2
 40
3.0
 49
2.5
 74
     0
 49
0.5
 74
     0
  0
LTYPE
  5
7C99
330
5
100
AcDbSymbolTableRecord
100
AcDbLinetypeTableRecord
  2
ASVLTYPE
 70
     0
  3
__ __ __ __ __ __ __ __ __ __ __ __ __ __ __ __ __ __ __ __ __
 72
    65
 73
     2
 40
0.75
 49
0.5
 74
     0
 49
-0.25
 74
     0
  0
ENDTAB
  0
TABLE
  2
LAYER
  5
2
102
{ACAD_XDICTIONARY
360
3F9
102
}
330
0
100
AcDbSymbolTable
 70
    13
  0
LAYER
  5
10
330
2
100
AcDbSymbolTableRecord
100
AcDbLayerTableRecord
  2
0
 70
     0
 62
     7
  6
Continuous
370
    -3
390
F
  0
LAYER
  5
C92
330
2
100
AcDbSymbolTableRecord
100
AcDbLayerTableRecord
  2
Defpoints
 70
     0
 62
     7
  6
Continuous
290
     0
370
    -3
390
F
  0
LAYER
  5
C93
330
2
100
AcDbSymbolTableRecord
100
AcDbLayerTableRecord
  2
AM_5
 70
     0
 62
     3
  6
Continuous
370
    25
390
F
  0
LAYER
  5
C94
330
2
100
AcDbSymbolTableRecord
100
AcDbLayerTableRecord
  2
AM_4
 70
     0
 62
     3
  6
Continuous
370
    25
390
F
  0
LAYER
  5
C95
330
2
100
AcDbSymbolTableRecord
100
AcDbLayerTableRecord
  2
AM_VIS
 70
     0
 62
     7
  6
Continuous
370
    50
390
F
  0
LAYER
  5
C96
330
2
100
AcDbSymbolTableRecord
100
AcDbLayerTableRecord
  2
AM_HID
 70
     0
 62
     3
  6
AM_ISO02W050x2
370
    25
390
F
  0
LAYER
  5
C97
330
2
100
AcDbSymbolTableRecord
100
AcDbLayerTableRecord
  2
AM_7
 70
     0
 62
     1
  6
CENTER
370
    25
390
F
  0
LAYER
  5
C99
330
2
100
AcDbSymbolTableRecord
100
AcDbLayerTableRecord
  2
LOGO
 70
     0
 62
     7
  6
Continuous
370
    -3
390
F
  0
LAYER
  5
2AA5
330
2
100
AcDbSymbolTableRecord
100
AcDbLayerTableRecord
  2
AM_REFDIM
 70
     0
 62
     5
  6
Continuous
370
    25
390
F
  0
LAYER
  5
79D1
330
2
100
AcDbSymbolTableRecord
100
AcDbLayerTableRecord
  2
CEN
 70
     0
 62
     1
  6
CENTER
370
    -3
390
F
  0
LAYER
  5
79D3
330
2
100
AcDbSymbolTableRecord
100
AcDbLayerTableRecord
  2
HATCH
 70
     0
 62
     4
  6
Continuous
370
    -3
390
F
  0
LAYER
  5
7BB8
330
2
100
AcDbSymbolTableRecord
100
AcDbLayerTableRecord
  2
SL
 70
     0
 62
     2
  6
Continuous
370
    -3
390
F
1001
AcAecLayerStandard
1000

1000

  0
LAYER
  5
7DF7
330
2
100
AcDbSymbolTableRecord
100
AcDbLayerTableRecord
  2
AM_10
 70
     0
 62
     7
  6
AM_ISO08W050
370
    50
390
F
  0
ENDTAB
  0
TABLE
  2
STYLE
  5
3
330
0
100
AcDbSymbolTable
 70
     6
  0
STYLE
  5
11
330
3
100
AcDbSymbolTableRecord
100
AcDbTextStyleTableRecord
  2
STANDARD
 70
     0
 40
0.0
 41
1.0
 50
0.0
 71
     0
 42
3.0
  3
ISOCP.SHX
  4
CHINESET.SHX
  0
STYLE
  5
6B
330
3
100
AcDbSymbolTableRecord
100
AcDbTextStyleTableRecord
  2

 70
     1
 40
0.0
 41
1.0
 50
0.0
 71
     0
 42
2.5
  3
ltypeshp.shx
  4

  0
STYLE
  5
6D
330
3
100
AcDbSymbolTableRecord
100
AcDbTextStyleTableRecord
  2
ACISOTS
 70
     0
 40
1.0
 41
1.0
 50
0.0
 71
     0
 42
1.0
  3
isocp.shx
  4
chineset.shx
  0
STYLE
  5
79
330
3
100
AcDbSymbolTableRecord
100
AcDbTextStyleTableRecord
  2
ACISOGDT
 70
     0
 40
0.0
 41
1.0
 50
0.0
 71
     0
 42
2.5
  3
amgdt.shx
  4
chineset.shx
  0
STYLE
  5
C9B
330
3
100
AcDbSymbolTableRecord
100
AcDbTextStyleTableRecord
  2
CHINESET
 70
     0
 40
0.0
 41
1.0
 50
0.0
 71
     0
 42
2.5
  3
simplex.shx
  4
CHINESET.shx
  0
STYLE
  5
7DF8
330
3
100
AcDbSymbolTableRecord
100
AcDbTextStyleTableRecord
  2
DAYUS
 70
     0
 40
0.0
 41
1.0
 50
0.0
 71
     0
 42
2.0
  3
simplex.shx
  4
dayus.shx
  0
ENDTAB
  0
TABLE
  2
VIEW
  5
6
330
0
100
AcDbSymbolTable
 70
     0
  0
ENDTAB
  0
TABLE
  2
UCS
  5
7
330
0
100
AcDbSymbolTable
 70
     0
  0
ENDTAB
  0
TABLE
  2
APPID
  5
9
330
0
100
AcDbSymbolTable
 70
    38
  0
APPID
  5
12
330
9
100
AcDbSymbolTableRecord
100
AcDbRegAppTableRecord
  2
ACAD
 70
     0
  0
APPID
  5
46
330
9
100
AcDbSymbolTableRecord
100
AcDbRegAppTableRecord
  2
MCAD_NO_VIS
 70
     0
  0
APPID
  5
47
330
9
100
AcDbSymbolTableRecord
100
AcDbRegAppTableRecord
  2
ACAD_TEMP_GRAPHIC
 70
     0
  0
APPID
  5
58
330
9
100
AcDbSymbolTableRecord
100
AcDbRegAppTableRecord
  2
ACATTRIBSERVICES
 70
     0
  0
APPID
  5
EE
330
9
100
AcDbSymbolTableRecord
100
AcDbRegAppTableRecord
  2
AD_DRAW
 70
     0
  0
APPID
  5
10C
330
9
100
AcDbSymbolTableRecord
100
AcDbRegAppTableRecord
  2
DESIGNERASSEMBLIES
 70
     0
  0
APPID
  5
111
330
9
100
AcDbSymbolTableRecord
100
AcDbRegAppTableRecord
  2
ACADM_DIM_EDIT
 70
     0
  0
APPID
  5
112
330
9
100
AcDbSymbolTableRecord
100
AcDbRegAppTableRecord
  2
AMDT_DM_ADJ
 70
     0
  0
APPID
  5
22C
330
9
100
AcDbSymbolTableRecord
100
AcDbRegAppTableRecord
  2
ACAD_DSTYLE_DIMTEXT_FILL
 70
     0
  0
APPID
  5
452
330
9
100
AcDbSymbolTableRecord
100
AcDbRegAppTableRecord
  2
GENIUS_GENOENT_13
 70
     0
  0
APPID
  5
453
330
9
100
AcDbSymbolTableRecord
100
AcDbRegAppTableRecord
  2
GENIUS_GENOBJ-N-CRS_13
 70
     0
  0
APPID
  5
454
330
9
100
AcDbSymbolTableRecord
100
AcDbRegAppTableRecord
  2
GENIUS_GENOLIS_13
 70
     0
  0
APPID
  5
455
330
9
100
AcDbSymbolTableRecord
100
AcDbRegAppTableRecord
  2
GENIUS_GENODEF_13
 70
     0
  0
APPID
  5
456
330
9
100
AcDbSymbolTableRecord
100
AcDbRegAppTableRecord
  2
GENIUS_GENOREF_13
 70
     0
  0
APPID
  5
6F3
330
9
100
AcDbSymbolTableRecord
100
AcDbRegAppTableRecord
  2
ACAD_PSEXT
 70
     0
  0
APPID
  5
808
330
9
100
AcDbSymbolTableRecord
100
AcDbRegAppTableRecord
  2
GENIUS_GENDTOL_13
 70
     0
  0
APPID
  5
C9C
330
9
100
AcDbSymbolTableRecord
100
AcDbRegAppTableRecord
  2
GENIUS_GENOBJ-N-CEN_13
 70
     0
  0
APPID
  5
C9D
330
9
100
AcDbSymbolTableRecord
100
AcDbRegAppTableRecord
  2
GENIUS_GENCEN_19
 70
     0
  0
APPID
  5
C9E
330
9
100
AcDbSymbolTableRecord
100
AcDbRegAppTableRecord
  2
GENIUS_GENREC_14
 70
     0
  0
APPID
  5
C9F
330
9
100
AcDbSymbolTableRecord
100
AcDbRegAppTableRecord
  2
GENIUS_GENOBJ-N-REC_13
 70
     0
  0
APPID
  5
18AD
330
9
100
AcDbSymbolTableRecord
100
AcDbRegAppTableRecord
  2
GEVID1195260822
 70
     0
  0
APPID
  5
18AE
330
9
100
AcDbSymbolTableRecord
100
AcDbRegAppTableRecord
  2
GEVDC
 70
     0
  0
APPID
  5
18AF
330
9
100
AcDbSymbolTableRecord
100
AcDbRegAppTableRecord
  2
GEVRADREF
 70
     0
  0
APPID
  5
18B8
330
9
100
AcDbSymbolTableRecord
100
AcDbRegAppTableRecord
  2
AMG_2DHIDE
 70
     0
  0
APPID
  5
18B9
330
9
100
AcDbSymbolTableRecord
100
AcDbRegAppTableRecord
  2
AMG_2DSTRUCT_BTR
 70
     0
  0
APPID
  5
18CA
330
9
100
AcDbSymbolTableRecord
100
AcDbRegAppTableRecord
  2
ACADM_2DVIEW_IGN_NOTIFY
 70
     0
  0
APPID
  5
3621
330
9
100
AcDbSymbolTableRecord
100
AcDbRegAppTableRecord
  2
GENIUS_GENDIMSH_14
 70
     0
  0
APPID
  5
3FD8
330
9
100
AcDbSymbolTableRecord
100
AcDbRegAppTableRecord
  2
AD_SKETCHDIM
 70
     0
  0
APPID
  5
42D5
330
9
100
AcDbSymbolTableRecord
100
AcDbRegAppTableRecord
  2
ACAD_DSTYLE_DIMEXT_LENGTH
 70
     0
  0
APPID
  5
42D6
330
9
100
AcDbSymbolTableRecord
100
AcDbRegAppTableRecord
  2
ACAD_DSTYLE_DIMEXT_ENABLED
 70
     0
  0
APPID
  5
42D7
330
9
100
AcDbSymbolTableRecord
100
AcDbRegAppTableRecord
  2
ACAD_DSTYLE_DIM_EXT1_LINETYPE
 70
     0
  0
APPID
  5
42D8
330
9
100
AcDbSymbolTableRecord
100
AcDbRegAppTableRecord
  2
ACAD_DSTYLE_DIMJOGGED_JOGANGLE_SYMBOL
 70
     0
  0
APPID
  5
42D9
330
9
100
AcDbSymbolTableRecord
100
AcDbRegAppTableRecord
  2
ACAD_DSTYLE_DIMARC_LENGTH_SYMBOL
 70
     0
  0
APPID
  5
5E72
330
9
100
AcDbSymbolTableRecord
100
AcDbRegAppTableRecord
  2
AcAecLayerStandard
 70
     0
  0
APPID
  5
7C19
330
9
100
AcDbSymbolTableRecord
100
AcDbRegAppTableRecord
  2
GENIUS_GENDIM_13
 70
     0
  0
APPID
  5
7C1A
330
9
100
AcDbSymbolTableRecord
100
AcDbRegAppTableRecord
  2
GENIUS_GE3DTOL_13
 70
     0
  0
APPID
  5
7C9A
330
9
100
AcDbSymbolTableRecord
100
AcDbRegAppTableRecord
  2
ASURF_PCURVE_APPNAME
 70
     0
  0
APPID
  5
7C9F
330
9
100
AcDbSymbolTableRecord
100
AcDbRegAppTableRecord
  2
AMG_3D2D_5.0
 70
     0
  0
ENDTAB
  0
TABLE
  2
DIMSTYLE
  5
A
330
0
100
AcDbSymbolTable
 70
    16
100
AcDbDimStyleTable
 71
     3
340
81
340
8B
340
86
  0
DIMSTYLE
105
81
330
A
100
AcDbSymbolTableRecord
100
AcDbDimStyleTableRecord
  2
AM_ISO
 70
     0
  4
"
 41
3.5
 42
1.0
 43
8.0
 44
1.0
 47
0.1
 48
0.1
 73
     0
 74
     0
 77
     1
 78
     8
 79
     2
140
3.5
141
0.0
143
0.0393701
146
0.6
147
1.0
172
     1
176
   256
177
   256
178
   256
271
     2
272
     2
283
     0
284
     8
340
11
371
    -1
372
    -1
  0
DIMSTYLE
105
82
330
A
100
AcDbSymbolTableRecord
100
AcDbDimStyleTableRecord
  2
AM_ISO$3
 70
     0
  4
"
 41
3.5
 42
1.0
 43
8.0
 44
1.0
 47
0.1
 48
0.1
 73
     0
 77
     1
 78
     8
 79
     2
140
3.5
141
0.0
143
0.0393701
146
0.6
147
1.0
176
   256
177
   256
178
   256
271
     2
272
     2
283
     0
284
     8
288
     1
289
     0
340
11
371
    -1
372
    -1
  0
DIMSTYLE
105
83
330
A
100
AcDbSymbolTableRecord
100
AcDbDimStyleTableRecord
  2
AM_ISO$4
 70
     0
  4
"
 41
3.5
 42
1.0
 43
8.0
 44
1.0
 47
0.1
 48
0.1
 73
     0
 77
     1
 78
     8
 79
     2
140
3.5
141
0.0
143
0.0393701
146
0.6
147
1.0
176
   256
177
   256
178
   256
271
     2
272
     2
283
     0
284
     8
288
     1
289
     0
340
11
371
    -1
372
    -1
  0
DIMSTYLE
105
84
330
A
100
AcDbSymbolTableRecord
100
AcDbDimStyleTableRecord
  2
AM_ISO$6
 70
     0
  4
"
 41
3.5
 42
1.0
 43
8.0
 44
1.0
 47
0.1
 48
0.1
 73
     0
 74
     0
 78
     8
 79
     2
140
3.5
141
0.0
143
0.0393701
146
0.6
147
1.0
172
     1
176
   256
177
   256
178
   256
271
     2
272
     2
283
     0
284
     8
340
11
371
    -1
372
    -1
  0
DIMSTYLE
105
85
330
A
100
AcDbSymbolTableRecord
100
AcDbDimStyleTableRecord
  2
AM_ISO$7
 70
     0
  4
"
 41
3.5
 42
1.0
 43
8.0
 44
1.0
 47
0.1
 48
0.1
 73
     0
 74
     0
 77
     1
 78
     8
 79
     2
140
3.5
141
0.0
143
0.0393701
146
0.6
147
1.0
172
     1
176
   256
177
   256
178
   256
271
     2
272
     2
283
     0
284
     8
340
11
371
    -1
372
    -1
  0
DIMSTYLE
105
86
330
A
100
AcDbSymbolTableRecord
100
AcDbDimStyleTableRecord
  2
AM_ISO$SF
 70
     0
  4
"
 41
2.5
 42
1.0
 43
10.0
 44
1.0
 47
0.1
 48
0.1
 73
     0
 74
     0
 75
     1
 76
     1
 77
     1
 78
     8
 79
     2
140
3.5
141
0.0
143
0.0393701
146
0.71
147
1.5
172
     1
176
   256
177
   256
178
     2
271
     2
272
     3
274
     4
283
     0
284
     8
340
11
371
    -1
372
    -1
  0
DIMSTYLE
105
8B
330
A
100
AcDbSymbolTableRecord
100
AcDbDimStyleTableRecord
  2
AM_ISO$SH
 70
     0
  4
"
 41
2.5
 42
1.0
 43
10.0
 44
1.0
 47
0.1
 48
0.1
 73
     0
 74
     0
 75
     1
 76
     1
 77
     1
 78
     8
 79
     2
140
3.5
141
0.0
143
0.0393701
144
2.0
146
0.71
147
1.5
172
     1
173
     1
176
   256
177
   256
178
     2
271
     2
272
     3
274
     4
283
     0
284
     8
340
11
343
87
371
    -1
372
    -1
  0
DIMSTYLE
105
40B
102
{ACAD_REACTORS
330
A57E
330
A516
330
A540
330
A724
330
A67B
330
A6A1
330
A7A5
330
A77B
330
A7CB
330
A622
102
}
330
A
100
AcDbSymbolTableRecord
100
AcDbDimStyleTableRecord
  2
AM_ISO$0
 70
     0
  4
"
 41
3.5
 42
1.0
 43
8.0
 44
1.0
 47
0.1
 48
0.1
 73
     0
 74
     0
 77
     1
 78
     8
 79
     2
140
3.5
141
0.0
143
0.0393701
146
0.6
147
1.0
172
     1
176
   256
177
   256
178
   256
271
     2
272
     2
283
     0
284
     8
340
11
371
    -1
372
    -1
  0
DIMSTYLE
105
2AAB
330
A
100
AcDbSymbolTableRecord
100
AcDbDimStyleTableRecord
  2
AM_ISO$SH$3
 70
     0
  4
"
 40
1.3
 41
2.5
 42
1.0
 43
10.0
 44
1.0
 47
0.1
 48
0.1
 73
     0
 74
     0
 75
     1
 76
     1
 77
     1
 78
     8
 79
     2
140
3.5
141
0.0
143
0.0393701
144
2.0
146
0.71
147
1.5
172
     1
173
     1
176
   256
177
   256
178
     2
271
     2
272
     3
274
     4
283
     0
284
     8
340
11
343
87
371
    -1
372
    -1
  0
DIMSTYLE
105
3FD7
330
A
100
AcDbSymbolTableRecord
100
AcDbDimStyleTableRecord
  2
AM_ISO$2
 70
     0
  4
"
 41
2.5
 42
1.0
 43
10.0
 44
1.0
 47
0.1
 48
0.1
 73
     0
 74
     0
 77
     1
 78
     8
 79
     2
140
3.5
141
0.0
143
0.0393701
146
0.71
147
1.5
172
     1
176
   256
177
   256
178
     2
271
     2
272
     3
274
     4
283
     0
284
     8
340
11
371
    -1
372
    -1
  0
DIMSTYLE
105
6430
330
A
100
AcDbSymbolTableRecord
100
AcDbDimStyleTableRecord
  2
AM_ISO$SH$0
 70
     0
  4
"
 40
1.5
 41
2.5
 42
1.0
 43
10.0
 44
1.0
 47
0.1
 48
0.1
 73
     0
 74
     0
 75
     1
 76
     1
 77
     1
 78
     8
 79
     2
140
3.5
141
0.0
143
0.0393701
144
2.0
146
0.71
147
1.5
172
     1
173
     1
176
   256
177
   256
178
     2
271
     2
272
     3
274
     4
283
     0
284
     8
340
11
343
87
371
    -1
372
    -1
  0
DIMSTYLE
105
7DF9
330
A
100
AcDbSymbolTableRecord
100
AcDbDimStyleTableRecord
  2
STANDARD
 70
     0
 41
2.5
 42
0.625
 43
3.75
 44
1.25
 73
     0
 74
     0
 77
     1
 78
     8
140
2.5
141
2.5
143
0.0394
147
0.625
171
     4
172
     1
273
     8
274
     4
277
     6
340
11
  0
DIMSTYLE
105
7DFA
330
A
100
AcDbSymbolTableRecord
100
AcDbDimStyleTableRecord
  2
AM_ANSI
 70
     0
  4
mm
 41
0.1
 42
0.05
 43
0.5
 44
0.1
 47
0.1
 48
0.1
 78
     7
 79
     2
140
0.12
141
0.0
146
0.71
147
0.06
176
   256
177
   256
178
     2
274
     4
284
     7
340
11
371
    -1
372
    -1
  0
DIMSTYLE
105
7DFB
330
A
100
AcDbSymbolTableRecord
100
AcDbDimStyleTableRecord
  2
DAYUS
 70
     0
  4
"
 40
0.6666666666666666
 41
3.0
 42
2.0
 43
10.0
 44
1.0
 47
0.1
 48
0.1
 73
     0
 74
     0
 77
     1
 78
     8
 79
     2
140
3.5
141
0.0
143
0.0393701
146
0.71
147
1.5
172
     1
176
   256
177
   256
178
     3
271
     2
272
     8
283
     0
284
     8
340
7DF8
371
    -1
372
    -1
  0
DIMSTYLE
105
857F
330
A
100
AcDbSymbolTableRecord
100
AcDbDimStyleTableRecord
  2
ISO-25$0
 70
     0
 40
5.0
 41
2.5
 42
0.625
 43
3.75
 44
1.25
 73
     0
 74
     0
 77
     1
 78
     8
140
2.5
141
2.5
143
0.03937007874016
147
0.625
171
     3
172
     1
271
     2
272
     2
274
     3
278
    44
283
     0
284
     8
340
11
  0
DIMSTYLE
105
968B
330
A
100
AcDbSymbolTableRecord
100
AcDbDimStyleTableRecord
  2
ISO-25
 70
     0
 41
2.5
 42
0.625
 43
3.75
 44
1.25
 73
     0
 74
     0
 77
     1
 78
     8
140
2.5
141
2.5
143
0.03937007874016
147
0.625
171
     3
172
     1
271
     2
272
     2
274
     3
278
    44
283
     0
284
     8
340
11
  0
ENDTAB
  0
TABLE
  2
BLOCK_RECORD
  5
1
330
0
100
AcDbSymbolTable
 70
    21
  0
BLOCK_RECORD
  5
1F
102
{ACAD_XDICTIONARY
360
8F
102
}
330
1
100
AcDbSymbolTableRecord
100
AcDbBlockTableRecord
  2
*Model_Space
340
22
  0
BLOCK_RECORD
  5
1B
330
1
100
AcDbSymbolTableRecord
100
AcDbBlockTableRecord
  2
*Paper_Space
340
1E
  0
BLOCK_RECORD
  5
23
330
1
100
AcDbSymbolTableRecord
100
AcDbBlockTableRecord
  2
*Paper_Space0
340
26
  0
BLOCK_RECORD
  5
87
330
1
100
AcDbSymbolTableRecord
100
AcDbBlockTableRecord
  2
GENAXEH
340
0
  0
BLOCK_RECORD
  5
7CF2
102
{ACAD_XDICTIONARY
360
7CF3
102
}
330
1
100
AcDbSymbolTableRecord
100
AcDbBlockTableRecord
  2
S2
340
0
1001
ACAD
1000
DesignCenter Data
1002
{
1070
     1
1070
     4
1002
}
  0
BLOCK_RECORD
  5
8569
330
1
100
AcDbSymbolTableRecord
100
AcDbBlockTableRecord
  2
SW_CENTERMARKSYMBOL_0
340
0
  0
BLOCK_RECORD
  5
8574
330
1
100
AcDbSymbolTableRecord
100
AcDbBlockTableRecord
  2
SW_CENTERMARKSYMBOL_1
340
0
  0
BLOCK_RECORD
  5
A517
330
1
100
AcDbSymbolTableRecord
100
AcDbBlockTableRecord
  2
*D6
340
0
  0
BLOCK_RECORD
  5
A541
330
1
100
AcDbSymbolTableRecord
100
AcDbBlockTableRecord
  2
*D7
340
0
  0
BLOCK_RECORD
  5
A57F
330
1
100
AcDbSymbolTableRecord
100
AcDbBlockTableRecord
  2
*D8
340
0
  0
BLOCK_RECORD
  5
A623
330
1
100
AcDbSymbolTableRecord
100
AcDbBlockTableRecord
  2
*D9
340
0
  0
BLOCK_RECORD
  5
A67C
330
1
100
AcDbSymbolTableRecord
100
AcDbBlockTableRecord
  2
*D10
340
0
  0
BLOCK_RECORD
  5
A6A2
330
1
100
AcDbSymbolTableRecord
100
AcDbBlockTableRecord
  2
*D11
340
0
  0
BLOCK_RECORD
  5
A725
330
1
100
AcDbSymbolTableRecord
100
AcDbBlockTableRecord
  2
*D12
340
0
  0
BLOCK_RECORD
  5
A77C
330
1
100
AcDbSymbolTableRecord
100
AcDbBlockTableRecord
  2
*D13
340
0
  0
BLOCK_RECORD
  5
A7A6
330
1
100
AcDbSymbolTableRecord
100
AcDbBlockTableRecord
  2
*D14
340
0
  0
BLOCK_RECORD
  5
A7CC
330
1
100
AcDbSymbolTableRecord
100
AcDbBlockTableRecord
  2
*D15
340
0
  0
BLOCK_RECORD
  5
B6F6
330
1
100
AcDbSymbolTableRecord
100
AcDbBlockTableRecord
  2
*D16
340
0
  0
BLOCK_RECORD
  5
B712
330
1
100
AcDbSymbolTableRecord
100
AcDbBlockTableRecord
  2
*D17
340
0
  0
BLOCK_RECORD
  5
B72E
330
1
100
AcDbSymbolTableRecord
100
AcDbBlockTableRecord
  2
*D18
340
0
  0
BLOCK_RECORD
  5
B74A
330
1
100
AcDbSymbolTableRecord
100
AcDbBlockTableRecord
  2
*D19
340
0
  0
ENDTAB
  0
ENDSEC
  0
SECTION
  2
BLOCKS
  0
BLOCK
  5
20
330
1F
100
AcDbEntity
  8
0
100
AcDbBlockBegin
  2
*Model_Space
 70
     0
 10
0.0
 20
0.0
 30
0.0
  3
*Model_Space
  1

  0
ENDBLK
  5
21
330
1F
100
AcDbEntity
  8
0
100
AcDbBlockEnd
  0
BLOCK
  5
1C
330
1B
100
AcDbEntity
 67
     1
  8
0
100
AcDbBlockBegin
  2
*Paper_Space
 70
     0
 10
0.0
 20
0.0
 30
0.0
  3
*Paper_Space
  1

  0
ENDBLK
  5
1D
330
1B
100
AcDbEntity
 67
     1
  8
0
100
AcDbBlockEnd
  0
BLOCK
  5
24
330
23
100
AcDbEntity
  8
0
100
AcDbBlockBegin
  2
*Paper_Space0
 70
     0
 10
0.0
 20
0.0
 30
0.0
  3
*Paper_Space0
  1

  0
ENDBLK
  5
25
330
23
100
AcDbEntity
  8
0
100
AcDbBlockEnd
  0
BLOCK
  5
89
330
87
100
AcDbEntity
  8
0
100
AcDbBlockBegin
  2
GENAXEH
 70
     0
 10
0.0
 20
0.0
 30
0.0
  3
GENAXEH
  1

  0
LINE
  5
88
330
87
100
AcDbEntity
  8
0
100
AcDbLine
 10
-1.0
 20
0.0
 30
0.0
 11
1.0
 21
0.0
 31
0.0
  0
ENDBLK
  5
8A
330
87
100
AcDbEntity
  8
0
100
AcDbBlockEnd
  0
BLOCK
  5
7CF4
330
7CF2
100
AcDbEntity
  8
0
100
AcDbBlockBegin
  2
S2
 70
     0
 10
0.0
 20
0.0
 30
0.0
  3
S2
  1

  0
LINE
  5
7CF5
330
7CF2
100
AcDbEntity
  8
AM_5
100
AcDbLine
 10
0.0000000000000284
 20
4.000000000000028
 30
0.0
 11
4.0
 21
4.0
 31
0.0
  0
LINE
  5
7CF6
330
7CF2
100
AcDbEntity
  8
AM_5
100
AcDbLine
 10
0.0000000000000284
 20
0.0
 30
0.0
 11
4.0
 21
0.0
 31
0.0
  0
TEXT
  5
7CF7
330
7CF2
100
AcDbEntity
  8
AM_5
100
AcDbText
 10
1.099999999999999
 20
0.5
 30
0.0
 40
3.0
  1
2
 41
0.9
  7
DAYUS
 72
     4
 11
2.0
 21
2.0
 31
0.0
100
AcDbText
  0
LINE
  5
7CF8
330
7CF2
100
AcDbEntity
  8
AM_5
100
AcDbLine
 10
0.0
 20
4.0
 30
0.0
 11
0.0
 21
0.0
 31
0.0
  0
LINE
  5
7CF9
330
7CF2
100
AcDbEntity
  8
AM_5
100
AcDbLine
 10
4.0
 20
4.0
 30
0.0
 11
4.0
 21
0.0
 31
0.0
  0
ENDBLK
  5
7CFA
330
7CF2
100
AcDbEntity
  8
0
100
AcDbBlockEnd
  0
BLOCK
  5
856A
330
8569
100
AcDbEntity
  8
0
100
AcDbBlockBegin
  2
SW_CENTERMARKSYMBOL_0
 70
     0
 10
0.0
 20
0.0
 30
0.0
  3
SW_CENTERMARKSYMBOL_0
  1

  0
LINE
  5
856B
330
8569
100
AcDbEntity
  8
0
  6
Continuous
 62
     0
370
     0
100
AcDbLine
 10
0.0
 20
0.0
 30
0.0
 11
0.0
 21
2.500000000000002
 31
0.0
  0
LINE
  5
856C
330
8569
100
AcDbEntity
  8
0
  6
Continuous
 62
     0
370
     0
100
AcDbLine
 10
0.0
 20
0.0
 30
0.0
 11
-2.500000000000002
 21
0.0
 31
0.0
  0
LINE
  5
856D
330
8569
100
AcDbEntity
  8
0
  6
Continuous
 62
     0
370
     0
100
AcDbLine
 10
0.0
 20
0.0
 30
0.0
 11
0.0
 21
-2.500000000000002
 31
0.0
  0
LINE
  5
856E
330
8569
100
AcDbEntity
  8
0
  6
Continuous
 62
     0
370
     0
100
AcDbLine
 10
0.0
 20
0.0
 30
0.0
 11
2.500000000000002
 21
0.0
 31
0.0
  0
LINE
  5
856F
330
8569
100
AcDbEntity
  8
0
  6
Continuous
 62
     0
370
     0
100
AcDbLine
 10
0.0
 20
2.500000000000002
 30
0.0
 11
0.0
 21
4.500000000000003
 31
0.0
  0
LINE
  5
8570
330
8569
100
AcDbEntity
  8
0
  6
Continuous
 62
     0
370
     0
100
AcDbLine
 10
-2.500000000000002
 20
0.0
 30
0.0
 11
-4.500000000000003
 21
0.0
 31
0.0
  0
LINE
  5
8571
330
8569
100
AcDbEntity
  8
0
  6
Continuous
 62
     0
370
     0
100
AcDbLine
 10
0.0
 20
-2.500000000000002
 30
0.0
 11
0.0
 21
-4.500000000000003
 31
0.0
  0
LINE
  5
8572
330
8569
100
AcDbEntity
  8
0
  6
Continuous
 62
     0
370
     0
100
AcDbLine
 10
2.500000000000002
 20
0.0
 30
0.0
 11
4.500000000000003
 21
0.0
 31
0.0
  0
ENDBLK
  5
8573
330
8569
100
AcDbEntity
  8
0
100
AcDbBlockEnd
  0
BLOCK
  5
8575
330
8574
100
AcDbEntity
  8
0
100
AcDbBlockBegin
  2
SW_CENTERMARKSYMBOL_1
 70
     0
 10
0.0
 20
0.0
 30
0.0
  3
SW_CENTERMARKSYMBOL_1
  1

  0
LINE
  5
8576
330
8574
100
AcDbEntity
  8
0
  6
Continuous
 62
     0
370
     0
100
AcDbLine
 10
0.0
 20
0.0
 30
0.0
 11
0.0
 21
2.500000000000002
 31
0.0
  0
LINE
  5
8577
330
8574
100
AcDbEntity
  8
0
  6
Continuous
 62
     0
370
     0
100
AcDbLine
 10
0.0
 20
0.0
 30
0.0
 11
-2.500000000000002
 21
0.0
 31
0.0
  0
LINE
  5
8578
330
8574
100
AcDbEntity
  8
0
  6
Continuous
 62
     0
370
     0
100
AcDbLine
 10
0.0
 20
0.0
 30
0.0
 11
0.0
 21
-2.500000000000002
 31
0.0
  0
LINE
  5
8579
330
8574
100
AcDbEntity
  8
0
  6
Continuous
 62
     0
370
     0
100
AcDbLine
 10
0.0
 20
0.0
 30
0.0
 11
2.500000000000002
 21
0.0
 31
0.0
  0
LINE
  5
857A
330
8574
100
AcDbEntity
  8
0
  6
Continuous
 62
     0
370
     0
100
AcDbLine
 10
0.0
 20
5.000000000000004
 30
0.0
 11
0.0
 21
5.500000000000005
 31
0.0
  0
LINE
  5
857B
330
8574
100
AcDbEntity
  8
0
  6
Continuous
 62
     0
370
     0
100
AcDbLine
 10
-5.000000000000004
 20
0.0
 30
0.0
 11
-5.500000000000005
 21
0.0
 31
0.0
  0
LINE
  5
857C
330
8574
100
AcDbEntity
  8
0
  6
Continuous
 62
     0
370
     0
100
AcDbLine
 10
0.0
 20
-5.000000000000004
 30
0.0
 11
0.0
 21
-5.500000000000005
 31
0.0
  0
LINE
  5
857D
330
8574
100
AcDbEntity
  8
0
  6
Continuous
 62
     0
370
     0
100
AcDbLine
 10
5.000000000000004
 20
0.0
 30
0.0
 11
5.500000000000005
 21
0.0
 31
0.0
  0
ENDBLK
  5
857E
330
8574
100
AcDbEntity
  8
0
100
AcDbBlockEnd
  0
BLOCK
  5
A523
330
A517
100
AcDbEntity
  8
0
100
AcDbBlockBegin
  2
*D6
 70
     1
 10
0.0
 20
0.0
 30
0.0
  3
*D6
  1

  0
LINE
  5
B5ED
330
A517
100
AcDbEntity
  8
AM_REFDIM
100
AcDbLine
 10
689.9708164514587
 20
100.4541746803772
 30
0.0
 11
689.9708164514587
 21
87.46330356524623
 31
0.0
  0
LINE
  5
B5EE
330
A517
100
AcDbEntity
  8
AM_REFDIM
100
AcDbLine
 10
702.1708165469391
 20
100.4541737391357
 30
0.0
 11
702.1708165469391
 21
87.46330356524623
 31
0.0
  0
LINE
  5
B5EF
330
A517
100
AcDbEntity
  8
AM_REFDIM
100
AcDbLine
 10
693.4912383415959
 20
88.46913839099972
 30
0.0
 11
698.6503946568019
 21
88.46913839099972
 31
0.0
  0
SOLID
  5
B5F0
330
A517
100
AcDbEntity
  8
AM_REFDIM
100
AcDbTrace
 10
693.4912383415959
 20
89.05587537268925
 30
0.0
 11
693.4912383415959
 21
87.88240140931019
 31
0.0
 12
689.9708164514587
 22
88.46913839099972
 32
0.0
 13
689.9708164514587
 23
88.46913839099972
 33
0.0
  0
SOLID
  5
B5F1
330
A517
100
AcDbEntity
  8
AM_REFDIM
100
AcDbTrace
 10
698.6503946568019
 20
89.05587537268925
 30
0.0
 11
698.6503946568019
 21
87.88240140931019
 31
0.0
 12
702.1708165469391
 22
88.46913839099972
 32
0.0
 13
702.1708165469391
 23
88.46913839099972
 33
0.0
  0
MTEXT
  5
B5F2
330
A517
100
AcDbEntity
  8
AM_REFDIM
100
AcDbMText
 10
696.0708164991989
 20
91.23553066003934
 30
0.0
 40
3.520421890137194
 41
0.0
 71
     5
 72
     1
  1
12.2
 73
     1
 44
1.0
1001
ACAD
1000
MTEXTBEGIN
1070
    73
1070
     1
1070
    44
1040
1.0
1070
    74
1070
     0
1000
MTEXTEND
  0
POINT
  5
B5F3
330
A517
100
AcDbEntity
  8
Defpoints
 62
     0
100
AcDbPoint
 10
689.9708164514587
 20
101.4600095061307
 30
0.0
  0
POINT
  5
B5F4
330
A517
100
AcDbEntity
  8
Defpoints
 62
     0
100
AcDbPoint
 10
702.1708165469391
 20
101.4600085648892
 30
0.0
  0
POINT
  5
B5F5
330
A517
100
AcDbEntity
  8
Defpoints
 62
     0
100
AcDbPoint
 10
702.1708165469391
 20
88.46913839099972
 30
0.0
  0
ENDBLK
  5
A524
330
A517
100
AcDbEntity
  8
0
100
AcDbBlockEnd
  0
BLOCK
  5
A54B
330
A541
100
AcDbEntity
  8
0
100
AcDbBlockBegin
  2
*D7
 70
     1
 10
0.0
 20
0.0
 30
0.0
  3
*D7
  1

  0
LINE
  5
B5E4
330
A541
100
AcDbEntity
  8
AM_REFDIM
100
AcDbLine
 10
684.5708165442183
 20
97.98631141867771
 30
0.0
 11
684.5708165442183
 21
77.41297678258121
 31
0.0
  0
LINE
  5
B5E5
330
A541
100
AcDbEntity
  8
AM_REFDIM
100
AcDbLine
 10
707.5708161232605
 20
97.98631141867719
 30
0.0
 11
707.5708161232605
 21
77.41297678258121
 31
0.0
  0
LINE
  5
B5E6
330
A541
100
AcDbEntity
  8
AM_REFDIM
100
AcDbLine
 10
688.0912384343555
 20
78.41881160833469
 30
0.0
 11
704.0503942331233
 21
78.41881160833469
 31
0.0
  0
SOLID
  5
B5E7
330
A541
100
AcDbEntity
  8
AM_REFDIM
100
AcDbTrace
 10
688.0912384343555
 20
79.00554859002422
 30
0.0
 11
688.0912384343555
 21
77.83207462664517
 31
0.0
 12
684.5708165442183
 22
78.41881160833469
 32
0.0
 13
684.5708165442183
 23
78.41881160833469
 33
0.0
  0
SOLID
  5
B5E8
330
A541
100
AcDbEntity
  8
AM_REFDIM
100
AcDbTrace
 10
704.0503942331233
 20
79.00554859002422
 30
0.0
 11
704.0503942331233
 21
77.83207462664517
 31
0.0
 12
707.5708161232605
 22
78.41881160833469
 32
0.0
 13
707.5708161232605
 23
78.41881160833469
 33
0.0
  0
MTEXT
  5
B5E9
330
A541
100
AcDbEntity
  8
AM_REFDIM
100
AcDbMText
 10
696.0708163337394
 20
81.18520387737431
 30
0.0
 40
3.520421890137194
 41
0.0
 71
     5
 72
     1
  1
23
 73
     1
 44
1.0
1001
ACAD
1000
MTEXTBEGIN
1070
    73
1070
     1
1070
    44
1040
1.0
1070
    74
1070
     0
1000
MTEXTEND
  0
POINT
  5
B5EA
330
A541
100
AcDbEntity
  8
Defpoints
 62
     0
100
AcDbPoint
 10
684.5708165442183
 20
98.99214624443118
 30
0.0
  0
POINT
  5
B5EB
330
A541
100
AcDbEntity
  8
Defpoints
 62
     0
100
AcDbPoint
 10
707.5708161232605
 20
98.99214624443068
 30
0.0
  0
POINT
  5
B5EC
330
A541
100
AcDbEntity
  8
Defpoints
 62
     0
100
AcDbPoint
 10
707.5708161232605
 20
78.41881160833469
 30
0.0
  0
ENDBLK
  5
A54C
330
A541
100
AcDbEntity
  8
0
100
AcDbBlockEnd
  0
BLOCK
  5
A589
330
A57F
100
AcDbEntity
  8
0
100
AcDbBlockBegin
  2
*D8
 70
     1
 10
0.0
 20
0.0
 30
0.0
  3
*D8
  1

  0
LINE
  5
B566
330
A57F
100
AcDbEntity
  8
AM_REFDIM
100
AcDbLine
 10
742.703001002875
 20
140.9921473888889
 30
0.0
 11
762.4572458354037
 21
140.9921473888889
 31
0.0
  0
LINE
  5
B567
330
A57F
100
AcDbEntity
  8
AM_REFDIM
100
AcDbLine
 10
708.576650949014
 20
98.99214624443068
 30
0.0
 11
762.4572458354037
 21
98.99214624443066
 31
0.0
  0
LINE
  5
B568
330
A57F
100
AcDbEntity
  8
AM_REFDIM
100
AcDbLine
 10
761.4514110096502
 20
137.4717254987517
 30
0.0
 11
761.4514110096502
 21
102.5125681345678
 31
0.0
  0
SOLID
  5
B569
330
A57F
100
AcDbEntity
  8
AM_REFDIM
100
AcDbTrace
 10
760.8646740279606
 20
137.4717254987517
 30
0.0
 11
762.0381479913397
 21
137.4717254987517
 31
0.0
 12
761.4514110096502
 22
140.9921473888889
 32
0.0
 13
761.4514110096502
 23
140.9921473888889
 33
0.0
  0
SOLID
  5
B56A
330
A57F
100
AcDbEntity
  8
AM_REFDIM
100
AcDbTrace
 10
760.8646740279606
 20
102.5125681345678
 30
0.0
 11
762.0381479913397
 21
102.5125681345678
 31
0.0
 12
761.4514110096502
 22
98.99214624443066
 32
0.0
 13
761.4514110096502
 23
98.99214624443066
 33
0.0
  0
MTEXT
  5
B56B
330
A57F
100
AcDbEntity
  8
AM_REFDIM
100
AcDbMText
 10
758.6850187406105
 20
119.9921468166598
 30
0.0
 40
3.520421890137194
 41
0.0
 71
     5
 72
     1
  1
42
 11
0.0000000000000001
 21
1.0
 31
0.0
 73
     1
 44
1.0
1001
ACAD
1000
MTEXTBEGIN
1070
    73
1070
     1
1070
    44
1040
1.0
1070
    74
1070
     0
1000
MTEXTEND
  0
POINT
  5
B56C
330
A57F
100
AcDbEntity
  8
Defpoints
 62
     0
100
AcDbPoint
 10
741.6971661771214
 20
140.9921473888889
 30
0.0
  0
POINT
  5
B56D
330
A57F
100
AcDbEntity
  8
Defpoints
 62
     0
100
AcDbPoint
 10
707.5708161232605
 20
98.99214624443068
 30
0.0
  0
POINT
  5
B56E
330
A57F
100
AcDbEntity
  8
Defpoints
 62
     0
100
AcDbPoint
 10
761.4514110096502
 20
98.99214624443066
 30
0.0
  0
ENDBLK
  5
A58A
330
A57F
100
AcDbEntity
  8
0
100
AcDbBlockEnd
  0
BLOCK
  5
A62D
330
A623
100
AcDbEntity
  8
0
100
AcDbBlockBegin
  2
*D9
 70
     1
 10
0.0
 20
0.0
 30
0.0
  3
*D9
  1

  0
LINE
  5
B6A0
330
A623
100
AcDbEntity
  8
AM_REFDIM
100
AcDbLine
 10
788.5092475885955
 20
181.5301204012866
 30
0.0
 11
788.5092475885955
 21
188.423122693183
 31
0.0
  0
LINE
  5
B6A1
330
A623
100
AcDbEntity
  8
AM_REFDIM
100
AcDbLine
 10
845.0092466711346
 20
181.9979833351609
 30
0.0
 11
845.0092466711346
 21
188.423122693183
 31
0.0
  0
LINE
  5
B6A2
330
A623
100
AcDbEntity
  8
AM_REFDIM
100
AcDbLine
 10
792.0296694787327
 20
187.4172878674295
 30
0.0
 11
841.4888247809974
 21
187.4172878674295
 31
0.0
  0
SOLID
  5
B6A3
330
A623
100
AcDbEntity
  8
AM_REFDIM
100
AcDbTrace
 10
792.0296694787327
 20
188.004024849119
 30
0.0
 11
792.0296694787327
 21
186.8305508857399
 31
0.0
 12
788.5092475885955
 22
187.4172878674295
 32
0.0
 13
788.5092475885955
 23
187.4172878674295
 33
0.0
  0
SOLID
  5
B6A4
330
A623
100
AcDbEntity
  8
AM_REFDIM
100
AcDbTrace
 10
841.4888247809974
 20
188.004024849119
 30
0.0
 11
841.4888247809974
 21
186.8305508857399
 31
0.0
 12
845.0092466711346
 22
187.4172878674295
 32
0.0
 13
845.0092466711346
 23
187.4172878674295
 33
0.0
  0
MTEXT
  5
B6A5
330
A623
100
AcDbEntity
  8
AM_REFDIM
100
AcDbMText
 10
816.759247129865
 20
190.1833336382516
 30
0.0
 40
3.520421890137194
 41
0.0
 71
     5
 72
     1
  1
56.5
 73
     1
 44
1.0
1001
ACAD
1000
MTEXTBEGIN
1070
    73
1070
     1
1070
    44
1040
1.0
1070
    74
1070
     0
1000
MTEXTEND
  0
POINT
  5
B6A6
330
A623
100
AcDbEntity
  8
Defpoints
 62
     0
100
AcDbPoint
 10
788.5092475885955
 20
180.5242855755331
 30
0.0
  0
POINT
  5
B6A7
330
A623
100
AcDbEntity
  8
Defpoints
 62
     0
100
AcDbPoint
 10
845.0092466711346
 20
180.9921485094074
 30
0.0
  0
POINT
  5
B6A8
330
A623
100
AcDbEntity
  8
Defpoints
 62
     0
100
AcDbPoint
 10
845.0092466711346
 20
187.4172878674295
 30
0.0
  0
ENDBLK
  5
A62E
330
A623
100
AcDbEntity
  8
0
100
AcDbBlockEnd
  0
BLOCK
  5
A686
330
A67C
100
AcDbEntity
  8
0
100
AcDbBlockBegin
  2
*D10
 70
     1
 10
0.0
 20
0.0
 30
0.0
  3
*D10
  1

  0
LINE
  5
B668
330
A67C
100
AcDbEntity
  8
AM_REFDIM
100
AcDbLine
 10
846.015081496888
 20
180.9921485094074
 30
0.0
 11
854.4877546276245
 21
180.9921485094074
 31
0.0
  0
LINE
  5
B669
330
A67C
100
AcDbEntity
  8
AM_REFDIM
100
AcDbLine
 10
846.015081496888
 20
100.9921465722564
 30
0.0
 11
854.4877546276245
 21
100.9921465722564
 31
0.0
  0
LINE
  5
B66A
330
A67C
100
AcDbEntity
  8
AM_REFDIM
100
AcDbLine
 10
853.4819198018711
 20
177.4717266192702
 30
0.0
 11
853.4819198018711
 21
104.5125684623936
 31
0.0
  0
SOLID
  5
B66B
330
A67C
100
AcDbEntity
  8
AM_REFDIM
100
AcDbTrace
 10
852.8951828201815
 20
177.4717266192702
 30
0.0
 11
854.0686567835606
 21
177.4717266192702
 31
0.0
 12
853.4819198018711
 22
180.9921485094074
 32
0.0
 13
853.4819198018711
 23
180.9921485094074
 33
0.0
  0
SOLID
  5
B66C
330
A67C
100
AcDbEntity
  8
AM_REFDIM
100
AcDbTrace
 10
852.8951828201815
 20
104.5125684623936
 30
0.0
 11
854.0686567835606
 21
104.5125684623936
 31
0.0
 12
853.4819198018711
 22
100.9921465722564
 32
0.0
 13
853.4819198018711
 23
100.9921465722564
 33
0.0
  0
MTEXT
  5
B66D
330
A67C
100
AcDbEntity
  8
AM_REFDIM
100
AcDbMText
 10
850.715874031049
 20
140.9921475408321
 30
0.0
 40
3.520421890137194
 41
0.0
 71
     5
 72
     1
  1
80
 11
0.0000000000000001
 21
1.0
 31
0.0
 73
     1
 44
1.0
1001
ACAD
1000
MTEXTBEGIN
1070
    73
1070
     1
1070
    44
1040
1.0
1070
    74
1070
     0
1000
MTEXTEND
  0
POINT
  5
B66E
330
A67C
100
AcDbEntity
  8
Defpoints
 62
     0
100
AcDbPoint
 10
845.0092466711346
 20
180.9921485094074
 30
0.0
  0
POINT
  5
B66F
330
A67C
100
AcDbEntity
  8
Defpoints
 62
     0
100
AcDbPoint
 10
845.0092466711346
 20
100.9921465722564
 30
0.0
  0
POINT
  5
B670
330
A67C
100
AcDbEntity
  8
Defpoints
 62
     0
100
AcDbPoint
 10
853.4819198018711
 20
100.9921465722564
 30
0.0
  0
ENDBLK
  5
A687
330
A67C
100
AcDbEntity
  8
0
100
AcDbBlockEnd
  0
BLOCK
  5
A6AC
330
A6A2
100
AcDbEntity
  8
0
100
AcDbBlockBegin
  2
*D11
 70
     1
 10
0.0
 20
0.0
 30
0.0
  3
*D11
  1

  0
LINE
  5
B696
330
A6A2
100
AcDbEntity
  8
AM_REFDIM
100
AcDbLine
 10
845.0092466711346
 20
99.98631174650297
 30
0.0
 11
845.0092466711346
 21
87.46330356524623
 31
0.0
  0
LINE
  5
B697
330
A6A2
100
AcDbEntity
  8
AM_REFDIM
100
AcDbLine
 10
805.5092467158381
 20
97.98631141867719
 30
0.0
 11
805.5092467158381
 21
87.46330356524623
 31
0.0
  0
LINE
  5
B698
330
A6A2
100
AcDbEntity
  8
AM_REFDIM
100
AcDbLine
 10
841.4888247809974
 20
88.46913839099972
 30
0.0
 11
809.0296686059753
 21
88.46913839099972
 31
0.0
  0
SOLID
  5
B699
330
A6A2
100
AcDbEntity
  8
AM_REFDIM
100
AcDbTrace
 10
841.4888247809974
 20
89.05587537268925
 30
0.0
 11
841.4888247809974
 21
87.88240140931019
 31
0.0
 12
845.0092466711346
 22
88.46913839099972
 32
0.0
 13
845.0092466711346
 23
88.46913839099972
 33
0.0
  0
SOLID
  5
B69A
330
A6A2
100
AcDbEntity
  8
AM_REFDIM
100
AcDbTrace
 10
809.0296686059753
 20
89.05587537268925
 30
0.0
 11
809.0296686059753
 21
87.88240140931019
 31
0.0
 12
805.5092467158381
 22
88.46913839099972
 32
0.0
 13
805.5092467158381
 23
88.46913839099972
 33
0.0
  0
MTEXT
  5
B69B
330
A6A2
100
AcDbEntity
  8
AM_REFDIM
100
AcDbMText
 10
825.2592466934864
 20
91.23518416182179
 30
0.0
 40
3.520421890137194
 41
0.0
 71
     5
 72
     1
  1
39.5
 73
     1
 44
1.0
1001
ACAD
1000
MTEXTBEGIN
1070
    73
1070
     1
1070
    44
1040
1.0
1070
    74
1070
     0
1000
MTEXTEND
  0
POINT
  5
B69C
330
A6A2
100
AcDbEntity
  8
Defpoints
 62
     0
100
AcDbPoint
 10
845.0092466711346
 20
100.9921465722564
 30
0.0
  0
POINT
  5
B69D
330
A6A2
100
AcDbEntity
  8
Defpoints
 62
     0
100
AcDbPoint
 10
805.5092467158381
 20
98.99214624443068
 30
0.0
  0
POINT
  5
B69E
330
A6A2
100
AcDbEntity
  8
Defpoints
 62
     0
100
AcDbPoint
 10
805.5092467158381
 20
88.46913839099972
 30
0.0
  0
ENDBLK
  5
A6AD
330
A6A2
100
AcDbEntity
  8
0
100
AcDbBlockEnd
  0
BLOCK
  5
A731
330
A725
100
AcDbEntity
  8
0
100
AcDbBlockBegin
  2
*D12
 70
     1
 10
0.0
 20
0.0
 30
0.0
  3
*D12
  1

  0
LINE
  5
B627
330
A725
100
AcDbEntity
  8
AM_REFDIM
100
AcDbLine
 10
786.5092473267857
 20
155.7479822920794
 30
0.0
 11
786.5092473267857
 21
188.4231226931829
 31
0.0
  0
LINE
  5
B628
330
A725
100
AcDbEntity
  8
AM_REFDIM
100
AcDbLine
 10
788.5092475885955
 20
181.5301204012866
 30
0.0
 11
788.5092475885955
 21
188.4231226931829
 31
0.0
  0
LINE
  5
B629
330
A725
100
AcDbEntity
  8
AM_REFDIM
100
AcDbLine
 10
782.9888254366485
 20
187.4172878674295
 30
0.0
 11
779.4684035465113
 21
187.4172878674295
 31
0.0
  0
LINE
  5
B62A
330
A725
100
AcDbEntity
  8
AM_REFDIM
100
AcDbLine
 10
792.0296694787327
 20
187.4172878674295
 30
0.0
 11
795.5500913688699
 21
187.4172878674295
 31
0.0
  0
LINE
  5
B62B
330
A725
100
AcDbEntity
  8
AM_REFDIM
100
AcDbLine
 10
786.5092473267857
 20
187.4172878674295
 30
0.0
 11
788.5092475885955
 21
187.4172878674295
 31
0.0
  0
SOLID
  5
B62C
330
A725
100
AcDbEntity
  8
AM_REFDIM
100
AcDbTrace
 10
782.9888254366485
 20
188.004024849119
 30
0.0
 11
782.9888254366485
 21
186.8305508857399
 31
0.0
 12
786.5092473267857
 22
187.4172878674295
 32
0.0
 13
786.5092473267857
 23
187.4172878674295
 33
0.0
  0
SOLID
  5
B62D
330
A725
100
AcDbEntity
  8
AM_REFDIM
100
AcDbTrace
 10
792.0296694787327
 20
188.004024849119
 30
0.0
 11
792.0296694787327
 21
186.8305508857399
 31
0.0
 12
788.5092475885955
 22
187.4172878674295
 32
0.0
 13
788.5092475885955
 23
187.4172878674295
 33
0.0
  0
MTEXT
  5
B62E
330
A725
100
AcDbEntity
  8
AM_REFDIM
100
AcDbMText
 10
787.5092474576907
 20
190.1836801364691
 30
0.0
 40
3.520421890137194
 41
0.0
 71
     5
 72
     1
  1
2
 73
     1
 44
1.0
1001
ACAD
1000
MTEXTBEGIN
1070
    73
1070
     1
1070
    44
1040
1.0
1070
    74
1070
     0
1000
MTEXTEND
  0
POINT
  5
B62F
330
A725
100
AcDbEntity
  8
Defpoints
 62
     0
100
AcDbPoint
 10
786.5092473267857
 20
154.7421474663259
 30
0.0
  0
POINT
  5
B630
330
A725
100
AcDbEntity
  8
Defpoints
 62
     0
100
AcDbPoint
 10
788.5092475885955
 20
180.5242855755331
 30
0.0
  0
POINT
  5
B631
330
A725
100
AcDbEntity
  8
Defpoints
 62
     0
100
AcDbPoint
 10
788.5092475885955
 20
187.4172878674295
 30
0.0
  0
ENDBLK
  5
A732
330
A725
100
AcDbEntity
  8
0
100
AcDbBlockEnd
  0
BLOCK
  5
A788
330
A77C
100
AcDbEntity
  8
0
100
AcDbBlockBegin
  2
*D13
 70
     1
 10
0.0
 20
0.0
 30
0.0
  3
*D13
  1

  0
LINE
  5
B53C
330
A77C
100
AcDbEntity
  8
AM_REFDIM
100
AcDbLine
 10
697.0766513726914
 20
119.9921473888889
 30
0.0
 11
742.9887682329917
 21
119.9921473888889
 31
0.0
  0
LINE
  5
B53D
330
A77C
100
AcDbEntity
  8
AM_REFDIM
100
AcDbLine
 10
697.0766513726913
 20
111.9921473888889
 30
0.0
 11
742.9887682329917
 21
111.9921473888889
 31
0.0
  0
LINE
  5
B53E
330
A77C
100
AcDbEntity
  8
AM_REFDIM
100
AcDbLine
 10
741.9829334072383
 20
123.5125692790261
 30
0.0
 11
741.9829334072383
 21
127.0329911691633
 31
0.0
  0
LINE
  5
B53F
330
A77C
100
AcDbEntity
  8
AM_REFDIM
100
AcDbLine
 10
741.9829334072383
 20
108.4717254987517
 30
0.0
 11
741.9829334072383
 21
104.9513036086145
 31
0.0
  0
LINE
  5
B540
330
A77C
100
AcDbEntity
  8
AM_REFDIM
100
AcDbLine
 10
741.9829334072383
 20
119.9921473888889
 30
0.0
 11
741.9829334072383
 21
111.9921473888889
 31
0.0
  0
SOLID
  5
B541
330
A77C
100
AcDbEntity
  8
AM_REFDIM
100
AcDbTrace
 10
741.3961964255487
 20
123.5125692790261
 30
0.0
 11
742.5696703889278
 21
123.5125692790261
 31
0.0
 12
741.9829334072383
 22
119.9921473888889
 32
0.0
 13
741.9829334072383
 23
119.9921473888889
 33
0.0
  0
SOLID
  5
B542
330
A77C
100
AcDbEntity
  8
AM_REFDIM
100
AcDbTrace
 10
741.3961964255487
 20
108.4717254987517
 30
0.0
 11
742.5696703889278
 21
108.4717254987517
 31
0.0
 12
741.9829334072383
 22
111.9921473888889
 32
0.0
 13
741.9829334072383
 23
111.9921473888889
 33
0.0
  0
MTEXT
  5
B543
330
A77C
100
AcDbEntity
  8
AM_REFDIM
100
AcDbMText
 10
739.2168876364162
 20
115.992147388889
 30
0.0
 40
3.520421890137194
 41
0.0
 71
     5
 72
     1
  1
8
 11
0.0000000000000001
 21
1.0
 31
0.0
 73
     1
 44
1.0
1001
ACAD
1000
MTEXTBEGIN
1070
    73
1070
     1
1070
    44
1040
1.0
1070
    74
1070
     0
1000
MTEXTEND
  0
POINT
  5
B544
330
A77C
100
AcDbEntity
  8
Defpoints
 62
     0
100
AcDbPoint
 10
696.0708165469379
 20
119.9921473888889
 30
0.0
  0
POINT
  5
B545
330
A77C
100
AcDbEntity
  8
Defpoints
 62
     0
100
AcDbPoint
 10
696.0708165469378
 20
111.9921473888889
 30
0.0
  0
POINT
  5
B546
330
A77C
100
AcDbEntity
  8
Defpoints
 62
     0
100
AcDbPoint
 10
741.9829334072383
 20
111.9921473888889
 30
0.0
  0
ENDBLK
  5
A789
330
A77C
100
AcDbEntity
  8
0
100
AcDbBlockEnd
  0
BLOCK
  5
A7B0
330
A7A6
100
AcDbEntity
  8
0
100
AcDbBlockBegin
  2
*D14
 70
     1
 10
0.0
 20
0.0
 30
0.0
  3
*D14
  1

  0
LINE
  5
B4DD
330
A7A6
100
AcDbEntity
  8
AM_REFDIM
100
AcDbLine
 10
697.0766513726914
 20
119.9921473888889
 30
0.0
 11
752.3637701577243
 21
119.9921473888889
 31
0.0
  0
LINE
  5
B4DE
330
A7A6
100
AcDbEntity
  8
AM_REFDIM
100
AcDbLine
 10
697.0766513726913
 20
103.9921473888889
 30
0.0
 11
752.3637701577243
 21
103.9921473888889
 31
0.0
  0
LINE
  5
B4DF
330
A7A6
100
AcDbEntity
  8
AM_REFDIM
100
AcDbLine
 10
751.3579353319707
 20
116.4717254987517
 30
0.0
 11
751.3579353319707
 21
107.5125692790261
 31
0.0
  0
SOLID
  5
B4E0
330
A7A6
100
AcDbEntity
  8
AM_REFDIM
100
AcDbTrace
 10
750.7711983502812
 20
116.4717254987517
 30
0.0
 11
751.9446723136603
 21
116.4717254987517
 31
0.0
 12
751.3579353319707
 22
119.9921473888889
 32
0.0
 13
751.3579353319707
 23
119.9921473888889
 33
0.0
  0
SOLID
  5
B4E1
330
A7A6
100
AcDbEntity
  8
AM_REFDIM
100
AcDbTrace
 10
750.7711983502812
 20
107.5125692790261
 30
0.0
 11
751.9446723136603
 21
107.5125692790261
 31
0.0
 12
751.3579353319707
 22
103.9921473888889
 32
0.0
 13
751.3579353319707
 23
103.9921473888889
 33
0.0
  0
MTEXT
  5
B4E2
330
A7A6
100
AcDbEntity
  8
AM_REFDIM
100
AcDbMText
 10
748.5918895611487
 20
111.2778768024299
 30
0.0
 40
3.520421890137194
 41
0.0
 71
     5
 72
     1
  1
16
 11
0.0000000000000001
 21
1.0
 31
0.0
 73
     1
 44
1.0
1001
ACAD
1000
MTEXTBEGIN
1070
    73
1070
     1
1070
    44
1040
1.0
1070
    74
1070
     0
1000
MTEXTEND
  0
POINT
  5
B4E3
330
A7A6
100
AcDbEntity
  8
Defpoints
 62
     0
100
AcDbPoint
 10
696.0708165469379
 20
119.9921473888889
 30
0.0
  0
POINT
  5
B4E4
330
A7A6
100
AcDbEntity
  8
Defpoints
 62
     0
100
AcDbPoint
 10
696.0708165469378
 20
103.9921473888889
 30
0.0
  0
POINT
  5
B4E5
330
A7A6
100
AcDbEntity
  8
Defpoints
 62
     0
100
AcDbPoint
 10
751.3579353319707
 20
103.9921473888889
 30
0.0
  0
ENDBLK
  5
A7B1
330
A7A6
100
AcDbEntity
  8
0
100
AcDbBlockEnd
  0
BLOCK
  5
A7D8
330
A7CC
100
AcDbEntity
  8
0
100
AcDbBlockBegin
  2
*D15
 70
     1
 10
0.0
 20
0.0
 30
0.0
  3
*D15
  1

  0
LINE
  5
B55B
330
A7CC
100
AcDbEntity
  8
AM_REFDIM
100
AcDbLine
 10
697.0766513726913
 20
103.9921473888889
 30
0.0
 11
742.9887682329917
 21
103.9921473888889
 31
0.0
  0
LINE
  5
B55C
330
A7CC
100
AcDbEntity
  8
AM_REFDIM
100
AcDbLine
 10
708.576650949014
 20
98.99214624443068
 30
0.0
 11
742.9887682329917
 21
98.99214624443066
 31
0.0
  0
LINE
  5
B55D
330
A7CC
100
AcDbEntity
  8
AM_REFDIM
100
AcDbLine
 10
741.9829334072383
 20
107.5125692790261
 30
0.0
 11
741.9829334072383
 21
111.0329911691633
 31
0.0
  0
LINE
  5
B55E
330
A7CC
100
AcDbEntity
  8
AM_REFDIM
100
AcDbLine
 10
741.9829334072383
 20
95.47172435429345
 30
0.0
 11
741.9829334072383
 21
91.95130246415628
 31
0.0
  0
LINE
  5
B55F
330
A7CC
100
AcDbEntity
  8
AM_REFDIM
100
AcDbLine
 10
741.9829334072383
 20
103.9921473888889
 30
0.0
 11
741.9829334072383
 21
98.99214624443066
 31
0.0
  0
SOLID
  5
B560
330
A7CC
100
AcDbEntity
  8
AM_REFDIM
100
AcDbTrace
 10
741.3961964255487
 20
107.5125692790261
 30
0.0
 11
742.5696703889278
 21
107.5125692790261
 31
0.0
 12
741.9829334072383
 22
103.9921473888889
 32
0.0
 13
741.9829334072383
 23
103.9921473888889
 33
0.0
  0
SOLID
  5
B561
330
A7CC
100
AcDbEntity
  8
AM_REFDIM
100
AcDbTrace
 10
741.3961964255487
 20
95.47172435429345
 30
0.0
 11
742.5696703889278
 21
95.47172435429345
 31
0.0
 12
741.9829334072383
 22
98.99214624443066
 32
0.0
 13
741.9829334072383
 23
98.99214624443066
 33
0.0
  0
MTEXT
  5
B562
330
A7CC
100
AcDbEntity
  8
AM_REFDIM
100
AcDbMText
 10
739.2168876364162
 20
101.4921468166599
 30
0.0
 40
3.520421890137194
 41
0.0
 71
     5
 72
     1
  1
5
 11
0.0000000000000001
 21
1.0
 31
0.0
 73
     1
 44
1.0
1001
ACAD
1000
MTEXTBEGIN
1070
    73
1070
     1
1070
    44
1040
1.0
1070
    74
1070
     0
1000
MTEXTEND
  0
POINT
  5
B563
330
A7CC
100
AcDbEntity
  8
Defpoints
 62
     0
100
AcDbPoint
 10
696.0708165469378
 20
103.9921473888889
 30
0.0
  0
POINT
  5
B564
330
A7CC
100
AcDbEntity
  8
Defpoints
 62
     0
100
AcDbPoint
 10
707.5708161232605
 20
98.99214624443068
 30
0.0
  0
POINT
  5
B565
330
A7CC
100
AcDbEntity
  8
Defpoints
 62
     0
100
AcDbPoint
 10
741.9829334072383
 20
98.99214624443066
 30
0.0
  0
ENDBLK
  5
A7D9
330
A7CC
100
AcDbEntity
  8
0
100
AcDbBlockEnd
  0
BLOCK
  5
B702
330
B6F6
100
AcDbEntity
  8
0
100
AcDbBlockBegin
  2
*D16
 70
     1
 10
0.0
 20
0.0
 30
0.0
  3
*D16
  1

  0
LINE
  5
B705
330
B6F6
100
AcDbEntity
  8
AM_REFDIM
100
AcDbLine
 10
678.4050104051902
 20
170.3929854987108
 30
0.0
 11
668.3018562624862
 21
187.2074573074022
 31
0.0
  0
LINE
  5
B706
330
B6F6
100
AcDbEntity
  8
AM_REFDIM
100
AcDbLine
 10
664.9844601216415
 20
126.4963408511164
 30
0.0
 11
647.206032268931
 21
118.2061235232044
 31
0.0
  0
ARC
  5
B707
330
B6F6
100
AcDbEntity
  8
AM_REFDIM
100
AcDbCircle
 10
696.0708165469377
 20
140.9921473888889
 30
0.0
 40
52.91632430112129
100
AcDbArc
 50
123.707157052149
 51
202.2928441717309
  0
SOLID
  5
B708
330
B6F6
100
AcDbEntity
  8
AM_REFDIM
100
AcDbTrace
 10
666.4820138436157
 20
185.3644177298127
 30
0.0
 11
666.9279659620016
 21
184.6604495824142
 31
0.0
 12
668.8168943450039
 22
186.3502900112712
 32
0.0
 13
668.8168943450039
 23
186.3502900112712
 33
0.0
  0
SOLID
  5
B709
330
B6F6
100
AcDbEntity
  8
AM_REFDIM
100
AcDbTrace
 10
647.4912941726434
 20
121.085958337079
 30
0.0
 11
646.727929125786
 21
120.7517155365869
 31
0.0
 12
648.1123400506911
 22
118.6287417962607
 32
0.0
 13
648.1123400506911
 23
118.6287417962607
 33
0.0
  0
MTEXT
  5
B70A
330
B6F6
100
AcDbEntity
  8
AM_REFDIM
 62
     2
100
AcDbMText
 10
642.3586933174261
 20
157.4135907991527
 30
0.0
 40
3.5
 41
0.0
 71
     5
 72
     1
  1
84°
 11
0.2923716945090503
 21
0.9563047590856726
 31
0.0
 73
     1
 44
1.0
1001
ACAD
1000
MTEXTBEGIN
1070
    73
1070
     1
1070
    44
1040
1.0
1070
    74
1070
     0
1000
MTEXTEND
  0
POINT
  5
B70B
330
B6F6
100
AcDbEntity
  8
Defpoints
 62
     0
100
AcDbPoint
 10
650.7126734079843
 20
168.246068731104
 30
0.0
  0
POINT
  5
B70C
330
B6F6
100
AcDbEntity
  8
Defpoints
 62
     0
100
AcDbPoint
 10
696.0708165469377
 20
140.9921473888889
 30
0.0
  0
POINT
  5
B70D
330
B6F6
100
AcDbEntity
  8
Defpoints
 62
     0
100
AcDbPoint
 10
696.0708165469377
 20
140.9921473888889
 30
0.0
  0
POINT
  5
B70E
330
B6F6
100
AcDbEntity
  8
Defpoints
 62
     0
100
AcDbPoint
 10
665.8907679034015
 20
126.9189591241727
 30
0.0
  0
POINT
  5
B70F
330
B6F6
100
AcDbEntity
  8
Defpoints
 62
     0
100
AcDbPoint
 10
678.9200484877081
 20
169.5358182025797
 30
0.0
  0
ENDBLK
  5
B703
330
B6F6
100
AcDbEntity
  8
0
100
AcDbBlockEnd
  0
BLOCK
  5
B71E
330
B712
100
AcDbEntity
  8
0
100
AcDbBlockBegin
  2
*D17
 70
     1
 10
0.0
 20
0.0
 30
0.0
  3
*D17
  1

  0
LINE
  5
B721
330
B712
100
AcDbEntity
  8
AM_REFDIM
100
AcDbLine
 10
664.9844601216416
 20
126.4963408511165
 30
0.0
 11
636.7165731474383
 21
113.3148082455061
 31
0.0
  0
LINE
  5
B722
330
B712
100
AcDbEntity
  8
AM_REFDIM
100
AcDbLine
 10
679.4418462817263
 20
110.9926923373962
 30
0.0
 11
664.3205548484386
 21
83.71316176884091
 31
0.0
  0
ARC
  5
B723
330
B712
100
AcDbEntity
  8
AM_REFDIM
100
AcDbCircle
 10
696.0708165469379
 20
140.9921473888889
 30
0.0
 40
64.49016194501941
100
AcDbArc
 50
207.2212452430294
 51
238.7787543159295
  0
SOLID
  5
B724
330
B712
100
AcDbEntity
  8
AM_REFDIM
100
AcDbTrace
 10
638.3490009203597
 20
111.3091841769607
 30
0.0
 11
639.0972892478433
 21
111.6759388952617
 31
0.0
 12
637.6228809291985
 22
113.7374265185624
 32
0.0
 13
637.6228809291985
 23
113.7374265185624
 33
0.0
  0
SOLID
  5
B725
330
B712
100
AcDbEntity
  8
AM_REFDIM
100
AcDbTrace
 10
662.8517480808735
 20
86.2024003225863
 30
0.0
 11
662.433688798015
 21
85.48151830695525
 31
0.0
 12
664.8053644863374
 22
84.58778146619534
 32
0.0
 13
664.8053644863374
 23
84.58778146619534
 33
0.0
  0
MTEXT
  5
B726
330
B712
100
AcDbEntity
  8
AM_REFDIM
 62
     2
100
AcDbMText
 10
651.2825972599423
 20
99.22645754480521
 30
0.0
 40
3.5
 41
0.0
 71
     5
 72
     1
  1
36°
 11
0.6819983572476573
 21
-0.7313537042440525
 31
0.0
 73
     1
 44
1.0
1001
ACAD
1000
MTEXTBEGIN
1070
    73
1070
     1
1070
    44
1040
1.0
1070
    74
1070
     0
1000
MTEXTEND
  0
POINT
  5
B727
330
B712
100
AcDbEntity
  8
Defpoints
 62
     0
100
AcDbPoint
 10
644.5666832308846
 20
102.1809990026708
 30
0.0
  0
POINT
  5
B728
330
B712
100
AcDbEntity
  8
Defpoints
 62
     0
100
AcDbPoint
 10
696.0708165469379
 20
140.9921473888889
 30
0.0
  0
POINT
  5
B729
330
B712
100
AcDbEntity
  8
Defpoints
 62
     0
100
AcDbPoint
 10
696.0708165469379
 20
140.9921473888889
 30
0.0
  0
POINT
  5
B72A
330
B712
100
AcDbEntity
  8
Defpoints
 62
     0
100
AcDbPoint
 10
679.9266559196252
 20
111.8673120347507
 30
0.0
  0
POINT
  5
B72B
330
B712
100
AcDbEntity
  8
Defpoints
 62
     0
100
AcDbPoint
 10
665.8907679034017
 20
126.9189591241727
 30
0.0
  0
ENDBLK
  5
B71F
330
B712
100
AcDbEntity
  8
0
100
AcDbBlockEnd
  0
BLOCK
  5
B73A
330
B72E
100
AcDbEntity
  8
0
100
AcDbBlockBegin
  2
*D18
 70
     1
 10
0.0
 20
0.0
 30
0.0
  3
*D18
  1

  0
LINE
  5
B73D
330
B72E
100
AcDbEntity
  8
AM_REFDIM
100
AcDbLine
 10
696.0708165469378
 20
187.6184970190725
 30
0.0
 11
696.0708165469378
 21
203.4414954194669
 31
0.0
  0
LINE
  5
B73E
330
B72E
100
AcDbEntity
  8
AM_REFDIM
100
AcDbLine
 10
678.4050104051904
 20
170.3929854987107
 30
0.0
 11
663.9070240827887
 21
194.521686185402
 31
0.0
  0
ARC
  5
B73F
330
B72E
100
AcDbEntity
  8
AM_REFDIM
100
AcDbCircle
 10
696.0708165469377
 20
140.992147388889
 30
0.0
 40
61.44934803057784
100
AcDbArc
 50
92.33117736553536
 51
118.6688231429835
  0
SOLID
  5
B740
330
B72E
100
AcDbEntity
  8
AM_REFDIM
100
AcDbTrace
 10
693.5628580290308
 20
202.8072209771861
 30
0.0
 11
693.5798096599277
 21
201.9740600763666
 31
0.0
 12
696.0708165469378
 22
202.4414954194669
 32
0.0
 13
696.0708165469378
 23
202.4414954194669
 33
0.0
  0
SOLID
  5
B741
330
B72E
100
AcDbEntity
  8
AM_REFDIM
100
AcDbTrace
 10
666.7980188061
 20
194.5468120107337
 30
0.0
 11
666.3834395969339
 21
195.2697010228039
 31
0.0
 12
664.4220621653065
 22
193.664518889271
 32
0.0
 13
664.4220621653065
 23
193.664518889271
 33
0.0
  0
MTEXT
  5
B742
330
B72E
100
AcDbEntity
  8
AM_REFDIM
 62
     2
100
AcDbMText
 10
678.7806675692523
 20
203.3384093771693
 30
0.0
 40
3.5
 41
0.0
 71
     5
 72
     1
  1
31°
 11
0.963630452022709
 21
0.267238380354524
 31
0.0
 73
     1
 44
1.0
1001
ACAD
1000
MTEXTBEGIN
1070
    73
1070
     1
1070
    44
1040
1.0
1070
    74
1070
     0
1000
MTEXTEND
  0
POINT
  5
B743
330
B72E
100
AcDbEntity
  8
Defpoints
 62
     0
100
AcDbPoint
 10
685.0483650089804
 20
201.4448391029596
 30
0.0
  0
POINT
  5
B744
330
B72E
100
AcDbEntity
  8
Defpoints
 62
     0
100
AcDbPoint
 10
696.0708165469378
 20
140.9921473888889
 30
0.0
  0
POINT
  5
B745
330
B72E
100
AcDbEntity
  8
Defpoints
 62
     0
100
AcDbPoint
 10
696.0708165469377
 20
186.6184970190725
 30
0.0
  0
POINT
  5
B746
330
B72E
100
AcDbEntity
  8
Defpoints
 62
     0
100
AcDbPoint
 10
696.0708165469378
 20
95.36579775870535
 30
0.0
  0
POINT
  5
B747
330
B72E
100
AcDbEntity
  8
Defpoints
 62
     0
100
AcDbPoint
 10
678.920048487708
 20
169.5358182025797
 30
0.0
  0
ENDBLK
  5
B73B
330
B72E
100
AcDbEntity
  8
0
100
AcDbBlockEnd
  0
BLOCK
  5
B756
330
B74A
100
AcDbEntity
  8
0
100
AcDbBlockBegin
  2
*D19
 70
     1
 10
0.0
 20
0.0
 30
0.0
  3
*D19
  1

  0
LINE
  5
B759
330
B74A
100
AcDbEntity
  8
AM_REFDIM
100
AcDbLine
 10
679.4418462817262
 20
110.9926923373961
 30
0.0
 11
662.6966805436577
 21
80.78361511390127
 31
0.0
  0
LINE
  5
B75A
330
B74A
100
AcDbEntity
  8
AM_REFDIM
100
AcDbLine
 10
696.0708165469377
 20
94.36579775870535
 30
0.0
 11
696.0708165469377
 21
72.15247632144659
 31
0.0
  0
ARC
  5
B75B
330
B74A
100
AcDbEntity
  8
AM_REFDIM
100
AcDbCircle
 10
696.0708165469377
 20
140.9921473888888
 30
0.0
 40
67.83967106744231
100
AcDbArc
 50
243.111559129361
 51
267.8884397142368
  0
SOLID
  5
B75C
330
B74A
100
AcDbEntity
  8
AM_REFDIM
100
AcDbTrace
 10
665.1947458225862
 20
80.11862030269412
 30
0.0
 11
665.5852556285505
 21
80.85479048403135
 31
0.0
 12
663.1814901815566
 22
81.65823481125574
 32
0.0
 13
663.1814901815566
 23
81.65823481125574
 33
0.0
  0
SOLID
  5
B75D
330
B74A
100
AcDbEntity
  8
AM_REFDIM
100
AcDbTrace
 10
693.5789183858234
 20
73.61513674307923
 30
0.0
 11
693.5635635550839
 21
72.78194488425111
 31
0.0
 12
696.0708165469378
 22
73.15247632144656
 32
0.0
 13
696.0708165469378
 23
73.15247632144656
 33
0.0
  0
MTEXT
  5
B75E
330
B74A
100
AcDbEntity
  8
AM_REFDIM
 62
     2
100
AcDbMText
 10
679.898940065108
 20
78.46014343077249
 30
0.0
 40
3.5
 41
0.0
 71
     5
 72
     1
  1
29°
 11
0.9681476378513945
 21
-0.2503800138245165
 31
0.0
 73
     1
 44
1.0
1001
ACAD
1000
MTEXTBEGIN
1070
    73
1070
     1
1070
    44
1040
1.0
1070
    74
1070
     0
1000
MTEXTEND
  0
POINT
  5
B75F
330
B74A
100
AcDbEntity
  8
Defpoints
 62
     0
100
AcDbPoint
 10
673.6115823138268
 20
76.97805700090452
 30
0.0
  0
POINT
  5
B760
330
B74A
100
AcDbEntity
  8
Defpoints
 62
     0
100
AcDbPoint
 10
696.0708165469377
 20
140.992147388889
 30
0.0
  0
POINT
  5
B761
330
B74A
100
AcDbEntity
  8
Defpoints
 62
     0
100
AcDbPoint
 10
696.0708165469377
 20
186.6184970190725
 30
0.0
  0
POINT
  5
B762
330
B74A
100
AcDbEntity
  8
Defpoints
 62
     0
100
AcDbPoint
 10
696.0708165469377
 20
95.36579775870533
 30
0.0
  0
POINT
  5
B763
330
B74A
100
AcDbEntity
  8
Defpoints
 62
     0
100
AcDbPoint
 10
679.9266559196251
 20
111.8673120347507
 30
0.0
  0
ENDBLK
  5
B757
330
B74A
100
AcDbEntity
  8
0
100
AcDbBlockEnd
  0
ENDSEC
  0
SECTION
  2
ENTITIES
  0
TEXT
  5
1599
330
1F
100
AcDbEntity
  8
LOGO
 62
     7
100
AcDbText
 10
677.5508471005442
 20
62.78247432467615
 30
0.0
 40
2.418849708597284
  1
Order example:
 41
0.8
  7
CHINESET
100
AcDbText
  0
TEXT
  5
159A
330
1F
100
AcDbEntity
  8
LOGO
 62
     7
100
AcDbText
 10
677.9848087413399
 20
66.18771388515845
 30
0.0
 40
3.628274562895926
  1
訂購代號：
  7
CHINESET
100
AcDbText
  0
LINE
  5
159B
330
1F
100
AcDbEntity
  8
LOGO
 62
     4
100
AcDbLine
 10
676.4998486978921
 20
52.58852823838298
 30
0.0
 11
676.4998486978921
 21
70.72990105286274
 31
0.0
  0
TEXT
  5
159C
330
1F
100
AcDbEntity
  8
LOGO
  6
Continuous
100
AcDbText
 10
643.1052911680466
 20
56.15237355006887
 30
0.0
 40
2.721205922171945
  1
金器工業股份有限公司
  7
CHINESET
100
AcDbText
  0
TEXT
  5
159D
330
1F
100
AcDbEntity
  8
LOGO
  6
Continuous
100
AcDbText
 10
638.1069742530593
 20
53.430634484887
 30
0.0
 40
1.814137281447963
  1
MINDMAN INDUSTRIAL CO., LTD.
 41
0.85
  7
CHINESET
100
AcDbText
  0
LINE
  5
159E
330
1F
100
AcDbEntity
  8
LOGO
 62
     4
100
AcDbLine
 10
676.4998486978921
 20
67.10162648996679
 30
0.0
 11
649.8925019033219
 21
67.10162648996679
 31
0.0
  0
LINE
  5
159F
330
1F
100
AcDbEntity
  8
LOGO
 62
     4
100
AcDbLine
 10
676.4998486978921
 20
63.47335192707084
 30
0.0
 11
649.8925019033219
 21
63.47335192707084
 31
0.0
  0
LINE
  5
15A0
330
1F
100
AcDbEntity
  8
LOGO
 62
     4
100
AcDbLine
 10
676.4998486978921
 20
59.84507736417508
 30
0.0
 11
636.5888285060369
 21
59.84507736417508
 31
0.0
  0
LINE
  5
15A1
330
1F
100
AcDbEntity
  8
LOGO
 62
     4
100
AcDbLine
 10
649.8925019033219
 20
59.84507736417508
 30
0.0
 11
649.8925019033219
 21
70.72990105286274
 31
0.0
  0
TEXT
  5
15A2
330
1F
100
AcDbEntity
  8
LOGO
100
AcDbText
 10
668.0773675897709
 20
60.75214600489877
 30
0.0
 40
1.814137281447963
  1
mm
  7
CHINESET
 72
     1
 11
670.3234423191827
 21
61.65921464562275
 31
0.0
100
AcDbText
 73
     2
  0
TEXT
  5
15A3
330
1F
100
AcDbEntity
  8
LOGO
100
AcDbText
 10
667.1271052042506
 20
68.00869513069068
 30
0.0
 40
1.814137281447963
  1
1 : 1
  7
CHINESET
 72
     1
 11
670.3234423191827
 21
68.91576377141466
 31
0.0
100
AcDbText
 73
     2
  0
LINE
  5
15A4
330
1F
100
AcDbEntity
  8
LOGO
 62
     4
100
AcDbLine
 10
664.4056001549057
 20
59.84507736417508
 30
0.0
 11
664.4056001549057
 21
70.72990105286274
 31
0.0
  0
TEXT
  5
15A5
330
1F
100
AcDbEntity
  8
LOGO
100
AcDbText
 10
651.3883552778016
 20
68.00958791478588
 30
118.8955688095171
 40
1.814137281447963
  1
比例 Scale:
 41
0.9
  7
CHINESET
 72
     4
 11
657.1490510291138
 21
68.91576377141466
 31
118.8955688095171
100
AcDbText
  0
TEXT
  5
15A6
330
1F
100
AcDbEntity
  8
LOGO
100
AcDbText
 10
651.2838804075753
 20
64.40593931318254
 30
118.8955688095171
 40
1.814137281447963
  1
投影  View:
 41
0.9
  7
CHINESET
 72
     4
 11
657.1490510291138
 21
65.28748920851871
 31
118.8955688095171
100
AcDbText
  0
TEXT
  5
15A7
330
1F
100
AcDbEntity
  8
LOGO
100
AcDbText
 10
651.4612447221455
 20
60.75214600489877
 30
118.8955688095171
 40
1.814137281447963
  1
單位  Unit:
 41
0.9
  7
CHINESET
 72
     4
 11
657.1490510291138
 21
61.65921464562275
 31
118.8955688095171
100
AcDbText
  0
LWPOLYLINE
  5
15A8
330
1F
100
AcDbEntity
  8
LOGO
 62
     4
100
AcDbPolyline
 90
        4
 70
     1
 43
0.0
 10
636.5888285060369
 20
70.72990105286272
 10
870.6012348676269
 20
70.72990105286274
 10
870.6012348676269
 20
206.8136541750342
 10
636.5888285060369
 20
206.8136541750342
1001
GENIUS_GENREC_14
1002
{
1000
PYDIR
1011
636.5888285060369
1021
206.8136541750342
1031
0.0
1002
}
1002
{
1000
PXDIR
1011
870.6012348676269
1021
70.72990105286274
1031
0.0
1002
}
1002
{
1000
PORI
1011
636.5888285060369
1021
70.72990105286272
1031
0.0
1002
}
1002
{
1000
PINS
1011
636.5888285060369
1021
70.72990105286272
1031
0.0
1002
}
1002
{
1000
PINS2
1011
870.6012348676269
1021
206.8136541750342
1031
0.0
1002
}
1002
{
1000
C
1070
     1
1002
}
1001
GENIUS_GENODEF_13
1002
{
1000
HIER
1070
     0
1002
}
1002
{
1000
MANEDIT
1070
     0
1002
}
1002
{
1000
NOSEL
1070
     0
1002
}
1002
{
1000
BEHIND
1070
     0
1002
}
1002
{
1000
OTHER
1070
     0
1002
}
1002
{
1000
REACTOR
1002
}
1001
GENIUS_GENOBJ-N-REC_13
1002
{
1000
OWNER
1000
GEN
1002
}
  0
SOLID
  5
15A9
330
1F
100
AcDbEntity
  8
LOGO
 62
     5
100
AcDbTrace
 10
638.471025050228
 20
62.860822372474
 30
0.0
 11
639.2554104077638
 21
62.8608223724738
 31
0.0
 12
642.5281906926545
 22
70.29895938358983
 32
0.0
 13
643.3125760501908
 23
70.29895938358944
 33
0.0
  0
SOLID
  5
15AA
330
1F
100
AcDbEntity
  8
LOGO
 62
     5
100
AcDbTrace
 10
639.5799836591589
 20
62.860822372474
 30
0.0
 11
640.3643690166947
 21
62.860822372474
 31
0.0
 12
643.3125760501908
 22
69.70390842270028
 32
0.0
 13
642.5281906926545
 23
66.82782877840215
 33
0.0
  0
SOLID
  5
15AB
330
1F
100
AcDbEntity
  8
LOGO
 62
     2
100
AcDbTrace
 10
639.2554104077638
 20
62.8608223724738
 30
0.0
 11
639.5799836591589
 21
62.860822372474
 31
0.0
 12
643.3125760501908
 22
70.29895938358944
 32
0.0
 13
643.6371493015853
 23
70.29895938358944
 33
0.0
  0
SOLID
  5
15AC
330
1F
100
AcDbEntity
  8
LOGO
 62
     5
100
AcDbTrace
 10
637.2134629672463
 20
60.15604527752303
 30
0.0
 11
637.4839406767416
 21
60.15604527752303
 31
0.0
 12
638.2456269589823
 22
61.5084338249984
 32
0.0
 13
638.5161046684769
 23
61.5084338249984
 33
0.0
  0
SOLID
  5
15AD
330
1F
100
AcDbEntity
  8
LOGO
 62
     5
100
AcDbTrace
 10
638.2456269589823
 20
61.5084338249984
 30
0.0
 11
638.5161046684769
 21
61.5084338249984
 31
0.0
 12
638.2456269589823
 22
60.15604527752303
 32
0.0
 13
638.5161046684769
 23
60.15604527752303
 33
0.0
  0
SOLID
  5
15AE
330
1F
100
AcDbEntity
  8
LOGO
 62
     5
100
AcDbTrace
 10
638.2456269589823
 20
60.15604527752303
 30
0.0
 11
638.5161046684769
 21
60.15604527752303
 31
0.0
 12
639.2777909507188
 22
61.5084338249984
 32
0.0
 13
639.5482686602137
 23
61.5084338249984
 33
0.0
  0
SOLID
  5
15AF
330
1F
100
AcDbEntity
  8
LOGO
 62
     5
100
AcDbTrace
 10
639.2777909507188
 20
61.5084338249984
 30
0.0
 11
639.5482686602137
 21
61.5084338249984
 31
0.0
 12
639.2777909507188
 22
60.15604527752303
 32
0.0
 13
639.5482686602137
 23
60.15604527752303
 33
0.0
  0
POLYLINE
  5
15B0
330
1F
100
AcDbEntity
  8
LOGO
 62
     5
100
AcDb2dPolyline
 66
     1
 10
0.0
 20
0.0
 30
0.0
 40
0.2709111673628958
 41
0.2709111673628958
  0
VERTEX
  5
15B1
330
15B0
100
AcDbEntity
  8
LOGO
 62
     5
100
AcDbVertex
100
AcDb2dVertex
 10
648.3441116336019
 20
60.96747840600823
 30
0.0
 42
1.0
  0
VERTEX
  5
15B2
330
15B0
100
AcDbEntity
  8
LOGO
 62
     5
100
AcDbVertex
100
AcDb2dVertex
 10
647.531378131513
 20
60.96747840600823
 30
0.0
 42
1.0
  0
SEQEND
  5
15B3
330
15B0
100
AcDbEntity
  8
LOGO
 62
     5
  0
POLYLINE
  5
15B4
330
1F
100
AcDbEntity
  8
LOGO
 62
     5
100
AcDb2dPolyline
 66
     1
 10
0.0
 20
0.0
 30
0.0
 70
     1
  0
VERTEX
  5
15B5
330
15B4
100
AcDbEntity
  8
LOGO
 62
     5
100
AcDbVertex
100
AcDb2dVertex
 10
645.9993393296894
 20
60.83223955126051
 30
0.0
 42
1.000000057330635
  0
VERTEX
  5
15B6
330
15B4
100
AcDbEntity
  8
LOGO
 62
     5
100
AcDbVertex
100
AcDb2dVertex
 10
646.8107724581747
 20
60.83223955126051
 30
0.0
 42
1.000000057330635
  0
SEQEND
  5
15B7
330
15B4
100
AcDbEntity
  8
LOGO
 62
     5
  0
CIRCLE
  5
15B8
330
1F
100
AcDbEntity
  8
LOGO
 62
     5
100
AcDbCircle
 10
646.4050558939326
 20
60.83223955126051
 30
0.0
 40
0.4057165642426729
  0
POLYLINE
  5
15B9
330
1F
100
AcDbEntity
  8
LOGO
 62
     5
100
AcDb2dPolyline
 66
     1
 10
0.0
 20
0.0
 30
0.0
 70
     1
 40
0.2709111673628958
 41
0.2709111673628958
  0
VERTEX
  5
15BA
330
15B9
100
AcDbEntity
  8
LOGO
 62
     5
100
AcDbVertex
100
AcDb2dVertex
 10
645.8632335592064
 20
60.83223955126051
 30
0.0
 42
1.0
  0
VERTEX
  5
15BB
330
15B9
100
AcDbEntity
  8
LOGO
 62
     5
100
AcDbVertex
100
AcDb2dVertex
 10
646.9468782286581
 20
60.83223955126051
 30
0.0
 42
1.0
  0
SEQEND
  5
15BC
330
15B9
100
AcDbEntity
  8
LOGO
 62
     5
  0
LINE
  5
15BD
330
1F
100
AcDbEntity
  8
LOGO
100
AcDbLine
 10
648.4787003015473
 20
60.15604527752303
 30
0.0
 11
648.4787003015473
 21
60.96747840600823
 31
0.0
  0
SOLID
  5
15BE
330
1F
100
AcDbEntity
  8
LOGO
 62
     5
100
AcDbTrace
 10
646.8107454104049
 20
61.5084338249984
 30
0.0
 11
647.0812231198995
 21
61.5084338249984
 31
0.0
 12
646.8107454104049
 22
60.15604527752303
 32
0.0
 13
647.0812231198995
 23
60.15604527752303
 33
0.0
  0
SOLID
  5
15BF
330
1F
100
AcDbEntity
  8
LOGO
 62
     5
100
AcDbTrace
 10
647.3967894635669
 20
60.15604527752303
 30
0.0
 11
647.6672671730621
 21
60.15604527752303
 31
0.0
 12
647.3967894635669
 22
61.5084338249984
 32
0.0
 13
647.6672671730621
 23
61.5084338249984
 33
0.0
  0
SOLID
  5
15C0
330
1F
100
AcDbEntity
  8
LOGO
 62
     5
100
AcDbTrace
 10
648.2082225920527
 20
60.96747840600823
 30
0.0
 11
648.4787003015473
 21
60.96747840600823
 31
0.0
 12
648.2082225920527
 22
60.15604527752303
 32
0.0
 13
648.4787003015473
 23
60.15604527752303
 33
0.0
  0
SOLID
  5
15C1
330
1F
100
AcDbEntity
  8
LOGO
 62
     5
100
AcDbTrace
 10
647.3697416926174
 20
69.70390842270028
 30
0.0
 11
646.585356335082
 21
66.82782877840215
 31
0.0
 12
647.3697416926174
 22
62.8608223724738
 32
0.0
 13
646.585356335082
 23
62.8608223724738
 33
0.0
  0
SOLID
  5
15C2
330
1F
100
AcDbEntity
  8
LOGO
 62
     5
100
AcDbTrace
 10
647.6943149440119
 20
62.8608223724738
 30
0.0
 11
648.4787003015473
 21
62.8608223724738
 31
0.0
 12
647.6943149440119
 22
70.29895938358944
 32
0.0
 13
648.4787003015473
 23
70.29895938358983
 33
0.0
  0
SOLID
  5
15C3
330
1F
100
AcDbEntity
  8
LOGO
 62
     2
100
AcDbTrace
 10
647.3697416926174
 20
70.29895938358983
 30
0.0
 11
647.6943149440119
 21
70.29895938358944
 31
0.0
 12
647.3697416926174
 22
62.8608223724738
 32
0.0
 13
647.6943149440119
 23
62.8608223724738
 33
0.0
  0
POLYLINE
  5
15C4
330
1F
100
AcDbEntity
  8
LOGO
 62
     5
100
AcDb2dPolyline
 66
     1
 10
0.0
 20
0.0
 30
0.0
 40
0.2709111673628958
 41
0.2709111673628958
  0
VERTEX
  5
15C5
330
15C4
100
AcDbEntity
  8
LOGO
 62
     5
100
AcDbVertex
100
AcDb2dVertex
 10
644.4672464323247
 20
60.96747840600823
 30
0.0
 42
1.0
  0
VERTEX
  5
15C6
330
15C4
100
AcDbEntity
  8
LOGO
 62
     5
100
AcDbVertex
100
AcDb2dVertex
 10
643.6545129302359
 20
60.96747840600823
 30
0.0
 42
1.0
  0
SEQEND
  5
15C7
330
15C4
100
AcDbEntity
  8
LOGO
 62
     5
  0
POLYLINE
  5
15C8
330
1F
100
AcDbEntity
  8
LOGO
 62
     5
100
AcDb2dPolyline
 66
     1
 10
0.0
 20
0.0
 30
0.0
 40
0.2709111673628958
 41
0.2709111673628958
  0
VERTEX
  5
15C9
330
15C8
100
AcDbEntity
  8
LOGO
 62
     5
100
AcDbVertex
100
AcDb2dVertex
 10
645.2786795608093
 20
60.96747840600823
 30
0.0
 42
1.0
  0
VERTEX
  5
15CA
330
15C8
100
AcDbEntity
  8
LOGO
 62
     5
100
AcDbVertex
100
AcDb2dVertex
 10
644.4659460587209
 20
60.96747840600823
 30
0.0
 42
1.0
  0
SEQEND
  5
15CB
330
15C8
100
AcDbEntity
  8
LOGO
 62
     5
  0
POLYLINE
  5
15CC
330
1F
100
AcDbEntity
  8
LOGO
 62
     5
100
AcDb2dPolyline
 66
     1
 10
0.0
 20
0.0
 30
0.0
 40
0.2709111673628958
 41
0.2709111673628958
  0
VERTEX
  5
15CD
330
15CC
100
AcDbEntity
  8
LOGO
 62
     5
100
AcDbVertex
100
AcDb2dVertex
 10
641.401814359532
 20
60.96747840600823
 30
0.0
 42
1.0
  0
VERTEX
  5
15CE
330
15CC
100
AcDbEntity
  8
LOGO
 62
     5
100
AcDbVertex
100
AcDb2dVertex
 10
640.5890808574436
 20
60.96747840600823
 30
0.0
 42
1.0
  0
SEQEND
  5
15CF
330
15CC
100
AcDbEntity
  8
LOGO
 62
     5
  0
SOLID
  5
15D0
330
1F
100
AcDbEntity
  8
LOGO
 62
     5
100
AcDbTrace
 10
640.4544921894979
 20
61.5084338249984
 30
0.0
 11
640.7249698989926
 21
61.5084338249984
 31
0.0
 12
640.4544921894979
 22
60.15604527752303
 32
0.0
 13
640.7249698989926
 23
60.15604527752303
 33
0.0
  0
SOLID
  5
15D1
330
1F
100
AcDbEntity
  8
LOGO
 62
     5
100
AcDbTrace
 10
641.2659253179832
 20
60.96747840600823
 30
0.0
 11
641.5364030274787
 21
60.96747840600823
 31
0.0
 12
641.2659253179832
 22
60.15604527752303
 32
0.0
 13
641.5364030274787
 23
60.15604527752303
 33
0.0
  0
POLYLINE
  5
15D2
330
1F
100
AcDbEntity
  8
LOGO
 62
     5
100
AcDb2dPolyline
 66
     1
 10
0.0
 20
0.0
 30
0.0
 70
     1
 40
0.2709111673628958
 41
0.2709111673628958
  0
VERTEX
  5
15D3
330
15D2
100
AcDbEntity
  8
LOGO
 62
     5
100
AcDbVertex
100
AcDb2dVertex
 10
641.9863683579288
 20
60.83223955126051
 30
0.0
 42
1.0
  0
VERTEX
  5
15D4
330
15D2
100
AcDbEntity
  8
LOGO
 62
     5
100
AcDbVertex
100
AcDb2dVertex
 10
643.0700130273806
 20
60.83223955126051
 30
0.0
 42
1.0
  0
SEQEND
  5
15D5
330
15D2
100
AcDbEntity
  8
LOGO
 62
     5
  0
SOLID
  5
15D6
330
1F
100
AcDbEntity
  8
LOGO
 62
     5
100
AcDbTrace
 10
642.9338802091267
 20
61.91415038924132
 30
0.0
 11
643.2043579186219
 21
61.91415038924132
 31
0.0
 12
642.9338802091267
 22
60.15604527752303
 32
0.0
 13
643.2043579186219
 23
60.15604527752303
 33
0.0
  0
SOLID
  5
15D7
330
1F
100
AcDbEntity
  8
LOGO
 62
     5
100
AcDbTrace
 10
643.5199242622904
 20
61.5084338249984
 30
0.0
 11
643.7904019717851
 21
61.5084338249984
 31
0.0
 12
643.5199242622904
 22
60.15604527752303
 32
0.0
 13
643.7904019717851
 23
60.15604527752303
 33
0.0
  0
SOLID
  5
15D8
330
1F
100
AcDbEntity
  8
LOGO
 62
     5
100
AcDbTrace
 10
644.3313573907752
 20
60.96747840600823
 30
0.0
 11
644.6018351002704
 21
60.96747840600823
 31
0.0
 12
644.3313573907752
 22
60.15604527752303
 32
0.0
 13
644.6018351002704
 23
60.15604527752303
 33
0.0
  0
SOLID
  5
15D9
330
1F
100
AcDbEntity
  8
LOGO
 62
     5
100
AcDbTrace
 10
645.1427905192605
 20
60.96747840600823
 30
0.0
 11
645.4132682287554
 21
60.96747840600823
 31
0.0
 12
645.1427905192605
 22
60.15604527752262
 32
0.0
 13
645.4132682287554
 23
60.15604527752262
 33
0.0
  0
SOLID
  5
15DA
330
1F
100
AcDbEntity
  8
LOGO
 62
     5
100
AcDbTrace
 10
639.8684481363346
 20
61.69776822164507
 30
0.0
 11
640.1389258458305
 21
61.69776822164507
 31
0.0
 12
639.8684481363346
 22
61.91415038924132
 32
0.0
 13
640.1389258458305
 23
61.91415038924132
 33
0.0
  0
SOLID
  5
15DB
330
1F
100
AcDbEntity
  8
LOGO
 62
     5
100
AcDbTrace
 10
639.8684481363346
 20
61.5084338249984
 30
0.0
 11
640.1389258458305
 21
61.5084338249984
 31
0.0
 12
639.8684481363346
 22
60.15604527752262
 32
0.0
 13
640.1389258458305
 23
60.15604527752303
 33
0.0
  0
SOLID
  5
15DC
330
1F
100
AcDbEntity
  8
LOGO
 62
     5
100
AcDbTrace
 10
642.5281906926545
 20
62.860822372474
 30
0.0
 11
643.3125760501908
 21
62.860822372474
 31
0.0
 12
642.5281906926545
 22
66.82782877840215
 32
0.0
 13
643.3125760501908
 23
69.70390842270028
 33
0.0
  0
SOLID
  5
15DD
330
1F
100
AcDbEntity
  8
LOGO
 62
     5
100
AcDbTrace
 10
643.6371493015853
 20
70.29895938358944
 30
0.0
 11
644.4215346591208
 21
70.29895938358983
 31
0.0
 12
643.6371493015853
 22
63.45587333336315
 32
0.0
 13
644.4215346591208
 23
66.33195297766127
 33
0.0
  0
SOLID
  5
15DE
330
1F
100
AcDbEntity
  8
LOGO
 62
     2
100
AcDbTrace
 10
643.3125760501908
 20
70.29895938358944
 30
0.0
 11
643.6371493015853
 21
70.29895938358944
 31
0.0
 12
643.3125760501908
 22
62.860822372474
 32
0.0
 13
643.6371493015853
 23
62.860822372474
 33
0.0
  0
SOLID
  5
15DF
330
1F
100
AcDbEntity
  8
LOGO
 62
     5
100
AcDbTrace
 10
643.6371493015853
 20
63.45587333336315
 30
0.0
 11
644.4215346591208
 21
66.33195297766127
 31
0.0
 12
647.3697416926174
 22
70.29895938358983
 32
0.0
 13
646.585356335082
 23
70.29895938358983
 33
0.0
  0
SOLID
  5
15E0
330
1F
100
AcDbEntity
  8
LOGO
 62
     5
100
AcDbTrace
 10
643.6371493015853
 20
62.860822372474
 30
0.0
 11
644.4215346591208
 21
62.860822372474
 31
0.0
 12
647.3697416926174
 22
69.70390842270028
 32
0.0
 13
646.585356335082
 23
66.82782877840215
 33
0.0
  0
SOLID
  5
15E1
330
1F
100
AcDbEntity
  8
LOGO
 62
     2
100
AcDbTrace
 10
643.3125760501908
 20
62.860822372474
 30
0.0
 11
643.6371493015853
 21
62.860822372474
 31
0.0
 12
647.3697416926174
 22
70.29895938358983
 32
0.0
 13
647.6943149440119
 23
70.29895938358944
 33
0.0
  0
LWPOLYLINE
  5
15E2
330
1F
100
AcDbEntity
  8
LOGO
 62
     4
100
AcDbPolyline
 90
        4
 70
     1
 43
0.0
 10
636.5888285060369
 20
70.72990105286272
 10
870.6012348676269
 20
70.72990105286274
 10
870.6012348676269
 20
52.58852823838278
 10
636.5888285060369
 20
52.58852823838278
1001
GENIUS_GENREC_14
1002
{
1000
PYDIR
1011
636.5888285060369
1021
52.58852823838278
1031
0.0
1002
}
1002
{
1000
PXDIR
1011
870.6012348676269
1021
70.72990105286274
1031
0.0
1002
}
1002
{
1000
PORI
1011
636.5888285060369
1021
70.72990105286272
1031
0.0
1002
}
1002
{
1000
PINS
1011
636.5888285060369
1021
70.72990105286272
1031
0.0
1002
}
1002
{
1000
PINS2
1011
870.6012348676269
1021
52.58852823838278
1031
0.0
1002
}
1002
{
1000
C
1070
     1
1002
}
1001
GENIUS_GENOBJ-N-REC_13
1002
{
1000
OWNER
1000
GEN
1002
}
1001
GENIUS_GENODEF_13
1002
{
1000
HIER
1070
     0
1002
}
1002
{
1000
MANEDIT
1070
     0
1002
}
1002
{
1000
NOSEL
1070
     0
1002
}
1002
{
1000
BEHIND
1070
     0
1002
}
1002
{
1000
OTHER
1070
     0
1002
}
1002
{
1000
REACTOR
1002
}
  0
LINE
  5
15E3
330
1F
100
AcDbEntity
  8
LOGO
 62
     4
100
AcDbLine
 10
715.4511554885109
 20
60.75214600489913
 30
0.0
 11
715.4511554885109
 21
54.10030930625625
 31
0.0
  0
LINE
  5
15E4
330
1F
100
AcDbEntity
  8
LOGO
 62
     4
100
AcDbLine
 10
707.3929572546352
 20
60.75214600489913
 30
0.0
 11
707.3929572546352
 21
54.10030930625625
 31
0.0
  0
LINE
  5
15E5
330
1F
100
AcDbEntity
  8
LOGO
 62
     4
100
AcDbLine
 10
715.4511554885109
 20
54.10030930625625
 30
0.0
 11
707.3929572546352
 21
54.10030930625625
 31
0.0
  0
LINE
  5
15E6
330
1F
100
AcDbEntity
  8
LOGO
 62
     4
100
AcDbLine
 10
721.3828202580931
 20
68.91576377141466
 30
0.0
 11
701.4525018492096
 21
68.91576377141466
 31
0.0
  0
LINE
  5
15E7
330
1F
100
AcDbEntity
  8
LOGO
 62
     4
100
AcDbLine
 10
721.3828202580931
 20
63.47335192707084
 30
0.0
 11
701.4525018492096
 21
63.47335192707084
 31
0.0
  0
LINE
  5
15E8
330
1F
100
AcDbEntity
  8
LOGO
 62
     4
100
AcDbLine
 10
701.4525018492096
 20
68.91576377141466
 30
0.0
 11
701.4525018492096
 21
63.47335192707084
 31
0.0
  0
LINE
  5
15E9
330
1F
100
AcDbEntity
  8
LOGO
 62
     4
100
AcDbLine
 10
721.3828202580931
 20
68.91576377141466
 30
0.0
 11
721.3828202580931
 21
63.47335192707084
 31
0.0
  0
LINE
  5
15EA
330
1F
100
AcDbEntity
  8
LOGO
 62
     4
100
AcDbLine
 10
711.4532696930701
 20
63.47335192707084
 30
0.0
 11
711.4532696930701
 21
60.75214600489913
 31
0.0
  0
TEXT
  5
15EB
330
1F
100
AcDbEntity
  8
LOGO
  6
Continuous
100
AcDbText
 10
704.1443497343086
 20
64.60944744277231
 30
0.0
 40
3.175199999999999
  1
MCHGF
  7
CHINESET
100
AcDbText
  0
LINE
  5
15EC
330
1F
100
AcDbEntity
  8
LOGO
 62
     4
100
AcDbLine
 10
715.4511554885109
 20
60.75214600489913
 30
0.0
 11
707.3929572546352
 21
60.75214600489913
 31
0.0
  0
TEXT
  5
15ED
330
1F
100
AcDbEntity
  8
LOGO
  6
Continuous
100
AcDbText
 10
709.4760853747201
 20
55.03920195072228
 30
118.8955688095171
 40
1.360799999999999
  1
Model
 41
0.8
  7
CHINESET
100
AcDbText
  0
TEXT
  5
15EE
330
1F
100
AcDbEntity
  8
LOGO
100
AcDbText
 10
709.1138846516074
 20
57.56183187739079
 30
118.8955688095171
 40
2.267999999999999
  1
型號
  7
CHINESET
100
AcDbText
  0
TEXT
  5
15F0
330
1F
100
AcDbEntity
  8
LOGO
100
AcDbText
 10
677.3404017862631
 20
53.55364211182844
 30
0.0
 40
1.814399999999999
  1
01206190
 41
0.7
  7
CHINESET
 72
     1
 11
681.7554417862631
 21
53.55364211182844
 31
0.0
100
AcDbText
  0
LINE
  5
15F1
330
1F
100
AcDbEntity
  8
LOGO
 62
     4
100
AcDbLine
 10
687.3862486978914
 20
56.21680280127935
 30
0.0
 11
687.3862486978922
 21
52.58852823838319
 31
0.0
  0
LINE
  5
15F2
330
1F
100
AcDbEntity
  8
LOGO
 62
     4
100
AcDbLine
 10
687.3862486978914
 20
56.21680280127935
 30
0.0
 11
676.4998486978921
 21
56.21680280127935
 31
0.0
  0
CIRCLE
  5
15F3
330
1F
100
AcDbEntity
  8
LOGO
  6
Continuous
100
AcDbCircle
 10
667.7647022402107
 20
65.29136966143941
 30
0.0
 40
1.053330805586876
  0
CIRCLE
  5
15F4
330
1F
100
AcDbEntity
  8
LOGO
  6
Continuous
100
AcDbCircle
 10
667.7647022402107
 20
65.29136966143941
 30
0.0
 40
0.6171586059734297
  0
LINE
  5
15F5
330
1F
100
AcDbEntity
  8
LOGO
100
AcDbLine
 10
674.3839552458568
 20
64.23803885585233
 30
0.0
 11
674.3839552458568
 21
66.34470046702649
 31
0.0
  0
LINE
  5
15F6
330
1F
100
AcDbEntity
  8
LOGO
100
AcDbLine
 10
671.0818236344152
 20
64.67421105546609
 30
0.0
 11
671.0818236344152
 21
65.90852826741294
 31
0.0
  0
LINE
  5
15F7
330
1F
100
AcDbEntity
  8
LOGO
  6
Continuous
100
AcDbLine
 10
671.0818236344152
 20
65.90852826741294
 30
0.0
 11
674.3839552458568
 21
66.34470046702649
 31
0.0
  0
LINE
  5
15F8
330
1F
100
AcDbEntity
  8
LOGO
  6
Continuous
100
AcDbLine
 10
671.0818236344152
 20
64.67421105546609
 30
0.0
 11
674.3839552458568
 21
64.23803885585233
 31
0.0
  0
LINE
  5
15F9
330
1F
100
AcDbEntity
  8
LOGO
  6
AM_ISO08W050x2
 48
0.3
100
AcDbLine
 10
666.3126699523225
 20
65.29136966143941
 30
0.0
 11
669.216734528099
 21
65.29136966143941
 31
0.0
1001
GENIUS_GENOREF_13
1005
16B6
  0
LINE
  5
15FA
330
1F
100
AcDbEntity
  8
LOGO
  6
AM_ISO08W050x2
 48
0.3
100
AcDbLine
 10
667.7647022402107
 20
63.83933737355108
 30
0.0
 11
667.7647022402107
 21
66.74340194932773
 31
0.0
1001
GENIUS_GENOREF_13
1005
16B5
  0
LINE
  5
15FB
330
1F
100
AcDbEntity
  8
LOGO
  6
CENTER
 48
0.5
100
AcDbLine
 10
670.8177448878185
 20
65.29136966143941
 30
0.0
 11
674.7164692095777
 21
65.29136966143941
 31
0.0
1001
GENIUS_GENOREF_13
1005
16B4
  0
POINT
  5
16B4
330
1F
100
AcDbEntity
  8
0
 60
     1
100
AcDbPoint
 10
-1930.92695728958
 20
-494.9154325062304
 30
0.0
1001
GENIUS_GENOBJ-N-CRS_13
1002
{
1000
OWNER
1000
GEN
1002
}
1001
GENIUS_GENOLIS_13
1002
{
1000
ENT
1005
0
1005
0
1005
0
1005
15FB
1002
}
1001
GENIUS_GENOENT_13
1002
{
1000
MYREF
1005
16B4
1002
}
1002
{
1000
GRP
1005
0
1002
}
1001
GENIUS_GENODEF_13
1002
{
1000
HIER
1070
    10
1002
}
1002
{
1000
MANEDIT
1070
     1
1002
}
1002
{
1000
NOSEL
1070
     0
1002
}
1002
{
1000
BEHIND
1070
     0
1002
}
1002
{
1000
OTHER
1070
     0
1002
}
1002
{
1000
REACTOR
1002
}
  0
POINT
  5
16B5
330
1F
100
AcDbEntity
  8
0
 60
     1
100
AcDbPoint
 10
-1942.251542512434
 20
-486.0398460275941
 30
0.0
1001
GENIUS_GENOBJ-N-CRS_13
1002
{
1000
OWNER
1000
GEN
1002
}
1001
GENIUS_GENOLIS_13
1002
{
1000
ENT
1005
0
1005
0
1005
0
1005
15FA
1002
}
1001
GENIUS_GENOENT_13
1002
{
1000
MYREF
1005
16B5
1002
}
1002
{
1000
GRP
1005
0
1002
}
1001
GENIUS_GENODEF_13
1002
{
1000
HIER
1070
    10
1002
}
1002
{
1000
MANEDIT
1070
     1
1002
}
1002
{
1000
NOSEL
1070
     0
1002
}
1002
{
1000
BEHIND
1070
     0
1002
}
1002
{
1000
OTHER
1070
     0
1002
}
1002
{
1000
REACTOR
1002
}
  0
POINT
  5
16B6
330
1F
100
AcDbEntity
  8
0
 60
     1
100
AcDbPoint
 10
-1935.892868814597
 20
-494.9154325062304
 30
0.0
1001
GENIUS_GENOBJ-N-CRS_13
1002
{
1000
OWNER
1000
GEN
1002
}
1001
GENIUS_GENOLIS_13
1002
{
1000
ENT
1005
0
1005
0
1005
0
1005
15F9
1002
}
1001
GENIUS_GENOENT_13
1002
{
1000
MYREF
1005
16B6
1002
}
1002
{
1000
GRP
1005
0
1002
}
1001
GENIUS_GENODEF_13
1002
{
1000
HIER
1070
    10
1002
}
1002
{
1000
MANEDIT
1070
     1
1002
}
1002
{
1000
NOSEL
1070
     0
1002
}
1002
{
1000
BEHIND
1070
     0
1002
}
1002
{
1000
OTHER
1070
     0
1002
}
1002
{
1000
REACTOR
1002
}
  0
MTEXT
  5
7BA1
330
1F
100
AcDbEntity
  8
AM_VIS
100
AcDbMText
 10
315.4333775501655
 20
376.163241097652
 30
0.0
 40
3.5
 41
0.0
 71
     9
 72
     1
  1

 73
     1
 44
1.0
1001
ACAD
1000
MTEXTBEGIN
1070
    73
1070
     1
1070
    44
1040
1.0
1070
    74
1070
     0
1000
MTEXTEND
  0
LINE
  5
99DA
102
{ACAD_REACTORS
330
A58C
102
}
330
1F
100
AcDbEntity
  8
AM_7
100
AcDbLine
 10
650.4444669167542
 20
140.992147388889
 30
0.0
 11
741.6971661771214
 21
140.9921473888889
 31
0.0
  0
LINE
  5
99DB
330
1F
100
AcDbEntity
  8
AM_7
100
AcDbLine
 10
696.0708165469378
 20
186.6184970190725
 30
0.0
 11
696.0708165469378
 21
95.36579775870535
 31
0.0
  0
LINE
  5
9C94
330
1F
100
AcDbEntity
  8
LOGO
  6
Continuous
 62
     7
100
AcDbLine
 10
722.8738312205401
 20
66.14483014632994
 30
0.0
 11
725.3037036005033
 21
66.14483014632994
 31
0.0
  0
LINE
  5
9C95
330
1F
100
AcDbEntity
  8
LOGO
 62
     4
100
AcDbLine
 10
737.6466800300999
 20
60.66143914082673
 30
0.0
 11
737.6466800300999
 21
53.93569314553246
 31
0.0
  0
LINE
  5
9C96
330
1F
100
AcDbEntity
  8
LOGO
 62
     4
100
AcDbLine
 10
723.6723576991389
 20
60.66143914082673
 30
0.0
 11
723.6723576991389
 21
53.93569314553246
 31
0.0
  0
LINE
  5
9C97
330
1F
100
AcDbEntity
  8
LOGO
 62
     4
100
AcDbLine
 10
737.6466800300999
 20
53.93569314553246
 30
0.0
 11
723.6723576991389
 21
53.93569314553246
 31
0.0
  0
LINE
  5
9C98
330
1F
100
AcDbEntity
  8
LOGO
 62
     4
100
AcDbLine
 10
734.1864683705595
 20
68.91576377141466
 30
0.0
 11
726.8567135520127
 21
68.91576377141466
 31
0.0
  0
LINE
  5
9C99
330
1F
100
AcDbEntity
  8
LOGO
 62
     4
100
AcDbLine
 10
734.1864683705595
 20
63.41288068435591
 30
0.0
 11
726.8567135520127
 21
63.41288068435591
 31
0.0
  0
LINE
  5
9C9A
330
1F
100
AcDbEntity
  8
LOGO
 62
     4
100
AcDbLine
 10
726.8567135520127
 20
68.91576377141466
 30
0.0
 11
726.8567135520127
 21
63.41288068435591
 31
0.0
  0
LINE
  5
9C9B
330
1F
100
AcDbEntity
  8
LOGO
 62
     4
100
AcDbLine
 10
734.1864683705595
 20
68.91576377141466
 30
0.0
 11
734.1864683705595
 21
63.41288068435591
 31
0.0
  0
LINE
  5
9C9C
330
1F
100
AcDbEntity
  8
LOGO
 62
     4
100
AcDbLine
 10
730.2223281165738
 20
63.41288068435591
 30
0.0
 11
730.2223281165738
 21
60.66143914082673
 31
0.0
  0
LINE
  5
9C9E
330
1F
100
AcDbEntity
  8
LOGO
 62
     4
100
AcDbLine
 10
737.6466800300999
 20
60.66143914082673
 30
0.0
 11
723.6723576991389
 21
60.66143914082673
 31
0.0
  0
TEXT
  5
9C9F
330
1F
100
AcDbEntity
  8
LOGO
  6
Continuous
100
AcDbText
 10
724.880402226304
 20
54.88501793049257
 30
120.2166306851784
 40
1.37592
  1
Body diameter
 41
0.8
  7
CHINESET
100
AcDbText
  0
TEXT
  5
9CA0
330
1F
100
AcDbEntity
  8
LOGO
100
AcDbText
 10
725.9934257408375
 20
57.43567707856829
 30
120.2166306851784
 40
2.2932
  1
本體寬度
  7
CHINESET
100
AcDbText
  0
TEXT
  5
9CA2
330
1F
100
AcDbEntity
  8
LOGO
  6
Continuous
 62
     7
100
AcDbText
 10
728.2292050661806
 20
64.56159948356539
 30
0.0
 40
3.210479999999999
  1
80
  7
CHINESET
100
AcDbText
  0
DIMENSION
  5
A516
330
1F
100
AcDbEntity
  8
AM_REFDIM
100
AcDbDimension
  2
*D6
 10
702.1708165469391
 20
88.46913839099972
 30
0.0
 11
696.0708164991989
 21
88.46913839099972
 31
0.0
 70
   160
 71
     5
 42
12.20000009548039
  3
AM_ISO$0
100
AcDbAlignedDimension
 13
689.9708164514587
 23
101.4600095061307
 33
0.0
 14
702.1708165469391
 24
101.4600085648892
 34
0.0
100
AcDbRotatedDimension
1001
ACAD
1000
DSTYLE
1002
{
1070
    40
1040
1.005834825753484
1002
}
  0
DIMENSION
  5
A540
330
1F
100
AcDbEntity
  8
AM_REFDIM
100
AcDbDimension
  2
*D7
 10
707.5708161232605
 20
78.41881160833469
 30
0.0
 11
696.0708163337394
 21
78.41881160833469
 31
0.0
 70
   160
 71
     5
 42
22.9999995790422
  3
AM_ISO$0
100
AcDbAlignedDimension
 13
684.5708165442183
 23
98.99214624443118
 33
0.0
 14
707.5708161232605
 24
98.99214624443068
 34
0.0
100
AcDbRotatedDimension
1001
ACAD
1000
DSTYLE
1002
{
1070
    40
1040
1.005834825753484
1002
}
  0
DIMENSION
  5
A57E
102
{ACAD_XDICTIONARY
360
A58B
102
}
102
{ACAD_REACTORS
330
A58C
102
}
330
1F
100
AcDbEntity
  8
AM_REFDIM
100
AcDbDimension
  2
*D8
 10
761.4514110096502
 20
98.99214624443066
 30
0.0
 11
761.4514110096502
 21
119.9921468166598
 31
0.0
 70
   160
 71
     5
 42
42.00000114445829
  3
AM_ISO$0
100
AcDbAlignedDimension
 13
741.6971661771214
 23
140.9921473888889
 33
0.0
 14
707.5708161232605
 24
98.99214624443068
 34
0.0
 50
89.9999999999998
100
AcDbRotatedDimension
1001
ACAD
1000
DSTYLE
1002
{
1070
    40
1040
1.005834825753484
1070
   271
1070
     0
1002
}
  0
DIMENSION
  5
A622
330
1F
100
AcDbEntity
  8
AM_REFDIM
100
AcDbDimension
  2
*D9
 10
845.0092466711346
 20
187.4172878674295
 30
0.0
 11
816.759247129865
 21
187.4172878674295
 31
0.0
 70
   160
  1
<>
 71
     5
 42
56.49999908253903
  3
AM_ISO$0
100
AcDbAlignedDimension
 13
788.5092475885955
 23
180.5242855755331
 33
0.0
 14
845.0092466711346
 24
180.9921485094074
 34
0.0
100
AcDbRotatedDimension
1001
ACAD
1000
DSTYLE
1002
{
1070
    40
1040
1.005834825753484
1070
   271
1070
     1
1002
}
  0
DIMENSION
  5
A67B
330
1F
100
AcDbEntity
  8
AM_REFDIM
100
AcDbDimension
  2
*D10
 10
853.4819198018711
 20
100.9921465722564
 30
0.0
 11
853.4819198018711
 21
140.9921475408321
 31
0.0
 70
   160
 71
     5
 42
80.00000193715102
  3
AM_ISO$0
100
AcDbAlignedDimension
 13
845.0092466711346
 23
180.9921485094074
 33
0.0
 14
845.0092466711346
 24
100.9921465722564
 34
0.0
 50
90.0
100
AcDbRotatedDimension
1001
ACAD
1000
DSTYLE
1002
{
1070
    40
1040
1.005834825753484
1002
}
  0
DIMENSION
  5
A6A1
330
1F
100
AcDbEntity
  8
AM_REFDIM
100
AcDbDimension
  2
*D11
 10
805.5092467158381
 20
88.46913839099972
 30
0.0
 11
825.2592466934864
 21
88.46913839099972
 31
0.0
 70
   160
 71
     5
 42
39.49999995529651
  3
AM_ISO$0
100
AcDbAlignedDimension
 13
845.0092466711346
 23
100.9921465722564
 33
0.0
 14
805.5092467158381
 24
98.99214624443068
 34
0.0
100
AcDbRotatedDimension
1001
ACAD
1000
DSTYLE
1002
{
1070
    40
1040
1.005834825753484
1002
}
  0
DIMENSION
  5
A724
330
1F
100
AcDbEntity
  8
AM_REFDIM
100
AcDbDimension
  2
*D12
 10
788.5092475885955
 20
187.4172878674295
 30
0.0
 11
787.5092474576907
 21
187.4172878674295
 31
0.0
 70
   160
 71
     5
 42
2.000000261809873
  3
AM_ISO$0
100
AcDbAlignedDimension
 13
786.5092473267857
 23
154.7421474663259
 33
0.0
 14
788.5092475885955
 24
180.5242855755331
 34
0.0
100
AcDbRotatedDimension
1001
ACAD
1000
DSTYLE
1002
{
1070
    40
1040
1.005834825753484
1002
}
  0
DIMENSION
  5
A77B
330
1F
100
AcDbEntity
  8
AM_REFDIM
100
AcDbDimension
  2
*D13
 10
741.9829334072383
 20
111.9921473888889
 30
0.0
 11
741.9829334072383
 21
115.992147388889
 31
0.0
 70
   160
 71
     5
 42
8.0
  3
AM_ISO$0
100
AcDbAlignedDimension
 13
696.0708165469379
 23
119.9921473888889
 33
0.0
 14
696.0708165469378
 24
111.9921473888889
 34
0.0
 50
90.0
100
AcDbRotatedDimension
1001
ACAD
1000
DSTYLE
1002
{
1070
    40
1040
1.005834825753484
1002
}
  0
DIMENSION
  5
A7A5
330
1F
100
AcDbEntity
  8
AM_REFDIM
100
AcDbDimension
  2
*D14
 10
751.3579353319707
 20
103.9921473888889
 30
0.0
 11
751.3579353319707
 21
111.2778768024299
 31
0.0
 70
   160
 71
     5
 42
16.0
  3
AM_ISO$0
100
AcDbAlignedDimension
 13
696.0708165469379
 23
119.9921473888889
 33
0.0
 14
696.0708165469378
 24
103.9921473888889
 34
0.0
 50
90.0
100
AcDbRotatedDimension
1001
ACAD
1000
DSTYLE
1002
{
1070
    40
1040
1.005834825753484
1002
}
  0
DIMENSION
  5
A7CB
330
1F
100
AcDbEntity
  8
AM_REFDIM
100
AcDbDimension
  2
*D15
 10
741.9829334072383
 20
98.99214624443066
 30
0.0
 11
741.9829334072383
 21
101.4921468166599
 31
0.0
 70
   160
 71
     5
 42
5.000001144458281
  3
AM_ISO$0
100
AcDbAlignedDimension
 13
696.0708165469378
 23
103.9921473888889
 33
0.0
 14
707.5708161232605
 24
98.99214624443068
 34
0.0
 50
90.0
100
AcDbRotatedDimension
1001
ACAD
1000
DSTYLE
1002
{
1070
    40
1040
1.005834825753484
1002
}
  0
LEADER
  5
A889
330
1F
100
AcDbEntity
  8
AM_REFDIM
100
AcDbLeader
  3
AM_ISO$7
 76
     3
 10
697.3533422221387
 20
180.1381035609578
 30
0.0
 10
701.4888610484281
 20
187.4356680581509
 30
0.0
 10
731.7051466690859
 20
187.4356680581509
 30
0.0
1001
ACAD
1000
DSTYLE
1002
{
1070
   147
1040
1.0
1070
    77
1070
     1
1070
    43
1040
12.0
1070
   271
1070
     1
1070
   272
1070
     8
1002
}
  0
MTEXT
  5
A88C
330
1F
100
AcDbEntity
  8
AM_REFDIM
100
AcDbMText
 10
702.3056043689475
 20
191.1598348913222
 30
0.0
 40
3.0
 41
33.65203381816716
 71
     1
 72
     5
  1
4X2-M5X0.8 DP9
 73
     1
 44
1.0
1001
ACAD
1000
MTEXTBEGIN
1070
    73
1070
     1
1070
    44
1040
1.0
1070
    74
1070
     0
1000
MTEXTEND
  0
LEADER
  5
A890
330
1F
100
AcDbEntity
  8
AM_REFDIM
100
AcDbLeader
  3
AM_ISO$7
 76
     3
 10
722.4491582391585
 20
168.5528039433768
 30
0.0
 10
728.1690045775726
 20
175.7739285205947
 30
0.0
 10
765.6189513782678
 20
175.7739285205947
 30
0.0
1001
ACAD
1000
DSTYLE
1002
{
1070
   147
1040
1.0
1070
    77
1070
     1
1070
    43
1040
12.0
1070
   271
1070
     1
1070
   272
1070
     8
1002
}
  0
MTEXT
  5
A895
330
1F
100
AcDbEntity
  8
AM_REFDIM
100
AcDbMText
 10
730.0973432853592
 20
180.0385179084
 30
0.0
 40
3.0
 41
38.59614173293908
 71
     1
 72
     5
  1
%%C6.4 thru\P%%C11 C/B DP7 P.C.D 70
 73
     1
 44
1.0
1001
ACAD
1000
MTEXTBEGIN
1070
    73
1070
     1
1070
    44
1040
1.0
1070
    74
1070
     0
1000
MTEXTEND
  0
ARC
  5
B2D8
330
1F
100
AcDbEntity
  8
0
  6
Continuous
 62
     7
370
    15
100
AcDbCircle
 10
687.3208165469376
 20
132.242147388889
 30
0.0
 40
5.0
100
AcDbArc
 50
179.9999999999967
 51
270.0
  0
LINE
  5
B2D9
330
1F
100
AcDbEntity
  8
0
  6
Continuous
 62
     7
370
    15
100
AcDbLine
 10
682.320816641077
 20
149.7421475780851
 30
0.0
 11
682.3208166410766
 21
132.2421475035793
 31
0.0
  0
ARC
  5
B2DA
330
1F
100
AcDbEntity
  8
0
  6
Continuous
 62
     7
370
    15
100
AcDbCircle
 10
687.3208165469379
 20
149.742147388889
 30
0.0
 40
5.0
100
AcDbArc
 50
90.0
 51
180.0
  0
LINE
  5
B2DB
330
1F
100
AcDbEntity
  8
0
  6
Continuous
 62
     7
370
    15
100
AcDbLine
 10
704.8208161381629
 20
154.7421474663259
 30
0.0
 11
687.3208165293184
 21
154.7421474663263
 31
0.0
  0
ARC
  5
B2DC
330
1F
100
AcDbEntity
  8
0
  6
Continuous
 62
     7
370
    15
100
AcDbCircle
 10
704.820816546938
 20
149.7421473888887
 30
0.0
 40
5.000000000000014
100
AcDbArc
 50
0.0
 51
90.0
  0
LINE
  5
B2DD
330
1F
100
AcDbEntity
  8
0
  6
Continuous
 62
     7
370
    15
100
AcDbLine
 10
709.8208169577262
 20
132.2421475035787
 30
0.0
 11
709.8208169577267
 21
149.7421475780845
 31
0.0
  0
ARC
  5
B2DE
330
1F
100
AcDbEntity
  8
0
  6
Continuous
 62
     7
370
    15
100
AcDbCircle
 10
704.8208165469376
 20
132.2421473888887
 30
0.0
 40
5.000000000000014
100
AcDbArc
 50
270.0
 51
0.0
  0
LINE
  5
B2DF
330
1F
100
AcDbEntity
  8
0
  6
Continuous
 62
     7
370
    15
100
AcDbLine
 10
687.3208165293178
 20
127.2421476153379
 30
0.0
 11
704.8208161381624
 21
127.2421476153375
 31
0.0
  0
LINE
  5
B2E0
330
1F
100
AcDbEntity
  8
0
  6
Continuous
 62
     7
370
    15
100
AcDbLine
 10
702.1708159831908
 20
154.742147466326
 30
0.0
 11
702.1708159831913
 21
180.5242855755331
 31
0.0
  0
ARC
  5
B2E1
330
1F
100
AcDbEntity
  8
0
  6
Continuous
 62
     7
370
    15
100
AcDbCircle
 10
696.0708165469378
 20
140.9921473888889
 30
0.0
 40
40.00000000000001
100
AcDbArc
 50
52.9032077334822
 51
81.22816688030439
  0
LINE
  5
B2E2
330
1F
100
AcDbEntity
  8
0
  6
Continuous
 62
     7
370
    15
100
AcDbLine
 10
720.1973485884816
 20
172.8968561349152
 30
0.0
 11
716.9304664371162
 21
169.6299721209049
 31
0.0
  0
ARC
  5
B2E3
330
1F
100
AcDbEntity
  8
0
  6
Continuous
 62
     7
370
    15
100
AcDbCircle
 10
720.8195538884674
 20
165.7408847304176
 30
0.0
 40
5.500000000000084
100
AcDbArc
 50
135.0
 51
315.0
  0
LINE
  5
B2E4
330
1F
100
AcDbEntity
  8
0
  6
Continuous
 62
     7
370
    15
100
AcDbLine
 10
724.708641612306
 20
161.8517969457147
 30
0.0
 11
727.9755237636713
 21
165.1186809597251
 31
0.0
  0
ARC
  5
B2E5
330
1F
100
AcDbEntity
  8
0
  6
Continuous
 62
     7
370
    15
100
AcDbCircle
 10
696.0708165469378
 20
140.9921473888889
 30
0.0
 40
40.0
100
AcDbArc
 50
8.77183311969188
 51
37.0967922665152
  0
LINE
  5
B2E6
330
1F
100
AcDbEntity
  8
0
  6
Continuous
 62
     7
370
    15
100
AcDbLine
 10
735.6029550669338
 20
147.0921474231119
 30
0.0
 11
709.8208169577266
 21
147.0921474231125
 31
0.0
  0
LINE
  5
B2E7
330
1F
100
AcDbEntity
  8
0
  6
Continuous
 62
     7
370
    15
100
AcDbLine
 10
689.9708164514592
 20
127.2421476153379
 30
0.0
 11
689.9708164514587
 21
101.4600095061307
 31
0.0
  0
ARC
  5
B2F0
330
1F
100
AcDbEntity
  8
0
  6
Continuous
 62
     7
370
    15
100
AcDbCircle
 10
696.0708115768689
 20
140.9921404447099
 30
0.0
 40
39.99999146343652
100
AcDbArc
 50
232.9032074122544
 51
261.2281720584814
  0
LINE
  5
B2F1
330
1F
100
AcDbEntity
  8
0
  6
Continuous
 62
     7
370
    15
100
AcDbLine
 10
671.9442836133378
 20
109.0874408093938
 30
0.0
 11
675.2111666960257
 21
112.354322960759
 31
0.0
  0
ARC
  5
B2F2
330
1F
100
AcDbEntity
  8
0
  6
Continuous
 62
     7
370
    15
100
AcDbCircle
 10
671.3220792054081
 20
116.2434100473604
 30
0.0
 40
5.500000000000084
100
AcDbArc
 50
315.0
 51
135.0
  0
LINE
  5
B2F3
330
1F
100
AcDbEntity
  8
0
  6
Continuous
 62
     7
370
    15
100
AcDbLine
 10
667.4329924521584
 20
120.1324981359491
 30
0.0
 11
664.166108438148
 21
116.8656141219388
 31
0.0
  0
ARC
  5
B2FC
330
1F
100
AcDbEntity
  8
0
  6
Continuous
 62
     7
370
    15
100
AcDbCircle
 10
696.0708162902413
 20
140.9921473328752
 30
0.0
 40
39.99999973776387
100
AcDbArc
 50
188.7718330964693
 51
207.8509042871135
  0
LINE
  5
B2FD
330
1F
100
AcDbEntity
  8
0
  6
Continuous
 62
     7
370
    15
100
AcDbLine
 10
656.5386771348856
 20
134.8921476585519
 30
0.0
 11
682.3208166410767
 21
134.8921476585513
 31
0.0
  0
LINE
  5
B2FE
330
1F
100
AcDbEntity
  8
0
  6
Continuous
 62
     7
370
    15
100
AcDbLine
 10
682.3208166410769
 20
147.092147423113
 30
0.0
 11
656.5386771348859
 21
147.0921474231136
 31
0.0
  0
ARC
  5
B2FF
330
1F
100
AcDbEntity
  8
0
  6
Continuous
 62
     7
370
    15
100
AcDbCircle
 10
696.0708165469378
 20
140.9921473888889
 30
0.0
 40
40.0
100
AcDbArc
 50
142.9032077334822
 51
171.2281668803049
  0
LINE
  5
B300
330
1F
100
AcDbEntity
  8
0
  6
Continuous
 62
     7
370
    15
100
AcDbLine
 10
664.1661084381491
 20
165.1186809597264
 30
0.0
 11
667.4329924521593
 21
161.8517969457159
 31
0.0
  0
ARC
  5
B301
330
1F
100
AcDbEntity
  8
0
  6
Continuous
 62
     7
370
    15
100
AcDbCircle
 10
671.3220792054092
 20
165.7408847304186
 30
0.0
 40
5.500000000000074
100
AcDbArc
 50
225.0
 51
45.0
  0
LINE
  5
B302
330
1F
100
AcDbEntity
  8
0
  6
Continuous
 62
     7
370
    15
100
AcDbLine
 10
675.2111666960269
 20
169.6299721209057
 30
0.0
 11
671.9442836133391
 21
172.8968561349162
 31
0.0
  0
ARC
  5
B303
330
1F
100
AcDbEntity
  8
0
  6
Continuous
 62
     7
370
    15
100
AcDbCircle
 10
696.0708165469378
 20
140.9921473888889
 30
0.0
 40
40.0
100
AcDbArc
 50
123.0774271550438
 51
127.0967922665158
  0
ARC
  5
B30B
330
1F
100
AcDbEntity
  8
0
  6
Continuous
 62
     7
370
    15
100
AcDbCircle
 10
696.0708165469378
 20
140.9921473888889
 30
0.0
 40
40.0
100
AcDbArc
 50
98.7718331196956
 51
118.9225728449514
  0
LINE
  5
B30C
330
1F
100
AcDbEntity
  8
0
  6
Continuous
 62
     7
370
    15
100
AcDbLine
 10
689.9708164514598
 20
154.7421474663263
 30
0.0
 11
689.9708164514603
 21
180.5242855755334
 31
0.0
  0
LINE
  5
B30D
330
1F
100
AcDbEntity
  8
0
  6
Continuous
 62
     7
370
    15
100
AcDbLine
 10
709.8208169577263
 20
134.8921476585508
 30
0.0
 11
735.6029550669335
 21
134.8921476585502
 31
0.0
  0
ARC
  5
B30E
330
1F
100
AcDbEntity
  8
0
  6
Continuous
 62
     7
370
    15
100
AcDbCircle
 10
696.0708171630599
 20
140.9921472139274
 30
0.0
 40
39.99999936440278
100
AcDbArc
 50
332.1490956230123
 51
351.2281669934016
  0
LINE
  5
B30F
330
1F
100
AcDbEntity
  8
0
  6
Continuous
 62
     7
370
    15
100
AcDbLine
 10
727.9755237636703
 20
116.8656141219374
 30
0.0
 11
724.7086416123051
 21
120.1324981359479
 31
0.0
  0
ARC
  5
B310
330
1F
100
AcDbEntity
  8
0
  6
Continuous
 62
     7
370
    15
100
AcDbCircle
 10
720.8195538884664
 20
116.2434100473593
 30
0.0
 40
5.500000000000014
100
AcDbArc
 50
45.0
 51
225.0
  0
LINE
  5
B311
330
1F
100
AcDbEntity
  8
0
  6
Continuous
 62
     7
370
    15
100
AcDbLine
 10
716.9304664371151
 20
112.3543229607582
 30
0.0
 11
720.1973485884803
 21
109.0874408093927
 31
0.0
  0
LINE
  5
B313
330
1F
100
AcDbEntity
  8
0
  6
Continuous
 62
     7
370
    15
100
AcDbLine
 10
702.1708159831902
 20
127.2421476153376
 30
0.0
 11
702.1708159831897
 21
101.4600095061304
 31
0.0
  0
LINE
  5
B314
330
1F
100
AcDbEntity
  8
0
  6
Continuous
 62
     7
370
    15
100
AcDbLine
 10
679.5708166559778
 20
134.9921474886782
 30
0.0
 11
679.5708166559781
 21
146.9921473601557
 31
0.0
  0
LINE
  5
B315
330
1F
100
AcDbEntity
  8
0
  6
Continuous
 62
     7
370
    15
100
AcDbLine
 10
682.3208166410767
 20
134.9921474886781
 30
0.0
 11
679.5708166559778
 21
134.9921474886782
 31
0.0
  0
LINE
  5
B316
330
1F
100
AcDbEntity
  8
0
  6
Continuous
 62
     7
370
    15
100
AcDbLine
 10
679.5708166559781
 20
146.9921473601557
 30
0.0
 11
682.3208166410769
 21
146.9921473601556
 31
0.0
  0
LINE
  5
B317
330
1F
100
AcDbEntity
  8
0
  6
Continuous
 62
     7
370
    15
100
AcDbLine
 10
679.0708165740217
 20
146.9921473601557
 30
0.0
 11
679.0708165740214
 21
134.9921474886782
 31
0.0
  0
LINE
  5
B318
330
1F
100
AcDbEntity
  8
0
  6
Continuous
 62
     7
370
    15
100
AcDbLine
 10
679.5708166559778
 20
134.9921474886782
 30
0.0
 11
679.0708165740214
 21
134.9921474886782
 31
0.0
  0
LINE
  5
B319
330
1F
100
AcDbEntity
  8
0
  6
Continuous
 62
     7
370
    15
100
AcDbLine
 10
679.0708165740217
 20
146.9921473601557
 30
0.0
 11
679.5708166559781
 21
146.9921473601557
 31
0.0
  0
LINE
  5
B31A
330
1F
100
AcDbEntity
  8
0
  6
Continuous
 62
     7
370
    15
100
AcDbLine
 10
702.0708161530635
 20
124.4921476302387
 30
0.0
 11
690.0708165144166
 21
124.492147630239
 31
0.0
  0
LINE
  5
B31B
330
1F
100
AcDbEntity
  8
0
  6
Continuous
 62
     7
370
    15
100
AcDbLine
 10
702.0708161530635
 20
127.2421476153376
 30
0.0
 11
702.0708161530635
 21
124.4921476302387
 31
0.0
  0
LINE
  5
B31C
330
1F
100
AcDbEntity
  8
0
  6
Continuous
 62
     7
370
    15
100
AcDbLine
 10
690.0708165144166
 20
124.492147630239
 30
0.0
 11
690.0708165144166
 21
127.2421476153379
 31
0.0
  0
LINE
  5
B31D
330
1F
100
AcDbEntity
  8
0
  6
Continuous
 62
     7
370
    15
100
AcDbLine
 10
690.0708165144172
 20
154.7421474663263
 30
0.0
 11
690.0708165144172
 21
157.4921474514251
 31
0.0
  0
LINE
  5
B31E
330
1F
100
AcDbEntity
  8
0
  6
Continuous
 62
     7
370
    15
100
AcDbLine
 10
690.0708165144172
 20
157.4921474514251
 30
0.0
 11
702.0708161530641
 21
157.4921474514249
 31
0.0
  0
LINE
  5
B31F
330
1F
100
AcDbEntity
  8
0
  6
Continuous
 62
     7
370
    15
100
AcDbLine
 10
702.0708161530641
 20
157.4921474514249
 30
0.0
 11
702.0708161530641
 21
154.742147466326
 31
0.0
  0
LINE
  5
B320
330
1F
100
AcDbEntity
  8
0
  6
Continuous
 62
     7
370
    15
100
AcDbLine
 10
702.0708161530641
 20
157.9921475333813
 30
0.0
 11
690.0708165144172
 21
157.9921475333815
 31
0.0
  0
LINE
  5
B321
330
1F
100
AcDbEntity
  8
0
  6
Continuous
 62
     7
370
    15
100
AcDbLine
 10
690.0708165144172
 20
157.4921474514251
 30
0.0
 11
690.0708165144172
 21
157.9921475333815
 31
0.0
  0
LINE
  5
B322
330
1F
100
AcDbEntity
  8
0
  6
Continuous
 62
     7
370
    15
100
AcDbLine
 10
702.0708161530641
 20
157.9921475333813
 30
0.0
 11
702.0708161530641
 21
157.4921474514249
 31
0.0
  0
LINE
  5
B323
330
1F
100
AcDbEntity
  8
0
  6
Continuous
 62
     7
370
    15
100
AcDbLine
 10
690.0708165144166
 20
123.9921466169601
 30
0.0
 11
702.0708161530635
 21
123.9921466169598
 31
0.0
  0
LINE
  5
B324
330
1F
100
AcDbEntity
  8
0
  6
Continuous
 62
     7
370
    15
100
AcDbLine
 10
702.0708161530635
 20
124.4921476302387
 30
0.0
 11
702.0708161530635
 21
123.9921466169598
 31
0.0
  0
LINE
  5
B325
330
1F
100
AcDbEntity
  8
0
  6
Continuous
 62
     7
370
    15
100
AcDbLine
 10
690.0708165144166
 20
123.9921466169601
 30
0.0
 11
690.0708165144166
 21
124.492147630239
 31
0.0
  0
LINE
  5
B326
330
1F
100
AcDbEntity
  8
0
  6
Continuous
 62
     7
370
    15
100
AcDbLine
 10
712.5708169428254
 20
146.992147360155
 30
0.0
 11
712.5708169428252
 21
134.9921474886775
 31
0.0
  0
LINE
  5
B327
330
1F
100
AcDbEntity
  8
0
  6
Continuous
 62
     7
370
    15
100
AcDbLine
 10
712.5708169428252
 20
134.9921474886775
 30
0.0
 11
709.8208169577263
 21
134.9921474886776
 31
0.0
  0
LINE
  5
B328
330
1F
100
AcDbEntity
  8
0
  6
Continuous
 62
     7
370
    15
100
AcDbLine
 10
709.8208169577266
 20
146.992147360155
 30
0.0
 11
712.5708169428254
 21
146.992147360155
 31
0.0
  0
LINE
  5
B329
330
1F
100
AcDbEntity
  8
0
  6
Continuous
 62
     7
370
    15
100
AcDbLine
 10
713.070816093459
 20
134.9921474886775
 30
0.0
 11
713.0708160934593
 21
146.992147360155
 31
0.0
  0
LINE
  5
B32A
330
1F
100
AcDbEntity
  8
0
  6
Continuous
 62
     7
370
    15
100
AcDbLine
 10
713.070816093459
 20
134.9921474886775
 30
0.0
 11
712.5708169428252
 21
134.9921474886775
 31
0.0
  0
LINE
  5
B32B
330
1F
100
AcDbEntity
  8
0
  6
Continuous
 62
     7
370
    15
100
AcDbLine
 10
712.5708169428254
 20
146.992147360155
 30
0.0
 11
713.0708160934593
 21
146.992147360155
 31
0.0
  0
LINE
  5
B32C
330
1F
100
AcDbEntity
  8
0
  6
Continuous
 62
     7
370
    15
100
AcDbLine
 10
728.5708177027844
 20
134.9921474886772
 30
0.0
 11
728.5708177027847
 21
146.9921473601546
 31
0.0
  0
LINE
  5
B32D
330
1F
100
AcDbEntity
  8
0
  6
Continuous
 62
     7
370
    15
100
AcDbLine
 10
737.5708173153542
 20
134.992147488677
 30
0.0
 11
737.5708173153545
 21
146.9921473601545
 31
0.0
  0
CIRCLE
  5
B32E
330
1F
100
AcDbEntity
  8
0
  6
Continuous
 62
     7
370
    15
100
AcDbCircle
 10
733.0708165469379
 20
140.9921473888884
 30
0.0
 40
2.500000000111413
  0
LINE
  5
B32F
330
1F
100
AcDbEntity
  8
0
  6
Continuous
 62
     7
370
    15
100
AcDbLine
 10
737.5708173153542
 20
134.992147488677
 30
0.0
 11
728.5708177027844
 21
134.9921474886772
 31
0.0
  0
LINE
  5
B330
330
1F
100
AcDbEntity
  8
0
  6
Continuous
 62
     7
370
    15
100
AcDbLine
 10
728.5708177027847
 20
146.9921473601546
 30
0.0
 11
737.5708173153545
 21
146.9921473601545
 31
0.0
  0
CIRCLE
  5
B331
330
1F
100
AcDbEntity
  8
0
  6
Continuous
 62
     7
370
    15
100
AcDbCircle
 10
733.0708165469379
 20
140.9921473888884
 30
0.0
 40
2.099999999984163
  0
LINE
  5
B332
330
1F
100
AcDbEntity
  8
0
  6
Continuous
 62
     7
370
    15
100
AcDbLine
 10
654.0708157358314
 20
146.9921473601562
 30
0.0
 11
654.0708157358311
 21
134.9921474886787
 31
0.0
  0
LINE
  5
B333
330
1F
100
AcDbEntity
  8
0
  6
Continuous
 62
     7
370
    15
100
AcDbLine
 10
654.5708167491101
 20
134.9921474886787
 30
0.0
 11
654.5708167491103
 21
146.9921473601562
 31
0.0
  0
LINE
  5
B334
330
1F
100
AcDbEntity
  8
0
  6
Continuous
 62
     7
370
    15
100
AcDbLine
 10
654.5708167491101
 20
134.9921474886787
 30
0.0
 11
654.0708157358311
 21
134.9921474886787
 31
0.0
  0
LINE
  5
B335
330
1F
100
AcDbEntity
  8
0
  6
Continuous
 62
     7
370
    15
100
AcDbLine
 10
654.0708157358314
 20
146.9921473601562
 30
0.0
 11
654.5708167491103
 21
146.9921473601562
 31
0.0
  0
LINE
  5
B336
330
1F
100
AcDbEntity
  8
0
  6
Continuous
 62
     7
370
    15
100
AcDbLine
 10
663.5708163616802
 20
146.9921473601561
 30
0.0
 11
663.5708163616799
 21
134.9921474886786
 31
0.0
  0
CIRCLE
  5
B337
330
1F
100
AcDbEntity
  8
0
  6
Continuous
 62
     7
370
    15
100
AcDbCircle
 10
659.0708165469379
 20
140.9921473888892
 30
0.0
 40
2.499999999884039
  0
LINE
  5
B338
330
1F
100
AcDbEntity
  8
0
  6
Continuous
 62
     7
370
    15
100
AcDbLine
 10
663.5708163616799
 20
134.9921474886786
 30
0.0
 11
654.5708167491101
 21
134.9921474886787
 31
0.0
  0
LINE
  5
B339
330
1F
100
AcDbEntity
  8
0
  6
Continuous
 62
     7
370
    15
100
AcDbLine
 10
654.5708167491103
 20
146.9921473601562
 30
0.0
 11
663.5708163616802
 21
146.9921473601561
 31
0.0
  0
LINE
  5
B33A
330
1F
100
AcDbEntity
  8
0
  6
Continuous
 62
     7
370
    15
100
AcDbLine
 10
664.0708173749588
 20
134.9921474886785
 30
0.0
 11
664.0708173749591
 21
146.992147360156
 31
0.0
  0
LINE
  5
B33B
330
1F
100
AcDbEntity
  8
0
  6
Continuous
 62
     7
370
    15
100
AcDbLine
 10
664.0708173749588
 20
134.9921474886785
 30
0.0
 11
663.5708163616799
 21
134.9921474886786
 31
0.0
  0
LINE
  5
B33C
330
1F
100
AcDbEntity
  8
0
  6
Continuous
 62
     7
370
    15
100
AcDbLine
 10
663.5708163616802
 20
146.9921473601561
 30
0.0
 11
664.0708173749591
 21
146.992147360156
 31
0.0
  0
LINE
  5
B33D
330
1F
100
AcDbEntity
  8
0
  6
Continuous
 62
     7
370
    15
100
AcDbLine
 10
670.5708156464242
 20
134.9921474886784
 30
0.0
 11
670.5708156464244
 21
146.9921473601559
 31
0.0
  0
CIRCLE
  5
B33E
330
1F
100
AcDbEntity
  8
0
  6
Continuous
 62
     7
370
    15
100
AcDbCircle
 10
675.0708165469379
 20
140.9921473888891
 30
0.0
 40
2.499999999997726
  0
LINE
  5
B33F
330
1F
100
AcDbEntity
  8
0
  6
Continuous
 62
     7
370
    15
100
AcDbLine
 10
679.0708165740214
 20
134.9921474886782
 30
0.0
 11
670.5708156464242
 21
134.9921474886784
 31
0.0
  0
LINE
  5
B340
330
1F
100
AcDbEntity
  8
0
  6
Continuous
 62
     7
370
    15
100
AcDbLine
 10
670.5708156464244
 20
146.9921473601559
 30
0.0
 11
679.0708165740217
 21
146.9921473601557
 31
0.0
  0
LINE
  5
B341
330
1F
100
AcDbEntity
  8
0
  6
Continuous
 62
     7
370
    15
100
AcDbLine
 10
670.0708164957906
 20
146.9921473601559
 30
0.0
 11
670.0708164957903
 21
134.9921474886784
 31
0.0
  0
LINE
  5
B342
330
1F
100
AcDbEntity
  8
0
  6
Continuous
 62
     7
370
    15
100
AcDbLine
 10
670.5708156464242
 20
134.9921474886784
 30
0.0
 11
670.0708164957903
 21
134.9921474886784
 31
0.0
  0
LINE
  5
B343
330
1F
100
AcDbEntity
  8
0
  6
Continuous
 62
     7
370
    15
100
AcDbLine
 10
670.0708164957906
 20
146.9921473601559
 30
0.0
 11
670.5708156464244
 21
146.9921473601559
 31
0.0
  0
LINE
  5
B344
330
1F
100
AcDbEntity
  8
0
  6
Continuous
 62
     7
370
    15
100
AcDbLine
 10
702.0708161530632
 20
115.4921480176689
 30
0.0
 11
690.0708165144163
 21
115.4921480176692
 31
0.0
  0
CIRCLE
  5
B345
330
1F
100
AcDbEntity
  8
0
  6
Continuous
 62
     7
370
    15
100
AcDbCircle
 10
696.0708165469379
 20
119.9921473888889
 30
0.0
 40
2.500000000054576
  0
LINE
  5
B346
330
1F
100
AcDbEntity
  8
0
  6
Continuous
 62
     7
370
    15
100
AcDbLine
 10
702.0708161530635
 20
123.9921466169598
 30
0.0
 11
702.0708161530632
 21
115.4921480176689
 31
0.0
  0
LINE
  5
B347
330
1F
100
AcDbEntity
  8
0
  6
Continuous
 62
     7
370
    15
100
AcDbLine
 10
690.0708165144163
 20
115.4921480176692
 30
0.0
 11
690.0708165144166
 21
123.9921466169601
 31
0.0
  0
LINE
  5
B348
330
1F
100
AcDbEntity
  8
0
  6
Continuous
 62
     7
370
    15
100
AcDbLine
 10
690.0708165144175
 20
166.4921470639949
 30
0.0
 11
702.0708161530643
 21
166.4921470639946
 31
0.0
  0
CIRCLE
  5
B349
330
1F
100
AcDbEntity
  8
0
  6
Continuous
 62
     7
370
    15
100
AcDbCircle
 10
696.0708165469382
 20
161.9921473888889
 30
0.0
 40
2.500000000054576
  0
LINE
  5
B34A
330
1F
100
AcDbEntity
  8
0
  6
Continuous
 62
     7
370
    15
100
AcDbLine
 10
690.0708165144172
 20
157.9921475333815
 30
0.0
 11
690.0708165144175
 21
166.4921470639949
 31
0.0
  0
LINE
  5
B34B
330
1F
100
AcDbEntity
  8
0
  6
Continuous
 62
     7
370
    15
100
AcDbLine
 10
702.0708161530643
 20
166.4921470639946
 30
0.0
 11
702.0708161530641
 21
157.9921475333813
 31
0.0
  0
LINE
  5
B34C
330
1F
100
AcDbEntity
  8
0
  6
Continuous
 62
     7
370
    15
100
AcDbLine
 10
702.0708161530643
 20
166.9921480772736
 30
0.0
 11
690.0708165144175
 21
166.9921480772739
 31
0.0
  0
LINE
  5
B34D
330
1F
100
AcDbEntity
  8
0
  6
Continuous
 62
     7
370
    15
100
AcDbLine
 10
690.0708165144175
 20
166.4921470639949
 30
0.0
 11
690.0708165144175
 21
166.9921480772739
 31
0.0
  0
LINE
  5
B34E
330
1F
100
AcDbEntity
  8
0
  6
Continuous
 62
     7
370
    15
100
AcDbLine
 10
702.0708161530643
 20
166.9921480772736
 30
0.0
 11
702.0708161530643
 21
166.4921470639946
 31
0.0
  0
LINE
  5
B34F
330
1F
100
AcDbEntity
  8
0
  6
Continuous
 62
     7
370
    15
100
AcDbLine
 10
690.070816514416
 20
99.49214725771003
 30
0.0
 11
702.0708161530628
 21
99.49214725770975
 31
0.0
  0
LINE
  5
B350
330
1F
100
AcDbEntity
  8
0
  6
Continuous
 62
     7
370
    15
100
AcDbLine
 10
690.0708165144163
 20
108.4921468702798
 30
0.0
 11
702.0708161530631
 21
108.4921468702795
 31
0.0
  0
CIRCLE
  5
B351
330
1F
100
AcDbEntity
  8
0
  6
Continuous
 62
     7
370
    15
100
AcDbCircle
 10
696.0708165469378
 20
103.9921473888889
 30
0.0
 40
2.499999999997726
  0
LINE
  5
B352
330
1F
100
AcDbEntity
  8
0
  6
Continuous
 62
     7
370
    15
100
AcDbLine
 10
702.0708161530631
 20
108.4921468702795
 30
0.0
 11
702.0708161530628
 21
99.49214725770975
 31
0.0
  0
LINE
  5
B353
330
1F
100
AcDbEntity
  8
0
  6
Continuous
 62
     7
370
    15
100
AcDbLine
 10
690.070816514416
 20
99.49214725771003
 30
0.0
 11
690.0708165144163
 21
108.4921468702798
 31
0.0
  0
LINE
  5
B354
330
1F
100
AcDbEntity
  8
0
  6
Continuous
 62
     7
370
    15
100
AcDbLine
 10
690.070816514416
 20
98.99214624443107
 30
0.0
 11
702.0708161530628
 21
98.99214624443079
 31
0.0
  0
LINE
  5
B355
330
1F
100
AcDbEntity
  8
0
  6
Continuous
 62
     7
370
    15
100
AcDbLine
 10
702.0708161530628
 20
99.49214725770975
 30
0.0
 11
702.0708161530628
 21
98.99214624443079
 31
0.0
  0
LINE
  5
B356
330
1F
100
AcDbEntity
  8
0
  6
Continuous
 62
     7
370
    15
100
AcDbLine
 10
690.070816514416
 20
98.99214624443107
 30
0.0
 11
690.070816514416
 21
99.49214725771003
 31
0.0
  0
LINE
  5
B357
330
1F
100
AcDbEntity
  8
0
  6
Continuous
 62
     7
370
    15
100
AcDbLine
 10
690.0708165144163
 20
114.9921470043903
 30
0.0
 11
702.0708161530632
 21
114.99214700439
 31
0.0
  0
LINE
  5
B358
330
1F
100
AcDbEntity
  8
0
  6
Continuous
 62
     7
370
    15
100
AcDbLine
 10
702.0708161530632
 20
115.4921480176689
 30
0.0
 11
702.0708161530632
 21
114.99214700439
 31
0.0
  0
LINE
  5
B359
330
1F
100
AcDbEntity
  8
0
  6
Continuous
 62
     7
370
    15
100
AcDbLine
 10
690.0708165144163
 20
114.9921470043903
 30
0.0
 11
690.0708165144163
 21
115.4921480176692
 31
0.0
  0
LINE
  5
B35A
330
1F
100
AcDbEntity
  8
0
  6
Continuous
 62
     7
370
    15
100
AcDbLine
 10
702.0708161530644
 20
173.4921482113841
 30
0.0
 11
690.0708165144176
 21
173.4921482113843
 31
0.0
  0
LINE
  5
B35B
330
1F
100
AcDbEntity
  8
0
  6
Continuous
 62
     7
370
    15
100
AcDbLine
 10
702.0708161530647
 20
182.4921478239539
 30
0.0
 11
690.0708165144179
 21
182.4921478239541
 31
0.0
  0
CIRCLE
  5
B35C
330
1F
100
AcDbEntity
  8
0
  6
Continuous
 62
     7
370
    15
100
AcDbCircle
 10
696.0708165469384
 20
177.9921473888889
 30
0.0
 40
2.499999999997726
  0
LINE
  5
B35D
330
1F
100
AcDbEntity
  8
0
  6
Continuous
 62
     7
370
    15
100
AcDbLine
 10
690.0708165144176
 20
173.4921482113843
 30
0.0
 11
690.0708165144179
 21
182.4921478239541
 31
0.0
  0
LINE
  5
B35E
330
1F
100
AcDbEntity
  8
0
  6
Continuous
 62
     7
370
    15
100
AcDbLine
 10
702.0708161530647
 20
182.4921478239539
 30
0.0
 11
702.0708161530644
 21
173.4921482113841
 31
0.0
  0
LINE
  5
B35F
330
1F
100
AcDbEntity
  8
0
  6
Continuous
 62
     7
370
    15
100
AcDbLine
 10
702.0708161530647
 20
182.9921488372329
 30
0.0
 11
690.0708165144179
 21
182.9921488372331
 31
0.0
  0
LINE
  5
B360
330
1F
100
AcDbEntity
  8
0
  6
Continuous
 62
     7
370
    15
100
AcDbLine
 10
690.0708165144179
 20
182.4921478239541
 30
0.0
 11
690.0708165144179
 21
182.9921488372331
 31
0.0
  0
LINE
  5
B361
330
1F
100
AcDbEntity
  8
0
  6
Continuous
 62
     7
370
    15
100
AcDbLine
 10
702.0708161530647
 20
182.9921488372329
 30
0.0
 11
702.0708161530647
 21
182.4921478239539
 31
0.0
  0
LINE
  5
B362
330
1F
100
AcDbEntity
  8
0
  6
Continuous
 62
     7
370
    15
100
AcDbLine
 10
690.0708165144176
 20
172.9921471981054
 30
0.0
 11
702.0708161530644
 21
172.9921471981051
 31
0.0
  0
LINE
  5
B363
330
1F
100
AcDbEntity
  8
0
  6
Continuous
 62
     7
370
    15
100
AcDbLine
 10
690.0708165144176
 20
172.9921471981054
 30
0.0
 11
690.0708165144176
 21
173.4921482113843
 31
0.0
  0
LINE
  5
B364
330
1F
100
AcDbEntity
  8
0
  6
Continuous
 62
     7
370
    15
100
AcDbLine
 10
702.0708161530644
 20
173.4921482113841
 30
0.0
 11
702.0708161530644
 21
172.9921471981051
 31
0.0
  0
LINE
  5
B365
330
1F
100
AcDbEntity
  8
0
  6
Continuous
 62
     7
370
    15
100
AcDbLine
 10
702.0708161530631
 20
108.9921478835585
 30
0.0
 11
690.0708165144163
 21
108.9921478835588
 31
0.0
  0
LINE
  5
B366
330
1F
100
AcDbEntity
  8
0
  6
Continuous
 62
     7
370
    15
100
AcDbLine
 10
702.0708161530631
 20
108.9921478835585
 30
0.0
 11
702.0708161530631
 21
108.4921468702795
 31
0.0
  0
LINE
  5
B367
330
1F
100
AcDbEntity
  8
0
  6
Continuous
 62
     7
370
    15
100
AcDbLine
 10
690.0708165144163
 20
108.4921468702798
 30
0.0
 11
690.0708165144163
 21
108.9921478835588
 31
0.0
  0
LINE
  5
B368
330
1F
100
AcDbEntity
  8
0
  6
Continuous
 62
     7
370
    15
100
AcDbLine
 10
721.5708146927501
 20
146.9921473601548
 30
0.0
 11
721.5708146927498
 21
134.9921474886773
 31
0.0
  0
CIRCLE
  5
B369
330
1F
100
AcDbEntity
  8
0
  6
Continuous
 62
     7
370
    15
100
AcDbCircle
 10
717.0708165469379
 20
140.9921473888887
 30
0.0
 40
2.49999999999774
  0
LINE
  5
B36A
330
1F
100
AcDbEntity
  8
0
  6
Continuous
 62
     7
370
    15
100
AcDbLine
 10
721.5708146927498
 20
134.9921474886773
 30
0.0
 11
713.070816093459
 21
134.9921474886775
 31
0.0
  0
LINE
  5
B36B
330
1F
100
AcDbEntity
  8
0
  6
Continuous
 62
     7
370
    15
100
AcDbLine
 10
713.0708160934593
 20
146.992147360155
 30
0.0
 11
721.5708146927501
 21
146.9921473601548
 31
0.0
  0
LINE
  5
B36C
330
1F
100
AcDbEntity
  8
0
  6
Continuous
 62
     7
370
    15
100
AcDbLine
 10
722.0708157060288
 20
134.9921474886773
 30
0.0
 11
722.0708157060291
 21
146.9921473601548
 31
0.0
  0
LINE
  5
B36D
330
1F
100
AcDbEntity
  8
0
  6
Continuous
 62
     7
370
    15
100
AcDbLine
 10
722.0708157060288
 20
134.9921474886773
 30
0.0
 11
721.5708146927498
 21
134.9921474886773
 31
0.0
  0
LINE
  5
B36E
330
1F
100
AcDbEntity
  8
0
  6
Continuous
 62
     7
370
    15
100
AcDbLine
 10
721.5708146927501
 20
146.9921473601548
 30
0.0
 11
722.0708157060291
 21
146.9921473601548
 31
0.0
  0
LINE
  5
B36F
330
1F
100
AcDbEntity
  8
0
  6
Continuous
 62
     7
370
    15
100
AcDbLine
 10
728.0708166895057
 20
146.9921473601546
 30
0.0
 11
728.0708166895054
 21
134.9921474886772
 31
0.0
  0
LINE
  5
B370
330
1F
100
AcDbEntity
  8
0
  6
Continuous
 62
     7
370
    15
100
AcDbLine
 10
728.5708177027844
 20
134.9921474886772
 30
0.0
 11
728.0708166895054
 21
134.9921474886772
 31
0.0
  0
LINE
  5
B371
330
1F
100
AcDbEntity
  8
0
  6
Continuous
 62
     7
370
    15
100
AcDbLine
 10
728.0708166895057
 20
146.9921473601546
 30
0.0
 11
728.5708177027847
 21
146.9921473601546
 31
0.0
  0
LINE
  5
B372
330
1F
100
AcDbEntity
  8
0
  6
Continuous
 62
     7
370
    15
100
AcDbLine
 10
738.0708183286332
 20
134.992147488677
 30
0.0
 11
738.0708183286334
 21
146.9921473601545
 31
0.0
  0
LINE
  5
B373
330
1F
100
AcDbEntity
  8
0
  6
Continuous
 62
     7
370
    15
100
AcDbLine
 10
738.0708183286332
 20
134.992147488677
 30
0.0
 11
737.5708173153542
 21
134.992147488677
 31
0.0
  0
LINE
  5
B374
330
1F
100
AcDbEntity
  8
0
  6
Continuous
 62
     7
370
    15
100
AcDbLine
 10
737.5708173153545
 20
146.9921473601545
 30
0.0
 11
738.0708183286334
 21
146.9921473601545
 31
0.0
  0
CIRCLE
  5
B375
330
1F
100
AcDbEntity
  8
0
  6
Continuous
 62
     7
370
    15
100
AcDbCircle
 10
696.0708165469378
 20
103.9921473888889
 30
0.0
 40
2.099999999961653
  0
CIRCLE
  5
B376
330
1F
100
AcDbEntity
  8
0
  6
Continuous
 62
     7
370
    15
100
AcDbCircle
 10
696.0708165469382
 20
161.9921473888889
 30
0.0
 40
2.099999999968929
  0
CIRCLE
  5
B377
330
1F
100
AcDbEntity
  8
0
  6
Continuous
 62
     7
370
    15
100
AcDbCircle
 10
696.0708165469379
 20
119.9921473888889
 30
0.0
 40
2.099999999969952
  0
CIRCLE
  5
B378
330
1F
100
AcDbEntity
  8
0
  6
Continuous
 62
     7
370
    15
100
AcDbCircle
 10
675.0708165469379
 20
140.9921473888891
 30
0.0
 40
2.100000000048311
  0
CIRCLE
  5
B379
330
1F
100
AcDbEntity
  8
0
  6
Continuous
 62
     7
370
    15
100
AcDbCircle
 10
717.0708165469379
 20
140.9921473888887
 30
0.0
 40
2.099999999947456
  0
CIRCLE
  5
B37A
330
1F
100
AcDbEntity
  8
0
  6
Continuous
 62
     7
370
    15
100
AcDbCircle
 10
696.0708165469384
 20
177.9921473888889
 30
0.0
 40
2.099999999962705
  0
CIRCLE
  5
B37B
330
1F
100
AcDbEntity
  8
0
  6
Continuous
 62
     7
370
    15
100
AcDbCircle
 10
659.0708165469379
 20
140.9921473888892
 30
0.0
 40
2.099999999996992
  0
CIRCLE
  5
B37C
330
1F
100
AcDbEntity
  8
0
  6
Continuous
 62
     7
370
    15
100
AcDbCircle
 10
667.0708165469379
 20
140.9921473888892
 30
0.0
 40
2.500000000000003
  0
LINE
  5
B37D
330
1F
100
AcDbEntity
  8
0
  6
Continuous
 62
     7
370
    15
100
AcDbLine
 10
670.0708164957903
 20
134.9921474886784
 30
0.0
 11
664.0708173749588
 21
134.9921474886785
 31
0.0
  0
LINE
  5
B37E
330
1F
100
AcDbEntity
  8
0
  6
Continuous
 62
     7
370
    15
100
AcDbLine
 10
664.0708173749591
 20
146.992147360156
 30
0.0
 11
670.0708164957906
 21
146.9921473601559
 31
0.0
  0
CIRCLE
  5
B37F
330
1F
100
AcDbEntity
  8
0
  6
Continuous
 62
     7
370
    15
100
AcDbCircle
 10
696.0708165469383
 20
169.9921473888889
 30
0.0
 40
2.500000000000007
  0
LINE
  5
B380
330
1F
100
AcDbEntity
  8
0
  6
Continuous
 62
     7
370
    15
100
AcDbLine
 10
690.0708165144175
 20
166.9921480772739
 30
0.0
 11
690.0708165144176
 21
172.9921471981054
 31
0.0
  0
LINE
  5
B381
330
1F
100
AcDbEntity
  8
0
  6
Continuous
 62
     7
370
    15
100
AcDbLine
 10
702.0708161530644
 20
172.9921471981051
 30
0.0
 11
702.0708161530643
 21
166.9921480772736
 31
0.0
  0
CIRCLE
  5
B382
330
1F
100
AcDbEntity
  8
0
  6
Continuous
 62
     7
370
    15
100
AcDbCircle
 10
696.0708165469378
 20
111.9921473888889
 30
0.0
 40
2.5
  0
LINE
  5
B383
330
1F
100
AcDbEntity
  8
0
  6
Continuous
 62
     7
370
    15
100
AcDbLine
 10
702.0708161530632
 20
114.99214700439
 30
0.0
 11
702.0708161530631
 21
108.9921478835585
 31
0.0
  0
LINE
  5
B384
330
1F
100
AcDbEntity
  8
0
  6
Continuous
 62
     7
370
    15
100
AcDbLine
 10
690.0708165144163
 20
108.9921478835588
 30
0.0
 11
690.0708165144163
 21
114.9921470043903
 31
0.0
  0
CIRCLE
  5
B385
330
1F
100
AcDbEntity
  8
0
  6
Continuous
 62
     7
370
    15
100
AcDbCircle
 10
725.0708165469379
 20
140.9921473888885
 30
0.0
 40
2.70000000002274
  0
LINE
  5
B386
330
1F
100
AcDbEntity
  8
0
  6
Continuous
 62
     7
370
    15
100
AcDbLine
 10
728.0708166895054
 20
134.9921474886772
 30
0.0
 11
722.0708157060288
 21
134.9921474886773
 31
0.0
  0
LINE
  5
B387
330
1F
100
AcDbEntity
  8
0
  6
Continuous
 62
     7
370
    15
100
AcDbLine
 10
722.0708157060291
 20
146.9921473601548
 30
0.0
 11
728.0708166895057
 21
146.9921473601546
 31
0.0
  0
CIRCLE
  5
B388
330
1F
100
AcDbEntity
  8
0
  6
Continuous
 62
     7
370
    15
100
AcDbCircle
 10
725.0708165469379
 20
140.9921473888885
 30
0.0
 40
2.499999999959257
  0
LINE
  5
B389
330
1F
100
AcDbEntity
  8
0
  6
Continuous
 62
     7
370
    15
100
AcDbLine
 10
689.6879737855479
 20
98.99214624443107
 30
0.0
 11
689.6879737855479
 21
101.5046906379705
 31
0.0
  0
LINE
  5
B38A
330
1F
100
AcDbEntity
  8
0
  6
Continuous
 62
     7
370
    15
100
AcDbLine
 10
689.6879737855479
 20
98.99214624443107
 30
0.0
 11
690.070816514416
 21
98.99214624443107
 31
0.0
  0
LINE
  5
B38B
330
1F
100
AcDbEntity
  8
0
  6
Continuous
 62
     7
370
    15
100
AcDbLine
 10
702.4536586491003
 20
101.5046906379702
 30
0.0
 11
702.4536586491003
 21
98.99214624443079
 31
0.0
  0
LINE
  5
B38C
330
1F
100
AcDbEntity
  8
0
  6
Continuous
 62
     7
370
    15
100
AcDbLine
 10
702.0708161530628
 20
98.99214624443079
 30
0.0
 11
702.4536586491003
 21
98.99214624443079
 31
0.0
  0
LINE
  5
B38D
330
1F
100
AcDbEntity
  8
0
  6
Continuous
 62
     7
370
    15
100
AcDbLine
 10
654.0708157358314
 20
147.3749900890243
 30
0.0
 11
656.5833582667257
 21
147.3749900890243
 31
0.0
  0
LINE
  5
B38E
330
1F
100
AcDbEntity
  8
0
  6
Continuous
 62
     7
370
    15
100
AcDbLine
 10
654.0708157358314
 20
147.3749900890243
 30
0.0
 11
654.0708157358314
 21
146.9921473601562
 31
0.0
  0
LINE
  5
B38F
330
1F
100
AcDbEntity
  8
0
  6
Continuous
 62
     7
370
    15
100
AcDbLine
 10
656.5833582667254
 20
134.6093049926412
 30
0.0
 11
654.0708157358311
 21
134.6093049926412
 31
0.0
  0
LINE
  5
B390
330
1F
100
AcDbEntity
  8
0
  6
Continuous
 62
     7
370
    15
100
AcDbLine
 10
654.0708157358311
 20
134.9921474886787
 30
0.0
 11
654.0708157358311
 21
134.6093049926412
 31
0.0
  0
LINE
  5
B391
330
1F
100
AcDbEntity
  8
0
  6
Continuous
 62
     7
370
    15
100
AcDbLine
 10
702.4536586491022
 20
182.9921488372328
 30
0.0
 11
702.453658649102
 21
180.4796044436934
 31
0.0
  0
LINE
  5
B392
330
1F
100
AcDbEntity
  8
0
  6
Continuous
 62
     7
370
    15
100
AcDbLine
 10
702.4536586491022
 20
182.9921488372328
 30
0.0
 11
702.0708161530647
 21
182.9921488372329
 31
0.0
  0
LINE
  5
B393
330
1F
100
AcDbEntity
  8
0
  6
Continuous
 62
     7
370
    15
100
AcDbLine
 10
689.6879737855496
 20
180.4796044436937
 30
0.0
 11
689.6879737855497
 21
182.9921488372331
 31
0.0
  0
LINE
  5
B394
330
1F
100
AcDbEntity
  8
0
  6
Continuous
 62
     7
370
    15
100
AcDbLine
 10
690.0708165144179
 20
182.9921488372331
 30
0.0
 11
689.6879737855497
 21
182.9921488372331
 31
0.0
  0
LINE
  5
B395
330
1F
100
AcDbEntity
  8
0
  6
Continuous
 62
     7
370
    15
100
AcDbLine
 10
738.0708183286331
 20
134.6093049926395
 30
0.0
 11
735.5582739350936
 21
134.6093049926396
 31
0.0
  0
LINE
  5
B396
330
1F
100
AcDbEntity
  8
0
  6
Continuous
 62
     7
370
    15
100
AcDbLine
 10
738.0708183286331
 20
134.6093049926395
 30
0.0
 11
738.0708183286331
 21
134.992147488677
 31
0.0
  0
LINE
  5
B397
330
1F
100
AcDbEntity
  8
0
  6
Continuous
 62
     7
370
    15
100
AcDbLine
 10
735.558273935094
 20
147.3749900890226
 30
0.0
 11
738.0708183286334
 21
147.3749900890226
 31
0.0
  0
LINE
  5
B398
330
1F
100
AcDbEntity
  8
0
  6
Continuous
 62
     7
370
    15
100
AcDbLine
 10
738.0708183286334
 20
146.9921473601545
 30
0.0
 11
738.0708183286334
 21
147.3749900890226
 31
0.0
  0
LINE
  5
B399
330
1F
100
AcDbEntity
  8
0
  6
Continuous
 62
     7
370
    15
100
AcDbLine
 10
656.6542803434274
 20
134.1850409937751
 30
0.0
 11
654.0708157358311
 21
134.1850409937752
 31
0.0
  0
LINE
  5
B39A
330
1F
100
AcDbEntity
  8
0
  6
Continuous
 62
     7
370
    15
100
AcDbLine
 10
654.0708157358311
 20
134.6093049926412
 30
0.0
 11
654.0708157358311
 21
134.1850409937752
 31
0.0
  0
LINE
  5
B39B
330
1F
100
AcDbEntity
  8
0
  6
Continuous
 62
     7
370
    15
100
AcDbLine
 10
702.8779226479664
 20
101.5756127146723
 30
0.0
 11
702.8779226479664
 21
98.99214624443079
 31
0.0
  0
LINE
  5
B39C
330
1F
100
AcDbEntity
  8
0
  6
Continuous
 62
     7
370
    15
100
AcDbLine
 10
702.4536586491003
 20
98.99214624443079
 30
0.0
 11
702.8779226479664
 21
98.99214624443079
 31
0.0
  0
LINE
  5
B39D
330
1F
100
AcDbEntity
  8
0
  6
Continuous
 62
     7
370
    15
100
AcDbLine
 10
689.2637097866835
 20
180.4086823669915
 30
0.0
 11
689.2637097866836
 21
182.9921488372331
 31
0.0
  0
LINE
  5
B39E
330
1F
100
AcDbEntity
  8
0
  6
Continuous
 62
     7
370
    15
100
AcDbLine
 10
689.6879737855497
 20
182.9921488372331
 30
0.0
 11
689.2637097866836
 21
182.9921488372331
 31
0.0
  0
LINE
  5
B39F
330
1F
100
AcDbEntity
  8
0
  6
Continuous
 62
     7
370
    15
100
AcDbLine
 10
735.4873518583919
 20
147.7992540878887
 30
0.0
 11
738.0708183286334
 21
147.7992540878887
 31
0.0
  0
LINE
  5
B3A0
330
1F
100
AcDbEntity
  8
0
  6
Continuous
 62
     7
370
    15
100
AcDbLine
 10
738.0708183286334
 20
147.3749900890226
 30
0.0
 11
738.0708183286334
 21
147.7992540878887
 31
0.0
  0
LINE
  5
B3A1
330
1F
100
AcDbEntity
  8
0
  6
Continuous
 62
     7
370
    15
100
AcDbLine
 10
654.0708157358314
 20
147.7992540878904
 30
0.0
 11
656.6542803434278
 21
147.7992540878904
 31
0.0
  0
LINE
  5
B3A2
330
1F
100
AcDbEntity
  8
0
  6
Continuous
 62
     7
370
    15
100
AcDbLine
 10
657.7595907387879
 20
152.4921475631845
 30
0.0
 11
654.0708157358315
 21
152.4921475631846
 31
0.0
  0
LINE
  5
B3A3
330
1F
100
AcDbEntity
  8
0
  6
Continuous
 62
     7
370
    15
100
AcDbLine
 10
654.0708157358315
 20
152.4921475631846
 30
0.0
 11
654.0708157358314
 21
147.7992540878904
 31
0.0
  0
LINE
  5
B3A4
330
1F
100
AcDbEntity
  8
0
  6
Continuous
 62
     7
370
    15
100
AcDbLine
 10
657.7595907387874
 20
129.492147518481
 30
0.0
 11
654.070815735831
 21
129.4921475184811
 31
0.0
  0
LINE
  5
B3A5
330
1F
100
AcDbEntity
  8
0
  6
Continuous
 62
     7
370
    15
100
AcDbLine
 10
654.0708157358311
 20
134.1850409937752
 30
0.0
 11
654.070815735831
 21
129.4921475184811
 31
0.0
  0
LINE
  5
B3A6
330
1F
100
AcDbEntity
  8
0
  6
Continuous
 62
     7
370
    15
100
AcDbLine
 10
654.0708157358314
 20
147.7992540878904
 30
0.0
 11
654.0708157358314
 21
147.3749900890243
 31
0.0
  0
LINE
  5
B3A7
330
1F
100
AcDbEntity
  8
0
  6
Continuous
 62
     7
370
    15
100
AcDbLine
 10
689.2637097866818
 20
98.99214624443107
 30
0.0
 11
689.2637097866818
 21
101.5756127146726
 31
0.0
  0
LINE
  5
B3A8
330
1F
100
AcDbEntity
  8
0
  6
Continuous
 62
     7
370
    15
100
AcDbLine
 10
684.5708165442184
 20
102.6809212473875
 30
0.0
 11
684.5708165442183
 21
98.99214624443118
 31
0.0
  0
LINE
  5
B3A9
330
1F
100
AcDbEntity
  8
0
  6
Continuous
 62
     7
370
    15
100
AcDbLine
 10
684.5708165442183
 20
98.99214624443118
 30
0.0
 11
689.2637097866818
 21
98.99214624443107
 31
0.0
  0
LINE
  5
B3AA
330
1F
100
AcDbEntity
  8
0
  6
Continuous
 62
     7
370
    15
100
AcDbLine
 10
707.5708161232605
 20
98.99214624443068
 30
0.0
 11
707.5708161232606
 21
102.680921247387
 31
0.0
  0
LINE
  5
B3AB
330
1F
100
AcDbEntity
  8
0
  6
Continuous
 62
     7
370
    15
100
AcDbLine
 10
702.8779226479664
 20
98.99214624443079
 30
0.0
 11
707.5708161232605
 21
98.99214624443068
 31
0.0
  0
LINE
  5
B3AC
330
1F
100
AcDbEntity
  8
0
  6
Continuous
 62
     7
370
    15
100
AcDbLine
 10
689.2637097866818
 20
98.99214624443107
 30
0.0
 11
689.6879737855479
 21
98.99214624443107
 31
0.0
  0
LINE
  5
B3AD
330
1F
100
AcDbEntity
  8
0
  6
Continuous
 62
     7
370
    15
100
AcDbLine
 10
707.5708161232622
 20
179.3033738342763
 30
0.0
 11
707.5708161232624
 21
182.9921488372327
 31
0.0
  0
LINE
  5
B3AE
330
1F
100
AcDbEntity
  8
0
  6
Continuous
 62
     7
370
    15
100
AcDbLine
 10
702.8779226479683
 20
182.9921488372328
 30
0.0
 11
702.8779226479681
 21
180.4086823669912
 31
0.0
  0
LINE
  5
B3AF
330
1F
100
AcDbEntity
  8
0
  6
Continuous
 62
     7
370
    15
100
AcDbLine
 10
707.5708161232624
 20
182.9921488372327
 30
0.0
 11
702.8779226479683
 21
182.9921488372328
 31
0.0
  0
LINE
  5
B3B0
330
1F
100
AcDbEntity
  8
0
  6
Continuous
 62
     7
370
    15
100
AcDbLine
 10
684.57081654422
 20
179.3033738342768
 30
0.0
 11
684.5708165442202
 21
182.9921488372332
 31
0.0
  0
LINE
  5
B3B1
330
1F
100
AcDbEntity
  8
0
  6
Continuous
 62
     7
370
    15
100
AcDbLine
 10
689.2637097866836
 20
182.9921488372331
 30
0.0
 11
684.5708165442202
 21
182.9921488372332
 31
0.0
  0
LINE
  5
B3B2
330
1F
100
AcDbEntity
  8
0
  6
Continuous
 62
     7
370
    15
100
AcDbLine
 10
702.8779226479683
 20
182.9921488372328
 30
0.0
 11
702.4536586491022
 21
182.9921488372328
 31
0.0
  0
LINE
  5
B3B3
330
1F
100
AcDbEntity
  8
0
  6
Continuous
 62
     7
370
    15
100
AcDbLine
 10
738.0708183286331
 20
134.1850409937734
 30
0.0
 11
735.4873518583915
 21
134.1850409937735
 31
0.0
  0
LINE
  5
B3B4
330
1F
100
AcDbEntity
  8
0
  6
Continuous
 62
     7
370
    15
100
AcDbLine
 10
738.0708183286331
 20
134.1850409937734
 30
0.0
 11
738.0708183286331
 21
134.6093049926395
 31
0.0
  0
LINE
  5
B3B5
330
1F
100
AcDbEntity
  8
0
  6
Continuous
 62
     7
370
    15
100
AcDbLine
 10
734.3820433256771
 20
152.4921475631829
 30
0.0
 11
738.0708183286335
 21
152.4921475631828
 31
0.0
  0
LINE
  5
B3B6
330
1F
100
AcDbEntity
  8
0
  6
Continuous
 62
     7
370
    15
100
AcDbLine
 10
738.0708183286334
 20
147.7992540878887
 30
0.0
 11
738.0708183286335
 21
152.4921475631828
 31
0.0
  0
LINE
  5
B3B7
330
1F
100
AcDbEntity
  8
0
  6
Continuous
 62
     7
370
    15
100
AcDbLine
 10
734.3820433256767
 20
129.4921475184794
 30
0.0
 11
738.0708183286331
 21
129.4921475184793
 31
0.0
  0
LINE
  5
B3B8
330
1F
100
AcDbEntity
  8
0
  6
Continuous
 62
     7
370
    15
100
AcDbLine
 10
738.0708183286331
 20
129.4921475184793
 30
0.0
 11
738.0708183286331
 21
134.1850409937734
 31
0.0
  0
CIRCLE
  5
B3B9
330
1F
100
AcDbEntity
  8
0
  6
Continuous
 62
     7
370
    15
100
AcDbCircle
 10
671.3220792054081
 20
116.2434100473604
 30
0.0
 40
3.250000000000014
  0
ARC
  5
B3BA
330
1F
100
AcDbEntity
  8
0
  6
Continuous
 62
     7
370
    15
100
AcDbCircle
 10
696.0708330383321
 20
140.9921663277357
 30
0.0
 40
40.00002505296386
100
AcDbArc
 50
212.1491063451234
 51
232.9032052545674
  0
CIRCLE
  5
B3BB
330
1F
100
AcDbEntity
  8
0
  6
Continuous
 62
     7
370
    15
100
AcDbCircle
 10
671.3220792054092
 20
165.7408847304186
 30
0.0
 40
3.25
  0
ARC
  5
B3BC
330
1F
100
AcDbEntity
  8
0
  6
Continuous
 62
     7
370
    15
100
AcDbCircle
 10
696.0708165469377
 20
140.9921473888889
 30
0.0
 40
40.0
100
AcDbArc
 50
127.0967922665158
 51
142.9032077334822
  0
CIRCLE
  5
B3BD
330
1F
100
AcDbEntity
  8
0
  6
Continuous
 62
     7
370
    15
100
AcDbCircle
 10
720.8195538884664
 20
116.2434100473593
 30
0.0
 40
3.25
  0
ARC
  5
B3BE
330
1F
100
AcDbEntity
  8
0
  6
Continuous
 62
     7
370
    15
100
AcDbCircle
 10
696.3153567080846
 20
140.7205647629071
 30
0.0
 40
39.64856704096255
100
AcDbArc
 50
296.0048429661587
 51
327.9951446315603
  0
CIRCLE
  5
B3BF
330
1F
100
AcDbEntity
  8
0
  6
Continuous
 62
     7
370
    15
100
AcDbCircle
 10
720.8195538884674
 20
165.7408847304176
 30
0.0
 40
3.25
  0
ARC
  5
B3C0
330
1F
100
AcDbEntity
  8
0
  6
Continuous
 62
     7
370
    15
100
AcDbCircle
 10
696.0708165469377
 20
140.9921473888889
 30
0.0
 40
40.00000000000001
100
AcDbArc
 50
37.0967922665152
 51
52.9032077334822
  0
LINE
  5
B3C3
330
1F
100
AcDbEntity
  8
0
  6
Continuous
 62
     7
370
    15
100
AcDbLine
 10
794.9021401047055
 20
134.992147488677
 30
0.0
 11
792.0092472969834
 21
134.992147488677
 31
0.0
  0
LINE
  5
B3C4
330
1F
100
AcDbEntity
  8
0
  6
Continuous
 62
     7
370
    15
100
AcDbLine
 10
792.0092472969834
 20
134.992147488677
 30
0.0
 11
792.0092472969834
 21
146.9921473601545
 31
0.0
  0
LINE
  5
B3C5
330
1F
100
AcDbEntity
  8
0
  6
Continuous
 62
     7
370
    15
100
AcDbLine
 10
792.0092472969834
 20
146.9921473601545
 30
0.0
 11
794.9021401047055
 21
146.9921473601545
 31
0.0
  0
LINE
  5
B3C6
330
1F
100
AcDbEntity
  8
0
  6
Continuous
 62
     7
370
    15
100
AcDbLine
 10
794.9021401047055
 20
146.9921473601545
 30
0.0
 11
795.2264042734448
 21
146.6678834242458
 31
0.0
  0
LINE
  5
B3C7
330
1F
100
AcDbEntity
  8
0
  6
Continuous
 62
     7
370
    15
100
AcDbLine
 10
795.2264042734448
 20
146.6678834242458
 30
0.0
 11
795.9335109382216
 21
147.3749900890226
 31
0.0
  0
LINE
  5
B3C8
330
1F
100
AcDbEntity
  8
0
  6
Continuous
 62
     7
370
    15
100
AcDbLine
 10
795.9335109382216
 20
147.3749900890226
 30
0.0
 11
795.5092469393555
 21
147.7992540878887
 31
0.0
  0
LINE
  5
B3C9
330
1F
100
AcDbEntity
  8
0
  6
Continuous
 62
     7
370
    15
100
AcDbLine
 10
795.5092469393555
 20
147.7992540878887
 30
0.0
 11
795.5092469393555
 21
152.4921475631828
 31
0.0
  0
LINE
  5
B3CA
330
1F
100
AcDbEntity
  8
0
  6
Continuous
 62
     7
370
    15
100
AcDbLine
 10
795.5092469393555
 20
152.4921475631828
 30
0.0
 11
805.5092467158381
 21
152.4921475631828
 31
0.0
  0
LINE
  5
B3CB
330
1F
100
AcDbEntity
  8
0
  6
Continuous
 62
     7
370
    15
100
AcDbLine
 10
805.5092467158381
 20
129.4921475184793
 30
0.0
 11
805.5092467158381
 21
152.4921475631828
 31
0.0
  0
LINE
  5
B3CC
330
1F
100
AcDbEntity
  8
0
  6
Continuous
 62
     7
370
    15
100
AcDbLine
 10
795.5092469393555
 20
129.4921475184793
 30
0.0
 11
805.5092467158381
 21
129.4921475184793
 31
0.0
  0
LINE
  5
B3CD
330
1F
100
AcDbEntity
  8
0
  6
Continuous
 62
     7
370
    15
100
AcDbLine
 10
795.5092469393555
 20
129.4921475184793
 30
0.0
 11
795.5092469393555
 21
134.1850409937734
 31
0.0
  0
LINE
  5
B3CE
330
1F
100
AcDbEntity
  8
0
  6
Continuous
 62
     7
370
    15
100
AcDbLine
 10
795.5092469393555
 20
134.1850409937734
 30
0.0
 11
795.9335109382216
 21
134.6093049926395
 31
0.0
  0
LINE
  5
B3CF
330
1F
100
AcDbEntity
  8
0
  6
Continuous
 62
     7
370
    15
100
AcDbLine
 10
795.9335109382216
 20
134.6093049926395
 30
0.0
 11
795.2264042734448
 21
135.3164116574163
 31
0.0
  0
LINE
  5
B3D0
330
1F
100
AcDbEntity
  8
0
  6
Continuous
 62
     7
370
    15
100
AcDbLine
 10
795.2264042734448
 20
135.3164116574163
 30
0.0
 11
794.9021401047055
 21
134.992147488677
 31
0.0
  0
LINE
  5
B3D1
330
1F
100
AcDbEntity
  8
0
  6
Continuous
 62
     7
370
    15
100
AcDbLine
 10
791.5092462837044
 20
134.992147488677
 30
0.0
 11
791.5092462837044
 21
146.9921473601545
 31
0.0
  0
LINE
  5
B3D2
330
1F
100
AcDbEntity
  8
0
  6
Continuous
 62
     7
370
    15
100
AcDbLine
 10
792.0092472969834
 20
134.992147488677
 30
0.0
 11
791.5092462837044
 21
134.992147488677
 31
0.0
  0
LINE
  5
B3D3
330
1F
100
AcDbEntity
  8
0
  6
Continuous
 62
     7
370
    15
100
AcDbLine
 10
791.5092462837044
 20
146.9921473601545
 30
0.0
 11
792.0092472969834
 21
146.9921473601545
 31
0.0
  0
LINE
  5
B3D7
330
1F
100
AcDbEntity
  8
0
  6
Continuous
 62
     7
370
    15
100
AcDbLine
 10
845.0092466711346
 20
100.9921465722564
 30
0.0
 11
845.0092466711346
 21
180.6873713342192
 31
0.0
  0
LINE
  5
B3DB
330
1F
100
AcDbEntity
  8
0
  6
Continuous
 62
     7
370
    15
100
AcDbLine
 10
795.5092469393555
 20
109.0874408093927
 30
0.0
 11
788.5092476546113
 21
109.0874408093927
 31
0.0
  0
LINE
  5
B3DC
330
1F
100
AcDbEntity
  8
0
  6
Continuous
 62
     7
370
    15
100
AcDbLine
 10
795.5092469393555
 20
116.8656141219374
 30
0.0
 11
795.5092469393555
 21
109.0874408093927
 31
0.0
  0
LINE
  5
B3DD
330
1F
100
AcDbEntity
  8
0
  6
Continuous
 62
     7
370
    15
100
AcDbLine
 10
788.5092476546113
 20
116.8656141219374
 30
0.0
 11
795.5092469393555
 21
116.8656141219374
 31
0.0
  0
LINE
  5
B3DE
330
1F
100
AcDbEntity
  8
0
  6
Continuous
 62
     7
370
    15
100
AcDbLine
 10
788.5092476546113
 20
147.0921474231119
 30
0.0
 11
788.5092476546113
 21
116.8656141219374
 31
0.0
  0
LINE
  5
B3DF
330
1F
100
AcDbEntity
  8
0
  6
Continuous
 62
     7
370
    15
100
AcDbLine
 10
795.5092469393555
 20
134.8921476585502
 30
0.0
 11
788.5092476546113
 21
134.8921476585502
 31
0.0
  0
LINE
  5
B3E0
330
1F
100
AcDbEntity
  8
0
  6
Continuous
 62
     7
370
    15
100
AcDbLine
 10
795.5092469393555
 20
134.1850409937735
 30
0.0
 11
795.5092469393555
 21
134.8921476585502
 31
0.0
  0
LINE
  5
B3E1
330
1F
100
AcDbEntity
  8
0
  6
Continuous
 62
     7
370
    15
100
AcDbLine
 10
795.5092469393555
 20
147.0921474231119
 30
0.0
 11
795.5092469393555
 21
147.7992540878887
 31
0.0
  0
LINE
  5
B3E2
330
1F
100
AcDbEntity
  8
0
  6
Continuous
 62
     7
370
    15
100
AcDbLine
 10
788.5092476546113
 20
147.0921474231119
 30
0.0
 11
795.5092469393555
 21
147.0921474231119
 31
0.0
  0
LINE
  5
B3E3
330
1F
100
AcDbEntity
  8
0
  6
Continuous
 62
     7
370
    15
100
AcDbLine
 10
788.5092476546113
 20
165.1186809597251
 30
0.0
 11
788.5092476546113
 21
147.0921474231119
 31
0.0
  0
LINE
  5
B3E4
330
1F
100
AcDbEntity
  8
0
  6
Continuous
 62
     7
370
    15
100
AcDbLine
 10
795.5092469393555
 20
165.1186809597251
 30
0.0
 11
788.5092476546113
 21
165.1186809597251
 31
0.0
  0
LINE
  5
B3E5
330
1F
100
AcDbEntity
  8
0
  6
Continuous
 62
     7
370
    15
100
AcDbLine
 10
795.5092469393555
 20
172.8968561349152
 30
0.0
 11
795.5092469393555
 21
165.1186809597251
 31
0.0
  0
LINE
  5
B3E6
330
1F
100
AcDbEntity
  8
0
  6
Continuous
 62
     7
370
    15
100
AcDbLine
 10
788.5092476546113
 20
172.8968561349152
 30
0.0
 11
795.5092469393555
 21
172.8968561349152
 31
0.0
  0
LINE
  5
B3E7
330
1F
100
AcDbEntity
  8
0
  6
Continuous
 62
     7
370
    15
100
AcDbLine
 10
788.5092476546113
 20
180.5242855755331
 30
0.0
 11
788.5092476546113
 21
172.8968561349152
 31
0.0
  0
LINE
  5
B3E8
330
1F
100
AcDbEntity
  8
0
  6
Continuous
 62
     7
370
    15
100
AcDbLine
 10
788.5092476546113
 20
169.6299721209049
 30
0.0
 11
795.5092469393555
 21
169.6299721209049
 31
0.0
  0
LINE
  5
B3E9
330
1F
100
AcDbEntity
  8
0
  6
Continuous
 62
     7
370
    15
100
AcDbLine
 10
788.5092476546113
 20
169.6299721209049
 30
0.0
 11
788.5092476546113
 21
165.1186809597253
 31
0.0
  0
LINE
  5
B3EA
330
1F
100
AcDbEntity
  8
0
  6
Continuous
 62
     7
370
    15
100
AcDbLine
 10
788.5092476546113
 20
112.3543229607582
 30
0.0
 11
795.5092469393555
 21
112.3543229607582
 31
0.0
  0
LINE
  5
B3EB
330
1F
100
AcDbEntity
  8
0
  6
Continuous
 62
     7
370
    15
100
AcDbLine
 10
788.5092476546113
 20
116.8656141219377
 30
0.0
 11
788.5092476546113
 21
112.3543229607582
 31
0.0
  0
LINE
  5
B3EC
330
1F
100
AcDbEntity
  8
0
  6
Continuous
 62
     7
370
    15
100
AcDbLine
 10
788.5092476546113
 20
172.8968561349152
 30
0.0
 11
788.5092476546113
 21
169.6299721209049
 31
0.0
  0
LINE
  5
B3ED
330
1F
100
AcDbEntity
  8
0
  6
Continuous
 62
     7
370
    15
100
AcDbLine
 10
788.5092476546113
 20
112.3543229607582
 30
0.0
 11
788.5092476546113
 21
109.0874408093927
 31
0.0
  0
LINE
  5
B3EF
330
1F
100
AcDbEntity
  8
0
  6
Continuous
 62
     7
370
    15
100
AcDbLine
 10
791.5092462837044
 20
134.9921474886775
 30
0.0
 11
789.0092468052451
 21
134.9921474886775
 31
0.0
  0
LINE
  5
B3F0
330
1F
100
AcDbEntity
  8
0
  6
Continuous
 62
     7
370
    15
100
AcDbLine
 10
789.0092468052451
 20
146.992147360155
 30
0.0
 11
791.5092462837044
 21
146.992147360155
 31
0.0
  0
LINE
  5
B410
330
1F
100
AcDbEntity
  8
0
  6
Continuous
 62
     7
370
    15
100
AcDbLine
 10
845.0092466711346
 20
180.6873713342192
 30
0.0
 11
845.0092466711346
 21
180.940121105099
 31
0.0
  0
LINE
  5
B411
330
1F
100
AcDbEntity
  8
0
  6
Continuous
 62
     7
370
    15
100
AcDbLine
 10
845.0092466711346
 20
180.940121105099
 30
0.0
 11
845.0092466711346
 21
180.9921485094074
 31
0.0
  0
LINE
  5
BA09
330
1F
100
AcDbEntity
  8
0
  6
Continuous
 62
     7
370
    15
100
AcDbLine
 10
713.699156597516
 20
105.0861380128399
 30
0.0
 11
713.0801586362332
 21
106.4764312533871
 31
0.0
  0
LINE
  5
BA0A
330
1F
100
AcDbEntity
  8
0
  6
Continuous
 62
     7
370
    15
100
AcDbLine
 10
713.0801586362332
 20
106.4764312533871
 30
0.0
 11
713.6739624592275
 21
106.7408076552883
 31
0.0
  0
LINE
  5
BA0B
330
1F
100
AcDbEntity
  8
0
  6
Continuous
 62
     7
370
    15
100
AcDbLine
 10
713.6739624592275
 20
106.7408076552883
 30
0.0
 11
711.9656691255778
 21
110.5776983378664
 31
0.0
  0
LINE
  5
BA0C
330
1F
100
AcDbEntity
  8
0
  6
Continuous
 62
     7
370
    15
100
AcDbLine
 10
711.9656691255778
 20
110.5776983378664
 30
0.0
 11
708.0374240803331
 21
108.8287322847381
 31
0.0
  0
LINE
  5
BA0D
330
1F
100
AcDbEntity
  8
0
  6
Continuous
 62
     7
370
    15
100
AcDbLine
 10
708.0374240803331
 20
108.8287322847381
 30
0.0
 11
709.7457174139828
 21
104.9918397395149
 31
0.0
  0
LINE
  5
BA0E
330
1F
100
AcDbEntity
  8
0
  6
Continuous
 62
     7
370
    15
100
AcDbLine
 10
709.7457174139828
 20
104.9918397395149
 30
0.0
 11
710.3395221682996
 21
105.2562198667065
 31
0.0
  0
LINE
  5
BA0F
330
1F
100
AcDbEntity
  8
0
  6
Continuous
 62
     7
370
    15
100
AcDbLine
 10
710.3395221682996
 20
105.2562198667065
 30
0.0
 11
710.9585201295823
 21
103.8659266261593
 31
0.0
  0
LINE
  5
BA12
330
1F
100
AcDbEntity
  8
0
  6
Continuous
 62
     7
370
    15
100
AcDbLine
 10
731.4374672177047
 20
122.3052530614868
 30
0.0
 11
730.1194930377215
 21
123.0661845831409
 31
0.0
  0
LINE
  5
BA13
330
1F
100
AcDbEntity
  8
0
  6
Continuous
 62
     7
370
    15
100
AcDbLine
 10
730.1194930377215
 20
123.0661845831409
 30
0.0
 11
730.44449481394
 21
123.6291020242706
 31
0.0
  0
LINE
  5
BA14
330
1F
100
AcDbEntity
  8
0
  6
Continuous
 62
     7
370
    15
100
AcDbLine
 10
730.44449481394
 20
123.6291020242706
 30
0.0
 11
726.807186559102
 21
125.7291021822229
 31
0.0
  0
LINE
  5
BA15
330
1F
100
AcDbEntity
  8
0
  6
Continuous
 62
     7
370
    15
100
AcDbLine
 10
726.807186559102
 20
125.7291021822229
 30
0.0
 11
724.6571874174088
 21
122.0051921038166
 31
0.0
  0
LINE
  5
BA16
330
1F
100
AcDbEntity
  8
0
  6
Continuous
 62
     7
370
    15
100
AcDbLine
 10
724.6571874174088
 20
122.0051921038166
 30
0.0
 11
728.2944919469565
 21
119.9051919458643
 31
0.0
  0
LINE
  5
BA17
330
1F
100
AcDbEntity
  8
0
  6
Continuous
 62
     7
370
    15
100
AcDbLine
 10
728.2944919469565
 20
119.9051919458643
 30
0.0
 11
728.619493723175
 21
120.468109386994
 31
0.0
  0
LINE
  5
BA18
330
1F
100
AcDbEntity
  8
0
  6
Continuous
 62
     7
370
    15
100
AcDbLine
 10
728.619493723175
 20
120.468109386994
 30
0.0
 11
729.9374679031581
 21
119.7071760026947
 31
0.0
  0
LINE
  5
BA20
330
1F
100
AcDbEntity
  8
0
  6
Continuous
 62
     7
370
    15
100
AcDbLine
 10
662.2041651907176
 20
119.7071760026947
 30
0.0
 11
663.5221393707007
 21
120.468109386994
 31
0.0
  0
LINE
  5
BA21
330
1F
100
AcDbEntity
  8
0
  6
Continuous
 62
     7
370
    15
100
AcDbLine
 10
663.5221393707007
 20
120.468109386994
 30
0.0
 11
663.8471411469192
 21
119.9051919458643
 31
0.0
  0
LINE
  5
BA22
330
1F
100
AcDbEntity
  8
0
  6
Continuous
 62
     7
370
    15
100
AcDbLine
 10
663.8471411469192
 20
119.9051919458643
 30
0.0
 11
667.4844456764668
 21
122.0051921038166
 31
0.0
  0
LINE
  5
BA23
330
1F
100
AcDbEntity
  8
0
  6
Continuous
 62
     7
370
    15
100
AcDbLine
 10
667.4844456764668
 20
122.0051921038166
 30
0.0
 11
665.3344465347737
 21
125.7291021822229
 31
0.0
  0
LINE
  5
BA24
330
1F
100
AcDbEntity
  8
0
  6
Continuous
 62
     7
370
    15
100
AcDbLine
 10
665.3344465347737
 20
125.7291021822229
 30
0.0
 11
661.6971382799357
 21
123.6291020242706
 31
0.0
  0
LINE
  5
BA25
330
1F
100
AcDbEntity
  8
0
  6
Continuous
 62
     7
370
    15
100
AcDbLine
 10
661.6971382799357
 20
123.6291020242706
 30
0.0
 11
662.0221400561542
 21
123.0661845831409
 31
0.0
  0
LINE
  5
BA26
330
1F
100
AcDbEntity
  8
0
  6
Continuous
 62
     7
370
    15
100
AcDbLine
 10
662.0221400561542
 20
123.0661845831409
 30
0.0
 11
660.704165876171
 21
122.3052530614868
 31
0.0
  0
SPLINE
  5
BA34
330
1F
100
AcDbEntity
  8
0
  6
Continuous
 62
     7
370
    15
100
AcDbSpline
210
0.0
220
0.0
230
1.0
 70
    24
 71
     1
 72
     4
 73
     2
 74
     0
 42
0.0000000001
 43
0.0000000001
 40
0.0
 40
0.0
 40
1.0
 40
1.0
 10
845.0092466711346
 20
180.9921485094074
 30
0.0
 10
805.5092448531929
 20
180.9921485094073
 30
0.0
  0
SPLINE
  5
BA35
330
1F
100
AcDbEntity
  8
0
  6
Continuous
 62
     7
370
    15
100
AcDbSpline
210
0.0
220
0.0
230
1.0
 70
    24
 71
     1
 72
     4
 73
     2
 74
     0
 42
0.0000000001
 43
0.0000000001
 40
0.0
 40
0.0
 40
1.0
 40
1.0
 10
805.5092448531929
 20
100.9921465722563
 30
0.0
 10
845.0092466711346
 20
100.9921465722564
 30
0.0
  0
LINE
  5
BA4D
330
1F
100
AcDbEntity
  8
0
  6
Continuous
 62
     7
370
    15
100
AcDbLine
 10
788.0092466413323
 20
146.9921474765698
 30
0.0
 11
788.0092466413323
 21
134.9921473722617
 31
0.0
  0
LINE
  5
BA50
330
1F
100
AcDbEntity
  8
0
  6
Continuous
 62
     7
370
    15
100
AcDbLine
 10
787.5092456280533
 20
146.9921474765698
 30
0.0
 11
787.5092456280533
 21
134.9921473722617
 31
0.0
  0
LINE
  5
BA51
330
1F
100
AcDbEntity
  8
0
  6
Continuous
 62
     7
370
    15
100
AcDbLine
 10
787.5092456280533
 20
134.9921473722617
 30
0.0
 11
788.0092466413323
 21
134.9921473722617
 31
0.0
  0
LINE
  5
BA52
330
1F
100
AcDbEntity
  8
0
  6
Continuous
 62
     7
370
    15
100
AcDbLine
 10
788.0092466413323
 20
146.9921474765698
 30
0.0
 11
787.5092456280533
 21
146.9921474765698
 31
0.0
  0
LINE
  5
BA57
330
1F
100
AcDbEntity
  8
0
  6
Continuous
 62
     7
370
    15
100
AcDbLine
 10
804.0092455386464
 20
182.9921488372329
 30
0.0
 11
804.0092455386464
 21
179.3033738342765
 31
0.0
  0
LINE
  5
BA58
330
1F
100
AcDbEntity
  8
0
  6
Continuous
 62
     7
370
    15
100
AcDbLine
 10
804.5092465519253
 20
182.9921488372329
 30
0.0
 11
804.0092455386464
 21
182.9921488372329
 31
0.0
  0
LINE
  5
BA5A
330
1F
100
AcDbEntity
  8
0
  6
Continuous
 62
     7
370
    15
100
AcDbLine
 10
804.5092465519253
 20
179.3033738342765
 30
0.0
 11
804.5092465519253
 21
182.9921488372329
 31
0.0
  0
LINE
  5
BA5B
330
1F
100
AcDbEntity
  8
0
  6
Continuous
 62
     7
370
    15
100
AcDbLine
 10
795.0092459260766
 20
182.9921488372328
 30
0.0
 11
795.0092459260766
 21
179.3033738342764
 31
0.0
  0
LINE
  5
BA5C
330
1F
100
AcDbEntity
  8
0
  6
Continuous
 62
     7
370
    15
100
AcDbLine
 10
804.0092455386464
 20
182.9921488372329
 30
0.0
 11
795.0092459260766
 21
182.9921488372328
 31
0.0
  0
LINE
  5
BA5E
330
1F
100
AcDbEntity
  8
0
  6
Continuous
 62
     7
370
    15
100
AcDbLine
 10
794.5092449127976
 20
182.9921488372328
 30
0.0
 11
794.5092449127976
 21
179.4499193040373
 31
0.0
  0
LINE
  5
BA5F
330
1F
100
AcDbEntity
  8
0
  6
Continuous
 62
     7
370
    15
100
AcDbLine
 10
795.0092459260766
 20
182.9921488372328
 30
0.0
 11
794.5092449127976
 21
182.9921488372328
 31
0.0
  0
LINE
  5
BA61
330
1F
100
AcDbEntity
  8
0
  6
Continuous
 62
     7
370
    15
100
AcDbLine
 10
794.2264022468869
 20
182.9921488372328
 30
0.0
 11
794.2264022468869
 21
180.5242893008234
 31
0.0
  0
LINE
  5
BA63
330
1F
100
AcDbEntity
  8
0
  6
Continuous
 62
     7
370
    15
100
AcDbLine
 10
794.2264022468869
 20
182.9921488372328
 30
0.0
 11
794.9335107743088
 21
182.9921488372328
 31
0.0
  0
LINE
  5
BA64
330
1F
100
AcDbEntity
  8
0
  6
Continuous
 62
     7
370
    15
100
AcDbLine
 10
793.9021380781476
 20
182.9921488372328
 30
0.0
 11
793.9021380781476
 21
180.5242893008234
 31
0.0
  0
LINE
  5
BA66
330
1F
100
AcDbEntity
  8
0
  6
Continuous
 62
     7
370
    15
100
AcDbLine
 10
787.5092456280533
 20
157.4921473350087
 30
0.0
 11
787.5092456280533
 21
153.4921476106802
 31
0.0
  0
LINE
  5
BA67
330
1F
100
AcDbEntity
  8
0
  6
Continuous
 62
     7
370
    15
100
AcDbLine
 10
787.5092456280533
 20
157.4921473350087
 30
0.0
 11
788.0092466413323
 21
157.9921483482877
 31
0.0
  0
LINE
  5
BA68
330
1F
100
AcDbEntity
  8
0
  6
Continuous
 62
     7
370
    15
100
AcDbLine
 10
788.0092466413323
 20
157.9921483482877
 30
0.0
 11
788.5092476546113
 21
157.9921483482877
 31
0.0
  0
LINE
  5
BA69
330
1F
100
AcDbEntity
  8
0
  6
Continuous
 62
     7
370
    15
100
AcDbLine
 10
791.0092452704255
 20
180.5242893008234
 30
0.0
 11
791.0092452704255
 21
182.9921488372328
 31
0.0
  0
LINE
  5
BA6A
330
1F
100
AcDbEntity
  8
0
  6
Continuous
 62
     7
370
    15
100
AcDbLine
 10
793.9021380781476
 20
182.9921488372328
 30
0.0
 11
791.0092452704255
 21
182.9921488372328
 31
0.0
  0
LINE
  5
BA6B
330
1F
100
AcDbEntity
  8
0
  6
Continuous
 62
     7
370
    15
100
AcDbLine
 10
793.9021380781476
 20
182.9921488372328
 30
0.0
 11
794.2264022468869
 21
182.9921488372328
 31
0.0
  0
LINE
  5
BA6C
330
1F
100
AcDbEntity
  8
0
  6
Continuous
 62
     7
370
    15
100
AcDbLine
 10
790.5092479824368
 20
182.4921478239538
 30
0.0
 11
790.5092479824368
 21
180.5242893008234
 31
0.0
  0
LINE
  5
BA6D
330
1F
100
AcDbEntity
  8
0
  6
Continuous
 62
     7
370
    15
100
AcDbLine
 10
790.5092479824368
 20
182.4921478239538
 30
0.0
 11
791.0092452704255
 21
182.9921488372328
 31
0.0
  0
LINE
  5
BA6F
330
1F
100
AcDbEntity
  8
0
  6
Continuous
 62
     7
370
    15
100
AcDbLine
 10
794.5092449127976
 20
182.9921488372328
 30
0.0
 11
794.9335107743088
 21
182.9921488372328
 31
0.0
  0
LINE
  5
BA72
330
1F
100
AcDbEntity
  8
0
  6
Continuous
 62
     7
370
    15
100
AcDbLine
 10
795.0092459260766
 20
98.99214624443073
 30
0.0
 11
804.0092455386464
 21
98.99214624443079
 31
0.0
  0
LINE
  5
BA73
330
1F
100
AcDbEntity
  8
0
  6
Continuous
 62
     7
370
    15
100
AcDbLine
 10
804.5092465519253
 20
98.99214624443079
 30
0.0
 11
804.5092465519253
 21
102.6809212473871
 31
0.0
  0
LINE
  5
BA75
330
1F
100
AcDbEntity
  8
0
  6
Continuous
 62
     7
370
    15
100
AcDbLine
 10
804.5092465519253
 20
98.99214624443079
 30
0.0
 11
804.0092455386464
 21
98.99214624443079
 31
0.0
  0
LINE
  5
BA78
330
1F
100
AcDbEntity
  8
0
  6
Continuous
 62
     7
370
    15
100
AcDbLine
 10
794.5092449127976
 20
102.5343757776261
 30
0.0
 11
794.5092449127976
 21
98.99214624443073
 31
0.0
  0
LINE
  5
BA79
330
1F
100
AcDbEntity
  8
0
  6
Continuous
 62
     7
370
    15
100
AcDbLine
 10
795.0092459260766
 20
98.99214624443073
 30
0.0
 11
794.5092449127976
 21
98.99214624443073
 31
0.0
  0
LINE
  5
BA7C
330
1F
100
AcDbEntity
  8
0
  6
Continuous
 62
     7
370
    15
100
AcDbLine
 10
794.9335107743088
 20
98.99214624443073
 30
0.0
 11
794.2264022468869
 21
98.99214624443068
 31
0.0
  0
LINE
  5
BA7D
330
1F
100
AcDbEntity
  8
0
  6
Continuous
 62
     7
370
    15
100
AcDbLine
 10
788.5092476546113
 20
123.9921465005437
 30
0.0
 11
788.0092466413324
 21
123.9921465005437
 31
0.0
  0
LINE
  5
BA7E
330
1F
100
AcDbEntity
  8
0
  6
Continuous
 62
     7
370
    15
100
AcDbLine
 10
788.0092466413324
 20
123.9921465005437
 30
0.0
 11
787.5092456280534
 21
124.4921475138227
 31
0.0
  0
LINE
  5
BA7F
330
1F
100
AcDbEntity
  8
0
  6
Continuous
 62
     7
370
    15
100
AcDbLine
 10
787.5092456280534
 20
128.4921472381512
 30
0.0
 11
787.5092456280534
 21
124.4921475138227
 31
0.0
  0
LINE
  5
BA82
330
1F
100
AcDbEntity
  8
0
  6
Continuous
 62
     7
370
    15
100
AcDbLine
 10
791.0092452704255
 20
98.99214624443068
 30
0.0
 11
791.0092452704255
 21
101.46000578084
 31
0.0
  0
LINE
  5
BA83
330
1F
100
AcDbEntity
  8
0
  6
Continuous
 62
     7
370
    15
100
AcDbLine
 10
791.0092452704255
 20
98.99214624443068
 30
0.0
 11
793.9021380781476
 21
98.99214624443068
 31
0.0
  0
LINE
  5
BA84
330
1F
100
AcDbEntity
  8
0
  6
Continuous
 62
     7
370
    15
100
AcDbLine
 10
794.2264022468869
 20
98.99214624443068
 30
0.0
 11
793.9021380781476
 21
98.99214624443068
 31
0.0
  0
LINE
  5
BA85
330
1F
100
AcDbEntity
  8
0
  6
Continuous
 62
     7
370
    15
100
AcDbLine
 10
790.5092479824368
 20
99.49214725770964
 30
0.0
 11
790.5092479824368
 21
101.46000578084
 31
0.0
  0
LINE
  5
BA86
330
1F
100
AcDbEntity
  8
0
  6
Continuous
 62
     7
370
    15
100
AcDbLine
 10
790.5092479824368
 20
99.49214725770964
 30
0.0
 11
791.0092452704255
 21
98.99214624443068
 31
0.0
  0
LINE
  5
BA88
330
1F
100
AcDbEntity
  8
0
  6
Continuous
 62
     7
370
    15
100
AcDbLine
 10
794.9335107743088
 20
98.99214624443068
 30
0.0
 11
794.5092449127976
 21
98.99214624443068
 31
0.0
  0
SPLINE
  5
BA89
330
1F
100
AcDbEntity
  8
0
  6
Continuous
 62
     7
370
    15
100
AcDbSpline
210
0.0
220
0.0
230
1.0
 70
    11
 71
     3
 72
    80
 73
    76
 74
     0
 42
0.0000000001
 43
0.0000000001
 40
0.0
 40
0.0
 40
0.0
 40
0.0
 40
0.0312500000000004
 40
0.0312500000000004
 40
0.0468750000000005
 40
0.0468750000000005
 40
0.0625000000000005
 40
0.0625000000000005
 40
0.0937500000000006
 40
0.0937500000000006
 40
0.1250000000000007
 40
0.1250000000000007
 40
0.1562500000000009
 40
0.1562500000000009
 40
0.187500000000001
 40
0.187500000000001
 40
0.2187500000000011
 40
0.2187500000000011
 40
0.2500000000000012
 40
0.2500000000000012
 40
0.2812500000000013
 40
0.2812500000000013
 40
0.3125000000000014
 40
0.3125000000000014
 40
0.3281250000000015
 40
0.3281250000000015
 40
0.3437500000000016
 40
0.3437500000000016
 40
0.3750000000000019
 40
0.3750000000000019
 40
0.4062500000000023
 40
0.4062500000000023
 40
0.4218750000000024
 40
0.4218750000000024
 40
0.4375000000000025
 40
0.4375000000000025
 40
0.4687500000000025
 40
0.4687500000000025
 40
0.5000000000000025
 40
0.5000000000000025
 40
0.5312500000000025
 40
0.5312500000000025
 40
0.5625000000000025
 40
0.5625000000000025
 40
0.5937500000000023
 40
0.5937500000000023
 40
0.6250000000000023
 40
0.6250000000000023
 40
0.6562500000000023
 40
0.6562500000000023
 40
0.6875000000000023
 40
0.6875000000000023
 40
0.7031250000000023
 40
0.7031250000000023
 40
0.7187500000000023
 40
0.7187500000000023
 40
0.7500000000000023
 40
0.7500000000000023
 40
0.7812500000000023
 40
0.7812500000000023
 40
0.7968750000000023
 40
0.7968750000000023
 40
0.8125000000000021
 40
0.8125000000000021
 40
0.8437500000000019
 40
0.8437500000000019
 40
0.8750000000000015
 40
0.8750000000000015
 40
0.9062500000000012
 40
0.9062500000000012
 40
0.9375000000000007
 40
0.9375000000000007
 40
0.9687500000000003
 40
0.9687500000000003
 40
1.0
 40
1.0
 40
1.0
 40
1.0
 10
840.0092466711345
 20
160.992149403477
 30
0.0
 10
840.0092466711345
 20
161.2785181074202
 30
0.0
 10
839.9767674748906
 20
161.5579974176351
 30
0.0
 10
839.8813677382005
 20
161.9674874291571
 30
0.0
 10
839.8417295432393
 20
162.1023537282518
 30
0.0
 10
839.7464241743881
 20
162.3688240841703
 30
0.0
 10
839.6905102158106
 20
162.5007240208618
 30
0.0
 10
839.5022008306638
 20
162.8830267087256
 30
0.0
 10
839.3486027295265
 20
163.1230264359465
 30
0.0
 10
838.9857716922435
 20
163.574604990259
 30
0.0
 10
838.7747975448492
 20
163.7867810748537
 30
0.0
 10
838.3139835140498
 20
164.1653266138641
 30
0.0
 10
838.0624851123522
 20
164.3342895170842
 30
0.0
 10
837.5160590752022
 20
164.6317505991859
 30
0.0
 10
837.225524263651
 20
164.7573679420661
 30
0.0
 10
836.6240388463861
 20
164.9589132737492
 30
0.0
 10
836.3086317914106
 20
165.0363160543664
 30
0.0
 10
835.6630803304902
 20
165.1397174739733
 30
0.0
 10
835.3384555765188
 20
165.165264973455
 30
0.0
 10
834.6855945438663
 20
165.1655562975207
 30
0.0
 10
834.3539749587712
 20
165.1394548642062
 30
0.0
 10
833.7124750761173
 20
165.0367668867156
 30
0.0
 10
833.4006457060656
 20
164.9607312298125
 30
0.0
 10
832.9463403117319
 20
164.808885202302
 30
0.0
 10
832.7964588035714
 20
164.7515699789489
 30
0.0
 10
832.5071431402678
 20
164.626189790144
 30
0.0
 10
832.3671905209073
 20
164.5580241746527
 30
0.0
 10
831.9611086828867
 20
164.3372691483874
 30
0.0
 10
831.7084059673245
 20
164.1684170812748
 30
0.0
 10
831.241773719145
 20
163.7853117770702
 30
0.0
 10
831.0351125780035
 20
163.5770838501557
 30
0.0
 10
830.7635029758161
 20
163.2397789906142
 30
0.0
 10
830.6794114829363
 20
163.1231547382372
 30
0.0
 10
830.5244265712037
 20
162.8811808001326
 30
0.0
 10
830.4534627027599
 20
162.7554795030286
 30
0.0
 10
830.2651952129538
 20
162.3732352727463
 30
0.0
 10
830.170468869246
 20
162.1090890282723
 30
0.0
 10
830.0422154381204
 20
161.5615945684331
 30
0.0
 10
830.0093695160887
 20
161.2764838002371
 30
0.0
 10
830.0091245301416
 20
160.7110644886569
 30
0.0
 10
830.0406653393874
 20
160.4278926792274
 30
0.0
 10
830.168652962139
 20
159.8608268578388
 30
0.0
 10
830.2645160905187
 20
159.581794401148
 30
0.0
 10
830.5135303533305
 20
159.0461285438357
 30
0.0
 10
830.668644587882
 20
158.7853884737072
 30
0.0
 10
831.0335123072979
 20
158.293170846726
 30
0.0
 10
831.2401117624748
 20
158.0650699139032
 30
0.0
 10
831.7005919822419
 20
157.6450733101359
 30
0.0
 10
831.9574825129544
 20
157.4517511998822
 30
0.0
 10
832.5001461067852
 20
157.1183482321742
 30
0.0
 10
832.7870079701703
 20
156.9764752047943
 30
0.0
 10
833.2409385091855
 20
156.8020572439191
 30
0.0
 10
833.3970375818257
 20
156.7501797254981
 30
0.0
 10
833.7111253151546
 20
156.6616802192243
 30
0.0
 10
833.8695639299144
 20
156.6248018212375
 30
0.0
 10
834.3489783419293
 20
156.535909983617
 30
0.0
 10
834.6740797318288
 20
156.5054373115033
 30
0.0
 10
835.33535709144
 20
156.5048809335097
 30
0.0
 10
835.660465826405
 20
156.534794819618
 30
0.0
 10
836.1401838484971
 20
156.6229104017052
 30
0.0
 10
836.2987559277819
 20
156.6595402535363
 30
0.0
 10
836.6131744601538
 20
156.7475746930111
 30
0.0
 10
836.7693283421905
 20
156.7991910306996
 30
0.0
 10
837.2234567661898
 20
156.9728240576745
 30
0.0
 10
837.5106664934593
 20
157.1142485719221
 30
0.0
 10
838.0543564117047
 20
157.4470597139956
 30
0.0
 10
838.3114735570529
 20
157.6399298821243
 30
0.0
 10
838.7725541182046
 20
158.0590543949094
 30
0.0
 10
838.97965685574
 20
158.2868781959553
 30
0.0
 10
839.3457621354926
 20
158.7790082830004
 30
0.0
 10
839.5010553301389
 20
159.0390595486283
 30
0.0
 10
839.7510617621909
 20
159.5742218854683
 30
0.0
 10
839.8474683475921
 20
159.8529365531499
 30
0.0
 10
839.976763450932
 20
160.4206257546301
 30
0.0
 10
840.0092466711345
 20
160.7057806995337
 30
0.0
 10
840.0092466711345
 20
160.992149403477
 30
0.0
  0
LINE
  5
BA8A
330
1F
100
AcDbEntity
  8
0
  6
Continuous
 62
     7
370
    15
100
AcDbLine
 10
794.5092449127976
 20
180.5242893008234
 30
0.0
 11
788.5092476546113
 21
180.5242893008234
 31
0.0
  0
LINE
  5
BA8B
330
1F
100
AcDbEntity
  8
0
  6
Continuous
 62
     7
370
    15
100
AcDbLine
 10
794.5092449127976
 20
179.3033738342764
 30
0.0
 11
794.5092449127976
 21
179.4499193040373
 31
0.0
  0
LINE
  5
BA8C
330
1F
100
AcDbEntity
  8
0
  6
Continuous
 62
     7
370
    15
100
AcDbLine
 10
805.5092448531929
 20
179.3033738342765
 30
0.0
 11
794.5092449127976
 21
179.3033738342764
 31
0.0
  0
LINE
  5
BA8D
330
1F
100
AcDbEntity
  8
0
  6
Continuous
 62
     7
370
    15
100
AcDbLine
 10
805.5092448531929
 20
180.9921485094073
 30
0.0
 11
805.5092448531929
 21
179.3033738342765
 31
0.0
  0
LINE
  5
BA8E
330
1F
100
AcDbEntity
  8
0
  6
Continuous
 62
     7
370
    15
100
AcDbLine
 10
845.0092466711344
 20
122.3052513507846
 30
0.0
 11
788.509247654611
 21
122.3052513507844
 31
0.0
  0
SPLINE
  5
BAA0
330
1F
100
AcDbEntity
  8
0
  6
Continuous
 62
     7
370
    15
100
AcDbSpline
210
0.0
220
0.0
230
1.0
 70
    11
 71
     3
 72
    80
 73
    76
 74
     0
 42
0.0000000001
 43
0.0000000001
 40
0.0
 40
0.0
 40
0.0
 40
0.0
 40
0.0312499999999996
 40
0.0312499999999996
 40
0.0468749999999993
 40
0.0468749999999993
 40
0.0624999999999989
 40
0.0624999999999989
 40
0.0937499999999984
 40
0.0937499999999984
 40
0.1249999999999978
 40
0.1249999999999978
 40
0.1562499999999973
 40
0.1562499999999973
 40
0.1874999999999967
 40
0.1874999999999967
 40
0.2187499999999962
 40
0.2187499999999962
 40
0.2499999999999956
 40
0.2499999999999956
 40
0.2812499999999952
 40
0.2812499999999952
 40
0.3124999999999947
 40
0.3124999999999947
 40
0.3281249999999944
 40
0.3281249999999944
 40
0.3437499999999942
 40
0.3437499999999942
 40
0.3749999999999943
 40
0.3749999999999943
 40
0.4062499999999944
 40
0.4062499999999944
 40
0.4218749999999943
 40
0.4218749999999943
 40
0.4374999999999942
 40
0.4374999999999942
 40
0.4687499999999947
 40
0.4687499999999947
 40
0.4999999999999952
 40
0.4999999999999952
 40
0.5312499999999957
 40
0.5312499999999957
 40
0.5624999999999963
 40
0.5624999999999963
 40
0.5937499999999967
 40
0.5937499999999967
 40
0.6249999999999972
 40
0.6249999999999972
 40
0.6562499999999977
 40
0.6562499999999977
 40
0.6874999999999982
 40
0.6874999999999982
 40
0.7031249999999983
 40
0.7031249999999983
 40
0.7187499999999984
 40
0.7187499999999984
 40
0.749999999999999
 40
0.749999999999999
 40
0.7812499999999993
 40
0.7812499999999993
 40
0.7968749999999996
 40
0.7968749999999996
 40
0.8124999999999996
 40
0.8124999999999996
 40
0.8437499999999996
 40
0.8437499999999996
 40
0.8749999999999996
 40
0.8749999999999996
 40
0.9062499999999998
 40
0.9062499999999998
 40
0.9374999999999998
 40
0.9374999999999998
 40
0.9687499999999998
 40
0.9687499999999998
 40
1.0
 40
1.0
 40
1.0
 40
1.0
 10
823.5092466711344
 20
175.6331655548545
 30
0.0
 10
823.5092466711344
 20
175.7985006031637
 30
0.0
 10
823.4767674748905
 20
175.9574928132114
 30
0.0
 10
823.3813677382004
 20
176.1871573883397
 30
0.0
 10
823.3417295432394
 20
176.2622361109412
 30
0.0
 10
823.2464241743882
 20
176.4094964259551
 30
0.0
 10
823.1905102158105
 20
176.4818330481008
 30
0.0
 10
823.0022008306638
 20
176.6899880673188
 30
0.0
 10
822.8486027295266
 20
176.818621516757
 30
0.0
 10
822.4857716922436
 20
177.0575126545012
 30
0.0
 10
822.2747975448493
 20
177.1680418734226
 30
0.0
 10
821.8139835140499
 20
177.3629896083133
 30
0.0
 10
821.5624851123521
 20
177.4487894845695
 30
0.0
 10
821.0160590752023
 20
177.5984834054154
 30
0.0
 10
820.7255242636509
 20
177.6609287435711
 30
0.0
 10
820.1240388463862
 20
177.7605489324362
 30
0.0
 10
819.8086317914107
 20
177.7984550155383
 30
0.0
 10
819.1630803304901
 20
177.848984907292
 30
0.0
 10
818.8384555765189
 20
177.8613959100809
 30
0.0
 10
818.1855945438664
 20
177.8615377177182
 30
0.0
 10
817.8539749587711
 20
177.848856457068
 30
0.0
 10
817.2124750761172
 20
177.7986754455846
 30
0.0
 10
816.9006457060657
 20
177.7614441628199
 30
0.0
 10
816.4463403117318
 20
177.6863944301282
 30
0.0
 10
816.2964588035714
 20
177.6579729499046
 30
0.0
 10
816.0071431402679
 20
177.5954895131794
 30
0.0
 10
815.8671905209072
 20
177.5613789316226
 30
0.0
 10
815.4611086828866
 20
177.4502938502479
 30
0.0
 10
815.2084059673244
 20
177.3645776248583
 30
0.0
 10
814.741773719145
 20
177.1672887304738
 30
0.0
 10
814.5351125780035
 20
177.0588071239784
 30
0.0
 10
814.2635029758162
 20
176.8803934412814
 30
0.0
 10
814.1794114829364
 20
176.8182912657367
 30
0.0
 10
814.0244265712038
 20
176.688464026462
 30
0.0
 10
813.95346270276
 20
176.6205417980148
 30
0.0
 10
813.7651952129539
 20
176.4124178568557
 30
0.0
 10
813.6704688692461
 20
176.2665512388145
 30
0.0
 10
813.5422154381203
 20
175.9595340464759
 30
0.0
 10
813.5093695160888
 20
175.7973172297935
 30
0.0
 10
813.5091245301417
 20
175.4708899183843
 30
0.0
 10
813.5406653393875
 20
175.3051022366491
 30
0.0
 10
813.6686529621391
 20
174.9686435035564
 30
0.0
 10
813.7645160905188
 20
174.800827051349
 30
0.0
 10
814.0135303533304
 20
174.4749351729784
 30
0.0
 10
814.168644587882
 20
174.3143606271179
 30
0.0
 10
814.5335123072978
 20
174.0082270701077
 30
0.0
 10
814.7401117624749
 20
173.8648065066877
 30
0.0
 10
815.2005919822419
 20
173.5987079891598
 30
0.0
 10
815.4574825129543
 20
173.4750962508832
 30
0.0
 10
816.0001461067853
 20
173.2607092477393
 30
0.0
 10
816.2870079701701
 20
173.1688121872393
 30
0.0
 10
816.7409385091854
 20
173.0554501164759
 30
0.0
 10
816.8970375818258
 20
173.0216506551822
 30
0.0
 10
817.2111253151545
 20
172.9639108140735
 30
0.0
 10
817.3695639299143
 20
172.9398043812485
 30
0.0
 10
817.8489783419294
 20
172.8816506239977
 30
0.0
 10
818.1740797318289
 20
172.8616507584372
 30
0.0
 10
818.8353570914399
 20
172.8612859708269
 30
0.0
 10
819.1604658264051
 20
172.880919517748
 30
0.0
 10
819.640183848497
 20
172.9385677458054
 30
0.0
 10
819.7987559277819
 20
172.9625129099247
 30
0.0
 10
820.1131744601539
 20
173.0199526838985
 30
0.0
 10
820.2693283421904
 20
173.0535842312193
 30
0.0
 10
820.7234567661899
 20
173.1664449144665
 30
0.0
 10
821.0106664934592
 20
173.2580608966746
 30
0.0
 10
821.5543564117048
 20
173.4720913434111
 30
0.0
 10
821.811473557053
 20
173.5954293915917
 30
0.0
 10
822.2725541182045
 20
173.8610145746362
 30
0.0
 10
822.4796568557401
 20
174.004286173007
 30
0.0
 10
822.8457621354927
 20
174.3104189897484
 30
0.0
 10
823.001055330139
 20
174.4705991609883
 30
0.0
 10
823.2510617621908
 20
174.7962544120951
 30
0.0
 10
823.347468347592
 20
174.9639216650788
 30
0.0
 10
823.4767634509319
 20
175.3008297334345
 30
0.0
 10
823.5092466711344
 20
175.4678305065454
 30
0.0
 10
823.5092466711344
 20
175.6331655548545
 30
0.0
  0
LWPOLYLINE
  5
BAA2
330
1F
100
AcDbEntity
  8
0
  6
Continuous
 62
     7
370
    15
100
AcDbPolyline
 90
       23
 70
   128
 43
0.0
 10
830.0092470064107
 20
160.4921498058085
 10
830.0232280209009
 20
160.8157396970038
 10
830.1346067502443
 20
161.4556924162153
 10
830.3548775776569
 20
162.0741222707275
 10
830.6791193946544
 20
162.6572121588234
 10
831.1000893055741
 20
163.1919403282646
 10
831.6083828150574
 20
163.6663579104189
 10
832.1926461695973
 20
164.0698683170322
 10
832.839827814633
 20
164.3934582082275
 10
833.5354708298389
 20
164.6299005208258
 10
834.2640351667348
 20
164.7739127931837
 10
835.009246894652
 20
164.8222763744835
 10
835.7544576912466
 20
164.7739127931837
 10
836.4830229594652
 20
164.6299005208258
 10
837.1786650433485
 20
164.3934582082275
 10
837.8258471540455
 20
164.0698683170322
 10
838.4101105085854
 20
163.6663579104189
 10
838.9184040180687
 20
163.1919403282646
 10
839.3393734633271
 20
162.6572121588234
 10
839.6636152803246
 20
162.0741222707275
 10
839.8838861077372
 20
161.4556924162153
 10
839.9952657684032
 20
160.8157396970038
 10
839.9994441471342
 20
160.7631590870861
  0
LWPOLYLINE
  5
BAA3
330
1F
100
AcDbEntity
  8
0
  6
Continuous
 62
     7
370
    15
100
AcDbPolyline
 90
       31
 70
   128
 43
0.0
 10
835.009246894652
 20
158.3270855901484
 10
834.489467383856
 20
158.374398639584
 10
833.9924046932999
 20
158.5142646638397
 10
833.5397837846819
 20
158.7405760494713
 10
833.1513850181643
 20
159.0434384254459
 10
832.8441836103145
 20
159.4096176979784
 10
832.6316055073682
 20
159.8231081573013
 10
832.5229415833298
 20
160.2658384201769
 10
832.5229415833298
 20
160.7184593287949
 10
832.6316055073682
 20
161.1611914543156
 10
832.8441836103145
 20
161.5746819136385
 10
833.1513850181643
 20
161.9408593235258
 10
833.5397837846819
 20
162.2437216995005
 10
833.9924046932999
 20
162.470033085132
 10
834.489467383856
 20
162.6099009720329
 10
835.009246894652
 20
162.6572121588234
 10
835.5290254741255
 20
162.6099009720329
 10
836.0260881646816
 20
162.470033085132
 10
836.4787100046221
 20
162.2437216995005
 10
836.8671087711398
 20
161.9408593235258
 10
837.1743101789896
 20
161.5746819136385
 10
837.3868878162745
 20
161.1611914543156
 10
837.4955512746517
 20
160.7184593287949
 10
837.4955512746517
 20
160.2658384201769
 10
837.3868878162745
 20
159.8231081573013
 10
837.1743101789896
 20
159.4096176979784
 10
836.8671087711398
 20
159.0434384254459
 10
836.4787100046221
 20
158.7405760494713
 10
836.0260881646816
 20
158.5142646638397
 10
835.5290254741255
 20
158.374398639584
 10
835.009246894652
 20
158.3270855901484
  0
LINE
  5
BAA5
330
1F
100
AcDbEntity
  8
0
  6
Continuous
 62
     7
370
    15
100
AcDbLine
 10
845.0092466711344
 20
119.7071742919925
 30
0.0
 11
788.509247654611
 21
119.7071742919923
 31
0.0
  0
LINE
  5
BAA6
330
1F
100
AcDbEntity
  8
0
  6
Continuous
 62
     7
370
    15
100
AcDbLine
 10
845.0092466711344
 20
105.0861363021377
 30
0.0
 11
788.5092476546112
 21
105.0861363021375
 31
0.0
  0
LINE
  5
BAAA
330
1F
100
AcDbEntity
  8
0
  6
Continuous
 62
     7
370
    15
100
AcDbLine
 10
788.5092476546112
 20
105.0861363021375
 30
0.0
 11
788.5092476546112
 21
109.0874370841027
 31
0.0
  0
LINE
  5
BAB3
330
1F
100
AcDbEntity
  8
0
  6
Continuous
 62
     7
370
    15
100
AcDbLine
 10
788.5092476546113
 20
125.7291022177497
 30
0.0
 11
788.5092476546113
 21
122.0051921393434
 31
0.0
  0
LWPOLYLINE
  5
BABA
330
1F
100
AcDbEntity
  8
0
  6
Continuous
 62
     7
370
    15
100
AcDbPolyline
 90
       21
 70
   128
 43
0.0
 10
813.5897310613934
 20
175.2138991562369
 10
813.6346059083287
 20
175.3234413174632
 10
813.8548785983864
 20
175.6804917661193
 10
814.179120415384
 20
176.0171387998107
 10
814.600089394981
 20
176.3258647827151
 10
815.1083829044644
 20
176.5997704771998
 10
815.6926462590043
 20
176.8327352313044
 10
816.33982790404
 20
177.0195622650626
 10
817.0354699879233
 20
177.1560718027594
 10
817.7640361874644
 20
177.2392165569308
 10
818.509246984059
 20
177.2671413330081
 10
819.2544577806536
 20
177.2392165569308
 10
819.9830221175496
 20
177.1560718027594
 10
820.678666064078
 20
177.0195622650626
 10
821.3258477091137
 20
176.8327352313044
 10
821.9101110636536
 20
176.5997704771998
 10
822.4184045731369
 20
176.3258647827151
 10
822.839373552734
 20
176.0171387998107
 10
823.1636153697316
 20
175.6804917661193
 10
823.3838861971442
 20
175.3234413174632
 10
823.4511481761281
 20
175.1471419540885
  0
LWPOLYLINE
  5
BABD
330
1F
100
AcDbEntity
  8
0
  6
Continuous
 62
     7
370
    15
100
AcDbPolyline
 90
       31
 70
   128
 43
0.0
 10
818.509246984059
 20
173.5171411839965
 10
817.9894665419404
 20
173.5444550124648
 10
817.4924047827069
 20
173.6252081302646
 10
817.0397838740889
 20
173.7558689621928
 10
816.6513851075713
 20
173.930726638222
 10
816.3441827683989
 20
174.14214058795
 10
816.1316046654526
 20
174.3808683661464
 10
816.0229416727368
 20
174.6364791599753
 10
816.0229416727368
 20
174.8978008238318
 10
816.1316046654526
 20
175.1534116176608
 10
816.3441827683989
 20
175.3921393958571
 10
816.6513851075713
 20
175.6035533455851
 10
817.0397838740889
 20
175.7784110216143
 10
817.4924047827069
 20
175.9090718535426
 10
817.9894665419404
 20
175.9898249713424
 10
818.509246984059
 20
176.0171387998107
 10
819.0290255635325
 20
175.9898249713424
 10
819.5260891854111
 20
175.9090718535426
 10
819.9787100940291
 20
175.7784110216143
 10
820.3671088605467
 20
175.6035533455851
 10
820.6743093370739
 20
175.3921393958571
 10
820.8868874400202
 20
175.1534116176608
 10
820.9955522953812
 20
174.8978008238318
 10
820.9955522953812
 20
174.6364791599753
 10
820.8868874400202
 20
174.3808683661464
 10
820.6743093370739
 20
174.14214058795
 10
820.3671088605467
 20
173.930726638222
 10
819.9787100940291
 20
173.7558689621928
 10
819.5260891854111
 20
173.6252081302646
 10
819.0290255635325
 20
173.5444550124648
 10
818.509246984059
 20
173.5171411839965
  0
LINE
  5
BAC0
330
1F
100
AcDbEntity
  8
0
  6
Continuous
 62
     7
370
    15
100
AcDbLine
 10
794.5092449127976
 20
102.680921247387
 30
0.0
 11
805.5092448531929
 21
102.6809212473871
 31
0.0
  0
LINE
  5
BAC1
330
1F
100
AcDbEntity
  8
0
  6
Continuous
 62
     7
370
    15
100
AcDbLine
 10
788.5092476546113
 20
101.46000578084
 30
0.0
 11
794.5092449127976
 21
101.46000578084
 31
0.0
  0
LINE
  5
BAC2
330
1F
100
AcDbEntity
  8
0
  6
Continuous
 62
     7
370
    15
100
AcDbLine
 10
845.0092466711344
 20
103.8659249154571
 30
0.0
 11
788.5092476546112
 21
103.8659249154569
 31
0.0
  0
LINE
  5
BAC3
330
1F
100
AcDbEntity
  8
0
  6
Continuous
 62
     7
370
    15
100
AcDbLine
 10
788.5092476546113
 20
101.46000578084
 30
0.0
 11
788.5092476546112
 21
103.8659249154569
 31
0.0
  0
LINE
  5
BAC4
330
1F
100
AcDbEntity
  8
0
  6
Continuous
 62
     7
370
    15
100
AcDbLine
 10
794.5092449127976
 20
102.5343757776261
 30
0.0
 11
794.5092449127976
 21
102.680921247387
 31
0.0
  0
LINE
  5
BAC5
330
1F
100
AcDbEntity
  8
0
  6
Continuous
 62
     7
370
    15
100
AcDbLine
 10
805.5092448531929
 20
102.6809212473871
 30
0.0
 11
805.5092448531929
 21
100.9921465722563
 31
0.0
  0
LINE
  5
BAC7
330
1F
100
AcDbEntity
  8
0
  6
Continuous
 62
     7
370
    15
100
AcDbLine
 10
788.5092476546112
 20
105.256218156004
 30
0.0
 11
788.5092476546112
 21
103.8659249154569
 31
0.0
  0
LINE
  5
BAC9
330
1F
100
AcDbEntity
  8
0
  6
Continuous
 62
     7
370
    15
100
AcDbLine
 10
788.5092476546112
 20
108.8287305740357
 30
0.0
 11
788.5092476546112
 21
104.9918380288125
 31
0.0
  0
LINE
  5
BACB
330
1F
100
AcDbEntity
  8
0
  6
Continuous
 62
     7
370
    15
100
AcDbLine
 10
786.5092473267858
 20
128.4921472381512
 30
0.0
 11
788.5092476546113
 21
128.4921472381512
 31
0.0
  0
LINE
  5
BACC
330
1F
100
AcDbEntity
  8
0
  6
Continuous
 62
     7
370
    15
100
AcDbLine
 10
786.5092473267858
 20
128.4921472381512
 30
0.0
 11
786.5092473267857
 21
133.4921475920538
 31
0.0
  0
LINE
  5
BACD
330
1F
100
AcDbEntity
  8
0
  6
Continuous
 62
     7
370
    15
100
AcDbLine
 10
786.5092473267857
 20
133.4921475920538
 30
0.0
 11
788.5092476546113
 21
133.4921475920538
 31
0.0
  0
LINE
  5
BACE
330
1F
100
AcDbEntity
  8
0
  6
Continuous
 62
     7
370
    15
100
AcDbLine
 10
786.5092473267857
 20
133.4921475920538
 30
0.0
 11
786.5092473267857
 21
148.4921472567777
 31
0.0
  0
LINE
  5
BACF
330
1F
100
AcDbEntity
  8
0
  6
Continuous
 62
     7
370
    15
100
AcDbLine
 10
786.5092473267857
 20
148.4921472567777
 30
0.0
 11
788.5092476546113
 21
148.4921472567777
 31
0.0
  0
LINE
  5
BAD0
330
1F
100
AcDbEntity
  8
0
  6
Continuous
 62
     7
370
    15
100
AcDbLine
 10
788.5092476546113
 20
134.8921475421349
 30
0.0
 11
788.5092476546113
 21
134.9921473722617
 31
0.0
  0
LINE
  5
BAD1
330
1F
100
AcDbEntity
  8
0
  6
Continuous
 62
     7
370
    15
100
AcDbLine
 10
788.5092476546113
 20
146.9921474765698
 30
0.0
 11
788.5092476546113
 21
147.0921473066965
 31
0.0
  0
LINE
  5
BAD2
330
1F
100
AcDbEntity
  8
0
  6
Continuous
 62
     7
370
    15
100
AcDbLine
 10
786.5092473267857
 20
153.4921476106802
 30
0.0
 11
788.5092476546113
 21
153.4921476106802
 31
0.0
  0
LINE
  5
BAD3
330
1F
100
AcDbEntity
  8
0
  6
Continuous
 62
     7
370
    15
100
AcDbLine
 10
786.5092473267857
 20
148.4921472567777
 30
0.0
 11
786.5092473267857
 21
153.4921476106802
 31
0.0
  0
ARC
  5
BAE2
330
1F
100
AcDbEntity
  8
0
  6
Continuous
 62
     7
370
    15
100
AcDbCircle
 10
696.3719073293284
 20
140.1313641514481
 30
0.0
 40
39.08901676795098
100
AcDbArc
 50
278.3832083847934
 51
291.9108805370149
  0
ENDSEC
  0
SECTION
  2
OBJECTS
  0
DICTIONARY
  5
C
330
0
100
AcDbDictionary
281
     1
  3
ACAD_COLOR
350
BE
  3
ACAD_GROUP
350
D
  3
ACAD_LAYOUT
350
1A
  3
ACAD_MATERIAL
350
BD
  3
ACAD_MLINESTYLE
350
17
  3
ACAD_PLOTSETTINGS
350
19
  3
ACAD_PLOTSTYLENAME
350
E
  3
ACAD_TABLESTYLE
350
11A
  3
AcadDim
350
7BA5
  3
ACDBHEADERROUNDTRIPXREC
350
BAE6
  3
AcDbVariableDictionary
350
94
  3
AcmDictionary
350
5B
  3
AMG
350
41
  3
AMGSNAPSETTINGS
350
1B8
  3
DWGPROPS
350
BAE5
  3
MAPISURF_MODULE
350
7C9D
  0
DICTIONARY
  5
3F9
330
2
100
AcDbDictionary
280
     1
281
     1
  3
ACAD_LAYERFILTERS
360
99D5
  3
ACAD_LAYERSTATES
360
CA0
  3
ACLYDICTIONARY
360
99D4
  3
AMLAYER_GROUPCOLORS
360
18A7
  0
DICTIONARY
  5
8F
330
1F
100
AcDbDictionary
280
     1
281
     1
  3
ACAD_INDEX
360
853B
  3
ACAD_SORTENTS
360
18D9
  0
DICTIONARY
  5
7CF3
330
7CF2
100
AcDbDictionary
280
     1
281
     1
  0
DICTIONARY
  5
A58B
330
A57E
100
AcDbDictionary
280
     1
281
     1
  3
ACAD_DIMASSOC
360
A58C
  0
DICTIONARY
  5
BE
102
{ACAD_REACTORS
330
C
102
}
330
C
100
AcDbDictionary
281
     1
  0
DICTIONARY
  5
D
102
{ACAD_REACTORS
330
C
102
}
330
C
100
AcDbDictionary
281
     1
  0
DICTIONARY
  5
1A
102
{ACAD_REACTORS
330
C
102
}
330
C
100
AcDbDictionary
281
     1
  3
Model
350
22
  3
配置1
350
1E
  3
配置2
350
26
  0
DICTIONARY
  5
BD
102
{ACAD_REACTORS
330
C
102
}
330
C
100
AcDbDictionary
281
     1
  0
DICTIONARY
  5
17
102
{ACAD_REACTORS
330
C
102
}
330
C
100
AcDbDictionary
281
     1
  3
Standard
350
18
  0
DICTIONARY
  5
19
102
{ACAD_REACTORS
330
C
102
}
330
C
100
AcDbDictionary
281
     1
  0
ACDBDICTIONARYWDFLT
  5
E
102
{ACAD_REACTORS
330
C
102
}
330
C
100
AcDbDictionary
281
     1
  3
Normal
350
F
100
AcDbDictionaryWithDefault
340
F
  0
DICTIONARY
  5
11A
102
{ACAD_REACTORS
330
C
102
}
330
C
100
AcDbDictionary
281
     1
  3
Standard
350
11B
  0
XRECORD
  5
7BA5
102
{ACAD_REACTORS
330
C
102
}
330
C
100
AcDbXrecord
280
     1
 90
   990106
  3

 60
     4
 61
     0
 62
     4
 63
     4
 64
     1
 65
     0
 66
     0
 67
     3
 68
     0
 69
     0
 70
     0
 71
     0
 72
     0
 40
0.0
170
     0
340
7BA1
  0
DICTIONARY
  5
BAE6
102
{ACAD_REACTORS
330
C
102
}
330
C
100
AcDbDictionary
281
     1
  0
DICTIONARY
  5
94
102
{ACAD_REACTORS
330
C
102
}
330
C
100
AcDbDictionary
281
     1
  3
CTABLESTYLE
350
138
  3
DIMASSOC
350
96
  3
INDEXCTL
350
95
  3
PROJECTNAME
350
1BA0
  0
DICTIONARY
  5
5B
102
{ACAD_REACTORS
330
C
102
}
330
C
100
AcDbDictionary
281
     1
  3
AcmBOM
350
1B5
  3
AcmStdDictionary
350
61
  3
AMDTSECTSYM_ARROWCOLOR
350
123
  0
DICTIONARY
  5
41
102
{ACAD_REACTORS
330
C
102
}
330
C
100
AcDbDictionary
281
     1
  3
AcMgSettings
350
7C17
  0
DICTIONARY
  5
1B8
102
{ACAD_REACTORS
330
C
102
}
330
C
100
AcDbDictionary
281
     1
  0
XRECORD
  5
BAE5
102
{ACAD_REACTORS
330
C
102
}
330
C
100
AcDbXrecord
280
     1
  1
DWGPROPS COOKIE
  2

  3

  4

  6

  7

  8

  9

300
AmdtFileType=84
301
=
302
=
303
=
304
=
305
=
306
=
307
=
308
=
309
=
 40
1.112499664351851
 41
2454422.344345151
 42
2456893.583595556
  1

 90
        1
  0
DICTIONARY
  5
99D5
102
{ACAD_REACTORS
330
3F9
102
}
330
3F9
100
AcDbDictionary
281
     1
  0
DICTIONARY
  5
CA0
102
{ACAD_REACTORS
330
3F9
102
}
330
3F9
100
AcDbDictionary
281
     1
  0
DICTIONARY
  5
99D4
102
{ACAD_REACTORS
330
3F9
102
}
330
3F9
100
AcDbDictionary
281
     1
1001
ACAD
1000
<All
  0
DICTIONARY
  5
18A7
102
{ACAD_REACTORS
330
3F9
102
}
330
3F9
100
AcDbDictionary
280
     1
281
     1
  0
DICTIONARY
  5
853B
102
{ACAD_REACTORS
330
8F
102
}
330
8F
100
AcDbDictionary
281
     1
  3
*A1
350
853C
  0
SORTENTSTABLE
  5
18D9
102
{ACAD_REACTORS
330
8F
102
}
330
8F
100
AcDbSortentsTable
330
1F
331
15A7
  5
15A7
331
15E3
  5
15E3
331
15A8
  5
15A8
331
15D0
  5
15D0
331
15EE
  5
15EE
331
15F8
  5
15F8
331
159E
  5
159E
331
15DA
  5
15DA
331
15E4
  5
15E4
331
15A9
  5
15A9
331
15D1
  5
15D1
331
159F
  5
159F
331
15BD
  5
15BD
331
15DB
  5
15DB
331
15F9
  5
15F9
331
15E5
  5
15E5
331
7BA1
  5
7BA1
331
15C8
  5
15C8
331
15AA
  5
15AA
331
15F0
  5
15F0
331
15B4
  5
15B4
331
15D2
  5
15D2
331
15A0
  5
15A0
331
15BE
  5
15BE
331
15DC
  5
15DC
331
15FA
  5
15FA
331
15E6
  5
15E6
331
15AB
  5
15AB
331
15F1
  5
15F1
331
15A1
  5
15A1
331
15BF
  5
15BF
331
15DD
  5
15DD
331
15FB
  5
15FB
331
15E7
  5
15E7
331
15E8
  5
15E8
331
15AC
  5
15AC
331
15F2
  5
15F2
331
15A2
  5
15A2
331
15C0
  5
15C0
331
15DE
  5
15DE
331
15AD
  5
15AD
331
15E9
  5
15E9
331
1599
  5
1599
331
15F3
  5
15F3
331
15C1
  5
15C1
331
15DF
  5
15DF
331
15A3
  5
15A3
331
15AE
  5
15AE
331
15CC
  5
15CC
331
15EA
  5
15EA
331
159A
  5
159A
331
15B8
  5
15B8
331
15D6
  5
15D6
331
15F4
  5
15F4
331
15E0
  5
15E0
331
15A4
  5
15A4
331
15C2
  5
15C2
331
15AF
  5
15AF
331
15EB
  5
15EB
331
15B9
  5
15B9
331
15D7
  5
15D7
331
15F5
  5
15F5
331
159B
  5
159B
331
15E1
  5
15E1
331
15A5
  5
15A5
331
15C3
  5
15C3
331
15B0
  5
15B0
331
15EC
  5
15EC
331
15D8
  5
15D8
331
15F6
  5
15F6
331
159C
  5
159C
331
15A6
  5
15A6
331
15C4
  5
15C4
331
15E2
  5
15E2
331
15ED
  5
15ED
331
15D9
  5
15D9
331
15F7
  5
15F7
331
159D
  5
159D
  0
DIMASSOC
  5
A58C
102
{ACAD_REACTORS
330
A58B
102
}
330
A58B
100
AcDbDimAssoc
330
A57E
 90
        1
 70
     0
 71
     0
  1
AcDbOsnapPointRef
 72
     1
331
99DA
 73
     0
 91
        0
 40
0.0
 10
0.0
 20
0.0
 30
2.000000000000000E+50
 75
     0
  0
LAYOUT
  5
22
102
{ACAD_XDICTIONARY
360
BAE9
102
}
102
{ACAD_REACTORS
330
1A
102
}
330
1A
100
AcDbPlotSettings
  1

  2
\\RD\EPSON Stylus C63 Series單色
  4
A4
  6

 40
3.757083177566528
 41
3.757076978683471
 42
3.757080078125
 43
3.757080078125
 44
209.9733276367187
 45
296.9683227539062
 46
0.0
 47
0.0
 48
0.0
 49
0.0
140
0.0
141
0.0
142
1.0
143
0.3405120737814363
 70
 11952
 72
     1
 73
     0
 74
     0
  7
acad.ctb
 75
     0
147
2.936753428137963
148
-2047.07469463503
149
-1261.649717473083
100
AcDbLayout
  1
Model
 70
     1
 71
     0
 10
0.0
 20
0.0
 11
12.0
 21
9.0
 12
0.0
 22
0.0
 32
0.0
 14
0.0
 24
0.0
 34
0.0
 15
0.0
 25
0.0
 35
0.0
146
0.0
 13
0.0
 23
0.0
 33
0.0
 16
1.0
 26
0.0
 36
0.0
 17
0.0
 27
1.0
 37
0.0
 76
     0
330
1F
1001
ACAD_PSEXT
1000
\\RD\EPSON Stylus C63 Series單色
1000
EPSON Stylus C63 Series
1000
\\RD
1000

1070
     0
  0
LAYOUT
  5
1E
102
{ACAD_XDICTIONARY
360
BAE7
102
}
102
{ACAD_REACTORS
330
1A
102
}
330
1A
100
AcDbPlotSettings
  1

  2

  4

  6

 40
0.0
 41
0.0
 42
0.0
 43
0.0
 44
0.0
 45
0.0
 46
0.0
 47
0.0
 48
0.0
 49
0.0
140
0.0
141
0.0
142
1.0
143
1.0
 70
   688
 72
     0
 73
     0
 74
     5
  7
acad.ctb
 75
    16
147
1.0
148
0.0
149
0.0
100
AcDbLayout
  1
配置1
 70
     1
 71
     1
 10
0.0
 20
0.0
 11
420.0
 21
297.0
 12
0.0
 22
0.0
 32
0.0
 14
1.000000000000000E+20
 24
1.000000000000000E+20
 34
1.000000000000000E+20
 15
-1.000000000000000E+20
 25
-1.000000000000000E+20
 35
-1.000000000000000E+20
146
0.0
 13
0.0
 23
0.0
 33
0.0
 16
1.0
 26
0.0
 36
0.0
 17
0.0
 27
1.0
 37
0.0
 76
     0
330
1B
  0
LAYOUT
  5
26
102
{ACAD_XDICTIONARY
360
BAEB
102
}
102
{ACAD_REACTORS
330
1A
102
}
330
1A
100
AcDbPlotSettings
  1

  2

  4

  6

 40
0.0
 41
0.0
 42
0.0
 43
0.0
 44
0.0
 45
0.0
 46
0.0
 47
0.0
 48
0.0
 49
0.0
140
0.0
141
0.0
142
1.0
143
1.0
 70
   688
 72
     0
 73
     0
 74
     5
  7
acad.ctb
 75
    16
147
1.0
148
0.0
149
0.0
100
AcDbLayout
  1
配置2
 70
     1
 71
     2
 10
0.0
 20
0.0
 11
12.0
 21
9.0
 12
0.0
 22
0.0
 32
0.0
 14
0.0
 24
0.0
 34
0.0
 15
0.0
 25
0.0
 35
0.0
146
0.0
 13
0.0
 23
0.0
 33
0.0
 16
1.0
 26
0.0
 36
0.0
 17
0.0
 27
1.0
 37
0.0
 76
     0
330
23
  0
MLINESTYLE
  5
18
102
{ACAD_REACTORS
330
17
102
}
330
17
100
AcDbMlineStyle
  2
STANDARD
 70
     0
  3

 62
   256
 51
90.0
 52
90.0
 71
     2
 49
0.5
 62
   256
  6
BYLAYER
 49
-0.5
 62
   256
  6
BYLAYER
  0
ACDBPLACEHOLDER
  5
F
102
{ACAD_REACTORS
330
E
102
}
330
E
  0
TABLESTYLE
  5
11B
102
{ACAD_REACTORS
330
11A
102
}
330
11A
100
AcDbTableStyle
  3
Standard
 70
     0
 71
     0
 40
1.5
 41
1.5
280
     0
281
     0
  7
STANDARD
140
4.5
170
     2
 62
     0
 63
     7
283
     0
274
    -2
284
     1
 64
     0
275
    -2
285
     1
 65
     0
276
    -2
286
     1
 66
     0
277
    -2
287
     1
 67
     0
278
    -2
288
     1
 68
     0
279
    -2
289
     1
 69
     0
  7
STANDARD
140
6.0
170
     5
 62
     0
 63
     7
283
     0
274
    -2
284
     1
 64
     0
275
    -2
285
     1
 65
     0
276
    -2
286
     1
 66
     0
277
    -2
287
     1
 67
     0
278
    -2
288
     1
 68
     0
279
    -2
289
     1
 69
     0
  7
STANDARD
140
4.5
170
     5
 62
     0
 63
     7
283
     0
274
    -2
284
     1
 64
     0
275
    -2
285
     1
 65
     0
276
    -2
286
     1
 66
     0
277
    -2
287
     1
 67
     0
278
    -2
288
     1
 68
     0
279
    -2
289
     1
 69
     0
  0
DICTIONARYVAR
  5
138
102
{ACAD_REACTORS
330
94
102
}
330
94
100
DictionaryVariables
280
     0
  1
STANDARD
  0
DICTIONARYVAR
  5
96
102
{ACAD_REACTORS
330
94
102
}
330
94
100
DictionaryVariables
280
     0
  1
2
  0
DICTIONARYVAR
  5
95
102
{ACAD_REACTORS
330
94
102
}
330
94
100
DictionaryVariables
280
     0
  1
1
  0
DICTIONARYVAR
  5
1BA0
102
{ACAD_REACTORS
330
94
102
}
330
94
100
DictionaryVariables
280
     0
  1

  0
DICTIONARY
  5
1B5
102
{ACAD_REACTORS
330
5B
102
}
330
5B
100
AcDbDictionary
281
     1
  0
DICTIONARY
  5
61
102
{ACAD_REACTORS
330
5B
102
}
330
5B
100
AcDbDictionary
281
     1
  0
XRECORD
  5
123
102
{ACAD_REACTORS
330
5B
102
}
330
5B
100
AcDbXrecord
280
     1
 90
-1023410169
  0
DICTIONARY
  5
7C17
102
{ACAD_REACTORS
330
41
102
}
330
41
100
AcDbDictionary
281
     1
  3
DWGSETTINGS
350
7C18
  3
Shaft
350
8D15
  3
TRANSSETTINGS
350
7C1B
  0
LAYER_INDEX
  5
853C
102
{ACAD_REACTORS
330
853B
102
}
330
853B
100
AcDbIndex
 40
2456893.583595556
100
AcDbLayerIndex
  8
0
360
A8E5
 90
      347
  8
Defpoints
360
A8E6
 90
        0
  8
AM_5
360
A8E7
 90
        0
  8
AM_4
360
A8E8
 90
        0
  8
AM_VIS
360
A8E9
 90
        1
  8
AM_HID
360
A8EA
 90
        0
  8
AM_7
360
A8EB
 90
        2
  8
LOGO
360
A8EC
 90
       90
  8
AM_REFDIM
360
A8ED
 90
       14
  8
CEN
360
A8EE
 90
        0
  8
HATCH
360
A8EF
 90
        0
  8
SL
360
A8F0
 90
        0
  8
AM_10
360
A8F1
 90
        0
  0
DICTIONARY
  5
BAE9
330
22
100
AcDbDictionary
280
     1
281
     1
  3
ACAD_XREC_ROUNDTRIP
360
BAEA
  0
DICTIONARY
  5
BAE7
330
1E
100
AcDbDictionary
280
     1
281
     1
  3
ACAD_XREC_ROUNDTRIP
360
BAE8
  0
DICTIONARY
  5
BAEB
330
26
100
AcDbDictionary
280
     1
281
     1
  3
ACAD_XREC_ROUNDTRIP
360
BAEC
  0
IDBUFFER
  5
A8E5
330
0
100
AcDbIdBuffer
330
16B4
330
16B5
330
16B6
330
B2D8
330
B2D9
330
B2DA
330
B2DB
330
B2DC
330
B2DD
330
B2DE
330
B2DF
330
B2E0
330
B2E1
330
B2E2
330
B2E3
330
B2E4
330
B2E5
330
B2E6
330
B2E7
330
B2F0
330
B2F1
330
B2F2
330
B2F3
330
B2FC
330
B2FD
330
B2FE
330
B2FF
330
B300
330
B301
330
B302
330
B303
330
B30B
330
B30C
330
B30D
330
B30E
330
B30F
330
B310
330
B311
330
B313
330
B314
330
B315
330
B316
330
B317
330
B318
330
B319
330
B31A
330
B31B
330
B31C
330
B31D
330
B31E
330
B31F
330
B320
330
B321
330
B322
330
B323
330
B324
330
B325
330
B326
330
B327
330
B328
330
B329
330
B32A
330
B32B
330
B32C
330
B32D
330
B32E
330
B32F
330
B330
330
B331
330
B332
330
B333
330
B334
330
B335
330
B336
330
B337
330
B338
330
B339
330
B33A
330
B33B
330
B33C
330
B33D
330
B33E
330
B33F
330
B340
330
B341
330
B342
330
B343
330
B344
330
B345
330
B346
330
B347
330
B348
330
B349
330
B34A
330
B34B
330
B34C
330
B34D
330
B34E
330
B34F
330
B350
330
B351
330
B352
330
B353
330
B354
330
B355
330
B356
330
B357
330
B358
330
B359
330
B35A
330
B35B
330
B35C
330
B35D
330
B35E
330
B35F
330
B360
330
B361
330
B362
330
B363
330
B364
330
B365
330
B366
330
B367
330
B368
330
B369
330
B36A
330
B36B
330
B36C
330
B36D
330
B36E
330
B36F
330
B370
330
B371
330
B372
330
B373
330
B374
330
B375
330
B376
330
B377
330
B378
330
B379
330
B37A
330
B37B
330
B37C
330
B37D
330
B37E
330
B37F
330
B380
330
B381
330
B382
330
B383
330
B384
330
B385
330
B386
330
B387
330
B388
330
B389
330
B38A
330
B38B
330
B38C
330
B38D
330
B38E
330
B38F
330
B390
330
B391
330
B392
330
B393
330
B394
330
B395
330
B396
330
B397
330
B398
330
B399
330
B39A
330
B39B
330
B39C
330
B39D
330
B39E
330
B39F
330
B3A0
330
B3A1
330
B3A2
330
B3A3
330
B3A4
330
B3A5
330
B3A6
330
B3A7
330
B3A8
330
B3A9
330
B3AA
330
B3AB
330
B3AC
330
B3AD
330
B3AE
330
B3AF
330
B3B0
330
B3B1
330
B3B2
330
B3B3
330
B3B4
330
B3B5
330
B3B6
330
B3B7
330
B3B8
330
B3B9
330
B3BA
330
B3BB
330
B3BC
330
B3BD
330
B3BE
330
B3BF
330
B3C0
330
B3C3
330
B3C4
330
B3C5
330
B3C6
330
B3C7
330
B3C8
330
B3C9
330
B3CA
330
B3CB
330
B3CC
330
B3CD
330
B3CE
330
B3CF
330
B3D0
330
B3D1
330
B3D2
330
B3D3
330
B3D7
330
B3DB
330
B3DC
330
B3DD
330
B3DE
330
B3DF
330
B3E0
330
B3E1
330
B3E2
330
B3E3
330
B3E4
330
B3E5
330
B3E6
330
B3E7
330
B3E8
330
B3E9
330
B3EA
330
B3EB
330
B3EC
330
B3ED
330
B3EF
330
B3F0
330
B410
330
B411
330
BA09
330
BA0A
330
BA0B
330
BA0C
330
BA0D
330
BA0E
330
BA0F
330
BA12
330
BA13
330
BA14
330
BA15
330
BA16
330
BA17
330
BA18
330
BA20
330
BA21
330
BA22
330
BA23
330
BA24
330
BA25
330
BA26
330
BA34
330
BA35
330
BA4D
330
BA50
330
BA51
330
BA52
330
BA57
330
BA58
330
BA5A
330
BA5B
330
BA5C
330
BA5E
330
BA5F
330
BA61
330
BA63
330
BA64
330
BA66
330
BA67
330
BA68
330
BA69
330
BA6A
330
BA6B
330
BA6C
330
BA6D
330
BA6F
330
BA72
330
BA73
330
BA75
330
BA78
330
BA79
330
BA7C
330
BA7D
330
BA7E
330
BA7F
330
BA82
330
BA83
330
BA84
330
BA85
330
BA86
330
BA88
330
BA89
330
BA8A
330
BA8B
330
BA8C
330
BA8D
330
BA8E
330
BAA0
330
BAA2
330
BAA3
330
BAA5
330
BAA6
330
BAAA
330
BAB3
330
BABA
330
BABD
330
BAC0
330
BAC1
330
BAC2
330
BAC3
330
BAC4
330
BAC5
330
BAC7
330
BAC9
330
BACB
330
BACC
330
BACD
330
BACE
330
BACF
330
BAD0
330
BAD1
330
BAD2
330
BAD3
330
BAE2
  0
IDBUFFER
  5
A8E6
330
0
100
AcDbIdBuffer
  0
IDBUFFER
  5
A8E7
330
0
100
AcDbIdBuffer
  0
IDBUFFER
  5
A8E8
330
0
100
AcDbIdBuffer
  0
IDBUFFER
  5
A8E9
330
0
100
AcDbIdBuffer
330
7BA1
  0
IDBUFFER
  5
A8EA
330
0
100
AcDbIdBuffer
  0
IDBUFFER
  5
A8EB
330
0
100
AcDbIdBuffer
330
99DA
330
99DB
  0
IDBUFFER
  5
A8EC
330
0
100
AcDbIdBuffer
330
1599
330
159A
330
159B
330
159C
330
159D
330
159E
330
159F
330
15A0
330
15A1
330
15A2
330
15A3
330
15A4
330
15A5
330
15A6
330
15A7
330
15A8
330
15A9
330
15AA
330
15AB
330
15AC
330
15AD
330
15AE
330
15AF
330
15B0
330
15B4
330
15B8
330
15B9
330
15BD
330
15BE
330
15BF
330
15C0
330
15C1
330
15C2
330
15C3
330
15C4
330
15C8
330
15CC
330
15D0
330
15D1
330
15D2
330
15D6
330
15D7
330
15D8
330
15D9
330
15DA
330
15DB
330
15DC
330
15DD
330
15DE
330
15DF
330
15E0
330
15E1
330
15E2
330
15E3
330
15E4
330
15E5
330
15E6
330
15E7
330
15E8
330
15E9
330
15EA
330
15EB
330
15EC
330
15ED
330
15EE
330
15F0
330
15F1
330
15F2
330
15F3
330
15F4
330
15F5
330
15F6
330
15F7
330
15F8
330
15F9
330
15FA
330
15FB
330
9C94
330
9C95
330
9C96
330
9C97
330
9C98
330
9C99
330
9C9A
330
9C9B
330
9C9C
330
9C9E
330
9C9F
330
9CA0
330
9CA2
  0
IDBUFFER
  5
A8ED
330
0
100
AcDbIdBuffer
330
A516
330
A540
330
A57E
330
A622
330
A67B
330
A6A1
330
A724
330
A77B
330
A7A5
330
A7CB
330
A889
330
A88C
330
A890
330
A895
  0
IDBUFFER
  5
A8EE
330
0
100
AcDbIdBuffer
  0
IDBUFFER
  5
A8EF
330
0
100
AcDbIdBuffer
  0
IDBUFFER
  5
A8F0
330
0
100
AcDbIdBuffer
  0
IDBUFFER
  5
A8F1
330
0
100
AcDbIdBuffer
  0
XRECORD
  5
BAEA
102
{ACAD_REACTORS
330
BAE9
102
}
330
BAE9
100
AcDbXrecord
280
     1
102
SHADEPLOT
 70
     0
102
SHADEPLOTRESLEVEL
 70
     2
102
SHADEPLOTCUSTOMDPI
 70
   300
  0
XRECORD
  5
BAE8
102
{ACAD_REACTORS
330
BAE7
102
}
330
BAE7
100
AcDbXrecord
280
     1
102
SHADEPLOT
 70
     0
102
SHADEPLOTRESLEVEL
 70
     2
102
SHADEPLOTCUSTOMDPI
 70
   300
  0
XRECORD
  5
BAEC
102
{ACAD_REACTORS
330
BAEB
102
}
330
BAEB
100
AcDbXrecord
280
     1
102
SHADEPLOT
 70
     0
102
SHADEPLOTRESLEVEL
 70
     2
102
SHADEPLOTCUSTOMDPI
 70
   300
  0
ENDSEC
  0
EOF
