  0
SECTION
  2
HEADER
  9
$ACADVER
  1
AC1015
  9
$ACADMAINTVER
 70
    20
  9
$DWGCODEPAGE
  3
ANSI_950
  9
$INSBASE
 10
0.0
 20
0.0
 30
0.0
  9
$EXTMIN
 10
636.5888285060369
 20
52.58852823838278
 30
0.0
  9
$EXTMAX
 10
870.6012348676269
 20
206.8136541750342
 30
120.2166306851784
  9
$LIMMIN
 10
0.0
 20
0.0
  9
$LIMMAX
 10
420.0
 20
297.0
  9
$ORTHOMODE
 70
     0
  9
$REGENMODE
 70
     1
  9
$FILLMODE
 70
     1
  9
$QTEXTMODE
 70
     0
  9
$MIRRTEXT
 70
     1
  9
$LTSCALE
 40
1.0
  9
$ATTMODE
 70
     1
  9
$TEXTSIZE
 40
3.0
  9
$TRACEWID
 40
1.0
  9
$TEXTSTYLE
  7
STANDARD
  9
$CLAYER
  8
AM_REFDIM
  9
$CELTYPE
  6
ByLayer
  9
$CECOLOR
 62
   256
  9
$CELTSCALE
 40
1.0
  9
$DISPSILH
 70
     0
  9
$DIMSCALE
 40
1.0
  9
$DIMASZ
 40
3.5
  9
$DIMEXO
 40
1.0
  9
$DIMDLI
 40
12.0
  9
$DIMRND
 40
0.0
  9
$DIMDLE
 40
0.0
  9
$DIMEXE
 40
1.0
  9
$DIMTP
 40
0.1
  9
$DIMTM
 40
0.1
  9
$DIMTXT
 40
3.5
  9
$DIMCEN
 40
0.0
  9
$DIMTSZ
 40
0.0
  9
$DIMTOL
 70
     0
  9
$DIMLIM
 70
     0
  9
$DIMTIH
 70
     0
  9
$DIMTOH
 70
     0
  9
$DIMSE1
 70
     0
  9
$DIMSE2
 70
     0
  9
$DIMTAD
 70
     1
  9
$DIMZIN
 70
     8
  9
$DIMBLK
  1

  9
$DIMASO
 70
     1
  9
$DIMSHO
 70
     1
  9
$DIMPOST
  1

  9
$DIMAPOST
  1
"
  9
$DIMALT
 70
     0
  9
$DIMALTD
 70
     2
  9
$DIMALTF
 40
0.0393701
  9
$DIMLFAC
 40
1.0
  9
$DIMTOFL
 70
     1
  9
$DIMTVP
 40
0.0
  9
$DIMTIX
 70
     0
  9
$DIMSOXD
 70
     0
  9
$DIMSAH
 70
     0
  9
$DIMBLK1
  1

  9
$DIMBLK2
  1

  9
$DIMSTYLE
  2
AM_ISO
  9
$DIMCLRD
 70
   256
  9
$DIMCLRE
 70
   256
  9
$DIMCLRT
 70
   256
  9
$DIMTFAC
 40
0.6
  9
$DIMGAP
 40
1.0
  9
$DIMJUST
 70
     0
  9
$DIMSD1
 70
     0
  9
$DIMSD2
 70
     0
  9
$DIMTOLJ
 70
     0
  9
$DIMTZIN
 70
     8
  9
$DIMALTZ
 70
     0
  9
$DIMALTTZ
 70
     0
  9
$DIMUPT
 70
     0
  9
$DIMDEC
 70
     0
  9
$DIMTDEC
 70
     8
  9
$DIMALTU
 70
     2
  9
$DIMALTTD
 70
     2
  9
$DIMTXSTY
  7
STANDARD
  9
$DIMAUNIT
 70
     0
  9
$DIMADEC
 70
     0
  9
$DIMALTRND
 40
0.0
  9
$DIMAZIN
 70
     2
  9
$DIMDSEP
 70
    46
  9
$DIMATFIT
 70
     3
  9
$DIMFRAC
 70
     0
  9
$DIMLDRBLK
  1

  9
$DIMLUNIT
 70
     2
  9
$DIMLWD
 70
    -1
  9
$DIMLWE
 70
    -1
  9
$DIMTMOVE
 70
     0
  9
$LUNITS
 70
     2
  9
$LUPREC
 70
     2
  9
$SKETCHINC
 40
1.0
  9
$FILLETRAD
 40
2.5
  9
$AUNITS
 70
     0
  9
$AUPREC
 70
     0
  9
$MENU
  1
.
  9
$ELEVATION
 40
0.0
  9
$PELEVATION
 40
0.0
  9
$THICKNESS
 40
0.0
  9
$LIMCHECK
 70
     0
  9
$CHAMFERA
 40
0.2
  9
$CHAMFERB
 40
0.2
  9
$CHAMFERC
 40
20.0
  9
$CHAMFERD
 40
0.0
  9
$SKPOLY
 70
     0
  9
$TDCREATE
 40
2454422.344345151
  9
$TDUCREATE
 40
2454422.011011817
  9
$TDUPDATE
 40
2456140.359884433
  9
$TDUUPDATE
 40
2456140.026551100
  9
$TDINDWG
 40
1.1038332176
  9
$TDUSRTIMER
 40
1.1038332176
  9
$USRTIMER
 70
     1
  9
$ANGBASE
 50
0.0
  9
$ANGDIR
 70
     0
  9
$PDMODE
 70
     0
  9
$PDSIZE
 40
0.0
  9
$PLINEWID
 40
0.0
  9
$SPLFRAME
 70
     0
  9
$SPLINETYPE
 70
     6
  9
$SPLINESEGS
 70
     8
  9
$HANDSEED
  5
B2E0
  9
$SURFTAB1
 70
     6
  9
$SURFTAB2
 70
     6
  9
$SURFTYPE
 70
     6
  9
$SURFU
 70
     6
  9
$SURFV
 70
     6
  9
$UCSBASE
  2

  9
$UCSNAME
  2

  9
$UCSORG
 10
0.0
 20
0.0
 30
0.0
  9
$UCSXDIR
 10
1.0
 20
0.0
 30
0.0
  9
$UCSYDIR
 10
0.0
 20
1.0
 30
0.0
  9
$UCSORTHOREF
  2

  9
$UCSORTHOVIEW
 70
     0
  9
$UCSORGTOP
 10
0.0
 20
0.0
 30
0.0
  9
$UCSORGBOTTOM
 10
0.0
 20
0.0
 30
0.0
  9
$UCSORGLEFT
 10
0.0
 20
0.0
 30
0.0
  9
$UCSORGRIGHT
 10
0.0
 20
0.0
 30
0.0
  9
$UCSORGFRONT
 10
0.0
 20
0.0
 30
0.0
  9
$UCSORGBACK
 10
0.0
 20
0.0
 30
0.0
  9
$PUCSBASE
  2

  9
$PUCSNAME
  2

  9
$PUCSORG
 10
0.0
 20
0.0
 30
0.0
  9
$PUCSXDIR
 10
1.0
 20
0.0
 30
0.0
  9
$PUCSYDIR
 10
0.0
 20
1.0
 30
0.0
  9
$PUCSORTHOREF
  2

  9
$PUCSORTHOVIEW
 70
     0
  9
$PUCSORGTOP
 10
0.0
 20
0.0
 30
0.0
  9
$PUCSORGBOTTOM
 10
0.0
 20
0.0
 30
0.0
  9
$PUCSORGLEFT
 10
0.0
 20
0.0
 30
0.0
  9
$PUCSORGRIGHT
 10
0.0
 20
0.0
 30
0.0
  9
$PUCSORGFRONT
 10
0.0
 20
0.0
 30
0.0
  9
$PUCSORGBACK
 10
0.0
 20
0.0
 30
0.0
  9
$USERI1
 70
     0
  9
$USERI2
 70
     0
  9
$USERI3
 70
     0
  9
$USERI4
 70
     0
  9
$USERI5
 70
     0
  9
$USERR1
 40
0.0
  9
$USERR2
 40
0.0
  9
$USERR3
 40
0.0
  9
$USERR4
 40
0.0
  9
$USERR5
 40
0.0
  9
$WORLDVIEW
 70
     1
  9
$SHADEDGE
 70
     3
  9
$SHADEDIF
 70
    70
  9
$TILEMODE
 70
     1
  9
$MAXACTVP
 70
    64
  9
$PINSBASE
 10
0.0
 20
0.0
 30
0.0
  9
$PLIMCHECK
 70
     0
  9
$PEXTMIN
 10
1.000000000000000E+20
 20
1.000000000000000E+20
 30
1.000000000000000E+20
  9
$PEXTMAX
 10
-1.000000000000000E+20
 20
-1.000000000000000E+20
 30
-1.000000000000000E+20
  9
$PLIMMIN
 10
0.0
 20
0.0
  9
$PLIMMAX
 10
420.0
 20
297.0
  9
$UNITMODE
 70
     0
  9
$VISRETAIN
 70
     1
  9
$PLINEGEN
 70
     0
  9
$PSLTSCALE
 70
     1
  9
$TREEDEPTH
 70
  3020
  9
$CMLSTYLE
  2
Standard
  9
$CMLJUST
 70
     0
  9
$CMLSCALE
 40
20.0
  9
$PROXYGRAPHICS
 70
     1
  9
$MEASUREMENT
 70
     1
  9
$CELWEIGHT
370
    -1
  9
$ENDCAPS
280
     0
  9
$JOINSTYLE
280
     0
  9
$LWDISPLAY
290
     0
  9
$INSUNITS
 70
     4
  9
$HYPERLINKBASE
  1

  9
$STYLESHEET
  1
acad.ctb
  9
$XEDIT
290
     1
  9
$CEPSNTYPE
380
     0
  9
$PSTYLEMODE
290
     1
  9
$FINGERPRINTGUID
  2
{B705A112-77C7-4534-AADA-B7988B84DA3D}
  9
$VERSIONGUID
  2
{B7EA3F45-62D1-4C34-B381-36DEB3A84050}
  9
$EXTNAMES
290
     1
  9
$PSVPSCALE
 40
0.0
  9
$OLESTARTUP
290
     0
  0
ENDSEC
  0
SECTION
  2
CLASSES
  0
CLASS
  1
ACDBDICTIONARYWDFLT
  2
AcDbDictionaryWithDefault
  3
ObjectDBX Classes
 90
        0
280
     0
281
     0
  0
CLASS
  1
ACDBPLACEHOLDER
  2
AcDbPlaceHolder
  3
ObjectDBX Classes
 90
        0
280
     0
281
     0
  0
CLASS
  1
LAYOUT
  2
AcDbLayout
  3
ObjectDBX Classes
 90
        0
280
     0
281
     0
  0
CLASS
  1
ACME_DOCUMENT
  2
AcMeDbDoc
  3
AcMeServices
 90
        0
280
     0
281
     0
  0
CLASS
  1
AMGSETTINGSOBJ
  2
AmgSettingsObj
  3
"AcadM|Product Description: AutoCAD Mechanical 2000|Company: Autodesk"
 90
        0
280
     0
281
     0
  0
CLASS
  1
ACMESCOPE
  2
AcMeScope
  3
AcMeServices
 90
        0
280
     0
281
     0
  0
CLASS
  1
ACMECOMMANDHISTORY
  2
AcMeCommandHistory
  3
AcMeServices
 90
        0
280
     0
281
     0
  0
CLASS
  1
ACIMSYSVARMAN
  2
AcImSysVarManager
  3
AcMeServices
 90
        0
280
     0
281
     0
  0
CLASS
  1
ACIMREALSYSVAR
  2
AcImRealSysVar
  3
AcMeServices
 90
        0
280
     0
281
     0
  0
CLASS
  1
ACIMINTSYSVAR
  2
AcImIntSysVar
  3
AcMeServices
 90
        0
280
     0
281
     0
  0
CLASS
  1
ACMEDRAWINGMAN
  2
AcMeDrawingMan
  3
AcMeServices
 90
        0
280
     0
281
     0
  0
CLASS
  1
ACMEVIEW
  2
AcMeView
  3
AcMeServices
 90
        0
280
     0
281
     0
  0
CLASS
  1
ACDBENTITYCACHE
  2
AcMeEntityCache
  3
AcMeServices
 90
        0
280
     0
281
     0
  0
CLASS
  1
GSMANAGER
  2
AcMeGSManager
  3
AcMeServices
 90
        0
280
     0
281
     0
  0
CLASS
  1
AMDTINTERNALREACTOR
  2
AmdtInternalReactor
  3
AcMeServices
 90
        0
280
     0
281
     0
  0
CLASS
  1
ACMESTATEMGR
  2
AcMeStateMgr
  3
AcMeServices
 90
        0
280
     0
281
     0
  0
CLASS
  1
ACGREFMASTER
  2
AcGrefMaster
  3
AcAttribServices
 90
        0
280
     0
281
     0
  0
CLASS
  1
ACME_DATABASE
  2
AcMeDbDatabase
  3
AcMeServices
 90
        0
280
     0
281
     0
  0
CLASS
  1
ACRFINSADJUSTERMGR
  2
AcRfInsAdjusterMgr
  3
AcMeServices
 90
        0
280
     0
281
     0
  0
CLASS
  1
ACGREFACADMASTER
  2
AcGrefacadMaster
  3
AcGrefServices
 90
        0
280
     0
281
     0
  0
CLASS
  1
AMIMASTER
  2
AmiMaster
  3
AmiServices
 90
        0
280
     0
281
     0
  0
CLASS
  1
ACMDATADICTIONARY
  2
AcmDataDictionary
  3
"AcmSymBB|Product Description: AutoCAD Mechanical 2004 DX|Company: Autodesk"
 90
        0
280
     0
281
     0
  0
CLASS
  1
ACMDATAENTRYBLOCK
  2
AcmDataEntryBlock
  3
"AcmSymBB|Product Description: AutoCAD Mechanical 2004 DX|Company: Autodesk"
 90
        0
280
     0
281
     0
  0
CLASS
  1
ACIMSTRSYSVAR
  2
AcImStrSysVar
  3
AcMeServices
 90
        0
280
     0
281
     0
  0
CLASS
  1
ACMSTANDARDISO
  2
AcmStandardISO
  3
"Amdt_StdImp|Product Description: AutoCAD Mechanical 2004 DX|Company: Autodesk"
 90
        0
280
     0
281
     0
  0
CLASS
  1
AMGOBJPROPCFG
  2
AmgObjPropCfg
  3
"AmgLay|Product Description: AutoCAD Mechanical 2000|Company: Autodesk"
 90
        1
280
     0
281
     0
  0
CLASS
  1
AMDTEDGESTANDARDISO
  2
AmdtEdgeStdISO
  3
"Amdt_StdImp|Product Description: AutoCAD Mechanical 2004 DX|Company: Autodesk"
 90
    32768
280
     0
281
     0
  0
CLASS
  1
ACMSURFSTANDARDISO
  2
AcmSurfTextStdISO
  3
"Amdt_StdImp|Product Description: AutoCAD Mechanical 2004 DX|Company: Autodesk"
 90
        0
280
     0
281
     0
  0
CLASS
  1
ACMFCFSTANDARDISO
  2
AcmFCFStdISO
  3
"Amdt_StdImp|Product Description: AutoCAD Mechanical 2004 DX|Company: Autodesk"
 90
        0
280
     0
281
     0
  0
CLASS
  1
ACMWELDSTANDARDISO
  2
AcmWeldingStdISO
  3
"Amdt_StdImp|Product Description: AutoCAD Mechanical 2004 DX|Company: Autodesk"
 90
        0
280
     0
281
     0
  0
CLASS
  1
ACMIDSTANDARDISO
  2
AcmIdStdISO
  3
"Amdt_StdImp|Product Description: AutoCAD Mechanical 2004 DX|Company: Autodesk"
 90
        0
280
     0
281
     0
  0
CLASS
  1
ACMDATUMSTANDARDISO
  2
AcmDatumStdISO
  3
"Amdt_StdImp|Product Description: AutoCAD Mechanical 2004 DX|Company: Autodesk"
 90
        0
280
     0
281
     0
  0
CLASS
  1
ACMBOMSTANDARDISO
  2
AcmBOMStdISO
  3
"Amdt_StdImp|Product Description: AutoCAD Mechanical 2004 DX|Company: Autodesk"
 90
        0
280
     0
281
     0
  0
CLASS
  1
ACMDETAILSTANDARDISO
  2
AmdtDetailSymStdISO
  3
"Amdt_StdImp|Product Description: AutoCAD Mechanical 2004 DX|Company: Autodesk"
 90
        0
280
     0
281
     0
  0
CLASS
  1
ACMSECTIONSTANDARDISO
  2
AmdtSectionSymStdISO
  3
"Amdt_StdImp|Product Description: AutoCAD Mechanical 2004 DX|Company: Autodesk"
 90
        0
280
     0
281
     0
  0
CLASS
  1
ACMCENTERLINESTANDARDISO
  2
AmdtCenterLineStdISO
  3
"Amdt_StdImp|Product Description: AutoCAD Mechanical 2004 DX|Company: Autodesk"
 90
        0
280
     0
281
     0
  0
CLASS
  1
ACMNOTESTANDARDISO
  2
AmdtNoteStdISO
  3
"Amdt_StdImp|Product Description: AutoCAD Mechanical 2004 DX|Company: Autodesk"
 90
        0
280
     0
281
     0
  0
CLASS
  1
ACAMGLAYSTD
  2
AcAmgLayStd
  3
"AcAmgLayStd|Product Description: AutoCAD Mechanical 2000|Company: Autodesk"
 90
        0
280
     0
281
     0
  0
CLASS
  1
ACAMGDIMSTD
  2
AcAmgDimStd
  3
"AcAmgDimStd|Product Description: AutoCAD Mechanical 2000|Company: Autodesk"
 90
        0
280
     0
281
     0
  0
CLASS
  1
ACAMGHOLECHARTSTDISO
  2
AcAmgHoleChartStdISO
  3
ACMSYMBB_MODULE_NAME
 90
        0
280
     0
281
     0
  0
CLASS
  1
ACAMGTITLESTD
  2
AcAmgTitleStd
  3
"TITLEAPP"
 90
        0
280
     0
281
     0
  0
CLASS
  1
LAYER_INDEX
  2
AcDbLayerIndex
  3
ObjectDBX Classes
 90
        0
280
     0
281
     0
  0
CLASS
  1
IDBUFFER
  2
AcDbIdBuffer
  3
ObjectDBX Classes
 90
        0
280
     0
281
     0
  0
CLASS
  1
DICTIONARYVAR
  2
AcDbDictionaryVar
  3
ObjectDBX Classes
 90
        0
280
     0
281
     0
  0
CLASS
  1
AM_DRAWING_MGR
  2
AcDmDwgMgr
  3
AcMechDwgViewMgmt
 90
        0
280
     0
281
     0
  0
CLASS
  1
AM_DWG_DOCUMENT
  2
AcDmDwgDocument
  3
AcMechDwgViewMgmt
 90
        0
280
     0
281
     0
  0
CLASS
  1
AM_DWG_SHEET
  2
AcDmSheet
  3
AcMechDwgViewMgmt
 90
        0
280
     0
281
     0
  0
CLASS
  1
AM_VIEWDIMPARMAP
  2
AcDmViewDimParMap
  3
AcMechDwgViewMgmt
 90
        0
280
     0
281
     0
  0
CLASS
  1
AM_DWGMGR_NAME
  2
AcDmDwgMgrName
  3
AcMechDwgViewMgmt
 90
        0
280
     0
281
     0
  0
CLASS
  1
AMDTMENUSTATEMGR
  2
AmdtMenuStateMgr
  3
McadcomServices
 90
        0
280
     0
281
     0
  0
CLASS
  1
AMDTMCOMMENUSTATE
  2
AmdtMcomMenuState
  3
McadcomServices
 90
        0
280
     0
281
     0
  0
CLASS
  1
MAPIAMMOUDLE
  2
MApiAmModule
  3
MApiAmServices
 90
        0
280
     0
281
     0
  0
CLASS
  1
AMDTADMENUSTATE
  2
AmdtAdMenuState
  3
DesignerServices
 90
        0
280
     0
281
     0
  0
CLASS
  1
ADAPPL
  2
AcAdAppl
  3
DesignerServices
 90
        0
280
     0
281
     0
  0
CLASS
  1
DEPMGR
  2
AcAdDepMgr
  3
DesignerServices
 90
        0
280
     0
281
     0
  0
CLASS
  1
PARAMMGR
  2
AcAdParamMgr
  3
DesignerServices
 90
        0
280
     0
281
     0
  0
CLASS
  1
PARAMSCOPE
  2
AcAdParamScope
  3
DesignerServices
 90
        0
280
     0
281
     0
  0
CLASS
  1
NAMEDAPPL
  2
AcAdNamedAppl
  3
DesignerServices
 90
        0
280
     0
281
     0
  0
CLASS
  1
AMDTDMMENUSTATE
  2
AmdtDmMenuState
  3
AcMechDwgViewMgmt
 90
        0
280
     0
281
     0
  0
CLASS
  1
AMDTAMMENUSTATE
  2
AmdtAmMenuState
  3
DesignerAssemblies
 90
        0
280
     0
281
     0
  0
CLASS
  1
ACAMPROJECT
  2
AcAmProject
  3
DesignerAssemblies
 90
        0
280
     0
281
     0
  0
CLASS
  1
ACAMGRCOMPDEF
  2
AcAmGrCompDef
  3
DesignerAssemblies
 90
        0
280
     0
281
     0
  0
CLASS
  1
ACCMCONTEXT
  2
AcCmContext
  3
DesignerAssemblies
 90
        0
280
     0
281
     0
  0
CLASS
  1
ACAMCOMPDEF
  2
AcAmCompDef
  3
DesignerAssemblies
 90
        0
280
     0
281
     0
  0
CLASS
  1
ACAMCOMPDEFMGR
  2
AcAmCompDefMgr
  3
DesignerAssemblies
 90
        0
280
     0
281
     0
  0
CLASS
  1
AMCONTEXTMGR
  2
AcAmContextMgr
  3
DesignerAssemblies
 90
        0
280
     0
281
     0
  0
CLASS
  1
ACAMCONTEXTMODELER
  2
AcAmContextModeler
  3
DesignerAssemblies
 90
        0
280
     0
281
     0
  0
CLASS
  1
ACMTHREADLINESTANDARDISO
  2
AmdtThreadLineStdISO
  3
"Amdt_StdImp|Product Description: AutoCAD Mechanical 2004 DX|Company: Autodesk"
 90
        0
280
     0
281
     0
  0
CLASS
  1
CATALOGSTATE
  2
AcAmCatalogState
  3
DesignerAssemblies
 90
        0
280
     0
281
     0
  0
CLASS
  1
ACAMGRCOMPDEFSET
  2
AcAmGrCompDefSet
  3
DesignerAssemblies
 90
        0
280
     0
281
     0
  0
CLASS
  1
AMDTBROWSERDBTAB
  2
AmdtBrowserDbTab
  3
McadcomServices
 90
        0
280
     0
281
     0
  0
CLASS
  1
CBROWSERAPPOBJECT
  2
CBrowserAppObject
  3
McadcomServices
 90
        0
280
     0
281
     0
  0
CLASS
  1
DM_PLACEHOLDER
  2
AcDmSelsetPlaceholder
  3
AcMechDwgViewMgmt
 90
        0
280
     0
281
     0
  0
CLASS
  1
TABLESTYLE
  2
AcDbTableStyle
  3
ObjectDBX Classes
 90
     2047
280
     0
281
     0
  0
CLASS
  1
VAACXREFPANELOBJECT
  2
VaAcXREFPanelObject
  3
VAAC_ADDIN
 90
    32768
280
     0
281
     0
  0
CLASS
  1
VAACIMAGEINVENTORY
  2
VaAcImageInventory
  3
VAAC_ADDIN
 90
    32768
280
     0
281
     0
  0
CLASS
  1
AMDTNOTETEMPLATEDB
  2
AmdtNoteTemplateDB
  3
AMDT_STDIMP_MODULE_NAME
 90
        0
280
     0
281
     0
  0
CLASS
  1
ACMBOM
  2
AcmBom
  3
"AcmSymBB|Product Description: AutoCAD Mechanical 2004 DX|Company: Autodesk"
 90
    32768
280
     0
281
     0
  0
CLASS
  1
AMDTFORMULAUPDATEDISPATCHER
  2
AmdtFormulaUpdateDispatcher
  3
AcMeServices
 90
    32768
280
     0
281
     0
  0
CLASS
  1
ACMPARTLIST
  2
AcmPartList
  3
"AcmSymBB|Product Description: AutoCAD Mechanical 2004 DX|Company: Autodesk"
 90
    33791
280
     0
281
     1
  0
CLASS
  1
ACAMGFILTERDAT
  2
AcAmgFilterDat
  3
"AcadM|Product Description: AutoCAD Mechanical 2000|Company: Autodesk"
 90
    32768
280
     0
281
     0
  0
CLASS
  1
DIMASSOC
  2
AcDbDimAssoc
  3
"AcDbDimAssoc|Product Desc:     AcDim ARX App For Dimension|Company:          Autodesk, Inc.|WEB Address:      www.autodesk.com"
 90
        0
280
     0
281
     0
  0
CLASS
  1
SORTENTSTABLE
  2
AcDbSortentsTable
  3
ObjectDBX Classes
 90
        0
280
     0
281
     0
  0
CLASS
  1
STDPART2D
  2
AmgStdPart
  3
"AmgStdPart|Product Description: AutoCAD Mechanical 2000|Company: Autodesk"
 90
    33791
280
     0
281
     1
  0
CLASS
  1
ACAMSTDPCOMPDEF
  2
AcAmStdpCompDef
  3
DesignerAssemblies
 90
    32768
280
     0
281
     0
  0
CLASS
  1
ACRFATTGENMGR
  2
AcRfAttGeneralMgr
  3
AcAttribServices
 90
    32768
280
     0
281
     0
  0
CLASS
  1
ACRFOBJATTMGR
  2
AcRfObjAttGroupMgr
  3
AcAttribServices
 90
    32768
280
     0
281
     0
  0
CLASS
  1
ACRFMCADAPIATTHOLDER
  2
AcRfMCADAPIAttHolder
  3
AcAttribServices
 90
    32768
280
     0
281
     0
  0
CLASS
  1
AMDTSYSATTR
  2
AmdtSystemAttribute
  3
AcAttribServices
 90
    32768
280
     0
281
     0
  0
CLASS
  1
ACAMCOMP
  2
AcAmComp
  3
DesignerAssemblies
 90
    32768
280
     0
281
     0
  0
CLASS
  1
AC_AM_STDP_VIEW_DEF
  2
AcAmStdpViewDef
  3
DesignerAssemblies
 90
    32768
280
     0
281
     0
  0
CLASS
  1
AC_AM_MVD_DEP_MGR
  2
AcAmMVDdepMgr
  3
DesignerAssemblies
 90
    32768
280
     0
281
     0
  0
CLASS
  1
AC_AM_MASTER_VIEW_DEF
  2
AcAmMasterViewDef
  3
DesignerAssemblies
 90
    32768
280
     0
281
     0
  0
CLASS
  1
AC_AM_DIRTY_NODES
  2
AcAmDirtyNodes
  3
DesignerAssemblies
 90
    32768
280
     0
281
     0
  0
CLASS
  1
AC_AM_MAPPER_CACHE
  2
AcAmMapperCache
  3
DesignerAssemblies
 90
    32768
280
     0
281
     0
  0
CLASS
  1
ACAMMVDBACKUPOBJECT
  2
AcAmMVDBackupObject
  3
DesignerAssemblies
 90
    32768
280
     0
281
     0
  0
CLASS
  1
AC_AM_COMP_VIEW_INST
  2
AcAmCompView
  3
DesignerAssemblies
 90
    32768
280
     0
281
     0
  0
CLASS
  1
AC_AM_2D_XREF_MGR
  2
AcAmXrefMgr2d
  3
DesignerAssemblies
 90
    32768
280
     0
281
     0
  0
CLASS
  1
AMDTNOTE
  2
AmdtNote
  3
"AcmSymBB|Product Description: AutoCAD Mechanical 2004 DX|Company: Autodesk"
 90
    33791
280
     0
281
     1
  0
CLASS
  1
AMDTEDGESTANDARDISO13715
  2
AmdtEdgeStdISO13715
  3
"Amdt_StdImp|Product Description: AutoCAD Mechanical 2004 DX|Company: Autodesk"
 90
        0
280
     0
281
     0
  0
CLASS
  1
ASAPP
  2
AcAsAppObject
  3
AutoSurfServices
 90
        0
280
     0
281
     0
  0
CLASS
  1
IM_STATIC_MAN
  2
AcImStaticVarManager
  3
AcMeServices
 90
        0
280
     0
281
     0
  0
CLASS
  1
ACIMDBLSTATICVAR
  2
AcImDblStaticVar
  3
AcMeServices
 90
        0
280
     0
281
     0
  0
CLASS
  1
ACIMSTRSTATICVAR
  2
AcImStrStaticVar
  3
AcMeServices
 90
        0
280
     0
281
     0
  0
CLASS
  1
ACIMINTSTATICVAR
  2
AcImIntStaticVar
  3
AcMeServices
 90
        0
280
     0
281
     0
  0
CLASS
  1
ACASGREFMASTER
  2
AcAsGrefMaster
  3
AutoSurfResolverServices
 90
        0
280
     0
281
     0
  0
CLASS
  1
ACADGREFMODULE
  2
AcAdGrefModule
  3
AdGrefServices
 90
        0
280
     0
281
     0
  0
CLASS
  1
AMDTMAPISURFMOUDULE
  2
AmdtMApiSurfModule
  3
MApiSurfServices
 90
        0
280
     0
281
     0
  0
CLASS
  1
MAPIADMODULE
  2
MApiAdModule
  3
MApiAdServices
 90
        0
280
     0
281
     0
  0
ENDSEC
  0
SECTION
  2
TABLES
  0
TABLE
  2
VPORT
  5
8
330
0
100
AcDbSymbolTable
 70
     3
  0
VPORT
  5
B2D7
330
8
100
AcDbSymbolTableRecord
100
AcDbViewportTableRecord
  2
*Active
 70
     0
 10
0.0
 20
0.0
 11
1.0
 21
1.0
 12
261.4512393200539
 22
-189.1387718095148
 13
0.0
 23
0.0
 14
2.5
 24
2.5
 15
10.0
 25
10.0
 16
0.0
 26
0.0
 36
1.0
 17
493.6788805944727
 27
316.1094665189255
 37
0.0
 40
214.9947886813055
 41
1.263157894736842
 42
50.0
 43
0.0
 44
0.0
 50
0.0
 51
0.0
 71
     0
 72
  2000
 73
     1
 74
     3
 75
     0
 76
     0
 77
     0
 78
     0
281
     0
 65
     0
110
0.0
120
0.0
130
0.0
111
1.0
121
0.0
131
0.0
112
0.0
122
1.0
132
0.0
 79
     0
146
0.0
  0
ENDTAB
  0
TABLE
  2
LTYPE
  5
5
330
0
100
AcDbSymbolTable
 70
    16
  0
LTYPE
  5
14
330
5
100
AcDbSymbolTableRecord
100
AcDbLinetypeTableRecord
  2
ByBlock
 70
     0
  3

 72
    65
 73
     0
 40
0.0
  0
LTYPE
  5
15
330
5
100
AcDbSymbolTableRecord
100
AcDbLinetypeTableRecord
  2
ByLayer
 70
     0
  3

 72
    65
 73
     0
 40
0.0
  0
LTYPE
  5
16
330
5
100
AcDbSymbolTableRecord
100
AcDbLinetypeTableRecord
  2
Continuous
 70
     0
  3
Solid line
 72
    65
 73
     0
 40
0.0
  0
LTYPE
  5
64
330
5
100
AcDbSymbolTableRecord
100
AcDbLinetypeTableRecord
  2
AM_ISO02W050
 70
     0
  3
__ __ __ __ __ __ __ __ __ __ __ __ __ __ __
 72
    65
 73
     2
 40
7.5
 49
6.0
 74
     0
 49
-1.5
 74
     0
  0
LTYPE
  5
65
330
5
100
AcDbSymbolTableRecord
100
AcDbLinetypeTableRecord
  2
AM_ISO08W050
 70
     0
  3
____ . ____ . ____ . ____ . ____ . ____ . ____
 72
    65
 73
     4
 40
18.0
 49
12.0
 74
     0
 49
-1.5
 74
     0
 49
3.0
 74
     0
 49
-1.5
 74
     0
  0
LTYPE
  5
66
330
5
100
AcDbSymbolTableRecord
100
AcDbLinetypeTableRecord
  2
AM_ISO09W050
 70
     0
  3
_____ . . _____ . . _____ . . ____ .. ____
 72
    65
 73
     6
 40
22.5
 49
12.0
 74
     0
 49
-1.5
 74
     0
 49
3.0
 74
     0
 49
-1.5
 74
     0
 49
3.0
 74
     0
 49
-1.5
 74
     0
  0
LTYPE
  5
67
330
5
100
AcDbSymbolTableRecord
100
AcDbLinetypeTableRecord
  2
Amconstr
 70
     0
  3
_______________________
 72
    65
 73
     2
 40
9999.0
 49
9999.0
 74
     0
 49
0.0
 74
     0
  0
LTYPE
  5
68
330
5
100
AcDbSymbolTableRecord
100
AcDbLinetypeTableRecord
  2
AM_ISO08W050x2
 70
     0
  3
__ . __ . __ . __ . __ . __
 72
    65
 73
     4
 40
9.0
 49
6.0
 74
     0
 49
-0.75
 74
     0
 49
1.5
 74
     0
 49
-0.75
 74
     0
  0
LTYPE
  5
69
330
5
100
AcDbSymbolTableRecord
100
AcDbLinetypeTableRecord
  2
AM_ISO02W050x2
 70
     0
  3
 _ _ _ _ _ _ _ _ _ _ _ _
 72
    65
 73
     2
 40
3.75
 49
3.0
 74
     0
 49
-0.75
 74
     0
  0
LTYPE
  5
6C
330
5
100
AcDbSymbolTableRecord
100
AcDbLinetypeTableRecord
  2
Amzigzag
 70
     0
  3
/\/-/\/-/\/-/\/-/\/-/\/
 72
    65
 73
     2
 40
11.0001
 49
0.0001
 74
     4
 75
   135
340
6B
 46
0.04
 50
0.0
 44
0.0
 45
0.0
 49
-11.0
 74
     0
  0
LTYPE
  5
7A
330
5
100
AcDbSymbolTableRecord
100
AcDbLinetypeTableRecord
  2
ACISOWELD
 70
     0
  3
_ _ _ _ _
 72
    65
 73
     2
 40
2.0
 49
2.0
 74
     0
 49
-1.0
 74
     0
  0
LTYPE
  5
7B
330
5
100
AcDbSymbolTableRecord
100
AcDbLinetypeTableRecord
  2
ACISOTGB
 70
     0
  3
__ . . __ . .
 72
    65
 73
     6
 40
9.0
 49
4.0
 74
     0
 49
-1.0
 74
     0
 49
1.0
 74
     0
 49
-1.0
 74
     0
 49
1.0
 74
     0
 49
-1.0
 74
     0
  0
LTYPE
  5
7C
330
5
100
AcDbSymbolTableRecord
100
AcDbLinetypeTableRecord
  2
ACISOTGL
 70
     0
  3
_ _ _ _ _
 72
    65
 73
     2
 40
3.0
 49
2.0
 74
     0
 49
-1.0
 74
     0
  0
LTYPE
  5
7E
330
5
100
AcDbSymbolTableRecord
100
AcDbLinetypeTableRecord
  2
CENTER
 70
     0
  3
__ . __
 72
    65
 73
     4
 40
7.0
 49
4.0
 74
     0
 49
-1.0
 74
     0
 49
1.0
 74
     0
 49
-1.0
 74
     0
  0
LTYPE
  5
D8
330
5
100
AcDbSymbolTableRecord
100
AcDbLinetypeTableRecord
  2
HIDDEN
 70
     0
  3
Hidden __ __ __ __ __ __ __ __ __ __ __ __ __ _
 72
    65
 73
     2
 40
9.524999999999998
 49
6.349999999999999
 74
     0
 49
-3.174999999999999
 74
     0
  0
LTYPE
  5
D9
330
5
100
AcDbSymbolTableRecord
100
AcDbLinetypeTableRecord
  2
PHANTOM2
 70
     0
  3
Phantom (.5x) ___ _ _ ___ _ _ ___ _ _ ___ _ _
 72
    65
 73
     6
 40
31.75
 49
15.875
 74
     0
 49
-3.174999999999999
 74
     0
 49
3.174999999999999
 74
     0
 49
-3.174999999999999
 74
     0
 49
3.174999999999999
 74
     0
 49
-3.174999999999999
 74
     0
  0
LTYPE
  5
7C98
330
5
100
AcDbSymbolTableRecord
100
AcDbLinetypeTableRecord
  2
ASULTYPE
 70
     0
  3
實線
 72
    65
 73
     2
 40
3.0
 49
2.5
 74
     0
 49
0.5
 74
     0
  0
LTYPE
  5
7C99
330
5
100
AcDbSymbolTableRecord
100
AcDbLinetypeTableRecord
  2
ASVLTYPE
 70
     0
  3
__ __ __ __ __ __ __ __ __ __ __ __ __ __ __ __ __ __ __ __ __
 72
    65
 73
     2
 40
0.75
 49
0.5
 74
     0
 49
-0.25
 74
     0
  0
ENDTAB
  0
TABLE
  2
LAYER
  5
2
102
{ACAD_XDICTIONARY
360
3F9
102
}
330
0
100
AcDbSymbolTable
 70
    13
  0
LAYER
  5
10
330
2
100
AcDbSymbolTableRecord
100
AcDbLayerTableRecord
  2
0
 70
     0
 62
     7
  6
Continuous
370
    -3
390
F
  0
LAYER
  5
C92
330
2
100
AcDbSymbolTableRecord
100
AcDbLayerTableRecord
  2
Defpoints
 70
     0
 62
     7
  6
Continuous
290
     0
370
    -3
390
F
  0
LAYER
  5
C93
330
2
100
AcDbSymbolTableRecord
100
AcDbLayerTableRecord
  2
AM_5
 70
     0
 62
     3
  6
Continuous
370
    25
390
F
  0
LAYER
  5
C94
330
2
100
AcDbSymbolTableRecord
100
AcDbLayerTableRecord
  2
AM_4
 70
     0
 62
     3
  6
Continuous
370
    25
390
F
  0
LAYER
  5
C95
330
2
100
AcDbSymbolTableRecord
100
AcDbLayerTableRecord
  2
AM_VIS
 70
     0
 62
     7
  6
Continuous
370
    50
390
F
  0
LAYER
  5
C96
330
2
100
AcDbSymbolTableRecord
100
AcDbLayerTableRecord
  2
AM_HID
 70
     0
 62
     3
  6
AM_ISO02W050x2
370
    25
390
F
  0
LAYER
  5
C97
330
2
100
AcDbSymbolTableRecord
100
AcDbLayerTableRecord
  2
AM_7
 70
     0
 62
     1
  6
CENTER
370
    25
390
F
  0
LAYER
  5
C99
330
2
100
AcDbSymbolTableRecord
100
AcDbLayerTableRecord
  2
LOGO
 70
     0
 62
     7
  6
Continuous
370
    -3
390
F
  0
LAYER
  5
2AA5
330
2
100
AcDbSymbolTableRecord
100
AcDbLayerTableRecord
  2
AM_REFDIM
 70
     0
 62
     5
  6
Continuous
370
    25
390
F
  0
LAYER
  5
79D1
330
2
100
AcDbSymbolTableRecord
100
AcDbLayerTableRecord
  2
CEN
 70
     0
 62
     1
  6
CENTER
370
    -3
390
F
  0
LAYER
  5
79D3
330
2
100
AcDbSymbolTableRecord
100
AcDbLayerTableRecord
  2
HATCH
 70
     0
 62
     4
  6
Continuous
370
    -3
390
F
  0
LAYER
  5
7BB8
330
2
100
AcDbSymbolTableRecord
100
AcDbLayerTableRecord
  2
SL
 70
     0
 62
     2
  6
Continuous
370
    -3
390
F
1001
AcAecLayerStandard
1000

1000

  0
LAYER
  5
7DF7
330
2
100
AcDbSymbolTableRecord
100
AcDbLayerTableRecord
  2
AM_10
 70
     0
 62
     7
  6
AM_ISO08W050
370
    50
390
F
  0
ENDTAB
  0
TABLE
  2
STYLE
  5
3
330
0
100
AcDbSymbolTable
 70
     6
  0
STYLE
  5
11
330
3
100
AcDbSymbolTableRecord
100
AcDbTextStyleTableRecord
  2
STANDARD
 70
     0
 40
0.0
 41
1.0
 50
0.0
 71
     0
 42
3.0
  3
ISOCP.SHX
  4
CHINESET.SHX
  0
STYLE
  5
6B
330
3
100
AcDbSymbolTableRecord
100
AcDbTextStyleTableRecord
  2

 70
     1
 40
0.0
 41
1.0
 50
0.0
 71
     0
 42
2.5
  3
ltypeshp.shx
  4

  0
STYLE
  5
6D
330
3
100
AcDbSymbolTableRecord
100
AcDbTextStyleTableRecord
  2
ACISOTS
 70
     0
 40
1.0
 41
1.0
 50
0.0
 71
     0
 42
1.0
  3
isocp.shx
  4
chineset.shx
  0
STYLE
  5
79
330
3
100
AcDbSymbolTableRecord
100
AcDbTextStyleTableRecord
  2
ACISOGDT
 70
     0
 40
0.0
 41
1.0
 50
0.0
 71
     0
 42
2.5
  3
amgdt.shx
  4
chineset.shx
  0
STYLE
  5
C9B
330
3
100
AcDbSymbolTableRecord
100
AcDbTextStyleTableRecord
  2
CHINESET
 70
     0
 40
0.0
 41
1.0
 50
0.0
 71
     0
 42
2.5
  3
simplex.shx
  4
CHINESET.shx
  0
STYLE
  5
7DF8
330
3
100
AcDbSymbolTableRecord
100
AcDbTextStyleTableRecord
  2
DAYUS
 70
     0
 40
0.0
 41
1.0
 50
0.0
 71
     0
 42
2.0
  3
simplex.shx
  4
dayus.shx
  0
ENDTAB
  0
TABLE
  2
VIEW
  5
6
330
0
100
AcDbSymbolTable
 70
     0
  0
ENDTAB
  0
TABLE
  2
UCS
  5
7
330
0
100
AcDbSymbolTable
 70
     0
  0
ENDTAB
  0
TABLE
  2
APPID
  5
9
330
0
100
AcDbSymbolTable
 70
    39
  0
APPID
  5
12
330
9
100
AcDbSymbolTableRecord
100
AcDbRegAppTableRecord
  2
ACAD
 70
     0
  0
APPID
  5
46
330
9
100
AcDbSymbolTableRecord
100
AcDbRegAppTableRecord
  2
MCAD_NO_VIS
 70
     0
  0
APPID
  5
47
330
9
100
AcDbSymbolTableRecord
100
AcDbRegAppTableRecord
  2
ACAD_TEMP_GRAPHIC
 70
     0
  0
APPID
  5
58
330
9
100
AcDbSymbolTableRecord
100
AcDbRegAppTableRecord
  2
ACATTRIBSERVICES
 70
     0
  0
APPID
  5
EE
330
9
100
AcDbSymbolTableRecord
100
AcDbRegAppTableRecord
  2
AD_DRAW
 70
     0
  0
APPID
  5
10C
330
9
100
AcDbSymbolTableRecord
100
AcDbRegAppTableRecord
  2
DESIGNERASSEMBLIES
 70
     0
  0
APPID
  5
111
330
9
100
AcDbSymbolTableRecord
100
AcDbRegAppTableRecord
  2
ACADM_DIM_EDIT
 70
     0
  0
APPID
  5
112
330
9
100
AcDbSymbolTableRecord
100
AcDbRegAppTableRecord
  2
AMDT_DM_ADJ
 70
     0
  0
APPID
  5
22C
330
9
100
AcDbSymbolTableRecord
100
AcDbRegAppTableRecord
  2
ACAD_DSTYLE_DIMTEXT_FILL
 70
     0
  0
APPID
  5
452
330
9
100
AcDbSymbolTableRecord
100
AcDbRegAppTableRecord
  2
GENIUS_GENOENT_13
 70
     0
  0
APPID
  5
453
330
9
100
AcDbSymbolTableRecord
100
AcDbRegAppTableRecord
  2
GENIUS_GENOBJ-N-CRS_13
 70
     0
  0
APPID
  5
454
330
9
100
AcDbSymbolTableRecord
100
AcDbRegAppTableRecord
  2
GENIUS_GENOLIS_13
 70
     0
  0
APPID
  5
455
330
9
100
AcDbSymbolTableRecord
100
AcDbRegAppTableRecord
  2
GENIUS_GENODEF_13
 70
     0
  0
APPID
  5
456
330
9
100
AcDbSymbolTableRecord
100
AcDbRegAppTableRecord
  2
GENIUS_GENOREF_13
 70
     0
  0
APPID
  5
6F3
330
9
100
AcDbSymbolTableRecord
100
AcDbRegAppTableRecord
  2
ACAD_PSEXT
 70
     0
  0
APPID
  5
808
330
9
100
AcDbSymbolTableRecord
100
AcDbRegAppTableRecord
  2
GENIUS_GENDTOL_13
 70
     0
  0
APPID
  5
C9C
330
9
100
AcDbSymbolTableRecord
100
AcDbRegAppTableRecord
  2
GENIUS_GENOBJ-N-CEN_13
 70
     0
  0
APPID
  5
C9D
330
9
100
AcDbSymbolTableRecord
100
AcDbRegAppTableRecord
  2
GENIUS_GENCEN_19
 70
     0
  0
APPID
  5
C9E
330
9
100
AcDbSymbolTableRecord
100
AcDbRegAppTableRecord
  2
GENIUS_GENREC_14
 70
     0
  0
APPID
  5
C9F
330
9
100
AcDbSymbolTableRecord
100
AcDbRegAppTableRecord
  2
GENIUS_GENOBJ-N-REC_13
 70
     0
  0
APPID
  5
18AD
330
9
100
AcDbSymbolTableRecord
100
AcDbRegAppTableRecord
  2
GEVID1195260822
 70
     0
  0
APPID
  5
18AE
330
9
100
AcDbSymbolTableRecord
100
AcDbRegAppTableRecord
  2
GEVDC
 70
     0
  0
APPID
  5
18AF
330
9
100
AcDbSymbolTableRecord
100
AcDbRegAppTableRecord
  2
GEVRADREF
 70
     0
  0
APPID
  5
18B8
330
9
100
AcDbSymbolTableRecord
100
AcDbRegAppTableRecord
  2
AMG_2DHIDE
 70
     0
  0
APPID
  5
18B9
330
9
100
AcDbSymbolTableRecord
100
AcDbRegAppTableRecord
  2
AMG_2DSTRUCT_BTR
 70
     0
  0
APPID
  5
18CA
330
9
100
AcDbSymbolTableRecord
100
AcDbRegAppTableRecord
  2
ACADM_2DVIEW_IGN_NOTIFY
 70
     0
  0
APPID
  5
3621
330
9
100
AcDbSymbolTableRecord
100
AcDbRegAppTableRecord
  2
GENIUS_GENDIMSH_14
 70
     0
  0
APPID
  5
3FD8
330
9
100
AcDbSymbolTableRecord
100
AcDbRegAppTableRecord
  2
AD_SKETCHDIM
 70
     0
  0
APPID
  5
42D5
330
9
100
AcDbSymbolTableRecord
100
AcDbRegAppTableRecord
  2
ACAD_DSTYLE_DIMEXT_LENGTH
 70
     0
  0
APPID
  5
42D6
330
9
100
AcDbSymbolTableRecord
100
AcDbRegAppTableRecord
  2
ACAD_DSTYLE_DIMEXT_ENABLED
 70
     0
  0
APPID
  5
42D7
330
9
100
AcDbSymbolTableRecord
100
AcDbRegAppTableRecord
  2
ACAD_DSTYLE_DIM_EXT1_LINETYPE
 70
     0
  0
APPID
  5
42D8
330
9
100
AcDbSymbolTableRecord
100
AcDbRegAppTableRecord
  2
ACAD_DSTYLE_DIMJOGGED_JOGANGLE_SYMBOL
 70
     0
  0
APPID
  5
42D9
330
9
100
AcDbSymbolTableRecord
100
AcDbRegAppTableRecord
  2
ACAD_DSTYLE_DIMARC_LENGTH_SYMBOL
 70
     0
  0
APPID
  5
5E72
330
9
100
AcDbSymbolTableRecord
100
AcDbRegAppTableRecord
  2
AcAecLayerStandard
 70
     0
  0
APPID
  5
7C19
330
9
100
AcDbSymbolTableRecord
100
AcDbRegAppTableRecord
  2
GENIUS_GENDIM_13
 70
     0
  0
APPID
  5
7C1A
330
9
100
AcDbSymbolTableRecord
100
AcDbRegAppTableRecord
  2
GENIUS_GE3DTOL_13
 70
     0
  0
APPID
  5
7C9A
330
9
100
AcDbSymbolTableRecord
100
AcDbRegAppTableRecord
  2
ASURF_PCURVE_APPNAME
 70
     0
  0
APPID
  5
7C9F
330
9
100
AcDbSymbolTableRecord
100
AcDbRegAppTableRecord
  2
AMG_3D2D_5.0
 70
     0
  0
APPID
  5
A993
330
9
100
AcDbSymbolTableRecord
100
AcDbRegAppTableRecord
  2
DCO15
 70
     0
  0
ENDTAB
  0
TABLE
  2
DIMSTYLE
  5
A
330
0
100
AcDbSymbolTable
 70
    16
100
AcDbDimStyleTable
 71
     3
340
81
340
8B
340
86
  0
DIMSTYLE
105
81
330
A
100
AcDbSymbolTableRecord
100
AcDbDimStyleTableRecord
  2
AM_ISO
 70
     0
  4
"
 41
3.5
 42
1.0
 43
8.0
 44
1.0
 47
0.1
 48
0.1
 73
     0
 74
     0
 77
     1
 78
     8
 79
     2
140
3.5
141
0.0
143
0.0393701
146
0.6
147
1.0
172
     1
176
   256
177
   256
178
   256
271
     2
272
     2
283
     0
284
     8
340
11
371
    -1
372
    -1
  0
DIMSTYLE
105
82
330
A
100
AcDbSymbolTableRecord
100
AcDbDimStyleTableRecord
  2
AM_ISO$3
 70
     0
  4
"
 41
3.5
 42
1.0
 43
8.0
 44
1.0
 47
0.1
 48
0.1
 73
     0
 77
     1
 78
     8
 79
     2
140
3.5
141
0.0
143
0.0393701
146
0.6
147
1.0
176
   256
177
   256
178
   256
271
     2
272
     2
283
     0
284
     8
288
     1
289
     0
340
11
371
    -1
372
    -1
  0
DIMSTYLE
105
83
330
A
100
AcDbSymbolTableRecord
100
AcDbDimStyleTableRecord
  2
AM_ISO$4
 70
     0
  4
"
 41
3.5
 42
1.0
 43
8.0
 44
1.0
 47
0.1
 48
0.1
 73
     0
 77
     1
 78
     8
 79
     2
140
3.5
141
0.0
143
0.0393701
146
0.6
147
1.0
176
   256
177
   256
178
   256
271
     2
272
     2
283
     0
284
     8
288
     1
289
     0
340
11
371
    -1
372
    -1
  0
DIMSTYLE
105
84
330
A
100
AcDbSymbolTableRecord
100
AcDbDimStyleTableRecord
  2
AM_ISO$6
 70
     0
  4
"
 41
3.5
 42
1.0
 43
8.0
 44
1.0
 47
0.1
 48
0.1
 73
     0
 74
     0
 78
     8
 79
     2
140
3.5
141
0.0
143
0.0393701
146
0.6
147
1.0
172
     1
176
   256
177
   256
178
   256
271
     2
272
     2
283
     0
284
     8
340
11
371
    -1
372
    -1
  0
DIMSTYLE
105
85
330
A
100
AcDbSymbolTableRecord
100
AcDbDimStyleTableRecord
  2
AM_ISO$7
 70
     0
  4
"
 41
3.5
 42
1.0
 43
8.0
 44
1.0
 47
0.1
 48
0.1
 73
     0
 74
     0
 77
     1
 78
     8
 79
     2
140
3.5
141
0.0
143
0.0393701
146
0.6
147
1.0
172
     1
176
   256
177
   256
178
   256
271
     2
272
     2
283
     0
284
     8
340
11
371
    -1
372
    -1
  0
DIMSTYLE
105
86
330
A
100
AcDbSymbolTableRecord
100
AcDbDimStyleTableRecord
  2
AM_ISO$SF
 70
     0
  4
"
 41
2.5
 42
1.0
 43
10.0
 44
1.0
 47
0.1
 48
0.1
 73
     0
 74
     0
 75
     1
 76
     1
 77
     1
 78
     8
 79
     2
140
3.5
141
0.0
143
0.0393701
146
0.71
147
1.5
172
     1
176
   256
177
   256
178
     2
271
     2
272
     3
274
     4
283
     0
284
     8
340
11
371
    -1
372
    -1
  0
DIMSTYLE
105
8B
330
A
100
AcDbSymbolTableRecord
100
AcDbDimStyleTableRecord
  2
AM_ISO$SH
 70
     0
  4
"
 41
2.5
 42
1.0
 43
10.0
 44
1.0
 47
0.1
 48
0.1
 73
     0
 74
     0
 75
     1
 76
     1
 77
     1
 78
     8
 79
     2
140
3.5
141
0.0
143
0.0393701
144
2.0
146
0.71
147
1.5
172
     1
173
     1
176
   256
177
   256
178
     2
271
     2
272
     3
274
     4
283
     0
284
     8
340
11
343
87
371
    -1
372
    -1
  0
DIMSTYLE
105
40B
102
{ACAD_REACTORS
330
A57E
330
A516
330
A540
330
A622
330
A724
330
A67B
330
A6A1
330
A7A5
330
A77B
330
A7CB
330
B250
102
}
330
A
100
AcDbSymbolTableRecord
100
AcDbDimStyleTableRecord
  2
AM_ISO$0
 70
     0
  4
"
 41
3.5
 42
1.0
 43
8.0
 44
1.0
 47
0.1
 48
0.1
 73
     0
 74
     0
 77
     1
 78
     8
 79
     2
140
3.5
141
0.0
143
0.0393701
146
0.6
147
1.0
172
     1
176
   256
177
   256
178
   256
271
     2
272
     2
283
     0
284
     8
340
11
371
    -1
372
    -1
  0
DIMSTYLE
105
2AAB
330
A
100
AcDbSymbolTableRecord
100
AcDbDimStyleTableRecord
  2
AM_ISO$SH$3
 70
     0
  4
"
 40
1.3
 41
2.5
 42
1.0
 43
10.0
 44
1.0
 47
0.1
 48
0.1
 73
     0
 74
     0
 75
     1
 76
     1
 77
     1
 78
     8
 79
     2
140
3.5
141
0.0
143
0.0393701
144
2.0
146
0.71
147
1.5
172
     1
173
     1
176
   256
177
   256
178
     2
271
     2
272
     3
274
     4
283
     0
284
     8
340
11
343
87
371
    -1
372
    -1
  0
DIMSTYLE
105
3FD7
330
A
100
AcDbSymbolTableRecord
100
AcDbDimStyleTableRecord
  2
AM_ISO$2
 70
     0
  4
"
 41
2.5
 42
1.0
 43
10.0
 44
1.0
 47
0.1
 48
0.1
 73
     0
 74
     0
 77
     1
 78
     8
 79
     2
140
3.5
141
0.0
143
0.0393701
146
0.71
147
1.5
172
     1
176
   256
177
   256
178
     2
271
     2
272
     3
274
     4
283
     0
284
     8
340
11
371
    -1
372
    -1
  0
DIMSTYLE
105
6430
330
A
100
AcDbSymbolTableRecord
100
AcDbDimStyleTableRecord
  2
AM_ISO$SH$0
 70
     0
  4
"
 40
1.5
 41
2.5
 42
1.0
 43
10.0
 44
1.0
 47
0.1
 48
0.1
 73
     0
 74
     0
 75
     1
 76
     1
 77
     1
 78
     8
 79
     2
140
3.5
141
0.0
143
0.0393701
144
2.0
146
0.71
147
1.5
172
     1
173
     1
176
   256
177
   256
178
     2
271
     2
272
     3
274
     4
283
     0
284
     8
340
11
343
87
371
    -1
372
    -1
  0
DIMSTYLE
105
7DF9
330
A
100
AcDbSymbolTableRecord
100
AcDbDimStyleTableRecord
  2
STANDARD
 70
     0
 41
2.5
 42
0.625
 43
3.75
 44
1.25
 73
     0
 74
     0
 77
     1
 78
     8
140
2.5
141
2.5
143
0.0394
147
0.625
171
     4
172
     1
273
     8
274
     4
277
     6
340
11
  0
DIMSTYLE
105
7DFA
330
A
100
AcDbSymbolTableRecord
100
AcDbDimStyleTableRecord
  2
AM_ANSI
 70
     0
  4
mm
 41
0.1
 42
0.05
 43
0.5
 44
0.1
 47
0.1
 48
0.1
 78
     7
 79
     2
140
0.12
141
0.0
146
0.71
147
0.06
176
   256
177
   256
178
     2
274
     4
284
     7
340
11
371
    -1
372
    -1
  0
DIMSTYLE
105
7DFB
330
A
100
AcDbSymbolTableRecord
100
AcDbDimStyleTableRecord
  2
DAYUS
 70
     0
  4
"
 40
0.6666666666666666
 41
3.0
 42
2.0
 43
10.0
 44
1.0
 47
0.1
 48
0.1
 73
     0
 74
     0
 77
     1
 78
     8
 79
     2
140
3.5
141
0.0
143
0.0393701
146
0.71
147
1.5
172
     1
176
   256
177
   256
178
     3
271
     2
272
     8
283
     0
284
     8
340
7DF8
371
    -1
372
    -1
  0
DIMSTYLE
105
857F
330
A
100
AcDbSymbolTableRecord
100
AcDbDimStyleTableRecord
  2
ISO-25$0
 70
     0
 40
5.0
 41
2.5
 42
0.625
 43
3.75
 44
1.25
 73
     0
 74
     0
 77
     1
 78
     8
140
2.5
141
2.5
143
0.03937007874016
147
0.625
171
     3
172
     1
271
     2
272
     2
274
     3
278
    44
283
     0
284
     8
340
11
  0
DIMSTYLE
105
968B
330
A
100
AcDbSymbolTableRecord
100
AcDbDimStyleTableRecord
  2
ISO-25
 70
     0
 41
2.5
 42
0.625
 43
3.75
 44
1.25
 73
     0
 74
     0
 77
     1
 78
     8
140
2.5
141
2.5
143
0.03937007874016
147
0.625
171
     3
172
     1
271
     2
272
     2
274
     3
278
    44
283
     0
284
     8
340
11
  0
ENDTAB
  0
TABLE
  2
BLOCK_RECORD
  5
1
330
0
100
AcDbSymbolTable
 70
    17
  0
BLOCK_RECORD
  5
1F
102
{ACAD_XDICTIONARY
360
8F
102
}
330
1
100
AcDbSymbolTableRecord
100
AcDbBlockTableRecord
  2
*Model_Space
340
22
  0
BLOCK_RECORD
  5
1B
330
1
100
AcDbSymbolTableRecord
100
AcDbBlockTableRecord
  2
*Paper_Space
340
1E
  0
BLOCK_RECORD
  5
23
330
1
100
AcDbSymbolTableRecord
100
AcDbBlockTableRecord
  2
*Paper_Space0
340
26
  0
BLOCK_RECORD
  5
87
330
1
100
AcDbSymbolTableRecord
100
AcDbBlockTableRecord
  2
GENAXEH
340
0
  0
BLOCK_RECORD
  5
7CF2
102
{ACAD_XDICTIONARY
360
7CF3
102
}
330
1
100
AcDbSymbolTableRecord
100
AcDbBlockTableRecord
  2
S2
340
0
1001
ACAD
1000
DesignCenter Data
1002
{
1070
     1
1070
     4
1002
}
  0
BLOCK_RECORD
  5
8569
330
1
100
AcDbSymbolTableRecord
100
AcDbBlockTableRecord
  2
SW_CENTERMARKSYMBOL_0
340
0
  0
BLOCK_RECORD
  5
8574
330
1
100
AcDbSymbolTableRecord
100
AcDbBlockTableRecord
  2
SW_CENTERMARKSYMBOL_1
340
0
  0
BLOCK_RECORD
  5
A517
330
1
100
AcDbSymbolTableRecord
100
AcDbBlockTableRecord
  2
*D6
340
0
  0
BLOCK_RECORD
  5
A541
330
1
100
AcDbSymbolTableRecord
100
AcDbBlockTableRecord
  2
*D7
340
0
  0
BLOCK_RECORD
  5
A57F
330
1
100
AcDbSymbolTableRecord
100
AcDbBlockTableRecord
  2
*D8
340
0
  0
BLOCK_RECORD
  5
A623
330
1
100
AcDbSymbolTableRecord
100
AcDbBlockTableRecord
  2
*D9
340
0
  0
BLOCK_RECORD
  5
A67C
330
1
100
AcDbSymbolTableRecord
100
AcDbBlockTableRecord
  2
*D10
340
0
  0
BLOCK_RECORD
  5
A6A2
330
1
100
AcDbSymbolTableRecord
100
AcDbBlockTableRecord
  2
*D11
340
0
  0
BLOCK_RECORD
  5
A725
330
1
100
AcDbSymbolTableRecord
100
AcDbBlockTableRecord
  2
*D12
340
0
  0
BLOCK_RECORD
  5
A77C
330
1
100
AcDbSymbolTableRecord
100
AcDbBlockTableRecord
  2
*D13
340
0
  0
BLOCK_RECORD
  5
A7A6
330
1
100
AcDbSymbolTableRecord
100
AcDbBlockTableRecord
  2
*D14
340
0
  0
BLOCK_RECORD
  5
A7CC
330
1
100
AcDbSymbolTableRecord
100
AcDbBlockTableRecord
  2
*D15
340
0
  0
BLOCK_RECORD
  5
B251
330
1
100
AcDbSymbolTableRecord
100
AcDbBlockTableRecord
  2
*D16
340
0
  0
ENDTAB
  0
ENDSEC
  0
SECTION
  2
BLOCKS
  0
BLOCK
  5
20
330
1F
100
AcDbEntity
  8
0
100
AcDbBlockBegin
  2
*Model_Space
 70
     0
 10
0.0
 20
0.0
 30
0.0
  3
*Model_Space
  1

  0
ENDBLK
  5
21
330
1F
100
AcDbEntity
  8
0
100
AcDbBlockEnd
  0
BLOCK
  5
1C
330
1B
100
AcDbEntity
 67
     1
  8
0
100
AcDbBlockBegin
  2
*Paper_Space
 70
     0
 10
0.0
 20
0.0
 30
0.0
  3
*Paper_Space
  1

  0
ENDBLK
  5
1D
330
1B
100
AcDbEntity
 67
     1
  8
0
100
AcDbBlockEnd
  0
BLOCK
  5
24
330
23
100
AcDbEntity
  8
0
100
AcDbBlockBegin
  2
*Paper_Space0
 70
     0
 10
0.0
 20
0.0
 30
0.0
  3
*Paper_Space0
  1

  0
ENDBLK
  5
25
330
23
100
AcDbEntity
  8
0
100
AcDbBlockEnd
  0
BLOCK
  5
89
330
87
100
AcDbEntity
  8
0
100
AcDbBlockBegin
  2
GENAXEH
 70
     0
 10
0.0
 20
0.0
 30
0.0
  3
GENAXEH
  1

  0
LINE
  5
88
330
87
100
AcDbEntity
  8
0
100
AcDbLine
 10
-1.0
 20
0.0
 30
0.0
 11
1.0
 21
0.0
 31
0.0
  0
ENDBLK
  5
8A
330
87
100
AcDbEntity
  8
0
100
AcDbBlockEnd
  0
BLOCK
  5
7CF4
330
7CF2
100
AcDbEntity
  8
0
100
AcDbBlockBegin
  2
S2
 70
     0
 10
0.0
 20
0.0
 30
0.0
  3
S2
  1

  0
LINE
  5
7CF5
330
7CF2
100
AcDbEntity
  8
AM_5
100
AcDbLine
 10
0.0000000000000284
 20
4.000000000000028
 30
0.0
 11
4.0
 21
4.0
 31
0.0
  0
LINE
  5
7CF6
330
7CF2
100
AcDbEntity
  8
AM_5
100
AcDbLine
 10
0.0000000000000284
 20
0.0
 30
0.0
 11
4.0
 21
0.0
 31
0.0
  0
TEXT
  5
7CF7
330
7CF2
100
AcDbEntity
  8
AM_5
100
AcDbText
 10
1.099999999999999
 20
0.5
 30
0.0
 40
3.0
  1
2
 41
0.9
  7
DAYUS
 72
     4
 11
2.0
 21
2.0
 31
0.0
100
AcDbText
  0
LINE
  5
7CF8
330
7CF2
100
AcDbEntity
  8
AM_5
100
AcDbLine
 10
0.0
 20
4.0
 30
0.0
 11
0.0
 21
0.0
 31
0.0
  0
LINE
  5
7CF9
330
7CF2
100
AcDbEntity
  8
AM_5
100
AcDbLine
 10
4.0
 20
4.0
 30
0.0
 11
4.0
 21
0.0
 31
0.0
  0
ENDBLK
  5
7CFA
330
7CF2
100
AcDbEntity
  8
0
100
AcDbBlockEnd
  0
BLOCK
  5
856A
330
8569
100
AcDbEntity
  8
0
100
AcDbBlockBegin
  2
SW_CENTERMARKSYMBOL_0
 70
     0
 10
0.0
 20
0.0
 30
0.0
  3
SW_CENTERMARKSYMBOL_0
  1

  0
LINE
  5
856B
330
8569
100
AcDbEntity
  8
0
  6
Continuous
 62
     0
370
     0
100
AcDbLine
 10
0.0
 20
0.0
 30
0.0
 11
0.0
 21
2.500000000000002
 31
0.0
  0
LINE
  5
856C
330
8569
100
AcDbEntity
  8
0
  6
Continuous
 62
     0
370
     0
100
AcDbLine
 10
0.0
 20
0.0
 30
0.0
 11
-2.500000000000002
 21
0.0
 31
0.0
  0
LINE
  5
856D
330
8569
100
AcDbEntity
  8
0
  6
Continuous
 62
     0
370
     0
100
AcDbLine
 10
0.0
 20
0.0
 30
0.0
 11
0.0
 21
-2.500000000000002
 31
0.0
  0
LINE
  5
856E
330
8569
100
AcDbEntity
  8
0
  6
Continuous
 62
     0
370
     0
100
AcDbLine
 10
0.0
 20
0.0
 30
0.0
 11
2.500000000000002
 21
0.0
 31
0.0
  0
LINE
  5
856F
330
8569
100
AcDbEntity
  8
0
  6
Continuous
 62
     0
370
     0
100
AcDbLine
 10
0.0
 20
2.500000000000002
 30
0.0
 11
0.0
 21
4.500000000000003
 31
0.0
  0
LINE
  5
8570
330
8569
100
AcDbEntity
  8
0
  6
Continuous
 62
     0
370
     0
100
AcDbLine
 10
-2.500000000000002
 20
0.0
 30
0.0
 11
-4.500000000000003
 21
0.0
 31
0.0
  0
LINE
  5
8571
330
8569
100
AcDbEntity
  8
0
  6
Continuous
 62
     0
370
     0
100
AcDbLine
 10
0.0
 20
-2.500000000000002
 30
0.0
 11
0.0
 21
-4.500000000000003
 31
0.0
  0
LINE
  5
8572
330
8569
100
AcDbEntity
  8
0
  6
Continuous
 62
     0
370
     0
100
AcDbLine
 10
2.500000000000002
 20
0.0
 30
0.0
 11
4.500000000000003
 21
0.0
 31
0.0
  0
ENDBLK
  5
8573
330
8569
100
AcDbEntity
  8
0
100
AcDbBlockEnd
  0
BLOCK
  5
8575
330
8574
100
AcDbEntity
  8
0
100
AcDbBlockBegin
  2
SW_CENTERMARKSYMBOL_1
 70
     0
 10
0.0
 20
0.0
 30
0.0
  3
SW_CENTERMARKSYMBOL_1
  1

  0
LINE
  5
8576
330
8574
100
AcDbEntity
  8
0
  6
Continuous
 62
     0
370
     0
100
AcDbLine
 10
0.0
 20
0.0
 30
0.0
 11
0.0
 21
2.500000000000002
 31
0.0
  0
LINE
  5
8577
330
8574
100
AcDbEntity
  8
0
  6
Continuous
 62
     0
370
     0
100
AcDbLine
 10
0.0
 20
0.0
 30
0.0
 11
-2.500000000000002
 21
0.0
 31
0.0
  0
LINE
  5
8578
330
8574
100
AcDbEntity
  8
0
  6
Continuous
 62
     0
370
     0
100
AcDbLine
 10
0.0
 20
0.0
 30
0.0
 11
0.0
 21
-2.500000000000002
 31
0.0
  0
LINE
  5
8579
330
8574
100
AcDbEntity
  8
0
  6
Continuous
 62
     0
370
     0
100
AcDbLine
 10
0.0
 20
0.0
 30
0.0
 11
2.500000000000002
 21
0.0
 31
0.0
  0
LINE
  5
857A
330
8574
100
AcDbEntity
  8
0
  6
Continuous
 62
     0
370
     0
100
AcDbLine
 10
0.0
 20
5.000000000000004
 30
0.0
 11
0.0
 21
5.500000000000005
 31
0.0
  0
LINE
  5
857B
330
8574
100
AcDbEntity
  8
0
  6
Continuous
 62
     0
370
     0
100
AcDbLine
 10
-5.000000000000004
 20
0.0
 30
0.0
 11
-5.500000000000005
 21
0.0
 31
0.0
  0
LINE
  5
857C
330
8574
100
AcDbEntity
  8
0
  6
Continuous
 62
     0
370
     0
100
AcDbLine
 10
0.0
 20
-5.000000000000004
 30
0.0
 11
0.0
 21
-5.500000000000005
 31
0.0
  0
LINE
  5
857D
330
8574
100
AcDbEntity
  8
0
  6
Continuous
 62
     0
370
     0
100
AcDbLine
 10
5.000000000000004
 20
0.0
 30
0.0
 11
5.500000000000005
 21
0.0
 31
0.0
  0
ENDBLK
  5
857E
330
8574
100
AcDbEntity
  8
0
100
AcDbBlockEnd
  0
BLOCK
  5
A523
330
A517
100
AcDbEntity
  8
0
100
AcDbBlockBegin
  2
*D6
 70
     1
 10
0.0
 20
0.0
 30
0.0
  3
*D6
  1

  0
LINE
  5
B0C9
330
A517
100
AcDbEntity
  8
AM_REFDIM
100
AcDbLine
 10
692.5804189354294
 20
108.8336901451581
 30
0.0
 11
692.5804189354294
 21
98.4430228307154
 31
0.0
  0
LINE
  5
B0CA
330
A517
100
AcDbEntity
  8
AM_REFDIM
100
AcDbLine
 10
702.7804189354298
 20
108.8336901451552
 30
0.0
 11
702.7804189354298
 21
98.4430228307154
 31
0.0
  0
LINE
  5
B0CB
330
A517
100
AcDbEntity
  8
AM_REFDIM
100
AcDbLine
 10
696.1008408255666
 20
99.44885765646887
 30
0.0
 11
699.2599970452926
 21
99.44885765646887
 31
0.0
  0
SOLID
  5
B0CC
330
A517
100
AcDbEntity
  8
AM_REFDIM
100
AcDbTrace
 10
696.1008408255666
 20
100.0355946381584
 30
0.0
 11
696.1008408255666
 21
98.86212067477934
 31
0.0
 12
692.5804189354294
 22
99.44885765646887
 32
0.0
 13
692.5804189354294
 23
99.44885765646887
 33
0.0
  0
SOLID
  5
B0CD
330
A517
100
AcDbEntity
  8
AM_REFDIM
100
AcDbTrace
 10
699.2599970452926
 20
100.0355946381584
 30
0.0
 11
699.2599970452926
 21
98.86212067477934
 31
0.0
 12
702.7804189354298
 22
99.44885765646887
 32
0.0
 13
702.7804189354298
 23
99.44885765646887
 33
0.0
  0
MTEXT
  5
B0CE
330
A517
100
AcDbEntity
  8
AM_REFDIM
100
AcDbMText
 10
697.6804189354295
 20
102.2152499255085
 30
0.0
 40
3.520421890137194
 41
0.0
 71
     5
 72
     1
  1
10.2
 73
     1
 44
1.0
1001
ACAD
1000
MTEXTBEGIN
1070
    73
1070
     1
1070
    44
1040
1.0
1070
    74
1070
     0
1000
MTEXTEND
  0
POINT
  5
B0CF
330
A517
100
AcDbEntity
  8
Defpoints
 62
     0
100
AcDbPoint
 10
692.5804189354294
 20
109.8395249709116
 30
0.0
  0
POINT
  5
B0D0
330
A517
100
AcDbEntity
  8
Defpoints
 62
     0
100
AcDbPoint
 10
702.7804189354298
 20
109.8395249709086
 30
0.0
  0
POINT
  5
B0D1
330
A517
100
AcDbEntity
  8
Defpoints
 62
     0
100
AcDbPoint
 10
702.7804189354298
 20
99.44885765646887
 30
0.0
  0
ENDBLK
  5
A524
330
A517
100
AcDbEntity
  8
0
100
AcDbBlockEnd
  0
BLOCK
  5
A54B
330
A541
100
AcDbEntity
  8
0
100
AcDbBlockBegin
  2
*D7
 70
     1
 10
0.0
 20
0.0
 30
0.0
  3
*D7
  1

  0
LINE
  5
B0C0
330
A541
100
AcDbEntity
  8
AM_REFDIM
100
AcDbLine
 10
689.1804184734934
 20
107.5083735969198
 30
0.0
 11
689.1804184734934
 21
90.76733244494727
 31
0.0
  0
LINE
  5
B0C1
330
A541
100
AcDbEntity
  8
AM_REFDIM
100
AcDbLine
 10
706.1804193973654
 20
107.50837359692
 30
0.0
 11
706.1804193973654
 21
90.76733244494727
 31
0.0
  0
LINE
  5
B0C2
330
A541
100
AcDbEntity
  8
AM_REFDIM
100
AcDbLine
 10
692.7008403636306
 20
91.77316727070076
 30
0.0
 11
702.6599975072282
 21
91.77316727070076
 31
0.0
  0
SOLID
  5
B0C3
330
A541
100
AcDbEntity
  8
AM_REFDIM
100
AcDbTrace
 10
692.7008403636306
 20
92.35990425239029
 30
0.0
 11
692.7008403636306
 21
91.18643028901123
 31
0.0
 12
689.1804184734934
 22
91.77316727070076
 32
0.0
 13
689.1804184734934
 23
91.77316727070076
 33
0.0
  0
SOLID
  5
B0C4
330
A541
100
AcDbEntity
  8
AM_REFDIM
100
AcDbTrace
 10
702.6599975072282
 20
92.35990425239029
 30
0.0
 11
702.6599975072282
 21
91.18643028901123
 31
0.0
 12
706.1804193973654
 22
91.77316727070076
 32
0.0
 13
706.1804193973654
 23
91.77316727070076
 33
0.0
  0
MTEXT
  5
B0C5
330
A541
100
AcDbEntity
  8
AM_REFDIM
100
AcDbMText
 10
697.6804189354294
 20
94.53921304152283
 30
0.0
 40
3.520421890137194
 41
0.0
 71
     5
 72
     1
  1
17
 73
     1
 44
1.0
1001
ACAD
1000
MTEXTBEGIN
1070
    73
1070
     1
1070
    44
1040
1.0
1070
    74
1070
     0
1000
MTEXTEND
  0
POINT
  5
B0C6
330
A541
100
AcDbEntity
  8
Defpoints
 62
     0
100
AcDbPoint
 10
689.1804184734934
 20
108.5142084226732
 30
0.0
  0
POINT
  5
B0C7
330
A541
100
AcDbEntity
  8
Defpoints
 62
     0
100
AcDbPoint
 10
706.1804193973654
 20
108.5142084226735
 30
0.0
  0
POINT
  5
B0C8
330
A541
100
AcDbEntity
  8
Defpoints
 62
     0
100
AcDbPoint
 10
706.1804193973654
 20
91.77316727070076
 30
0.0
  0
ENDBLK
  5
A54C
330
A541
100
AcDbEntity
  8
0
100
AcDbBlockEnd
  0
BLOCK
  5
A589
330
A57F
100
AcDbEntity
  8
0
100
AcDbBlockBegin
  2
*D8
 70
     1
 10
0.0
 20
0.0
 30
0.0
  3
*D8
  1

  0
LINE
  5
AFC0
330
A57F
100
AcDbEntity
  8
AM_REFDIM
100
AcDbLine
 10
731.1574528921901
 20
141.4305046961433
 30
0.0
 11
754.3768484463801
 21
141.4305046961433
 31
0.0
  0
LINE
  5
AFC1
330
A57F
100
AcDbEntity
  8
AM_REFDIM
100
AcDbLine
 10
707.1862542231189
 20
108.5142084226735
 30
0.0
 11
754.3768484463801
 21
108.5142084226735
 31
0.0
  0
LINE
  5
AFC2
330
A57F
100
AcDbEntity
  8
AM_REFDIM
100
AcDbLine
 10
753.3710136206266
 20
137.9100828060061
 30
0.0
 11
753.3710136206266
 21
112.0346303128107
 31
0.0
  0
SOLID
  5
AFC3
330
A57F
100
AcDbEntity
  8
AM_REFDIM
100
AcDbTrace
 10
752.784276638937
 20
137.9100828060061
 30
0.0
 11
753.9577506023162
 21
137.9100828060061
 31
0.0
 12
753.3710136206266
 22
141.4305046961433
 32
0.0
 13
753.3710136206266
 23
141.4305046961433
 33
0.0
  0
SOLID
  5
AFC4
330
A57F
100
AcDbEntity
  8
AM_REFDIM
100
AcDbTrace
 10
752.784276638937
 20
112.0346303128107
 30
0.0
 11
753.9577506023162
 21
112.0346303128107
 31
0.0
 12
753.3710136206266
 22
108.5142084226735
 32
0.0
 13
753.3710136206266
 23
108.5142084226735
 33
0.0
  0
MTEXT
  5
AFC5
330
A57F
100
AcDbEntity
  8
AM_REFDIM
100
AcDbMText
 10
750.6049678498045
 20
124.9723565594084
 30
0.0
 40
3.520421890137194
 41
0.0
 71
     5
 72
     1
  1
33
 11
0.0000000000000001
 21
1.0
 31
0.0
 73
     1
 44
1.0
1001
ACAD
1000
MTEXTBEGIN
1070
    73
1070
     1
1070
    44
1040
1.0
1070
    74
1070
     0
1000
MTEXTEND
  0
POINT
  5
AFC6
330
A57F
100
AcDbEntity
  8
Defpoints
 62
     0
100
AcDbPoint
 10
730.1516180664366
 20
141.4305046961433
 30
0.0
  0
POINT
  5
AFC7
330
A57F
100
AcDbEntity
  8
Defpoints
 62
     0
100
AcDbPoint
 10
706.1804193973654
 20
108.5142084226735
 30
0.0
  0
POINT
  5
AFC8
330
A57F
100
AcDbEntity
  8
Defpoints
 62
     0
100
AcDbPoint
 10
753.3710136206266
 20
108.5142084226735
 30
0.0
  0
ENDBLK
  5
A58A
330
A57F
100
AcDbEntity
  8
0
100
AcDbBlockEnd
  0
BLOCK
  5
A62D
330
A623
100
AcDbEntity
  8
0
100
AcDbBlockBegin
  2
*D9
 70
     1
 10
0.0
 20
0.0
 30
0.0
  3
*D9
  1

  0
LINE
  5
B1C4
330
A623
100
AcDbEntity
  8
AM_REFDIM
100
AcDbLine
 10
780.0715886430518
 20
173.936338001977
 30
0.0
 11
780.0715886430518
 21
180.9008903778216
 31
0.0
  0
LINE
  5
B1C5
330
A623
100
AcDbEntity
  8
AM_REFDIM
100
AcDbLine
 10
827.5715886430521
 20
173.936339521896
 30
0.0
 11
827.5715886430521
 21
180.9008903778216
 31
0.0
  0
LINE
  5
B1C6
330
A623
100
AcDbEntity
  8
AM_REFDIM
100
AcDbLine
 10
783.592010533189
 20
179.8950555520681
 30
0.0
 11
824.0511667529149
 21
179.8950555520681
 31
0.0
  0
SOLID
  5
B1C7
330
A623
100
AcDbEntity
  8
AM_REFDIM
100
AcDbTrace
 10
783.592010533189
 20
180.4817925337576
 30
0.0
 11
783.592010533189
 21
179.3083185703786
 31
0.0
 12
780.0715886430518
 22
179.8950555520681
 32
0.0
 13
780.0715886430518
 23
179.8950555520681
 33
0.0
  0
SOLID
  5
B1C8
330
A623
100
AcDbEntity
  8
AM_REFDIM
100
AcDbTrace
 10
824.0511667529149
 20
180.4817925337576
 30
0.0
 11
824.0511667529149
 21
179.3083185703786
 31
0.0
 12
827.5715886430521
 22
179.8950555520681
 32
0.0
 13
827.5715886430521
 23
179.8950555520681
 33
0.0
  0
MTEXT
  5
B1C9
330
A623
100
AcDbEntity
  8
AM_REFDIM
100
AcDbMText
 10
803.8215886430519
 20
182.6611013228902
 30
0.0
 40
3.520421890137194
 41
0.0
 71
     5
 72
     1
  1
47.5
 73
     1
 44
1.0
1001
ACAD
1000
MTEXTBEGIN
1070
    73
1070
     1
1070
    44
1040
1.0
1070
    74
1070
     0
1000
MTEXTEND
  0
POINT
  5
B1CA
330
A623
100
AcDbEntity
  8
Defpoints
 62
     0
100
AcDbPoint
 10
780.0715886430518
 20
172.9305031762235
 30
0.0
  0
POINT
  5
B1CB
330
A623
100
AcDbEntity
  8
Defpoints
 62
     0
100
AcDbPoint
 10
827.5715886430521
 20
172.9305046961425
 30
0.0
  0
POINT
  5
B1CC
330
A623
100
AcDbEntity
  8
Defpoints
 62
     0
100
AcDbPoint
 10
827.5715886430521
 20
179.8950555520681
 30
0.0
  0
ENDBLK
  5
A62E
330
A623
100
AcDbEntity
  8
0
100
AcDbBlockEnd
  0
BLOCK
  5
A686
330
A67C
100
AcDbEntity
  8
0
100
AcDbBlockBegin
  2
*D10
 70
     1
 10
0.0
 20
0.0
 30
0.0
  3
*D10
  1

  0
LINE
  5
B238
330
A67C
100
AcDbEntity
  8
AM_REFDIM
100
AcDbLine
 10
828.0774234450568
 20
173.430506216061
 30
0.0
 11
836.8335525155224
 21
173.430506216061
 31
0.0
  0
LINE
  5
B239
330
A67C
100
AcDbEntity
  8
AM_REFDIM
100
AcDbLine
 10
828.0774234450573
 20
109.4305031762241
 30
0.0
 11
836.8335525155224
 21
109.4305031762241
 31
0.0
  0
LINE
  5
B23A
330
A67C
100
AcDbEntity
  8
AM_REFDIM
100
AcDbLine
 10
835.8277176897688
 20
169.9100843259238
 30
0.0
 11
835.8277176897688
 21
112.9509250663613
 31
0.0
  0
SOLID
  5
B23B
330
A67C
100
AcDbEntity
  8
AM_REFDIM
100
AcDbTrace
 10
835.2409807080793
 20
169.9100843259238
 30
0.0
 11
836.4144546714584
 21
169.9100843259238
 31
0.0
 12
835.8277176897688
 22
173.430506216061
 32
0.0
 13
835.8277176897688
 23
173.430506216061
 33
0.0
  0
SOLID
  5
B23C
330
A67C
100
AcDbEntity
  8
AM_REFDIM
100
AcDbTrace
 10
835.2409807080793
 20
112.9509250663613
 30
0.0
 11
836.4144546714584
 21
112.9509250663613
 31
0.0
 12
835.8277176897688
 22
109.4305031762241
 32
0.0
 13
835.8277176897688
 23
109.4305031762241
 33
0.0
  0
MTEXT
  5
B23D
330
A67C
100
AcDbEntity
  8
AM_REFDIM
100
AcDbMText
 10
833.0616719189468
 20
141.4305046961426
 30
0.0
 40
3.520421890137194
 41
0.0
 71
     5
 72
     1
  1
%%c64
 11
0.0000000000000001
 21
1.0
 31
0.0
 73
     1
 44
1.0
1001
ACAD
1000
MTEXTBEGIN
1070
    73
1070
     1
1070
    44
1040
1.0
1070
    74
1070
     0
1000
MTEXTEND
  0
POINT
  5
B23E
330
A67C
100
AcDbEntity
  8
Defpoints
 62
     0
100
AcDbPoint
 10
827.0715886193032
 20
173.430506216061
 30
0.0
  0
POINT
  5
B23F
330
A67C
100
AcDbEntity
  8
Defpoints
 62
     0
100
AcDbPoint
 10
827.0715886193039
 20
109.4305031762241
 30
0.0
  0
POINT
  5
B240
330
A67C
100
AcDbEntity
  8
Defpoints
 62
     0
100
AcDbPoint
 10
835.8277176897688
 20
109.4305031762241
 30
0.0
  0
ENDBLK
  5
A687
330
A67C
100
AcDbEntity
  8
0
100
AcDbBlockEnd
  0
BLOCK
  5
A6AC
330
A6A2
100
AcDbEntity
  8
0
100
AcDbBlockBegin
  2
*D11
 70
     1
 10
0.0
 20
0.0
 30
0.0
  3
*D11
  1

  0
LINE
  5
B1FF
330
A6A2
100
AcDbEntity
  8
AM_REFDIM
100
AcDbLine
 10
827.5715886430527
 20
108.9246698703891
 30
0.0
 11
827.5715886430527
 21
99.5289922758014
 31
0.0
  0
LINE
  5
B200
330
A6A2
100
AcDbEntity
  8
AM_REFDIM
100
AcDbLine
 10
795.0715898351456
 20
108.4246683504702
 30
0.0
 11
795.0715898351456
 21
99.5289922758014
 31
0.0
  0
LINE
  5
B201
330
A6A2
100
AcDbEntity
  8
AM_REFDIM
100
AcDbLine
 10
824.0511667529155
 20
100.5348271015549
 30
0.0
 11
798.5920117252828
 21
100.5348271015549
 31
0.0
  0
SOLID
  5
B202
330
A6A2
100
AcDbEntity
  8
AM_REFDIM
100
AcDbTrace
 10
824.0511667529155
 20
101.1215640832444
 30
0.0
 11
824.0511667529155
 21
99.94809011986534
 31
0.0
 12
827.5715886430527
 22
100.5348271015549
 32
0.0
 13
827.5715886430527
 23
100.5348271015549
 33
0.0
  0
SOLID
  5
B203
330
A6A2
100
AcDbEntity
  8
AM_REFDIM
100
AcDbTrace
 10
798.5920117252828
 20
101.1215640832444
 30
0.0
 11
798.5920117252828
 21
99.94809011986534
 31
0.0
 12
795.0715898351456
 22
100.5348271015549
 32
0.0
 13
795.0715898351456
 23
100.5348271015549
 33
0.0
  0
MTEXT
  5
B204
330
A6A2
100
AcDbEntity
  8
AM_REFDIM
100
AcDbMText
 10
811.3215892390991
 20
103.3012193705945
 30
0.0
 40
3.520421890137194
 41
0.0
 71
     5
 72
     1
  1
32
 73
     1
 44
1.0
1001
ACAD
1000
MTEXTBEGIN
1070
    73
1070
     1
1070
    44
1040
1.0
1070
    74
1070
     0
1000
MTEXTEND
  0
POINT
  5
B205
330
A6A2
100
AcDbEntity
  8
Defpoints
 62
     0
100
AcDbPoint
 10
827.5715886430527
 20
109.9305046961426
 30
0.0
  0
POINT
  5
B206
330
A6A2
100
AcDbEntity
  8
Defpoints
 62
     0
100
AcDbPoint
 10
795.0715898351456
 20
109.4305031762237
 30
0.0
  0
POINT
  5
B207
330
A6A2
100
AcDbEntity
  8
Defpoints
 62
     0
100
AcDbPoint
 10
795.0715898351456
 20
100.5348271015549
 30
0.0
  0
ENDBLK
  5
A6AD
330
A6A2
100
AcDbEntity
  8
0
100
AcDbBlockEnd
  0
BLOCK
  5
A731
330
A725
100
AcDbEntity
  8
0
100
AcDbBlockBegin
  2
*D12
 70
     1
 10
0.0
 20
0.0
 30
0.0
  3
*D12
  1

  0
LINE
  5
B22B
330
A725
100
AcDbEntity
  8
AM_REFDIM
100
AcDbLine
 10
779.1715902583381
 20
157.4363376667008
 30
0.0
 11
779.1715902583381
 21
180.9008903778212
 31
0.0
  0
LINE
  5
B22C
330
A725
100
AcDbEntity
  8
AM_REFDIM
100
AcDbLine
 10
780.0715886430518
 20
173.936338001977
 30
0.0
 11
780.0715886430518
 21
180.9008903778212
 31
0.0
  0
LINE
  5
B22D
330
A725
100
AcDbEntity
  8
AM_REFDIM
100
AcDbLine
 10
783.592010533189
 20
179.8950555520677
 30
0.0
 11
787.1124324233262
 21
179.8950555520677
 31
0.0
  0
LINE
  5
B22E
330
A725
100
AcDbEntity
  8
AM_REFDIM
100
AcDbLine
 10
775.6511683682009
 20
179.8950555520677
 30
0.0
 11
769.4149924485292
 21
179.8950555520677
 31
0.0
  0
LINE
  5
B22F
330
A725
100
AcDbEntity
  8
AM_REFDIM
100
AcDbLine
 10
780.0715886430518
 20
179.8950555520677
 30
0.0
 11
779.1715902583381
 21
179.8950555520677
 31
0.0
  0
SOLID
  5
B230
330
A725
100
AcDbEntity
  8
AM_REFDIM
100
AcDbTrace
 10
783.592010533189
 20
180.4817925337572
 30
0.0
 11
783.592010533189
 21
179.3083185703782
 31
0.0
 12
780.0715886430518
 22
179.8950555520677
 32
0.0
 13
780.0715886430518
 23
179.8950555520677
 33
0.0
  0
SOLID
  5
B231
330
A725
100
AcDbEntity
  8
AM_REFDIM
100
AcDbTrace
 10
775.6511683682009
 20
180.4817925337572
 30
0.0
 11
775.6511683682009
 21
179.3083185703782
 31
0.0
 12
779.1715902583381
 22
179.8950555520677
 32
0.0
 13
779.1715902583381
 23
179.8950555520677
 33
0.0
  0
MTEXT
  5
B232
330
A725
100
AcDbEntity
  8
AM_REFDIM
100
AcDbMText
 10
770.7728694632964
 20
182.6611013228898
 30
0.0
 40
3.520421890137194
 41
0.0
 71
     5
 72
     1
  1
1
 73
     1
 44
1.0
1001
ACAD
1000
MTEXTBEGIN
1070
    73
1070
     1
1070
    44
1040
1.0
1070
    74
1070
     0
1000
MTEXTEND
  0
POINT
  5
B233
330
A725
100
AcDbEntity
  8
Defpoints
 62
     0
100
AcDbPoint
 10
779.1715902583381
 20
156.4305028409474
 30
0.0
  0
POINT
  5
B234
330
A725
100
AcDbEntity
  8
Defpoints
 62
     0
100
AcDbPoint
 10
780.0715886430518
 20
172.9305031762235
 30
0.0
  0
POINT
  5
B235
330
A725
100
AcDbEntity
  8
Defpoints
 62
     0
100
AcDbPoint
 10
780.0715886430518
 20
179.8950555520677
 30
0.0
  0
ENDBLK
  5
A732
330
A725
100
AcDbEntity
  8
0
100
AcDbBlockEnd
  0
BLOCK
  5
A788
330
A77C
100
AcDbEntity
  8
0
100
AcDbBlockBegin
  2
*D13
 70
     1
 10
0.0
 20
0.0
 30
0.0
  3
*D13
  1

  0
LINE
  5
B0B5
330
A77C
100
AcDbEntity
  8
AM_REFDIM
100
AcDbLine
 10
698.6862537611828
 20
123.5142081188167
 30
0.0
 11
736.9722186629121
 21
123.5142081188167
 31
0.0
  0
LINE
  5
B0B6
330
A77C
100
AcDbEntity
  8
AM_REFDIM
100
AcDbLine
 10
703.4862539891705
 20
120.0142075137026
 30
0.0
 11
736.9722186629121
 21
120.0142075137026
 31
0.0
  0
LINE
  5
B0B7
330
A77C
100
AcDbEntity
  8
AM_REFDIM
100
AcDbLine
 10
735.9663838371586
 20
116.4937856235654
 30
0.0
 11
735.9663838371586
 21
112.9733637334283
 31
0.0
  0
LINE
  5
B0B8
330
A77C
100
AcDbEntity
  8
AM_REFDIM
100
AcDbLine
 10
735.9663838371586
 20
127.0346300089539
 30
0.0
 11
735.9663838371586
 21
137.6411328460072
 31
0.0
  0
LINE
  5
B0B9
330
A77C
100
AcDbEntity
  8
AM_REFDIM
100
AcDbLine
 10
735.9663838371586
 20
120.0142075137026
 30
0.0
 11
735.9663838371586
 21
123.5142081188167
 31
0.0
  0
SOLID
  5
B0BA
330
A77C
100
AcDbEntity
  8
AM_REFDIM
100
AcDbTrace
 10
735.3796468554691
 20
116.4937856235654
 30
0.0
 11
736.5531208188482
 21
116.4937856235654
 31
0.0
 12
735.9663838371586
 22
120.0142075137026
 32
0.0
 13
735.9663838371586
 23
120.0142075137026
 33
0.0
  0
SOLID
  5
B0BB
330
A77C
100
AcDbEntity
  8
AM_REFDIM
100
AcDbTrace
 10
735.3796468554691
 20
127.0346300089539
 30
0.0
 11
736.5531208188482
 21
127.0346300089539
 31
0.0
 12
735.9663838371586
 22
123.5142081188167
 32
0.0
 13
735.9663838371586
 23
123.5142081188167
 33
0.0
  0
MTEXT
  5
B0BC
330
A77C
100
AcDbEntity
  8
AM_REFDIM
100
AcDbMText
 10
733.2003380663365
 20
134.0980923725493
 30
0.0
 40
3.520421890137194
 41
0.0
 71
     5
 72
     1
  1
3.5
 11
0.0000000000000001
 21
1.0
 31
0.0
 73
     1
 44
1.0
1001
ACAD
1000
MTEXTBEGIN
1070
    73
1070
     1
1070
    44
1040
1.0
1070
    74
1070
     0
1000
MTEXTEND
  0
POINT
  5
B0BD
330
A77C
100
AcDbEntity
  8
Defpoints
 62
     0
100
AcDbPoint
 10
697.6804189354293
 20
123.5142081188167
 30
0.0
  0
POINT
  5
B0BE
330
A77C
100
AcDbEntity
  8
Defpoints
 62
     0
100
AcDbPoint
 10
702.4804191634171
 20
120.0142075137026
 30
0.0
  0
POINT
  5
B0BF
330
A77C
100
AcDbEntity
  8
Defpoints
 62
     0
100
AcDbPoint
 10
735.9663838371586
 20
120.0142075137026
 30
0.0
  0
ENDBLK
  5
A789
330
A77C
100
AcDbEntity
  8
0
100
AcDbBlockEnd
  0
BLOCK
  5
A7B0
330
A7A6
100
AcDbEntity
  8
0
100
AcDbBlockBegin
  2
*D14
 70
     1
 10
0.0
 20
0.0
 30
0.0
  3
*D14
  1

  0
LINE
  5
B080
330
A7A6
100
AcDbEntity
  8
AM_REFDIM
100
AcDbLine
 10
698.6862537611828
 20
123.5142081188167
 30
0.0
 11
745.6899899189614
 21
123.5142081188167
 31
0.0
  0
LINE
  5
B081
330
A7A6
100
AcDbEntity
  8
AM_REFDIM
100
AcDbLine
 10
698.6862537611829
 20
111.5142081188167
 30
0.0
 11
745.6899899189614
 21
111.5142081188167
 31
0.0
  0
LINE
  5
B082
330
A7A6
100
AcDbEntity
  8
AM_REFDIM
100
AcDbLine
 10
744.6841550932078
 20
119.9937862286795
 30
0.0
 11
744.6841550932078
 21
115.0346300089539
 31
0.0
  0
SOLID
  5
B083
330
A7A6
100
AcDbEntity
  8
AM_REFDIM
100
AcDbTrace
 10
744.0974181115183
 20
119.9937862286795
 30
0.0
 11
745.2708920748975
 21
119.9937862286795
 31
0.0
 12
744.6841550932078
 22
123.5142081188167
 32
0.0
 13
744.6841550932078
 23
123.5142081188167
 33
0.0
  0
SOLID
  5
B084
330
A7A6
100
AcDbEntity
  8
AM_REFDIM
100
AcDbTrace
 10
744.0974181115183
 20
115.0346300089539
 30
0.0
 11
745.2708920748975
 21
115.0346300089539
 31
0.0
 12
744.6841550932078
 22
111.5142081188167
 32
0.0
 13
744.6841550932078
 23
111.5142081188167
 33
0.0
  0
MTEXT
  5
B085
330
A7A6
100
AcDbEntity
  8
AM_REFDIM
100
AcDbMText
 10
741.9177628241682
 20
117.5142081188167
 30
0.0
 40
3.520421890137194
 41
0.0
 71
     5
 72
     1
  1
12
 11
0.0000000000000001
 21
1.0
 31
0.0
 73
     1
 44
1.0
1001
ACAD
1000
MTEXTBEGIN
1070
    73
1070
     1
1070
    44
1040
1.0
1070
    74
1070
     0
1000
MTEXTEND
  0
POINT
  5
B086
330
A7A6
100
AcDbEntity
  8
Defpoints
 62
     0
100
AcDbPoint
 10
697.6804189354293
 20
123.5142081188167
 30
0.0
  0
POINT
  5
B087
330
A7A6
100
AcDbEntity
  8
Defpoints
 62
     0
100
AcDbPoint
 10
697.6804189354294
 20
111.5142081188167
 30
0.0
  0
POINT
  5
B088
330
A7A6
100
AcDbEntity
  8
Defpoints
 62
     0
100
AcDbPoint
 10
744.6841550932078
 20
111.5142081188167
 30
0.0
  0
ENDBLK
  5
A7B1
330
A7A6
100
AcDbEntity
  8
0
100
AcDbBlockEnd
  0
BLOCK
  5
A7D8
330
A7CC
100
AcDbEntity
  8
0
100
AcDbBlockBegin
  2
*D15
 70
     1
 10
0.0
 20
0.0
 30
0.0
  3
*D15
  1

  0
LINE
  5
B089
330
A7CC
100
AcDbEntity
  8
AM_REFDIM
100
AcDbLine
 10
698.6862537611829
 20
111.5142081188167
 30
0.0
 11
736.9722186629123
 21
111.5142081188167
 31
0.0
  0
LINE
  5
B08A
330
A7CC
100
AcDbEntity
  8
AM_REFDIM
100
AcDbLine
 10
707.1862542231189
 20
108.5142084226735
 30
0.0
 11
736.9722186629123
 21
108.5142084226735
 31
0.0
  0
LINE
  5
B08B
330
A7CC
100
AcDbEntity
  8
AM_REFDIM
100
AcDbLine
 10
735.9663838371588
 20
115.0346300089539
 30
0.0
 11
735.9663838371588
 21
118.5550518990911
 31
0.0
  0
LINE
  5
B08C
330
A7CC
100
AcDbEntity
  8
AM_REFDIM
100
AcDbLine
 10
735.9663838371588
 20
104.9937865325363
 30
0.0
 11
735.9663838371588
 21
101.4733646423991
 31
0.0
  0
LINE
  5
B08D
330
A7CC
100
AcDbEntity
  8
AM_REFDIM
100
AcDbLine
 10
735.9663838371588
 20
111.5142081188167
 30
0.0
 11
735.9663838371588
 21
108.5142084226735
 31
0.0
  0
SOLID
  5
B08E
330
A7CC
100
AcDbEntity
  8
AM_REFDIM
100
AcDbTrace
 10
735.3796468554691
 20
115.0346300089539
 30
0.0
 11
736.5531208188484
 21
115.0346300089539
 31
0.0
 12
735.9663838371588
 22
111.5142081188167
 32
0.0
 13
735.9663838371588
 23
111.5142081188167
 33
0.0
  0
SOLID
  5
B08F
330
A7CC
100
AcDbEntity
  8
AM_REFDIM
100
AcDbTrace
 10
735.3796468554691
 20
104.9937865325363
 30
0.0
 11
736.5531208188484
 21
104.9937865325363
 31
0.0
 12
735.9663838371588
 22
108.5142084226735
 32
0.0
 13
735.9663838371588
 23
108.5142084226735
 33
0.0
  0
MTEXT
  5
B090
330
A7CC
100
AcDbEntity
  8
AM_REFDIM
100
AcDbMText
 10
733.2003380663366
 20
110.0142082707452
 30
0.0
 40
3.520421890137194
 41
0.0
 71
     5
 72
     1
  1
3
 11
0.0000000000000001
 21
1.0
 31
0.0
 73
     1
 44
1.0
1001
ACAD
1000
MTEXTBEGIN
1070
    73
1070
     1
1070
    44
1040
1.0
1070
    74
1070
     0
1000
MTEXTEND
  0
POINT
  5
B091
330
A7CC
100
AcDbEntity
  8
Defpoints
 62
     0
100
AcDbPoint
 10
697.6804189354294
 20
111.5142081188167
 30
0.0
  0
POINT
  5
B092
330
A7CC
100
AcDbEntity
  8
Defpoints
 62
     0
100
AcDbPoint
 10
706.1804193973654
 20
108.5142084226735
 30
0.0
  0
POINT
  5
B093
330
A7CC
100
AcDbEntity
  8
Defpoints
 62
     0
100
AcDbPoint
 10
735.9663838371588
 20
108.5142084226735
 30
0.0
  0
ENDBLK
  5
A7D9
330
A7CC
100
AcDbEntity
  8
0
100
AcDbBlockEnd
  0
BLOCK
  5
B25B
330
B251
100
AcDbEntity
  8
0
100
AcDbBlockBegin
  2
*D16
 70
     1
 10
0.0
 20
0.0
 30
0.0
  3
*D16
  1

  0
LINE
  5
B287
330
B251
100
AcDbEntity
  8
AM_REFDIM
100
AcDbLine
 10
691.8745838816879
 20
126.5142085791354
 30
0.0
 11
664.7361961307583
 21
126.5142085791355
 31
0.0
  0
LINE
  5
B288
330
B251
100
AcDbEntity
  8
AM_REFDIM
100
AcDbLine
 10
688.1745836477399
 20
108.5142084226732
 30
0.0
 11
664.7361961307583
 21
108.5142084226733
 31
0.0
  0
LINE
  5
B289
330
B251
100
AcDbEntity
  8
AM_REFDIM
100
AcDbLine
 10
665.7420309565118
 20
122.9937866889983
 30
0.0
 11
665.7420309565118
 21
112.0346303128105
 31
0.0
  0
SOLID
  5
B28A
330
B251
100
AcDbEntity
  8
AM_REFDIM
100
AcDbTrace
 10
665.1552939748222
 20
122.9937866889983
 30
0.0
 11
666.3287679382014
 21
122.9937866889983
 31
0.0
 12
665.7420309565118
 22
126.5142085791355
 32
0.0
 13
665.7420309565118
 23
126.5142085791355
 33
0.0
  0
SOLID
  5
B28B
330
B251
100
AcDbEntity
  8
AM_REFDIM
100
AcDbTrace
 10
665.1552939748222
 20
112.0346303128105
 30
0.0
 11
666.3287679382014
 21
112.0346303128105
 31
0.0
 12
665.7420309565118
 22
108.5142084226733
 32
0.0
 13
665.7420309565118
 23
108.5142084226733
 33
0.0
  0
MTEXT
  5
B28C
330
B251
100
AcDbEntity
  8
AM_REFDIM
100
AcDbMText
 10
662.9759851856897
 20
117.5142085009045
 30
0.0
 40
3.520421890137194
 41
0.0
 71
     5
 72
     1
  1
18
 11
0.0000000000000001
 21
1.0
 31
0.0
 73
     1
 44
1.0
1001
ACAD
1000
MTEXTBEGIN
1070
    73
1070
     1
1070
    44
1040
1.0
1070
    74
1070
     0
1000
MTEXTEND
  0
POINT
  5
B28D
330
B251
100
AcDbEntity
  8
Defpoints
 62
     0
100
AcDbPoint
 10
692.8804187074414
 20
126.5142085791354
 30
0.0
  0
POINT
  5
B28E
330
B251
100
AcDbEntity
  8
Defpoints
 62
     0
100
AcDbPoint
 10
689.1804184734934
 20
108.5142084226732
 30
0.0
  0
POINT
  5
B28F
330
B251
100
AcDbEntity
  8
Defpoints
 62
     0
100
AcDbPoint
 10
665.7420309565118
 20
108.5142084226733
 30
0.0
  0
ENDBLK
  5
B25C
330
B251
100
AcDbEntity
  8
0
100
AcDbBlockEnd
  0
ENDSEC
  0
SECTION
  2
ENTITIES
  0
TEXT
  5
1599
330
1F
100
AcDbEntity
  8
LOGO
 62
     7
100
AcDbText
 10
677.5508471005442
 20
62.78247432467615
 30
0.0
 40
2.418849708597284
  1
Order example:
 41
0.8
  7
CHINESET
100
AcDbText
  0
TEXT
  5
159A
330
1F
100
AcDbEntity
  8
LOGO
 62
     7
100
AcDbText
 10
677.9848087413399
 20
66.18771388515845
 30
0.0
 40
3.628274562895926
  1
訂購代號：
  7
CHINESET
100
AcDbText
  0
LINE
  5
159B
330
1F
100
AcDbEntity
  8
LOGO
 62
     4
100
AcDbLine
 10
676.4998486978921
 20
52.58852823838298
 30
0.0
 11
676.4998486978921
 21
70.72990105286274
 31
0.0
  0
TEXT
  5
159C
330
1F
100
AcDbEntity
  8
LOGO
  6
Continuous
100
AcDbText
 10
643.1052911680466
 20
56.15237355006887
 30
0.0
 40
2.721205922171945
  1
金器工業股份有限公司
  7
CHINESET
100
AcDbText
  0
TEXT
  5
159D
330
1F
100
AcDbEntity
  8
LOGO
  6
Continuous
100
AcDbText
 10
638.1069742530593
 20
53.430634484887
 30
0.0
 40
1.814137281447963
  1
MINDMAN INDUSTRIAL CO., LTD.
 41
0.85
  7
CHINESET
100
AcDbText
  0
LINE
  5
159E
330
1F
100
AcDbEntity
  8
LOGO
 62
     4
100
AcDbLine
 10
676.4998486978921
 20
67.10162648996679
 30
0.0
 11
649.8925019033219
 21
67.10162648996679
 31
0.0
  0
LINE
  5
159F
330
1F
100
AcDbEntity
  8
LOGO
 62
     4
100
AcDbLine
 10
676.4998486978921
 20
63.47335192707084
 30
0.0
 11
649.8925019033219
 21
63.47335192707084
 31
0.0
  0
LINE
  5
15A0
330
1F
100
AcDbEntity
  8
LOGO
 62
     4
100
AcDbLine
 10
676.4998486978921
 20
59.84507736417508
 30
0.0
 11
636.5888285060369
 21
59.84507736417508
 31
0.0
  0
LINE
  5
15A1
330
1F
100
AcDbEntity
  8
LOGO
 62
     4
100
AcDbLine
 10
649.8925019033219
 20
59.84507736417508
 30
0.0
 11
649.8925019033219
 21
70.72990105286274
 31
0.0
  0
TEXT
  5
15A2
330
1F
100
AcDbEntity
  8
LOGO
100
AcDbText
 10
668.0773675897709
 20
60.75214600489877
 30
0.0
 40
1.814137281447963
  1
mm
  7
CHINESET
 72
     1
 11
670.3234423191827
 21
61.65921464562275
 31
0.0
100
AcDbText
 73
     2
  0
TEXT
  5
15A3
330
1F
100
AcDbEntity
  8
LOGO
100
AcDbText
 10
667.1271052042506
 20
68.00869513069068
 30
0.0
 40
1.814137281447963
  1
1 : 1
  7
CHINESET
 72
     1
 11
670.3234423191827
 21
68.91576377141466
 31
0.0
100
AcDbText
 73
     2
  0
LINE
  5
15A4
330
1F
100
AcDbEntity
  8
LOGO
 62
     4
100
AcDbLine
 10
664.4056001549057
 20
59.84507736417508
 30
0.0
 11
664.4056001549057
 21
70.72990105286274
 31
0.0
  0
TEXT
  5
15A5
330
1F
100
AcDbEntity
  8
LOGO
100
AcDbText
 10
651.3883552778016
 20
68.00958791478588
 30
118.8955688095171
 40
1.814137281447963
  1
比例 Scale:
 41
0.9
  7
CHINESET
 72
     4
 11
657.1490510291138
 21
68.91576377141466
 31
118.8955688095171
100
AcDbText
  0
TEXT
  5
15A6
330
1F
100
AcDbEntity
  8
LOGO
100
AcDbText
 10
651.2838804075753
 20
64.40593931318254
 30
118.8955688095171
 40
1.814137281447963
  1
投影  View:
 41
0.9
  7
CHINESET
 72
     4
 11
657.1490510291138
 21
65.28748920851871
 31
118.8955688095171
100
AcDbText
  0
TEXT
  5
15A7
330
1F
100
AcDbEntity
  8
LOGO
100
AcDbText
 10
651.4612447221455
 20
60.75214600489877
 30
118.8955688095171
 40
1.814137281447963
  1
單位  Unit:
 41
0.9
  7
CHINESET
 72
     4
 11
657.1490510291138
 21
61.65921464562275
 31
118.8955688095171
100
AcDbText
  0
LWPOLYLINE
  5
15A8
330
1F
100
AcDbEntity
  8
LOGO
 62
     4
100
AcDbPolyline
 90
        4
 70
     1
 43
0.0
 10
636.5888285060369
 20
70.72990105286272
 10
870.6012348676269
 20
70.72990105286274
 10
870.6012348676269
 20
206.8136541750342
 10
636.5888285060369
 20
206.8136541750342
1001
GENIUS_GENREC_14
1002
{
1000
PYDIR
1011
636.5888285060369
1021
206.8136541750342
1031
0.0
1002
}
1002
{
1000
PXDIR
1011
870.6012348676269
1021
70.72990105286274
1031
0.0
1002
}
1002
{
1000
PORI
1011
636.5888285060369
1021
70.72990105286272
1031
0.0
1002
}
1002
{
1000
PINS
1011
636.5888285060369
1021
70.72990105286272
1031
0.0
1002
}
1002
{
1000
PINS2
1011
870.6012348676269
1021
206.8136541750342
1031
0.0
1002
}
1002
{
1000
C
1070
     1
1002
}
1001
GENIUS_GENODEF_13
1002
{
1000
HIER
1070
     0
1002
}
1002
{
1000
MANEDIT
1070
     0
1002
}
1002
{
1000
NOSEL
1070
     0
1002
}
1002
{
1000
BEHIND
1070
     0
1002
}
1002
{
1000
OTHER
1070
     0
1002
}
1002
{
1000
REACTOR
1002
}
1001
GENIUS_GENOBJ-N-REC_13
1002
{
1000
OWNER
1000
GEN
1002
}
  0
SOLID
  5
15A9
330
1F
100
AcDbEntity
  8
LOGO
 62
     5
100
AcDbTrace
 10
638.471025050228
 20
62.860822372474
 30
0.0
 11
639.2554104077638
 21
62.8608223724738
 31
0.0
 12
642.5281906926545
 22
70.29895938358983
 32
0.0
 13
643.3125760501908
 23
70.29895938358944
 33
0.0
  0
SOLID
  5
15AA
330
1F
100
AcDbEntity
  8
LOGO
 62
     5
100
AcDbTrace
 10
639.5799836591589
 20
62.860822372474
 30
0.0
 11
640.3643690166947
 21
62.860822372474
 31
0.0
 12
643.3125760501908
 22
69.70390842270028
 32
0.0
 13
642.5281906926545
 23
66.82782877840215
 33
0.0
  0
SOLID
  5
15AB
330
1F
100
AcDbEntity
  8
LOGO
 62
     2
100
AcDbTrace
 10
639.2554104077638
 20
62.8608223724738
 30
0.0
 11
639.5799836591589
 21
62.860822372474
 31
0.0
 12
643.3125760501908
 22
70.29895938358944
 32
0.0
 13
643.6371493015853
 23
70.29895938358944
 33
0.0
  0
SOLID
  5
15AC
330
1F
100
AcDbEntity
  8
LOGO
 62
     5
100
AcDbTrace
 10
637.2134629672463
 20
60.15604527752303
 30
0.0
 11
637.4839406767416
 21
60.15604527752303
 31
0.0
 12
638.2456269589823
 22
61.5084338249984
 32
0.0
 13
638.5161046684769
 23
61.5084338249984
 33
0.0
  0
SOLID
  5
15AD
330
1F
100
AcDbEntity
  8
LOGO
 62
     5
100
AcDbTrace
 10
638.2456269589823
 20
61.5084338249984
 30
0.0
 11
638.5161046684769
 21
61.5084338249984
 31
0.0
 12
638.2456269589823
 22
60.15604527752303
 32
0.0
 13
638.5161046684769
 23
60.15604527752303
 33
0.0
  0
SOLID
  5
15AE
330
1F
100
AcDbEntity
  8
LOGO
 62
     5
100
AcDbTrace
 10
638.2456269589823
 20
60.15604527752303
 30
0.0
 11
638.5161046684769
 21
60.15604527752303
 31
0.0
 12
639.2777909507188
 22
61.5084338249984
 32
0.0
 13
639.5482686602137
 23
61.5084338249984
 33
0.0
  0
SOLID
  5
15AF
330
1F
100
AcDbEntity
  8
LOGO
 62
     5
100
AcDbTrace
 10
639.2777909507188
 20
61.5084338249984
 30
0.0
 11
639.5482686602137
 21
61.5084338249984
 31
0.0
 12
639.2777909507188
 22
60.15604527752303
 32
0.0
 13
639.5482686602137
 23
60.15604527752303
 33
0.0
  0
POLYLINE
  5
15B0
330
1F
100
AcDbEntity
  8
LOGO
 62
     5
100
AcDb2dPolyline
 66
     1
 10
0.0
 20
0.0
 30
0.0
 40
0.2709111673628958
 41
0.2709111673628958
  0
VERTEX
  5
15B1
330
15B0
100
AcDbEntity
  8
LOGO
 62
     5
100
AcDbVertex
100
AcDb2dVertex
 10
648.3441116336019
 20
60.96747840600823
 30
0.0
 42
1.0
  0
VERTEX
  5
15B2
330
15B0
100
AcDbEntity
  8
LOGO
 62
     5
100
AcDbVertex
100
AcDb2dVertex
 10
647.531378131513
 20
60.96747840600823
 30
0.0
 42
1.0
  0
SEQEND
  5
15B3
330
15B0
100
AcDbEntity
  8
LOGO
 62
     5
  0
POLYLINE
  5
15B4
330
1F
100
AcDbEntity
  8
LOGO
 62
     5
100
AcDb2dPolyline
 66
     1
 10
0.0
 20
0.0
 30
0.0
 70
     1
  0
VERTEX
  5
15B5
330
15B4
100
AcDbEntity
  8
LOGO
 62
     5
100
AcDbVertex
100
AcDb2dVertex
 10
645.9993393296894
 20
60.83223955126051
 30
0.0
 42
1.000000057330635
  0
VERTEX
  5
15B6
330
15B4
100
AcDbEntity
  8
LOGO
 62
     5
100
AcDbVertex
100
AcDb2dVertex
 10
646.8107724581747
 20
60.83223955126051
 30
0.0
 42
1.000000057330635
  0
SEQEND
  5
15B7
330
15B4
100
AcDbEntity
  8
LOGO
 62
     5
  0
CIRCLE
  5
15B8
330
1F
100
AcDbEntity
  8
LOGO
 62
     5
100
AcDbCircle
 10
646.4050558939326
 20
60.83223955126051
 30
0.0
 40
0.4057165642426729
  0
POLYLINE
  5
15B9
330
1F
100
AcDbEntity
  8
LOGO
 62
     5
100
AcDb2dPolyline
 66
     1
 10
0.0
 20
0.0
 30
0.0
 70
     1
 40
0.2709111673628958
 41
0.2709111673628958
  0
VERTEX
  5
15BA
330
15B9
100
AcDbEntity
  8
LOGO
 62
     5
100
AcDbVertex
100
AcDb2dVertex
 10
645.8632335592064
 20
60.83223955126051
 30
0.0
 42
1.0
  0
VERTEX
  5
15BB
330
15B9
100
AcDbEntity
  8
LOGO
 62
     5
100
AcDbVertex
100
AcDb2dVertex
 10
646.9468782286581
 20
60.83223955126051
 30
0.0
 42
1.0
  0
SEQEND
  5
15BC
330
15B9
100
AcDbEntity
  8
LOGO
 62
     5
  0
LINE
  5
15BD
330
1F
100
AcDbEntity
  8
LOGO
100
AcDbLine
 10
648.4787003015473
 20
60.15604527752303
 30
0.0
 11
648.4787003015473
 21
60.96747840600823
 31
0.0
  0
SOLID
  5
15BE
330
1F
100
AcDbEntity
  8
LOGO
 62
     5
100
AcDbTrace
 10
646.8107454104049
 20
61.5084338249984
 30
0.0
 11
647.0812231198995
 21
61.5084338249984
 31
0.0
 12
646.8107454104049
 22
60.15604527752303
 32
0.0
 13
647.0812231198995
 23
60.15604527752303
 33
0.0
  0
SOLID
  5
15BF
330
1F
100
AcDbEntity
  8
LOGO
 62
     5
100
AcDbTrace
 10
647.3967894635669
 20
60.15604527752303
 30
0.0
 11
647.6672671730621
 21
60.15604527752303
 31
0.0
 12
647.3967894635669
 22
61.5084338249984
 32
0.0
 13
647.6672671730621
 23
61.5084338249984
 33
0.0
  0
SOLID
  5
15C0
330
1F
100
AcDbEntity
  8
LOGO
 62
     5
100
AcDbTrace
 10
648.2082225920527
 20
60.96747840600823
 30
0.0
 11
648.4787003015473
 21
60.96747840600823
 31
0.0
 12
648.2082225920527
 22
60.15604527752303
 32
0.0
 13
648.4787003015473
 23
60.15604527752303
 33
0.0
  0
SOLID
  5
15C1
330
1F
100
AcDbEntity
  8
LOGO
 62
     5
100
AcDbTrace
 10
647.3697416926174
 20
69.70390842270028
 30
0.0
 11
646.585356335082
 21
66.82782877840215
 31
0.0
 12
647.3697416926174
 22
62.8608223724738
 32
0.0
 13
646.585356335082
 23
62.8608223724738
 33
0.0
  0
SOLID
  5
15C2
330
1F
100
AcDbEntity
  8
LOGO
 62
     5
100
AcDbTrace
 10
647.6943149440119
 20
62.8608223724738
 30
0.0
 11
648.4787003015473
 21
62.8608223724738
 31
0.0
 12
647.6943149440119
 22
70.29895938358944
 32
0.0
 13
648.4787003015473
 23
70.29895938358983
 33
0.0
  0
SOLID
  5
15C3
330
1F
100
AcDbEntity
  8
LOGO
 62
     2
100
AcDbTrace
 10
647.3697416926174
 20
70.29895938358983
 30
0.0
 11
647.6943149440119
 21
70.29895938358944
 31
0.0
 12
647.3697416926174
 22
62.8608223724738
 32
0.0
 13
647.6943149440119
 23
62.8608223724738
 33
0.0
  0
POLYLINE
  5
15C4
330
1F
100
AcDbEntity
  8
LOGO
 62
     5
100
AcDb2dPolyline
 66
     1
 10
0.0
 20
0.0
 30
0.0
 40
0.2709111673628958
 41
0.2709111673628958
  0
VERTEX
  5
15C5
330
15C4
100
AcDbEntity
  8
LOGO
 62
     5
100
AcDbVertex
100
AcDb2dVertex
 10
644.4672464323247
 20
60.96747840600823
 30
0.0
 42
1.0
  0
VERTEX
  5
15C6
330
15C4
100
AcDbEntity
  8
LOGO
 62
     5
100
AcDbVertex
100
AcDb2dVertex
 10
643.6545129302359
 20
60.96747840600823
 30
0.0
 42
1.0
  0
SEQEND
  5
15C7
330
15C4
100
AcDbEntity
  8
LOGO
 62
     5
  0
POLYLINE
  5
15C8
330
1F
100
AcDbEntity
  8
LOGO
 62
     5
100
AcDb2dPolyline
 66
     1
 10
0.0
 20
0.0
 30
0.0
 40
0.2709111673628958
 41
0.2709111673628958
  0
VERTEX
  5
15C9
330
15C8
100
AcDbEntity
  8
LOGO
 62
     5
100
AcDbVertex
100
AcDb2dVertex
 10
645.2786795608093
 20
60.96747840600823
 30
0.0
 42
1.0
  0
VERTEX
  5
15CA
330
15C8
100
AcDbEntity
  8
LOGO
 62
     5
100
AcDbVertex
100
AcDb2dVertex
 10
644.4659460587209
 20
60.96747840600823
 30
0.0
 42
1.0
  0
SEQEND
  5
15CB
330
15C8
100
AcDbEntity
  8
LOGO
 62
     5
  0
POLYLINE
  5
15CC
330
1F
100
AcDbEntity
  8
LOGO
 62
     5
100
AcDb2dPolyline
 66
     1
 10
0.0
 20
0.0
 30
0.0
 40
0.2709111673628958
 41
0.2709111673628958
  0
VERTEX
  5
15CD
330
15CC
100
AcDbEntity
  8
LOGO
 62
     5
100
AcDbVertex
100
AcDb2dVertex
 10
641.401814359532
 20
60.96747840600823
 30
0.0
 42
1.0
  0
VERTEX
  5
15CE
330
15CC
100
AcDbEntity
  8
LOGO
 62
     5
100
AcDbVertex
100
AcDb2dVertex
 10
640.5890808574436
 20
60.96747840600823
 30
0.0
 42
1.0
  0
SEQEND
  5
15CF
330
15CC
100
AcDbEntity
  8
LOGO
 62
     5
  0
SOLID
  5
15D0
330
1F
100
AcDbEntity
  8
LOGO
 62
     5
100
AcDbTrace
 10
640.4544921894979
 20
61.5084338249984
 30
0.0
 11
640.7249698989926
 21
61.5084338249984
 31
0.0
 12
640.4544921894979
 22
60.15604527752303
 32
0.0
 13
640.7249698989926
 23
60.15604527752303
 33
0.0
  0
SOLID
  5
15D1
330
1F
100
AcDbEntity
  8
LOGO
 62
     5
100
AcDbTrace
 10
641.2659253179832
 20
60.96747840600823
 30
0.0
 11
641.5364030274787
 21
60.96747840600823
 31
0.0
 12
641.2659253179832
 22
60.15604527752303
 32
0.0
 13
641.5364030274787
 23
60.15604527752303
 33
0.0
  0
POLYLINE
  5
15D2
330
1F
100
AcDbEntity
  8
LOGO
 62
     5
100
AcDb2dPolyline
 66
     1
 10
0.0
 20
0.0
 30
0.0
 70
     1
 40
0.2709111673628958
 41
0.2709111673628958
  0
VERTEX
  5
15D3
330
15D2
100
AcDbEntity
  8
LOGO
 62
     5
100
AcDbVertex
100
AcDb2dVertex
 10
641.9863683579288
 20
60.83223955126051
 30
0.0
 42
1.0
  0
VERTEX
  5
15D4
330
15D2
100
AcDbEntity
  8
LOGO
 62
     5
100
AcDbVertex
100
AcDb2dVertex
 10
643.0700130273806
 20
60.83223955126051
 30
0.0
 42
1.0
  0
SEQEND
  5
15D5
330
15D2
100
AcDbEntity
  8
LOGO
 62
     5
  0
SOLID
  5
15D6
330
1F
100
AcDbEntity
  8
LOGO
 62
     5
100
AcDbTrace
 10
642.9338802091267
 20
61.91415038924132
 30
0.0
 11
643.2043579186219
 21
61.91415038924132
 31
0.0
 12
642.9338802091267
 22
60.15604527752303
 32
0.0
 13
643.2043579186219
 23
60.15604527752303
 33
0.0
  0
SOLID
  5
15D7
330
1F
100
AcDbEntity
  8
LOGO
 62
     5
100
AcDbTrace
 10
643.5199242622904
 20
61.5084338249984
 30
0.0
 11
643.7904019717851
 21
61.5084338249984
 31
0.0
 12
643.5199242622904
 22
60.15604527752303
 32
0.0
 13
643.7904019717851
 23
60.15604527752303
 33
0.0
  0
SOLID
  5
15D8
330
1F
100
AcDbEntity
  8
LOGO
 62
     5
100
AcDbTrace
 10
644.3313573907752
 20
60.96747840600823
 30
0.0
 11
644.6018351002704
 21
60.96747840600823
 31
0.0
 12
644.3313573907752
 22
60.15604527752303
 32
0.0
 13
644.6018351002704
 23
60.15604527752303
 33
0.0
  0
SOLID
  5
15D9
330
1F
100
AcDbEntity
  8
LOGO
 62
     5
100
AcDbTrace
 10
645.1427905192605
 20
60.96747840600823
 30
0.0
 11
645.4132682287554
 21
60.96747840600823
 31
0.0
 12
645.1427905192605
 22
60.15604527752262
 32
0.0
 13
645.4132682287554
 23
60.15604527752262
 33
0.0
  0
SOLID
  5
15DA
330
1F
100
AcDbEntity
  8
LOGO
 62
     5
100
AcDbTrace
 10
639.8684481363346
 20
61.69776822164507
 30
0.0
 11
640.1389258458305
 21
61.69776822164507
 31
0.0
 12
639.8684481363346
 22
61.91415038924132
 32
0.0
 13
640.1389258458305
 23
61.91415038924132
 33
0.0
  0
SOLID
  5
15DB
330
1F
100
AcDbEntity
  8
LOGO
 62
     5
100
AcDbTrace
 10
639.8684481363346
 20
61.5084338249984
 30
0.0
 11
640.1389258458305
 21
61.5084338249984
 31
0.0
 12
639.8684481363346
 22
60.15604527752262
 32
0.0
 13
640.1389258458305
 23
60.15604527752303
 33
0.0
  0
SOLID
  5
15DC
330
1F
100
AcDbEntity
  8
LOGO
 62
     5
100
AcDbTrace
 10
642.5281906926545
 20
62.860822372474
 30
0.0
 11
643.3125760501908
 21
62.860822372474
 31
0.0
 12
642.5281906926545
 22
66.82782877840215
 32
0.0
 13
643.3125760501908
 23
69.70390842270028
 33
0.0
  0
SOLID
  5
15DD
330
1F
100
AcDbEntity
  8
LOGO
 62
     5
100
AcDbTrace
 10
643.6371493015853
 20
70.29895938358944
 30
0.0
 11
644.4215346591208
 21
70.29895938358983
 31
0.0
 12
643.6371493015853
 22
63.45587333336315
 32
0.0
 13
644.4215346591208
 23
66.33195297766127
 33
0.0
  0
SOLID
  5
15DE
330
1F
100
AcDbEntity
  8
LOGO
 62
     2
100
AcDbTrace
 10
643.3125760501908
 20
70.29895938358944
 30
0.0
 11
643.6371493015853
 21
70.29895938358944
 31
0.0
 12
643.3125760501908
 22
62.860822372474
 32
0.0
 13
643.6371493015853
 23
62.860822372474
 33
0.0
  0
SOLID
  5
15DF
330
1F
100
AcDbEntity
  8
LOGO
 62
     5
100
AcDbTrace
 10
643.6371493015853
 20
63.45587333336315
 30
0.0
 11
644.4215346591208
 21
66.33195297766127
 31
0.0
 12
647.3697416926174
 22
70.29895938358983
 32
0.0
 13
646.585356335082
 23
70.29895938358983
 33
0.0
  0
SOLID
  5
15E0
330
1F
100
AcDbEntity
  8
LOGO
 62
     5
100
AcDbTrace
 10
643.6371493015853
 20
62.860822372474
 30
0.0
 11
644.4215346591208
 21
62.860822372474
 31
0.0
 12
647.3697416926174
 22
69.70390842270028
 32
0.0
 13
646.585356335082
 23
66.82782877840215
 33
0.0
  0
SOLID
  5
15E1
330
1F
100
AcDbEntity
  8
LOGO
 62
     2
100
AcDbTrace
 10
643.3125760501908
 20
62.860822372474
 30
0.0
 11
643.6371493015853
 21
62.860822372474
 31
0.0
 12
647.3697416926174
 22
70.29895938358983
 32
0.0
 13
647.6943149440119
 23
70.29895938358944
 33
0.0
  0
LWPOLYLINE
  5
15E2
330
1F
100
AcDbEntity
  8
LOGO
 62
     4
100
AcDbPolyline
 90
        4
 70
     1
 43
0.0
 10
636.5888285060369
 20
70.72990105286272
 10
870.6012348676269
 20
70.72990105286274
 10
870.6012348676269
 20
52.58852823838278
 10
636.5888285060369
 20
52.58852823838278
1001
GENIUS_GENREC_14
1002
{
1000
PYDIR
1011
636.5888285060369
1021
52.58852823838278
1031
0.0
1002
}
1002
{
1000
PXDIR
1011
870.6012348676269
1021
70.72990105286274
1031
0.0
1002
}
1002
{
1000
PORI
1011
636.5888285060369
1021
70.72990105286272
1031
0.0
1002
}
1002
{
1000
PINS
1011
636.5888285060369
1021
70.72990105286272
1031
0.0
1002
}
1002
{
1000
PINS2
1011
870.6012348676269
1021
52.58852823838278
1031
0.0
1002
}
1002
{
1000
C
1070
     1
1002
}
1001
GENIUS_GENOBJ-N-REC_13
1002
{
1000
OWNER
1000
GEN
1002
}
1001
GENIUS_GENODEF_13
1002
{
1000
HIER
1070
     0
1002
}
1002
{
1000
MANEDIT
1070
     0
1002
}
1002
{
1000
NOSEL
1070
     0
1002
}
1002
{
1000
BEHIND
1070
     0
1002
}
1002
{
1000
OTHER
1070
     0
1002
}
1002
{
1000
REACTOR
1002
}
  0
LINE
  5
15E3
330
1F
100
AcDbEntity
  8
LOGO
 62
     4
100
AcDbLine
 10
715.4511554885109
 20
60.75214600489913
 30
0.0
 11
715.4511554885109
 21
54.10030930625625
 31
0.0
  0
LINE
  5
15E4
330
1F
100
AcDbEntity
  8
LOGO
 62
     4
100
AcDbLine
 10
707.3929572546352
 20
60.75214600489913
 30
0.0
 11
707.3929572546352
 21
54.10030930625625
 31
0.0
  0
LINE
  5
15E5
330
1F
100
AcDbEntity
  8
LOGO
 62
     4
100
AcDbLine
 10
715.4511554885109
 20
54.10030930625625
 30
0.0
 11
707.3929572546352
 21
54.10030930625625
 31
0.0
  0
LINE
  5
15E6
330
1F
100
AcDbEntity
  8
LOGO
 62
     4
100
AcDbLine
 10
721.3828202580931
 20
68.91576377141466
 30
0.0
 11
701.4525018492096
 21
68.91576377141466
 31
0.0
  0
LINE
  5
15E7
330
1F
100
AcDbEntity
  8
LOGO
 62
     4
100
AcDbLine
 10
721.3828202580931
 20
63.47335192707084
 30
0.0
 11
701.4525018492096
 21
63.47335192707084
 31
0.0
  0
LINE
  5
15E8
330
1F
100
AcDbEntity
  8
LOGO
 62
     4
100
AcDbLine
 10
701.4525018492096
 20
68.91576377141466
 30
0.0
 11
701.4525018492096
 21
63.47335192707084
 31
0.0
  0
LINE
  5
15E9
330
1F
100
AcDbEntity
  8
LOGO
 62
     4
100
AcDbLine
 10
721.3828202580931
 20
68.91576377141466
 30
0.0
 11
721.3828202580931
 21
63.47335192707084
 31
0.0
  0
LINE
  5
15EA
330
1F
100
AcDbEntity
  8
LOGO
 62
     4
100
AcDbLine
 10
711.4532696930701
 20
63.47335192707084
 30
0.0
 11
711.4532696930701
 21
60.75214600489913
 31
0.0
  0
TEXT
  5
15EB
330
1F
100
AcDbEntity
  8
LOGO
  6
Continuous
100
AcDbText
 10
704.1443497343086
 20
64.60944744277231
 30
0.0
 40
3.175199999999999
  1
MCHGH
  7
CHINESET
100
AcDbText
  0
LINE
  5
15EC
330
1F
100
AcDbEntity
  8
LOGO
 62
     4
100
AcDbLine
 10
715.4511554885109
 20
60.75214600489913
 30
0.0
 11
707.3929572546352
 21
60.75214600489913
 31
0.0
  0
TEXT
  5
15ED
330
1F
100
AcDbEntity
  8
LOGO
  6
Continuous
100
AcDbText
 10
709.4760853747201
 20
55.03920195072228
 30
118.8955688095171
 40
1.360799999999999
  1
Model
 41
0.8
  7
CHINESET
100
AcDbText
  0
TEXT
  5
15EE
330
1F
100
AcDbEntity
  8
LOGO
100
AcDbText
 10
709.1138846516074
 20
57.56183187739079
 30
118.8955688095171
 40
2.267999999999999
  1
型號
  7
CHINESET
100
AcDbText
  0
TEXT
  5
15F0
330
1F
100
AcDbEntity
  8
LOGO
100
AcDbText
 10
677.3404017862631
 20
53.55364211182844
 30
0.0
 40
1.814399999999999
  1
01206190
 41
0.7
  7
CHINESET
 72
     1
 11
681.7554417862631
 21
53.55364211182844
 31
0.0
100
AcDbText
  0
LINE
  5
15F1
330
1F
100
AcDbEntity
  8
LOGO
 62
     4
100
AcDbLine
 10
687.3862486978914
 20
56.21680280127935
 30
0.0
 11
687.3862486978922
 21
52.58852823838319
 31
0.0
  0
LINE
  5
15F2
330
1F
100
AcDbEntity
  8
LOGO
 62
     4
100
AcDbLine
 10
687.3862486978914
 20
56.21680280127935
 30
0.0
 11
676.4998486978921
 21
56.21680280127935
 31
0.0
  0
CIRCLE
  5
15F3
330
1F
100
AcDbEntity
  8
LOGO
  6
Continuous
100
AcDbCircle
 10
667.7647022402107
 20
65.29136966143941
 30
0.0
 40
1.053330805586876
  0
CIRCLE
  5
15F4
330
1F
100
AcDbEntity
  8
LOGO
  6
Continuous
100
AcDbCircle
 10
667.7647022402107
 20
65.29136966143941
 30
0.0
 40
0.6171586059734297
  0
LINE
  5
15F5
330
1F
100
AcDbEntity
  8
LOGO
100
AcDbLine
 10
674.3839552458568
 20
64.23803885585233
 30
0.0
 11
674.3839552458568
 21
66.34470046702649
 31
0.0
  0
LINE
  5
15F6
330
1F
100
AcDbEntity
  8
LOGO
100
AcDbLine
 10
671.0818236344152
 20
64.67421105546609
 30
0.0
 11
671.0818236344152
 21
65.90852826741294
 31
0.0
  0
LINE
  5
15F7
330
1F
100
AcDbEntity
  8
LOGO
  6
Continuous
100
AcDbLine
 10
671.0818236344152
 20
65.90852826741294
 30
0.0
 11
674.3839552458568
 21
66.34470046702649
 31
0.0
  0
LINE
  5
15F8
330
1F
100
AcDbEntity
  8
LOGO
  6
Continuous
100
AcDbLine
 10
671.0818236344152
 20
64.67421105546609
 30
0.0
 11
674.3839552458568
 21
64.23803885585233
 31
0.0
  0
LINE
  5
15F9
330
1F
100
AcDbEntity
  8
LOGO
  6
AM_ISO08W050x2
 48
0.3
100
AcDbLine
 10
666.3126699523225
 20
65.29136966143941
 30
0.0
 11
669.216734528099
 21
65.29136966143941
 31
0.0
1001
GENIUS_GENOREF_13
1005
16B6
  0
LINE
  5
15FA
330
1F
100
AcDbEntity
  8
LOGO
  6
AM_ISO08W050x2
 48
0.3
100
AcDbLine
 10
667.7647022402107
 20
63.83933737355108
 30
0.0
 11
667.7647022402107
 21
66.74340194932773
 31
0.0
1001
GENIUS_GENOREF_13
1005
16B5
  0
LINE
  5
15FB
330
1F
100
AcDbEntity
  8
LOGO
  6
CENTER
 48
0.5
100
AcDbLine
 10
670.8177448878185
 20
65.29136966143941
 30
0.0
 11
674.7164692095777
 21
65.29136966143941
 31
0.0
1001
GENIUS_GENOREF_13
1005
16B4
  0
POINT
  5
16B4
330
1F
100
AcDbEntity
  8
0
 60
     1
100
AcDbPoint
 10
-1930.92695728958
 20
-494.9154325062304
 30
0.0
1001
GENIUS_GENOBJ-N-CRS_13
1002
{
1000
OWNER
1000
GEN
1002
}
1001
GENIUS_GENOLIS_13
1002
{
1000
ENT
1005
0
1005
0
1005
0
1005
15FB
1002
}
1001
GENIUS_GENOENT_13
1002
{
1000
MYREF
1005
16B4
1002
}
1002
{
1000
GRP
1005
0
1002
}
1001
GENIUS_GENODEF_13
1002
{
1000
HIER
1070
    10
1002
}
1002
{
1000
MANEDIT
1070
     1
1002
}
1002
{
1000
NOSEL
1070
     0
1002
}
1002
{
1000
BEHIND
1070
     0
1002
}
1002
{
1000
OTHER
1070
     0
1002
}
1002
{
1000
REACTOR
1002
}
  0
POINT
  5
16B5
330
1F
100
AcDbEntity
  8
0
 60
     1
100
AcDbPoint
 10
-1942.251542512434
 20
-486.0398460275941
 30
0.0
1001
GENIUS_GENOBJ-N-CRS_13
1002
{
1000
OWNER
1000
GEN
1002
}
1001
GENIUS_GENOLIS_13
1002
{
1000
ENT
1005
0
1005
0
1005
0
1005
15FA
1002
}
1001
GENIUS_GENOENT_13
1002
{
1000
MYREF
1005
16B5
1002
}
1002
{
1000
GRP
1005
0
1002
}
1001
GENIUS_GENODEF_13
1002
{
1000
HIER
1070
    10
1002
}
1002
{
1000
MANEDIT
1070
     1
1002
}
1002
{
1000
NOSEL
1070
     0
1002
}
1002
{
1000
BEHIND
1070
     0
1002
}
1002
{
1000
OTHER
1070
     0
1002
}
1002
{
1000
REACTOR
1002
}
  0
POINT
  5
16B6
330
1F
100
AcDbEntity
  8
0
 60
     1
100
AcDbPoint
 10
-1935.892868814597
 20
-494.9154325062304
 30
0.0
1001
GENIUS_GENOBJ-N-CRS_13
1002
{
1000
OWNER
1000
GEN
1002
}
1001
GENIUS_GENOLIS_13
1002
{
1000
ENT
1005
0
1005
0
1005
0
1005
15F9
1002
}
1001
GENIUS_GENOENT_13
1002
{
1000
MYREF
1005
16B6
1002
}
1002
{
1000
GRP
1005
0
1002
}
1001
GENIUS_GENODEF_13
1002
{
1000
HIER
1070
    10
1002
}
1002
{
1000
MANEDIT
1070
     1
1002
}
1002
{
1000
NOSEL
1070
     0
1002
}
1002
{
1000
BEHIND
1070
     0
1002
}
1002
{
1000
OTHER
1070
     0
1002
}
1002
{
1000
REACTOR
1002
}
  0
MTEXT
  5
7BA1
330
1F
100
AcDbEntity
  8
AM_VIS
100
AcDbMText
 10
315.4333775501655
 20
376.163241097652
 30
0.0
 40
3.5
 41
0.0
 71
     9
 72
     1
  1

 73
     1
 44
1.0
1001
ACAD
1000
MTEXTBEGIN
1070
    73
1070
     1
1070
    44
1040
1.0
1070
    74
1070
     0
1000
MTEXTEND
  0
LINE
  5
99DA
102
{ACAD_REACTORS
330
A58C
102
}
330
1F
100
AcDbEntity
  8
AM_7
100
AcDbLine
 10
665.2092198044213
 20
141.4305046961434
 30
0.0
 11
730.1516180664366
 21
141.4305046961433
 31
0.0
  0
LINE
  5
99DB
330
1F
100
AcDbEntity
  8
AM_7
100
AcDbLine
 10
697.680418935429
 20
173.9017038271509
 30
0.0
 11
697.680418935429
 21
108.9593055651356
 31
0.0
  0
LINE
  5
9C94
330
1F
100
AcDbEntity
  8
LOGO
  6
Continuous
 62
     7
100
AcDbLine
 10
722.8738312205401
 20
66.14483014632994
 30
0.0
 11
725.3037036005033
 21
66.14483014632994
 31
0.0
  0
LINE
  5
9C95
330
1F
100
AcDbEntity
  8
LOGO
 62
     4
100
AcDbLine
 10
737.6466800300999
 20
60.66143914082673
 30
0.0
 11
737.6466800300999
 21
53.93569314553246
 31
0.0
  0
LINE
  5
9C96
330
1F
100
AcDbEntity
  8
LOGO
 62
     4
100
AcDbLine
 10
723.6723576991389
 20
60.66143914082673
 30
0.0
 11
723.6723576991389
 21
53.93569314553246
 31
0.0
  0
LINE
  5
9C97
330
1F
100
AcDbEntity
  8
LOGO
 62
     4
100
AcDbLine
 10
737.6466800300999
 20
53.93569314553246
 30
0.0
 11
723.6723576991389
 21
53.93569314553246
 31
0.0
  0
LINE
  5
9C98
330
1F
100
AcDbEntity
  8
LOGO
 62
     4
100
AcDbLine
 10
734.1864683705595
 20
68.91576377141466
 30
0.0
 11
726.8567135520127
 21
68.91576377141466
 31
0.0
  0
LINE
  5
9C99
330
1F
100
AcDbEntity
  8
LOGO
 62
     4
100
AcDbLine
 10
734.1864683705595
 20
63.41288068435591
 30
0.0
 11
726.8567135520127
 21
63.41288068435591
 31
0.0
  0
LINE
  5
9C9A
330
1F
100
AcDbEntity
  8
LOGO
 62
     4
100
AcDbLine
 10
726.8567135520127
 20
68.91576377141466
 30
0.0
 11
726.8567135520127
 21
63.41288068435591
 31
0.0
  0
LINE
  5
9C9B
330
1F
100
AcDbEntity
  8
LOGO
 62
     4
100
AcDbLine
 10
734.1864683705595
 20
68.91576377141466
 30
0.0
 11
734.1864683705595
 21
63.41288068435591
 31
0.0
  0
LINE
  5
9C9C
330
1F
100
AcDbEntity
  8
LOGO
 62
     4
100
AcDbLine
 10
730.2223281165738
 20
63.41288068435591
 30
0.0
 11
730.2223281165738
 21
60.66143914082673
 31
0.0
  0
LINE
  5
9C9E
330
1F
100
AcDbEntity
  8
LOGO
 62
     4
100
AcDbLine
 10
737.6466800300999
 20
60.66143914082673
 30
0.0
 11
723.6723576991389
 21
60.66143914082673
 31
0.0
  0
TEXT
  5
9C9F
330
1F
100
AcDbEntity
  8
LOGO
  6
Continuous
100
AcDbText
 10
724.880402226304
 20
54.88501793049257
 30
120.2166306851784
 40
1.37592
  1
Body diameter
 41
0.8
  7
CHINESET
100
AcDbText
  0
TEXT
  5
9CA0
330
1F
100
AcDbEntity
  8
LOGO
100
AcDbText
 10
725.9934257408375
 20
57.43567707856829
 30
120.2166306851784
 40
2.2932
  1
本體寬度
  7
CHINESET
100
AcDbText
  0
TEXT
  5
9CA2
330
1F
100
AcDbEntity
  8
LOGO
  6
Continuous
 62
     7
100
AcDbText
 10
728.2292050661806
 20
64.56159948356539
 30
0.0
 40
3.210479999999999
  1
64
  7
CHINESET
100
AcDbText
  0
DIMENSION
  5
A516
330
1F
100
AcDbEntity
  8
AM_REFDIM
100
AcDbDimension
  2
*D6
 10
702.7804189354298
 20
99.44885765646887
 30
0.0
 11
697.6804189354295
 21
99.44885765646887
 31
0.0
 70
   160
 71
     5
 42
10.20000000000038
  3
AM_ISO$0
100
AcDbAlignedDimension
 13
692.5804189354294
 23
109.8395249709116
 33
0.0
 14
702.7804189354298
 24
109.8395249709086
 34
0.0
100
AcDbRotatedDimension
1001
ACAD
1000
DSTYLE
1002
{
1070
    40
1040
1.005834825753484
1002
}
  0
DIMENSION
  5
A540
330
1F
100
AcDbEntity
  8
AM_REFDIM
100
AcDbDimension
  2
*D7
 10
706.1804193973654
 20
91.77316727070076
 30
0.0
 11
697.6804189354294
 21
91.77316727070076
 31
0.0
 70
   160
 71
     5
 42
17.00000092387199
  3
AM_ISO$0
100
AcDbAlignedDimension
 13
689.1804184734934
 23
108.5142084226732
 33
0.0
 14
706.1804193973654
 24
108.5142084226735
 34
0.0
100
AcDbRotatedDimension
1001
ACAD
1000
DSTYLE
1002
{
1070
    40
1040
1.005834825753484
1002
}
  0
DIMENSION
  5
A57E
102
{ACAD_XDICTIONARY
360
A58B
102
}
102
{ACAD_REACTORS
330
A58C
102
}
330
1F
100
AcDbEntity
  8
AM_REFDIM
100
AcDbDimension
  2
*D8
 10
753.3710136206266
 20
108.5142084226735
 30
0.0
 11
753.3710136206266
 21
124.9723565594084
 31
0.0
 70
   160
 71
     5
 42
32.9162962734698
  3
AM_ISO$0
100
AcDbAlignedDimension
 13
730.1516180664366
 23
141.4305046961433
 33
0.0
 14
706.1804193973654
 24
108.5142084226735
 34
0.0
 50
89.9999999999998
100
AcDbRotatedDimension
1001
ACAD
1000
DSTYLE
1002
{
1070
    40
1040
1.005834825753484
1070
   271
1070
     0
1002
}
  0
DIMENSION
  5
A622
330
1F
100
AcDbEntity
  8
AM_REFDIM
100
AcDbDimension
  2
*D9
 10
827.5715886430521
 20
179.8950555520681
 30
0.0
 11
803.8215886430519
 21
182.6611013228902
 31
0.0
 70
    32
 71
     5
 42
47.50000000000023
  3
AM_ISO$0
100
AcDbAlignedDimension
 13
780.0715886430518
 23
172.9305031762235
 33
0.0
 14
827.5715886430521
 24
172.9305046961425
 34
0.0
100
AcDbRotatedDimension
1001
ACAD
1000
DSTYLE
1002
{
1070
    40
1040
1.005834825753484
1002
}
  0
DIMENSION
  5
A67B
330
1F
100
AcDbEntity
  8
AM_REFDIM
100
AcDbDimension
  2
*D10
 10
835.8277176897688
 20
109.4305031762241
 30
0.0
 11
835.8277176897688
 21
141.4305046961426
 31
0.0
 70
   160
  1
%%c<>
 71
     5
 42
64.00000303983687
  3
AM_ISO$0
100
AcDbAlignedDimension
 13
827.0715886193032
 23
173.430506216061
 33
0.0
 14
827.0715886193039
 24
109.4305031762241
 34
0.0
 50
90.0
100
AcDbRotatedDimension
1001
ACAD
1000
DSTYLE
1002
{
1070
    40
1040
1.005834825753484
1002
}
  0
DIMENSION
  5
A6A1
330
1F
100
AcDbEntity
  8
AM_REFDIM
100
AcDbDimension
  2
*D11
 10
795.0715898351456
 20
100.5348271015549
 30
0.0
 11
811.3215892390991
 21
100.5348271015549
 31
0.0
 70
   160
 71
     5
 42
32.4999988079071
  3
AM_ISO$0
100
AcDbAlignedDimension
 13
827.5715886430527
 23
109.9305046961426
 33
0.0
 14
795.0715898351456
 24
109.4305031762237
 34
0.0
100
AcDbRotatedDimension
1001
ACAD
1000
DSTYLE
1002
{
1070
    40
1040
1.005834825753484
1070
   271
1070
     0
1002
}
  0
DIMENSION
  5
A724
330
1F
100
AcDbEntity
  8
AM_REFDIM
100
AcDbDimension
  2
*D12
 10
780.0715886430518
 20
179.8950555520677
 30
0.0
 11
770.7728694632964
 21
179.8950555520677
 31
0.0
 70
   160
 71
     5
 42
0.89999838471374
  3
AM_ISO$0
100
AcDbAlignedDimension
 13
779.1715902583381
 23
156.4305028409474
 33
0.0
 14
780.0715886430518
 24
172.9305031762235
 34
0.0
100
AcDbRotatedDimension
1001
ACAD
1000
DSTYLE
1002
{
1070
    40
1040
1.005834825753484
1070
   271
1070
     0
1002
}
  0
DIMENSION
  5
A77B
330
1F
100
AcDbEntity
  8
AM_REFDIM
100
AcDbDimension
  2
*D13
 10
735.9663838371586
 20
120.0142075137026
 30
0.0
 11
735.9663838371586
 21
134.0980923725493
 31
0.0
 70
   160
 71
     5
 42
3.500000605114095
  3
AM_ISO$0
100
AcDbAlignedDimension
 13
697.6804189354293
 23
123.5142081188167
 33
0.0
 14
702.4804191634171
 24
120.0142075137026
 34
0.0
 50
90.0
100
AcDbRotatedDimension
1001
ACAD
1000
DSTYLE
1002
{
1070
    40
1040
1.005834825753484
1002
}
  0
DIMENSION
  5
A7A5
330
1F
100
AcDbEntity
  8
AM_REFDIM
100
AcDbDimension
  2
*D14
 10
744.6841550932078
 20
111.5142081188167
 30
0.0
 11
744.6841550932078
 21
117.5142081188167
 31
0.0
 70
   160
 71
     5
 42
12.0
  3
AM_ISO$0
100
AcDbAlignedDimension
 13
697.6804189354293
 23
123.5142081188167
 33
0.0
 14
697.6804189354294
 24
111.5142081188167
 34
0.0
 50
90.0
100
AcDbRotatedDimension
1001
ACAD
1000
DSTYLE
1002
{
1070
    40
1040
1.005834825753484
1002
}
  0
DIMENSION
  5
A7CB
330
1F
100
AcDbEntity
  8
AM_REFDIM
100
AcDbDimension
  2
*D15
 10
735.9663838371588
 20
108.5142084226735
 30
0.0
 11
735.9663838371588
 21
110.0142082707452
 31
0.0
 70
   160
 71
     5
 42
2.999999696143262
  3
AM_ISO$0
100
AcDbAlignedDimension
 13
697.6804189354294
 23
111.5142081188167
 33
0.0
 14
706.1804193973654
 24
108.5142084226735
 34
0.0
 50
90.0
100
AcDbRotatedDimension
1001
ACAD
1000
DSTYLE
1002
{
1070
    40
1040
1.005834825753484
1002
}
  0
LEADER
  5
A889
330
1F
100
AcDbEntity
  8
AM_REFDIM
100
AcDbLeader
  3
AM_ISO$7
 76
     3
 10
725.0386917585788
 20
156.6933245726226
 30
0.0
 10
728.922939570521
 20
163.9908890698157
 30
0.0
 10
759.1392251911789
 20
163.9908890698157
 30
0.0
1001
ACAD
1000
DSTYLE
1002
{
1070
   147
1040
1.0
1070
    77
1070
     1
1070
    43
1040
12.0
1070
   271
1070
     1
1070
   272
1070
     8
1002
}
  0
MTEXT
  5
A88C
330
1F
100
AcDbEntity
  8
AM_REFDIM
100
AcDbMText
 10
729.7396828910405
 20
167.7150559029869
 30
0.0
 40
3.0
 41
33.65203381816716
 71
     1
 72
     5
  1
3X2-M3X0.5 DP8
 73
     1
 44
1.0
1001
ACAD
1000
MTEXTBEGIN
1070
    73
1070
     1
1070
    44
1040
1.0
1070
    74
1070
     0
1000
MTEXTEND
  0
LEADER
  5
A890
330
1F
100
AcDbEntity
  8
AM_REFDIM
100
AcDbLeader
  3
AM_ISO$7
 76
     3
 10
698.9023111174057
 20
171.894136059725
 30
0.0
 10
704.6682389658933
 20
179.4683730662225
 30
0.0
 10
742.1181857665884
 20
179.4683730662225
 30
0.0
1001
ACAD
1000
DSTYLE
1002
{
1070
   147
1040
1.0
1070
    77
1070
     1
1070
    43
1040
12.0
1070
   271
1070
     1
1070
   272
1070
     8
1002
}
  0
MTEXT
  5
A895
330
1F
100
AcDbEntity
  8
AM_REFDIM
100
AcDbMText
 10
706.5965776736799
 20
183.7329624540279
 30
0.0
 40
3.0
 41
38.59614173293908
 71
     1
 72
     5
  1
3-%%C4.5 thru\P%%C8 C/B DP6 P.C.D 56
 73
     1
 44
1.0
1001
ACAD
1000
MTEXTBEGIN
1070
    73
1070
     1
1070
    44
1040
1.0
1070
    74
1070
     0
1000
MTEXTEND
  0
SPLINE
  5
ABEB
330
1F
100
AcDbEntity
  8
0
  6
Continuous
 62
     7
370
    15
100
AcDbSpline
210
0.0
220
0.0
230
1.0
 70
    24
 71
     1
 72
     4
 73
     2
 74
     0
 42
0.0000000001
 43
0.0000000001
 40
0.0
 40
0.0
 40
1.0
 40
1.0
 10
827.4612137484767
 20
161.4793018267273
 30
0.0
 10
780.1823019270957
 20
161.4793018267267
 30
0.0
  0
SPLINE
  5
ABEC
330
1F
100
AcDbEntity
  8
0
  6
Continuous
 62
     7
370
    15
100
AcDbSpline
210
0.0
220
0.0
230
1.0
 70
    24
 71
     1
 72
     4
 73
     2
 74
     0
 42
0.0000000001
 43
0.0000000001
 40
0.0
 40
0.0
 40
1.0
 40
1.0
 10
780.0814463572288
 20
121.3817075655572
 30
0.0
 10
827.4617292719023
 20
121.3817075655579
 30
0.0
  0
SPLINE
  5
ABED
330
1F
100
AcDbEntity
  8
0
  6
Continuous
 62
     7
370
    15
100
AcDbSpline
210
0.0
220
0.0
230
1.0
 70
    24
 71
     1
 72
     4
 73
     2
 74
     0
 42
0.0000000001
 43
0.0000000001
 40
0.0
 40
0.0
 40
1.0
 40
1.0
 10
779.1715902583383
 20
126.4305035114996
 30
0.0
 10
780.0715875463271
 20
126.4305035114997
 30
0.0
  0
SPLINE
  5
ABEE
330
1F
100
AcDbEntity
  8
0
  6
Continuous
 62
     7
370
    15
100
AcDbSpline
210
0.0
220
0.0
230
1.0
 70
    24
 71
     1
 72
     4
 73
     2
 74
     0
 42
0.0000000001
 43
0.0000000001
 40
0.0
 40
0.0
 40
1.0
 40
1.0
 10
780.0715875463268
 20
156.4305028409474
 30
0.0
 10
779.1715902583381
 20
156.4305028409474
 30
0.0
  0
SPLINE
  5
ABEF
330
1F
100
AcDbEntity
  8
0
  6
Continuous
 62
     7
370
    15
100
AcDbSpline
210
0.0
220
0.0
230
1.0
 70
    24
 71
     1
 72
     4
 73
     2
 74
     0
 42
0.0000000001
 43
0.0000000001
 40
0.0
 40
0.0
 40
1.0
 40
1.0
 10
780.4363002633804
 20
110.5968468651884
 30
0.0
 10
827.2053681886001
 20
110.596846865189
 30
0.0
  0
SPLINE
  5
ABF0
330
1F
100
AcDbEntity
  8
0
  6
Continuous
 62
     7
370
    15
100
AcDbSpline
210
0.0
220
0.0
230
1.0
 70
    24
 71
     1
 72
     4
 73
     2
 74
     0
 42
0.0000000001
 43
0.0000000001
 40
0.0
 40
0.0
 40
1.0
 40
1.0
 10
827.2046610819346
 20
172.2641625270962
 30
0.0
 10
780.42746737301
 20
172.2641625270956
 30
0.0
  0
ARC
  5
ABF1
330
1F
100
AcDbEntity
  8
0
  6
Continuous
 62
     7
370
    15
100
AcDbCircle
 10
827.0715886430526
 20
109.9305046961426
 30
0.0
 40
0.5000000000000142
100
AcDbArc
 50
270.0
 51
0.0000000000016284
  0
ARC
  5
ABF2
330
1F
100
AcDbEntity
  8
0
  6
Continuous
 62
     7
370
    15
100
AcDbCircle
 10
827.0715886430519
 20
172.9305046961425
 30
0.0
 40
0.5000000000000569
100
AcDbArc
 50
0.0000000000016284
 51
90.0
  0
ARC
  5
ABF3
330
1F
100
AcDbEntity
  8
0
  6
Continuous
 62
     7
370
    15
100
AcDbCircle
 10
780.5715886430529
 20
109.9305031762235
 30
0.0
 40
0.5
100
AcDbArc
 50
180.0000000000008
 51
270.0
  0
ARC
  5
ABF4
330
1F
100
AcDbEntity
  8
0
  6
Continuous
 62
     7
370
    15
100
AcDbCircle
 10
780.571588643052
 20
172.9305031762235
 30
0.0
 40
0.5000000000000569
100
AcDbArc
 50
90.0
 51
180.0000000000008
  0
SPLINE
  5
ABF5
330
1F
100
AcDbEntity
  8
0
  6
Continuous
 62
     7
370
    15
100
AcDbSpline
210
0.0
220
0.0
230
1.0
 70
    24
 71
     1
 72
     4
 73
     2
 74
     0
 42
0.0000000001
 43
0.0000000001
 40
0.0021459227440341
 40
0.0021459227440341
 40
1.0
 40
1.0
 10
780.5715885596063
 20
109.4305031762235
 30
0.0
 10
827.0715886193039
 20
109.4305031762241
 30
0.0
  0
SPLINE
  5
ABF6
330
1F
100
AcDbEntity
  8
0
  6
Continuous
 62
     7
370
    15
100
AcDbSpline
210
0.0
220
0.0
230
1.0
 70
    24
 71
     1
 72
     4
 73
     2
 74
     0
 42
0.0000000001
 43
0.0000000001
 40
0.0
 40
0.0
 40
1.0
 40
1.0
 10
827.0715886193032
 20
173.430506216061
 30
0.0
 10
780.5715885596055
 20
173.4305031762235
 30
0.0
  0
LINE
  5
ABF7
330
1F
100
AcDbEntity
  8
0
  6
Continuous
 62
     7
370
    15
100
AcDbLine
 10
795.0715898351451
 20
149.4305050761218
 30
0.0
 11
794.5715888218662
 21
149.9305051580781
 31
0.0
  0
LINE
  5
ABF8
330
1F
100
AcDbEntity
  8
0
  6
Continuous
 62
     7
370
    15
100
AcDbLine
 10
795.0715898351453
 20
133.4305043161625
 30
0.0
 11
795.0715898351451
 21
149.4305050761218
 31
0.0
  0
LINE
  5
ABF9
330
1F
100
AcDbEntity
  8
0
  6
Continuous
 62
     7
370
    15
100
AcDbLine
 10
794.5715888218662
 20
149.9305051580781
 30
0.0
 11
794.5715888218663
 21
132.9305042342062
 31
0.0
  0
LINE
  5
ABFA
330
1F
100
AcDbEntity
  8
0
  6
Continuous
 62
     7
370
    15
100
AcDbLine
 10
795.0715898351453
 20
133.4305043161625
 30
0.0
 11
794.5715888218663
 21
132.9305042342062
 31
0.0
  0
LINE
  5
ABFB
330
1F
100
AcDbEntity
  8
0
  6
Continuous
 62
     7
370
    15
100
AcDbLine
 10
780.2715872065806
 20
136.4305032879822
 30
0.0
 11
780.2715872065804
 21
146.4305030644648
 31
0.0
  0
LINE
  5
ABFC
330
1F
100
AcDbEntity
  8
0
  6
Continuous
 62
     7
370
    15
100
AcDbLine
 10
780.071587546327
 20
136.6305029482358
 30
0.0
 11
780.0715875463269
 21
146.2305034042113
 31
0.0
  0
LINE
  5
ABFD
330
1F
100
AcDbEntity
  8
0
  6
Continuous
 62
     7
370
    15
100
AcDbLine
 10
780.071587546327
 20
136.6305029482358
 30
0.0
 11
780.2715872065806
 21
136.4305032879822
 31
0.0
  0
LINE
  5
ABFE
330
1F
100
AcDbEntity
  8
0
  6
Continuous
 62
     7
370
    15
100
AcDbLine
 10
780.2715872065804
 20
146.4305030644648
 30
0.0
 11
780.0715875463269
 21
146.2305034042113
 31
0.0
  0
LINE
  5
ABFF
330
1F
100
AcDbEntity
  8
0
  6
Continuous
 62
     7
370
    15
100
AcDbLine
 10
785.9059042112609
 20
146.4305045843833
 30
0.0
 11
786.4715895430824
 21
145.8648192525619
 31
0.0
  0
LINE
  5
AC00
330
1F
100
AcDbEntity
  8
0
  6
Continuous
 62
     7
370
    15
100
AcDbLine
 10
787.0372748749038
 20
146.4305045843833
 30
0.0
 11
786.4715895430824
 21
145.8648192525619
 31
0.0
  0
LINE
  5
AC01
330
1F
100
AcDbEntity
  8
0
  6
Continuous
 62
     7
370
    15
100
AcDbLine
 10
787.0372748749038
 20
146.4305045843833
 30
0.0
 11
786.4715895430824
 21
146.9961899162048
 31
0.0
  0
LINE
  5
AC02
330
1F
100
AcDbEntity
  8
0
  6
Continuous
 62
     7
370
    15
100
AcDbLine
 10
786.4715895430824
 20
136.9961901397222
 30
0.0
 11
787.037274874904
 21
136.4305048079007
 31
0.0
  0
LINE
  5
AC03
330
1F
100
AcDbEntity
  8
0
  6
Continuous
 62
     7
370
    15
100
AcDbLine
 10
780.2715872065808
 20
136.4305048079007
 30
0.0
 11
785.9059042112611
 21
136.4305048079007
 31
0.0
  0
LINE
  5
AC04
330
1F
100
AcDbEntity
  8
0
  6
Continuous
 62
     7
370
    15
100
AcDbLine
 10
786.4715895430824
 20
136.9961901397222
 30
0.0
 11
785.9059042112611
 21
136.4305048079007
 31
0.0
  0
LINE
  5
AC05
330
1F
100
AcDbEntity
  8
0
  6
Continuous
 62
     7
370
    15
100
AcDbLine
 10
786.4715895430824
 20
149.4305050761217
 30
0.0
 11
786.4715895430824
 21
146.9961899162048
 31
0.0
  0
LINE
  5
AC06
330
1F
100
AcDbEntity
  8
0
  6
Continuous
 62
     7
370
    15
100
AcDbLine
 10
785.9059042112609
 20
146.4305045843833
 30
0.0
 11
780.2715872065804
 21
146.4305045843832
 31
0.0
  0
LINE
  5
AC07
330
1F
100
AcDbEntity
  8
0
  6
Continuous
 62
     7
370
    15
100
AcDbLine
 10
786.971586831071
 20
149.930505158078
 30
0.0
 11
786.4715895430824
 21
149.4305050761217
 31
0.0
  0
LINE
  5
AC08
330
1F
100
AcDbEntity
  8
0
  6
Continuous
 62
     7
370
    15
100
AcDbLine
 10
786.9715868310712
 20
132.930504234206
 30
0.0
 11
786.4715895430825
 21
133.4305043161624
 31
0.0
  0
LINE
  5
AC09
330
1F
100
AcDbEntity
  8
0
  6
Continuous
 62
     7
370
    15
100
AcDbLine
 10
794.5715888218663
 20
132.9305042342062
 30
0.0
 11
786.9715868310712
 21
132.930504234206
 31
0.0
  0
LINE
  5
AC0A
330
1F
100
AcDbEntity
  8
0
  6
Continuous
 62
     7
370
    15
100
AcDbLine
 10
794.5715888218662
 20
149.9305051580781
 30
0.0
 11
786.971586831071
 21
149.930505158078
 31
0.0
  0
LINE
  5
AC0B
330
1F
100
AcDbEntity
  8
0
  6
Continuous
 62
     7
370
    15
100
AcDbLine
 10
787.037274874904
 20
136.4305048079007
 30
0.0
 11
786.4715895430825
 21
135.8648194760793
 31
0.0
  0
LINE
  5
AC0C
330
1F
100
AcDbEntity
  8
0
  6
Continuous
 62
     7
370
    15
100
AcDbLine
 10
786.4715895430825
 20
135.8648194760793
 30
0.0
 11
786.4715895430825
 21
133.4305043161624
 31
0.0
  0
SPLINE
  5
AC0D
330
1F
100
AcDbEntity
  8
0
  6
Continuous
 62
     7
370
    15
100
AcDbSpline
210
0.0
220
0.0
230
1.0
 70
     8
 71
     3
 72
    13
 73
     9
 74
     0
 42
0.0000000001
 43
0.0000000001
 40
0.0
 40
0.0
 40
0.0
 40
0.0
 40
0.1096327480593612
 40
0.22961017784424
 40
0.3602028680063042
 40
0.5016203511870719
 40
0.7073677741968324
 40
1.0
 40
1.0
 40
1.0
 40
1.0
 10
827.4617292693438
 20
121.3817076325657
 30
0.0
 10
827.4498506153239
 20
121.3823047938136
 30
0.0
 10
827.4249724661361
 20
121.3835554630049
 30
0.0
 10
827.3818971372904
 20
121.3936220386189
 30
0.0
 10
827.3326845547234
 20
121.4106111106461
 30
0.0
 10
827.2699834256263
 20
121.4393734773078
 30
0.0
 10
827.1823073371704
 20
121.4883175929713
 30
0.0
 10
827.112548657608
 20
121.540669776788
 30
0.0
 10
827.0715886430526
 20
121.5714092664771
 30
0.0
  0
LINE
  5
AC0E
330
1F
100
AcDbEntity
  8
0
  6
Continuous
 62
     7
370
    15
100
AcDbLine
 10
827.0715886193032
 20
161.2896007315039
 30
0.0
 11
827.0715886193039
 21
121.5714086607813
 31
0.0
  0
SPLINE
  5
AC0F
330
1F
100
AcDbEntity
  8
0
  6
Continuous
 62
     7
370
    15
100
AcDbSpline
210
0.0
220
0.0
230
1.0
 70
     8
 71
     3
 72
    15
 73
    11
 74
     0
 42
0.0000000001
 43
0.0000000001
 40
0.0
 40
0.0
 40
0.0
 40
0.0
 40
0.1028762751766543
 40
0.1861615173440722
 40
0.249854955723359
 40
0.4987870128280337
 40
0.631861626864953
 40
0.7494265254153511
 40
0.8789225421491954
 40
1.0
 40
1.0
 40
1.0
 40
1.0
 10
827.0715886430519
 20
161.2896001258081
 30
0.0
 10
827.0946559467759
 20
161.3073007891206
 30
0.0
 10
827.136397779428
 20
161.3393313261379
 30
0.0
 10
827.1920194425369
 20
161.3760693432245
 30
0.0
 10
827.2790929408825
 20
161.4279494679613
 30
0.0
 10
827.3737135668936
 20
161.469780242015
 30
0.0
 10
827.4651852562564
 20
161.4828635073746
 30
0.0
 10
827.5226924614038
 20
161.471232709276
 30
0.0
 10
827.5632834203275
 20
161.4370015430353
 30
0.0
 10
827.5688829448643
 20
161.3910806942426
 30
0.0
 10
827.571588643052
 20
161.3688916750601
 30
0.0
  0
SPLINE
  5
AC10
330
1F
100
AcDbEntity
  8
0
  6
Continuous
 62
     7
370
    15
100
AcDbSpline
210
0.0
220
0.0
230
1.0
 70
    24
 71
     3
 72
    10
 73
     6
 74
     0
 42
0.0000000001
 43
0.0000000001
 40
0.0
 40
0.0
 40
0.0
 40
0.0
 40
0.5
 40
0.5
 40
1.0
 40
1.0
 40
1.0
 40
1.0
 10
827.5715886430527
 20
121.4921177172251
 30
0.0
 10
827.5715886430525
 20
127.1183904042407
 30
0.0
 10
827.5715886430525
 20
134.1631150508956
 30
0.0
 10
827.5715886430521
 20
148.6978943413898
 30
0.0
 10
827.5715886430521
 20
155.7426189880446
 30
0.0
 10
827.571588643052
 20
161.3688916750603
 30
0.0
  0
SPLINE
  5
AC11
330
1F
100
AcDbEntity
  8
0
  6
Continuous
 62
     7
370
    15
100
AcDbSpline
210
0.0
220
0.0
230
1.0
 70
     8
 71
     3
 72
     8
 73
     4
 74
     0
 42
0.0000000001
 43
0.0000000001
 40
0.0
 40
0.0
 40
0.0
 40
0.0
 40
1.0
 40
1.0
 40
1.0
 40
1.0
 10
827.5715886430527
 20
121.4921177172251
 30
0.0
 10
827.5715886430527
 20
121.4159987361365
 30
0.0
 10
827.5256779723983
 20
121.3817076325657
 30
0.0
 10
827.4617292693438
 20
121.3817076325657
 30
0.0
  0
LINE
  5
AC12
330
1F
100
AcDbEntity
  8
0
  6
Continuous
 62
     7
370
    15
100
AcDbLine
 10
786.4715895430824
 20
149.930505158078
 30
0.0
 11
786.971586831071
 21
149.930505158078
 31
0.0
  0
LINE
  5
AC13
330
1F
100
AcDbEntity
  8
0
  6
Continuous
 62
     7
370
    15
100
AcDbLine
 10
786.4715895430824
 20
149.4305050761217
 30
0.0
 11
786.4715895430824
 21
149.930505158078
 31
0.0
  0
LINE
  5
AC14
330
1F
100
AcDbEntity
  8
0
  6
Continuous
 62
     7
370
    15
100
AcDbLine
 10
786.4715895430824
 20
146.7305045404249
 30
0.0
 11
786.4715895430824
 21
146.9961899162048
 31
0.0
  0
LINE
  5
AC15
330
1F
100
AcDbEntity
  8
0
  6
Continuous
 62
     7
370
    15
100
AcDbLine
 10
786.2715898828288
 20
146.5305048801714
 30
0.0
 11
786.4715895430824
 21
146.7305045404249
 31
0.0
  0
LINE
  5
AC16
330
1F
100
AcDbEntity
  8
0
  6
Continuous
 62
     7
370
    15
100
AcDbLine
 10
780.4715885596057
 20
146.5305048801713
 30
0.0
 11
786.2715898828288
 21
146.5305048801714
 31
0.0
  0
LINE
  5
AC17
330
1F
100
AcDbEntity
  8
0
  6
Continuous
 62
     7
370
    15
100
AcDbLine
 10
780.5715885596058
 20
146.5305033602529
 30
0.0
 11
780.5715885596056
 21
161.2895992115848
 31
0.0
  0
LINE
  5
AC18
330
1F
100
AcDbEntity
  8
0
  6
Continuous
 62
     7
370
    15
100
AcDbLine
 10
827.0715886193032
 20
161.2896007315039
 30
0.0
 11
780.5715886430522
 21
161.289598605889
 31
0.0
  0
LINE
  5
AC19
330
1F
100
AcDbEntity
  8
0
  6
Continuous
 62
     7
370
    15
100
AcDbLine
 10
780.5715885596062
 20
121.5714086607807
 30
0.0
 11
827.0715886193039
 21
121.5714086607813
 31
0.0
  0
LINE
  5
AC1A
330
1F
100
AcDbEntity
  8
0
  6
Continuous
 62
     7
370
    15
100
AcDbLine
 10
780.5715885596062
 20
121.5714071408622
 30
0.0
 11
780.571588559606
 21
136.3305029921942
 31
0.0
  0
LINE
  5
AC1B
330
1F
100
AcDbEntity
  8
0
  6
Continuous
 62
     7
370
    15
100
AcDbLine
 10
786.271589882829
 20
136.3305045121127
 30
0.0
 11
780.4715885596059
 21
136.3305045121126
 31
0.0
  0
LINE
  5
AC1C
330
1F
100
AcDbEntity
  8
0
  6
Continuous
 62
     7
370
    15
100
AcDbLine
 10
786.4715895430825
 20
136.1305048518592
 30
0.0
 11
786.271589882829
 21
136.3305045121127
 31
0.0
  0
LINE
  5
AC1D
330
1F
100
AcDbEntity
  8
0
  6
Continuous
 62
     7
370
    15
100
AcDbLine
 10
786.4715895430825
 20
135.8648194760793
 30
0.0
 11
786.4715895430825
 21
136.1305048518592
 31
0.0
  0
LINE
  5
AC1E
330
1F
100
AcDbEntity
  8
0
  6
Continuous
 62
     7
370
    15
100
AcDbLine
 10
786.4715895430825
 20
132.930504234206
 30
0.0
 11
786.4715895430825
 21
133.4305043161624
 31
0.0
  0
LINE
  5
AC1F
330
1F
100
AcDbEntity
  8
0
  6
Continuous
 62
     7
370
    15
100
AcDbLine
 10
786.9715868310712
 20
132.930504234206
 30
0.0
 11
786.4715895430825
 21
132.930504234206
 31
0.0
  0
LINE
  5
AC20
330
1F
100
AcDbEntity
  8
0
  6
Continuous
 62
     7
370
    15
100
AcDbLine
 10
795.0715898351453
 20
132.9305042342062
 30
0.0
 11
794.5715888218663
 21
132.9305042342062
 31
0.0
  0
LINE
  5
AC21
330
1F
100
AcDbEntity
  8
0
  6
Continuous
 62
     7
370
    15
100
AcDbLine
 10
795.0715898351453
 20
133.4305043161625
 30
0.0
 11
795.0715898351453
 21
132.9305042342062
 31
0.0
  0
LINE
  5
AC22
330
1F
100
AcDbEntity
  8
0
  6
Continuous
 62
     7
370
    15
100
AcDbLine
 10
795.0715898351451
 20
149.9305051580781
 30
0.0
 11
795.0715898351451
 21
149.4305050761218
 31
0.0
  0
LINE
  5
AC23
330
1F
100
AcDbEntity
  8
0
  6
Continuous
 62
     7
370
    15
100
AcDbLine
 10
794.5715888218662
 20
149.9305051580781
 30
0.0
 11
795.0715898351451
 21
149.9305051580781
 31
0.0
  0
SPLINE
  5
AC24
330
1F
100
AcDbEntity
  8
0
  6
Continuous
 62
     7
370
    15
100
AcDbSpline
210
0.0
220
0.0
230
1.0
 70
     8
 71
     3
 72
    10
 73
     6
 74
     0
 42
0.0000000001
 43
0.0000000001
 40
0.0
 40
0.0
 40
0.0
 40
0.0
 40
0.5
 40
0.5
 40
1.0
 40
1.0
 40
1.0
 40
1.0
 10
780.1814480167613
 20
121.3817061126466
 30
0.0
 10
780.149457430865
 20
121.3817061126466
 30
0.0
 10
780.1220389479937
 20
121.3896157754768
 30
0.0
 10
780.0828607646545
 20
121.4257505335913
 30
0.0
 10
780.0715886430528
 20
121.4539769024507
 30
0.0
 10
780.0715886430528
 20
121.492116197306
 30
0.0
  0
SPLINE
  5
AC25
330
1F
100
AcDbEntity
  8
0
  6
Continuous
 62
     7
370
    15
100
AcDbSpline
210
0.0
220
0.0
230
1.0
 70
    24
 71
     3
 72
     8
 73
     4
 74
     0
 42
0.0000000001
 43
0.0000000001
 40
0.0
 40
0.0
 40
0.0
 40
0.0
 40
1.0
 40
1.0
 40
1.0
 40
1.0
 10
780.0715886430525
 20
136.1305031762235
 30
0.0
 10
780.0715886430526
 20
130.7567032814348
 30
0.0
 10
780.0715886430526
 20
125.7125765097669
 30
0.0
 10
780.0715886430528
 20
121.492116197306
 30
0.0
  0
SPLINE
  5
AC26
330
1F
100
AcDbEntity
  8
0
  6
Continuous
 62
     7
370
    15
100
AcDbSpline
210
0.0
220
0.0
230
1.0
 70
    24
 71
     3
 72
    10
 73
     6
 74
     0
 42
0.0000000001
 43
0.0000000001
 40
0.0
 40
0.0
 40
0.0
 40
0.0
 40
0.5
 40
0.5
 40
1.0
 40
1.0
 40
1.0
 40
1.0
 10
780.2715886430519
 20
136.3305031762229
 30
0.0
 10
780.2176231483714
 20
136.2765376815425
 30
0.0
 10
780.1699444158341
 20
136.2288589490051
 30
0.0
 10
780.0960409465411
 20
136.1549554797121
 30
0.0
 10
780.0715886430525
 20
136.1305031762235
 30
0.0
 10
780.0715886430525
 20
136.1305031762235
 30
0.0
  0
SPLINE
  5
AC27
330
1F
100
AcDbEntity
  8
0
  6
Continuous
 62
     7
370
    15
100
AcDbSpline
210
0.0
220
0.0
230
1.0
 70
     8
 71
     3
 72
    13
 73
     9
 74
     0
 42
0.0000000001
 43
0.0000000001
 40
0.0
 40
0.0
 40
0.0
 40
0.0
 40
0.1575682730155075
 40
0.293344818246283
 40
0.4073347476719109
 40
0.4995513152095391
 40
0.7708925085916691
 40
1.0
 40
1.0
 40
1.0
 40
1.0
 10
780.5715886430528
 20
121.5714077465581
 30
0.0
 10
780.549538355828
 20
121.5544562828892
 30
0.0
 10
780.5084873410874
 20
121.5228977468097
 30
0.0
 10
780.4520008723522
 20
121.4852380734442
 30
0.0
 10
780.404999617287
 20
121.4572335387374
 30
0.0
 10
780.3405706968528
 20
121.4231785433263
 30
0.0
 10
780.2629664856395
 20
121.3899733287215
 30
0.0
 10
780.207047816362
 20
121.3843023227777
 30
0.0
 10
780.1814480167613
 20
121.3817061126466
 30
0.0
  0
SPLINE
  5
AC28
330
1F
100
AcDbEntity
  8
0
  6
Continuous
 62
     7
370
    15
100
AcDbSpline
210
0.0
220
0.0
230
1.0
 70
    24
 71
     3
 72
     8
 73
     4
 74
     0
 42
0.0000000001
 43
0.0000000001
 40
0.0
 40
0.0
 40
0.0
 40
0.0
 40
1.0
 40
1.0
 40
1.0
 40
1.0
 10
780.5715886430525
 20
136.3305031762235
 30
0.0
 10
780.463195864397
 20
136.3305031762235
 30
0.0
 10
780.3578859305777
 20
136.3305031762235
 30
0.0
 10
780.2715886430515
 20
136.3305031762235
 30
0.0
  0
SPLINE
  5
AC29
330
1F
100
AcDbEntity
  8
0
  6
Continuous
 62
     7
370
    15
100
AcDbSpline
210
0.0
220
0.0
230
1.0
 70
    24
 71
     3
 72
    10
 73
     6
 74
     0
 42
0.0000000001
 43
0.0000000001
 40
0.0
 40
0.0
 40
0.0
 40
0.0
 40
0.5000000000000079
 40
0.5000000000000079
 40
1.0
 40
1.0
 40
1.0
 40
1.0
 10
780.0715886430524
 20
146.7305031762236
 30
0.0
 10
780.0715886430524
 20
146.7305031762236
 30
0.0
 10
780.0960001691778
 20
146.7060916500981
 30
0.0
 10
780.1697461804049
 20
146.6323456388709
 30
0.0
 10
780.2176099512936
 20
146.5844818679824
 30
0.0
 10
780.2715886430525
 20
146.5305031762235
 30
0.0
  0
SPLINE
  5
AC2A
330
1F
100
AcDbEntity
  8
0
  6
Continuous
 62
     7
370
    15
100
AcDbSpline
210
0.0
220
0.0
230
1.0
 70
    24
 71
     3
 72
     8
 73
     4
 74
     0
 42
0.0000000001
 43
0.0000000001
 40
0.0
 40
0.0
 40
0.0
 40
0.0
 40
1.0
 40
1.0
 40
1.0
 40
1.0
 10
780.0715886430522
 20
161.368890155141
 30
0.0
 10
780.0715886430522
 20
157.1484298426801
 30
0.0
 10
780.0715886430523
 20
152.1043030710121
 30
0.0
 10
780.0715886430524
 20
146.7305031762236
 30
0.0
  0
SPLINE
  5
AC2B
330
1F
100
AcDbEntity
  8
0
  6
Continuous
 62
     7
370
    15
100
AcDbSpline
210
0.0
220
0.0
230
1.0
 70
     8
 71
     3
 72
    16
 73
    12
 74
     0
 42
0.0000000001
 43
0.0000000001
 40
0.0
 40
0.0
 40
0.0
 40
0.0
 40
0.0599796058438192
 40
0.1213483669783481
 40
0.1848396557236962
 40
0.2511164218560309
 40
0.3685024805821045
 40
0.5014721291265456
 40
0.7499074634585892
 40
0.8526555227271991
 40
1.0
 40
1.0
 40
1.0
 40
1.0
 10
780.0715886430522
 20
161.368890155141
 30
0.0
 10
780.0722424906211
 20
161.3803905043288
 30
0.0
 10
780.0735653291694
 20
161.4036575560872
 30
0.0
 10
780.0840493326853
 20
161.43150715492
 30
0.0
 10
780.1006975874427
 20
161.4537910598437
 30
0.0
 10
780.1297364362629
 20
161.4733064113831
 30
0.0
 10
780.1780358434279
 20
161.4827939807106
 30
0.0
 10
780.2692614410844
 20
161.4698950463026
 30
0.0
 10
780.372099430499
 20
161.4241491844236
 30
0.0
 10
780.4823632546714
 20
161.3571472365008
 30
0.0
 10
780.5385095191824
 20
161.3146413606451
 30
0.0
 10
780.5715886430522
 20
161.289598605889
 30
0.0
  0
SPLINE
  5
AC2C
330
1F
100
AcDbEntity
  8
0
  6
Continuous
 62
     7
370
    15
100
AcDbSpline
210
0.0
220
0.0
230
1.0
 70
    24
 71
     3
 72
     8
 73
     4
 74
     0
 42
0.0000000001
 43
0.0000000001
 40
0.0
 40
0.0
 40
0.0
 40
0.0
 40
1.0
 40
1.0
 40
1.0
 40
1.0
 10
780.2715886430525
 20
146.5305031762236
 30
0.0
 10
780.3578847798394
 20
146.5305031762236
 30
0.0
 10
780.4631963841392
 20
146.5305031762235
 30
0.0
 10
780.5715886430528
 20
146.5305031762235
 30
0.0
  0
LINE
  5
AC2D
330
1F
100
AcDbEntity
  8
0
  6
Continuous
 62
     7
370
    15
100
AcDbLine
 10
827.0715886193039
 20
118.5516455040096
 30
0.0
 11
827.0715886193039
 21
110.6153596953272
 31
0.0
  0
SPLINE
  5
AC2E
330
1F
100
AcDbEntity
  8
0
  6
Continuous
 62
     7
370
    15
100
AcDbSpline
210
0.0
220
0.0
230
1.0
 70
     8
 71
     3
 72
    15
 73
    11
 74
     0
 42
0.0000000001
 43
0.0000000001
 40
0.0
 40
0.0
 40
0.0
 40
0.0
 40
0.1032724015934039
 40
0.1867227783392205
 40
0.2503501771528904
 40
0.4989470900621577
 40
0.6319533412993252
 40
0.749465513812136
 40
0.8789402789176778
 40
1.0
 40
1.0
 40
1.0
 40
1.0
 10
827.0715886430526
 20
118.5516461661245
 30
0.0
 10
827.0947451658942
 20
118.5686689283743
 30
0.0
 10
827.1366135665024
 20
118.5994471170603
 30
0.0
 10
827.1923481331212
 20
118.646982943567
 30
0.0
 10
827.2793748109988
 20
118.7269992817558
 30
0.0
 10
827.3738521527747
 20
118.8316402849487
 30
0.0
 10
827.4652331391026
 20
118.963138697575
 30
0.0
 10
827.5227099224986
 20
119.0678491846711
 30
0.0
 10
827.5632860097429
 20
119.1714663155241
 30
0.0
 10
827.5688837718433
 20
119.2321919612904
 30
0.0
 10
827.5715886430527
 20
119.2615349465651
 30
0.0
  0
SPLINE
  5
AC2F
330
1F
100
AcDbEntity
  8
0
  6
Continuous
 62
     7
370
    15
100
AcDbSpline
210
0.0
220
0.0
230
1.0
 70
     8
 71
     3
 72
    12
 73
     8
 74
     0
 42
0.0000000001
 43
0.0000000001
 40
0.0
 40
0.0
 40
0.0
 40
0.0
 40
0.2500000000000016
 40
0.2500000000000016
 40
0.5000000000000032
 40
0.5000000000000032
 40
1.0
 40
1.0
 40
1.0
 40
1.0
 10
827.5715886430527
 20
110.9658731453935
 30
0.0
 10
827.5715886430527
 20
110.9033679759326
 30
0.0
 10
827.5587061220832
 20
110.8459451475549
 30
0.0
 10
827.5148384256725
 20
110.749762307594
 30
0.0
 10
827.4840560355654
 20
110.7108111733959
 30
0.0
 10
827.3797229402209
 20
110.6218691687119
 30
0.0
 10
827.2941318542462
 20
110.5968459803893
 30
0.0
 10
827.2053681945299
 20
110.5968459803891
 30
0.0
  0
SPLINE
  5
AC30
330
1F
100
AcDbEntity
  8
0
  6
Continuous
 62
     7
370
    15
100
AcDbSpline
210
0.0
220
0.0
230
1.0
 70
     8
 71
     3
 72
     8
 73
     4
 74
     0
 42
0.0000000001
 43
0.0000000001
 40
0.0
 40
0.0
 40
0.0
 40
0.0
 40
1.0
 40
1.0
 40
1.0
 40
1.0
 10
827.2053681945287
 20
110.5968459803891
 30
0.0
 10
827.1607750107033
 20
110.5968459803891
 30
0.0
 10
827.116181826878
 20
110.6030938337598
 30
0.0
 10
827.0715886430526
 20
110.6153593341072
 30
0.0
  0
SPLINE
  5
AC31
330
1F
100
AcDbEntity
  8
0
  6
Continuous
 62
     7
370
    15
100
AcDbSpline
210
0.0
220
0.0
230
1.0
 70
    24
 71
     3
 72
     8
 73
     4
 74
     0
 42
0.0000000001
 43
0.0000000001
 40
0.0
 40
0.0
 40
0.0
 40
0.0
 40
1.0
 40
1.0
 40
1.0
 40
1.0
 10
827.5715886430527
 20
110.9658731453934
 30
0.0
 10
827.5715886430527
 20
112.3973586658478
 30
0.0
 10
827.5715886430527
 20
115.2621428110929
 30
0.0
 10
827.5715886430527
 20
119.2615349465651
 30
0.0
  0
SPLINE
  5
AC32
330
1F
100
AcDbEntity
  8
0
  6
Continuous
 62
     7
370
    15
100
AcDbSpline
210
0.0
220
0.0
230
1.0
 70
     8
 71
     3
 72
    16
 73
    12
 74
     0
 42
0.0000000001
 43
0.0000000001
 40
0.0
 40
0.0
 40
0.0
 40
0.0
 40
0.0599796052216586
 40
0.1213483656834865
 40
0.1848396536836727
 40
0.251116418980076
 40
0.3685024779297348
 40
0.501472126634709
 40
0.7499074634555027
 40
0.8526555226834853
 40
0.9999999999999998
 40
0.9999999999999998
 40
0.9999999999999998
 40
0.9999999999999998
 10
827.571588643052
 20
163.5994744457201
 30
0.0
 10
827.5709347954977
 20
163.6135048620952
 30
0.0
 10
827.5696119569786
 20
163.641890645741
 30
0.0
 10
827.5591279536898
 20
163.6900063173301
 30
0.0
 10
827.5424796992902
 20
163.741799355731
 30
0.0
 10
827.5134408508828
 20
163.8102947768488
 30
0.0
 10
827.4651414440537
 20
163.8979404030465
 30
0.0
 10
827.3739158461248
 20
164.0293704455081
 30
0.0
 10
827.27107785613
 20
164.142858821696
 30
0.0
 10
827.1608140314247
 20
164.2426460550825
 30
0.0
 10
827.1046677669247
 20
164.2846287239434
 30
0.0
 10
827.0715886430519
 20
164.3093632261606
 30
0.0
  0
LINE
  5
AC33
330
1F
100
AcDbEntity
  8
0
  6
Continuous
 62
     7
370
    15
100
AcDbLine
 10
827.0715886193032
 20
172.245649696958
 30
0.0
 11
827.0715886193032
 21
164.3093638882755
 31
0.0
  0
SPLINE
  5
AC34
330
1F
100
AcDbEntity
  8
0
  6
Continuous
 62
     7
370
    15
100
AcDbSpline
210
0.0
220
0.0
230
1.0
 70
     8
 71
     3
 72
    15
 73
    11
 74
     0
 42
0.0000000001
 43
0.0000000001
 40
0.0
 40
0.0
 40
0.0
 40
0.0
 40
0.1028761441059423
 40
0.1861612841893107
 40
0.2498546494618958
 40
0.4987864044243998
 40
0.6318608455911771
 40
0.749425602341513
 40
0.8789221231199256
 40
1.0
 40
1.0
 40
1.0
 40
1.0
 10
827.0715886430519
 20
172.2456500581779
 30
0.0
 10
827.0946559173658
 20
172.2510429078925
 30
0.0
 10
827.1363976977013
 20
172.2608016312297
 30
0.0
 10
827.1920192934906
 20
172.2647658778365
 30
0.0
 10
827.2790926909735
 20
172.2626393988637
 30
0.0
 10
827.3737132136362
 20
172.2371819265316
 30
0.0
 10
827.4651848550202
 20
172.1707879834197
 30
0.0
 10
827.5226921840747
 20
172.0987519801501
 30
0.0
 10
827.5632833592663
 20
172.0076874963899
 30
0.0
 10
827.5688829253784
 20
171.9318034954545
 30
0.0
 10
827.571588643052
 20
171.8951362468917
 30
0.0
  0
SPLINE
  5
AC35
330
1F
100
AcDbEntity
  8
0
  6
Continuous
 62
     7
370
    15
100
AcDbSpline
210
0.0
220
0.0
230
1.0
 70
    24
 71
     3
 72
     8
 73
     4
 74
     0
 42
0.0000000001
 43
0.0000000001
 40
0.0
 40
0.0
 40
0.0
 40
0.0
 40
1.0
 40
1.0
 40
1.0
 40
1.0
 10
827.571588643052
 20
163.5994744457201
 30
0.0
 10
827.571588643052
 20
167.5988665811923
 30
0.0
 10
827.571588643052
 20
170.4636507264373
 30
0.0
 10
827.571588643052
 20
171.8951362468917
 30
0.0
  0
SPLINE
  5
AC36
330
1F
100
AcDbEntity
  8
0
  6
Continuous
 62
     7
370
    15
100
AcDbSpline
210
0.0
220
0.0
230
1.0
 70
     8
 71
     3
 72
    10
 73
     6
 74
     0
 42
0.0000000001
 43
0.0000000001
 40
0.0
 40
0.0
 40
0.0
 40
0.0
 40
0.5
 40
0.5
 40
1.0
 40
1.0
 40
1.0
 40
1.0
 10
780.5715886430521
 20
166.3029345625654
 30
0.0
 10
780.4386872422258
 20
166.3029345625654
 30
0.0
 10
780.3089500518808
 20
166.2546994982307
 30
0.0
 10
780.1251306413556
 20
166.0925978777316
 30
0.0
 10
780.0715886430522
 20
165.9795060683275
 30
0.0
 10
780.0715886430522
 20
165.8644501576816
 30
0.0
  0
LINE
  5
AC37
330
1F
100
AcDbEntity
  8
0
  6
Continuous
 62
     7
370
    15
100
AcDbLine
 10
780.5715885596056
 20
164.3093623683565
 30
0.0
 11
780.5715885596056
 21
166.302934707772
 31
0.0
  0
SPLINE
  5
AC38
330
1F
100
AcDbEntity
  8
0
  6
Continuous
 62
     7
370
    15
100
AcDbSpline
210
0.0
220
0.0
230
1.0
 70
     8
 71
     3
 72
    15
 73
    11
 74
     0
 42
0.0000000001
 43
0.0000000001
 40
0.0
 40
0.0
 40
0.0
 40
0.0
 40
0.1028762759854773
 40
0.1861615179472658
 40
0.2498549551051409
 40
0.4987870116009259
 40
0.6318616253158927
 40
0.749426523554928
 40
0.8789225413122084
 40
1.0
 40
1.0
 40
1.0
 40
1.0
 10
780.5715886430522
 20
164.3093617062416
 30
0.0
 10
780.548521339159
 20
164.2924066852034
 30
0.0
 10
780.5067795063941
 20
164.2617254380154
 30
0.0
 10
780.4511578434245
 20
164.2143041467321
 30
0.0
 10
780.3640843455046
 20
164.1342674807219
 30
0.0
 10
780.2694637199146
 20
164.0295615047877
 30
0.0
 10
780.1779920306532
 20
163.897947282589
 30
0.0
 10
780.1204848252543
 20
163.7931999552407
 30
0.0
 10
780.0798938659016
 20
163.6895558396465
 30
0.0
 10
780.0742943412797
 20
163.6288203839897
 30
0.0
 10
780.0715886430522
 20
163.5994729258011
 30
0.0
  0
SPLINE
  5
AC39
330
1F
100
AcDbEntity
  8
0
  6
Continuous
 62
     7
370
    15
100
AcDbSpline
210
0.0
220
0.0
230
1.0
 70
    24
 71
     3
 72
     8
 73
     4
 74
     0
 42
0.0000000001
 43
0.0000000001
 40
0.0
 40
0.0
 40
0.0
 40
0.0
 40
1.0
 40
1.0
 40
1.0
 40
1.0
 10
780.0715886430522
 20
165.8644501576816
 30
0.0
 10
780.0715886430522
 20
165.1541149901278
 30
0.0
 10
780.0715886430522
 20
164.3990559502913
 30
0.0
 10
780.0715886430522
 20
163.5994729258011
 30
0.0
  0
SPLINE
  5
AC3A
330
1F
100
AcDbEntity
  8
0
  6
Continuous
 62
     7
370
    15
100
AcDbSpline
210
0.0
220
0.0
230
1.0
 70
     8
 71
     3
 72
    10
 73
     6
 74
     0
 42
0.0000000001
 43
0.0000000001
 40
0.0
 40
0.0
 40
0.0
 40
0.0
 40
0.5
 40
0.5
 40
1.0
 40
1.0
 40
1.0
 40
1.0
 10
780.0715886430528
 20
116.9965561947652
 30
0.0
 10
780.0715886430528
 20
116.8814760498763
 30
0.0
 10
780.1248498919573
 20
116.7687724212345
 30
0.0
 10
780.3087261016023
 20
116.6063882972568
 30
0.0
 10
780.438657293867
 20
116.5580717898814
 30
0.0
 10
780.5715886430528
 20
116.5580717898814
 30
0.0
  0
SPLINE
  5
AC3B
330
1F
100
AcDbEntity
  8
0
  6
Continuous
 62
     7
370
    15
100
AcDbSpline
210
0.0
220
0.0
230
1.0
 70
     8
 71
     3
 72
    16
 73
    12
 74
     0
 42
0.0000000001
 43
0.0000000001
 40
0.0
 40
0.0
 40
0.0
 40
0.0
 40
0.0599881951611164
 40
0.1213661329745934
 40
0.1848674822249845
 40
0.2511554432692797
 40
0.3685939763069317
 40
0.5016319129455093
 40
0.7504019309783558
 40
0.8531622510593157
 40
1.0
 40
1.0
 40
1.0
 40
1.0
 10
780.0715886430528
 20
119.261533426646
 30
0.0
 10
780.0722426787639
 20
119.2475009794183
 30
0.0
 10
780.0735659021894
 20
119.219110996162
 30
0.0
 10
780.0840528998476
 20
119.1709875154191
 30
0.0
 10
780.1007059167551
 20
119.1191857611795
 30
0.0
 10
780.1297566222737
 20
119.0506696496947
 30
0.0
 10
780.1780837908694
 20
118.9629892895047
 30
0.0
 10
780.2694000970351
 20
118.8314438292418
 30
0.0
 10
780.3723725329005
 20
118.7179057772904
 30
0.0
 10
780.482589591533
 20
118.618181556884
 30
0.0
 10
780.538623860884
 20
118.5762895691484
 30
0.0
 10
780.5715886430528
 20
118.5516446462055
 30
0.0
  0
LINE
  5
AC3C
330
1F
100
AcDbEntity
  8
0
  6
Continuous
 62
     7
370
    15
100
AcDbLine
 10
780.5715885596063
 20
116.558071644675
 30
0.0
 11
780.5715885596063
 21
118.5516439840906
 31
0.0
  0
SPLINE
  5
AC3D
330
1F
100
AcDbEntity
  8
0
  6
Continuous
 62
     7
370
    15
100
AcDbSpline
210
0.0
220
0.0
230
1.0
 70
    24
 71
     3
 72
     8
 73
     4
 74
     0
 42
0.0000000001
 43
0.0000000001
 40
0.0
 40
0.0
 40
0.0
 40
0.0
 40
1.0
 40
1.0
 40
1.0
 40
1.0
 10
780.0715886430528
 20
119.261533426646
 30
0.0
 10
780.0715886430528
 20
118.4619504021556
 30
0.0
 10
780.0715886430528
 20
117.706891362319
 30
0.0
 10
780.0715886430528
 20
116.9965561947652
 30
0.0
  0
LINE
  5
AC3E
330
1F
100
AcDbEntity
  8
0
  6
Continuous
 62
     7
370
    15
100
AcDbLine
 10
780.0715875463266
 20
163.5803062931412
 30
0.0
 11
827.571588643052
 21
163.5803078130602
 31
0.0
  0
LINE
  5
AC3F
330
1F
100
AcDbEntity
  8
0
  6
Continuous
 62
     7
370
    15
100
AcDbLine
 10
780.5715886430522
 20
164.3093617062416
 30
0.0
 11
827.0715886193032
 21
164.3093638882755
 31
0.0
  0
LINE
  5
AC40
330
1F
100
AcDbEntity
  8
0
  6
Continuous
 62
     7
370
    15
100
AcDbLine
 10
780.0715875463266
 20
163.5994729117267
 30
0.0
 11
780.0715875463266
 21
163.5803062931412
 31
0.0
  0
LINE
  5
AC41
330
1F
100
AcDbEntity
  8
0
  6
Continuous
 62
     7
370
    15
100
AcDbLine
 10
827.571588643052
 20
163.5803078130602
 30
0.0
 11
827.571588643052
 21
163.5994744316458
 31
0.0
  0
LINE
  5
AC42
330
1F
100
AcDbEntity
  8
0
  6
Continuous
 62
     7
370
    15
100
AcDbLine
 10
827.5715886430527
 20
119.280701579225
 30
0.0
 11
780.0715875463272
 21
119.2807015792243
 31
0.0
  0
LINE
  5
AC43
330
1F
100
AcDbEntity
  8
0
  6
Continuous
 62
     7
370
    15
100
AcDbLine
 10
827.0715886193039
 20
118.5516455040096
 30
0.0
 11
780.5715874956639
 21
118.551645504009
 31
0.0
  0
LINE
  5
AC44
330
1F
100
AcDbEntity
  8
0
  6
Continuous
 62
     7
370
    15
100
AcDbLine
 10
780.0715875463273
 20
119.2807000593059
 30
0.0
 11
780.0715875463273
 21
119.2615334407203
 31
0.0
  0
LINE
  5
AC45
330
1F
100
AcDbEntity
  8
0
  6
Continuous
 62
     7
370
    15
100
AcDbLine
 10
827.5715886430527
 20
119.2615349606394
 30
0.0
 11
827.5715886430527
 21
119.280701579225
 31
0.0
  0
LINE
  5
AC46
330
1F
100
AcDbEntity
  8
0
  6
Continuous
 62
     7
370
    15
100
AcDbLine
 10
780.5715885596064
 20
110.6153596953266
 30
0.0
 11
827.0715886193039
 21
110.6153596953272
 31
0.0
  0
LINE
  5
AC47
330
1F
100
AcDbEntity
  8
0
  6
Continuous
 62
     7
370
    15
100
AcDbLine
 10
780.5715885596063
 20
110.6153581754081
 30
0.0
 11
780.5715885596063
 21
111.5580726877563
 31
0.0
  0
LINE
  5
AC48
330
1F
100
AcDbEntity
  8
0
  6
Continuous
 62
     7
370
    15
100
AcDbLine
 10
785.9715885298038
 20
111.5580742076748
 30
0.0
 11
780.569958708781
 21
111.5580742076747
 31
0.0
  0
LINE
  5
AC49
330
1F
100
AcDbEntity
  8
0
  6
Continuous
 62
     7
370
    15
100
AcDbLine
 10
785.9715885298038
 20
116.5580731645935
 30
0.0
 11
785.9715885298038
 21
111.5580742076748
 31
0.0
  0
LINE
  5
AC4A
330
1F
100
AcDbEntity
  8
0
  6
Continuous
 62
     7
370
    15
100
AcDbLine
 10
780.5715885596064
 20
116.5580731645935
 30
0.0
 11
785.9715885298038
 21
116.5580731645935
 31
0.0
  0
LINE
  5
AC4B
330
1F
100
AcDbEntity
  8
0
  6
Continuous
 62
     7
370
    15
100
AcDbLine
 10
827.0715886193032
 20
172.245649696958
 30
0.0
 11
780.5715885596055
 21
172.2456481770389
 31
0.0
  0
LINE
  5
AC4C
330
1F
100
AcDbEntity
  8
0
  6
Continuous
 62
     7
370
    15
100
AcDbLine
 10
785.9715885298031
 20
166.3029362276905
 30
0.0
 11
780.4715885596055
 21
166.3029362276905
 31
0.0
  0
LINE
  5
AC4D
330
1F
100
AcDbEntity
  8
0
  6
Continuous
 62
     7
370
    15
100
AcDbLine
 10
785.971588529803
 20
171.3029351846092
 30
0.0
 11
785.9715885298031
 21
166.3029362276905
 31
0.0
  0
LINE
  5
AC4E
330
1F
100
AcDbEntity
  8
0
  6
Continuous
 62
     7
370
    15
100
AcDbLine
 10
780.5715885596055
 20
171.3029336646908
 30
0.0
 11
785.971588529803
 21
171.3029351846092
 31
0.0
  0
LINE
  5
AC4F
330
1F
100
AcDbEntity
  8
0
  6
Continuous
 62
     7
370
    15
100
AcDbLine
 10
780.5715885596055
 20
171.3029336646908
 30
0.0
 11
780.5715885596055
 21
172.2456481770389
 31
0.0
  0
LINE
  5
AC50
330
1F
100
AcDbEntity
  8
0
  6
Continuous
 62
     7
370
    15
100
AcDbLine
 10
827.571588643052
 20
162.5321526841043
 30
0.0
 11
780.0715875463266
 21
162.5321511641853
 31
0.0
  0
LINE
  5
AC51
330
1F
100
AcDbEntity
  8
0
  6
Continuous
 62
     7
370
    15
100
AcDbLine
 10
780.0715875463266
 20
163.5803062931412
 30
0.0
 11
780.0715875463266
 21
162.5321511641853
 31
0.0
  0
LINE
  5
AC52
330
1F
100
AcDbEntity
  8
0
  6
Continuous
 62
     7
370
    15
100
AcDbLine
 10
827.571588643052
 20
162.5321526841043
 30
0.0
 11
827.571588643052
 21
163.5803078130602
 31
0.0
  0
LINE
  5
AC53
330
1F
100
AcDbEntity
  8
0
  6
Continuous
 62
     7
370
    15
100
AcDbLine
 10
827.5715886430527
 20
120.3288567081808
 30
0.0
 11
780.0715875463272
 21
120.3288567081802
 31
0.0
  0
LINE
  5
AC54
330
1F
100
AcDbEntity
  8
0
  6
Continuous
 62
     7
370
    15
100
AcDbLine
 10
780.0715875463273
 20
119.2807000593059
 30
0.0
 11
780.0715875463272
 21
120.3288551882618
 31
0.0
  0
LINE
  5
AC55
330
1F
100
AcDbEntity
  8
0
  6
Continuous
 62
     7
370
    15
100
AcDbLine
 10
827.5715886430527
 20
120.3288567081808
 30
0.0
 11
827.5715886430527
 21
119.280701579225
 31
0.0
  0
LINE
  5
AC56
330
1F
100
AcDbEntity
  8
0
  6
Continuous
 62
     7
370
    15
100
AcDbLine
 10
782.6715885476848
 20
146.4305045843833
 30
0.0
 11
780.2715872065804
 21
146.4305045843832
 31
0.0
  0
LINE
  5
AC57
330
1F
100
AcDbEntity
  8
0
  6
Continuous
 62
     7
370
    15
100
AcDbLine
 10
780.2715872065806
 20
136.4305048079007
 30
0.0
 11
782.671588547685
 21
136.4305048079007
 31
0.0
  0
LINE
  5
AC58
330
1F
100
AcDbEntity
  8
0
  6
Continuous
 62
     7
370
    15
100
AcDbLine
 10
780.0715875463266
 20
163.0151965186708
 30
0.0
 11
780.0715875463266
 21
161.3688901529424
 31
0.0
  0
LINE
  5
AC59
330
1F
100
AcDbEntity
  8
0
  6
Continuous
 62
     7
370
    15
100
AcDbLine
 10
827.571588643052
 20
161.3688916728615
 30
0.0
 11
827.571588643052
 21
163.0151980385899
 31
0.0
  0
LINE
  5
AC5A
330
1F
100
AcDbEntity
  8
0
  6
Continuous
 62
     7
370
    15
100
AcDbLine
 10
780.0715875463272
 20
121.4921161995046
 30
0.0
 11
780.0715875463272
 21
119.8458098337763
 31
0.0
  0
LINE
  5
AC5B
330
1F
100
AcDbEntity
  8
0
  6
Continuous
 62
     7
370
    15
100
AcDbLine
 10
827.5715886430527
 20
119.8458113536953
 30
0.0
 11
827.5715886430527
 21
121.4921177194237
 31
0.0
  0
LINE
  5
AC5C
330
1F
100
AcDbEntity
  8
0
  6
Continuous
 62
     7
370
    15
100
AcDbLine
 10
780.0715875463266
 20
168.1792144194954
 30
0.0
 11
785.9715885298031
 21
168.1792159394138
 31
0.0
  0
LINE
  5
AC5D
330
1F
100
AcDbEntity
  8
0
  6
Continuous
 62
     7
370
    15
100
AcDbLine
 10
780.0715875463266
 20
168.1792144194954
 30
0.0
 11
780.0715875463266
 21
165.8642519728058
 31
0.0
  0
LINE
  5
AC5E
330
1F
100
AcDbEntity
  8
0
  6
Continuous
 62
     7
370
    15
100
AcDbLine
 10
780.0715875463266
 20
162.5321511641853
 30
0.0
 11
780.0715875463266
 21
161.3396540746801
 31
0.0
  0
LINE
  5
AC5F
330
1F
100
AcDbEntity
  8
0
  6
Continuous
 62
     7
370
    15
100
AcDbLine
 10
780.0715875463273
 20
114.6817934528701
 30
0.0
 11
785.9715885298038
 21
114.6817934528702
 31
0.0
  0
LINE
  5
AC60
330
1F
100
AcDbEntity
  8
0
  6
Continuous
 62
     7
370
    15
100
AcDbLine
 10
780.0715875463272
 20
121.5225406453722
 30
0.0
 11
780.0715875463272
 21
120.3288551882618
 31
0.0
  0
LINE
  5
AC61
330
1F
100
AcDbEntity
  8
0
  6
Continuous
 62
     7
370
    15
100
AcDbLine
 10
780.0715875463273
 20
116.9949792788141
 30
0.0
 11
780.0715875463273
 21
114.6817919329517
 31
0.0
  0
LINE
  5
AC62
330
1F
100
AcDbEntity
  8
0
  6
Continuous
 62
     7
370
    15
100
AcDbLine
 10
786.9372731821321
 20
136.3305045121127
 30
0.0
 11
786.271589882829
 21
136.3305045121127
 31
0.0
  0
LINE
  5
AC63
330
1F
100
AcDbEntity
  8
0
  6
Continuous
 62
     7
370
    15
100
AcDbLine
 10
780.2715872065806
 20
136.3305029921942
 30
0.0
 11
779.1715902583383
 21
136.3305029921942
 31
0.0
  0
LINE
  5
AC64
330
1F
100
AcDbEntity
  8
0
  6
Continuous
 62
     7
370
    15
100
AcDbLine
 10
779.5715902583384
 20
136.3305029921942
 30
0.0
 11
779.5715902583382
 21
146.5305033602528
 31
0.0
  0
LINE
  5
AC65
330
1F
100
AcDbEntity
  8
0
  6
Continuous
 62
     7
370
    15
100
AcDbLine
 10
779.1715902583383
 20
146.5305033602528
 30
0.0
 11
780.2715872065804
 21
146.5305033602529
 31
0.0
  0
LINE
  5
AC66
330
1F
100
AcDbEntity
  8
0
  6
Continuous
 62
     7
370
    15
100
AcDbLine
 10
786.2715898828288
 20
146.5305048801714
 30
0.0
 11
786.9372731821319
 21
146.5305048801714
 31
0.0
  0
LINE
  5
AC67
330
1F
100
AcDbEntity
  8
0
  6
Continuous
 62
     7
370
    15
100
AcDbLine
 10
779.1715902583383
 20
126.4305035114996
 30
0.0
 11
779.1715902583383
 21
136.3305029921942
 31
0.0
  0
LINE
  5
AC68
330
1F
100
AcDbEntity
  8
0
  6
Continuous
 62
     7
370
    15
100
AcDbLine
 10
779.1715902583381
 20
156.4305028409474
 30
0.0
 11
779.1715902583383
 21
146.5305033602528
 31
0.0
  0
SPLINE
  5
AC69
330
1F
100
AcDbEntity
  8
0
  6
Continuous
 62
     7
370
    15
100
AcDbSpline
210
0.0
220
0.0
230
1.0
 70
     8
 71
     3
 72
    10
 73
     6
 74
     0
 42
0.0000000001
 43
0.0000000001
 40
0.0
 40
0.0
 40
0.0
 40
0.0
 40
0.5
 40
0.5
 40
1.0
 40
1.0
 40
1.0
 40
1.0
 10
780.0715886430521
 20
170.8644501576817
 30
0.0
 10
780.0715886430521
 20
170.9795303025705
 30
0.0
 10
780.1248498919565
 20
171.0922339312123
 30
0.0
 10
780.3087261016015
 20
171.25461805519
 30
0.0
 10
780.4386572938662
 20
171.3029345625655
 30
0.0
 10
780.5715886430521
 20
171.3029345625655
 30
0.0
  0
LINE
  5
AC6A
330
1F
100
AcDbEntity
  8
0
  6
Continuous
 62
     7
370
    15
100
AcDbLine
 10
780.0715875463265
 20
170.8644502327554
 30
0.0
 11
780.0715875463266
 21
168.1792144194954
 31
0.0
  0
SPLINE
  5
AC6B
330
1F
100
AcDbEntity
  8
0
  6
Continuous
 62
     7
370
    15
100
AcDbSpline
210
0.0
220
0.0
230
1.0
 70
     8
 71
     3
 72
    10
 73
     6
 74
     0
 42
0.0000000001
 43
0.0000000001
 40
0.0
 40
0.0
 40
0.0
 40
0.0
 40
0.5
 40
0.5
 40
1.0
 40
1.0
 40
1.0
 40
1.0
 10
780.5715886430529
 20
111.5580717898814
 30
0.0
 10
780.4386872422266
 20
111.5580717898814
 30
0.0
 10
780.3089500518816
 20
111.6063068542162
 30
0.0
 10
780.1251306413564
 20
111.7684084747153
 30
0.0
 10
780.0715886430529
 20
111.8815002841194
 30
0.0
 10
780.0715886430529
 20
111.9965561947652
 30
0.0
  0
LINE
  5
AC6C
330
1F
100
AcDbEntity
  8
0
  6
Continuous
 62
     7
370
    15
100
AcDbLine
 10
780.0715875463273
 20
114.6817919329517
 30
0.0
 11
780.0715875463273
 21
111.9965561196916
 31
0.0
  0
SPLINE
  5
AC6D
330
1F
100
AcDbEntity
  8
0
  6
Continuous
 62
     7
370
    15
100
AcDbSpline
210
0.0
220
0.0
230
1.0
 70
     8
 71
     3
 72
     8
 73
     4
 74
     0
 42
0.0000000001
 43
0.0000000001
 40
0.0
 40
0.0
 40
0.0
 40
0.0
 40
1.0
 40
1.0
 40
1.0
 40
1.0
 10
780.5715886430529
 20
110.6153578141882
 30
0.0
 10
780.526995459223
 20
110.6030923138395
 30
0.0
 10
780.4824022753932
 20
110.5968444604687
 30
0.0
 10
780.4378090915633
 20
110.59684446047
 30
0.0
  0
SPLINE
  5
AC6E
330
1F
100
AcDbEntity
  8
0
  6
Continuous
 62
     7
370
    15
100
AcDbSpline
210
0.0
220
0.0
230
1.0
 70
     8
 71
     3
 72
    12
 73
     8
 74
     0
 42
0.0000000001
 43
0.0000000001
 40
0.0
 40
0.0
 40
0.0
 40
0.0
 40
0.5000000000000032
 40
0.5000000000000032
 40
0.7500000000000016
 40
0.7500000000000016
 40
1.0
 40
1.0
 40
1.0
 40
1.0
 10
780.4378090915633
 20
110.59684446047
 30
0.0
 10
780.3490990044781
 20
110.5968444604727
 30
0.0
 10
780.2637166176768
 20
110.6217534569105
 30
0.0
 10
780.1593318586241
 20
110.7105756873577
 30
0.0
 10
780.1286115602923
 20
110.7493069356565
 30
0.0
 10
780.0845317231532
 20
110.8456678734581
 30
0.0
 10
780.0715886430529
 20
110.9034303355798
 30
0.0
 10
780.0715886430529
 20
110.9658716254744
 30
0.0
  0
SPLINE
  5
AC6F
330
1F
100
AcDbEntity
  8
0
  6
Continuous
 62
     7
370
    15
100
AcDbSpline
210
0.0
220
0.0
230
1.0
 70
    24
 71
     3
 72
     8
 73
     4
 74
     0
 42
0.0000000001
 43
0.0000000001
 40
0.0
 40
0.0
 40
0.0
 40
0.0
 40
1.0
 40
1.0
 40
1.0
 40
1.0
 10
780.0715886430529
 20
111.9965561947652
 30
0.0
 10
780.0715886430529
 20
111.5956548402752
 30
0.0
 10
780.0715886430529
 20
111.2520629973599
 30
0.0
 10
780.0715886430529
 20
110.9658716254744
 30
0.0
  0
SPLINE
  5
AC70
330
1F
100
AcDbEntity
  8
0
  6
Continuous
 62
     7
370
    15
100
AcDbSpline
210
0.0
220
0.0
230
1.0
 70
     8
 71
     3
 72
    16
 73
    12
 74
     0
 42
0.0000000001
 43
0.0000000001
 40
0.0
 40
0.0
 40
0.0
 40
0.0
 40
0.0599792922180378
 40
0.121347717891059
 40
0.1848386383589479
 40
0.2511149941241173
 40
0.3685011444316237
 40
0.5014708930590879
 40
0.74990746302812
 40
0.8526556425109729
 40
0.9999999999999998
 40
0.9999999999999998
 40
0.9999999999999998
 40
0.9999999999999998
 10
780.0715886430521
 20
171.8951347269727
 30
0.0
 10
780.07224248352
 20
171.9134413844763
 30
0.0
 10
780.0735653075434
 20
171.9504786856538
 30
0.0
 10
780.0840491985512
 20
172.0031672015589
 30
0.0
 10
780.1006972759779
 20
172.0531825782138
 30
0.0
 10
780.1297359154242
 20
172.1106588062737
 30
0.0
 10
780.1780351573411
 20
172.1707212820499
 30
0.0
 10
780.2692608892896
 20
172.2371675776091
 30
0.0
 10
780.372099197377
 20
172.2644066882374
 30
0.0
 10
780.4823632832352
 20
172.2650382154476
 30
0.0
 10
780.5385095467296
 20
172.2528369990362
 30
0.0
 10
780.5715886430521
 20
172.2456485382588
 30
0.0
  0
SPLINE
  5
AC71
330
1F
100
AcDbEntity
  8
0
  6
Continuous
 62
     7
370
    15
100
AcDbSpline
210
0.0
220
0.0
230
1.0
 70
    24
 71
     3
 72
     8
 73
     4
 74
     0
 42
0.0000000001
 43
0.0000000001
 40
0.0
 40
0.0
 40
0.0
 40
0.0
 40
1.0
 40
1.0
 40
1.0
 40
1.0
 10
780.0715886430521
 20
171.8951347269726
 30
0.0
 10
780.0715886430521
 20
171.6089433550871
 30
0.0
 10
780.0715886430521
 20
171.2653515121717
 30
0.0
 10
780.0715886430521
 20
170.8644501576817
 30
0.0
  0
LINE
  5
AC72
330
1F
100
AcDbEntity
  8
0
  6
Continuous
 62
     7
370
    15
100
AcDbLine
 10
780.0715875463273
 20
116.6902132794969
 30
0.0
 11
780.0715875463273
 21
115.7961920366399
 31
0.0
  0
LINE
  5
AC73
330
1F
100
AcDbEntity
  8
0
  6
Continuous
 62
     7
370
    15
100
AcDbLine
 10
780.0715875463266
 20
167.0648143158071
 30
0.0
 11
780.0715875463266
 21
166.1707930729502
 31
0.0
  0
SPLINE
  5
AC74
330
1F
100
AcDbEntity
  8
0
  6
Continuous
 62
     7
370
    15
100
AcDbSpline
210
0.0
220
0.0
230
1.0
 70
     8
 71
     3
 72
    15
 73
    11
 74
     0
 42
0.0000000001
 43
0.0000000001
 40
0.0
 40
0.0
 40
0.0
 40
0.0
 40
0.1032722924827559
 40
0.18672266837407
 40
0.2503501747003423
 40
0.4989483184189649
 40
0.6319546676394935
 40
0.7494669307061387
 40
0.8789409222771135
 40
1.0
 40
1.0
 40
1.0
 40
1.0
 10
827.0715886430526
 20
109.770511828562
 30
0.0
 10
827.0947451411673
 20
109.7748346655735
 30
0.0
 10
827.1366135166458
 20
109.7826506212604
 30
0.0
 10
827.1923480804694
 20
109.8023065167532
 30
0.0
 10
827.2793750458761
 20
109.8413730161807
 30
0.0
 10
827.3738527032232
 20
109.9078180751997
 30
0.0
 10
827.465233823354
 20
110.0146177236165
 30
0.0
 10
827.5227103625603
 20
110.1126778102668
 30
0.0
 10
827.5632861039161
 20
110.223137050284
 30
0.0
 10
827.5688838019018
 20
110.3031527477988
 30
0.0
 10
827.5715886430527
 20
110.3418168114764
 30
0.0
  0
SPLINE
  5
AC75
330
1F
100
AcDbEntity
  8
0
  6
Continuous
 62
     7
370
    15
100
AcDbSpline
210
0.0
220
0.0
230
1.0
 70
     8
 71
     3
 72
    16
 73
    12
 74
     0
 42
0.0000000001
 43
0.0000000001
 40
0.0
 40
0.0
 40
0.0
 40
0.0
 40
0.0599792923207026
 40
0.1213477180913128
 40
0.1848386386550697
 40
0.2511149945175793
 40
0.3685011448529897
 40
0.501470893399791
 40
0.7499074630291096
 40
0.8526556418496976
 40
1.0
 40
1.0
 40
1.0
 40
1.0
 10
827.571588643052
 20
172.5191925808088
 30
0.0
 10
827.5709348025822
 20
172.5382070771741
 30
0.0
 10
827.5696119785552
 20
172.5766764497744
 30
0.0
 10
827.559128087517
 20
172.6350348079786
 30
0.0
 10
827.5424800100426
 20
172.6933059561253
 30
0.0
 10
827.513441370525
 20
172.7644853844101
 30
0.0
 10
827.4651421285653
 20
172.8464142898466
 30
0.0
 10
827.3739163966528
 20
172.9532399733031
 30
0.0
 10
827.27107808879
 20
173.0250286181494
 30
0.0
 10
827.1608140029929
 20
173.0723233363404
 30
0.0
 10
827.1046677395137
 20
173.0837597145161
 30
0.0
 10
827.0715886430519
 20
173.0904975637231
 30
0.0
  0
SPLINE
  5
AC76
330
1F
100
AcDbEntity
  8
0
  6
Continuous
 62
     7
370
    15
100
AcDbSpline
210
0.0
220
0.0
230
1.0
 70
    24
 71
     3
 72
     8
 73
     4
 74
     0
 42
0.0000000001
 43
0.0000000001
 40
0.0
 40
0.0
 40
0.0
 40
0.0
 40
0.9999999999999998
 40
0.9999999999999998
 40
0.9999999999999998
 40
0.9999999999999998
 10
827.571588643052
 20
172.5191925808088
 30
0.0
 10
827.571588643052
 20
172.7929749607385
 30
0.0
 10
827.571588643052
 20
172.9305046961425
 30
0.0
 10
827.571588643052
 20
172.9305046961425
 30
0.0
  0
SPLINE
  5
AC77
330
1F
100
AcDbEntity
  8
0
  6
Continuous
 62
     7
370
    15
100
AcDbSpline
210
0.0
220
0.0
230
1.0
 70
    24
 71
     3
 72
     8
 73
     4
 74
     0
 42
0.0000000001
 43
0.0000000001
 40
0.0
 40
0.0
 40
0.0
 40
0.0
 40
1.0
 40
1.0
 40
1.0
 40
1.0
 10
827.5715886430527
 20
109.9305046961426
 30
0.0
 10
827.5715886430527
 20
109.9305046961426
 30
0.0
 10
827.5715886430527
 20
110.0680344315467
 30
0.0
 10
827.5715886430527
 20
110.3418168114764
 30
0.0
  0
SPLINE
  5
AC78
330
1F
100
AcDbEntity
  8
0
  6
Continuous
 62
     7
370
    15
100
AcDbSpline
210
0.0
220
0.0
230
1.0
 70
     8
 71
     3
 72
    16
 73
    12
 74
     0
 42
0.0000000001
 43
0.0000000001
 40
0.0
 40
0.0
 40
0.0
 40
0.0
 40
0.0599883986010576
 40
0.1213665539544244
 40
0.1848681419793869
 40
0.2511563690609058
 40
0.3685947599025384
 40
0.5016325230505934
 40
0.7504022379076734
 40
0.853162437951247
 40
1.0
 40
1.0
 40
1.0
 40
1.0
 10
780.0715886430529
 20
110.3418152915573
 30
0.0
 10
780.0722426833218
 20
110.3227979504336
 30
0.0
 10
780.0735659160709
 20
110.2843226916938
 30
0.0
 10
780.0840529865802
 20
110.2259554145277
 30
0.0
 10
780.1007061183939
 20
110.1676755682857
 30
0.0
 10
780.1297569499342
 20
110.0964772695835
 30
0.0
 10
780.1780841913013
 20
110.0145219250536
 30
0.0
 10
780.2694004494186
 20
109.9076198553651
 30
0.0
 10
780.3723727736707
 20
109.8358340611165
 30
0.0
 10
780.4825897019096
 20
109.7886219583837
 30
0.0
 10
780.5386239026612
 20
109.7772187685875
 30
0.0
 10
780.5715886430529
 20
109.770510308643
 30
0.0
  0
SPLINE
  5
AC79
330
1F
100
AcDbEntity
  8
0
  6
Continuous
 62
     7
370
    15
100
AcDbSpline
210
0.0
220
0.0
230
1.0
 70
    24
 71
     3
 72
     9
 73
     5
 74
     0
 42
0.0000000001
 43
0.0000000001
 40
0.0
 40
0.0
 40
0.0
 40
0.0
 40
0.5296250761248014
 40
1.0
 40
1.0
 40
1.0
 40
1.0
 10
780.0715875463273
 20
110.3418156967275
 30
0.0
 10
780.0715875463273
 20
110.2146962006729
 30
0.0
 10
780.0715875463273
 20
109.9746783054012
 30
0.0
 10
780.0715875463273
 20
109.9527191207399
 30
0.0
 10
780.0715875463273
 20
109.9423900709264
 30
0.0
  0
SPLINE
  5
AC7A
330
1F
100
AcDbEntity
  8
0
  6
Continuous
 62
     7
370
    15
100
AcDbSpline
210
0.0
220
0.0
230
1.0
 70
     8
 71
     3
 72
    15
 73
    11
 74
     0
 42
0.0000000001
 43
0.0000000001
 40
0.0
 40
0.0
 40
0.0
 40
0.0
 40
0.1028761440355684
 40
0.1861612841469753
 40
0.2498546495460442
 40
0.4987864045915043
 40
0.631860845825814
 40
0.7494256025949669
 40
0.8789221232383679
 40
1.0
 40
1.0
 40
1.0
 40
1.0
 10
780.571588643052
 20
173.0904960438041
 30
0.0
 10
780.5485213687544
 20
173.0861931889925
 30
0.0
 10
780.5067795884296
 20
173.0784068845512
 30
0.0
 10
780.4511579926238
 20
173.0588256765354
 30
0.0
 10
780.364084595086
 20
173.0197925135381
 30
0.0
 10
780.2694640723649
 20
172.9533380949388
 30
0.0
 10
780.1779924309721
 20
172.846461759554
 30
0.0
 10
780.1204851019494
 20
172.7483742362906
 30
0.0
 10
780.0798939268217
 20
172.6378898048028
 30
0.0
 10
780.0742943607205
 20
172.5578610567064
 30
0.0
 10
780.071588643052
 20
172.5191910608898
 30
0.0
  0
SPLINE
  5
AC7B
330
1F
100
AcDbEntity
  8
0
  6
Continuous
 62
     7
370
    15
100
AcDbSpline
210
0.0
220
0.0
230
1.0
 70
    24
 71
     3
 72
     8
 73
     4
 74
     0
 42
0.0000000001
 43
0.0000000001
 40
0.0
 40
0.0
 40
0.0
 40
0.0
 40
0.9999999999999998
 40
0.9999999999999998
 40
0.9999999999999998
 40
0.9999999999999998
 10
780.071588643052
 20
172.9305031762235
 30
0.0
 10
780.071588643052
 20
172.9305031762235
 30
0.0
 10
780.071588643052
 20
172.7929734408194
 30
0.0
 10
780.071588643052
 20
172.5191910608898
 30
0.0
  0
LINE
  5
AC7C
330
1F
100
AcDbEntity
  8
0
  6
Continuous
 62
     7
370
    15
100
AcDbLine
 10
827.5715886430527
 20
110.3691552595018
 30
0.0
 11
780.0715875463273
 21
110.3691552595012
 31
0.0
  0
LINE
  5
AC7D
330
1F
100
AcDbEntity
  8
0
  6
Continuous
 62
     7
370
    15
100
AcDbLine
 10
827.0715886193039
 20
109.7705104217648
 30
0.0
 11
780.5715880871862
 21
109.7705104217641
 31
0.0
  0
LINE
  5
AC7E
330
1F
100
AcDbEntity
  8
0
  6
Continuous
 62
     7
370
    15
100
AcDbLine
 10
780.0715875463273
 20
110.3691537395828
 30
0.0
 11
780.0715875463273
 21
110.3418156967275
 31
0.0
  0
LINE
  5
AC7F
330
1F
100
AcDbEntity
  8
0
  6
Continuous
 62
     7
370
    15
100
AcDbLine
 10
827.5715886430527
 20
110.3418172166466
 30
0.0
 11
827.5715886430527
 21
110.3691552595018
 31
0.0
  0
LINE
  5
AC80
330
1F
100
AcDbEntity
  8
0
  6
Continuous
 62
     7
370
    15
100
AcDbLine
 10
780.0715875463265
 20
172.4918526128643
 30
0.0
 11
827.571588643052
 21
172.4918541327833
 31
0.0
  0
LINE
  5
AC81
330
1F
100
AcDbEntity
  8
0
  6
Continuous
 62
     7
370
    15
100
AcDbLine
 10
780.5715885596055
 20
173.0904989705198
 30
0.0
 11
827.0715886193032
 21
173.0904989705204
 31
0.0
  0
LINE
  5
AC82
330
1F
100
AcDbEntity
  8
0
  6
Continuous
 62
     7
370
    15
100
AcDbLine
 10
780.0715875463265
 20
172.5191906557195
 30
0.0
 11
780.0715875463265
 21
172.4918526128643
 31
0.0
  0
LINE
  5
AC83
330
1F
100
AcDbEntity
  8
0
  6
Continuous
 62
     7
370
    15
100
AcDbLine
 10
827.571588643052
 20
172.4918541327833
 30
0.0
 11
827.571588643052
 21
172.5191921756386
 31
0.0
  0
LINE
  5
AC84
330
1F
100
AcDbEntity
  8
0
  6
Continuous
 62
     7
370
    15
100
AcDbLine
 10
780.0715875463273
 20
110.3691537395828
 30
0.0
 11
780.0715875463273
 21
110.9658707395904
 31
0.0
  0
LINE
  5
AC85
330
1F
100
AcDbEntity
  8
0
  6
Continuous
 62
     7
370
    15
100
AcDbLine
 10
827.5715886430527
 20
110.3691552595018
 30
0.0
 11
827.5715886430527
 21
110.9658722595095
 31
0.0
  0
LINE
  5
AC86
330
1F
100
AcDbEntity
  8
0
  6
Continuous
 62
     7
370
    15
100
AcDbLine
 10
780.0715875463265
 20
172.4918526128643
 30
0.0
 11
780.0715875463265
 21
171.8951356128567
 31
0.0
  0
LINE
  5
AC87
330
1F
100
AcDbEntity
  8
0
  6
Continuous
 62
     7
370
    15
100
AcDbLine
 10
827.571588643052
 20
171.8951371327757
 30
0.0
 11
827.571588643052
 21
172.4918541327833
 31
0.0
  0
LINE
  5
AC88
330
1F
100
AcDbEntity
  8
0
  6
Continuous
 62
     7
370
    15
100
AcDbLine
 10
780.0715875463273
 20
115.7961920366399
 30
0.0
 11
780.0715875463273
 21
111.9013675019853
 31
0.0
  0
LINE
  5
AC89
330
1F
100
AcDbEntity
  8
0
  6
Continuous
 62
     7
370
    15
100
AcDbLine
 10
780.0715875463265
 20
170.9596388504617
 30
0.0
 11
780.0715875463266
 21
167.0648143158071
 31
0.0
  0
LINE
  5
AC8A
330
1F
100
AcDbEntity
  8
0
  6
Continuous
 62
     7
370
    15
100
AcDbLine
 10
795.0715898351448
 20
173.5038422808761
 30
0.0
 11
794.5715888218658
 21
174.1868519053573
 31
0.0
  0
LINE
  5
AC8B
330
1F
100
AcDbEntity
  8
0
  6
Continuous
 62
     7
370
    15
100
AcDbLine
 10
795.0715898351448
 20
173.4305062160606
 30
0.0
 11
795.0715898351448
 21
173.5038422808761
 31
0.0
  0
LINE
  5
AC8C
330
1F
100
AcDbEntity
  8
0
  6
Continuous
 62
     7
370
    15
100
AcDbLine
 10
794.5715888218658
 20
173.4305062160606
 30
0.0
 11
794.5715888218658
 21
174.1868519053573
 31
0.0
  0
LINE
  5
AC8D
330
1F
100
AcDbEntity
  8
0
  6
Continuous
 62
     7
370
    15
100
AcDbLine
 10
786.9715868310707
 20
174.1868519053572
 30
0.0
 11
786.471589543082
 21
173.936855124008
 31
0.0
  0
LINE
  5
AC8E
330
1F
100
AcDbEntity
  8
0
  6
Continuous
 62
     7
370
    15
100
AcDbLine
 10
786.9715868310707
 20
174.1868519053572
 30
0.0
 11
786.9715868310707
 21
173.4305062160605
 31
0.0
  0
LINE
  5
AC8F
330
1F
100
AcDbEntity
  8
0
  6
Continuous
 62
     7
370
    15
100
AcDbLine
 10
786.471589543082
 20
173.936855124008
 30
0.0
 11
786.471589543082
 21
173.4305062160605
 31
0.0
  0
LINE
  5
AC90
330
1F
100
AcDbEntity
  8
0
  6
Continuous
 62
     7
370
    15
100
AcDbLine
 10
795.0715898351456
 20
109.4305031762237
 30
0.0
 11
795.0715898351456
 21
109.3571671114082
 31
0.0
  0
LINE
  5
AC91
330
1F
100
AcDbEntity
  8
0
  6
Continuous
 62
     7
370
    15
100
AcDbLine
 10
794.5715888218667
 20
108.674157486927
 30
0.0
 11
795.0715898351456
 21
109.3571671114082
 31
0.0
  0
LINE
  5
AC92
330
1F
100
AcDbEntity
  8
0
  6
Continuous
 62
     7
370
    15
100
AcDbLine
 10
794.5715888218666
 20
109.4305031762237
 30
0.0
 11
794.5715888218667
 21
108.674157486927
 31
0.0
  0
LINE
  5
AC93
330
1F
100
AcDbEntity
  8
0
  6
Continuous
 62
     7
370
    15
100
AcDbLine
 10
786.9715868310716
 20
108.6741574869269
 30
0.0
 11
786.9715868310715
 21
109.4305031762236
 31
0.0
  0
LINE
  5
AC94
330
1F
100
AcDbEntity
  8
0
  6
Continuous
 62
     7
370
    15
100
AcDbLine
 10
786.4715895430829
 20
108.9241542682761
 30
0.0
 11
786.9715868310716
 21
108.6741574869269
 31
0.0
  0
LINE
  5
AC95
330
1F
100
AcDbEntity
  8
0
  6
Continuous
 62
     7
370
    15
100
AcDbLine
 10
786.4715895430828
 20
109.4305031762236
 30
0.0
 11
786.4715895430829
 21
108.9241542682761
 31
0.0
  0
LINE
  5
AC96
330
1F
100
AcDbEntity
  8
0
  6
Continuous
 62
     7
370
    15
100
AcDbLine
 10
794.5715888218658
 20
174.1868519053573
 30
0.0
 11
786.9715868310707
 21
174.1868519053572
 31
0.0
  0
LINE
  5
AC97
330
1F
100
AcDbEntity
  8
0
  6
Continuous
 62
     7
370
    15
100
AcDbLine
 10
794.5715888218667
 20
108.674157486927
 30
0.0
 11
786.9715868310716
 21
108.6741574869269
 31
0.0
  0
LINE
  5
AC98
330
1F
100
AcDbEntity
  8
0
  6
Continuous
 62
     7
370
    15
100
AcDbLine
 10
827.0715886193032
 20
173.0904989705204
 30
0.0
 11
827.0715886193032
 21
173.430506216061
 31
0.0
  0
LINE
  5
AC99
330
1F
100
AcDbEntity
  8
0
  6
Continuous
 62
     7
370
    15
100
AcDbLine
 10
827.0715886193039
 20
109.4305031762241
 30
0.0
 11
827.0715886193039
 21
109.7705104217648
 31
0.0
  0
LINE
  5
AC9A
330
1F
100
AcDbEntity
  8
0
  6
Continuous
 62
     7
370
    15
100
AcDbLine
 10
780.5715885596063
 20
109.7705089018457
 30
0.0
 11
780.5715885596063
 21
109.4305016563051
 31
0.0
  0
LINE
  5
AC9B
330
1F
100
AcDbEntity
  8
0
  6
Continuous
 62
     7
370
    15
100
AcDbLine
 10
780.5715885596055
 20
173.430504696142
 30
0.0
 11
780.5715885596055
 21
173.0904974506014
 31
0.0
  0
LINE
  5
AC9C
330
1F
100
AcDbEntity
  8
0
  6
Continuous
 62
     7
370
    15
100
AcDbLine
 10
688.0139341548193
 20
152.90042486198
 30
0.0
 11
682.9139344364513
 21
144.0669659820174
 31
0.0
  0
ARC
  5
AC9D
330
1F
100
AcDbEntity
  8
0
  6
Continuous
 62
     7
370
    15
100
AcDbCircle
 10
697.680418935429
 20
141.4305046961434
 30
0.0
 40
15.00000000000002
100
AcDbArc
 50
49.87687407007817
 51
130.123125929923
  0
LINE
  5
AC9E
330
1F
100
AcDbEntity
  8
0
  6
Continuous
 62
     7
370
    15
100
AcDbLine
 10
712.4469034344066
 20
144.0669659820176
 30
0.0
 11
707.3469037160385
 21
152.9004248619802
 31
0.0
  0
ARC
  5
AC9F
330
1F
100
AcDbEntity
  8
0
  6
Continuous
 62
     7
370
    15
100
AcDbCircle
 10
697.680418935429
 20
141.4305046961434
 30
0.0
 40
15.00000000000004
100
AcDbArc
 50
289.8768740700807
 51
10.12312592992267
  0
LINE
  5
ACA0
330
1F
100
AcDbEntity
  8
0
  6
Continuous
 62
     7
370
    15
100
AcDbLine
 10
692.5804187513998
 20
127.3241230116015
 30
0.0
 11
702.7804191194585
 21
127.3241230116017
 31
0.0
  0
ARC
  5
ACA1
330
1F
100
AcDbEntity
  8
0
  6
Continuous
 62
     7
370
    15
100
AcDbCircle
 10
697.680418935429
 20
141.4305046961434
 30
0.0
 40
15.0
100
AcDbArc
 50
169.8768740700773
 51
250.1231259299224
  0
CIRCLE
  5
ACA2
330
1F
100
AcDbEntity
  8
0
  6
Continuous
 62
     7
370
    15
100
AcDbCircle
 10
697.680418935429
 20
141.4305046961434
 30
0.0
 40
3.75
  0
LINE
  5
ACA3
330
1F
100
AcDbEntity
  8
0
  6
Continuous
 62
     7
370
    15
100
AcDbLine
 10
692.5804187513998
 20
127.3241230116015
 30
0.0
 11
692.5804187514001
 21
109.9408232436304
 31
0.0
  0
SPLINE
  5
ACA4
330
1F
100
AcDbEntity
  8
0
  6
Continuous
 62
     7
370
    15
100
AcDbSpline
210
0.0
220
0.0
230
1.0
 70
     8
 71
     3
 72
    10
 73
     6
 74
     0
 42
0.0000000001
 43
0.0000000001
 40
0.0
 40
0.0
 40
0.0
 40
0.0
 40
0.5
 40
0.5
 40
1.0
 40
1.0
 40
1.0
 40
1.0
 10
692.5804189354287
 20
109.9408238466973
 30
0.0
 10
692.5264534407483
 20
109.9905654903358
 30
0.0
 10
692.4787747082109
 20
110.0510949862492
 30
0.0
 10
692.4048712389179
 20
110.2003575330881
 30
0.0
 10
692.3804189354293
 20
110.2877473815966
 30
0.0
 10
692.3804189354293
 20
110.3795787840225
 30
0.0
  0
LINE
  5
ACA5
330
1F
100
AcDbEntity
  8
0
  6
Continuous
 62
     7
370
    15
100
AcDbLine
 10
692.3804190911463
 20
127.3980420843487
 30
0.0
 11
692.3804190911465
 21
110.3795786217575
 31
0.0
  0
LINE
  5
ACA6
330
1F
100
AcDbEntity
  8
0
  6
Continuous
 62
     7
370
    15
100
AcDbLine
 10
672.9595545649634
 20
161.5920738146427
 30
0.0
 11
688.0139341548193
 21
152.90042486198
 31
0.0
  0
SPLINE
  5
ACA7
330
1F
100
AcDbEntity
  8
0
  6
Continuous
 62
     7
370
    15
100
AcDbSpline
210
0.0
220
0.0
230
1.0
 70
     8
 71
     3
 72
    10
 73
     6
 74
     0
 42
0.0000000001
 43
0.0000000001
 40
0.0
 40
0.0
 40
0.0
 40
0.0
 40
0.5
 40
0.5
 40
1.0
 40
1.0
 40
1.0
 40
1.0
 10
672.9595553627441
 20
161.592074680167
 30
0.0
 10
673.0296156371013
 20
161.6139393476688
 30
0.0
 10
673.1058750845094
 20
161.6249655933098
 30
0.0
 10
673.272091976552
 20
161.614336601726
 30
0.0
 10
673.3599999571376
 20
161.5918179934739
 30
0.0
 10
673.4395282845038
 20
161.5459022922611
 30
0.0
  0
LINE
  5
ACA8
330
1F
100
AcDbEntity
  8
0
  6
Continuous
 62
     7
370
    15
100
AcDbLine
 10
688.1779503047574
 20
153.0366708353882
 30
0.0
 11
673.4395284175978
 21
161.5459025666836
 31
0.0
  0
LINE
  5
ACA9
330
1F
100
AcDbEntity
  8
0
  6
Continuous
 62
     7
370
    15
100
AcDbLine
 10
727.5012820929396
 20
152.7586151675115
 30
0.0
 11
712.4469034344066
 21
144.0669659820176
 31
0.0
  0
SPLINE
  5
ACAA
330
1F
100
AcDbEntity
  8
0
  6
Continuous
 62
     7
370
    15
100
AcDbSpline
210
0.0
220
0.0
230
1.0
 70
     8
 71
     3
 72
    10
 73
     6
 74
     0
 42
0.0000000001
 43
0.0000000001
 40
0.0
 40
0.0
 40
0.0
 40
0.0
 40
0.5
 40
0.5
 40
1.0
 40
1.0
 40
1.0
 40
1.0
 10
727.5012825081139
 20
152.7586155615657
 30
0.0
 10
727.4851877284373
 20
152.6870092504253
 30
0.0
 10
727.4566070135665
 20
152.6154535088709
 30
0.0
 10
727.3642935908169
 20
152.4768199536157
 30
0.0
 10
727.3008379137199
 20
152.4119487133592
 30
0.0
 10
727.2213095863539
 20
152.3660330121462
 30
0.0
  0
LINE
  5
ACAB
330
1F
100
AcDbEntity
  8
0
  6
Continuous
 62
     7
370
    15
100
AcDbLine
 10
712.4828878760446
 20
143.8568011686928
 30
0.0
 11
727.2213097632039
 21
152.3660328999887
 31
0.0
  0
LINE
  5
ACAC
330
1F
100
AcDbEntity
  8
0
  6
Continuous
 62
     7
370
    15
100
AcDbLine
 10
707.1828875661004
 20
153.0366708353884
 30
0.0
 11
721.9213094532595
 21
161.5459025666843
 31
0.0
  0
SPLINE
  5
ACAD
330
1F
100
AcDbEntity
  8
0
  6
Continuous
 62
     7
370
    15
100
AcDbSpline
210
0.0
220
0.0
230
1.0
 70
     8
 71
     3
 72
    10
 73
     6
 74
     0
 42
0.0000000001
 43
0.0000000001
 40
0.0
 40
0.0
 40
0.0
 40
0.0
 40
0.5
 40
0.5
 40
1.0
 40
1.0
 40
1.0
 40
1.0
 10
721.9213095863538
 20
161.5459022922613
 30
0.0
 10
722.0008493093565
 20
161.5918245727481
 30
0.0
 10
722.0885838475716
 20
161.6142901296442
 30
0.0
 10
722.2545870399904
 20
161.624977558606
 30
0.0
 10
722.3312051007548
 20
161.6139446945993
 30
0.0
 10
722.4012825081139
 20
161.5920746801672
 30
0.0
  0
LINE
  5
ACAE
330
1F
100
AcDbEntity
  8
0
  6
Continuous
 62
     7
370
    15
100
AcDbLine
 10
707.3469037160385
 20
152.9004248619802
 30
0.0
 11
722.401283305894
 21
161.5920738146434
 31
0.0
  0
LINE
  5
ACAF
330
1F
100
AcDbEntity
  8
0
  6
Continuous
 62
     7
370
    15
100
AcDbLine
 10
682.8779499948133
 20
143.8568011686926
 30
0.0
 11
668.1395281076539
 21
152.366032899988
 31
0.0
  0
SPLINE
  5
ACB0
330
1F
100
AcDbEntity
  8
0
  6
Continuous
 62
     7
370
    15
100
AcDbSpline
210
0.0
220
0.0
230
1.0
 70
     8
 71
     3
 72
    10
 73
     6
 74
     0
 42
0.0000000001
 43
0.0000000001
 40
0.0
 40
0.0
 40
0.0
 40
0.0
 40
0.5
 40
0.5
 40
1.0
 40
1.0
 40
1.0
 40
1.0
 10
668.139528284504
 20
152.3660330121457
 30
0.0
 10
668.0599885615014
 20
152.4119552926326
 30
0.0
 10
667.9966655494115
 20
152.4767028530683
 30
0.0
 10
667.90440836822
 20
152.6151221203312
 30
0.0
 10
667.8756540783441
 20
152.6869917393452
 30
0.0
 10
667.8595553627438
 20
152.7586155615657
 30
0.0
  0
LINE
  5
ACB1
330
1F
100
AcDbEntity
  8
0
  6
Continuous
 62
     7
370
    15
100
AcDbLine
 10
682.9139344364513
 20
144.0669659820174
 30
0.0
 11
667.8595557779181
 21
152.7586151675108
 31
0.0
  0
LINE
  5
ACB2
330
1F
100
AcDbEntity
  8
0
  6
Continuous
 62
     7
370
    15
100
AcDbLine
 10
702.9804187797123
 20
110.3795786217578
 30
0.0
 11
702.980418779712
 21
127.3980420843489
 31
0.0
  0
SPLINE
  5
ACB3
330
1F
100
AcDbEntity
  8
0
  6
Continuous
 62
     7
370
    15
100
AcDbSpline
210
0.0
220
0.0
230
1.0
 70
     8
 71
     3
 72
    10
 73
     6
 74
     0
 42
0.0000000001
 43
0.0000000001
 40
0.0
 40
0.0
 40
0.0
 40
0.0
 40
0.5000000000000079
 40
0.5000000000000079
 40
1.0
 40
1.0
 40
1.0
 40
1.0
 10
702.9804189354294
 20
110.3795787840228
 30
0.0
 10
702.9804189354294
 20
110.2877342230491
 30
0.0
 10
702.956007409304
 20
110.2005211057175
 30
0.0
 10
702.8822613980767
 20
110.0514144094926
 30
0.0
 10
702.8343976271883
 20
109.9905776544852
 30
0.0
 10
702.7804189354294
 20
109.9408238466968
 30
0.0
  0
LINE
  5
ACB4
330
1F
100
AcDbEntity
  8
0
  6
Continuous
 62
     7
370
    15
100
AcDbLine
 10
702.7804191194587
 20
109.9408232436307
 30
0.0
 11
702.7804191194585
 21
127.3241230116017
 31
0.0
  0
SPLINE
  5
ACB5
330
1F
100
AcDbEntity
  8
0
  6
Continuous
 62
     7
370
    15
100
AcDbSpline
210
0.0
220
0.0
230
1.0
 70
     8
 71
     3
 72
     8
 73
     4
 74
     0
 42
0.0000000001
 43
0.0000000001
 40
0.0
 40
0.0
 40
0.0
 40
0.0
 40
1.0
 40
1.0
 40
1.0
 40
1.0
 10
668.2464719539709
 20
130.2103101749813
 30
0.0
 10
667.8455705994807
 20
131.2619950803188
 30
0.0
 10
667.5019787565654
 20
132.3322350031245
 30
0.0
 10
667.2157873846799
 20
133.4207466175802
 30
0.0
  0
LINE
  5
ACB6
330
1F
100
AcDbEntity
  8
0
  6
Continuous
 62
     7
370
    15
100
AcDbLine
 10
668.7750179290881
 20
133.7529612534466
 30
0.0
 11
667.2428041666855
 21
133.4272791460874
 31
0.0
  0
LINE
  5
ACB7
330
1F
100
AcDbEntity
  8
0
  6
Continuous
 62
     7
370
    15
100
AcDbLine
 10
668.9101602852454
 20
133.1171654925468
 30
0.0
 11
668.7750179290881
 21
133.7529612534466
 31
0.0
  0
LINE
  5
ACB8
330
1F
100
AcDbEntity
  8
0
  6
Continuous
 62
     7
370
    15
100
AcDbLine
 10
668.9101602852454
 20
133.1171654925468
 30
0.0
 11
672.9401290387024
 21
133.9737615377429
 31
0.0
  0
LINE
  5
ACB9
330
1F
100
AcDbEntity
  8
0
  6
Continuous
 62
     7
370
    15
100
AcDbLine
 10
672.9401290387024
 20
133.9737615377429
 30
0.0
 11
672.0461077958455
 21
138.1797958926084
 31
0.0
  0
LINE
  5
ACBA
330
1F
100
AcDbEntity
  8
0
  6
Continuous
 62
     7
370
    15
100
AcDbLine
 10
672.0461077958455
 20
138.1797958926084
 30
0.0
 11
668.0161390423884
 21
137.3231998474124
 31
0.0
  0
LINE
  5
ACBB
330
1F
100
AcDbEntity
  8
0
  6
Continuous
 62
     7
370
    15
100
AcDbLine
 10
668.1512832611908
 20
136.6874040865126
 30
0.0
 11
668.0161390423884
 21
137.3231998474124
 31
0.0
  0
LINE
  5
ACBC
330
1F
100
AcDbEntity
  8
0
  6
Continuous
 62
     7
370
    15
100
AcDbLine
 10
666.6190694987883
 20
136.3617219791534
 30
0.0
 11
668.1512832611908
 21
136.6874040865126
 31
0.0
  0
ARC
  5
ACBD
330
1F
100
AcDbEntity
  8
0
  6
Continuous
 62
     7
370
    15
100
AcDbCircle
 10
666.5151134564045
 20
136.8507957098555
 30
0.0
 40
0.5000000000000118
100
AcDbArc
 50
278.8144573071073
 51
282.0000000000014
  0
SPLINE
  5
ACBE
330
1F
100
AcDbEntity
  8
0
  6
Continuous
 62
     7
370
    15
100
AcDbSpline
210
0.0
220
0.0
230
1.0
 70
     8
 71
     3
 72
     8
 73
     4
 74
     0
 42
0.0000000001
 43
0.0000000001
 40
0.0
 40
0.0
 40
0.0
 40
0.0
 40
1.0
 40
1.0
 40
1.0
 40
1.0
 10
666.5917310507628
 20
136.3567008361373
 30
0.0
 10
665.7136378587515
 20
141.7370359719253
 30
0.0
 10
666.2469811482186
 20
147.2535659790793
 30
0.0
 10
668.139528284504
 20
152.3660330121457
 30
0.0
  0
SPLINE
  5
ACBF
330
1F
100
AcDbEntity
  8
0
  6
Continuous
 62
     7
370
    15
100
AcDbSpline
210
0.0
220
0.0
230
1.0
 70
     8
 71
     3
 72
     8
 73
     4
 74
     0
 42
0.0000000001
 43
0.0000000001
 40
0.0
 40
0.0
 40
0.0
 40
0.0
 40
1.0
 40
1.0
 40
1.0
 40
1.0
 10
692.3804189354293
 20
110.3795787840225
 30
0.0
 10
687.0066190406406
 20
111.296818402673
 30
0.0
 10
681.9624922689727
 20
113.5931945686335
 30
0.0
 10
677.7420319565118
 20
117.0438131476993
 30
0.0
  0
LINE
  5
ACC0
330
1F
100
AcDbEntity
  8
0
  6
Continuous
 62
     7
370
    15
100
AcDbLine
 10
678.8082044541948
 20
118.2290726170662
 30
0.0
 11
677.7600493252389
 21
117.0649790034416
 31
0.0
  0
LINE
  5
ACC1
330
1F
100
AcDbEntity
  8
0
  6
Continuous
 62
     7
370
    15
100
AcDbLine
 10
679.2912498086803
 20
117.7941375241402
 30
0.0
 11
678.8082044541948
 21
118.2290726170662
 31
0.0
  0
LINE
  5
ACC2
330
1F
100
AcDbEntity
  8
0
  6
Continuous
 62
     7
370
    15
100
AcDbLine
 10
679.2912498086803
 20
117.7941375241402
 30
0.0
 11
682.0480670750253
 21
120.8558940158015
 31
0.0
  0
LINE
  5
ACC3
330
1F
100
AcDbEntity
  8
0
  6
Continuous
 62
     7
370
    15
100
AcDbLine
 10
682.0480670750253
 20
120.8558940158015
 30
0.0
 11
678.852544721972
 21
123.733155505431
 31
0.0
  0
LINE
  5
ACC4
330
1F
100
AcDbEntity
  8
0
  6
Continuous
 62
     7
370
    15
100
AcDbLine
 10
678.852544721972
 20
123.733155505431
 30
0.0
 11
676.095725592982
 21
120.6713990137699
 31
0.0
  0
LINE
  5
ACC5
330
1F
100
AcDbEntity
  8
0
  6
Continuous
 62
     7
370
    15
100
AcDbLine
 10
676.5787709474675
 20
120.2364639208439
 30
0.0
 11
676.095725592982
 21
120.6713990137699
 31
0.0
  0
LINE
  5
ACC6
330
1F
100
AcDbEntity
  8
0
  6
Continuous
 62
     7
370
    15
100
AcDbLine
 10
675.5306158185117
 20
119.0723703072193
 30
0.0
 11
676.5787709474675
 21
120.2364639208439
 31
0.0
  0
ARC
  5
ACC7
330
1F
100
AcDbEntity
  8
0
  6
Continuous
 62
     7
370
    15
100
AcDbCircle
 10
675.1590425699427
 20
119.4069353531844
 30
0.0
 40
0.4999999999999974
100
AcDbArc
 50
314.8144573071068
 51
318.0000000000001
  0
SPLINE
  5
ACC8
330
1F
100
AcDbEntity
  8
0
  6
Continuous
 62
     7
370
    15
100
AcDbSpline
210
0.0
220
0.0
230
1.0
 70
     8
 71
     3
 72
     8
 73
     4
 74
     0
 42
0.0000000001
 43
0.0000000001
 40
0.0
 40
0.0
 40
0.0
 40
0.0
 40
1.0
 40
1.0
 40
1.0
 40
1.0
 10
675.5114491858518
 20
119.0522388955427
 30
0.0
 10
674.7118661613614
 20
119.8443437011673
 30
0.0
 10
673.9568071215248
 20
120.6770229270681
 30
0.0
 10
673.2464719539708
 20
121.5500561371369
 30
0.0
  0
ARC
  5
ACC9
330
1F
100
AcDbEntity
  8
0
  6
Continuous
 62
     7
370
    15
100
AcDbCircle
 10
673.4317076294647
 20
127.4305046961432
 30
0.0
 40
5.000000000000008
100
AcDbArc
 50
300.0000000000012
 51
120.0000000000005
  0
LINE
  5
ACCA
330
1F
100
AcDbEntity
  8
0
  6
Continuous
 62
     7
370
    15
100
AcDbLine
 10
670.9317076921572
 20
131.7606317640069
 30
0.0
 11
668.2464718788971
 21
130.2103102967861
 31
0.0
  0
LINE
  5
ACCB
330
1F
100
AcDbEntity
  8
0
  6
Continuous
 62
     7
370
    15
100
AcDbLine
 10
673.2464726984611
 20
121.5500552967909
 30
0.0
 11
675.9317085117212
 21
123.1003776953342
 31
0.0
  0
ARC
  5
ACCC
330
1F
100
AcDbEntity
  8
0
  6
Continuous
 62
     7
370
    15
100
AcDbCircle
 10
678.1316218718524
 20
116.7304129277489
 30
0.0
 40
0.5000000000000224
100
AcDbArc
 50
138.0
 51
141.1855426928996
  0
ARC
  5
ACCD
330
1F
100
AcDbEntity
  8
0
  6
Continuous
 62
     7
370
    15
100
AcDbCircle
 10
667.3467602196756
 20
132.9382053069204
 30
0.0
 40
0.5000000000000023
100
AcDbArc
 50
102.0000000000005
 51
105.1855426928987
  0
SPLINE
  5
ACCE
330
1F
100
AcDbEntity
  8
0
  6
Continuous
 62
     7
370
    15
100
AcDbSpline
210
0.0
220
0.0
230
1.0
 70
     8
 71
     3
 72
     8
 73
     4
 74
     0
 42
0.0000000001
 43
0.0000000001
 40
0.0
 40
0.0
 40
0.0
 40
0.0
 40
1.0
 40
1.0
 40
1.0
 40
1.0
 10
722.1143659168873
 20
121.5500561371374
 30
0.0
 10
721.4040307493335
 20
120.6770229270686
 30
0.0
 10
720.648971709497
 20
119.844343701168
 30
0.0
 10
719.8493886850068
 20
119.0522388955434
 30
0.0
  0
ARC
  5
ACCF
330
1F
100
AcDbEntity
  8
0
  6
Continuous
 62
     7
370
    15
100
AcDbCircle
 10
720.2017953009158
 20
119.406935353185
 30
0.0
 40
0.4999999999999974
100
AcDbArc
 50
222.000000000001
 51
225.1855426928949
  0
LINE
  5
ACD0
330
1F
100
AcDbEntity
  8
0
  6
Continuous
 62
     7
370
    15
100
AcDbLine
 10
719.8302220523469
 20
119.07237030722
 30
0.0
 11
718.7820669233911
 21
120.2364639208446
 31
0.0
  0
LINE
  5
ACD1
330
1F
100
AcDbEntity
  8
0
  6
Continuous
 62
     7
370
    15
100
AcDbLine
 10
718.7820669233911
 20
120.2364639208446
 30
0.0
 11
719.2651122778766
 21
120.6713990137706
 31
0.0
  0
LINE
  5
ACD2
330
1F
100
AcDbEntity
  8
0
  6
Continuous
 62
     7
370
    15
100
AcDbLine
 10
719.2651122778766
 20
120.6713990137706
 30
0.0
 11
716.5082931488862
 21
123.7331555054317
 31
0.0
  0
LINE
  5
ACD3
330
1F
100
AcDbEntity
  8
0
  6
Continuous
 62
     7
370
    15
100
AcDbLine
 10
716.5082931488862
 20
123.7331555054317
 30
0.0
 11
713.3127707958333
 21
120.8558940158017
 31
0.0
  0
LINE
  5
ACD4
330
1F
100
AcDbEntity
  8
0
  6
Continuous
 62
     7
370
    15
100
AcDbLine
 10
713.3127707958333
 20
120.8558940158017
 30
0.0
 11
716.0695880621783
 21
117.7941375241408
 31
0.0
  0
LINE
  5
ACD5
330
1F
100
AcDbEntity
  8
0
  6
Continuous
 62
     7
370
    15
100
AcDbLine
 10
716.0695880621783
 20
117.7941375241408
 30
0.0
 11
716.5526334166639
 21
118.2290726170669
 31
0.0
  0
LINE
  5
ACD6
330
1F
100
AcDbEntity
  8
0
  6
Continuous
 62
     7
370
    15
100
AcDbLine
 10
716.5526334166639
 20
118.2290726170669
 30
0.0
 11
717.6007885456197
 21
117.0649790034423
 31
0.0
  0
ARC
  5
ACD7
330
1F
100
AcDbEntity
  8
0
  6
Continuous
 62
     7
370
    15
100
AcDbCircle
 10
717.2292159990062
 20
116.7304129277496
 30
0.0
 40
0.5000000000000004
100
AcDbArc
 50
38.81445730710693
 51
42.00000000000101
  0
SPLINE
  5
ACD8
330
1F
100
AcDbEntity
  8
0
  6
Continuous
 62
     7
370
    15
100
AcDbSpline
210
0.0
220
0.0
230
1.0
 70
     8
 71
     3
 72
     8
 73
     4
 74
     0
 42
0.0000000001
 43
0.0000000001
 40
0.0
 40
0.0
 40
0.0
 40
0.0
 40
1.0
 40
1.0
 40
1.0
 40
1.0
 10
717.6188059143468
 20
117.0438131477
 30
0.0
 10
713.3983456018859
 20
113.5931945686339
 30
0.0
 10
708.3542188302179
 20
111.2968184026734
 30
0.0
 10
702.9804189354294
 20
110.3795787840228
 30
0.0
  0
SPLINE
  5
ACD9
330
1F
100
AcDbEntity
  8
0
  6
Continuous
 62
     7
370
    15
100
AcDbSpline
210
0.0
220
0.0
230
1.0
 70
     8
 71
     3
 72
     8
 73
     4
 74
     0
 42
0.0000000001
 43
0.0000000001
 40
0.0
 40
0.0
 40
0.0
 40
0.0
 40
1.0
 40
1.0
 40
1.0
 40
1.0
 10
727.2213095863539
 20
152.3660330121462
 30
0.0
 10
728.5170592789286
 20
148.8657357358541
 30
0.0
 10
729.1804189354288
 20
145.1629366497399
 30
0.0
 10
729.1804189354289
 20
141.4305046961436
 30
0.0
  0
SPLINE
  5
ACDA
330
1F
100
AcDbEntity
  8
0
  6
Continuous
 62
     7
370
    15
100
AcDbSpline
210
0.0
220
0.0
230
1.0
 70
     8
 71
     3
 72
     8
 73
     4
 74
     0
 42
0.0000000001
 43
0.0000000001
 40
0.0
 40
0.0
 40
0.0
 40
0.0
 40
0.9999999999999998
 40
0.9999999999999998
 40
0.9999999999999998
 40
0.9999999999999998
 10
729.1804189354289
 20
141.4305046961436
 30
0.0
 10
729.1804189354289
 20
139.7307651701907
 30
0.0
 10
729.0428892000249
 20
138.0342459665374
 30
0.0
 10
728.7691068200952
 20
136.356700836138
 30
0.0
  0
ARC
  5
ACDB
330
1F
100
AcDbEntity
  8
0
  6
Continuous
 62
     7
370
    15
100
AcDbCircle
 10
728.8457244144535
 20
136.8507957098564
 30
0.0
 40
0.5000000000000053
100
AcDbArc
 50
257.9999999999986
 51
261.1855426928991
  0
LINE
  5
ACDC
330
1F
100
AcDbEntity
  8
0
  6
Continuous
 62
     7
370
    15
100
AcDbLine
 10
728.7417683720698
 20
136.3617219791541
 30
0.0
 11
727.2095546096672
 21
136.6874040865133
 31
0.0
  0
LINE
  5
ACDD
330
1F
100
AcDbEntity
  8
0
  6
Continuous
 62
     7
370
    15
100
AcDbLine
 10
727.2095546096672
 20
136.6874040865133
 30
0.0
 11
727.3446988284697
 21
137.3231998474131
 31
0.0
  0
LINE
  5
ACDE
330
1F
100
AcDbEntity
  8
0
  6
Continuous
 62
     7
370
    15
100
AcDbLine
 10
727.3446988284697
 20
137.3231998474131
 30
0.0
 11
723.3147300750126
 21
138.1797958926091
 31
0.0
  0
LINE
  5
ACDF
330
1F
100
AcDbEntity
  8
0
  6
Continuous
 62
     7
370
    15
100
AcDbLine
 10
723.3147300750126
 20
138.1797958926091
 30
0.0
 11
722.4207088321557
 21
133.9737615377436
 31
0.0
  0
LINE
  5
ACE0
330
1F
100
AcDbEntity
  8
0
  6
Continuous
 62
     7
370
    15
100
AcDbLine
 10
722.4207088321557
 20
133.9737615377436
 30
0.0
 11
726.4506775856127
 21
133.1171654925475
 31
0.0
  0
LINE
  5
ACE1
330
1F
100
AcDbEntity
  8
0
  6
Continuous
 62
     7
370
    15
100
AcDbLine
 10
726.4506775856127
 20
133.1171654925475
 30
0.0
 11
726.58581994177
 21
133.7529612534473
 31
0.0
  0
LINE
  5
ACE2
330
1F
100
AcDbEntity
  8
0
  6
Continuous
 62
     7
370
    15
100
AcDbLine
 10
726.58581994177
 20
133.7529612534473
 30
0.0
 11
728.1180337041726
 21
133.4272791460881
 31
0.0
  0
ARC
  5
ACE3
330
1F
100
AcDbEntity
  8
0
  6
Continuous
 62
     7
370
    15
100
AcDbCircle
 10
728.0140776511826
 20
132.9382053069213
 30
0.0
 40
0.4999999999999949
100
AcDbArc
 50
74.81445730710767
 51
78.00000000000419
  0
SPLINE
  5
ACE4
330
1F
100
AcDbEntity
  8
0
  6
Continuous
 62
     7
370
    15
100
AcDbSpline
210
0.0
220
0.0
230
1.0
 70
     8
 71
     3
 72
     8
 73
     4
 74
     0
 42
0.0000000001
 43
0.0000000001
 40
0.0
 40
0.0
 40
0.0
 40
0.0
 40
1.0
 40
1.0
 40
1.0
 40
1.0
 10
728.1450504861782
 20
133.4207466175809
 30
0.0
 10
727.8588591142926
 20
132.3322350031252
 30
0.0
 10
727.5152672713772
 20
131.2619950803192
 30
0.0
 10
727.1143659168871
 20
130.2103101749818
 30
0.0
  0
ARC
  5
ACE5
330
1F
100
AcDbEntity
  8
0
  6
Continuous
 62
     7
370
    15
100
AcDbCircle
 10
721.9291302413934
 20
127.4305046961434
 30
0.0
 40
5.000000000000003
100
AcDbArc
 50
60.00000000000015
 51
240.0000000000002
  0
LINE
  5
ACE6
330
1F
100
AcDbEntity
  8
0
  6
Continuous
 62
     7
370
    15
100
AcDbLine
 10
719.4291293591371
 20
123.1003776953349
 30
0.0
 11
722.1143651723972
 21
121.5500552967916
 31
0.0
  0
LINE
  5
ACE7
330
1F
100
AcDbEntity
  8
0
  6
Continuous
 62
     7
370
    15
100
AcDbLine
 10
727.1143659919609
 20
130.2103102967868
 30
0.0
 11
724.4291301787009
 21
131.7606317640076
 31
0.0
  0
SPLINE
  5
ACE8
330
1F
100
AcDbEntity
  8
0
  6
Continuous
 62
     7
370
    15
100
AcDbSpline
210
0.0
220
0.0
230
1.0
 70
     8
 71
     3
 72
     8
 73
     4
 74
     0
 42
0.0000000001
 43
0.0000000001
 40
0.0
 40
0.0
 40
0.0
 40
0.0
 40
1.0
 40
1.0
 40
1.0
 40
1.0
 10
673.4395282845038
 20
161.5459022922611
 30
0.0
 10
678.3110872152532
 20
167.4165755800028
 30
0.0
 10
685.1484467322798
 20
171.3202448082064
 30
0.0
 10
692.6804189354285
 20
172.5311477763113
 30
0.0
  0
ARC
  5
ACE9
330
1F
100
AcDbEntity
  8
0
  6
Continuous
 62
     7
370
    15
100
AcDbCircle
 10
697.6804189354286
 20
169.4305046961434
 30
0.0
 40
5.0
100
AcDbArc
 50
180.0
 51
0.0
  0
SPLINE
  5
ACEA
330
1F
100
AcDbEntity
  8
0
  6
Continuous
 62
     7
370
    15
100
AcDbSpline
210
0.0
220
0.0
230
1.0
 70
     8
 71
     3
 72
     8
 73
     4
 74
     0
 42
0.0000000001
 43
0.0000000001
 40
0.0
 40
0.0
 40
0.0
 40
0.0
 40
1.0
 40
1.0
 40
1.0
 40
1.0
 10
702.6804189354286
 20
172.5311477763113
 30
0.0
 10
710.2123911385774
 20
171.3202448082066
 30
0.0
 10
717.0497506556042
 20
167.416575580003
 30
0.0
 10
721.9213095863538
 20
161.5459022922613
 30
0.0
  0
LINE
  5
ACEB
330
1F
100
AcDbEntity
  8
0
  6
Continuous
 62
     7
370
    15
100
AcDbLine
 10
702.6804188236699
 20
172.5311484948523
 30
0.0
 11
702.6804188236699
 21
169.4305055604108
 31
0.0
  0
LINE
  5
ACEC
330
1F
100
AcDbEntity
  8
0
  6
Continuous
 62
     7
370
    15
100
AcDbLine
 10
692.6804190471873
 20
169.4305055604105
 30
0.0
 11
692.6804190471873
 21
172.5311484948521
 31
0.0
  0
ARC
  5
ACED
330
1F
100
AcDbEntity
  8
0
  6
Continuous
 62
     7
370
    15
100
AcDbCircle
 10
697.680418935429
 20
141.4305046961434
 30
0.0
 40
32.00000000000001
100
AcDbArc
 50
195.6402758756134
 51
201.0107006548355
  0
SPLINE
  5
ACEE
330
1F
100
AcDbEntity
  8
0
  6
Continuous
 62
     7
370
    15
100
AcDbSpline
210
0.0
220
0.0
230
1.0
 70
    24
 71
     3
 72
    10
 73
     6
 74
     0
 42
0.0000000001
 43
0.0000000001
 40
0.0
 40
0.0
 40
0.0
 40
0.0
 40
0.5
 40
0.5
 40
1.0
 40
1.0
 40
1.0
 40
1.0
 10
667.807987549087
 20
129.9571510857862
 30
0.0
 10
667.807987549087
 20
129.9571510857862
 30
0.0
 10
667.8562226134218
 20
129.9849996131644
 30
0.0
 10
668.0183242339209
 20
130.0785890273954
 30
0.0
 10
668.131416043325
 20
130.1438826139982
 30
0.0
 10
668.2464719539709
 20
130.2103101749813
 30
0.0
  0
SPLINE
  5
ACEF
330
1F
100
AcDbEntity
  8
0
  6
Continuous
 62
     7
370
    15
100
AcDbSpline
210
0.0
220
0.0
230
1.0
 70
     8
 71
     3
 72
    12
 73
     8
 74
     0
 42
0.0000000001
 43
0.0000000001
 40
0.0
 40
0.0
 40
0.0
 40
0.0
 40
0.5000000000000032
 40
0.5000000000000032
 40
0.7500000000000016
 40
0.7500000000000016
 40
1.0
 40
1.0
 40
1.0
 40
1.0
 10
666.8467602196756
 20
132.9382053069347
 30
0.0
 10
666.8467602196782
 20
133.0309735953079
 30
0.0
 10
666.8716692161161
 20
133.1270597291435
 30
0.0
 10
666.9604914465633
 20
133.2601382169069
 30
0.0
 10
666.999222694862
 20
133.3026721439513
 30
0.0
 10
667.0955836326636
 20
133.3747012732086
 30
0.0
 10
667.1533460947854
 20
133.4037986121396
 30
0.0
 10
667.2157873846799
 20
133.42074661758
 30
0.0
  0
SPLINE
  5
ACF0
330
1F
100
AcDbEntity
  8
0
  6
Continuous
 62
     7
370
    15
100
AcDbSpline
210
0.0
220
0.0
230
1.0
 70
     8
 71
     3
 72
     8
 73
     4
 74
     0
 42
0.0000000001
 43
0.0000000001
 40
0.0
 40
0.0
 40
0.0
 40
0.0
 40
1.0
 40
1.0
 40
1.0
 40
1.0
 10
666.8652735733937
 20
132.8034069039168
 30
0.0
 10
666.8530080730451
 20
132.8472180655943
 30
0.0
 10
666.8467602196742
 20
132.892709588605
 30
0.0
 10
666.8467602196756
 20
132.9382053069347
 30
0.0
  0
ARC
  5
ACF1
330
1F
100
AcDbEntity
  8
0
  6
Continuous
 62
     7
370
    15
100
AcDbCircle
 10
697.680418935429
 20
141.4305046961434
 30
0.0
 40
31.99999999999998
100
AcDbArc
 50
315.6402758756179
 51
321.0107006548394
  0
SPLINE
  5
ACF2
330
1F
100
AcDbEntity
  8
0
  6
Continuous
 62
     7
370
    15
100
AcDbSpline
210
0.0
220
0.0
230
1.0
 70
     8
 71
     3
 72
    15
 73
    11
 74
     0
 42
0.0000000001
 43
0.0000000001
 40
0.0
 40
0.0
 40
0.0
 40
0.0
 40
0.1028762759854773
 40
0.1861615179472658
 40
0.2498549551051409
 40
0.4987870116009259
 40
0.6318616253158927
 40
0.749426523554928
 40
0.8789225413122084
 40
1.0
 40
1.0
 40
1.0
 40
1.0
 10
720.5592774654474
 20
119.0573548874237
 30
0.0
 10
720.5423224444091
 20
119.0413387682848
 30
0.0
 10
720.5116411972213
 20
119.0123565270247
 30
0.0
 10
720.4642199059378
 20
118.9804003253638
 30
0.0
 10
720.3841832399277
 20
118.9366466232569
 30
0.0
 10
720.2794772639935
 20
118.9055904752284
 30
0.0
 10
720.1478630417948
 20
118.9062683555188
 30
0.0
 10
720.0431157144464
 20
118.928972606733
 30
0.0
 10
719.9394715988522
 20
118.9742857631519
 30
0.0
 10
719.8787361431954
 20
119.0268431107505
 30
0.0
 10
719.8493886850068
 20
119.0522388955434
 30
0.0
  0
SPLINE
  5
ACF3
330
1F
100
AcDbEntity
  8
0
  6
Continuous
 62
     7
370
    15
100
AcDbSpline
210
0.0
220
0.0
230
1.0
 70
    24
 71
     3
 72
    10
 73
     6
 74
     0
 42
0.0000000001
 43
0.0000000001
 40
0.0
 40
0.0
 40
0.0
 40
0.0
 40
0.5
 40
0.5
 40
1.0
 40
1.0
 40
1.0
 40
1.0
 10
722.552850321771
 20
121.2968970479422
 30
0.0
 10
722.552850321771
 20
121.2968970479422
 30
0.0
 10
722.5046152574364
 20
121.3247455753202
 30
0.0
 10
722.3425136369374
 20
121.4183349895514
 30
0.0
 10
722.2294218275331
 20
121.483628576154
 30
0.0
 10
722.1143659168873
 20
121.5500561371374
 30
0.0
  0
SPLINE
  5
ACF4
330
1F
100
AcDbEntity
  8
0
  6
Continuous
 62
     7
370
    15
100
AcDbSpline
210
0.0
220
0.0
230
1.0
 70
    24
 71
     3
 72
     8
 73
     4
 74
     0
 42
0.0000000001
 43
0.0000000001
 40
0.0
 40
0.0
 40
0.0
 40
0.0
 40
1.0
 40
1.0
 40
1.0
 40
1.0
 10
672.871827962939
 20
161.6427241180596
 30
0.0
 10
672.871827962939
 20
161.6427241180596
 30
0.0
 10
672.9027732608893
 20
161.6248578419578
 30
0.0
 10
672.959555362744
 20
161.5920746801668
 30
0.0
  0
ARC
  5
ACF5
330
1F
100
AcDbEntity
  8
0
  6
Continuous
 62
     7
370
    15
100
AcDbCircle
 10
697.680418935429
 20
141.4305046961434
 30
0.0
 40
32.00000000000001
100
AcDbArc
 50
98.98929934516317
 51
140.8293791408692
  0
SPLINE
  5
ACF6
330
1F
100
AcDbEntity
  8
0
  6
Continuous
 62
     7
370
    15
100
AcDbSpline
210
0.0
220
0.0
230
1.0
 70
    24
 71
     3
 72
    10
 73
     6
 74
     0
 42
0.0000000001
 43
0.0000000001
 40
0.0
 40
0.0
 40
0.0
 40
0.0
 40
0.5
 40
0.5
 40
1.0
 40
1.0
 40
1.0
 40
1.0
 10
692.6804189354286
 20
172.5311477763113
 30
0.0
 10
692.6804189354286
 20
172.6640308815712
 30
0.0
 10
692.6804189354286
 20
172.7941698222411
 30
0.0
 10
692.6804189354286
 20
172.9816748576223
 30
0.0
 10
692.6804189354286
 20
173.0374659547013
 30
0.0
 10
692.6804189354286
 20
173.0374659547013
 30
0.0
  0
ARC
  5
ACF7
330
1F
100
AcDbEntity
  8
0
  6
Continuous
 62
     7
370
    15
100
AcDbCircle
 10
697.680418935429
 20
141.4305046961434
 30
0.0
 40
32.00000000000003
100
AcDbArc
 50
39.17062085913125
 51
81.0107006548384
  0
SPLINE
  5
ACF8
330
1F
100
AcDbEntity
  8
0
  6
Continuous
 62
     7
370
    15
100
AcDbSpline
210
0.0
220
0.0
230
1.0
 70
    24
 71
     3
 72
     8
 73
     4
 74
     0
 42
0.0000000001
 43
0.0000000001
 40
0.0
 40
0.0
 40
0.0
 40
0.0
 40
1.0
 40
1.0
 40
1.0
 40
1.0
 10
722.4012825081139
 20
161.5920746801672
 30
0.0
 10
722.4580638528022
 20
161.624857404808
 30
0.0
 10
722.4890099079186
 20
161.6427241180598
 30
0.0
 10
722.4890099079186
 20
161.6427241180598
 30
0.0
  0
SPLINE
  5
ACF9
330
1F
100
AcDbEntity
  8
0
  6
Continuous
 62
     7
370
    15
100
AcDbSpline
210
0.0
220
0.0
230
1.0
 70
    24
 71
     3
 72
    10
 73
     6
 74
     0
 42
0.0000000001
 43
0.0000000001
 40
0.0
 40
0.0
 40
0.0
 40
0.0
 40
0.5
 40
0.5
 40
1.0
 40
1.0
 40
1.0
 40
1.0
 10
702.6804189354286
 20
173.0374659547016
 30
0.0
 10
702.6804189354286
 20
173.0374659547016
 30
0.0
 10
702.6804189354286
 20
172.9817688999454
 30
0.0
 10
702.6804189354286
 20
172.7945900714832
 30
0.0
 10
702.6804189354286
 20
172.6640028982777
 30
0.0
 10
702.6804189354286
 20
172.5311477763113
 30
0.0
  0
SPLINE
  5
ACFA
330
1F
100
AcDbEntity
  8
0
  6
Continuous
 62
     7
370
    15
100
AcDbSpline
210
0.0
220
0.0
230
1.0
 70
    24
 71
     3
 72
     8
 73
     4
 74
     0
 42
0.0000000001
 43
0.0000000001
 40
0.0
 40
0.0
 40
0.0
 40
0.0
 40
1.0
 40
1.0
 40
1.0
 40
1.0
 10
692.5804189354294
 20
109.8395249709116
 30
0.0
 10
692.5804189354294
 20
109.8395249709116
 30
0.0
 10
692.5804189354294
 20
109.8752575231152
 30
0.0
 10
692.5804189354294
 20
109.9408238466975
 30
0.0
  0
ARC
  5
ACFB
330
1F
100
AcDbEntity
  8
0
  6
Continuous
 62
     7
370
    15
100
AcDbCircle
 10
697.680418935429
 20
141.4305046961434
 30
0.0
 40
32.0
100
AcDbArc
 50
231.6402758756168
 51
260.8293791408694
  0
SPLINE
  5
ACFC
330
1F
100
AcDbEntity
  8
0
  6
Continuous
 62
     7
370
    15
100
AcDbSpline
210
0.0
220
0.0
230
1.0
 70
     8
 71
     3
 72
    10
 73
     6
 74
     0
 42
0.0000000001
 43
0.0000000001
 40
0.0
 40
0.0
 40
0.0
 40
0.0
 40
0.5
 40
0.5
 40
1.0
 40
1.0
 40
1.0
 40
1.0
 10
677.6316218718524
 20
116.7304129277491
 30
0.0
 10
677.6316218718524
 20
116.7818170159131
 30
0.0
 10
677.6395315346825
 20
116.8356384467098
 30
0.0
 10
677.6756662927971
 20
116.9433209353598
 30
0.0
 10
677.7038926616564
 20
116.9964019344712
 30
0.0
 10
677.7420319565118
 20
117.0438131476993
 30
0.0
  0
SPLINE
  5
ACFD
330
1F
100
AcDbEntity
  8
0
  6
Continuous
 62
     7
370
    15
100
AcDbSpline
210
0.0
220
0.0
230
1.0
 70
     8
 71
     3
 72
    13
 73
     9
 74
     0
 42
0.0000000001
 43
0.0000000001
 40
0.0
 40
0.0
 40
0.0
 40
0.0
 40
0.1575682730155075
 40
0.293344818246283
 40
0.4073347476719109
 40
0.4995513152095391
 40
0.7708925085916691
 40
1.0
 40
1.0
 40
1.0
 40
1.0
 10
677.8213235057639
 20
116.3383479790444
 30
0.0
 10
677.8043720420949
 20
116.352845454871
 30
0.0
 10
677.7728135060154
 20
116.3798354023398
 30
0.0
 10
677.73515383265
 20
116.4243068630395
 30
0.0
 10
677.7071492979432
 20
116.4648325482611
 30
0.0
 10
677.6730943025321
 20
116.5256805804296
 30
0.0
 10
677.6398890879272
 20
116.6100865057345
 30
0.0
 10
677.6342180819835
 20
116.6926260024962
 30
0.0
 10
677.6316218718524
 20
116.7304129277491
 30
0.0
  0
ARC
  5
ACFE
330
1F
100
AcDbEntity
  8
0
  6
Continuous
 62
     7
370
    15
100
AcDbCircle
 10
697.680418935429
 20
141.4305046961434
 30
0.0
 40
32.00000000000002
100
AcDbArc
 50
159.170620859131
 51
188.3597241243847
  0
SPLINE
  5
ACFF
330
1F
100
AcDbEntity
  8
0
  6
Continuous
 62
     7
370
    15
100
AcDbSpline
210
0.0
220
0.0
230
1.0
 70
    24
 71
     3
 72
     8
 73
     4
 74
     0
 42
0.0000000001
 43
0.0000000001
 40
0.0
 40
0.0
 40
0.0
 40
0.0
 40
1.0
 40
1.0
 40
1.0
 40
1.0
 10
667.8595553627437
 20
152.7586155615657
 30
0.0
 10
667.8027740180556
 20
152.7913982862063
 30
0.0
 10
667.7718279629391
 20
152.8092649994581
 30
0.0
 10
667.7718279629391
 20
152.8092649994581
 30
0.0
  0
SPLINE
  5
AD00
330
1F
100
AcDbEntity
  8
0
  6
Continuous
 62
     7
370
    15
100
AcDbSpline
210
0.0
220
0.0
230
1.0
 70
     8
 71
     3
 72
    16
 73
    12
 74
     0
 42
0.0000000001
 43
0.0000000001
 40
0.0
 40
0.0
 40
0.0
 40
0.0
 40
0.0599883986010576
 40
0.1213665539544244
 40
0.1848681419793869
 40
0.2511563690609058
 40
0.3685947599025384
 40
0.5016325230505934
 40
0.7504022379076734
 40
0.853162437951247
 40
1.0
 40
1.0
 40
1.0
 40
1.0
 10
666.5917310507628
 20
136.3567008361373
 30
0.0
 10
666.572713709639
 20
136.354399220687
 30
0.0
 10
666.5342384508993
 20
136.34974266805
 30
0.0
 10
666.4758711737333
 20
136.3512798809203
 30
0.0
 10
666.4175913274911
 20
136.359195323034
 30
0.0
 10
666.346393028789
 20
136.3777660312024
 30
0.0
 10
666.2644376842591
 20
136.4141348562583
 30
0.0
 10
666.1575356145706
 20
136.4907949240081
 30
0.0
 10
666.085749820322
 20
136.5851524131241
 30
0.0
 10
666.0385377175892
 20
136.6898312591444
 30
0.0
 10
666.027134527793
 20
136.7454069285496
 30
0.0
 10
666.0204260678484
 20
136.7781019164223
 30
0.0
  0
SPLINE
  5
AD01
330
1F
100
AcDbEntity
  8
0
  6
Continuous
 62
     7
370
    15
100
AcDbSpline
210
0.0
220
0.0
230
1.0
 70
    24
 71
     3
 72
     8
 73
     4
 74
     0
 42
0.0000000001
 43
0.0000000001
 40
0.0
 40
0.0
 40
0.0
 40
0.0
 40
1.0
 40
1.0
 40
1.0
 40
1.0
 10
727.5890099079187
 20
152.8092649994586
 30
0.0
 10
727.5890099079187
 20
152.8092649994586
 30
0.0
 10
727.5580646099683
 20
152.7913987233568
 30
0.0
 10
727.5012825081137
 20
152.758615561566
 30
0.0
  0
ARC
  5
AD02
330
1F
100
AcDbEntity
  8
0
  6
Continuous
 62
     7
370
    15
100
AcDbCircle
 10
697.680418935429
 20
141.4305046961434
 30
0.0
 40
32.00000000000002
100
AcDbArc
 50
351.6402758756153
 51
20.82937914086897
  0
SPLINE
  5
AD03
330
1F
100
AcDbEntity
  8
0
  6
Continuous
 62
     7
370
    15
100
AcDbSpline
210
0.0
220
0.0
230
1.0
 70
     8
 71
     3
 72
    15
 73
    11
 74
     0
 42
0.0000000001
 43
0.0000000001
 40
0.0
 40
0.0
 40
0.0
 40
0.0
 40
0.1028761440355684
 40
0.1861612841469753
 40
0.2498546495460442
 40
0.4987864045915043
 40
0.631860845825814
 40
0.7494256025949669
 40
0.8789221232383679
 40
1.0
 40
1.0
 40
1.0
 40
1.0
 10
729.3404118030096
 20
136.7781019164232
 30
0.0
 10
729.336108948198
 20
136.755178721923
 30
0.0
 10
729.3283226437567
 20
136.7136976636569
 30
0.0
 10
729.3087414357408
 20
136.6599710800741
 30
0.0
 10
729.2697082727435
 20
136.577529307622
 30
0.0
 10
729.2032538541443
 20
136.4908598115599
 30
0.0
 10
729.0963775187594
 20
136.4140473382468
 30
0.0
 10
728.9982899954962
 20
136.3708463915799
 30
0.0
 10
728.8878055640083
 20
136.3465848283295
 30
0.0
 10
728.8077768159118
 20
136.3534052159256
 30
0.0
 10
728.7691068200952
 20
136.356700836138
 30
0.0
  0
ARC
  5
AD04
330
1F
100
AcDbEntity
  8
0
  6
Continuous
 62
     7
370
    15
100
AcDbCircle
 10
697.680418935429
 20
141.4305046961434
 30
0.0
 40
32.0
100
AcDbArc
 50
338.9892993451647
 51
344.3597241243868
  0
SPLINE
  5
AD05
330
1F
100
AcDbEntity
  8
0
  6
Continuous
 62
     7
370
    15
100
AcDbSpline
210
0.0
220
0.0
230
1.0
 70
     8
 71
     3
 72
    16
 73
    12
 74
     0
 42
0.0000000001
 43
0.0000000001
 40
0.0
 40
0.0
 40
0.0
 40
0.0
 40
0.0599792922180378
 40
0.121347717891059
 40
0.1848386383589479
 40
0.2511149941241173
 40
0.3685011444316237
 40
0.5014708930590879
 40
0.74990746302812
 40
0.8526556425109729
 40
0.9999999999999998
 40
0.9999999999999998
 40
0.9999999999999998
 40
0.9999999999999998
 10
728.1450504861782
 20
133.4207466175809
 30
0.0
 10
728.1633571436818
 20
133.4151151295792
 30
0.0
 10
728.2003944448594
 20
133.4037217270887
 30
0.0
 10
728.2530829607644
 20
133.3785826010438
 30
0.0
 10
728.3030983374194
 20
133.3476539199772
 30
0.0
 10
728.3605745654792
 20
133.3017463739021
 30
0.0
 10
728.4206370412554
 20
133.2352190422499
 30
0.0
 10
728.4870833368146
 20
133.1218189517807
 30
0.0
 10
728.5143224474429
 20
133.0064999116829
 30
0.0
 10
728.5149539746531
 20
132.8916398660995
 30
0.0
 10
728.5027527582417
 20
132.8361180822286
 30
0.0
 10
728.4955642974644
 20
132.8034069039175
 30
0.0
  0
SPLINE
  5
AD06
330
1F
100
AcDbEntity
  8
0
  6
Continuous
 62
     7
370
    15
100
AcDbSpline
210
0.0
220
0.0
230
1.0
 70
    24
 71
     3
 72
    10
 73
     6
 74
     0
 42
0.0000000001
 43
0.0000000001
 40
0.0
 40
0.0
 40
0.0
 40
0.0
 40
0.5
 40
0.5
 40
1.0
 40
1.0
 40
1.0
 40
1.0
 10
727.1143659168871
 20
130.2103101749818
 30
0.0
 10
727.2294460617761
 20
130.1438686223517
 30
0.0
 10
727.3421496904179
 20
130.0787991520168
 30
0.0
 10
727.5045338143956
 20
129.985046634326
 30
0.0
 10
727.552850321771
 20
129.9571510857866
 30
0.0
 10
727.552850321771
 20
129.9571510857866
 30
0.0
  0
ARC
  5
AD07
330
1F
100
AcDbEntity
  8
0
  6
Continuous
 62
     7
370
    15
100
AcDbCircle
 10
697.680418935429
 20
141.4305046961434
 30
0.0
 40
32.00000000000001
100
AcDbArc
 50
218.9892993451616
 51
224.3597241243879
  0
SPLINE
  5
AD08
330
1F
100
AcDbEntity
  8
0
  6
Continuous
 62
     7
370
    15
100
AcDbSpline
210
0.0
220
0.0
230
1.0
 70
     8
 71
     3
 72
    16
 73
    12
 74
     0
 42
0.0000000001
 43
0.0000000001
 40
0.0
 40
0.0
 40
0.0
 40
0.0
 40
0.0599881951611164
 40
0.1213661329745934
 40
0.1848674822249845
 40
0.2511554432692797
 40
0.3685939763069317
 40
0.5016319129455093
 40
0.7504019309783558
 40
0.8531622510593157
 40
1.0
 40
1.0
 40
1.0
 40
1.0
 10
675.5114491858518
 20
119.0522388955427
 30
0.0
 10
675.4974167386241
 20
119.0391987796878
 30
0.0
 10
675.4690267553677
 20
119.0128164484544
 30
0.0
 10
675.4209032746248
 20
118.9797527411348
 30
0.0
 10
675.3691015203852
 20
118.9519004810826
 30
0.0
 10
675.3005854089004
 20
118.9250751195148
 30
0.0
 10
675.2129050487105
 20
118.9063258352836
 30
0.0
 10
675.0813595884476
 20
118.9055095299155
 30
0.0
 10
674.967821536496
 20
118.9396516899741
 30
0.0
 10
674.8680973160897
 20
118.9965881148879
 30
0.0
 10
674.8262053283541
 20
119.0348471934027
 30
0.0
 10
674.8015604054112
 20
119.0573548874232
 30
0.0
  0
SPLINE
  5
AD09
330
1F
100
AcDbEntity
  8
0
  6
Continuous
 62
     7
370
    15
100
AcDbSpline
210
0.0
220
0.0
230
1.0
 70
    24
 71
     3
 72
    10
 73
     6
 74
     0
 42
0.0000000001
 43
0.0000000001
 40
0.0
 40
0.0
 40
0.0
 40
0.0
 40
0.5
 40
0.5
 40
1.0
 40
1.0
 40
1.0
 40
1.0
 10
673.2464719539708
 20
121.5500561371369
 30
0.0
 10
673.131391809082
 20
121.4836145845071
 30
0.0
 10
673.0186881804402
 20
121.4185451141721
 30
0.0
 10
672.8563040564624
 20
121.3247925964814
 30
0.0
 10
672.8079875490871
 20
121.2968970479418
 30
0.0
 10
672.8079875490871
 20
121.2968970479418
 30
0.0
  0
ARC
  5
AD0A
330
1F
100
AcDbEntity
  8
0
  6
Continuous
 62
     7
370
    15
100
AcDbCircle
 10
697.680418935429
 20
141.4305046961434
 30
0.0
 40
32.00000000000315
100
AcDbArc
 50
279.1706208591331
 51
308.3597241243851
  0
SPLINE
  5
AD0B
330
1F
100
AcDbEntity
  8
0
  6
Continuous
 62
     7
370
    15
100
AcDbSpline
210
0.0
220
0.0
230
1.0
 70
    24
 71
     3
 72
     8
 73
     4
 74
     0
 42
0.0000000001
 43
0.0000000001
 40
0.0
 40
0.0
 40
0.0
 40
0.0
 40
1.0
 40
1.0
 40
1.0
 40
1.0
 10
702.7804189354294
 20
109.9408238466968
 30
0.0
 10
702.7804189354294
 20
109.8752583974152
 30
0.0
 10
702.7804189354294
 20
109.8395249709116
 30
0.0
 10
702.7804189354294
 20
109.8395249709116
 30
0.0
  0
SPLINE
  5
AD0C
330
1F
100
AcDbEntity
  8
0
  6
Continuous
 62
     7
370
    15
100
AcDbSpline
210
0.0
220
0.0
230
1.0
 70
     8
 71
     3
 72
    16
 73
    12
 74
     0
 42
0.0000000001
 43
0.0000000001
 40
0.0
 40
0.0
 40
0.0
 40
0.0
 40
0.0599796058438192
 40
0.1213483669783481
 40
0.1848396557236962
 40
0.2511164218560309
 40
0.3685024805821045
 40
0.5014721291265456
 40
0.7499074634585892
 40
0.8526555227271991
 40
1.0
 40
1.0
 40
1.0
 40
1.0
 10
717.6188059143468
 20
117.0438131477
 30
0.0
 10
717.6303062635345
 20
117.0284967123106
 30
0.0
 10
717.6535733152929
 20
116.9975091058351
 30
0.0
 10
717.6814229141257
 20
116.9462012882988
 30
0.0
 10
717.7037068190494
 20
116.8917808259124
 30
0.0
 10
717.7232221705889
 20
116.820856966354
 30
0.0
 10
717.7327097399163
 20
116.7317313797656
 30
0.0
 10
717.7198108055083
 20
116.6009331174633
 30
0.0
 10
717.6740649436294
 20
116.4916277001265
 30
0.0
 10
717.6070629957065
 20
116.3983329997687
 30
0.0
 10
717.564557119851
 20
116.3605866262154
 30
0.0
 10
717.5395143650947
 20
116.3383479790449
 30
0.0
  0
ARC
  5
AD0D
330
1F
100
AcDbEntity
  8
0
  6
Continuous
 62
     7
370
    15
100
AcDbCircle
 10
723.5886917585424
 20
156.3886529848062
 30
0.0
 40
1.249999999997483
100
AcDbArc
 50
300.0000000000019
 51
120.0000000008986
  0
LINE
  5
AD0E
330
1F
100
AcDbEntity
  8
0
  6
Continuous
 62
     7
370
    15
100
AcDbLine
 10
722.9636922448979
 20
157.4711856261621
 30
0.0
 11
722.8636924147711
 21
157.6443892732988
 31
0.0
  0
ARC
  5
AD0F
330
1F
100
AcDbEntity
  8
0
  6
Continuous
 62
     7
370
    15
100
AcDbCircle
 10
723.5886917585424
 20
156.3886529848062
 30
0.0
 40
1.450000000036469
100
AcDbArc
 50
300.0000000000019
 51
120.0000000010147
  0
SPLINE
  5
AD10
330
1F
100
AcDbEntity
  8
0
  6
Continuous
 62
     7
370
    15
100
AcDbSpline
210
0.0
220
0.0
230
1.0
 70
    24
 71
     3
 72
     8
 73
     4
 74
     0
 42
0.0000000001
 43
0.0000000001
 40
0.0
 40
0.0
 40
0.0
 40
0.0
 40
1.0
 40
1.0
 40
1.0
 40
1.0
 10
724.3136917585196
 20
155.1329161492964
 30
0.0
 10
724.2803584251945
 20
155.1906511762057
 30
0.0
 10
724.2470250918695
 20
155.2483862031148
 30
0.0
 10
724.2136917585447
 20
155.3061212300241
 30
0.0
  0
ARC
  5
AD11
330
1F
100
AcDbEntity
  8
0
  6
Continuous
 62
     7
370
    15
100
AcDbCircle
 10
723.5886917585424
 20
156.3886529848062
 30
0.0
 40
1.450000000036469
100
AcDbArc
 50
120.0000000010147
 51
300.0000000000019
  0
ARC
  5
AD12
330
1F
100
AcDbEntity
  8
0
  6
Continuous
 62
     7
370
    15
100
AcDbCircle
 10
723.5886917585424
 20
156.3886529848062
 30
0.0
 40
1.249999999997483
100
AcDbArc
 50
120.0000000008986
 51
300.0000000000019
  0
LINE
  5
AD13
330
1F
100
AcDbEntity
  8
0
  6
Continuous
 62
     7
370
    15
100
AcDbLine
 10
723.1308087676871
 20
150.5817306057344
 30
0.0
 11
718.3308076083766
 21
158.8955745861659
 31
0.0
  0
LINE
  5
AD14
330
1F
100
AcDbEntity
  8
0
  6
Continuous
 62
     7
370
    15
100
AcDbLine
 10
723.6135635495291
 20
161.945574061645
 30
0.0
 11
718.3308076083766
 21
158.8955745861659
 31
0.0
  0
LINE
  5
AD15
330
1F
100
AcDbEntity
  8
0
  6
Continuous
 62
     7
370
    15
100
AcDbLine
 10
728.4135628461945
 20
153.6317310125361
 30
0.0
 11
723.6135635495291
 21
161.945574061645
 31
0.0
  0
LINE
  5
AD16
330
1F
100
AcDbEntity
  8
0
  6
Continuous
 62
     7
370
    15
100
AcDbLine
 10
723.1308087676871
 20
150.5817306057344
 30
0.0
 11
728.4135628461945
 21
153.6317310125361
 31
0.0
  0
LINE
  5
AD17
330
1F
100
AcDbEntity
  8
0
  6
Continuous
 62
     7
370
    15
100
AcDbLine
 10
718.3308076083766
 20
158.8955745861659
 30
0.0
 11
718.2308077782498
 21
159.0687800959478
 31
0.0
  0
LINE
  5
AD18
330
1F
100
AcDbEntity
  8
0
  6
Continuous
 62
     7
370
    15
100
AcDbLine
 10
723.6867673665391
 20
162.2187794015536
 30
0.0
 11
718.2308077782498
 21
159.0687800959478
 31
0.0
  0
LINE
  5
AD19
330
1F
100
AcDbEntity
  8
0
  6
Continuous
 62
     7
370
    15
100
AcDbLine
 10
723.6135635495291
 20
161.945574061645
 30
0.0
 11
723.6867673665391
 21
162.2187794015536
 31
0.0
  0
LINE
  5
AD1A
330
1F
100
AcDbEntity
  8
0
  6
Continuous
 62
     7
370
    15
100
AcDbLine
 10
728.6867681861031
 20
153.5585262642036
 30
0.0
 11
723.6867673665391
 21
162.2187794015536
 31
0.0
  0
LINE
  5
AD1B
330
1F
100
AcDbEntity
  8
0
  6
Continuous
 62
     7
370
    15
100
AcDbLine
 10
728.6867681861031
 20
153.5585262642036
 30
0.0
 11
728.4135628461945
 21
153.6317310125361
 31
0.0
  0
LINE
  5
AD1C
330
1F
100
AcDbEntity
  8
0
  6
Continuous
 62
     7
370
    15
100
AcDbLine
 10
718.1576020985947
 20
158.7955747560392
 30
0.0
 11
718.3308076083766
 21
158.8955745861659
 31
0.0
  0
LINE
  5
AD1D
330
1F
100
AcDbEntity
  8
0
  6
Continuous
 62
     7
370
    15
100
AcDbLine
 10
723.1308087676871
 20
150.5817306057344
 30
0.0
 11
722.9576032579053
 21
150.4817307756076
 31
0.0
  0
LINE
  5
AD1E
330
1F
100
AcDbEntity
  8
0
  6
Continuous
 62
     7
370
    15
100
AcDbLine
 10
718.1576020985947
 20
158.7955747560392
 30
0.0
 11
722.9576032579053
 21
150.4817307756076
 31
0.0
  0
LINE
  5
AD1F
330
1F
100
AcDbEntity
  8
0
  6
Continuous
 62
     7
370
    15
100
AcDbLine
 10
718.2308077782498
 20
159.0687800959478
 30
0.0
 11
718.1576020985947
 21
158.7955747560392
 31
0.0
  0
LINE
  5
AD20
330
1F
100
AcDbEntity
  8
0
  6
Continuous
 62
     7
370
    15
100
AcDbLine
 10
713.8274755299199
 20
156.2955752775796
 30
0.0
 11
713.5542701900113
 21
156.3687800259121
 31
0.0
  0
LINE
  5
AD21
330
1F
100
AcDbEntity
  8
0
  6
Continuous
 62
     7
370
    15
100
AcDbLine
 10
713.654270020138
 20
156.1955745161302
 30
0.0
 11
713.8274755299199
 21
156.2955752775796
 31
0.0
  0
LINE
  5
AD22
330
1F
100
AcDbEntity
  8
0
  6
Continuous
 62
     7
370
    15
100
AcDbLine
 10
713.5542701900113
 20
156.3687800259121
 30
0.0
 11
713.654270020138
 21
156.1955745161302
 31
0.0
  0
LINE
  5
AD23
330
1F
100
AcDbEntity
  8
0
  6
Continuous
 62
     7
370
    15
100
AcDbLine
 10
713.654270020138
 20
156.1955745161302
 30
0.0
 11
708.3715159416306
 21
153.1455750406511
 31
0.0
  0
LINE
  5
AD24
330
1F
100
AcDbEntity
  8
0
  6
Continuous
 62
     7
370
    15
100
AcDbLine
 10
708.3715159416306
 20
153.1455750406511
 30
0.0
 11
708.2715161115038
 21
153.3187796191104
 31
0.0
  0
LINE
  5
AD25
330
1F
100
AcDbEntity
  8
0
  6
Continuous
 62
     7
370
    15
100
AcDbLine
 10
713.5542701900113
 20
156.3687800259121
 30
0.0
 11
708.2715161115038
 21
153.3187796191104
 31
0.0
  0
CIRCLE
  5
AD26
330
1F
100
AcDbEntity
  8
0
  6
Continuous
 62
     7
370
    15
100
AcDbCircle
 10
713.1963869131291
 20
150.3886529848062
 30
0.0
 40
1.450000000023948
  0
LINE
  5
AD27
330
1F
100
AcDbEntity
  8
0
  6
Continuous
 62
     7
370
    15
100
AcDbLine
 10
713.1715161696185
 20
144.8317310602195
 30
0.0
 11
708.3715159416306
 21
153.1455750406511
 31
0.0
  0
LINE
  5
AD28
330
1F
100
AcDbEntity
  8
0
  6
Continuous
 62
     7
370
    15
100
AcDbLine
 10
713.654270020138
 20
156.1955745161302
 30
0.0
 11
718.4542711794484
 21
147.8817310013602
 31
0.0
  0
LINE
  5
AD29
330
1F
100
AcDbEntity
  8
0
  6
Continuous
 62
     7
370
    15
100
AcDbLine
 10
713.1715161696185
 20
144.8317310602195
 30
0.0
 11
718.4542711794484
 21
147.8817310013602
 31
0.0
  0
LINE
  5
AD2A
330
1F
100
AcDbEntity
  8
0
  6
Continuous
 62
     7
370
    15
100
AcDbLine
 10
718.6274766892302
 20
147.981730831487
 30
0.0
 11
713.8274755299199
 21
156.2955752775796
 31
0.0
  0
LINE
  5
AD2B
330
1F
100
AcDbEntity
  8
0
  6
Continuous
 62
     7
370
    15
100
AcDbLine
 10
718.6274766892302
 20
147.981730831487
 30
0.0
 11
718.4542711794484
 21
147.8817310013602
 31
0.0
  0
LINE
  5
AD2C
330
1F
100
AcDbEntity
  8
0
  6
Continuous
 62
     7
370
    15
100
AcDbLine
 10
723.2308085978139
 20
150.4085260272751
 30
0.0
 11
728.6867681861031
 21
153.5585262642036
 31
0.0
  0
LINE
  5
AD2D
330
1F
100
AcDbEntity
  8
0
  6
Continuous
 62
     7
370
    15
100
AcDbLine
 10
723.2308085978139
 20
150.4085260272751
 30
0.0
 11
723.1308087676871
 21
150.5817306057344
 31
0.0
  0
LINE
  5
AD2E
330
1F
100
AcDbEntity
  8
0
  6
Continuous
 62
     7
370
    15
100
AcDbLine
 10
708.1983104318488
 20
153.0455752105243
 30
0.0
 11
708.3715159416306
 21
153.1455750406511
 31
0.0
  0
LINE
  5
AD2F
330
1F
100
AcDbEntity
  8
0
  6
Continuous
 62
     7
370
    15
100
AcDbLine
 10
708.2715161115038
 20
153.3187796191104
 30
0.0
 11
708.1983104318488
 21
153.0455752105243
 31
0.0
  0
LINE
  5
AD30
330
1F
100
AcDbEntity
  8
0
  6
Continuous
 62
     7
370
    15
100
AcDbLine
 10
713.1715161696185
 20
144.8317310602195
 30
0.0
 11
712.9983106598366
 21
144.7317309972621
 31
0.0
  0
LINE
  5
AD31
330
1F
100
AcDbEntity
  8
0
  6
Continuous
 62
     7
370
    15
100
AcDbLine
 10
708.1983104318488
 20
153.0455752105243
 30
0.0
 11
712.9983106598366
 21
144.7317309972621
 31
0.0
  0
LINE
  5
AD32
330
1F
100
AcDbEntity
  8
0
  6
Continuous
 62
     7
370
    15
100
AcDbLine
 10
722.9576032579053
 20
150.4817307756076
 30
0.0
 11
723.2308085978139
 21
150.4085260272751
 31
0.0
  0
LINE
  5
AD33
330
1F
100
AcDbEntity
  8
0
  6
Continuous
 62
     7
370
    15
100
AcDbLine
 10
718.5542710095751
 20
147.7085259572396
 30
0.0
 11
718.6274766892302
 21
147.981730831487
 31
0.0
  0
LINE
  5
AD34
330
1F
100
AcDbEntity
  8
0
  6
Continuous
 62
     7
370
    15
100
AcDbLine
 10
718.4542711794484
 20
147.8817310013602
 30
0.0
 11
718.5542710095751
 21
147.7085259572396
 31
0.0
  0
LINE
  5
AD35
330
1F
100
AcDbEntity
  8
0
  6
Continuous
 62
     7
370
    15
100
AcDbLine
 10
713.2715159997452
 20
144.658526016099
 30
0.0
 11
713.1715161696185
 21
144.8317310602195
 31
0.0
  0
LINE
  5
AD36
330
1F
100
AcDbEntity
  8
0
  6
Continuous
 62
     7
370
    15
100
AcDbLine
 10
713.2715159997452
 20
144.658526016099
 30
0.0
 11
718.5542710095751
 21
147.7085259572396
 31
0.0
  0
LINE
  5
AD37
330
1F
100
AcDbEntity
  8
0
  6
Continuous
 62
     7
370
    15
100
AcDbLine
 10
712.9983106598366
 20
144.7317309972621
 30
0.0
 11
713.2715159997452
 21
144.658526016099
 31
0.0
  0
LINE
  5
AD38
330
1F
100
AcDbEntity
  8
0
  6
Continuous
 62
     7
370
    15
100
AcDbLine
 10
702.4804191634169
 20
126.5142085791357
 30
0.0
 11
702.4804191634169
 21
126.3142079875596
 31
0.0
  0
LINE
  5
AD39
330
1F
100
AcDbEntity
  8
0
  6
Continuous
 62
     7
370
    15
100
AcDbLine
 10
692.8804187074414
 20
126.3142079875593
 30
0.0
 11
702.4804191634169
 21
126.3142079875596
 31
0.0
  0
LINE
  5
AD3A
330
1F
100
AcDbEntity
  8
0
  6
Continuous
 62
     7
370
    15
100
AcDbLine
 10
692.8804187074414
 20
126.3142079875593
 30
0.0
 11
692.8804187074414
 21
126.5142085791354
 31
0.0
  0
LINE
  5
AD3B
330
1F
100
AcDbEntity
  8
0
  6
Continuous
 62
     7
370
    15
100
AcDbLine
 10
702.4804191634169
 20
126.5142085791357
 30
0.0
 11
692.8804187074414
 21
126.5142085791354
 31
0.0
  0
LINE
  5
AD3C
330
1F
100
AcDbEntity
  8
0
  6
Continuous
 62
     7
370
    15
100
AcDbLine
 10
692.6804190471878
 20
126.3142079875593
 30
0.0
 11
692.8804187074414
 21
126.3142079875593
 31
0.0
  0
LINE
  5
AD3D
330
1F
100
AcDbEntity
  8
0
  6
Continuous
 62
     7
370
    15
100
AcDbLine
 10
692.8804187074414
 20
126.5142085791354
 30
0.0
 11
692.6804190471878
 21
126.3142079875593
 31
0.0
  0
LINE
  5
AD3E
330
1F
100
AcDbEntity
  8
0
  6
Continuous
 62
     7
370
    15
100
AcDbLine
 10
692.8804187074414
 20
126.3142079875593
 30
0.0
 11
692.8804187074415
 21
120.2142090366011
 31
0.0
  0
LINE
  5
AD3F
330
1F
100
AcDbEntity
  8
0
  6
Continuous
 62
     7
370
    15
100
AcDbLine
 10
692.8804187074415
 20
120.2142090366011
 30
0.0
 11
692.680419047188
 21
120.2142090366011
 31
0.0
  0
LINE
  5
AD40
330
1F
100
AcDbEntity
  8
0
  6
Continuous
 62
     7
370
    15
100
AcDbLine
 10
692.6804190471878
 20
126.3142079875593
 30
0.0
 11
692.680419047188
 21
120.2142090366011
 31
0.0
  0
LINE
  5
AD41
330
1F
100
AcDbEntity
  8
0
  6
Continuous
 62
     7
370
    15
100
AcDbLine
 10
702.4804191634169
 20
126.3142079875596
 30
0.0
 11
702.6804188236704
 21
126.3142079875596
 31
0.0
  0
LINE
  5
AD42
330
1F
100
AcDbEntity
  8
0
  6
Continuous
 62
     7
370
    15
100
AcDbLine
 10
702.6804188236704
 20
126.3142079875596
 30
0.0
 11
702.4804191634169
 21
126.5142085791357
 31
0.0
  0
CIRCLE
  5
AD43
330
1F
100
AcDbEntity
  8
0
  6
Continuous
 62
     7
370
    15
100
AcDbCircle
 10
697.6804189354293
 20
123.5142081188167
 30
0.0
 40
1.450000000033924
  0
LINE
  5
AD44
330
1F
100
AcDbEntity
  8
0
  6
Continuous
 62
     7
370
    15
100
AcDbLine
 10
702.4804191634171
 20
120.2142090366013
 30
0.0
 11
702.4804191634169
 21
126.3142079875596
 31
0.0
  0
LINE
  5
AD45
330
1F
100
AcDbEntity
  8
0
  6
Continuous
 62
     7
370
    15
100
AcDbLine
 10
702.4804191634171
 20
120.2142090366013
 30
0.0
 11
692.8804187074415
 21
120.2142090366011
 31
0.0
  0
LINE
  5
AD46
330
1F
100
AcDbEntity
  8
0
  6
Continuous
 62
     7
370
    15
100
AcDbLine
 10
702.6804188236706
 20
120.2142090366013
 30
0.0
 11
702.4804191634171
 21
120.2142090366013
 31
0.0
  0
LINE
  5
AD47
330
1F
100
AcDbEntity
  8
0
  6
Continuous
 62
     7
370
    15
100
AcDbLine
 10
702.6804188236706
 20
120.2142090366013
 30
0.0
 11
702.6804188236704
 21
126.3142079875596
 31
0.0
  0
LINE
  5
AD48
330
1F
100
AcDbEntity
  8
0
  6
Continuous
 62
     7
370
    15
100
AcDbLine
 10
702.4804191634171
 20
120.0142075137026
 30
0.0
 11
702.6804188236706
 21
120.2142090366013
 31
0.0
  0
LINE
  5
AD49
330
1F
100
AcDbEntity
  8
0
  6
Continuous
 62
     7
370
    15
100
AcDbLine
 10
702.4804191634171
 20
120.2142090366013
 30
0.0
 11
702.4804191634171
 21
120.0142075137026
 31
0.0
  0
LINE
  5
AD4A
330
1F
100
AcDbEntity
  8
0
  6
Continuous
 62
     7
370
    15
100
AcDbLine
 10
692.8804187074415
 20
120.0142075137024
 30
0.0
 11
702.4804191634171
 21
120.0142075137026
 31
0.0
  0
LINE
  5
AD4B
330
1F
100
AcDbEntity
  8
0
  6
Continuous
 62
     7
370
    15
100
AcDbLine
 10
692.8804187074415
 20
120.0142075137024
 30
0.0
 11
692.8804187074415
 21
120.2142090366011
 31
0.0
  0
LINE
  5
AD4C
330
1F
100
AcDbEntity
  8
0
  6
Continuous
 62
     7
370
    15
100
AcDbLine
 10
692.680419047188
 20
120.2142090366011
 30
0.0
 11
692.8804187074415
 21
120.0142075137024
 31
0.0
  0
LINE
  5
AD4D
330
1F
100
AcDbEntity
  8
0
  6
Continuous
 62
     7
370
    15
100
AcDbLine
 10
702.4804191634171
 20
114.8142088965304
 30
0.0
 11
702.6804188236706
 21
114.8142088965304
 31
0.0
  0
LINE
  5
AD4E
330
1F
100
AcDbEntity
  8
0
  6
Continuous
 62
     7
370
    15
100
AcDbLine
 10
702.6804188236707
 20
108.5142084226735
 30
0.0
 11
702.6804188236706
 21
114.8142088965304
 31
0.0
  0
LINE
  5
AD4F
330
1F
100
AcDbEntity
  8
0
  6
Continuous
 62
     7
370
    15
100
AcDbLine
 10
702.6804188236707
 20
108.5142084226735
 30
0.0
 11
702.4804191634172
 21
108.714208082927
 31
0.0
  0
LINE
  5
AD50
330
1F
100
AcDbEntity
  8
0
  6
Continuous
 62
     7
370
    15
100
AcDbLine
 10
702.4804191634172
 20
108.714208082927
 30
0.0
 11
702.4804191634171
 21
114.8142088965304
 31
0.0
  0
LINE
  5
AD51
330
1F
100
AcDbEntity
  8
0
  6
Continuous
 62
     7
370
    15
100
AcDbLine
 10
702.4804191634171
 20
115.0142085567839
 30
0.0
 11
702.4804191634171
 21
114.8142088965304
 31
0.0
  0
LINE
  5
AD52
330
1F
100
AcDbEntity
  8
0
  6
Continuous
 62
     7
370
    15
100
AcDbLine
 10
692.8804187074415
 20
114.8142088965302
 30
0.0
 11
702.4804191634171
 21
114.8142088965304
 31
0.0
  0
LINE
  5
AD53
330
1F
100
AcDbEntity
  8
0
  6
Continuous
 62
     7
370
    15
100
AcDbLine
 10
692.8804187074415
 20
114.8142088965302
 30
0.0
 11
692.8804187074415
 21
115.0142085567837
 31
0.0
  0
LINE
  5
AD54
330
1F
100
AcDbEntity
  8
0
  6
Continuous
 62
     7
370
    15
100
AcDbLine
 10
702.4804191634171
 20
115.0142085567839
 30
0.0
 11
692.8804187074415
 21
115.0142085567837
 31
0.0
  0
LINE
  5
AD55
330
1F
100
AcDbEntity
  8
0
  6
Continuous
 62
     7
370
    15
100
AcDbLine
 10
702.6804188236706
 20
114.8142088965304
 30
0.0
 11
702.4804191634171
 21
115.0142085567839
 31
0.0
  0
CIRCLE
  5
AD56
330
1F
100
AcDbEntity
  8
0
  6
Continuous
 62
     7
370
    15
100
AcDbCircle
 10
697.6804189354294
 20
111.5142081188167
 30
0.0
 40
1.44999999997708
  0
LINE
  5
AD57
330
1F
100
AcDbEntity
  8
0
  6
Continuous
 62
     7
370
    15
100
AcDbLine
 10
692.8804187074416
 20
108.7142080829268
 30
0.0
 11
702.4804191634172
 21
108.714208082927
 31
0.0
  0
LINE
  5
AD58
330
1F
100
AcDbEntity
  8
0
  6
Continuous
 62
     7
370
    15
100
AcDbLine
 10
692.8804187074415
 20
114.8142088965302
 30
0.0
 11
692.8804187074416
 21
108.7142080829268
 31
0.0
  0
LINE
  5
AD59
330
1F
100
AcDbEntity
  8
0
  6
Continuous
 62
     7
370
    15
100
AcDbLine
 10
692.680419047188
 20
114.8142088965302
 30
0.0
 11
692.8804187074415
 21
114.8142088965302
 31
0.0
  0
LINE
  5
AD5A
330
1F
100
AcDbEntity
  8
0
  6
Continuous
 62
     7
370
    15
100
AcDbLine
 10
692.8804187074415
 20
115.0142085567837
 30
0.0
 11
692.680419047188
 21
114.8142088965302
 31
0.0
  0
LINE
  5
AD5B
330
1F
100
AcDbEntity
  8
0
  6
Continuous
 62
     7
370
    15
100
AcDbLine
 10
692.8804187074416
 20
108.7142080829268
 30
0.0
 11
692.6804190471881
 21
108.5142084226732
 31
0.0
  0
LINE
  5
AD5C
330
1F
100
AcDbEntity
  8
0
  6
Continuous
 62
     7
370
    15
100
AcDbLine
 10
692.680419047188
 20
114.8142088965302
 30
0.0
 11
692.6804190471881
 21
108.5142084226732
 31
0.0
  0
LINE
  5
AD5D
330
1F
100
AcDbEntity
  8
0
  6
Continuous
 62
     7
370
    15
100
AcDbLine
 10
692.6804190471881
 20
108.5142084226732
 30
0.0
 11
702.6804188236707
 21
108.5142084226735
 31
0.0
  0
CIRCLE
  5
AD5E
330
1F
100
AcDbEntity
  8
0
  6
Continuous
 62
     7
370
    15
100
AcDbCircle
 10
671.7721461123134
 20
156.3886529848069
 30
0.0
 40
1.450000000085879
  0
LINE
  5
AD5F
330
1F
100
AcDbEntity
  8
0
  6
Continuous
 62
     7
370
    15
100
AcDbLine
 10
677.0300302624808
 20
158.8955745861652
 30
0.0
 11
672.2300291031706
 21
150.5817306057337
 31
0.0
  0
LINE
  5
AD60
330
1F
100
AcDbEntity
  8
0
  6
Continuous
 62
     7
370
    15
100
AcDbLine
 10
666.9472750246632
 20
153.6317310125354
 30
0.0
 11
672.2300291031706
 21
150.5817306057337
 31
0.0
  0
LINE
  5
AD61
330
1F
100
AcDbEntity
  8
0
  6
Continuous
 62
     7
370
    15
100
AcDbLine
 10
671.7472743213282
 20
161.9455740616444
 30
0.0
 11
666.9472750246632
 21
153.6317310125354
 31
0.0
  0
LINE
  5
AD62
330
1F
100
AcDbEntity
  8
0
  6
Continuous
 62
     7
370
    15
100
AcDbLine
 10
677.0300302624808
 20
158.8955745861652
 30
0.0
 11
671.7472743213282
 21
161.9455740616444
 31
0.0
  0
LINE
  5
AD63
330
1F
100
AcDbEntity
  8
0
  6
Continuous
 62
     7
370
    15
100
AcDbLine
 10
666.9472750246632
 20
153.6317310125354
 30
0.0
 11
666.6740696847546
 21
153.5585262642029
 31
0.0
  0
LINE
  5
AD64
330
1F
100
AcDbEntity
  8
0
  6
Continuous
 62
     7
370
    15
100
AcDbLine
 10
671.6740705043183
 20
162.218779401553
 30
0.0
 11
666.6740696847546
 21
153.5585262642029
 31
0.0
  0
LINE
  5
AD65
330
1F
100
AcDbEntity
  8
0
  6
Continuous
 62
     7
370
    15
100
AcDbLine
 10
671.6740705043183
 20
162.218779401553
 30
0.0
 11
671.7472743213282
 21
161.9455740616444
 31
0.0
  0
LINE
  5
AD66
330
1F
100
AcDbEntity
  8
0
  6
Continuous
 62
     7
370
    15
100
AcDbLine
 10
677.1300300926076
 20
159.0687800959471
 30
0.0
 11
671.6740705043183
 21
162.218779401553
 31
0.0
  0
LINE
  5
AD67
330
1F
100
AcDbEntity
  8
0
  6
Continuous
 62
     7
370
    15
100
AcDbLine
 10
677.1300300926076
 20
159.0687800959471
 30
0.0
 11
677.0300302624808
 21
158.8955745861652
 31
0.0
  0
LINE
  5
AD68
330
1F
100
AcDbEntity
  8
0
  6
Continuous
 62
     7
370
    15
100
AcDbLine
 10
677.2032357722626
 20
158.7955747560385
 30
0.0
 11
677.1300300926076
 21
159.0687800959471
 31
0.0
  0
LINE
  5
AD69
330
1F
100
AcDbEntity
  8
0
  6
Continuous
 62
     7
370
    15
100
AcDbLine
 10
677.0300302624808
 20
158.8955745861652
 30
0.0
 11
677.2032357722626
 21
158.7955747560385
 31
0.0
  0
LINE
  5
AD6A
330
1F
100
AcDbEntity
  8
0
  6
Continuous
 62
     7
370
    15
100
AcDbLine
 10
672.4032346129525
 20
150.4817307756069
 30
0.0
 11
672.2300291031706
 21
150.5817306057337
 31
0.0
  0
LINE
  5
AD6B
330
1F
100
AcDbEntity
  8
0
  6
Continuous
 62
     7
370
    15
100
AcDbLine
 10
672.4032346129525
 20
150.4817307756069
 30
0.0
 11
677.2032357722626
 21
158.7955747560385
 31
0.0
  0
LINE
  5
AD6C
330
1F
100
AcDbEntity
  8
0
  6
Continuous
 62
     7
370
    15
100
AcDbLine
 10
687.0893217593539
 20
153.3187796191101
 30
0.0
 11
686.9893219292271
 21
153.1455750406509
 31
0.0
  0
LINE
  5
AD6D
330
1F
100
AcDbEntity
  8
0
  6
Continuous
 62
     7
370
    15
100
AcDbLine
 10
686.9893219292271
 20
153.1455750406509
 30
0.0
 11
681.7065678507195
 21
156.19557451613
 31
0.0
  0
LINE
  5
AD6E
330
1F
100
AcDbEntity
  8
0
  6
Continuous
 62
     7
370
    15
100
AcDbLine
 10
681.7065678507195
 20
156.19557451613
 30
0.0
 11
681.8065676808463
 21
156.3687800259118
 31
0.0
  0
LINE
  5
AD6F
330
1F
100
AcDbEntity
  8
0
  6
Continuous
 62
     7
370
    15
100
AcDbLine
 10
687.0893217593539
 20
153.3187796191101
 30
0.0
 11
681.8065676808463
 21
156.3687800259118
 31
0.0
  0
LINE
  5
AD70
330
1F
100
AcDbEntity
  8
0
  6
Continuous
 62
     7
370
    15
100
AcDbLine
 10
681.8065676808463
 20
156.3687800259118
 30
0.0
 11
681.5333623409377
 21
156.2955752775793
 31
0.0
  0
LINE
  5
AD71
330
1F
100
AcDbEntity
  8
0
  6
Continuous
 62
     7
370
    15
100
AcDbLine
 10
681.5333623409377
 20
156.2955752775793
 30
0.0
 11
681.7065678507195
 21
156.19557451613
 31
0.0
  0
CIRCLE
  5
AD72
330
1F
100
AcDbEntity
  8
0
  6
Continuous
 62
     7
370
    15
100
AcDbCircle
 10
682.1644509577268
 20
150.388652984807
 30
0.0
 40
1.450000000041399
  0
LINE
  5
AD73
330
1F
100
AcDbEntity
  8
0
  6
Continuous
 62
     7
370
    15
100
AcDbLine
 10
686.9893219292271
 20
153.1455750406509
 30
0.0
 11
682.1893217012394
 21
144.8317310602193
 31
0.0
  0
LINE
  5
AD74
330
1F
100
AcDbEntity
  8
0
  6
Continuous
 62
     7
370
    15
100
AcDbLine
 10
676.9065666914094
 20
147.8817310013595
 30
0.0
 11
682.1893217012394
 21
144.8317310602193
 31
0.0
  0
LINE
  5
AD75
330
1F
100
AcDbEntity
  8
0
  6
Continuous
 62
     7
370
    15
100
AcDbLine
 10
676.9065666914094
 20
147.8817310013595
 30
0.0
 11
681.7065678507195
 21
156.19557451613
 31
0.0
  0
LINE
  5
AD76
330
1F
100
AcDbEntity
  8
0
  6
Continuous
 62
     7
370
    15
100
AcDbLine
 10
676.9065666914094
 20
147.8817310013595
 30
0.0
 11
676.7333611816275
 21
147.9817308314863
 31
0.0
  0
LINE
  5
AD77
330
1F
100
AcDbEntity
  8
0
  6
Continuous
 62
     7
370
    15
100
AcDbLine
 10
681.5333623409377
 20
156.2955752775793
 30
0.0
 11
676.7333611816275
 21
147.9817308314863
 31
0.0
  0
LINE
  5
AD78
330
1F
100
AcDbEntity
  8
0
  6
Continuous
 62
     7
370
    15
100
AcDbLine
 10
672.2300291031706
 20
150.5817306057337
 30
0.0
 11
672.1300292730439
 21
150.4085260272744
 31
0.0
  0
LINE
  5
AD79
330
1F
100
AcDbEntity
  8
0
  6
Continuous
 62
     7
370
    15
100
AcDbLine
 10
666.6740696847546
 20
153.5585262642029
 30
0.0
 11
672.1300292730439
 21
150.4085260272744
 31
0.0
  0
LINE
  5
AD7A
330
1F
100
AcDbEntity
  8
0
  6
Continuous
 62
     7
370
    15
100
AcDbLine
 10
682.3625272110213
 20
144.7317309972619
 30
0.0
 11
682.1893217012394
 21
144.8317310602193
 31
0.0
  0
LINE
  5
AD7B
330
1F
100
AcDbEntity
  8
0
  6
Continuous
 62
     7
370
    15
100
AcDbLine
 10
686.9893219292271
 20
153.1455750406509
 30
0.0
 11
687.162527439009
 21
153.0455752105241
 31
0.0
  0
LINE
  5
AD7C
330
1F
100
AcDbEntity
  8
0
  6
Continuous
 62
     7
370
    15
100
AcDbLine
 10
682.3625272110213
 20
144.7317309972619
 30
0.0
 11
687.162527439009
 21
153.0455752105241
 31
0.0
  0
LINE
  5
AD7D
330
1F
100
AcDbEntity
  8
0
  6
Continuous
 62
     7
370
    15
100
AcDbLine
 10
687.162527439009
 20
153.0455752105241
 30
0.0
 11
687.0893217593539
 21
153.3187796191101
 31
0.0
  0
LINE
  5
AD7E
330
1F
100
AcDbEntity
  8
0
  6
Continuous
 62
     7
370
    15
100
AcDbLine
 10
672.1300292730439
 20
150.4085260272744
 30
0.0
 11
672.4032346129525
 21
150.4817307756069
 31
0.0
  0
LINE
  5
AD7F
330
1F
100
AcDbEntity
  8
0
  6
Continuous
 62
     7
370
    15
100
AcDbLine
 10
676.8065668612826
 20
147.708525957239
 30
0.0
 11
676.9065666914094
 21
147.8817310013595
 31
0.0
  0
LINE
  5
AD80
330
1F
100
AcDbEntity
  8
0
  6
Continuous
 62
     7
370
    15
100
AcDbLine
 10
682.1893217012394
 20
144.8317310602193
 30
0.0
 11
682.0893218711127
 21
144.6585260160988
 31
0.0
  0
LINE
  5
AD81
330
1F
100
AcDbEntity
  8
0
  6
Continuous
 62
     7
370
    15
100
AcDbLine
 10
676.8065668612826
 20
147.708525957239
 30
0.0
 11
682.0893218711127
 21
144.6585260160988
 31
0.0
  0
LINE
  5
AD82
330
1F
100
AcDbEntity
  8
0
  6
Continuous
 62
     7
370
    15
100
AcDbLine
 10
676.7333611816275
 20
147.9817308314863
 30
0.0
 11
676.8065668612826
 21
147.708525957239
 31
0.0
  0
LINE
  5
AD83
330
1F
100
AcDbEntity
  8
0
  6
Continuous
 62
     7
370
    15
100
AcDbLine
 10
682.0893218711127
 20
144.6585260160988
 30
0.0
 11
682.3625272110213
 21
144.7317309972619
 31
0.0
  0
CIRCLE
  5
AD84
330
1F
100
AcDbEntity
  8
0
  6
Continuous
 62
     7
370
    15
100
AcDbCircle
 10
713.1963869131291
 20
150.3886529848062
 30
0.0
 40
1.24999999999831
  0
CIRCLE
  5
AD85
330
1F
100
AcDbEntity
  8
0
  6
Continuous
 62
     7
370
    15
100
AcDbCircle
 10
697.6804189354293
 20
123.5142081188167
 30
0.0
 40
1.249999999970441
  0
CIRCLE
  5
AD86
330
1F
100
AcDbEntity
  8
0
  6
Continuous
 62
     7
370
    15
100
AcDbCircle
 10
682.1644509577268
 20
150.388652984807
 30
0.0
 40
1.250000000015782
  0
CIRCLE
  5
AD87
330
1F
100
AcDbEntity
  8
0
  6
Continuous
 62
     7
370
    15
100
AcDbCircle
 10
671.7721461123134
 20
156.3886529848069
 30
0.0
 40
1.250000000046048
  0
CIRCLE
  5
AD88
330
1F
100
AcDbEntity
  8
0
  6
Continuous
 62
     7
370
    15
100
AcDbCircle
 10
697.6804189354294
 20
111.5142081188167
 30
0.0
 40
1.250000000027284
  0
LINE
  5
AD89
330
1F
100
AcDbEntity
  8
0
  6
Continuous
 62
     7
370
    15
100
AcDbLine
 10
718.1576020985947
 20
158.7955747560392
 30
0.0
 11
713.8274755299199
 21
156.2955752775796
 31
0.0
  0
LINE
  5
AD8A
330
1F
100
AcDbEntity
  8
0
  6
Continuous
 62
     7
370
    15
100
AcDbLine
 10
718.2308077782498
 20
159.0687800959478
 30
0.0
 11
713.5542701900113
 21
156.3687800259121
 31
0.0
  0
CIRCLE
  5
AD8B
330
1F
100
AcDbEntity
  8
0
  6
Continuous
 62
     7
370
    15
100
AcDbCircle
 10
718.3925393358357
 20
153.3886529848063
 30
0.0
 40
2.200000000022356
  0
LINE
  5
AD8C
330
1F
100
AcDbEntity
  8
0
  6
Continuous
 62
     7
370
    15
100
AcDbLine
 10
718.6274766892302
 20
147.981730831487
 30
0.0
 11
722.9576032579053
 21
150.4817307756076
 31
0.0
  0
LINE
  5
AD8D
330
1F
100
AcDbEntity
  8
0
  6
Continuous
 62
     7
370
    15
100
AcDbLine
 10
718.5542710095751
 20
147.7085259572396
 30
0.0
 11
723.2308085978139
 21
150.4085260272751
 31
0.0
  0
CIRCLE
  5
AD8E
330
1F
100
AcDbEntity
  8
0
  6
Continuous
 62
     7
370
    15
100
AcDbCircle
 10
697.6804189354293
 20
117.514208118817
 30
0.0
 40
2.200000000016189
  0
LINE
  5
AD8F
330
1F
100
AcDbEntity
  8
0
  6
Continuous
 62
     7
370
    15
100
AcDbLine
 10
702.4804191634171
 20
115.0142085567839
 30
0.0
 11
702.4804191634171
 21
120.0142075137026
 31
0.0
  0
LINE
  5
AD90
330
1F
100
AcDbEntity
  8
0
  6
Continuous
 62
     7
370
    15
100
AcDbLine
 10
692.8804187074415
 20
120.0142075137024
 30
0.0
 11
692.8804187074415
 21
115.0142085567837
 31
0.0
  0
LINE
  5
AD91
330
1F
100
AcDbEntity
  8
0
  6
Continuous
 62
     7
370
    15
100
AcDbLine
 10
692.680419047188
 20
120.2142090366011
 30
0.0
 11
692.680419047188
 21
114.8142088965302
 31
0.0
  0
LINE
  5
AD92
330
1F
100
AcDbEntity
  8
0
  6
Continuous
 62
     7
370
    15
100
AcDbLine
 10
702.6804188236706
 20
114.8142088965304
 30
0.0
 11
702.6804188236706
 21
120.2142090366013
 31
0.0
  0
LINE
  5
AD93
330
1F
100
AcDbEntity
  8
0
  6
Continuous
 62
     7
370
    15
100
AcDbLine
 10
681.5333623409377
 20
156.2955752775793
 30
0.0
 11
677.2032357722626
 21
158.7955747560385
 31
0.0
  0
LINE
  5
AD94
330
1F
100
AcDbEntity
  8
0
  6
Continuous
 62
     7
370
    15
100
AcDbLine
 10
681.8065676808463
 20
156.3687800259118
 30
0.0
 11
677.1300300926076
 21
159.0687800959471
 31
0.0
  0
CIRCLE
  5
AD95
330
1F
100
AcDbEntity
  8
0
  6
Continuous
 62
     7
370
    15
100
AcDbCircle
 10
676.96829853502
 20
153.388652984807
 30
0.0
 40
2.199999999957341
  0
LINE
  5
AD96
330
1F
100
AcDbEntity
  8
0
  6
Continuous
 62
     7
370
    15
100
AcDbLine
 10
672.4032346129525
 20
150.4817307756069
 30
0.0
 11
676.7333611816275
 21
147.9817308314863
 31
0.0
  0
LINE
  5
AD97
330
1F
100
AcDbEntity
  8
0
  6
Continuous
 62
     7
370
    15
100
AcDbLine
 10
672.1300292730439
 20
150.4085260272744
 30
0.0
 11
676.8065668612826
 21
147.708525957239
 31
0.0
  0
CIRCLE
  5
AD98
330
1F
100
AcDbEntity
  8
0
  6
Continuous
 62
     7
370
    15
100
AcDbCircle
 10
718.3925393358357
 20
153.3886529848063
 30
0.0
 40
1.999999999982516
  0
CIRCLE
  5
AD99
330
1F
100
AcDbEntity
  8
0
  6
Continuous
 62
     7
370
    15
100
AcDbCircle
 10
676.96829853502
 20
153.388652984807
 30
0.0
 40
2.000000000044395
  0
CIRCLE
  5
AD9A
330
1F
100
AcDbEntity
  8
0
  6
Continuous
 62
     7
370
    15
100
AcDbCircle
 10
697.6804189354293
 20
117.5142081188167
 30
0.0
 40
2.000000000066393
  0
LINE
  5
AD9B
330
1F
100
AcDbEntity
  8
0
  6
Continuous
 62
     7
370
    15
100
AcDbLine
 10
707.4969034612286
 20
152.64061752863
 30
0.0
 11
708.1983104318488
 21
153.0455752105243
 31
0.0
  0
LINE
  5
AD9C
330
1F
100
AcDbEntity
  8
0
  6
Continuous
 62
     7
370
    15
100
AcDbLine
 10
712.2969036892165
 20
144.3267735481985
 30
0.0
 11
712.9983106598366
 21
144.7317309972621
 31
0.0
  0
LINE
  5
AD9D
330
1F
100
AcDbEntity
  8
0
  6
Continuous
 62
     7
370
    15
100
AcDbLine
 10
707.3969036311019
 20
152.8138221070893
 30
0.0
 11
708.2715161115038
 21
153.3187796191104
 31
0.0
  0
LINE
  5
AD9E
330
1F
100
AcDbEntity
  8
0
  6
Continuous
 62
     7
370
    15
100
AcDbLine
 10
712.3969035193432
 20
144.1535685040779
 30
0.0
 11
713.2715159997452
 21
144.658526016099
 31
0.0
  0
LINE
  5
AD9F
330
1F
100
AcDbEntity
  8
0
  6
Continuous
 62
     7
370
    15
100
AcDbLine
 10
702.4804191634169
 20
127.3241230116017
 30
0.0
 11
702.4804191634169
 21
126.5142085791357
 31
0.0
  0
LINE
  5
ADA0
330
1F
100
AcDbEntity
  8
0
  6
Continuous
 62
     7
370
    15
100
AcDbLine
 10
692.8804187074414
 20
127.3241230116015
 30
0.0
 11
692.8804187074414
 21
126.5142085791354
 31
0.0
  0
LINE
  5
ADA1
330
1F
100
AcDbEntity
  8
0
  6
Continuous
 62
     7
370
    15
100
AcDbLine
 10
702.6804188236704
 20
127.3241230116017
 30
0.0
 11
702.6804188236704
 21
126.3142079875596
 31
0.0
  0
LINE
  5
ADA2
330
1F
100
AcDbEntity
  8
0
  6
Continuous
 62
     7
370
    15
100
AcDbLine
 10
692.6804190471878
 20
127.3241230116015
 30
0.0
 11
692.6804190471878
 21
126.3142079875593
 31
0.0
  0
LINE
  5
ADA3
330
1F
100
AcDbEntity
  8
0
  6
Continuous
 62
     7
370
    15
100
AcDbLine
 10
687.8639344096291
 20
152.6406175286298
 30
0.0
 11
687.162527439009
 21
153.0455752105241
 31
0.0
  0
LINE
  5
ADA4
330
1F
100
AcDbEntity
  8
0
  6
Continuous
 62
     7
370
    15
100
AcDbLine
 10
687.9639342397559
 20
152.8138221070891
 30
0.0
 11
687.0893217593539
 21
153.3187796191101
 31
0.0
  0
LINE
  5
ADA5
330
1F
100
AcDbEntity
  8
0
  6
Continuous
 62
     7
370
    15
100
AcDbLine
 10
683.0639341816414
 20
144.3267735481982
 30
0.0
 11
682.3625272110213
 21
144.7317309972619
 31
0.0
  0
LINE
  5
ADA6
330
1F
100
AcDbEntity
  8
0
  6
Continuous
 62
     7
370
    15
100
AcDbLine
 10
682.9639343515147
 20
144.1535685040777
 30
0.0
 11
682.0893218711127
 21
144.6585260160988
 31
0.0
  0
CIRCLE
  5
ADA7
330
1F
100
AcDbEntity
  8
0
  6
Continuous
 62
     7
370
    15
100
AcDbCircle
 10
697.6804189354286
 20
169.4305046961434
 30
0.0
 40
2.749999999999985
  0
ARC
  5
ADA8
330
1F
100
AcDbEntity
  8
0
  6
Continuous
 62
     7
370
    15
100
AcDbCircle
 10
697.680418935429
 20
141.4305046961434
 30
0.0
 40
32.0
100
AcDbArc
 50
81.0107006548384
 51
98.98929934516317
  0
CIRCLE
  5
ADA9
330
1F
100
AcDbEntity
  8
0
  6
Continuous
 62
     7
370
    15
100
AcDbCircle
 10
673.4317076294647
 20
127.4305046961432
 30
0.0
 40
2.749999999999992
  0
ARC
  5
ADAA
330
1F
100
AcDbEntity
  8
0
  6
Continuous
 62
     7
370
    15
100
AcDbCircle
 10
697.680418935429
 20
141.4305046961434
 30
0.0
 40
32.00000000000001
100
AcDbArc
 50
201.0107006548355
 51
218.9892993451616
  0
CIRCLE
  5
ADAB
330
1F
100
AcDbEntity
  8
0
  6
Continuous
 62
     7
370
    15
100
AcDbCircle
 10
721.9291302413934
 20
127.4305046961434
 30
0.0
 40
2.750000000000003
  0
ARC
  5
ADAC
330
1F
100
AcDbEntity
  8
0
  6
Continuous
 62
     7
370
    15
100
AcDbCircle
 10
697.680418935429
 20
141.4305046961434
 30
0.0
 40
32.00000000000001
100
AcDbArc
 50
321.0107006548394
 51
338.9892993451647
  0
LINE
  5
ADAD
330
1F
100
AcDbEntity
  8
0
  6
Continuous
 62
     7
370
    15
100
AcDbLine
 10
673.4240703255043
 20
165.2498693034771
 30
0.0
 11
675.2131484419212
 21
164.2169431612614
 31
0.0
  0
LINE
  5
ADAE
330
1F
100
AcDbEntity
  8
0
  6
Continuous
 62
     7
370
    15
100
AcDbLine
 10
673.1740698188648
 20
164.8168564603451
 30
0.0
 11
674.8476024687395
 21
163.850640954149
 31
0.0
  0
LINE
  5
ADAF
330
1F
100
AcDbEntity
  8
0
  6
Continuous
 62
     7
370
    15
100
AcDbLine
 10
673.4240703255043
 20
165.2498693034771
 30
0.0
 11
673.1740698188648
 21
164.8168564603451
 31
0.0
  0
LINE
  5
ADB0
330
1F
100
AcDbEntity
  8
0
  6
Continuous
 62
     7
370
    15
100
AcDbLine
 10
671.956913170229
 20
162.7086774275425
 30
0.0
 11
673.1728348851309
 21
162.0066650972488
 31
0.0
  0
LINE
  5
ADB1
330
1F
100
AcDbEntity
  8
0
  6
Continuous
 62
     7
370
    15
100
AcDbLine
 10
671.956913170229
 20
162.7086774275425
 30
0.0
 11
673.1740698188648
 21
164.8168564603451
 31
0.0
  0
LINE
  5
ADB2
330
1F
100
AcDbEntity
  8
0
  6
Continuous
 62
     7
370
    15
100
AcDbLine
 10
666.8476030200827
 20
149.9942346305373
 30
0.0
 11
665.1740685075629
 21
150.9604501367333
 31
0.0
  0
LINE
  5
ADB3
330
1F
100
AcDbEntity
  8
0
  6
Continuous
 62
     7
370
    15
100
AcDbLine
 10
667.607150596391
 20
152.3666149765971
 30
0.0
 11
666.391228881489
 21
153.0686282382133
 31
0.0
  0
LINE
  5
ADB4
330
1F
100
AcDbEntity
  8
0
  6
Continuous
 62
     7
370
    15
100
AcDbLine
 10
665.1740685075629
 20
150.9604501367333
 30
0.0
 11
666.391228881489
 21
153.0686282382133
 31
0.0
  0
LINE
  5
ADB5
330
1F
100
AcDbEntity
  8
0
  6
Continuous
 62
     7
370
    15
100
AcDbLine
 10
664.9240717262137
 20
150.5274372936013
 30
0.0
 11
666.7131498426306
 21
149.4945111513856
 31
0.0
  0
LINE
  5
ADB6
330
1F
100
AcDbEntity
  8
0
  6
Continuous
 62
     7
370
    15
100
AcDbLine
 10
665.1740685075629
 20
150.9604501367333
 30
0.0
 11
664.9240717262137
 21
150.5274372936013
 31
0.0
  0
LINE
  5
ADB7
330
1F
100
AcDbEntity
  8
0
  6
Continuous
 62
     7
370
    15
100
AcDbLine
 10
728.9696089893687
 20
153.068628238214
 30
0.0
 11
727.7536872744668
 21
152.3666149765978
 31
0.0
  0
LINE
  5
ADB8
330
1F
100
AcDbEntity
  8
0
  6
Continuous
 62
     7
370
    15
100
AcDbLine
 10
730.1867693632948
 20
150.960450136734
 30
0.0
 11
728.513234850775
 21
149.994234630538
 31
0.0
  0
LINE
  5
ADB9
330
1F
100
AcDbEntity
  8
0
  6
Continuous
 62
     7
370
    15
100
AcDbLine
 10
728.9696089893687
 20
153.068628238214
 30
0.0
 11
730.1867693632948
 21
150.960450136734
 31
0.0
  0
LINE
  5
ADBA
330
1F
100
AcDbEntity
  8
0
  6
Continuous
 62
     7
370
    15
100
AcDbLine
 10
728.6867681861031
 20
153.5585262642036
 30
0.0
 11
728.9696089893687
 21
153.068628238214
 31
0.0
  0
LINE
  5
ADBB
330
1F
100
AcDbEntity
  8
0
  6
Continuous
 62
     7
370
    15
100
AcDbLine
 10
720.5132354021177
 20
163.8506409541497
 30
0.0
 11
722.1867680519924
 21
164.8168564603458
 31
0.0
  0
LINE
  5
ADBC
330
1F
100
AcDbEntity
  8
0
  6
Continuous
 62
     7
370
    15
100
AcDbLine
 10
722.1880029857264
 20
162.0066650972495
 30
0.0
 11
723.4039247006283
 21
162.7086774275432
 31
0.0
  0
LINE
  5
ADBD
330
1F
100
AcDbEntity
  8
0
  6
Continuous
 62
     7
370
    15
100
AcDbLine
 10
722.1867680519924
 20
164.8168564603458
 30
0.0
 11
723.4039247006283
 21
162.7086774275432
 31
0.0
  0
LINE
  5
ADBE
330
1F
100
AcDbEntity
  8
0
  6
Continuous
 62
     7
370
    15
100
AcDbLine
 10
721.9367675453529
 20
165.2498693034778
 30
0.0
 11
720.147689428936
 21
164.2169431612621
 31
0.0
  0
LINE
  5
ADBF
330
1F
100
AcDbEntity
  8
0
  6
Continuous
 62
     7
370
    15
100
AcDbLine
 10
722.1867680519924
 20
164.8168564603458
 30
0.0
 11
721.9367675453529
 21
165.2498693034778
 31
0.0
  0
LINE
  5
ADC0
330
1F
100
AcDbEntity
  8
0
  6
Continuous
 62
     7
370
    15
100
AcDbLine
 10
671.6740705043183
 20
162.218779401553
 30
0.0
 11
671.956913170229
 21
162.7086774275425
 31
0.0
  0
LINE
  5
ADC1
330
1F
100
AcDbEntity
  8
0
  6
Continuous
 62
     7
370
    15
100
AcDbLine
 10
723.4039247006283
 20
162.7086774275432
 30
0.0
 11
723.6867673665391
 21
162.2187794015536
 31
0.0
  0
LINE
  5
ADC2
330
1F
100
AcDbEntity
  8
0
  6
Continuous
 62
     7
370
    15
100
AcDbLine
 10
723.6867673665391
 20
162.2187794015536
 30
0.0
 11
723.9696100324498
 21
161.7288813755641
 31
0.0
  0
LINE
  5
ADC3
330
1F
100
AcDbEntity
  8
0
  6
Continuous
 62
     7
370
    15
100
AcDbLine
 10
666.391228881489
 20
153.0686282382133
 30
0.0
 11
666.6740696847546
 21
153.5585262642029
 31
0.0
  0
LINE
  5
ADC4
330
1F
100
AcDbEntity
  8
0
  6
Continuous
 62
     7
370
    15
100
AcDbLine
 10
728.4039255201924
 20
154.0484242901931
 30
0.0
 11
728.6867681861031
 21
153.5585262642036
 31
0.0
  0
LINE
  5
ADC5
330
1F
100
AcDbEntity
  8
0
  6
Continuous
 62
     7
370
    15
100
AcDbLine
 10
730.436766144644
 20
150.527437293602
 30
0.0
 11
728.6476880282271
 21
149.4945111513863
 31
0.0
  0
LINE
  5
ADC6
330
1F
100
AcDbEntity
  8
0
  6
Continuous
 62
     7
370
    15
100
AcDbLine
 10
730.436766144644
 20
150.527437293602
 30
0.0
 11
730.1867693632948
 21
150.960450136734
 31
0.0
  0
LINE
  5
ADC7
330
1F
100
AcDbEntity
  8
0
  6
Continuous
 62
     7
370
    15
100
AcDbLine
 10
706.1804193973654
 20
108.5142084226735
 30
0.0
 11
706.1804193973654
 21
110.5800588444598
 31
0.0
  0
LINE
  5
ADC8
330
1F
100
AcDbEntity
  8
0
  6
Continuous
 62
     7
370
    15
100
AcDbLine
 10
705.680419315409
 20
110.4466375724204
 30
0.0
 11
705.680419315409
 21
108.5142084226735
 31
0.0
  0
LINE
  5
ADC9
330
1F
100
AcDbEntity
  8
0
  6
Continuous
 62
     7
370
    15
100
AcDbLine
 10
706.1804193973654
 20
108.5142084226735
 30
0.0
 11
705.680419315409
 21
108.5142084226735
 31
0.0
  0
LINE
  5
ADCA
330
1F
100
AcDbEntity
  8
0
  6
Continuous
 62
     7
370
    15
100
AcDbLine
 10
689.1804184734934
 20
108.5142084226732
 30
0.0
 11
689.1804184734934
 21
110.5800588444596
 31
0.0
  0
LINE
  5
ADCB
330
1F
100
AcDbEntity
  8
0
  6
Continuous
 62
     7
370
    15
100
AcDbLine
 10
689.6804185554498
 20
108.5142084226732
 30
0.0
 11
689.6804185554498
 21
110.4466375724201
 31
0.0
  0
LINE
  5
ADCC
102
{ACAD_REACTORS
330
B25E
102
}
330
1F
100
AcDbEntity
  8
0
  6
Continuous
 62
     7
370
    15
100
AcDbLine
 10
689.1804184734934
 20
108.5142084226732
 30
0.0
 11
689.6804185554498
 21
108.5142084226732
 31
0.0
  0
LINE
  5
ADCD
330
1F
100
AcDbEntity
  8
0
  6
Continuous
 62
     7
370
    15
100
AcDbLine
 10
702.6804188236707
 20
108.5142084226735
 30
0.0
 11
702.1147334918492
 21
108.5142084226735
 31
0.0
  0
LINE
  5
ADCE
330
1F
100
AcDbEntity
  8
0
  6
Continuous
 62
     7
370
    15
100
AcDbLine
 10
692.1147337153667
 20
108.5142084226732
 30
0.0
 11
692.1147337153667
 21
109.9182330832606
 31
0.0
  0
LINE
  5
ADCF
330
1F
100
AcDbEntity
  8
0
  6
Continuous
 62
     7
370
    15
100
AcDbLine
 10
692.6804190471881
 20
108.5142084226732
 30
0.0
 11
692.1147337153667
 21
108.5142084226732
 31
0.0
  0
LINE
  5
ADD0
330
1F
100
AcDbEntity
  8
0
  6
Continuous
 62
     7
370
    15
100
AcDbLine
 10
693.2461043790095
 20
108.5142084226732
 30
0.0
 11
692.6804190471881
 21
108.5142084226732
 31
0.0
  0
LINE
  5
ADD1
330
1F
100
AcDbEntity
  8
0
  6
Continuous
 62
     7
370
    15
100
AcDbLine
 10
703.2461041554921
 20
109.9182330832608
 30
0.0
 11
703.2461041554921
 21
108.5142084226735
 31
0.0
  0
LINE
  5
ADD2
330
1F
100
AcDbEntity
  8
0
  6
Continuous
 62
     7
370
    15
100
AcDbLine
 10
702.6804188236707
 20
108.5142084226735
 30
0.0
 11
703.2461041554921
 21
108.5142084226735
 31
0.0
  0
LINE
  5
ADD3
330
1F
100
AcDbEntity
  8
0
  6
Continuous
 62
     7
370
    15
100
AcDbLine
 10
692.1147337153667
 20
108.5142084226732
 30
0.0
 11
689.6804185554498
 21
108.5142084226732
 31
0.0
  0
LINE
  5
ADD4
330
1F
100
AcDbEntity
  8
0
  6
Continuous
 62
     7
370
    15
100
AcDbLine
 10
705.680419315409
 20
108.5142084226735
 30
0.0
 11
703.2461041554921
 21
108.5142084226735
 31
0.0
  0
LINE
  5
ADD5
330
1F
100
AcDbEntity
  8
0
  6
Continuous
 62
     7
370
    15
100
AcDbLine
 10
671.3912278384076
 20
161.7288813755634
 30
0.0
 11
671.6740705043183
 21
162.218779401553
 31
0.0
  0
LINE
  5
ADD6
330
1F
100
AcDbEntity
  8
0
  6
Continuous
 62
     7
370
    15
100
AcDbLine
 10
666.6740696847546
 20
153.5585262642029
 30
0.0
 11
666.9569123506653
 21
154.0484242901924
 31
0.0
  0
DIMENSION
  5
B250
102
{ACAD_XDICTIONARY
360
B25D
102
}
102
{ACAD_REACTORS
330
B25E
102
}
330
1F
100
AcDbEntity
  8
AM_REFDIM
100
AcDbDimension
  2
*D16
 10
665.7420309565118
 20
108.5142084226733
 30
0.0
 11
662.9759851856897
 21
117.5142085009045
 31
0.0
 70
    32
 71
     5
 42
18.00000015646219
  3
AM_ISO$0
100
AcDbAlignedDimension
 13
692.8804187074414
 23
126.5142085791354
 33
0.0
 14
689.1804184734934
 24
108.5142084226732
 34
0.0
 50
90.0
100
AcDbRotatedDimension
1001
ACAD
1000
DSTYLE
1002
{
1070
    40
1040
1.005834825753484
1070
   271
1070
     0
1002
}
  0
ENDSEC
  0
SECTION
  2
OBJECTS
  0
DICTIONARY
  5
C
330
0
100
AcDbDictionary
281
     1
  3
ACAD_COLOR
350
BE
  3
ACAD_GROUP
350
D
  3
ACAD_LAYOUT
350
1A
  3
ACAD_MATERIAL
350
BD
  3
ACAD_MLINESTYLE
350
17
  3
ACAD_PLOTSETTINGS
350
19
  3
ACAD_PLOTSTYLENAME
350
E
  3
ACAD_TABLESTYLE
350
11A
  3
AcadDim
350
7BA5
  3
ACDBHEADERROUNDTRIPXREC
350
B2D9
  3
AcDbVariableDictionary
350
94
  3
AcmDictionary
350
5B
  3
AMG
350
41
  3
AMGSNAPSETTINGS
350
1B8
  3
ASE_INDEX_DICTIONARY
350
AFCA
  3
DWGPROPS
350
B2D8
  3
MAPISURF_MODULE
350
7C9D
  0
DICTIONARY
  5
3F9
330
2
100
AcDbDictionary
280
     1
281
     1
  3
ACAD_LAYERFILTERS
360
99D5
  3
ACAD_LAYERSTATES
360
CA0
  3
ACLYDICTIONARY
360
99D4
  3
AMLAYER_GROUPCOLORS
360
18A7
  0
DICTIONARY
  5
8F
330
1F
100
AcDbDictionary
280
     1
281
     1
  3
ACAD_INDEX
360
B065
  3
ACAD_SORTENTS
360
18D9
  0
DICTIONARY
  5
7CF3
330
7CF2
100
AcDbDictionary
280
     1
281
     1
  0
DICTIONARY
  5
A58B
330
A57E
100
AcDbDictionary
280
     1
281
     1
  3
ACAD_DIMASSOC
360
A58C
  0
DICTIONARY
  5
B25D
330
B250
100
AcDbDictionary
280
     1
281
     1
  3
ACAD_DIMASSOC
360
B25E
  0
DICTIONARY
  5
BE
102
{ACAD_REACTORS
330
C
102
}
330
C
100
AcDbDictionary
281
     1
  0
DICTIONARY
  5
D
102
{ACAD_REACTORS
330
C
102
}
330
C
100
AcDbDictionary
281
     1
  0
DICTIONARY
  5
1A
102
{ACAD_REACTORS
330
C
102
}
330
C
100
AcDbDictionary
281
     1
  3
Model
350
22
  3
配置1
350
1E
  3
配置2
350
26
  0
DICTIONARY
  5
BD
102
{ACAD_REACTORS
330
C
102
}
330
C
100
AcDbDictionary
281
     1
  0
DICTIONARY
  5
17
102
{ACAD_REACTORS
330
C
102
}
330
C
100
AcDbDictionary
281
     1
  3
Standard
350
18
  0
DICTIONARY
  5
19
102
{ACAD_REACTORS
330
C
102
}
330
C
100
AcDbDictionary
281
     1
  0
ACDBDICTIONARYWDFLT
  5
E
102
{ACAD_REACTORS
330
C
102
}
330
C
100
AcDbDictionary
281
     1
  3
Normal
350
F
100
AcDbDictionaryWithDefault
340
F
  0
DICTIONARY
  5
11A
102
{ACAD_REACTORS
330
C
102
}
330
C
100
AcDbDictionary
281
     1
  3
Standard
350
11B
  0
XRECORD
  5
7BA5
102
{ACAD_REACTORS
330
C
102
}
330
C
100
AcDbXrecord
280
     1
 90
   990106
  3

 60
     4
 61
     0
 62
     4
 63
     4
 64
     1
 65
     0
 66
     0
 67
     3
 68
     0
 69
     0
 70
     0
 71
     0
 72
     0
 40
0.0
170
     0
340
7BA1
  0
DICTIONARY
  5
B2D9
102
{ACAD_REACTORS
330
C
102
}
330
C
100
AcDbDictionary
281
     1
  0
DICTIONARY
  5
94
102
{ACAD_REACTORS
330
C
102
}
330
C
100
AcDbDictionary
281
     1
  3
CTABLESTYLE
350
138
  3
DIMASSOC
350
96
  3
INDEXCTL
350
95
  3
PROJECTNAME
350
1BA0
  0
DICTIONARY
  5
5B
102
{ACAD_REACTORS
330
C
102
}
330
C
100
AcDbDictionary
281
     1
  3
AcmBOM
350
1B5
  3
AcmStdDictionary
350
61
  3
AMDTSECTSYM_ARROWCOLOR
350
123
  0
DICTIONARY
  5
41
102
{ACAD_REACTORS
330
C
102
}
330
C
100
AcDbDictionary
281
     1
  3
AcMgSettings
350
7C17
  0
DICTIONARY
  5
1B8
102
{ACAD_REACTORS
330
C
102
}
330
C
100
AcDbDictionary
281
     1
  0
DICTIONARY
  5
AFCA
102
{ACAD_REACTORS
330
C
102
}
330
C
100
AcDbDictionary
281
     1
  3
ASEBlockHierarchyIndexRecord
350
AFCB
1001
DCO15
1040
1757072206.906
  0
XRECORD
  5
B2D8
102
{ACAD_REACTORS
330
C
102
}
330
C
100
AcDbXrecord
280
     1
  1
DWGPROPS COOKIE
  2

  3

  4

  6

  7

  8

  9

300
AmdtFileType=84
301
=
302
=
303
=
304
=
305
=
306
=
307
=
308
=
309
=
 40
1.103833217592592
 41
2454422.344345151
 42
2456140.359884433
  1

 90
        1
  0
DICTIONARY
  5
99D5
102
{ACAD_REACTORS
330
3F9
102
}
330
3F9
100
AcDbDictionary
281
     1
  0
DICTIONARY
  5
CA0
102
{ACAD_REACTORS
330
3F9
102
}
330
3F9
100
AcDbDictionary
281
     1
  0
DICTIONARY
  5
99D4
102
{ACAD_REACTORS
330
3F9
102
}
330
3F9
100
AcDbDictionary
281
     1
1001
ACAD
1000
<All
  0
DICTIONARY
  5
18A7
102
{ACAD_REACTORS
330
3F9
102
}
330
3F9
100
AcDbDictionary
280
     1
281
     1
  0
DICTIONARY
  5
B065
102
{ACAD_REACTORS
330
8F
102
}
330
8F
100
AcDbDictionary
281
     1
  3
*A1
350
B066
  0
SORTENTSTABLE
  5
18D9
102
{ACAD_REACTORS
330
8F
102
}
330
8F
100
AcDbSortentsTable
330
1F
331
15EB
  5
15EB
331
15AF
  5
15AF
331
15F5
  5
15F5
331
15D7
  5
15D7
331
159B
  5
159B
331
15B9
  5
15B9
331
15C3
  5
15C3
331
15A5
  5
15A5
331
15E1
  5
15E1
331
15EC
  5
15EC
331
15B0
  5
15B0
331
15F6
  5
15F6
331
159C
  5
159C
331
15D8
  5
15D8
331
15E2
  5
15E2
331
15C4
  5
15C4
331
15A6
  5
15A6
331
15ED
  5
15ED
331
15F7
  5
15F7
331
159D
  5
159D
331
15D9
  5
15D9
331
15E3
  5
15E3
331
15A7
  5
15A7
331
15A8
  5
15A8
331
15EE
  5
15EE
331
15D0
  5
15D0
331
15DA
  5
15DA
331
159E
  5
159E
331
15F8
  5
15F8
331
15E4
  5
15E4
331
15A9
  5
15A9
331
15D1
  5
15D1
331
15F9
  5
15F9
331
15DB
  5
15DB
331
15BD
  5
15BD
331
159F
  5
159F
331
7BA1
  5
7BA1
331
15E5
  5
15E5
331
15AA
  5
15AA
331
15C8
  5
15C8
331
15D2
  5
15D2
331
15B4
  5
15B4
331
15F0
  5
15F0
331
15FA
  5
15FA
331
15DC
  5
15DC
331
15BE
  5
15BE
331
15A0
  5
15A0
331
15E6
  5
15E6
331
15AB
  5
15AB
331
15F1
  5
15F1
331
15FB
  5
15FB
331
15DD
  5
15DD
331
15BF
  5
15BF
331
15A1
  5
15A1
331
15E7
  5
15E7
331
15AC
  5
15AC
331
15E8
  5
15E8
331
15F2
  5
15F2
331
15DE
  5
15DE
331
15C0
  5
15C0
331
15A2
  5
15A2
331
15E9
  5
15E9
331
15AD
  5
15AD
331
15F3
  5
15F3
331
1599
  5
1599
331
15DF
  5
15DF
331
15A3
  5
15A3
331
15C1
  5
15C1
331
15EA
  5
15EA
331
15CC
  5
15CC
331
15AE
  5
15AE
331
15F4
  5
15F4
331
15D6
  5
15D6
331
15B8
  5
15B8
331
159A
  5
159A
331
15C2
  5
15C2
331
15A4
  5
15A4
331
15E0
  5
15E0
  0
DIMASSOC
  5
A58C
102
{ACAD_REACTORS
330
A58B
102
}
330
A58B
100
AcDbDimAssoc
330
A57E
 90
        1
 70
     0
 71
     0
  1
AcDbOsnapPointRef
 72
     1
331
99DA
 73
     0
 91
        0
 40
0.0
 10
0.0
 20
0.0
 30
2.000000000000000E+50
 75
     0
  0
DIMASSOC
  5
B25E
102
{ACAD_REACTORS
330
B25D
102
}
330
B25D
100
AcDbDimAssoc
330
B250
 90
        2
 70
     0
 71
     0
  1
AcDbOsnapPointRef
 72
    13
331
ADCC
 73
     0
 91
        0
 40
0.0
 10
0.0
 20
0.0
 30
2.000000000000000E+50
 75
     0
  0
LAYOUT
  5
22
102
{ACAD_XDICTIONARY
360
B2DC
102
}
102
{ACAD_REACTORS
330
1A
102
}
330
1A
100
AcDbPlotSettings
  1

  2
\\RD\EPSON Stylus C63 Series單色
  4
A4
  6

 40
3.757083177566528
 41
3.757076978683471
 42
3.757080078125
 43
3.757080078125
 44
209.9733276367187
 45
296.9683227539062
 46
0.0
 47
0.0
 48
0.0
 49
0.0
140
0.0
141
0.0
142
1.0
143
0.3405120737814363
 70
 11952
 72
     1
 73
     0
 74
     0
  7
acad.ctb
 75
     0
147
2.936753428137963
148
-2047.07469463503
149
-1261.649717473083
100
AcDbLayout
  1
Model
 70
     1
 71
     0
 10
0.0
 20
0.0
 11
12.0
 21
9.0
 12
0.0
 22
0.0
 32
0.0
 14
0.0
 24
0.0
 34
0.0
 15
0.0
 25
0.0
 35
0.0
146
0.0
 13
0.0
 23
0.0
 33
0.0
 16
1.0
 26
0.0
 36
0.0
 17
0.0
 27
1.0
 37
0.0
 76
     0
330
1F
1001
ACAD_PSEXT
1000
\\RD\EPSON Stylus C63 Series單色
1000
EPSON Stylus C63 Series
1000
\\RD
1000

1070
     0
  0
LAYOUT
  5
1E
102
{ACAD_XDICTIONARY
360
B2DA
102
}
102
{ACAD_REACTORS
330
1A
102
}
330
1A
100
AcDbPlotSettings
  1

  2

  4

  6

 40
0.0
 41
0.0
 42
0.0
 43
0.0
 44
0.0
 45
0.0
 46
0.0
 47
0.0
 48
0.0
 49
0.0
140
0.0
141
0.0
142
1.0
143
1.0
 70
   688
 72
     0
 73
     0
 74
     5
  7
acad.ctb
 75
    16
147
1.0
148
0.0
149
0.0
100
AcDbLayout
  1
配置1
 70
     1
 71
     1
 10
0.0
 20
0.0
 11
420.0
 21
297.0
 12
0.0
 22
0.0
 32
0.0
 14
1.000000000000000E+20
 24
1.000000000000000E+20
 34
1.000000000000000E+20
 15
-1.000000000000000E+20
 25
-1.000000000000000E+20
 35
-1.000000000000000E+20
146
0.0
 13
0.0
 23
0.0
 33
0.0
 16
1.0
 26
0.0
 36
0.0
 17
0.0
 27
1.0
 37
0.0
 76
     0
330
1B
  0
LAYOUT
  5
26
102
{ACAD_XDICTIONARY
360
B2DE
102
}
102
{ACAD_REACTORS
330
1A
102
}
330
1A
100
AcDbPlotSettings
  1

  2

  4

  6

 40
0.0
 41
0.0
 42
0.0
 43
0.0
 44
0.0
 45
0.0
 46
0.0
 47
0.0
 48
0.0
 49
0.0
140
0.0
141
0.0
142
1.0
143
1.0
 70
   688
 72
     0
 73
     0
 74
     5
  7
acad.ctb
 75
    16
147
1.0
148
0.0
149
0.0
100
AcDbLayout
  1
配置2
 70
     1
 71
     2
 10
0.0
 20
0.0
 11
12.0
 21
9.0
 12
0.0
 22
0.0
 32
0.0
 14
0.0
 24
0.0
 34
0.0
 15
0.0
 25
0.0
 35
0.0
146
0.0
 13
0.0
 23
0.0
 33
0.0
 16
1.0
 26
0.0
 36
0.0
 17
0.0
 27
1.0
 37
0.0
 76
     0
330
23
  0
MLINESTYLE
  5
18
102
{ACAD_REACTORS
330
17
102
}
330
17
100
AcDbMlineStyle
  2
STANDARD
 70
     0
  3

 62
   256
 51
90.0
 52
90.0
 71
     2
 49
0.5
 62
   256
  6
BYLAYER
 49
-0.5
 62
   256
  6
BYLAYER
  0
ACDBPLACEHOLDER
  5
F
102
{ACAD_REACTORS
330
E
102
}
330
E
  0
TABLESTYLE
  5
11B
102
{ACAD_REACTORS
330
11A
102
}
330
11A
100
AcDbTableStyle
  3
Standard
 70
     0
 71
     0
 40
1.5
 41
1.5
280
     0
281
     0
  7
STANDARD
140
4.5
170
     2
 62
     0
 63
     7
283
     0
274
    -2
284
     1
 64
     0
275
    -2
285
     1
 65
     0
276
    -2
286
     1
 66
     0
277
    -2
287
     1
 67
     0
278
    -2
288
     1
 68
     0
279
    -2
289
     1
 69
     0
  7
STANDARD
140
6.0
170
     5
 62
     0
 63
     7
283
     0
274
    -2
284
     1
 64
     0
275
    -2
285
     1
 65
     0
276
    -2
286
     1
 66
     0
277
    -2
287
     1
 67
     0
278
    -2
288
     1
 68
     0
279
    -2
289
     1
 69
     0
  7
STANDARD
140
4.5
170
     5
 62
     0
 63
     7
283
     0
274
    -2
284
     1
 64
     0
275
    -2
285
     1
 65
     0
276
    -2
286
     1
 66
     0
277
    -2
287
     1
 67
     0
278
    -2
288
     1
 68
     0
279
    -2
289
     1
 69
     0
  0
DICTIONARYVAR
  5
138
102
{ACAD_REACTORS
330
94
102
}
330
94
100
DictionaryVariables
280
     0
  1
STANDARD
  0
DICTIONARYVAR
  5
96
102
{ACAD_REACTORS
330
94
102
}
330
94
100
DictionaryVariables
280
     0
  1
2
  0
DICTIONARYVAR
  5
95
102
{ACAD_REACTORS
330
94
102
}
330
94
100
DictionaryVariables
280
     0
  1
1
  0
DICTIONARYVAR
  5
1BA0
102
{ACAD_REACTORS
330
94
102
}
330
94
100
DictionaryVariables
280
     0
  1

  0
DICTIONARY
  5
1B5
102
{ACAD_REACTORS
330
5B
102
}
330
5B
100
AcDbDictionary
281
     1
  0
DICTIONARY
  5
61
102
{ACAD_REACTORS
330
5B
102
}
330
5B
100
AcDbDictionary
281
     1
  0
XRECORD
  5
123
102
{ACAD_REACTORS
330
5B
102
}
330
5B
100
AcDbXrecord
280
     1
 90
-1023410169
  0
DICTIONARY
  5
7C17
102
{ACAD_REACTORS
330
41
102
}
330
41
100
AcDbDictionary
281
     1
  3
DWGSETTINGS
350
7C18
  3
Shaft
350
8D15
  3
TRANSSETTINGS
350
7C1B
  0
XRECORD
  5
AFCB
102
{ACAD_REACTORS
330
AFCA
102
}
330
AFCA
100
AcDbXrecord
280
     1
  0
LAYER_INDEX
  5
B066
102
{ACAD_REACTORS
330
B065
102
}
330
B065
100
AcDbIndex
 40
2456140.359884433
100
AcDbLayerIndex
  8
0
360
B067
 90
      495
  8
Defpoints
360
B068
 90
        0
  8
AM_5
360
B069
 90
        0
  8
AM_4
360
B06A
 90
        0
  8
AM_VIS
360
B06B
 90
        1
  8
AM_HID
360
B06C
 90
        0
  8
AM_7
360
B06D
 90
        2
  8
LOGO
360
B06E
 90
       90
  8
AM_REFDIM
360
B06F
 90
       15
  8
CEN
360
B070
 90
        0
  8
HATCH
360
B071
 90
        0
  8
SL
360
B072
 90
        0
  8
AM_10
360
B073
 90
        0
  0
DICTIONARY
  5
B2DC
330
22
100
AcDbDictionary
280
     1
281
     1
  3
ACAD_XREC_ROUNDTRIP
360
B2DD
  0
DICTIONARY
  5
B2DA
330
1E
100
AcDbDictionary
280
     1
281
     1
  3
ACAD_XREC_ROUNDTRIP
360
B2DB
  0
DICTIONARY
  5
B2DE
330
26
100
AcDbDictionary
280
     1
281
     1
  3
ACAD_XREC_ROUNDTRIP
360
B2DF
  0
IDBUFFER
  5
B067
330
0
100
AcDbIdBuffer
330
16B4
330
16B5
330
16B6
330
ABEB
330
ABEC
330
ABED
330
ABEE
330
ABEF
330
ABF0
330
ABF1
330
ABF2
330
ABF3
330
ABF4
330
ABF5
330
ABF6
330
ABF7
330
ABF8
330
ABF9
330
ABFA
330
ABFB
330
ABFC
330
ABFD
330
ABFE
330
ABFF
330
AC00
330
AC01
330
AC02
330
AC03
330
AC04
330
AC05
330
AC06
330
AC07
330
AC08
330
AC09
330
AC0A
330
AC0B
330
AC0C
330
AC0D
330
AC0E
330
AC0F
330
AC10
330
AC11
330
AC12
330
AC13
330
AC14
330
AC15
330
AC16
330
AC17
330
AC18
330
AC19
330
AC1A
330
AC1B
330
AC1C
330
AC1D
330
AC1E
330
AC1F
330
AC20
330
AC21
330
AC22
330
AC23
330
AC24
330
AC25
330
AC26
330
AC27
330
AC28
330
AC29
330
AC2A
330
AC2B
330
AC2C
330
AC2D
330
AC2E
330
AC2F
330
AC30
330
AC31
330
AC32
330
AC33
330
AC34
330
AC35
330
AC36
330
AC37
330
AC38
330
AC39
330
AC3A
330
AC3B
330
AC3C
330
AC3D
330
AC3E
330
AC3F
330
AC40
330
AC41
330
AC42
330
AC43
330
AC44
330
AC45
330
AC46
330
AC47
330
AC48
330
AC49
330
AC4A
330
AC4B
330
AC4C
330
AC4D
330
AC4E
330
AC4F
330
AC50
330
AC51
330
AC52
330
AC53
330
AC54
330
AC55
330
AC56
330
AC57
330
AC58
330
AC59
330
AC5A
330
AC5B
330
AC5C
330
AC5D
330
AC5E
330
AC5F
330
AC60
330
AC61
330
AC62
330
AC63
330
AC64
330
AC65
330
AC66
330
AC67
330
AC68
330
AC69
330
AC6A
330
AC6B
330
AC6C
330
AC6D
330
AC6E
330
AC6F
330
AC70
330
AC71
330
AC72
330
AC73
330
AC74
330
AC75
330
AC76
330
AC77
330
AC78
330
AC79
330
AC7A
330
AC7B
330
AC7C
330
AC7D
330
AC7E
330
AC7F
330
AC80
330
AC81
330
AC82
330
AC83
330
AC84
330
AC85
330
AC86
330
AC87
330
AC88
330
AC89
330
AC8A
330
AC8B
330
AC8C
330
AC8D
330
AC8E
330
AC8F
330
AC90
330
AC91
330
AC92
330
AC93
330
AC94
330
AC95
330
AC96
330
AC97
330
AC98
330
AC99
330
AC9A
330
AC9B
330
AC9C
330
AC9D
330
AC9E
330
AC9F
330
ACA0
330
ACA1
330
ACA2
330
ACA3
330
ACA4
330
ACA5
330
ACA6
330
ACA7
330
ACA8
330
ACA9
330
ACAA
330
ACAB
330
ACAC
330
ACAD
330
ACAE
330
ACAF
330
ACB0
330
ACB1
330
ACB2
330
ACB3
330
ACB4
330
ACB5
330
ACB6
330
ACB7
330
ACB8
330
ACB9
330
ACBA
330
ACBB
330
ACBC
330
ACBD
330
ACBE
330
ACBF
330
ACC0
330
ACC1
330
ACC2
330
ACC3
330
ACC4
330
ACC5
330
ACC6
330
ACC7
330
ACC8
330
ACC9
330
ACCA
330
ACCB
330
ACCC
330
ACCD
330
ACCE
330
ACCF
330
ACD0
330
ACD1
330
ACD2
330
ACD3
330
ACD4
330
ACD5
330
ACD6
330
ACD7
330
ACD8
330
ACD9
330
ACDA
330
ACDB
330
ACDC
330
ACDD
330
ACDE
330
ACDF
330
ACE0
330
ACE1
330
ACE2
330
ACE3
330
ACE4
330
ACE5
330
ACE6
330
ACE7
330
ACE8
330
ACE9
330
ACEA
330
ACEB
330
ACEC
330
ACED
330
ACEE
330
ACEF
330
ACF0
330
ACF1
330
ACF2
330
ACF3
330
ACF4
330
ACF5
330
ACF6
330
ACF7
330
ACF8
330
ACF9
330
ACFA
330
ACFB
330
ACFC
330
ACFD
330
ACFE
330
ACFF
330
AD00
330
AD01
330
AD02
330
AD03
330
AD04
330
AD05
330
AD06
330
AD07
330
AD08
330
AD09
330
AD0A
330
AD0B
330
AD0C
330
AD0D
330
AD0E
330
AD0F
330
AD10
330
AD11
330
AD12
330
AD13
330
AD14
330
AD15
330
AD16
330
AD17
330
AD18
330
AD19
330
AD1A
330
AD1B
330
AD1C
330
AD1D
330
AD1E
330
AD1F
330
AD20
330
AD21
330
AD22
330
AD23
330
AD24
330
AD25
330
AD26
330
AD27
330
AD28
330
AD29
330
AD2A
330
AD2B
330
AD2C
330
AD2D
330
AD2E
330
AD2F
330
AD30
330
AD31
330
AD32
330
AD33
330
AD34
330
AD35
330
AD36
330
AD37
330
AD38
330
AD39
330
AD3A
330
AD3B
330
AD3C
330
AD3D
330
AD3E
330
AD3F
330
AD40
330
AD41
330
AD42
330
AD43
330
AD44
330
AD45
330
AD46
330
AD47
330
AD48
330
AD49
330
AD4A
330
AD4B
330
AD4C
330
AD4D
330
AD4E
330
AD4F
330
AD50
330
AD51
330
AD52
330
AD53
330
AD54
330
AD55
330
AD56
330
AD57
330
AD58
330
AD59
330
AD5A
330
AD5B
330
AD5C
330
AD5D
330
AD5E
330
AD5F
330
AD60
330
AD61
330
AD62
330
AD63
330
AD64
330
AD65
330
AD66
330
AD67
330
AD68
330
AD69
330
AD6A
330
AD6B
330
AD6C
330
AD6D
330
AD6E
330
AD6F
330
AD70
330
AD71
330
AD72
330
AD73
330
AD74
330
AD75
330
AD76
330
AD77
330
AD78
330
AD79
330
AD7A
330
AD7B
330
AD7C
330
AD7D
330
AD7E
330
AD7F
330
AD80
330
AD81
330
AD82
330
AD83
330
AD84
330
AD85
330
AD86
330
AD87
330
AD88
330
AD89
330
AD8A
330
AD8B
330
AD8C
330
AD8D
330
AD8E
330
AD8F
330
AD90
330
AD91
330
AD92
330
AD93
330
AD94
330
AD95
330
AD96
330
AD97
330
AD98
330
AD99
330
AD9A
330
AD9B
330
AD9C
330
AD9D
330
AD9E
330
AD9F
330
ADA0
330
ADA1
330
ADA2
330
ADA3
330
ADA4
330
ADA5
330
ADA6
330
ADA7
330
ADA8
330
ADA9
330
ADAA
330
ADAB
330
ADAC
330
ADAD
330
ADAE
330
ADAF
330
ADB0
330
ADB1
330
ADB2
330
ADB3
330
ADB4
330
ADB5
330
ADB6
330
ADB7
330
ADB8
330
ADB9
330
ADBA
330
ADBB
330
ADBC
330
ADBD
330
ADBE
330
ADBF
330
ADC0
330
ADC1
330
ADC2
330
ADC3
330
ADC4
330
ADC5
330
ADC6
330
ADC7
330
ADC8
330
ADC9
330
ADCA
330
ADCB
330
ADCC
330
ADCD
330
ADCE
330
ADCF
330
ADD0
330
ADD1
330
ADD2
330
ADD3
330
ADD4
330
ADD5
330
ADD6
  0
IDBUFFER
  5
B068
330
0
100
AcDbIdBuffer
  0
IDBUFFER
  5
B069
330
0
100
AcDbIdBuffer
  0
IDBUFFER
  5
B06A
330
0
100
AcDbIdBuffer
  0
IDBUFFER
  5
B06B
330
0
100
AcDbIdBuffer
330
7BA1
  0
IDBUFFER
  5
B06C
330
0
100
AcDbIdBuffer
  0
IDBUFFER
  5
B06D
330
0
100
AcDbIdBuffer
330
99DA
330
99DB
  0
IDBUFFER
  5
B06E
330
0
100
AcDbIdBuffer
330
1599
330
159A
330
159B
330
159C
330
159D
330
159E
330
159F
330
15A0
330
15A1
330
15A2
330
15A3
330
15A4
330
15A5
330
15A6
330
15A7
330
15A8
330
15A9
330
15AA
330
15AB
330
15AC
330
15AD
330
15AE
330
15AF
330
15B0
330
15B4
330
15B8
330
15B9
330
15BD
330
15BE
330
15BF
330
15C0
330
15C1
330
15C2
330
15C3
330
15C4
330
15C8
330
15CC
330
15D0
330
15D1
330
15D2
330
15D6
330
15D7
330
15D8
330
15D9
330
15DA
330
15DB
330
15DC
330
15DD
330
15DE
330
15DF
330
15E0
330
15E1
330
15E2
330
15E3
330
15E4
330
15E5
330
15E6
330
15E7
330
15E8
330
15E9
330
15EA
330
15EB
330
15EC
330
15ED
330
15EE
330
15F0
330
15F1
330
15F2
330
15F3
330
15F4
330
15F5
330
15F6
330
15F7
330
15F8
330
15F9
330
15FA
330
15FB
330
9C94
330
9C95
330
9C96
330
9C97
330
9C98
330
9C99
330
9C9A
330
9C9B
330
9C9C
330
9C9E
330
9C9F
330
9CA0
330
9CA2
  0
IDBUFFER
  5
B06F
330
0
100
AcDbIdBuffer
330
B250
330
A516
330
A540
330
A57E
330
A622
330
A67B
330
A6A1
330
A724
330
A77B
330
A7A5
330
A7CB
330
A889
330
A88C
330
A890
330
A895
  0
IDBUFFER
  5
B070
330
0
100
AcDbIdBuffer
  0
IDBUFFER
  5
B071
330
0
100
AcDbIdBuffer
  0
IDBUFFER
  5
B072
330
0
100
AcDbIdBuffer
  0
IDBUFFER
  5
B073
330
0
100
AcDbIdBuffer
  0
XRECORD
  5
B2DD
102
{ACAD_REACTORS
330
B2DC
102
}
330
B2DC
100
AcDbXrecord
280
     1
102
SHADEPLOT
 70
     0
102
SHADEPLOTRESLEVEL
 70
     2
102
SHADEPLOTCUSTOMDPI
 70
   300
  0
XRECORD
  5
B2DB
102
{ACAD_REACTORS
330
B2DA
102
}
330
B2DA
100
AcDbXrecord
280
     1
102
SHADEPLOT
 70
     0
102
SHADEPLOTRESLEVEL
 70
     2
102
SHADEPLOTCUSTOMDPI
 70
   300
  0
XRECORD
  5
B2DF
102
{ACAD_REACTORS
330
B2DE
102
}
330
B2DE
100
AcDbXrecord
280
     1
102
SHADEPLOT
 70
     0
102
SHADEPLOTRESLEVEL
 70
     2
102
SHADEPLOTCUSTOMDPI
 70
   300
  0
ENDSEC
  0
EOF
